  0
SECTION
  2
HEADER
  9
$ACADVER
  1
AC1006
  9
$INSBASE
 10
0.000000
 20
0.000000
 30
0.0
  9
$EXTMIN
 10
0.000000
 20
0.000000
  9
$EXTMAX
 10
3640.000000
 20
2570.000000
  9
$LIMMIN
 10
0.000000
 20
0.000000
  9
$LIMMAX
 10
3640.000000
 20
2570.000000
  9
$VIEWCTR
 10
1820.000000
 20
1285.000000
  9
$VIEWSIZE
 40
2570.000000
  9
$SNAPMODE
 70
     0
  9
$SNAPUNIT
 10
1.0
 20
1.0
  9
$SNAPBASE
 10
0.0
 20
0.0
  9
$SNAPANG
 50
0.0
  9
$SNAPSTYLE
 70
     0
  9
$SNAPISOPAIR
 70
     0
  9
$GRIDMODE
 70
     0
  9
$GRIDUNIT
 10
0.0
 20
0.0
  9
$ORTHOMODE
 70
     0
  9
$REGENMODE
 70
     1
  9
$FILLMODE
 70
     1
  9
$QTEXTMODE
 70
     0
  9
$DRAGMODE
 70
     2
  9
$LTSCALE
 40
15.000000
  9
$OSMODE
 70
     0
  9
$ATTMODE
 70
     1
  9
$TEXTSIZE
 40
0.2
  9
$TRACEWID
 40
0.05
  9
$TEXTSTYLE
  7
STANDARD
  9
$CLAYER
  8
CSLAYER1
  9
$CELTYPE
  6
BYLAYER
  9
$CECOLOR
 62
   256
  9
$DIMSCALE
 40
1.0
  9
$DIMASZ
 40
0.18
  9
$DIMEXO
 40
0.0625
  9
$DIMDLI
 40
0.38
  9
$DIMRND
 40
0.0
  9
$DIMDLE
 40
0.0
  9
$DIMEXE
 40
0.18
  9
$DIMTP
 40
0.0
  9
$DIMTM
 40
0.0
  9
$DIMTXT
 40
0.18
  9
$DIMCEN
 40
0.09
  9
$DIMTSZ
 40
0.0
  9
$DIMTOL
 70
     0
  9
$DIMLIM
 70
     0
  9
$DIMTIH
 70
     1
  9
$DIMTOH
 70
     1
  9
$DIMSE1
 70
     0
  9
$DIMSE2
 70
     0
  9
$DIMTAD
 70
     0
  9
$DIMZIN
 70
     0
  9
$DIMBLK
  1

  9
$LUNITS
 70
     2
  9
$LUPREC
 70
     4
  9
$AXISMODE
 70
     0
  9
$AXISUNIT
 10
0.0
 20
0.0
  9
$SKETCHINC
 40
0.1
  9
$FILLETRAD
 40
0.0
  9
$AUNITS
 70
     0
  9
$AUPREC
 70
     0
  9
$MENU
  1
ACAD
  9
$ELEVATION
 40
0.0
  9
$THICKNESS
 40
0.0
  9
$VIEWDIR
 10
0.0
 20
0.0
 30
1.0
  9
$LIMCHECK
 70
     0
  9
$BLIPMODE
 70
     1
  9
$CHAMFERA
 40
0.0
  9
$CHAMFERB
 40
0.0
  9
$FASTZOOM
 70
     1
  9
$SKPOLY
 70
     0
  9
$TDCREATE
 40
2456676.000000
  9
$TDUPDATE
 40
2456676.000000
  9
$TDINDWG
 40
0.0
  9
$TDUSRTIMER
 40
0.0
  9
$USRTIMER
 70
     1
  9
$ANGBASE
 50
0.0
  9
$ANGDIR
 70
     0
  9
$PDMODE
 70
     0
  9
$PDSIZE
 40
0.0
  9
$PLINEWID
 40
0.0
  9
$COORDS
 70
     0
  9
$USERI1
 70
     0
  9
$USERI2
 70
     0
  9
$USERI3
 70
     0
  9
$USERI4
 70
     0
  9
$USERI5
 70
     0
  9
$USERR1
 40
0.0
  9
$USERR2
 40
0.0
  9
$USERR3
 40
0.0
  9
$USERR4
 40
0.0
  9
$USERR5
 40
0.0
  0
ENDSEC
  0
SECTION
  2
TABLES
  0
TABLE
  2
LTYPE
 70
     9
  0
LTYPE
  2
CONTINUOUS
 70
    64
  3
Solid line
 72
    65
 73
     0
 40
0.0
  0
LTYPE
  2
DASHED
 70
    64
  3
__ __ __ __ __ __ __ __ __ __ __ __ __ __ __
 72
    65
 73
     2
 40
0.75
 49
0.5
 49
-0.25
  0
LTYPE
  2
HIDDEN
 70
    64
  3
_ _ _ _ _ _ _ _ _ _ _ _ _ _ _ _ _ _ _ _ _ _ _
 72
    65
 73
     2
 40
0.375
 49
0.25
 49
-0.125
  0
LTYPE
  2
DOT
 70
    64
  3
...............................................
 72
    65
 73
     2
 40
0.25
 49
0.0
 49
-0.25
  0
LTYPE
  2
DASHDOT
 70
    64
  3
__ . __ . __ . __ . __ . __ . __ . __ . __ . __
 72
    65
 73
     4
 40
1.0
 49
0.5
 49
-0.25
 49
0.0
 49
-0.25
  0
LTYPE
  2
DIVIDE
 70
    64
  3
__ . . __ . . __ . . __ . . __ . . __ . . __
 72
    65
 73
     6
 40
1.25
 49
0.5
 49
-0.25
 49
0.0
 49
-0.25
 49
0.0
 49
-0.25
  0
LTYPE
  2
CENTER
 70
    64
  3
____ _ ____ _ ____ _ ____ _ ____ _ ____ _ ____ 
 72
    65
 73
     4
 40
2.0
 49
1.25
 49
-0.25
 49
0.25
 49
-0.25
  0
LTYPE
  2
PHANTOM
 70
    64
  3
______  __  __  ______  __  __  ______  __  __ 
 72
    65
 73
     6
 40
2.5
 49
1.25
 49
-0.25
 49
0.25
 49
-0.25
 49
0.25
 49
-0.25
  0
LTYPE
  2
BORDER
 70
    64
  3
__ __ . __ __ . __ __ . __ __ . __ __ . __ __ .
 72
    65
 73
     6
 40
1.75
 49
0.5
 49
-0.25
 49
0.5
 49
-0.25
 49
0.0
 49
-0.25
  0
ENDTAB
  0
TABLE
  2
LAYER
 70
    16
  0
LAYER
  2
CSLAYER1
 70
    64
 62
     7
  6
CONTINUOUS
  0
LAYER
  2
CSLAYER2
 70
    64
 62
     7
  6
CONTINUOUS
  0
LAYER
  2
CSLAYER3
 70
    64
 62
     7
  6
CONTINUOUS
  0
LAYER
  2
CSLAYER4
 70
    64
 62
     7
  6
CONTINUOUS
  0
LAYER
  2
CSLAYER5
 70
    64
 62
     7
  6
CONTINUOUS
  0
LAYER
  2
CSLAYER6
 70
    64
 62
     7
  6
CONTINUOUS
  0
LAYER
  2
CSLAYER7
 70
    64
 62
     7
  6
CONTINUOUS
  0
LAYER
  2
CSLAYER8
 70
    64
 62
     7
  6
CONTINUOUS
  0
LAYER
  2
CSLAYER9
 70
    64
 62
     7
  6
CONTINUOUS
  0
LAYER
  2
CSLAYER10
 70
    64
 62
     7
  6
CONTINUOUS
  0
LAYER
  2
CSLAYER11
 70
    64
 62
     7
  6
CONTINUOUS
  0
LAYER
  2
CSLAYER12
 70
    64
 62
     7
  6
CONTINUOUS
  0
LAYER
  2
CSLAYER13
 70
    64
 62
     7
  6
CONTINUOUS
  0
LAYER
  2
CSLAYER14
 70
    64
 62
     7
  6
CONTINUOUS
  0
LAYER
  2
CSLAYER15
 70
    64
 62
     7
  6
CONTINUOUS
  0
LAYER
  2
CSLAYER16
 70
    64
 62
     7
  6
CONTINUOUS
  0
ENDTAB
  0
TABLE
  2
STYLE
 70
     1
  0
STYLE
  2
EASYDRAW_FONT
 70
     0
 40
1.0
 41
1.0
 50
0.0
 71
     0
 42
1.0
  3
monotxt
  4
bigfont
  0
ENDTAB
  0
TABLE
  2
VIEW
 70
     0
  0
ENDTAB
  0
ENDSEC
  0
SECTION
  2
BLOCKS
  0
BLOCK
  8
CSLAYER1
  2
*D0000
 70
    65
 10
0.0
 20
0.0
 30
0.0
  0
TEXT
  8
CSLAYER1
 62
     3
 10
1351.081665
 20
1914.620850
 40
40.000000
 41
0.843750
  1
250
 50
90.000000
 51
0.000000
  7
EASYDRAW_FONT
 72
     5
 11
1351.081665
 21
2004.620850
  0
LINE
  8
CSLAYER1
  6
CONTINUOUS
 62
     5
 10
1447.158526
 20
1873.509249
 11
1348.167267
 21
1873.509249
  0
LINE
  8
CSLAYER1
  6
CONTINUOUS
 62
     5
 10
1447.158526
 20
2123.509249
 11
1348.167267
 21
2123.509249
  0
LINE
  8
CSLAYER1
  6
CONTINUOUS
 62
     5
 10
1358.167267
 20
1873.509249
 11
1358.167267
 21
2123.509249
  0
LINE
  8
CSLAYER1
  6
CONTINUOUS
 62
     5
 10
1358.167267
 20
1873.509249
 11
1350.402696
 21
1902.487024
  0
LINE
  8
CSLAYER1
  6
CONTINUOUS
 62
     5
 10
1358.167267
 20
1873.509249
 11
1365.931838
 21
1902.487024
  0
LINE
  8
CSLAYER1
  6
CONTINUOUS
 62
     5
 10
1358.167267
 20
2123.509249
 11
1350.402696
 21
2094.531475
  0
LINE
  8
CSLAYER1
  6
CONTINUOUS
 62
     5
 10
1358.167267
 20
2123.509249
 11
1365.931838
 21
2094.531475
  0
ENDBLK
  8
0
  0
BLOCK
  8
CSLAYER1
  2
EASYDRAWDIM0000
 70
   64
 10
0.0
 20
0.0
 30
0.0
  0
TEXT
  8
CSLAYER1
 62
     3
 10
1549.946045
 20
1738.508911
 40
40.000000
 41
0.771429
  1
2-%%c13(アンカー穴)
 50
0.000000
 51
0.000000
  7
EASYDRAW_FONT
 72
     5
 11
1909.946045
 21
1738.508911
  0
LINE
  8
CSLAYER1
  6
CONTINUOUS
 62
     5
 10
1545.604765
 20
1728.509249
 11
1919.946019
 21
1728.509249
  0
ENDBLK
  8
0
  0
BLOCK
  8
CSLAYER1
  2
EASYDRAWDIM0001
 70
   64
 10
0.0
 20
0.0
 30
0.0
  0
TEXT
  8
CSLAYER1
 62
     3
 10
1399.153931
 20
1896.408913
 40
33.155758
 41
0.767879
  1
穴ヒﾟッチ
 50
90.000000
 51
0.000000
  7
EASYDRAW_FONT
 72
     5
 11
1399.153931
 21
2015.220482
  0
ENDBLK
  8
0
  0
BLOCK
  8
CSLAYER1
  2
*D0001
 70
    65
 10
0.0
 20
0.0
 30
0.0
  0
TEXT
  8
CSLAYER1
 62
     3
 10
2383.556885
 20
1136.688477
 40
40.000000
 41
0.843750
  1
500
 50
90.000000
 51
0.000000
  7
EASYDRAW_FONT
 72
     5
 11
2383.556885
 21
1226.688477
  0
LINE
  8
CSLAYER1
  6
CONTINUOUS
 62
     5
 10
2283.557031
 20
1442.574293
 11
2503.950104
 21
1442.574293
  0
LINE
  8
CSLAYER1
  6
CONTINUOUS
 62
     5
 10
2393.557031
 20
920.802692
 11
2393.557031
 21
1442.574293
  0
LINE
  8
CSLAYER1
  6
CONTINUOUS
 62
     5
 10
2393.557031
 20
920.802692
 11
2385.792459
 21
949.780466
  0
LINE
  8
CSLAYER1
  6
CONTINUOUS
 62
     5
 10
2393.557031
 20
920.802692
 11
2401.321602
 21
949.780466
  0
LINE
  8
CSLAYER1
  6
CONTINUOUS
 62
     5
 10
2393.557031
 20
1442.574293
 11
2385.792459
 21
1413.596518
  0
LINE
  8
CSLAYER1
  6
CONTINUOUS
 62
     5
 10
2393.557031
 20
1442.574293
 11
2401.321602
 21
1413.596518
  0
ENDBLK
  8
0
  0
BLOCK
  8
CSLAYER1
  2
*D0002
 70
    65
 10
0.0
 20
0.0
 30
0.0
  0
TEXT
  8
CSLAYER1
 62
     3
 10
2473.556885
 20
1086.688477
 40
40.000000
 41
0.843750
  1
600
 50
90.000000
 51
0.000000
  7
EASYDRAW_FONT
 72
     5
 11
2473.556885
 21
1176.688477
  0
LINE
  8
CSLAYER1
  6
CONTINUOUS
 62
     5
 10
2483.557031
 20
820.802692
 11
2483.557031
 21
1442.574293
  0
LINE
  8
CSLAYER1
  6
CONTINUOUS
 62
     5
 10
2483.557031
 20
820.802692
 11
2475.792459
 21
849.780466
  0
LINE
  8
CSLAYER1
  6
CONTINUOUS
 62
     5
 10
2483.557031
 20
820.802692
 11
2491.321602
 21
849.780466
  0
LINE
  8
CSLAYER1
  6
CONTINUOUS
 62
     5
 10
2483.557031
 20
1442.574293
 11
2475.792459
 21
1413.596518
  0
LINE
  8
CSLAYER1
  6
CONTINUOUS
 62
     5
 10
2483.557031
 20
1442.574293
 11
2491.321602
 21
1413.596518
  0
ENDBLK
  8
0
  0
BLOCK
  8
CSLAYER1
  2
*D0003
 70
    65
 10
0.0
 20
0.0
 30
0.0
  0
TEXT
  8
CSLAYER1
 62
     3
 10
1828.557129
 20
1558.625122
 40
40.000000
 41
0.843750
  1
800
 50
0.000000
 51
0.000000
  7
EASYDRAW_FONT
 72
     5
 11
1918.557129
 21
1558.625122
  0
LINE
  8
CSLAYER1
  6
CONTINUOUS
 62
     5
 10
1473.557031
 20
1452.574293
 11
1473.557031
 21
1558.625490
  0
LINE
  8
CSLAYER1
  6
CONTINUOUS
 62
     5
 10
2273.557031
 20
1452.574293
 11
2273.557031
 21
1558.625490
  0
LINE
  8
CSLAYER1
  6
CONTINUOUS
 62
     5
 10
1473.557031
 20
1548.625490
 11
2273.557031
 21
1548.625490
  0
LINE
  8
CSLAYER1
  6
CONTINUOUS
 62
     5
 10
1473.557031
 20
1548.625490
 11
1502.534805
 21
1556.390061
  0
LINE
  8
CSLAYER1
  6
CONTINUOUS
 62
     5
 10
1473.557031
 20
1548.625490
 11
1502.534805
 21
1540.860918
  0
LINE
  8
CSLAYER1
  6
CONTINUOUS
 62
     5
 10
2273.557031
 20
1548.625490
 11
2244.579256
 21
1556.390061
  0
LINE
  8
CSLAYER1
  6
CONTINUOUS
 62
     5
 10
2273.557031
 20
1548.625490
 11
2244.579256
 21
1540.860918
  0
ENDBLK
  8
0
  0
BLOCK
  8
CSLAYER1
  2
*D0004
 70
    65
 10
0.0
 20
0.0
 30
0.0
  0
TEXT
  8
CSLAYER1
 62
     3
 10
1274.015747
 20
1267.550781
 40
40.000000
 41
0.794118
  1
MAX 27
 50
0.000000
 51
0.000000
  7
EASYDRAW_FONT
 72
     5
 11
1454.015747
 21
1267.550781
  0
LINE
  8
CSLAYER1
  6
CONTINUOUS
 62
     5
 10
1446.121328
 20
930.802692
 11
1446.121328
 21
1254.080323
  0
LINE
  8
CSLAYER1
  6
CONTINUOUS
 62
     5
 10
1473.557031
 20
1397.574293
 11
1473.557031
 21
1234.080323
  0
LINE
  8
CSLAYER1
  6
CONTINUOUS
 62
     5
 10
1446.121328
 20
1244.080323
 11
1402.289203
 21
1244.080323
  0
LINE
  8
CSLAYER1
  6
CONTINUOUS
 62
     5
 10
1446.121328
 20
1244.080323
 11
1417.143553
 21
1251.844894
  0
LINE
  8
CSLAYER1
  6
CONTINUOUS
 62
     5
 10
1446.121328
 20
1244.080323
 11
1417.143553
 21
1236.315752
  0
LINE
  8
CSLAYER1
  6
CONTINUOUS
 62
     5
 10
1473.557031
 20
1244.080323
 11
1523.557031
 21
1244.080323
  0
LINE
  8
CSLAYER1
  6
CONTINUOUS
 62
     5
 10
1473.557031
 20
1244.080323
 11
1502.534805
 21
1251.844894
  0
LINE
  8
CSLAYER1
  6
CONTINUOUS
 62
     5
 10
1473.557031
 20
1244.080323
 11
1502.534805
 21
1236.315752
  0
LINE
  8
CSLAYER1
  6
CONTINUOUS
 62
     5
 10
1446.121328
 20
1244.080323
 11
1473.557031
 21
1244.080323
  0
ENDBLK
  8
0
  0
BLOCK
  8
CSLAYER1
  2
EASYDRAWDIM0002
 70
   64
 10
0.0
 20
0.0
 30
0.0
  0
TEXT
  8
CSLAYER1
 62
     3
 10
1138.977173
 20
1177.341797
 40
40.000000
 41
0.787500
  1
油圧シリンダー
 50
0.000000
 51
0.000000
  7
EASYDRAW_FONT
 72
     5
 11
1348.977173
 21
1177.341797
  0
LINE
  8
CSLAYER1
  6
CONTINUOUS
 62
     5
 10
1349.941938
 20
1167.341845
 11
1128.977196
 21
1167.341845
  0
ENDBLK
  8
0
  0
BLOCK
  8
CSLAYER1
  2
EASYDRAWDIM0003
 70
   64
 10
0.0
 20
0.0
 30
0.0
  0
TEXT
  8
CSLAYER1
 62
     3
 10
1151.223999
 20
975.342834
 40
40.000000
 41
0.803571
  1
高圧ホース
 50
0.000000
 51
0.000000
  7
EASYDRAW_FONT
 72
     5
 11
1301.223999
 21
975.342834
  0
LINE
  8
CSLAYER1
  6
CONTINUOUS
 62
     5
 10
1367.769593
 20
846.511284
 11
1301.223924
 21
965.342836
  0
LINE
  8
CSLAYER1
  6
CONTINUOUS
 62
     5
 10
1367.769593
 20
846.511284
 11
1346.836319
 21
868.000771
  0
LINE
  8
CSLAYER1
  6
CONTINUOUS
 62
     5
 10
1367.769593
 20
846.511284
 11
1360.385589
 21
875.588363
  0
LINE
  8
CSLAYER1
  6
CONTINUOUS
 62
     5
 10
1301.223924
 20
965.342836
 11
1141.223924
 21
965.342836
  0
ENDBLK
  8
0
  0
BLOCK
  8
CSLAYER1
  2
*D0005
 70
    65
 10
0.0
 20
0.0
 30
0.0
  0
TEXT
  8
CSLAYER1
 62
     3
 10
1799.771362
 20
620.802795
 40
40.000000
 41
0.843750
  1
803
 50
0.000000
 51
0.000000
  7
EASYDRAW_FONT
 72
     5
 11
1889.771362
 21
620.802795
  0
LINE
  8
CSLAYER1
  6
CONTINUOUS
 62
     5
 10
1443.421328
 20
810.802692
 11
1443.421328
 21
600.802692
  0
LINE
  8
CSLAYER1
  6
CONTINUOUS
 62
     5
 10
2246.121328
 20
810.802692
 11
2246.121328
 21
600.802692
  0
LINE
  8
CSLAYER1
  6
CONTINUOUS
 62
     5
 10
1443.421328
 20
610.802692
 11
2246.121328
 21
610.802692
  0
LINE
  8
CSLAYER1
  6
CONTINUOUS
 62
     5
 10
1443.421328
 20
610.802692
 11
1472.399102
 21
618.567263
  0
LINE
  8
CSLAYER1
  6
CONTINUOUS
 62
     5
 10
1443.421328
 20
610.802692
 11
1472.399102
 21
603.038120
  0
LINE
  8
CSLAYER1
  6
CONTINUOUS
 62
     5
 10
2246.121328
 20
610.802692
 11
2217.143553
 21
618.567263
  0
LINE
  8
CSLAYER1
  6
CONTINUOUS
 62
     5
 10
2246.121328
 20
610.802692
 11
2217.143553
 21
603.038120
  0
ENDBLK
  8
0
  0
BLOCK
  8
CSLAYER1
  2
*D0006
 70
    65
 10
0.0
 20
0.0
 30
0.0
  0
TEXT
  8
CSLAYER1
 62
     3
 10
1144.853394
 20
829.667542
 40
40.000000
 41
1.125000
  1
6
 50
90.000000
 51
0.000000
  7
EASYDRAW_FONT
 72
     5
 11
1144.853394
 21
859.667542
  0
LINE
  8
CSLAYER1
  6
CONTINUOUS
 62
     5
 10
1035.599857
 20
820.802692
 11
1101.986453
 21
820.802692
  0
LINE
  8
CSLAYER1
  6
CONTINUOUS
 62
     5
 10
1035.599857
 20
826.802692
 11
1101.986453
 21
826.802692
  0
LINE
  8
CSLAYER1
  6
CONTINUOUS
 62
     5
 10
1091.986453
 20
820.802692
 11
1091.986453
 21
770.802692
  0
LINE
  8
CSLAYER1
  6
CONTINUOUS
 62
     5
 10
1091.986453
 20
820.802692
 11
1084.221882
 21
791.824917
  0
LINE
  8
CSLAYER1
  6
CONTINUOUS
 62
     5
 10
1091.986453
 20
820.802692
 11
1099.751025
 21
791.824917
  0
LINE
  8
CSLAYER1
  6
CONTINUOUS
 62
     5
 10
1091.986453
 20
826.802692
 11
1091.986453
 21
860.901654
  0
LINE
  8
CSLAYER1
  6
CONTINUOUS
 62
     5
 10
1091.986453
 20
826.802692
 11
1084.221882
 21
855.780466
  0
LINE
  8
CSLAYER1
  6
CONTINUOUS
 62
     5
 10
1091.986453
 20
826.802692
 11
1099.751025
 21
855.780466
  0
LINE
  8
CSLAYER1
  6
CONTINUOUS
 62
     5
 10
1091.986453
 20
820.802692
 11
1091.986453
 21
826.802692
  0
ENDBLK
  8
0
  0
BLOCK
  8
CSLAYER1
  2
*D0007
 70
    65
 10
0.0
 20
0.0
 30
0.0
  0
TEXT
  8
CSLAYER1
 62
     3
 10
2563.557129
 20
825.802551
 40
40.000000
 41
0.843750
  1
100
 50
90.000000
 51
0.000000
  7
EASYDRAW_FONT
 72
     5
 11
2563.557129
 21
915.802551
  0
LINE
  8
CSLAYER1
  6
CONTINUOUS
 62
     5
 10
2663.658002
 20
920.802692
 11
2563.557031
 21
920.802692
  0
LINE
  8
CSLAYER1
  6
CONTINUOUS
 62
     5
 10
2573.557031
 20
820.802692
 11
2573.557031
 21
920.802692
  0
LINE
  8
CSLAYER1
  6
CONTINUOUS
 62
     5
 10
2573.557031
 20
820.802692
 11
2565.792459
 21
849.780466
  0
LINE
  8
CSLAYER1
  6
CONTINUOUS
 62
     5
 10
2573.557031
 20
820.802692
 11
2581.321602
 21
849.780466
  0
LINE
  8
CSLAYER1
  6
CONTINUOUS
 62
     5
 10
2573.557031
 20
920.802692
 11
2565.792459
 21
891.824917
  0
LINE
  8
CSLAYER1
  6
CONTINUOUS
 62
     5
 10
2573.557031
 20
920.802692
 11
2581.321602
 21
891.824917
  0
ENDBLK
  8
0
  0
BLOCK
  8
CSLAYER1
  2
*D0008
 70
    65
 10
0.0
 20
0.0
 30
0.0
  0
TEXT
  8
CSLAYER1
 62
     3
 10
2383.557129
 20
1953.509033
 40
40.000000
 41
0.843750
  1
300
 50
90.000000
 51
0.000000
  7
EASYDRAW_FONT
 72
     5
 11
2383.557129
 21
2043.509033
  0
LINE
  8
CSLAYER1
  6
CONTINUOUS
 62
     5
 10
2283.557031
 20
1848.509249
 11
2403.557031
 21
1848.509249
  0
LINE
  8
CSLAYER1
  6
CONTINUOUS
 62
     5
 10
2283.557031
 20
2148.509249
 11
2403.557031
 21
2148.509249
  0
LINE
  8
CSLAYER1
  6
CONTINUOUS
 62
     5
 10
2393.557031
 20
1848.509249
 11
2393.557031
 21
2148.509249
  0
LINE
  8
CSLAYER1
  6
CONTINUOUS
 62
     5
 10
2393.557031
 20
1848.509249
 11
2385.792459
 21
1877.487024
  0
LINE
  8
CSLAYER1
  6
CONTINUOUS
 62
     5
 10
2393.557031
 20
1848.509249
 11
2401.321602
 21
1877.487024
  0
LINE
  8
CSLAYER1
  6
CONTINUOUS
 62
     5
 10
2393.557031
 20
2148.509249
 11
2385.792459
 21
2119.531475
  0
LINE
  8
CSLAYER1
  6
CONTINUOUS
 62
     5
 10
2393.557031
 20
2148.509249
 11
2401.321602
 21
2119.531475
  0
ENDBLK
  8
0
  0
BLOCK
  8
CSLAYER1
  2
*D0009
 70
    65
 10
0.0
 20
0.0
 30
0.0
  0
TEXT
  8
CSLAYER1
 62
     3
 10
830.599670
 20
618.802673
 40
40.000000
 41
0.843750
  1
300
 50
0.000000
 51
0.000000
  7
EASYDRAW_FONT
 72
     5
 11
920.599670
 21
618.802673
  0
LINE
  8
CSLAYER1
  6
CONTINUOUS
 62
     5
 10
725.599857
 20
812.802692
 11
725.599857
 21
602.802692
  0
LINE
  8
CSLAYER1
  6
CONTINUOUS
 62
     5
 10
1025.599857
 20
812.802692
 11
1025.599857
 21
602.802692
  0
LINE
  8
CSLAYER1
  6
CONTINUOUS
 62
     5
 10
725.599857
 20
610.802692
 11
1025.599857
 21
610.802692
  0
LINE
  8
CSLAYER1
  6
CONTINUOUS
 62
     5
 10
725.599857
 20
610.802692
 11
754.577631
 21
618.567263
  0
LINE
  8
CSLAYER1
  6
CONTINUOUS
 62
     5
 10
725.599857
 20
610.802692
 11
754.577631
 21
603.038120
  0
LINE
  8
CSLAYER1
  6
CONTINUOUS
 62
     5
 10
1025.599857
 20
610.802692
 11
996.622082
 21
618.567263
  0
LINE
  8
CSLAYER1
  6
CONTINUOUS
 62
     5
 10
1025.599857
 20
610.802692
 11
996.622082
 21
603.038120
  0
ENDBLK
  8
0
  0
BLOCK
  8
CSLAYER1
  2
*D0010
 70
    65
 10
0.0
 20
0.0
 30
0.0
  0
TEXT
  8
CSLAYER1
 62
     3
 10
830.599670
 20
708.802612
 40
40.000000
 41
0.843750
  1
250
 50
0.000000
 51
0.000000
  7
EASYDRAW_FONT
 72
     5
 11
920.599670
 21
708.802612
  0
LINE
  8
CSLAYER1
  6
CONTINUOUS
 62
     5
 10
750.599857
 20
812.802692
 11
750.599857
 21
692.802692
  0
LINE
  8
CSLAYER1
  6
CONTINUOUS
 62
     5
 10
1000.599857
 20
812.802692
 11
1000.599857
 21
692.802692
  0
LINE
  8
CSLAYER1
  6
CONTINUOUS
 62
     5
 10
750.599857
 20
700.802692
 11
1000.599857
 21
700.802692
  0
LINE
  8
CSLAYER1
  6
CONTINUOUS
 62
     5
 10
750.599857
 20
700.802692
 11
779.577631
 21
708.567263
  0
LINE
  8
CSLAYER1
  6
CONTINUOUS
 62
     5
 10
750.599857
 20
700.802692
 11
779.577631
 21
693.038120
  0
LINE
  8
CSLAYER1
  6
CONTINUOUS
 62
     5
 10
1000.599857
 20
700.802692
 11
971.622082
 21
708.567263
  0
LINE
  8
CSLAYER1
  6
CONTINUOUS
 62
     5
 10
1000.599857
 20
700.802692
 11
971.622082
 21
693.038120
  0
ENDBLK
  8
0
  0
BLOCK
  8
CSLAYER1
  2
EASYDRAWDIM0004
 70
   64
 10
0.0
 20
0.0
 30
0.0
  0
TEXT
  8
CSLAYER1
 62
     3
 10
1107.686523
 20
711.613525
 40
40.000000
 41
0.803571
  1
2-φ13
 50
0.000000
 51
0.000000
  7
EASYDRAW_FONT
 72
     5
 11
1257.686523
 21
711.613525
  0
ENDBLK
  8
0
  0
BLOCK
  8
CSLAYER1
  2
*D0011
 70
    65
 10
0.0
 20
0.0
 30
0.0
  0
TEXT
  8
CSLAYER1
 62
     3
 10
1451.703979
 20
646.746948
 40
40.000000
 41
0.900000
  1
25
 50
0.000000
 51
0.000000
  7
EASYDRAW_FONT
 72
     5
 11
1511.703979
 21
646.746948
  0
LINE
  8
CSLAYER1
  6
CONTINUOUS
 62
     5
 10
1443.421328
 20
810.802692
 11
1443.421328
 21
690.802692
  0
LINE
  8
CSLAYER1
  6
CONTINUOUS
 62
     5
 10
1468.421328
 20
810.802692
 11
1468.421328
 21
690.802692
  0
LINE
  8
CSLAYER1
  6
CONTINUOUS
 62
     5
 10
1443.421328
 20
700.802692
 11
1468.421328
 21
700.802692
  0
LINE
  8
CSLAYER1
  6
CONTINUOUS
 62
     5
 10
1393.421328
 20
700.802692
 11
1443.421328
 21
700.802692
  0
LINE
  8
CSLAYER1
  6
CONTINUOUS
 62
     5
 10
1443.421328
 20
700.802692
 11
1414.443553
 21
708.567263
  0
LINE
  8
CSLAYER1
  6
CONTINUOUS
 62
     5
 10
1443.421328
 20
700.802692
 11
1414.443553
 21
693.038120
  0
LINE
  8
CSLAYER1
  6
CONTINUOUS
 62
     5
 10
1468.421328
 20
700.802692
 11
1518.421328
 21
700.802692
  0
LINE
  8
CSLAYER1
  6
CONTINUOUS
 62
     5
 10
1468.421328
 20
700.802692
 11
1497.399102
 21
708.567263
  0
LINE
  8
CSLAYER1
  6
CONTINUOUS
 62
     5
 10
1468.421328
 20
700.802692
 11
1497.399102
 21
693.038120
  0
ENDBLK
  8
0
  0
BLOCK
  8
CSLAYER1
  2
*D0012
 70
    65
 10
0.0
 20
0.0
 30
0.0
  0
TEXT
  8
CSLAYER1
 62
     3
 10
830.599915
 20
1554.272339
 40
40.000000
 41
0.843750
  1
300
 50
0.000000
 51
0.000000
  7
EASYDRAW_FONT
 72
     5
 11
920.599915
 21
1554.272339
  0
LINE
  8
CSLAYER1
  6
CONTINUOUS
 62
     5
 10
725.599857
 20
1452.574293
 11
725.599857
 21
1554.272362
  0
LINE
  8
CSLAYER1
  6
CONTINUOUS
 62
     5
 10
1025.599857
 20
1452.574293
 11
1025.599857
 21
1554.272362
  0
LINE
  8
CSLAYER1
  6
CONTINUOUS
 62
     5
 10
725.599857
 20
1544.272362
 11
1025.599857
 21
1544.272362
  0
LINE
  8
CSLAYER1
  6
CONTINUOUS
 62
     5
 10
725.599857
 20
1544.272362
 11
754.577631
 21
1552.036934
  0
LINE
  8
CSLAYER1
  6
CONTINUOUS
 62
     5
 10
725.599857
 20
1544.272362
 11
754.577631
 21
1536.507791
  0
LINE
  8
CSLAYER1
  6
CONTINUOUS
 62
     5
 10
1025.599857
 20
1544.272362
 11
996.622082
 21
1552.036934
  0
LINE
  8
CSLAYER1
  6
CONTINUOUS
 62
     5
 10
1025.599857
 20
1544.272362
 11
996.622082
 21
1536.507791
  0
ENDBLK
  8
0
  0
BLOCK
  8
CSLAYER1
  2
EASYDRAWDIM0005
 70
   64
 10
0.0
 20
0.0
 30
0.0
  0
TEXT
  8
CSLAYER1
 62
     3
 10
259.366119
 20
2231.510010
 40
48.000000
 41
0.787500
  1
昇降切替バルブ
 50
0.000000
 51
0.000000
  7
EASYDRAW_FONT
 72
     5
 11
511.366119
 21
2231.510010
  0
LINE
  8
CSLAYER1
  6
CONTINUOUS
 62
     7
 10
611.262258
 20
2080.788320
 11
511.366458
 21
2221.509677
  0
LINE
  8
CSLAYER1
  6
CONTINUOUS
 62
     7
 10
611.262258
 20
2080.788320
 11
588.156769
 21
2099.923011
  0
LINE
  8
CSLAYER1
  6
CONTINUOUS
 62
     7
 10
611.262258
 20
2080.788320
 11
600.819663
 21
2108.912193
  0
LINE
  8
CSLAYER1
  6
CONTINUOUS
 62
     7
 10
511.366458
 20
2221.509677
 11
251.366458
 21
2221.509677
  0
ENDBLK
  8
0
  0
BLOCK
  8
CSLAYER1
  2
EASYDRAWDIM0006
 70
   64
 10
0.0
 20
0.0
 30
0.0
  0
TEXT
  8
CSLAYER1
 62
     3
 10
283.113434
 20
2142.262451
 40
48.000000
 41
0.794118
  1
ポンプペタル
 50
0.000000
 51
0.000000
  7
EASYDRAW_FONT
 72
     5
 11
499.113434
 21
2142.262451
  0
LINE
  8
CSLAYER1
  6
CONTINUOUS
 62
     7
 10
564.719103
 20
2052.447918
 11
501.065386
 21
2132.261979
  0
LINE
  8
CSLAYER1
  6
CONTINUOUS
 62
     7
 10
564.719103
 20
2052.447918
 11
540.580607
 21
2070.261760
  0
LINE
  8
CSLAYER1
  6
CONTINUOUS
 62
     7
 10
564.719103
 20
2052.447918
 11
552.721473
 21
2079.944406
  0
LINE
  8
CSLAYER1
  6
CONTINUOUS
 62
     7
 10
501.065386
 20
2132.261979
 11
271.065386
 21
2132.261979
  0
ENDBLK
  8
0
  0
BLOCK
  8
CSLAYER1
  2
EASYDRAWDIM0007
 70
   64
 10
0.0
 20
0.0
 30
0.0
  0
TEXT
  8
CSLAYER1
 62
     3
 10
637.833862
 20
2237.383545
 40
48.000000
 41
0.787500
  1
高圧ホース２m
 50
0.000000
 51
0.000000
  7
EASYDRAW_FONT
 72
     5
 11
889.833862
 21
2237.383545
  0
LINE
  8
CSLAYER1
  6
CONTINUOUS
 62
     7
 10
965.150056
 20
2097.538010
 11
897.885024
 21
2227.383301
  0
LINE
  8
CSLAYER1
  6
CONTINUOUS
 62
     7
 10
965.150056
 20
2097.538010
 11
944.926415
 21
2119.696628
  0
LINE
  8
CSLAYER1
  6
CONTINUOUS
 62
     7
 10
965.150056
 20
2097.538010
 11
958.715178
 21
2126.839757
  0
LINE
  8
CSLAYER1
  6
CONTINUOUS
 62
     7
 10
897.885024
 20
2227.383301
 11
627.885024
 21
2227.383301
  0
ENDBLK
  8
0
  0
BLOCK
  8
CSLAYER1
  2
*D0013
 70
    65
 10
0.0
 20
0.0
 30
0.0
  0
LINE
  8
CSLAYER1
  6
CONTINUOUS
 62
     5
 10
2388.212465
 20
820.802692
 11
2383.557031
 21
820.802692
  0
LINE
  8
CSLAYER1
  6
CONTINUOUS
 62
     5
 10
2256.121328
 20
920.802692
 11
2403.557031
 21
920.802692
  0
LINE
  8
CSLAYER1
  6
CONTINUOUS
 62
     5
 10
2393.557031
 20
820.802692
 11
2393.557031
 21
920.802692
  0
LINE
  8
CSLAYER1
  6
CONTINUOUS
 62
     5
 10
2393.557031
 20
820.802692
 11
2385.792459
 21
849.780466
  0
LINE
  8
CSLAYER1
  6
CONTINUOUS
 62
     5
 10
2393.557031
 20
820.802692
 11
2401.321602
 21
849.780466
  0
LINE
  8
CSLAYER1
  6
CONTINUOUS
 62
     5
 10
2393.557031
 20
920.802692
 11
2385.792459
 21
891.824917
  0
LINE
  8
CSLAYER1
  6
CONTINUOUS
 62
     5
 10
2393.557031
 20
920.802692
 11
2401.321602
 21
891.824917
  0
TEXT
  8
CSLAYER1
 62
     3
 10
2383.557129
 20
825.802673
 40
40.000000
 41
0.843750
  1
100
 50
90.000000
 51
0.000000
  7
EASYDRAW_FONT
 72
     5
 11
2383.557129
 21
915.802673
  0
ENDBLK
  8
0
  0
BLOCK
  8
CSLAYER1
  2
*D0014
 70
    65
 10
0.0
 20
0.0
 30
0.0
  0
LINE
  8
CSLAYER1
  6
CONTINUOUS
 62
     5
 10
1443.421328
 20
1848.509249
 11
1443.421328
 21
1718.509249
  0
LINE
  8
CSLAYER1
  6
CONTINUOUS
 62
     5
 10
1468.421328
 20
1852.246448
 11
1468.421328
 21
1718.509249
  0
LINE
  8
CSLAYER1
  6
CONTINUOUS
 62
     5
 10
1443.421328
 20
1728.509249
 11
1468.421328
 21
1728.509249
  0
LINE
  8
CSLAYER1
  6
CONTINUOUS
 62
     5
 10
1359.510329
 20
1728.509249
 11
1443.421328
 21
1728.509249
  0
LINE
  8
CSLAYER1
  6
CONTINUOUS
 62
     5
 10
1443.421328
 20
1728.509249
 11
1414.443553
 21
1736.273821
  0
LINE
  8
CSLAYER1
  6
CONTINUOUS
 62
     5
 10
1443.421328
 20
1728.509249
 11
1414.443553
 21
1720.744678
  0
LINE
  8
CSLAYER1
  6
CONTINUOUS
 62
     5
 10
1468.421328
 20
1728.509249
 11
1523.532446
 21
1728.509249
  0
LINE
  8
CSLAYER1
  6
CONTINUOUS
 62
     5
 10
1468.421328
 20
1728.509249
 11
1497.399102
 21
1736.273821
  0
LINE
  8
CSLAYER1
  6
CONTINUOUS
 62
     5
 10
1468.421328
 20
1728.509249
 11
1497.399102
 21
1720.744678
  0
TEXT
  8
CSLAYER1
 62
     3
 10
1367.146606
 20
1738.509277
 40
40.000000
 41
0.900000
  1
25
 50
0.000000
 51
0.000000
  7
EASYDRAW_FONT
 72
     5
 11
1427.146606
 21
1738.509277
  0
ENDBLK
  8
0
  0
BLOCK
  8
CSLAYER1
  2
*D0015
 70
    65
 10
0.0
 20
0.0
 30
0.0
  0
LINE
  8
CSLAYER1
  6
CONTINUOUS
 62
     5
 10
1443.421328
 20
1848.509249
 11
1443.421328
 21
1628.509249
  0
LINE
  8
CSLAYER1
  6
CONTINUOUS
 62
     5
 10
1493.606781
 20
1850.913242
 11
1493.606781
 21
1628.509249
  0
LINE
  8
CSLAYER1
  6
CONTINUOUS
 62
     5
 10
1443.421328
 20
1638.509249
 11
1493.606781
 21
1638.509249
  0
LINE
  8
CSLAYER1
  6
CONTINUOUS
 62
     5
 10
1359.510329
 20
1638.509249
 11
1443.421328
 21
1638.509249
  0
LINE
  8
CSLAYER1
  6
CONTINUOUS
 62
     5
 10
1443.421328
 20
1638.509249
 11
1414.443553
 21
1646.273821
  0
LINE
  8
CSLAYER1
  6
CONTINUOUS
 62
     5
 10
1443.421328
 20
1638.509249
 11
1414.443553
 21
1630.744678
  0
LINE
  8
CSLAYER1
  6
CONTINUOUS
 62
     5
 10
1493.606781
 20
1638.509249
 11
1548.428660
 21
1638.509249
  0
LINE
  8
CSLAYER1
  6
CONTINUOUS
 62
     5
 10
1493.606781
 20
1638.509249
 11
1522.584556
 21
1646.273821
  0
LINE
  8
CSLAYER1
  6
CONTINUOUS
 62
     5
 10
1493.606781
 20
1638.509249
 11
1522.584556
 21
1630.744678
  0
TEXT
  8
CSLAYER1
 62
     3
 10
1370.419678
 20
1648.509277
 40
40.000000
 41
0.900000
  1
50
 50
0.000000
 51
0.000000
  7
EASYDRAW_FONT
 72
     5
 11
1430.419678
 21
1648.509277
  0
ENDBLK
  8
0
  0
BLOCK
  8
CSLAYER1
  2
BLKF0000
 70
   64
 10
0.0
 20
0.0
 30
0.0
  0
LINE
  8
CSLAYER1
  6
CONTINUOUS
 62
     7
 10
1515.671186
 20
905.338867
 11
1527.073037
 21
894.113993
  0
LINE
  8
CSLAYER1
  6
CONTINUOUS
 62
     7
 10
1540.225599
 20
930.280415
 11
1551.627449
 21
919.055541
  0
LINE
  8
CSLAYER1
  6
CONTINUOUS
 62
     7
 10
1531.315548
 20
894.147176
 11
1551.660632
 21
914.813030
  0
LINE
  8
CSLAYER1
  6
CONTINUOUS
 62
     7
 10
1515.638003
 20
909.581378
 11
1535.983088
 21
930.247232
  0
ARC
  8
CSLAYER1
  6
CONTINUOUS
 62
     7
 10
1517.775850
 20
907.476714
 40
3.000000
 50
135.448133
 51
225.448133
  0
ARC
  8
CSLAYER1
  6
CONTINUOUS
 62
     7
 10
1538.120935
 20
928.142568
 40
3.000000
 50
45.448133
 51
135.448133
  0
ARC
  8
CSLAYER1
  6
CONTINUOUS
 62
     7
 10
1529.177701
 20
896.251840
 40
3.000000
 50
225.448133
 51
315.448133
  0
ARC
  8
CSLAYER1
  6
CONTINUOUS
 62
     7
 10
1549.522786
 20
916.917694
 40
3.000000
 50
-44.551867
 51
45.448133
  0
ENDBLK
  8
0
  0
BLOCK
  8
CSLAYER1
  2
BLKF0001
 70
   64
 10
0.0
 20
0.0
 30
0.0
  0
POINT
  8
CSLAYER1
 62
     7
 10
1495.857031
 20
1405.274293
  0
POINT
  8
CSLAYER1
 62
     4
 10
1967.151607
 20
1405.274293
  0
LINE
  8
CSLAYER1
  6
CENTER
 62
     5
 10
1943.993683
 20
1405.274293
 11
1985.651607
 21
1405.274293
  0
LINE
  8
CSLAYER1
  6
CENTER
 62
     5
 10
1481.804431
 20
1405.274293
 11
1511.083124
 21
1405.274293
  0
LINE
  8
CSLAYER1
  6
CONTINUOUS
 62
     3
 10
2273.557031
 20
1442.574293
 11
2273.557031
 21
1407.574293
  0
ARC
  8
CSLAYER1
  6
CONTINUOUS
 62
     3
 10
1495.857031
 20
1405.274293
 40
9.500000
 50
-194.010828
 51
14.010828
  0
LINE
  8
CSLAYER1
  6
CONTINUOUS
 62
     3
 10
1486.357031
 20
1407.574293
 11
1486.357031
 21
1399.789465
  0
LINE
  8
CSLAYER1
  6
CONTINUOUS
 62
     3
 10
1486.357031
 20
1399.789465
 11
1495.857031
 21
1394.304638
  0
LINE
  8
CSLAYER1
  6
CONTINUOUS
 62
     3
 10
1495.857031
 20
1394.304638
 11
1505.357031
 21
1399.789465
  0
LINE
  8
CSLAYER1
  6
CONTINUOUS
 62
     3
 10
1505.357031
 20
1399.789465
 11
1505.357031
 21
1407.574293
  0
POINT
  8
CSLAYER1
 62
     3
 10
1495.857031
 20
1405.274293
  0
POINT
  8
CSLAYER1
 62
     3
 10
1495.857031
 20
1405.274293
  0
ARC
  8
CSLAYER1
  6
CONTINUOUS
 62
     3
 10
1485.857031
 20
1404.274293
 40
10.000000
 50
180.000000
 51
270.000000
  0
LINE
  8
CSLAYER1
  6
CONTINUOUS
 62
     3
 10
1485.857031
 20
1394.274293
 11
1515.857031
 21
1394.274293
  0
ARC
  8
CSLAYER1
  6
CONTINUOUS
 62
     3
 10
1515.857031
 20
1404.274293
 40
10.000000
 50
270.000000
 51
360.000000
  0
LINE
  8
CSLAYER1
  6
CONTINUOUS
 62
     3
 10
1525.857031
 20
1407.574293
 11
1525.857031
 21
1404.274293
  0
LINE
  8
CSLAYER1
  6
CONTINUOUS
 62
     3
 10
1475.857031
 20
1407.574293
 11
1475.857031
 21
1404.274293
  0
LINE
  8
CSLAYER1
  6
CONTINUOUS
 62
     3
 10
1473.557031
 20
1442.574293
 11
2273.557031
 21
1442.574293
  0
LINE
  8
CSLAYER1
  6
CONTINUOUS
 62
     3
 10
1473.557031
 20
1442.574293
 11
1473.557031
 21
1407.574293
  0
LINE
  8
CSLAYER1
  6
CONTINUOUS
 62
     3
 10
1473.557031
 20
1407.574293
 11
2273.557031
 21
1407.574293
  0
ENDBLK
  8
0
  0
BLOCK
  8
CSLAYER1
  2
BLKF0002
 70
   64
 10
0.0
 20
0.0
 30
0.0
  0
POINT
  8
CSLAYER1
 62
     5
 10
1468.421328
 20
883.502692
  0
POINT
  8
CSLAYER1
 62
     5
 10
1939.715904
 20
883.502692
  0
LINE
  8
CSLAYER1
  6
PHANTOM
 62
     5
 10
1916.557980
 20
883.502692
 11
1958.215904
 21
883.502692
  0
LINE
  8
CSLAYER1
  6
PHANTOM
 62
     5
 10
1454.368728
 20
883.502692
 11
1483.647421
 21
883.502692
  0
LINE
  8
CSLAYER1
  6
PHANTOM
 62
     5
 10
2246.121328
 20
920.802692
 11
2246.121328
 21
885.802692
  0
ARC
  8
CSLAYER1
  6
PHANTOM
 62
     5
 10
1468.421328
 20
883.502692
 40
9.500000
 50
-194.010828
 51
14.010828
  0
LINE
  8
CSLAYER1
  6
PHANTOM
 62
     5
 10
1458.921328
 20
885.802692
 11
1458.921328
 21
878.017864
  0
LINE
  8
CSLAYER1
  6
PHANTOM
 62
     5
 10
1458.921328
 20
878.017864
 11
1468.421328
 21
872.533037
  0
LINE
  8
CSLAYER1
  6
PHANTOM
 62
     5
 10
1468.421328
 20
872.533037
 11
1477.921328
 21
878.017864
  0
LINE
  8
CSLAYER1
  6
PHANTOM
 62
     5
 10
1477.921328
 20
878.017864
 11
1477.921328
 21
885.802692
  0
POINT
  8
CSLAYER1
 62
     5
 10
1468.421328
 20
883.502692
  0
POINT
  8
CSLAYER1
 62
     5
 10
1468.421328
 20
883.502692
  0
ARC
  8
CSLAYER1
  6
PHANTOM
 62
     5
 10
1458.421328
 20
882.502692
 40
10.000000
 50
180.000000
 51
270.000000
  0
LINE
  8
CSLAYER1
  6
PHANTOM
 62
     5
 10
1458.421328
 20
872.502692
 11
1488.421328
 21
872.502692
  0
ARC
  8
CSLAYER1
  6
PHANTOM
 62
     5
 10
1488.421328
 20
882.502692
 40
10.000000
 50
270.000000
 51
360.000000
  0
LINE
  8
CSLAYER1
  6
PHANTOM
 62
     5
 10
1498.421328
 20
885.802692
 11
1498.421328
 21
882.502692
  0
LINE
  8
CSLAYER1
  6
PHANTOM
 62
     5
 10
1448.421328
 20
885.802692
 11
1448.421328
 21
882.502692
  0
LINE
  8
CSLAYER1
  6
PHANTOM
 62
     5
 10
1446.121328
 20
920.802692
 11
2246.121328
 21
920.802692
  0
LINE
  8
CSLAYER1
  6
PHANTOM
 62
     5
 10
1446.121328
 20
920.802692
 11
1446.121328
 21
885.802692
  0
LINE
  8
CSLAYER1
  6
PHANTOM
 62
     5
 10
1446.121328
 20
885.802692
 11
2246.121328
 21
885.802692
  0
ENDBLK
  8
0
  0
BLOCK
  8
CSLAYER1
  2
BLKF0003
 70
   64
 10
0.0
 20
0.0
 30
0.0
  0
LINE
  8
CSLAYER1
  6
CENTER
 62
     5
 10
875.599857
 20
1482.574293
 11
875.599857
 21
780.802692
  0
LINE
  8
CSLAYER1
  6
CENTER
 62
     5
 10
1000.599857
 20
811.873331
 11
1000.599857
 21
836.083292
  0
LINE
  8
CSLAYER1
  6
CENTER
 62
     5
 10
750.599857
 20
811.873331
 11
750.599857
 21
836.083292
  0
LINE
  8
CSLAYER1
  6
CENTER
 62
     5
 10
845.599857
 20
824.113128
 11
845.599857
 21
857.376447
  0
LINE
  8
CSLAYER1
  6
CENTER
 62
     5
 10
827.725911
 20
840.802692
 11
864.722868
 21
840.802692
  0
LINE
  8
CSLAYER1
  6
CENTER
 62
     5
 10
801.099857
 20
1405.274293
 11
950.099857
 21
1405.274293
  0
LINE
  8
CSLAYER1
  6
CENTER
 62
     5
 10
796.099857
 20
1111.033565
 11
959.099857
 21
1111.033565
  0
LINE
  8
CSLAYER1
  6
CONTINUOUS
 62
     3
 10
807.099857
 20
860.802692
 11
875.599857
 21
860.802692
  0
LINE
  8
CSLAYER1
  6
CONTINUOUS
 62
     3
 10
725.599857
 20
820.802692
 11
1025.599857
 21
820.802692
  0
LINE
  8
CSLAYER1
  6
CONTINUOUS
 62
     3
 10
775.599857
 20
864.802692
 11
775.599857
 21
826.802692
  0
LINE
  8
CSLAYER1
  6
CONTINUOUS
 62
     3
 10
944.099857
 20
860.802692
 11
875.599857
 21
860.802692
  0
LINE
  8
CSLAYER1
  6
CONTINUOUS
 62
     3
 10
975.599857
 20
864.802692
 11
975.599857
 21
826.802692
  0
LINE
  8
CSLAYER1
  6
CONTINUOUS
 62
     3
 10
1025.599857
 20
820.802692
 11
1025.599857
 21
826.802692
  0
LINE
  8
CSLAYER1
  6
CONTINUOUS
 62
     3
 10
950.099857
 20
826.802692
 11
950.099857
 21
864.802692
  0
LINE
  8
CSLAYER1
  6
CONTINUOUS
 62
     3
 10
1025.599857
 20
826.802692
 11
944.099857
 21
826.802692
  0
LINE
  8
CSLAYER1
  6
CONTINUOUS
 62
     3
 10
725.599857
 20
820.802692
 11
725.599857
 21
826.802692
  0
LINE
  8
CSLAYER1
  6
CONTINUOUS
 62
     3
 10
725.599857
 20
826.802692
 11
807.099857
 21
826.802692
  0
LINE
  8
CSLAYER1
  6
CONTINUOUS
 62
     3
 10
798.099857
 20
854.772347
 11
798.099857
 21
832.833037
  0
LINE
  8
CSLAYER1
  6
CONTINUOUS
 62
     3
 10
801.099857
 20
833.052692
 11
798.099857
 21
833.052692
  0
LINE
  8
CSLAYER1
  6
CONTINUOUS
 62
     3
 10
801.099857
 20
854.552692
 11
798.099857
 21
854.552692
  0
LINE
  8
CSLAYER1
  6
CONTINUOUS
 62
     3
 10
801.099857
 20
845.314888
 11
798.099857
 21
841.814888
  0
LINE
  8
CSLAYER1
  6
CONTINUOUS
 62
     3
 10
790.099857
 20
843.802692
 11
790.099857
 21
834.802692
  0
LINE
  8
CSLAYER1
  6
CONTINUOUS
 62
     3
 10
798.099857
 20
838.317864
 11
791.237038
 21
838.317864
  0
LINE
  8
CSLAYER1
  6
CONTINUOUS
 62
     3
 10
798.099857
 20
832.833037
 11
791.237038
 21
832.833037
  0
LINE
  8
CSLAYER1
  6
CONTINUOUS
 62
     3
 10
790.099857
 20
834.802692
 11
791.237038
 21
832.833037
  0
ARC
  8
CSLAYER1
  6
CONTINUOUS
 62
     3
 10
793.879901
 20
835.575450
 40
3.808617
 50
133.940972
 51
174.338367
  0
ARC
  8
CSLAYER1
  6
CONTINUOUS
 62
     3
 10
803.895601
 20
843.802692
 40
13.795744
 50
180.000000
 51
203.426598
  0
LINE
  8
CSLAYER1
  6
CONTINUOUS
 62
     3
 10
790.099857
 20
843.802692
 11
790.099857
 21
852.802692
  0
LINE
  8
CSLAYER1
  6
CONTINUOUS
 62
     3
 10
798.099857
 20
849.287519
 11
791.237038
 21
849.287519
  0
LINE
  8
CSLAYER1
  6
CONTINUOUS
 62
     3
 10
798.099857
 20
854.772347
 11
791.237038
 21
854.772347
  0
LINE
  8
CSLAYER1
  6
CONTINUOUS
 62
     3
 10
790.099857
 20
852.802692
 11
791.237038
 21
854.772347
  0
ARC
  8
CSLAYER1
  6
CONTINUOUS
 62
     3
 10
793.879901
 20
852.029933
 40
3.808617
 50
185.661633
 51
226.059028
  0
ARC
  8
CSLAYER1
  6
CONTINUOUS
 62
     3
 10
803.895601
 20
843.802692
 40
13.795744
 50
156.573402
 51
180.000000
  0
LINE
  8
CSLAYER1
  6
CENTER
 62
     5
 10
801.099857
 20
843.802692
 11
790.099857
 21
843.802692
  0
LINE
  8
CSLAYER1
  6
CONTINUOUS
 62
     3
 10
801.099857
 20
826.802692
 11
801.099857
 21
864.802692
  0
CIRCLE
  8
CSLAYER1
  6
CONTINUOUS
 62
     3
 10
845.599857
 20
840.802692
 40
12.500000
  0
LINE
  8
CSLAYER1
  6
CONTINUOUS
 62
     3
 10
875.599857
 20
1442.574293
 11
1025.599857
 21
1442.574293
  0
LINE
  8
CSLAYER1
  6
CONTINUOUS
 62
     3
 10
921.599857
 20
860.802692
 11
921.599857
 21
1410.274293
  0
LINE
  8
CSLAYER1
  6
CONTINUOUS
 62
     3
 10
930.599857
 20
860.802692
 11
930.599857
 21
1410.274293
  0
LINE
  8
CSLAYER1
  6
CONTINUOUS
 62
     3
 10
933.599857
 20
860.802692
 11
933.599857
 21
1394.774293
  0
LINE
  8
CSLAYER1
  6
CONTINUOUS
 62
     3
 10
942.599857
 20
860.802692
 11
942.599857
 21
1394.304638
  0
LINE
  8
CSLAYER1
  6
CONTINUOUS
 62
     3
 10
1025.599857
 20
1410.274293
 11
875.599857
 21
1410.274293
  0
LINE
  8
CSLAYER1
  6
CONTINUOUS
 62
     3
 10
931.599857
 20
1396.624293
 11
930.599857
 21
1396.624293
  0
LINE
  8
CSLAYER1
  6
CONTINUOUS
 62
     3
 10
932.599857
 20
1410.274293
 11
932.599857
 21
1397.624293
  0
LINE
  8
CSLAYER1
  6
CONTINUOUS
 62
     3
 10
932.599857
 20
1397.624293
 11
931.599857
 21
1396.624293
  0
LINE
  8
CSLAYER1
  6
CONTINUOUS
 62
     3
 10
931.599857
 20
1410.274293
 11
931.599857
 21
1396.624293
  0
LINE
  8
CSLAYER1
  6
CONTINUOUS
 62
     3
 10
933.099857
 20
1394.774293
 11
939.099857
 21
1394.774293
  0
LINE
  8
CSLAYER1
  6
CONTINUOUS
 62
     3
 10
939.099857
 20
1410.274293
 11
939.099857
 21
1394.774293
  0
LINE
  8
CSLAYER1
  6
CONTINUOUS
 62
     3
 10
933.099857
 20
1410.274293
 11
933.099857
 21
1394.774293
  0
LINE
  8
CSLAYER1
  6
CONTINUOUS
 62
     3
 10
921.599857
 20
1396.624293
 11
875.599857
 21
1396.624293
  0
LINE
  8
CSLAYER1
  6
CONTINUOUS
 62
     3
 10
942.099857
 20
1394.304638
 11
942.099857
 21
1410.274293
  0
LINE
  8
CSLAYER1
  6
CONTINUOUS
 62
     3
 10
939.099857
 20
1394.524293
 11
942.099857
 21
1394.524293
  0
LINE
  8
CSLAYER1
  6
CONTINUOUS
 62
     3
 10
939.099857
 20
1403.762096
 11
941.938882
 21
1407.074293
  0
LINE
  8
CSLAYER1
  6
CONTINUOUS
 62
     3
 10
950.099857
 20
1405.274293
 11
950.099857
 21
1410.274293
  0
ARC
  8
CSLAYER1
  6
CONTINUOUS
 62
     3
 10
936.304113
 20
1405.274293
 40
13.795744
 50
0.000000
 51
21.249544
  0
LINE
  8
CSLAYER1
  6
CONTINUOUS
 62
     3
 10
950.099857
 20
1405.274293
 11
950.099857
 21
1396.274293
  0
LINE
  8
CSLAYER1
  6
CONTINUOUS
 62
     3
 10
942.099857
 20
1399.789465
 11
948.962676
 21
1399.789465
  0
LINE
  8
CSLAYER1
  6
CONTINUOUS
 62
     3
 10
942.099857
 20
1394.304638
 11
948.962676
 21
1394.304638
  0
LINE
  8
CSLAYER1
  6
CONTINUOUS
 62
     3
 10
950.099857
 20
1396.274293
 11
948.962676
 21
1394.304638
  0
ARC
  8
CSLAYER1
  6
CONTINUOUS
 62
     3
 10
946.319812
 20
1397.047051
 40
3.808617
 50
5.661633
 51
46.059028
  0
ARC
  8
CSLAYER1
  6
CONTINUOUS
 62
     3
 10
936.304113
 20
1405.274293
 40
13.795744
 50
336.573402
 51
360.000000
  0
LINE
  8
CSLAYER1
  6
CENTER
 62
     5
 10
820.599857
 20
1199.829251
 11
930.599857
 21
1199.829251
  0
LINE
  8
CSLAYER1
  6
CONTINUOUS
 62
     3
 10
829.599857
 20
1144.312904
 11
850.599857
 21
1144.312904
  0
LINE
  8
CSLAYER1
  6
CONTINUOUS
 62
     3
 10
829.599857
 20
1095.712904
 11
868.099857
 21
1095.712904
  0
LINE
  8
CSLAYER1
  6
CONTINUOUS
 62
     3
 10
933.599857
 20
1125.033565
 11
933.599857
 21
1118.533565
  0
LINE
  8
CSLAYER1
  6
CONTINUOUS
 62
     3
 10
930.599857
 20
1125.033565
 11
930.599857
 21
1118.533565
  0
LINE
  8
CSLAYER1
  6
CONTINUOUS
 62
     3
 10
933.599857
 20
1125.033565
 11
930.599857
 21
1125.033565
  0
LINE
  8
CSLAYER1
  6
CENTER
 62
     5
 10
886.099857
 20
1213.429251
 11
886.099857
 21
889.794054
  0
LINE
  8
CSLAYER1
  6
CONTINUOUS
 62
     3
 10
915.099857
 20
874.085154
 11
915.099857
 21
922.917450
  0
LINE
  8
CSLAYER1
  6
CONTINUOUS
 62
     3
 10
909.099857
 20
874.085154
 11
909.099857
 21
922.917450
  0
LINE
  8
CSLAYER1
  6
CONTINUOUS
 62
     3
 10
857.099857
 20
874.085154
 11
857.099857
 21
922.917450
  0
LINE
  8
CSLAYER1
  6
CONTINUOUS
 62
     3
 10
863.099857
 20
874.085154
 11
863.099857
 21
922.917450
  0
LINE
  8
CSLAYER1
  6
CONTINUOUS
 62
     3
 10
908.599857
 20
1187.229251
 11
908.599857
 21
1212.429251
  0
LINE
  8
CSLAYER1
  6
CONTINUOUS
 62
     3
 10
863.599857
 20
1187.229251
 11
863.599857
 21
1212.429251
  0
LINE
  8
CSLAYER1
  6
CONTINUOUS
 62
     3
 10
864.599857
 20
1213.429251
 11
907.599857
 21
1213.429251
  0
LINE
  8
CSLAYER1
  6
CONTINUOUS
 62
     3
 10
863.599857
 20
1212.429251
 11
864.599857
 21
1213.429251
  0
LINE
  8
CSLAYER1
  6
CONTINUOUS
 62
     3
 10
907.599857
 20
1213.429251
 11
908.599857
 21
1212.429251
  0
POINT
  8
CSLAYER1
 62
     3
 10
886.099857
 20
1199.829251
  0
LINE
  8
CSLAYER1
  6
CONTINUOUS
 62
     3
 10
909.599857
 20
1207.829251
 11
908.599857
 21
1207.829251
  0
LINE
  8
CSLAYER1
  6
CONTINUOUS
 62
     3
 10
863.599857
 20
1207.829251
 11
862.599857
 21
1207.829251
  0
LINE
  8
CSLAYER1
  6
CENTER
 62
     5
 10
857.099857
 20
906.852586
 11
915.099857
 21
906.852586
  0
LINE
  8
CSLAYER1
  6
CONTINUOUS
 62
     3
 10
817.599857
 20
889.794054
 11
820.599857
 21
889.794054
  0
LINE
  8
CSLAYER1
  6
CONTINUOUS
 62
     3
 10
857.099857
 20
874.085154
 11
863.099857
 21
874.085154
  0
LINE
  8
CSLAYER1
  6
CONTINUOUS
 62
     3
 10
857.099857
 20
922.917450
 11
863.099857
 21
922.917450
  0
LINE
  8
CSLAYER1
  6
CONTINUOUS
 62
     3
 10
909.099857
 20
922.917450
 11
915.099857
 21
922.917450
  0
LINE
  8
CSLAYER1
  6
CONTINUOUS
 62
     3
 10
909.099857
 20
874.085154
 11
915.099857
 21
874.085154
  0
LINE
  8
CSLAYER1
  6
CONTINUOUS
 62
     3
 10
863.099857
 20
889.794054
 11
909.099857
 21
889.794054
  0
LINE
  8
CSLAYER1
  6
CONTINUOUS
 62
     3
 10
915.099857
 20
889.794054
 11
921.599857
 21
889.794054
  0
LINE
  8
CSLAYER1
  6
CONTINUOUS
 62
     3
 10
930.599857
 20
889.794054
 11
933.599857
 21
889.794054
  0
LINE
  8
CSLAYER1
  6
CONTINUOUS
 62
     3
 10
909.012335
 20
1067.684940
 11
913.495211
 21
1050.395714
  0
LINE
  8
CSLAYER1
  6
CONTINUOUS
 62
     3
 10
909.012335
 20
1067.684940
 11
908.750435
 21
1068.649385
  0
LINE
  8
CSLAYER1
  6
CONTINUOUS
 62
     3
 10
908.750435
 20
1068.649385
 11
908.316151
 21
1069.599093
  0
LINE
  8
CSLAYER1
  6
CONTINUOUS
 62
     3
 10
908.316151
 20
1069.599093
 11
907.712787
 21
1070.526837
  0
LINE
  8
CSLAYER1
  6
CONTINUOUS
 62
     3
 10
907.712787
 20
1070.526837
 11
906.944936
 21
1071.425556
  0
LINE
  8
CSLAYER1
  6
CONTINUOUS
 62
     3
 10
906.944936
 20
1071.425556
 11
906.018441
 21
1072.288410
  0
LINE
  8
CSLAYER1
  6
CONTINUOUS
 62
     3
 10
906.018441
 20
1072.288410
 11
904.940354
 21
1073.108833
  0
LINE
  8
CSLAYER1
  6
CONTINUOUS
 62
     3
 10
904.940354
 20
1073.108833
 11
903.718879
 21
1073.880581
  0
LINE
  8
CSLAYER1
  6
CONTINUOUS
 62
     3
 10
903.718879
 20
1073.880581
 11
902.363313
 21
1074.597780
  0
LINE
  8
CSLAYER1
  6
CONTINUOUS
 62
     3
 10
902.363313
 20
1074.597780
 11
900.883972
 21
1075.254971
  0
LINE
  8
CSLAYER1
  6
CONTINUOUS
 62
     3
 10
900.883972
 20
1075.254971
 11
899.292115
 21
1075.847154
  0
LINE
  8
CSLAYER1
  6
CONTINUOUS
 62
     3
 10
899.292115
 20
1075.847154
 11
897.599857
 21
1076.369821
  0
LINE
  8
CSLAYER1
  6
CONTINUOUS
 62
     3
 10
897.599857
 20
1076.369821
 11
895.820077
 21
1076.818995
  0
LINE
  8
CSLAYER1
  6
CONTINUOUS
 62
     3
 10
895.820077
 20
1076.818995
 11
893.966320
 21
1077.191256
  0
LINE
  8
CSLAYER1
  6
CONTINUOUS
 62
     3
 10
893.966320
 20
1077.191256
 11
892.052695
 21
1077.483773
  0
LINE
  8
CSLAYER1
  6
CONTINUOUS
 62
     3
 10
892.052695
 20
1077.483773
 11
890.093765
 21
1077.694318
  0
LINE
  8
CSLAYER1
  6
CONTINUOUS
 62
     3
 10
890.093765
 20
1077.694318
 11
888.104439
 21
1077.821290
  0
LINE
  8
CSLAYER1
  6
CONTINUOUS
 62
     3
 10
888.104439
 20
1077.821290
 11
886.099857
 21
1077.863721
  0
LINE
  8
CSLAYER1
  6
CONTINUOUS
 62
     3
 10
863.187379
 20
1067.684940
 11
858.704502
 21
1050.395714
  0
LINE
  8
CSLAYER1
  6
CONTINUOUS
 62
     3
 10
863.187379
 20
1067.684940
 11
863.449278
 21
1068.649385
  0
LINE
  8
CSLAYER1
  6
CONTINUOUS
 62
     3
 10
863.449278
 20
1068.649385
 11
863.883563
 21
1069.599093
  0
LINE
  8
CSLAYER1
  6
CONTINUOUS
 62
     3
 10
863.883563
 20
1069.599093
 11
864.486926
 21
1070.526837
  0
LINE
  8
CSLAYER1
  6
CONTINUOUS
 62
     3
 10
864.486926
 20
1070.526837
 11
865.254778
 21
1071.425556
  0
LINE
  8
CSLAYER1
  6
CONTINUOUS
 62
     3
 10
865.254778
 20
1071.425556
 11
866.181272
 21
1072.288410
  0
LINE
  8
CSLAYER1
  6
CONTINUOUS
 62
     3
 10
866.181272
 20
1072.288410
 11
867.259360
 21
1073.108833
  0
LINE
  8
CSLAYER1
  6
CONTINUOUS
 62
     3
 10
867.259360
 20
1073.108833
 11
868.480834
 21
1073.880581
  0
LINE
  8
CSLAYER1
  6
CONTINUOUS
 62
     3
 10
868.480834
 20
1073.880581
 11
869.836401
 21
1074.597780
  0
LINE
  8
CSLAYER1
  6
CONTINUOUS
 62
     3
 10
869.836401
 20
1074.597780
 11
871.315742
 21
1075.254971
  0
LINE
  8
CSLAYER1
  6
CONTINUOUS
 62
     3
 10
871.315742
 20
1075.254971
 11
872.907599
 21
1075.847154
  0
LINE
  8
CSLAYER1
  6
CONTINUOUS
 62
     3
 10
872.907599
 20
1075.847154
 11
874.599857
 21
1076.369821
  0
LINE
  8
CSLAYER1
  6
CONTINUOUS
 62
     3
 10
874.599857
 20
1076.369821
 11
876.379637
 21
1076.818995
  0
LINE
  8
CSLAYER1
  6
CONTINUOUS
 62
     3
 10
876.379637
 20
1076.818995
 11
878.233393
 21
1077.191256
  0
LINE
  8
CSLAYER1
  6
CONTINUOUS
 62
     3
 10
878.233393
 20
1077.191256
 11
880.147019
 21
1077.483773
  0
LINE
  8
CSLAYER1
  6
CONTINUOUS
 62
     3
 10
880.147019
 20
1077.483773
 11
882.105949
 21
1077.694318
  0
LINE
  8
CSLAYER1
  6
CONTINUOUS
 62
     3
 10
882.105949
 20
1077.694318
 11
884.095275
 21
1077.821290
  0
LINE
  8
CSLAYER1
  6
CONTINUOUS
 62
     3
 10
884.095275
 20
1077.821290
 11
886.099857
 21
1077.863721
  0
LINE
  8
CSLAYER1
  6
CONTINUOUS
 62
     3
 10
904.099857
 20
1073.679014
 11
904.099857
 21
1188.672467
  0
LINE
  8
CSLAYER1
  6
CONTINUOUS
 62
     3
 10
904.099857
 20
1188.164130
 11
904.031361
 21
1188.924701
  0
LINE
  8
CSLAYER1
  6
CONTINUOUS
 62
     3
 10
904.031361
 20
1188.924701
 11
903.826396
 21
1189.679484
  0
LINE
  8
CSLAYER1
  6
CONTINUOUS
 62
     3
 10
903.826396
 20
1189.679484
 11
903.486522
 21
1190.422734
  0
LINE
  8
CSLAYER1
  6
CONTINUOUS
 62
     3
 10
903.486522
 20
1190.422734
 11
903.014324
 21
1191.148794
  0
LINE
  8
CSLAYER1
  6
CONTINUOUS
 62
     3
 10
903.014324
 20
1191.148794
 11
902.413397
 21
1191.852140
  0
LINE
  8
CSLAYER1
  6
CONTINUOUS
 62
     3
 10
902.413397
 20
1191.852140
 11
901.688314
 21
1192.527417
  0
LINE
  8
CSLAYER1
  6
CONTINUOUS
 62
     3
 10
901.688314
 20
1192.527417
 11
900.844593
 21
1193.169487
  0
LINE
  8
CSLAYER1
  6
CONTINUOUS
 62
     3
 10
900.844593
 20
1193.169487
 11
899.888657
 21
1193.773464
  0
LINE
  8
CSLAYER1
  6
CONTINUOUS
 62
     3
 10
899.888657
 20
1193.773464
 11
898.827779
 21
1194.334750
  0
LINE
  8
CSLAYER1
  6
CONTINUOUS
 62
     3
 10
898.827779
 20
1194.334750
 11
897.670034
 21
1194.849073
  0
LINE
  8
CSLAYER1
  6
CONTINUOUS
 62
     3
 10
897.670034
 20
1194.849073
 11
896.424233
 21
1195.312521
  0
LINE
  8
CSLAYER1
  6
CONTINUOUS
 62
     3
 10
896.424233
 20
1195.312521
 11
895.099857
 21
1195.721565
  0
LINE
  8
CSLAYER1
  6
CONTINUOUS
 62
     3
 10
895.099857
 20
1195.721565
 11
893.706985
 21
1196.073092
  0
LINE
  8
CSLAYER1
  6
CONTINUOUS
 62
     3
 10
893.706985
 20
1196.073092
 11
892.256219
 21
1196.364427
  0
LINE
  8
CSLAYER1
  6
CONTINUOUS
 62
     3
 10
892.256219
 20
1196.364427
 11
890.758599
 21
1196.593353
  0
LINE
  8
CSLAYER1
  6
CONTINUOUS
 62
     3
 10
890.758599
 20
1196.593353
 11
889.225524
 21
1196.758127
  0
LINE
  8
CSLAYER1
  6
CONTINUOUS
 62
     3
 10
889.225524
 20
1196.758127
 11
887.668660
 21
1196.857496
  0
LINE
  8
CSLAYER1
  6
CONTINUOUS
 62
     3
 10
887.668660
 20
1196.857496
 11
886.099857
 21
1196.890704
  0
LINE
  8
CSLAYER1
  6
CONTINUOUS
 62
     3
 10
886.099857
 20
1196.890704
 11
884.531053
 21
1196.857496
  0
LINE
  8
CSLAYER1
  6
CONTINUOUS
 62
     3
 10
884.531053
 20
1196.857496
 11
882.974189
 21
1196.758127
  0
LINE
  8
CSLAYER1
  6
CONTINUOUS
 62
     3
 10
882.974189
 20
1196.758127
 11
881.441114
 21
1196.593353
  0
LINE
  8
CSLAYER1
  6
CONTINUOUS
 62
     3
 10
881.441114
 20
1196.593353
 11
879.943494
 21
1196.364427
  0
LINE
  8
CSLAYER1
  6
CONTINUOUS
 62
     3
 10
879.943494
 20
1196.364427
 11
878.492728
 21
1196.073092
  0
LINE
  8
CSLAYER1
  6
CONTINUOUS
 62
     3
 10
878.492728
 20
1196.073092
 11
877.099857
 21
1195.721565
  0
LINE
  8
CSLAYER1
  6
CONTINUOUS
 62
     3
 10
877.099857
 20
1195.721565
 11
875.775481
 21
1195.312521
  0
LINE
  8
CSLAYER1
  6
CONTINUOUS
 62
     3
 10
875.775481
 20
1195.312521
 11
874.529680
 21
1194.849073
  0
LINE
  8
CSLAYER1
  6
CONTINUOUS
 62
     3
 10
874.529680
 20
1194.849073
 11
873.371935
 21
1194.334750
  0
LINE
  8
CSLAYER1
  6
CONTINUOUS
 62
     3
 10
873.371935
 20
1194.334750
 11
872.311057
 21
1193.773464
  0
LINE
  8
CSLAYER1
  6
CONTINUOUS
 62
     3
 10
872.311057
 20
1193.773464
 11
871.355120
 21
1193.169487
  0
LINE
  8
CSLAYER1
  6
CONTINUOUS
 62
     3
 10
871.355120
 20
1193.169487
 11
870.511399
 21
1192.527417
  0
LINE
  8
CSLAYER1
  6
CONTINUOUS
 62
     3
 10
870.511399
 20
1192.527417
 11
869.786316
 21
1191.852140
  0
LINE
  8
CSLAYER1
  6
CONTINUOUS
 62
     3
 10
869.786316
 20
1191.852140
 11
869.185389
 21
1191.148794
  0
LINE
  8
CSLAYER1
  6
CONTINUOUS
 62
     3
 10
869.185389
 20
1191.148794
 11
868.713192
 21
1190.422734
  0
LINE
  8
CSLAYER1
  6
CONTINUOUS
 62
     3
 10
868.713192
 20
1190.422734
 11
868.373317
 21
1189.679484
  0
LINE
  8
CSLAYER1
  6
CONTINUOUS
 62
     3
 10
868.373317
 20
1189.679484
 11
868.168352
 21
1188.924701
  0
LINE
  8
CSLAYER1
  6
CONTINUOUS
 62
     3
 10
868.168352
 20
1188.924701
 11
868.099857
 21
1188.164130
  0
LINE
  8
CSLAYER1
  6
CONTINUOUS
 62
     3
 10
913.599857
 20
1049.233731
 11
913.599857
 21
1018.644835
  0
LINE
  8
CSLAYER1
  6
CONTINUOUS
 62
     3
 10
913.599857
 20
1049.233731
 11
913.495211
 21
1050.395714
  0
LINE
  8
CSLAYER1
  6
CONTINUOUS
 62
     3
 10
913.495211
 20
1050.395714
 11
913.182070
 21
1051.548854
  0
LINE
  8
CSLAYER1
  6
CONTINUOUS
 62
     3
 10
913.182070
 20
1051.548854
 11
912.662817
 21
1052.684375
  0
LINE
  8
CSLAYER1
  6
CONTINUOUS
 62
     3
 10
912.662817
 20
1052.684375
 11
911.941404
 21
1053.793634
  0
LINE
  8
CSLAYER1
  6
CONTINUOUS
 62
     3
 10
911.941404
 20
1053.793634
 11
911.023321
 21
1054.868189
  0
LINE
  8
CSLAYER1
  6
CONTINUOUS
 62
     3
 10
911.023321
 20
1054.868189
 11
909.915555
 21
1055.899863
  0
LINE
  8
CSLAYER1
  6
CONTINUOUS
 62
     3
 10
909.915555
 20
1055.899863
 11
908.626538
 21
1056.880803
  0
LINE
  8
CSLAYER1
  6
CONTINUOUS
 62
     3
 10
908.626538
 20
1056.880803
 11
907.166079
 21
1057.803545
  0
LINE
  8
CSLAYER1
  6
CONTINUOUS
 62
     3
 10
907.166079
 20
1057.803545
 11
905.545293
 21
1058.661065
  0
LINE
  8
CSLAYER1
  6
CONTINUOUS
 62
     3
 10
905.545293
 20
1058.661065
 11
903.776516
 21
1059.446838
  0
LINE
  8
CSLAYER1
  6
CONTINUOUS
 62
     3
 10
903.776516
 20
1059.446838
 11
901.873209
 21
1060.154882
  0
LINE
  8
CSLAYER1
  6
CONTINUOUS
 62
     3
 10
901.873209
 20
1060.154882
 11
899.849857
 21
1060.779810
  0
LINE
  8
CSLAYER1
  6
CONTINUOUS
 62
     3
 10
899.849857
 20
1060.779810
 11
897.721859
 21
1061.316866
  0
LINE
  8
CSLAYER1
  6
CONTINUOUS
 62
     3
 10
897.721859
 20
1061.316866
 11
895.505411
 21
1061.761961
  0
LINE
  8
CSLAYER1
  6
CONTINUOUS
 62
     3
 10
895.505411
 20
1061.761961
 11
893.217380
 21
1062.111709
  0
LINE
  8
CSLAYER1
  6
CONTINUOUS
 62
     3
 10
893.217380
 20
1062.111709
 11
890.875182
 21
1062.363448
  0
LINE
  8
CSLAYER1
  6
CONTINUOUS
 62
     3
 10
890.875182
 20
1062.363448
 11
888.496640
 21
1062.515262
  0
LINE
  8
CSLAYER1
  6
CONTINUOUS
 62
     3
 10
888.496640
 20
1062.515262
 11
886.099857
 21
1062.565995
  0
LINE
  8
CSLAYER1
  6
CONTINUOUS
 62
     3
 10
886.099857
 20
1062.565995
 11
883.703074
 21
1062.515262
  0
LINE
  8
CSLAYER1
  6
CONTINUOUS
 62
     3
 10
883.703074
 20
1062.515262
 11
881.324532
 21
1062.363448
  0
LINE
  8
CSLAYER1
  6
CONTINUOUS
 62
     3
 10
881.324532
 20
1062.363448
 11
878.982333
 21
1062.111709
  0
LINE
  8
CSLAYER1
  6
CONTINUOUS
 62
     3
 10
878.982333
 20
1062.111709
 11
876.694303
 21
1061.761961
  0
LINE
  8
CSLAYER1
  6
CONTINUOUS
 62
     3
 10
876.694303
 20
1061.761961
 11
874.477854
 21
1061.316866
  0
LINE
  8
CSLAYER1
  6
CONTINUOUS
 62
     3
 10
874.477854
 20
1061.316866
 11
872.349857
 21
1060.779810
  0
LINE
  8
CSLAYER1
  6
CONTINUOUS
 62
     3
 10
872.349857
 20
1060.779810
 11
870.326505
 21
1060.154882
  0
LINE
  8
CSLAYER1
  6
CONTINUOUS
 62
     3
 10
870.326505
 20
1060.154882
 11
868.423197
 21
1059.446838
  0
LINE
  8
CSLAYER1
  6
CONTINUOUS
 62
     3
 10
868.423197
 20
1059.446838
 11
866.654420
 21
1058.661065
  0
LINE
  8
CSLAYER1
  6
CONTINUOUS
 62
     3
 10
866.654420
 20
1058.661065
 11
865.033634
 21
1057.803545
  0
LINE
  8
CSLAYER1
  6
CONTINUOUS
 62
     3
 10
865.033634
 20
1057.803545
 11
863.573175
 21
1056.880803
  0
LINE
  8
CSLAYER1
  6
CONTINUOUS
 62
     3
 10
863.573175
 20
1056.880803
 11
862.284158
 21
1055.899863
  0
LINE
  8
CSLAYER1
  6
CONTINUOUS
 62
     3
 10
862.284158
 20
1055.899863
 11
861.176393
 21
1054.868189
  0
LINE
  8
CSLAYER1
  6
CONTINUOUS
 62
     3
 10
861.176393
 20
1054.868189
 11
860.258310
 21
1053.793634
  0
LINE
  8
CSLAYER1
  6
CONTINUOUS
 62
     3
 10
860.258310
 20
1053.793634
 11
859.536896
 21
1052.684375
  0
LINE
  8
CSLAYER1
  6
CONTINUOUS
 62
     3
 10
859.536896
 20
1052.684375
 11
859.017643
 21
1051.548854
  0
LINE
  8
CSLAYER1
  6
CONTINUOUS
 62
     3
 10
859.017643
 20
1051.548854
 11
858.704502
 21
1050.395714
  0
LINE
  8
CSLAYER1
  6
CONTINUOUS
 62
     3
 10
858.704502
 20
1050.395714
 11
858.599857
 21
1049.233731
  0
LINE
  8
CSLAYER1
  6
CONTINUOUS
 62
     3
 10
858.599857
 20
1049.233731
 11
858.599857
 21
1018.644835
  0
LINE
  8
CSLAYER1
  6
CONTINUOUS
 62
     3
 10
910.399857
 20
924.331955
 11
910.399857
 21
1018.644835
  0
LINE
  8
CSLAYER1
  6
CONTINUOUS
 62
     3
 10
913.599857
 20
1018.644835
 11
913.495211
 21
1019.806818
  0
LINE
  8
CSLAYER1
  6
CONTINUOUS
 62
     3
 10
913.495211
 20
1019.806818
 11
913.182070
 21
1020.959958
  0
LINE
  8
CSLAYER1
  6
CONTINUOUS
 62
     3
 10
913.182070
 20
1020.959958
 11
912.662817
 21
1022.095479
  0
LINE
  8
CSLAYER1
  6
CONTINUOUS
 62
     3
 10
912.662817
 20
1022.095479
 11
911.941404
 21
1023.204738
  0
LINE
  8
CSLAYER1
  6
CONTINUOUS
 62
     3
 10
911.941404
 20
1023.204738
 11
911.023321
 21
1024.279293
  0
LINE
  8
CSLAYER1
  6
CONTINUOUS
 62
     3
 10
911.023321
 20
1024.279293
 11
909.915555
 21
1025.310967
  0
LINE
  8
CSLAYER1
  6
CONTINUOUS
 62
     3
 10
909.915555
 20
1025.310967
 11
908.626538
 21
1026.291908
  0
LINE
  8
CSLAYER1
  6
CONTINUOUS
 62
     3
 10
908.626538
 20
1026.291908
 11
907.166079
 21
1027.214649
  0
LINE
  8
CSLAYER1
  6
CONTINUOUS
 62
     3
 10
907.166079
 20
1027.214649
 11
905.545293
 21
1028.072169
  0
LINE
  8
CSLAYER1
  6
CONTINUOUS
 62
     3
 10
905.545293
 20
1028.072169
 11
903.776516
 21
1028.857942
  0
LINE
  8
CSLAYER1
  6
CONTINUOUS
 62
     3
 10
903.776516
 20
1028.857942
 11
901.873209
 21
1029.565986
  0
LINE
  8
CSLAYER1
  6
CONTINUOUS
 62
     3
 10
901.873209
 20
1029.565986
 11
899.849857
 21
1030.190915
  0
LINE
  8
CSLAYER1
  6
CONTINUOUS
 62
     3
 10
899.849857
 20
1030.190915
 11
897.721859
 21
1030.727970
  0
LINE
  8
CSLAYER1
  6
CONTINUOUS
 62
     3
 10
897.721859
 20
1030.727970
 11
895.505411
 21
1031.173065
  0
LINE
  8
CSLAYER1
  6
CONTINUOUS
 62
     3
 10
895.505411
 20
1031.173065
 11
893.217380
 21
1031.522813
  0
LINE
  8
CSLAYER1
  6
CONTINUOUS
 62
     3
 10
893.217380
 20
1031.522813
 11
890.875182
 21
1031.774552
  0
LINE
  8
CSLAYER1
  6
CONTINUOUS
 62
     3
 10
890.875182
 20
1031.774552
 11
888.496640
 21
1031.926366
  0
LINE
  8
CSLAYER1
  6
CONTINUOUS
 62
     3
 10
888.496640
 20
1031.926366
 11
886.099857
 21
1031.977099
  0
LINE
  8
CSLAYER1
  6
CONTINUOUS
 62
     3
 10
886.099857
 20
1031.977099
 11
883.703074
 21
1031.926366
  0
LINE
  8
CSLAYER1
  6
CONTINUOUS
 62
     3
 10
883.703074
 20
1031.926366
 11
881.324532
 21
1031.774552
  0
LINE
  8
CSLAYER1
  6
CONTINUOUS
 62
     3
 10
881.324532
 20
1031.774552
 11
878.982333
 21
1031.522813
  0
LINE
  8
CSLAYER1
  6
CONTINUOUS
 62
     3
 10
878.982333
 20
1031.522813
 11
876.694303
 21
1031.173065
  0
LINE
  8
CSLAYER1
  6
CONTINUOUS
 62
     3
 10
876.694303
 20
1031.173065
 11
874.477854
 21
1030.727970
  0
LINE
  8
CSLAYER1
  6
CONTINUOUS
 62
     3
 10
874.477854
 20
1030.727970
 11
872.349857
 21
1030.190915
  0
LINE
  8
CSLAYER1
  6
CONTINUOUS
 62
     3
 10
872.349857
 20
1030.190915
 11
870.326505
 21
1029.565986
  0
LINE
  8
CSLAYER1
  6
CONTINUOUS
 62
     3
 10
870.326505
 20
1029.565986
 11
868.423197
 21
1028.857942
  0
LINE
  8
CSLAYER1
  6
CONTINUOUS
 62
     3
 10
868.423197
 20
1028.857942
 11
866.654420
 21
1028.072169
  0
LINE
  8
CSLAYER1
  6
CONTINUOUS
 62
     3
 10
866.654420
 20
1028.072169
 11
865.033634
 21
1027.214649
  0
LINE
  8
CSLAYER1
  6
CONTINUOUS
 62
     3
 10
865.033634
 20
1027.214649
 11
863.573175
 21
1026.291908
  0
LINE
  8
CSLAYER1
  6
CONTINUOUS
 62
     3
 10
863.573175
 20
1026.291908
 11
862.284158
 21
1025.310967
  0
LINE
  8
CSLAYER1
  6
CONTINUOUS
 62
     3
 10
862.284158
 20
1025.310967
 11
861.176393
 21
1024.279293
  0
LINE
  8
CSLAYER1
  6
CONTINUOUS
 62
     3
 10
861.176393
 20
1024.279293
 11
860.258310
 21
1023.204738
  0
LINE
  8
CSLAYER1
  6
CONTINUOUS
 62
     3
 10
860.258310
 20
1023.204738
 11
859.536896
 21
1022.095479
  0
LINE
  8
CSLAYER1
  6
CONTINUOUS
 62
     3
 10
859.536896
 20
1022.095479
 11
859.017643
 21
1020.959958
  0
LINE
  8
CSLAYER1
  6
CONTINUOUS
 62
     3
 10
859.017643
 20
1020.959958
 11
858.704502
 21
1019.806818
  0
LINE
  8
CSLAYER1
  6
CONTINUOUS
 62
     3
 10
858.704502
 20
1019.806818
 11
858.599857
 21
1018.644835
  0
LINE
  8
CSLAYER1
  6
CONTINUOUS
 62
     3
 10
858.599857
 20
1018.644835
 11
858.704502
 21
1017.482851
  0
LINE
  8
CSLAYER1
  6
CONTINUOUS
 62
     3
 10
858.704502
 20
1017.482851
 11
859.017643
 21
1016.329711
  0
LINE
  8
CSLAYER1
  6
CONTINUOUS
 62
     3
 10
859.017643
 20
1016.329711
 11
859.536896
 21
1015.194191
  0
LINE
  8
CSLAYER1
  6
CONTINUOUS
 62
     3
 10
859.536896
 20
1015.194191
 11
860.258310
 21
1014.084932
  0
LINE
  8
CSLAYER1
  6
CONTINUOUS
 62
     3
 10
860.258310
 20
1014.084932
 11
861.176393
 21
1013.010376
  0
LINE
  8
CSLAYER1
  6
CONTINUOUS
 62
     3
 10
861.176393
 20
1013.010376
 11
861.799857
 21
1012.429737
  0
LINE
  8
CSLAYER1
  6
CONTINUOUS
 62
     3
 10
910.399857
 20
1012.429737
 11
911.023321
 21
1013.010376
  0
LINE
  8
CSLAYER1
  6
CONTINUOUS
 62
     3
 10
911.023321
 20
1013.010376
 11
911.941404
 21
1014.084932
  0
LINE
  8
CSLAYER1
  6
CONTINUOUS
 62
     3
 10
911.941404
 20
1014.084932
 11
912.662817
 21
1015.194191
  0
LINE
  8
CSLAYER1
  6
CONTINUOUS
 62
     3
 10
912.662817
 20
1015.194191
 11
913.182070
 21
1016.329711
  0
LINE
  8
CSLAYER1
  6
CONTINUOUS
 62
     3
 10
913.182070
 20
1016.329711
 11
913.495211
 21
1017.482851
  0
LINE
  8
CSLAYER1
  6
CONTINUOUS
 62
     3
 10
913.495211
 20
1017.482851
 11
913.599857
 21
1018.644835
  0
LINE
  8
CSLAYER1
  6
CONTINUOUS
 62
     3
 10
910.399857
 20
1018.644835
 11
910.307388
 21
1019.671606
  0
LINE
  8
CSLAYER1
  6
CONTINUOUS
 62
     3
 10
910.307388
 20
1019.671606
 11
910.030685
 21
1020.690562
  0
LINE
  8
CSLAYER1
  6
CONTINUOUS
 62
     3
 10
910.030685
 20
1020.690562
 11
909.571854
 21
1021.693949
  0
LINE
  8
CSLAYER1
  6
CONTINUOUS
 62
     3
 10
909.571854
 20
1021.693949
 11
908.934387
 21
1022.674131
  0
LINE
  8
CSLAYER1
  6
CONTINUOUS
 62
     3
 10
908.934387
 20
1022.674131
 11
908.123136
 21
1023.623647
  0
LINE
  8
CSLAYER1
  6
CONTINUOUS
 62
     3
 10
908.123136
 20
1023.623647
 11
907.144274
 21
1024.535272
  0
LINE
  8
CSLAYER1
  6
CONTINUOUS
 62
     3
 10
907.144274
 20
1024.535272
 11
906.005251
 21
1025.402066
  0
LINE
  8
CSLAYER1
  6
CONTINUOUS
 62
     3
 10
906.005251
 20
1025.402066
 11
904.714737
 21
1026.217434
  0
LINE
  8
CSLAYER1
  6
CONTINUOUS
 62
     3
 10
904.714737
 20
1026.217434
 11
903.282551
 21
1026.975170
  0
LINE
  8
CSLAYER1
  6
CONTINUOUS
 62
     3
 10
903.282551
 20
1026.975170
 11
901.719596
 21
1027.669508
  0
LINE
  8
CSLAYER1
  6
CONTINUOUS
 62
     3
 10
901.719596
 20
1027.669508
 11
900.037764
 21
1028.295162
  0
LINE
  8
CSLAYER1
  6
CONTINUOUS
 62
     3
 10
900.037764
 20
1028.295162
 11
898.249857
 21
1028.847371
  0
LINE
  8
CSLAYER1
  6
CONTINUOUS
 62
     3
 10
898.249857
 20
1028.847371
 11
896.369480
 21
1029.321932
  0
LINE
  8
CSLAYER1
  6
CONTINUOUS
 62
     3
 10
896.369480
 20
1029.321932
 11
894.410946
 21
1029.715235
  0
LINE
  8
CSLAYER1
  6
CONTINUOUS
 62
     3
 10
894.410946
 20
1029.715235
 11
892.389159
 21
1030.024285
  0
LINE
  8
CSLAYER1
  6
CONTINUOUS
 62
     3
 10
892.389159
 20
1030.024285
 11
890.319507
 21
1030.246731
  0
LINE
  8
CSLAYER1
  6
CONTINUOUS
 62
     3
 10
890.319507
 20
1030.246731
 11
888.217741
 21
1030.380879
  0
LINE
  8
CSLAYER1
  6
CONTINUOUS
 62
     3
 10
888.217741
 20
1030.380879
 11
886.099857
 21
1030.425708
  0
LINE
  8
CSLAYER1
  6
CONTINUOUS
 62
     3
 10
886.099857
 20
1030.425708
 11
883.981972
 21
1030.380879
  0
LINE
  8
CSLAYER1
  6
CONTINUOUS
 62
     3
 10
883.981972
 20
1030.380879
 11
881.880206
 21
1030.246731
  0
LINE
  8
CSLAYER1
  6
CONTINUOUS
 62
     3
 10
881.880206
 20
1030.246731
 11
879.810554
 21
1030.024285
  0
LINE
  8
CSLAYER1
  6
CONTINUOUS
 62
     3
 10
879.810554
 20
1030.024285
 11
877.788767
 21
1029.715235
  0
LINE
  8
CSLAYER1
  6
CONTINUOUS
 62
     3
 10
877.788767
 20
1029.715235
 11
875.830233
 21
1029.321932
  0
LINE
  8
CSLAYER1
  6
CONTINUOUS
 62
     3
 10
875.830233
 20
1029.321932
 11
873.949857
 21
1028.847371
  0
LINE
  8
CSLAYER1
  6
CONTINUOUS
 62
     3
 10
873.949857
 20
1028.847371
 11
872.161949
 21
1028.295162
  0
LINE
  8
CSLAYER1
  6
CONTINUOUS
 62
     3
 10
872.161949
 20
1028.295162
 11
870.480118
 21
1027.669508
  0
LINE
  8
CSLAYER1
  6
CONTINUOUS
 62
     3
 10
870.480118
 20
1027.669508
 11
868.917162
 21
1026.975170
  0
LINE
  8
CSLAYER1
  6
CONTINUOUS
 62
     3
 10
868.917162
 20
1026.975170
 11
867.484977
 21
1026.217434
  0
LINE
  8
CSLAYER1
  6
CONTINUOUS
 62
     3
 10
867.484977
 20
1026.217434
 11
866.194462
 21
1025.402066
  0
LINE
  8
CSLAYER1
  6
CONTINUOUS
 62
     3
 10
866.194462
 20
1025.402066
 11
865.055439
 21
1024.535272
  0
LINE
  8
CSLAYER1
  6
CONTINUOUS
 62
     3
 10
865.055439
 20
1024.535272
 11
864.076577
 21
1023.623647
  0
LINE
  8
CSLAYER1
  6
CONTINUOUS
 62
     3
 10
864.076577
 20
1023.623647
 11
863.265326
 21
1022.674131
  0
LINE
  8
CSLAYER1
  6
CONTINUOUS
 62
     3
 10
863.265326
 20
1022.674131
 11
862.627859
 21
1021.693949
  0
LINE
  8
CSLAYER1
  6
CONTINUOUS
 62
     3
 10
862.627859
 20
1021.693949
 11
862.169028
 21
1020.690562
  0
LINE
  8
CSLAYER1
  6
CONTINUOUS
 62
     3
 10
862.169028
 20
1020.690562
 11
861.892325
 21
1019.671606
  0
LINE
  8
CSLAYER1
  6
CONTINUOUS
 62
     3
 10
861.892325
 20
1019.671606
 11
861.799857
 21
1018.644835
  0
LINE
  8
CSLAYER1
  6
CONTINUOUS
 62
     3
 10
861.799857
 20
924.331955
 11
861.799857
 21
1018.644835
  0
LINE
  8
CSLAYER1
  6
CONTINUOUS
 62
     3
 10
868.099857
 20
1073.639873
 11
868.099857
 21
1188.164130
  0
LINE
  8
CSLAYER1
  6
CONTINUOUS
 62
     3
 10
908.599857
 20
893.743059
 11
908.599857
 21
924.331955
  0
LINE
  8
CSLAYER1
  6
CONTINUOUS
 62
     3
 10
908.599857
 20
924.331955
 11
908.514237
 21
925.282669
  0
LINE
  8
CSLAYER1
  6
CONTINUOUS
 62
     3
 10
908.514237
 20
925.282669
 11
908.258031
 21
926.226147
  0
LINE
  8
CSLAYER1
  6
CONTINUOUS
 62
     3
 10
908.258031
 20
926.226147
 11
907.833188
 21
927.155210
  0
LINE
  8
CSLAYER1
  6
CONTINUOUS
 62
     3
 10
907.833188
 20
927.155210
 11
907.242941
 21
928.062785
  0
LINE
  8
CSLAYER1
  6
CONTINUOUS
 62
     3
 10
907.242941
 20
928.062785
 11
906.491782
 21
928.941967
  0
LINE
  8
CSLAYER1
  6
CONTINUOUS
 62
     3
 10
906.491782
 20
928.941967
 11
905.585428
 21
929.786064
  0
LINE
  8
CSLAYER1
  6
CONTINUOUS
 62
     3
 10
905.585428
 20
929.786064
 11
904.530778
 21
930.588651
  0
LINE
  8
CSLAYER1
  6
CONTINUOUS
 62
     3
 10
904.530778
 20
930.588651
 11
903.335857
 21
931.343622
  0
LINE
  8
CSLAYER1
  6
CONTINUOUS
 62
     3
 10
903.335857
 20
931.343622
 11
902.009759
 21
932.045229
  0
LINE
  8
CSLAYER1
  6
CONTINUOUS
 62
     3
 10
902.009759
 20
932.045229
 11
900.562578
 21
932.688134
  0
LINE
  8
CSLAYER1
  6
CONTINUOUS
 62
     3
 10
900.562578
 20
932.688134
 11
899.005326
 21
933.267443
  0
LINE
  8
CSLAYER1
  6
CONTINUOUS
 62
     3
 10
899.005326
 20
933.267443
 11
897.349857
 21
933.778748
  0
LINE
  8
CSLAYER1
  6
CONTINUOUS
 62
     3
 10
897.349857
 20
933.778748
 11
895.608768
 21
934.218157
  0
LINE
  8
CSLAYER1
  6
CONTINUOUS
 62
     3
 10
895.608768
 20
934.218157
 11
893.795310
 21
934.582326
  0
LINE
  8
CSLAYER1
  6
CONTINUOUS
 62
     3
 10
893.795310
 20
934.582326
 11
891.923285
 21
934.868483
  0
LINE
  8
CSLAYER1
  6
CONTINUOUS
 62
     3
 10
891.923285
 20
934.868483
 11
890.006941
 21
935.074452
  0
LINE
  8
CSLAYER1
  6
CONTINUOUS
 62
     3
 10
890.006941
 20
935.074452
 11
888.060861
 21
935.198663
  0
LINE
  8
CSLAYER1
  6
CONTINUOUS
 62
     3
 10
888.060861
 20
935.198663
 11
886.099857
 21
935.240172
  0
LINE
  8
CSLAYER1
  6
CONTINUOUS
 62
     3
 10
886.099857
 20
935.240172
 11
884.138852
 21
935.198663
  0
LINE
  8
CSLAYER1
  6
CONTINUOUS
 62
     3
 10
884.138852
 20
935.198663
 11
882.192773
 21
935.074452
  0
LINE
  8
CSLAYER1
  6
CONTINUOUS
 62
     3
 10
882.192773
 20
935.074452
 11
880.276428
 21
934.868483
  0
LINE
  8
CSLAYER1
  6
CONTINUOUS
 62
     3
 10
880.276428
 20
934.868483
 11
878.404403
 21
934.582326
  0
LINE
  8
CSLAYER1
  6
CONTINUOUS
 62
     3
 10
878.404403
 20
934.582326
 11
876.590946
 21
934.218157
  0
LINE
  8
CSLAYER1
  6
CONTINUOUS
 62
     3
 10
876.590946
 20
934.218157
 11
874.849857
 21
933.778748
  0
LINE
  8
CSLAYER1
  6
CONTINUOUS
 62
     3
 10
874.849857
 20
933.778748
 11
873.194387
 21
933.267443
  0
LINE
  8
CSLAYER1
  6
CONTINUOUS
 62
     3
 10
873.194387
 20
933.267443
 11
871.637135
 21
932.688134
  0
LINE
  8
CSLAYER1
  6
CONTINUOUS
 62
     3
 10
871.637135
 20
932.688134
 11
870.189954
 21
932.045229
  0
LINE
  8
CSLAYER1
  6
CONTINUOUS
 62
     3
 10
870.189954
 20
932.045229
 11
868.863857
 21
931.343622
  0
LINE
  8
CSLAYER1
  6
CONTINUOUS
 62
     3
 10
868.863857
 20
931.343622
 11
867.668936
 21
930.588651
  0
LINE
  8
CSLAYER1
  6
CONTINUOUS
 62
     3
 10
867.668936
 20
930.588651
 11
866.614285
 21
929.786064
  0
LINE
  8
CSLAYER1
  6
CONTINUOUS
 62
     3
 10
866.614285
 20
929.786064
 11
865.707931
 21
928.941967
  0
LINE
  8
CSLAYER1
  6
CONTINUOUS
 62
     3
 10
865.707931
 20
928.941967
 11
864.956773
 21
928.062785
  0
LINE
  8
CSLAYER1
  6
CONTINUOUS
 62
     3
 10
864.956773
 20
928.062785
 11
864.366526
 21
927.155210
  0
LINE
  8
CSLAYER1
  6
CONTINUOUS
 62
     3
 10
864.366526
 20
927.155210
 11
863.941682
 21
926.226147
  0
LINE
  8
CSLAYER1
  6
CONTINUOUS
 62
     3
 10
863.941682
 20
926.226147
 11
863.685476
 21
925.282669
  0
LINE
  8
CSLAYER1
  6
CONTINUOUS
 62
     3
 10
863.685476
 20
925.282669
 11
863.599857
 21
924.331955
  0
LINE
  8
CSLAYER1
  6
CONTINUOUS
 62
     3
 10
910.399857
 20
924.331955
 11
910.307388
 21
925.358726
  0
LINE
  8
CSLAYER1
  6
CONTINUOUS
 62
     3
 10
910.307388
 20
925.358726
 11
910.030685
 21
926.377683
  0
LINE
  8
CSLAYER1
  6
CONTINUOUS
 62
     3
 10
910.030685
 20
926.377683
 11
909.571854
 21
927.381070
  0
LINE
  8
CSLAYER1
  6
CONTINUOUS
 62
     3
 10
909.571854
 20
927.381070
 11
908.934387
 21
928.361252
  0
LINE
  8
CSLAYER1
  6
CONTINUOUS
 62
     3
 10
908.934387
 20
928.361252
 11
908.123136
 21
929.310768
  0
LINE
  8
CSLAYER1
  6
CONTINUOUS
 62
     3
 10
908.123136
 20
929.310768
 11
907.144274
 21
930.222392
  0
LINE
  8
CSLAYER1
  6
CONTINUOUS
 62
     3
 10
907.144274
 20
930.222392
 11
906.005251
 21
931.089187
  0
LINE
  8
CSLAYER1
  6
CONTINUOUS
 62
     3
 10
906.005251
 20
931.089187
 11
904.714737
 21
931.904555
  0
LINE
  8
CSLAYER1
  6
CONTINUOUS
 62
     3
 10
904.714737
 20
931.904555
 11
903.282551
 21
932.662291
  0
LINE
  8
CSLAYER1
  6
CONTINUOUS
 62
     3
 10
903.282551
 20
932.662291
 11
901.719596
 21
933.356628
  0
LINE
  8
CSLAYER1
  6
CONTINUOUS
 62
     3
 10
901.719596
 20
933.356628
 11
900.037764
 21
933.982282
  0
LINE
  8
CSLAYER1
  6
CONTINUOUS
 62
     3
 10
900.037764
 20
933.982282
 11
898.249857
 21
934.534491
  0
LINE
  8
CSLAYER1
  6
CONTINUOUS
 62
     3
 10
898.249857
 20
934.534491
 11
896.369480
 21
935.009053
  0
LINE
  8
CSLAYER1
  6
CONTINUOUS
 62
     3
 10
896.369480
 20
935.009053
 11
894.410946
 21
935.402356
  0
LINE
  8
CSLAYER1
  6
CONTINUOUS
 62
     3
 10
894.410946
 20
935.402356
 11
892.389159
 21
935.711406
  0
LINE
  8
CSLAYER1
  6
CONTINUOUS
 62
     3
 10
892.389159
 20
935.711406
 11
890.319507
 21
935.933851
  0
LINE
  8
CSLAYER1
  6
CONTINUOUS
 62
     3
 10
890.319507
 20
935.933851
 11
888.217741
 21
936.067999
  0
LINE
  8
CSLAYER1
  6
CONTINUOUS
 62
     3
 10
888.217741
 20
936.067999
 11
886.099857
 21
936.112829
  0
LINE
  8
CSLAYER1
  6
CONTINUOUS
 62
     3
 10
886.099857
 20
936.112829
 11
883.981972
 21
936.067999
  0
LINE
  8
CSLAYER1
  6
CONTINUOUS
 62
     3
 10
883.981972
 20
936.067999
 11
881.880206
 21
935.933851
  0
LINE
  8
CSLAYER1
  6
CONTINUOUS
 62
     3
 10
881.880206
 20
935.933851
 11
879.810554
 21
935.711406
  0
LINE
  8
CSLAYER1
  6
CONTINUOUS
 62
     3
 10
879.810554
 20
935.711406
 11
877.788767
 21
935.402356
  0
LINE
  8
CSLAYER1
  6
CONTINUOUS
 62
     3
 10
877.788767
 20
935.402356
 11
875.830233
 21
935.009053
  0
LINE
  8
CSLAYER1
  6
CONTINUOUS
 62
     3
 10
875.830233
 20
935.009053
 11
873.949857
 21
934.534491
  0
LINE
  8
CSLAYER1
  6
CONTINUOUS
 62
     3
 10
873.949857
 20
934.534491
 11
872.161949
 21
933.982282
  0
LINE
  8
CSLAYER1
  6
CONTINUOUS
 62
     3
 10
872.161949
 20
933.982282
 11
870.480118
 21
933.356628
  0
LINE
  8
CSLAYER1
  6
CONTINUOUS
 62
     3
 10
870.480118
 20
933.356628
 11
868.917162
 21
932.662291
  0
LINE
  8
CSLAYER1
  6
CONTINUOUS
 62
     3
 10
868.917162
 20
932.662291
 11
867.484977
 21
931.904555
  0
LINE
  8
CSLAYER1
  6
CONTINUOUS
 62
     3
 10
867.484977
 20
931.904555
 11
866.194462
 21
931.089187
  0
LINE
  8
CSLAYER1
  6
CONTINUOUS
 62
     3
 10
866.194462
 20
931.089187
 11
865.055439
 21
930.222392
  0
LINE
  8
CSLAYER1
  6
CONTINUOUS
 62
     3
 10
865.055439
 20
930.222392
 11
864.076577
 21
929.310768
  0
LINE
  8
CSLAYER1
  6
CONTINUOUS
 62
     3
 10
864.076577
 20
929.310768
 11
863.265326
 21
928.361252
  0
LINE
  8
CSLAYER1
  6
CONTINUOUS
 62
     3
 10
863.265326
 20
928.361252
 11
862.627859
 21
927.381070
  0
LINE
  8
CSLAYER1
  6
CONTINUOUS
 62
     3
 10
862.627859
 20
927.381070
 11
862.169028
 21
926.377683
  0
LINE
  8
CSLAYER1
  6
CONTINUOUS
 62
     3
 10
862.169028
 20
926.377683
 11
861.892325
 21
925.358726
  0
LINE
  8
CSLAYER1
  6
CONTINUOUS
 62
     3
 10
861.892325
 20
925.358726
 11
861.799857
 21
924.331955
  0
LINE
  8
CSLAYER1
  6
CONTINUOUS
 62
     3
 10
861.799857
 20
924.331955
 11
861.892325
 21
923.305185
  0
LINE
  8
CSLAYER1
  6
CONTINUOUS
 62
     3
 10
861.892325
 20
923.305185
 11
861.997617
 21
922.917450
  0
LINE
  8
CSLAYER1
  6
CONTINUOUS
 62
     3
 10
863.099857
 20
920.557088
 11
863.265326
 21
920.302659
  0
LINE
  8
CSLAYER1
  6
CONTINUOUS
 62
     3
 10
863.265326
 20
920.302659
 11
863.599857
 21
919.911113
  0
LINE
  8
CSLAYER1
  6
CONTINUOUS
 62
     3
 10
908.599857
 20
919.911113
 11
908.934387
 21
920.302659
  0
LINE
  8
CSLAYER1
  6
CONTINUOUS
 62
     3
 10
908.934387
 20
920.302659
 11
909.099857
 21
920.557088
  0
LINE
  8
CSLAYER1
  6
CONTINUOUS
 62
     3
 10
910.202096
 20
922.917450
 11
910.307388
 21
923.305185
  0
LINE
  8
CSLAYER1
  6
CONTINUOUS
 62
     3
 10
910.307388
 20
923.305185
 11
910.399857
 21
924.331955
  0
LINE
  8
CSLAYER1
  6
CONTINUOUS
 62
     3
 10
863.599857
 20
893.743059
 11
863.599857
 21
924.331955
  0
LINE
  8
CSLAYER1
  6
CONTINUOUS
 62
     3
 10
908.599857
 20
893.743059
 11
908.514237
 21
894.693773
  0
LINE
  8
CSLAYER1
  6
CONTINUOUS
 62
     3
 10
908.514237
 20
894.693773
 11
908.258031
 21
895.637251
  0
LINE
  8
CSLAYER1
  6
CONTINUOUS
 62
     3
 10
908.258031
 20
895.637251
 11
907.833188
 21
896.566314
  0
LINE
  8
CSLAYER1
  6
CONTINUOUS
 62
     3
 10
907.833188
 20
896.566314
 11
907.242941
 21
897.473889
  0
LINE
  8
CSLAYER1
  6
CONTINUOUS
 62
     3
 10
907.242941
 20
897.473889
 11
906.491782
 21
898.353071
  0
LINE
  8
CSLAYER1
  6
CONTINUOUS
 62
     3
 10
906.491782
 20
898.353071
 11
905.585428
 21
899.197168
  0
LINE
  8
CSLAYER1
  6
CONTINUOUS
 62
     3
 10
905.585428
 20
899.197168
 11
904.530778
 21
899.999755
  0
LINE
  8
CSLAYER1
  6
CONTINUOUS
 62
     3
 10
904.530778
 20
899.999755
 11
903.335857
 21
900.754726
  0
LINE
  8
CSLAYER1
  6
CONTINUOUS
 62
     3
 10
903.335857
 20
900.754726
 11
902.009759
 21
901.456333
  0
LINE
  8
CSLAYER1
  6
CONTINUOUS
 62
     3
 10
902.009759
 20
901.456333
 11
900.562578
 21
902.099238
  0
LINE
  8
CSLAYER1
  6
CONTINUOUS
 62
     3
 10
900.562578
 20
902.099238
 11
899.005326
 21
902.678547
  0
LINE
  8
CSLAYER1
  6
CONTINUOUS
 62
     3
 10
899.005326
 20
902.678547
 11
897.349857
 21
903.189852
  0
LINE
  8
CSLAYER1
  6
CONTINUOUS
 62
     3
 10
897.349857
 20
903.189852
 11
895.608768
 21
903.629261
  0
LINE
  8
CSLAYER1
  6
CONTINUOUS
 62
     3
 10
895.608768
 20
903.629261
 11
893.795310
 21
903.993430
  0
LINE
  8
CSLAYER1
  6
CONTINUOUS
 62
     3
 10
893.795310
 20
903.993430
 11
891.923285
 21
904.279587
  0
LINE
  8
CSLAYER1
  6
CONTINUOUS
 62
     3
 10
891.923285
 20
904.279587
 11
890.006941
 21
904.485556
  0
LINE
  8
CSLAYER1
  6
CONTINUOUS
 62
     3
 10
890.006941
 20
904.485556
 11
888.060861
 21
904.609767
  0
LINE
  8
CSLAYER1
  6
CONTINUOUS
 62
     3
 10
888.060861
 20
904.609767
 11
886.099857
 21
904.651276
  0
LINE
  8
CSLAYER1
  6
CONTINUOUS
 62
     3
 10
886.099857
 20
904.651276
 11
884.138852
 21
904.609767
  0
LINE
  8
CSLAYER1
  6
CONTINUOUS
 62
     3
 10
884.138852
 20
904.609767
 11
882.192773
 21
904.485556
  0
LINE
  8
CSLAYER1
  6
CONTINUOUS
 62
     3
 10
882.192773
 20
904.485556
 11
880.276428
 21
904.279587
  0
LINE
  8
CSLAYER1
  6
CONTINUOUS
 62
     3
 10
880.276428
 20
904.279587
 11
878.404403
 21
903.993430
  0
LINE
  8
CSLAYER1
  6
CONTINUOUS
 62
     3
 10
878.404403
 20
903.993430
 11
876.590946
 21
903.629261
  0
LINE
  8
CSLAYER1
  6
CONTINUOUS
 62
     3
 10
876.590946
 20
903.629261
 11
874.849857
 21
903.189852
  0
LINE
  8
CSLAYER1
  6
CONTINUOUS
 62
     3
 10
874.849857
 20
903.189852
 11
873.194387
 21
902.678547
  0
LINE
  8
CSLAYER1
  6
CONTINUOUS
 62
     3
 10
873.194387
 20
902.678547
 11
871.637135
 21
902.099238
  0
LINE
  8
CSLAYER1
  6
CONTINUOUS
 62
     3
 10
871.637135
 20
902.099238
 11
870.189954
 21
901.456333
  0
LINE
  8
CSLAYER1
  6
CONTINUOUS
 62
     3
 10
870.189954
 20
901.456333
 11
868.863857
 21
900.754726
  0
LINE
  8
CSLAYER1
  6
CONTINUOUS
 62
     3
 10
868.863857
 20
900.754726
 11
867.668936
 21
899.999755
  0
LINE
  8
CSLAYER1
  6
CONTINUOUS
 62
     3
 10
867.668936
 20
899.999755
 11
866.614285
 21
899.197168
  0
LINE
  8
CSLAYER1
  6
CONTINUOUS
 62
     3
 10
866.614285
 20
899.197168
 11
865.707931
 21
898.353071
  0
LINE
  8
CSLAYER1
  6
CONTINUOUS
 62
     3
 10
865.707931
 20
898.353071
 11
864.956773
 21
897.473889
  0
LINE
  8
CSLAYER1
  6
CONTINUOUS
 62
     3
 10
864.956773
 20
897.473889
 11
864.366526
 21
896.566314
  0
LINE
  8
CSLAYER1
  6
CONTINUOUS
 62
     3
 10
864.366526
 20
896.566314
 11
863.941682
 21
895.637251
  0
LINE
  8
CSLAYER1
  6
CONTINUOUS
 62
     3
 10
863.941682
 20
895.637251
 11
863.685476
 21
894.693773
  0
LINE
  8
CSLAYER1
  6
CONTINUOUS
 62
     3
 10
863.685476
 20
894.693773
 11
863.599857
 21
893.743059
  0
LINE
  8
CSLAYER1
  6
CONTINUOUS
 62
     3
 10
863.599857
 20
893.743059
 11
863.685476
 21
892.792346
  0
LINE
  8
CSLAYER1
  6
CONTINUOUS
 62
     3
 10
863.685476
 20
892.792346
 11
863.941682
 21
891.848868
  0
LINE
  8
CSLAYER1
  6
CONTINUOUS
 62
     3
 10
863.941682
 20
891.848868
 11
864.366526
 21
890.919805
  0
LINE
  8
CSLAYER1
  6
CONTINUOUS
 62
     3
 10
864.366526
 20
890.919805
 11
864.956773
 21
890.012230
  0
LINE
  8
CSLAYER1
  6
CONTINUOUS
 62
     3
 10
864.956773
 20
890.012230
 11
865.143178
 21
889.794054
  0
LINE
  8
CSLAYER1
  6
CONTINUOUS
 62
     3
 10
907.056535
 20
889.794054
 11
907.242941
 21
890.012230
  0
LINE
  8
CSLAYER1
  6
CONTINUOUS
 62
     3
 10
907.242941
 20
890.012230
 11
907.833188
 21
890.919805
  0
LINE
  8
CSLAYER1
  6
CONTINUOUS
 62
     3
 10
907.833188
 20
890.919805
 11
908.258031
 21
891.848868
  0
LINE
  8
CSLAYER1
  6
CONTINUOUS
 62
     3
 10
908.258031
 20
891.848868
 11
908.514237
 21
892.792346
  0
LINE
  8
CSLAYER1
  6
CONTINUOUS
 62
     3
 10
908.514237
 20
892.792346
 11
908.599857
 21
893.743059
  0
LINE
  8
CSLAYER1
  6
CENTER
 62
     5
 10
846.099857
 20
860.802692
 11
846.099857
 21
1002.894680
  0
LINE
  8
CSLAYER1
  6
CONTINUOUS
 62
     3
 10
853.099857
 20
1015.558488
 11
839.099857
 21
1015.558488
  0
LINE
  8
CSLAYER1
  6
CONTINUOUS
 62
     3
 10
853.099857
 20
1007.758488
 11
839.099857
 21
1007.758488
  0
LINE
  8
CSLAYER1
  6
CONTINUOUS
 62
     3
 10
852.531788
 20
1002.558488
 11
839.667925
 21
1002.558488
  0
LINE
  8
CSLAYER1
  6
CONTINUOUS
 62
     3
 10
852.099857
 20
1000.558488
 11
840.099857
 21
1000.558488
  0
LINE
  8
CSLAYER1
  6
CONTINUOUS
 62
     3
 10
852.099857
 20
993.558488
 11
840.099857
 21
993.558488
  0
LINE
  8
CSLAYER1
  6
CONTINUOUS
 62
     3
 10
850.982883
 20
968.558488
 11
841.216831
 21
968.558488
  0
LINE
  8
CSLAYER1
  6
CONTINUOUS
 62
     3
 10
851.599857
 20
990.558488
 11
851.599857
 21
993.558488
  0
LINE
  8
CSLAYER1
  6
CONTINUOUS
 62
     3
 10
854.182760
 20
1008.383703
 11
854.182760
 21
1014.933273
  0
LINE
  8
CSLAYER1
  6
CONTINUOUS
 62
     3
 10
850.141309
 20
1008.383703
 11
850.141309
 21
1014.933273
  0
ARC
  8
CSLAYER1
  6
CONTINUOUS
 62
     3
 10
823.412086
 20
1007.800709
 40
29.587800
 50
345.831727
 51
359.918240
  0
ARC
  8
CSLAYER1
  6
CONTINUOUS
 62
     3
 10
868.787627
 20
1007.800709
 40
29.587800
 50
180.081760
 51
194.168273
  0
LINE
  8
CSLAYER1
  6
CONTINUOUS
 62
     3
 10
850.447171
 20
1000.558488
 11
850.447171
 21
1002.558488
  0
LINE
  8
CSLAYER1
  6
CONTINUOUS
 62
     3
 10
848.465405
 20
1000.558488
 11
848.465405
 21
1002.558488
  0
LINE
  8
CSLAYER1
  6
CONTINUOUS
 62
     3
 10
841.752543
 20
1000.558488
 11
841.752543
 21
1002.558488
  0
LINE
  8
CSLAYER1
  6
CONTINUOUS
 62
     3
 10
843.734308
 20
1000.558488
 11
843.734308
 21
1002.558488
  0
LINE
  8
CSLAYER1
  6
CONTINUOUS
 62
     3
 10
853.099857
 20
1015.558488
 11
854.182760
 21
1014.933273
  0
ARC
  8
CSLAYER1
  6
CONTINUOUS
 62
     3
 10
852.162034
 20
1012.006859
 40
3.556295
 50
64.625569
 51
124.625569
  0
ARC
  8
CSLAYER1
  6
CONTINUOUS
 62
     3
 10
846.099857
 20
1002.183703
 40
13.374785
 50
72.412046
 51
90.000000
  0
LINE
  8
CSLAYER1
  6
CONTINUOUS
 62
     3
 10
853.099857
 20
1007.758488
 11
854.182760
 21
1008.383703
  0
ARC
  8
CSLAYER1
  6
CONTINUOUS
 62
     3
 10
852.162034
 20
1011.310117
 40
3.556295
 50
235.374431
 51
295.374431
  0
ARC
  8
CSLAYER1
  6
CONTINUOUS
 62
     3
 10
846.099857
 20
1021.133273
 40
13.374785
 50
270.000000
 51
287.587954
  0
LINE
  8
CSLAYER1
  6
CONTINUOUS
 62
     3
 10
838.016953
 20
1008.383703
 11
838.016953
 21
1014.933273
  0
LINE
  8
CSLAYER1
  6
CONTINUOUS
 62
     3
 10
842.058405
 20
1008.383703
 11
842.058405
 21
1014.933273
  0
LINE
  8
CSLAYER1
  6
CONTINUOUS
 62
     3
 10
839.099857
 20
1015.558488
 11
838.016953
 21
1014.933273
  0
ARC
  8
CSLAYER1
  6
CONTINUOUS
 62
     3
 10
840.037679
 20
1012.006859
 40
3.556295
 50
55.374431
 51
115.374431
  0
ARC
  8
CSLAYER1
  6
CONTINUOUS
 62
     3
 10
846.099857
 20
1002.183703
 40
13.374785
 50
90.000000
 51
107.587954
  0
LINE
  8
CSLAYER1
  6
CONTINUOUS
 62
     3
 10
839.099857
 20
1007.758488
 11
838.016953
 21
1008.383703
  0
ARC
  8
CSLAYER1
  6
CONTINUOUS
 62
     3
 10
840.037679
 20
1011.310117
 40
3.556295
 50
244.625569
 51
304.625569
  0
ARC
  8
CSLAYER1
  6
CONTINUOUS
 62
     3
 10
846.099857
 20
1021.133273
 40
13.374785
 50
252.412046
 51
270.000000
  0
LINE
  8
CSLAYER1
  6
CONTINUOUS
 62
     3
 10
853.028060
 20
994.094386
 11
853.028060
 21
999.822589
  0
LINE
  8
CSLAYER1
  6
CONTINUOUS
 62
     3
 10
849.563958
 20
994.094386
 11
849.563958
 21
999.822589
  0
LINE
  8
CSLAYER1
  6
CONTINUOUS
 62
     3
 10
852.099857
 20
993.558488
 11
853.028060
 21
994.094386
  0
ARC
  8
CSLAYER1
  6
CONTINUOUS
 62
     3
 10
846.099857
 20
1005.022589
 40
11.464102
 50
270.000000
 51
287.821405
  0
ARC
  8
CSLAYER1
  6
CONTINUOUS
 62
     3
 10
851.296009
 20
996.624416
 40
3.066114
 50
236.143645
 51
295.804157
  0
LINE
  8
CSLAYER1
  6
CONTINUOUS
 62
     3
 10
852.099857
 20
1000.358488
 11
853.028060
 21
999.822589
  0
ARC
  8
CSLAYER1
  6
CONTINUOUS
 62
     3
 10
846.099857
 20
988.894386
 40
11.464102
 50
72.178595
 51
90.000000
  0
ARC
  8
CSLAYER1
  6
CONTINUOUS
 62
     3
 10
851.296009
 20
997.292559
 40
3.066114
 50
64.195843
 51
123.856355
  0
LINE
  8
CSLAYER1
  6
CONTINUOUS
 62
     3
 10
852.099857
 20
1000.358488
 11
840.099857
 21
1000.358488
  0
LINE
  8
CSLAYER1
  6
CONTINUOUS
 62
     3
 10
849.563958
 20
1000.358488
 11
849.563958
 21
1000.558488
  0
LINE
  8
CSLAYER1
  6
CONTINUOUS
 62
     3
 10
840.599857
 20
990.558488
 11
840.599857
 21
993.558488
  0
LINE
  8
CSLAYER1
  6
CONTINUOUS
 62
     3
 10
839.171653
 20
994.094386
 11
839.171653
 21
999.822589
  0
LINE
  8
CSLAYER1
  6
CONTINUOUS
 62
     3
 10
842.635755
 20
994.094386
 11
842.635755
 21
999.822589
  0
LINE
  8
CSLAYER1
  6
CONTINUOUS
 62
     3
 10
840.099857
 20
993.558488
 11
839.171653
 21
994.094386
  0
ARC
  8
CSLAYER1
  6
CONTINUOUS
 62
     3
 10
846.099857
 20
1005.022589
 40
11.464102
 50
252.178595
 51
270.000000
  0
ARC
  8
CSLAYER1
  6
CONTINUOUS
 62
     3
 10
840.903704
 20
996.624416
 40
3.066114
 50
244.195843
 51
303.856355
  0
LINE
  8
CSLAYER1
  6
CONTINUOUS
 62
     3
 10
840.099857
 20
1000.358488
 11
839.171653
 21
999.822589
  0
ARC
  8
CSLAYER1
  6
CONTINUOUS
 62
     3
 10
846.099857
 20
988.894386
 40
11.464102
 50
90.000000
 51
107.821405
  0
ARC
  8
CSLAYER1
  6
CONTINUOUS
 62
     3
 10
840.903704
 20
997.292559
 40
3.066114
 50
56.143645
 51
115.804157
  0
LINE
  8
CSLAYER1
  6
CONTINUOUS
 62
     3
 10
842.635755
 20
1000.358488
 11
842.635755
 21
1000.558488
  0
LINE
  8
CSLAYER1
  6
CONTINUOUS
 62
     3
 10
853.028060
 20
981.558488
 11
853.028060
 21
990.022589
  0
LINE
  8
CSLAYER1
  6
CONTINUOUS
 62
     3
 10
849.563958
 20
981.558488
 11
849.563958
 21
990.022589
  0
LINE
  8
CSLAYER1
  6
CONTINUOUS
 62
     3
 10
852.099857
 20
990.558488
 11
853.028060
 21
990.022589
  0
ARC
  8
CSLAYER1
  6
CONTINUOUS
 62
     3
 10
846.099857
 20
979.094386
 40
11.464102
 50
72.178595
 51
90.000000
  0
ARC
  8
CSLAYER1
  6
CONTINUOUS
 62
     3
 10
851.296009
 20
987.492559
 40
3.066114
 50
64.195843
 51
123.856355
  0
LINE
  8
CSLAYER1
  6
CONTINUOUS
 62
     3
 10
852.099857
 20
990.558488
 11
840.099857
 21
990.558488
  0
LINE
  8
CSLAYER1
  6
CONTINUOUS
 62
     3
 10
839.171653
 20
981.558488
 11
839.171653
 21
990.022589
  0
LINE
  8
CSLAYER1
  6
CONTINUOUS
 62
     3
 10
842.635755
 20
981.558488
 11
842.635755
 21
990.022589
  0
LINE
  8
CSLAYER1
  6
CONTINUOUS
 62
     3
 10
840.099857
 20
990.558488
 11
839.171653
 21
990.022589
  0
ARC
  8
CSLAYER1
  6
CONTINUOUS
 62
     3
 10
846.099857
 20
979.094386
 40
11.464102
 50
90.000000
 51
107.821405
  0
ARC
  8
CSLAYER1
  6
CONTINUOUS
 62
     3
 10
840.903704
 20
987.492559
 40
3.066114
 50
56.143645
 51
115.804157
  0
LINE
  8
CSLAYER1
  6
CONTINUOUS
 62
     3
 10
851.979138
 20
969.472028
 11
853.028060
 21
981.558488
  0
ARC
  8
CSLAYER1
  6
CONTINUOUS
 62
     3
 10
830.922368
 20
981.558488
 40
18.641590
 50
330.443788
 51
360.000000
  0
ARC
  8
CSLAYER1
  6
CONTINUOUS
 62
     3
 10
846.099857
 20
972.998342
 40
1.217263
 50
270.000000
 51
329.421532
  0
ARC
  8
CSLAYER1
  6
CONTINUOUS
 62
     3
 10
868.205548
 20
981.558488
 40
18.641590
 50
180.000000
 51
209.556212
  0
ARC
  8
CSLAYER1
  6
CONTINUOUS
 62
     3
 10
853.028060
 20
972.998342
 40
1.217263
 50
210.578468
 51
227.594217
  0
ARC
  8
CSLAYER1
  6
CONTINUOUS
 62
     3
 10
850.982883
 20
969.558488
 40
1.000000
 50
270.000000
 51
355.040021
  0
LINE
  8
CSLAYER1
  6
CONTINUOUS
 62
     3
 10
840.220575
 20
969.472028
 11
839.171653
 21
981.558488
  0
ARC
  8
CSLAYER1
  6
CONTINUOUS
 62
     3
 10
861.277345
 20
981.558488
 40
18.641590
 50
180.000000
 51
209.556212
  0
ARC
  8
CSLAYER1
  6
CONTINUOUS
 62
     3
 10
846.099857
 20
972.998342
 40
1.217263
 50
210.578468
 51
270.000000
  0
ARC
  8
CSLAYER1
  6
CONTINUOUS
 62
     3
 10
823.994165
 20
981.558488
 40
18.641590
 50
330.443788
 51
360.000000
  0
ARC
  8
CSLAYER1
  6
CONTINUOUS
 62
     3
 10
839.171653
 20
972.998342
 40
1.217263
 50
312.405783
 51
329.421532
  0
ARC
  8
CSLAYER1
  6
CONTINUOUS
 62
     3
 10
841.216831
 20
969.558488
 40
1.000000
 50
184.959979
 51
270.000000
  0
LINE
  8
CSLAYER1
  6
CONTINUOUS
 62
     3
 10
850.982883
 20
1035.258488
 11
841.216831
 21
1035.258488
  0
LINE
  8
CSLAYER1
  6
CENTER
 62
     5
 10
858.599857
 20
1028.258488
 11
853.099857
 21
1028.258488
  0
LINE
  8
CSLAYER1
  6
CONTINUOUS
 62
     3
 10
839.099857
 20
1021.258488
 11
839.099857
 21
1033.758488
  0
LINE
  8
CSLAYER1
  6
CONTINUOUS
 62
     3
 10
853.099857
 20
1035.258488
 11
840.599857
 21
1035.258488
  0
LINE
  8
CSLAYER1
  6
CONTINUOUS
 62
     3
 10
853.099857
 20
1021.258488
 11
839.099857
 21
1021.258488
  0
LINE
  8
CSLAYER1
  6
CONTINUOUS
 62
     3
 10
853.099857
 20
1021.258488
 11
853.099857
 21
1035.256043
  0
LINE
  8
CSLAYER1
  6
CONTINUOUS
 62
     3
 10
850.699857
 20
1015.558488
 11
850.699857
 21
1021.258488
  0
LINE
  8
CSLAYER1
  6
CONTINUOUS
 62
     5
 10
850.099857
 20
1015.558488
 11
850.099857
 21
1020.219257
  0
LINE
  8
CSLAYER1
  6
CONTINUOUS
 62
     5
 10
850.699857
 20
1021.258488
 11
850.099857
 21
1020.219257
  0
LINE
  8
CSLAYER1
  6
CONTINUOUS
 62
     3
 10
841.499857
 20
1015.558488
 11
841.499857
 21
1021.258488
  0
LINE
  8
CSLAYER1
  6
CONTINUOUS
 62
     5
 10
841.499857
 20
1021.258488
 11
842.099857
 21
1020.219257
  0
LINE
  8
CSLAYER1
  6
CONTINUOUS
 62
     5
 10
850.699857
 20
1020.219257
 11
841.499857
 21
1020.219257
  0
LINE
  8
CSLAYER1
  6
CONTINUOUS
 62
     3
 10
858.599857
 20
1023.406702
 11
853.099857
 21
1023.308488
  0
LINE
  8
CSLAYER1
  6
CONTINUOUS
 62
     5
 10
858.599857
 20
1024.106814
 11
853.087359
 21
1024.008376
  0
LINE
  8
CSLAYER1
  6
CONTINUOUS
 62
     3
 10
858.599857
 20
1033.110273
 11
853.099857
 21
1033.208488
  0
LINE
  8
CSLAYER1
  6
CONTINUOUS
 62
     5
 10
858.599857
 20
1032.410162
 11
853.087359
 21
1032.508599
  0
ARC
  8
CSLAYER1
  6
CONTINUOUS
 62
     3
 10
840.599857
 20
1033.758488
 40
1.500000
 50
90.000000
 51
180.000000
  0
LINE
  8
CSLAYER1
  6
CONTINUOUS
 62
     3
 10
864.599857
 20
1186.229251
 11
868.099857
 21
1186.229251
  0
LINE
  8
CSLAYER1
  6
CONTINUOUS
 62
     3
 10
863.599857
 20
1187.229251
 11
864.599857
 21
1186.229251
  0
LINE
  8
CSLAYER1
  6
CONTINUOUS
 62
     3
 10
907.599857
 20
1186.229251
 11
908.599857
 21
1187.229251
  0
LINE
  8
CSLAYER1
  6
CONTINUOUS
 62
     3
 10
909.599857
 20
1191.829251
 11
908.599857
 21
1191.829251
  0
LINE
  8
CSLAYER1
  6
CONTINUOUS
 62
     3
 10
863.599857
 20
1191.829251
 11
862.599857
 21
1191.829251
  0
LINE
  8
CSLAYER1
  6
CONTINUOUS
 62
     3
 10
850.599857
 20
1216.829251
 11
862.599857
 21
1216.829251
  0
LINE
  8
CSLAYER1
  6
CONTINUOUS
 62
     3
 10
850.599857
 20
1125.420982
 11
862.599857
 21
1125.420982
  0
LINE
  8
CSLAYER1
  6
CONTINUOUS
 62
     3
 10
909.599857
 20
1125.420982
 11
909.599857
 21
1216.829251
  0
LINE
  8
CSLAYER1
  6
CONTINUOUS
 62
     3
 10
862.599857
 20
1125.420982
 11
862.599857
 21
1216.829251
  0
LINE
  8
CSLAYER1
  6
CONTINUOUS
 62
     3
 10
850.599857
 20
1125.420982
 11
850.599857
 21
1216.829251
  0
LINE
  8
CSLAYER1
  6
CONTINUOUS
 62
     3
 10
909.599857
 20
1125.420982
 11
921.599857
 21
1125.420982
  0
LINE
  8
CSLAYER1
  6
CONTINUOUS
 62
     3
 10
904.099857
 20
1095.712904
 11
921.599857
 21
1095.712904
  0
LINE
  8
CSLAYER1
  6
CONTINUOUS
 62
     3
 10
862.599857
 20
1144.312904
 11
868.099857
 21
1144.312904
  0
LINE
  8
CSLAYER1
  6
CONTINUOUS
 62
     3
 10
904.099857
 20
1144.312904
 11
909.599857
 21
1144.312904
  0
LINE
  8
CSLAYER1
  6
CONTINUOUS
 62
     3
 10
909.599857
 20
1216.829251
 11
921.599857
 21
1216.829251
  0
LINE
  8
CSLAYER1
  6
CONTINUOUS
 62
     3
 10
829.599857
 20
1207.829251
 11
850.599857
 21
1207.829251
  0
LINE
  8
CSLAYER1
  6
CONTINUOUS
 62
     3
 10
829.599857
 20
1191.829251
 11
850.599857
 21
1191.829251
  0
LINE
  8
CSLAYER1
  6
CONTINUOUS
 62
     3
 10
875.599857
 20
1304.450391
 11
921.599857
 21
1304.450391
  0
LINE
  8
CSLAYER1
  6
CONTINUOUS
 62
     3
 10
817.599857
 20
1125.033565
 11
817.599857
 21
1118.533565
  0
LINE
  8
CSLAYER1
  6
CONTINUOUS
 62
     3
 10
820.599857
 20
1125.033565
 11
820.599857
 21
1118.533565
  0
LINE
  8
CSLAYER1
  6
CONTINUOUS
 62
     3
 10
817.599857
 20
1125.033565
 11
820.599857
 21
1125.033565
  0
LINE
  8
CSLAYER1
  6
CONTINUOUS
 62
     3
 10
817.599857
 20
1097.033565
 11
817.599857
 21
1103.533565
  0
LINE
  8
CSLAYER1
  6
CONTINUOUS
 62
     3
 10
820.599857
 20
1097.033565
 11
820.599857
 21
1103.533565
  0
LINE
  8
CSLAYER1
  6
CONTINUOUS
 62
     3
 10
817.599857
 20
1097.033565
 11
820.599857
 21
1097.033565
  0
LINE
  8
CSLAYER1
  6
CONTINUOUS
 62
     3
 10
820.599857
 20
889.794054
 11
817.599857
 21
889.794054
  0
LINE
  8
CSLAYER1
  6
CONTINUOUS
 62
     3
 10
875.599857
 20
1442.574293
 11
725.599857
 21
1442.574293
  0
LINE
  8
CSLAYER1
  6
CONTINUOUS
 62
     3
 10
725.599857
 20
1410.274293
 11
875.599857
 21
1410.274293
  0
LINE
  8
CSLAYER1
  6
CONTINUOUS
 62
     3
 10
819.599857
 20
1396.624293
 11
820.599857
 21
1396.624293
  0
LINE
  8
CSLAYER1
  6
CONTINUOUS
 62
     3
 10
818.599857
 20
1410.274293
 11
818.599857
 21
1397.624293
  0
LINE
  8
CSLAYER1
  6
CONTINUOUS
 62
     3
 10
818.599857
 20
1397.624293
 11
819.599857
 21
1396.624293
  0
LINE
  8
CSLAYER1
  6
CONTINUOUS
 62
     3
 10
819.599857
 20
1410.274293
 11
819.599857
 21
1396.624293
  0
LINE
  8
CSLAYER1
  6
CONTINUOUS
 62
     3
 10
818.099857
 20
1394.774293
 11
812.099857
 21
1394.774293
  0
LINE
  8
CSLAYER1
  6
CONTINUOUS
 62
     3
 10
812.099857
 20
1410.274293
 11
812.099857
 21
1394.774293
  0
LINE
  8
CSLAYER1
  6
CONTINUOUS
 62
     3
 10
818.099857
 20
1410.274293
 11
818.099857
 21
1394.774293
  0
LINE
  8
CSLAYER1
  6
CONTINUOUS
 62
     3
 10
829.599857
 20
1396.624293
 11
875.599857
 21
1396.624293
  0
LINE
  8
CSLAYER1
  6
CONTINUOUS
 62
     3
 10
809.099857
 20
1394.304638
 11
809.099857
 21
1410.274293
  0
LINE
  8
CSLAYER1
  6
CONTINUOUS
 62
     3
 10
812.099857
 20
1394.524293
 11
809.099857
 21
1394.524293
  0
LINE
  8
CSLAYER1
  6
CONTINUOUS
 62
     3
 10
812.099857
 20
1403.762096
 11
809.260831
 21
1407.074293
  0
LINE
  8
CSLAYER1
  6
CONTINUOUS
 62
     3
 10
801.099857
 20
1405.274293
 11
801.099857
 21
1407.074293
  0
ARC
  8
CSLAYER1
  6
CONTINUOUS
 62
     3
 10
814.895601
 20
1405.274293
 40
13.795744
 50
158.750456
 51
180.000000
  0
LINE
  8
CSLAYER1
  6
CONTINUOUS
 62
     3
 10
801.099857
 20
1410.274293
 11
801.099857
 21
1396.274293
  0
LINE
  8
CSLAYER1
  6
CONTINUOUS
 62
     3
 10
809.099857
 20
1399.789465
 11
802.237038
 21
1399.789465
  0
LINE
  8
CSLAYER1
  6
CONTINUOUS
 62
     3
 10
809.099857
 20
1394.304638
 11
802.237038
 21
1394.304638
  0
LINE
  8
CSLAYER1
  6
CONTINUOUS
 62
     3
 10
801.099857
 20
1396.274293
 11
802.237038
 21
1394.304638
  0
ARC
  8
CSLAYER1
  6
CONTINUOUS
 62
     3
 10
804.879901
 20
1397.047051
 40
3.808617
 50
133.940972
 51
174.338367
  0
ARC
  8
CSLAYER1
  6
CONTINUOUS
 62
     3
 10
814.895601
 20
1405.274293
 40
13.795744
 50
180.000000
 51
203.426598
  0
LINE
  8
CSLAYER1
  6
CONTINUOUS
 62
     3
 10
875.599857
 20
1304.450391
 11
829.599857
 21
1304.450391
  0
LINE
  8
CSLAYER1
  6
CONTINUOUS
 62
     3
 10
829.599857
 20
860.802692
 11
829.599857
 21
1410.274293
  0
LINE
  8
CSLAYER1
  6
CONTINUOUS
 62
     3
 10
820.599857
 20
860.802692
 11
820.599857
 21
1410.274293
  0
LINE
  8
CSLAYER1
  6
CONTINUOUS
 62
     3
 10
817.599857
 20
860.802692
 11
817.599857
 21
1394.774293
  0
LINE
  8
CSLAYER1
  6
CONTINUOUS
 62
     3
 10
808.599857
 20
860.802692
 11
808.599857
 21
1394.304638
  0
LINE
  8
CSLAYER1
  6
CONTINUOUS
 62
     3
 10
829.599857
 20
889.794054
 11
841.949857
 21
889.794054
  0
LINE
  8
CSLAYER1
  6
CONTINUOUS
 62
     3
 10
790.599857
 20
1410.274293
 11
795.099857
 21
1410.274293
  0
LINE
  8
CSLAYER1
  6
CONTINUOUS
 62
     3
 10
960.599857
 20
1410.274293
 11
956.099857
 21
1410.274293
  0
LINE
  8
CSLAYER1
  6
CONTINUOUS
 62
     3
 10
904.099857
 20
1186.229251
 11
907.599857
 21
1186.229251
  0
LINE
  8
CSLAYER1
  6
CONTINUOUS
 62
     3
 10
841.949857
 20
860.802692
 11
841.949857
 21
968.558488
  0
LINE
  8
CSLAYER1
  6
CONTINUOUS
 62
     3
 10
850.249857
 20
860.802692
 11
850.249857
 21
968.558488
  0
LINE
  8
CSLAYER1
  6
CONTINUOUS
 62
     3
 10
850.249857
 20
889.794054
 11
857.099857
 21
889.794054
  0
CIRCLE
  8
CSLAYER1
  6
CONTINUOUS
 62
     3
 10
845.599857
 20
832.452692
 40
4.150000
  0
LINE
  8
CSLAYER1
  6
CONTINUOUS
 62
     5
 10
842.099857
 20
1015.558488
 11
842.099857
 21
1020.219257
  0
DIMENSION
  8
CSLAYER1
 62
     3
  2
*D0006
 10
1091.986453
 20
826.802692
 11
1144.853394
 21
844.667542
 13
1025.599857
 23
820.802692
 14
1025.599857
 24
826.802692
 50
90.000000
 70
1
  0
LINE
  8
CSLAYER1
  6
CENTER
 62
     5
 10
801.099857
 20
1405.274293
 11
950.099857
 21
1405.274293
  0
LINE
  8
CSLAYER1
  6
CONTINUOUS
 62
     1
 10
958.949857
 20
1105.883565
 11
958.399857
 21
1105.883565
  0
LINE
  8
CSLAYER1
  6
CONTINUOUS
 62
     1
 10
958.949857
 20
1116.183565
 11
958.399857
 21
1116.183565
  0
LINE
  8
CSLAYER1
  6
CONTINUOUS
 62
     4
 10
948.399857
 20
1111.033565
 11
948.399857
 21
1100.063910
  0
LINE
  8
CSLAYER1
  6
CONTINUOUS
 62
     4
 10
958.399857
 20
1111.033565
 11
958.399857
 21
1101.533565
  0
LINE
  8
CSLAYER1
  6
CONTINUOUS
 62
     4
 10
948.399857
 20
1100.063910
 11
957.551351
 21
1100.063910
  0
LINE
  8
CSLAYER1
  6
CONTINUOUS
 62
     4
 10
948.399857
 20
1105.548738
 11
957.551351
 21
1105.548738
  0
LINE
  8
CSLAYER1
  6
CONTINUOUS
 62
     4
 10
958.399857
 20
1101.533565
 11
957.551351
 21
1100.063910
  0
ARC
  8
CSLAYER1
  6
CONTINUOUS
 62
     4
 10
940.248362
 20
1111.033565
 40
18.151494
 50
342.412046
 51
360.000000
  0
ARC
  8
CSLAYER1
  6
CONTINUOUS
 62
     4
 10
953.550528
 20
1102.806324
 40
4.850507
 50
-25.570827
 51
34.796733
  0
LINE
  8
CSLAYER1
  6
CONTINUOUS
 62
     4
 10
948.399857
 20
1100.283565
 11
945.399857
 21
1100.283565
  0
LINE
  8
CSLAYER1
  6
CONTINUOUS
 62
     4
 10
945.399857
 20
1099.033565
 11
943.099857
 21
1099.033565
  0
LINE
  8
CSLAYER1
  6
CONTINUOUS
 62
     4
 10
943.099857
 20
1111.033565
 11
943.099857
 21
1099.033565
  0
LINE
  8
CSLAYER1
  6
CONTINUOUS
 62
     4
 10
945.399857
 20
1111.033565
 11
945.399857
 21
1099.033565
  0
LINE
  8
CSLAYER1
  6
CONTINUOUS
 62
     4
 10
959.099857
 20
1111.033565
 11
959.099857
 21
1106.033565
  0
LINE
  8
CSLAYER1
  6
CONTINUOUS
 62
     4
 10
958.399857
 20
1105.333565
 11
959.099857
 21
1106.033565
  0
LINE
  8
CSLAYER1
  6
CONTINUOUS
 62
     4
 10
948.399857
 20
1111.033565
 11
948.399857
 21
1122.003220
  0
LINE
  8
CSLAYER1
  6
CONTINUOUS
 62
     4
 10
958.399857
 20
1111.033565
 11
958.399857
 21
1120.533565
  0
LINE
  8
CSLAYER1
  6
CONTINUOUS
 62
     4
 10
948.399857
 20
1122.003220
 11
957.551351
 21
1122.003220
  0
LINE
  8
CSLAYER1
  6
CONTINUOUS
 62
     4
 10
948.399857
 20
1116.518393
 11
957.551351
 21
1116.518393
  0
LINE
  8
CSLAYER1
  6
CONTINUOUS
 62
     4
 10
958.399857
 20
1120.533565
 11
957.551351
 21
1122.003220
  0
ARC
  8
CSLAYER1
  6
CONTINUOUS
 62
     4
 10
940.248362
 20
1111.033565
 40
18.151494
 50
0.000000
 51
17.587954
  0
ARC
  8
CSLAYER1
  6
CONTINUOUS
 62
     4
 10
953.550528
 20
1119.260807
 40
4.850507
 50
-34.796733
 51
25.570827
  0
LINE
  8
CSLAYER1
  6
CONTINUOUS
 62
     4
 10
948.399857
 20
1121.783565
 11
945.399857
 21
1121.783565
  0
LINE
  8
CSLAYER1
  6
CONTINUOUS
 62
     4
 10
945.399857
 20
1123.033565
 11
943.099857
 21
1123.033565
  0
LINE
  8
CSLAYER1
  6
CONTINUOUS
 62
     4
 10
943.099857
 20
1111.033565
 11
943.099857
 21
1123.033565
  0
LINE
  8
CSLAYER1
  6
CONTINUOUS
 62
     4
 10
945.399857
 20
1111.033565
 11
945.399857
 21
1123.033565
  0
LINE
  8
CSLAYER1
  6
CONTINUOUS
 62
     4
 10
959.099857
 20
1111.033565
 11
959.099857
 21
1116.033565
  0
LINE
  8
CSLAYER1
  6
CONTINUOUS
 62
     4
 10
958.399857
 20
1116.733565
 11
959.099857
 21
1116.033565
  0
LINE
  8
CSLAYER1
  6
CONTINUOUS
 62
     4
 10
943.099857
 20
1111.033565
 11
943.099857
 21
1099.033565
  0
LINE
  8
CSLAYER1
  6
CONTINUOUS
 62
     4
 10
942.599857
 20
1102.533565
 11
943.099857
 21
1103.033565
  0
LINE
  8
CSLAYER1
  6
CONTINUOUS
 62
     4
 10
942.599857
 20
1119.533565
 11
943.099857
 21
1119.033565
  0
LINE
  8
CSLAYER1
  6
CONTINUOUS
 62
     1
 10
792.249857
 20
1105.883565
 11
792.799857
 21
1105.883565
  0
LINE
  8
CSLAYER1
  6
CONTINUOUS
 62
     1
 10
792.249857
 20
1116.183565
 11
792.799857
 21
1116.183565
  0
LINE
  8
CSLAYER1
  6
CONTINUOUS
 62
     4
 10
802.799857
 20
1111.033565
 11
802.799857
 21
1100.063910
  0
LINE
  8
CSLAYER1
  6
CONTINUOUS
 62
     4
 10
792.799857
 20
1111.033565
 11
792.799857
 21
1101.533565
  0
LINE
  8
CSLAYER1
  6
CONTINUOUS
 62
     4
 10
802.799857
 20
1100.063910
 11
793.648362
 21
1100.063910
  0
LINE
  8
CSLAYER1
  6
CONTINUOUS
 62
     4
 10
802.799857
 20
1105.548738
 11
793.648362
 21
1105.548738
  0
LINE
  8
CSLAYER1
  6
CONTINUOUS
 62
     4
 10
792.799857
 20
1101.533565
 11
793.648362
 21
1100.063910
  0
ARC
  8
CSLAYER1
  6
CONTINUOUS
 62
     4
 10
810.951351
 20
1111.033565
 40
18.151494
 50
180.000000
 51
197.587954
  0
ARC
  8
CSLAYER1
  6
CONTINUOUS
 62
     4
 10
797.649185
 20
1102.806324
 40
4.850507
 50
145.203267
 51
205.570827
  0
LINE
  8
CSLAYER1
  6
CONTINUOUS
 62
     4
 10
802.799857
 20
1100.283565
 11
805.799857
 21
1100.283565
  0
LINE
  8
CSLAYER1
  6
CONTINUOUS
 62
     4
 10
805.799857
 20
1099.033565
 11
808.099857
 21
1099.033565
  0
LINE
  8
CSLAYER1
  6
CONTINUOUS
 62
     4
 10
808.099857
 20
1111.033565
 11
808.099857
 21
1099.033565
  0
LINE
  8
CSLAYER1
  6
CONTINUOUS
 62
     4
 10
805.799857
 20
1111.033565
 11
805.799857
 21
1099.033565
  0
LINE
  8
CSLAYER1
  6
CONTINUOUS
 62
     4
 10
792.099857
 20
1111.033565
 11
792.099857
 21
1106.033565
  0
LINE
  8
CSLAYER1
  6
CONTINUOUS
 62
     4
 10
792.799857
 20
1105.333565
 11
792.099857
 21
1106.033565
  0
LINE
  8
CSLAYER1
  6
CONTINUOUS
 62
     4
 10
802.799857
 20
1111.033565
 11
802.799857
 21
1122.003220
  0
LINE
  8
CSLAYER1
  6
CONTINUOUS
 62
     4
 10
792.799857
 20
1111.033565
 11
792.799857
 21
1120.533565
  0
LINE
  8
CSLAYER1
  6
CONTINUOUS
 62
     4
 10
802.799857
 20
1122.003220
 11
793.648362
 21
1122.003220
  0
LINE
  8
CSLAYER1
  6
CONTINUOUS
 62
     4
 10
802.799857
 20
1116.518393
 11
793.648362
 21
1116.518393
  0
LINE
  8
CSLAYER1
  6
CONTINUOUS
 62
     4
 10
792.799857
 20
1120.533565
 11
793.648362
 21
1122.003220
  0
ARC
  8
CSLAYER1
  6
CONTINUOUS
 62
     4
 10
810.951351
 20
1111.033565
 40
18.151494
 50
162.412046
 51
180.000000
  0
ARC
  8
CSLAYER1
  6
CONTINUOUS
 62
     4
 10
797.649185
 20
1119.260807
 40
4.850507
 50
154.429173
 51
214.796733
  0
LINE
  8
CSLAYER1
  6
CONTINUOUS
 62
     4
 10
802.799857
 20
1121.783565
 11
805.799857
 21
1121.783565
  0
LINE
  8
CSLAYER1
  6
CONTINUOUS
 62
     4
 10
805.799857
 20
1123.033565
 11
808.099857
 21
1123.033565
  0
LINE
  8
CSLAYER1
  6
CONTINUOUS
 62
     4
 10
808.099857
 20
1111.033565
 11
808.099857
 21
1123.033565
  0
LINE
  8
CSLAYER1
  6
CONTINUOUS
 62
     4
 10
805.799857
 20
1111.033565
 11
805.799857
 21
1123.033565
  0
LINE
  8
CSLAYER1
  6
CONTINUOUS
 62
     4
 10
792.099857
 20
1111.033565
 11
792.099857
 21
1116.033565
  0
LINE
  8
CSLAYER1
  6
CONTINUOUS
 62
     4
 10
792.799857
 20
1116.733565
 11
792.099857
 21
1116.033565
  0
LINE
  8
CSLAYER1
  6
CONTINUOUS
 62
     4
 10
808.099857
 20
1111.033565
 11
808.099857
 21
1099.033565
  0
LINE
  8
CSLAYER1
  6
CONTINUOUS
 62
     4
 10
808.599857
 20
1102.533565
 11
808.099857
 21
1103.033565
  0
LINE
  8
CSLAYER1
  6
CONTINUOUS
 62
     4
 10
808.599857
 20
1119.533565
 11
808.099857
 21
1119.033565
  0
LINE
  8
CSLAYER1
  6
CONTINUOUS
 62
     3
 10
829.599857
 20
1085.870490
 11
868.099857
 21
1085.870490
  0
LINE
  8
CSLAYER1
  6
CONTINUOUS
 62
     3
 10
829.599857
 20
1083.625515
 11
868.099857
 21
1083.625515
  0
LINE
  8
CSLAYER1
  6
CONTINUOUS
 62
     3
 10
904.099857
 20
1085.870490
 11
921.599857
 21
1085.870490
  0
LINE
  8
CSLAYER1
  6
CONTINUOUS
 62
     3
 10
904.099857
 20
1083.625515
 11
921.599857
 21
1083.625515
  0
LINE
  8
CSLAYER1
  6
CONTINUOUS
 62
     3
 10
775.599857
 20
864.802692
 11
807.099857
 21
864.802692
  0
LINE
  8
CSLAYER1
  6
CONTINUOUS
 62
     3
 10
944.099857
 20
820.802692
 11
944.099857
 21
864.802692
  0
LINE
  8
CSLAYER1
  6
CONTINUOUS
 62
     3
 10
807.099857
 20
820.802692
 11
807.099857
 21
864.802692
  0
LINE
  8
CSLAYER1
  6
CONTINUOUS
 62
     3
 10
944.099857
 20
864.802692
 11
975.599857
 21
864.802692
  0
LINE
  8
CSLAYER1
  6
CONTINUOUS
 62
     3
 10
953.099857
 20
854.772347
 11
953.099857
 21
832.833037
  0
LINE
  8
CSLAYER1
  6
CONTINUOUS
 62
     3
 10
950.099857
 20
833.052692
 11
953.099857
 21
833.052692
  0
LINE
  8
CSLAYER1
  6
CONTINUOUS
 62
     3
 10
950.099857
 20
854.552692
 11
953.099857
 21
854.552692
  0
LINE
  8
CSLAYER1
  6
CONTINUOUS
 62
     3
 10
950.099857
 20
845.314888
 11
953.099857
 21
841.814888
  0
LINE
  8
CSLAYER1
  6
CONTINUOUS
 62
     3
 10
961.099857
 20
843.802692
 11
961.099857
 21
834.802692
  0
LINE
  8
CSLAYER1
  6
CONTINUOUS
 62
     3
 10
953.099857
 20
838.317864
 11
959.962676
 21
838.317864
  0
LINE
  8
CSLAYER1
  6
CONTINUOUS
 62
     3
 10
953.099857
 20
832.833037
 11
959.962676
 21
832.833037
  0
LINE
  8
CSLAYER1
  6
CONTINUOUS
 62
     3
 10
961.099857
 20
834.802692
 11
959.962676
 21
832.833037
  0
ARC
  8
CSLAYER1
  6
CONTINUOUS
 62
     3
 10
957.319812
 20
835.575450
 40
3.808617
 50
5.661633
 51
46.059028
  0
ARC
  8
CSLAYER1
  6
CONTINUOUS
 62
     3
 10
947.304113
 20
843.802692
 40
13.795744
 50
336.573402
 51
360.000000
  0
LINE
  8
CSLAYER1
  6
CONTINUOUS
 62
     3
 10
961.099857
 20
843.802692
 11
961.099857
 21
852.802692
  0
LINE
  8
CSLAYER1
  6
CONTINUOUS
 62
     3
 10
953.099857
 20
849.287519
 11
959.962676
 21
849.287519
  0
LINE
  8
CSLAYER1
  6
CONTINUOUS
 62
     3
 10
953.099857
 20
854.772347
 11
959.962676
 21
854.772347
  0
LINE
  8
CSLAYER1
  6
CONTINUOUS
 62
     3
 10
961.099857
 20
852.802692
 11
959.962676
 21
854.772347
  0
ARC
  8
CSLAYER1
  6
CONTINUOUS
 62
     3
 10
957.319812
 20
852.029933
 40
3.808617
 50
313.940972
 51
354.338367
  0
ARC
  8
CSLAYER1
  6
CONTINUOUS
 62
     3
 10
947.304113
 20
843.802692
 40
13.795744
 50
-0.000000
 51
23.426598
  0
LINE
  8
CSLAYER1
  6
CENTER
 62
     5
 10
950.099857
 20
843.802692
 11
961.099857
 21
843.802692
  0
ENDBLK
  8
0
  0
BLOCK
  8
CSLAYER1
  2
BLKF0004
 70
   64
 10
0.0
 20
0.0
 30
0.0
  0
LINE
  8
CSLAYER1
  6
CONTINUOUS
 62
     5
 10
3489.249195
 20
1723.711773
 11
2609.249195
 21
1723.711773
  0
TEXT
  8
CSLAYER1
 62
     3
 10
3086.632324
 20
1729.361938
 40
40.000000
 41
0.832500
  1
１０Ｒ４／１３
 50
0.000000
 51
0.000000
  7
EASYDRAW_FONT
 72
     5
 11
3308.632324
 21
1729.361938
  0
ENDBLK
  8
0
  0
BLOCK
  8
CSLAYER1
  2
BLKF0005
 70
   64
 10
0.0
 20
0.0
 30
0.0
  0
LINE
  8
CSLAYER1
  6
CONTINUOUS
 62
     7
 10
805.956532
 20
2053.355042
 11
819.463558
 21
2060.454145
  0
LINE
  8
CSLAYER1
  6
CONTINUOUS
 62
     7
 10
819.463558
 20
2060.454145
 11
833.997904
 21
2066.851012
  0
LINE
  8
CSLAYER1
  6
CONTINUOUS
 62
     7
 10
833.997904
 20
2066.851012
 11
849.448956
 21
2072.496957
  0
LINE
  8
CSLAYER1
  6
CONTINUOUS
 62
     7
 10
849.448956
 20
2072.496957
 11
865.699121
 21
2077.349013
  0
LINE
  8
CSLAYER1
  6
CONTINUOUS
 62
     7
 10
865.699121
 20
2077.349013
 11
882.624726
 21
2081.370251
  0
LINE
  8
CSLAYER1
  6
CONTINUOUS
 62
     7
 10
882.624726
 20
2081.370251
 11
900.096957
 21
2084.530068
  0
LINE
  8
CSLAYER1
  6
CONTINUOUS
 62
     7
 10
900.096957
 20
2084.530068
 11
917.982839
 21
2086.804416
  0
LINE
  8
CSLAYER1
  6
CONTINUOUS
 62
     7
 10
917.982839
 20
2086.804416
 11
936.146250
 21
2088.175986
  0
LINE
  8
CSLAYER1
  6
CONTINUOUS
 62
     7
 10
936.146250
 20
2088.175986
 11
954.448956
 21
2088.634338
  0
LINE
  8
CSLAYER1
  6
CONTINUOUS
 62
     7
 10
954.448956
 20
2088.634338
 11
972.751662
 21
2088.175986
  0
LINE
  8
CSLAYER1
  6
CONTINUOUS
 62
     7
 10
972.751662
 20
2088.175986
 11
990.915073
 21
2086.804416
  0
LINE
  8
CSLAYER1
  6
CONTINUOUS
 62
     7
 10
990.915073
 20
2086.804416
 11
1008.800955
 21
2084.530068
  0
LINE
  8
CSLAYER1
  6
CONTINUOUS
 62
     7
 10
1008.800955
 20
2084.530068
 11
1026.273186
 21
2081.370251
  0
LINE
  8
CSLAYER1
  6
CONTINUOUS
 62
     7
 10
1026.273186
 20
2081.370251
 11
1041.970016
 21
2077.640949
  0
LINE
  8
CSLAYER1
  6
CONTINUOUS
 62
     7
 10
797.046987
 20
2058.465347
 11
811.364434
 21
2065.990397
  0
LINE
  8
CSLAYER1
  6
CONTINUOUS
 62
     7
 10
811.364434
 20
2065.990397
 11
826.770841
 21
2072.771075
  0
LINE
  8
CSLAYER1
  6
CONTINUOUS
 62
     7
 10
826.770841
 20
2072.771075
 11
843.148956
 21
2078.755777
  0
LINE
  8
CSLAYER1
  6
CONTINUOUS
 62
     7
 10
843.148956
 20
2078.755777
 11
860.374131
 21
2083.898956
  0
LINE
  8
CSLAYER1
  6
CONTINUOUS
 62
     7
 10
860.374131
 20
2083.898956
 11
878.315272
 21
2088.161469
  0
LINE
  8
CSLAYER1
  6
CONTINUOUS
 62
     7
 10
878.315272
 20
2088.161469
 11
896.835837
 21
2091.510875
  0
LINE
  8
CSLAYER1
  6
CONTINUOUS
 62
     7
 10
896.835837
 20
2091.510875
 11
915.794872
 21
2093.921684
  0
LINE
  8
CSLAYER1
  6
CONTINUOUS
 62
     7
 10
915.794872
 20
2093.921684
 11
935.048088
 21
2095.375548
  0
LINE
  8
CSLAYER1
  6
CONTINUOUS
 62
     7
 10
935.048088
 20
2095.375548
 11
954.448956
 21
2095.861401
  0
LINE
  8
CSLAYER1
  6
CONTINUOUS
 62
     7
 10
954.448956
 20
2095.861401
 11
973.849824
 21
2095.375548
  0
LINE
  8
CSLAYER1
  6
CONTINUOUS
 62
     7
 10
973.849824
 20
2095.375548
 11
993.103040
 21
2093.921684
  0
LINE
  8
CSLAYER1
  6
CONTINUOUS
 62
     7
 10
993.103040
 20
2093.921684
 11
1012.062075
 21
2091.510875
  0
LINE
  8
CSLAYER1
  6
CONTINUOUS
 62
     7
 10
1012.062075
 20
2091.510875
 11
1030.582640
 21
2088.161469
  0
LINE
  8
CSLAYER1
  6
CONTINUOUS
 62
     7
 10
1030.582640
 20
2088.161469
 11
1041.970016
 21
2085.456020
  0
LINE
  8
CSLAYER1
  6
CONTINUOUS
 62
     7
 10
780.493237
 20
2037.430448
 11
806.091104
 21
2053.425771
  0
LINE
  8
CSLAYER1
  6
CONTINUOUS
 62
     7
 10
780.493237
 20
2048.107254
 11
797.189633
 21
2058.540320
  0
ENDBLK
  8
0
  0
BLOCK
  8
CSLAYER1
  2
BLKF0006
 70
   64
 10
0.0
 20
0.0
 30
0.0
  0
LINE
  8
CSLAYER1
  6
CONTINUOUS
 62
     7
 10
648.922624
 20
2052.396156
 11
649.150304
 21
2052.547044
  0
LINE
  8
CSLAYER1
  6
CONTINUOUS
 62
     7
 10
649.150304
 20
2052.547044
 11
649.359417
 21
2052.725940
  0
LINE
  8
CSLAYER1
  6
CONTINUOUS
 62
     7
 10
649.359417
 20
2052.725940
 11
649.548373
 21
2052.931482
  0
LINE
  8
CSLAYER1
  6
CONTINUOUS
 62
     7
 10
649.548373
 20
2052.931482
 11
649.715734
 21
2053.162105
  0
LINE
  8
CSLAYER1
  6
CONTINUOUS
 62
     7
 10
649.715734
 20
2053.162105
 11
649.860225
 21
2053.416055
  0
LINE
  8
CSLAYER1
  6
CONTINUOUS
 62
     7
 10
649.860225
 20
2053.416055
 11
649.980747
 21
2053.691399
  0
LINE
  8
CSLAYER1
  6
CONTINUOUS
 62
     7
 10
649.980747
 20
2053.691399
 11
650.076384
 21
2053.986041
  0
LINE
  8
CSLAYER1
  6
CONTINUOUS
 62
     7
 10
650.076384
 20
2053.986041
 11
650.146406
 21
2054.297739
  0
LINE
  8
CSLAYER1
  6
CONTINUOUS
 62
     7
 10
650.146406
 20
2054.297739
 11
650.190281
 21
2054.624121
  0
LINE
  8
CSLAYER1
  6
CONTINUOUS
 62
     7
 10
650.190281
 20
2054.624121
 11
650.207676
 21
2054.962703
  0
LINE
  8
CSLAYER1
  6
CONTINUOUS
 62
     7
 10
650.207676
 20
2054.962703
 11
650.198457
 21
2055.310907
  0
LINE
  8
CSLAYER1
  6
CONTINUOUS
 62
     7
 10
650.198457
 20
2055.310907
 11
650.162696
 21
2055.666085
  0
LINE
  8
CSLAYER1
  6
CONTINUOUS
 62
     7
 10
650.162696
 20
2055.666085
 11
650.100663
 21
2056.025532
  0
LINE
  8
CSLAYER1
  6
CONTINUOUS
 62
     7
 10
650.100663
 20
2056.025532
 11
650.012832
 21
2056.386514
  0
LINE
  8
CSLAYER1
  6
CONTINUOUS
 62
     7
 10
650.012832
 20
2056.386514
 11
649.899870
 21
2056.746282
  0
LINE
  8
CSLAYER1
  6
CONTINUOUS
 62
     7
 10
649.899870
 20
2056.746282
 11
649.762638
 21
2057.102099
  0
LINE
  8
CSLAYER1
  6
CONTINUOUS
 62
     7
 10
649.762638
 20
2057.102099
 11
649.602180
 21
2057.451257
  0
LINE
  8
CSLAYER1
  6
CONTINUOUS
 62
     7
 10
649.602180
 20
2057.451257
 11
649.419716
 21
2057.791099
  0
LINE
  8
CSLAYER1
  6
CONTINUOUS
 62
     7
 10
649.419716
 20
2057.791099
 11
649.216636
 21
2058.119037
  0
LINE
  8
CSLAYER1
  6
CONTINUOUS
 62
     7
 10
649.216636
 20
2058.119037
 11
648.994486
 21
2058.432577
  0
LINE
  8
CSLAYER1
  6
CONTINUOUS
 62
     7
 10
648.994486
 20
2058.432577
 11
648.754955
 21
2058.729332
  0
LINE
  8
CSLAYER1
  6
CONTINUOUS
 62
     7
 10
648.754955
 20
2058.729332
 11
648.499868
 21
2059.007044
  0
LINE
  8
CSLAYER1
  6
CONTINUOUS
 62
     7
 10
648.499868
 20
2059.007044
 11
648.231164
 21
2059.263599
  0
LINE
  8
CSLAYER1
  6
CONTINUOUS
 62
     7
 10
648.231164
 20
2059.263599
 11
647.950890
 21
2059.497044
  0
LINE
  8
CSLAYER1
  6
CONTINUOUS
 62
     7
 10
647.950890
 20
2059.497044
 11
647.661178
 21
2059.705604
  0
LINE
  8
CSLAYER1
  6
CONTINUOUS
 62
     7
 10
647.661178
 20
2059.705604
 11
647.364233
 21
2059.887689
  0
LINE
  8
CSLAYER1
  6
CONTINUOUS
 62
     7
 10
647.364233
 20
2059.887689
 11
647.062316
 21
2060.041916
  0
LINE
  8
CSLAYER1
  6
CONTINUOUS
 62
     7
 10
647.062316
 20
2060.041916
 11
646.757723
 21
2060.167110
  0
LINE
  8
CSLAYER1
  6
CONTINUOUS
 62
     7
 10
646.757723
 20
2060.167110
 11
646.452773
 21
2060.262318
  0
LINE
  8
CSLAYER1
  6
CONTINUOUS
 62
     7
 10
646.452773
 20
2060.262318
 11
646.149788
 21
2060.326816
  0
LINE
  8
CSLAYER1
  6
CONTINUOUS
 62
     7
 10
646.149788
 20
2060.326816
 11
645.851072
 21
2060.360112
  0
LINE
  8
CSLAYER1
  6
CONTINUOUS
 62
     7
 10
645.851072
 20
2060.360112
 11
645.558899
 21
2060.361954
  0
LINE
  8
CSLAYER1
  6
CONTINUOUS
 62
     7
 10
645.558899
 20
2060.361954
 11
645.275493
 21
2060.332327
  0
LINE
  8
CSLAYER1
  6
CONTINUOUS
 62
     7
 10
645.275493
 20
2060.332327
 11
645.003011
 21
2060.271457
  0
LINE
  8
CSLAYER1
  6
CONTINUOUS
 62
     7
 10
645.003011
 20
2060.271457
 11
644.743526
 21
2060.179808
  0
LINE
  8
CSLAYER1
  6
CONTINUOUS
 62
     7
 10
644.743526
 20
2060.179808
 11
644.499013
 21
2060.058075
  0
ENDBLK
  8
0
  0
BLOCK
  8
CSLAYER1
  2
BLKF0007
 70
   64
 10
0.0
 20
0.0
 30
0.0
  0
LINE
  8
CSLAYER1
  6
CONTINUOUS
 62
     7
 10
641.552121
 20
2058.356687
 11
641.324442
 21
2058.205799
  0
LINE
  8
CSLAYER1
  6
CONTINUOUS
 62
     7
 10
641.324442
 20
2058.205799
 11
641.115328
 21
2058.026903
  0
LINE
  8
CSLAYER1
  6
CONTINUOUS
 62
     7
 10
641.115328
 20
2058.026903
 11
640.926372
 21
2057.821361
  0
LINE
  8
CSLAYER1
  6
CONTINUOUS
 62
     7
 10
640.926372
 20
2057.821361
 11
640.759012
 21
2057.590738
  0
LINE
  8
CSLAYER1
  6
CONTINUOUS
 62
     7
 10
640.759012
 20
2057.590738
 11
640.614521
 21
2057.336788
  0
LINE
  8
CSLAYER1
  6
CONTINUOUS
 62
     7
 10
640.614521
 20
2057.336788
 11
640.493998
 21
2057.061444
  0
LINE
  8
CSLAYER1
  6
CONTINUOUS
 62
     7
 10
640.493998
 20
2057.061444
 11
640.398362
 21
2056.766802
  0
LINE
  8
CSLAYER1
  6
CONTINUOUS
 62
     7
 10
640.398362
 20
2056.766802
 11
640.328340
 21
2056.455104
  0
LINE
  8
CSLAYER1
  6
CONTINUOUS
 62
     7
 10
640.328340
 20
2056.455104
 11
640.284464
 21
2056.128722
  0
LINE
  8
CSLAYER1
  6
CONTINUOUS
 62
     7
 10
640.284464
 20
2056.128722
 11
640.267070
 21
2055.790140
  0
LINE
  8
CSLAYER1
  6
CONTINUOUS
 62
     7
 10
640.267070
 20
2055.790140
 11
640.276288
 21
2055.441935
  0
LINE
  8
CSLAYER1
  6
CONTINUOUS
 62
     7
 10
640.276288
 20
2055.441935
 11
640.312050
 21
2055.086758
  0
LINE
  8
CSLAYER1
  6
CONTINUOUS
 62
     7
 10
640.312050
 20
2055.086758
 11
640.374082
 21
2054.727311
  0
LINE
  8
CSLAYER1
  6
CONTINUOUS
 62
     7
 10
640.374082
 20
2054.727311
 11
640.461914
 21
2054.366329
  0
LINE
  8
CSLAYER1
  6
CONTINUOUS
 62
     7
 10
640.461914
 20
2054.366329
 11
640.574875
 21
2054.006561
  0
LINE
  8
CSLAYER1
  6
CONTINUOUS
 62
     7
 10
640.574875
 20
2054.006561
 11
640.712107
 21
2053.650744
  0
LINE
  8
CSLAYER1
  6
CONTINUOUS
 62
     7
 10
640.712107
 20
2053.650744
 11
640.872566
 21
2053.301586
  0
LINE
  8
CSLAYER1
  6
CONTINUOUS
 62
     7
 10
640.872566
 20
2053.301586
 11
641.055029
 21
2052.961744
  0
LINE
  8
CSLAYER1
  6
CONTINUOUS
 62
     7
 10
641.055029
 20
2052.961744
 11
641.258109
 21
2052.633806
  0
LINE
  8
CSLAYER1
  6
CONTINUOUS
 62
     7
 10
641.258109
 20
2052.633806
 11
641.480259
 21
2052.320266
  0
LINE
  8
CSLAYER1
  6
CONTINUOUS
 62
     7
 10
641.480259
 20
2052.320266
 11
641.719790
 21
2052.023510
  0
LINE
  8
CSLAYER1
  6
CONTINUOUS
 62
     7
 10
641.719790
 20
2052.023510
 11
641.974878
 21
2051.745799
  0
LINE
  8
CSLAYER1
  6
CONTINUOUS
 62
     7
 10
641.974878
 20
2051.745799
 11
642.243581
 21
2051.489244
  0
LINE
  8
CSLAYER1
  6
CONTINUOUS
 62
     7
 10
642.243581
 20
2051.489244
 11
642.523855
 21
2051.255798
  0
LINE
  8
CSLAYER1
  6
CONTINUOUS
 62
     7
 10
642.523855
 20
2051.255798
 11
642.813567
 21
2051.047239
  0
LINE
  8
CSLAYER1
  6
CONTINUOUS
 62
     7
 10
642.813567
 20
2051.047239
 11
643.110512
 21
2050.865153
  0
LINE
  8
CSLAYER1
  6
CONTINUOUS
 62
     7
 10
643.110512
 20
2050.865153
 11
643.412430
 21
2050.710927
  0
LINE
  8
CSLAYER1
  6
CONTINUOUS
 62
     7
 10
643.412430
 20
2050.710927
 11
643.717022
 21
2050.585733
  0
LINE
  8
CSLAYER1
  6
CONTINUOUS
 62
     7
 10
643.717022
 20
2050.585733
 11
644.021972
 21
2050.490525
  0
LINE
  8
CSLAYER1
  6
CONTINUOUS
 62
     7
 10
644.021972
 20
2050.490525
 11
644.324958
 21
2050.426027
  0
LINE
  8
CSLAYER1
  6
CONTINUOUS
 62
     7
 10
644.324958
 20
2050.426027
 11
644.623674
 21
2050.392731
  0
LINE
  8
CSLAYER1
  6
CONTINUOUS
 62
     7
 10
644.623674
 20
2050.392731
 11
644.915847
 21
2050.390889
  0
LINE
  8
CSLAYER1
  6
CONTINUOUS
 62
     7
 10
644.915847
 20
2050.390889
 11
645.199253
 21
2050.420516
  0
LINE
  8
CSLAYER1
  6
CONTINUOUS
 62
     7
 10
645.199253
 20
2050.420516
 11
645.471735
 21
2050.481386
  0
LINE
  8
CSLAYER1
  6
CONTINUOUS
 62
     7
 10
645.471735
 20
2050.481386
 11
645.731220
 21
2050.573035
  0
LINE
  8
CSLAYER1
  6
CONTINUOUS
 62
     7
 10
645.731220
 20
2050.573035
 11
645.975732
 21
2050.694767
  0
LINE
  8
CSLAYER1
  6
CONTINUOUS
 62
     7
 10
645.975732
 20
2050.694767
 11
646.203412
 21
2050.845655
  0
LINE
  8
CSLAYER1
  6
CONTINUOUS
 62
     7
 10
646.203412
 20
2050.845655
 11
646.412525
 21
2051.024551
  0
LINE
  8
CSLAYER1
  6
CONTINUOUS
 62
     7
 10
646.412525
 20
2051.024551
 11
646.601481
 21
2051.230093
  0
LINE
  8
CSLAYER1
  6
CONTINUOUS
 62
     7
 10
646.601481
 20
2051.230093
 11
646.768842
 21
2051.460716
  0
LINE
  8
CSLAYER1
  6
CONTINUOUS
 62
     7
 10
646.768842
 20
2051.460716
 11
646.913333
 21
2051.714666
  0
LINE
  8
CSLAYER1
  6
CONTINUOUS
 62
     7
 10
646.913333
 20
2051.714666
 11
647.033855
 21
2051.990010
  0
LINE
  8
CSLAYER1
  6
CONTINUOUS
 62
     7
 10
647.033855
 20
2051.990010
 11
647.129492
 21
2052.284652
  0
LINE
  8
CSLAYER1
  6
CONTINUOUS
 62
     7
 10
647.129492
 20
2052.284652
 11
647.199514
 21
2052.596350
  0
LINE
  8
CSLAYER1
  6
CONTINUOUS
 62
     7
 10
647.199514
 20
2052.596350
 11
647.243389
 21
2052.922732
  0
LINE
  8
CSLAYER1
  6
CONTINUOUS
 62
     7
 10
647.243389
 20
2052.922732
 11
647.260784
 21
2053.261314
  0
LINE
  8
CSLAYER1
  6
CONTINUOUS
 62
     7
 10
647.260784
 20
2053.261314
 11
647.251565
 21
2053.609518
  0
LINE
  8
CSLAYER1
  6
CONTINUOUS
 62
     7
 10
647.251565
 20
2053.609518
 11
647.215804
 21
2053.964696
  0
LINE
  8
CSLAYER1
  6
CONTINUOUS
 62
     7
 10
647.215804
 20
2053.964696
 11
647.153771
 21
2054.324143
  0
LINE
  8
CSLAYER1
  6
CONTINUOUS
 62
     7
 10
647.153771
 20
2054.324143
 11
647.065940
 21
2054.685125
  0
LINE
  8
CSLAYER1
  6
CONTINUOUS
 62
     7
 10
647.065940
 20
2054.685125
 11
646.952978
 21
2055.044893
  0
LINE
  8
CSLAYER1
  6
CONTINUOUS
 62
     7
 10
646.952978
 20
2055.044893
 11
646.815746
 21
2055.400710
  0
LINE
  8
CSLAYER1
  6
CONTINUOUS
 62
     7
 10
646.815746
 20
2055.400710
 11
646.655288
 21
2055.749868
  0
LINE
  8
CSLAYER1
  6
CONTINUOUS
 62
     7
 10
646.655288
 20
2055.749868
 11
646.472824
 21
2056.089710
  0
LINE
  8
CSLAYER1
  6
CONTINUOUS
 62
     7
 10
646.472824
 20
2056.089710
 11
646.269744
 21
2056.417648
  0
LINE
  8
CSLAYER1
  6
CONTINUOUS
 62
     7
 10
646.269744
 20
2056.417648
 11
646.047594
 21
2056.731188
  0
LINE
  8
CSLAYER1
  6
CONTINUOUS
 62
     7
 10
646.047594
 20
2056.731188
 11
645.808063
 21
2057.027944
  0
LINE
  8
CSLAYER1
  6
CONTINUOUS
 62
     7
 10
645.808063
 20
2057.027944
 11
645.552976
 21
2057.305655
  0
LINE
  8
CSLAYER1
  6
CONTINUOUS
 62
     7
 10
645.552976
 20
2057.305655
 11
645.284272
 21
2057.562210
  0
LINE
  8
CSLAYER1
  6
CONTINUOUS
 62
     7
 10
645.284272
 20
2057.562210
 11
645.003998
 21
2057.795656
  0
LINE
  8
CSLAYER1
  6
CONTINUOUS
 62
     7
 10
645.003998
 20
2057.795656
 11
644.714286
 21
2058.004215
  0
LINE
  8
CSLAYER1
  6
CONTINUOUS
 62
     7
 10
644.714286
 20
2058.004215
 11
644.417341
 21
2058.186301
  0
LINE
  8
CSLAYER1
  6
CONTINUOUS
 62
     7
 10
644.417341
 20
2058.186301
 11
644.115424
 21
2058.340527
  0
LINE
  8
CSLAYER1
  6
CONTINUOUS
 62
     7
 10
644.115424
 20
2058.340527
 11
643.810831
 21
2058.465721
  0
LINE
  8
CSLAYER1
  6
CONTINUOUS
 62
     7
 10
643.810831
 20
2058.465721
 11
643.505881
 21
2058.560929
  0
LINE
  8
CSLAYER1
  6
CONTINUOUS
 62
     7
 10
643.505881
 20
2058.560929
 11
643.202896
 21
2058.625427
  0
LINE
  8
CSLAYER1
  6
CONTINUOUS
 62
     7
 10
643.202896
 20
2058.625427
 11
642.904180
 21
2058.658723
  0
LINE
  8
CSLAYER1
  6
CONTINUOUS
 62
     7
 10
642.904180
 20
2058.658723
 11
642.612007
 21
2058.660565
  0
LINE
  8
CSLAYER1
  6
CONTINUOUS
 62
     7
 10
642.612007
 20
2058.660565
 11
642.328601
 21
2058.630938
  0
LINE
  8
CSLAYER1
  6
CONTINUOUS
 62
     7
 10
642.328601
 20
2058.630938
 11
642.056119
 21
2058.570068
  0
LINE
  8
CSLAYER1
  6
CONTINUOUS
 62
     7
 10
642.056119
 20
2058.570068
 11
641.796634
 21
2058.478419
  0
LINE
  8
CSLAYER1
  6
CONTINUOUS
 62
     7
 10
641.796634
 20
2058.478419
 11
641.552121
 21
2058.356687
  0
ENDBLK
  8
0
  0
BLOCK
  8
CSLAYER1
  2
BLKF0008
 70
   64
 10
0.0
 20
0.0
 30
0.0
  0
LINE
  8
CSLAYER1
  6
CONTINUOUS
 62
     7
 10
650.178206
 20
2050.876848
 11
650.463940
 21
2051.121292
  0
LINE
  8
CSLAYER1
  6
CONTINUOUS
 62
     7
 10
650.463940
 20
2051.121292
 11
650.722131
 21
2051.402145
  0
LINE
  8
CSLAYER1
  6
CONTINUOUS
 62
     7
 10
650.722131
 20
2051.402145
 11
650.950813
 21
2051.717270
  0
LINE
  8
CSLAYER1
  6
CONTINUOUS
 62
     7
 10
650.950813
 20
2051.717270
 11
651.148246
 21
2052.064268
  0
LINE
  8
CSLAYER1
  6
CONTINUOUS
 62
     7
 10
651.148246
 20
2052.064268
 11
651.312929
 21
2052.440500
  0
LINE
  8
CSLAYER1
  6
CONTINUOUS
 62
     7
 10
651.312929
 20
2052.440500
 11
651.443607
 21
2052.843100
  0
LINE
  8
CSLAYER1
  6
CONTINUOUS
 62
     7
 10
651.443607
 20
2052.843100
 11
651.539286
 21
2053.269006
  0
LINE
  8
CSLAYER1
  6
CONTINUOUS
 62
     7
 10
651.539286
 20
2053.269006
 11
651.599237
 21
2053.714976
  0
LINE
  8
CSLAYER1
  6
CONTINUOUS
 62
     7
 10
651.599237
 20
2053.714976
 11
651.623005
 21
2054.177616
  0
LINE
  8
CSLAYER1
  6
CONTINUOUS
 62
     7
 10
651.623005
 20
2054.177616
 11
651.610409
 21
2054.653404
  0
LINE
  8
CSLAYER1
  6
CONTINUOUS
 62
     7
 10
651.610409
 20
2054.653404
 11
651.561544
 21
2055.138720
  0
LINE
  8
CSLAYER1
  6
CONTINUOUS
 62
     7
 10
651.561544
 20
2055.138720
 11
651.476782
 21
2055.629871
  0
LINE
  8
CSLAYER1
  6
CONTINUOUS
 62
     7
 10
651.476782
 20
2055.629871
 11
651.356769
 21
2056.123118
  0
LINE
  8
CSLAYER1
  6
CONTINUOUS
 62
     7
 10
651.356769
 20
2056.123118
 11
651.202418
 21
2056.614707
  0
LINE
  8
CSLAYER1
  6
CONTINUOUS
 62
     7
 10
651.202418
 20
2056.614707
 11
651.014903
 21
2057.100897
  0
LINE
  8
CSLAYER1
  6
CONTINUOUS
 62
     7
 10
651.014903
 20
2057.100897
 11
650.795652
 21
2057.577989
  0
LINE
  8
CSLAYER1
  6
CONTINUOUS
 62
     7
 10
650.795652
 20
2057.577989
 11
650.546333
 21
2058.042350
  0
LINE
  8
CSLAYER1
  6
CONTINUOUS
 62
     7
 10
650.546333
 20
2058.042350
 11
650.268844
 21
2058.490447
  0
LINE
  8
CSLAYER1
  6
CONTINUOUS
 62
     7
 10
650.268844
 20
2058.490447
 11
649.965296
 21
2058.918870
  0
LINE
  8
CSLAYER1
  6
CONTINUOUS
 62
     7
 10
649.965296
 20
2058.918870
 11
649.638001
 21
2059.324357
  0
LINE
  8
CSLAYER1
  6
CONTINUOUS
 62
     7
 10
649.638001
 20
2059.324357
 11
649.289447
 21
2059.703824
  0
LINE
  8
CSLAYER1
  6
CONTINUOUS
 62
     7
 10
649.289447
 20
2059.703824
 11
648.922290
 21
2060.054382
  0
LINE
  8
CSLAYER1
  6
CONTINUOUS
 62
     7
 10
648.922290
 20
2060.054382
 11
648.539322
 21
2060.373363
  0
LINE
  8
CSLAYER1
  6
CONTINUOUS
 62
     7
 10
648.539322
 20
2060.373363
 11
648.143458
 21
2060.658339
  0
LINE
  8
CSLAYER1
  6
CONTINUOUS
 62
     7
 10
648.143458
 20
2060.658339
 11
647.737711
 21
2060.907142
  0
LINE
  8
CSLAYER1
  6
CONTINUOUS
 62
     7
 10
647.737711
 20
2060.907142
 11
647.325169
 21
2061.117878
  0
LINE
  8
CSLAYER1
  6
CONTINUOUS
 62
     7
 10
647.325169
 20
2061.117878
 11
646.908972
 21
2061.288944
  0
LINE
  8
CSLAYER1
  6
CONTINUOUS
 62
     7
 10
646.908972
 20
2061.288944
 11
646.492288
 21
2061.419036
  0
LINE
  8
CSLAYER1
  6
CONTINUOUS
 62
     7
 10
646.492288
 20
2061.419036
 11
646.078286
 21
2061.507166
  0
LINE
  8
CSLAYER1
  6
CONTINUOUS
 62
     7
 10
646.078286
 20
2061.507166
 11
645.670119
 21
2061.552663
  0
LINE
  8
CSLAYER1
  6
CONTINUOUS
 62
     7
 10
645.670119
 20
2061.552663
 11
645.270893
 21
2061.555179
  0
LINE
  8
CSLAYER1
  6
CONTINUOUS
 62
     7
 10
645.270893
 20
2061.555179
 11
644.883646
 21
2061.514697
  0
LINE
  8
CSLAYER1
  6
CONTINUOUS
 62
     7
 10
644.883646
 20
2061.514697
 11
644.511324
 21
2061.431524
  0
LINE
  8
CSLAYER1
  6
CONTINUOUS
 62
     7
 10
644.511324
 20
2061.431524
 11
644.156763
 21
2061.306294
  0
LINE
  8
CSLAYER1
  6
CONTINUOUS
 62
     7
 10
644.156763
 20
2061.306294
 11
643.822660
 21
2061.139958
  0
LINE
  8
CSLAYER1
  6
CONTINUOUS
 62
     7
 10
643.822660
 20
2061.139958
 11
643.511558
 21
2060.933784
  0
LINE
  8
CSLAYER1
  6
CONTINUOUS
 62
     7
 10
643.511558
 20
2060.933784
 11
643.225824
 21
2060.689340
  0
LINE
  8
CSLAYER1
  6
CONTINUOUS
 62
     7
 10
643.225824
 20
2060.689340
 11
642.967633
 21
2060.408487
  0
LINE
  8
CSLAYER1
  6
CONTINUOUS
 62
     7
 10
642.967633
 20
2060.408487
 11
642.738951
 21
2060.093362
  0
LINE
  8
CSLAYER1
  6
CONTINUOUS
 62
     7
 10
642.738951
 20
2060.093362
 11
642.541518
 21
2059.746364
  0
LINE
  8
CSLAYER1
  6
CONTINUOUS
 62
     7
 10
642.541518
 20
2059.746364
 11
642.376835
 21
2059.370132
  0
LINE
  8
CSLAYER1
  6
CONTINUOUS
 62
     7
 10
642.376835
 20
2059.370132
 11
642.246157
 21
2058.967532
  0
LINE
  8
CSLAYER1
  6
CONTINUOUS
 62
     7
 10
642.246157
 20
2058.967532
 11
642.191914
 21
2058.726071
  0
LINE
  8
CSLAYER1
  6
CONTINUOUS
 62
     7
 10
646.143281
 20
2050.805806
 11
646.364595
 21
2050.692754
  0
LINE
  8
CSLAYER1
  6
CONTINUOUS
 62
     7
 10
646.364595
 20
2050.692754
 11
646.780792
 21
2050.521688
  0
LINE
  8
CSLAYER1
  6
CONTINUOUS
 62
     7
 10
646.780792
 20
2050.521688
 11
647.197476
 21
2050.391596
  0
LINE
  8
CSLAYER1
  6
CONTINUOUS
 62
     7
 10
647.197476
 20
2050.391596
 11
647.611478
 21
2050.303466
  0
LINE
  8
CSLAYER1
  6
CONTINUOUS
 62
     7
 10
647.611478
 20
2050.303466
 11
648.019645
 21
2050.257969
  0
LINE
  8
CSLAYER1
  6
CONTINUOUS
 62
     7
 10
648.019645
 20
2050.257969
 11
648.418871
 21
2050.255452
  0
LINE
  8
CSLAYER1
  6
CONTINUOUS
 62
     7
 10
648.418871
 20
2050.255452
 11
648.806118
 21
2050.295935
  0
LINE
  8
CSLAYER1
  6
CONTINUOUS
 62
     7
 10
648.806118
 20
2050.295935
 11
649.178440
 21
2050.379107
  0
LINE
  8
CSLAYER1
  6
CONTINUOUS
 62
     7
 10
649.178440
 20
2050.379107
 11
649.509327
 21
2050.495976
  0
ENDBLK
  8
0
  0
BLOCK
  8
CSLAYER1
  2
BLKF0009
 70
   64
 10
0.0
 20
0.0
 30
0.0
  0
LINE
  8
CSLAYER1
  6
CONTINUOUS
 62
     7
 10
651.610043
 20
2051.673545
 11
652.003541
 21
2052.010180
  0
LINE
  8
CSLAYER1
  6
CONTINUOUS
 62
     7
 10
652.003541
 20
2052.010180
 11
652.261731
 21
2052.291034
  0
LINE
  8
CSLAYER1
  6
CONTINUOUS
 62
     7
 10
652.261731
 20
2052.291034
 11
652.490414
 21
2052.606159
  0
LINE
  8
CSLAYER1
  6
CONTINUOUS
 62
     7
 10
652.490414
 20
2052.606159
 11
652.687847
 21
2052.953157
  0
LINE
  8
CSLAYER1
  6
CONTINUOUS
 62
     7
 10
652.687847
 20
2052.953157
 11
652.852530
 21
2053.329388
  0
LINE
  8
CSLAYER1
  6
CONTINUOUS
 62
     7
 10
652.852530
 20
2053.329388
 11
652.983207
 21
2053.731989
  0
LINE
  8
CSLAYER1
  6
CONTINUOUS
 62
     7
 10
652.983207
 20
2053.731989
 11
653.078886
 21
2054.157895
  0
LINE
  8
CSLAYER1
  6
CONTINUOUS
 62
     7
 10
653.078886
 20
2054.157895
 11
653.138838
 21
2054.603865
  0
LINE
  8
CSLAYER1
  6
CONTINUOUS
 62
     7
 10
653.138838
 20
2054.603865
 11
653.162606
 21
2055.066504
  0
LINE
  8
CSLAYER1
  6
CONTINUOUS
 62
     7
 10
653.162606
 20
2055.066504
 11
653.150009
 21
2055.542293
  0
LINE
  8
CSLAYER1
  6
CONTINUOUS
 62
     7
 10
653.150009
 20
2055.542293
 11
653.101145
 21
2056.027609
  0
LINE
  8
CSLAYER1
  6
CONTINUOUS
 62
     7
 10
653.101145
 20
2056.027609
 11
653.016383
 21
2056.518760
  0
LINE
  8
CSLAYER1
  6
CONTINUOUS
 62
     7
 10
653.016383
 20
2056.518760
 11
652.896370
 21
2057.012007
  0
LINE
  8
CSLAYER1
  6
CONTINUOUS
 62
     7
 10
652.896370
 20
2057.012007
 11
652.742019
 21
2057.503596
  0
LINE
  8
CSLAYER1
  6
CONTINUOUS
 62
     7
 10
652.742019
 20
2057.503596
 11
652.554504
 21
2057.989786
  0
LINE
  8
CSLAYER1
  6
CONTINUOUS
 62
     7
 10
652.554504
 20
2057.989786
 11
652.335253
 21
2058.466877
  0
LINE
  8
CSLAYER1
  6
CONTINUOUS
 62
     7
 10
652.335253
 20
2058.466877
 11
652.085934
 21
2058.931239
  0
LINE
  8
CSLAYER1
  6
CONTINUOUS
 62
     7
 10
652.085934
 20
2058.931239
 11
651.808445
 21
2059.379336
  0
LINE
  8
CSLAYER1
  6
CONTINUOUS
 62
     7
 10
651.808445
 20
2059.379336
 11
651.504897
 21
2059.807758
  0
LINE
  8
CSLAYER1
  6
CONTINUOUS
 62
     7
 10
651.504897
 20
2059.807758
 11
651.177601
 21
2060.213246
  0
LINE
  8
CSLAYER1
  6
CONTINUOUS
 62
     7
 10
651.177601
 20
2060.213246
 11
650.829048
 21
2060.592713
  0
LINE
  8
CSLAYER1
  6
CONTINUOUS
 62
     7
 10
650.829048
 20
2060.592713
 11
650.461890
 21
2060.943271
  0
LINE
  8
CSLAYER1
  6
CONTINUOUS
 62
     7
 10
650.461890
 20
2060.943271
 11
650.078922
 21
2061.262252
  0
LINE
  8
CSLAYER1
  6
CONTINUOUS
 62
     7
 10
650.078922
 20
2061.262252
 11
649.683059
 21
2061.547228
  0
LINE
  8
CSLAYER1
  6
CONTINUOUS
 62
     7
 10
649.683059
 20
2061.547228
 11
649.277312
 21
2061.796031
  0
LINE
  8
CSLAYER1
  6
CONTINUOUS
 62
     7
 10
649.277312
 20
2061.796031
 11
648.864770
 21
2062.006767
  0
LINE
  8
CSLAYER1
  6
CONTINUOUS
 62
     7
 10
648.864770
 20
2062.006767
 11
648.448573
 21
2062.177832
  0
LINE
  8
CSLAYER1
  6
CONTINUOUS
 62
     7
 10
648.448573
 20
2062.177832
 11
648.031888
 21
2062.307925
  0
LINE
  8
CSLAYER1
  6
CONTINUOUS
 62
     7
 10
648.031888
 20
2062.307925
 11
647.617887
 21
2062.396055
  0
LINE
  8
CSLAYER1
  6
CONTINUOUS
 62
     7
 10
647.617887
 20
2062.396055
 11
647.209720
 21
2062.441552
  0
LINE
  8
CSLAYER1
  6
CONTINUOUS
 62
     7
 10
647.209720
 20
2062.441552
 11
646.810494
 21
2062.444068
  0
LINE
  8
CSLAYER1
  6
CONTINUOUS
 62
     7
 10
646.810494
 20
2062.444068
 11
646.423246
 21
2062.403586
  0
LINE
  8
CSLAYER1
  6
CONTINUOUS
 62
     7
 10
646.423246
 20
2062.403586
 11
646.050925
 21
2062.320413
  0
LINE
  8
CSLAYER1
  6
CONTINUOUS
 62
     7
 10
646.050925
 20
2062.320413
 11
645.696364
 21
2062.195183
  0
ENDBLK
  8
0
  0
BLOCK
  8
CSLAYER1
  2
BLKF0010
 70
   64
 10
0.0
 20
0.0
 30
0.0
  0
LINE
  8
CSLAYER1
  6
CONTINUOUS
 62
     7
 10
665.540644
 20
2064.220835
 11
665.524154
 21
2064.487891
  0
LINE
  8
CSLAYER1
  6
CONTINUOUS
 62
     7
 10
665.524154
 20
2064.487891
 11
665.474811
 21
2064.752915
  0
LINE
  8
CSLAYER1
  6
CONTINUOUS
 62
     7
 10
665.474811
 20
2064.752915
 11
665.392989
 21
2065.013890
  0
LINE
  8
CSLAYER1
  6
CONTINUOUS
 62
     7
 10
665.392989
 20
2065.013890
 11
665.279312
 21
2065.268829
  0
LINE
  8
CSLAYER1
  6
CONTINUOUS
 62
     7
 10
665.279312
 20
2065.268829
 11
665.134644
 21
2065.515792
  0
LINE
  8
CSLAYER1
  6
CONTINUOUS
 62
     7
 10
665.134644
 20
2065.515792
 11
664.960087
 21
2065.752900
  0
LINE
  8
CSLAYER1
  6
CONTINUOUS
 62
     7
 10
664.960087
 20
2065.752900
 11
664.756969
 21
2065.978347
  0
LINE
  8
CSLAYER1
  6
CONTINUOUS
 62
     7
 10
664.756969
 20
2065.978347
 11
664.526836
 21
2066.190419
  0
LINE
  8
CSLAYER1
  6
CONTINUOUS
 62
     7
 10
664.526836
 20
2066.190419
 11
664.271440
 21
2066.387502
  0
LINE
  8
CSLAYER1
  6
CONTINUOUS
 62
     7
 10
664.271440
 20
2066.387502
 11
663.992723
 21
2066.568094
  0
LINE
  8
CSLAYER1
  6
CONTINUOUS
 62
     7
 10
663.992723
 20
2066.568094
 11
663.692808
 21
2066.730823
  0
LINE
  8
CSLAYER1
  6
CONTINUOUS
 62
     7
 10
663.692808
 20
2066.730823
 11
663.373977
 21
2066.874449
  0
LINE
  8
CSLAYER1
  6
CONTINUOUS
 62
     7
 10
663.373977
 20
2066.874449
 11
663.038656
 21
2066.997879
  0
LINE
  8
CSLAYER1
  6
CONTINUOUS
 62
     7
 10
663.038656
 20
2066.997879
 11
662.689398
 21
2067.100175
  0
LINE
  8
CSLAYER1
  6
CONTINUOUS
 62
     7
 10
662.689398
 20
2067.100175
 11
662.328860
 21
2067.180557
  0
LINE
  8
CSLAYER1
  6
CONTINUOUS
 62
     7
 10
662.328860
 20
2067.180557
 11
661.959786
 21
2067.238413
  0
LINE
  8
CSLAYER1
  6
CONTINUOUS
 62
     7
 10
661.959786
 20
2067.238413
 11
661.584985
 21
2067.273304
  0
LINE
  8
CSLAYER1
  6
CONTINUOUS
 62
     7
 10
661.584985
 20
2067.273304
 11
661.207310
 21
2067.284964
  0
LINE
  8
CSLAYER1
  6
CONTINUOUS
 62
     7
 10
661.207310
 20
2067.284964
 11
660.829636
 21
2067.273304
  0
LINE
  8
CSLAYER1
  6
CONTINUOUS
 62
     7
 10
660.829636
 20
2067.273304
 11
660.454835
 21
2067.238413
  0
LINE
  8
CSLAYER1
  6
CONTINUOUS
 62
     7
 10
660.454835
 20
2067.238413
 11
660.085761
 21
2067.180557
  0
LINE
  8
CSLAYER1
  6
CONTINUOUS
 62
     7
 10
660.085761
 20
2067.180557
 11
659.725223
 21
2067.100175
  0
LINE
  8
CSLAYER1
  6
CONTINUOUS
 62
     7
 10
659.725223
 20
2067.100175
 11
659.375965
 21
2066.997879
  0
LINE
  8
CSLAYER1
  6
CONTINUOUS
 62
     7
 10
659.375965
 20
2066.997879
 11
659.040644
 21
2066.874449
  0
LINE
  8
CSLAYER1
  6
CONTINUOUS
 62
     7
 10
659.040644
 20
2066.874449
 11
658.721813
 21
2066.730823
  0
LINE
  8
CSLAYER1
  6
CONTINUOUS
 62
     7
 10
658.721813
 20
2066.730823
 11
658.421897
 21
2066.568094
  0
LINE
  8
CSLAYER1
  6
CONTINUOUS
 62
     7
 10
658.421897
 20
2066.568094
 11
658.143181
 21
2066.387502
  0
LINE
  8
CSLAYER1
  6
CONTINUOUS
 62
     7
 10
658.143181
 20
2066.387502
 11
657.887784
 21
2066.190419
  0
LINE
  8
CSLAYER1
  6
CONTINUOUS
 62
     7
 10
657.887784
 20
2066.190419
 11
657.657652
 21
2065.978347
  0
LINE
  8
CSLAYER1
  6
CONTINUOUS
 62
     7
 10
657.657652
 20
2065.978347
 11
657.454534
 21
2065.752900
  0
LINE
  8
CSLAYER1
  6
CONTINUOUS
 62
     7
 10
657.454534
 20
2065.752900
 11
657.279977
 21
2065.515792
  0
LINE
  8
CSLAYER1
  6
CONTINUOUS
 62
     7
 10
657.279977
 20
2065.515792
 11
657.135309
 21
2065.268829
  0
LINE
  8
CSLAYER1
  6
CONTINUOUS
 62
     7
 10
657.135309
 20
2065.268829
 11
657.021632
 21
2065.013890
  0
LINE
  8
CSLAYER1
  6
CONTINUOUS
 62
     7
 10
657.021632
 20
2065.013890
 11
656.939810
 21
2064.752915
  0
LINE
  8
CSLAYER1
  6
CONTINUOUS
 62
     7
 10
656.939810
 20
2064.752915
 11
656.890467
 21
2064.487891
  0
LINE
  8
CSLAYER1
  6
CONTINUOUS
 62
     7
 10
656.890467
 20
2064.487891
 11
656.873977
 21
2064.220835
  0
LINE
  8
CSLAYER1
  6
CONTINUOUS
 62
     7
 10
656.873977
 20
2064.220835
 11
656.890467
 21
2063.953779
  0
LINE
  8
CSLAYER1
  6
CONTINUOUS
 62
     7
 10
656.890467
 20
2063.953779
 11
656.939810
 21
2063.688755
  0
LINE
  8
CSLAYER1
  6
CONTINUOUS
 62
     7
 10
656.939810
 20
2063.688755
 11
657.021632
 21
2063.427780
  0
LINE
  8
CSLAYER1
  6
CONTINUOUS
 62
     7
 10
657.021632
 20
2063.427780
 11
657.135309
 21
2063.172841
  0
LINE
  8
CSLAYER1
  6
CONTINUOUS
 62
     7
 10
657.135309
 20
2063.172841
 11
657.279977
 21
2062.925878
  0
LINE
  8
CSLAYER1
  6
CONTINUOUS
 62
     7
 10
657.279977
 20
2062.925878
 11
657.454534
 21
2062.688770
  0
LINE
  8
CSLAYER1
  6
CONTINUOUS
 62
     7
 10
657.454534
 20
2062.688770
 11
657.657652
 21
2062.463323
  0
LINE
  8
CSLAYER1
  6
CONTINUOUS
 62
     7
 10
657.657652
 20
2062.463323
 11
657.887784
 21
2062.251251
  0
LINE
  8
CSLAYER1
  6
CONTINUOUS
 62
     7
 10
657.887784
 20
2062.251251
 11
658.143181
 21
2062.054168
  0
LINE
  8
CSLAYER1
  6
CONTINUOUS
 62
     7
 10
658.143181
 20
2062.054168
 11
658.421897
 21
2061.873576
  0
LINE
  8
CSLAYER1
  6
CONTINUOUS
 62
     7
 10
658.421897
 20
2061.873576
 11
658.721813
 21
2061.710847
  0
LINE
  8
CSLAYER1
  6
CONTINUOUS
 62
     7
 10
658.721813
 20
2061.710847
 11
659.040644
 21
2061.567221
  0
LINE
  8
CSLAYER1
  6
CONTINUOUS
 62
     7
 10
659.040644
 20
2061.567221
 11
659.375965
 21
2061.443791
  0
LINE
  8
CSLAYER1
  6
CONTINUOUS
 62
     7
 10
659.375965
 20
2061.443791
 11
659.725223
 21
2061.341495
  0
LINE
  8
CSLAYER1
  6
CONTINUOUS
 62
     7
 10
659.725223
 20
2061.341495
 11
660.085761
 21
2061.261113
  0
LINE
  8
CSLAYER1
  6
CONTINUOUS
 62
     7
 10
660.085761
 20
2061.261113
 11
660.454835
 21
2061.203257
  0
LINE
  8
CSLAYER1
  6
CONTINUOUS
 62
     7
 10
660.454835
 20
2061.203257
 11
660.829636
 21
2061.168366
  0
LINE
  8
CSLAYER1
  6
CONTINUOUS
 62
     7
 10
660.829636
 20
2061.168366
 11
661.207310
 21
2061.156706
  0
LINE
  8
CSLAYER1
  6
CONTINUOUS
 62
     7
 10
661.207310
 20
2061.156706
 11
661.584985
 21
2061.168366
  0
LINE
  8
CSLAYER1
  6
CONTINUOUS
 62
     7
 10
661.584985
 20
2061.168366
 11
661.959786
 21
2061.203257
  0
LINE
  8
CSLAYER1
  6
CONTINUOUS
 62
     7
 10
661.959786
 20
2061.203257
 11
662.328860
 21
2061.261113
  0
LINE
  8
CSLAYER1
  6
CONTINUOUS
 62
     7
 10
662.328860
 20
2061.261113
 11
662.689398
 21
2061.341495
  0
LINE
  8
CSLAYER1
  6
CONTINUOUS
 62
     7
 10
662.689398
 20
2061.341495
 11
663.038656
 21
2061.443791
  0
LINE
  8
CSLAYER1
  6
CONTINUOUS
 62
     7
 10
663.038656
 20
2061.443791
 11
663.373977
 21
2061.567221
  0
LINE
  8
CSLAYER1
  6
CONTINUOUS
 62
     7
 10
663.373977
 20
2061.567221
 11
663.692808
 21
2061.710847
  0
LINE
  8
CSLAYER1
  6
CONTINUOUS
 62
     7
 10
663.692808
 20
2061.710847
 11
663.992723
 21
2061.873576
  0
LINE
  8
CSLAYER1
  6
CONTINUOUS
 62
     7
 10
663.992723
 20
2061.873576
 11
664.271440
 21
2062.054168
  0
LINE
  8
CSLAYER1
  6
CONTINUOUS
 62
     7
 10
664.271440
 20
2062.054168
 11
664.526836
 21
2062.251251
  0
LINE
  8
CSLAYER1
  6
CONTINUOUS
 62
     7
 10
664.526836
 20
2062.251251
 11
664.756969
 21
2062.463323
  0
LINE
  8
CSLAYER1
  6
CONTINUOUS
 62
     7
 10
664.756969
 20
2062.463323
 11
664.960087
 21
2062.688770
  0
LINE
  8
CSLAYER1
  6
CONTINUOUS
 62
     7
 10
664.960087
 20
2062.688770
 11
665.134644
 21
2062.925878
  0
LINE
  8
CSLAYER1
  6
CONTINUOUS
 62
     7
 10
665.134644
 20
2062.925878
 11
665.279312
 21
2063.172841
  0
LINE
  8
CSLAYER1
  6
CONTINUOUS
 62
     7
 10
665.279312
 20
2063.172841
 11
665.392989
 21
2063.427780
  0
LINE
  8
CSLAYER1
  6
CONTINUOUS
 62
     7
 10
665.392989
 20
2063.427780
 11
665.474811
 21
2063.688755
  0
LINE
  8
CSLAYER1
  6
CONTINUOUS
 62
     7
 10
665.474811
 20
2063.688755
 11
665.524154
 21
2063.953779
  0
LINE
  8
CSLAYER1
  6
CONTINUOUS
 62
     7
 10
665.524154
 20
2063.953779
 11
665.540644
 21
2064.220835
  0
ENDBLK
  8
0
  0
BLOCK
  8
CSLAYER1
  2
BLKF0011
 70
   64
 10
0.0
 20
0.0
 30
0.0
  0
LINE
  8
CSLAYER1
  6
CONTINUOUS
 62
     7
 10
599.750499
 20
2061.709408
 11
600.857334
 21
2062.401035
  0
LINE
  8
CSLAYER1
  6
CONTINUOUS
 62
     7
 10
601.262302
 20
2072.491337
 11
627.829744
 21
2089.092517
  0
LINE
  8
CSLAYER1
  6
CONTINUOUS
 62
     7
 10
599.297076
 20
2069.394359
 11
599.297076
 21
2064.576317
  0
LINE
  8
CSLAYER1
  6
CONTINUOUS
 62
     7
 10
599.297076
 20
2069.394359
 11
599.329040
 21
2069.814279
  0
LINE
  8
CSLAYER1
  6
CONTINUOUS
 62
     7
 10
599.329040
 20
2069.814279
 11
599.424691
 21
2070.231003
  0
LINE
  8
CSLAYER1
  6
CONTINUOUS
 62
     7
 10
599.424691
 20
2070.231003
 11
599.583299
 21
2070.641360
  0
LINE
  8
CSLAYER1
  6
CONTINUOUS
 62
     7
 10
599.583299
 20
2070.641360
 11
599.803658
 21
2071.042226
  0
LINE
  8
CSLAYER1
  6
CONTINUOUS
 62
     7
 10
599.803658
 20
2071.042226
 11
600.084090
 21
2071.430552
  0
LINE
  8
CSLAYER1
  6
CONTINUOUS
 62
     7
 10
600.084090
 20
2071.430552
 11
600.422462
 21
2071.803380
  0
LINE
  8
CSLAYER1
  6
CONTINUOUS
 62
     7
 10
600.422462
 20
2071.803380
 11
600.816199
 21
2072.157874
  0
LINE
  8
CSLAYER1
  6
CONTINUOUS
 62
     7
 10
600.816199
 20
2072.157874
 11
601.262302
 21
2072.491337
  0
LINE
  8
CSLAYER1
  6
CONTINUOUS
 62
     7
 10
613.636773
 20
2065.987489
 11
613.096492
 21
2065.703525
  0
LINE
  8
CSLAYER1
  6
CONTINUOUS
 62
     7
 10
613.096492
 20
2065.703525
 11
612.515118
 21
2065.447650
  0
LINE
  8
CSLAYER1
  6
CONTINUOUS
 62
     7
 10
612.515118
 20
2065.447650
 11
611.897076
 21
2065.221812
  0
LINE
  8
CSLAYER1
  6
CONTINUOUS
 62
     7
 10
611.897076
 20
2065.221812
 11
611.247069
 21
2065.027730
  0
LINE
  8
CSLAYER1
  6
CONTINUOUS
 62
     7
 10
611.247069
 20
2065.027730
 11
610.570045
 21
2064.866880
  0
LINE
  8
CSLAYER1
  6
CONTINUOUS
 62
     7
 10
610.570045
 20
2064.866880
 11
609.871156
 21
2064.740488
  0
LINE
  8
CSLAYER1
  6
CONTINUOUS
 62
     7
 10
609.871156
 20
2064.740488
 11
609.155720
 21
2064.649514
  0
LINE
  8
CSLAYER1
  6
CONTINUOUS
 62
     7
 10
609.155720
 20
2064.649514
 11
608.429184
 21
2064.594651
  0
LINE
  8
CSLAYER1
  6
CONTINUOUS
 62
     7
 10
608.429184
 20
2064.594651
 11
607.697076
 21
2064.576317
  0
LINE
  8
CSLAYER1
  6
CONTINUOUS
 62
     7
 10
607.697076
 20
2064.576317
 11
606.964968
 21
2064.594651
  0
LINE
  8
CSLAYER1
  6
CONTINUOUS
 62
     7
 10
606.964968
 20
2064.594651
 11
606.238431
 21
2064.649514
  0
LINE
  8
CSLAYER1
  6
CONTINUOUS
 62
     7
 10
606.238431
 20
2064.649514
 11
605.522996
 21
2064.740488
  0
LINE
  8
CSLAYER1
  6
CONTINUOUS
 62
     7
 10
605.522996
 20
2064.740488
 11
604.824107
 21
2064.866880
  0
LINE
  8
CSLAYER1
  6
CONTINUOUS
 62
     7
 10
604.824107
 20
2064.866880
 11
604.147082
 21
2065.027730
  0
LINE
  8
CSLAYER1
  6
CONTINUOUS
 62
     7
 10
604.147082
 20
2065.027730
 11
603.497076
 21
2065.221812
  0
LINE
  8
CSLAYER1
  6
CONTINUOUS
 62
     7
 10
603.497076
 20
2065.221812
 11
602.879034
 21
2065.447650
  0
LINE
  8
CSLAYER1
  6
CONTINUOUS
 62
     7
 10
602.879034
 20
2065.447650
 11
602.297660
 21
2065.703525
  0
LINE
  8
CSLAYER1
  6
CONTINUOUS
 62
     7
 10
602.297660
 20
2065.703525
 11
601.757379
 21
2065.987489
  0
LINE
  8
CSLAYER1
  6
CONTINUOUS
 62
     7
 10
601.757379
 20
2065.987489
 11
601.262302
 21
2066.297381
  0
LINE
  8
CSLAYER1
  6
CONTINUOUS
 62
     7
 10
601.262302
 20
2066.297381
 11
600.816199
 21
2066.630844
  0
LINE
  8
CSLAYER1
  6
CONTINUOUS
 62
     7
 10
600.816199
 20
2066.630844
 11
600.422462
 21
2066.985338
  0
LINE
  8
CSLAYER1
  6
CONTINUOUS
 62
     7
 10
600.422462
 20
2066.985338
 11
600.084090
 21
2067.358166
  0
LINE
  8
CSLAYER1
  6
CONTINUOUS
 62
     7
 10
600.084090
 20
2067.358166
 11
599.803658
 21
2067.746492
  0
LINE
  8
CSLAYER1
  6
CONTINUOUS
 62
     7
 10
599.803658
 20
2067.746492
 11
599.583299
 21
2068.147358
  0
LINE
  8
CSLAYER1
  6
CONTINUOUS
 62
     7
 10
599.583299
 20
2068.147358
 11
599.424691
 21
2068.557715
  0
LINE
  8
CSLAYER1
  6
CONTINUOUS
 62
     7
 10
599.424691
 20
2068.557715
 11
599.329040
 21
2068.974439
  0
LINE
  8
CSLAYER1
  6
CONTINUOUS
 62
     7
 10
599.329040
 20
2068.974439
 11
599.297076
 21
2069.394359
  0
LINE
  8
CSLAYER1
  6
CONTINUOUS
 62
     7
 10
614.131849
 20
2061.479339
 11
613.636773
 21
2061.169447
  0
LINE
  8
CSLAYER1
  6
CONTINUOUS
 62
     7
 10
613.636773
 20
2061.169447
 11
613.096492
 21
2060.885483
  0
LINE
  8
CSLAYER1
  6
CONTINUOUS
 62
     7
 10
613.096492
 20
2060.885483
 11
612.515118
 21
2060.629608
  0
LINE
  8
CSLAYER1
  6
CONTINUOUS
 62
     7
 10
612.515118
 20
2060.629608
 11
611.897076
 21
2060.403770
  0
LINE
  8
CSLAYER1
  6
CONTINUOUS
 62
     7
 10
611.897076
 20
2060.403770
 11
611.247069
 21
2060.209688
  0
LINE
  8
CSLAYER1
  6
CONTINUOUS
 62
     7
 10
611.247069
 20
2060.209688
 11
610.570045
 21
2060.048838
  0
LINE
  8
CSLAYER1
  6
CONTINUOUS
 62
     7
 10
610.570045
 20
2060.048838
 11
609.871156
 21
2059.922446
  0
LINE
  8
CSLAYER1
  6
CONTINUOUS
 62
     7
 10
609.871156
 20
2059.922446
 11
609.155720
 21
2059.831472
  0
LINE
  8
CSLAYER1
  6
CONTINUOUS
 62
     7
 10
609.155720
 20
2059.831472
 11
608.429184
 21
2059.776609
  0
LINE
  8
CSLAYER1
  6
CONTINUOUS
 62
     7
 10
608.429184
 20
2059.776609
 11
607.697076
 21
2059.758275
  0
LINE
  8
CSLAYER1
  6
CONTINUOUS
 62
     7
 10
607.697076
 20
2059.758275
 11
606.964968
 21
2059.776609
  0
LINE
  8
CSLAYER1
  6
CONTINUOUS
 62
     7
 10
606.964968
 20
2059.776609
 11
606.238431
 21
2059.831472
  0
LINE
  8
CSLAYER1
  6
CONTINUOUS
 62
     7
 10
606.238431
 20
2059.831472
 11
605.522996
 21
2059.922446
  0
LINE
  8
CSLAYER1
  6
CONTINUOUS
 62
     7
 10
605.522996
 20
2059.922446
 11
604.824107
 21
2060.048838
  0
LINE
  8
CSLAYER1
  6
CONTINUOUS
 62
     7
 10
604.824107
 20
2060.048838
 11
604.147082
 21
2060.209688
  0
LINE
  8
CSLAYER1
  6
CONTINUOUS
 62
     7
 10
604.147082
 20
2060.209688
 11
603.497076
 21
2060.403770
  0
LINE
  8
CSLAYER1
  6
CONTINUOUS
 62
     7
 10
603.497076
 20
2060.403770
 11
602.879034
 21
2060.629608
  0
LINE
  8
CSLAYER1
  6
CONTINUOUS
 62
     7
 10
602.879034
 20
2060.629608
 11
602.297660
 21
2060.885483
  0
LINE
  8
CSLAYER1
  6
CONTINUOUS
 62
     7
 10
602.297660
 20
2060.885483
 11
601.757379
 21
2061.169447
  0
LINE
  8
CSLAYER1
  6
CONTINUOUS
 62
     7
 10
601.757379
 20
2061.169447
 11
601.262302
 21
2061.479339
  0
LINE
  8
CSLAYER1
  6
CONTINUOUS
 62
     7
 10
601.262302
 20
2061.479339
 11
600.816199
 21
2061.812802
  0
LINE
  8
CSLAYER1
  6
CONTINUOUS
 62
     7
 10
600.816199
 20
2061.812802
 11
600.422462
 21
2062.167296
  0
LINE
  8
CSLAYER1
  6
CONTINUOUS
 62
     7
 10
600.422462
 20
2062.167296
 11
600.084090
 21
2062.540124
  0
LINE
  8
CSLAYER1
  6
CONTINUOUS
 62
     7
 10
600.084090
 20
2062.540124
 11
599.803658
 21
2062.928450
  0
LINE
  8
CSLAYER1
  6
CONTINUOUS
 62
     7
 10
599.803658
 20
2062.928450
 11
599.583299
 21
2063.329316
  0
LINE
  8
CSLAYER1
  6
CONTINUOUS
 62
     7
 10
599.583299
 20
2063.329316
 11
599.424691
 21
2063.739673
  0
LINE
  8
CSLAYER1
  6
CONTINUOUS
 62
     7
 10
599.424691
 20
2063.739673
 11
599.329040
 21
2064.156397
  0
LINE
  8
CSLAYER1
  6
CONTINUOUS
 62
     7
 10
599.329040
 20
2064.156397
 11
599.297076
 21
2064.576317
  0
LINE
  8
CSLAYER1
  6
CONTINUOUS
 62
     7
 10
601.129113
 20
2069.046879
 11
631.228912
 21
2087.855321
  0
LINE
  8
CSLAYER1
  6
CONTINUOUS
 62
     7
 10
603.681496
 20
2067.280553
 11
634.628080
 21
2086.618125
  0
LINE
  8
CSLAYER1
  6
CONTINUOUS
 62
     7
 10
613.636773
 20
2061.169447
 11
642.333495
 21
2079.101149
  0
LINE
  8
CSLAYER1
  6
CONTINUOUS
 62
     7
 10
613.636773
 20
2065.987489
 11
642.226695
 21
2083.852455
  0
LINE
  8
CSLAYER1
  6
CONTINUOUS
 62
     7
 10
615.024182
 20
2067.645786
 11
641.426416
 21
2084.143733
  0
LINE
  8
CSLAYER1
  6
CONTINUOUS
 62
     7
 10
607.877357
 20
2066.541186
 11
638.027248
 21
2085.380929
  0
LINE
  8
CSLAYER1
  6
CONTINUOUS
 62
     7
 10
634.366598
 20
2092.539397
 11
634.390891
 21
2092.858536
  0
LINE
  8
CSLAYER1
  6
CONTINUOUS
 62
     7
 10
634.390891
 20
2092.858536
 11
634.463586
 21
2093.175247
  0
LINE
  8
CSLAYER1
  6
CONTINUOUS
 62
     7
 10
634.463586
 20
2093.175247
 11
634.584128
 21
2093.487118
  0
LINE
  8
CSLAYER1
  6
CONTINUOUS
 62
     7
 10
634.584128
 20
2093.487118
 11
634.751601
 21
2093.791776
  0
LINE
  8
CSLAYER1
  6
CONTINUOUS
 62
     7
 10
634.751601
 20
2093.791776
 11
634.964729
 21
2094.086904
  0
LINE
  8
CSLAYER1
  6
CONTINUOUS
 62
     7
 10
634.964729
 20
2094.086904
 11
635.221892
 21
2094.370253
  0
LINE
  8
CSLAYER1
  6
CONTINUOUS
 62
     7
 10
635.221892
 20
2094.370253
 11
635.521132
 21
2094.639669
  0
LINE
  8
CSLAYER1
  6
CONTINUOUS
 62
     7
 10
635.521132
 20
2094.639669
 11
635.860171
 21
2094.893100
  0
LINE
  8
CSLAYER1
  6
CONTINUOUS
 62
     7
 10
635.860171
 20
2094.893100
 11
636.236429
 21
2095.128619
  0
LINE
  8
CSLAYER1
  6
CONTINUOUS
 62
     7
 10
636.236429
 20
2095.128619
 11
636.647042
 21
2095.344431
  0
LINE
  8
CSLAYER1
  6
CONTINUOUS
 62
     7
 10
636.647042
 20
2095.344431
 11
637.088886
 21
2095.538896
  0
LINE
  8
CSLAYER1
  6
CONTINUOUS
 62
     7
 10
637.088886
 20
2095.538896
 11
637.558598
 21
2095.710533
  0
LINE
  8
CSLAYER1
  6
CONTINUOUS
 62
     7
 10
637.558598
 20
2095.710533
 11
638.052603
 21
2095.858035
  0
LINE
  8
CSLAYER1
  6
CONTINUOUS
 62
     7
 10
638.052603
 20
2095.858035
 11
638.567142
 21
2095.980281
  0
LINE
  8
CSLAYER1
  6
CONTINUOUS
 62
     7
 10
638.567142
 20
2095.980281
 11
639.098298
 21
2096.076339
  0
LINE
  8
CSLAYER1
  6
CONTINUOUS
 62
     7
 10
639.098298
 20
2096.076339
 11
639.642028
 21
2096.145480
  0
LINE
  8
CSLAYER1
  6
CONTINUOUS
 62
     7
 10
639.642028
 20
2096.145480
 11
640.194196
 21
2096.187175
  0
LINE
  8
CSLAYER1
  6
CONTINUOUS
 62
     7
 10
640.194196
 20
2096.187175
 11
640.750598
 21
2096.201109
  0
LINE
  8
CSLAYER1
  6
CONTINUOUS
 62
     7
 10
640.750598
 20
2096.201109
 11
641.307001
 21
2096.187175
  0
LINE
  8
CSLAYER1
  6
CONTINUOUS
 62
     7
 10
641.307001
 20
2096.187175
 11
641.859168
 21
2096.145480
  0
LINE
  8
CSLAYER1
  6
CONTINUOUS
 62
     7
 10
641.859168
 20
2096.145480
 11
642.402899
 21
2096.076339
  0
LINE
  8
CSLAYER1
  6
CONTINUOUS
 62
     7
 10
642.402899
 20
2096.076339
 11
642.934055
 21
2095.980281
  0
LINE
  8
CSLAYER1
  6
CONTINUOUS
 62
     7
 10
642.934055
 20
2095.980281
 11
643.448593
 21
2095.858035
  0
LINE
  8
CSLAYER1
  6
CONTINUOUS
 62
     7
 10
643.448593
 20
2095.858035
 11
643.942598
 21
2095.710533
  0
LINE
  8
CSLAYER1
  6
CONTINUOUS
 62
     7
 10
643.942598
 20
2095.710533
 11
644.412310
 21
2095.538896
  0
LINE
  8
CSLAYER1
  6
CONTINUOUS
 62
     7
 10
644.412310
 20
2095.538896
 11
644.854154
 21
2095.344431
  0
LINE
  8
CSLAYER1
  6
CONTINUOUS
 62
     7
 10
644.854154
 20
2095.344431
 11
645.264768
 21
2095.128619
  0
LINE
  8
CSLAYER1
  6
CONTINUOUS
 62
     7
 10
645.264768
 20
2095.128619
 11
645.641026
 21
2094.893100
  0
LINE
  8
CSLAYER1
  6
CONTINUOUS
 62
     7
 10
645.641026
 20
2094.893100
 11
645.980065
 21
2094.639669
  0
LINE
  8
CSLAYER1
  6
CONTINUOUS
 62
     7
 10
645.980065
 20
2094.639669
 11
646.279305
 21
2094.370253
  0
LINE
  8
CSLAYER1
  6
CONTINUOUS
 62
     7
 10
646.279305
 20
2094.370253
 11
646.536467
 21
2094.086904
  0
LINE
  8
CSLAYER1
  6
CONTINUOUS
 62
     7
 10
646.536467
 20
2094.086904
 11
646.749596
 21
2093.791776
  0
LINE
  8
CSLAYER1
  6
CONTINUOUS
 62
     7
 10
646.749596
 20
2093.791776
 11
646.917069
 21
2093.487118
  0
LINE
  8
CSLAYER1
  6
CONTINUOUS
 62
     7
 10
646.917069
 20
2093.487118
 11
647.037611
 21
2093.175247
  0
LINE
  8
CSLAYER1
  6
CONTINUOUS
 62
     7
 10
647.037611
 20
2093.175247
 11
647.110305
 21
2092.858536
  0
LINE
  8
CSLAYER1
  6
CONTINUOUS
 62
     7
 10
647.110305
 20
2092.858536
 11
647.134598
 21
2092.539397
  0
LINE
  8
CSLAYER1
  6
CONTINUOUS
 62
     7
 10
647.134598
 20
2092.539397
 11
647.110305
 21
2092.220258
  0
LINE
  8
CSLAYER1
  6
CONTINUOUS
 62
     7
 10
647.110305
 20
2092.220258
 11
647.037611
 21
2091.903548
  0
LINE
  8
CSLAYER1
  6
CONTINUOUS
 62
     7
 10
647.037611
 20
2091.903548
 11
646.917069
 21
2091.591676
  0
LINE
  8
CSLAYER1
  6
CONTINUOUS
 62
     7
 10
646.917069
 20
2091.591676
 11
646.749596
 21
2091.287018
  0
LINE
  8
CSLAYER1
  6
CONTINUOUS
 62
     7
 10
646.749596
 20
2091.287018
 11
646.536467
 21
2090.991891
  0
LINE
  8
CSLAYER1
  6
CONTINUOUS
 62
     7
 10
646.536467
 20
2090.991891
 11
646.279305
 21
2090.708541
  0
LINE
  8
CSLAYER1
  6
CONTINUOUS
 62
     7
 10
646.279305
 20
2090.708541
 11
645.980065
 21
2090.439126
  0
LINE
  8
CSLAYER1
  6
CONTINUOUS
 62
     7
 10
645.980065
 20
2090.439126
 11
645.641026
 21
2090.185694
  0
LINE
  8
CSLAYER1
  6
CONTINUOUS
 62
     7
 10
645.641026
 20
2090.185694
 11
645.264768
 21
2089.950176
  0
LINE
  8
CSLAYER1
  6
CONTINUOUS
 62
     7
 10
645.264768
 20
2089.950176
 11
644.854154
 21
2089.734363
  0
LINE
  8
CSLAYER1
  6
CONTINUOUS
 62
     7
 10
644.854154
 20
2089.734363
 11
644.412310
 21
2089.539898
  0
LINE
  8
CSLAYER1
  6
CONTINUOUS
 62
     7
 10
644.412310
 20
2089.539898
 11
643.942598
 21
2089.368262
  0
LINE
  8
CSLAYER1
  6
CONTINUOUS
 62
     7
 10
643.942598
 20
2089.368262
 11
643.448593
 21
2089.220759
  0
LINE
  8
CSLAYER1
  6
CONTINUOUS
 62
     7
 10
643.448593
 20
2089.220759
 11
642.934055
 21
2089.098513
  0
LINE
  8
CSLAYER1
  6
CONTINUOUS
 62
     7
 10
642.934055
 20
2089.098513
 11
642.402899
 21
2089.002455
  0
LINE
  8
CSLAYER1
  6
CONTINUOUS
 62
     7
 10
642.402899
 20
2089.002455
 11
641.859168
 21
2088.933315
  0
LINE
  8
CSLAYER1
  6
CONTINUOUS
 62
     7
 10
641.859168
 20
2088.933315
 11
641.307001
 21
2088.891619
  0
LINE
  8
CSLAYER1
  6
CONTINUOUS
 62
     7
 10
641.307001
 20
2088.891619
 11
640.750598
 21
2088.877685
  0
LINE
  8
CSLAYER1
  6
CONTINUOUS
 62
     7
 10
640.750598
 20
2088.877685
 11
640.194196
 21
2088.891619
  0
LINE
  8
CSLAYER1
  6
CONTINUOUS
 62
     7
 10
640.194196
 20
2088.891619
 11
639.642028
 21
2088.933315
  0
LINE
  8
CSLAYER1
  6
CONTINUOUS
 62
     7
 10
639.642028
 20
2088.933315
 11
639.098298
 21
2089.002455
  0
LINE
  8
CSLAYER1
  6
CONTINUOUS
 62
     7
 10
639.098298
 20
2089.002455
 11
638.567142
 21
2089.098513
  0
LINE
  8
CSLAYER1
  6
CONTINUOUS
 62
     7
 10
638.567142
 20
2089.098513
 11
638.052603
 21
2089.220759
  0
LINE
  8
CSLAYER1
  6
CONTINUOUS
 62
     7
 10
638.052603
 20
2089.220759
 11
637.558598
 21
2089.368262
  0
LINE
  8
CSLAYER1
  6
CONTINUOUS
 62
     7
 10
637.558598
 20
2089.368262
 11
637.088886
 21
2089.539898
  0
LINE
  8
CSLAYER1
  6
CONTINUOUS
 62
     7
 10
637.088886
 20
2089.539898
 11
636.647042
 21
2089.734363
  0
LINE
  8
CSLAYER1
  6
CONTINUOUS
 62
     7
 10
636.647042
 20
2089.734363
 11
636.236429
 21
2089.950176
  0
LINE
  8
CSLAYER1
  6
CONTINUOUS
 62
     7
 10
636.236429
 20
2089.950176
 11
635.860171
 21
2090.185694
  0
LINE
  8
CSLAYER1
  6
CONTINUOUS
 62
     7
 10
635.860171
 20
2090.185694
 11
635.521132
 21
2090.439126
  0
LINE
  8
CSLAYER1
  6
CONTINUOUS
 62
     7
 10
635.521132
 20
2090.439126
 11
635.221892
 21
2090.708541
  0
LINE
  8
CSLAYER1
  6
CONTINUOUS
 62
     7
 10
635.221892
 20
2090.708541
 11
634.964729
 21
2090.991891
  0
LINE
  8
CSLAYER1
  6
CONTINUOUS
 62
     7
 10
634.964729
 20
2090.991891
 11
634.751601
 21
2091.287018
  0
LINE
  8
CSLAYER1
  6
CONTINUOUS
 62
     7
 10
634.751601
 20
2091.287018
 11
634.584128
 21
2091.591676
  0
LINE
  8
CSLAYER1
  6
CONTINUOUS
 62
     7
 10
634.584128
 20
2091.591676
 11
634.463586
 21
2091.903548
  0
LINE
  8
CSLAYER1
  6
CONTINUOUS
 62
     7
 10
634.463586
 20
2091.903548
 11
634.390891
 21
2092.220258
  0
LINE
  8
CSLAYER1
  6
CONTINUOUS
 62
     7
 10
634.390891
 20
2092.220258
 11
634.366598
 21
2092.539397
  0
LINE
  8
CSLAYER1
  6
CONTINUOUS
 62
     7
 10
637.390598
 20
2092.539397
 11
637.403384
 21
2092.707365
  0
LINE
  8
CSLAYER1
  6
CONTINUOUS
 62
     7
 10
637.403384
 20
2092.707365
 11
637.441644
 21
2092.874055
  0
LINE
  8
CSLAYER1
  6
CONTINUOUS
 62
     7
 10
637.441644
 20
2092.874055
 11
637.505088
 21
2093.038198
  0
LINE
  8
CSLAYER1
  6
CONTINUOUS
 62
     7
 10
637.505088
 20
2093.038198
 11
637.593231
 21
2093.198544
  0
LINE
  8
CSLAYER1
  6
CONTINUOUS
 62
     7
 10
637.593231
 20
2093.198544
 11
637.705404
 21
2093.353874
  0
LINE
  8
CSLAYER1
  6
CONTINUOUS
 62
     7
 10
637.705404
 20
2093.353874
 11
637.840753
 21
2093.503006
  0
LINE
  8
CSLAYER1
  6
CONTINUOUS
 62
     7
 10
637.840753
 20
2093.503006
 11
637.998247
 21
2093.644803
  0
LINE
  8
CSLAYER1
  6
CONTINUOUS
 62
     7
 10
637.998247
 20
2093.644803
 11
638.176689
 21
2093.778188
  0
LINE
  8
CSLAYER1
  6
CONTINUOUS
 62
     7
 10
638.176689
 20
2093.778188
 11
638.374720
 21
2093.902145
  0
LINE
  8
CSLAYER1
  6
CONTINUOUS
 62
     7
 10
638.374720
 20
2093.902145
 11
638.590832
 21
2094.015731
  0
LINE
  8
CSLAYER1
  6
CONTINUOUS
 62
     7
 10
638.590832
 20
2094.015731
 11
638.823382
 21
2094.118081
  0
LINE
  8
CSLAYER1
  6
CONTINUOUS
 62
     7
 10
638.823382
 20
2094.118081
 11
639.070598
 21
2094.208416
  0
LINE
  8
CSLAYER1
  6
CONTINUOUS
 62
     7
 10
639.070598
 20
2094.208416
 11
639.330601
 21
2094.286049
  0
LINE
  8
CSLAYER1
  6
CONTINUOUS
 62
     7
 10
639.330601
 20
2094.286049
 11
639.601411
 21
2094.350389
  0
LINE
  8
CSLAYER1
  6
CONTINUOUS
 62
     7
 10
639.601411
 20
2094.350389
 11
639.880966
 21
2094.400946
  0
LINE
  8
CSLAYER1
  6
CONTINUOUS
 62
     7
 10
639.880966
 20
2094.400946
 11
640.167140
 21
2094.437335
  0
LINE
  8
CSLAYER1
  6
CONTINUOUS
 62
     7
 10
640.167140
 20
2094.437335
 11
640.457755
 21
2094.459280
  0
LINE
  8
CSLAYER1
  6
CONTINUOUS
 62
     7
 10
640.457755
 20
2094.459280
 11
640.750598
 21
2094.466614
  0
LINE
  8
CSLAYER1
  6
CONTINUOUS
 62
     7
 10
640.750598
 20
2094.466614
 11
641.043442
 21
2094.459280
  0
LINE
  8
CSLAYER1
  6
CONTINUOUS
 62
     7
 10
641.043442
 20
2094.459280
 11
641.334056
 21
2094.437335
  0
LINE
  8
CSLAYER1
  6
CONTINUOUS
 62
     7
 10
641.334056
 20
2094.437335
 11
641.620230
 21
2094.400946
  0
LINE
  8
CSLAYER1
  6
CONTINUOUS
 62
     7
 10
641.620230
 20
2094.400946
 11
641.899786
 21
2094.350389
  0
LINE
  8
CSLAYER1
  6
CONTINUOUS
 62
     7
 10
641.899786
 20
2094.350389
 11
642.170596
 21
2094.286049
  0
LINE
  8
CSLAYER1
  6
CONTINUOUS
 62
     7
 10
642.170596
 20
2094.286049
 11
642.430598
 21
2094.208416
  0
LINE
  8
CSLAYER1
  6
CONTINUOUS
 62
     7
 10
642.430598
 20
2094.208416
 11
642.677815
 21
2094.118081
  0
LINE
  8
CSLAYER1
  6
CONTINUOUS
 62
     7
 10
642.677815
 20
2094.118081
 11
642.910365
 21
2094.015731
  0
LINE
  8
CSLAYER1
  6
CONTINUOUS
 62
     7
 10
642.910365
 20
2094.015731
 11
643.126477
 21
2093.902145
  0
LINE
  8
CSLAYER1
  6
CONTINUOUS
 62
     7
 10
643.126477
 20
2093.902145
 11
643.324508
 21
2093.778188
  0
LINE
  8
CSLAYER1
  6
CONTINUOUS
 62
     7
 10
643.324508
 20
2093.778188
 11
643.502949
 21
2093.644803
  0
LINE
  8
CSLAYER1
  6
CONTINUOUS
 62
     7
 10
643.502949
 20
2093.644803
 11
643.660444
 21
2093.503006
  0
LINE
  8
CSLAYER1
  6
CONTINUOUS
 62
     7
 10
643.660444
 20
2093.503006
 11
643.795793
 21
2093.353874
  0
LINE
  8
CSLAYER1
  6
CONTINUOUS
 62
     7
 10
643.795793
 20
2093.353874
 11
643.907966
 21
2093.198544
  0
LINE
  8
CSLAYER1
  6
CONTINUOUS
 62
     7
 10
643.907966
 20
2093.198544
 11
643.996109
 21
2093.038198
  0
LINE
  8
CSLAYER1
  6
CONTINUOUS
 62
     7
 10
643.996109
 20
2093.038198
 11
644.059552
 21
2092.874055
  0
LINE
  8
CSLAYER1
  6
CONTINUOUS
 62
     7
 10
644.059552
 20
2092.874055
 11
644.097813
 21
2092.707365
  0
LINE
  8
CSLAYER1
  6
CONTINUOUS
 62
     7
 10
644.097813
 20
2092.707365
 11
644.110598
 21
2092.539397
  0
LINE
  8
CSLAYER1
  6
CONTINUOUS
 62
     7
 10
644.110598
 20
2092.539397
 11
644.097813
 21
2092.371429
  0
LINE
  8
CSLAYER1
  6
CONTINUOUS
 62
     7
 10
644.097813
 20
2092.371429
 11
644.059552
 21
2092.204740
  0
LINE
  8
CSLAYER1
  6
CONTINUOUS
 62
     7
 10
644.059552
 20
2092.204740
 11
643.996109
 21
2092.040597
  0
LINE
  8
CSLAYER1
  6
CONTINUOUS
 62
     7
 10
643.996109
 20
2092.040597
 11
643.907966
 21
2091.880250
  0
LINE
  8
CSLAYER1
  6
CONTINUOUS
 62
     7
 10
643.907966
 20
2091.880250
 11
643.795793
 21
2091.724920
  0
LINE
  8
CSLAYER1
  6
CONTINUOUS
 62
     7
 10
643.795793
 20
2091.724920
 11
643.660444
 21
2091.575789
  0
LINE
  8
CSLAYER1
  6
CONTINUOUS
 62
     7
 10
643.660444
 20
2091.575789
 11
643.502949
 21
2091.433991
  0
LINE
  8
CSLAYER1
  6
CONTINUOUS
 62
     7
 10
643.502949
 20
2091.433991
 11
643.324508
 21
2091.300606
  0
LINE
  8
CSLAYER1
  6
CONTINUOUS
 62
     7
 10
643.324508
 20
2091.300606
 11
643.126477
 21
2091.176649
  0
LINE
  8
CSLAYER1
  6
CONTINUOUS
 62
     7
 10
643.126477
 20
2091.176649
 11
642.910365
 21
2091.063063
  0
LINE
  8
CSLAYER1
  6
CONTINUOUS
 62
     7
 10
642.910365
 20
2091.063063
 11
642.677815
 21
2090.960714
  0
LINE
  8
CSLAYER1
  6
CONTINUOUS
 62
     7
 10
642.677815
 20
2090.960714
 11
642.430598
 21
2090.870378
  0
LINE
  8
CSLAYER1
  6
CONTINUOUS
 62
     7
 10
642.430598
 20
2090.870378
 11
642.170596
 21
2090.792746
  0
LINE
  8
CSLAYER1
  6
CONTINUOUS
 62
     7
 10
642.170596
 20
2090.792746
 11
641.899786
 21
2090.728406
  0
LINE
  8
CSLAYER1
  6
CONTINUOUS
 62
     7
 10
641.899786
 20
2090.728406
 11
641.620230
 21
2090.677849
  0
LINE
  8
CSLAYER1
  6
CONTINUOUS
 62
     7
 10
641.620230
 20
2090.677849
 11
641.334056
 21
2090.641459
  0
LINE
  8
CSLAYER1
  6
CONTINUOUS
 62
     7
 10
641.334056
 20
2090.641459
 11
641.043442
 21
2090.619514
  0
LINE
  8
CSLAYER1
  6
CONTINUOUS
 62
     7
 10
641.043442
 20
2090.619514
 11
640.750598
 21
2090.612180
  0
LINE
  8
CSLAYER1
  6
CONTINUOUS
 62
     7
 10
640.750598
 20
2090.612180
 11
640.457755
 21
2090.619514
  0
LINE
  8
CSLAYER1
  6
CONTINUOUS
 62
     7
 10
640.457755
 20
2090.619514
 11
640.167140
 21
2090.641459
  0
LINE
  8
CSLAYER1
  6
CONTINUOUS
 62
     7
 10
640.167140
 20
2090.641459
 11
639.880966
 21
2090.677849
  0
LINE
  8
CSLAYER1
  6
CONTINUOUS
 62
     7
 10
639.880966
 20
2090.677849
 11
639.601411
 21
2090.728406
  0
LINE
  8
CSLAYER1
  6
CONTINUOUS
 62
     7
 10
639.601411
 20
2090.728406
 11
639.330601
 21
2090.792746
  0
LINE
  8
CSLAYER1
  6
CONTINUOUS
 62
     7
 10
639.330601
 20
2090.792746
 11
639.070598
 21
2090.870378
  0
LINE
  8
CSLAYER1
  6
CONTINUOUS
 62
     7
 10
639.070598
 20
2090.870378
 11
638.823382
 21
2090.960714
  0
LINE
  8
CSLAYER1
  6
CONTINUOUS
 62
     7
 10
638.823382
 20
2090.960714
 11
638.590832
 21
2091.063063
  0
LINE
  8
CSLAYER1
  6
CONTINUOUS
 62
     7
 10
638.590832
 20
2091.063063
 11
638.374720
 21
2091.176649
  0
LINE
  8
CSLAYER1
  6
CONTINUOUS
 62
     7
 10
638.374720
 20
2091.176649
 11
638.176689
 21
2091.300606
  0
LINE
  8
CSLAYER1
  6
CONTINUOUS
 62
     7
 10
638.176689
 20
2091.300606
 11
637.998247
 21
2091.433991
  0
LINE
  8
CSLAYER1
  6
CONTINUOUS
 62
     7
 10
637.998247
 20
2091.433991
 11
637.840753
 21
2091.575789
  0
LINE
  8
CSLAYER1
  6
CONTINUOUS
 62
     7
 10
637.840753
 20
2091.575789
 11
637.705404
 21
2091.724920
  0
LINE
  8
CSLAYER1
  6
CONTINUOUS
 62
     7
 10
637.705404
 20
2091.724920
 11
637.593231
 21
2091.880250
  0
LINE
  8
CSLAYER1
  6
CONTINUOUS
 62
     7
 10
637.593231
 20
2091.880250
 11
637.505088
 21
2092.040597
  0
LINE
  8
CSLAYER1
  6
CONTINUOUS
 62
     7
 10
637.505088
 20
2092.040597
 11
637.441644
 21
2092.204740
  0
LINE
  8
CSLAYER1
  6
CONTINUOUS
 62
     7
 10
637.441644
 20
2092.204740
 11
637.403384
 21
2092.371429
  0
LINE
  8
CSLAYER1
  6
CONTINUOUS
 62
     7
 10
637.403384
 20
2092.371429
 11
637.390598
 21
2092.539397
  0
LINE
  8
CSLAYER1
  6
CONTINUOUS
 62
     7
 10
647.134598
 20
2092.539397
 11
647.134598
 21
2088.910658
  0
LINE
  8
CSLAYER1
  6
CONTINUOUS
 62
     7
 10
634.366598
 20
2092.539397
 11
634.366598
 21
2088.910658
  0
LINE
  8
CSLAYER1
  6
CONTINUOUS
 62
     7
 10
644.286484
 20
2089.493920
 11
644.286484
 21
2085.865181
  0
LINE
  8
CSLAYER1
  6
CONTINUOUS
 62
     7
 10
636.967397
 20
2089.593369
 11
636.967397
 21
2085.964629
  0
LINE
  8
CSLAYER1
  6
CONTINUOUS
 62
     7
 10
647.134598
 20
2088.910658
 11
647.110305
 21
2088.591518
  0
LINE
  8
CSLAYER1
  6
CONTINUOUS
 62
     7
 10
647.110305
 20
2088.591518
 11
647.037611
 21
2088.274808
  0
LINE
  8
CSLAYER1
  6
CONTINUOUS
 62
     7
 10
647.037611
 20
2088.274808
 11
646.917069
 21
2087.962937
  0
LINE
  8
CSLAYER1
  6
CONTINUOUS
 62
     7
 10
646.917069
 20
2087.962937
 11
646.749596
 21
2087.658278
  0
LINE
  8
CSLAYER1
  6
CONTINUOUS
 62
     7
 10
646.749596
 20
2087.658278
 11
646.536467
 21
2087.363151
  0
LINE
  8
CSLAYER1
  6
CONTINUOUS
 62
     7
 10
646.536467
 20
2087.363151
 11
646.279305
 21
2087.079802
  0
LINE
  8
CSLAYER1
  6
CONTINUOUS
 62
     7
 10
646.279305
 20
2087.079802
 11
645.980065
 21
2086.810386
  0
LINE
  8
CSLAYER1
  6
CONTINUOUS
 62
     7
 10
645.980065
 20
2086.810386
 11
645.641026
 21
2086.556955
  0
LINE
  8
CSLAYER1
  6
CONTINUOUS
 62
     7
 10
645.641026
 20
2086.556955
 11
645.264768
 21
2086.321436
  0
LINE
  8
CSLAYER1
  6
CONTINUOUS
 62
     7
 10
645.264768
 20
2086.321436
 11
644.854154
 21
2086.105624
  0
LINE
  8
CSLAYER1
  6
CONTINUOUS
 62
     7
 10
644.854154
 20
2086.105624
 11
644.412310
 21
2085.911159
  0
LINE
  8
CSLAYER1
  6
CONTINUOUS
 62
     7
 10
644.412310
 20
2085.911159
 11
643.942598
 21
2085.739522
  0
LINE
  8
CSLAYER1
  6
CONTINUOUS
 62
     7
 10
643.942598
 20
2085.739522
 11
643.448593
 21
2085.592020
  0
LINE
  8
CSLAYER1
  6
CONTINUOUS
 62
     7
 10
643.448593
 20
2085.592020
 11
642.934055
 21
2085.469774
  0
LINE
  8
CSLAYER1
  6
CONTINUOUS
 62
     7
 10
642.934055
 20
2085.469774
 11
642.402899
 21
2085.373716
  0
LINE
  8
CSLAYER1
  6
CONTINUOUS
 62
     7
 10
642.402899
 20
2085.373716
 11
641.859168
 21
2085.304575
  0
LINE
  8
CSLAYER1
  6
CONTINUOUS
 62
     7
 10
641.859168
 20
2085.304575
 11
641.307001
 21
2085.262880
  0
LINE
  8
CSLAYER1
  6
CONTINUOUS
 62
     7
 10
641.307001
 20
2085.262880
 11
640.750598
 21
2085.248946
  0
LINE
  8
CSLAYER1
  6
CONTINUOUS
 62
     7
 10
640.750598
 20
2085.248946
 11
640.194196
 21
2085.262880
  0
LINE
  8
CSLAYER1
  6
CONTINUOUS
 62
     7
 10
640.194196
 20
2085.262880
 11
639.642028
 21
2085.304575
  0
LINE
  8
CSLAYER1
  6
CONTINUOUS
 62
     7
 10
639.642028
 20
2085.304575
 11
639.098298
 21
2085.373716
  0
LINE
  8
CSLAYER1
  6
CONTINUOUS
 62
     7
 10
639.098298
 20
2085.373716
 11
638.567142
 21
2085.469774
  0
LINE
  8
CSLAYER1
  6
CONTINUOUS
 62
     7
 10
638.567142
 20
2085.469774
 11
638.052603
 21
2085.592020
  0
LINE
  8
CSLAYER1
  6
CONTINUOUS
 62
     7
 10
638.052603
 20
2085.592020
 11
637.558598
 21
2085.739522
  0
LINE
  8
CSLAYER1
  6
CONTINUOUS
 62
     7
 10
637.558598
 20
2085.739522
 11
637.088886
 21
2085.911159
  0
LINE
  8
CSLAYER1
  6
CONTINUOUS
 62
     7
 10
637.088886
 20
2085.911159
 11
636.647042
 21
2086.105624
  0
LINE
  8
CSLAYER1
  6
CONTINUOUS
 62
     7
 10
636.647042
 20
2086.105624
 11
636.236429
 21
2086.321436
  0
LINE
  8
CSLAYER1
  6
CONTINUOUS
 62
     7
 10
636.236429
 20
2086.321436
 11
635.860171
 21
2086.556955
  0
LINE
  8
CSLAYER1
  6
CONTINUOUS
 62
     7
 10
635.860171
 20
2086.556955
 11
635.521132
 21
2086.810386
  0
LINE
  8
CSLAYER1
  6
CONTINUOUS
 62
     7
 10
635.521132
 20
2086.810386
 11
635.221892
 21
2087.079802
  0
LINE
  8
CSLAYER1
  6
CONTINUOUS
 62
     7
 10
635.221892
 20
2087.079802
 11
634.964729
 21
2087.363151
  0
LINE
  8
CSLAYER1
  6
CONTINUOUS
 62
     7
 10
634.964729
 20
2087.363151
 11
634.751601
 21
2087.658278
  0
LINE
  8
CSLAYER1
  6
CONTINUOUS
 62
     7
 10
634.751601
 20
2087.658278
 11
634.584128
 21
2087.962937
  0
LINE
  8
CSLAYER1
  6
CONTINUOUS
 62
     7
 10
634.584128
 20
2087.962937
 11
634.463586
 21
2088.274808
  0
LINE
  8
CSLAYER1
  6
CONTINUOUS
 62
     7
 10
634.463586
 20
2088.274808
 11
634.390891
 21
2088.591518
  0
LINE
  8
CSLAYER1
  6
CONTINUOUS
 62
     7
 10
634.390891
 20
2088.591518
 11
634.366598
 21
2088.910658
  0
LINE
  8
CSLAYER1
  6
CONTINUOUS
 62
     7
 10
636.967397
 20
2075.748039
 11
636.967397
 21
2075.198989
  0
LINE
  8
CSLAYER1
  6
CONTINUOUS
 62
     7
 10
647.134598
 20
2078.145018
 11
647.110305
 21
2077.825879
  0
LINE
  8
CSLAYER1
  6
CONTINUOUS
 62
     7
 10
647.110305
 20
2077.825879
 11
647.037611
 21
2077.509168
  0
LINE
  8
CSLAYER1
  6
CONTINUOUS
 62
     7
 10
647.037611
 20
2077.509168
 11
646.917069
 21
2077.197297
  0
LINE
  8
CSLAYER1
  6
CONTINUOUS
 62
     7
 10
646.917069
 20
2077.197297
 11
646.749596
 21
2076.892639
  0
LINE
  8
CSLAYER1
  6
CONTINUOUS
 62
     7
 10
646.749596
 20
2076.892639
 11
646.536467
 21
2076.597512
  0
LINE
  8
CSLAYER1
  6
CONTINUOUS
 62
     7
 10
646.536467
 20
2076.597512
 11
646.279305
 21
2076.314162
  0
LINE
  8
CSLAYER1
  6
CONTINUOUS
 62
     7
 10
646.279305
 20
2076.314162
 11
645.980065
 21
2076.044746
  0
LINE
  8
CSLAYER1
  6
CONTINUOUS
 62
     7
 10
645.980065
 20
2076.044746
 11
645.641026
 21
2075.791315
  0
LINE
  8
CSLAYER1
  6
CONTINUOUS
 62
     7
 10
645.641026
 20
2075.791315
 11
645.264768
 21
2075.555797
  0
LINE
  8
CSLAYER1
  6
CONTINUOUS
 62
     7
 10
645.264768
 20
2075.555797
 11
644.854154
 21
2075.339984
  0
LINE
  8
CSLAYER1
  6
CONTINUOUS
 62
     7
 10
644.854154
 20
2075.339984
 11
644.412310
 21
2075.145519
  0
LINE
  8
CSLAYER1
  6
CONTINUOUS
 62
     7
 10
644.412310
 20
2075.145519
 11
643.942598
 21
2074.973882
  0
LINE
  8
CSLAYER1
  6
CONTINUOUS
 62
     7
 10
643.942598
 20
2074.973882
 11
643.448593
 21
2074.826380
  0
LINE
  8
CSLAYER1
  6
CONTINUOUS
 62
     7
 10
643.448593
 20
2074.826380
 11
642.934055
 21
2074.704134
  0
LINE
  8
CSLAYER1
  6
CONTINUOUS
 62
     7
 10
642.934055
 20
2074.704134
 11
642.402899
 21
2074.608076
  0
LINE
  8
CSLAYER1
  6
CONTINUOUS
 62
     7
 10
642.402899
 20
2074.608076
 11
641.859168
 21
2074.538936
  0
LINE
  8
CSLAYER1
  6
CONTINUOUS
 62
     7
 10
641.859168
 20
2074.538936
 11
641.307001
 21
2074.497240
  0
LINE
  8
CSLAYER1
  6
CONTINUOUS
 62
     7
 10
641.307001
 20
2074.497240
 11
640.750598
 21
2074.483306
  0
LINE
  8
CSLAYER1
  6
CONTINUOUS
 62
     7
 10
640.750598
 20
2074.483306
 11
640.194196
 21
2074.497240
  0
LINE
  8
CSLAYER1
  6
CONTINUOUS
 62
     7
 10
640.194196
 20
2074.497240
 11
639.642028
 21
2074.538936
  0
LINE
  8
CSLAYER1
  6
CONTINUOUS
 62
     7
 10
639.642028
 20
2074.538936
 11
639.098298
 21
2074.608076
  0
LINE
  8
CSLAYER1
  6
CONTINUOUS
 62
     7
 10
639.098298
 20
2074.608076
 11
638.567142
 21
2074.704134
  0
LINE
  8
CSLAYER1
  6
CONTINUOUS
 62
     7
 10
638.567142
 20
2074.704134
 11
638.052603
 21
2074.826380
  0
LINE
  8
CSLAYER1
  6
CONTINUOUS
 62
     7
 10
638.052603
 20
2074.826380
 11
637.558598
 21
2074.973882
  0
LINE
  8
CSLAYER1
  6
CONTINUOUS
 62
     7
 10
637.558598
 20
2074.973882
 11
637.088886
 21
2075.145519
  0
LINE
  8
CSLAYER1
  6
CONTINUOUS
 62
     7
 10
637.088886
 20
2075.145519
 11
636.647042
 21
2075.339984
  0
LINE
  8
CSLAYER1
  6
CONTINUOUS
 62
     7
 10
636.647042
 20
2075.339984
 11
636.466353
 21
2075.434952
  0
LINE
  8
CSLAYER1
  6
CONTINUOUS
 62
     7
 10
647.134598
 20
2083.191898
 11
647.134598
 21
2078.145018
  0
LINE
  8
CSLAYER1
  6
CONTINUOUS
 62
     7
 10
644.110598
 20
2070.560492
 11
644.110598
 21
2075.035271
  0
LINE
  8
CSLAYER1
  6
CONTINUOUS
 62
     7
 10
637.390598
 20
2070.560492
 11
637.390598
 21
2075.035271
  0
LINE
  8
CSLAYER1
  6
CONTINUOUS
 62
     7
 10
644.110598
 20
2070.560492
 11
644.097813
 21
2070.392524
  0
LINE
  8
CSLAYER1
  6
CONTINUOUS
 62
     7
 10
644.097813
 20
2070.392524
 11
644.059552
 21
2070.225835
  0
LINE
  8
CSLAYER1
  6
CONTINUOUS
 62
     7
 10
644.059552
 20
2070.225835
 11
643.996109
 21
2070.061692
  0
LINE
  8
CSLAYER1
  6
CONTINUOUS
 62
     7
 10
643.996109
 20
2070.061692
 11
643.907966
 21
2069.901345
  0
LINE
  8
CSLAYER1
  6
CONTINUOUS
 62
     7
 10
643.907966
 20
2069.901345
 11
643.795793
 21
2069.746015
  0
LINE
  8
CSLAYER1
  6
CONTINUOUS
 62
     7
 10
643.795793
 20
2069.746015
 11
643.660444
 21
2069.596884
  0
LINE
  8
CSLAYER1
  6
CONTINUOUS
 62
     7
 10
643.660444
 20
2069.596884
 11
643.502949
 21
2069.455086
  0
LINE
  8
CSLAYER1
  6
CONTINUOUS
 62
     7
 10
643.502949
 20
2069.455086
 11
643.324508
 21
2069.321701
  0
LINE
  8
CSLAYER1
  6
CONTINUOUS
 62
     7
 10
643.324508
 20
2069.321701
 11
643.126477
 21
2069.197744
  0
LINE
  8
CSLAYER1
  6
CONTINUOUS
 62
     7
 10
643.126477
 20
2069.197744
 11
642.910365
 21
2069.084159
  0
LINE
  8
CSLAYER1
  6
CONTINUOUS
 62
     7
 10
642.910365
 20
2069.084159
 11
642.677815
 21
2068.981809
  0
LINE
  8
CSLAYER1
  6
CONTINUOUS
 62
     7
 10
642.677815
 20
2068.981809
 11
642.430598
 21
2068.891474
  0
LINE
  8
CSLAYER1
  6
CONTINUOUS
 62
     7
 10
642.430598
 20
2068.891474
 11
642.170596
 21
2068.813841
  0
LINE
  8
CSLAYER1
  6
CONTINUOUS
 62
     7
 10
642.170596
 20
2068.813841
 11
641.899786
 21
2068.749501
  0
LINE
  8
CSLAYER1
  6
CONTINUOUS
 62
     7
 10
641.899786
 20
2068.749501
 11
641.620230
 21
2068.698944
  0
LINE
  8
CSLAYER1
  6
CONTINUOUS
 62
     7
 10
641.620230
 20
2068.698944
 11
641.334056
 21
2068.662554
  0
LINE
  8
CSLAYER1
  6
CONTINUOUS
 62
     7
 10
641.334056
 20
2068.662554
 11
641.043442
 21
2068.640609
  0
LINE
  8
CSLAYER1
  6
CONTINUOUS
 62
     7
 10
641.043442
 20
2068.640609
 11
640.750598
 21
2068.633275
  0
LINE
  8
CSLAYER1
  6
CONTINUOUS
 62
     7
 10
640.750598
 20
2068.633275
 11
640.457755
 21
2068.640609
  0
LINE
  8
CSLAYER1
  6
CONTINUOUS
 62
     7
 10
640.457755
 20
2068.640609
 11
640.167140
 21
2068.662554
  0
LINE
  8
CSLAYER1
  6
CONTINUOUS
 62
     7
 10
640.167140
 20
2068.662554
 11
639.880966
 21
2068.698944
  0
LINE
  8
CSLAYER1
  6
CONTINUOUS
 62
     7
 10
639.880966
 20
2068.698944
 11
639.601411
 21
2068.749501
  0
LINE
  8
CSLAYER1
  6
CONTINUOUS
 62
     7
 10
639.601411
 20
2068.749501
 11
639.330601
 21
2068.813841
  0
LINE
  8
CSLAYER1
  6
CONTINUOUS
 62
     7
 10
639.330601
 20
2068.813841
 11
639.070598
 21
2068.891474
  0
LINE
  8
CSLAYER1
  6
CONTINUOUS
 62
     7
 10
639.070598
 20
2068.891474
 11
638.823382
 21
2068.981809
  0
LINE
  8
CSLAYER1
  6
CONTINUOUS
 62
     7
 10
638.823382
 20
2068.981809
 11
638.590832
 21
2069.084159
  0
LINE
  8
CSLAYER1
  6
CONTINUOUS
 62
     7
 10
638.590832
 20
2069.084159
 11
638.374720
 21
2069.197744
  0
LINE
  8
CSLAYER1
  6
CONTINUOUS
 62
     7
 10
638.374720
 20
2069.197744
 11
638.176689
 21
2069.321701
  0
LINE
  8
CSLAYER1
  6
CONTINUOUS
 62
     7
 10
638.176689
 20
2069.321701
 11
637.998247
 21
2069.455086
  0
LINE
  8
CSLAYER1
  6
CONTINUOUS
 62
     7
 10
637.998247
 20
2069.455086
 11
637.840753
 21
2069.596884
  0
LINE
  8
CSLAYER1
  6
CONTINUOUS
 62
     7
 10
637.840753
 20
2069.596884
 11
637.705404
 21
2069.746015
  0
LINE
  8
CSLAYER1
  6
CONTINUOUS
 62
     7
 10
637.705404
 20
2069.746015
 11
637.593231
 21
2069.901345
  0
LINE
  8
CSLAYER1
  6
CONTINUOUS
 62
     7
 10
637.593231
 20
2069.901345
 11
637.505088
 21
2070.061692
  0
LINE
  8
CSLAYER1
  6
CONTINUOUS
 62
     7
 10
637.505088
 20
2070.061692
 11
637.441644
 21
2070.225835
  0
LINE
  8
CSLAYER1
  6
CONTINUOUS
 62
     7
 10
637.441644
 20
2070.225835
 11
637.403384
 21
2070.392524
  0
LINE
  8
CSLAYER1
  6
CONTINUOUS
 62
     7
 10
637.403384
 20
2070.392524
 11
637.390598
 21
2070.560492
  0
LINE
  8
CSLAYER1
  6
CONTINUOUS
 62
     7
 10
642.333495
 20
2083.813583
 11
627.829744
 21
2089.092517
  0
LINE
  8
CSLAYER1
  6
CONTINUOUS
 62
     7
 10
642.333495
 20
2083.813583
 11
642.333495
 21
2079.101149
  0
LINE
  8
CSLAYER1
  6
CONTINUOUS
 62
     7
 10
629.619348
 20
2088.441154
 11
634.366598
 21
2091.407565
  0
LINE
  8
CSLAYER1
  6
CONTINUOUS
 62
     7
 10
642.333495
 20
2082.613644
 11
649.566404
 21
2087.133267
  0
LINE
  8
CSLAYER1
  6
CONTINUOUS
 62
     7
 10
642.333495
 20
2080.191835
 11
648.902665
 21
2084.296708
  0
ARC
  8
CSLAYER1
  6
CONTINUOUS
 62
     7
 10
643.155284
 20
2083.603429
 40
7.403380
 50
30.339165
 51
57.486408
  0
ARC
  8
CSLAYER1
  6
CONTINUOUS
 62
     7
 10
644.814606
 20
2086.749227
 40
4.767292
 50
-30.960488
 51
7.154948
  0
ENDBLK
  8
0
  0
BLOCK
  8
CSLAYER1
  2
BLKF0012
 70
   64
 10
0.0
 20
0.0
 30
0.0
  0
ARC
  8
CSLAYER1
  6
CONTINUOUS
 62
     5
 10
2854.533586
 20
132.592877
 40
3.549225
 50
6.429109
 51
73.182034
  0
ARC
  8
CSLAYER1
  6
CONTINUOUS
 62
     5
 10
2851.072616
 20
131.434484
 40
6.907754
 50
310.517970
 51
330.092764
  0
ARC
  8
CSLAYER1
  6
CONTINUOUS
 62
     5
 10
2851.011966
 20
131.800002
 40
7.148321
 50
-32.205059
 51
9.585194
  0
ARC
  8
CSLAYER1
  6
CONTINUOUS
 62
     5
 10
2854.304694
 20
129.039004
 40
4.767514
 50
180.000000
 51
218.514150
  0
ARC
  8
CSLAYER1
  6
CONTINUOUS
 62
     5
 10
2853.017973
 20
128.361863
 40
3.348282
 50
222.781148
 51
319.406906
  0
ARC
  8
CSLAYER1
  6
CONTINUOUS
 62
     5
 10
2856.083615
 20
129.451756
 40
6.559434
 50
94.574282
 51
183.607718
  0
LINE
  8
CSLAYER1
  6
CONTINUOUS
 62
     5
 10
2869.527522
 20
124.334924
 11
2868.670485
 21
121.296341
  0
LINE
  8
CSLAYER1
  6
CONTINUOUS
 62
     5
 10
2871.319506
 20
144.202581
 11
2869.215872
 21
146.929514
  0
LINE
  8
CSLAYER1
  6
CONTINUOUS
 62
     5
 10
2869.215872
 20
146.929514
 11
2862.462518
 21
150.687426
  0
LINE
  8
CSLAYER1
  6
CONTINUOUS
 62
     5
 10
2862.462518
 20
150.687426
 11
2855.560490
 21
151.490297
  0
LINE
  8
CSLAYER1
  6
CONTINUOUS
 62
     5
 10
2837.271265
 20
138.111623
 11
2839.417959
 21
143.075854
  0
LINE
  8
CSLAYER1
  6
CONTINUOUS
 62
     5
 10
2839.380962
 20
142.990297
 11
2841.564654
 21
145.625054
  0
LINE
  8
CSLAYER1
  6
CONTINUOUS
 62
     5
 10
2841.564654
 20
145.625054
 11
2844.869076
 21
147.990297
  0
LINE
  8
CSLAYER1
  6
CONTINUOUS
 62
     5
 10
2855.560490
 20
151.490297
 11
2854.042315
 21
150.723453
  0
LINE
  8
CSLAYER1
  6
CONTINUOUS
 62
     5
 10
2854.042315
 20
150.723453
 11
2850.553936
 21
150.723453
  0
LINE
  8
CSLAYER1
  6
CONTINUOUS
 62
     5
 10
2850.553936
 20
150.723453
 11
2846.998474
 21
148.778011
  0
LINE
  8
CSLAYER1
  6
CONTINUOUS
 62
     5
 10
2846.998474
 20
148.778011
 11
2844.869076
 21
147.990297
  0
LINE
  8
CSLAYER1
  6
CONTINUOUS
 62
     5
 10
2837.271265
 20
138.111623
 11
2835.753718
 21
130.563020
  0
LINE
  8
CSLAYER1
  6
CONTINUOUS
 62
     5
 10
2835.753718
 20
130.563020
 11
2835.560490
 21
127.990297
  0
LINE
  8
CSLAYER1
  6
CONTINUOUS
 62
     5
 10
2838.269873
 20
120.150515
 11
2835.560490
 21
126.246626
  0
LINE
  8
CSLAYER1
  6
CONTINUOUS
 62
     5
 10
2835.560490
 20
126.246626
 11
2835.560490
 21
127.990297
  0
LINE
  8
CSLAYER1
  6
CONTINUOUS
 62
     5
 10
2868.670485
 20
121.296341
 11
2866.984698
 21
118.293334
  0
LINE
  8
CSLAYER1
  6
CONTINUOUS
 62
     5
 10
2866.984698
 20
118.293334
 11
2865.560490
 21
116.974623
  0
ARC
  8
CSLAYER1
  6
CONTINUOUS
 62
     5
 10
2853.368546
 20
128.527058
 40
17.266626
 50
208.054813
 51
260.640470
  0
ARC
  8
CSLAYER1
  6
CONTINUOUS
 62
     5
 10
2848.175151
 20
141.269527
 40
29.874611
 50
274.579659
 51
305.587364
  0
ARC
  8
CSLAYER1
  6
CONTINUOUS
 62
     5
 10
2859.147500
 20
135.285805
 40
15.088627
 50
313.467013
 51
331.085078
  0
LINE
  8
CSLAYER1
  6
CONTINUOUS
 62
     5
 10
2873.938832
 20
131.503718
 11
2874.236126
 21
135.285805
  0
LINE
  8
CSLAYER1
  6
CONTINUOUS
 62
     5
 10
2874.236126
 20
135.285805
 11
2872.944129
 21
141.394788
  0
LINE
  8
CSLAYER1
  6
CONTINUOUS
 62
     5
 10
2873.938832
 20
131.503718
 11
2872.355157
 21
127.990297
  0
ARC
  8
CSLAYER1
  6
CONTINUOUS
 62
     5
 10
2859.147500
 20
135.285805
 40
15.088627
 50
23.883193
 51
36.225170
  0
LINE
  8
CSLAYER1
  6
CONTINUOUS
 62
     5
 10
2819.560490
 20
162.990297
 11
2820.560490
 21
164.082941
  0
LINE
  8
CSLAYER1
  6
CONTINUOUS
 62
     5
 10
2819.560490
 20
162.990297
 11
2821.137448
 21
161.545264
  0
LINE
  8
CSLAYER1
  6
CONTINUOUS
 62
     5
 10
2822.676661
 20
159.435972
 11
2822.702929
 21
157.267853
  0
LINE
  8
CSLAYER1
  6
CONTINUOUS
 62
     5
 10
2822.702929
 20
157.267853
 11
2822.910327
 21
156.507394
  0
LINE
  8
CSLAYER1
  6
CONTINUOUS
 62
     5
 10
2822.910327
 20
156.507394
 11
2823.497955
 21
155.781501
  0
LINE
  8
CSLAYER1
  6
CONTINUOUS
 62
     5
 10
2823.497955
 20
155.781501
 11
2824.085582
 21
155.850634
  0
LINE
  8
CSLAYER1
  6
CONTINUOUS
 62
     5
 10
2824.085582
 20
155.850634
 11
2824.707776
 21
156.023465
  0
LINE
  8
CSLAYER1
  6
CONTINUOUS
 62
     5
 10
2824.707776
 20
156.023465
 11
2825.122572
 21
155.850634
  0
LINE
  8
CSLAYER1
  6
CONTINUOUS
 62
     5
 10
2825.122572
 20
155.850634
 11
2826.021297
 21
155.401271
  0
LINE
  8
CSLAYER1
  6
CONTINUOUS
 62
     5
 10
2826.021297
 20
155.401271
 11
2826.797349
 21
154.990297
  0
LINE
  8
CSLAYER1
  6
CONTINUOUS
 62
     5
 10
2826.797349
 20
154.990297
 11
2827.300251
 21
155.021042
  0
LINE
  8
CSLAYER1
  6
CONTINUOUS
 62
     5
 10
2827.300251
 20
155.021042
 11
2830.108123
 21
156.467521
  0
LINE
  8
CSLAYER1
  6
CONTINUOUS
 62
     5
 10
2820.560490
 20
164.082941
 11
2820.893342
 21
165.556649
  0
LINE
  8
CSLAYER1
  6
CONTINUOUS
 62
     5
 10
2820.893342
 20
165.556649
 11
2822.346747
 21
165.707001
  0
LINE
  8
CSLAYER1
  6
CONTINUOUS
 62
     5
 10
2823.840506
 20
168.475460
 11
2825.594679
 21
168.632550
  0
LINE
  8
CSLAYER1
  6
CONTINUOUS
 62
     5
 10
2825.594679
 20
168.632550
 11
2829.129207
 21
169.470364
  0
LINE
  8
CSLAYER1
  6
CONTINUOUS
 62
     5
 10
2829.129207
 20
169.470364
 11
2830.560490
 21
169.802003
  0
LINE
  8
CSLAYER1
  6
CONTINUOUS
 62
     5
 10
2823.840506
 20
168.475460
 11
2821.907615
 21
168.634327
  0
LINE
  8
CSLAYER1
  6
CONTINUOUS
 62
     5
 10
2821.171492
 20
167.765640
 11
2821.265017
 21
167.394479
  0
LINE
  8
CSLAYER1
  6
CONTINUOUS
 62
     5
 10
2821.265017
 20
167.394479
 11
2821.756611
 21
166.856798
  0
LINE
  8
CSLAYER1
  6
CONTINUOUS
 62
     5
 10
2821.756611
 20
166.856798
 11
2822.432553
 21
166.349841
  0
LINE
  8
CSLAYER1
  6
CONTINUOUS
 62
     5
 10
2822.432553
 20
166.349841
 11
2822.555878
 21
166.185408
  0
LINE
  8
CSLAYER1
  6
CONTINUOUS
 62
     5
 10
2821.137448
 20
161.545264
 11
2822.676661
 21
159.435972
  0
ARC
  8
CSLAYER1
  6
CONTINUOUS
 62
     5
 10
2865.547191
 20
-8.668356
 40
180.727463
 50
80.438896
 51
96.353582
  0
ARC
  8
CSLAYER1
  6
CONTINUOUS
 62
     5
 10
2840.648278
 20
136.579544
 40
34.720242
 50
81.866516
 51
106.890578
  0
LINE
  8
CSLAYER1
  6
CONTINUOUS
 62
     5
 10
2899.754752
 20
168.756967
 11
2902.001834
 21
167.735566
  0
LINE
  8
CSLAYER1
  6
CONTINUOUS
 62
     5
 10
2905.576739
 20
166.152394
 11
2902.001834
 21
167.735566
  0
LINE
  8
CSLAYER1
  6
CONTINUOUS
 62
     5
 10
2899.754752
 20
168.756967
 11
2895.560490
 21
169.549539
  0
LINE
  8
CSLAYER1
  6
CONTINUOUS
 62
     5
 10
2905.560490
 20
166.159590
 11
2907.432066
 21
164.591113
  0
LINE
  8
CSLAYER1
  6
CONTINUOUS
 62
     5
 10
2888.803746
 20
167.196441
 11
2889.703021
 21
168.649115
  0
LINE
  8
CSLAYER1
  6
CONTINUOUS
 62
     5
 10
2889.703021
 20
168.649115
 11
2894.378620
 21
167.529606
  0
LINE
  8
CSLAYER1
  6
CONTINUOUS
 62
     5
 10
2894.378620
 20
167.529606
 11
2911.121006
 21
162.990297
  0
LINE
  8
CSLAYER1
  6
CONTINUOUS
 62
     5
 10
2914.060490
 20
162.990297
 11
2907.432066
 21
164.591113
  0
LINE
  8
CSLAYER1
  6
CONTINUOUS
 62
     5
 10
2911.121006
 20
162.990297
 11
2914.060490
 21
162.990297
  0
LINE
  8
CSLAYER1
  6
CONTINUOUS
 62
     5
 10
2855.560490
 20
167.455238
 11
2875.560490
 21
167.990297
  0
LINE
  8
CSLAYER1
  6
CONTINUOUS
 62
     5
 10
2875.560490
 20
167.990297
 11
2888.803746
 21
167.196441
  0
LINE
  8
CSLAYER1
  6
CONTINUOUS
 62
     5
 10
2890.406728
 20
165.135961
 11
2875.560490
 21
166.490297
  0
LINE
  8
CSLAYER1
  6
CONTINUOUS
 62
     5
 10
2875.560490
 20
166.490297
 11
2860.511281
 21
166.898949
  0
LINE
  8
CSLAYER1
  6
CONTINUOUS
 62
     5
 10
2860.560490
 20
166.897613
 11
2855.560490
 21
166.992907
  0
LINE
  8
CSLAYER1
  6
CONTINUOUS
 62
     5
 10
2855.560490
 20
167.455238
 11
2855.560490
 21
166.992907
  0
LINE
  8
CSLAYER1
  6
CONTINUOUS
 62
     5
 10
2913.060490
 20
159.490297
 11
2904.217932
 21
161.800959
  0
LINE
  8
CSLAYER1
  6
CONTINUOUS
 62
     5
 10
2890.406728
 20
165.135961
 11
2900.560490
 21
163.163577
  0
LINE
  8
CSLAYER1
  6
CONTINUOUS
 62
     5
 10
2900.560490
 20
163.163577
 11
2904.217932
 21
161.800959
  0
LINE
  8
CSLAYER1
  6
CONTINUOUS
 62
     5
 10
2913.060490
 20
159.490297
 11
2912.767873
 21
158.651192
  0
LINE
  8
CSLAYER1
  6
CONTINUOUS
 62
     5
 10
2922.560490
 20
153.990297
 11
2922.254463
 21
155.219278
  0
LINE
  8
CSLAYER1
  6
CONTINUOUS
 62
     5
 10
2912.767873
 20
158.651192
 11
2922.254463
 21
155.219278
  0
LINE
  8
CSLAYER1
  6
CONTINUOUS
 62
     5
 10
2859.060490
 20
159.490297
 11
2861.483529
 21
159.490297
  0
LINE
  8
CSLAYER1
  6
CONTINUOUS
 62
     5
 10
2881.560490
 20
159.922793
 11
2881.560490
 21
159.490297
  0
LINE
  8
CSLAYER1
  6
CONTINUOUS
 62
     5
 10
2880.560490
 20
160.457233
 11
2878.849211
 21
161.094412
  0
LINE
  8
CSLAYER1
  6
CONTINUOUS
 62
     5
 10
2878.849211
 20
161.094412
 11
2877.739155
 21
161.144869
  0
LINE
  8
CSLAYER1
  6
CONTINUOUS
 62
     5
 10
2877.739155
 20
161.144869
 11
2877.259813
 21
160.892584
  0
LINE
  8
CSLAYER1
  6
CONTINUOUS
 62
     5
 10
2877.259813
 20
160.892584
 11
2877.158899
 21
160.488927
  0
LINE
  8
CSLAYER1
  6
CONTINUOUS
 62
     5
 10
2877.158899
 20
160.488927
 11
2877.613012
 21
160.186184
  0
LINE
  8
CSLAYER1
  6
CONTINUOUS
 62
     5
 10
2877.613012
 20
160.186184
 11
2879.252868
 21
160.034813
  0
LINE
  8
CSLAYER1
  6
CONTINUOUS
 62
     5
 10
2879.252868
 20
160.034813
 11
2881.560490
 21
159.922793
  0
LINE
  8
CSLAYER1
  6
CONTINUOUS
 62
     5
 10
2922.560490
 20
153.990297
 11
2919.584948
 21
155.176879
  0
LINE
  8
CSLAYER1
  6
CONTINUOUS
 62
     5
 10
2919.584948
 20
155.176879
 11
2909.529258
 21
157.019754
  0
LINE
  8
CSLAYER1
  6
CONTINUOUS
 62
     5
 10
2909.529258
 20
157.019754
 11
2904.503478
 21
158.179549
  0
LINE
  8
CSLAYER1
  6
CONTINUOUS
 62
     5
 10
2882.094711
 20
160.490297
 11
2893.860377
 21
160.490297
  0
LINE
  8
CSLAYER1
  6
CONTINUOUS
 62
     5
 10
2880.560490
 20
160.457233
 11
2881.085150
 21
160.148766
  0
LINE
  8
CSLAYER1
  6
CONTINUOUS
 62
     5
 10
2881.085150
 20
160.148766
 11
2881.381962
 21
160.059723
  0
LINE
  8
CSLAYER1
  6
CONTINUOUS
 62
     5
 10
2881.381962
 20
160.059723
 11
2881.560490
 21
160.084893
  0
LINE
  8
CSLAYER1
  6
CONTINUOUS
 62
     5
 10
2881.560490
 20
160.084893
 11
2882.094711
 21
160.490297
  0
LINE
  8
CSLAYER1
  6
CONTINUOUS
 62
     5
 10
2893.860377
 20
160.490297
 11
2898.310646
 21
159.461471
  0
LINE
  8
CSLAYER1
  6
CONTINUOUS
 62
     5
 10
2898.310646
 20
159.461471
 11
2902.463838
 21
158.296323
  0
LINE
  8
CSLAYER1
  6
CONTINUOUS
 62
     5
 10
2902.463838
 20
158.296323
 11
2904.503478
 21
158.179549
  0
LINE
  8
CSLAYER1
  6
CONTINUOUS
 62
     5
 10
2858.060490
 20
158.490297
 11
2858.060490
 21
157.990297
  0
LINE
  8
CSLAYER1
  6
CONTINUOUS
 62
     5
 10
2855.560490
 20
157.990297
 11
2858.060490
 21
157.990297
  0
ARC
  8
CSLAYER1
  6
CONTINUOUS
 62
     5
 10
2859.060490
 20
158.490297
 40
1.000000
 50
90.000000
 51
180.000000
  0
LINE
  8
CSLAYER1
  6
CONTINUOUS
 62
     5
 10
2861.483529
 20
159.490297
 11
2862.181085
 21
158.918301
  0
LINE
  8
CSLAYER1
  6
CONTINUOUS
 62
     5
 10
2862.783453
 20
158.894340
 11
2863.641050
 21
159.490297
  0
LINE
  8
CSLAYER1
  6
CONTINUOUS
 62
     5
 10
2865.219446
 20
159.490297
 11
2866.886572
 21
158.832221
  0
LINE
  8
CSLAYER1
  6
CONTINUOUS
 62
     5
 10
2867.310281
 20
158.858733
 11
2868.463768
 21
159.490297
  0
LINE
  8
CSLAYER1
  6
CONTINUOUS
 62
     5
 10
2863.641050
 20
159.490297
 11
2865.219446
 21
159.490297
  0
LINE
  8
CSLAYER1
  6
CONTINUOUS
 62
     5
 10
2868.463768
 20
159.490297
 11
2881.560490
 21
159.490297
  0
LINE
  8
CSLAYER1
  6
CONTINUOUS
 62
     5
 10
2834.109474
 20
156.381471
 11
2855.560490
 21
157.990297
  0
LINE
  8
CSLAYER1
  6
CONTINUOUS
 62
     5
 10
2830.108123
 20
156.467521
 11
2834.109474
 21
156.381471
  0
ARC
  8
CSLAYER1
  6
CONTINUOUS
 62
     5
 10
2862.498125
 20
159.304934
 40
0.500000
 50
230.648247
 51
304.796026
  0
ARC
  8
CSLAYER1
  6
CONTINUOUS
 62
     5
 10
2867.070155
 20
159.297299
 40
0.500000
 50
248.459024
 51
298.701829
  0
ARC
  8
CSLAYER1
  6
CONTINUOUS
 62
     5
 10
2822.315878
 20
166.005408
 40
0.300000
 50
-84.093859
 51
36.869898
  0
ARC
  8
CSLAYER1
  6
CONTINUOUS
 62
     5
 10
2821.850274
 20
167.936680
 40
0.700000
 50
85.301319
 51
194.142980
  0
LINE
  8
CSLAYER1
  6
CONTINUOUS
 62
     3
 10
2854.042315
 20
150.723453
 11
2862.152810
 21
150.723453
  0
LINE
  8
CSLAYER1
  6
CONTINUOUS
 62
     3
 10
2847.629799
 20
149.123453
 11
2865.273139
 21
149.123453
  0
LINE
  8
CSLAYER1
  6
CONTINUOUS
 62
     3
 10
2844.216860
 20
147.523453
 11
2868.148504
 21
147.523453
  0
LINE
  8
CSLAYER1
  6
CONTINUOUS
 62
     3
 10
2841.981540
 20
145.923453
 11
2869.991977
 21
145.923453
  0
LINE
  8
CSLAYER1
  6
CONTINUOUS
 62
     3
 10
2840.485884
 20
144.323453
 11
2871.226262
 21
144.323453
  0
LINE
  8
CSLAYER1
  6
CONTINUOUS
 62
     3
 10
2839.265570
 20
142.723453
 11
2872.275639
 21
142.723453
  0
LINE
  8
CSLAYER1
  6
CONTINUOUS
 62
     3
 10
2838.573678
 20
141.123453
 11
2873.001514
 21
141.123453
  0
LINE
  8
CSLAYER1
  6
CONTINUOUS
 62
     3
 10
2837.881786
 20
139.523453
 11
2873.339900
 21
139.523453
  0
LINE
  8
CSLAYER1
  6
CONTINUOUS
 62
     3
 10
2837.233436
 20
137.923453
 11
2873.678286
 21
137.923453
  0
LINE
  8
CSLAYER1
  6
CONTINUOUS
 62
     3
 10
2836.911777
 20
136.323453
 11
2874.016672
 21
136.323453
  0
LINE
  8
CSLAYER1
  6
CONTINUOUS
 62
     3
 10
2836.590118
 20
134.723453
 11
2852.180361
 21
134.723453
  0
LINE
  8
CSLAYER1
  6
CONTINUOUS
 62
     3
 10
2836.268459
 20
133.123453
 11
2850.648100
 21
133.123453
  0
LINE
  8
CSLAYER1
  6
CONTINUOUS
 62
     3
 10
2835.946800
 20
131.523453
 11
2849.859930
 21
131.523453
  0
LINE
  8
CSLAYER1
  6
CONTINUOUS
 62
     3
 10
2835.705683
 20
129.923453
 11
2849.541163
 21
129.923453
  0
LINE
  8
CSLAYER1
  6
CONTINUOUS
 62
     3
 10
2835.585512
 20
128.323453
 11
2849.591184
 21
128.323453
  0
LINE
  8
CSLAYER1
  6
CONTINUOUS
 62
     3
 10
2835.560490
 20
126.723453
 11
2850.137271
 21
126.723453
  0
LINE
  8
CSLAYER1
  6
CONTINUOUS
 62
     3
 10
2836.059678
 20
125.123453
 11
2852.167273
 21
125.123453
  0
LINE
  8
CSLAYER1
  6
CONTINUOUS
 62
     3
 10
2836.770790
 20
123.523453
 11
2869.298645
 21
123.523453
  0
LINE
  8
CSLAYER1
  6
CONTINUOUS
 62
     3
 10
2837.481901
 20
121.923453
 11
2868.847363
 21
121.923453
  0
LINE
  8
CSLAYER1
  6
CONTINUOUS
 62
     3
 10
2838.193012
 20
120.323453
 11
2868.124339
 21
120.323453
  0
LINE
  8
CSLAYER1
  6
CONTINUOUS
 62
     3
 10
2839.154971
 20
118.723453
 11
2867.226152
 21
118.723453
  0
LINE
  8
CSLAYER1
  6
CONTINUOUS
 62
     3
 10
2840.403432
 20
117.123453
 11
2865.721226
 21
117.123453
  0
LINE
  8
CSLAYER1
  6
CONTINUOUS
 62
     3
 10
2842.008852
 20
115.523453
 11
2863.328765
 21
115.523453
  0
LINE
  8
CSLAYER1
  6
CONTINUOUS
 62
     3
 10
2844.155994
 20
113.923453
 11
2860.203642
 21
113.923453
  0
LINE
  8
CSLAYER1
  6
CONTINUOUS
 62
     3
 10
2847.403684
 20
112.323453
 11
2855.565493
 21
112.323453
  0
LINE
  8
CSLAYER1
  6
CONTINUOUS
 62
     3
 10
2857.372185
 20
134.723453
 11
2874.191922
 21
134.723453
  0
LINE
  8
CSLAYER1
  6
CONTINUOUS
 62
     3
 10
2858.042929
 20
133.123453
 11
2874.066152
 21
133.123453
  0
LINE
  8
CSLAYER1
  6
CONTINUOUS
 62
     3
 10
2858.154936
 20
131.523453
 11
2873.940383
 21
131.523453
  0
LINE
  8
CSLAYER1
  6
CONTINUOUS
 62
     3
 10
2857.909579
 20
129.923453
 11
2873.226527
 21
129.923453
  0
LINE
  8
CSLAYER1
  6
CONTINUOUS
 62
     3
 10
2857.257933
 20
128.323453
 11
2872.505327
 21
128.323453
  0
LINE
  8
CSLAYER1
  6
CONTINUOUS
 62
     3
 10
2856.124670
 20
126.723453
 11
2871.571379
 21
126.723453
  0
LINE
  8
CSLAYER1
  6
CONTINUOUS
 62
     3
 10
2853.868673
 20
125.123453
 11
2870.300672
 21
125.123453
  0
TEXT
  8
CSLAYER1
 62
     5
 10
2874.732450
 20
132.734630
 40
4.713448
 41
1.951056
  1
M
 50
0.000000
 51
0.000000
  7
EASYDRAW_FONT
 72
     5
 11
2880.863253
 21
132.734630
  0
TEXT
  8
CSLAYER1
 62
     5
 10
2884.383838
 20
132.676359
 40
4.626621
 41
0.778201
  1
T
 50
0.000000
 51
0.000000
  7
EASYDRAW_FONT
 72
     5
 11
2886.784131
 21
132.676359
  0
TEXT
  8
CSLAYER1
 62
     5
 10
2887.149400
 20
132.711159
 40
4.696183
 41
1.055553
  1
E
 50
0.000000
 51
0.000000
  7
EASYDRAW_FONT
 72
     5
 11
2890.454115
 21
132.711159
  0
TEXT
  8
CSLAYER1
 62
     5
 10
2890.265581
 20
134.327003
 40
0.348283
 41
9.375319
  1
-
 50
0.000000
 51
0.000000
  7
EASYDRAW_FONT
 72
     5
 11
2892.442426
 21
134.327003
  0
TEXT
  8
CSLAYER1
 62
     5
 10
2892.079791
 20
132.679812
 40
4.861659
 41
1.298502
  1
H
 50
0.000000
 51
0.000000
  7
EASYDRAW_FONT
 72
     5
 11
2896.288373
 21
132.679812
  0
TEXT
  8
CSLAYER1
 62
     5
 10
2896.155806
 20
132.710190
 40
4.843139
 41
1.269236
  1
A
 50
0.000000
 51
0.000000
  7
EASYDRAW_FONT
 72
     5
 11
2900.253862
 21
132.710190
  0
TEXT
  8
CSLAYER1
 62
     5
 10
2899.861962
 20
132.668664
 40
4.825362
 41
1.490144
  1
N
 50
0.000000
 51
0.000000
  7
EASYDRAW_FONT
 72
     5
 11
2904.655616
 21
132.668664
  0
TEXT
  8
CSLAYER1
 62
     5
 10
2880.653419
 20
132.646091
 40
4.982325
 41
1.177443
  1
A
 50
0.000000
 51
0.000000
  7
EASYDRAW_FONT
 72
     5
 11
2884.564354
 21
132.646091
  0
TEXT
  8
CSLAYER1
 62
     5
 10
2875.099464
 20
125.650851
 40
4.982325
 41
1.177443
  1
A
 50
0.000000
 51
0.000000
  7
EASYDRAW_FONT
 72
     5
 11
2879.010399
 21
125.650851
  0
TEXT
  8
CSLAYER1
 62
     5
 10
2887.883888
 20
125.679172
 40
4.982325
 41
1.177443
  1
A
 50
0.000000
 51
0.000000
  7
EASYDRAW_FONT
 72
     5
 11
2891.794823
 21
125.679172
  0
TEXT
  8
CSLAYER1
 62
     5
 10
2891.644433
 20
125.736169
 40
4.825362
 41
1.490144
  1
N
 50
0.000000
 51
0.000000
  7
EASYDRAW_FONT
 72
     5
 11
2896.438087
 21
125.736169
  0
TEXT
  8
CSLAYER1
 62
     5
 10
2900.546769
 20
125.744563
 40
4.841775
 41
1.184218
  1
E
 50
0.000000
 51
0.000000
  7
EASYDRAW_FONT
 72
     5
 11
2904.369247
 21
125.744563
  0
TEXT
  8
CSLAYER1
 62
     5
 10
2879.380018
 20
125.649527
 40
4.947865
 41
1.093992
  1
D
 50
0.000000
 51
0.000000
  7
EASYDRAW_FONT
 72
     5
 11
2882.988634
 21
125.649527
  0
TEXT
  8
CSLAYER1
 62
     5
 10
2883.782376
 20
125.644142
 40
4.924210
 41
1.228195
  1
V
 50
0.000000
 51
0.000000
  7
EASYDRAW_FONT
 72
     5
 11
2887.814303
 21
125.644142
  0
TEXT
  8
CSLAYER1
 62
     5
 10
2896.007577
 20
125.664873
 40
5.032894
 41
1.481023
  1
C
 50
0.000000
 51
0.000000
  7
EASYDRAW_FONT
 72
     5
 11
2900.976798
 21
125.664873
  0
LINE
  8
CSLAYER1
  6
CONTINUOUS
 62
     5
 10
2886.637827
 20
136.725269
 11
2885.625765
 21
136.725269
  0
LINE
  8
CSLAYER1
  6
CONTINUOUS
 62
     3
 10
2835.736065
 20
170.950540
 11
2885.533892
 21
170.950540
  0
LINE
  8
CSLAYER1
  6
CONTINUOUS
 62
     3
 10
2828.623701
 20
169.350540
 11
2896.613583
 21
169.350540
  0
LINE
  8
CSLAYER1
  6
CONTINUOUS
 62
     3
 10
2821.175297
 20
167.750540
 11
2866.598607
 21
167.750540
  0
LINE
  8
CSLAYER1
  6
CONTINUOUS
 62
     3
 10
2879.560157
 20
167.750540
 11
2889.146760
 21
167.750540
  0
LINE
  8
CSLAYER1
  6
CONTINUOUS
 62
     3
 10
2893.455894
 20
167.750540
 11
2901.968891
 21
167.750540
  0
LINE
  8
CSLAYER1
  6
CONTINUOUS
 62
     3
 10
2822.578436
 20
166.150540
 11
2879.284905
 21
166.150540
  0
LINE
  8
CSLAYER1
  6
CONTINUOUS
 62
     3
 10
2899.465044
 20
166.150540
 11
2905.571289
 21
166.150540
  0
LINE
  8
CSLAYER1
  6
CONTINUOUS
 62
     3
 10
2820.666102
 20
164.550540
 11
2893.420453
 21
164.550540
  0
LINE
  8
CSLAYER1
  6
CONTINUOUS
 62
     3
 10
2905.366342
 20
164.550540
 11
2907.600064
 21
164.550540
  0
LINE
  8
CSLAYER1
  6
CONTINUOUS
 62
     3
 10
2819.603877
 20
162.950540
 11
2901.132309
 21
162.950540
  0
LINE
  8
CSLAYER1
  6
CONTINUOUS
 62
     3
 10
2821.279544
 20
161.350540
 11
2905.941618
 21
161.350540
  0
LINE
  8
CSLAYER1
  6
CONTINUOUS
 62
     3
 10
2822.447111
 20
159.750540
 11
2881.560490
 21
159.750540
  0
LINE
  8
CSLAYER1
  6
CONTINUOUS
 62
     3
 10
2897.060255
 20
159.750540
 11
2912.064579
 21
159.750540
  0
LINE
  8
CSLAYER1
  6
CONTINUOUS
 62
     3
 10
2822.692235
 20
158.150540
 11
2858.060490
 21
158.150540
  0
LINE
  8
CSLAYER1
  6
CONTINUOUS
 62
     3
 10
2904.629184
 20
158.150540
 11
2914.151787
 21
158.150540
  0
LINE
  8
CSLAYER1
  6
CONTINUOUS
 62
     3
 10
2822.898560
 20
156.550540
 11
2836.363734
 21
156.550540
  0
LINE
  8
CSLAYER1
  6
CONTINUOUS
 62
     3
 10
2912.089533
 20
156.550540
 11
2918.574551
 21
156.550540
  0
LINE
  8
CSLAYER1
  6
CONTINUOUS
 62
     3
 10
2920.152527
 20
154.950540
 11
2922.321381
 21
154.950540
  0
ENDBLK
  8
0
  0
ENDSEC
  0
SECTION
  2
ENTITIES
  0
LINE
  8
CSLAYER1
  6
CONTINUOUS
 62
     3
 10
190.675885
 20
2453.711776
 11
190.675885
 21
105.164846
  0
LINE
  8
CSLAYER1
  6
CONTINUOUS
 62
     3
 10
3513.249195
 20
2453.711776
 11
190.675885
 21
2453.711776
  0
LINE
  8
CSLAYER1
  6
CONTINUOUS
 62
     3
 10
3513.249195
 20
2453.711776
 11
3513.249195
 21
105.164846
  0
LINE
  8
CSLAYER1
  6
CONTINUOUS
 62
     3
 10
3513.249195
 20
105.164846
 11
190.675885
 21
105.164846
  0
LINE
  8
CSLAYER1
  6
CONTINUOUS
 62
     5
 10
140.675885
 20
1265.164846
 11
90.675885
 21
1265.164846
  0
TEXT
  8
CSLAYER1
 62
     5
 10
3033.179411
 20
824.409962
 40
31.844261
 41
0.920655
  1
Ｆ.Ｌ
 50
0.000000
 51
0.000000
  7
EASYDRAW_FONT
 72
     5
 11
3111.359652
 21
824.409962
  0
LINE
  8
CSLAYER1
  6
CENTER
 62
     5
 10
1403.421328
 20
1998.509249
 11
2313.557031
 21
1998.509249
  0
LINE
  8
CSLAYER1
  6
DASHED
 62
     5
 10
1446.121328
 20
2098.509249
 11
2273.557031
 21
2098.509249
  0
LINE
  8
CSLAYER1
  6
CONTINUOUS
 62
     4
 10
1446.121328
 20
2148.509249
 11
1446.121328
 21
1848.509249
  0
LINE
  8
CSLAYER1
  6
CONTINUOUS
 62
     4
 10
2273.557031
 20
2148.509249
 11
2273.557031
 21
1848.509249
  0
LINE
  8
CSLAYER1
  6
CONTINUOUS
 62
     3
 10
1443.421328
 20
2024.359249
 11
1443.421328
 21
1858.509249
  0
LINE
  8
CSLAYER1
  6
DASHED
 62
     5
 10
1493.421328
 20
2138.509249
 11
1493.421328
 21
2098.509249
  0
LINE
  8
CSLAYER1
  6
CONTINUOUS
 62
     3
 10
1453.421328
 20
2148.509249
 11
1483.421328
 21
2148.509249
  0
ARC
  8
CSLAYER1
  6
CONTINUOUS
 62
     5
 10
1453.421328
 20
2138.509249
 40
10.000000
 50
90.000000
 51
136.886394
  0
ARC
  8
CSLAYER1
  6
CONTINUOUS
 62
     5
 10
1483.421328
 20
2138.509249
 40
10.000000
 50
0.000000
 51
90.000000
  0
LINE
  8
CSLAYER1
  6
CENTER
 62
     5
 10
1468.421328
 20
2112.246448
 11
1468.421328
 21
2134.772051
  0
LINE
  8
CSLAYER1
  6
CENTER
 62
     5
 10
1457.158526
 20
2123.509249
 11
1479.684129
 21
2123.509249
  0
ARC
  8
CSLAYER1
  6
CONTINUOUS
 62
     5
 10
1468.421328
 20
2123.509249
 40
6.500000
 50
151.415765
 51
209.332676
  0
LINE
  8
CSLAYER1
  6
CENTER
 62
     5
 10
1218.725168
 20
2028.509249
 11
1446.121328
 21
2028.509249
  0
LINE
  8
CSLAYER1
  6
CONTINUOUS
 62
     3
 10
1443.421328
 20
2073.009249
 11
1446.121328
 21
2073.009249
  0
LINE
  8
CSLAYER1
  6
CONTINUOUS
 62
     3
 10
1218.725168
 20
2032.659249
 11
1446.121328
 21
2032.659249
  0
LINE
  8
CSLAYER1
  6
CONTINUOUS
 62
     3
 10
1218.725168
 20
2024.359249
 11
1446.121328
 21
2024.359249
  0
LINE
  8
CSLAYER1
  6
CONTINUOUS
 62
     3
 10
1443.421328
 20
2032.659249
 11
1443.421328
 21
2138.509249
  0
DIMENSION
  8
CSLAYER1
 62
     3
  2
*D0000
 10
1358.167267
 20
2123.509249
 11
1351.081665
 21
1959.620850
 13
1457.158526
 23
1873.509249
 14
1457.158526
 24
2123.509249
 50
90.000000
 70
1
  0
INSERT
  8
CSLAYER1
  2
EASYDRAWDIM0000
 10
0.0
 20
0.0
 30
0.0
  0
INSERT
  8
CSLAYER1
  2
EASYDRAWDIM0001
 10
0.0
 20
0.0
 30
0.0
  0
LINE
  8
CSLAYER1
  6
CENTER
 62
     5
 10
1468.421328
 20
858.666731
 11
1468.421328
 21
829.889917
  0
POINT
  8
CSLAYER1
 62
     4
 10
1468.421328
 20
843.802692
  0
LINE
  8
CSLAYER1
  6
CONTINUOUS
 62
     3
 10
1443.421328
 20
864.802692
 11
1443.421328
 21
820.802692
  0
LINE
  8
CSLAYER1
  6
CONTINUOUS
 62
     5
 10
483.366231
 20
820.802692
 11
725.599857
 21
820.802692
  0
LINE
  8
CSLAYER1
  6
CONTINUOUS
 62
     3
 10
1493.421328
 20
864.802692
 11
1493.421328
 21
820.802692
  0
LINE
  8
CSLAYER1
  6
CONTINUOUS
 62
     3
 10
1443.421328
 20
826.802692
 11
1493.421328
 21
826.802692
  0
LINE
  8
CSLAYER1
  6
CONTINUOUS
 62
     3
 10
1487.421328
 20
864.802692
 11
1487.421328
 21
826.802692
  0
CIRCLE
  8
CSLAYER1
  6
CONTINUOUS
 62
     3
 10
1468.421328
 20
843.802692
 40
8.650000
  0
CIRCLE
  8
CSLAYER1
  6
CONTINUOUS
 62
     3
 10
1468.421328
 20
843.802692
 40
5.000000
  0
CIRCLE
  8
CSLAYER1
  6
CONTINUOUS
 62
     3
 10
1468.421328
 20
843.802692
 40
9.500000
  0
LINE
  8
CSLAYER1
  6
CONTINUOUS
 62
     3
 10
1477.921328
 20
849.287519
 11
1468.421328
 21
854.772347
  0
LINE
  8
CSLAYER1
  6
CONTINUOUS
 62
     3
 10
1468.421328
 20
854.772347
 11
1458.921328
 21
849.287519
  0
LINE
  8
CSLAYER1
  6
CONTINUOUS
 62
     3
 10
1458.921328
 20
849.287519
 11
1458.921328
 21
838.317864
  0
LINE
  8
CSLAYER1
  6
CONTINUOUS
 62
     3
 10
1458.921328
 20
838.317864
 11
1468.421328
 21
832.833037
  0
LINE
  8
CSLAYER1
  6
CONTINUOUS
 62
     3
 10
1468.421328
 20
832.833037
 11
1477.921328
 21
838.317864
  0
LINE
  8
CSLAYER1
  6
CONTINUOUS
 62
     3
 10
1477.921328
 20
838.317864
 11
1477.921328
 21
849.287519
  0
POINT
  8
CSLAYER1
 62
     3
 10
1468.421328
 20
843.802692
  0
CIRCLE
  8
CSLAYER1
  6
CONTINUOUS
 62
     3
 10
1468.421328
 20
843.802692
 40
6.000000
  0
LINE
  8
CSLAYER1
  6
CONTINUOUS
 62
     3
 10
1443.421328
 20
864.802692
 11
2246.121328
 21
864.802692
  0
LINE
  8
CSLAYER1
  6
CONTINUOUS
 62
     3
 10
2246.121328
 20
864.802692
 11
2246.121328
 21
820.802692
  0
INSERT
  8
CSLAYER1
  2
BLKF0000
 10
0.0
 20
0.0
 30
0.0
  0
CIRCLE
  8
CSLAYER1
  6
CONTINUOUS
 62
     4
 10
1528.387658
 20
906.852586
 40
8.250000
  0
LINE
  8
CSLAYER1
  6
CONTINUOUS
 62
     4
 10
1618.146921
 20
1081.487276
 11
1624.100112
 21
1077.482480
  0
LINE
  8
CSLAYER1
  6
CONTINUOUS
 62
     4
 10
1584.543572
 20
1037.805873
 11
1584.841828
 21
1037.605232
  0
LINE
  8
CSLAYER1
  6
CONTINUOUS
 62
     4
 10
1584.272014
 20
1039.193770
 11
1603.249765
 21
1067.404494
  0
LINE
  8
CSLAYER1
  6
CONTINUOUS
 62
     4
 10
1603.249765
 20
1067.404494
 11
1618.146921
 21
1081.487276
  0
LINE
  8
CSLAYER1
  6
CONTINUOUS
 62
     4
 10
1584.272014
 20
1039.193770
 11
1584.543572
 21
1037.805873
  0
POINT
  8
CSLAYER1
 62
     4
 10
1528.387658
 20
906.852586
  0
CIRCLE
  8
CSLAYER1
  6
CONTINUOUS
 62
     4
 10
1725.477191
 20
1199.829251
 40
8.000000
  0
POINT
  8
CSLAYER1
 62
     4
 10
1725.477191
 20
1199.829251
  0
LINE
  8
CSLAYER1
  6
CONTINUOUS
 62
     4
 10
1622.295557
 20
1078.696430
 11
1671.290573
 21
1151.528285
  0
LINE
  8
CSLAYER1
  6
CENTER
 62
     5
 10
1528.387658
 20
906.852586
 11
1733.068292
 21
1211.113540
  0
CIRCLE
  8
CSLAYER1
  6
CONTINUOUS
 62
     7
 10
1731.504319
 20
1111.033565
 40
10.000000
  0
CIRCLE
  8
CSLAYER1
  6
CONTINUOUS
 62
     7
 10
1725.477191
 20
1199.829251
 40
8.000000
  0
ARC
  8
CSLAYER1
  6
CONTINUOUS
 62
     7
 10
1684.145483
 20
1159.139081
 40
72.000000
 50
33.832141
 51
87.150680
  0
LINE
  8
CSLAYER1
  6
CONTINUOUS
 62
     7
 10
1672.062567
 20
1150.744119
 11
1535.259411
 21
1289.704174
  0
LINE
  8
CSLAYER1
  6
CONTINUOUS
 62
     7
 10
1770.280217
 20
1050.977927
 11
1751.617122
 21
1060.670135
  0
LINE
  8
CSLAYER1
  6
CONTINUOUS
 62
     7
 10
1672.062567
 20
1150.744119
 11
1680.196707
 21
1134.463518
  0
LINE
  8
CSLAYER1
  6
CONTINUOUS
 62
     7
 10
1731.504319
 20
1081.100045
 11
1751.617122
 21
1060.670135
  0
LINE
  8
CSLAYER1
  6
CONTINUOUS
 62
     7
 10
1770.280217
 20
1050.977927
 11
1953.565692
 21
864.802692
  0
POINT
  8
CSLAYER1
 62
     7
 10
1994.587310
 20
843.802692
  0
ARC
  8
CSLAYER1
  6
CONTINUOUS
 62
     7
 10
1994.587310
 20
843.802692
 40
18.500000
 50
65.556769
 51
120.003527
  0
POINT
  8
CSLAYER1
 62
     7
 10
1725.477191
 20
1199.829251
  0
POINT
  8
CSLAYER1
 62
     7
 10
1731.504319
 20
1111.033565
  0
LINE
  8
CSLAYER1
  6
CONTINUOUS
 62
     7
 10
1983.247115
 20
930.868184
 11
2003.352952
 21
864.802692
  0
LINE
  8
CSLAYER1
  6
CONTINUOUS
 62
     7
 10
1523.517343
 20
1397.846259
 11
1687.724569
 21
1231.050069
  0
LINE
  8
CSLAYER1
  6
CONTINUOUS
 62
     7
 10
1535.259411
 20
1289.704174
 11
1485.037535
 21
1394.307928
  0
LINE
  8
CSLAYER1
  6
CONTINUOUS
 62
     7
 10
1782.859367
 20
1134.415334
 11
1983.247115
 21
930.868184
  0
LINE
  8
CSLAYER1
  6
CONTINUOUS
 62
     4
 10
1958.305567
 20
1315.753359
 11
1978.204845
 21
1390.439336
  0
ARC
  8
CSLAYER1
  6
CONTINUOUS
 62
     4
 10
1967.151607
 20
1405.274293
 40
18.500000
 50
-187.141738
 51
7.141738
  0
ARC
  8
CSLAYER1
  6
CONTINUOUS
 62
     4
 10
1967.151607
 20
1405.274293
 40
6.000000
 50
-202.540310
 51
22.540310
  0
POINT
  8
CSLAYER1
 62
     4
 10
1731.504319
 20
1111.033565
  0
LINE
  8
CSLAYER1
  6
CONTINUOUS
 62
     4
 10
1948.758430
 20
1407.259504
 11
1479.761522
 21
930.868184
  0
LINE
  8
CSLAYER1
  6
CONTINUOUS
 62
     4
 10
1958.305567
 20
1315.753359
 11
1786.424679
 21
1141.162522
  0
LINE
  8
CSLAYER1
  6
CONTINUOUS
 62
     4
 10
1786.424679
 20
1141.162522
 11
1781.546980
 21
1131.931701
  0
LINE
  8
CSLAYER1
  6
CONTINUOUS
 62
     4
 10
1711.391515
 20
1060.670135
 11
1781.546980
 21
1131.931701
  0
LINE
  8
CSLAYER1
  6
CONTINUOUS
 62
     4
 10
1702.238122
 20
1055.648642
 11
1711.391515
 21
1060.670135
  0
LINE
  8
CSLAYER1
  6
CONTINUOUS
 62
     4
 10
1514.354429
 20
864.802692
 11
1702.238122
 21
1055.648642
  0
LINE
  8
CSLAYER1
  6
CONTINUOUS
 62
     4
 10
1479.761522
 20
930.868184
 11
1460.897897
 21
864.802692
  0
LINE
  8
CSLAYER1
  6
CONTINUOUS
 62
     7
 10
1528.252571
 20
878.919958
 11
1530.746725
 21
876.464516
  0
CIRCLE
  8
CSLAYER1
  6
CONTINUOUS
 62
     7
 10
1528.387658
 20
906.852586
 40
8.000000
  0
LINE
  8
CSLAYER1
  6
CONTINUOUS
 62
     7
 10
1550.379194
 20
897.831925
 11
1530.034110
 21
877.166071
  0
LINE
  8
CSLAYER1
  6
CONTINUOUS
 62
     7
 10
1539.612532
 20
918.254437
 11
1547.451305
 21
910.537336
  0
ARC
  8
CSLAYER1
  6
CONTINUOUS
 62
     7
 10
1528.387658
 20
906.852586
 40
16.000000
 50
45.448133
 51
88.880670
  0
ARC
  8
CSLAYER1
  6
CONTINUOUS
 62
     7
 10
1545.390885
 20
902.742808
 40
7.000000
 50
-44.551867
 51
5.442932
  0
POINT
  8
CSLAYER1
 62
     7
 10
1528.387658
 20
906.852586
  0
LINE
  8
CSLAYER1
  6
CONTINUOUS
 62
     7
 10
1530.746725
 20
876.464516
 11
1519.265912
 21
864.802692
  0
LINE
  8
CSLAYER1
  6
CONTINUOUS
 62
     4
 10
1603.249765
 20
1067.404494
 11
1609.824373
 21
1062.981663
  0
LINE
  8
CSLAYER1
  6
CENTER
 62
     5
 10
1994.587310
 20
865.431262
 11
1994.587310
 21
822.941681
  0
LINE
  8
CSLAYER1
  6
CENTER
 62
     5
 10
1971.223238
 20
843.802692
 11
2021.679614
 21
843.802692
  0
ARC
  8
CSLAYER1
  6
CONTINUOUS
 62
     7
 10
1994.587310
 20
843.802692
 40
18.500000
 50
158.503526
 51
207.162714
  0
ARC
  8
CSLAYER1
  6
CONTINUOUS
 62
     7
 10
1994.587310
 20
843.802692
 40
18.500000
 50
246.238191
 51
293.124953
  0
ARC
  8
CSLAYER1
  6
CONTINUOUS
 62
     7
 10
1994.587310
 20
843.802692
 40
18.500000
 50
-26.285980
 51
29.355347
  0
LINE
  8
CSLAYER1
  6
CENTER
 62
     5
 10
1713.144533
 20
1111.033565
 11
1750.271135
 21
1111.033565
  0
LINE
  8
CSLAYER1
  6
CENTER
 62
     5
 10
1712.158871
 20
1199.829251
 11
1739.428853
 21
1199.829251
  0
LINE
  8
CSLAYER1
  6
CENTER
 62
     5
 10
1725.477191
 20
1212.177792
 11
1725.477191
 21
1185.893473
  0
LINE
  8
CSLAYER1
  6
CENTER
 62
     5
 10
1731.504319
 20
1129.710739
 11
1731.504319
 21
1093.241246
  0
LINE
  8
CSLAYER1
  6
CENTER
 62
     5
 10
1967.151607
 20
1424.298948
 11
1967.151607
 21
1381.757488
  0
LINE
  8
CSLAYER1
  6
CENTER
 62
     5
 10
1495.857031
 20
1442.574293
 11
1495.857031
 21
1385.831084
  0
LINE
  8
CSLAYER1
  6
CENTER
 62
     5
 10
1451.792125
 20
843.802692
 11
1484.162411
 21
843.802692
  0
INSERT
  8
CSLAYER1
  2
BLKF0001
 10
0.0
 20
0.0
 30
0.0
  0
LINE
  8
CSLAYER1
  6
CENTER
 62
     5
 10
1468.421328
 20
885.802692
 11
1468.421328
 21
864.059483
  0
INSERT
  8
CSLAYER1
  2
BLKF0002
 10
0.0
 20
0.0
 30
0.0
  0
DIMENSION
  8
CSLAYER1
 62
     3
  2
*D0001
 10
2393.557031
 20
1442.574293
 11
2383.556885
 21
1181.688477
 13
2273.163957
 23
920.802692
 14
2273.163957
 24
1442.574293
 50
90.000000
 70
1
  0
DIMENSION
  8
CSLAYER1
 62
     3
  2
*D0002
 10
2483.557031
 20
820.802692
 11
2473.556885
 21
1131.688477
 13
2483.557031
 23
1442.574293
 14
2483.557031
 24
820.802692
 50
90.000000
 70
1
  0
DIMENSION
  8
CSLAYER1
 62
     3
  2
*D0003
 10
2273.557031
 20
1548.625490
 11
1873.557129
 21
1558.625122
 13
1473.557031
 23
1442.574293
 14
2273.557031
 24
1442.574293
 70
1
  0
DIMENSION
  8
CSLAYER1
 62
     3
  2
*D0004
 10
1473.557031
 20
1244.080323
 11
1364.015747
 21
1267.550781
 13
1446.121328
 23
920.802692
 14
1473.557031
 24
1407.574293
  0
INSERT
  8
CSLAYER1
  2
EASYDRAWDIM0002
 10
0.0
 20
0.0
 30
0.0
  0
INSERT
  8
CSLAYER1
  2
EASYDRAWDIM0003
 10
0.0
 20
0.0
 30
0.0
  0
LINE
  8
CSLAYER1
  6
CONTINUOUS
 62
     3
 10
1303.626672
 20
844.952692
 11
1443.421328
 21
844.952692
  0
LINE
  8
CSLAYER1
  6
CENTER
 62
     5
 10
1303.626672
 20
840.802692
 11
1443.421328
 21
840.802692
  0
LINE
  8
CSLAYER1
  6
CONTINUOUS
 62
     3
 10
1303.626672
 20
836.652692
 11
1443.421328
 21
836.652692
  0
LINE
  8
CSLAYER1
  6
CONTINUOUS
 62
     5
 10
1603.249765
 20
1067.404494
 11
1349.941938
 21
1167.341845
  0
LINE
  8
CSLAYER1
  6
CONTINUOUS
 62
     5
 10
1603.249765
 20
1067.404494
 11
1573.444433
 21
1070.816553
  0
LINE
  8
CSLAYER1
  6
CONTINUOUS
 62
     5
 10
1603.249765
 20
1067.404494
 11
1579.143620
 21
1085.262090
  0
DIMENSION
  8
CSLAYER1
 62
     3
  2
*D0005
 10
2246.121328
 20
610.802692
 11
1844.771362
 21
620.802795
 13
1443.421328
 23
820.802692
 14
2246.121328
 24
820.802692
 52
270.000000
 70
1
  0
INSERT
  8
CSLAYER1
  2
BLKF0003
 10
0.0
 20
0.0
 30
0.0
  0
LINE
  8
CSLAYER1
  6
CENTER
 62
     5
 10
2813.658002
 20
780.802692
 11
2813.658002
 21
960.802692
  0
LINE
  8
CSLAYER1
  6
CENTER
 62
     5
 10
2938.658002
 20
811.873331
 11
2938.658002
 21
836.083292
  0
LINE
  8
CSLAYER1
  6
CENTER
 62
     5
 10
2688.658002
 20
811.873331
 11
2688.658002
 21
836.083292
  0
LINE
  8
CSLAYER1
  6
CENTER
 62
     5
 10
2739.158002
 20
883.502692
 11
2888.158002
 21
883.502692
  0
LINE
  8
CSLAYER1
  6
CONTINUOUS
 62
     3
 10
2713.658002
 20
864.802692
 11
2713.658002
 21
820.802692
  0
LINE
  8
CSLAYER1
  6
CONTINUOUS
 62
     3
 10
2913.658002
 20
864.802692
 11
2913.658002
 21
820.802692
  0
LINE
  8
CSLAYER1
  6
CONTINUOUS
 62
     3
 10
2963.658002
 20
820.802692
 11
2963.658002
 21
826.802692
  0
LINE
  8
CSLAYER1
  6
CONTINUOUS
 62
     3
 10
2963.658002
 20
826.802692
 11
2913.658002
 21
826.802692
  0
LINE
  8
CSLAYER1
  6
CONTINUOUS
 62
     3
 10
2663.658002
 20
820.802692
 11
2663.658002
 21
826.802692
  0
LINE
  8
CSLAYER1
  6
CONTINUOUS
 62
     3
 10
2663.658002
 20
826.802692
 11
2713.658002
 21
826.802692
  0
LINE
  8
CSLAYER1
  6
CONTINUOUS
 62
     3
 10
2963.658002
 20
920.802692
 11
2663.658002
 21
920.802692
  0
LINE
  8
CSLAYER1
  6
CONTINUOUS
 62
     3
 10
2859.658002
 20
864.802692
 11
2859.658002
 21
888.502692
  0
LINE
  8
CSLAYER1
  6
CONTINUOUS
 62
     3
 10
2868.658002
 20
864.802692
 11
2868.658002
 21
888.502692
  0
LINE
  8
CSLAYER1
  6
CONTINUOUS
 62
     3
 10
2871.658002
 20
864.802692
 11
2871.658002
 21
888.502692
  0
LINE
  8
CSLAYER1
  6
CONTINUOUS
 62
     3
 10
2880.658002
 20
864.802692
 11
2880.658002
 21
888.502692
  0
LINE
  8
CSLAYER1
  6
CONTINUOUS
 62
     3
 10
2963.658002
 20
888.502692
 11
2663.658002
 21
888.502692
  0
LINE
  8
CSLAYER1
  6
CONTINUOUS
 62
     3
 10
2888.158002
 20
888.502692
 11
2888.158002
 21
874.502692
  0
ARC
  8
CSLAYER1
  6
CONTINUOUS
 62
     3
 10
2874.362258
 20
883.502692
 40
13.795744
 50
-23.426598
 51
21.249544
  0
LINE
  8
CSLAYER1
  6
CONTINUOUS
 62
     3
 10
2880.658002
 20
878.017864
 11
2887.020821
 21
878.017864
  0
LINE
  8
CSLAYER1
  6
CONTINUOUS
 62
     3
 10
2880.658002
 20
872.533037
 11
2887.020821
 21
872.533037
  0
LINE
  8
CSLAYER1
  6
CONTINUOUS
 62
     3
 10
2888.158002
 20
874.502692
 11
2887.020821
 21
872.533037
  0
ARC
  8
CSLAYER1
  6
CONTINUOUS
 62
     3
 10
2884.377958
 20
875.275450
 40
3.808617
 50
5.661633
 51
46.059028
  0
LINE
  8
CSLAYER1
  6
CONTINUOUS
 62
     3
 10
2851.658002
 20
888.502692
 11
2851.658002
 21
864.802692
  0
LINE
  8
CSLAYER1
  6
CONTINUOUS
 62
     3
 10
2796.658002
 20
864.802692
 11
2796.658002
 21
888.502692
  0
LINE
  8
CSLAYER1
  6
CENTER
 62
     5
 10
2784.158002
 20
864.802692
 11
2784.158002
 21
888.502692
  0
LINE
  8
CSLAYER1
  6
CONTINUOUS
 62
     3
 10
2739.158002
 20
888.502692
 11
2739.158002
 21
874.502692
  0
ARC
  8
CSLAYER1
  6
CONTINUOUS
 62
     3
 10
2752.953746
 20
883.502692
 40
13.795744
 50
158.750456
 51
203.426598
  0
LINE
  8
CSLAYER1
  6
CONTINUOUS
 62
     3
 10
2746.658002
 20
878.017864
 11
2740.295183
 21
878.017864
  0
LINE
  8
CSLAYER1
  6
CONTINUOUS
 62
     3
 10
2746.658002
 20
872.533037
 11
2740.295183
 21
872.533037
  0
LINE
  8
CSLAYER1
  6
CONTINUOUS
 62
     3
 10
2739.158002
 20
874.502692
 11
2740.295183
 21
872.533037
  0
ARC
  8
CSLAYER1
  6
CONTINUOUS
 62
     3
 10
2742.938047
 20
875.275450
 40
3.808617
 50
133.940972
 51
174.338367
  0
LINE
  8
CSLAYER1
  6
CONTINUOUS
 62
     3
 10
2767.658002
 20
864.802692
 11
2767.658002
 21
888.502692
  0
LINE
  8
CSLAYER1
  6
CONTINUOUS
 62
     3
 10
2758.658002
 20
864.802692
 11
2758.658002
 21
888.502692
  0
LINE
  8
CSLAYER1
  6
CONTINUOUS
 62
     3
 10
2755.658002
 20
864.802692
 11
2755.658002
 21
888.502692
  0
LINE
  8
CSLAYER1
  6
CONTINUOUS
 62
     3
 10
2746.658002
 20
864.802692
 11
2746.658002
 21
888.502692
  0
LINE
  8
CSLAYER1
  6
CONTINUOUS
 62
     3
 10
2780.008002
 20
864.802692
 11
2780.008002
 21
888.502692
  0
LINE
  8
CSLAYER1
  6
CONTINUOUS
 62
     3
 10
2788.308002
 20
864.802692
 11
2788.308002
 21
888.502692
  0
LINE
  8
CSLAYER1
  6
CONTINUOUS
 62
     3
 10
2713.658002
 20
864.802692
 11
2913.658002
 21
864.802692
  0
DIMENSION
  8
CSLAYER1
 62
     3
  2
*D0007
 10
2573.557031
 20
920.802692
 11
2563.557129
 21
870.802551
 13
2673.658002
 23
820.802692
 14
2673.658002
 24
920.802692
 50
90.000000
 70
1
  0
TEXT
  8
CSLAYER1
 62
     7
 10
2765.555664
 20
985.493347
 40
40.000000
 41
0.843750
  1
下降時
 50
0.000000
 51
0.000000
  7
EASYDRAW_FONT
 72
     5
 11
2855.555664
 21
985.493347
  0
LINE
  8
CSLAYER1
  6
CONTINUOUS
 62
     5
 10
2751.949420
 20
1031.923660
 11
2874.907430
 21
1031.923660
  0
LINE
  8
CSLAYER1
  6
CONTINUOUS
 62
     5
 10
2874.907430
 20
1031.923660
 11
2874.907430
 21
979.063207
  0
LINE
  8
CSLAYER1
  6
CONTINUOUS
 62
     5
 10
2874.907430
 20
979.063207
 11
2751.949420
 21
979.063207
  0
LINE
  8
CSLAYER1
  6
CONTINUOUS
 62
     5
 10
2751.949420
 20
979.063207
 11
2751.949420
 21
1031.923660
  0
LINE
  8
CSLAYER1
  6
CONTINUOUS
 62
     4
 10
1446.121328
 20
2148.509249
 11
2273.557031
 21
2148.509249
  0
ARC
  8
CSLAYER1
  6
CONTINUOUS
 62
     5
 10
1468.421328
 20
2123.509249
 40
6.500000
 50
67.030580
 51
115.547706
  0
ARC
  8
CSLAYER1
  6
CONTINUOUS
 62
     5
 10
1468.421328
 20
2123.509249
 40
6.500000
 50
-24.091742
 51
27.313840
  0
ARC
  8
CSLAYER1
  6
CONTINUOUS
 62
     5
 10
1468.421328
 20
2123.509249
 40
6.500000
 50
246.771340
 51
297.259733
  0
ARC
  8
CSLAYER1
  6
CONTINUOUS
 62
     3
 10
1453.421328
 20
2138.509249
 40
10.000000
 50
136.886394
 51
180.000000
  0
LINE
  8
CSLAYER1
  6
DASHED
 62
     5
 10
1446.121328
 20
1898.509249
 11
2273.557031
 21
1898.509249
  0
LINE
  8
CSLAYER1
  6
DASHED
 62
     5
 10
1493.421328
 20
1858.509249
 11
1493.421328
 21
1898.509249
  0
LINE
  8
CSLAYER1
  6
CONTINUOUS
 62
     3
 10
1453.421328
 20
1848.509249
 11
1483.421328
 21
1848.509249
  0
ARC
  8
CSLAYER1
  6
CONTINUOUS
 62
     5
 10
1453.421328
 20
1858.509249
 40
10.000000
 50
223.113606
 51
270.000000
  0
ARC
  8
CSLAYER1
  6
CONTINUOUS
 62
     5
 10
1483.421328
 20
1858.509249
 40
10.000000
 50
270.000000
 51
360.000000
  0
LINE
  8
CSLAYER1
  6
CENTER
 62
     5
 10
1468.421328
 20
1884.772051
 11
1468.421328
 21
1862.246448
  0
LINE
  8
CSLAYER1
  6
CENTER
 62
     5
 10
1457.158526
 20
1873.509249
 11
1479.684129
 21
1873.509249
  0
ARC
  8
CSLAYER1
  6
CONTINUOUS
 62
     5
 10
1468.421328
 20
1873.509249
 40
6.500000
 50
150.667324
 51
208.584235
  0
LINE
  8
CSLAYER1
  6
CONTINUOUS
 62
     3
 10
1443.421328
 20
1924.009249
 11
1446.121328
 21
1924.009249
  0
LINE
  8
CSLAYER1
  6
CONTINUOUS
 62
     4
 10
1446.121328
 20
1848.509249
 11
2273.557031
 21
1848.509249
  0
ARC
  8
CSLAYER1
  6
CONTINUOUS
 62
     5
 10
1468.421328
 20
1873.509249
 40
6.500000
 50
244.452294
 51
292.969420
  0
ARC
  8
CSLAYER1
  6
CONTINUOUS
 62
     5
 10
1468.421328
 20
1873.509249
 40
6.500000
 50
-27.313840
 51
24.091742
  0
ARC
  8
CSLAYER1
  6
CONTINUOUS
 62
     5
 10
1468.421328
 20
1873.509249
 40
6.500000
 50
62.740267
 51
113.228660
  0
ARC
  8
CSLAYER1
  6
CONTINUOUS
 62
     3
 10
1453.421328
 20
1858.509249
 40
10.000000
 50
180.000000
 51
223.113606
  0
DIMENSION
  8
CSLAYER1
 62
     3
  2
*D0008
 10
2393.557031
 20
2148.509249
 11
2383.557129
 21
1998.509033
 13
2273.557031
 23
1848.509249
 14
2273.557031
 24
2148.509249
 50
90.000000
 70
1
  0
LINE
  8
CSLAYER1
  6
CONTINUOUS
 62
     3
 10
725.599857
 20
1410.274293
 11
725.599857
 21
1442.574293
  0
LINE
  8
CSLAYER1
  6
CONTINUOUS
 62
     3
 10
1025.599857
 20
1410.274293
 11
1025.599857
 21
1442.574293
  0
LINE
  8
CSLAYER1
  6
CONTINUOUS
 62
     3
 10
2663.658002
 20
888.502692
 11
2663.658002
 21
920.802692
  0
LINE
  8
CSLAYER1
  6
CONTINUOUS
 62
     3
 10
2963.658002
 20
888.502692
 11
2963.658002
 21
920.802692
  0
TEXT
  8
CSLAYER1
 62
     7
 10
1456.050171
 20
2221.333008
 40
40.000000
 41
0.843750
  1
下降時
 50
0.000000
 51
0.000000
  7
EASYDRAW_FONT
 72
     5
 11
1546.050171
 21
2221.333008
  0
LINE
  8
CSLAYER1
  6
CONTINUOUS
 62
     5
 10
1442.443809
 20
2267.763403
 11
1565.401819
 21
2267.763403
  0
LINE
  8
CSLAYER1
  6
CONTINUOUS
 62
     5
 10
1565.401819
 20
2267.763403
 11
1565.401819
 21
2214.902950
  0
LINE
  8
CSLAYER1
  6
CONTINUOUS
 62
     5
 10
1565.401819
 20
2214.902950
 11
1442.443809
 21
2214.902950
  0
LINE
  8
CSLAYER1
  6
CONTINUOUS
 62
     5
 10
1442.443809
 20
2214.902950
 11
1442.443809
 21
2267.763403
  0
LINE
  8
CSLAYER1
  6
CONTINUOUS
 62
     5
 10
1468.421328
 20
807.676920
 11
1468.421328
 21
829.889917
  0
TEXT
  8
CSLAYER1
 62
     7
 10
1250.119507
 20
1321.262695
 40
40.000000
 41
0.787500
  1
テーブルのズレ
 50
0.000000
 51
0.000000
  7
EASYDRAW_FONT
 72
     5
 11
1460.119507
 21
1321.262695
  0
LINE
  8
CSLAYER1
  6
CONTINUOUS
 62
     5
 10
3489.249195
 20
2363.711776
 11
2609.249195
 21
2363.711776
  0
LINE
  8
CSLAYER1
  6
CONTINUOUS
 62
     5
 10
3489.249195
 20
2310.378443
 11
2609.249195
 21
2310.378443
  0
LINE
  8
CSLAYER1
  6
CONTINUOUS
 62
     5
 10
3489.249195
 20
2257.045110
 11
2609.249195
 21
2257.045110
  0
LINE
  8
CSLAYER1
  6
CONTINUOUS
 62
     5
 10
3489.249195
 20
2150.378443
 11
2609.249195
 21
2150.378443
  0
LINE
  8
CSLAYER1
  6
CONTINUOUS
 62
     5
 10
3489.249195
 20
2043.711776
 11
2609.249195
 21
2043.711776
  0
LINE
  8
CSLAYER1
  6
CONTINUOUS
 62
     5
 10
3489.249195
 20
1830.378443
 11
2609.249195
 21
1830.378443
  0
LINE
  8
CSLAYER1
  6
CONTINUOUS
 62
     5
 10
3489.249195
 20
1830.378440
 11
2609.249195
 21
1830.378440
  0
LINE
  8
CSLAYER1
  6
CONTINUOUS
 62
     5
 10
3489.249195
 20
1777.045106
 11
2609.249195
 21
1777.045106
  0
TEXT
  8
CSLAYER1
 62
     3
 10
2622.582275
 20
2370.378418
 40
40.000000
 41
0.838235
  1
仕    様
 50
0.000000
 51
0.000000
  7
EASYDRAW_FONT
 72
     5
 11
2812.582275
 21
2370.378418
  0
TEXT
  8
CSLAYER1
 62
     3
 10
2622.582275
 20
2317.045166
 40
40.000000
 41
0.838235
  1
型    式
 50
0.000000
 51
0.000000
  7
EASYDRAW_FONT
 72
     5
 11
2812.582275
 21
2317.045166
  0
TEXT
  8
CSLAYER1
 62
     3
 10
2987.582275
 20
2317.045166
 40
40.000000
 41
0.817105
  1
GLSH-350-3008
 50
0.000000
 51
0.000000
  7
EASYDRAW_FONT
 72
     5
 11
3401.582275
 21
2317.045166
  0
TEXT
  8
CSLAYER1
 62
     3
 10
2622.582275
 20
2263.711914
 40
40.000000
 41
0.859091
  1
均等荷重
 50
0.000000
 51
0.000000
  7
EASYDRAW_FONT
 72
     5
 11
2748.582275
 21
2263.711914
  0
TEXT
  8
CSLAYER1
 62
     3
 10
3413.915527
 20
2263.711914
 40
40.000000
 41
0.930000
  1
ｋｇ
 50
0.000000
 51
0.000000
  7
EASYDRAW_FONT
 72
     5
 11
3475.915527
 21
2263.711914
  0
TEXT
  8
CSLAYER1
 62
     3
 10
2622.582275
 20
2157.045166
 40
40.000000
 41
0.838235
  1
テーブル高サ
 50
0.000000
 51
0.000000
  7
EASYDRAW_FONT
 72
     5
 11
2812.582275
 21
2157.045166
  0
TEXT
  8
CSLAYER1
 62
     3
 10
3413.915527
 20
2157.045166
 40
40.000000
 41
0.930000
  1
ｍｍ
 50
0.000000
 51
0.000000
  7
EASYDRAW_FONT
 72
     5
 11
3475.915527
 21
2157.045166
  0
TEXT
  8
CSLAYER1
 62
     3
 10
2622.582275
 20
2050.378174
 40
40.000000
 41
0.838235
  1
全    長
 50
0.000000
 51
0.000000
  7
EASYDRAW_FONT
 72
     5
 11
2812.582275
 21
2050.378174
  0
TEXT
  8
CSLAYER1
 62
     3
 10
3147.582275
 20
2050.378174
 40
40.000000
 41
0.881250
  1
803
 50
0.000000
 51
0.000000
  7
EASYDRAW_FONT
 72
     5
 11
3241.582275
 21
2050.378174
  0
TEXT
  8
CSLAYER1
 62
     3
 10
3131.582275
 20
1837.044800
 40
40.000000
 41
0.859091
  1
約 40
 50
0.000000
 51
0.000000
  7
EASYDRAW_FONT
 72
     5
 11
3257.582275
 21
1837.044800
  0
TEXT
  8
CSLAYER1
 62
     3
 10
2622.582275
 20
1837.044800
 40
40.000000
 41
0.846429
  1
ポンプ回数
 50
0.000000
 51
0.000000
  7
EASYDRAW_FONT
 72
     5
 11
2780.582275
 21
1837.044800
  0
TEXT
  8
CSLAYER1
 62
     3
 10
2622.582275
 20
1783.711548
 40
40.000000
 41
0.832500
  1
自     重
 50
0.000000
 51
0.000000
  7
EASYDRAW_FONT
 72
     5
 11
2844.582275
 21
1783.711548
  0
TEXT
  8
CSLAYER1
 62
     3
 10
2622.582275
 20
1730.378296
 40
40.000000
 41
0.832500
  1
塗  装  色
 50
0.000000
 51
0.000000
  7
EASYDRAW_FONT
 72
     5
 11
2844.582275
 21
1730.378296
  0
TEXT
  8
CSLAYER1
 62
     3
 10
3147.582275
 20
2263.711914
 40
40.000000
 41
0.881250
  1
350
 50
0.000000
 51
0.000000
  7
EASYDRAW_FONT
 72
     5
 11
3241.582275
 21
2263.711914
  0
TEXT
  8
CSLAYER1
 62
     3
 10
3083.582275
 20
2157.045166
 40
40.000000
 41
0.832500
  1
100～600
 50
0.000000
 51
0.000000
  7
EASYDRAW_FONT
 72
     5
 11
3305.582275
 21
2157.045166
  0
TEXT
  8
CSLAYER1
 62
     3
 10
3413.915527
 20
2050.378174
 40
40.000000
 41
0.930000
  1
ｍｍ
 50
0.000000
 51
0.000000
  7
EASYDRAW_FONT
 72
     5
 11
3475.915527
 21
2050.378174
  0
LINE
  8
CSLAYER1
  6
CONTINUOUS
 62
     5
 10
3489.249195
 20
1990.378443
 11
2609.249195
 21
1990.378443
  0
TEXT
  8
CSLAYER1
 62
     3
 10
2622.582275
 20
1997.044800
 40
40.000000
 41
0.838235
  1
全    幅
 50
0.000000
 51
0.000000
  7
EASYDRAW_FONT
 72
     5
 11
2812.582275
 21
1997.044800
  0
TEXT
  8
CSLAYER1
 62
     3
 10
3147.582275
 20
1997.044800
 40
40.000000
 41
0.881250
  1
300
 50
0.000000
 51
0.000000
  7
EASYDRAW_FONT
 72
     5
 11
3241.582275
 21
1997.044800
  0
TEXT
  8
CSLAYER1
 62
     3
 10
3413.915527
 20
1997.044800
 40
40.000000
 41
0.930000
  1
ｍｍ
 50
0.000000
 51
0.000000
  7
EASYDRAW_FONT
 72
     5
 11
3475.915527
 21
1997.044800
  0
TEXT
  8
CSLAYER1
 62
     3
 10
3413.915527
 20
1783.711548
 40
40.000000
 41
0.930000
  1
ｋｇ
 50
0.000000
 51
0.000000
  7
EASYDRAW_FONT
 72
     5
 11
3475.915527
 21
1783.711548
  0
LINE
  8
CSLAYER1
  6
CONTINUOUS
 62
     5
 10
3489.249195
 20
2203.711776
 11
2609.249195
 21
2203.711776
  0
TEXT
  8
CSLAYER1
 62
     3
 10
2622.582275
 20
2210.378662
 40
40.000000
 41
0.838235
  1
テーブル寸法
 50
0.000000
 51
0.000000
  7
EASYDRAW_FONT
 72
     5
 11
2812.582275
 21
2210.378662
  0
TEXT
  8
CSLAYER1
 62
     3
 10
3413.915527
 20
2210.378662
 40
40.000000
 41
0.930000
  1
ｍｍ
 50
0.000000
 51
0.000000
  7
EASYDRAW_FONT
 72
     5
 11
3475.915527
 21
2210.378662
  0
TEXT
  8
CSLAYER1
 62
     3
 10
3051.582275
 20
2210.378662
 40
40.000000
 41
0.825000
  1
800L×300W
 50
0.000000
 51
0.000000
  7
EASYDRAW_FONT
 72
     5
 11
3337.582275
 21
2210.378662
  0
LINE
  8
CSLAYER1
  6
CONTINUOUS
 62
     5
 10
3489.249195
 20
2097.045110
 11
2609.249195
 21
2097.045110
  0
TEXT
  8
CSLAYER1
 62
     3
 10
3413.915527
 20
2103.711914
 40
40.000000
 41
0.930000
  1
ｍｍ
 50
0.000000
 51
0.000000
  7
EASYDRAW_FONT
 72
     5
 11
3475.915527
 21
2103.711914
  0
TEXT
  8
CSLAYER1
 62
     3
 10
3147.582275
 20
2103.711914
 40
40.000000
 41
0.881250
  1
500
 50
0.000000
 51
0.000000
  7
EASYDRAW_FONT
 72
     5
 11
3241.582275
 21
2103.711914
  0
TEXT
  8
CSLAYER1
 62
     3
 10
2624.414795
 20
2103.711914
 40
40.000000
 41
0.846429
  1
ストローク
 50
0.000000
 51
0.000000
  7
EASYDRAW_FONT
 72
     5
 11
2782.414795
 21
2103.711914
  0
LINE
  8
CSLAYER1
  6
CONTINUOUS
 62
     5
 10
3489.249195
 20
1937.045110
 11
2609.249195
 21
1937.045110
  0
TEXT
  8
CSLAYER1
 62
     3
 10
2622.582275
 20
1943.711548
 40
40.000000
 41
0.838235
  1
全    高
 50
0.000000
 51
0.000000
  7
EASYDRAW_FONT
 72
     5
 11
2812.582275
 21
1943.711548
  0
TEXT
  8
CSLAYER1
 62
     3
 10
3147.582275
 20
1943.711548
 40
40.000000
 41
0.881250
  1
100
 50
0.000000
 51
0.000000
  7
EASYDRAW_FONT
 72
     5
 11
3241.582275
 21
1943.711548
  0
TEXT
  8
CSLAYER1
 62
     3
 10
3413.915527
 20
1943.711548
 40
40.000000
 41
0.930000
  1
ｍｍ
 50
0.000000
 51
0.000000
  7
EASYDRAW_FONT
 72
     5
 11
3475.915527
 21
1943.711548
  0
LINE
  8
CSLAYER1
  6
CONTINUOUS
 62
     5
 10
3489.249195
 20
1883.711776
 11
2609.249195
 21
1883.711776
  0
TEXT
  8
CSLAYER1
 62
     3
 10
2622.582275
 20
1890.378174
 40
40.000000
 41
0.846429
  1
リフト方式
 50
0.000000
 51
0.000000
  7
EASYDRAW_FONT
 72
     5
 11
2780.582275
 21
1890.378174
  0
TEXT
  8
CSLAYER1
 62
     3
 10
3115.582275
 20
1890.378174
 40
40.000000
 41
0.846429
  1
足踏油圧式
 50
0.000000
 51
0.000000
  7
EASYDRAW_FONT
 72
     5
 11
3273.582275
 21
1890.378174
  0
LINE
  8
CSLAYER1
  6
CONTINUOUS
 62
     5
 10
2913.249195
 20
1723.711773
 11
2913.249195
 21
2363.711776
  0
TEXT
  8
CSLAYER1
 62
     3
 10
3445.915527
 20
1837.044922
 40
40.000000
 41
1.125000
  1
回
 50
0.000000
 51
0.000000
  7
EASYDRAW_FONT
 72
     5
 11
3475.915527
 21
1837.044922
  0
LINE
  8
CSLAYER2
  6
CONTINUOUS
 62
     5
 10
240.675885
 20
1699.602187
 11
240.675885
 21
2403.711776
  0
LINE
  8
CSLAYER2
  6
CONTINUOUS
 62
     5
 10
1041.970016
 20
2403.711776
 11
240.675885
 21
2403.711776
  0
TEXT
  8
CSLAYER1
 62
     7
 10
826.463440
 20
524.357544
 40
40.000000
 41
0.843750
  1
上昇時
 50
0.000000
 51
0.000000
  7
EASYDRAW_FONT
 72
     5
 11
916.463440
 21
524.357544
  0
LINE
  8
CSLAYER1
  6
CONTINUOUS
 62
     5
 10
812.856891
 20
570.787695
 11
935.814901
 21
570.787695
  0
LINE
  8
CSLAYER1
  6
CONTINUOUS
 62
     5
 10
935.814901
 20
570.787695
 11
935.814901
 21
517.927242
  0
LINE
  8
CSLAYER1
  6
CONTINUOUS
 62
     5
 10
935.814901
 20
517.927242
 11
812.856891
 21
517.927242
  0
LINE
  8
CSLAYER1
  6
CONTINUOUS
 62
     5
 10
812.856891
 20
517.927242
 11
812.856891
 21
570.787695
  0
DIMENSION
  8
CSLAYER1
 62
     3
  2
*D0009
 10
1025.599857
 20
610.802692
 11
875.599670
 21
618.802673
 13
725.599857
 23
822.802692
 14
1025.599857
 24
822.802692
 52
270.000000
 70
1
  0
DIMENSION
  8
CSLAYER1
 62
     3
  2
*D0010
 10
1000.599857
 20
700.802692
 11
875.599670
 21
708.802612
 13
750.599857
 23
822.802692
 14
1000.599857
 24
822.802692
 52
270.000000
 70
1
  0
INSERT
  8
CSLAYER1
  2
EASYDRAWDIM0004
 10
0.0
 20
0.0
 30
0.0
  0
DIMENSION
  8
CSLAYER1
 62
     3
  2
*D0011
 10
1468.421328
 20
700.802692
 11
1481.703979
 21
686.746948
 13
1443.421328
 23
820.802692
 14
1468.421328
 24
820.802692
 52
270.000000
 70
1
  0
DIMENSION
  8
CSLAYER1
 62
     3
  2
*D0012
 10
1025.599857
 20
1544.272362
 11
875.599915
 21
1554.272339
 13
725.599857
 23
1442.574293
 14
1025.599857
 24
1442.574293
 70
1
  0
INSERT
  8
CSLAYER1
  2
BLKF0004
 10
0.0
 20
0.0
 30
0.0
  0
INSERT
  8
CSLAYER1
  2
BLKF0005
 10
0.0
 20
0.0
 30
0.0
  0
LINE
  8
CSLAYER1
  6
CONTINUOUS
 62
     7
 10
669.822988
 20
1842.129565
 11
797.349284
 21
1984.150326
  0
LINE
  8
CSLAYER1
  6
CONTINUOUS
 62
     7
 10
446.647095
 20
1929.947585
 11
632.018867
 21
1998.986563
  0
LINE
  8
CSLAYER1
  6
CONTINUOUS
 62
     7
 10
451.712677
 20
1915.992851
 11
671.175334
 21
1997.728477
  0
LINE
  8
CSLAYER1
  6
CONTINUOUS
 62
     7
 10
658.216221
 20
1852.021454
 11
749.978106
 21
1954.212868
  0
LINE
  8
CSLAYER1
  6
CONTINUOUS
 62
     7
 10
780.493237
 20
2131.263848
 11
780.493237
 21
2025.867590
  0
LINE
  8
CSLAYER1
  6
CONTINUOUS
 62
     7
 10
780.493237
 20
2131.263848
 11
660.513283
 21
2174.932980
  0
LINE
  8
CSLAYER1
  6
CONTINUOUS
 62
     7
 10
751.998821
 20
1947.573156
 11
780.493237
 21
1965.378443
  0
LINE
  8
CSLAYER1
  6
CONTINUOUS
 62
     7
 10
751.998821
 20
2113.458560
 11
751.998821
 21
1947.573156
  0
LINE
  8
CSLAYER1
  6
CONTINUOUS
 62
     7
 10
751.998821
 20
2113.458560
 11
780.493237
 21
2131.263848
  0
LINE
  8
CSLAYER1
  6
CONTINUOUS
 62
     7
 10
660.907427
 20
2171.182943
 11
660.907427
 21
2136.356904
  0
LINE
  8
CSLAYER1
  6
CONTINUOUS
 62
     7
 10
632.018867
 20
2157.127692
 11
660.513283
 21
2174.932980
  0
LINE
  8
CSLAYER1
  6
CONTINUOUS
 62
     7
 10
751.998821
 20
1947.573156
 11
749.978106
 21
1948.308636
  0
LINE
  8
CSLAYER1
  6
CONTINUOUS
 62
     7
 10
749.978106
 20
1972.512203
 11
680.566807
 21
1997.775850
  0
LINE
  8
CSLAYER1
  6
CONTINUOUS
 62
     7
 10
776.648879
 20
2130.859789
 11
660.710355
 21
2173.057961
  0
LINE
  8
CSLAYER1
  6
CONTINUOUS
 62
     7
 10
709.841752
 20
2089.114063
 11
776.648879
 21
2130.859789
  0
LINE
  8
CSLAYER1
  6
CONTINUOUS
 62
     7
 10
751.998821
 20
2113.458560
 11
749.978106
 21
2114.194041
  0
LINE
  8
CSLAYER1
  6
CONTINUOUS
 62
     7
 10
749.978106
 20
2114.194041
 11
749.978106
 21
1972.512203
  0
LINE
  8
CSLAYER1
  6
CONTINUOUS
 62
     7
 10
632.018867
 20
2157.127692
 11
632.018867
 21
2155.129529
  0
LINE
  8
CSLAYER1
  6
CONTINUOUS
 62
     7
 10
632.018867
 20
2157.127692
 11
660.513283
 21
2174.932980
  0
LINE
  8
CSLAYER1
  6
CONTINUOUS
 62
     7
 10
634.039582
 20
2156.392212
 11
660.710355
 21
2173.057961
  0
LINE
  8
CSLAYER1
  6
CONTINUOUS
 62
     7
 10
634.039582
 20
2156.392212
 11
632.018867
 21
2157.127692
  0
LINE
  8
CSLAYER1
  6
CONTINUOUS
 62
     7
 10
634.039582
 20
1988.337258
 11
650.492788
 21
1998.618363
  0
LINE
  8
CSLAYER1
  6
CONTINUOUS
 62
     7
 10
707.821037
 20
2089.849543
 11
772.804521
 21
2130.455731
  0
LINE
  8
CSLAYER1
  6
CONTINUOUS
 62
     7
 10
706.241565
 20
2087.000102
 11
706.241565
 21
2019.914346
  0
LINE
  8
CSLAYER1
  6
CONTINUOUS
 62
     7
 10
708.262280
 20
2086.264622
 11
708.262280
 21
2020.268700
  0
LINE
  8
CSLAYER1
  6
CONTINUOUS
 62
     7
 10
772.804521
 20
2130.455731
 11
755.881033
 21
2136.615377
  0
LINE
  8
CSLAYER1
  6
CONTINUOUS
 62
     7
 10
706.241565
 20
2088.320221
 11
597.193913
 21
2128.010320
  0
LINE
  8
CSLAYER1
  6
CONTINUOUS
 62
     7
 10
706.241565
 20
2021.120221
 11
672.761352
 21
2033.306022
  0
LINE
  8
CSLAYER1
  6
CONTINUOUS
 62
     7
 10
597.503414
 20
2131.563718
 11
660.907427
 21
2171.182943
  0
LINE
  8
CSLAYER1
  6
CONTINUOUS
 62
     7
 10
595.482699
 20
2132.299198
 11
632.018867
 21
2155.129529
  0
LINE
  8
CSLAYER1
  6
CONTINUOUS
 62
     7
 10
592.323757
 20
2126.600315
 11
592.323757
 21
2060.745233
  0
LINE
  8
CSLAYER1
  6
CONTINUOUS
 62
     7
 10
594.344472
 20
2125.864835
 11
594.344472
 21
2061.731392
  0
LINE
  8
CSLAYER1
  6
CONTINUOUS
 62
     7
 10
597.193913
 20
2128.010320
 11
597.193913
 21
2060.810320
  0
LINE
  8
CSLAYER1
  6
CONTINUOUS
 62
     7
 10
597.193913
 20
2128.010320
 11
629.086252
 21
2147.938865
  0
LINE
  8
CSLAYER1
  6
CONTINUOUS
 62
     7
 10
737.585423
 20
2108.448396
 11
629.086252
 21
2147.938865
  0
LINE
  8
CSLAYER1
  6
CONTINUOUS
 62
     7
 10
713.402809
 20
2017.419259
 11
749.978106
 21
2040.274041
  0
LINE
  8
CSLAYER1
  6
CONTINUOUS
 62
     7
 10
710.244289
 20
2017.205209
 11
707.188863
 21
2018.317293
  0
LINE
  8
CSLAYER1
  6
CONTINUOUS
 62
     7
 10
656.260367
 20
1996.519136
 11
633.301393
 21
2004.875519
  0
LINE
  8
CSLAYER1
  6
CONTINUOUS
 62
     7
 10
656.260367
 20
1996.519136
 11
660.157046
 21
1998.954051
  0
LINE
  8
CSLAYER1
  6
CONTINUOUS
 62
     7
 10
640.362275
 20
2043.151951
 11
641.647427
 21
2043.955003
  0
LINE
  8
CSLAYER1
  6
CONTINUOUS
 62
     7
 10
648.204391
 20
2030.334008
 11
649.609952
 21
2031.212300
  0
LINE
  8
CSLAYER1
  6
CONTINUOUS
 62
     7
 10
641.647427
 20
2043.955003
 11
641.981084
 21
2044.129783
  0
LINE
  8
CSLAYER1
  6
CONTINUOUS
 62
     7
 10
641.981084
 20
2044.129783
 11
642.342501
 21
2044.254743
  0
LINE
  8
CSLAYER1
  6
CONTINUOUS
 62
     7
 10
642.342501
 20
2044.254743
 11
642.728929
 21
2044.328933
  0
LINE
  8
CSLAYER1
  6
CONTINUOUS
 62
     7
 10
642.728929
 20
2044.328933
 11
643.137425
 21
2044.351786
  0
LINE
  8
CSLAYER1
  6
CONTINUOUS
 62
     7
 10
643.137425
 20
2044.351786
 11
643.564881
 21
2044.323130
  0
LINE
  8
CSLAYER1
  6
CONTINUOUS
 62
     7
 10
643.564881
 20
2044.323130
 11
644.008044
 21
2044.243183
  0
LINE
  8
CSLAYER1
  6
CONTINUOUS
 62
     7
 10
644.008044
 20
2044.243183
 11
644.463541
 21
2044.112552
  0
LINE
  8
CSLAYER1
  6
CONTINUOUS
 62
     7
 10
644.463541
 20
2044.112552
 11
644.927905
 21
2043.932233
  0
LINE
  8
CSLAYER1
  6
CONTINUOUS
 62
     7
 10
644.927905
 20
2043.932233
 11
645.397603
 21
2043.703597
  0
LINE
  8
CSLAYER1
  6
CONTINUOUS
 62
     7
 10
645.397603
 20
2043.703597
 11
645.869060
 21
2043.428384
  0
LINE
  8
CSLAYER1
  6
CONTINUOUS
 62
     7
 10
645.869060
 20
2043.428384
 11
646.338687
 21
2043.108690
  0
LINE
  8
CSLAYER1
  6
CONTINUOUS
 62
     7
 10
646.338687
 20
2043.108690
 11
646.802911
 21
2042.746947
  0
LINE
  8
CSLAYER1
  6
CONTINUOUS
 62
     7
 10
646.802911
 20
2042.746947
 11
647.258198
 21
2042.345908
  0
LINE
  8
CSLAYER1
  6
CONTINUOUS
 62
     7
 10
647.258198
 20
2042.345908
 11
647.701084
 21
2041.908625
  0
LINE
  8
CSLAYER1
  6
CONTINUOUS
 62
     7
 10
647.701084
 20
2041.908625
 11
648.128197
 21
2041.438426
  0
LINE
  8
CSLAYER1
  6
CONTINUOUS
 62
     7
 10
648.128197
 20
2041.438426
 11
648.536288
 21
2040.938891
  0
LINE
  8
CSLAYER1
  6
CONTINUOUS
 62
     7
 10
648.536288
 20
2040.938891
 11
648.922250
 21
2040.413820
  0
LINE
  8
CSLAYER1
  6
CONTINUOUS
 62
     7
 10
648.922250
 20
2040.413820
 11
649.283146
 21
2039.867210
  0
LINE
  8
CSLAYER1
  6
CONTINUOUS
 62
     7
 10
649.283146
 20
2039.867210
 11
649.616230
 21
2039.303220
  0
LINE
  8
CSLAYER1
  6
CONTINUOUS
 62
     7
 10
649.616230
 20
2039.303220
 11
649.918966
 21
2038.726144
  0
LINE
  8
CSLAYER1
  6
CONTINUOUS
 62
     7
 10
649.918966
 20
2038.726144
 11
650.189050
 21
2038.140372
  0
LINE
  8
CSLAYER1
  6
CONTINUOUS
 62
     7
 10
650.189050
 20
2038.140372
 11
650.424428
 21
2037.550364
  0
LINE
  8
CSLAYER1
  6
CONTINUOUS
 62
     7
 10
650.424428
 20
2037.550364
 11
650.623306
 21
2036.960609
  0
LINE
  8
CSLAYER1
  6
CONTINUOUS
 62
     7
 10
650.623306
 20
2036.960609
 11
650.784173
 21
2036.375595
  0
LINE
  8
CSLAYER1
  6
CONTINUOUS
 62
     7
 10
650.784173
 20
2036.375595
 11
650.905804
 21
2035.799776
  0
LINE
  8
CSLAYER1
  6
CONTINUOUS
 62
     7
 10
650.905804
 20
2035.799776
 11
650.987272
 21
2035.237533
  0
LINE
  8
CSLAYER1
  6
CONTINUOUS
 62
     7
 10
650.987272
 20
2035.237533
 11
651.027958
 21
2034.693145
  0
LINE
  8
CSLAYER1
  6
CONTINUOUS
 62
     7
 10
651.027958
 20
2034.693145
 11
651.027553
 21
2034.170756
  0
LINE
  8
CSLAYER1
  6
CONTINUOUS
 62
     7
 10
651.027553
 20
2034.170756
 11
650.986059
 21
2033.674341
  0
LINE
  8
CSLAYER1
  6
CONTINUOUS
 62
     7
 10
650.986059
 20
2033.674341
 11
650.903792
 21
2033.207678
  0
LINE
  8
CSLAYER1
  6
CONTINUOUS
 62
     7
 10
650.903792
 20
2033.207678
 11
650.781379
 21
2032.774319
  0
LINE
  8
CSLAYER1
  6
CONTINUOUS
 62
     7
 10
650.781379
 20
2032.774319
 11
650.619750
 21
2032.377562
  0
LINE
  8
CSLAYER1
  6
CONTINUOUS
 62
     7
 10
650.619750
 20
2032.377562
 11
650.420137
 21
2032.020427
  0
LINE
  8
CSLAYER1
  6
CONTINUOUS
 62
     7
 10
650.420137
 20
2032.020427
 11
650.184057
 21
2031.705631
  0
LINE
  8
CSLAYER1
  6
CONTINUOUS
 62
     7
 10
650.184057
 20
2031.705631
 11
649.913309
 21
2031.435570
  0
LINE
  8
CSLAYER1
  6
CONTINUOUS
 62
     7
 10
649.913309
 20
2031.435570
 11
649.609952
 21
2031.212300
  0
LINE
  8
CSLAYER1
  6
CONTINUOUS
 62
     7
 10
640.378170
 20
2043.148112
 11
640.575524
 21
2043.251492
  0
LINE
  8
CSLAYER1
  6
CONTINUOUS
 62
     7
 10
640.575524
 20
2043.251492
 11
640.936941
 21
2043.376452
  0
LINE
  8
CSLAYER1
  6
CONTINUOUS
 62
     7
 10
640.936941
 20
2043.376452
 11
641.323368
 21
2043.450641
  0
LINE
  8
CSLAYER1
  6
CONTINUOUS
 62
     7
 10
641.323368
 20
2043.450641
 11
641.731864
 21
2043.473495
  0
LINE
  8
CSLAYER1
  6
CONTINUOUS
 62
     7
 10
641.731864
 20
2043.473495
 11
642.159320
 21
2043.444839
  0
LINE
  8
CSLAYER1
  6
CONTINUOUS
 62
     7
 10
642.159320
 20
2043.444839
 11
642.602483
 21
2043.364891
  0
LINE
  8
CSLAYER1
  6
CONTINUOUS
 62
     7
 10
642.602483
 20
2043.364891
 11
643.057980
 21
2043.234261
  0
LINE
  8
CSLAYER1
  6
CONTINUOUS
 62
     7
 10
643.057980
 20
2043.234261
 11
643.522345
 21
2043.053941
  0
LINE
  8
CSLAYER1
  6
CONTINUOUS
 62
     7
 10
643.522345
 20
2043.053941
 11
643.992043
 21
2042.825305
  0
LINE
  8
CSLAYER1
  6
CONTINUOUS
 62
     7
 10
643.992043
 20
2042.825305
 11
644.463500
 21
2042.550093
  0
LINE
  8
CSLAYER1
  6
CONTINUOUS
 62
     7
 10
644.463500
 20
2042.550093
 11
644.933127
 21
2042.230398
  0
LINE
  8
CSLAYER1
  6
CONTINUOUS
 62
     7
 10
644.933127
 20
2042.230398
 11
645.397351
 21
2041.868655
  0
LINE
  8
CSLAYER1
  6
CONTINUOUS
 62
     7
 10
649.581712
 20
2034.359241
 11
649.622398
 21
2033.814854
  0
LINE
  8
CSLAYER1
  6
CONTINUOUS
 62
     7
 10
649.622398
 20
2033.814854
 11
649.621993
 21
2033.292464
  0
LINE
  8
CSLAYER1
  6
CONTINUOUS
 62
     7
 10
649.621993
 20
2033.292464
 11
649.580499
 21
2032.796050
  0
LINE
  8
CSLAYER1
  6
CONTINUOUS
 62
     7
 10
649.580499
 20
2032.796050
 11
649.498232
 21
2032.329387
  0
LINE
  8
CSLAYER1
  6
CONTINUOUS
 62
     7
 10
649.498232
 20
2032.329387
 11
649.375818
 21
2031.896028
  0
LINE
  8
CSLAYER1
  6
CONTINUOUS
 62
     7
 10
649.375818
 20
2031.896028
 11
649.214190
 21
2031.499271
  0
LINE
  8
CSLAYER1
  6
CONTINUOUS
 62
     7
 10
649.214190
 20
2031.499271
 11
649.014576
 21
2031.142135
  0
LINE
  8
CSLAYER1
  6
CONTINUOUS
 62
     7
 10
649.014576
 20
2031.142135
 11
648.778497
 21
2030.827339
  0
LINE
  8
CSLAYER1
  6
CONTINUOUS
 62
     7
 10
648.778497
 20
2030.827339
 11
648.507748
 21
2030.557279
  0
LINE
  8
CSLAYER1
  6
CONTINUOUS
 62
     7
 10
648.507748
 20
2030.557279
 11
648.204391
 21
2030.334008
  0
LINE
  8
CSLAYER1
  6
CONTINUOUS
 62
     7
 10
634.039582
 20
1988.337258
 11
632.018867
 21
1989.072738
  0
LINE
  8
CSLAYER1
  6
CONTINUOUS
 62
     7
 10
634.039582
 20
2004.606840
 11
634.039582
 21
1988.337258
  0
LINE
  8
CSLAYER1
  6
CONTINUOUS
 62
     7
 10
632.018867
 20
1999.568976
 11
632.018867
 21
1998.986563
  0
LINE
  8
CSLAYER1
  6
CONTINUOUS
 62
     7
 10
613.645376
 20
2114.377500
 11
613.854285
 21
2114.486934
  0
LINE
  8
CSLAYER1
  6
CONTINUOUS
 62
     7
 10
613.854285
 20
2114.486934
 11
614.080575
 21
2114.565173
  0
LINE
  8
CSLAYER1
  6
CONTINUOUS
 62
     7
 10
614.080575
 20
2114.565173
 11
614.322524
 21
2114.611625
  0
LINE
  8
CSLAYER1
  6
CONTINUOUS
 62
     7
 10
614.322524
 20
2114.611625
 11
614.578291
 21
2114.625934
  0
LINE
  8
CSLAYER1
  6
CONTINUOUS
 62
     7
 10
614.578291
 20
2114.625934
 11
614.845929
 21
2114.607992
  0
LINE
  8
CSLAYER1
  6
CONTINUOUS
 62
     7
 10
614.845929
 20
2114.607992
 11
615.123401
 21
2114.557935
  0
LINE
  8
CSLAYER1
  6
CONTINUOUS
 62
     7
 10
615.123401
 20
2114.557935
 11
615.408596
 21
2114.476145
  0
LINE
  8
CSLAYER1
  6
CONTINUOUS
 62
     7
 10
615.408596
 20
2114.476145
 11
615.699343
 21
2114.363244
  0
LINE
  8
CSLAYER1
  6
CONTINUOUS
 62
     7
 10
615.699343
 20
2114.363244
 11
615.993429
 21
2114.220091
  0
LINE
  8
CSLAYER1
  6
CONTINUOUS
 62
     7
 10
615.993429
 20
2114.220091
 11
616.288617
 21
2114.047775
  0
LINE
  8
CSLAYER1
  6
CONTINUOUS
 62
     7
 10
616.288617
 20
2114.047775
 11
616.582659
 21
2113.847609
  0
LINE
  8
CSLAYER1
  6
CONTINUOUS
 62
     7
 10
616.582659
 20
2113.847609
 11
616.873318
 21
2113.621115
  0
LINE
  8
CSLAYER1
  6
CONTINUOUS
 62
     7
 10
616.873318
 20
2113.621115
 11
617.158381
 21
2113.370017
  0
LINE
  8
CSLAYER1
  6
CONTINUOUS
 62
     7
 10
617.158381
 20
2113.370017
 11
617.435680
 21
2113.096226
  0
LINE
  8
CSLAYER1
  6
CONTINUOUS
 62
     7
 10
617.435680
 20
2113.096226
 11
617.703104
 21
2112.801826
  0
LINE
  8
CSLAYER1
  6
CONTINUOUS
 62
     7
 10
617.703104
 20
2112.801826
 11
617.958617
 21
2112.489058
  0
LINE
  8
CSLAYER1
  6
CONTINUOUS
 62
     7
 10
617.958617
 20
2112.489058
 11
618.200274
 21
2112.160302
  0
LINE
  8
CSLAYER1
  6
CONTINUOUS
 62
     7
 10
618.200274
 20
2112.160302
 11
618.426238
 21
2111.818059
  0
LINE
  8
CSLAYER1
  6
CONTINUOUS
 62
     7
 10
618.426238
 20
2111.818059
 11
618.634788
 21
2111.464935
  0
LINE
  8
CSLAYER1
  6
CONTINUOUS
 62
     7
 10
618.634788
 20
2111.464935
 11
618.824336
 21
2111.103617
  0
LINE
  8
CSLAYER1
  6
CONTINUOUS
 62
     7
 10
618.824336
 20
2111.103617
 11
618.993441
 21
2110.736855
  0
LINE
  8
CSLAYER1
  6
CONTINUOUS
 62
     7
 10
618.993441
 20
2110.736855
 11
619.140815
 21
2110.367440
  0
LINE
  8
CSLAYER1
  6
CONTINUOUS
 62
     7
 10
619.140815
 20
2110.367440
 11
619.265336
 21
2109.998184
  0
LINE
  8
CSLAYER1
  6
CONTINUOUS
 62
     7
 10
619.265336
 20
2109.998184
 11
619.366058
 21
2109.631896
  0
LINE
  8
CSLAYER1
  6
CONTINUOUS
 62
     7
 10
619.366058
 20
2109.631896
 11
619.442213
 21
2109.271365
  0
LINE
  8
CSLAYER1
  6
CONTINUOUS
 62
     7
 10
619.442213
 20
2109.271365
 11
619.493222
 21
2108.919335
  0
LINE
  8
CSLAYER1
  6
CONTINUOUS
 62
     7
 10
619.493222
 20
2108.919335
 11
619.518696
 21
2108.578484
  0
LINE
  8
CSLAYER1
  6
CONTINUOUS
 62
     7
 10
619.518696
 20
2108.578484
 11
619.518442
 21
2108.251407
  0
LINE
  8
CSLAYER1
  6
CONTINUOUS
 62
     7
 10
619.518442
 20
2108.251407
 11
619.492462
 21
2107.940592
  0
LINE
  8
CSLAYER1
  6
CONTINUOUS
 62
     7
 10
619.492462
 20
2107.940592
 11
619.440954
 21
2107.648406
  0
LINE
  8
CSLAYER1
  6
CONTINUOUS
 62
     7
 10
619.440954
 20
2107.648406
 11
619.364308
 21
2107.377073
  0
LINE
  8
CSLAYER1
  6
CONTINUOUS
 62
     7
 10
619.364308
 20
2107.377073
 11
619.263110
 21
2107.128656
  0
LINE
  8
CSLAYER1
  6
CONTINUOUS
 62
     7
 10
619.263110
 20
2107.128656
 11
619.138128
 21
2106.905047
  0
LINE
  8
CSLAYER1
  6
CONTINUOUS
 62
     7
 10
619.138128
 20
2106.905047
 11
618.990315
 21
2106.707947
  0
LINE
  8
CSLAYER1
  6
CONTINUOUS
 62
     7
 10
618.990315
 20
2106.707947
 11
618.820794
 21
2106.538857
  0
LINE
  8
CSLAYER1
  6
CONTINUOUS
 62
     7
 10
618.820794
 20
2106.538857
 11
618.630857
 21
2106.399064
  0
LINE
  8
CSLAYER1
  6
CONTINUOUS
 62
     7
 10
618.630857
 20
2106.399064
 11
618.421948
 21
2106.289631
  0
LINE
  8
CSLAYER1
  6
CONTINUOUS
 62
     7
 10
618.421948
 20
2106.289631
 11
618.195658
 21
2106.211391
  0
LINE
  8
CSLAYER1
  6
CONTINUOUS
 62
     7
 10
618.195658
 20
2106.211391
 11
617.953709
 21
2106.164940
  0
LINE
  8
CSLAYER1
  6
CONTINUOUS
 62
     7
 10
617.953709
 20
2106.164940
 11
617.697942
 21
2106.150631
  0
LINE
  8
CSLAYER1
  6
CONTINUOUS
 62
     7
 10
617.697942
 20
2106.150631
 11
617.430304
 21
2106.168573
  0
LINE
  8
CSLAYER1
  6
CONTINUOUS
 62
     7
 10
617.430304
 20
2106.168573
 11
617.152832
 21
2106.218629
  0
LINE
  8
CSLAYER1
  6
CONTINUOUS
 62
     7
 10
617.152832
 20
2106.218629
 11
616.867637
 21
2106.300420
  0
LINE
  8
CSLAYER1
  6
CONTINUOUS
 62
     7
 10
616.867637
 20
2106.300420
 11
616.576890
 21
2106.413321
  0
LINE
  8
CSLAYER1
  6
CONTINUOUS
 62
     7
 10
616.576890
 20
2106.413321
 11
616.282804
 21
2106.556474
  0
LINE
  8
CSLAYER1
  6
CONTINUOUS
 62
     7
 10
616.282804
 20
2106.556474
 11
615.987616
 21
2106.728789
  0
LINE
  8
CSLAYER1
  6
CONTINUOUS
 62
     7
 10
615.987616
 20
2106.728789
 11
615.693574
 21
2106.928956
  0
LINE
  8
CSLAYER1
  6
CONTINUOUS
 62
     7
 10
615.693574
 20
2106.928956
 11
615.402915
 21
2107.155450
  0
LINE
  8
CSLAYER1
  6
CONTINUOUS
 62
     7
 10
615.402915
 20
2107.155450
 11
615.117852
 21
2107.406548
  0
LINE
  8
CSLAYER1
  6
CONTINUOUS
 62
     7
 10
615.117852
 20
2107.406548
 11
614.840553
 21
2107.680338
  0
LINE
  8
CSLAYER1
  6
CONTINUOUS
 62
     7
 10
614.840553
 20
2107.680338
 11
614.573129
 21
2107.974738
  0
LINE
  8
CSLAYER1
  6
CONTINUOUS
 62
     7
 10
614.573129
 20
2107.974738
 11
614.317616
 21
2108.287506
  0
LINE
  8
CSLAYER1
  6
CONTINUOUS
 62
     7
 10
614.317616
 20
2108.287506
 11
614.075959
 21
2108.616263
  0
LINE
  8
CSLAYER1
  6
CONTINUOUS
 62
     7
 10
614.075959
 20
2108.616263
 11
613.849995
 21
2108.958505
  0
LINE
  8
CSLAYER1
  6
CONTINUOUS
 62
     7
 10
613.849995
 20
2108.958505
 11
613.641445
 21
2109.311629
  0
LINE
  8
CSLAYER1
  6
CONTINUOUS
 62
     7
 10
613.641445
 20
2109.311629
 11
613.451897
 21
2109.672947
  0
LINE
  8
CSLAYER1
  6
CONTINUOUS
 62
     7
 10
613.451897
 20
2109.672947
 11
613.282792
 21
2110.039709
  0
LINE
  8
CSLAYER1
  6
CONTINUOUS
 62
     7
 10
613.282792
 20
2110.039709
 11
613.135418
 21
2110.409124
  0
LINE
  8
CSLAYER1
  6
CONTINUOUS
 62
     7
 10
613.135418
 20
2110.409124
 11
613.010897
 21
2110.778381
  0
LINE
  8
CSLAYER1
  6
CONTINUOUS
 62
     7
 10
613.010897
 20
2110.778381
 11
612.910175
 21
2111.144668
  0
LINE
  8
CSLAYER1
  6
CONTINUOUS
 62
     7
 10
612.910175
 20
2111.144668
 11
612.834020
 21
2111.505199
  0
LINE
  8
CSLAYER1
  6
CONTINUOUS
 62
     7
 10
612.834020
 20
2111.505199
 11
612.783011
 21
2111.857230
  0
LINE
  8
CSLAYER1
  6
CONTINUOUS
 62
     7
 10
612.783011
 20
2111.857230
 11
612.757537
 21
2112.198080
  0
LINE
  8
CSLAYER1
  6
CONTINUOUS
 62
     7
 10
612.757537
 20
2112.198080
 11
612.757790
 21
2112.525158
  0
LINE
  8
CSLAYER1
  6
CONTINUOUS
 62
     7
 10
612.757790
 20
2112.525158
 11
612.783771
 21
2112.835972
  0
LINE
  8
CSLAYER1
  6
CONTINUOUS
 62
     7
 10
612.783771
 20
2112.835972
 11
612.835279
 21
2113.128158
  0
LINE
  8
CSLAYER1
  6
CONTINUOUS
 62
     7
 10
612.835279
 20
2113.128158
 11
612.911925
 21
2113.399492
  0
LINE
  8
CSLAYER1
  6
CONTINUOUS
 62
     7
 10
612.911925
 20
2113.399492
 11
613.013123
 21
2113.647909
  0
LINE
  8
CSLAYER1
  6
CONTINUOUS
 62
     7
 10
613.013123
 20
2113.647909
 11
613.138105
 21
2113.871518
  0
LINE
  8
CSLAYER1
  6
CONTINUOUS
 62
     7
 10
613.138105
 20
2113.871518
 11
613.285918
 21
2114.068617
  0
LINE
  8
CSLAYER1
  6
CONTINUOUS
 62
     7
 10
613.285918
 20
2114.068617
 11
613.455439
 21
2114.237707
  0
LINE
  8
CSLAYER1
  6
CONTINUOUS
 62
     7
 10
613.455439
 20
2114.237707
 11
613.645376
 21
2114.377500
  0
LINE
  8
CSLAYER1
  6
CONTINUOUS
 62
     7
 10
679.654558
 20
2166.162835
 11
679.654558
 21
2129.533506
  0
LINE
  8
CSLAYER1
  6
CONTINUOUS
 62
     7
 10
677.830916
 20
2165.023297
 11
679.654558
 21
2166.162835
  0
LINE
  8
CSLAYER1
  6
CONTINUOUS
 62
     7
 10
677.830916
 20
2165.023297
 11
677.830916
 21
2130.197258
  0
LINE
  8
CSLAYER1
  6
CONTINUOUS
 62
     7
 10
677.830916
 20
2165.023297
 11
660.907427
 21
2171.182943
  0
LINE
  8
CSLAYER1
  6
CONTINUOUS
 62
     7
 10
755.881033
 20
2136.615377
 11
757.704676
 21
2137.754916
  0
LINE
  8
CSLAYER1
  6
CONTINUOUS
 62
     7
 10
755.881033
 20
2136.615377
 11
755.881033
 21
2119.880762
  0
LINE
  8
CSLAYER1
  6
CONTINUOUS
 62
     7
 10
666.393829
 20
2159.983930
 11
666.617660
 21
2160.101180
  0
LINE
  8
CSLAYER1
  6
CONTINUOUS
 62
     7
 10
666.617660
 20
2160.101180
 11
666.860113
 21
2160.185009
  0
LINE
  8
CSLAYER1
  6
CONTINUOUS
 62
     7
 10
666.860113
 20
2160.185009
 11
667.119345
 21
2160.234778
  0
LINE
  8
CSLAYER1
  6
CONTINUOUS
 62
     7
 10
667.119345
 20
2160.234778
 11
667.393380
 21
2160.250109
  0
LINE
  8
CSLAYER1
  6
CONTINUOUS
 62
     7
 10
667.393380
 20
2160.250109
 11
667.680135
 21
2160.230885
  0
LINE
  8
CSLAYER1
  6
CONTINUOUS
 62
     7
 10
667.680135
 20
2160.230885
 11
667.977427
 21
2160.177253
  0
LINE
  8
CSLAYER1
  6
CONTINUOUS
 62
     7
 10
667.977427
 20
2160.177253
 11
668.282993
 21
2160.089621
  0
LINE
  8
CSLAYER1
  6
CONTINUOUS
 62
     7
 10
668.282993
 20
2160.089621
 11
668.594508
 21
2159.968655
  0
LINE
  8
CSLAYER1
  6
CONTINUOUS
 62
     7
 10
668.594508
 20
2159.968655
 11
668.909600
 21
2159.815277
  0
LINE
  8
CSLAYER1
  6
CONTINUOUS
 62
     7
 10
668.909600
 20
2159.815277
 11
669.225873
 21
2159.630653
  0
LINE
  8
CSLAYER1
  6
CONTINUOUS
 62
     7
 10
669.225873
 20
2159.630653
 11
669.540918
 21
2159.416189
  0
LINE
  8
CSLAYER1
  6
CONTINUOUS
 62
     7
 10
669.540918
 20
2159.416189
 11
669.852338
 21
2159.173517
  0
LINE
  8
CSLAYER1
  6
CONTINUOUS
 62
     7
 10
669.852338
 20
2159.173517
 11
670.157763
 21
2158.904484
  0
LINE
  8
CSLAYER1
  6
CONTINUOUS
 62
     7
 10
670.157763
 20
2158.904484
 11
670.454869
 21
2158.611137
  0
LINE
  8
CSLAYER1
  6
CONTINUOUS
 62
     7
 10
670.454869
 20
2158.611137
 11
670.741394
 21
2158.295708
  0
LINE
  8
CSLAYER1
  6
CONTINUOUS
 62
     7
 10
670.741394
 20
2158.295708
 11
671.015158
 21
2157.960599
  0
LINE
  8
CSLAYER1
  6
CONTINUOUS
 62
     7
 10
671.015158
 20
2157.960599
 11
671.274077
 21
2157.608360
  0
LINE
  8
CSLAYER1
  6
CONTINUOUS
 62
     7
 10
671.274077
 20
2157.608360
 11
671.516181
 21
2157.241672
  0
LINE
  8
CSLAYER1
  6
CONTINUOUS
 62
     7
 10
671.516181
 20
2157.241672
 11
671.739627
 21
2156.863325
  0
LINE
  8
CSLAYER1
  6
CONTINUOUS
 62
     7
 10
671.739627
 20
2156.863325
 11
671.942715
 21
2156.476198
  0
LINE
  8
CSLAYER1
  6
CONTINUOUS
 62
     7
 10
671.942715
 20
2156.476198
 11
672.123899
 21
2156.083239
  0
LINE
  8
CSLAYER1
  6
CONTINUOUS
 62
     7
 10
672.123899
 20
2156.083239
 11
672.281799
 21
2155.687437
  0
LINE
  8
CSLAYER1
  6
CONTINUOUS
 62
     7
 10
672.281799
 20
2155.687437
 11
672.415215
 21
2155.291805
  0
LINE
  8
CSLAYER1
  6
CONTINUOUS
 62
     7
 10
672.415215
 20
2155.291805
 11
672.523131
 21
2154.899355
  0
LINE
  8
CSLAYER1
  6
CONTINUOUS
 62
     7
 10
672.523131
 20
2154.899355
 11
672.604726
 21
2154.513071
  0
LINE
  8
CSLAYER1
  6
CONTINUOUS
 62
     7
 10
672.604726
 20
2154.513071
 11
672.659378
 21
2154.135896
  0
LINE
  8
CSLAYER1
  6
CONTINUOUS
 62
     7
 10
672.659378
 20
2154.135896
 11
672.686672
 21
2153.770698
  0
LINE
  8
CSLAYER1
  6
CONTINUOUS
 62
     7
 10
672.686672
 20
2153.770698
 11
672.686400
 21
2153.420259
  0
LINE
  8
CSLAYER1
  6
CONTINUOUS
 62
     7
 10
672.686400
 20
2153.420259
 11
672.658564
 21
2153.087243
  0
LINE
  8
CSLAYER1
  6
CONTINUOUS
 62
     7
 10
672.658564
 20
2153.087243
 11
672.603377
 21
2152.774187
  0
LINE
  8
CSLAYER1
  6
CONTINUOUS
 62
     7
 10
672.603377
 20
2152.774187
 11
672.521257
 21
2152.483472
  0
LINE
  8
CSLAYER1
  6
CONTINUOUS
 62
     7
 10
672.521257
 20
2152.483472
 11
672.412830
 21
2152.217311
  0
LINE
  8
CSLAYER1
  6
CONTINUOUS
 62
     7
 10
672.412830
 20
2152.217311
 11
672.278921
 21
2151.977730
  0
LINE
  8
CSLAYER1
  6
CONTINUOUS
 62
     7
 10
672.278921
 20
2151.977730
 11
672.120549
 21
2151.766552
  0
LINE
  8
CSLAYER1
  6
CONTINUOUS
 62
     7
 10
672.120549
 20
2151.766552
 11
671.938920
 21
2151.585384
  0
LINE
  8
CSLAYER1
  6
CONTINUOUS
 62
     7
 10
671.938920
 20
2151.585384
 11
671.735416
 21
2151.435606
  0
LINE
  8
CSLAYER1
  6
CONTINUOUS
 62
     7
 10
671.735416
 20
2151.435606
 11
671.511585
 21
2151.318356
  0
LINE
  8
CSLAYER1
  6
CONTINUOUS
 62
     7
 10
671.511585
 20
2151.318356
 11
671.269131
 21
2151.234527
  0
LINE
  8
CSLAYER1
  6
CONTINUOUS
 62
     7
 10
671.269131
 20
2151.234527
 11
671.009900
 21
2151.184758
  0
LINE
  8
CSLAYER1
  6
CONTINUOUS
 62
     7
 10
671.009900
 20
2151.184758
 11
670.735865
 21
2151.169427
  0
LINE
  8
CSLAYER1
  6
CONTINUOUS
 62
     7
 10
670.735865
 20
2151.169427
 11
670.449110
 21
2151.188651
  0
LINE
  8
CSLAYER1
  6
CONTINUOUS
 62
     7
 10
670.449110
 20
2151.188651
 11
670.151818
 21
2151.242283
  0
LINE
  8
CSLAYER1
  6
CONTINUOUS
 62
     7
 10
670.151818
 20
2151.242283
 11
669.846252
 21
2151.329915
  0
LINE
  8
CSLAYER1
  6
CONTINUOUS
 62
     7
 10
669.846252
 20
2151.329915
 11
669.534737
 21
2151.450881
  0
LINE
  8
CSLAYER1
  6
CONTINUOUS
 62
     7
 10
669.534737
 20
2151.450881
 11
669.219644
 21
2151.604259
  0
LINE
  8
CSLAYER1
  6
CONTINUOUS
 62
     7
 10
669.219644
 20
2151.604259
 11
668.903372
 21
2151.788883
  0
LINE
  8
CSLAYER1
  6
CONTINUOUS
 62
     7
 10
668.903372
 20
2151.788883
 11
668.588327
 21
2152.003347
  0
LINE
  8
CSLAYER1
  6
CONTINUOUS
 62
     7
 10
668.588327
 20
2152.003347
 11
668.276907
 21
2152.246019
  0
LINE
  8
CSLAYER1
  6
CONTINUOUS
 62
     7
 10
668.276907
 20
2152.246019
 11
667.971482
 21
2152.515052
  0
LINE
  8
CSLAYER1
  6
CONTINUOUS
 62
     7
 10
667.971482
 20
2152.515052
 11
667.674376
 21
2152.808399
  0
LINE
  8
CSLAYER1
  6
CONTINUOUS
 62
     7
 10
667.674376
 20
2152.808399
 11
667.387851
 21
2153.123828
  0
LINE
  8
CSLAYER1
  6
CONTINUOUS
 62
     7
 10
667.387851
 20
2153.123828
 11
667.114087
 21
2153.458937
  0
LINE
  8
CSLAYER1
  6
CONTINUOUS
 62
     7
 10
667.114087
 20
2153.458937
 11
666.855168
 21
2153.811176
  0
LINE
  8
CSLAYER1
  6
CONTINUOUS
 62
     7
 10
666.855168
 20
2153.811176
 11
666.613064
 21
2154.177864
  0
LINE
  8
CSLAYER1
  6
CONTINUOUS
 62
     7
 10
666.613064
 20
2154.177864
 11
666.389618
 21
2154.556211
  0
LINE
  8
CSLAYER1
  6
CONTINUOUS
 62
     7
 10
666.389618
 20
2154.556211
 11
666.186530
 21
2154.943338
  0
LINE
  8
CSLAYER1
  6
CONTINUOUS
 62
     7
 10
666.186530
 20
2154.943338
 11
666.005346
 21
2155.336297
  0
LINE
  8
CSLAYER1
  6
CONTINUOUS
 62
     7
 10
666.005346
 20
2155.336297
 11
665.847446
 21
2155.732099
  0
LINE
  8
CSLAYER1
  6
CONTINUOUS
 62
     7
 10
665.847446
 20
2155.732099
 11
665.714030
 21
2156.127731
  0
LINE
  8
CSLAYER1
  6
CONTINUOUS
 62
     7
 10
665.714030
 20
2156.127731
 11
665.606114
 21
2156.520181
  0
LINE
  8
CSLAYER1
  6
CONTINUOUS
 62
     7
 10
665.606114
 20
2156.520181
 11
665.524519
 21
2156.906465
  0
LINE
  8
CSLAYER1
  6
CONTINUOUS
 62
     7
 10
665.524519
 20
2156.906465
 11
665.469867
 21
2157.283640
  0
LINE
  8
CSLAYER1
  6
CONTINUOUS
 62
     7
 10
665.469867
 20
2157.283640
 11
665.442573
 21
2157.648838
  0
LINE
  8
CSLAYER1
  6
CONTINUOUS
 62
     7
 10
665.442573
 20
2157.648838
 11
665.442845
 21
2157.999277
  0
LINE
  8
CSLAYER1
  6
CONTINUOUS
 62
     7
 10
665.442845
 20
2157.999277
 11
665.470680
 21
2158.332293
  0
LINE
  8
CSLAYER1
  6
CONTINUOUS
 62
     7
 10
665.470680
 20
2158.332293
 11
665.525868
 21
2158.645349
  0
LINE
  8
CSLAYER1
  6
CONTINUOUS
 62
     7
 10
665.525868
 20
2158.645349
 11
665.607988
 21
2158.936064
  0
LINE
  8
CSLAYER1
  6
CONTINUOUS
 62
     7
 10
665.607988
 20
2158.936064
 11
665.716415
 21
2159.202225
  0
LINE
  8
CSLAYER1
  6
CONTINUOUS
 62
     7
 10
665.716415
 20
2159.202225
 11
665.850324
 21
2159.441806
  0
LINE
  8
CSLAYER1
  6
CONTINUOUS
 62
     7
 10
665.850324
 20
2159.441806
 11
666.008696
 21
2159.652984
  0
LINE
  8
CSLAYER1
  6
CONTINUOUS
 62
     7
 10
666.008696
 20
2159.652984
 11
666.190325
 21
2159.834152
  0
LINE
  8
CSLAYER1
  6
CONTINUOUS
 62
     7
 10
666.190325
 20
2159.834152
 11
666.393829
 21
2159.983930
  0
LINE
  8
CSLAYER1
  6
CONTINUOUS
 62
     7
 10
666.393829
 20
2159.983930
 11
668.845388
 21
2161.515834
  0
LINE
  8
CSLAYER1
  6
CONTINUOUS
 62
     7
 10
671.735416
 20
2151.435606
 11
674.186974
 21
2152.967510
  0
LINE
  8
CSLAYER1
  6
CONTINUOUS
 62
     7
 10
669.852338
 20
2159.173517
 11
672.303897
 21
2160.705421
  0
LINE
  8
CSLAYER1
  6
CONTINUOUS
 62
     7
 10
672.395642
 20
2155.349848
 11
674.847201
 21
2156.881752
  0
LINE
  8
CSLAYER1
  6
CONTINUOUS
 62
     7
 10
668.845388
 20
2161.515834
 11
669.069219
 21
2161.633084
  0
LINE
  8
CSLAYER1
  6
CONTINUOUS
 62
     7
 10
669.069219
 20
2161.633084
 11
669.311672
 21
2161.716913
  0
LINE
  8
CSLAYER1
  6
CONTINUOUS
 62
     7
 10
669.311672
 20
2161.716913
 11
669.570903
 21
2161.766682
  0
LINE
  8
CSLAYER1
  6
CONTINUOUS
 62
     7
 10
669.570903
 20
2161.766682
 11
669.844939
 21
2161.782013
  0
LINE
  8
CSLAYER1
  6
CONTINUOUS
 62
     7
 10
669.844939
 20
2161.782013
 11
670.131694
 21
2161.762789
  0
LINE
  8
CSLAYER1
  6
CONTINUOUS
 62
     7
 10
670.131694
 20
2161.762789
 11
670.428986
 21
2161.709157
  0
LINE
  8
CSLAYER1
  6
CONTINUOUS
 62
     7
 10
670.428986
 20
2161.709157
 11
670.734552
 21
2161.621525
  0
LINE
  8
CSLAYER1
  6
CONTINUOUS
 62
     7
 10
670.734552
 20
2161.621525
 11
671.046067
 21
2161.500559
  0
LINE
  8
CSLAYER1
  6
CONTINUOUS
 62
     7
 10
671.046067
 20
2161.500559
 11
671.361159
 21
2161.347181
  0
LINE
  8
CSLAYER1
  6
CONTINUOUS
 62
     7
 10
671.361159
 20
2161.347181
 11
671.677432
 21
2161.162557
  0
LINE
  8
CSLAYER1
  6
CONTINUOUS
 62
     7
 10
671.677432
 20
2161.162557
 11
671.992477
 21
2160.948093
  0
LINE
  8
CSLAYER1
  6
CONTINUOUS
 62
     7
 10
671.992477
 20
2160.948093
 11
672.303897
 21
2160.705421
  0
LINE
  8
CSLAYER1
  6
CONTINUOUS
 62
     7
 10
672.303897
 20
2160.705421
 11
672.609322
 21
2160.436388
  0
LINE
  8
CSLAYER1
  6
CONTINUOUS
 62
     7
 10
672.609322
 20
2160.436388
 11
672.906428
 21
2160.143040
  0
LINE
  8
CSLAYER1
  6
CONTINUOUS
 62
     7
 10
672.906428
 20
2160.143040
 11
673.192953
 21
2159.827612
  0
LINE
  8
CSLAYER1
  6
CONTINUOUS
 62
     7
 10
673.192953
 20
2159.827612
 11
673.466717
 21
2159.492503
  0
LINE
  8
CSLAYER1
  6
CONTINUOUS
 62
     7
 10
673.466717
 20
2159.492503
 11
673.725636
 21
2159.140264
  0
LINE
  8
CSLAYER1
  6
CONTINUOUS
 62
     7
 10
673.725636
 20
2159.140264
 11
673.967740
 21
2158.773576
  0
LINE
  8
CSLAYER1
  6
CONTINUOUS
 62
     7
 10
673.967740
 20
2158.773576
 11
674.191186
 21
2158.395229
  0
LINE
  8
CSLAYER1
  6
CONTINUOUS
 62
     7
 10
674.191186
 20
2158.395229
 11
674.394274
 21
2158.008102
  0
LINE
  8
CSLAYER1
  6
CONTINUOUS
 62
     7
 10
674.394274
 20
2158.008102
 11
674.575457
 21
2157.615143
  0
LINE
  8
CSLAYER1
  6
CONTINUOUS
 62
     7
 10
674.575457
 20
2157.615143
 11
674.733358
 21
2157.219341
  0
LINE
  8
CSLAYER1
  6
CONTINUOUS
 62
     7
 10
674.733358
 20
2157.219341
 11
674.866774
 21
2156.823709
  0
LINE
  8
CSLAYER1
  6
CONTINUOUS
 62
     7
 10
674.866774
 20
2156.823709
 11
674.974690
 21
2156.431259
  0
LINE
  8
CSLAYER1
  6
CONTINUOUS
 62
     7
 10
674.974690
 20
2156.431259
 11
675.056285
 21
2156.044975
  0
LINE
  8
CSLAYER1
  6
CONTINUOUS
 62
     7
 10
675.056285
 20
2156.044975
 11
675.110937
 21
2155.667800
  0
LINE
  8
CSLAYER1
  6
CONTINUOUS
 62
     7
 10
675.110937
 20
2155.667800
 11
675.138231
 21
2155.302602
  0
LINE
  8
CSLAYER1
  6
CONTINUOUS
 62
     7
 10
675.138231
 20
2155.302602
 11
675.137959
 21
2154.952163
  0
LINE
  8
CSLAYER1
  6
CONTINUOUS
 62
     7
 10
675.137959
 20
2154.952163
 11
675.110123
 21
2154.619147
  0
LINE
  8
CSLAYER1
  6
CONTINUOUS
 62
     7
 10
675.110123
 20
2154.619147
 11
675.054935
 21
2154.306091
  0
LINE
  8
CSLAYER1
  6
CONTINUOUS
 62
     7
 10
675.054935
 20
2154.306091
 11
674.972815
 21
2154.015376
  0
LINE
  8
CSLAYER1
  6
CONTINUOUS
 62
     7
 10
674.972815
 20
2154.015376
 11
674.864388
 21
2153.749215
  0
LINE
  8
CSLAYER1
  6
CONTINUOUS
 62
     7
 10
674.864388
 20
2153.749215
 11
674.730479
 21
2153.509634
  0
LINE
  8
CSLAYER1
  6
CONTINUOUS
 62
     7
 10
674.730479
 20
2153.509634
 11
674.572108
 21
2153.298456
  0
LINE
  8
CSLAYER1
  6
CONTINUOUS
 62
     7
 10
674.572108
 20
2153.298456
 11
674.390479
 21
2153.117288
  0
LINE
  8
CSLAYER1
  6
CONTINUOUS
 62
     7
 10
674.390479
 20
2153.117288
 11
674.186974
 21
2152.967510
  0
LINE
  8
CSLAYER1
  6
CONTINUOUS
 62
     7
 10
757.073416
 20
2126.979260
 11
759.524974
 21
2128.511164
  0
LINE
  8
CSLAYER1
  6
CONTINUOUS
 62
     7
 10
760.531924
 20
2126.168847
 11
762.983483
 21
2127.700751
  0
LINE
  8
CSLAYER1
  6
CONTINUOUS
 62
     7
 10
763.075228
 20
2122.345178
 11
765.526787
 21
2123.877082
  0
LINE
  8
CSLAYER1
  6
CONTINUOUS
 62
     7
 10
759.524974
 20
2128.511164
 11
759.748805
 21
2128.628414
  0
LINE
  8
CSLAYER1
  6
CONTINUOUS
 62
     7
 10
759.748805
 20
2128.628414
 11
759.991258
 21
2128.712242
  0
LINE
  8
CSLAYER1
  6
CONTINUOUS
 62
     7
 10
759.991258
 20
2128.712242
 11
760.250490
 21
2128.762012
  0
LINE
  8
CSLAYER1
  6
CONTINUOUS
 62
     7
 10
760.250490
 20
2128.762012
 11
760.524525
 21
2128.777343
  0
LINE
  8
CSLAYER1
  6
CONTINUOUS
 62
     7
 10
760.524525
 20
2128.777343
 11
760.811280
 21
2128.758119
  0
LINE
  8
CSLAYER1
  6
CONTINUOUS
 62
     7
 10
760.811280
 20
2128.758119
 11
761.108572
 21
2128.704487
  0
LINE
  8
CSLAYER1
  6
CONTINUOUS
 62
     7
 10
761.108572
 20
2128.704487
 11
761.414138
 21
2128.616855
  0
LINE
  8
CSLAYER1
  6
CONTINUOUS
 62
     7
 10
761.414138
 20
2128.616855
 11
761.725653
 21
2128.495889
  0
LINE
  8
CSLAYER1
  6
CONTINUOUS
 62
     7
 10
761.725653
 20
2128.495889
 11
762.040745
 21
2128.342511
  0
LINE
  8
CSLAYER1
  6
CONTINUOUS
 62
     7
 10
762.040745
 20
2128.342511
 11
762.357018
 21
2128.157887
  0
LINE
  8
CSLAYER1
  6
CONTINUOUS
 62
     7
 10
762.357018
 20
2128.157887
 11
762.672063
 21
2127.943423
  0
LINE
  8
CSLAYER1
  6
CONTINUOUS
 62
     7
 10
762.672063
 20
2127.943423
 11
762.983483
 21
2127.700751
  0
LINE
  8
CSLAYER1
  6
CONTINUOUS
 62
     7
 10
762.983483
 20
2127.700751
 11
763.288908
 21
2127.431717
  0
LINE
  8
CSLAYER1
  6
CONTINUOUS
 62
     7
 10
763.288908
 20
2127.431717
 11
763.586014
 21
2127.138370
  0
LINE
  8
CSLAYER1
  6
CONTINUOUS
 62
     7
 10
763.586014
 20
2127.138370
 11
763.872539
 21
2126.822942
  0
LINE
  8
CSLAYER1
  6
CONTINUOUS
 62
     7
 10
763.872539
 20
2126.822942
 11
764.146303
 21
2126.487833
  0
LINE
  8
CSLAYER1
  6
CONTINUOUS
 62
     7
 10
764.146303
 20
2126.487833
 11
764.405222
 21
2126.135594
  0
LINE
  8
CSLAYER1
  6
CONTINUOUS
 62
     7
 10
764.405222
 20
2126.135594
 11
764.647326
 21
2125.768906
  0
LINE
  8
CSLAYER1
  6
CONTINUOUS
 62
     7
 10
764.647326
 20
2125.768906
 11
764.824348
 21
2125.469166
  0
LINE
  8
CSLAYER1
  6
CONTINUOUS
 62
     7
 10
757.073416
 20
2126.979260
 11
757.297246
 21
2127.096510
  0
LINE
  8
CSLAYER1
  6
CONTINUOUS
 62
     7
 10
757.297246
 20
2127.096510
 11
757.539700
 21
2127.180338
  0
LINE
  8
CSLAYER1
  6
CONTINUOUS
 62
     7
 10
757.539700
 20
2127.180338
 11
757.798931
 21
2127.230108
  0
LINE
  8
CSLAYER1
  6
CONTINUOUS
 62
     7
 10
757.798931
 20
2127.230108
 11
758.072967
 21
2127.245439
  0
LINE
  8
CSLAYER1
  6
CONTINUOUS
 62
     7
 10
758.072967
 20
2127.245439
 11
758.359722
 21
2127.226215
  0
LINE
  8
CSLAYER1
  6
CONTINUOUS
 62
     7
 10
758.359722
 20
2127.226215
 11
758.657013
 21
2127.172583
  0
LINE
  8
CSLAYER1
  6
CONTINUOUS
 62
     7
 10
758.657013
 20
2127.172583
 11
758.962579
 21
2127.084951
  0
LINE
  8
CSLAYER1
  6
CONTINUOUS
 62
     7
 10
758.962579
 20
2127.084951
 11
759.274094
 21
2126.963985
  0
LINE
  8
CSLAYER1
  6
CONTINUOUS
 62
     7
 10
759.274094
 20
2126.963985
 11
759.589187
 21
2126.810607
  0
LINE
  8
CSLAYER1
  6
CONTINUOUS
 62
     7
 10
759.589187
 20
2126.810607
 11
759.905459
 21
2126.625983
  0
LINE
  8
CSLAYER1
  6
CONTINUOUS
 62
     7
 10
759.905459
 20
2126.625983
 11
760.220504
 21
2126.411519
  0
LINE
  8
CSLAYER1
  6
CONTINUOUS
 62
     7
 10
760.220504
 20
2126.411519
 11
760.531924
 21
2126.168847
  0
LINE
  8
CSLAYER1
  6
CONTINUOUS
 62
     7
 10
760.531924
 20
2126.168847
 11
760.837350
 21
2125.899813
  0
LINE
  8
CSLAYER1
  6
CONTINUOUS
 62
     7
 10
760.837350
 20
2125.899813
 11
761.134455
 21
2125.606466
  0
LINE
  8
CSLAYER1
  6
CONTINUOUS
 62
     7
 10
761.134455
 20
2125.606466
 11
761.420981
 21
2125.291038
  0
LINE
  8
CSLAYER1
  6
CONTINUOUS
 62
     7
 10
761.420981
 20
2125.291038
 11
761.694744
 21
2124.955929
  0
LINE
  8
CSLAYER1
  6
CONTINUOUS
 62
     7
 10
761.694744
 20
2124.955929
 11
761.953664
 21
2124.603690
  0
LINE
  8
CSLAYER1
  6
CONTINUOUS
 62
     7
 10
761.953664
 20
2124.603690
 11
762.195767
 21
2124.237002
  0
LINE
  8
CSLAYER1
  6
CONTINUOUS
 62
     7
 10
762.195767
 20
2124.237002
 11
762.372789
 21
2123.937262
  0
LINE
  8
CSLAYER1
  6
CONTINUOUS
 62
     7
 10
757.484453
 20
2120.882690
 11
757.292650
 21
2121.173194
  0
LINE
  8
CSLAYER1
  6
CONTINUOUS
 62
     7
 10
757.292650
 20
2121.173194
 11
757.069204
 21
2121.551541
  0
LINE
  8
CSLAYER1
  6
CONTINUOUS
 62
     7
 10
757.069204
 20
2121.551541
 11
756.866116
 21
2121.938667
  0
LINE
  8
CSLAYER1
  6
CONTINUOUS
 62
     7
 10
756.866116
 20
2121.938667
 11
756.684933
 21
2122.331627
  0
LINE
  8
CSLAYER1
  6
CONTINUOUS
 62
     7
 10
756.684933
 20
2122.331627
 11
756.527032
 21
2122.727429
  0
LINE
  8
CSLAYER1
  6
CONTINUOUS
 62
     7
 10
756.527032
 20
2122.727429
 11
756.393616
 21
2123.123060
  0
LINE
  8
CSLAYER1
  6
CONTINUOUS
 62
     7
 10
756.393616
 20
2123.123060
 11
756.285700
 21
2123.515511
  0
LINE
  8
CSLAYER1
  6
CONTINUOUS
 62
     7
 10
756.285700
 20
2123.515511
 11
756.204105
 21
2123.901794
  0
LINE
  8
CSLAYER1
  6
CONTINUOUS
 62
     7
 10
756.204105
 20
2123.901794
 11
756.149453
 21
2124.278970
  0
LINE
  8
CSLAYER1
  6
CONTINUOUS
 62
     7
 10
756.149453
 20
2124.278970
 11
756.122159
 21
2124.644167
  0
LINE
  8
CSLAYER1
  6
CONTINUOUS
 62
     7
 10
756.122159
 20
2124.644167
 11
756.122431
 21
2124.994607
  0
LINE
  8
CSLAYER1
  6
CONTINUOUS
 62
     7
 10
756.122431
 20
2124.994607
 11
756.150267
 21
2125.327623
  0
LINE
  8
CSLAYER1
  6
CONTINUOUS
 62
     7
 10
756.150267
 20
2125.327623
 11
756.205455
 21
2125.640679
  0
LINE
  8
CSLAYER1
  6
CONTINUOUS
 62
     7
 10
756.205455
 20
2125.640679
 11
756.287575
 21
2125.931394
  0
LINE
  8
CSLAYER1
  6
CONTINUOUS
 62
     7
 10
756.287575
 20
2125.931394
 11
756.396002
 21
2126.197555
  0
LINE
  8
CSLAYER1
  6
CONTINUOUS
 62
     7
 10
756.396002
 20
2126.197555
 11
756.529910
 21
2126.437136
  0
LINE
  8
CSLAYER1
  6
CONTINUOUS
 62
     7
 10
756.529910
 20
2126.437136
 11
756.688282
 21
2126.648314
  0
LINE
  8
CSLAYER1
  6
CONTINUOUS
 62
     7
 10
756.688282
 20
2126.648314
 11
756.869911
 21
2126.829481
  0
LINE
  8
CSLAYER1
  6
CONTINUOUS
 62
     7
 10
756.869911
 20
2126.829481
 11
757.073416
 21
2126.979260
  0
ARC
  8
CSLAYER1
  6
CONTINUOUS
 62
     7
 10
601.064472
 20
2125.864835
 40
6.720000
 50
122.000000
 51
180.000000
  0
ARC
  8
CSLAYER1
  6
CONTINUOUS
 62
     7
 10
599.043757
 20
2126.600315
 40
6.720000
 50
122.000000
 51
180.000000
  0
ARC
  8
CSLAYER1
  6
CONTINUOUS
 62
     7
 10
597.704472
 20
2061.731392
 40
3.360000
 50
256.943959
 51
302.000000
  0
ARC
  8
CSLAYER1
  6
CONTINUOUS
 62
     7
 10
595.435733
 20
2062.012199
 40
3.360000
 50
202.152506
 51
217.167534
  0
LINE
  8
CSLAYER1
  6
CONTINUOUS
 62
     7
 10
596.945434
 20
2058.458249
 11
592.758242
 21
2059.982263
  0
ARC
  8
CSLAYER1
  6
CONTINUOUS
 62
     7
 10
711.622280
 20
2086.264622
 40
3.360000
 50
122.000000
 51
180.000000
  0
ARC
  8
CSLAYER1
  6
CONTINUOUS
 62
     7
 10
709.601565
 20
2087.000102
 40
3.360000
 50
122.000000
 51
180.000000
  0
ARC
  8
CSLAYER1
  6
CONTINUOUS
 62
     7
 10
711.622280
 20
2020.268700
 40
3.360000
 50
180.000000
 51
302.000000
  0
ARC
  8
CSLAYER1
  6
CONTINUOUS
 62
     7
 10
709.492568
 20
2020.763217
 40
3.360000
 50
194.633804
 51
226.715114
  0
LINE
  8
CSLAYER1
  6
CONTINUOUS
 62
     7
 10
632.018867
 20
2155.129529
 11
660.710355
 21
2173.057961
  0
LINE
  8
CSLAYER1
  6
CONTINUOUS
 62
     7
 10
600.591835
 20
2059.573578
 11
597.193913
 21
2060.810320
  0
ARC
  8
CSLAYER1
  6
CONTINUOUS
 62
     7
 10
597.704472
 20
2061.731392
 40
3.360000
 50
180.000000
 51
256.943959
  0
LINE
  8
CSLAYER1
  6
CONTINUOUS
 62
     7
 10
632.018867
 20
2005.342320
 11
632.018867
 21
1989.072738
  0
LINE
  8
CSLAYER1
  6
CONTINUOUS
 62
     7
 10
387.747939
 20
1909.804146
 11
388.185910
 21
1909.926817
  0
LINE
  8
CSLAYER1
  6
CONTINUOUS
 62
     7
 10
388.185910
 20
1909.926817
 11
388.644161
 21
1909.983675
  0
LINE
  8
CSLAYER1
  6
CONTINUOUS
 62
     7
 10
388.644161
 20
1909.983675
 11
389.119206
 21
1909.974287
  0
LINE
  8
CSLAYER1
  6
CONTINUOUS
 62
     7
 10
389.119206
 20
1909.974287
 11
389.607429
 21
1909.898725
  0
LINE
  8
CSLAYER1
  6
CONTINUOUS
 62
     7
 10
389.607429
 20
1909.898725
 11
390.105115
 21
1909.757563
  0
LINE
  8
CSLAYER1
  6
CONTINUOUS
 62
     7
 10
390.105115
 20
1909.757563
 11
390.608475
 21
1909.551876
  0
LINE
  8
CSLAYER1
  6
CONTINUOUS
 62
     7
 10
390.608475
 20
1909.551876
 11
391.113679
 21
1909.283229
  0
LINE
  8
CSLAYER1
  6
CONTINUOUS
 62
     7
 10
391.113679
 20
1909.283229
 11
391.616882
 21
1908.953668
  0
LINE
  8
CSLAYER1
  6
CONTINUOUS
 62
     7
 10
391.616882
 20
1908.953668
 11
392.114254
 21
1908.565699
  0
LINE
  8
CSLAYER1
  6
CONTINUOUS
 62
     7
 10
392.114254
 20
1908.565699
 11
392.602010
 21
1908.122276
  0
LINE
  8
CSLAYER1
  6
CONTINUOUS
 62
     7
 10
392.602010
 20
1908.122276
 11
393.076438
 21
1907.626774
  0
LINE
  8
CSLAYER1
  6
CONTINUOUS
 62
     7
 10
393.076438
 20
1907.626774
 11
393.533927
 21
1907.082963
  0
LINE
  8
CSLAYER1
  6
CONTINUOUS
 62
     7
 10
393.533927
 20
1907.082963
 11
393.970995
 21
1906.494983
  0
LINE
  8
CSLAYER1
  6
CONTINUOUS
 62
     7
 10
393.970995
 20
1906.494983
 11
394.384317
 21
1905.867307
  0
LINE
  8
CSLAYER1
  6
CONTINUOUS
 62
     7
 10
394.384317
 20
1905.867307
 11
394.770746
 21
1905.204714
  0
LINE
  8
CSLAYER1
  6
CONTINUOUS
 62
     7
 10
394.770746
 20
1905.204714
 11
395.127341
 21
1904.512246
  0
LINE
  8
CSLAYER1
  6
CONTINUOUS
 62
     7
 10
395.127341
 20
1904.512246
 11
395.451389
 21
1903.795173
  0
LINE
  8
CSLAYER1
  6
CONTINUOUS
 62
     7
 10
395.451389
 20
1903.795173
 11
395.740423
 21
1903.058952
  0
LINE
  8
CSLAYER1
  6
CONTINUOUS
 62
     7
 10
395.740423
 20
1903.058952
 11
395.992243
 21
1902.309186
  0
LINE
  8
CSLAYER1
  6
CONTINUOUS
 62
     7
 10
395.992243
 20
1902.309186
 11
396.204934
 21
1901.551582
  0
LINE
  8
CSLAYER1
  6
CONTINUOUS
 62
     7
 10
396.204934
 20
1901.551582
 11
396.376876
 21
1900.791906
  0
LINE
  8
CSLAYER1
  6
CONTINUOUS
 62
     7
 10
396.376876
 20
1900.791906
 11
396.506762
 21
1900.035938
  0
LINE
  8
CSLAYER1
  6
CONTINUOUS
 62
     7
 10
396.506762
 20
1900.035938
 11
396.593601
 21
1899.289433
  0
LINE
  8
CSLAYER1
  6
CONTINUOUS
 62
     7
 10
396.593601
 20
1899.289433
 11
396.636734
 21
1898.558072
  0
LINE
  8
CSLAYER1
  6
CONTINUOUS
 62
     7
 10
396.636734
 20
1898.558072
 11
396.635831
 21
1897.847420
  0
LINE
  8
CSLAYER1
  6
CONTINUOUS
 62
     7
 10
396.635831
 20
1897.847420
 11
396.590901
 21
1897.162887
  0
LINE
  8
CSLAYER1
  6
CONTINUOUS
 62
     7
 10
396.590901
 20
1897.162887
 11
396.502285
 21
1896.509682
  0
LINE
  8
CSLAYER1
  6
CONTINUOUS
 62
     7
 10
396.502285
 20
1896.509682
 11
396.370657
 21
1895.892776
  0
LINE
  8
CSLAYER1
  6
CONTINUOUS
 62
     7
 10
396.370657
 20
1895.892776
 11
396.197020
 21
1895.316865
  0
LINE
  8
CSLAYER1
  6
CONTINUOUS
 62
     7
 10
396.197020
 20
1895.316865
 11
395.982694
 21
1894.786331
  0
LINE
  8
CSLAYER1
  6
CONTINUOUS
 62
     7
 10
395.982694
 20
1894.786331
 11
395.729310
 21
1894.305212
  0
LINE
  8
CSLAYER1
  6
CONTINUOUS
 62
     7
 10
395.729310
 20
1894.305212
 11
395.438798
 21
1893.877169
  0
LINE
  8
CSLAYER1
  6
CONTINUOUS
 62
     7
 10
395.438798
 20
1893.877169
 11
395.113369
 21
1893.505462
  0
LINE
  8
CSLAYER1
  6
CONTINUOUS
 62
     7
 10
395.113369
 20
1893.505462
 11
394.755497
 21
1893.192917
  0
LINE
  8
CSLAYER1
  6
CONTINUOUS
 62
     7
 10
394.755497
 20
1893.192917
 11
394.367909
 21
1892.941914
  0
LINE
  8
CSLAYER1
  6
CONTINUOUS
 62
     7
 10
394.367909
 20
1892.941914
 11
393.953553
 21
1892.754363
  0
LINE
  8
CSLAYER1
  6
CONTINUOUS
 62
     7
 10
393.953553
 20
1892.754363
 11
393.515582
 21
1892.631692
  0
LINE
  8
CSLAYER1
  6
CONTINUOUS
 62
     7
 10
393.515582
 20
1892.631692
 11
393.057331
 21
1892.574835
  0
LINE
  8
CSLAYER1
  6
CONTINUOUS
 62
     7
 10
393.057331
 20
1892.574835
 11
392.582286
 21
1892.584223
  0
LINE
  8
CSLAYER1
  6
CONTINUOUS
 62
     7
 10
392.582286
 20
1892.584223
 11
392.094062
 21
1892.659785
  0
LINE
  8
CSLAYER1
  6
CONTINUOUS
 62
     7
 10
392.094062
 20
1892.659785
 11
391.596377
 21
1892.800947
  0
LINE
  8
CSLAYER1
  6
CONTINUOUS
 62
     7
 10
391.596377
 20
1892.800947
 11
391.093017
 21
1893.006634
  0
LINE
  8
CSLAYER1
  6
CONTINUOUS
 62
     7
 10
391.093017
 20
1893.006634
 11
390.587813
 21
1893.275280
  0
LINE
  8
CSLAYER1
  6
CONTINUOUS
 62
     7
 10
390.587813
 20
1893.275280
 11
390.084610
 21
1893.604842
  0
LINE
  8
CSLAYER1
  6
CONTINUOUS
 62
     7
 10
390.084610
 20
1893.604842
 11
389.587238
 21
1893.992811
  0
LINE
  8
CSLAYER1
  6
CONTINUOUS
 62
     7
 10
389.587238
 20
1893.992811
 11
389.099482
 21
1894.436233
  0
LINE
  8
CSLAYER1
  6
CONTINUOUS
 62
     7
 10
389.099482
 20
1894.436233
 11
388.625054
 21
1894.931736
  0
LINE
  8
CSLAYER1
  6
CONTINUOUS
 62
     7
 10
388.625054
 20
1894.931736
 11
388.167565
 21
1895.475546
  0
LINE
  8
CSLAYER1
  6
CONTINUOUS
 62
     7
 10
388.167565
 20
1895.475546
 11
387.730496
 21
1896.063527
  0
LINE
  8
CSLAYER1
  6
CONTINUOUS
 62
     7
 10
387.730496
 20
1896.063527
 11
387.317175
 21
1896.691202
  0
LINE
  8
CSLAYER1
  6
CONTINUOUS
 62
     7
 10
387.317175
 20
1896.691202
 11
386.930746
 21
1897.353795
  0
LINE
  8
CSLAYER1
  6
CONTINUOUS
 62
     7
 10
386.930746
 20
1897.353795
 11
386.574151
 21
1898.046264
  0
LINE
  8
CSLAYER1
  6
CONTINUOUS
 62
     7
 10
386.574151
 20
1898.046264
 11
386.250103
 21
1898.763337
  0
LINE
  8
CSLAYER1
  6
CONTINUOUS
 62
     7
 10
386.250103
 20
1898.763337
 11
385.961069
 21
1899.499558
  0
LINE
  8
CSLAYER1
  6
CONTINUOUS
 62
     7
 10
385.961069
 20
1899.499558
 11
385.709248
 21
1900.249324
  0
LINE
  8
CSLAYER1
  6
CONTINUOUS
 62
     7
 10
385.709248
 20
1900.249324
 11
385.496557
 21
1901.006928
  0
LINE
  8
CSLAYER1
  6
CONTINUOUS
 62
     7
 10
385.496557
 20
1901.006928
 11
385.324615
 21
1901.766604
  0
LINE
  8
CSLAYER1
  6
CONTINUOUS
 62
     7
 10
385.324615
 20
1901.766604
 11
385.194730
 21
1902.522572
  0
LINE
  8
CSLAYER1
  6
CONTINUOUS
 62
     7
 10
385.194730
 20
1902.522572
 11
385.107891
 21
1903.269077
  0
LINE
  8
CSLAYER1
  6
CONTINUOUS
 62
     7
 10
385.107891
 20
1903.269077
 11
385.064758
 21
1904.000438
  0
LINE
  8
CSLAYER1
  6
CONTINUOUS
 62
     7
 10
385.064758
 20
1904.000438
 11
385.065660
 21
1904.711089
  0
LINE
  8
CSLAYER1
  6
CONTINUOUS
 62
     7
 10
385.065660
 20
1904.711089
 11
385.110590
 21
1905.395623
  0
LINE
  8
CSLAYER1
  6
CONTINUOUS
 62
     7
 10
385.110590
 20
1905.395623
 11
385.199206
 21
1906.048828
  0
LINE
  8
CSLAYER1
  6
CONTINUOUS
 62
     7
 10
385.199206
 20
1906.048828
 11
385.330834
 21
1906.665734
  0
LINE
  8
CSLAYER1
  6
CONTINUOUS
 62
     7
 10
385.330834
 20
1906.665734
 11
385.504472
 21
1907.241645
  0
LINE
  8
CSLAYER1
  6
CONTINUOUS
 62
     7
 10
385.504472
 20
1907.241645
 11
385.718798
 21
1907.772179
  0
LINE
  8
CSLAYER1
  6
CONTINUOUS
 62
     7
 10
385.718798
 20
1907.772179
 11
385.972181
 21
1908.253298
  0
LINE
  8
CSLAYER1
  6
CONTINUOUS
 62
     7
 10
385.972181
 20
1908.253298
 11
386.262693
 21
1908.681340
  0
LINE
  8
CSLAYER1
  6
CONTINUOUS
 62
     7
 10
386.262693
 20
1908.681340
 11
386.588123
 21
1909.053048
  0
LINE
  8
CSLAYER1
  6
CONTINUOUS
 62
     7
 10
386.588123
 20
1909.053048
 11
386.945994
 21
1909.365593
  0
LINE
  8
CSLAYER1
  6
CONTINUOUS
 62
     7
 10
386.945994
 20
1909.365593
 11
387.333583
 21
1909.616596
  0
LINE
  8
CSLAYER1
  6
CONTINUOUS
 62
     7
 10
387.333583
 20
1909.616596
 11
387.747939
 21
1909.804146
  0
LINE
  8
CSLAYER1
  6
CONTINUOUS
 62
     7
 10
387.747939
 20
1909.804146
 11
443.263596
 21
1930.480133
  0
LINE
  8
CSLAYER1
  6
CONTINUOUS
 62
     7
 10
393.953553
 20
1892.754363
 11
449.469210
 21
1913.430350
  0
LINE
  8
CSLAYER1
  6
CONTINUOUS
 62
     7
 10
443.263596
 20
1930.480133
 11
443.701567
 21
1930.602804
  0
LINE
  8
CSLAYER1
  6
CONTINUOUS
 62
     7
 10
443.701567
 20
1930.602804
 11
444.159818
 21
1930.659662
  0
LINE
  8
CSLAYER1
  6
CONTINUOUS
 62
     7
 10
444.159818
 20
1930.659662
 11
444.634863
 21
1930.650274
  0
LINE
  8
CSLAYER1
  6
CONTINUOUS
 62
     7
 10
444.634863
 20
1930.650274
 11
445.123086
 21
1930.574711
  0
LINE
  8
CSLAYER1
  6
CONTINUOUS
 62
     7
 10
445.123086
 20
1930.574711
 11
445.620772
 21
1930.433549
  0
LINE
  8
CSLAYER1
  6
CONTINUOUS
 62
     7
 10
445.620772
 20
1930.433549
 11
446.124132
 21
1930.227863
  0
LINE
  8
CSLAYER1
  6
CONTINUOUS
 62
     7
 10
446.124132
 20
1930.227863
 11
446.629336
 21
1929.959216
  0
LINE
  8
CSLAYER1
  6
CONTINUOUS
 62
     7
 10
446.629336
 20
1929.959216
 11
447.132539
 21
1929.629654
  0
LINE
  8
CSLAYER1
  6
CONTINUOUS
 62
     7
 10
447.132539
 20
1929.629654
 11
447.629911
 21
1929.241686
  0
LINE
  8
CSLAYER1
  6
CONTINUOUS
 62
     7
 10
447.629911
 20
1929.241686
 11
448.117667
 21
1928.798263
  0
LINE
  8
CSLAYER1
  6
CONTINUOUS
 62
     7
 10
448.117667
 20
1928.798263
 11
448.592095
 21
1928.302761
  0
LINE
  8
CSLAYER1
  6
CONTINUOUS
 62
     7
 10
448.592095
 20
1928.302761
 11
449.049584
 21
1927.758950
  0
LINE
  8
CSLAYER1
  6
CONTINUOUS
 62
     7
 10
449.049584
 20
1927.758950
 11
449.486652
 21
1927.170969
  0
LINE
  8
CSLAYER1
  6
CONTINUOUS
 62
     7
 10
449.486652
 20
1927.170969
 11
449.899974
 21
1926.543294
  0
LINE
  8
CSLAYER1
  6
CONTINUOUS
 62
     7
 10
449.899974
 20
1926.543294
 11
450.286403
 21
1925.880701
  0
LINE
  8
CSLAYER1
  6
CONTINUOUS
 62
     7
 10
450.286403
 20
1925.880701
 11
450.642998
 21
1925.188233
  0
LINE
  8
CSLAYER1
  6
CONTINUOUS
 62
     7
 10
450.642998
 20
1925.188233
 11
450.967046
 21
1924.471159
  0
LINE
  8
CSLAYER1
  6
CONTINUOUS
 62
     7
 10
450.967046
 20
1924.471159
 11
451.256080
 21
1923.734938
  0
LINE
  8
CSLAYER1
  6
CONTINUOUS
 62
     7
 10
451.256080
 20
1923.734938
 11
451.507901
 21
1922.985173
  0
LINE
  8
CSLAYER1
  6
CONTINUOUS
 62
     7
 10
451.507901
 20
1922.985173
 11
451.720591
 21
1922.227569
  0
LINE
  8
CSLAYER1
  6
CONTINUOUS
 62
     7
 10
451.720591
 20
1922.227569
 11
451.892534
 21
1921.467892
  0
LINE
  8
CSLAYER1
  6
CONTINUOUS
 62
     7
 10
451.892534
 20
1921.467892
 11
452.022419
 21
1920.711925
  0
LINE
  8
CSLAYER1
  6
CONTINUOUS
 62
     7
 10
452.022419
 20
1920.711925
 11
452.109258
 21
1919.965420
  0
LINE
  8
CSLAYER1
  6
CONTINUOUS
 62
     7
 10
452.109258
 20
1919.965420
 11
452.152391
 21
1919.234059
  0
LINE
  8
CSLAYER1
  6
CONTINUOUS
 62
     7
 10
452.152391
 20
1919.234059
 11
452.151489
 21
1918.523407
  0
LINE
  8
CSLAYER1
  6
CONTINUOUS
 62
     7
 10
452.151489
 20
1918.523407
 11
452.106558
 21
1917.838874
  0
LINE
  8
CSLAYER1
  6
CONTINUOUS
 62
     7
 10
452.106558
 20
1917.838874
 11
452.017942
 21
1917.185669
  0
LINE
  8
CSLAYER1
  6
CONTINUOUS
 62
     7
 10
452.017942
 20
1917.185669
 11
451.886315
 21
1916.568763
  0
LINE
  8
CSLAYER1
  6
CONTINUOUS
 62
     7
 10
451.886315
 20
1916.568763
 11
451.712677
 21
1915.992851
  0
LINE
  8
CSLAYER1
  6
CONTINUOUS
 62
     7
 10
451.712677
 20
1915.992851
 11
451.498351
 21
1915.462317
  0
LINE
  8
CSLAYER1
  6
CONTINUOUS
 62
     7
 10
451.498351
 20
1915.462317
 11
451.244968
 21
1914.981198
  0
LINE
  8
CSLAYER1
  6
CONTINUOUS
 62
     7
 10
451.244968
 20
1914.981198
 11
450.954456
 21
1914.553156
  0
LINE
  8
CSLAYER1
  6
CONTINUOUS
 62
     7
 10
450.954456
 20
1914.553156
 11
450.629026
 21
1914.181448
  0
LINE
  8
CSLAYER1
  6
CONTINUOUS
 62
     7
 10
450.629026
 20
1914.181448
 11
450.271155
 21
1913.868903
  0
LINE
  8
CSLAYER1
  6
CONTINUOUS
 62
     7
 10
450.271155
 20
1913.868903
 11
449.883566
 21
1913.617901
  0
LINE
  8
CSLAYER1
  6
CONTINUOUS
 62
     7
 10
449.883566
 20
1913.617901
 11
449.469210
 21
1913.430350
  0
LINE
  8
CSLAYER1
  6
CONTINUOUS
 62
     7
 10
625.585015
 20
1817.505897
 11
625.914129
 21
1817.819823
  0
LINE
  8
CSLAYER1
  6
CONTINUOUS
 62
     7
 10
625.914129
 20
1817.819823
 11
626.292048
 21
1818.085162
  0
LINE
  8
CSLAYER1
  6
CONTINUOUS
 62
     7
 10
626.292048
 20
1818.085162
 11
626.715895
 21
1818.299893
  0
LINE
  8
CSLAYER1
  6
CONTINUOUS
 62
     7
 10
626.715895
 20
1818.299893
 11
627.182445
 21
1818.462382
  0
LINE
  8
CSLAYER1
  6
CONTINUOUS
 62
     7
 10
627.182445
 20
1818.462382
 11
627.688147
 21
1818.571393
  0
LINE
  8
CSLAYER1
  6
CONTINUOUS
 62
     7
 10
627.688147
 20
1818.571393
 11
628.229152
 21
1818.626095
  0
LINE
  8
CSLAYER1
  6
CONTINUOUS
 62
     7
 10
628.229152
 20
1818.626095
 11
628.801342
 21
1818.626073
  0
LINE
  8
CSLAYER1
  6
CONTINUOUS
 62
     7
 10
628.801342
 20
1818.626073
 11
629.400364
 21
1818.571327
  0
LINE
  8
CSLAYER1
  6
CONTINUOUS
 62
     7
 10
629.400364
 20
1818.571327
 11
630.021657
 21
1818.462273
  0
LINE
  8
CSLAYER1
  6
CONTINUOUS
 62
     7
 10
630.021657
 20
1818.462273
 11
630.660495
 21
1818.299742
  0
LINE
  8
CSLAYER1
  6
CONTINUOUS
 62
     7
 10
630.660495
 20
1818.299742
 11
631.312014
 21
1818.084970
  0
LINE
  8
CSLAYER1
  6
CONTINUOUS
 62
     7
 10
631.312014
 20
1818.084970
 11
631.971257
 21
1817.819591
  0
LINE
  8
CSLAYER1
  6
CONTINUOUS
 62
     7
 10
631.971257
 20
1817.819591
 11
632.633205
 21
1817.505626
  0
LINE
  8
CSLAYER1
  6
CONTINUOUS
 62
     7
 10
632.633205
 20
1817.505626
 11
633.292822
 21
1817.145465
  0
LINE
  8
CSLAYER1
  6
CONTINUOUS
 62
     7
 10
633.292822
 20
1817.145465
 11
633.945087
 21
1816.741847
  0
LINE
  8
CSLAYER1
  6
CONTINUOUS
 62
     7
 10
633.945087
 20
1816.741847
 11
634.585036
 21
1816.297845
  0
LINE
  8
CSLAYER1
  6
CONTINUOUS
 62
     7
 10
634.585036
 20
1816.297845
 11
635.207799
 21
1815.816838
  0
LINE
  8
CSLAYER1
  6
CONTINUOUS
 62
     7
 10
635.207799
 20
1815.816838
 11
635.808636
 21
1815.302487
  0
LINE
  8
CSLAYER1
  6
CONTINUOUS
 62
     7
 10
635.808636
 20
1815.302487
 11
636.382974
 21
1814.758706
  0
LINE
  8
CSLAYER1
  6
CONTINUOUS
 62
     7
 10
636.382974
 20
1814.758706
 11
636.926442
 21
1814.189634
  0
LINE
  8
CSLAYER1
  6
CONTINUOUS
 62
     7
 10
636.926442
 20
1814.189634
 11
637.434905
 21
1813.599601
  0
LINE
  8
CSLAYER1
  6
CONTINUOUS
 62
     7
 10
637.434905
 20
1813.599601
 11
637.904492
 21
1812.993099
  0
LINE
  8
CSLAYER1
  6
CONTINUOUS
 62
     7
 10
637.904492
 20
1812.993099
 11
638.331629
 21
1812.374743
  0
LINE
  8
CSLAYER1
  6
CONTINUOUS
 62
     7
 10
638.331629
 20
1812.374743
 11
638.713067
 21
1811.749238
  0
LINE
  8
CSLAYER1
  6
CONTINUOUS
 62
     7
 10
638.713067
 20
1811.749238
 11
639.045901
 21
1811.121347
  0
LINE
  8
CSLAYER1
  6
CONTINUOUS
 62
     7
 10
639.045901
 20
1811.121347
 11
639.327599
 21
1810.495847
  0
LINE
  8
CSLAYER1
  6
CONTINUOUS
 62
     7
 10
639.327599
 20
1810.495847
 11
639.556016
 21
1809.877498
  0
LINE
  8
CSLAYER1
  6
CONTINUOUS
 62
     7
 10
639.556016
 20
1809.877498
 11
639.729416
 21
1809.271007
  0
LINE
  8
CSLAYER1
  6
CONTINUOUS
 62
     7
 10
639.729416
 20
1809.271007
 11
639.846477
 21
1808.680989
  0
LINE
  8
CSLAYER1
  6
CONTINUOUS
 62
     7
 10
639.846477
 20
1808.680989
 11
639.906309
 21
1808.111936
  0
LINE
  8
CSLAYER1
  6
CONTINUOUS
 62
     7
 10
639.906309
 20
1808.111936
 11
639.908456
 21
1807.568176
  0
LINE
  8
CSLAYER1
  6
CONTINUOUS
 62
     7
 10
639.908456
 20
1807.568176
 11
639.852903
 21
1807.053850
  0
LINE
  8
CSLAYER1
  6
CONTINUOUS
 62
     7
 10
639.852903
 20
1807.053850
 11
639.740072
 21
1806.572872
  0
LINE
  8
CSLAYER1
  6
CONTINUOUS
 62
     7
 10
639.740072
 20
1806.572872
 11
639.570821
 21
1806.128901
  0
LINE
  8
CSLAYER1
  6
CONTINUOUS
 62
     7
 10
639.570821
 20
1806.128901
 11
639.346440
 21
1805.725317
  0
LINE
  8
CSLAYER1
  6
CONTINUOUS
 62
     7
 10
639.346440
 20
1805.725317
 11
639.068634
 21
1805.365191
  0
LINE
  8
CSLAYER1
  6
CONTINUOUS
 62
     7
 10
639.068634
 20
1805.365191
 11
638.739520
 21
1805.051264
  0
LINE
  8
CSLAYER1
  6
CONTINUOUS
 62
     7
 10
638.739520
 20
1805.051264
 11
638.361601
 21
1804.785926
  0
LINE
  8
CSLAYER1
  6
CONTINUOUS
 62
     7
 10
638.361601
 20
1804.785926
 11
637.937754
 21
1804.571195
  0
LINE
  8
CSLAYER1
  6
CONTINUOUS
 62
     7
 10
637.937754
 20
1804.571195
 11
637.471204
 21
1804.408705
  0
LINE
  8
CSLAYER1
  6
CONTINUOUS
 62
     7
 10
637.471204
 20
1804.408705
 11
636.965502
 21
1804.299695
  0
LINE
  8
CSLAYER1
  6
CONTINUOUS
 62
     7
 10
636.965502
 20
1804.299695
 11
636.424497
 21
1804.244992
  0
LINE
  8
CSLAYER1
  6
CONTINUOUS
 62
     7
 10
636.424497
 20
1804.244992
 11
635.852307
 21
1804.245014
  0
LINE
  8
CSLAYER1
  6
CONTINUOUS
 62
     7
 10
635.852307
 20
1804.245014
 11
635.253285
 21
1804.299760
  0
LINE
  8
CSLAYER1
  6
CONTINUOUS
 62
     7
 10
635.253285
 20
1804.299760
 11
634.631992
 21
1804.408814
  0
LINE
  8
CSLAYER1
  6
CONTINUOUS
 62
     7
 10
634.631992
 20
1804.408814
 11
633.993154
 21
1804.571346
  0
LINE
  8
CSLAYER1
  6
CONTINUOUS
 62
     7
 10
633.993154
 20
1804.571346
 11
633.341635
 21
1804.786118
  0
LINE
  8
CSLAYER1
  6
CONTINUOUS
 62
     7
 10
633.341635
 20
1804.786118
 11
632.682392
 21
1805.051496
  0
LINE
  8
CSLAYER1
  6
CONTINUOUS
 62
     7
 10
632.682392
 20
1805.051496
 11
632.020444
 21
1805.365461
  0
LINE
  8
CSLAYER1
  6
CONTINUOUS
 62
     7
 10
632.020444
 20
1805.365461
 11
631.360827
 21
1805.725623
  0
LINE
  8
CSLAYER1
  6
CONTINUOUS
 62
     7
 10
631.360827
 20
1805.725623
 11
630.708562
 21
1806.129240
  0
LINE
  8
CSLAYER1
  6
CONTINUOUS
 62
     7
 10
630.708562
 20
1806.129240
 11
630.068613
 21
1806.573242
  0
LINE
  8
CSLAYER1
  6
CONTINUOUS
 62
     7
 10
630.068613
 20
1806.573242
 11
629.445850
 21
1807.054249
  0
LINE
  8
CSLAYER1
  6
CONTINUOUS
 62
     7
 10
629.445850
 20
1807.054249
 11
628.845013
 21
1807.568600
  0
LINE
  8
CSLAYER1
  6
CONTINUOUS
 62
     7
 10
628.845013
 20
1807.568600
 11
628.270675
 21
1808.112381
  0
LINE
  8
CSLAYER1
  6
CONTINUOUS
 62
     7
 10
628.270675
 20
1808.112381
 11
627.727207
 21
1808.681454
  0
LINE
  8
CSLAYER1
  6
CONTINUOUS
 62
     7
 10
627.727207
 20
1808.681454
 11
627.218744
 21
1809.271486
  0
LINE
  8
CSLAYER1
  6
CONTINUOUS
 62
     7
 10
627.218744
 20
1809.271486
 11
626.749157
 21
1809.877989
  0
LINE
  8
CSLAYER1
  6
CONTINUOUS
 62
     7
 10
626.749157
 20
1809.877989
 11
626.322020
 21
1810.496345
  0
LINE
  8
CSLAYER1
  6
CONTINUOUS
 62
     7
 10
626.322020
 20
1810.496345
 11
625.940582
 21
1811.121849
  0
LINE
  8
CSLAYER1
  6
CONTINUOUS
 62
     7
 10
625.940582
 20
1811.121849
 11
625.607748
 21
1811.749741
  0
LINE
  8
CSLAYER1
  6
CONTINUOUS
 62
     7
 10
625.607748
 20
1811.749741
 11
625.326050
 21
1812.375241
  0
LINE
  8
CSLAYER1
  6
CONTINUOUS
 62
     7
 10
625.326050
 20
1812.375241
 11
625.097633
 21
1812.993590
  0
LINE
  8
CSLAYER1
  6
CONTINUOUS
 62
     7
 10
625.097633
 20
1812.993590
 11
624.924233
 21
1813.600081
  0
LINE
  8
CSLAYER1
  6
CONTINUOUS
 62
     7
 10
624.924233
 20
1813.600081
 11
624.807172
 21
1814.190098
  0
LINE
  8
CSLAYER1
  6
CONTINUOUS
 62
     7
 10
624.807172
 20
1814.190098
 11
624.747340
 21
1814.759152
  0
LINE
  8
CSLAYER1
  6
CONTINUOUS
 62
     7
 10
624.747340
 20
1814.759152
 11
624.745193
 21
1815.302911
  0
LINE
  8
CSLAYER1
  6
CONTINUOUS
 62
     7
 10
624.745193
 20
1815.302911
 11
624.800746
 21
1815.817237
  0
LINE
  8
CSLAYER1
  6
CONTINUOUS
 62
     7
 10
624.800746
 20
1815.817237
 11
624.913577
 21
1816.298216
  0
LINE
  8
CSLAYER1
  6
CONTINUOUS
 62
     7
 10
624.913577
 20
1816.298216
 11
625.082828
 21
1816.742187
  0
LINE
  8
CSLAYER1
  6
CONTINUOUS
 62
     7
 10
625.082828
 20
1816.742187
 11
625.307209
 21
1817.145771
  0
LINE
  8
CSLAYER1
  6
CONTINUOUS
 62
     7
 10
625.307209
 20
1817.145771
 11
625.585015
 21
1817.505897
  0
LINE
  8
CSLAYER1
  6
CONTINUOUS
 62
     7
 10
639.068634
 20
1805.365191
 11
669.055704
 21
1838.760549
  0
LINE
  8
CSLAYER1
  6
CONTINUOUS
 62
     7
 10
625.585015
 20
1817.505897
 11
655.572084
 21
1850.901255
  0
LINE
  8
CSLAYER1
  6
CONTINUOUS
 62
     7
 10
655.572084
 20
1850.901255
 11
655.901198
 21
1851.215182
  0
LINE
  8
CSLAYER1
  6
CONTINUOUS
 62
     7
 10
655.901198
 20
1851.215182
 11
656.279117
 21
1851.480520
  0
LINE
  8
CSLAYER1
  6
CONTINUOUS
 62
     7
 10
656.279117
 20
1851.480520
 11
656.702965
 21
1851.695251
  0
LINE
  8
CSLAYER1
  6
CONTINUOUS
 62
     7
 10
656.702965
 20
1851.695251
 11
657.169514
 21
1851.857740
  0
LINE
  8
CSLAYER1
  6
CONTINUOUS
 62
     7
 10
657.169514
 20
1851.857740
 11
657.675216
 21
1851.966751
  0
LINE
  8
CSLAYER1
  6
CONTINUOUS
 62
     7
 10
657.675216
 20
1851.966751
 11
658.216221
 21
1852.021454
  0
LINE
  8
CSLAYER1
  6
CONTINUOUS
 62
     7
 10
658.216221
 20
1852.021454
 11
658.788411
 21
1852.021432
  0
LINE
  8
CSLAYER1
  6
CONTINUOUS
 62
     7
 10
658.788411
 20
1852.021432
 11
659.387433
 21
1851.966685
  0
LINE
  8
CSLAYER1
  6
CONTINUOUS
 62
     7
 10
659.387433
 20
1851.966685
 11
660.008727
 21
1851.857632
  0
LINE
  8
CSLAYER1
  6
CONTINUOUS
 62
     7
 10
660.008727
 20
1851.857632
 11
660.647564
 21
1851.695100
  0
LINE
  8
CSLAYER1
  6
CONTINUOUS
 62
     7
 10
660.647564
 20
1851.695100
 11
661.299083
 21
1851.480328
  0
LINE
  8
CSLAYER1
  6
CONTINUOUS
 62
     7
 10
661.299083
 20
1851.480328
 11
661.958326
 21
1851.214950
  0
LINE
  8
CSLAYER1
  6
CONTINUOUS
 62
     7
 10
661.958326
 20
1851.214950
 11
662.620275
 21
1850.900985
  0
LINE
  8
CSLAYER1
  6
CONTINUOUS
 62
     7
 10
662.620275
 20
1850.900985
 11
663.279891
 21
1850.540823
  0
LINE
  8
CSLAYER1
  6
CONTINUOUS
 62
     7
 10
663.279891
 20
1850.540823
 11
663.932157
 21
1850.137205
  0
LINE
  8
CSLAYER1
  6
CONTINUOUS
 62
     7
 10
663.932157
 20
1850.137205
 11
664.572106
 21
1849.693204
  0
LINE
  8
CSLAYER1
  6
CONTINUOUS
 62
     7
 10
664.572106
 20
1849.693204
 11
665.194868
 21
1849.212197
  0
LINE
  8
CSLAYER1
  6
CONTINUOUS
 62
     7
 10
665.194868
 20
1849.212197
 11
665.795705
 21
1848.697845
  0
LINE
  8
CSLAYER1
  6
CONTINUOUS
 62
     7
 10
665.795705
 20
1848.697845
 11
666.370043
 21
1848.154064
  0
LINE
  8
CSLAYER1
  6
CONTINUOUS
 62
     7
 10
666.370043
 20
1848.154064
 11
666.913512
 21
1847.584992
  0
LINE
  8
CSLAYER1
  6
CONTINUOUS
 62
     7
 10
666.913512
 20
1847.584992
 11
667.421974
 21
1846.994960
  0
LINE
  8
CSLAYER1
  6
CONTINUOUS
 62
     7
 10
667.421974
 20
1846.994960
 11
667.891561
 21
1846.388457
  0
LINE
  8
CSLAYER1
  6
CONTINUOUS
 62
     7
 10
667.891561
 20
1846.388457
 11
668.318698
 21
1845.770101
  0
LINE
  8
CSLAYER1
  6
CONTINUOUS
 62
     7
 10
668.318698
 20
1845.770101
 11
668.700136
 21
1845.144597
  0
LINE
  8
CSLAYER1
  6
CONTINUOUS
 62
     7
 10
668.700136
 20
1845.144597
 11
669.032970
 21
1844.516705
  0
LINE
  8
CSLAYER1
  6
CONTINUOUS
 62
     7
 10
669.032970
 20
1844.516705
 11
669.314668
 21
1843.891205
  0
LINE
  8
CSLAYER1
  6
CONTINUOUS
 62
     7
 10
669.314668
 20
1843.891205
 11
669.543086
 21
1843.272856
  0
LINE
  8
CSLAYER1
  6
CONTINUOUS
 62
     7
 10
669.543086
 20
1843.272856
 11
669.716485
 21
1842.666365
  0
LINE
  8
CSLAYER1
  6
CONTINUOUS
 62
     7
 10
669.716485
 20
1842.666365
 11
669.833546
 21
1842.076348
  0
LINE
  8
CSLAYER1
  6
CONTINUOUS
 62
     7
 10
669.833546
 20
1842.076348
 11
669.893378
 21
1841.507294
  0
LINE
  8
CSLAYER1
  6
CONTINUOUS
 62
     7
 10
669.893378
 20
1841.507294
 11
669.895526
 21
1840.963535
  0
LINE
  8
CSLAYER1
  6
CONTINUOUS
 62
     7
 10
669.895526
 20
1840.963535
 11
669.839972
 21
1840.449209
  0
LINE
  8
CSLAYER1
  6
CONTINUOUS
 62
     7
 10
669.839972
 20
1840.449209
 11
669.727141
 21
1839.968230
  0
LINE
  8
CSLAYER1
  6
CONTINUOUS
 62
     7
 10
669.727141
 20
1839.968230
 11
669.557891
 21
1839.524259
  0
LINE
  8
CSLAYER1
  6
CONTINUOUS
 62
     7
 10
669.557891
 20
1839.524259
 11
669.333509
 21
1839.120675
  0
LINE
  8
CSLAYER1
  6
CONTINUOUS
 62
     7
 10
669.333509
 20
1839.120675
 11
669.055704
 21
1838.760549
  0
LINE
  8
CSLAYER1
  6
CONTINUOUS
 62
     7
 10
749.978106
 20
1972.512203
 11
749.978106
 21
1954.212868
  0
LINE
  8
CSLAYER1
  6
CONTINUOUS
 62
     7
 10
749.978106
 20
1954.212868
 11
749.978106
 21
1948.308636
  0
LINE
  8
CSLAYER1
  6
CONTINUOUS
 62
     7
 10
780.493237
 20
2025.867590
 11
780.493237
 21
2005.516388
  0
LINE
  8
CSLAYER1
  6
CONTINUOUS
 62
     7
 10
780.493237
 20
1987.980199
 11
780.493237
 21
1965.378443
  0
LINE
  8
CSLAYER1
  6
CONTINUOUS
 62
     7
 10
792.078105
 20
2018.708223
 11
794.913006
 21
2016.155864
  0
LINE
  8
CSLAYER1
  6
CONTINUOUS
 62
     7
 10
794.913006
 20
2016.155864
 11
797.349284
 21
2013.471499
  0
LINE
  8
CSLAYER1
  6
CONTINUOUS
 62
     7
 10
797.349284
 20
2013.471499
 11
799.368399
 21
2010.675558
  0
LINE
  8
CSLAYER1
  6
CONTINUOUS
 62
     7
 10
799.368399
 20
2010.675558
 11
800.954983
 21
2007.789320
  0
LINE
  8
CSLAYER1
  6
CONTINUOUS
 62
     7
 10
800.954983
 20
2007.789320
 11
802.096962
 21
2004.834751
  0
LINE
  8
CSLAYER1
  6
CONTINUOUS
 62
     7
 10
802.096962
 20
2004.834751
 11
802.785645
 21
2001.834337
  0
LINE
  8
CSLAYER1
  6
CONTINUOUS
 62
     7
 10
802.785645
 20
2001.834337
 11
803.015789
 21
1998.810912
  0
LINE
  8
CSLAYER1
  6
CONTINUOUS
 62
     7
 10
803.015789
 20
1998.810912
 11
802.785645
 21
1995.787488
  0
LINE
  8
CSLAYER1
  6
CONTINUOUS
 62
     7
 10
802.785645
 20
1995.787488
 11
802.096962
 21
1992.787074
  0
LINE
  8
CSLAYER1
  6
CONTINUOUS
 62
     7
 10
802.096962
 20
1992.787074
 11
800.954983
 21
1989.832505
  0
LINE
  8
CSLAYER1
  6
CONTINUOUS
 62
     7
 10
800.954983
 20
1989.832505
 11
799.368399
 21
1986.946267
  0
LINE
  8
CSLAYER1
  6
CONTINUOUS
 62
     7
 10
799.368399
 20
1986.946267
 11
797.349284
 21
1984.150326
  0
LINE
  8
CSLAYER1
  6
CONTINUOUS
 62
     7
 10
797.349284
 20
1984.150326
 11
794.913006
 21
1981.465961
  0
LINE
  8
CSLAYER1
  6
CONTINUOUS
 62
     7
 10
780.493237
 20
2025.867590
 11
785.301607
 21
2023.340378
  0
LINE
  8
CSLAYER1
  6
CONTINUOUS
 62
     7
 10
785.301607
 20
2023.340378
 11
788.866157
 21
2021.109152
  0
LINE
  8
CSLAYER1
  6
CONTINUOUS
 62
     7
 10
788.866157
 20
2021.109152
 11
792.078105
 21
2018.708223
  0
LINE
  8
CSLAYER1
  6
CONTINUOUS
 62
     7
 10
783.712197
 20
2001.567695
 11
783.965895
 21
2000.462401
  0
LINE
  8
CSLAYER1
  6
CONTINUOUS
 62
     7
 10
783.965895
 20
2000.462401
 11
784.139782
 21
1998.178036
  0
LINE
  8
CSLAYER1
  6
CONTINUOUS
 62
     7
 10
784.139782
 20
1998.178036
 11
783.965895
 21
1995.893671
  0
LINE
  8
CSLAYER1
  6
CONTINUOUS
 62
     7
 10
783.965895
 20
1995.893671
 11
783.445557
 21
1993.626692
  0
LINE
  8
CSLAYER1
  6
CONTINUOUS
 62
     7
 10
783.445557
 20
1993.626692
 11
782.582728
 21
1991.394351
  0
LINE
  8
CSLAYER1
  6
CONTINUOUS
 62
     7
 10
782.582728
 20
1991.394351
 11
781.383976
 21
1989.213637
  0
LINE
  8
CSLAYER1
  6
CONTINUOUS
 62
     7
 10
781.383976
 20
1989.213637
 11
780.493237
 21
1987.980199
  0
LINE
  8
CSLAYER1
  6
CONTINUOUS
 62
     7
 10
780.493237
 20
2005.524963
 11
780.450681
 21
2005.563277
  0
LINE
  8
CSLAYER1
  6
CONTINUOUS
 62
     7
 10
780.450681
 20
2005.563277
 11
782.291424
 21
2003.535090
  0
LINE
  8
CSLAYER1
  6
CONTINUOUS
 62
     7
 10
782.291424
 20
2003.535090
 11
783.816978
 21
2001.422602
  0
LINE
  8
CSLAYER1
  6
CONTINUOUS
 62
     7
 10
780.493237
 20
2005.516388
 11
780.493237
 21
1987.980199
  0
LINE
  8
CSLAYER1
  6
CONTINUOUS
 62
     7
 10
598.861870
 20
2025.736483
 11
542.029261
 21
2046.421861
  0
LINE
  8
CSLAYER1
  6
CONTINUOUS
 62
     7
 10
607.740342
 20
2036.807533
 11
550.907733
 21
2057.492911
  0
LINE
  8
CSLAYER1
  6
CONTINUOUS
 62
     7
 10
604.684439
 20
2036.489536
 11
547.894434
 21
2057.159407
  0
LINE
  8
CSLAYER1
  6
CONTINUOUS
 62
     7
 10
603.348221
 20
2035.545624
 11
546.515611
 21
2056.231003
  0
LINE
  8
CSLAYER1
  6
CONTINUOUS
 62
     7
 10
602.299792
 20
2034.496966
 11
545.467182
 21
2055.182345
  0
LINE
  8
CSLAYER1
  6
CONTINUOUS
 62
     7
 10
601.439282
 20
2033.379911
 11
544.606673
 21
2054.065290
  0
LINE
  8
CSLAYER1
  6
CONTINUOUS
 62
     7
 10
600.719379
 20
2032.211680
 11
543.886971
 21
2052.896985
  0
LINE
  8
CSLAYER1
  6
CONTINUOUS
 62
     7
 10
600.126643
 20
2030.997163
 11
543.294033
 21
2051.682542
  0
LINE
  8
CSLAYER1
  6
CONTINUOUS
 62
     7
 10
599.640847
 20
2029.743724
 11
542.808237
 21
2050.429102
  0
LINE
  8
CSLAYER1
  6
CONTINUOUS
 62
     7
 10
599.254977
 20
2028.453914
 11
542.427447
 21
2049.137443
  0
LINE
  8
CSLAYER1
  6
CONTINUOUS
 62
     7
 10
544.702119
 20
2040.443128
 11
544.287763
 21
2040.630679
  0
LINE
  8
CSLAYER1
  6
CONTINUOUS
 62
     7
 10
544.287763
 20
2040.630679
 11
543.900174
 21
2040.881681
  0
LINE
  8
CSLAYER1
  6
CONTINUOUS
 62
     7
 10
543.900174
 20
2040.881681
 11
543.542303
 21
2041.194226
  0
LINE
  8
CSLAYER1
  6
CONTINUOUS
 62
     7
 10
543.542303
 20
2041.194226
 11
543.216873
 21
2041.565934
  0
LINE
  8
CSLAYER1
  6
CONTINUOUS
 62
     7
 10
543.216873
 20
2041.565934
 11
542.926361
 21
2041.993976
  0
LINE
  8
CSLAYER1
  6
CONTINUOUS
 62
     7
 10
542.926361
 20
2041.993976
 11
542.672978
 21
2042.475095
  0
LINE
  8
CSLAYER1
  6
CONTINUOUS
 62
     7
 10
542.672978
 20
2042.475095
 11
542.458652
 21
2043.005629
  0
LINE
  8
CSLAYER1
  6
CONTINUOUS
 62
     7
 10
542.458652
 20
2043.005629
 11
542.285014
 21
2043.581541
  0
LINE
  8
CSLAYER1
  6
CONTINUOUS
 62
     7
 10
542.285014
 20
2043.581541
 11
542.153387
 21
2044.198447
  0
LINE
  8
CSLAYER1
  6
CONTINUOUS
 62
     7
 10
542.153387
 20
2044.198447
 11
542.064770
 21
2044.851652
  0
LINE
  8
CSLAYER1
  6
CONTINUOUS
 62
     7
 10
542.064770
 20
2044.851652
 11
542.019840
 21
2045.536185
  0
LINE
  8
CSLAYER1
  6
CONTINUOUS
 62
     7
 10
542.019840
 20
2045.536185
 11
542.018938
 21
2046.246837
  0
LINE
  8
CSLAYER1
  6
CONTINUOUS
 62
     7
 10
542.018938
 20
2046.246837
 11
542.062071
 21
2046.978198
  0
LINE
  8
CSLAYER1
  6
CONTINUOUS
 62
     7
 10
542.062071
 20
2046.978198
 11
542.148910
 21
2047.724703
  0
LINE
  8
CSLAYER1
  6
CONTINUOUS
 62
     7
 10
542.148910
 20
2047.724703
 11
542.278795
 21
2048.480670
  0
LINE
  8
CSLAYER1
  6
CONTINUOUS
 62
     7
 10
542.278795
 20
2048.480670
 11
542.450738
 21
2049.240347
  0
LINE
  8
CSLAYER1
  6
CONTINUOUS
 62
     7
 10
542.450738
 20
2049.240347
 11
542.663428
 21
2049.997951
  0
LINE
  8
CSLAYER1
  6
CONTINUOUS
 62
     7
 10
542.663428
 20
2049.997951
 11
542.915249
 21
2050.747716
  0
LINE
  8
CSLAYER1
  6
CONTINUOUS
 62
     7
 10
542.915249
 20
2050.747716
 11
543.204283
 21
2051.483937
  0
LINE
  8
CSLAYER1
  6
CONTINUOUS
 62
     7
 10
543.204283
 20
2051.483937
 11
543.528331
 21
2052.201011
  0
LINE
  8
CSLAYER1
  6
CONTINUOUS
 62
     7
 10
543.528331
 20
2052.201011
 11
543.884926
 21
2052.893479
  0
LINE
  8
CSLAYER1
  6
CONTINUOUS
 62
     7
 10
543.884926
 20
2052.893479
 11
544.271355
 21
2053.556072
  0
LINE
  8
CSLAYER1
  6
CONTINUOUS
 62
     7
 10
544.271355
 20
2053.556072
 11
544.684677
 21
2054.183747
  0
LINE
  8
CSLAYER1
  6
CONTINUOUS
 62
     7
 10
544.684677
 20
2054.183747
 11
545.121745
 21
2054.771728
  0
LINE
  8
CSLAYER1
  6
CONTINUOUS
 62
     7
 10
545.121745
 20
2054.771728
 11
545.579234
 21
2055.315539
  0
LINE
  8
CSLAYER1
  6
CONTINUOUS
 62
     7
 10
545.579234
 20
2055.315539
 11
546.053662
 21
2055.811041
  0
LINE
  8
CSLAYER1
  6
CONTINUOUS
 62
     7
 10
546.053662
 20
2055.811041
 11
546.541418
 21
2056.254464
  0
LINE
  8
CSLAYER1
  6
CONTINUOUS
 62
     7
 10
546.541418
 20
2056.254464
 11
547.038790
 21
2056.642432
  0
LINE
  8
CSLAYER1
  6
CONTINUOUS
 62
     7
 10
547.038790
 20
2056.642432
 11
547.541993
 21
2056.971994
  0
LINE
  8
CSLAYER1
  6
CONTINUOUS
 62
     7
 10
547.541993
 20
2056.971994
 11
548.047197
 21
2057.240641
  0
LINE
  8
CSLAYER1
  6
CONTINUOUS
 62
     7
 10
548.047197
 20
2057.240641
 11
548.550557
 21
2057.446327
  0
LINE
  8
CSLAYER1
  6
CONTINUOUS
 62
     7
 10
548.550557
 20
2057.446327
 11
549.048243
 21
2057.587489
  0
LINE
  8
CSLAYER1
  6
CONTINUOUS
 62
     7
 10
549.048243
 20
2057.587489
 11
549.536466
 21
2057.663052
  0
LINE
  8
CSLAYER1
  6
CONTINUOUS
 62
     7
 10
549.536466
 20
2057.663052
 11
550.011511
 21
2057.672440
  0
LINE
  8
CSLAYER1
  6
CONTINUOUS
 62
     7
 10
550.011511
 20
2057.672440
 11
550.469762
 21
2057.615582
  0
LINE
  8
CSLAYER1
  6
CONTINUOUS
 62
     7
 10
550.469762
 20
2057.615582
 11
550.907733
 21
2057.492911
  0
LINE
  8
CSLAYER1
  6
CONTINUOUS
 62
     7
 10
598.995081
 20
2027.118253
 11
542.158270
 21
2047.805161
  0
LINE
  8
CSLAYER1
  6
CONTINUOUS
 62
     7
 10
598.888838
 20
2024.296413
 11
542.056229
 21
2044.981791
  0
LINE
  8
CSLAYER1
  6
CONTINUOUS
 62
     7
 10
599.143829
 20
2022.773349
 11
542.323377
 21
2043.454302
  0
LINE
  8
CSLAYER1
  6
CONTINUOUS
 62
     7
 10
599.882373
 20
2021.074286
 11
543.097077
 21
2041.742443
  0
LINE
  8
CSLAYER1
  6
CONTINUOUS
 62
     7
 10
601.534729
 20
2019.757750
 11
544.702119
 21
2040.443128
  0
LINE
  8
CSLAYER1
  6
CONTINUOUS
 62
     7
 10
675.272403
 20
1997.272756
 11
658.112110
 21
1999.181511
  0
LINE
  8
CSLAYER1
  6
CONTINUOUS
 62
     7
 10
607.740342
 20
2036.807533
 11
608.154699
 21
2036.619982
  0
LINE
  8
CSLAYER1
  6
CONTINUOUS
 62
     7
 10
608.154699
 20
2036.619982
 11
608.542287
 21
2036.368979
  0
LINE
  8
CSLAYER1
  6
CONTINUOUS
 62
     7
 10
608.542287
 20
2036.368979
 11
608.900158
 21
2036.056435
  0
LINE
  8
CSLAYER1
  6
CONTINUOUS
 62
     7
 10
608.900158
 20
2036.056435
 11
609.225588
 21
2035.684727
  0
LINE
  8
CSLAYER1
  6
CONTINUOUS
 62
     7
 10
609.225588
 20
2035.684727
 11
609.516100
 21
2035.256684
  0
LINE
  8
CSLAYER1
  6
CONTINUOUS
 62
     7
 10
609.516100
 20
2035.256684
 11
609.769484
 21
2034.775565
  0
LINE
  8
CSLAYER1
  6
CONTINUOUS
 62
     7
 10
609.769484
 20
2034.775565
 11
609.983810
 21
2034.245031
  0
LINE
  8
CSLAYER1
  6
CONTINUOUS
 62
     7
 10
609.983810
 20
2034.245031
 11
610.157447
 21
2033.669120
  0
LINE
  8
CSLAYER1
  6
CONTINUOUS
 62
     7
 10
610.157447
 20
2033.669120
 11
610.265616
 21
2033.162162
  0
LINE
  8
CSLAYER1
  6
CONTINUOUS
 62
     7
 10
605.165807
 20
2020.452444
 11
604.900469
 21
2020.278667
  0
LINE
  8
CSLAYER1
  6
CONTINUOUS
 62
     7
 10
604.900469
 20
2020.278667
 11
604.395265
 21
2020.010020
  0
LINE
  8
CSLAYER1
  6
CONTINUOUS
 62
     7
 10
604.395265
 20
2020.010020
 11
603.891905
 21
2019.804333
  0
LINE
  8
CSLAYER1
  6
CONTINUOUS
 62
     7
 10
603.891905
 20
2019.804333
 11
603.394219
 21
2019.663172
  0
LINE
  8
CSLAYER1
  6
CONTINUOUS
 62
     7
 10
603.394219
 20
2019.663172
 11
602.905996
 21
2019.587609
  0
LINE
  8
CSLAYER1
  6
CONTINUOUS
 62
     7
 10
602.905996
 20
2019.587609
 11
602.430951
 21
2019.578221
  0
LINE
  8
CSLAYER1
  6
CONTINUOUS
 62
     7
 10
602.430951
 20
2019.578221
 11
601.972700
 21
2019.635079
  0
LINE
  8
CSLAYER1
  6
CONTINUOUS
 62
     7
 10
601.972700
 20
2019.635079
 11
601.534729
 21
2019.757750
  0
LINE
  8
CSLAYER1
  6
CONTINUOUS
 62
     7
 10
601.534729
 20
2019.757750
 11
601.120373
 21
2019.945300
  0
LINE
  8
CSLAYER1
  6
CONTINUOUS
 62
     7
 10
601.120373
 20
2019.945300
 11
600.732784
 21
2020.196303
  0
LINE
  8
CSLAYER1
  6
CONTINUOUS
 62
     7
 10
600.732784
 20
2020.196303
 11
600.374913
 21
2020.508848
  0
LINE
  8
CSLAYER1
  6
CONTINUOUS
 62
     7
 10
600.374913
 20
2020.508848
 11
600.049483
 21
2020.880556
  0
LINE
  8
CSLAYER1
  6
CONTINUOUS
 62
     7
 10
600.049483
 20
2020.880556
 11
599.758971
 21
2021.308598
  0
LINE
  8
CSLAYER1
  6
CONTINUOUS
 62
     7
 10
599.758971
 20
2021.308598
 11
599.505588
 21
2021.789717
  0
LINE
  8
CSLAYER1
  6
CONTINUOUS
 62
     7
 10
599.505588
 20
2021.789717
 11
599.291262
 21
2022.320251
  0
LINE
  8
CSLAYER1
  6
CONTINUOUS
 62
     7
 10
599.291262
 20
2022.320251
 11
599.117624
 21
2022.896163
  0
LINE
  8
CSLAYER1
  6
CONTINUOUS
 62
     7
 10
599.117624
 20
2022.896163
 11
598.985996
 21
2023.513068
  0
LINE
  8
CSLAYER1
  6
CONTINUOUS
 62
     7
 10
598.985996
 20
2023.513068
 11
598.897380
 21
2024.166274
  0
LINE
  8
CSLAYER1
  6
CONTINUOUS
 62
     7
 10
598.897380
 20
2024.166274
 11
598.852450
 21
2024.850807
  0
LINE
  8
CSLAYER1
  6
CONTINUOUS
 62
     7
 10
598.852450
 20
2024.850807
 11
598.851548
 21
2025.561458
  0
LINE
  8
CSLAYER1
  6
CONTINUOUS
 62
     7
 10
598.851548
 20
2025.561458
 11
598.894681
 21
2026.292820
  0
LINE
  8
CSLAYER1
  6
CONTINUOUS
 62
     7
 10
598.894681
 20
2026.292820
 11
598.981520
 21
2027.039325
  0
LINE
  8
CSLAYER1
  6
CONTINUOUS
 62
     7
 10
598.981520
 20
2027.039325
 11
599.111405
 21
2027.795292
  0
LINE
  8
CSLAYER1
  6
CONTINUOUS
 62
     7
 10
599.111405
 20
2027.795292
 11
599.283347
 21
2028.554969
  0
LINE
  8
CSLAYER1
  6
CONTINUOUS
 62
     7
 10
599.283347
 20
2028.554969
 11
599.496038
 21
2029.312573
  0
LINE
  8
CSLAYER1
  6
CONTINUOUS
 62
     7
 10
599.496038
 20
2029.312573
 11
599.747859
 21
2030.062338
  0
LINE
  8
CSLAYER1
  6
CONTINUOUS
 62
     7
 10
599.747859
 20
2030.062338
 11
600.036893
 21
2030.798559
  0
LINE
  8
CSLAYER1
  6
CONTINUOUS
 62
     7
 10
600.036893
 20
2030.798559
 11
600.360941
 21
2031.515632
  0
LINE
  8
CSLAYER1
  6
CONTINUOUS
 62
     7
 10
600.360941
 20
2031.515632
 11
600.717536
 21
2032.208101
  0
LINE
  8
CSLAYER1
  6
CONTINUOUS
 62
     7
 10
600.717536
 20
2032.208101
 11
601.103965
 21
2032.870694
  0
LINE
  8
CSLAYER1
  6
CONTINUOUS
 62
     7
 10
601.103965
 20
2032.870694
 11
601.517286
 21
2033.498369
  0
LINE
  8
CSLAYER1
  6
CONTINUOUS
 62
     7
 10
601.517286
 20
2033.498369
 11
601.954355
 21
2034.086350
  0
LINE
  8
CSLAYER1
  6
CONTINUOUS
 62
     7
 10
601.954355
 20
2034.086350
 11
602.411844
 21
2034.630160
  0
LINE
  8
CSLAYER1
  6
CONTINUOUS
 62
     7
 10
602.411844
 20
2034.630160
 11
602.886272
 21
2035.125663
  0
LINE
  8
CSLAYER1
  6
CONTINUOUS
 62
     7
 10
602.886272
 20
2035.125663
 11
603.374028
 21
2035.569086
  0
LINE
  8
CSLAYER1
  6
CONTINUOUS
 62
     7
 10
603.374028
 20
2035.569086
 11
603.871400
 21
2035.957054
  0
LINE
  8
CSLAYER1
  6
CONTINUOUS
 62
     7
 10
603.871400
 20
2035.957054
 11
604.374603
 21
2036.286616
  0
LINE
  8
CSLAYER1
  6
CONTINUOUS
 62
     7
 10
604.374603
 20
2036.286616
 11
604.879807
 21
2036.555262
  0
LINE
  8
CSLAYER1
  6
CONTINUOUS
 62
     7
 10
604.879807
 20
2036.555262
 11
605.383167
 21
2036.760949
  0
LINE
  8
CSLAYER1
  6
CONTINUOUS
 62
     7
 10
605.383167
 20
2036.760949
 11
605.880852
 21
2036.902111
  0
LINE
  8
CSLAYER1
  6
CONTINUOUS
 62
     7
 10
605.880852
 20
2036.902111
 11
606.369075
 21
2036.977674
  0
LINE
  8
CSLAYER1
  6
CONTINUOUS
 62
     7
 10
606.369075
 20
2036.977674
 11
606.844120
 21
2036.987062
  0
LINE
  8
CSLAYER1
  6
CONTINUOUS
 62
     7
 10
606.844120
 20
2036.987062
 11
607.302372
 21
2036.930204
  0
LINE
  8
CSLAYER1
  6
CONTINUOUS
 62
     7
 10
607.302372
 20
2036.930204
 11
607.740342
 21
2036.807533
  0
LINE
  8
CSLAYER1
  6
CONTINUOUS
 62
     7
 10
676.783430
 20
2010.857358
 11
659.567778
 21
2012.772271
  0
LINE
  8
CSLAYER1
  6
CONTINUOUS
 62
     7
 10
601.220327
 20
2029.482703
 11
601.438837
 21
2030.039287
  0
LINE
  8
CSLAYER1
  6
CONTINUOUS
 62
     7
 10
601.438837
 20
2030.039287
 11
601.683817
 21
2030.581394
  0
LINE
  8
CSLAYER1
  6
CONTINUOUS
 62
     7
 10
601.683817
 20
2030.581394
 11
601.953403
 21
2031.104900
  0
LINE
  8
CSLAYER1
  6
CONTINUOUS
 62
     7
 10
601.953403
 20
2031.104900
 11
602.245543
 21
2031.605820
  0
LINE
  8
CSLAYER1
  6
CONTINUOUS
 62
     7
 10
602.245543
 20
2031.605820
 11
602.558014
 21
2032.080343
  0
LINE
  8
CSLAYER1
  6
CONTINUOUS
 62
     7
 10
602.558014
 20
2032.080343
 11
602.888438
 21
2032.524856
  0
LINE
  8
CSLAYER1
  6
CONTINUOUS
 62
     7
 10
602.888438
 20
2032.524856
 11
603.234299
 21
2032.935977
  0
LINE
  8
CSLAYER1
  6
CONTINUOUS
 62
     7
 10
603.234299
 20
2032.935977
 11
603.592967
 21
2033.310577
  0
LINE
  8
CSLAYER1
  6
CONTINUOUS
 62
     7
 10
603.592967
 20
2033.310577
 11
603.961711
 21
2033.645805
  0
LINE
  8
CSLAYER1
  6
CONTINUOUS
 62
     7
 10
603.961711
 20
2033.645805
 11
604.337724
 21
2033.939109
  0
LINE
  8
CSLAYER1
  6
CONTINUOUS
 62
     7
 10
604.337724
 20
2033.939109
 11
604.718145
 21
2034.188257
  0
LINE
  8
CSLAYER1
  6
CONTINUOUS
 62
     7
 10
604.718145
 20
2034.188257
 11
605.100079
 21
2034.391354
  0
LINE
  8
CSLAYER1
  6
CONTINUOUS
 62
     7
 10
605.100079
 20
2034.391354
 11
605.480620
 21
2034.546853
  0
LINE
  8
CSLAYER1
  6
CONTINUOUS
 62
     7
 10
605.480620
 20
2034.546853
 11
605.856870
 21
2034.653572
  0
LINE
  8
CSLAYER1
  6
CONTINUOUS
 62
     7
 10
605.856870
 20
2034.653572
 11
606.225967
 21
2034.710697
  0
LINE
  8
CSLAYER1
  6
CONTINUOUS
 62
     7
 10
606.225967
 20
2034.710697
 11
606.585101
 21
2034.717794
  0
LINE
  8
CSLAYER1
  6
CONTINUOUS
 62
     7
 10
606.585101
 20
2034.717794
 11
606.931539
 21
2034.674810
  0
LINE
  8
CSLAYER1
  6
CONTINUOUS
 62
     7
 10
606.931539
 20
2034.674810
 11
607.298862
 21
2034.571927
  0
LINE
  8
CSLAYER1
  6
CONTINUOUS
 62
     7
 10
602.257947
 20
2021.834223
 11
601.964930
 21
2022.023981
  0
LINE
  8
CSLAYER1
  6
CONTINUOUS
 62
     7
 10
601.964930
 20
2022.023981
 11
601.694380
 21
2022.260265
  0
LINE
  8
CSLAYER1
  6
CONTINUOUS
 62
     7
 10
601.694380
 20
2022.260265
 11
601.448355
 21
2022.541276
  0
LINE
  8
CSLAYER1
  6
CONTINUOUS
 62
     7
 10
601.448355
 20
2022.541276
 11
601.228728
 21
2022.864876
  0
LINE
  8
CSLAYER1
  6
CONTINUOUS
 62
     7
 10
601.228728
 20
2022.864876
 11
601.037170
 21
2023.228602
  0
LINE
  8
CSLAYER1
  6
CONTINUOUS
 62
     7
 10
601.037170
 20
2023.228602
 11
600.875140
 21
2023.629686
  0
LINE
  8
CSLAYER1
  6
CONTINUOUS
 62
     7
 10
600.875140
 20
2023.629686
 11
600.743869
 21
2024.065075
  0
LINE
  8
CSLAYER1
  6
CONTINUOUS
 62
     7
 10
600.743869
 20
2024.065075
 11
600.644359
 21
2024.531456
  0
LINE
  8
CSLAYER1
  6
CONTINUOUS
 62
     7
 10
600.644359
 20
2024.531456
 11
600.577365
 21
2025.025279
  0
LINE
  8
CSLAYER1
  6
CONTINUOUS
 62
     7
 10
600.577365
 20
2025.025279
 11
600.543398
 21
2025.542786
  0
LINE
  8
CSLAYER1
  6
CONTINUOUS
 62
     7
 10
600.543398
 20
2025.542786
 11
600.542716
 21
2026.080038
  0
LINE
  8
CSLAYER1
  6
CONTINUOUS
 62
     7
 10
600.542716
 20
2026.080038
 11
600.575324
 21
2026.632947
  0
LINE
  8
CSLAYER1
  6
CONTINUOUS
 62
     7
 10
600.575324
 20
2026.632947
 11
600.640975
 21
2027.197305
  0
LINE
  8
CSLAYER1
  6
CONTINUOUS
 62
     7
 10
600.640975
 20
2027.197305
 11
600.739168
 21
2027.768817
  0
LINE
  8
CSLAYER1
  6
CONTINUOUS
 62
     7
 10
600.739168
 20
2027.768817
 11
600.869156
 21
2028.343132
  0
LINE
  8
CSLAYER1
  6
CONTINUOUS
 62
     7
 10
600.869156
 20
2028.343132
 11
601.029950
 21
2028.915881
  0
LINE
  8
CSLAYER1
  6
CONTINUOUS
 62
     7
 10
601.029950
 20
2028.915881
 11
601.220327
 21
2029.482703
  0
ARC
  8
CSLAYER1
  6
CONTINUOUS
 62
     7
 10
677.216691
 20
2004.921560
 40
7.892050
 50
255.737756
 51
348.379625
  0
LINE
  8
CSLAYER1
  6
CONTINUOUS
 62
     7
 10
676.783430
 20
2010.857358
 11
698.005019
 21
2024.118079
  0
INSERT
  8
CSLAYER1
  2
EASYDRAWDIM0005
 10
0.0
 20
0.0
 30
0.0
  0
INSERT
  8
CSLAYER1
  2
EASYDRAWDIM0006
 10
0.0
 20
0.0
 30
0.0
  0
TEXT
  8
CSLAYER1
 62
     3
 10
473.381714
 20
2330.636719
 40
40.000000
 41
0.771429
  1
足踏式油圧ポンプユニット
 50
0.000000
 51
0.000000
  7
EASYDRAW_FONT
 72
     5
 11
833.381714
 21
2330.636719
  0
TEXT
  8
CSLAYER1
 62
     3
 10
383.406128
 20
1725.685303
 40
40.000000
 41
0.763393
  1
外形寸法 400W×500D×280H
 50
0.000000
 51
0.000000
  7
EASYDRAW_FONT
 72
     5
 11
953.406128
 21
1725.685303
  0
LINE
  8
CSLAYER1
  6
CONTINUOUS
 62
     5
 10
1041.970016
 20
2403.711776
 11
1041.970016
 21
1699.602187
  0
LINE
  8
CSLAYER1
  6
CONTINUOUS
 62
     5
 10
1041.970016
 20
1699.602187
 11
240.675885
 21
1699.602187
  0
INSERT
  8
CSLAYER1
  2
EASYDRAWDIM0007
 10
0.0
 20
0.0
 30
0.0
  0
LINE
  8
CSLAYER1
  6
CONTINUOUS
 62
     7
 10
458.472790
 20
2376.082920
 11
848.484036
 21
2376.082920
  0
LINE
  8
CSLAYER1
  6
CONTINUOUS
 62
     7
 10
848.484036
 20
2376.082920
 11
848.484036
 21
2325.938617
  0
LINE
  8
CSLAYER1
  6
CONTINUOUS
 62
     7
 10
848.484036
 20
2325.938617
 11
458.472790
 21
2325.938617
  0
LINE
  8
CSLAYER1
  6
CONTINUOUS
 62
     7
 10
458.472790
 20
2325.938617
 11
458.472790
 21
2376.082920
  0
INSERT
  8
CSLAYER1
  2
BLKF0006
 10
0.0
 20
0.0
 30
0.0
  0
INSERT
  8
CSLAYER1
  2
BLKF0007
 10
0.0
 20
0.0
 30
0.0
  0
LINE
  8
CSLAYER1
  6
CONTINUOUS
 62
     7
 10
644.499013
 20
2060.058075
 11
641.552121
 21
2058.356687
  0
LINE
  8
CSLAYER1
  6
CONTINUOUS
 62
     7
 10
648.922624
 20
2052.396156
 11
645.975732
 21
2050.694767
  0
LINE
  8
CSLAYER1
  6
CONTINUOUS
 62
     7
 10
642.402816
 20
2056.883241
 11
644.791864
 21
2056.306167
  0
LINE
  8
CSLAYER1
  6
CONTINUOUS
 62
     7
 10
644.791864
 20
2056.306167
 11
645.819801
 21
2054.525727
  0
LINE
  8
CSLAYER1
  6
CONTINUOUS
 62
     7
 10
645.819801
 20
2054.525727
 11
645.125038
 21
2052.168213
  0
LINE
  8
CSLAYER1
  6
CONTINUOUS
 62
     7
 10
645.125038
 20
2052.168213
 11
642.735989
 21
2052.745287
  0
LINE
  8
CSLAYER1
  6
CONTINUOUS
 62
     7
 10
642.735989
 20
2052.745287
 11
641.708052
 21
2054.525727
  0
LINE
  8
CSLAYER1
  6
CONTINUOUS
 62
     7
 10
641.708052
 20
2054.525727
 11
642.402816
 21
2056.883241
  0
INSERT
  8
CSLAYER1
  2
BLKF0008
 10
0.0
 20
0.0
 30
0.0
  0
LINE
  8
CSLAYER1
  6
CONTINUOUS
 62
     7
 10
645.696364
 20
2062.195183
 11
643.511558
 21
2060.933784
  0
LINE
  8
CSLAYER1
  6
CONTINUOUS
 62
     7
 10
651.610043
 20
2051.673545
 11
649.509327
 21
2050.495976
  0
INSERT
  8
CSLAYER1
  2
BLKF0009
 10
0.0
 20
0.0
 30
0.0
  0
LINE
  8
CSLAYER1
  6
CONTINUOUS
 62
     7
 10
672.761352
 20
2064.607847
 11
651.717077
 21
2072.267337
  0
LINE
  8
CSLAYER1
  6
CONTINUOUS
 62
     7
 10
672.761352
 20
2064.607847
 11
672.761352
 21
2030.799513
  0
LINE
  8
CSLAYER1
  6
CONTINUOUS
 62
     7
 10
662.566259
 20
2058.237246
 11
662.566259
 21
2012.438747
  0
LINE
  8
CSLAYER1
  6
CONTINUOUS
 62
     7
 10
647.413338
 20
2034.665169
 11
645.279414
 21
2027.674235
  0
LINE
  8
CSLAYER1
  6
CONTINUOUS
 62
     7
 10
645.279414
 20
2027.674235
 11
638.158126
 21
2029.321669
  0
LINE
  8
CSLAYER1
  6
CONTINUOUS
 62
     7
 10
638.158126
 20
2029.321669
 11
635.073055
 21
2034.665169
  0
LINE
  8
CSLAYER1
  6
CONTINUOUS
 62
     7
 10
635.073055
 20
2034.665169
 11
637.158197
 21
2041.740596
  0
LINE
  8
CSLAYER1
  6
CONTINUOUS
 62
     7
 10
637.158197
 20
2041.740596
 11
644.328267
 21
2040.008668
  0
LINE
  8
CSLAYER1
  6
CONTINUOUS
 62
     7
 10
644.328267
 20
2040.008668
 11
647.413338
 21
2034.665169
  0
LINE
  8
CSLAYER1
  6
CONTINUOUS
 62
     7
 10
650.081917
 20
2036.205873
 11
647.947992
 21
2029.214940
  0
LINE
  8
CSLAYER1
  6
CONTINUOUS
 62
     7
 10
646.996846
 20
2041.549373
 11
650.081917
 21
2036.205873
  0
LINE
  8
CSLAYER1
  6
CONTINUOUS
 62
     7
 10
639.826775
 20
2043.281301
 11
646.996846
 21
2041.549373
  0
LINE
  8
CSLAYER1
  6
CONTINUOUS
 62
     7
 10
647.947992
 20
2029.214940
 11
645.279414
 21
2027.674235
  0
LINE
  8
CSLAYER1
  6
CONTINUOUS
 62
     7
 10
650.081917
 20
2036.205873
 11
647.413338
 21
2034.665169
  0
LINE
  8
CSLAYER1
  6
CONTINUOUS
 62
     7
 10
646.996846
 20
2041.549373
 11
644.328267
 21
2040.008668
  0
LINE
  8
CSLAYER1
  6
CONTINUOUS
 62
     7
 10
639.826775
 20
2043.281301
 11
637.158197
 21
2041.740596
  0
INSERT
  8
CSLAYER1
  2
BLKF0010
 10
0.0
 20
0.0
 30
0.0
  0
LINE
  8
CSLAYER1
  6
CONTINUOUS
 62
     7
 10
663.873977
 20
2064.220835
 11
662.214269
 21
2062.476731
  0
LINE
  8
CSLAYER1
  6
CONTINUOUS
 62
     7
 10
662.214269
 20
2062.476731
 11
660.200351
 21
2062.476731
  0
LINE
  8
CSLAYER1
  6
CONTINUOUS
 62
     7
 10
660.200351
 20
2062.476731
 11
658.540644
 21
2064.220835
  0
LINE
  8
CSLAYER1
  6
CONTINUOUS
 62
     7
 10
658.540644
 20
2064.220835
 11
660.200351
 21
2065.964939
  0
LINE
  8
CSLAYER1
  6
CONTINUOUS
 62
     7
 10
660.200351
 20
2065.964939
 11
662.214269
 21
2065.964939
  0
LINE
  8
CSLAYER1
  6
CONTINUOUS
 62
     7
 10
662.214269
 20
2065.964939
 11
663.873977
 21
2064.220835
  0
INSERT
  8
CSLAYER1
  2
BLKF0011
 10
0.0
 20
0.0
 30
0.0
  0
LINE
  8
CSLAYER1
  6
CONTINUOUS
 62
     7
 10
662.566259
 20
2058.237246
 11
641.521984
 21
2065.896736
  0
LINE
  8
CSLAYER1
  6
CONTINUOUS
 62
     7
 10
662.566259
 20
2058.237246
 11
672.761352
 21
2064.607847
  0
LINE
  8
CSLAYER1
  6
CONTINUOUS
 62
     7
 10
627.993373
 20
2069.504200
 11
627.993373
 21
2024.738150
  0
LINE
  8
CSLAYER1
  6
CONTINUOUS
 62
     7
 10
641.521984
 20
2065.896736
 11
651.717077
 21
2072.267337
  0
LINE
  8
CSLAYER1
  6
CONTINUOUS
 62
     7
 10
641.521984
 20
2064.580188
 11
627.993373
 21
2069.504200
  0
LINE
  8
CSLAYER1
  6
CONTINUOUS
 62
     7
 10
641.521984
 20
2065.896736
 11
641.521984
 21
2064.580188
  0
LINE
  8
CSLAYER1
  6
CONTINUOUS
 62
     7
 10
637.447509
 20
2064.883931
 11
630.809163
 21
2067.300091
  0
LINE
  8
CSLAYER1
  6
CONTINUOUS
 62
     7
 10
630.415185
 20
2068.622732
 11
630.809163
 21
2067.300091
  0
LINE
  8
CSLAYER1
  6
CONTINUOUS
 62
     7
 10
637.447509
 20
2064.883931
 11
639.662014
 21
2065.257162
  0
LINE
  8
CSLAYER1
  6
CONTINUOUS
 62
     7
 10
650.385670
 20
2071.435382
 11
644.110598
 21
2073.719321
  0
LINE
  8
CSLAYER1
  6
CONTINUOUS
 62
     7
 10
627.993373
 20
2069.504200
 11
637.049273
 21
2075.162954
  0
LINE
  8
CSLAYER1
  6
CONTINUOUS
 62
     7
 10
637.447509
 20
2064.883931
 11
637.447509
 21
2051.130476
  0
LINE
  8
CSLAYER1
  6
CONTINUOUS
 62
     7
 10
639.662014
 20
2065.257162
 11
639.662014
 21
2052.603142
  0
LINE
  8
CSLAYER1
  6
CONTINUOUS
 62
     7
 10
630.809163
 20
2067.300091
 11
630.809163
 21
2053.546637
  0
LINE
  8
CSLAYER1
  6
CONTINUOUS
 62
     7
 10
630.809163
 20
2053.546637
 11
632.534091
 21
2048.430590
  0
LINE
  8
CSLAYER1
  6
CONTINUOUS
 62
     7
 10
637.447509
 20
2051.130476
 11
635.070348
 21
2047.366998
  0
LINE
  8
CSLAYER1
  6
CONTINUOUS
 62
     7
 10
632.534091
 20
2048.430590
 11
632.534091
 21
2022.945298
  0
LINE
  8
CSLAYER1
  6
CONTINUOUS
 62
     7
 10
635.070348
 20
2047.366998
 11
635.070348
 21
2021.227188
  0
LINE
  8
CSLAYER1
  6
CONTINUOUS
 62
     7
 10
637.447509
 20
2051.130476
 11
639.569258
 21
2052.456292
  0
LINE
  8
CSLAYER1
  6
CONTINUOUS
 62
     7
 10
635.070348
 20
2047.366998
 11
637.192097
 21
2048.692814
  0
LINE
  8
CSLAYER1
  6
CONTINUOUS
 62
     7
 10
639.662014
 20
2052.603142
 11
637.284853
 21
2048.839664
  0
LINE
  8
CSLAYER1
  6
CONTINUOUS
 62
     7
 10
637.284853
 20
2048.839664
 11
637.284853
 21
2041.813721
  0
LINE
  8
CSLAYER1
  6
CONTINUOUS
 62
     7
 10
637.284853
 20
2030.834222
 11
637.284853
 21
2020.327226
  0
LINE
  8
CSLAYER1
  6
CONTINUOUS
 62
     7
 10
672.761352
 20
2030.799513
 11
675.296151
 21
2032.383431
  0
LINE
  8
CSLAYER1
  6
CONTINUOUS
 62
     7
 10
643.635479
 20
2017.305214
 11
607.298862
 21
2034.571927
  0
LINE
  8
CSLAYER1
  6
CONTINUOUS
 62
     7
 10
637.718767
 20
2004.983678
 11
602.257947
 21
2021.834223
  0
LINE
  8
CSLAYER1
  6
CONTINUOUS
 62
     7
 10
687.926385
 20
2017.820249
 11
684.946983
 21
2003.331894
  0
ARC
  8
CSLAYER1
  6
CONTINUOUS
 62
     7
 10
665.095235
 20
2062.465804
 40
50.000000
 50
244.583509
 51
263.653028
  0
ARC
  8
CSLAYER1
  6
CONTINUOUS
 62
     7
 10
665.187255
 20
2062.789234
 40
64.000000
 50
244.583509
 51
263.653028
  0
LINE
  8
CSLAYER1
  6
CONTINUOUS
 62
     7
 10
656.260367
 20
1999.414864
 11
656.260367
 21
1996.519136
  0
LINE
  8
CSLAYER1
  6
CONTINUOUS
 62
     7
 10
633.301393
 20
2004.875519
 11
630.494450
 21
2008.416585
  0
LINE
  8
CSLAYER1
  6
CONTINUOUS
 62
     5
 10
2713.249195
 20
545.164846
 11
3513.249195
 21
545.164846
  0
LINE
  8
CSLAYER1
  6
CONTINUOUS
 62
     5
 10
2713.249195
 20
185.164846
 11
3513.249195
 21
185.164846
  0
LINE
  8
CSLAYER1
  6
CONTINUOUS
 62
     5
 10
2713.249195
 20
345.164846
 11
3513.249195
 21
345.164846
  0
LINE
  8
CSLAYER1
  6
CONTINUOUS
 62
     5
 10
2713.249195
 20
405.164846
 11
3513.249195
 21
405.164846
  0
LINE
  8
CSLAYER1
  6
CONTINUOUS
 62
     5
 10
2713.249195
 20
465.164846
 11
3513.249195
 21
465.164846
  0
LINE
  8
CSLAYER1
  6
CONTINUOUS
 62
     5
 10
2713.249195
 20
625.164846
 11
3513.249195
 21
625.164846
  0
LINE
  8
CSLAYER1
  6
CONTINUOUS
 62
     5
 10
2713.249195
 20
705.164846
 11
2713.249195
 21
105.164846
  0
LINE
  8
CSLAYER1
  6
CONTINUOUS
 62
     5
 10
2913.249195
 20
705.164846
 11
2913.249195
 21
465.164846
  0
LINE
  8
CSLAYER1
  6
CONTINUOUS
 62
     5
 10
2713.249195
 20
705.164846
 11
3513.249195
 21
705.164846
  0
LINE
  8
CSLAYER1
  6
CONTINUOUS
 62
     5
 10
3213.249195
 20
465.164846
 11
3213.249195
 21
185.164846
  0
TEXT
  8
CSLAYER1
 62
     3
 10
2932.940486
 20
113.727573
 40
59.380363
 41
1.003345
  1
東正車輌株式会社
 50
0.000000
 51
0.000000
  7
EASYDRAW_FONT
 72
     5
 11
3389.712834
 21
113.727573
  0
LINE
  8
CSLAYER1
  6
CONTINUOUS
 62
     5
 10
2963.249195
 20
405.164846
 11
2963.249195
 21
185.164846
  0
TEXT
  8
CSLAYER1
 62
     5
 10
2743.249268
 20
640.164795
 40
50.000000
 41
1.050000
  1
品　名
 50
0.000000
 51
0.000000
  7
EASYDRAW_FONT
 72
     5
 11
2883.249268
 21
640.164795
  0
TEXT
  8
CSLAYER1
 62
     5
 10
2743.249268
 20
560.164795
 40
50.000000
 41
1.050000
  1
型　式
 50
0.000000
 51
0.000000
  7
EASYDRAW_FONT
 72
     5
 11
2883.249268
 21
560.164795
  0
TEXT
  8
CSLAYER1
 62
     5
 10
2718.249268
 20
480.164856
 40
50.000000
 41
1.036364
  1
図面番号
 50
0.000000
 51
0.000000
  7
EASYDRAW_FONT
 72
     5
 11
2908.249268
 21
480.164856
  0
TEXT
  8
CSLAYER1
 62
     5
 10
2743.249268
 20
410.164856
 40
50.000000
 41
0.825000
  1
平成26年01月10日
 50
0.000000
 51
0.000000
  7
EASYDRAW_FONT
 72
     5
 11
3183.249268
 21
410.164856
  0
TEXT
  8
CSLAYER1
 62
     5
 10
3293.249268
 20
410.164856
 40
50.000000
 41
1.050000
  1
Ｂ－４
 50
0.000000
 51
0.000000
  7
EASYDRAW_FONT
 72
     5
 11
3433.249268
 21
410.164856
  0
TEXT
  8
CSLAYER1
 62
     5
 10
2768.249268
 20
350.164856
 40
50.000000
 41
1.050000
  1
検　図
 50
0.000000
 51
0.000000
  7
EASYDRAW_FONT
 72
     5
 11
2908.249268
 21
350.164856
  0
TEXT
  8
CSLAYER1
 62
     5
 10
3018.249268
 20
350.164856
 40
50.000000
 41
1.050000
  1
作　図
 50
0.000000
 51
0.000000
  7
EASYDRAW_FONT
 72
     5
 11
3158.249268
 21
350.164856
  0
TEXT
  8
CSLAYER1
 62
     5
 10
3293.249268
 20
350.164856
 40
50.000000
 41
1.050000
  1
尺　度
 50
0.000000
 51
0.000000
  7
EASYDRAW_FONT
 72
     5
 11
3433.249268
 21
350.164856
  0
TEXT
  8
CSLAYER1
 62
     5
 10
3393.988037
 20
199.650116
 40
50.000000
 41
1.080000
  1
１０
 50
0.000000
 51
0.000000
  7
EASYDRAW_FONT
 72
     5
 11
3483.988037
 21
199.650116
  0
TEXT
  8
CSLAYER1
 62
     5
 10
3373.668457
 20
247.354797
 40
50.000000
 41
1.200000
  1
／
 50
0.000000
 51
0.000000
  7
EASYDRAW_FONT
 72
     5
 11
3413.668457
 21
247.354797
  0
TEXT
  8
CSLAYER1
 62
     5
 10
3343.455566
 20
282.338257
 40
50.000000
 41
1.200000
  1
１
 50
0.000000
 51
0.000000
  7
EASYDRAW_FONT
 72
     5
 11
3383.455566
 21
282.338257
  0
TEXT
  8
CSLAYER1
 62
     3
 10
3053.249268
 20
640.164795
 40
50.000000
 41
0.834783
  1
ゴールドリフター
 50
0.000000
 51
0.000000
  7
EASYDRAW_FONT
 72
     5
 11
3373.249268
 21
640.164795
  0
TEXT
  8
CSLAYER1
 62
     3
 10
2953.249268
 20
560.164795
 40
50.000000
 41
0.821053
  1
GLSH-350-3008
 50
0.000000
 51
0.000000
  7
EASYDRAW_FONT
 72
     5
 11
3473.249268
 21
560.164795
  0
INSERT
  8
CSLAYER1
  2
BLKF0012
 10
0.0
 20
0.0
 30
0.0
  0
LINE
  8
CSLAYER1
  6
CONTINUOUS
 62
     5
 10
1025.599857
 20
820.802692
 11
1443.421328
 21
820.802692
  0
LINE
  8
CSLAYER1
  6
CONTINUOUS
 62
     3
 10
1443.421328
 20
820.802692
 11
2246.121328
 21
820.802692
  0
LINE
  8
CSLAYER1
  6
CONTINUOUS
 62
     5
 10
2246.121328
 20
820.802692
 11
2663.658002
 21
820.802692
  0
LINE
  8
CSLAYER1
  6
CONTINUOUS
 62
     3
 10
2663.658002
 20
820.802692
 11
2963.658002
 21
820.802692
  0
LINE
  8
CSLAYER1
  6
CONTINUOUS
 62
     5
 10
2963.658002
 20
820.802692
 11
3111.747461
 21
820.802692
  0
LINE
  8
CSLAYER1
  6
CONTINUOUS
 62
     5
 10
1103.635450
 20
660.020080
 11
1360.832568
 21
660.020080
  0
DIMENSION
  8
CSLAYER1
 62
     3
  2
*D0013
 10
2393.557031
 20
920.802692
 11
2383.557129
 21
870.802673
 13
2246.121328
 23
820.802692
 14
2246.121328
 24
920.802692
 50
90.000000
 70
1
  0
TEXT
  8
CSLAYER1
 62
     3
 10
1138.889404
 20
667.828857
 40
40.000000
 41
0.787500
  1
(アンカー穴)
 50
0.000000
 51
0.000000
  7
EASYDRAW_FONT
 72
     5
 11
1348.889404
 21
667.828857
  0
LINE
  8
CSLAYER1
  6
CONTINUOUS
 62
     5
 10
1000.599857
 20
820.802692
 11
1103.635450
 21
660.020080
  0
LINE
  8
CSLAYER1
  6
CONTINUOUS
 62
     5
 10
1000.599857
 20
820.802692
 11
1022.772322
 21
800.594233
  0
LINE
  8
CSLAYER1
  6
CONTINUOUS
 62
     5
 10
1000.599857
 20
820.802692
 11
1009.697545
 21
792.215421
  0
LINE
  8
CSLAYER1
  6
CONTINUOUS
 62
     5
 10
1468.421328
 20
820.802692
 11
1360.832568
 21
660.020080
  0
LINE
  8
CSLAYER1
  6
CONTINUOUS
 62
     5
 10
1468.421328
 20
820.802692
 11
1458.758946
 21
792.401312
  0
LINE
  8
CSLAYER1
  6
CONTINUOUS
 62
     5
 10
1468.421328
 20
820.802692
 11
1445.852770
 21
801.037566
  0
DIMENSION
  8
CSLAYER1
 62
     3
  2
*D0014
 10
1468.421328
 20
1728.509249
 11
1397.146606
 21
1738.509277
 13
1443.421328
 23
1858.509249
 14
1468.421328
 24
1862.246448
 52
270.000000
  0
DIMENSION
  8
CSLAYER1
 62
     3
  2
*D0015
 10
1493.606781
 20
1638.509249
 11
1400.419678
 21
1648.509277
 13
1443.421328
 23
1858.509249
 14
1493.606781
 24
1860.913242
 52
270.000000
  0
LINE
  8
CSLAYER1
  6
CONTINUOUS
 62
     5
 10
1468.421328
 20
1873.509249
 11
1545.604765
 21
1728.509249
  0
LINE
  8
CSLAYER1
  6
CONTINUOUS
 62
     5
 10
1468.421328
 20
1873.509249
 11
1488.891368
 21
1851.578051
  0
LINE
  8
CSLAYER1
  6
CONTINUOUS
 62
     5
 10
1468.421328
 20
1873.509249
 11
1475.183304
 21
1844.281255
  0
TEXT
  8
CSLAYER1
 62
     3
 10
3131.582275
 20
1783.711426
 40
40.000000
 41
0.859091
  1
約 50
 50
0.000000
 51
0.000000
  7
EASYDRAW_FONT
 72
     5
 11
3257.582275
 21
1783.711426
  0
ENDSEC
  0
EOF
