  0
SECTION
  2
HEADER
  9
$ACADVER
  1
AC1006
  9
$INSBASE
 10
825.260946
 20
2184.125644
 30
0.0
  9
$EXTMIN
 10
825.260946
 20
2184.125644
  9
$EXTMAX
 10
4465.260946
 20
4754.125644
  9
$LIMMIN
 10
825.260946
 20
2184.125644
  9
$LIMMAX
 10
4465.260946
 20
4754.125644
  9
$VIEWCTR
 10
2645.260946
 20
3469.125644
  9
$VIEWSIZE
 40
2570.000000
  9
$SNAPMODE
 70
     0
  9
$SNAPUNIT
 10
1.0
 20
1.0
  9
$SNAPBASE
 10
0.0
 20
0.0
  9
$SNAPANG
 50
0.0
  9
$SNAPSTYLE
 70
     0
  9
$SNAPISOPAIR
 70
     0
  9
$GRIDMODE
 70
     0
  9
$GRIDUNIT
 10
0.0
 20
0.0
  9
$ORTHOMODE
 70
     0
  9
$REGENMODE
 70
     1
  9
$FILLMODE
 70
     1
  9
$QTEXTMODE
 70
     0
  9
$DRAGMODE
 70
     2
  9
$LTSCALE
 40
15.000000
  9
$OSMODE
 70
     0
  9
$ATTMODE
 70
     1
  9
$TEXTSIZE
 40
0.2
  9
$TRACEWID
 40
0.05
  9
$TEXTSTYLE
  7
STANDARD
  9
$CLAYER
  8
CSLAYER1
  9
$CELTYPE
  6
BYLAYER
  9
$CECOLOR
 62
   256
  9
$DIMSCALE
 40
1.0
  9
$DIMASZ
 40
0.18
  9
$DIMEXO
 40
0.0625
  9
$DIMDLI
 40
0.38
  9
$DIMRND
 40
0.0
  9
$DIMDLE
 40
0.0
  9
$DIMEXE
 40
0.18
  9
$DIMTP
 40
0.0
  9
$DIMTM
 40
0.0
  9
$DIMTXT
 40
0.18
  9
$DIMCEN
 40
0.09
  9
$DIMTSZ
 40
0.0
  9
$DIMTOL
 70
     0
  9
$DIMLIM
 70
     0
  9
$DIMTIH
 70
     1
  9
$DIMTOH
 70
     1
  9
$DIMSE1
 70
     0
  9
$DIMSE2
 70
     0
  9
$DIMTAD
 70
     0
  9
$DIMZIN
 70
     0
  9
$DIMBLK
  1

  9
$LUNITS
 70
     2
  9
$LUPREC
 70
     4
  9
$AXISMODE
 70
     0
  9
$AXISUNIT
 10
0.0
 20
0.0
  9
$SKETCHINC
 40
0.1
  9
$FILLETRAD
 40
0.0
  9
$AUNITS
 70
     0
  9
$AUPREC
 70
     0
  9
$MENU
  1
ACAD
  9
$ELEVATION
 40
0.0
  9
$THICKNESS
 40
0.0
  9
$VIEWDIR
 10
0.0
 20
0.0
 30
1.0
  9
$LIMCHECK
 70
     0
  9
$BLIPMODE
 70
     1
  9
$CHAMFERA
 40
0.0
  9
$CHAMFERB
 40
0.0
  9
$FASTZOOM
 70
     1
  9
$SKPOLY
 70
     0
  9
$TDCREATE
 40
2456676.000000
  9
$TDUPDATE
 40
2456676.000000
  9
$TDINDWG
 40
0.0
  9
$TDUSRTIMER
 40
0.0
  9
$USRTIMER
 70
     1
  9
$ANGBASE
 50
0.0
  9
$ANGDIR
 70
     0
  9
$PDMODE
 70
     0
  9
$PDSIZE
 40
0.0
  9
$PLINEWID
 40
0.0
  9
$COORDS
 70
     0
  9
$USERI1
 70
     0
  9
$USERI2
 70
     0
  9
$USERI3
 70
     0
  9
$USERI4
 70
     0
  9
$USERI5
 70
     0
  9
$USERR1
 40
0.0
  9
$USERR2
 40
0.0
  9
$USERR3
 40
0.0
  9
$USERR4
 40
0.0
  9
$USERR5
 40
0.0
  0
ENDSEC
  0
SECTION
  2
TABLES
  0
TABLE
  2
LTYPE
 70
     9
  0
LTYPE
  2
CONTINUOUS
 70
    64
  3
Solid line
 72
    65
 73
     0
 40
0.0
  0
LTYPE
  2
DASHED
 70
    64
  3
__ __ __ __ __ __ __ __ __ __ __ __ __ __ __
 72
    65
 73
     2
 40
0.75
 49
0.5
 49
-0.25
  0
LTYPE
  2
HIDDEN
 70
    64
  3
_ _ _ _ _ _ _ _ _ _ _ _ _ _ _ _ _ _ _ _ _ _ _
 72
    65
 73
     2
 40
0.375
 49
0.25
 49
-0.125
  0
LTYPE
  2
DOT
 70
    64
  3
...............................................
 72
    65
 73
     2
 40
0.25
 49
0.0
 49
-0.25
  0
LTYPE
  2
DASHDOT
 70
    64
  3
__ . __ . __ . __ . __ . __ . __ . __ . __ . __
 72
    65
 73
     4
 40
1.0
 49
0.5
 49
-0.25
 49
0.0
 49
-0.25
  0
LTYPE
  2
DIVIDE
 70
    64
  3
__ . . __ . . __ . . __ . . __ . . __ . . __
 72
    65
 73
     6
 40
1.25
 49
0.5
 49
-0.25
 49
0.0
 49
-0.25
 49
0.0
 49
-0.25
  0
LTYPE
  2
CENTER
 70
    64
  3
____ _ ____ _ ____ _ ____ _ ____ _ ____ _ ____ 
 72
    65
 73
     4
 40
2.0
 49
1.25
 49
-0.25
 49
0.25
 49
-0.25
  0
LTYPE
  2
PHANTOM
 70
    64
  3
______  __  __  ______  __  __  ______  __  __ 
 72
    65
 73
     6
 40
2.5
 49
1.25
 49
-0.25
 49
0.25
 49
-0.25
 49
0.25
 49
-0.25
  0
LTYPE
  2
BORDER
 70
    64
  3
__ __ . __ __ . __ __ . __ __ . __ __ . __ __ .
 72
    65
 73
     6
 40
1.75
 49
0.5
 49
-0.25
 49
0.5
 49
-0.25
 49
0.0
 49
-0.25
  0
ENDTAB
  0
TABLE
  2
LAYER
 70
    16
  0
LAYER
  2
CSLAYER1
 70
    64
 62
     7
  6
CONTINUOUS
  0
LAYER
  2
CSLAYER2
 70
    64
 62
     7
  6
CONTINUOUS
  0
LAYER
  2
CSLAYER3
 70
    64
 62
     7
  6
CONTINUOUS
  0
LAYER
  2
CSLAYER4
 70
    64
 62
     7
  6
CONTINUOUS
  0
LAYER
  2
CSLAYER5
 70
    64
 62
     7
  6
CONTINUOUS
  0
LAYER
  2
CSLAYER6
 70
    64
 62
     7
  6
CONTINUOUS
  0
LAYER
  2
CSLAYER7
 70
    64
 62
     7
  6
CONTINUOUS
  0
LAYER
  2
CSLAYER8
 70
    64
 62
     7
  6
CONTINUOUS
  0
LAYER
  2
CSLAYER9
 70
    64
 62
     7
  6
CONTINUOUS
  0
LAYER
  2
CSLAYER10
 70
    64
 62
     7
  6
CONTINUOUS
  0
LAYER
  2
CSLAYER11
 70
    64
 62
     7
  6
CONTINUOUS
  0
LAYER
  2
CSLAYER12
 70
    64
 62
     7
  6
CONTINUOUS
  0
LAYER
  2
CSLAYER13
 70
    64
 62
     7
  6
CONTINUOUS
  0
LAYER
  2
CSLAYER14
 70
    64
 62
     7
  6
CONTINUOUS
  0
LAYER
  2
CSLAYER15
 70
    64
 62
     7
  6
CONTINUOUS
  0
LAYER
  2
CSLAYER16
 70
    64
 62
     7
  6
CONTINUOUS
  0
ENDTAB
  0
TABLE
  2
STYLE
 70
     1
  0
STYLE
  2
EASYDRAW_FONT
 70
     0
 40
1.0
 41
1.0
 50
0.0
 71
     0
 42
1.0
  3
monotxt
  4
bigfont
  0
ENDTAB
  0
TABLE
  2
VIEW
 70
     0
  0
ENDTAB
  0
ENDSEC
  0
SECTION
  2
BLOCKS
  0
BLOCK
  8
CSLAYER1
  2
*D0000
 70
    65
 10
0.0
 20
0.0
 30
0.0
  0
TEXT
  8
CSLAYER1
 62
     3
 10
1020.552490
 20
1279.598633
 40
40.000000
 41
0.769737
  1
テーブルのズレ　ＭＡＸ２０
 50
0.000000
 51
0.000000
  7
EASYDRAW_FONT
 72
     5
 11
1410.552490
 21
1279.598633
  0
LINE
  8
CSLAYER1
  6
CONTINUOUS
 62
     5
 10
1394.036170
 20
894.014813
 11
1394.036170
 21
1275.854185
  0
LINE
  8
CSLAYER1
  6
CONTINUOUS
 62
     5
 10
1413.881129
 20
1395.578484
 11
1413.881129
 21
1259.854185
  0
LINE
  8
CSLAYER1
  6
CONTINUOUS
 62
     5
 10
1394.036170
 20
1267.854185
 11
1413.881129
 21
1267.854185
  0
LINE
  8
CSLAYER1
  6
CONTINUOUS
 62
     5
 10
1007.757653
 20
1267.854185
 11
1394.036170
 21
1267.854185
  0
LINE
  8
CSLAYER1
  6
CONTINUOUS
 62
     5
 10
1394.036170
 20
1267.854185
 11
1365.058396
 21
1275.618756
  0
LINE
  8
CSLAYER1
  6
CONTINUOUS
 62
     5
 10
1394.036170
 20
1267.854185
 11
1365.058396
 21
1260.089614
  0
LINE
  8
CSLAYER1
  6
CONTINUOUS
 62
     5
 10
1413.881129
 20
1267.854185
 11
1453.881129
 21
1267.854185
  0
LINE
  8
CSLAYER1
  6
CONTINUOUS
 62
     5
 10
1413.881129
 20
1267.854185
 11
1442.858904
 21
1275.618756
  0
LINE
  8
CSLAYER1
  6
CONTINUOUS
 62
     5
 10
1413.881129
 20
1267.854185
 11
1442.858904
 21
1260.089614
  0
ENDBLK
  8
0
  0
BLOCK
  8
CSLAYER1
  2
EASYDRAWDIM0000
 70
   64
 10
0.0
 20
0.0
 30
0.0
  0
TEXT
  8
CSLAYER1
 62
     3
 10
1085.214355
 20
1194.025146
 40
40.000000
 41
0.787500
  1
油圧シリンダー
 50
0.000000
 51
0.000000
  7
EASYDRAW_FONT
 72
     5
 11
1295.214355
 21
1194.025146
  0
LINE
  8
CSLAYER1
  6
CONTINUOUS
 62
     5
 10
1301.217918
 20
1186.025306
 11
1078.890125
 21
1186.025306
  0
ENDBLK
  8
0
  0
BLOCK
  8
CSLAYER1
  2
EASYDRAWDIM0001
 70
   64
 10
0.0
 20
0.0
 30
0.0
  0
TEXT
  8
CSLAYER1
 62
     3
 10
1050.904785
 20
1021.876953
 40
40.000000
 41
0.803571
  1
高圧ホース
 50
0.000000
 51
0.000000
  7
EASYDRAW_FONT
 72
     5
 11
1200.904785
 21
1021.876953
  0
LINE
  8
CSLAYER1
  6
CONTINUOUS
 62
     5
 10
1316.178340
 20
832.664813
 11
1213.375289
 21
1013.876970
  0
LINE
  8
CSLAYER1
  6
CONTINUOUS
 62
     5
 10
1316.178340
 20
832.664813
 11
1295.126213
 21
854.037879
  0
LINE
  8
CSLAYER1
  6
CONTINUOUS
 62
     5
 10
1316.178340
 20
832.664813
 11
1308.633196
 21
861.700495
  0
LINE
  8
CSLAYER1
  6
CONTINUOUS
 62
     5
 10
1213.375289
 20
1013.876970
 11
1040.842524
 21
1013.876970
  0
ENDBLK
  8
0
  0
BLOCK
  8
CSLAYER1
  2
*D0001
 70
    65
 10
0.0
 20
0.0
 30
0.0
  0
TEXT
  8
CSLAYER1
 62
     3
 10
1033.020996
 20
849.234863
 40
40.000000
 41
1.125000
  1
6
 50
90.000000
 51
0.000000
  7
EASYDRAW_FONT
 72
     5
 11
1033.020996
 21
879.234863
  0
LINE
  8
CSLAYER1
  6
CONTINUOUS
 62
     5
 10
963.927344
 20
814.014813
 11
1049.021135
 21
814.014813
  0
LINE
  8
CSLAYER1
  6
CONTINUOUS
 62
     5
 10
963.927344
 20
820.014813
 11
1049.021135
 21
820.014813
  0
LINE
  8
CSLAYER1
  6
CONTINUOUS
 62
     5
 10
1041.021135
 20
814.014813
 11
1041.021135
 21
820.014813
  0
LINE
  8
CSLAYER1
  6
CONTINUOUS
 62
     5
 10
1041.021135
 20
793.350594
 11
1041.021135
 21
814.014813
  0
LINE
  8
CSLAYER1
  6
CONTINUOUS
 62
     5
 10
1041.021135
 20
814.014813
 11
1033.256564
 21
785.037038
  0
LINE
  8
CSLAYER1
  6
CONTINUOUS
 62
     5
 10
1041.021135
 20
814.014813
 11
1048.785706
 21
785.037038
  0
LINE
  8
CSLAYER1
  6
CONTINUOUS
 62
     5
 10
1041.021135
 20
820.014813
 11
1041.021135
 21
884.454933
  0
LINE
  8
CSLAYER1
  6
CONTINUOUS
 62
     5
 10
1041.021135
 20
820.014813
 11
1033.256564
 21
848.992588
  0
LINE
  8
CSLAYER1
  6
CONTINUOUS
 62
     5
 10
1041.021135
 20
820.014813
 11
1048.785706
 21
848.992588
  0
ENDBLK
  8
0
  0
BLOCK
  8
CSLAYER1
  2
*D0002
 70
    65
 10
0.0
 20
0.0
 30
0.0
  0
TEXT
  8
CSLAYER1
 62
     3
 10
760.927246
 20
702.014771
 40
40.000000
 41
0.843750
  1
250
 50
0.000000
 51
0.000000
  7
EASYDRAW_FONT
 72
     5
 11
850.927246
 21
702.014771
  0
LINE
  8
CSLAYER1
  6
CONTINUOUS
 62
     5
 10
680.927344
 20
806.014813
 11
680.927344
 21
686.014813
  0
LINE
  8
CSLAYER1
  6
CONTINUOUS
 62
     5
 10
930.927344
 20
806.014813
 11
930.927344
 21
686.014813
  0
LINE
  8
CSLAYER1
  6
CONTINUOUS
 62
     5
 10
680.927344
 20
694.014813
 11
930.927344
 21
694.014813
  0
LINE
  8
CSLAYER1
  6
CONTINUOUS
 62
     5
 10
680.927344
 20
694.014813
 11
709.905119
 21
701.779384
  0
LINE
  8
CSLAYER1
  6
CONTINUOUS
 62
     5
 10
680.927344
 20
694.014813
 11
709.905119
 21
686.250242
  0
LINE
  8
CSLAYER1
  6
CONTINUOUS
 62
     5
 10
930.927344
 20
694.014813
 11
901.949570
 21
701.779384
  0
LINE
  8
CSLAYER1
  6
CONTINUOUS
 62
     5
 10
930.927344
 20
694.014813
 11
901.949570
 21
686.250242
  0
ENDBLK
  8
0
  0
BLOCK
  8
CSLAYER1
  2
*D0003
 70
    65
 10
0.0
 20
0.0
 30
0.0
  0
TEXT
  8
CSLAYER1
 62
     3
 10
760.927246
 20
612.014832
 40
40.000000
 41
0.843750
  1
300
 50
0.000000
 51
0.000000
  7
EASYDRAW_FONT
 72
     5
 11
850.927246
 21
612.014832
  0
LINE
  8
CSLAYER1
  6
CONTINUOUS
 62
     5
 10
655.927344
 20
806.014813
 11
655.927344
 21
596.014813
  0
LINE
  8
CSLAYER1
  6
CONTINUOUS
 62
     5
 10
955.927344
 20
806.014813
 11
955.927344
 21
596.014813
  0
LINE
  8
CSLAYER1
  6
CONTINUOUS
 62
     5
 10
655.927344
 20
604.014813
 11
955.927344
 21
604.014813
  0
LINE
  8
CSLAYER1
  6
CONTINUOUS
 62
     5
 10
655.927344
 20
604.014813
 11
684.905119
 21
611.779384
  0
LINE
  8
CSLAYER1
  6
CONTINUOUS
 62
     5
 10
655.927344
 20
604.014813
 11
684.905119
 21
596.250242
  0
LINE
  8
CSLAYER1
  6
CONTINUOUS
 62
     5
 10
955.927344
 20
604.014813
 11
926.949570
 21
611.779384
  0
LINE
  8
CSLAYER1
  6
CONTINUOUS
 62
     5
 10
955.927344
 20
604.014813
 11
926.949570
 21
596.250242
  0
ENDBLK
  8
0
  0
BLOCK
  8
CSLAYER1
  2
*D0004
 70
    65
 10
0.0
 20
0.0
 30
0.0
  0
TEXT
  8
CSLAYER1
 62
     3
 10
2501.580811
 20
824.014832
 40
40.000000
 41
0.900000
  1
80
 50
90.000000
 51
0.000000
  7
EASYDRAW_FONT
 72
     5
 11
2501.580811
 21
884.014832
  0
LINE
  8
CSLAYER1
  6
CONTINUOUS
 62
     5
 10
2551.863997
 20
814.014813
 11
2501.581129
 21
814.014813
  0
LINE
  8
CSLAYER1
  6
CONTINUOUS
 62
     5
 10
2601.863997
 20
894.014813
 11
2501.581129
 21
894.014813
  0
LINE
  8
CSLAYER1
  6
CONTINUOUS
 62
     5
 10
2511.581129
 20
814.014813
 11
2511.581129
 21
894.014813
  0
LINE
  8
CSLAYER1
  6
CONTINUOUS
 62
     5
 10
2511.581129
 20
814.014813
 11
2503.816558
 21
842.992588
  0
LINE
  8
CSLAYER1
  6
CONTINUOUS
 62
     5
 10
2511.581129
 20
814.014813
 11
2519.345700
 21
842.992588
  0
LINE
  8
CSLAYER1
  6
CONTINUOUS
 62
     5
 10
2511.581129
 20
894.014813
 11
2503.816558
 21
865.037038
  0
LINE
  8
CSLAYER1
  6
CONTINUOUS
 62
     5
 10
2511.581129
 20
894.014813
 11
2519.345700
 21
865.037038
  0
ENDBLK
  8
0
  0
BLOCK
  8
CSLAYER1
  2
*D0005
 70
    65
 10
0.0
 20
0.0
 30
0.0
  0
TEXT
  8
CSLAYER1
 62
     3
 10
2321.581055
 20
824.014832
 40
40.000000
 41
0.900000
  1
80
 50
90.000000
 51
0.000000
  7
EASYDRAW_FONT
 72
     5
 11
2321.581055
 21
884.014832
  0
LINE
  8
CSLAYER1
  6
CONTINUOUS
 62
     5
 10
2204.036170
 20
894.014813
 11
2341.581129
 21
894.014813
  0
LINE
  8
CSLAYER1
  6
CONTINUOUS
 62
     5
 10
2331.581129
 20
814.014813
 11
2331.581129
 21
894.014813
  0
LINE
  8
CSLAYER1
  6
CONTINUOUS
 62
     5
 10
2331.581129
 20
814.014813
 11
2323.816558
 21
842.992588
  0
LINE
  8
CSLAYER1
  6
CONTINUOUS
 62
     5
 10
2331.581129
 20
814.014813
 11
2339.345700
 21
842.992588
  0
LINE
  8
CSLAYER1
  6
CONTINUOUS
 62
     5
 10
2331.581129
 20
894.014813
 11
2323.816558
 21
865.037038
  0
LINE
  8
CSLAYER1
  6
CONTINUOUS
 62
     5
 10
2331.581129
 20
894.014813
 11
2339.345700
 21
865.037038
  0
ENDBLK
  8
0
  0
BLOCK
  8
CSLAYER1
  2
*D0006
 70
    65
 10
0.0
 20
0.0
 30
0.0
  0
TEXT
  8
CSLAYER1
 62
     3
 10
2321.581055
 20
1114.796509
 40
40.000000
 41
0.843750
  1
500
 50
90.000000
 51
0.000000
  7
EASYDRAW_FONT
 72
     5
 11
2321.581055
 21
1204.796509
  0
LINE
  8
CSLAYER1
  6
CONTINUOUS
 62
     5
 10
2331.581129
 20
894.014813
 11
2331.581129
 21
1425.578484
  0
LINE
  8
CSLAYER1
  6
CONTINUOUS
 62
     5
 10
2331.581129
 20
894.014813
 11
2323.816558
 21
922.992588
  0
LINE
  8
CSLAYER1
  6
CONTINUOUS
 62
     5
 10
2331.581129
 20
894.014813
 11
2339.345700
 21
922.992588
  0
LINE
  8
CSLAYER1
  6
CONTINUOUS
 62
     5
 10
2331.581129
 20
1425.578484
 11
2323.816558
 21
1396.600710
  0
LINE
  8
CSLAYER1
  6
CONTINUOUS
 62
     5
 10
2331.581129
 20
1425.578484
 11
2339.345700
 21
1396.600710
  0
ENDBLK
  8
0
  0
BLOCK
  8
CSLAYER1
  2
*D0007
 70
    65
 10
0.0
 20
0.0
 30
0.0
  0
TEXT
  8
CSLAYER1
 62
     3
 10
1768.881104
 20
1535.578369
 40
40.000000
 41
0.843750
  1
800
 50
0.000000
 51
0.000000
  7
EASYDRAW_FONT
 72
     5
 11
1858.881104
 21
1535.578369
  0
LINE
  8
CSLAYER1
  6
CONTINUOUS
 62
     5
 10
1413.881129
 20
1435.578484
 11
1413.881129
 21
1535.578484
  0
LINE
  8
CSLAYER1
  6
CONTINUOUS
 62
     5
 10
2213.881129
 20
1435.578484
 11
2213.881129
 21
1535.578484
  0
LINE
  8
CSLAYER1
  6
CONTINUOUS
 62
     5
 10
1413.881129
 20
1525.578484
 11
2213.881129
 21
1525.578484
  0
LINE
  8
CSLAYER1
  6
CONTINUOUS
 62
     5
 10
1413.881129
 20
1525.578484
 11
1442.858904
 21
1533.343056
  0
LINE
  8
CSLAYER1
  6
CONTINUOUS
 62
     5
 10
1413.881129
 20
1525.578484
 11
1442.858904
 21
1517.813913
  0
LINE
  8
CSLAYER1
  6
CONTINUOUS
 62
     5
 10
2213.881129
 20
1525.578484
 11
2184.903354
 21
1533.343056
  0
LINE
  8
CSLAYER1
  6
CONTINUOUS
 62
     5
 10
2213.881129
 20
1525.578484
 11
2184.903354
 21
1517.813913
  0
ENDBLK
  8
0
  0
BLOCK
  8
CSLAYER1
  2
*D0008
 70
    65
 10
0.0
 20
0.0
 30
0.0
  0
TEXT
  8
CSLAYER1
 62
     3
 10
760.927246
 20
1535.578369
 40
40.000000
 41
0.843750
  1
300
 50
0.000000
 51
0.000000
  7
EASYDRAW_FONT
 72
     5
 11
850.927246
 21
1535.578369
  0
LINE
  8
CSLAYER1
  6
CONTINUOUS
 62
     5
 10
655.927344
 20
1435.578484
 11
655.927344
 21
1535.578484
  0
LINE
  8
CSLAYER1
  6
CONTINUOUS
 62
     5
 10
955.927344
 20
1435.578484
 11
955.927344
 21
1535.578484
  0
LINE
  8
CSLAYER1
  6
CONTINUOUS
 62
     5
 10
655.927344
 20
1525.578484
 11
955.927344
 21
1525.578484
  0
LINE
  8
CSLAYER1
  6
CONTINUOUS
 62
     5
 10
655.927344
 20
1525.578484
 11
684.905119
 21
1533.343056
  0
LINE
  8
CSLAYER1
  6
CONTINUOUS
 62
     5
 10
655.927344
 20
1525.578484
 11
684.905119
 21
1517.813913
  0
LINE
  8
CSLAYER1
  6
CONTINUOUS
 62
     5
 10
955.927344
 20
1525.578484
 11
926.949570
 21
1533.343056
  0
LINE
  8
CSLAYER1
  6
CONTINUOUS
 62
     5
 10
955.927344
 20
1525.578484
 11
926.949570
 21
1517.813913
  0
ENDBLK
  8
0
  0
BLOCK
  8
CSLAYER1
  2
EASYDRAWDIM0002
 70
   64
 10
0.0
 20
0.0
 30
0.0
  0
TEXT
  8
CSLAYER1
 62
     3
 10
1347.068604
 20
1879.858376
 40
33.155758
 41
0.767879
  1
穴ヒﾟッチ
 50
90.000000
 51
0.000000
  7
EASYDRAW_FONT
 72
     5
 11
1347.068604
 21
1998.669945
  0
ENDBLK
  8
0
  0
BLOCK
  8
CSLAYER1
  2
*D0009
 70
    65
 10
0.0
 20
0.0
 30
0.0
  0
TEXT
  8
CSLAYER1
 62
     3
 10
1298.996582
 20
1898.070313
 40
40.000000
 41
0.843750
  1
250
 50
90.000000
 51
0.000000
  7
EASYDRAW_FONT
 72
     5
 11
1298.996582
 21
1988.070313
  0
LINE
  8
CSLAYER1
  6
CONTINUOUS
 62
     5
 10
1395.073369
 20
1856.958687
 11
1296.082110
 21
1856.958687
  0
LINE
  8
CSLAYER1
  6
CONTINUOUS
 62
     5
 10
1395.073369
 20
2106.958687
 11
1296.082110
 21
2106.958687
  0
LINE
  8
CSLAYER1
  6
CONTINUOUS
 62
     5
 10
1306.082110
 20
1856.958687
 11
1306.082110
 21
2106.958687
  0
LINE
  8
CSLAYER1
  6
CONTINUOUS
 62
     5
 10
1306.082110
 20
1856.958687
 11
1298.317539
 21
1885.936462
  0
LINE
  8
CSLAYER1
  6
CONTINUOUS
 62
     5
 10
1306.082110
 20
1856.958687
 11
1313.846681
 21
1885.936462
  0
LINE
  8
CSLAYER1
  6
CONTINUOUS
 62
     5
 10
1306.082110
 20
2106.958687
 11
1298.317539
 21
2077.980912
  0
LINE
  8
CSLAYER1
  6
CONTINUOUS
 62
     5
 10
1306.082110
 20
2106.958687
 11
1313.846681
 21
2077.980912
  0
ENDBLK
  8
0
  0
BLOCK
  8
CSLAYER1
  2
*D0010
 70
    65
 10
0.0
 20
0.0
 30
0.0
  0
TEXT
  8
CSLAYER1
 62
     3
 10
2321.581055
 20
1936.958496
 40
40.000000
 41
0.843750
  1
300
 50
90.000000
 51
0.000000
  7
EASYDRAW_FONT
 72
     5
 11
2321.581055
 21
2026.958496
  0
LINE
  8
CSLAYER1
  6
CONTINUOUS
 62
     5
 10
2231.471873
 20
1831.958687
 11
2341.581129
 21
1831.958687
  0
LINE
  8
CSLAYER1
  6
CONTINUOUS
 62
     5
 10
2231.471873
 20
2131.958687
 11
2341.581129
 21
2131.958687
  0
LINE
  8
CSLAYER1
  6
CONTINUOUS
 62
     5
 10
2331.581129
 20
1831.958687
 11
2331.581129
 21
2131.958687
  0
LINE
  8
CSLAYER1
  6
CONTINUOUS
 62
     5
 10
2331.581129
 20
1831.958687
 11
2323.816558
 21
1860.936462
  0
LINE
  8
CSLAYER1
  6
CONTINUOUS
 62
     5
 10
2331.581129
 20
1831.958687
 11
2339.345700
 21
1860.936462
  0
LINE
  8
CSLAYER1
  6
CONTINUOUS
 62
     5
 10
2331.581129
 20
2131.958687
 11
2323.816558
 21
2102.980912
  0
LINE
  8
CSLAYER1
  6
CONTINUOUS
 62
     5
 10
2331.581129
 20
2131.958687
 11
2339.345700
 21
2102.980912
  0
ENDBLK
  8
0
  0
BLOCK
  8
CSLAYER1
  2
EASYDRAWDIM0003
 70
   64
 10
0.0
 20
0.0
 30
0.0
  0
TEXT
  8
CSLAYER1
 62
     3
 10
260.550598
 20
2227.458008
 40
48.000000
 41
0.787500
  1
昇降切替バルブ
 50
0.000000
 51
0.000000
  7
EASYDRAW_FONT
 72
     5
 11
512.550598
 21
2227.458008
  0
LINE
  8
CSLAYER1
  6
CONTINUOUS
 62
     7
 10
612.446960
 20
2076.736516
 11
512.551160
 21
2217.457872
  0
LINE
  8
CSLAYER1
  6
CONTINUOUS
 62
     7
 10
612.446960
 20
2076.736516
 11
589.341471
 21
2095.871206
  0
LINE
  8
CSLAYER1
  6
CONTINUOUS
 62
     7
 10
612.446960
 20
2076.736516
 11
602.004364
 21
2104.860388
  0
LINE
  8
CSLAYER1
  6
CONTINUOUS
 62
     7
 10
512.551160
 20
2217.457872
 11
252.551160
 21
2217.457872
  0
ENDBLK
  8
0
  0
BLOCK
  8
CSLAYER1
  2
EASYDRAWDIM0004
 70
   64
 10
0.0
 20
0.0
 30
0.0
  0
TEXT
  8
CSLAYER1
 62
     3
 10
284.298157
 20
2138.210449
 40
48.000000
 41
0.794118
  1
ポンプペタル
 50
0.000000
 51
0.000000
  7
EASYDRAW_FONT
 72
     5
 11
500.298157
 21
2138.210449
  0
LINE
  8
CSLAYER1
  6
CONTINUOUS
 62
     7
 10
565.903804
 20
2048.396113
 11
502.250087
 21
2128.210174
  0
LINE
  8
CSLAYER1
  6
CONTINUOUS
 62
     7
 10
565.903804
 20
2048.396113
 11
541.765308
 21
2066.209956
  0
LINE
  8
CSLAYER1
  6
CONTINUOUS
 62
     7
 10
565.903804
 20
2048.396113
 11
553.906174
 21
2075.892602
  0
LINE
  8
CSLAYER1
  6
CONTINUOUS
 62
     7
 10
502.250087
 20
2128.210174
 11
272.250087
 21
2128.210174
  0
ENDBLK
  8
0
  0
BLOCK
  8
CSLAYER1
  2
EASYDRAWDIM0005
 70
   64
 10
0.0
 20
0.0
 30
0.0
  0
TEXT
  8
CSLAYER1
 62
     3
 10
639.018372
 20
2233.331543
 40
48.000000
 41
0.787500
  1
高圧ホース２m
 50
0.000000
 51
0.000000
  7
EASYDRAW_FONT
 72
     5
 11
891.018372
 21
2233.331543
  0
LINE
  8
CSLAYER1
  6
CONTINUOUS
 62
     7
 10
966.334757
 20
2093.486206
 11
899.069725
 21
2223.331497
  0
LINE
  8
CSLAYER1
  6
CONTINUOUS
 62
     7
 10
966.334757
 20
2093.486206
 11
946.111116
 21
2115.644824
  0
LINE
  8
CSLAYER1
  6
CONTINUOUS
 62
     7
 10
966.334757
 20
2093.486206
 11
959.899879
 21
2122.787952
  0
LINE
  8
CSLAYER1
  6
CONTINUOUS
 62
     7
 10
899.069725
 20
2223.331497
 11
629.069725
 21
2223.331497
  0
ENDBLK
  8
0
  0
BLOCK
  8
CSLAYER1
  2
EASYDRAWDIM0006
 70
   64
 10
0.0
 20
0.0
 30
0.0
  0
TEXT
  8
CSLAYER1
 62
     3
 10
1038.836914
 20
703.700500
 40
40.000000
 41
0.803571
  1
2-φ13
 50
0.000000
 51
0.000000
  7
EASYDRAW_FONT
 72
     5
 11
1188.836914
 21
703.700500
  0
ENDBLK
  8
0
  0
BLOCK
  8
CSLAYER1
  2
*D0011
 70
    65
 10
0.0
 20
0.0
 30
0.0
  0
LINE
  8
CSLAYER1
  6
CONTINUOUS
 62
     5
 10
2417.521429
 20
814.014813
 11
2411.581129
 21
814.014813
  0
LINE
  8
CSLAYER1
  6
CONTINUOUS
 62
     5
 10
2223.881129
 20
1425.578484
 11
2431.581129
 21
1425.578484
  0
LINE
  8
CSLAYER1
  6
CONTINUOUS
 62
     5
 10
2421.581129
 20
814.014813
 11
2421.581129
 21
1425.578484
  0
LINE
  8
CSLAYER1
  6
CONTINUOUS
 62
     5
 10
2421.581129
 20
814.014813
 11
2413.816558
 21
842.992588
  0
LINE
  8
CSLAYER1
  6
CONTINUOUS
 62
     5
 10
2421.581129
 20
814.014813
 11
2429.345700
 21
842.992588
  0
LINE
  8
CSLAYER1
  6
CONTINUOUS
 62
     5
 10
2421.581129
 20
1425.578484
 11
2413.816558
 21
1396.600710
  0
LINE
  8
CSLAYER1
  6
CONTINUOUS
 62
     5
 10
2421.581129
 20
1425.578484
 11
2429.345700
 21
1396.600710
  0
TEXT
  8
CSLAYER1
 62
     3
 10
2411.581055
 20
1074.796631
 40
40.000000
 41
0.843750
  1
580
 50
90.000000
 51
0.000000
  7
EASYDRAW_FONT
 72
     5
 11
2411.581055
 21
1164.796631
  0
ENDBLK
  8
0
  0
BLOCK
  8
CSLAYER1
  2
*D0012
 70
    65
 10
0.0
 20
0.0
 30
0.0
  0
LINE
  8
CSLAYER1
  6
CONTINUOUS
 62
     5
 10
1391.336170
 20
804.014813
 11
1391.336170
 21
594.014813
  0
LINE
  8
CSLAYER1
  6
CONTINUOUS
 62
     5
 10
2194.336170
 20
804.014813
 11
2194.336170
 21
594.014813
  0
LINE
  8
CSLAYER1
  6
CONTINUOUS
 62
     5
 10
1391.336170
 20
604.014813
 11
2194.336170
 21
604.014813
  0
LINE
  8
CSLAYER1
  6
CONTINUOUS
 62
     5
 10
1391.336170
 20
604.014813
 11
1420.313945
 21
611.779384
  0
LINE
  8
CSLAYER1
  6
CONTINUOUS
 62
     5
 10
1391.336170
 20
604.014813
 11
1420.313945
 21
596.250242
  0
LINE
  8
CSLAYER1
  6
CONTINUOUS
 62
     5
 10
2194.336170
 20
604.014813
 11
2165.358396
 21
611.779384
  0
LINE
  8
CSLAYER1
  6
CONTINUOUS
 62
     5
 10
2194.336170
 20
604.014813
 11
2165.358396
 21
596.250242
  0
TEXT
  8
CSLAYER1
 62
     3
 10
1747.836182
 20
614.014771
 40
40.000000
 41
0.843750
  1
803
 50
0.000000
 51
0.000000
  7
EASYDRAW_FONT
 72
     5
 11
1837.836182
 21
614.014771
  0
ENDBLK
  8
0
  0
BLOCK
  8
CSLAYER1
  2
*D0013
 70
    65
 10
0.0
 20
0.0
 30
0.0
  0
LINE
  8
CSLAYER1
  6
CONTINUOUS
 62
     5
 10
1391.336170
 20
804.014813
 11
1391.336170
 21
684.014813
  0
LINE
  8
CSLAYER1
  6
CONTINUOUS
 62
     5
 10
1416.336170
 20
810.545158
 11
1416.336170
 21
684.014813
  0
LINE
  8
CSLAYER1
  6
CONTINUOUS
 62
     5
 10
1391.336170
 20
694.014813
 11
1416.336170
 21
694.014813
  0
LINE
  8
CSLAYER1
  6
CONTINUOUS
 62
     5
 10
1341.336170
 20
694.014813
 11
1391.336170
 21
694.014813
  0
LINE
  8
CSLAYER1
  6
CONTINUOUS
 62
     5
 10
1391.336170
 20
694.014813
 11
1362.358396
 21
701.779384
  0
LINE
  8
CSLAYER1
  6
CONTINUOUS
 62
     5
 10
1391.336170
 20
694.014813
 11
1362.358396
 21
686.250242
  0
LINE
  8
CSLAYER1
  6
CONTINUOUS
 62
     5
 10
1416.336170
 20
694.014813
 11
1506.336170
 21
694.014813
  0
LINE
  8
CSLAYER1
  6
CONTINUOUS
 62
     5
 10
1416.336170
 20
694.014813
 11
1445.313945
 21
701.779384
  0
LINE
  8
CSLAYER1
  6
CONTINUOUS
 62
     5
 10
1416.336170
 20
694.014813
 11
1445.313945
 21
686.250242
  0
TEXT
  8
CSLAYER1
 62
     3
 10
1446.336182
 20
704.014771
 40
40.000000
 41
0.900000
  1
25
 50
0.000000
 51
0.000000
  7
EASYDRAW_FONT
 72
     5
 11
1506.336182
 21
704.014771
  0
ENDBLK
  8
0
  0
BLOCK
  8
CSLAYER1
  2
*D0014
 70
    65
 10
0.0
 20
0.0
 30
0.0
  0
LINE
  8
CSLAYER1
  6
CONTINUOUS
 62
     5
 10
1391.336170
 20
1831.958687
 11
1391.336170
 21
1701.958687
  0
LINE
  8
CSLAYER1
  6
CONTINUOUS
 62
     5
 10
1416.336170
 20
1835.695885
 11
1416.336170
 21
1701.958687
  0
LINE
  8
CSLAYER1
  6
CONTINUOUS
 62
     5
 10
1391.336170
 20
1711.958687
 11
1416.336170
 21
1711.958687
  0
LINE
  8
CSLAYER1
  6
CONTINUOUS
 62
     5
 10
1304.439207
 20
1711.958687
 11
1391.336170
 21
1711.958687
  0
LINE
  8
CSLAYER1
  6
CONTINUOUS
 62
     5
 10
1391.336170
 20
1711.958687
 11
1362.358396
 21
1719.723258
  0
LINE
  8
CSLAYER1
  6
CONTINUOUS
 62
     5
 10
1391.336170
 20
1711.958687
 11
1362.358396
 21
1704.194116
  0
LINE
  8
CSLAYER1
  6
CONTINUOUS
 62
     5
 10
1416.336170
 20
1711.958687
 11
1466.336170
 21
1711.958687
  0
LINE
  8
CSLAYER1
  6
CONTINUOUS
 62
     5
 10
1416.336170
 20
1711.958687
 11
1445.313945
 21
1719.723258
  0
LINE
  8
CSLAYER1
  6
CONTINUOUS
 62
     5
 10
1416.336170
 20
1711.958687
 11
1445.313945
 21
1704.194116
  0
TEXT
  8
CSLAYER1
 62
     3
 10
1308.827759
 20
1721.958618
 40
40.000000
 41
0.900000
  1
25
 50
0.000000
 51
0.000000
  7
EASYDRAW_FONT
 72
     5
 11
1368.827759
 21
1721.958618
  0
ENDBLK
  8
0
  0
BLOCK
  8
CSLAYER1
  2
*D0015
 70
    65
 10
0.0
 20
0.0
 30
0.0
  0
LINE
  8
CSLAYER1
  6
CONTINUOUS
 62
     5
 10
1391.336170
 20
1831.958687
 11
1391.336170
 21
1611.958687
  0
LINE
  8
CSLAYER1
  6
CONTINUOUS
 62
     5
 10
1441.336170
 20
1831.958687
 11
1441.336170
 21
1611.958687
  0
LINE
  8
CSLAYER1
  6
CONTINUOUS
 62
     5
 10
1391.336170
 20
1621.958687
 11
1441.336170
 21
1621.958687
  0
LINE
  8
CSLAYER1
  6
CONTINUOUS
 62
     5
 10
1304.439207
 20
1621.958687
 11
1391.336170
 21
1621.958687
  0
LINE
  8
CSLAYER1
  6
CONTINUOUS
 62
     5
 10
1391.336170
 20
1621.958687
 11
1362.358396
 21
1629.723258
  0
LINE
  8
CSLAYER1
  6
CONTINUOUS
 62
     5
 10
1391.336170
 20
1621.958687
 11
1362.358396
 21
1614.194116
  0
LINE
  8
CSLAYER1
  6
CONTINUOUS
 62
     5
 10
1441.336170
 20
1621.958687
 11
1491.336170
 21
1621.958687
  0
LINE
  8
CSLAYER1
  6
CONTINUOUS
 62
     5
 10
1441.336170
 20
1621.958687
 11
1470.313945
 21
1629.723258
  0
LINE
  8
CSLAYER1
  6
CONTINUOUS
 62
     5
 10
1441.336170
 20
1621.958687
 11
1470.313945
 21
1614.194116
  0
TEXT
  8
CSLAYER1
 62
     3
 10
1308.827759
 20
1631.958618
 40
40.000000
 41
0.900000
  1
50
 50
0.000000
 51
0.000000
  7
EASYDRAW_FONT
 72
     5
 11
1368.827759
 21
1631.958618
  0
ENDBLK
  8
0
  0
BLOCK
  8
CSLAYER1
  2
EASYDRAWDIM0007
 70
   64
 10
0.0
 20
0.0
 30
0.0
  0
TEXT
  8
CSLAYER1
 62
     3
 10
1506.080078
 20
1721.958374
 40
40.000000
 41
0.771429
  1
2-%%c13(アンカー穴)
 50
0.000000
 51
0.000000
  7
EASYDRAW_FONT
 72
     5
 11
1866.080078
 21
1721.958374
  0
LINE
  8
CSLAYER1
  6
CONTINUOUS
 62
     5
 10
1501.738759
 20
1711.958687
 11
1876.080012
 21
1711.958687
  0
ENDBLK
  8
0
  0
BLOCK
  8
CSLAYER1
  2
BLKF0000
 70
   64
 10
0.0
 20
0.0
 30
0.0
  0
LINE
  8
CSLAYER1
  6
CONTINUOUS
 62
     3
 10
705.927344
 20
854.014813
 11
805.927344
 21
854.014813
  0
LINE
  8
CSLAYER1
  6
CONTINUOUS
 62
     3
 10
705.927344
 20
854.014813
 11
705.927344
 21
820.014813
  0
LINE
  8
CSLAYER1
  6
CONTINUOUS
 62
     3
 10
905.927344
 20
854.014813
 11
805.927344
 21
854.014813
  0
LINE
  8
CSLAYER1
  6
CONTINUOUS
 62
     3
 10
955.927344
 20
814.014813
 11
655.927344
 21
814.014813
  0
LINE
  8
CSLAYER1
  6
CONTINUOUS
 62
     3
 10
905.927344
 20
854.014813
 11
905.927344
 21
820.014813
  0
LINE
  8
CSLAYER1
  6
CONTINUOUS
 62
     3
 10
955.927344
 20
814.014813
 11
955.927344
 21
820.014813
  0
LINE
  8
CSLAYER1
  6
CENTER
 62
     5
 10
930.927344
 20
805.085452
 11
930.927344
 21
829.295413
  0
LINE
  8
CSLAYER1
  6
CONTINUOUS
 62
     3
 10
880.427344
 20
820.014813
 11
880.427344
 21
854.014813
  0
LINE
  8
CSLAYER1
  6
CONTINUOUS
 62
     3
 10
955.927344
 20
820.014813
 11
874.427344
 21
820.014813
  0
LINE
  8
CSLAYER1
  6
CONTINUOUS
 62
     3
 10
655.927344
 20
814.014813
 11
655.927344
 21
820.014813
  0
LINE
  8
CSLAYER1
  6
CENTER
 62
     5
 10
680.927344
 20
805.085452
 11
680.927344
 21
829.295413
  0
LINE
  8
CSLAYER1
  6
CONTINUOUS
 62
     3
 10
655.927344
 20
820.014813
 11
737.427344
 21
820.014813
  0
LINE
  8
CSLAYER1
  6
CONTINUOUS
 62
     3
 10
731.427344
 20
820.014813
 11
731.427344
 21
854.014813
  0
LINE
  8
CSLAYER1
  6
CENTER
 62
     5
 10
775.927344
 20
817.325250
 11
775.927344
 21
850.588569
  0
LINE
  8
CSLAYER1
  6
CENTER
 62
     5
 10
758.053398
 20
834.014813
 11
795.050355
 21
834.014813
  0
CIRCLE
  8
CSLAYER1
  6
CONTINUOUS
 62
     3
 10
775.927344
 20
834.014813
 40
12.500000
  0
LINE
  8
CSLAYER1
  6
CENTER
 62
     5
 10
720.427344
 20
831.514813
 11
891.427344
 21
831.514813
  0
LINE
  8
CSLAYER1
  6
CONTINUOUS
 62
     3
 10
737.427344
 20
814.014813
 11
737.427344
 21
854.014813
  0
LINE
  8
CSLAYER1
  6
CONTINUOUS
 62
     3
 10
874.427344
 20
814.014813
 11
874.427344
 21
854.014813
  0
ENDBLK
  8
0
  0
BLOCK
  8
CSLAYER1
  2
BLKF0001
 70
   64
 10
0.0
 20
0.0
 30
0.0
  0
LINE
  8
CSLAYER1
  6
CONTINUOUS
 62
     3
 10
872.427344
 20
1380.808829
 11
872.427344
 21
1395.578484
  0
LINE
  8
CSLAYER1
  6
CONTINUOUS
 62
     3
 10
869.427344
 20
1381.028484
 11
872.427344
 21
1381.028484
  0
LINE
  8
CSLAYER1
  6
CONTINUOUS
 62
     3
 10
869.427344
 20
1390.266288
 11
872.427344
 21
1393.766288
  0
LINE
  8
CSLAYER1
  6
CONTINUOUS
 62
     3
 10
880.427344
 20
1391.778484
 11
880.427344
 21
1395.578484
  0
ARC
  8
CSLAYER1
  6
CONTINUOUS
 62
     3
 10
866.631600
 20
1391.778484
 40
13.795744
 50
0.000000
 51
15.988670
  0
LINE
  8
CSLAYER1
  6
CONTINUOUS
 62
     3
 10
880.427344
 20
1391.778484
 11
880.427344
 21
1382.778484
  0
LINE
  8
CSLAYER1
  6
CONTINUOUS
 62
     3
 10
872.427344
 20
1386.293657
 11
879.290163
 21
1386.293657
  0
LINE
  8
CSLAYER1
  6
CONTINUOUS
 62
     3
 10
872.427344
 20
1380.808829
 11
879.290163
 21
1380.808829
  0
LINE
  8
CSLAYER1
  6
CONTINUOUS
 62
     3
 10
880.427344
 20
1382.778484
 11
879.290163
 21
1380.808829
  0
ARC
  8
CSLAYER1
  6
CONTINUOUS
 62
     3
 10
876.647300
 20
1383.551243
 40
3.808617
 50
5.661633
 51
46.059028
  0
ARC
  8
CSLAYER1
  6
CONTINUOUS
 62
     3
 10
866.631600
 20
1391.778484
 40
13.795744
 50
336.573402
 51
360.000000
  0
ENDBLK
  8
0
  0
BLOCK
  8
CSLAYER1
  2
BLKF0002
 70
   64
 10
0.0
 20
0.0
 30
0.0
  0
LINE
  8
CSLAYER1
  6
CENTER
 62
     5
 10
816.427344
 20
1195.449950
 11
816.427344
 21
871.814754
  0
LINE
  8
CSLAYER1
  6
CONTINUOUS
 62
     3
 10
838.927344
 20
1169.249950
 11
838.927344
 21
1194.449950
  0
LINE
  8
CSLAYER1
  6
CONTINUOUS
 62
     3
 10
793.927344
 20
1169.249950
 11
793.927344
 21
1194.449950
  0
LINE
  8
CSLAYER1
  6
CONTINUOUS
 62
     3
 10
794.927344
 20
1195.449950
 11
837.927344
 21
1195.449950
  0
LINE
  8
CSLAYER1
  6
CONTINUOUS
 62
     3
 10
793.927344
 20
1194.449950
 11
794.927344
 21
1195.449950
  0
LINE
  8
CSLAYER1
  6
CONTINUOUS
 62
     3
 10
837.927344
 20
1195.449950
 11
838.927344
 21
1194.449950
  0
POINT
  8
CSLAYER1
 62
     3
 10
816.427344
 20
1181.849950
  0
LINE
  8
CSLAYER1
  6
CONTINUOUS
 62
     3
 10
839.927344
 20
1189.849950
 11
838.927344
 21
1189.849950
  0
LINE
  8
CSLAYER1
  6
CONTINUOUS
 62
     3
 10
793.927344
 20
1189.849950
 11
792.927344
 21
1189.849950
  0
LINE
  8
CSLAYER1
  6
CENTER
 62
     5
 10
787.427344
 20
899.142962
 11
845.427344
 21
899.142962
  0
LINE
  8
CSLAYER1
  6
CONTINUOUS
 62
     3
 10
839.339822
 20
1059.975316
 11
843.822699
 21
1042.686090
  0
LINE
  8
CSLAYER1
  6
CONTINUOUS
 62
     3
 10
839.339822
 20
1059.975316
 11
839.077923
 21
1060.939761
  0
LINE
  8
CSLAYER1
  6
CONTINUOUS
 62
     3
 10
839.077923
 20
1060.939761
 11
838.643638
 21
1061.889469
  0
LINE
  8
CSLAYER1
  6
CONTINUOUS
 62
     3
 10
838.643638
 20
1061.889469
 11
838.040275
 21
1062.817213
  0
LINE
  8
CSLAYER1
  6
CONTINUOUS
 62
     3
 10
838.040275
 20
1062.817213
 11
837.272423
 21
1063.715932
  0
LINE
  8
CSLAYER1
  6
CONTINUOUS
 62
     3
 10
837.272423
 20
1063.715932
 11
836.345929
 21
1064.578786
  0
LINE
  8
CSLAYER1
  6
CONTINUOUS
 62
     3
 10
836.345929
 20
1064.578786
 11
835.267841
 21
1065.399209
  0
LINE
  8
CSLAYER1
  6
CONTINUOUS
 62
     3
 10
835.267841
 20
1065.399209
 11
834.046367
 21
1066.170957
  0
LINE
  8
CSLAYER1
  6
CONTINUOUS
 62
     3
 10
834.046367
 20
1066.170957
 11
832.690800
 21
1066.888156
  0
LINE
  8
CSLAYER1
  6
CONTINUOUS
 62
     3
 10
832.690800
 20
1066.888156
 11
831.211459
 21
1067.545347
  0
LINE
  8
CSLAYER1
  6
CONTINUOUS
 62
     3
 10
831.211459
 20
1067.545347
 11
829.619602
 21
1068.137530
  0
LINE
  8
CSLAYER1
  6
CONTINUOUS
 62
     3
 10
829.619602
 20
1068.137530
 11
827.927344
 21
1068.660197
  0
LINE
  8
CSLAYER1
  6
CONTINUOUS
 62
     3
 10
827.927344
 20
1068.660197
 11
826.147564
 21
1069.109371
  0
LINE
  8
CSLAYER1
  6
CONTINUOUS
 62
     3
 10
826.147564
 20
1069.109371
 11
824.293808
 21
1069.481632
  0
LINE
  8
CSLAYER1
  6
CONTINUOUS
 62
     3
 10
824.293808
 20
1069.481632
 11
822.380182
 21
1069.774149
  0
LINE
  8
CSLAYER1
  6
CONTINUOUS
 62
     3
 10
822.380182
 20
1069.774149
 11
820.421252
 21
1069.984694
  0
LINE
  8
CSLAYER1
  6
CONTINUOUS
 62
     3
 10
820.421252
 20
1069.984694
 11
818.431926
 21
1070.111666
  0
LINE
  8
CSLAYER1
  6
CONTINUOUS
 62
     3
 10
818.431926
 20
1070.111666
 11
816.427344
 21
1070.154097
  0
LINE
  8
CSLAYER1
  6
CONTINUOUS
 62
     3
 10
793.514866
 20
1059.975316
 11
789.031990
 21
1042.686090
  0
LINE
  8
CSLAYER1
  6
CONTINUOUS
 62
     3
 10
793.514866
 20
1059.975316
 11
793.776766
 21
1060.939761
  0
LINE
  8
CSLAYER1
  6
CONTINUOUS
 62
     3
 10
793.776766
 20
1060.939761
 11
794.211050
 21
1061.889469
  0
LINE
  8
CSLAYER1
  6
CONTINUOUS
 62
     3
 10
794.211050
 20
1061.889469
 11
794.814414
 21
1062.817213
  0
LINE
  8
CSLAYER1
  6
CONTINUOUS
 62
     3
 10
794.814414
 20
1062.817213
 11
795.582265
 21
1063.715932
  0
LINE
  8
CSLAYER1
  6
CONTINUOUS
 62
     3
 10
795.582265
 20
1063.715932
 11
796.508760
 21
1064.578786
  0
LINE
  8
CSLAYER1
  6
CONTINUOUS
 62
     3
 10
796.508760
 20
1064.578786
 11
797.586847
 21
1065.399209
  0
LINE
  8
CSLAYER1
  6
CONTINUOUS
 62
     3
 10
797.586847
 20
1065.399209
 11
798.808322
 21
1066.170957
  0
LINE
  8
CSLAYER1
  6
CONTINUOUS
 62
     3
 10
798.808322
 20
1066.170957
 11
800.163888
 21
1066.888156
  0
LINE
  8
CSLAYER1
  6
CONTINUOUS
 62
     3
 10
800.163888
 20
1066.888156
 11
801.643229
 21
1067.545347
  0
LINE
  8
CSLAYER1
  6
CONTINUOUS
 62
     3
 10
801.643229
 20
1067.545347
 11
803.235086
 21
1068.137530
  0
LINE
  8
CSLAYER1
  6
CONTINUOUS
 62
     3
 10
803.235086
 20
1068.137530
 11
804.927344
 21
1068.660197
  0
LINE
  8
CSLAYER1
  6
CONTINUOUS
 62
     3
 10
804.927344
 20
1068.660197
 11
806.707124
 21
1069.109371
  0
LINE
  8
CSLAYER1
  6
CONTINUOUS
 62
     3
 10
806.707124
 20
1069.109371
 11
808.560881
 21
1069.481632
  0
LINE
  8
CSLAYER1
  6
CONTINUOUS
 62
     3
 10
808.560881
 20
1069.481632
 11
810.474506
 21
1069.774149
  0
LINE
  8
CSLAYER1
  6
CONTINUOUS
 62
     3
 10
810.474506
 20
1069.774149
 11
812.433436
 21
1069.984694
  0
LINE
  8
CSLAYER1
  6
CONTINUOUS
 62
     3
 10
812.433436
 20
1069.984694
 11
814.422762
 21
1070.111666
  0
LINE
  8
CSLAYER1
  6
CONTINUOUS
 62
     3
 10
814.422762
 20
1070.111666
 11
816.427344
 21
1070.154097
  0
LINE
  8
CSLAYER1
  6
CONTINUOUS
 62
     3
 10
834.427344
 20
1065.930249
 11
834.427344
 21
1170.693167
  0
LINE
  8
CSLAYER1
  6
CONTINUOUS
 62
     3
 10
834.427344
 20
1170.184830
 11
834.358849
 21
1170.945401
  0
LINE
  8
CSLAYER1
  6
CONTINUOUS
 62
     3
 10
834.358849
 20
1170.945401
 11
834.153884
 21
1171.700183
  0
LINE
  8
CSLAYER1
  6
CONTINUOUS
 62
     3
 10
834.153884
 20
1171.700183
 11
833.814009
 21
1172.443433
  0
LINE
  8
CSLAYER1
  6
CONTINUOUS
 62
     3
 10
833.814009
 20
1172.443433
 11
833.341812
 21
1173.169494
  0
LINE
  8
CSLAYER1
  6
CONTINUOUS
 62
     3
 10
833.341812
 20
1173.169494
 11
832.740885
 21
1173.872839
  0
LINE
  8
CSLAYER1
  6
CONTINUOUS
 62
     3
 10
832.740885
 20
1173.872839
 11
832.015802
 21
1174.548116
  0
LINE
  8
CSLAYER1
  6
CONTINUOUS
 62
     3
 10
832.015802
 20
1174.548116
 11
831.172081
 21
1175.190187
  0
LINE
  8
CSLAYER1
  6
CONTINUOUS
 62
     3
 10
831.172081
 20
1175.190187
 11
830.216144
 21
1175.794163
  0
LINE
  8
CSLAYER1
  6
CONTINUOUS
 62
     3
 10
830.216144
 20
1175.794163
 11
829.155266
 21
1176.355449
  0
LINE
  8
CSLAYER1
  6
CONTINUOUS
 62
     3
 10
829.155266
 20
1176.355449
 11
827.997521
 21
1176.869773
  0
LINE
  8
CSLAYER1
  6
CONTINUOUS
 62
     3
 10
827.997521
 20
1176.869773
 11
826.751720
 21
1177.333220
  0
LINE
  8
CSLAYER1
  6
CONTINUOUS
 62
     3
 10
826.751720
 20
1177.333220
 11
825.427344
 21
1177.742264
  0
LINE
  8
CSLAYER1
  6
CONTINUOUS
 62
     3
 10
825.427344
 20
1177.742264
 11
824.034473
 21
1178.093791
  0
LINE
  8
CSLAYER1
  6
CONTINUOUS
 62
     3
 10
824.034473
 20
1178.093791
 11
822.583707
 21
1178.385126
  0
LINE
  8
CSLAYER1
  6
CONTINUOUS
 62
     3
 10
822.583707
 20
1178.385126
 11
821.086087
 21
1178.614052
  0
LINE
  8
CSLAYER1
  6
CONTINUOUS
 62
     3
 10
821.086087
 20
1178.614052
 11
819.553012
 21
1178.778827
  0
LINE
  8
CSLAYER1
  6
CONTINUOUS
 62
     3
 10
819.553012
 20
1178.778827
 11
817.996148
 21
1178.878196
  0
LINE
  8
CSLAYER1
  6
CONTINUOUS
 62
     3
 10
817.996148
 20
1178.878196
 11
816.427344
 21
1178.911403
  0
LINE
  8
CSLAYER1
  6
CONTINUOUS
 62
     3
 10
816.427344
 20
1178.911403
 11
814.858541
 21
1178.878196
  0
LINE
  8
CSLAYER1
  6
CONTINUOUS
 62
     3
 10
814.858541
 20
1178.878196
 11
813.301677
 21
1178.778827
  0
LINE
  8
CSLAYER1
  6
CONTINUOUS
 62
     3
 10
813.301677
 20
1178.778827
 11
811.768602
 21
1178.614052
  0
LINE
  8
CSLAYER1
  6
CONTINUOUS
 62
     3
 10
811.768602
 20
1178.614052
 11
810.270982
 21
1178.385126
  0
LINE
  8
CSLAYER1
  6
CONTINUOUS
 62
     3
 10
810.270982
 20
1178.385126
 11
808.820216
 21
1178.093791
  0
LINE
  8
CSLAYER1
  6
CONTINUOUS
 62
     3
 10
808.820216
 20
1178.093791
 11
807.427344
 21
1177.742264
  0
LINE
  8
CSLAYER1
  6
CONTINUOUS
 62
     3
 10
807.427344
 20
1177.742264
 11
806.102968
 21
1177.333220
  0
LINE
  8
CSLAYER1
  6
CONTINUOUS
 62
     3
 10
806.102968
 20
1177.333220
 11
804.857167
 21
1176.869773
  0
LINE
  8
CSLAYER1
  6
CONTINUOUS
 62
     3
 10
804.857167
 20
1176.869773
 11
803.699422
 21
1176.355449
  0
LINE
  8
CSLAYER1
  6
CONTINUOUS
 62
     3
 10
803.699422
 20
1176.355449
 11
802.638544
 21
1175.794163
  0
LINE
  8
CSLAYER1
  6
CONTINUOUS
 62
     3
 10
802.638544
 20
1175.794163
 11
801.682608
 21
1175.190187
  0
LINE
  8
CSLAYER1
  6
CONTINUOUS
 62
     3
 10
801.682608
 20
1175.190187
 11
800.838887
 21
1174.548116
  0
LINE
  8
CSLAYER1
  6
CONTINUOUS
 62
     3
 10
800.838887
 20
1174.548116
 11
800.113804
 21
1173.872839
  0
LINE
  8
CSLAYER1
  6
CONTINUOUS
 62
     3
 10
800.113804
 20
1173.872839
 11
799.512877
 21
1173.169494
  0
LINE
  8
CSLAYER1
  6
CONTINUOUS
 62
     3
 10
799.512877
 20
1173.169494
 11
799.040679
 21
1172.443433
  0
LINE
  8
CSLAYER1
  6
CONTINUOUS
 62
     3
 10
799.040679
 20
1172.443433
 11
798.700805
 21
1171.700183
  0
LINE
  8
CSLAYER1
  6
CONTINUOUS
 62
     3
 10
798.700805
 20
1171.700183
 11
798.495840
 21
1170.945401
  0
LINE
  8
CSLAYER1
  6
CONTINUOUS
 62
     3
 10
798.495840
 20
1170.945401
 11
798.427344
 21
1170.184830
  0
LINE
  8
CSLAYER1
  6
CONTINUOUS
 62
     3
 10
843.927344
 20
1041.524107
 11
843.927344
 21
1010.935211
  0
LINE
  8
CSLAYER1
  6
CONTINUOUS
 62
     3
 10
843.927344
 20
1041.524107
 11
843.822699
 21
1042.686090
  0
LINE
  8
CSLAYER1
  6
CONTINUOUS
 62
     3
 10
843.822699
 20
1042.686090
 11
843.509558
 21
1043.839230
  0
LINE
  8
CSLAYER1
  6
CONTINUOUS
 62
     3
 10
843.509558
 20
1043.839230
 11
842.990305
 21
1044.974751
  0
LINE
  8
CSLAYER1
  6
CONTINUOUS
 62
     3
 10
842.990305
 20
1044.974751
 11
842.268891
 21
1046.084010
  0
LINE
  8
CSLAYER1
  6
CONTINUOUS
 62
     3
 10
842.268891
 20
1046.084010
 11
841.350808
 21
1047.158565
  0
LINE
  8
CSLAYER1
  6
CONTINUOUS
 62
     3
 10
841.350808
 20
1047.158565
 11
840.243043
 21
1048.190239
  0
LINE
  8
CSLAYER1
  6
CONTINUOUS
 62
     3
 10
840.243043
 20
1048.190239
 11
838.954026
 21
1049.171180
  0
LINE
  8
CSLAYER1
  6
CONTINUOUS
 62
     3
 10
838.954026
 20
1049.171180
 11
837.493567
 21
1050.093921
  0
LINE
  8
CSLAYER1
  6
CONTINUOUS
 62
     3
 10
837.493567
 20
1050.093921
 11
835.872781
 21
1050.951441
  0
LINE
  8
CSLAYER1
  6
CONTINUOUS
 62
     3
 10
835.872781
 20
1050.951441
 11
834.104004
 21
1051.737214
  0
LINE
  8
CSLAYER1
  6
CONTINUOUS
 62
     3
 10
834.104004
 20
1051.737214
 11
832.200696
 21
1052.445258
  0
LINE
  8
CSLAYER1
  6
CONTINUOUS
 62
     3
 10
832.200696
 20
1052.445258
 11
830.177344
 21
1053.070187
  0
LINE
  8
CSLAYER1
  6
CONTINUOUS
 62
     3
 10
830.177344
 20
1053.070187
 11
828.049347
 21
1053.607242
  0
LINE
  8
CSLAYER1
  6
CONTINUOUS
 62
     3
 10
828.049347
 20
1053.607242
 11
825.832898
 21
1054.052337
  0
LINE
  8
CSLAYER1
  6
CONTINUOUS
 62
     3
 10
825.832898
 20
1054.052337
 11
823.544868
 21
1054.402085
  0
LINE
  8
CSLAYER1
  6
CONTINUOUS
 62
     3
 10
823.544868
 20
1054.402085
 11
821.202669
 21
1054.653824
  0
LINE
  8
CSLAYER1
  6
CONTINUOUS
 62
     3
 10
821.202669
 20
1054.653824
 11
818.824127
 21
1054.805638
  0
LINE
  8
CSLAYER1
  6
CONTINUOUS
 62
     3
 10
818.824127
 20
1054.805638
 11
816.427344
 21
1054.856371
  0
LINE
  8
CSLAYER1
  6
CONTINUOUS
 62
     3
 10
816.427344
 20
1054.856371
 11
814.030561
 21
1054.805638
  0
LINE
  8
CSLAYER1
  6
CONTINUOUS
 62
     3
 10
814.030561
 20
1054.805638
 11
811.652019
 21
1054.653824
  0
LINE
  8
CSLAYER1
  6
CONTINUOUS
 62
     3
 10
811.652019
 20
1054.653824
 11
809.309821
 21
1054.402085
  0
LINE
  8
CSLAYER1
  6
CONTINUOUS
 62
     3
 10
809.309821
 20
1054.402085
 11
807.021790
 21
1054.052337
  0
LINE
  8
CSLAYER1
  6
CONTINUOUS
 62
     3
 10
807.021790
 20
1054.052337
 11
804.805342
 21
1053.607242
  0
LINE
  8
CSLAYER1
  6
CONTINUOUS
 62
     3
 10
804.805342
 20
1053.607242
 11
802.677344
 21
1053.070187
  0
LINE
  8
CSLAYER1
  6
CONTINUOUS
 62
     3
 10
802.677344
 20
1053.070187
 11
800.653992
 21
1052.445258
  0
LINE
  8
CSLAYER1
  6
CONTINUOUS
 62
     3
 10
800.653992
 20
1052.445258
 11
798.750685
 21
1051.737214
  0
LINE
  8
CSLAYER1
  6
CONTINUOUS
 62
     3
 10
798.750685
 20
1051.737214
 11
796.981908
 21
1050.951441
  0
LINE
  8
CSLAYER1
  6
CONTINUOUS
 62
     3
 10
796.981908
 20
1050.951441
 11
795.361122
 21
1050.093921
  0
LINE
  8
CSLAYER1
  6
CONTINUOUS
 62
     3
 10
795.361122
 20
1050.093921
 11
793.900663
 21
1049.171180
  0
LINE
  8
CSLAYER1
  6
CONTINUOUS
 62
     3
 10
793.900663
 20
1049.171180
 11
792.611646
 21
1048.190239
  0
LINE
  8
CSLAYER1
  6
CONTINUOUS
 62
     3
 10
792.611646
 20
1048.190239
 11
791.503880
 21
1047.158565
  0
LINE
  8
CSLAYER1
  6
CONTINUOUS
 62
     3
 10
791.503880
 20
1047.158565
 11
790.585797
 21
1046.084010
  0
LINE
  8
CSLAYER1
  6
CONTINUOUS
 62
     3
 10
790.585797
 20
1046.084010
 11
789.864384
 21
1044.974751
  0
LINE
  8
CSLAYER1
  6
CONTINUOUS
 62
     3
 10
789.864384
 20
1044.974751
 11
789.345131
 21
1043.839230
  0
LINE
  8
CSLAYER1
  6
CONTINUOUS
 62
     3
 10
789.345131
 20
1043.839230
 11
789.031990
 21
1042.686090
  0
LINE
  8
CSLAYER1
  6
CONTINUOUS
 62
     3
 10
789.031990
 20
1042.686090
 11
788.927344
 21
1041.524107
  0
LINE
  8
CSLAYER1
  6
CONTINUOUS
 62
     3
 10
788.927344
 20
1041.524107
 11
788.927344
 21
1010.935211
  0
LINE
  8
CSLAYER1
  6
CONTINUOUS
 62
     3
 10
840.727344
 20
916.622331
 11
840.727344
 21
1010.935211
  0
LINE
  8
CSLAYER1
  6
CONTINUOUS
 62
     3
 10
843.927344
 20
1010.935211
 11
843.822699
 21
1012.097194
  0
LINE
  8
CSLAYER1
  6
CONTINUOUS
 62
     3
 10
843.822699
 20
1012.097194
 11
843.509558
 21
1013.250334
  0
LINE
  8
CSLAYER1
  6
CONTINUOUS
 62
     3
 10
843.509558
 20
1013.250334
 11
842.990305
 21
1014.385855
  0
LINE
  8
CSLAYER1
  6
CONTINUOUS
 62
     3
 10
842.990305
 20
1014.385855
 11
842.268891
 21
1015.495114
  0
LINE
  8
CSLAYER1
  6
CONTINUOUS
 62
     3
 10
842.268891
 20
1015.495114
 11
841.350808
 21
1016.569669
  0
LINE
  8
CSLAYER1
  6
CONTINUOUS
 62
     3
 10
841.350808
 20
1016.569669
 11
840.243043
 21
1017.601343
  0
LINE
  8
CSLAYER1
  6
CONTINUOUS
 62
     3
 10
840.243043
 20
1017.601343
 11
838.954026
 21
1018.582284
  0
LINE
  8
CSLAYER1
  6
CONTINUOUS
 62
     3
 10
838.954026
 20
1018.582284
 11
837.493567
 21
1019.505025
  0
LINE
  8
CSLAYER1
  6
CONTINUOUS
 62
     3
 10
837.493567
 20
1019.505025
 11
835.872781
 21
1020.362545
  0
LINE
  8
CSLAYER1
  6
CONTINUOUS
 62
     3
 10
835.872781
 20
1020.362545
 11
834.104004
 21
1021.148318
  0
LINE
  8
CSLAYER1
  6
CONTINUOUS
 62
     3
 10
834.104004
 20
1021.148318
 11
832.200696
 21
1021.856363
  0
LINE
  8
CSLAYER1
  6
CONTINUOUS
 62
     3
 10
832.200696
 20
1021.856363
 11
830.177344
 21
1022.481291
  0
LINE
  8
CSLAYER1
  6
CONTINUOUS
 62
     3
 10
830.177344
 20
1022.481291
 11
828.049347
 21
1023.018346
  0
LINE
  8
CSLAYER1
  6
CONTINUOUS
 62
     3
 10
828.049347
 20
1023.018346
 11
825.832898
 21
1023.463441
  0
LINE
  8
CSLAYER1
  6
CONTINUOUS
 62
     3
 10
825.832898
 20
1023.463441
 11
823.544868
 21
1023.813189
  0
LINE
  8
CSLAYER1
  6
CONTINUOUS
 62
     3
 10
823.544868
 20
1023.813189
 11
821.202669
 21
1024.064928
  0
LINE
  8
CSLAYER1
  6
CONTINUOUS
 62
     3
 10
821.202669
 20
1024.064928
 11
818.824127
 21
1024.216742
  0
LINE
  8
CSLAYER1
  6
CONTINUOUS
 62
     3
 10
818.824127
 20
1024.216742
 11
816.427344
 21
1024.267475
  0
LINE
  8
CSLAYER1
  6
CONTINUOUS
 62
     3
 10
816.427344
 20
1024.267475
 11
814.030561
 21
1024.216742
  0
LINE
  8
CSLAYER1
  6
CONTINUOUS
 62
     3
 10
814.030561
 20
1024.216742
 11
811.652019
 21
1024.064928
  0
LINE
  8
CSLAYER1
  6
CONTINUOUS
 62
     3
 10
811.652019
 20
1024.064928
 11
809.309821
 21
1023.813189
  0
LINE
  8
CSLAYER1
  6
CONTINUOUS
 62
     3
 10
809.309821
 20
1023.813189
 11
807.021790
 21
1023.463441
  0
LINE
  8
CSLAYER1
  6
CONTINUOUS
 62
     3
 10
807.021790
 20
1023.463441
 11
804.805342
 21
1023.018346
  0
LINE
  8
CSLAYER1
  6
CONTINUOUS
 62
     3
 10
804.805342
 20
1023.018346
 11
802.677344
 21
1022.481291
  0
LINE
  8
CSLAYER1
  6
CONTINUOUS
 62
     3
 10
802.677344
 20
1022.481291
 11
800.653992
 21
1021.856363
  0
LINE
  8
CSLAYER1
  6
CONTINUOUS
 62
     3
 10
800.653992
 20
1021.856363
 11
798.750685
 21
1021.148318
  0
LINE
  8
CSLAYER1
  6
CONTINUOUS
 62
     3
 10
798.750685
 20
1021.148318
 11
796.981908
 21
1020.362545
  0
LINE
  8
CSLAYER1
  6
CONTINUOUS
 62
     3
 10
796.981908
 20
1020.362545
 11
795.361122
 21
1019.505025
  0
LINE
  8
CSLAYER1
  6
CONTINUOUS
 62
     3
 10
795.361122
 20
1019.505025
 11
793.900663
 21
1018.582284
  0
LINE
  8
CSLAYER1
  6
CONTINUOUS
 62
     3
 10
793.900663
 20
1018.582284
 11
792.611646
 21
1017.601343
  0
LINE
  8
CSLAYER1
  6
CONTINUOUS
 62
     3
 10
792.611646
 20
1017.601343
 11
791.503880
 21
1016.569669
  0
LINE
  8
CSLAYER1
  6
CONTINUOUS
 62
     3
 10
791.503880
 20
1016.569669
 11
790.585797
 21
1015.495114
  0
LINE
  8
CSLAYER1
  6
CONTINUOUS
 62
     3
 10
790.585797
 20
1015.495114
 11
789.864384
 21
1014.385855
  0
LINE
  8
CSLAYER1
  6
CONTINUOUS
 62
     3
 10
789.864384
 20
1014.385855
 11
789.345131
 21
1013.250334
  0
LINE
  8
CSLAYER1
  6
CONTINUOUS
 62
     3
 10
789.345131
 20
1013.250334
 11
789.031990
 21
1012.097194
  0
LINE
  8
CSLAYER1
  6
CONTINUOUS
 62
     3
 10
789.031990
 20
1012.097194
 11
788.927344
 21
1010.935211
  0
LINE
  8
CSLAYER1
  6
CONTINUOUS
 62
     3
 10
788.927344
 20
1010.935211
 11
789.031990
 21
1009.773227
  0
LINE
  8
CSLAYER1
  6
CONTINUOUS
 62
     3
 10
789.031990
 20
1009.773227
 11
789.345131
 21
1008.620087
  0
LINE
  8
CSLAYER1
  6
CONTINUOUS
 62
     3
 10
789.345131
 20
1008.620087
 11
789.864384
 21
1007.484567
  0
LINE
  8
CSLAYER1
  6
CONTINUOUS
 62
     3
 10
789.864384
 20
1007.484567
 11
790.585797
 21
1006.375308
  0
LINE
  8
CSLAYER1
  6
CONTINUOUS
 62
     3
 10
790.585797
 20
1006.375308
 11
791.503880
 21
1005.300752
  0
LINE
  8
CSLAYER1
  6
CONTINUOUS
 62
     3
 10
791.503880
 20
1005.300752
 11
792.127344
 21
1004.720114
  0
LINE
  8
CSLAYER1
  6
CONTINUOUS
 62
     3
 10
840.727344
 20
1004.720114
 11
841.350808
 21
1005.300752
  0
LINE
  8
CSLAYER1
  6
CONTINUOUS
 62
     3
 10
841.350808
 20
1005.300752
 11
842.268891
 21
1006.375308
  0
LINE
  8
CSLAYER1
  6
CONTINUOUS
 62
     3
 10
842.268891
 20
1006.375308
 11
842.990305
 21
1007.484567
  0
LINE
  8
CSLAYER1
  6
CONTINUOUS
 62
     3
 10
842.990305
 20
1007.484567
 11
843.509558
 21
1008.620087
  0
LINE
  8
CSLAYER1
  6
CONTINUOUS
 62
     3
 10
843.509558
 20
1008.620087
 11
843.822699
 21
1009.773227
  0
LINE
  8
CSLAYER1
  6
CONTINUOUS
 62
     3
 10
843.822699
 20
1009.773227
 11
843.927344
 21
1010.935211
  0
LINE
  8
CSLAYER1
  6
CONTINUOUS
 62
     3
 10
840.727344
 20
1010.935211
 11
840.634876
 21
1011.961982
  0
LINE
  8
CSLAYER1
  6
CONTINUOUS
 62
     3
 10
840.634876
 20
1011.961982
 11
840.358173
 21
1012.980938
  0
LINE
  8
CSLAYER1
  6
CONTINUOUS
 62
     3
 10
840.358173
 20
1012.980938
 11
839.899342
 21
1013.984325
  0
LINE
  8
CSLAYER1
  6
CONTINUOUS
 62
     3
 10
839.899342
 20
1013.984325
 11
839.261875
 21
1014.964507
  0
LINE
  8
CSLAYER1
  6
CONTINUOUS
 62
     3
 10
839.261875
 20
1014.964507
 11
838.450624
 21
1015.914023
  0
LINE
  8
CSLAYER1
  6
CONTINUOUS
 62
     3
 10
838.450624
 20
1015.914023
 11
837.471762
 21
1016.825648
  0
LINE
  8
CSLAYER1
  6
CONTINUOUS
 62
     3
 10
837.471762
 20
1016.825648
 11
836.332739
 21
1017.692442
  0
LINE
  8
CSLAYER1
  6
CONTINUOUS
 62
     3
 10
836.332739
 20
1017.692442
 11
835.042224
 21
1018.507810
  0
LINE
  8
CSLAYER1
  6
CONTINUOUS
 62
     3
 10
835.042224
 20
1018.507810
 11
833.610039
 21
1019.265547
  0
LINE
  8
CSLAYER1
  6
CONTINUOUS
 62
     3
 10
833.610039
 20
1019.265547
 11
832.047083
 21
1019.959884
  0
LINE
  8
CSLAYER1
  6
CONTINUOUS
 62
     3
 10
832.047083
 20
1019.959884
 11
830.365252
 21
1020.585538
  0
LINE
  8
CSLAYER1
  6
CONTINUOUS
 62
     3
 10
830.365252
 20
1020.585538
 11
828.577344
 21
1021.137747
  0
LINE
  8
CSLAYER1
  6
CONTINUOUS
 62
     3
 10
828.577344
 20
1021.137747
 11
826.696968
 21
1021.612308
  0
LINE
  8
CSLAYER1
  6
CONTINUOUS
 62
     3
 10
826.696968
 20
1021.612308
 11
824.738434
 21
1022.005611
  0
LINE
  8
CSLAYER1
  6
CONTINUOUS
 62
     3
 10
824.738434
 20
1022.005611
 11
822.716647
 21
1022.314661
  0
LINE
  8
CSLAYER1
  6
CONTINUOUS
 62
     3
 10
822.716647
 20
1022.314661
 11
820.646995
 21
1022.537107
  0
LINE
  8
CSLAYER1
  6
CONTINUOUS
 62
     3
 10
820.646995
 20
1022.537107
 11
818.545229
 21
1022.671255
  0
LINE
  8
CSLAYER1
  6
CONTINUOUS
 62
     3
 10
818.545229
 20
1022.671255
 11
816.427344
 21
1022.716085
  0
LINE
  8
CSLAYER1
  6
CONTINUOUS
 62
     3
 10
816.427344
 20
1022.716085
 11
814.309460
 21
1022.671255
  0
LINE
  8
CSLAYER1
  6
CONTINUOUS
 62
     3
 10
814.309460
 20
1022.671255
 11
812.207694
 21
1022.537107
  0
LINE
  8
CSLAYER1
  6
CONTINUOUS
 62
     3
 10
812.207694
 20
1022.537107
 11
810.138042
 21
1022.314661
  0
LINE
  8
CSLAYER1
  6
CONTINUOUS
 62
     3
 10
810.138042
 20
1022.314661
 11
808.116255
 21
1022.005611
  0
LINE
  8
CSLAYER1
  6
CONTINUOUS
 62
     3
 10
808.116255
 20
1022.005611
 11
806.157721
 21
1021.612308
  0
LINE
  8
CSLAYER1
  6
CONTINUOUS
 62
     3
 10
806.157721
 20
1021.612308
 11
804.277344
 21
1021.137747
  0
LINE
  8
CSLAYER1
  6
CONTINUOUS
 62
     3
 10
804.277344
 20
1021.137747
 11
802.489437
 21
1020.585538
  0
LINE
  8
CSLAYER1
  6
CONTINUOUS
 62
     3
 10
802.489437
 20
1020.585538
 11
800.807605
 21
1019.959884
  0
LINE
  8
CSLAYER1
  6
CONTINUOUS
 62
     3
 10
800.807605
 20
1019.959884
 11
799.244650
 21
1019.265547
  0
LINE
  8
CSLAYER1
  6
CONTINUOUS
 62
     3
 10
799.244650
 20
1019.265547
 11
797.812464
 21
1018.507810
  0
LINE
  8
CSLAYER1
  6
CONTINUOUS
 62
     3
 10
797.812464
 20
1018.507810
 11
796.521950
 21
1017.692442
  0
LINE
  8
CSLAYER1
  6
CONTINUOUS
 62
     3
 10
796.521950
 20
1017.692442
 11
795.382927
 21
1016.825648
  0
LINE
  8
CSLAYER1
  6
CONTINUOUS
 62
     3
 10
795.382927
 20
1016.825648
 11
794.404065
 21
1015.914023
  0
LINE
  8
CSLAYER1
  6
CONTINUOUS
 62
     3
 10
794.404065
 20
1015.914023
 11
793.592814
 21
1014.964507
  0
LINE
  8
CSLAYER1
  6
CONTINUOUS
 62
     3
 10
793.592814
 20
1014.964507
 11
792.955347
 21
1013.984325
  0
LINE
  8
CSLAYER1
  6
CONTINUOUS
 62
     3
 10
792.955347
 20
1013.984325
 11
792.496516
 21
1012.980938
  0
LINE
  8
CSLAYER1
  6
CONTINUOUS
 62
     3
 10
792.496516
 20
1012.980938
 11
792.219813
 21
1011.961982
  0
LINE
  8
CSLAYER1
  6
CONTINUOUS
 62
     3
 10
792.219813
 20
1011.961982
 11
792.127344
 21
1010.935211
  0
LINE
  8
CSLAYER1
  6
CONTINUOUS
 62
     3
 10
792.127344
 20
916.622331
 11
792.127344
 21
1010.935211
  0
LINE
  8
CSLAYER1
  6
CONTINUOUS
 62
     3
 10
798.427344
 20
1065.930249
 11
798.427344
 21
1170.184830
  0
LINE
  8
CSLAYER1
  6
CONTINUOUS
 62
     3
 10
838.927344
 20
886.033436
 11
838.927344
 21
916.622331
  0
LINE
  8
CSLAYER1
  6
CONTINUOUS
 62
     3
 10
838.927344
 20
916.622331
 11
838.841725
 21
917.573045
  0
LINE
  8
CSLAYER1
  6
CONTINUOUS
 62
     3
 10
838.841725
 20
917.573045
 11
838.585519
 21
918.516523
  0
LINE
  8
CSLAYER1
  6
CONTINUOUS
 62
     3
 10
838.585519
 20
918.516523
 11
838.160675
 21
919.445586
  0
LINE
  8
CSLAYER1
  6
CONTINUOUS
 62
     3
 10
838.160675
 20
919.445586
 11
837.570428
 21
920.353161
  0
LINE
  8
CSLAYER1
  6
CONTINUOUS
 62
     3
 10
837.570428
 20
920.353161
 11
836.819270
 21
921.232343
  0
LINE
  8
CSLAYER1
  6
CONTINUOUS
 62
     3
 10
836.819270
 20
921.232343
 11
835.912916
 21
922.076440
  0
LINE
  8
CSLAYER1
  6
CONTINUOUS
 62
     3
 10
835.912916
 20
922.076440
 11
834.858265
 21
922.879027
  0
LINE
  8
CSLAYER1
  6
CONTINUOUS
 62
     3
 10
834.858265
 20
922.879027
 11
833.663344
 21
923.633998
  0
LINE
  8
CSLAYER1
  6
CONTINUOUS
 62
     3
 10
833.663344
 20
923.633998
 11
832.337247
 21
924.335605
  0
LINE
  8
CSLAYER1
  6
CONTINUOUS
 62
     3
 10
832.337247
 20
924.335605
 11
830.890066
 21
924.978510
  0
LINE
  8
CSLAYER1
  6
CONTINUOUS
 62
     3
 10
830.890066
 20
924.978510
 11
829.332814
 21
925.557819
  0
LINE
  8
CSLAYER1
  6
CONTINUOUS
 62
     3
 10
829.332814
 20
925.557819
 11
827.677344
 21
926.069124
  0
LINE
  8
CSLAYER1
  6
CONTINUOUS
 62
     3
 10
827.677344
 20
926.069124
 11
825.936255
 21
926.508533
  0
LINE
  8
CSLAYER1
  6
CONTINUOUS
 62
     3
 10
825.936255
 20
926.508533
 11
824.122798
 21
926.872702
  0
LINE
  8
CSLAYER1
  6
CONTINUOUS
 62
     3
 10
824.122798
 20
926.872702
 11
822.250773
 21
927.158859
  0
LINE
  8
CSLAYER1
  6
CONTINUOUS
 62
     3
 10
822.250773
 20
927.158859
 11
820.334428
 21
927.364828
  0
LINE
  8
CSLAYER1
  6
CONTINUOUS
 62
     3
 10
820.334428
 20
927.364828
 11
818.388349
 21
927.489039
  0
LINE
  8
CSLAYER1
  6
CONTINUOUS
 62
     3
 10
818.388349
 20
927.489039
 11
816.427344
 21
927.530548
  0
LINE
  8
CSLAYER1
  6
CONTINUOUS
 62
     3
 10
816.427344
 20
927.530548
 11
814.466340
 21
927.489039
  0
LINE
  8
CSLAYER1
  6
CONTINUOUS
 62
     3
 10
814.466340
 20
927.489039
 11
812.520260
 21
927.364828
  0
LINE
  8
CSLAYER1
  6
CONTINUOUS
 62
     3
 10
812.520260
 20
927.364828
 11
810.603916
 21
927.158859
  0
LINE
  8
CSLAYER1
  6
CONTINUOUS
 62
     3
 10
810.603916
 20
927.158859
 11
808.731891
 21
926.872702
  0
LINE
  8
CSLAYER1
  6
CONTINUOUS
 62
     3
 10
808.731891
 20
926.872702
 11
806.918433
 21
926.508533
  0
LINE
  8
CSLAYER1
  6
CONTINUOUS
 62
     3
 10
806.918433
 20
926.508533
 11
805.177344
 21
926.069124
  0
LINE
  8
CSLAYER1
  6
CONTINUOUS
 62
     3
 10
805.177344
 20
926.069124
 11
803.521875
 21
925.557819
  0
LINE
  8
CSLAYER1
  6
CONTINUOUS
 62
     3
 10
803.521875
 20
925.557819
 11
801.964623
 21
924.978510
  0
LINE
  8
CSLAYER1
  6
CONTINUOUS
 62
     3
 10
801.964623
 20
924.978510
 11
800.517442
 21
924.335605
  0
LINE
  8
CSLAYER1
  6
CONTINUOUS
 62
     3
 10
800.517442
 20
924.335605
 11
799.191344
 21
923.633998
  0
LINE
  8
CSLAYER1
  6
CONTINUOUS
 62
     3
 10
799.191344
 20
923.633998
 11
797.996423
 21
922.879027
  0
LINE
  8
CSLAYER1
  6
CONTINUOUS
 62
     3
 10
797.996423
 20
922.879027
 11
796.941773
 21
922.076440
  0
LINE
  8
CSLAYER1
  6
CONTINUOUS
 62
     3
 10
796.941773
 20
922.076440
 11
796.035419
 21
921.232343
  0
LINE
  8
CSLAYER1
  6
CONTINUOUS
 62
     3
 10
796.035419
 20
921.232343
 11
795.284260
 21
920.353161
  0
LINE
  8
CSLAYER1
  6
CONTINUOUS
 62
     3
 10
795.284260
 20
920.353161
 11
794.694013
 21
919.445586
  0
LINE
  8
CSLAYER1
  6
CONTINUOUS
 62
     3
 10
794.694013
 20
919.445586
 11
794.269170
 21
918.516523
  0
LINE
  8
CSLAYER1
  6
CONTINUOUS
 62
     3
 10
794.269170
 20
918.516523
 11
794.012964
 21
917.573045
  0
LINE
  8
CSLAYER1
  6
CONTINUOUS
 62
     3
 10
794.012964
 20
917.573045
 11
793.927344
 21
916.622331
  0
LINE
  8
CSLAYER1
  6
CONTINUOUS
 62
     3
 10
840.727344
 20
916.622331
 11
840.634876
 21
917.649102
  0
LINE
  8
CSLAYER1
  6
CONTINUOUS
 62
     3
 10
840.634876
 20
917.649102
 11
840.358173
 21
918.668059
  0
LINE
  8
CSLAYER1
  6
CONTINUOUS
 62
     3
 10
840.358173
 20
918.668059
 11
839.899342
 21
919.671446
  0
LINE
  8
CSLAYER1
  6
CONTINUOUS
 62
     3
 10
839.899342
 20
919.671446
 11
839.261875
 21
920.651628
  0
LINE
  8
CSLAYER1
  6
CONTINUOUS
 62
     3
 10
839.261875
 20
920.651628
 11
838.450624
 21
921.601144
  0
LINE
  8
CSLAYER1
  6
CONTINUOUS
 62
     3
 10
838.450624
 20
921.601144
 11
837.471762
 21
922.512768
  0
LINE
  8
CSLAYER1
  6
CONTINUOUS
 62
     3
 10
837.471762
 20
922.512768
 11
836.332739
 21
923.379563
  0
LINE
  8
CSLAYER1
  6
CONTINUOUS
 62
     3
 10
836.332739
 20
923.379563
 11
835.042224
 21
924.194931
  0
LINE
  8
CSLAYER1
  6
CONTINUOUS
 62
     3
 10
835.042224
 20
924.194931
 11
833.610039
 21
924.952667
  0
LINE
  8
CSLAYER1
  6
CONTINUOUS
 62
     3
 10
833.610039
 20
924.952667
 11
832.047083
 21
925.647004
  0
LINE
  8
CSLAYER1
  6
CONTINUOUS
 62
     3
 10
832.047083
 20
925.647004
 11
830.365252
 21
926.272658
  0
LINE
  8
CSLAYER1
  6
CONTINUOUS
 62
     3
 10
830.365252
 20
926.272658
 11
828.577344
 21
926.824867
  0
LINE
  8
CSLAYER1
  6
CONTINUOUS
 62
     3
 10
828.577344
 20
926.824867
 11
826.696968
 21
927.299429
  0
LINE
  8
CSLAYER1
  6
CONTINUOUS
 62
     3
 10
826.696968
 20
927.299429
 11
824.738434
 21
927.692732
  0
LINE
  8
CSLAYER1
  6
CONTINUOUS
 62
     3
 10
824.738434
 20
927.692732
 11
822.716647
 21
928.001782
  0
LINE
  8
CSLAYER1
  6
CONTINUOUS
 62
     3
 10
822.716647
 20
928.001782
 11
820.646995
 21
928.224227
  0
LINE
  8
CSLAYER1
  6
CONTINUOUS
 62
     3
 10
820.646995
 20
928.224227
 11
818.545229
 21
928.358375
  0
LINE
  8
CSLAYER1
  6
CONTINUOUS
 62
     3
 10
818.545229
 20
928.358375
 11
816.427344
 21
928.403205
  0
LINE
  8
CSLAYER1
  6
CONTINUOUS
 62
     3
 10
816.427344
 20
928.403205
 11
814.309460
 21
928.358375
  0
LINE
  8
CSLAYER1
  6
CONTINUOUS
 62
     3
 10
814.309460
 20
928.358375
 11
812.207694
 21
928.224227
  0
LINE
  8
CSLAYER1
  6
CONTINUOUS
 62
     3
 10
812.207694
 20
928.224227
 11
810.138042
 21
928.001782
  0
LINE
  8
CSLAYER1
  6
CONTINUOUS
 62
     3
 10
810.138042
 20
928.001782
 11
808.116255
 21
927.692732
  0
LINE
  8
CSLAYER1
  6
CONTINUOUS
 62
     3
 10
808.116255
 20
927.692732
 11
806.157721
 21
927.299429
  0
LINE
  8
CSLAYER1
  6
CONTINUOUS
 62
     3
 10
806.157721
 20
927.299429
 11
804.277344
 21
926.824867
  0
LINE
  8
CSLAYER1
  6
CONTINUOUS
 62
     3
 10
804.277344
 20
926.824867
 11
802.489437
 21
926.272658
  0
LINE
  8
CSLAYER1
  6
CONTINUOUS
 62
     3
 10
802.489437
 20
926.272658
 11
800.807605
 21
925.647004
  0
LINE
  8
CSLAYER1
  6
CONTINUOUS
 62
     3
 10
800.807605
 20
925.647004
 11
799.244650
 21
924.952667
  0
LINE
  8
CSLAYER1
  6
CONTINUOUS
 62
     3
 10
799.244650
 20
924.952667
 11
797.812464
 21
924.194931
  0
LINE
  8
CSLAYER1
  6
CONTINUOUS
 62
     3
 10
797.812464
 20
924.194931
 11
796.521950
 21
923.379563
  0
LINE
  8
CSLAYER1
  6
CONTINUOUS
 62
     3
 10
796.521950
 20
923.379563
 11
795.382927
 21
922.512768
  0
LINE
  8
CSLAYER1
  6
CONTINUOUS
 62
     3
 10
795.382927
 20
922.512768
 11
794.404065
 21
921.601144
  0
LINE
  8
CSLAYER1
  6
CONTINUOUS
 62
     3
 10
794.404065
 20
921.601144
 11
793.592814
 21
920.651628
  0
LINE
  8
CSLAYER1
  6
CONTINUOUS
 62
     3
 10
793.592814
 20
920.651628
 11
792.955347
 21
919.671446
  0
LINE
  8
CSLAYER1
  6
CONTINUOUS
 62
     3
 10
792.955347
 20
919.671446
 11
792.496516
 21
918.668059
  0
LINE
  8
CSLAYER1
  6
CONTINUOUS
 62
     3
 10
792.496516
 20
918.668059
 11
792.219813
 21
917.649102
  0
LINE
  8
CSLAYER1
  6
CONTINUOUS
 62
     3
 10
792.219813
 20
917.649102
 11
792.127344
 21
916.622331
  0
LINE
  8
CSLAYER1
  6
CONTINUOUS
 62
     3
 10
792.127344
 20
916.622331
 11
792.219813
 21
915.595561
  0
LINE
  8
CSLAYER1
  6
CONTINUOUS
 62
     3
 10
792.219813
 20
915.595561
 11
792.325105
 21
915.207826
  0
LINE
  8
CSLAYER1
  6
CONTINUOUS
 62
     3
 10
793.427344
 20
912.847464
 11
793.592814
 21
912.593035
  0
LINE
  8
CSLAYER1
  6
CONTINUOUS
 62
     3
 10
793.592814
 20
912.593035
 11
793.927344
 21
912.201489
  0
LINE
  8
CSLAYER1
  6
CONTINUOUS
 62
     3
 10
838.927344
 20
912.201489
 11
839.261875
 21
912.593035
  0
LINE
  8
CSLAYER1
  6
CONTINUOUS
 62
     3
 10
839.261875
 20
912.593035
 11
839.427344
 21
912.847464
  0
LINE
  8
CSLAYER1
  6
CONTINUOUS
 62
     3
 10
840.529584
 20
915.207826
 11
840.634876
 21
915.595561
  0
LINE
  8
CSLAYER1
  6
CONTINUOUS
 62
     3
 10
840.634876
 20
915.595561
 11
840.727344
 21
916.622331
  0
LINE
  8
CSLAYER1
  6
CONTINUOUS
 62
     3
 10
793.927344
 20
886.033436
 11
793.927344
 21
916.622331
  0
LINE
  8
CSLAYER1
  6
CONTINUOUS
 62
     3
 10
838.927344
 20
886.033436
 11
838.841725
 21
886.984149
  0
LINE
  8
CSLAYER1
  6
CONTINUOUS
 62
     3
 10
838.841725
 20
886.984149
 11
838.585519
 21
887.927627
  0
LINE
  8
CSLAYER1
  6
CONTINUOUS
 62
     3
 10
838.585519
 20
887.927627
 11
838.160675
 21
888.856690
  0
LINE
  8
CSLAYER1
  6
CONTINUOUS
 62
     3
 10
838.160675
 20
888.856690
 11
837.570428
 21
889.764265
  0
LINE
  8
CSLAYER1
  6
CONTINUOUS
 62
     3
 10
837.570428
 20
889.764265
 11
836.819270
 21
890.643447
  0
LINE
  8
CSLAYER1
  6
CONTINUOUS
 62
     3
 10
836.819270
 20
890.643447
 11
835.912916
 21
891.487544
  0
LINE
  8
CSLAYER1
  6
CONTINUOUS
 62
     3
 10
835.912916
 20
891.487544
 11
834.858265
 21
892.290131
  0
LINE
  8
CSLAYER1
  6
CONTINUOUS
 62
     3
 10
834.858265
 20
892.290131
 11
833.663344
 21
893.045102
  0
LINE
  8
CSLAYER1
  6
CONTINUOUS
 62
     3
 10
833.663344
 20
893.045102
 11
832.337247
 21
893.746709
  0
LINE
  8
CSLAYER1
  6
CONTINUOUS
 62
     3
 10
832.337247
 20
893.746709
 11
830.890066
 21
894.389614
  0
LINE
  8
CSLAYER1
  6
CONTINUOUS
 62
     3
 10
830.890066
 20
894.389614
 11
829.332814
 21
894.968923
  0
LINE
  8
CSLAYER1
  6
CONTINUOUS
 62
     3
 10
829.332814
 20
894.968923
 11
827.677344
 21
895.480228
  0
LINE
  8
CSLAYER1
  6
CONTINUOUS
 62
     3
 10
827.677344
 20
895.480228
 11
825.936255
 21
895.919637
  0
LINE
  8
CSLAYER1
  6
CONTINUOUS
 62
     3
 10
825.936255
 20
895.919637
 11
824.122798
 21
896.283806
  0
LINE
  8
CSLAYER1
  6
CONTINUOUS
 62
     3
 10
824.122798
 20
896.283806
 11
822.250773
 21
896.569964
  0
LINE
  8
CSLAYER1
  6
CONTINUOUS
 62
     3
 10
822.250773
 20
896.569964
 11
820.334428
 21
896.775932
  0
LINE
  8
CSLAYER1
  6
CONTINUOUS
 62
     3
 10
820.334428
 20
896.775932
 11
818.388349
 21
896.900143
  0
LINE
  8
CSLAYER1
  6
CONTINUOUS
 62
     3
 10
818.388349
 20
896.900143
 11
816.427344
 21
896.941652
  0
LINE
  8
CSLAYER1
  6
CONTINUOUS
 62
     3
 10
816.427344
 20
896.941652
 11
814.466340
 21
896.900143
  0
LINE
  8
CSLAYER1
  6
CONTINUOUS
 62
     3
 10
814.466340
 20
896.900143
 11
812.520260
 21
896.775932
  0
LINE
  8
CSLAYER1
  6
CONTINUOUS
 62
     3
 10
812.520260
 20
896.775932
 11
810.603916
 21
896.569964
  0
LINE
  8
CSLAYER1
  6
CONTINUOUS
 62
     3
 10
810.603916
 20
896.569964
 11
808.731891
 21
896.283806
  0
LINE
  8
CSLAYER1
  6
CONTINUOUS
 62
     3
 10
808.731891
 20
896.283806
 11
806.918433
 21
895.919637
  0
LINE
  8
CSLAYER1
  6
CONTINUOUS
 62
     3
 10
806.918433
 20
895.919637
 11
805.177344
 21
895.480228
  0
LINE
  8
CSLAYER1
  6
CONTINUOUS
 62
     3
 10
805.177344
 20
895.480228
 11
803.521875
 21
894.968923
  0
LINE
  8
CSLAYER1
  6
CONTINUOUS
 62
     3
 10
803.521875
 20
894.968923
 11
801.964623
 21
894.389614
  0
LINE
  8
CSLAYER1
  6
CONTINUOUS
 62
     3
 10
801.964623
 20
894.389614
 11
800.517442
 21
893.746709
  0
LINE
  8
CSLAYER1
  6
CONTINUOUS
 62
     3
 10
800.517442
 20
893.746709
 11
799.191344
 21
893.045102
  0
LINE
  8
CSLAYER1
  6
CONTINUOUS
 62
     3
 10
799.191344
 20
893.045102
 11
797.996423
 21
892.290131
  0
LINE
  8
CSLAYER1
  6
CONTINUOUS
 62
     3
 10
797.996423
 20
892.290131
 11
796.941773
 21
891.487544
  0
LINE
  8
CSLAYER1
  6
CONTINUOUS
 62
     3
 10
796.941773
 20
891.487544
 11
796.035419
 21
890.643447
  0
LINE
  8
CSLAYER1
  6
CONTINUOUS
 62
     3
 10
796.035419
 20
890.643447
 11
795.284260
 21
889.764265
  0
LINE
  8
CSLAYER1
  6
CONTINUOUS
 62
     3
 10
795.284260
 20
889.764265
 11
794.694013
 21
888.856690
  0
LINE
  8
CSLAYER1
  6
CONTINUOUS
 62
     3
 10
794.694013
 20
888.856690
 11
794.269170
 21
887.927627
  0
LINE
  8
CSLAYER1
  6
CONTINUOUS
 62
     3
 10
794.269170
 20
887.927627
 11
794.012964
 21
886.984149
  0
LINE
  8
CSLAYER1
  6
CONTINUOUS
 62
     3
 10
794.012964
 20
886.984149
 11
793.927344
 21
886.033436
  0
LINE
  8
CSLAYER1
  6
CONTINUOUS
 62
     3
 10
793.927344
 20
886.033436
 11
794.012964
 21
885.082722
  0
LINE
  8
CSLAYER1
  6
CONTINUOUS
 62
     3
 10
794.012964
 20
885.082722
 11
794.269170
 21
884.139244
  0
LINE
  8
CSLAYER1
  6
CONTINUOUS
 62
     3
 10
794.269170
 20
884.139244
 11
794.694013
 21
883.210181
  0
LINE
  8
CSLAYER1
  6
CONTINUOUS
 62
     3
 10
794.694013
 20
883.210181
 11
795.284260
 21
882.302606
  0
LINE
  8
CSLAYER1
  6
CONTINUOUS
 62
     3
 10
795.284260
 20
882.302606
 11
795.470666
 21
882.084431
  0
LINE
  8
CSLAYER1
  6
CONTINUOUS
 62
     3
 10
837.384023
 20
882.084431
 11
837.570428
 21
882.302606
  0
LINE
  8
CSLAYER1
  6
CONTINUOUS
 62
     3
 10
837.570428
 20
882.302606
 11
838.160675
 21
883.210181
  0
LINE
  8
CSLAYER1
  6
CONTINUOUS
 62
     3
 10
838.160675
 20
883.210181
 11
838.585519
 21
884.139244
  0
LINE
  8
CSLAYER1
  6
CONTINUOUS
 62
     3
 10
838.585519
 20
884.139244
 11
838.841725
 21
885.082722
  0
LINE
  8
CSLAYER1
  6
CONTINUOUS
 62
     3
 10
838.841725
 20
885.082722
 11
838.927344
 21
886.033436
  0
LINE
  8
CSLAYER1
  6
CENTER
 62
     5
 10
776.427344
 20
853.093068
 11
776.427344
 21
995.185056
  0
LINE
  8
CSLAYER1
  6
CONTINUOUS
 62
     3
 10
783.427344
 20
1007.848864
 11
769.427344
 21
1007.848864
  0
LINE
  8
CSLAYER1
  6
CONTINUOUS
 62
     3
 10
783.427344
 20
1000.048864
 11
769.427344
 21
1000.048864
  0
LINE
  8
CSLAYER1
  6
CONTINUOUS
 62
     3
 10
782.859276
 20
994.848864
 11
769.995413
 21
994.848864
  0
LINE
  8
CSLAYER1
  6
CONTINUOUS
 62
     3
 10
782.427344
 20
992.848864
 11
770.427344
 21
992.848864
  0
LINE
  8
CSLAYER1
  6
CONTINUOUS
 62
     3
 10
782.427344
 20
985.848864
 11
770.427344
 21
985.848864
  0
LINE
  8
CSLAYER1
  6
CONTINUOUS
 62
     3
 10
781.310370
 20
960.848864
 11
771.544318
 21
960.848864
  0
LINE
  8
CSLAYER1
  6
CONTINUOUS
 62
     3
 10
781.927344
 20
982.848864
 11
781.927344
 21
985.848864
  0
LINE
  8
CSLAYER1
  6
CONTINUOUS
 62
     3
 10
784.510248
 20
1000.674079
 11
784.510248
 21
1007.223649
  0
LINE
  8
CSLAYER1
  6
CONTINUOUS
 62
     3
 10
780.468796
 20
1000.674079
 11
780.468796
 21
1007.223649
  0
ARC
  8
CSLAYER1
  6
CONTINUOUS
 62
     3
 10
753.739574
 20
1000.091085
 40
29.587800
 50
345.831727
 51
359.918240
  0
ARC
  8
CSLAYER1
  6
CONTINUOUS
 62
     3
 10
799.115115
 20
1000.091085
 40
29.587800
 50
180.081760
 51
194.168273
  0
LINE
  8
CSLAYER1
  6
CONTINUOUS
 62
     3
 10
780.774658
 20
992.848864
 11
780.774658
 21
994.848864
  0
LINE
  8
CSLAYER1
  6
CONTINUOUS
 62
     3
 10
778.792893
 20
992.848864
 11
778.792893
 21
994.848864
  0
LINE
  8
CSLAYER1
  6
CONTINUOUS
 62
     3
 10
772.080030
 20
992.848864
 11
772.080030
 21
994.848864
  0
LINE
  8
CSLAYER1
  6
CONTINUOUS
 62
     3
 10
774.061796
 20
992.848864
 11
774.061796
 21
994.848864
  0
LINE
  8
CSLAYER1
  6
CONTINUOUS
 62
     3
 10
783.427344
 20
1007.848864
 11
784.510248
 21
1007.223649
  0
ARC
  8
CSLAYER1
  6
CONTINUOUS
 62
     3
 10
782.489522
 20
1004.297235
 40
3.556295
 50
64.625569
 51
124.625569
  0
ARC
  8
CSLAYER1
  6
CONTINUOUS
 62
     3
 10
776.427344
 20
994.474079
 40
13.374785
 50
72.412046
 51
90.000000
  0
LINE
  8
CSLAYER1
  6
CONTINUOUS
 62
     3
 10
783.427344
 20
1000.048864
 11
784.510248
 21
1000.674079
  0
ARC
  8
CSLAYER1
  6
CONTINUOUS
 62
     3
 10
782.489522
 20
1003.600493
 40
3.556295
 50
235.374431
 51
295.374431
  0
ARC
  8
CSLAYER1
  6
CONTINUOUS
 62
     3
 10
776.427344
 20
1013.423649
 40
13.374785
 50
270.000000
 51
287.587954
  0
LINE
  8
CSLAYER1
  6
CONTINUOUS
 62
     3
 10
768.344441
 20
1000.674079
 11
768.344441
 21
1007.223649
  0
LINE
  8
CSLAYER1
  6
CONTINUOUS
 62
     3
 10
772.385892
 20
1000.674079
 11
772.385892
 21
1007.223649
  0
LINE
  8
CSLAYER1
  6
CONTINUOUS
 62
     3
 10
769.427344
 20
1007.848864
 11
768.344441
 21
1007.223649
  0
ARC
  8
CSLAYER1
  6
CONTINUOUS
 62
     3
 10
770.365167
 20
1004.297235
 40
3.556295
 50
55.374431
 51
115.374431
  0
ARC
  8
CSLAYER1
  6
CONTINUOUS
 62
     3
 10
776.427344
 20
994.474079
 40
13.374785
 50
90.000000
 51
107.587954
  0
LINE
  8
CSLAYER1
  6
CONTINUOUS
 62
     3
 10
769.427344
 20
1000.048864
 11
768.344441
 21
1000.674079
  0
ARC
  8
CSLAYER1
  6
CONTINUOUS
 62
     3
 10
770.365167
 20
1003.600493
 40
3.556295
 50
244.625569
 51
304.625569
  0
ARC
  8
CSLAYER1
  6
CONTINUOUS
 62
     3
 10
776.427344
 20
1013.423649
 40
13.374785
 50
252.412046
 51
270.000000
  0
LINE
  8
CSLAYER1
  6
CONTINUOUS
 62
     3
 10
783.355548
 20
986.384762
 11
783.355548
 21
992.112965
  0
LINE
  8
CSLAYER1
  6
CONTINUOUS
 62
     3
 10
779.891446
 20
986.384762
 11
779.891446
 21
992.112965
  0
LINE
  8
CSLAYER1
  6
CONTINUOUS
 62
     3
 10
782.427344
 20
985.848864
 11
783.355548
 21
986.384762
  0
ARC
  8
CSLAYER1
  6
CONTINUOUS
 62
     3
 10
776.427344
 20
997.312965
 40
11.464102
 50
270.000000
 51
287.821405
  0
ARC
  8
CSLAYER1
  6
CONTINUOUS
 62
     3
 10
781.623497
 20
988.914792
 40
3.066114
 50
236.143645
 51
295.804157
  0
LINE
  8
CSLAYER1
  6
CONTINUOUS
 62
     3
 10
782.427344
 20
992.648864
 11
783.355548
 21
992.112965
  0
ARC
  8
CSLAYER1
  6
CONTINUOUS
 62
     3
 10
776.427344
 20
981.184762
 40
11.464102
 50
72.178595
 51
90.000000
  0
ARC
  8
CSLAYER1
  6
CONTINUOUS
 62
     3
 10
781.623497
 20
989.582935
 40
3.066114
 50
64.195843
 51
123.856355
  0
LINE
  8
CSLAYER1
  6
CONTINUOUS
 62
     3
 10
782.427344
 20
992.648864
 11
770.427344
 21
992.648864
  0
LINE
  8
CSLAYER1
  6
CONTINUOUS
 62
     3
 10
779.891446
 20
992.648864
 11
779.891446
 21
992.848864
  0
LINE
  8
CSLAYER1
  6
CONTINUOUS
 62
     3
 10
770.927344
 20
982.848864
 11
770.927344
 21
985.848864
  0
LINE
  8
CSLAYER1
  6
CONTINUOUS
 62
     3
 10
769.499141
 20
986.384762
 11
769.499141
 21
992.112965
  0
LINE
  8
CSLAYER1
  6
CONTINUOUS
 62
     3
 10
772.963243
 20
986.384762
 11
772.963243
 21
992.112965
  0
LINE
  8
CSLAYER1
  6
CONTINUOUS
 62
     3
 10
770.427344
 20
985.848864
 11
769.499141
 21
986.384762
  0
ARC
  8
CSLAYER1
  6
CONTINUOUS
 62
     3
 10
776.427344
 20
997.312965
 40
11.464102
 50
252.178595
 51
270.000000
  0
ARC
  8
CSLAYER1
  6
CONTINUOUS
 62
     3
 10
771.231192
 20
988.914792
 40
3.066114
 50
244.195843
 51
303.856355
  0
LINE
  8
CSLAYER1
  6
CONTINUOUS
 62
     3
 10
770.427344
 20
992.648864
 11
769.499141
 21
992.112965
  0
ARC
  8
CSLAYER1
  6
CONTINUOUS
 62
     3
 10
776.427344
 20
981.184762
 40
11.464102
 50
90.000000
 51
107.821405
  0
ARC
  8
CSLAYER1
  6
CONTINUOUS
 62
     3
 10
771.231192
 20
989.582935
 40
3.066114
 50
56.143645
 51
115.804157
  0
LINE
  8
CSLAYER1
  6
CONTINUOUS
 62
     3
 10
772.963243
 20
992.648864
 11
772.963243
 21
992.848864
  0
LINE
  8
CSLAYER1
  6
CONTINUOUS
 62
     3
 10
783.355548
 20
973.848864
 11
783.355548
 21
982.312965
  0
LINE
  8
CSLAYER1
  6
CONTINUOUS
 62
     3
 10
779.891446
 20
973.848864
 11
779.891446
 21
982.312965
  0
LINE
  8
CSLAYER1
  6
CONTINUOUS
 62
     3
 10
782.427344
 20
982.848864
 11
783.355548
 21
982.312965
  0
ARC
  8
CSLAYER1
  6
CONTINUOUS
 62
     3
 10
776.427344
 20
971.384762
 40
11.464102
 50
72.178595
 51
90.000000
  0
ARC
  8
CSLAYER1
  6
CONTINUOUS
 62
     3
 10
781.623497
 20
979.782935
 40
3.066114
 50
64.195843
 51
123.856355
  0
LINE
  8
CSLAYER1
  6
CONTINUOUS
 62
     3
 10
782.427344
 20
982.848864
 11
770.427344
 21
982.848864
  0
LINE
  8
CSLAYER1
  6
CONTINUOUS
 62
     3
 10
769.499141
 20
973.848864
 11
769.499141
 21
982.312965
  0
LINE
  8
CSLAYER1
  6
CONTINUOUS
 62
     3
 10
772.963243
 20
973.848864
 11
772.963243
 21
982.312965
  0
LINE
  8
CSLAYER1
  6
CONTINUOUS
 62
     3
 10
770.427344
 20
982.848864
 11
769.499141
 21
982.312965
  0
ARC
  8
CSLAYER1
  6
CONTINUOUS
 62
     3
 10
776.427344
 20
971.384762
 40
11.464102
 50
90.000000
 51
107.821405
  0
ARC
  8
CSLAYER1
  6
CONTINUOUS
 62
     3
 10
771.231192
 20
979.782935
 40
3.066114
 50
56.143645
 51
115.804157
  0
LINE
  8
CSLAYER1
  6
CONTINUOUS
 62
     3
 10
782.306626
 20
961.762404
 11
783.355548
 21
973.848864
  0
ARC
  8
CSLAYER1
  6
CONTINUOUS
 62
     3
 10
761.249856
 20
973.848864
 40
18.641590
 50
330.443788
 51
360.000000
  0
ARC
  8
CSLAYER1
  6
CONTINUOUS
 62
     3
 10
776.427344
 20
965.288718
 40
1.217263
 50
270.000000
 51
329.421532
  0
ARC
  8
CSLAYER1
  6
CONTINUOUS
 62
     3
 10
798.533036
 20
973.848864
 40
18.641590
 50
180.000000
 51
209.556212
  0
ARC
  8
CSLAYER1
  6
CONTINUOUS
 62
     3
 10
783.355548
 20
965.288718
 40
1.217263
 50
210.578468
 51
227.594217
  0
ARC
  8
CSLAYER1
  6
CONTINUOUS
 62
     3
 10
781.310370
 20
961.848864
 40
1.000000
 50
270.000000
 51
355.040021
  0
LINE
  8
CSLAYER1
  6
CONTINUOUS
 62
     3
 10
770.548063
 20
961.762404
 11
769.499141
 21
973.848864
  0
ARC
  8
CSLAYER1
  6
CONTINUOUS
 62
     3
 10
791.604833
 20
973.848864
 40
18.641590
 50
180.000000
 51
209.556212
  0
ARC
  8
CSLAYER1
  6
CONTINUOUS
 62
     3
 10
776.427344
 20
965.288718
 40
1.217263
 50
210.578468
 51
270.000000
  0
ARC
  8
CSLAYER1
  6
CONTINUOUS
 62
     3
 10
754.321653
 20
973.848864
 40
18.641590
 50
330.443788
 51
360.000000
  0
ARC
  8
CSLAYER1
  6
CONTINUOUS
 62
     3
 10
769.499141
 20
965.288718
 40
1.217263
 50
312.405783
 51
329.421532
  0
ARC
  8
CSLAYER1
  6
CONTINUOUS
 62
     3
 10
771.544318
 20
961.848864
 40
1.000000
 50
184.959979
 51
270.000000
  0
LINE
  8
CSLAYER1
  6
CONTINUOUS
 62
     3
 10
781.310370
 20
1027.548864
 11
771.544318
 21
1027.548864
  0
LINE
  8
CSLAYER1
  6
CENTER
 62
     5
 10
788.927344
 20
1020.548864
 11
783.427344
 21
1020.548864
  0
LINE
  8
CSLAYER1
  6
CONTINUOUS
 62
     3
 10
769.427344
 20
1013.548864
 11
769.427344
 21
1026.048864
  0
LINE
  8
CSLAYER1
  6
CONTINUOUS
 62
     3
 10
783.427344
 20
1027.548864
 11
770.927344
 21
1027.548864
  0
LINE
  8
CSLAYER1
  6
CONTINUOUS
 62
     3
 10
783.427344
 20
1013.548864
 11
769.427344
 21
1013.548864
  0
LINE
  8
CSLAYER1
  6
CONTINUOUS
 62
     3
 10
783.427344
 20
1013.548864
 11
783.427344
 21
1027.546419
  0
LINE
  8
CSLAYER1
  6
CONTINUOUS
 62
     3
 10
781.027344
 20
1007.848864
 11
781.027344
 21
1013.548864
  0
LINE
  8
CSLAYER1
  6
CONTINUOUS
 62
     4
 10
780.427344
 20
1007.848864
 11
780.427344
 21
1012.509633
  0
LINE
  8
CSLAYER1
  6
CONTINUOUS
 62
     4
 10
781.027344
 20
1013.548864
 11
780.427344
 21
1012.509633
  0
LINE
  8
CSLAYER1
  6
CONTINUOUS
 62
     3
 10
771.827344
 20
1007.848864
 11
771.827344
 21
1013.548864
  0
LINE
  8
CSLAYER1
  6
CONTINUOUS
 62
     4
 10
771.827344
 20
1013.548864
 11
772.427344
 21
1012.509633
  0
LINE
  8
CSLAYER1
  6
CONTINUOUS
 62
     4
 10
781.027344
 20
1012.509633
 11
771.827344
 21
1012.509633
  0
LINE
  8
CSLAYER1
  6
CONTINUOUS
 62
     3
 10
788.927344
 20
1015.697078
 11
783.427344
 21
1015.598864
  0
LINE
  8
CSLAYER1
  6
CONTINUOUS
 62
     4
 10
788.927344
 20
1016.397190
 11
783.414846
 21
1016.298752
  0
LINE
  8
CSLAYER1
  6
CONTINUOUS
 62
     3
 10
788.927344
 20
1025.400650
 11
783.427344
 21
1025.498864
  0
LINE
  8
CSLAYER1
  6
CONTINUOUS
 62
     4
 10
788.927344
 20
1024.700538
 11
783.414846
 21
1024.798975
  0
ARC
  8
CSLAYER1
  6
CONTINUOUS
 62
     3
 10
770.927344
 20
1026.048864
 40
1.500000
 50
90.000000
 51
180.000000
  0
LINE
  8
CSLAYER1
  6
CONTINUOUS
 62
     3
 10
794.927344
 20
1168.249950
 11
798.427344
 21
1168.249950
  0
LINE
  8
CSLAYER1
  6
CONTINUOUS
 62
     3
 10
793.927344
 20
1169.249950
 11
794.927344
 21
1168.249950
  0
LINE
  8
CSLAYER1
  6
CONTINUOUS
 62
     3
 10
837.927344
 20
1168.249950
 11
838.927344
 21
1169.249950
  0
LINE
  8
CSLAYER1
  6
CONTINUOUS
 62
     3
 10
839.927344
 20
1173.849950
 11
838.927344
 21
1173.849950
  0
LINE
  8
CSLAYER1
  6
CONTINUOUS
 62
     3
 10
793.927344
 20
1173.849950
 11
792.927344
 21
1173.849950
  0
LINE
  8
CSLAYER1
  6
CONTINUOUS
 62
     3
 10
834.427344
 20
1168.249950
 11
837.927344
 21
1168.249950
  0
LINE
  8
CSLAYER1
  6
CONTINUOUS
 62
     3
 10
772.277344
 20
854.014813
 11
772.277344
 21
960.848864
  0
LINE
  8
CSLAYER1
  6
CONTINUOUS
 62
     3
 10
780.577344
 20
854.014813
 11
780.577344
 21
960.848864
  0
LINE
  8
CSLAYER1
  6
CONTINUOUS
 62
     4
 10
772.427344
 20
1007.848864
 11
772.427344
 21
1012.509633
  0
ENDBLK
  8
0
  0
BLOCK
  8
CSLAYER1
  2
BLKF0003
 70
   64
 10
0.0
 20
0.0
 30
0.0
  0
LINE
  8
CSLAYER1
  6
CENTER
 62
     6
 10
1416.336170
 20
2095.695885
 11
1416.336170
 21
2118.221488
  0
LINE
  8
CSLAYER1
  6
CENTER
 62
     6
 10
1405.073369
 20
2106.958687
 11
1427.598972
 21
2106.958687
  0
ENDBLK
  8
0
  0
BLOCK
  8
CSLAYER1
  2
BLKF0004
 70
   64
 10
0.0
 20
0.0
 30
0.0
  0
LINE
  8
CSLAYER1
  6
CONTINUOUS
 62
     3
 10
739.427344
 20
1380.808829
 11
739.427344
 21
1395.578484
  0
LINE
  8
CSLAYER1
  6
CONTINUOUS
 62
     3
 10
742.427344
 20
1381.028484
 11
739.427344
 21
1381.028484
  0
LINE
  8
CSLAYER1
  6
CONTINUOUS
 62
     3
 10
742.427344
 20
1390.266288
 11
739.427344
 21
1393.766288
  0
LINE
  8
CSLAYER1
  6
CONTINUOUS
 62
     3
 10
731.427344
 20
1391.778484
 11
731.427344
 21
1395.578484
  0
ARC
  8
CSLAYER1
  6
CONTINUOUS
 62
     3
 10
745.223088
 20
1391.778484
 40
13.795744
 50
164.011330
 51
180.000000
  0
LINE
  8
CSLAYER1
  6
CONTINUOUS
 62
     3
 10
731.427344
 20
1391.778484
 11
731.427344
 21
1382.778484
  0
LINE
  8
CSLAYER1
  6
CONTINUOUS
 62
     3
 10
739.427344
 20
1386.293657
 11
732.564525
 21
1386.293657
  0
LINE
  8
CSLAYER1
  6
CONTINUOUS
 62
     3
 10
739.427344
 20
1380.808829
 11
732.564525
 21
1380.808829
  0
LINE
  8
CSLAYER1
  6
CONTINUOUS
 62
     3
 10
731.427344
 20
1382.778484
 11
732.564525
 21
1380.808829
  0
ARC
  8
CSLAYER1
  6
CONTINUOUS
 62
     3
 10
735.207389
 20
1383.551243
 40
3.808617
 50
133.940972
 51
174.338367
  0
ARC
  8
CSLAYER1
  6
CONTINUOUS
 62
     3
 10
745.223088
 20
1391.778484
 40
13.795744
 50
180.000000
 51
203.426598
  0
ENDBLK
  8
0
  0
BLOCK
  8
CSLAYER1
  2
BLKF0005
 70
   64
 10
0.0
 20
0.0
 30
0.0
  0
LINE
  8
CSLAYER1
  6
CONTINUOUS
 62
     3
 10
2213.881129
 20
1425.578484
 11
2213.881129
 21
1395.578484
  0
LINE
  8
CSLAYER1
  6
CONTINUOUS
 62
     3
 10
2211.581129
 20
1393.278484
 11
2211.581129
 21
1395.578484
  0
POINT
  8
CSLAYER1
 62
     3
 10
1436.181129
 20
1391.778484
  0
POINT
  8
CSLAYER1
 62
     3
 10
1436.181129
 20
1391.778484
  0
LINE
  8
CSLAYER1
  6
CONTINUOUS
 62
     3
 10
1413.881129
 20
1425.578484
 11
1413.881129
 21
1395.578484
  0
LINE
  8
CSLAYER1
  6
CONTINUOUS
 62
     3
 10
1466.181129
 20
1393.278484
 11
2096.181129
 21
1393.278484
  0
LINE
  8
CSLAYER1
  6
CONTINUOUS
 62
     3
 10
1413.881129
 20
1425.578484
 11
2213.881129
 21
1425.578484
  0
LINE
  8
CSLAYER1
  6
CONTINUOUS
 62
     3
 10
1416.181129
 20
1395.578484
 11
1416.181129
 21
1386.278484
  0
LINE
  8
CSLAYER1
  6
CONTINUOUS
 62
     3
 10
1413.881129
 20
1395.578484
 11
1416.181129
 21
1395.578484
  0
LINE
  8
CSLAYER1
  6
CONTINUOUS
 62
     3
 10
1421.181129
 20
1381.278484
 11
1441.181129
 21
1381.278484
  0
ARC
  8
CSLAYER1
  6
CONTINUOUS
 62
     3
 10
1421.181129
 20
1386.278484
 40
5.000000
 50
180.000000
 51
270.000000
  0
LINE
  8
CSLAYER1
  6
CONTINUOUS
 62
     3
 10
1466.181129
 20
1390.278484
 11
1441.181129
 21
1381.278484
  0
LINE
  8
CSLAYER1
  6
CONTINUOUS
 62
     3
 10
1466.181129
 20
1395.578484
 11
1466.181129
 21
1390.278484
  0
LINE
  8
CSLAYER1
  6
CENTER
 62
     5
 10
1425.422760
 20
1391.778484
 11
1447.513261
 21
1391.778484
  0
LINE
  8
CSLAYER1
  6
CENTER
 62
     5
 10
1436.181129
 20
1381.278484
 11
1436.181129
 21
1395.578484
  0
LINE
  8
CSLAYER1
  6
CONTINUOUS
 62
     3
 10
1466.181129
 20
1393.278484
 11
2211.581129
 21
1393.278484
  0
LINE
  8
CSLAYER1
  6
CONTINUOUS
 62
     3
 10
1413.881129
 20
1395.578484
 11
2213.881129
 21
1395.578484
  0
ENDBLK
  8
0
  0
BLOCK
  8
CSLAYER1
  2
BLKF0006
 70
   64
 10
0.0
 20
0.0
 30
0.0
  0
LINE
  8
CSLAYER1
  6
PHANTOM
 62
     6
 10
2194.036170
 20
894.014813
 11
2194.036170
 21
864.014813
  0
LINE
  8
CSLAYER1
  6
PHANTOM
 62
     6
 10
2191.736170
 20
861.714813
 11
2191.736170
 21
864.014813
  0
POINT
  8
CSLAYER1
 62
     6
 10
1416.336170
 20
860.214813
  0
POINT
  8
CSLAYER1
 62
     6
 10
1416.336170
 20
860.214813
  0
LINE
  8
CSLAYER1
  6
PHANTOM
 62
     6
 10
1394.036170
 20
894.014813
 11
1394.036170
 21
864.014813
  0
LINE
  8
CSLAYER1
  6
PHANTOM
 62
     6
 10
1446.336170
 20
861.714813
 11
2076.336170
 21
861.714813
  0
LINE
  8
CSLAYER1
  6
PHANTOM
 62
     6
 10
1394.036170
 20
894.014813
 11
2194.036170
 21
894.014813
  0
LINE
  8
CSLAYER1
  6
PHANTOM
 62
     6
 10
1396.336170
 20
864.014813
 11
1396.336170
 21
854.714813
  0
LINE
  8
CSLAYER1
  6
PHANTOM
 62
     6
 10
1394.036170
 20
864.014813
 11
1396.336170
 21
864.014813
  0
LINE
  8
CSLAYER1
  6
PHANTOM
 62
     6
 10
1401.336170
 20
849.714813
 11
1421.336170
 21
849.714813
  0
ARC
  8
CSLAYER1
  6
PHANTOM
 62
     6
 10
1401.336170
 20
854.714813
 40
5.000000
 50
180.000000
 51
270.000000
  0
LINE
  8
CSLAYER1
  6
PHANTOM
 62
     6
 10
1446.336170
 20
858.714813
 11
1421.336170
 21
849.714813
  0
LINE
  8
CSLAYER1
  6
PHANTOM
 62
     6
 10
1446.336170
 20
864.014813
 11
1446.336170
 21
858.714813
  0
LINE
  8
CSLAYER1
  6
PHANTOM
 62
     6
 10
1405.577802
 20
860.214813
 11
1427.668302
 21
860.214813
  0
LINE
  8
CSLAYER1
  6
PHANTOM
 62
     6
 10
1416.336170
 20
849.714813
 11
1416.336170
 21
864.014813
  0
LINE
  8
CSLAYER1
  6
PHANTOM
 62
     6
 10
1446.336170
 20
861.714813
 11
2191.736170
 21
861.714813
  0
LINE
  8
CSLAYER1
  6
PHANTOM
 62
     6
 10
1394.036170
 20
864.014813
 11
2194.036170
 21
864.014813
  0
ENDBLK
  8
0
  0
BLOCK
  8
CSLAYER1
  2
BLKF0007
 70
   64
 10
0.0
 20
0.0
 30
0.0
  0
LINE
  8
CSLAYER1
  6
CENTER
 62
     6
 10
1416.336170
 20
1868.221488
 11
1416.336170
 21
1845.695885
  0
LINE
  8
CSLAYER1
  6
CENTER
 62
     6
 10
1405.073369
 20
1856.958687
 11
1427.598972
 21
1856.958687
  0
ENDBLK
  8
0
  0
BLOCK
  8
CSLAYER1
  2
BLKF0008
 70
   64
 10
0.0
 20
0.0
 30
0.0
  0
INSERT
  8
CSLAYER1
  2
EASYDRAWDIM0002
 10
0.0
 20
0.0
 30
0.0
  0
DIMENSION
  8
CSLAYER1
 62
     3
  2
*D0009
 10
1306.082110
 20
2106.958687
 11
1298.996582
 21
1943.070313
 13
1405.073369
 23
1856.958687
 14
1405.073369
 24
2106.958687
 50
90.000000
 70
1
  0
LINE
  8
CSLAYER1
  6
DASHED
 62
     5
 10
1394.036170
 20
2081.958687
 11
2194.036170
 21
2081.958687
  0
LINE
  8
CSLAYER1
  6
DASHED
 62
     5
 10
1394.036170
 20
1881.958687
 11
2194.036170
 21
1881.958687
  0
DIMENSION
  8
CSLAYER1
 62
     3
  2
*D0010
 10
2331.581129
 20
2131.958687
 11
2321.581055
 21
1981.958496
 13
2221.471873
 23
1831.958687
 14
2221.471873
 24
2131.958687
 50
90.000000
 70
1
  0
ARC
  8
CSLAYER1
  6
CONTINUOUS
 62
     5
 10
1416.336170
 20
2106.958687
 40
6.500000
 50
-24.091742
 51
27.313840
  0
LINE
  8
CSLAYER1
  6
DASHED
 62
     5
 10
1441.336170
 20
2121.958687
 11
1441.336170
 21
2081.958687
  0
ARC
  8
CSLAYER1
  6
CONTINUOUS
 62
     5
 10
1431.336170
 20
2121.958687
 40
10.000000
 50
0.000000
 51
90.000000
  0
ARC
  8
CSLAYER1
  6
CONTINUOUS
 62
     5
 10
1401.336170
 20
2121.958687
 40
10.000000
 50
90.000000
 51
136.886394
  0
ARC
  8
CSLAYER1
  6
CONTINUOUS
 62
     5
 10
1416.336170
 20
2106.958687
 40
6.500000
 50
67.030580
 51
115.547706
  0
ARC
  8
CSLAYER1
  6
CONTINUOUS
 62
     5
 10
1416.336170
 20
2106.958687
 40
6.500000
 50
246.771340
 51
297.259733
  0
ARC
  8
CSLAYER1
  6
CONTINUOUS
 62
     5
 10
1416.336170
 20
2106.958687
 40
6.500000
 50
151.415765
 51
209.332676
  0
LINE
  8
CSLAYER1
  6
DASHED
 62
     5
 10
1441.336170
 20
1841.958687
 11
1441.336170
 21
1881.958687
  0
ARC
  8
CSLAYER1
  6
CONTINUOUS
 62
     5
 10
1416.336170
 20
1856.958687
 40
6.500000
 50
-27.313840
 51
24.091742
  0
ARC
  8
CSLAYER1
  6
CONTINUOUS
 62
     5
 10
1416.336170
 20
1856.958687
 40
6.500000
 50
244.452294
 51
292.969420
  0
ARC
  8
CSLAYER1
  6
CONTINUOUS
 62
     5
 10
1416.336170
 20
1856.958687
 40
6.500000
 50
150.667324
 51
208.584235
  0
ARC
  8
CSLAYER1
  6
CONTINUOUS
 62
     5
 10
1416.336170
 20
1856.958687
 40
6.500000
 50
62.740267
 51
113.228660
  0
ENDBLK
  8
0
  0
BLOCK
  8
CSLAYER1
  2
BLKF0009
 70
   64
 10
0.0
 20
0.0
 30
0.0
  0
LINE
  8
CSLAYER1
  6
CONTINUOUS
 62
     5
 10
3490.433897
 20
1719.659969
 11
2610.433897
 21
1719.659969
  0
TEXT
  8
CSLAYER1
 62
     3
 10
3087.817139
 20
1725.310059
 40
40.000000
 41
0.832500
  1
１０Ｒ４／１３
 50
0.000000
 51
0.000000
  7
EASYDRAW_FONT
 72
     5
 11
3309.817139
 21
1725.310059
  0
ENDBLK
  8
0
  0
BLOCK
  8
CSLAYER1
  2
BLKF0010
 70
   64
 10
0.0
 20
0.0
 30
0.0
  0
LINE
  8
CSLAYER1
  6
CONTINUOUS
 62
     7
 10
807.141233
 20
2049.303238
 11
820.648259
 21
2056.402341
  0
LINE
  8
CSLAYER1
  6
CONTINUOUS
 62
     7
 10
820.648259
 20
2056.402341
 11
835.182606
 21
2062.799207
  0
LINE
  8
CSLAYER1
  6
CONTINUOUS
 62
     7
 10
835.182606
 20
2062.799207
 11
850.633657
 21
2068.445153
  0
LINE
  8
CSLAYER1
  6
CONTINUOUS
 62
     7
 10
850.633657
 20
2068.445153
 11
866.883822
 21
2073.297208
  0
LINE
  8
CSLAYER1
  6
CONTINUOUS
 62
     7
 10
866.883822
 20
2073.297208
 11
883.809427
 21
2077.318447
  0
LINE
  8
CSLAYER1
  6
CONTINUOUS
 62
     7
 10
883.809427
 20
2077.318447
 11
901.281658
 21
2080.478264
  0
LINE
  8
CSLAYER1
  6
CONTINUOUS
 62
     7
 10
901.281658
 20
2080.478264
 11
919.167540
 21
2082.752612
  0
LINE
  8
CSLAYER1
  6
CONTINUOUS
 62
     7
 10
919.167540
 20
2082.752612
 11
937.330951
 21
2084.124181
  0
LINE
  8
CSLAYER1
  6
CONTINUOUS
 62
     7
 10
937.330951
 20
2084.124181
 11
955.633657
 21
2084.582534
  0
LINE
  8
CSLAYER1
  6
CONTINUOUS
 62
     7
 10
955.633657
 20
2084.582534
 11
973.936363
 21
2084.124181
  0
LINE
  8
CSLAYER1
  6
CONTINUOUS
 62
     7
 10
973.936363
 20
2084.124181
 11
992.099775
 21
2082.752612
  0
LINE
  8
CSLAYER1
  6
CONTINUOUS
 62
     7
 10
992.099775
 20
2082.752612
 11
1009.985657
 21
2080.478264
  0
LINE
  8
CSLAYER1
  6
CONTINUOUS
 62
     7
 10
1009.985657
 20
2080.478264
 11
1027.457887
 21
2077.318447
  0
LINE
  8
CSLAYER1
  6
CONTINUOUS
 62
     7
 10
1027.457887
 20
2077.318447
 11
1043.154717
 21
2073.589144
  0
LINE
  8
CSLAYER1
  6
CONTINUOUS
 62
     7
 10
798.231688
 20
2054.413543
 11
812.549135
 21
2061.938592
  0
LINE
  8
CSLAYER1
  6
CONTINUOUS
 62
     7
 10
812.549135
 20
2061.938592
 11
827.955542
 21
2068.719271
  0
LINE
  8
CSLAYER1
  6
CONTINUOUS
 62
     7
 10
827.955542
 20
2068.719271
 11
844.333657
 21
2074.703973
  0
LINE
  8
CSLAYER1
  6
CONTINUOUS
 62
     7
 10
844.333657
 20
2074.703973
 11
861.558832
 21
2079.847152
  0
LINE
  8
CSLAYER1
  6
CONTINUOUS
 62
     7
 10
861.558832
 20
2079.847152
 11
879.499973
 21
2084.109664
  0
LINE
  8
CSLAYER1
  6
CONTINUOUS
 62
     7
 10
879.499973
 20
2084.109664
 11
898.020538
 21
2087.459071
  0
LINE
  8
CSLAYER1
  6
CONTINUOUS
 62
     7
 10
898.020538
 20
2087.459071
 11
916.979573
 21
2089.869879
  0
LINE
  8
CSLAYER1
  6
CONTINUOUS
 62
     7
 10
916.979573
 20
2089.869879
 11
936.232789
 21
2091.323743
  0
LINE
  8
CSLAYER1
  6
CONTINUOUS
 62
     7
 10
936.232789
 20
2091.323743
 11
955.633657
 21
2091.809597
  0
LINE
  8
CSLAYER1
  6
CONTINUOUS
 62
     7
 10
955.633657
 20
2091.809597
 11
975.034526
 21
2091.323743
  0
LINE
  8
CSLAYER1
  6
CONTINUOUS
 62
     7
 10
975.034526
 20
2091.323743
 11
994.287742
 21
2089.869879
  0
LINE
  8
CSLAYER1
  6
CONTINUOUS
 62
     7
 10
994.287742
 20
2089.869879
 11
1013.246777
 21
2087.459071
  0
LINE
  8
CSLAYER1
  6
CONTINUOUS
 62
     7
 10
1013.246777
 20
2087.459071
 11
1031.767341
 21
2084.109664
  0
LINE
  8
CSLAYER1
  6
CONTINUOUS
 62
     7
 10
1031.767341
 20
2084.109664
 11
1043.154717
 21
2081.404216
  0
LINE
  8
CSLAYER1
  6
CONTINUOUS
 62
     7
 10
781.677938
 20
2033.378644
 11
807.275805
 21
2049.373967
  0
LINE
  8
CSLAYER1
  6
CONTINUOUS
 62
     7
 10
781.677938
 20
2044.055450
 11
798.374334
 21
2054.488516
  0
ENDBLK
  8
0
  0
BLOCK
  8
CSLAYER1
  2
BLKF0011
 70
   64
 10
0.0
 20
0.0
 30
0.0
  0
LINE
  8
CSLAYER1
  6
CONTINUOUS
 62
     7
 10
650.107325
 20
2048.344352
 11
650.335005
 21
2048.495240
  0
LINE
  8
CSLAYER1
  6
CONTINUOUS
 62
     7
 10
650.335005
 20
2048.495240
 11
650.544118
 21
2048.674135
  0
LINE
  8
CSLAYER1
  6
CONTINUOUS
 62
     7
 10
650.544118
 20
2048.674135
 11
650.733074
 21
2048.879677
  0
LINE
  8
CSLAYER1
  6
CONTINUOUS
 62
     7
 10
650.733074
 20
2048.879677
 11
650.900435
 21
2049.110301
  0
LINE
  8
CSLAYER1
  6
CONTINUOUS
 62
     7
 10
650.900435
 20
2049.110301
 11
651.044926
 21
2049.364251
  0
LINE
  8
CSLAYER1
  6
CONTINUOUS
 62
     7
 10
651.044926
 20
2049.364251
 11
651.165448
 21
2049.639594
  0
LINE
  8
CSLAYER1
  6
CONTINUOUS
 62
     7
 10
651.165448
 20
2049.639594
 11
651.261085
 21
2049.934237
  0
LINE
  8
CSLAYER1
  6
CONTINUOUS
 62
     7
 10
651.261085
 20
2049.934237
 11
651.331107
 21
2050.245935
  0
LINE
  8
CSLAYER1
  6
CONTINUOUS
 62
     7
 10
651.331107
 20
2050.245935
 11
651.374982
 21
2050.572317
  0
LINE
  8
CSLAYER1
  6
CONTINUOUS
 62
     7
 10
651.374982
 20
2050.572317
 11
651.392377
 21
2050.910898
  0
LINE
  8
CSLAYER1
  6
CONTINUOUS
 62
     7
 10
651.392377
 20
2050.910898
 11
651.383158
 21
2051.259103
  0
LINE
  8
CSLAYER1
  6
CONTINUOUS
 62
     7
 10
651.383158
 20
2051.259103
 11
651.347397
 21
2051.614280
  0
LINE
  8
CSLAYER1
  6
CONTINUOUS
 62
     7
 10
651.347397
 20
2051.614280
 11
651.285364
 21
2051.973728
  0
LINE
  8
CSLAYER1
  6
CONTINUOUS
 62
     7
 10
651.285364
 20
2051.973728
 11
651.197533
 21
2052.334709
  0
LINE
  8
CSLAYER1
  6
CONTINUOUS
 62
     7
 10
651.197533
 20
2052.334709
 11
651.084571
 21
2052.694477
  0
LINE
  8
CSLAYER1
  6
CONTINUOUS
 62
     7
 10
651.084571
 20
2052.694477
 11
650.947339
 21
2053.050295
  0
LINE
  8
CSLAYER1
  6
CONTINUOUS
 62
     7
 10
650.947339
 20
2053.050295
 11
650.786881
 21
2053.399453
  0
LINE
  8
CSLAYER1
  6
CONTINUOUS
 62
     7
 10
650.786881
 20
2053.399453
 11
650.604417
 21
2053.739294
  0
LINE
  8
CSLAYER1
  6
CONTINUOUS
 62
     7
 10
650.604417
 20
2053.739294
 11
650.401338
 21
2054.067233
  0
LINE
  8
CSLAYER1
  6
CONTINUOUS
 62
     7
 10
650.401338
 20
2054.067233
 11
650.179187
 21
2054.380773
  0
LINE
  8
CSLAYER1
  6
CONTINUOUS
 62
     7
 10
650.179187
 20
2054.380773
 11
649.939657
 21
2054.677528
  0
LINE
  8
CSLAYER1
  6
CONTINUOUS
 62
     7
 10
649.939657
 20
2054.677528
 11
649.684569
 21
2054.955240
  0
LINE
  8
CSLAYER1
  6
CONTINUOUS
 62
     7
 10
649.684569
 20
2054.955240
 11
649.415865
 21
2055.211795
  0
LINE
  8
CSLAYER1
  6
CONTINUOUS
 62
     7
 10
649.415865
 20
2055.211795
 11
649.135591
 21
2055.445240
  0
LINE
  8
CSLAYER1
  6
CONTINUOUS
 62
     7
 10
649.135591
 20
2055.445240
 11
648.845879
 21
2055.653799
  0
LINE
  8
CSLAYER1
  6
CONTINUOUS
 62
     7
 10
648.845879
 20
2055.653799
 11
648.548935
 21
2055.835885
  0
LINE
  8
CSLAYER1
  6
CONTINUOUS
 62
     7
 10
648.548935
 20
2055.835885
 11
648.247017
 21
2055.990112
  0
LINE
  8
CSLAYER1
  6
CONTINUOUS
 62
     7
 10
648.247017
 20
2055.990112
 11
647.942424
 21
2056.115305
  0
LINE
  8
CSLAYER1
  6
CONTINUOUS
 62
     7
 10
647.942424
 20
2056.115305
 11
647.637475
 21
2056.210513
  0
LINE
  8
CSLAYER1
  6
CONTINUOUS
 62
     7
 10
647.637475
 20
2056.210513
 11
647.334489
 21
2056.275011
  0
LINE
  8
CSLAYER1
  6
CONTINUOUS
 62
     7
 10
647.334489
 20
2056.275011
 11
647.035773
 21
2056.308308
  0
LINE
  8
CSLAYER1
  6
CONTINUOUS
 62
     7
 10
647.035773
 20
2056.308308
 11
646.743600
 21
2056.310149
  0
LINE
  8
CSLAYER1
  6
CONTINUOUS
 62
     7
 10
646.743600
 20
2056.310149
 11
646.460194
 21
2056.280523
  0
LINE
  8
CSLAYER1
  6
CONTINUOUS
 62
     7
 10
646.460194
 20
2056.280523
 11
646.187712
 21
2056.219653
  0
LINE
  8
CSLAYER1
  6
CONTINUOUS
 62
     7
 10
646.187712
 20
2056.219653
 11
645.928227
 21
2056.128003
  0
LINE
  8
CSLAYER1
  6
CONTINUOUS
 62
     7
 10
645.928227
 20
2056.128003
 11
645.683714
 21
2056.006271
  0
ENDBLK
  8
0
  0
BLOCK
  8
CSLAYER1
  2
BLKF0012
 70
   64
 10
0.0
 20
0.0
 30
0.0
  0
LINE
  8
CSLAYER1
  6
CONTINUOUS
 62
     7
 10
642.736822
 20
2054.304882
 11
642.509143
 21
2054.153994
  0
LINE
  8
CSLAYER1
  6
CONTINUOUS
 62
     7
 10
642.509143
 20
2054.153994
 11
642.300029
 21
2053.975099
  0
LINE
  8
CSLAYER1
  6
CONTINUOUS
 62
     7
 10
642.300029
 20
2053.975099
 11
642.111073
 21
2053.769557
  0
LINE
  8
CSLAYER1
  6
CONTINUOUS
 62
     7
 10
642.111073
 20
2053.769557
 11
641.943713
 21
2053.538933
  0
LINE
  8
CSLAYER1
  6
CONTINUOUS
 62
     7
 10
641.943713
 20
2053.538933
 11
641.799222
 21
2053.284983
  0
LINE
  8
CSLAYER1
  6
CONTINUOUS
 62
     7
 10
641.799222
 20
2053.284983
 11
641.678699
 21
2053.009640
  0
LINE
  8
CSLAYER1
  6
CONTINUOUS
 62
     7
 10
641.678699
 20
2053.009640
 11
641.583063
 21
2052.714997
  0
LINE
  8
CSLAYER1
  6
CONTINUOUS
 62
     7
 10
641.583063
 20
2052.714997
 11
641.513041
 21
2052.403299
  0
LINE
  8
CSLAYER1
  6
CONTINUOUS
 62
     7
 10
641.513041
 20
2052.403299
 11
641.469165
 21
2052.076917
  0
LINE
  8
CSLAYER1
  6
CONTINUOUS
 62
     7
 10
641.469165
 20
2052.076917
 11
641.451771
 21
2051.738336
  0
LINE
  8
CSLAYER1
  6
CONTINUOUS
 62
     7
 10
641.451771
 20
2051.738336
 11
641.460989
 21
2051.390131
  0
LINE
  8
CSLAYER1
  6
CONTINUOUS
 62
     7
 10
641.460989
 20
2051.390131
 11
641.496751
 21
2051.034954
  0
LINE
  8
CSLAYER1
  6
CONTINUOUS
 62
     7
 10
641.496751
 20
2051.034954
 11
641.558784
 21
2050.675506
  0
LINE
  8
CSLAYER1
  6
CONTINUOUS
 62
     7
 10
641.558784
 20
2050.675506
 11
641.646615
 21
2050.314525
  0
LINE
  8
CSLAYER1
  6
CONTINUOUS
 62
     7
 10
641.646615
 20
2050.314525
 11
641.759576
 21
2049.954757
  0
LINE
  8
CSLAYER1
  6
CONTINUOUS
 62
     7
 10
641.759576
 20
2049.954757
 11
641.896809
 21
2049.598939
  0
LINE
  8
CSLAYER1
  6
CONTINUOUS
 62
     7
 10
641.896809
 20
2049.598939
 11
642.057267
 21
2049.249781
  0
LINE
  8
CSLAYER1
  6
CONTINUOUS
 62
     7
 10
642.057267
 20
2049.249781
 11
642.239730
 21
2048.909940
  0
LINE
  8
CSLAYER1
  6
CONTINUOUS
 62
     7
 10
642.239730
 20
2048.909940
 11
642.442810
 21
2048.582001
  0
LINE
  8
CSLAYER1
  6
CONTINUOUS
 62
     7
 10
642.442810
 20
2048.582001
 11
642.664961
 21
2048.268461
  0
LINE
  8
CSLAYER1
  6
CONTINUOUS
 62
     7
 10
642.664961
 20
2048.268461
 11
642.904491
 21
2047.971706
  0
LINE
  8
CSLAYER1
  6
CONTINUOUS
 62
     7
 10
642.904491
 20
2047.971706
 11
643.159579
 21
2047.693994
  0
LINE
  8
CSLAYER1
  6
CONTINUOUS
 62
     7
 10
643.159579
 20
2047.693994
 11
643.428282
 21
2047.437439
  0
LINE
  8
CSLAYER1
  6
CONTINUOUS
 62
     7
 10
643.428282
 20
2047.437439
 11
643.708557
 21
2047.203994
  0
LINE
  8
CSLAYER1
  6
CONTINUOUS
 62
     7
 10
643.708557
 20
2047.203994
 11
643.998268
 21
2046.995435
  0
LINE
  8
CSLAYER1
  6
CONTINUOUS
 62
     7
 10
643.998268
 20
2046.995435
 11
644.295213
 21
2046.813349
  0
LINE
  8
CSLAYER1
  6
CONTINUOUS
 62
     7
 10
644.295213
 20
2046.813349
 11
644.597131
 21
2046.659122
  0
LINE
  8
CSLAYER1
  6
CONTINUOUS
 62
     7
 10
644.597131
 20
2046.659122
 11
644.901723
 21
2046.533929
  0
LINE
  8
CSLAYER1
  6
CONTINUOUS
 62
     7
 10
644.901723
 20
2046.533929
 11
645.206673
 21
2046.438721
  0
LINE
  8
CSLAYER1
  6
CONTINUOUS
 62
     7
 10
645.206673
 20
2046.438721
 11
645.509659
 21
2046.374223
  0
LINE
  8
CSLAYER1
  6
CONTINUOUS
 62
     7
 10
645.509659
 20
2046.374223
 11
645.808375
 21
2046.340926
  0
LINE
  8
CSLAYER1
  6
CONTINUOUS
 62
     7
 10
645.808375
 20
2046.340926
 11
646.100548
 21
2046.339084
  0
LINE
  8
CSLAYER1
  6
CONTINUOUS
 62
     7
 10
646.100548
 20
2046.339084
 11
646.383954
 21
2046.368711
  0
LINE
  8
CSLAYER1
  6
CONTINUOUS
 62
     7
 10
646.383954
 20
2046.368711
 11
646.656436
 21
2046.429581
  0
LINE
  8
CSLAYER1
  6
CONTINUOUS
 62
     7
 10
646.656436
 20
2046.429581
 11
646.915921
 21
2046.521231
  0
LINE
  8
CSLAYER1
  6
CONTINUOUS
 62
     7
 10
646.915921
 20
2046.521231
 11
647.160433
 21
2046.642963
  0
LINE
  8
CSLAYER1
  6
CONTINUOUS
 62
     7
 10
647.160433
 20
2046.642963
 11
647.388113
 21
2046.793851
  0
LINE
  8
CSLAYER1
  6
CONTINUOUS
 62
     7
 10
647.388113
 20
2046.793851
 11
647.597226
 21
2046.972747
  0
LINE
  8
CSLAYER1
  6
CONTINUOUS
 62
     7
 10
647.597226
 20
2046.972747
 11
647.786182
 21
2047.178288
  0
LINE
  8
CSLAYER1
  6
CONTINUOUS
 62
     7
 10
647.786182
 20
2047.178288
 11
647.953543
 21
2047.408912
  0
LINE
  8
CSLAYER1
  6
CONTINUOUS
 62
     7
 10
647.953543
 20
2047.408912
 11
648.098034
 21
2047.662862
  0
LINE
  8
CSLAYER1
  6
CONTINUOUS
 62
     7
 10
648.098034
 20
2047.662862
 11
648.218556
 21
2047.938206
  0
LINE
  8
CSLAYER1
  6
CONTINUOUS
 62
     7
 10
648.218556
 20
2047.938206
 11
648.314193
 21
2048.232848
  0
LINE
  8
CSLAYER1
  6
CONTINUOUS
 62
     7
 10
648.314193
 20
2048.232848
 11
648.384215
 21
2048.544546
  0
LINE
  8
CSLAYER1
  6
CONTINUOUS
 62
     7
 10
648.384215
 20
2048.544546
 11
648.428090
 21
2048.870928
  0
LINE
  8
CSLAYER1
  6
CONTINUOUS
 62
     7
 10
648.428090
 20
2048.870928
 11
648.445485
 21
2049.209509
  0
LINE
  8
CSLAYER1
  6
CONTINUOUS
 62
     7
 10
648.445485
 20
2049.209509
 11
648.436266
 21
2049.557714
  0
LINE
  8
CSLAYER1
  6
CONTINUOUS
 62
     7
 10
648.436266
 20
2049.557714
 11
648.400505
 21
2049.912892
  0
LINE
  8
CSLAYER1
  6
CONTINUOUS
 62
     7
 10
648.400505
 20
2049.912892
 11
648.338472
 21
2050.272339
  0
LINE
  8
CSLAYER1
  6
CONTINUOUS
 62
     7
 10
648.338472
 20
2050.272339
 11
648.250641
 21
2050.633320
  0
LINE
  8
CSLAYER1
  6
CONTINUOUS
 62
     7
 10
648.250641
 20
2050.633320
 11
648.137679
 21
2050.993089
  0
LINE
  8
CSLAYER1
  6
CONTINUOUS
 62
     7
 10
648.137679
 20
2050.993089
 11
648.000447
 21
2051.348906
  0
LINE
  8
CSLAYER1
  6
CONTINUOUS
 62
     7
 10
648.000447
 20
2051.348906
 11
647.839989
 21
2051.698064
  0
LINE
  8
CSLAYER1
  6
CONTINUOUS
 62
     7
 10
647.839989
 20
2051.698064
 11
647.657525
 21
2052.037905
  0
LINE
  8
CSLAYER1
  6
CONTINUOUS
 62
     7
 10
647.657525
 20
2052.037905
 11
647.454446
 21
2052.365844
  0
LINE
  8
CSLAYER1
  6
CONTINUOUS
 62
     7
 10
647.454446
 20
2052.365844
 11
647.232295
 21
2052.679384
  0
LINE
  8
CSLAYER1
  6
CONTINUOUS
 62
     7
 10
647.232295
 20
2052.679384
 11
646.992765
 21
2052.976139
  0
LINE
  8
CSLAYER1
  6
CONTINUOUS
 62
     7
 10
646.992765
 20
2052.976139
 11
646.737677
 21
2053.253851
  0
LINE
  8
CSLAYER1
  6
CONTINUOUS
 62
     7
 10
646.737677
 20
2053.253851
 11
646.468973
 21
2053.510406
  0
LINE
  8
CSLAYER1
  6
CONTINUOUS
 62
     7
 10
646.468973
 20
2053.510406
 11
646.188699
 21
2053.743851
  0
LINE
  8
CSLAYER1
  6
CONTINUOUS
 62
     7
 10
646.188699
 20
2053.743851
 11
645.898987
 21
2053.952410
  0
LINE
  8
CSLAYER1
  6
CONTINUOUS
 62
     7
 10
645.898987
 20
2053.952410
 11
645.602043
 21
2054.134496
  0
LINE
  8
CSLAYER1
  6
CONTINUOUS
 62
     7
 10
645.602043
 20
2054.134496
 11
645.300125
 21
2054.288723
  0
LINE
  8
CSLAYER1
  6
CONTINUOUS
 62
     7
 10
645.300125
 20
2054.288723
 11
644.995532
 21
2054.413917
  0
LINE
  8
CSLAYER1
  6
CONTINUOUS
 62
     7
 10
644.995532
 20
2054.413917
 11
644.690583
 21
2054.509125
  0
LINE
  8
CSLAYER1
  6
CONTINUOUS
 62
     7
 10
644.690583
 20
2054.509125
 11
644.387597
 21
2054.573622
  0
LINE
  8
CSLAYER1
  6
CONTINUOUS
 62
     7
 10
644.387597
 20
2054.573622
 11
644.088881
 21
2054.606919
  0
LINE
  8
CSLAYER1
  6
CONTINUOUS
 62
     7
 10
644.088881
 20
2054.606919
 11
643.796708
 21
2054.608761
  0
LINE
  8
CSLAYER1
  6
CONTINUOUS
 62
     7
 10
643.796708
 20
2054.608761
 11
643.513302
 21
2054.579134
  0
LINE
  8
CSLAYER1
  6
CONTINUOUS
 62
     7
 10
643.513302
 20
2054.579134
 11
643.240820
 21
2054.518264
  0
LINE
  8
CSLAYER1
  6
CONTINUOUS
 62
     7
 10
643.240820
 20
2054.518264
 11
642.981335
 21
2054.426614
  0
LINE
  8
CSLAYER1
  6
CONTINUOUS
 62
     7
 10
642.981335
 20
2054.426614
 11
642.736822
 21
2054.304882
  0
ENDBLK
  8
0
  0
BLOCK
  8
CSLAYER1
  2
BLKF0013
 70
   64
 10
0.0
 20
0.0
 30
0.0
  0
LINE
  8
CSLAYER1
  6
CONTINUOUS
 62
     7
 10
651.362908
 20
2046.825043
 11
651.648641
 21
2047.069487
  0
LINE
  8
CSLAYER1
  6
CONTINUOUS
 62
     7
 10
651.648641
 20
2047.069487
 11
651.906832
 21
2047.350340
  0
LINE
  8
CSLAYER1
  6
CONTINUOUS
 62
     7
 10
651.906832
 20
2047.350340
 11
652.135514
 21
2047.665465
  0
LINE
  8
CSLAYER1
  6
CONTINUOUS
 62
     7
 10
652.135514
 20
2047.665465
 11
652.332948
 21
2048.012464
  0
LINE
  8
CSLAYER1
  6
CONTINUOUS
 62
     7
 10
652.332948
 20
2048.012464
 11
652.497630
 21
2048.388695
  0
LINE
  8
CSLAYER1
  6
CONTINUOUS
 62
     7
 10
652.497630
 20
2048.388695
 11
652.628308
 21
2048.791296
  0
LINE
  8
CSLAYER1
  6
CONTINUOUS
 62
     7
 10
652.628308
 20
2048.791296
 11
652.723987
 21
2049.217202
  0
LINE
  8
CSLAYER1
  6
CONTINUOUS
 62
     7
 10
652.723987
 20
2049.217202
 11
652.783938
 21
2049.663171
  0
LINE
  8
CSLAYER1
  6
CONTINUOUS
 62
     7
 10
652.783938
 20
2049.663171
 11
652.807706
 21
2050.125811
  0
LINE
  8
CSLAYER1
  6
CONTINUOUS
 62
     7
 10
652.807706
 20
2050.125811
 11
652.795110
 21
2050.601600
  0
LINE
  8
CSLAYER1
  6
CONTINUOUS
 62
     7
 10
652.795110
 20
2050.601600
 11
652.746245
 21
2051.086916
  0
LINE
  8
CSLAYER1
  6
CONTINUOUS
 62
     7
 10
652.746245
 20
2051.086916
 11
652.661484
 21
2051.578066
  0
LINE
  8
CSLAYER1
  6
CONTINUOUS
 62
     7
 10
652.661484
 20
2051.578066
 11
652.541470
 21
2052.071313
  0
LINE
  8
CSLAYER1
  6
CONTINUOUS
 62
     7
 10
652.541470
 20
2052.071313
 11
652.387119
 21
2052.562903
  0
LINE
  8
CSLAYER1
  6
CONTINUOUS
 62
     7
 10
652.387119
 20
2052.562903
 11
652.199604
 21
2053.049093
  0
LINE
  8
CSLAYER1
  6
CONTINUOUS
 62
     7
 10
652.199604
 20
2053.049093
 11
651.980353
 21
2053.526184
  0
LINE
  8
CSLAYER1
  6
CONTINUOUS
 62
     7
 10
651.980353
 20
2053.526184
 11
651.731034
 21
2053.990545
  0
LINE
  8
CSLAYER1
  6
CONTINUOUS
 62
     7
 10
651.731034
 20
2053.990545
 11
651.453545
 21
2054.438642
  0
LINE
  8
CSLAYER1
  6
CONTINUOUS
 62
     7
 10
651.453545
 20
2054.438642
 11
651.149998
 21
2054.867065
  0
LINE
  8
CSLAYER1
  6
CONTINUOUS
 62
     7
 10
651.149998
 20
2054.867065
 11
650.822702
 21
2055.272553
  0
LINE
  8
CSLAYER1
  6
CONTINUOUS
 62
     7
 10
650.822702
 20
2055.272553
 11
650.474149
 21
2055.652020
  0
LINE
  8
CSLAYER1
  6
CONTINUOUS
 62
     7
 10
650.474149
 20
2055.652020
 11
650.106991
 21
2056.002577
  0
LINE
  8
CSLAYER1
  6
CONTINUOUS
 62
     7
 10
650.106991
 20
2056.002577
 11
649.724023
 21
2056.321558
  0
LINE
  8
CSLAYER1
  6
CONTINUOUS
 62
     7
 10
649.724023
 20
2056.321558
 11
649.328159
 21
2056.606535
  0
LINE
  8
CSLAYER1
  6
CONTINUOUS
 62
     7
 10
649.328159
 20
2056.606535
 11
648.922412
 21
2056.855338
  0
LINE
  8
CSLAYER1
  6
CONTINUOUS
 62
     7
 10
648.922412
 20
2056.855338
 11
648.509871
 21
2057.066074
  0
LINE
  8
CSLAYER1
  6
CONTINUOUS
 62
     7
 10
648.509871
 20
2057.066074
 11
648.093674
 21
2057.237139
  0
LINE
  8
CSLAYER1
  6
CONTINUOUS
 62
     7
 10
648.093674
 20
2057.237139
 11
647.676989
 21
2057.367232
  0
LINE
  8
CSLAYER1
  6
CONTINUOUS
 62
     7
 10
647.676989
 20
2057.367232
 11
647.262988
 21
2057.455362
  0
LINE
  8
CSLAYER1
  6
CONTINUOUS
 62
     7
 10
647.262988
 20
2057.455362
 11
646.854821
 21
2057.500858
  0
LINE
  8
CSLAYER1
  6
CONTINUOUS
 62
     7
 10
646.854821
 20
2057.500858
 11
646.455594
 21
2057.503375
  0
LINE
  8
CSLAYER1
  6
CONTINUOUS
 62
     7
 10
646.455594
 20
2057.503375
 11
646.068347
 21
2057.462893
  0
LINE
  8
CSLAYER1
  6
CONTINUOUS
 62
     7
 10
646.068347
 20
2057.462893
 11
645.696026
 21
2057.379720
  0
LINE
  8
CSLAYER1
  6
CONTINUOUS
 62
     7
 10
645.696026
 20
2057.379720
 11
645.341464
 21
2057.254489
  0
LINE
  8
CSLAYER1
  6
CONTINUOUS
 62
     7
 10
645.341464
 20
2057.254489
 11
645.007361
 21
2057.088154
  0
LINE
  8
CSLAYER1
  6
CONTINUOUS
 62
     7
 10
645.007361
 20
2057.088154
 11
644.696259
 21
2056.881980
  0
LINE
  8
CSLAYER1
  6
CONTINUOUS
 62
     7
 10
644.696259
 20
2056.881980
 11
644.410525
 21
2056.637536
  0
LINE
  8
CSLAYER1
  6
CONTINUOUS
 62
     7
 10
644.410525
 20
2056.637536
 11
644.152335
 21
2056.356683
  0
LINE
  8
CSLAYER1
  6
CONTINUOUS
 62
     7
 10
644.152335
 20
2056.356683
 11
643.923652
 21
2056.041558
  0
LINE
  8
CSLAYER1
  6
CONTINUOUS
 62
     7
 10
643.923652
 20
2056.041558
 11
643.726219
 21
2055.694559
  0
LINE
  8
CSLAYER1
  6
CONTINUOUS
 62
     7
 10
643.726219
 20
2055.694559
 11
643.561536
 21
2055.318328
  0
LINE
  8
CSLAYER1
  6
CONTINUOUS
 62
     7
 10
643.561536
 20
2055.318328
 11
643.430859
 21
2054.915727
  0
LINE
  8
CSLAYER1
  6
CONTINUOUS
 62
     7
 10
643.430859
 20
2054.915727
 11
643.376615
 21
2054.674267
  0
LINE
  8
CSLAYER1
  6
CONTINUOUS
 62
     7
 10
647.327982
 20
2046.754001
 11
647.549296
 21
2046.640949
  0
LINE
  8
CSLAYER1
  6
CONTINUOUS
 62
     7
 10
647.549296
 20
2046.640949
 11
647.965493
 21
2046.469884
  0
LINE
  8
CSLAYER1
  6
CONTINUOUS
 62
     7
 10
647.965493
 20
2046.469884
 11
648.382178
 21
2046.339791
  0
LINE
  8
CSLAYER1
  6
CONTINUOUS
 62
     7
 10
648.382178
 20
2046.339791
 11
648.796179
 21
2046.251661
  0
LINE
  8
CSLAYER1
  6
CONTINUOUS
 62
     7
 10
648.796179
 20
2046.251661
 11
649.204346
 21
2046.206165
  0
LINE
  8
CSLAYER1
  6
CONTINUOUS
 62
     7
 10
649.204346
 20
2046.206165
 11
649.603572
 21
2046.203648
  0
LINE
  8
CSLAYER1
  6
CONTINUOUS
 62
     7
 10
649.603572
 20
2046.203648
 11
649.990820
 21
2046.244130
  0
LINE
  8
CSLAYER1
  6
CONTINUOUS
 62
     7
 10
649.990820
 20
2046.244130
 11
650.363141
 21
2046.327303
  0
LINE
  8
CSLAYER1
  6
CONTINUOUS
 62
     7
 10
650.363141
 20
2046.327303
 11
650.694028
 21
2046.444172
  0
ENDBLK
  8
0
  0
BLOCK
  8
CSLAYER1
  2
BLKF0014
 70
   64
 10
0.0
 20
0.0
 30
0.0
  0
LINE
  8
CSLAYER1
  6
CONTINUOUS
 62
     7
 10
652.794744
 20
2047.621740
 11
653.188242
 21
2047.958376
  0
LINE
  8
CSLAYER1
  6
CONTINUOUS
 62
     7
 10
653.188242
 20
2047.958376
 11
653.446432
 21
2048.239229
  0
LINE
  8
CSLAYER1
  6
CONTINUOUS
 62
     7
 10
653.446432
 20
2048.239229
 11
653.675115
 21
2048.554354
  0
LINE
  8
CSLAYER1
  6
CONTINUOUS
 62
     7
 10
653.675115
 20
2048.554354
 11
653.872548
 21
2048.901353
  0
LINE
  8
CSLAYER1
  6
CONTINUOUS
 62
     7
 10
653.872548
 20
2048.901353
 11
654.037231
 21
2049.277584
  0
LINE
  8
CSLAYER1
  6
CONTINUOUS
 62
     7
 10
654.037231
 20
2049.277584
 11
654.167909
 21
2049.680185
  0
LINE
  8
CSLAYER1
  6
CONTINUOUS
 62
     7
 10
654.167909
 20
2049.680185
 11
654.263587
 21
2050.106091
  0
LINE
  8
CSLAYER1
  6
CONTINUOUS
 62
     7
 10
654.263587
 20
2050.106091
 11
654.323539
 21
2050.552060
  0
LINE
  8
CSLAYER1
  6
CONTINUOUS
 62
     7
 10
654.323539
 20
2050.552060
 11
654.347307
 21
2051.014700
  0
LINE
  8
CSLAYER1
  6
CONTINUOUS
 62
     7
 10
654.347307
 20
2051.014700
 11
654.334711
 21
2051.490488
  0
LINE
  8
CSLAYER1
  6
CONTINUOUS
 62
     7
 10
654.334711
 20
2051.490488
 11
654.285846
 21
2051.975805
  0
LINE
  8
CSLAYER1
  6
CONTINUOUS
 62
     7
 10
654.285846
 20
2051.975805
 11
654.201084
 21
2052.466955
  0
LINE
  8
CSLAYER1
  6
CONTINUOUS
 62
     7
 10
654.201084
 20
2052.466955
 11
654.081071
 21
2052.960202
  0
LINE
  8
CSLAYER1
  6
CONTINUOUS
 62
     7
 10
654.081071
 20
2052.960202
 11
653.926720
 21
2053.451791
  0
LINE
  8
CSLAYER1
  6
CONTINUOUS
 62
     7
 10
653.926720
 20
2053.451791
 11
653.739205
 21
2053.937982
  0
LINE
  8
CSLAYER1
  6
CONTINUOUS
 62
     7
 10
653.739205
 20
2053.937982
 11
653.519954
 21
2054.415073
  0
LINE
  8
CSLAYER1
  6
CONTINUOUS
 62
     7
 10
653.519954
 20
2054.415073
 11
653.270635
 21
2054.879434
  0
LINE
  8
CSLAYER1
  6
CONTINUOUS
 62
     7
 10
653.270635
 20
2054.879434
 11
652.993146
 21
2055.327531
  0
LINE
  8
CSLAYER1
  6
CONTINUOUS
 62
     7
 10
652.993146
 20
2055.327531
 11
652.689598
 21
2055.755954
  0
LINE
  8
CSLAYER1
  6
CONTINUOUS
 62
     7
 10
652.689598
 20
2055.755954
 11
652.362303
 21
2056.161442
  0
LINE
  8
CSLAYER1
  6
CONTINUOUS
 62
     7
 10
652.362303
 20
2056.161442
 11
652.013749
 21
2056.540908
  0
LINE
  8
CSLAYER1
  6
CONTINUOUS
 62
     7
 10
652.013749
 20
2056.540908
 11
651.646592
 21
2056.891466
  0
LINE
  8
CSLAYER1
  6
CONTINUOUS
 62
     7
 10
651.646592
 20
2056.891466
 11
651.263624
 21
2057.210447
  0
LINE
  8
CSLAYER1
  6
CONTINUOUS
 62
     7
 10
651.263624
 20
2057.210447
 11
650.867760
 21
2057.495424
  0
LINE
  8
CSLAYER1
  6
CONTINUOUS
 62
     7
 10
650.867760
 20
2057.495424
 11
650.462013
 21
2057.744227
  0
LINE
  8
CSLAYER1
  6
CONTINUOUS
 62
     7
 10
650.462013
 20
2057.744227
 11
650.049471
 21
2057.954963
  0
LINE
  8
CSLAYER1
  6
CONTINUOUS
 62
     7
 10
650.049471
 20
2057.954963
 11
649.633274
 21
2058.126028
  0
LINE
  8
CSLAYER1
  6
CONTINUOUS
 62
     7
 10
649.633274
 20
2058.126028
 11
649.216590
 21
2058.256121
  0
LINE
  8
CSLAYER1
  6
CONTINUOUS
 62
     7
 10
649.216590
 20
2058.256121
 11
648.802588
 21
2058.344251
  0
LINE
  8
CSLAYER1
  6
CONTINUOUS
 62
     7
 10
648.802588
 20
2058.344251
 11
648.394421
 21
2058.389747
  0
LINE
  8
CSLAYER1
  6
CONTINUOUS
 62
     7
 10
648.394421
 20
2058.389747
 11
647.995195
 21
2058.392264
  0
LINE
  8
CSLAYER1
  6
CONTINUOUS
 62
     7
 10
647.995195
 20
2058.392264
 11
647.607947
 21
2058.351782
  0
LINE
  8
CSLAYER1
  6
CONTINUOUS
 62
     7
 10
647.607947
 20
2058.351782
 11
647.235626
 21
2058.268609
  0
LINE
  8
CSLAYER1
  6
CONTINUOUS
 62
     7
 10
647.235626
 20
2058.268609
 11
646.881065
 21
2058.143378
  0
ENDBLK
  8
0
  0
BLOCK
  8
CSLAYER1
  2
BLKF0015
 70
   64
 10
0.0
 20
0.0
 30
0.0
  0
LINE
  8
CSLAYER1
  6
CONTINUOUS
 62
     7
 10
666.725345
 20
2060.169031
 11
666.708855
 21
2060.436087
  0
LINE
  8
CSLAYER1
  6
CONTINUOUS
 62
     7
 10
666.708855
 20
2060.436087
 11
666.659512
 21
2060.701111
  0
LINE
  8
CSLAYER1
  6
CONTINUOUS
 62
     7
 10
666.659512
 20
2060.701111
 11
666.577690
 21
2060.962086
  0
LINE
  8
CSLAYER1
  6
CONTINUOUS
 62
     7
 10
666.577690
 20
2060.962086
 11
666.464013
 21
2061.217025
  0
LINE
  8
CSLAYER1
  6
CONTINUOUS
 62
     7
 10
666.464013
 20
2061.217025
 11
666.319345
 21
2061.463988
  0
LINE
  8
CSLAYER1
  6
CONTINUOUS
 62
     7
 10
666.319345
 20
2061.463988
 11
666.144788
 21
2061.701095
  0
LINE
  8
CSLAYER1
  6
CONTINUOUS
 62
     7
 10
666.144788
 20
2061.701095
 11
665.941670
 21
2061.926543
  0
LINE
  8
CSLAYER1
  6
CONTINUOUS
 62
     7
 10
665.941670
 20
2061.926543
 11
665.711538
 21
2062.138615
  0
LINE
  8
CSLAYER1
  6
CONTINUOUS
 62
     7
 10
665.711538
 20
2062.138615
 11
665.456141
 21
2062.335697
  0
LINE
  8
CSLAYER1
  6
CONTINUOUS
 62
     7
 10
665.456141
 20
2062.335697
 11
665.177425
 21
2062.516290
  0
LINE
  8
CSLAYER1
  6
CONTINUOUS
 62
     7
 10
665.177425
 20
2062.516290
 11
664.877509
 21
2062.679018
  0
LINE
  8
CSLAYER1
  6
CONTINUOUS
 62
     7
 10
664.877509
 20
2062.679018
 11
664.558678
 21
2062.822644
  0
LINE
  8
CSLAYER1
  6
CONTINUOUS
 62
     7
 10
664.558678
 20
2062.822644
 11
664.223357
 21
2062.946075
  0
LINE
  8
CSLAYER1
  6
CONTINUOUS
 62
     7
 10
664.223357
 20
2062.946075
 11
663.874099
 21
2063.048370
  0
LINE
  8
CSLAYER1
  6
CONTINUOUS
 62
     7
 10
663.874099
 20
2063.048370
 11
663.513561
 21
2063.128752
  0
LINE
  8
CSLAYER1
  6
CONTINUOUS
 62
     7
 10
663.513561
 20
2063.128752
 11
663.144487
 21
2063.186609
  0
LINE
  8
CSLAYER1
  6
CONTINUOUS
 62
     7
 10
663.144487
 20
2063.186609
 11
662.769686
 21
2063.221500
  0
LINE
  8
CSLAYER1
  6
CONTINUOUS
 62
     7
 10
662.769686
 20
2063.221500
 11
662.392012
 21
2063.233160
  0
LINE
  8
CSLAYER1
  6
CONTINUOUS
 62
     7
 10
662.392012
 20
2063.233160
 11
662.014337
 21
2063.221500
  0
LINE
  8
CSLAYER1
  6
CONTINUOUS
 62
     7
 10
662.014337
 20
2063.221500
 11
661.639536
 21
2063.186609
  0
LINE
  8
CSLAYER1
  6
CONTINUOUS
 62
     7
 10
661.639536
 20
2063.186609
 11
661.270462
 21
2063.128752
  0
LINE
  8
CSLAYER1
  6
CONTINUOUS
 62
     7
 10
661.270462
 20
2063.128752
 11
660.909924
 21
2063.048370
  0
LINE
  8
CSLAYER1
  6
CONTINUOUS
 62
     7
 10
660.909924
 20
2063.048370
 11
660.560666
 21
2062.946075
  0
LINE
  8
CSLAYER1
  6
CONTINUOUS
 62
     7
 10
660.560666
 20
2062.946075
 11
660.225345
 21
2062.822644
  0
LINE
  8
CSLAYER1
  6
CONTINUOUS
 62
     7
 10
660.225345
 20
2062.822644
 11
659.906514
 21
2062.679018
  0
LINE
  8
CSLAYER1
  6
CONTINUOUS
 62
     7
 10
659.906514
 20
2062.679018
 11
659.606599
 21
2062.516290
  0
LINE
  8
CSLAYER1
  6
CONTINUOUS
 62
     7
 10
659.606599
 20
2062.516290
 11
659.327882
 21
2062.335697
  0
LINE
  8
CSLAYER1
  6
CONTINUOUS
 62
     7
 10
659.327882
 20
2062.335697
 11
659.072486
 21
2062.138615
  0
LINE
  8
CSLAYER1
  6
CONTINUOUS
 62
     7
 10
659.072486
 20
2062.138615
 11
658.842353
 21
2061.926543
  0
LINE
  8
CSLAYER1
  6
CONTINUOUS
 62
     7
 10
658.842353
 20
2061.926543
 11
658.639235
 21
2061.701095
  0
LINE
  8
CSLAYER1
  6
CONTINUOUS
 62
     7
 10
658.639235
 20
2061.701095
 11
658.464678
 21
2061.463988
  0
LINE
  8
CSLAYER1
  6
CONTINUOUS
 62
     7
 10
658.464678
 20
2061.463988
 11
658.320010
 21
2061.217025
  0
LINE
  8
CSLAYER1
  6
CONTINUOUS
 62
     7
 10
658.320010
 20
2061.217025
 11
658.206333
 21
2060.962086
  0
LINE
  8
CSLAYER1
  6
CONTINUOUS
 62
     7
 10
658.206333
 20
2060.962086
 11
658.124511
 21
2060.701111
  0
LINE
  8
CSLAYER1
  6
CONTINUOUS
 62
     7
 10
658.124511
 20
2060.701111
 11
658.075168
 21
2060.436087
  0
LINE
  8
CSLAYER1
  6
CONTINUOUS
 62
     7
 10
658.075168
 20
2060.436087
 11
658.058678
 21
2060.169031
  0
LINE
  8
CSLAYER1
  6
CONTINUOUS
 62
     7
 10
658.058678
 20
2060.169031
 11
658.075168
 21
2059.901974
  0
LINE
  8
CSLAYER1
  6
CONTINUOUS
 62
     7
 10
658.075168
 20
2059.901974
 11
658.124511
 21
2059.636950
  0
LINE
  8
CSLAYER1
  6
CONTINUOUS
 62
     7
 10
658.124511
 20
2059.636950
 11
658.206333
 21
2059.375976
  0
LINE
  8
CSLAYER1
  6
CONTINUOUS
 62
     7
 10
658.206333
 20
2059.375976
 11
658.320010
 21
2059.121037
  0
LINE
  8
CSLAYER1
  6
CONTINUOUS
 62
     7
 10
658.320010
 20
2059.121037
 11
658.464678
 21
2058.874074
  0
LINE
  8
CSLAYER1
  6
CONTINUOUS
 62
     7
 10
658.464678
 20
2058.874074
 11
658.639235
 21
2058.636966
  0
LINE
  8
CSLAYER1
  6
CONTINUOUS
 62
     7
 10
658.639235
 20
2058.636966
 11
658.842353
 21
2058.411518
  0
LINE
  8
CSLAYER1
  6
CONTINUOUS
 62
     7
 10
658.842353
 20
2058.411518
 11
659.072486
 21
2058.199446
  0
LINE
  8
CSLAYER1
  6
CONTINUOUS
 62
     7
 10
659.072486
 20
2058.199446
 11
659.327882
 21
2058.002364
  0
LINE
  8
CSLAYER1
  6
CONTINUOUS
 62
     7
 10
659.327882
 20
2058.002364
 11
659.606599
 21
2057.821771
  0
LINE
  8
CSLAYER1
  6
CONTINUOUS
 62
     7
 10
659.606599
 20
2057.821771
 11
659.906514
 21
2057.659043
  0
LINE
  8
CSLAYER1
  6
CONTINUOUS
 62
     7
 10
659.906514
 20
2057.659043
 11
660.225345
 21
2057.515417
  0
LINE
  8
CSLAYER1
  6
CONTINUOUS
 62
     7
 10
660.225345
 20
2057.515417
 11
660.560666
 21
2057.391986
  0
LINE
  8
CSLAYER1
  6
CONTINUOUS
 62
     7
 10
660.560666
 20
2057.391986
 11
660.909924
 21
2057.289691
  0
LINE
  8
CSLAYER1
  6
CONTINUOUS
 62
     7
 10
660.909924
 20
2057.289691
 11
661.270462
 21
2057.209309
  0
LINE
  8
CSLAYER1
  6
CONTINUOUS
 62
     7
 10
661.270462
 20
2057.209309
 11
661.639536
 21
2057.151452
  0
LINE
  8
CSLAYER1
  6
CONTINUOUS
 62
     7
 10
661.639536
 20
2057.151452
 11
662.014337
 21
2057.116561
  0
LINE
  8
CSLAYER1
  6
CONTINUOUS
 62
     7
 10
662.014337
 20
2057.116561
 11
662.392012
 21
2057.104901
  0
LINE
  8
CSLAYER1
  6
CONTINUOUS
 62
     7
 10
662.392012
 20
2057.104901
 11
662.769686
 21
2057.116561
  0
LINE
  8
CSLAYER1
  6
CONTINUOUS
 62
     7
 10
662.769686
 20
2057.116561
 11
663.144487
 21
2057.151452
  0
LINE
  8
CSLAYER1
  6
CONTINUOUS
 62
     7
 10
663.144487
 20
2057.151452
 11
663.513561
 21
2057.209309
  0
LINE
  8
CSLAYER1
  6
CONTINUOUS
 62
     7
 10
663.513561
 20
2057.209309
 11
663.874099
 21
2057.289691
  0
LINE
  8
CSLAYER1
  6
CONTINUOUS
 62
     7
 10
663.874099
 20
2057.289691
 11
664.223357
 21
2057.391986
  0
LINE
  8
CSLAYER1
  6
CONTINUOUS
 62
     7
 10
664.223357
 20
2057.391986
 11
664.558678
 21
2057.515417
  0
LINE
  8
CSLAYER1
  6
CONTINUOUS
 62
     7
 10
664.558678
 20
2057.515417
 11
664.877509
 21
2057.659043
  0
LINE
  8
CSLAYER1
  6
CONTINUOUS
 62
     7
 10
664.877509
 20
2057.659043
 11
665.177425
 21
2057.821771
  0
LINE
  8
CSLAYER1
  6
CONTINUOUS
 62
     7
 10
665.177425
 20
2057.821771
 11
665.456141
 21
2058.002364
  0
LINE
  8
CSLAYER1
  6
CONTINUOUS
 62
     7
 10
665.456141
 20
2058.002364
 11
665.711538
 21
2058.199446
  0
LINE
  8
CSLAYER1
  6
CONTINUOUS
 62
     7
 10
665.711538
 20
2058.199446
 11
665.941670
 21
2058.411518
  0
LINE
  8
CSLAYER1
  6
CONTINUOUS
 62
     7
 10
665.941670
 20
2058.411518
 11
666.144788
 21
2058.636966
  0
LINE
  8
CSLAYER1
  6
CONTINUOUS
 62
     7
 10
666.144788
 20
2058.636966
 11
666.319345
 21
2058.874074
  0
LINE
  8
CSLAYER1
  6
CONTINUOUS
 62
     7
 10
666.319345
 20
2058.874074
 11
666.464013
 21
2059.121037
  0
LINE
  8
CSLAYER1
  6
CONTINUOUS
 62
     7
 10
666.464013
 20
2059.121037
 11
666.577690
 21
2059.375976
  0
LINE
  8
CSLAYER1
  6
CONTINUOUS
 62
     7
 10
666.577690
 20
2059.375976
 11
666.659512
 21
2059.636950
  0
LINE
  8
CSLAYER1
  6
CONTINUOUS
 62
     7
 10
666.659512
 20
2059.636950
 11
666.708855
 21
2059.901974
  0
LINE
  8
CSLAYER1
  6
CONTINUOUS
 62
     7
 10
666.708855
 20
2059.901974
 11
666.725345
 21
2060.169031
  0
ENDBLK
  8
0
  0
BLOCK
  8
CSLAYER1
  2
BLKF0016
 70
   64
 10
0.0
 20
0.0
 30
0.0
  0
LINE
  8
CSLAYER1
  6
CONTINUOUS
 62
     7
 10
600.935201
 20
2057.657603
 11
602.042036
 21
2058.349231
  0
LINE
  8
CSLAYER1
  6
CONTINUOUS
 62
     7
 10
602.447004
 20
2068.439532
 11
629.014445
 21
2085.040712
  0
LINE
  8
CSLAYER1
  6
CONTINUOUS
 62
     7
 10
600.481777
 20
2065.342555
 11
600.481777
 21
2060.524513
  0
LINE
  8
CSLAYER1
  6
CONTINUOUS
 62
     7
 10
600.481777
 20
2065.342555
 11
600.513741
 21
2065.762475
  0
LINE
  8
CSLAYER1
  6
CONTINUOUS
 62
     7
 10
600.513741
 20
2065.762475
 11
600.609392
 21
2066.179199
  0
LINE
  8
CSLAYER1
  6
CONTINUOUS
 62
     7
 10
600.609392
 20
2066.179199
 11
600.768000
 21
2066.589556
  0
LINE
  8
CSLAYER1
  6
CONTINUOUS
 62
     7
 10
600.768000
 20
2066.589556
 11
600.988359
 21
2066.990422
  0
LINE
  8
CSLAYER1
  6
CONTINUOUS
 62
     7
 10
600.988359
 20
2066.990422
 11
601.268792
 21
2067.378747
  0
LINE
  8
CSLAYER1
  6
CONTINUOUS
 62
     7
 10
601.268792
 20
2067.378747
 11
601.607164
 21
2067.751576
  0
LINE
  8
CSLAYER1
  6
CONTINUOUS
 62
     7
 10
601.607164
 20
2067.751576
 11
602.000900
 21
2068.106070
  0
LINE
  8
CSLAYER1
  6
CONTINUOUS
 62
     7
 10
602.000900
 20
2068.106070
 11
602.447004
 21
2068.439532
  0
LINE
  8
CSLAYER1
  6
CONTINUOUS
 62
     7
 10
614.821474
 20
2061.935684
 11
614.281193
 21
2061.651720
  0
LINE
  8
CSLAYER1
  6
CONTINUOUS
 62
     7
 10
614.281193
 20
2061.651720
 11
613.699819
 21
2061.395846
  0
LINE
  8
CSLAYER1
  6
CONTINUOUS
 62
     7
 10
613.699819
 20
2061.395846
 11
613.081777
 21
2061.170008
  0
LINE
  8
CSLAYER1
  6
CONTINUOUS
 62
     7
 10
613.081777
 20
2061.170008
 11
612.431770
 21
2060.975926
  0
LINE
  8
CSLAYER1
  6
CONTINUOUS
 62
     7
 10
612.431770
 20
2060.975926
 11
611.754746
 21
2060.815076
  0
LINE
  8
CSLAYER1
  6
CONTINUOUS
 62
     7
 10
611.754746
 20
2060.815076
 11
611.055857
 21
2060.688683
  0
LINE
  8
CSLAYER1
  6
CONTINUOUS
 62
     7
 10
611.055857
 20
2060.688683
 11
610.340422
 21
2060.597709
  0
LINE
  8
CSLAYER1
  6
CONTINUOUS
 62
     7
 10
610.340422
 20
2060.597709
 11
609.613885
 21
2060.542847
  0
LINE
  8
CSLAYER1
  6
CONTINUOUS
 62
     7
 10
609.613885
 20
2060.542847
 11
608.881777
 21
2060.524513
  0
LINE
  8
CSLAYER1
  6
CONTINUOUS
 62
     7
 10
608.881777
 20
2060.524513
 11
608.149669
 21
2060.542847
  0
LINE
  8
CSLAYER1
  6
CONTINUOUS
 62
     7
 10
608.149669
 20
2060.542847
 11
607.423132
 21
2060.597709
  0
LINE
  8
CSLAYER1
  6
CONTINUOUS
 62
     7
 10
607.423132
 20
2060.597709
 11
606.707697
 21
2060.688683
  0
LINE
  8
CSLAYER1
  6
CONTINUOUS
 62
     7
 10
606.707697
 20
2060.688683
 11
606.008808
 21
2060.815076
  0
LINE
  8
CSLAYER1
  6
CONTINUOUS
 62
     7
 10
606.008808
 20
2060.815076
 11
605.331784
 21
2060.975926
  0
LINE
  8
CSLAYER1
  6
CONTINUOUS
 62
     7
 10
605.331784
 20
2060.975926
 11
604.681777
 21
2061.170008
  0
LINE
  8
CSLAYER1
  6
CONTINUOUS
 62
     7
 10
604.681777
 20
2061.170008
 11
604.063735
 21
2061.395846
  0
LINE
  8
CSLAYER1
  6
CONTINUOUS
 62
     7
 10
604.063735
 20
2061.395846
 11
603.482361
 21
2061.651720
  0
LINE
  8
CSLAYER1
  6
CONTINUOUS
 62
     7
 10
603.482361
 20
2061.651720
 11
602.942080
 21
2061.935684
  0
LINE
  8
CSLAYER1
  6
CONTINUOUS
 62
     7
 10
602.942080
 20
2061.935684
 11
602.447004
 21
2062.245577
  0
LINE
  8
CSLAYER1
  6
CONTINUOUS
 62
     7
 10
602.447004
 20
2062.245577
 11
602.000900
 21
2062.579039
  0
LINE
  8
CSLAYER1
  6
CONTINUOUS
 62
     7
 10
602.000900
 20
2062.579039
 11
601.607164
 21
2062.933534
  0
LINE
  8
CSLAYER1
  6
CONTINUOUS
 62
     7
 10
601.607164
 20
2062.933534
 11
601.268792
 21
2063.306362
  0
LINE
  8
CSLAYER1
  6
CONTINUOUS
 62
     7
 10
601.268792
 20
2063.306362
 11
600.988359
 21
2063.694687
  0
LINE
  8
CSLAYER1
  6
CONTINUOUS
 62
     7
 10
600.988359
 20
2063.694687
 11
600.768000
 21
2064.095554
  0
LINE
  8
CSLAYER1
  6
CONTINUOUS
 62
     7
 10
600.768000
 20
2064.095554
 11
600.609392
 21
2064.505910
  0
LINE
  8
CSLAYER1
  6
CONTINUOUS
 62
     7
 10
600.609392
 20
2064.505910
 11
600.513741
 21
2064.922635
  0
LINE
  8
CSLAYER1
  6
CONTINUOUS
 62
     7
 10
600.513741
 20
2064.922635
 11
600.481777
 21
2065.342555
  0
LINE
  8
CSLAYER1
  6
CONTINUOUS
 62
     7
 10
615.316550
 20
2057.427535
 11
614.821474
 21
2057.117642
  0
LINE
  8
CSLAYER1
  6
CONTINUOUS
 62
     7
 10
614.821474
 20
2057.117642
 11
614.281193
 21
2056.833678
  0
LINE
  8
CSLAYER1
  6
CONTINUOUS
 62
     7
 10
614.281193
 20
2056.833678
 11
613.699819
 21
2056.577804
  0
LINE
  8
CSLAYER1
  6
CONTINUOUS
 62
     7
 10
613.699819
 20
2056.577804
 11
613.081777
 21
2056.351966
  0
LINE
  8
CSLAYER1
  6
CONTINUOUS
 62
     7
 10
613.081777
 20
2056.351966
 11
612.431770
 21
2056.157884
  0
LINE
  8
CSLAYER1
  6
CONTINUOUS
 62
     7
 10
612.431770
 20
2056.157884
 11
611.754746
 21
2055.997034
  0
LINE
  8
CSLAYER1
  6
CONTINUOUS
 62
     7
 10
611.754746
 20
2055.997034
 11
611.055857
 21
2055.870641
  0
LINE
  8
CSLAYER1
  6
CONTINUOUS
 62
     7
 10
611.055857
 20
2055.870641
 11
610.340422
 21
2055.779667
  0
LINE
  8
CSLAYER1
  6
CONTINUOUS
 62
     7
 10
610.340422
 20
2055.779667
 11
609.613885
 21
2055.724805
  0
LINE
  8
CSLAYER1
  6
CONTINUOUS
 62
     7
 10
609.613885
 20
2055.724805
 11
608.881777
 21
2055.706471
  0
LINE
  8
CSLAYER1
  6
CONTINUOUS
 62
     7
 10
608.881777
 20
2055.706471
 11
608.149669
 21
2055.724805
  0
LINE
  8
CSLAYER1
  6
CONTINUOUS
 62
     7
 10
608.149669
 20
2055.724805
 11
607.423132
 21
2055.779667
  0
LINE
  8
CSLAYER1
  6
CONTINUOUS
 62
     7
 10
607.423132
 20
2055.779667
 11
606.707697
 21
2055.870641
  0
LINE
  8
CSLAYER1
  6
CONTINUOUS
 62
     7
 10
606.707697
 20
2055.870641
 11
606.008808
 21
2055.997034
  0
LINE
  8
CSLAYER1
  6
CONTINUOUS
 62
     7
 10
606.008808
 20
2055.997034
 11
605.331784
 21
2056.157884
  0
LINE
  8
CSLAYER1
  6
CONTINUOUS
 62
     7
 10
605.331784
 20
2056.157884
 11
604.681777
 21
2056.351966
  0
LINE
  8
CSLAYER1
  6
CONTINUOUS
 62
     7
 10
604.681777
 20
2056.351966
 11
604.063735
 21
2056.577804
  0
LINE
  8
CSLAYER1
  6
CONTINUOUS
 62
     7
 10
604.063735
 20
2056.577804
 11
603.482361
 21
2056.833678
  0
LINE
  8
CSLAYER1
  6
CONTINUOUS
 62
     7
 10
603.482361
 20
2056.833678
 11
602.942080
 21
2057.117642
  0
LINE
  8
CSLAYER1
  6
CONTINUOUS
 62
     7
 10
602.942080
 20
2057.117642
 11
602.447004
 21
2057.427535
  0
LINE
  8
CSLAYER1
  6
CONTINUOUS
 62
     7
 10
602.447004
 20
2057.427535
 11
602.000900
 21
2057.760997
  0
LINE
  8
CSLAYER1
  6
CONTINUOUS
 62
     7
 10
602.000900
 20
2057.760997
 11
601.607164
 21
2058.115492
  0
LINE
  8
CSLAYER1
  6
CONTINUOUS
 62
     7
 10
601.607164
 20
2058.115492
 11
601.268792
 21
2058.488320
  0
LINE
  8
CSLAYER1
  6
CONTINUOUS
 62
     7
 10
601.268792
 20
2058.488320
 11
600.988359
 21
2058.876645
  0
LINE
  8
CSLAYER1
  6
CONTINUOUS
 62
     7
 10
600.988359
 20
2058.876645
 11
600.768000
 21
2059.277512
  0
LINE
  8
CSLAYER1
  6
CONTINUOUS
 62
     7
 10
600.768000
 20
2059.277512
 11
600.609392
 21
2059.687868
  0
LINE
  8
CSLAYER1
  6
CONTINUOUS
 62
     7
 10
600.609392
 20
2059.687868
 11
600.513741
 21
2060.104593
  0
LINE
  8
CSLAYER1
  6
CONTINUOUS
 62
     7
 10
600.513741
 20
2060.104593
 11
600.481777
 21
2060.524513
  0
LINE
  8
CSLAYER1
  6
CONTINUOUS
 62
     7
 10
602.313814
 20
2064.995074
 11
632.413613
 21
2083.803516
  0
LINE
  8
CSLAYER1
  6
CONTINUOUS
 62
     7
 10
604.866198
 20
2063.228749
 11
635.812781
 21
2082.566320
  0
LINE
  8
CSLAYER1
  6
CONTINUOUS
 62
     7
 10
614.821474
 20
2057.117642
 11
643.518196
 21
2075.049345
  0
LINE
  8
CSLAYER1
  6
CONTINUOUS
 62
     7
 10
614.821474
 20
2061.935684
 11
643.411396
 21
2079.800650
  0
LINE
  8
CSLAYER1
  6
CONTINUOUS
 62
     7
 10
616.208883
 20
2063.593981
 11
642.611117
 21
2080.091928
  0
LINE
  8
CSLAYER1
  6
CONTINUOUS
 62
     7
 10
609.062059
 20
2062.489382
 11
639.211949
 21
2081.329124
  0
LINE
  8
CSLAYER1
  6
CONTINUOUS
 62
     7
 10
635.551300
 20
2088.487593
 11
635.575593
 21
2088.806732
  0
LINE
  8
CSLAYER1
  6
CONTINUOUS
 62
     7
 10
635.575593
 20
2088.806732
 11
635.648287
 21
2089.123442
  0
LINE
  8
CSLAYER1
  6
CONTINUOUS
 62
     7
 10
635.648287
 20
2089.123442
 11
635.768829
 21
2089.435314
  0
LINE
  8
CSLAYER1
  6
CONTINUOUS
 62
     7
 10
635.768829
 20
2089.435314
 11
635.936302
 21
2089.739972
  0
LINE
  8
CSLAYER1
  6
CONTINUOUS
 62
     7
 10
635.936302
 20
2089.739972
 11
636.149431
 21
2090.035099
  0
LINE
  8
CSLAYER1
  6
CONTINUOUS
 62
     7
 10
636.149431
 20
2090.035099
 11
636.406593
 21
2090.318449
  0
LINE
  8
CSLAYER1
  6
CONTINUOUS
 62
     7
 10
636.406593
 20
2090.318449
 11
636.705833
 21
2090.587864
  0
LINE
  8
CSLAYER1
  6
CONTINUOUS
 62
     7
 10
636.705833
 20
2090.587864
 11
637.044872
 21
2090.841296
  0
LINE
  8
CSLAYER1
  6
CONTINUOUS
 62
     7
 10
637.044872
 20
2090.841296
 11
637.421130
 21
2091.076814
  0
LINE
  8
CSLAYER1
  6
CONTINUOUS
 62
     7
 10
637.421130
 20
2091.076814
 11
637.831743
 21
2091.292627
  0
LINE
  8
CSLAYER1
  6
CONTINUOUS
 62
     7
 10
637.831743
 20
2091.292627
 11
638.273588
 21
2091.487092
  0
LINE
  8
CSLAYER1
  6
CONTINUOUS
 62
     7
 10
638.273588
 20
2091.487092
 11
638.743300
 21
2091.658728
  0
LINE
  8
CSLAYER1
  6
CONTINUOUS
 62
     7
 10
638.743300
 20
2091.658728
 11
639.237305
 21
2091.806231
  0
LINE
  8
CSLAYER1
  6
CONTINUOUS
 62
     7
 10
639.237305
 20
2091.806231
 11
639.751843
 21
2091.928477
  0
LINE
  8
CSLAYER1
  6
CONTINUOUS
 62
     7
 10
639.751843
 20
2091.928477
 11
640.282999
 21
2092.024535
  0
LINE
  8
CSLAYER1
  6
CONTINUOUS
 62
     7
 10
640.282999
 20
2092.024535
 11
640.826730
 21
2092.093675
  0
LINE
  8
CSLAYER1
  6
CONTINUOUS
 62
     7
 10
640.826730
 20
2092.093675
 11
641.378897
 21
2092.135371
  0
LINE
  8
CSLAYER1
  6
CONTINUOUS
 62
     7
 10
641.378897
 20
2092.135371
 11
641.935300
 21
2092.149305
  0
LINE
  8
CSLAYER1
  6
CONTINUOUS
 62
     7
 10
641.935300
 20
2092.149305
 11
642.491702
 21
2092.135371
  0
LINE
  8
CSLAYER1
  6
CONTINUOUS
 62
     7
 10
642.491702
 20
2092.135371
 11
643.043870
 21
2092.093675
  0
LINE
  8
CSLAYER1
  6
CONTINUOUS
 62
     7
 10
643.043870
 20
2092.093675
 11
643.587600
 21
2092.024535
  0
LINE
  8
CSLAYER1
  6
CONTINUOUS
 62
     7
 10
643.587600
 20
2092.024535
 11
644.118756
 21
2091.928477
  0
LINE
  8
CSLAYER1
  6
CONTINUOUS
 62
     7
 10
644.118756
 20
2091.928477
 11
644.633295
 21
2091.806231
  0
LINE
  8
CSLAYER1
  6
CONTINUOUS
 62
     7
 10
644.633295
 20
2091.806231
 11
645.127300
 21
2091.658728
  0
LINE
  8
CSLAYER1
  6
CONTINUOUS
 62
     7
 10
645.127300
 20
2091.658728
 11
645.597012
 21
2091.487092
  0
LINE
  8
CSLAYER1
  6
CONTINUOUS
 62
     7
 10
645.597012
 20
2091.487092
 11
646.038856
 21
2091.292627
  0
LINE
  8
CSLAYER1
  6
CONTINUOUS
 62
     7
 10
646.038856
 20
2091.292627
 11
646.449469
 21
2091.076814
  0
LINE
  8
CSLAYER1
  6
CONTINUOUS
 62
     7
 10
646.449469
 20
2091.076814
 11
646.825727
 21
2090.841296
  0
LINE
  8
CSLAYER1
  6
CONTINUOUS
 62
     7
 10
646.825727
 20
2090.841296
 11
647.164766
 21
2090.587864
  0
LINE
  8
CSLAYER1
  6
CONTINUOUS
 62
     7
 10
647.164766
 20
2090.587864
 11
647.464006
 21
2090.318449
  0
LINE
  8
CSLAYER1
  6
CONTINUOUS
 62
     7
 10
647.464006
 20
2090.318449
 11
647.721168
 21
2090.035099
  0
LINE
  8
CSLAYER1
  6
CONTINUOUS
 62
     7
 10
647.721168
 20
2090.035099
 11
647.934297
 21
2089.739972
  0
LINE
  8
CSLAYER1
  6
CONTINUOUS
 62
     7
 10
647.934297
 20
2089.739972
 11
648.101770
 21
2089.435314
  0
LINE
  8
CSLAYER1
  6
CONTINUOUS
 62
     7
 10
648.101770
 20
2089.435314
 11
648.222312
 21
2089.123442
  0
LINE
  8
CSLAYER1
  6
CONTINUOUS
 62
     7
 10
648.222312
 20
2089.123442
 11
648.295006
 21
2088.806732
  0
LINE
  8
CSLAYER1
  6
CONTINUOUS
 62
     7
 10
648.295006
 20
2088.806732
 11
648.319300
 21
2088.487593
  0
LINE
  8
CSLAYER1
  6
CONTINUOUS
 62
     7
 10
648.319300
 20
2088.487593
 11
648.295006
 21
2088.168454
  0
LINE
  8
CSLAYER1
  6
CONTINUOUS
 62
     7
 10
648.295006
 20
2088.168454
 11
648.222312
 21
2087.851743
  0
LINE
  8
CSLAYER1
  6
CONTINUOUS
 62
     7
 10
648.222312
 20
2087.851743
 11
648.101770
 21
2087.539872
  0
LINE
  8
CSLAYER1
  6
CONTINUOUS
 62
     7
 10
648.101770
 20
2087.539872
 11
647.934297
 21
2087.235214
  0
LINE
  8
CSLAYER1
  6
CONTINUOUS
 62
     7
 10
647.934297
 20
2087.235214
 11
647.721168
 21
2086.940086
  0
LINE
  8
CSLAYER1
  6
CONTINUOUS
 62
     7
 10
647.721168
 20
2086.940086
 11
647.464006
 21
2086.656737
  0
LINE
  8
CSLAYER1
  6
CONTINUOUS
 62
     7
 10
647.464006
 20
2086.656737
 11
647.164766
 21
2086.387321
  0
LINE
  8
CSLAYER1
  6
CONTINUOUS
 62
     7
 10
647.164766
 20
2086.387321
 11
646.825727
 21
2086.133890
  0
LINE
  8
CSLAYER1
  6
CONTINUOUS
 62
     7
 10
646.825727
 20
2086.133890
 11
646.449469
 21
2085.898371
  0
LINE
  8
CSLAYER1
  6
CONTINUOUS
 62
     7
 10
646.449469
 20
2085.898371
 11
646.038856
 21
2085.682559
  0
LINE
  8
CSLAYER1
  6
CONTINUOUS
 62
     7
 10
646.038856
 20
2085.682559
 11
645.597012
 21
2085.488094
  0
LINE
  8
CSLAYER1
  6
CONTINUOUS
 62
     7
 10
645.597012
 20
2085.488094
 11
645.127300
 21
2085.316457
  0
LINE
  8
CSLAYER1
  6
CONTINUOUS
 62
     7
 10
645.127300
 20
2085.316457
 11
644.633295
 21
2085.168955
  0
LINE
  8
CSLAYER1
  6
CONTINUOUS
 62
     7
 10
644.633295
 20
2085.168955
 11
644.118756
 21
2085.046709
  0
LINE
  8
CSLAYER1
  6
CONTINUOUS
 62
     7
 10
644.118756
 20
2085.046709
 11
643.587600
 21
2084.950651
  0
LINE
  8
CSLAYER1
  6
CONTINUOUS
 62
     7
 10
643.587600
 20
2084.950651
 11
643.043870
 21
2084.881510
  0
LINE
  8
CSLAYER1
  6
CONTINUOUS
 62
     7
 10
643.043870
 20
2084.881510
 11
642.491702
 21
2084.839815
  0
LINE
  8
CSLAYER1
  6
CONTINUOUS
 62
     7
 10
642.491702
 20
2084.839815
 11
641.935300
 21
2084.825881
  0
LINE
  8
CSLAYER1
  6
CONTINUOUS
 62
     7
 10
641.935300
 20
2084.825881
 11
641.378897
 21
2084.839815
  0
LINE
  8
CSLAYER1
  6
CONTINUOUS
 62
     7
 10
641.378897
 20
2084.839815
 11
640.826730
 21
2084.881510
  0
LINE
  8
CSLAYER1
  6
CONTINUOUS
 62
     7
 10
640.826730
 20
2084.881510
 11
640.282999
 21
2084.950651
  0
LINE
  8
CSLAYER1
  6
CONTINUOUS
 62
     7
 10
640.282999
 20
2084.950651
 11
639.751843
 21
2085.046709
  0
LINE
  8
CSLAYER1
  6
CONTINUOUS
 62
     7
 10
639.751843
 20
2085.046709
 11
639.237305
 21
2085.168955
  0
LINE
  8
CSLAYER1
  6
CONTINUOUS
 62
     7
 10
639.237305
 20
2085.168955
 11
638.743300
 21
2085.316457
  0
LINE
  8
CSLAYER1
  6
CONTINUOUS
 62
     7
 10
638.743300
 20
2085.316457
 11
638.273588
 21
2085.488094
  0
LINE
  8
CSLAYER1
  6
CONTINUOUS
 62
     7
 10
638.273588
 20
2085.488094
 11
637.831743
 21
2085.682559
  0
LINE
  8
CSLAYER1
  6
CONTINUOUS
 62
     7
 10
637.831743
 20
2085.682559
 11
637.421130
 21
2085.898371
  0
LINE
  8
CSLAYER1
  6
CONTINUOUS
 62
     7
 10
637.421130
 20
2085.898371
 11
637.044872
 21
2086.133890
  0
LINE
  8
CSLAYER1
  6
CONTINUOUS
 62
     7
 10
637.044872
 20
2086.133890
 11
636.705833
 21
2086.387321
  0
LINE
  8
CSLAYER1
  6
CONTINUOUS
 62
     7
 10
636.705833
 20
2086.387321
 11
636.406593
 21
2086.656737
  0
LINE
  8
CSLAYER1
  6
CONTINUOUS
 62
     7
 10
636.406593
 20
2086.656737
 11
636.149431
 21
2086.940086
  0
LINE
  8
CSLAYER1
  6
CONTINUOUS
 62
     7
 10
636.149431
 20
2086.940086
 11
635.936302
 21
2087.235214
  0
LINE
  8
CSLAYER1
  6
CONTINUOUS
 62
     7
 10
635.936302
 20
2087.235214
 11
635.768829
 21
2087.539872
  0
LINE
  8
CSLAYER1
  6
CONTINUOUS
 62
     7
 10
635.768829
 20
2087.539872
 11
635.648287
 21
2087.851743
  0
LINE
  8
CSLAYER1
  6
CONTINUOUS
 62
     7
 10
635.648287
 20
2087.851743
 11
635.575593
 21
2088.168454
  0
LINE
  8
CSLAYER1
  6
CONTINUOUS
 62
     7
 10
635.575593
 20
2088.168454
 11
635.551300
 21
2088.487593
  0
LINE
  8
CSLAYER1
  6
CONTINUOUS
 62
     7
 10
638.575300
 20
2088.487593
 11
638.588085
 21
2088.655561
  0
LINE
  8
CSLAYER1
  6
CONTINUOUS
 62
     7
 10
638.588085
 20
2088.655561
 11
638.626345
 21
2088.822250
  0
LINE
  8
CSLAYER1
  6
CONTINUOUS
 62
     7
 10
638.626345
 20
2088.822250
 11
638.689789
 21
2088.986393
  0
LINE
  8
CSLAYER1
  6
CONTINUOUS
 62
     7
 10
638.689789
 20
2088.986393
 11
638.777932
 21
2089.146740
  0
LINE
  8
CSLAYER1
  6
CONTINUOUS
 62
     7
 10
638.777932
 20
2089.146740
 11
638.890105
 21
2089.302070
  0
LINE
  8
CSLAYER1
  6
CONTINUOUS
 62
     7
 10
638.890105
 20
2089.302070
 11
639.025454
 21
2089.451201
  0
LINE
  8
CSLAYER1
  6
CONTINUOUS
 62
     7
 10
639.025454
 20
2089.451201
 11
639.182949
 21
2089.592999
  0
LINE
  8
CSLAYER1
  6
CONTINUOUS
 62
     7
 10
639.182949
 20
2089.592999
 11
639.361390
 21
2089.726384
  0
LINE
  8
CSLAYER1
  6
CONTINUOUS
 62
     7
 10
639.361390
 20
2089.726384
 11
639.559421
 21
2089.850341
  0
LINE
  8
CSLAYER1
  6
CONTINUOUS
 62
     7
 10
639.559421
 20
2089.850341
 11
639.775533
 21
2089.963927
  0
LINE
  8
CSLAYER1
  6
CONTINUOUS
 62
     7
 10
639.775533
 20
2089.963927
 11
640.008083
 21
2090.066276
  0
LINE
  8
CSLAYER1
  6
CONTINUOUS
 62
     7
 10
640.008083
 20
2090.066276
 11
640.255300
 21
2090.156612
  0
LINE
  8
CSLAYER1
  6
CONTINUOUS
 62
     7
 10
640.255300
 20
2090.156612
 11
640.515302
 21
2090.234244
  0
LINE
  8
CSLAYER1
  6
CONTINUOUS
 62
     7
 10
640.515302
 20
2090.234244
 11
640.786112
 21
2090.298584
  0
LINE
  8
CSLAYER1
  6
CONTINUOUS
 62
     7
 10
640.786112
 20
2090.298584
 11
641.065668
 21
2090.349141
  0
LINE
  8
CSLAYER1
  6
CONTINUOUS
 62
     7
 10
641.065668
 20
2090.349141
 11
641.351842
 21
2090.385531
  0
LINE
  8
CSLAYER1
  6
CONTINUOUS
 62
     7
 10
641.351842
 20
2090.385531
 11
641.642456
 21
2090.407476
  0
LINE
  8
CSLAYER1
  6
CONTINUOUS
 62
     7
 10
641.642456
 20
2090.407476
 11
641.935300
 21
2090.414810
  0
LINE
  8
CSLAYER1
  6
CONTINUOUS
 62
     7
 10
641.935300
 20
2090.414810
 11
642.228143
 21
2090.407476
  0
LINE
  8
CSLAYER1
  6
CONTINUOUS
 62
     7
 10
642.228143
 20
2090.407476
 11
642.518757
 21
2090.385531
  0
LINE
  8
CSLAYER1
  6
CONTINUOUS
 62
     7
 10
642.518757
 20
2090.385531
 11
642.804932
 21
2090.349141
  0
LINE
  8
CSLAYER1
  6
CONTINUOUS
 62
     7
 10
642.804932
 20
2090.349141
 11
643.084487
 21
2090.298584
  0
LINE
  8
CSLAYER1
  6
CONTINUOUS
 62
     7
 10
643.084487
 20
2090.298584
 11
643.355297
 21
2090.234244
  0
LINE
  8
CSLAYER1
  6
CONTINUOUS
 62
     7
 10
643.355297
 20
2090.234244
 11
643.615300
 21
2090.156612
  0
LINE
  8
CSLAYER1
  6
CONTINUOUS
 62
     7
 10
643.615300
 20
2090.156612
 11
643.862516
 21
2090.066276
  0
LINE
  8
CSLAYER1
  6
CONTINUOUS
 62
     7
 10
643.862516
 20
2090.066276
 11
644.095066
 21
2089.963927
  0
LINE
  8
CSLAYER1
  6
CONTINUOUS
 62
     7
 10
644.095066
 20
2089.963927
 11
644.311178
 21
2089.850341
  0
LINE
  8
CSLAYER1
  6
CONTINUOUS
 62
     7
 10
644.311178
 20
2089.850341
 11
644.509209
 21
2089.726384
  0
LINE
  8
CSLAYER1
  6
CONTINUOUS
 62
     7
 10
644.509209
 20
2089.726384
 11
644.687650
 21
2089.592999
  0
LINE
  8
CSLAYER1
  6
CONTINUOUS
 62
     7
 10
644.687650
 20
2089.592999
 11
644.845145
 21
2089.451201
  0
LINE
  8
CSLAYER1
  6
CONTINUOUS
 62
     7
 10
644.845145
 20
2089.451201
 11
644.980494
 21
2089.302070
  0
LINE
  8
CSLAYER1
  6
CONTINUOUS
 62
     7
 10
644.980494
 20
2089.302070
 11
645.092667
 21
2089.146740
  0
LINE
  8
CSLAYER1
  6
CONTINUOUS
 62
     7
 10
645.092667
 20
2089.146740
 11
645.180810
 21
2088.986393
  0
LINE
  8
CSLAYER1
  6
CONTINUOUS
 62
     7
 10
645.180810
 20
2088.986393
 11
645.244254
 21
2088.822250
  0
LINE
  8
CSLAYER1
  6
CONTINUOUS
 62
     7
 10
645.244254
 20
2088.822250
 11
645.282514
 21
2088.655561
  0
LINE
  8
CSLAYER1
  6
CONTINUOUS
 62
     7
 10
645.282514
 20
2088.655561
 11
645.295300
 21
2088.487593
  0
LINE
  8
CSLAYER1
  6
CONTINUOUS
 62
     7
 10
645.295300
 20
2088.487593
 11
645.282514
 21
2088.319625
  0
LINE
  8
CSLAYER1
  6
CONTINUOUS
 62
     7
 10
645.282514
 20
2088.319625
 11
645.244254
 21
2088.152935
  0
LINE
  8
CSLAYER1
  6
CONTINUOUS
 62
     7
 10
645.244254
 20
2088.152935
 11
645.180810
 21
2087.988792
  0
LINE
  8
CSLAYER1
  6
CONTINUOUS
 62
     7
 10
645.180810
 20
2087.988792
 11
645.092667
 21
2087.828446
  0
LINE
  8
CSLAYER1
  6
CONTINUOUS
 62
     7
 10
645.092667
 20
2087.828446
 11
644.980494
 21
2087.673116
  0
LINE
  8
CSLAYER1
  6
CONTINUOUS
 62
     7
 10
644.980494
 20
2087.673116
 11
644.845145
 21
2087.523984
  0
LINE
  8
CSLAYER1
  6
CONTINUOUS
 62
     7
 10
644.845145
 20
2087.523984
 11
644.687650
 21
2087.382187
  0
LINE
  8
CSLAYER1
  6
CONTINUOUS
 62
     7
 10
644.687650
 20
2087.382187
 11
644.509209
 21
2087.248802
  0
LINE
  8
CSLAYER1
  6
CONTINUOUS
 62
     7
 10
644.509209
 20
2087.248802
 11
644.311178
 21
2087.124845
  0
LINE
  8
CSLAYER1
  6
CONTINUOUS
 62
     7
 10
644.311178
 20
2087.124845
 11
644.095066
 21
2087.011259
  0
LINE
  8
CSLAYER1
  6
CONTINUOUS
 62
     7
 10
644.095066
 20
2087.011259
 11
643.862516
 21
2086.908909
  0
LINE
  8
CSLAYER1
  6
CONTINUOUS
 62
     7
 10
643.862516
 20
2086.908909
 11
643.615300
 21
2086.818574
  0
LINE
  8
CSLAYER1
  6
CONTINUOUS
 62
     7
 10
643.615300
 20
2086.818574
 11
643.355297
 21
2086.740941
  0
LINE
  8
CSLAYER1
  6
CONTINUOUS
 62
     7
 10
643.355297
 20
2086.740941
 11
643.084487
 21
2086.676601
  0
LINE
  8
CSLAYER1
  6
CONTINUOUS
 62
     7
 10
643.084487
 20
2086.676601
 11
642.804932
 21
2086.626044
  0
LINE
  8
CSLAYER1
  6
CONTINUOUS
 62
     7
 10
642.804932
 20
2086.626044
 11
642.518757
 21
2086.589655
  0
LINE
  8
CSLAYER1
  6
CONTINUOUS
 62
     7
 10
642.518757
 20
2086.589655
 11
642.228143
 21
2086.567710
  0
LINE
  8
CSLAYER1
  6
CONTINUOUS
 62
     7
 10
642.228143
 20
2086.567710
 11
641.935300
 21
2086.560376
  0
LINE
  8
CSLAYER1
  6
CONTINUOUS
 62
     7
 10
641.935300
 20
2086.560376
 11
641.642456
 21
2086.567710
  0
LINE
  8
CSLAYER1
  6
CONTINUOUS
 62
     7
 10
641.642456
 20
2086.567710
 11
641.351842
 21
2086.589655
  0
LINE
  8
CSLAYER1
  6
CONTINUOUS
 62
     7
 10
641.351842
 20
2086.589655
 11
641.065668
 21
2086.626044
  0
LINE
  8
CSLAYER1
  6
CONTINUOUS
 62
     7
 10
641.065668
 20
2086.626044
 11
640.786112
 21
2086.676601
  0
LINE
  8
CSLAYER1
  6
CONTINUOUS
 62
     7
 10
640.786112
 20
2086.676601
 11
640.515302
 21
2086.740941
  0
LINE
  8
CSLAYER1
  6
CONTINUOUS
 62
     7
 10
640.515302
 20
2086.740941
 11
640.255300
 21
2086.818574
  0
LINE
  8
CSLAYER1
  6
CONTINUOUS
 62
     7
 10
640.255300
 20
2086.818574
 11
640.008083
 21
2086.908909
  0
LINE
  8
CSLAYER1
  6
CONTINUOUS
 62
     7
 10
640.008083
 20
2086.908909
 11
639.775533
 21
2087.011259
  0
LINE
  8
CSLAYER1
  6
CONTINUOUS
 62
     7
 10
639.775533
 20
2087.011259
 11
639.559421
 21
2087.124845
  0
LINE
  8
CSLAYER1
  6
CONTINUOUS
 62
     7
 10
639.559421
 20
2087.124845
 11
639.361390
 21
2087.248802
  0
LINE
  8
CSLAYER1
  6
CONTINUOUS
 62
     7
 10
639.361390
 20
2087.248802
 11
639.182949
 21
2087.382187
  0
LINE
  8
CSLAYER1
  6
CONTINUOUS
 62
     7
 10
639.182949
 20
2087.382187
 11
639.025454
 21
2087.523984
  0
LINE
  8
CSLAYER1
  6
CONTINUOUS
 62
     7
 10
639.025454
 20
2087.523984
 11
638.890105
 21
2087.673116
  0
LINE
  8
CSLAYER1
  6
CONTINUOUS
 62
     7
 10
638.890105
 20
2087.673116
 11
638.777932
 21
2087.828446
  0
LINE
  8
CSLAYER1
  6
CONTINUOUS
 62
     7
 10
638.777932
 20
2087.828446
 11
638.689789
 21
2087.988792
  0
LINE
  8
CSLAYER1
  6
CONTINUOUS
 62
     7
 10
638.689789
 20
2087.988792
 11
638.626345
 21
2088.152935
  0
LINE
  8
CSLAYER1
  6
CONTINUOUS
 62
     7
 10
638.626345
 20
2088.152935
 11
638.588085
 21
2088.319625
  0
LINE
  8
CSLAYER1
  6
CONTINUOUS
 62
     7
 10
638.588085
 20
2088.319625
 11
638.575300
 21
2088.487593
  0
LINE
  8
CSLAYER1
  6
CONTINUOUS
 62
     7
 10
648.319300
 20
2088.487593
 11
648.319300
 21
2084.858853
  0
LINE
  8
CSLAYER1
  6
CONTINUOUS
 62
     7
 10
635.551300
 20
2088.487593
 11
635.551300
 21
2084.858853
  0
LINE
  8
CSLAYER1
  6
CONTINUOUS
 62
     7
 10
645.471185
 20
2085.442116
 11
645.471185
 21
2081.813376
  0
LINE
  8
CSLAYER1
  6
CONTINUOUS
 62
     7
 10
638.152098
 20
2085.541564
 11
638.152098
 21
2081.912825
  0
LINE
  8
CSLAYER1
  6
CONTINUOUS
 62
     7
 10
648.319300
 20
2084.858853
 11
648.295006
 21
2084.539714
  0
LINE
  8
CSLAYER1
  6
CONTINUOUS
 62
     7
 10
648.295006
 20
2084.539714
 11
648.222312
 21
2084.223004
  0
LINE
  8
CSLAYER1
  6
CONTINUOUS
 62
     7
 10
648.222312
 20
2084.223004
 11
648.101770
 21
2083.911132
  0
LINE
  8
CSLAYER1
  6
CONTINUOUS
 62
     7
 10
648.101770
 20
2083.911132
 11
647.934297
 21
2083.606474
  0
LINE
  8
CSLAYER1
  6
CONTINUOUS
 62
     7
 10
647.934297
 20
2083.606474
 11
647.721168
 21
2083.311347
  0
LINE
  8
CSLAYER1
  6
CONTINUOUS
 62
     7
 10
647.721168
 20
2083.311347
 11
647.464006
 21
2083.027997
  0
LINE
  8
CSLAYER1
  6
CONTINUOUS
 62
     7
 10
647.464006
 20
2083.027997
 11
647.164766
 21
2082.758582
  0
LINE
  8
CSLAYER1
  6
CONTINUOUS
 62
     7
 10
647.164766
 20
2082.758582
 11
646.825727
 21
2082.505150
  0
LINE
  8
CSLAYER1
  6
CONTINUOUS
 62
     7
 10
646.825727
 20
2082.505150
 11
646.449469
 21
2082.269632
  0
LINE
  8
CSLAYER1
  6
CONTINUOUS
 62
     7
 10
646.449469
 20
2082.269632
 11
646.038856
 21
2082.053819
  0
LINE
  8
CSLAYER1
  6
CONTINUOUS
 62
     7
 10
646.038856
 20
2082.053819
 11
645.597012
 21
2081.859354
  0
LINE
  8
CSLAYER1
  6
CONTINUOUS
 62
     7
 10
645.597012
 20
2081.859354
 11
645.127300
 21
2081.687718
  0
LINE
  8
CSLAYER1
  6
CONTINUOUS
 62
     7
 10
645.127300
 20
2081.687718
 11
644.633295
 21
2081.540215
  0
LINE
  8
CSLAYER1
  6
CONTINUOUS
 62
     7
 10
644.633295
 20
2081.540215
 11
644.118756
 21
2081.417970
  0
LINE
  8
CSLAYER1
  6
CONTINUOUS
 62
     7
 10
644.118756
 20
2081.417970
 11
643.587600
 21
2081.321911
  0
LINE
  8
CSLAYER1
  6
CONTINUOUS
 62
     7
 10
643.587600
 20
2081.321911
 11
643.043870
 21
2081.252771
  0
LINE
  8
CSLAYER1
  6
CONTINUOUS
 62
     7
 10
643.043870
 20
2081.252771
 11
642.491702
 21
2081.211075
  0
LINE
  8
CSLAYER1
  6
CONTINUOUS
 62
     7
 10
642.491702
 20
2081.211075
 11
641.935300
 21
2081.197141
  0
LINE
  8
CSLAYER1
  6
CONTINUOUS
 62
     7
 10
641.935300
 20
2081.197141
 11
641.378897
 21
2081.211075
  0
LINE
  8
CSLAYER1
  6
CONTINUOUS
 62
     7
 10
641.378897
 20
2081.211075
 11
640.826730
 21
2081.252771
  0
LINE
  8
CSLAYER1
  6
CONTINUOUS
 62
     7
 10
640.826730
 20
2081.252771
 11
640.282999
 21
2081.321911
  0
LINE
  8
CSLAYER1
  6
CONTINUOUS
 62
     7
 10
640.282999
 20
2081.321911
 11
639.751843
 21
2081.417970
  0
LINE
  8
CSLAYER1
  6
CONTINUOUS
 62
     7
 10
639.751843
 20
2081.417970
 11
639.237305
 21
2081.540215
  0
LINE
  8
CSLAYER1
  6
CONTINUOUS
 62
     7
 10
639.237305
 20
2081.540215
 11
638.743300
 21
2081.687718
  0
LINE
  8
CSLAYER1
  6
CONTINUOUS
 62
     7
 10
638.743300
 20
2081.687718
 11
638.273588
 21
2081.859354
  0
LINE
  8
CSLAYER1
  6
CONTINUOUS
 62
     7
 10
638.273588
 20
2081.859354
 11
637.831743
 21
2082.053819
  0
LINE
  8
CSLAYER1
  6
CONTINUOUS
 62
     7
 10
637.831743
 20
2082.053819
 11
637.421130
 21
2082.269632
  0
LINE
  8
CSLAYER1
  6
CONTINUOUS
 62
     7
 10
637.421130
 20
2082.269632
 11
637.044872
 21
2082.505150
  0
LINE
  8
CSLAYER1
  6
CONTINUOUS
 62
     7
 10
637.044872
 20
2082.505150
 11
636.705833
 21
2082.758582
  0
LINE
  8
CSLAYER1
  6
CONTINUOUS
 62
     7
 10
636.705833
 20
2082.758582
 11
636.406593
 21
2083.027997
  0
LINE
  8
CSLAYER1
  6
CONTINUOUS
 62
     7
 10
636.406593
 20
2083.027997
 11
636.149431
 21
2083.311347
  0
LINE
  8
CSLAYER1
  6
CONTINUOUS
 62
     7
 10
636.149431
 20
2083.311347
 11
635.936302
 21
2083.606474
  0
LINE
  8
CSLAYER1
  6
CONTINUOUS
 62
     7
 10
635.936302
 20
2083.606474
 11
635.768829
 21
2083.911132
  0
LINE
  8
CSLAYER1
  6
CONTINUOUS
 62
     7
 10
635.768829
 20
2083.911132
 11
635.648287
 21
2084.223004
  0
LINE
  8
CSLAYER1
  6
CONTINUOUS
 62
     7
 10
635.648287
 20
2084.223004
 11
635.575593
 21
2084.539714
  0
LINE
  8
CSLAYER1
  6
CONTINUOUS
 62
     7
 10
635.575593
 20
2084.539714
 11
635.551300
 21
2084.858853
  0
LINE
  8
CSLAYER1
  6
CONTINUOUS
 62
     7
 10
638.152098
 20
2071.696234
 11
638.152098
 21
2071.147185
  0
LINE
  8
CSLAYER1
  6
CONTINUOUS
 62
     7
 10
648.319300
 20
2074.093213
 11
648.295006
 21
2073.774074
  0
LINE
  8
CSLAYER1
  6
CONTINUOUS
 62
     7
 10
648.295006
 20
2073.774074
 11
648.222312
 21
2073.457364
  0
LINE
  8
CSLAYER1
  6
CONTINUOUS
 62
     7
 10
648.222312
 20
2073.457364
 11
648.101770
 21
2073.145493
  0
LINE
  8
CSLAYER1
  6
CONTINUOUS
 62
     7
 10
648.101770
 20
2073.145493
 11
647.934297
 21
2072.840834
  0
LINE
  8
CSLAYER1
  6
CONTINUOUS
 62
     7
 10
647.934297
 20
2072.840834
 11
647.721168
 21
2072.545707
  0
LINE
  8
CSLAYER1
  6
CONTINUOUS
 62
     7
 10
647.721168
 20
2072.545707
 11
647.464006
 21
2072.262357
  0
LINE
  8
CSLAYER1
  6
CONTINUOUS
 62
     7
 10
647.464006
 20
2072.262357
 11
647.164766
 21
2071.992942
  0
LINE
  8
CSLAYER1
  6
CONTINUOUS
 62
     7
 10
647.164766
 20
2071.992942
 11
646.825727
 21
2071.739510
  0
LINE
  8
CSLAYER1
  6
CONTINUOUS
 62
     7
 10
646.825727
 20
2071.739510
 11
646.449469
 21
2071.503992
  0
LINE
  8
CSLAYER1
  6
CONTINUOUS
 62
     7
 10
646.449469
 20
2071.503992
 11
646.038856
 21
2071.288179
  0
LINE
  8
CSLAYER1
  6
CONTINUOUS
 62
     7
 10
646.038856
 20
2071.288179
 11
645.597012
 21
2071.093715
  0
LINE
  8
CSLAYER1
  6
CONTINUOUS
 62
     7
 10
645.597012
 20
2071.093715
 11
645.127300
 21
2070.922078
  0
LINE
  8
CSLAYER1
  6
CONTINUOUS
 62
     7
 10
645.127300
 20
2070.922078
 11
644.633295
 21
2070.774575
  0
LINE
  8
CSLAYER1
  6
CONTINUOUS
 62
     7
 10
644.633295
 20
2070.774575
 11
644.118756
 21
2070.652330
  0
LINE
  8
CSLAYER1
  6
CONTINUOUS
 62
     7
 10
644.118756
 20
2070.652330
 11
643.587600
 21
2070.556271
  0
LINE
  8
CSLAYER1
  6
CONTINUOUS
 62
     7
 10
643.587600
 20
2070.556271
 11
643.043870
 21
2070.487131
  0
LINE
  8
CSLAYER1
  6
CONTINUOUS
 62
     7
 10
643.043870
 20
2070.487131
 11
642.491702
 21
2070.445435
  0
LINE
  8
CSLAYER1
  6
CONTINUOUS
 62
     7
 10
642.491702
 20
2070.445435
 11
641.935300
 21
2070.431501
  0
LINE
  8
CSLAYER1
  6
CONTINUOUS
 62
     7
 10
641.935300
 20
2070.431501
 11
641.378897
 21
2070.445435
  0
LINE
  8
CSLAYER1
  6
CONTINUOUS
 62
     7
 10
641.378897
 20
2070.445435
 11
640.826730
 21
2070.487131
  0
LINE
  8
CSLAYER1
  6
CONTINUOUS
 62
     7
 10
640.826730
 20
2070.487131
 11
640.282999
 21
2070.556271
  0
LINE
  8
CSLAYER1
  6
CONTINUOUS
 62
     7
 10
640.282999
 20
2070.556271
 11
639.751843
 21
2070.652330
  0
LINE
  8
CSLAYER1
  6
CONTINUOUS
 62
     7
 10
639.751843
 20
2070.652330
 11
639.237305
 21
2070.774575
  0
LINE
  8
CSLAYER1
  6
CONTINUOUS
 62
     7
 10
639.237305
 20
2070.774575
 11
638.743300
 21
2070.922078
  0
LINE
  8
CSLAYER1
  6
CONTINUOUS
 62
     7
 10
638.743300
 20
2070.922078
 11
638.273588
 21
2071.093715
  0
LINE
  8
CSLAYER1
  6
CONTINUOUS
 62
     7
 10
638.273588
 20
2071.093715
 11
637.831743
 21
2071.288179
  0
LINE
  8
CSLAYER1
  6
CONTINUOUS
 62
     7
 10
637.831743
 20
2071.288179
 11
637.651054
 21
2071.383147
  0
LINE
  8
CSLAYER1
  6
CONTINUOUS
 62
     7
 10
648.319300
 20
2079.140093
 11
648.319300
 21
2074.093213
  0
LINE
  8
CSLAYER1
  6
CONTINUOUS
 62
     7
 10
645.295300
 20
2066.508688
 11
645.295300
 21
2070.983466
  0
LINE
  8
CSLAYER1
  6
CONTINUOUS
 62
     7
 10
638.575300
 20
2066.508688
 11
638.575300
 21
2070.983466
  0
LINE
  8
CSLAYER1
  6
CONTINUOUS
 62
     7
 10
645.295300
 20
2066.508688
 11
645.282514
 21
2066.340720
  0
LINE
  8
CSLAYER1
  6
CONTINUOUS
 62
     7
 10
645.282514
 20
2066.340720
 11
645.244254
 21
2066.174030
  0
LINE
  8
CSLAYER1
  6
CONTINUOUS
 62
     7
 10
645.244254
 20
2066.174030
 11
645.180810
 21
2066.009887
  0
LINE
  8
CSLAYER1
  6
CONTINUOUS
 62
     7
 10
645.180810
 20
2066.009887
 11
645.092667
 21
2065.849541
  0
LINE
  8
CSLAYER1
  6
CONTINUOUS
 62
     7
 10
645.092667
 20
2065.849541
 11
644.980494
 21
2065.694211
  0
LINE
  8
CSLAYER1
  6
CONTINUOUS
 62
     7
 10
644.980494
 20
2065.694211
 11
644.845145
 21
2065.545079
  0
LINE
  8
CSLAYER1
  6
CONTINUOUS
 62
     7
 10
644.845145
 20
2065.545079
 11
644.687650
 21
2065.403282
  0
LINE
  8
CSLAYER1
  6
CONTINUOUS
 62
     7
 10
644.687650
 20
2065.403282
 11
644.509209
 21
2065.269897
  0
LINE
  8
CSLAYER1
  6
CONTINUOUS
 62
     7
 10
644.509209
 20
2065.269897
 11
644.311178
 21
2065.145940
  0
LINE
  8
CSLAYER1
  6
CONTINUOUS
 62
     7
 10
644.311178
 20
2065.145940
 11
644.095066
 21
2065.032354
  0
LINE
  8
CSLAYER1
  6
CONTINUOUS
 62
     7
 10
644.095066
 20
2065.032354
 11
643.862516
 21
2064.930004
  0
LINE
  8
CSLAYER1
  6
CONTINUOUS
 62
     7
 10
643.862516
 20
2064.930004
 11
643.615300
 21
2064.839669
  0
LINE
  8
CSLAYER1
  6
CONTINUOUS
 62
     7
 10
643.615300
 20
2064.839669
 11
643.355297
 21
2064.762036
  0
LINE
  8
CSLAYER1
  6
CONTINUOUS
 62
     7
 10
643.355297
 20
2064.762036
 11
643.084487
 21
2064.697696
  0
LINE
  8
CSLAYER1
  6
CONTINUOUS
 62
     7
 10
643.084487
 20
2064.697696
 11
642.804932
 21
2064.647139
  0
LINE
  8
CSLAYER1
  6
CONTINUOUS
 62
     7
 10
642.804932
 20
2064.647139
 11
642.518757
 21
2064.610750
  0
LINE
  8
CSLAYER1
  6
CONTINUOUS
 62
     7
 10
642.518757
 20
2064.610750
 11
642.228143
 21
2064.588805
  0
LINE
  8
CSLAYER1
  6
CONTINUOUS
 62
     7
 10
642.228143
 20
2064.588805
 11
641.935300
 21
2064.581471
  0
LINE
  8
CSLAYER1
  6
CONTINUOUS
 62
     7
 10
641.935300
 20
2064.581471
 11
641.642456
 21
2064.588805
  0
LINE
  8
CSLAYER1
  6
CONTINUOUS
 62
     7
 10
641.642456
 20
2064.588805
 11
641.351842
 21
2064.610750
  0
LINE
  8
CSLAYER1
  6
CONTINUOUS
 62
     7
 10
641.351842
 20
2064.610750
 11
641.065668
 21
2064.647139
  0
LINE
  8
CSLAYER1
  6
CONTINUOUS
 62
     7
 10
641.065668
 20
2064.647139
 11
640.786112
 21
2064.697696
  0
LINE
  8
CSLAYER1
  6
CONTINUOUS
 62
     7
 10
640.786112
 20
2064.697696
 11
640.515302
 21
2064.762036
  0
LINE
  8
CSLAYER1
  6
CONTINUOUS
 62
     7
 10
640.515302
 20
2064.762036
 11
640.255300
 21
2064.839669
  0
LINE
  8
CSLAYER1
  6
CONTINUOUS
 62
     7
 10
640.255300
 20
2064.839669
 11
640.008083
 21
2064.930004
  0
LINE
  8
CSLAYER1
  6
CONTINUOUS
 62
     7
 10
640.008083
 20
2064.930004
 11
639.775533
 21
2065.032354
  0
LINE
  8
CSLAYER1
  6
CONTINUOUS
 62
     7
 10
639.775533
 20
2065.032354
 11
639.559421
 21
2065.145940
  0
LINE
  8
CSLAYER1
  6
CONTINUOUS
 62
     7
 10
639.559421
 20
2065.145940
 11
639.361390
 21
2065.269897
  0
LINE
  8
CSLAYER1
  6
CONTINUOUS
 62
     7
 10
639.361390
 20
2065.269897
 11
639.182949
 21
2065.403282
  0
LINE
  8
CSLAYER1
  6
CONTINUOUS
 62
     7
 10
639.182949
 20
2065.403282
 11
639.025454
 21
2065.545079
  0
LINE
  8
CSLAYER1
  6
CONTINUOUS
 62
     7
 10
639.025454
 20
2065.545079
 11
638.890105
 21
2065.694211
  0
LINE
  8
CSLAYER1
  6
CONTINUOUS
 62
     7
 10
638.890105
 20
2065.694211
 11
638.777932
 21
2065.849541
  0
LINE
  8
CSLAYER1
  6
CONTINUOUS
 62
     7
 10
638.777932
 20
2065.849541
 11
638.689789
 21
2066.009887
  0
LINE
  8
CSLAYER1
  6
CONTINUOUS
 62
     7
 10
638.689789
 20
2066.009887
 11
638.626345
 21
2066.174030
  0
LINE
  8
CSLAYER1
  6
CONTINUOUS
 62
     7
 10
638.626345
 20
2066.174030
 11
638.588085
 21
2066.340720
  0
LINE
  8
CSLAYER1
  6
CONTINUOUS
 62
     7
 10
638.588085
 20
2066.340720
 11
638.575300
 21
2066.508688
  0
LINE
  8
CSLAYER1
  6
CONTINUOUS
 62
     7
 10
643.518196
 20
2079.761778
 11
629.014445
 21
2085.040712
  0
LINE
  8
CSLAYER1
  6
CONTINUOUS
 62
     7
 10
643.518196
 20
2079.761778
 11
643.518196
 21
2075.049345
  0
LINE
  8
CSLAYER1
  6
CONTINUOUS
 62
     7
 10
630.804049
 20
2084.389349
 11
635.551300
 21
2087.355761
  0
LINE
  8
CSLAYER1
  6
CONTINUOUS
 62
     7
 10
643.518196
 20
2078.561840
 11
650.751105
 21
2083.081463
  0
LINE
  8
CSLAYER1
  6
CONTINUOUS
 62
     7
 10
643.518196
 20
2076.140031
 11
650.087366
 21
2080.244904
  0
ARC
  8
CSLAYER1
  6
CONTINUOUS
 62
     7
 10
644.339985
 20
2079.551625
 40
7.403380
 50
30.339165
 51
57.486408
  0
ARC
  8
CSLAYER1
  6
CONTINUOUS
 62
     7
 10
645.999307
 20
2082.697422
 40
4.767292
 50
-30.960488
 51
7.154948
  0
ENDBLK
  8
0
  0
BLOCK
  8
CSLAYER1
  2
BLKF0017
 70
   64
 10
0.0
 20
0.0
 30
0.0
  0
ARC
  8
CSLAYER1
  6
CONTINUOUS
 62
     5
 10
2855.718287
 20
128.541072
 40
3.549225
 50
6.429109
 51
73.182034
  0
ARC
  8
CSLAYER1
  6
CONTINUOUS
 62
     5
 10
2852.257317
 20
127.382680
 40
6.907754
 50
310.517970
 51
330.092764
  0
ARC
  8
CSLAYER1
  6
CONTINUOUS
 62
     5
 10
2852.196667
 20
127.748197
 40
7.148321
 50
-32.205059
 51
9.585194
  0
ARC
  8
CSLAYER1
  6
CONTINUOUS
 62
     5
 10
2855.489395
 20
124.987199
 40
4.767514
 50
180.000000
 51
218.514150
  0
ARC
  8
CSLAYER1
  6
CONTINUOUS
 62
     5
 10
2854.202675
 20
124.310059
 40
3.348282
 50
222.781148
 51
319.406906
  0
ARC
  8
CSLAYER1
  6
CONTINUOUS
 62
     5
 10
2857.268316
 20
125.399951
 40
6.559434
 50
94.574282
 51
183.607718
  0
LINE
  8
CSLAYER1
  6
CONTINUOUS
 62
     5
 10
2870.712223
 20
120.283119
 11
2869.855187
 21
117.244536
  0
LINE
  8
CSLAYER1
  6
CONTINUOUS
 62
     5
 10
2872.504208
 20
140.150777
 11
2870.400573
 21
142.877710
  0
LINE
  8
CSLAYER1
  6
CONTINUOUS
 62
     5
 10
2870.400573
 20
142.877710
 11
2863.647219
 21
146.635622
  0
LINE
  8
CSLAYER1
  6
CONTINUOUS
 62
     5
 10
2863.647219
 20
146.635622
 11
2856.745192
 21
147.438493
  0
LINE
  8
CSLAYER1
  6
CONTINUOUS
 62
     5
 10
2838.455966
 20
134.059819
 11
2840.602661
 21
139.024050
  0
LINE
  8
CSLAYER1
  6
CONTINUOUS
 62
     5
 10
2840.565663
 20
138.938493
 11
2842.749355
 21
141.573249
  0
LINE
  8
CSLAYER1
  6
CONTINUOUS
 62
     5
 10
2842.749355
 20
141.573249
 11
2846.053777
 21
143.938493
  0
LINE
  8
CSLAYER1
  6
CONTINUOUS
 62
     5
 10
2856.745192
 20
147.438493
 11
2855.227016
 21
146.671648
  0
LINE
  8
CSLAYER1
  6
CONTINUOUS
 62
     5
 10
2855.227016
 20
146.671648
 11
2851.738638
 21
146.671648
  0
LINE
  8
CSLAYER1
  6
CONTINUOUS
 62
     5
 10
2851.738638
 20
146.671648
 11
2848.183175
 21
144.726207
  0
LINE
  8
CSLAYER1
  6
CONTINUOUS
 62
     5
 10
2848.183175
 20
144.726207
 11
2846.053777
 21
143.938493
  0
LINE
  8
CSLAYER1
  6
CONTINUOUS
 62
     5
 10
2838.455966
 20
134.059819
 11
2836.938419
 21
126.511216
  0
LINE
  8
CSLAYER1
  6
CONTINUOUS
 62
     5
 10
2836.938419
 20
126.511216
 11
2836.745192
 21
123.938493
  0
LINE
  8
CSLAYER1
  6
CONTINUOUS
 62
     5
 10
2839.454574
 20
116.098710
 11
2836.745192
 21
122.194821
  0
LINE
  8
CSLAYER1
  6
CONTINUOUS
 62
     5
 10
2836.745192
 20
122.194821
 11
2836.745192
 21
123.938493
  0
LINE
  8
CSLAYER1
  6
CONTINUOUS
 62
     5
 10
2869.855187
 20
117.244536
 11
2868.169399
 21
114.241530
  0
LINE
  8
CSLAYER1
  6
CONTINUOUS
 62
     5
 10
2868.169399
 20
114.241530
 11
2866.745192
 21
112.922819
  0
ARC
  8
CSLAYER1
  6
CONTINUOUS
 62
     5
 10
2854.553247
 20
124.475253
 40
17.266626
 50
208.054813
 51
260.640470
  0
ARC
  8
CSLAYER1
  6
CONTINUOUS
 62
     5
 10
2849.359852
 20
137.217722
 40
29.874611
 50
274.579659
 51
305.587364
  0
ARC
  8
CSLAYER1
  6
CONTINUOUS
 62
     5
 10
2860.332201
 20
131.234000
 40
15.088627
 50
313.467013
 51
331.085078
  0
LINE
  8
CSLAYER1
  6
CONTINUOUS
 62
     5
 10
2875.123533
 20
127.451914
 11
2875.420827
 21
131.234000
  0
LINE
  8
CSLAYER1
  6
CONTINUOUS
 62
     5
 10
2875.420827
 20
131.234000
 11
2874.128830
 21
137.342983
  0
LINE
  8
CSLAYER1
  6
CONTINUOUS
 62
     5
 10
2875.123533
 20
127.451914
 11
2873.539858
 21
123.938493
  0
ARC
  8
CSLAYER1
  6
CONTINUOUS
 62
     5
 10
2860.332201
 20
131.234000
 40
15.088627
 50
23.883193
 51
36.225170
  0
LINE
  8
CSLAYER1
  6
CONTINUOUS
 62
     5
 10
2820.745192
 20
158.938493
 11
2821.745192
 21
160.031137
  0
LINE
  8
CSLAYER1
  6
CONTINUOUS
 62
     5
 10
2820.745192
 20
158.938493
 11
2822.322149
 21
157.493459
  0
LINE
  8
CSLAYER1
  6
CONTINUOUS
 62
     5
 10
2823.861362
 20
155.384168
 11
2823.887630
 21
153.216049
  0
LINE
  8
CSLAYER1
  6
CONTINUOUS
 62
     5
 10
2823.887630
 20
153.216049
 11
2824.095028
 21
152.455590
  0
LINE
  8
CSLAYER1
  6
CONTINUOUS
 62
     5
 10
2824.095028
 20
152.455590
 11
2824.682656
 21
151.729697
  0
LINE
  8
CSLAYER1
  6
CONTINUOUS
 62
     5
 10
2824.682656
 20
151.729697
 11
2825.270284
 21
151.798829
  0
LINE
  8
CSLAYER1
  6
CONTINUOUS
 62
     5
 10
2825.270284
 20
151.798829
 11
2825.892478
 21
151.971661
  0
LINE
  8
CSLAYER1
  6
CONTINUOUS
 62
     5
 10
2825.892478
 20
151.971661
 11
2826.307274
 21
151.798829
  0
LINE
  8
CSLAYER1
  6
CONTINUOUS
 62
     5
 10
2826.307274
 20
151.798829
 11
2827.205998
 21
151.349467
  0
LINE
  8
CSLAYER1
  6
CONTINUOUS
 62
     5
 10
2827.205998
 20
151.349467
 11
2827.982050
 21
150.938493
  0
LINE
  8
CSLAYER1
  6
CONTINUOUS
 62
     5
 10
2827.982050
 20
150.938493
 11
2828.484953
 21
150.969237
  0
LINE
  8
CSLAYER1
  6
CONTINUOUS
 62
     5
 10
2828.484953
 20
150.969237
 11
2831.292824
 21
152.415717
  0
LINE
  8
CSLAYER1
  6
CONTINUOUS
 62
     5
 10
2821.745192
 20
160.031137
 11
2822.078043
 21
161.504844
  0
LINE
  8
CSLAYER1
  6
CONTINUOUS
 62
     5
 10
2822.078043
 20
161.504844
 11
2823.531449
 21
161.655197
  0
LINE
  8
CSLAYER1
  6
CONTINUOUS
 62
     5
 10
2825.025207
 20
164.423655
 11
2826.779380
 21
164.580745
  0
LINE
  8
CSLAYER1
  6
CONTINUOUS
 62
     5
 10
2826.779380
 20
164.580745
 11
2830.313908
 21
165.418559
  0
LINE
  8
CSLAYER1
  6
CONTINUOUS
 62
     5
 10
2830.313908
 20
165.418559
 11
2831.745192
 21
165.750198
  0
LINE
  8
CSLAYER1
  6
CONTINUOUS
 62
     5
 10
2825.025207
 20
164.423655
 11
2823.092316
 21
164.582523
  0
LINE
  8
CSLAYER1
  6
CONTINUOUS
 62
     5
 10
2822.356193
 20
163.713836
 11
2822.449718
 21
163.342674
  0
LINE
  8
CSLAYER1
  6
CONTINUOUS
 62
     5
 10
2822.449718
 20
163.342674
 11
2822.941312
 21
162.804993
  0
LINE
  8
CSLAYER1
  6
CONTINUOUS
 62
     5
 10
2822.941312
 20
162.804993
 11
2823.617254
 21
162.298037
  0
LINE
  8
CSLAYER1
  6
CONTINUOUS
 62
     5
 10
2823.617254
 20
162.298037
 11
2823.740579
 21
162.133604
  0
LINE
  8
CSLAYER1
  6
CONTINUOUS
 62
     5
 10
2822.322149
 20
157.493459
 11
2823.861362
 21
155.384168
  0
ARC
  8
CSLAYER1
  6
CONTINUOUS
 62
     5
 10
2866.731892
 20
-12.720160
 40
180.727463
 50
80.438896
 51
96.353582
  0
ARC
  8
CSLAYER1
  6
CONTINUOUS
 62
     5
 10
2841.832979
 20
132.527740
 40
34.720242
 50
81.866516
 51
106.890578
  0
LINE
  8
CSLAYER1
  6
CONTINUOUS
 62
     5
 10
2900.939453
 20
164.705163
 11
2903.186536
 21
163.683762
  0
LINE
  8
CSLAYER1
  6
CONTINUOUS
 62
     5
 10
2906.761440
 20
162.100590
 11
2903.186536
 21
163.683762
  0
LINE
  8
CSLAYER1
  6
CONTINUOUS
 62
     5
 10
2900.939453
 20
164.705163
 11
2896.745192
 21
165.497734
  0
LINE
  8
CSLAYER1
  6
CONTINUOUS
 62
     5
 10
2906.745192
 20
162.107785
 11
2908.616767
 21
160.539309
  0
LINE
  8
CSLAYER1
  6
CONTINUOUS
 62
     5
 10
2889.988448
 20
163.144636
 11
2890.887722
 21
164.597311
  0
LINE
  8
CSLAYER1
  6
CONTINUOUS
 62
     5
 10
2890.887722
 20
164.597311
 11
2895.563321
 21
163.477801
  0
LINE
  8
CSLAYER1
  6
CONTINUOUS
 62
     5
 10
2895.563321
 20
163.477801
 11
2912.305707
 21
158.938493
  0
LINE
  8
CSLAYER1
  6
CONTINUOUS
 62
     5
 10
2915.245192
 20
158.938493
 11
2908.616767
 21
160.539309
  0
LINE
  8
CSLAYER1
  6
CONTINUOUS
 62
     5
 10
2912.305707
 20
158.938493
 11
2915.245192
 21
158.938493
  0
LINE
  8
CSLAYER1
  6
CONTINUOUS
 62
     5
 10
2856.745192
 20
163.403434
 11
2876.745192
 21
163.938493
  0
LINE
  8
CSLAYER1
  6
CONTINUOUS
 62
     5
 10
2876.745192
 20
163.938493
 11
2889.988448
 21
163.144636
  0
LINE
  8
CSLAYER1
  6
CONTINUOUS
 62
     5
 10
2891.591429
 20
161.084157
 11
2876.745192
 21
162.438493
  0
LINE
  8
CSLAYER1
  6
CONTINUOUS
 62
     5
 10
2876.745192
 20
162.438493
 11
2861.695982
 21
162.847145
  0
LINE
  8
CSLAYER1
  6
CONTINUOUS
 62
     5
 10
2861.745192
 20
162.845808
 11
2856.745192
 21
162.941102
  0
LINE
  8
CSLAYER1
  6
CONTINUOUS
 62
     5
 10
2856.745192
 20
163.403434
 11
2856.745192
 21
162.941102
  0
LINE
  8
CSLAYER1
  6
CONTINUOUS
 62
     5
 10
2914.245192
 20
155.438493
 11
2905.402633
 21
157.749155
  0
LINE
  8
CSLAYER1
  6
CONTINUOUS
 62
     5
 10
2891.591429
 20
161.084157
 11
2901.745192
 21
159.111773
  0
LINE
  8
CSLAYER1
  6
CONTINUOUS
 62
     5
 10
2901.745192
 20
159.111773
 11
2905.402633
 21
157.749155
  0
LINE
  8
CSLAYER1
  6
CONTINUOUS
 62
     5
 10
2914.245192
 20
155.438493
 11
2913.952574
 21
154.599387
  0
LINE
  8
CSLAYER1
  6
CONTINUOUS
 62
     5
 10
2923.745192
 20
149.938493
 11
2923.439164
 21
151.167474
  0
LINE
  8
CSLAYER1
  6
CONTINUOUS
 62
     5
 10
2913.952574
 20
154.599387
 11
2923.439164
 21
151.167474
  0
LINE
  8
CSLAYER1
  6
CONTINUOUS
 62
     5
 10
2860.245192
 20
155.438493
 11
2862.668230
 21
155.438493
  0
LINE
  8
CSLAYER1
  6
CONTINUOUS
 62
     5
 10
2882.745192
 20
155.870988
 11
2882.745192
 21
155.438493
  0
LINE
  8
CSLAYER1
  6
CONTINUOUS
 62
     5
 10
2881.745192
 20
156.405429
 11
2880.033912
 21
157.042608
  0
LINE
  8
CSLAYER1
  6
CONTINUOUS
 62
     5
 10
2880.033912
 20
157.042608
 11
2878.923856
 21
157.093065
  0
LINE
  8
CSLAYER1
  6
CONTINUOUS
 62
     5
 10
2878.923856
 20
157.093065
 11
2878.444514
 21
156.840779
  0
LINE
  8
CSLAYER1
  6
CONTINUOUS
 62
     5
 10
2878.444514
 20
156.840779
 11
2878.343600
 21
156.437122
  0
LINE
  8
CSLAYER1
  6
CONTINUOUS
 62
     5
 10
2878.343600
 20
156.437122
 11
2878.797714
 21
156.134380
  0
LINE
  8
CSLAYER1
  6
CONTINUOUS
 62
     5
 10
2878.797714
 20
156.134380
 11
2880.437569
 21
155.983009
  0
LINE
  8
CSLAYER1
  6
CONTINUOUS
 62
     5
 10
2880.437569
 20
155.983009
 11
2882.745192
 21
155.870988
  0
LINE
  8
CSLAYER1
  6
CONTINUOUS
 62
     5
 10
2923.745192
 20
149.938493
 11
2920.769649
 21
151.125074
  0
LINE
  8
CSLAYER1
  6
CONTINUOUS
 62
     5
 10
2920.769649
 20
151.125074
 11
2910.713959
 21
152.967950
  0
LINE
  8
CSLAYER1
  6
CONTINUOUS
 62
     5
 10
2910.713959
 20
152.967950
 11
2905.688179
 21
154.127745
  0
LINE
  8
CSLAYER1
  6
CONTINUOUS
 62
     5
 10
2883.279413
 20
156.438493
 11
2895.045079
 21
156.438493
  0
LINE
  8
CSLAYER1
  6
CONTINUOUS
 62
     5
 10
2881.745192
 20
156.405429
 11
2882.269851
 21
156.096962
  0
LINE
  8
CSLAYER1
  6
CONTINUOUS
 62
     5
 10
2882.269851
 20
156.096962
 11
2882.566663
 21
156.007918
  0
LINE
  8
CSLAYER1
  6
CONTINUOUS
 62
     5
 10
2882.566663
 20
156.007918
 11
2882.745192
 21
156.033089
  0
LINE
  8
CSLAYER1
  6
CONTINUOUS
 62
     5
 10
2882.745192
 20
156.033089
 11
2883.279413
 21
156.438493
  0
LINE
  8
CSLAYER1
  6
CONTINUOUS
 62
     5
 10
2895.045079
 20
156.438493
 11
2899.495347
 21
155.409667
  0
LINE
  8
CSLAYER1
  6
CONTINUOUS
 62
     5
 10
2899.495347
 20
155.409667
 11
2903.648539
 21
154.244518
  0
LINE
  8
CSLAYER1
  6
CONTINUOUS
 62
     5
 10
2903.648539
 20
154.244518
 11
2905.688179
 21
154.127745
  0
LINE
  8
CSLAYER1
  6
CONTINUOUS
 62
     5
 10
2859.245192
 20
154.438493
 11
2859.245192
 21
153.938493
  0
LINE
  8
CSLAYER1
  6
CONTINUOUS
 62
     5
 10
2856.745192
 20
153.938493
 11
2859.245192
 21
153.938493
  0
ARC
  8
CSLAYER1
  6
CONTINUOUS
 62
     5
 10
2860.245192
 20
154.438493
 40
1.000000
 50
90.000000
 51
180.000000
  0
LINE
  8
CSLAYER1
  6
CONTINUOUS
 62
     5
 10
2862.668230
 20
155.438493
 11
2863.365786
 21
154.866496
  0
LINE
  8
CSLAYER1
  6
CONTINUOUS
 62
     5
 10
2863.968155
 20
154.842536
 11
2864.825751
 21
155.438493
  0
LINE
  8
CSLAYER1
  6
CONTINUOUS
 62
     5
 10
2866.404147
 20
155.438493
 11
2868.071273
 21
154.780417
  0
LINE
  8
CSLAYER1
  6
CONTINUOUS
 62
     5
 10
2868.494982
 20
154.806929
 11
2869.648469
 21
155.438493
  0
LINE
  8
CSLAYER1
  6
CONTINUOUS
 62
     5
 10
2864.825751
 20
155.438493
 11
2866.404147
 21
155.438493
  0
LINE
  8
CSLAYER1
  6
CONTINUOUS
 62
     5
 10
2869.648469
 20
155.438493
 11
2882.745192
 21
155.438493
  0
LINE
  8
CSLAYER1
  6
CONTINUOUS
 62
     5
 10
2835.294175
 20
152.329666
 11
2856.745192
 21
153.938493
  0
LINE
  8
CSLAYER1
  6
CONTINUOUS
 62
     5
 10
2831.292824
 20
152.415717
 11
2835.294175
 21
152.329666
  0
ARC
  8
CSLAYER1
  6
CONTINUOUS
 62
     5
 10
2863.682826
 20
155.253130
 40
0.500000
 50
230.648247
 51
304.796026
  0
ARC
  8
CSLAYER1
  6
CONTINUOUS
 62
     5
 10
2868.254856
 20
155.245494
 40
0.500000
 50
248.459024
 51
298.701829
  0
ARC
  8
CSLAYER1
  6
CONTINUOUS
 62
     5
 10
2823.500579
 20
161.953604
 40
0.300000
 50
-84.093859
 51
36.869898
  0
ARC
  8
CSLAYER1
  6
CONTINUOUS
 62
     5
 10
2823.034975
 20
163.884875
 40
0.700000
 50
85.301319
 51
194.142980
  0
LINE
  8
CSLAYER1
  6
CONTINUOUS
 62
     3
 10
2855.227016
 20
146.671648
 11
2863.337512
 21
146.671648
  0
LINE
  8
CSLAYER1
  6
CONTINUOUS
 62
     3
 10
2848.814500
 20
145.071648
 11
2866.457840
 21
145.071648
  0
LINE
  8
CSLAYER1
  6
CONTINUOUS
 62
     3
 10
2845.401561
 20
143.471648
 11
2869.333205
 21
143.471648
  0
LINE
  8
CSLAYER1
  6
CONTINUOUS
 62
     3
 10
2843.166241
 20
141.871648
 11
2871.176678
 21
141.871648
  0
LINE
  8
CSLAYER1
  6
CONTINUOUS
 62
     3
 10
2841.670585
 20
140.271648
 11
2872.410964
 21
140.271648
  0
LINE
  8
CSLAYER1
  6
CONTINUOUS
 62
     3
 10
2840.450271
 20
138.671648
 11
2873.460340
 21
138.671648
  0
LINE
  8
CSLAYER1
  6
CONTINUOUS
 62
     3
 10
2839.758379
 20
137.071648
 11
2874.186215
 21
137.071648
  0
LINE
  8
CSLAYER1
  6
CONTINUOUS
 62
     3
 10
2839.066487
 20
135.471648
 11
2874.524601
 21
135.471648
  0
LINE
  8
CSLAYER1
  6
CONTINUOUS
 62
     3
 10
2838.418137
 20
133.871648
 11
2874.862987
 21
133.871648
  0
LINE
  8
CSLAYER1
  6
CONTINUOUS
 62
     3
 10
2838.096478
 20
132.271648
 11
2875.201374
 21
132.271648
  0
LINE
  8
CSLAYER1
  6
CONTINUOUS
 62
     3
 10
2837.774819
 20
130.671648
 11
2853.365062
 21
130.671648
  0
LINE
  8
CSLAYER1
  6
CONTINUOUS
 62
     3
 10
2837.453160
 20
129.071648
 11
2851.832801
 21
129.071648
  0
LINE
  8
CSLAYER1
  6
CONTINUOUS
 62
     3
 10
2837.131501
 20
127.471648
 11
2851.044632
 21
127.471648
  0
LINE
  8
CSLAYER1
  6
CONTINUOUS
 62
     3
 10
2836.890384
 20
125.871648
 11
2850.725864
 21
125.871648
  0
LINE
  8
CSLAYER1
  6
CONTINUOUS
 62
     3
 10
2836.770214
 20
124.271648
 11
2850.775885
 21
124.271648
  0
LINE
  8
CSLAYER1
  6
CONTINUOUS
 62
     3
 10
2836.745192
 20
122.671648
 11
2851.321972
 21
122.671648
  0
LINE
  8
CSLAYER1
  6
CONTINUOUS
 62
     3
 10
2837.244380
 20
121.071648
 11
2853.351974
 21
121.071648
  0
LINE
  8
CSLAYER1
  6
CONTINUOUS
 62
     3
 10
2837.955491
 20
119.471648
 11
2870.483346
 21
119.471648
  0
LINE
  8
CSLAYER1
  6
CONTINUOUS
 62
     3
 10
2838.666602
 20
117.871648
 11
2870.032064
 21
117.871648
  0
LINE
  8
CSLAYER1
  6
CONTINUOUS
 62
     3
 10
2839.377713
 20
116.271648
 11
2869.309040
 21
116.271648
  0
LINE
  8
CSLAYER1
  6
CONTINUOUS
 62
     3
 10
2840.339672
 20
114.671648
 11
2868.410853
 21
114.671648
  0
LINE
  8
CSLAYER1
  6
CONTINUOUS
 62
     3
 10
2841.588133
 20
113.071648
 11
2866.905927
 21
113.071648
  0
LINE
  8
CSLAYER1
  6
CONTINUOUS
 62
     3
 10
2843.193553
 20
111.471648
 11
2864.513467
 21
111.471648
  0
LINE
  8
CSLAYER1
  6
CONTINUOUS
 62
     3
 10
2845.340695
 20
109.871648
 11
2861.388343
 21
109.871648
  0
LINE
  8
CSLAYER1
  6
CONTINUOUS
 62
     3
 10
2848.588385
 20
108.271648
 11
2856.750194
 21
108.271648
  0
LINE
  8
CSLAYER1
  6
CONTINUOUS
 62
     3
 10
2858.556886
 20
130.671648
 11
2875.376623
 21
130.671648
  0
LINE
  8
CSLAYER1
  6
CONTINUOUS
 62
     3
 10
2859.227630
 20
129.071648
 11
2875.250854
 21
129.071648
  0
LINE
  8
CSLAYER1
  6
CONTINUOUS
 62
     3
 10
2859.339637
 20
127.471648
 11
2875.125084
 21
127.471648
  0
LINE
  8
CSLAYER1
  6
CONTINUOUS
 62
     3
 10
2859.094280
 20
125.871648
 11
2874.411228
 21
125.871648
  0
LINE
  8
CSLAYER1
  6
CONTINUOUS
 62
     3
 10
2858.442634
 20
124.271648
 11
2873.690028
 21
124.271648
  0
LINE
  8
CSLAYER1
  6
CONTINUOUS
 62
     3
 10
2857.309371
 20
122.671648
 11
2872.756080
 21
122.671648
  0
LINE
  8
CSLAYER1
  6
CONTINUOUS
 62
     3
 10
2855.053375
 20
121.071648
 11
2871.485373
 21
121.071648
  0
TEXT
  8
CSLAYER1
 62
     5
 10
2875.917021
 20
128.682811
 40
4.713448
 41
1.951056
  1
M
 50
0.000000
 51
0.000000
  7
EASYDRAW_FONT
 72
     5
 11
2882.047823
 21
128.682811
  0
TEXT
  8
CSLAYER1
 62
     5
 10
2885.568408
 20
128.624541
 40
4.626621
 41
0.778201
  1
T
 50
0.000000
 51
0.000000
  7
EASYDRAW_FONT
 72
     5
 11
2887.968701
 21
128.624541
  0
TEXT
  8
CSLAYER1
 62
     5
 10
2888.333971
 20
128.659340
 40
4.696183
 41
1.055553
  1
E
 50
0.000000
 51
0.000000
  7
EASYDRAW_FONT
 72
     5
 11
2891.638685
 21
128.659340
  0
TEXT
  8
CSLAYER1
 62
     5
 10
2891.450152
 20
130.275184
 40
0.348283
 41
9.375319
  1
-
 50
0.000000
 51
0.000000
  7
EASYDRAW_FONT
 72
     5
 11
2893.626997
 21
130.275184
  0
TEXT
  8
CSLAYER1
 62
     5
 10
2893.264361
 20
128.627993
 40
4.861659
 41
1.298502
  1
H
 50
0.000000
 51
0.000000
  7
EASYDRAW_FONT
 72
     5
 11
2897.472944
 21
128.627993
  0
TEXT
  8
CSLAYER1
 62
     5
 10
2897.340376
 20
128.658371
 40
4.843139
 41
1.269236
  1
A
 50
0.000000
 51
0.000000
  7
EASYDRAW_FONT
 72
     5
 11
2901.438432
 21
128.658371
  0
TEXT
  8
CSLAYER1
 62
     5
 10
2901.046532
 20
128.616845
 40
4.825362
 41
1.490144
  1
N
 50
0.000000
 51
0.000000
  7
EASYDRAW_FONT
 72
     5
 11
2905.840187
 21
128.616845
  0
TEXT
  8
CSLAYER1
 62
     5
 10
2881.837990
 20
128.594272
 40
4.982325
 41
1.177443
  1
A
 50
0.000000
 51
0.000000
  7
EASYDRAW_FONT
 72
     5
 11
2885.748924
 21
128.594272
  0
TEXT
  8
CSLAYER1
 62
     5
 10
2876.284035
 20
121.599040
 40
4.982325
 41
1.177443
  1
A
 50
0.000000
 51
0.000000
  7
EASYDRAW_FONT
 72
     5
 11
2880.194969
 21
121.599040
  0
TEXT
  8
CSLAYER1
 62
     5
 10
2889.068459
 20
121.627360
 40
4.982325
 41
1.177443
  1
A
 50
0.000000
 51
0.000000
  7
EASYDRAW_FONT
 72
     5
 11
2892.979393
 21
121.627360
  0
TEXT
  8
CSLAYER1
 62
     5
 10
2892.829003
 20
121.684357
 40
4.825362
 41
1.490144
  1
N
 50
0.000000
 51
0.000000
  7
EASYDRAW_FONT
 72
     5
 11
2897.622657
 21
121.684357
  0
TEXT
  8
CSLAYER1
 62
     5
 10
2901.731339
 20
121.692752
 40
4.841775
 41
1.184218
  1
E
 50
0.000000
 51
0.000000
  7
EASYDRAW_FONT
 72
     5
 11
2905.553817
 21
121.692752
  0
TEXT
  8
CSLAYER1
 62
     5
 10
2880.564588
 20
121.597715
 40
4.947865
 41
1.093992
  1
D
 50
0.000000
 51
0.000000
  7
EASYDRAW_FONT
 72
     5
 11
2884.173205
 21
121.597715
  0
TEXT
  8
CSLAYER1
 62
     5
 10
2884.966947
 20
121.592331
 40
4.924210
 41
1.228195
  1
V
 50
0.000000
 51
0.000000
  7
EASYDRAW_FONT
 72
     5
 11
2888.998874
 21
121.592331
  0
TEXT
  8
CSLAYER1
 62
     5
 10
2897.192148
 20
121.613062
 40
5.032894
 41
1.481023
  1
C
 50
0.000000
 51
0.000000
  7
EASYDRAW_FONT
 72
     5
 11
2902.161368
 21
121.613062
  0
LINE
  8
CSLAYER1
  6
CONTINUOUS
 62
     5
 10
2887.822528
 20
132.673465
 11
2886.810467
 21
132.673465
  0
LINE
  8
CSLAYER1
  6
CONTINUOUS
 62
     3
 10
2836.920767
 20
166.898736
 11
2886.718593
 21
166.898736
  0
LINE
  8
CSLAYER1
  6
CONTINUOUS
 62
     3
 10
2829.808403
 20
165.298736
 11
2897.798284
 21
165.298736
  0
LINE
  8
CSLAYER1
  6
CONTINUOUS
 62
     3
 10
2822.359998
 20
163.698736
 11
2867.783308
 21
163.698736
  0
LINE
  8
CSLAYER1
  6
CONTINUOUS
 62
     3
 10
2880.744858
 20
163.698736
 11
2890.331462
 21
163.698736
  0
LINE
  8
CSLAYER1
  6
CONTINUOUS
 62
     3
 10
2894.640595
 20
163.698736
 11
2903.153592
 21
163.698736
  0
LINE
  8
CSLAYER1
  6
CONTINUOUS
 62
     3
 10
2823.763137
 20
162.098736
 11
2880.469606
 21
162.098736
  0
LINE
  8
CSLAYER1
  6
CONTINUOUS
 62
     3
 10
2900.649745
 20
162.098736
 11
2906.755990
 21
162.098736
  0
LINE
  8
CSLAYER1
  6
CONTINUOUS
 62
     3
 10
2821.850804
 20
160.498736
 11
2894.605154
 21
160.498736
  0
LINE
  8
CSLAYER1
  6
CONTINUOUS
 62
     3
 10
2906.551043
 20
160.498736
 11
2908.784765
 21
160.498736
  0
LINE
  8
CSLAYER1
  6
CONTINUOUS
 62
     3
 10
2820.788578
 20
158.898736
 11
2902.317011
 21
158.898736
  0
LINE
  8
CSLAYER1
  6
CONTINUOUS
 62
     3
 10
2822.464245
 20
157.298736
 11
2907.126319
 21
157.298736
  0
LINE
  8
CSLAYER1
  6
CONTINUOUS
 62
     3
 10
2823.631813
 20
155.698736
 11
2882.745192
 21
155.698736
  0
LINE
  8
CSLAYER1
  6
CONTINUOUS
 62
     3
 10
2898.244957
 20
155.698736
 11
2913.249280
 21
155.698736
  0
LINE
  8
CSLAYER1
  6
CONTINUOUS
 62
     3
 10
2823.876936
 20
154.098736
 11
2859.245192
 21
154.098736
  0
LINE
  8
CSLAYER1
  6
CONTINUOUS
 62
     3
 10
2905.813885
 20
154.098736
 11
2915.336488
 21
154.098736
  0
LINE
  8
CSLAYER1
  6
CONTINUOUS
 62
     3
 10
2824.083261
 20
152.498736
 11
2837.548435
 21
152.498736
  0
LINE
  8
CSLAYER1
  6
CONTINUOUS
 62
     3
 10
2913.274234
 20
152.498736
 11
2919.759253
 21
152.498736
  0
LINE
  8
CSLAYER1
  6
CONTINUOUS
 62
     3
 10
2921.337228
 20
150.898736
 11
2923.506082
 21
150.898736
  0
ENDBLK
  8
0
  0
ENDSEC
  0
SECTION
  2
ENTITIES
  0
LINE
  8
CSLAYER1
  6
CONTINUOUS
 62
     3
 10
191.860586
 20
2449.659972
 11
191.860586
 21
101.113042
  0
LINE
  8
CSLAYER1
  6
CONTINUOUS
 62
     3
 10
3514.433897
 20
2449.659972
 11
191.860586
 21
2449.659972
  0
LINE
  8
CSLAYER1
  6
CONTINUOUS
 62
     3
 10
3514.433897
 20
2449.659972
 11
3514.433897
 21
101.113042
  0
LINE
  8
CSLAYER1
  6
CONTINUOUS
 62
     3
 10
3514.433897
 20
101.113042
 11
191.860586
 21
101.113042
  0
LINE
  8
CSLAYER1
  6
CONTINUOUS
 62
     5
 10
141.860586
 20
1261.113042
 11
91.860586
 21
1261.113042
  0
LINE
  8
CSLAYER1
  6
CONTINUOUS
 62
     5
 10
425.999835
 20
814.014813
 11
655.927344
 21
814.014813
  0
POINT
  8
CSLAYER1
 62
     5
 10
1416.336170
 20
831.514813
  0
LINE
  8
CSLAYER1
  6
CONTINUOUS
 62
     3
 10
1391.336170
 20
854.014813
 11
1391.336170
 21
814.014813
  0
LINE
  8
CSLAYER1
  6
CONTINUOUS
 62
     3
 10
1391.336170
 20
854.014813
 11
1404.879731
 21
854.014813
  0
LINE
  8
CSLAYER1
  6
CONTINUOUS
 62
     3
 10
1427.792610
 20
854.014813
 11
2194.336170
 21
854.014813
  0
LINE
  8
CSLAYER1
  6
CONTINUOUS
 62
     3
 10
1391.336170
 20
820.014813
 11
1435.336170
 21
820.014813
  0
ARC
  8
CSLAYER1
  6
CONTINUOUS
 62
     3
 10
1416.336170
 20
859.014813
 40
12.500000
 50
203.578178
 51
336.421822
  0
LINE
  8
CSLAYER1
  6
CONTINUOUS
 62
     3
 10
1435.336170
 20
854.014813
 11
1435.336170
 21
820.014813
  0
LINE
  8
CSLAYER1
  6
CENTER
 62
     5
 10
1405.441341
 20
831.514813
 11
1426.556575
 21
831.514813
  0
LINE
  8
CSLAYER1
  6
CENTER
 62
     5
 10
1416.336170
 20
842.484468
 11
1416.336170
 21
820.545158
  0
INSERT
  8
CSLAYER1
  2
BLKF0000
 10
0.0
 20
0.0
 30
0.0
  0
LINE
  8
CSLAYER1
  6
CONTINUOUS
 62
     3
 10
1472.053881
 20
917.763685
 11
1490.983590
 21
905.716918
  0
LINE
  8
CSLAYER1
  6
CONTINUOUS
 62
     3
 10
1553.581606
 20
1070.941306
 11
1577.852608
 21
1055.495369
  0
LINE
  8
CSLAYER1
  6
CONTINUOUS
 62
     3
 10
1521.099655
 20
1026.419706
 11
1539.019711
 21
1015.015477
  0
LINE
  8
CSLAYER1
  6
CONTINUOUS
 62
     3
 10
1520.792899
 20
1027.800250
 11
1539.047300
 21
1056.484337
  0
LINE
  8
CSLAYER1
  6
CONTINUOUS
 62
     3
 10
1539.047300
 20
1056.484337
 11
1553.581606
 21
1070.941306
  0
LINE
  8
CSLAYER1
  6
CONTINUOUS
 62
     3
 10
1520.792899
 20
1027.800250
 11
1521.099655
 21
1026.419706
  0
LINE
  8
CSLAYER1
  6
CONTINUOUS
 62
     3
 10
1471.969890
 20
945.121916
 11
1522.955684
 21
1025.238539
  0
POINT
  8
CSLAYER1
 62
     3
 10
1471.512555
 20
899.142962
  0
LINE
  8
CSLAYER1
  6
CENTER
 62
     6
 10
1466.036752
 20
890.538549
 11
1651.425782
 21
1181.849950
  0
POINT
  8
CSLAYER1
 62
     3
 10
1651.425782
 20
1181.849950
  0
CIRCLE
  8
CSLAYER1
  6
CONTINUOUS
 62
     3
 10
1651.425782
 20
1181.849950
 40
8.000000
  0
LINE
  8
CSLAYER1
  6
CONTINUOUS
 62
     3
 10
1620.921662
 20
1100.391082
 11
1634.961737
 21
1122.452980
  0
LINE
  8
CSLAYER1
  6
CONTINUOUS
 62
     3
 10
1557.799854
 20
1068.256835
 11
1609.308190
 21
1149.194555
  0
CIRCLE
  8
CSLAYER1
  6
CONTINUOUS
 62
     3
 10
1471.512555
 20
899.142962
 40
8.000000
  0
LINE
  8
CSLAYER1
  6
CONTINUOUS
 62
     3
 10
1474.264679
 20
868.787966
 11
1460.092597
 21
854.014813
  0
LINE
  8
CSLAYER1
  6
CONTINUOUS
 62
     3
 10
1732.336035
 20
1145.027310
 11
1721.737914
 21
1127.479380
  0
LINE
  8
CSLAYER1
  6
CONTINUOUS
 62
     3
 10
1455.935370
 20
854.014813
 11
1467.253857
 21
865.813344
  0
LINE
  8
CSLAYER1
  6
CONTINUOUS
 62
     3
 10
1467.253857
 20
865.813344
 11
1473.211587
 21
868.412468
  0
LINE
  8
CSLAYER1
  6
CONTINUOUS
 62
     3
 10
1437.012401
 20
908.681797
 11
1901.892434
 21
1393.278484
  0
LINE
  8
CSLAYER1
  6
CONTINUOUS
 62
     3
 10
1473.211587
 20
868.412468
 11
1721.737914
 21
1127.479380
  0
CIRCLE
  8
CSLAYER1
  6
CONTINUOUS
 62
     3
 10
1675.938879
 20
1102.127883
 40
7.500000
  0
ARC
  8
CSLAYER1
  6
CONTINUOUS
 62
     3
 10
1915.696630
 20
1391.778484
 40
5.000000
 50
-197.457603
 51
17.457603
  0
ARC
  8
CSLAYER1
  6
CONTINUOUS
 62
     3
 10
1915.696630
 20
1391.778484
 40
13.000000
 50
-186.625810
 51
6.625810
  0
POINT
  8
CSLAYER1
 62
     3
 10
1915.696630
 20
1391.778484
  0
POINT
  8
CSLAYER1
 62
     3
 10
1675.938879
 20
1102.127883
  0
LINE
  8
CSLAYER1
  6
CONTINUOUS
 62
     3
 10
1732.336035
 20
1145.027310
 11
1908.865877
 21
1329.044197
  0
LINE
  8
CSLAYER1
  6
CONTINUOUS
 62
     3
 10
1908.865877
 20
1329.044197
 11
1924.317998
 21
1382.048530
  0
POINT
  8
CSLAYER1
 62
     3
 10
1416.336170
 20
831.514813
  0
LINE
  8
CSLAYER1
  6
CONTINUOUS
 62
     3
 10
1457.734285
 20
898.503216
 11
1469.280443
 21
887.426834
  0
LINE
  8
CSLAYER1
  6
CONTINUOUS
 62
     3
 10
1481.963871
 20
923.760436
 11
1493.510029
 21
912.684053
  0
LINE
  8
CSLAYER1
  6
CONTINUOUS
 62
     3
 10
1473.522169
 20
887.514916
 11
1493.598112
 21
908.442327
  0
LINE
  8
CSLAYER1
  6
CONTINUOUS
 62
     3
 10
1457.646202
 20
902.744942
 11
1477.722145
 21
923.672353
  0
ARC
  8
CSLAYER1
  6
CONTINUOUS
 62
     3
 10
1459.811107
 20
900.668120
 40
3.000000
 50
136.189622
 51
226.189622
  0
ARC
  8
CSLAYER1
  6
CONTINUOUS
 62
     3
 10
1479.887049
 20
921.595531
 40
3.000000
 50
46.189622
 51
136.189622
  0
ARC
  8
CSLAYER1
  6
CONTINUOUS
 62
     3
 10
1471.357264
 20
889.591738
 40
3.000000
 50
226.189622
 51
316.189622
  0
ARC
  8
CSLAYER1
  6
CONTINUOUS
 62
     3
 10
1491.433207
 20
910.519149
 40
3.000000
 50
-43.810378
 51
46.189622
  0
LINE
  8
CSLAYER1
  6
CONTINUOUS
 62
     3
 10
1437.012401
 20
908.681797
 11
1409.717130
 21
848.411120
  0
ARC
  8
CSLAYER1
  6
CONTINUOUS
 62
     3
 10
1651.425782
 20
1181.849950
 40
17.000000
 50
42.544562
 51
100.895989
  0
LINE
  8
CSLAYER1
  6
CONTINUOUS
 62
     3
 10
1663.950560
 20
1193.344728
 11
1686.511244
 21
1168.762473
  0
ARC
  8
CSLAYER1
  6
CONTINUOUS
 62
     3
 10
1639.157989
 20
1170.081294
 40
30.000000
 50
43.810378
 51
92.000063
  0
LINE
  8
CSLAYER1
  6
CONTINUOUS
 62
     3
 10
1716.460068
 20
1043.998430
 11
1898.713874
 21
854.014813
  0
ARC
  8
CSLAYER1
  6
CONTINUOUS
 62
     3
 10
1935.541588
 20
831.514813
 40
13.000000
 50
62.435886
 51
118.531765
  0
POINT
  8
CSLAYER1
 62
     3
 10
1935.541588
 20
831.514813
  0
LINE
  8
CSLAYER1
  6
CONTINUOUS
 62
     3
 10
1595.526150
 20
1163.561123
 11
1638.523835
 21
1118.739805
  0
LINE
  8
CSLAYER1
  6
CONTINUOUS
 62
     3
 10
1716.460068
 20
1043.998430
 11
1699.367234
 21
1055.315895
  0
LINE
  8
CSLAYER1
  6
CONTINUOUS
 62
     3
 10
1584.928029
 20
1181.109052
 11
1595.526150
 21
1163.561123
  0
LINE
  8
CSLAYER1
  6
CONTINUOUS
 62
     3
 10
1584.928029
 20
1181.109052
 11
1476.884013
 21
1293.735469
  0
LINE
  8
CSLAYER1
  6
CONTINUOUS
 62
     3
 10
1458.342011
 20
1387.456402
 11
1638.110971
 21
1200.063018
  0
LINE
  8
CSLAYER1
  6
CONTINUOUS
 62
     3
 10
1930.154105
 20
895.633648
 11
1941.030843
 21
854.014813
  0
LINE
  8
CSLAYER1
  6
CONTINUOUS
 62
     3
 10
1660.807035
 20
1190.849511
 11
1684.253334
 21
1166.408799
  0
ARC
  8
CSLAYER1
  6
CONTINUOUS
 62
     3
 10
1675.938879
 20
1102.127883
 40
50.500000
 50
7.129993
 51
28.315266
  0
LINE
  8
CSLAYER1
  6
CONTINUOUS
 62
     3
 10
1726.048368
 20
1108.395989
 11
1930.154105
 21
895.633648
  0
LINE
  8
CSLAYER1
  6
CONTINUOUS
 62
     3
 10
1468.315434
 20
1321.446156
 11
1427.601740
 21
1381.278484
  0
LINE
  8
CSLAYER1
  6
CONTINUOUS
 62
     3
 10
1468.315434
 20
1321.446156
 11
1471.670084
 21
1303.837946
  0
ARC
  8
CSLAYER1
  6
CONTINUOUS
 62
     3
 10
1491.316710
 20
1307.580946
 40
20.000000
 50
190.786510
 51
223.810378
  0
LINE
  8
CSLAYER1
  6
CONTINUOUS
 62
     3
 10
1675.938879
 20
1079.737901
 11
1699.367234
 21
1055.315895
  0
LINE
  8
CSLAYER1
  6
CONTINUOUS
 62
     3
 10
1539.047300
 20
1056.484337
 11
1563.731555
 21
1040.775408
  0
LINE
  8
CSLAYER1
  6
CENTER
 62
     6
 10
1915.696630
 20
1406.840273
 11
1915.696630
 21
1376.648287
  0
LINE
  8
CSLAYER1
  6
CENTER
 62
     6
 10
1900.333044
 20
1391.778484
 11
1931.682550
 21
1391.778484
  0
ARC
  8
CSLAYER1
  6
CONTINUOUS
 62
     3
 10
1915.696630
 20
1391.778484
 40
13.000000
 50
30.558220
 51
60.792798
  0
ARC
  8
CSLAYER1
  6
CONTINUOUS
 62
     3
 10
1915.696630
 20
1391.778484
 40
13.000000
 50
78.150466
 51
117.215867
  0
ARC
  8
CSLAYER1
  6
CONTINUOUS
 62
     3
 10
1915.696630
 20
1391.778484
 40
13.000000
 50
129.904453
 51
154.186413
  0
POINT
  8
CSLAYER1
 62
     4
 10
1416.336170
 20
831.514813
  0
CIRCLE
  8
CSLAYER1
  6
CONTINUOUS
 62
     3
 10
1416.336170
 20
831.514813
 40
9.500000
  0
LINE
  8
CSLAYER1
  6
CONTINUOUS
 62
     3
 10
1425.836170
 20
836.999641
 11
1416.336170
 21
842.484468
  0
LINE
  8
CSLAYER1
  6
CONTINUOUS
 62
     3
 10
1416.336170
 20
842.484468
 11
1406.836170
 21
836.999641
  0
LINE
  8
CSLAYER1
  6
CONTINUOUS
 62
     3
 10
1406.836170
 20
836.999641
 11
1406.836170
 21
826.029985
  0
LINE
  8
CSLAYER1
  6
CONTINUOUS
 62
     3
 10
1406.836170
 20
826.029985
 11
1416.336170
 21
820.545158
  0
LINE
  8
CSLAYER1
  6
CONTINUOUS
 62
     3
 10
1416.336170
 20
820.545158
 11
1425.836170
 21
826.029985
  0
LINE
  8
CSLAYER1
  6
CONTINUOUS
 62
     3
 10
1425.836170
 20
826.029985
 11
1425.836170
 21
836.999641
  0
LINE
  8
CSLAYER1
  6
CENTER
 62
     6
 10
1917.804060
 20
831.514813
 11
1954.800262
 21
831.514813
  0
LINE
  8
CSLAYER1
  6
CENTER
 62
     6
 10
1935.541588
 20
850.008030
 11
1935.541588
 21
815.545815
  0
ARC
  8
CSLAYER1
  6
CONTINUOUS
 62
     3
 10
1935.541588
 20
831.514813
 40
13.000000
 50
-30.596977
 51
29.035047
  0
ARC
  8
CSLAYER1
  6
CONTINUOUS
 62
     3
 10
1935.541588
 20
831.514813
 40
13.000000
 50
239.433195
 51
304.891780
  0
ARC
  8
CSLAYER1
  6
CONTINUOUS
 62
     3
 10
1935.541588
 20
831.514813
 40
13.000000
 50
145.113852
 51
207.530823
  0
LINE
  8
CSLAYER1
  6
CENTER
 62
     5
 10
805.927344
 20
1465.251763
 11
805.927344
 21
774.014813
  0
LINE
  8
CSLAYER1
  6
CENTER
 62
     5
 10
896.927344
 20
1391.778484
 11
714.927344
 21
1391.778484
  0
LINE
  8
CSLAYER1
  6
CONTINUOUS
 62
     2
 10
860.927344
 20
1395.578484
 11
860.927344
 21
1351.278484
  0
LINE
  8
CSLAYER1
  6
CONTINUOUS
 62
     3
 10
861.927344
 20
1383.128484
 11
860.927344
 21
1383.128484
  0
LINE
  8
CSLAYER1
  6
CONTINUOUS
 62
     3
 10
862.927344
 20
1395.578484
 11
862.927344
 21
1384.128484
  0
LINE
  8
CSLAYER1
  6
CONTINUOUS
 62
     3
 10
862.927344
 20
1384.128484
 11
861.927344
 21
1383.128484
  0
LINE
  8
CSLAYER1
  6
CONTINUOUS
 62
     3
 10
861.927344
 20
1395.578484
 11
861.927344
 21
1383.128484
  0
LINE
  8
CSLAYER1
  6
CONTINUOUS
 62
     3
 10
851.927344
 20
1383.128484
 11
759.927344
 21
1383.128484
  0
LINE
  8
CSLAYER1
  6
CONTINUOUS
 62
     3
 10
863.427344
 20
1381.278484
 11
869.427344
 21
1381.278484
  0
INSERT
  8
CSLAYER1
  2
BLKF0001
 10
0.0
 20
0.0
 30
0.0
  0
LINE
  8
CSLAYER1
  6
CONTINUOUS
 62
     3
 10
869.427344
 20
1395.578484
 11
869.427344
 21
1381.028484
  0
LINE
  8
CSLAYER1
  6
CONTINUOUS
 62
     3
 10
863.427344
 20
1395.578484
 11
863.427344
 21
1381.278484
  0
LINE
  8
CSLAYER1
  6
CONTINUOUS
 62
     3
 10
902.927344
 20
1395.578484
 11
902.927344
 21
1393.278484
  0
LINE
  8
CSLAYER1
  6
CONTINUOUS
 62
     3
 10
902.927344
 20
1393.278484
 11
898.427344
 21
1393.278484
  0
LINE
  8
CSLAYER1
  6
CONTINUOUS
 62
     3
 10
898.427344
 20
1395.578484
 11
898.427344
 21
1393.278484
  0
LINE
  8
CSLAYER1
  6
CONTINUOUS
 62
     3
 10
955.927344
 20
1425.578484
 11
655.927344
 21
1425.578484
  0
LINE
  8
CSLAYER1
  6
CONTINUOUS
 62
     3
 10
955.927344
 20
1395.578484
 11
655.927344
 21
1395.578484
  0
LINE
  8
CSLAYER1
  6
CONTINUOUS
 62
     3
 10
851.927344
 20
854.014813
 11
851.927344
 21
1395.578484
  0
LINE
  8
CSLAYER1
  6
CONTINUOUS
 62
     3
 10
863.927344
 20
854.014813
 11
863.927344
 21
1381.278484
  0
LINE
  8
CSLAYER1
  6
CONTINUOUS
 62
     3
 10
860.927344
 20
854.014813
 11
860.927344
 21
1395.578484
  0
LINE
  8
CSLAYER1
  6
CONTINUOUS
 62
     3
 10
872.927344
 20
854.014813
 11
872.927344
 21
1380.808829
  0
LINE
  8
CSLAYER1
  6
CONTINUOUS
 62
     1
 10
883.427344
 20
820.545158
 11
883.427344
 21
842.484468
  0
LINE
  8
CSLAYER1
  6
CONTINUOUS
 62
     1
 10
880.427344
 20
842.264813
 11
883.427344
 21
842.264813
  0
LINE
  8
CSLAYER1
  6
CONTINUOUS
 62
     1
 10
880.427344
 20
820.764813
 11
883.427344
 21
820.764813
  0
LINE
  8
CSLAYER1
  6
CONTINUOUS
 62
     1
 10
880.427344
 20
830.002616
 11
883.427344
 21
833.502616
  0
LINE
  8
CSLAYER1
  6
CONTINUOUS
 62
     1
 10
891.427344
 20
840.514813
 11
891.427344
 21
822.514813
  0
LINE
  8
CSLAYER1
  6
CONTINUOUS
 62
     1
 10
883.427344
 20
836.999641
 11
890.290163
 21
836.999641
  0
LINE
  8
CSLAYER1
  6
CONTINUOUS
 62
     1
 10
883.427344
 20
842.484468
 11
890.290163
 21
842.484468
  0
LINE
  8
CSLAYER1
  6
CONTINUOUS
 62
     1
 10
891.427344
 20
840.514813
 11
890.290163
 21
842.484468
  0
ARC
  8
CSLAYER1
  6
CONTINUOUS
 62
     1
 10
887.647300
 20
839.742054
 40
3.808617
 50
313.940972
 51
354.338367
  0
ARC
  8
CSLAYER1
  6
CONTINUOUS
 62
     1
 10
877.631600
 20
831.514813
 40
13.795744
 50
-23.426598
 51
23.426598
  0
LINE
  8
CSLAYER1
  6
CONTINUOUS
 62
     1
 10
883.427344
 20
826.029985
 11
890.290163
 21
826.029985
  0
LINE
  8
CSLAYER1
  6
CONTINUOUS
 62
     1
 10
883.427344
 20
820.545158
 11
890.290163
 21
820.545158
  0
LINE
  8
CSLAYER1
  6
CONTINUOUS
 62
     1
 10
891.427344
 20
822.514813
 11
890.290163
 21
820.545158
  0
ARC
  8
CSLAYER1
  6
CONTINUOUS
 62
     1
 10
887.647300
 20
823.287572
 40
3.808617
 50
5.661633
 51
46.059028
  0
LINE
  8
CSLAYER1
  6
CONTINUOUS
 62
     3
 10
884.927344
 20
1395.578484
 11
884.927344
 21
1378.778484
  0
LINE
  8
CSLAYER1
  6
CONTINUOUS
 62
     3
 10
876.927344
 20
1380.808829
 11
876.927344
 21
1378.778484
  0
LINE
  8
CSLAYER1
  6
CONTINUOUS
 62
     3
 10
892.927344
 20
1395.578484
 11
892.927344
 21
1378.778484
  0
LINE
  8
CSLAYER1
  6
CONTINUOUS
 62
     3
 10
893.927344
 20
1395.578484
 11
893.927344
 21
1383.778484
  0
LINE
  8
CSLAYER1
  6
CONTINUOUS
 62
     3
 10
895.927344
 20
1395.578484
 11
895.927344
 21
1387.278484
  0
LINE
  8
CSLAYER1
  6
CONTINUOUS
 62
     3
 10
895.427344
 20
1386.778484
 11
893.927344
 21
1386.778484
  0
LINE
  8
CSLAYER1
  6
CONTINUOUS
 62
     3
 10
893.927344
 20
1383.778484
 11
892.927344
 21
1383.778484
  0
LINE
  8
CSLAYER1
  6
CONTINUOUS
 62
     3
 10
895.427344
 20
1386.778484
 11
895.927344
 21
1387.278484
  0
LINE
  8
CSLAYER1
  6
CONTINUOUS
 62
     3
 10
892.927344
 20
1378.778484
 11
876.927344
 21
1378.778484
  0
LINE
  8
CSLAYER1
  6
CENTER
 62
     6
 10
780.927344
 20
1181.849950
 11
860.927344
 21
1181.849950
  0
LINE
  8
CSLAYER1
  6
CENTER
 62
     6
 10
759.927344
 20
1133.671254
 11
851.927344
 21
1133.671254
  0
LINE
  8
CSLAYER1
  6
CENTER
 62
     6
 10
726.427344
 20
1102.127883
 11
885.427344
 21
1102.127883
  0
LINE
  8
CSLAYER1
  6
CENTER
 62
     6
 10
787.427344
 20
899.142962
 11
845.427344
 21
899.142962
  0
LINE
  8
CSLAYER1
  6
CONTINUOUS
 62
     3
 10
780.927344
 20
1198.849950
 11
792.927344
 21
1198.849950
  0
LINE
  8
CSLAYER1
  6
CONTINUOUS
 62
     3
 10
780.927344
 20
1127.460048
 11
792.927344
 21
1127.460048
  0
LINE
  8
CSLAYER1
  6
CONTINUOUS
 62
     3
 10
759.927344
 20
1157.971254
 11
780.927344
 21
1157.971254
  0
LINE
  8
CSLAYER1
  6
CONTINUOUS
 62
     3
 10
759.927344
 20
1109.627883
 11
798.427344
 21
1109.627883
  0
LINE
  8
CSLAYER1
  6
CONTINUOUS
 62
     3
 10
759.927344
 20
1094.627883
 11
798.427344
 21
1094.627883
  0
LINE
  8
CSLAYER1
  6
CONTINUOUS
 62
     3
 10
787.427344
 20
863.900298
 11
793.427344
 21
863.900298
  0
LINE
  8
CSLAYER1
  6
CONTINUOUS
 62
     3
 10
759.927344
 20
881.941170
 11
772.277344
 21
881.941170
  0
LINE
  8
CSLAYER1
  6
CONTINUOUS
 62
     3
 10
787.427344
 20
915.142962
 11
793.427344
 21
915.142962
  0
LINE
  8
CSLAYER1
  6
CONTINUOUS
 62
     3
 10
845.427344
 20
863.900298
 11
845.427344
 21
915.142962
  0
LINE
  8
CSLAYER1
  6
CONTINUOUS
 62
     3
 10
839.427344
 20
863.900298
 11
839.427344
 21
915.142962
  0
LINE
  8
CSLAYER1
  6
CONTINUOUS
 62
     3
 10
793.427344
 20
863.900298
 11
793.427344
 21
915.142962
  0
LINE
  8
CSLAYER1
  6
CONTINUOUS
 62
     3
 10
787.427344
 20
863.900298
 11
787.427344
 21
915.142962
  0
LINE
  8
CSLAYER1
  6
CONTINUOUS
 62
     3
 10
839.427344
 20
915.142962
 11
845.427344
 21
915.142962
  0
LINE
  8
CSLAYER1
  6
CONTINUOUS
 62
     3
 10
839.427344
 20
863.900298
 11
845.427344
 21
863.900298
  0
LINE
  8
CSLAYER1
  6
CONTINUOUS
 62
     3
 10
860.927344
 20
881.941170
 11
863.927344
 21
881.941170
  0
LINE
  8
CSLAYER1
  6
CONTINUOUS
 62
     3
 10
845.427344
 20
881.941170
 11
851.927344
 21
881.941170
  0
LINE
  8
CSLAYER1
  6
CONTINUOUS
 62
     3
 10
793.427344
 20
881.941170
 11
839.427344
 21
881.941170
  0
LINE
  8
CSLAYER1
  6
CONTINUOUS
 62
     3
 10
780.927344
 20
1127.460048
 11
780.927344
 21
1198.849950
  0
LINE
  8
CSLAYER1
  6
CONTINUOUS
 62
     3
 10
792.927344
 20
1127.460048
 11
792.927344
 21
1198.849950
  0
LINE
  8
CSLAYER1
  6
CONTINUOUS
 62
     3
 10
839.927344
 20
1127.460048
 11
839.927344
 21
1198.849950
  0
LINE
  8
CSLAYER1
  6
CONTINUOUS
 62
     3
 10
839.927344
 20
1127.460048
 11
851.927344
 21
1127.460048
  0
LINE
  8
CSLAYER1
  6
CONTINUOUS
 62
     3
 10
792.927344
 20
1157.971254
 11
798.427344
 21
1157.971254
  0
LINE
  8
CSLAYER1
  6
CONTINUOUS
 62
     3
 10
839.927344
 20
1198.849950
 11
851.927344
 21
1198.849950
  0
LINE
  8
CSLAYER1
  6
CONTINUOUS
 62
     3
 10
884.427344
 20
1107.127883
 11
883.927344
 21
1107.127883
  0
LINE
  8
CSLAYER1
  6
CONTINUOUS
 62
     3
 10
872.927344
 20
1093.627883
 11
873.427344
 21
1093.627883
  0
LINE
  8
CSLAYER1
  6
CONTINUOUS
 62
     3
 10
872.927344
 20
1110.627883
 11
873.427344
 21
1110.627883
  0
LINE
  8
CSLAYER1
  6
CONTINUOUS
 62
     3
 10
873.427344
 20
1091.627883
 11
873.427344
 21
1112.627883
  0
LINE
  8
CSLAYER1
  6
CONTINUOUS
 62
     3
 10
885.427344
 20
1106.127883
 11
885.427344
 21
1098.127883
  0
LINE
  8
CSLAYER1
  6
CONTINUOUS
 62
     3
 10
863.927344
 20
1088.127883
 11
860.927344
 21
1088.127883
  0
LINE
  8
CSLAYER1
  6
CONTINUOUS
 62
     3
 10
863.927344
 20
1116.127883
 11
860.927344
 21
1116.127883
  0
LINE
  8
CSLAYER1
  6
CONTINUOUS
 62
     3
 10
875.427344
 20
1091.627883
 11
875.427344
 21
1112.627883
  0
LINE
  8
CSLAYER1
  6
CONTINUOUS
 62
     3
 10
877.927344
 20
1092.927883
 11
877.927344
 21
1111.327883
  0
LINE
  8
CSLAYER1
  6
CONTINUOUS
 62
     3
 10
877.927344
 20
1111.327883
 11
875.427344
 21
1111.327883
  0
LINE
  8
CSLAYER1
  6
CONTINUOUS
 62
     3
 10
875.427344
 20
1112.627883
 11
873.427344
 21
1112.627883
  0
LINE
  8
CSLAYER1
  6
CONTINUOUS
 62
     3
 10
877.927344
 20
1092.927883
 11
875.427344
 21
1092.927883
  0
LINE
  8
CSLAYER1
  6
CONTINUOUS
 62
     3
 10
875.427344
 20
1091.627883
 11
873.427344
 21
1091.627883
  0
LINE
  8
CSLAYER1
  6
CONTINUOUS
 62
     3
 10
883.927344
 20
1093.627883
 11
883.927344
 21
1110.627883
  0
LINE
  8
CSLAYER1
  6
CONTINUOUS
 62
     3
 10
884.427344
 20
1107.127883
 11
885.427344
 21
1106.127883
  0
LINE
  8
CSLAYER1
  6
CONTINUOUS
 62
     3
 10
885.127344
 20
1106.427883
 11
883.927344
 21
1106.427883
  0
LINE
  8
CSLAYER1
  6
CONTINUOUS
 62
     3
 10
884.427344
 20
1107.127883
 11
884.427344
 21
1097.127883
  0
LINE
  8
CSLAYER1
  6
CONTINUOUS
 62
     3
 10
883.168155
 20
1111.942837
 11
878.686534
 21
1111.942837
  0
LINE
  8
CSLAYER1
  6
CONTINUOUS
 62
     3
 10
883.168155
 20
1107.035360
 11
878.686534
 21
1107.035360
  0
LINE
  8
CSLAYER1
  6
CONTINUOUS
 62
     3
 10
883.927344
 20
1110.627883
 11
883.168155
 21
1111.942837
  0
ARC
  8
CSLAYER1
  6
CONTINUOUS
 62
     3
 10
867.686534
 20
1102.127883
 40
16.240811
 50
-17.587954
 51
17.587954
  0
ARC
  8
CSLAYER1
  6
CONTINUOUS
 62
     3
 10
879.586420
 20
1109.489099
 40
4.341619
 50
-34.413868
 51
27.480777
  0
LINE
  8
CSLAYER1
  6
CONTINUOUS
 62
     3
 10
883.927344
 20
1093.627883
 11
883.168155
 21
1092.312928
  0
ARC
  8
CSLAYER1
  6
CONTINUOUS
 62
     3
 10
879.586420
 20
1094.766667
 40
4.341619
 50
-27.480777
 51
34.413868
  0
LINE
  8
CSLAYER1
  6
CONTINUOUS
 62
     3
 10
877.927344
 20
1110.627883
 11
878.686534
 21
1111.942837
  0
ARC
  8
CSLAYER1
  6
CONTINUOUS
 62
     3
 10
894.168155
 20
1102.127883
 40
16.240811
 50
162.412046
 51
197.587954
  0
ARC
  8
CSLAYER1
  6
CONTINUOUS
 62
     3
 10
882.268269
 20
1109.489099
 40
4.341619
 50
152.519223
 51
214.413868
  0
LINE
  8
CSLAYER1
  6
CONTINUOUS
 62
     3
 10
877.927344
 20
1093.627883
 11
878.686534
 21
1092.312928
  0
ARC
  8
CSLAYER1
  6
CONTINUOUS
 62
     3
 10
882.268269
 20
1094.766667
 40
4.341619
 50
145.586132
 51
207.480777
  0
LINE
  8
CSLAYER1
  6
CONTINUOUS
 62
     3
 10
883.168155
 20
1092.312928
 11
878.686534
 21
1092.312928
  0
LINE
  8
CSLAYER1
  6
CONTINUOUS
 62
     3
 10
883.168155
 20
1097.220405
 11
878.686534
 21
1097.220405
  0
LINE
  8
CSLAYER1
  6
CONTINUOUS
 62
     3
 10
884.427344
 20
1097.127883
 11
883.927344
 21
1097.127883
  0
LINE
  8
CSLAYER1
  6
CONTINUOUS
 62
     3
 10
884.427344
 20
1097.127883
 11
885.427344
 21
1098.127883
  0
LINE
  8
CSLAYER1
  6
CONTINUOUS
 62
     3
 10
885.127344
 20
1097.827883
 11
883.927344
 21
1097.827883
  0
LINE
  8
CSLAYER1
  6
CONTINUOUS
 62
     3
 10
875.427344
 20
1100.226435
 11
877.927344
 21
1103.596000
  0
LINE
  8
CSLAYER1
  6
CONTINUOUS
 62
     3
 10
727.427344
 20
1107.127883
 11
727.927344
 21
1107.127883
  0
LINE
  8
CSLAYER1
  6
CONTINUOUS
 62
     3
 10
738.927344
 20
1093.627883
 11
738.427344
 21
1093.627883
  0
LINE
  8
CSLAYER1
  6
CONTINUOUS
 62
     3
 10
738.927344
 20
1110.627883
 11
738.427344
 21
1110.627883
  0
LINE
  8
CSLAYER1
  6
CONTINUOUS
 62
     3
 10
738.427344
 20
1091.627883
 11
738.427344
 21
1112.627883
  0
LINE
  8
CSLAYER1
  6
CONTINUOUS
 62
     3
 10
726.427344
 20
1106.127883
 11
726.427344
 21
1098.127883
  0
LINE
  8
CSLAYER1
  6
CONTINUOUS
 62
     3
 10
747.927344
 20
1088.127883
 11
750.927344
 21
1088.127883
  0
LINE
  8
CSLAYER1
  6
CONTINUOUS
 62
     3
 10
747.927344
 20
1116.127883
 11
750.927344
 21
1116.127883
  0
LINE
  8
CSLAYER1
  6
CONTINUOUS
 62
     3
 10
736.427344
 20
1091.627883
 11
736.427344
 21
1112.627883
  0
LINE
  8
CSLAYER1
  6
CONTINUOUS
 62
     3
 10
733.927344
 20
1092.927883
 11
733.927344
 21
1111.327883
  0
LINE
  8
CSLAYER1
  6
CONTINUOUS
 62
     3
 10
733.927344
 20
1111.327883
 11
736.427344
 21
1111.327883
  0
LINE
  8
CSLAYER1
  6
CONTINUOUS
 62
     3
 10
736.427344
 20
1112.627883
 11
738.427344
 21
1112.627883
  0
LINE
  8
CSLAYER1
  6
CONTINUOUS
 62
     3
 10
733.927344
 20
1092.927883
 11
736.427344
 21
1092.927883
  0
LINE
  8
CSLAYER1
  6
CONTINUOUS
 62
     3
 10
736.427344
 20
1091.627883
 11
738.427344
 21
1091.627883
  0
LINE
  8
CSLAYER1
  6
CONTINUOUS
 62
     3
 10
727.927344
 20
1093.627883
 11
727.927344
 21
1110.627883
  0
LINE
  8
CSLAYER1
  6
CONTINUOUS
 62
     3
 10
727.427344
 20
1107.127883
 11
726.427344
 21
1106.127883
  0
LINE
  8
CSLAYER1
  6
CONTINUOUS
 62
     3
 10
726.727344
 20
1106.427883
 11
727.927344
 21
1106.427883
  0
LINE
  8
CSLAYER1
  6
CONTINUOUS
 62
     3
 10
727.427344
 20
1107.127883
 11
727.427344
 21
1097.127883
  0
LINE
  8
CSLAYER1
  6
CONTINUOUS
 62
     3
 10
728.686534
 20
1111.942837
 11
733.168155
 21
1111.942837
  0
LINE
  8
CSLAYER1
  6
CONTINUOUS
 62
     3
 10
728.686534
 20
1107.035360
 11
733.168155
 21
1107.035360
  0
LINE
  8
CSLAYER1
  6
CONTINUOUS
 62
     3
 10
727.927344
 20
1110.627883
 11
728.686534
 21
1111.942837
  0
ARC
  8
CSLAYER1
  6
CONTINUOUS
 62
     3
 10
744.168155
 20
1102.127883
 40
16.240811
 50
162.412046
 51
197.587954
  0
ARC
  8
CSLAYER1
  6
CONTINUOUS
 62
     3
 10
732.268269
 20
1109.489099
 40
4.341619
 50
152.519223
 51
214.413868
  0
LINE
  8
CSLAYER1
  6
CONTINUOUS
 62
     3
 10
727.927344
 20
1093.627883
 11
728.686534
 21
1092.312928
  0
ARC
  8
CSLAYER1
  6
CONTINUOUS
 62
     3
 10
732.268269
 20
1094.766667
 40
4.341619
 50
145.586132
 51
207.480777
  0
LINE
  8
CSLAYER1
  6
CONTINUOUS
 62
     3
 10
733.927344
 20
1110.627883
 11
733.168155
 21
1111.942837
  0
ARC
  8
CSLAYER1
  6
CONTINUOUS
 62
     3
 10
717.686534
 20
1102.127883
 40
16.240811
 50
-17.587954
 51
17.587954
  0
ARC
  8
CSLAYER1
  6
CONTINUOUS
 62
     3
 10
729.586420
 20
1109.489099
 40
4.341619
 50
-34.413868
 51
27.480777
  0
LINE
  8
CSLAYER1
  6
CONTINUOUS
 62
     3
 10
733.927344
 20
1093.627883
 11
733.168155
 21
1092.312928
  0
ARC
  8
CSLAYER1
  6
CONTINUOUS
 62
     3
 10
729.586420
 20
1094.766667
 40
4.341619
 50
-27.480777
 51
34.413868
  0
LINE
  8
CSLAYER1
  6
CONTINUOUS
 62
     3
 10
728.686534
 20
1092.312928
 11
733.168155
 21
1092.312928
  0
LINE
  8
CSLAYER1
  6
CONTINUOUS
 62
     3
 10
728.686534
 20
1097.220405
 11
733.168155
 21
1097.220405
  0
LINE
  8
CSLAYER1
  6
CONTINUOUS
 62
     3
 10
727.427344
 20
1097.127883
 11
727.927344
 21
1097.127883
  0
LINE
  8
CSLAYER1
  6
CONTINUOUS
 62
     3
 10
727.427344
 20
1097.127883
 11
726.427344
 21
1098.127883
  0
LINE
  8
CSLAYER1
  6
CONTINUOUS
 62
     3
 10
726.727344
 20
1097.827883
 11
727.927344
 21
1097.827883
  0
LINE
  8
CSLAYER1
  6
CONTINUOUS
 62
     3
 10
736.427344
 20
1100.226435
 11
733.927344
 21
1103.596000
  0
LINE
  8
CSLAYER1
  6
CONTINUOUS
 62
     3
 10
738.927344
 20
854.014813
 11
738.927344
 21
1380.808829
  0
LINE
  8
CSLAYER1
  6
CONTINUOUS
 62
     3
 10
747.927344
 20
854.014813
 11
747.927344
 21
1381.278484
  0
LINE
  8
CSLAYER1
  6
CONTINUOUS
 62
     3
 10
750.927344
 20
854.014813
 11
750.927344
 21
1395.578484
  0
LINE
  8
CSLAYER1
  6
CONTINUOUS
 62
     3
 10
759.927344
 20
854.014813
 11
759.927344
 21
1395.578484
  0
LINE
  8
CSLAYER1
  6
CONTINUOUS
 62
     3
 10
750.927344
 20
881.941170
 11
747.927344
 21
881.941170
  0
INSERT
  8
CSLAYER1
  2
BLKF0002
 10
0.0
 20
0.0
 30
0.0
  0
LINE
  8
CSLAYER1
  6
CONTINUOUS
 62
     3
 10
834.427344
 20
1157.971254
 11
839.927344
 21
1157.971254
  0
LINE
  8
CSLAYER1
  6
CONTINUOUS
 62
     3
 10
834.427344
 20
1109.627883
 11
851.927344
 21
1109.627883
  0
LINE
  8
CSLAYER1
  6
CONTINUOUS
 62
     3
 10
834.427344
 20
1094.627883
 11
851.927344
 21
1094.627883
  0
LINE
  8
CSLAYER1
  6
CONTINUOUS
 62
     3
 10
780.577344
 20
881.941170
 11
787.427344
 21
881.941170
  0
LINE
  8
CSLAYER1
  6
CENTER
 62
     6
 10
1479.745866
 20
893.903327
 11
1462.556462
 21
904.842573
  0
LINE
  8
CSLAYER1
  6
CENTER
 62
     6
 10
816.427344
 20
881.941170
 11
816.427344
 21
1195.449950
  0
CIRCLE
  8
CSLAYER1
  6
CONTINUOUS
 62
     3
 10
775.927344
 20
825.664813
 40
4.150000
  0
LINE
  8
CSLAYER1
  6
CONTINUOUS
 62
     3
 10
1251.541514
 20
832.664813
 11
1391.336170
 21
832.664813
  0
LINE
  8
CSLAYER1
  6
CENTER
 62
     5
 10
1251.541514
 20
828.514813
 11
1391.336170
 21
828.514813
  0
LINE
  8
CSLAYER1
  6
CONTINUOUS
 62
     3
 10
1251.541514
 20
824.364813
 11
1391.336170
 21
824.364813
  0
DIMENSION
  8
CSLAYER1
 62
     3
  2
*D0000
 10
1413.881129
 20
1267.854185
 11
1215.552490
 21
1279.598633
 13
1394.036170
 23
884.014813
 14
1413.881129
 24
1405.578484
  0
INSERT
  8
CSLAYER1
  2
EASYDRAWDIM0000
 10
0.0
 20
0.0
 30
0.0
  0
INSERT
  8
CSLAYER1
  2
EASYDRAWDIM0001
 10
0.0
 20
0.0
 30
0.0
  0
LINE
  8
CSLAYER1
  6
CONTINUOUS
 62
     6
 10
1530.616413
 20
1043.236447
 11
1301.217918
 21
1186.025306
  0
LINE
  8
CSLAYER1
  6
CONTINUOUS
 62
     6
 10
1530.616413
 20
1043.236447
 11
1501.912030
 21
1051.957592
  0
LINE
  8
CSLAYER1
  6
CONTINUOUS
 62
     6
 10
1530.616413
 20
1043.236447
 11
1510.118260
 21
1065.141372
  0
DIMENSION
  8
CSLAYER1
 62
     3
  2
*D0001
 10
1041.021135
 20
820.014813
 11
1033.020996
 21
864.234863
 13
953.927344
 23
814.014813
 14
953.927344
 24
820.014813
 50
90.000000
 70
1
  0
DIMENSION
  8
CSLAYER1
 62
     3
  2
*D0002
 10
930.927344
 20
694.014813
 11
805.927246
 21
702.014771
 13
680.927344
 23
816.014813
 14
930.927344
 24
816.014813
 52
270.000000
 70
1
  0
DIMENSION
  8
CSLAYER1
 62
     3
  2
*D0003
 10
955.927344
 20
604.014813
 11
805.927246
 21
612.014832
 13
655.927344
 23
816.014813
 14
955.927344
 24
816.014813
 52
270.000000
 70
1
  0
LINE
  8
CSLAYER1
  6
CENTER
 62
     6
 10
1636.862717
 20
1181.849950
 11
1665.803603
 21
1181.849950
  0
LINE
  8
CSLAYER1
  6
CENTER
 62
     6
 10
1651.425782
 20
1193.667409
 11
1651.425782
 21
1165.468597
  0
LINE
  8
CSLAYER1
  6
CENTER
 62
     6
 10
1661.375815
 20
1102.127883
 11
1690.316701
 21
1102.127883
  0
LINE
  8
CSLAYER1
  6
CENTER
 62
     6
 10
1675.938879
 20
1113.945342
 11
1675.938879
 21
1085.746530
  0
LINE
  8
CSLAYER1
  6
CONTINUOUS
 62
     3
 10
1391.336170
 20
2007.808687
 11
1391.336170
 21
1841.958687
  0
LINE
  8
CSLAYER1
  6
CENTER
 62
     6
 10
1357.615674
 20
1981.958687
 11
2234.036170
 21
1981.958687
  0
LINE
  8
CSLAYER1
  6
CONTINUOUS
 62
     3
 10
1391.336170
 20
2016.108687
 11
1391.336170
 21
2121.958687
  0
INSERT
  8
CSLAYER1
  2
BLKF0003
 10
0.0
 20
0.0
 30
0.0
  0
ARC
  8
CSLAYER1
  6
CONTINUOUS
 62
     3
 10
1401.336170
 20
2121.958687
 40
10.000000
 50
136.886394
 51
180.000000
  0
LINE
  8
CSLAYER1
  6
CONTINUOUS
 62
     3
 10
1394.036170
 20
2131.958687
 11
1394.036170
 21
1831.958687
  0
LINE
  8
CSLAYER1
  6
CONTINUOUS
 62
     1
 10
728.427344
 20
820.545158
 11
728.427344
 21
842.484468
  0
LINE
  8
CSLAYER1
  6
CONTINUOUS
 62
     1
 10
731.427344
 20
842.264813
 11
728.427344
 21
842.264813
  0
LINE
  8
CSLAYER1
  6
CONTINUOUS
 62
     1
 10
731.427344
 20
820.764813
 11
728.427344
 21
820.764813
  0
LINE
  8
CSLAYER1
  6
CONTINUOUS
 62
     1
 10
731.427344
 20
830.002616
 11
728.427344
 21
833.502616
  0
LINE
  8
CSLAYER1
  6
CONTINUOUS
 62
     1
 10
720.427344
 20
840.514813
 11
720.427344
 21
822.514813
  0
LINE
  8
CSLAYER1
  6
CONTINUOUS
 62
     1
 10
728.427344
 20
836.999641
 11
721.564525
 21
836.999641
  0
LINE
  8
CSLAYER1
  6
CONTINUOUS
 62
     1
 10
728.427344
 20
842.484468
 11
721.564525
 21
842.484468
  0
LINE
  8
CSLAYER1
  6
CONTINUOUS
 62
     1
 10
720.427344
 20
840.514813
 11
721.564525
 21
842.484468
  0
ARC
  8
CSLAYER1
  6
CONTINUOUS
 62
     1
 10
724.207389
 20
839.742054
 40
3.808617
 50
185.661633
 51
226.059028
  0
ARC
  8
CSLAYER1
  6
CONTINUOUS
 62
     1
 10
734.223088
 20
831.514813
 40
13.795744
 50
156.573402
 51
203.426598
  0
LINE
  8
CSLAYER1
  6
CONTINUOUS
 62
     1
 10
728.427344
 20
826.029985
 11
721.564525
 21
826.029985
  0
LINE
  8
CSLAYER1
  6
CONTINUOUS
 62
     1
 10
728.427344
 20
820.545158
 11
721.564525
 21
820.545158
  0
LINE
  8
CSLAYER1
  6
CONTINUOUS
 62
     1
 10
720.427344
 20
822.514813
 11
721.564525
 21
820.545158
  0
ARC
  8
CSLAYER1
  6
CONTINUOUS
 62
     1
 10
724.207389
 20
823.287572
 40
3.808617
 50
133.940972
 51
174.338367
  0
LINE
  8
CSLAYER1
  6
CONTINUOUS
 62
     2
 10
750.927344
 20
1395.578484
 11
750.927344
 21
1351.278484
  0
LINE
  8
CSLAYER1
  6
CONTINUOUS
 62
     3
 10
749.927344
 20
1383.128484
 11
750.927344
 21
1383.128484
  0
LINE
  8
CSLAYER1
  6
CONTINUOUS
 62
     3
 10
748.927344
 20
1395.578484
 11
748.927344
 21
1384.128484
  0
LINE
  8
CSLAYER1
  6
CONTINUOUS
 62
     3
 10
748.927344
 20
1384.128484
 11
749.927344
 21
1383.128484
  0
LINE
  8
CSLAYER1
  6
CONTINUOUS
 62
     3
 10
749.927344
 20
1395.578484
 11
749.927344
 21
1383.128484
  0
LINE
  8
CSLAYER1
  6
CONTINUOUS
 62
     3
 10
748.427344
 20
1381.278484
 11
742.427344
 21
1381.278484
  0
INSERT
  8
CSLAYER1
  2
BLKF0004
 10
0.0
 20
0.0
 30
0.0
  0
LINE
  8
CSLAYER1
  6
CONTINUOUS
 62
     3
 10
742.427344
 20
1395.578484
 11
742.427344
 21
1381.028484
  0
LINE
  8
CSLAYER1
  6
CONTINUOUS
 62
     3
 10
748.427344
 20
1395.578484
 11
748.427344
 21
1381.278484
  0
LINE
  8
CSLAYER1
  6
CONTINUOUS
 62
     3
 10
708.927344
 20
1395.578484
 11
708.927344
 21
1393.278484
  0
LINE
  8
CSLAYER1
  6
CONTINUOUS
 62
     3
 10
708.927344
 20
1393.278484
 11
713.427344
 21
1393.278484
  0
LINE
  8
CSLAYER1
  6
CONTINUOUS
 62
     3
 10
713.427344
 20
1395.578484
 11
713.427344
 21
1393.278484
  0
LINE
  8
CSLAYER1
  6
CONTINUOUS
 62
     3
 10
726.927344
 20
1395.578484
 11
726.927344
 21
1378.778484
  0
LINE
  8
CSLAYER1
  6
CONTINUOUS
 62
     3
 10
734.927344
 20
1380.808829
 11
734.927344
 21
1378.778484
  0
LINE
  8
CSLAYER1
  6
CONTINUOUS
 62
     3
 10
718.927344
 20
1395.578484
 11
718.927344
 21
1378.778484
  0
LINE
  8
CSLAYER1
  6
CONTINUOUS
 62
     3
 10
717.927344
 20
1395.578484
 11
717.927344
 21
1383.778484
  0
LINE
  8
CSLAYER1
  6
CONTINUOUS
 62
     3
 10
715.927344
 20
1395.578484
 11
715.927344
 21
1387.278484
  0
LINE
  8
CSLAYER1
  6
CONTINUOUS
 62
     3
 10
716.427344
 20
1386.778484
 11
717.927344
 21
1386.778484
  0
LINE
  8
CSLAYER1
  6
CONTINUOUS
 62
     3
 10
717.927344
 20
1383.778484
 11
718.927344
 21
1383.778484
  0
LINE
  8
CSLAYER1
  6
CONTINUOUS
 62
     3
 10
716.427344
 20
1386.778484
 11
715.927344
 21
1387.278484
  0
LINE
  8
CSLAYER1
  6
CONTINUOUS
 62
     3
 10
718.927344
 20
1378.778484
 11
734.927344
 21
1378.778484
  0
TEXT
  8
CSLAYER1
 62
     5
 10
2979.863249
 20
817.622120
 40
31.844261
 41
0.920655
  1
Ｆ.Ｌ
 50
0.000000
 51
0.000000
  7
EASYDRAW_FONT
 72
     5
 11
3058.043489
 21
817.622120
  0
LINE
  8
CSLAYER1
  6
CENTER
 62
     5
 10
2760.341525
 20
774.014813
 11
2760.341525
 21
934.014813
  0
LINE
  8
CSLAYER1
  6
CENTER
 62
     5
 10
2885.341525
 20
805.085452
 11
2885.341525
 21
829.295413
  0
LINE
  8
CSLAYER1
  6
CENTER
 62
     5
 10
2635.341525
 20
805.085452
 11
2635.341525
 21
829.295413
  0
LINE
  8
CSLAYER1
  6
CONTINUOUS
 62
     3
 10
2660.341525
 20
854.014813
 11
2660.341525
 21
814.014813
  0
LINE
  8
CSLAYER1
  6
CONTINUOUS
 62
     3
 10
2860.341525
 20
854.014813
 11
2860.341525
 21
814.014813
  0
LINE
  8
CSLAYER1
  6
CONTINUOUS
 62
     3
 10
2910.341525
 20
814.014813
 11
2910.341525
 21
820.014813
  0
LINE
  8
CSLAYER1
  6
CONTINUOUS
 62
     3
 10
2910.341525
 20
820.014813
 11
2860.341525
 21
820.014813
  0
LINE
  8
CSLAYER1
  6
CONTINUOUS
 62
     3
 10
2610.341525
 20
814.014813
 11
2610.341525
 21
820.014813
  0
LINE
  8
CSLAYER1
  6
CONTINUOUS
 62
     3
 10
2610.341525
 20
820.014813
 11
2660.341525
 21
820.014813
  0
TEXT
  8
CSLAYER1
 62
     7
 10
2712.108154
 20
1017.034424
 40
40.000000
 41
0.843750
  1
下降時
 50
0.000000
 51
0.000000
  7
EASYDRAW_FONT
 72
     5
 11
2802.108154
 21
1017.034424
  0
LINE
  8
CSLAYER1
  6
CONTINUOUS
 62
     5
 10
2698.501798
 20
1063.464552
 11
2821.459808
 21
1063.464552
  0
LINE
  8
CSLAYER1
  6
CONTINUOUS
 62
     5
 10
2821.459808
 20
1063.464552
 11
2821.459808
 21
1010.604099
  0
LINE
  8
CSLAYER1
  6
CONTINUOUS
 62
     5
 10
2821.459808
 20
1010.604099
 11
2698.501798
 21
1010.604099
  0
LINE
  8
CSLAYER1
  6
CONTINUOUS
 62
     5
 10
2698.501798
 20
1010.604099
 11
2698.501798
 21
1063.464552
  0
LINE
  8
CSLAYER1
  6
CONTINUOUS
 62
     3
 10
2610.341525
 20
894.014813
 11
2910.341525
 21
894.014813
  0
LINE
  8
CSLAYER1
  6
CONTINUOUS
 62
     3
 10
2610.341525
 20
864.014813
 11
2910.341525
 21
864.014813
  0
LINE
  8
CSLAYER1
  6
CONTINUOUS
 62
     3
 10
2660.341525
 20
854.014813
 11
2860.341525
 21
854.014813
  0
DIMENSION
  8
CSLAYER1
 62
     3
  2
*D0004
 10
2511.581129
 20
894.014813
 11
2501.580811
 21
854.014832
 13
2561.863997
 23
814.014813
 14
2611.863997
 24
894.014813
 50
90.000000
  0
LINE
  8
CSLAYER1
  6
CONTINUOUS
 62
     3
 10
2857.341525
 20
864.014813
 11
2857.341525
 21
861.714813
  0
LINE
  8
CSLAYER1
  6
CONTINUOUS
 62
     3
 10
2857.341525
 20
861.714813
 11
2852.841525
 21
861.714813
  0
LINE
  8
CSLAYER1
  6
CONTINUOUS
 62
     3
 10
2852.841525
 20
864.014813
 11
2852.841525
 21
861.714813
  0
LINE
  8
CSLAYER1
  6
CONTINUOUS
 62
     3
 10
2839.341525
 20
864.014813
 11
2839.341525
 21
854.014813
  0
LINE
  8
CSLAYER1
  6
CONTINUOUS
 62
     3
 10
2847.341525
 20
864.014813
 11
2847.341525
 21
854.014813
  0
LINE
  8
CSLAYER1
  6
CONTINUOUS
 62
     3
 10
2848.341525
 20
864.014813
 11
2848.341525
 21
854.014813
  0
LINE
  8
CSLAYER1
  6
CONTINUOUS
 62
     3
 10
2850.341525
 20
864.014813
 11
2850.341525
 21
855.714813
  0
LINE
  8
CSLAYER1
  6
CONTINUOUS
 62
     3
 10
2849.841525
 20
855.214813
 11
2848.341525
 21
855.214813
  0
LINE
  8
CSLAYER1
  6
CONTINUOUS
 62
     3
 10
2849.841525
 20
855.214813
 11
2850.341525
 21
855.714813
  0
LINE
  8
CSLAYER1
  6
CENTER
 62
     5
 10
2851.341525
 20
860.214813
 11
2669.341525
 21
860.214813
  0
LINE
  8
CSLAYER1
  6
CONTINUOUS
 62
     3
 10
2831.341525
 20
864.014813
 11
2831.341525
 21
854.014813
  0
LINE
  8
CSLAYER1
  6
CONTINUOUS
 62
     3
 10
2806.341525
 20
854.014813
 11
2806.341525
 21
864.014813
  0
LINE
  8
CSLAYER1
  6
CONTINUOUS
 62
     3
 10
2815.341525
 20
854.014813
 11
2815.341525
 21
864.014813
  0
LINE
  8
CSLAYER1
  6
CONTINUOUS
 62
     3
 10
2818.341525
 20
854.014813
 11
2818.341525
 21
864.014813
  0
LINE
  8
CSLAYER1
  6
CONTINUOUS
 62
     3
 10
2827.341525
 20
854.014813
 11
2827.341525
 21
864.014813
  0
LINE
  8
CSLAYER1
  6
CONTINUOUS
 62
     3
 10
2663.341525
 20
864.014813
 11
2663.341525
 21
861.714813
  0
LINE
  8
CSLAYER1
  6
CONTINUOUS
 62
     3
 10
2663.341525
 20
861.714813
 11
2667.841525
 21
861.714813
  0
LINE
  8
CSLAYER1
  6
CONTINUOUS
 62
     3
 10
2667.841525
 20
864.014813
 11
2667.841525
 21
861.714813
  0
LINE
  8
CSLAYER1
  6
CONTINUOUS
 62
     3
 10
2681.341525
 20
864.014813
 11
2681.341525
 21
854.014813
  0
LINE
  8
CSLAYER1
  6
CONTINUOUS
 62
     3
 10
2673.341525
 20
864.014813
 11
2673.341525
 21
854.014813
  0
LINE
  8
CSLAYER1
  6
CONTINUOUS
 62
     3
 10
2672.341525
 20
864.014813
 11
2672.341525
 21
854.014813
  0
LINE
  8
CSLAYER1
  6
CONTINUOUS
 62
     3
 10
2670.341525
 20
864.014813
 11
2670.341525
 21
855.714813
  0
LINE
  8
CSLAYER1
  6
CONTINUOUS
 62
     3
 10
2670.841525
 20
855.214813
 11
2672.341525
 21
855.214813
  0
LINE
  8
CSLAYER1
  6
CONTINUOUS
 62
     3
 10
2670.841525
 20
855.214813
 11
2670.341525
 21
855.714813
  0
LINE
  8
CSLAYER1
  6
CONTINUOUS
 62
     3
 10
2689.341525
 20
864.014813
 11
2689.341525
 21
854.014813
  0
LINE
  8
CSLAYER1
  6
CONTINUOUS
 62
     3
 10
2714.341525
 20
854.014813
 11
2714.341525
 21
864.014813
  0
LINE
  8
CSLAYER1
  6
CONTINUOUS
 62
     3
 10
2705.341525
 20
854.014813
 11
2705.341525
 21
864.014813
  0
LINE
  8
CSLAYER1
  6
CONTINUOUS
 62
     3
 10
2702.341525
 20
854.014813
 11
2702.341525
 21
864.014813
  0
LINE
  8
CSLAYER1
  6
CONTINUOUS
 62
     3
 10
2693.341525
 20
854.014813
 11
2693.341525
 21
864.014813
  0
TEXT
  8
CSLAYER1
 62
     7
 10
754.126221
 20
512.720947
 40
40.000000
 41
0.843750
  1
上昇時
 50
0.000000
 51
0.000000
  7
EASYDRAW_FONT
 72
     5
 11
844.126221
 21
512.720947
  0
LINE
  8
CSLAYER1
  6
CONTINUOUS
 62
     5
 10
740.519830
 20
559.151048
 11
863.477840
 21
559.151048
  0
LINE
  8
CSLAYER1
  6
CONTINUOUS
 62
     5
 10
863.477840
 20
559.151048
 11
863.477840
 21
506.290595
  0
LINE
  8
CSLAYER1
  6
CONTINUOUS
 62
     5
 10
863.477840
 20
506.290595
 11
740.519830
 21
506.290595
  0
LINE
  8
CSLAYER1
  6
CONTINUOUS
 62
     5
 10
740.519830
 20
506.290595
 11
740.519830
 21
559.151048
  0
TEXT
  8
CSLAYER1
 62
     7
 10
1402.631348
 20
2256.730469
 40
40.000000
 41
0.843750
  1
下降時
 50
0.000000
 51
0.000000
  7
EASYDRAW_FONT
 72
     5
 11
1492.631348
 21
2256.730469
  0
LINE
  8
CSLAYER1
  6
CONTINUOUS
 62
     5
 10
1389.024933
 20
2303.160678
 11
1511.982943
 21
2303.160678
  0
LINE
  8
CSLAYER1
  6
CONTINUOUS
 62
     5
 10
1511.982943
 20
2303.160678
 11
1511.982943
 21
2250.300225
  0
LINE
  8
CSLAYER1
  6
CONTINUOUS
 62
     5
 10
1511.982943
 20
2250.300225
 11
1389.024933
 21
2250.300225
  0
LINE
  8
CSLAYER1
  6
CONTINUOUS
 62
     5
 10
1389.024933
 20
2250.300225
 11
1389.024933
 21
2303.160678
  0
INSERT
  8
CSLAYER1
  2
BLKF0005
 10
0.0
 20
0.0
 30
0.0
  0
INSERT
  8
CSLAYER1
  2
BLKF0006
 10
0.0
 20
0.0
 30
0.0
  0
LINE
  8
CSLAYER1
  6
CONTINUOUS
 62
     3
 10
2194.336170
 20
854.014813
 11
2194.336170
 21
814.014813
  0
DIMENSION
  8
CSLAYER1
 62
     3
  2
*D0005
 10
2331.581129
 20
894.014813
 11
2321.581055
 21
854.014832
 13
2194.036170
 23
814.014813
 14
2194.036170
 24
894.014813
 50
90.000000
 70
1
  0
DIMENSION
  8
CSLAYER1
 62
     3
  2
*D0006
 10
2331.581129
 20
894.014813
 11
2321.581055
 21
1159.796509
 13
2331.581129
 23
1425.578484
 14
2331.581129
 24
894.014813
 50
90.000000
 70
1
  0
DIMENSION
  8
CSLAYER1
 62
     3
  2
*D0007
 10
2213.881129
 20
1525.578484
 11
1813.881104
 21
1535.578369
 13
1413.881129
 23
1425.578484
 14
2213.881129
 24
1425.578484
 70
1
  0
LINE
  8
CSLAYER1
  6
CONTINUOUS
 62
     3
 10
1394.036170
 20
2131.958687
 11
2194.036170
 21
2131.958687
  0
INSERT
  8
CSLAYER1
  2
BLKF0007
 10
0.0
 20
0.0
 30
0.0
  0
ARC
  8
CSLAYER1
  6
CONTINUOUS
 62
     3
 10
1401.336170
 20
1841.958687
 40
10.000000
 50
180.000000
 51
223.113606
  0
LINE
  8
CSLAYER1
  6
CONTINUOUS
 62
     3
 10
1394.036170
 20
1831.958687
 11
2194.036170
 21
1831.958687
  0
LINE
  8
CSLAYER1
  6
CONTINUOUS
 62
     3
 10
2194.036170
 20
2131.958687
 11
2194.036170
 21
1831.958687
  0
LINE
  8
CSLAYER1
  6
CONTINUOUS
 62
     3
 10
655.927344
 20
1425.578484
 11
655.927344
 21
1395.578484
  0
LINE
  8
CSLAYER1
  6
CONTINUOUS
 62
     3
 10
955.927344
 20
1425.578484
 11
955.927344
 21
1395.578484
  0
DIMENSION
  8
CSLAYER1
 62
     3
  2
*D0008
 10
955.927344
 20
1525.578484
 11
805.927246
 21
1535.578369
 13
655.927344
 23
1425.578484
 14
955.927344
 24
1425.578484
 70
1
  0
LINE
  8
CSLAYER1
  6
CONTINUOUS
 62
     3
 10
2610.341525
 20
864.014813
 11
2610.341525
 21
894.014813
  0
LINE
  8
CSLAYER1
  6
CONTINUOUS
 62
     3
 10
2910.341525
 20
864.014813
 11
2910.341525
 21
894.014813
  0
LINE
  8
CSLAYER1
  6
CONTINUOUS
 62
     5
 10
3490.433897
 20
2359.659972
 11
2610.433897
 21
2359.659972
  0
LINE
  8
CSLAYER1
  6
CONTINUOUS
 62
     5
 10
3490.433897
 20
2306.326639
 11
2610.433897
 21
2306.326639
  0
LINE
  8
CSLAYER1
  6
CONTINUOUS
 62
     5
 10
3490.433897
 20
2252.993305
 11
2610.433897
 21
2252.993305
  0
LINE
  8
CSLAYER1
  6
CONTINUOUS
 62
     5
 10
3490.433897
 20
2146.326639
 11
2610.433897
 21
2146.326639
  0
LINE
  8
CSLAYER1
  6
CONTINUOUS
 62
     5
 10
3490.433897
 20
2039.659972
 11
2610.433897
 21
2039.659972
  0
LINE
  8
CSLAYER1
  6
CONTINUOUS
 62
     5
 10
3490.433897
 20
1826.326639
 11
2610.433897
 21
1826.326639
  0
LINE
  8
CSLAYER1
  6
CONTINUOUS
 62
     5
 10
3490.433897
 20
1826.326635
 11
2610.433897
 21
1826.326635
  0
LINE
  8
CSLAYER1
  6
CONTINUOUS
 62
     5
 10
3490.433897
 20
1772.993302
 11
2610.433897
 21
1772.993302
  0
TEXT
  8
CSLAYER1
 62
     3
 10
2623.766846
 20
2366.326416
 40
40.000000
 41
0.838235
  1
仕    様
 50
0.000000
 51
0.000000
  7
EASYDRAW_FONT
 72
     5
 11
2813.766846
 21
2366.326416
  0
TEXT
  8
CSLAYER1
 62
     3
 10
2623.766846
 20
2312.993164
 40
40.000000
 41
0.838235
  1
型    式
 50
0.000000
 51
0.000000
  7
EASYDRAW_FONT
 72
     5
 11
2813.766846
 21
2312.993164
  0
TEXT
  8
CSLAYER1
 62
     3
 10
2988.767090
 20
2312.993164
 40
40.000000
 41
0.817105
  1
GLSH-250-3008
 50
0.000000
 51
0.000000
  7
EASYDRAW_FONT
 72
     5
 11
3402.767090
 21
2312.993164
  0
TEXT
  8
CSLAYER1
 62
     3
 10
2623.766846
 20
2259.659912
 40
40.000000
 41
0.859091
  1
均等荷重
 50
0.000000
 51
0.000000
  7
EASYDRAW_FONT
 72
     5
 11
2749.766846
 21
2259.659912
  0
TEXT
  8
CSLAYER1
 62
     3
 10
3415.100342
 20
2259.659912
 40
40.000000
 41
0.930000
  1
ｋｇ
 50
0.000000
 51
0.000000
  7
EASYDRAW_FONT
 72
     5
 11
3477.100342
 21
2259.659912
  0
TEXT
  8
CSLAYER1
 62
     3
 10
2623.766846
 20
2152.993164
 40
40.000000
 41
0.838235
  1
テーブル高サ
 50
0.000000
 51
0.000000
  7
EASYDRAW_FONT
 72
     5
 11
2813.766846
 21
2152.993164
  0
TEXT
  8
CSLAYER1
 62
     3
 10
3415.100342
 20
2152.993164
 40
40.000000
 41
0.930000
  1
ｍｍ
 50
0.000000
 51
0.000000
  7
EASYDRAW_FONT
 72
     5
 11
3477.100342
 21
2152.993164
  0
TEXT
  8
CSLAYER1
 62
     3
 10
2623.766846
 20
2046.326416
 40
40.000000
 41
0.838235
  1
全    長
 50
0.000000
 51
0.000000
  7
EASYDRAW_FONT
 72
     5
 11
2813.766846
 21
2046.326416
  0
TEXT
  8
CSLAYER1
 62
     3
 10
3148.767090
 20
2046.326416
 40
40.000000
 41
0.881250
  1
803
 50
0.000000
 51
0.000000
  7
EASYDRAW_FONT
 72
     5
 11
3242.767090
 21
2046.326416
  0
TEXT
  8
CSLAYER1
 62
     3
 10
3132.767090
 20
1832.992920
 40
40.000000
 41
0.859091
  1
約 37
 50
0.000000
 51
0.000000
  7
EASYDRAW_FONT
 72
     5
 11
3258.767090
 21
1832.992920
  0
TEXT
  8
CSLAYER1
 62
     3
 10
2623.766846
 20
1832.992920
 40
40.000000
 41
0.846429
  1
ポンプ回数
 50
0.000000
 51
0.000000
  7
EASYDRAW_FONT
 72
     5
 11
2781.766846
 21
1832.992920
  0
TEXT
  8
CSLAYER1
 62
     3
 10
2623.766846
 20
1779.659668
 40
40.000000
 41
0.832500
  1
自     重
 50
0.000000
 51
0.000000
  7
EASYDRAW_FONT
 72
     5
 11
2845.766846
 21
1779.659668
  0
TEXT
  8
CSLAYER1
 62
     3
 10
2623.766846
 20
1726.326416
 40
40.000000
 41
0.832500
  1
塗  装  色
 50
0.000000
 51
0.000000
  7
EASYDRAW_FONT
 72
     5
 11
2845.766846
 21
1726.326416
  0
TEXT
  8
CSLAYER1
 62
     3
 10
3148.767090
 20
2259.659912
 40
40.000000
 41
0.881250
  1
250
 50
0.000000
 51
0.000000
  7
EASYDRAW_FONT
 72
     5
 11
3242.767090
 21
2259.659912
  0
TEXT
  8
CSLAYER1
 62
     3
 10
3100.767090
 20
2152.993164
 40
40.000000
 41
0.838235
  1
80～580
 50
0.000000
 51
0.000000
  7
EASYDRAW_FONT
 72
     5
 11
3290.767090
 21
2152.993164
  0
TEXT
  8
CSLAYER1
 62
     3
 10
3415.100342
 20
2046.326416
 40
40.000000
 41
0.930000
  1
ｍｍ
 50
0.000000
 51
0.000000
  7
EASYDRAW_FONT
 72
     5
 11
3477.100342
 21
2046.326416
  0
LINE
  8
CSLAYER1
  6
CONTINUOUS
 62
     5
 10
3490.433897
 20
1986.326639
 11
2610.433897
 21
1986.326639
  0
TEXT
  8
CSLAYER1
 62
     3
 10
2623.766846
 20
1992.992920
 40
40.000000
 41
0.838235
  1
全    幅
 50
0.000000
 51
0.000000
  7
EASYDRAW_FONT
 72
     5
 11
2813.766846
 21
1992.992920
  0
TEXT
  8
CSLAYER1
 62
     3
 10
3148.767090
 20
1992.992920
 40
40.000000
 41
0.881250
  1
300
 50
0.000000
 51
0.000000
  7
EASYDRAW_FONT
 72
     5
 11
3242.767090
 21
1992.992920
  0
TEXT
  8
CSLAYER1
 62
     3
 10
3415.100342
 20
1992.992920
 40
40.000000
 41
0.930000
  1
ｍｍ
 50
0.000000
 51
0.000000
  7
EASYDRAW_FONT
 72
     5
 11
3477.100342
 21
1992.992920
  0
TEXT
  8
CSLAYER1
 62
     3
 10
3415.100342
 20
1779.659668
 40
40.000000
 41
0.930000
  1
ｋｇ
 50
0.000000
 51
0.000000
  7
EASYDRAW_FONT
 72
     5
 11
3477.100342
 21
1779.659668
  0
LINE
  8
CSLAYER1
  6
CONTINUOUS
 62
     5
 10
3490.433897
 20
2199.659972
 11
2610.433897
 21
2199.659972
  0
TEXT
  8
CSLAYER1
 62
     3
 10
2623.766846
 20
2206.326660
 40
40.000000
 41
0.838235
  1
テーブル寸法
 50
0.000000
 51
0.000000
  7
EASYDRAW_FONT
 72
     5
 11
2813.766846
 21
2206.326660
  0
TEXT
  8
CSLAYER1
 62
     3
 10
3415.100342
 20
2206.326660
 40
40.000000
 41
0.930000
  1
ｍｍ
 50
0.000000
 51
0.000000
  7
EASYDRAW_FONT
 72
     5
 11
3477.100342
 21
2206.326660
  0
TEXT
  8
CSLAYER1
 62
     3
 10
3052.767090
 20
2206.326660
 40
40.000000
 41
0.825000
  1
800L×300W
 50
0.000000
 51
0.000000
  7
EASYDRAW_FONT
 72
     5
 11
3338.767090
 21
2206.326660
  0
LINE
  8
CSLAYER1
  6
CONTINUOUS
 62
     5
 10
3490.433897
 20
2092.993305
 11
2610.433897
 21
2092.993305
  0
TEXT
  8
CSLAYER1
 62
     3
 10
3415.100342
 20
2099.659912
 40
40.000000
 41
0.930000
  1
ｍｍ
 50
0.000000
 51
0.000000
  7
EASYDRAW_FONT
 72
     5
 11
3477.100342
 21
2099.659912
  0
TEXT
  8
CSLAYER1
 62
     3
 10
3148.767090
 20
2099.659912
 40
40.000000
 41
0.881250
  1
500
 50
0.000000
 51
0.000000
  7
EASYDRAW_FONT
 72
     5
 11
3242.767090
 21
2099.659912
  0
TEXT
  8
CSLAYER1
 62
     3
 10
2625.599365
 20
2099.659912
 40
40.000000
 41
0.846429
  1
ストローク
 50
0.000000
 51
0.000000
  7
EASYDRAW_FONT
 72
     5
 11
2783.599365
 21
2099.659912
  0
LINE
  8
CSLAYER1
  6
CONTINUOUS
 62
     5
 10
3490.433897
 20
1932.993305
 11
2610.433897
 21
1932.993305
  0
TEXT
  8
CSLAYER1
 62
     3
 10
2623.766846
 20
1939.659668
 40
40.000000
 41
0.838235
  1
全    高
 50
0.000000
 51
0.000000
  7
EASYDRAW_FONT
 72
     5
 11
2813.766846
 21
1939.659668
  0
TEXT
  8
CSLAYER1
 62
     3
 10
3148.767090
 20
1939.659668
 40
40.000000
 41
0.881250
  1
 80
 50
0.000000
 51
0.000000
  7
EASYDRAW_FONT
 72
     5
 11
3242.767090
 21
1939.659668
  0
TEXT
  8
CSLAYER1
 62
     3
 10
3415.100342
 20
1939.659668
 40
40.000000
 41
0.930000
  1
ｍｍ
 50
0.000000
 51
0.000000
  7
EASYDRAW_FONT
 72
     5
 11
3477.100342
 21
1939.659668
  0
LINE
  8
CSLAYER1
  6
CONTINUOUS
 62
     5
 10
3490.433897
 20
1879.659972
 11
2610.433897
 21
1879.659972
  0
TEXT
  8
CSLAYER1
 62
     3
 10
2623.766846
 20
1886.326294
 40
40.000000
 41
0.846429
  1
リフト方式
 50
0.000000
 51
0.000000
  7
EASYDRAW_FONT
 72
     5
 11
2781.766846
 21
1886.326294
  0
TEXT
  8
CSLAYER1
 62
     3
 10
3116.767090
 20
1886.326294
 40
40.000000
 41
0.846429
  1
足踏油圧式
 50
0.000000
 51
0.000000
  7
EASYDRAW_FONT
 72
     5
 11
3274.767090
 21
1886.326294
  0
LINE
  8
CSLAYER1
  6
CONTINUOUS
 62
     5
 10
2914.433897
 20
1719.659969
 11
2914.433897
 21
2359.659972
  0
TEXT
  8
CSLAYER1
 62
     3
 10
3447.100342
 20
1832.993042
 40
40.000000
 41
1.125000
  1
回
 50
0.000000
 51
0.000000
  7
EASYDRAW_FONT
 72
     5
 11
3477.100342
 21
1832.993042
  0
LINE
  8
CSLAYER1
  6
CENTER
 62
     5
 10
1262.786249
 20
2011.958687
 11
1394.336170
 21
2011.958687
  0
LINE
  8
CSLAYER1
  6
CONTINUOUS
 62
     3
 10
1262.786249
 20
2016.108687
 11
1394.036170
 21
2016.108687
  0
LINE
  8
CSLAYER1
  6
CONTINUOUS
 62
     3
 10
1262.786249
 20
2007.808687
 11
1394.036170
 21
2007.808687
  0
LINE
  8
CSLAYER2
  6
CONTINUOUS
 62
     5
 10
241.860586
 20
1695.550383
 11
241.860586
 21
2399.659972
  0
LINE
  8
CSLAYER2
  6
CONTINUOUS
 62
     5
 10
1043.154717
 20
2399.659972
 11
241.860586
 21
2399.659972
  0
INSERT
  8
CSLAYER1
  2
BLKF0008
 10
0.0
 20
0.0
 30
0.0
  0
INSERT
  8
CSLAYER1
  2
BLKF0009
 10
0.0
 20
0.0
 30
0.0
  0
INSERT
  8
CSLAYER1
  2
BLKF0010
 10
0.0
 20
0.0
 30
0.0
  0
LINE
  8
CSLAYER1
  6
CONTINUOUS
 62
     7
 10
671.007689
 20
1838.077761
 11
798.533985
 21
1980.098522
  0
LINE
  8
CSLAYER1
  6
CONTINUOUS
 62
     7
 10
447.831797
 20
1925.895780
 11
633.203568
 21
1994.934759
  0
LINE
  8
CSLAYER1
  6
CONTINUOUS
 62
     7
 10
452.897378
 20
1911.941047
 11
672.360035
 21
1993.676673
  0
LINE
  8
CSLAYER1
  6
CONTINUOUS
 62
     7
 10
659.400922
 20
1847.969649
 11
751.162807
 21
1950.161064
  0
LINE
  8
CSLAYER1
  6
CONTINUOUS
 62
     7
 10
781.677938
 20
2127.212043
 11
781.677938
 21
2021.815786
  0
LINE
  8
CSLAYER1
  6
CONTINUOUS
 62
     7
 10
781.677938
 20
2127.212043
 11
661.697984
 21
2170.881175
  0
LINE
  8
CSLAYER1
  6
CONTINUOUS
 62
     7
 10
753.183522
 20
1943.521351
 11
781.677938
 21
1961.326639
  0
LINE
  8
CSLAYER1
  6
CONTINUOUS
 62
     7
 10
753.183522
 20
2109.406756
 11
753.183522
 21
1943.521351
  0
LINE
  8
CSLAYER1
  6
CONTINUOUS
 62
     7
 10
753.183522
 20
2109.406756
 11
781.677938
 21
2127.212043
  0
LINE
  8
CSLAYER1
  6
CONTINUOUS
 62
     7
 10
662.092129
 20
2167.131138
 11
662.092129
 21
2132.305100
  0
LINE
  8
CSLAYER1
  6
CONTINUOUS
 62
     7
 10
633.203568
 20
2153.075888
 11
661.697984
 21
2170.881175
  0
LINE
  8
CSLAYER1
  6
CONTINUOUS
 62
     7
 10
753.183522
 20
1943.521351
 11
751.162807
 21
1944.256831
  0
LINE
  8
CSLAYER1
  6
CONTINUOUS
 62
     7
 10
751.162807
 20
1968.460399
 11
681.751509
 21
1993.724045
  0
LINE
  8
CSLAYER1
  6
CONTINUOUS
 62
     7
 10
777.833580
 20
2126.807985
 11
661.895056
 21
2169.006157
  0
LINE
  8
CSLAYER1
  6
CONTINUOUS
 62
     7
 10
711.026453
 20
2085.062259
 11
777.833580
 21
2126.807985
  0
LINE
  8
CSLAYER1
  6
CONTINUOUS
 62
     7
 10
753.183522
 20
2109.406756
 11
751.162807
 21
2110.142236
  0
LINE
  8
CSLAYER1
  6
CONTINUOUS
 62
     7
 10
751.162807
 20
2110.142236
 11
751.162807
 21
1968.460399
  0
LINE
  8
CSLAYER1
  6
CONTINUOUS
 62
     7
 10
633.203568
 20
2153.075888
 11
633.203568
 21
2151.077725
  0
LINE
  8
CSLAYER1
  6
CONTINUOUS
 62
     7
 10
633.203568
 20
2153.075888
 11
661.697984
 21
2170.881175
  0
LINE
  8
CSLAYER1
  6
CONTINUOUS
 62
     7
 10
635.224283
 20
2152.340408
 11
661.895056
 21
2169.006157
  0
LINE
  8
CSLAYER1
  6
CONTINUOUS
 62
     7
 10
635.224283
 20
2152.340408
 11
633.203568
 21
2153.075888
  0
LINE
  8
CSLAYER1
  6
CONTINUOUS
 62
     7
 10
635.224283
 20
1984.285454
 11
651.677489
 21
1994.566558
  0
LINE
  8
CSLAYER1
  6
CONTINUOUS
 62
     7
 10
709.005738
 20
2085.797739
 11
773.989222
 21
2126.403927
  0
LINE
  8
CSLAYER1
  6
CONTINUOUS
 62
     7
 10
707.426267
 20
2082.948297
 11
707.426267
 21
2015.862541
  0
LINE
  8
CSLAYER1
  6
CONTINUOUS
 62
     7
 10
709.446982
 20
2082.212817
 11
709.446982
 21
2016.216896
  0
LINE
  8
CSLAYER1
  6
CONTINUOUS
 62
     7
 10
773.989222
 20
2126.403927
 11
757.065734
 21
2132.563573
  0
LINE
  8
CSLAYER1
  6
CONTINUOUS
 62
     7
 10
707.426267
 20
2084.268416
 11
598.378614
 21
2123.958516
  0
LINE
  8
CSLAYER1
  6
CONTINUOUS
 62
     7
 10
707.426267
 20
2017.068416
 11
673.946054
 21
2029.254217
  0
LINE
  8
CSLAYER1
  6
CONTINUOUS
 62
     7
 10
598.688115
 20
2127.511913
 11
662.092129
 21
2167.131138
  0
LINE
  8
CSLAYER1
  6
CONTINUOUS
 62
     7
 10
596.667400
 20
2128.247394
 11
633.203568
 21
2151.077725
  0
LINE
  8
CSLAYER1
  6
CONTINUOUS
 62
     7
 10
593.508458
 20
2122.548510
 11
593.508458
 21
2056.693429
  0
LINE
  8
CSLAYER1
  6
CONTINUOUS
 62
     7
 10
595.529173
 20
2121.813030
 11
595.529173
 21
2057.679588
  0
LINE
  8
CSLAYER1
  6
CONTINUOUS
 62
     7
 10
598.378614
 20
2123.958516
 11
598.378614
 21
2056.758516
  0
LINE
  8
CSLAYER1
  6
CONTINUOUS
 62
     7
 10
598.378614
 20
2123.958516
 11
630.270953
 21
2143.887061
  0
LINE
  8
CSLAYER1
  6
CONTINUOUS
 62
     7
 10
738.770124
 20
2104.396592
 11
630.270953
 21
2143.887061
  0
LINE
  8
CSLAYER1
  6
CONTINUOUS
 62
     7
 10
714.587510
 20
2013.367454
 11
751.162807
 21
2036.222236
  0
LINE
  8
CSLAYER1
  6
CONTINUOUS
 62
     7
 10
711.428990
 20
2013.153404
 11
708.373565
 21
2014.265488
  0
LINE
  8
CSLAYER1
  6
CONTINUOUS
 62
     7
 10
657.445068
 20
1992.467332
 11
634.486094
 21
2000.823715
  0
LINE
  8
CSLAYER1
  6
CONTINUOUS
 62
     7
 10
657.445068
 20
1992.467332
 11
661.341747
 21
1994.902247
  0
LINE
  8
CSLAYER1
  6
CONTINUOUS
 62
     7
 10
641.546977
 20
2039.100147
 11
642.832128
 21
2039.903198
  0
LINE
  8
CSLAYER1
  6
CONTINUOUS
 62
     7
 10
649.389092
 20
2026.282204
 11
650.794653
 21
2027.160496
  0
LINE
  8
CSLAYER1
  6
CONTINUOUS
 62
     7
 10
642.832128
 20
2039.903198
 11
643.165785
 21
2040.077979
  0
LINE
  8
CSLAYER1
  6
CONTINUOUS
 62
     7
 10
643.165785
 20
2040.077979
 11
643.527203
 21
2040.202939
  0
LINE
  8
CSLAYER1
  6
CONTINUOUS
 62
     7
 10
643.527203
 20
2040.202939
 11
643.913630
 21
2040.277128
  0
LINE
  8
CSLAYER1
  6
CONTINUOUS
 62
     7
 10
643.913630
 20
2040.277128
 11
644.322126
 21
2040.299982
  0
LINE
  8
CSLAYER1
  6
CONTINUOUS
 62
     7
 10
644.322126
 20
2040.299982
 11
644.749582
 21
2040.271326
  0
LINE
  8
CSLAYER1
  6
CONTINUOUS
 62
     7
 10
644.749582
 20
2040.271326
 11
645.192745
 21
2040.191378
  0
LINE
  8
CSLAYER1
  6
CONTINUOUS
 62
     7
 10
645.192745
 20
2040.191378
 11
645.648242
 21
2040.060748
  0
LINE
  8
CSLAYER1
  6
CONTINUOUS
 62
     7
 10
645.648242
 20
2040.060748
 11
646.112607
 21
2039.880428
  0
LINE
  8
CSLAYER1
  6
CONTINUOUS
 62
     7
 10
646.112607
 20
2039.880428
 11
646.582304
 21
2039.651792
  0
LINE
  8
CSLAYER1
  6
CONTINUOUS
 62
     7
 10
646.582304
 20
2039.651792
 11
647.053761
 21
2039.376580
  0
LINE
  8
CSLAYER1
  6
CONTINUOUS
 62
     7
 10
647.053761
 20
2039.376580
 11
647.523388
 21
2039.056885
  0
LINE
  8
CSLAYER1
  6
CONTINUOUS
 62
     7
 10
647.523388
 20
2039.056885
 11
647.987612
 21
2038.695142
  0
LINE
  8
CSLAYER1
  6
CONTINUOUS
 62
     7
 10
647.987612
 20
2038.695142
 11
648.442899
 21
2038.294103
  0
LINE
  8
CSLAYER1
  6
CONTINUOUS
 62
     7
 10
648.442899
 20
2038.294103
 11
648.885785
 21
2037.856820
  0
LINE
  8
CSLAYER1
  6
CONTINUOUS
 62
     7
 10
648.885785
 20
2037.856820
 11
649.312899
 21
2037.386622
  0
LINE
  8
CSLAYER1
  6
CONTINUOUS
 62
     7
 10
649.312899
 20
2037.386622
 11
649.720989
 21
2036.887086
  0
LINE
  8
CSLAYER1
  6
CONTINUOUS
 62
     7
 10
649.720989
 20
2036.887086
 11
650.106951
 21
2036.362016
  0
LINE
  8
CSLAYER1
  6
CONTINUOUS
 62
     7
 10
650.106951
 20
2036.362016
 11
650.467848
 21
2035.815405
  0
LINE
  8
CSLAYER1
  6
CONTINUOUS
 62
     7
 10
650.467848
 20
2035.815405
 11
650.800931
 21
2035.251416
  0
LINE
  8
CSLAYER1
  6
CONTINUOUS
 62
     7
 10
650.800931
 20
2035.251416
 11
651.103667
 21
2034.674339
  0
LINE
  8
CSLAYER1
  6
CONTINUOUS
 62
     7
 10
651.103667
 20
2034.674339
 11
651.373752
 21
2034.088568
  0
LINE
  8
CSLAYER1
  6
CONTINUOUS
 62
     7
 10
651.373752
 20
2034.088568
 11
651.609129
 21
2033.498559
  0
LINE
  8
CSLAYER1
  6
CONTINUOUS
 62
     7
 10
651.609129
 20
2033.498559
 11
651.808008
 21
2032.908804
  0
LINE
  8
CSLAYER1
  6
CONTINUOUS
 62
     7
 10
651.808008
 20
2032.908804
 11
651.968874
 21
2032.323791
  0
LINE
  8
CSLAYER1
  6
CONTINUOUS
 62
     7
 10
651.968874
 20
2032.323791
 11
652.090505
 21
2031.747971
  0
LINE
  8
CSLAYER1
  6
CONTINUOUS
 62
     7
 10
652.090505
 20
2031.747971
 11
652.171973
 21
2031.185728
  0
LINE
  8
CSLAYER1
  6
CONTINUOUS
 62
     7
 10
652.171973
 20
2031.185728
 11
652.212660
 21
2030.641341
  0
LINE
  8
CSLAYER1
  6
CONTINUOUS
 62
     7
 10
652.212660
 20
2030.641341
 11
652.212254
 21
2030.118952
  0
LINE
  8
CSLAYER1
  6
CONTINUOUS
 62
     7
 10
652.212254
 20
2030.118952
 11
652.170760
 21
2029.622537
  0
LINE
  8
CSLAYER1
  6
CONTINUOUS
 62
     7
 10
652.170760
 20
2029.622537
 11
652.088493
 21
2029.155874
  0
LINE
  8
CSLAYER1
  6
CONTINUOUS
 62
     7
 10
652.088493
 20
2029.155874
 11
651.966080
 21
2028.722515
  0
LINE
  8
CSLAYER1
  6
CONTINUOUS
 62
     7
 10
651.966080
 20
2028.722515
 11
651.804451
 21
2028.325758
  0
LINE
  8
CSLAYER1
  6
CONTINUOUS
 62
     7
 10
651.804451
 20
2028.325758
 11
651.604838
 21
2027.968623
  0
LINE
  8
CSLAYER1
  6
CONTINUOUS
 62
     7
 10
651.604838
 20
2027.968623
 11
651.368758
 21
2027.653827
  0
LINE
  8
CSLAYER1
  6
CONTINUOUS
 62
     7
 10
651.368758
 20
2027.653827
 11
651.098010
 21
2027.383766
  0
LINE
  8
CSLAYER1
  6
CONTINUOUS
 62
     7
 10
651.098010
 20
2027.383766
 11
650.794653
 21
2027.160496
  0
LINE
  8
CSLAYER1
  6
CONTINUOUS
 62
     7
 10
641.562872
 20
2039.096307
 11
641.760225
 21
2039.199687
  0
LINE
  8
CSLAYER1
  6
CONTINUOUS
 62
     7
 10
641.760225
 20
2039.199687
 11
642.121642
 21
2039.324647
  0
LINE
  8
CSLAYER1
  6
CONTINUOUS
 62
     7
 10
642.121642
 20
2039.324647
 11
642.508069
 21
2039.398837
  0
LINE
  8
CSLAYER1
  6
CONTINUOUS
 62
     7
 10
642.508069
 20
2039.398837
 11
642.916565
 21
2039.421690
  0
LINE
  8
CSLAYER1
  6
CONTINUOUS
 62
     7
 10
642.916565
 20
2039.421690
 11
643.344022
 21
2039.393034
  0
LINE
  8
CSLAYER1
  6
CONTINUOUS
 62
     7
 10
643.344022
 20
2039.393034
 11
643.787185
 21
2039.313087
  0
LINE
  8
CSLAYER1
  6
CONTINUOUS
 62
     7
 10
643.787185
 20
2039.313087
 11
644.242682
 21
2039.182456
  0
LINE
  8
CSLAYER1
  6
CONTINUOUS
 62
     7
 10
644.242682
 20
2039.182456
 11
644.707046
 21
2039.002137
  0
LINE
  8
CSLAYER1
  6
CONTINUOUS
 62
     7
 10
644.707046
 20
2039.002137
 11
645.176744
 21
2038.773501
  0
LINE
  8
CSLAYER1
  6
CONTINUOUS
 62
     7
 10
645.176744
 20
2038.773501
 11
645.648201
 21
2038.498288
  0
LINE
  8
CSLAYER1
  6
CONTINUOUS
 62
     7
 10
645.648201
 20
2038.498288
 11
646.117828
 21
2038.178594
  0
LINE
  8
CSLAYER1
  6
CONTINUOUS
 62
     7
 10
646.117828
 20
2038.178594
 11
646.582052
 21
2037.816851
  0
LINE
  8
CSLAYER1
  6
CONTINUOUS
 62
     7
 10
650.766413
 20
2030.307437
 11
650.807099
 21
2029.763049
  0
LINE
  8
CSLAYER1
  6
CONTINUOUS
 62
     7
 10
650.807099
 20
2029.763049
 11
650.806694
 21
2029.240660
  0
LINE
  8
CSLAYER1
  6
CONTINUOUS
 62
     7
 10
650.806694
 20
2029.240660
 11
650.765200
 21
2028.744245
  0
LINE
  8
CSLAYER1
  6
CONTINUOUS
 62
     7
 10
650.765200
 20
2028.744245
 11
650.682933
 21
2028.277582
  0
LINE
  8
CSLAYER1
  6
CONTINUOUS
 62
     7
 10
650.682933
 20
2028.277582
 11
650.560519
 21
2027.844223
  0
LINE
  8
CSLAYER1
  6
CONTINUOUS
 62
     7
 10
650.560519
 20
2027.844223
 11
650.398891
 21
2027.447466
  0
LINE
  8
CSLAYER1
  6
CONTINUOUS
 62
     7
 10
650.398891
 20
2027.447466
 11
650.199277
 21
2027.090331
  0
LINE
  8
CSLAYER1
  6
CONTINUOUS
 62
     7
 10
650.199277
 20
2027.090331
 11
649.963198
 21
2026.775535
  0
LINE
  8
CSLAYER1
  6
CONTINUOUS
 62
     7
 10
649.963198
 20
2026.775535
 11
649.692449
 21
2026.505474
  0
LINE
  8
CSLAYER1
  6
CONTINUOUS
 62
     7
 10
649.692449
 20
2026.505474
 11
649.389092
 21
2026.282204
  0
LINE
  8
CSLAYER1
  6
CONTINUOUS
 62
     7
 10
635.224283
 20
1984.285454
 11
633.203568
 21
1985.020934
  0
LINE
  8
CSLAYER1
  6
CONTINUOUS
 62
     7
 10
635.224283
 20
2000.555036
 11
635.224283
 21
1984.285454
  0
LINE
  8
CSLAYER1
  6
CONTINUOUS
 62
     7
 10
633.203568
 20
1995.517171
 11
633.203568
 21
1994.934759
  0
LINE
  8
CSLAYER1
  6
CONTINUOUS
 62
     7
 10
614.830077
 20
2110.325696
 11
615.038986
 21
2110.435129
  0
LINE
  8
CSLAYER1
  6
CONTINUOUS
 62
     7
 10
615.038986
 20
2110.435129
 11
615.265276
 21
2110.513369
  0
LINE
  8
CSLAYER1
  6
CONTINUOUS
 62
     7
 10
615.265276
 20
2110.513369
 11
615.507225
 21
2110.559820
  0
LINE
  8
CSLAYER1
  6
CONTINUOUS
 62
     7
 10
615.507225
 20
2110.559820
 11
615.762992
 21
2110.574129
  0
LINE
  8
CSLAYER1
  6
CONTINUOUS
 62
     7
 10
615.762992
 20
2110.574129
 11
616.030630
 21
2110.556187
  0
LINE
  8
CSLAYER1
  6
CONTINUOUS
 62
     7
 10
616.030630
 20
2110.556187
 11
616.308102
 21
2110.506131
  0
LINE
  8
CSLAYER1
  6
CONTINUOUS
 62
     7
 10
616.308102
 20
2110.506131
 11
616.593297
 21
2110.424340
  0
LINE
  8
CSLAYER1
  6
CONTINUOUS
 62
     7
 10
616.593297
 20
2110.424340
 11
616.884044
 21
2110.311439
  0
LINE
  8
CSLAYER1
  6
CONTINUOUS
 62
     7
 10
616.884044
 20
2110.311439
 11
617.178130
 21
2110.168286
  0
LINE
  8
CSLAYER1
  6
CONTINUOUS
 62
     7
 10
617.178130
 20
2110.168286
 11
617.473318
 21
2109.995971
  0
LINE
  8
CSLAYER1
  6
CONTINUOUS
 62
     7
 10
617.473318
 20
2109.995971
 11
617.767360
 21
2109.795804
  0
LINE
  8
CSLAYER1
  6
CONTINUOUS
 62
     7
 10
617.767360
 20
2109.795804
 11
618.058019
 21
2109.569310
  0
LINE
  8
CSLAYER1
  6
CONTINUOUS
 62
     7
 10
618.058019
 20
2109.569310
 11
618.343083
 21
2109.318212
  0
LINE
  8
CSLAYER1
  6
CONTINUOUS
 62
     7
 10
618.343083
 20
2109.318212
 11
618.620381
 21
2109.044422
  0
LINE
  8
CSLAYER1
  6
CONTINUOUS
 62
     7
 10
618.620381
 20
2109.044422
 11
618.887805
 21
2108.750022
  0
LINE
  8
CSLAYER1
  6
CONTINUOUS
 62
     7
 10
618.887805
 20
2108.750022
 11
619.143318
 21
2108.437254
  0
LINE
  8
CSLAYER1
  6
CONTINUOUS
 62
     7
 10
619.143318
 20
2108.437254
 11
619.384976
 21
2108.108497
  0
LINE
  8
CSLAYER1
  6
CONTINUOUS
 62
     7
 10
619.384976
 20
2108.108497
 11
619.610939
 21
2107.766255
  0
LINE
  8
CSLAYER1
  6
CONTINUOUS
 62
     7
 10
619.610939
 20
2107.766255
 11
619.819489
 21
2107.413131
  0
LINE
  8
CSLAYER1
  6
CONTINUOUS
 62
     7
 10
619.819489
 20
2107.413131
 11
620.009037
 21
2107.051813
  0
LINE
  8
CSLAYER1
  6
CONTINUOUS
 62
     7
 10
620.009037
 20
2107.051813
 11
620.178142
 21
2106.685051
  0
LINE
  8
CSLAYER1
  6
CONTINUOUS
 62
     7
 10
620.178142
 20
2106.685051
 11
620.325516
 21
2106.315636
  0
LINE
  8
CSLAYER1
  6
CONTINUOUS
 62
     7
 10
620.325516
 20
2106.315636
 11
620.450038
 21
2105.946379
  0
LINE
  8
CSLAYER1
  6
CONTINUOUS
 62
     7
 10
620.450038
 20
2105.946379
 11
620.550759
 21
2105.580092
  0
LINE
  8
CSLAYER1
  6
CONTINUOUS
 62
     7
 10
620.550759
 20
2105.580092
 11
620.626914
 21
2105.219561
  0
LINE
  8
CSLAYER1
  6
CONTINUOUS
 62
     7
 10
620.626914
 20
2105.219561
 11
620.677923
 21
2104.867530
  0
LINE
  8
CSLAYER1
  6
CONTINUOUS
 62
     7
 10
620.677923
 20
2104.867530
 11
620.703397
 21
2104.526680
  0
LINE
  8
CSLAYER1
  6
CONTINUOUS
 62
     7
 10
620.703397
 20
2104.526680
 11
620.703144
 21
2104.199602
  0
LINE
  8
CSLAYER1
  6
CONTINUOUS
 62
     7
 10
620.703144
 20
2104.199602
 11
620.677164
 21
2103.888788
  0
LINE
  8
CSLAYER1
  6
CONTINUOUS
 62
     7
 10
620.677164
 20
2103.888788
 11
620.625655
 21
2103.596602
  0
LINE
  8
CSLAYER1
  6
CONTINUOUS
 62
     7
 10
620.625655
 20
2103.596602
 11
620.549010
 21
2103.325268
  0
LINE
  8
CSLAYER1
  6
CONTINUOUS
 62
     7
 10
620.549010
 20
2103.325268
 11
620.447811
 21
2103.076851
  0
LINE
  8
CSLAYER1
  6
CONTINUOUS
 62
     7
 10
620.447811
 20
2103.076851
 11
620.322829
 21
2102.853242
  0
LINE
  8
CSLAYER1
  6
CONTINUOUS
 62
     7
 10
620.322829
 20
2102.853242
 11
620.175016
 21
2102.656143
  0
LINE
  8
CSLAYER1
  6
CONTINUOUS
 62
     7
 10
620.175016
 20
2102.656143
 11
620.005495
 21
2102.487053
  0
LINE
  8
CSLAYER1
  6
CONTINUOUS
 62
     7
 10
620.005495
 20
2102.487053
 11
619.815558
 21
2102.347260
  0
LINE
  8
CSLAYER1
  6
CONTINUOUS
 62
     7
 10
619.815558
 20
2102.347260
 11
619.606649
 21
2102.237826
  0
LINE
  8
CSLAYER1
  6
CONTINUOUS
 62
     7
 10
619.606649
 20
2102.237826
 11
619.380359
 21
2102.159587
  0
LINE
  8
CSLAYER1
  6
CONTINUOUS
 62
     7
 10
619.380359
 20
2102.159587
 11
619.138410
 21
2102.113135
  0
LINE
  8
CSLAYER1
  6
CONTINUOUS
 62
     7
 10
619.138410
 20
2102.113135
 11
618.882644
 21
2102.098826
  0
LINE
  8
CSLAYER1
  6
CONTINUOUS
 62
     7
 10
618.882644
 20
2102.098826
 11
618.615006
 21
2102.116768
  0
LINE
  8
CSLAYER1
  6
CONTINUOUS
 62
     7
 10
618.615006
 20
2102.116768
 11
618.337533
 21
2102.166825
  0
LINE
  8
CSLAYER1
  6
CONTINUOUS
 62
     7
 10
618.337533
 20
2102.166825
 11
618.052338
 21
2102.248615
  0
LINE
  8
CSLAYER1
  6
CONTINUOUS
 62
     7
 10
618.052338
 20
2102.248615
 11
617.761591
 21
2102.361516
  0
LINE
  8
CSLAYER1
  6
CONTINUOUS
 62
     7
 10
617.761591
 20
2102.361516
 11
617.467505
 21
2102.504669
  0
LINE
  8
CSLAYER1
  6
CONTINUOUS
 62
     7
 10
617.467505
 20
2102.504669
 11
617.172317
 21
2102.676985
  0
LINE
  8
CSLAYER1
  6
CONTINUOUS
 62
     7
 10
617.172317
 20
2102.676985
 11
616.878275
 21
2102.877151
  0
LINE
  8
CSLAYER1
  6
CONTINUOUS
 62
     7
 10
616.878275
 20
2102.877151
 11
616.587616
 21
2103.103645
  0
LINE
  8
CSLAYER1
  6
CONTINUOUS
 62
     7
 10
616.587616
 20
2103.103645
 11
616.302553
 21
2103.354743
  0
LINE
  8
CSLAYER1
  6
CONTINUOUS
 62
     7
 10
616.302553
 20
2103.354743
 11
616.025254
 21
2103.628534
  0
LINE
  8
CSLAYER1
  6
CONTINUOUS
 62
     7
 10
616.025254
 20
2103.628534
 11
615.757831
 21
2103.922934
  0
LINE
  8
CSLAYER1
  6
CONTINUOUS
 62
     7
 10
615.757831
 20
2103.922934
 11
615.502318
 21
2104.235702
  0
LINE
  8
CSLAYER1
  6
CONTINUOUS
 62
     7
 10
615.502318
 20
2104.235702
 11
615.260660
 21
2104.564458
  0
LINE
  8
CSLAYER1
  6
CONTINUOUS
 62
     7
 10
615.260660
 20
2104.564458
 11
615.034696
 21
2104.906701
  0
LINE
  8
CSLAYER1
  6
CONTINUOUS
 62
     7
 10
615.034696
 20
2104.906701
 11
614.826146
 21
2105.259825
  0
LINE
  8
CSLAYER1
  6
CONTINUOUS
 62
     7
 10
614.826146
 20
2105.259825
 11
614.636598
 21
2105.621143
  0
LINE
  8
CSLAYER1
  6
CONTINUOUS
 62
     7
 10
614.636598
 20
2105.621143
 11
614.467493
 21
2105.987905
  0
LINE
  8
CSLAYER1
  6
CONTINUOUS
 62
     7
 10
614.467493
 20
2105.987905
 11
614.320119
 21
2106.357320
  0
LINE
  8
CSLAYER1
  6
CONTINUOUS
 62
     7
 10
614.320119
 20
2106.357320
 11
614.195598
 21
2106.726576
  0
LINE
  8
CSLAYER1
  6
CONTINUOUS
 62
     7
 10
614.195598
 20
2106.726576
 11
614.094876
 21
2107.092864
  0
LINE
  8
CSLAYER1
  6
CONTINUOUS
 62
     7
 10
614.094876
 20
2107.092864
 11
614.018721
 21
2107.453395
  0
LINE
  8
CSLAYER1
  6
CONTINUOUS
 62
     7
 10
614.018721
 20
2107.453395
 11
613.967712
 21
2107.805425
  0
LINE
  8
CSLAYER1
  6
CONTINUOUS
 62
     7
 10
613.967712
 20
2107.805425
 11
613.942238
 21
2108.146276
  0
LINE
  8
CSLAYER1
  6
CONTINUOUS
 62
     7
 10
613.942238
 20
2108.146276
 11
613.942492
 21
2108.473353
  0
LINE
  8
CSLAYER1
  6
CONTINUOUS
 62
     7
 10
613.942492
 20
2108.473353
 11
613.968472
 21
2108.784168
  0
LINE
  8
CSLAYER1
  6
CONTINUOUS
 62
     7
 10
613.968472
 20
2108.784168
 11
614.019981
 21
2109.076354
  0
LINE
  8
CSLAYER1
  6
CONTINUOUS
 62
     7
 10
614.019981
 20
2109.076354
 11
614.096626
 21
2109.347687
  0
LINE
  8
CSLAYER1
  6
CONTINUOUS
 62
     7
 10
614.096626
 20
2109.347687
 11
614.197824
 21
2109.596104
  0
LINE
  8
CSLAYER1
  6
CONTINUOUS
 62
     7
 10
614.197824
 20
2109.596104
 11
614.322806
 21
2109.819713
  0
LINE
  8
CSLAYER1
  6
CONTINUOUS
 62
     7
 10
614.322806
 20
2109.819713
 11
614.470620
 21
2110.016813
  0
LINE
  8
CSLAYER1
  6
CONTINUOUS
 62
     7
 10
614.470620
 20
2110.016813
 11
614.640140
 21
2110.185903
  0
LINE
  8
CSLAYER1
  6
CONTINUOUS
 62
     7
 10
614.640140
 20
2110.185903
 11
614.830077
 21
2110.325696
  0
LINE
  8
CSLAYER1
  6
CONTINUOUS
 62
     7
 10
680.839260
 20
2162.111031
 11
680.839260
 21
2125.481702
  0
LINE
  8
CSLAYER1
  6
CONTINUOUS
 62
     7
 10
679.015617
 20
2160.971492
 11
680.839260
 21
2162.111031
  0
LINE
  8
CSLAYER1
  6
CONTINUOUS
 62
     7
 10
679.015617
 20
2160.971492
 11
679.015617
 21
2126.145454
  0
LINE
  8
CSLAYER1
  6
CONTINUOUS
 62
     7
 10
679.015617
 20
2160.971492
 11
662.092129
 21
2167.131138
  0
LINE
  8
CSLAYER1
  6
CONTINUOUS
 62
     7
 10
757.065734
 20
2132.563573
 11
758.889377
 21
2133.703111
  0
LINE
  8
CSLAYER1
  6
CONTINUOUS
 62
     7
 10
757.065734
 20
2132.563573
 11
757.065734
 21
2115.828958
  0
LINE
  8
CSLAYER1
  6
CONTINUOUS
 62
     7
 10
667.578531
 20
2155.932126
 11
667.802361
 21
2156.049376
  0
LINE
  8
CSLAYER1
  6
CONTINUOUS
 62
     7
 10
667.802361
 20
2156.049376
 11
668.044815
 21
2156.133204
  0
LINE
  8
CSLAYER1
  6
CONTINUOUS
 62
     7
 10
668.044815
 20
2156.133204
 11
668.304046
 21
2156.182973
  0
LINE
  8
CSLAYER1
  6
CONTINUOUS
 62
     7
 10
668.304046
 20
2156.182973
 11
668.578082
 21
2156.198304
  0
LINE
  8
CSLAYER1
  6
CONTINUOUS
 62
     7
 10
668.578082
 20
2156.198304
 11
668.864837
 21
2156.179081
  0
LINE
  8
CSLAYER1
  6
CONTINUOUS
 62
     7
 10
668.864837
 20
2156.179081
 11
669.162128
 21
2156.125449
  0
LINE
  8
CSLAYER1
  6
CONTINUOUS
 62
     7
 10
669.162128
 20
2156.125449
 11
669.467694
 21
2156.037816
  0
LINE
  8
CSLAYER1
  6
CONTINUOUS
 62
     7
 10
669.467694
 20
2156.037816
 11
669.779209
 21
2155.916851
  0
LINE
  8
CSLAYER1
  6
CONTINUOUS
 62
     7
 10
669.779209
 20
2155.916851
 11
670.094302
 21
2155.763473
  0
LINE
  8
CSLAYER1
  6
CONTINUOUS
 62
     7
 10
670.094302
 20
2155.763473
 11
670.410574
 21
2155.578849
  0
LINE
  8
CSLAYER1
  6
CONTINUOUS
 62
     7
 10
670.410574
 20
2155.578849
 11
670.725619
 21
2155.364385
  0
LINE
  8
CSLAYER1
  6
CONTINUOUS
 62
     7
 10
670.725619
 20
2155.364385
 11
671.037039
 21
2155.121713
  0
LINE
  8
CSLAYER1
  6
CONTINUOUS
 62
     7
 10
671.037039
 20
2155.121713
 11
671.342465
 21
2154.852679
  0
LINE
  8
CSLAYER1
  6
CONTINUOUS
 62
     7
 10
671.342465
 20
2154.852679
 11
671.639570
 21
2154.559332
  0
LINE
  8
CSLAYER1
  6
CONTINUOUS
 62
     7
 10
671.639570
 20
2154.559332
 11
671.926096
 21
2154.243904
  0
LINE
  8
CSLAYER1
  6
CONTINUOUS
 62
     7
 10
671.926096
 20
2154.243904
 11
672.199859
 21
2153.908795
  0
LINE
  8
CSLAYER1
  6
CONTINUOUS
 62
     7
 10
672.199859
 20
2153.908795
 11
672.458779
 21
2153.556556
  0
LINE
  8
CSLAYER1
  6
CONTINUOUS
 62
     7
 10
672.458779
 20
2153.556556
 11
672.700882
 21
2153.189868
  0
LINE
  8
CSLAYER1
  6
CONTINUOUS
 62
     7
 10
672.700882
 20
2153.189868
 11
672.924329
 21
2152.811520
  0
LINE
  8
CSLAYER1
  6
CONTINUOUS
 62
     7
 10
672.924329
 20
2152.811520
 11
673.127416
 21
2152.424394
  0
LINE
  8
CSLAYER1
  6
CONTINUOUS
 62
     7
 10
673.127416
 20
2152.424394
 11
673.308600
 21
2152.031435
  0
LINE
  8
CSLAYER1
  6
CONTINUOUS
 62
     7
 10
673.308600
 20
2152.031435
 11
673.466500
 21
2151.635633
  0
LINE
  8
CSLAYER1
  6
CONTINUOUS
 62
     7
 10
673.466500
 20
2151.635633
 11
673.599916
 21
2151.240001
  0
LINE
  8
CSLAYER1
  6
CONTINUOUS
 62
     7
 10
673.599916
 20
2151.240001
 11
673.707832
 21
2150.847550
  0
LINE
  8
CSLAYER1
  6
CONTINUOUS
 62
     7
 10
673.707832
 20
2150.847550
 11
673.789427
 21
2150.461267
  0
LINE
  8
CSLAYER1
  6
CONTINUOUS
 62
     7
 10
673.789427
 20
2150.461267
 11
673.844079
 21
2150.084091
  0
LINE
  8
CSLAYER1
  6
CONTINUOUS
 62
     7
 10
673.844079
 20
2150.084091
 11
673.871373
 21
2149.718894
  0
LINE
  8
CSLAYER1
  6
CONTINUOUS
 62
     7
 10
673.871373
 20
2149.718894
 11
673.871102
 21
2149.368454
  0
LINE
  8
CSLAYER1
  6
CONTINUOUS
 62
     7
 10
673.871102
 20
2149.368454
 11
673.843266
 21
2149.035439
  0
LINE
  8
CSLAYER1
  6
CONTINUOUS
 62
     7
 10
673.843266
 20
2149.035439
 11
673.788078
 21
2148.722382
  0
LINE
  8
CSLAYER1
  6
CONTINUOUS
 62
     7
 10
673.788078
 20
2148.722382
 11
673.705958
 21
2148.431668
  0
LINE
  8
CSLAYER1
  6
CONTINUOUS
 62
     7
 10
673.705958
 20
2148.431668
 11
673.597531
 21
2148.165507
  0
LINE
  8
CSLAYER1
  6
CONTINUOUS
 62
     7
 10
673.597531
 20
2148.165507
 11
673.463622
 21
2147.925926
  0
LINE
  8
CSLAYER1
  6
CONTINUOUS
 62
     7
 10
673.463622
 20
2147.925926
 11
673.305250
 21
2147.714748
  0
LINE
  8
CSLAYER1
  6
CONTINUOUS
 62
     7
 10
673.305250
 20
2147.714748
 11
673.123621
 21
2147.533580
  0
LINE
  8
CSLAYER1
  6
CONTINUOUS
 62
     7
 10
673.123621
 20
2147.533580
 11
672.920117
 21
2147.383801
  0
LINE
  8
CSLAYER1
  6
CONTINUOUS
 62
     7
 10
672.920117
 20
2147.383801
 11
672.696286
 21
2147.266551
  0
LINE
  8
CSLAYER1
  6
CONTINUOUS
 62
     7
 10
672.696286
 20
2147.266551
 11
672.453833
 21
2147.182723
  0
LINE
  8
CSLAYER1
  6
CONTINUOUS
 62
     7
 10
672.453833
 20
2147.182723
 11
672.194602
 21
2147.132954
  0
LINE
  8
CSLAYER1
  6
CONTINUOUS
 62
     7
 10
672.194602
 20
2147.132954
 11
671.920566
 21
2147.117623
  0
LINE
  8
CSLAYER1
  6
CONTINUOUS
 62
     7
 10
671.920566
 20
2147.117623
 11
671.633811
 21
2147.136846
  0
LINE
  8
CSLAYER1
  6
CONTINUOUS
 62
     7
 10
671.633811
 20
2147.136846
 11
671.336519
 21
2147.190478
  0
LINE
  8
CSLAYER1
  6
CONTINUOUS
 62
     7
 10
671.336519
 20
2147.190478
 11
671.030953
 21
2147.278111
  0
LINE
  8
CSLAYER1
  6
CONTINUOUS
 62
     7
 10
671.030953
 20
2147.278111
 11
670.719438
 21
2147.399076
  0
LINE
  8
CSLAYER1
  6
CONTINUOUS
 62
     7
 10
670.719438
 20
2147.399076
 11
670.404346
 21
2147.552455
  0
LINE
  8
CSLAYER1
  6
CONTINUOUS
 62
     7
 10
670.404346
 20
2147.552455
 11
670.088073
 21
2147.737078
  0
LINE
  8
CSLAYER1
  6
CONTINUOUS
 62
     7
 10
670.088073
 20
2147.737078
 11
669.773028
 21
2147.951542
  0
LINE
  8
CSLAYER1
  6
CONTINUOUS
 62
     7
 10
669.773028
 20
2147.951542
 11
669.461608
 21
2148.194215
  0
LINE
  8
CSLAYER1
  6
CONTINUOUS
 62
     7
 10
669.461608
 20
2148.194215
 11
669.156183
 21
2148.463248
  0
LINE
  8
CSLAYER1
  6
CONTINUOUS
 62
     7
 10
669.156183
 20
2148.463248
 11
668.859077
 21
2148.756595
  0
LINE
  8
CSLAYER1
  6
CONTINUOUS
 62
     7
 10
668.859077
 20
2148.756595
 11
668.572552
 21
2149.072023
  0
LINE
  8
CSLAYER1
  6
CONTINUOUS
 62
     7
 10
668.572552
 20
2149.072023
 11
668.298788
 21
2149.407132
  0
LINE
  8
CSLAYER1
  6
CONTINUOUS
 62
     7
 10
668.298788
 20
2149.407132
 11
668.039869
 21
2149.759371
  0
LINE
  8
CSLAYER1
  6
CONTINUOUS
 62
     7
 10
668.039869
 20
2149.759371
 11
667.797765
 21
2150.126060
  0
LINE
  8
CSLAYER1
  6
CONTINUOUS
 62
     7
 10
667.797765
 20
2150.126060
 11
667.574319
 21
2150.504407
  0
LINE
  8
CSLAYER1
  6
CONTINUOUS
 62
     7
 10
667.574319
 20
2150.504407
 11
667.371231
 21
2150.891533
  0
LINE
  8
CSLAYER1
  6
CONTINUOUS
 62
     7
 10
667.371231
 20
2150.891533
 11
667.190048
 21
2151.284493
  0
LINE
  8
CSLAYER1
  6
CONTINUOUS
 62
     7
 10
667.190048
 20
2151.284493
 11
667.032147
 21
2151.680294
  0
LINE
  8
CSLAYER1
  6
CONTINUOUS
 62
     7
 10
667.032147
 20
2151.680294
 11
666.898731
 21
2152.075926
  0
LINE
  8
CSLAYER1
  6
CONTINUOUS
 62
     7
 10
666.898731
 20
2152.075926
 11
666.790815
 21
2152.468377
  0
LINE
  8
CSLAYER1
  6
CONTINUOUS
 62
     7
 10
666.790815
 20
2152.468377
 11
666.709220
 21
2152.854660
  0
LINE
  8
CSLAYER1
  6
CONTINUOUS
 62
     7
 10
666.709220
 20
2152.854660
 11
666.654568
 21
2153.231836
  0
LINE
  8
CSLAYER1
  6
CONTINUOUS
 62
     7
 10
666.654568
 20
2153.231836
 11
666.627274
 21
2153.597033
  0
LINE
  8
CSLAYER1
  6
CONTINUOUS
 62
     7
 10
666.627274
 20
2153.597033
 11
666.627546
 21
2153.947473
  0
LINE
  8
CSLAYER1
  6
CONTINUOUS
 62
     7
 10
666.627546
 20
2153.947473
 11
666.655382
 21
2154.280488
  0
LINE
  8
CSLAYER1
  6
CONTINUOUS
 62
     7
 10
666.655382
 20
2154.280488
 11
666.710570
 21
2154.593545
  0
LINE
  8
CSLAYER1
  6
CONTINUOUS
 62
     7
 10
666.710570
 20
2154.593545
 11
666.792690
 21
2154.884260
  0
LINE
  8
CSLAYER1
  6
CONTINUOUS
 62
     7
 10
666.792690
 20
2154.884260
 11
666.901117
 21
2155.150420
  0
LINE
  8
CSLAYER1
  6
CONTINUOUS
 62
     7
 10
666.901117
 20
2155.150420
 11
667.035026
 21
2155.390002
  0
LINE
  8
CSLAYER1
  6
CONTINUOUS
 62
     7
 10
667.035026
 20
2155.390002
 11
667.193397
 21
2155.601180
  0
LINE
  8
CSLAYER1
  6
CONTINUOUS
 62
     7
 10
667.193397
 20
2155.601180
 11
667.375026
 21
2155.782347
  0
LINE
  8
CSLAYER1
  6
CONTINUOUS
 62
     7
 10
667.375026
 20
2155.782347
 11
667.578531
 21
2155.932126
  0
LINE
  8
CSLAYER1
  6
CONTINUOUS
 62
     7
 10
667.578531
 20
2155.932126
 11
670.030089
 21
2157.464030
  0
LINE
  8
CSLAYER1
  6
CONTINUOUS
 62
     7
 10
672.920117
 20
2147.383801
 11
675.371676
 21
2148.915705
  0
LINE
  8
CSLAYER1
  6
CONTINUOUS
 62
     7
 10
671.037039
 20
2155.121713
 11
673.488598
 21
2156.653617
  0
LINE
  8
CSLAYER1
  6
CONTINUOUS
 62
     7
 10
673.580343
 20
2151.298044
 11
676.031902
 21
2152.829948
  0
LINE
  8
CSLAYER1
  6
CONTINUOUS
 62
     7
 10
670.030089
 20
2157.464030
 11
670.253920
 21
2157.581280
  0
LINE
  8
CSLAYER1
  6
CONTINUOUS
 62
     7
 10
670.253920
 20
2157.581280
 11
670.496373
 21
2157.665108
  0
LINE
  8
CSLAYER1
  6
CONTINUOUS
 62
     7
 10
670.496373
 20
2157.665108
 11
670.755605
 21
2157.714877
  0
LINE
  8
CSLAYER1
  6
CONTINUOUS
 62
     7
 10
670.755605
 20
2157.714877
 11
671.029640
 21
2157.730208
  0
LINE
  8
CSLAYER1
  6
CONTINUOUS
 62
     7
 10
671.029640
 20
2157.730208
 11
671.316395
 21
2157.710985
  0
LINE
  8
CSLAYER1
  6
CONTINUOUS
 62
     7
 10
671.316395
 20
2157.710985
 11
671.613687
 21
2157.657353
  0
LINE
  8
CSLAYER1
  6
CONTINUOUS
 62
     7
 10
671.613687
 20
2157.657353
 11
671.919253
 21
2157.569720
  0
LINE
  8
CSLAYER1
  6
CONTINUOUS
 62
     7
 10
671.919253
 20
2157.569720
 11
672.230768
 21
2157.448755
  0
LINE
  8
CSLAYER1
  6
CONTINUOUS
 62
     7
 10
672.230768
 20
2157.448755
 11
672.545860
 21
2157.295376
  0
LINE
  8
CSLAYER1
  6
CONTINUOUS
 62
     7
 10
672.545860
 20
2157.295376
 11
672.862133
 21
2157.110753
  0
LINE
  8
CSLAYER1
  6
CONTINUOUS
 62
     7
 10
672.862133
 20
2157.110753
 11
673.177178
 21
2156.896289
  0
LINE
  8
CSLAYER1
  6
CONTINUOUS
 62
     7
 10
673.177178
 20
2156.896289
 11
673.488598
 21
2156.653617
  0
LINE
  8
CSLAYER1
  6
CONTINUOUS
 62
     7
 10
673.488598
 20
2156.653617
 11
673.794023
 21
2156.384583
  0
LINE
  8
CSLAYER1
  6
CONTINUOUS
 62
     7
 10
673.794023
 20
2156.384583
 11
674.091129
 21
2156.091236
  0
LINE
  8
CSLAYER1
  6
CONTINUOUS
 62
     7
 10
674.091129
 20
2156.091236
 11
674.377654
 21
2155.775808
  0
LINE
  8
CSLAYER1
  6
CONTINUOUS
 62
     7
 10
674.377654
 20
2155.775808
 11
674.651418
 21
2155.440699
  0
LINE
  8
CSLAYER1
  6
CONTINUOUS
 62
     7
 10
674.651418
 20
2155.440699
 11
674.910337
 21
2155.088460
  0
LINE
  8
CSLAYER1
  6
CONTINUOUS
 62
     7
 10
674.910337
 20
2155.088460
 11
675.152441
 21
2154.721772
  0
LINE
  8
CSLAYER1
  6
CONTINUOUS
 62
     7
 10
675.152441
 20
2154.721772
 11
675.375887
 21
2154.343424
  0
LINE
  8
CSLAYER1
  6
CONTINUOUS
 62
     7
 10
675.375887
 20
2154.343424
 11
675.578975
 21
2153.956298
  0
LINE
  8
CSLAYER1
  6
CONTINUOUS
 62
     7
 10
675.578975
 20
2153.956298
 11
675.760159
 21
2153.563339
  0
LINE
  8
CSLAYER1
  6
CONTINUOUS
 62
     7
 10
675.760159
 20
2153.563339
 11
675.918059
 21
2153.167537
  0
LINE
  8
CSLAYER1
  6
CONTINUOUS
 62
     7
 10
675.918059
 20
2153.167537
 11
676.051475
 21
2152.771905
  0
LINE
  8
CSLAYER1
  6
CONTINUOUS
 62
     7
 10
676.051475
 20
2152.771905
 11
676.159391
 21
2152.379454
  0
LINE
  8
CSLAYER1
  6
CONTINUOUS
 62
     7
 10
676.159391
 20
2152.379454
 11
676.240986
 21
2151.993171
  0
LINE
  8
CSLAYER1
  6
CONTINUOUS
 62
     7
 10
676.240986
 20
2151.993171
 11
676.295638
 21
2151.615995
  0
LINE
  8
CSLAYER1
  6
CONTINUOUS
 62
     7
 10
676.295638
 20
2151.615995
 11
676.322932
 21
2151.250798
  0
LINE
  8
CSLAYER1
  6
CONTINUOUS
 62
     7
 10
676.322932
 20
2151.250798
 11
676.322660
 21
2150.900358
  0
LINE
  8
CSLAYER1
  6
CONTINUOUS
 62
     7
 10
676.322660
 20
2150.900358
 11
676.294824
 21
2150.567343
  0
LINE
  8
CSLAYER1
  6
CONTINUOUS
 62
     7
 10
676.294824
 20
2150.567343
 11
676.239637
 21
2150.254286
  0
LINE
  8
CSLAYER1
  6
CONTINUOUS
 62
     7
 10
676.239637
 20
2150.254286
 11
676.157517
 21
2149.963571
  0
LINE
  8
CSLAYER1
  6
CONTINUOUS
 62
     7
 10
676.157517
 20
2149.963571
 11
676.049090
 21
2149.697411
  0
LINE
  8
CSLAYER1
  6
CONTINUOUS
 62
     7
 10
676.049090
 20
2149.697411
 11
675.915181
 21
2149.457830
  0
LINE
  8
CSLAYER1
  6
CONTINUOUS
 62
     7
 10
675.915181
 20
2149.457830
 11
675.756809
 21
2149.246652
  0
LINE
  8
CSLAYER1
  6
CONTINUOUS
 62
     7
 10
675.756809
 20
2149.246652
 11
675.575180
 21
2149.065484
  0
LINE
  8
CSLAYER1
  6
CONTINUOUS
 62
     7
 10
675.575180
 20
2149.065484
 11
675.371676
 21
2148.915705
  0
LINE
  8
CSLAYER1
  6
CONTINUOUS
 62
     7
 10
758.258117
 20
2122.927456
 11
760.709676
 21
2124.459360
  0
LINE
  8
CSLAYER1
  6
CONTINUOUS
 62
     7
 10
761.716625
 20
2122.117042
 11
764.168184
 21
2123.648946
  0
LINE
  8
CSLAYER1
  6
CONTINUOUS
 62
     7
 10
764.259929
 20
2118.293373
 11
766.711488
 21
2119.825277
  0
LINE
  8
CSLAYER1
  6
CONTINUOUS
 62
     7
 10
760.709676
 20
2124.459360
 11
760.933506
 21
2124.576610
  0
LINE
  8
CSLAYER1
  6
CONTINUOUS
 62
     7
 10
760.933506
 20
2124.576610
 11
761.175960
 21
2124.660438
  0
LINE
  8
CSLAYER1
  6
CONTINUOUS
 62
     7
 10
761.175960
 20
2124.660438
 11
761.435191
 21
2124.710207
  0
LINE
  8
CSLAYER1
  6
CONTINUOUS
 62
     7
 10
761.435191
 20
2124.710207
 11
761.709227
 21
2124.725538
  0
LINE
  8
CSLAYER1
  6
CONTINUOUS
 62
     7
 10
761.709227
 20
2124.725538
 11
761.995982
 21
2124.706315
  0
LINE
  8
CSLAYER1
  6
CONTINUOUS
 62
     7
 10
761.995982
 20
2124.706315
 11
762.293273
 21
2124.652683
  0
LINE
  8
CSLAYER1
  6
CONTINUOUS
 62
     7
 10
762.293273
 20
2124.652683
 11
762.598839
 21
2124.565050
  0
LINE
  8
CSLAYER1
  6
CONTINUOUS
 62
     7
 10
762.598839
 20
2124.565050
 11
762.910354
 21
2124.444085
  0
LINE
  8
CSLAYER1
  6
CONTINUOUS
 62
     7
 10
762.910354
 20
2124.444085
 11
763.225447
 21
2124.290706
  0
LINE
  8
CSLAYER1
  6
CONTINUOUS
 62
     7
 10
763.225447
 20
2124.290706
 11
763.541719
 21
2124.106083
  0
LINE
  8
CSLAYER1
  6
CONTINUOUS
 62
     7
 10
763.541719
 20
2124.106083
 11
763.856764
 21
2123.891618
  0
LINE
  8
CSLAYER1
  6
CONTINUOUS
 62
     7
 10
763.856764
 20
2123.891618
 11
764.168184
 21
2123.648946
  0
LINE
  8
CSLAYER1
  6
CONTINUOUS
 62
     7
 10
764.168184
 20
2123.648946
 11
764.473610
 21
2123.379913
  0
LINE
  8
CSLAYER1
  6
CONTINUOUS
 62
     7
 10
764.473610
 20
2123.379913
 11
764.770715
 21
2123.086566
  0
LINE
  8
CSLAYER1
  6
CONTINUOUS
 62
     7
 10
764.770715
 20
2123.086566
 11
765.057241
 21
2122.771138
  0
LINE
  8
CSLAYER1
  6
CONTINUOUS
 62
     7
 10
765.057241
 20
2122.771138
 11
765.331004
 21
2122.436029
  0
LINE
  8
CSLAYER1
  6
CONTINUOUS
 62
     7
 10
765.331004
 20
2122.436029
 11
765.589924
 21
2122.083790
  0
LINE
  8
CSLAYER1
  6
CONTINUOUS
 62
     7
 10
765.589924
 20
2122.083790
 11
765.832027
 21
2121.717101
  0
LINE
  8
CSLAYER1
  6
CONTINUOUS
 62
     7
 10
765.832027
 20
2121.717101
 11
766.009049
 21
2121.417361
  0
LINE
  8
CSLAYER1
  6
CONTINUOUS
 62
     7
 10
758.258117
 20
2122.927456
 11
758.481947
 21
2123.044706
  0
LINE
  8
CSLAYER1
  6
CONTINUOUS
 62
     7
 10
758.481947
 20
2123.044706
 11
758.724401
 21
2123.128534
  0
LINE
  8
CSLAYER1
  6
CONTINUOUS
 62
     7
 10
758.724401
 20
2123.128534
 11
758.983632
 21
2123.178303
  0
LINE
  8
CSLAYER1
  6
CONTINUOUS
 62
     7
 10
758.983632
 20
2123.178303
 11
759.257668
 21
2123.193634
  0
LINE
  8
CSLAYER1
  6
CONTINUOUS
 62
     7
 10
759.257668
 20
2123.193634
 11
759.544423
 21
2123.174411
  0
LINE
  8
CSLAYER1
  6
CONTINUOUS
 62
     7
 10
759.544423
 20
2123.174411
 11
759.841715
 21
2123.120779
  0
LINE
  8
CSLAYER1
  6
CONTINUOUS
 62
     7
 10
759.841715
 20
2123.120779
 11
760.147281
 21
2123.033146
  0
LINE
  8
CSLAYER1
  6
CONTINUOUS
 62
     7
 10
760.147281
 20
2123.033146
 11
760.458795
 21
2122.912181
  0
LINE
  8
CSLAYER1
  6
CONTINUOUS
 62
     7
 10
760.458795
 20
2122.912181
 11
760.773888
 21
2122.758802
  0
LINE
  8
CSLAYER1
  6
CONTINUOUS
 62
     7
 10
760.773888
 20
2122.758802
 11
761.090160
 21
2122.574179
  0
LINE
  8
CSLAYER1
  6
CONTINUOUS
 62
     7
 10
761.090160
 20
2122.574179
 11
761.405205
 21
2122.359714
  0
LINE
  8
CSLAYER1
  6
CONTINUOUS
 62
     7
 10
761.405205
 20
2122.359714
 11
761.716625
 21
2122.117042
  0
LINE
  8
CSLAYER1
  6
CONTINUOUS
 62
     7
 10
761.716625
 20
2122.117042
 11
762.022051
 21
2121.848009
  0
LINE
  8
CSLAYER1
  6
CONTINUOUS
 62
     7
 10
762.022051
 20
2121.848009
 11
762.319157
 21
2121.554662
  0
LINE
  8
CSLAYER1
  6
CONTINUOUS
 62
     7
 10
762.319157
 20
2121.554662
 11
762.605682
 21
2121.239234
  0
LINE
  8
CSLAYER1
  6
CONTINUOUS
 62
     7
 10
762.605682
 20
2121.239234
 11
762.879446
 21
2120.904125
  0
LINE
  8
CSLAYER1
  6
CONTINUOUS
 62
     7
 10
762.879446
 20
2120.904125
 11
763.138365
 21
2120.551886
  0
LINE
  8
CSLAYER1
  6
CONTINUOUS
 62
     7
 10
763.138365
 20
2120.551886
 11
763.380469
 21
2120.185197
  0
LINE
  8
CSLAYER1
  6
CONTINUOUS
 62
     7
 10
763.380469
 20
2120.185197
 11
763.557491
 21
2119.885457
  0
LINE
  8
CSLAYER1
  6
CONTINUOUS
 62
     7
 10
758.669154
 20
2116.830886
 11
758.477351
 21
2117.121389
  0
LINE
  8
CSLAYER1
  6
CONTINUOUS
 62
     7
 10
758.477351
 20
2117.121389
 11
758.253905
 21
2117.499737
  0
LINE
  8
CSLAYER1
  6
CONTINUOUS
 62
     7
 10
758.253905
 20
2117.499737
 11
758.050817
 21
2117.886863
  0
LINE
  8
CSLAYER1
  6
CONTINUOUS
 62
     7
 10
758.050817
 20
2117.886863
 11
757.869634
 21
2118.279822
  0
LINE
  8
CSLAYER1
  6
CONTINUOUS
 62
     7
 10
757.869634
 20
2118.279822
 11
757.711733
 21
2118.675624
  0
LINE
  8
CSLAYER1
  6
CONTINUOUS
 62
     7
 10
757.711733
 20
2118.675624
 11
757.578317
 21
2119.071256
  0
LINE
  8
CSLAYER1
  6
CONTINUOUS
 62
     7
 10
757.578317
 20
2119.071256
 11
757.470401
 21
2119.463707
  0
LINE
  8
CSLAYER1
  6
CONTINUOUS
 62
     7
 10
757.470401
 20
2119.463707
 11
757.388806
 21
2119.849990
  0
LINE
  8
CSLAYER1
  6
CONTINUOUS
 62
     7
 10
757.388806
 20
2119.849990
 11
757.334154
 21
2120.227165
  0
LINE
  8
CSLAYER1
  6
CONTINUOUS
 62
     7
 10
757.334154
 20
2120.227165
 11
757.306860
 21
2120.592363
  0
LINE
  8
CSLAYER1
  6
CONTINUOUS
 62
     7
 10
757.306860
 20
2120.592363
 11
757.307132
 21
2120.942803
  0
LINE
  8
CSLAYER1
  6
CONTINUOUS
 62
     7
 10
757.307132
 20
2120.942803
 11
757.334968
 21
2121.275818
  0
LINE
  8
CSLAYER1
  6
CONTINUOUS
 62
     7
 10
757.334968
 20
2121.275818
 11
757.390156
 21
2121.588875
  0
LINE
  8
CSLAYER1
  6
CONTINUOUS
 62
     7
 10
757.390156
 20
2121.588875
 11
757.472276
 21
2121.879589
  0
LINE
  8
CSLAYER1
  6
CONTINUOUS
 62
     7
 10
757.472276
 20
2121.879589
 11
757.580703
 21
2122.145750
  0
LINE
  8
CSLAYER1
  6
CONTINUOUS
 62
     7
 10
757.580703
 20
2122.145750
 11
757.714612
 21
2122.385331
  0
LINE
  8
CSLAYER1
  6
CONTINUOUS
 62
     7
 10
757.714612
 20
2122.385331
 11
757.872983
 21
2122.596509
  0
LINE
  8
CSLAYER1
  6
CONTINUOUS
 62
     7
 10
757.872983
 20
2122.596509
 11
758.054612
 21
2122.777677
  0
LINE
  8
CSLAYER1
  6
CONTINUOUS
 62
     7
 10
758.054612
 20
2122.777677
 11
758.258117
 21
2122.927456
  0
ARC
  8
CSLAYER1
  6
CONTINUOUS
 62
     7
 10
602.249173
 20
2121.813030
 40
6.720000
 50
122.000000
 51
180.000000
  0
ARC
  8
CSLAYER1
  6
CONTINUOUS
 62
     7
 10
600.228458
 20
2122.548510
 40
6.720000
 50
122.000000
 51
180.000000
  0
ARC
  8
CSLAYER1
  6
CONTINUOUS
 62
     7
 10
598.889173
 20
2057.679588
 40
3.360000
 50
256.943959
 51
302.000000
  0
ARC
  8
CSLAYER1
  6
CONTINUOUS
 62
     7
 10
596.620434
 20
2057.960395
 40
3.360000
 50
202.152506
 51
217.167534
  0
LINE
  8
CSLAYER1
  6
CONTINUOUS
 62
     7
 10
598.130135
 20
2054.406445
 11
593.942943
 21
2055.930458
  0
ARC
  8
CSLAYER1
  6
CONTINUOUS
 62
     7
 10
712.806982
 20
2082.212817
 40
3.360000
 50
122.000000
 51
180.000000
  0
ARC
  8
CSLAYER1
  6
CONTINUOUS
 62
     7
 10
710.786267
 20
2082.948297
 40
3.360000
 50
122.000000
 51
180.000000
  0
ARC
  8
CSLAYER1
  6
CONTINUOUS
 62
     7
 10
712.806982
 20
2016.216896
 40
3.360000
 50
180.000000
 51
302.000000
  0
ARC
  8
CSLAYER1
  6
CONTINUOUS
 62
     7
 10
710.677269
 20
2016.711413
 40
3.360000
 50
194.633804
 51
226.715114
  0
LINE
  8
CSLAYER1
  6
CONTINUOUS
 62
     7
 10
633.203568
 20
2151.077725
 11
661.895056
 21
2169.006157
  0
LINE
  8
CSLAYER1
  6
CONTINUOUS
 62
     7
 10
601.776537
 20
2055.521773
 11
598.378614
 21
2056.758516
  0
ARC
  8
CSLAYER1
  6
CONTINUOUS
 62
     7
 10
598.889173
 20
2057.679588
 40
3.360000
 50
180.000000
 51
256.943959
  0
LINE
  8
CSLAYER1
  6
CONTINUOUS
 62
     7
 10
633.203568
 20
2001.290516
 11
633.203568
 21
1985.020934
  0
LINE
  8
CSLAYER1
  6
CONTINUOUS
 62
     7
 10
388.932640
 20
1905.752342
 11
389.370611
 21
1905.875013
  0
LINE
  8
CSLAYER1
  6
CONTINUOUS
 62
     7
 10
389.370611
 20
1905.875013
 11
389.828862
 21
1905.931871
  0
LINE
  8
CSLAYER1
  6
CONTINUOUS
 62
     7
 10
389.828862
 20
1905.931871
 11
390.303907
 21
1905.922483
  0
LINE
  8
CSLAYER1
  6
CONTINUOUS
 62
     7
 10
390.303907
 20
1905.922483
 11
390.792130
 21
1905.846920
  0
LINE
  8
CSLAYER1
  6
CONTINUOUS
 62
     7
 10
390.792130
 20
1905.846920
 11
391.289816
 21
1905.705758
  0
LINE
  8
CSLAYER1
  6
CONTINUOUS
 62
     7
 10
391.289816
 20
1905.705758
 11
391.793176
 21
1905.500071
  0
LINE
  8
CSLAYER1
  6
CONTINUOUS
 62
     7
 10
391.793176
 20
1905.500071
 11
392.298380
 21
1905.231425
  0
LINE
  8
CSLAYER1
  6
CONTINUOUS
 62
     7
 10
392.298380
 20
1905.231425
 11
392.801583
 21
1904.901863
  0
LINE
  8
CSLAYER1
  6
CONTINUOUS
 62
     7
 10
392.801583
 20
1904.901863
 11
393.298955
 21
1904.513895
  0
LINE
  8
CSLAYER1
  6
CONTINUOUS
 62
     7
 10
393.298955
 20
1904.513895
 11
393.786711
 21
1904.070472
  0
LINE
  8
CSLAYER1
  6
CONTINUOUS
 62
     7
 10
393.786711
 20
1904.070472
 11
394.261139
 21
1903.574970
  0
LINE
  8
CSLAYER1
  6
CONTINUOUS
 62
     7
 10
394.261139
 20
1903.574970
 11
394.718628
 21
1903.031159
  0
LINE
  8
CSLAYER1
  6
CONTINUOUS
 62
     7
 10
394.718628
 20
1903.031159
 11
395.155696
 21
1902.443178
  0
LINE
  8
CSLAYER1
  6
CONTINUOUS
 62
     7
 10
395.155696
 20
1902.443178
 11
395.569018
 21
1901.815503
  0
LINE
  8
CSLAYER1
  6
CONTINUOUS
 62
     7
 10
395.569018
 20
1901.815503
 11
395.955447
 21
1901.152910
  0
LINE
  8
CSLAYER1
  6
CONTINUOUS
 62
     7
 10
395.955447
 20
1901.152910
 11
396.312042
 21
1900.460442
  0
LINE
  8
CSLAYER1
  6
CONTINUOUS
 62
     7
 10
396.312042
 20
1900.460442
 11
396.636090
 21
1899.743368
  0
LINE
  8
CSLAYER1
  6
CONTINUOUS
 62
     7
 10
396.636090
 20
1899.743368
 11
396.925124
 21
1899.007147
  0
LINE
  8
CSLAYER1
  6
CONTINUOUS
 62
     7
 10
396.925124
 20
1899.007147
 11
397.176945
 21
1898.257382
  0
LINE
  8
CSLAYER1
  6
CONTINUOUS
 62
     7
 10
397.176945
 20
1898.257382
 11
397.389635
 21
1897.499778
  0
LINE
  8
CSLAYER1
  6
CONTINUOUS
 62
     7
 10
397.389635
 20
1897.499778
 11
397.561578
 21
1896.740101
  0
LINE
  8
CSLAYER1
  6
CONTINUOUS
 62
     7
 10
397.561578
 20
1896.740101
 11
397.691463
 21
1895.984134
  0
LINE
  8
CSLAYER1
  6
CONTINUOUS
 62
     7
 10
397.691463
 20
1895.984134
 11
397.778302
 21
1895.237629
  0
LINE
  8
CSLAYER1
  6
CONTINUOUS
 62
     7
 10
397.778302
 20
1895.237629
 11
397.821435
 21
1894.506267
  0
LINE
  8
CSLAYER1
  6
CONTINUOUS
 62
     7
 10
397.821435
 20
1894.506267
 11
397.820533
 21
1893.795616
  0
LINE
  8
CSLAYER1
  6
CONTINUOUS
 62
     7
 10
397.820533
 20
1893.795616
 11
397.775603
 21
1893.111083
  0
LINE
  8
CSLAYER1
  6
CONTINUOUS
 62
     7
 10
397.775603
 20
1893.111083
 11
397.686986
 21
1892.457878
  0
LINE
  8
CSLAYER1
  6
CONTINUOUS
 62
     7
 10
397.686986
 20
1892.457878
 11
397.555359
 21
1891.840972
  0
LINE
  8
CSLAYER1
  6
CONTINUOUS
 62
     7
 10
397.555359
 20
1891.840972
 11
397.381721
 21
1891.265060
  0
LINE
  8
CSLAYER1
  6
CONTINUOUS
 62
     7
 10
397.381721
 20
1891.265060
 11
397.167395
 21
1890.734526
  0
LINE
  8
CSLAYER1
  6
CONTINUOUS
 62
     7
 10
397.167395
 20
1890.734526
 11
396.914012
 21
1890.253407
  0
LINE
  8
CSLAYER1
  6
CONTINUOUS
 62
     7
 10
396.914012
 20
1890.253407
 11
396.623500
 21
1889.825365
  0
LINE
  8
CSLAYER1
  6
CONTINUOUS
 62
     7
 10
396.623500
 20
1889.825365
 11
396.298070
 21
1889.453657
  0
LINE
  8
CSLAYER1
  6
CONTINUOUS
 62
     7
 10
396.298070
 20
1889.453657
 11
395.940199
 21
1889.141112
  0
LINE
  8
CSLAYER1
  6
CONTINUOUS
 62
     7
 10
395.940199
 20
1889.141112
 11
395.552610
 21
1888.890110
  0
LINE
  8
CSLAYER1
  6
CONTINUOUS
 62
     7
 10
395.552610
 20
1888.890110
 11
395.138254
 21
1888.702559
  0
LINE
  8
CSLAYER1
  6
CONTINUOUS
 62
     7
 10
395.138254
 20
1888.702559
 11
394.700283
 21
1888.579888
  0
LINE
  8
CSLAYER1
  6
CONTINUOUS
 62
     7
 10
394.700283
 20
1888.579888
 11
394.242032
 21
1888.523030
  0
LINE
  8
CSLAYER1
  6
CONTINUOUS
 62
     7
 10
394.242032
 20
1888.523030
 11
393.766987
 21
1888.532418
  0
LINE
  8
CSLAYER1
  6
CONTINUOUS
 62
     7
 10
393.766987
 20
1888.532418
 11
393.278764
 21
1888.607981
  0
LINE
  8
CSLAYER1
  6
CONTINUOUS
 62
     7
 10
393.278764
 20
1888.607981
 11
392.781078
 21
1888.749143
  0
LINE
  8
CSLAYER1
  6
CONTINUOUS
 62
     7
 10
392.781078
 20
1888.749143
 11
392.277718
 21
1888.954829
  0
LINE
  8
CSLAYER1
  6
CONTINUOUS
 62
     7
 10
392.277718
 20
1888.954829
 11
391.772514
 21
1889.223476
  0
LINE
  8
CSLAYER1
  6
CONTINUOUS
 62
     7
 10
391.772514
 20
1889.223476
 11
391.269311
 21
1889.553038
  0
LINE
  8
CSLAYER1
  6
CONTINUOUS
 62
     7
 10
391.269311
 20
1889.553038
 11
390.771939
 21
1889.941006
  0
LINE
  8
CSLAYER1
  6
CONTINUOUS
 62
     7
 10
390.771939
 20
1889.941006
 11
390.284183
 21
1890.384429
  0
LINE
  8
CSLAYER1
  6
CONTINUOUS
 62
     7
 10
390.284183
 20
1890.384429
 11
389.809755
 21
1890.879931
  0
LINE
  8
CSLAYER1
  6
CONTINUOUS
 62
     7
 10
389.809755
 20
1890.879931
 11
389.352266
 21
1891.423742
  0
LINE
  8
CSLAYER1
  6
CONTINUOUS
 62
     7
 10
389.352266
 20
1891.423742
 11
388.915198
 21
1892.011723
  0
LINE
  8
CSLAYER1
  6
CONTINUOUS
 62
     7
 10
388.915198
 20
1892.011723
 11
388.501876
 21
1892.639398
  0
LINE
  8
CSLAYER1
  6
CONTINUOUS
 62
     7
 10
388.501876
 20
1892.639398
 11
388.115447
 21
1893.301991
  0
LINE
  8
CSLAYER1
  6
CONTINUOUS
 62
     7
 10
388.115447
 20
1893.301991
 11
387.758852
 21
1893.994459
  0
LINE
  8
CSLAYER1
  6
CONTINUOUS
 62
     7
 10
387.758852
 20
1893.994459
 11
387.434804
 21
1894.711533
  0
LINE
  8
CSLAYER1
  6
CONTINUOUS
 62
     7
 10
387.434804
 20
1894.711533
 11
387.145770
 21
1895.447754
  0
LINE
  8
CSLAYER1
  6
CONTINUOUS
 62
     7
 10
387.145770
 20
1895.447754
 11
386.893949
 21
1896.197519
  0
LINE
  8
CSLAYER1
  6
CONTINUOUS
 62
     7
 10
386.893949
 20
1896.197519
 11
386.681259
 21
1896.955123
  0
LINE
  8
CSLAYER1
  6
CONTINUOUS
 62
     7
 10
386.681259
 20
1896.955123
 11
386.509316
 21
1897.714800
  0
LINE
  8
CSLAYER1
  6
CONTINUOUS
 62
     7
 10
386.509316
 20
1897.714800
 11
386.379431
 21
1898.470767
  0
LINE
  8
CSLAYER1
  6
CONTINUOUS
 62
     7
 10
386.379431
 20
1898.470767
 11
386.292592
 21
1899.217272
  0
LINE
  8
CSLAYER1
  6
CONTINUOUS
 62
     7
 10
386.292592
 20
1899.217272
 11
386.249459
 21
1899.948634
  0
LINE
  8
CSLAYER1
  6
CONTINUOUS
 62
     7
 10
386.249459
 20
1899.948634
 11
386.250361
 21
1900.659285
  0
LINE
  8
CSLAYER1
  6
CONTINUOUS
 62
     7
 10
386.250361
 20
1900.659285
 11
386.295292
 21
1901.343818
  0
LINE
  8
CSLAYER1
  6
CONTINUOUS
 62
     7
 10
386.295292
 20
1901.343818
 11
386.383908
 21
1901.997023
  0
LINE
  8
CSLAYER1
  6
CONTINUOUS
 62
     7
 10
386.383908
 20
1901.997023
 11
386.515535
 21
1902.613929
  0
LINE
  8
CSLAYER1
  6
CONTINUOUS
 62
     7
 10
386.515535
 20
1902.613929
 11
386.689173
 21
1903.189841
  0
LINE
  8
CSLAYER1
  6
CONTINUOUS
 62
     7
 10
386.689173
 20
1903.189841
 11
386.903499
 21
1903.720375
  0
LINE
  8
CSLAYER1
  6
CONTINUOUS
 62
     7
 10
386.903499
 20
1903.720375
 11
387.156882
 21
1904.201494
  0
LINE
  8
CSLAYER1
  6
CONTINUOUS
 62
     7
 10
387.156882
 20
1904.201494
 11
387.447394
 21
1904.629536
  0
LINE
  8
CSLAYER1
  6
CONTINUOUS
 62
     7
 10
387.447394
 20
1904.629536
 11
387.772824
 21
1905.001244
  0
LINE
  8
CSLAYER1
  6
CONTINUOUS
 62
     7
 10
387.772824
 20
1905.001244
 11
388.130695
 21
1905.313789
  0
LINE
  8
CSLAYER1
  6
CONTINUOUS
 62
     7
 10
388.130695
 20
1905.313789
 11
388.518284
 21
1905.564791
  0
LINE
  8
CSLAYER1
  6
CONTINUOUS
 62
     7
 10
388.518284
 20
1905.564791
 11
388.932640
 21
1905.752342
  0
LINE
  8
CSLAYER1
  6
CONTINUOUS
 62
     7
 10
388.932640
 20
1905.752342
 11
444.448297
 21
1926.428329
  0
LINE
  8
CSLAYER1
  6
CONTINUOUS
 62
     7
 10
395.138254
 20
1888.702559
 11
450.653911
 21
1909.378546
  0
LINE
  8
CSLAYER1
  6
CONTINUOUS
 62
     7
 10
444.448297
 20
1926.428329
 11
444.886268
 21
1926.551000
  0
LINE
  8
CSLAYER1
  6
CONTINUOUS
 62
     7
 10
444.886268
 20
1926.551000
 11
445.344519
 21
1926.607857
  0
LINE
  8
CSLAYER1
  6
CONTINUOUS
 62
     7
 10
445.344519
 20
1926.607857
 11
445.819564
 21
1926.598469
  0
LINE
  8
CSLAYER1
  6
CONTINUOUS
 62
     7
 10
445.819564
 20
1926.598469
 11
446.307788
 21
1926.522907
  0
LINE
  8
CSLAYER1
  6
CONTINUOUS
 62
     7
 10
446.307788
 20
1926.522907
 11
446.805473
 21
1926.381745
  0
LINE
  8
CSLAYER1
  6
CONTINUOUS
 62
     7
 10
446.805473
 20
1926.381745
 11
447.308833
 21
1926.176058
  0
LINE
  8
CSLAYER1
  6
CONTINUOUS
 62
     7
 10
447.308833
 20
1926.176058
 11
447.814037
 21
1925.907412
  0
LINE
  8
CSLAYER1
  6
CONTINUOUS
 62
     7
 10
447.814037
 20
1925.907412
 11
448.317240
 21
1925.577850
  0
LINE
  8
CSLAYER1
  6
CONTINUOUS
 62
     7
 10
448.317240
 20
1925.577850
 11
448.814612
 21
1925.189881
  0
LINE
  8
CSLAYER1
  6
CONTINUOUS
 62
     7
 10
448.814612
 20
1925.189881
 11
449.302368
 21
1924.746459
  0
LINE
  8
CSLAYER1
  6
CONTINUOUS
 62
     7
 10
449.302368
 20
1924.746459
 11
449.776796
 21
1924.250956
  0
LINE
  8
CSLAYER1
  6
CONTINUOUS
 62
     7
 10
449.776796
 20
1924.250956
 11
450.234285
 21
1923.707146
  0
LINE
  8
CSLAYER1
  6
CONTINUOUS
 62
     7
 10
450.234285
 20
1923.707146
 11
450.671354
 21
1923.119165
  0
LINE
  8
CSLAYER1
  6
CONTINUOUS
 62
     7
 10
450.671354
 20
1923.119165
 11
451.084675
 21
1922.491490
  0
LINE
  8
CSLAYER1
  6
CONTINUOUS
 62
     7
 10
451.084675
 20
1922.491490
 11
451.471104
 21
1921.828897
  0
LINE
  8
CSLAYER1
  6
CONTINUOUS
 62
     7
 10
451.471104
 20
1921.828897
 11
451.827699
 21
1921.136428
  0
LINE
  8
CSLAYER1
  6
CONTINUOUS
 62
     7
 10
451.827699
 20
1921.136428
 11
452.151747
 21
1920.419355
  0
LINE
  8
CSLAYER1
  6
CONTINUOUS
 62
     7
 10
452.151747
 20
1920.419355
 11
452.440781
 21
1919.683134
  0
LINE
  8
CSLAYER1
  6
CONTINUOUS
 62
     7
 10
452.440781
 20
1919.683134
 11
452.692602
 21
1918.933368
  0
LINE
  8
CSLAYER1
  6
CONTINUOUS
 62
     7
 10
452.692602
 20
1918.933368
 11
452.905293
 21
1918.175765
  0
LINE
  8
CSLAYER1
  6
CONTINUOUS
 62
     7
 10
452.905293
 20
1918.175765
 11
453.077235
 21
1917.416088
  0
LINE
  8
CSLAYER1
  6
CONTINUOUS
 62
     7
 10
453.077235
 20
1917.416088
 11
453.207120
 21
1916.660121
  0
LINE
  8
CSLAYER1
  6
CONTINUOUS
 62
     7
 10
453.207120
 20
1916.660121
 11
453.293959
 21
1915.913615
  0
LINE
  8
CSLAYER1
  6
CONTINUOUS
 62
     7
 10
453.293959
 20
1915.913615
 11
453.337092
 21
1915.182254
  0
LINE
  8
CSLAYER1
  6
CONTINUOUS
 62
     7
 10
453.337092
 20
1915.182254
 11
453.336190
 21
1914.471603
  0
LINE
  8
CSLAYER1
  6
CONTINUOUS
 62
     7
 10
453.336190
 20
1914.471603
 11
453.291260
 21
1913.787069
  0
LINE
  8
CSLAYER1
  6
CONTINUOUS
 62
     7
 10
453.291260
 20
1913.787069
 11
453.202644
 21
1913.133864
  0
LINE
  8
CSLAYER1
  6
CONTINUOUS
 62
     7
 10
453.202644
 20
1913.133864
 11
453.071016
 21
1912.516958
  0
LINE
  8
CSLAYER1
  6
CONTINUOUS
 62
     7
 10
453.071016
 20
1912.516958
 11
452.897378
 21
1911.941047
  0
LINE
  8
CSLAYER1
  6
CONTINUOUS
 62
     7
 10
452.897378
 20
1911.941047
 11
452.683052
 21
1911.410513
  0
LINE
  8
CSLAYER1
  6
CONTINUOUS
 62
     7
 10
452.683052
 20
1911.410513
 11
452.429669
 21
1910.929394
  0
LINE
  8
CSLAYER1
  6
CONTINUOUS
 62
     7
 10
452.429669
 20
1910.929394
 11
452.139157
 21
1910.501352
  0
LINE
  8
CSLAYER1
  6
CONTINUOUS
 62
     7
 10
452.139157
 20
1910.501352
 11
451.813727
 21
1910.129644
  0
LINE
  8
CSLAYER1
  6
CONTINUOUS
 62
     7
 10
451.813727
 20
1910.129644
 11
451.455856
 21
1909.817099
  0
LINE
  8
CSLAYER1
  6
CONTINUOUS
 62
     7
 10
451.455856
 20
1909.817099
 11
451.068267
 21
1909.566096
  0
LINE
  8
CSLAYER1
  6
CONTINUOUS
 62
     7
 10
451.068267
 20
1909.566096
 11
450.653911
 21
1909.378546
  0
LINE
  8
CSLAYER1
  6
CONTINUOUS
 62
     7
 10
626.769716
 20
1813.454092
 11
627.098830
 21
1813.768019
  0
LINE
  8
CSLAYER1
  6
CONTINUOUS
 62
     7
 10
627.098830
 20
1813.768019
 11
627.476749
 21
1814.033358
  0
LINE
  8
CSLAYER1
  6
CONTINUOUS
 62
     7
 10
627.476749
 20
1814.033358
 11
627.900597
 21
1814.248088
  0
LINE
  8
CSLAYER1
  6
CONTINUOUS
 62
     7
 10
627.900597
 20
1814.248088
 11
628.367146
 21
1814.410578
  0
LINE
  8
CSLAYER1
  6
CONTINUOUS
 62
     7
 10
628.367146
 20
1814.410578
 11
628.872848
 21
1814.519588
  0
LINE
  8
CSLAYER1
  6
CONTINUOUS
 62
     7
 10
628.872848
 20
1814.519588
 11
629.413853
 21
1814.574291
  0
LINE
  8
CSLAYER1
  6
CONTINUOUS
 62
     7
 10
629.413853
 20
1814.574291
 11
629.986043
 21
1814.574269
  0
LINE
  8
CSLAYER1
  6
CONTINUOUS
 62
     7
 10
629.986043
 20
1814.574269
 11
630.585065
 21
1814.519523
  0
LINE
  8
CSLAYER1
  6
CONTINUOUS
 62
     7
 10
630.585065
 20
1814.519523
 11
631.206359
 21
1814.410469
  0
LINE
  8
CSLAYER1
  6
CONTINUOUS
 62
     7
 10
631.206359
 20
1814.410469
 11
631.845196
 21
1814.247937
  0
LINE
  8
CSLAYER1
  6
CONTINUOUS
 62
     7
 10
631.845196
 20
1814.247937
 11
632.496715
 21
1814.033165
  0
LINE
  8
CSLAYER1
  6
CONTINUOUS
 62
     7
 10
632.496715
 20
1814.033165
 11
633.155958
 21
1813.767787
  0
LINE
  8
CSLAYER1
  6
CONTINUOUS
 62
     7
 10
633.155958
 20
1813.767787
 11
633.817906
 21
1813.453822
  0
LINE
  8
CSLAYER1
  6
CONTINUOUS
 62
     7
 10
633.817906
 20
1813.453822
 11
634.477523
 21
1813.093660
  0
LINE
  8
CSLAYER1
  6
CONTINUOUS
 62
     7
 10
634.477523
 20
1813.093660
 11
635.129788
 21
1812.690043
  0
LINE
  8
CSLAYER1
  6
CONTINUOUS
 62
     7
 10
635.129788
 20
1812.690043
 11
635.769738
 21
1812.246041
  0
LINE
  8
CSLAYER1
  6
CONTINUOUS
 62
     7
 10
635.769738
 20
1812.246041
 11
636.392500
 21
1811.765034
  0
LINE
  8
CSLAYER1
  6
CONTINUOUS
 62
     7
 10
636.392500
 20
1811.765034
 11
636.993337
 21
1811.250683
  0
LINE
  8
CSLAYER1
  6
CONTINUOUS
 62
     7
 10
636.993337
 20
1811.250683
 11
637.567675
 21
1810.706902
  0
LINE
  8
CSLAYER1
  6
CONTINUOUS
 62
     7
 10
637.567675
 20
1810.706902
 11
638.111144
 21
1810.137829
  0
LINE
  8
CSLAYER1
  6
CONTINUOUS
 62
     7
 10
638.111144
 20
1810.137829
 11
638.619606
 21
1809.547797
  0
LINE
  8
CSLAYER1
  6
CONTINUOUS
 62
     7
 10
638.619606
 20
1809.547797
 11
639.089193
 21
1808.941294
  0
LINE
  8
CSLAYER1
  6
CONTINUOUS
 62
     7
 10
639.089193
 20
1808.941294
 11
639.516330
 21
1808.322938
  0
LINE
  8
CSLAYER1
  6
CONTINUOUS
 62
     7
 10
639.516330
 20
1808.322938
 11
639.897768
 21
1807.697434
  0
LINE
  8
CSLAYER1
  6
CONTINUOUS
 62
     7
 10
639.897768
 20
1807.697434
 11
640.230602
 21
1807.069542
  0
LINE
  8
CSLAYER1
  6
CONTINUOUS
 62
     7
 10
640.230602
 20
1807.069542
 11
640.512300
 21
1806.444042
  0
LINE
  8
CSLAYER1
  6
CONTINUOUS
 62
     7
 10
640.512300
 20
1806.444042
 11
640.740718
 21
1805.825693
  0
LINE
  8
CSLAYER1
  6
CONTINUOUS
 62
     7
 10
640.740718
 20
1805.825693
 11
640.914117
 21
1805.219202
  0
LINE
  8
CSLAYER1
  6
CONTINUOUS
 62
     7
 10
640.914117
 20
1805.219202
 11
641.031178
 21
1804.629185
  0
LINE
  8
CSLAYER1
  6
CONTINUOUS
 62
     7
 10
641.031178
 20
1804.629185
 11
641.091010
 21
1804.060131
  0
LINE
  8
CSLAYER1
  6
CONTINUOUS
 62
     7
 10
641.091010
 20
1804.060131
 11
641.093158
 21
1803.516372
  0
LINE
  8
CSLAYER1
  6
CONTINUOUS
 62
     7
 10
641.093158
 20
1803.516372
 11
641.037604
 21
1803.002046
  0
LINE
  8
CSLAYER1
  6
CONTINUOUS
 62
     7
 10
641.037604
 20
1803.002046
 11
640.924773
 21
1802.521067
  0
LINE
  8
CSLAYER1
  6
CONTINUOUS
 62
     7
 10
640.924773
 20
1802.521067
 11
640.755523
 21
1802.077096
  0
LINE
  8
CSLAYER1
  6
CONTINUOUS
 62
     7
 10
640.755523
 20
1802.077096
 11
640.531141
 21
1801.673512
  0
LINE
  8
CSLAYER1
  6
CONTINUOUS
 62
     7
 10
640.531141
 20
1801.673512
 11
640.253336
 21
1801.313386
  0
LINE
  8
CSLAYER1
  6
CONTINUOUS
 62
     7
 10
640.253336
 20
1801.313386
 11
639.924221
 21
1800.999460
  0
LINE
  8
CSLAYER1
  6
CONTINUOUS
 62
     7
 10
639.924221
 20
1800.999460
 11
639.546302
 21
1800.734121
  0
LINE
  8
CSLAYER1
  6
CONTINUOUS
 62
     7
 10
639.546302
 20
1800.734121
 11
639.122455
 21
1800.519390
  0
LINE
  8
CSLAYER1
  6
CONTINUOUS
 62
     7
 10
639.122455
 20
1800.519390
 11
638.655905
 21
1800.356901
  0
LINE
  8
CSLAYER1
  6
CONTINUOUS
 62
     7
 10
638.655905
 20
1800.356901
 11
638.150203
 21
1800.247890
  0
LINE
  8
CSLAYER1
  6
CONTINUOUS
 62
     7
 10
638.150203
 20
1800.247890
 11
637.609199
 21
1800.193188
  0
LINE
  8
CSLAYER1
  6
CONTINUOUS
 62
     7
 10
637.609199
 20
1800.193188
 11
637.037008
 21
1800.193210
  0
LINE
  8
CSLAYER1
  6
CONTINUOUS
 62
     7
 10
637.037008
 20
1800.193210
 11
636.437986
 21
1800.247956
  0
LINE
  8
CSLAYER1
  6
CONTINUOUS
 62
     7
 10
636.437986
 20
1800.247956
 11
635.816693
 21
1800.357010
  0
LINE
  8
CSLAYER1
  6
CONTINUOUS
 62
     7
 10
635.816693
 20
1800.357010
 11
635.177855
 21
1800.519541
  0
LINE
  8
CSLAYER1
  6
CONTINUOUS
 62
     7
 10
635.177855
 20
1800.519541
 11
634.526336
 21
1800.734313
  0
LINE
  8
CSLAYER1
  6
CONTINUOUS
 62
     7
 10
634.526336
 20
1800.734313
 11
633.867094
 21
1800.999692
  0
LINE
  8
CSLAYER1
  6
CONTINUOUS
 62
     7
 10
633.867094
 20
1800.999692
 11
633.205145
 21
1801.313657
  0
LINE
  8
CSLAYER1
  6
CONTINUOUS
 62
     7
 10
633.205145
 20
1801.313657
 11
632.545528
 21
1801.673818
  0
LINE
  8
CSLAYER1
  6
CONTINUOUS
 62
     7
 10
632.545528
 20
1801.673818
 11
631.893263
 21
1802.077436
  0
LINE
  8
CSLAYER1
  6
CONTINUOUS
 62
     7
 10
631.893263
 20
1802.077436
 11
631.253314
 21
1802.521438
  0
LINE
  8
CSLAYER1
  6
CONTINUOUS
 62
     7
 10
631.253314
 20
1802.521438
 11
630.630551
 21
1803.002445
  0
LINE
  8
CSLAYER1
  6
CONTINUOUS
 62
     7
 10
630.630551
 20
1803.002445
 11
630.029714
 21
1803.516796
  0
LINE
  8
CSLAYER1
  6
CONTINUOUS
 62
     7
 10
630.029714
 20
1803.516796
 11
629.455376
 21
1804.060577
  0
LINE
  8
CSLAYER1
  6
CONTINUOUS
 62
     7
 10
629.455376
 20
1804.060577
 11
628.911908
 21
1804.629649
  0
LINE
  8
CSLAYER1
  6
CONTINUOUS
 62
     7
 10
628.911908
 20
1804.629649
 11
628.403445
 21
1805.219682
  0
LINE
  8
CSLAYER1
  6
CONTINUOUS
 62
     7
 10
628.403445
 20
1805.219682
 11
627.933858
 21
1805.826184
  0
LINE
  8
CSLAYER1
  6
CONTINUOUS
 62
     7
 10
627.933858
 20
1805.826184
 11
627.506721
 21
1806.444540
  0
LINE
  8
CSLAYER1
  6
CONTINUOUS
 62
     7
 10
627.506721
 20
1806.444540
 11
627.125284
 21
1807.070045
  0
LINE
  8
CSLAYER1
  6
CONTINUOUS
 62
     7
 10
627.125284
 20
1807.070045
 11
626.792450
 21
1807.697936
  0
LINE
  8
CSLAYER1
  6
CONTINUOUS
 62
     7
 10
626.792450
 20
1807.697936
 11
626.510752
 21
1808.323436
  0
LINE
  8
CSLAYER1
  6
CONTINUOUS
 62
     7
 10
626.510752
 20
1808.323436
 11
626.282334
 21
1808.941785
  0
LINE
  8
CSLAYER1
  6
CONTINUOUS
 62
     7
 10
626.282334
 20
1808.941785
 11
626.108935
 21
1809.548276
  0
LINE
  8
CSLAYER1
  6
CONTINUOUS
 62
     7
 10
626.108935
 20
1809.548276
 11
625.991873
 21
1810.138294
  0
LINE
  8
CSLAYER1
  6
CONTINUOUS
 62
     7
 10
625.991873
 20
1810.138294
 11
625.932041
 21
1810.707347
  0
LINE
  8
CSLAYER1
  6
CONTINUOUS
 62
     7
 10
625.932041
 20
1810.707347
 11
625.929894
 21
1811.251107
  0
LINE
  8
CSLAYER1
  6
CONTINUOUS
 62
     7
 10
625.929894
 20
1811.251107
 11
625.985447
 21
1811.765433
  0
LINE
  8
CSLAYER1
  6
CONTINUOUS
 62
     7
 10
625.985447
 20
1811.765433
 11
626.098278
 21
1812.246411
  0
LINE
  8
CSLAYER1
  6
CONTINUOUS
 62
     7
 10
626.098278
 20
1812.246411
 11
626.267529
 21
1812.690382
  0
LINE
  8
CSLAYER1
  6
CONTINUOUS
 62
     7
 10
626.267529
 20
1812.690382
 11
626.491911
 21
1813.093966
  0
LINE
  8
CSLAYER1
  6
CONTINUOUS
 62
     7
 10
626.491911
 20
1813.093966
 11
626.769716
 21
1813.454092
  0
LINE
  8
CSLAYER1
  6
CONTINUOUS
 62
     7
 10
640.253336
 20
1801.313386
 11
670.240405
 21
1834.708745
  0
LINE
  8
CSLAYER1
  6
CONTINUOUS
 62
     7
 10
626.769716
 20
1813.454092
 11
656.756785
 21
1846.849451
  0
LINE
  8
CSLAYER1
  6
CONTINUOUS
 62
     7
 10
656.756785
 20
1846.849451
 11
657.085900
 21
1847.163377
  0
LINE
  8
CSLAYER1
  6
CONTINUOUS
 62
     7
 10
657.085900
 20
1847.163377
 11
657.463819
 21
1847.428716
  0
LINE
  8
CSLAYER1
  6
CONTINUOUS
 62
     7
 10
657.463819
 20
1847.428716
 11
657.887666
 21
1847.643447
  0
LINE
  8
CSLAYER1
  6
CONTINUOUS
 62
     7
 10
657.887666
 20
1847.643447
 11
658.354216
 21
1847.805936
  0
LINE
  8
CSLAYER1
  6
CONTINUOUS
 62
     7
 10
658.354216
 20
1847.805936
 11
658.859917
 21
1847.914947
  0
LINE
  8
CSLAYER1
  6
CONTINUOUS
 62
     7
 10
658.859917
 20
1847.914947
 11
659.400922
 21
1847.969649
  0
LINE
  8
CSLAYER1
  6
CONTINUOUS
 62
     7
 10
659.400922
 20
1847.969649
 11
659.973113
 21
1847.969627
  0
LINE
  8
CSLAYER1
  6
CONTINUOUS
 62
     7
 10
659.973113
 20
1847.969627
 11
660.572134
 21
1847.914881
  0
LINE
  8
CSLAYER1
  6
CONTINUOUS
 62
     7
 10
660.572134
 20
1847.914881
 11
661.193428
 21
1847.805827
  0
LINE
  8
CSLAYER1
  6
CONTINUOUS
 62
     7
 10
661.193428
 20
1847.805827
 11
661.832265
 21
1847.643296
  0
LINE
  8
CSLAYER1
  6
CONTINUOUS
 62
     7
 10
661.832265
 20
1847.643296
 11
662.483785
 21
1847.428524
  0
LINE
  8
CSLAYER1
  6
CONTINUOUS
 62
     7
 10
662.483785
 20
1847.428524
 11
663.143027
 21
1847.163145
  0
LINE
  8
CSLAYER1
  6
CONTINUOUS
 62
     7
 10
663.143027
 20
1847.163145
 11
663.804976
 21
1846.849180
  0
LINE
  8
CSLAYER1
  6
CONTINUOUS
 62
     7
 10
663.804976
 20
1846.849180
 11
664.464593
 21
1846.489019
  0
LINE
  8
CSLAYER1
  6
CONTINUOUS
 62
     7
 10
664.464593
 20
1846.489019
 11
665.116858
 21
1846.085401
  0
LINE
  8
CSLAYER1
  6
CONTINUOUS
 62
     7
 10
665.116858
 20
1846.085401
 11
665.756807
 21
1845.641399
  0
LINE
  8
CSLAYER1
  6
CONTINUOUS
 62
     7
 10
665.756807
 20
1845.641399
 11
666.379570
 21
1845.160392
  0
LINE
  8
CSLAYER1
  6
CONTINUOUS
 62
     7
 10
666.379570
 20
1845.160392
 11
666.980406
 21
1844.646041
  0
LINE
  8
CSLAYER1
  6
CONTINUOUS
 62
     7
 10
666.980406
 20
1844.646041
 11
667.554744
 21
1844.102260
  0
LINE
  8
CSLAYER1
  6
CONTINUOUS
 62
     7
 10
667.554744
 20
1844.102260
 11
668.098213
 21
1843.533188
  0
LINE
  8
CSLAYER1
  6
CONTINUOUS
 62
     7
 10
668.098213
 20
1843.533188
 11
668.606675
 21
1842.943155
  0
LINE
  8
CSLAYER1
  6
CONTINUOUS
 62
     7
 10
668.606675
 20
1842.943155
 11
669.076262
 21
1842.336653
  0
LINE
  8
CSLAYER1
  6
CONTINUOUS
 62
     7
 10
669.076262
 20
1842.336653
 11
669.503400
 21
1841.718297
  0
LINE
  8
CSLAYER1
  6
CONTINUOUS
 62
     7
 10
669.503400
 20
1841.718297
 11
669.884837
 21
1841.092792
  0
LINE
  8
CSLAYER1
  6
CONTINUOUS
 62
     7
 10
669.884837
 20
1841.092792
 11
670.217671
 21
1840.464901
  0
LINE
  8
CSLAYER1
  6
CONTINUOUS
 62
     7
 10
670.217671
 20
1840.464901
 11
670.499369
 21
1839.839401
  0
LINE
  8
CSLAYER1
  6
CONTINUOUS
 62
     7
 10
670.499369
 20
1839.839401
 11
670.727787
 21
1839.221052
  0
LINE
  8
CSLAYER1
  6
CONTINUOUS
 62
     7
 10
670.727787
 20
1839.221052
 11
670.901186
 21
1838.614561
  0
LINE
  8
CSLAYER1
  6
CONTINUOUS
 62
     7
 10
670.901186
 20
1838.614561
 11
671.018247
 21
1838.024543
  0
LINE
  8
CSLAYER1
  6
CONTINUOUS
 62
     7
 10
671.018247
 20
1838.024543
 11
671.078079
 21
1837.455490
  0
LINE
  8
CSLAYER1
  6
CONTINUOUS
 62
     7
 10
671.078079
 20
1837.455490
 11
671.080227
 21
1836.911730
  0
LINE
  8
CSLAYER1
  6
CONTINUOUS
 62
     7
 10
671.080227
 20
1836.911730
 11
671.024674
 21
1836.397404
  0
LINE
  8
CSLAYER1
  6
CONTINUOUS
 62
     7
 10
671.024674
 20
1836.397404
 11
670.911842
 21
1835.916426
  0
LINE
  8
CSLAYER1
  6
CONTINUOUS
 62
     7
 10
670.911842
 20
1835.916426
 11
670.742592
 21
1835.472455
  0
LINE
  8
CSLAYER1
  6
CONTINUOUS
 62
     7
 10
670.742592
 20
1835.472455
 11
670.518210
 21
1835.068871
  0
LINE
  8
CSLAYER1
  6
CONTINUOUS
 62
     7
 10
670.518210
 20
1835.068871
 11
670.240405
 21
1834.708745
  0
LINE
  8
CSLAYER1
  6
CONTINUOUS
 62
     7
 10
751.162807
 20
1968.460399
 11
751.162807
 21
1950.161064
  0
LINE
  8
CSLAYER1
  6
CONTINUOUS
 62
     7
 10
751.162807
 20
1950.161064
 11
751.162807
 21
1944.256831
  0
LINE
  8
CSLAYER1
  6
CONTINUOUS
 62
     7
 10
781.677938
 20
2021.815786
 11
781.677938
 21
2001.464583
  0
LINE
  8
CSLAYER1
  6
CONTINUOUS
 62
     7
 10
781.677938
 20
1983.928394
 11
781.677938
 21
1961.326639
  0
LINE
  8
CSLAYER1
  6
CONTINUOUS
 62
     7
 10
793.262806
 20
2014.656419
 11
796.097707
 21
2012.104059
  0
LINE
  8
CSLAYER1
  6
CONTINUOUS
 62
     7
 10
796.097707
 20
2012.104059
 11
798.533985
 21
2009.419694
  0
LINE
  8
CSLAYER1
  6
CONTINUOUS
 62
     7
 10
798.533985
 20
2009.419694
 11
800.553100
 21
2006.623754
  0
LINE
  8
CSLAYER1
  6
CONTINUOUS
 62
     7
 10
800.553100
 20
2006.623754
 11
802.139684
 21
2003.737515
  0
LINE
  8
CSLAYER1
  6
CONTINUOUS
 62
     7
 10
802.139684
 20
2003.737515
 11
803.281663
 21
2000.782946
  0
LINE
  8
CSLAYER1
  6
CONTINUOUS
 62
     7
 10
803.281663
 20
2000.782946
 11
803.970346
 21
1997.782532
  0
LINE
  8
CSLAYER1
  6
CONTINUOUS
 62
     7
 10
803.970346
 20
1997.782532
 11
804.200491
 21
1994.759108
  0
LINE
  8
CSLAYER1
  6
CONTINUOUS
 62
     7
 10
804.200491
 20
1994.759108
 11
803.970346
 21
1991.735684
  0
LINE
  8
CSLAYER1
  6
CONTINUOUS
 62
     7
 10
803.970346
 20
1991.735684
 11
803.281663
 21
1988.735270
  0
LINE
  8
CSLAYER1
  6
CONTINUOUS
 62
     7
 10
803.281663
 20
1988.735270
 11
802.139684
 21
1985.780700
  0
LINE
  8
CSLAYER1
  6
CONTINUOUS
 62
     7
 10
802.139684
 20
1985.780700
 11
800.553100
 21
1982.894462
  0
LINE
  8
CSLAYER1
  6
CONTINUOUS
 62
     7
 10
800.553100
 20
1982.894462
 11
798.533985
 21
1980.098522
  0
LINE
  8
CSLAYER1
  6
CONTINUOUS
 62
     7
 10
798.533985
 20
1980.098522
 11
796.097707
 21
1977.414157
  0
LINE
  8
CSLAYER1
  6
CONTINUOUS
 62
     7
 10
781.677938
 20
2021.815786
 11
786.486309
 21
2019.288574
  0
LINE
  8
CSLAYER1
  6
CONTINUOUS
 62
     7
 10
786.486309
 20
2019.288574
 11
790.050858
 21
2017.057348
  0
LINE
  8
CSLAYER1
  6
CONTINUOUS
 62
     7
 10
790.050858
 20
2017.057348
 11
793.262806
 21
2014.656419
  0
LINE
  8
CSLAYER1
  6
CONTINUOUS
 62
     7
 10
784.896899
 20
1997.515890
 11
785.150596
 21
1996.410597
  0
LINE
  8
CSLAYER1
  6
CONTINUOUS
 62
     7
 10
785.150596
 20
1996.410597
 11
785.324483
 21
1994.126232
  0
LINE
  8
CSLAYER1
  6
CONTINUOUS
 62
     7
 10
785.324483
 20
1994.126232
 11
785.150596
 21
1991.841867
  0
LINE
  8
CSLAYER1
  6
CONTINUOUS
 62
     7
 10
785.150596
 20
1991.841867
 11
784.630258
 21
1989.574887
  0
LINE
  8
CSLAYER1
  6
CONTINUOUS
 62
     7
 10
784.630258
 20
1989.574887
 11
783.767429
 21
1987.342546
  0
LINE
  8
CSLAYER1
  6
CONTINUOUS
 62
     7
 10
783.767429
 20
1987.342546
 11
782.568677
 21
1985.161833
  0
LINE
  8
CSLAYER1
  6
CONTINUOUS
 62
     7
 10
782.568677
 20
1985.161833
 11
781.677938
 21
1983.928394
  0
LINE
  8
CSLAYER1
  6
CONTINUOUS
 62
     7
 10
781.677938
 20
2001.473158
 11
781.635382
 21
2001.511473
  0
LINE
  8
CSLAYER1
  6
CONTINUOUS
 62
     7
 10
781.635382
 20
2001.511473
 11
783.476126
 21
1999.483286
  0
LINE
  8
CSLAYER1
  6
CONTINUOUS
 62
     7
 10
783.476126
 20
1999.483286
 11
785.001679
 21
1997.370797
  0
LINE
  8
CSLAYER1
  6
CONTINUOUS
 62
     7
 10
781.677938
 20
2001.464583
 11
781.677938
 21
1983.928394
  0
LINE
  8
CSLAYER1
  6
CONTINUOUS
 62
     7
 10
600.046571
 20
2021.684679
 11
543.213962
 21
2042.370057
  0
LINE
  8
CSLAYER1
  6
CONTINUOUS
 62
     7
 10
608.925044
 20
2032.755728
 11
552.092434
 21
2053.441107
  0
LINE
  8
CSLAYER1
  6
CONTINUOUS
 62
     7
 10
605.869140
 20
2032.437731
 11
549.079135
 21
2053.107603
  0
LINE
  8
CSLAYER1
  6
CONTINUOUS
 62
     7
 10
604.532922
 20
2031.493820
 11
547.700312
 21
2052.179198
  0
LINE
  8
CSLAYER1
  6
CONTINUOUS
 62
     7
 10
603.484493
 20
2030.445162
 11
546.651884
 21
2051.130540
  0
LINE
  8
CSLAYER1
  6
CONTINUOUS
 62
     7
 10
602.623984
 20
2029.328107
 11
545.791374
 21
2050.013485
  0
LINE
  8
CSLAYER1
  6
CONTINUOUS
 62
     7
 10
601.904080
 20
2028.159875
 11
545.071672
 21
2048.845180
  0
LINE
  8
CSLAYER1
  6
CONTINUOUS
 62
     7
 10
601.311344
 20
2026.945359
 11
544.478734
 21
2047.630737
  0
LINE
  8
CSLAYER1
  6
CONTINUOUS
 62
     7
 10
600.825548
 20
2025.691919
 11
543.992939
 21
2046.377297
  0
LINE
  8
CSLAYER1
  6
CONTINUOUS
 62
     7
 10
600.439678
 20
2024.402109
 11
543.612148
 21
2045.085639
  0
LINE
  8
CSLAYER1
  6
CONTINUOUS
 62
     7
 10
545.886820
 20
2036.391324
 11
545.472464
 21
2036.578874
  0
LINE
  8
CSLAYER1
  6
CONTINUOUS
 62
     7
 10
545.472464
 20
2036.578874
 11
545.084876
 21
2036.829877
  0
LINE
  8
CSLAYER1
  6
CONTINUOUS
 62
     7
 10
545.084876
 20
2036.829877
 11
544.727005
 21
2037.142422
  0
LINE
  8
CSLAYER1
  6
CONTINUOUS
 62
     7
 10
544.727005
 20
2037.142422
 11
544.401575
 21
2037.514130
  0
LINE
  8
CSLAYER1
  6
CONTINUOUS
 62
     7
 10
544.401575
 20
2037.514130
 11
544.111063
 21
2037.942172
  0
LINE
  8
CSLAYER1
  6
CONTINUOUS
 62
     7
 10
544.111063
 20
2037.942172
 11
543.857679
 21
2038.423291
  0
LINE
  8
CSLAYER1
  6
CONTINUOUS
 62
     7
 10
543.857679
 20
2038.423291
 11
543.643353
 21
2038.953825
  0
LINE
  8
CSLAYER1
  6
CONTINUOUS
 62
     7
 10
543.643353
 20
2038.953825
 11
543.469716
 21
2039.529737
  0
LINE
  8
CSLAYER1
  6
CONTINUOUS
 62
     7
 10
543.469716
 20
2039.529737
 11
543.338088
 21
2040.146642
  0
LINE
  8
CSLAYER1
  6
CONTINUOUS
 62
     7
 10
543.338088
 20
2040.146642
 11
543.249472
 21
2040.799847
  0
LINE
  8
CSLAYER1
  6
CONTINUOUS
 62
     7
 10
543.249472
 20
2040.799847
 11
543.204542
 21
2041.484381
  0
LINE
  8
CSLAYER1
  6
CONTINUOUS
 62
     7
 10
543.204542
 20
2041.484381
 11
543.203639
 21
2042.195032
  0
LINE
  8
CSLAYER1
  6
CONTINUOUS
 62
     7
 10
543.203639
 20
2042.195032
 11
543.246772
 21
2042.926393
  0
LINE
  8
CSLAYER1
  6
CONTINUOUS
 62
     7
 10
543.246772
 20
2042.926393
 11
543.333612
 21
2043.672899
  0
LINE
  8
CSLAYER1
  6
CONTINUOUS
 62
     7
 10
543.333612
 20
2043.672899
 11
543.463497
 21
2044.428866
  0
LINE
  8
CSLAYER1
  6
CONTINUOUS
 62
     7
 10
543.463497
 20
2044.428866
 11
543.635439
 21
2045.188543
  0
LINE
  8
CSLAYER1
  6
CONTINUOUS
 62
     7
 10
543.635439
 20
2045.188543
 11
543.848130
 21
2045.946146
  0
LINE
  8
CSLAYER1
  6
CONTINUOUS
 62
     7
 10
543.848130
 20
2045.946146
 11
544.099950
 21
2046.695912
  0
LINE
  8
CSLAYER1
  6
CONTINUOUS
 62
     7
 10
544.099950
 20
2046.695912
 11
544.388984
 21
2047.432133
  0
LINE
  8
CSLAYER1
  6
CONTINUOUS
 62
     7
 10
544.388984
 20
2047.432133
 11
544.713032
 21
2048.149206
  0
LINE
  8
CSLAYER1
  6
CONTINUOUS
 62
     7
 10
544.713032
 20
2048.149206
 11
545.069627
 21
2048.841675
  0
LINE
  8
CSLAYER1
  6
CONTINUOUS
 62
     7
 10
545.069627
 20
2048.841675
 11
545.456056
 21
2049.504268
  0
LINE
  8
CSLAYER1
  6
CONTINUOUS
 62
     7
 10
545.456056
 20
2049.504268
 11
545.869378
 21
2050.131943
  0
LINE
  8
CSLAYER1
  6
CONTINUOUS
 62
     7
 10
545.869378
 20
2050.131943
 11
546.306446
 21
2050.719924
  0
LINE
  8
CSLAYER1
  6
CONTINUOUS
 62
     7
 10
546.306446
 20
2050.719924
 11
546.763935
 21
2051.263734
  0
LINE
  8
CSLAYER1
  6
CONTINUOUS
 62
     7
 10
546.763935
 20
2051.263734
 11
547.238363
 21
2051.759237
  0
LINE
  8
CSLAYER1
  6
CONTINUOUS
 62
     7
 10
547.238363
 20
2051.759237
 11
547.726119
 21
2052.202659
  0
LINE
  8
CSLAYER1
  6
CONTINUOUS
 62
     7
 10
547.726119
 20
2052.202659
 11
548.223491
 21
2052.590628
  0
LINE
  8
CSLAYER1
  6
CONTINUOUS
 62
     7
 10
548.223491
 20
2052.590628
 11
548.726694
 21
2052.920190
  0
LINE
  8
CSLAYER1
  6
CONTINUOUS
 62
     7
 10
548.726694
 20
2052.920190
 11
549.231898
 21
2053.188836
  0
LINE
  8
CSLAYER1
  6
CONTINUOUS
 62
     7
 10
549.231898
 20
2053.188836
 11
549.735258
 21
2053.394523
  0
LINE
  8
CSLAYER1
  6
CONTINUOUS
 62
     7
 10
549.735258
 20
2053.394523
 11
550.232944
 21
2053.535685
  0
LINE
  8
CSLAYER1
  6
CONTINUOUS
 62
     7
 10
550.232944
 20
2053.535685
 11
550.721167
 21
2053.611247
  0
LINE
  8
CSLAYER1
  6
CONTINUOUS
 62
     7
 10
550.721167
 20
2053.611247
 11
551.196212
 21
2053.620635
  0
LINE
  8
CSLAYER1
  6
CONTINUOUS
 62
     7
 10
551.196212
 20
2053.620635
 11
551.654463
 21
2053.563778
  0
LINE
  8
CSLAYER1
  6
CONTINUOUS
 62
     7
 10
551.654463
 20
2053.563778
 11
552.092434
 21
2053.441107
  0
LINE
  8
CSLAYER1
  6
CONTINUOUS
 62
     7
 10
600.179782
 20
2023.066449
 11
543.342971
 21
2043.753356
  0
LINE
  8
CSLAYER1
  6
CONTINUOUS
 62
     7
 10
600.073540
 20
2020.244608
 11
543.240930
 21
2040.929986
  0
LINE
  8
CSLAYER1
  6
CONTINUOUS
 62
     7
 10
600.328530
 20
2018.721544
 11
543.508078
 21
2039.402497
  0
LINE
  8
CSLAYER1
  6
CONTINUOUS
 62
     7
 10
601.067074
 20
2017.022481
 11
544.281778
 21
2037.690639
  0
LINE
  8
CSLAYER1
  6
CONTINUOUS
 62
     7
 10
602.719430
 20
2015.705945
 11
545.886820
 21
2036.391324
  0
LINE
  8
CSLAYER1
  6
CONTINUOUS
 62
     7
 10
676.457104
 20
1993.220952
 11
659.296811
 21
1995.129707
  0
LINE
  8
CSLAYER1
  6
CONTINUOUS
 62
     7
 10
608.925044
 20
2032.755728
 11
609.339400
 21
2032.568178
  0
LINE
  8
CSLAYER1
  6
CONTINUOUS
 62
     7
 10
609.339400
 20
2032.568178
 11
609.726988
 21
2032.317175
  0
LINE
  8
CSLAYER1
  6
CONTINUOUS
 62
     7
 10
609.726988
 20
2032.317175
 11
610.084860
 21
2032.004630
  0
LINE
  8
CSLAYER1
  6
CONTINUOUS
 62
     7
 10
610.084860
 20
2032.004630
 11
610.410289
 21
2031.632922
  0
LINE
  8
CSLAYER1
  6
CONTINUOUS
 62
     7
 10
610.410289
 20
2031.632922
 11
610.700802
 21
2031.204880
  0
LINE
  8
CSLAYER1
  6
CONTINUOUS
 62
     7
 10
610.700802
 20
2031.204880
 11
610.954185
 21
2030.723761
  0
LINE
  8
CSLAYER1
  6
CONTINUOUS
 62
     7
 10
610.954185
 20
2030.723761
 11
611.168511
 21
2030.193227
  0
LINE
  8
CSLAYER1
  6
CONTINUOUS
 62
     7
 10
611.168511
 20
2030.193227
 11
611.342148
 21
2029.617316
  0
LINE
  8
CSLAYER1
  6
CONTINUOUS
 62
     7
 10
611.342148
 20
2029.617316
 11
611.450317
 21
2029.110357
  0
LINE
  8
CSLAYER1
  6
CONTINUOUS
 62
     7
 10
606.350508
 20
2016.400640
 11
606.085170
 21
2016.226862
  0
LINE
  8
CSLAYER1
  6
CONTINUOUS
 62
     7
 10
606.085170
 20
2016.226862
 11
605.579966
 21
2015.958216
  0
LINE
  8
CSLAYER1
  6
CONTINUOUS
 62
     7
 10
605.579966
 20
2015.958216
 11
605.076606
 21
2015.752529
  0
LINE
  8
CSLAYER1
  6
CONTINUOUS
 62
     7
 10
605.076606
 20
2015.752529
 11
604.578920
 21
2015.611367
  0
LINE
  8
CSLAYER1
  6
CONTINUOUS
 62
     7
 10
604.578920
 20
2015.611367
 11
604.090697
 21
2015.535805
  0
LINE
  8
CSLAYER1
  6
CONTINUOUS
 62
     7
 10
604.090697
 20
2015.535805
 11
603.615652
 21
2015.526417
  0
LINE
  8
CSLAYER1
  6
CONTINUOUS
 62
     7
 10
603.615652
 20
2015.526417
 11
603.157401
 21
2015.583274
  0
LINE
  8
CSLAYER1
  6
CONTINUOUS
 62
     7
 10
603.157401
 20
2015.583274
 11
602.719430
 21
2015.705945
  0
LINE
  8
CSLAYER1
  6
CONTINUOUS
 62
     7
 10
602.719430
 20
2015.705945
 11
602.305074
 21
2015.893496
  0
LINE
  8
CSLAYER1
  6
CONTINUOUS
 62
     7
 10
602.305074
 20
2015.893496
 11
601.917485
 21
2016.144499
  0
LINE
  8
CSLAYER1
  6
CONTINUOUS
 62
     7
 10
601.917485
 20
2016.144499
 11
601.559614
 21
2016.457043
  0
LINE
  8
CSLAYER1
  6
CONTINUOUS
 62
     7
 10
601.559614
 20
2016.457043
 11
601.234184
 21
2016.828751
  0
LINE
  8
CSLAYER1
  6
CONTINUOUS
 62
     7
 10
601.234184
 20
2016.828751
 11
600.943672
 21
2017.256794
  0
LINE
  8
CSLAYER1
  6
CONTINUOUS
 62
     7
 10
600.943672
 20
2017.256794
 11
600.690289
 21
2017.737913
  0
LINE
  8
CSLAYER1
  6
CONTINUOUS
 62
     7
 10
600.690289
 20
2017.737913
 11
600.475963
 21
2018.268447
  0
LINE
  8
CSLAYER1
  6
CONTINUOUS
 62
     7
 10
600.475963
 20
2018.268447
 11
600.302325
 21
2018.844358
  0
LINE
  8
CSLAYER1
  6
CONTINUOUS
 62
     7
 10
600.302325
 20
2018.844358
 11
600.170698
 21
2019.461264
  0
LINE
  8
CSLAYER1
  6
CONTINUOUS
 62
     7
 10
600.170698
 20
2019.461264
 11
600.082081
 21
2020.114469
  0
LINE
  8
CSLAYER1
  6
CONTINUOUS
 62
     7
 10
600.082081
 20
2020.114469
 11
600.037151
 21
2020.799002
  0
LINE
  8
CSLAYER1
  6
CONTINUOUS
 62
     7
 10
600.037151
 20
2020.799002
 11
600.036249
 21
2021.509654
  0
LINE
  8
CSLAYER1
  6
CONTINUOUS
 62
     7
 10
600.036249
 20
2021.509654
 11
600.079382
 21
2022.241015
  0
LINE
  8
CSLAYER1
  6
CONTINUOUS
 62
     7
 10
600.079382
 20
2022.241015
 11
600.166221
 21
2022.987520
  0
LINE
  8
CSLAYER1
  6
CONTINUOUS
 62
     7
 10
600.166221
 20
2022.987520
 11
600.296106
 21
2023.743488
  0
LINE
  8
CSLAYER1
  6
CONTINUOUS
 62
     7
 10
600.296106
 20
2023.743488
 11
600.468048
 21
2024.503164
  0
LINE
  8
CSLAYER1
  6
CONTINUOUS
 62
     7
 10
600.468048
 20
2024.503164
 11
600.680739
 21
2025.260768
  0
LINE
  8
CSLAYER1
  6
CONTINUOUS
 62
     7
 10
600.680739
 20
2025.260768
 11
600.932560
 21
2026.010534
  0
LINE
  8
CSLAYER1
  6
CONTINUOUS
 62
     7
 10
600.932560
 20
2026.010534
 11
601.221594
 21
2026.746755
  0
LINE
  8
CSLAYER1
  6
CONTINUOUS
 62
     7
 10
601.221594
 20
2026.746755
 11
601.545642
 21
2027.463828
  0
LINE
  8
CSLAYER1
  6
CONTINUOUS
 62
     7
 10
601.545642
 20
2027.463828
 11
601.902237
 21
2028.156296
  0
LINE
  8
CSLAYER1
  6
CONTINUOUS
 62
     7
 10
601.902237
 20
2028.156296
 11
602.288666
 21
2028.818889
  0
LINE
  8
CSLAYER1
  6
CONTINUOUS
 62
     7
 10
602.288666
 20
2028.818889
 11
602.701987
 21
2029.446565
  0
LINE
  8
CSLAYER1
  6
CONTINUOUS
 62
     7
 10
602.701987
 20
2029.446565
 11
603.139056
 21
2030.034545
  0
LINE
  8
CSLAYER1
  6
CONTINUOUS
 62
     7
 10
603.139056
 20
2030.034545
 11
603.596545
 21
2030.578356
  0
LINE
  8
CSLAYER1
  6
CONTINUOUS
 62
     7
 10
603.596545
 20
2030.578356
 11
604.070973
 21
2031.073858
  0
LINE
  8
CSLAYER1
  6
CONTINUOUS
 62
     7
 10
604.070973
 20
2031.073858
 11
604.558729
 21
2031.517281
  0
LINE
  8
CSLAYER1
  6
CONTINUOUS
 62
     7
 10
604.558729
 20
2031.517281
 11
605.056101
 21
2031.905250
  0
LINE
  8
CSLAYER1
  6
CONTINUOUS
 62
     7
 10
605.056101
 20
2031.905250
 11
605.559304
 21
2032.234811
  0
LINE
  8
CSLAYER1
  6
CONTINUOUS
 62
     7
 10
605.559304
 20
2032.234811
 11
606.064508
 21
2032.503458
  0
LINE
  8
CSLAYER1
  6
CONTINUOUS
 62
     7
 10
606.064508
 20
2032.503458
 11
606.567868
 21
2032.709145
  0
LINE
  8
CSLAYER1
  6
CONTINUOUS
 62
     7
 10
606.567868
 20
2032.709145
 11
607.065554
 21
2032.850307
  0
LINE
  8
CSLAYER1
  6
CONTINUOUS
 62
     7
 10
607.065554
 20
2032.850307
 11
607.553777
 21
2032.925869
  0
LINE
  8
CSLAYER1
  6
CONTINUOUS
 62
     7
 10
607.553777
 20
2032.925869
 11
608.028822
 21
2032.935257
  0
LINE
  8
CSLAYER1
  6
CONTINUOUS
 62
     7
 10
608.028822
 20
2032.935257
 11
608.487073
 21
2032.878399
  0
LINE
  8
CSLAYER1
  6
CONTINUOUS
 62
     7
 10
608.487073
 20
2032.878399
 11
608.925044
 21
2032.755728
  0
LINE
  8
CSLAYER1
  6
CONTINUOUS
 62
     7
 10
677.968131
 20
2006.805554
 11
660.752479
 21
2008.720466
  0
LINE
  8
CSLAYER1
  6
CONTINUOUS
 62
     7
 10
602.405028
 20
2025.430899
 11
602.623538
 21
2025.987482
  0
LINE
  8
CSLAYER1
  6
CONTINUOUS
 62
     7
 10
602.623538
 20
2025.987482
 11
602.868518
 21
2026.529590
  0
LINE
  8
CSLAYER1
  6
CONTINUOUS
 62
     7
 10
602.868518
 20
2026.529590
 11
603.138104
 21
2027.053096
  0
LINE
  8
CSLAYER1
  6
CONTINUOUS
 62
     7
 10
603.138104
 20
2027.053096
 11
603.430244
 21
2027.554016
  0
LINE
  8
CSLAYER1
  6
CONTINUOUS
 62
     7
 10
603.430244
 20
2027.554016
 11
603.742715
 21
2028.028539
  0
LINE
  8
CSLAYER1
  6
CONTINUOUS
 62
     7
 10
603.742715
 20
2028.028539
 11
604.073139
 21
2028.473052
  0
LINE
  8
CSLAYER1
  6
CONTINUOUS
 62
     7
 10
604.073139
 20
2028.473052
 11
604.419001
 21
2028.884173
  0
LINE
  8
CSLAYER1
  6
CONTINUOUS
 62
     7
 10
604.419001
 20
2028.884173
 11
604.777668
 21
2029.258773
  0
LINE
  8
CSLAYER1
  6
CONTINUOUS
 62
     7
 10
604.777668
 20
2029.258773
 11
605.146412
 21
2029.594000
  0
LINE
  8
CSLAYER1
  6
CONTINUOUS
 62
     7
 10
605.146412
 20
2029.594000
 11
605.522425
 21
2029.887304
  0
LINE
  8
CSLAYER1
  6
CONTINUOUS
 62
     7
 10
605.522425
 20
2029.887304
 11
605.902846
 21
2030.136453
  0
LINE
  8
CSLAYER1
  6
CONTINUOUS
 62
     7
 10
605.902846
 20
2030.136453
 11
606.284781
 21
2030.339550
  0
LINE
  8
CSLAYER1
  6
CONTINUOUS
 62
     7
 10
606.284781
 20
2030.339550
 11
606.665321
 21
2030.495049
  0
LINE
  8
CSLAYER1
  6
CONTINUOUS
 62
     7
 10
606.665321
 20
2030.495049
 11
607.041571
 21
2030.601767
  0
LINE
  8
CSLAYER1
  6
CONTINUOUS
 62
     7
 10
607.041571
 20
2030.601767
 11
607.410668
 21
2030.658893
  0
LINE
  8
CSLAYER1
  6
CONTINUOUS
 62
     7
 10
607.410668
 20
2030.658893
 11
607.769802
 21
2030.665990
  0
LINE
  8
CSLAYER1
  6
CONTINUOUS
 62
     7
 10
607.769802
 20
2030.665990
 11
608.116240
 21
2030.623005
  0
LINE
  8
CSLAYER1
  6
CONTINUOUS
 62
     7
 10
608.116240
 20
2030.623005
 11
608.483563
 21
2030.520122
  0
LINE
  8
CSLAYER1
  6
CONTINUOUS
 62
     7
 10
603.442649
 20
2017.782419
 11
603.149632
 21
2017.972177
  0
LINE
  8
CSLAYER1
  6
CONTINUOUS
 62
     7
 10
603.149632
 20
2017.972177
 11
602.879081
 21
2018.208460
  0
LINE
  8
CSLAYER1
  6
CONTINUOUS
 62
     7
 10
602.879081
 20
2018.208460
 11
602.633056
 21
2018.489472
  0
LINE
  8
CSLAYER1
  6
CONTINUOUS
 62
     7
 10
602.633056
 20
2018.489472
 11
602.413429
 21
2018.813072
  0
LINE
  8
CSLAYER1
  6
CONTINUOUS
 62
     7
 10
602.413429
 20
2018.813072
 11
602.221871
 21
2019.176798
  0
LINE
  8
CSLAYER1
  6
CONTINUOUS
 62
     7
 10
602.221871
 20
2019.176798
 11
602.059841
 21
2019.577881
  0
LINE
  8
CSLAYER1
  6
CONTINUOUS
 62
     7
 10
602.059841
 20
2019.577881
 11
601.928571
 21
2020.013270
  0
LINE
  8
CSLAYER1
  6
CONTINUOUS
 62
     7
 10
601.928571
 20
2020.013270
 11
601.829060
 21
2020.479651
  0
LINE
  8
CSLAYER1
  6
CONTINUOUS
 62
     7
 10
601.829060
 20
2020.479651
 11
601.762066
 21
2020.973474
  0
LINE
  8
CSLAYER1
  6
CONTINUOUS
 62
     7
 10
601.762066
 20
2020.973474
 11
601.728099
 21
2021.490981
  0
LINE
  8
CSLAYER1
  6
CONTINUOUS
 62
     7
 10
601.728099
 20
2021.490981
 11
601.727417
 21
2022.028234
  0
LINE
  8
CSLAYER1
  6
CONTINUOUS
 62
     7
 10
601.727417
 20
2022.028234
 11
601.760025
 21
2022.581143
  0
LINE
  8
CSLAYER1
  6
CONTINUOUS
 62
     7
 10
601.760025
 20
2022.581143
 11
601.825676
 21
2023.145501
  0
LINE
  8
CSLAYER1
  6
CONTINUOUS
 62
     7
 10
601.825676
 20
2023.145501
 11
601.923869
 21
2023.717012
  0
LINE
  8
CSLAYER1
  6
CONTINUOUS
 62
     7
 10
601.923869
 20
2023.717012
 11
602.053857
 21
2024.291328
  0
LINE
  8
CSLAYER1
  6
CONTINUOUS
 62
     7
 10
602.053857
 20
2024.291328
 11
602.214652
 21
2024.864076
  0
LINE
  8
CSLAYER1
  6
CONTINUOUS
 62
     7
 10
602.214652
 20
2024.864076
 11
602.405028
 21
2025.430899
  0
ARC
  8
CSLAYER1
  6
CONTINUOUS
 62
     7
 10
678.401393
 20
2000.869755
 40
7.892050
 50
255.737756
 51
348.379625
  0
LINE
  8
CSLAYER1
  6
CONTINUOUS
 62
     7
 10
677.968131
 20
2006.805554
 11
699.189720
 21
2020.066274
  0
INSERT
  8
CSLAYER1
  2
EASYDRAWDIM0003
 10
0.0
 20
0.0
 30
0.0
  0
INSERT
  8
CSLAYER1
  2
EASYDRAWDIM0004
 10
0.0
 20
0.0
 30
0.0
  0
TEXT
  8
CSLAYER1
 62
     3
 10
474.566467
 20
2326.584717
 40
40.000000
 41
0.771429
  1
足踏式油圧ポンプユニット
 50
0.000000
 51
0.000000
  7
EASYDRAW_FONT
 72
     5
 11
834.566467
 21
2326.584717
  0
TEXT
  8
CSLAYER1
 62
     3
 10
384.590881
 20
1721.633423
 40
40.000000
 41
0.763393
  1
外形寸法 400W×500D×280H
 50
0.000000
 51
0.000000
  7
EASYDRAW_FONT
 72
     5
 11
954.590881
 21
1721.633423
  0
LINE
  8
CSLAYER1
  6
CONTINUOUS
 62
     5
 10
1043.154717
 20
2399.659972
 11
1043.154717
 21
1695.550383
  0
LINE
  8
CSLAYER1
  6
CONTINUOUS
 62
     5
 10
1043.154717
 20
1695.550383
 11
241.860586
 21
1695.550383
  0
INSERT
  8
CSLAYER1
  2
EASYDRAWDIM0005
 10
0.0
 20
0.0
 30
0.0
  0
LINE
  8
CSLAYER1
  6
CONTINUOUS
 62
     7
 10
459.657491
 20
2372.031115
 11
849.668738
 21
2372.031115
  0
LINE
  8
CSLAYER1
  6
CONTINUOUS
 62
     7
 10
849.668738
 20
2372.031115
 11
849.668738
 21
2321.886812
  0
LINE
  8
CSLAYER1
  6
CONTINUOUS
 62
     7
 10
849.668738
 20
2321.886812
 11
459.657491
 21
2321.886812
  0
LINE
  8
CSLAYER1
  6
CONTINUOUS
 62
     7
 10
459.657491
 20
2321.886812
 11
459.657491
 21
2372.031115
  0
INSERT
  8
CSLAYER1
  2
BLKF0011
 10
0.0
 20
0.0
 30
0.0
  0
INSERT
  8
CSLAYER1
  2
BLKF0012
 10
0.0
 20
0.0
 30
0.0
  0
LINE
  8
CSLAYER1
  6
CONTINUOUS
 62
     7
 10
645.683714
 20
2056.006271
 11
642.736822
 21
2054.304882
  0
LINE
  8
CSLAYER1
  6
CONTINUOUS
 62
     7
 10
650.107325
 20
2048.344352
 11
647.160433
 21
2046.642963
  0
LINE
  8
CSLAYER1
  6
CONTINUOUS
 62
     7
 10
643.587517
 20
2052.831436
 11
645.976565
 21
2052.254362
  0
LINE
  8
CSLAYER1
  6
CONTINUOUS
 62
     7
 10
645.976565
 20
2052.254362
 11
647.004503
 21
2050.473923
  0
LINE
  8
CSLAYER1
  6
CONTINUOUS
 62
     7
 10
647.004503
 20
2050.473923
 11
646.309739
 21
2048.116409
  0
LINE
  8
CSLAYER1
  6
CONTINUOUS
 62
     7
 10
646.309739
 20
2048.116409
 11
643.920690
 21
2048.693483
  0
LINE
  8
CSLAYER1
  6
CONTINUOUS
 62
     7
 10
643.920690
 20
2048.693483
 11
642.892753
 21
2050.473923
  0
LINE
  8
CSLAYER1
  6
CONTINUOUS
 62
     7
 10
642.892753
 20
2050.473923
 11
643.587517
 21
2052.831436
  0
INSERT
  8
CSLAYER1
  2
BLKF0013
 10
0.0
 20
0.0
 30
0.0
  0
LINE
  8
CSLAYER1
  6
CONTINUOUS
 62
     7
 10
646.881065
 20
2058.143378
 11
644.696259
 21
2056.881980
  0
LINE
  8
CSLAYER1
  6
CONTINUOUS
 62
     7
 10
652.794744
 20
2047.621740
 11
650.694028
 21
2046.444172
  0
INSERT
  8
CSLAYER1
  2
BLKF0014
 10
0.0
 20
0.0
 30
0.0
  0
LINE
  8
CSLAYER1
  6
CONTINUOUS
 62
     7
 10
673.946054
 20
2060.556043
 11
652.901778
 21
2068.215532
  0
LINE
  8
CSLAYER1
  6
CONTINUOUS
 62
     7
 10
673.946054
 20
2060.556043
 11
673.946054
 21
2026.747708
  0
LINE
  8
CSLAYER1
  6
CONTINUOUS
 62
     7
 10
663.750961
 20
2054.185441
 11
663.750961
 21
2008.386943
  0
LINE
  8
CSLAYER1
  6
CONTINUOUS
 62
     7
 10
648.598039
 20
2030.613364
 11
646.464115
 21
2023.622431
  0
LINE
  8
CSLAYER1
  6
CONTINUOUS
 62
     7
 10
646.464115
 20
2023.622431
 11
639.342827
 21
2025.269865
  0
LINE
  8
CSLAYER1
  6
CONTINUOUS
 62
     7
 10
639.342827
 20
2025.269865
 11
636.257756
 21
2030.613364
  0
LINE
  8
CSLAYER1
  6
CONTINUOUS
 62
     7
 10
636.257756
 20
2030.613364
 11
638.342898
 21
2037.688792
  0
LINE
  8
CSLAYER1
  6
CONTINUOUS
 62
     7
 10
638.342898
 20
2037.688792
 11
645.512969
 21
2035.956864
  0
LINE
  8
CSLAYER1
  6
CONTINUOUS
 62
     7
 10
645.512969
 20
2035.956864
 11
648.598039
 21
2030.613364
  0
LINE
  8
CSLAYER1
  6
CONTINUOUS
 62
     7
 10
651.266618
 20
2032.154069
 11
649.132694
 21
2025.163135
  0
LINE
  8
CSLAYER1
  6
CONTINUOUS
 62
     7
 10
648.181547
 20
2037.497568
 11
651.266618
 21
2032.154069
  0
LINE
  8
CSLAYER1
  6
CONTINUOUS
 62
     7
 10
641.011476
 20
2039.229497
 11
648.181547
 21
2037.497568
  0
LINE
  8
CSLAYER1
  6
CONTINUOUS
 62
     7
 10
649.132694
 20
2025.163135
 11
646.464115
 21
2023.622431
  0
LINE
  8
CSLAYER1
  6
CONTINUOUS
 62
     7
 10
651.266618
 20
2032.154069
 11
648.598039
 21
2030.613364
  0
LINE
  8
CSLAYER1
  6
CONTINUOUS
 62
     7
 10
648.181547
 20
2037.497568
 11
645.512969
 21
2035.956864
  0
LINE
  8
CSLAYER1
  6
CONTINUOUS
 62
     7
 10
641.011476
 20
2039.229497
 11
638.342898
 21
2037.688792
  0
INSERT
  8
CSLAYER1
  2
BLKF0015
 10
0.0
 20
0.0
 30
0.0
  0
LINE
  8
CSLAYER1
  6
CONTINUOUS
 62
     7
 10
665.058678
 20
2060.169031
 11
663.398971
 21
2058.424926
  0
LINE
  8
CSLAYER1
  6
CONTINUOUS
 62
     7
 10
663.398971
 20
2058.424926
 11
661.385053
 21
2058.424926
  0
LINE
  8
CSLAYER1
  6
CONTINUOUS
 62
     7
 10
661.385053
 20
2058.424926
 11
659.725345
 21
2060.169031
  0
LINE
  8
CSLAYER1
  6
CONTINUOUS
 62
     7
 10
659.725345
 20
2060.169031
 11
661.385053
 21
2061.913135
  0
LINE
  8
CSLAYER1
  6
CONTINUOUS
 62
     7
 10
661.385053
 20
2061.913135
 11
663.398971
 21
2061.913135
  0
LINE
  8
CSLAYER1
  6
CONTINUOUS
 62
     7
 10
663.398971
 20
2061.913135
 11
665.058678
 21
2060.169031
  0
INSERT
  8
CSLAYER1
  2
BLKF0016
 10
0.0
 20
0.0
 30
0.0
  0
LINE
  8
CSLAYER1
  6
CONTINUOUS
 62
     7
 10
663.750961
 20
2054.185441
 11
642.706685
 21
2061.844931
  0
LINE
  8
CSLAYER1
  6
CONTINUOUS
 62
     7
 10
663.750961
 20
2054.185441
 11
673.946054
 21
2060.556043
  0
LINE
  8
CSLAYER1
  6
CONTINUOUS
 62
     7
 10
629.178074
 20
2065.452395
 11
629.178074
 21
2020.686345
  0
LINE
  8
CSLAYER1
  6
CONTINUOUS
 62
     7
 10
642.706685
 20
2061.844931
 11
652.901778
 21
2068.215532
  0
LINE
  8
CSLAYER1
  6
CONTINUOUS
 62
     7
 10
642.706685
 20
2060.528384
 11
629.178074
 21
2065.452395
  0
LINE
  8
CSLAYER1
  6
CONTINUOUS
 62
     7
 10
642.706685
 20
2061.844931
 11
642.706685
 21
2060.528384
  0
LINE
  8
CSLAYER1
  6
CONTINUOUS
 62
     7
 10
638.632210
 20
2060.832126
 11
631.993864
 21
2063.248287
  0
LINE
  8
CSLAYER1
  6
CONTINUOUS
 62
     7
 10
631.599886
 20
2064.570928
 11
631.993864
 21
2063.248287
  0
LINE
  8
CSLAYER1
  6
CONTINUOUS
 62
     7
 10
638.632210
 20
2060.832126
 11
640.846715
 21
2061.205357
  0
LINE
  8
CSLAYER1
  6
CONTINUOUS
 62
     7
 10
651.570372
 20
2067.383577
 11
645.295300
 21
2069.667517
  0
LINE
  8
CSLAYER1
  6
CONTINUOUS
 62
     7
 10
629.178074
 20
2065.452395
 11
638.233974
 21
2071.111149
  0
LINE
  8
CSLAYER1
  6
CONTINUOUS
 62
     7
 10
638.632210
 20
2060.832126
 11
638.632210
 21
2047.078672
  0
LINE
  8
CSLAYER1
  6
CONTINUOUS
 62
     7
 10
640.846715
 20
2061.205357
 11
640.846715
 21
2048.551337
  0
LINE
  8
CSLAYER1
  6
CONTINUOUS
 62
     7
 10
631.993864
 20
2063.248287
 11
631.993864
 21
2049.494832
  0
LINE
  8
CSLAYER1
  6
CONTINUOUS
 62
     7
 10
631.993864
 20
2049.494832
 11
633.718793
 21
2044.378785
  0
LINE
  8
CSLAYER1
  6
CONTINUOUS
 62
     7
 10
638.632210
 20
2047.078672
 11
636.255050
 21
2043.315194
  0
LINE
  8
CSLAYER1
  6
CONTINUOUS
 62
     7
 10
633.718793
 20
2044.378785
 11
633.718793
 21
2018.893493
  0
LINE
  8
CSLAYER1
  6
CONTINUOUS
 62
     7
 10
636.255050
 20
2043.315194
 11
636.255050
 21
2017.175384
  0
LINE
  8
CSLAYER1
  6
CONTINUOUS
 62
     7
 10
638.632210
 20
2047.078672
 11
640.753959
 21
2048.404487
  0
LINE
  8
CSLAYER1
  6
CONTINUOUS
 62
     7
 10
636.255050
 20
2043.315194
 11
638.376798
 21
2044.641009
  0
LINE
  8
CSLAYER1
  6
CONTINUOUS
 62
     7
 10
640.846715
 20
2048.551337
 11
638.469554
 21
2044.787859
  0
LINE
  8
CSLAYER1
  6
CONTINUOUS
 62
     7
 10
638.469554
 20
2044.787859
 11
638.469554
 21
2037.761917
  0
LINE
  8
CSLAYER1
  6
CONTINUOUS
 62
     7
 10
638.469554
 20
2026.782418
 11
638.469554
 21
2016.275421
  0
LINE
  8
CSLAYER1
  6
CONTINUOUS
 62
     7
 10
673.946054
 20
2026.747708
 11
676.480852
 21
2028.331626
  0
LINE
  8
CSLAYER1
  6
CONTINUOUS
 62
     7
 10
644.820180
 20
2013.253409
 11
608.483563
 21
2030.520122
  0
LINE
  8
CSLAYER1
  6
CONTINUOUS
 62
     7
 10
638.903469
 20
2000.931874
 11
603.442649
 21
2017.782419
  0
LINE
  8
CSLAYER1
  6
CONTINUOUS
 62
     7
 10
689.111086
 20
2013.768445
 11
686.131685
 21
1999.280089
  0
ARC
  8
CSLAYER1
  6
CONTINUOUS
 62
     7
 10
666.279936
 20
2058.413999
 40
50.000000
 50
244.583509
 51
263.653028
  0
ARC
  8
CSLAYER1
  6
CONTINUOUS
 62
     7
 10
666.371956
 20
2058.737429
 40
64.000000
 50
244.583509
 51
263.653028
  0
LINE
  8
CSLAYER1
  6
CONTINUOUS
 62
     7
 10
657.445068
 20
1995.363060
 11
657.445068
 21
1992.467332
  0
LINE
  8
CSLAYER1
  6
CONTINUOUS
 62
     7
 10
634.486094
 20
2000.823715
 11
631.679151
 21
2004.364780
  0
LINE
  8
CSLAYER1
  6
CONTINUOUS
 62
     5
 10
2714.433897
 20
541.113042
 11
3514.433897
 21
541.113042
  0
LINE
  8
CSLAYER1
  6
CONTINUOUS
 62
     5
 10
2714.433897
 20
181.113042
 11
3514.433897
 21
181.113042
  0
LINE
  8
CSLAYER1
  6
CONTINUOUS
 62
     5
 10
2714.433897
 20
341.113042
 11
3514.433897
 21
341.113042
  0
LINE
  8
CSLAYER1
  6
CONTINUOUS
 62
     5
 10
2714.433897
 20
401.113042
 11
3514.433897
 21
401.113042
  0
LINE
  8
CSLAYER1
  6
CONTINUOUS
 62
     5
 10
2714.433897
 20
461.113042
 11
3514.433897
 21
461.113042
  0
LINE
  8
CSLAYER1
  6
CONTINUOUS
 62
     5
 10
2714.433897
 20
621.113042
 11
3514.433897
 21
621.113042
  0
LINE
  8
CSLAYER1
  6
CONTINUOUS
 62
     5
 10
2714.433897
 20
701.113042
 11
2714.433897
 21
101.113042
  0
LINE
  8
CSLAYER1
  6
CONTINUOUS
 62
     5
 10
2914.433897
 20
701.113042
 11
2914.433897
 21
461.113042
  0
LINE
  8
CSLAYER1
  6
CONTINUOUS
 62
     5
 10
2714.433897
 20
701.113042
 11
3514.433897
 21
701.113042
  0
LINE
  8
CSLAYER1
  6
CONTINUOUS
 62
     5
 10
3214.433897
 20
461.113042
 11
3214.433897
 21
181.113042
  0
TEXT
  8
CSLAYER1
 62
     3
 10
2934.125057
 20
109.675755
 40
59.380363
 41
1.003345
  1
東正車輌株式会社
 50
0.000000
 51
0.000000
  7
EASYDRAW_FONT
 72
     5
 11
3390.897404
 21
109.675755
  0
LINE
  8
CSLAYER1
  6
CONTINUOUS
 62
     5
 10
2964.433897
 20
401.113042
 11
2964.433897
 21
181.113042
  0
TEXT
  8
CSLAYER1
 62
     5
 10
2744.433838
 20
636.112976
 40
50.000000
 41
1.050000
  1
品　名
 50
0.000000
 51
0.000000
  7
EASYDRAW_FONT
 72
     5
 11
2884.433838
 21
636.112976
  0
TEXT
  8
CSLAYER1
 62
     5
 10
2744.433838
 20
556.112976
 40
50.000000
 41
1.050000
  1
型　式
 50
0.000000
 51
0.000000
  7
EASYDRAW_FONT
 72
     5
 11
2884.433838
 21
556.112976
  0
TEXT
  8
CSLAYER1
 62
     5
 10
2719.433838
 20
476.113068
 40
50.000000
 41
1.036364
  1
図面番号
 50
0.000000
 51
0.000000
  7
EASYDRAW_FONT
 72
     5
 11
2909.433838
 21
476.113068
  0
TEXT
  8
CSLAYER1
 62
     5
 10
2744.433838
 20
406.113068
 40
50.000000
 41
0.825000
  1
平成26年01月10日
 50
0.000000
 51
0.000000
  7
EASYDRAW_FONT
 72
     5
 11
3184.433838
 21
406.113068
  0
TEXT
  8
CSLAYER1
 62
     5
 10
3294.433838
 20
406.113068
 40
50.000000
 41
1.050000
  1
Ｂ－４
 50
0.000000
 51
0.000000
  7
EASYDRAW_FONT
 72
     5
 11
3434.433838
 21
406.113068
  0
TEXT
  8
CSLAYER1
 62
     5
 10
2769.433838
 20
346.113068
 40
50.000000
 41
1.050000
  1
検　図
 50
0.000000
 51
0.000000
  7
EASYDRAW_FONT
 72
     5
 11
2909.433838
 21
346.113068
  0
TEXT
  8
CSLAYER1
 62
     5
 10
3019.433838
 20
346.113068
 40
50.000000
 41
1.050000
  1
作　図
 50
0.000000
 51
0.000000
  7
EASYDRAW_FONT
 72
     5
 11
3159.433838
 21
346.113068
  0
TEXT
  8
CSLAYER1
 62
     5
 10
3294.433838
 20
346.113068
 40
50.000000
 41
1.050000
  1
尺　度
 50
0.000000
 51
0.000000
  7
EASYDRAW_FONT
 72
     5
 11
3434.433838
 21
346.113068
  0
TEXT
  8
CSLAYER1
 62
     5
 10
3395.172607
 20
195.598297
 40
50.000000
 41
1.080000
  1
１０
 50
0.000000
 51
0.000000
  7
EASYDRAW_FONT
 72
     5
 11
3485.172607
 21
195.598297
  0
TEXT
  8
CSLAYER1
 62
     5
 10
3374.853027
 20
243.303009
 40
50.000000
 41
1.200000
  1
／
 50
0.000000
 51
0.000000
  7
EASYDRAW_FONT
 72
     5
 11
3414.853027
 21
243.303009
  0
TEXT
  8
CSLAYER1
 62
     5
 10
3344.640137
 20
278.286469
 40
50.000000
 41
1.200000
  1
１
 50
0.000000
 51
0.000000
  7
EASYDRAW_FONT
 72
     5
 11
3384.640137
 21
278.286469
  0
TEXT
  8
CSLAYER1
 62
     3
 10
3054.433838
 20
636.112976
 40
50.000000
 41
0.834783
  1
ゴールドリフター
 50
0.000000
 51
0.000000
  7
EASYDRAW_FONT
 72
     5
 11
3374.433838
 21
636.112976
  0
TEXT
  8
CSLAYER1
 62
     3
 10
2954.433838
 20
556.112976
 40
50.000000
 41
0.821053
  1
GLSH-250-3008
 50
0.000000
 51
0.000000
  7
EASYDRAW_FONT
 72
     5
 11
3474.433838
 21
556.112976
  0
INSERT
  8
CSLAYER1
  2
BLKF0017
 10
0.0
 20
0.0
 30
0.0
  0
INSERT
  8
CSLAYER1
  2
EASYDRAWDIM0006
 10
0.0
 20
0.0
 30
0.0
  0
LINE
  8
CSLAYER1
  6
CONTINUOUS
 62
     5
 10
1034.785780
 20
652.107053
 11
1291.982898
 21
652.107053
  0
TEXT
  8
CSLAYER1
 62
     3
 10
1070.039673
 20
659.915833
 40
40.000000
 41
0.787500
  1
(アンカー穴)
 50
0.000000
 51
0.000000
  7
EASYDRAW_FONT
 72
     5
 11
1280.039673
 21
659.915833
  0
LINE
  8
CSLAYER1
  6
CONTINUOUS
 62
     5
 10
931.750187
 20
812.889665
 11
1034.785780
 21
652.107053
  0
LINE
  8
CSLAYER1
  6
CONTINUOUS
 62
     5
 10
931.750187
 20
812.889665
 11
953.922652
 21
792.681207
  0
LINE
  8
CSLAYER1
  6
CONTINUOUS
 62
     5
 10
931.750187
 20
812.889665
 11
940.847875
 21
784.302394
  0
LINE
  8
CSLAYER1
  6
CONTINUOUS
 62
     5
 10
955.927344
 20
814.014813
 11
1391.336170
 21
814.014813
  0
LINE
  8
CSLAYER1
  6
CONTINUOUS
 62
     3
 10
1391.336170
 20
814.014813
 11
2194.336170
 21
814.014813
  0
LINE
  8
CSLAYER1
  6
CONTINUOUS
 62
     5
 10
2194.336170
 20
814.014813
 11
2718.852636
 21
814.014813
  0
LINE
  8
CSLAYER1
  6
CONTINUOUS
 62
     3
 10
2610.341525
 20
814.014813
 11
2910.341525
 21
814.014813
  0
LINE
  8
CSLAYER1
  6
CONTINUOUS
 62
     5
 10
2910.341525
 20
814.014813
 11
3167.980347
 21
814.014813
  0
DIMENSION
  8
CSLAYER1
 62
     3
  2
*D0011
 10
2421.581129
 20
1425.578484
 11
2411.581055
 21
1119.796631
 13
2213.881129
 23
814.014813
 14
2213.881129
 24
1425.578484
 50
90.000000
 70
1
  0
DIMENSION
  8
CSLAYER1
 62
     3
  2
*D0012
 10
2194.336170
 20
604.014813
 11
1792.836182
 21
614.014771
 13
1391.336170
 23
814.014813
 14
2194.336170
 24
814.014813
 52
270.000000
 70
1
  0
DIMENSION
  8
CSLAYER1
 62
     3
  2
*D0013
 10
1416.336170
 20
694.014813
 11
1476.336182
 21
704.014771
 13
1391.336170
 23
814.014813
 14
1416.336170
 24
820.545158
 52
270.000000
  0
DIMENSION
  8
CSLAYER1
 62
     3
  2
*D0014
 10
1416.336170
 20
1711.958687
 11
1338.827759
 21
1721.958618
 13
1391.336170
 23
1841.958687
 14
1416.336170
 24
1845.695885
 52
270.000000
  0
DIMENSION
  8
CSLAYER1
 62
     3
  2
*D0015
 10
1441.336170
 20
1621.958687
 11
1338.827759
 21
1631.958618
 13
1391.336170
 23
1841.958687
 14
1441.336170
 24
1841.958687
 52
270.000000
 70
1
  0
INSERT
  8
CSLAYER1
  2
EASYDRAWDIM0007
 10
0.0
 20
0.0
 30
0.0
  0
LINE
  8
CSLAYER1
  6
CONTINUOUS
 62
     5
 10
1414.247352
 20
812.960064
 11
1291.982898
 21
652.107053
  0
LINE
  8
CSLAYER1
  6
CONTINUOUS
 62
     5
 10
1414.247352
 20
812.960064
 11
1402.893474
 21
785.191566
  0
LINE
  8
CSLAYER1
  6
CONTINUOUS
 62
     5
 10
1414.247352
 20
812.960064
 11
1390.530357
 21
794.588778
  0
LINE
  8
CSLAYER1
  6
CONTINUOUS
 62
     5
 10
1416.336170
 20
1856.958687
 11
1501.738759
 21
1711.958687
  0
LINE
  8
CSLAYER1
  6
CONTINUOUS
 62
     5
 10
1416.336170
 20
1856.958687
 11
1437.732722
 21
1835.930430
  0
LINE
  8
CSLAYER1
  6
CONTINUOUS
 62
     5
 10
1416.336170
 20
1856.958687
 11
1424.351999
 21
1828.049406
  0
TEXT
  8
CSLAYER1
 62
     3
 10
3132.767090
 20
1779.659546
 40
40.000000
 41
0.859091
  1
約 47
 50
0.000000
 51
0.000000
  7
EASYDRAW_FONT
 72
     5
 11
3258.767090
 21
1779.659546
  0
ENDSEC
  0
EOF
