  0
SECTION
  2
HEADER
  9
$ACADVER
  1
AC1006
  9
$INSBASE
 10
0.000000
 20
0.000000
 30
0.0
  9
$EXTMIN
 10
0.000000
 20
0.000000
  9
$EXTMAX
 10
3640.000000
 20
2570.000000
  9
$LIMMIN
 10
0.000000
 20
0.000000
  9
$LIMMAX
 10
3640.000000
 20
2570.000000
  9
$VIEWCTR
 10
1820.000000
 20
1285.000000
  9
$VIEWSIZE
 40
2570.000000
  9
$SNAPMODE
 70
     0
  9
$SNAPUNIT
 10
1.0
 20
1.0
  9
$SNAPBASE
 10
0.0
 20
0.0
  9
$SNAPANG
 50
0.0
  9
$SNAPSTYLE
 70
     0
  9
$SNAPISOPAIR
 70
     0
  9
$GRIDMODE
 70
     0
  9
$GRIDUNIT
 10
0.0
 20
0.0
  9
$ORTHOMODE
 70
     0
  9
$REGENMODE
 70
     1
  9
$FILLMODE
 70
     1
  9
$QTEXTMODE
 70
     0
  9
$DRAGMODE
 70
     2
  9
$LTSCALE
 40
15.000000
  9
$OSMODE
 70
     0
  9
$ATTMODE
 70
     1
  9
$TEXTSIZE
 40
0.2
  9
$TRACEWID
 40
0.05
  9
$TEXTSTYLE
  7
STANDARD
  9
$CLAYER
  8
CSLAYER1
  9
$CELTYPE
  6
BYLAYER
  9
$CECOLOR
 62
   256
  9
$DIMSCALE
 40
1.0
  9
$DIMASZ
 40
0.18
  9
$DIMEXO
 40
0.0625
  9
$DIMDLI
 40
0.38
  9
$DIMRND
 40
0.0
  9
$DIMDLE
 40
0.0
  9
$DIMEXE
 40
0.18
  9
$DIMTP
 40
0.0
  9
$DIMTM
 40
0.0
  9
$DIMTXT
 40
0.18
  9
$DIMCEN
 40
0.09
  9
$DIMTSZ
 40
0.0
  9
$DIMTOL
 70
     0
  9
$DIMLIM
 70
     0
  9
$DIMTIH
 70
     1
  9
$DIMTOH
 70
     1
  9
$DIMSE1
 70
     0
  9
$DIMSE2
 70
     0
  9
$DIMTAD
 70
     0
  9
$DIMZIN
 70
     0
  9
$DIMBLK
  1

  9
$LUNITS
 70
     2
  9
$LUPREC
 70
     4
  9
$AXISMODE
 70
     0
  9
$AXISUNIT
 10
0.0
 20
0.0
  9
$SKETCHINC
 40
0.1
  9
$FILLETRAD
 40
0.0
  9
$AUNITS
 70
     0
  9
$AUPREC
 70
     0
  9
$MENU
  1
ACAD
  9
$ELEVATION
 40
0.0
  9
$THICKNESS
 40
0.0
  9
$VIEWDIR
 10
0.0
 20
0.0
 30
1.0
  9
$LIMCHECK
 70
     0
  9
$BLIPMODE
 70
     1
  9
$CHAMFERA
 40
0.0
  9
$CHAMFERB
 40
0.0
  9
$FASTZOOM
 70
     1
  9
$SKPOLY
 70
     0
  9
$TDCREATE
 40
2456676.000000
  9
$TDUPDATE
 40
2456676.000000
  9
$TDINDWG
 40
0.0
  9
$TDUSRTIMER
 40
0.0
  9
$USRTIMER
 70
     1
  9
$ANGBASE
 50
0.0
  9
$ANGDIR
 70
     0
  9
$PDMODE
 70
     0
  9
$PDSIZE
 40
0.0
  9
$PLINEWID
 40
0.0
  9
$COORDS
 70
     0
  9
$USERI1
 70
     0
  9
$USERI2
 70
     0
  9
$USERI3
 70
     0
  9
$USERI4
 70
     0
  9
$USERI5
 70
     0
  9
$USERR1
 40
0.0
  9
$USERR2
 40
0.0
  9
$USERR3
 40
0.0
  9
$USERR4
 40
0.0
  9
$USERR5
 40
0.0
  0
ENDSEC
  0
SECTION
  2
TABLES
  0
TABLE
  2
LTYPE
 70
     9
  0
LTYPE
  2
CONTINUOUS
 70
    64
  3
Solid line
 72
    65
 73
     0
 40
0.0
  0
LTYPE
  2
DASHED
 70
    64
  3
__ __ __ __ __ __ __ __ __ __ __ __ __ __ __
 72
    65
 73
     2
 40
0.75
 49
0.5
 49
-0.25
  0
LTYPE
  2
HIDDEN
 70
    64
  3
_ _ _ _ _ _ _ _ _ _ _ _ _ _ _ _ _ _ _ _ _ _ _
 72
    65
 73
     2
 40
0.375
 49
0.25
 49
-0.125
  0
LTYPE
  2
DOT
 70
    64
  3
...............................................
 72
    65
 73
     2
 40
0.25
 49
0.0
 49
-0.25
  0
LTYPE
  2
DASHDOT
 70
    64
  3
__ . __ . __ . __ . __ . __ . __ . __ . __ . __
 72
    65
 73
     4
 40
1.0
 49
0.5
 49
-0.25
 49
0.0
 49
-0.25
  0
LTYPE
  2
DIVIDE
 70
    64
  3
__ . . __ . . __ . . __ . . __ . . __ . . __
 72
    65
 73
     6
 40
1.25
 49
0.5
 49
-0.25
 49
0.0
 49
-0.25
 49
0.0
 49
-0.25
  0
LTYPE
  2
CENTER
 70
    64
  3
____ _ ____ _ ____ _ ____ _ ____ _ ____ _ ____ 
 72
    65
 73
     4
 40
2.0
 49
1.25
 49
-0.25
 49
0.25
 49
-0.25
  0
LTYPE
  2
PHANTOM
 70
    64
  3
______  __  __  ______  __  __  ______  __  __ 
 72
    65
 73
     6
 40
2.5
 49
1.25
 49
-0.25
 49
0.25
 49
-0.25
 49
0.25
 49
-0.25
  0
LTYPE
  2
BORDER
 70
    64
  3
__ __ . __ __ . __ __ . __ __ . __ __ . __ __ .
 72
    65
 73
     6
 40
1.75
 49
0.5
 49
-0.25
 49
0.5
 49
-0.25
 49
0.0
 49
-0.25
  0
ENDTAB
  0
TABLE
  2
LAYER
 70
    16
  0
LAYER
  2
CSLAYER1
 70
    64
 62
     7
  6
CONTINUOUS
  0
LAYER
  2
CSLAYER2
 70
    64
 62
     7
  6
CONTINUOUS
  0
LAYER
  2
CSLAYER3
 70
    64
 62
     7
  6
CONTINUOUS
  0
LAYER
  2
CSLAYER4
 70
    64
 62
     7
  6
CONTINUOUS
  0
LAYER
  2
CSLAYER5
 70
    64
 62
     7
  6
CONTINUOUS
  0
LAYER
  2
CSLAYER6
 70
    64
 62
     7
  6
CONTINUOUS
  0
LAYER
  2
CSLAYER7
 70
    64
 62
     7
  6
CONTINUOUS
  0
LAYER
  2
CSLAYER8
 70
    64
 62
     7
  6
CONTINUOUS
  0
LAYER
  2
CSLAYER9
 70
    64
 62
     7
  6
CONTINUOUS
  0
LAYER
  2
CSLAYER10
 70
    64
 62
     7
  6
CONTINUOUS
  0
LAYER
  2
CSLAYER11
 70
    64
 62
     7
  6
CONTINUOUS
  0
LAYER
  2
CSLAYER12
 70
    64
 62
     7
  6
CONTINUOUS
  0
LAYER
  2
CSLAYER13
 70
    64
 62
     7
  6
CONTINUOUS
  0
LAYER
  2
CSLAYER14
 70
    64
 62
     7
  6
CONTINUOUS
  0
LAYER
  2
CSLAYER15
 70
    64
 62
     7
  6
CONTINUOUS
  0
LAYER
  2
CSLAYER16
 70
    64
 62
     7
  6
CONTINUOUS
  0
ENDTAB
  0
TABLE
  2
STYLE
 70
     1
  0
STYLE
  2
EASYDRAW_FONT
 70
     0
 40
1.0
 41
1.0
 50
0.0
 71
     0
 42
1.0
  3
monotxt
  4
bigfont
  0
ENDTAB
  0
TABLE
  2
VIEW
 70
     0
  0
ENDTAB
  0
ENDSEC
  0
SECTION
  2
BLOCKS
  0
BLOCK
  8
CSLAYER1
  2
*D0000
 70
    65
 10
0.0
 20
0.0
 30
0.0
  0
TEXT
  8
CSLAYER1
 62
     3
 10
2426.958740
 20
1078.545654
 40
40.000000
 41
0.843750
  1
580
 50
90.000000
 51
0.000000
  7
EASYDRAW_FONT
 72
     5
 11
2426.958740
 21
1168.545654
  0
LINE
  8
CSLAYER1
  6
CONTINUOUS
 62
     5
 10
2446.967652
 20
817.763846
 11
2231.249345
 21
817.763846
  0
LINE
  8
CSLAYER1
  6
CONTINUOUS
 62
     5
 10
2446.967652
 20
1429.327517
 11
2231.249345
 21
1429.327517
  0
LINE
  8
CSLAYER1
  6
CONTINUOUS
 62
     5
 10
2434.958499
 20
817.763846
 11
2434.958499
 21
1429.327517
  0
LINE
  8
CSLAYER1
  6
CONTINUOUS
 62
     5
 10
2434.958499
 20
817.763846
 11
2427.193927
 21
846.741620
  0
LINE
  8
CSLAYER1
  6
CONTINUOUS
 62
     5
 10
2434.958499
 20
817.763846
 11
2442.723070
 21
846.741620
  0
LINE
  8
CSLAYER1
  6
CONTINUOUS
 62
     5
 10
2434.958499
 20
1429.327517
 11
2427.193927
 21
1400.349742
  0
LINE
  8
CSLAYER1
  6
CONTINUOUS
 62
     5
 10
2434.958499
 20
1429.327517
 11
2442.723070
 21
1400.349742
  0
ENDBLK
  8
0
  0
BLOCK
  8
CSLAYER1
  2
*D0001
 70
    65
 10
0.0
 20
0.0
 30
0.0
  0
TEXT
  8
CSLAYER1
 62
     3
 10
1051.474731
 20
1283.347778
 40
40.000000
 41
0.769737
  1
テーブルのズレ　ＭＡＸ２０
 50
0.000000
 51
0.000000
  7
EASYDRAW_FONT
 72
     5
 11
1441.474731
 21
1283.347778
  0
LINE
  8
CSLAYER1
  6
CONTINUOUS
 62
     5
 10
1424.958499
 20
897.763846
 11
1424.958499
 21
1279.603218
  0
LINE
  8
CSLAYER1
  6
CONTINUOUS
 62
     5
 10
1444.803457
 20
1399.327517
 11
1444.803457
 21
1263.603218
  0
LINE
  8
CSLAYER1
  6
CONTINUOUS
 62
     5
 10
1424.958499
 20
1271.603218
 11
1444.803457
 21
1271.603218
  0
LINE
  8
CSLAYER1
  6
CONTINUOUS
 62
     5
 10
1038.679981
 20
1271.603218
 11
1424.958499
 21
1271.603218
  0
LINE
  8
CSLAYER1
  6
CONTINUOUS
 62
     5
 10
1424.958499
 20
1271.603218
 11
1395.980724
 21
1279.367789
  0
LINE
  8
CSLAYER1
  6
CONTINUOUS
 62
     5
 10
1424.958499
 20
1271.603218
 11
1395.980724
 21
1263.838646
  0
LINE
  8
CSLAYER1
  6
CONTINUOUS
 62
     5
 10
1444.803457
 20
1271.603218
 11
1484.803457
 21
1271.603218
  0
LINE
  8
CSLAYER1
  6
CONTINUOUS
 62
     5
 10
1444.803457
 20
1271.603218
 11
1473.781232
 21
1279.367789
  0
LINE
  8
CSLAYER1
  6
CONTINUOUS
 62
     5
 10
1444.803457
 20
1271.603218
 11
1473.781232
 21
1263.838646
  0
ENDBLK
  8
0
  0
BLOCK
  8
CSLAYER1
  2
EASYDRAWDIM0000
 70
   64
 10
0.0
 20
0.0
 30
0.0
  0
TEXT
  8
CSLAYER1
 62
     3
 10
1116.136597
 20
1197.774292
 40
40.000000
 41
0.787500
  1
油圧シリンダー
 50
0.000000
 51
0.000000
  7
EASYDRAW_FONT
 72
     5
 11
1326.136597
 21
1197.774292
  0
LINE
  8
CSLAYER1
  6
CONTINUOUS
 62
     5
 10
1332.140246
 20
1189.774339
 11
1109.812453
 21
1189.774339
  0
ENDBLK
  8
0
  0
BLOCK
  8
CSLAYER1
  2
EASYDRAWDIM0001
 70
   64
 10
0.0
 20
0.0
 30
0.0
  0
TEXT
  8
CSLAYER1
 62
     3
 10
1081.827026
 20
1025.625977
 40
40.000000
 41
0.803571
  1
高圧ホース
 50
0.000000
 51
0.000000
  7
EASYDRAW_FONT
 72
     5
 11
1231.827026
 21
1025.625977
  0
LINE
  8
CSLAYER1
  6
CONTINUOUS
 62
     5
 10
1347.100668
 20
836.413846
 11
1244.297617
 21
1017.626003
  0
LINE
  8
CSLAYER1
  6
CONTINUOUS
 62
     5
 10
1347.100668
 20
836.413846
 11
1326.048541
 21
857.786912
  0
LINE
  8
CSLAYER1
  6
CONTINUOUS
 62
     5
 10
1347.100668
 20
836.413846
 11
1339.555524
 21
865.449527
  0
LINE
  8
CSLAYER1
  6
CONTINUOUS
 62
     5
 10
1244.297617
 20
1017.626003
 11
1071.764852
 21
1017.626003
  0
ENDBLK
  8
0
  0
BLOCK
  8
CSLAYER1
  2
*D0002
 70
    65
 10
0.0
 20
0.0
 30
0.0
  0
TEXT
  8
CSLAYER1
 62
     3
 10
1063.943481
 20
852.983887
 40
40.000000
 41
1.125000
  1
6
 50
90.000000
 51
0.000000
  7
EASYDRAW_FONT
 72
     5
 11
1063.943481
 21
882.983887
  0
LINE
  8
CSLAYER1
  6
CONTINUOUS
 62
     5
 10
994.849672
 20
817.763846
 11
1079.943463
 21
817.763846
  0
LINE
  8
CSLAYER1
  6
CONTINUOUS
 62
     5
 10
994.849672
 20
823.763846
 11
1079.943463
 21
823.763846
  0
LINE
  8
CSLAYER1
  6
CONTINUOUS
 62
     5
 10
1071.943463
 20
817.763846
 11
1071.943463
 21
823.763846
  0
LINE
  8
CSLAYER1
  6
CONTINUOUS
 62
     5
 10
1071.943463
 20
797.099626
 11
1071.943463
 21
817.763846
  0
LINE
  8
CSLAYER1
  6
CONTINUOUS
 62
     5
 10
1071.943463
 20
817.763846
 11
1064.178892
 21
788.786071
  0
LINE
  8
CSLAYER1
  6
CONTINUOUS
 62
     5
 10
1071.943463
 20
817.763846
 11
1079.708034
 21
788.786071
  0
LINE
  8
CSLAYER1
  6
CONTINUOUS
 62
     5
 10
1071.943463
 20
823.763846
 11
1071.943463
 21
888.203965
  0
LINE
  8
CSLAYER1
  6
CONTINUOUS
 62
     5
 10
1071.943463
 20
823.763846
 11
1064.178892
 21
852.741620
  0
LINE
  8
CSLAYER1
  6
CONTINUOUS
 62
     5
 10
1071.943463
 20
823.763846
 11
1079.708034
 21
852.741620
  0
ENDBLK
  8
0
  0
BLOCK
  8
CSLAYER1
  2
*D0003
 70
    65
 10
0.0
 20
0.0
 30
0.0
  0
TEXT
  8
CSLAYER1
 62
     3
 10
791.849487
 20
705.763794
 40
40.000000
 41
0.843750
  1
250
 50
0.000000
 51
0.000000
  7
EASYDRAW_FONT
 72
     5
 11
881.849487
 21
705.763794
  0
LINE
  8
CSLAYER1
  6
CONTINUOUS
 62
     5
 10
711.849672
 20
809.763846
 11
711.849672
 21
689.763846
  0
LINE
  8
CSLAYER1
  6
CONTINUOUS
 62
     5
 10
961.849672
 20
809.763846
 11
961.849672
 21
689.763846
  0
LINE
  8
CSLAYER1
  6
CONTINUOUS
 62
     5
 10
711.849672
 20
697.763846
 11
961.849672
 21
697.763846
  0
LINE
  8
CSLAYER1
  6
CONTINUOUS
 62
     5
 10
711.849672
 20
697.763846
 11
740.827447
 21
705.528417
  0
LINE
  8
CSLAYER1
  6
CONTINUOUS
 62
     5
 10
711.849672
 20
697.763846
 11
740.827447
 21
689.999274
  0
LINE
  8
CSLAYER1
  6
CONTINUOUS
 62
     5
 10
961.849672
 20
697.763846
 11
932.871898
 21
705.528417
  0
LINE
  8
CSLAYER1
  6
CONTINUOUS
 62
     5
 10
961.849672
 20
697.763846
 11
932.871898
 21
689.999274
  0
ENDBLK
  8
0
  0
BLOCK
  8
CSLAYER1
  2
*D0004
 70
    65
 10
0.0
 20
0.0
 30
0.0
  0
TEXT
  8
CSLAYER1
 62
     3
 10
791.849487
 20
615.763855
 40
40.000000
 41
0.843750
  1
300
 50
0.000000
 51
0.000000
  7
EASYDRAW_FONT
 72
     5
 11
881.849487
 21
615.763855
  0
LINE
  8
CSLAYER1
  6
CONTINUOUS
 62
     5
 10
686.849672
 20
809.763846
 11
686.849672
 21
599.763846
  0
LINE
  8
CSLAYER1
  6
CONTINUOUS
 62
     5
 10
986.849672
 20
809.763846
 11
986.849672
 21
599.763846
  0
LINE
  8
CSLAYER1
  6
CONTINUOUS
 62
     5
 10
686.849672
 20
607.763846
 11
986.849672
 21
607.763846
  0
LINE
  8
CSLAYER1
  6
CONTINUOUS
 62
     5
 10
686.849672
 20
607.763846
 11
715.827447
 21
615.528417
  0
LINE
  8
CSLAYER1
  6
CONTINUOUS
 62
     5
 10
686.849672
 20
607.763846
 11
715.827447
 21
599.999274
  0
LINE
  8
CSLAYER1
  6
CONTINUOUS
 62
     5
 10
986.849672
 20
607.763846
 11
957.871898
 21
615.528417
  0
LINE
  8
CSLAYER1
  6
CONTINUOUS
 62
     5
 10
986.849672
 20
607.763846
 11
957.871898
 21
599.999274
  0
ENDBLK
  8
0
  0
BLOCK
  8
CSLAYER1
  2
*D0005
 70
    65
 10
0.0
 20
0.0
 30
0.0
  0
TEXT
  8
CSLAYER1
 62
     3
 10
2514.958496
 20
827.763855
 40
40.000000
 41
0.900000
  1
80
 50
90.000000
 51
0.000000
  7
EASYDRAW_FONT
 72
     5
 11
2514.958496
 21
887.763855
  0
LINE
  8
CSLAYER1
  6
CONTINUOUS
 62
     5
 10
2568.137845
 20
817.763846
 11
2514.958499
 21
817.763846
  0
LINE
  8
CSLAYER1
  6
CONTINUOUS
 62
     5
 10
2618.137845
 20
897.763846
 11
2514.958499
 21
897.763846
  0
LINE
  8
CSLAYER1
  6
CONTINUOUS
 62
     5
 10
2524.958499
 20
817.763846
 11
2524.958499
 21
897.763846
  0
LINE
  8
CSLAYER1
  6
CONTINUOUS
 62
     5
 10
2524.958499
 20
817.763846
 11
2517.193927
 21
846.741620
  0
LINE
  8
CSLAYER1
  6
CONTINUOUS
 62
     5
 10
2524.958499
 20
817.763846
 11
2532.723070
 21
846.741620
  0
LINE
  8
CSLAYER1
  6
CONTINUOUS
 62
     5
 10
2524.958499
 20
897.763846
 11
2517.193927
 21
868.786071
  0
LINE
  8
CSLAYER1
  6
CONTINUOUS
 62
     5
 10
2524.958499
 20
897.763846
 11
2532.723070
 21
868.786071
  0
ENDBLK
  8
0
  0
BLOCK
  8
CSLAYER1
  2
*D0006
 70
    65
 10
0.0
 20
0.0
 30
0.0
  0
TEXT
  8
CSLAYER1
 62
     3
 10
2334.958740
 20
827.763855
 40
40.000000
 41
0.900000
  1
80
 50
90.000000
 51
0.000000
  7
EASYDRAW_FONT
 72
     5
 11
2334.958740
 21
887.763855
  0
LINE
  8
CSLAYER1
  6
CONTINUOUS
 62
     5
 10
2234.958499
 20
897.763846
 11
2354.958499
 21
897.763846
  0
LINE
  8
CSLAYER1
  6
CONTINUOUS
 62
     5
 10
2344.958499
 20
817.763846
 11
2344.958499
 21
897.763846
  0
LINE
  8
CSLAYER1
  6
CONTINUOUS
 62
     5
 10
2344.958499
 20
817.763846
 11
2337.193927
 21
846.741620
  0
LINE
  8
CSLAYER1
  6
CONTINUOUS
 62
     5
 10
2344.958499
 20
817.763846
 11
2352.723070
 21
846.741620
  0
LINE
  8
CSLAYER1
  6
CONTINUOUS
 62
     5
 10
2344.958499
 20
897.763846
 11
2337.193927
 21
868.786071
  0
LINE
  8
CSLAYER1
  6
CONTINUOUS
 62
     5
 10
2344.958499
 20
897.763846
 11
2352.723070
 21
868.786071
  0
ENDBLK
  8
0
  0
BLOCK
  8
CSLAYER1
  2
*D0007
 70
    65
 10
0.0
 20
0.0
 30
0.0
  0
TEXT
  8
CSLAYER1
 62
     3
 10
2334.958740
 20
1118.545654
 40
40.000000
 41
0.843750
  1
500
 50
90.000000
 51
0.000000
  7
EASYDRAW_FONT
 72
     5
 11
2334.958740
 21
1208.545654
  0
LINE
  8
CSLAYER1
  6
CONTINUOUS
 62
     5
 10
2344.958499
 20
897.763846
 11
2344.958499
 21
1429.327517
  0
LINE
  8
CSLAYER1
  6
CONTINUOUS
 62
     5
 10
2344.958499
 20
897.763846
 11
2337.193927
 21
926.741620
  0
LINE
  8
CSLAYER1
  6
CONTINUOUS
 62
     5
 10
2344.958499
 20
897.763846
 11
2352.723070
 21
926.741620
  0
LINE
  8
CSLAYER1
  6
CONTINUOUS
 62
     5
 10
2344.958499
 20
1429.327517
 11
2337.193927
 21
1400.349742
  0
LINE
  8
CSLAYER1
  6
CONTINUOUS
 62
     5
 10
2344.958499
 20
1429.327517
 11
2352.723070
 21
1400.349742
  0
ENDBLK
  8
0
  0
BLOCK
  8
CSLAYER1
  2
*D0008
 70
    65
 10
0.0
 20
0.0
 30
0.0
  0
TEXT
  8
CSLAYER1
 62
     3
 10
1799.803467
 20
1539.327515
 40
40.000000
 41
0.843750
  1
800
 50
0.000000
 51
0.000000
  7
EASYDRAW_FONT
 72
     5
 11
1889.803467
 21
1539.327515
  0
LINE
  8
CSLAYER1
  6
CONTINUOUS
 62
     5
 10
1444.803457
 20
1439.327517
 11
1444.803457
 21
1539.327517
  0
LINE
  8
CSLAYER1
  6
CONTINUOUS
 62
     5
 10
2244.803457
 20
1439.327517
 11
2244.803457
 21
1539.327517
  0
LINE
  8
CSLAYER1
  6
CONTINUOUS
 62
     5
 10
1444.803457
 20
1529.327517
 11
2244.803457
 21
1529.327517
  0
LINE
  8
CSLAYER1
  6
CONTINUOUS
 62
     5
 10
1444.803457
 20
1529.327517
 11
1473.781232
 21
1537.092088
  0
LINE
  8
CSLAYER1
  6
CONTINUOUS
 62
     5
 10
1444.803457
 20
1529.327517
 11
1473.781232
 21
1521.562946
  0
LINE
  8
CSLAYER1
  6
CONTINUOUS
 62
     5
 10
2244.803457
 20
1529.327517
 11
2215.825682
 21
1537.092088
  0
LINE
  8
CSLAYER1
  6
CONTINUOUS
 62
     5
 10
2244.803457
 20
1529.327517
 11
2215.825682
 21
1521.562946
  0
ENDBLK
  8
0
  0
BLOCK
  8
CSLAYER1
  2
*D0009
 70
    65
 10
0.0
 20
0.0
 30
0.0
  0
TEXT
  8
CSLAYER1
 62
     3
 10
791.849731
 20
1539.327515
 40
40.000000
 41
0.843750
  1
250
 50
0.000000
 51
0.000000
  7
EASYDRAW_FONT
 72
     5
 11
881.849731
 21
1539.327515
  0
LINE
  8
CSLAYER1
  6
CONTINUOUS
 62
     5
 10
711.849672
 20
1439.327517
 11
711.849672
 21
1539.327517
  0
LINE
  8
CSLAYER1
  6
CONTINUOUS
 62
     5
 10
961.849672
 20
1439.327517
 11
961.849672
 21
1539.327517
  0
LINE
  8
CSLAYER1
  6
CONTINUOUS
 62
     5
 10
711.849672
 20
1529.327517
 11
961.849672
 21
1529.327517
  0
LINE
  8
CSLAYER1
  6
CONTINUOUS
 62
     5
 10
711.849672
 20
1529.327517
 11
740.827447
 21
1537.092088
  0
LINE
  8
CSLAYER1
  6
CONTINUOUS
 62
     5
 10
711.849672
 20
1529.327517
 11
740.827447
 21
1521.562946
  0
LINE
  8
CSLAYER1
  6
CONTINUOUS
 62
     5
 10
961.849672
 20
1529.327517
 11
932.871898
 21
1537.092088
  0
LINE
  8
CSLAYER1
  6
CONTINUOUS
 62
     5
 10
961.849672
 20
1529.327517
 11
932.871898
 21
1521.562946
  0
ENDBLK
  8
0
  0
BLOCK
  8
CSLAYER1
  2
EASYDRAWDIM0002
 70
   64
 10
0.0
 20
0.0
 30
0.0
  0
TEXT
  8
CSLAYER1
 62
     3
 10
1377.990845
 20
1883.607521
 40
33.155758
 41
0.767879
  1
穴ヒﾟッチ
 50
90.000000
 51
0.000000
  7
EASYDRAW_FONT
 72
     5
 11
1377.990845
 21
2002.419090
  0
ENDBLK
  8
0
  0
BLOCK
  8
CSLAYER1
  2
*D0010
 70
    65
 10
0.0
 20
0.0
 30
0.0
  0
TEXT
  8
CSLAYER1
 62
     3
 10
2334.958740
 20
1940.707642
 40
40.000000
 41
0.843750
  1
250
 50
90.000000
 51
0.000000
  7
EASYDRAW_FONT
 72
     5
 11
2334.958740
 21
2030.707642
  0
LINE
  8
CSLAYER1
  6
CONTINUOUS
 62
     5
 10
2262.394202
 20
1860.707719
 11
2354.958499
 21
1860.707719
  0
LINE
  8
CSLAYER1
  6
CONTINUOUS
 62
     5
 10
2262.394202
 20
2110.707719
 11
2354.958499
 21
2110.707719
  0
LINE
  8
CSLAYER1
  6
CONTINUOUS
 62
     5
 10
2344.958499
 20
1860.707719
 11
2344.958499
 21
2110.707719
  0
LINE
  8
CSLAYER1
  6
CONTINUOUS
 62
     5
 10
2344.958499
 20
1860.707719
 11
2337.193927
 21
1889.685494
  0
LINE
  8
CSLAYER1
  6
CONTINUOUS
 62
     5
 10
2344.958499
 20
1860.707719
 11
2352.723070
 21
1889.685494
  0
LINE
  8
CSLAYER1
  6
CONTINUOUS
 62
     5
 10
2344.958499
 20
2110.707719
 11
2337.193927
 21
2081.729945
  0
LINE
  8
CSLAYER1
  6
CONTINUOUS
 62
     5
 10
2344.958499
 20
2110.707719
 11
2352.723070
 21
2081.729945
  0
ENDBLK
  8
0
  0
BLOCK
  8
CSLAYER1
  2
*D0011
 70
    65
 10
0.0
 20
0.0
 30
0.0
  0
TEXT
  8
CSLAYER1
 62
     3
 10
1328.752075
 20
1915.154907
 40
40.000000
 41
0.843750
  1
250
 50
90.000000
 51
0.000000
  7
EASYDRAW_FONT
 72
     5
 11
1328.752075
 21
2005.154907
  0
LINE
  8
CSLAYER1
  6
CONTINUOUS
 62
     5
 10
1425.995697
 20
1860.707719
 11
1327.004438
 21
1860.707719
  0
LINE
  8
CSLAYER1
  6
CONTINUOUS
 62
     5
 10
1425.995697
 20
2110.707719
 11
1327.004438
 21
2110.707719
  0
LINE
  8
CSLAYER1
  6
CONTINUOUS
 62
     5
 10
1337.004438
 20
1860.707719
 11
1337.004438
 21
2110.707719
  0
LINE
  8
CSLAYER1
  6
CONTINUOUS
 62
     5
 10
1337.004438
 20
1860.707719
 11
1329.239867
 21
1889.685494
  0
LINE
  8
CSLAYER1
  6
CONTINUOUS
 62
     5
 10
1337.004438
 20
1860.707719
 11
1344.769009
 21
1889.685494
  0
LINE
  8
CSLAYER1
  6
CONTINUOUS
 62
     5
 10
1337.004438
 20
2110.707719
 11
1329.239867
 21
2081.729945
  0
LINE
  8
CSLAYER1
  6
CONTINUOUS
 62
     5
 10
1337.004438
 20
2110.707719
 11
1344.769009
 21
2081.729945
  0
ENDBLK
  8
0
  0
BLOCK
  8
CSLAYER1
  2
EASYDRAWDIM0003
 70
   64
 10
0.0
 20
0.0
 30
0.0
  0
TEXT
  8
CSLAYER1
 62
     3
 10
265.134827
 20
2222.348145
 40
48.000000
 41
0.787500
  1
昇降切替バルブ
 50
0.000000
 51
0.000000
  7
EASYDRAW_FONT
 72
     5
 11
517.134827
 21
2222.348145
  0
LINE
  8
CSLAYER1
  6
CONTINUOUS
 62
     7
 10
617.030968
 20
2071.626606
 11
517.135168
 21
2212.347962
  0
LINE
  8
CSLAYER1
  6
CONTINUOUS
 62
     7
 10
617.030968
 20
2071.626606
 11
593.925479
 21
2090.761296
  0
LINE
  8
CSLAYER1
  6
CONTINUOUS
 62
     7
 10
617.030968
 20
2071.626606
 11
606.588372
 21
2099.750478
  0
LINE
  8
CSLAYER1
  6
CONTINUOUS
 62
     7
 10
517.135168
 20
2212.347962
 11
257.135168
 21
2212.347962
  0
ENDBLK
  8
0
  0
BLOCK
  8
CSLAYER1
  2
EASYDRAWDIM0004
 70
   64
 10
0.0
 20
0.0
 30
0.0
  0
TEXT
  8
CSLAYER1
 62
     3
 10
288.882111
 20
2133.100586
 40
48.000000
 41
0.794118
  1
ポンプペタル
 50
0.000000
 51
0.000000
  7
EASYDRAW_FONT
 72
     5
 11
504.882111
 21
2133.100586
  0
LINE
  8
CSLAYER1
  6
CONTINUOUS
 62
     7
 10
570.487813
 20
2043.286203
 11
506.834095
 21
2123.100264
  0
LINE
  8
CSLAYER1
  6
CONTINUOUS
 62
     7
 10
570.487813
 20
2043.286203
 11
546.349316
 21
2061.100046
  0
LINE
  8
CSLAYER1
  6
CONTINUOUS
 62
     7
 10
570.487813
 20
2043.286203
 11
558.490183
 21
2070.782692
  0
LINE
  8
CSLAYER1
  6
CONTINUOUS
 62
     7
 10
506.834095
 20
2123.100264
 11
276.834095
 21
2123.100264
  0
ENDBLK
  8
0
  0
BLOCK
  8
CSLAYER1
  2
EASYDRAWDIM0005
 70
   64
 10
0.0
 20
0.0
 30
0.0
  0
TEXT
  8
CSLAYER1
 62
     3
 10
643.602600
 20
2228.221680
 40
48.000000
 41
0.787500
  1
高圧ホース２m
 50
0.000000
 51
0.000000
  7
EASYDRAW_FONT
 72
     5
 11
895.602600
 21
2228.221680
  0
LINE
  8
CSLAYER1
  6
CONTINUOUS
 62
     7
 10
970.918765
 20
2088.376296
 11
903.653733
 21
2218.221587
  0
LINE
  8
CSLAYER1
  6
CONTINUOUS
 62
     7
 10
970.918765
 20
2088.376296
 11
950.695124
 21
2110.534914
  0
LINE
  8
CSLAYER1
  6
CONTINUOUS
 62
     7
 10
970.918765
 20
2088.376296
 11
964.483888
 21
2117.678042
  0
LINE
  8
CSLAYER1
  6
CONTINUOUS
 62
     7
 10
903.653733
 20
2218.221587
 11
633.653733
 21
2218.221587
  0
ENDBLK
  8
0
  0
BLOCK
  8
CSLAYER1
  2
EASYDRAWDIM0006
 70
   64
 10
0.0
 20
0.0
 30
0.0
  0
TEXT
  8
CSLAYER1
 62
     3
 10
1068.936401
 20
708.574646
 40
40.000000
 41
0.803571
  1
2-φ13
 50
0.000000
 51
0.000000
  7
EASYDRAW_FONT
 72
     5
 11
1218.936401
 21
708.574646
  0
ENDBLK
  8
0
  0
BLOCK
  8
CSLAYER1
  2
EASYDRAWDIM0007
 70
   64
 10
0.0
 20
0.0
 30
0.0
  0
TEXT
  8
CSLAYER1
 62
     3
 10
1528.783203
 20
1725.707397
 40
40.000000
 41
0.771429
  1
2-%%c13(アンカー穴)
 50
0.000000
 51
0.000000
  7
EASYDRAW_FONT
 72
     5
 11
1888.783203
 21
1725.707397
  0
LINE
  8
CSLAYER1
  6
CONTINUOUS
 62
     5
 10
1524.441936
 20
1715.707719
 11
1898.783189
 21
1715.707719
  0
ENDBLK
  8
0
  0
BLOCK
  8
CSLAYER1
  2
*D0012
 70
    65
 10
0.0
 20
0.0
 30
0.0
  0
LINE
  8
CSLAYER1
  6
CONTINUOUS
 62
     5
 10
1422.258499
 20
807.763846
 11
1422.258499
 21
597.763846
  0
LINE
  8
CSLAYER1
  6
CONTINUOUS
 62
     5
 10
2225.258499
 20
807.763846
 11
2225.258499
 21
597.763846
  0
LINE
  8
CSLAYER1
  6
CONTINUOUS
 62
     5
 10
1422.258499
 20
607.763846
 11
2225.258499
 21
607.763846
  0
LINE
  8
CSLAYER1
  6
CONTINUOUS
 62
     5
 10
1422.258499
 20
607.763846
 11
1451.236273
 21
615.528417
  0
LINE
  8
CSLAYER1
  6
CONTINUOUS
 62
     5
 10
1422.258499
 20
607.763846
 11
1451.236273
 21
599.999274
  0
LINE
  8
CSLAYER1
  6
CONTINUOUS
 62
     5
 10
2225.258499
 20
607.763846
 11
2196.280724
 21
615.528417
  0
LINE
  8
CSLAYER1
  6
CONTINUOUS
 62
     5
 10
2225.258499
 20
607.763846
 11
2196.280724
 21
599.999274
  0
TEXT
  8
CSLAYER1
 62
     3
 10
1778.758545
 20
617.763794
 40
40.000000
 41
0.843750
  1
803
 50
0.000000
 51
0.000000
  7
EASYDRAW_FONT
 72
     5
 11
1868.758545
 21
617.763794
  0
ENDBLK
  8
0
  0
BLOCK
  8
CSLAYER1
  2
*D0013
 70
    65
 10
0.0
 20
0.0
 30
0.0
  0
LINE
  8
CSLAYER1
  6
CONTINUOUS
 62
     5
 10
1422.258499
 20
807.763846
 11
1422.258499
 21
687.763846
  0
LINE
  8
CSLAYER1
  6
CONTINUOUS
 62
     5
 10
1447.258499
 20
825.263846
 11
1447.258499
 21
687.763846
  0
LINE
  8
CSLAYER1
  6
CONTINUOUS
 62
     5
 10
1422.258499
 20
697.763846
 11
1447.258499
 21
697.763846
  0
LINE
  8
CSLAYER1
  6
CONTINUOUS
 62
     5
 10
1372.258499
 20
697.763846
 11
1422.258499
 21
697.763846
  0
LINE
  8
CSLAYER1
  6
CONTINUOUS
 62
     5
 10
1422.258499
 20
697.763846
 11
1393.280724
 21
705.528417
  0
LINE
  8
CSLAYER1
  6
CONTINUOUS
 62
     5
 10
1422.258499
 20
697.763846
 11
1393.280724
 21
689.999274
  0
LINE
  8
CSLAYER1
  6
CONTINUOUS
 62
     5
 10
1447.258499
 20
697.763846
 11
1537.258499
 21
697.763846
  0
LINE
  8
CSLAYER1
  6
CONTINUOUS
 62
     5
 10
1447.258499
 20
697.763846
 11
1476.236273
 21
705.528417
  0
LINE
  8
CSLAYER1
  6
CONTINUOUS
 62
     5
 10
1447.258499
 20
697.763846
 11
1476.236273
 21
689.999274
  0
TEXT
  8
CSLAYER1
 62
     3
 10
1477.258545
 20
707.763855
 40
40.000000
 41
0.900000
  1
25
 50
0.000000
 51
0.000000
  7
EASYDRAW_FONT
 72
     5
 11
1537.258545
 21
707.763855
  0
ENDBLK
  8
0
  0
BLOCK
  8
CSLAYER1
  2
*D0014
 70
    65
 10
0.0
 20
0.0
 30
0.0
  0
LINE
  8
CSLAYER1
  6
CONTINUOUS
 62
     5
 10
1422.258499
 20
1835.707719
 11
1422.258499
 21
1705.707719
  0
LINE
  8
CSLAYER1
  6
CONTINUOUS
 62
     5
 10
1447.258499
 20
1839.444918
 11
1447.258499
 21
1705.707719
  0
LINE
  8
CSLAYER1
  6
CONTINUOUS
 62
     5
 10
1422.258499
 20
1715.707719
 11
1447.258499
 21
1715.707719
  0
LINE
  8
CSLAYER1
  6
CONTINUOUS
 62
     5
 10
1332.258499
 20
1715.707719
 11
1422.258499
 21
1715.707719
  0
LINE
  8
CSLAYER1
  6
CONTINUOUS
 62
     5
 10
1422.258499
 20
1715.707719
 11
1393.280724
 21
1723.472291
  0
LINE
  8
CSLAYER1
  6
CONTINUOUS
 62
     5
 10
1422.258499
 20
1715.707719
 11
1393.280724
 21
1707.943148
  0
LINE
  8
CSLAYER1
  6
CONTINUOUS
 62
     5
 10
1447.258499
 20
1715.707719
 11
1497.258499
 21
1715.707719
  0
LINE
  8
CSLAYER1
  6
CONTINUOUS
 62
     5
 10
1447.258499
 20
1715.707719
 11
1476.236273
 21
1723.472291
  0
LINE
  8
CSLAYER1
  6
CONTINUOUS
 62
     5
 10
1447.258499
 20
1715.707719
 11
1476.236273
 21
1707.943148
  0
TEXT
  8
CSLAYER1
 62
     3
 10
1332.258545
 20
1725.707642
 40
40.000000
 41
0.900000
  1
25
 50
0.000000
 51
0.000000
  7
EASYDRAW_FONT
 72
     5
 11
1392.258545
 21
1725.707642
  0
ENDBLK
  8
0
  0
BLOCK
  8
CSLAYER1
  2
*D0015
 70
    65
 10
0.0
 20
0.0
 30
0.0
  0
LINE
  8
CSLAYER1
  6
CONTINUOUS
 62
     5
 10
1422.258499
 20
1835.707719
 11
1422.258499
 21
1615.707719
  0
LINE
  8
CSLAYER1
  6
CONTINUOUS
 62
     5
 10
1472.258499
 20
1835.707719
 11
1472.258499
 21
1615.707719
  0
LINE
  8
CSLAYER1
  6
CONTINUOUS
 62
     5
 10
1422.258499
 20
1625.707719
 11
1472.258499
 21
1625.707719
  0
LINE
  8
CSLAYER1
  6
CONTINUOUS
 62
     5
 10
1332.258499
 20
1625.707719
 11
1422.258499
 21
1625.707719
  0
LINE
  8
CSLAYER1
  6
CONTINUOUS
 62
     5
 10
1422.258499
 20
1625.707719
 11
1393.280724
 21
1633.472291
  0
LINE
  8
CSLAYER1
  6
CONTINUOUS
 62
     5
 10
1422.258499
 20
1625.707719
 11
1393.280724
 21
1617.943148
  0
LINE
  8
CSLAYER1
  6
CONTINUOUS
 62
     5
 10
1472.258499
 20
1625.707719
 11
1522.258499
 21
1625.707719
  0
LINE
  8
CSLAYER1
  6
CONTINUOUS
 62
     5
 10
1472.258499
 20
1625.707719
 11
1501.236273
 21
1633.472291
  0
LINE
  8
CSLAYER1
  6
CONTINUOUS
 62
     5
 10
1472.258499
 20
1625.707719
 11
1501.236273
 21
1617.943148
  0
TEXT
  8
CSLAYER1
 62
     3
 10
1332.258545
 20
1635.707642
 40
40.000000
 41
0.900000
  1
50
 50
0.000000
 51
0.000000
  7
EASYDRAW_FONT
 72
     5
 11
1392.258545
 21
1635.707642
  0
ENDBLK
  8
0
  0
BLOCK
  8
CSLAYER1
  2
BLKF0000
 70
   64
 10
0.0
 20
0.0
 30
0.0
  0
LINE
  8
CSLAYER1
  6
CONTINUOUS
 62
     3
 10
687.226385
 20
817.763846
 11
986.849672
 21
817.763846
  0
LINE
  8
CSLAYER1
  6
CONTINUOUS
 62
     3
 10
736.849672
 20
857.763846
 11
836.849672
 21
857.763846
  0
LINE
  8
CSLAYER1
  6
CONTINUOUS
 62
     3
 10
686.849672
 20
817.763846
 11
836.849672
 21
817.763846
  0
LINE
  8
CSLAYER1
  6
CONTINUOUS
 62
     3
 10
736.849672
 20
857.763846
 11
736.849672
 21
823.763846
  0
LINE
  8
CSLAYER1
  6
CONTINUOUS
 62
     3
 10
936.849672
 20
857.763846
 11
836.849672
 21
857.763846
  0
LINE
  8
CSLAYER1
  6
CONTINUOUS
 62
     3
 10
986.849672
 20
817.763846
 11
836.849672
 21
817.763846
  0
LINE
  8
CSLAYER1
  6
CONTINUOUS
 62
     3
 10
936.849672
 20
857.763846
 11
936.849672
 21
823.763846
  0
LINE
  8
CSLAYER1
  6
CONTINUOUS
 62
     3
 10
986.849672
 20
817.763846
 11
986.849672
 21
823.763846
  0
LINE
  8
CSLAYER1
  6
CENTER
 62
     5
 10
961.849672
 20
808.834485
 11
961.849672
 21
833.044446
  0
LINE
  8
CSLAYER1
  6
CONTINUOUS
 62
     3
 10
911.349672
 20
823.763846
 11
911.349672
 21
857.763846
  0
LINE
  8
CSLAYER1
  6
CONTINUOUS
 62
     3
 10
986.849672
 20
823.763846
 11
905.349672
 21
823.763846
  0
LINE
  8
CSLAYER1
  6
CONTINUOUS
 62
     3
 10
686.849672
 20
817.763846
 11
686.849672
 21
823.763846
  0
LINE
  8
CSLAYER1
  6
CENTER
 62
     5
 10
711.849672
 20
808.834485
 11
711.849672
 21
833.044446
  0
LINE
  8
CSLAYER1
  6
CONTINUOUS
 62
     3
 10
686.849672
 20
823.763846
 11
768.349672
 21
823.763846
  0
LINE
  8
CSLAYER1
  6
CONTINUOUS
 62
     3
 10
762.349672
 20
823.763846
 11
762.349672
 21
857.763846
  0
LINE
  8
CSLAYER1
  6
CENTER
 62
     5
 10
806.849672
 20
821.074282
 11
806.849672
 21
854.337601
  0
LINE
  8
CSLAYER1
  6
CENTER
 62
     5
 10
788.975726
 20
837.763846
 11
825.972683
 21
837.763846
  0
CIRCLE
  8
CSLAYER1
  6
CONTINUOUS
 62
     3
 10
806.849672
 20
837.763846
 40
12.500000
  0
LINE
  8
CSLAYER1
  6
CENTER
 62
     5
 10
751.349672
 20
835.263846
 11
922.349672
 21
835.263846
  0
LINE
  8
CSLAYER1
  6
CONTINUOUS
 62
     3
 10
768.349672
 20
817.763846
 11
768.349672
 21
857.763846
  0
LINE
  8
CSLAYER1
  6
CONTINUOUS
 62
     3
 10
905.349672
 20
817.763846
 11
905.349672
 21
857.763846
  0
ENDBLK
  8
0
  0
BLOCK
  8
CSLAYER1
  2
BLKF0001
 70
   64
 10
0.0
 20
0.0
 30
0.0
  0
LINE
  8
CSLAYER1
  6
CONTINUOUS
 62
     3
 10
903.349672
 20
1384.557862
 11
903.349672
 21
1399.327517
  0
LINE
  8
CSLAYER1
  6
CONTINUOUS
 62
     3
 10
900.349672
 20
1384.777517
 11
903.349672
 21
1384.777517
  0
LINE
  8
CSLAYER1
  6
CONTINUOUS
 62
     3
 10
900.349672
 20
1394.015320
 11
903.349672
 21
1397.515320
  0
LINE
  8
CSLAYER1
  6
CONTINUOUS
 62
     3
 10
911.349672
 20
1395.527517
 11
911.349672
 21
1399.327517
  0
ARC
  8
CSLAYER1
  6
CONTINUOUS
 62
     3
 10
897.553928
 20
1395.527517
 40
13.795744
 50
0.000000
 51
15.988670
  0
LINE
  8
CSLAYER1
  6
CONTINUOUS
 62
     3
 10
911.349672
 20
1395.527517
 11
911.349672
 21
1386.527517
  0
LINE
  8
CSLAYER1
  6
CONTINUOUS
 62
     3
 10
903.349672
 20
1390.042689
 11
910.212492
 21
1390.042689
  0
LINE
  8
CSLAYER1
  6
CONTINUOUS
 62
     3
 10
903.349672
 20
1384.557862
 11
910.212492
 21
1384.557862
  0
LINE
  8
CSLAYER1
  6
CONTINUOUS
 62
     3
 10
911.349672
 20
1386.527517
 11
910.212492
 21
1384.557862
  0
ARC
  8
CSLAYER1
  6
CONTINUOUS
 62
     3
 10
907.569628
 20
1387.300276
 40
3.808617
 50
5.661633
 51
46.059028
  0
ARC
  8
CSLAYER1
  6
CONTINUOUS
 62
     3
 10
897.553928
 20
1395.527517
 40
13.795744
 50
336.573402
 51
360.000000
  0
ENDBLK
  8
0
  0
BLOCK
  8
CSLAYER1
  2
BLKF0002
 70
   64
 10
0.0
 20
0.0
 30
0.0
  0
LINE
  8
CSLAYER1
  6
CENTER
 62
     5
 10
847.349672
 20
1199.198983
 11
847.349672
 21
875.563786
  0
LINE
  8
CSLAYER1
  6
CONTINUOUS
 62
     3
 10
869.849672
 20
1172.998983
 11
869.849672
 21
1198.198983
  0
LINE
  8
CSLAYER1
  6
CONTINUOUS
 62
     3
 10
824.849672
 20
1172.998983
 11
824.849672
 21
1198.198983
  0
LINE
  8
CSLAYER1
  6
CONTINUOUS
 62
     3
 10
825.849672
 20
1199.198983
 11
868.849672
 21
1199.198983
  0
LINE
  8
CSLAYER1
  6
CONTINUOUS
 62
     3
 10
824.849672
 20
1198.198983
 11
825.849672
 21
1199.198983
  0
LINE
  8
CSLAYER1
  6
CONTINUOUS
 62
     3
 10
868.849672
 20
1199.198983
 11
869.849672
 21
1198.198983
  0
POINT
  8
CSLAYER1
 62
     3
 10
847.349672
 20
1185.598983
  0
LINE
  8
CSLAYER1
  6
CONTINUOUS
 62
     3
 10
870.849672
 20
1193.598983
 11
869.849672
 21
1193.598983
  0
LINE
  8
CSLAYER1
  6
CONTINUOUS
 62
     3
 10
824.849672
 20
1193.598983
 11
823.849672
 21
1193.598983
  0
LINE
  8
CSLAYER1
  6
CENTER
 62
     5
 10
818.349672
 20
902.891995
 11
876.349672
 21
902.891995
  0
LINE
  8
CSLAYER1
  6
CONTINUOUS
 62
     3
 10
870.262150
 20
1063.724349
 11
874.745027
 21
1046.435123
  0
LINE
  8
CSLAYER1
  6
CONTINUOUS
 62
     3
 10
870.262150
 20
1063.724349
 11
870.000251
 21
1064.688793
  0
LINE
  8
CSLAYER1
  6
CONTINUOUS
 62
     3
 10
870.000251
 20
1064.688793
 11
869.565966
 21
1065.638502
  0
LINE
  8
CSLAYER1
  6
CONTINUOUS
 62
     3
 10
869.565966
 20
1065.638502
 11
868.962603
 21
1066.566245
  0
LINE
  8
CSLAYER1
  6
CONTINUOUS
 62
     3
 10
868.962603
 20
1066.566245
 11
868.194752
 21
1067.464965
  0
LINE
  8
CSLAYER1
  6
CONTINUOUS
 62
     3
 10
868.194752
 20
1067.464965
 11
867.268257
 21
1068.327819
  0
LINE
  8
CSLAYER1
  6
CONTINUOUS
 62
     3
 10
867.268257
 20
1068.327819
 11
866.190169
 21
1069.148242
  0
LINE
  8
CSLAYER1
  6
CONTINUOUS
 62
     3
 10
866.190169
 20
1069.148242
 11
864.968695
 21
1069.919990
  0
LINE
  8
CSLAYER1
  6
CONTINUOUS
 62
     3
 10
864.968695
 20
1069.919990
 11
863.613128
 21
1070.637188
  0
LINE
  8
CSLAYER1
  6
CONTINUOUS
 62
     3
 10
863.613128
 20
1070.637188
 11
862.133787
 21
1071.294380
  0
LINE
  8
CSLAYER1
  6
CONTINUOUS
 62
     3
 10
862.133787
 20
1071.294380
 11
860.541930
 21
1071.886563
  0
LINE
  8
CSLAYER1
  6
CONTINUOUS
 62
     3
 10
860.541930
 20
1071.886563
 11
858.849672
 21
1072.409230
  0
LINE
  8
CSLAYER1
  6
CONTINUOUS
 62
     3
 10
858.849672
 20
1072.409230
 11
857.069892
 21
1072.858403
  0
LINE
  8
CSLAYER1
  6
CONTINUOUS
 62
     3
 10
857.069892
 20
1072.858403
 11
855.216136
 21
1073.230665
  0
LINE
  8
CSLAYER1
  6
CONTINUOUS
 62
     3
 10
855.216136
 20
1073.230665
 11
853.302510
 21
1073.523181
  0
LINE
  8
CSLAYER1
  6
CONTINUOUS
 62
     3
 10
853.302510
 20
1073.523181
 11
851.343581
 21
1073.733727
  0
LINE
  8
CSLAYER1
  6
CONTINUOUS
 62
     3
 10
851.343581
 20
1073.733727
 11
849.354255
 21
1073.860698
  0
LINE
  8
CSLAYER1
  6
CONTINUOUS
 62
     3
 10
849.354255
 20
1073.860698
 11
847.349672
 21
1073.903130
  0
LINE
  8
CSLAYER1
  6
CONTINUOUS
 62
     3
 10
824.437194
 20
1063.724349
 11
819.954318
 21
1046.435123
  0
LINE
  8
CSLAYER1
  6
CONTINUOUS
 62
     3
 10
824.437194
 20
1063.724349
 11
824.699094
 21
1064.688793
  0
LINE
  8
CSLAYER1
  6
CONTINUOUS
 62
     3
 10
824.699094
 20
1064.688793
 11
825.133378
 21
1065.638502
  0
LINE
  8
CSLAYER1
  6
CONTINUOUS
 62
     3
 10
825.133378
 20
1065.638502
 11
825.736742
 21
1066.566245
  0
LINE
  8
CSLAYER1
  6
CONTINUOUS
 62
     3
 10
825.736742
 20
1066.566245
 11
826.504593
 21
1067.464965
  0
LINE
  8
CSLAYER1
  6
CONTINUOUS
 62
     3
 10
826.504593
 20
1067.464965
 11
827.431088
 21
1068.327819
  0
LINE
  8
CSLAYER1
  6
CONTINUOUS
 62
     3
 10
827.431088
 20
1068.327819
 11
828.509175
 21
1069.148242
  0
LINE
  8
CSLAYER1
  6
CONTINUOUS
 62
     3
 10
828.509175
 20
1069.148242
 11
829.730650
 21
1069.919990
  0
LINE
  8
CSLAYER1
  6
CONTINUOUS
 62
     3
 10
829.730650
 20
1069.919990
 11
831.086216
 21
1070.637188
  0
LINE
  8
CSLAYER1
  6
CONTINUOUS
 62
     3
 10
831.086216
 20
1070.637188
 11
832.565557
 21
1071.294380
  0
LINE
  8
CSLAYER1
  6
CONTINUOUS
 62
     3
 10
832.565557
 20
1071.294380
 11
834.157414
 21
1071.886563
  0
LINE
  8
CSLAYER1
  6
CONTINUOUS
 62
     3
 10
834.157414
 20
1071.886563
 11
835.849672
 21
1072.409230
  0
LINE
  8
CSLAYER1
  6
CONTINUOUS
 62
     3
 10
835.849672
 20
1072.409230
 11
837.629452
 21
1072.858403
  0
LINE
  8
CSLAYER1
  6
CONTINUOUS
 62
     3
 10
837.629452
 20
1072.858403
 11
839.483209
 21
1073.230665
  0
LINE
  8
CSLAYER1
  6
CONTINUOUS
 62
     3
 10
839.483209
 20
1073.230665
 11
841.396834
 21
1073.523181
  0
LINE
  8
CSLAYER1
  6
CONTINUOUS
 62
     3
 10
841.396834
 20
1073.523181
 11
843.355764
 21
1073.733727
  0
LINE
  8
CSLAYER1
  6
CONTINUOUS
 62
     3
 10
843.355764
 20
1073.733727
 11
845.345090
 21
1073.860698
  0
LINE
  8
CSLAYER1
  6
CONTINUOUS
 62
     3
 10
845.345090
 20
1073.860698
 11
847.349672
 21
1073.903130
  0
LINE
  8
CSLAYER1
  6
CONTINUOUS
 62
     3
 10
865.349672
 20
1069.679282
 11
865.349672
 21
1174.442199
  0
LINE
  8
CSLAYER1
  6
CONTINUOUS
 62
     3
 10
865.349672
 20
1173.933862
 11
865.281177
 21
1174.694433
  0
LINE
  8
CSLAYER1
  6
CONTINUOUS
 62
     3
 10
865.281177
 20
1174.694433
 11
865.076212
 21
1175.449216
  0
LINE
  8
CSLAYER1
  6
CONTINUOUS
 62
     3
 10
865.076212
 20
1175.449216
 11
864.736337
 21
1176.192466
  0
LINE
  8
CSLAYER1
  6
CONTINUOUS
 62
     3
 10
864.736337
 20
1176.192466
 11
864.264140
 21
1176.918526
  0
LINE
  8
CSLAYER1
  6
CONTINUOUS
 62
     3
 10
864.264140
 20
1176.918526
 11
863.663213
 21
1177.621872
  0
LINE
  8
CSLAYER1
  6
CONTINUOUS
 62
     3
 10
863.663213
 20
1177.621872
 11
862.938130
 21
1178.297149
  0
LINE
  8
CSLAYER1
  6
CONTINUOUS
 62
     3
 10
862.938130
 20
1178.297149
 11
862.094409
 21
1178.939219
  0
LINE
  8
CSLAYER1
  6
CONTINUOUS
 62
     3
 10
862.094409
 20
1178.939219
 11
861.138472
 21
1179.543196
  0
LINE
  8
CSLAYER1
  6
CONTINUOUS
 62
     3
 10
861.138472
 20
1179.543196
 11
860.077594
 21
1180.104482
  0
LINE
  8
CSLAYER1
  6
CONTINUOUS
 62
     3
 10
860.077594
 20
1180.104482
 11
858.919849
 21
1180.618805
  0
LINE
  8
CSLAYER1
  6
CONTINUOUS
 62
     3
 10
858.919849
 20
1180.618805
 11
857.674048
 21
1181.082253
  0
LINE
  8
CSLAYER1
  6
CONTINUOUS
 62
     3
 10
857.674048
 20
1181.082253
 11
856.349672
 21
1181.491297
  0
LINE
  8
CSLAYER1
  6
CONTINUOUS
 62
     3
 10
856.349672
 20
1181.491297
 11
854.956801
 21
1181.842824
  0
LINE
  8
CSLAYER1
  6
CONTINUOUS
 62
     3
 10
854.956801
 20
1181.842824
 11
853.506035
 21
1182.134159
  0
LINE
  8
CSLAYER1
  6
CONTINUOUS
 62
     3
 10
853.506035
 20
1182.134159
 11
852.008415
 21
1182.363085
  0
LINE
  8
CSLAYER1
  6
CONTINUOUS
 62
     3
 10
852.008415
 20
1182.363085
 11
850.475340
 21
1182.527859
  0
LINE
  8
CSLAYER1
  6
CONTINUOUS
 62
     3
 10
850.475340
 20
1182.527859
 11
848.918476
 21
1182.627228
  0
LINE
  8
CSLAYER1
  6
CONTINUOUS
 62
     3
 10
848.918476
 20
1182.627228
 11
847.349672
 21
1182.660436
  0
LINE
  8
CSLAYER1
  6
CONTINUOUS
 62
     3
 10
847.349672
 20
1182.660436
 11
845.780869
 21
1182.627228
  0
LINE
  8
CSLAYER1
  6
CONTINUOUS
 62
     3
 10
845.780869
 20
1182.627228
 11
844.224005
 21
1182.527859
  0
LINE
  8
CSLAYER1
  6
CONTINUOUS
 62
     3
 10
844.224005
 20
1182.527859
 11
842.690930
 21
1182.363085
  0
LINE
  8
CSLAYER1
  6
CONTINUOUS
 62
     3
 10
842.690930
 20
1182.363085
 11
841.193310
 21
1182.134159
  0
LINE
  8
CSLAYER1
  6
CONTINUOUS
 62
     3
 10
841.193310
 20
1182.134159
 11
839.742544
 21
1181.842824
  0
LINE
  8
CSLAYER1
  6
CONTINUOUS
 62
     3
 10
839.742544
 20
1181.842824
 11
838.349672
 21
1181.491297
  0
LINE
  8
CSLAYER1
  6
CONTINUOUS
 62
     3
 10
838.349672
 20
1181.491297
 11
837.025297
 21
1181.082253
  0
LINE
  8
CSLAYER1
  6
CONTINUOUS
 62
     3
 10
837.025297
 20
1181.082253
 11
835.779495
 21
1180.618805
  0
LINE
  8
CSLAYER1
  6
CONTINUOUS
 62
     3
 10
835.779495
 20
1180.618805
 11
834.621750
 21
1180.104482
  0
LINE
  8
CSLAYER1
  6
CONTINUOUS
 62
     3
 10
834.621750
 20
1180.104482
 11
833.560872
 21
1179.543196
  0
LINE
  8
CSLAYER1
  6
CONTINUOUS
 62
     3
 10
833.560872
 20
1179.543196
 11
832.604936
 21
1178.939219
  0
LINE
  8
CSLAYER1
  6
CONTINUOUS
 62
     3
 10
832.604936
 20
1178.939219
 11
831.761215
 21
1178.297149
  0
LINE
  8
CSLAYER1
  6
CONTINUOUS
 62
     3
 10
831.761215
 20
1178.297149
 11
831.036132
 21
1177.621872
  0
LINE
  8
CSLAYER1
  6
CONTINUOUS
 62
     3
 10
831.036132
 20
1177.621872
 11
830.435205
 21
1176.918526
  0
LINE
  8
CSLAYER1
  6
CONTINUOUS
 62
     3
 10
830.435205
 20
1176.918526
 11
829.963008
 21
1176.192466
  0
LINE
  8
CSLAYER1
  6
CONTINUOUS
 62
     3
 10
829.963008
 20
1176.192466
 11
829.623133
 21
1175.449216
  0
LINE
  8
CSLAYER1
  6
CONTINUOUS
 62
     3
 10
829.623133
 20
1175.449216
 11
829.418168
 21
1174.694433
  0
LINE
  8
CSLAYER1
  6
CONTINUOUS
 62
     3
 10
829.418168
 20
1174.694433
 11
829.349672
 21
1173.933862
  0
LINE
  8
CSLAYER1
  6
CONTINUOUS
 62
     3
 10
874.849672
 20
1045.273139
 11
874.849672
 21
1014.684243
  0
LINE
  8
CSLAYER1
  6
CONTINUOUS
 62
     3
 10
874.849672
 20
1045.273139
 11
874.745027
 21
1046.435123
  0
LINE
  8
CSLAYER1
  6
CONTINUOUS
 62
     3
 10
874.745027
 20
1046.435123
 11
874.431886
 21
1047.588263
  0
LINE
  8
CSLAYER1
  6
CONTINUOUS
 62
     3
 10
874.431886
 20
1047.588263
 11
873.912633
 21
1048.723783
  0
LINE
  8
CSLAYER1
  6
CONTINUOUS
 62
     3
 10
873.912633
 20
1048.723783
 11
873.191220
 21
1049.833042
  0
LINE
  8
CSLAYER1
  6
CONTINUOUS
 62
     3
 10
873.191220
 20
1049.833042
 11
872.273137
 21
1050.907598
  0
LINE
  8
CSLAYER1
  6
CONTINUOUS
 62
     3
 10
872.273137
 20
1050.907598
 11
871.165371
 21
1051.939272
  0
LINE
  8
CSLAYER1
  6
CONTINUOUS
 62
     3
 10
871.165371
 20
1051.939272
 11
869.876354
 21
1052.920212
  0
LINE
  8
CSLAYER1
  6
CONTINUOUS
 62
     3
 10
869.876354
 20
1052.920212
 11
868.415895
 21
1053.842954
  0
LINE
  8
CSLAYER1
  6
CONTINUOUS
 62
     3
 10
868.415895
 20
1053.842954
 11
866.795109
 21
1054.700474
  0
LINE
  8
CSLAYER1
  6
CONTINUOUS
 62
     3
 10
866.795109
 20
1054.700474
 11
865.026332
 21
1055.486246
  0
LINE
  8
CSLAYER1
  6
CONTINUOUS
 62
     3
 10
865.026332
 20
1055.486246
 11
863.123024
 21
1056.194291
  0
LINE
  8
CSLAYER1
  6
CONTINUOUS
 62
     3
 10
863.123024
 20
1056.194291
 11
861.099672
 21
1056.819219
  0
LINE
  8
CSLAYER1
  6
CONTINUOUS
 62
     3
 10
861.099672
 20
1056.819219
 11
858.971675
 21
1057.356274
  0
LINE
  8
CSLAYER1
  6
CONTINUOUS
 62
     3
 10
858.971675
 20
1057.356274
 11
856.755226
 21
1057.801370
  0
LINE
  8
CSLAYER1
  6
CONTINUOUS
 62
     3
 10
856.755226
 20
1057.801370
 11
854.467196
 21
1058.151118
  0
LINE
  8
CSLAYER1
  6
CONTINUOUS
 62
     3
 10
854.467196
 20
1058.151118
 11
852.124997
 21
1058.402857
  0
LINE
  8
CSLAYER1
  6
CONTINUOUS
 62
     3
 10
852.124997
 20
1058.402857
 11
849.746455
 21
1058.554671
  0
LINE
  8
CSLAYER1
  6
CONTINUOUS
 62
     3
 10
849.746455
 20
1058.554671
 11
847.349672
 21
1058.605404
  0
LINE
  8
CSLAYER1
  6
CONTINUOUS
 62
     3
 10
847.349672
 20
1058.605404
 11
844.952890
 21
1058.554671
  0
LINE
  8
CSLAYER1
  6
CONTINUOUS
 62
     3
 10
844.952890
 20
1058.554671
 11
842.574348
 21
1058.402857
  0
LINE
  8
CSLAYER1
  6
CONTINUOUS
 62
     3
 10
842.574348
 20
1058.402857
 11
840.232149
 21
1058.151118
  0
LINE
  8
CSLAYER1
  6
CONTINUOUS
 62
     3
 10
840.232149
 20
1058.151118
 11
837.944118
 21
1057.801370
  0
LINE
  8
CSLAYER1
  6
CONTINUOUS
 62
     3
 10
837.944118
 20
1057.801370
 11
835.727670
 21
1057.356274
  0
LINE
  8
CSLAYER1
  6
CONTINUOUS
 62
     3
 10
835.727670
 20
1057.356274
 11
833.599672
 21
1056.819219
  0
LINE
  8
CSLAYER1
  6
CONTINUOUS
 62
     3
 10
833.599672
 20
1056.819219
 11
831.576320
 21
1056.194291
  0
LINE
  8
CSLAYER1
  6
CONTINUOUS
 62
     3
 10
831.576320
 20
1056.194291
 11
829.673013
 21
1055.486246
  0
LINE
  8
CSLAYER1
  6
CONTINUOUS
 62
     3
 10
829.673013
 20
1055.486246
 11
827.904236
 21
1054.700474
  0
LINE
  8
CSLAYER1
  6
CONTINUOUS
 62
     3
 10
827.904236
 20
1054.700474
 11
826.283450
 21
1053.842954
  0
LINE
  8
CSLAYER1
  6
CONTINUOUS
 62
     3
 10
826.283450
 20
1053.842954
 11
824.822991
 21
1052.920212
  0
LINE
  8
CSLAYER1
  6
CONTINUOUS
 62
     3
 10
824.822991
 20
1052.920212
 11
823.533974
 21
1051.939272
  0
LINE
  8
CSLAYER1
  6
CONTINUOUS
 62
     3
 10
823.533974
 20
1051.939272
 11
822.426208
 21
1050.907598
  0
LINE
  8
CSLAYER1
  6
CONTINUOUS
 62
     3
 10
822.426208
 20
1050.907598
 11
821.508125
 21
1049.833042
  0
LINE
  8
CSLAYER1
  6
CONTINUOUS
 62
     3
 10
821.508125
 20
1049.833042
 11
820.786712
 21
1048.723783
  0
LINE
  8
CSLAYER1
  6
CONTINUOUS
 62
     3
 10
820.786712
 20
1048.723783
 11
820.267459
 21
1047.588263
  0
LINE
  8
CSLAYER1
  6
CONTINUOUS
 62
     3
 10
820.267459
 20
1047.588263
 11
819.954318
 21
1046.435123
  0
LINE
  8
CSLAYER1
  6
CONTINUOUS
 62
     3
 10
819.954318
 20
1046.435123
 11
819.849672
 21
1045.273139
  0
LINE
  8
CSLAYER1
  6
CONTINUOUS
 62
     3
 10
819.849672
 20
1045.273139
 11
819.849672
 21
1014.684243
  0
LINE
  8
CSLAYER1
  6
CONTINUOUS
 62
     3
 10
871.649672
 20
920.371364
 11
871.649672
 21
1014.684243
  0
LINE
  8
CSLAYER1
  6
CONTINUOUS
 62
     3
 10
874.849672
 20
1014.684243
 11
874.745027
 21
1015.846227
  0
LINE
  8
CSLAYER1
  6
CONTINUOUS
 62
     3
 10
874.745027
 20
1015.846227
 11
874.431886
 21
1016.999367
  0
LINE
  8
CSLAYER1
  6
CONTINUOUS
 62
     3
 10
874.431886
 20
1016.999367
 11
873.912633
 21
1018.134887
  0
LINE
  8
CSLAYER1
  6
CONTINUOUS
 62
     3
 10
873.912633
 20
1018.134887
 11
873.191220
 21
1019.244146
  0
LINE
  8
CSLAYER1
  6
CONTINUOUS
 62
     3
 10
873.191220
 20
1019.244146
 11
872.273137
 21
1020.318702
  0
LINE
  8
CSLAYER1
  6
CONTINUOUS
 62
     3
 10
872.273137
 20
1020.318702
 11
871.165371
 21
1021.350376
  0
LINE
  8
CSLAYER1
  6
CONTINUOUS
 62
     3
 10
871.165371
 20
1021.350376
 11
869.876354
 21
1022.331316
  0
LINE
  8
CSLAYER1
  6
CONTINUOUS
 62
     3
 10
869.876354
 20
1022.331316
 11
868.415895
 21
1023.254058
  0
LINE
  8
CSLAYER1
  6
CONTINUOUS
 62
     3
 10
868.415895
 20
1023.254058
 11
866.795109
 21
1024.111578
  0
LINE
  8
CSLAYER1
  6
CONTINUOUS
 62
     3
 10
866.795109
 20
1024.111578
 11
865.026332
 21
1024.897351
  0
LINE
  8
CSLAYER1
  6
CONTINUOUS
 62
     3
 10
865.026332
 20
1024.897351
 11
863.123024
 21
1025.605395
  0
LINE
  8
CSLAYER1
  6
CONTINUOUS
 62
     3
 10
863.123024
 20
1025.605395
 11
861.099672
 21
1026.230323
  0
LINE
  8
CSLAYER1
  6
CONTINUOUS
 62
     3
 10
861.099672
 20
1026.230323
 11
858.971675
 21
1026.767379
  0
LINE
  8
CSLAYER1
  6
CONTINUOUS
 62
     3
 10
858.971675
 20
1026.767379
 11
856.755226
 21
1027.212474
  0
LINE
  8
CSLAYER1
  6
CONTINUOUS
 62
     3
 10
856.755226
 20
1027.212474
 11
854.467196
 21
1027.562222
  0
LINE
  8
CSLAYER1
  6
CONTINUOUS
 62
     3
 10
854.467196
 20
1027.562222
 11
852.124997
 21
1027.813961
  0
LINE
  8
CSLAYER1
  6
CONTINUOUS
 62
     3
 10
852.124997
 20
1027.813961
 11
849.746455
 21
1027.965775
  0
LINE
  8
CSLAYER1
  6
CONTINUOUS
 62
     3
 10
849.746455
 20
1027.965775
 11
847.349672
 21
1028.016508
  0
LINE
  8
CSLAYER1
  6
CONTINUOUS
 62
     3
 10
847.349672
 20
1028.016508
 11
844.952890
 21
1027.965775
  0
LINE
  8
CSLAYER1
  6
CONTINUOUS
 62
     3
 10
844.952890
 20
1027.965775
 11
842.574348
 21
1027.813961
  0
LINE
  8
CSLAYER1
  6
CONTINUOUS
 62
     3
 10
842.574348
 20
1027.813961
 11
840.232149
 21
1027.562222
  0
LINE
  8
CSLAYER1
  6
CONTINUOUS
 62
     3
 10
840.232149
 20
1027.562222
 11
837.944118
 21
1027.212474
  0
LINE
  8
CSLAYER1
  6
CONTINUOUS
 62
     3
 10
837.944118
 20
1027.212474
 11
835.727670
 21
1026.767379
  0
LINE
  8
CSLAYER1
  6
CONTINUOUS
 62
     3
 10
835.727670
 20
1026.767379
 11
833.599672
 21
1026.230323
  0
LINE
  8
CSLAYER1
  6
CONTINUOUS
 62
     3
 10
833.599672
 20
1026.230323
 11
831.576320
 21
1025.605395
  0
LINE
  8
CSLAYER1
  6
CONTINUOUS
 62
     3
 10
831.576320
 20
1025.605395
 11
829.673013
 21
1024.897351
  0
LINE
  8
CSLAYER1
  6
CONTINUOUS
 62
     3
 10
829.673013
 20
1024.897351
 11
827.904236
 21
1024.111578
  0
LINE
  8
CSLAYER1
  6
CONTINUOUS
 62
     3
 10
827.904236
 20
1024.111578
 11
826.283450
 21
1023.254058
  0
LINE
  8
CSLAYER1
  6
CONTINUOUS
 62
     3
 10
826.283450
 20
1023.254058
 11
824.822991
 21
1022.331316
  0
LINE
  8
CSLAYER1
  6
CONTINUOUS
 62
     3
 10
824.822991
 20
1022.331316
 11
823.533974
 21
1021.350376
  0
LINE
  8
CSLAYER1
  6
CONTINUOUS
 62
     3
 10
823.533974
 20
1021.350376
 11
822.426208
 21
1020.318702
  0
LINE
  8
CSLAYER1
  6
CONTINUOUS
 62
     3
 10
822.426208
 20
1020.318702
 11
821.508125
 21
1019.244146
  0
LINE
  8
CSLAYER1
  6
CONTINUOUS
 62
     3
 10
821.508125
 20
1019.244146
 11
820.786712
 21
1018.134887
  0
LINE
  8
CSLAYER1
  6
CONTINUOUS
 62
     3
 10
820.786712
 20
1018.134887
 11
820.267459
 21
1016.999367
  0
LINE
  8
CSLAYER1
  6
CONTINUOUS
 62
     3
 10
820.267459
 20
1016.999367
 11
819.954318
 21
1015.846227
  0
LINE
  8
CSLAYER1
  6
CONTINUOUS
 62
     3
 10
819.954318
 20
1015.846227
 11
819.849672
 21
1014.684243
  0
LINE
  8
CSLAYER1
  6
CONTINUOUS
 62
     3
 10
819.849672
 20
1014.684243
 11
819.954318
 21
1013.522260
  0
LINE
  8
CSLAYER1
  6
CONTINUOUS
 62
     3
 10
819.954318
 20
1013.522260
 11
820.267459
 21
1012.369120
  0
LINE
  8
CSLAYER1
  6
CONTINUOUS
 62
     3
 10
820.267459
 20
1012.369120
 11
820.786712
 21
1011.233599
  0
LINE
  8
CSLAYER1
  6
CONTINUOUS
 62
     3
 10
820.786712
 20
1011.233599
 11
821.508125
 21
1010.124340
  0
LINE
  8
CSLAYER1
  6
CONTINUOUS
 62
     3
 10
821.508125
 20
1010.124340
 11
822.426208
 21
1009.049785
  0
LINE
  8
CSLAYER1
  6
CONTINUOUS
 62
     3
 10
822.426208
 20
1009.049785
 11
823.049672
 21
1008.469146
  0
LINE
  8
CSLAYER1
  6
CONTINUOUS
 62
     3
 10
871.649672
 20
1008.469146
 11
872.273137
 21
1009.049785
  0
LINE
  8
CSLAYER1
  6
CONTINUOUS
 62
     3
 10
872.273137
 20
1009.049785
 11
873.191220
 21
1010.124340
  0
LINE
  8
CSLAYER1
  6
CONTINUOUS
 62
     3
 10
873.191220
 20
1010.124340
 11
873.912633
 21
1011.233599
  0
LINE
  8
CSLAYER1
  6
CONTINUOUS
 62
     3
 10
873.912633
 20
1011.233599
 11
874.431886
 21
1012.369120
  0
LINE
  8
CSLAYER1
  6
CONTINUOUS
 62
     3
 10
874.431886
 20
1012.369120
 11
874.745027
 21
1013.522260
  0
LINE
  8
CSLAYER1
  6
CONTINUOUS
 62
     3
 10
874.745027
 20
1013.522260
 11
874.849672
 21
1014.684243
  0
LINE
  8
CSLAYER1
  6
CONTINUOUS
 62
     3
 10
871.649672
 20
1014.684243
 11
871.557204
 21
1015.711014
  0
LINE
  8
CSLAYER1
  6
CONTINUOUS
 62
     3
 10
871.557204
 20
1015.711014
 11
871.280501
 21
1016.729971
  0
LINE
  8
CSLAYER1
  6
CONTINUOUS
 62
     3
 10
871.280501
 20
1016.729971
 11
870.821670
 21
1017.733358
  0
LINE
  8
CSLAYER1
  6
CONTINUOUS
 62
     3
 10
870.821670
 20
1017.733358
 11
870.184203
 21
1018.713540
  0
LINE
  8
CSLAYER1
  6
CONTINUOUS
 62
     3
 10
870.184203
 20
1018.713540
 11
869.372952
 21
1019.663056
  0
LINE
  8
CSLAYER1
  6
CONTINUOUS
 62
     3
 10
869.372952
 20
1019.663056
 11
868.394090
 21
1020.574680
  0
LINE
  8
CSLAYER1
  6
CONTINUOUS
 62
     3
 10
868.394090
 20
1020.574680
 11
867.255067
 21
1021.441475
  0
LINE
  8
CSLAYER1
  6
CONTINUOUS
 62
     3
 10
867.255067
 20
1021.441475
 11
865.964552
 21
1022.256843
  0
LINE
  8
CSLAYER1
  6
CONTINUOUS
 62
     3
 10
865.964552
 20
1022.256843
 11
864.532367
 21
1023.014579
  0
LINE
  8
CSLAYER1
  6
CONTINUOUS
 62
     3
 10
864.532367
 20
1023.014579
 11
862.969411
 21
1023.708916
  0
LINE
  8
CSLAYER1
  6
CONTINUOUS
 62
     3
 10
862.969411
 20
1023.708916
 11
861.287580
 21
1024.334570
  0
LINE
  8
CSLAYER1
  6
CONTINUOUS
 62
     3
 10
861.287580
 20
1024.334570
 11
859.499672
 21
1024.886779
  0
LINE
  8
CSLAYER1
  6
CONTINUOUS
 62
     3
 10
859.499672
 20
1024.886779
 11
857.619296
 21
1025.361341
  0
LINE
  8
CSLAYER1
  6
CONTINUOUS
 62
     3
 10
857.619296
 20
1025.361341
 11
855.660762
 21
1025.754644
  0
LINE
  8
CSLAYER1
  6
CONTINUOUS
 62
     3
 10
855.660762
 20
1025.754644
 11
853.638975
 21
1026.063694
  0
LINE
  8
CSLAYER1
  6
CONTINUOUS
 62
     3
 10
853.638975
 20
1026.063694
 11
851.569323
 21
1026.286139
  0
LINE
  8
CSLAYER1
  6
CONTINUOUS
 62
     3
 10
851.569323
 20
1026.286139
 11
849.467557
 21
1026.420287
  0
LINE
  8
CSLAYER1
  6
CONTINUOUS
 62
     3
 10
849.467557
 20
1026.420287
 11
847.349672
 21
1026.465117
  0
LINE
  8
CSLAYER1
  6
CONTINUOUS
 62
     3
 10
847.349672
 20
1026.465117
 11
845.231788
 21
1026.420287
  0
LINE
  8
CSLAYER1
  6
CONTINUOUS
 62
     3
 10
845.231788
 20
1026.420287
 11
843.130022
 21
1026.286139
  0
LINE
  8
CSLAYER1
  6
CONTINUOUS
 62
     3
 10
843.130022
 20
1026.286139
 11
841.060370
 21
1026.063694
  0
LINE
  8
CSLAYER1
  6
CONTINUOUS
 62
     3
 10
841.060370
 20
1026.063694
 11
839.038583
 21
1025.754644
  0
LINE
  8
CSLAYER1
  6
CONTINUOUS
 62
     3
 10
839.038583
 20
1025.754644
 11
837.080049
 21
1025.361341
  0
LINE
  8
CSLAYER1
  6
CONTINUOUS
 62
     3
 10
837.080049
 20
1025.361341
 11
835.199672
 21
1024.886779
  0
LINE
  8
CSLAYER1
  6
CONTINUOUS
 62
     3
 10
835.199672
 20
1024.886779
 11
833.411765
 21
1024.334570
  0
LINE
  8
CSLAYER1
  6
CONTINUOUS
 62
     3
 10
833.411765
 20
1024.334570
 11
831.729934
 21
1023.708916
  0
LINE
  8
CSLAYER1
  6
CONTINUOUS
 62
     3
 10
831.729934
 20
1023.708916
 11
830.166978
 21
1023.014579
  0
LINE
  8
CSLAYER1
  6
CONTINUOUS
 62
     3
 10
830.166978
 20
1023.014579
 11
828.734792
 21
1022.256843
  0
LINE
  8
CSLAYER1
  6
CONTINUOUS
 62
     3
 10
828.734792
 20
1022.256843
 11
827.444278
 21
1021.441475
  0
LINE
  8
CSLAYER1
  6
CONTINUOUS
 62
     3
 10
827.444278
 20
1021.441475
 11
826.305255
 21
1020.574680
  0
LINE
  8
CSLAYER1
  6
CONTINUOUS
 62
     3
 10
826.305255
 20
1020.574680
 11
825.326393
 21
1019.663056
  0
LINE
  8
CSLAYER1
  6
CONTINUOUS
 62
     3
 10
825.326393
 20
1019.663056
 11
824.515142
 21
1018.713540
  0
LINE
  8
CSLAYER1
  6
CONTINUOUS
 62
     3
 10
824.515142
 20
1018.713540
 11
823.877675
 21
1017.733358
  0
LINE
  8
CSLAYER1
  6
CONTINUOUS
 62
     3
 10
823.877675
 20
1017.733358
 11
823.418844
 21
1016.729971
  0
LINE
  8
CSLAYER1
  6
CONTINUOUS
 62
     3
 10
823.418844
 20
1016.729971
 11
823.142141
 21
1015.711014
  0
LINE
  8
CSLAYER1
  6
CONTINUOUS
 62
     3
 10
823.142141
 20
1015.711014
 11
823.049672
 21
1014.684243
  0
LINE
  8
CSLAYER1
  6
CONTINUOUS
 62
     3
 10
823.049672
 20
920.371364
 11
823.049672
 21
1014.684243
  0
LINE
  8
CSLAYER1
  6
CONTINUOUS
 62
     3
 10
829.349672
 20
1069.679282
 11
829.349672
 21
1173.933862
  0
LINE
  8
CSLAYER1
  6
CONTINUOUS
 62
     3
 10
869.849672
 20
889.782468
 11
869.849672
 21
920.371364
  0
LINE
  8
CSLAYER1
  6
CONTINUOUS
 62
     3
 10
869.849672
 20
920.371364
 11
869.764053
 21
921.322078
  0
LINE
  8
CSLAYER1
  6
CONTINUOUS
 62
     3
 10
869.764053
 20
921.322078
 11
869.507847
 21
922.265556
  0
LINE
  8
CSLAYER1
  6
CONTINUOUS
 62
     3
 10
869.507847
 20
922.265556
 11
869.083004
 21
923.194618
  0
LINE
  8
CSLAYER1
  6
CONTINUOUS
 62
     3
 10
869.083004
 20
923.194618
 11
868.492756
 21
924.102194
  0
LINE
  8
CSLAYER1
  6
CONTINUOUS
 62
     3
 10
868.492756
 20
924.102194
 11
867.741598
 21
924.981376
  0
LINE
  8
CSLAYER1
  6
CONTINUOUS
 62
     3
 10
867.741598
 20
924.981376
 11
866.835244
 21
925.825472
  0
LINE
  8
CSLAYER1
  6
CONTINUOUS
 62
     3
 10
866.835244
 20
925.825472
 11
865.780593
 21
926.628060
  0
LINE
  8
CSLAYER1
  6
CONTINUOUS
 62
     3
 10
865.780593
 20
926.628060
 11
864.585672
 21
927.383030
  0
LINE
  8
CSLAYER1
  6
CONTINUOUS
 62
     3
 10
864.585672
 20
927.383030
 11
863.259575
 21
928.084638
  0
LINE
  8
CSLAYER1
  6
CONTINUOUS
 62
     3
 10
863.259575
 20
928.084638
 11
861.812394
 21
928.727543
  0
LINE
  8
CSLAYER1
  6
CONTINUOUS
 62
     3
 10
861.812394
 20
928.727543
 11
860.255142
 21
929.306852
  0
LINE
  8
CSLAYER1
  6
CONTINUOUS
 62
     3
 10
860.255142
 20
929.306852
 11
858.599672
 21
929.818157
  0
LINE
  8
CSLAYER1
  6
CONTINUOUS
 62
     3
 10
858.599672
 20
929.818157
 11
856.858583
 21
930.257566
  0
LINE
  8
CSLAYER1
  6
CONTINUOUS
 62
     3
 10
856.858583
 20
930.257566
 11
855.045126
 21
930.621735
  0
LINE
  8
CSLAYER1
  6
CONTINUOUS
 62
     3
 10
855.045126
 20
930.621735
 11
853.173101
 21
930.907892
  0
LINE
  8
CSLAYER1
  6
CONTINUOUS
 62
     3
 10
853.173101
 20
930.907892
 11
851.256756
 21
931.113860
  0
LINE
  8
CSLAYER1
  6
CONTINUOUS
 62
     3
 10
851.256756
 20
931.113860
 11
849.310677
 21
931.238071
  0
LINE
  8
CSLAYER1
  6
CONTINUOUS
 62
     3
 10
849.310677
 20
931.238071
 11
847.349672
 21
931.279581
  0
LINE
  8
CSLAYER1
  6
CONTINUOUS
 62
     3
 10
847.349672
 20
931.279581
 11
845.388668
 21
931.238071
  0
LINE
  8
CSLAYER1
  6
CONTINUOUS
 62
     3
 10
845.388668
 20
931.238071
 11
843.442588
 21
931.113860
  0
LINE
  8
CSLAYER1
  6
CONTINUOUS
 62
     3
 10
843.442588
 20
931.113860
 11
841.526244
 21
930.907892
  0
LINE
  8
CSLAYER1
  6
CONTINUOUS
 62
     3
 10
841.526244
 20
930.907892
 11
839.654219
 21
930.621735
  0
LINE
  8
CSLAYER1
  6
CONTINUOUS
 62
     3
 10
839.654219
 20
930.621735
 11
837.840762
 21
930.257566
  0
LINE
  8
CSLAYER1
  6
CONTINUOUS
 62
     3
 10
837.840762
 20
930.257566
 11
836.099672
 21
929.818157
  0
LINE
  8
CSLAYER1
  6
CONTINUOUS
 62
     3
 10
836.099672
 20
929.818157
 11
834.444203
 21
929.306852
  0
LINE
  8
CSLAYER1
  6
CONTINUOUS
 62
     3
 10
834.444203
 20
929.306852
 11
832.886951
 21
928.727543
  0
LINE
  8
CSLAYER1
  6
CONTINUOUS
 62
     3
 10
832.886951
 20
928.727543
 11
831.439770
 21
928.084638
  0
LINE
  8
CSLAYER1
  6
CONTINUOUS
 62
     3
 10
831.439770
 20
928.084638
 11
830.113672
 21
927.383030
  0
LINE
  8
CSLAYER1
  6
CONTINUOUS
 62
     3
 10
830.113672
 20
927.383030
 11
828.918751
 21
926.628060
  0
LINE
  8
CSLAYER1
  6
CONTINUOUS
 62
     3
 10
828.918751
 20
926.628060
 11
827.864101
 21
925.825472
  0
LINE
  8
CSLAYER1
  6
CONTINUOUS
 62
     3
 10
827.864101
 20
925.825472
 11
826.957747
 21
924.981376
  0
LINE
  8
CSLAYER1
  6
CONTINUOUS
 62
     3
 10
826.957747
 20
924.981376
 11
826.206588
 21
924.102194
  0
LINE
  8
CSLAYER1
  6
CONTINUOUS
 62
     3
 10
826.206588
 20
924.102194
 11
825.616341
 21
923.194618
  0
LINE
  8
CSLAYER1
  6
CONTINUOUS
 62
     3
 10
825.616341
 20
923.194618
 11
825.191498
 21
922.265556
  0
LINE
  8
CSLAYER1
  6
CONTINUOUS
 62
     3
 10
825.191498
 20
922.265556
 11
824.935292
 21
921.322078
  0
LINE
  8
CSLAYER1
  6
CONTINUOUS
 62
     3
 10
824.935292
 20
921.322078
 11
824.849672
 21
920.371364
  0
LINE
  8
CSLAYER1
  6
CONTINUOUS
 62
     3
 10
871.649672
 20
920.371364
 11
871.557204
 21
921.398135
  0
LINE
  8
CSLAYER1
  6
CONTINUOUS
 62
     3
 10
871.557204
 20
921.398135
 11
871.280501
 21
922.417091
  0
LINE
  8
CSLAYER1
  6
CONTINUOUS
 62
     3
 10
871.280501
 20
922.417091
 11
870.821670
 21
923.420479
  0
LINE
  8
CSLAYER1
  6
CONTINUOUS
 62
     3
 10
870.821670
 20
923.420479
 11
870.184203
 21
924.400660
  0
LINE
  8
CSLAYER1
  6
CONTINUOUS
 62
     3
 10
870.184203
 20
924.400660
 11
869.372952
 21
925.350176
  0
LINE
  8
CSLAYER1
  6
CONTINUOUS
 62
     3
 10
869.372952
 20
925.350176
 11
868.394090
 21
926.261801
  0
LINE
  8
CSLAYER1
  6
CONTINUOUS
 62
     3
 10
868.394090
 20
926.261801
 11
867.255067
 21
927.128596
  0
LINE
  8
CSLAYER1
  6
CONTINUOUS
 62
     3
 10
867.255067
 20
927.128596
 11
865.964552
 21
927.943964
  0
LINE
  8
CSLAYER1
  6
CONTINUOUS
 62
     3
 10
865.964552
 20
927.943964
 11
864.532367
 21
928.701700
  0
LINE
  8
CSLAYER1
  6
CONTINUOUS
 62
     3
 10
864.532367
 20
928.701700
 11
862.969411
 21
929.396037
  0
LINE
  8
CSLAYER1
  6
CONTINUOUS
 62
     3
 10
862.969411
 20
929.396037
 11
861.287580
 21
930.021691
  0
LINE
  8
CSLAYER1
  6
CONTINUOUS
 62
     3
 10
861.287580
 20
930.021691
 11
859.499672
 21
930.573900
  0
LINE
  8
CSLAYER1
  6
CONTINUOUS
 62
     3
 10
859.499672
 20
930.573900
 11
857.619296
 21
931.048462
  0
LINE
  8
CSLAYER1
  6
CONTINUOUS
 62
     3
 10
857.619296
 20
931.048462
 11
855.660762
 21
931.441764
  0
LINE
  8
CSLAYER1
  6
CONTINUOUS
 62
     3
 10
855.660762
 20
931.441764
 11
853.638975
 21
931.750814
  0
LINE
  8
CSLAYER1
  6
CONTINUOUS
 62
     3
 10
853.638975
 20
931.750814
 11
851.569323
 21
931.973260
  0
LINE
  8
CSLAYER1
  6
CONTINUOUS
 62
     3
 10
851.569323
 20
931.973260
 11
849.467557
 21
932.107408
  0
LINE
  8
CSLAYER1
  6
CONTINUOUS
 62
     3
 10
849.467557
 20
932.107408
 11
847.349672
 21
932.152238
  0
LINE
  8
CSLAYER1
  6
CONTINUOUS
 62
     3
 10
847.349672
 20
932.152238
 11
845.231788
 21
932.107408
  0
LINE
  8
CSLAYER1
  6
CONTINUOUS
 62
     3
 10
845.231788
 20
932.107408
 11
843.130022
 21
931.973260
  0
LINE
  8
CSLAYER1
  6
CONTINUOUS
 62
     3
 10
843.130022
 20
931.973260
 11
841.060370
 21
931.750814
  0
LINE
  8
CSLAYER1
  6
CONTINUOUS
 62
     3
 10
841.060370
 20
931.750814
 11
839.038583
 21
931.441764
  0
LINE
  8
CSLAYER1
  6
CONTINUOUS
 62
     3
 10
839.038583
 20
931.441764
 11
837.080049
 21
931.048462
  0
LINE
  8
CSLAYER1
  6
CONTINUOUS
 62
     3
 10
837.080049
 20
931.048462
 11
835.199672
 21
930.573900
  0
LINE
  8
CSLAYER1
  6
CONTINUOUS
 62
     3
 10
835.199672
 20
930.573900
 11
833.411765
 21
930.021691
  0
LINE
  8
CSLAYER1
  6
CONTINUOUS
 62
     3
 10
833.411765
 20
930.021691
 11
831.729934
 21
929.396037
  0
LINE
  8
CSLAYER1
  6
CONTINUOUS
 62
     3
 10
831.729934
 20
929.396037
 11
830.166978
 21
928.701700
  0
LINE
  8
CSLAYER1
  6
CONTINUOUS
 62
     3
 10
830.166978
 20
928.701700
 11
828.734792
 21
927.943964
  0
LINE
  8
CSLAYER1
  6
CONTINUOUS
 62
     3
 10
828.734792
 20
927.943964
 11
827.444278
 21
927.128596
  0
LINE
  8
CSLAYER1
  6
CONTINUOUS
 62
     3
 10
827.444278
 20
927.128596
 11
826.305255
 21
926.261801
  0
LINE
  8
CSLAYER1
  6
CONTINUOUS
 62
     3
 10
826.305255
 20
926.261801
 11
825.326393
 21
925.350176
  0
LINE
  8
CSLAYER1
  6
CONTINUOUS
 62
     3
 10
825.326393
 20
925.350176
 11
824.515142
 21
924.400660
  0
LINE
  8
CSLAYER1
  6
CONTINUOUS
 62
     3
 10
824.515142
 20
924.400660
 11
823.877675
 21
923.420479
  0
LINE
  8
CSLAYER1
  6
CONTINUOUS
 62
     3
 10
823.877675
 20
923.420479
 11
823.418844
 21
922.417091
  0
LINE
  8
CSLAYER1
  6
CONTINUOUS
 62
     3
 10
823.418844
 20
922.417091
 11
823.142141
 21
921.398135
  0
LINE
  8
CSLAYER1
  6
CONTINUOUS
 62
     3
 10
823.142141
 20
921.398135
 11
823.049672
 21
920.371364
  0
LINE
  8
CSLAYER1
  6
CONTINUOUS
 62
     3
 10
823.049672
 20
920.371364
 11
823.142141
 21
919.344593
  0
LINE
  8
CSLAYER1
  6
CONTINUOUS
 62
     3
 10
823.142141
 20
919.344593
 11
823.247433
 21
918.956858
  0
LINE
  8
CSLAYER1
  6
CONTINUOUS
 62
     3
 10
824.349672
 20
916.596497
 11
824.515142
 21
916.342068
  0
LINE
  8
CSLAYER1
  6
CONTINUOUS
 62
     3
 10
824.515142
 20
916.342068
 11
824.849672
 21
915.950522
  0
LINE
  8
CSLAYER1
  6
CONTINUOUS
 62
     3
 10
869.849672
 20
915.950522
 11
870.184203
 21
916.342068
  0
LINE
  8
CSLAYER1
  6
CONTINUOUS
 62
     3
 10
870.184203
 20
916.342068
 11
870.349672
 21
916.596497
  0
LINE
  8
CSLAYER1
  6
CONTINUOUS
 62
     3
 10
871.451912
 20
918.956858
 11
871.557204
 21
919.344593
  0
LINE
  8
CSLAYER1
  6
CONTINUOUS
 62
     3
 10
871.557204
 20
919.344593
 11
871.649672
 21
920.371364
  0
LINE
  8
CSLAYER1
  6
CONTINUOUS
 62
     3
 10
824.849672
 20
889.782468
 11
824.849672
 21
920.371364
  0
LINE
  8
CSLAYER1
  6
CONTINUOUS
 62
     3
 10
869.849672
 20
889.782468
 11
869.764053
 21
890.733182
  0
LINE
  8
CSLAYER1
  6
CONTINUOUS
 62
     3
 10
869.764053
 20
890.733182
 11
869.507847
 21
891.676660
  0
LINE
  8
CSLAYER1
  6
CONTINUOUS
 62
     3
 10
869.507847
 20
891.676660
 11
869.083004
 21
892.605722
  0
LINE
  8
CSLAYER1
  6
CONTINUOUS
 62
     3
 10
869.083004
 20
892.605722
 11
868.492756
 21
893.513298
  0
LINE
  8
CSLAYER1
  6
CONTINUOUS
 62
     3
 10
868.492756
 20
893.513298
 11
867.741598
 21
894.392480
  0
LINE
  8
CSLAYER1
  6
CONTINUOUS
 62
     3
 10
867.741598
 20
894.392480
 11
866.835244
 21
895.236576
  0
LINE
  8
CSLAYER1
  6
CONTINUOUS
 62
     3
 10
866.835244
 20
895.236576
 11
865.780593
 21
896.039164
  0
LINE
  8
CSLAYER1
  6
CONTINUOUS
 62
     3
 10
865.780593
 20
896.039164
 11
864.585672
 21
896.794135
  0
LINE
  8
CSLAYER1
  6
CONTINUOUS
 62
     3
 10
864.585672
 20
896.794135
 11
863.259575
 21
897.495742
  0
LINE
  8
CSLAYER1
  6
CONTINUOUS
 62
     3
 10
863.259575
 20
897.495742
 11
861.812394
 21
898.138647
  0
LINE
  8
CSLAYER1
  6
CONTINUOUS
 62
     3
 10
861.812394
 20
898.138647
 11
860.255142
 21
898.717956
  0
LINE
  8
CSLAYER1
  6
CONTINUOUS
 62
     3
 10
860.255142
 20
898.717956
 11
858.599672
 21
899.229261
  0
LINE
  8
CSLAYER1
  6
CONTINUOUS
 62
     3
 10
858.599672
 20
899.229261
 11
856.858583
 21
899.668670
  0
LINE
  8
CSLAYER1
  6
CONTINUOUS
 62
     3
 10
856.858583
 20
899.668670
 11
855.045126
 21
900.032839
  0
LINE
  8
CSLAYER1
  6
CONTINUOUS
 62
     3
 10
855.045126
 20
900.032839
 11
853.173101
 21
900.318996
  0
LINE
  8
CSLAYER1
  6
CONTINUOUS
 62
     3
 10
853.173101
 20
900.318996
 11
851.256756
 21
900.524964
  0
LINE
  8
CSLAYER1
  6
CONTINUOUS
 62
     3
 10
851.256756
 20
900.524964
 11
849.310677
 21
900.649176
  0
LINE
  8
CSLAYER1
  6
CONTINUOUS
 62
     3
 10
849.310677
 20
900.649176
 11
847.349672
 21
900.690685
  0
LINE
  8
CSLAYER1
  6
CONTINUOUS
 62
     3
 10
847.349672
 20
900.690685
 11
845.388668
 21
900.649176
  0
LINE
  8
CSLAYER1
  6
CONTINUOUS
 62
     3
 10
845.388668
 20
900.649176
 11
843.442588
 21
900.524964
  0
LINE
  8
CSLAYER1
  6
CONTINUOUS
 62
     3
 10
843.442588
 20
900.524964
 11
841.526244
 21
900.318996
  0
LINE
  8
CSLAYER1
  6
CONTINUOUS
 62
     3
 10
841.526244
 20
900.318996
 11
839.654219
 21
900.032839
  0
LINE
  8
CSLAYER1
  6
CONTINUOUS
 62
     3
 10
839.654219
 20
900.032839
 11
837.840762
 21
899.668670
  0
LINE
  8
CSLAYER1
  6
CONTINUOUS
 62
     3
 10
837.840762
 20
899.668670
 11
836.099672
 21
899.229261
  0
LINE
  8
CSLAYER1
  6
CONTINUOUS
 62
     3
 10
836.099672
 20
899.229261
 11
834.444203
 21
898.717956
  0
LINE
  8
CSLAYER1
  6
CONTINUOUS
 62
     3
 10
834.444203
 20
898.717956
 11
832.886951
 21
898.138647
  0
LINE
  8
CSLAYER1
  6
CONTINUOUS
 62
     3
 10
832.886951
 20
898.138647
 11
831.439770
 21
897.495742
  0
LINE
  8
CSLAYER1
  6
CONTINUOUS
 62
     3
 10
831.439770
 20
897.495742
 11
830.113672
 21
896.794135
  0
LINE
  8
CSLAYER1
  6
CONTINUOUS
 62
     3
 10
830.113672
 20
896.794135
 11
828.918751
 21
896.039164
  0
LINE
  8
CSLAYER1
  6
CONTINUOUS
 62
     3
 10
828.918751
 20
896.039164
 11
827.864101
 21
895.236576
  0
LINE
  8
CSLAYER1
  6
CONTINUOUS
 62
     3
 10
827.864101
 20
895.236576
 11
826.957747
 21
894.392480
  0
LINE
  8
CSLAYER1
  6
CONTINUOUS
 62
     3
 10
826.957747
 20
894.392480
 11
826.206588
 21
893.513298
  0
LINE
  8
CSLAYER1
  6
CONTINUOUS
 62
     3
 10
826.206588
 20
893.513298
 11
825.616341
 21
892.605722
  0
LINE
  8
CSLAYER1
  6
CONTINUOUS
 62
     3
 10
825.616341
 20
892.605722
 11
825.191498
 21
891.676660
  0
LINE
  8
CSLAYER1
  6
CONTINUOUS
 62
     3
 10
825.191498
 20
891.676660
 11
824.935292
 21
890.733182
  0
LINE
  8
CSLAYER1
  6
CONTINUOUS
 62
     3
 10
824.935292
 20
890.733182
 11
824.849672
 21
889.782468
  0
LINE
  8
CSLAYER1
  6
CONTINUOUS
 62
     3
 10
824.849672
 20
889.782468
 11
824.935292
 21
888.831754
  0
LINE
  8
CSLAYER1
  6
CONTINUOUS
 62
     3
 10
824.935292
 20
888.831754
 11
825.191498
 21
887.888276
  0
LINE
  8
CSLAYER1
  6
CONTINUOUS
 62
     3
 10
825.191498
 20
887.888276
 11
825.616341
 21
886.959214
  0
LINE
  8
CSLAYER1
  6
CONTINUOUS
 62
     3
 10
825.616341
 20
886.959214
 11
826.206588
 21
886.051638
  0
LINE
  8
CSLAYER1
  6
CONTINUOUS
 62
     3
 10
826.206588
 20
886.051638
 11
826.392994
 21
885.833463
  0
LINE
  8
CSLAYER1
  6
CONTINUOUS
 62
     3
 10
868.306351
 20
885.833463
 11
868.492756
 21
886.051638
  0
LINE
  8
CSLAYER1
  6
CONTINUOUS
 62
     3
 10
868.492756
 20
886.051638
 11
869.083004
 21
886.959214
  0
LINE
  8
CSLAYER1
  6
CONTINUOUS
 62
     3
 10
869.083004
 20
886.959214
 11
869.507847
 21
887.888276
  0
LINE
  8
CSLAYER1
  6
CONTINUOUS
 62
     3
 10
869.507847
 20
887.888276
 11
869.764053
 21
888.831754
  0
LINE
  8
CSLAYER1
  6
CONTINUOUS
 62
     3
 10
869.764053
 20
888.831754
 11
869.849672
 21
889.782468
  0
LINE
  8
CSLAYER1
  6
CENTER
 62
     5
 10
807.349672
 20
856.842100
 11
807.349672
 21
998.934088
  0
LINE
  8
CSLAYER1
  6
CONTINUOUS
 62
     3
 10
814.349672
 20
1011.597896
 11
800.349672
 21
1011.597896
  0
LINE
  8
CSLAYER1
  6
CONTINUOUS
 62
     3
 10
814.349672
 20
1003.797896
 11
800.349672
 21
1003.797896
  0
LINE
  8
CSLAYER1
  6
CONTINUOUS
 62
     3
 10
813.781604
 20
998.597896
 11
800.917741
 21
998.597896
  0
LINE
  8
CSLAYER1
  6
CONTINUOUS
 62
     3
 10
813.349672
 20
996.597896
 11
801.349672
 21
996.597896
  0
LINE
  8
CSLAYER1
  6
CONTINUOUS
 62
     3
 10
813.349672
 20
989.597896
 11
801.349672
 21
989.597896
  0
LINE
  8
CSLAYER1
  6
CONTINUOUS
 62
     3
 10
812.232699
 20
964.597896
 11
802.466646
 21
964.597896
  0
LINE
  8
CSLAYER1
  6
CONTINUOUS
 62
     3
 10
812.849672
 20
986.597896
 11
812.849672
 21
989.597896
  0
LINE
  8
CSLAYER1
  6
CONTINUOUS
 62
     3
 10
815.432576
 20
1004.423111
 11
815.432576
 21
1010.972682
  0
LINE
  8
CSLAYER1
  6
CONTINUOUS
 62
     3
 10
811.391124
 20
1004.423111
 11
811.391124
 21
1010.972682
  0
ARC
  8
CSLAYER1
  6
CONTINUOUS
 62
     3
 10
784.661902
 20
1003.840118
 40
29.587800
 50
345.831727
 51
359.918240
  0
ARC
  8
CSLAYER1
  6
CONTINUOUS
 62
     3
 10
830.037443
 20
1003.840118
 40
29.587800
 50
180.081760
 51
194.168273
  0
LINE
  8
CSLAYER1
  6
CONTINUOUS
 62
     3
 10
811.696986
 20
996.597896
 11
811.696986
 21
998.597896
  0
LINE
  8
CSLAYER1
  6
CONTINUOUS
 62
     3
 10
809.715221
 20
996.597896
 11
809.715221
 21
998.597896
  0
LINE
  8
CSLAYER1
  6
CONTINUOUS
 62
     3
 10
803.002358
 20
996.597896
 11
803.002358
 21
998.597896
  0
LINE
  8
CSLAYER1
  6
CONTINUOUS
 62
     3
 10
804.984124
 20
996.597896
 11
804.984124
 21
998.597896
  0
LINE
  8
CSLAYER1
  6
CONTINUOUS
 62
     3
 10
814.349672
 20
1011.597896
 11
815.432576
 21
1010.972682
  0
ARC
  8
CSLAYER1
  6
CONTINUOUS
 62
     3
 10
813.411850
 20
1008.046267
 40
3.556295
 50
64.625569
 51
124.625569
  0
ARC
  8
CSLAYER1
  6
CONTINUOUS
 62
     3
 10
807.349672
 20
998.223111
 40
13.374785
 50
72.412046
 51
90.000000
  0
LINE
  8
CSLAYER1
  6
CONTINUOUS
 62
     3
 10
814.349672
 20
1003.797896
 11
815.432576
 21
1004.423111
  0
ARC
  8
CSLAYER1
  6
CONTINUOUS
 62
     3
 10
813.411850
 20
1007.349525
 40
3.556295
 50
235.374431
 51
295.374431
  0
ARC
  8
CSLAYER1
  6
CONTINUOUS
 62
     3
 10
807.349672
 20
1017.172682
 40
13.374785
 50
270.000000
 51
287.587954
  0
LINE
  8
CSLAYER1
  6
CONTINUOUS
 62
     3
 10
799.266769
 20
1004.423111
 11
799.266769
 21
1010.972682
  0
LINE
  8
CSLAYER1
  6
CONTINUOUS
 62
     3
 10
803.308221
 20
1004.423111
 11
803.308221
 21
1010.972682
  0
LINE
  8
CSLAYER1
  6
CONTINUOUS
 62
     3
 10
800.349672
 20
1011.597896
 11
799.266769
 21
1010.972682
  0
ARC
  8
CSLAYER1
  6
CONTINUOUS
 62
     3
 10
801.287495
 20
1008.046267
 40
3.556295
 50
55.374431
 51
115.374431
  0
ARC
  8
CSLAYER1
  6
CONTINUOUS
 62
     3
 10
807.349672
 20
998.223111
 40
13.374785
 50
90.000000
 51
107.587954
  0
LINE
  8
CSLAYER1
  6
CONTINUOUS
 62
     3
 10
800.349672
 20
1003.797896
 11
799.266769
 21
1004.423111
  0
ARC
  8
CSLAYER1
  6
CONTINUOUS
 62
     3
 10
801.287495
 20
1007.349525
 40
3.556295
 50
244.625569
 51
304.625569
  0
ARC
  8
CSLAYER1
  6
CONTINUOUS
 62
     3
 10
807.349672
 20
1017.172682
 40
13.374785
 50
252.412046
 51
270.000000
  0
LINE
  8
CSLAYER1
  6
CONTINUOUS
 62
     3
 10
814.277876
 20
990.133795
 11
814.277876
 21
995.861998
  0
LINE
  8
CSLAYER1
  6
CONTINUOUS
 62
     3
 10
810.813774
 20
990.133795
 11
810.813774
 21
995.861998
  0
LINE
  8
CSLAYER1
  6
CONTINUOUS
 62
     3
 10
813.349672
 20
989.597896
 11
814.277876
 21
990.133795
  0
ARC
  8
CSLAYER1
  6
CONTINUOUS
 62
     3
 10
807.349672
 20
1001.061998
 40
11.464102
 50
270.000000
 51
287.821405
  0
ARC
  8
CSLAYER1
  6
CONTINUOUS
 62
     3
 10
812.545825
 20
992.663825
 40
3.066114
 50
236.143645
 51
295.804157
  0
LINE
  8
CSLAYER1
  6
CONTINUOUS
 62
     3
 10
813.349672
 20
996.397896
 11
814.277876
 21
995.861998
  0
ARC
  8
CSLAYER1
  6
CONTINUOUS
 62
     3
 10
807.349672
 20
984.933795
 40
11.464102
 50
72.178595
 51
90.000000
  0
ARC
  8
CSLAYER1
  6
CONTINUOUS
 62
     3
 10
812.545825
 20
993.331968
 40
3.066114
 50
64.195843
 51
123.856355
  0
LINE
  8
CSLAYER1
  6
CONTINUOUS
 62
     3
 10
813.349672
 20
996.397896
 11
801.349672
 21
996.397896
  0
LINE
  8
CSLAYER1
  6
CONTINUOUS
 62
     3
 10
810.813774
 20
996.397896
 11
810.813774
 21
996.597896
  0
LINE
  8
CSLAYER1
  6
CONTINUOUS
 62
     3
 10
801.849672
 20
986.597896
 11
801.849672
 21
989.597896
  0
LINE
  8
CSLAYER1
  6
CONTINUOUS
 62
     3
 10
800.421469
 20
990.133795
 11
800.421469
 21
995.861998
  0
LINE
  8
CSLAYER1
  6
CONTINUOUS
 62
     3
 10
803.885571
 20
990.133795
 11
803.885571
 21
995.861998
  0
LINE
  8
CSLAYER1
  6
CONTINUOUS
 62
     3
 10
801.349672
 20
989.597896
 11
800.421469
 21
990.133795
  0
ARC
  8
CSLAYER1
  6
CONTINUOUS
 62
     3
 10
807.349672
 20
1001.061998
 40
11.464102
 50
252.178595
 51
270.000000
  0
ARC
  8
CSLAYER1
  6
CONTINUOUS
 62
     3
 10
802.153520
 20
992.663825
 40
3.066114
 50
244.195843
 51
303.856355
  0
LINE
  8
CSLAYER1
  6
CONTINUOUS
 62
     3
 10
801.349672
 20
996.397896
 11
800.421469
 21
995.861998
  0
ARC
  8
CSLAYER1
  6
CONTINUOUS
 62
     3
 10
807.349672
 20
984.933795
 40
11.464102
 50
90.000000
 51
107.821405
  0
ARC
  8
CSLAYER1
  6
CONTINUOUS
 62
     3
 10
802.153520
 20
993.331968
 40
3.066114
 50
56.143645
 51
115.804157
  0
LINE
  8
CSLAYER1
  6
CONTINUOUS
 62
     3
 10
803.885571
 20
996.397896
 11
803.885571
 21
996.597896
  0
LINE
  8
CSLAYER1
  6
CONTINUOUS
 62
     3
 10
814.277876
 20
977.597896
 11
814.277876
 21
986.061998
  0
LINE
  8
CSLAYER1
  6
CONTINUOUS
 62
     3
 10
810.813774
 20
977.597896
 11
810.813774
 21
986.061998
  0
LINE
  8
CSLAYER1
  6
CONTINUOUS
 62
     3
 10
813.349672
 20
986.597896
 11
814.277876
 21
986.061998
  0
ARC
  8
CSLAYER1
  6
CONTINUOUS
 62
     3
 10
807.349672
 20
975.133795
 40
11.464102
 50
72.178595
 51
90.000000
  0
ARC
  8
CSLAYER1
  6
CONTINUOUS
 62
     3
 10
812.545825
 20
983.531968
 40
3.066114
 50
64.195843
 51
123.856355
  0
LINE
  8
CSLAYER1
  6
CONTINUOUS
 62
     3
 10
813.349672
 20
986.597896
 11
801.349672
 21
986.597896
  0
LINE
  8
CSLAYER1
  6
CONTINUOUS
 62
     3
 10
800.421469
 20
977.597896
 11
800.421469
 21
986.061998
  0
LINE
  8
CSLAYER1
  6
CONTINUOUS
 62
     3
 10
803.885571
 20
977.597896
 11
803.885571
 21
986.061998
  0
LINE
  8
CSLAYER1
  6
CONTINUOUS
 62
     3
 10
801.349672
 20
986.597896
 11
800.421469
 21
986.061998
  0
ARC
  8
CSLAYER1
  6
CONTINUOUS
 62
     3
 10
807.349672
 20
975.133795
 40
11.464102
 50
90.000000
 51
107.821405
  0
ARC
  8
CSLAYER1
  6
CONTINUOUS
 62
     3
 10
802.153520
 20
983.531968
 40
3.066114
 50
56.143645
 51
115.804157
  0
LINE
  8
CSLAYER1
  6
CONTINUOUS
 62
     3
 10
813.228954
 20
965.511436
 11
814.277876
 21
977.597896
  0
ARC
  8
CSLAYER1
  6
CONTINUOUS
 62
     3
 10
792.172184
 20
977.597896
 40
18.641590
 50
330.443788
 51
360.000000
  0
ARC
  8
CSLAYER1
  6
CONTINUOUS
 62
     3
 10
807.349672
 20
969.037750
 40
1.217263
 50
270.000000
 51
329.421532
  0
ARC
  8
CSLAYER1
  6
CONTINUOUS
 62
     3
 10
829.455364
 20
977.597896
 40
18.641590
 50
180.000000
 51
209.556212
  0
ARC
  8
CSLAYER1
  6
CONTINUOUS
 62
     3
 10
814.277876
 20
969.037750
 40
1.217263
 50
210.578468
 51
227.594217
  0
ARC
  8
CSLAYER1
  6
CONTINUOUS
 62
     3
 10
812.232699
 20
965.597896
 40
1.000000
 50
270.000000
 51
355.040021
  0
LINE
  8
CSLAYER1
  6
CONTINUOUS
 62
     3
 10
801.470391
 20
965.511436
 11
800.421469
 21
977.597896
  0
ARC
  8
CSLAYER1
  6
CONTINUOUS
 62
     3
 10
822.527161
 20
977.597896
 40
18.641590
 50
180.000000
 51
209.556212
  0
ARC
  8
CSLAYER1
  6
CONTINUOUS
 62
     3
 10
807.349672
 20
969.037750
 40
1.217263
 50
210.578468
 51
270.000000
  0
ARC
  8
CSLAYER1
  6
CONTINUOUS
 62
     3
 10
785.243981
 20
977.597896
 40
18.641590
 50
330.443788
 51
360.000000
  0
ARC
  8
CSLAYER1
  6
CONTINUOUS
 62
     3
 10
800.421469
 20
969.037750
 40
1.217263
 50
312.405783
 51
329.421532
  0
ARC
  8
CSLAYER1
  6
CONTINUOUS
 62
     3
 10
802.466646
 20
965.597896
 40
1.000000
 50
184.959979
 51
270.000000
  0
LINE
  8
CSLAYER1
  6
CONTINUOUS
 62
     3
 10
812.232699
 20
1031.297896
 11
802.466646
 21
1031.297896
  0
LINE
  8
CSLAYER1
  6
CENTER
 62
     5
 10
819.849672
 20
1024.297896
 11
814.349672
 21
1024.297896
  0
LINE
  8
CSLAYER1
  6
CONTINUOUS
 62
     3
 10
800.349672
 20
1017.297896
 11
800.349672
 21
1029.797896
  0
LINE
  8
CSLAYER1
  6
CONTINUOUS
 62
     3
 10
814.349672
 20
1031.297896
 11
801.849672
 21
1031.297896
  0
LINE
  8
CSLAYER1
  6
CONTINUOUS
 62
     3
 10
814.349672
 20
1017.297896
 11
800.349672
 21
1017.297896
  0
LINE
  8
CSLAYER1
  6
CONTINUOUS
 62
     3
 10
814.349672
 20
1017.297896
 11
814.349672
 21
1031.295451
  0
LINE
  8
CSLAYER1
  6
CONTINUOUS
 62
     3
 10
811.949672
 20
1011.597896
 11
811.949672
 21
1017.297896
  0
LINE
  8
CSLAYER1
  6
CONTINUOUS
 62
     4
 10
811.349672
 20
1011.597896
 11
811.349672
 21
1016.258666
  0
LINE
  8
CSLAYER1
  6
CONTINUOUS
 62
     4
 10
811.949672
 20
1017.297896
 11
811.349672
 21
1016.258666
  0
LINE
  8
CSLAYER1
  6
CONTINUOUS
 62
     3
 10
802.749672
 20
1011.597896
 11
802.749672
 21
1017.297896
  0
LINE
  8
CSLAYER1
  6
CONTINUOUS
 62
     4
 10
802.749672
 20
1017.297896
 11
803.349672
 21
1016.258666
  0
LINE
  8
CSLAYER1
  6
CONTINUOUS
 62
     4
 10
811.949672
 20
1016.258666
 11
802.749672
 21
1016.258666
  0
LINE
  8
CSLAYER1
  6
CONTINUOUS
 62
     3
 10
819.849672
 20
1019.446111
 11
814.349672
 21
1019.347896
  0
LINE
  8
CSLAYER1
  6
CONTINUOUS
 62
     4
 10
819.849672
 20
1020.146222
 11
814.337174
 21
1020.047785
  0
LINE
  8
CSLAYER1
  6
CONTINUOUS
 62
     3
 10
819.849672
 20
1029.149682
 11
814.349672
 21
1029.247896
  0
LINE
  8
CSLAYER1
  6
CONTINUOUS
 62
     4
 10
819.849672
 20
1028.449570
 11
814.337174
 21
1028.548008
  0
ARC
  8
CSLAYER1
  6
CONTINUOUS
 62
     3
 10
801.849672
 20
1029.797896
 40
1.500000
 50
90.000000
 51
180.000000
  0
LINE
  8
CSLAYER1
  6
CONTINUOUS
 62
     3
 10
825.849672
 20
1171.998983
 11
829.349672
 21
1171.998983
  0
LINE
  8
CSLAYER1
  6
CONTINUOUS
 62
     3
 10
824.849672
 20
1172.998983
 11
825.849672
 21
1171.998983
  0
LINE
  8
CSLAYER1
  6
CONTINUOUS
 62
     3
 10
868.849672
 20
1171.998983
 11
869.849672
 21
1172.998983
  0
LINE
  8
CSLAYER1
  6
CONTINUOUS
 62
     3
 10
870.849672
 20
1177.598983
 11
869.849672
 21
1177.598983
  0
LINE
  8
CSLAYER1
  6
CONTINUOUS
 62
     3
 10
824.849672
 20
1177.598983
 11
823.849672
 21
1177.598983
  0
LINE
  8
CSLAYER1
  6
CONTINUOUS
 62
     3
 10
865.349672
 20
1171.998983
 11
868.849672
 21
1171.998983
  0
LINE
  8
CSLAYER1
  6
CONTINUOUS
 62
     3
 10
803.199672
 20
857.763846
 11
803.199672
 21
964.597896
  0
LINE
  8
CSLAYER1
  6
CONTINUOUS
 62
     3
 10
811.499672
 20
857.763846
 11
811.499672
 21
964.597896
  0
LINE
  8
CSLAYER1
  6
CONTINUOUS
 62
     4
 10
803.349672
 20
1011.597896
 11
803.349672
 21
1016.258666
  0
ENDBLK
  8
0
  0
BLOCK
  8
CSLAYER1
  2
BLKF0003
 70
   64
 10
0.0
 20
0.0
 30
0.0
  0
LINE
  8
CSLAYER1
  6
CENTER
 62
     6
 10
1447.258499
 20
1871.970521
 11
1447.258499
 21
1849.444918
  0
LINE
  8
CSLAYER1
  6
CENTER
 62
     6
 10
1435.995697
 20
1860.707719
 11
1458.521300
 21
1860.707719
  0
ENDBLK
  8
0
  0
BLOCK
  8
CSLAYER1
  2
BLKF0004
 70
   64
 10
0.0
 20
0.0
 30
0.0
  0
LINE
  8
CSLAYER1
  6
CENTER
 62
     6
 10
1447.258499
 20
2099.444918
 11
1447.258499
 21
2121.970521
  0
LINE
  8
CSLAYER1
  6
CENTER
 62
     6
 10
1435.995697
 20
2110.707719
 11
1458.521300
 21
2110.707719
  0
ENDBLK
  8
0
  0
BLOCK
  8
CSLAYER1
  2
BLKF0005
 70
   64
 10
0.0
 20
0.0
 30
0.0
  0
LINE
  8
CSLAYER1
  6
CONTINUOUS
 62
     3
 10
770.349672
 20
1384.557862
 11
770.349672
 21
1399.327517
  0
LINE
  8
CSLAYER1
  6
CONTINUOUS
 62
     3
 10
773.349672
 20
1384.777517
 11
770.349672
 21
1384.777517
  0
LINE
  8
CSLAYER1
  6
CONTINUOUS
 62
     3
 10
773.349672
 20
1394.015320
 11
770.349672
 21
1397.515320
  0
LINE
  8
CSLAYER1
  6
CONTINUOUS
 62
     3
 10
762.349672
 20
1395.527517
 11
762.349672
 21
1399.327517
  0
ARC
  8
CSLAYER1
  6
CONTINUOUS
 62
     3
 10
776.145417
 20
1395.527517
 40
13.795744
 50
164.011330
 51
180.000000
  0
LINE
  8
CSLAYER1
  6
CONTINUOUS
 62
     3
 10
762.349672
 20
1395.527517
 11
762.349672
 21
1386.527517
  0
LINE
  8
CSLAYER1
  6
CONTINUOUS
 62
     3
 10
770.349672
 20
1390.042689
 11
763.486853
 21
1390.042689
  0
LINE
  8
CSLAYER1
  6
CONTINUOUS
 62
     3
 10
770.349672
 20
1384.557862
 11
763.486853
 21
1384.557862
  0
LINE
  8
CSLAYER1
  6
CONTINUOUS
 62
     3
 10
762.349672
 20
1386.527517
 11
763.486853
 21
1384.557862
  0
ARC
  8
CSLAYER1
  6
CONTINUOUS
 62
     3
 10
766.129717
 20
1387.300276
 40
3.808617
 50
133.940972
 51
174.338367
  0
ARC
  8
CSLAYER1
  6
CONTINUOUS
 62
     3
 10
776.145417
 20
1395.527517
 40
13.795744
 50
180.000000
 51
203.426598
  0
ENDBLK
  8
0
  0
BLOCK
  8
CSLAYER1
  2
BLKF0006
 70
   64
 10
0.0
 20
0.0
 30
0.0
  0
LINE
  8
CSLAYER1
  6
CONTINUOUS
 62
     3
 10
2244.803457
 20
1429.327517
 11
2244.803457
 21
1399.327517
  0
LINE
  8
CSLAYER1
  6
CONTINUOUS
 62
     3
 10
2242.503457
 20
1397.027517
 11
2242.503457
 21
1399.327517
  0
POINT
  8
CSLAYER1
 62
     3
 10
1467.103457
 20
1395.527517
  0
POINT
  8
CSLAYER1
 62
     3
 10
1467.103457
 20
1395.527517
  0
LINE
  8
CSLAYER1
  6
CONTINUOUS
 62
     3
 10
1444.803457
 20
1429.327517
 11
1444.803457
 21
1399.327517
  0
LINE
  8
CSLAYER1
  6
CONTINUOUS
 62
     3
 10
1497.103457
 20
1397.027517
 11
2127.103457
 21
1397.027517
  0
LINE
  8
CSLAYER1
  6
CONTINUOUS
 62
     3
 10
1444.803457
 20
1429.327517
 11
2244.803457
 21
1429.327517
  0
LINE
  8
CSLAYER1
  6
CONTINUOUS
 62
     3
 10
1447.103457
 20
1399.327517
 11
1447.103457
 21
1390.027517
  0
LINE
  8
CSLAYER1
  6
CONTINUOUS
 62
     3
 10
1444.803457
 20
1399.327517
 11
1447.103457
 21
1399.327517
  0
LINE
  8
CSLAYER1
  6
CONTINUOUS
 62
     3
 10
1452.103457
 20
1385.027517
 11
1472.103457
 21
1385.027517
  0
ARC
  8
CSLAYER1
  6
CONTINUOUS
 62
     3
 10
1452.103457
 20
1390.027517
 40
5.000000
 50
180.000000
 51
270.000000
  0
LINE
  8
CSLAYER1
  6
CONTINUOUS
 62
     3
 10
1497.103457
 20
1394.027517
 11
1472.103457
 21
1385.027517
  0
LINE
  8
CSLAYER1
  6
CONTINUOUS
 62
     3
 10
1497.103457
 20
1399.327517
 11
1497.103457
 21
1394.027517
  0
LINE
  8
CSLAYER1
  6
CENTER
 62
     5
 10
1456.345088
 20
1395.527517
 11
1478.435589
 21
1395.527517
  0
LINE
  8
CSLAYER1
  6
CENTER
 62
     5
 10
1467.103457
 20
1385.027517
 11
1467.103457
 21
1399.327517
  0
LINE
  8
CSLAYER1
  6
CONTINUOUS
 62
     3
 10
1497.103457
 20
1397.027517
 11
2242.503457
 21
1397.027517
  0
LINE
  8
CSLAYER1
  6
CONTINUOUS
 62
     3
 10
1444.803457
 20
1399.327517
 11
2244.803457
 21
1399.327517
  0
ENDBLK
  8
0
  0
BLOCK
  8
CSLAYER1
  2
BLKF0007
 70
   64
 10
0.0
 20
0.0
 30
0.0
  0
LINE
  8
CSLAYER1
  6
PHANTOM
 62
     6
 10
2224.958499
 20
897.763846
 11
2224.958499
 21
867.763846
  0
LINE
  8
CSLAYER1
  6
PHANTOM
 62
     6
 10
2222.658499
 20
865.463846
 11
2222.658499
 21
867.763846
  0
POINT
  8
CSLAYER1
 62
     6
 10
1447.258499
 20
863.963846
  0
POINT
  8
CSLAYER1
 62
     6
 10
1447.258499
 20
863.963846
  0
LINE
  8
CSLAYER1
  6
PHANTOM
 62
     6
 10
1424.958499
 20
897.763846
 11
1424.958499
 21
867.763846
  0
LINE
  8
CSLAYER1
  6
PHANTOM
 62
     6
 10
1477.258499
 20
865.463846
 11
2107.258499
 21
865.463846
  0
LINE
  8
CSLAYER1
  6
PHANTOM
 62
     6
 10
1424.958499
 20
897.763846
 11
2224.958499
 21
897.763846
  0
LINE
  8
CSLAYER1
  6
PHANTOM
 62
     6
 10
1427.258499
 20
867.763846
 11
1427.258499
 21
858.463846
  0
LINE
  8
CSLAYER1
  6
PHANTOM
 62
     6
 10
1424.958499
 20
867.763846
 11
1427.258499
 21
867.763846
  0
LINE
  8
CSLAYER1
  6
PHANTOM
 62
     6
 10
1432.258499
 20
853.463846
 11
1452.258499
 21
853.463846
  0
ARC
  8
CSLAYER1
  6
PHANTOM
 62
     6
 10
1432.258499
 20
858.463846
 40
5.000000
 50
180.000000
 51
270.000000
  0
LINE
  8
CSLAYER1
  6
PHANTOM
 62
     6
 10
1477.258499
 20
862.463846
 11
1452.258499
 21
853.463846
  0
LINE
  8
CSLAYER1
  6
PHANTOM
 62
     6
 10
1477.258499
 20
867.763846
 11
1477.258499
 21
862.463846
  0
LINE
  8
CSLAYER1
  6
PHANTOM
 62
     6
 10
1436.500130
 20
863.963846
 11
1458.590631
 21
863.963846
  0
LINE
  8
CSLAYER1
  6
PHANTOM
 62
     6
 10
1447.258499
 20
853.463846
 11
1447.258499
 21
867.763846
  0
LINE
  8
CSLAYER1
  6
PHANTOM
 62
     6
 10
1477.258499
 20
865.463846
 11
2222.658499
 21
865.463846
  0
LINE
  8
CSLAYER1
  6
PHANTOM
 62
     6
 10
1424.958499
 20
867.763846
 11
2224.958499
 21
867.763846
  0
ENDBLK
  8
0
  0
BLOCK
  8
CSLAYER1
  2
BLKF0008
 70
   64
 10
0.0
 20
0.0
 30
0.0
  0
INSERT
  8
CSLAYER1
  2
EASYDRAWDIM0002
 10
0.0
 20
0.0
 30
0.0
  0
ARC
  8
CSLAYER1
  6
CONTINUOUS
 62
     5
 10
1447.258499
 20
1860.707719
 40
6.500000
 50
62.740267
 51
113.228660
  0
ARC
  8
CSLAYER1
  6
CONTINUOUS
 62
     5
 10
1447.258499
 20
1860.707719
 40
6.500000
 50
0.000000
 51
24.091742
  0
ARC
  8
CSLAYER1
  6
CONTINUOUS
 62
     5
 10
1447.258499
 20
1860.707719
 40
6.500000
 50
150.667324
 51
180.000000
  0
ARC
  8
CSLAYER1
  6
CONTINUOUS
 62
     5
 10
1447.258499
 20
2110.707719
 40
6.500000
 50
246.771340
 51
297.259733
  0
ARC
  8
CSLAYER1
  6
CONTINUOUS
 62
     5
 10
1447.258499
 20
2110.707719
 40
6.500000
 50
335.908258
 51
360.000000
  0
ARC
  8
CSLAYER1
  6
CONTINUOUS
 62
     5
 10
1447.258499
 20
2110.707719
 40
6.500000
 50
180.000000
 51
209.332676
  0
LINE
  8
CSLAYER1
  6
DASHED
 62
     5
 10
1472.258499
 20
2110.707719
 11
1472.258499
 21
2085.707719
  0
LINE
  8
CSLAYER1
  6
DASHED
 62
     5
 10
1472.258499
 20
1860.707719
 11
1472.258499
 21
1885.707719
  0
LINE
  8
CSLAYER1
  6
DASHED
 62
     5
 10
1424.958499
 20
1885.707719
 11
2224.958499
 21
1885.707719
  0
LINE
  8
CSLAYER1
  6
DASHED
 62
     5
 10
1424.958499
 20
2085.707719
 11
2224.958499
 21
2085.707719
  0
DIMENSION
  8
CSLAYER1
 62
     3
  2
*D0010
 10
2344.958499
 20
2110.707719
 11
2334.958740
 21
1985.707642
 13
2252.394202
 23
1860.707719
 14
2252.394202
 24
2110.707719
 50
90.000000
 70
1
  0
DIMENSION
  8
CSLAYER1
 62
     3
  2
*D0011
 10
1337.004438
 20
2110.707719
 11
1328.752075
 21
1960.154907
 13
1435.995697
 23
1860.707719
 14
1435.995697
 24
2110.707719
 50
90.000000
 70
1
  0
ENDBLK
  8
0
  0
BLOCK
  8
CSLAYER1
  2
BLKF0009
 70
   64
 10
0.0
 20
0.0
 30
0.0
  0
LINE
  8
CSLAYER1
  6
CONTINUOUS
 62
     5
 10
3495.017905
 20
1714.550059
 11
2615.017905
 21
1714.550059
  0
TEXT
  8
CSLAYER1
 62
     3
 10
3092.401123
 20
1720.200317
 40
40.000000
 41
0.832500
  1
１０Ｒ４／１３
 50
0.000000
 51
0.000000
  7
EASYDRAW_FONT
 72
     5
 11
3314.401123
 21
1720.200317
  0
ENDBLK
  8
0
  0
BLOCK
  8
CSLAYER1
  2
BLKF0010
 70
   64
 10
0.0
 20
0.0
 30
0.0
  0
LINE
  8
CSLAYER1
  6
CONTINUOUS
 62
     7
 10
811.725241
 20
2044.193328
 11
825.232267
 21
2051.292431
  0
LINE
  8
CSLAYER1
  6
CONTINUOUS
 62
     7
 10
825.232267
 20
2051.292431
 11
839.766614
 21
2057.689297
  0
LINE
  8
CSLAYER1
  6
CONTINUOUS
 62
     7
 10
839.766614
 20
2057.689297
 11
855.217665
 21
2063.335243
  0
LINE
  8
CSLAYER1
  6
CONTINUOUS
 62
     7
 10
855.217665
 20
2063.335243
 11
871.467830
 21
2068.187298
  0
LINE
  8
CSLAYER1
  6
CONTINUOUS
 62
     7
 10
871.467830
 20
2068.187298
 11
888.393435
 21
2072.208537
  0
LINE
  8
CSLAYER1
  6
CONTINUOUS
 62
     7
 10
888.393435
 20
2072.208537
 11
905.865666
 21
2075.368354
  0
LINE
  8
CSLAYER1
  6
CONTINUOUS
 62
     7
 10
905.865666
 20
2075.368354
 11
923.751548
 21
2077.642702
  0
LINE
  8
CSLAYER1
  6
CONTINUOUS
 62
     7
 10
923.751548
 20
2077.642702
 11
941.914959
 21
2079.014271
  0
LINE
  8
CSLAYER1
  6
CONTINUOUS
 62
     7
 10
941.914959
 20
2079.014271
 11
960.217665
 21
2079.472624
  0
LINE
  8
CSLAYER1
  6
CONTINUOUS
 62
     7
 10
960.217665
 20
2079.472624
 11
978.520371
 21
2079.014271
  0
LINE
  8
CSLAYER1
  6
CONTINUOUS
 62
     7
 10
978.520371
 20
2079.014271
 11
996.683783
 21
2077.642702
  0
LINE
  8
CSLAYER1
  6
CONTINUOUS
 62
     7
 10
996.683783
 20
2077.642702
 11
1014.569665
 21
2075.368354
  0
LINE
  8
CSLAYER1
  6
CONTINUOUS
 62
     7
 10
1014.569665
 20
2075.368354
 11
1032.041896
 21
2072.208537
  0
LINE
  8
CSLAYER1
  6
CONTINUOUS
 62
     7
 10
1032.041896
 20
2072.208537
 11
1047.738725
 21
2068.479235
  0
LINE
  8
CSLAYER1
  6
CONTINUOUS
 62
     7
 10
802.815696
 20
2049.303633
 11
817.133144
 21
2056.828683
  0
LINE
  8
CSLAYER1
  6
CONTINUOUS
 62
     7
 10
817.133144
 20
2056.828683
 11
832.539551
 21
2063.609361
  0
LINE
  8
CSLAYER1
  6
CONTINUOUS
 62
     7
 10
832.539551
 20
2063.609361
 11
848.917665
 21
2069.594063
  0
LINE
  8
CSLAYER1
  6
CONTINUOUS
 62
     7
 10
848.917665
 20
2069.594063
 11
866.142840
 21
2074.737242
  0
LINE
  8
CSLAYER1
  6
CONTINUOUS
 62
     7
 10
866.142840
 20
2074.737242
 11
884.083982
 21
2078.999755
  0
LINE
  8
CSLAYER1
  6
CONTINUOUS
 62
     7
 10
884.083982
 20
2078.999755
 11
902.604546
 21
2082.349161
  0
LINE
  8
CSLAYER1
  6
CONTINUOUS
 62
     7
 10
902.604546
 20
2082.349161
 11
921.563581
 21
2084.759970
  0
LINE
  8
CSLAYER1
  6
CONTINUOUS
 62
     7
 10
921.563581
 20
2084.759970
 11
940.816797
 21
2086.213833
  0
LINE
  8
CSLAYER1
  6
CONTINUOUS
 62
     7
 10
940.816797
 20
2086.213833
 11
960.217665
 21
2086.699687
  0
LINE
  8
CSLAYER1
  6
CONTINUOUS
 62
     7
 10
960.217665
 20
2086.699687
 11
979.618534
 21
2086.213833
  0
LINE
  8
CSLAYER1
  6
CONTINUOUS
 62
     7
 10
979.618534
 20
2086.213833
 11
998.871750
 21
2084.759970
  0
LINE
  8
CSLAYER1
  6
CONTINUOUS
 62
     7
 10
998.871750
 20
2084.759970
 11
1017.830785
 21
2082.349161
  0
LINE
  8
CSLAYER1
  6
CONTINUOUS
 62
     7
 10
1017.830785
 20
2082.349161
 11
1036.351349
 21
2078.999755
  0
LINE
  8
CSLAYER1
  6
CONTINUOUS
 62
     7
 10
1036.351349
 20
2078.999755
 11
1047.738725
 21
2076.294306
  0
LINE
  8
CSLAYER1
  6
CONTINUOUS
 62
     7
 10
786.261946
 20
2028.268734
 11
811.859813
 21
2044.264057
  0
LINE
  8
CSLAYER1
  6
CONTINUOUS
 62
     7
 10
786.261946
 20
2038.945540
 11
802.958342
 21
2049.378606
  0
ENDBLK
  8
0
  0
BLOCK
  8
CSLAYER1
  2
BLKF0011
 70
   64
 10
0.0
 20
0.0
 30
0.0
  0
LINE
  8
CSLAYER1
  6
CONTINUOUS
 62
     7
 10
654.691334
 20
2043.234442
 11
654.919013
 21
2043.385330
  0
LINE
  8
CSLAYER1
  6
CONTINUOUS
 62
     7
 10
654.919013
 20
2043.385330
 11
655.128126
 21
2043.564226
  0
LINE
  8
CSLAYER1
  6
CONTINUOUS
 62
     7
 10
655.128126
 20
2043.564226
 11
655.317082
 21
2043.769767
  0
LINE
  8
CSLAYER1
  6
CONTINUOUS
 62
     7
 10
655.317082
 20
2043.769767
 11
655.484443
 21
2044.000391
  0
LINE
  8
CSLAYER1
  6
CONTINUOUS
 62
     7
 10
655.484443
 20
2044.000391
 11
655.628934
 21
2044.254341
  0
LINE
  8
CSLAYER1
  6
CONTINUOUS
 62
     7
 10
655.628934
 20
2044.254341
 11
655.749457
 21
2044.529685
  0
LINE
  8
CSLAYER1
  6
CONTINUOUS
 62
     7
 10
655.749457
 20
2044.529685
 11
655.845093
 21
2044.824327
  0
LINE
  8
CSLAYER1
  6
CONTINUOUS
 62
     7
 10
655.845093
 20
2044.824327
 11
655.915115
 21
2045.136025
  0
LINE
  8
CSLAYER1
  6
CONTINUOUS
 62
     7
 10
655.915115
 20
2045.136025
 11
655.958991
 21
2045.462407
  0
LINE
  8
CSLAYER1
  6
CONTINUOUS
 62
     7
 10
655.958991
 20
2045.462407
 11
655.976385
 21
2045.800988
  0
LINE
  8
CSLAYER1
  6
CONTINUOUS
 62
     7
 10
655.976385
 20
2045.800988
 11
655.967167
 21
2046.149193
  0
LINE
  8
CSLAYER1
  6
CONTINUOUS
 62
     7
 10
655.967167
 20
2046.149193
 11
655.931405
 21
2046.504371
  0
LINE
  8
CSLAYER1
  6
CONTINUOUS
 62
     7
 10
655.931405
 20
2046.504371
 11
655.869372
 21
2046.863818
  0
LINE
  8
CSLAYER1
  6
CONTINUOUS
 62
     7
 10
655.869372
 20
2046.863818
 11
655.781541
 21
2047.224799
  0
LINE
  8
CSLAYER1
  6
CONTINUOUS
 62
     7
 10
655.781541
 20
2047.224799
 11
655.668580
 21
2047.584568
  0
LINE
  8
CSLAYER1
  6
CONTINUOUS
 62
     7
 10
655.668580
 20
2047.584568
 11
655.531347
 21
2047.940385
  0
LINE
  8
CSLAYER1
  6
CONTINUOUS
 62
     7
 10
655.531347
 20
2047.940385
 11
655.370889
 21
2048.289543
  0
LINE
  8
CSLAYER1
  6
CONTINUOUS
 62
     7
 10
655.370889
 20
2048.289543
 11
655.188426
 21
2048.629384
  0
LINE
  8
CSLAYER1
  6
CONTINUOUS
 62
     7
 10
655.188426
 20
2048.629384
 11
654.985346
 21
2048.957323
  0
LINE
  8
CSLAYER1
  6
CONTINUOUS
 62
     7
 10
654.985346
 20
2048.957323
 11
654.763195
 21
2049.270863
  0
LINE
  8
CSLAYER1
  6
CONTINUOUS
 62
     7
 10
654.763195
 20
2049.270863
 11
654.523665
 21
2049.567618
  0
LINE
  8
CSLAYER1
  6
CONTINUOUS
 62
     7
 10
654.523665
 20
2049.567618
 11
654.268577
 21
2049.845330
  0
LINE
  8
CSLAYER1
  6
CONTINUOUS
 62
     7
 10
654.268577
 20
2049.845330
 11
653.999874
 21
2050.101885
  0
LINE
  8
CSLAYER1
  6
CONTINUOUS
 62
     7
 10
653.999874
 20
2050.101885
 11
653.719599
 21
2050.335330
  0
LINE
  8
CSLAYER1
  6
CONTINUOUS
 62
     7
 10
653.719599
 20
2050.335330
 11
653.429887
 21
2050.543889
  0
LINE
  8
CSLAYER1
  6
CONTINUOUS
 62
     7
 10
653.429887
 20
2050.543889
 11
653.132943
 21
2050.725975
  0
LINE
  8
CSLAYER1
  6
CONTINUOUS
 62
     7
 10
653.132943
 20
2050.725975
 11
652.831025
 21
2050.880202
  0
LINE
  8
CSLAYER1
  6
CONTINUOUS
 62
     7
 10
652.831025
 20
2050.880202
 11
652.526432
 21
2051.005396
  0
LINE
  8
CSLAYER1
  6
CONTINUOUS
 62
     7
 10
652.526432
 20
2051.005396
 11
652.221483
 21
2051.100604
  0
LINE
  8
CSLAYER1
  6
CONTINUOUS
 62
     7
 10
652.221483
 20
2051.100604
 11
651.918497
 21
2051.165101
  0
LINE
  8
CSLAYER1
  6
CONTINUOUS
 62
     7
 10
651.918497
 20
2051.165101
 11
651.619781
 21
2051.198398
  0
LINE
  8
CSLAYER1
  6
CONTINUOUS
 62
     7
 10
651.619781
 20
2051.198398
 11
651.327608
 21
2051.200240
  0
LINE
  8
CSLAYER1
  6
CONTINUOUS
 62
     7
 10
651.327608
 20
2051.200240
 11
651.044202
 21
2051.170613
  0
LINE
  8
CSLAYER1
  6
CONTINUOUS
 62
     7
 10
651.044202
 20
2051.170613
 11
650.771720
 21
2051.109743
  0
LINE
  8
CSLAYER1
  6
CONTINUOUS
 62
     7
 10
650.771720
 20
2051.109743
 11
650.512235
 21
2051.018093
  0
LINE
  8
CSLAYER1
  6
CONTINUOUS
 62
     7
 10
650.512235
 20
2051.018093
 11
650.267723
 21
2050.896361
  0
ENDBLK
  8
0
  0
BLOCK
  8
CSLAYER1
  2
BLKF0012
 70
   64
 10
0.0
 20
0.0
 30
0.0
  0
LINE
  8
CSLAYER1
  6
CONTINUOUS
 62
     7
 10
647.320831
 20
2049.194972
 11
647.093151
 21
2049.044084
  0
LINE
  8
CSLAYER1
  6
CONTINUOUS
 62
     7
 10
647.093151
 20
2049.044084
 11
646.884038
 21
2048.865189
  0
LINE
  8
CSLAYER1
  6
CONTINUOUS
 62
     7
 10
646.884038
 20
2048.865189
 11
646.695082
 21
2048.659647
  0
LINE
  8
CSLAYER1
  6
CONTINUOUS
 62
     7
 10
646.695082
 20
2048.659647
 11
646.527721
 21
2048.429024
  0
LINE
  8
CSLAYER1
  6
CONTINUOUS
 62
     7
 10
646.527721
 20
2048.429024
 11
646.383230
 21
2048.175074
  0
LINE
  8
CSLAYER1
  6
CONTINUOUS
 62
     7
 10
646.383230
 20
2048.175074
 11
646.262708
 21
2047.899730
  0
LINE
  8
CSLAYER1
  6
CONTINUOUS
 62
     7
 10
646.262708
 20
2047.899730
 11
646.167071
 21
2047.605087
  0
LINE
  8
CSLAYER1
  6
CONTINUOUS
 62
     7
 10
646.167071
 20
2047.605087
 11
646.097049
 21
2047.293389
  0
LINE
  8
CSLAYER1
  6
CONTINUOUS
 62
     7
 10
646.097049
 20
2047.293389
 11
646.053174
 21
2046.967007
  0
LINE
  8
CSLAYER1
  6
CONTINUOUS
 62
     7
 10
646.053174
 20
2046.967007
 11
646.035779
 21
2046.628426
  0
LINE
  8
CSLAYER1
  6
CONTINUOUS
 62
     7
 10
646.035779
 20
2046.628426
 11
646.044998
 21
2046.280221
  0
LINE
  8
CSLAYER1
  6
CONTINUOUS
 62
     7
 10
646.044998
 20
2046.280221
 11
646.080759
 21
2045.925044
  0
LINE
  8
CSLAYER1
  6
CONTINUOUS
 62
     7
 10
646.080759
 20
2045.925044
 11
646.142792
 21
2045.565596
  0
LINE
  8
CSLAYER1
  6
CONTINUOUS
 62
     7
 10
646.142792
 20
2045.565596
 11
646.230623
 21
2045.204615
  0
LINE
  8
CSLAYER1
  6
CONTINUOUS
 62
     7
 10
646.230623
 20
2045.204615
 11
646.343585
 21
2044.844847
  0
LINE
  8
CSLAYER1
  6
CONTINUOUS
 62
     7
 10
646.343585
 20
2044.844847
 11
646.480817
 21
2044.489030
  0
LINE
  8
CSLAYER1
  6
CONTINUOUS
 62
     7
 10
646.480817
 20
2044.489030
 11
646.641275
 21
2044.139872
  0
LINE
  8
CSLAYER1
  6
CONTINUOUS
 62
     7
 10
646.641275
 20
2044.139872
 11
646.823739
 21
2043.800030
  0
LINE
  8
CSLAYER1
  6
CONTINUOUS
 62
     7
 10
646.823739
 20
2043.800030
 11
647.026818
 21
2043.472091
  0
LINE
  8
CSLAYER1
  6
CONTINUOUS
 62
     7
 10
647.026818
 20
2043.472091
 11
647.248969
 21
2043.158551
  0
LINE
  8
CSLAYER1
  6
CONTINUOUS
 62
     7
 10
647.248969
 20
2043.158551
 11
647.488499
 21
2042.861796
  0
LINE
  8
CSLAYER1
  6
CONTINUOUS
 62
     7
 10
647.488499
 20
2042.861796
 11
647.743587
 21
2042.584084
  0
LINE
  8
CSLAYER1
  6
CONTINUOUS
 62
     7
 10
647.743587
 20
2042.584084
 11
648.012291
 21
2042.327529
  0
LINE
  8
CSLAYER1
  6
CONTINUOUS
 62
     7
 10
648.012291
 20
2042.327529
 11
648.292565
 21
2042.094084
  0
LINE
  8
CSLAYER1
  6
CONTINUOUS
 62
     7
 10
648.292565
 20
2042.094084
 11
648.582277
 21
2041.885525
  0
LINE
  8
CSLAYER1
  6
CONTINUOUS
 62
     7
 10
648.582277
 20
2041.885525
 11
648.879221
 21
2041.703439
  0
LINE
  8
CSLAYER1
  6
CONTINUOUS
 62
     7
 10
648.879221
 20
2041.703439
 11
649.181139
 21
2041.549212
  0
LINE
  8
CSLAYER1
  6
CONTINUOUS
 62
     7
 10
649.181139
 20
2041.549212
 11
649.485732
 21
2041.424019
  0
LINE
  8
CSLAYER1
  6
CONTINUOUS
 62
     7
 10
649.485732
 20
2041.424019
 11
649.790681
 21
2041.328811
  0
LINE
  8
CSLAYER1
  6
CONTINUOUS
 62
     7
 10
649.790681
 20
2041.328811
 11
650.093667
 21
2041.264313
  0
LINE
  8
CSLAYER1
  6
CONTINUOUS
 62
     7
 10
650.093667
 20
2041.264313
 11
650.392383
 21
2041.231016
  0
LINE
  8
CSLAYER1
  6
CONTINUOUS
 62
     7
 10
650.392383
 20
2041.231016
 11
650.684556
 21
2041.229175
  0
LINE
  8
CSLAYER1
  6
CONTINUOUS
 62
     7
 10
650.684556
 20
2041.229175
 11
650.967962
 21
2041.258801
  0
LINE
  8
CSLAYER1
  6
CONTINUOUS
 62
     7
 10
650.967962
 20
2041.258801
 11
651.240444
 21
2041.319671
  0
LINE
  8
CSLAYER1
  6
CONTINUOUS
 62
     7
 10
651.240444
 20
2041.319671
 11
651.499929
 21
2041.411321
  0
LINE
  8
CSLAYER1
  6
CONTINUOUS
 62
     7
 10
651.499929
 20
2041.411321
 11
651.744442
 21
2041.533053
  0
LINE
  8
CSLAYER1
  6
CONTINUOUS
 62
     7
 10
651.744442
 20
2041.533053
 11
651.972121
 21
2041.683941
  0
LINE
  8
CSLAYER1
  6
CONTINUOUS
 62
     7
 10
651.972121
 20
2041.683941
 11
652.181234
 21
2041.862837
  0
LINE
  8
CSLAYER1
  6
CONTINUOUS
 62
     7
 10
652.181234
 20
2041.862837
 11
652.370190
 21
2042.068378
  0
LINE
  8
CSLAYER1
  6
CONTINUOUS
 62
     7
 10
652.370190
 20
2042.068378
 11
652.537551
 21
2042.299002
  0
LINE
  8
CSLAYER1
  6
CONTINUOUS
 62
     7
 10
652.537551
 20
2042.299002
 11
652.682042
 21
2042.552952
  0
LINE
  8
CSLAYER1
  6
CONTINUOUS
 62
     7
 10
652.682042
 20
2042.552952
 11
652.802565
 21
2042.828296
  0
LINE
  8
CSLAYER1
  6
CONTINUOUS
 62
     7
 10
652.802565
 20
2042.828296
 11
652.898201
 21
2043.122938
  0
LINE
  8
CSLAYER1
  6
CONTINUOUS
 62
     7
 10
652.898201
 20
2043.122938
 11
652.968223
 21
2043.434636
  0
LINE
  8
CSLAYER1
  6
CONTINUOUS
 62
     7
 10
652.968223
 20
2043.434636
 11
653.012099
 21
2043.761018
  0
LINE
  8
CSLAYER1
  6
CONTINUOUS
 62
     7
 10
653.012099
 20
2043.761018
 11
653.029493
 21
2044.099600
  0
LINE
  8
CSLAYER1
  6
CONTINUOUS
 62
     7
 10
653.029493
 20
2044.099600
 11
653.020275
 21
2044.447804
  0
LINE
  8
CSLAYER1
  6
CONTINUOUS
 62
     7
 10
653.020275
 20
2044.447804
 11
652.984513
 21
2044.802982
  0
LINE
  8
CSLAYER1
  6
CONTINUOUS
 62
     7
 10
652.984513
 20
2044.802982
 11
652.922480
 21
2045.162429
  0
LINE
  8
CSLAYER1
  6
CONTINUOUS
 62
     7
 10
652.922480
 20
2045.162429
 11
652.834649
 21
2045.523410
  0
LINE
  8
CSLAYER1
  6
CONTINUOUS
 62
     7
 10
652.834649
 20
2045.523410
 11
652.721688
 21
2045.883179
  0
LINE
  8
CSLAYER1
  6
CONTINUOUS
 62
     7
 10
652.721688
 20
2045.883179
 11
652.584455
 21
2046.238996
  0
LINE
  8
CSLAYER1
  6
CONTINUOUS
 62
     7
 10
652.584455
 20
2046.238996
 11
652.423997
 21
2046.588154
  0
LINE
  8
CSLAYER1
  6
CONTINUOUS
 62
     7
 10
652.423997
 20
2046.588154
 11
652.241534
 21
2046.927995
  0
LINE
  8
CSLAYER1
  6
CONTINUOUS
 62
     7
 10
652.241534
 20
2046.927995
 11
652.038454
 21
2047.255934
  0
LINE
  8
CSLAYER1
  6
CONTINUOUS
 62
     7
 10
652.038454
 20
2047.255934
 11
651.816303
 21
2047.569474
  0
LINE
  8
CSLAYER1
  6
CONTINUOUS
 62
     7
 10
651.816303
 20
2047.569474
 11
651.576773
 21
2047.866229
  0
LINE
  8
CSLAYER1
  6
CONTINUOUS
 62
     7
 10
651.576773
 20
2047.866229
 11
651.321685
 21
2048.143941
  0
LINE
  8
CSLAYER1
  6
CONTINUOUS
 62
     7
 10
651.321685
 20
2048.143941
 11
651.052982
 21
2048.400496
  0
LINE
  8
CSLAYER1
  6
CONTINUOUS
 62
     7
 10
651.052982
 20
2048.400496
 11
650.772707
 21
2048.633941
  0
LINE
  8
CSLAYER1
  6
CONTINUOUS
 62
     7
 10
650.772707
 20
2048.633941
 11
650.482995
 21
2048.842500
  0
LINE
  8
CSLAYER1
  6
CONTINUOUS
 62
     7
 10
650.482995
 20
2048.842500
 11
650.186051
 21
2049.024586
  0
LINE
  8
CSLAYER1
  6
CONTINUOUS
 62
     7
 10
650.186051
 20
2049.024586
 11
649.884133
 21
2049.178813
  0
LINE
  8
CSLAYER1
  6
CONTINUOUS
 62
     7
 10
649.884133
 20
2049.178813
 11
649.579540
 21
2049.304007
  0
LINE
  8
CSLAYER1
  6
CONTINUOUS
 62
     7
 10
649.579540
 20
2049.304007
 11
649.274591
 21
2049.399215
  0
LINE
  8
CSLAYER1
  6
CONTINUOUS
 62
     7
 10
649.274591
 20
2049.399215
 11
648.971605
 21
2049.463712
  0
LINE
  8
CSLAYER1
  6
CONTINUOUS
 62
     7
 10
648.971605
 20
2049.463712
 11
648.672889
 21
2049.497009
  0
LINE
  8
CSLAYER1
  6
CONTINUOUS
 62
     7
 10
648.672889
 20
2049.497009
 11
648.380716
 21
2049.498851
  0
LINE
  8
CSLAYER1
  6
CONTINUOUS
 62
     7
 10
648.380716
 20
2049.498851
 11
648.097310
 21
2049.469224
  0
LINE
  8
CSLAYER1
  6
CONTINUOUS
 62
     7
 10
648.097310
 20
2049.469224
 11
647.824828
 21
2049.408354
  0
LINE
  8
CSLAYER1
  6
CONTINUOUS
 62
     7
 10
647.824828
 20
2049.408354
 11
647.565343
 21
2049.316704
  0
LINE
  8
CSLAYER1
  6
CONTINUOUS
 62
     7
 10
647.565343
 20
2049.316704
 11
647.320831
 21
2049.194972
  0
ENDBLK
  8
0
  0
BLOCK
  8
CSLAYER1
  2
BLKF0013
 70
   64
 10
0.0
 20
0.0
 30
0.0
  0
LINE
  8
CSLAYER1
  6
CONTINUOUS
 62
     7
 10
655.946916
 20
2041.715133
 11
656.232650
 21
2041.959577
  0
LINE
  8
CSLAYER1
  6
CONTINUOUS
 62
     7
 10
656.232650
 20
2041.959577
 11
656.490840
 21
2042.240430
  0
LINE
  8
CSLAYER1
  6
CONTINUOUS
 62
     7
 10
656.490840
 20
2042.240430
 11
656.719522
 21
2042.555555
  0
LINE
  8
CSLAYER1
  6
CONTINUOUS
 62
     7
 10
656.719522
 20
2042.555555
 11
656.916956
 21
2042.902554
  0
LINE
  8
CSLAYER1
  6
CONTINUOUS
 62
     7
 10
656.916956
 20
2042.902554
 11
657.081638
 21
2043.278785
  0
LINE
  8
CSLAYER1
  6
CONTINUOUS
 62
     7
 10
657.081638
 20
2043.278785
 11
657.212316
 21
2043.681386
  0
LINE
  8
CSLAYER1
  6
CONTINUOUS
 62
     7
 10
657.212316
 20
2043.681386
 11
657.307995
 21
2044.107292
  0
LINE
  8
CSLAYER1
  6
CONTINUOUS
 62
     7
 10
657.307995
 20
2044.107292
 11
657.367946
 21
2044.553262
  0
LINE
  8
CSLAYER1
  6
CONTINUOUS
 62
     7
 10
657.367946
 20
2044.553262
 11
657.391715
 21
2045.015901
  0
LINE
  8
CSLAYER1
  6
CONTINUOUS
 62
     7
 10
657.391715
 20
2045.015901
 11
657.379118
 21
2045.491690
  0
LINE
  8
CSLAYER1
  6
CONTINUOUS
 62
     7
 10
657.379118
 20
2045.491690
 11
657.330253
 21
2045.977006
  0
LINE
  8
CSLAYER1
  6
CONTINUOUS
 62
     7
 10
657.330253
 20
2045.977006
 11
657.245492
 21
2046.468157
  0
LINE
  8
CSLAYER1
  6
CONTINUOUS
 62
     7
 10
657.245492
 20
2046.468157
 11
657.125479
 21
2046.961403
  0
LINE
  8
CSLAYER1
  6
CONTINUOUS
 62
     7
 10
657.125479
 20
2046.961403
 11
656.971127
 21
2047.452993
  0
LINE
  8
CSLAYER1
  6
CONTINUOUS
 62
     7
 10
656.971127
 20
2047.452993
 11
656.783613
 21
2047.939183
  0
LINE
  8
CSLAYER1
  6
CONTINUOUS
 62
     7
 10
656.783613
 20
2047.939183
 11
656.564361
 21
2048.416274
  0
LINE
  8
CSLAYER1
  6
CONTINUOUS
 62
     7
 10
656.564361
 20
2048.416274
 11
656.315043
 21
2048.880635
  0
LINE
  8
CSLAYER1
  6
CONTINUOUS
 62
     7
 10
656.315043
 20
2048.880635
 11
656.037553
 21
2049.328733
  0
LINE
  8
CSLAYER1
  6
CONTINUOUS
 62
     7
 10
656.037553
 20
2049.328733
 11
655.734006
 21
2049.757155
  0
LINE
  8
CSLAYER1
  6
CONTINUOUS
 62
     7
 10
655.734006
 20
2049.757155
 11
655.406710
 21
2050.162643
  0
LINE
  8
CSLAYER1
  6
CONTINUOUS
 62
     7
 10
655.406710
 20
2050.162643
 11
655.058157
 21
2050.542110
  0
LINE
  8
CSLAYER1
  6
CONTINUOUS
 62
     7
 10
655.058157
 20
2050.542110
 11
654.690999
 21
2050.892668
  0
LINE
  8
CSLAYER1
  6
CONTINUOUS
 62
     7
 10
654.690999
 20
2050.892668
 11
654.308031
 21
2051.211648
  0
LINE
  8
CSLAYER1
  6
CONTINUOUS
 62
     7
 10
654.308031
 20
2051.211648
 11
653.912167
 21
2051.496625
  0
LINE
  8
CSLAYER1
  6
CONTINUOUS
 62
     7
 10
653.912167
 20
2051.496625
 11
653.506421
 21
2051.745428
  0
LINE
  8
CSLAYER1
  6
CONTINUOUS
 62
     7
 10
653.506421
 20
2051.745428
 11
653.093879
 21
2051.956164
  0
LINE
  8
CSLAYER1
  6
CONTINUOUS
 62
     7
 10
653.093879
 20
2051.956164
 11
652.677682
 21
2052.127229
  0
LINE
  8
CSLAYER1
  6
CONTINUOUS
 62
     7
 10
652.677682
 20
2052.127229
 11
652.260997
 21
2052.257322
  0
LINE
  8
CSLAYER1
  6
CONTINUOUS
 62
     7
 10
652.260997
 20
2052.257322
 11
651.846996
 21
2052.345452
  0
LINE
  8
CSLAYER1
  6
CONTINUOUS
 62
     7
 10
651.846996
 20
2052.345452
 11
651.438829
 21
2052.390948
  0
LINE
  8
CSLAYER1
  6
CONTINUOUS
 62
     7
 10
651.438829
 20
2052.390948
 11
651.039602
 21
2052.393465
  0
LINE
  8
CSLAYER1
  6
CONTINUOUS
 62
     7
 10
651.039602
 20
2052.393465
 11
650.652355
 21
2052.352983
  0
LINE
  8
CSLAYER1
  6
CONTINUOUS
 62
     7
 10
650.652355
 20
2052.352983
 11
650.280034
 21
2052.269810
  0
LINE
  8
CSLAYER1
  6
CONTINUOUS
 62
     7
 10
650.280034
 20
2052.269810
 11
649.925472
 21
2052.144579
  0
LINE
  8
CSLAYER1
  6
CONTINUOUS
 62
     7
 10
649.925472
 20
2052.144579
 11
649.591369
 21
2051.978244
  0
LINE
  8
CSLAYER1
  6
CONTINUOUS
 62
     7
 10
649.591369
 20
2051.978244
 11
649.280267
 21
2051.772070
  0
LINE
  8
CSLAYER1
  6
CONTINUOUS
 62
     7
 10
649.280267
 20
2051.772070
 11
648.994533
 21
2051.527626
  0
LINE
  8
CSLAYER1
  6
CONTINUOUS
 62
     7
 10
648.994533
 20
2051.527626
 11
648.736343
 21
2051.246773
  0
LINE
  8
CSLAYER1
  6
CONTINUOUS
 62
     7
 10
648.736343
 20
2051.246773
 11
648.507661
 21
2050.931648
  0
LINE
  8
CSLAYER1
  6
CONTINUOUS
 62
     7
 10
648.507661
 20
2050.931648
 11
648.310227
 21
2050.584649
  0
LINE
  8
CSLAYER1
  6
CONTINUOUS
 62
     7
 10
648.310227
 20
2050.584649
 11
648.145545
 21
2050.208418
  0
LINE
  8
CSLAYER1
  6
CONTINUOUS
 62
     7
 10
648.145545
 20
2050.208418
 11
648.014867
 21
2049.805817
  0
LINE
  8
CSLAYER1
  6
CONTINUOUS
 62
     7
 10
648.014867
 20
2049.805817
 11
647.960623
 21
2049.564357
  0
LINE
  8
CSLAYER1
  6
CONTINUOUS
 62
     7
 10
651.911991
 20
2041.644091
 11
652.133304
 21
2041.531039
  0
LINE
  8
CSLAYER1
  6
CONTINUOUS
 62
     7
 10
652.133304
 20
2041.531039
 11
652.549501
 21
2041.359974
  0
LINE
  8
CSLAYER1
  6
CONTINUOUS
 62
     7
 10
652.549501
 20
2041.359974
 11
652.966186
 21
2041.229881
  0
LINE
  8
CSLAYER1
  6
CONTINUOUS
 62
     7
 10
652.966186
 20
2041.229881
 11
653.380187
 21
2041.141751
  0
LINE
  8
CSLAYER1
  6
CONTINUOUS
 62
     7
 10
653.380187
 20
2041.141751
 11
653.788354
 21
2041.096255
  0
LINE
  8
CSLAYER1
  6
CONTINUOUS
 62
     7
 10
653.788354
 20
2041.096255
 11
654.187580
 21
2041.093738
  0
LINE
  8
CSLAYER1
  6
CONTINUOUS
 62
     7
 10
654.187580
 20
2041.093738
 11
654.574828
 21
2041.134220
  0
LINE
  8
CSLAYER1
  6
CONTINUOUS
 62
     7
 10
654.574828
 20
2041.134220
 11
654.947149
 21
2041.217393
  0
LINE
  8
CSLAYER1
  6
CONTINUOUS
 62
     7
 10
654.947149
 20
2041.217393
 11
655.278036
 21
2041.334262
  0
ENDBLK
  8
0
  0
BLOCK
  8
CSLAYER1
  2
BLKF0014
 70
   64
 10
0.0
 20
0.0
 30
0.0
  0
LINE
  8
CSLAYER1
  6
CONTINUOUS
 62
     7
 10
657.378752
 20
2042.511830
 11
657.772250
 21
2042.848466
  0
LINE
  8
CSLAYER1
  6
CONTINUOUS
 62
     7
 10
657.772250
 20
2042.848466
 11
658.030441
 21
2043.129319
  0
LINE
  8
CSLAYER1
  6
CONTINUOUS
 62
     7
 10
658.030441
 20
2043.129319
 11
658.259123
 21
2043.444444
  0
LINE
  8
CSLAYER1
  6
CONTINUOUS
 62
     7
 10
658.259123
 20
2043.444444
 11
658.456557
 21
2043.791443
  0
LINE
  8
CSLAYER1
  6
CONTINUOUS
 62
     7
 10
658.456557
 20
2043.791443
 11
658.621239
 21
2044.167674
  0
LINE
  8
CSLAYER1
  6
CONTINUOUS
 62
     7
 10
658.621239
 20
2044.167674
 11
658.751917
 21
2044.570275
  0
LINE
  8
CSLAYER1
  6
CONTINUOUS
 62
     7
 10
658.751917
 20
2044.570275
 11
658.847596
 21
2044.996181
  0
LINE
  8
CSLAYER1
  6
CONTINUOUS
 62
     7
 10
658.847596
 20
2044.996181
 11
658.907547
 21
2045.442150
  0
LINE
  8
CSLAYER1
  6
CONTINUOUS
 62
     7
 10
658.907547
 20
2045.442150
 11
658.931315
 21
2045.904790
  0
LINE
  8
CSLAYER1
  6
CONTINUOUS
 62
     7
 10
658.931315
 20
2045.904790
 11
658.918719
 21
2046.380579
  0
LINE
  8
CSLAYER1
  6
CONTINUOUS
 62
     7
 10
658.918719
 20
2046.380579
 11
658.869854
 21
2046.865895
  0
LINE
  8
CSLAYER1
  6
CONTINUOUS
 62
     7
 10
658.869854
 20
2046.865895
 11
658.785092
 21
2047.357045
  0
LINE
  8
CSLAYER1
  6
CONTINUOUS
 62
     7
 10
658.785092
 20
2047.357045
 11
658.665079
 21
2047.850292
  0
LINE
  8
CSLAYER1
  6
CONTINUOUS
 62
     7
 10
658.665079
 20
2047.850292
 11
658.510728
 21
2048.341882
  0
LINE
  8
CSLAYER1
  6
CONTINUOUS
 62
     7
 10
658.510728
 20
2048.341882
 11
658.323213
 21
2048.828072
  0
LINE
  8
CSLAYER1
  6
CONTINUOUS
 62
     7
 10
658.323213
 20
2048.828072
 11
658.103962
 21
2049.305163
  0
LINE
  8
CSLAYER1
  6
CONTINUOUS
 62
     7
 10
658.103962
 20
2049.305163
 11
657.854643
 21
2049.769524
  0
LINE
  8
CSLAYER1
  6
CONTINUOUS
 62
     7
 10
657.854643
 20
2049.769524
 11
657.577154
 21
2050.217621
  0
LINE
  8
CSLAYER1
  6
CONTINUOUS
 62
     7
 10
657.577154
 20
2050.217621
 11
657.273607
 21
2050.646044
  0
LINE
  8
CSLAYER1
  6
CONTINUOUS
 62
     7
 10
657.273607
 20
2050.646044
 11
656.946311
 21
2051.051532
  0
LINE
  8
CSLAYER1
  6
CONTINUOUS
 62
     7
 10
656.946311
 20
2051.051532
 11
656.597758
 21
2051.430999
  0
LINE
  8
CSLAYER1
  6
CONTINUOUS
 62
     7
 10
656.597758
 20
2051.430999
 11
656.230600
 21
2051.781556
  0
LINE
  8
CSLAYER1
  6
CONTINUOUS
 62
     7
 10
656.230600
 20
2051.781556
 11
655.847632
 21
2052.100537
  0
LINE
  8
CSLAYER1
  6
CONTINUOUS
 62
     7
 10
655.847632
 20
2052.100537
 11
655.451768
 21
2052.385514
  0
LINE
  8
CSLAYER1
  6
CONTINUOUS
 62
     7
 10
655.451768
 20
2052.385514
 11
655.046021
 21
2052.634317
  0
LINE
  8
CSLAYER1
  6
CONTINUOUS
 62
     7
 10
655.046021
 20
2052.634317
 11
654.633480
 21
2052.845053
  0
LINE
  8
CSLAYER1
  6
CONTINUOUS
 62
     7
 10
654.633480
 20
2052.845053
 11
654.217283
 21
2053.016118
  0
LINE
  8
CSLAYER1
  6
CONTINUOUS
 62
     7
 10
654.217283
 20
2053.016118
 11
653.800598
 21
2053.146211
  0
LINE
  8
CSLAYER1
  6
CONTINUOUS
 62
     7
 10
653.800598
 20
2053.146211
 11
653.386597
 21
2053.234341
  0
LINE
  8
CSLAYER1
  6
CONTINUOUS
 62
     7
 10
653.386597
 20
2053.234341
 11
652.978429
 21
2053.279837
  0
LINE
  8
CSLAYER1
  6
CONTINUOUS
 62
     7
 10
652.978429
 20
2053.279837
 11
652.579203
 21
2053.282354
  0
LINE
  8
CSLAYER1
  6
CONTINUOUS
 62
     7
 10
652.579203
 20
2053.282354
 11
652.191956
 21
2053.241872
  0
LINE
  8
CSLAYER1
  6
CONTINUOUS
 62
     7
 10
652.191956
 20
2053.241872
 11
651.819635
 21
2053.158699
  0
LINE
  8
CSLAYER1
  6
CONTINUOUS
 62
     7
 10
651.819635
 20
2053.158699
 11
651.465073
 21
2053.033468
  0
ENDBLK
  8
0
  0
BLOCK
  8
CSLAYER1
  2
BLKF0015
 70
   64
 10
0.0
 20
0.0
 30
0.0
  0
LINE
  8
CSLAYER1
  6
CONTINUOUS
 62
     7
 10
671.309353
 20
2055.059121
 11
671.292864
 21
2055.326177
  0
LINE
  8
CSLAYER1
  6
CONTINUOUS
 62
     7
 10
671.292864
 20
2055.326177
 11
671.243520
 21
2055.591201
  0
LINE
  8
CSLAYER1
  6
CONTINUOUS
 62
     7
 10
671.243520
 20
2055.591201
 11
671.161698
 21
2055.852176
  0
LINE
  8
CSLAYER1
  6
CONTINUOUS
 62
     7
 10
671.161698
 20
2055.852176
 11
671.048021
 21
2056.107115
  0
LINE
  8
CSLAYER1
  6
CONTINUOUS
 62
     7
 10
671.048021
 20
2056.107115
 11
670.903354
 21
2056.354078
  0
LINE
  8
CSLAYER1
  6
CONTINUOUS
 62
     7
 10
670.903354
 20
2056.354078
 11
670.728797
 21
2056.591185
  0
LINE
  8
CSLAYER1
  6
CONTINUOUS
 62
     7
 10
670.728797
 20
2056.591185
 11
670.525679
 21
2056.816633
  0
LINE
  8
CSLAYER1
  6
CONTINUOUS
 62
     7
 10
670.525679
 20
2056.816633
 11
670.295546
 21
2057.028705
  0
LINE
  8
CSLAYER1
  6
CONTINUOUS
 62
     7
 10
670.295546
 20
2057.028705
 11
670.040149
 21
2057.225787
  0
LINE
  8
CSLAYER1
  6
CONTINUOUS
 62
     7
 10
670.040149
 20
2057.225787
 11
669.761433
 21
2057.406380
  0
LINE
  8
CSLAYER1
  6
CONTINUOUS
 62
     7
 10
669.761433
 20
2057.406380
 11
669.461518
 21
2057.569109
  0
LINE
  8
CSLAYER1
  6
CONTINUOUS
 62
     7
 10
669.461518
 20
2057.569109
 11
669.142686
 21
2057.712735
  0
LINE
  8
CSLAYER1
  6
CONTINUOUS
 62
     7
 10
669.142686
 20
2057.712735
 11
668.807366
 21
2057.836165
  0
LINE
  8
CSLAYER1
  6
CONTINUOUS
 62
     7
 10
668.807366
 20
2057.836165
 11
668.458107
 21
2057.938460
  0
LINE
  8
CSLAYER1
  6
CONTINUOUS
 62
     7
 10
668.458107
 20
2057.938460
 11
668.097569
 21
2058.018842
  0
LINE
  8
CSLAYER1
  6
CONTINUOUS
 62
     7
 10
668.097569
 20
2058.018842
 11
667.728495
 21
2058.076699
  0
LINE
  8
CSLAYER1
  6
CONTINUOUS
 62
     7
 10
667.728495
 20
2058.076699
 11
667.353695
 21
2058.111590
  0
LINE
  8
CSLAYER1
  6
CONTINUOUS
 62
     7
 10
667.353695
 20
2058.111590
 11
666.976020
 21
2058.123250
  0
LINE
  8
CSLAYER1
  6
CONTINUOUS
 62
     7
 10
666.976020
 20
2058.123250
 11
666.598345
 21
2058.111590
  0
LINE
  8
CSLAYER1
  6
CONTINUOUS
 62
     7
 10
666.598345
 20
2058.111590
 11
666.223544
 21
2058.076699
  0
LINE
  8
CSLAYER1
  6
CONTINUOUS
 62
     7
 10
666.223544
 20
2058.076699
 11
665.854471
 21
2058.018842
  0
LINE
  8
CSLAYER1
  6
CONTINUOUS
 62
     7
 10
665.854471
 20
2058.018842
 11
665.493933
 21
2057.938460
  0
LINE
  8
CSLAYER1
  6
CONTINUOUS
 62
     7
 10
665.493933
 20
2057.938460
 11
665.144674
 21
2057.836165
  0
LINE
  8
CSLAYER1
  6
CONTINUOUS
 62
     7
 10
665.144674
 20
2057.836165
 11
664.809353
 21
2057.712735
  0
LINE
  8
CSLAYER1
  6
CONTINUOUS
 62
     7
 10
664.809353
 20
2057.712735
 11
664.490522
 21
2057.569109
  0
LINE
  8
CSLAYER1
  6
CONTINUOUS
 62
     7
 10
664.490522
 20
2057.569109
 11
664.190607
 21
2057.406380
  0
LINE
  8
CSLAYER1
  6
CONTINUOUS
 62
     7
 10
664.190607
 20
2057.406380
 11
663.911890
 21
2057.225787
  0
LINE
  8
CSLAYER1
  6
CONTINUOUS
 62
     7
 10
663.911890
 20
2057.225787
 11
663.656494
 21
2057.028705
  0
LINE
  8
CSLAYER1
  6
CONTINUOUS
 62
     7
 10
663.656494
 20
2057.028705
 11
663.426361
 21
2056.816633
  0
LINE
  8
CSLAYER1
  6
CONTINUOUS
 62
     7
 10
663.426361
 20
2056.816633
 11
663.223243
 21
2056.591185
  0
LINE
  8
CSLAYER1
  6
CONTINUOUS
 62
     7
 10
663.223243
 20
2056.591185
 11
663.048686
 21
2056.354078
  0
LINE
  8
CSLAYER1
  6
CONTINUOUS
 62
     7
 10
663.048686
 20
2056.354078
 11
662.904018
 21
2056.107115
  0
LINE
  8
CSLAYER1
  6
CONTINUOUS
 62
     7
 10
662.904018
 20
2056.107115
 11
662.790341
 21
2055.852176
  0
LINE
  8
CSLAYER1
  6
CONTINUOUS
 62
     7
 10
662.790341
 20
2055.852176
 11
662.708520
 21
2055.591201
  0
LINE
  8
CSLAYER1
  6
CONTINUOUS
 62
     7
 10
662.708520
 20
2055.591201
 11
662.659176
 21
2055.326177
  0
LINE
  8
CSLAYER1
  6
CONTINUOUS
 62
     7
 10
662.659176
 20
2055.326177
 11
662.642686
 21
2055.059121
  0
LINE
  8
CSLAYER1
  6
CONTINUOUS
 62
     7
 10
662.642686
 20
2055.059121
 11
662.659176
 21
2054.792064
  0
LINE
  8
CSLAYER1
  6
CONTINUOUS
 62
     7
 10
662.659176
 20
2054.792064
 11
662.708520
 21
2054.527040
  0
LINE
  8
CSLAYER1
  6
CONTINUOUS
 62
     7
 10
662.708520
 20
2054.527040
 11
662.790341
 21
2054.266066
  0
LINE
  8
CSLAYER1
  6
CONTINUOUS
 62
     7
 10
662.790341
 20
2054.266066
 11
662.904018
 21
2054.011127
  0
LINE
  8
CSLAYER1
  6
CONTINUOUS
 62
     7
 10
662.904018
 20
2054.011127
 11
663.048686
 21
2053.764164
  0
LINE
  8
CSLAYER1
  6
CONTINUOUS
 62
     7
 10
663.048686
 20
2053.764164
 11
663.223243
 21
2053.527056
  0
LINE
  8
CSLAYER1
  6
CONTINUOUS
 62
     7
 10
663.223243
 20
2053.527056
 11
663.426361
 21
2053.301608
  0
LINE
  8
CSLAYER1
  6
CONTINUOUS
 62
     7
 10
663.426361
 20
2053.301608
 11
663.656494
 21
2053.089536
  0
LINE
  8
CSLAYER1
  6
CONTINUOUS
 62
     7
 10
663.656494
 20
2053.089536
 11
663.911890
 21
2052.892454
  0
LINE
  8
CSLAYER1
  6
CONTINUOUS
 62
     7
 10
663.911890
 20
2052.892454
 11
664.190607
 21
2052.711861
  0
LINE
  8
CSLAYER1
  6
CONTINUOUS
 62
     7
 10
664.190607
 20
2052.711861
 11
664.490522
 21
2052.549133
  0
LINE
  8
CSLAYER1
  6
CONTINUOUS
 62
     7
 10
664.490522
 20
2052.549133
 11
664.809353
 21
2052.405507
  0
LINE
  8
CSLAYER1
  6
CONTINUOUS
 62
     7
 10
664.809353
 20
2052.405507
 11
665.144674
 21
2052.282076
  0
LINE
  8
CSLAYER1
  6
CONTINUOUS
 62
     7
 10
665.144674
 20
2052.282076
 11
665.493933
 21
2052.179781
  0
LINE
  8
CSLAYER1
  6
CONTINUOUS
 62
     7
 10
665.493933
 20
2052.179781
 11
665.854471
 21
2052.099399
  0
LINE
  8
CSLAYER1
  6
CONTINUOUS
 62
     7
 10
665.854471
 20
2052.099399
 11
666.223544
 21
2052.041542
  0
LINE
  8
CSLAYER1
  6
CONTINUOUS
 62
     7
 10
666.223544
 20
2052.041542
 11
666.598345
 21
2052.006651
  0
LINE
  8
CSLAYER1
  6
CONTINUOUS
 62
     7
 10
666.598345
 20
2052.006651
 11
666.976020
 21
2051.994991
  0
LINE
  8
CSLAYER1
  6
CONTINUOUS
 62
     7
 10
666.976020
 20
2051.994991
 11
667.353695
 21
2052.006651
  0
LINE
  8
CSLAYER1
  6
CONTINUOUS
 62
     7
 10
667.353695
 20
2052.006651
 11
667.728495
 21
2052.041542
  0
LINE
  8
CSLAYER1
  6
CONTINUOUS
 62
     7
 10
667.728495
 20
2052.041542
 11
668.097569
 21
2052.099399
  0
LINE
  8
CSLAYER1
  6
CONTINUOUS
 62
     7
 10
668.097569
 20
2052.099399
 11
668.458107
 21
2052.179781
  0
LINE
  8
CSLAYER1
  6
CONTINUOUS
 62
     7
 10
668.458107
 20
2052.179781
 11
668.807366
 21
2052.282076
  0
LINE
  8
CSLAYER1
  6
CONTINUOUS
 62
     7
 10
668.807366
 20
2052.282076
 11
669.142686
 21
2052.405507
  0
LINE
  8
CSLAYER1
  6
CONTINUOUS
 62
     7
 10
669.142686
 20
2052.405507
 11
669.461518
 21
2052.549133
  0
LINE
  8
CSLAYER1
  6
CONTINUOUS
 62
     7
 10
669.461518
 20
2052.549133
 11
669.761433
 21
2052.711861
  0
LINE
  8
CSLAYER1
  6
CONTINUOUS
 62
     7
 10
669.761433
 20
2052.711861
 11
670.040149
 21
2052.892454
  0
LINE
  8
CSLAYER1
  6
CONTINUOUS
 62
     7
 10
670.040149
 20
2052.892454
 11
670.295546
 21
2053.089536
  0
LINE
  8
CSLAYER1
  6
CONTINUOUS
 62
     7
 10
670.295546
 20
2053.089536
 11
670.525679
 21
2053.301608
  0
LINE
  8
CSLAYER1
  6
CONTINUOUS
 62
     7
 10
670.525679
 20
2053.301608
 11
670.728797
 21
2053.527056
  0
LINE
  8
CSLAYER1
  6
CONTINUOUS
 62
     7
 10
670.728797
 20
2053.527056
 11
670.903354
 21
2053.764164
  0
LINE
  8
CSLAYER1
  6
CONTINUOUS
 62
     7
 10
670.903354
 20
2053.764164
 11
671.048021
 21
2054.011127
  0
LINE
  8
CSLAYER1
  6
CONTINUOUS
 62
     7
 10
671.048021
 20
2054.011127
 11
671.161698
 21
2054.266066
  0
LINE
  8
CSLAYER1
  6
CONTINUOUS
 62
     7
 10
671.161698
 20
2054.266066
 11
671.243520
 21
2054.527040
  0
LINE
  8
CSLAYER1
  6
CONTINUOUS
 62
     7
 10
671.243520
 20
2054.527040
 11
671.292864
 21
2054.792064
  0
LINE
  8
CSLAYER1
  6
CONTINUOUS
 62
     7
 10
671.292864
 20
2054.792064
 11
671.309353
 21
2055.059121
  0
ENDBLK
  8
0
  0
BLOCK
  8
CSLAYER1
  2
BLKF0016
 70
   64
 10
0.0
 20
0.0
 30
0.0
  0
LINE
  8
CSLAYER1
  6
CONTINUOUS
 62
     7
 10
605.519209
 20
2052.547693
 11
606.626044
 21
2053.239321
  0
LINE
  8
CSLAYER1
  6
CONTINUOUS
 62
     7
 10
607.031012
 20
2063.329622
 11
633.598453
 21
2079.930802
  0
LINE
  8
CSLAYER1
  6
CONTINUOUS
 62
     7
 10
605.065785
 20
2060.232645
 11
605.065785
 21
2055.414603
  0
LINE
  8
CSLAYER1
  6
CONTINUOUS
 62
     7
 10
605.065785
 20
2060.232645
 11
605.097750
 21
2060.652565
  0
LINE
  8
CSLAYER1
  6
CONTINUOUS
 62
     7
 10
605.097750
 20
2060.652565
 11
605.193400
 21
2061.069289
  0
LINE
  8
CSLAYER1
  6
CONTINUOUS
 62
     7
 10
605.193400
 20
2061.069289
 11
605.352008
 21
2061.479646
  0
LINE
  8
CSLAYER1
  6
CONTINUOUS
 62
     7
 10
605.352008
 20
2061.479646
 11
605.572367
 21
2061.880512
  0
LINE
  8
CSLAYER1
  6
CONTINUOUS
 62
     7
 10
605.572367
 20
2061.880512
 11
605.852800
 21
2062.268837
  0
LINE
  8
CSLAYER1
  6
CONTINUOUS
 62
     7
 10
605.852800
 20
2062.268837
 11
606.191172
 21
2062.641666
  0
LINE
  8
CSLAYER1
  6
CONTINUOUS
 62
     7
 10
606.191172
 20
2062.641666
 11
606.584908
 21
2062.996160
  0
LINE
  8
CSLAYER1
  6
CONTINUOUS
 62
     7
 10
606.584908
 20
2062.996160
 11
607.031012
 21
2063.329622
  0
LINE
  8
CSLAYER1
  6
CONTINUOUS
 62
     7
 10
619.405482
 20
2056.825775
 11
618.865201
 21
2056.541810
  0
LINE
  8
CSLAYER1
  6
CONTINUOUS
 62
     7
 10
618.865201
 20
2056.541810
 11
618.283827
 21
2056.285936
  0
LINE
  8
CSLAYER1
  6
CONTINUOUS
 62
     7
 10
618.283827
 20
2056.285936
 11
617.665785
 21
2056.060098
  0
LINE
  8
CSLAYER1
  6
CONTINUOUS
 62
     7
 10
617.665785
 20
2056.060098
 11
617.015779
 21
2055.866016
  0
LINE
  8
CSLAYER1
  6
CONTINUOUS
 62
     7
 10
617.015779
 20
2055.866016
 11
616.338754
 21
2055.705166
  0
LINE
  8
CSLAYER1
  6
CONTINUOUS
 62
     7
 10
616.338754
 20
2055.705166
 11
615.639865
 21
2055.578773
  0
LINE
  8
CSLAYER1
  6
CONTINUOUS
 62
     7
 10
615.639865
 20
2055.578773
 11
614.924430
 21
2055.487800
  0
LINE
  8
CSLAYER1
  6
CONTINUOUS
 62
     7
 10
614.924430
 20
2055.487800
 11
614.197893
 21
2055.432937
  0
LINE
  8
CSLAYER1
  6
CONTINUOUS
 62
     7
 10
614.197893
 20
2055.432937
 11
613.465785
 21
2055.414603
  0
LINE
  8
CSLAYER1
  6
CONTINUOUS
 62
     7
 10
613.465785
 20
2055.414603
 11
612.733677
 21
2055.432937
  0
LINE
  8
CSLAYER1
  6
CONTINUOUS
 62
     7
 10
612.733677
 20
2055.432937
 11
612.007140
 21
2055.487800
  0
LINE
  8
CSLAYER1
  6
CONTINUOUS
 62
     7
 10
612.007140
 20
2055.487800
 11
611.291705
 21
2055.578773
  0
LINE
  8
CSLAYER1
  6
CONTINUOUS
 62
     7
 10
611.291705
 20
2055.578773
 11
610.592816
 21
2055.705166
  0
LINE
  8
CSLAYER1
  6
CONTINUOUS
 62
     7
 10
610.592816
 20
2055.705166
 11
609.915792
 21
2055.866016
  0
LINE
  8
CSLAYER1
  6
CONTINUOUS
 62
     7
 10
609.915792
 20
2055.866016
 11
609.265785
 21
2056.060098
  0
LINE
  8
CSLAYER1
  6
CONTINUOUS
 62
     7
 10
609.265785
 20
2056.060098
 11
608.647743
 21
2056.285936
  0
LINE
  8
CSLAYER1
  6
CONTINUOUS
 62
     7
 10
608.647743
 20
2056.285936
 11
608.066369
 21
2056.541810
  0
LINE
  8
CSLAYER1
  6
CONTINUOUS
 62
     7
 10
608.066369
 20
2056.541810
 11
607.526088
 21
2056.825775
  0
LINE
  8
CSLAYER1
  6
CONTINUOUS
 62
     7
 10
607.526088
 20
2056.825775
 11
607.031012
 21
2057.135667
  0
LINE
  8
CSLAYER1
  6
CONTINUOUS
 62
     7
 10
607.031012
 20
2057.135667
 11
606.584908
 21
2057.469129
  0
LINE
  8
CSLAYER1
  6
CONTINUOUS
 62
     7
 10
606.584908
 20
2057.469129
 11
606.191172
 21
2057.823624
  0
LINE
  8
CSLAYER1
  6
CONTINUOUS
 62
     7
 10
606.191172
 20
2057.823624
 11
605.852800
 21
2058.196452
  0
LINE
  8
CSLAYER1
  6
CONTINUOUS
 62
     7
 10
605.852800
 20
2058.196452
 11
605.572367
 21
2058.584777
  0
LINE
  8
CSLAYER1
  6
CONTINUOUS
 62
     7
 10
605.572367
 20
2058.584777
 11
605.352008
 21
2058.985644
  0
LINE
  8
CSLAYER1
  6
CONTINUOUS
 62
     7
 10
605.352008
 20
2058.985644
 11
605.193400
 21
2059.396001
  0
LINE
  8
CSLAYER1
  6
CONTINUOUS
 62
     7
 10
605.193400
 20
2059.396001
 11
605.097750
 21
2059.812725
  0
LINE
  8
CSLAYER1
  6
CONTINUOUS
 62
     7
 10
605.097750
 20
2059.812725
 11
605.065785
 21
2060.232645
  0
LINE
  8
CSLAYER1
  6
CONTINUOUS
 62
     7
 10
619.900558
 20
2052.317625
 11
619.405482
 21
2052.007732
  0
LINE
  8
CSLAYER1
  6
CONTINUOUS
 62
     7
 10
619.405482
 20
2052.007732
 11
618.865201
 21
2051.723768
  0
LINE
  8
CSLAYER1
  6
CONTINUOUS
 62
     7
 10
618.865201
 20
2051.723768
 11
618.283827
 21
2051.467894
  0
LINE
  8
CSLAYER1
  6
CONTINUOUS
 62
     7
 10
618.283827
 20
2051.467894
 11
617.665785
 21
2051.242056
  0
LINE
  8
CSLAYER1
  6
CONTINUOUS
 62
     7
 10
617.665785
 20
2051.242056
 11
617.015779
 21
2051.047974
  0
LINE
  8
CSLAYER1
  6
CONTINUOUS
 62
     7
 10
617.015779
 20
2051.047974
 11
616.338754
 21
2050.887124
  0
LINE
  8
CSLAYER1
  6
CONTINUOUS
 62
     7
 10
616.338754
 20
2050.887124
 11
615.639865
 21
2050.760731
  0
LINE
  8
CSLAYER1
  6
CONTINUOUS
 62
     7
 10
615.639865
 20
2050.760731
 11
614.924430
 21
2050.669758
  0
LINE
  8
CSLAYER1
  6
CONTINUOUS
 62
     7
 10
614.924430
 20
2050.669758
 11
614.197893
 21
2050.614895
  0
LINE
  8
CSLAYER1
  6
CONTINUOUS
 62
     7
 10
614.197893
 20
2050.614895
 11
613.465785
 21
2050.596561
  0
LINE
  8
CSLAYER1
  6
CONTINUOUS
 62
     7
 10
613.465785
 20
2050.596561
 11
612.733677
 21
2050.614895
  0
LINE
  8
CSLAYER1
  6
CONTINUOUS
 62
     7
 10
612.733677
 20
2050.614895
 11
612.007140
 21
2050.669758
  0
LINE
  8
CSLAYER1
  6
CONTINUOUS
 62
     7
 10
612.007140
 20
2050.669758
 11
611.291705
 21
2050.760731
  0
LINE
  8
CSLAYER1
  6
CONTINUOUS
 62
     7
 10
611.291705
 20
2050.760731
 11
610.592816
 21
2050.887124
  0
LINE
  8
CSLAYER1
  6
CONTINUOUS
 62
     7
 10
610.592816
 20
2050.887124
 11
609.915792
 21
2051.047974
  0
LINE
  8
CSLAYER1
  6
CONTINUOUS
 62
     7
 10
609.915792
 20
2051.047974
 11
609.265785
 21
2051.242056
  0
LINE
  8
CSLAYER1
  6
CONTINUOUS
 62
     7
 10
609.265785
 20
2051.242056
 11
608.647743
 21
2051.467894
  0
LINE
  8
CSLAYER1
  6
CONTINUOUS
 62
     7
 10
608.647743
 20
2051.467894
 11
608.066369
 21
2051.723768
  0
LINE
  8
CSLAYER1
  6
CONTINUOUS
 62
     7
 10
608.066369
 20
2051.723768
 11
607.526088
 21
2052.007732
  0
LINE
  8
CSLAYER1
  6
CONTINUOUS
 62
     7
 10
607.526088
 20
2052.007732
 11
607.031012
 21
2052.317625
  0
LINE
  8
CSLAYER1
  6
CONTINUOUS
 62
     7
 10
607.031012
 20
2052.317625
 11
606.584908
 21
2052.651087
  0
LINE
  8
CSLAYER1
  6
CONTINUOUS
 62
     7
 10
606.584908
 20
2052.651087
 11
606.191172
 21
2053.005582
  0
LINE
  8
CSLAYER1
  6
CONTINUOUS
 62
     7
 10
606.191172
 20
2053.005582
 11
605.852800
 21
2053.378410
  0
LINE
  8
CSLAYER1
  6
CONTINUOUS
 62
     7
 10
605.852800
 20
2053.378410
 11
605.572367
 21
2053.766735
  0
LINE
  8
CSLAYER1
  6
CONTINUOUS
 62
     7
 10
605.572367
 20
2053.766735
 11
605.352008
 21
2054.167602
  0
LINE
  8
CSLAYER1
  6
CONTINUOUS
 62
     7
 10
605.352008
 20
2054.167602
 11
605.193400
 21
2054.577958
  0
LINE
  8
CSLAYER1
  6
CONTINUOUS
 62
     7
 10
605.193400
 20
2054.577958
 11
605.097750
 21
2054.994683
  0
LINE
  8
CSLAYER1
  6
CONTINUOUS
 62
     7
 10
605.097750
 20
2054.994683
 11
605.065785
 21
2055.414603
  0
LINE
  8
CSLAYER1
  6
CONTINUOUS
 62
     7
 10
606.897822
 20
2059.885164
 11
636.997621
 21
2078.693606
  0
LINE
  8
CSLAYER1
  6
CONTINUOUS
 62
     7
 10
609.450206
 20
2058.118839
 11
640.396789
 21
2077.456410
  0
LINE
  8
CSLAYER1
  6
CONTINUOUS
 62
     7
 10
619.405482
 20
2052.007732
 11
648.102205
 21
2069.939435
  0
LINE
  8
CSLAYER1
  6
CONTINUOUS
 62
     7
 10
619.405482
 20
2056.825775
 11
647.995404
 21
2074.690741
  0
LINE
  8
CSLAYER1
  6
CONTINUOUS
 62
     7
 10
620.792891
 20
2058.484072
 11
647.195125
 21
2074.982018
  0
LINE
  8
CSLAYER1
  6
CONTINUOUS
 62
     7
 10
613.646067
 20
2057.379472
 11
643.795957
 21
2076.219214
  0
LINE
  8
CSLAYER1
  6
CONTINUOUS
 62
     7
 10
640.135308
 20
2083.377683
 11
640.159601
 21
2083.696822
  0
LINE
  8
CSLAYER1
  6
CONTINUOUS
 62
     7
 10
640.159601
 20
2083.696822
 11
640.232295
 21
2084.013533
  0
LINE
  8
CSLAYER1
  6
CONTINUOUS
 62
     7
 10
640.232295
 20
2084.013533
 11
640.352837
 21
2084.325404
  0
LINE
  8
CSLAYER1
  6
CONTINUOUS
 62
     7
 10
640.352837
 20
2084.325404
 11
640.520310
 21
2084.630062
  0
LINE
  8
CSLAYER1
  6
CONTINUOUS
 62
     7
 10
640.520310
 20
2084.630062
 11
640.733439
 21
2084.925189
  0
LINE
  8
CSLAYER1
  6
CONTINUOUS
 62
     7
 10
640.733439
 20
2084.925189
 11
640.990602
 21
2085.208539
  0
LINE
  8
CSLAYER1
  6
CONTINUOUS
 62
     7
 10
640.990602
 20
2085.208539
 11
641.289841
 21
2085.477955
  0
LINE
  8
CSLAYER1
  6
CONTINUOUS
 62
     7
 10
641.289841
 20
2085.477955
 11
641.628880
 21
2085.731386
  0
LINE
  8
CSLAYER1
  6
CONTINUOUS
 62
     7
 10
641.628880
 20
2085.731386
 11
642.005138
 21
2085.966904
  0
LINE
  8
CSLAYER1
  6
CONTINUOUS
 62
     7
 10
642.005138
 20
2085.966904
 11
642.415752
 21
2086.182717
  0
LINE
  8
CSLAYER1
  6
CONTINUOUS
 62
     7
 10
642.415752
 20
2086.182717
 11
642.857596
 21
2086.377182
  0
LINE
  8
CSLAYER1
  6
CONTINUOUS
 62
     7
 10
642.857596
 20
2086.377182
 11
643.327308
 21
2086.548818
  0
LINE
  8
CSLAYER1
  6
CONTINUOUS
 62
     7
 10
643.327308
 20
2086.548818
 11
643.821313
 21
2086.696321
  0
LINE
  8
CSLAYER1
  6
CONTINUOUS
 62
     7
 10
643.821313
 20
2086.696321
 11
644.335851
 21
2086.818567
  0
LINE
  8
CSLAYER1
  6
CONTINUOUS
 62
     7
 10
644.335851
 20
2086.818567
 11
644.867007
 21
2086.914625
  0
LINE
  8
CSLAYER1
  6
CONTINUOUS
 62
     7
 10
644.867007
 20
2086.914625
 11
645.410738
 21
2086.983765
  0
LINE
  8
CSLAYER1
  6
CONTINUOUS
 62
     7
 10
645.410738
 20
2086.983765
 11
645.962906
 21
2087.025461
  0
LINE
  8
CSLAYER1
  6
CONTINUOUS
 62
     7
 10
645.962906
 20
2087.025461
 11
646.519308
 21
2087.039395
  0
LINE
  8
CSLAYER1
  6
CONTINUOUS
 62
     7
 10
646.519308
 20
2087.039395
 11
647.075710
 21
2087.025461
  0
LINE
  8
CSLAYER1
  6
CONTINUOUS
 62
     7
 10
647.075710
 20
2087.025461
 11
647.627878
 21
2086.983765
  0
LINE
  8
CSLAYER1
  6
CONTINUOUS
 62
     7
 10
647.627878
 20
2086.983765
 11
648.171609
 21
2086.914625
  0
LINE
  8
CSLAYER1
  6
CONTINUOUS
 62
     7
 10
648.171609
 20
2086.914625
 11
648.702764
 21
2086.818567
  0
LINE
  8
CSLAYER1
  6
CONTINUOUS
 62
     7
 10
648.702764
 20
2086.818567
 11
649.217303
 21
2086.696321
  0
LINE
  8
CSLAYER1
  6
CONTINUOUS
 62
     7
 10
649.217303
 20
2086.696321
 11
649.711308
 21
2086.548818
  0
LINE
  8
CSLAYER1
  6
CONTINUOUS
 62
     7
 10
649.711308
 20
2086.548818
 11
650.181020
 21
2086.377182
  0
LINE
  8
CSLAYER1
  6
CONTINUOUS
 62
     7
 10
650.181020
 20
2086.377182
 11
650.622864
 21
2086.182717
  0
LINE
  8
CSLAYER1
  6
CONTINUOUS
 62
     7
 10
650.622864
 20
2086.182717
 11
651.033477
 21
2085.966904
  0
LINE
  8
CSLAYER1
  6
CONTINUOUS
 62
     7
 10
651.033477
 20
2085.966904
 11
651.409735
 21
2085.731386
  0
LINE
  8
CSLAYER1
  6
CONTINUOUS
 62
     7
 10
651.409735
 20
2085.731386
 11
651.748774
 21
2085.477955
  0
LINE
  8
CSLAYER1
  6
CONTINUOUS
 62
     7
 10
651.748774
 20
2085.477955
 11
652.048014
 21
2085.208539
  0
LINE
  8
CSLAYER1
  6
CONTINUOUS
 62
     7
 10
652.048014
 20
2085.208539
 11
652.305177
 21
2084.925189
  0
LINE
  8
CSLAYER1
  6
CONTINUOUS
 62
     7
 10
652.305177
 20
2084.925189
 11
652.518305
 21
2084.630062
  0
LINE
  8
CSLAYER1
  6
CONTINUOUS
 62
     7
 10
652.518305
 20
2084.630062
 11
652.685778
 21
2084.325404
  0
LINE
  8
CSLAYER1
  6
CONTINUOUS
 62
     7
 10
652.685778
 20
2084.325404
 11
652.806320
 21
2084.013533
  0
LINE
  8
CSLAYER1
  6
CONTINUOUS
 62
     7
 10
652.806320
 20
2084.013533
 11
652.879015
 21
2083.696822
  0
LINE
  8
CSLAYER1
  6
CONTINUOUS
 62
     7
 10
652.879015
 20
2083.696822
 11
652.903308
 21
2083.377683
  0
LINE
  8
CSLAYER1
  6
CONTINUOUS
 62
     7
 10
652.903308
 20
2083.377683
 11
652.879015
 21
2083.058544
  0
LINE
  8
CSLAYER1
  6
CONTINUOUS
 62
     7
 10
652.879015
 20
2083.058544
 11
652.806320
 21
2082.741833
  0
LINE
  8
CSLAYER1
  6
CONTINUOUS
 62
     7
 10
652.806320
 20
2082.741833
 11
652.685778
 21
2082.429962
  0
LINE
  8
CSLAYER1
  6
CONTINUOUS
 62
     7
 10
652.685778
 20
2082.429962
 11
652.518305
 21
2082.125304
  0
LINE
  8
CSLAYER1
  6
CONTINUOUS
 62
     7
 10
652.518305
 20
2082.125304
 11
652.305177
 21
2081.830177
  0
LINE
  8
CSLAYER1
  6
CONTINUOUS
 62
     7
 10
652.305177
 20
2081.830177
 11
652.048014
 21
2081.546827
  0
LINE
  8
CSLAYER1
  6
CONTINUOUS
 62
     7
 10
652.048014
 20
2081.546827
 11
651.748774
 21
2081.277411
  0
LINE
  8
CSLAYER1
  6
CONTINUOUS
 62
     7
 10
651.748774
 20
2081.277411
 11
651.409735
 21
2081.023980
  0
LINE
  8
CSLAYER1
  6
CONTINUOUS
 62
     7
 10
651.409735
 20
2081.023980
 11
651.033477
 21
2080.788462
  0
LINE
  8
CSLAYER1
  6
CONTINUOUS
 62
     7
 10
651.033477
 20
2080.788462
 11
650.622864
 21
2080.572649
  0
LINE
  8
CSLAYER1
  6
CONTINUOUS
 62
     7
 10
650.622864
 20
2080.572649
 11
650.181020
 21
2080.378184
  0
LINE
  8
CSLAYER1
  6
CONTINUOUS
 62
     7
 10
650.181020
 20
2080.378184
 11
649.711308
 21
2080.206547
  0
LINE
  8
CSLAYER1
  6
CONTINUOUS
 62
     7
 10
649.711308
 20
2080.206547
 11
649.217303
 21
2080.059045
  0
LINE
  8
CSLAYER1
  6
CONTINUOUS
 62
     7
 10
649.217303
 20
2080.059045
 11
648.702764
 21
2079.936799
  0
LINE
  8
CSLAYER1
  6
CONTINUOUS
 62
     7
 10
648.702764
 20
2079.936799
 11
648.171609
 21
2079.840741
  0
LINE
  8
CSLAYER1
  6
CONTINUOUS
 62
     7
 10
648.171609
 20
2079.840741
 11
647.627878
 21
2079.771601
  0
LINE
  8
CSLAYER1
  6
CONTINUOUS
 62
     7
 10
647.627878
 20
2079.771601
 11
647.075710
 21
2079.729905
  0
LINE
  8
CSLAYER1
  6
CONTINUOUS
 62
     7
 10
647.075710
 20
2079.729905
 11
646.519308
 21
2079.715971
  0
LINE
  8
CSLAYER1
  6
CONTINUOUS
 62
     7
 10
646.519308
 20
2079.715971
 11
645.962906
 21
2079.729905
  0
LINE
  8
CSLAYER1
  6
CONTINUOUS
 62
     7
 10
645.962906
 20
2079.729905
 11
645.410738
 21
2079.771601
  0
LINE
  8
CSLAYER1
  6
CONTINUOUS
 62
     7
 10
645.410738
 20
2079.771601
 11
644.867007
 21
2079.840741
  0
LINE
  8
CSLAYER1
  6
CONTINUOUS
 62
     7
 10
644.867007
 20
2079.840741
 11
644.335851
 21
2079.936799
  0
LINE
  8
CSLAYER1
  6
CONTINUOUS
 62
     7
 10
644.335851
 20
2079.936799
 11
643.821313
 21
2080.059045
  0
LINE
  8
CSLAYER1
  6
CONTINUOUS
 62
     7
 10
643.821313
 20
2080.059045
 11
643.327308
 21
2080.206547
  0
LINE
  8
CSLAYER1
  6
CONTINUOUS
 62
     7
 10
643.327308
 20
2080.206547
 11
642.857596
 21
2080.378184
  0
LINE
  8
CSLAYER1
  6
CONTINUOUS
 62
     7
 10
642.857596
 20
2080.378184
 11
642.415752
 21
2080.572649
  0
LINE
  8
CSLAYER1
  6
CONTINUOUS
 62
     7
 10
642.415752
 20
2080.572649
 11
642.005138
 21
2080.788462
  0
LINE
  8
CSLAYER1
  6
CONTINUOUS
 62
     7
 10
642.005138
 20
2080.788462
 11
641.628880
 21
2081.023980
  0
LINE
  8
CSLAYER1
  6
CONTINUOUS
 62
     7
 10
641.628880
 20
2081.023980
 11
641.289841
 21
2081.277411
  0
LINE
  8
CSLAYER1
  6
CONTINUOUS
 62
     7
 10
641.289841
 20
2081.277411
 11
640.990602
 21
2081.546827
  0
LINE
  8
CSLAYER1
  6
CONTINUOUS
 62
     7
 10
640.990602
 20
2081.546827
 11
640.733439
 21
2081.830177
  0
LINE
  8
CSLAYER1
  6
CONTINUOUS
 62
     7
 10
640.733439
 20
2081.830177
 11
640.520310
 21
2082.125304
  0
LINE
  8
CSLAYER1
  6
CONTINUOUS
 62
     7
 10
640.520310
 20
2082.125304
 11
640.352837
 21
2082.429962
  0
LINE
  8
CSLAYER1
  6
CONTINUOUS
 62
     7
 10
640.352837
 20
2082.429962
 11
640.232295
 21
2082.741833
  0
LINE
  8
CSLAYER1
  6
CONTINUOUS
 62
     7
 10
640.232295
 20
2082.741833
 11
640.159601
 21
2083.058544
  0
LINE
  8
CSLAYER1
  6
CONTINUOUS
 62
     7
 10
640.159601
 20
2083.058544
 11
640.135308
 21
2083.377683
  0
LINE
  8
CSLAYER1
  6
CONTINUOUS
 62
     7
 10
643.159308
 20
2083.377683
 11
643.172094
 21
2083.545651
  0
LINE
  8
CSLAYER1
  6
CONTINUOUS
 62
     7
 10
643.172094
 20
2083.545651
 11
643.210354
 21
2083.712341
  0
LINE
  8
CSLAYER1
  6
CONTINUOUS
 62
     7
 10
643.210354
 20
2083.712341
 11
643.273797
 21
2083.876483
  0
LINE
  8
CSLAYER1
  6
CONTINUOUS
 62
     7
 10
643.273797
 20
2083.876483
 11
643.361941
 21
2084.036830
  0
LINE
  8
CSLAYER1
  6
CONTINUOUS
 62
     7
 10
643.361941
 20
2084.036830
 11
643.474114
 21
2084.192160
  0
LINE
  8
CSLAYER1
  6
CONTINUOUS
 62
     7
 10
643.474114
 20
2084.192160
 11
643.609462
 21
2084.341291
  0
LINE
  8
CSLAYER1
  6
CONTINUOUS
 62
     7
 10
643.609462
 20
2084.341291
 11
643.766957
 21
2084.483089
  0
LINE
  8
CSLAYER1
  6
CONTINUOUS
 62
     7
 10
643.766957
 20
2084.483089
 11
643.945398
 21
2084.616474
  0
LINE
  8
CSLAYER1
  6
CONTINUOUS
 62
     7
 10
643.945398
 20
2084.616474
 11
644.143429
 21
2084.740431
  0
LINE
  8
CSLAYER1
  6
CONTINUOUS
 62
     7
 10
644.143429
 20
2084.740431
 11
644.359541
 21
2084.854017
  0
LINE
  8
CSLAYER1
  6
CONTINUOUS
 62
     7
 10
644.359541
 20
2084.854017
 11
644.592091
 21
2084.956367
  0
LINE
  8
CSLAYER1
  6
CONTINUOUS
 62
     7
 10
644.592091
 20
2084.956367
 11
644.839308
 21
2085.046702
  0
LINE
  8
CSLAYER1
  6
CONTINUOUS
 62
     7
 10
644.839308
 20
2085.046702
 11
645.099310
 21
2085.124335
  0
LINE
  8
CSLAYER1
  6
CONTINUOUS
 62
     7
 10
645.099310
 20
2085.124335
 11
645.370120
 21
2085.188674
  0
LINE
  8
CSLAYER1
  6
CONTINUOUS
 62
     7
 10
645.370120
 20
2085.188674
 11
645.649676
 21
2085.239231
  0
LINE
  8
CSLAYER1
  6
CONTINUOUS
 62
     7
 10
645.649676
 20
2085.239231
 11
645.935850
 21
2085.275621
  0
LINE
  8
CSLAYER1
  6
CONTINUOUS
 62
     7
 10
645.935850
 20
2085.275621
 11
646.226464
 21
2085.297566
  0
LINE
  8
CSLAYER1
  6
CONTINUOUS
 62
     7
 10
646.226464
 20
2085.297566
 11
646.519308
 21
2085.304900
  0
LINE
  8
CSLAYER1
  6
CONTINUOUS
 62
     7
 10
646.519308
 20
2085.304900
 11
646.812151
 21
2085.297566
  0
LINE
  8
CSLAYER1
  6
CONTINUOUS
 62
     7
 10
646.812151
 20
2085.297566
 11
647.102766
 21
2085.275621
  0
LINE
  8
CSLAYER1
  6
CONTINUOUS
 62
     7
 10
647.102766
 20
2085.275621
 11
647.388940
 21
2085.239231
  0
LINE
  8
CSLAYER1
  6
CONTINUOUS
 62
     7
 10
647.388940
 20
2085.239231
 11
647.668495
 21
2085.188674
  0
LINE
  8
CSLAYER1
  6
CONTINUOUS
 62
     7
 10
647.668495
 20
2085.188674
 11
647.939305
 21
2085.124335
  0
LINE
  8
CSLAYER1
  6
CONTINUOUS
 62
     7
 10
647.939305
 20
2085.124335
 11
648.199308
 21
2085.046702
  0
LINE
  8
CSLAYER1
  6
CONTINUOUS
 62
     7
 10
648.199308
 20
2085.046702
 11
648.446525
 21
2084.956367
  0
LINE
  8
CSLAYER1
  6
CONTINUOUS
 62
     7
 10
648.446525
 20
2084.956367
 11
648.679074
 21
2084.854017
  0
LINE
  8
CSLAYER1
  6
CONTINUOUS
 62
     7
 10
648.679074
 20
2084.854017
 11
648.895187
 21
2084.740431
  0
LINE
  8
CSLAYER1
  6
CONTINUOUS
 62
     7
 10
648.895187
 20
2084.740431
 11
649.093217
 21
2084.616474
  0
LINE
  8
CSLAYER1
  6
CONTINUOUS
 62
     7
 10
649.093217
 20
2084.616474
 11
649.271659
 21
2084.483089
  0
LINE
  8
CSLAYER1
  6
CONTINUOUS
 62
     7
 10
649.271659
 20
2084.483089
 11
649.429153
 21
2084.341291
  0
LINE
  8
CSLAYER1
  6
CONTINUOUS
 62
     7
 10
649.429153
 20
2084.341291
 11
649.564502
 21
2084.192160
  0
LINE
  8
CSLAYER1
  6
CONTINUOUS
 62
     7
 10
649.564502
 20
2084.192160
 11
649.676675
 21
2084.036830
  0
LINE
  8
CSLAYER1
  6
CONTINUOUS
 62
     7
 10
649.676675
 20
2084.036830
 11
649.764819
 21
2083.876483
  0
LINE
  8
CSLAYER1
  6
CONTINUOUS
 62
     7
 10
649.764819
 20
2083.876483
 11
649.828262
 21
2083.712341
  0
LINE
  8
CSLAYER1
  6
CONTINUOUS
 62
     7
 10
649.828262
 20
2083.712341
 11
649.866522
 21
2083.545651
  0
LINE
  8
CSLAYER1
  6
CONTINUOUS
 62
     7
 10
649.866522
 20
2083.545651
 11
649.879308
 21
2083.377683
  0
LINE
  8
CSLAYER1
  6
CONTINUOUS
 62
     7
 10
649.879308
 20
2083.377683
 11
649.866522
 21
2083.209715
  0
LINE
  8
CSLAYER1
  6
CONTINUOUS
 62
     7
 10
649.866522
 20
2083.209715
 11
649.828262
 21
2083.043025
  0
LINE
  8
CSLAYER1
  6
CONTINUOUS
 62
     7
 10
649.828262
 20
2083.043025
 11
649.764819
 21
2082.878882
  0
LINE
  8
CSLAYER1
  6
CONTINUOUS
 62
     7
 10
649.764819
 20
2082.878882
 11
649.676675
 21
2082.718536
  0
LINE
  8
CSLAYER1
  6
CONTINUOUS
 62
     7
 10
649.676675
 20
2082.718536
 11
649.564502
 21
2082.563206
  0
LINE
  8
CSLAYER1
  6
CONTINUOUS
 62
     7
 10
649.564502
 20
2082.563206
 11
649.429153
 21
2082.414074
  0
LINE
  8
CSLAYER1
  6
CONTINUOUS
 62
     7
 10
649.429153
 20
2082.414074
 11
649.271659
 21
2082.272277
  0
LINE
  8
CSLAYER1
  6
CONTINUOUS
 62
     7
 10
649.271659
 20
2082.272277
 11
649.093217
 21
2082.138892
  0
LINE
  8
CSLAYER1
  6
CONTINUOUS
 62
     7
 10
649.093217
 20
2082.138892
 11
648.895187
 21
2082.014935
  0
LINE
  8
CSLAYER1
  6
CONTINUOUS
 62
     7
 10
648.895187
 20
2082.014935
 11
648.679074
 21
2081.901349
  0
LINE
  8
CSLAYER1
  6
CONTINUOUS
 62
     7
 10
648.679074
 20
2081.901349
 11
648.446525
 21
2081.798999
  0
LINE
  8
CSLAYER1
  6
CONTINUOUS
 62
     7
 10
648.446525
 20
2081.798999
 11
648.199308
 21
2081.708664
  0
LINE
  8
CSLAYER1
  6
CONTINUOUS
 62
     7
 10
648.199308
 20
2081.708664
 11
647.939305
 21
2081.631031
  0
LINE
  8
CSLAYER1
  6
CONTINUOUS
 62
     7
 10
647.939305
 20
2081.631031
 11
647.668495
 21
2081.566691
  0
LINE
  8
CSLAYER1
  6
CONTINUOUS
 62
     7
 10
647.668495
 20
2081.566691
 11
647.388940
 21
2081.516134
  0
LINE
  8
CSLAYER1
  6
CONTINUOUS
 62
     7
 10
647.388940
 20
2081.516134
 11
647.102766
 21
2081.479745
  0
LINE
  8
CSLAYER1
  6
CONTINUOUS
 62
     7
 10
647.102766
 20
2081.479745
 11
646.812151
 21
2081.457800
  0
LINE
  8
CSLAYER1
  6
CONTINUOUS
 62
     7
 10
646.812151
 20
2081.457800
 11
646.519308
 21
2081.450466
  0
LINE
  8
CSLAYER1
  6
CONTINUOUS
 62
     7
 10
646.519308
 20
2081.450466
 11
646.226464
 21
2081.457800
  0
LINE
  8
CSLAYER1
  6
CONTINUOUS
 62
     7
 10
646.226464
 20
2081.457800
 11
645.935850
 21
2081.479745
  0
LINE
  8
CSLAYER1
  6
CONTINUOUS
 62
     7
 10
645.935850
 20
2081.479745
 11
645.649676
 21
2081.516134
  0
LINE
  8
CSLAYER1
  6
CONTINUOUS
 62
     7
 10
645.649676
 20
2081.516134
 11
645.370120
 21
2081.566691
  0
LINE
  8
CSLAYER1
  6
CONTINUOUS
 62
     7
 10
645.370120
 20
2081.566691
 11
645.099310
 21
2081.631031
  0
LINE
  8
CSLAYER1
  6
CONTINUOUS
 62
     7
 10
645.099310
 20
2081.631031
 11
644.839308
 21
2081.708664
  0
LINE
  8
CSLAYER1
  6
CONTINUOUS
 62
     7
 10
644.839308
 20
2081.708664
 11
644.592091
 21
2081.798999
  0
LINE
  8
CSLAYER1
  6
CONTINUOUS
 62
     7
 10
644.592091
 20
2081.798999
 11
644.359541
 21
2081.901349
  0
LINE
  8
CSLAYER1
  6
CONTINUOUS
 62
     7
 10
644.359541
 20
2081.901349
 11
644.143429
 21
2082.014935
  0
LINE
  8
CSLAYER1
  6
CONTINUOUS
 62
     7
 10
644.143429
 20
2082.014935
 11
643.945398
 21
2082.138892
  0
LINE
  8
CSLAYER1
  6
CONTINUOUS
 62
     7
 10
643.945398
 20
2082.138892
 11
643.766957
 21
2082.272277
  0
LINE
  8
CSLAYER1
  6
CONTINUOUS
 62
     7
 10
643.766957
 20
2082.272277
 11
643.609462
 21
2082.414074
  0
LINE
  8
CSLAYER1
  6
CONTINUOUS
 62
     7
 10
643.609462
 20
2082.414074
 11
643.474114
 21
2082.563206
  0
LINE
  8
CSLAYER1
  6
CONTINUOUS
 62
     7
 10
643.474114
 20
2082.563206
 11
643.361941
 21
2082.718536
  0
LINE
  8
CSLAYER1
  6
CONTINUOUS
 62
     7
 10
643.361941
 20
2082.718536
 11
643.273797
 21
2082.878882
  0
LINE
  8
CSLAYER1
  6
CONTINUOUS
 62
     7
 10
643.273797
 20
2082.878882
 11
643.210354
 21
2083.043025
  0
LINE
  8
CSLAYER1
  6
CONTINUOUS
 62
     7
 10
643.210354
 20
2083.043025
 11
643.172094
 21
2083.209715
  0
LINE
  8
CSLAYER1
  6
CONTINUOUS
 62
     7
 10
643.172094
 20
2083.209715
 11
643.159308
 21
2083.377683
  0
LINE
  8
CSLAYER1
  6
CONTINUOUS
 62
     7
 10
652.903308
 20
2083.377683
 11
652.903308
 21
2079.748943
  0
LINE
  8
CSLAYER1
  6
CONTINUOUS
 62
     7
 10
640.135308
 20
2083.377683
 11
640.135308
 21
2079.748943
  0
LINE
  8
CSLAYER1
  6
CONTINUOUS
 62
     7
 10
650.055193
 20
2080.332206
 11
650.055193
 21
2076.703467
  0
LINE
  8
CSLAYER1
  6
CONTINUOUS
 62
     7
 10
642.736106
 20
2080.431654
 11
642.736106
 21
2076.802915
  0
LINE
  8
CSLAYER1
  6
CONTINUOUS
 62
     7
 10
652.903308
 20
2079.748943
 11
652.879015
 21
2079.429804
  0
LINE
  8
CSLAYER1
  6
CONTINUOUS
 62
     7
 10
652.879015
 20
2079.429804
 11
652.806320
 21
2079.113094
  0
LINE
  8
CSLAYER1
  6
CONTINUOUS
 62
     7
 10
652.806320
 20
2079.113094
 11
652.685778
 21
2078.801223
  0
LINE
  8
CSLAYER1
  6
CONTINUOUS
 62
     7
 10
652.685778
 20
2078.801223
 11
652.518305
 21
2078.496564
  0
LINE
  8
CSLAYER1
  6
CONTINUOUS
 62
     7
 10
652.518305
 20
2078.496564
 11
652.305177
 21
2078.201437
  0
LINE
  8
CSLAYER1
  6
CONTINUOUS
 62
     7
 10
652.305177
 20
2078.201437
 11
652.048014
 21
2077.918087
  0
LINE
  8
CSLAYER1
  6
CONTINUOUS
 62
     7
 10
652.048014
 20
2077.918087
 11
651.748774
 21
2077.648672
  0
LINE
  8
CSLAYER1
  6
CONTINUOUS
 62
     7
 10
651.748774
 20
2077.648672
 11
651.409735
 21
2077.395240
  0
LINE
  8
CSLAYER1
  6
CONTINUOUS
 62
     7
 10
651.409735
 20
2077.395240
 11
651.033477
 21
2077.159722
  0
LINE
  8
CSLAYER1
  6
CONTINUOUS
 62
     7
 10
651.033477
 20
2077.159722
 11
650.622864
 21
2076.943909
  0
LINE
  8
CSLAYER1
  6
CONTINUOUS
 62
     7
 10
650.622864
 20
2076.943909
 11
650.181020
 21
2076.749445
  0
LINE
  8
CSLAYER1
  6
CONTINUOUS
 62
     7
 10
650.181020
 20
2076.749445
 11
649.711308
 21
2076.577808
  0
LINE
  8
CSLAYER1
  6
CONTINUOUS
 62
     7
 10
649.711308
 20
2076.577808
 11
649.217303
 21
2076.430305
  0
LINE
  8
CSLAYER1
  6
CONTINUOUS
 62
     7
 10
649.217303
 20
2076.430305
 11
648.702764
 21
2076.308060
  0
LINE
  8
CSLAYER1
  6
CONTINUOUS
 62
     7
 10
648.702764
 20
2076.308060
 11
648.171609
 21
2076.212001
  0
LINE
  8
CSLAYER1
  6
CONTINUOUS
 62
     7
 10
648.171609
 20
2076.212001
 11
647.627878
 21
2076.142861
  0
LINE
  8
CSLAYER1
  6
CONTINUOUS
 62
     7
 10
647.627878
 20
2076.142861
 11
647.075710
 21
2076.101165
  0
LINE
  8
CSLAYER1
  6
CONTINUOUS
 62
     7
 10
647.075710
 20
2076.101165
 11
646.519308
 21
2076.087231
  0
LINE
  8
CSLAYER1
  6
CONTINUOUS
 62
     7
 10
646.519308
 20
2076.087231
 11
645.962906
 21
2076.101165
  0
LINE
  8
CSLAYER1
  6
CONTINUOUS
 62
     7
 10
645.962906
 20
2076.101165
 11
645.410738
 21
2076.142861
  0
LINE
  8
CSLAYER1
  6
CONTINUOUS
 62
     7
 10
645.410738
 20
2076.142861
 11
644.867007
 21
2076.212001
  0
LINE
  8
CSLAYER1
  6
CONTINUOUS
 62
     7
 10
644.867007
 20
2076.212001
 11
644.335851
 21
2076.308060
  0
LINE
  8
CSLAYER1
  6
CONTINUOUS
 62
     7
 10
644.335851
 20
2076.308060
 11
643.821313
 21
2076.430305
  0
LINE
  8
CSLAYER1
  6
CONTINUOUS
 62
     7
 10
643.821313
 20
2076.430305
 11
643.327308
 21
2076.577808
  0
LINE
  8
CSLAYER1
  6
CONTINUOUS
 62
     7
 10
643.327308
 20
2076.577808
 11
642.857596
 21
2076.749445
  0
LINE
  8
CSLAYER1
  6
CONTINUOUS
 62
     7
 10
642.857596
 20
2076.749445
 11
642.415752
 21
2076.943909
  0
LINE
  8
CSLAYER1
  6
CONTINUOUS
 62
     7
 10
642.415752
 20
2076.943909
 11
642.005138
 21
2077.159722
  0
LINE
  8
CSLAYER1
  6
CONTINUOUS
 62
     7
 10
642.005138
 20
2077.159722
 11
641.628880
 21
2077.395240
  0
LINE
  8
CSLAYER1
  6
CONTINUOUS
 62
     7
 10
641.628880
 20
2077.395240
 11
641.289841
 21
2077.648672
  0
LINE
  8
CSLAYER1
  6
CONTINUOUS
 62
     7
 10
641.289841
 20
2077.648672
 11
640.990602
 21
2077.918087
  0
LINE
  8
CSLAYER1
  6
CONTINUOUS
 62
     7
 10
640.990602
 20
2077.918087
 11
640.733439
 21
2078.201437
  0
LINE
  8
CSLAYER1
  6
CONTINUOUS
 62
     7
 10
640.733439
 20
2078.201437
 11
640.520310
 21
2078.496564
  0
LINE
  8
CSLAYER1
  6
CONTINUOUS
 62
     7
 10
640.520310
 20
2078.496564
 11
640.352837
 21
2078.801223
  0
LINE
  8
CSLAYER1
  6
CONTINUOUS
 62
     7
 10
640.352837
 20
2078.801223
 11
640.232295
 21
2079.113094
  0
LINE
  8
CSLAYER1
  6
CONTINUOUS
 62
     7
 10
640.232295
 20
2079.113094
 11
640.159601
 21
2079.429804
  0
LINE
  8
CSLAYER1
  6
CONTINUOUS
 62
     7
 10
640.159601
 20
2079.429804
 11
640.135308
 21
2079.748943
  0
LINE
  8
CSLAYER1
  6
CONTINUOUS
 62
     7
 10
642.736106
 20
2066.586324
 11
642.736106
 21
2066.037275
  0
LINE
  8
CSLAYER1
  6
CONTINUOUS
 62
     7
 10
652.903308
 20
2068.983304
 11
652.879015
 21
2068.664164
  0
LINE
  8
CSLAYER1
  6
CONTINUOUS
 62
     7
 10
652.879015
 20
2068.664164
 11
652.806320
 21
2068.347454
  0
LINE
  8
CSLAYER1
  6
CONTINUOUS
 62
     7
 10
652.806320
 20
2068.347454
 11
652.685778
 21
2068.035583
  0
LINE
  8
CSLAYER1
  6
CONTINUOUS
 62
     7
 10
652.685778
 20
2068.035583
 11
652.518305
 21
2067.730924
  0
LINE
  8
CSLAYER1
  6
CONTINUOUS
 62
     7
 10
652.518305
 20
2067.730924
 11
652.305177
 21
2067.435797
  0
LINE
  8
CSLAYER1
  6
CONTINUOUS
 62
     7
 10
652.305177
 20
2067.435797
 11
652.048014
 21
2067.152448
  0
LINE
  8
CSLAYER1
  6
CONTINUOUS
 62
     7
 10
652.048014
 20
2067.152448
 11
651.748774
 21
2066.883032
  0
LINE
  8
CSLAYER1
  6
CONTINUOUS
 62
     7
 10
651.748774
 20
2066.883032
 11
651.409735
 21
2066.629600
  0
LINE
  8
CSLAYER1
  6
CONTINUOUS
 62
     7
 10
651.409735
 20
2066.629600
 11
651.033477
 21
2066.394082
  0
LINE
  8
CSLAYER1
  6
CONTINUOUS
 62
     7
 10
651.033477
 20
2066.394082
 11
650.622864
 21
2066.178269
  0
LINE
  8
CSLAYER1
  6
CONTINUOUS
 62
     7
 10
650.622864
 20
2066.178269
 11
650.181020
 21
2065.983805
  0
LINE
  8
CSLAYER1
  6
CONTINUOUS
 62
     7
 10
650.181020
 20
2065.983805
 11
649.711308
 21
2065.812168
  0
LINE
  8
CSLAYER1
  6
CONTINUOUS
 62
     7
 10
649.711308
 20
2065.812168
 11
649.217303
 21
2065.664666
  0
LINE
  8
CSLAYER1
  6
CONTINUOUS
 62
     7
 10
649.217303
 20
2065.664666
 11
648.702764
 21
2065.542420
  0
LINE
  8
CSLAYER1
  6
CONTINUOUS
 62
     7
 10
648.702764
 20
2065.542420
 11
648.171609
 21
2065.446361
  0
LINE
  8
CSLAYER1
  6
CONTINUOUS
 62
     7
 10
648.171609
 20
2065.446361
 11
647.627878
 21
2065.377221
  0
LINE
  8
CSLAYER1
  6
CONTINUOUS
 62
     7
 10
647.627878
 20
2065.377221
 11
647.075710
 21
2065.335526
  0
LINE
  8
CSLAYER1
  6
CONTINUOUS
 62
     7
 10
647.075710
 20
2065.335526
 11
646.519308
 21
2065.321592
  0
LINE
  8
CSLAYER1
  6
CONTINUOUS
 62
     7
 10
646.519308
 20
2065.321592
 11
645.962906
 21
2065.335526
  0
LINE
  8
CSLAYER1
  6
CONTINUOUS
 62
     7
 10
645.962906
 20
2065.335526
 11
645.410738
 21
2065.377221
  0
LINE
  8
CSLAYER1
  6
CONTINUOUS
 62
     7
 10
645.410738
 20
2065.377221
 11
644.867007
 21
2065.446361
  0
LINE
  8
CSLAYER1
  6
CONTINUOUS
 62
     7
 10
644.867007
 20
2065.446361
 11
644.335851
 21
2065.542420
  0
LINE
  8
CSLAYER1
  6
CONTINUOUS
 62
     7
 10
644.335851
 20
2065.542420
 11
643.821313
 21
2065.664666
  0
LINE
  8
CSLAYER1
  6
CONTINUOUS
 62
     7
 10
643.821313
 20
2065.664666
 11
643.327308
 21
2065.812168
  0
LINE
  8
CSLAYER1
  6
CONTINUOUS
 62
     7
 10
643.327308
 20
2065.812168
 11
642.857596
 21
2065.983805
  0
LINE
  8
CSLAYER1
  6
CONTINUOUS
 62
     7
 10
642.857596
 20
2065.983805
 11
642.415752
 21
2066.178269
  0
LINE
  8
CSLAYER1
  6
CONTINUOUS
 62
     7
 10
642.415752
 20
2066.178269
 11
642.235062
 21
2066.273237
  0
LINE
  8
CSLAYER1
  6
CONTINUOUS
 62
     7
 10
652.903308
 20
2074.030183
 11
652.903308
 21
2068.983304
  0
LINE
  8
CSLAYER1
  6
CONTINUOUS
 62
     7
 10
649.879308
 20
2061.398778
 11
649.879308
 21
2065.873557
  0
LINE
  8
CSLAYER1
  6
CONTINUOUS
 62
     7
 10
643.159308
 20
2061.398778
 11
643.159308
 21
2065.873557
  0
LINE
  8
CSLAYER1
  6
CONTINUOUS
 62
     7
 10
649.879308
 20
2061.398778
 11
649.866522
 21
2061.230810
  0
LINE
  8
CSLAYER1
  6
CONTINUOUS
 62
     7
 10
649.866522
 20
2061.230810
 11
649.828262
 21
2061.064120
  0
LINE
  8
CSLAYER1
  6
CONTINUOUS
 62
     7
 10
649.828262
 20
2061.064120
 11
649.764819
 21
2060.899978
  0
LINE
  8
CSLAYER1
  6
CONTINUOUS
 62
     7
 10
649.764819
 20
2060.899978
 11
649.676675
 21
2060.739631
  0
LINE
  8
CSLAYER1
  6
CONTINUOUS
 62
     7
 10
649.676675
 20
2060.739631
 11
649.564502
 21
2060.584301
  0
LINE
  8
CSLAYER1
  6
CONTINUOUS
 62
     7
 10
649.564502
 20
2060.584301
 11
649.429153
 21
2060.435170
  0
LINE
  8
CSLAYER1
  6
CONTINUOUS
 62
     7
 10
649.429153
 20
2060.435170
 11
649.271659
 21
2060.293372
  0
LINE
  8
CSLAYER1
  6
CONTINUOUS
 62
     7
 10
649.271659
 20
2060.293372
 11
649.093217
 21
2060.159987
  0
LINE
  8
CSLAYER1
  6
CONTINUOUS
 62
     7
 10
649.093217
 20
2060.159987
 11
648.895187
 21
2060.036030
  0
LINE
  8
CSLAYER1
  6
CONTINUOUS
 62
     7
 10
648.895187
 20
2060.036030
 11
648.679074
 21
2059.922444
  0
LINE
  8
CSLAYER1
  6
CONTINUOUS
 62
     7
 10
648.679074
 20
2059.922444
 11
648.446525
 21
2059.820094
  0
LINE
  8
CSLAYER1
  6
CONTINUOUS
 62
     7
 10
648.446525
 20
2059.820094
 11
648.199308
 21
2059.729759
  0
LINE
  8
CSLAYER1
  6
CONTINUOUS
 62
     7
 10
648.199308
 20
2059.729759
 11
647.939305
 21
2059.652126
  0
LINE
  8
CSLAYER1
  6
CONTINUOUS
 62
     7
 10
647.939305
 20
2059.652126
 11
647.668495
 21
2059.587787
  0
LINE
  8
CSLAYER1
  6
CONTINUOUS
 62
     7
 10
647.668495
 20
2059.587787
 11
647.388940
 21
2059.537229
  0
LINE
  8
CSLAYER1
  6
CONTINUOUS
 62
     7
 10
647.388940
 20
2059.537229
 11
647.102766
 21
2059.500840
  0
LINE
  8
CSLAYER1
  6
CONTINUOUS
 62
     7
 10
647.102766
 20
2059.500840
 11
646.812151
 21
2059.478895
  0
LINE
  8
CSLAYER1
  6
CONTINUOUS
 62
     7
 10
646.812151
 20
2059.478895
 11
646.519308
 21
2059.471561
  0
LINE
  8
CSLAYER1
  6
CONTINUOUS
 62
     7
 10
646.519308
 20
2059.471561
 11
646.226464
 21
2059.478895
  0
LINE
  8
CSLAYER1
  6
CONTINUOUS
 62
     7
 10
646.226464
 20
2059.478895
 11
645.935850
 21
2059.500840
  0
LINE
  8
CSLAYER1
  6
CONTINUOUS
 62
     7
 10
645.935850
 20
2059.500840
 11
645.649676
 21
2059.537229
  0
LINE
  8
CSLAYER1
  6
CONTINUOUS
 62
     7
 10
645.649676
 20
2059.537229
 11
645.370120
 21
2059.587787
  0
LINE
  8
CSLAYER1
  6
CONTINUOUS
 62
     7
 10
645.370120
 20
2059.587787
 11
645.099310
 21
2059.652126
  0
LINE
  8
CSLAYER1
  6
CONTINUOUS
 62
     7
 10
645.099310
 20
2059.652126
 11
644.839308
 21
2059.729759
  0
LINE
  8
CSLAYER1
  6
CONTINUOUS
 62
     7
 10
644.839308
 20
2059.729759
 11
644.592091
 21
2059.820094
  0
LINE
  8
CSLAYER1
  6
CONTINUOUS
 62
     7
 10
644.592091
 20
2059.820094
 11
644.359541
 21
2059.922444
  0
LINE
  8
CSLAYER1
  6
CONTINUOUS
 62
     7
 10
644.359541
 20
2059.922444
 11
644.143429
 21
2060.036030
  0
LINE
  8
CSLAYER1
  6
CONTINUOUS
 62
     7
 10
644.143429
 20
2060.036030
 11
643.945398
 21
2060.159987
  0
LINE
  8
CSLAYER1
  6
CONTINUOUS
 62
     7
 10
643.945398
 20
2060.159987
 11
643.766957
 21
2060.293372
  0
LINE
  8
CSLAYER1
  6
CONTINUOUS
 62
     7
 10
643.766957
 20
2060.293372
 11
643.609462
 21
2060.435170
  0
LINE
  8
CSLAYER1
  6
CONTINUOUS
 62
     7
 10
643.609462
 20
2060.435170
 11
643.474114
 21
2060.584301
  0
LINE
  8
CSLAYER1
  6
CONTINUOUS
 62
     7
 10
643.474114
 20
2060.584301
 11
643.361941
 21
2060.739631
  0
LINE
  8
CSLAYER1
  6
CONTINUOUS
 62
     7
 10
643.361941
 20
2060.739631
 11
643.273797
 21
2060.899978
  0
LINE
  8
CSLAYER1
  6
CONTINUOUS
 62
     7
 10
643.273797
 20
2060.899978
 11
643.210354
 21
2061.064120
  0
LINE
  8
CSLAYER1
  6
CONTINUOUS
 62
     7
 10
643.210354
 20
2061.064120
 11
643.172094
 21
2061.230810
  0
LINE
  8
CSLAYER1
  6
CONTINUOUS
 62
     7
 10
643.172094
 20
2061.230810
 11
643.159308
 21
2061.398778
  0
LINE
  8
CSLAYER1
  6
CONTINUOUS
 62
     7
 10
648.102205
 20
2074.651868
 11
633.598453
 21
2079.930802
  0
LINE
  8
CSLAYER1
  6
CONTINUOUS
 62
     7
 10
648.102205
 20
2074.651868
 11
648.102205
 21
2069.939435
  0
LINE
  8
CSLAYER1
  6
CONTINUOUS
 62
     7
 10
635.388058
 20
2079.279439
 11
640.135308
 21
2082.245851
  0
LINE
  8
CSLAYER1
  6
CONTINUOUS
 62
     7
 10
648.102205
 20
2073.451930
 11
655.335114
 21
2077.971553
  0
LINE
  8
CSLAYER1
  6
CONTINUOUS
 62
     7
 10
648.102205
 20
2071.030121
 11
654.671374
 21
2075.134994
  0
ARC
  8
CSLAYER1
  6
CONTINUOUS
 62
     7
 10
648.923993
 20
2074.441715
 40
7.403380
 50
30.339165
 51
57.486408
  0
ARC
  8
CSLAYER1
  6
CONTINUOUS
 62
     7
 10
650.583315
 20
2077.587513
 40
4.767292
 50
-30.960488
 51
7.154948
  0
ENDBLK
  8
0
  0
BLOCK
  8
CSLAYER1
  2
BLKF0017
 70
   64
 10
0.0
 20
0.0
 30
0.0
  0
ARC
  8
CSLAYER1
  6
CONTINUOUS
 62
     5
 10
2860.302296
 20
123.431163
 40
3.549225
 50
6.429109
 51
73.182034
  0
ARC
  8
CSLAYER1
  6
CONTINUOUS
 62
     5
 10
2856.841325
 20
122.272770
 40
6.907754
 50
310.517970
 51
330.092764
  0
ARC
  8
CSLAYER1
  6
CONTINUOUS
 62
     5
 10
2856.780676
 20
122.638288
 40
7.148321
 50
-32.205059
 51
9.585194
  0
ARC
  8
CSLAYER1
  6
CONTINUOUS
 62
     5
 10
2860.073404
 20
119.877289
 40
4.767514
 50
180.000000
 51
218.514150
  0
ARC
  8
CSLAYER1
  6
CONTINUOUS
 62
     5
 10
2858.786683
 20
119.200149
 40
3.348282
 50
222.781148
 51
319.406906
  0
ARC
  8
CSLAYER1
  6
CONTINUOUS
 62
     5
 10
2861.852325
 20
120.290042
 40
6.559434
 50
94.574282
 51
183.607718
  0
LINE
  8
CSLAYER1
  6
CONTINUOUS
 62
     5
 10
2875.296231
 20
115.173209
 11
2874.439195
 21
112.134626
  0
LINE
  8
CSLAYER1
  6
CONTINUOUS
 62
     5
 10
2877.088216
 20
135.040867
 11
2874.984581
 21
137.767800
  0
LINE
  8
CSLAYER1
  6
CONTINUOUS
 62
     5
 10
2874.984581
 20
137.767800
 11
2868.231227
 21
141.525712
  0
LINE
  8
CSLAYER1
  6
CONTINUOUS
 62
     5
 10
2868.231227
 20
141.525712
 11
2861.329200
 21
142.328583
  0
LINE
  8
CSLAYER1
  6
CONTINUOUS
 62
     5
 10
2843.039975
 20
128.949909
 11
2845.186669
 21
133.914140
  0
LINE
  8
CSLAYER1
  6
CONTINUOUS
 62
     5
 10
2845.149671
 20
133.828583
 11
2847.333363
 21
136.463339
  0
LINE
  8
CSLAYER1
  6
CONTINUOUS
 62
     5
 10
2847.333363
 20
136.463339
 11
2850.637785
 21
138.828583
  0
LINE
  8
CSLAYER1
  6
CONTINUOUS
 62
     5
 10
2861.329200
 20
142.328583
 11
2859.811024
 21
141.561738
  0
LINE
  8
CSLAYER1
  6
CONTINUOUS
 62
     5
 10
2859.811024
 20
141.561738
 11
2856.322646
 21
141.561738
  0
LINE
  8
CSLAYER1
  6
CONTINUOUS
 62
     5
 10
2856.322646
 20
141.561738
 11
2852.767183
 21
139.616297
  0
LINE
  8
CSLAYER1
  6
CONTINUOUS
 62
     5
 10
2852.767183
 20
139.616297
 11
2850.637785
 21
138.828583
  0
LINE
  8
CSLAYER1
  6
CONTINUOUS
 62
     5
 10
2843.039975
 20
128.949909
 11
2841.522427
 21
121.401306
  0
LINE
  8
CSLAYER1
  6
CONTINUOUS
 62
     5
 10
2841.522427
 20
121.401306
 11
2841.329200
 21
118.828583
  0
LINE
  8
CSLAYER1
  6
CONTINUOUS
 62
     5
 10
2844.038583
 20
110.988800
 11
2841.329200
 21
117.084912
  0
LINE
  8
CSLAYER1
  6
CONTINUOUS
 62
     5
 10
2841.329200
 20
117.084912
 11
2841.329200
 21
118.828583
  0
LINE
  8
CSLAYER1
  6
CONTINUOUS
 62
     5
 10
2874.439195
 20
112.134626
 11
2872.753408
 21
109.131620
  0
LINE
  8
CSLAYER1
  6
CONTINUOUS
 62
     5
 10
2872.753408
 20
109.131620
 11
2871.329200
 21
107.812909
  0
ARC
  8
CSLAYER1
  6
CONTINUOUS
 62
     5
 10
2859.137255
 20
119.365343
 40
17.266626
 50
208.054813
 51
260.640470
  0
ARC
  8
CSLAYER1
  6
CONTINUOUS
 62
     5
 10
2853.943860
 20
132.107813
 40
29.874611
 50
274.579659
 51
305.587364
  0
ARC
  8
CSLAYER1
  6
CONTINUOUS
 62
     5
 10
2864.916209
 20
126.124090
 40
15.088627
 50
313.467013
 51
331.085078
  0
LINE
  8
CSLAYER1
  6
CONTINUOUS
 62
     5
 10
2879.707541
 20
122.342004
 11
2880.004836
 21
126.124090
  0
LINE
  8
CSLAYER1
  6
CONTINUOUS
 62
     5
 10
2880.004836
 20
126.124090
 11
2878.712838
 21
132.233073
  0
LINE
  8
CSLAYER1
  6
CONTINUOUS
 62
     5
 10
2879.707541
 20
122.342004
 11
2878.123867
 21
118.828583
  0
ARC
  8
CSLAYER1
  6
CONTINUOUS
 62
     5
 10
2864.916209
 20
126.124090
 40
15.088627
 50
23.883193
 51
36.225170
  0
LINE
  8
CSLAYER1
  6
CONTINUOUS
 62
     5
 10
2825.329200
 20
153.828583
 11
2826.329200
 21
154.921227
  0
LINE
  8
CSLAYER1
  6
CONTINUOUS
 62
     5
 10
2825.329200
 20
153.828583
 11
2826.906158
 21
152.383550
  0
LINE
  8
CSLAYER1
  6
CONTINUOUS
 62
     5
 10
2828.445370
 20
150.274258
 11
2828.471639
 21
148.106139
  0
LINE
  8
CSLAYER1
  6
CONTINUOUS
 62
     5
 10
2828.471639
 20
148.106139
 11
2828.679037
 21
147.345680
  0
LINE
  8
CSLAYER1
  6
CONTINUOUS
 62
     5
 10
2828.679037
 20
147.345680
 11
2829.266664
 21
146.619787
  0
LINE
  8
CSLAYER1
  6
CONTINUOUS
 62
     5
 10
2829.266664
 20
146.619787
 11
2829.854292
 21
146.688920
  0
LINE
  8
CSLAYER1
  6
CONTINUOUS
 62
     5
 10
2829.854292
 20
146.688920
 11
2830.476486
 21
146.861751
  0
LINE
  8
CSLAYER1
  6
CONTINUOUS
 62
     5
 10
2830.476486
 20
146.861751
 11
2830.891282
 21
146.688920
  0
LINE
  8
CSLAYER1
  6
CONTINUOUS
 62
     5
 10
2830.891282
 20
146.688920
 11
2831.790006
 21
146.239557
  0
LINE
  8
CSLAYER1
  6
CONTINUOUS
 62
     5
 10
2831.790006
 20
146.239557
 11
2832.566058
 21
145.828583
  0
LINE
  8
CSLAYER1
  6
CONTINUOUS
 62
     5
 10
2832.566058
 20
145.828583
 11
2833.068961
 21
145.859328
  0
LINE
  8
CSLAYER1
  6
CONTINUOUS
 62
     5
 10
2833.068961
 20
145.859328
 11
2835.876833
 21
147.305807
  0
LINE
  8
CSLAYER1
  6
CONTINUOUS
 62
     5
 10
2826.329200
 20
154.921227
 11
2826.662052
 21
156.394934
  0
LINE
  8
CSLAYER1
  6
CONTINUOUS
 62
     5
 10
2826.662052
 20
156.394934
 11
2828.115457
 21
156.545287
  0
LINE
  8
CSLAYER1
  6
CONTINUOUS
 62
     5
 10
2829.609215
 20
159.313745
 11
2831.363388
 21
159.470835
  0
LINE
  8
CSLAYER1
  6
CONTINUOUS
 62
     5
 10
2831.363388
 20
159.470835
 11
2834.897916
 21
160.308649
  0
LINE
  8
CSLAYER1
  6
CONTINUOUS
 62
     5
 10
2834.897916
 20
160.308649
 11
2836.329200
 21
160.640288
  0
LINE
  8
CSLAYER1
  6
CONTINUOUS
 62
     5
 10
2829.609215
 20
159.313745
 11
2827.676324
 21
159.472613
  0
LINE
  8
CSLAYER1
  6
CONTINUOUS
 62
     5
 10
2826.940201
 20
158.603926
 11
2827.033727
 21
158.232765
  0
LINE
  8
CSLAYER1
  6
CONTINUOUS
 62
     5
 10
2827.033727
 20
158.232765
 11
2827.525321
 21
157.695084
  0
LINE
  8
CSLAYER1
  6
CONTINUOUS
 62
     5
 10
2827.525321
 20
157.695084
 11
2828.201262
 21
157.188127
  0
LINE
  8
CSLAYER1
  6
CONTINUOUS
 62
     5
 10
2828.201262
 20
157.188127
 11
2828.324587
 21
157.023694
  0
LINE
  8
CSLAYER1
  6
CONTINUOUS
 62
     5
 10
2826.906158
 20
152.383550
 11
2828.445370
 21
150.274258
  0
ARC
  8
CSLAYER1
  6
CONTINUOUS
 62
     5
 10
2871.315900
 20
-17.830070
 40
180.727463
 50
80.438896
 51
96.353582
  0
ARC
  8
CSLAYER1
  6
CONTINUOUS
 62
     5
 10
2846.416987
 20
127.417830
 40
34.720242
 50
81.866516
 51
106.890578
  0
LINE
  8
CSLAYER1
  6
CONTINUOUS
 62
     5
 10
2905.523461
 20
159.595253
 11
2907.770544
 21
158.573852
  0
LINE
  8
CSLAYER1
  6
CONTINUOUS
 62
     5
 10
2911.345448
 20
156.990680
 11
2907.770544
 21
158.573852
  0
LINE
  8
CSLAYER1
  6
CONTINUOUS
 62
     5
 10
2905.523461
 20
159.595253
 11
2901.329200
 21
160.387824
  0
LINE
  8
CSLAYER1
  6
CONTINUOUS
 62
     5
 10
2911.329200
 20
156.997876
 11
2913.200775
 21
155.429399
  0
LINE
  8
CSLAYER1
  6
CONTINUOUS
 62
     5
 10
2894.572456
 20
158.034726
 11
2895.471731
 21
159.487401
  0
LINE
  8
CSLAYER1
  6
CONTINUOUS
 62
     5
 10
2895.471731
 20
159.487401
 11
2900.147329
 21
158.367892
  0
LINE
  8
CSLAYER1
  6
CONTINUOUS
 62
     5
 10
2900.147329
 20
158.367892
 11
2916.889715
 21
153.828583
  0
LINE
  8
CSLAYER1
  6
CONTINUOUS
 62
     5
 10
2919.829200
 20
153.828583
 11
2913.200775
 21
155.429399
  0
LINE
  8
CSLAYER1
  6
CONTINUOUS
 62
     5
 10
2916.889715
 20
153.828583
 11
2919.829200
 21
153.828583
  0
LINE
  8
CSLAYER1
  6
CONTINUOUS
 62
     5
 10
2861.329200
 20
158.293524
 11
2881.329200
 21
158.828583
  0
LINE
  8
CSLAYER1
  6
CONTINUOUS
 62
     5
 10
2881.329200
 20
158.828583
 11
2894.572456
 21
158.034726
  0
LINE
  8
CSLAYER1
  6
CONTINUOUS
 62
     5
 10
2896.175437
 20
155.974247
 11
2881.329200
 21
157.328583
  0
LINE
  8
CSLAYER1
  6
CONTINUOUS
 62
     5
 10
2881.329200
 20
157.328583
 11
2866.279990
 21
157.737235
  0
LINE
  8
CSLAYER1
  6
CONTINUOUS
 62
     5
 10
2866.329200
 20
157.735899
 11
2861.329200
 21
157.831192
  0
LINE
  8
CSLAYER1
  6
CONTINUOUS
 62
     5
 10
2861.329200
 20
158.293524
 11
2861.329200
 21
157.831192
  0
LINE
  8
CSLAYER1
  6
CONTINUOUS
 62
     5
 10
2918.829200
 20
150.328583
 11
2909.986641
 21
152.639245
  0
LINE
  8
CSLAYER1
  6
CONTINUOUS
 62
     5
 10
2896.175437
 20
155.974247
 11
2906.329200
 21
154.001863
  0
LINE
  8
CSLAYER1
  6
CONTINUOUS
 62
     5
 10
2906.329200
 20
154.001863
 11
2909.986641
 21
152.639245
  0
LINE
  8
CSLAYER1
  6
CONTINUOUS
 62
     5
 10
2918.829200
 20
150.328583
 11
2918.536583
 21
149.489477
  0
LINE
  8
CSLAYER1
  6
CONTINUOUS
 62
     5
 10
2928.329200
 20
144.828583
 11
2928.023173
 21
146.057564
  0
LINE
  8
CSLAYER1
  6
CONTINUOUS
 62
     5
 10
2918.536583
 20
149.489477
 11
2928.023173
 21
146.057564
  0
LINE
  8
CSLAYER1
  6
CONTINUOUS
 62
     5
 10
2864.829200
 20
150.328583
 11
2867.252238
 21
150.328583
  0
LINE
  8
CSLAYER1
  6
CONTINUOUS
 62
     5
 10
2887.329200
 20
150.761078
 11
2887.329200
 21
150.328583
  0
LINE
  8
CSLAYER1
  6
CONTINUOUS
 62
     5
 10
2886.329200
 20
151.295519
 11
2884.617921
 21
151.932698
  0
LINE
  8
CSLAYER1
  6
CONTINUOUS
 62
     5
 10
2884.617921
 20
151.932698
 11
2883.507865
 21
151.983155
  0
LINE
  8
CSLAYER1
  6
CONTINUOUS
 62
     5
 10
2883.507865
 20
151.983155
 11
2883.028522
 21
151.730869
  0
LINE
  8
CSLAYER1
  6
CONTINUOUS
 62
     5
 10
2883.028522
 20
151.730869
 11
2882.927608
 21
151.327213
  0
LINE
  8
CSLAYER1
  6
CONTINUOUS
 62
     5
 10
2882.927608
 20
151.327213
 11
2883.381722
 21
151.024470
  0
LINE
  8
CSLAYER1
  6
CONTINUOUS
 62
     5
 10
2883.381722
 20
151.024470
 11
2885.021577
 21
150.873099
  0
LINE
  8
CSLAYER1
  6
CONTINUOUS
 62
     5
 10
2885.021577
 20
150.873099
 11
2887.329200
 21
150.761078
  0
LINE
  8
CSLAYER1
  6
CONTINUOUS
 62
     5
 10
2928.329200
 20
144.828583
 11
2925.353657
 21
146.015164
  0
LINE
  8
CSLAYER1
  6
CONTINUOUS
 62
     5
 10
2925.353657
 20
146.015164
 11
2915.297968
 21
147.858040
  0
LINE
  8
CSLAYER1
  6
CONTINUOUS
 62
     5
 10
2915.297968
 20
147.858040
 11
2910.272188
 21
149.017835
  0
LINE
  8
CSLAYER1
  6
CONTINUOUS
 62
     5
 10
2887.863421
 20
151.328583
 11
2899.629087
 21
151.328583
  0
LINE
  8
CSLAYER1
  6
CONTINUOUS
 62
     5
 10
2886.329200
 20
151.295519
 11
2886.853860
 21
150.987052
  0
LINE
  8
CSLAYER1
  6
CONTINUOUS
 62
     5
 10
2886.853860
 20
150.987052
 11
2887.150672
 21
150.898008
  0
LINE
  8
CSLAYER1
  6
CONTINUOUS
 62
     5
 10
2887.150672
 20
150.898008
 11
2887.329200
 21
150.923179
  0
LINE
  8
CSLAYER1
  6
CONTINUOUS
 62
     5
 10
2887.329200
 20
150.923179
 11
2887.863421
 21
151.328583
  0
LINE
  8
CSLAYER1
  6
CONTINUOUS
 62
     5
 10
2899.629087
 20
151.328583
 11
2904.079356
 21
150.299757
  0
LINE
  8
CSLAYER1
  6
CONTINUOUS
 62
     5
 10
2904.079356
 20
150.299757
 11
2908.232547
 21
149.134608
  0
LINE
  8
CSLAYER1
  6
CONTINUOUS
 62
     5
 10
2908.232547
 20
149.134608
 11
2910.272188
 21
149.017835
  0
LINE
  8
CSLAYER1
  6
CONTINUOUS
 62
     5
 10
2863.829200
 20
149.328583
 11
2863.829200
 21
148.828583
  0
LINE
  8
CSLAYER1
  6
CONTINUOUS
 62
     5
 10
2861.329200
 20
148.828583
 11
2863.829200
 21
148.828583
  0
ARC
  8
CSLAYER1
  6
CONTINUOUS
 62
     5
 10
2864.829200
 20
149.328583
 40
1.000000
 50
90.000000
 51
180.000000
  0
LINE
  8
CSLAYER1
  6
CONTINUOUS
 62
     5
 10
2867.252238
 20
150.328583
 11
2867.949795
 21
149.756586
  0
LINE
  8
CSLAYER1
  6
CONTINUOUS
 62
     5
 10
2868.552163
 20
149.732626
 11
2869.409759
 21
150.328583
  0
LINE
  8
CSLAYER1
  6
CONTINUOUS
 62
     5
 10
2870.988156
 20
150.328583
 11
2872.655281
 21
149.670507
  0
LINE
  8
CSLAYER1
  6
CONTINUOUS
 62
     5
 10
2873.078990
 20
149.697019
 11
2874.232477
 21
150.328583
  0
LINE
  8
CSLAYER1
  6
CONTINUOUS
 62
     5
 10
2869.409759
 20
150.328583
 11
2870.988156
 21
150.328583
  0
LINE
  8
CSLAYER1
  6
CONTINUOUS
 62
     5
 10
2874.232477
 20
150.328583
 11
2887.329200
 21
150.328583
  0
LINE
  8
CSLAYER1
  6
CONTINUOUS
 62
     5
 10
2839.878183
 20
147.219756
 11
2861.329200
 21
148.828583
  0
LINE
  8
CSLAYER1
  6
CONTINUOUS
 62
     5
 10
2835.876833
 20
147.305807
 11
2839.878183
 21
147.219756
  0
ARC
  8
CSLAYER1
  6
CONTINUOUS
 62
     5
 10
2868.266834
 20
150.143220
 40
0.500000
 50
230.648247
 51
304.796026
  0
ARC
  8
CSLAYER1
  6
CONTINUOUS
 62
     5
 10
2872.838864
 20
150.135585
 40
0.500000
 50
248.459024
 51
298.701829
  0
ARC
  8
CSLAYER1
  6
CONTINUOUS
 62
     5
 10
2828.084587
 20
156.843694
 40
0.300000
 50
-84.093859
 51
36.869898
  0
ARC
  8
CSLAYER1
  6
CONTINUOUS
 62
     5
 10
2827.618983
 20
158.774966
 40
0.700000
 50
85.301319
 51
194.142980
  0
LINE
  8
CSLAYER1
  6
CONTINUOUS
 62
     3
 10
2859.811024
 20
141.561738
 11
2867.921520
 21
141.561738
  0
LINE
  8
CSLAYER1
  6
CONTINUOUS
 62
     3
 10
2853.398508
 20
139.961738
 11
2871.041849
 21
139.961738
  0
LINE
  8
CSLAYER1
  6
CONTINUOUS
 62
     3
 10
2849.985569
 20
138.361738
 11
2873.917213
 21
138.361738
  0
LINE
  8
CSLAYER1
  6
CONTINUOUS
 62
     3
 10
2847.750249
 20
136.761738
 11
2875.760686
 21
136.761738
  0
LINE
  8
CSLAYER1
  6
CONTINUOUS
 62
     3
 10
2846.254594
 20
135.161738
 11
2876.994972
 21
135.161738
  0
LINE
  8
CSLAYER1
  6
CONTINUOUS
 62
     3
 10
2845.034279
 20
133.561738
 11
2878.044348
 21
133.561738
  0
LINE
  8
CSLAYER1
  6
CONTINUOUS
 62
     3
 10
2844.342387
 20
131.961738
 11
2878.770223
 21
131.961738
  0
LINE
  8
CSLAYER1
  6
CONTINUOUS
 62
     3
 10
2843.650495
 20
130.361738
 11
2879.108609
 21
130.361738
  0
LINE
  8
CSLAYER1
  6
CONTINUOUS
 62
     3
 10
2843.002145
 20
128.761738
 11
2879.446996
 21
128.761738
  0
LINE
  8
CSLAYER1
  6
CONTINUOUS
 62
     3
 10
2842.680486
 20
127.161738
 11
2879.785382
 21
127.161738
  0
LINE
  8
CSLAYER1
  6
CONTINUOUS
 62
     3
 10
2842.358827
 20
125.561738
 11
2857.949070
 21
125.561738
  0
LINE
  8
CSLAYER1
  6
CONTINUOUS
 62
     3
 10
2842.037169
 20
123.961738
 11
2856.416810
 21
123.961738
  0
LINE
  8
CSLAYER1
  6
CONTINUOUS
 62
     3
 10
2841.715510
 20
122.361738
 11
2855.628640
 21
122.361738
  0
LINE
  8
CSLAYER1
  6
CONTINUOUS
 62
     3
 10
2841.474392
 20
120.761738
 11
2855.309872
 21
120.761738
  0
LINE
  8
CSLAYER1
  6
CONTINUOUS
 62
     3
 10
2841.354222
 20
119.161738
 11
2855.359893
 21
119.161738
  0
LINE
  8
CSLAYER1
  6
CONTINUOUS
 62
     3
 10
2841.329200
 20
117.561738
 11
2855.905980
 21
117.561738
  0
LINE
  8
CSLAYER1
  6
CONTINUOUS
 62
     3
 10
2841.828388
 20
115.961738
 11
2857.935983
 21
115.961738
  0
LINE
  8
CSLAYER1
  6
CONTINUOUS
 62
     3
 10
2842.539499
 20
114.361738
 11
2875.067355
 21
114.361738
  0
LINE
  8
CSLAYER1
  6
CONTINUOUS
 62
     3
 10
2843.250610
 20
112.761738
 11
2874.616073
 21
112.761738
  0
LINE
  8
CSLAYER1
  6
CONTINUOUS
 62
     3
 10
2843.961721
 20
111.161738
 11
2873.893048
 21
111.161738
  0
LINE
  8
CSLAYER1
  6
CONTINUOUS
 62
     3
 10
2844.923680
 20
109.561738
 11
2872.994862
 21
109.561738
  0
LINE
  8
CSLAYER1
  6
CONTINUOUS
 62
     3
 10
2846.172141
 20
107.961738
 11
2871.489935
 21
107.961738
  0
LINE
  8
CSLAYER1
  6
CONTINUOUS
 62
     3
 10
2847.777561
 20
106.361738
 11
2869.097475
 21
106.361738
  0
LINE
  8
CSLAYER1
  6
CONTINUOUS
 62
     3
 10
2849.924703
 20
104.761738
 11
2865.972351
 21
104.761738
  0
LINE
  8
CSLAYER1
  6
CONTINUOUS
 62
     3
 10
2853.172394
 20
103.161738
 11
2861.334203
 21
103.161738
  0
LINE
  8
CSLAYER1
  6
CONTINUOUS
 62
     3
 10
2863.140894
 20
125.561738
 11
2879.960631
 21
125.561738
  0
LINE
  8
CSLAYER1
  6
CONTINUOUS
 62
     3
 10
2863.811638
 20
123.961738
 11
2879.834862
 21
123.961738
  0
LINE
  8
CSLAYER1
  6
CONTINUOUS
 62
     3
 10
2863.923645
 20
122.361738
 11
2879.709092
 21
122.361738
  0
LINE
  8
CSLAYER1
  6
CONTINUOUS
 62
     3
 10
2863.678288
 20
120.761738
 11
2878.995237
 21
120.761738
  0
LINE
  8
CSLAYER1
  6
CONTINUOUS
 62
     3
 10
2863.026642
 20
119.161738
 11
2878.274037
 21
119.161738
  0
LINE
  8
CSLAYER1
  6
CONTINUOUS
 62
     3
 10
2861.893379
 20
117.561738
 11
2877.340088
 21
117.561738
  0
LINE
  8
CSLAYER1
  6
CONTINUOUS
 62
     3
 10
2859.637383
 20
115.961738
 11
2876.069381
 21
115.961738
  0
TEXT
  8
CSLAYER1
 62
     5
 10
2880.501005
 20
123.572910
 40
4.713448
 41
1.951056
  1
M
 50
0.000000
 51
0.000000
  7
EASYDRAW_FONT
 72
     5
 11
2886.631807
 21
123.572910
  0
TEXT
  8
CSLAYER1
 62
     5
 10
2890.152392
 20
123.514639
 40
4.626621
 41
0.778201
  1
T
 50
0.000000
 51
0.000000
  7
EASYDRAW_FONT
 72
     5
 11
2892.552686
 21
123.514639
  0
TEXT
  8
CSLAYER1
 62
     5
 10
2892.917955
 20
123.549438
 40
4.696183
 41
1.055553
  1
E
 50
0.000000
 51
0.000000
  7
EASYDRAW_FONT
 72
     5
 11
2896.222670
 21
123.549438
  0
TEXT
  8
CSLAYER1
 62
     5
 10
2896.034136
 20
125.165282
 40
0.348283
 41
9.375319
  1
-
 50
0.000000
 51
0.000000
  7
EASYDRAW_FONT
 72
     5
 11
2898.210981
 21
125.165282
  0
TEXT
  8
CSLAYER1
 62
     5
 10
2897.848346
 20
123.518092
 40
4.861659
 41
1.298502
  1
H
 50
0.000000
 51
0.000000
  7
EASYDRAW_FONT
 72
     5
 11
2902.056928
 21
123.518092
  0
TEXT
  8
CSLAYER1
 62
     5
 10
2901.924361
 20
123.548470
 40
4.843139
 41
1.269236
  1
A
 50
0.000000
 51
0.000000
  7
EASYDRAW_FONT
 72
     5
 11
2906.022417
 21
123.548470
  0
TEXT
  8
CSLAYER1
 62
     5
 10
2905.630517
 20
123.506943
 40
4.825362
 41
1.490144
  1
N
 50
0.000000
 51
0.000000
  7
EASYDRAW_FONT
 72
     5
 11
2910.424171
 21
123.506943
  0
TEXT
  8
CSLAYER1
 62
     5
 10
2886.421974
 20
123.484370
 40
4.982325
 41
1.177443
  1
A
 50
0.000000
 51
0.000000
  7
EASYDRAW_FONT
 72
     5
 11
2890.332909
 21
123.484370
  0
TEXT
  8
CSLAYER1
 62
     5
 10
2880.868019
 20
116.489131
 40
4.982325
 41
1.177443
  1
A
 50
0.000000
 51
0.000000
  7
EASYDRAW_FONT
 72
     5
 11
2884.778954
 21
116.489131
  0
TEXT
  8
CSLAYER1
 62
     5
 10
2893.652443
 20
116.517451
 40
4.982325
 41
1.177443
  1
A
 50
0.000000
 51
0.000000
  7
EASYDRAW_FONT
 72
     5
 11
2897.563377
 21
116.517451
  0
TEXT
  8
CSLAYER1
 62
     5
 10
2897.412987
 20
116.574448
 40
4.825362
 41
1.490144
  1
N
 50
0.000000
 51
0.000000
  7
EASYDRAW_FONT
 72
     5
 11
2902.206642
 21
116.574448
  0
TEXT
  8
CSLAYER1
 62
     5
 10
2906.315323
 20
116.582843
 40
4.841775
 41
1.184218
  1
E
 50
0.000000
 51
0.000000
  7
EASYDRAW_FONT
 72
     5
 11
2910.137802
 21
116.582843
  0
TEXT
  8
CSLAYER1
 62
     5
 10
2885.148573
 20
116.487806
 40
4.947865
 41
1.093992
  1
D
 50
0.000000
 51
0.000000
  7
EASYDRAW_FONT
 72
     5
 11
2888.757189
 21
116.487806
  0
TEXT
  8
CSLAYER1
 62
     5
 10
2889.550931
 20
116.482422
 40
4.924210
 41
1.228195
  1
V
 50
0.000000
 51
0.000000
  7
EASYDRAW_FONT
 72
     5
 11
2893.582858
 21
116.482422
  0
TEXT
  8
CSLAYER1
 62
     5
 10
2901.776132
 20
116.503153
 40
5.032894
 41
1.481023
  1
C
 50
0.000000
 51
0.000000
  7
EASYDRAW_FONT
 72
     5
 11
2906.745352
 21
116.503153
  0
LINE
  8
CSLAYER1
  6
CONTINUOUS
 62
     5
 10
2892.406537
 20
127.563555
 11
2891.394475
 21
127.563555
  0
LINE
  8
CSLAYER1
  6
CONTINUOUS
 62
     3
 10
2841.504775
 20
161.788826
 11
2891.302601
 21
161.788826
  0
LINE
  8
CSLAYER1
  6
CONTINUOUS
 62
     3
 10
2834.392411
 20
160.188826
 11
2902.382292
 21
160.188826
  0
LINE
  8
CSLAYER1
  6
CONTINUOUS
 62
     3
 10
2826.944006
 20
158.588826
 11
2872.367316
 21
158.588826
  0
LINE
  8
CSLAYER1
  6
CONTINUOUS
 62
     3
 10
2885.328866
 20
158.588826
 11
2894.915470
 21
158.588826
  0
LINE
  8
CSLAYER1
  6
CONTINUOUS
 62
     3
 10
2899.224603
 20
158.588826
 11
2907.737601
 21
158.588826
  0
LINE
  8
CSLAYER1
  6
CONTINUOUS
 62
     3
 10
2828.347145
 20
156.988826
 11
2885.053615
 21
156.988826
  0
LINE
  8
CSLAYER1
  6
CONTINUOUS
 62
     3
 10
2905.233753
 20
156.988826
 11
2911.339998
 21
156.988826
  0
LINE
  8
CSLAYER1
  6
CONTINUOUS
 62
     3
 10
2826.434812
 20
155.388826
 11
2899.189163
 21
155.388826
  0
LINE
  8
CSLAYER1
  6
CONTINUOUS
 62
     3
 10
2911.135052
 20
155.388826
 11
2913.368773
 21
155.388826
  0
LINE
  8
CSLAYER1
  6
CONTINUOUS
 62
     3
 10
2825.372586
 20
153.788826
 11
2906.901019
 21
153.788826
  0
LINE
  8
CSLAYER1
  6
CONTINUOUS
 62
     3
 10
2827.048253
 20
152.188826
 11
2911.710327
 21
152.188826
  0
LINE
  8
CSLAYER1
  6
CONTINUOUS
 62
     3
 10
2828.215821
 20
150.588826
 11
2887.329200
 21
150.588826
  0
LINE
  8
CSLAYER1
  6
CONTINUOUS
 62
     3
 10
2902.828965
 20
150.588826
 11
2917.833288
 21
150.588826
  0
LINE
  8
CSLAYER1
  6
CONTINUOUS
 62
     3
 10
2828.460944
 20
148.988826
 11
2863.829200
 21
148.988826
  0
LINE
  8
CSLAYER1
  6
CONTINUOUS
 62
     3
 10
2910.397894
 20
148.988826
 11
2919.920497
 21
148.988826
  0
LINE
  8
CSLAYER1
  6
CONTINUOUS
 62
     3
 10
2828.667269
 20
147.388826
 11
2842.132443
 21
147.388826
  0
LINE
  8
CSLAYER1
  6
CONTINUOUS
 62
     3
 10
2917.858242
 20
147.388826
 11
2924.343261
 21
147.388826
  0
LINE
  8
CSLAYER1
  6
CONTINUOUS
 62
     3
 10
2925.921237
 20
145.788826
 11
2928.090091
 21
145.788826
  0
ENDBLK
  8
0
  0
ENDSEC
  0
SECTION
  2
ENTITIES
  0
LINE
  8
CSLAYER1
  6
CONTINUOUS
 62
     3
 10
196.444594
 20
2444.550062
 11
196.444594
 21
96.003132
  0
LINE
  8
CSLAYER1
  6
CONTINUOUS
 62
     3
 10
3519.017905
 20
2444.550062
 11
196.444594
 21
2444.550062
  0
LINE
  8
CSLAYER1
  6
CONTINUOUS
 62
     3
 10
3519.017905
 20
2444.550062
 11
3519.017905
 21
96.003132
  0
LINE
  8
CSLAYER1
  6
CONTINUOUS
 62
     3
 10
3519.017905
 20
96.003132
 11
196.444594
 21
96.003132
  0
LINE
  8
CSLAYER1
  6
CONTINUOUS
 62
     5
 10
146.444594
 20
1256.003132
 11
96.444594
 21
1256.003132
  0
LINE
  8
CSLAYER1
  6
CONTINUOUS
 62
     5
 10
492.496850
 20
817.763846
 11
686.849672
 21
817.763846
  0
POINT
  8
CSLAYER1
 62
     5
 10
1447.258499
 20
835.263846
  0
LINE
  8
CSLAYER1
  6
CONTINUOUS
 62
     3
 10
1422.258499
 20
857.763846
 11
1422.258499
 21
817.763846
  0
LINE
  8
CSLAYER1
  6
CONTINUOUS
 62
     3
 10
1422.258499
 20
857.763846
 11
1435.802059
 21
857.763846
  0
LINE
  8
CSLAYER1
  6
CONTINUOUS
 62
     3
 10
1458.714938
 20
857.763846
 11
2225.258499
 21
857.763846
  0
LINE
  8
CSLAYER1
  6
CONTINUOUS
 62
     3
 10
1422.258499
 20
823.763846
 11
1466.258499
 21
823.763846
  0
ARC
  8
CSLAYER1
  6
CONTINUOUS
 62
     3
 10
1447.258499
 20
862.763846
 40
12.500000
 50
203.578178
 51
336.421822
  0
LINE
  8
CSLAYER1
  6
CONTINUOUS
 62
     3
 10
1466.258499
 20
857.763846
 11
1466.258499
 21
823.763846
  0
LINE
  8
CSLAYER1
  6
CENTER
 62
     5
 10
1436.363669
 20
835.263846
 11
1457.478903
 21
835.263846
  0
LINE
  8
CSLAYER1
  6
CENTER
 62
     5
 10
1447.258499
 20
846.233501
 11
1447.258499
 21
824.294190
  0
INSERT
  8
CSLAYER1
  2
BLKF0000
 10
0.0
 20
0.0
 30
0.0
  0
LINE
  8
CSLAYER1
  6
CONTINUOUS
 62
     3
 10
1502.976209
 20
921.512717
 11
1521.905919
 21
909.465951
  0
LINE
  8
CSLAYER1
  6
CONTINUOUS
 62
     3
 10
1584.503934
 20
1074.690338
 11
1608.774936
 21
1059.244401
  0
LINE
  8
CSLAYER1
  6
CONTINUOUS
 62
     3
 10
1552.021983
 20
1030.168739
 11
1569.942039
 21
1018.764510
  0
LINE
  8
CSLAYER1
  6
CONTINUOUS
 62
     3
 10
1551.715228
 20
1031.549283
 11
1569.969628
 21
1060.233370
  0
LINE
  8
CSLAYER1
  6
CONTINUOUS
 62
     3
 10
1569.969628
 20
1060.233370
 11
1584.503934
 21
1074.690338
  0
LINE
  8
CSLAYER1
  6
CONTINUOUS
 62
     3
 10
1551.715228
 20
1031.549283
 11
1552.021983
 21
1030.168739
  0
LINE
  8
CSLAYER1
  6
CONTINUOUS
 62
     3
 10
1502.892218
 20
948.870949
 11
1553.878012
 21
1028.987572
  0
POINT
  8
CSLAYER1
 62
     3
 10
1502.434883
 20
902.891995
  0
LINE
  8
CSLAYER1
  6
CENTER
 62
     6
 10
1496.959080
 20
894.287582
 11
1682.348110
 21
1185.598983
  0
POINT
  8
CSLAYER1
 62
     3
 10
1682.348110
 20
1185.598983
  0
CIRCLE
  8
CSLAYER1
  6
CONTINUOUS
 62
     3
 10
1682.348110
 20
1185.598983
 40
8.000000
  0
LINE
  8
CSLAYER1
  6
CONTINUOUS
 62
     3
 10
1651.843990
 20
1104.140115
 11
1665.884065
 21
1126.202013
  0
LINE
  8
CSLAYER1
  6
CONTINUOUS
 62
     3
 10
1588.722183
 20
1072.005868
 11
1640.230518
 21
1152.943587
  0
CIRCLE
  8
CSLAYER1
  6
CONTINUOUS
 62
     3
 10
1502.434883
 20
902.891995
 40
8.000000
  0
LINE
  8
CSLAYER1
  6
CONTINUOUS
 62
     3
 10
1505.187007
 20
872.536998
 11
1491.014925
 21
857.763846
  0
LINE
  8
CSLAYER1
  6
CONTINUOUS
 62
     3
 10
1763.258363
 20
1148.776342
 11
1752.660242
 21
1131.228413
  0
LINE
  8
CSLAYER1
  6
CONTINUOUS
 62
     3
 10
1486.857698
 20
857.763846
 11
1498.176185
 21
869.562376
  0
LINE
  8
CSLAYER1
  6
CONTINUOUS
 62
     3
 10
1498.176185
 20
869.562376
 11
1504.133916
 21
872.161501
  0
LINE
  8
CSLAYER1
  6
CONTINUOUS
 62
     3
 10
1467.934729
 20
912.430830
 11
1932.814762
 21
1397.027517
  0
LINE
  8
CSLAYER1
  6
CONTINUOUS
 62
     3
 10
1504.133916
 20
872.161501
 11
1752.660242
 21
1131.228413
  0
CIRCLE
  8
CSLAYER1
  6
CONTINUOUS
 62
     3
 10
1706.861208
 20
1105.876915
 40
7.500000
  0
ARC
  8
CSLAYER1
  6
CONTINUOUS
 62
     3
 10
1946.618958
 20
1395.527517
 40
5.000000
 50
-197.457603
 51
17.457603
  0
ARC
  8
CSLAYER1
  6
CONTINUOUS
 62
     3
 10
1946.618958
 20
1395.527517
 40
13.000000
 50
-186.625810
 51
6.625810
  0
POINT
  8
CSLAYER1
 62
     3
 10
1946.618958
 20
1395.527517
  0
POINT
  8
CSLAYER1
 62
     3
 10
1706.861208
 20
1105.876915
  0
LINE
  8
CSLAYER1
  6
CONTINUOUS
 62
     3
 10
1763.258363
 20
1148.776342
 11
1939.788205
 21
1332.793230
  0
LINE
  8
CSLAYER1
  6
CONTINUOUS
 62
     3
 10
1939.788205
 20
1332.793230
 11
1955.240326
 21
1385.797563
  0
POINT
  8
CSLAYER1
 62
     3
 10
1447.258499
 20
835.263846
  0
LINE
  8
CSLAYER1
  6
CONTINUOUS
 62
     3
 10
1488.656613
 20
902.252248
 11
1500.202771
 21
891.175866
  0
LINE
  8
CSLAYER1
  6
CONTINUOUS
 62
     3
 10
1512.886199
 20
927.509468
 11
1524.432357
 21
916.433086
  0
LINE
  8
CSLAYER1
  6
CONTINUOUS
 62
     3
 10
1504.444497
 20
891.263949
 11
1524.520440
 21
912.191360
  0
LINE
  8
CSLAYER1
  6
CONTINUOUS
 62
     3
 10
1488.568530
 20
906.493975
 11
1508.644473
 21
927.421385
  0
ARC
  8
CSLAYER1
  6
CONTINUOUS
 62
     3
 10
1490.733435
 20
904.417153
 40
3.000000
 50
136.189622
 51
226.189622
  0
ARC
  8
CSLAYER1
  6
CONTINUOUS
 62
     3
 10
1510.809378
 20
925.344564
 40
3.000000
 50
46.189622
 51
136.189622
  0
ARC
  8
CSLAYER1
  6
CONTINUOUS
 62
     3
 10
1502.279592
 20
893.340771
 40
3.000000
 50
226.189622
 51
316.189622
  0
ARC
  8
CSLAYER1
  6
CONTINUOUS
 62
     3
 10
1522.355535
 20
914.268181
 40
3.000000
 50
-43.810378
 51
46.189622
  0
LINE
  8
CSLAYER1
  6
CONTINUOUS
 62
     3
 10
1467.934729
 20
912.430830
 11
1440.639458
 21
852.160152
  0
ARC
  8
CSLAYER1
  6
CONTINUOUS
 62
     3
 10
1682.348110
 20
1185.598983
 40
17.000000
 50
42.544562
 51
100.895989
  0
LINE
  8
CSLAYER1
  6
CONTINUOUS
 62
     3
 10
1694.872888
 20
1197.093761
 11
1717.433572
 21
1172.511505
  0
ARC
  8
CSLAYER1
  6
CONTINUOUS
 62
     3
 10
1670.080317
 20
1173.830327
 40
30.000000
 50
43.810378
 51
92.000063
  0
LINE
  8
CSLAYER1
  6
CONTINUOUS
 62
     3
 10
1747.382396
 20
1047.747463
 11
1929.636202
 21
857.763846
  0
ARC
  8
CSLAYER1
  6
CONTINUOUS
 62
     3
 10
1966.463916
 20
835.263846
 40
13.000000
 50
62.435886
 51
118.531765
  0
POINT
  8
CSLAYER1
 62
     3
 10
1966.463916
 20
835.263846
  0
LINE
  8
CSLAYER1
  6
CONTINUOUS
 62
     3
 10
1626.448478
 20
1167.310155
 11
1669.446163
 21
1122.488837
  0
LINE
  8
CSLAYER1
  6
CONTINUOUS
 62
     3
 10
1747.382396
 20
1047.747463
 11
1730.289562
 21
1059.064927
  0
LINE
  8
CSLAYER1
  6
CONTINUOUS
 62
     3
 10
1615.850357
 20
1184.858085
 11
1626.448478
 21
1167.310155
  0
LINE
  8
CSLAYER1
  6
CONTINUOUS
 62
     3
 10
1615.850357
 20
1184.858085
 11
1507.806341
 21
1297.484501
  0
LINE
  8
CSLAYER1
  6
CONTINUOUS
 62
     3
 10
1489.264339
 20
1391.205434
 11
1669.033299
 21
1203.812050
  0
LINE
  8
CSLAYER1
  6
CONTINUOUS
 62
     3
 10
1961.076433
 20
899.382681
 11
1971.953171
 21
857.763846
  0
LINE
  8
CSLAYER1
  6
CONTINUOUS
 62
     3
 10
1691.729363
 20
1194.598543
 11
1715.175662
 21
1170.157832
  0
ARC
  8
CSLAYER1
  6
CONTINUOUS
 62
     3
 10
1706.861208
 20
1105.876915
 40
50.500000
 50
7.129993
 51
28.315266
  0
LINE
  8
CSLAYER1
  6
CONTINUOUS
 62
     3
 10
1756.970696
 20
1112.145022
 11
1961.076433
 21
899.382681
  0
LINE
  8
CSLAYER1
  6
CONTINUOUS
 62
     3
 10
1499.237762
 20
1325.195189
 11
1458.524068
 21
1385.027517
  0
LINE
  8
CSLAYER1
  6
CONTINUOUS
 62
     3
 10
1499.237762
 20
1325.195189
 11
1502.592412
 21
1307.586978
  0
ARC
  8
CSLAYER1
  6
CONTINUOUS
 62
     3
 10
1522.239038
 20
1311.329979
 40
20.000000
 50
190.786510
 51
223.810378
  0
LINE
  8
CSLAYER1
  6
CONTINUOUS
 62
     3
 10
1706.861208
 20
1083.486933
 11
1730.289562
 21
1059.064927
  0
LINE
  8
CSLAYER1
  6
CONTINUOUS
 62
     3
 10
1569.969628
 20
1060.233370
 11
1594.653883
 21
1044.524441
  0
LINE
  8
CSLAYER1
  6
CENTER
 62
     6
 10
1946.618958
 20
1410.589306
 11
1946.618958
 21
1380.397319
  0
LINE
  8
CSLAYER1
  6
CENTER
 62
     6
 10
1931.255372
 20
1395.527517
 11
1962.604878
 21
1395.527517
  0
ARC
  8
CSLAYER1
  6
CONTINUOUS
 62
     3
 10
1946.618958
 20
1395.527517
 40
13.000000
 50
30.558220
 51
60.792798
  0
ARC
  8
CSLAYER1
  6
CONTINUOUS
 62
     3
 10
1946.618958
 20
1395.527517
 40
13.000000
 50
78.150466
 51
117.215867
  0
ARC
  8
CSLAYER1
  6
CONTINUOUS
 62
     3
 10
1946.618958
 20
1395.527517
 40
13.000000
 50
129.904453
 51
154.186413
  0
POINT
  8
CSLAYER1
 62
     4
 10
1447.258499
 20
835.263846
  0
CIRCLE
  8
CSLAYER1
  6
CONTINUOUS
 62
     3
 10
1447.258499
 20
835.263846
 40
9.500000
  0
LINE
  8
CSLAYER1
  6
CONTINUOUS
 62
     3
 10
1456.758499
 20
840.748673
 11
1447.258499
 21
846.233501
  0
LINE
  8
CSLAYER1
  6
CONTINUOUS
 62
     3
 10
1447.258499
 20
846.233501
 11
1437.758499
 21
840.748673
  0
LINE
  8
CSLAYER1
  6
CONTINUOUS
 62
     3
 10
1437.758499
 20
840.748673
 11
1437.758499
 21
829.779018
  0
LINE
  8
CSLAYER1
  6
CONTINUOUS
 62
     3
 10
1437.758499
 20
829.779018
 11
1447.258499
 21
824.294190
  0
LINE
  8
CSLAYER1
  6
CONTINUOUS
 62
     3
 10
1447.258499
 20
824.294190
 11
1456.758499
 21
829.779018
  0
LINE
  8
CSLAYER1
  6
CONTINUOUS
 62
     3
 10
1456.758499
 20
829.779018
 11
1456.758499
 21
840.748673
  0
LINE
  8
CSLAYER1
  6
CENTER
 62
     6
 10
1948.726388
 20
835.263846
 11
1985.722590
 21
835.263846
  0
LINE
  8
CSLAYER1
  6
CENTER
 62
     6
 10
1966.463916
 20
853.757063
 11
1966.463916
 21
819.294847
  0
ARC
  8
CSLAYER1
  6
CONTINUOUS
 62
     3
 10
1966.463916
 20
835.263846
 40
13.000000
 50
-30.596977
 51
29.035047
  0
ARC
  8
CSLAYER1
  6
CONTINUOUS
 62
     3
 10
1966.463916
 20
835.263846
 40
13.000000
 50
239.433195
 51
304.891780
  0
ARC
  8
CSLAYER1
  6
CONTINUOUS
 62
     3
 10
1966.463916
 20
835.263846
 40
13.000000
 50
145.113852
 51
207.530823
  0
LINE
  8
CSLAYER1
  6
CENTER
 62
     5
 10
836.849672
 20
1469.000795
 11
836.849672
 21
777.763846
  0
LINE
  8
CSLAYER1
  6
CENTER
 62
     5
 10
927.849672
 20
1395.527517
 11
745.849672
 21
1395.527517
  0
LINE
  8
CSLAYER1
  6
CONTINUOUS
 62
     2
 10
891.849672
 20
1399.327517
 11
891.849672
 21
1355.027517
  0
LINE
  8
CSLAYER1
  6
CONTINUOUS
 62
     3
 10
892.849672
 20
1386.877517
 11
891.849672
 21
1386.877517
  0
LINE
  8
CSLAYER1
  6
CONTINUOUS
 62
     3
 10
893.849672
 20
1399.327517
 11
893.849672
 21
1387.877517
  0
LINE
  8
CSLAYER1
  6
CONTINUOUS
 62
     3
 10
893.849672
 20
1387.877517
 11
892.849672
 21
1386.877517
  0
LINE
  8
CSLAYER1
  6
CONTINUOUS
 62
     3
 10
892.849672
 20
1399.327517
 11
892.849672
 21
1386.877517
  0
LINE
  8
CSLAYER1
  6
CONTINUOUS
 62
     3
 10
882.849672
 20
1386.877517
 11
790.849672
 21
1386.877517
  0
LINE
  8
CSLAYER1
  6
CONTINUOUS
 62
     3
 10
894.349672
 20
1385.027517
 11
900.349672
 21
1385.027517
  0
INSERT
  8
CSLAYER1
  2
BLKF0001
 10
0.0
 20
0.0
 30
0.0
  0
LINE
  8
CSLAYER1
  6
CONTINUOUS
 62
     3
 10
900.349672
 20
1399.327517
 11
900.349672
 21
1384.777517
  0
LINE
  8
CSLAYER1
  6
CONTINUOUS
 62
     3
 10
894.349672
 20
1399.327517
 11
894.349672
 21
1385.027517
  0
LINE
  8
CSLAYER1
  6
CONTINUOUS
 62
     3
 10
933.849672
 20
1399.327517
 11
933.849672
 21
1397.027517
  0
LINE
  8
CSLAYER1
  6
CONTINUOUS
 62
     3
 10
933.849672
 20
1397.027517
 11
929.349672
 21
1397.027517
  0
LINE
  8
CSLAYER1
  6
CONTINUOUS
 62
     3
 10
929.349672
 20
1399.327517
 11
929.349672
 21
1397.027517
  0
LINE
  8
CSLAYER1
  6
CONTINUOUS
 62
     3
 10
961.849672
 20
1429.327517
 11
711.849672
 21
1429.327517
  0
LINE
  8
CSLAYER1
  6
CONTINUOUS
 62
     3
 10
961.849672
 20
1399.327517
 11
711.849672
 21
1399.327517
  0
LINE
  8
CSLAYER1
  6
CONTINUOUS
 62
     3
 10
882.849672
 20
857.763846
 11
882.849672
 21
1399.327517
  0
LINE
  8
CSLAYER1
  6
CONTINUOUS
 62
     3
 10
894.849672
 20
857.763846
 11
894.849672
 21
1385.027517
  0
LINE
  8
CSLAYER1
  6
CONTINUOUS
 62
     3
 10
891.849672
 20
857.763846
 11
891.849672
 21
1399.327517
  0
LINE
  8
CSLAYER1
  6
CONTINUOUS
 62
     3
 10
903.849672
 20
857.763846
 11
903.849672
 21
1384.557862
  0
LINE
  8
CSLAYER1
  6
CONTINUOUS
 62
     1
 10
914.349672
 20
824.294190
 11
914.349672
 21
846.233501
  0
LINE
  8
CSLAYER1
  6
CONTINUOUS
 62
     1
 10
911.349672
 20
846.013846
 11
914.349672
 21
846.013846
  0
LINE
  8
CSLAYER1
  6
CONTINUOUS
 62
     1
 10
911.349672
 20
824.513846
 11
914.349672
 21
824.513846
  0
LINE
  8
CSLAYER1
  6
CONTINUOUS
 62
     1
 10
911.349672
 20
833.751649
 11
914.349672
 21
837.251649
  0
LINE
  8
CSLAYER1
  6
CONTINUOUS
 62
     1
 10
922.349672
 20
844.263846
 11
922.349672
 21
826.263846
  0
LINE
  8
CSLAYER1
  6
CONTINUOUS
 62
     1
 10
914.349672
 20
840.748673
 11
921.212492
 21
840.748673
  0
LINE
  8
CSLAYER1
  6
CONTINUOUS
 62
     1
 10
914.349672
 20
846.233501
 11
921.212492
 21
846.233501
  0
LINE
  8
CSLAYER1
  6
CONTINUOUS
 62
     1
 10
922.349672
 20
844.263846
 11
921.212492
 21
846.233501
  0
ARC
  8
CSLAYER1
  6
CONTINUOUS
 62
     1
 10
918.569628
 20
843.491087
 40
3.808617
 50
313.940972
 51
354.338367
  0
ARC
  8
CSLAYER1
  6
CONTINUOUS
 62
     1
 10
908.553928
 20
835.263846
 40
13.795744
 50
-23.426598
 51
23.426598
  0
LINE
  8
CSLAYER1
  6
CONTINUOUS
 62
     1
 10
914.349672
 20
829.779018
 11
921.212492
 21
829.779018
  0
LINE
  8
CSLAYER1
  6
CONTINUOUS
 62
     1
 10
914.349672
 20
824.294190
 11
921.212492
 21
824.294190
  0
LINE
  8
CSLAYER1
  6
CONTINUOUS
 62
     1
 10
922.349672
 20
826.263846
 11
921.212492
 21
824.294190
  0
ARC
  8
CSLAYER1
  6
CONTINUOUS
 62
     1
 10
918.569628
 20
827.036604
 40
3.808617
 50
5.661633
 51
46.059028
  0
LINE
  8
CSLAYER1
  6
CONTINUOUS
 62
     3
 10
915.849672
 20
1399.327517
 11
915.849672
 21
1382.527517
  0
LINE
  8
CSLAYER1
  6
CONTINUOUS
 62
     3
 10
907.849672
 20
1384.557862
 11
907.849672
 21
1382.527517
  0
LINE
  8
CSLAYER1
  6
CONTINUOUS
 62
     3
 10
923.849672
 20
1399.327517
 11
923.849672
 21
1382.527517
  0
LINE
  8
CSLAYER1
  6
CONTINUOUS
 62
     3
 10
924.849672
 20
1399.327517
 11
924.849672
 21
1387.527517
  0
LINE
  8
CSLAYER1
  6
CONTINUOUS
 62
     3
 10
926.849672
 20
1399.327517
 11
926.849672
 21
1391.027517
  0
LINE
  8
CSLAYER1
  6
CONTINUOUS
 62
     3
 10
926.349672
 20
1390.527517
 11
924.849672
 21
1390.527517
  0
LINE
  8
CSLAYER1
  6
CONTINUOUS
 62
     3
 10
924.849672
 20
1387.527517
 11
923.849672
 21
1387.527517
  0
LINE
  8
CSLAYER1
  6
CONTINUOUS
 62
     3
 10
926.349672
 20
1390.527517
 11
926.849672
 21
1391.027517
  0
LINE
  8
CSLAYER1
  6
CONTINUOUS
 62
     3
 10
923.849672
 20
1382.527517
 11
907.849672
 21
1382.527517
  0
LINE
  8
CSLAYER1
  6
CENTER
 62
     6
 10
811.849672
 20
1185.598983
 11
891.849672
 21
1185.598983
  0
LINE
  8
CSLAYER1
  6
CENTER
 62
     6
 10
790.849672
 20
1137.420287
 11
882.849672
 21
1137.420287
  0
LINE
  8
CSLAYER1
  6
CENTER
 62
     6
 10
757.349672
 20
1105.876915
 11
916.349672
 21
1105.876915
  0
LINE
  8
CSLAYER1
  6
CENTER
 62
     6
 10
818.349672
 20
902.891995
 11
876.349672
 21
902.891995
  0
LINE
  8
CSLAYER1
  6
CONTINUOUS
 62
     3
 10
811.849672
 20
1202.598983
 11
823.849672
 21
1202.598983
  0
LINE
  8
CSLAYER1
  6
CONTINUOUS
 62
     3
 10
811.849672
 20
1131.209081
 11
823.849672
 21
1131.209081
  0
LINE
  8
CSLAYER1
  6
CONTINUOUS
 62
     3
 10
790.849672
 20
1161.720287
 11
811.849672
 21
1161.720287
  0
LINE
  8
CSLAYER1
  6
CONTINUOUS
 62
     3
 10
790.849672
 20
1113.376915
 11
829.349672
 21
1113.376915
  0
LINE
  8
CSLAYER1
  6
CONTINUOUS
 62
     3
 10
790.849672
 20
1098.376915
 11
829.349672
 21
1098.376915
  0
LINE
  8
CSLAYER1
  6
CONTINUOUS
 62
     3
 10
818.349672
 20
867.649331
 11
824.349672
 21
867.649331
  0
LINE
  8
CSLAYER1
  6
CONTINUOUS
 62
     3
 10
790.849672
 20
885.690202
 11
803.199672
 21
885.690202
  0
LINE
  8
CSLAYER1
  6
CONTINUOUS
 62
     3
 10
818.349672
 20
918.891995
 11
824.349672
 21
918.891995
  0
LINE
  8
CSLAYER1
  6
CONTINUOUS
 62
     3
 10
876.349672
 20
867.649331
 11
876.349672
 21
918.891995
  0
LINE
  8
CSLAYER1
  6
CONTINUOUS
 62
     3
 10
870.349672
 20
867.649331
 11
870.349672
 21
918.891995
  0
LINE
  8
CSLAYER1
  6
CONTINUOUS
 62
     3
 10
824.349672
 20
867.649331
 11
824.349672
 21
918.891995
  0
LINE
  8
CSLAYER1
  6
CONTINUOUS
 62
     3
 10
818.349672
 20
867.649331
 11
818.349672
 21
918.891995
  0
LINE
  8
CSLAYER1
  6
CONTINUOUS
 62
     3
 10
870.349672
 20
918.891995
 11
876.349672
 21
918.891995
  0
LINE
  8
CSLAYER1
  6
CONTINUOUS
 62
     3
 10
870.349672
 20
867.649331
 11
876.349672
 21
867.649331
  0
LINE
  8
CSLAYER1
  6
CONTINUOUS
 62
     3
 10
891.849672
 20
885.690202
 11
894.849672
 21
885.690202
  0
LINE
  8
CSLAYER1
  6
CONTINUOUS
 62
     3
 10
876.349672
 20
885.690202
 11
882.849672
 21
885.690202
  0
LINE
  8
CSLAYER1
  6
CONTINUOUS
 62
     3
 10
824.349672
 20
885.690202
 11
870.349672
 21
885.690202
  0
LINE
  8
CSLAYER1
  6
CONTINUOUS
 62
     3
 10
811.849672
 20
1131.209081
 11
811.849672
 21
1202.598983
  0
LINE
  8
CSLAYER1
  6
CONTINUOUS
 62
     3
 10
823.849672
 20
1131.209081
 11
823.849672
 21
1202.598983
  0
LINE
  8
CSLAYER1
  6
CONTINUOUS
 62
     3
 10
870.849672
 20
1131.209081
 11
870.849672
 21
1202.598983
  0
LINE
  8
CSLAYER1
  6
CONTINUOUS
 62
     3
 10
870.849672
 20
1131.209081
 11
882.849672
 21
1131.209081
  0
LINE
  8
CSLAYER1
  6
CONTINUOUS
 62
     3
 10
823.849672
 20
1161.720287
 11
829.349672
 21
1161.720287
  0
LINE
  8
CSLAYER1
  6
CONTINUOUS
 62
     3
 10
870.849672
 20
1202.598983
 11
882.849672
 21
1202.598983
  0
LINE
  8
CSLAYER1
  6
CONTINUOUS
 62
     3
 10
915.349672
 20
1110.876915
 11
914.849672
 21
1110.876915
  0
LINE
  8
CSLAYER1
  6
CONTINUOUS
 62
     3
 10
903.849672
 20
1097.376915
 11
904.349672
 21
1097.376915
  0
LINE
  8
CSLAYER1
  6
CONTINUOUS
 62
     3
 10
903.849672
 20
1114.376915
 11
904.349672
 21
1114.376915
  0
LINE
  8
CSLAYER1
  6
CONTINUOUS
 62
     3
 10
904.349672
 20
1095.376915
 11
904.349672
 21
1116.376915
  0
LINE
  8
CSLAYER1
  6
CONTINUOUS
 62
     3
 10
916.349672
 20
1109.876915
 11
916.349672
 21
1101.876915
  0
LINE
  8
CSLAYER1
  6
CONTINUOUS
 62
     3
 10
894.849672
 20
1091.876915
 11
891.849672
 21
1091.876915
  0
LINE
  8
CSLAYER1
  6
CONTINUOUS
 62
     3
 10
894.849672
 20
1119.876915
 11
891.849672
 21
1119.876915
  0
LINE
  8
CSLAYER1
  6
CONTINUOUS
 62
     3
 10
906.349672
 20
1095.376915
 11
906.349672
 21
1116.376915
  0
LINE
  8
CSLAYER1
  6
CONTINUOUS
 62
     3
 10
908.849672
 20
1096.676915
 11
908.849672
 21
1115.076915
  0
LINE
  8
CSLAYER1
  6
CONTINUOUS
 62
     3
 10
908.849672
 20
1115.076915
 11
906.349672
 21
1115.076915
  0
LINE
  8
CSLAYER1
  6
CONTINUOUS
 62
     3
 10
906.349672
 20
1116.376915
 11
904.349672
 21
1116.376915
  0
LINE
  8
CSLAYER1
  6
CONTINUOUS
 62
     3
 10
908.849672
 20
1096.676915
 11
906.349672
 21
1096.676915
  0
LINE
  8
CSLAYER1
  6
CONTINUOUS
 62
     3
 10
906.349672
 20
1095.376915
 11
904.349672
 21
1095.376915
  0
LINE
  8
CSLAYER1
  6
CONTINUOUS
 62
     3
 10
914.849672
 20
1097.376915
 11
914.849672
 21
1114.376915
  0
LINE
  8
CSLAYER1
  6
CONTINUOUS
 62
     3
 10
915.349672
 20
1110.876915
 11
916.349672
 21
1109.876915
  0
LINE
  8
CSLAYER1
  6
CONTINUOUS
 62
     3
 10
916.049672
 20
1110.176915
 11
914.849672
 21
1110.176915
  0
LINE
  8
CSLAYER1
  6
CONTINUOUS
 62
     3
 10
915.349672
 20
1110.876915
 11
915.349672
 21
1100.876915
  0
LINE
  8
CSLAYER1
  6
CONTINUOUS
 62
     3
 10
914.090483
 20
1115.691870
 11
909.608862
 21
1115.691870
  0
LINE
  8
CSLAYER1
  6
CONTINUOUS
 62
     3
 10
914.090483
 20
1110.784393
 11
909.608862
 21
1110.784393
  0
LINE
  8
CSLAYER1
  6
CONTINUOUS
 62
     3
 10
914.849672
 20
1114.376915
 11
914.090483
 21
1115.691870
  0
ARC
  8
CSLAYER1
  6
CONTINUOUS
 62
     3
 10
898.608862
 20
1105.876915
 40
16.240811
 50
-17.587954
 51
17.587954
  0
ARC
  8
CSLAYER1
  6
CONTINUOUS
 62
     3
 10
910.508748
 20
1113.238131
 40
4.341619
 50
-34.413868
 51
27.480777
  0
LINE
  8
CSLAYER1
  6
CONTINUOUS
 62
     3
 10
914.849672
 20
1097.376915
 11
914.090483
 21
1096.061961
  0
ARC
  8
CSLAYER1
  6
CONTINUOUS
 62
     3
 10
910.508748
 20
1098.515699
 40
4.341619
 50
-27.480777
 51
34.413868
  0
LINE
  8
CSLAYER1
  6
CONTINUOUS
 62
     3
 10
908.849672
 20
1114.376915
 11
909.608862
 21
1115.691870
  0
ARC
  8
CSLAYER1
  6
CONTINUOUS
 62
     3
 10
925.090483
 20
1105.876915
 40
16.240811
 50
162.412046
 51
197.587954
  0
ARC
  8
CSLAYER1
  6
CONTINUOUS
 62
     3
 10
913.190597
 20
1113.238131
 40
4.341619
 50
152.519223
 51
214.413868
  0
LINE
  8
CSLAYER1
  6
CONTINUOUS
 62
     3
 10
908.849672
 20
1097.376915
 11
909.608862
 21
1096.061961
  0
ARC
  8
CSLAYER1
  6
CONTINUOUS
 62
     3
 10
913.190597
 20
1098.515699
 40
4.341619
 50
145.586132
 51
207.480777
  0
LINE
  8
CSLAYER1
  6
CONTINUOUS
 62
     3
 10
914.090483
 20
1096.061961
 11
909.608862
 21
1096.061961
  0
LINE
  8
CSLAYER1
  6
CONTINUOUS
 62
     3
 10
914.090483
 20
1100.969438
 11
909.608862
 21
1100.969438
  0
LINE
  8
CSLAYER1
  6
CONTINUOUS
 62
     3
 10
915.349672
 20
1100.876915
 11
914.849672
 21
1100.876915
  0
LINE
  8
CSLAYER1
  6
CONTINUOUS
 62
     3
 10
915.349672
 20
1100.876915
 11
916.349672
 21
1101.876915
  0
LINE
  8
CSLAYER1
  6
CONTINUOUS
 62
     3
 10
916.049672
 20
1101.576915
 11
914.849672
 21
1101.576915
  0
LINE
  8
CSLAYER1
  6
CONTINUOUS
 62
     3
 10
906.349672
 20
1103.975468
 11
908.849672
 21
1107.345033
  0
LINE
  8
CSLAYER1
  6
CONTINUOUS
 62
     3
 10
758.349672
 20
1110.876915
 11
758.849672
 21
1110.876915
  0
LINE
  8
CSLAYER1
  6
CONTINUOUS
 62
     3
 10
769.849672
 20
1097.376915
 11
769.349672
 21
1097.376915
  0
LINE
  8
CSLAYER1
  6
CONTINUOUS
 62
     3
 10
769.849672
 20
1114.376915
 11
769.349672
 21
1114.376915
  0
LINE
  8
CSLAYER1
  6
CONTINUOUS
 62
     3
 10
769.349672
 20
1095.376915
 11
769.349672
 21
1116.376915
  0
LINE
  8
CSLAYER1
  6
CONTINUOUS
 62
     3
 10
757.349672
 20
1109.876915
 11
757.349672
 21
1101.876915
  0
LINE
  8
CSLAYER1
  6
CONTINUOUS
 62
     3
 10
778.849672
 20
1091.876915
 11
781.849672
 21
1091.876915
  0
LINE
  8
CSLAYER1
  6
CONTINUOUS
 62
     3
 10
778.849672
 20
1119.876915
 11
781.849672
 21
1119.876915
  0
LINE
  8
CSLAYER1
  6
CONTINUOUS
 62
     3
 10
767.349672
 20
1095.376915
 11
767.349672
 21
1116.376915
  0
LINE
  8
CSLAYER1
  6
CONTINUOUS
 62
     3
 10
764.849672
 20
1096.676915
 11
764.849672
 21
1115.076915
  0
LINE
  8
CSLAYER1
  6
CONTINUOUS
 62
     3
 10
764.849672
 20
1115.076915
 11
767.349672
 21
1115.076915
  0
LINE
  8
CSLAYER1
  6
CONTINUOUS
 62
     3
 10
767.349672
 20
1116.376915
 11
769.349672
 21
1116.376915
  0
LINE
  8
CSLAYER1
  6
CONTINUOUS
 62
     3
 10
764.849672
 20
1096.676915
 11
767.349672
 21
1096.676915
  0
LINE
  8
CSLAYER1
  6
CONTINUOUS
 62
     3
 10
767.349672
 20
1095.376915
 11
769.349672
 21
1095.376915
  0
LINE
  8
CSLAYER1
  6
CONTINUOUS
 62
     3
 10
758.849672
 20
1097.376915
 11
758.849672
 21
1114.376915
  0
LINE
  8
CSLAYER1
  6
CONTINUOUS
 62
     3
 10
758.349672
 20
1110.876915
 11
757.349672
 21
1109.876915
  0
LINE
  8
CSLAYER1
  6
CONTINUOUS
 62
     3
 10
757.649672
 20
1110.176915
 11
758.849672
 21
1110.176915
  0
LINE
  8
CSLAYER1
  6
CONTINUOUS
 62
     3
 10
758.349672
 20
1110.876915
 11
758.349672
 21
1100.876915
  0
LINE
  8
CSLAYER1
  6
CONTINUOUS
 62
     3
 10
759.608862
 20
1115.691870
 11
764.090483
 21
1115.691870
  0
LINE
  8
CSLAYER1
  6
CONTINUOUS
 62
     3
 10
759.608862
 20
1110.784393
 11
764.090483
 21
1110.784393
  0
LINE
  8
CSLAYER1
  6
CONTINUOUS
 62
     3
 10
758.849672
 20
1114.376915
 11
759.608862
 21
1115.691870
  0
ARC
  8
CSLAYER1
  6
CONTINUOUS
 62
     3
 10
775.090483
 20
1105.876915
 40
16.240811
 50
162.412046
 51
197.587954
  0
ARC
  8
CSLAYER1
  6
CONTINUOUS
 62
     3
 10
763.190597
 20
1113.238131
 40
4.341619
 50
152.519223
 51
214.413868
  0
LINE
  8
CSLAYER1
  6
CONTINUOUS
 62
     3
 10
758.849672
 20
1097.376915
 11
759.608862
 21
1096.061961
  0
ARC
  8
CSLAYER1
  6
CONTINUOUS
 62
     3
 10
763.190597
 20
1098.515699
 40
4.341619
 50
145.586132
 51
207.480777
  0
LINE
  8
CSLAYER1
  6
CONTINUOUS
 62
     3
 10
764.849672
 20
1114.376915
 11
764.090483
 21
1115.691870
  0
ARC
  8
CSLAYER1
  6
CONTINUOUS
 62
     3
 10
748.608862
 20
1105.876915
 40
16.240811
 50
-17.587954
 51
17.587954
  0
ARC
  8
CSLAYER1
  6
CONTINUOUS
 62
     3
 10
760.508748
 20
1113.238131
 40
4.341619
 50
-34.413868
 51
27.480777
  0
LINE
  8
CSLAYER1
  6
CONTINUOUS
 62
     3
 10
764.849672
 20
1097.376915
 11
764.090483
 21
1096.061961
  0
ARC
  8
CSLAYER1
  6
CONTINUOUS
 62
     3
 10
760.508748
 20
1098.515699
 40
4.341619
 50
-27.480777
 51
34.413868
  0
LINE
  8
CSLAYER1
  6
CONTINUOUS
 62
     3
 10
759.608862
 20
1096.061961
 11
764.090483
 21
1096.061961
  0
LINE
  8
CSLAYER1
  6
CONTINUOUS
 62
     3
 10
759.608862
 20
1100.969438
 11
764.090483
 21
1100.969438
  0
LINE
  8
CSLAYER1
  6
CONTINUOUS
 62
     3
 10
758.349672
 20
1100.876915
 11
758.849672
 21
1100.876915
  0
LINE
  8
CSLAYER1
  6
CONTINUOUS
 62
     3
 10
758.349672
 20
1100.876915
 11
757.349672
 21
1101.876915
  0
LINE
  8
CSLAYER1
  6
CONTINUOUS
 62
     3
 10
757.649672
 20
1101.576915
 11
758.849672
 21
1101.576915
  0
LINE
  8
CSLAYER1
  6
CONTINUOUS
 62
     3
 10
767.349672
 20
1103.975468
 11
764.849672
 21
1107.345033
  0
LINE
  8
CSLAYER1
  6
CONTINUOUS
 62
     3
 10
769.849672
 20
857.763846
 11
769.849672
 21
1384.557862
  0
LINE
  8
CSLAYER1
  6
CONTINUOUS
 62
     3
 10
778.849672
 20
857.763846
 11
778.849672
 21
1385.027517
  0
LINE
  8
CSLAYER1
  6
CONTINUOUS
 62
     3
 10
781.849672
 20
857.763846
 11
781.849672
 21
1399.327517
  0
LINE
  8
CSLAYER1
  6
CONTINUOUS
 62
     3
 10
790.849672
 20
857.763846
 11
790.849672
 21
1399.327517
  0
LINE
  8
CSLAYER1
  6
CONTINUOUS
 62
     3
 10
781.849672
 20
885.690202
 11
778.849672
 21
885.690202
  0
INSERT
  8
CSLAYER1
  2
BLKF0002
 10
0.0
 20
0.0
 30
0.0
  0
LINE
  8
CSLAYER1
  6
CONTINUOUS
 62
     3
 10
865.349672
 20
1161.720287
 11
870.849672
 21
1161.720287
  0
LINE
  8
CSLAYER1
  6
CONTINUOUS
 62
     3
 10
865.349672
 20
1113.376915
 11
882.849672
 21
1113.376915
  0
LINE
  8
CSLAYER1
  6
CONTINUOUS
 62
     3
 10
865.349672
 20
1098.376915
 11
882.849672
 21
1098.376915
  0
LINE
  8
CSLAYER1
  6
CONTINUOUS
 62
     3
 10
811.499672
 20
885.690202
 11
818.349672
 21
885.690202
  0
LINE
  8
CSLAYER1
  6
CENTER
 62
     6
 10
1510.668194
 20
897.652359
 11
1493.478790
 21
908.591605
  0
LINE
  8
CSLAYER1
  6
CENTER
 62
     6
 10
847.349672
 20
885.690202
 11
847.349672
 21
1199.198983
  0
CIRCLE
  8
CSLAYER1
  6
CONTINUOUS
 62
     3
 10
806.849672
 20
829.413846
 40
4.150000
  0
LINE
  8
CSLAYER1
  6
CONTINUOUS
 62
     3
 10
1282.463843
 20
836.413846
 11
1422.258499
 21
836.413846
  0
LINE
  8
CSLAYER1
  6
CENTER
 62
     5
 10
1282.463843
 20
832.263846
 11
1422.258499
 21
832.263846
  0
LINE
  8
CSLAYER1
  6
CONTINUOUS
 62
     3
 10
1282.463843
 20
828.113846
 11
1422.258499
 21
828.113846
  0
DIMENSION
  8
CSLAYER1
 62
     3
  2
*D0000
 10
2434.958499
 20
1429.327517
 11
2426.958740
 21
1123.545654
 13
2241.249345
 23
817.763846
 14
2241.249345
 24
1429.327517
 50
90.000000
 70
1
  0
DIMENSION
  8
CSLAYER1
 62
     3
  2
*D0001
 10
1444.803457
 20
1271.603218
 11
1246.474731
 21
1283.347778
 13
1424.958499
 23
887.763846
 14
1444.803457
 24
1409.327517
  0
INSERT
  8
CSLAYER1
  2
EASYDRAWDIM0000
 10
0.0
 20
0.0
 30
0.0
  0
INSERT
  8
CSLAYER1
  2
EASYDRAWDIM0001
 10
0.0
 20
0.0
 30
0.0
  0
LINE
  8
CSLAYER1
  6
CONTINUOUS
 62
     6
 10
1561.538741
 20
1046.985480
 11
1332.140246
 21
1189.774339
  0
LINE
  8
CSLAYER1
  6
CONTINUOUS
 62
     6
 10
1561.538741
 20
1046.985480
 11
1532.834358
 21
1055.706624
  0
LINE
  8
CSLAYER1
  6
CONTINUOUS
 62
     6
 10
1561.538741
 20
1046.985480
 11
1541.040588
 21
1068.890404
  0
DIMENSION
  8
CSLAYER1
 62
     3
  2
*D0002
 10
1071.943463
 20
823.763846
 11
1063.943481
 21
867.983887
 13
984.849672
 23
817.763846
 14
984.849672
 24
823.763846
 50
90.000000
 70
1
  0
DIMENSION
  8
CSLAYER1
 62
     3
  2
*D0003
 10
961.849672
 20
697.763846
 11
836.849487
 21
705.763794
 13
711.849672
 23
819.763846
 14
961.849672
 24
819.763846
 52
270.000000
 70
1
  0
DIMENSION
  8
CSLAYER1
 62
     3
  2
*D0004
 10
986.849672
 20
607.763846
 11
836.849487
 21
615.763855
 13
686.849672
 23
819.763846
 14
986.849672
 24
819.763846
 52
270.000000
 70
1
  0
LINE
  8
CSLAYER1
  6
CENTER
 62
     6
 10
1667.785045
 20
1185.598983
 11
1696.725931
 21
1185.598983
  0
LINE
  8
CSLAYER1
  6
CENTER
 62
     6
 10
1682.348110
 20
1197.416442
 11
1682.348110
 21
1169.217630
  0
LINE
  8
CSLAYER1
  6
CENTER
 62
     6
 10
1692.298143
 20
1105.876915
 11
1721.239029
 21
1105.876915
  0
LINE
  8
CSLAYER1
  6
CENTER
 62
     6
 10
1706.861208
 20
1117.694374
 11
1706.861208
 21
1089.495562
  0
LINE
  8
CSLAYER1
  6
CONTINUOUS
 62
     3
 10
1422.258499
 20
2011.557719
 11
1422.258499
 21
1845.707719
  0
LINE
  8
CSLAYER1
  6
CENTER
 62
     6
 10
1388.538002
 20
1985.707719
 11
2264.958499
 21
1985.707719
  0
LINE
  8
CSLAYER1
  6
CONTINUOUS
 62
     3
 10
1472.258499
 20
1845.707719
 11
1472.258499
 21
1860.707719
  0
LINE
  8
CSLAYER1
  6
CONTINUOUS
 62
     3
 10
1432.258499
 20
1835.707719
 11
1462.258499
 21
1835.707719
  0
INSERT
  8
CSLAYER1
  2
BLKF0003
 10
0.0
 20
0.0
 30
0.0
  0
ARC
  8
CSLAYER1
  6
CONTINUOUS
 62
     3
 10
1432.258499
 20
1845.707719
 40
10.000000
 50
180.000000
 51
270.000000
  0
ARC
  8
CSLAYER1
  6
CONTINUOUS
 62
     3
 10
1462.258499
 20
1845.707719
 40
10.000000
 50
270.000000
 51
360.000000
  0
LINE
  8
CSLAYER1
  6
CONTINUOUS
 62
     3
 10
1422.258499
 20
2019.857719
 11
1422.258499
 21
2125.707719
  0
LINE
  8
CSLAYER1
  6
CONTINUOUS
 62
     3
 10
1472.258499
 20
2125.707719
 11
1472.258499
 21
2110.707719
  0
LINE
  8
CSLAYER1
  6
CONTINUOUS
 62
     3
 10
1432.258499
 20
2135.707719
 11
1462.258499
 21
2135.707719
  0
INSERT
  8
CSLAYER1
  2
BLKF0004
 10
0.0
 20
0.0
 30
0.0
  0
ARC
  8
CSLAYER1
  6
CONTINUOUS
 62
     3
 10
1432.258499
 20
2125.707719
 40
10.000000
 50
90.000000
 51
180.000000
  0
ARC
  8
CSLAYER1
  6
CONTINUOUS
 62
     3
 10
1462.258499
 20
2125.707719
 40
10.000000
 50
0.000000
 51
90.000000
  0
LINE
  8
CSLAYER1
  6
CONTINUOUS
 62
     3
 10
1424.958499
 20
2110.707719
 11
1424.958499
 21
1860.707719
  0
ARC
  8
CSLAYER1
  6
CONTINUOUS
 62
     3
 10
1447.258499
 20
2110.707719
 40
6.500000
 50
0.000000
 51
180.000000
  0
ARC
  8
CSLAYER1
  6
CONTINUOUS
 62
     3
 10
1447.258499
 20
1860.707719
 40
6.500000
 50
180.000000
 51
360.000000
  0
LINE
  8
CSLAYER1
  6
CONTINUOUS
 62
     3
 10
2224.958499
 20
1860.707719
 11
2224.958499
 21
2110.707719
  0
LINE
  8
CSLAYER1
  6
CONTINUOUS
 62
     1
 10
759.349672
 20
824.294190
 11
759.349672
 21
846.233501
  0
LINE
  8
CSLAYER1
  6
CONTINUOUS
 62
     1
 10
762.349672
 20
846.013846
 11
759.349672
 21
846.013846
  0
LINE
  8
CSLAYER1
  6
CONTINUOUS
 62
     1
 10
762.349672
 20
824.513846
 11
759.349672
 21
824.513846
  0
LINE
  8
CSLAYER1
  6
CONTINUOUS
 62
     1
 10
762.349672
 20
833.751649
 11
759.349672
 21
837.251649
  0
LINE
  8
CSLAYER1
  6
CONTINUOUS
 62
     1
 10
751.349672
 20
844.263846
 11
751.349672
 21
826.263846
  0
LINE
  8
CSLAYER1
  6
CONTINUOUS
 62
     1
 10
759.349672
 20
840.748673
 11
752.486853
 21
840.748673
  0
LINE
  8
CSLAYER1
  6
CONTINUOUS
 62
     1
 10
759.349672
 20
846.233501
 11
752.486853
 21
846.233501
  0
LINE
  8
CSLAYER1
  6
CONTINUOUS
 62
     1
 10
751.349672
 20
844.263846
 11
752.486853
 21
846.233501
  0
ARC
  8
CSLAYER1
  6
CONTINUOUS
 62
     1
 10
755.129717
 20
843.491087
 40
3.808617
 50
185.661633
 51
226.059028
  0
ARC
  8
CSLAYER1
  6
CONTINUOUS
 62
     1
 10
765.145417
 20
835.263846
 40
13.795744
 50
156.573402
 51
203.426598
  0
LINE
  8
CSLAYER1
  6
CONTINUOUS
 62
     1
 10
759.349672
 20
829.779018
 11
752.486853
 21
829.779018
  0
LINE
  8
CSLAYER1
  6
CONTINUOUS
 62
     1
 10
759.349672
 20
824.294190
 11
752.486853
 21
824.294190
  0
LINE
  8
CSLAYER1
  6
CONTINUOUS
 62
     1
 10
751.349672
 20
826.263846
 11
752.486853
 21
824.294190
  0
ARC
  8
CSLAYER1
  6
CONTINUOUS
 62
     1
 10
755.129717
 20
827.036604
 40
3.808617
 50
133.940972
 51
174.338367
  0
LINE
  8
CSLAYER1
  6
CONTINUOUS
 62
     2
 10
781.849672
 20
1399.327517
 11
781.849672
 21
1355.027517
  0
LINE
  8
CSLAYER1
  6
CONTINUOUS
 62
     3
 10
780.849672
 20
1386.877517
 11
781.849672
 21
1386.877517
  0
LINE
  8
CSLAYER1
  6
CONTINUOUS
 62
     3
 10
779.849672
 20
1399.327517
 11
779.849672
 21
1387.877517
  0
LINE
  8
CSLAYER1
  6
CONTINUOUS
 62
     3
 10
779.849672
 20
1387.877517
 11
780.849672
 21
1386.877517
  0
LINE
  8
CSLAYER1
  6
CONTINUOUS
 62
     3
 10
780.849672
 20
1399.327517
 11
780.849672
 21
1386.877517
  0
LINE
  8
CSLAYER1
  6
CONTINUOUS
 62
     3
 10
779.349672
 20
1385.027517
 11
773.349672
 21
1385.027517
  0
INSERT
  8
CSLAYER1
  2
BLKF0005
 10
0.0
 20
0.0
 30
0.0
  0
LINE
  8
CSLAYER1
  6
CONTINUOUS
 62
     3
 10
773.349672
 20
1399.327517
 11
773.349672
 21
1384.777517
  0
LINE
  8
CSLAYER1
  6
CONTINUOUS
 62
     3
 10
779.349672
 20
1399.327517
 11
779.349672
 21
1385.027517
  0
LINE
  8
CSLAYER1
  6
CONTINUOUS
 62
     3
 10
739.849672
 20
1399.327517
 11
739.849672
 21
1397.027517
  0
LINE
  8
CSLAYER1
  6
CONTINUOUS
 62
     3
 10
739.849672
 20
1397.027517
 11
744.349672
 21
1397.027517
  0
LINE
  8
CSLAYER1
  6
CONTINUOUS
 62
     3
 10
744.349672
 20
1399.327517
 11
744.349672
 21
1397.027517
  0
LINE
  8
CSLAYER1
  6
CONTINUOUS
 62
     3
 10
757.849672
 20
1399.327517
 11
757.849672
 21
1382.527517
  0
LINE
  8
CSLAYER1
  6
CONTINUOUS
 62
     3
 10
765.849672
 20
1384.557862
 11
765.849672
 21
1382.527517
  0
LINE
  8
CSLAYER1
  6
CONTINUOUS
 62
     3
 10
749.849672
 20
1399.327517
 11
749.849672
 21
1382.527517
  0
LINE
  8
CSLAYER1
  6
CONTINUOUS
 62
     3
 10
748.849672
 20
1399.327517
 11
748.849672
 21
1387.527517
  0
LINE
  8
CSLAYER1
  6
CONTINUOUS
 62
     3
 10
746.849672
 20
1399.327517
 11
746.849672
 21
1391.027517
  0
LINE
  8
CSLAYER1
  6
CONTINUOUS
 62
     3
 10
747.349672
 20
1390.527517
 11
748.849672
 21
1390.527517
  0
LINE
  8
CSLAYER1
  6
CONTINUOUS
 62
     3
 10
748.849672
 20
1387.527517
 11
749.849672
 21
1387.527517
  0
LINE
  8
CSLAYER1
  6
CONTINUOUS
 62
     3
 10
747.349672
 20
1390.527517
 11
746.849672
 21
1391.027517
  0
LINE
  8
CSLAYER1
  6
CONTINUOUS
 62
     3
 10
749.849672
 20
1382.527517
 11
765.849672
 21
1382.527517
  0
TEXT
  8
CSLAYER1
 62
     5
 10
2988.322477
 20
821.371143
 40
31.844261
 41
0.920655
  1
Ｆ.Ｌ
 50
0.000000
 51
0.000000
  7
EASYDRAW_FONT
 72
     5
 11
3066.502718
 21
821.371143
  0
LINE
  8
CSLAYER1
  6
CENTER
 62
     5
 10
2768.800566
 20
777.763846
 11
2768.800566
 21
937.763846
  0
LINE
  8
CSLAYER1
  6
CENTER
 62
     5
 10
2893.800566
 20
808.834485
 11
2893.800566
 21
833.044446
  0
LINE
  8
CSLAYER1
  6
CENTER
 62
     5
 10
2643.800566
 20
808.834485
 11
2643.800566
 21
833.044446
  0
LINE
  8
CSLAYER1
  6
CONTINUOUS
 62
     3
 10
2668.800566
 20
857.763846
 11
2668.800566
 21
817.763846
  0
LINE
  8
CSLAYER1
  6
CONTINUOUS
 62
     3
 10
2868.800566
 20
857.763846
 11
2868.800566
 21
817.763846
  0
LINE
  8
CSLAYER1
  6
CONTINUOUS
 62
     3
 10
2918.800566
 20
817.763846
 11
2918.800566
 21
823.763846
  0
LINE
  8
CSLAYER1
  6
CONTINUOUS
 62
     3
 10
2918.800566
 20
823.763846
 11
2868.800566
 21
823.763846
  0
LINE
  8
CSLAYER1
  6
CONTINUOUS
 62
     3
 10
2618.800566
 20
817.763846
 11
2618.800566
 21
823.763846
  0
LINE
  8
CSLAYER1
  6
CONTINUOUS
 62
     3
 10
2618.800566
 20
823.763846
 11
2668.800566
 21
823.763846
  0
TEXT
  8
CSLAYER1
 62
     7
 10
2719.055908
 20
981.004883
 40
40.000000
 41
0.843750
  1
下降時
 50
0.000000
 51
0.000000
  7
EASYDRAW_FONT
 72
     5
 11
2809.055908
 21
981.004883
  0
LINE
  8
CSLAYER1
  6
CONTINUOUS
 62
     5
 10
2705.449373
 20
1027.434942
 11
2828.407382
 21
1027.434942
  0
LINE
  8
CSLAYER1
  6
CONTINUOUS
 62
     5
 10
2828.407382
 20
1027.434942
 11
2828.407382
 21
974.574489
  0
LINE
  8
CSLAYER1
  6
CONTINUOUS
 62
     5
 10
2828.407382
 20
974.574489
 11
2705.449373
 21
974.574489
  0
LINE
  8
CSLAYER1
  6
CONTINUOUS
 62
     5
 10
2705.449373
 20
974.574489
 11
2705.449373
 21
1027.434942
  0
LINE
  8
CSLAYER1
  6
CONTINUOUS
 62
     3
 10
2643.800566
 20
897.763846
 11
2893.800566
 21
897.763846
  0
LINE
  8
CSLAYER1
  6
CONTINUOUS
 62
     3
 10
2643.800566
 20
867.763846
 11
2893.800566
 21
867.763846
  0
LINE
  8
CSLAYER1
  6
CONTINUOUS
 62
     3
 10
2668.800566
 20
857.763846
 11
2868.800566
 21
857.763846
  0
DIMENSION
  8
CSLAYER1
 62
     3
  2
*D0005
 10
2524.958499
 20
897.763846
 11
2514.958496
 21
857.763855
 13
2578.137845
 23
817.763846
 14
2628.137845
 24
897.763846
 50
90.000000
  0
LINE
  8
CSLAYER1
  6
CONTINUOUS
 62
     3
 10
2865.800566
 20
867.763846
 11
2865.800566
 21
865.463846
  0
LINE
  8
CSLAYER1
  6
CONTINUOUS
 62
     3
 10
2865.800566
 20
865.463846
 11
2861.300566
 21
865.463846
  0
LINE
  8
CSLAYER1
  6
CONTINUOUS
 62
     3
 10
2861.300566
 20
867.763846
 11
2861.300566
 21
865.463846
  0
LINE
  8
CSLAYER1
  6
CONTINUOUS
 62
     3
 10
2847.800566
 20
867.763846
 11
2847.800566
 21
857.763846
  0
LINE
  8
CSLAYER1
  6
CONTINUOUS
 62
     3
 10
2855.800566
 20
867.763846
 11
2855.800566
 21
857.763846
  0
LINE
  8
CSLAYER1
  6
CONTINUOUS
 62
     3
 10
2856.800566
 20
867.763846
 11
2856.800566
 21
857.763846
  0
LINE
  8
CSLAYER1
  6
CONTINUOUS
 62
     3
 10
2858.800566
 20
867.763846
 11
2858.800566
 21
859.463846
  0
LINE
  8
CSLAYER1
  6
CONTINUOUS
 62
     3
 10
2858.300566
 20
858.963846
 11
2856.800566
 21
858.963846
  0
LINE
  8
CSLAYER1
  6
CONTINUOUS
 62
     3
 10
2858.300566
 20
858.963846
 11
2858.800566
 21
859.463846
  0
LINE
  8
CSLAYER1
  6
CENTER
 62
     5
 10
2859.800566
 20
863.963846
 11
2677.800566
 21
863.963846
  0
LINE
  8
CSLAYER1
  6
CONTINUOUS
 62
     3
 10
2839.800566
 20
867.763846
 11
2839.800566
 21
857.763846
  0
LINE
  8
CSLAYER1
  6
CONTINUOUS
 62
     3
 10
2814.800566
 20
857.763846
 11
2814.800566
 21
867.763846
  0
LINE
  8
CSLAYER1
  6
CONTINUOUS
 62
     3
 10
2823.800566
 20
857.763846
 11
2823.800566
 21
867.763846
  0
LINE
  8
CSLAYER1
  6
CONTINUOUS
 62
     3
 10
2826.800566
 20
857.763846
 11
2826.800566
 21
867.763846
  0
LINE
  8
CSLAYER1
  6
CONTINUOUS
 62
     3
 10
2835.800566
 20
857.763846
 11
2835.800566
 21
867.763846
  0
LINE
  8
CSLAYER1
  6
CONTINUOUS
 62
     3
 10
2671.800566
 20
867.763846
 11
2671.800566
 21
865.463846
  0
LINE
  8
CSLAYER1
  6
CONTINUOUS
 62
     3
 10
2671.800566
 20
865.463846
 11
2676.300566
 21
865.463846
  0
LINE
  8
CSLAYER1
  6
CONTINUOUS
 62
     3
 10
2676.300566
 20
867.763846
 11
2676.300566
 21
865.463846
  0
LINE
  8
CSLAYER1
  6
CONTINUOUS
 62
     3
 10
2689.800566
 20
867.763846
 11
2689.800566
 21
857.763846
  0
LINE
  8
CSLAYER1
  6
CONTINUOUS
 62
     3
 10
2681.800566
 20
867.763846
 11
2681.800566
 21
857.763846
  0
LINE
  8
CSLAYER1
  6
CONTINUOUS
 62
     3
 10
2680.800566
 20
867.763846
 11
2680.800566
 21
857.763846
  0
LINE
  8
CSLAYER1
  6
CONTINUOUS
 62
     3
 10
2678.800566
 20
867.763846
 11
2678.800566
 21
859.463846
  0
LINE
  8
CSLAYER1
  6
CONTINUOUS
 62
     3
 10
2679.300566
 20
858.963846
 11
2680.800566
 21
858.963846
  0
LINE
  8
CSLAYER1
  6
CONTINUOUS
 62
     3
 10
2679.300566
 20
858.963846
 11
2678.800566
 21
859.463846
  0
LINE
  8
CSLAYER1
  6
CONTINUOUS
 62
     3
 10
2697.800566
 20
867.763846
 11
2697.800566
 21
857.763846
  0
LINE
  8
CSLAYER1
  6
CONTINUOUS
 62
     3
 10
2722.800566
 20
857.763846
 11
2722.800566
 21
867.763846
  0
LINE
  8
CSLAYER1
  6
CONTINUOUS
 62
     3
 10
2713.800566
 20
857.763846
 11
2713.800566
 21
867.763846
  0
LINE
  8
CSLAYER1
  6
CONTINUOUS
 62
     3
 10
2710.800566
 20
857.763846
 11
2710.800566
 21
867.763846
  0
LINE
  8
CSLAYER1
  6
CONTINUOUS
 62
     3
 10
2701.800566
 20
857.763846
 11
2701.800566
 21
867.763846
  0
TEXT
  8
CSLAYER1
 62
     7
 10
787.713257
 20
532.462219
 40
40.000000
 41
0.843750
  1
上昇時
 50
0.000000
 51
0.000000
  7
EASYDRAW_FONT
 72
     5
 11
877.713257
 21
532.462219
  0
LINE
  8
CSLAYER1
  6
CONTINUOUS
 62
     5
 10
774.106707
 20
578.892333
 11
897.064716
 21
578.892333
  0
LINE
  8
CSLAYER1
  6
CONTINUOUS
 62
     5
 10
897.064716
 20
578.892333
 11
897.064716
 21
526.031880
  0
LINE
  8
CSLAYER1
  6
CONTINUOUS
 62
     5
 10
897.064716
 20
526.031880
 11
774.106707
 21
526.031880
  0
LINE
  8
CSLAYER1
  6
CONTINUOUS
 62
     5
 10
774.106707
 20
526.031880
 11
774.106707
 21
578.892333
  0
TEXT
  8
CSLAYER1
 62
     7
 10
1433.553589
 20
2260.479492
 40
40.000000
 41
0.843750
  1
下降時
 50
0.000000
 51
0.000000
  7
EASYDRAW_FONT
 72
     5
 11
1523.553589
 21
2260.479492
  0
LINE
  8
CSLAYER1
  6
CONTINUOUS
 62
     5
 10
1419.947261
 20
2306.909711
 11
1542.905271
 21
2306.909711
  0
LINE
  8
CSLAYER1
  6
CONTINUOUS
 62
     5
 10
1542.905271
 20
2306.909711
 11
1542.905271
 21
2254.049258
  0
LINE
  8
CSLAYER1
  6
CONTINUOUS
 62
     5
 10
1542.905271
 20
2254.049258
 11
1419.947261
 21
2254.049258
  0
LINE
  8
CSLAYER1
  6
CONTINUOUS
 62
     5
 10
1419.947261
 20
2254.049258
 11
1419.947261
 21
2306.909711
  0
INSERT
  8
CSLAYER1
  2
BLKF0006
 10
0.0
 20
0.0
 30
0.0
  0
INSERT
  8
CSLAYER1
  2
BLKF0007
 10
0.0
 20
0.0
 30
0.0
  0
LINE
  8
CSLAYER1
  6
CONTINUOUS
 62
     3
 10
2225.258499
 20
857.763846
 11
2225.258499
 21
817.763846
  0
DIMENSION
  8
CSLAYER1
 62
     3
  2
*D0006
 10
2344.958499
 20
897.763846
 11
2334.958740
 21
857.763855
 13
2224.958499
 23
817.763846
 14
2224.958499
 24
897.763846
 50
90.000000
 70
1
  0
DIMENSION
  8
CSLAYER1
 62
     3
  2
*D0007
 10
2344.958499
 20
897.763846
 11
2334.958740
 21
1163.545654
 13
2344.958499
 23
1429.327517
 14
2344.958499
 24
897.763846
 50
90.000000
 70
1
  0
DIMENSION
  8
CSLAYER1
 62
     3
  2
*D0008
 10
2244.803457
 20
1529.327517
 11
1844.803467
 21
1539.327515
 13
1444.803457
 23
1429.327517
 14
2244.803457
 24
1429.327517
 70
1
  0
LINE
  8
CSLAYER1
  6
CONTINUOUS
 62
     5
 10
3495.017905
 20
2354.550062
 11
2615.017905
 21
2354.550062
  0
LINE
  8
CSLAYER1
  6
CONTINUOUS
 62
     5
 10
3495.017905
 20
2301.216729
 11
2615.017905
 21
2301.216729
  0
LINE
  8
CSLAYER1
  6
CONTINUOUS
 62
     5
 10
3495.017905
 20
2247.883395
 11
2615.017905
 21
2247.883395
  0
LINE
  8
CSLAYER1
  6
CONTINUOUS
 62
     5
 10
3495.017905
 20
2141.216729
 11
2615.017905
 21
2141.216729
  0
LINE
  8
CSLAYER1
  6
CONTINUOUS
 62
     5
 10
3495.017905
 20
2034.550062
 11
2615.017905
 21
2034.550062
  0
LINE
  8
CSLAYER1
  6
CONTINUOUS
 62
     5
 10
3495.017905
 20
1821.216729
 11
2615.017905
 21
1821.216729
  0
LINE
  8
CSLAYER1
  6
CONTINUOUS
 62
     5
 10
3495.017905
 20
1821.216725
 11
2615.017905
 21
1821.216725
  0
LINE
  8
CSLAYER1
  6
CONTINUOUS
 62
     5
 10
3495.017905
 20
1767.883392
 11
2615.017905
 21
1767.883392
  0
TEXT
  8
CSLAYER1
 62
     3
 10
2628.351074
 20
2361.216553
 40
40.000000
 41
0.838235
  1
仕    様
 50
0.000000
 51
0.000000
  7
EASYDRAW_FONT
 72
     5
 11
2818.351074
 21
2361.216553
  0
TEXT
  8
CSLAYER1
 62
     3
 10
2628.351074
 20
2307.883301
 40
40.000000
 41
0.838235
  1
型    式
 50
0.000000
 51
0.000000
  7
EASYDRAW_FONT
 72
     5
 11
2818.351074
 21
2307.883301
  0
TEXT
  8
CSLAYER1
 62
     3
 10
2993.351074
 20
2307.883301
 40
40.000000
 41
0.817105
  1
GLSH-250-2508
 50
0.000000
 51
0.000000
  7
EASYDRAW_FONT
 72
     5
 11
3407.351074
 21
2307.883301
  0
TEXT
  8
CSLAYER1
 62
     3
 10
2628.351074
 20
2254.550049
 40
40.000000
 41
0.859091
  1
均等荷重
 50
0.000000
 51
0.000000
  7
EASYDRAW_FONT
 72
     5
 11
2754.351074
 21
2254.550049
  0
TEXT
  8
CSLAYER1
 62
     3
 10
3419.684326
 20
2254.550049
 40
40.000000
 41
0.930000
  1
ｋｇ
 50
0.000000
 51
0.000000
  7
EASYDRAW_FONT
 72
     5
 11
3481.684326
 21
2254.550049
  0
TEXT
  8
CSLAYER1
 62
     3
 10
2628.351074
 20
2147.883301
 40
40.000000
 41
0.838235
  1
テーブル高サ
 50
0.000000
 51
0.000000
  7
EASYDRAW_FONT
 72
     5
 11
2818.351074
 21
2147.883301
  0
TEXT
  8
CSLAYER1
 62
     3
 10
3419.684326
 20
2147.883301
 40
40.000000
 41
0.930000
  1
ｍｍ
 50
0.000000
 51
0.000000
  7
EASYDRAW_FONT
 72
     5
 11
3481.684326
 21
2147.883301
  0
TEXT
  8
CSLAYER1
 62
     3
 10
2628.351074
 20
2041.216553
 40
40.000000
 41
0.838235
  1
全    長
 50
0.000000
 51
0.000000
  7
EASYDRAW_FONT
 72
     5
 11
2818.351074
 21
2041.216553
  0
TEXT
  8
CSLAYER1
 62
     3
 10
3153.351074
 20
2041.216553
 40
40.000000
 41
0.881250
  1
803
 50
0.000000
 51
0.000000
  7
EASYDRAW_FONT
 72
     5
 11
3247.351074
 21
2041.216553
  0
TEXT
  8
CSLAYER1
 62
     3
 10
3137.351074
 20
1827.883179
 40
40.000000
 41
0.859091
  1
約 37
 50
0.000000
 51
0.000000
  7
EASYDRAW_FONT
 72
     5
 11
3263.351074
 21
1827.883179
  0
TEXT
  8
CSLAYER1
 62
     3
 10
2628.351074
 20
1827.883179
 40
40.000000
 41
0.846429
  1
ポンプ回数
 50
0.000000
 51
0.000000
  7
EASYDRAW_FONT
 72
     5
 11
2786.351074
 21
1827.883179
  0
TEXT
  8
CSLAYER1
 62
     3
 10
2628.351074
 20
1774.549927
 40
40.000000
 41
0.832500
  1
自     重
 50
0.000000
 51
0.000000
  7
EASYDRAW_FONT
 72
     5
 11
2850.351074
 21
1774.549927
  0
TEXT
  8
CSLAYER1
 62
     3
 10
2628.351074
 20
1721.216675
 40
40.000000
 41
0.832500
  1
塗  装  色
 50
0.000000
 51
0.000000
  7
EASYDRAW_FONT
 72
     5
 11
2850.351074
 21
1721.216675
  0
TEXT
  8
CSLAYER1
 62
     3
 10
3153.351074
 20
2254.550049
 40
40.000000
 41
0.881250
  1
250
 50
0.000000
 51
0.000000
  7
EASYDRAW_FONT
 72
     5
 11
3247.351074
 21
2254.550049
  0
TEXT
  8
CSLAYER1
 62
     3
 10
3105.351074
 20
2147.883301
 40
40.000000
 41
0.838235
  1
80～580
 50
0.000000
 51
0.000000
  7
EASYDRAW_FONT
 72
     5
 11
3295.351074
 21
2147.883301
  0
TEXT
  8
CSLAYER1
 62
     3
 10
3419.684326
 20
2041.216553
 40
40.000000
 41
0.930000
  1
ｍｍ
 50
0.000000
 51
0.000000
  7
EASYDRAW_FONT
 72
     5
 11
3481.684326
 21
2041.216553
  0
LINE
  8
CSLAYER1
  6
CONTINUOUS
 62
     5
 10
3495.017905
 20
1981.216729
 11
2615.017905
 21
1981.216729
  0
TEXT
  8
CSLAYER1
 62
     3
 10
2628.351074
 20
1987.883179
 40
40.000000
 41
0.838235
  1
全    幅
 50
0.000000
 51
0.000000
  7
EASYDRAW_FONT
 72
     5
 11
2818.351074
 21
1987.883179
  0
TEXT
  8
CSLAYER1
 62
     3
 10
3153.351074
 20
1987.883179
 40
40.000000
 41
0.881250
  1
300
 50
0.000000
 51
0.000000
  7
EASYDRAW_FONT
 72
     5
 11
3247.351074
 21
1987.883179
  0
TEXT
  8
CSLAYER1
 62
     3
 10
3419.684326
 20
1987.883179
 40
40.000000
 41
0.930000
  1
ｍｍ
 50
0.000000
 51
0.000000
  7
EASYDRAW_FONT
 72
     5
 11
3481.684326
 21
1987.883179
  0
TEXT
  8
CSLAYER1
 62
     3
 10
3419.684326
 20
1774.549927
 40
40.000000
 41
0.930000
  1
ｋｇ
 50
0.000000
 51
0.000000
  7
EASYDRAW_FONT
 72
     5
 11
3481.684326
 21
1774.549927
  0
LINE
  8
CSLAYER1
  6
CONTINUOUS
 62
     5
 10
3495.017905
 20
2194.550062
 11
2615.017905
 21
2194.550062
  0
TEXT
  8
CSLAYER1
 62
     3
 10
2628.351074
 20
2201.216797
 40
40.000000
 41
0.838235
  1
テーブル寸法
 50
0.000000
 51
0.000000
  7
EASYDRAW_FONT
 72
     5
 11
2818.351074
 21
2201.216797
  0
TEXT
  8
CSLAYER1
 62
     3
 10
3419.684326
 20
2201.216797
 40
40.000000
 41
0.930000
  1
ｍｍ
 50
0.000000
 51
0.000000
  7
EASYDRAW_FONT
 72
     5
 11
3481.684326
 21
2201.216797
  0
TEXT
  8
CSLAYER1
 62
     3
 10
3057.351074
 20
2201.216797
 40
40.000000
 41
0.825000
  1
800L×250W
 50
0.000000
 51
0.000000
  7
EASYDRAW_FONT
 72
     5
 11
3343.351074
 21
2201.216797
  0
LINE
  8
CSLAYER1
  6
CONTINUOUS
 62
     5
 10
3495.017905
 20
2087.883395
 11
2615.017905
 21
2087.883395
  0
TEXT
  8
CSLAYER1
 62
     3
 10
3419.684326
 20
2094.550049
 40
40.000000
 41
0.930000
  1
ｍｍ
 50
0.000000
 51
0.000000
  7
EASYDRAW_FONT
 72
     5
 11
3481.684326
 21
2094.550049
  0
TEXT
  8
CSLAYER1
 62
     3
 10
3153.351074
 20
2094.550049
 40
40.000000
 41
0.881250
  1
500
 50
0.000000
 51
0.000000
  7
EASYDRAW_FONT
 72
     5
 11
3247.351074
 21
2094.550049
  0
TEXT
  8
CSLAYER1
 62
     3
 10
2630.183594
 20
2094.550049
 40
40.000000
 41
0.846429
  1
ストローク
 50
0.000000
 51
0.000000
  7
EASYDRAW_FONT
 72
     5
 11
2788.183594
 21
2094.550049
  0
LINE
  8
CSLAYER1
  6
CONTINUOUS
 62
     5
 10
3495.017905
 20
1927.883395
 11
2615.017905
 21
1927.883395
  0
TEXT
  8
CSLAYER1
 62
     3
 10
2628.351074
 20
1934.549927
 40
40.000000
 41
0.838235
  1
全    高
 50
0.000000
 51
0.000000
  7
EASYDRAW_FONT
 72
     5
 11
2818.351074
 21
1934.549927
  0
TEXT
  8
CSLAYER1
 62
     3
 10
3153.351074
 20
1934.549927
 40
40.000000
 41
0.881250
  1
 80
 50
0.000000
 51
0.000000
  7
EASYDRAW_FONT
 72
     5
 11
3247.351074
 21
1934.549927
  0
TEXT
  8
CSLAYER1
 62
     3
 10
3419.684326
 20
1934.549927
 40
40.000000
 41
0.930000
  1
ｍｍ
 50
0.000000
 51
0.000000
  7
EASYDRAW_FONT
 72
     5
 11
3481.684326
 21
1934.549927
  0
LINE
  8
CSLAYER1
  6
CONTINUOUS
 62
     5
 10
3495.017905
 20
1874.550062
 11
2615.017905
 21
1874.550062
  0
TEXT
  8
CSLAYER1
 62
     3
 10
2628.351074
 20
1881.216553
 40
40.000000
 41
0.846429
  1
リフト方式
 50
0.000000
 51
0.000000
  7
EASYDRAW_FONT
 72
     5
 11
2786.351074
 21
1881.216553
  0
TEXT
  8
CSLAYER1
 62
     3
 10
3121.351074
 20
1881.216553
 40
40.000000
 41
0.846429
  1
足踏油圧式
 50
0.000000
 51
0.000000
  7
EASYDRAW_FONT
 72
     5
 11
3279.351074
 21
1881.216553
  0
LINE
  8
CSLAYER1
  6
CONTINUOUS
 62
     5
 10
2919.017905
 20
1714.550059
 11
2919.017905
 21
2354.550062
  0
LINE
  8
CSLAYER1
  6
CONTINUOUS
 62
     3
 10
1424.958499
 20
2110.707719
 11
2224.958499
 21
2110.707719
  0
LINE
  8
CSLAYER1
  6
CONTINUOUS
 62
     3
 10
1424.958499
 20
1860.707719
 11
2224.958499
 21
1860.707719
  0
LINE
  8
CSLAYER1
  6
CONTINUOUS
 62
     3
 10
711.849672
 20
1429.327517
 11
711.849672
 21
1399.327517
  0
LINE
  8
CSLAYER1
  6
CONTINUOUS
 62
     3
 10
961.849672
 20
1429.327517
 11
961.849672
 21
1399.327517
  0
DIMENSION
  8
CSLAYER1
 62
     3
  2
*D0009
 10
961.849672
 20
1529.327517
 11
836.849731
 21
1539.327515
 13
711.849672
 23
1429.327517
 14
961.849672
 24
1429.327517
 70
1
  0
LINE
  8
CSLAYER1
  6
CONTINUOUS
 62
     3
 10
2643.800566
 20
867.763846
 11
2643.800566
 21
897.763846
  0
LINE
  8
CSLAYER1
  6
CONTINUOUS
 62
     3
 10
2893.800566
 20
867.763846
 11
2893.800566
 21
897.763846
  0
LINE
  8
CSLAYER1
  6
CENTER
 62
     5
 10
1293.708577
 20
2015.707719
 11
1425.258499
 21
2015.707719
  0
LINE
  8
CSLAYER1
  6
CONTINUOUS
 62
     3
 10
1293.708577
 20
2019.857719
 11
1424.958499
 21
2019.857719
  0
LINE
  8
CSLAYER1
  6
CONTINUOUS
 62
     3
 10
1293.708577
 20
2011.557719
 11
1424.958499
 21
2011.557719
  0
TEXT
  8
CSLAYER1
 62
     3
 10
3451.684326
 20
1827.883301
 40
40.000000
 41
1.125000
  1
回
 50
0.000000
 51
0.000000
  7
EASYDRAW_FONT
 72
     5
 11
3481.684326
 21
1827.883301
  0
LINE
  8
CSLAYER2
  6
CONTINUOUS
 62
     5
 10
246.444594
 20
1690.440473
 11
246.444594
 21
2394.550062
  0
LINE
  8
CSLAYER2
  6
CONTINUOUS
 62
     5
 10
1047.738725
 20
2394.550062
 11
246.444594
 21
2394.550062
  0
LINE
  8
CSLAYER1
  6
CONTINUOUS
 62
     3
 10
1422.258499
 20
1911.207719
 11
1424.958499
 21
1911.207719
  0
INSERT
  8
CSLAYER1
  2
BLKF0008
 10
0.0
 20
0.0
 30
0.0
  0
INSERT
  8
CSLAYER1
  2
BLKF0009
 10
0.0
 20
0.0
 30
0.0
  0
INSERT
  8
CSLAYER1
  2
BLKF0010
 10
0.0
 20
0.0
 30
0.0
  0
LINE
  8
CSLAYER1
  6
CONTINUOUS
 62
     7
 10
675.591697
 20
1832.967851
 11
803.117994
 21
1974.988612
  0
LINE
  8
CSLAYER1
  6
CONTINUOUS
 62
     7
 10
452.415805
 20
1920.785870
 11
637.787576
 21
1989.824849
  0
LINE
  8
CSLAYER1
  6
CONTINUOUS
 62
     7
 10
457.481386
 20
1906.831137
 11
676.944043
 21
1988.566763
  0
LINE
  8
CSLAYER1
  6
CONTINUOUS
 62
     7
 10
663.984930
 20
1842.859739
 11
755.746815
 21
1945.051154
  0
LINE
  8
CSLAYER1
  6
CONTINUOUS
 62
     7
 10
786.261946
 20
2122.102133
 11
786.261946
 21
2016.705876
  0
LINE
  8
CSLAYER1
  6
CONTINUOUS
 62
     7
 10
786.261946
 20
2122.102133
 11
666.281992
 21
2165.771265
  0
LINE
  8
CSLAYER1
  6
CONTINUOUS
 62
     7
 10
757.767530
 20
1938.411441
 11
786.261946
 21
1956.216729
  0
LINE
  8
CSLAYER1
  6
CONTINUOUS
 62
     7
 10
757.767530
 20
2104.296846
 11
757.767530
 21
1938.411441
  0
LINE
  8
CSLAYER1
  6
CONTINUOUS
 62
     7
 10
757.767530
 20
2104.296846
 11
786.261946
 21
2122.102133
  0
LINE
  8
CSLAYER1
  6
CONTINUOUS
 62
     7
 10
666.676137
 20
2162.021228
 11
666.676137
 21
2127.195190
  0
LINE
  8
CSLAYER1
  6
CONTINUOUS
 62
     7
 10
637.787576
 20
2147.965978
 11
666.281992
 21
2165.771265
  0
LINE
  8
CSLAYER1
  6
CONTINUOUS
 62
     7
 10
757.767530
 20
1938.411441
 11
755.746815
 21
1939.146921
  0
LINE
  8
CSLAYER1
  6
CONTINUOUS
 62
     7
 10
755.746815
 20
1963.350489
 11
686.335517
 21
1988.614135
  0
LINE
  8
CSLAYER1
  6
CONTINUOUS
 62
     7
 10
782.417588
 20
2121.698075
 11
666.479065
 21
2163.896247
  0
LINE
  8
CSLAYER1
  6
CONTINUOUS
 62
     7
 10
715.610461
 20
2079.952349
 11
782.417588
 21
2121.698075
  0
LINE
  8
CSLAYER1
  6
CONTINUOUS
 62
     7
 10
757.767530
 20
2104.296846
 11
755.746815
 21
2105.032326
  0
LINE
  8
CSLAYER1
  6
CONTINUOUS
 62
     7
 10
755.746815
 20
2105.032326
 11
755.746815
 21
1963.350489
  0
LINE
  8
CSLAYER1
  6
CONTINUOUS
 62
     7
 10
637.787576
 20
2147.965978
 11
637.787576
 21
2145.967815
  0
LINE
  8
CSLAYER1
  6
CONTINUOUS
 62
     7
 10
637.787576
 20
2147.965978
 11
666.281992
 21
2165.771265
  0
LINE
  8
CSLAYER1
  6
CONTINUOUS
 62
     7
 10
639.808291
 20
2147.230498
 11
666.479065
 21
2163.896247
  0
LINE
  8
CSLAYER1
  6
CONTINUOUS
 62
     7
 10
639.808291
 20
2147.230498
 11
637.787576
 21
2147.965978
  0
LINE
  8
CSLAYER1
  6
CONTINUOUS
 62
     7
 10
639.808291
 20
1979.175544
 11
656.261498
 21
1989.456649
  0
LINE
  8
CSLAYER1
  6
CONTINUOUS
 62
     7
 10
713.589746
 20
2080.687829
 11
778.573231
 21
2121.294017
  0
LINE
  8
CSLAYER1
  6
CONTINUOUS
 62
     7
 10
712.010275
 20
2077.838387
 11
712.010275
 21
2010.752631
  0
LINE
  8
CSLAYER1
  6
CONTINUOUS
 62
     7
 10
714.030990
 20
2077.102907
 11
714.030990
 21
2011.106986
  0
LINE
  8
CSLAYER1
  6
CONTINUOUS
 62
     7
 10
778.573231
 20
2121.294017
 11
761.649742
 21
2127.453663
  0
LINE
  8
CSLAYER1
  6
CONTINUOUS
 62
     7
 10
712.010275
 20
2079.158506
 11
602.962623
 21
2118.848606
  0
LINE
  8
CSLAYER1
  6
CONTINUOUS
 62
     7
 10
712.010275
 20
2011.958506
 11
678.530062
 21
2024.144307
  0
LINE
  8
CSLAYER1
  6
CONTINUOUS
 62
     7
 10
603.272124
 20
2122.402004
 11
666.676137
 21
2162.021228
  0
LINE
  8
CSLAYER1
  6
CONTINUOUS
 62
     7
 10
601.251409
 20
2123.137484
 11
637.787576
 21
2145.967815
  0
LINE
  8
CSLAYER1
  6
CONTINUOUS
 62
     7
 10
598.092466
 20
2117.438601
 11
598.092466
 21
2051.583519
  0
LINE
  8
CSLAYER1
  6
CONTINUOUS
 62
     7
 10
600.113181
 20
2116.703120
 11
600.113181
 21
2052.569678
  0
LINE
  8
CSLAYER1
  6
CONTINUOUS
 62
     7
 10
602.962623
 20
2118.848606
 11
602.962623
 21
2051.648606
  0
LINE
  8
CSLAYER1
  6
CONTINUOUS
 62
     7
 10
602.962623
 20
2118.848606
 11
634.854961
 21
2138.777151
  0
LINE
  8
CSLAYER1
  6
CONTINUOUS
 62
     7
 10
743.354132
 20
2099.286682
 11
634.854961
 21
2138.777151
  0
LINE
  8
CSLAYER1
  6
CONTINUOUS
 62
     7
 10
719.171519
 20
2008.257545
 11
755.746815
 21
2031.112326
  0
LINE
  8
CSLAYER1
  6
CONTINUOUS
 62
     7
 10
716.012999
 20
2008.043494
 11
712.957573
 21
2009.155578
  0
LINE
  8
CSLAYER1
  6
CONTINUOUS
 62
     7
 10
662.029076
 20
1987.357422
 11
639.070102
 21
1995.713805
  0
LINE
  8
CSLAYER1
  6
CONTINUOUS
 62
     7
 10
662.029076
 20
1987.357422
 11
665.925755
 21
1989.792337
  0
LINE
  8
CSLAYER1
  6
CONTINUOUS
 62
     7
 10
646.130985
 20
2033.990237
 11
647.416137
 21
2034.793289
  0
LINE
  8
CSLAYER1
  6
CONTINUOUS
 62
     7
 10
653.973101
 20
2021.172294
 11
655.378661
 21
2022.050586
  0
LINE
  8
CSLAYER1
  6
CONTINUOUS
 62
     7
 10
647.416137
 20
2034.793289
 11
647.749793
 21
2034.968069
  0
LINE
  8
CSLAYER1
  6
CONTINUOUS
 62
     7
 10
647.749793
 20
2034.968069
 11
648.111211
 21
2035.093029
  0
LINE
  8
CSLAYER1
  6
CONTINUOUS
 62
     7
 10
648.111211
 20
2035.093029
 11
648.497638
 21
2035.167218
  0
LINE
  8
CSLAYER1
  6
CONTINUOUS
 62
     7
 10
648.497638
 20
2035.167218
 11
648.906134
 21
2035.190072
  0
LINE
  8
CSLAYER1
  6
CONTINUOUS
 62
     7
 10
648.906134
 20
2035.190072
 11
649.333590
 21
2035.161416
  0
LINE
  8
CSLAYER1
  6
CONTINUOUS
 62
     7
 10
649.333590
 20
2035.161416
 11
649.776753
 21
2035.081468
  0
LINE
  8
CSLAYER1
  6
CONTINUOUS
 62
     7
 10
649.776753
 20
2035.081468
 11
650.232250
 21
2034.950838
  0
LINE
  8
CSLAYER1
  6
CONTINUOUS
 62
     7
 10
650.232250
 20
2034.950838
 11
650.696615
 21
2034.770518
  0
LINE
  8
CSLAYER1
  6
CONTINUOUS
 62
     7
 10
650.696615
 20
2034.770518
 11
651.166313
 21
2034.541882
  0
LINE
  8
CSLAYER1
  6
CONTINUOUS
 62
     7
 10
651.166313
 20
2034.541882
 11
651.637769
 21
2034.266670
  0
LINE
  8
CSLAYER1
  6
CONTINUOUS
 62
     7
 10
651.637769
 20
2034.266670
 11
652.107397
 21
2033.946976
  0
LINE
  8
CSLAYER1
  6
CONTINUOUS
 62
     7
 10
652.107397
 20
2033.946976
 11
652.571620
 21
2033.585232
  0
LINE
  8
CSLAYER1
  6
CONTINUOUS
 62
     7
 10
652.571620
 20
2033.585232
 11
653.026908
 21
2033.184193
  0
LINE
  8
CSLAYER1
  6
CONTINUOUS
 62
     7
 10
653.026908
 20
2033.184193
 11
653.469793
 21
2032.746911
  0
LINE
  8
CSLAYER1
  6
CONTINUOUS
 62
     7
 10
653.469793
 20
2032.746911
 11
653.896907
 21
2032.276712
  0
LINE
  8
CSLAYER1
  6
CONTINUOUS
 62
     7
 10
653.896907
 20
2032.276712
 11
654.304998
 21
2031.777177
  0
LINE
  8
CSLAYER1
  6
CONTINUOUS
 62
     7
 10
654.304998
 20
2031.777177
 11
654.690960
 21
2031.252106
  0
LINE
  8
CSLAYER1
  6
CONTINUOUS
 62
     7
 10
654.690960
 20
2031.252106
 11
655.051856
 21
2030.705495
  0
LINE
  8
CSLAYER1
  6
CONTINUOUS
 62
     7
 10
655.051856
 20
2030.705495
 11
655.384939
 21
2030.141506
  0
LINE
  8
CSLAYER1
  6
CONTINUOUS
 62
     7
 10
655.384939
 20
2030.141506
 11
655.687675
 21
2029.564429
  0
LINE
  8
CSLAYER1
  6
CONTINUOUS
 62
     7
 10
655.687675
 20
2029.564429
 11
655.957760
 21
2028.978658
  0
LINE
  8
CSLAYER1
  6
CONTINUOUS
 62
     7
 10
655.957760
 20
2028.978658
 11
656.193137
 21
2028.388649
  0
LINE
  8
CSLAYER1
  6
CONTINUOUS
 62
     7
 10
656.193137
 20
2028.388649
 11
656.392016
 21
2027.798894
  0
LINE
  8
CSLAYER1
  6
CONTINUOUS
 62
     7
 10
656.392016
 20
2027.798894
 11
656.552883
 21
2027.213881
  0
LINE
  8
CSLAYER1
  6
CONTINUOUS
 62
     7
 10
656.552883
 20
2027.213881
 11
656.674513
 21
2026.638062
  0
LINE
  8
CSLAYER1
  6
CONTINUOUS
 62
     7
 10
656.674513
 20
2026.638062
 11
656.755981
 21
2026.075819
  0
LINE
  8
CSLAYER1
  6
CONTINUOUS
 62
     7
 10
656.755981
 20
2026.075819
 11
656.796668
 21
2025.531431
  0
LINE
  8
CSLAYER1
  6
CONTINUOUS
 62
     7
 10
656.796668
 20
2025.531431
 11
656.796262
 21
2025.009042
  0
LINE
  8
CSLAYER1
  6
CONTINUOUS
 62
     7
 10
656.796262
 20
2025.009042
 11
656.754768
 21
2024.512627
  0
LINE
  8
CSLAYER1
  6
CONTINUOUS
 62
     7
 10
656.754768
 20
2024.512627
 11
656.672502
 21
2024.045964
  0
LINE
  8
CSLAYER1
  6
CONTINUOUS
 62
     7
 10
656.672502
 20
2024.045964
 11
656.550088
 21
2023.612605
  0
LINE
  8
CSLAYER1
  6
CONTINUOUS
 62
     7
 10
656.550088
 20
2023.612605
 11
656.388460
 21
2023.215848
  0
LINE
  8
CSLAYER1
  6
CONTINUOUS
 62
     7
 10
656.388460
 20
2023.215848
 11
656.188846
 21
2022.858713
  0
LINE
  8
CSLAYER1
  6
CONTINUOUS
 62
     7
 10
656.188846
 20
2022.858713
 11
655.952767
 21
2022.543917
  0
LINE
  8
CSLAYER1
  6
CONTINUOUS
 62
     7
 10
655.952767
 20
2022.543917
 11
655.682018
 21
2022.273856
  0
LINE
  8
CSLAYER1
  6
CONTINUOUS
 62
     7
 10
655.682018
 20
2022.273856
 11
655.378661
 21
2022.050586
  0
LINE
  8
CSLAYER1
  6
CONTINUOUS
 62
     7
 10
646.146880
 20
2033.986397
 11
646.344233
 21
2034.089777
  0
LINE
  8
CSLAYER1
  6
CONTINUOUS
 62
     7
 10
646.344233
 20
2034.089777
 11
646.705650
 21
2034.214738
  0
LINE
  8
CSLAYER1
  6
CONTINUOUS
 62
     7
 10
646.705650
 20
2034.214738
 11
647.092078
 21
2034.288927
  0
LINE
  8
CSLAYER1
  6
CONTINUOUS
 62
     7
 10
647.092078
 20
2034.288927
 11
647.500574
 21
2034.311780
  0
LINE
  8
CSLAYER1
  6
CONTINUOUS
 62
     7
 10
647.500574
 20
2034.311780
 11
647.928030
 21
2034.283124
  0
LINE
  8
CSLAYER1
  6
CONTINUOUS
 62
     7
 10
647.928030
 20
2034.283124
 11
648.371193
 21
2034.203177
  0
LINE
  8
CSLAYER1
  6
CONTINUOUS
 62
     7
 10
648.371193
 20
2034.203177
 11
648.826690
 21
2034.072546
  0
LINE
  8
CSLAYER1
  6
CONTINUOUS
 62
     7
 10
648.826690
 20
2034.072546
 11
649.291054
 21
2033.892227
  0
LINE
  8
CSLAYER1
  6
CONTINUOUS
 62
     7
 10
649.291054
 20
2033.892227
 11
649.760752
 21
2033.663591
  0
LINE
  8
CSLAYER1
  6
CONTINUOUS
 62
     7
 10
649.760752
 20
2033.663591
 11
650.232209
 21
2033.388378
  0
LINE
  8
CSLAYER1
  6
CONTINUOUS
 62
     7
 10
650.232209
 20
2033.388378
 11
650.701836
 21
2033.068684
  0
LINE
  8
CSLAYER1
  6
CONTINUOUS
 62
     7
 10
650.701836
 20
2033.068684
 11
651.166060
 21
2032.706941
  0
LINE
  8
CSLAYER1
  6
CONTINUOUS
 62
     7
 10
655.350421
 20
2025.197527
 11
655.391107
 21
2024.653139
  0
LINE
  8
CSLAYER1
  6
CONTINUOUS
 62
     7
 10
655.391107
 20
2024.653139
 11
655.390702
 21
2024.130750
  0
LINE
  8
CSLAYER1
  6
CONTINUOUS
 62
     7
 10
655.390702
 20
2024.130750
 11
655.349208
 21
2023.634335
  0
LINE
  8
CSLAYER1
  6
CONTINUOUS
 62
     7
 10
655.349208
 20
2023.634335
 11
655.266941
 21
2023.167672
  0
LINE
  8
CSLAYER1
  6
CONTINUOUS
 62
     7
 10
655.266941
 20
2023.167672
 11
655.144528
 21
2022.734314
  0
LINE
  8
CSLAYER1
  6
CONTINUOUS
 62
     7
 10
655.144528
 20
2022.734314
 11
654.982899
 21
2022.337557
  0
LINE
  8
CSLAYER1
  6
CONTINUOUS
 62
     7
 10
654.982899
 20
2022.337557
 11
654.783286
 21
2021.980421
  0
LINE
  8
CSLAYER1
  6
CONTINUOUS
 62
     7
 10
654.783286
 20
2021.980421
 11
654.547206
 21
2021.665625
  0
LINE
  8
CSLAYER1
  6
CONTINUOUS
 62
     7
 10
654.547206
 20
2021.665625
 11
654.276458
 21
2021.395564
  0
LINE
  8
CSLAYER1
  6
CONTINUOUS
 62
     7
 10
654.276458
 20
2021.395564
 11
653.973101
 21
2021.172294
  0
LINE
  8
CSLAYER1
  6
CONTINUOUS
 62
     7
 10
639.808291
 20
1979.175544
 11
637.787576
 21
1979.911024
  0
LINE
  8
CSLAYER1
  6
CONTINUOUS
 62
     7
 10
639.808291
 20
1995.445126
 11
639.808291
 21
1979.175544
  0
LINE
  8
CSLAYER1
  6
CONTINUOUS
 62
     7
 10
637.787576
 20
1990.407261
 11
637.787576
 21
1989.824849
  0
LINE
  8
CSLAYER1
  6
CONTINUOUS
 62
     7
 10
619.414086
 20
2105.215786
 11
619.622994
 21
2105.325219
  0
LINE
  8
CSLAYER1
  6
CONTINUOUS
 62
     7
 10
619.622994
 20
2105.325219
 11
619.849284
 21
2105.403459
  0
LINE
  8
CSLAYER1
  6
CONTINUOUS
 62
     7
 10
619.849284
 20
2105.403459
 11
620.091233
 21
2105.449910
  0
LINE
  8
CSLAYER1
  6
CONTINUOUS
 62
     7
 10
620.091233
 20
2105.449910
 11
620.347000
 21
2105.464219
  0
LINE
  8
CSLAYER1
  6
CONTINUOUS
 62
     7
 10
620.347000
 20
2105.464219
 11
620.614638
 21
2105.446277
  0
LINE
  8
CSLAYER1
  6
CONTINUOUS
 62
     7
 10
620.614638
 20
2105.446277
 11
620.892110
 21
2105.396221
  0
LINE
  8
CSLAYER1
  6
CONTINUOUS
 62
     7
 10
620.892110
 20
2105.396221
 11
621.177305
 21
2105.314431
  0
LINE
  8
CSLAYER1
  6
CONTINUOUS
 62
     7
 10
621.177305
 20
2105.314431
 11
621.468052
 21
2105.201529
  0
LINE
  8
CSLAYER1
  6
CONTINUOUS
 62
     7
 10
621.468052
 20
2105.201529
 11
621.762139
 21
2105.058376
  0
LINE
  8
CSLAYER1
  6
CONTINUOUS
 62
     7
 10
621.762139
 20
2105.058376
 11
622.057326
 21
2104.886061
  0
LINE
  8
CSLAYER1
  6
CONTINUOUS
 62
     7
 10
622.057326
 20
2104.886061
 11
622.351368
 21
2104.685894
  0
LINE
  8
CSLAYER1
  6
CONTINUOUS
 62
     7
 10
622.351368
 20
2104.685894
 11
622.642027
 21
2104.459400
  0
LINE
  8
CSLAYER1
  6
CONTINUOUS
 62
     7
 10
622.642027
 20
2104.459400
 11
622.927091
 21
2104.208302
  0
LINE
  8
CSLAYER1
  6
CONTINUOUS
 62
     7
 10
622.927091
 20
2104.208302
 11
623.204389
 21
2103.934512
  0
LINE
  8
CSLAYER1
  6
CONTINUOUS
 62
     7
 10
623.204389
 20
2103.934512
 11
623.471813
 21
2103.640112
  0
LINE
  8
CSLAYER1
  6
CONTINUOUS
 62
     7
 10
623.471813
 20
2103.640112
 11
623.727326
 21
2103.327344
  0
LINE
  8
CSLAYER1
  6
CONTINUOUS
 62
     7
 10
623.727326
 20
2103.327344
 11
623.968984
 21
2102.998588
  0
LINE
  8
CSLAYER1
  6
CONTINUOUS
 62
     7
 10
623.968984
 20
2102.998588
 11
624.194947
 21
2102.656345
  0
LINE
  8
CSLAYER1
  6
CONTINUOUS
 62
     7
 10
624.194947
 20
2102.656345
 11
624.403497
 21
2102.303221
  0
LINE
  8
CSLAYER1
  6
CONTINUOUS
 62
     7
 10
624.403497
 20
2102.303221
 11
624.593046
 21
2101.941903
  0
LINE
  8
CSLAYER1
  6
CONTINUOUS
 62
     7
 10
624.593046
 20
2101.941903
 11
624.762150
 21
2101.575141
  0
LINE
  8
CSLAYER1
  6
CONTINUOUS
 62
     7
 10
624.762150
 20
2101.575141
 11
624.909524
 21
2101.205726
  0
LINE
  8
CSLAYER1
  6
CONTINUOUS
 62
     7
 10
624.909524
 20
2101.205726
 11
625.034046
 21
2100.836470
  0
LINE
  8
CSLAYER1
  6
CONTINUOUS
 62
     7
 10
625.034046
 20
2100.836470
 11
625.134767
 21
2100.470182
  0
LINE
  8
CSLAYER1
  6
CONTINUOUS
 62
     7
 10
625.134767
 20
2100.470182
 11
625.210922
 21
2100.109651
  0
LINE
  8
CSLAYER1
  6
CONTINUOUS
 62
     7
 10
625.210922
 20
2100.109651
 11
625.261931
 21
2099.757621
  0
LINE
  8
CSLAYER1
  6
CONTINUOUS
 62
     7
 10
625.261931
 20
2099.757621
 11
625.287406
 21
2099.416770
  0
LINE
  8
CSLAYER1
  6
CONTINUOUS
 62
     7
 10
625.287406
 20
2099.416770
 11
625.287152
 21
2099.089692
  0
LINE
  8
CSLAYER1
  6
CONTINUOUS
 62
     7
 10
625.287152
 20
2099.089692
 11
625.261172
 21
2098.778878
  0
LINE
  8
CSLAYER1
  6
CONTINUOUS
 62
     7
 10
625.261172
 20
2098.778878
 11
625.209663
 21
2098.486692
  0
LINE
  8
CSLAYER1
  6
CONTINUOUS
 62
     7
 10
625.209663
 20
2098.486692
 11
625.133018
 21
2098.215358
  0
LINE
  8
CSLAYER1
  6
CONTINUOUS
 62
     7
 10
625.133018
 20
2098.215358
 11
625.031819
 21
2097.966942
  0
LINE
  8
CSLAYER1
  6
CONTINUOUS
 62
     7
 10
625.031819
 20
2097.966942
 11
624.906837
 21
2097.743333
  0
LINE
  8
CSLAYER1
  6
CONTINUOUS
 62
     7
 10
624.906837
 20
2097.743333
 11
624.759024
 21
2097.546233
  0
LINE
  8
CSLAYER1
  6
CONTINUOUS
 62
     7
 10
624.759024
 20
2097.546233
 11
624.589503
 21
2097.377143
  0
LINE
  8
CSLAYER1
  6
CONTINUOUS
 62
     7
 10
624.589503
 20
2097.377143
 11
624.399566
 21
2097.237350
  0
LINE
  8
CSLAYER1
  6
CONTINUOUS
 62
     7
 10
624.399566
 20
2097.237350
 11
624.190658
 21
2097.127917
  0
LINE
  8
CSLAYER1
  6
CONTINUOUS
 62
     7
 10
624.190658
 20
2097.127917
 11
623.964368
 21
2097.049677
  0
LINE
  8
CSLAYER1
  6
CONTINUOUS
 62
     7
 10
623.964368
 20
2097.049677
 11
623.722419
 21
2097.003225
  0
LINE
  8
CSLAYER1
  6
CONTINUOUS
 62
     7
 10
623.722419
 20
2097.003225
 11
623.466652
 21
2096.988916
  0
LINE
  8
CSLAYER1
  6
CONTINUOUS
 62
     7
 10
623.466652
 20
2096.988916
 11
623.199014
 21
2097.006858
  0
LINE
  8
CSLAYER1
  6
CONTINUOUS
 62
     7
 10
623.199014
 20
2097.006858
 11
622.921541
 21
2097.056915
  0
LINE
  8
CSLAYER1
  6
CONTINUOUS
 62
     7
 10
622.921541
 20
2097.056915
 11
622.636347
 21
2097.138705
  0
LINE
  8
CSLAYER1
  6
CONTINUOUS
 62
     7
 10
622.636347
 20
2097.138705
 11
622.345599
 21
2097.251606
  0
LINE
  8
CSLAYER1
  6
CONTINUOUS
 62
     7
 10
622.345599
 20
2097.251606
 11
622.051513
 21
2097.394760
  0
LINE
  8
CSLAYER1
  6
CONTINUOUS
 62
     7
 10
622.051513
 20
2097.394760
 11
621.756326
 21
2097.567075
  0
LINE
  8
CSLAYER1
  6
CONTINUOUS
 62
     7
 10
621.756326
 20
2097.567075
 11
621.462283
 21
2097.767242
  0
LINE
  8
CSLAYER1
  6
CONTINUOUS
 62
     7
 10
621.462283
 20
2097.767242
 11
621.171625
 21
2097.993736
  0
LINE
  8
CSLAYER1
  6
CONTINUOUS
 62
     7
 10
621.171625
 20
2097.993736
 11
620.886561
 21
2098.244833
  0
LINE
  8
CSLAYER1
  6
CONTINUOUS
 62
     7
 10
620.886561
 20
2098.244833
 11
620.609262
 21
2098.518624
  0
LINE
  8
CSLAYER1
  6
CONTINUOUS
 62
     7
 10
620.609262
 20
2098.518624
 11
620.341839
 21
2098.813024
  0
LINE
  8
CSLAYER1
  6
CONTINUOUS
 62
     7
 10
620.341839
 20
2098.813024
 11
620.086326
 21
2099.125792
  0
LINE
  8
CSLAYER1
  6
CONTINUOUS
 62
     7
 10
620.086326
 20
2099.125792
 11
619.844668
 21
2099.454548
  0
LINE
  8
CSLAYER1
  6
CONTINUOUS
 62
     7
 10
619.844668
 20
2099.454548
 11
619.618704
 21
2099.796791
  0
LINE
  8
CSLAYER1
  6
CONTINUOUS
 62
     7
 10
619.618704
 20
2099.796791
 11
619.410155
 21
2100.149915
  0
LINE
  8
CSLAYER1
  6
CONTINUOUS
 62
     7
 10
619.410155
 20
2100.149915
 11
619.220606
 21
2100.511233
  0
LINE
  8
CSLAYER1
  6
CONTINUOUS
 62
     7
 10
619.220606
 20
2100.511233
 11
619.051502
 21
2100.877995
  0
LINE
  8
CSLAYER1
  6
CONTINUOUS
 62
     7
 10
619.051502
 20
2100.877995
 11
618.904128
 21
2101.247410
  0
LINE
  8
CSLAYER1
  6
CONTINUOUS
 62
     7
 10
618.904128
 20
2101.247410
 11
618.779606
 21
2101.616666
  0
LINE
  8
CSLAYER1
  6
CONTINUOUS
 62
     7
 10
618.779606
 20
2101.616666
 11
618.678884
 21
2101.982954
  0
LINE
  8
CSLAYER1
  6
CONTINUOUS
 62
     7
 10
618.678884
 20
2101.982954
 11
618.602729
 21
2102.343485
  0
LINE
  8
CSLAYER1
  6
CONTINUOUS
 62
     7
 10
618.602729
 20
2102.343485
 11
618.551721
 21
2102.695515
  0
LINE
  8
CSLAYER1
  6
CONTINUOUS
 62
     7
 10
618.551721
 20
2102.695515
 11
618.526246
 21
2103.036366
  0
LINE
  8
CSLAYER1
  6
CONTINUOUS
 62
     7
 10
618.526246
 20
2103.036366
 11
618.526500
 21
2103.363443
  0
LINE
  8
CSLAYER1
  6
CONTINUOUS
 62
     7
 10
618.526500
 20
2103.363443
 11
618.552480
 21
2103.674258
  0
LINE
  8
CSLAYER1
  6
CONTINUOUS
 62
     7
 10
618.552480
 20
2103.674258
 11
618.603989
 21
2103.966444
  0
LINE
  8
CSLAYER1
  6
CONTINUOUS
 62
     7
 10
618.603989
 20
2103.966444
 11
618.680634
 21
2104.237778
  0
LINE
  8
CSLAYER1
  6
CONTINUOUS
 62
     7
 10
618.680634
 20
2104.237778
 11
618.781833
 21
2104.486194
  0
LINE
  8
CSLAYER1
  6
CONTINUOUS
 62
     7
 10
618.781833
 20
2104.486194
 11
618.906814
 21
2104.709803
  0
LINE
  8
CSLAYER1
  6
CONTINUOUS
 62
     7
 10
618.906814
 20
2104.709803
 11
619.054628
 21
2104.906903
  0
LINE
  8
CSLAYER1
  6
CONTINUOUS
 62
     7
 10
619.054628
 20
2104.906903
 11
619.224148
 21
2105.075993
  0
LINE
  8
CSLAYER1
  6
CONTINUOUS
 62
     7
 10
619.224148
 20
2105.075993
 11
619.414086
 21
2105.215786
  0
LINE
  8
CSLAYER1
  6
CONTINUOUS
 62
     7
 10
685.423268
 20
2157.001121
 11
685.423268
 21
2120.371792
  0
LINE
  8
CSLAYER1
  6
CONTINUOUS
 62
     7
 10
683.599625
 20
2155.861582
 11
685.423268
 21
2157.001121
  0
LINE
  8
CSLAYER1
  6
CONTINUOUS
 62
     7
 10
683.599625
 20
2155.861582
 11
683.599625
 21
2121.035544
  0
LINE
  8
CSLAYER1
  6
CONTINUOUS
 62
     7
 10
683.599625
 20
2155.861582
 11
666.676137
 21
2162.021228
  0
LINE
  8
CSLAYER1
  6
CONTINUOUS
 62
     7
 10
761.649742
 20
2127.453663
 11
763.473385
 21
2128.593201
  0
LINE
  8
CSLAYER1
  6
CONTINUOUS
 62
     7
 10
761.649742
 20
2127.453663
 11
761.649742
 21
2110.719048
  0
LINE
  8
CSLAYER1
  6
CONTINUOUS
 62
     7
 10
672.162539
 20
2150.822216
 11
672.386369
 21
2150.939466
  0
LINE
  8
CSLAYER1
  6
CONTINUOUS
 62
     7
 10
672.386369
 20
2150.939466
 11
672.628823
 21
2151.023294
  0
LINE
  8
CSLAYER1
  6
CONTINUOUS
 62
     7
 10
672.628823
 20
2151.023294
 11
672.888054
 21
2151.073063
  0
LINE
  8
CSLAYER1
  6
CONTINUOUS
 62
     7
 10
672.888054
 20
2151.073063
 11
673.162090
 21
2151.088395
  0
LINE
  8
CSLAYER1
  6
CONTINUOUS
 62
     7
 10
673.162090
 20
2151.088395
 11
673.448845
 21
2151.069171
  0
LINE
  8
CSLAYER1
  6
CONTINUOUS
 62
     7
 10
673.448845
 20
2151.069171
 11
673.746137
 21
2151.015539
  0
LINE
  8
CSLAYER1
  6
CONTINUOUS
 62
     7
 10
673.746137
 20
2151.015539
 11
674.051703
 21
2150.927907
  0
LINE
  8
CSLAYER1
  6
CONTINUOUS
 62
     7
 10
674.051703
 20
2150.927907
 11
674.363217
 21
2150.806941
  0
LINE
  8
CSLAYER1
  6
CONTINUOUS
 62
     7
 10
674.363217
 20
2150.806941
 11
674.678310
 21
2150.653563
  0
LINE
  8
CSLAYER1
  6
CONTINUOUS
 62
     7
 10
674.678310
 20
2150.653563
 11
674.994582
 21
2150.468939
  0
LINE
  8
CSLAYER1
  6
CONTINUOUS
 62
     7
 10
674.994582
 20
2150.468939
 11
675.309627
 21
2150.254475
  0
LINE
  8
CSLAYER1
  6
CONTINUOUS
 62
     7
 10
675.309627
 20
2150.254475
 11
675.621048
 21
2150.011803
  0
LINE
  8
CSLAYER1
  6
CONTINUOUS
 62
     7
 10
675.621048
 20
2150.011803
 11
675.926473
 21
2149.742769
  0
LINE
  8
CSLAYER1
  6
CONTINUOUS
 62
     7
 10
675.926473
 20
2149.742769
 11
676.223579
 21
2149.449422
  0
LINE
  8
CSLAYER1
  6
CONTINUOUS
 62
     7
 10
676.223579
 20
2149.449422
 11
676.510104
 21
2149.133994
  0
LINE
  8
CSLAYER1
  6
CONTINUOUS
 62
     7
 10
676.510104
 20
2149.133994
 11
676.783868
 21
2148.798885
  0
LINE
  8
CSLAYER1
  6
CONTINUOUS
 62
     7
 10
676.783868
 20
2148.798885
 11
677.042787
 21
2148.446646
  0
LINE
  8
CSLAYER1
  6
CONTINUOUS
 62
     7
 10
677.042787
 20
2148.446646
 11
677.284891
 21
2148.079958
  0
LINE
  8
CSLAYER1
  6
CONTINUOUS
 62
     7
 10
677.284891
 20
2148.079958
 11
677.508337
 21
2147.701611
  0
LINE
  8
CSLAYER1
  6
CONTINUOUS
 62
     7
 10
677.508337
 20
2147.701611
 11
677.711424
 21
2147.314484
  0
LINE
  8
CSLAYER1
  6
CONTINUOUS
 62
     7
 10
677.711424
 20
2147.314484
 11
677.892608
 21
2146.921525
  0
LINE
  8
CSLAYER1
  6
CONTINUOUS
 62
     7
 10
677.892608
 20
2146.921525
 11
678.050509
 21
2146.525723
  0
LINE
  8
CSLAYER1
  6
CONTINUOUS
 62
     7
 10
678.050509
 20
2146.525723
 11
678.183925
 21
2146.130091
  0
LINE
  8
CSLAYER1
  6
CONTINUOUS
 62
     7
 10
678.183925
 20
2146.130091
 11
678.291841
 21
2145.737640
  0
LINE
  8
CSLAYER1
  6
CONTINUOUS
 62
     7
 10
678.291841
 20
2145.737640
 11
678.373435
 21
2145.351357
  0
LINE
  8
CSLAYER1
  6
CONTINUOUS
 62
     7
 10
678.373435
 20
2145.351357
 11
678.428088
 21
2144.974182
  0
LINE
  8
CSLAYER1
  6
CONTINUOUS
 62
     7
 10
678.428088
 20
2144.974182
 11
678.455382
 21
2144.608984
  0
LINE
  8
CSLAYER1
  6
CONTINUOUS
 62
     7
 10
678.455382
 20
2144.608984
 11
678.455110
 21
2144.258544
  0
LINE
  8
CSLAYER1
  6
CONTINUOUS
 62
     7
 10
678.455110
 20
2144.258544
 11
678.427274
 21
2143.925529
  0
LINE
  8
CSLAYER1
  6
CONTINUOUS
 62
     7
 10
678.427274
 20
2143.925529
 11
678.372086
 21
2143.612472
  0
LINE
  8
CSLAYER1
  6
CONTINUOUS
 62
     7
 10
678.372086
 20
2143.612472
 11
678.289966
 21
2143.321758
  0
LINE
  8
CSLAYER1
  6
CONTINUOUS
 62
     7
 10
678.289966
 20
2143.321758
 11
678.181539
 21
2143.055597
  0
LINE
  8
CSLAYER1
  6
CONTINUOUS
 62
     7
 10
678.181539
 20
2143.055597
 11
678.047630
 21
2142.816016
  0
LINE
  8
CSLAYER1
  6
CONTINUOUS
 62
     7
 10
678.047630
 20
2142.816016
 11
677.889258
 21
2142.604838
  0
LINE
  8
CSLAYER1
  6
CONTINUOUS
 62
     7
 10
677.889258
 20
2142.604838
 11
677.707629
 21
2142.423670
  0
LINE
  8
CSLAYER1
  6
CONTINUOUS
 62
     7
 10
677.707629
 20
2142.423670
 11
677.504125
 21
2142.273891
  0
LINE
  8
CSLAYER1
  6
CONTINUOUS
 62
     7
 10
677.504125
 20
2142.273891
 11
677.280294
 21
2142.156642
  0
LINE
  8
CSLAYER1
  6
CONTINUOUS
 62
     7
 10
677.280294
 20
2142.156642
 11
677.037841
 21
2142.072813
  0
LINE
  8
CSLAYER1
  6
CONTINUOUS
 62
     7
 10
677.037841
 20
2142.072813
 11
676.778610
 21
2142.023044
  0
LINE
  8
CSLAYER1
  6
CONTINUOUS
 62
     7
 10
676.778610
 20
2142.023044
 11
676.504574
 21
2142.007713
  0
LINE
  8
CSLAYER1
  6
CONTINUOUS
 62
     7
 10
676.504574
 20
2142.007713
 11
676.217819
 21
2142.026936
  0
LINE
  8
CSLAYER1
  6
CONTINUOUS
 62
     7
 10
676.217819
 20
2142.026936
 11
675.920527
 21
2142.080568
  0
LINE
  8
CSLAYER1
  6
CONTINUOUS
 62
     7
 10
675.920527
 20
2142.080568
 11
675.614961
 21
2142.168201
  0
LINE
  8
CSLAYER1
  6
CONTINUOUS
 62
     7
 10
675.614961
 20
2142.168201
 11
675.303446
 21
2142.289166
  0
LINE
  8
CSLAYER1
  6
CONTINUOUS
 62
     7
 10
675.303446
 20
2142.289166
 11
674.988354
 21
2142.442545
  0
LINE
  8
CSLAYER1
  6
CONTINUOUS
 62
     7
 10
674.988354
 20
2142.442545
 11
674.672082
 21
2142.627169
  0
LINE
  8
CSLAYER1
  6
CONTINUOUS
 62
     7
 10
674.672082
 20
2142.627169
 11
674.357036
 21
2142.841633
  0
LINE
  8
CSLAYER1
  6
CONTINUOUS
 62
     7
 10
674.357036
 20
2142.841633
 11
674.045616
 21
2143.084305
  0
LINE
  8
CSLAYER1
  6
CONTINUOUS
 62
     7
 10
674.045616
 20
2143.084305
 11
673.740191
 21
2143.353338
  0
LINE
  8
CSLAYER1
  6
CONTINUOUS
 62
     7
 10
673.740191
 20
2143.353338
 11
673.443085
 21
2143.646685
  0
LINE
  8
CSLAYER1
  6
CONTINUOUS
 62
     7
 10
673.443085
 20
2143.646685
 11
673.156560
 21
2143.962113
  0
LINE
  8
CSLAYER1
  6
CONTINUOUS
 62
     7
 10
673.156560
 20
2143.962113
 11
672.882796
 21
2144.297222
  0
LINE
  8
CSLAYER1
  6
CONTINUOUS
 62
     7
 10
672.882796
 20
2144.297222
 11
672.623877
 21
2144.649461
  0
LINE
  8
CSLAYER1
  6
CONTINUOUS
 62
     7
 10
672.623877
 20
2144.649461
 11
672.381773
 21
2145.016150
  0
LINE
  8
CSLAYER1
  6
CONTINUOUS
 62
     7
 10
672.381773
 20
2145.016150
 11
672.158327
 21
2145.394497
  0
LINE
  8
CSLAYER1
  6
CONTINUOUS
 62
     7
 10
672.158327
 20
2145.394497
 11
671.955239
 21
2145.781623
  0
LINE
  8
CSLAYER1
  6
CONTINUOUS
 62
     7
 10
671.955239
 20
2145.781623
 11
671.774056
 21
2146.174583
  0
LINE
  8
CSLAYER1
  6
CONTINUOUS
 62
     7
 10
671.774056
 20
2146.174583
 11
671.616155
 21
2146.570384
  0
LINE
  8
CSLAYER1
  6
CONTINUOUS
 62
     7
 10
671.616155
 20
2146.570384
 11
671.482739
 21
2146.966016
  0
LINE
  8
CSLAYER1
  6
CONTINUOUS
 62
     7
 10
671.482739
 20
2146.966016
 11
671.374823
 21
2147.358467
  0
LINE
  8
CSLAYER1
  6
CONTINUOUS
 62
     7
 10
671.374823
 20
2147.358467
 11
671.293228
 21
2147.744750
  0
LINE
  8
CSLAYER1
  6
CONTINUOUS
 62
     7
 10
671.293228
 20
2147.744750
 11
671.238576
 21
2148.121926
  0
LINE
  8
CSLAYER1
  6
CONTINUOUS
 62
     7
 10
671.238576
 20
2148.121926
 11
671.211282
 21
2148.487123
  0
LINE
  8
CSLAYER1
  6
CONTINUOUS
 62
     7
 10
671.211282
 20
2148.487123
 11
671.211554
 21
2148.837563
  0
LINE
  8
CSLAYER1
  6
CONTINUOUS
 62
     7
 10
671.211554
 20
2148.837563
 11
671.239390
 21
2149.170579
  0
LINE
  8
CSLAYER1
  6
CONTINUOUS
 62
     7
 10
671.239390
 20
2149.170579
 11
671.294578
 21
2149.483635
  0
LINE
  8
CSLAYER1
  6
CONTINUOUS
 62
     7
 10
671.294578
 20
2149.483635
 11
671.376698
 21
2149.774350
  0
LINE
  8
CSLAYER1
  6
CONTINUOUS
 62
     7
 10
671.376698
 20
2149.774350
 11
671.485125
 21
2150.040511
  0
LINE
  8
CSLAYER1
  6
CONTINUOUS
 62
     7
 10
671.485125
 20
2150.040511
 11
671.619034
 21
2150.280092
  0
LINE
  8
CSLAYER1
  6
CONTINUOUS
 62
     7
 10
671.619034
 20
2150.280092
 11
671.777405
 21
2150.491270
  0
LINE
  8
CSLAYER1
  6
CONTINUOUS
 62
     7
 10
671.777405
 20
2150.491270
 11
671.959035
 21
2150.672437
  0
LINE
  8
CSLAYER1
  6
CONTINUOUS
 62
     7
 10
671.959035
 20
2150.672437
 11
672.162539
 21
2150.822216
  0
LINE
  8
CSLAYER1
  6
CONTINUOUS
 62
     7
 10
672.162539
 20
2150.822216
 11
674.614098
 21
2152.354120
  0
LINE
  8
CSLAYER1
  6
CONTINUOUS
 62
     7
 10
677.504125
 20
2142.273891
 11
679.955684
 21
2143.805795
  0
LINE
  8
CSLAYER1
  6
CONTINUOUS
 62
     7
 10
675.621048
 20
2150.011803
 11
678.072606
 21
2151.543707
  0
LINE
  8
CSLAYER1
  6
CONTINUOUS
 62
     7
 10
678.164351
 20
2146.188134
 11
680.615910
 21
2147.720038
  0
LINE
  8
CSLAYER1
  6
CONTINUOUS
 62
     7
 10
674.614098
 20
2152.354120
 11
674.837928
 21
2152.471370
  0
LINE
  8
CSLAYER1
  6
CONTINUOUS
 62
     7
 10
674.837928
 20
2152.471370
 11
675.080382
 21
2152.555198
  0
LINE
  8
CSLAYER1
  6
CONTINUOUS
 62
     7
 10
675.080382
 20
2152.555198
 11
675.339613
 21
2152.604967
  0
LINE
  8
CSLAYER1
  6
CONTINUOUS
 62
     7
 10
675.339613
 20
2152.604967
 11
675.613649
 21
2152.620299
  0
LINE
  8
CSLAYER1
  6
CONTINUOUS
 62
     7
 10
675.613649
 20
2152.620299
 11
675.900404
 21
2152.601075
  0
LINE
  8
CSLAYER1
  6
CONTINUOUS
 62
     7
 10
675.900404
 20
2152.601075
 11
676.197695
 21
2152.547443
  0
LINE
  8
CSLAYER1
  6
CONTINUOUS
 62
     7
 10
676.197695
 20
2152.547443
 11
676.503261
 21
2152.459811
  0
LINE
  8
CSLAYER1
  6
CONTINUOUS
 62
     7
 10
676.503261
 20
2152.459811
 11
676.814776
 21
2152.338845
  0
LINE
  8
CSLAYER1
  6
CONTINUOUS
 62
     7
 10
676.814776
 20
2152.338845
 11
677.129869
 21
2152.185467
  0
LINE
  8
CSLAYER1
  6
CONTINUOUS
 62
     7
 10
677.129869
 20
2152.185467
 11
677.446141
 21
2152.000843
  0
LINE
  8
CSLAYER1
  6
CONTINUOUS
 62
     7
 10
677.446141
 20
2152.000843
 11
677.761186
 21
2151.786379
  0
LINE
  8
CSLAYER1
  6
CONTINUOUS
 62
     7
 10
677.761186
 20
2151.786379
 11
678.072606
 21
2151.543707
  0
LINE
  8
CSLAYER1
  6
CONTINUOUS
 62
     7
 10
678.072606
 20
2151.543707
 11
678.378032
 21
2151.274673
  0
LINE
  8
CSLAYER1
  6
CONTINUOUS
 62
     7
 10
678.378032
 20
2151.274673
 11
678.675137
 21
2150.981326
  0
LINE
  8
CSLAYER1
  6
CONTINUOUS
 62
     7
 10
678.675137
 20
2150.981326
 11
678.961663
 21
2150.665898
  0
LINE
  8
CSLAYER1
  6
CONTINUOUS
 62
     7
 10
678.961663
 20
2150.665898
 11
679.235427
 21
2150.330789
  0
LINE
  8
CSLAYER1
  6
CONTINUOUS
 62
     7
 10
679.235427
 20
2150.330789
 11
679.494346
 21
2149.978550
  0
LINE
  8
CSLAYER1
  6
CONTINUOUS
 62
     7
 10
679.494346
 20
2149.978550
 11
679.736450
 21
2149.611862
  0
LINE
  8
CSLAYER1
  6
CONTINUOUS
 62
     7
 10
679.736450
 20
2149.611862
 11
679.959896
 21
2149.233515
  0
LINE
  8
CSLAYER1
  6
CONTINUOUS
 62
     7
 10
679.959896
 20
2149.233515
 11
680.162983
 21
2148.846388
  0
LINE
  8
CSLAYER1
  6
CONTINUOUS
 62
     7
 10
680.162983
 20
2148.846388
 11
680.344167
 21
2148.453429
  0
LINE
  8
CSLAYER1
  6
CONTINUOUS
 62
     7
 10
680.344167
 20
2148.453429
 11
680.502068
 21
2148.057627
  0
LINE
  8
CSLAYER1
  6
CONTINUOUS
 62
     7
 10
680.502068
 20
2148.057627
 11
680.635484
 21
2147.661995
  0
LINE
  8
CSLAYER1
  6
CONTINUOUS
 62
     7
 10
680.635484
 20
2147.661995
 11
680.743399
 21
2147.269544
  0
LINE
  8
CSLAYER1
  6
CONTINUOUS
 62
     7
 10
680.743399
 20
2147.269544
 11
680.824994
 21
2146.883261
  0
LINE
  8
CSLAYER1
  6
CONTINUOUS
 62
     7
 10
680.824994
 20
2146.883261
 11
680.879646
 21
2146.506086
  0
LINE
  8
CSLAYER1
  6
CONTINUOUS
 62
     7
 10
680.879646
 20
2146.506086
 11
680.906941
 21
2146.140888
  0
LINE
  8
CSLAYER1
  6
CONTINUOUS
 62
     7
 10
680.906941
 20
2146.140888
 11
680.906669
 21
2145.790448
  0
LINE
  8
CSLAYER1
  6
CONTINUOUS
 62
     7
 10
680.906669
 20
2145.790448
 11
680.878833
 21
2145.457433
  0
LINE
  8
CSLAYER1
  6
CONTINUOUS
 62
     7
 10
680.878833
 20
2145.457433
 11
680.823645
 21
2145.144376
  0
LINE
  8
CSLAYER1
  6
CONTINUOUS
 62
     7
 10
680.823645
 20
2145.144376
 11
680.741525
 21
2144.853662
  0
LINE
  8
CSLAYER1
  6
CONTINUOUS
 62
     7
 10
680.741525
 20
2144.853662
 11
680.633098
 21
2144.587501
  0
LINE
  8
CSLAYER1
  6
CONTINUOUS
 62
     7
 10
680.633098
 20
2144.587501
 11
680.499189
 21
2144.347920
  0
LINE
  8
CSLAYER1
  6
CONTINUOUS
 62
     7
 10
680.499189
 20
2144.347920
 11
680.340817
 21
2144.136742
  0
LINE
  8
CSLAYER1
  6
CONTINUOUS
 62
     7
 10
680.340817
 20
2144.136742
 11
680.159188
 21
2143.955574
  0
LINE
  8
CSLAYER1
  6
CONTINUOUS
 62
     7
 10
680.159188
 20
2143.955574
 11
679.955684
 21
2143.805795
  0
LINE
  8
CSLAYER1
  6
CONTINUOUS
 62
     7
 10
762.842125
 20
2117.817546
 11
765.293684
 21
2119.349450
  0
LINE
  8
CSLAYER1
  6
CONTINUOUS
 62
     7
 10
766.300634
 20
2117.007132
 11
768.752193
 21
2118.539036
  0
LINE
  8
CSLAYER1
  6
CONTINUOUS
 62
     7
 10
768.843938
 20
2113.183464
 11
771.295496
 21
2114.715368
  0
LINE
  8
CSLAYER1
  6
CONTINUOUS
 62
     7
 10
765.293684
 20
2119.349450
 11
765.517514
 21
2119.466700
  0
LINE
  8
CSLAYER1
  6
CONTINUOUS
 62
     7
 10
765.517514
 20
2119.466700
 11
765.759968
 21
2119.550528
  0
LINE
  8
CSLAYER1
  6
CONTINUOUS
 62
     7
 10
765.759968
 20
2119.550528
 11
766.019199
 21
2119.600297
  0
LINE
  8
CSLAYER1
  6
CONTINUOUS
 62
     7
 10
766.019199
 20
2119.600297
 11
766.293235
 21
2119.615628
  0
LINE
  8
CSLAYER1
  6
CONTINUOUS
 62
     7
 10
766.293235
 20
2119.615628
 11
766.579990
 21
2119.596405
  0
LINE
  8
CSLAYER1
  6
CONTINUOUS
 62
     7
 10
766.579990
 20
2119.596405
 11
766.877282
 21
2119.542773
  0
LINE
  8
CSLAYER1
  6
CONTINUOUS
 62
     7
 10
766.877282
 20
2119.542773
 11
767.182848
 21
2119.455140
  0
LINE
  8
CSLAYER1
  6
CONTINUOUS
 62
     7
 10
767.182848
 20
2119.455140
 11
767.494362
 21
2119.334175
  0
LINE
  8
CSLAYER1
  6
CONTINUOUS
 62
     7
 10
767.494362
 20
2119.334175
 11
767.809455
 21
2119.180796
  0
LINE
  8
CSLAYER1
  6
CONTINUOUS
 62
     7
 10
767.809455
 20
2119.180796
 11
768.125727
 21
2118.996173
  0
LINE
  8
CSLAYER1
  6
CONTINUOUS
 62
     7
 10
768.125727
 20
2118.996173
 11
768.440772
 21
2118.781709
  0
LINE
  8
CSLAYER1
  6
CONTINUOUS
 62
     7
 10
768.440772
 20
2118.781709
 11
768.752193
 21
2118.539036
  0
LINE
  8
CSLAYER1
  6
CONTINUOUS
 62
     7
 10
768.752193
 20
2118.539036
 11
769.057618
 21
2118.270003
  0
LINE
  8
CSLAYER1
  6
CONTINUOUS
 62
     7
 10
769.057618
 20
2118.270003
 11
769.354724
 21
2117.976656
  0
LINE
  8
CSLAYER1
  6
CONTINUOUS
 62
     7
 10
769.354724
 20
2117.976656
 11
769.641249
 21
2117.661228
  0
LINE
  8
CSLAYER1
  6
CONTINUOUS
 62
     7
 10
769.641249
 20
2117.661228
 11
769.915013
 21
2117.326119
  0
LINE
  8
CSLAYER1
  6
CONTINUOUS
 62
     7
 10
769.915013
 20
2117.326119
 11
770.173932
 21
2116.973880
  0
LINE
  8
CSLAYER1
  6
CONTINUOUS
 62
     7
 10
770.173932
 20
2116.973880
 11
770.416036
 21
2116.607191
  0
LINE
  8
CSLAYER1
  6
CONTINUOUS
 62
     7
 10
770.416036
 20
2116.607191
 11
770.593058
 21
2116.307451
  0
LINE
  8
CSLAYER1
  6
CONTINUOUS
 62
     7
 10
762.842125
 20
2117.817546
 11
763.065956
 21
2117.934796
  0
LINE
  8
CSLAYER1
  6
CONTINUOUS
 62
     7
 10
763.065956
 20
2117.934796
 11
763.308409
 21
2118.018624
  0
LINE
  8
CSLAYER1
  6
CONTINUOUS
 62
     7
 10
763.308409
 20
2118.018624
 11
763.567640
 21
2118.068393
  0
LINE
  8
CSLAYER1
  6
CONTINUOUS
 62
     7
 10
763.567640
 20
2118.068393
 11
763.841676
 21
2118.083724
  0
LINE
  8
CSLAYER1
  6
CONTINUOUS
 62
     7
 10
763.841676
 20
2118.083724
 11
764.128431
 21
2118.064501
  0
LINE
  8
CSLAYER1
  6
CONTINUOUS
 62
     7
 10
764.128431
 20
2118.064501
 11
764.425723
 21
2118.010869
  0
LINE
  8
CSLAYER1
  6
CONTINUOUS
 62
     7
 10
764.425723
 20
2118.010869
 11
764.731289
 21
2117.923236
  0
LINE
  8
CSLAYER1
  6
CONTINUOUS
 62
     7
 10
764.731289
 20
2117.923236
 11
765.042803
 21
2117.802271
  0
LINE
  8
CSLAYER1
  6
CONTINUOUS
 62
     7
 10
765.042803
 20
2117.802271
 11
765.357896
 21
2117.648892
  0
LINE
  8
CSLAYER1
  6
CONTINUOUS
 62
     7
 10
765.357896
 20
2117.648892
 11
765.674168
 21
2117.464269
  0
LINE
  8
CSLAYER1
  6
CONTINUOUS
 62
     7
 10
765.674168
 20
2117.464269
 11
765.989213
 21
2117.249805
  0
LINE
  8
CSLAYER1
  6
CONTINUOUS
 62
     7
 10
765.989213
 20
2117.249805
 11
766.300634
 21
2117.007132
  0
LINE
  8
CSLAYER1
  6
CONTINUOUS
 62
     7
 10
766.300634
 20
2117.007132
 11
766.606059
 21
2116.738099
  0
LINE
  8
CSLAYER1
  6
CONTINUOUS
 62
     7
 10
766.606059
 20
2116.738099
 11
766.903165
 21
2116.444752
  0
LINE
  8
CSLAYER1
  6
CONTINUOUS
 62
     7
 10
766.903165
 20
2116.444752
 11
767.189690
 21
2116.129324
  0
LINE
  8
CSLAYER1
  6
CONTINUOUS
 62
     7
 10
767.189690
 20
2116.129324
 11
767.463454
 21
2115.794215
  0
LINE
  8
CSLAYER1
  6
CONTINUOUS
 62
     7
 10
767.463454
 20
2115.794215
 11
767.722373
 21
2115.441976
  0
LINE
  8
CSLAYER1
  6
CONTINUOUS
 62
     7
 10
767.722373
 20
2115.441976
 11
767.964477
 21
2115.075287
  0
LINE
  8
CSLAYER1
  6
CONTINUOUS
 62
     7
 10
767.964477
 20
2115.075287
 11
768.141499
 21
2114.775547
  0
LINE
  8
CSLAYER1
  6
CONTINUOUS
 62
     7
 10
763.253163
 20
2111.720976
 11
763.061359
 21
2112.011480
  0
LINE
  8
CSLAYER1
  6
CONTINUOUS
 62
     7
 10
763.061359
 20
2112.011480
 11
762.837913
 21
2112.389827
  0
LINE
  8
CSLAYER1
  6
CONTINUOUS
 62
     7
 10
762.837913
 20
2112.389827
 11
762.634826
 21
2112.776953
  0
LINE
  8
CSLAYER1
  6
CONTINUOUS
 62
     7
 10
762.634826
 20
2112.776953
 11
762.453642
 21
2113.169912
  0
LINE
  8
CSLAYER1
  6
CONTINUOUS
 62
     7
 10
762.453642
 20
2113.169912
 11
762.295741
 21
2113.565714
  0
LINE
  8
CSLAYER1
  6
CONTINUOUS
 62
     7
 10
762.295741
 20
2113.565714
 11
762.162325
 21
2113.961346
  0
LINE
  8
CSLAYER1
  6
CONTINUOUS
 62
     7
 10
762.162325
 20
2113.961346
 11
762.054409
 21
2114.353797
  0
LINE
  8
CSLAYER1
  6
CONTINUOUS
 62
     7
 10
762.054409
 20
2114.353797
 11
761.972815
 21
2114.740080
  0
LINE
  8
CSLAYER1
  6
CONTINUOUS
 62
     7
 10
761.972815
 20
2114.740080
 11
761.918162
 21
2115.117256
  0
LINE
  8
CSLAYER1
  6
CONTINUOUS
 62
     7
 10
761.918162
 20
2115.117256
 11
761.890868
 21
2115.482453
  0
LINE
  8
CSLAYER1
  6
CONTINUOUS
 62
     7
 10
761.890868
 20
2115.482453
 11
761.891140
 21
2115.832893
  0
LINE
  8
CSLAYER1
  6
CONTINUOUS
 62
     7
 10
761.891140
 20
2115.832893
 11
761.918976
 21
2116.165908
  0
LINE
  8
CSLAYER1
  6
CONTINUOUS
 62
     7
 10
761.918976
 20
2116.165908
 11
761.974164
 21
2116.478965
  0
LINE
  8
CSLAYER1
  6
CONTINUOUS
 62
     7
 10
761.974164
 20
2116.478965
 11
762.056284
 21
2116.769680
  0
LINE
  8
CSLAYER1
  6
CONTINUOUS
 62
     7
 10
762.056284
 20
2116.769680
 11
762.164711
 21
2117.035840
  0
LINE
  8
CSLAYER1
  6
CONTINUOUS
 62
     7
 10
762.164711
 20
2117.035840
 11
762.298620
 21
2117.275421
  0
LINE
  8
CSLAYER1
  6
CONTINUOUS
 62
     7
 10
762.298620
 20
2117.275421
 11
762.456992
 21
2117.486599
  0
LINE
  8
CSLAYER1
  6
CONTINUOUS
 62
     7
 10
762.456992
 20
2117.486599
 11
762.638621
 21
2117.667767
  0
LINE
  8
CSLAYER1
  6
CONTINUOUS
 62
     7
 10
762.638621
 20
2117.667767
 11
762.842125
 21
2117.817546
  0
ARC
  8
CSLAYER1
  6
CONTINUOUS
 62
     7
 10
606.833181
 20
2116.703120
 40
6.720000
 50
122.000000
 51
180.000000
  0
ARC
  8
CSLAYER1
  6
CONTINUOUS
 62
     7
 10
604.812466
 20
2117.438601
 40
6.720000
 50
122.000000
 51
180.000000
  0
ARC
  8
CSLAYER1
  6
CONTINUOUS
 62
     7
 10
603.473181
 20
2052.569678
 40
3.360000
 50
256.943959
 51
302.000000
  0
ARC
  8
CSLAYER1
  6
CONTINUOUS
 62
     7
 10
601.204443
 20
2052.850485
 40
3.360000
 50
202.152506
 51
217.167534
  0
LINE
  8
CSLAYER1
  6
CONTINUOUS
 62
     7
 10
602.714144
 20
2049.296535
 11
598.526951
 21
2050.820548
  0
ARC
  8
CSLAYER1
  6
CONTINUOUS
 62
     7
 10
717.390990
 20
2077.102907
 40
3.360000
 50
122.000000
 51
180.000000
  0
ARC
  8
CSLAYER1
  6
CONTINUOUS
 62
     7
 10
715.370275
 20
2077.838387
 40
3.360000
 50
122.000000
 51
180.000000
  0
ARC
  8
CSLAYER1
  6
CONTINUOUS
 62
     7
 10
717.390990
 20
2011.106986
 40
3.360000
 50
180.000000
 51
302.000000
  0
ARC
  8
CSLAYER1
  6
CONTINUOUS
 62
     7
 10
715.261277
 20
2011.601503
 40
3.360000
 50
194.633804
 51
226.715114
  0
LINE
  8
CSLAYER1
  6
CONTINUOUS
 62
     7
 10
637.787576
 20
2145.967815
 11
666.479065
 21
2163.896247
  0
LINE
  8
CSLAYER1
  6
CONTINUOUS
 62
     7
 10
606.360545
 20
2050.411863
 11
602.962623
 21
2051.648606
  0
ARC
  8
CSLAYER1
  6
CONTINUOUS
 62
     7
 10
603.473181
 20
2052.569678
 40
3.360000
 50
180.000000
 51
256.943959
  0
LINE
  8
CSLAYER1
  6
CONTINUOUS
 62
     7
 10
637.787576
 20
1996.180606
 11
637.787576
 21
1979.911024
  0
LINE
  8
CSLAYER1
  6
CONTINUOUS
 62
     7
 10
393.516649
 20
1900.642432
 11
393.954619
 21
1900.765103
  0
LINE
  8
CSLAYER1
  6
CONTINUOUS
 62
     7
 10
393.954619
 20
1900.765103
 11
394.412871
 21
1900.821961
  0
LINE
  8
CSLAYER1
  6
CONTINUOUS
 62
     7
 10
394.412871
 20
1900.821961
 11
394.887916
 21
1900.812573
  0
LINE
  8
CSLAYER1
  6
CONTINUOUS
 62
     7
 10
394.887916
 20
1900.812573
 11
395.376139
 21
1900.737010
  0
LINE
  8
CSLAYER1
  6
CONTINUOUS
 62
     7
 10
395.376139
 20
1900.737010
 11
395.873824
 21
1900.595848
  0
LINE
  8
CSLAYER1
  6
CONTINUOUS
 62
     7
 10
395.873824
 20
1900.595848
 11
396.377184
 21
1900.390162
  0
LINE
  8
CSLAYER1
  6
CONTINUOUS
 62
     7
 10
396.377184
 20
1900.390162
 11
396.882388
 21
1900.121515
  0
LINE
  8
CSLAYER1
  6
CONTINUOUS
 62
     7
 10
396.882388
 20
1900.121515
 11
397.385591
 21
1899.791953
  0
LINE
  8
CSLAYER1
  6
CONTINUOUS
 62
     7
 10
397.385591
 20
1899.791953
 11
397.882963
 21
1899.403985
  0
LINE
  8
CSLAYER1
  6
CONTINUOUS
 62
     7
 10
397.882963
 20
1899.403985
 11
398.370719
 21
1898.960562
  0
LINE
  8
CSLAYER1
  6
CONTINUOUS
 62
     7
 10
398.370719
 20
1898.960562
 11
398.845147
 21
1898.465060
  0
LINE
  8
CSLAYER1
  6
CONTINUOUS
 62
     7
 10
398.845147
 20
1898.465060
 11
399.302636
 21
1897.921249
  0
LINE
  8
CSLAYER1
  6
CONTINUOUS
 62
     7
 10
399.302636
 20
1897.921249
 11
399.739705
 21
1897.333268
  0
LINE
  8
CSLAYER1
  6
CONTINUOUS
 62
     7
 10
399.739705
 20
1897.333268
 11
400.153026
 21
1896.705593
  0
LINE
  8
CSLAYER1
  6
CONTINUOUS
 62
     7
 10
400.153026
 20
1896.705593
 11
400.539455
 21
1896.043000
  0
LINE
  8
CSLAYER1
  6
CONTINUOUS
 62
     7
 10
400.539455
 20
1896.043000
 11
400.896050
 21
1895.350532
  0
LINE
  8
CSLAYER1
  6
CONTINUOUS
 62
     7
 10
400.896050
 20
1895.350532
 11
401.220098
 21
1894.633458
  0
LINE
  8
CSLAYER1
  6
CONTINUOUS
 62
     7
 10
401.220098
 20
1894.633458
 11
401.509132
 21
1893.897237
  0
LINE
  8
CSLAYER1
  6
CONTINUOUS
 62
     7
 10
401.509132
 20
1893.897237
 11
401.760953
 21
1893.147472
  0
LINE
  8
CSLAYER1
  6
CONTINUOUS
 62
     7
 10
401.760953
 20
1893.147472
 11
401.973644
 21
1892.389868
  0
LINE
  8
CSLAYER1
  6
CONTINUOUS
 62
     7
 10
401.973644
 20
1892.389868
 11
402.145586
 21
1891.630191
  0
LINE
  8
CSLAYER1
  6
CONTINUOUS
 62
     7
 10
402.145586
 20
1891.630191
 11
402.275471
 21
1890.874224
  0
LINE
  8
CSLAYER1
  6
CONTINUOUS
 62
     7
 10
402.275471
 20
1890.874224
 11
402.362310
 21
1890.127719
  0
LINE
  8
CSLAYER1
  6
CONTINUOUS
 62
     7
 10
402.362310
 20
1890.127719
 11
402.405443
 21
1889.396358
  0
LINE
  8
CSLAYER1
  6
CONTINUOUS
 62
     7
 10
402.405443
 20
1889.396358
 11
402.404541
 21
1888.685706
  0
LINE
  8
CSLAYER1
  6
CONTINUOUS
 62
     7
 10
402.404541
 20
1888.685706
 11
402.359611
 21
1888.001173
  0
LINE
  8
CSLAYER1
  6
CONTINUOUS
 62
     7
 10
402.359611
 20
1888.001173
 11
402.270995
 21
1887.347968
  0
LINE
  8
CSLAYER1
  6
CONTINUOUS
 62
     7
 10
402.270995
 20
1887.347968
 11
402.139367
 21
1886.731062
  0
LINE
  8
CSLAYER1
  6
CONTINUOUS
 62
     7
 10
402.139367
 20
1886.731062
 11
401.965729
 21
1886.155150
  0
LINE
  8
CSLAYER1
  6
CONTINUOUS
 62
     7
 10
401.965729
 20
1886.155150
 11
401.751403
 21
1885.624616
  0
LINE
  8
CSLAYER1
  6
CONTINUOUS
 62
     7
 10
401.751403
 20
1885.624616
 11
401.498020
 21
1885.143497
  0
LINE
  8
CSLAYER1
  6
CONTINUOUS
 62
     7
 10
401.498020
 20
1885.143497
 11
401.207508
 21
1884.715455
  0
LINE
  8
CSLAYER1
  6
CONTINUOUS
 62
     7
 10
401.207508
 20
1884.715455
 11
400.882078
 21
1884.343747
  0
LINE
  8
CSLAYER1
  6
CONTINUOUS
 62
     7
 10
400.882078
 20
1884.343747
 11
400.524207
 21
1884.031202
  0
LINE
  8
CSLAYER1
  6
CONTINUOUS
 62
     7
 10
400.524207
 20
1884.031202
 11
400.136618
 21
1883.780200
  0
LINE
  8
CSLAYER1
  6
CONTINUOUS
 62
     7
 10
400.136618
 20
1883.780200
 11
399.722262
 21
1883.592649
  0
LINE
  8
CSLAYER1
  6
CONTINUOUS
 62
     7
 10
399.722262
 20
1883.592649
 11
399.284291
 21
1883.469978
  0
LINE
  8
CSLAYER1
  6
CONTINUOUS
 62
     7
 10
399.284291
 20
1883.469978
 11
398.826040
 21
1883.413120
  0
LINE
  8
CSLAYER1
  6
CONTINUOUS
 62
     7
 10
398.826040
 20
1883.413120
 11
398.350995
 21
1883.422508
  0
LINE
  8
CSLAYER1
  6
CONTINUOUS
 62
     7
 10
398.350995
 20
1883.422508
 11
397.862772
 21
1883.498071
  0
LINE
  8
CSLAYER1
  6
CONTINUOUS
 62
     7
 10
397.862772
 20
1883.498071
 11
397.365086
 21
1883.639233
  0
LINE
  8
CSLAYER1
  6
CONTINUOUS
 62
     7
 10
397.365086
 20
1883.639233
 11
396.861726
 21
1883.844920
  0
LINE
  8
CSLAYER1
  6
CONTINUOUS
 62
     7
 10
396.861726
 20
1883.844920
 11
396.356522
 21
1884.113566
  0
LINE
  8
CSLAYER1
  6
CONTINUOUS
 62
     7
 10
396.356522
 20
1884.113566
 11
395.853319
 21
1884.443128
  0
LINE
  8
CSLAYER1
  6
CONTINUOUS
 62
     7
 10
395.853319
 20
1884.443128
 11
395.355947
 21
1884.831096
  0
LINE
  8
CSLAYER1
  6
CONTINUOUS
 62
     7
 10
395.355947
 20
1884.831096
 11
394.868191
 21
1885.274519
  0
LINE
  8
CSLAYER1
  6
CONTINUOUS
 62
     7
 10
394.868191
 20
1885.274519
 11
394.393763
 21
1885.770021
  0
LINE
  8
CSLAYER1
  6
CONTINUOUS
 62
     7
 10
394.393763
 20
1885.770021
 11
393.936274
 21
1886.313832
  0
LINE
  8
CSLAYER1
  6
CONTINUOUS
 62
     7
 10
393.936274
 20
1886.313832
 11
393.499206
 21
1886.901813
  0
LINE
  8
CSLAYER1
  6
CONTINUOUS
 62
     7
 10
393.499206
 20
1886.901813
 11
393.085884
 21
1887.529488
  0
LINE
  8
CSLAYER1
  6
CONTINUOUS
 62
     7
 10
393.085884
 20
1887.529488
 11
392.699456
 21
1888.192081
  0
LINE
  8
CSLAYER1
  6
CONTINUOUS
 62
     7
 10
392.699456
 20
1888.192081
 11
392.342860
 21
1888.884549
  0
LINE
  8
CSLAYER1
  6
CONTINUOUS
 62
     7
 10
392.342860
 20
1888.884549
 11
392.018813
 21
1889.601623
  0
LINE
  8
CSLAYER1
  6
CONTINUOUS
 62
     7
 10
392.018813
 20
1889.601623
 11
391.729778
 21
1890.337844
  0
LINE
  8
CSLAYER1
  6
CONTINUOUS
 62
     7
 10
391.729778
 20
1890.337844
 11
391.477958
 21
1891.087609
  0
LINE
  8
CSLAYER1
  6
CONTINUOUS
 62
     7
 10
391.477958
 20
1891.087609
 11
391.265267
 21
1891.845213
  0
LINE
  8
CSLAYER1
  6
CONTINUOUS
 62
     7
 10
391.265267
 20
1891.845213
 11
391.093325
 21
1892.604890
  0
LINE
  8
CSLAYER1
  6
CONTINUOUS
 62
     7
 10
391.093325
 20
1892.604890
 11
390.963440
 21
1893.360857
  0
LINE
  8
CSLAYER1
  6
CONTINUOUS
 62
     7
 10
390.963440
 20
1893.360857
 11
390.876600
 21
1894.107362
  0
LINE
  8
CSLAYER1
  6
CONTINUOUS
 62
     7
 10
390.876600
 20
1894.107362
 11
390.833468
 21
1894.838724
  0
LINE
  8
CSLAYER1
  6
CONTINUOUS
 62
     7
 10
390.833468
 20
1894.838724
 11
390.834370
 21
1895.549375
  0
LINE
  8
CSLAYER1
  6
CONTINUOUS
 62
     7
 10
390.834370
 20
1895.549375
 11
390.879300
 21
1896.233908
  0
LINE
  8
CSLAYER1
  6
CONTINUOUS
 62
     7
 10
390.879300
 20
1896.233908
 11
390.967916
 21
1896.887113
  0
LINE
  8
CSLAYER1
  6
CONTINUOUS
 62
     7
 10
390.967916
 20
1896.887113
 11
391.099544
 21
1897.504019
  0
LINE
  8
CSLAYER1
  6
CONTINUOUS
 62
     7
 10
391.099544
 20
1897.504019
 11
391.273181
 21
1898.079931
  0
LINE
  8
CSLAYER1
  6
CONTINUOUS
 62
     7
 10
391.273181
 20
1898.079931
 11
391.487507
 21
1898.610465
  0
LINE
  8
CSLAYER1
  6
CONTINUOUS
 62
     7
 10
391.487507
 20
1898.610465
 11
391.740891
 21
1899.091584
  0
LINE
  8
CSLAYER1
  6
CONTINUOUS
 62
     7
 10
391.740891
 20
1899.091584
 11
392.031403
 21
1899.519626
  0
LINE
  8
CSLAYER1
  6
CONTINUOUS
 62
     7
 10
392.031403
 20
1899.519626
 11
392.356833
 21
1899.891334
  0
LINE
  8
CSLAYER1
  6
CONTINUOUS
 62
     7
 10
392.356833
 20
1899.891334
 11
392.714704
 21
1900.203879
  0
LINE
  8
CSLAYER1
  6
CONTINUOUS
 62
     7
 10
392.714704
 20
1900.203879
 11
393.102292
 21
1900.454881
  0
LINE
  8
CSLAYER1
  6
CONTINUOUS
 62
     7
 10
393.102292
 20
1900.454881
 11
393.516649
 21
1900.642432
  0
LINE
  8
CSLAYER1
  6
CONTINUOUS
 62
     7
 10
393.516649
 20
1900.642432
 11
449.032306
 21
1921.318419
  0
LINE
  8
CSLAYER1
  6
CONTINUOUS
 62
     7
 10
399.722262
 20
1883.592649
 11
455.237919
 21
1904.268636
  0
LINE
  8
CSLAYER1
  6
CONTINUOUS
 62
     7
 10
449.032306
 20
1921.318419
 11
449.470276
 21
1921.441090
  0
LINE
  8
CSLAYER1
  6
CONTINUOUS
 62
     7
 10
449.470276
 20
1921.441090
 11
449.928528
 21
1921.497948
  0
LINE
  8
CSLAYER1
  6
CONTINUOUS
 62
     7
 10
449.928528
 20
1921.497948
 11
450.403573
 21
1921.488560
  0
LINE
  8
CSLAYER1
  6
CONTINUOUS
 62
     7
 10
450.403573
 20
1921.488560
 11
450.891796
 21
1921.412997
  0
LINE
  8
CSLAYER1
  6
CONTINUOUS
 62
     7
 10
450.891796
 20
1921.412997
 11
451.389481
 21
1921.271835
  0
LINE
  8
CSLAYER1
  6
CONTINUOUS
 62
     7
 10
451.389481
 20
1921.271835
 11
451.892841
 21
1921.066148
  0
LINE
  8
CSLAYER1
  6
CONTINUOUS
 62
     7
 10
451.892841
 20
1921.066148
 11
452.398045
 21
1920.797502
  0
LINE
  8
CSLAYER1
  6
CONTINUOUS
 62
     7
 10
452.398045
 20
1920.797502
 11
452.901248
 21
1920.467940
  0
LINE
  8
CSLAYER1
  6
CONTINUOUS
 62
     7
 10
452.901248
 20
1920.467940
 11
453.398620
 21
1920.079972
  0
LINE
  8
CSLAYER1
  6
CONTINUOUS
 62
     7
 10
453.398620
 20
1920.079972
 11
453.886376
 21
1919.636549
  0
LINE
  8
CSLAYER1
  6
CONTINUOUS
 62
     7
 10
453.886376
 20
1919.636549
 11
454.360804
 21
1919.141046
  0
LINE
  8
CSLAYER1
  6
CONTINUOUS
 62
     7
 10
454.360804
 20
1919.141046
 11
454.818293
 21
1918.597236
  0
LINE
  8
CSLAYER1
  6
CONTINUOUS
 62
     7
 10
454.818293
 20
1918.597236
 11
455.255362
 21
1918.009255
  0
LINE
  8
CSLAYER1
  6
CONTINUOUS
 62
     7
 10
455.255362
 20
1918.009255
 11
455.668683
 21
1917.381580
  0
LINE
  8
CSLAYER1
  6
CONTINUOUS
 62
     7
 10
455.668683
 20
1917.381580
 11
456.055112
 21
1916.718987
  0
LINE
  8
CSLAYER1
  6
CONTINUOUS
 62
     7
 10
456.055112
 20
1916.718987
 11
456.411707
 21
1916.026518
  0
LINE
  8
CSLAYER1
  6
CONTINUOUS
 62
     7
 10
456.411707
 20
1916.026518
 11
456.735755
 21
1915.309445
  0
LINE
  8
CSLAYER1
  6
CONTINUOUS
 62
     7
 10
456.735755
 20
1915.309445
 11
457.024789
 21
1914.573224
  0
LINE
  8
CSLAYER1
  6
CONTINUOUS
 62
     7
 10
457.024789
 20
1914.573224
 11
457.276610
 21
1913.823459
  0
LINE
  8
CSLAYER1
  6
CONTINUOUS
 62
     7
 10
457.276610
 20
1913.823459
 11
457.489301
 21
1913.065855
  0
LINE
  8
CSLAYER1
  6
CONTINUOUS
 62
     7
 10
457.489301
 20
1913.065855
 11
457.661243
 21
1912.306178
  0
LINE
  8
CSLAYER1
  6
CONTINUOUS
 62
     7
 10
457.661243
 20
1912.306178
 11
457.791128
 21
1911.550211
  0
LINE
  8
CSLAYER1
  6
CONTINUOUS
 62
     7
 10
457.791128
 20
1911.550211
 11
457.877967
 21
1910.803706
  0
LINE
  8
CSLAYER1
  6
CONTINUOUS
 62
     7
 10
457.877967
 20
1910.803706
 11
457.921100
 21
1910.072344
  0
LINE
  8
CSLAYER1
  6
CONTINUOUS
 62
     7
 10
457.921100
 20
1910.072344
 11
457.920198
 21
1909.361693
  0
LINE
  8
CSLAYER1
  6
CONTINUOUS
 62
     7
 10
457.920198
 20
1909.361693
 11
457.875268
 21
1908.677160
  0
LINE
  8
CSLAYER1
  6
CONTINUOUS
 62
     7
 10
457.875268
 20
1908.677160
 11
457.786652
 21
1908.023954
  0
LINE
  8
CSLAYER1
  6
CONTINUOUS
 62
     7
 10
457.786652
 20
1908.023954
 11
457.655024
 21
1907.407049
  0
LINE
  8
CSLAYER1
  6
CONTINUOUS
 62
     7
 10
457.655024
 20
1907.407049
 11
457.481386
 21
1906.831137
  0
LINE
  8
CSLAYER1
  6
CONTINUOUS
 62
     7
 10
457.481386
 20
1906.831137
 11
457.267060
 21
1906.300603
  0
LINE
  8
CSLAYER1
  6
CONTINUOUS
 62
     7
 10
457.267060
 20
1906.300603
 11
457.013677
 21
1905.819484
  0
LINE
  8
CSLAYER1
  6
CONTINUOUS
 62
     7
 10
457.013677
 20
1905.819484
 11
456.723165
 21
1905.391442
  0
LINE
  8
CSLAYER1
  6
CONTINUOUS
 62
     7
 10
456.723165
 20
1905.391442
 11
456.397735
 21
1905.019734
  0
LINE
  8
CSLAYER1
  6
CONTINUOUS
 62
     7
 10
456.397735
 20
1905.019734
 11
456.039864
 21
1904.707189
  0
LINE
  8
CSLAYER1
  6
CONTINUOUS
 62
     7
 10
456.039864
 20
1904.707189
 11
455.652275
 21
1904.456186
  0
LINE
  8
CSLAYER1
  6
CONTINUOUS
 62
     7
 10
455.652275
 20
1904.456186
 11
455.237919
 21
1904.268636
  0
LINE
  8
CSLAYER1
  6
CONTINUOUS
 62
     7
 10
631.353724
 20
1808.344182
 11
631.682839
 21
1808.658109
  0
LINE
  8
CSLAYER1
  6
CONTINUOUS
 62
     7
 10
631.682839
 20
1808.658109
 11
632.060757
 21
1808.923448
  0
LINE
  8
CSLAYER1
  6
CONTINUOUS
 62
     7
 10
632.060757
 20
1808.923448
 11
632.484605
 21
1809.138179
  0
LINE
  8
CSLAYER1
  6
CONTINUOUS
 62
     7
 10
632.484605
 20
1809.138179
 11
632.951155
 21
1809.300668
  0
LINE
  8
CSLAYER1
  6
CONTINUOUS
 62
     7
 10
632.951155
 20
1809.300668
 11
633.456856
 21
1809.409678
  0
LINE
  8
CSLAYER1
  6
CONTINUOUS
 62
     7
 10
633.456856
 20
1809.409678
 11
633.997861
 21
1809.464381
  0
LINE
  8
CSLAYER1
  6
CONTINUOUS
 62
     7
 10
633.997861
 20
1809.464381
 11
634.570052
 21
1809.464359
  0
LINE
  8
CSLAYER1
  6
CONTINUOUS
 62
     7
 10
634.570052
 20
1809.464359
 11
635.169073
 21
1809.409613
  0
LINE
  8
CSLAYER1
  6
CONTINUOUS
 62
     7
 10
635.169073
 20
1809.409613
 11
635.790367
 21
1809.300559
  0
LINE
  8
CSLAYER1
  6
CONTINUOUS
 62
     7
 10
635.790367
 20
1809.300559
 11
636.429204
 21
1809.138027
  0
LINE
  8
CSLAYER1
  6
CONTINUOUS
 62
     7
 10
636.429204
 20
1809.138027
 11
637.080724
 21
1808.923255
  0
LINE
  8
CSLAYER1
  6
CONTINUOUS
 62
     7
 10
637.080724
 20
1808.923255
 11
637.739966
 21
1808.657877
  0
LINE
  8
CSLAYER1
  6
CONTINUOUS
 62
     7
 10
637.739966
 20
1808.657877
 11
638.401915
 21
1808.343912
  0
LINE
  8
CSLAYER1
  6
CONTINUOUS
 62
     7
 10
638.401915
 20
1808.343912
 11
639.061532
 21
1807.983750
  0
LINE
  8
CSLAYER1
  6
CONTINUOUS
 62
     7
 10
639.061532
 20
1807.983750
 11
639.713797
 21
1807.580133
  0
LINE
  8
CSLAYER1
  6
CONTINUOUS
 62
     7
 10
639.713797
 20
1807.580133
 11
640.353746
 21
1807.136131
  0
LINE
  8
CSLAYER1
  6
CONTINUOUS
 62
     7
 10
640.353746
 20
1807.136131
 11
640.976508
 21
1806.655124
  0
LINE
  8
CSLAYER1
  6
CONTINUOUS
 62
     7
 10
640.976508
 20
1806.655124
 11
641.577345
 21
1806.140773
  0
LINE
  8
CSLAYER1
  6
CONTINUOUS
 62
     7
 10
641.577345
 20
1806.140773
 11
642.151683
 21
1805.596992
  0
LINE
  8
CSLAYER1
  6
CONTINUOUS
 62
     7
 10
642.151683
 20
1805.596992
 11
642.695152
 21
1805.027919
  0
LINE
  8
CSLAYER1
  6
CONTINUOUS
 62
     7
 10
642.695152
 20
1805.027919
 11
643.203614
 21
1804.437887
  0
LINE
  8
CSLAYER1
  6
CONTINUOUS
 62
     7
 10
643.203614
 20
1804.437887
 11
643.673201
 21
1803.831385
  0
LINE
  8
CSLAYER1
  6
CONTINUOUS
 62
     7
 10
643.673201
 20
1803.831385
 11
644.100339
 21
1803.213028
  0
LINE
  8
CSLAYER1
  6
CONTINUOUS
 62
     7
 10
644.100339
 20
1803.213028
 11
644.481776
 21
1802.587524
  0
LINE
  8
CSLAYER1
  6
CONTINUOUS
 62
     7
 10
644.481776
 20
1802.587524
 11
644.814610
 21
1801.959633
  0
LINE
  8
CSLAYER1
  6
CONTINUOUS
 62
     7
 10
644.814610
 20
1801.959633
 11
645.096308
 21
1801.334132
  0
LINE
  8
CSLAYER1
  6
CONTINUOUS
 62
     7
 10
645.096308
 20
1801.334132
 11
645.324726
 21
1800.715784
  0
LINE
  8
CSLAYER1
  6
CONTINUOUS
 62
     7
 10
645.324726
 20
1800.715784
 11
645.498125
 21
1800.109293
  0
LINE
  8
CSLAYER1
  6
CONTINUOUS
 62
     7
 10
645.498125
 20
1800.109293
 11
645.615186
 21
1799.519275
  0
LINE
  8
CSLAYER1
  6
CONTINUOUS
 62
     7
 10
645.615186
 20
1799.519275
 11
645.675018
 21
1798.950221
  0
LINE
  8
CSLAYER1
  6
CONTINUOUS
 62
     7
 10
645.675018
 20
1798.950221
 11
645.677166
 21
1798.406462
  0
LINE
  8
CSLAYER1
  6
CONTINUOUS
 62
     7
 10
645.677166
 20
1798.406462
 11
645.621613
 21
1797.892136
  0
LINE
  8
CSLAYER1
  6
CONTINUOUS
 62
     7
 10
645.621613
 20
1797.892136
 11
645.508781
 21
1797.411157
  0
LINE
  8
CSLAYER1
  6
CONTINUOUS
 62
     7
 10
645.508781
 20
1797.411157
 11
645.339531
 21
1796.967187
  0
LINE
  8
CSLAYER1
  6
CONTINUOUS
 62
     7
 10
645.339531
 20
1796.967187
 11
645.115149
 21
1796.563602
  0
LINE
  8
CSLAYER1
  6
CONTINUOUS
 62
     7
 10
645.115149
 20
1796.563602
 11
644.837344
 21
1796.203477
  0
LINE
  8
CSLAYER1
  6
CONTINUOUS
 62
     7
 10
644.837344
 20
1796.203477
 11
644.508229
 21
1795.889550
  0
LINE
  8
CSLAYER1
  6
CONTINUOUS
 62
     7
 10
644.508229
 20
1795.889550
 11
644.130310
 21
1795.624211
  0
LINE
  8
CSLAYER1
  6
CONTINUOUS
 62
     7
 10
644.130310
 20
1795.624211
 11
643.706463
 21
1795.409480
  0
LINE
  8
CSLAYER1
  6
CONTINUOUS
 62
     7
 10
643.706463
 20
1795.409480
 11
643.239913
 21
1795.246991
  0
LINE
  8
CSLAYER1
  6
CONTINUOUS
 62
     7
 10
643.239913
 20
1795.246991
 11
642.734212
 21
1795.137981
  0
LINE
  8
CSLAYER1
  6
CONTINUOUS
 62
     7
 10
642.734212
 20
1795.137981
 11
642.193207
 21
1795.083278
  0
LINE
  8
CSLAYER1
  6
CONTINUOUS
 62
     7
 10
642.193207
 20
1795.083278
 11
641.621016
 21
1795.083300
  0
LINE
  8
CSLAYER1
  6
CONTINUOUS
 62
     7
 10
641.621016
 20
1795.083300
 11
641.021995
 21
1795.138046
  0
LINE
  8
CSLAYER1
  6
CONTINUOUS
 62
     7
 10
641.021995
 20
1795.138046
 11
640.400701
 21
1795.247100
  0
LINE
  8
CSLAYER1
  6
CONTINUOUS
 62
     7
 10
640.400701
 20
1795.247100
 11
639.761864
 21
1795.409631
  0
LINE
  8
CSLAYER1
  6
CONTINUOUS
 62
     7
 10
639.761864
 20
1795.409631
 11
639.110344
 21
1795.624404
  0
LINE
  8
CSLAYER1
  6
CONTINUOUS
 62
     7
 10
639.110344
 20
1795.624404
 11
638.451102
 21
1795.889782
  0
LINE
  8
CSLAYER1
  6
CONTINUOUS
 62
     7
 10
638.451102
 20
1795.889782
 11
637.789153
 21
1796.203747
  0
LINE
  8
CSLAYER1
  6
CONTINUOUS
 62
     7
 10
637.789153
 20
1796.203747
 11
637.129536
 21
1796.563908
  0
LINE
  8
CSLAYER1
  6
CONTINUOUS
 62
     7
 10
637.129536
 20
1796.563908
 11
636.477271
 21
1796.967526
  0
LINE
  8
CSLAYER1
  6
CONTINUOUS
 62
     7
 10
636.477271
 20
1796.967526
 11
635.837322
 21
1797.411528
  0
LINE
  8
CSLAYER1
  6
CONTINUOUS
 62
     7
 10
635.837322
 20
1797.411528
 11
635.214559
 21
1797.892535
  0
LINE
  8
CSLAYER1
  6
CONTINUOUS
 62
     7
 10
635.214559
 20
1797.892535
 11
634.613723
 21
1798.406886
  0
LINE
  8
CSLAYER1
  6
CONTINUOUS
 62
     7
 10
634.613723
 20
1798.406886
 11
634.039384
 21
1798.950667
  0
LINE
  8
CSLAYER1
  6
CONTINUOUS
 62
     7
 10
634.039384
 20
1798.950667
 11
633.495916
 21
1799.519739
  0
LINE
  8
CSLAYER1
  6
CONTINUOUS
 62
     7
 10
633.495916
 20
1799.519739
 11
632.987454
 21
1800.109772
  0
LINE
  8
CSLAYER1
  6
CONTINUOUS
 62
     7
 10
632.987454
 20
1800.109772
 11
632.517867
 21
1800.716274
  0
LINE
  8
CSLAYER1
  6
CONTINUOUS
 62
     7
 10
632.517867
 20
1800.716274
 11
632.090729
 21
1801.334631
  0
LINE
  8
CSLAYER1
  6
CONTINUOUS
 62
     7
 10
632.090729
 20
1801.334631
 11
631.709292
 21
1801.960135
  0
LINE
  8
CSLAYER1
  6
CONTINUOUS
 62
     7
 10
631.709292
 20
1801.960135
 11
631.376458
 21
1802.588026
  0
LINE
  8
CSLAYER1
  6
CONTINUOUS
 62
     7
 10
631.376458
 20
1802.588026
 11
631.094760
 21
1803.213527
  0
LINE
  8
CSLAYER1
  6
CONTINUOUS
 62
     7
 10
631.094760
 20
1803.213527
 11
630.866342
 21
1803.831875
  0
LINE
  8
CSLAYER1
  6
CONTINUOUS
 62
     7
 10
630.866342
 20
1803.831875
 11
630.692943
 21
1804.438366
  0
LINE
  8
CSLAYER1
  6
CONTINUOUS
 62
     7
 10
630.692943
 20
1804.438366
 11
630.575882
 21
1805.028384
  0
LINE
  8
CSLAYER1
  6
CONTINUOUS
 62
     7
 10
630.575882
 20
1805.028384
 11
630.516050
 21
1805.597438
  0
LINE
  8
CSLAYER1
  6
CONTINUOUS
 62
     7
 10
630.516050
 20
1805.597438
 11
630.513902
 21
1806.141197
  0
LINE
  8
CSLAYER1
  6
CONTINUOUS
 62
     7
 10
630.513902
 20
1806.141197
 11
630.569455
 21
1806.655523
  0
LINE
  8
CSLAYER1
  6
CONTINUOUS
 62
     7
 10
630.569455
 20
1806.655523
 11
630.682287
 21
1807.136501
  0
LINE
  8
CSLAYER1
  6
CONTINUOUS
 62
     7
 10
630.682287
 20
1807.136501
 11
630.851537
 21
1807.580472
  0
LINE
  8
CSLAYER1
  6
CONTINUOUS
 62
     7
 10
630.851537
 20
1807.580472
 11
631.075919
 21
1807.984056
  0
LINE
  8
CSLAYER1
  6
CONTINUOUS
 62
     7
 10
631.075919
 20
1807.984056
 11
631.353724
 21
1808.344182
  0
LINE
  8
CSLAYER1
  6
CONTINUOUS
 62
     7
 10
644.837344
 20
1796.203477
 11
674.824413
 21
1829.598835
  0
LINE
  8
CSLAYER1
  6
CONTINUOUS
 62
     7
 10
631.353724
 20
1808.344182
 11
661.340793
 21
1841.739541
  0
LINE
  8
CSLAYER1
  6
CONTINUOUS
 62
     7
 10
661.340793
 20
1841.739541
 11
661.669908
 21
1842.053467
  0
LINE
  8
CSLAYER1
  6
CONTINUOUS
 62
     7
 10
661.669908
 20
1842.053467
 11
662.047827
 21
1842.318806
  0
LINE
  8
CSLAYER1
  6
CONTINUOUS
 62
     7
 10
662.047827
 20
1842.318806
 11
662.471674
 21
1842.533537
  0
LINE
  8
CSLAYER1
  6
CONTINUOUS
 62
     7
 10
662.471674
 20
1842.533537
 11
662.938224
 21
1842.696026
  0
LINE
  8
CSLAYER1
  6
CONTINUOUS
 62
     7
 10
662.938224
 20
1842.696026
 11
663.443925
 21
1842.805037
  0
LINE
  8
CSLAYER1
  6
CONTINUOUS
 62
     7
 10
663.443925
 20
1842.805037
 11
663.984930
 21
1842.859739
  0
LINE
  8
CSLAYER1
  6
CONTINUOUS
 62
     7
 10
663.984930
 20
1842.859739
 11
664.557121
 21
1842.859717
  0
LINE
  8
CSLAYER1
  6
CONTINUOUS
 62
     7
 10
664.557121
 20
1842.859717
 11
665.156142
 21
1842.804971
  0
LINE
  8
CSLAYER1
  6
CONTINUOUS
 62
     7
 10
665.156142
 20
1842.804971
 11
665.777436
 21
1842.695917
  0
LINE
  8
CSLAYER1
  6
CONTINUOUS
 62
     7
 10
665.777436
 20
1842.695917
 11
666.416274
 21
1842.533386
  0
LINE
  8
CSLAYER1
  6
CONTINUOUS
 62
     7
 10
666.416274
 20
1842.533386
 11
667.067793
 21
1842.318614
  0
LINE
  8
CSLAYER1
  6
CONTINUOUS
 62
     7
 10
667.067793
 20
1842.318614
 11
667.727035
 21
1842.053235
  0
LINE
  8
CSLAYER1
  6
CONTINUOUS
 62
     7
 10
667.727035
 20
1842.053235
 11
668.388984
 21
1841.739271
  0
LINE
  8
CSLAYER1
  6
CONTINUOUS
 62
     7
 10
668.388984
 20
1841.739271
 11
669.048601
 21
1841.379109
  0
LINE
  8
CSLAYER1
  6
CONTINUOUS
 62
     7
 10
669.048601
 20
1841.379109
 11
669.700866
 21
1840.975491
  0
LINE
  8
CSLAYER1
  6
CONTINUOUS
 62
     7
 10
669.700866
 20
1840.975491
 11
670.340815
 21
1840.531489
  0
LINE
  8
CSLAYER1
  6
CONTINUOUS
 62
     7
 10
670.340815
 20
1840.531489
 11
670.963578
 21
1840.050482
  0
LINE
  8
CSLAYER1
  6
CONTINUOUS
 62
     7
 10
670.963578
 20
1840.050482
 11
671.564415
 21
1839.536131
  0
LINE
  8
CSLAYER1
  6
CONTINUOUS
 62
     7
 10
671.564415
 20
1839.536131
 11
672.138753
 21
1838.992350
  0
LINE
  8
CSLAYER1
  6
CONTINUOUS
 62
     7
 10
672.138753
 20
1838.992350
 11
672.682221
 21
1838.423278
  0
LINE
  8
CSLAYER1
  6
CONTINUOUS
 62
     7
 10
672.682221
 20
1838.423278
 11
673.190683
 21
1837.833245
  0
LINE
  8
CSLAYER1
  6
CONTINUOUS
 62
     7
 10
673.190683
 20
1837.833245
 11
673.660270
 21
1837.226743
  0
LINE
  8
CSLAYER1
  6
CONTINUOUS
 62
     7
 10
673.660270
 20
1837.226743
 11
674.087408
 21
1836.608387
  0
LINE
  8
CSLAYER1
  6
CONTINUOUS
 62
     7
 10
674.087408
 20
1836.608387
 11
674.468845
 21
1835.982883
  0
LINE
  8
CSLAYER1
  6
CONTINUOUS
 62
     7
 10
674.468845
 20
1835.982883
 11
674.801679
 21
1835.354991
  0
LINE
  8
CSLAYER1
  6
CONTINUOUS
 62
     7
 10
674.801679
 20
1835.354991
 11
675.083377
 21
1834.729491
  0
LINE
  8
CSLAYER1
  6
CONTINUOUS
 62
     7
 10
675.083377
 20
1834.729491
 11
675.311795
 21
1834.111142
  0
LINE
  8
CSLAYER1
  6
CONTINUOUS
 62
     7
 10
675.311795
 20
1834.111142
 11
675.485194
 21
1833.504651
  0
LINE
  8
CSLAYER1
  6
CONTINUOUS
 62
     7
 10
675.485194
 20
1833.504651
 11
675.602255
 21
1832.914633
  0
LINE
  8
CSLAYER1
  6
CONTINUOUS
 62
     7
 10
675.602255
 20
1832.914633
 11
675.662087
 21
1832.345580
  0
LINE
  8
CSLAYER1
  6
CONTINUOUS
 62
     7
 10
675.662087
 20
1832.345580
 11
675.664235
 21
1831.801821
  0
LINE
  8
CSLAYER1
  6
CONTINUOUS
 62
     7
 10
675.664235
 20
1831.801821
 11
675.608682
 21
1831.287495
  0
LINE
  8
CSLAYER1
  6
CONTINUOUS
 62
     7
 10
675.608682
 20
1831.287495
 11
675.495851
 21
1830.806516
  0
LINE
  8
CSLAYER1
  6
CONTINUOUS
 62
     7
 10
675.495851
 20
1830.806516
 11
675.326600
 21
1830.362545
  0
LINE
  8
CSLAYER1
  6
CONTINUOUS
 62
     7
 10
675.326600
 20
1830.362545
 11
675.102218
 21
1829.958961
  0
LINE
  8
CSLAYER1
  6
CONTINUOUS
 62
     7
 10
675.102218
 20
1829.958961
 11
674.824413
 21
1829.598835
  0
LINE
  8
CSLAYER1
  6
CONTINUOUS
 62
     7
 10
755.746815
 20
1963.350489
 11
755.746815
 21
1945.051154
  0
LINE
  8
CSLAYER1
  6
CONTINUOUS
 62
     7
 10
755.746815
 20
1945.051154
 11
755.746815
 21
1939.146921
  0
LINE
  8
CSLAYER1
  6
CONTINUOUS
 62
     7
 10
786.261946
 20
2016.705876
 11
786.261946
 21
1996.354674
  0
LINE
  8
CSLAYER1
  6
CONTINUOUS
 62
     7
 10
786.261946
 20
1978.818485
 11
786.261946
 21
1956.216729
  0
LINE
  8
CSLAYER1
  6
CONTINUOUS
 62
     7
 10
797.846814
 20
2009.546509
 11
800.681715
 21
2006.994150
  0
LINE
  8
CSLAYER1
  6
CONTINUOUS
 62
     7
 10
800.681715
 20
2006.994150
 11
803.117994
 21
2004.309785
  0
LINE
  8
CSLAYER1
  6
CONTINUOUS
 62
     7
 10
803.117994
 20
2004.309785
 11
805.137108
 21
2001.513844
  0
LINE
  8
CSLAYER1
  6
CONTINUOUS
 62
     7
 10
805.137108
 20
2001.513844
 11
806.723693
 21
1998.627606
  0
LINE
  8
CSLAYER1
  6
CONTINUOUS
 62
     7
 10
806.723693
 20
1998.627606
 11
807.865672
 21
1995.673036
  0
LINE
  8
CSLAYER1
  6
CONTINUOUS
 62
     7
 10
807.865672
 20
1995.673036
 11
808.554354
 21
1992.672622
  0
LINE
  8
CSLAYER1
  6
CONTINUOUS
 62
     7
 10
808.554354
 20
1992.672622
 11
808.784499
 21
1989.649198
  0
LINE
  8
CSLAYER1
  6
CONTINUOUS
 62
     7
 10
808.784499
 20
1989.649198
 11
808.554354
 21
1986.625774
  0
LINE
  8
CSLAYER1
  6
CONTINUOUS
 62
     7
 10
808.554354
 20
1986.625774
 11
807.865672
 21
1983.625360
  0
LINE
  8
CSLAYER1
  6
CONTINUOUS
 62
     7
 10
807.865672
 20
1983.625360
 11
806.723693
 21
1980.670791
  0
LINE
  8
CSLAYER1
  6
CONTINUOUS
 62
     7
 10
806.723693
 20
1980.670791
 11
805.137108
 21
1977.784553
  0
LINE
  8
CSLAYER1
  6
CONTINUOUS
 62
     7
 10
805.137108
 20
1977.784553
 11
803.117994
 21
1974.988612
  0
LINE
  8
CSLAYER1
  6
CONTINUOUS
 62
     7
 10
803.117994
 20
1974.988612
 11
800.681715
 21
1972.304247
  0
LINE
  8
CSLAYER1
  6
CONTINUOUS
 62
     7
 10
786.261946
 20
2016.705876
 11
791.070317
 21
2014.178664
  0
LINE
  8
CSLAYER1
  6
CONTINUOUS
 62
     7
 10
791.070317
 20
2014.178664
 11
794.634867
 21
2011.947438
  0
LINE
  8
CSLAYER1
  6
CONTINUOUS
 62
     7
 10
794.634867
 20
2011.947438
 11
797.846814
 21
2009.546509
  0
LINE
  8
CSLAYER1
  6
CONTINUOUS
 62
     7
 10
789.480907
 20
1992.405981
 11
789.734604
 21
1991.300687
  0
LINE
  8
CSLAYER1
  6
CONTINUOUS
 62
     7
 10
789.734604
 20
1991.300687
 11
789.908491
 21
1989.016322
  0
LINE
  8
CSLAYER1
  6
CONTINUOUS
 62
     7
 10
789.908491
 20
1989.016322
 11
789.734604
 21
1986.731957
  0
LINE
  8
CSLAYER1
  6
CONTINUOUS
 62
     7
 10
789.734604
 20
1986.731957
 11
789.214266
 21
1984.464977
  0
LINE
  8
CSLAYER1
  6
CONTINUOUS
 62
     7
 10
789.214266
 20
1984.464977
 11
788.351438
 21
1982.232636
  0
LINE
  8
CSLAYER1
  6
CONTINUOUS
 62
     7
 10
788.351438
 20
1982.232636
 11
787.152685
 21
1980.051923
  0
LINE
  8
CSLAYER1
  6
CONTINUOUS
 62
     7
 10
787.152685
 20
1980.051923
 11
786.261946
 21
1978.818485
  0
LINE
  8
CSLAYER1
  6
CONTINUOUS
 62
     7
 10
786.261946
 20
1996.363248
 11
786.219390
 21
1996.401563
  0
LINE
  8
CSLAYER1
  6
CONTINUOUS
 62
     7
 10
786.219390
 20
1996.401563
 11
788.060134
 21
1994.373376
  0
LINE
  8
CSLAYER1
  6
CONTINUOUS
 62
     7
 10
788.060134
 20
1994.373376
 11
789.585687
 21
1992.260887
  0
LINE
  8
CSLAYER1
  6
CONTINUOUS
 62
     7
 10
786.261946
 20
1996.354674
 11
786.261946
 21
1978.818485
  0
LINE
  8
CSLAYER1
  6
CONTINUOUS
 62
     7
 10
604.630580
 20
2016.574769
 11
547.797970
 21
2037.260147
  0
LINE
  8
CSLAYER1
  6
CONTINUOUS
 62
     7
 10
613.509052
 20
2027.645818
 11
556.676442
 21
2048.331197
  0
LINE
  8
CSLAYER1
  6
CONTINUOUS
 62
     7
 10
610.453148
 20
2027.327822
 11
553.663143
 21
2047.997693
  0
LINE
  8
CSLAYER1
  6
CONTINUOUS
 62
     7
 10
609.116930
 20
2026.383910
 11
552.284321
 21
2047.069288
  0
LINE
  8
CSLAYER1
  6
CONTINUOUS
 62
     7
 10
608.068502
 20
2025.335252
 11
551.235892
 21
2046.020630
  0
LINE
  8
CSLAYER1
  6
CONTINUOUS
 62
     7
 10
607.207992
 20
2024.218197
 11
550.375382
 21
2044.903575
  0
LINE
  8
CSLAYER1
  6
CONTINUOUS
 62
     7
 10
606.488089
 20
2023.049965
 11
549.655680
 21
2043.735270
  0
LINE
  8
CSLAYER1
  6
CONTINUOUS
 62
     7
 10
605.895352
 20
2021.835449
 11
549.062743
 21
2042.520827
  0
LINE
  8
CSLAYER1
  6
CONTINUOUS
 62
     7
 10
605.409556
 20
2020.582009
 11
548.576947
 21
2041.267387
  0
LINE
  8
CSLAYER1
  6
CONTINUOUS
 62
     7
 10
605.023686
 20
2019.292200
 11
548.196156
 21
2039.975729
  0
LINE
  8
CSLAYER1
  6
CONTINUOUS
 62
     7
 10
550.470829
 20
2031.281414
 11
550.056472
 21
2031.468964
  0
LINE
  8
CSLAYER1
  6
CONTINUOUS
 62
     7
 10
550.056472
 20
2031.468964
 11
549.668884
 21
2031.719967
  0
LINE
  8
CSLAYER1
  6
CONTINUOUS
 62
     7
 10
549.668884
 20
2031.719967
 11
549.311013
 21
2032.032512
  0
LINE
  8
CSLAYER1
  6
CONTINUOUS
 62
     7
 10
549.311013
 20
2032.032512
 11
548.985583
 21
2032.404220
  0
LINE
  8
CSLAYER1
  6
CONTINUOUS
 62
     7
 10
548.985583
 20
2032.404220
 11
548.695071
 21
2032.832262
  0
LINE
  8
CSLAYER1
  6
CONTINUOUS
 62
     7
 10
548.695071
 20
2032.832262
 11
548.441688
 21
2033.313381
  0
LINE
  8
CSLAYER1
  6
CONTINUOUS
 62
     7
 10
548.441688
 20
2033.313381
 11
548.227361
 21
2033.843915
  0
LINE
  8
CSLAYER1
  6
CONTINUOUS
 62
     7
 10
548.227361
 20
2033.843915
 11
548.053724
 21
2034.419827
  0
LINE
  8
CSLAYER1
  6
CONTINUOUS
 62
     7
 10
548.053724
 20
2034.419827
 11
547.922096
 21
2035.036732
  0
LINE
  8
CSLAYER1
  6
CONTINUOUS
 62
     7
 10
547.922096
 20
2035.036732
 11
547.833480
 21
2035.689938
  0
LINE
  8
CSLAYER1
  6
CONTINUOUS
 62
     7
 10
547.833480
 20
2035.689938
 11
547.788550
 21
2036.374471
  0
LINE
  8
CSLAYER1
  6
CONTINUOUS
 62
     7
 10
547.788550
 20
2036.374471
 11
547.787648
 21
2037.085122
  0
LINE
  8
CSLAYER1
  6
CONTINUOUS
 62
     7
 10
547.787648
 20
2037.085122
 11
547.830780
 21
2037.816484
  0
LINE
  8
CSLAYER1
  6
CONTINUOUS
 62
     7
 10
547.830780
 20
2037.816484
 11
547.917620
 21
2038.562989
  0
LINE
  8
CSLAYER1
  6
CONTINUOUS
 62
     7
 10
547.917620
 20
2038.562989
 11
548.047505
 21
2039.318956
  0
LINE
  8
CSLAYER1
  6
CONTINUOUS
 62
     7
 10
548.047505
 20
2039.318956
 11
548.219447
 21
2040.078633
  0
LINE
  8
CSLAYER1
  6
CONTINUOUS
 62
     7
 10
548.219447
 20
2040.078633
 11
548.432138
 21
2040.836237
  0
LINE
  8
CSLAYER1
  6
CONTINUOUS
 62
     7
 10
548.432138
 20
2040.836237
 11
548.683959
 21
2041.586002
  0
LINE
  8
CSLAYER1
  6
CONTINUOUS
 62
     7
 10
548.683959
 20
2041.586002
 11
548.972993
 21
2042.322223
  0
LINE
  8
CSLAYER1
  6
CONTINUOUS
 62
     7
 10
548.972993
 20
2042.322223
 11
549.297040
 21
2043.039296
  0
LINE
  8
CSLAYER1
  6
CONTINUOUS
 62
     7
 10
549.297040
 20
2043.039296
 11
549.653636
 21
2043.731765
  0
LINE
  8
CSLAYER1
  6
CONTINUOUS
 62
     7
 10
549.653636
 20
2043.731765
 11
550.040065
 21
2044.394358
  0
LINE
  8
CSLAYER1
  6
CONTINUOUS
 62
     7
 10
550.040065
 20
2044.394358
 11
550.453386
 21
2045.022033
  0
LINE
  8
CSLAYER1
  6
CONTINUOUS
 62
     7
 10
550.453386
 20
2045.022033
 11
550.890454
 21
2045.610014
  0
LINE
  8
CSLAYER1
  6
CONTINUOUS
 62
     7
 10
550.890454
 20
2045.610014
 11
551.347943
 21
2046.153824
  0
LINE
  8
CSLAYER1
  6
CONTINUOUS
 62
     7
 10
551.347943
 20
2046.153824
 11
551.822371
 21
2046.649327
  0
LINE
  8
CSLAYER1
  6
CONTINUOUS
 62
     7
 10
551.822371
 20
2046.649327
 11
552.310127
 21
2047.092750
  0
LINE
  8
CSLAYER1
  6
CONTINUOUS
 62
     7
 10
552.310127
 20
2047.092750
 11
552.807500
 21
2047.480718
  0
LINE
  8
CSLAYER1
  6
CONTINUOUS
 62
     7
 10
552.807500
 20
2047.480718
 11
553.310702
 21
2047.810280
  0
LINE
  8
CSLAYER1
  6
CONTINUOUS
 62
     7
 10
553.310702
 20
2047.810280
 11
553.815906
 21
2048.078926
  0
LINE
  8
CSLAYER1
  6
CONTINUOUS
 62
     7
 10
553.815906
 20
2048.078926
 11
554.319267
 21
2048.284613
  0
LINE
  8
CSLAYER1
  6
CONTINUOUS
 62
     7
 10
554.319267
 20
2048.284613
 11
554.816952
 21
2048.425775
  0
LINE
  8
CSLAYER1
  6
CONTINUOUS
 62
     7
 10
554.816952
 20
2048.425775
 11
555.305175
 21
2048.501338
  0
LINE
  8
CSLAYER1
  6
CONTINUOUS
 62
     7
 10
555.305175
 20
2048.501338
 11
555.780220
 21
2048.510726
  0
LINE
  8
CSLAYER1
  6
CONTINUOUS
 62
     7
 10
555.780220
 20
2048.510726
 11
556.238472
 21
2048.453868
  0
LINE
  8
CSLAYER1
  6
CONTINUOUS
 62
     7
 10
556.238472
 20
2048.453868
 11
556.676442
 21
2048.331197
  0
LINE
  8
CSLAYER1
  6
CONTINUOUS
 62
     7
 10
604.763790
 20
2017.956539
 11
547.926979
 21
2038.643446
  0
LINE
  8
CSLAYER1
  6
CONTINUOUS
 62
     7
 10
604.657548
 20
2015.134698
 11
547.824938
 21
2035.820077
  0
LINE
  8
CSLAYER1
  6
CONTINUOUS
 62
     7
 10
604.912538
 20
2013.611634
 11
548.092086
 21
2034.292588
  0
LINE
  8
CSLAYER1
  6
CONTINUOUS
 62
     7
 10
605.651082
 20
2011.912572
 11
548.865786
 21
2032.580729
  0
LINE
  8
CSLAYER1
  6
CONTINUOUS
 62
     7
 10
607.303438
 20
2010.596036
 11
550.470829
 21
2031.281414
  0
LINE
  8
CSLAYER1
  6
CONTINUOUS
 62
     7
 10
681.041112
 20
1988.111042
 11
663.880820
 21
1990.019797
  0
LINE
  8
CSLAYER1
  6
CONTINUOUS
 62
     7
 10
613.509052
 20
2027.645818
 11
613.923408
 21
2027.458268
  0
LINE
  8
CSLAYER1
  6
CONTINUOUS
 62
     7
 10
613.923408
 20
2027.458268
 11
614.310997
 21
2027.207265
  0
LINE
  8
CSLAYER1
  6
CONTINUOUS
 62
     7
 10
614.310997
 20
2027.207265
 11
614.668868
 21
2026.894720
  0
LINE
  8
CSLAYER1
  6
CONTINUOUS
 62
     7
 10
614.668868
 20
2026.894720
 11
614.994298
 21
2026.523012
  0
LINE
  8
CSLAYER1
  6
CONTINUOUS
 62
     7
 10
614.994298
 20
2026.523012
 11
615.284810
 21
2026.094970
  0
LINE
  8
CSLAYER1
  6
CONTINUOUS
 62
     7
 10
615.284810
 20
2026.094970
 11
615.538193
 21
2025.613851
  0
LINE
  8
CSLAYER1
  6
CONTINUOUS
 62
     7
 10
615.538193
 20
2025.613851
 11
615.752519
 21
2025.083317
  0
LINE
  8
CSLAYER1
  6
CONTINUOUS
 62
     7
 10
615.752519
 20
2025.083317
 11
615.926157
 21
2024.507406
  0
LINE
  8
CSLAYER1
  6
CONTINUOUS
 62
     7
 10
615.926157
 20
2024.507406
 11
616.034325
 21
2024.000447
  0
LINE
  8
CSLAYER1
  6
CONTINUOUS
 62
     7
 10
610.934516
 20
2011.290730
 11
610.669178
 21
2011.116953
  0
LINE
  8
CSLAYER1
  6
CONTINUOUS
 62
     7
 10
610.669178
 20
2011.116953
 11
610.163974
 21
2010.848306
  0
LINE
  8
CSLAYER1
  6
CONTINUOUS
 62
     7
 10
610.163974
 20
2010.848306
 11
609.660614
 21
2010.642619
  0
LINE
  8
CSLAYER1
  6
CONTINUOUS
 62
     7
 10
609.660614
 20
2010.642619
 11
609.162928
 21
2010.501457
  0
LINE
  8
CSLAYER1
  6
CONTINUOUS
 62
     7
 10
609.162928
 20
2010.501457
 11
608.674705
 21
2010.425895
  0
LINE
  8
CSLAYER1
  6
CONTINUOUS
 62
     7
 10
608.674705
 20
2010.425895
 11
608.199660
 21
2010.416507
  0
LINE
  8
CSLAYER1
  6
CONTINUOUS
 62
     7
 10
608.199660
 20
2010.416507
 11
607.741409
 21
2010.473365
  0
LINE
  8
CSLAYER1
  6
CONTINUOUS
 62
     7
 10
607.741409
 20
2010.473365
 11
607.303438
 21
2010.596036
  0
LINE
  8
CSLAYER1
  6
CONTINUOUS
 62
     7
 10
607.303438
 20
2010.596036
 11
606.889082
 21
2010.783586
  0
LINE
  8
CSLAYER1
  6
CONTINUOUS
 62
     7
 10
606.889082
 20
2010.783586
 11
606.501494
 21
2011.034589
  0
LINE
  8
CSLAYER1
  6
CONTINUOUS
 62
     7
 10
606.501494
 20
2011.034589
 11
606.143622
 21
2011.347134
  0
LINE
  8
CSLAYER1
  6
CONTINUOUS
 62
     7
 10
606.143622
 20
2011.347134
 11
605.818193
 21
2011.718842
  0
LINE
  8
CSLAYER1
  6
CONTINUOUS
 62
     7
 10
605.818193
 20
2011.718842
 11
605.527680
 21
2012.146884
  0
LINE
  8
CSLAYER1
  6
CONTINUOUS
 62
     7
 10
605.527680
 20
2012.146884
 11
605.274297
 21
2012.628003
  0
LINE
  8
CSLAYER1
  6
CONTINUOUS
 62
     7
 10
605.274297
 20
2012.628003
 11
605.059971
 21
2013.158537
  0
LINE
  8
CSLAYER1
  6
CONTINUOUS
 62
     7
 10
605.059971
 20
2013.158537
 11
604.886334
 21
2013.734448
  0
LINE
  8
CSLAYER1
  6
CONTINUOUS
 62
     7
 10
604.886334
 20
2013.734448
 11
604.754706
 21
2014.351354
  0
LINE
  8
CSLAYER1
  6
CONTINUOUS
 62
     7
 10
604.754706
 20
2014.351354
 11
604.666090
 21
2015.004559
  0
LINE
  8
CSLAYER1
  6
CONTINUOUS
 62
     7
 10
604.666090
 20
2015.004559
 11
604.621159
 21
2015.689092
  0
LINE
  8
CSLAYER1
  6
CONTINUOUS
 62
     7
 10
604.621159
 20
2015.689092
 11
604.620257
 21
2016.399744
  0
LINE
  8
CSLAYER1
  6
CONTINUOUS
 62
     7
 10
604.620257
 20
2016.399744
 11
604.663390
 21
2017.131105
  0
LINE
  8
CSLAYER1
  6
CONTINUOUS
 62
     7
 10
604.663390
 20
2017.131105
 11
604.750229
 21
2017.877610
  0
LINE
  8
CSLAYER1
  6
CONTINUOUS
 62
     7
 10
604.750229
 20
2017.877610
 11
604.880114
 21
2018.633578
  0
LINE
  8
CSLAYER1
  6
CONTINUOUS
 62
     7
 10
604.880114
 20
2018.633578
 11
605.052057
 21
2019.393254
  0
LINE
  8
CSLAYER1
  6
CONTINUOUS
 62
     7
 10
605.052057
 20
2019.393254
 11
605.264748
 21
2020.150858
  0
LINE
  8
CSLAYER1
  6
CONTINUOUS
 62
     7
 10
605.264748
 20
2020.150858
 11
605.516568
 21
2020.900624
  0
LINE
  8
CSLAYER1
  6
CONTINUOUS
 62
     7
 10
605.516568
 20
2020.900624
 11
605.805602
 21
2021.636845
  0
LINE
  8
CSLAYER1
  6
CONTINUOUS
 62
     7
 10
605.805602
 20
2021.636845
 11
606.129650
 21
2022.353918
  0
LINE
  8
CSLAYER1
  6
CONTINUOUS
 62
     7
 10
606.129650
 20
2022.353918
 11
606.486245
 21
2023.046386
  0
LINE
  8
CSLAYER1
  6
CONTINUOUS
 62
     7
 10
606.486245
 20
2023.046386
 11
606.872674
 21
2023.708980
  0
LINE
  8
CSLAYER1
  6
CONTINUOUS
 62
     7
 10
606.872674
 20
2023.708980
 11
607.285996
 21
2024.336655
  0
LINE
  8
CSLAYER1
  6
CONTINUOUS
 62
     7
 10
607.285996
 20
2024.336655
 11
607.723064
 21
2024.924635
  0
LINE
  8
CSLAYER1
  6
CONTINUOUS
 62
     7
 10
607.723064
 20
2024.924635
 11
608.180553
 21
2025.468446
  0
LINE
  8
CSLAYER1
  6
CONTINUOUS
 62
     7
 10
608.180553
 20
2025.468446
 11
608.654981
 21
2025.963948
  0
LINE
  8
CSLAYER1
  6
CONTINUOUS
 62
     7
 10
608.654981
 20
2025.963948
 11
609.142737
 21
2026.407371
  0
LINE
  8
CSLAYER1
  6
CONTINUOUS
 62
     7
 10
609.142737
 20
2026.407371
 11
609.640109
 21
2026.795340
  0
LINE
  8
CSLAYER1
  6
CONTINUOUS
 62
     7
 10
609.640109
 20
2026.795340
 11
610.143312
 21
2027.124901
  0
LINE
  8
CSLAYER1
  6
CONTINUOUS
 62
     7
 10
610.143312
 20
2027.124901
 11
610.648516
 21
2027.393548
  0
LINE
  8
CSLAYER1
  6
CONTINUOUS
 62
     7
 10
610.648516
 20
2027.393548
 11
611.151876
 21
2027.599235
  0
LINE
  8
CSLAYER1
  6
CONTINUOUS
 62
     7
 10
611.151876
 20
2027.599235
 11
611.649562
 21
2027.740397
  0
LINE
  8
CSLAYER1
  6
CONTINUOUS
 62
     7
 10
611.649562
 20
2027.740397
 11
612.137785
 21
2027.815959
  0
LINE
  8
CSLAYER1
  6
CONTINUOUS
 62
     7
 10
612.137785
 20
2027.815959
 11
612.612830
 21
2027.825347
  0
LINE
  8
CSLAYER1
  6
CONTINUOUS
 62
     7
 10
612.612830
 20
2027.825347
 11
613.071081
 21
2027.768489
  0
LINE
  8
CSLAYER1
  6
CONTINUOUS
 62
     7
 10
613.071081
 20
2027.768489
 11
613.509052
 21
2027.645818
  0
LINE
  8
CSLAYER1
  6
CONTINUOUS
 62
     7
 10
682.552140
 20
2001.695644
 11
665.336488
 21
2003.610557
  0
LINE
  8
CSLAYER1
  6
CONTINUOUS
 62
     7
 10
606.989036
 20
2020.320989
 11
607.207546
 21
2020.877572
  0
LINE
  8
CSLAYER1
  6
CONTINUOUS
 62
     7
 10
607.207546
 20
2020.877572
 11
607.452526
 21
2021.419680
  0
LINE
  8
CSLAYER1
  6
CONTINUOUS
 62
     7
 10
607.452526
 20
2021.419680
 11
607.722112
 21
2021.943186
  0
LINE
  8
CSLAYER1
  6
CONTINUOUS
 62
     7
 10
607.722112
 20
2021.943186
 11
608.014252
 21
2022.444106
  0
LINE
  8
CSLAYER1
  6
CONTINUOUS
 62
     7
 10
608.014252
 20
2022.444106
 11
608.326723
 21
2022.918629
  0
LINE
  8
CSLAYER1
  6
CONTINUOUS
 62
     7
 10
608.326723
 20
2022.918629
 11
608.657147
 21
2023.363142
  0
LINE
  8
CSLAYER1
  6
CONTINUOUS
 62
     7
 10
608.657147
 20
2023.363142
 11
609.003009
 21
2023.774263
  0
LINE
  8
CSLAYER1
  6
CONTINUOUS
 62
     7
 10
609.003009
 20
2023.774263
 11
609.361676
 21
2024.148863
  0
LINE
  8
CSLAYER1
  6
CONTINUOUS
 62
     7
 10
609.361676
 20
2024.148863
 11
609.730420
 21
2024.484090
  0
LINE
  8
CSLAYER1
  6
CONTINUOUS
 62
     7
 10
609.730420
 20
2024.484090
 11
610.106433
 21
2024.777394
  0
LINE
  8
CSLAYER1
  6
CONTINUOUS
 62
     7
 10
610.106433
 20
2024.777394
 11
610.486855
 21
2025.026543
  0
LINE
  8
CSLAYER1
  6
CONTINUOUS
 62
     7
 10
610.486855
 20
2025.026543
 11
610.868789
 21
2025.229640
  0
LINE
  8
CSLAYER1
  6
CONTINUOUS
 62
     7
 10
610.868789
 20
2025.229640
 11
611.249329
 21
2025.385139
  0
LINE
  8
CSLAYER1
  6
CONTINUOUS
 62
     7
 10
611.249329
 20
2025.385139
 11
611.625579
 21
2025.491858
  0
LINE
  8
CSLAYER1
  6
CONTINUOUS
 62
     7
 10
611.625579
 20
2025.491858
 11
611.994676
 21
2025.548983
  0
LINE
  8
CSLAYER1
  6
CONTINUOUS
 62
     7
 10
611.994676
 20
2025.548983
 11
612.353810
 21
2025.556080
  0
LINE
  8
CSLAYER1
  6
CONTINUOUS
 62
     7
 10
612.353810
 20
2025.556080
 11
612.700248
 21
2025.513096
  0
LINE
  8
CSLAYER1
  6
CONTINUOUS
 62
     7
 10
612.700248
 20
2025.513096
 11
613.067571
 21
2025.410212
  0
LINE
  8
CSLAYER1
  6
CONTINUOUS
 62
     7
 10
608.026657
 20
2012.672509
 11
607.733640
 21
2012.862267
  0
LINE
  8
CSLAYER1
  6
CONTINUOUS
 62
     7
 10
607.733640
 20
2012.862267
 11
607.463089
 21
2013.098551
  0
LINE
  8
CSLAYER1
  6
CONTINUOUS
 62
     7
 10
607.463089
 20
2013.098551
 11
607.217064
 21
2013.379562
  0
LINE
  8
CSLAYER1
  6
CONTINUOUS
 62
     7
 10
607.217064
 20
2013.379562
 11
606.997437
 21
2013.703162
  0
LINE
  8
CSLAYER1
  6
CONTINUOUS
 62
     7
 10
606.997437
 20
2013.703162
 11
606.805879
 21
2014.066888
  0
LINE
  8
CSLAYER1
  6
CONTINUOUS
 62
     7
 10
606.805879
 20
2014.066888
 11
606.643849
 21
2014.467971
  0
LINE
  8
CSLAYER1
  6
CONTINUOUS
 62
     7
 10
606.643849
 20
2014.467971
 11
606.512579
 21
2014.903361
  0
LINE
  8
CSLAYER1
  6
CONTINUOUS
 62
     7
 10
606.512579
 20
2014.903361
 11
606.413068
 21
2015.369741
  0
LINE
  8
CSLAYER1
  6
CONTINUOUS
 62
     7
 10
606.413068
 20
2015.369741
 11
606.346074
 21
2015.863564
  0
LINE
  8
CSLAYER1
  6
CONTINUOUS
 62
     7
 10
606.346074
 20
2015.863564
 11
606.312107
 21
2016.381071
  0
LINE
  8
CSLAYER1
  6
CONTINUOUS
 62
     7
 10
606.312107
 20
2016.381071
 11
606.311425
 21
2016.918324
  0
LINE
  8
CSLAYER1
  6
CONTINUOUS
 62
     7
 10
606.311425
 20
2016.918324
 11
606.344034
 21
2017.471233
  0
LINE
  8
CSLAYER1
  6
CONTINUOUS
 62
     7
 10
606.344034
 20
2017.471233
 11
606.409684
 21
2018.035591
  0
LINE
  8
CSLAYER1
  6
CONTINUOUS
 62
     7
 10
606.409684
 20
2018.035591
 11
606.507877
 21
2018.607102
  0
LINE
  8
CSLAYER1
  6
CONTINUOUS
 62
     7
 10
606.507877
 20
2018.607102
 11
606.637866
 21
2019.181418
  0
LINE
  8
CSLAYER1
  6
CONTINUOUS
 62
     7
 10
606.637866
 20
2019.181418
 11
606.798660
 21
2019.754166
  0
LINE
  8
CSLAYER1
  6
CONTINUOUS
 62
     7
 10
606.798660
 20
2019.754166
 11
606.989036
 21
2020.320989
  0
ARC
  8
CSLAYER1
  6
CONTINUOUS
 62
     7
 10
682.985401
 20
1995.759846
 40
7.892050
 50
255.737756
 51
348.379625
  0
LINE
  8
CSLAYER1
  6
CONTINUOUS
 62
     7
 10
682.552140
 20
2001.695644
 11
703.773728
 21
2014.956364
  0
INSERT
  8
CSLAYER1
  2
EASYDRAWDIM0003
 10
0.0
 20
0.0
 30
0.0
  0
INSERT
  8
CSLAYER1
  2
EASYDRAWDIM0004
 10
0.0
 20
0.0
 30
0.0
  0
TEXT
  8
CSLAYER1
 62
     3
 10
479.150452
 20
2321.474854
 40
40.000000
 41
0.771429
  1
足踏式油圧ポンプユニット
 50
0.000000
 51
0.000000
  7
EASYDRAW_FONT
 72
     5
 11
839.150452
 21
2321.474854
  0
TEXT
  8
CSLAYER1
 62
     3
 10
389.174866
 20
1716.523682
 40
40.000000
 41
0.763393
  1
外形寸法 400W×500D×280H
 50
0.000000
 51
0.000000
  7
EASYDRAW_FONT
 72
     5
 11
959.174866
 21
1716.523682
  0
LINE
  8
CSLAYER1
  6
CONTINUOUS
 62
     5
 10
1047.738725
 20
2394.550062
 11
1047.738725
 21
1690.440473
  0
LINE
  8
CSLAYER1
  6
CONTINUOUS
 62
     5
 10
1047.738725
 20
1690.440473
 11
246.444594
 21
1690.440473
  0
INSERT
  8
CSLAYER1
  2
EASYDRAWDIM0005
 10
0.0
 20
0.0
 30
0.0
  0
LINE
  8
CSLAYER1
  6
CONTINUOUS
 62
     7
 10
464.241500
 20
2366.921205
 11
854.252746
 21
2366.921205
  0
LINE
  8
CSLAYER1
  6
CONTINUOUS
 62
     7
 10
854.252746
 20
2366.921205
 11
854.252746
 21
2316.776902
  0
LINE
  8
CSLAYER1
  6
CONTINUOUS
 62
     7
 10
854.252746
 20
2316.776902
 11
464.241500
 21
2316.776902
  0
LINE
  8
CSLAYER1
  6
CONTINUOUS
 62
     7
 10
464.241500
 20
2316.776902
 11
464.241500
 21
2366.921205
  0
INSERT
  8
CSLAYER1
  2
BLKF0011
 10
0.0
 20
0.0
 30
0.0
  0
INSERT
  8
CSLAYER1
  2
BLKF0012
 10
0.0
 20
0.0
 30
0.0
  0
LINE
  8
CSLAYER1
  6
CONTINUOUS
 62
     7
 10
650.267723
 20
2050.896361
 11
647.320831
 21
2049.194972
  0
LINE
  8
CSLAYER1
  6
CONTINUOUS
 62
     7
 10
654.691334
 20
2043.234442
 11
651.744442
 21
2041.533053
  0
LINE
  8
CSLAYER1
  6
CONTINUOUS
 62
     7
 10
648.171525
 20
2047.721526
 11
650.560573
 21
2047.144452
  0
LINE
  8
CSLAYER1
  6
CONTINUOUS
 62
     7
 10
650.560573
 20
2047.144452
 11
651.588511
 21
2045.364013
  0
LINE
  8
CSLAYER1
  6
CONTINUOUS
 62
     7
 10
651.588511
 20
2045.364013
 11
650.893747
 21
2043.006499
  0
LINE
  8
CSLAYER1
  6
CONTINUOUS
 62
     7
 10
650.893747
 20
2043.006499
 11
648.504699
 21
2043.583573
  0
LINE
  8
CSLAYER1
  6
CONTINUOUS
 62
     7
 10
648.504699
 20
2043.583573
 11
647.476761
 21
2045.364013
  0
LINE
  8
CSLAYER1
  6
CONTINUOUS
 62
     7
 10
647.476761
 20
2045.364013
 11
648.171525
 21
2047.721526
  0
INSERT
  8
CSLAYER1
  2
BLKF0013
 10
0.0
 20
0.0
 30
0.0
  0
LINE
  8
CSLAYER1
  6
CONTINUOUS
 62
     7
 10
651.465073
 20
2053.033468
 11
649.280267
 21
2051.772070
  0
LINE
  8
CSLAYER1
  6
CONTINUOUS
 62
     7
 10
657.378752
 20
2042.511830
 11
655.278036
 21
2041.334262
  0
INSERT
  8
CSLAYER1
  2
BLKF0014
 10
0.0
 20
0.0
 30
0.0
  0
LINE
  8
CSLAYER1
  6
CONTINUOUS
 62
     7
 10
678.530062
 20
2055.446133
 11
657.485787
 21
2063.105622
  0
LINE
  8
CSLAYER1
  6
CONTINUOUS
 62
     7
 10
678.530062
 20
2055.446133
 11
678.530062
 21
2021.637799
  0
LINE
  8
CSLAYER1
  6
CONTINUOUS
 62
     7
 10
668.334969
 20
2049.075532
 11
668.334969
 21
2003.277033
  0
LINE
  8
CSLAYER1
  6
CONTINUOUS
 62
     7
 10
653.182048
 20
2025.503455
 11
651.048123
 21
2018.512521
  0
LINE
  8
CSLAYER1
  6
CONTINUOUS
 62
     7
 10
651.048123
 20
2018.512521
 11
643.926835
 21
2020.159955
  0
LINE
  8
CSLAYER1
  6
CONTINUOUS
 62
     7
 10
643.926835
 20
2020.159955
 11
640.841764
 21
2025.503455
  0
LINE
  8
CSLAYER1
  6
CONTINUOUS
 62
     7
 10
640.841764
 20
2025.503455
 11
642.926906
 21
2032.578882
  0
LINE
  8
CSLAYER1
  6
CONTINUOUS
 62
     7
 10
642.926906
 20
2032.578882
 11
650.096977
 21
2030.846954
  0
LINE
  8
CSLAYER1
  6
CONTINUOUS
 62
     7
 10
650.096977
 20
2030.846954
 11
653.182048
 21
2025.503455
  0
LINE
  8
CSLAYER1
  6
CONTINUOUS
 62
     7
 10
655.850626
 20
2027.044159
 11
653.716702
 21
2020.053225
  0
LINE
  8
CSLAYER1
  6
CONTINUOUS
 62
     7
 10
652.765555
 20
2032.387659
 11
655.850626
 21
2027.044159
  0
LINE
  8
CSLAYER1
  6
CONTINUOUS
 62
     7
 10
645.595484
 20
2034.119587
 11
652.765555
 21
2032.387659
  0
LINE
  8
CSLAYER1
  6
CONTINUOUS
 62
     7
 10
653.716702
 20
2020.053225
 11
651.048123
 21
2018.512521
  0
LINE
  8
CSLAYER1
  6
CONTINUOUS
 62
     7
 10
655.850626
 20
2027.044159
 11
653.182048
 21
2025.503455
  0
LINE
  8
CSLAYER1
  6
CONTINUOUS
 62
     7
 10
652.765555
 20
2032.387659
 11
650.096977
 21
2030.846954
  0
LINE
  8
CSLAYER1
  6
CONTINUOUS
 62
     7
 10
645.595484
 20
2034.119587
 11
642.926906
 21
2032.578882
  0
INSERT
  8
CSLAYER1
  2
BLKF0015
 10
0.0
 20
0.0
 30
0.0
  0
LINE
  8
CSLAYER1
  6
CONTINUOUS
 62
     7
 10
669.642686
 20
2055.059121
 11
667.982979
 21
2053.315016
  0
LINE
  8
CSLAYER1
  6
CONTINUOUS
 62
     7
 10
667.982979
 20
2053.315016
 11
665.969061
 21
2053.315016
  0
LINE
  8
CSLAYER1
  6
CONTINUOUS
 62
     7
 10
665.969061
 20
2053.315016
 11
664.309353
 21
2055.059121
  0
LINE
  8
CSLAYER1
  6
CONTINUOUS
 62
     7
 10
664.309353
 20
2055.059121
 11
665.969061
 21
2056.803225
  0
LINE
  8
CSLAYER1
  6
CONTINUOUS
 62
     7
 10
665.969061
 20
2056.803225
 11
667.982979
 21
2056.803225
  0
LINE
  8
CSLAYER1
  6
CONTINUOUS
 62
     7
 10
667.982979
 20
2056.803225
 11
669.642686
 21
2055.059121
  0
INSERT
  8
CSLAYER1
  2
BLKF0016
 10
0.0
 20
0.0
 30
0.0
  0
LINE
  8
CSLAYER1
  6
CONTINUOUS
 62
     7
 10
668.334969
 20
2049.075532
 11
647.290694
 21
2056.735021
  0
LINE
  8
CSLAYER1
  6
CONTINUOUS
 62
     7
 10
668.334969
 20
2049.075532
 11
678.530062
 21
2055.446133
  0
LINE
  8
CSLAYER1
  6
CONTINUOUS
 62
     7
 10
633.762083
 20
2060.342485
 11
633.762083
 21
2015.576435
  0
LINE
  8
CSLAYER1
  6
CONTINUOUS
 62
     7
 10
647.290694
 20
2056.735021
 11
657.485787
 21
2063.105622
  0
LINE
  8
CSLAYER1
  6
CONTINUOUS
 62
     7
 10
647.290694
 20
2055.418474
 11
633.762083
 21
2060.342485
  0
LINE
  8
CSLAYER1
  6
CONTINUOUS
 62
     7
 10
647.290694
 20
2056.735021
 11
647.290694
 21
2055.418474
  0
LINE
  8
CSLAYER1
  6
CONTINUOUS
 62
     7
 10
643.216219
 20
2055.722216
 11
636.577873
 21
2058.138377
  0
LINE
  8
CSLAYER1
  6
CONTINUOUS
 62
     7
 10
636.183894
 20
2059.461018
 11
636.577873
 21
2058.138377
  0
LINE
  8
CSLAYER1
  6
CONTINUOUS
 62
     7
 10
643.216219
 20
2055.722216
 11
645.430723
 21
2056.095448
  0
LINE
  8
CSLAYER1
  6
CONTINUOUS
 62
     7
 10
656.154380
 20
2062.273667
 11
649.879308
 21
2064.557607
  0
LINE
  8
CSLAYER1
  6
CONTINUOUS
 62
     7
 10
633.762083
 20
2060.342485
 11
642.817982
 21
2066.001240
  0
LINE
  8
CSLAYER1
  6
CONTINUOUS
 62
     7
 10
643.216219
 20
2055.722216
 11
643.216219
 21
2041.968762
  0
LINE
  8
CSLAYER1
  6
CONTINUOUS
 62
     7
 10
645.430723
 20
2056.095448
 11
645.430723
 21
2043.441427
  0
LINE
  8
CSLAYER1
  6
CONTINUOUS
 62
     7
 10
636.577873
 20
2058.138377
 11
636.577873
 21
2044.384922
  0
LINE
  8
CSLAYER1
  6
CONTINUOUS
 62
     7
 10
636.577873
 20
2044.384922
 11
638.302801
 21
2039.268875
  0
LINE
  8
CSLAYER1
  6
CONTINUOUS
 62
     7
 10
643.216219
 20
2041.968762
 11
640.839058
 21
2038.205284
  0
LINE
  8
CSLAYER1
  6
CONTINUOUS
 62
     7
 10
638.302801
 20
2039.268875
 11
638.302801
 21
2013.783583
  0
LINE
  8
CSLAYER1
  6
CONTINUOUS
 62
     7
 10
640.839058
 20
2038.205284
 11
640.839058
 21
2012.065474
  0
LINE
  8
CSLAYER1
  6
CONTINUOUS
 62
     7
 10
643.216219
 20
2041.968762
 11
645.337967
 21
2043.294577
  0
LINE
  8
CSLAYER1
  6
CONTINUOUS
 62
     7
 10
640.839058
 20
2038.205284
 11
642.960806
 21
2039.531099
  0
LINE
  8
CSLAYER1
  6
CONTINUOUS
 62
     7
 10
645.430723
 20
2043.441427
 11
643.053562
 21
2039.677949
  0
LINE
  8
CSLAYER1
  6
CONTINUOUS
 62
     7
 10
643.053562
 20
2039.677949
 11
643.053562
 21
2032.652007
  0
LINE
  8
CSLAYER1
  6
CONTINUOUS
 62
     7
 10
643.053562
 20
2021.672508
 11
643.053562
 21
2011.165512
  0
LINE
  8
CSLAYER1
  6
CONTINUOUS
 62
     7
 10
678.530062
 20
2021.637799
 11
681.064860
 21
2023.221716
  0
LINE
  8
CSLAYER1
  6
CONTINUOUS
 62
     7
 10
649.404188
 20
2008.143500
 11
613.067571
 21
2025.410212
  0
LINE
  8
CSLAYER1
  6
CONTINUOUS
 62
     7
 10
643.487477
 20
1995.821964
 11
608.026657
 21
2012.672509
  0
LINE
  8
CSLAYER1
  6
CONTINUOUS
 62
     7
 10
693.695095
 20
2008.658535
 11
690.715693
 21
1994.170180
  0
ARC
  8
CSLAYER1
  6
CONTINUOUS
 62
     7
 10
670.863944
 20
2053.304090
 40
50.000000
 50
244.583509
 51
263.653028
  0
ARC
  8
CSLAYER1
  6
CONTINUOUS
 62
     7
 10
670.955964
 20
2053.627519
 40
64.000000
 50
244.583509
 51
263.653028
  0
LINE
  8
CSLAYER1
  6
CONTINUOUS
 62
     7
 10
662.029076
 20
1990.253150
 11
662.029076
 21
1987.357422
  0
LINE
  8
CSLAYER1
  6
CONTINUOUS
 62
     7
 10
639.070102
 20
1995.713805
 11
636.263160
 21
1999.254871
  0
LINE
  8
CSLAYER1
  6
CONTINUOUS
 62
     5
 10
2719.017905
 20
536.003132
 11
3519.017905
 21
536.003132
  0
LINE
  8
CSLAYER1
  6
CONTINUOUS
 62
     5
 10
2719.017905
 20
176.003132
 11
3519.017905
 21
176.003132
  0
LINE
  8
CSLAYER1
  6
CONTINUOUS
 62
     5
 10
2719.017905
 20
336.003132
 11
3519.017905
 21
336.003132
  0
LINE
  8
CSLAYER1
  6
CONTINUOUS
 62
     5
 10
2719.017905
 20
396.003132
 11
3519.017905
 21
396.003132
  0
LINE
  8
CSLAYER1
  6
CONTINUOUS
 62
     5
 10
2719.017905
 20
456.003132
 11
3519.017905
 21
456.003132
  0
LINE
  8
CSLAYER1
  6
CONTINUOUS
 62
     5
 10
2719.017905
 20
616.003132
 11
3519.017905
 21
616.003132
  0
LINE
  8
CSLAYER1
  6
CONTINUOUS
 62
     5
 10
2719.017905
 20
696.003132
 11
2719.017905
 21
96.003132
  0
LINE
  8
CSLAYER1
  6
CONTINUOUS
 62
     5
 10
2919.017905
 20
696.003132
 11
2919.017905
 21
456.003132
  0
LINE
  8
CSLAYER1
  6
CONTINUOUS
 62
     5
 10
2719.017905
 20
696.003132
 11
3519.017905
 21
696.003132
  0
LINE
  8
CSLAYER1
  6
CONTINUOUS
 62
     5
 10
3219.017905
 20
456.003132
 11
3219.017905
 21
176.003132
  0
TEXT
  8
CSLAYER1
 62
     3
 10
2938.709041
 20
104.565845
 40
59.380363
 41
1.003345
  1
東正車輌株式会社
 50
0.000000
 51
0.000000
  7
EASYDRAW_FONT
 72
     5
 11
3395.481389
 21
104.565845
  0
LINE
  8
CSLAYER1
  6
CONTINUOUS
 62
     5
 10
2969.017905
 20
396.003132
 11
2969.017905
 21
176.003132
  0
TEXT
  8
CSLAYER1
 62
     5
 10
2749.017822
 20
631.003113
 40
50.000000
 41
1.050000
  1
品　名
 50
0.000000
 51
0.000000
  7
EASYDRAW_FONT
 72
     5
 11
2889.017822
 21
631.003113
  0
TEXT
  8
CSLAYER1
 62
     5
 10
2749.017822
 20
551.003113
 40
50.000000
 41
1.050000
  1
型　式
 50
0.000000
 51
0.000000
  7
EASYDRAW_FONT
 72
     5
 11
2889.017822
 21
551.003113
  0
TEXT
  8
CSLAYER1
 62
     5
 10
2724.017822
 20
471.003143
 40
50.000000
 41
1.036364
  1
図面番号
 50
0.000000
 51
0.000000
  7
EASYDRAW_FONT
 72
     5
 11
2914.017822
 21
471.003143
  0
TEXT
  8
CSLAYER1
 62
     5
 10
2749.017822
 20
401.003143
 40
50.000000
 41
0.825000
  1
平成26年01月10日
 50
0.000000
 51
0.000000
  7
EASYDRAW_FONT
 72
     5
 11
3189.017822
 21
401.003143
  0
TEXT
  8
CSLAYER1
 62
     5
 10
3299.017822
 20
401.003143
 40
50.000000
 41
1.050000
  1
Ｂ－４
 50
0.000000
 51
0.000000
  7
EASYDRAW_FONT
 72
     5
 11
3439.017822
 21
401.003143
  0
TEXT
  8
CSLAYER1
 62
     5
 10
2774.017822
 20
341.003143
 40
50.000000
 41
1.050000
  1
検　図
 50
0.000000
 51
0.000000
  7
EASYDRAW_FONT
 72
     5
 11
2914.017822
 21
341.003143
  0
TEXT
  8
CSLAYER1
 62
     5
 10
3024.017822
 20
341.003143
 40
50.000000
 41
1.050000
  1
作　図
 50
0.000000
 51
0.000000
  7
EASYDRAW_FONT
 72
     5
 11
3164.017822
 21
341.003143
  0
TEXT
  8
CSLAYER1
 62
     5
 10
3299.017822
 20
341.003143
 40
50.000000
 41
1.050000
  1
尺　度
 50
0.000000
 51
0.000000
  7
EASYDRAW_FONT
 72
     5
 11
3439.017822
 21
341.003143
  0
TEXT
  8
CSLAYER1
 62
     5
 10
3399.756592
 20
190.488388
 40
50.000000
 41
1.080000
  1
１０
 50
0.000000
 51
0.000000
  7
EASYDRAW_FONT
 72
     5
 11
3489.756592
 21
190.488388
  0
TEXT
  8
CSLAYER1
 62
     5
 10
3379.437012
 20
238.193085
 40
50.000000
 41
1.200000
  1
／
 50
0.000000
 51
0.000000
  7
EASYDRAW_FONT
 72
     5
 11
3419.437012
 21
238.193085
  0
TEXT
  8
CSLAYER1
 62
     5
 10
3349.224121
 20
273.176544
 40
50.000000
 41
1.200000
  1
１
 50
0.000000
 51
0.000000
  7
EASYDRAW_FONT
 72
     5
 11
3389.224121
 21
273.176544
  0
TEXT
  8
CSLAYER1
 62
     3
 10
3059.017822
 20
631.003113
 40
50.000000
 41
0.834783
  1
ゴールドリフター
 50
0.000000
 51
0.000000
  7
EASYDRAW_FONT
 72
     5
 11
3379.017822
 21
631.003113
  0
TEXT
  8
CSLAYER1
 62
     3
 10
2959.017822
 20
551.003113
 40
50.000000
 41
0.821053
  1
GLSH-250-2508
 50
0.000000
 51
0.000000
  7
EASYDRAW_FONT
 72
     5
 11
3479.017822
 21
551.003113
  0
INSERT
  8
CSLAYER1
  2
BLKF0017
 10
0.0
 20
0.0
 30
0.0
  0
INSERT
  8
CSLAYER1
  2
EASYDRAWDIM0006
 10
0.0
 20
0.0
 30
0.0
  0
LINE
  8
CSLAYER1
  6
CONTINUOUS
 62
     5
 10
1064.885266
 20
656.981234
 11
1322.082384
 21
656.981234
  0
TEXT
  8
CSLAYER1
 62
     3
 10
1100.139160
 20
664.789978
 40
40.000000
 41
0.787500
  1
(アンカー穴)
 50
0.000000
 51
0.000000
  7
EASYDRAW_FONT
 72
     5
 11
1310.139160
 21
664.789978
  0
LINE
  8
CSLAYER1
  6
CONTINUOUS
 62
     5
 10
961.849672
 20
817.763846
 11
1064.885266
 21
656.981234
  0
LINE
  8
CSLAYER1
  6
CONTINUOUS
 62
     5
 10
961.849672
 20
817.763846
 11
984.022137
 21
797.555387
  0
LINE
  8
CSLAYER1
  6
CONTINUOUS
 62
     5
 10
961.849672
 20
817.763846
 11
970.947361
 21
789.176575
  0
LINE
  8
CSLAYER1
  6
CONTINUOUS
 62
     5
 10
986.849672
 20
817.763846
 11
1422.258499
 21
817.763846
  0
LINE
  8
CSLAYER1
  6
CONTINUOUS
 62
     3
 10
1422.258499
 20
817.763846
 11
2225.258499
 21
817.763846
  0
LINE
  8
CSLAYER1
  6
CONTINUOUS
 62
     5
 10
2225.258499
 20
817.763846
 11
2618.800566
 21
817.763846
  0
LINE
  8
CSLAYER1
  6
CONTINUOUS
 62
     3
 10
2618.800566
 20
817.763846
 11
2918.800566
 21
817.763846
  0
LINE
  8
CSLAYER1
  6
CONTINUOUS
 62
     5
 10
2918.800566
 20
817.763846
 11
3176.439389
 21
817.763846
  0
INSERT
  8
CSLAYER1
  2
EASYDRAWDIM0007
 10
0.0
 20
0.0
 30
0.0
  0
LINE
  8
CSLAYER1
  6
CONTINUOUS
 62
     5
 10
1447.258499
 20
1860.707719
 11
1524.441936
 21
1715.707719
  0
LINE
  8
CSLAYER1
  6
CONTINUOUS
 62
     5
 10
1447.258499
 20
1860.707719
 11
1467.728539
 21
1838.776521
  0
LINE
  8
CSLAYER1
  6
CONTINUOUS
 62
     5
 10
1447.258499
 20
1860.707719
 11
1454.020475
 21
1831.479725
  0
DIMENSION
  8
CSLAYER1
 62
     3
  2
*D0012
 10
2225.258499
 20
607.763846
 11
1823.758545
 21
617.763794
 13
1422.258499
 23
817.763846
 14
2225.258499
 24
817.763846
 52
270.000000
 70
1
  0
DIMENSION
  8
CSLAYER1
 62
     3
  2
*D0013
 10
1447.258499
 20
697.763846
 11
1507.258545
 21
707.763855
 13
1422.258499
 23
817.763846
 14
1447.258499
 24
835.263846
 52
270.000000
  0
DIMENSION
  8
CSLAYER1
 62
     3
  2
*D0014
 10
1447.258499
 20
1715.707719
 11
1362.258545
 21
1725.707642
 13
1422.258499
 23
1845.707719
 14
1447.258499
 24
1849.444918
 52
270.000000
  0
DIMENSION
  8
CSLAYER1
 62
     3
  2
*D0015
 10
1472.258499
 20
1625.707719
 11
1362.258545
 21
1635.707642
 13
1422.258499
 23
1845.707719
 14
1472.258499
 24
1845.707719
 52
270.000000
 70
1
  0
LINE
  8
CSLAYER1
  6
CONTINUOUS
 62
     5
 10
1447.258499
 20
817.763846
 11
1322.082384
 21
656.981234
  0
LINE
  8
CSLAYER1
  6
CONTINUOUS
 62
     5
 10
1447.258499
 20
817.763846
 11
1435.583681
 21
790.128748
  0
LINE
  8
CSLAYER1
  6
CONTINUOUS
 62
     5
 10
1447.258499
 20
817.763846
 11
1423.330261
 21
799.668557
  0
TEXT
  8
CSLAYER1
 62
     3
 10
3137.351074
 20
1774.549805
 40
40.000000
 41
0.859091
  1
約 45
 50
0.000000
 51
0.000000
  7
EASYDRAW_FONT
 72
     5
 11
3263.351074
 21
1774.549805
  0
ENDSEC
  0
EOF
