  0
SECTION
  2
HEADER
  9
$ACADVER
  1
AC1006
  9
$INSBASE
 10
1193.956175
 20
2049.355149
 30
0.0
  9
$EXTMIN
 10
1193.956175
 20
2049.355149
  9
$EXTMAX
 10
4833.956175
 20
4619.355149
  9
$LIMMIN
 10
1193.956175
 20
2049.355149
  9
$LIMMAX
 10
4833.956175
 20
4619.355149
  9
$VIEWCTR
 10
3013.956175
 20
3334.355149
  9
$VIEWSIZE
 40
2570.000000
  9
$SNAPMODE
 70
     0
  9
$SNAPUNIT
 10
1.0
 20
1.0
  9
$SNAPBASE
 10
0.0
 20
0.0
  9
$SNAPANG
 50
0.0
  9
$SNAPSTYLE
 70
     0
  9
$SNAPISOPAIR
 70
     0
  9
$GRIDMODE
 70
     0
  9
$GRIDUNIT
 10
0.0
 20
0.0
  9
$ORTHOMODE
 70
     0
  9
$REGENMODE
 70
     1
  9
$FILLMODE
 70
     1
  9
$QTEXTMODE
 70
     0
  9
$DRAGMODE
 70
     2
  9
$LTSCALE
 40
15.000000
  9
$OSMODE
 70
     0
  9
$ATTMODE
 70
     1
  9
$TEXTSIZE
 40
0.2
  9
$TRACEWID
 40
0.05
  9
$TEXTSTYLE
  7
STANDARD
  9
$CLAYER
  8
CSLAYER1
  9
$CELTYPE
  6
BYLAYER
  9
$CECOLOR
 62
   256
  9
$DIMSCALE
 40
1.0
  9
$DIMASZ
 40
0.18
  9
$DIMEXO
 40
0.0625
  9
$DIMDLI
 40
0.38
  9
$DIMRND
 40
0.0
  9
$DIMDLE
 40
0.0
  9
$DIMEXE
 40
0.18
  9
$DIMTP
 40
0.0
  9
$DIMTM
 40
0.0
  9
$DIMTXT
 40
0.18
  9
$DIMCEN
 40
0.09
  9
$DIMTSZ
 40
0.0
  9
$DIMTOL
 70
     0
  9
$DIMLIM
 70
     0
  9
$DIMTIH
 70
     1
  9
$DIMTOH
 70
     1
  9
$DIMSE1
 70
     0
  9
$DIMSE2
 70
     0
  9
$DIMTAD
 70
     0
  9
$DIMZIN
 70
     0
  9
$DIMBLK
  1

  9
$LUNITS
 70
     2
  9
$LUPREC
 70
     4
  9
$AXISMODE
 70
     0
  9
$AXISUNIT
 10
0.0
 20
0.0
  9
$SKETCHINC
 40
0.1
  9
$FILLETRAD
 40
0.0
  9
$AUNITS
 70
     0
  9
$AUPREC
 70
     0
  9
$MENU
  1
ACAD
  9
$ELEVATION
 40
0.0
  9
$THICKNESS
 40
0.0
  9
$VIEWDIR
 10
0.0
 20
0.0
 30
1.0
  9
$LIMCHECK
 70
     0
  9
$BLIPMODE
 70
     1
  9
$CHAMFERA
 40
0.0
  9
$CHAMFERB
 40
0.0
  9
$FASTZOOM
 70
     1
  9
$SKPOLY
 70
     0
  9
$TDCREATE
 40
2456676.000000
  9
$TDUPDATE
 40
2456676.000000
  9
$TDINDWG
 40
0.0
  9
$TDUSRTIMER
 40
0.0
  9
$USRTIMER
 70
     1
  9
$ANGBASE
 50
0.0
  9
$ANGDIR
 70
     0
  9
$PDMODE
 70
     0
  9
$PDSIZE
 40
0.0
  9
$PLINEWID
 40
0.0
  9
$COORDS
 70
     0
  9
$USERI1
 70
     0
  9
$USERI2
 70
     0
  9
$USERI3
 70
     0
  9
$USERI4
 70
     0
  9
$USERI5
 70
     0
  9
$USERR1
 40
0.0
  9
$USERR2
 40
0.0
  9
$USERR3
 40
0.0
  9
$USERR4
 40
0.0
  9
$USERR5
 40
0.0
  0
ENDSEC
  0
SECTION
  2
TABLES
  0
TABLE
  2
LTYPE
 70
     9
  0
LTYPE
  2
CONTINUOUS
 70
    64
  3
Solid line
 72
    65
 73
     0
 40
0.0
  0
LTYPE
  2
DASHED
 70
    64
  3
__ __ __ __ __ __ __ __ __ __ __ __ __ __ __
 72
    65
 73
     2
 40
0.75
 49
0.5
 49
-0.25
  0
LTYPE
  2
HIDDEN
 70
    64
  3
_ _ _ _ _ _ _ _ _ _ _ _ _ _ _ _ _ _ _ _ _ _ _
 72
    65
 73
     2
 40
0.375
 49
0.25
 49
-0.125
  0
LTYPE
  2
DOT
 70
    64
  3
...............................................
 72
    65
 73
     2
 40
0.25
 49
0.0
 49
-0.25
  0
LTYPE
  2
DASHDOT
 70
    64
  3
__ . __ . __ . __ . __ . __ . __ . __ . __ . __
 72
    65
 73
     4
 40
1.0
 49
0.5
 49
-0.25
 49
0.0
 49
-0.25
  0
LTYPE
  2
DIVIDE
 70
    64
  3
__ . . __ . . __ . . __ . . __ . . __ . . __
 72
    65
 73
     6
 40
1.25
 49
0.5
 49
-0.25
 49
0.0
 49
-0.25
 49
0.0
 49
-0.25
  0
LTYPE
  2
CENTER
 70
    64
  3
____ _ ____ _ ____ _ ____ _ ____ _ ____ _ ____ 
 72
    65
 73
     4
 40
2.0
 49
1.25
 49
-0.25
 49
0.25
 49
-0.25
  0
LTYPE
  2
PHANTOM
 70
    64
  3
______  __  __  ______  __  __  ______  __  __ 
 72
    65
 73
     6
 40
2.5
 49
1.25
 49
-0.25
 49
0.25
 49
-0.25
 49
0.25
 49
-0.25
  0
LTYPE
  2
BORDER
 70
    64
  3
__ __ . __ __ . __ __ . __ __ . __ __ . __ __ .
 72
    65
 73
     6
 40
1.75
 49
0.5
 49
-0.25
 49
0.5
 49
-0.25
 49
0.0
 49
-0.25
  0
ENDTAB
  0
TABLE
  2
LAYER
 70
    16
  0
LAYER
  2
CSLAYER1
 70
    64
 62
     7
  6
CONTINUOUS
  0
LAYER
  2
CSLAYER2
 70
    64
 62
     7
  6
CONTINUOUS
  0
LAYER
  2
CSLAYER3
 70
    64
 62
     7
  6
CONTINUOUS
  0
LAYER
  2
CSLAYER4
 70
    64
 62
     7
  6
CONTINUOUS
  0
LAYER
  2
CSLAYER5
 70
    64
 62
     7
  6
CONTINUOUS
  0
LAYER
  2
CSLAYER6
 70
    64
 62
     7
  6
CONTINUOUS
  0
LAYER
  2
CSLAYER7
 70
    64
 62
     7
  6
CONTINUOUS
  0
LAYER
  2
CSLAYER8
 70
    64
 62
     7
  6
CONTINUOUS
  0
LAYER
  2
CSLAYER9
 70
    64
 62
     7
  6
CONTINUOUS
  0
LAYER
  2
CSLAYER10
 70
    64
 62
     7
  6
CONTINUOUS
  0
LAYER
  2
CSLAYER11
 70
    64
 62
     7
  6
CONTINUOUS
  0
LAYER
  2
CSLAYER12
 70
    64
 62
     7
  6
CONTINUOUS
  0
LAYER
  2
CSLAYER13
 70
    64
 62
     7
  6
CONTINUOUS
  0
LAYER
  2
CSLAYER14
 70
    64
 62
     7
  6
CONTINUOUS
  0
LAYER
  2
CSLAYER15
 70
    64
 62
     7
  6
CONTINUOUS
  0
LAYER
  2
CSLAYER16
 70
    64
 62
     7
  6
CONTINUOUS
  0
ENDTAB
  0
TABLE
  2
STYLE
 70
     1
  0
STYLE
  2
EASYDRAW_FONT
 70
     0
 40
1.0
 41
1.0
 50
0.0
 71
     0
 42
1.0
  3
monotxt
  4
bigfont
  0
ENDTAB
  0
TABLE
  2
VIEW
 70
     0
  0
ENDTAB
  0
ENDSEC
  0
SECTION
  2
BLOCKS
  0
BLOCK
  8
CSLAYER1
  2
EASYDRAWDIM0000
 70
   64
 10
0.0
 20
0.0
 30
0.0
  0
TEXT
  8
CSLAYER1
 62
     3
 10
270.199158
 20
2227.344971
 40
48.000000
 41
0.787500
  1
昇降切替バルブ
 50
0.000000
 51
0.000000
  7
EASYDRAW_FONT
 72
     5
 11
522.199158
 21
2227.344971
  0
LINE
  8
CSLAYER1
  6
CONTINUOUS
 62
     7
 10
622.095492
 20
2076.623199
 11
522.199692
 21
2217.344556
  0
LINE
  8
CSLAYER1
  6
CONTINUOUS
 62
     7
 10
622.095492
 20
2076.623199
 11
598.990003
 21
2095.757890
  0
LINE
  8
CSLAYER1
  6
CONTINUOUS
 62
     7
 10
622.095492
 20
2076.623199
 11
611.652897
 21
2104.747072
  0
LINE
  8
CSLAYER1
  6
CONTINUOUS
 62
     7
 10
522.199692
 20
2217.344556
 11
262.199692
 21
2217.344556
  0
ENDBLK
  8
0
  0
BLOCK
  8
CSLAYER1
  2
EASYDRAWDIM0001
 70
   64
 10
0.0
 20
0.0
 30
0.0
  0
TEXT
  8
CSLAYER1
 62
     3
 10
293.946716
 20
2138.097412
 40
48.000000
 41
0.794118
  1
ポンプペタル
 50
0.000000
 51
0.000000
  7
EASYDRAW_FONT
 72
     5
 11
509.946716
 21
2138.097412
  0
LINE
  8
CSLAYER1
  6
CONTINUOUS
 62
     7
 10
575.552337
 20
2048.282797
 11
511.898619
 21
2128.096858
  0
LINE
  8
CSLAYER1
  6
CONTINUOUS
 62
     7
 10
575.552337
 20
2048.282797
 11
551.413840
 21
2066.096639
  0
LINE
  8
CSLAYER1
  6
CONTINUOUS
 62
     7
 10
575.552337
 20
2048.282797
 11
563.554707
 21
2075.779285
  0
LINE
  8
CSLAYER1
  6
CONTINUOUS
 62
     7
 10
511.898619
 20
2128.096858
 11
281.898619
 21
2128.096858
  0
ENDBLK
  8
0
  0
BLOCK
  8
CSLAYER1
  2
EASYDRAWDIM0002
 70
   64
 10
0.0
 20
0.0
 30
0.0
  0
TEXT
  8
CSLAYER1
 62
     3
 10
648.666931
 20
2233.218506
 40
48.000000
 41
0.787500
  1
高圧ホース２m
 50
0.000000
 51
0.000000
  7
EASYDRAW_FONT
 72
     5
 11
900.666931
 21
2233.218506
  0
LINE
  8
CSLAYER1
  6
CONTINUOUS
 62
     7
 10
975.983289
 20
2093.372889
 11
908.718257
 21
2223.218180
  0
LINE
  8
CSLAYER1
  6
CONTINUOUS
 62
     7
 10
975.983289
 20
2093.372889
 11
955.759649
 21
2115.531507
  0
LINE
  8
CSLAYER1
  6
CONTINUOUS
 62
     7
 10
975.983289
 20
2093.372889
 11
969.548412
 21
2122.674636
  0
LINE
  8
CSLAYER1
  6
CONTINUOUS
 62
     7
 10
908.718257
 20
2223.218180
 11
638.718257
 21
2223.218180
  0
ENDBLK
  8
0
  0
BLOCK
  8
CSLAYER1
  2
*D0000
 70
    65
 10
0.0
 20
0.0
 30
0.0
  0
TEXT
  8
CSLAYER1
 62
     3
 10
968.241577
 20
1265.059570
 40
40.000000
 41
0.769737
  1
テーブルのズレ　ＭＡＸ２０
 50
0.000000
 51
0.000000
  7
EASYDRAW_FONT
 72
     5
 11
1358.241577
 21
1265.059570
  0
LINE
  8
CSLAYER1
  6
CONTINUOUS
 62
     5
 10
1341.725350
 20
879.475686
 11
1341.725350
 21
1261.315058
  0
LINE
  8
CSLAYER1
  6
CONTINUOUS
 62
     5
 10
1361.570309
 20
1381.039357
 11
1361.570309
 21
1245.315058
  0
LINE
  8
CSLAYER1
  6
CONTINUOUS
 62
     5
 10
1341.725350
 20
1253.315058
 11
1361.570309
 21
1253.315058
  0
LINE
  8
CSLAYER1
  6
CONTINUOUS
 62
     5
 10
955.446833
 20
1253.315058
 11
1341.725350
 21
1253.315058
  0
LINE
  8
CSLAYER1
  6
CONTINUOUS
 62
     5
 10
1341.725350
 20
1253.315058
 11
1312.747575
 21
1261.079629
  0
LINE
  8
CSLAYER1
  6
CONTINUOUS
 62
     5
 10
1341.725350
 20
1253.315058
 11
1312.747575
 21
1245.550486
  0
LINE
  8
CSLAYER1
  6
CONTINUOUS
 62
     5
 10
1361.570309
 20
1253.315058
 11
1401.570309
 21
1253.315058
  0
LINE
  8
CSLAYER1
  6
CONTINUOUS
 62
     5
 10
1361.570309
 20
1253.315058
 11
1390.548083
 21
1261.079629
  0
LINE
  8
CSLAYER1
  6
CONTINUOUS
 62
     5
 10
1361.570309
 20
1253.315058
 11
1390.548083
 21
1245.550486
  0
ENDBLK
  8
0
  0
BLOCK
  8
CSLAYER1
  2
EASYDRAWDIM0003
 70
   64
 10
0.0
 20
0.0
 30
0.0
  0
TEXT
  8
CSLAYER1
 62
     3
 10
1032.903442
 20
1179.486084
 40
40.000000
 41
0.787500
  1
油圧シリンダー
 50
0.000000
 51
0.000000
  7
EASYDRAW_FONT
 72
     5
 11
1242.903442
 21
1179.486084
  0
LINE
  8
CSLAYER1
  6
CONTINUOUS
 62
     5
 10
1248.907098
 20
1171.486179
 11
1026.579304
 21
1171.486179
  0
ENDBLK
  8
0
  0
BLOCK
  8
CSLAYER1
  2
EASYDRAWDIM0004
 70
   64
 10
0.0
 20
0.0
 30
0.0
  0
TEXT
  8
CSLAYER1
 62
     3
 10
998.594116
 20
1007.337830
 40
40.000000
 41
0.803571
  1
高圧ホース
 50
0.000000
 51
0.000000
  7
EASYDRAW_FONT
 72
     5
 11
1148.594116
 21
1007.337830
  0
LINE
  8
CSLAYER1
  6
CONTINUOUS
 62
     5
 10
1263.867519
 20
818.125686
 11
1161.064469
 21
999.337843
  0
LINE
  8
CSLAYER1
  6
CONTINUOUS
 62
     5
 10
1263.867519
 20
818.125686
 11
1242.815393
 21
839.498752
  0
LINE
  8
CSLAYER1
  6
CONTINUOUS
 62
     5
 10
1263.867519
 20
818.125686
 11
1256.322376
 21
847.161367
  0
LINE
  8
CSLAYER1
  6
CONTINUOUS
 62
     5
 10
1161.064469
 20
999.337843
 11
988.531703
 21
999.337843
  0
ENDBLK
  8
0
  0
BLOCK
  8
CSLAYER1
  2
*D0001
 70
    65
 10
0.0
 20
0.0
 30
0.0
  0
TEXT
  8
CSLAYER1
 62
     3
 10
980.710266
 20
834.695740
 40
40.000000
 41
1.125000
  1
6
 50
90.000000
 51
0.000000
  7
EASYDRAW_FONT
 72
     5
 11
980.710266
 21
864.695740
  0
LINE
  8
CSLAYER1
  6
CONTINUOUS
 62
     5
 10
911.616524
 20
799.475686
 11
996.710315
 21
799.475686
  0
LINE
  8
CSLAYER1
  6
CONTINUOUS
 62
     5
 10
911.616524
 20
805.475686
 11
996.710315
 21
805.475686
  0
LINE
  8
CSLAYER1
  6
CONTINUOUS
 62
     5
 10
988.710315
 20
799.475686
 11
988.710315
 21
805.475686
  0
LINE
  8
CSLAYER1
  6
CONTINUOUS
 62
     5
 10
988.710315
 20
778.811466
 11
988.710315
 21
799.475686
  0
LINE
  8
CSLAYER1
  6
CONTINUOUS
 62
     5
 10
988.710315
 20
799.475686
 11
980.945743
 21
770.497911
  0
LINE
  8
CSLAYER1
  6
CONTINUOUS
 62
     5
 10
988.710315
 20
799.475686
 11
996.474886
 21
770.497911
  0
LINE
  8
CSLAYER1
  6
CONTINUOUS
 62
     5
 10
988.710315
 20
805.475686
 11
988.710315
 21
869.915805
  0
LINE
  8
CSLAYER1
  6
CONTINUOUS
 62
     5
 10
988.710315
 20
805.475686
 11
980.945743
 21
834.453460
  0
LINE
  8
CSLAYER1
  6
CONTINUOUS
 62
     5
 10
988.710315
 20
805.475686
 11
996.474886
 21
834.453460
  0
ENDBLK
  8
0
  0
BLOCK
  8
CSLAYER1
  2
*D0002
 70
    65
 10
0.0
 20
0.0
 30
0.0
  0
TEXT
  8
CSLAYER1
 62
     3
 10
708.616516
 20
687.475647
 40
40.000000
 41
0.843750
  1
250
 50
0.000000
 51
0.000000
  7
EASYDRAW_FONT
 72
     5
 11
798.616516
 21
687.475647
  0
LINE
  8
CSLAYER1
  6
CONTINUOUS
 62
     5
 10
628.616524
 20
791.475686
 11
628.616524
 21
671.475686
  0
LINE
  8
CSLAYER1
  6
CONTINUOUS
 62
     5
 10
878.616524
 20
791.475686
 11
878.616524
 21
671.475686
  0
LINE
  8
CSLAYER1
  6
CONTINUOUS
 62
     5
 10
628.616524
 20
679.475686
 11
878.616524
 21
679.475686
  0
LINE
  8
CSLAYER1
  6
CONTINUOUS
 62
     5
 10
628.616524
 20
679.475686
 11
657.594299
 21
687.240257
  0
LINE
  8
CSLAYER1
  6
CONTINUOUS
 62
     5
 10
628.616524
 20
679.475686
 11
657.594299
 21
671.711114
  0
LINE
  8
CSLAYER1
  6
CONTINUOUS
 62
     5
 10
878.616524
 20
679.475686
 11
849.638749
 21
687.240257
  0
LINE
  8
CSLAYER1
  6
CONTINUOUS
 62
     5
 10
878.616524
 20
679.475686
 11
849.638749
 21
671.711114
  0
ENDBLK
  8
0
  0
BLOCK
  8
CSLAYER1
  2
*D0003
 70
    65
 10
0.0
 20
0.0
 30
0.0
  0
TEXT
  8
CSLAYER1
 62
     3
 10
708.616516
 20
597.475708
 40
40.000000
 41
0.843750
  1
300
 50
0.000000
 51
0.000000
  7
EASYDRAW_FONT
 72
     5
 11
798.616516
 21
597.475708
  0
LINE
  8
CSLAYER1
  6
CONTINUOUS
 62
     5
 10
603.616524
 20
791.475686
 11
603.616524
 21
581.475686
  0
LINE
  8
CSLAYER1
  6
CONTINUOUS
 62
     5
 10
903.616524
 20
791.475686
 11
903.616524
 21
581.475686
  0
LINE
  8
CSLAYER1
  6
CONTINUOUS
 62
     5
 10
603.616524
 20
589.475686
 11
903.616524
 21
589.475686
  0
LINE
  8
CSLAYER1
  6
CONTINUOUS
 62
     5
 10
603.616524
 20
589.475686
 11
632.594299
 21
597.240257
  0
LINE
  8
CSLAYER1
  6
CONTINUOUS
 62
     5
 10
603.616524
 20
589.475686
 11
632.594299
 21
581.711114
  0
LINE
  8
CSLAYER1
  6
CONTINUOUS
 62
     5
 10
903.616524
 20
589.475686
 11
874.638749
 21
597.240257
  0
LINE
  8
CSLAYER1
  6
CONTINUOUS
 62
     5
 10
903.616524
 20
589.475686
 11
874.638749
 21
581.711114
  0
ENDBLK
  8
0
  0
BLOCK
  8
CSLAYER1
  2
*D0004
 70
    65
 10
0.0
 20
0.0
 30
0.0
  0
TEXT
  8
CSLAYER1
 62
     3
 10
2451.570557
 20
809.475708
 40
40.000000
 41
0.900000
  1
80
 50
90.000000
 51
0.000000
  7
EASYDRAW_FONT
 72
     5
 11
2451.570557
 21
869.475708
  0
LINE
  8
CSLAYER1
  6
CONTINUOUS
 62
     5
 10
2532.576738
 20
799.475686
 11
2451.570309
 21
799.475686
  0
LINE
  8
CSLAYER1
  6
CONTINUOUS
 62
     5
 10
2582.576738
 20
879.475686
 11
2451.570309
 21
879.475686
  0
LINE
  8
CSLAYER1
  6
CONTINUOUS
 62
     5
 10
2461.570309
 20
799.475686
 11
2461.570309
 21
879.475686
  0
LINE
  8
CSLAYER1
  6
CONTINUOUS
 62
     5
 10
2461.570309
 20
799.475686
 11
2453.805737
 21
828.453460
  0
LINE
  8
CSLAYER1
  6
CONTINUOUS
 62
     5
 10
2461.570309
 20
799.475686
 11
2469.334880
 21
828.453460
  0
LINE
  8
CSLAYER1
  6
CONTINUOUS
 62
     5
 10
2461.570309
 20
879.475686
 11
2453.805737
 21
850.497911
  0
LINE
  8
CSLAYER1
  6
CONTINUOUS
 62
     5
 10
2461.570309
 20
879.475686
 11
2469.334880
 21
850.497911
  0
ENDBLK
  8
0
  0
BLOCK
  8
CSLAYER1
  2
*D0005
 70
    65
 10
0.0
 20
0.0
 30
0.0
  0
TEXT
  8
CSLAYER1
 62
     3
 10
2271.570557
 20
809.475708
 40
40.000000
 41
0.900000
  1
80
 50
90.000000
 51
0.000000
  7
EASYDRAW_FONT
 72
     5
 11
2271.570557
 21
869.475708
  0
LINE
  8
CSLAYER1
  6
CONTINUOUS
 62
     5
 10
2151.725350
 20
879.475686
 11
2291.570309
 21
879.475686
  0
LINE
  8
CSLAYER1
  6
CONTINUOUS
 62
     5
 10
2281.570309
 20
799.475686
 11
2281.570309
 21
879.475686
  0
LINE
  8
CSLAYER1
  6
CONTINUOUS
 62
     5
 10
2281.570309
 20
799.475686
 11
2273.805737
 21
828.453460
  0
LINE
  8
CSLAYER1
  6
CONTINUOUS
 62
     5
 10
2281.570309
 20
799.475686
 11
2289.334880
 21
828.453460
  0
LINE
  8
CSLAYER1
  6
CONTINUOUS
 62
     5
 10
2281.570309
 20
879.475686
 11
2273.805737
 21
850.497911
  0
LINE
  8
CSLAYER1
  6
CONTINUOUS
 62
     5
 10
2281.570309
 20
879.475686
 11
2289.334880
 21
850.497911
  0
ENDBLK
  8
0
  0
BLOCK
  8
CSLAYER1
  2
*D0006
 70
    65
 10
0.0
 20
0.0
 30
0.0
  0
TEXT
  8
CSLAYER1
 62
     3
 10
2271.570557
 20
1100.257446
 40
40.000000
 41
0.843750
  1
500
 50
90.000000
 51
0.000000
  7
EASYDRAW_FONT
 72
     5
 11
2271.570557
 21
1190.257446
  0
LINE
  8
CSLAYER1
  6
CONTINUOUS
 62
     5
 10
2281.570309
 20
879.475686
 11
2281.570309
 21
1411.039357
  0
LINE
  8
CSLAYER1
  6
CONTINUOUS
 62
     5
 10
2281.570309
 20
879.475686
 11
2273.805737
 21
908.453460
  0
LINE
  8
CSLAYER1
  6
CONTINUOUS
 62
     5
 10
2281.570309
 20
879.475686
 11
2289.334880
 21
908.453460
  0
LINE
  8
CSLAYER1
  6
CONTINUOUS
 62
     5
 10
2281.570309
 20
1411.039357
 11
2273.805737
 21
1382.061582
  0
LINE
  8
CSLAYER1
  6
CONTINUOUS
 62
     5
 10
2281.570309
 20
1411.039357
 11
2289.334880
 21
1382.061582
  0
ENDBLK
  8
0
  0
BLOCK
  8
CSLAYER1
  2
*D0007
 70
    65
 10
0.0
 20
0.0
 30
0.0
  0
TEXT
  8
CSLAYER1
 62
     3
 10
1716.570435
 20
1521.039185
 40
40.000000
 41
0.843750
  1
800
 50
0.000000
 51
0.000000
  7
EASYDRAW_FONT
 72
     5
 11
1806.570435
 21
1521.039185
  0
LINE
  8
CSLAYER1
  6
CONTINUOUS
 62
     5
 10
1361.570309
 20
1421.039357
 11
1361.570309
 21
1521.039357
  0
LINE
  8
CSLAYER1
  6
CONTINUOUS
 62
     5
 10
2161.570309
 20
1421.039357
 11
2161.570309
 21
1521.039357
  0
LINE
  8
CSLAYER1
  6
CONTINUOUS
 62
     5
 10
1361.570309
 20
1511.039357
 11
2161.570309
 21
1511.039357
  0
LINE
  8
CSLAYER1
  6
CONTINUOUS
 62
     5
 10
1361.570309
 20
1511.039357
 11
1390.548083
 21
1518.803928
  0
LINE
  8
CSLAYER1
  6
CONTINUOUS
 62
     5
 10
1361.570309
 20
1511.039357
 11
1390.548083
 21
1503.274786
  0
LINE
  8
CSLAYER1
  6
CONTINUOUS
 62
     5
 10
2161.570309
 20
1511.039357
 11
2132.592534
 21
1518.803928
  0
LINE
  8
CSLAYER1
  6
CONTINUOUS
 62
     5
 10
2161.570309
 20
1511.039357
 11
2132.592534
 21
1503.274786
  0
ENDBLK
  8
0
  0
BLOCK
  8
CSLAYER1
  2
*D0008
 70
    65
 10
0.0
 20
0.0
 30
0.0
  0
TEXT
  8
CSLAYER1
 62
     3
 10
708.616516
 20
1521.039307
 40
40.000000
 41
0.843750
  1
200
 50
0.000000
 51
0.000000
  7
EASYDRAW_FONT
 72
     5
 11
798.616516
 21
1521.039307
  0
LINE
  8
CSLAYER1
  6
CONTINUOUS
 62
     5
 10
653.616524
 20
1421.039357
 11
653.616524
 21
1521.039357
  0
LINE
  8
CSLAYER1
  6
CONTINUOUS
 62
     5
 10
853.616524
 20
1421.039357
 11
853.616524
 21
1521.039357
  0
LINE
  8
CSLAYER1
  6
CONTINUOUS
 62
     5
 10
653.616524
 20
1511.039357
 11
853.616524
 21
1511.039357
  0
LINE
  8
CSLAYER1
  6
CONTINUOUS
 62
     5
 10
653.616524
 20
1511.039357
 11
682.594299
 21
1518.803928
  0
LINE
  8
CSLAYER1
  6
CONTINUOUS
 62
     5
 10
653.616524
 20
1511.039357
 11
682.594299
 21
1503.274786
  0
LINE
  8
CSLAYER1
  6
CONTINUOUS
 62
     5
 10
853.616524
 20
1511.039357
 11
824.638749
 21
1518.803928
  0
LINE
  8
CSLAYER1
  6
CONTINUOUS
 62
     5
 10
853.616524
 20
1511.039357
 11
824.638749
 21
1503.274786
  0
ENDBLK
  8
0
  0
BLOCK
  8
CSLAYER1
  2
EASYDRAWDIM0005
 70
   64
 10
0.0
 20
0.0
 30
0.0
  0
TEXT
  8
CSLAYER1
 62
     3
 10
1294.757935
 20
1867.551003
 40
33.155758
 41
0.767879
  1
穴ヒﾟッチ
 50
90.000000
 51
0.000000
  7
EASYDRAW_FONT
 72
     5
 11
1294.757935
 21
1986.362572
  0
ENDBLK
  8
0
  0
BLOCK
  8
CSLAYER1
  2
*D0009
 70
    65
 10
0.0
 20
0.0
 30
0.0
  0
TEXT
  8
CSLAYER1
 62
     3
 10
1245.519165
 20
1899.098389
 40
40.000000
 41
0.843750
  1
250
 50
90.000000
 51
0.000000
  7
EASYDRAW_FONT
 72
     5
 11
1245.519165
 21
1989.098389
  0
LINE
  8
CSLAYER1
  6
CONTINUOUS
 62
     5
 10
1342.762549
 20
1844.651337
 11
1243.771290
 21
1844.651337
  0
LINE
  8
CSLAYER1
  6
CONTINUOUS
 62
     5
 10
1364.025350
 20
2094.651337
 11
1243.771290
 21
2094.651337
  0
LINE
  8
CSLAYER1
  6
CONTINUOUS
 62
     5
 10
1253.771290
 20
1844.651337
 11
1253.771290
 21
2094.651337
  0
LINE
  8
CSLAYER1
  6
CONTINUOUS
 62
     5
 10
1253.771290
 20
1844.651337
 11
1246.006718
 21
1873.629112
  0
LINE
  8
CSLAYER1
  6
CONTINUOUS
 62
     5
 10
1253.771290
 20
1844.651337
 11
1261.535861
 21
1873.629112
  0
LINE
  8
CSLAYER1
  6
CONTINUOUS
 62
     5
 10
1253.771290
 20
2094.651337
 11
1246.006718
 21
2065.673563
  0
LINE
  8
CSLAYER1
  6
CONTINUOUS
 62
     5
 10
1253.771290
 20
2094.651337
 11
1261.535861
 21
2065.673563
  0
ENDBLK
  8
0
  0
BLOCK
  8
CSLAYER1
  2
EASYDRAWDIM0006
 70
   64
 10
0.0
 20
0.0
 30
0.0
  0
TEXT
  8
CSLAYER1
 62
     3
 10
1463.617798
 20
1709.651001
 40
40.000000
 41
0.771429
  1
2-%%c13(アンカー穴)
 50
0.000000
 51
0.000000
  7
EASYDRAW_FONT
 72
     5
 11
1823.617798
 21
1709.651001
  0
LINE
  8
CSLAYER1
  6
CONTINUOUS
 62
     5
 10
1459.276485
 20
1699.651337
 11
1833.617738
 21
1699.651337
  0
ENDBLK
  8
0
  0
BLOCK
  8
CSLAYER1
  2
*D0010
 70
    65
 10
0.0
 20
0.0
 30
0.0
  0
TEXT
  8
CSLAYER1
 62
     3
 10
2271.570313
 20
1924.651123
 40
40.000000
 41
0.843750
  1
200
 50
90.000000
 51
0.000000
  7
EASYDRAW_FONT
 72
     5
 11
2271.570313
 21
2014.651123
  0
LINE
  8
CSLAYER1
  6
CONTINUOUS
 62
     5
 10
2179.161053
 20
1869.651337
 11
2291.570309
 21
1869.651337
  0
LINE
  8
CSLAYER1
  6
CONTINUOUS
 62
     5
 10
2179.161053
 20
2069.651337
 11
2291.570309
 21
2069.651337
  0
LINE
  8
CSLAYER1
  6
CONTINUOUS
 62
     5
 10
2281.570309
 20
1869.651337
 11
2281.570309
 21
2069.651337
  0
LINE
  8
CSLAYER1
  6
CONTINUOUS
 62
     5
 10
2281.570309
 20
1869.651337
 11
2273.805737
 21
1898.629112
  0
LINE
  8
CSLAYER1
  6
CONTINUOUS
 62
     5
 10
2281.570309
 20
1869.651337
 11
2289.334880
 21
1898.629112
  0
LINE
  8
CSLAYER1
  6
CONTINUOUS
 62
     5
 10
2281.570309
 20
2069.651337
 11
2273.805737
 21
2040.673563
  0
LINE
  8
CSLAYER1
  6
CONTINUOUS
 62
     5
 10
2281.570309
 20
2069.651337
 11
2289.334880
 21
2040.673563
  0
ENDBLK
  8
0
  0
BLOCK
  8
CSLAYER1
  2
EASYDRAWDIM0007
 70
   64
 10
0.0
 20
0.0
 30
0.0
  0
TEXT
  8
CSLAYER1
 62
     3
 10
985.703247
 20
690.286499
 40
40.000000
 41
0.803571
  1
2-φ13
 50
0.000000
 51
0.000000
  7
EASYDRAW_FONT
 72
     5
 11
1135.703247
 21
690.286499
  0
ENDBLK
  8
0
  0
BLOCK
  8
CSLAYER1
  2
*D0011
 70
    65
 10
0.0
 20
0.0
 30
0.0
  0
LINE
  8
CSLAYER1
  6
CONTINUOUS
 62
     5
 10
1339.025350
 20
1819.651337
 11
1339.025350
 21
1689.651337
  0
LINE
  8
CSLAYER1
  6
CONTINUOUS
 62
     5
 10
1364.025350
 20
1823.388536
 11
1364.025350
 21
1689.651337
  0
LINE
  8
CSLAYER1
  6
CONTINUOUS
 62
     5
 10
1339.025350
 20
1699.651337
 11
1364.025350
 21
1699.651337
  0
LINE
  8
CSLAYER1
  6
CONTINUOUS
 62
     5
 10
1242.141219
 20
1699.651337
 11
1339.025350
 21
1699.651337
  0
LINE
  8
CSLAYER1
  6
CONTINUOUS
 62
     5
 10
1339.025350
 20
1699.651337
 11
1310.047575
 21
1707.415909
  0
LINE
  8
CSLAYER1
  6
CONTINUOUS
 62
     5
 10
1339.025350
 20
1699.651337
 11
1310.047575
 21
1691.886766
  0
LINE
  8
CSLAYER1
  6
CONTINUOUS
 62
     5
 10
1364.025350
 20
1699.651337
 11
1414.025350
 21
1699.651337
  0
LINE
  8
CSLAYER1
  6
CONTINUOUS
 62
     5
 10
1364.025350
 20
1699.651337
 11
1393.003125
 21
1707.415909
  0
LINE
  8
CSLAYER1
  6
CONTINUOUS
 62
     5
 10
1364.025350
 20
1699.651337
 11
1393.003125
 21
1691.886766
  0
TEXT
  8
CSLAYER1
 62
     3
 10
1245.583252
 20
1709.651245
 40
40.000000
 41
0.900000
  1
25
 50
0.000000
 51
0.000000
  7
EASYDRAW_FONT
 72
     5
 11
1305.583252
 21
1709.651245
  0
ENDBLK
  8
0
  0
BLOCK
  8
CSLAYER1
  2
*D0012
 70
    65
 10
0.0
 20
0.0
 30
0.0
  0
LINE
  8
CSLAYER1
  6
CONTINUOUS
 62
     5
 10
1339.025350
 20
1819.651337
 11
1339.025350
 21
1599.651337
  0
LINE
  8
CSLAYER1
  6
CONTINUOUS
 62
     5
 10
1389.025350
 20
1819.651337
 11
1389.025350
 21
1599.651337
  0
LINE
  8
CSLAYER1
  6
CONTINUOUS
 62
     5
 10
1339.025350
 20
1609.651337
 11
1389.025350
 21
1609.651337
  0
LINE
  8
CSLAYER1
  6
CONTINUOUS
 62
     5
 10
1249.025350
 20
1609.651337
 11
1339.025350
 21
1609.651337
  0
LINE
  8
CSLAYER1
  6
CONTINUOUS
 62
     5
 10
1339.025350
 20
1609.651337
 11
1310.047575
 21
1617.415909
  0
LINE
  8
CSLAYER1
  6
CONTINUOUS
 62
     5
 10
1339.025350
 20
1609.651337
 11
1310.047575
 21
1601.886766
  0
LINE
  8
CSLAYER1
  6
CONTINUOUS
 62
     5
 10
1389.025350
 20
1609.651337
 11
1439.025350
 21
1609.651337
  0
LINE
  8
CSLAYER1
  6
CONTINUOUS
 62
     5
 10
1389.025350
 20
1609.651337
 11
1418.003125
 21
1617.415909
  0
LINE
  8
CSLAYER1
  6
CONTINUOUS
 62
     5
 10
1389.025350
 20
1609.651337
 11
1418.003125
 21
1601.886766
  0
TEXT
  8
CSLAYER1
 62
     3
 10
1249.025391
 20
1619.651245
 40
40.000000
 41
0.900000
  1
50
 50
0.000000
 51
0.000000
  7
EASYDRAW_FONT
 72
     5
 11
1309.025391
 21
1619.651245
  0
ENDBLK
  8
0
  0
BLOCK
  8
CSLAYER1
  2
*D0013
 70
    65
 10
0.0
 20
0.0
 30
0.0
  0
LINE
  8
CSLAYER1
  6
CONTINUOUS
 62
     5
 10
2368.266213
 20
799.475686
 11
2361.570309
 21
799.475686
  0
LINE
  8
CSLAYER1
  6
CONTINUOUS
 62
     5
 10
2171.570309
 20
1411.039357
 11
2381.570309
 21
1411.039357
  0
LINE
  8
CSLAYER1
  6
CONTINUOUS
 62
     5
 10
2371.570309
 20
799.475686
 11
2371.570309
 21
1411.039357
  0
LINE
  8
CSLAYER1
  6
CONTINUOUS
 62
     5
 10
2371.570309
 20
799.475686
 11
2363.805737
 21
828.453460
  0
LINE
  8
CSLAYER1
  6
CONTINUOUS
 62
     5
 10
2371.570309
 20
799.475686
 11
2379.334880
 21
828.453460
  0
LINE
  8
CSLAYER1
  6
CONTINUOUS
 62
     5
 10
2371.570309
 20
1411.039357
 11
2363.805737
 21
1382.061582
  0
LINE
  8
CSLAYER1
  6
CONTINUOUS
 62
     5
 10
2371.570309
 20
1411.039357
 11
2379.334880
 21
1382.061582
  0
TEXT
  8
CSLAYER1
 62
     3
 10
2361.570313
 20
1060.257568
 40
40.000000
 41
0.843750
  1
580
 50
90.000000
 51
0.000000
  7
EASYDRAW_FONT
 72
     5
 11
2361.570313
 21
1150.257568
  0
ENDBLK
  8
0
  0
BLOCK
  8
CSLAYER1
  2
*D0014
 70
    65
 10
0.0
 20
0.0
 30
0.0
  0
LINE
  8
CSLAYER1
  6
CONTINUOUS
 62
     5
 10
1339.025350
 20
789.475686
 11
1339.025350
 21
579.475686
  0
LINE
  8
CSLAYER1
  6
CONTINUOUS
 62
     5
 10
2142.025350
 20
789.475686
 11
2142.025350
 21
579.475686
  0
LINE
  8
CSLAYER1
  6
CONTINUOUS
 62
     5
 10
1339.025350
 20
589.475686
 11
2142.025350
 21
589.475686
  0
LINE
  8
CSLAYER1
  6
CONTINUOUS
 62
     5
 10
1339.025350
 20
589.475686
 11
1368.003125
 21
597.240257
  0
LINE
  8
CSLAYER1
  6
CONTINUOUS
 62
     5
 10
1339.025350
 20
589.475686
 11
1368.003125
 21
581.711114
  0
LINE
  8
CSLAYER1
  6
CONTINUOUS
 62
     5
 10
2142.025350
 20
589.475686
 11
2113.047575
 21
597.240257
  0
LINE
  8
CSLAYER1
  6
CONTINUOUS
 62
     5
 10
2142.025350
 20
589.475686
 11
2113.047575
 21
581.711114
  0
TEXT
  8
CSLAYER1
 62
     3
 10
1695.525391
 20
599.475708
 40
40.000000
 41
0.843750
  1
803
 50
0.000000
 51
0.000000
  7
EASYDRAW_FONT
 72
     5
 11
1785.525391
 21
599.475708
  0
ENDBLK
  8
0
  0
BLOCK
  8
CSLAYER1
  2
*D0015
 70
    65
 10
0.0
 20
0.0
 30
0.0
  0
LINE
  8
CSLAYER1
  6
CONTINUOUS
 62
     5
 10
1339.025350
 20
789.475686
 11
1339.025350
 21
669.475686
  0
LINE
  8
CSLAYER1
  6
CONTINUOUS
 62
     5
 10
1364.025350
 20
806.975686
 11
1364.025350
 21
669.475686
  0
LINE
  8
CSLAYER1
  6
CONTINUOUS
 62
     5
 10
1339.025350
 20
679.475686
 11
1364.025350
 21
679.475686
  0
LINE
  8
CSLAYER1
  6
CONTINUOUS
 62
     5
 10
1289.025350
 20
679.475686
 11
1339.025350
 21
679.475686
  0
LINE
  8
CSLAYER1
  6
CONTINUOUS
 62
     5
 10
1339.025350
 20
679.475686
 11
1310.047575
 21
687.240257
  0
LINE
  8
CSLAYER1
  6
CONTINUOUS
 62
     5
 10
1339.025350
 20
679.475686
 11
1310.047575
 21
671.711114
  0
LINE
  8
CSLAYER1
  6
CONTINUOUS
 62
     5
 10
1364.025350
 20
679.475686
 11
1454.025350
 21
679.475686
  0
LINE
  8
CSLAYER1
  6
CONTINUOUS
 62
     5
 10
1364.025350
 20
679.475686
 11
1393.003125
 21
687.240257
  0
LINE
  8
CSLAYER1
  6
CONTINUOUS
 62
     5
 10
1364.025350
 20
679.475686
 11
1393.003125
 21
671.711114
  0
TEXT
  8
CSLAYER1
 62
     3
 10
1394.025391
 20
689.475647
 40
40.000000
 41
0.900000
  1
25
 50
0.000000
 51
0.000000
  7
EASYDRAW_FONT
 72
     5
 11
1454.025391
 21
689.475647
  0
ENDBLK
  8
0
  0
BLOCK
  8
CSLAYER1
  2
BLKF0000
 70
   64
 10
0.0
 20
0.0
 30
0.0
  0
LINE
  8
CSLAYER1
  6
CONTINUOUS
 62
     5
 10
3500.082429
 20
1719.546652
 11
2620.082429
 21
1719.546652
  0
TEXT
  8
CSLAYER1
 62
     3
 10
3097.465576
 20
1725.196899
 40
40.000000
 41
0.832500
  1
１０Ｒ４／１３
 50
0.000000
 51
0.000000
  7
EASYDRAW_FONT
 72
     5
 11
3319.465576
 21
1725.196899
  0
ENDBLK
  8
0
  0
BLOCK
  8
CSLAYER1
  2
BLKF0001
 70
   64
 10
0.0
 20
0.0
 30
0.0
  0
LINE
  8
CSLAYER1
  6
CONTINUOUS
 62
     7
 10
816.789766
 20
2049.189921
 11
830.296792
 21
2056.289024
  0
LINE
  8
CSLAYER1
  6
CONTINUOUS
 62
     7
 10
830.296792
 20
2056.289024
 11
844.831138
 21
2062.685891
  0
LINE
  8
CSLAYER1
  6
CONTINUOUS
 62
     7
 10
844.831138
 20
2062.685891
 11
860.282190
 21
2068.331836
  0
LINE
  8
CSLAYER1
  6
CONTINUOUS
 62
     7
 10
860.282190
 20
2068.331836
 11
876.532355
 21
2073.183892
  0
LINE
  8
CSLAYER1
  6
CONTINUOUS
 62
     7
 10
876.532355
 20
2073.183892
 11
893.457960
 21
2077.205130
  0
LINE
  8
CSLAYER1
  6
CONTINUOUS
 62
     7
 10
893.457960
 20
2077.205130
 11
910.930190
 21
2080.364947
  0
LINE
  8
CSLAYER1
  6
CONTINUOUS
 62
     7
 10
910.930190
 20
2080.364947
 11
928.816072
 21
2082.639295
  0
LINE
  8
CSLAYER1
  6
CONTINUOUS
 62
     7
 10
928.816072
 20
2082.639295
 11
946.979484
 21
2084.010865
  0
LINE
  8
CSLAYER1
  6
CONTINUOUS
 62
     7
 10
946.979484
 20
2084.010865
 11
965.282190
 21
2084.469217
  0
LINE
  8
CSLAYER1
  6
CONTINUOUS
 62
     7
 10
965.282190
 20
2084.469217
 11
983.584896
 21
2084.010865
  0
LINE
  8
CSLAYER1
  6
CONTINUOUS
 62
     7
 10
983.584896
 20
2084.010865
 11
1001.748307
 21
2082.639295
  0
LINE
  8
CSLAYER1
  6
CONTINUOUS
 62
     7
 10
1001.748307
 20
2082.639295
 11
1019.634189
 21
2080.364947
  0
LINE
  8
CSLAYER1
  6
CONTINUOUS
 62
     7
 10
1019.634189
 20
2080.364947
 11
1037.106420
 21
2077.205130
  0
LINE
  8
CSLAYER1
  6
CONTINUOUS
 62
     7
 10
1037.106420
 20
2077.205130
 11
1052.803250
 21
2073.475828
  0
LINE
  8
CSLAYER1
  6
CONTINUOUS
 62
     7
 10
807.880220
 20
2054.300226
 11
822.197668
 21
2061.825276
  0
LINE
  8
CSLAYER1
  6
CONTINUOUS
 62
     7
 10
822.197668
 20
2061.825276
 11
837.604075
 21
2068.605954
  0
LINE
  8
CSLAYER1
  6
CONTINUOUS
 62
     7
 10
837.604075
 20
2068.605954
 11
853.982190
 21
2074.590657
  0
LINE
  8
CSLAYER1
  6
CONTINUOUS
 62
     7
 10
853.982190
 20
2074.590657
 11
871.207365
 21
2079.733835
  0
LINE
  8
CSLAYER1
  6
CONTINUOUS
 62
     7
 10
871.207365
 20
2079.733835
 11
889.148506
 21
2083.996348
  0
LINE
  8
CSLAYER1
  6
CONTINUOUS
 62
     7
 10
889.148506
 20
2083.996348
 11
907.669070
 21
2087.345754
  0
LINE
  8
CSLAYER1
  6
CONTINUOUS
 62
     7
 10
907.669070
 20
2087.345754
 11
926.628105
 21
2089.756563
  0
LINE
  8
CSLAYER1
  6
CONTINUOUS
 62
     7
 10
926.628105
 20
2089.756563
 11
945.881321
 21
2091.210427
  0
LINE
  8
CSLAYER1
  6
CONTINUOUS
 62
     7
 10
945.881321
 20
2091.210427
 11
965.282190
 21
2091.696280
  0
LINE
  8
CSLAYER1
  6
CONTINUOUS
 62
     7
 10
965.282190
 20
2091.696280
 11
984.683058
 21
2091.210427
  0
LINE
  8
CSLAYER1
  6
CONTINUOUS
 62
     7
 10
984.683058
 20
2091.210427
 11
1003.936274
 21
2089.756563
  0
LINE
  8
CSLAYER1
  6
CONTINUOUS
 62
     7
 10
1003.936274
 20
2089.756563
 11
1022.895309
 21
2087.345754
  0
LINE
  8
CSLAYER1
  6
CONTINUOUS
 62
     7
 10
1022.895309
 20
2087.345754
 11
1041.415874
 21
2083.996348
  0
LINE
  8
CSLAYER1
  6
CONTINUOUS
 62
     7
 10
1041.415874
 20
2083.996348
 11
1052.803250
 21
2081.290899
  0
LINE
  8
CSLAYER1
  6
CONTINUOUS
 62
     7
 10
791.326470
 20
2033.265327
 11
816.924337
 21
2049.260650
  0
LINE
  8
CSLAYER1
  6
CONTINUOUS
 62
     7
 10
791.326470
 20
2043.942133
 11
808.022866
 21
2054.375199
  0
ENDBLK
  8
0
  0
BLOCK
  8
CSLAYER1
  2
BLKF0002
 70
   64
 10
0.0
 20
0.0
 30
0.0
  0
LINE
  8
CSLAYER1
  6
CONTINUOUS
 62
     7
 10
659.755858
 20
2048.231035
 11
659.983537
 21
2048.381923
  0
LINE
  8
CSLAYER1
  6
CONTINUOUS
 62
     7
 10
659.983537
 20
2048.381923
 11
660.192651
 21
2048.560819
  0
LINE
  8
CSLAYER1
  6
CONTINUOUS
 62
     7
 10
660.192651
 20
2048.560819
 11
660.381607
 21
2048.766361
  0
LINE
  8
CSLAYER1
  6
CONTINUOUS
 62
     7
 10
660.381607
 20
2048.766361
 11
660.548967
 21
2048.996984
  0
LINE
  8
CSLAYER1
  6
CONTINUOUS
 62
     7
 10
660.548967
 20
2048.996984
 11
660.693458
 21
2049.250934
  0
LINE
  8
CSLAYER1
  6
CONTINUOUS
 62
     7
 10
660.693458
 20
2049.250934
 11
660.813981
 21
2049.526278
  0
LINE
  8
CSLAYER1
  6
CONTINUOUS
 62
     7
 10
660.813981
 20
2049.526278
 11
660.909617
 21
2049.820920
  0
LINE
  8
CSLAYER1
  6
CONTINUOUS
 62
     7
 10
660.909617
 20
2049.820920
 11
660.979639
 21
2050.132618
  0
LINE
  8
CSLAYER1
  6
CONTINUOUS
 62
     7
 10
660.979639
 20
2050.132618
 11
661.023515
 21
2050.459000
  0
LINE
  8
CSLAYER1
  6
CONTINUOUS
 62
     7
 10
661.023515
 20
2050.459000
 11
661.040909
 21
2050.797582
  0
LINE
  8
CSLAYER1
  6
CONTINUOUS
 62
     7
 10
661.040909
 20
2050.797582
 11
661.031691
 21
2051.145786
  0
LINE
  8
CSLAYER1
  6
CONTINUOUS
 62
     7
 10
661.031691
 20
2051.145786
 11
660.995929
 21
2051.500964
  0
LINE
  8
CSLAYER1
  6
CONTINUOUS
 62
     7
 10
660.995929
 20
2051.500964
 11
660.933897
 21
2051.860411
  0
LINE
  8
CSLAYER1
  6
CONTINUOUS
 62
     7
 10
660.933897
 20
2051.860411
 11
660.846065
 21
2052.221393
  0
LINE
  8
CSLAYER1
  6
CONTINUOUS
 62
     7
 10
660.846065
 20
2052.221393
 11
660.733104
 21
2052.581161
  0
LINE
  8
CSLAYER1
  6
CONTINUOUS
 62
     7
 10
660.733104
 20
2052.581161
 11
660.595872
 21
2052.936978
  0
LINE
  8
CSLAYER1
  6
CONTINUOUS
 62
     7
 10
660.595872
 20
2052.936978
 11
660.435413
 21
2053.286136
  0
LINE
  8
CSLAYER1
  6
CONTINUOUS
 62
     7
 10
660.435413
 20
2053.286136
 11
660.252950
 21
2053.625978
  0
LINE
  8
CSLAYER1
  6
CONTINUOUS
 62
     7
 10
660.252950
 20
2053.625978
 11
660.049870
 21
2053.953916
  0
LINE
  8
CSLAYER1
  6
CONTINUOUS
 62
     7
 10
660.049870
 20
2053.953916
 11
659.827720
 21
2054.267456
  0
LINE
  8
CSLAYER1
  6
CONTINUOUS
 62
     7
 10
659.827720
 20
2054.267456
 11
659.588189
 21
2054.564212
  0
LINE
  8
CSLAYER1
  6
CONTINUOUS
 62
     7
 10
659.588189
 20
2054.564212
 11
659.333101
 21
2054.841923
  0
LINE
  8
CSLAYER1
  6
CONTINUOUS
 62
     7
 10
659.333101
 20
2054.841923
 11
659.064398
 21
2055.098478
  0
LINE
  8
CSLAYER1
  6
CONTINUOUS
 62
     7
 10
659.064398
 20
2055.098478
 11
658.784124
 21
2055.331923
  0
LINE
  8
CSLAYER1
  6
CONTINUOUS
 62
     7
 10
658.784124
 20
2055.331923
 11
658.494412
 21
2055.540483
  0
LINE
  8
CSLAYER1
  6
CONTINUOUS
 62
     7
 10
658.494412
 20
2055.540483
 11
658.197467
 21
2055.722569
  0
LINE
  8
CSLAYER1
  6
CONTINUOUS
 62
     7
 10
658.197467
 20
2055.722569
 11
657.895549
 21
2055.876795
  0
LINE
  8
CSLAYER1
  6
CONTINUOUS
 62
     7
 10
657.895549
 20
2055.876795
 11
657.590957
 21
2056.001989
  0
LINE
  8
CSLAYER1
  6
CONTINUOUS
 62
     7
 10
657.590957
 20
2056.001989
 11
657.286007
 21
2056.097197
  0
LINE
  8
CSLAYER1
  6
CONTINUOUS
 62
     7
 10
657.286007
 20
2056.097197
 11
656.983021
 21
2056.161695
  0
LINE
  8
CSLAYER1
  6
CONTINUOUS
 62
     7
 10
656.983021
 20
2056.161695
 11
656.684305
 21
2056.194991
  0
LINE
  8
CSLAYER1
  6
CONTINUOUS
 62
     7
 10
656.684305
 20
2056.194991
 11
656.392132
 21
2056.196833
  0
LINE
  8
CSLAYER1
  6
CONTINUOUS
 62
     7
 10
656.392132
 20
2056.196833
 11
656.108726
 21
2056.167206
  0
LINE
  8
CSLAYER1
  6
CONTINUOUS
 62
     7
 10
656.108726
 20
2056.167206
 11
655.836244
 21
2056.106336
  0
LINE
  8
CSLAYER1
  6
CONTINUOUS
 62
     7
 10
655.836244
 20
2056.106336
 11
655.576759
 21
2056.014687
  0
LINE
  8
CSLAYER1
  6
CONTINUOUS
 62
     7
 10
655.576759
 20
2056.014687
 11
655.332247
 21
2055.892955
  0
ENDBLK
  8
0
  0
BLOCK
  8
CSLAYER1
  2
BLKF0003
 70
   64
 10
0.0
 20
0.0
 30
0.0
  0
LINE
  8
CSLAYER1
  6
CONTINUOUS
 62
     7
 10
652.385355
 20
2054.191566
 11
652.157675
 21
2054.040678
  0
LINE
  8
CSLAYER1
  6
CONTINUOUS
 62
     7
 10
652.157675
 20
2054.040678
 11
651.948562
 21
2053.861782
  0
LINE
  8
CSLAYER1
  6
CONTINUOUS
 62
     7
 10
651.948562
 20
2053.861782
 11
651.759606
 21
2053.656240
  0
LINE
  8
CSLAYER1
  6
CONTINUOUS
 62
     7
 10
651.759606
 20
2053.656240
 11
651.592245
 21
2053.425617
  0
LINE
  8
CSLAYER1
  6
CONTINUOUS
 62
     7
 10
651.592245
 20
2053.425617
 11
651.447754
 21
2053.171667
  0
LINE
  8
CSLAYER1
  6
CONTINUOUS
 62
     7
 10
651.447754
 20
2053.171667
 11
651.327232
 21
2052.896323
  0
LINE
  8
CSLAYER1
  6
CONTINUOUS
 62
     7
 10
651.327232
 20
2052.896323
 11
651.231596
 21
2052.601681
  0
LINE
  8
CSLAYER1
  6
CONTINUOUS
 62
     7
 10
651.231596
 20
2052.601681
 11
651.161573
 21
2052.289983
  0
LINE
  8
CSLAYER1
  6
CONTINUOUS
 62
     7
 10
651.161573
 20
2052.289983
 11
651.117698
 21
2051.963601
  0
LINE
  8
CSLAYER1
  6
CONTINUOUS
 62
     7
 10
651.117698
 20
2051.963601
 11
651.100303
 21
2051.625019
  0
LINE
  8
CSLAYER1
  6
CONTINUOUS
 62
     7
 10
651.100303
 20
2051.625019
 11
651.109522
 21
2051.276815
  0
LINE
  8
CSLAYER1
  6
CONTINUOUS
 62
     7
 10
651.109522
 20
2051.276815
 11
651.145284
 21
2050.921637
  0
LINE
  8
CSLAYER1
  6
CONTINUOUS
 62
     7
 10
651.145284
 20
2050.921637
 11
651.207316
 21
2050.562190
  0
LINE
  8
CSLAYER1
  6
CONTINUOUS
 62
     7
 10
651.207316
 20
2050.562190
 11
651.295147
 21
2050.201208
  0
LINE
  8
CSLAYER1
  6
CONTINUOUS
 62
     7
 10
651.295147
 20
2050.201208
 11
651.408109
 21
2049.841440
  0
LINE
  8
CSLAYER1
  6
CONTINUOUS
 62
     7
 10
651.408109
 20
2049.841440
 11
651.545341
 21
2049.485623
  0
LINE
  8
CSLAYER1
  6
CONTINUOUS
 62
     7
 10
651.545341
 20
2049.485623
 11
651.705799
 21
2049.136465
  0
LINE
  8
CSLAYER1
  6
CONTINUOUS
 62
     7
 10
651.705799
 20
2049.136465
 11
651.888263
 21
2048.796623
  0
LINE
  8
CSLAYER1
  6
CONTINUOUS
 62
     7
 10
651.888263
 20
2048.796623
 11
652.091343
 21
2048.468685
  0
LINE
  8
CSLAYER1
  6
CONTINUOUS
 62
     7
 10
652.091343
 20
2048.468685
 11
652.313493
 21
2048.155145
  0
LINE
  8
CSLAYER1
  6
CONTINUOUS
 62
     7
 10
652.313493
 20
2048.155145
 11
652.553024
 21
2047.858389
  0
LINE
  8
CSLAYER1
  6
CONTINUOUS
 62
     7
 10
652.553024
 20
2047.858389
 11
652.808111
 21
2047.580678
  0
LINE
  8
CSLAYER1
  6
CONTINUOUS
 62
     7
 10
652.808111
 20
2047.580678
 11
653.076815
 21
2047.324123
  0
LINE
  8
CSLAYER1
  6
CONTINUOUS
 62
     7
 10
653.076815
 20
2047.324123
 11
653.357089
 21
2047.090677
  0
LINE
  8
CSLAYER1
  6
CONTINUOUS
 62
     7
 10
653.357089
 20
2047.090677
 11
653.646801
 21
2046.882118
  0
LINE
  8
CSLAYER1
  6
CONTINUOUS
 62
     7
 10
653.646801
 20
2046.882118
 11
653.943746
 21
2046.700032
  0
LINE
  8
CSLAYER1
  6
CONTINUOUS
 62
     7
 10
653.943746
 20
2046.700032
 11
654.245663
 21
2046.545806
  0
LINE
  8
CSLAYER1
  6
CONTINUOUS
 62
     7
 10
654.245663
 20
2046.545806
 11
654.550256
 21
2046.420612
  0
LINE
  8
CSLAYER1
  6
CONTINUOUS
 62
     7
 10
654.550256
 20
2046.420612
 11
654.855206
 21
2046.325404
  0
LINE
  8
CSLAYER1
  6
CONTINUOUS
 62
     7
 10
654.855206
 20
2046.325404
 11
655.158191
 21
2046.260906
  0
LINE
  8
CSLAYER1
  6
CONTINUOUS
 62
     7
 10
655.158191
 20
2046.260906
 11
655.456907
 21
2046.227610
  0
LINE
  8
CSLAYER1
  6
CONTINUOUS
 62
     7
 10
655.456907
 20
2046.227610
 11
655.749080
 21
2046.225768
  0
LINE
  8
CSLAYER1
  6
CONTINUOUS
 62
     7
 10
655.749080
 20
2046.225768
 11
656.032486
 21
2046.255395
  0
LINE
  8
CSLAYER1
  6
CONTINUOUS
 62
     7
 10
656.032486
 20
2046.255395
 11
656.304968
 21
2046.316265
  0
LINE
  8
CSLAYER1
  6
CONTINUOUS
 62
     7
 10
656.304968
 20
2046.316265
 11
656.564453
 21
2046.407914
  0
LINE
  8
CSLAYER1
  6
CONTINUOUS
 62
     7
 10
656.564453
 20
2046.407914
 11
656.808966
 21
2046.529646
  0
LINE
  8
CSLAYER1
  6
CONTINUOUS
 62
     7
 10
656.808966
 20
2046.529646
 11
657.036645
 21
2046.680534
  0
LINE
  8
CSLAYER1
  6
CONTINUOUS
 62
     7
 10
657.036645
 20
2046.680534
 11
657.245759
 21
2046.859430
  0
LINE
  8
CSLAYER1
  6
CONTINUOUS
 62
     7
 10
657.245759
 20
2046.859430
 11
657.434715
 21
2047.064972
  0
LINE
  8
CSLAYER1
  6
CONTINUOUS
 62
     7
 10
657.434715
 20
2047.064972
 11
657.602075
 21
2047.295595
  0
LINE
  8
CSLAYER1
  6
CONTINUOUS
 62
     7
 10
657.602075
 20
2047.295595
 11
657.746566
 21
2047.549545
  0
LINE
  8
CSLAYER1
  6
CONTINUOUS
 62
     7
 10
657.746566
 20
2047.549545
 11
657.867089
 21
2047.824889
  0
LINE
  8
CSLAYER1
  6
CONTINUOUS
 62
     7
 10
657.867089
 20
2047.824889
 11
657.962725
 21
2048.119531
  0
LINE
  8
CSLAYER1
  6
CONTINUOUS
 62
     7
 10
657.962725
 20
2048.119531
 11
658.032747
 21
2048.431229
  0
LINE
  8
CSLAYER1
  6
CONTINUOUS
 62
     7
 10
658.032747
 20
2048.431229
 11
658.076623
 21
2048.757611
  0
LINE
  8
CSLAYER1
  6
CONTINUOUS
 62
     7
 10
658.076623
 20
2048.757611
 11
658.094017
 21
2049.096193
  0
LINE
  8
CSLAYER1
  6
CONTINUOUS
 62
     7
 10
658.094017
 20
2049.096193
 11
658.084799
 21
2049.444397
  0
LINE
  8
CSLAYER1
  6
CONTINUOUS
 62
     7
 10
658.084799
 20
2049.444397
 11
658.049037
 21
2049.799575
  0
LINE
  8
CSLAYER1
  6
CONTINUOUS
 62
     7
 10
658.049037
 20
2049.799575
 11
657.987005
 21
2050.159022
  0
LINE
  8
CSLAYER1
  6
CONTINUOUS
 62
     7
 10
657.987005
 20
2050.159022
 11
657.899173
 21
2050.520004
  0
LINE
  8
CSLAYER1
  6
CONTINUOUS
 62
     7
 10
657.899173
 20
2050.520004
 11
657.786212
 21
2050.879772
  0
LINE
  8
CSLAYER1
  6
CONTINUOUS
 62
     7
 10
657.786212
 20
2050.879772
 11
657.648980
 21
2051.235589
  0
LINE
  8
CSLAYER1
  6
CONTINUOUS
 62
     7
 10
657.648980
 20
2051.235589
 11
657.488521
 21
2051.584747
  0
LINE
  8
CSLAYER1
  6
CONTINUOUS
 62
     7
 10
657.488521
 20
2051.584747
 11
657.306058
 21
2051.924589
  0
LINE
  8
CSLAYER1
  6
CONTINUOUS
 62
     7
 10
657.306058
 20
2051.924589
 11
657.102978
 21
2052.252527
  0
LINE
  8
CSLAYER1
  6
CONTINUOUS
 62
     7
 10
657.102978
 20
2052.252527
 11
656.880828
 21
2052.566067
  0
LINE
  8
CSLAYER1
  6
CONTINUOUS
 62
     7
 10
656.880828
 20
2052.566067
 11
656.641297
 21
2052.862823
  0
LINE
  8
CSLAYER1
  6
CONTINUOUS
 62
     7
 10
656.641297
 20
2052.862823
 11
656.386209
 21
2053.140534
  0
LINE
  8
CSLAYER1
  6
CONTINUOUS
 62
     7
 10
656.386209
 20
2053.140534
 11
656.117506
 21
2053.397089
  0
LINE
  8
CSLAYER1
  6
CONTINUOUS
 62
     7
 10
656.117506
 20
2053.397089
 11
655.837232
 21
2053.630535
  0
LINE
  8
CSLAYER1
  6
CONTINUOUS
 62
     7
 10
655.837232
 20
2053.630535
 11
655.547520
 21
2053.839094
  0
LINE
  8
CSLAYER1
  6
CONTINUOUS
 62
     7
 10
655.547520
 20
2053.839094
 11
655.250575
 21
2054.021180
  0
LINE
  8
CSLAYER1
  6
CONTINUOUS
 62
     7
 10
655.250575
 20
2054.021180
 11
654.948657
 21
2054.175406
  0
LINE
  8
CSLAYER1
  6
CONTINUOUS
 62
     7
 10
654.948657
 20
2054.175406
 11
654.644065
 21
2054.300600
  0
LINE
  8
CSLAYER1
  6
CONTINUOUS
 62
     7
 10
654.644065
 20
2054.300600
 11
654.339115
 21
2054.395808
  0
LINE
  8
CSLAYER1
  6
CONTINUOUS
 62
     7
 10
654.339115
 20
2054.395808
 11
654.036129
 21
2054.460306
  0
LINE
  8
CSLAYER1
  6
CONTINUOUS
 62
     7
 10
654.036129
 20
2054.460306
 11
653.737413
 21
2054.493602
  0
LINE
  8
CSLAYER1
  6
CONTINUOUS
 62
     7
 10
653.737413
 20
2054.493602
 11
653.445240
 21
2054.495444
  0
LINE
  8
CSLAYER1
  6
CONTINUOUS
 62
     7
 10
653.445240
 20
2054.495444
 11
653.161834
 21
2054.465817
  0
LINE
  8
CSLAYER1
  6
CONTINUOUS
 62
     7
 10
653.161834
 20
2054.465817
 11
652.889352
 21
2054.404947
  0
LINE
  8
CSLAYER1
  6
CONTINUOUS
 62
     7
 10
652.889352
 20
2054.404947
 11
652.629867
 21
2054.313298
  0
LINE
  8
CSLAYER1
  6
CONTINUOUS
 62
     7
 10
652.629867
 20
2054.313298
 11
652.385355
 21
2054.191566
  0
ENDBLK
  8
0
  0
BLOCK
  8
CSLAYER1
  2
BLKF0004
 70
   64
 10
0.0
 20
0.0
 30
0.0
  0
LINE
  8
CSLAYER1
  6
CONTINUOUS
 62
     7
 10
661.011440
 20
2046.711727
 11
661.297174
 21
2046.956171
  0
LINE
  8
CSLAYER1
  6
CONTINUOUS
 62
     7
 10
661.297174
 20
2046.956171
 11
661.555364
 21
2047.237024
  0
LINE
  8
CSLAYER1
  6
CONTINUOUS
 62
     7
 10
661.555364
 20
2047.237024
 11
661.784046
 21
2047.552149
  0
LINE
  8
CSLAYER1
  6
CONTINUOUS
 62
     7
 10
661.784046
 20
2047.552149
 11
661.981480
 21
2047.899147
  0
LINE
  8
CSLAYER1
  6
CONTINUOUS
 62
     7
 10
661.981480
 20
2047.899147
 11
662.146162
 21
2048.275379
  0
LINE
  8
CSLAYER1
  6
CONTINUOUS
 62
     7
 10
662.146162
 20
2048.275379
 11
662.276840
 21
2048.677979
  0
LINE
  8
CSLAYER1
  6
CONTINUOUS
 62
     7
 10
662.276840
 20
2048.677979
 11
662.372519
 21
2049.103885
  0
LINE
  8
CSLAYER1
  6
CONTINUOUS
 62
     7
 10
662.372519
 20
2049.103885
 11
662.432471
 21
2049.549855
  0
LINE
  8
CSLAYER1
  6
CONTINUOUS
 62
     7
 10
662.432471
 20
2049.549855
 11
662.456239
 21
2050.012495
  0
LINE
  8
CSLAYER1
  6
CONTINUOUS
 62
     7
 10
662.456239
 20
2050.012495
 11
662.443642
 21
2050.488283
  0
LINE
  8
CSLAYER1
  6
CONTINUOUS
 62
     7
 10
662.443642
 20
2050.488283
 11
662.394778
 21
2050.973599
  0
LINE
  8
CSLAYER1
  6
CONTINUOUS
 62
     7
 10
662.394778
 20
2050.973599
 11
662.310016
 21
2051.464750
  0
LINE
  8
CSLAYER1
  6
CONTINUOUS
 62
     7
 10
662.310016
 20
2051.464750
 11
662.190003
 21
2051.957997
  0
LINE
  8
CSLAYER1
  6
CONTINUOUS
 62
     7
 10
662.190003
 20
2051.957997
 11
662.035652
 21
2052.449586
  0
LINE
  8
CSLAYER1
  6
CONTINUOUS
 62
     7
 10
662.035652
 20
2052.449586
 11
661.848137
 21
2052.935776
  0
LINE
  8
CSLAYER1
  6
CONTINUOUS
 62
     7
 10
661.848137
 20
2052.935776
 11
661.628886
 21
2053.412868
  0
LINE
  8
CSLAYER1
  6
CONTINUOUS
 62
     7
 10
661.628886
 20
2053.412868
 11
661.379567
 21
2053.877229
  0
LINE
  8
CSLAYER1
  6
CONTINUOUS
 62
     7
 10
661.379567
 20
2053.877229
 11
661.102078
 21
2054.325326
  0
LINE
  8
CSLAYER1
  6
CONTINUOUS
 62
     7
 10
661.102078
 20
2054.325326
 11
660.798530
 21
2054.753749
  0
LINE
  8
CSLAYER1
  6
CONTINUOUS
 62
     7
 10
660.798530
 20
2054.753749
 11
660.471234
 21
2055.159236
  0
LINE
  8
CSLAYER1
  6
CONTINUOUS
 62
     7
 10
660.471234
 20
2055.159236
 11
660.122681
 21
2055.538703
  0
LINE
  8
CSLAYER1
  6
CONTINUOUS
 62
     7
 10
660.122681
 20
2055.538703
 11
659.755523
 21
2055.889261
  0
LINE
  8
CSLAYER1
  6
CONTINUOUS
 62
     7
 10
659.755523
 20
2055.889261
 11
659.372555
 21
2056.208242
  0
LINE
  8
CSLAYER1
  6
CONTINUOUS
 62
     7
 10
659.372555
 20
2056.208242
 11
658.976692
 21
2056.493218
  0
LINE
  8
CSLAYER1
  6
CONTINUOUS
 62
     7
 10
658.976692
 20
2056.493218
 11
658.570945
 21
2056.742021
  0
LINE
  8
CSLAYER1
  6
CONTINUOUS
 62
     7
 10
658.570945
 20
2056.742021
 11
658.158403
 21
2056.952757
  0
LINE
  8
CSLAYER1
  6
CONTINUOUS
 62
     7
 10
658.158403
 20
2056.952757
 11
657.742206
 21
2057.123823
  0
LINE
  8
CSLAYER1
  6
CONTINUOUS
 62
     7
 10
657.742206
 20
2057.123823
 11
657.325521
 21
2057.253915
  0
LINE
  8
CSLAYER1
  6
CONTINUOUS
 62
     7
 10
657.325521
 20
2057.253915
 11
656.911520
 21
2057.342045
  0
LINE
  8
CSLAYER1
  6
CONTINUOUS
 62
     7
 10
656.911520
 20
2057.342045
 11
656.503353
 21
2057.387542
  0
LINE
  8
CSLAYER1
  6
CONTINUOUS
 62
     7
 10
656.503353
 20
2057.387542
 11
656.104127
 21
2057.390058
  0
LINE
  8
CSLAYER1
  6
CONTINUOUS
 62
     7
 10
656.104127
 20
2057.390058
 11
655.716879
 21
2057.349576
  0
LINE
  8
CSLAYER1
  6
CONTINUOUS
 62
     7
 10
655.716879
 20
2057.349576
 11
655.344558
 21
2057.266403
  0
LINE
  8
CSLAYER1
  6
CONTINUOUS
 62
     7
 10
655.344558
 20
2057.266403
 11
654.989997
 21
2057.141173
  0
LINE
  8
CSLAYER1
  6
CONTINUOUS
 62
     7
 10
654.989997
 20
2057.141173
 11
654.655893
 21
2056.974837
  0
LINE
  8
CSLAYER1
  6
CONTINUOUS
 62
     7
 10
654.655893
 20
2056.974837
 11
654.344791
 21
2056.768663
  0
LINE
  8
CSLAYER1
  6
CONTINUOUS
 62
     7
 10
654.344791
 20
2056.768663
 11
654.059058
 21
2056.524219
  0
LINE
  8
CSLAYER1
  6
CONTINUOUS
 62
     7
 10
654.059058
 20
2056.524219
 11
653.800867
 21
2056.243366
  0
LINE
  8
CSLAYER1
  6
CONTINUOUS
 62
     7
 10
653.800867
 20
2056.243366
 11
653.572185
 21
2055.928241
  0
LINE
  8
CSLAYER1
  6
CONTINUOUS
 62
     7
 10
653.572185
 20
2055.928241
 11
653.374751
 21
2055.581243
  0
LINE
  8
CSLAYER1
  6
CONTINUOUS
 62
     7
 10
653.374751
 20
2055.581243
 11
653.210069
 21
2055.205011
  0
LINE
  8
CSLAYER1
  6
CONTINUOUS
 62
     7
 10
653.210069
 20
2055.205011
 11
653.079391
 21
2054.802411
  0
LINE
  8
CSLAYER1
  6
CONTINUOUS
 62
     7
 10
653.079391
 20
2054.802411
 11
653.025147
 21
2054.560950
  0
LINE
  8
CSLAYER1
  6
CONTINUOUS
 62
     7
 10
656.976515
 20
2046.640685
 11
657.197828
 21
2046.527633
  0
LINE
  8
CSLAYER1
  6
CONTINUOUS
 62
     7
 10
657.197828
 20
2046.527633
 11
657.614025
 21
2046.356567
  0
LINE
  8
CSLAYER1
  6
CONTINUOUS
 62
     7
 10
657.614025
 20
2046.356567
 11
658.030710
 21
2046.226475
  0
LINE
  8
CSLAYER1
  6
CONTINUOUS
 62
     7
 10
658.030710
 20
2046.226475
 11
658.444711
 21
2046.138345
  0
LINE
  8
CSLAYER1
  6
CONTINUOUS
 62
     7
 10
658.444711
 20
2046.138345
 11
658.852878
 21
2046.092848
  0
LINE
  8
CSLAYER1
  6
CONTINUOUS
 62
     7
 10
658.852878
 20
2046.092848
 11
659.252105
 21
2046.090332
  0
LINE
  8
CSLAYER1
  6
CONTINUOUS
 62
     7
 10
659.252105
 20
2046.090332
 11
659.639352
 21
2046.130814
  0
LINE
  8
CSLAYER1
  6
CONTINUOUS
 62
     7
 10
659.639352
 20
2046.130814
 11
660.011673
 21
2046.213987
  0
LINE
  8
CSLAYER1
  6
CONTINUOUS
 62
     7
 10
660.011673
 20
2046.213987
 11
660.342561
 21
2046.330856
  0
ENDBLK
  8
0
  0
BLOCK
  8
CSLAYER1
  2
BLKF0005
 70
   64
 10
0.0
 20
0.0
 30
0.0
  0
LINE
  8
CSLAYER1
  6
CONTINUOUS
 62
     7
 10
662.443276
 20
2047.508424
 11
662.836775
 21
2047.845059
  0
LINE
  8
CSLAYER1
  6
CONTINUOUS
 62
     7
 10
662.836775
 20
2047.845059
 11
663.094965
 21
2048.125913
  0
LINE
  8
CSLAYER1
  6
CONTINUOUS
 62
     7
 10
663.094965
 20
2048.125913
 11
663.323647
 21
2048.441038
  0
LINE
  8
CSLAYER1
  6
CONTINUOUS
 62
     7
 10
663.323647
 20
2048.441038
 11
663.521081
 21
2048.788036
  0
LINE
  8
CSLAYER1
  6
CONTINUOUS
 62
     7
 10
663.521081
 20
2048.788036
 11
663.685763
 21
2049.164267
  0
LINE
  8
CSLAYER1
  6
CONTINUOUS
 62
     7
 10
663.685763
 20
2049.164267
 11
663.816441
 21
2049.566868
  0
LINE
  8
CSLAYER1
  6
CONTINUOUS
 62
     7
 10
663.816441
 20
2049.566868
 11
663.912120
 21
2049.992774
  0
LINE
  8
CSLAYER1
  6
CONTINUOUS
 62
     7
 10
663.912120
 20
2049.992774
 11
663.972071
 21
2050.438744
  0
LINE
  8
CSLAYER1
  6
CONTINUOUS
 62
     7
 10
663.972071
 20
2050.438744
 11
663.995839
 21
2050.901383
  0
LINE
  8
CSLAYER1
  6
CONTINUOUS
 62
     7
 10
663.995839
 20
2050.901383
 11
663.983243
 21
2051.377172
  0
LINE
  8
CSLAYER1
  6
CONTINUOUS
 62
     7
 10
663.983243
 20
2051.377172
 11
663.934378
 21
2051.862488
  0
LINE
  8
CSLAYER1
  6
CONTINUOUS
 62
     7
 10
663.934378
 20
2051.862488
 11
663.849617
 21
2052.353639
  0
LINE
  8
CSLAYER1
  6
CONTINUOUS
 62
     7
 10
663.849617
 20
2052.353639
 11
663.729604
 21
2052.846886
  0
LINE
  8
CSLAYER1
  6
CONTINUOUS
 62
     7
 10
663.729604
 20
2052.846886
 11
663.575252
 21
2053.338475
  0
LINE
  8
CSLAYER1
  6
CONTINUOUS
 62
     7
 10
663.575252
 20
2053.338475
 11
663.387738
 21
2053.824665
  0
LINE
  8
CSLAYER1
  6
CONTINUOUS
 62
     7
 10
663.387738
 20
2053.824665
 11
663.168486
 21
2054.301757
  0
LINE
  8
CSLAYER1
  6
CONTINUOUS
 62
     7
 10
663.168486
 20
2054.301757
 11
662.919168
 21
2054.766118
  0
LINE
  8
CSLAYER1
  6
CONTINUOUS
 62
     7
 10
662.919168
 20
2054.766118
 11
662.641678
 21
2055.214215
  0
LINE
  8
CSLAYER1
  6
CONTINUOUS
 62
     7
 10
662.641678
 20
2055.214215
 11
662.338131
 21
2055.642637
  0
LINE
  8
CSLAYER1
  6
CONTINUOUS
 62
     7
 10
662.338131
 20
2055.642637
 11
662.010835
 21
2056.048125
  0
LINE
  8
CSLAYER1
  6
CONTINUOUS
 62
     7
 10
662.010835
 20
2056.048125
 11
661.662282
 21
2056.427592
  0
LINE
  8
CSLAYER1
  6
CONTINUOUS
 62
     7
 10
661.662282
 20
2056.427592
 11
661.295124
 21
2056.778150
  0
LINE
  8
CSLAYER1
  6
CONTINUOUS
 62
     7
 10
661.295124
 20
2056.778150
 11
660.912156
 21
2057.097131
  0
LINE
  8
CSLAYER1
  6
CONTINUOUS
 62
     7
 10
660.912156
 20
2057.097131
 11
660.516292
 21
2057.382107
  0
LINE
  8
CSLAYER1
  6
CONTINUOUS
 62
     7
 10
660.516292
 20
2057.382107
 11
660.110545
 21
2057.630910
  0
LINE
  8
CSLAYER1
  6
CONTINUOUS
 62
     7
 10
660.110545
 20
2057.630910
 11
659.698004
 21
2057.841646
  0
LINE
  8
CSLAYER1
  6
CONTINUOUS
 62
     7
 10
659.698004
 20
2057.841646
 11
659.281807
 21
2058.012712
  0
LINE
  8
CSLAYER1
  6
CONTINUOUS
 62
     7
 10
659.281807
 20
2058.012712
 11
658.865122
 21
2058.142804
  0
LINE
  8
CSLAYER1
  6
CONTINUOUS
 62
     7
 10
658.865122
 20
2058.142804
 11
658.451121
 21
2058.230934
  0
LINE
  8
CSLAYER1
  6
CONTINUOUS
 62
     7
 10
658.451121
 20
2058.230934
 11
658.042954
 21
2058.276431
  0
LINE
  8
CSLAYER1
  6
CONTINUOUS
 62
     7
 10
658.042954
 20
2058.276431
 11
657.643727
 21
2058.278947
  0
LINE
  8
CSLAYER1
  6
CONTINUOUS
 62
     7
 10
657.643727
 20
2058.278947
 11
657.256480
 21
2058.238465
  0
LINE
  8
CSLAYER1
  6
CONTINUOUS
 62
     7
 10
657.256480
 20
2058.238465
 11
656.884159
 21
2058.155292
  0
LINE
  8
CSLAYER1
  6
CONTINUOUS
 62
     7
 10
656.884159
 20
2058.155292
 11
656.529597
 21
2058.030062
  0
ENDBLK
  8
0
  0
BLOCK
  8
CSLAYER1
  2
BLKF0006
 70
   64
 10
0.0
 20
0.0
 30
0.0
  0
LINE
  8
CSLAYER1
  6
CONTINUOUS
 62
     7
 10
676.373877
 20
2060.055714
 11
676.357388
 21
2060.322771
  0
LINE
  8
CSLAYER1
  6
CONTINUOUS
 62
     7
 10
676.357388
 20
2060.322771
 11
676.308044
 21
2060.587795
  0
LINE
  8
CSLAYER1
  6
CONTINUOUS
 62
     7
 10
676.308044
 20
2060.587795
 11
676.226223
 21
2060.848769
  0
LINE
  8
CSLAYER1
  6
CONTINUOUS
 62
     7
 10
676.226223
 20
2060.848769
 11
676.112545
 21
2061.103708
  0
LINE
  8
CSLAYER1
  6
CONTINUOUS
 62
     7
 10
676.112545
 20
2061.103708
 11
675.967878
 21
2061.350671
  0
LINE
  8
CSLAYER1
  6
CONTINUOUS
 62
     7
 10
675.967878
 20
2061.350671
 11
675.793321
 21
2061.587779
  0
LINE
  8
CSLAYER1
  6
CONTINUOUS
 62
     7
 10
675.793321
 20
2061.587779
 11
675.590203
 21
2061.813226
  0
LINE
  8
CSLAYER1
  6
CONTINUOUS
 62
     7
 10
675.590203
 20
2061.813226
 11
675.360070
 21
2062.025298
  0
LINE
  8
CSLAYER1
  6
CONTINUOUS
 62
     7
 10
675.360070
 20
2062.025298
 11
675.104673
 21
2062.222381
  0
LINE
  8
CSLAYER1
  6
CONTINUOUS
 62
     7
 10
675.104673
 20
2062.222381
 11
674.825957
 21
2062.402973
  0
LINE
  8
CSLAYER1
  6
CONTINUOUS
 62
     7
 10
674.825957
 20
2062.402973
 11
674.526042
 21
2062.565702
  0
LINE
  8
CSLAYER1
  6
CONTINUOUS
 62
     7
 10
674.526042
 20
2062.565702
 11
674.207211
 21
2062.709328
  0
LINE
  8
CSLAYER1
  6
CONTINUOUS
 62
     7
 10
674.207211
 20
2062.709328
 11
673.871890
 21
2062.832758
  0
LINE
  8
CSLAYER1
  6
CONTINUOUS
 62
     7
 10
673.871890
 20
2062.832758
 11
673.522631
 21
2062.935054
  0
LINE
  8
CSLAYER1
  6
CONTINUOUS
 62
     7
 10
673.522631
 20
2062.935054
 11
673.162093
 21
2063.015436
  0
LINE
  8
CSLAYER1
  6
CONTINUOUS
 62
     7
 10
673.162093
 20
2063.015436
 11
672.793020
 21
2063.073292
  0
LINE
  8
CSLAYER1
  6
CONTINUOUS
 62
     7
 10
672.793020
 20
2063.073292
 11
672.418219
 21
2063.108184
  0
LINE
  8
CSLAYER1
  6
CONTINUOUS
 62
     7
 10
672.418219
 20
2063.108184
 11
672.040544
 21
2063.119843
  0
LINE
  8
CSLAYER1
  6
CONTINUOUS
 62
     7
 10
672.040544
 20
2063.119843
 11
671.662869
 21
2063.108184
  0
LINE
  8
CSLAYER1
  6
CONTINUOUS
 62
     7
 10
671.662869
 20
2063.108184
 11
671.288069
 21
2063.073292
  0
LINE
  8
CSLAYER1
  6
CONTINUOUS
 62
     7
 10
671.288069
 20
2063.073292
 11
670.918995
 21
2063.015436
  0
LINE
  8
CSLAYER1
  6
CONTINUOUS
 62
     7
 10
670.918995
 20
2063.015436
 11
670.558457
 21
2062.935054
  0
LINE
  8
CSLAYER1
  6
CONTINUOUS
 62
     7
 10
670.558457
 20
2062.935054
 11
670.209198
 21
2062.832758
  0
LINE
  8
CSLAYER1
  6
CONTINUOUS
 62
     7
 10
670.209198
 20
2062.832758
 11
669.873877
 21
2062.709328
  0
LINE
  8
CSLAYER1
  6
CONTINUOUS
 62
     7
 10
669.873877
 20
2062.709328
 11
669.555046
 21
2062.565702
  0
LINE
  8
CSLAYER1
  6
CONTINUOUS
 62
     7
 10
669.555046
 20
2062.565702
 11
669.255131
 21
2062.402973
  0
LINE
  8
CSLAYER1
  6
CONTINUOUS
 62
     7
 10
669.255131
 20
2062.402973
 11
668.976415
 21
2062.222381
  0
LINE
  8
CSLAYER1
  6
CONTINUOUS
 62
     7
 10
668.976415
 20
2062.222381
 11
668.721018
 21
2062.025298
  0
LINE
  8
CSLAYER1
  6
CONTINUOUS
 62
     7
 10
668.721018
 20
2062.025298
 11
668.490885
 21
2061.813226
  0
LINE
  8
CSLAYER1
  6
CONTINUOUS
 62
     7
 10
668.490885
 20
2061.813226
 11
668.287767
 21
2061.587779
  0
LINE
  8
CSLAYER1
  6
CONTINUOUS
 62
     7
 10
668.287767
 20
2061.587779
 11
668.113210
 21
2061.350671
  0
LINE
  8
CSLAYER1
  6
CONTINUOUS
 62
     7
 10
668.113210
 20
2061.350671
 11
667.968543
 21
2061.103708
  0
LINE
  8
CSLAYER1
  6
CONTINUOUS
 62
     7
 10
667.968543
 20
2061.103708
 11
667.854865
 21
2060.848769
  0
LINE
  8
CSLAYER1
  6
CONTINUOUS
 62
     7
 10
667.854865
 20
2060.848769
 11
667.773044
 21
2060.587795
  0
LINE
  8
CSLAYER1
  6
CONTINUOUS
 62
     7
 10
667.773044
 20
2060.587795
 11
667.723700
 21
2060.322771
  0
LINE
  8
CSLAYER1
  6
CONTINUOUS
 62
     7
 10
667.723700
 20
2060.322771
 11
667.707211
 21
2060.055714
  0
LINE
  8
CSLAYER1
  6
CONTINUOUS
 62
     7
 10
667.707211
 20
2060.055714
 11
667.723700
 21
2059.788658
  0
LINE
  8
CSLAYER1
  6
CONTINUOUS
 62
     7
 10
667.723700
 20
2059.788658
 11
667.773044
 21
2059.523634
  0
LINE
  8
CSLAYER1
  6
CONTINUOUS
 62
     7
 10
667.773044
 20
2059.523634
 11
667.854865
 21
2059.262659
  0
LINE
  8
CSLAYER1
  6
CONTINUOUS
 62
     7
 10
667.854865
 20
2059.262659
 11
667.968543
 21
2059.007720
  0
LINE
  8
CSLAYER1
  6
CONTINUOUS
 62
     7
 10
667.968543
 20
2059.007720
 11
668.113210
 21
2058.760757
  0
LINE
  8
CSLAYER1
  6
CONTINUOUS
 62
     7
 10
668.113210
 20
2058.760757
 11
668.287767
 21
2058.523649
  0
LINE
  8
CSLAYER1
  6
CONTINUOUS
 62
     7
 10
668.287767
 20
2058.523649
 11
668.490885
 21
2058.298202
  0
LINE
  8
CSLAYER1
  6
CONTINUOUS
 62
     7
 10
668.490885
 20
2058.298202
 11
668.721018
 21
2058.086130
  0
LINE
  8
CSLAYER1
  6
CONTINUOUS
 62
     7
 10
668.721018
 20
2058.086130
 11
668.976415
 21
2057.889047
  0
LINE
  8
CSLAYER1
  6
CONTINUOUS
 62
     7
 10
668.976415
 20
2057.889047
 11
669.255131
 21
2057.708455
  0
LINE
  8
CSLAYER1
  6
CONTINUOUS
 62
     7
 10
669.255131
 20
2057.708455
 11
669.555046
 21
2057.545726
  0
LINE
  8
CSLAYER1
  6
CONTINUOUS
 62
     7
 10
669.555046
 20
2057.545726
 11
669.873877
 21
2057.402100
  0
LINE
  8
CSLAYER1
  6
CONTINUOUS
 62
     7
 10
669.873877
 20
2057.402100
 11
670.209198
 21
2057.278670
  0
LINE
  8
CSLAYER1
  6
CONTINUOUS
 62
     7
 10
670.209198
 20
2057.278670
 11
670.558457
 21
2057.176374
  0
LINE
  8
CSLAYER1
  6
CONTINUOUS
 62
     7
 10
670.558457
 20
2057.176374
 11
670.918995
 21
2057.095992
  0
LINE
  8
CSLAYER1
  6
CONTINUOUS
 62
     7
 10
670.918995
 20
2057.095992
 11
671.288069
 21
2057.038136
  0
LINE
  8
CSLAYER1
  6
CONTINUOUS
 62
     7
 10
671.288069
 20
2057.038136
 11
671.662869
 21
2057.003245
  0
LINE
  8
CSLAYER1
  6
CONTINUOUS
 62
     7
 10
671.662869
 20
2057.003245
 11
672.040544
 21
2056.991585
  0
LINE
  8
CSLAYER1
  6
CONTINUOUS
 62
     7
 10
672.040544
 20
2056.991585
 11
672.418219
 21
2057.003245
  0
LINE
  8
CSLAYER1
  6
CONTINUOUS
 62
     7
 10
672.418219
 20
2057.003245
 11
672.793020
 21
2057.038136
  0
LINE
  8
CSLAYER1
  6
CONTINUOUS
 62
     7
 10
672.793020
 20
2057.038136
 11
673.162093
 21
2057.095992
  0
LINE
  8
CSLAYER1
  6
CONTINUOUS
 62
     7
 10
673.162093
 20
2057.095992
 11
673.522631
 21
2057.176374
  0
LINE
  8
CSLAYER1
  6
CONTINUOUS
 62
     7
 10
673.522631
 20
2057.176374
 11
673.871890
 21
2057.278670
  0
LINE
  8
CSLAYER1
  6
CONTINUOUS
 62
     7
 10
673.871890
 20
2057.278670
 11
674.207211
 21
2057.402100
  0
LINE
  8
CSLAYER1
  6
CONTINUOUS
 62
     7
 10
674.207211
 20
2057.402100
 11
674.526042
 21
2057.545726
  0
LINE
  8
CSLAYER1
  6
CONTINUOUS
 62
     7
 10
674.526042
 20
2057.545726
 11
674.825957
 21
2057.708455
  0
LINE
  8
CSLAYER1
  6
CONTINUOUS
 62
     7
 10
674.825957
 20
2057.708455
 11
675.104673
 21
2057.889047
  0
LINE
  8
CSLAYER1
  6
CONTINUOUS
 62
     7
 10
675.104673
 20
2057.889047
 11
675.360070
 21
2058.086130
  0
LINE
  8
CSLAYER1
  6
CONTINUOUS
 62
     7
 10
675.360070
 20
2058.086130
 11
675.590203
 21
2058.298202
  0
LINE
  8
CSLAYER1
  6
CONTINUOUS
 62
     7
 10
675.590203
 20
2058.298202
 11
675.793321
 21
2058.523649
  0
LINE
  8
CSLAYER1
  6
CONTINUOUS
 62
     7
 10
675.793321
 20
2058.523649
 11
675.967878
 21
2058.760757
  0
LINE
  8
CSLAYER1
  6
CONTINUOUS
 62
     7
 10
675.967878
 20
2058.760757
 11
676.112545
 21
2059.007720
  0
LINE
  8
CSLAYER1
  6
CONTINUOUS
 62
     7
 10
676.112545
 20
2059.007720
 11
676.226223
 21
2059.262659
  0
LINE
  8
CSLAYER1
  6
CONTINUOUS
 62
     7
 10
676.226223
 20
2059.262659
 11
676.308044
 21
2059.523634
  0
LINE
  8
CSLAYER1
  6
CONTINUOUS
 62
     7
 10
676.308044
 20
2059.523634
 11
676.357388
 21
2059.788658
  0
LINE
  8
CSLAYER1
  6
CONTINUOUS
 62
     7
 10
676.357388
 20
2059.788658
 11
676.373877
 21
2060.055714
  0
ENDBLK
  8
0
  0
BLOCK
  8
CSLAYER1
  2
BLKF0007
 70
   64
 10
0.0
 20
0.0
 30
0.0
  0
LINE
  8
CSLAYER1
  6
CONTINUOUS
 62
     7
 10
610.583733
 20
2057.544287
 11
611.690568
 21
2058.235914
  0
LINE
  8
CSLAYER1
  6
CONTINUOUS
 62
     7
 10
612.095536
 20
2068.326216
 11
638.662977
 21
2084.927396
  0
LINE
  8
CSLAYER1
  6
CONTINUOUS
 62
     7
 10
610.130309
 20
2065.229238
 11
610.130309
 21
2060.411196
  0
LINE
  8
CSLAYER1
  6
CONTINUOUS
 62
     7
 10
610.130309
 20
2065.229238
 11
610.162274
 21
2065.649158
  0
LINE
  8
CSLAYER1
  6
CONTINUOUS
 62
     7
 10
610.162274
 20
2065.649158
 11
610.257924
 21
2066.065882
  0
LINE
  8
CSLAYER1
  6
CONTINUOUS
 62
     7
 10
610.257924
 20
2066.065882
 11
610.416532
 21
2066.476239
  0
LINE
  8
CSLAYER1
  6
CONTINUOUS
 62
     7
 10
610.416532
 20
2066.476239
 11
610.636891
 21
2066.877106
  0
LINE
  8
CSLAYER1
  6
CONTINUOUS
 62
     7
 10
610.636891
 20
2066.877106
 11
610.917324
 21
2067.265431
  0
LINE
  8
CSLAYER1
  6
CONTINUOUS
 62
     7
 10
610.917324
 20
2067.265431
 11
611.255696
 21
2067.638259
  0
LINE
  8
CSLAYER1
  6
CONTINUOUS
 62
     7
 10
611.255696
 20
2067.638259
 11
611.649432
 21
2067.992754
  0
LINE
  8
CSLAYER1
  6
CONTINUOUS
 62
     7
 10
611.649432
 20
2067.992754
 11
612.095536
 21
2068.326216
  0
LINE
  8
CSLAYER1
  6
CONTINUOUS
 62
     7
 10
624.470006
 20
2061.822368
 11
623.929725
 21
2061.538404
  0
LINE
  8
CSLAYER1
  6
CONTINUOUS
 62
     7
 10
623.929725
 20
2061.538404
 11
623.348351
 21
2061.282529
  0
LINE
  8
CSLAYER1
  6
CONTINUOUS
 62
     7
 10
623.348351
 20
2061.282529
 11
622.730309
 21
2061.056691
  0
LINE
  8
CSLAYER1
  6
CONTINUOUS
 62
     7
 10
622.730309
 20
2061.056691
 11
622.080303
 21
2060.862609
  0
LINE
  8
CSLAYER1
  6
CONTINUOUS
 62
     7
 10
622.080303
 20
2060.862609
 11
621.403279
 21
2060.701760
  0
LINE
  8
CSLAYER1
  6
CONTINUOUS
 62
     7
 10
621.403279
 20
2060.701760
 11
620.704389
 21
2060.575367
  0
LINE
  8
CSLAYER1
  6
CONTINUOUS
 62
     7
 10
620.704389
 20
2060.575367
 11
619.988954
 21
2060.484393
  0
LINE
  8
CSLAYER1
  6
CONTINUOUS
 62
     7
 10
619.988954
 20
2060.484393
 11
619.262418
 21
2060.429530
  0
LINE
  8
CSLAYER1
  6
CONTINUOUS
 62
     7
 10
619.262418
 20
2060.429530
 11
618.530309
 21
2060.411196
  0
LINE
  8
CSLAYER1
  6
CONTINUOUS
 62
     7
 10
618.530309
 20
2060.411196
 11
617.798201
 21
2060.429530
  0
LINE
  8
CSLAYER1
  6
CONTINUOUS
 62
     7
 10
617.798201
 20
2060.429530
 11
617.071665
 21
2060.484393
  0
LINE
  8
CSLAYER1
  6
CONTINUOUS
 62
     7
 10
617.071665
 20
2060.484393
 11
616.356229
 21
2060.575367
  0
LINE
  8
CSLAYER1
  6
CONTINUOUS
 62
     7
 10
616.356229
 20
2060.575367
 11
615.657340
 21
2060.701760
  0
LINE
  8
CSLAYER1
  6
CONTINUOUS
 62
     7
 10
615.657340
 20
2060.701760
 11
614.980316
 21
2060.862609
  0
LINE
  8
CSLAYER1
  6
CONTINUOUS
 62
     7
 10
614.980316
 20
2060.862609
 11
614.330309
 21
2061.056691
  0
LINE
  8
CSLAYER1
  6
CONTINUOUS
 62
     7
 10
614.330309
 20
2061.056691
 11
613.712267
 21
2061.282529
  0
LINE
  8
CSLAYER1
  6
CONTINUOUS
 62
     7
 10
613.712267
 20
2061.282529
 11
613.130894
 21
2061.538404
  0
LINE
  8
CSLAYER1
  6
CONTINUOUS
 62
     7
 10
613.130894
 20
2061.538404
 11
612.590612
 21
2061.822368
  0
LINE
  8
CSLAYER1
  6
CONTINUOUS
 62
     7
 10
612.590612
 20
2061.822368
 11
612.095536
 21
2062.132260
  0
LINE
  8
CSLAYER1
  6
CONTINUOUS
 62
     7
 10
612.095536
 20
2062.132260
 11
611.649432
 21
2062.465723
  0
LINE
  8
CSLAYER1
  6
CONTINUOUS
 62
     7
 10
611.649432
 20
2062.465723
 11
611.255696
 21
2062.820217
  0
LINE
  8
CSLAYER1
  6
CONTINUOUS
 62
     7
 10
611.255696
 20
2062.820217
 11
610.917324
 21
2063.193046
  0
LINE
  8
CSLAYER1
  6
CONTINUOUS
 62
     7
 10
610.917324
 20
2063.193046
 11
610.636891
 21
2063.581371
  0
LINE
  8
CSLAYER1
  6
CONTINUOUS
 62
     7
 10
610.636891
 20
2063.581371
 11
610.416532
 21
2063.982237
  0
LINE
  8
CSLAYER1
  6
CONTINUOUS
 62
     7
 10
610.416532
 20
2063.982237
 11
610.257924
 21
2064.392594
  0
LINE
  8
CSLAYER1
  6
CONTINUOUS
 62
     7
 10
610.257924
 20
2064.392594
 11
610.162274
 21
2064.809318
  0
LINE
  8
CSLAYER1
  6
CONTINUOUS
 62
     7
 10
610.162274
 20
2064.809318
 11
610.130309
 21
2065.229238
  0
LINE
  8
CSLAYER1
  6
CONTINUOUS
 62
     7
 10
624.965083
 20
2057.314218
 11
624.470006
 21
2057.004326
  0
LINE
  8
CSLAYER1
  6
CONTINUOUS
 62
     7
 10
624.470006
 20
2057.004326
 11
623.929725
 21
2056.720362
  0
LINE
  8
CSLAYER1
  6
CONTINUOUS
 62
     7
 10
623.929725
 20
2056.720362
 11
623.348351
 21
2056.464487
  0
LINE
  8
CSLAYER1
  6
CONTINUOUS
 62
     7
 10
623.348351
 20
2056.464487
 11
622.730309
 21
2056.238649
  0
LINE
  8
CSLAYER1
  6
CONTINUOUS
 62
     7
 10
622.730309
 20
2056.238649
 11
622.080303
 21
2056.044567
  0
LINE
  8
CSLAYER1
  6
CONTINUOUS
 62
     7
 10
622.080303
 20
2056.044567
 11
621.403279
 21
2055.883717
  0
LINE
  8
CSLAYER1
  6
CONTINUOUS
 62
     7
 10
621.403279
 20
2055.883717
 11
620.704389
 21
2055.757325
  0
LINE
  8
CSLAYER1
  6
CONTINUOUS
 62
     7
 10
620.704389
 20
2055.757325
 11
619.988954
 21
2055.666351
  0
LINE
  8
CSLAYER1
  6
CONTINUOUS
 62
     7
 10
619.988954
 20
2055.666351
 11
619.262418
 21
2055.611488
  0
LINE
  8
CSLAYER1
  6
CONTINUOUS
 62
     7
 10
619.262418
 20
2055.611488
 11
618.530309
 21
2055.593154
  0
LINE
  8
CSLAYER1
  6
CONTINUOUS
 62
     7
 10
618.530309
 20
2055.593154
 11
617.798201
 21
2055.611488
  0
LINE
  8
CSLAYER1
  6
CONTINUOUS
 62
     7
 10
617.798201
 20
2055.611488
 11
617.071665
 21
2055.666351
  0
LINE
  8
CSLAYER1
  6
CONTINUOUS
 62
     7
 10
617.071665
 20
2055.666351
 11
616.356229
 21
2055.757325
  0
LINE
  8
CSLAYER1
  6
CONTINUOUS
 62
     7
 10
616.356229
 20
2055.757325
 11
615.657340
 21
2055.883717
  0
LINE
  8
CSLAYER1
  6
CONTINUOUS
 62
     7
 10
615.657340
 20
2055.883717
 11
614.980316
 21
2056.044567
  0
LINE
  8
CSLAYER1
  6
CONTINUOUS
 62
     7
 10
614.980316
 20
2056.044567
 11
614.330309
 21
2056.238649
  0
LINE
  8
CSLAYER1
  6
CONTINUOUS
 62
     7
 10
614.330309
 20
2056.238649
 11
613.712267
 21
2056.464487
  0
LINE
  8
CSLAYER1
  6
CONTINUOUS
 62
     7
 10
613.712267
 20
2056.464487
 11
613.130894
 21
2056.720362
  0
LINE
  8
CSLAYER1
  6
CONTINUOUS
 62
     7
 10
613.130894
 20
2056.720362
 11
612.590612
 21
2057.004326
  0
LINE
  8
CSLAYER1
  6
CONTINUOUS
 62
     7
 10
612.590612
 20
2057.004326
 11
612.095536
 21
2057.314218
  0
LINE
  8
CSLAYER1
  6
CONTINUOUS
 62
     7
 10
612.095536
 20
2057.314218
 11
611.649432
 21
2057.647681
  0
LINE
  8
CSLAYER1
  6
CONTINUOUS
 62
     7
 10
611.649432
 20
2057.647681
 11
611.255696
 21
2058.002175
  0
LINE
  8
CSLAYER1
  6
CONTINUOUS
 62
     7
 10
611.255696
 20
2058.002175
 11
610.917324
 21
2058.375003
  0
LINE
  8
CSLAYER1
  6
CONTINUOUS
 62
     7
 10
610.917324
 20
2058.375003
 11
610.636891
 21
2058.763329
  0
LINE
  8
CSLAYER1
  6
CONTINUOUS
 62
     7
 10
610.636891
 20
2058.763329
 11
610.416532
 21
2059.164195
  0
LINE
  8
CSLAYER1
  6
CONTINUOUS
 62
     7
 10
610.416532
 20
2059.164195
 11
610.257924
 21
2059.574552
  0
LINE
  8
CSLAYER1
  6
CONTINUOUS
 62
     7
 10
610.257924
 20
2059.574552
 11
610.162274
 21
2059.991276
  0
LINE
  8
CSLAYER1
  6
CONTINUOUS
 62
     7
 10
610.162274
 20
2059.991276
 11
610.130309
 21
2060.411196
  0
LINE
  8
CSLAYER1
  6
CONTINUOUS
 62
     7
 10
611.962346
 20
2064.881758
 11
642.062145
 21
2083.690200
  0
LINE
  8
CSLAYER1
  6
CONTINUOUS
 62
     7
 10
614.514730
 20
2063.115432
 11
645.461313
 21
2082.453004
  0
LINE
  8
CSLAYER1
  6
CONTINUOUS
 62
     7
 10
624.470006
 20
2057.004326
 11
653.166729
 21
2074.936028
  0
LINE
  8
CSLAYER1
  6
CONTINUOUS
 62
     7
 10
624.470006
 20
2061.822368
 11
653.059928
 21
2079.687334
  0
LINE
  8
CSLAYER1
  6
CONTINUOUS
 62
     7
 10
625.857415
 20
2063.480665
 11
652.259649
 21
2079.978612
  0
LINE
  8
CSLAYER1
  6
CONTINUOUS
 62
     7
 10
618.710591
 20
2062.376065
 11
648.860481
 21
2081.215808
  0
LINE
  8
CSLAYER1
  6
CONTINUOUS
 62
     7
 10
645.199832
 20
2088.374276
 11
645.224125
 21
2088.693415
  0
LINE
  8
CSLAYER1
  6
CONTINUOUS
 62
     7
 10
645.224125
 20
2088.693415
 11
645.296819
 21
2089.010126
  0
LINE
  8
CSLAYER1
  6
CONTINUOUS
 62
     7
 10
645.296819
 20
2089.010126
 11
645.417362
 21
2089.321997
  0
LINE
  8
CSLAYER1
  6
CONTINUOUS
 62
     7
 10
645.417362
 20
2089.321997
 11
645.584834
 21
2089.626656
  0
LINE
  8
CSLAYER1
  6
CONTINUOUS
 62
     7
 10
645.584834
 20
2089.626656
 11
645.797963
 21
2089.921783
  0
LINE
  8
CSLAYER1
  6
CONTINUOUS
 62
     7
 10
645.797963
 20
2089.921783
 11
646.055126
 21
2090.205132
  0
LINE
  8
CSLAYER1
  6
CONTINUOUS
 62
     7
 10
646.055126
 20
2090.205132
 11
646.354365
 21
2090.474548
  0
LINE
  8
CSLAYER1
  6
CONTINUOUS
 62
     7
 10
646.354365
 20
2090.474548
 11
646.693404
 21
2090.727979
  0
LINE
  8
CSLAYER1
  6
CONTINUOUS
 62
     7
 10
646.693404
 20
2090.727979
 11
647.069662
 21
2090.963498
  0
LINE
  8
CSLAYER1
  6
CONTINUOUS
 62
     7
 10
647.069662
 20
2090.963498
 11
647.480276
 21
2091.179310
  0
LINE
  8
CSLAYER1
  6
CONTINUOUS
 62
     7
 10
647.480276
 20
2091.179310
 11
647.922120
 21
2091.373775
  0
LINE
  8
CSLAYER1
  6
CONTINUOUS
 62
     7
 10
647.922120
 20
2091.373775
 11
648.391832
 21
2091.545412
  0
LINE
  8
CSLAYER1
  6
CONTINUOUS
 62
     7
 10
648.391832
 20
2091.545412
 11
648.885837
 21
2091.692914
  0
LINE
  8
CSLAYER1
  6
CONTINUOUS
 62
     7
 10
648.885837
 20
2091.692914
 11
649.400375
 21
2091.815160
  0
LINE
  8
CSLAYER1
  6
CONTINUOUS
 62
     7
 10
649.400375
 20
2091.815160
 11
649.931531
 21
2091.911218
  0
LINE
  8
CSLAYER1
  6
CONTINUOUS
 62
     7
 10
649.931531
 20
2091.911218
 11
650.475262
 21
2091.980359
  0
LINE
  8
CSLAYER1
  6
CONTINUOUS
 62
     7
 10
650.475262
 20
2091.980359
 11
651.027430
 21
2092.022054
  0
LINE
  8
CSLAYER1
  6
CONTINUOUS
 62
     7
 10
651.027430
 20
2092.022054
 11
651.583832
 21
2092.035988
  0
LINE
  8
CSLAYER1
  6
CONTINUOUS
 62
     7
 10
651.583832
 20
2092.035988
 11
652.140234
 21
2092.022054
  0
LINE
  8
CSLAYER1
  6
CONTINUOUS
 62
     7
 10
652.140234
 20
2092.022054
 11
652.692402
 21
2091.980359
  0
LINE
  8
CSLAYER1
  6
CONTINUOUS
 62
     7
 10
652.692402
 20
2091.980359
 11
653.236133
 21
2091.911218
  0
LINE
  8
CSLAYER1
  6
CONTINUOUS
 62
     7
 10
653.236133
 20
2091.911218
 11
653.767289
 21
2091.815160
  0
LINE
  8
CSLAYER1
  6
CONTINUOUS
 62
     7
 10
653.767289
 20
2091.815160
 11
654.281827
 21
2091.692914
  0
LINE
  8
CSLAYER1
  6
CONTINUOUS
 62
     7
 10
654.281827
 20
2091.692914
 11
654.775832
 21
2091.545412
  0
LINE
  8
CSLAYER1
  6
CONTINUOUS
 62
     7
 10
654.775832
 20
2091.545412
 11
655.245544
 21
2091.373775
  0
LINE
  8
CSLAYER1
  6
CONTINUOUS
 62
     7
 10
655.245544
 20
2091.373775
 11
655.687388
 21
2091.179310
  0
LINE
  8
CSLAYER1
  6
CONTINUOUS
 62
     7
 10
655.687388
 20
2091.179310
 11
656.098002
 21
2090.963498
  0
LINE
  8
CSLAYER1
  6
CONTINUOUS
 62
     7
 10
656.098002
 20
2090.963498
 11
656.474260
 21
2090.727979
  0
LINE
  8
CSLAYER1
  6
CONTINUOUS
 62
     7
 10
656.474260
 20
2090.727979
 11
656.813299
 21
2090.474548
  0
LINE
  8
CSLAYER1
  6
CONTINUOUS
 62
     7
 10
656.813299
 20
2090.474548
 11
657.112538
 21
2090.205132
  0
LINE
  8
CSLAYER1
  6
CONTINUOUS
 62
     7
 10
657.112538
 20
2090.205132
 11
657.369701
 21
2089.921783
  0
LINE
  8
CSLAYER1
  6
CONTINUOUS
 62
     7
 10
657.369701
 20
2089.921783
 11
657.582830
 21
2089.626656
  0
LINE
  8
CSLAYER1
  6
CONTINUOUS
 62
     7
 10
657.582830
 20
2089.626656
 11
657.750303
 21
2089.321997
  0
LINE
  8
CSLAYER1
  6
CONTINUOUS
 62
     7
 10
657.750303
 20
2089.321997
 11
657.870845
 21
2089.010126
  0
LINE
  8
CSLAYER1
  6
CONTINUOUS
 62
     7
 10
657.870845
 20
2089.010126
 11
657.943539
 21
2088.693415
  0
LINE
  8
CSLAYER1
  6
CONTINUOUS
 62
     7
 10
657.943539
 20
2088.693415
 11
657.967832
 21
2088.374276
  0
LINE
  8
CSLAYER1
  6
CONTINUOUS
 62
     7
 10
657.967832
 20
2088.374276
 11
657.943539
 21
2088.055137
  0
LINE
  8
CSLAYER1
  6
CONTINUOUS
 62
     7
 10
657.943539
 20
2088.055137
 11
657.870845
 21
2087.738427
  0
LINE
  8
CSLAYER1
  6
CONTINUOUS
 62
     7
 10
657.870845
 20
2087.738427
 11
657.750303
 21
2087.426555
  0
LINE
  8
CSLAYER1
  6
CONTINUOUS
 62
     7
 10
657.750303
 20
2087.426555
 11
657.582830
 21
2087.121897
  0
LINE
  8
CSLAYER1
  6
CONTINUOUS
 62
     7
 10
657.582830
 20
2087.121897
 11
657.369701
 21
2086.826770
  0
LINE
  8
CSLAYER1
  6
CONTINUOUS
 62
     7
 10
657.369701
 20
2086.826770
 11
657.112538
 21
2086.543420
  0
LINE
  8
CSLAYER1
  6
CONTINUOUS
 62
     7
 10
657.112538
 20
2086.543420
 11
656.813299
 21
2086.274005
  0
LINE
  8
CSLAYER1
  6
CONTINUOUS
 62
     7
 10
656.813299
 20
2086.274005
 11
656.474260
 21
2086.020573
  0
LINE
  8
CSLAYER1
  6
CONTINUOUS
 62
     7
 10
656.474260
 20
2086.020573
 11
656.098002
 21
2085.785055
  0
LINE
  8
CSLAYER1
  6
CONTINUOUS
 62
     7
 10
656.098002
 20
2085.785055
 11
655.687388
 21
2085.569242
  0
LINE
  8
CSLAYER1
  6
CONTINUOUS
 62
     7
 10
655.687388
 20
2085.569242
 11
655.245544
 21
2085.374777
  0
LINE
  8
CSLAYER1
  6
CONTINUOUS
 62
     7
 10
655.245544
 20
2085.374777
 11
654.775832
 21
2085.203141
  0
LINE
  8
CSLAYER1
  6
CONTINUOUS
 62
     7
 10
654.775832
 20
2085.203141
 11
654.281827
 21
2085.055638
  0
LINE
  8
CSLAYER1
  6
CONTINUOUS
 62
     7
 10
654.281827
 20
2085.055638
 11
653.767289
 21
2084.933393
  0
LINE
  8
CSLAYER1
  6
CONTINUOUS
 62
     7
 10
653.767289
 20
2084.933393
 11
653.236133
 21
2084.837334
  0
LINE
  8
CSLAYER1
  6
CONTINUOUS
 62
     7
 10
653.236133
 20
2084.837334
 11
652.692402
 21
2084.768194
  0
LINE
  8
CSLAYER1
  6
CONTINUOUS
 62
     7
 10
652.692402
 20
2084.768194
 11
652.140234
 21
2084.726498
  0
LINE
  8
CSLAYER1
  6
CONTINUOUS
 62
     7
 10
652.140234
 20
2084.726498
 11
651.583832
 21
2084.712564
  0
LINE
  8
CSLAYER1
  6
CONTINUOUS
 62
     7
 10
651.583832
 20
2084.712564
 11
651.027430
 21
2084.726498
  0
LINE
  8
CSLAYER1
  6
CONTINUOUS
 62
     7
 10
651.027430
 20
2084.726498
 11
650.475262
 21
2084.768194
  0
LINE
  8
CSLAYER1
  6
CONTINUOUS
 62
     7
 10
650.475262
 20
2084.768194
 11
649.931531
 21
2084.837334
  0
LINE
  8
CSLAYER1
  6
CONTINUOUS
 62
     7
 10
649.931531
 20
2084.837334
 11
649.400375
 21
2084.933393
  0
LINE
  8
CSLAYER1
  6
CONTINUOUS
 62
     7
 10
649.400375
 20
2084.933393
 11
648.885837
 21
2085.055638
  0
LINE
  8
CSLAYER1
  6
CONTINUOUS
 62
     7
 10
648.885837
 20
2085.055638
 11
648.391832
 21
2085.203141
  0
LINE
  8
CSLAYER1
  6
CONTINUOUS
 62
     7
 10
648.391832
 20
2085.203141
 11
647.922120
 21
2085.374777
  0
LINE
  8
CSLAYER1
  6
CONTINUOUS
 62
     7
 10
647.922120
 20
2085.374777
 11
647.480276
 21
2085.569242
  0
LINE
  8
CSLAYER1
  6
CONTINUOUS
 62
     7
 10
647.480276
 20
2085.569242
 11
647.069662
 21
2085.785055
  0
LINE
  8
CSLAYER1
  6
CONTINUOUS
 62
     7
 10
647.069662
 20
2085.785055
 11
646.693404
 21
2086.020573
  0
LINE
  8
CSLAYER1
  6
CONTINUOUS
 62
     7
 10
646.693404
 20
2086.020573
 11
646.354365
 21
2086.274005
  0
LINE
  8
CSLAYER1
  6
CONTINUOUS
 62
     7
 10
646.354365
 20
2086.274005
 11
646.055126
 21
2086.543420
  0
LINE
  8
CSLAYER1
  6
CONTINUOUS
 62
     7
 10
646.055126
 20
2086.543420
 11
645.797963
 21
2086.826770
  0
LINE
  8
CSLAYER1
  6
CONTINUOUS
 62
     7
 10
645.797963
 20
2086.826770
 11
645.584834
 21
2087.121897
  0
LINE
  8
CSLAYER1
  6
CONTINUOUS
 62
     7
 10
645.584834
 20
2087.121897
 11
645.417362
 21
2087.426555
  0
LINE
  8
CSLAYER1
  6
CONTINUOUS
 62
     7
 10
645.417362
 20
2087.426555
 11
645.296819
 21
2087.738427
  0
LINE
  8
CSLAYER1
  6
CONTINUOUS
 62
     7
 10
645.296819
 20
2087.738427
 11
645.224125
 21
2088.055137
  0
LINE
  8
CSLAYER1
  6
CONTINUOUS
 62
     7
 10
645.224125
 20
2088.055137
 11
645.199832
 21
2088.374276
  0
LINE
  8
CSLAYER1
  6
CONTINUOUS
 62
     7
 10
648.223832
 20
2088.374276
 11
648.236618
 21
2088.542244
  0
LINE
  8
CSLAYER1
  6
CONTINUOUS
 62
     7
 10
648.236618
 20
2088.542244
 11
648.274878
 21
2088.708934
  0
LINE
  8
CSLAYER1
  6
CONTINUOUS
 62
     7
 10
648.274878
 20
2088.708934
 11
648.338321
 21
2088.873077
  0
LINE
  8
CSLAYER1
  6
CONTINUOUS
 62
     7
 10
648.338321
 20
2088.873077
 11
648.426465
 21
2089.033423
  0
LINE
  8
CSLAYER1
  6
CONTINUOUS
 62
     7
 10
648.426465
 20
2089.033423
 11
648.538638
 21
2089.188753
  0
LINE
  8
CSLAYER1
  6
CONTINUOUS
 62
     7
 10
648.538638
 20
2089.188753
 11
648.673987
 21
2089.337885
  0
LINE
  8
CSLAYER1
  6
CONTINUOUS
 62
     7
 10
648.673987
 20
2089.337885
 11
648.831481
 21
2089.479682
  0
LINE
  8
CSLAYER1
  6
CONTINUOUS
 62
     7
 10
648.831481
 20
2089.479682
 11
649.009923
 21
2089.613067
  0
LINE
  8
CSLAYER1
  6
CONTINUOUS
 62
     7
 10
649.009923
 20
2089.613067
 11
649.207953
 21
2089.737024
  0
LINE
  8
CSLAYER1
  6
CONTINUOUS
 62
     7
 10
649.207953
 20
2089.737024
 11
649.424066
 21
2089.850610
  0
LINE
  8
CSLAYER1
  6
CONTINUOUS
 62
     7
 10
649.424066
 20
2089.850610
 11
649.656615
 21
2089.952960
  0
LINE
  8
CSLAYER1
  6
CONTINUOUS
 62
     7
 10
649.656615
 20
2089.952960
 11
649.903832
 21
2090.043295
  0
LINE
  8
CSLAYER1
  6
CONTINUOUS
 62
     7
 10
649.903832
 20
2090.043295
 11
650.163835
 21
2090.120928
  0
LINE
  8
CSLAYER1
  6
CONTINUOUS
 62
     7
 10
650.163835
 20
2090.120928
 11
650.434644
 21
2090.185268
  0
LINE
  8
CSLAYER1
  6
CONTINUOUS
 62
     7
 10
650.434644
 20
2090.185268
 11
650.714200
 21
2090.235825
  0
LINE
  8
CSLAYER1
  6
CONTINUOUS
 62
     7
 10
650.714200
 20
2090.235825
 11
651.000374
 21
2090.272214
  0
LINE
  8
CSLAYER1
  6
CONTINUOUS
 62
     7
 10
651.000374
 20
2090.272214
 11
651.290989
 21
2090.294159
  0
LINE
  8
CSLAYER1
  6
CONTINUOUS
 62
     7
 10
651.290989
 20
2090.294159
 11
651.583832
 21
2090.301493
  0
LINE
  8
CSLAYER1
  6
CONTINUOUS
 62
     7
 10
651.583832
 20
2090.301493
 11
651.876675
 21
2090.294159
  0
LINE
  8
CSLAYER1
  6
CONTINUOUS
 62
     7
 10
651.876675
 20
2090.294159
 11
652.167290
 21
2090.272214
  0
LINE
  8
CSLAYER1
  6
CONTINUOUS
 62
     7
 10
652.167290
 20
2090.272214
 11
652.453464
 21
2090.235825
  0
LINE
  8
CSLAYER1
  6
CONTINUOUS
 62
     7
 10
652.453464
 20
2090.235825
 11
652.733020
 21
2090.185268
  0
LINE
  8
CSLAYER1
  6
CONTINUOUS
 62
     7
 10
652.733020
 20
2090.185268
 11
653.003829
 21
2090.120928
  0
LINE
  8
CSLAYER1
  6
CONTINUOUS
 62
     7
 10
653.003829
 20
2090.120928
 11
653.263832
 21
2090.043295
  0
LINE
  8
CSLAYER1
  6
CONTINUOUS
 62
     7
 10
653.263832
 20
2090.043295
 11
653.511049
 21
2089.952960
  0
LINE
  8
CSLAYER1
  6
CONTINUOUS
 62
     7
 10
653.511049
 20
2089.952960
 11
653.743598
 21
2089.850610
  0
LINE
  8
CSLAYER1
  6
CONTINUOUS
 62
     7
 10
653.743598
 20
2089.850610
 11
653.959711
 21
2089.737024
  0
LINE
  8
CSLAYER1
  6
CONTINUOUS
 62
     7
 10
653.959711
 20
2089.737024
 11
654.157741
 21
2089.613067
  0
LINE
  8
CSLAYER1
  6
CONTINUOUS
 62
     7
 10
654.157741
 20
2089.613067
 11
654.336183
 21
2089.479682
  0
LINE
  8
CSLAYER1
  6
CONTINUOUS
 62
     7
 10
654.336183
 20
2089.479682
 11
654.493677
 21
2089.337885
  0
LINE
  8
CSLAYER1
  6
CONTINUOUS
 62
     7
 10
654.493677
 20
2089.337885
 11
654.629026
 21
2089.188753
  0
LINE
  8
CSLAYER1
  6
CONTINUOUS
 62
     7
 10
654.629026
 20
2089.188753
 11
654.741199
 21
2089.033423
  0
LINE
  8
CSLAYER1
  6
CONTINUOUS
 62
     7
 10
654.741199
 20
2089.033423
 11
654.829343
 21
2088.873077
  0
LINE
  8
CSLAYER1
  6
CONTINUOUS
 62
     7
 10
654.829343
 20
2088.873077
 11
654.892786
 21
2088.708934
  0
LINE
  8
CSLAYER1
  6
CONTINUOUS
 62
     7
 10
654.892786
 20
2088.708934
 11
654.931046
 21
2088.542244
  0
LINE
  8
CSLAYER1
  6
CONTINUOUS
 62
     7
 10
654.931046
 20
2088.542244
 11
654.943832
 21
2088.374276
  0
LINE
  8
CSLAYER1
  6
CONTINUOUS
 62
     7
 10
654.943832
 20
2088.374276
 11
654.931046
 21
2088.206308
  0
LINE
  8
CSLAYER1
  6
CONTINUOUS
 62
     7
 10
654.931046
 20
2088.206308
 11
654.892786
 21
2088.039619
  0
LINE
  8
CSLAYER1
  6
CONTINUOUS
 62
     7
 10
654.892786
 20
2088.039619
 11
654.829343
 21
2087.875476
  0
LINE
  8
CSLAYER1
  6
CONTINUOUS
 62
     7
 10
654.829343
 20
2087.875476
 11
654.741199
 21
2087.715129
  0
LINE
  8
CSLAYER1
  6
CONTINUOUS
 62
     7
 10
654.741199
 20
2087.715129
 11
654.629026
 21
2087.559799
  0
LINE
  8
CSLAYER1
  6
CONTINUOUS
 62
     7
 10
654.629026
 20
2087.559799
 11
654.493677
 21
2087.410668
  0
LINE
  8
CSLAYER1
  6
CONTINUOUS
 62
     7
 10
654.493677
 20
2087.410668
 11
654.336183
 21
2087.268870
  0
LINE
  8
CSLAYER1
  6
CONTINUOUS
 62
     7
 10
654.336183
 20
2087.268870
 11
654.157741
 21
2087.135485
  0
LINE
  8
CSLAYER1
  6
CONTINUOUS
 62
     7
 10
654.157741
 20
2087.135485
 11
653.959711
 21
2087.011528
  0
LINE
  8
CSLAYER1
  6
CONTINUOUS
 62
     7
 10
653.959711
 20
2087.011528
 11
653.743598
 21
2086.897943
  0
LINE
  8
CSLAYER1
  6
CONTINUOUS
 62
     7
 10
653.743598
 20
2086.897943
 11
653.511049
 21
2086.795593
  0
LINE
  8
CSLAYER1
  6
CONTINUOUS
 62
     7
 10
653.511049
 20
2086.795593
 11
653.263832
 21
2086.705258
  0
LINE
  8
CSLAYER1
  6
CONTINUOUS
 62
     7
 10
653.263832
 20
2086.705258
 11
653.003829
 21
2086.627625
  0
LINE
  8
CSLAYER1
  6
CONTINUOUS
 62
     7
 10
653.003829
 20
2086.627625
 11
652.733020
 21
2086.563285
  0
LINE
  8
CSLAYER1
  6
CONTINUOUS
 62
     7
 10
652.733020
 20
2086.563285
 11
652.453464
 21
2086.512728
  0
LINE
  8
CSLAYER1
  6
CONTINUOUS
 62
     7
 10
652.453464
 20
2086.512728
 11
652.167290
 21
2086.476338
  0
LINE
  8
CSLAYER1
  6
CONTINUOUS
 62
     7
 10
652.167290
 20
2086.476338
 11
651.876675
 21
2086.454393
  0
LINE
  8
CSLAYER1
  6
CONTINUOUS
 62
     7
 10
651.876675
 20
2086.454393
 11
651.583832
 21
2086.447059
  0
LINE
  8
CSLAYER1
  6
CONTINUOUS
 62
     7
 10
651.583832
 20
2086.447059
 11
651.290989
 21
2086.454393
  0
LINE
  8
CSLAYER1
  6
CONTINUOUS
 62
     7
 10
651.290989
 20
2086.454393
 11
651.000374
 21
2086.476338
  0
LINE
  8
CSLAYER1
  6
CONTINUOUS
 62
     7
 10
651.000374
 20
2086.476338
 11
650.714200
 21
2086.512728
  0
LINE
  8
CSLAYER1
  6
CONTINUOUS
 62
     7
 10
650.714200
 20
2086.512728
 11
650.434644
 21
2086.563285
  0
LINE
  8
CSLAYER1
  6
CONTINUOUS
 62
     7
 10
650.434644
 20
2086.563285
 11
650.163835
 21
2086.627625
  0
LINE
  8
CSLAYER1
  6
CONTINUOUS
 62
     7
 10
650.163835
 20
2086.627625
 11
649.903832
 21
2086.705258
  0
LINE
  8
CSLAYER1
  6
CONTINUOUS
 62
     7
 10
649.903832
 20
2086.705258
 11
649.656615
 21
2086.795593
  0
LINE
  8
CSLAYER1
  6
CONTINUOUS
 62
     7
 10
649.656615
 20
2086.795593
 11
649.424066
 21
2086.897943
  0
LINE
  8
CSLAYER1
  6
CONTINUOUS
 62
     7
 10
649.424066
 20
2086.897943
 11
649.207953
 21
2087.011528
  0
LINE
  8
CSLAYER1
  6
CONTINUOUS
 62
     7
 10
649.207953
 20
2087.011528
 11
649.009923
 21
2087.135485
  0
LINE
  8
CSLAYER1
  6
CONTINUOUS
 62
     7
 10
649.009923
 20
2087.135485
 11
648.831481
 21
2087.268870
  0
LINE
  8
CSLAYER1
  6
CONTINUOUS
 62
     7
 10
648.831481
 20
2087.268870
 11
648.673987
 21
2087.410668
  0
LINE
  8
CSLAYER1
  6
CONTINUOUS
 62
     7
 10
648.673987
 20
2087.410668
 11
648.538638
 21
2087.559799
  0
LINE
  8
CSLAYER1
  6
CONTINUOUS
 62
     7
 10
648.538638
 20
2087.559799
 11
648.426465
 21
2087.715129
  0
LINE
  8
CSLAYER1
  6
CONTINUOUS
 62
     7
 10
648.426465
 20
2087.715129
 11
648.338321
 21
2087.875476
  0
LINE
  8
CSLAYER1
  6
CONTINUOUS
 62
     7
 10
648.338321
 20
2087.875476
 11
648.274878
 21
2088.039619
  0
LINE
  8
CSLAYER1
  6
CONTINUOUS
 62
     7
 10
648.274878
 20
2088.039619
 11
648.236618
 21
2088.206308
  0
LINE
  8
CSLAYER1
  6
CONTINUOUS
 62
     7
 10
648.236618
 20
2088.206308
 11
648.223832
 21
2088.374276
  0
LINE
  8
CSLAYER1
  6
CONTINUOUS
 62
     7
 10
657.967832
 20
2088.374276
 11
657.967832
 21
2084.745537
  0
LINE
  8
CSLAYER1
  6
CONTINUOUS
 62
     7
 10
645.199832
 20
2088.374276
 11
645.199832
 21
2084.745537
  0
LINE
  8
CSLAYER1
  6
CONTINUOUS
 62
     7
 10
655.119718
 20
2085.328799
 11
655.119718
 21
2081.700060
  0
LINE
  8
CSLAYER1
  6
CONTINUOUS
 62
     7
 10
647.800630
 20
2085.428248
 11
647.800630
 21
2081.799508
  0
LINE
  8
CSLAYER1
  6
CONTINUOUS
 62
     7
 10
657.967832
 20
2084.745537
 11
657.943539
 21
2084.426398
  0
LINE
  8
CSLAYER1
  6
CONTINUOUS
 62
     7
 10
657.943539
 20
2084.426398
 11
657.870845
 21
2084.109687
  0
LINE
  8
CSLAYER1
  6
CONTINUOUS
 62
     7
 10
657.870845
 20
2084.109687
 11
657.750303
 21
2083.797816
  0
LINE
  8
CSLAYER1
  6
CONTINUOUS
 62
     7
 10
657.750303
 20
2083.797816
 11
657.582830
 21
2083.493158
  0
LINE
  8
CSLAYER1
  6
CONTINUOUS
 62
     7
 10
657.582830
 20
2083.493158
 11
657.369701
 21
2083.198030
  0
LINE
  8
CSLAYER1
  6
CONTINUOUS
 62
     7
 10
657.369701
 20
2083.198030
 11
657.112538
 21
2082.914681
  0
LINE
  8
CSLAYER1
  6
CONTINUOUS
 62
     7
 10
657.112538
 20
2082.914681
 11
656.813299
 21
2082.645265
  0
LINE
  8
CSLAYER1
  6
CONTINUOUS
 62
     7
 10
656.813299
 20
2082.645265
 11
656.474260
 21
2082.391834
  0
LINE
  8
CSLAYER1
  6
CONTINUOUS
 62
     7
 10
656.474260
 20
2082.391834
 11
656.098002
 21
2082.156315
  0
LINE
  8
CSLAYER1
  6
CONTINUOUS
 62
     7
 10
656.098002
 20
2082.156315
 11
655.687388
 21
2081.940503
  0
LINE
  8
CSLAYER1
  6
CONTINUOUS
 62
     7
 10
655.687388
 20
2081.940503
 11
655.245544
 21
2081.746038
  0
LINE
  8
CSLAYER1
  6
CONTINUOUS
 62
     7
 10
655.245544
 20
2081.746038
 11
654.775832
 21
2081.574401
  0
LINE
  8
CSLAYER1
  6
CONTINUOUS
 62
     7
 10
654.775832
 20
2081.574401
 11
654.281827
 21
2081.426899
  0
LINE
  8
CSLAYER1
  6
CONTINUOUS
 62
     7
 10
654.281827
 20
2081.426899
 11
653.767289
 21
2081.304653
  0
LINE
  8
CSLAYER1
  6
CONTINUOUS
 62
     7
 10
653.767289
 20
2081.304653
 11
653.236133
 21
2081.208595
  0
LINE
  8
CSLAYER1
  6
CONTINUOUS
 62
     7
 10
653.236133
 20
2081.208595
 11
652.692402
 21
2081.139454
  0
LINE
  8
CSLAYER1
  6
CONTINUOUS
 62
     7
 10
652.692402
 20
2081.139454
 11
652.140234
 21
2081.097759
  0
LINE
  8
CSLAYER1
  6
CONTINUOUS
 62
     7
 10
652.140234
 20
2081.097759
 11
651.583832
 21
2081.083825
  0
LINE
  8
CSLAYER1
  6
CONTINUOUS
 62
     7
 10
651.583832
 20
2081.083825
 11
651.027430
 21
2081.097759
  0
LINE
  8
CSLAYER1
  6
CONTINUOUS
 62
     7
 10
651.027430
 20
2081.097759
 11
650.475262
 21
2081.139454
  0
LINE
  8
CSLAYER1
  6
CONTINUOUS
 62
     7
 10
650.475262
 20
2081.139454
 11
649.931531
 21
2081.208595
  0
LINE
  8
CSLAYER1
  6
CONTINUOUS
 62
     7
 10
649.931531
 20
2081.208595
 11
649.400375
 21
2081.304653
  0
LINE
  8
CSLAYER1
  6
CONTINUOUS
 62
     7
 10
649.400375
 20
2081.304653
 11
648.885837
 21
2081.426899
  0
LINE
  8
CSLAYER1
  6
CONTINUOUS
 62
     7
 10
648.885837
 20
2081.426899
 11
648.391832
 21
2081.574401
  0
LINE
  8
CSLAYER1
  6
CONTINUOUS
 62
     7
 10
648.391832
 20
2081.574401
 11
647.922120
 21
2081.746038
  0
LINE
  8
CSLAYER1
  6
CONTINUOUS
 62
     7
 10
647.922120
 20
2081.746038
 11
647.480276
 21
2081.940503
  0
LINE
  8
CSLAYER1
  6
CONTINUOUS
 62
     7
 10
647.480276
 20
2081.940503
 11
647.069662
 21
2082.156315
  0
LINE
  8
CSLAYER1
  6
CONTINUOUS
 62
     7
 10
647.069662
 20
2082.156315
 11
646.693404
 21
2082.391834
  0
LINE
  8
CSLAYER1
  6
CONTINUOUS
 62
     7
 10
646.693404
 20
2082.391834
 11
646.354365
 21
2082.645265
  0
LINE
  8
CSLAYER1
  6
CONTINUOUS
 62
     7
 10
646.354365
 20
2082.645265
 11
646.055126
 21
2082.914681
  0
LINE
  8
CSLAYER1
  6
CONTINUOUS
 62
     7
 10
646.055126
 20
2082.914681
 11
645.797963
 21
2083.198030
  0
LINE
  8
CSLAYER1
  6
CONTINUOUS
 62
     7
 10
645.797963
 20
2083.198030
 11
645.584834
 21
2083.493158
  0
LINE
  8
CSLAYER1
  6
CONTINUOUS
 62
     7
 10
645.584834
 20
2083.493158
 11
645.417362
 21
2083.797816
  0
LINE
  8
CSLAYER1
  6
CONTINUOUS
 62
     7
 10
645.417362
 20
2083.797816
 11
645.296819
 21
2084.109687
  0
LINE
  8
CSLAYER1
  6
CONTINUOUS
 62
     7
 10
645.296819
 20
2084.109687
 11
645.224125
 21
2084.426398
  0
LINE
  8
CSLAYER1
  6
CONTINUOUS
 62
     7
 10
645.224125
 20
2084.426398
 11
645.199832
 21
2084.745537
  0
LINE
  8
CSLAYER1
  6
CONTINUOUS
 62
     7
 10
647.800630
 20
2071.582918
 11
647.800630
 21
2071.033868
  0
LINE
  8
CSLAYER1
  6
CONTINUOUS
 62
     7
 10
657.967832
 20
2073.979897
 11
657.943539
 21
2073.660758
  0
LINE
  8
CSLAYER1
  6
CONTINUOUS
 62
     7
 10
657.943539
 20
2073.660758
 11
657.870845
 21
2073.344047
  0
LINE
  8
CSLAYER1
  6
CONTINUOUS
 62
     7
 10
657.870845
 20
2073.344047
 11
657.750303
 21
2073.032176
  0
LINE
  8
CSLAYER1
  6
CONTINUOUS
 62
     7
 10
657.750303
 20
2073.032176
 11
657.582830
 21
2072.727518
  0
LINE
  8
CSLAYER1
  6
CONTINUOUS
 62
     7
 10
657.582830
 20
2072.727518
 11
657.369701
 21
2072.432391
  0
LINE
  8
CSLAYER1
  6
CONTINUOUS
 62
     7
 10
657.369701
 20
2072.432391
 11
657.112538
 21
2072.149041
  0
LINE
  8
CSLAYER1
  6
CONTINUOUS
 62
     7
 10
657.112538
 20
2072.149041
 11
656.813299
 21
2071.879625
  0
LINE
  8
CSLAYER1
  6
CONTINUOUS
 62
     7
 10
656.813299
 20
2071.879625
 11
656.474260
 21
2071.626194
  0
LINE
  8
CSLAYER1
  6
CONTINUOUS
 62
     7
 10
656.474260
 20
2071.626194
 11
656.098002
 21
2071.390676
  0
LINE
  8
CSLAYER1
  6
CONTINUOUS
 62
     7
 10
656.098002
 20
2071.390676
 11
655.687388
 21
2071.174863
  0
LINE
  8
CSLAYER1
  6
CONTINUOUS
 62
     7
 10
655.687388
 20
2071.174863
 11
655.245544
 21
2070.980398
  0
LINE
  8
CSLAYER1
  6
CONTINUOUS
 62
     7
 10
655.245544
 20
2070.980398
 11
654.775832
 21
2070.808761
  0
LINE
  8
CSLAYER1
  6
CONTINUOUS
 62
     7
 10
654.775832
 20
2070.808761
 11
654.281827
 21
2070.661259
  0
LINE
  8
CSLAYER1
  6
CONTINUOUS
 62
     7
 10
654.281827
 20
2070.661259
 11
653.767289
 21
2070.539013
  0
LINE
  8
CSLAYER1
  6
CONTINUOUS
 62
     7
 10
653.767289
 20
2070.539013
 11
653.236133
 21
2070.442955
  0
LINE
  8
CSLAYER1
  6
CONTINUOUS
 62
     7
 10
653.236133
 20
2070.442955
 11
652.692402
 21
2070.373815
  0
LINE
  8
CSLAYER1
  6
CONTINUOUS
 62
     7
 10
652.692402
 20
2070.373815
 11
652.140234
 21
2070.332119
  0
LINE
  8
CSLAYER1
  6
CONTINUOUS
 62
     7
 10
652.140234
 20
2070.332119
 11
651.583832
 21
2070.318185
  0
LINE
  8
CSLAYER1
  6
CONTINUOUS
 62
     7
 10
651.583832
 20
2070.318185
 11
651.027430
 21
2070.332119
  0
LINE
  8
CSLAYER1
  6
CONTINUOUS
 62
     7
 10
651.027430
 20
2070.332119
 11
650.475262
 21
2070.373815
  0
LINE
  8
CSLAYER1
  6
CONTINUOUS
 62
     7
 10
650.475262
 20
2070.373815
 11
649.931531
 21
2070.442955
  0
LINE
  8
CSLAYER1
  6
CONTINUOUS
 62
     7
 10
649.931531
 20
2070.442955
 11
649.400375
 21
2070.539013
  0
LINE
  8
CSLAYER1
  6
CONTINUOUS
 62
     7
 10
649.400375
 20
2070.539013
 11
648.885837
 21
2070.661259
  0
LINE
  8
CSLAYER1
  6
CONTINUOUS
 62
     7
 10
648.885837
 20
2070.661259
 11
648.391832
 21
2070.808761
  0
LINE
  8
CSLAYER1
  6
CONTINUOUS
 62
     7
 10
648.391832
 20
2070.808761
 11
647.922120
 21
2070.980398
  0
LINE
  8
CSLAYER1
  6
CONTINUOUS
 62
     7
 10
647.922120
 20
2070.980398
 11
647.480276
 21
2071.174863
  0
LINE
  8
CSLAYER1
  6
CONTINUOUS
 62
     7
 10
647.480276
 20
2071.174863
 11
647.299586
 21
2071.269831
  0
LINE
  8
CSLAYER1
  6
CONTINUOUS
 62
     7
 10
657.967832
 20
2079.026777
 11
657.967832
 21
2073.979897
  0
LINE
  8
CSLAYER1
  6
CONTINUOUS
 62
     7
 10
654.943832
 20
2066.395371
 11
654.943832
 21
2070.870150
  0
LINE
  8
CSLAYER1
  6
CONTINUOUS
 62
     7
 10
648.223832
 20
2066.395371
 11
648.223832
 21
2070.870150
  0
LINE
  8
CSLAYER1
  6
CONTINUOUS
 62
     7
 10
654.943832
 20
2066.395371
 11
654.931046
 21
2066.227403
  0
LINE
  8
CSLAYER1
  6
CONTINUOUS
 62
     7
 10
654.931046
 20
2066.227403
 11
654.892786
 21
2066.060714
  0
LINE
  8
CSLAYER1
  6
CONTINUOUS
 62
     7
 10
654.892786
 20
2066.060714
 11
654.829343
 21
2065.896571
  0
LINE
  8
CSLAYER1
  6
CONTINUOUS
 62
     7
 10
654.829343
 20
2065.896571
 11
654.741199
 21
2065.736224
  0
LINE
  8
CSLAYER1
  6
CONTINUOUS
 62
     7
 10
654.741199
 20
2065.736224
 11
654.629026
 21
2065.580894
  0
LINE
  8
CSLAYER1
  6
CONTINUOUS
 62
     7
 10
654.629026
 20
2065.580894
 11
654.493677
 21
2065.431763
  0
LINE
  8
CSLAYER1
  6
CONTINUOUS
 62
     7
 10
654.493677
 20
2065.431763
 11
654.336183
 21
2065.289965
  0
LINE
  8
CSLAYER1
  6
CONTINUOUS
 62
     7
 10
654.336183
 20
2065.289965
 11
654.157741
 21
2065.156580
  0
LINE
  8
CSLAYER1
  6
CONTINUOUS
 62
     7
 10
654.157741
 20
2065.156580
 11
653.959711
 21
2065.032623
  0
LINE
  8
CSLAYER1
  6
CONTINUOUS
 62
     7
 10
653.959711
 20
2065.032623
 11
653.743598
 21
2064.919038
  0
LINE
  8
CSLAYER1
  6
CONTINUOUS
 62
     7
 10
653.743598
 20
2064.919038
 11
653.511049
 21
2064.816688
  0
LINE
  8
CSLAYER1
  6
CONTINUOUS
 62
     7
 10
653.511049
 20
2064.816688
 11
653.263832
 21
2064.726353
  0
LINE
  8
CSLAYER1
  6
CONTINUOUS
 62
     7
 10
653.263832
 20
2064.726353
 11
653.003829
 21
2064.648720
  0
LINE
  8
CSLAYER1
  6
CONTINUOUS
 62
     7
 10
653.003829
 20
2064.648720
 11
652.733020
 21
2064.584380
  0
LINE
  8
CSLAYER1
  6
CONTINUOUS
 62
     7
 10
652.733020
 20
2064.584380
 11
652.453464
 21
2064.533823
  0
LINE
  8
CSLAYER1
  6
CONTINUOUS
 62
     7
 10
652.453464
 20
2064.533823
 11
652.167290
 21
2064.497433
  0
LINE
  8
CSLAYER1
  6
CONTINUOUS
 62
     7
 10
652.167290
 20
2064.497433
 11
651.876675
 21
2064.475488
  0
LINE
  8
CSLAYER1
  6
CONTINUOUS
 62
     7
 10
651.876675
 20
2064.475488
 11
651.583832
 21
2064.468155
  0
LINE
  8
CSLAYER1
  6
CONTINUOUS
 62
     7
 10
651.583832
 20
2064.468155
 11
651.290989
 21
2064.475488
  0
LINE
  8
CSLAYER1
  6
CONTINUOUS
 62
     7
 10
651.290989
 20
2064.475488
 11
651.000374
 21
2064.497433
  0
LINE
  8
CSLAYER1
  6
CONTINUOUS
 62
     7
 10
651.000374
 20
2064.497433
 11
650.714200
 21
2064.533823
  0
LINE
  8
CSLAYER1
  6
CONTINUOUS
 62
     7
 10
650.714200
 20
2064.533823
 11
650.434644
 21
2064.584380
  0
LINE
  8
CSLAYER1
  6
CONTINUOUS
 62
     7
 10
650.434644
 20
2064.584380
 11
650.163835
 21
2064.648720
  0
LINE
  8
CSLAYER1
  6
CONTINUOUS
 62
     7
 10
650.163835
 20
2064.648720
 11
649.903832
 21
2064.726353
  0
LINE
  8
CSLAYER1
  6
CONTINUOUS
 62
     7
 10
649.903832
 20
2064.726353
 11
649.656615
 21
2064.816688
  0
LINE
  8
CSLAYER1
  6
CONTINUOUS
 62
     7
 10
649.656615
 20
2064.816688
 11
649.424066
 21
2064.919038
  0
LINE
  8
CSLAYER1
  6
CONTINUOUS
 62
     7
 10
649.424066
 20
2064.919038
 11
649.207953
 21
2065.032623
  0
LINE
  8
CSLAYER1
  6
CONTINUOUS
 62
     7
 10
649.207953
 20
2065.032623
 11
649.009923
 21
2065.156580
  0
LINE
  8
CSLAYER1
  6
CONTINUOUS
 62
     7
 10
649.009923
 20
2065.156580
 11
648.831481
 21
2065.289965
  0
LINE
  8
CSLAYER1
  6
CONTINUOUS
 62
     7
 10
648.831481
 20
2065.289965
 11
648.673987
 21
2065.431763
  0
LINE
  8
CSLAYER1
  6
CONTINUOUS
 62
     7
 10
648.673987
 20
2065.431763
 11
648.538638
 21
2065.580894
  0
LINE
  8
CSLAYER1
  6
CONTINUOUS
 62
     7
 10
648.538638
 20
2065.580894
 11
648.426465
 21
2065.736224
  0
LINE
  8
CSLAYER1
  6
CONTINUOUS
 62
     7
 10
648.426465
 20
2065.736224
 11
648.338321
 21
2065.896571
  0
LINE
  8
CSLAYER1
  6
CONTINUOUS
 62
     7
 10
648.338321
 20
2065.896571
 11
648.274878
 21
2066.060714
  0
LINE
  8
CSLAYER1
  6
CONTINUOUS
 62
     7
 10
648.274878
 20
2066.060714
 11
648.236618
 21
2066.227403
  0
LINE
  8
CSLAYER1
  6
CONTINUOUS
 62
     7
 10
648.236618
 20
2066.227403
 11
648.223832
 21
2066.395371
  0
LINE
  8
CSLAYER1
  6
CONTINUOUS
 62
     7
 10
653.166729
 20
2079.648462
 11
638.662977
 21
2084.927396
  0
LINE
  8
CSLAYER1
  6
CONTINUOUS
 62
     7
 10
653.166729
 20
2079.648462
 11
653.166729
 21
2074.936028
  0
LINE
  8
CSLAYER1
  6
CONTINUOUS
 62
     7
 10
640.452582
 20
2084.276033
 11
645.199832
 21
2087.242444
  0
LINE
  8
CSLAYER1
  6
CONTINUOUS
 62
     7
 10
653.166729
 20
2078.448523
 11
660.399638
 21
2082.968146
  0
LINE
  8
CSLAYER1
  6
CONTINUOUS
 62
     7
 10
653.166729
 20
2076.026714
 11
659.735899
 21
2080.131587
  0
ARC
  8
CSLAYER1
  6
CONTINUOUS
 62
     7
 10
653.988518
 20
2079.438308
 40
7.403380
 50
30.339165
 51
57.486408
  0
ARC
  8
CSLAYER1
  6
CONTINUOUS
 62
     7
 10
655.647839
 20
2082.584106
 40
4.767292
 50
-30.960488
 51
7.154948
  0
ENDBLK
  8
0
  0
BLOCK
  8
CSLAYER1
  2
BLKF0008
 70
   64
 10
0.0
 20
0.0
 30
0.0
  0
LINE
  8
CSLAYER1
  6
CONTINUOUS
 62
     3
 10
653.616524
 20
839.475686
 11
753.616524
 21
839.475686
  0
LINE
  8
CSLAYER1
  6
CONTINUOUS
 62
     3
 10
603.616524
 20
799.475686
 11
903.616524
 21
799.475686
  0
LINE
  8
CSLAYER1
  6
CONTINUOUS
 62
     3
 10
653.616524
 20
839.475686
 11
653.616524
 21
805.475686
  0
LINE
  8
CSLAYER1
  6
CONTINUOUS
 62
     3
 10
853.616524
 20
839.475686
 11
753.616524
 21
839.475686
  0
LINE
  8
CSLAYER1
  6
CONTINUOUS
 62
     3
 10
853.616524
 20
839.475686
 11
853.616524
 21
805.475686
  0
LINE
  8
CSLAYER1
  6
CONTINUOUS
 62
     3
 10
903.616524
 20
799.475686
 11
903.616524
 21
805.475686
  0
LINE
  8
CSLAYER1
  6
CENTER
 62
     5
 10
878.616524
 20
790.546325
 11
878.616524
 21
814.756286
  0
LINE
  8
CSLAYER1
  6
CONTINUOUS
 62
     3
 10
828.116524
 20
805.475686
 11
828.116524
 21
839.475686
  0
LINE
  8
CSLAYER1
  6
CONTINUOUS
 62
     3
 10
903.616524
 20
805.475686
 11
822.116524
 21
805.475686
  0
LINE
  8
CSLAYER1
  6
CONTINUOUS
 62
     3
 10
603.616524
 20
799.475686
 11
603.616524
 21
805.475686
  0
LINE
  8
CSLAYER1
  6
CENTER
 62
     5
 10
628.616524
 20
790.546325
 11
628.616524
 21
814.756286
  0
LINE
  8
CSLAYER1
  6
CONTINUOUS
 62
     3
 10
603.616524
 20
805.475686
 11
685.116524
 21
805.475686
  0
LINE
  8
CSLAYER1
  6
CONTINUOUS
 62
     3
 10
679.116524
 20
805.475686
 11
679.116524
 21
839.475686
  0
LINE
  8
CSLAYER1
  6
CENTER
 62
     5
 10
723.616524
 20
802.786122
 11
723.616524
 21
836.049441
  0
LINE
  8
CSLAYER1
  6
CENTER
 62
     5
 10
705.742578
 20
819.475686
 11
742.739535
 21
819.475686
  0
CIRCLE
  8
CSLAYER1
  6
CONTINUOUS
 62
     3
 10
723.616524
 20
819.475686
 40
12.500000
  0
LINE
  8
CSLAYER1
  6
CENTER
 62
     5
 10
668.116524
 20
816.975686
 11
839.116524
 21
816.975686
  0
LINE
  8
CSLAYER1
  6
CONTINUOUS
 62
     3
 10
685.116524
 20
799.475686
 11
685.116524
 21
839.475686
  0
LINE
  8
CSLAYER1
  6
CONTINUOUS
 62
     3
 10
822.116524
 20
799.475686
 11
822.116524
 21
839.475686
  0
ENDBLK
  8
0
  0
BLOCK
  8
CSLAYER1
  2
BLKF0009
 70
   64
 10
0.0
 20
0.0
 30
0.0
  0
LINE
  8
CSLAYER1
  6
CONTINUOUS
 62
     3
 10
820.116524
 20
1366.269702
 11
820.116524
 21
1381.039357
  0
LINE
  8
CSLAYER1
  6
CONTINUOUS
 62
     3
 10
817.116524
 20
1366.489357
 11
820.116524
 21
1366.489357
  0
LINE
  8
CSLAYER1
  6
CONTINUOUS
 62
     3
 10
817.116524
 20
1375.727160
 11
820.116524
 21
1379.227160
  0
LINE
  8
CSLAYER1
  6
CONTINUOUS
 62
     3
 10
828.116524
 20
1377.239357
 11
828.116524
 21
1381.039357
  0
ARC
  8
CSLAYER1
  6
CONTINUOUS
 62
     3
 10
814.320780
 20
1377.239357
 40
13.795744
 50
0.000000
 51
15.988670
  0
LINE
  8
CSLAYER1
  6
CONTINUOUS
 62
     3
 10
828.116524
 20
1377.239357
 11
828.116524
 21
1368.239357
  0
LINE
  8
CSLAYER1
  6
CONTINUOUS
 62
     3
 10
820.116524
 20
1371.754529
 11
826.979343
 21
1371.754529
  0
LINE
  8
CSLAYER1
  6
CONTINUOUS
 62
     3
 10
820.116524
 20
1366.269702
 11
826.979343
 21
1366.269702
  0
LINE
  8
CSLAYER1
  6
CONTINUOUS
 62
     3
 10
828.116524
 20
1368.239357
 11
826.979343
 21
1366.269702
  0
ARC
  8
CSLAYER1
  6
CONTINUOUS
 62
     3
 10
824.336480
 20
1369.012116
 40
3.808617
 50
5.661633
 51
46.059028
  0
ARC
  8
CSLAYER1
  6
CONTINUOUS
 62
     3
 10
814.320780
 20
1377.239357
 40
13.795744
 50
336.573402
 51
360.000000
  0
ENDBLK
  8
0
  0
BLOCK
  8
CSLAYER1
  2
BLKF0010
 70
   64
 10
0.0
 20
0.0
 30
0.0
  0
LINE
  8
CSLAYER1
  6
CENTER
 62
     5
 10
764.116524
 20
1180.910823
 11
764.116524
 21
857.275626
  0
LINE
  8
CSLAYER1
  6
CONTINUOUS
 62
     3
 10
786.616524
 20
1154.710823
 11
786.616524
 21
1179.910823
  0
LINE
  8
CSLAYER1
  6
CONTINUOUS
 62
     3
 10
741.616524
 20
1154.710823
 11
741.616524
 21
1179.910823
  0
LINE
  8
CSLAYER1
  6
CONTINUOUS
 62
     3
 10
742.616524
 20
1180.910823
 11
785.616524
 21
1180.910823
  0
LINE
  8
CSLAYER1
  6
CONTINUOUS
 62
     3
 10
741.616524
 20
1179.910823
 11
742.616524
 21
1180.910823
  0
LINE
  8
CSLAYER1
  6
CONTINUOUS
 62
     3
 10
785.616524
 20
1180.910823
 11
786.616524
 21
1179.910823
  0
POINT
  8
CSLAYER1
 62
     3
 10
764.116524
 20
1167.310823
  0
LINE
  8
CSLAYER1
  6
CONTINUOUS
 62
     3
 10
787.616524
 20
1175.310823
 11
786.616524
 21
1175.310823
  0
LINE
  8
CSLAYER1
  6
CONTINUOUS
 62
     3
 10
741.616524
 20
1175.310823
 11
740.616524
 21
1175.310823
  0
LINE
  8
CSLAYER1
  6
CENTER
 62
     5
 10
735.116524
 20
884.603835
 11
793.116524
 21
884.603835
  0
LINE
  8
CSLAYER1
  6
CONTINUOUS
 62
     3
 10
787.029002
 20
1045.436189
 11
791.511878
 21
1028.146963
  0
LINE
  8
CSLAYER1
  6
CONTINUOUS
 62
     3
 10
787.029002
 20
1045.436189
 11
786.767102
 21
1046.400633
  0
LINE
  8
CSLAYER1
  6
CONTINUOUS
 62
     3
 10
786.767102
 20
1046.400633
 11
786.332818
 21
1047.350342
  0
LINE
  8
CSLAYER1
  6
CONTINUOUS
 62
     3
 10
786.332818
 20
1047.350342
 11
785.729454
 21
1048.278086
  0
LINE
  8
CSLAYER1
  6
CONTINUOUS
 62
     3
 10
785.729454
 20
1048.278086
 11
784.961603
 21
1049.176805
  0
LINE
  8
CSLAYER1
  6
CONTINUOUS
 62
     3
 10
784.961603
 20
1049.176805
 11
784.035108
 21
1050.039659
  0
LINE
  8
CSLAYER1
  6
CONTINUOUS
 62
     3
 10
784.035108
 20
1050.039659
 11
782.957021
 21
1050.860082
  0
LINE
  8
CSLAYER1
  6
CONTINUOUS
 62
     3
 10
782.957021
 20
1050.860082
 11
781.735546
 21
1051.631830
  0
LINE
  8
CSLAYER1
  6
CONTINUOUS
 62
     3
 10
781.735546
 20
1051.631830
 11
780.379980
 21
1052.349028
  0
LINE
  8
CSLAYER1
  6
CONTINUOUS
 62
     3
 10
780.379980
 20
1052.349028
 11
778.900639
 21
1053.006220
  0
LINE
  8
CSLAYER1
  6
CONTINUOUS
 62
     3
 10
778.900639
 20
1053.006220
 11
777.308782
 21
1053.598403
  0
LINE
  8
CSLAYER1
  6
CONTINUOUS
 62
     3
 10
777.308782
 20
1053.598403
 11
775.616524
 21
1054.121070
  0
LINE
  8
CSLAYER1
  6
CONTINUOUS
 62
     3
 10
775.616524
 20
1054.121070
 11
773.836744
 21
1054.570243
  0
LINE
  8
CSLAYER1
  6
CONTINUOUS
 62
     3
 10
773.836744
 20
1054.570243
 11
771.982987
 21
1054.942505
  0
LINE
  8
CSLAYER1
  6
CONTINUOUS
 62
     3
 10
771.982987
 20
1054.942505
 11
770.069362
 21
1055.235021
  0
LINE
  8
CSLAYER1
  6
CONTINUOUS
 62
     3
 10
770.069362
 20
1055.235021
 11
768.110432
 21
1055.445567
  0
LINE
  8
CSLAYER1
  6
CONTINUOUS
 62
     3
 10
768.110432
 20
1055.445567
 11
766.121106
 21
1055.572538
  0
LINE
  8
CSLAYER1
  6
CONTINUOUS
 62
     3
 10
766.121106
 20
1055.572538
 11
764.116524
 21
1055.614970
  0
LINE
  8
CSLAYER1
  6
CONTINUOUS
 62
     3
 10
741.204046
 20
1045.436189
 11
736.721170
 21
1028.146963
  0
LINE
  8
CSLAYER1
  6
CONTINUOUS
 62
     3
 10
741.204046
 20
1045.436189
 11
741.465946
 21
1046.400633
  0
LINE
  8
CSLAYER1
  6
CONTINUOUS
 62
     3
 10
741.465946
 20
1046.400633
 11
741.900230
 21
1047.350342
  0
LINE
  8
CSLAYER1
  6
CONTINUOUS
 62
     3
 10
741.900230
 20
1047.350342
 11
742.503594
 21
1048.278086
  0
LINE
  8
CSLAYER1
  6
CONTINUOUS
 62
     3
 10
742.503594
 20
1048.278086
 11
743.271445
 21
1049.176805
  0
LINE
  8
CSLAYER1
  6
CONTINUOUS
 62
     3
 10
743.271445
 20
1049.176805
 11
744.197940
 21
1050.039659
  0
LINE
  8
CSLAYER1
  6
CONTINUOUS
 62
     3
 10
744.197940
 20
1050.039659
 11
745.276027
 21
1050.860082
  0
LINE
  8
CSLAYER1
  6
CONTINUOUS
 62
     3
 10
745.276027
 20
1050.860082
 11
746.497502
 21
1051.631830
  0
LINE
  8
CSLAYER1
  6
CONTINUOUS
 62
     3
 10
746.497502
 20
1051.631830
 11
747.853068
 21
1052.349028
  0
LINE
  8
CSLAYER1
  6
CONTINUOUS
 62
     3
 10
747.853068
 20
1052.349028
 11
749.332409
 21
1053.006220
  0
LINE
  8
CSLAYER1
  6
CONTINUOUS
 62
     3
 10
749.332409
 20
1053.006220
 11
750.924266
 21
1053.598403
  0
LINE
  8
CSLAYER1
  6
CONTINUOUS
 62
     3
 10
750.924266
 20
1053.598403
 11
752.616524
 21
1054.121070
  0
LINE
  8
CSLAYER1
  6
CONTINUOUS
 62
     3
 10
752.616524
 20
1054.121070
 11
754.396304
 21
1054.570243
  0
LINE
  8
CSLAYER1
  6
CONTINUOUS
 62
     3
 10
754.396304
 20
1054.570243
 11
756.250061
 21
1054.942505
  0
LINE
  8
CSLAYER1
  6
CONTINUOUS
 62
     3
 10
756.250061
 20
1054.942505
 11
758.163686
 21
1055.235021
  0
LINE
  8
CSLAYER1
  6
CONTINUOUS
 62
     3
 10
758.163686
 20
1055.235021
 11
760.122616
 21
1055.445567
  0
LINE
  8
CSLAYER1
  6
CONTINUOUS
 62
     3
 10
760.122616
 20
1055.445567
 11
762.111942
 21
1055.572538
  0
LINE
  8
CSLAYER1
  6
CONTINUOUS
 62
     3
 10
762.111942
 20
1055.572538
 11
764.116524
 21
1055.614970
  0
LINE
  8
CSLAYER1
  6
CONTINUOUS
 62
     3
 10
782.116524
 20
1051.391122
 11
782.116524
 21
1156.154039
  0
LINE
  8
CSLAYER1
  6
CONTINUOUS
 62
     3
 10
782.116524
 20
1155.645703
 11
782.048029
 21
1156.406273
  0
LINE
  8
CSLAYER1
  6
CONTINUOUS
 62
     3
 10
782.048029
 20
1156.406273
 11
781.843064
 21
1157.161056
  0
LINE
  8
CSLAYER1
  6
CONTINUOUS
 62
     3
 10
781.843064
 20
1157.161056
 11
781.503189
 21
1157.904306
  0
LINE
  8
CSLAYER1
  6
CONTINUOUS
 62
     3
 10
781.503189
 20
1157.904306
 11
781.030991
 21
1158.630366
  0
LINE
  8
CSLAYER1
  6
CONTINUOUS
 62
     3
 10
781.030991
 20
1158.630366
 11
780.430064
 21
1159.333712
  0
LINE
  8
CSLAYER1
  6
CONTINUOUS
 62
     3
 10
780.430064
 20
1159.333712
 11
779.704981
 21
1160.008989
  0
LINE
  8
CSLAYER1
  6
CONTINUOUS
 62
     3
 10
779.704981
 20
1160.008989
 11
778.861261
 21
1160.651059
  0
LINE
  8
CSLAYER1
  6
CONTINUOUS
 62
     3
 10
778.861261
 20
1160.651059
 11
777.905324
 21
1161.255036
  0
LINE
  8
CSLAYER1
  6
CONTINUOUS
 62
     3
 10
777.905324
 20
1161.255036
 11
776.844446
 21
1161.816322
  0
LINE
  8
CSLAYER1
  6
CONTINUOUS
 62
     3
 10
776.844446
 20
1161.816322
 11
775.686701
 21
1162.330645
  0
LINE
  8
CSLAYER1
  6
CONTINUOUS
 62
     3
 10
775.686701
 20
1162.330645
 11
774.440900
 21
1162.794093
  0
LINE
  8
CSLAYER1
  6
CONTINUOUS
 62
     3
 10
774.440900
 20
1162.794093
 11
773.116524
 21
1163.203137
  0
LINE
  8
CSLAYER1
  6
CONTINUOUS
 62
     3
 10
773.116524
 20
1163.203137
 11
771.723653
 21
1163.554664
  0
LINE
  8
CSLAYER1
  6
CONTINUOUS
 62
     3
 10
771.723653
 20
1163.554664
 11
770.272887
 21
1163.845999
  0
LINE
  8
CSLAYER1
  6
CONTINUOUS
 62
     3
 10
770.272887
 20
1163.845999
 11
768.775267
 21
1164.074925
  0
LINE
  8
CSLAYER1
  6
CONTINUOUS
 62
     3
 10
768.775267
 20
1164.074925
 11
767.242191
 21
1164.239699
  0
LINE
  8
CSLAYER1
  6
CONTINUOUS
 62
     3
 10
767.242191
 20
1164.239699
 11
765.685327
 21
1164.339068
  0
LINE
  8
CSLAYER1
  6
CONTINUOUS
 62
     3
 10
765.685327
 20
1164.339068
 11
764.116524
 21
1164.372276
  0
LINE
  8
CSLAYER1
  6
CONTINUOUS
 62
     3
 10
764.116524
 20
1164.372276
 11
762.547721
 21
1164.339068
  0
LINE
  8
CSLAYER1
  6
CONTINUOUS
 62
     3
 10
762.547721
 20
1164.339068
 11
760.990857
 21
1164.239699
  0
LINE
  8
CSLAYER1
  6
CONTINUOUS
 62
     3
 10
760.990857
 20
1164.239699
 11
759.457781
 21
1164.074925
  0
LINE
  8
CSLAYER1
  6
CONTINUOUS
 62
     3
 10
759.457781
 20
1164.074925
 11
757.960161
 21
1163.845999
  0
LINE
  8
CSLAYER1
  6
CONTINUOUS
 62
     3
 10
757.960161
 20
1163.845999
 11
756.509395
 21
1163.554664
  0
LINE
  8
CSLAYER1
  6
CONTINUOUS
 62
     3
 10
756.509395
 20
1163.554664
 11
755.116524
 21
1163.203137
  0
LINE
  8
CSLAYER1
  6
CONTINUOUS
 62
     3
 10
755.116524
 20
1163.203137
 11
753.792148
 21
1162.794093
  0
LINE
  8
CSLAYER1
  6
CONTINUOUS
 62
     3
 10
753.792148
 20
1162.794093
 11
752.546347
 21
1162.330645
  0
LINE
  8
CSLAYER1
  6
CONTINUOUS
 62
     3
 10
752.546347
 20
1162.330645
 11
751.388602
 21
1161.816322
  0
LINE
  8
CSLAYER1
  6
CONTINUOUS
 62
     3
 10
751.388602
 20
1161.816322
 11
750.327724
 21
1161.255036
  0
LINE
  8
CSLAYER1
  6
CONTINUOUS
 62
     3
 10
750.327724
 20
1161.255036
 11
749.371787
 21
1160.651059
  0
LINE
  8
CSLAYER1
  6
CONTINUOUS
 62
     3
 10
749.371787
 20
1160.651059
 11
748.528067
 21
1160.008989
  0
LINE
  8
CSLAYER1
  6
CONTINUOUS
 62
     3
 10
748.528067
 20
1160.008989
 11
747.802984
 21
1159.333712
  0
LINE
  8
CSLAYER1
  6
CONTINUOUS
 62
     3
 10
747.802984
 20
1159.333712
 11
747.202057
 21
1158.630366
  0
LINE
  8
CSLAYER1
  6
CONTINUOUS
 62
     3
 10
747.202057
 20
1158.630366
 11
746.729859
 21
1157.904306
  0
LINE
  8
CSLAYER1
  6
CONTINUOUS
 62
     3
 10
746.729859
 20
1157.904306
 11
746.389984
 21
1157.161056
  0
LINE
  8
CSLAYER1
  6
CONTINUOUS
 62
     3
 10
746.389984
 20
1157.161056
 11
746.185019
 21
1156.406273
  0
LINE
  8
CSLAYER1
  6
CONTINUOUS
 62
     3
 10
746.185019
 20
1156.406273
 11
746.116524
 21
1155.645703
  0
LINE
  8
CSLAYER1
  6
CONTINUOUS
 62
     3
 10
791.616524
 20
1026.984979
 11
791.616524
 21
996.396083
  0
LINE
  8
CSLAYER1
  6
CONTINUOUS
 62
     3
 10
791.616524
 20
1026.984979
 11
791.511878
 21
1028.146963
  0
LINE
  8
CSLAYER1
  6
CONTINUOUS
 62
     3
 10
791.511878
 20
1028.146963
 11
791.198737
 21
1029.300103
  0
LINE
  8
CSLAYER1
  6
CONTINUOUS
 62
     3
 10
791.198737
 20
1029.300103
 11
790.679484
 21
1030.435623
  0
LINE
  8
CSLAYER1
  6
CONTINUOUS
 62
     3
 10
790.679484
 20
1030.435623
 11
789.958071
 21
1031.544882
  0
LINE
  8
CSLAYER1
  6
CONTINUOUS
 62
     3
 10
789.958071
 20
1031.544882
 11
789.039988
 21
1032.619438
  0
LINE
  8
CSLAYER1
  6
CONTINUOUS
 62
     3
 10
789.039988
 20
1032.619438
 11
787.932223
 21
1033.651112
  0
LINE
  8
CSLAYER1
  6
CONTINUOUS
 62
     3
 10
787.932223
 20
1033.651112
 11
786.643205
 21
1034.632052
  0
LINE
  8
CSLAYER1
  6
CONTINUOUS
 62
     3
 10
786.643205
 20
1034.632052
 11
785.182746
 21
1035.554794
  0
LINE
  8
CSLAYER1
  6
CONTINUOUS
 62
     3
 10
785.182746
 20
1035.554794
 11
783.561961
 21
1036.412314
  0
LINE
  8
CSLAYER1
  6
CONTINUOUS
 62
     3
 10
783.561961
 20
1036.412314
 11
781.793183
 21
1037.198086
  0
LINE
  8
CSLAYER1
  6
CONTINUOUS
 62
     3
 10
781.793183
 20
1037.198086
 11
779.889876
 21
1037.906131
  0
LINE
  8
CSLAYER1
  6
CONTINUOUS
 62
     3
 10
779.889876
 20
1037.906131
 11
777.866524
 21
1038.531059
  0
LINE
  8
CSLAYER1
  6
CONTINUOUS
 62
     3
 10
777.866524
 20
1038.531059
 11
775.738526
 21
1039.068115
  0
LINE
  8
CSLAYER1
  6
CONTINUOUS
 62
     3
 10
775.738526
 20
1039.068115
 11
773.522078
 21
1039.513210
  0
LINE
  8
CSLAYER1
  6
CONTINUOUS
 62
     3
 10
773.522078
 20
1039.513210
 11
771.234048
 21
1039.862958
  0
LINE
  8
CSLAYER1
  6
CONTINUOUS
 62
     3
 10
771.234048
 20
1039.862958
 11
768.891849
 21
1040.114697
  0
LINE
  8
CSLAYER1
  6
CONTINUOUS
 62
     3
 10
768.891849
 20
1040.114697
 11
766.513307
 21
1040.266511
  0
LINE
  8
CSLAYER1
  6
CONTINUOUS
 62
     3
 10
766.513307
 20
1040.266511
 11
764.116524
 21
1040.317244
  0
LINE
  8
CSLAYER1
  6
CONTINUOUS
 62
     3
 10
764.116524
 20
1040.317244
 11
761.719741
 21
1040.266511
  0
LINE
  8
CSLAYER1
  6
CONTINUOUS
 62
     3
 10
761.719741
 20
1040.266511
 11
759.341199
 21
1040.114697
  0
LINE
  8
CSLAYER1
  6
CONTINUOUS
 62
     3
 10
759.341199
 20
1040.114697
 11
756.999000
 21
1039.862958
  0
LINE
  8
CSLAYER1
  6
CONTINUOUS
 62
     3
 10
756.999000
 20
1039.862958
 11
754.710970
 21
1039.513210
  0
LINE
  8
CSLAYER1
  6
CONTINUOUS
 62
     3
 10
754.710970
 20
1039.513210
 11
752.494522
 21
1039.068115
  0
LINE
  8
CSLAYER1
  6
CONTINUOUS
 62
     3
 10
752.494522
 20
1039.068115
 11
750.366524
 21
1038.531059
  0
LINE
  8
CSLAYER1
  6
CONTINUOUS
 62
     3
 10
750.366524
 20
1038.531059
 11
748.343172
 21
1037.906131
  0
LINE
  8
CSLAYER1
  6
CONTINUOUS
 62
     3
 10
748.343172
 20
1037.906131
 11
746.439865
 21
1037.198086
  0
LINE
  8
CSLAYER1
  6
CONTINUOUS
 62
     3
 10
746.439865
 20
1037.198086
 11
744.671088
 21
1036.412314
  0
LINE
  8
CSLAYER1
  6
CONTINUOUS
 62
     3
 10
744.671088
 20
1036.412314
 11
743.050302
 21
1035.554794
  0
LINE
  8
CSLAYER1
  6
CONTINUOUS
 62
     3
 10
743.050302
 20
1035.554794
 11
741.589843
 21
1034.632052
  0
LINE
  8
CSLAYER1
  6
CONTINUOUS
 62
     3
 10
741.589843
 20
1034.632052
 11
740.300825
 21
1033.651112
  0
LINE
  8
CSLAYER1
  6
CONTINUOUS
 62
     3
 10
740.300825
 20
1033.651112
 11
739.193060
 21
1032.619438
  0
LINE
  8
CSLAYER1
  6
CONTINUOUS
 62
     3
 10
739.193060
 20
1032.619438
 11
738.274977
 21
1031.544882
  0
LINE
  8
CSLAYER1
  6
CONTINUOUS
 62
     3
 10
738.274977
 20
1031.544882
 11
737.553564
 21
1030.435623
  0
LINE
  8
CSLAYER1
  6
CONTINUOUS
 62
     3
 10
737.553564
 20
1030.435623
 11
737.034311
 21
1029.300103
  0
LINE
  8
CSLAYER1
  6
CONTINUOUS
 62
     3
 10
737.034311
 20
1029.300103
 11
736.721170
 21
1028.146963
  0
LINE
  8
CSLAYER1
  6
CONTINUOUS
 62
     3
 10
736.721170
 20
1028.146963
 11
736.616524
 21
1026.984979
  0
LINE
  8
CSLAYER1
  6
CONTINUOUS
 62
     3
 10
736.616524
 20
1026.984979
 11
736.616524
 21
996.396083
  0
LINE
  8
CSLAYER1
  6
CONTINUOUS
 62
     3
 10
788.416524
 20
902.083204
 11
788.416524
 21
996.396083
  0
LINE
  8
CSLAYER1
  6
CONTINUOUS
 62
     3
 10
791.616524
 20
996.396083
 11
791.511878
 21
997.558067
  0
LINE
  8
CSLAYER1
  6
CONTINUOUS
 62
     3
 10
791.511878
 20
997.558067
 11
791.198737
 21
998.711207
  0
LINE
  8
CSLAYER1
  6
CONTINUOUS
 62
     3
 10
791.198737
 20
998.711207
 11
790.679484
 21
999.846727
  0
LINE
  8
CSLAYER1
  6
CONTINUOUS
 62
     3
 10
790.679484
 20
999.846727
 11
789.958071
 21
1000.955986
  0
LINE
  8
CSLAYER1
  6
CONTINUOUS
 62
     3
 10
789.958071
 20
1000.955986
 11
789.039988
 21
1002.030542
  0
LINE
  8
CSLAYER1
  6
CONTINUOUS
 62
     3
 10
789.039988
 20
1002.030542
 11
787.932223
 21
1003.062216
  0
LINE
  8
CSLAYER1
  6
CONTINUOUS
 62
     3
 10
787.932223
 20
1003.062216
 11
786.643205
 21
1004.043156
  0
LINE
  8
CSLAYER1
  6
CONTINUOUS
 62
     3
 10
786.643205
 20
1004.043156
 11
785.182746
 21
1004.965898
  0
LINE
  8
CSLAYER1
  6
CONTINUOUS
 62
     3
 10
785.182746
 20
1004.965898
 11
783.561961
 21
1005.823418
  0
LINE
  8
CSLAYER1
  6
CONTINUOUS
 62
     3
 10
783.561961
 20
1005.823418
 11
781.793183
 21
1006.609191
  0
LINE
  8
CSLAYER1
  6
CONTINUOUS
 62
     3
 10
781.793183
 20
1006.609191
 11
779.889876
 21
1007.317235
  0
LINE
  8
CSLAYER1
  6
CONTINUOUS
 62
     3
 10
779.889876
 20
1007.317235
 11
777.866524
 21
1007.942163
  0
LINE
  8
CSLAYER1
  6
CONTINUOUS
 62
     3
 10
777.866524
 20
1007.942163
 11
775.738526
 21
1008.479219
  0
LINE
  8
CSLAYER1
  6
CONTINUOUS
 62
     3
 10
775.738526
 20
1008.479219
 11
773.522078
 21
1008.924314
  0
LINE
  8
CSLAYER1
  6
CONTINUOUS
 62
     3
 10
773.522078
 20
1008.924314
 11
771.234048
 21
1009.274062
  0
LINE
  8
CSLAYER1
  6
CONTINUOUS
 62
     3
 10
771.234048
 20
1009.274062
 11
768.891849
 21
1009.525801
  0
LINE
  8
CSLAYER1
  6
CONTINUOUS
 62
     3
 10
768.891849
 20
1009.525801
 11
766.513307
 21
1009.677615
  0
LINE
  8
CSLAYER1
  6
CONTINUOUS
 62
     3
 10
766.513307
 20
1009.677615
 11
764.116524
 21
1009.728348
  0
LINE
  8
CSLAYER1
  6
CONTINUOUS
 62
     3
 10
764.116524
 20
1009.728348
 11
761.719741
 21
1009.677615
  0
LINE
  8
CSLAYER1
  6
CONTINUOUS
 62
     3
 10
761.719741
 20
1009.677615
 11
759.341199
 21
1009.525801
  0
LINE
  8
CSLAYER1
  6
CONTINUOUS
 62
     3
 10
759.341199
 20
1009.525801
 11
756.999000
 21
1009.274062
  0
LINE
  8
CSLAYER1
  6
CONTINUOUS
 62
     3
 10
756.999000
 20
1009.274062
 11
754.710970
 21
1008.924314
  0
LINE
  8
CSLAYER1
  6
CONTINUOUS
 62
     3
 10
754.710970
 20
1008.924314
 11
752.494522
 21
1008.479219
  0
LINE
  8
CSLAYER1
  6
CONTINUOUS
 62
     3
 10
752.494522
 20
1008.479219
 11
750.366524
 21
1007.942163
  0
LINE
  8
CSLAYER1
  6
CONTINUOUS
 62
     3
 10
750.366524
 20
1007.942163
 11
748.343172
 21
1007.317235
  0
LINE
  8
CSLAYER1
  6
CONTINUOUS
 62
     3
 10
748.343172
 20
1007.317235
 11
746.439865
 21
1006.609191
  0
LINE
  8
CSLAYER1
  6
CONTINUOUS
 62
     3
 10
746.439865
 20
1006.609191
 11
744.671088
 21
1005.823418
  0
LINE
  8
CSLAYER1
  6
CONTINUOUS
 62
     3
 10
744.671088
 20
1005.823418
 11
743.050302
 21
1004.965898
  0
LINE
  8
CSLAYER1
  6
CONTINUOUS
 62
     3
 10
743.050302
 20
1004.965898
 11
741.589843
 21
1004.043156
  0
LINE
  8
CSLAYER1
  6
CONTINUOUS
 62
     3
 10
741.589843
 20
1004.043156
 11
740.300825
 21
1003.062216
  0
LINE
  8
CSLAYER1
  6
CONTINUOUS
 62
     3
 10
740.300825
 20
1003.062216
 11
739.193060
 21
1002.030542
  0
LINE
  8
CSLAYER1
  6
CONTINUOUS
 62
     3
 10
739.193060
 20
1002.030542
 11
738.274977
 21
1000.955986
  0
LINE
  8
CSLAYER1
  6
CONTINUOUS
 62
     3
 10
738.274977
 20
1000.955986
 11
737.553564
 21
999.846727
  0
LINE
  8
CSLAYER1
  6
CONTINUOUS
 62
     3
 10
737.553564
 20
999.846727
 11
737.034311
 21
998.711207
  0
LINE
  8
CSLAYER1
  6
CONTINUOUS
 62
     3
 10
737.034311
 20
998.711207
 11
736.721170
 21
997.558067
  0
LINE
  8
CSLAYER1
  6
CONTINUOUS
 62
     3
 10
736.721170
 20
997.558067
 11
736.616524
 21
996.396083
  0
LINE
  8
CSLAYER1
  6
CONTINUOUS
 62
     3
 10
736.616524
 20
996.396083
 11
736.721170
 21
995.234100
  0
LINE
  8
CSLAYER1
  6
CONTINUOUS
 62
     3
 10
736.721170
 20
995.234100
 11
737.034311
 21
994.080960
  0
LINE
  8
CSLAYER1
  6
CONTINUOUS
 62
     3
 10
737.034311
 20
994.080960
 11
737.553564
 21
992.945439
  0
LINE
  8
CSLAYER1
  6
CONTINUOUS
 62
     3
 10
737.553564
 20
992.945439
 11
738.274977
 21
991.836180
  0
LINE
  8
CSLAYER1
  6
CONTINUOUS
 62
     3
 10
738.274977
 20
991.836180
 11
739.193060
 21
990.761625
  0
LINE
  8
CSLAYER1
  6
CONTINUOUS
 62
     3
 10
739.193060
 20
990.761625
 11
739.816524
 21
990.180986
  0
LINE
  8
CSLAYER1
  6
CONTINUOUS
 62
     3
 10
788.416524
 20
990.180986
 11
789.039988
 21
990.761625
  0
LINE
  8
CSLAYER1
  6
CONTINUOUS
 62
     3
 10
789.039988
 20
990.761625
 11
789.958071
 21
991.836180
  0
LINE
  8
CSLAYER1
  6
CONTINUOUS
 62
     3
 10
789.958071
 20
991.836180
 11
790.679484
 21
992.945439
  0
LINE
  8
CSLAYER1
  6
CONTINUOUS
 62
     3
 10
790.679484
 20
992.945439
 11
791.198737
 21
994.080960
  0
LINE
  8
CSLAYER1
  6
CONTINUOUS
 62
     3
 10
791.198737
 20
994.080960
 11
791.511878
 21
995.234100
  0
LINE
  8
CSLAYER1
  6
CONTINUOUS
 62
     3
 10
791.511878
 20
995.234100
 11
791.616524
 21
996.396083
  0
LINE
  8
CSLAYER1
  6
CONTINUOUS
 62
     3
 10
788.416524
 20
996.396083
 11
788.324055
 21
997.422854
  0
LINE
  8
CSLAYER1
  6
CONTINUOUS
 62
     3
 10
788.324055
 20
997.422854
 11
788.047352
 21
998.441811
  0
LINE
  8
CSLAYER1
  6
CONTINUOUS
 62
     3
 10
788.047352
 20
998.441811
 11
787.588522
 21
999.445198
  0
LINE
  8
CSLAYER1
  6
CONTINUOUS
 62
     3
 10
787.588522
 20
999.445198
 11
786.951055
 21
1000.425380
  0
LINE
  8
CSLAYER1
  6
CONTINUOUS
 62
     3
 10
786.951055
 20
1000.425380
 11
786.139803
 21
1001.374896
  0
LINE
  8
CSLAYER1
  6
CONTINUOUS
 62
     3
 10
786.139803
 20
1001.374896
 11
785.160941
 21
1002.286520
  0
LINE
  8
CSLAYER1
  6
CONTINUOUS
 62
     3
 10
785.160941
 20
1002.286520
 11
784.021919
 21
1003.153315
  0
LINE
  8
CSLAYER1
  6
CONTINUOUS
 62
     3
 10
784.021919
 20
1003.153315
 11
782.731404
 21
1003.968683
  0
LINE
  8
CSLAYER1
  6
CONTINUOUS
 62
     3
 10
782.731404
 20
1003.968683
 11
781.299219
 21
1004.726419
  0
LINE
  8
CSLAYER1
  6
CONTINUOUS
 62
     3
 10
781.299219
 20
1004.726419
 11
779.736263
 21
1005.420756
  0
LINE
  8
CSLAYER1
  6
CONTINUOUS
 62
     3
 10
779.736263
 20
1005.420756
 11
778.054431
 21
1006.046410
  0
LINE
  8
CSLAYER1
  6
CONTINUOUS
 62
     3
 10
778.054431
 20
1006.046410
 11
776.266524
 21
1006.598619
  0
LINE
  8
CSLAYER1
  6
CONTINUOUS
 62
     3
 10
776.266524
 20
1006.598619
 11
774.386148
 21
1007.073181
  0
LINE
  8
CSLAYER1
  6
CONTINUOUS
 62
     3
 10
774.386148
 20
1007.073181
 11
772.427614
 21
1007.466484
  0
LINE
  8
CSLAYER1
  6
CONTINUOUS
 62
     3
 10
772.427614
 20
1007.466484
 11
770.405827
 21
1007.775534
  0
LINE
  8
CSLAYER1
  6
CONTINUOUS
 62
     3
 10
770.405827
 20
1007.775534
 11
768.336175
 21
1007.997979
  0
LINE
  8
CSLAYER1
  6
CONTINUOUS
 62
     3
 10
768.336175
 20
1007.997979
 11
766.234409
 21
1008.132127
  0
LINE
  8
CSLAYER1
  6
CONTINUOUS
 62
     3
 10
766.234409
 20
1008.132127
 11
764.116524
 21
1008.176957
  0
LINE
  8
CSLAYER1
  6
CONTINUOUS
 62
     3
 10
764.116524
 20
1008.176957
 11
761.998639
 21
1008.132127
  0
LINE
  8
CSLAYER1
  6
CONTINUOUS
 62
     3
 10
761.998639
 20
1008.132127
 11
759.896873
 21
1007.997979
  0
LINE
  8
CSLAYER1
  6
CONTINUOUS
 62
     3
 10
759.896873
 20
1007.997979
 11
757.827221
 21
1007.775534
  0
LINE
  8
CSLAYER1
  6
CONTINUOUS
 62
     3
 10
757.827221
 20
1007.775534
 11
755.805435
 21
1007.466484
  0
LINE
  8
CSLAYER1
  6
CONTINUOUS
 62
     3
 10
755.805435
 20
1007.466484
 11
753.846900
 21
1007.073181
  0
LINE
  8
CSLAYER1
  6
CONTINUOUS
 62
     3
 10
753.846900
 20
1007.073181
 11
751.966524
 21
1006.598619
  0
LINE
  8
CSLAYER1
  6
CONTINUOUS
 62
     3
 10
751.966524
 20
1006.598619
 11
750.178617
 21
1006.046410
  0
LINE
  8
CSLAYER1
  6
CONTINUOUS
 62
     3
 10
750.178617
 20
1006.046410
 11
748.496785
 21
1005.420756
  0
LINE
  8
CSLAYER1
  6
CONTINUOUS
 62
     3
 10
748.496785
 20
1005.420756
 11
746.933829
 21
1004.726419
  0
LINE
  8
CSLAYER1
  6
CONTINUOUS
 62
     3
 10
746.933829
 20
1004.726419
 11
745.501644
 21
1003.968683
  0
LINE
  8
CSLAYER1
  6
CONTINUOUS
 62
     3
 10
745.501644
 20
1003.968683
 11
744.211129
 21
1003.153315
  0
LINE
  8
CSLAYER1
  6
CONTINUOUS
 62
     3
 10
744.211129
 20
1003.153315
 11
743.072107
 21
1002.286520
  0
LINE
  8
CSLAYER1
  6
CONTINUOUS
 62
     3
 10
743.072107
 20
1002.286520
 11
742.093245
 21
1001.374896
  0
LINE
  8
CSLAYER1
  6
CONTINUOUS
 62
     3
 10
742.093245
 20
1001.374896
 11
741.281993
 21
1000.425380
  0
LINE
  8
CSLAYER1
  6
CONTINUOUS
 62
     3
 10
741.281993
 20
1000.425380
 11
740.644526
 21
999.445198
  0
LINE
  8
CSLAYER1
  6
CONTINUOUS
 62
     3
 10
740.644526
 20
999.445198
 11
740.185696
 21
998.441811
  0
LINE
  8
CSLAYER1
  6
CONTINUOUS
 62
     3
 10
740.185696
 20
998.441811
 11
739.908993
 21
997.422854
  0
LINE
  8
CSLAYER1
  6
CONTINUOUS
 62
     3
 10
739.908993
 20
997.422854
 11
739.816524
 21
996.396083
  0
LINE
  8
CSLAYER1
  6
CONTINUOUS
 62
     3
 10
739.816524
 20
902.083204
 11
739.816524
 21
996.396083
  0
LINE
  8
CSLAYER1
  6
CONTINUOUS
 62
     3
 10
746.116524
 20
1051.391122
 11
746.116524
 21
1155.645703
  0
LINE
  8
CSLAYER1
  6
CONTINUOUS
 62
     3
 10
786.616524
 20
871.494308
 11
786.616524
 21
902.083204
  0
LINE
  8
CSLAYER1
  6
CONTINUOUS
 62
     3
 10
786.616524
 20
902.083204
 11
786.530905
 21
903.033918
  0
LINE
  8
CSLAYER1
  6
CONTINUOUS
 62
     3
 10
786.530905
 20
903.033918
 11
786.274698
 21
903.977396
  0
LINE
  8
CSLAYER1
  6
CONTINUOUS
 62
     3
 10
786.274698
 20
903.977396
 11
785.849855
 21
904.906458
  0
LINE
  8
CSLAYER1
  6
CONTINUOUS
 62
     3
 10
785.849855
 20
904.906458
 11
785.259608
 21
905.814034
  0
LINE
  8
CSLAYER1
  6
CONTINUOUS
 62
     3
 10
785.259608
 20
905.814034
 11
784.508449
 21
906.693216
  0
LINE
  8
CSLAYER1
  6
CONTINUOUS
 62
     3
 10
784.508449
 20
906.693216
 11
783.602096
 21
907.537312
  0
LINE
  8
CSLAYER1
  6
CONTINUOUS
 62
     3
 10
783.602096
 20
907.537312
 11
782.547445
 21
908.339900
  0
LINE
  8
CSLAYER1
  6
CONTINUOUS
 62
     3
 10
782.547445
 20
908.339900
 11
781.352524
 21
909.094870
  0
LINE
  8
CSLAYER1
  6
CONTINUOUS
 62
     3
 10
781.352524
 20
909.094870
 11
780.026427
 21
909.796478
  0
LINE
  8
CSLAYER1
  6
CONTINUOUS
 62
     3
 10
780.026427
 20
909.796478
 11
778.579245
 21
910.439383
  0
LINE
  8
CSLAYER1
  6
CONTINUOUS
 62
     3
 10
778.579245
 20
910.439383
 11
777.021994
 21
911.018692
  0
LINE
  8
CSLAYER1
  6
CONTINUOUS
 62
     3
 10
777.021994
 20
911.018692
 11
775.366524
 21
911.529997
  0
LINE
  8
CSLAYER1
  6
CONTINUOUS
 62
     3
 10
775.366524
 20
911.529997
 11
773.625435
 21
911.969406
  0
LINE
  8
CSLAYER1
  6
CONTINUOUS
 62
     3
 10
773.625435
 20
911.969406
 11
771.811977
 21
912.333575
  0
LINE
  8
CSLAYER1
  6
CONTINUOUS
 62
     3
 10
771.811977
 20
912.333575
 11
769.939953
 21
912.619732
  0
LINE
  8
CSLAYER1
  6
CONTINUOUS
 62
     3
 10
769.939953
 20
912.619732
 11
768.023608
 21
912.825700
  0
LINE
  8
CSLAYER1
  6
CONTINUOUS
 62
     3
 10
768.023608
 20
912.825700
 11
766.077528
 21
912.949911
  0
LINE
  8
CSLAYER1
  6
CONTINUOUS
 62
     3
 10
766.077528
 20
912.949911
 11
764.116524
 21
912.991421
  0
LINE
  8
CSLAYER1
  6
CONTINUOUS
 62
     3
 10
764.116524
 20
912.991421
 11
762.155520
 21
912.949911
  0
LINE
  8
CSLAYER1
  6
CONTINUOUS
 62
     3
 10
762.155520
 20
912.949911
 11
760.209440
 21
912.825700
  0
LINE
  8
CSLAYER1
  6
CONTINUOUS
 62
     3
 10
760.209440
 20
912.825700
 11
758.293096
 21
912.619732
  0
LINE
  8
CSLAYER1
  6
CONTINUOUS
 62
     3
 10
758.293096
 20
912.619732
 11
756.421071
 21
912.333575
  0
LINE
  8
CSLAYER1
  6
CONTINUOUS
 62
     3
 10
756.421071
 20
912.333575
 11
754.607613
 21
911.969406
  0
LINE
  8
CSLAYER1
  6
CONTINUOUS
 62
     3
 10
754.607613
 20
911.969406
 11
752.866524
 21
911.529997
  0
LINE
  8
CSLAYER1
  6
CONTINUOUS
 62
     3
 10
752.866524
 20
911.529997
 11
751.211054
 21
911.018692
  0
LINE
  8
CSLAYER1
  6
CONTINUOUS
 62
     3
 10
751.211054
 20
911.018692
 11
749.653803
 21
910.439383
  0
LINE
  8
CSLAYER1
  6
CONTINUOUS
 62
     3
 10
749.653803
 20
910.439383
 11
748.206621
 21
909.796478
  0
LINE
  8
CSLAYER1
  6
CONTINUOUS
 62
     3
 10
748.206621
 20
909.796478
 11
746.880524
 21
909.094870
  0
LINE
  8
CSLAYER1
  6
CONTINUOUS
 62
     3
 10
746.880524
 20
909.094870
 11
745.685603
 21
908.339900
  0
LINE
  8
CSLAYER1
  6
CONTINUOUS
 62
     3
 10
745.685603
 20
908.339900
 11
744.630952
 21
907.537312
  0
LINE
  8
CSLAYER1
  6
CONTINUOUS
 62
     3
 10
744.630952
 20
907.537312
 11
743.724599
 21
906.693216
  0
LINE
  8
CSLAYER1
  6
CONTINUOUS
 62
     3
 10
743.724599
 20
906.693216
 11
742.973440
 21
905.814034
  0
LINE
  8
CSLAYER1
  6
CONTINUOUS
 62
     3
 10
742.973440
 20
905.814034
 11
742.383193
 21
904.906458
  0
LINE
  8
CSLAYER1
  6
CONTINUOUS
 62
     3
 10
742.383193
 20
904.906458
 11
741.958350
 21
903.977396
  0
LINE
  8
CSLAYER1
  6
CONTINUOUS
 62
     3
 10
741.958350
 20
903.977396
 11
741.702143
 21
903.033918
  0
LINE
  8
CSLAYER1
  6
CONTINUOUS
 62
     3
 10
741.702143
 20
903.033918
 11
741.616524
 21
902.083204
  0
LINE
  8
CSLAYER1
  6
CONTINUOUS
 62
     3
 10
788.416524
 20
902.083204
 11
788.324055
 21
903.109975
  0
LINE
  8
CSLAYER1
  6
CONTINUOUS
 62
     3
 10
788.324055
 20
903.109975
 11
788.047352
 21
904.128931
  0
LINE
  8
CSLAYER1
  6
CONTINUOUS
 62
     3
 10
788.047352
 20
904.128931
 11
787.588522
 21
905.132319
  0
LINE
  8
CSLAYER1
  6
CONTINUOUS
 62
     3
 10
787.588522
 20
905.132319
 11
786.951055
 21
906.112500
  0
LINE
  8
CSLAYER1
  6
CONTINUOUS
 62
     3
 10
786.951055
 20
906.112500
 11
786.139803
 21
907.062016
  0
LINE
  8
CSLAYER1
  6
CONTINUOUS
 62
     3
 10
786.139803
 20
907.062016
 11
785.160941
 21
907.973641
  0
LINE
  8
CSLAYER1
  6
CONTINUOUS
 62
     3
 10
785.160941
 20
907.973641
 11
784.021919
 21
908.840436
  0
LINE
  8
CSLAYER1
  6
CONTINUOUS
 62
     3
 10
784.021919
 20
908.840436
 11
782.731404
 21
909.655804
  0
LINE
  8
CSLAYER1
  6
CONTINUOUS
 62
     3
 10
782.731404
 20
909.655804
 11
781.299219
 21
910.413540
  0
LINE
  8
CSLAYER1
  6
CONTINUOUS
 62
     3
 10
781.299219
 20
910.413540
 11
779.736263
 21
911.107877
  0
LINE
  8
CSLAYER1
  6
CONTINUOUS
 62
     3
 10
779.736263
 20
911.107877
 11
778.054431
 21
911.733531
  0
LINE
  8
CSLAYER1
  6
CONTINUOUS
 62
     3
 10
778.054431
 20
911.733531
 11
776.266524
 21
912.285740
  0
LINE
  8
CSLAYER1
  6
CONTINUOUS
 62
     3
 10
776.266524
 20
912.285740
 11
774.386148
 21
912.760302
  0
LINE
  8
CSLAYER1
  6
CONTINUOUS
 62
     3
 10
774.386148
 20
912.760302
 11
772.427614
 21
913.153604
  0
LINE
  8
CSLAYER1
  6
CONTINUOUS
 62
     3
 10
772.427614
 20
913.153604
 11
770.405827
 21
913.462654
  0
LINE
  8
CSLAYER1
  6
CONTINUOUS
 62
     3
 10
770.405827
 20
913.462654
 11
768.336175
 21
913.685100
  0
LINE
  8
CSLAYER1
  6
CONTINUOUS
 62
     3
 10
768.336175
 20
913.685100
 11
766.234409
 21
913.819248
  0
LINE
  8
CSLAYER1
  6
CONTINUOUS
 62
     3
 10
766.234409
 20
913.819248
 11
764.116524
 21
913.864078
  0
LINE
  8
CSLAYER1
  6
CONTINUOUS
 62
     3
 10
764.116524
 20
913.864078
 11
761.998639
 21
913.819248
  0
LINE
  8
CSLAYER1
  6
CONTINUOUS
 62
     3
 10
761.998639
 20
913.819248
 11
759.896873
 21
913.685100
  0
LINE
  8
CSLAYER1
  6
CONTINUOUS
 62
     3
 10
759.896873
 20
913.685100
 11
757.827221
 21
913.462654
  0
LINE
  8
CSLAYER1
  6
CONTINUOUS
 62
     3
 10
757.827221
 20
913.462654
 11
755.805435
 21
913.153604
  0
LINE
  8
CSLAYER1
  6
CONTINUOUS
 62
     3
 10
755.805435
 20
913.153604
 11
753.846900
 21
912.760302
  0
LINE
  8
CSLAYER1
  6
CONTINUOUS
 62
     3
 10
753.846900
 20
912.760302
 11
751.966524
 21
912.285740
  0
LINE
  8
CSLAYER1
  6
CONTINUOUS
 62
     3
 10
751.966524
 20
912.285740
 11
750.178617
 21
911.733531
  0
LINE
  8
CSLAYER1
  6
CONTINUOUS
 62
     3
 10
750.178617
 20
911.733531
 11
748.496785
 21
911.107877
  0
LINE
  8
CSLAYER1
  6
CONTINUOUS
 62
     3
 10
748.496785
 20
911.107877
 11
746.933829
 21
910.413540
  0
LINE
  8
CSLAYER1
  6
CONTINUOUS
 62
     3
 10
746.933829
 20
910.413540
 11
745.501644
 21
909.655804
  0
LINE
  8
CSLAYER1
  6
CONTINUOUS
 62
     3
 10
745.501644
 20
909.655804
 11
744.211129
 21
908.840436
  0
LINE
  8
CSLAYER1
  6
CONTINUOUS
 62
     3
 10
744.211129
 20
908.840436
 11
743.072107
 21
907.973641
  0
LINE
  8
CSLAYER1
  6
CONTINUOUS
 62
     3
 10
743.072107
 20
907.973641
 11
742.093245
 21
907.062016
  0
LINE
  8
CSLAYER1
  6
CONTINUOUS
 62
     3
 10
742.093245
 20
907.062016
 11
741.281993
 21
906.112500
  0
LINE
  8
CSLAYER1
  6
CONTINUOUS
 62
     3
 10
741.281993
 20
906.112500
 11
740.644526
 21
905.132319
  0
LINE
  8
CSLAYER1
  6
CONTINUOUS
 62
     3
 10
740.644526
 20
905.132319
 11
740.185696
 21
904.128931
  0
LINE
  8
CSLAYER1
  6
CONTINUOUS
 62
     3
 10
740.185696
 20
904.128931
 11
739.908993
 21
903.109975
  0
LINE
  8
CSLAYER1
  6
CONTINUOUS
 62
     3
 10
739.908993
 20
903.109975
 11
739.816524
 21
902.083204
  0
LINE
  8
CSLAYER1
  6
CONTINUOUS
 62
     3
 10
739.816524
 20
902.083204
 11
739.908993
 21
901.056433
  0
LINE
  8
CSLAYER1
  6
CONTINUOUS
 62
     3
 10
739.908993
 20
901.056433
 11
740.014284
 21
900.668698
  0
LINE
  8
CSLAYER1
  6
CONTINUOUS
 62
     3
 10
741.116524
 20
898.308337
 11
741.281993
 21
898.053908
  0
LINE
  8
CSLAYER1
  6
CONTINUOUS
 62
     3
 10
741.281993
 20
898.053908
 11
741.616524
 21
897.662362
  0
LINE
  8
CSLAYER1
  6
CONTINUOUS
 62
     3
 10
786.616524
 20
897.662362
 11
786.951055
 21
898.053908
  0
LINE
  8
CSLAYER1
  6
CONTINUOUS
 62
     3
 10
786.951055
 20
898.053908
 11
787.116524
 21
898.308337
  0
LINE
  8
CSLAYER1
  6
CONTINUOUS
 62
     3
 10
788.218764
 20
900.668698
 11
788.324055
 21
901.056433
  0
LINE
  8
CSLAYER1
  6
CONTINUOUS
 62
     3
 10
788.324055
 20
901.056433
 11
788.416524
 21
902.083204
  0
LINE
  8
CSLAYER1
  6
CONTINUOUS
 62
     3
 10
741.616524
 20
871.494308
 11
741.616524
 21
902.083204
  0
LINE
  8
CSLAYER1
  6
CONTINUOUS
 62
     3
 10
786.616524
 20
871.494308
 11
786.530905
 21
872.445022
  0
LINE
  8
CSLAYER1
  6
CONTINUOUS
 62
     3
 10
786.530905
 20
872.445022
 11
786.274698
 21
873.388500
  0
LINE
  8
CSLAYER1
  6
CONTINUOUS
 62
     3
 10
786.274698
 20
873.388500
 11
785.849855
 21
874.317562
  0
LINE
  8
CSLAYER1
  6
CONTINUOUS
 62
     3
 10
785.849855
 20
874.317562
 11
785.259608
 21
875.225138
  0
LINE
  8
CSLAYER1
  6
CONTINUOUS
 62
     3
 10
785.259608
 20
875.225138
 11
784.508449
 21
876.104320
  0
LINE
  8
CSLAYER1
  6
CONTINUOUS
 62
     3
 10
784.508449
 20
876.104320
 11
783.602096
 21
876.948416
  0
LINE
  8
CSLAYER1
  6
CONTINUOUS
 62
     3
 10
783.602096
 20
876.948416
 11
782.547445
 21
877.751004
  0
LINE
  8
CSLAYER1
  6
CONTINUOUS
 62
     3
 10
782.547445
 20
877.751004
 11
781.352524
 21
878.505975
  0
LINE
  8
CSLAYER1
  6
CONTINUOUS
 62
     3
 10
781.352524
 20
878.505975
 11
780.026427
 21
879.207582
  0
LINE
  8
CSLAYER1
  6
CONTINUOUS
 62
     3
 10
780.026427
 20
879.207582
 11
778.579245
 21
879.850487
  0
LINE
  8
CSLAYER1
  6
CONTINUOUS
 62
     3
 10
778.579245
 20
879.850487
 11
777.021994
 21
880.429796
  0
LINE
  8
CSLAYER1
  6
CONTINUOUS
 62
     3
 10
777.021994
 20
880.429796
 11
775.366524
 21
880.941101
  0
LINE
  8
CSLAYER1
  6
CONTINUOUS
 62
     3
 10
775.366524
 20
880.941101
 11
773.625435
 21
881.380510
  0
LINE
  8
CSLAYER1
  6
CONTINUOUS
 62
     3
 10
773.625435
 20
881.380510
 11
771.811977
 21
881.744679
  0
LINE
  8
CSLAYER1
  6
CONTINUOUS
 62
     3
 10
771.811977
 20
881.744679
 11
769.939953
 21
882.030836
  0
LINE
  8
CSLAYER1
  6
CONTINUOUS
 62
     3
 10
769.939953
 20
882.030836
 11
768.023608
 21
882.236804
  0
LINE
  8
CSLAYER1
  6
CONTINUOUS
 62
     3
 10
768.023608
 20
882.236804
 11
766.077528
 21
882.361016
  0
LINE
  8
CSLAYER1
  6
CONTINUOUS
 62
     3
 10
766.077528
 20
882.361016
 11
764.116524
 21
882.402525
  0
LINE
  8
CSLAYER1
  6
CONTINUOUS
 62
     3
 10
764.116524
 20
882.402525
 11
762.155520
 21
882.361016
  0
LINE
  8
CSLAYER1
  6
CONTINUOUS
 62
     3
 10
762.155520
 20
882.361016
 11
760.209440
 21
882.236804
  0
LINE
  8
CSLAYER1
  6
CONTINUOUS
 62
     3
 10
760.209440
 20
882.236804
 11
758.293096
 21
882.030836
  0
LINE
  8
CSLAYER1
  6
CONTINUOUS
 62
     3
 10
758.293096
 20
882.030836
 11
756.421071
 21
881.744679
  0
LINE
  8
CSLAYER1
  6
CONTINUOUS
 62
     3
 10
756.421071
 20
881.744679
 11
754.607613
 21
881.380510
  0
LINE
  8
CSLAYER1
  6
CONTINUOUS
 62
     3
 10
754.607613
 20
881.380510
 11
752.866524
 21
880.941101
  0
LINE
  8
CSLAYER1
  6
CONTINUOUS
 62
     3
 10
752.866524
 20
880.941101
 11
751.211054
 21
880.429796
  0
LINE
  8
CSLAYER1
  6
CONTINUOUS
 62
     3
 10
751.211054
 20
880.429796
 11
749.653803
 21
879.850487
  0
LINE
  8
CSLAYER1
  6
CONTINUOUS
 62
     3
 10
749.653803
 20
879.850487
 11
748.206621
 21
879.207582
  0
LINE
  8
CSLAYER1
  6
CONTINUOUS
 62
     3
 10
748.206621
 20
879.207582
 11
746.880524
 21
878.505975
  0
LINE
  8
CSLAYER1
  6
CONTINUOUS
 62
     3
 10
746.880524
 20
878.505975
 11
745.685603
 21
877.751004
  0
LINE
  8
CSLAYER1
  6
CONTINUOUS
 62
     3
 10
745.685603
 20
877.751004
 11
744.630952
 21
876.948416
  0
LINE
  8
CSLAYER1
  6
CONTINUOUS
 62
     3
 10
744.630952
 20
876.948416
 11
743.724599
 21
876.104320
  0
LINE
  8
CSLAYER1
  6
CONTINUOUS
 62
     3
 10
743.724599
 20
876.104320
 11
742.973440
 21
875.225138
  0
LINE
  8
CSLAYER1
  6
CONTINUOUS
 62
     3
 10
742.973440
 20
875.225138
 11
742.383193
 21
874.317562
  0
LINE
  8
CSLAYER1
  6
CONTINUOUS
 62
     3
 10
742.383193
 20
874.317562
 11
741.958350
 21
873.388500
  0
LINE
  8
CSLAYER1
  6
CONTINUOUS
 62
     3
 10
741.958350
 20
873.388500
 11
741.702143
 21
872.445022
  0
LINE
  8
CSLAYER1
  6
CONTINUOUS
 62
     3
 10
741.702143
 20
872.445022
 11
741.616524
 21
871.494308
  0
LINE
  8
CSLAYER1
  6
CONTINUOUS
 62
     3
 10
741.616524
 20
871.494308
 11
741.702143
 21
870.543594
  0
LINE
  8
CSLAYER1
  6
CONTINUOUS
 62
     3
 10
741.702143
 20
870.543594
 11
741.958350
 21
869.600116
  0
LINE
  8
CSLAYER1
  6
CONTINUOUS
 62
     3
 10
741.958350
 20
869.600116
 11
742.383193
 21
868.671054
  0
LINE
  8
CSLAYER1
  6
CONTINUOUS
 62
     3
 10
742.383193
 20
868.671054
 11
742.973440
 21
867.763478
  0
LINE
  8
CSLAYER1
  6
CONTINUOUS
 62
     3
 10
742.973440
 20
867.763478
 11
743.159845
 21
867.545303
  0
LINE
  8
CSLAYER1
  6
CONTINUOUS
 62
     3
 10
785.073203
 20
867.545303
 11
785.259608
 21
867.763478
  0
LINE
  8
CSLAYER1
  6
CONTINUOUS
 62
     3
 10
785.259608
 20
867.763478
 11
785.849855
 21
868.671054
  0
LINE
  8
CSLAYER1
  6
CONTINUOUS
 62
     3
 10
785.849855
 20
868.671054
 11
786.274698
 21
869.600116
  0
LINE
  8
CSLAYER1
  6
CONTINUOUS
 62
     3
 10
786.274698
 20
869.600116
 11
786.530905
 21
870.543594
  0
LINE
  8
CSLAYER1
  6
CONTINUOUS
 62
     3
 10
786.530905
 20
870.543594
 11
786.616524
 21
871.494308
  0
LINE
  8
CSLAYER1
  6
CENTER
 62
     5
 10
724.116524
 20
838.553940
 11
724.116524
 21
980.645929
  0
LINE
  8
CSLAYER1
  6
CONTINUOUS
 62
     3
 10
731.116524
 20
993.309736
 11
717.116524
 21
993.309736
  0
LINE
  8
CSLAYER1
  6
CONTINUOUS
 62
     3
 10
731.116524
 20
985.509736
 11
717.116524
 21
985.509736
  0
LINE
  8
CSLAYER1
  6
CONTINUOUS
 62
     3
 10
730.548456
 20
980.309736
 11
717.684592
 21
980.309736
  0
LINE
  8
CSLAYER1
  6
CONTINUOUS
 62
     3
 10
730.116524
 20
978.309736
 11
718.116524
 21
978.309736
  0
LINE
  8
CSLAYER1
  6
CONTINUOUS
 62
     3
 10
730.116524
 20
971.309736
 11
718.116524
 21
971.309736
  0
LINE
  8
CSLAYER1
  6
CONTINUOUS
 62
     3
 10
728.999550
 20
946.309736
 11
719.233498
 21
946.309736
  0
LINE
  8
CSLAYER1
  6
CONTINUOUS
 62
     3
 10
729.616524
 20
968.309736
 11
729.616524
 21
971.309736
  0
LINE
  8
CSLAYER1
  6
CONTINUOUS
 62
     3
 10
732.199428
 20
986.134951
 11
732.199428
 21
992.684522
  0
LINE
  8
CSLAYER1
  6
CONTINUOUS
 62
     3
 10
728.157976
 20
986.134951
 11
728.157976
 21
992.684522
  0
ARC
  8
CSLAYER1
  6
CONTINUOUS
 62
     3
 10
701.428754
 20
985.551958
 40
29.587800
 50
345.831727
 51
359.918240
  0
ARC
  8
CSLAYER1
  6
CONTINUOUS
 62
     3
 10
746.804294
 20
985.551958
 40
29.587800
 50
180.081760
 51
194.168273
  0
LINE
  8
CSLAYER1
  6
CONTINUOUS
 62
     3
 10
728.463838
 20
978.309736
 11
728.463838
 21
980.309736
  0
LINE
  8
CSLAYER1
  6
CONTINUOUS
 62
     3
 10
726.482073
 20
978.309736
 11
726.482073
 21
980.309736
  0
LINE
  8
CSLAYER1
  6
CONTINUOUS
 62
     3
 10
719.769210
 20
978.309736
 11
719.769210
 21
980.309736
  0
LINE
  8
CSLAYER1
  6
CONTINUOUS
 62
     3
 10
721.750975
 20
978.309736
 11
721.750975
 21
980.309736
  0
LINE
  8
CSLAYER1
  6
CONTINUOUS
 62
     3
 10
731.116524
 20
993.309736
 11
732.199428
 21
992.684522
  0
ARC
  8
CSLAYER1
  6
CONTINUOUS
 62
     3
 10
730.178702
 20
989.758107
 40
3.556295
 50
64.625569
 51
124.625569
  0
ARC
  8
CSLAYER1
  6
CONTINUOUS
 62
     3
 10
724.116524
 20
979.934951
 40
13.374785
 50
72.412046
 51
90.000000
  0
LINE
  8
CSLAYER1
  6
CONTINUOUS
 62
     3
 10
731.116524
 20
985.509736
 11
732.199428
 21
986.134951
  0
ARC
  8
CSLAYER1
  6
CONTINUOUS
 62
     3
 10
730.178702
 20
989.061365
 40
3.556295
 50
235.374431
 51
295.374431
  0
ARC
  8
CSLAYER1
  6
CONTINUOUS
 62
     3
 10
724.116524
 20
998.884522
 40
13.374785
 50
270.000000
 51
287.587954
  0
LINE
  8
CSLAYER1
  6
CONTINUOUS
 62
     3
 10
716.033620
 20
986.134951
 11
716.033620
 21
992.684522
  0
LINE
  8
CSLAYER1
  6
CONTINUOUS
 62
     3
 10
720.075072
 20
986.134951
 11
720.075072
 21
992.684522
  0
LINE
  8
CSLAYER1
  6
CONTINUOUS
 62
     3
 10
717.116524
 20
993.309736
 11
716.033620
 21
992.684522
  0
ARC
  8
CSLAYER1
  6
CONTINUOUS
 62
     3
 10
718.054346
 20
989.758107
 40
3.556295
 50
55.374431
 51
115.374431
  0
ARC
  8
CSLAYER1
  6
CONTINUOUS
 62
     3
 10
724.116524
 20
979.934951
 40
13.374785
 50
90.000000
 51
107.587954
  0
LINE
  8
CSLAYER1
  6
CONTINUOUS
 62
     3
 10
717.116524
 20
985.509736
 11
716.033620
 21
986.134951
  0
ARC
  8
CSLAYER1
  6
CONTINUOUS
 62
     3
 10
718.054346
 20
989.061365
 40
3.556295
 50
244.625569
 51
304.625569
  0
ARC
  8
CSLAYER1
  6
CONTINUOUS
 62
     3
 10
724.116524
 20
998.884522
 40
13.374785
 50
252.412046
 51
270.000000
  0
LINE
  8
CSLAYER1
  6
CONTINUOUS
 62
     3
 10
731.044727
 20
971.845635
 11
731.044727
 21
977.573838
  0
LINE
  8
CSLAYER1
  6
CONTINUOUS
 62
     3
 10
727.580626
 20
971.845635
 11
727.580626
 21
977.573838
  0
LINE
  8
CSLAYER1
  6
CONTINUOUS
 62
     3
 10
730.116524
 20
971.309736
 11
731.044727
 21
971.845635
  0
ARC
  8
CSLAYER1
  6
CONTINUOUS
 62
     3
 10
724.116524
 20
982.773838
 40
11.464102
 50
270.000000
 51
287.821405
  0
ARC
  8
CSLAYER1
  6
CONTINUOUS
 62
     3
 10
729.312676
 20
974.375665
 40
3.066114
 50
236.143645
 51
295.804157
  0
LINE
  8
CSLAYER1
  6
CONTINUOUS
 62
     3
 10
730.116524
 20
978.109736
 11
731.044727
 21
977.573838
  0
ARC
  8
CSLAYER1
  6
CONTINUOUS
 62
     3
 10
724.116524
 20
966.645635
 40
11.464102
 50
72.178595
 51
90.000000
  0
ARC
  8
CSLAYER1
  6
CONTINUOUS
 62
     3
 10
729.312676
 20
975.043808
 40
3.066114
 50
64.195843
 51
123.856355
  0
LINE
  8
CSLAYER1
  6
CONTINUOUS
 62
     3
 10
730.116524
 20
978.109736
 11
718.116524
 21
978.109736
  0
LINE
  8
CSLAYER1
  6
CONTINUOUS
 62
     3
 10
727.580626
 20
978.109736
 11
727.580626
 21
978.309736
  0
LINE
  8
CSLAYER1
  6
CONTINUOUS
 62
     3
 10
718.616524
 20
968.309736
 11
718.616524
 21
971.309736
  0
LINE
  8
CSLAYER1
  6
CONTINUOUS
 62
     3
 10
717.188321
 20
971.845635
 11
717.188321
 21
977.573838
  0
LINE
  8
CSLAYER1
  6
CONTINUOUS
 62
     3
 10
720.652422
 20
971.845635
 11
720.652422
 21
977.573838
  0
LINE
  8
CSLAYER1
  6
CONTINUOUS
 62
     3
 10
718.116524
 20
971.309736
 11
717.188321
 21
971.845635
  0
ARC
  8
CSLAYER1
  6
CONTINUOUS
 62
     3
 10
724.116524
 20
982.773838
 40
11.464102
 50
252.178595
 51
270.000000
  0
ARC
  8
CSLAYER1
  6
CONTINUOUS
 62
     3
 10
718.920372
 20
974.375665
 40
3.066114
 50
244.195843
 51
303.856355
  0
LINE
  8
CSLAYER1
  6
CONTINUOUS
 62
     3
 10
718.116524
 20
978.109736
 11
717.188321
 21
977.573838
  0
ARC
  8
CSLAYER1
  6
CONTINUOUS
 62
     3
 10
724.116524
 20
966.645635
 40
11.464102
 50
90.000000
 51
107.821405
  0
ARC
  8
CSLAYER1
  6
CONTINUOUS
 62
     3
 10
718.920372
 20
975.043808
 40
3.066114
 50
56.143645
 51
115.804157
  0
LINE
  8
CSLAYER1
  6
CONTINUOUS
 62
     3
 10
720.652422
 20
978.109736
 11
720.652422
 21
978.309736
  0
LINE
  8
CSLAYER1
  6
CONTINUOUS
 62
     3
 10
731.044727
 20
959.309736
 11
731.044727
 21
967.773838
  0
LINE
  8
CSLAYER1
  6
CONTINUOUS
 62
     3
 10
727.580626
 20
959.309736
 11
727.580626
 21
967.773838
  0
LINE
  8
CSLAYER1
  6
CONTINUOUS
 62
     3
 10
730.116524
 20
968.309736
 11
731.044727
 21
967.773838
  0
ARC
  8
CSLAYER1
  6
CONTINUOUS
 62
     3
 10
724.116524
 20
956.845635
 40
11.464102
 50
72.178595
 51
90.000000
  0
ARC
  8
CSLAYER1
  6
CONTINUOUS
 62
     3
 10
729.312676
 20
965.243808
 40
3.066114
 50
64.195843
 51
123.856355
  0
LINE
  8
CSLAYER1
  6
CONTINUOUS
 62
     3
 10
730.116524
 20
968.309736
 11
718.116524
 21
968.309736
  0
LINE
  8
CSLAYER1
  6
CONTINUOUS
 62
     3
 10
717.188321
 20
959.309736
 11
717.188321
 21
967.773838
  0
LINE
  8
CSLAYER1
  6
CONTINUOUS
 62
     3
 10
720.652422
 20
959.309736
 11
720.652422
 21
967.773838
  0
LINE
  8
CSLAYER1
  6
CONTINUOUS
 62
     3
 10
718.116524
 20
968.309736
 11
717.188321
 21
967.773838
  0
ARC
  8
CSLAYER1
  6
CONTINUOUS
 62
     3
 10
724.116524
 20
956.845635
 40
11.464102
 50
90.000000
 51
107.821405
  0
ARC
  8
CSLAYER1
  6
CONTINUOUS
 62
     3
 10
718.920372
 20
965.243808
 40
3.066114
 50
56.143645
 51
115.804157
  0
LINE
  8
CSLAYER1
  6
CONTINUOUS
 62
     3
 10
729.995805
 20
947.223277
 11
731.044727
 21
959.309736
  0
ARC
  8
CSLAYER1
  6
CONTINUOUS
 62
     3
 10
708.939036
 20
959.309736
 40
18.641590
 50
330.443788
 51
360.000000
  0
ARC
  8
CSLAYER1
  6
CONTINUOUS
 62
     3
 10
724.116524
 20
950.749590
 40
1.217263
 50
270.000000
 51
329.421532
  0
ARC
  8
CSLAYER1
  6
CONTINUOUS
 62
     3
 10
746.222216
 20
959.309736
 40
18.641590
 50
180.000000
 51
209.556212
  0
ARC
  8
CSLAYER1
  6
CONTINUOUS
 62
     3
 10
731.044727
 20
950.749590
 40
1.217263
 50
210.578468
 51
227.594217
  0
ARC
  8
CSLAYER1
  6
CONTINUOUS
 62
     3
 10
728.999550
 20
947.309736
 40
1.000000
 50
270.000000
 51
355.040021
  0
LINE
  8
CSLAYER1
  6
CONTINUOUS
 62
     3
 10
718.237243
 20
947.223277
 11
717.188321
 21
959.309736
  0
ARC
  8
CSLAYER1
  6
CONTINUOUS
 62
     3
 10
739.294012
 20
959.309736
 40
18.641590
 50
180.000000
 51
209.556212
  0
ARC
  8
CSLAYER1
  6
CONTINUOUS
 62
     3
 10
724.116524
 20
950.749590
 40
1.217263
 50
210.578468
 51
270.000000
  0
ARC
  8
CSLAYER1
  6
CONTINUOUS
 62
     3
 10
702.010832
 20
959.309736
 40
18.641590
 50
330.443788
 51
360.000000
  0
ARC
  8
CSLAYER1
  6
CONTINUOUS
 62
     3
 10
717.188321
 20
950.749590
 40
1.217263
 50
312.405783
 51
329.421532
  0
ARC
  8
CSLAYER1
  6
CONTINUOUS
 62
     3
 10
719.233498
 20
947.309736
 40
1.000000
 50
184.959979
 51
270.000000
  0
LINE
  8
CSLAYER1
  6
CONTINUOUS
 62
     3
 10
728.999550
 20
1013.009736
 11
719.233498
 21
1013.009736
  0
LINE
  8
CSLAYER1
  6
CENTER
 62
     5
 10
736.616524
 20
1006.009736
 11
731.116524
 21
1006.009736
  0
LINE
  8
CSLAYER1
  6
CONTINUOUS
 62
     3
 10
717.116524
 20
999.009736
 11
717.116524
 21
1011.509736
  0
LINE
  8
CSLAYER1
  6
CONTINUOUS
 62
     3
 10
731.116524
 20
1013.009736
 11
718.616524
 21
1013.009736
  0
LINE
  8
CSLAYER1
  6
CONTINUOUS
 62
     3
 10
731.116524
 20
999.009736
 11
717.116524
 21
999.009736
  0
LINE
  8
CSLAYER1
  6
CONTINUOUS
 62
     3
 10
731.116524
 20
999.009736
 11
731.116524
 21
1013.007291
  0
LINE
  8
CSLAYER1
  6
CONTINUOUS
 62
     3
 10
728.716524
 20
993.309736
 11
728.716524
 21
999.009736
  0
LINE
  8
CSLAYER1
  6
CONTINUOUS
 62
     4
 10
728.116524
 20
993.309736
 11
728.116524
 21
997.970506
  0
LINE
  8
CSLAYER1
  6
CONTINUOUS
 62
     4
 10
728.716524
 20
999.009736
 11
728.116524
 21
997.970506
  0
LINE
  8
CSLAYER1
  6
CONTINUOUS
 62
     3
 10
719.516524
 20
993.309736
 11
719.516524
 21
999.009736
  0
LINE
  8
CSLAYER1
  6
CONTINUOUS
 62
     4
 10
719.516524
 20
999.009736
 11
720.116524
 21
997.970506
  0
LINE
  8
CSLAYER1
  6
CONTINUOUS
 62
     4
 10
728.716524
 20
997.970506
 11
719.516524
 21
997.970506
  0
LINE
  8
CSLAYER1
  6
CONTINUOUS
 62
     3
 10
736.616524
 20
1001.157951
 11
731.116524
 21
1001.059736
  0
LINE
  8
CSLAYER1
  6
CONTINUOUS
 62
     4
 10
736.616524
 20
1001.858062
 11
731.104026
 21
1001.759625
  0
LINE
  8
CSLAYER1
  6
CONTINUOUS
 62
     3
 10
736.616524
 20
1010.861522
 11
731.116524
 21
1010.959736
  0
LINE
  8
CSLAYER1
  6
CONTINUOUS
 62
     4
 10
736.616524
 20
1010.161411
 11
731.104026
 21
1010.259848
  0
ARC
  8
CSLAYER1
  6
CONTINUOUS
 62
     3
 10
718.616524
 20
1011.509736
 40
1.500000
 50
90.000000
 51
180.000000
  0
LINE
  8
CSLAYER1
  6
CONTINUOUS
 62
     3
 10
742.616524
 20
1153.710823
 11
746.116524
 21
1153.710823
  0
LINE
  8
CSLAYER1
  6
CONTINUOUS
 62
     3
 10
741.616524
 20
1154.710823
 11
742.616524
 21
1153.710823
  0
LINE
  8
CSLAYER1
  6
CONTINUOUS
 62
     3
 10
785.616524
 20
1153.710823
 11
786.616524
 21
1154.710823
  0
LINE
  8
CSLAYER1
  6
CONTINUOUS
 62
     3
 10
787.616524
 20
1159.310823
 11
786.616524
 21
1159.310823
  0
LINE
  8
CSLAYER1
  6
CONTINUOUS
 62
     3
 10
741.616524
 20
1159.310823
 11
740.616524
 21
1159.310823
  0
LINE
  8
CSLAYER1
  6
CONTINUOUS
 62
     3
 10
782.116524
 20
1153.710823
 11
785.616524
 21
1153.710823
  0
LINE
  8
CSLAYER1
  6
CONTINUOUS
 62
     3
 10
719.966524
 20
839.475686
 11
719.966524
 21
946.309736
  0
LINE
  8
CSLAYER1
  6
CONTINUOUS
 62
     3
 10
728.266524
 20
839.475686
 11
728.266524
 21
946.309736
  0
LINE
  8
CSLAYER1
  6
CONTINUOUS
 62
     4
 10
720.116524
 20
993.309736
 11
720.116524
 21
997.970506
  0
ENDBLK
  8
0
  0
BLOCK
  8
CSLAYER1
  2
BLKF0011
 70
   64
 10
0.0
 20
0.0
 30
0.0
  0
LINE
  8
CSLAYER1
  6
CENTER
 62
     6
 10
1364.025350
 20
1855.914139
 11
1364.025350
 21
1833.388536
  0
LINE
  8
CSLAYER1
  6
CENTER
 62
     6
 10
1352.762549
 20
1844.651337
 11
1375.288152
 21
1844.651337
  0
ENDBLK
  8
0
  0
BLOCK
  8
CSLAYER1
  2
BLKF0012
 70
   64
 10
0.0
 20
0.0
 30
0.0
  0
LINE
  8
CSLAYER1
  6
CENTER
 62
     6
 10
1364.025350
 20
2083.388536
 11
1364.025350
 21
2105.914139
  0
LINE
  8
CSLAYER1
  6
CENTER
 62
     6
 10
1352.762549
 20
2094.651337
 11
1375.288152
 21
2094.651337
  0
ENDBLK
  8
0
  0
BLOCK
  8
CSLAYER1
  2
BLKF0013
 70
   64
 10
0.0
 20
0.0
 30
0.0
  0
LINE
  8
CSLAYER1
  6
CONTINUOUS
 62
     3
 10
687.116524
 20
1366.269702
 11
687.116524
 21
1381.039357
  0
LINE
  8
CSLAYER1
  6
CONTINUOUS
 62
     3
 10
690.116524
 20
1366.489357
 11
687.116524
 21
1366.489357
  0
LINE
  8
CSLAYER1
  6
CONTINUOUS
 62
     3
 10
690.116524
 20
1375.727160
 11
687.116524
 21
1379.227160
  0
LINE
  8
CSLAYER1
  6
CONTINUOUS
 62
     3
 10
679.116524
 20
1377.239357
 11
679.116524
 21
1381.039357
  0
ARC
  8
CSLAYER1
  6
CONTINUOUS
 62
     3
 10
692.912268
 20
1377.239357
 40
13.795744
 50
164.011330
 51
180.000000
  0
LINE
  8
CSLAYER1
  6
CONTINUOUS
 62
     3
 10
679.116524
 20
1377.239357
 11
679.116524
 21
1368.239357
  0
LINE
  8
CSLAYER1
  6
CONTINUOUS
 62
     3
 10
687.116524
 20
1371.754529
 11
680.253705
 21
1371.754529
  0
LINE
  8
CSLAYER1
  6
CONTINUOUS
 62
     3
 10
687.116524
 20
1366.269702
 11
680.253705
 21
1366.269702
  0
LINE
  8
CSLAYER1
  6
CONTINUOUS
 62
     3
 10
679.116524
 20
1368.239357
 11
680.253705
 21
1366.269702
  0
ARC
  8
CSLAYER1
  6
CONTINUOUS
 62
     3
 10
682.896568
 20
1369.012116
 40
3.808617
 50
133.940972
 51
174.338367
  0
ARC
  8
CSLAYER1
  6
CONTINUOUS
 62
     3
 10
692.912268
 20
1377.239357
 40
13.795744
 50
180.000000
 51
203.426598
  0
ENDBLK
  8
0
  0
BLOCK
  8
CSLAYER1
  2
BLKF0014
 70
   64
 10
0.0
 20
0.0
 30
0.0
  0
LINE
  8
CSLAYER1
  6
CONTINUOUS
 62
     3
 10
2161.570309
 20
1411.039357
 11
2161.570309
 21
1381.039357
  0
LINE
  8
CSLAYER1
  6
CONTINUOUS
 62
     3
 10
2159.270309
 20
1378.739357
 11
2159.270309
 21
1381.039357
  0
POINT
  8
CSLAYER1
 62
     3
 10
1383.870309
 20
1377.239357
  0
POINT
  8
CSLAYER1
 62
     3
 10
1383.870309
 20
1377.239357
  0
LINE
  8
CSLAYER1
  6
CONTINUOUS
 62
     3
 10
1361.570309
 20
1411.039357
 11
1361.570309
 21
1381.039357
  0
LINE
  8
CSLAYER1
  6
CONTINUOUS
 62
     3
 10
1413.870309
 20
1378.739357
 11
2043.870309
 21
1378.739357
  0
LINE
  8
CSLAYER1
  6
CONTINUOUS
 62
     3
 10
1361.570309
 20
1411.039357
 11
2161.570309
 21
1411.039357
  0
LINE
  8
CSLAYER1
  6
CONTINUOUS
 62
     3
 10
1363.870309
 20
1381.039357
 11
1363.870309
 21
1371.739357
  0
LINE
  8
CSLAYER1
  6
CONTINUOUS
 62
     3
 10
1361.570309
 20
1381.039357
 11
1363.870309
 21
1381.039357
  0
LINE
  8
CSLAYER1
  6
CONTINUOUS
 62
     3
 10
1368.870309
 20
1366.739357
 11
1388.870309
 21
1366.739357
  0
ARC
  8
CSLAYER1
  6
CONTINUOUS
 62
     3
 10
1368.870309
 20
1371.739357
 40
5.000000
 50
180.000000
 51
270.000000
  0
LINE
  8
CSLAYER1
  6
CONTINUOUS
 62
     3
 10
1413.870309
 20
1375.739357
 11
1388.870309
 21
1366.739357
  0
LINE
  8
CSLAYER1
  6
CONTINUOUS
 62
     3
 10
1413.870309
 20
1381.039357
 11
1413.870309
 21
1375.739357
  0
LINE
  8
CSLAYER1
  6
CENTER
 62
     5
 10
1373.111940
 20
1377.239357
 11
1395.202441
 21
1377.239357
  0
LINE
  8
CSLAYER1
  6
CENTER
 62
     5
 10
1383.870309
 20
1366.739357
 11
1383.870309
 21
1381.039357
  0
LINE
  8
CSLAYER1
  6
CONTINUOUS
 62
     3
 10
1413.870309
 20
1378.739357
 11
2159.270309
 21
1378.739357
  0
LINE
  8
CSLAYER1
  6
CONTINUOUS
 62
     3
 10
1361.570309
 20
1381.039357
 11
2161.570309
 21
1381.039357
  0
ENDBLK
  8
0
  0
BLOCK
  8
CSLAYER1
  2
BLKF0015
 70
   64
 10
0.0
 20
0.0
 30
0.0
  0
LINE
  8
CSLAYER1
  6
PHANTOM
 62
     6
 10
2141.725350
 20
879.475686
 11
2141.725350
 21
849.475686
  0
LINE
  8
CSLAYER1
  6
PHANTOM
 62
     6
 10
2139.425350
 20
847.175686
 11
2139.425350
 21
849.475686
  0
POINT
  8
CSLAYER1
 62
     6
 10
1364.025350
 20
845.675686
  0
POINT
  8
CSLAYER1
 62
     6
 10
1364.025350
 20
845.675686
  0
LINE
  8
CSLAYER1
  6
PHANTOM
 62
     6
 10
1341.725350
 20
879.475686
 11
1341.725350
 21
849.475686
  0
LINE
  8
CSLAYER1
  6
PHANTOM
 62
     6
 10
1394.025350
 20
847.175686
 11
2024.025350
 21
847.175686
  0
LINE
  8
CSLAYER1
  6
PHANTOM
 62
     6
 10
1341.725350
 20
879.475686
 11
2141.725350
 21
879.475686
  0
LINE
  8
CSLAYER1
  6
PHANTOM
 62
     6
 10
1344.025350
 20
849.475686
 11
1344.025350
 21
840.175686
  0
LINE
  8
CSLAYER1
  6
PHANTOM
 62
     6
 10
1341.725350
 20
849.475686
 11
1344.025350
 21
849.475686
  0
LINE
  8
CSLAYER1
  6
PHANTOM
 62
     6
 10
1349.025350
 20
835.175686
 11
1369.025350
 21
835.175686
  0
ARC
  8
CSLAYER1
  6
PHANTOM
 62
     6
 10
1349.025350
 20
840.175686
 40
5.000000
 50
180.000000
 51
270.000000
  0
LINE
  8
CSLAYER1
  6
PHANTOM
 62
     6
 10
1394.025350
 20
844.175686
 11
1369.025350
 21
835.175686
  0
LINE
  8
CSLAYER1
  6
PHANTOM
 62
     6
 10
1394.025350
 20
849.475686
 11
1394.025350
 21
844.175686
  0
LINE
  8
CSLAYER1
  6
PHANTOM
 62
     6
 10
1353.266982
 20
845.675686
 11
1375.357482
 21
845.675686
  0
LINE
  8
CSLAYER1
  6
PHANTOM
 62
     6
 10
1364.025350
 20
835.175686
 11
1364.025350
 21
849.475686
  0
LINE
  8
CSLAYER1
  6
PHANTOM
 62
     6
 10
1394.025350
 20
847.175686
 11
2139.425350
 21
847.175686
  0
LINE
  8
CSLAYER1
  6
PHANTOM
 62
     6
 10
1341.725350
 20
849.475686
 11
2141.725350
 21
849.475686
  0
ENDBLK
  8
0
  0
BLOCK
  8
CSLAYER1
  2
BLKF0016
 70
   64
 10
0.0
 20
0.0
 30
0.0
  0
ARC
  8
CSLAYER1
  6
CONTINUOUS
 62
     5
 10
2865.366820
 20
128.427756
 40
3.549225
 50
6.429109
 51
73.182034
  0
ARC
  8
CSLAYER1
  6
CONTINUOUS
 62
     5
 10
2861.905850
 20
127.269363
 40
6.907754
 50
310.517970
 51
330.092764
  0
ARC
  8
CSLAYER1
  6
CONTINUOUS
 62
     5
 10
2861.845200
 20
127.634881
 40
7.148321
 50
-32.205059
 51
9.585194
  0
ARC
  8
CSLAYER1
  6
CONTINUOUS
 62
     5
 10
2865.137928
 20
124.873883
 40
4.767514
 50
180.000000
 51
218.514150
  0
ARC
  8
CSLAYER1
  6
CONTINUOUS
 62
     5
 10
2863.851207
 20
124.196742
 40
3.348282
 50
222.781148
 51
319.406906
  0
ARC
  8
CSLAYER1
  6
CONTINUOUS
 62
     5
 10
2866.916849
 20
125.286635
 40
6.559434
 50
94.574282
 51
183.607718
  0
LINE
  8
CSLAYER1
  6
CONTINUOUS
 62
     5
 10
2880.360755
 20
120.169803
 11
2879.503719
 21
117.131220
  0
LINE
  8
CSLAYER1
  6
CONTINUOUS
 62
     5
 10
2882.152740
 20
140.037460
 11
2880.049106
 21
142.764393
  0
LINE
  8
CSLAYER1
  6
CONTINUOUS
 62
     5
 10
2880.049106
 20
142.764393
 11
2873.295751
 21
146.522305
  0
LINE
  8
CSLAYER1
  6
CONTINUOUS
 62
     5
 10
2873.295751
 20
146.522305
 11
2866.393724
 21
147.325176
  0
LINE
  8
CSLAYER1
  6
CONTINUOUS
 62
     5
 10
2848.104499
 20
133.946502
 11
2850.251193
 21
138.910733
  0
LINE
  8
CSLAYER1
  6
CONTINUOUS
 62
     5
 10
2850.214196
 20
138.825176
 11
2852.397887
 21
141.459933
  0
LINE
  8
CSLAYER1
  6
CONTINUOUS
 62
     5
 10
2852.397887
 20
141.459933
 11
2855.702310
 21
143.825176
  0
LINE
  8
CSLAYER1
  6
CONTINUOUS
 62
     5
 10
2866.393724
 20
147.325176
 11
2864.875548
 21
146.558332
  0
LINE
  8
CSLAYER1
  6
CONTINUOUS
 62
     5
 10
2864.875548
 20
146.558332
 11
2861.387170
 21
146.558332
  0
LINE
  8
CSLAYER1
  6
CONTINUOUS
 62
     5
 10
2861.387170
 20
146.558332
 11
2857.831708
 21
144.612890
  0
LINE
  8
CSLAYER1
  6
CONTINUOUS
 62
     5
 10
2857.831708
 20
144.612890
 11
2855.702310
 21
143.825176
  0
LINE
  8
CSLAYER1
  6
CONTINUOUS
 62
     5
 10
2848.104499
 20
133.946502
 11
2846.586952
 21
126.397900
  0
LINE
  8
CSLAYER1
  6
CONTINUOUS
 62
     5
 10
2846.586952
 20
126.397900
 11
2846.393724
 21
123.825176
  0
LINE
  8
CSLAYER1
  6
CONTINUOUS
 62
     5
 10
2849.103107
 20
115.985394
 11
2846.393724
 21
122.081505
  0
LINE
  8
CSLAYER1
  6
CONTINUOUS
 62
     5
 10
2846.393724
 20
122.081505
 11
2846.393724
 21
123.825176
  0
LINE
  8
CSLAYER1
  6
CONTINUOUS
 62
     5
 10
2879.503719
 20
117.131220
 11
2877.817932
 21
114.128213
  0
LINE
  8
CSLAYER1
  6
CONTINUOUS
 62
     5
 10
2877.817932
 20
114.128213
 11
2876.393724
 21
112.809502
  0
ARC
  8
CSLAYER1
  6
CONTINUOUS
 62
     5
 10
2864.201779
 20
124.361937
 40
17.266626
 50
208.054813
 51
260.640470
  0
ARC
  8
CSLAYER1
  6
CONTINUOUS
 62
     5
 10
2859.008384
 20
137.104406
 40
29.874611
 50
274.579659
 51
305.587364
  0
ARC
  8
CSLAYER1
  6
CONTINUOUS
 62
     5
 10
2869.980733
 20
131.120684
 40
15.088627
 50
313.467013
 51
331.085078
  0
LINE
  8
CSLAYER1
  6
CONTINUOUS
 62
     5
 10
2884.772065
 20
127.338597
 11
2885.069360
 21
131.120684
  0
LINE
  8
CSLAYER1
  6
CONTINUOUS
 62
     5
 10
2885.069360
 20
131.120684
 11
2883.777362
 21
137.229667
  0
LINE
  8
CSLAYER1
  6
CONTINUOUS
 62
     5
 10
2884.772065
 20
127.338597
 11
2883.188391
 21
123.825176
  0
ARC
  8
CSLAYER1
  6
CONTINUOUS
 62
     5
 10
2869.980733
 20
131.120684
 40
15.088627
 50
23.883193
 51
36.225170
  0
LINE
  8
CSLAYER1
  6
CONTINUOUS
 62
     5
 10
2830.393724
 20
158.825176
 11
2831.393724
 21
159.917820
  0
LINE
  8
CSLAYER1
  6
CONTINUOUS
 62
     5
 10
2830.393724
 20
158.825176
 11
2831.970682
 21
157.380143
  0
LINE
  8
CSLAYER1
  6
CONTINUOUS
 62
     5
 10
2833.509895
 20
155.270851
 11
2833.536163
 21
153.102732
  0
LINE
  8
CSLAYER1
  6
CONTINUOUS
 62
     5
 10
2833.536163
 20
153.102732
 11
2833.743561
 21
152.342273
  0
LINE
  8
CSLAYER1
  6
CONTINUOUS
 62
     5
 10
2833.743561
 20
152.342273
 11
2834.331188
 21
151.616380
  0
LINE
  8
CSLAYER1
  6
CONTINUOUS
 62
     5
 10
2834.331188
 20
151.616380
 11
2834.918816
 21
151.685513
  0
LINE
  8
CSLAYER1
  6
CONTINUOUS
 62
     5
 10
2834.918816
 20
151.685513
 11
2835.541010
 21
151.858345
  0
LINE
  8
CSLAYER1
  6
CONTINUOUS
 62
     5
 10
2835.541010
 20
151.858345
 11
2835.955806
 21
151.685513
  0
LINE
  8
CSLAYER1
  6
CONTINUOUS
 62
     5
 10
2835.955806
 20
151.685513
 11
2836.854531
 21
151.236151
  0
LINE
  8
CSLAYER1
  6
CONTINUOUS
 62
     5
 10
2836.854531
 20
151.236151
 11
2837.630582
 21
150.825176
  0
LINE
  8
CSLAYER1
  6
CONTINUOUS
 62
     5
 10
2837.630582
 20
150.825176
 11
2838.133485
 21
150.855921
  0
LINE
  8
CSLAYER1
  6
CONTINUOUS
 62
     5
 10
2838.133485
 20
150.855921
 11
2840.941357
 21
152.302400
  0
LINE
  8
CSLAYER1
  6
CONTINUOUS
 62
     5
 10
2831.393724
 20
159.917820
 11
2831.726576
 21
161.391528
  0
LINE
  8
CSLAYER1
  6
CONTINUOUS
 62
     5
 10
2831.726576
 20
161.391528
 11
2833.179981
 21
161.541880
  0
LINE
  8
CSLAYER1
  6
CONTINUOUS
 62
     5
 10
2834.673740
 20
164.310339
 11
2836.427913
 21
164.467429
  0
LINE
  8
CSLAYER1
  6
CONTINUOUS
 62
     5
 10
2836.427913
 20
164.467429
 11
2839.962440
 21
165.305243
  0
LINE
  8
CSLAYER1
  6
CONTINUOUS
 62
     5
 10
2839.962440
 20
165.305243
 11
2841.393724
 21
165.636882
  0
LINE
  8
CSLAYER1
  6
CONTINUOUS
 62
     5
 10
2834.673740
 20
164.310339
 11
2832.740849
 21
164.469206
  0
LINE
  8
CSLAYER1
  6
CONTINUOUS
 62
     5
 10
2832.004725
 20
163.600519
 11
2832.098251
 21
163.229358
  0
LINE
  8
CSLAYER1
  6
CONTINUOUS
 62
     5
 10
2832.098251
 20
163.229358
 11
2832.589845
 21
162.691677
  0
LINE
  8
CSLAYER1
  6
CONTINUOUS
 62
     5
 10
2832.589845
 20
162.691677
 11
2833.265787
 21
162.184721
  0
LINE
  8
CSLAYER1
  6
CONTINUOUS
 62
     5
 10
2833.265787
 20
162.184721
 11
2833.389111
 21
162.020288
  0
LINE
  8
CSLAYER1
  6
CONTINUOUS
 62
     5
 10
2831.970682
 20
157.380143
 11
2833.509895
 21
155.270851
  0
ARC
  8
CSLAYER1
  6
CONTINUOUS
 62
     5
 10
2876.380425
 20
-12.833477
 40
180.727463
 50
80.438896
 51
96.353582
  0
ARC
  8
CSLAYER1
  6
CONTINUOUS
 62
     5
 10
2851.481512
 20
132.414424
 40
34.720242
 50
81.866516
 51
106.890578
  0
LINE
  8
CSLAYER1
  6
CONTINUOUS
 62
     5
 10
2910.587985
 20
164.591846
 11
2912.835068
 21
163.570445
  0
LINE
  8
CSLAYER1
  6
CONTINUOUS
 62
     5
 10
2916.409972
 20
161.987273
 11
2912.835068
 21
163.570445
  0
LINE
  8
CSLAYER1
  6
CONTINUOUS
 62
     5
 10
2910.587985
 20
164.591846
 11
2906.393724
 21
165.384418
  0
LINE
  8
CSLAYER1
  6
CONTINUOUS
 62
     5
 10
2916.393724
 20
161.994469
 11
2918.265300
 21
160.425992
  0
LINE
  8
CSLAYER1
  6
CONTINUOUS
 62
     5
 10
2899.636980
 20
163.031320
 11
2900.536255
 21
164.483994
  0
LINE
  8
CSLAYER1
  6
CONTINUOUS
 62
     5
 10
2900.536255
 20
164.483994
 11
2905.211853
 21
163.364485
  0
LINE
  8
CSLAYER1
  6
CONTINUOUS
 62
     5
 10
2905.211853
 20
163.364485
 11
2921.954239
 21
158.825176
  0
LINE
  8
CSLAYER1
  6
CONTINUOUS
 62
     5
 10
2924.893724
 20
158.825176
 11
2918.265300
 21
160.425992
  0
LINE
  8
CSLAYER1
  6
CONTINUOUS
 62
     5
 10
2921.954239
 20
158.825176
 11
2924.893724
 21
158.825176
  0
LINE
  8
CSLAYER1
  6
CONTINUOUS
 62
     5
 10
2866.393724
 20
163.290117
 11
2886.393724
 21
163.825176
  0
LINE
  8
CSLAYER1
  6
CONTINUOUS
 62
     5
 10
2886.393724
 20
163.825176
 11
2899.636980
 21
163.031320
  0
LINE
  8
CSLAYER1
  6
CONTINUOUS
 62
     5
 10
2901.239961
 20
160.970840
 11
2886.393724
 21
162.325176
  0
LINE
  8
CSLAYER1
  6
CONTINUOUS
 62
     5
 10
2886.393724
 20
162.325176
 11
2871.344515
 21
162.733828
  0
LINE
  8
CSLAYER1
  6
CONTINUOUS
 62
     5
 10
2871.393724
 20
162.732492
 11
2866.393724
 21
162.827786
  0
LINE
  8
CSLAYER1
  6
CONTINUOUS
 62
     5
 10
2866.393724
 20
163.290117
 11
2866.393724
 21
162.827786
  0
LINE
  8
CSLAYER1
  6
CONTINUOUS
 62
     5
 10
2923.893724
 20
155.325176
 11
2915.051166
 21
157.635838
  0
LINE
  8
CSLAYER1
  6
CONTINUOUS
 62
     5
 10
2901.239961
 20
160.970840
 11
2911.393724
 21
158.998456
  0
LINE
  8
CSLAYER1
  6
CONTINUOUS
 62
     5
 10
2911.393724
 20
158.998456
 11
2915.051166
 21
157.635838
  0
LINE
  8
CSLAYER1
  6
CONTINUOUS
 62
     5
 10
2923.893724
 20
155.325176
 11
2923.601107
 21
154.486071
  0
LINE
  8
CSLAYER1
  6
CONTINUOUS
 62
     5
 10
2933.393724
 20
149.825176
 11
2933.087697
 21
151.054157
  0
LINE
  8
CSLAYER1
  6
CONTINUOUS
 62
     5
 10
2923.601107
 20
154.486071
 11
2933.087697
 21
151.054157
  0
LINE
  8
CSLAYER1
  6
CONTINUOUS
 62
     5
 10
2869.893724
 20
155.325176
 11
2872.316762
 21
155.325176
  0
LINE
  8
CSLAYER1
  6
CONTINUOUS
 62
     5
 10
2892.393724
 20
155.757672
 11
2892.393724
 21
155.325176
  0
LINE
  8
CSLAYER1
  6
CONTINUOUS
 62
     5
 10
2891.393724
 20
156.292113
 11
2889.682445
 21
156.929291
  0
LINE
  8
CSLAYER1
  6
CONTINUOUS
 62
     5
 10
2889.682445
 20
156.929291
 11
2888.572389
 21
156.979748
  0
LINE
  8
CSLAYER1
  6
CONTINUOUS
 62
     5
 10
2888.572389
 20
156.979748
 11
2888.093046
 21
156.727463
  0
LINE
  8
CSLAYER1
  6
CONTINUOUS
 62
     5
 10
2888.093046
 20
156.727463
 11
2887.992132
 21
156.323806
  0
LINE
  8
CSLAYER1
  6
CONTINUOUS
 62
     5
 10
2887.992132
 20
156.323806
 11
2888.446246
 21
156.021063
  0
LINE
  8
CSLAYER1
  6
CONTINUOUS
 62
     5
 10
2888.446246
 20
156.021063
 11
2890.086102
 21
155.869692
  0
LINE
  8
CSLAYER1
  6
CONTINUOUS
 62
     5
 10
2890.086102
 20
155.869692
 11
2892.393724
 21
155.757672
  0
LINE
  8
CSLAYER1
  6
CONTINUOUS
 62
     5
 10
2933.393724
 20
149.825176
 11
2930.418182
 21
151.011758
  0
LINE
  8
CSLAYER1
  6
CONTINUOUS
 62
     5
 10
2930.418182
 20
151.011758
 11
2920.362492
 21
152.854633
  0
LINE
  8
CSLAYER1
  6
CONTINUOUS
 62
     5
 10
2920.362492
 20
152.854633
 11
2915.336712
 21
154.014428
  0
LINE
  8
CSLAYER1
  6
CONTINUOUS
 62
     5
 10
2892.927945
 20
156.325176
 11
2904.693611
 21
156.325176
  0
LINE
  8
CSLAYER1
  6
CONTINUOUS
 62
     5
 10
2891.393724
 20
156.292113
 11
2891.918384
 21
155.983645
  0
LINE
  8
CSLAYER1
  6
CONTINUOUS
 62
     5
 10
2891.918384
 20
155.983645
 11
2892.215196
 21
155.894602
  0
LINE
  8
CSLAYER1
  6
CONTINUOUS
 62
     5
 10
2892.215196
 20
155.894602
 11
2892.393724
 21
155.919772
  0
LINE
  8
CSLAYER1
  6
CONTINUOUS
 62
     5
 10
2892.393724
 20
155.919772
 11
2892.927945
 21
156.325176
  0
LINE
  8
CSLAYER1
  6
CONTINUOUS
 62
     5
 10
2904.693611
 20
156.325176
 11
2909.143880
 21
155.296350
  0
LINE
  8
CSLAYER1
  6
CONTINUOUS
 62
     5
 10
2909.143880
 20
155.296350
 11
2913.297072
 21
154.131202
  0
LINE
  8
CSLAYER1
  6
CONTINUOUS
 62
     5
 10
2913.297072
 20
154.131202
 11
2915.336712
 21
154.014428
  0
LINE
  8
CSLAYER1
  6
CONTINUOUS
 62
     5
 10
2868.893724
 20
154.325176
 11
2868.893724
 21
153.825176
  0
LINE
  8
CSLAYER1
  6
CONTINUOUS
 62
     5
 10
2866.393724
 20
153.825176
 11
2868.893724
 21
153.825176
  0
ARC
  8
CSLAYER1
  6
CONTINUOUS
 62
     5
 10
2869.893724
 20
154.325176
 40
1.000000
 50
90.000000
 51
180.000000
  0
LINE
  8
CSLAYER1
  6
CONTINUOUS
 62
     5
 10
2872.316762
 20
155.325176
 11
2873.014319
 21
154.753180
  0
LINE
  8
CSLAYER1
  6
CONTINUOUS
 62
     5
 10
2873.616687
 20
154.729219
 11
2874.474284
 21
155.325176
  0
LINE
  8
CSLAYER1
  6
CONTINUOUS
 62
     5
 10
2876.052680
 20
155.325176
 11
2877.719805
 21
154.667100
  0
LINE
  8
CSLAYER1
  6
CONTINUOUS
 62
     5
 10
2878.143514
 20
154.693612
 11
2879.297001
 21
155.325176
  0
LINE
  8
CSLAYER1
  6
CONTINUOUS
 62
     5
 10
2874.474284
 20
155.325176
 11
2876.052680
 21
155.325176
  0
LINE
  8
CSLAYER1
  6
CONTINUOUS
 62
     5
 10
2879.297001
 20
155.325176
 11
2892.393724
 21
155.325176
  0
LINE
  8
CSLAYER1
  6
CONTINUOUS
 62
     5
 10
2844.942707
 20
152.216350
 11
2866.393724
 21
153.825176
  0
LINE
  8
CSLAYER1
  6
CONTINUOUS
 62
     5
 10
2840.941357
 20
152.302400
 11
2844.942707
 21
152.216350
  0
ARC
  8
CSLAYER1
  6
CONTINUOUS
 62
     5
 10
2873.331359
 20
155.139813
 40
0.500000
 50
230.648247
 51
304.796026
  0
ARC
  8
CSLAYER1
  6
CONTINUOUS
 62
     5
 10
2877.903389
 20
155.132178
 40
0.500000
 50
248.459024
 51
298.701829
  0
ARC
  8
CSLAYER1
  6
CONTINUOUS
 62
     5
 10
2833.149111
 20
161.840288
 40
0.300000
 50
-84.093859
 51
36.869898
  0
ARC
  8
CSLAYER1
  6
CONTINUOUS
 62
     5
 10
2832.683508
 20
163.771559
 40
0.700000
 50
85.301319
 51
194.142980
  0
LINE
  8
CSLAYER1
  6
CONTINUOUS
 62
     3
 10
2864.875548
 20
146.558332
 11
2872.986044
 21
146.558332
  0
LINE
  8
CSLAYER1
  6
CONTINUOUS
 62
     3
 10
2858.463032
 20
144.958332
 11
2876.106373
 21
144.958332
  0
LINE
  8
CSLAYER1
  6
CONTINUOUS
 62
     3
 10
2855.050093
 20
143.358332
 11
2878.981737
 21
143.358332
  0
LINE
  8
CSLAYER1
  6
CONTINUOUS
 62
     3
 10
2852.814773
 20
141.758332
 11
2880.825210
 21
141.758332
  0
LINE
  8
CSLAYER1
  6
CONTINUOUS
 62
     3
 10
2851.319118
 20
140.158332
 11
2882.059496
 21
140.158332
  0
LINE
  8
CSLAYER1
  6
CONTINUOUS
 62
     3
 10
2850.098803
 20
138.558332
 11
2883.108873
 21
138.558332
  0
LINE
  8
CSLAYER1
  6
CONTINUOUS
 62
     3
 10
2849.406911
 20
136.958332
 11
2883.834747
 21
136.958332
  0
LINE
  8
CSLAYER1
  6
CONTINUOUS
 62
     3
 10
2848.715020
 20
135.358332
 11
2884.173134
 21
135.358332
  0
LINE
  8
CSLAYER1
  6
CONTINUOUS
 62
     3
 10
2848.066670
 20
133.758332
 11
2884.511520
 21
133.758332
  0
LINE
  8
CSLAYER1
  6
CONTINUOUS
 62
     3
 10
2847.745011
 20
132.158332
 11
2884.849906
 21
132.158332
  0
LINE
  8
CSLAYER1
  6
CONTINUOUS
 62
     3
 10
2847.423352
 20
130.558332
 11
2863.013595
 21
130.558332
  0
LINE
  8
CSLAYER1
  6
CONTINUOUS
 62
     3
 10
2847.101693
 20
128.958332
 11
2861.481334
 21
128.958332
  0
LINE
  8
CSLAYER1
  6
CONTINUOUS
 62
     3
 10
2846.780034
 20
127.358332
 11
2860.693164
 21
127.358332
  0
LINE
  8
CSLAYER1
  6
CONTINUOUS
 62
     3
 10
2846.538916
 20
125.758332
 11
2860.374396
 21
125.758332
  0
LINE
  8
CSLAYER1
  6
CONTINUOUS
 62
     3
 10
2846.418746
 20
124.158332
 11
2860.424417
 21
124.158332
  0
LINE
  8
CSLAYER1
  6
CONTINUOUS
 62
     3
 10
2846.393724
 20
122.558332
 11
2860.970505
 21
122.558332
  0
LINE
  8
CSLAYER1
  6
CONTINUOUS
 62
     3
 10
2846.892912
 20
120.958332
 11
2863.000507
 21
120.958332
  0
LINE
  8
CSLAYER1
  6
CONTINUOUS
 62
     3
 10
2847.604023
 20
119.358332
 11
2880.131879
 21
119.358332
  0
LINE
  8
CSLAYER1
  6
CONTINUOUS
 62
     3
 10
2848.315134
 20
117.758332
 11
2879.680597
 21
117.758332
  0
LINE
  8
CSLAYER1
  6
CONTINUOUS
 62
     3
 10
2849.026245
 20
116.158332
 11
2878.957572
 21
116.158332
  0
LINE
  8
CSLAYER1
  6
CONTINUOUS
 62
     3
 10
2849.988204
 20
114.558332
 11
2878.059386
 21
114.558332
  0
LINE
  8
CSLAYER1
  6
CONTINUOUS
 62
     3
 10
2851.236665
 20
112.958332
 11
2876.554460
 21
112.958332
  0
LINE
  8
CSLAYER1
  6
CONTINUOUS
 62
     3
 10
2852.842086
 20
111.358332
 11
2874.161999
 21
111.358332
  0
LINE
  8
CSLAYER1
  6
CONTINUOUS
 62
     3
 10
2854.989228
 20
109.758332
 11
2871.036876
 21
109.758332
  0
LINE
  8
CSLAYER1
  6
CONTINUOUS
 62
     3
 10
2858.236918
 20
108.158332
 11
2866.398727
 21
108.158332
  0
LINE
  8
CSLAYER1
  6
CONTINUOUS
 62
     3
 10
2868.205419
 20
130.558332
 11
2885.025156
 21
130.558332
  0
LINE
  8
CSLAYER1
  6
CONTINUOUS
 62
     3
 10
2868.876162
 20
128.958332
 11
2884.899386
 21
128.958332
  0
LINE
  8
CSLAYER1
  6
CONTINUOUS
 62
     3
 10
2868.988170
 20
127.358332
 11
2884.773617
 21
127.358332
  0
LINE
  8
CSLAYER1
  6
CONTINUOUS
 62
     3
 10
2868.742812
 20
125.758332
 11
2884.059761
 21
125.758332
  0
LINE
  8
CSLAYER1
  6
CONTINUOUS
 62
     3
 10
2868.091167
 20
124.158332
 11
2883.338561
 21
124.158332
  0
LINE
  8
CSLAYER1
  6
CONTINUOUS
 62
     3
 10
2866.957904
 20
122.558332
 11
2882.404613
 21
122.558332
  0
LINE
  8
CSLAYER1
  6
CONTINUOUS
 62
     3
 10
2864.701907
 20
120.958332
 11
2881.133906
 21
120.958332
  0
TEXT
  8
CSLAYER1
 62
     5
 10
2885.565458
 20
128.569500
 40
4.713448
 41
1.951056
  1
M
 50
0.000000
 51
0.000000
  7
EASYDRAW_FONT
 72
     5
 11
2891.696260
 21
128.569500
  0
TEXT
  8
CSLAYER1
 62
     5
 10
2895.216846
 20
128.511229
 40
4.626621
 41
0.778201
  1
T
 50
0.000000
 51
0.000000
  7
EASYDRAW_FONT
 72
     5
 11
2897.617139
 21
128.511229
  0
TEXT
  8
CSLAYER1
 62
     5
 10
2897.982408
 20
128.546028
 40
4.696183
 41
1.055553
  1
E
 50
0.000000
 51
0.000000
  7
EASYDRAW_FONT
 72
     5
 11
2901.287123
 21
128.546028
  0
TEXT
  8
CSLAYER1
 62
     5
 10
2901.098589
 20
130.161872
 40
0.348283
 41
9.375319
  1
-
 50
0.000000
 51
0.000000
  7
EASYDRAW_FONT
 72
     5
 11
2903.275434
 21
130.161872
  0
TEXT
  8
CSLAYER1
 62
     5
 10
2902.912799
 20
128.514681
 40
4.861659
 41
1.298502
  1
H
 50
0.000000
 51
0.000000
  7
EASYDRAW_FONT
 72
     5
 11
2907.121381
 21
128.514681
  0
TEXT
  8
CSLAYER1
 62
     5
 10
2906.988814
 20
128.545060
 40
4.843139
 41
1.269236
  1
A
 50
0.000000
 51
0.000000
  7
EASYDRAW_FONT
 72
     5
 11
2911.086870
 21
128.545060
  0
TEXT
  8
CSLAYER1
 62
     5
 10
2910.694970
 20
128.503533
 40
4.825362
 41
1.490144
  1
N
 50
0.000000
 51
0.000000
  7
EASYDRAW_FONT
 72
     5
 11
2915.488624
 21
128.503533
  0
TEXT
  8
CSLAYER1
 62
     5
 10
2891.486427
 20
128.480960
 40
4.982325
 41
1.177443
  1
A
 50
0.000000
 51
0.000000
  7
EASYDRAW_FONT
 72
     5
 11
2895.397362
 21
128.480960
  0
TEXT
  8
CSLAYER1
 62
     5
 10
2885.932472
 20
121.485721
 40
4.982325
 41
1.177443
  1
A
 50
0.000000
 51
0.000000
  7
EASYDRAW_FONT
 72
     5
 11
2889.843407
 21
121.485721
  0
TEXT
  8
CSLAYER1
 62
     5
 10
2898.716896
 20
121.514041
 40
4.982325
 41
1.177443
  1
A
 50
0.000000
 51
0.000000
  7
EASYDRAW_FONT
 72
     5
 11
2902.627831
 21
121.514041
  0
TEXT
  8
CSLAYER1
 62
     5
 10
2902.477440
 20
121.571038
 40
4.825362
 41
1.490144
  1
N
 50
0.000000
 51
0.000000
  7
EASYDRAW_FONT
 72
     5
 11
2907.271095
 21
121.571038
  0
TEXT
  8
CSLAYER1
 62
     5
 10
2911.379776
 20
121.579433
 40
4.841775
 41
1.184218
  1
E
 50
0.000000
 51
0.000000
  7
EASYDRAW_FONT
 72
     5
 11
2915.202255
 21
121.579433
  0
TEXT
  8
CSLAYER1
 62
     5
 10
2890.213026
 20
121.484396
 40
4.947865
 41
1.093992
  1
D
 50
0.000000
 51
0.000000
  7
EASYDRAW_FONT
 72
     5
 11
2893.821642
 21
121.484396
  0
TEXT
  8
CSLAYER1
 62
     5
 10
2894.615384
 20
121.479011
 40
4.924210
 41
1.228195
  1
V
 50
0.000000
 51
0.000000
  7
EASYDRAW_FONT
 72
     5
 11
2898.647311
 21
121.479011
  0
TEXT
  8
CSLAYER1
 62
     5
 10
2906.840585
 20
121.499743
 40
5.032894
 41
1.481023
  1
C
 50
0.000000
 51
0.000000
  7
EASYDRAW_FONT
 72
     5
 11
2911.809805
 21
121.499743
  0
LINE
  8
CSLAYER1
  6
CONTINUOUS
 62
     5
 10
2897.471061
 20
132.560148
 11
2896.458999
 21
132.560148
  0
LINE
  8
CSLAYER1
  6
CONTINUOUS
 62
     3
 10
2846.569299
 20
166.785419
 11
2896.367125
 21
166.785419
  0
LINE
  8
CSLAYER1
  6
CONTINUOUS
 62
     3
 10
2839.456935
 20
165.185419
 11
2907.446817
 21
165.185419
  0
LINE
  8
CSLAYER1
  6
CONTINUOUS
 62
     3
 10
2832.008530
 20
163.585419
 11
2877.431841
 21
163.585419
  0
LINE
  8
CSLAYER1
  6
CONTINUOUS
 62
     3
 10
2890.393390
 20
163.585419
 11
2899.979994
 21
163.585419
  0
LINE
  8
CSLAYER1
  6
CONTINUOUS
 62
     3
 10
2904.289127
 20
163.585419
 11
2912.802125
 21
163.585419
  0
LINE
  8
CSLAYER1
  6
CONTINUOUS
 62
     3
 10
2833.411669
 20
161.985419
 11
2890.118139
 21
161.985419
  0
LINE
  8
CSLAYER1
  6
CONTINUOUS
 62
     3
 10
2910.298277
 20
161.985419
 11
2916.404522
 21
161.985419
  0
LINE
  8
CSLAYER1
  6
CONTINUOUS
 62
     3
 10
2831.499336
 20
160.385419
 11
2904.253687
 21
160.385419
  0
LINE
  8
CSLAYER1
  6
CONTINUOUS
 62
     3
 10
2916.199576
 20
160.385419
 11
2918.433298
 21
160.385419
  0
LINE
  8
CSLAYER1
  6
CONTINUOUS
 62
     3
 10
2830.437110
 20
158.785419
 11
2911.965543
 21
158.785419
  0
LINE
  8
CSLAYER1
  6
CONTINUOUS
 62
     3
 10
2832.112778
 20
157.185419
 11
2916.774852
 21
157.185419
  0
LINE
  8
CSLAYER1
  6
CONTINUOUS
 62
     3
 10
2833.280345
 20
155.585419
 11
2892.393724
 21
155.585419
  0
LINE
  8
CSLAYER1
  6
CONTINUOUS
 62
     3
 10
2907.893489
 20
155.585419
 11
2922.897812
 21
155.585419
  0
LINE
  8
CSLAYER1
  6
CONTINUOUS
 62
     3
 10
2833.525469
 20
153.985419
 11
2868.893724
 21
153.985419
  0
LINE
  8
CSLAYER1
  6
CONTINUOUS
 62
     3
 10
2915.462418
 20
153.985419
 11
2924.985021
 21
153.985419
  0
LINE
  8
CSLAYER1
  6
CONTINUOUS
 62
     3
 10
2833.731794
 20
152.385419
 11
2847.196967
 21
152.385419
  0
LINE
  8
CSLAYER1
  6
CONTINUOUS
 62
     3
 10
2922.922767
 20
152.385419
 11
2929.407785
 21
152.385419
  0
LINE
  8
CSLAYER1
  6
CONTINUOUS
 62
     3
 10
2930.985761
 20
150.785419
 11
2933.154615
 21
150.785419
  0
ENDBLK
  8
0
  0
ENDSEC
  0
SECTION
  2
ENTITIES
  0
LINE
  8
CSLAYER1
  6
CONTINUOUS
 62
     3
 10
201.509119
 20
2449.546655
 11
201.509119
 21
100.999725
  0
LINE
  8
CSLAYER1
  6
CONTINUOUS
 62
     3
 10
3524.082429
 20
2449.546655
 11
201.509119
 21
2449.546655
  0
LINE
  8
CSLAYER1
  6
CONTINUOUS
 62
     3
 10
3524.082429
 20
2449.546655
 11
3524.082429
 21
100.999725
  0
LINE
  8
CSLAYER1
  6
CONTINUOUS
 62
     3
 10
3524.082429
 20
100.999725
 11
201.509119
 21
100.999725
  0
LINE
  8
CSLAYER1
  6
CONTINUOUS
 62
     5
 10
151.509119
 20
1260.999725
 11
101.509119
 21
1260.999725
  0
LINE
  8
CSLAYER1
  6
CONTINUOUS
 62
     5
 10
3500.082429
 20
2359.546655
 11
2620.082429
 21
2359.546655
  0
LINE
  8
CSLAYER1
  6
CONTINUOUS
 62
     5
 10
3500.082429
 20
2306.213322
 11
2620.082429
 21
2306.213322
  0
LINE
  8
CSLAYER1
  6
CONTINUOUS
 62
     5
 10
3500.082429
 20
2252.879989
 11
2620.082429
 21
2252.879989
  0
LINE
  8
CSLAYER1
  6
CONTINUOUS
 62
     5
 10
3500.082429
 20
2146.213322
 11
2620.082429
 21
2146.213322
  0
LINE
  8
CSLAYER1
  6
CONTINUOUS
 62
     5
 10
3500.082429
 20
2039.546655
 11
2620.082429
 21
2039.546655
  0
LINE
  8
CSLAYER1
  6
CONTINUOUS
 62
     5
 10
3500.082429
 20
1826.213322
 11
2620.082429
 21
1826.213322
  0
LINE
  8
CSLAYER1
  6
CONTINUOUS
 62
     5
 10
3500.082429
 20
1826.213319
 11
2620.082429
 21
1826.213319
  0
LINE
  8
CSLAYER1
  6
CONTINUOUS
 62
     5
 10
3500.082429
 20
1772.879985
 11
2620.082429
 21
1772.879985
  0
TEXT
  8
CSLAYER1
 62
     3
 10
2633.415527
 20
2366.213135
 40
40.000000
 41
0.838235
  1
仕    様
 50
0.000000
 51
0.000000
  7
EASYDRAW_FONT
 72
     5
 11
2823.415527
 21
2366.213135
  0
TEXT
  8
CSLAYER1
 62
     3
 10
2633.415527
 20
2312.879883
 40
40.000000
 41
0.838235
  1
型    式
 50
0.000000
 51
0.000000
  7
EASYDRAW_FONT
 72
     5
 11
2823.415527
 21
2312.879883
  0
TEXT
  8
CSLAYER1
 62
     3
 10
2998.415527
 20
2312.879883
 40
40.000000
 41
0.817105
  1
GLSH-250-2008
 50
0.000000
 51
0.000000
  7
EASYDRAW_FONT
 72
     5
 11
3412.415527
 21
2312.879883
  0
TEXT
  8
CSLAYER1
 62
     3
 10
2633.415527
 20
2259.546631
 40
40.000000
 41
0.859091
  1
均等荷重
 50
0.000000
 51
0.000000
  7
EASYDRAW_FONT
 72
     5
 11
2759.415527
 21
2259.546631
  0
TEXT
  8
CSLAYER1
 62
     3
 10
3424.748779
 20
2259.546631
 40
40.000000
 41
0.930000
  1
ｋｇ
 50
0.000000
 51
0.000000
  7
EASYDRAW_FONT
 72
     5
 11
3486.748779
 21
2259.546631
  0
TEXT
  8
CSLAYER1
 62
     3
 10
2633.415527
 20
2152.879883
 40
40.000000
 41
0.838235
  1
テーブル高サ
 50
0.000000
 51
0.000000
  7
EASYDRAW_FONT
 72
     5
 11
2823.415527
 21
2152.879883
  0
TEXT
  8
CSLAYER1
 62
     3
 10
3424.748779
 20
2152.879883
 40
40.000000
 41
0.930000
  1
ｍｍ
 50
0.000000
 51
0.000000
  7
EASYDRAW_FONT
 72
     5
 11
3486.748779
 21
2152.879883
  0
TEXT
  8
CSLAYER1
 62
     3
 10
2633.415527
 20
2046.212891
 40
40.000000
 41
0.838235
  1
全    長
 50
0.000000
 51
0.000000
  7
EASYDRAW_FONT
 72
     5
 11
2823.415527
 21
2046.212891
  0
TEXT
  8
CSLAYER1
 62
     3
 10
3158.415527
 20
2046.212891
 40
40.000000
 41
0.881250
  1
803
 50
0.000000
 51
0.000000
  7
EASYDRAW_FONT
 72
     5
 11
3252.415527
 21
2046.212891
  0
TEXT
  8
CSLAYER1
 62
     3
 10
3142.415527
 20
1832.879761
 40
40.000000
 41
0.859091
  1
約 37
 50
0.000000
 51
0.000000
  7
EASYDRAW_FONT
 72
     5
 11
3268.415527
 21
1832.879761
  0
TEXT
  8
CSLAYER1
 62
     3
 10
2633.415527
 20
1832.879761
 40
40.000000
 41
0.846429
  1
ポンプ回数
 50
0.000000
 51
0.000000
  7
EASYDRAW_FONT
 72
     5
 11
2791.415527
 21
1832.879761
  0
TEXT
  8
CSLAYER1
 62
     3
 10
2633.415527
 20
1779.546509
 40
40.000000
 41
0.832500
  1
自     重
 50
0.000000
 51
0.000000
  7
EASYDRAW_FONT
 72
     5
 11
2855.415527
 21
1779.546509
  0
TEXT
  8
CSLAYER1
 62
     3
 10
2633.415527
 20
1726.213257
 40
40.000000
 41
0.832500
  1
塗  装  色
 50
0.000000
 51
0.000000
  7
EASYDRAW_FONT
 72
     5
 11
2855.415527
 21
1726.213257
  0
TEXT
  8
CSLAYER1
 62
     3
 10
3158.415527
 20
2259.546631
 40
40.000000
 41
0.881250
  1
250
 50
0.000000
 51
0.000000
  7
EASYDRAW_FONT
 72
     5
 11
3252.415527
 21
2259.546631
  0
TEXT
  8
CSLAYER1
 62
     3
 10
3110.415527
 20
2152.879883
 40
40.000000
 41
0.838235
  1
80～580
 50
0.000000
 51
0.000000
  7
EASYDRAW_FONT
 72
     5
 11
3300.415527
 21
2152.879883
  0
TEXT
  8
CSLAYER1
 62
     3
 10
3424.748779
 20
2046.212891
 40
40.000000
 41
0.930000
  1
ｍｍ
 50
0.000000
 51
0.000000
  7
EASYDRAW_FONT
 72
     5
 11
3486.748779
 21
2046.212891
  0
LINE
  8
CSLAYER1
  6
CONTINUOUS
 62
     5
 10
3500.082429
 20
1986.213322
 11
2620.082429
 21
1986.213322
  0
TEXT
  8
CSLAYER1
 62
     3
 10
2633.415527
 20
1992.879761
 40
40.000000
 41
0.838235
  1
全    幅
 50
0.000000
 51
0.000000
  7
EASYDRAW_FONT
 72
     5
 11
2823.415527
 21
1992.879761
  0
TEXT
  8
CSLAYER1
 62
     3
 10
3158.415527
 20
1992.879761
 40
40.000000
 41
0.881250
  1
300
 50
0.000000
 51
0.000000
  7
EASYDRAW_FONT
 72
     5
 11
3252.415527
 21
1992.879761
  0
TEXT
  8
CSLAYER1
 62
     3
 10
3424.748779
 20
1992.879761
 40
40.000000
 41
0.930000
  1
ｍｍ
 50
0.000000
 51
0.000000
  7
EASYDRAW_FONT
 72
     5
 11
3486.748779
 21
1992.879761
  0
TEXT
  8
CSLAYER1
 62
     3
 10
3424.748779
 20
1779.546509
 40
40.000000
 41
0.930000
  1
ｋｇ
 50
0.000000
 51
0.000000
  7
EASYDRAW_FONT
 72
     5
 11
3486.748779
 21
1779.546509
  0
LINE
  8
CSLAYER1
  6
CONTINUOUS
 62
     5
 10
3500.082429
 20
2199.546655
 11
2620.082429
 21
2199.546655
  0
TEXT
  8
CSLAYER1
 62
     3
 10
2633.415527
 20
2206.213379
 40
40.000000
 41
0.838235
  1
テーブル寸法
 50
0.000000
 51
0.000000
  7
EASYDRAW_FONT
 72
     5
 11
2823.415527
 21
2206.213379
  0
TEXT
  8
CSLAYER1
 62
     3
 10
3424.748779
 20
2206.213379
 40
40.000000
 41
0.930000
  1
ｍｍ
 50
0.000000
 51
0.000000
  7
EASYDRAW_FONT
 72
     5
 11
3486.748779
 21
2206.213379
  0
TEXT
  8
CSLAYER1
 62
     3
 10
3062.415527
 20
2206.213379
 40
40.000000
 41
0.825000
  1
800L×200W
 50
0.000000
 51
0.000000
  7
EASYDRAW_FONT
 72
     5
 11
3348.415527
 21
2206.213379
  0
LINE
  8
CSLAYER1
  6
CONTINUOUS
 62
     5
 10
3500.082429
 20
2092.879989
 11
2620.082429
 21
2092.879989
  0
TEXT
  8
CSLAYER1
 62
     3
 10
3424.748779
 20
2099.546631
 40
40.000000
 41
0.930000
  1
ｍｍ
 50
0.000000
 51
0.000000
  7
EASYDRAW_FONT
 72
     5
 11
3486.748779
 21
2099.546631
  0
TEXT
  8
CSLAYER1
 62
     3
 10
3158.415527
 20
2099.546631
 40
40.000000
 41
0.881250
  1
500
 50
0.000000
 51
0.000000
  7
EASYDRAW_FONT
 72
     5
 11
3252.415527
 21
2099.546631
  0
TEXT
  8
CSLAYER1
 62
     3
 10
2635.248047
 20
2099.546631
 40
40.000000
 41
0.846429
  1
ストローク
 50
0.000000
 51
0.000000
  7
EASYDRAW_FONT
 72
     5
 11
2793.248047
 21
2099.546631
  0
LINE
  8
CSLAYER1
  6
CONTINUOUS
 62
     5
 10
3500.082429
 20
1932.879989
 11
2620.082429
 21
1932.879989
  0
TEXT
  8
CSLAYER1
 62
     3
 10
2633.415527
 20
1939.546509
 40
40.000000
 41
0.838235
  1
全    高
 50
0.000000
 51
0.000000
  7
EASYDRAW_FONT
 72
     5
 11
2823.415527
 21
1939.546509
  0
TEXT
  8
CSLAYER1
 62
     3
 10
3158.415527
 20
1939.546509
 40
40.000000
 41
0.881250
  1
 80
 50
0.000000
 51
0.000000
  7
EASYDRAW_FONT
 72
     5
 11
3252.415527
 21
1939.546509
  0
TEXT
  8
CSLAYER1
 62
     3
 10
3424.748779
 20
1939.546509
 40
40.000000
 41
0.930000
  1
ｍｍ
 50
0.000000
 51
0.000000
  7
EASYDRAW_FONT
 72
     5
 11
3486.748779
 21
1939.546509
  0
LINE
  8
CSLAYER1
  6
CONTINUOUS
 62
     5
 10
3500.082429
 20
1879.546655
 11
2620.082429
 21
1879.546655
  0
TEXT
  8
CSLAYER1
 62
     3
 10
2633.415527
 20
1886.213135
 40
40.000000
 41
0.846429
  1
リフト方式
 50
0.000000
 51
0.000000
  7
EASYDRAW_FONT
 72
     5
 11
2791.415527
 21
1886.213135
  0
TEXT
  8
CSLAYER1
 62
     3
 10
3126.415527
 20
1886.213135
 40
40.000000
 41
0.846429
  1
足踏油圧式
 50
0.000000
 51
0.000000
  7
EASYDRAW_FONT
 72
     5
 11
3284.415527
 21
1886.213135
  0
LINE
  8
CSLAYER1
  6
CONTINUOUS
 62
     5
 10
2924.082429
 20
1719.546652
 11
2924.082429
 21
2359.546655
  0
TEXT
  8
CSLAYER1
 62
     3
 10
3456.748779
 20
1832.879883
 40
40.000000
 41
1.125000
  1
回
 50
0.000000
 51
0.000000
  7
EASYDRAW_FONT
 72
     5
 11
3486.748779
 21
1832.879883
  0
LINE
  8
CSLAYER2
  6
CONTINUOUS
 62
     5
 10
251.509119
 20
1695.437066
 11
251.509119
 21
2399.546655
  0
LINE
  8
CSLAYER2
  6
CONTINUOUS
 62
     5
 10
1052.803250
 20
2399.546655
 11
251.509119
 21
2399.546655
  0
INSERT
  8
CSLAYER1
  2
BLKF0000
 10
0.0
 20
0.0
 30
0.0
  0
INSERT
  8
CSLAYER1
  2
BLKF0001
 10
0.0
 20
0.0
 30
0.0
  0
LINE
  8
CSLAYER1
  6
CONTINUOUS
 62
     7
 10
680.656221
 20
1837.964444
 11
808.182518
 21
1979.985205
  0
LINE
  8
CSLAYER1
  6
CONTINUOUS
 62
     7
 10
457.480329
 20
1925.782464
 11
642.852100
 21
1994.821443
  0
LINE
  8
CSLAYER1
  6
CONTINUOUS
 62
     7
 10
462.545911
 20
1911.827731
 11
682.008567
 21
1993.563356
  0
LINE
  8
CSLAYER1
  6
CONTINUOUS
 62
     7
 10
669.049455
 20
1847.856333
 11
760.811339
 21
1950.047747
  0
LINE
  8
CSLAYER1
  6
CONTINUOUS
 62
     7
 10
791.326470
 20
2127.098727
 11
791.326470
 21
2021.702469
  0
LINE
  8
CSLAYER1
  6
CONTINUOUS
 62
     7
 10
791.326470
 20
2127.098727
 11
671.346516
 21
2170.767859
  0
LINE
  8
CSLAYER1
  6
CONTINUOUS
 62
     7
 10
762.832054
 20
1943.408035
 11
791.326470
 21
1961.213322
  0
LINE
  8
CSLAYER1
  6
CONTINUOUS
 62
     7
 10
762.832054
 20
2109.293439
 11
762.832054
 21
1943.408035
  0
LINE
  8
CSLAYER1
  6
CONTINUOUS
 62
     7
 10
762.832054
 20
2109.293439
 11
791.326470
 21
2127.098727
  0
LINE
  8
CSLAYER1
  6
CONTINUOUS
 62
     7
 10
671.740661
 20
2167.017822
 11
671.740661
 21
2132.191783
  0
LINE
  8
CSLAYER1
  6
CONTINUOUS
 62
     7
 10
642.852100
 20
2152.962571
 11
671.346516
 21
2170.767859
  0
LINE
  8
CSLAYER1
  6
CONTINUOUS
 62
     7
 10
762.832054
 20
1943.408035
 11
760.811339
 21
1944.143515
  0
LINE
  8
CSLAYER1
  6
CONTINUOUS
 62
     7
 10
760.811339
 20
1968.347082
 11
691.400041
 21
1993.610729
  0
LINE
  8
CSLAYER1
  6
CONTINUOUS
 62
     7
 10
787.482113
 20
2126.694668
 11
671.543589
 21
2168.892840
  0
LINE
  8
CSLAYER1
  6
CONTINUOUS
 62
     7
 10
720.674985
 20
2084.948942
 11
787.482113
 21
2126.694668
  0
LINE
  8
CSLAYER1
  6
CONTINUOUS
 62
     7
 10
762.832054
 20
2109.293439
 11
760.811339
 21
2110.028920
  0
LINE
  8
CSLAYER1
  6
CONTINUOUS
 62
     7
 10
760.811339
 20
2110.028920
 11
760.811339
 21
1968.347082
  0
LINE
  8
CSLAYER1
  6
CONTINUOUS
 62
     7
 10
642.852100
 20
2152.962571
 11
642.852100
 21
2150.964408
  0
LINE
  8
CSLAYER1
  6
CONTINUOUS
 62
     7
 10
642.852100
 20
2152.962571
 11
671.346516
 21
2170.767859
  0
LINE
  8
CSLAYER1
  6
CONTINUOUS
 62
     7
 10
644.872815
 20
2152.227091
 11
671.543589
 21
2168.892840
  0
LINE
  8
CSLAYER1
  6
CONTINUOUS
 62
     7
 10
644.872815
 20
2152.227091
 11
642.852100
 21
2152.962571
  0
LINE
  8
CSLAYER1
  6
CONTINUOUS
 62
     7
 10
644.872815
 20
1984.172137
 11
661.326022
 21
1994.453242
  0
LINE
  8
CSLAYER1
  6
CONTINUOUS
 62
     7
 10
718.654270
 20
2085.684422
 11
783.637755
 21
2126.290610
  0
LINE
  8
CSLAYER1
  6
CONTINUOUS
 62
     7
 10
717.074799
 20
2082.834981
 11
717.074799
 21
2015.749225
  0
LINE
  8
CSLAYER1
  6
CONTINUOUS
 62
     7
 10
719.095514
 20
2082.099501
 11
719.095514
 21
2016.103579
  0
LINE
  8
CSLAYER1
  6
CONTINUOUS
 62
     7
 10
783.637755
 20
2126.290610
 11
766.714267
 21
2132.450256
  0
LINE
  8
CSLAYER1
  6
CONTINUOUS
 62
     7
 10
717.074799
 20
2084.155100
 11
608.027147
 21
2123.845199
  0
LINE
  8
CSLAYER1
  6
CONTINUOUS
 62
     7
 10
717.074799
 20
2016.955100
 11
683.594586
 21
2029.140901
  0
LINE
  8
CSLAYER1
  6
CONTINUOUS
 62
     7
 10
608.336648
 20
2127.398597
 11
671.740661
 21
2167.017822
  0
LINE
  8
CSLAYER1
  6
CONTINUOUS
 62
     7
 10
606.315933
 20
2128.134077
 11
642.852100
 21
2150.964408
  0
LINE
  8
CSLAYER1
  6
CONTINUOUS
 62
     7
 10
603.156990
 20
2122.435194
 11
603.156990
 21
2056.580112
  0
LINE
  8
CSLAYER1
  6
CONTINUOUS
 62
     7
 10
605.177705
 20
2121.699714
 11
605.177705
 21
2057.566271
  0
LINE
  8
CSLAYER1
  6
CONTINUOUS
 62
     7
 10
608.027147
 20
2123.845199
 11
608.027147
 21
2056.645199
  0
LINE
  8
CSLAYER1
  6
CONTINUOUS
 62
     7
 10
608.027147
 20
2123.845199
 11
639.919485
 21
2143.773744
  0
LINE
  8
CSLAYER1
  6
CONTINUOUS
 62
     7
 10
748.418657
 20
2104.283275
 11
639.919485
 21
2143.773744
  0
LINE
  8
CSLAYER1
  6
CONTINUOUS
 62
     7
 10
724.236043
 20
2013.254138
 11
760.811339
 21
2036.108920
  0
LINE
  8
CSLAYER1
  6
CONTINUOUS
 62
     7
 10
721.077523
 20
2013.040088
 11
718.022097
 21
2014.152172
  0
LINE
  8
CSLAYER1
  6
CONTINUOUS
 62
     7
 10
667.093600
 20
1992.354015
 11
644.134626
 21
2000.710398
  0
LINE
  8
CSLAYER1
  6
CONTINUOUS
 62
     7
 10
667.093600
 20
1992.354015
 11
670.990279
 21
1994.788930
  0
LINE
  8
CSLAYER1
  6
CONTINUOUS
 62
     7
 10
651.195509
 20
2038.986830
 11
652.480661
 21
2039.789882
  0
LINE
  8
CSLAYER1
  6
CONTINUOUS
 62
     7
 10
659.037625
 20
2026.168887
 11
660.443185
 21
2027.047179
  0
LINE
  8
CSLAYER1
  6
CONTINUOUS
 62
     7
 10
652.480661
 20
2039.789882
 11
652.814318
 21
2039.964662
  0
LINE
  8
CSLAYER1
  6
CONTINUOUS
 62
     7
 10
652.814318
 20
2039.964662
 11
653.175735
 21
2040.089623
  0
LINE
  8
CSLAYER1
  6
CONTINUOUS
 62
     7
 10
653.175735
 20
2040.089623
 11
653.562162
 21
2040.163812
  0
LINE
  8
CSLAYER1
  6
CONTINUOUS
 62
     7
 10
653.562162
 20
2040.163812
 11
653.970658
 21
2040.186665
  0
LINE
  8
CSLAYER1
  6
CONTINUOUS
 62
     7
 10
653.970658
 20
2040.186665
 11
654.398114
 21
2040.158009
  0
LINE
  8
CSLAYER1
  6
CONTINUOUS
 62
     7
 10
654.398114
 20
2040.158009
 11
654.841277
 21
2040.078062
  0
LINE
  8
CSLAYER1
  6
CONTINUOUS
 62
     7
 10
654.841277
 20
2040.078062
 11
655.296774
 21
2039.947431
  0
LINE
  8
CSLAYER1
  6
CONTINUOUS
 62
     7
 10
655.296774
 20
2039.947431
 11
655.761139
 21
2039.767112
  0
LINE
  8
CSLAYER1
  6
CONTINUOUS
 62
     7
 10
655.761139
 20
2039.767112
 11
656.230837
 21
2039.538476
  0
LINE
  8
CSLAYER1
  6
CONTINUOUS
 62
     7
 10
656.230837
 20
2039.538476
 11
656.702294
 21
2039.263263
  0
LINE
  8
CSLAYER1
  6
CONTINUOUS
 62
     7
 10
656.702294
 20
2039.263263
 11
657.171921
 21
2038.943569
  0
LINE
  8
CSLAYER1
  6
CONTINUOUS
 62
     7
 10
657.171921
 20
2038.943569
 11
657.636145
 21
2038.581826
  0
LINE
  8
CSLAYER1
  6
CONTINUOUS
 62
     7
 10
657.636145
 20
2038.581826
 11
658.091432
 21
2038.180787
  0
LINE
  8
CSLAYER1
  6
CONTINUOUS
 62
     7
 10
658.091432
 20
2038.180787
 11
658.534318
 21
2037.743504
  0
LINE
  8
CSLAYER1
  6
CONTINUOUS
 62
     7
 10
658.534318
 20
2037.743504
 11
658.961431
 21
2037.273305
  0
LINE
  8
CSLAYER1
  6
CONTINUOUS
 62
     7
 10
658.961431
 20
2037.273305
 11
659.369522
 21
2036.773770
  0
LINE
  8
CSLAYER1
  6
CONTINUOUS
 62
     7
 10
659.369522
 20
2036.773770
 11
659.755484
 21
2036.248699
  0
LINE
  8
CSLAYER1
  6
CONTINUOUS
 62
     7
 10
659.755484
 20
2036.248699
 11
660.116380
 21
2035.702089
  0
LINE
  8
CSLAYER1
  6
CONTINUOUS
 62
     7
 10
660.116380
 20
2035.702089
 11
660.449464
 21
2035.138099
  0
LINE
  8
CSLAYER1
  6
CONTINUOUS
 62
     7
 10
660.449464
 20
2035.138099
 11
660.752200
 21
2034.561023
  0
LINE
  8
CSLAYER1
  6
CONTINUOUS
 62
     7
 10
660.752200
 20
2034.561023
 11
661.022284
 21
2033.975251
  0
LINE
  8
CSLAYER1
  6
CONTINUOUS
 62
     7
 10
661.022284
 20
2033.975251
 11
661.257661
 21
2033.385243
  0
LINE
  8
CSLAYER1
  6
CONTINUOUS
 62
     7
 10
661.257661
 20
2033.385243
 11
661.456540
 21
2032.795488
  0
LINE
  8
CSLAYER1
  6
CONTINUOUS
 62
     7
 10
661.456540
 20
2032.795488
 11
661.617407
 21
2032.210474
  0
LINE
  8
CSLAYER1
  6
CONTINUOUS
 62
     7
 10
661.617407
 20
2032.210474
 11
661.739037
 21
2031.634655
  0
LINE
  8
CSLAYER1
  6
CONTINUOUS
 62
     7
 10
661.739037
 20
2031.634655
 11
661.820506
 21
2031.072412
  0
LINE
  8
CSLAYER1
  6
CONTINUOUS
 62
     7
 10
661.820506
 20
2031.072412
 11
661.861192
 21
2030.528024
  0
LINE
  8
CSLAYER1
  6
CONTINUOUS
 62
     7
 10
661.861192
 20
2030.528024
 11
661.860787
 21
2030.005635
  0
LINE
  8
CSLAYER1
  6
CONTINUOUS
 62
     7
 10
661.860787
 20
2030.005635
 11
661.819293
 21
2029.509220
  0
LINE
  8
CSLAYER1
  6
CONTINUOUS
 62
     7
 10
661.819293
 20
2029.509220
 11
661.737026
 21
2029.042557
  0
LINE
  8
CSLAYER1
  6
CONTINUOUS
 62
     7
 10
661.737026
 20
2029.042557
 11
661.614612
 21
2028.609199
  0
LINE
  8
CSLAYER1
  6
CONTINUOUS
 62
     7
 10
661.614612
 20
2028.609199
 11
661.452984
 21
2028.212442
  0
LINE
  8
CSLAYER1
  6
CONTINUOUS
 62
     7
 10
661.452984
 20
2028.212442
 11
661.253370
 21
2027.855306
  0
LINE
  8
CSLAYER1
  6
CONTINUOUS
 62
     7
 10
661.253370
 20
2027.855306
 11
661.017291
 21
2027.540510
  0
LINE
  8
CSLAYER1
  6
CONTINUOUS
 62
     7
 10
661.017291
 20
2027.540510
 11
660.746542
 21
2027.270449
  0
LINE
  8
CSLAYER1
  6
CONTINUOUS
 62
     7
 10
660.746542
 20
2027.270449
 11
660.443185
 21
2027.047179
  0
LINE
  8
CSLAYER1
  6
CONTINUOUS
 62
     7
 10
651.211404
 20
2038.982991
 11
651.408757
 21
2039.086371
  0
LINE
  8
CSLAYER1
  6
CONTINUOUS
 62
     7
 10
651.408757
 20
2039.086371
 11
651.770175
 21
2039.211331
  0
LINE
  8
CSLAYER1
  6
CONTINUOUS
 62
     7
 10
651.770175
 20
2039.211331
 11
652.156602
 21
2039.285520
  0
LINE
  8
CSLAYER1
  6
CONTINUOUS
 62
     7
 10
652.156602
 20
2039.285520
 11
652.565098
 21
2039.308374
  0
LINE
  8
CSLAYER1
  6
CONTINUOUS
 62
     7
 10
652.565098
 20
2039.308374
 11
652.992554
 21
2039.279718
  0
LINE
  8
CSLAYER1
  6
CONTINUOUS
 62
     7
 10
652.992554
 20
2039.279718
 11
653.435717
 21
2039.199770
  0
LINE
  8
CSLAYER1
  6
CONTINUOUS
 62
     7
 10
653.435717
 20
2039.199770
 11
653.891214
 21
2039.069140
  0
LINE
  8
CSLAYER1
  6
CONTINUOUS
 62
     7
 10
653.891214
 20
2039.069140
 11
654.355579
 21
2038.888820
  0
LINE
  8
CSLAYER1
  6
CONTINUOUS
 62
     7
 10
654.355579
 20
2038.888820
 11
654.825277
 21
2038.660184
  0
LINE
  8
CSLAYER1
  6
CONTINUOUS
 62
     7
 10
654.825277
 20
2038.660184
 11
655.296733
 21
2038.384972
  0
LINE
  8
CSLAYER1
  6
CONTINUOUS
 62
     7
 10
655.296733
 20
2038.384972
 11
655.766360
 21
2038.065277
  0
LINE
  8
CSLAYER1
  6
CONTINUOUS
 62
     7
 10
655.766360
 20
2038.065277
 11
656.230584
 21
2037.703534
  0
LINE
  8
CSLAYER1
  6
CONTINUOUS
 62
     7
 10
660.414945
 20
2030.194120
 11
660.455632
 21
2029.649733
  0
LINE
  8
CSLAYER1
  6
CONTINUOUS
 62
     7
 10
660.455632
 20
2029.649733
 11
660.455226
 21
2029.127343
  0
LINE
  8
CSLAYER1
  6
CONTINUOUS
 62
     7
 10
660.455226
 20
2029.127343
 11
660.413732
 21
2028.630929
  0
LINE
  8
CSLAYER1
  6
CONTINUOUS
 62
     7
 10
660.413732
 20
2028.630929
 11
660.331465
 21
2028.164266
  0
LINE
  8
CSLAYER1
  6
CONTINUOUS
 62
     7
 10
660.331465
 20
2028.164266
 11
660.209052
 21
2027.730907
  0
LINE
  8
CSLAYER1
  6
CONTINUOUS
 62
     7
 10
660.209052
 20
2027.730907
 11
660.047423
 21
2027.334150
  0
LINE
  8
CSLAYER1
  6
CONTINUOUS
 62
     7
 10
660.047423
 20
2027.334150
 11
659.847810
 21
2026.977014
  0
LINE
  8
CSLAYER1
  6
CONTINUOUS
 62
     7
 10
659.847810
 20
2026.977014
 11
659.611730
 21
2026.662218
  0
LINE
  8
CSLAYER1
  6
CONTINUOUS
 62
     7
 10
659.611730
 20
2026.662218
 11
659.340982
 21
2026.392158
  0
LINE
  8
CSLAYER1
  6
CONTINUOUS
 62
     7
 10
659.340982
 20
2026.392158
 11
659.037625
 21
2026.168887
  0
LINE
  8
CSLAYER1
  6
CONTINUOUS
 62
     7
 10
644.872815
 20
1984.172137
 11
642.852100
 21
1984.907618
  0
LINE
  8
CSLAYER1
  6
CONTINUOUS
 62
     7
 10
644.872815
 20
2000.441719
 11
644.872815
 21
1984.172137
  0
LINE
  8
CSLAYER1
  6
CONTINUOUS
 62
     7
 10
642.852100
 20
1995.403855
 11
642.852100
 21
1994.821443
  0
LINE
  8
CSLAYER1
  6
CONTINUOUS
 62
     7
 10
624.478610
 20
2110.212380
 11
624.687518
 21
2110.321813
  0
LINE
  8
CSLAYER1
  6
CONTINUOUS
 62
     7
 10
624.687518
 20
2110.321813
 11
624.913808
 21
2110.400053
  0
LINE
  8
CSLAYER1
  6
CONTINUOUS
 62
     7
 10
624.913808
 20
2110.400053
 11
625.155757
 21
2110.446504
  0
LINE
  8
CSLAYER1
  6
CONTINUOUS
 62
     7
 10
625.155757
 20
2110.446504
 11
625.411524
 21
2110.460813
  0
LINE
  8
CSLAYER1
  6
CONTINUOUS
 62
     7
 10
625.411524
 20
2110.460813
 11
625.679162
 21
2110.442871
  0
LINE
  8
CSLAYER1
  6
CONTINUOUS
 62
     7
 10
625.679162
 20
2110.442871
 11
625.956635
 21
2110.392814
  0
LINE
  8
CSLAYER1
  6
CONTINUOUS
 62
     7
 10
625.956635
 20
2110.392814
 11
626.241830
 21
2110.311024
  0
LINE
  8
CSLAYER1
  6
CONTINUOUS
 62
     7
 10
626.241830
 20
2110.311024
 11
626.532577
 21
2110.198123
  0
LINE
  8
CSLAYER1
  6
CONTINUOUS
 62
     7
 10
626.532577
 20
2110.198123
 11
626.826663
 21
2110.054970
  0
LINE
  8
CSLAYER1
  6
CONTINUOUS
 62
     7
 10
626.826663
 20
2110.054970
 11
627.121850
 21
2109.882654
  0
LINE
  8
CSLAYER1
  6
CONTINUOUS
 62
     7
 10
627.121850
 20
2109.882654
 11
627.415893
 21
2109.682488
  0
LINE
  8
CSLAYER1
  6
CONTINUOUS
 62
     7
 10
627.415893
 20
2109.682488
 11
627.706551
 21
2109.455994
  0
LINE
  8
CSLAYER1
  6
CONTINUOUS
 62
     7
 10
627.706551
 20
2109.455994
 11
627.991615
 21
2109.204896
  0
LINE
  8
CSLAYER1
  6
CONTINUOUS
 62
     7
 10
627.991615
 20
2109.204896
 11
628.268914
 21
2108.931105
  0
LINE
  8
CSLAYER1
  6
CONTINUOUS
 62
     7
 10
628.268914
 20
2108.931105
 11
628.536337
 21
2108.636706
  0
LINE
  8
CSLAYER1
  6
CONTINUOUS
 62
     7
 10
628.536337
 20
2108.636706
 11
628.791850
 21
2108.323937
  0
LINE
  8
CSLAYER1
  6
CONTINUOUS
 62
     7
 10
628.791850
 20
2108.323937
 11
629.033508
 21
2107.995181
  0
LINE
  8
CSLAYER1
  6
CONTINUOUS
 62
     7
 10
629.033508
 20
2107.995181
 11
629.259472
 21
2107.652938
  0
LINE
  8
CSLAYER1
  6
CONTINUOUS
 62
     7
 10
629.259472
 20
2107.652938
 11
629.468021
 21
2107.299814
  0
LINE
  8
CSLAYER1
  6
CONTINUOUS
 62
     7
 10
629.468021
 20
2107.299814
 11
629.657570
 21
2106.938496
  0
LINE
  8
CSLAYER1
  6
CONTINUOUS
 62
     7
 10
629.657570
 20
2106.938496
 11
629.826675
 21
2106.571734
  0
LINE
  8
CSLAYER1
  6
CONTINUOUS
 62
     7
 10
629.826675
 20
2106.571734
 11
629.974048
 21
2106.202319
  0
LINE
  8
CSLAYER1
  6
CONTINUOUS
 62
     7
 10
629.974048
 20
2106.202319
 11
630.098570
 21
2105.833063
  0
LINE
  8
CSLAYER1
  6
CONTINUOUS
 62
     7
 10
630.098570
 20
2105.833063
 11
630.199292
 21
2105.466775
  0
LINE
  8
CSLAYER1
  6
CONTINUOUS
 62
     7
 10
630.199292
 20
2105.466775
 11
630.275447
 21
2105.106244
  0
LINE
  8
CSLAYER1
  6
CONTINUOUS
 62
     7
 10
630.275447
 20
2105.106244
 11
630.326456
 21
2104.754214
  0
LINE
  8
CSLAYER1
  6
CONTINUOUS
 62
     7
 10
630.326456
 20
2104.754214
 11
630.351930
 21
2104.413363
  0
LINE
  8
CSLAYER1
  6
CONTINUOUS
 62
     7
 10
630.351930
 20
2104.413363
 11
630.351676
 21
2104.086286
  0
LINE
  8
CSLAYER1
  6
CONTINUOUS
 62
     7
 10
630.351676
 20
2104.086286
 11
630.325696
 21
2103.775471
  0
LINE
  8
CSLAYER1
  6
CONTINUOUS
 62
     7
 10
630.325696
 20
2103.775471
 11
630.274187
 21
2103.483285
  0
LINE
  8
CSLAYER1
  6
CONTINUOUS
 62
     7
 10
630.274187
 20
2103.483285
 11
630.197542
 21
2103.211952
  0
LINE
  8
CSLAYER1
  6
CONTINUOUS
 62
     7
 10
630.197542
 20
2103.211952
 11
630.096343
 21
2102.963535
  0
LINE
  8
CSLAYER1
  6
CONTINUOUS
 62
     7
 10
630.096343
 20
2102.963535
 11
629.971362
 21
2102.739926
  0
LINE
  8
CSLAYER1
  6
CONTINUOUS
 62
     7
 10
629.971362
 20
2102.739926
 11
629.823548
 21
2102.542826
  0
LINE
  8
CSLAYER1
  6
CONTINUOUS
 62
     7
 10
629.823548
 20
2102.542826
 11
629.654028
 21
2102.373736
  0
LINE
  8
CSLAYER1
  6
CONTINUOUS
 62
     7
 10
629.654028
 20
2102.373736
 11
629.464090
 21
2102.233943
  0
LINE
  8
CSLAYER1
  6
CONTINUOUS
 62
     7
 10
629.464090
 20
2102.233943
 11
629.255182
 21
2102.124510
  0
LINE
  8
CSLAYER1
  6
CONTINUOUS
 62
     7
 10
629.255182
 20
2102.124510
 11
629.028892
 21
2102.046270
  0
LINE
  8
CSLAYER1
  6
CONTINUOUS
 62
     7
 10
629.028892
 20
2102.046270
 11
628.786943
 21
2101.999819
  0
LINE
  8
CSLAYER1
  6
CONTINUOUS
 62
     7
 10
628.786943
 20
2101.999819
 11
628.531176
 21
2101.985510
  0
LINE
  8
CSLAYER1
  6
CONTINUOUS
 62
     7
 10
628.531176
 20
2101.985510
 11
628.263538
 21
2102.003452
  0
LINE
  8
CSLAYER1
  6
CONTINUOUS
 62
     7
 10
628.263538
 20
2102.003452
 11
627.986066
 21
2102.053508
  0
LINE
  8
CSLAYER1
  6
CONTINUOUS
 62
     7
 10
627.986066
 20
2102.053508
 11
627.700871
 21
2102.135299
  0
LINE
  8
CSLAYER1
  6
CONTINUOUS
 62
     7
 10
627.700871
 20
2102.135299
 11
627.410124
 21
2102.248200
  0
LINE
  8
CSLAYER1
  6
CONTINUOUS
 62
     7
 10
627.410124
 20
2102.248200
 11
627.116037
 21
2102.391353
  0
LINE
  8
CSLAYER1
  6
CONTINUOUS
 62
     7
 10
627.116037
 20
2102.391353
 11
626.820850
 21
2102.563668
  0
LINE
  8
CSLAYER1
  6
CONTINUOUS
 62
     7
 10
626.820850
 20
2102.563668
 11
626.526808
 21
2102.763835
  0
LINE
  8
CSLAYER1
  6
CONTINUOUS
 62
     7
 10
626.526808
 20
2102.763835
 11
626.236149
 21
2102.990329
  0
LINE
  8
CSLAYER1
  6
CONTINUOUS
 62
     7
 10
626.236149
 20
2102.990329
 11
625.951085
 21
2103.241427
  0
LINE
  8
CSLAYER1
  6
CONTINUOUS
 62
     7
 10
625.951085
 20
2103.241427
 11
625.673787
 21
2103.515217
  0
LINE
  8
CSLAYER1
  6
CONTINUOUS
 62
     7
 10
625.673787
 20
2103.515217
 11
625.406363
 21
2103.809617
  0
LINE
  8
CSLAYER1
  6
CONTINUOUS
 62
     7
 10
625.406363
 20
2103.809617
 11
625.150850
 21
2104.122385
  0
LINE
  8
CSLAYER1
  6
CONTINUOUS
 62
     7
 10
625.150850
 20
2104.122385
 11
624.909192
 21
2104.451142
  0
LINE
  8
CSLAYER1
  6
CONTINUOUS
 62
     7
 10
624.909192
 20
2104.451142
 11
624.683229
 21
2104.793384
  0
LINE
  8
CSLAYER1
  6
CONTINUOUS
 62
     7
 10
624.683229
 20
2104.793384
 11
624.474679
 21
2105.146508
  0
LINE
  8
CSLAYER1
  6
CONTINUOUS
 62
     7
 10
624.474679
 20
2105.146508
 11
624.285130
 21
2105.507826
  0
LINE
  8
CSLAYER1
  6
CONTINUOUS
 62
     7
 10
624.285130
 20
2105.507826
 11
624.116026
 21
2105.874588
  0
LINE
  8
CSLAYER1
  6
CONTINUOUS
 62
     7
 10
624.116026
 20
2105.874588
 11
623.968652
 21
2106.244003
  0
LINE
  8
CSLAYER1
  6
CONTINUOUS
 62
     7
 10
623.968652
 20
2106.244003
 11
623.844130
 21
2106.613260
  0
LINE
  8
CSLAYER1
  6
CONTINUOUS
 62
     7
 10
623.844130
 20
2106.613260
 11
623.743409
 21
2106.979547
  0
LINE
  8
CSLAYER1
  6
CONTINUOUS
 62
     7
 10
623.743409
 20
2106.979547
 11
623.667254
 21
2107.340078
  0
LINE
  8
CSLAYER1
  6
CONTINUOUS
 62
     7
 10
623.667254
 20
2107.340078
 11
623.616245
 21
2107.692109
  0
LINE
  8
CSLAYER1
  6
CONTINUOUS
 62
     7
 10
623.616245
 20
2107.692109
 11
623.590770
 21
2108.032959
  0
LINE
  8
CSLAYER1
  6
CONTINUOUS
 62
     7
 10
623.590770
 20
2108.032959
 11
623.591024
 21
2108.360037
  0
LINE
  8
CSLAYER1
  6
CONTINUOUS
 62
     7
 10
623.591024
 20
2108.360037
 11
623.617004
 21
2108.670851
  0
LINE
  8
CSLAYER1
  6
CONTINUOUS
 62
     7
 10
623.617004
 20
2108.670851
 11
623.668513
 21
2108.963037
  0
LINE
  8
CSLAYER1
  6
CONTINUOUS
 62
     7
 10
623.668513
 20
2108.963037
 11
623.745158
 21
2109.234371
  0
LINE
  8
CSLAYER1
  6
CONTINUOUS
 62
     7
 10
623.745158
 20
2109.234371
 11
623.846357
 21
2109.482788
  0
LINE
  8
CSLAYER1
  6
CONTINUOUS
 62
     7
 10
623.846357
 20
2109.482788
 11
623.971339
 21
2109.706397
  0
LINE
  8
CSLAYER1
  6
CONTINUOUS
 62
     7
 10
623.971339
 20
2109.706397
 11
624.119152
 21
2109.903496
  0
LINE
  8
CSLAYER1
  6
CONTINUOUS
 62
     7
 10
624.119152
 20
2109.903496
 11
624.288673
 21
2110.072586
  0
LINE
  8
CSLAYER1
  6
CONTINUOUS
 62
     7
 10
624.288673
 20
2110.072586
 11
624.478610
 21
2110.212380
  0
LINE
  8
CSLAYER1
  6
CONTINUOUS
 62
     7
 10
690.487792
 20
2161.997714
 11
690.487792
 21
2125.368386
  0
LINE
  8
CSLAYER1
  6
CONTINUOUS
 62
     7
 10
688.664149
 20
2160.858176
 11
690.487792
 21
2161.997714
  0
LINE
  8
CSLAYER1
  6
CONTINUOUS
 62
     7
 10
688.664149
 20
2160.858176
 11
688.664149
 21
2126.032137
  0
LINE
  8
CSLAYER1
  6
CONTINUOUS
 62
     7
 10
688.664149
 20
2160.858176
 11
671.740661
 21
2167.017822
  0
LINE
  8
CSLAYER1
  6
CONTINUOUS
 62
     7
 10
766.714267
 20
2132.450256
 11
768.537909
 21
2133.589795
  0
LINE
  8
CSLAYER1
  6
CONTINUOUS
 62
     7
 10
766.714267
 20
2132.450256
 11
766.714267
 21
2115.715641
  0
LINE
  8
CSLAYER1
  6
CONTINUOUS
 62
     7
 10
677.227063
 20
2155.818809
 11
677.450894
 21
2155.936059
  0
LINE
  8
CSLAYER1
  6
CONTINUOUS
 62
     7
 10
677.450894
 20
2155.936059
 11
677.693347
 21
2156.019888
  0
LINE
  8
CSLAYER1
  6
CONTINUOUS
 62
     7
 10
677.693347
 20
2156.019888
 11
677.952578
 21
2156.069657
  0
LINE
  8
CSLAYER1
  6
CONTINUOUS
 62
     7
 10
677.952578
 20
2156.069657
 11
678.226614
 21
2156.084988
  0
LINE
  8
CSLAYER1
  6
CONTINUOUS
 62
     7
 10
678.226614
 20
2156.084988
 11
678.513369
 21
2156.065764
  0
LINE
  8
CSLAYER1
  6
CONTINUOUS
 62
     7
 10
678.513369
 20
2156.065764
 11
678.810661
 21
2156.012132
  0
LINE
  8
CSLAYER1
  6
CONTINUOUS
 62
     7
 10
678.810661
 20
2156.012132
 11
679.116227
 21
2155.924500
  0
LINE
  8
CSLAYER1
  6
CONTINUOUS
 62
     7
 10
679.116227
 20
2155.924500
 11
679.427742
 21
2155.803534
  0
LINE
  8
CSLAYER1
  6
CONTINUOUS
 62
     7
 10
679.427742
 20
2155.803534
 11
679.742834
 21
2155.650156
  0
LINE
  8
CSLAYER1
  6
CONTINUOUS
 62
     7
 10
679.742834
 20
2155.650156
 11
680.059106
 21
2155.465532
  0
LINE
  8
CSLAYER1
  6
CONTINUOUS
 62
     7
 10
680.059106
 20
2155.465532
 11
680.374152
 21
2155.251068
  0
LINE
  8
CSLAYER1
  6
CONTINUOUS
 62
     7
 10
680.374152
 20
2155.251068
 11
680.685572
 21
2155.008396
  0
LINE
  8
CSLAYER1
  6
CONTINUOUS
 62
     7
 10
680.685572
 20
2155.008396
 11
680.990997
 21
2154.739363
  0
LINE
  8
CSLAYER1
  6
CONTINUOUS
 62
     7
 10
680.990997
 20
2154.739363
 11
681.288103
 21
2154.446016
  0
LINE
  8
CSLAYER1
  6
CONTINUOUS
 62
     7
 10
681.288103
 20
2154.446016
 11
681.574628
 21
2154.130587
  0
LINE
  8
CSLAYER1
  6
CONTINUOUS
 62
     7
 10
681.574628
 20
2154.130587
 11
681.848392
 21
2153.795478
  0
LINE
  8
CSLAYER1
  6
CONTINUOUS
 62
     7
 10
681.848392
 20
2153.795478
 11
682.107311
 21
2153.443239
  0
LINE
  8
CSLAYER1
  6
CONTINUOUS
 62
     7
 10
682.107311
 20
2153.443239
 11
682.349415
 21
2153.076551
  0
LINE
  8
CSLAYER1
  6
CONTINUOUS
 62
     7
 10
682.349415
 20
2153.076551
 11
682.572861
 21
2152.698204
  0
LINE
  8
CSLAYER1
  6
CONTINUOUS
 62
     7
 10
682.572861
 20
2152.698204
 11
682.775949
 21
2152.311077
  0
LINE
  8
CSLAYER1
  6
CONTINUOUS
 62
     7
 10
682.775949
 20
2152.311077
 11
682.957132
 21
2151.918118
  0
LINE
  8
CSLAYER1
  6
CONTINUOUS
 62
     7
 10
682.957132
 20
2151.918118
 11
683.115033
 21
2151.522316
  0
LINE
  8
CSLAYER1
  6
CONTINUOUS
 62
     7
 10
683.115033
 20
2151.522316
 11
683.248449
 21
2151.126684
  0
LINE
  8
CSLAYER1
  6
CONTINUOUS
 62
     7
 10
683.248449
 20
2151.126684
 11
683.356365
 21
2150.734234
  0
LINE
  8
CSLAYER1
  6
CONTINUOUS
 62
     7
 10
683.356365
 20
2150.734234
 11
683.437960
 21
2150.347951
  0
LINE
  8
CSLAYER1
  6
CONTINUOUS
 62
     7
 10
683.437960
 20
2150.347951
 11
683.492612
 21
2149.970775
  0
LINE
  8
CSLAYER1
  6
CONTINUOUS
 62
     7
 10
683.492612
 20
2149.970775
 11
683.519906
 21
2149.605578
  0
LINE
  8
CSLAYER1
  6
CONTINUOUS
 62
     7
 10
683.519906
 20
2149.605578
 11
683.519634
 21
2149.255138
  0
LINE
  8
CSLAYER1
  6
CONTINUOUS
 62
     7
 10
683.519634
 20
2149.255138
 11
683.491798
 21
2148.922122
  0
LINE
  8
CSLAYER1
  6
CONTINUOUS
 62
     7
 10
683.491798
 20
2148.922122
 11
683.436610
 21
2148.609066
  0
LINE
  8
CSLAYER1
  6
CONTINUOUS
 62
     7
 10
683.436610
 20
2148.609066
 11
683.354490
 21
2148.318351
  0
LINE
  8
CSLAYER1
  6
CONTINUOUS
 62
     7
 10
683.354490
 20
2148.318351
 11
683.246063
 21
2148.052190
  0
LINE
  8
CSLAYER1
  6
CONTINUOUS
 62
     7
 10
683.246063
 20
2148.052190
 11
683.112154
 21
2147.812609
  0
LINE
  8
CSLAYER1
  6
CONTINUOUS
 62
     7
 10
683.112154
 20
2147.812609
 11
682.953783
 21
2147.601431
  0
LINE
  8
CSLAYER1
  6
CONTINUOUS
 62
     7
 10
682.953783
 20
2147.601431
 11
682.772153
 21
2147.420263
  0
LINE
  8
CSLAYER1
  6
CONTINUOUS
 62
     7
 10
682.772153
 20
2147.420263
 11
682.568649
 21
2147.270485
  0
LINE
  8
CSLAYER1
  6
CONTINUOUS
 62
     7
 10
682.568649
 20
2147.270485
 11
682.344819
 21
2147.153235
  0
LINE
  8
CSLAYER1
  6
CONTINUOUS
 62
     7
 10
682.344819
 20
2147.153235
 11
682.102365
 21
2147.069406
  0
LINE
  8
CSLAYER1
  6
CONTINUOUS
 62
     7
 10
682.102365
 20
2147.069406
 11
681.843134
 21
2147.019637
  0
LINE
  8
CSLAYER1
  6
CONTINUOUS
 62
     7
 10
681.843134
 20
2147.019637
 11
681.569098
 21
2147.004306
  0
LINE
  8
CSLAYER1
  6
CONTINUOUS
 62
     7
 10
681.569098
 20
2147.004306
 11
681.282343
 21
2147.023530
  0
LINE
  8
CSLAYER1
  6
CONTINUOUS
 62
     7
 10
681.282343
 20
2147.023530
 11
680.985051
 21
2147.077162
  0
LINE
  8
CSLAYER1
  6
CONTINUOUS
 62
     7
 10
680.985051
 20
2147.077162
 11
680.679485
 21
2147.164794
  0
LINE
  8
CSLAYER1
  6
CONTINUOUS
 62
     7
 10
680.679485
 20
2147.164794
 11
680.367971
 21
2147.285760
  0
LINE
  8
CSLAYER1
  6
CONTINUOUS
 62
     7
 10
680.367971
 20
2147.285760
 11
680.052878
 21
2147.439138
  0
LINE
  8
CSLAYER1
  6
CONTINUOUS
 62
     7
 10
680.052878
 20
2147.439138
 11
679.736606
 21
2147.623762
  0
LINE
  8
CSLAYER1
  6
CONTINUOUS
 62
     7
 10
679.736606
 20
2147.623762
 11
679.421561
 21
2147.838226
  0
LINE
  8
CSLAYER1
  6
CONTINUOUS
 62
     7
 10
679.421561
 20
2147.838226
 11
679.110140
 21
2148.080898
  0
LINE
  8
CSLAYER1
  6
CONTINUOUS
 62
     7
 10
679.110140
 20
2148.080898
 11
678.804715
 21
2148.349931
  0
LINE
  8
CSLAYER1
  6
CONTINUOUS
 62
     7
 10
678.804715
 20
2148.349931
 11
678.507609
 21
2148.643279
  0
LINE
  8
CSLAYER1
  6
CONTINUOUS
 62
     7
 10
678.507609
 20
2148.643279
 11
678.221084
 21
2148.958707
  0
LINE
  8
CSLAYER1
  6
CONTINUOUS
 62
     7
 10
678.221084
 20
2148.958707
 11
677.947320
 21
2149.293816
  0
LINE
  8
CSLAYER1
  6
CONTINUOUS
 62
     7
 10
677.947320
 20
2149.293816
 11
677.688401
 21
2149.646055
  0
LINE
  8
CSLAYER1
  6
CONTINUOUS
 62
     7
 10
677.688401
 20
2149.646055
 11
677.446297
 21
2150.012743
  0
LINE
  8
CSLAYER1
  6
CONTINUOUS
 62
     7
 10
677.446297
 20
2150.012743
 11
677.222851
 21
2150.391090
  0
LINE
  8
CSLAYER1
  6
CONTINUOUS
 62
     7
 10
677.222851
 20
2150.391090
 11
677.019764
 21
2150.778217
  0
LINE
  8
CSLAYER1
  6
CONTINUOUS
 62
     7
 10
677.019764
 20
2150.778217
 11
676.838580
 21
2151.171176
  0
LINE
  8
CSLAYER1
  6
CONTINUOUS
 62
     7
 10
676.838580
 20
2151.171176
 11
676.680679
 21
2151.566978
  0
LINE
  8
CSLAYER1
  6
CONTINUOUS
 62
     7
 10
676.680679
 20
2151.566978
 11
676.547263
 21
2151.962610
  0
LINE
  8
CSLAYER1
  6
CONTINUOUS
 62
     7
 10
676.547263
 20
2151.962610
 11
676.439347
 21
2152.355060
  0
LINE
  8
CSLAYER1
  6
CONTINUOUS
 62
     7
 10
676.439347
 20
2152.355060
 11
676.357753
 21
2152.741344
  0
LINE
  8
CSLAYER1
  6
CONTINUOUS
 62
     7
 10
676.357753
 20
2152.741344
 11
676.303100
 21
2153.118519
  0
LINE
  8
CSLAYER1
  6
CONTINUOUS
 62
     7
 10
676.303100
 20
2153.118519
 11
676.275806
 21
2153.483717
  0
LINE
  8
CSLAYER1
  6
CONTINUOUS
 62
     7
 10
676.275806
 20
2153.483717
 11
676.276078
 21
2153.834157
  0
LINE
  8
CSLAYER1
  6
CONTINUOUS
 62
     7
 10
676.276078
 20
2153.834157
 11
676.303914
 21
2154.167172
  0
LINE
  8
CSLAYER1
  6
CONTINUOUS
 62
     7
 10
676.303914
 20
2154.167172
 11
676.359102
 21
2154.480228
  0
LINE
  8
CSLAYER1
  6
CONTINUOUS
 62
     7
 10
676.359102
 20
2154.480228
 11
676.441222
 21
2154.770943
  0
LINE
  8
CSLAYER1
  6
CONTINUOUS
 62
     7
 10
676.441222
 20
2154.770943
 11
676.549649
 21
2155.037104
  0
LINE
  8
CSLAYER1
  6
CONTINUOUS
 62
     7
 10
676.549649
 20
2155.037104
 11
676.683558
 21
2155.276685
  0
LINE
  8
CSLAYER1
  6
CONTINUOUS
 62
     7
 10
676.683558
 20
2155.276685
 11
676.841930
 21
2155.487863
  0
LINE
  8
CSLAYER1
  6
CONTINUOUS
 62
     7
 10
676.841930
 20
2155.487863
 11
677.023559
 21
2155.669031
  0
LINE
  8
CSLAYER1
  6
CONTINUOUS
 62
     7
 10
677.023559
 20
2155.669031
 11
677.227063
 21
2155.818809
  0
LINE
  8
CSLAYER1
  6
CONTINUOUS
 62
     7
 10
677.227063
 20
2155.818809
 11
679.678622
 21
2157.350713
  0
LINE
  8
CSLAYER1
  6
CONTINUOUS
 62
     7
 10
682.568649
 20
2147.270485
 11
685.020208
 21
2148.802389
  0
LINE
  8
CSLAYER1
  6
CONTINUOUS
 62
     7
 10
680.685572
 20
2155.008396
 11
683.137131
 21
2156.540300
  0
LINE
  8
CSLAYER1
  6
CONTINUOUS
 62
     7
 10
683.228876
 20
2151.184727
 11
685.680434
 21
2152.716631
  0
LINE
  8
CSLAYER1
  6
CONTINUOUS
 62
     7
 10
679.678622
 20
2157.350713
 11
679.902452
 21
2157.467963
  0
LINE
  8
CSLAYER1
  6
CONTINUOUS
 62
     7
 10
679.902452
 20
2157.467963
 11
680.144906
 21
2157.551792
  0
LINE
  8
CSLAYER1
  6
CONTINUOUS
 62
     7
 10
680.144906
 20
2157.551792
 11
680.404137
 21
2157.601561
  0
LINE
  8
CSLAYER1
  6
CONTINUOUS
 62
     7
 10
680.404137
 20
2157.601561
 11
680.678173
 21
2157.616892
  0
LINE
  8
CSLAYER1
  6
CONTINUOUS
 62
     7
 10
680.678173
 20
2157.616892
 11
680.964928
 21
2157.597668
  0
LINE
  8
CSLAYER1
  6
CONTINUOUS
 62
     7
 10
680.964928
 20
2157.597668
 11
681.262220
 21
2157.544036
  0
LINE
  8
CSLAYER1
  6
CONTINUOUS
 62
     7
 10
681.262220
 20
2157.544036
 11
681.567786
 21
2157.456404
  0
LINE
  8
CSLAYER1
  6
CONTINUOUS
 62
     7
 10
681.567786
 20
2157.456404
 11
681.879300
 21
2157.335438
  0
LINE
  8
CSLAYER1
  6
CONTINUOUS
 62
     7
 10
681.879300
 20
2157.335438
 11
682.194393
 21
2157.182060
  0
LINE
  8
CSLAYER1
  6
CONTINUOUS
 62
     7
 10
682.194393
 20
2157.182060
 11
682.510665
 21
2156.997436
  0
LINE
  8
CSLAYER1
  6
CONTINUOUS
 62
     7
 10
682.510665
 20
2156.997436
 11
682.825710
 21
2156.782972
  0
LINE
  8
CSLAYER1
  6
CONTINUOUS
 62
     7
 10
682.825710
 20
2156.782972
 11
683.137131
 21
2156.540300
  0
LINE
  8
CSLAYER1
  6
CONTINUOUS
 62
     7
 10
683.137131
 20
2156.540300
 11
683.442556
 21
2156.271267
  0
LINE
  8
CSLAYER1
  6
CONTINUOUS
 62
     7
 10
683.442556
 20
2156.271267
 11
683.739662
 21
2155.977920
  0
LINE
  8
CSLAYER1
  6
CONTINUOUS
 62
     7
 10
683.739662
 20
2155.977920
 11
684.026187
 21
2155.662491
  0
LINE
  8
CSLAYER1
  6
CONTINUOUS
 62
     7
 10
684.026187
 20
2155.662491
 11
684.299951
 21
2155.327382
  0
LINE
  8
CSLAYER1
  6
CONTINUOUS
 62
     7
 10
684.299951
 20
2155.327382
 11
684.558870
 21
2154.975143
  0
LINE
  8
CSLAYER1
  6
CONTINUOUS
 62
     7
 10
684.558870
 20
2154.975143
 11
684.800974
 21
2154.608455
  0
LINE
  8
CSLAYER1
  6
CONTINUOUS
 62
     7
 10
684.800974
 20
2154.608455
 11
685.024420
 21
2154.230108
  0
LINE
  8
CSLAYER1
  6
CONTINUOUS
 62
     7
 10
685.024420
 20
2154.230108
 11
685.227507
 21
2153.842981
  0
LINE
  8
CSLAYER1
  6
CONTINUOUS
 62
     7
 10
685.227507
 20
2153.842981
 11
685.408691
 21
2153.450022
  0
LINE
  8
CSLAYER1
  6
CONTINUOUS
 62
     7
 10
685.408691
 20
2153.450022
 11
685.566592
 21
2153.054220
  0
LINE
  8
CSLAYER1
  6
CONTINUOUS
 62
     7
 10
685.566592
 20
2153.054220
 11
685.700008
 21
2152.658588
  0
LINE
  8
CSLAYER1
  6
CONTINUOUS
 62
     7
 10
685.700008
 20
2152.658588
 11
685.807924
 21
2152.266138
  0
LINE
  8
CSLAYER1
  6
CONTINUOUS
 62
     7
 10
685.807924
 20
2152.266138
 11
685.889518
 21
2151.879854
  0
LINE
  8
CSLAYER1
  6
CONTINUOUS
 62
     7
 10
685.889518
 20
2151.879854
 11
685.944171
 21
2151.502679
  0
LINE
  8
CSLAYER1
  6
CONTINUOUS
 62
     7
 10
685.944171
 20
2151.502679
 11
685.971465
 21
2151.137482
  0
LINE
  8
CSLAYER1
  6
CONTINUOUS
 62
     7
 10
685.971465
 20
2151.137482
 11
685.971193
 21
2150.787042
  0
LINE
  8
CSLAYER1
  6
CONTINUOUS
 62
     7
 10
685.971193
 20
2150.787042
 11
685.943357
 21
2150.454026
  0
LINE
  8
CSLAYER1
  6
CONTINUOUS
 62
     7
 10
685.943357
 20
2150.454026
 11
685.888169
 21
2150.140970
  0
LINE
  8
CSLAYER1
  6
CONTINUOUS
 62
     7
 10
685.888169
 20
2150.140970
 11
685.806049
 21
2149.850255
  0
LINE
  8
CSLAYER1
  6
CONTINUOUS
 62
     7
 10
685.806049
 20
2149.850255
 11
685.697622
 21
2149.584094
  0
LINE
  8
CSLAYER1
  6
CONTINUOUS
 62
     7
 10
685.697622
 20
2149.584094
 11
685.563713
 21
2149.344513
  0
LINE
  8
CSLAYER1
  6
CONTINUOUS
 62
     7
 10
685.563713
 20
2149.344513
 11
685.405341
 21
2149.133335
  0
LINE
  8
CSLAYER1
  6
CONTINUOUS
 62
     7
 10
685.405341
 20
2149.133335
 11
685.223712
 21
2148.952167
  0
LINE
  8
CSLAYER1
  6
CONTINUOUS
 62
     7
 10
685.223712
 20
2148.952167
 11
685.020208
 21
2148.802389
  0
LINE
  8
CSLAYER1
  6
CONTINUOUS
 62
     7
 10
767.906649
 20
2122.814139
 11
770.358208
 21
2124.346043
  0
LINE
  8
CSLAYER1
  6
CONTINUOUS
 62
     7
 10
771.365158
 20
2122.003726
 11
773.816717
 21
2123.535630
  0
LINE
  8
CSLAYER1
  6
CONTINUOUS
 62
     7
 10
773.908462
 20
2118.180057
 11
776.360021
 21
2119.711961
  0
LINE
  8
CSLAYER1
  6
CONTINUOUS
 62
     7
 10
770.358208
 20
2124.346043
 11
770.582039
 21
2124.463293
  0
LINE
  8
CSLAYER1
  6
CONTINUOUS
 62
     7
 10
770.582039
 20
2124.463293
 11
770.824492
 21
2124.547121
  0
LINE
  8
CSLAYER1
  6
CONTINUOUS
 62
     7
 10
770.824492
 20
2124.547121
 11
771.083723
 21
2124.596891
  0
LINE
  8
CSLAYER1
  6
CONTINUOUS
 62
     7
 10
771.083723
 20
2124.596891
 11
771.357759
 21
2124.612222
  0
LINE
  8
CSLAYER1
  6
CONTINUOUS
 62
     7
 10
771.357759
 20
2124.612222
 11
771.644514
 21
2124.592998
  0
LINE
  8
CSLAYER1
  6
CONTINUOUS
 62
     7
 10
771.644514
 20
2124.592998
 11
771.941806
 21
2124.539366
  0
LINE
  8
CSLAYER1
  6
CONTINUOUS
 62
     7
 10
771.941806
 20
2124.539366
 11
772.247372
 21
2124.451734
  0
LINE
  8
CSLAYER1
  6
CONTINUOUS
 62
     7
 10
772.247372
 20
2124.451734
 11
772.558887
 21
2124.330768
  0
LINE
  8
CSLAYER1
  6
CONTINUOUS
 62
     7
 10
772.558887
 20
2124.330768
 11
772.873979
 21
2124.177390
  0
LINE
  8
CSLAYER1
  6
CONTINUOUS
 62
     7
 10
772.873979
 20
2124.177390
 11
773.190251
 21
2123.992766
  0
LINE
  8
CSLAYER1
  6
CONTINUOUS
 62
     7
 10
773.190251
 20
2123.992766
 11
773.505297
 21
2123.778302
  0
LINE
  8
CSLAYER1
  6
CONTINUOUS
 62
     7
 10
773.505297
 20
2123.778302
 11
773.816717
 21
2123.535630
  0
LINE
  8
CSLAYER1
  6
CONTINUOUS
 62
     7
 10
773.816717
 20
2123.535630
 11
774.122142
 21
2123.266596
  0
LINE
  8
CSLAYER1
  6
CONTINUOUS
 62
     7
 10
774.122142
 20
2123.266596
 11
774.419248
 21
2122.973249
  0
LINE
  8
CSLAYER1
  6
CONTINUOUS
 62
     7
 10
774.419248
 20
2122.973249
 11
774.705773
 21
2122.657821
  0
LINE
  8
CSLAYER1
  6
CONTINUOUS
 62
     7
 10
774.705773
 20
2122.657821
 11
774.979537
 21
2122.322712
  0
LINE
  8
CSLAYER1
  6
CONTINUOUS
 62
     7
 10
774.979537
 20
2122.322712
 11
775.238456
 21
2121.970473
  0
LINE
  8
CSLAYER1
  6
CONTINUOUS
 62
     7
 10
775.238456
 20
2121.970473
 11
775.480560
 21
2121.603785
  0
LINE
  8
CSLAYER1
  6
CONTINUOUS
 62
     7
 10
775.480560
 20
2121.603785
 11
775.657582
 21
2121.304045
  0
LINE
  8
CSLAYER1
  6
CONTINUOUS
 62
     7
 10
767.906649
 20
2122.814139
 11
768.130480
 21
2122.931389
  0
LINE
  8
CSLAYER1
  6
CONTINUOUS
 62
     7
 10
768.130480
 20
2122.931389
 11
768.372933
 21
2123.015217
  0
LINE
  8
CSLAYER1
  6
CONTINUOUS
 62
     7
 10
768.372933
 20
2123.015217
 11
768.632164
 21
2123.064987
  0
LINE
  8
CSLAYER1
  6
CONTINUOUS
 62
     7
 10
768.632164
 20
2123.064987
 11
768.906200
 21
2123.080318
  0
LINE
  8
CSLAYER1
  6
CONTINUOUS
 62
     7
 10
768.906200
 20
2123.080318
 11
769.192955
 21
2123.061094
  0
LINE
  8
CSLAYER1
  6
CONTINUOUS
 62
     7
 10
769.192955
 20
2123.061094
 11
769.490247
 21
2123.007462
  0
LINE
  8
CSLAYER1
  6
CONTINUOUS
 62
     7
 10
769.490247
 20
2123.007462
 11
769.795813
 21
2122.919830
  0
LINE
  8
CSLAYER1
  6
CONTINUOUS
 62
     7
 10
769.795813
 20
2122.919830
 11
770.107328
 21
2122.798864
  0
LINE
  8
CSLAYER1
  6
CONTINUOUS
 62
     7
 10
770.107328
 20
2122.798864
 11
770.422420
 21
2122.645486
  0
LINE
  8
CSLAYER1
  6
CONTINUOUS
 62
     7
 10
770.422420
 20
2122.645486
 11
770.738693
 21
2122.460862
  0
LINE
  8
CSLAYER1
  6
CONTINUOUS
 62
     7
 10
770.738693
 20
2122.460862
 11
771.053738
 21
2122.246398
  0
LINE
  8
CSLAYER1
  6
CONTINUOUS
 62
     7
 10
771.053738
 20
2122.246398
 11
771.365158
 21
2122.003726
  0
LINE
  8
CSLAYER1
  6
CONTINUOUS
 62
     7
 10
771.365158
 20
2122.003726
 11
771.670583
 21
2121.734692
  0
LINE
  8
CSLAYER1
  6
CONTINUOUS
 62
     7
 10
771.670583
 20
2121.734692
 11
771.967689
 21
2121.441345
  0
LINE
  8
CSLAYER1
  6
CONTINUOUS
 62
     7
 10
771.967689
 20
2121.441345
 11
772.254214
 21
2121.125917
  0
LINE
  8
CSLAYER1
  6
CONTINUOUS
 62
     7
 10
772.254214
 20
2121.125917
 11
772.527978
 21
2120.790808
  0
LINE
  8
CSLAYER1
  6
CONTINUOUS
 62
     7
 10
772.527978
 20
2120.790808
 11
772.786897
 21
2120.438569
  0
LINE
  8
CSLAYER1
  6
CONTINUOUS
 62
     7
 10
772.786897
 20
2120.438569
 11
773.029001
 21
2120.071881
  0
LINE
  8
CSLAYER1
  6
CONTINUOUS
 62
     7
 10
773.029001
 20
2120.071881
 11
773.206023
 21
2119.772141
  0
LINE
  8
CSLAYER1
  6
CONTINUOUS
 62
     7
 10
768.317687
 20
2116.717569
 11
768.125883
 21
2117.008073
  0
LINE
  8
CSLAYER1
  6
CONTINUOUS
 62
     7
 10
768.125883
 20
2117.008073
 11
767.902437
 21
2117.386420
  0
LINE
  8
CSLAYER1
  6
CONTINUOUS
 62
     7
 10
767.902437
 20
2117.386420
 11
767.699350
 21
2117.773546
  0
LINE
  8
CSLAYER1
  6
CONTINUOUS
 62
     7
 10
767.699350
 20
2117.773546
 11
767.518166
 21
2118.166506
  0
LINE
  8
CSLAYER1
  6
CONTINUOUS
 62
     7
 10
767.518166
 20
2118.166506
 11
767.360265
 21
2118.562308
  0
LINE
  8
CSLAYER1
  6
CONTINUOUS
 62
     7
 10
767.360265
 20
2118.562308
 11
767.226849
 21
2118.957939
  0
LINE
  8
CSLAYER1
  6
CONTINUOUS
 62
     7
 10
767.226849
 20
2118.957939
 11
767.118934
 21
2119.350390
  0
LINE
  8
CSLAYER1
  6
CONTINUOUS
 62
     7
 10
767.118934
 20
2119.350390
 11
767.037339
 21
2119.736673
  0
LINE
  8
CSLAYER1
  6
CONTINUOUS
 62
     7
 10
767.037339
 20
2119.736673
 11
766.982687
 21
2120.113849
  0
LINE
  8
CSLAYER1
  6
CONTINUOUS
 62
     7
 10
766.982687
 20
2120.113849
 11
766.955392
 21
2120.479046
  0
LINE
  8
CSLAYER1
  6
CONTINUOUS
 62
     7
 10
766.955392
 20
2120.479046
 11
766.955664
 21
2120.829486
  0
LINE
  8
CSLAYER1
  6
CONTINUOUS
 62
     7
 10
766.955664
 20
2120.829486
 11
766.983500
 21
2121.162502
  0
LINE
  8
CSLAYER1
  6
CONTINUOUS
 62
     7
 10
766.983500
 20
2121.162502
 11
767.038688
 21
2121.475558
  0
LINE
  8
CSLAYER1
  6
CONTINUOUS
 62
     7
 10
767.038688
 20
2121.475558
 11
767.120808
 21
2121.766273
  0
LINE
  8
CSLAYER1
  6
CONTINUOUS
 62
     7
 10
767.120808
 20
2121.766273
 11
767.229235
 21
2122.032434
  0
LINE
  8
CSLAYER1
  6
CONTINUOUS
 62
     7
 10
767.229235
 20
2122.032434
 11
767.363144
 21
2122.272015
  0
LINE
  8
CSLAYER1
  6
CONTINUOUS
 62
     7
 10
767.363144
 20
2122.272015
 11
767.521516
 21
2122.483193
  0
LINE
  8
CSLAYER1
  6
CONTINUOUS
 62
     7
 10
767.521516
 20
2122.483193
 11
767.703145
 21
2122.664361
  0
LINE
  8
CSLAYER1
  6
CONTINUOUS
 62
     7
 10
767.703145
 20
2122.664361
 11
767.906649
 21
2122.814139
  0
ARC
  8
CSLAYER1
  6
CONTINUOUS
 62
     7
 10
611.897705
 20
2121.699714
 40
6.720000
 50
122.000000
 51
180.000000
  0
ARC
  8
CSLAYER1
  6
CONTINUOUS
 62
     7
 10
609.876990
 20
2122.435194
 40
6.720000
 50
122.000000
 51
180.000000
  0
ARC
  8
CSLAYER1
  6
CONTINUOUS
 62
     7
 10
608.537705
 20
2057.566271
 40
3.360000
 50
256.943959
 51
302.000000
  0
ARC
  8
CSLAYER1
  6
CONTINUOUS
 62
     7
 10
606.268967
 20
2057.847078
 40
3.360000
 50
202.152506
 51
217.167534
  0
LINE
  8
CSLAYER1
  6
CONTINUOUS
 62
     7
 10
607.778668
 20
2054.293128
 11
603.591476
 21
2055.817142
  0
ARC
  8
CSLAYER1
  6
CONTINUOUS
 62
     7
 10
722.455514
 20
2082.099501
 40
3.360000
 50
122.000000
 51
180.000000
  0
ARC
  8
CSLAYER1
  6
CONTINUOUS
 62
     7
 10
720.434799
 20
2082.834981
 40
3.360000
 50
122.000000
 51
180.000000
  0
ARC
  8
CSLAYER1
  6
CONTINUOUS
 62
     7
 10
722.455514
 20
2016.103579
 40
3.360000
 50
180.000000
 51
302.000000
  0
ARC
  8
CSLAYER1
  6
CONTINUOUS
 62
     7
 10
720.325802
 20
2016.598096
 40
3.360000
 50
194.633804
 51
226.715114
  0
LINE
  8
CSLAYER1
  6
CONTINUOUS
 62
     7
 10
642.852100
 20
2150.964408
 11
671.543589
 21
2168.892840
  0
LINE
  8
CSLAYER1
  6
CONTINUOUS
 62
     7
 10
611.425069
 20
2055.408457
 11
608.027147
 21
2056.645199
  0
ARC
  8
CSLAYER1
  6
CONTINUOUS
 62
     7
 10
608.537705
 20
2057.566271
 40
3.360000
 50
180.000000
 51
256.943959
  0
LINE
  8
CSLAYER1
  6
CONTINUOUS
 62
     7
 10
642.852100
 20
2001.177199
 11
642.852100
 21
1984.907618
  0
LINE
  8
CSLAYER1
  6
CONTINUOUS
 62
     7
 10
398.581173
 20
1905.639025
 11
399.019143
 21
1905.761696
  0
LINE
  8
CSLAYER1
  6
CONTINUOUS
 62
     7
 10
399.019143
 20
1905.761696
 11
399.477395
 21
1905.818554
  0
LINE
  8
CSLAYER1
  6
CONTINUOUS
 62
     7
 10
399.477395
 20
1905.818554
 11
399.952440
 21
1905.809166
  0
LINE
  8
CSLAYER1
  6
CONTINUOUS
 62
     7
 10
399.952440
 20
1905.809166
 11
400.440663
 21
1905.733604
  0
LINE
  8
CSLAYER1
  6
CONTINUOUS
 62
     7
 10
400.440663
 20
1905.733604
 11
400.938348
 21
1905.592442
  0
LINE
  8
CSLAYER1
  6
CONTINUOUS
 62
     7
 10
400.938348
 20
1905.592442
 11
401.441708
 21
1905.386755
  0
LINE
  8
CSLAYER1
  6
CONTINUOUS
 62
     7
 10
401.441708
 20
1905.386755
 11
401.946912
 21
1905.118108
  0
LINE
  8
CSLAYER1
  6
CONTINUOUS
 62
     7
 10
401.946912
 20
1905.118108
 11
402.450115
 21
1904.788547
  0
LINE
  8
CSLAYER1
  6
CONTINUOUS
 62
     7
 10
402.450115
 20
1904.788547
 11
402.947487
 21
1904.400578
  0
LINE
  8
CSLAYER1
  6
CONTINUOUS
 62
     7
 10
402.947487
 20
1904.400578
 11
403.435244
 21
1903.957155
  0
LINE
  8
CSLAYER1
  6
CONTINUOUS
 62
     7
 10
403.435244
 20
1903.957155
 11
403.909671
 21
1903.461653
  0
LINE
  8
CSLAYER1
  6
CONTINUOUS
 62
     7
 10
403.909671
 20
1903.461653
 11
404.367161
 21
1902.917842
  0
LINE
  8
CSLAYER1
  6
CONTINUOUS
 62
     7
 10
404.367161
 20
1902.917842
 11
404.804229
 21
1902.329862
  0
LINE
  8
CSLAYER1
  6
CONTINUOUS
 62
     7
 10
404.804229
 20
1902.329862
 11
405.217550
 21
1901.702187
  0
LINE
  8
CSLAYER1
  6
CONTINUOUS
 62
     7
 10
405.217550
 20
1901.702187
 11
405.603979
 21
1901.039593
  0
LINE
  8
CSLAYER1
  6
CONTINUOUS
 62
     7
 10
405.603979
 20
1901.039593
 11
405.960574
 21
1900.347125
  0
LINE
  8
CSLAYER1
  6
CONTINUOUS
 62
     7
 10
405.960574
 20
1900.347125
 11
406.284622
 21
1899.630052
  0
LINE
  8
CSLAYER1
  6
CONTINUOUS
 62
     7
 10
406.284622
 20
1899.630052
 11
406.573656
 21
1898.893831
  0
LINE
  8
CSLAYER1
  6
CONTINUOUS
 62
     7
 10
406.573656
 20
1898.893831
 11
406.825477
 21
1898.144065
  0
LINE
  8
CSLAYER1
  6
CONTINUOUS
 62
     7
 10
406.825477
 20
1898.144065
 11
407.038168
 21
1897.386461
  0
LINE
  8
CSLAYER1
  6
CONTINUOUS
 62
     7
 10
407.038168
 20
1897.386461
 11
407.210110
 21
1896.626785
  0
LINE
  8
CSLAYER1
  6
CONTINUOUS
 62
     7
 10
407.210110
 20
1896.626785
 11
407.339995
 21
1895.870817
  0
LINE
  8
CSLAYER1
  6
CONTINUOUS
 62
     7
 10
407.339995
 20
1895.870817
 11
407.426835
 21
1895.124312
  0
LINE
  8
CSLAYER1
  6
CONTINUOUS
 62
     7
 10
407.426835
 20
1895.124312
 11
407.469967
 21
1894.392951
  0
LINE
  8
CSLAYER1
  6
CONTINUOUS
 62
     7
 10
407.469967
 20
1894.392951
 11
407.469065
 21
1893.682299
  0
LINE
  8
CSLAYER1
  6
CONTINUOUS
 62
     7
 10
407.469065
 20
1893.682299
 11
407.424135
 21
1892.997766
  0
LINE
  8
CSLAYER1
  6
CONTINUOUS
 62
     7
 10
407.424135
 20
1892.997766
 11
407.335519
 21
1892.344561
  0
LINE
  8
CSLAYER1
  6
CONTINUOUS
 62
     7
 10
407.335519
 20
1892.344561
 11
407.203891
 21
1891.727655
  0
LINE
  8
CSLAYER1
  6
CONTINUOUS
 62
     7
 10
407.203891
 20
1891.727655
 11
407.030253
 21
1891.151744
  0
LINE
  8
CSLAYER1
  6
CONTINUOUS
 62
     7
 10
407.030253
 20
1891.151744
 11
406.815927
 21
1890.621210
  0
LINE
  8
CSLAYER1
  6
CONTINUOUS
 62
     7
 10
406.815927
 20
1890.621210
 11
406.562544
 21
1890.140091
  0
LINE
  8
CSLAYER1
  6
CONTINUOUS
 62
     7
 10
406.562544
 20
1890.140091
 11
406.272032
 21
1889.712049
  0
LINE
  8
CSLAYER1
  6
CONTINUOUS
 62
     7
 10
406.272032
 20
1889.712049
 11
405.946602
 21
1889.340341
  0
LINE
  8
CSLAYER1
  6
CONTINUOUS
 62
     7
 10
405.946602
 20
1889.340341
 11
405.588731
 21
1889.027796
  0
LINE
  8
CSLAYER1
  6
CONTINUOUS
 62
     7
 10
405.588731
 20
1889.027796
 11
405.201143
 21
1888.776793
  0
LINE
  8
CSLAYER1
  6
CONTINUOUS
 62
     7
 10
405.201143
 20
1888.776793
 11
404.786786
 21
1888.589242
  0
LINE
  8
CSLAYER1
  6
CONTINUOUS
 62
     7
 10
404.786786
 20
1888.589242
 11
404.348816
 21
1888.466571
  0
LINE
  8
CSLAYER1
  6
CONTINUOUS
 62
     7
 10
404.348816
 20
1888.466571
 11
403.890564
 21
1888.409714
  0
LINE
  8
CSLAYER1
  6
CONTINUOUS
 62
     7
 10
403.890564
 20
1888.409714
 11
403.415519
 21
1888.419102
  0
LINE
  8
CSLAYER1
  6
CONTINUOUS
 62
     7
 10
403.415519
 20
1888.419102
 11
402.927296
 21
1888.494664
  0
LINE
  8
CSLAYER1
  6
CONTINUOUS
 62
     7
 10
402.927296
 20
1888.494664
 11
402.429611
 21
1888.635826
  0
LINE
  8
CSLAYER1
  6
CONTINUOUS
 62
     7
 10
402.429611
 20
1888.635826
 11
401.926251
 21
1888.841513
  0
LINE
  8
CSLAYER1
  6
CONTINUOUS
 62
     7
 10
401.926251
 20
1888.841513
 11
401.421047
 21
1889.110160
  0
LINE
  8
CSLAYER1
  6
CONTINUOUS
 62
     7
 10
401.421047
 20
1889.110160
 11
400.917844
 21
1889.439721
  0
LINE
  8
CSLAYER1
  6
CONTINUOUS
 62
     7
 10
400.917844
 20
1889.439721
 11
400.420472
 21
1889.827690
  0
LINE
  8
CSLAYER1
  6
CONTINUOUS
 62
     7
 10
400.420472
 20
1889.827690
 11
399.932715
 21
1890.271112
  0
LINE
  8
CSLAYER1
  6
CONTINUOUS
 62
     7
 10
399.932715
 20
1890.271112
 11
399.458288
 21
1890.766615
  0
LINE
  8
CSLAYER1
  6
CONTINUOUS
 62
     7
 10
399.458288
 20
1890.766615
 11
399.000799
 21
1891.310426
  0
LINE
  8
CSLAYER1
  6
CONTINUOUS
 62
     7
 10
399.000799
 20
1891.310426
 11
398.563730
 21
1891.898406
  0
LINE
  8
CSLAYER1
  6
CONTINUOUS
 62
     7
 10
398.563730
 20
1891.898406
 11
398.150409
 21
1892.526081
  0
LINE
  8
CSLAYER1
  6
CONTINUOUS
 62
     7
 10
398.150409
 20
1892.526081
 11
397.763980
 21
1893.188675
  0
LINE
  8
CSLAYER1
  6
CONTINUOUS
 62
     7
 10
397.763980
 20
1893.188675
 11
397.407385
 21
1893.881143
  0
LINE
  8
CSLAYER1
  6
CONTINUOUS
 62
     7
 10
397.407385
 20
1893.881143
 11
397.083337
 21
1894.598216
  0
LINE
  8
CSLAYER1
  6
CONTINUOUS
 62
     7
 10
397.083337
 20
1894.598216
 11
396.794303
 21
1895.334437
  0
LINE
  8
CSLAYER1
  6
CONTINUOUS
 62
     7
 10
396.794303
 20
1895.334437
 11
396.542482
 21
1896.084203
  0
LINE
  8
CSLAYER1
  6
CONTINUOUS
 62
     7
 10
396.542482
 20
1896.084203
 11
396.329791
 21
1896.841807
  0
LINE
  8
CSLAYER1
  6
CONTINUOUS
 62
     7
 10
396.329791
 20
1896.841807
 11
396.157849
 21
1897.601483
  0
LINE
  8
CSLAYER1
  6
CONTINUOUS
 62
     7
 10
396.157849
 20
1897.601483
 11
396.027964
 21
1898.357451
  0
LINE
  8
CSLAYER1
  6
CONTINUOUS
 62
     7
 10
396.027964
 20
1898.357451
 11
395.941125
 21
1899.103956
  0
LINE
  8
CSLAYER1
  6
CONTINUOUS
 62
     7
 10
395.941125
 20
1899.103956
 11
395.897992
 21
1899.835317
  0
LINE
  8
CSLAYER1
  6
CONTINUOUS
 62
     7
 10
395.897992
 20
1899.835317
 11
395.898894
 21
1900.545969
  0
LINE
  8
CSLAYER1
  6
CONTINUOUS
 62
     7
 10
395.898894
 20
1900.545969
 11
395.943824
 21
1901.230502
  0
LINE
  8
CSLAYER1
  6
CONTINUOUS
 62
     7
 10
395.943824
 20
1901.230502
 11
396.032440
 21
1901.883707
  0
LINE
  8
CSLAYER1
  6
CONTINUOUS
 62
     7
 10
396.032440
 20
1901.883707
 11
396.164068
 21
1902.500613
  0
LINE
  8
CSLAYER1
  6
CONTINUOUS
 62
     7
 10
396.164068
 20
1902.500613
 11
396.337706
 21
1903.076524
  0
LINE
  8
CSLAYER1
  6
CONTINUOUS
 62
     7
 10
396.337706
 20
1903.076524
 11
396.552032
 21
1903.607058
  0
LINE
  8
CSLAYER1
  6
CONTINUOUS
 62
     7
 10
396.552032
 20
1903.607058
 11
396.805415
 21
1904.088177
  0
LINE
  8
CSLAYER1
  6
CONTINUOUS
 62
     7
 10
396.805415
 20
1904.088177
 11
397.095927
 21
1904.516219
  0
LINE
  8
CSLAYER1
  6
CONTINUOUS
 62
     7
 10
397.095927
 20
1904.516219
 11
397.421357
 21
1904.887927
  0
LINE
  8
CSLAYER1
  6
CONTINUOUS
 62
     7
 10
397.421357
 20
1904.887927
 11
397.779228
 21
1905.200472
  0
LINE
  8
CSLAYER1
  6
CONTINUOUS
 62
     7
 10
397.779228
 20
1905.200472
 11
398.166816
 21
1905.451475
  0
LINE
  8
CSLAYER1
  6
CONTINUOUS
 62
     7
 10
398.166816
 20
1905.451475
 11
398.581173
 21
1905.639025
  0
LINE
  8
CSLAYER1
  6
CONTINUOUS
 62
     7
 10
398.581173
 20
1905.639025
 11
454.096830
 21
1926.315012
  0
LINE
  8
CSLAYER1
  6
CONTINUOUS
 62
     7
 10
404.786786
 20
1888.589242
 11
460.302443
 21
1909.265229
  0
LINE
  8
CSLAYER1
  6
CONTINUOUS
 62
     7
 10
454.096830
 20
1926.315012
 11
454.534800
 21
1926.437683
  0
LINE
  8
CSLAYER1
  6
CONTINUOUS
 62
     7
 10
454.534800
 20
1926.437683
 11
454.993052
 21
1926.494541
  0
LINE
  8
CSLAYER1
  6
CONTINUOUS
 62
     7
 10
454.993052
 20
1926.494541
 11
455.468097
 21
1926.485153
  0
LINE
  8
CSLAYER1
  6
CONTINUOUS
 62
     7
 10
455.468097
 20
1926.485153
 11
455.956320
 21
1926.409590
  0
LINE
  8
CSLAYER1
  6
CONTINUOUS
 62
     7
 10
455.956320
 20
1926.409590
 11
456.454005
 21
1926.268429
  0
LINE
  8
CSLAYER1
  6
CONTINUOUS
 62
     7
 10
456.454005
 20
1926.268429
 11
456.957366
 21
1926.062742
  0
LINE
  8
CSLAYER1
  6
CONTINUOUS
 62
     7
 10
456.957366
 20
1926.062742
 11
457.462570
 21
1925.794095
  0
LINE
  8
CSLAYER1
  6
CONTINUOUS
 62
     7
 10
457.462570
 20
1925.794095
 11
457.965772
 21
1925.464533
  0
LINE
  8
CSLAYER1
  6
CONTINUOUS
 62
     7
 10
457.965772
 20
1925.464533
 11
458.463145
 21
1925.076565
  0
LINE
  8
CSLAYER1
  6
CONTINUOUS
 62
     7
 10
458.463145
 20
1925.076565
 11
458.950901
 21
1924.633142
  0
LINE
  8
CSLAYER1
  6
CONTINUOUS
 62
     7
 10
458.950901
 20
1924.633142
 11
459.425329
 21
1924.137640
  0
LINE
  8
CSLAYER1
  6
CONTINUOUS
 62
     7
 10
459.425329
 20
1924.137640
 11
459.882818
 21
1923.593829
  0
LINE
  8
CSLAYER1
  6
CONTINUOUS
 62
     7
 10
459.882818
 20
1923.593829
 11
460.319886
 21
1923.005849
  0
LINE
  8
CSLAYER1
  6
CONTINUOUS
 62
     7
 10
460.319886
 20
1923.005849
 11
460.733207
 21
1922.378173
  0
LINE
  8
CSLAYER1
  6
CONTINUOUS
 62
     7
 10
460.733207
 20
1922.378173
 11
461.119636
 21
1921.715580
  0
LINE
  8
CSLAYER1
  6
CONTINUOUS
 62
     7
 10
461.119636
 20
1921.715580
 11
461.476232
 21
1921.023112
  0
LINE
  8
CSLAYER1
  6
CONTINUOUS
 62
     7
 10
461.476232
 20
1921.023112
 11
461.800279
 21
1920.306038
  0
LINE
  8
CSLAYER1
  6
CONTINUOUS
 62
     7
 10
461.800279
 20
1920.306038
 11
462.089313
 21
1919.569817
  0
LINE
  8
CSLAYER1
  6
CONTINUOUS
 62
     7
 10
462.089313
 20
1919.569817
 11
462.341134
 21
1918.820052
  0
LINE
  8
CSLAYER1
  6
CONTINUOUS
 62
     7
 10
462.341134
 20
1918.820052
 11
462.553825
 21
1918.062448
  0
LINE
  8
CSLAYER1
  6
CONTINUOUS
 62
     7
 10
462.553825
 20
1918.062448
 11
462.725767
 21
1917.302771
  0
LINE
  8
CSLAYER1
  6
CONTINUOUS
 62
     7
 10
462.725767
 20
1917.302771
 11
462.855652
 21
1916.546804
  0
LINE
  8
CSLAYER1
  6
CONTINUOUS
 62
     7
 10
462.855652
 20
1916.546804
 11
462.942492
 21
1915.800299
  0
LINE
  8
CSLAYER1
  6
CONTINUOUS
 62
     7
 10
462.942492
 20
1915.800299
 11
462.985624
 21
1915.068938
  0
LINE
  8
CSLAYER1
  6
CONTINUOUS
 62
     7
 10
462.985624
 20
1915.068938
 11
462.984722
 21
1914.358286
  0
LINE
  8
CSLAYER1
  6
CONTINUOUS
 62
     7
 10
462.984722
 20
1914.358286
 11
462.939792
 21
1913.673753
  0
LINE
  8
CSLAYER1
  6
CONTINUOUS
 62
     7
 10
462.939792
 20
1913.673753
 11
462.851176
 21
1913.020548
  0
LINE
  8
CSLAYER1
  6
CONTINUOUS
 62
     7
 10
462.851176
 20
1913.020548
 11
462.719548
 21
1912.403642
  0
LINE
  8
CSLAYER1
  6
CONTINUOUS
 62
     7
 10
462.719548
 20
1912.403642
 11
462.545911
 21
1911.827731
  0
LINE
  8
CSLAYER1
  6
CONTINUOUS
 62
     7
 10
462.545911
 20
1911.827731
 11
462.331585
 21
1911.297196
  0
LINE
  8
CSLAYER1
  6
CONTINUOUS
 62
     7
 10
462.331585
 20
1911.297196
 11
462.078201
 21
1910.816077
  0
LINE
  8
CSLAYER1
  6
CONTINUOUS
 62
     7
 10
462.078201
 20
1910.816077
 11
461.787689
 21
1910.388035
  0
LINE
  8
CSLAYER1
  6
CONTINUOUS
 62
     7
 10
461.787689
 20
1910.388035
 11
461.462259
 21
1910.016327
  0
LINE
  8
CSLAYER1
  6
CONTINUOUS
 62
     7
 10
461.462259
 20
1910.016327
 11
461.104388
 21
1909.703783
  0
LINE
  8
CSLAYER1
  6
CONTINUOUS
 62
     7
 10
461.104388
 20
1909.703783
 11
460.716800
 21
1909.452780
  0
LINE
  8
CSLAYER1
  6
CONTINUOUS
 62
     7
 10
460.716800
 20
1909.452780
 11
460.302443
 21
1909.265229
  0
LINE
  8
CSLAYER1
  6
CONTINUOUS
 62
     7
 10
636.418248
 20
1813.340776
 11
636.747363
 21
1813.654702
  0
LINE
  8
CSLAYER1
  6
CONTINUOUS
 62
     7
 10
636.747363
 20
1813.654702
 11
637.125282
 21
1813.920041
  0
LINE
  8
CSLAYER1
  6
CONTINUOUS
 62
     7
 10
637.125282
 20
1813.920041
 11
637.549129
 21
1814.134772
  0
LINE
  8
CSLAYER1
  6
CONTINUOUS
 62
     7
 10
637.549129
 20
1814.134772
 11
638.015679
 21
1814.297261
  0
LINE
  8
CSLAYER1
  6
CONTINUOUS
 62
     7
 10
638.015679
 20
1814.297261
 11
638.521380
 21
1814.406272
  0
LINE
  8
CSLAYER1
  6
CONTINUOUS
 62
     7
 10
638.521380
 20
1814.406272
 11
639.062385
 21
1814.460974
  0
LINE
  8
CSLAYER1
  6
CONTINUOUS
 62
     7
 10
639.062385
 20
1814.460974
 11
639.634576
 21
1814.460952
  0
LINE
  8
CSLAYER1
  6
CONTINUOUS
 62
     7
 10
639.634576
 20
1814.460952
 11
640.233597
 21
1814.406206
  0
LINE
  8
CSLAYER1
  6
CONTINUOUS
 62
     7
 10
640.233597
 20
1814.406206
 11
640.854891
 21
1814.297152
  0
LINE
  8
CSLAYER1
  6
CONTINUOUS
 62
     7
 10
640.854891
 20
1814.297152
 11
641.493729
 21
1814.134621
  0
LINE
  8
CSLAYER1
  6
CONTINUOUS
 62
     7
 10
641.493729
 20
1814.134621
 11
642.145248
 21
1813.919849
  0
LINE
  8
CSLAYER1
  6
CONTINUOUS
 62
     7
 10
642.145248
 20
1813.919849
 11
642.804490
 21
1813.654470
  0
LINE
  8
CSLAYER1
  6
CONTINUOUS
 62
     7
 10
642.804490
 20
1813.654470
 11
643.466439
 21
1813.340506
  0
LINE
  8
CSLAYER1
  6
CONTINUOUS
 62
     7
 10
643.466439
 20
1813.340506
 11
644.126056
 21
1812.980344
  0
LINE
  8
CSLAYER1
  6
CONTINUOUS
 62
     7
 10
644.126056
 20
1812.980344
 11
644.778321
 21
1812.576726
  0
LINE
  8
CSLAYER1
  6
CONTINUOUS
 62
     7
 10
644.778321
 20
1812.576726
 11
645.418270
 21
1812.132724
  0
LINE
  8
CSLAYER1
  6
CONTINUOUS
 62
     7
 10
645.418270
 20
1812.132724
 11
646.041033
 21
1811.651717
  0
LINE
  8
CSLAYER1
  6
CONTINUOUS
 62
     7
 10
646.041033
 20
1811.651717
 11
646.641870
 21
1811.137366
  0
LINE
  8
CSLAYER1
  6
CONTINUOUS
 62
     7
 10
646.641870
 20
1811.137366
 11
647.216208
 21
1810.593585
  0
LINE
  8
CSLAYER1
  6
CONTINUOUS
 62
     7
 10
647.216208
 20
1810.593585
 11
647.759676
 21
1810.024513
  0
LINE
  8
CSLAYER1
  6
CONTINUOUS
 62
     7
 10
647.759676
 20
1810.024513
 11
648.268138
 21
1809.434480
  0
LINE
  8
CSLAYER1
  6
CONTINUOUS
 62
     7
 10
648.268138
 20
1809.434480
 11
648.737725
 21
1808.827978
  0
LINE
  8
CSLAYER1
  6
CONTINUOUS
 62
     7
 10
648.737725
 20
1808.827978
 11
649.164863
 21
1808.209622
  0
LINE
  8
CSLAYER1
  6
CONTINUOUS
 62
     7
 10
649.164863
 20
1808.209622
 11
649.546300
 21
1807.584117
  0
LINE
  8
CSLAYER1
  6
CONTINUOUS
 62
     7
 10
649.546300
 20
1807.584117
 11
649.879134
 21
1806.956226
  0
LINE
  8
CSLAYER1
  6
CONTINUOUS
 62
     7
 10
649.879134
 20
1806.956226
 11
650.160832
 21
1806.330726
  0
LINE
  8
CSLAYER1
  6
CONTINUOUS
 62
     7
 10
650.160832
 20
1806.330726
 11
650.389250
 21
1805.712377
  0
LINE
  8
CSLAYER1
  6
CONTINUOUS
 62
     7
 10
650.389250
 20
1805.712377
 11
650.562649
 21
1805.105886
  0
LINE
  8
CSLAYER1
  6
CONTINUOUS
 62
     7
 10
650.562649
 20
1805.105886
 11
650.679710
 21
1804.515868
  0
LINE
  8
CSLAYER1
  6
CONTINUOUS
 62
     7
 10
650.679710
 20
1804.515868
 11
650.739542
 21
1803.946815
  0
LINE
  8
CSLAYER1
  6
CONTINUOUS
 62
     7
 10
650.739542
 20
1803.946815
 11
650.741690
 21
1803.403056
  0
LINE
  8
CSLAYER1
  6
CONTINUOUS
 62
     7
 10
650.741690
 20
1803.403056
 11
650.686137
 21
1802.888729
  0
LINE
  8
CSLAYER1
  6
CONTINUOUS
 62
     7
 10
650.686137
 20
1802.888729
 11
650.573306
 21
1802.407751
  0
LINE
  8
CSLAYER1
  6
CONTINUOUS
 62
     7
 10
650.573306
 20
1802.407751
 11
650.404055
 21
1801.963780
  0
LINE
  8
CSLAYER1
  6
CONTINUOUS
 62
     7
 10
650.404055
 20
1801.963780
 11
650.179673
 21
1801.560196
  0
LINE
  8
CSLAYER1
  6
CONTINUOUS
 62
     7
 10
650.179673
 20
1801.560196
 11
649.901868
 21
1801.200070
  0
LINE
  8
CSLAYER1
  6
CONTINUOUS
 62
     7
 10
649.901868
 20
1801.200070
 11
649.572754
 21
1800.886143
  0
LINE
  8
CSLAYER1
  6
CONTINUOUS
 62
     7
 10
649.572754
 20
1800.886143
 11
649.194835
 21
1800.620805
  0
LINE
  8
CSLAYER1
  6
CONTINUOUS
 62
     7
 10
649.194835
 20
1800.620805
 11
648.770987
 21
1800.406074
  0
LINE
  8
CSLAYER1
  6
CONTINUOUS
 62
     7
 10
648.770987
 20
1800.406074
 11
648.304438
 21
1800.243584
  0
LINE
  8
CSLAYER1
  6
CONTINUOUS
 62
     7
 10
648.304438
 20
1800.243584
 11
647.798736
 21
1800.134574
  0
LINE
  8
CSLAYER1
  6
CONTINUOUS
 62
     7
 10
647.798736
 20
1800.134574
 11
647.257731
 21
1800.079871
  0
LINE
  8
CSLAYER1
  6
CONTINUOUS
 62
     7
 10
647.257731
 20
1800.079871
 11
646.685541
 21
1800.079893
  0
LINE
  8
CSLAYER1
  6
CONTINUOUS
 62
     7
 10
646.685541
 20
1800.079893
 11
646.086519
 21
1800.134639
  0
LINE
  8
CSLAYER1
  6
CONTINUOUS
 62
     7
 10
646.086519
 20
1800.134639
 11
645.465225
 21
1800.243693
  0
LINE
  8
CSLAYER1
  6
CONTINUOUS
 62
     7
 10
645.465225
 20
1800.243693
 11
644.826388
 21
1800.406225
  0
LINE
  8
CSLAYER1
  6
CONTINUOUS
 62
     7
 10
644.826388
 20
1800.406225
 11
644.174869
 21
1800.620997
  0
LINE
  8
CSLAYER1
  6
CONTINUOUS
 62
     7
 10
644.174869
 20
1800.620997
 11
643.515626
 21
1800.886375
  0
LINE
  8
CSLAYER1
  6
CONTINUOUS
 62
     7
 10
643.515626
 20
1800.886375
 11
642.853677
 21
1801.200340
  0
LINE
  8
CSLAYER1
  6
CONTINUOUS
 62
     7
 10
642.853677
 20
1801.200340
 11
642.194061
 21
1801.560502
  0
LINE
  8
CSLAYER1
  6
CONTINUOUS
 62
     7
 10
642.194061
 20
1801.560502
 11
641.541795
 21
1801.964119
  0
LINE
  8
CSLAYER1
  6
CONTINUOUS
 62
     7
 10
641.541795
 20
1801.964119
 11
640.901846
 21
1802.408121
  0
LINE
  8
CSLAYER1
  6
CONTINUOUS
 62
     7
 10
640.901846
 20
1802.408121
 11
640.279084
 21
1802.889128
  0
LINE
  8
CSLAYER1
  6
CONTINUOUS
 62
     7
 10
640.279084
 20
1802.889128
 11
639.678247
 21
1803.403480
  0
LINE
  8
CSLAYER1
  6
CONTINUOUS
 62
     7
 10
639.678247
 20
1803.403480
 11
639.103909
 21
1803.947261
  0
LINE
  8
CSLAYER1
  6
CONTINUOUS
 62
     7
 10
639.103909
 20
1803.947261
 11
638.560440
 21
1804.516333
  0
LINE
  8
CSLAYER1
  6
CONTINUOUS
 62
     7
 10
638.560440
 20
1804.516333
 11
638.051978
 21
1805.106365
  0
LINE
  8
CSLAYER1
  6
CONTINUOUS
 62
     7
 10
638.051978
 20
1805.106365
 11
637.582391
 21
1805.712868
  0
LINE
  8
CSLAYER1
  6
CONTINUOUS
 62
     7
 10
637.582391
 20
1805.712868
 11
637.155253
 21
1806.331224
  0
LINE
  8
CSLAYER1
  6
CONTINUOUS
 62
     7
 10
637.155253
 20
1806.331224
 11
636.773816
 21
1806.956728
  0
LINE
  8
CSLAYER1
  6
CONTINUOUS
 62
     7
 10
636.773816
 20
1806.956728
 11
636.440982
 21
1807.584620
  0
LINE
  8
CSLAYER1
  6
CONTINUOUS
 62
     7
 10
636.440982
 20
1807.584620
 11
636.159284
 21
1808.210120
  0
LINE
  8
CSLAYER1
  6
CONTINUOUS
 62
     7
 10
636.159284
 20
1808.210120
 11
635.930866
 21
1808.828469
  0
LINE
  8
CSLAYER1
  6
CONTINUOUS
 62
     7
 10
635.930866
 20
1808.828469
 11
635.757467
 21
1809.434960
  0
LINE
  8
CSLAYER1
  6
CONTINUOUS
 62
     7
 10
635.757467
 20
1809.434960
 11
635.640406
 21
1810.024977
  0
LINE
  8
CSLAYER1
  6
CONTINUOUS
 62
     7
 10
635.640406
 20
1810.024977
 11
635.580574
 21
1810.594031
  0
LINE
  8
CSLAYER1
  6
CONTINUOUS
 62
     7
 10
635.580574
 20
1810.594031
 11
635.578426
 21
1811.137790
  0
LINE
  8
CSLAYER1
  6
CONTINUOUS
 62
     7
 10
635.578426
 20
1811.137790
 11
635.633980
 21
1811.652116
  0
LINE
  8
CSLAYER1
  6
CONTINUOUS
 62
     7
 10
635.633980
 20
1811.652116
 11
635.746811
 21
1812.133095
  0
LINE
  8
CSLAYER1
  6
CONTINUOUS
 62
     7
 10
635.746811
 20
1812.133095
 11
635.916061
 21
1812.577066
  0
LINE
  8
CSLAYER1
  6
CONTINUOUS
 62
     7
 10
635.916061
 20
1812.577066
 11
636.140443
 21
1812.980650
  0
LINE
  8
CSLAYER1
  6
CONTINUOUS
 62
     7
 10
636.140443
 20
1812.980650
 11
636.418248
 21
1813.340776
  0
LINE
  8
CSLAYER1
  6
CONTINUOUS
 62
     7
 10
649.901868
 20
1801.200070
 11
679.888937
 21
1834.595428
  0
LINE
  8
CSLAYER1
  6
CONTINUOUS
 62
     7
 10
636.418248
 20
1813.340776
 11
666.405318
 21
1846.736134
  0
LINE
  8
CSLAYER1
  6
CONTINUOUS
 62
     7
 10
666.405318
 20
1846.736134
 11
666.734432
 21
1847.050061
  0
LINE
  8
CSLAYER1
  6
CONTINUOUS
 62
     7
 10
666.734432
 20
1847.050061
 11
667.112351
 21
1847.315399
  0
LINE
  8
CSLAYER1
  6
CONTINUOUS
 62
     7
 10
667.112351
 20
1847.315399
 11
667.536198
 21
1847.530130
  0
LINE
  8
CSLAYER1
  6
CONTINUOUS
 62
     7
 10
667.536198
 20
1847.530130
 11
668.002748
 21
1847.692619
  0
LINE
  8
CSLAYER1
  6
CONTINUOUS
 62
     7
 10
668.002748
 20
1847.692619
 11
668.508450
 21
1847.801630
  0
LINE
  8
CSLAYER1
  6
CONTINUOUS
 62
     7
 10
668.508450
 20
1847.801630
 11
669.049455
 21
1847.856333
  0
LINE
  8
CSLAYER1
  6
CONTINUOUS
 62
     7
 10
669.049455
 20
1847.856333
 11
669.621645
 21
1847.856311
  0
LINE
  8
CSLAYER1
  6
CONTINUOUS
 62
     7
 10
669.621645
 20
1847.856311
 11
670.220667
 21
1847.801564
  0
LINE
  8
CSLAYER1
  6
CONTINUOUS
 62
     7
 10
670.220667
 20
1847.801564
 11
670.841960
 21
1847.692511
  0
LINE
  8
CSLAYER1
  6
CONTINUOUS
 62
     7
 10
670.841960
 20
1847.692511
 11
671.480798
 21
1847.529979
  0
LINE
  8
CSLAYER1
  6
CONTINUOUS
 62
     7
 10
671.480798
 20
1847.529979
 11
672.132317
 21
1847.315207
  0
LINE
  8
CSLAYER1
  6
CONTINUOUS
 62
     7
 10
672.132317
 20
1847.315207
 11
672.791560
 21
1847.049829
  0
LINE
  8
CSLAYER1
  6
CONTINUOUS
 62
     7
 10
672.791560
 20
1847.049829
 11
673.453508
 21
1846.735864
  0
LINE
  8
CSLAYER1
  6
CONTINUOUS
 62
     7
 10
673.453508
 20
1846.735864
 11
674.113125
 21
1846.375702
  0
LINE
  8
CSLAYER1
  6
CONTINUOUS
 62
     7
 10
674.113125
 20
1846.375702
 11
674.765390
 21
1845.972085
  0
LINE
  8
CSLAYER1
  6
CONTINUOUS
 62
     7
 10
674.765390
 20
1845.972085
 11
675.405339
 21
1845.528083
  0
LINE
  8
CSLAYER1
  6
CONTINUOUS
 62
     7
 10
675.405339
 20
1845.528083
 11
676.028102
 21
1845.047076
  0
LINE
  8
CSLAYER1
  6
CONTINUOUS
 62
     7
 10
676.028102
 20
1845.047076
 11
676.628939
 21
1844.532724
  0
LINE
  8
CSLAYER1
  6
CONTINUOUS
 62
     7
 10
676.628939
 20
1844.532724
 11
677.203277
 21
1843.988943
  0
LINE
  8
CSLAYER1
  6
CONTINUOUS
 62
     7
 10
677.203277
 20
1843.988943
 11
677.746745
 21
1843.419871
  0
LINE
  8
CSLAYER1
  6
CONTINUOUS
 62
     7
 10
677.746745
 20
1843.419871
 11
678.255208
 21
1842.829839
  0
LINE
  8
CSLAYER1
  6
CONTINUOUS
 62
     7
 10
678.255208
 20
1842.829839
 11
678.724795
 21
1842.223336
  0
LINE
  8
CSLAYER1
  6
CONTINUOUS
 62
     7
 10
678.724795
 20
1842.223336
 11
679.151932
 21
1841.604980
  0
LINE
  8
CSLAYER1
  6
CONTINUOUS
 62
     7
 10
679.151932
 20
1841.604980
 11
679.533369
 21
1840.979476
  0
LINE
  8
CSLAYER1
  6
CONTINUOUS
 62
     7
 10
679.533369
 20
1840.979476
 11
679.866204
 21
1840.351584
  0
LINE
  8
CSLAYER1
  6
CONTINUOUS
 62
     7
 10
679.866204
 20
1840.351584
 11
680.147902
 21
1839.726084
  0
LINE
  8
CSLAYER1
  6
CONTINUOUS
 62
     7
 10
680.147902
 20
1839.726084
 11
680.376319
 21
1839.107735
  0
LINE
  8
CSLAYER1
  6
CONTINUOUS
 62
     7
 10
680.376319
 20
1839.107735
 11
680.549719
 21
1838.501244
  0
LINE
  8
CSLAYER1
  6
CONTINUOUS
 62
     7
 10
680.549719
 20
1838.501244
 11
680.666780
 21
1837.911227
  0
LINE
  8
CSLAYER1
  6
CONTINUOUS
 62
     7
 10
680.666780
 20
1837.911227
 11
680.726612
 21
1837.342173
  0
LINE
  8
CSLAYER1
  6
CONTINUOUS
 62
     7
 10
680.726612
 20
1837.342173
 11
680.728759
 21
1836.798414
  0
LINE
  8
CSLAYER1
  6
CONTINUOUS
 62
     7
 10
680.728759
 20
1836.798414
 11
680.673206
 21
1836.284088
  0
LINE
  8
CSLAYER1
  6
CONTINUOUS
 62
     7
 10
680.673206
 20
1836.284088
 11
680.560375
 21
1835.803109
  0
LINE
  8
CSLAYER1
  6
CONTINUOUS
 62
     7
 10
680.560375
 20
1835.803109
 11
680.391124
 21
1835.359138
  0
LINE
  8
CSLAYER1
  6
CONTINUOUS
 62
     7
 10
680.391124
 20
1835.359138
 11
680.166743
 21
1834.955554
  0
LINE
  8
CSLAYER1
  6
CONTINUOUS
 62
     7
 10
680.166743
 20
1834.955554
 11
679.888937
 21
1834.595428
  0
LINE
  8
CSLAYER1
  6
CONTINUOUS
 62
     7
 10
760.811339
 20
1968.347082
 11
760.811339
 21
1950.047747
  0
LINE
  8
CSLAYER1
  6
CONTINUOUS
 62
     7
 10
760.811339
 20
1950.047747
 11
760.811339
 21
1944.143515
  0
LINE
  8
CSLAYER1
  6
CONTINUOUS
 62
     7
 10
791.326470
 20
2021.702469
 11
791.326470
 21
2001.351267
  0
LINE
  8
CSLAYER1
  6
CONTINUOUS
 62
     7
 10
791.326470
 20
1983.815078
 11
791.326470
 21
1961.213322
  0
LINE
  8
CSLAYER1
  6
CONTINUOUS
 62
     7
 10
802.911339
 20
2014.543102
 11
805.746239
 21
2011.990743
  0
LINE
  8
CSLAYER1
  6
CONTINUOUS
 62
     7
 10
805.746239
 20
2011.990743
 11
808.182518
 21
2009.306378
  0
LINE
  8
CSLAYER1
  6
CONTINUOUS
 62
     7
 10
808.182518
 20
2009.306378
 11
810.201633
 21
2006.510437
  0
LINE
  8
CSLAYER1
  6
CONTINUOUS
 62
     7
 10
810.201633
 20
2006.510437
 11
811.788217
 21
2003.624199
  0
LINE
  8
CSLAYER1
  6
CONTINUOUS
 62
     7
 10
811.788217
 20
2003.624199
 11
812.930196
 21
2000.669630
  0
LINE
  8
CSLAYER1
  6
CONTINUOUS
 62
     7
 10
812.930196
 20
2000.669630
 11
813.618878
 21
1997.669216
  0
LINE
  8
CSLAYER1
  6
CONTINUOUS
 62
     7
 10
813.618878
 20
1997.669216
 11
813.849023
 21
1994.645791
  0
LINE
  8
CSLAYER1
  6
CONTINUOUS
 62
     7
 10
813.849023
 20
1994.645791
 11
813.618878
 21
1991.622367
  0
LINE
  8
CSLAYER1
  6
CONTINUOUS
 62
     7
 10
813.618878
 20
1991.622367
 11
812.930196
 21
1988.621953
  0
LINE
  8
CSLAYER1
  6
CONTINUOUS
 62
     7
 10
812.930196
 20
1988.621953
 11
811.788217
 21
1985.667384
  0
LINE
  8
CSLAYER1
  6
CONTINUOUS
 62
     7
 10
811.788217
 20
1985.667384
 11
810.201633
 21
1982.781146
  0
LINE
  8
CSLAYER1
  6
CONTINUOUS
 62
     7
 10
810.201633
 20
1982.781146
 11
808.182518
 21
1979.985205
  0
LINE
  8
CSLAYER1
  6
CONTINUOUS
 62
     7
 10
808.182518
 20
1979.985205
 11
805.746239
 21
1977.300840
  0
LINE
  8
CSLAYER1
  6
CONTINUOUS
 62
     7
 10
791.326470
 20
2021.702469
 11
796.134841
 21
2019.175257
  0
LINE
  8
CSLAYER1
  6
CONTINUOUS
 62
     7
 10
796.134841
 20
2019.175257
 11
799.699391
 21
2016.944031
  0
LINE
  8
CSLAYER1
  6
CONTINUOUS
 62
     7
 10
799.699391
 20
2016.944031
 11
802.911339
 21
2014.543102
  0
LINE
  8
CSLAYER1
  6
CONTINUOUS
 62
     7
 10
794.545431
 20
1997.402574
 11
794.799128
 21
1996.297280
  0
LINE
  8
CSLAYER1
  6
CONTINUOUS
 62
     7
 10
794.799128
 20
1996.297280
 11
794.973015
 21
1994.012915
  0
LINE
  8
CSLAYER1
  6
CONTINUOUS
 62
     7
 10
794.973015
 20
1994.012915
 11
794.799128
 21
1991.728550
  0
LINE
  8
CSLAYER1
  6
CONTINUOUS
 62
     7
 10
794.799128
 20
1991.728550
 11
794.278790
 21
1989.461571
  0
LINE
  8
CSLAYER1
  6
CONTINUOUS
 62
     7
 10
794.278790
 20
1989.461571
 11
793.415962
 21
1987.229230
  0
LINE
  8
CSLAYER1
  6
CONTINUOUS
 62
     7
 10
793.415962
 20
1987.229230
 11
792.217209
 21
1985.048516
  0
LINE
  8
CSLAYER1
  6
CONTINUOUS
 62
     7
 10
792.217209
 20
1985.048516
 11
791.326470
 21
1983.815078
  0
LINE
  8
CSLAYER1
  6
CONTINUOUS
 62
     7
 10
791.326470
 20
2001.359842
 11
791.283914
 21
2001.398156
  0
LINE
  8
CSLAYER1
  6
CONTINUOUS
 62
     7
 10
791.283914
 20
2001.398156
 11
793.124658
 21
1999.369969
  0
LINE
  8
CSLAYER1
  6
CONTINUOUS
 62
     7
 10
793.124658
 20
1999.369969
 11
794.650211
 21
1997.257481
  0
LINE
  8
CSLAYER1
  6
CONTINUOUS
 62
     7
 10
791.326470
 20
2001.351267
 11
791.326470
 21
1983.815078
  0
LINE
  8
CSLAYER1
  6
CONTINUOUS
 62
     7
 10
609.695104
 20
2021.571362
 11
552.862494
 21
2042.256740
  0
LINE
  8
CSLAYER1
  6
CONTINUOUS
 62
     7
 10
618.573576
 20
2032.642412
 11
561.740966
 21
2053.327790
  0
LINE
  8
CSLAYER1
  6
CONTINUOUS
 62
     7
 10
615.517672
 20
2032.324415
 11
558.727667
 21
2052.994286
  0
LINE
  8
CSLAYER1
  6
CONTINUOUS
 62
     7
 10
614.181455
 20
2031.380503
 11
557.348845
 21
2052.065882
  0
LINE
  8
CSLAYER1
  6
CONTINUOUS
 62
     7
 10
613.133026
 20
2030.331845
 11
556.300416
 21
2051.017224
  0
LINE
  8
CSLAYER1
  6
CONTINUOUS
 62
     7
 10
612.272516
 20
2029.214790
 11
555.439906
 21
2049.900169
  0
LINE
  8
CSLAYER1
  6
CONTINUOUS
 62
     7
 10
611.552613
 20
2028.046559
 11
554.720205
 21
2048.731864
  0
LINE
  8
CSLAYER1
  6
CONTINUOUS
 62
     7
 10
610.959876
 20
2026.832042
 11
554.127267
 21
2047.517421
  0
LINE
  8
CSLAYER1
  6
CONTINUOUS
 62
     7
 10
610.474081
 20
2025.578603
 11
553.641471
 21
2046.263981
  0
LINE
  8
CSLAYER1
  6
CONTINUOUS
 62
     7
 10
610.088211
 20
2024.288793
 11
553.260680
 21
2044.972322
  0
LINE
  8
CSLAYER1
  6
CONTINUOUS
 62
     7
 10
555.535353
 20
2036.278007
 11
555.120997
 21
2036.465558
  0
LINE
  8
CSLAYER1
  6
CONTINUOUS
 62
     7
 10
555.120997
 20
2036.465558
 11
554.733408
 21
2036.716561
  0
LINE
  8
CSLAYER1
  6
CONTINUOUS
 62
     7
 10
554.733408
 20
2036.716561
 11
554.375537
 21
2037.029105
  0
LINE
  8
CSLAYER1
  6
CONTINUOUS
 62
     7
 10
554.375537
 20
2037.029105
 11
554.050107
 21
2037.400813
  0
LINE
  8
CSLAYER1
  6
CONTINUOUS
 62
     7
 10
554.050107
 20
2037.400813
 11
553.759595
 21
2037.828856
  0
LINE
  8
CSLAYER1
  6
CONTINUOUS
 62
     7
 10
553.759595
 20
2037.828856
 11
553.506212
 21
2038.309974
  0
LINE
  8
CSLAYER1
  6
CONTINUOUS
 62
     7
 10
553.506212
 20
2038.309974
 11
553.291886
 21
2038.840509
  0
LINE
  8
CSLAYER1
  6
CONTINUOUS
 62
     7
 10
553.291886
 20
2038.840509
 11
553.118248
 21
2039.416420
  0
LINE
  8
CSLAYER1
  6
CONTINUOUS
 62
     7
 10
553.118248
 20
2039.416420
 11
552.986620
 21
2040.033326
  0
LINE
  8
CSLAYER1
  6
CONTINUOUS
 62
     7
 10
552.986620
 20
2040.033326
 11
552.898004
 21
2040.686531
  0
LINE
  8
CSLAYER1
  6
CONTINUOUS
 62
     7
 10
552.898004
 20
2040.686531
 11
552.853074
 21
2041.371064
  0
LINE
  8
CSLAYER1
  6
CONTINUOUS
 62
     7
 10
552.853074
 20
2041.371064
 11
552.852172
 21
2042.081716
  0
LINE
  8
CSLAYER1
  6
CONTINUOUS
 62
     7
 10
552.852172
 20
2042.081716
 11
552.895305
 21
2042.813077
  0
LINE
  8
CSLAYER1
  6
CONTINUOUS
 62
     7
 10
552.895305
 20
2042.813077
 11
552.982144
 21
2043.559582
  0
LINE
  8
CSLAYER1
  6
CONTINUOUS
 62
     7
 10
552.982144
 20
2043.559582
 11
553.112029
 21
2044.315550
  0
LINE
  8
CSLAYER1
  6
CONTINUOUS
 62
     7
 10
553.112029
 20
2044.315550
 11
553.283971
 21
2045.075226
  0
LINE
  8
CSLAYER1
  6
CONTINUOUS
 62
     7
 10
553.283971
 20
2045.075226
 11
553.496662
 21
2045.832830
  0
LINE
  8
CSLAYER1
  6
CONTINUOUS
 62
     7
 10
553.496662
 20
2045.832830
 11
553.748483
 21
2046.582595
  0
LINE
  8
CSLAYER1
  6
CONTINUOUS
 62
     7
 10
553.748483
 20
2046.582595
 11
554.037517
 21
2047.318816
  0
LINE
  8
CSLAYER1
  6
CONTINUOUS
 62
     7
 10
554.037517
 20
2047.318816
 11
554.361565
 21
2048.035890
  0
LINE
  8
CSLAYER1
  6
CONTINUOUS
 62
     7
 10
554.361565
 20
2048.035890
 11
554.718160
 21
2048.728358
  0
LINE
  8
CSLAYER1
  6
CONTINUOUS
 62
     7
 10
554.718160
 20
2048.728358
 11
555.104589
 21
2049.390951
  0
LINE
  8
CSLAYER1
  6
CONTINUOUS
 62
     7
 10
555.104589
 20
2049.390951
 11
555.517910
 21
2050.018627
  0
LINE
  8
CSLAYER1
  6
CONTINUOUS
 62
     7
 10
555.517910
 20
2050.018627
 11
555.954979
 21
2050.606607
  0
LINE
  8
CSLAYER1
  6
CONTINUOUS
 62
     7
 10
555.954979
 20
2050.606607
 11
556.412468
 21
2051.150418
  0
LINE
  8
CSLAYER1
  6
CONTINUOUS
 62
     7
 10
556.412468
 20
2051.150418
 11
556.886896
 21
2051.645920
  0
LINE
  8
CSLAYER1
  6
CONTINUOUS
 62
     7
 10
556.886896
 20
2051.645920
 11
557.374652
 21
2052.089343
  0
LINE
  8
CSLAYER1
  6
CONTINUOUS
 62
     7
 10
557.374652
 20
2052.089343
 11
557.872024
 21
2052.477311
  0
LINE
  8
CSLAYER1
  6
CONTINUOUS
 62
     7
 10
557.872024
 20
2052.477311
 11
558.375227
 21
2052.806873
  0
LINE
  8
CSLAYER1
  6
CONTINUOUS
 62
     7
 10
558.375227
 20
2052.806873
 11
558.880431
 21
2053.075520
  0
LINE
  8
CSLAYER1
  6
CONTINUOUS
 62
     7
 10
558.880431
 20
2053.075520
 11
559.383791
 21
2053.281207
  0
LINE
  8
CSLAYER1
  6
CONTINUOUS
 62
     7
 10
559.383791
 20
2053.281207
 11
559.881476
 21
2053.422368
  0
LINE
  8
CSLAYER1
  6
CONTINUOUS
 62
     7
 10
559.881476
 20
2053.422368
 11
560.369699
 21
2053.497931
  0
LINE
  8
CSLAYER1
  6
CONTINUOUS
 62
     7
 10
560.369699
 20
2053.497931
 11
560.844744
 21
2053.507319
  0
LINE
  8
CSLAYER1
  6
CONTINUOUS
 62
     7
 10
560.844744
 20
2053.507319
 11
561.302996
 21
2053.450461
  0
LINE
  8
CSLAYER1
  6
CONTINUOUS
 62
     7
 10
561.302996
 20
2053.450461
 11
561.740966
 21
2053.327790
  0
LINE
  8
CSLAYER1
  6
CONTINUOUS
 62
     7
 10
609.828315
 20
2022.953132
 11
552.991503
 21
2043.640040
  0
LINE
  8
CSLAYER1
  6
CONTINUOUS
 62
     7
 10
609.722072
 20
2020.131292
 11
552.889462
 21
2040.816670
  0
LINE
  8
CSLAYER1
  6
CONTINUOUS
 62
     7
 10
609.977062
 20
2018.608228
 11
553.156611
 21
2039.289181
  0
LINE
  8
CSLAYER1
  6
CONTINUOUS
 62
     7
 10
610.715606
 20
2016.909165
 11
553.930310
 21
2037.577322
  0
LINE
  8
CSLAYER1
  6
CONTINUOUS
 62
     7
 10
612.367963
 20
2015.592629
 11
555.535353
 21
2036.278007
  0
LINE
  8
CSLAYER1
  6
CONTINUOUS
 62
     7
 10
686.105636
 20
1993.107636
 11
668.945344
 21
1995.016390
  0
LINE
  8
CSLAYER1
  6
CONTINUOUS
 62
     7
 10
618.573576
 20
2032.642412
 11
618.987932
 21
2032.454861
  0
LINE
  8
CSLAYER1
  6
CONTINUOUS
 62
     7
 10
618.987932
 20
2032.454861
 11
619.375521
 21
2032.203858
  0
LINE
  8
CSLAYER1
  6
CONTINUOUS
 62
     7
 10
619.375521
 20
2032.203858
 11
619.733392
 21
2031.891314
  0
LINE
  8
CSLAYER1
  6
CONTINUOUS
 62
     7
 10
619.733392
 20
2031.891314
 11
620.058822
 21
2031.519606
  0
LINE
  8
CSLAYER1
  6
CONTINUOUS
 62
     7
 10
620.058822
 20
2031.519606
 11
620.349334
 21
2031.091563
  0
LINE
  8
CSLAYER1
  6
CONTINUOUS
 62
     7
 10
620.349334
 20
2031.091563
 11
620.602717
 21
2030.610445
  0
LINE
  8
CSLAYER1
  6
CONTINUOUS
 62
     7
 10
620.602717
 20
2030.610445
 11
620.817043
 21
2030.079910
  0
LINE
  8
CSLAYER1
  6
CONTINUOUS
 62
     7
 10
620.817043
 20
2030.079910
 11
620.990681
 21
2029.503999
  0
LINE
  8
CSLAYER1
  6
CONTINUOUS
 62
     7
 10
620.990681
 20
2029.503999
 11
621.098849
 21
2028.997041
  0
LINE
  8
CSLAYER1
  6
CONTINUOUS
 62
     7
 10
615.999040
 20
2016.287323
 11
615.733702
 21
2016.113546
  0
LINE
  8
CSLAYER1
  6
CONTINUOUS
 62
     7
 10
615.733702
 20
2016.113546
 11
615.228498
 21
2015.844899
  0
LINE
  8
CSLAYER1
  6
CONTINUOUS
 62
     7
 10
615.228498
 20
2015.844899
 11
614.725138
 21
2015.639212
  0
LINE
  8
CSLAYER1
  6
CONTINUOUS
 62
     7
 10
614.725138
 20
2015.639212
 11
614.227453
 21
2015.498051
  0
LINE
  8
CSLAYER1
  6
CONTINUOUS
 62
     7
 10
614.227453
 20
2015.498051
 11
613.739230
 21
2015.422488
  0
LINE
  8
CSLAYER1
  6
CONTINUOUS
 62
     7
 10
613.739230
 20
2015.422488
 11
613.264185
 21
2015.413100
  0
LINE
  8
CSLAYER1
  6
CONTINUOUS
 62
     7
 10
613.264185
 20
2015.413100
 11
612.805933
 21
2015.469958
  0
LINE
  8
CSLAYER1
  6
CONTINUOUS
 62
     7
 10
612.805933
 20
2015.469958
 11
612.367963
 21
2015.592629
  0
LINE
  8
CSLAYER1
  6
CONTINUOUS
 62
     7
 10
612.367963
 20
2015.592629
 11
611.953606
 21
2015.780179
  0
LINE
  8
CSLAYER1
  6
CONTINUOUS
 62
     7
 10
611.953606
 20
2015.780179
 11
611.566018
 21
2016.031182
  0
LINE
  8
CSLAYER1
  6
CONTINUOUS
 62
     7
 10
611.566018
 20
2016.031182
 11
611.208147
 21
2016.343727
  0
LINE
  8
CSLAYER1
  6
CONTINUOUS
 62
     7
 10
611.208147
 20
2016.343727
 11
610.882717
 21
2016.715435
  0
LINE
  8
CSLAYER1
  6
CONTINUOUS
 62
     7
 10
610.882717
 20
2016.715435
 11
610.592205
 21
2017.143477
  0
LINE
  8
CSLAYER1
  6
CONTINUOUS
 62
     7
 10
610.592205
 20
2017.143477
 11
610.338821
 21
2017.624596
  0
LINE
  8
CSLAYER1
  6
CONTINUOUS
 62
     7
 10
610.338821
 20
2017.624596
 11
610.124495
 21
2018.155130
  0
LINE
  8
CSLAYER1
  6
CONTINUOUS
 62
     7
 10
610.124495
 20
2018.155130
 11
609.950858
 21
2018.731042
  0
LINE
  8
CSLAYER1
  6
CONTINUOUS
 62
     7
 10
609.950858
 20
2018.731042
 11
609.819230
 21
2019.347948
  0
LINE
  8
CSLAYER1
  6
CONTINUOUS
 62
     7
 10
609.819230
 20
2019.347948
 11
609.730614
 21
2020.001153
  0
LINE
  8
CSLAYER1
  6
CONTINUOUS
 62
     7
 10
609.730614
 20
2020.001153
 11
609.685684
 21
2020.685686
  0
LINE
  8
CSLAYER1
  6
CONTINUOUS
 62
     7
 10
609.685684
 20
2020.685686
 11
609.684782
 21
2021.396337
  0
LINE
  8
CSLAYER1
  6
CONTINUOUS
 62
     7
 10
609.684782
 20
2021.396337
 11
609.727914
 21
2022.127699
  0
LINE
  8
CSLAYER1
  6
CONTINUOUS
 62
     7
 10
609.727914
 20
2022.127699
 11
609.814754
 21
2022.874204
  0
LINE
  8
CSLAYER1
  6
CONTINUOUS
 62
     7
 10
609.814754
 20
2022.874204
 11
609.944639
 21
2023.630171
  0
LINE
  8
CSLAYER1
  6
CONTINUOUS
 62
     7
 10
609.944639
 20
2023.630171
 11
610.116581
 21
2024.389848
  0
LINE
  8
CSLAYER1
  6
CONTINUOUS
 62
     7
 10
610.116581
 20
2024.389848
 11
610.329272
 21
2025.147452
  0
LINE
  8
CSLAYER1
  6
CONTINUOUS
 62
     7
 10
610.329272
 20
2025.147452
 11
610.581093
 21
2025.897217
  0
LINE
  8
CSLAYER1
  6
CONTINUOUS
 62
     7
 10
610.581093
 20
2025.897217
 11
610.870127
 21
2026.633438
  0
LINE
  8
CSLAYER1
  6
CONTINUOUS
 62
     7
 10
610.870127
 20
2026.633438
 11
611.194174
 21
2027.350511
  0
LINE
  8
CSLAYER1
  6
CONTINUOUS
 62
     7
 10
611.194174
 20
2027.350511
 11
611.550770
 21
2028.042980
  0
LINE
  8
CSLAYER1
  6
CONTINUOUS
 62
     7
 10
611.550770
 20
2028.042980
 11
611.937199
 21
2028.705573
  0
LINE
  8
CSLAYER1
  6
CONTINUOUS
 62
     7
 10
611.937199
 20
2028.705573
 11
612.350520
 21
2029.333248
  0
LINE
  8
CSLAYER1
  6
CONTINUOUS
 62
     7
 10
612.350520
 20
2029.333248
 11
612.787588
 21
2029.921229
  0
LINE
  8
CSLAYER1
  6
CONTINUOUS
 62
     7
 10
612.787588
 20
2029.921229
 11
613.245077
 21
2030.465040
  0
LINE
  8
CSLAYER1
  6
CONTINUOUS
 62
     7
 10
613.245077
 20
2030.465040
 11
613.719505
 21
2030.960542
  0
LINE
  8
CSLAYER1
  6
CONTINUOUS
 62
     7
 10
613.719505
 20
2030.960542
 11
614.207261
 21
2031.403965
  0
LINE
  8
CSLAYER1
  6
CONTINUOUS
 62
     7
 10
614.207261
 20
2031.403965
 11
614.704634
 21
2031.791933
  0
LINE
  8
CSLAYER1
  6
CONTINUOUS
 62
     7
 10
614.704634
 20
2031.791933
 11
615.207836
 21
2032.121495
  0
LINE
  8
CSLAYER1
  6
CONTINUOUS
 62
     7
 10
615.207836
 20
2032.121495
 11
615.713040
 21
2032.390141
  0
LINE
  8
CSLAYER1
  6
CONTINUOUS
 62
     7
 10
615.713040
 20
2032.390141
 11
616.216401
 21
2032.595828
  0
LINE
  8
CSLAYER1
  6
CONTINUOUS
 62
     7
 10
616.216401
 20
2032.595828
 11
616.714086
 21
2032.736990
  0
LINE
  8
CSLAYER1
  6
CONTINUOUS
 62
     7
 10
616.714086
 20
2032.736990
 11
617.202309
 21
2032.812553
  0
LINE
  8
CSLAYER1
  6
CONTINUOUS
 62
     7
 10
617.202309
 20
2032.812553
 11
617.677354
 21
2032.821941
  0
LINE
  8
CSLAYER1
  6
CONTINUOUS
 62
     7
 10
617.677354
 20
2032.821941
 11
618.135606
 21
2032.765083
  0
LINE
  8
CSLAYER1
  6
CONTINUOUS
 62
     7
 10
618.135606
 20
2032.765083
 11
618.573576
 21
2032.642412
  0
LINE
  8
CSLAYER1
  6
CONTINUOUS
 62
     7
 10
687.616664
 20
2006.692237
 11
670.401012
 21
2008.607150
  0
LINE
  8
CSLAYER1
  6
CONTINUOUS
 62
     7
 10
612.053561
 20
2025.317583
 11
612.272070
 21
2025.874166
  0
LINE
  8
CSLAYER1
  6
CONTINUOUS
 62
     7
 10
612.272070
 20
2025.874166
 11
612.517050
 21
2026.416273
  0
LINE
  8
CSLAYER1
  6
CONTINUOUS
 62
     7
 10
612.517050
 20
2026.416273
 11
612.786636
 21
2026.939779
  0
LINE
  8
CSLAYER1
  6
CONTINUOUS
 62
     7
 10
612.786636
 20
2026.939779
 11
613.078777
 21
2027.440699
  0
LINE
  8
CSLAYER1
  6
CONTINUOUS
 62
     7
 10
613.078777
 20
2027.440699
 11
613.391248
 21
2027.915222
  0
LINE
  8
CSLAYER1
  6
CONTINUOUS
 62
     7
 10
613.391248
 20
2027.915222
 11
613.721671
 21
2028.359735
  0
LINE
  8
CSLAYER1
  6
CONTINUOUS
 62
     7
 10
613.721671
 20
2028.359735
 11
614.067533
 21
2028.770856
  0
LINE
  8
CSLAYER1
  6
CONTINUOUS
 62
     7
 10
614.067533
 20
2028.770856
 11
614.426201
 21
2029.145456
  0
LINE
  8
CSLAYER1
  6
CONTINUOUS
 62
     7
 10
614.426201
 20
2029.145456
 11
614.794944
 21
2029.480684
  0
LINE
  8
CSLAYER1
  6
CONTINUOUS
 62
     7
 10
614.794944
 20
2029.480684
 11
615.170958
 21
2029.773988
  0
LINE
  8
CSLAYER1
  6
CONTINUOUS
 62
     7
 10
615.170958
 20
2029.773988
 11
615.551379
 21
2030.023136
  0
LINE
  8
CSLAYER1
  6
CONTINUOUS
 62
     7
 10
615.551379
 20
2030.023136
 11
615.933313
 21
2030.226233
  0
LINE
  8
CSLAYER1
  6
CONTINUOUS
 62
     7
 10
615.933313
 20
2030.226233
 11
616.313853
 21
2030.381733
  0
LINE
  8
CSLAYER1
  6
CONTINUOUS
 62
     7
 10
616.313853
 20
2030.381733
 11
616.690104
 21
2030.488451
  0
LINE
  8
CSLAYER1
  6
CONTINUOUS
 62
     7
 10
616.690104
 20
2030.488451
 11
617.059200
 21
2030.545576
  0
LINE
  8
CSLAYER1
  6
CONTINUOUS
 62
     7
 10
617.059200
 20
2030.545576
 11
617.418334
 21
2030.552674
  0
LINE
  8
CSLAYER1
  6
CONTINUOUS
 62
     7
 10
617.418334
 20
2030.552674
 11
617.764772
 21
2030.509689
  0
LINE
  8
CSLAYER1
  6
CONTINUOUS
 62
     7
 10
617.764772
 20
2030.509689
 11
618.132095
 21
2030.406806
  0
LINE
  8
CSLAYER1
  6
CONTINUOUS
 62
     7
 10
613.091181
 20
2017.669102
 11
612.798164
 21
2017.858860
  0
LINE
  8
CSLAYER1
  6
CONTINUOUS
 62
     7
 10
612.798164
 20
2017.858860
 11
612.527614
 21
2018.095144
  0
LINE
  8
CSLAYER1
  6
CONTINUOUS
 62
     7
 10
612.527614
 20
2018.095144
 11
612.281589
 21
2018.376155
  0
LINE
  8
CSLAYER1
  6
CONTINUOUS
 62
     7
 10
612.281589
 20
2018.376155
 11
612.061961
 21
2018.699755
  0
LINE
  8
CSLAYER1
  6
CONTINUOUS
 62
     7
 10
612.061961
 20
2018.699755
 11
611.870404
 21
2019.063481
  0
LINE
  8
CSLAYER1
  6
CONTINUOUS
 62
     7
 10
611.870404
 20
2019.063481
 11
611.708373
 21
2019.464565
  0
LINE
  8
CSLAYER1
  6
CONTINUOUS
 62
     7
 10
611.708373
 20
2019.464565
 11
611.577103
 21
2019.899954
  0
LINE
  8
CSLAYER1
  6
CONTINUOUS
 62
     7
 10
611.577103
 20
2019.899954
 11
611.477593
 21
2020.366335
  0
LINE
  8
CSLAYER1
  6
CONTINUOUS
 62
     7
 10
611.477593
 20
2020.366335
 11
611.410599
 21
2020.860158
  0
LINE
  8
CSLAYER1
  6
CONTINUOUS
 62
     7
 10
611.410599
 20
2020.860158
 11
611.376632
 21
2021.377665
  0
LINE
  8
CSLAYER1
  6
CONTINUOUS
 62
     7
 10
611.376632
 20
2021.377665
 11
611.375950
 21
2021.914917
  0
LINE
  8
CSLAYER1
  6
CONTINUOUS
 62
     7
 10
611.375950
 20
2021.914917
 11
611.408558
 21
2022.467827
  0
LINE
  8
CSLAYER1
  6
CONTINUOUS
 62
     7
 10
611.408558
 20
2022.467827
 11
611.474208
 21
2023.032184
  0
LINE
  8
CSLAYER1
  6
CONTINUOUS
 62
     7
 10
611.474208
 20
2023.032184
 11
611.572401
 21
2023.603696
  0
LINE
  8
CSLAYER1
  6
CONTINUOUS
 62
     7
 10
611.572401
 20
2023.603696
 11
611.702390
 21
2024.178011
  0
LINE
  8
CSLAYER1
  6
CONTINUOUS
 62
     7
 10
611.702390
 20
2024.178011
 11
611.863184
 21
2024.750760
  0
LINE
  8
CSLAYER1
  6
CONTINUOUS
 62
     7
 10
611.863184
 20
2024.750760
 11
612.053561
 21
2025.317583
  0
ARC
  8
CSLAYER1
  6
CONTINUOUS
 62
     7
 10
688.049925
 20
2000.756439
 40
7.892050
 50
255.737756
 51
348.379625
  0
LINE
  8
CSLAYER1
  6
CONTINUOUS
 62
     7
 10
687.616664
 20
2006.692237
 11
708.838252
 21
2019.952958
  0
INSERT
  8
CSLAYER1
  2
EASYDRAWDIM0000
 10
0.0
 20
0.0
 30
0.0
  0
INSERT
  8
CSLAYER1
  2
EASYDRAWDIM0001
 10
0.0
 20
0.0
 30
0.0
  0
TEXT
  8
CSLAYER1
 62
     3
 10
484.215027
 20
2326.471680
 40
40.000000
 41
0.771429
  1
足踏式油圧ポンプユニット
 50
0.000000
 51
0.000000
  7
EASYDRAW_FONT
 72
     5
 11
844.215027
 21
2326.471680
  0
TEXT
  8
CSLAYER1
 62
     3
 10
394.239441
 20
1721.520264
 40
40.000000
 41
0.763393
  1
外形寸法 400W×500D×280H
 50
0.000000
 51
0.000000
  7
EASYDRAW_FONT
 72
     5
 11
964.239441
 21
1721.520264
  0
LINE
  8
CSLAYER1
  6
CONTINUOUS
 62
     5
 10
1052.803250
 20
2399.546655
 11
1052.803250
 21
1695.437066
  0
LINE
  8
CSLAYER1
  6
CONTINUOUS
 62
     5
 10
1052.803250
 20
1695.437066
 11
251.509119
 21
1695.437066
  0
INSERT
  8
CSLAYER1
  2
EASYDRAWDIM0002
 10
0.0
 20
0.0
 30
0.0
  0
LINE
  8
CSLAYER1
  6
CONTINUOUS
 62
     7
 10
469.306024
 20
2371.917799
 11
859.317270
 21
2371.917799
  0
LINE
  8
CSLAYER1
  6
CONTINUOUS
 62
     7
 10
859.317270
 20
2371.917799
 11
859.317270
 21
2321.773496
  0
LINE
  8
CSLAYER1
  6
CONTINUOUS
 62
     7
 10
859.317270
 20
2321.773496
 11
469.306024
 21
2321.773496
  0
LINE
  8
CSLAYER1
  6
CONTINUOUS
 62
     7
 10
469.306024
 20
2321.773496
 11
469.306024
 21
2371.917799
  0
INSERT
  8
CSLAYER1
  2
BLKF0002
 10
0.0
 20
0.0
 30
0.0
  0
INSERT
  8
CSLAYER1
  2
BLKF0003
 10
0.0
 20
0.0
 30
0.0
  0
LINE
  8
CSLAYER1
  6
CONTINUOUS
 62
     7
 10
655.332247
 20
2055.892955
 11
652.385355
 21
2054.191566
  0
LINE
  8
CSLAYER1
  6
CONTINUOUS
 62
     7
 10
659.755858
 20
2048.231035
 11
656.808966
 21
2046.529646
  0
LINE
  8
CSLAYER1
  6
CONTINUOUS
 62
     7
 10
653.236049
 20
2052.718120
 11
655.625098
 21
2052.141046
  0
LINE
  8
CSLAYER1
  6
CONTINUOUS
 62
     7
 10
655.625098
 20
2052.141046
 11
656.653035
 21
2050.360606
  0
LINE
  8
CSLAYER1
  6
CONTINUOUS
 62
     7
 10
656.653035
 20
2050.360606
 11
655.958271
 21
2048.003092
  0
LINE
  8
CSLAYER1
  6
CONTINUOUS
 62
     7
 10
655.958271
 20
2048.003092
 11
653.569223
 21
2048.580166
  0
LINE
  8
CSLAYER1
  6
CONTINUOUS
 62
     7
 10
653.569223
 20
2048.580166
 11
652.541286
 21
2050.360606
  0
LINE
  8
CSLAYER1
  6
CONTINUOUS
 62
     7
 10
652.541286
 20
2050.360606
 11
653.236049
 21
2052.718120
  0
INSERT
  8
CSLAYER1
  2
BLKF0004
 10
0.0
 20
0.0
 30
0.0
  0
LINE
  8
CSLAYER1
  6
CONTINUOUS
 62
     7
 10
656.529597
 20
2058.030062
 11
654.344791
 21
2056.768663
  0
LINE
  8
CSLAYER1
  6
CONTINUOUS
 62
     7
 10
662.443276
 20
2047.508424
 11
660.342561
 21
2046.330856
  0
INSERT
  8
CSLAYER1
  2
BLKF0005
 10
0.0
 20
0.0
 30
0.0
  0
LINE
  8
CSLAYER1
  6
CONTINUOUS
 62
     7
 10
683.594586
 20
2060.442726
 11
662.550311
 21
2068.102216
  0
LINE
  8
CSLAYER1
  6
CONTINUOUS
 62
     7
 10
683.594586
 20
2060.442726
 11
683.594586
 21
2026.634392
  0
LINE
  8
CSLAYER1
  6
CONTINUOUS
 62
     7
 10
673.399493
 20
2054.072125
 11
673.399493
 21
2008.273626
  0
LINE
  8
CSLAYER1
  6
CONTINUOUS
 62
     7
 10
658.246572
 20
2030.500048
 11
656.112648
 21
2023.509114
  0
LINE
  8
CSLAYER1
  6
CONTINUOUS
 62
     7
 10
656.112648
 20
2023.509114
 11
648.991359
 21
2025.156549
  0
LINE
  8
CSLAYER1
  6
CONTINUOUS
 62
     7
 10
648.991359
 20
2025.156549
 11
645.906289
 21
2030.500048
  0
LINE
  8
CSLAYER1
  6
CONTINUOUS
 62
     7
 10
645.906289
 20
2030.500048
 11
647.991430
 21
2037.575475
  0
LINE
  8
CSLAYER1
  6
CONTINUOUS
 62
     7
 10
647.991430
 20
2037.575475
 11
655.161501
 21
2035.843547
  0
LINE
  8
CSLAYER1
  6
CONTINUOUS
 62
     7
 10
655.161501
 20
2035.843547
 11
658.246572
 21
2030.500048
  0
LINE
  8
CSLAYER1
  6
CONTINUOUS
 62
     7
 10
660.915150
 20
2032.040752
 11
658.781226
 21
2025.049819
  0
LINE
  8
CSLAYER1
  6
CONTINUOUS
 62
     7
 10
657.830080
 20
2037.384252
 11
660.915150
 21
2032.040752
  0
LINE
  8
CSLAYER1
  6
CONTINUOUS
 62
     7
 10
650.660009
 20
2039.116180
 11
657.830080
 21
2037.384252
  0
LINE
  8
CSLAYER1
  6
CONTINUOUS
 62
     7
 10
658.781226
 20
2025.049819
 11
656.112648
 21
2023.509114
  0
LINE
  8
CSLAYER1
  6
CONTINUOUS
 62
     7
 10
660.915150
 20
2032.040752
 11
658.246572
 21
2030.500048
  0
LINE
  8
CSLAYER1
  6
CONTINUOUS
 62
     7
 10
657.830080
 20
2037.384252
 11
655.161501
 21
2035.843547
  0
LINE
  8
CSLAYER1
  6
CONTINUOUS
 62
     7
 10
650.660009
 20
2039.116180
 11
647.991430
 21
2037.575475
  0
INSERT
  8
CSLAYER1
  2
BLKF0006
 10
0.0
 20
0.0
 30
0.0
  0
LINE
  8
CSLAYER1
  6
CONTINUOUS
 62
     7
 10
674.707211
 20
2060.055714
 11
673.047503
 21
2058.311610
  0
LINE
  8
CSLAYER1
  6
CONTINUOUS
 62
     7
 10
673.047503
 20
2058.311610
 11
671.033585
 21
2058.311610
  0
LINE
  8
CSLAYER1
  6
CONTINUOUS
 62
     7
 10
671.033585
 20
2058.311610
 11
669.373877
 21
2060.055714
  0
LINE
  8
CSLAYER1
  6
CONTINUOUS
 62
     7
 10
669.373877
 20
2060.055714
 11
671.033585
 21
2061.799818
  0
LINE
  8
CSLAYER1
  6
CONTINUOUS
 62
     7
 10
671.033585
 20
2061.799818
 11
673.047503
 21
2061.799818
  0
LINE
  8
CSLAYER1
  6
CONTINUOUS
 62
     7
 10
673.047503
 20
2061.799818
 11
674.707211
 21
2060.055714
  0
INSERT
  8
CSLAYER1
  2
BLKF0007
 10
0.0
 20
0.0
 30
0.0
  0
LINE
  8
CSLAYER1
  6
CONTINUOUS
 62
     7
 10
673.399493
 20
2054.072125
 11
652.355218
 21
2061.731615
  0
LINE
  8
CSLAYER1
  6
CONTINUOUS
 62
     7
 10
673.399493
 20
2054.072125
 11
683.594586
 21
2060.442726
  0
LINE
  8
CSLAYER1
  6
CONTINUOUS
 62
     7
 10
638.826607
 20
2065.339079
 11
638.826607
 21
2020.573029
  0
LINE
  8
CSLAYER1
  6
CONTINUOUS
 62
     7
 10
652.355218
 20
2061.731615
 11
662.550311
 21
2068.102216
  0
LINE
  8
CSLAYER1
  6
CONTINUOUS
 62
     7
 10
652.355218
 20
2060.415067
 11
638.826607
 21
2065.339079
  0
LINE
  8
CSLAYER1
  6
CONTINUOUS
 62
     7
 10
652.355218
 20
2061.731615
 11
652.355218
 21
2060.415067
  0
LINE
  8
CSLAYER1
  6
CONTINUOUS
 62
     7
 10
648.280743
 20
2060.718810
 11
641.642397
 21
2063.134970
  0
LINE
  8
CSLAYER1
  6
CONTINUOUS
 62
     7
 10
641.248419
 20
2064.457611
 11
641.642397
 21
2063.134970
  0
LINE
  8
CSLAYER1
  6
CONTINUOUS
 62
     7
 10
648.280743
 20
2060.718810
 11
650.495247
 21
2061.092041
  0
LINE
  8
CSLAYER1
  6
CONTINUOUS
 62
     7
 10
661.218904
 20
2067.270261
 11
654.943832
 21
2069.554200
  0
LINE
  8
CSLAYER1
  6
CONTINUOUS
 62
     7
 10
638.826607
 20
2065.339079
 11
647.882506
 21
2070.997833
  0
LINE
  8
CSLAYER1
  6
CONTINUOUS
 62
     7
 10
648.280743
 20
2060.718810
 11
648.280743
 21
2046.965355
  0
LINE
  8
CSLAYER1
  6
CONTINUOUS
 62
     7
 10
650.495247
 20
2061.092041
 11
650.495247
 21
2048.438021
  0
LINE
  8
CSLAYER1
  6
CONTINUOUS
 62
     7
 10
641.642397
 20
2063.134970
 11
641.642397
 21
2049.381516
  0
LINE
  8
CSLAYER1
  6
CONTINUOUS
 62
     7
 10
641.642397
 20
2049.381516
 11
643.367325
 21
2044.265469
  0
LINE
  8
CSLAYER1
  6
CONTINUOUS
 62
     7
 10
648.280743
 20
2046.965355
 11
645.903582
 21
2043.201877
  0
LINE
  8
CSLAYER1
  6
CONTINUOUS
 62
     7
 10
643.367325
 20
2044.265469
 11
643.367325
 21
2018.780177
  0
LINE
  8
CSLAYER1
  6
CONTINUOUS
 62
     7
 10
645.903582
 20
2043.201877
 11
645.903582
 21
2017.062067
  0
LINE
  8
CSLAYER1
  6
CONTINUOUS
 62
     7
 10
648.280743
 20
2046.965355
 11
650.402491
 21
2048.291171
  0
LINE
  8
CSLAYER1
  6
CONTINUOUS
 62
     7
 10
645.903582
 20
2043.201877
 11
648.025330
 21
2044.527693
  0
LINE
  8
CSLAYER1
  6
CONTINUOUS
 62
     7
 10
650.495247
 20
2048.438021
 11
648.118086
 21
2044.674543
  0
LINE
  8
CSLAYER1
  6
CONTINUOUS
 62
     7
 10
648.118086
 20
2044.674543
 11
648.118086
 21
2037.648601
  0
LINE
  8
CSLAYER1
  6
CONTINUOUS
 62
     7
 10
648.118086
 20
2026.669102
 11
648.118086
 21
2016.162105
  0
LINE
  8
CSLAYER1
  6
CONTINUOUS
 62
     7
 10
683.594586
 20
2026.634392
 11
686.129384
 21
2028.218310
  0
LINE
  8
CSLAYER1
  6
CONTINUOUS
 62
     7
 10
654.468713
 20
2013.140093
 11
618.132095
 21
2030.406806
  0
LINE
  8
CSLAYER1
  6
CONTINUOUS
 62
     7
 10
648.552001
 20
2000.818557
 11
613.091181
 21
2017.669102
  0
LINE
  8
CSLAYER1
  6
CONTINUOUS
 62
     7
 10
698.759619
 20
2013.655128
 11
695.780217
 21
1999.166773
  0
ARC
  8
CSLAYER1
  6
CONTINUOUS
 62
     7
 10
675.928468
 20
2058.300683
 40
50.000000
 50
244.583509
 51
263.653028
  0
ARC
  8
CSLAYER1
  6
CONTINUOUS
 62
     7
 10
676.020488
 20
2058.624113
 40
64.000000
 50
244.583509
 51
263.653028
  0
LINE
  8
CSLAYER1
  6
CONTINUOUS
 62
     7
 10
667.093600
 20
1995.249743
 11
667.093600
 21
1992.354015
  0
LINE
  8
CSLAYER1
  6
CONTINUOUS
 62
     7
 10
644.134626
 20
2000.710398
 11
641.327684
 21
2004.251464
  0
LINE
  8
CSLAYER1
  6
CONTINUOUS
 62
     5
 10
401.560288
 20
799.475686
 11
603.616524
 21
799.475686
  0
POINT
  8
CSLAYER1
 62
     5
 10
1364.025350
 20
816.975686
  0
LINE
  8
CSLAYER1
  6
CONTINUOUS
 62
     3
 10
1339.025350
 20
839.475686
 11
1339.025350
 21
799.475686
  0
LINE
  8
CSLAYER1
  6
CONTINUOUS
 62
     3
 10
1339.025350
 20
839.475686
 11
1352.568911
 21
839.475686
  0
LINE
  8
CSLAYER1
  6
CONTINUOUS
 62
     3
 10
1375.481789
 20
839.475686
 11
2142.025350
 21
839.475686
  0
LINE
  8
CSLAYER1
  6
CONTINUOUS
 62
     3
 10
1339.025350
 20
805.475686
 11
1383.025350
 21
805.475686
  0
ARC
  8
CSLAYER1
  6
CONTINUOUS
 62
     3
 10
1364.025350
 20
844.475686
 40
12.500000
 50
203.578178
 51
336.421822
  0
LINE
  8
CSLAYER1
  6
CONTINUOUS
 62
     3
 10
1383.025350
 20
839.475686
 11
1383.025350
 21
805.475686
  0
LINE
  8
CSLAYER1
  6
CENTER
 62
     5
 10
1353.130521
 20
816.975686
 11
1374.245755
 21
816.975686
  0
LINE
  8
CSLAYER1
  6
CENTER
 62
     5
 10
1364.025350
 20
827.945341
 11
1364.025350
 21
806.006030
  0
INSERT
  8
CSLAYER1
  2
BLKF0008
 10
0.0
 20
0.0
 30
0.0
  0
LINE
  8
CSLAYER1
  6
CONTINUOUS
 62
     3
 10
1419.743061
 20
903.224557
 11
1438.672770
 21
891.177791
  0
LINE
  8
CSLAYER1
  6
CONTINUOUS
 62
     3
 10
1501.270786
 20
1056.402178
 11
1525.541788
 21
1040.956242
  0
LINE
  8
CSLAYER1
  6
CONTINUOUS
 62
     3
 10
1468.788835
 20
1011.880579
 11
1486.708891
 21
1000.476350
  0
LINE
  8
CSLAYER1
  6
CONTINUOUS
 62
     3
 10
1468.482079
 20
1013.261123
 11
1486.736480
 21
1041.945210
  0
LINE
  8
CSLAYER1
  6
CONTINUOUS
 62
     3
 10
1486.736480
 20
1041.945210
 11
1501.270786
 21
1056.402178
  0
LINE
  8
CSLAYER1
  6
CONTINUOUS
 62
     3
 10
1468.482079
 20
1013.261123
 11
1468.788835
 21
1011.880579
  0
LINE
  8
CSLAYER1
  6
CONTINUOUS
 62
     3
 10
1419.659070
 20
930.582789
 11
1470.644864
 21
1010.699412
  0
POINT
  8
CSLAYER1
 62
     3
 10
1419.201735
 20
884.603835
  0
LINE
  8
CSLAYER1
  6
CENTER
 62
     6
 10
1413.725932
 20
875.999422
 11
1599.114961
 21
1167.310823
  0
POINT
  8
CSLAYER1
 62
     3
 10
1599.114961
 20
1167.310823
  0
CIRCLE
  8
CSLAYER1
  6
CONTINUOUS
 62
     3
 10
1599.114961
 20
1167.310823
 40
8.000000
  0
LINE
  8
CSLAYER1
  6
CONTINUOUS
 62
     3
 10
1568.610842
 20
1085.851955
 11
1582.650916
 21
1107.913853
  0
LINE
  8
CSLAYER1
  6
CONTINUOUS
 62
     3
 10
1505.489034
 20
1053.717708
 11
1556.997369
 21
1134.655427
  0
CIRCLE
  8
CSLAYER1
  6
CONTINUOUS
 62
     3
 10
1419.201735
 20
884.603835
 40
8.000000
  0
LINE
  8
CSLAYER1
  6
CONTINUOUS
 62
     3
 10
1421.953858
 20
854.248838
 11
1407.781777
 21
839.475686
  0
LINE
  8
CSLAYER1
  6
CONTINUOUS
 62
     3
 10
1680.025215
 20
1130.488182
 11
1669.427094
 21
1112.940253
  0
LINE
  8
CSLAYER1
  6
CONTINUOUS
 62
     3
 10
1403.624550
 20
839.475686
 11
1414.943037
 21
851.274216
  0
LINE
  8
CSLAYER1
  6
CONTINUOUS
 62
     3
 10
1414.943037
 20
851.274216
 11
1420.900767
 21
853.873341
  0
LINE
  8
CSLAYER1
  6
CONTINUOUS
 62
     3
 10
1384.701581
 20
894.142670
 11
1849.581613
 21
1378.739357
  0
LINE
  8
CSLAYER1
  6
CONTINUOUS
 62
     3
 10
1420.900767
 20
853.873341
 11
1669.427094
 21
1112.940253
  0
CIRCLE
  8
CSLAYER1
  6
CONTINUOUS
 62
     3
 10
1623.628059
 20
1087.588755
 40
7.500000
  0
ARC
  8
CSLAYER1
  6
CONTINUOUS
 62
     3
 10
1863.385810
 20
1377.239357
 40
5.000000
 50
-197.457603
 51
17.457603
  0
ARC
  8
CSLAYER1
  6
CONTINUOUS
 62
     3
 10
1863.385810
 20
1377.239357
 40
13.000000
 50
-186.625810
 51
6.625810
  0
POINT
  8
CSLAYER1
 62
     3
 10
1863.385810
 20
1377.239357
  0
POINT
  8
CSLAYER1
 62
     3
 10
1623.628059
 20
1087.588755
  0
LINE
  8
CSLAYER1
  6
CONTINUOUS
 62
     3
 10
1680.025215
 20
1130.488182
 11
1856.555057
 21
1314.505070
  0
LINE
  8
CSLAYER1
  6
CONTINUOUS
 62
     3
 10
1856.555057
 20
1314.505070
 11
1872.007178
 21
1367.509403
  0
POINT
  8
CSLAYER1
 62
     3
 10
1364.025350
 20
816.975686
  0
LINE
  8
CSLAYER1
  6
CONTINUOUS
 62
     3
 10
1405.423465
 20
883.964088
 11
1416.969622
 21
872.887706
  0
LINE
  8
CSLAYER1
  6
CONTINUOUS
 62
     3
 10
1429.653051
 20
909.221308
 11
1441.199208
 21
898.144926
  0
LINE
  8
CSLAYER1
  6
CONTINUOUS
 62
     3
 10
1421.211349
 20
872.975789
 11
1441.287291
 21
893.903200
  0
LINE
  8
CSLAYER1
  6
CONTINUOUS
 62
     3
 10
1405.335382
 20
888.205815
 11
1425.411325
 21
909.133225
  0
ARC
  8
CSLAYER1
  6
CONTINUOUS
 62
     3
 10
1407.500286
 20
886.128993
 40
3.000000
 50
136.189622
 51
226.189622
  0
ARC
  8
CSLAYER1
  6
CONTINUOUS
 62
     3
 10
1427.576229
 20
907.056404
 40
3.000000
 50
46.189622
 51
136.189622
  0
ARC
  8
CSLAYER1
  6
CONTINUOUS
 62
     3
 10
1419.046444
 20
875.052611
 40
3.000000
 50
226.189622
 51
316.189622
  0
ARC
  8
CSLAYER1
  6
CONTINUOUS
 62
     3
 10
1439.122387
 20
895.980021
 40
3.000000
 50
-43.810378
 51
46.189622
  0
LINE
  8
CSLAYER1
  6
CONTINUOUS
 62
     3
 10
1384.701581
 20
894.142670
 11
1357.406310
 21
833.871992
  0
ARC
  8
CSLAYER1
  6
CONTINUOUS
 62
     3
 10
1599.114961
 20
1167.310823
 40
17.000000
 50
42.544562
 51
100.895989
  0
LINE
  8
CSLAYER1
  6
CONTINUOUS
 62
     3
 10
1611.639740
 20
1178.805601
 11
1634.200424
 21
1154.223345
  0
ARC
  8
CSLAYER1
  6
CONTINUOUS
 62
     3
 10
1586.847169
 20
1155.542167
 40
30.000000
 50
43.810378
 51
92.000063
  0
LINE
  8
CSLAYER1
  6
CONTINUOUS
 62
     3
 10
1664.149248
 20
1029.459303
 11
1846.403053
 21
839.475686
  0
ARC
  8
CSLAYER1
  6
CONTINUOUS
 62
     3
 10
1883.230768
 20
816.975686
 40
13.000000
 50
62.435886
 51
118.531765
  0
POINT
  8
CSLAYER1
 62
     3
 10
1883.230768
 20
816.975686
  0
LINE
  8
CSLAYER1
  6
CONTINUOUS
 62
     3
 10
1543.215330
 20
1149.021995
 11
1586.213015
 21
1104.200677
  0
LINE
  8
CSLAYER1
  6
CONTINUOUS
 62
     3
 10
1664.149248
 20
1029.459303
 11
1647.056413
 21
1040.776767
  0
LINE
  8
CSLAYER1
  6
CONTINUOUS
 62
     3
 10
1532.617209
 20
1166.569925
 11
1543.215330
 21
1149.021995
  0
LINE
  8
CSLAYER1
  6
CONTINUOUS
 62
     3
 10
1532.617209
 20
1166.569925
 11
1424.573193
 21
1279.196341
  0
LINE
  8
CSLAYER1
  6
CONTINUOUS
 62
     3
 10
1406.031191
 20
1372.917275
 11
1585.800151
 21
1185.523890
  0
LINE
  8
CSLAYER1
  6
CONTINUOUS
 62
     3
 10
1877.843285
 20
881.094521
 11
1888.720023
 21
839.475686
  0
LINE
  8
CSLAYER1
  6
CONTINUOUS
 62
     3
 10
1608.496214
 20
1176.310383
 11
1631.942513
 21
1151.869672
  0
ARC
  8
CSLAYER1
  6
CONTINUOUS
 62
     3
 10
1623.628059
 20
1087.588755
 40
50.500000
 50
7.129993
 51
28.315266
  0
LINE
  8
CSLAYER1
  6
CONTINUOUS
 62
     3
 10
1673.737548
 20
1093.856862
 11
1877.843285
 21
881.094521
  0
LINE
  8
CSLAYER1
  6
CONTINUOUS
 62
     3
 10
1416.004614
 20
1306.907029
 11
1375.290920
 21
1366.739357
  0
LINE
  8
CSLAYER1
  6
CONTINUOUS
 62
     3
 10
1416.004614
 20
1306.907029
 11
1419.359263
 21
1289.298818
  0
ARC
  8
CSLAYER1
  6
CONTINUOUS
 62
     3
 10
1439.005890
 20
1293.041819
 40
20.000000
 50
190.786510
 51
223.810378
  0
LINE
  8
CSLAYER1
  6
CONTINUOUS
 62
     3
 10
1623.628059
 20
1065.198773
 11
1647.056413
 21
1040.776767
  0
LINE
  8
CSLAYER1
  6
CONTINUOUS
 62
     3
 10
1486.736480
 20
1041.945210
 11
1511.420735
 21
1026.236281
  0
LINE
  8
CSLAYER1
  6
CENTER
 62
     6
 10
1863.385810
 20
1392.301146
 11
1863.385810
 21
1362.109159
  0
LINE
  8
CSLAYER1
  6
CENTER
 62
     6
 10
1848.022223
 20
1377.239357
 11
1879.371730
 21
1377.239357
  0
ARC
  8
CSLAYER1
  6
CONTINUOUS
 62
     3
 10
1863.385810
 20
1377.239357
 40
13.000000
 50
30.558220
 51
60.792798
  0
ARC
  8
CSLAYER1
  6
CONTINUOUS
 62
     3
 10
1863.385810
 20
1377.239357
 40
13.000000
 50
78.150466
 51
117.215867
  0
ARC
  8
CSLAYER1
  6
CONTINUOUS
 62
     3
 10
1863.385810
 20
1377.239357
 40
13.000000
 50
129.904453
 51
154.186413
  0
POINT
  8
CSLAYER1
 62
     4
 10
1364.025350
 20
816.975686
  0
CIRCLE
  8
CSLAYER1
  6
CONTINUOUS
 62
     3
 10
1364.025350
 20
816.975686
 40
9.500000
  0
LINE
  8
CSLAYER1
  6
CONTINUOUS
 62
     3
 10
1373.525350
 20
822.460513
 11
1364.025350
 21
827.945341
  0
LINE
  8
CSLAYER1
  6
CONTINUOUS
 62
     3
 10
1364.025350
 20
827.945341
 11
1354.525350
 21
822.460513
  0
LINE
  8
CSLAYER1
  6
CONTINUOUS
 62
     3
 10
1354.525350
 20
822.460513
 11
1354.525350
 21
811.490858
  0
LINE
  8
CSLAYER1
  6
CONTINUOUS
 62
     3
 10
1354.525350
 20
811.490858
 11
1364.025350
 21
806.006030
  0
LINE
  8
CSLAYER1
  6
CONTINUOUS
 62
     3
 10
1364.025350
 20
806.006030
 11
1373.525350
 21
811.490858
  0
LINE
  8
CSLAYER1
  6
CONTINUOUS
 62
     3
 10
1373.525350
 20
811.490858
 11
1373.525350
 21
822.460513
  0
LINE
  8
CSLAYER1
  6
CENTER
 62
     6
 10
1865.493239
 20
816.975686
 11
1902.489441
 21
816.975686
  0
LINE
  8
CSLAYER1
  6
CENTER
 62
     6
 10
1883.230768
 20
835.468903
 11
1883.230768
 21
801.006687
  0
ARC
  8
CSLAYER1
  6
CONTINUOUS
 62
     3
 10
1883.230768
 20
816.975686
 40
13.000000
 50
-30.596977
 51
29.035047
  0
ARC
  8
CSLAYER1
  6
CONTINUOUS
 62
     3
 10
1883.230768
 20
816.975686
 40
13.000000
 50
239.433195
 51
304.891780
  0
ARC
  8
CSLAYER1
  6
CONTINUOUS
 62
     3
 10
1883.230768
 20
816.975686
 40
13.000000
 50
145.113852
 51
207.530823
  0
LINE
  8
CSLAYER1
  6
CENTER
 62
     5
 10
753.616524
 20
1450.712635
 11
753.616524
 21
759.475686
  0
LINE
  8
CSLAYER1
  6
CENTER
 62
     5
 10
844.616524
 20
1377.239357
 11
662.616524
 21
1377.239357
  0
LINE
  8
CSLAYER1
  6
CONTINUOUS
 62
     2
 10
808.616524
 20
1381.039357
 11
808.616524
 21
1336.739357
  0
LINE
  8
CSLAYER1
  6
CONTINUOUS
 62
     3
 10
809.616524
 20
1368.589357
 11
808.616524
 21
1368.589357
  0
LINE
  8
CSLAYER1
  6
CONTINUOUS
 62
     3
 10
810.616524
 20
1381.039357
 11
810.616524
 21
1369.589357
  0
LINE
  8
CSLAYER1
  6
CONTINUOUS
 62
     3
 10
810.616524
 20
1369.589357
 11
809.616524
 21
1368.589357
  0
LINE
  8
CSLAYER1
  6
CONTINUOUS
 62
     3
 10
809.616524
 20
1381.039357
 11
809.616524
 21
1368.589357
  0
LINE
  8
CSLAYER1
  6
CONTINUOUS
 62
     3
 10
799.616524
 20
1368.589357
 11
707.616524
 21
1368.589357
  0
LINE
  8
CSLAYER1
  6
CONTINUOUS
 62
     3
 10
811.116524
 20
1366.739357
 11
817.116524
 21
1366.739357
  0
INSERT
  8
CSLAYER1
  2
BLKF0009
 10
0.0
 20
0.0
 30
0.0
  0
LINE
  8
CSLAYER1
  6
CONTINUOUS
 62
     3
 10
817.116524
 20
1381.039357
 11
817.116524
 21
1366.489357
  0
LINE
  8
CSLAYER1
  6
CONTINUOUS
 62
     3
 10
811.116524
 20
1381.039357
 11
811.116524
 21
1366.739357
  0
LINE
  8
CSLAYER1
  6
CONTINUOUS
 62
     3
 10
850.616524
 20
1381.039357
 11
850.616524
 21
1378.739357
  0
LINE
  8
CSLAYER1
  6
CONTINUOUS
 62
     3
 10
850.616524
 20
1378.739357
 11
846.116524
 21
1378.739357
  0
LINE
  8
CSLAYER1
  6
CONTINUOUS
 62
     3
 10
846.116524
 20
1381.039357
 11
846.116524
 21
1378.739357
  0
LINE
  8
CSLAYER1
  6
CONTINUOUS
 62
     3
 10
853.616524
 20
1411.039357
 11
653.616524
 21
1411.039357
  0
LINE
  8
CSLAYER1
  6
CONTINUOUS
 62
     3
 10
853.616524
 20
1381.039357
 11
653.616524
 21
1381.039357
  0
LINE
  8
CSLAYER1
  6
CONTINUOUS
 62
     3
 10
799.616524
 20
839.475686
 11
799.616524
 21
1381.039357
  0
LINE
  8
CSLAYER1
  6
CONTINUOUS
 62
     3
 10
811.616524
 20
839.475686
 11
811.616524
 21
1366.739357
  0
LINE
  8
CSLAYER1
  6
CONTINUOUS
 62
     3
 10
808.616524
 20
839.475686
 11
808.616524
 21
1381.039357
  0
LINE
  8
CSLAYER1
  6
CONTINUOUS
 62
     3
 10
820.616524
 20
839.475686
 11
820.616524
 21
1366.269702
  0
LINE
  8
CSLAYER1
  6
CONTINUOUS
 62
     1
 10
831.116524
 20
806.006030
 11
831.116524
 21
827.945341
  0
LINE
  8
CSLAYER1
  6
CONTINUOUS
 62
     1
 10
828.116524
 20
827.725686
 11
831.116524
 21
827.725686
  0
LINE
  8
CSLAYER1
  6
CONTINUOUS
 62
     1
 10
828.116524
 20
806.225686
 11
831.116524
 21
806.225686
  0
LINE
  8
CSLAYER1
  6
CONTINUOUS
 62
     1
 10
828.116524
 20
815.463489
 11
831.116524
 21
818.963489
  0
LINE
  8
CSLAYER1
  6
CONTINUOUS
 62
     1
 10
839.116524
 20
825.975686
 11
839.116524
 21
807.975686
  0
LINE
  8
CSLAYER1
  6
CONTINUOUS
 62
     1
 10
831.116524
 20
822.460513
 11
837.979343
 21
822.460513
  0
LINE
  8
CSLAYER1
  6
CONTINUOUS
 62
     1
 10
831.116524
 20
827.945341
 11
837.979343
 21
827.945341
  0
LINE
  8
CSLAYER1
  6
CONTINUOUS
 62
     1
 10
839.116524
 20
825.975686
 11
837.979343
 21
827.945341
  0
ARC
  8
CSLAYER1
  6
CONTINUOUS
 62
     1
 10
835.336480
 20
825.202927
 40
3.808617
 50
313.940972
 51
354.338367
  0
ARC
  8
CSLAYER1
  6
CONTINUOUS
 62
     1
 10
825.320780
 20
816.975686
 40
13.795744
 50
-23.426598
 51
23.426598
  0
LINE
  8
CSLAYER1
  6
CONTINUOUS
 62
     1
 10
831.116524
 20
811.490858
 11
837.979343
 21
811.490858
  0
LINE
  8
CSLAYER1
  6
CONTINUOUS
 62
     1
 10
831.116524
 20
806.006030
 11
837.979343
 21
806.006030
  0
LINE
  8
CSLAYER1
  6
CONTINUOUS
 62
     1
 10
839.116524
 20
807.975686
 11
837.979343
 21
806.006030
  0
ARC
  8
CSLAYER1
  6
CONTINUOUS
 62
     1
 10
835.336480
 20
808.748444
 40
3.808617
 50
5.661633
 51
46.059028
  0
LINE
  8
CSLAYER1
  6
CONTINUOUS
 62
     3
 10
832.616524
 20
1381.039357
 11
832.616524
 21
1364.239357
  0
LINE
  8
CSLAYER1
  6
CONTINUOUS
 62
     3
 10
824.616524
 20
1366.269702
 11
824.616524
 21
1364.239357
  0
LINE
  8
CSLAYER1
  6
CONTINUOUS
 62
     3
 10
840.616524
 20
1381.039357
 11
840.616524
 21
1364.239357
  0
LINE
  8
CSLAYER1
  6
CONTINUOUS
 62
     3
 10
841.616524
 20
1381.039357
 11
841.616524
 21
1369.239357
  0
LINE
  8
CSLAYER1
  6
CONTINUOUS
 62
     3
 10
843.616524
 20
1381.039357
 11
843.616524
 21
1372.739357
  0
LINE
  8
CSLAYER1
  6
CONTINUOUS
 62
     3
 10
843.116524
 20
1372.239357
 11
841.616524
 21
1372.239357
  0
LINE
  8
CSLAYER1
  6
CONTINUOUS
 62
     3
 10
841.616524
 20
1369.239357
 11
840.616524
 21
1369.239357
  0
LINE
  8
CSLAYER1
  6
CONTINUOUS
 62
     3
 10
843.116524
 20
1372.239357
 11
843.616524
 21
1372.739357
  0
LINE
  8
CSLAYER1
  6
CONTINUOUS
 62
     3
 10
840.616524
 20
1364.239357
 11
824.616524
 21
1364.239357
  0
LINE
  8
CSLAYER1
  6
CENTER
 62
     6
 10
728.616524
 20
1167.310823
 11
808.616524
 21
1167.310823
  0
LINE
  8
CSLAYER1
  6
CENTER
 62
     6
 10
707.616524
 20
1119.132127
 11
799.616524
 21
1119.132127
  0
LINE
  8
CSLAYER1
  6
CENTER
 62
     6
 10
674.116524
 20
1087.588755
 11
833.116524
 21
1087.588755
  0
LINE
  8
CSLAYER1
  6
CENTER
 62
     6
 10
735.116524
 20
884.603835
 11
793.116524
 21
884.603835
  0
LINE
  8
CSLAYER1
  6
CONTINUOUS
 62
     3
 10
728.616524
 20
1184.310823
 11
740.616524
 21
1184.310823
  0
LINE
  8
CSLAYER1
  6
CONTINUOUS
 62
     3
 10
728.616524
 20
1112.920921
 11
740.616524
 21
1112.920921
  0
LINE
  8
CSLAYER1
  6
CONTINUOUS
 62
     3
 10
707.616524
 20
1143.432127
 11
728.616524
 21
1143.432127
  0
LINE
  8
CSLAYER1
  6
CONTINUOUS
 62
     3
 10
707.616524
 20
1095.088755
 11
746.116524
 21
1095.088755
  0
LINE
  8
CSLAYER1
  6
CONTINUOUS
 62
     3
 10
707.616524
 20
1080.088755
 11
746.116524
 21
1080.088755
  0
LINE
  8
CSLAYER1
  6
CONTINUOUS
 62
     3
 10
735.116524
 20
849.361171
 11
741.116524
 21
849.361171
  0
LINE
  8
CSLAYER1
  6
CONTINUOUS
 62
     3
 10
707.616524
 20
867.402042
 11
719.966524
 21
867.402042
  0
LINE
  8
CSLAYER1
  6
CONTINUOUS
 62
     3
 10
735.116524
 20
900.603835
 11
741.116524
 21
900.603835
  0
LINE
  8
CSLAYER1
  6
CONTINUOUS
 62
     3
 10
793.116524
 20
849.361171
 11
793.116524
 21
900.603835
  0
LINE
  8
CSLAYER1
  6
CONTINUOUS
 62
     3
 10
787.116524
 20
849.361171
 11
787.116524
 21
900.603835
  0
LINE
  8
CSLAYER1
  6
CONTINUOUS
 62
     3
 10
741.116524
 20
849.361171
 11
741.116524
 21
900.603835
  0
LINE
  8
CSLAYER1
  6
CONTINUOUS
 62
     3
 10
735.116524
 20
849.361171
 11
735.116524
 21
900.603835
  0
LINE
  8
CSLAYER1
  6
CONTINUOUS
 62
     3
 10
787.116524
 20
900.603835
 11
793.116524
 21
900.603835
  0
LINE
  8
CSLAYER1
  6
CONTINUOUS
 62
     3
 10
787.116524
 20
849.361171
 11
793.116524
 21
849.361171
  0
LINE
  8
CSLAYER1
  6
CONTINUOUS
 62
     3
 10
808.616524
 20
867.402042
 11
811.616524
 21
867.402042
  0
LINE
  8
CSLAYER1
  6
CONTINUOUS
 62
     3
 10
793.116524
 20
867.402042
 11
799.616524
 21
867.402042
  0
LINE
  8
CSLAYER1
  6
CONTINUOUS
 62
     3
 10
741.116524
 20
867.402042
 11
787.116524
 21
867.402042
  0
LINE
  8
CSLAYER1
  6
CONTINUOUS
 62
     3
 10
728.616524
 20
1112.920921
 11
728.616524
 21
1184.310823
  0
LINE
  8
CSLAYER1
  6
CONTINUOUS
 62
     3
 10
740.616524
 20
1112.920921
 11
740.616524
 21
1184.310823
  0
LINE
  8
CSLAYER1
  6
CONTINUOUS
 62
     3
 10
787.616524
 20
1112.920921
 11
787.616524
 21
1184.310823
  0
LINE
  8
CSLAYER1
  6
CONTINUOUS
 62
     3
 10
787.616524
 20
1112.920921
 11
799.616524
 21
1112.920921
  0
LINE
  8
CSLAYER1
  6
CONTINUOUS
 62
     3
 10
740.616524
 20
1143.432127
 11
746.116524
 21
1143.432127
  0
LINE
  8
CSLAYER1
  6
CONTINUOUS
 62
     3
 10
787.616524
 20
1184.310823
 11
799.616524
 21
1184.310823
  0
LINE
  8
CSLAYER1
  6
CONTINUOUS
 62
     3
 10
832.116524
 20
1092.588755
 11
831.616524
 21
1092.588755
  0
LINE
  8
CSLAYER1
  6
CONTINUOUS
 62
     3
 10
820.616524
 20
1079.088755
 11
821.116524
 21
1079.088755
  0
LINE
  8
CSLAYER1
  6
CONTINUOUS
 62
     3
 10
820.616524
 20
1096.088755
 11
821.116524
 21
1096.088755
  0
LINE
  8
CSLAYER1
  6
CONTINUOUS
 62
     3
 10
821.116524
 20
1077.088755
 11
821.116524
 21
1098.088755
  0
LINE
  8
CSLAYER1
  6
CONTINUOUS
 62
     3
 10
833.116524
 20
1091.588755
 11
833.116524
 21
1083.588755
  0
LINE
  8
CSLAYER1
  6
CONTINUOUS
 62
     3
 10
811.616524
 20
1073.588755
 11
808.616524
 21
1073.588755
  0
LINE
  8
CSLAYER1
  6
CONTINUOUS
 62
     3
 10
811.616524
 20
1101.588755
 11
808.616524
 21
1101.588755
  0
LINE
  8
CSLAYER1
  6
CONTINUOUS
 62
     3
 10
823.116524
 20
1077.088755
 11
823.116524
 21
1098.088755
  0
LINE
  8
CSLAYER1
  6
CONTINUOUS
 62
     3
 10
825.616524
 20
1078.388755
 11
825.616524
 21
1096.788755
  0
LINE
  8
CSLAYER1
  6
CONTINUOUS
 62
     3
 10
825.616524
 20
1096.788755
 11
823.116524
 21
1096.788755
  0
LINE
  8
CSLAYER1
  6
CONTINUOUS
 62
     3
 10
823.116524
 20
1098.088755
 11
821.116524
 21
1098.088755
  0
LINE
  8
CSLAYER1
  6
CONTINUOUS
 62
     3
 10
825.616524
 20
1078.388755
 11
823.116524
 21
1078.388755
  0
LINE
  8
CSLAYER1
  6
CONTINUOUS
 62
     3
 10
823.116524
 20
1077.088755
 11
821.116524
 21
1077.088755
  0
LINE
  8
CSLAYER1
  6
CONTINUOUS
 62
     3
 10
831.616524
 20
1079.088755
 11
831.616524
 21
1096.088755
  0
LINE
  8
CSLAYER1
  6
CONTINUOUS
 62
     3
 10
832.116524
 20
1092.588755
 11
833.116524
 21
1091.588755
  0
LINE
  8
CSLAYER1
  6
CONTINUOUS
 62
     3
 10
832.816524
 20
1091.888755
 11
831.616524
 21
1091.888755
  0
LINE
  8
CSLAYER1
  6
CONTINUOUS
 62
     3
 10
832.116524
 20
1092.588755
 11
832.116524
 21
1082.588755
  0
LINE
  8
CSLAYER1
  6
CONTINUOUS
 62
     3
 10
830.857335
 20
1097.403710
 11
826.375713
 21
1097.403710
  0
LINE
  8
CSLAYER1
  6
CONTINUOUS
 62
     3
 10
830.857335
 20
1092.496233
 11
826.375713
 21
1092.496233
  0
LINE
  8
CSLAYER1
  6
CONTINUOUS
 62
     3
 10
831.616524
 20
1096.088755
 11
830.857335
 21
1097.403710
  0
ARC
  8
CSLAYER1
  6
CONTINUOUS
 62
     3
 10
815.375713
 20
1087.588755
 40
16.240811
 50
-17.587954
 51
17.587954
  0
ARC
  8
CSLAYER1
  6
CONTINUOUS
 62
     3
 10
827.275600
 20
1094.949971
 40
4.341619
 50
-34.413868
 51
27.480777
  0
LINE
  8
CSLAYER1
  6
CONTINUOUS
 62
     3
 10
831.616524
 20
1079.088755
 11
830.857335
 21
1077.773801
  0
ARC
  8
CSLAYER1
  6
CONTINUOUS
 62
     3
 10
827.275600
 20
1080.227539
 40
4.341619
 50
-27.480777
 51
34.413868
  0
LINE
  8
CSLAYER1
  6
CONTINUOUS
 62
     3
 10
825.616524
 20
1096.088755
 11
826.375713
 21
1097.403710
  0
ARC
  8
CSLAYER1
  6
CONTINUOUS
 62
     3
 10
841.857335
 20
1087.588755
 40
16.240811
 50
162.412046
 51
197.587954
  0
ARC
  8
CSLAYER1
  6
CONTINUOUS
 62
     3
 10
829.957448
 20
1094.949971
 40
4.341619
 50
152.519223
 51
214.413868
  0
LINE
  8
CSLAYER1
  6
CONTINUOUS
 62
     3
 10
825.616524
 20
1079.088755
 11
826.375713
 21
1077.773801
  0
ARC
  8
CSLAYER1
  6
CONTINUOUS
 62
     3
 10
829.957448
 20
1080.227539
 40
4.341619
 50
145.586132
 51
207.480777
  0
LINE
  8
CSLAYER1
  6
CONTINUOUS
 62
     3
 10
830.857335
 20
1077.773801
 11
826.375713
 21
1077.773801
  0
LINE
  8
CSLAYER1
  6
CONTINUOUS
 62
     3
 10
830.857335
 20
1082.681278
 11
826.375713
 21
1082.681278
  0
LINE
  8
CSLAYER1
  6
CONTINUOUS
 62
     3
 10
832.116524
 20
1082.588755
 11
831.616524
 21
1082.588755
  0
LINE
  8
CSLAYER1
  6
CONTINUOUS
 62
     3
 10
832.116524
 20
1082.588755
 11
833.116524
 21
1083.588755
  0
LINE
  8
CSLAYER1
  6
CONTINUOUS
 62
     3
 10
832.816524
 20
1083.288755
 11
831.616524
 21
1083.288755
  0
LINE
  8
CSLAYER1
  6
CONTINUOUS
 62
     3
 10
823.116524
 20
1085.687308
 11
825.616524
 21
1089.056873
  0
LINE
  8
CSLAYER1
  6
CONTINUOUS
 62
     3
 10
675.116524
 20
1092.588755
 11
675.616524
 21
1092.588755
  0
LINE
  8
CSLAYER1
  6
CONTINUOUS
 62
     3
 10
686.616524
 20
1079.088755
 11
686.116524
 21
1079.088755
  0
LINE
  8
CSLAYER1
  6
CONTINUOUS
 62
     3
 10
686.616524
 20
1096.088755
 11
686.116524
 21
1096.088755
  0
LINE
  8
CSLAYER1
  6
CONTINUOUS
 62
     3
 10
686.116524
 20
1077.088755
 11
686.116524
 21
1098.088755
  0
LINE
  8
CSLAYER1
  6
CONTINUOUS
 62
     3
 10
674.116524
 20
1091.588755
 11
674.116524
 21
1083.588755
  0
LINE
  8
CSLAYER1
  6
CONTINUOUS
 62
     3
 10
695.616524
 20
1073.588755
 11
698.616524
 21
1073.588755
  0
LINE
  8
CSLAYER1
  6
CONTINUOUS
 62
     3
 10
695.616524
 20
1101.588755
 11
698.616524
 21
1101.588755
  0
LINE
  8
CSLAYER1
  6
CONTINUOUS
 62
     3
 10
684.116524
 20
1077.088755
 11
684.116524
 21
1098.088755
  0
LINE
  8
CSLAYER1
  6
CONTINUOUS
 62
     3
 10
681.616524
 20
1078.388755
 11
681.616524
 21
1096.788755
  0
LINE
  8
CSLAYER1
  6
CONTINUOUS
 62
     3
 10
681.616524
 20
1096.788755
 11
684.116524
 21
1096.788755
  0
LINE
  8
CSLAYER1
  6
CONTINUOUS
 62
     3
 10
684.116524
 20
1098.088755
 11
686.116524
 21
1098.088755
  0
LINE
  8
CSLAYER1
  6
CONTINUOUS
 62
     3
 10
681.616524
 20
1078.388755
 11
684.116524
 21
1078.388755
  0
LINE
  8
CSLAYER1
  6
CONTINUOUS
 62
     3
 10
684.116524
 20
1077.088755
 11
686.116524
 21
1077.088755
  0
LINE
  8
CSLAYER1
  6
CONTINUOUS
 62
     3
 10
675.616524
 20
1079.088755
 11
675.616524
 21
1096.088755
  0
LINE
  8
CSLAYER1
  6
CONTINUOUS
 62
     3
 10
675.116524
 20
1092.588755
 11
674.116524
 21
1091.588755
  0
LINE
  8
CSLAYER1
  6
CONTINUOUS
 62
     3
 10
674.416524
 20
1091.888755
 11
675.616524
 21
1091.888755
  0
LINE
  8
CSLAYER1
  6
CONTINUOUS
 62
     3
 10
675.116524
 20
1092.588755
 11
675.116524
 21
1082.588755
  0
LINE
  8
CSLAYER1
  6
CONTINUOUS
 62
     3
 10
676.375713
 20
1097.403710
 11
680.857335
 21
1097.403710
  0
LINE
  8
CSLAYER1
  6
CONTINUOUS
 62
     3
 10
676.375713
 20
1092.496233
 11
680.857335
 21
1092.496233
  0
LINE
  8
CSLAYER1
  6
CONTINUOUS
 62
     3
 10
675.616524
 20
1096.088755
 11
676.375713
 21
1097.403710
  0
ARC
  8
CSLAYER1
  6
CONTINUOUS
 62
     3
 10
691.857335
 20
1087.588755
 40
16.240811
 50
162.412046
 51
197.587954
  0
ARC
  8
CSLAYER1
  6
CONTINUOUS
 62
     3
 10
679.957448
 20
1094.949971
 40
4.341619
 50
152.519223
 51
214.413868
  0
LINE
  8
CSLAYER1
  6
CONTINUOUS
 62
     3
 10
675.616524
 20
1079.088755
 11
676.375713
 21
1077.773801
  0
ARC
  8
CSLAYER1
  6
CONTINUOUS
 62
     3
 10
679.957448
 20
1080.227539
 40
4.341619
 50
145.586132
 51
207.480777
  0
LINE
  8
CSLAYER1
  6
CONTINUOUS
 62
     3
 10
681.616524
 20
1096.088755
 11
680.857335
 21
1097.403710
  0
ARC
  8
CSLAYER1
  6
CONTINUOUS
 62
     3
 10
665.375713
 20
1087.588755
 40
16.240811
 50
-17.587954
 51
17.587954
  0
ARC
  8
CSLAYER1
  6
CONTINUOUS
 62
     3
 10
677.275600
 20
1094.949971
 40
4.341619
 50
-34.413868
 51
27.480777
  0
LINE
  8
CSLAYER1
  6
CONTINUOUS
 62
     3
 10
681.616524
 20
1079.088755
 11
680.857335
 21
1077.773801
  0
ARC
  8
CSLAYER1
  6
CONTINUOUS
 62
     3
 10
677.275600
 20
1080.227539
 40
4.341619
 50
-27.480777
 51
34.413868
  0
LINE
  8
CSLAYER1
  6
CONTINUOUS
 62
     3
 10
676.375713
 20
1077.773801
 11
680.857335
 21
1077.773801
  0
LINE
  8
CSLAYER1
  6
CONTINUOUS
 62
     3
 10
676.375713
 20
1082.681278
 11
680.857335
 21
1082.681278
  0
LINE
  8
CSLAYER1
  6
CONTINUOUS
 62
     3
 10
675.116524
 20
1082.588755
 11
675.616524
 21
1082.588755
  0
LINE
  8
CSLAYER1
  6
CONTINUOUS
 62
     3
 10
675.116524
 20
1082.588755
 11
674.116524
 21
1083.588755
  0
LINE
  8
CSLAYER1
  6
CONTINUOUS
 62
     3
 10
674.416524
 20
1083.288755
 11
675.616524
 21
1083.288755
  0
LINE
  8
CSLAYER1
  6
CONTINUOUS
 62
     3
 10
684.116524
 20
1085.687308
 11
681.616524
 21
1089.056873
  0
LINE
  8
CSLAYER1
  6
CONTINUOUS
 62
     3
 10
686.616524
 20
839.475686
 11
686.616524
 21
1366.269702
  0
LINE
  8
CSLAYER1
  6
CONTINUOUS
 62
     3
 10
695.616524
 20
839.475686
 11
695.616524
 21
1366.739357
  0
LINE
  8
CSLAYER1
  6
CONTINUOUS
 62
     3
 10
698.616524
 20
839.475686
 11
698.616524
 21
1381.039357
  0
LINE
  8
CSLAYER1
  6
CONTINUOUS
 62
     3
 10
707.616524
 20
839.475686
 11
707.616524
 21
1381.039357
  0
LINE
  8
CSLAYER1
  6
CONTINUOUS
 62
     3
 10
698.616524
 20
867.402042
 11
695.616524
 21
867.402042
  0
INSERT
  8
CSLAYER1
  2
BLKF0010
 10
0.0
 20
0.0
 30
0.0
  0
LINE
  8
CSLAYER1
  6
CONTINUOUS
 62
     3
 10
782.116524
 20
1143.432127
 11
787.616524
 21
1143.432127
  0
LINE
  8
CSLAYER1
  6
CONTINUOUS
 62
     3
 10
782.116524
 20
1095.088755
 11
799.616524
 21
1095.088755
  0
LINE
  8
CSLAYER1
  6
CONTINUOUS
 62
     3
 10
782.116524
 20
1080.088755
 11
799.616524
 21
1080.088755
  0
LINE
  8
CSLAYER1
  6
CONTINUOUS
 62
     3
 10
728.266524
 20
867.402042
 11
735.116524
 21
867.402042
  0
LINE
  8
CSLAYER1
  6
CENTER
 62
     6
 10
1427.435046
 20
879.364199
 11
1410.245641
 21
890.303445
  0
LINE
  8
CSLAYER1
  6
CENTER
 62
     6
 10
764.116524
 20
867.402042
 11
764.116524
 21
1180.910823
  0
CIRCLE
  8
CSLAYER1
  6
CONTINUOUS
 62
     3
 10
723.616524
 20
811.125686
 40
4.150000
  0
LINE
  8
CSLAYER1
  6
CONTINUOUS
 62
     3
 10
1199.230694
 20
818.125686
 11
1339.025350
 21
818.125686
  0
LINE
  8
CSLAYER1
  6
CENTER
 62
     5
 10
1199.230694
 20
813.975686
 11
1339.025350
 21
813.975686
  0
LINE
  8
CSLAYER1
  6
CONTINUOUS
 62
     3
 10
1199.230694
 20
809.825686
 11
1339.025350
 21
809.825686
  0
DIMENSION
  8
CSLAYER1
 62
     3
  2
*D0000
 10
1361.570309
 20
1253.315058
 11
1163.241577
 21
1265.059570
 13
1341.725350
 23
869.475686
 14
1361.570309
 24
1391.039357
  0
INSERT
  8
CSLAYER1
  2
EASYDRAWDIM0003
 10
0.0
 20
0.0
 30
0.0
  0
INSERT
  8
CSLAYER1
  2
EASYDRAWDIM0004
 10
0.0
 20
0.0
 30
0.0
  0
LINE
  8
CSLAYER1
  6
CONTINUOUS
 62
     6
 10
1478.305593
 20
1028.697320
 11
1248.907098
 21
1171.486179
  0
LINE
  8
CSLAYER1
  6
CONTINUOUS
 62
     6
 10
1478.305593
 20
1028.697320
 11
1449.601209
 21
1037.418464
  0
LINE
  8
CSLAYER1
  6
CONTINUOUS
 62
     6
 10
1478.305593
 20
1028.697320
 11
1457.807440
 21
1050.602244
  0
DIMENSION
  8
CSLAYER1
 62
     3
  2
*D0001
 10
988.710315
 20
805.475686
 11
980.710266
 21
849.695740
 13
901.616524
 23
799.475686
 14
901.616524
 24
805.475686
 50
90.000000
 70
1
  0
DIMENSION
  8
CSLAYER1
 62
     3
  2
*D0002
 10
878.616524
 20
679.475686
 11
753.616516
 21
687.475647
 13
628.616524
 23
801.475686
 14
878.616524
 24
801.475686
 52
270.000000
 70
1
  0
DIMENSION
  8
CSLAYER1
 62
     3
  2
*D0003
 10
903.616524
 20
589.475686
 11
753.616516
 21
597.475708
 13
603.616524
 23
801.475686
 14
903.616524
 24
801.475686
 52
270.000000
 70
1
  0
LINE
  8
CSLAYER1
  6
CENTER
 62
     6
 10
1584.551897
 20
1167.310823
 11
1613.492783
 21
1167.310823
  0
LINE
  8
CSLAYER1
  6
CENTER
 62
     6
 10
1599.114961
 20
1179.128282
 11
1599.114961
 21
1150.929470
  0
LINE
  8
CSLAYER1
  6
CENTER
 62
     6
 10
1609.064995
 20
1087.588755
 11
1638.005880
 21
1087.588755
  0
LINE
  8
CSLAYER1
  6
CENTER
 62
     6
 10
1623.628059
 20
1099.406214
 11
1623.628059
 21
1071.207402
  0
LINE
  8
CSLAYER1
  6
CONTINUOUS
 62
     3
 10
1339.025350
 20
1995.501337
 11
1339.025350
 21
1829.651337
  0
LINE
  8
CSLAYER1
  6
CENTER
 62
     6
 10
1305.304854
 20
1969.651337
 11
2181.725350
 21
1969.651337
  0
LINE
  8
CSLAYER1
  6
CONTINUOUS
 62
     3
 10
1389.025350
 20
1829.651337
 11
1389.025350
 21
1869.651337
  0
LINE
  8
CSLAYER1
  6
CONTINUOUS
 62
     3
 10
1349.025350
 20
1819.651337
 11
1379.025350
 21
1819.651337
  0
INSERT
  8
CSLAYER1
  2
BLKF0011
 10
0.0
 20
0.0
 30
0.0
  0
ARC
  8
CSLAYER1
  6
CONTINUOUS
 62
     3
 10
1349.025350
 20
1829.651337
 40
10.000000
 50
180.000000
 51
270.000000
  0
ARC
  8
CSLAYER1
  6
CONTINUOUS
 62
     3
 10
1379.025350
 20
1829.651337
 40
10.000000
 50
270.000000
 51
360.000000
  0
LINE
  8
CSLAYER1
  6
CENTER
 62
     5
 10
1210.475429
 20
1999.651337
 11
1342.025350
 21
1999.651337
  0
LINE
  8
CSLAYER1
  6
CONTINUOUS
 62
     3
 10
1210.475429
 20
2003.801337
 11
1341.725350
 21
2003.801337
  0
LINE
  8
CSLAYER1
  6
CONTINUOUS
 62
     3
 10
1210.475429
 20
1995.501337
 11
1341.725350
 21
1995.501337
  0
LINE
  8
CSLAYER1
  6
CONTINUOUS
 62
     3
 10
1339.025350
 20
2003.801337
 11
1339.025350
 21
2109.651337
  0
LINE
  8
CSLAYER1
  6
CONTINUOUS
 62
     3
 10
1389.025350
 20
2109.651337
 11
1389.025350
 21
2069.651337
  0
LINE
  8
CSLAYER1
  6
CONTINUOUS
 62
     3
 10
1349.025350
 20
2119.651337
 11
1379.025350
 21
2119.651337
  0
INSERT
  8
CSLAYER1
  2
BLKF0012
 10
0.0
 20
0.0
 30
0.0
  0
ARC
  8
CSLAYER1
  6
CONTINUOUS
 62
     3
 10
1349.025350
 20
2109.651337
 40
10.000000
 50
90.000000
 51
180.000000
  0
ARC
  8
CSLAYER1
  6
CONTINUOUS
 62
     3
 10
1379.025350
 20
2109.651337
 40
10.000000
 50
0.000000
 51
90.000000
  0
LINE
  8
CSLAYER1
  6
CONTINUOUS
 62
     3
 10
1341.725350
 20
2069.651337
 11
1341.725350
 21
1869.651337
  0
LINE
  8
CSLAYER1
  6
CONTINUOUS
 62
     3
 10
1341.725350
 20
2069.651337
 11
2141.725350
 21
2069.651337
  0
LINE
  8
CSLAYER1
  6
CONTINUOUS
 62
     3
 10
1341.725350
 20
1869.651337
 11
2141.725350
 21
1869.651337
  0
CIRCLE
  8
CSLAYER1
  6
CONTINUOUS
 62
     3
 10
1364.025350
 20
2094.651337
 40
6.500000
  0
CIRCLE
  8
CSLAYER1
  6
CONTINUOUS
 62
     3
 10
1364.025350
 20
1844.651337
 40
6.500000
  0
LINE
  8
CSLAYER1
  6
CONTINUOUS
 62
     3
 10
2141.725350
 20
1869.651337
 11
2141.725350
 21
2069.651337
  0
LINE
  8
CSLAYER1
  6
CONTINUOUS
 62
     1
 10
676.116524
 20
806.006030
 11
676.116524
 21
827.945341
  0
LINE
  8
CSLAYER1
  6
CONTINUOUS
 62
     1
 10
679.116524
 20
827.725686
 11
676.116524
 21
827.725686
  0
LINE
  8
CSLAYER1
  6
CONTINUOUS
 62
     1
 10
679.116524
 20
806.225686
 11
676.116524
 21
806.225686
  0
LINE
  8
CSLAYER1
  6
CONTINUOUS
 62
     1
 10
679.116524
 20
815.463489
 11
676.116524
 21
818.963489
  0
LINE
  8
CSLAYER1
  6
CONTINUOUS
 62
     1
 10
668.116524
 20
825.975686
 11
668.116524
 21
807.975686
  0
LINE
  8
CSLAYER1
  6
CONTINUOUS
 62
     1
 10
676.116524
 20
822.460513
 11
669.253705
 21
822.460513
  0
LINE
  8
CSLAYER1
  6
CONTINUOUS
 62
     1
 10
676.116524
 20
827.945341
 11
669.253705
 21
827.945341
  0
LINE
  8
CSLAYER1
  6
CONTINUOUS
 62
     1
 10
668.116524
 20
825.975686
 11
669.253705
 21
827.945341
  0
ARC
  8
CSLAYER1
  6
CONTINUOUS
 62
     1
 10
671.896568
 20
825.202927
 40
3.808617
 50
185.661633
 51
226.059028
  0
ARC
  8
CSLAYER1
  6
CONTINUOUS
 62
     1
 10
681.912268
 20
816.975686
 40
13.795744
 50
156.573402
 51
203.426598
  0
LINE
  8
CSLAYER1
  6
CONTINUOUS
 62
     1
 10
676.116524
 20
811.490858
 11
669.253705
 21
811.490858
  0
LINE
  8
CSLAYER1
  6
CONTINUOUS
 62
     1
 10
676.116524
 20
806.006030
 11
669.253705
 21
806.006030
  0
LINE
  8
CSLAYER1
  6
CONTINUOUS
 62
     1
 10
668.116524
 20
807.975686
 11
669.253705
 21
806.006030
  0
ARC
  8
CSLAYER1
  6
CONTINUOUS
 62
     1
 10
671.896568
 20
808.748444
 40
3.808617
 50
133.940972
 51
174.338367
  0
LINE
  8
CSLAYER1
  6
CONTINUOUS
 62
     3
 10
853.616524
 20
1411.039357
 11
853.616524
 21
1381.039357
  0
LINE
  8
CSLAYER1
  6
CONTINUOUS
 62
     2
 10
698.616524
 20
1381.039357
 11
698.616524
 21
1336.739357
  0
LINE
  8
CSLAYER1
  6
CONTINUOUS
 62
     3
 10
697.616524
 20
1368.589357
 11
698.616524
 21
1368.589357
  0
LINE
  8
CSLAYER1
  6
CONTINUOUS
 62
     3
 10
696.616524
 20
1381.039357
 11
696.616524
 21
1369.589357
  0
LINE
  8
CSLAYER1
  6
CONTINUOUS
 62
     3
 10
696.616524
 20
1369.589357
 11
697.616524
 21
1368.589357
  0
LINE
  8
CSLAYER1
  6
CONTINUOUS
 62
     3
 10
697.616524
 20
1381.039357
 11
697.616524
 21
1368.589357
  0
LINE
  8
CSLAYER1
  6
CONTINUOUS
 62
     3
 10
696.116524
 20
1366.739357
 11
690.116524
 21
1366.739357
  0
INSERT
  8
CSLAYER1
  2
BLKF0013
 10
0.0
 20
0.0
 30
0.0
  0
LINE
  8
CSLAYER1
  6
CONTINUOUS
 62
     3
 10
690.116524
 20
1381.039357
 11
690.116524
 21
1366.489357
  0
LINE
  8
CSLAYER1
  6
CONTINUOUS
 62
     3
 10
696.116524
 20
1381.039357
 11
696.116524
 21
1366.739357
  0
LINE
  8
CSLAYER1
  6
CONTINUOUS
 62
     3
 10
656.616524
 20
1381.039357
 11
656.616524
 21
1378.739357
  0
LINE
  8
CSLAYER1
  6
CONTINUOUS
 62
     3
 10
656.616524
 20
1378.739357
 11
661.116524
 21
1378.739357
  0
LINE
  8
CSLAYER1
  6
CONTINUOUS
 62
     3
 10
661.116524
 20
1381.039357
 11
661.116524
 21
1378.739357
  0
LINE
  8
CSLAYER1
  6
CONTINUOUS
 62
     3
 10
674.616524
 20
1381.039357
 11
674.616524
 21
1364.239357
  0
LINE
  8
CSLAYER1
  6
CONTINUOUS
 62
     3
 10
682.616524
 20
1366.269702
 11
682.616524
 21
1364.239357
  0
LINE
  8
CSLAYER1
  6
CONTINUOUS
 62
     3
 10
666.616524
 20
1381.039357
 11
666.616524
 21
1364.239357
  0
LINE
  8
CSLAYER1
  6
CONTINUOUS
 62
     3
 10
665.616524
 20
1381.039357
 11
665.616524
 21
1369.239357
  0
LINE
  8
CSLAYER1
  6
CONTINUOUS
 62
     3
 10
663.616524
 20
1381.039357
 11
663.616524
 21
1372.739357
  0
LINE
  8
CSLAYER1
  6
CONTINUOUS
 62
     3
 10
664.116524
 20
1372.239357
 11
665.616524
 21
1372.239357
  0
LINE
  8
CSLAYER1
  6
CONTINUOUS
 62
     3
 10
665.616524
 20
1369.239357
 11
666.616524
 21
1369.239357
  0
LINE
  8
CSLAYER1
  6
CONTINUOUS
 62
     3
 10
664.116524
 20
1372.239357
 11
663.616524
 21
1372.739357
  0
LINE
  8
CSLAYER1
  6
CONTINUOUS
 62
     3
 10
666.616524
 20
1364.239357
 11
682.616524
 21
1364.239357
  0
LINE
  8
CSLAYER1
  6
CONTINUOUS
 62
     3
 10
653.616524
 20
1411.039357
 11
653.616524
 21
1381.039357
  0
TEXT
  8
CSLAYER1
 62
     5
 10
2912.098600
 20
803.082996
 40
31.844261
 41
0.920655
  1
Ｆ.Ｌ
 50
0.000000
 51
0.000000
  7
EASYDRAW_FONT
 72
     5
 11
2990.278841
 21
803.082996
  0
LINE
  8
CSLAYER1
  6
CENTER
 62
     5
 10
2692.576738
 20
759.475686
 11
2692.576738
 21
919.475686
  0
LINE
  8
CSLAYER1
  6
CENTER
 62
     5
 10
2817.576738
 20
790.546325
 11
2817.576738
 21
814.756286
  0
LINE
  8
CSLAYER1
  6
CENTER
 62
     5
 10
2567.576738
 20
790.546325
 11
2567.576738
 21
814.756286
  0
LINE
  8
CSLAYER1
  6
CONTINUOUS
 62
     3
 10
2592.576738
 20
839.475686
 11
2592.576738
 21
799.475686
  0
LINE
  8
CSLAYER1
  6
CONTINUOUS
 62
     3
 10
2792.576738
 20
839.475686
 11
2792.576738
 21
799.475686
  0
LINE
  8
CSLAYER1
  6
CONTINUOUS
 62
     3
 10
2842.576738
 20
799.475686
 11
2842.576738
 21
805.475686
  0
LINE
  8
CSLAYER1
  6
CONTINUOUS
 62
     3
 10
2842.576738
 20
805.475686
 11
2792.576738
 21
805.475686
  0
LINE
  8
CSLAYER1
  6
CONTINUOUS
 62
     3
 10
2542.576738
 20
799.475686
 11
2542.576738
 21
805.475686
  0
LINE
  8
CSLAYER1
  6
CONTINUOUS
 62
     3
 10
2542.576738
 20
805.475686
 11
2592.576738
 21
805.475686
  0
TEXT
  8
CSLAYER1
 62
     7
 10
2651.658936
 20
998.155823
 40
40.000000
 41
0.843750
  1
下降時
 50
0.000000
 51
0.000000
  7
EASYDRAW_FONT
 72
     5
 11
2741.658936
 21
998.155823
  0
LINE
  8
CSLAYER1
  6
CONTINUOUS
 62
     5
 10
2638.052328
 20
1044.585964
 11
2761.010338
 21
1044.585964
  0
LINE
  8
CSLAYER1
  6
CONTINUOUS
 62
     5
 10
2761.010338
 20
1044.585964
 11
2761.010338
 21
991.725512
  0
LINE
  8
CSLAYER1
  6
CONTINUOUS
 62
     5
 10
2761.010338
 20
991.725512
 11
2638.052328
 21
991.725512
  0
LINE
  8
CSLAYER1
  6
CONTINUOUS
 62
     5
 10
2638.052328
 20
991.725512
 11
2638.052328
 21
1044.585964
  0
LINE
  8
CSLAYER1
  6
CONTINUOUS
 62
     3
 10
2592.576738
 20
849.475686
 11
2592.576738
 21
879.475686
  0
LINE
  8
CSLAYER1
  6
CONTINUOUS
 62
     3
 10
2792.576738
 20
849.475686
 11
2792.576738
 21
879.475686
  0
LINE
  8
CSLAYER1
  6
CONTINUOUS
 62
     3
 10
2592.576738
 20
879.475686
 11
2792.576738
 21
879.475686
  0
LINE
  8
CSLAYER1
  6
CONTINUOUS
 62
     3
 10
2592.576738
 20
849.475686
 11
2792.576738
 21
849.475686
  0
LINE
  8
CSLAYER1
  6
CONTINUOUS
 62
     3
 10
2592.576738
 20
839.475686
 11
2792.576738
 21
839.475686
  0
DIMENSION
  8
CSLAYER1
 62
     3
  2
*D0004
 10
2461.570309
 20
879.475686
 11
2451.570557
 21
839.475708
 13
2542.576738
 23
799.475686
 14
2592.576738
 24
879.475686
 50
90.000000
  0
LINE
  8
CSLAYER1
  6
CONTINUOUS
 62
     3
 10
2789.576738
 20
849.475686
 11
2789.576738
 21
847.175686
  0
LINE
  8
CSLAYER1
  6
CONTINUOUS
 62
     3
 10
2789.576738
 20
847.175686
 11
2785.076738
 21
847.175686
  0
LINE
  8
CSLAYER1
  6
CONTINUOUS
 62
     3
 10
2785.076738
 20
849.475686
 11
2785.076738
 21
847.175686
  0
LINE
  8
CSLAYER1
  6
CONTINUOUS
 62
     3
 10
2771.576738
 20
849.475686
 11
2771.576738
 21
839.475686
  0
LINE
  8
CSLAYER1
  6
CONTINUOUS
 62
     3
 10
2779.576738
 20
849.475686
 11
2779.576738
 21
839.475686
  0
LINE
  8
CSLAYER1
  6
CONTINUOUS
 62
     3
 10
2780.576738
 20
849.475686
 11
2780.576738
 21
839.475686
  0
LINE
  8
CSLAYER1
  6
CONTINUOUS
 62
     3
 10
2782.576738
 20
849.475686
 11
2782.576738
 21
841.175686
  0
LINE
  8
CSLAYER1
  6
CONTINUOUS
 62
     3
 10
2782.076738
 20
840.675686
 11
2780.576738
 21
840.675686
  0
LINE
  8
CSLAYER1
  6
CONTINUOUS
 62
     3
 10
2782.076738
 20
840.675686
 11
2782.576738
 21
841.175686
  0
LINE
  8
CSLAYER1
  6
CENTER
 62
     5
 10
2783.576738
 20
845.675686
 11
2601.576738
 21
845.675686
  0
LINE
  8
CSLAYER1
  6
CONTINUOUS
 62
     3
 10
2763.576738
 20
849.475686
 11
2763.576738
 21
839.475686
  0
LINE
  8
CSLAYER1
  6
CONTINUOUS
 62
     3
 10
2738.576738
 20
839.475686
 11
2738.576738
 21
849.475686
  0
LINE
  8
CSLAYER1
  6
CONTINUOUS
 62
     3
 10
2747.576738
 20
839.475686
 11
2747.576738
 21
849.475686
  0
LINE
  8
CSLAYER1
  6
CONTINUOUS
 62
     3
 10
2750.576738
 20
839.475686
 11
2750.576738
 21
849.475686
  0
LINE
  8
CSLAYER1
  6
CONTINUOUS
 62
     3
 10
2759.576738
 20
839.475686
 11
2759.576738
 21
849.475686
  0
LINE
  8
CSLAYER1
  6
CONTINUOUS
 62
     3
 10
2595.576738
 20
849.475686
 11
2595.576738
 21
847.175686
  0
LINE
  8
CSLAYER1
  6
CONTINUOUS
 62
     3
 10
2595.576738
 20
847.175686
 11
2600.076738
 21
847.175686
  0
LINE
  8
CSLAYER1
  6
CONTINUOUS
 62
     3
 10
2600.076738
 20
849.475686
 11
2600.076738
 21
847.175686
  0
LINE
  8
CSLAYER1
  6
CONTINUOUS
 62
     3
 10
2613.576738
 20
849.475686
 11
2613.576738
 21
839.475686
  0
LINE
  8
CSLAYER1
  6
CONTINUOUS
 62
     3
 10
2605.576738
 20
849.475686
 11
2605.576738
 21
839.475686
  0
LINE
  8
CSLAYER1
  6
CONTINUOUS
 62
     3
 10
2604.576738
 20
849.475686
 11
2604.576738
 21
839.475686
  0
LINE
  8
CSLAYER1
  6
CONTINUOUS
 62
     3
 10
2602.576738
 20
849.475686
 11
2602.576738
 21
841.175686
  0
LINE
  8
CSLAYER1
  6
CONTINUOUS
 62
     3
 10
2603.076738
 20
840.675686
 11
2604.576738
 21
840.675686
  0
LINE
  8
CSLAYER1
  6
CONTINUOUS
 62
     3
 10
2603.076738
 20
840.675686
 11
2602.576738
 21
841.175686
  0
LINE
  8
CSLAYER1
  6
CONTINUOUS
 62
     3
 10
2621.576738
 20
849.475686
 11
2621.576738
 21
839.475686
  0
LINE
  8
CSLAYER1
  6
CONTINUOUS
 62
     3
 10
2646.576738
 20
839.475686
 11
2646.576738
 21
849.475686
  0
LINE
  8
CSLAYER1
  6
CONTINUOUS
 62
     3
 10
2637.576738
 20
839.475686
 11
2637.576738
 21
849.475686
  0
LINE
  8
CSLAYER1
  6
CONTINUOUS
 62
     3
 10
2634.576738
 20
839.475686
 11
2634.576738
 21
849.475686
  0
LINE
  8
CSLAYER1
  6
CONTINUOUS
 62
     3
 10
2625.576738
 20
839.475686
 11
2625.576738
 21
849.475686
  0
TEXT
  8
CSLAYER1
 62
     7
 10
704.480042
 20
510.693481
 40
40.000000
 41
0.843750
  1
上昇時
 50
0.000000
 51
0.000000
  7
EASYDRAW_FONT
 72
     5
 11
794.480042
 21
510.693481
  0
LINE
  8
CSLAYER1
  6
CONTINUOUS
 62
     5
 10
690.873558
 20
557.123597
 11
813.831568
 21
557.123597
  0
LINE
  8
CSLAYER1
  6
CONTINUOUS
 62
     5
 10
813.831568
 20
557.123597
 11
813.831568
 21
504.263144
  0
LINE
  8
CSLAYER1
  6
CONTINUOUS
 62
     5
 10
813.831568
 20
504.263144
 11
690.873558
 21
504.263144
  0
LINE
  8
CSLAYER1
  6
CONTINUOUS
 62
     5
 10
690.873558
 20
504.263144
 11
690.873558
 21
557.123597
  0
TEXT
  8
CSLAYER1
 62
     7
 10
1350.320679
 20
2217.329102
 40
40.000000
 41
0.843750
  1
下降時
 50
0.000000
 51
0.000000
  7
EASYDRAW_FONT
 72
     5
 11
1440.320679
 21
2217.329102
  0
LINE
  8
CSLAYER1
  6
CONTINUOUS
 62
     5
 10
1336.714113
 20
2263.758928
 11
1459.672123
 21
2263.758928
  0
LINE
  8
CSLAYER1
  6
CONTINUOUS
 62
     5
 10
1459.672123
 20
2263.758928
 11
1459.672123
 21
2210.898475
  0
LINE
  8
CSLAYER1
  6
CONTINUOUS
 62
     5
 10
1459.672123
 20
2210.898475
 11
1336.714113
 21
2210.898475
  0
LINE
  8
CSLAYER1
  6
CONTINUOUS
 62
     5
 10
1336.714113
 20
2210.898475
 11
1336.714113
 21
2263.758928
  0
INSERT
  8
CSLAYER1
  2
BLKF0014
 10
0.0
 20
0.0
 30
0.0
  0
INSERT
  8
CSLAYER1
  2
BLKF0015
 10
0.0
 20
0.0
 30
0.0
  0
LINE
  8
CSLAYER1
  6
CONTINUOUS
 62
     3
 10
2142.025350
 20
839.475686
 11
2142.025350
 21
799.475686
  0
DIMENSION
  8
CSLAYER1
 62
     3
  2
*D0005
 10
2281.570309
 20
879.475686
 11
2271.570557
 21
839.475708
 13
2141.725350
 23
799.475686
 14
2141.725350
 24
879.475686
 50
90.000000
 70
1
  0
DIMENSION
  8
CSLAYER1
 62
     3
  2
*D0006
 10
2281.570309
 20
879.475686
 11
2271.570557
 21
1145.257446
 13
2281.570309
 23
1411.039357
 14
2281.570309
 24
879.475686
 50
90.000000
 70
1
  0
DIMENSION
  8
CSLAYER1
 62
     3
  2
*D0007
 10
2161.570309
 20
1511.039357
 11
1761.570435
 21
1521.039185
 13
1361.570309
 23
1411.039357
 14
2161.570309
 24
1411.039357
 70
1
  0
DIMENSION
  8
CSLAYER1
 62
     3
  2
*D0008
 10
853.616524
 20
1511.039357
 11
753.616516
 21
1521.039307
 13
653.616524
 23
1411.039357
 14
853.616524
 24
1411.039357
 70
1
  0
INSERT
  8
CSLAYER1
  2
EASYDRAWDIM0005
 10
0.0
 20
0.0
 30
0.0
  0
DIMENSION
  8
CSLAYER1
 62
     3
  2
*D0009
 10
1253.771290
 20
2094.651337
 11
1245.519165
 21
1944.098389
 13
1352.762549
 23
1844.651337
 14
1374.025350
 24
2094.651337
 50
90.000000
  0
INSERT
  8
CSLAYER1
  2
EASYDRAWDIM0006
 10
0.0
 20
0.0
 30
0.0
  0
DIMENSION
  8
CSLAYER1
 62
     3
  2
*D0010
 10
2281.570309
 20
2069.651337
 11
2271.570313
 21
1969.651123
 13
2169.161053
 23
1869.651337
 14
2169.161053
 24
2069.651337
 50
90.000000
 70
1
  0
LINE
  8
CSLAYER1
  6
CONTINUOUS
 62
     5
 10
2724.082429
 20
540.999725
 11
3524.082429
 21
540.999725
  0
LINE
  8
CSLAYER1
  6
CONTINUOUS
 62
     5
 10
2724.082429
 20
180.999725
 11
3524.082429
 21
180.999725
  0
LINE
  8
CSLAYER1
  6
CONTINUOUS
 62
     5
 10
2724.082429
 20
340.999725
 11
3524.082429
 21
340.999725
  0
LINE
  8
CSLAYER1
  6
CONTINUOUS
 62
     5
 10
2724.082429
 20
400.999725
 11
3524.082429
 21
400.999725
  0
LINE
  8
CSLAYER1
  6
CONTINUOUS
 62
     5
 10
2724.082429
 20
460.999725
 11
3524.082429
 21
460.999725
  0
LINE
  8
CSLAYER1
  6
CONTINUOUS
 62
     5
 10
2724.082429
 20
620.999725
 11
3524.082429
 21
620.999725
  0
LINE
  8
CSLAYER1
  6
CONTINUOUS
 62
     5
 10
2724.082429
 20
700.999725
 11
2724.082429
 21
100.999725
  0
LINE
  8
CSLAYER1
  6
CONTINUOUS
 62
     5
 10
2924.082429
 20
700.999725
 11
2924.082429
 21
460.999725
  0
LINE
  8
CSLAYER1
  6
CONTINUOUS
 62
     5
 10
2724.082429
 20
700.999725
 11
3524.082429
 21
700.999725
  0
LINE
  8
CSLAYER1
  6
CONTINUOUS
 62
     5
 10
3224.082429
 20
460.999725
 11
3224.082429
 21
180.999725
  0
TEXT
  8
CSLAYER1
 62
     3
 10
2943.773494
 20
109.562443
 40
59.380363
 41
1.003345
  1
東正車輌株式会社
 50
0.000000
 51
0.000000
  7
EASYDRAW_FONT
 72
     5
 11
3400.545842
 21
109.562443
  0
LINE
  8
CSLAYER1
  6
CONTINUOUS
 62
     5
 10
2974.082429
 20
400.999725
 11
2974.082429
 21
180.999725
  0
TEXT
  8
CSLAYER1
 62
     5
 10
2754.082275
 20
635.999695
 40
50.000000
 41
1.050000
  1
品　名
 50
0.000000
 51
0.000000
  7
EASYDRAW_FONT
 72
     5
 11
2894.082275
 21
635.999695
  0
TEXT
  8
CSLAYER1
 62
     5
 10
2754.082275
 20
555.999695
 40
50.000000
 41
1.050000
  1
型　式
 50
0.000000
 51
0.000000
  7
EASYDRAW_FONT
 72
     5
 11
2894.082275
 21
555.999695
  0
TEXT
  8
CSLAYER1
 62
     5
 10
2729.082275
 20
475.999756
 40
50.000000
 41
1.036364
  1
図面番号
 50
0.000000
 51
0.000000
  7
EASYDRAW_FONT
 72
     5
 11
2919.082275
 21
475.999756
  0
TEXT
  8
CSLAYER1
 62
     5
 10
2754.082275
 20
405.999756
 40
50.000000
 41
0.825000
  1
平成26年01月10日
 50
0.000000
 51
0.000000
  7
EASYDRAW_FONT
 72
     5
 11
3194.082275
 21
405.999756
  0
TEXT
  8
CSLAYER1
 62
     5
 10
3304.082275
 20
405.999756
 40
50.000000
 41
1.050000
  1
Ｂ－４
 50
0.000000
 51
0.000000
  7
EASYDRAW_FONT
 72
     5
 11
3444.082275
 21
405.999756
  0
TEXT
  8
CSLAYER1
 62
     5
 10
2779.082275
 20
345.999756
 40
50.000000
 41
1.050000
  1
検　図
 50
0.000000
 51
0.000000
  7
EASYDRAW_FONT
 72
     5
 11
2919.082275
 21
345.999756
  0
TEXT
  8
CSLAYER1
 62
     5
 10
3029.082275
 20
345.999756
 40
50.000000
 41
1.050000
  1
作　図
 50
0.000000
 51
0.000000
  7
EASYDRAW_FONT
 72
     5
 11
3169.082275
 21
345.999756
  0
TEXT
  8
CSLAYER1
 62
     5
 10
3304.082275
 20
345.999756
 40
50.000000
 41
1.050000
  1
尺　度
 50
0.000000
 51
0.000000
  7
EASYDRAW_FONT
 72
     5
 11
3444.082275
 21
345.999756
  0
TEXT
  8
CSLAYER1
 62
     5
 10
3404.821045
 20
195.484985
 40
50.000000
 41
1.080000
  1
１０
 50
0.000000
 51
0.000000
  7
EASYDRAW_FONT
 72
     5
 11
3494.821045
 21
195.484985
  0
TEXT
  8
CSLAYER1
 62
     5
 10
3384.501465
 20
243.189697
 40
50.000000
 41
1.200000
  1
／
 50
0.000000
 51
0.000000
  7
EASYDRAW_FONT
 72
     5
 11
3424.501465
 21
243.189697
  0
TEXT
  8
CSLAYER1
 62
     5
 10
3354.288574
 20
278.173157
 40
50.000000
 41
1.200000
  1
１
 50
0.000000
 51
0.000000
  7
EASYDRAW_FONT
 72
     5
 11
3394.288574
 21
278.173157
  0
TEXT
  8
CSLAYER1
 62
     3
 10
3064.082275
 20
635.999695
 40
50.000000
 41
0.834783
  1
ゴールドリフター
 50
0.000000
 51
0.000000
  7
EASYDRAW_FONT
 72
     5
 11
3384.082275
 21
635.999695
  0
TEXT
  8
CSLAYER1
 62
     3
 10
2964.082275
 20
555.999695
 40
50.000000
 41
0.821053
  1
GLSH-250-2008
 50
0.000000
 51
0.000000
  7
EASYDRAW_FONT
 72
     5
 11
3484.082275
 21
555.999695
  0
INSERT
  8
CSLAYER1
  2
BLKF0016
 10
0.0
 20
0.0
 30
0.0
  0
LINE
  8
CSLAYER1
  6
CONTINUOUS
 62
     5
 10
903.616524
 20
799.475686
 11
1339.025350
 21
799.475686
  0
LINE
  8
CSLAYER1
  6
CONTINUOUS
 62
     3
 10
1339.025350
 20
799.475686
 11
2142.025350
 21
799.475686
  0
LINE
  8
CSLAYER1
  6
CONTINUOUS
 62
     5
 10
2142.025350
 20
799.475686
 11
2542.576738
 21
799.475686
  0
LINE
  8
CSLAYER1
  6
CONTINUOUS
 62
     3
 10
2542.576738
 20
799.475686
 11
2842.576738
 21
799.475686
  0
LINE
  8
CSLAYER1
  6
CONTINUOUS
 62
     5
 10
2842.576738
 20
799.475686
 11
3100.215560
 21
799.475686
  0
INSERT
  8
CSLAYER1
  2
EASYDRAWDIM0007
 10
0.0
 20
0.0
 30
0.0
  0
LINE
  8
CSLAYER1
  6
CONTINUOUS
 62
     5
 10
981.652117
 20
638.693074
 11
1238.849235
 21
638.693074
  0
TEXT
  8
CSLAYER1
 62
     3
 10
1016.906128
 20
646.501831
 40
40.000000
 41
0.787500
  1
(アンカー穴)
 50
0.000000
 51
0.000000
  7
EASYDRAW_FONT
 72
     5
 11
1226.906128
 21
646.501831
  0
LINE
  8
CSLAYER1
  6
CONTINUOUS
 62
     5
 10
878.616524
 20
799.475686
 11
981.652117
 21
638.693074
  0
LINE
  8
CSLAYER1
  6
CONTINUOUS
 62
     5
 10
878.616524
 20
799.475686
 11
900.788989
 21
779.267227
  0
LINE
  8
CSLAYER1
  6
CONTINUOUS
 62
     5
 10
878.616524
 20
799.475686
 11
887.714213
 21
770.888415
  0
DIMENSION
  8
CSLAYER1
 62
     3
  2
*D0011
 10
1364.025350
 20
1699.651337
 11
1275.583252
 21
1709.651245
 13
1339.025350
 23
1829.651337
 14
1364.025350
 24
1833.388536
 52
270.000000
  0
DIMENSION
  8
CSLAYER1
 62
     3
  2
*D0012
 10
1389.025350
 20
1609.651337
 11
1279.025391
 21
1619.651245
 13
1339.025350
 23
1829.651337
 14
1389.025350
 24
1829.651337
 52
270.000000
 70
1
  0
DIMENSION
  8
CSLAYER1
 62
     3
  2
*D0013
 10
2371.570309
 20
1411.039357
 11
2361.570313
 21
1105.257568
 13
2161.570309
 23
799.475686
 14
2161.570309
 24
1411.039357
 50
90.000000
 70
1
  0
DIMENSION
  8
CSLAYER1
 62
     3
  2
*D0014
 10
2142.025350
 20
589.475686
 11
1740.525391
 21
599.475708
 13
1339.025350
 23
799.475686
 14
2142.025350
 24
799.475686
 52
270.000000
 70
1
  0
DIMENSION
  8
CSLAYER1
 62
     3
  2
*D0015
 10
1364.025350
 20
679.475686
 11
1424.025391
 21
689.475647
 13
1339.025350
 23
799.475686
 14
1364.025350
 24
816.975686
 52
270.000000
  0
LINE
  8
CSLAYER1
  6
CONTINUOUS
 62
     5
 10
1364.025350
 20
799.475686
 11
1238.849235
 21
638.693074
  0
LINE
  8
CSLAYER1
  6
CONTINUOUS
 62
     5
 10
1364.025350
 20
799.475686
 11
1352.350533
 21
771.840588
  0
LINE
  8
CSLAYER1
  6
CONTINUOUS
 62
     5
 10
1364.025350
 20
799.475686
 11
1340.097113
 21
781.380397
  0
LINE
  8
CSLAYER1
  6
CONTINUOUS
 62
     5
 10
1364.025350
 20
1844.651337
 11
1459.276485
 21
1699.651337
  0
LINE
  8
CSLAYER1
  6
CONTINUOUS
 62
     5
 10
1364.025350
 20
1844.651337
 11
1386.424874
 21
1824.694852
  0
LINE
  8
CSLAYER1
  6
CONTINUOUS
 62
     5
 10
1364.025350
 20
1844.651337
 11
1373.445664
 21
1816.168752
  0
TEXT
  8
CSLAYER1
 62
     3
 10
3142.415527
 20
1779.546387
 40
40.000000
 41
0.859091
  1
約 43
 50
0.000000
 51
0.000000
  7
EASYDRAW_FONT
 72
     5
 11
3268.415527
 21
1779.546387
  0
ENDSEC
  0
EOF
