  0
SECTION
  2
HEADER
  9
$ACADVER
  1
AC1006
  9
$INSBASE
 10
0.000000
 20
0.000000
 30
0.0
  9
$EXTMIN
 10
0.000000
 20
0.000000
  9
$EXTMAX
 10
3640.000000
 20
2570.000000
  9
$LIMMIN
 10
0.000000
 20
0.000000
  9
$LIMMAX
 10
3640.000000
 20
2570.000000
  9
$VIEWCTR
 10
1820.000000
 20
1285.000000
  9
$VIEWSIZE
 40
2570.000000
  9
$SNAPMODE
 70
     0
  9
$SNAPUNIT
 10
1.0
 20
1.0
  9
$SNAPBASE
 10
0.0
 20
0.0
  9
$SNAPANG
 50
0.0
  9
$SNAPSTYLE
 70
     0
  9
$SNAPISOPAIR
 70
     0
  9
$GRIDMODE
 70
     0
  9
$GRIDUNIT
 10
0.0
 20
0.0
  9
$ORTHOMODE
 70
     0
  9
$REGENMODE
 70
     1
  9
$FILLMODE
 70
     1
  9
$QTEXTMODE
 70
     0
  9
$DRAGMODE
 70
     2
  9
$LTSCALE
 40
15.000000
  9
$OSMODE
 70
     0
  9
$ATTMODE
 70
     1
  9
$TEXTSIZE
 40
0.2
  9
$TRACEWID
 40
0.05
  9
$TEXTSTYLE
  7
STANDARD
  9
$CLAYER
  8
CSLAYER1
  9
$CELTYPE
  6
BYLAYER
  9
$CECOLOR
 62
   256
  9
$DIMSCALE
 40
1.0
  9
$DIMASZ
 40
0.18
  9
$DIMEXO
 40
0.0625
  9
$DIMDLI
 40
0.38
  9
$DIMRND
 40
0.0
  9
$DIMDLE
 40
0.0
  9
$DIMEXE
 40
0.18
  9
$DIMTP
 40
0.0
  9
$DIMTM
 40
0.0
  9
$DIMTXT
 40
0.18
  9
$DIMCEN
 40
0.09
  9
$DIMTSZ
 40
0.0
  9
$DIMTOL
 70
     0
  9
$DIMLIM
 70
     0
  9
$DIMTIH
 70
     1
  9
$DIMTOH
 70
     1
  9
$DIMSE1
 70
     0
  9
$DIMSE2
 70
     0
  9
$DIMTAD
 70
     0
  9
$DIMZIN
 70
     0
  9
$DIMBLK
  1

  9
$LUNITS
 70
     2
  9
$LUPREC
 70
     4
  9
$AXISMODE
 70
     0
  9
$AXISUNIT
 10
0.0
 20
0.0
  9
$SKETCHINC
 40
0.1
  9
$FILLETRAD
 40
0.0
  9
$AUNITS
 70
     0
  9
$AUPREC
 70
     0
  9
$MENU
  1
ACAD
  9
$ELEVATION
 40
0.0
  9
$THICKNESS
 40
0.0
  9
$VIEWDIR
 10
0.0
 20
0.0
 30
1.0
  9
$LIMCHECK
 70
     0
  9
$BLIPMODE
 70
     1
  9
$CHAMFERA
 40
0.0
  9
$CHAMFERB
 40
0.0
  9
$FASTZOOM
 70
     1
  9
$SKPOLY
 70
     0
  9
$TDCREATE
 40
2456676.000000
  9
$TDUPDATE
 40
2456676.000000
  9
$TDINDWG
 40
0.0
  9
$TDUSRTIMER
 40
0.0
  9
$USRTIMER
 70
     1
  9
$ANGBASE
 50
0.0
  9
$ANGDIR
 70
     0
  9
$PDMODE
 70
     0
  9
$PDSIZE
 40
0.0
  9
$PLINEWID
 40
0.0
  9
$COORDS
 70
     0
  9
$USERI1
 70
     0
  9
$USERI2
 70
     0
  9
$USERI3
 70
     0
  9
$USERI4
 70
     0
  9
$USERI5
 70
     0
  9
$USERR1
 40
0.0
  9
$USERR2
 40
0.0
  9
$USERR3
 40
0.0
  9
$USERR4
 40
0.0
  9
$USERR5
 40
0.0
  0
ENDSEC
  0
SECTION
  2
TABLES
  0
TABLE
  2
LTYPE
 70
     9
  0
LTYPE
  2
CONTINUOUS
 70
    64
  3
Solid line
 72
    65
 73
     0
 40
0.0
  0
LTYPE
  2
DASHED
 70
    64
  3
__ __ __ __ __ __ __ __ __ __ __ __ __ __ __
 72
    65
 73
     2
 40
0.75
 49
0.5
 49
-0.25
  0
LTYPE
  2
HIDDEN
 70
    64
  3
_ _ _ _ _ _ _ _ _ _ _ _ _ _ _ _ _ _ _ _ _ _ _
 72
    65
 73
     2
 40
0.375
 49
0.25
 49
-0.125
  0
LTYPE
  2
DOT
 70
    64
  3
...............................................
 72
    65
 73
     2
 40
0.25
 49
0.0
 49
-0.25
  0
LTYPE
  2
DASHDOT
 70
    64
  3
__ . __ . __ . __ . __ . __ . __ . __ . __ . __
 72
    65
 73
     4
 40
1.0
 49
0.5
 49
-0.25
 49
0.0
 49
-0.25
  0
LTYPE
  2
DIVIDE
 70
    64
  3
__ . . __ . . __ . . __ . . __ . . __ . . __
 72
    65
 73
     6
 40
1.25
 49
0.5
 49
-0.25
 49
0.0
 49
-0.25
 49
0.0
 49
-0.25
  0
LTYPE
  2
CENTER
 70
    64
  3
____ _ ____ _ ____ _ ____ _ ____ _ ____ _ ____ 
 72
    65
 73
     4
 40
2.0
 49
1.25
 49
-0.25
 49
0.25
 49
-0.25
  0
LTYPE
  2
PHANTOM
 70
    64
  3
______  __  __  ______  __  __  ______  __  __ 
 72
    65
 73
     6
 40
2.5
 49
1.25
 49
-0.25
 49
0.25
 49
-0.25
 49
0.25
 49
-0.25
  0
LTYPE
  2
BORDER
 70
    64
  3
__ __ . __ __ . __ __ . __ __ . __ __ . __ __ .
 72
    65
 73
     6
 40
1.75
 49
0.5
 49
-0.25
 49
0.5
 49
-0.25
 49
0.0
 49
-0.25
  0
ENDTAB
  0
TABLE
  2
LAYER
 70
    16
  0
LAYER
  2
CSLAYER1
 70
    64
 62
     7
  6
CONTINUOUS
  0
LAYER
  2
CSLAYER2
 70
    64
 62
     7
  6
CONTINUOUS
  0
LAYER
  2
CSLAYER3
 70
    64
 62
     7
  6
CONTINUOUS
  0
LAYER
  2
CSLAYER4
 70
    64
 62
     7
  6
CONTINUOUS
  0
LAYER
  2
CSLAYER5
 70
    64
 62
     7
  6
CONTINUOUS
  0
LAYER
  2
CSLAYER6
 70
    64
 62
     7
  6
CONTINUOUS
  0
LAYER
  2
CSLAYER7
 70
    64
 62
     7
  6
CONTINUOUS
  0
LAYER
  2
CSLAYER8
 70
    64
 62
     7
  6
CONTINUOUS
  0
LAYER
  2
CSLAYER9
 70
    64
 62
     7
  6
CONTINUOUS
  0
LAYER
  2
CSLAYER10
 70
    64
 62
     7
  6
CONTINUOUS
  0
LAYER
  2
CSLAYER11
 70
    64
 62
     7
  6
CONTINUOUS
  0
LAYER
  2
CSLAYER12
 70
    64
 62
     7
  6
CONTINUOUS
  0
LAYER
  2
CSLAYER13
 70
    64
 62
     7
  6
CONTINUOUS
  0
LAYER
  2
CSLAYER14
 70
    64
 62
     7
  6
CONTINUOUS
  0
LAYER
  2
CSLAYER15
 70
    64
 62
     7
  6
CONTINUOUS
  0
LAYER
  2
CSLAYER16
 70
    64
 62
     7
  6
CONTINUOUS
  0
ENDTAB
  0
TABLE
  2
STYLE
 70
     1
  0
STYLE
  2
EASYDRAW_FONT
 70
     0
 40
1.0
 41
1.0
 50
0.0
 71
     0
 42
1.0
  3
monotxt
  4
bigfont
  0
ENDTAB
  0
TABLE
  2
VIEW
 70
     0
  0
ENDTAB
  0
ENDSEC
  0
SECTION
  2
BLOCKS
  0
BLOCK
  8
CSLAYER1
  2
EASYDRAWDIM0000
 70
   64
 10
0.0
 20
0.0
 30
0.0
  0
TEXT
  8
CSLAYER1
 62
     3
 10
261.511780
 20
2230.016113
 40
48.000000
 41
0.787500
  1
昇降切替バルブ
 50
0.000000
 51
0.000000
  7
EASYDRAW_FONT
 72
     5
 11
513.511780
 21
2230.016113
  0
LINE
  8
CSLAYER1
  6
CONTINUOUS
 62
     7
 10
613.408027
 20
2079.294403
 11
513.512227
 21
2220.015759
  0
LINE
  8
CSLAYER1
  6
CONTINUOUS
 62
     7
 10
613.408027
 20
2079.294403
 11
590.302538
 21
2098.429093
  0
LINE
  8
CSLAYER1
  6
CONTINUOUS
 62
     7
 10
613.408027
 20
2079.294403
 11
602.965431
 21
2107.418275
  0
LINE
  8
CSLAYER1
  6
CONTINUOUS
 62
     7
 10
513.512227
 20
2220.015759
 11
253.512227
 21
2220.015759
  0
ENDBLK
  8
0
  0
BLOCK
  8
CSLAYER1
  2
EASYDRAWDIM0001
 70
   64
 10
0.0
 20
0.0
 30
0.0
  0
TEXT
  8
CSLAYER1
 62
     3
 10
285.259338
 20
2140.768555
 40
48.000000
 41
0.794118
  1
ポンプペタル
 50
0.000000
 51
0.000000
  7
EASYDRAW_FONT
 72
     5
 11
501.259338
 21
2140.768555
  0
LINE
  8
CSLAYER1
  6
CONTINUOUS
 62
     7
 10
566.864872
 20
2050.954000
 11
503.211154
 21
2130.768061
  0
LINE
  8
CSLAYER1
  6
CONTINUOUS
 62
     7
 10
566.864872
 20
2050.954000
 11
542.726375
 21
2068.767843
  0
LINE
  8
CSLAYER1
  6
CONTINUOUS
 62
     7
 10
566.864872
 20
2050.954000
 11
554.867242
 21
2078.450488
  0
LINE
  8
CSLAYER1
  6
CONTINUOUS
 62
     7
 10
503.211154
 20
2130.768061
 11
273.211154
 21
2130.768061
  0
ENDBLK
  8
0
  0
BLOCK
  8
CSLAYER1
  2
EASYDRAWDIM0002
 70
   64
 10
0.0
 20
0.0
 30
0.0
  0
TEXT
  8
CSLAYER1
 62
     3
 10
639.979553
 20
2235.889648
 40
48.000000
 41
0.787500
  1
高圧ホース２m
 50
0.000000
 51
0.000000
  7
EASYDRAW_FONT
 72
     5
 11
891.979553
 21
2235.889648
  0
LINE
  8
CSLAYER1
  6
CONTINUOUS
 62
     7
 10
967.295824
 20
2096.044093
 11
900.030792
 21
2225.889384
  0
LINE
  8
CSLAYER1
  6
CONTINUOUS
 62
     7
 10
967.295824
 20
2096.044093
 11
947.072183
 21
2118.202711
  0
LINE
  8
CSLAYER1
  6
CONTINUOUS
 62
     7
 10
967.295824
 20
2096.044093
 11
960.860946
 21
2125.345839
  0
LINE
  8
CSLAYER1
  6
CONTINUOUS
 62
     7
 10
900.030792
 20
2225.889384
 11
630.030792
 21
2225.889384
  0
ENDBLK
  8
0
  0
BLOCK
  8
CSLAYER1
  2
*D0000
 70
    65
 10
0.0
 20
0.0
 30
0.0
  0
TEXT
  8
CSLAYER1
 62
     3
 10
1410.821533
 20
1877.484375
 40
40.000000
 41
0.843750
  1
250
 50
90.000000
 51
0.000000
  7
EASYDRAW_FONT
 72
     5
 11
1410.821533
 21
1967.484375
  0
LINE
  8
CSLAYER1
  6
CONTINUOUS
 62
     5
 10
1508.064921
 20
1823.037375
 11
1409.073662
 21
1823.037375
  0
LINE
  8
CSLAYER1
  6
CONTINUOUS
 62
     5
 10
1508.064921
 20
2073.037375
 11
1409.073662
 21
2073.037375
  0
LINE
  8
CSLAYER1
  6
CONTINUOUS
 62
     5
 10
1419.073662
 20
1823.037375
 11
1419.073662
 21
2073.037375
  0
LINE
  8
CSLAYER1
  6
CONTINUOUS
 62
     5
 10
1419.073662
 20
1823.037375
 11
1411.309090
 21
1852.015150
  0
LINE
  8
CSLAYER1
  6
CONTINUOUS
 62
     5
 10
1419.073662
 20
1823.037375
 11
1426.838233
 21
1852.015150
  0
LINE
  8
CSLAYER1
  6
CONTINUOUS
 62
     5
 10
1419.073662
 20
2073.037375
 11
1411.309090
 21
2044.059601
  0
LINE
  8
CSLAYER1
  6
CONTINUOUS
 62
     5
 10
1419.073662
 20
2073.037375
 11
1426.838233
 21
2044.059601
  0
ENDBLK
  8
0
  0
BLOCK
  8
CSLAYER1
  2
EASYDRAWDIM0003
 70
   64
 10
0.0
 20
0.0
 30
0.0
  0
TEXT
  8
CSLAYER1
 62
     3
 10
1626.039917
 20
1688.036987
 40
40.000000
 41
0.771429
  1
2-%%c13(アンカー穴)
 50
0.000000
 51
0.000000
  7
EASYDRAW_FONT
 72
     5
 11
1986.039917
 21
1688.036987
  0
LINE
  8
CSLAYER1
  6
CONTINUOUS
 62
     5
 10
1621.698603
 20
1678.037375
 11
1996.039856
 21
1678.037375
  0
ENDBLK
  8
0
  0
BLOCK
  8
CSLAYER1
  2
*D0001
 70
    65
 10
0.0
 20
0.0
 30
0.0
  0
TEXT
  8
CSLAYER1
 62
     3
 10
1834.305054
 20
1489.453491
 40
40.000000
 41
0.843750
  1
700
 50
0.000000
 51
0.000000
  7
EASYDRAW_FONT
 72
     5
 11
1924.305054
 21
1489.453491
  0
LINE
  8
CSLAYER1
  6
CONTINUOUS
 62
     5
 10
1529.305027
 20
1389.453528
 11
1529.305027
 21
1489.453528
  0
LINE
  8
CSLAYER1
  6
CONTINUOUS
 62
     5
 10
2229.305027
 20
1389.453528
 11
2229.305027
 21
1489.453528
  0
LINE
  8
CSLAYER1
  6
CONTINUOUS
 62
     5
 10
1529.305027
 20
1479.453528
 11
2229.305027
 21
1479.453528
  0
LINE
  8
CSLAYER1
  6
CONTINUOUS
 62
     5
 10
1529.305027
 20
1479.453528
 11
1558.282802
 21
1487.218099
  0
LINE
  8
CSLAYER1
  6
CONTINUOUS
 62
     5
 10
1529.305027
 20
1479.453528
 11
1558.282802
 21
1471.688956
  0
LINE
  8
CSLAYER1
  6
CONTINUOUS
 62
     5
 10
2229.305027
 20
1479.453528
 11
2200.327252
 21
1487.218099
  0
LINE
  8
CSLAYER1
  6
CONTINUOUS
 62
     5
 10
2229.305027
 20
1479.453528
 11
2200.327252
 21
1471.688956
  0
ENDBLK
  8
0
  0
BLOCK
  8
CSLAYER1
  2
*D0002
 70
    65
 10
0.0
 20
0.0
 30
0.0
  0
TEXT
  8
CSLAYER1
 62
     3
 10
1810.827759
 20
599.475464
 40
40.000000
 41
0.843750
  1
703
 50
0.000000
 51
0.000000
  7
EASYDRAW_FONT
 72
     5
 11
1900.827759
 21
599.475464
  0
LINE
  8
CSLAYER1
  6
CONTINUOUS
 62
     5
 10
1504.327722
 20
789.475417
 11
1504.327722
 21
579.475417
  0
LINE
  8
CSLAYER1
  6
CONTINUOUS
 62
     5
 10
2207.327722
 20
789.475417
 11
2207.327722
 21
579.475417
  0
LINE
  8
CSLAYER1
  6
CONTINUOUS
 62
     5
 10
1504.327722
 20
589.475417
 11
2207.327722
 21
589.475417
  0
LINE
  8
CSLAYER1
  6
CONTINUOUS
 62
     5
 10
1504.327722
 20
589.475417
 11
1533.305497
 21
597.239989
  0
LINE
  8
CSLAYER1
  6
CONTINUOUS
 62
     5
 10
1504.327722
 20
589.475417
 11
1533.305497
 21
581.710846
  0
LINE
  8
CSLAYER1
  6
CONTINUOUS
 62
     5
 10
2207.327722
 20
589.475417
 11
2178.349948
 21
597.239989
  0
LINE
  8
CSLAYER1
  6
CONTINUOUS
 62
     5
 10
2207.327722
 20
589.475417
 11
2178.349948
 21
581.710846
  0
ENDBLK
  8
0
  0
BLOCK
  8
CSLAYER1
  2
*D0003
 70
    65
 10
0.0
 20
0.0
 30
0.0
  0
TEXT
  8
CSLAYER1
 62
     3
 10
1100.486084
 20
807.524841
 40
40.000000
 41
1.125000
  1
6
 50
90.000000
 51
0.000000
  7
EASYDRAW_FONT
 72
     5
 11
1100.486084
 21
837.524841
  0
LINE
  8
CSLAYER1
  6
CONTINUOUS
 62
     5
 10
1054.099412
 20
799.475417
 11
1120.486009
 21
799.475417
  0
LINE
  8
CSLAYER1
  6
CONTINUOUS
 62
     5
 10
1054.099412
 20
805.475417
 11
1120.486009
 21
805.475417
  0
LINE
  8
CSLAYER1
  6
CONTINUOUS
 62
     5
 10
1110.486009
 20
799.475417
 11
1110.486009
 21
749.475417
  0
LINE
  8
CSLAYER1
  6
CONTINUOUS
 62
     5
 10
1110.486009
 20
799.475417
 11
1102.721437
 21
770.497643
  0
LINE
  8
CSLAYER1
  6
CONTINUOUS
 62
     5
 10
1110.486009
 20
799.475417
 11
1118.250580
 21
770.497643
  0
LINE
  8
CSLAYER1
  6
CONTINUOUS
 62
     5
 10
1110.486009
 20
805.475417
 11
1110.486009
 21
839.574380
  0
LINE
  8
CSLAYER1
  6
CONTINUOUS
 62
     5
 10
1110.486009
 20
805.475417
 11
1102.721437
 21
834.453192
  0
LINE
  8
CSLAYER1
  6
CONTINUOUS
 62
     5
 10
1110.486009
 20
805.475417
 11
1118.250580
 21
834.453192
  0
LINE
  8
CSLAYER1
  6
CONTINUOUS
 62
     5
 10
1110.486009
 20
799.475417
 11
1110.486009
 21
805.475417
  0
ENDBLK
  8
0
  0
BLOCK
  8
CSLAYER1
  2
EASYDRAWDIM0004
 70
   64
 10
0.0
 20
0.0
 30
0.0
  0
TEXT
  8
CSLAYER1
 62
     3
 10
1212.130371
 20
954.015564
 40
40.000000
 41
0.803571
  1
高圧ホース
 50
0.000000
 51
0.000000
  7
EASYDRAW_FONT
 72
     5
 11
1362.130371
 21
954.015564
  0
LINE
  8
CSLAYER1
  6
CONTINUOUS
 62
     5
 10
1428.675987
 20
825.184010
 11
1362.130319
 21
944.015561
  0
LINE
  8
CSLAYER1
  6
CONTINUOUS
 62
     5
 10
1428.675987
 20
825.184010
 11
1407.742714
 21
846.673497
  0
LINE
  8
CSLAYER1
  6
CONTINUOUS
 62
     5
 10
1428.675987
 20
825.184010
 11
1421.291984
 21
854.261088
  0
LINE
  8
CSLAYER1
  6
CONTINUOUS
 62
     5
 10
1362.130319
 20
944.015561
 11
1202.130319
 21
944.015561
  0
ENDBLK
  8
0
  0
BLOCK
  8
CSLAYER1
  2
EASYDRAWDIM0005
 70
   64
 10
0.0
 20
0.0
 30
0.0
  0
TEXT
  8
CSLAYER1
 62
     3
 10
1460.060303
 20
1845.936989
 40
33.155758
 41
0.767879
  1
穴ヒﾟッチ
 50
90.000000
 51
0.000000
  7
EASYDRAW_FONT
 72
     5
 11
1460.060303
 21
1964.748558
  0
ENDBLK
  8
0
  0
BLOCK
  8
CSLAYER1
  2
*D0004
 70
    65
 10
0.0
 20
0.0
 30
0.0
  0
TEXT
  8
CSLAYER1
 62
     3
 10
2339.304932
 20
1903.037109
 40
40.000000
 41
0.843750
  1
300
 50
90.000000
 51
0.000000
  7
EASYDRAW_FONT
 72
     5
 11
2339.304932
 21
1993.037109
  0
LINE
  8
CSLAYER1
  6
CONTINUOUS
 62
     5
 10
2217.027722
 20
1798.037375
 11
2359.305027
 21
1798.037375
  0
LINE
  8
CSLAYER1
  6
CONTINUOUS
 62
     5
 10
2217.027722
 20
2098.037375
 11
2359.305027
 21
2098.037375
  0
LINE
  8
CSLAYER1
  6
CONTINUOUS
 62
     5
 10
2349.305027
 20
1798.037375
 11
2349.305027
 21
2098.037375
  0
LINE
  8
CSLAYER1
  6
CONTINUOUS
 62
     5
 10
2349.305027
 20
1798.037375
 11
2341.540456
 21
1827.015150
  0
LINE
  8
CSLAYER1
  6
CONTINUOUS
 62
     5
 10
2349.305027
 20
1798.037375
 11
2357.069598
 21
1827.015150
  0
LINE
  8
CSLAYER1
  6
CONTINUOUS
 62
     5
 10
2349.305027
 20
2098.037375
 11
2341.540456
 21
2069.059601
  0
LINE
  8
CSLAYER1
  6
CONTINUOUS
 62
     5
 10
2349.305027
 20
2098.037375
 11
2357.069598
 21
2069.059601
  0
ENDBLK
  8
0
  0
BLOCK
  8
CSLAYER1
  2
*D0005
 70
    65
 10
0.0
 20
0.0
 30
0.0
  0
TEXT
  8
CSLAYER1
 62
     3
 10
1346.337646
 20
1249.648315
 40
40.000000
 41
0.803571
  1
MAX22
 50
0.000000
 51
0.000000
  7
EASYDRAW_FONT
 72
     5
 11
1496.337646
 21
1249.648315
  0
LINE
  8
CSLAYER1
  6
CONTINUOUS
 62
     5
 10
1507.027722
 20
874.275417
 11
1507.027722
 21
1241.932663
  0
LINE
  8
CSLAYER1
  6
CONTINUOUS
 62
     5
 10
1529.305027
 20
1369.453528
 11
1529.305027
 21
1221.932663
  0
LINE
  8
CSLAYER1
  6
CONTINUOUS
 62
     5
 10
1507.027722
 20
1231.932663
 11
1417.911193
 21
1231.932663
  0
LINE
  8
CSLAYER1
  6
CONTINUOUS
 62
     5
 10
1507.027722
 20
1231.932663
 11
1478.049948
 21
1239.697234
  0
LINE
  8
CSLAYER1
  6
CONTINUOUS
 62
     5
 10
1507.027722
 20
1231.932663
 11
1478.049948
 21
1224.168091
  0
LINE
  8
CSLAYER1
  6
CONTINUOUS
 62
     5
 10
1529.305027
 20
1231.932663
 11
1579.305027
 21
1231.932663
  0
LINE
  8
CSLAYER1
  6
CONTINUOUS
 62
     5
 10
1529.305027
 20
1231.932663
 11
1558.282802
 21
1239.697234
  0
LINE
  8
CSLAYER1
  6
CONTINUOUS
 62
     5
 10
1529.305027
 20
1231.932663
 11
1558.282802
 21
1224.168091
  0
LINE
  8
CSLAYER1
  6
CONTINUOUS
 62
     5
 10
1507.027722
 20
1231.932663
 11
1529.305027
 21
1231.932663
  0
ENDBLK
  8
0
  0
BLOCK
  8
CSLAYER1
  2
EASYDRAWDIM0006
 70
   64
 10
0.0
 20
0.0
 30
0.0
  0
TEXT
  8
CSLAYER1
 62
     3
 10
1248.123535
 20
1125.029053
 40
40.000000
 41
0.787500
  1
油圧シリンダー
 50
0.000000
 51
0.000000
  7
EASYDRAW_FONT
 72
     5
 11
1458.123535
 21
1125.029053
  0
LINE
  8
CSLAYER1
  6
CONTINUOUS
 62
     5
 10
1459.088413
 20
1115.028926
 11
1238.123671
 21
1115.028926
  0
ENDBLK
  8
0
  0
BLOCK
  8
CSLAYER1
  2
*D0006
 70
    65
 10
0.0
 20
0.0
 30
0.0
  0
TEXT
  8
CSLAYER1
 62
     3
 10
2519.304932
 20
801.875366
 40
40.000000
 41
0.900000
  1
65
 50
90.000000
 51
0.000000
  7
EASYDRAW_FONT
 72
     5
 11
2519.304932
 21
861.875366
  0
LINE
  8
CSLAYER1
  6
CONTINUOUS
 62
     5
 10
2568.175442
 20
799.475417
 11
2519.305027
 21
799.475417
  0
LINE
  8
CSLAYER1
  6
CONTINUOUS
 62
     5
 10
2618.716595
 20
864.275417
 11
2519.305027
 21
864.275417
  0
LINE
  8
CSLAYER1
  6
CONTINUOUS
 62
     5
 10
2529.305027
 20
799.475417
 11
2529.305027
 21
864.275417
  0
LINE
  8
CSLAYER1
  6
CONTINUOUS
 62
     5
 10
2529.305027
 20
749.475417
 11
2529.305027
 21
799.475417
  0
LINE
  8
CSLAYER1
  6
CONTINUOUS
 62
     5
 10
2529.305027
 20
799.475417
 11
2521.540456
 21
770.497643
  0
LINE
  8
CSLAYER1
  6
CONTINUOUS
 62
     5
 10
2529.305027
 20
799.475417
 11
2537.069598
 21
770.497643
  0
LINE
  8
CSLAYER1
  6
CONTINUOUS
 62
     5
 10
2529.305027
 20
864.275417
 11
2529.305027
 21
914.275417
  0
LINE
  8
CSLAYER1
  6
CONTINUOUS
 62
     5
 10
2529.305027
 20
864.275417
 11
2521.540456
 21
893.253192
  0
LINE
  8
CSLAYER1
  6
CONTINUOUS
 62
     5
 10
2529.305027
 20
864.275417
 11
2537.069598
 21
893.253192
  0
ENDBLK
  8
0
  0
BLOCK
  8
CSLAYER1
  2
*D0007
 70
    65
 10
0.0
 20
0.0
 30
0.0
  0
TEXT
  8
CSLAYER1
 62
     3
 10
849.099365
 20
1489.453491
 40
40.000000
 41
0.843750
  1
300
 50
0.000000
 51
0.000000
  7
EASYDRAW_FONT
 72
     5
 11
939.099365
 21
1489.453491
  0
LINE
  8
CSLAYER1
  6
CONTINUOUS
 62
     5
 10
744.099412
 20
1389.453528
 11
744.099412
 21
1489.453528
  0
LINE
  8
CSLAYER1
  6
CONTINUOUS
 62
     5
 10
1044.099412
 20
1389.453528
 11
1044.099412
 21
1489.453528
  0
LINE
  8
CSLAYER1
  6
CONTINUOUS
 62
     5
 10
744.099412
 20
1479.453528
 11
1044.099412
 21
1479.453528
  0
LINE
  8
CSLAYER1
  6
CONTINUOUS
 62
     5
 10
744.099412
 20
1479.453528
 11
773.077187
 21
1487.218099
  0
LINE
  8
CSLAYER1
  6
CONTINUOUS
 62
     5
 10
744.099412
 20
1479.453528
 11
773.077187
 21
1471.688956
  0
LINE
  8
CSLAYER1
  6
CONTINUOUS
 62
     5
 10
1044.099412
 20
1479.453528
 11
1015.121637
 21
1487.218099
  0
LINE
  8
CSLAYER1
  6
CONTINUOUS
 62
     5
 10
1044.099412
 20
1479.453528
 11
1015.121637
 21
1471.688956
  0
ENDBLK
  8
0
  0
BLOCK
  8
CSLAYER1
  2
EASYDRAWDIM0007
 70
   64
 10
0.0
 20
0.0
 30
0.0
  0
TEXT
  8
CSLAYER1
 62
     3
 10
1126.186035
 20
690.286255
 40
40.000000
 41
0.803571
  1
2-φ13
 50
0.000000
 51
0.000000
  7
EASYDRAW_FONT
 72
     5
 11
1276.186035
 21
690.286255
  0
ENDBLK
  8
0
  0
BLOCK
  8
CSLAYER1
  2
*D0008
 70
    65
 10
0.0
 20
0.0
 30
0.0
  0
LINE
  8
CSLAYER1
  6
CONTINUOUS
 62
     5
 10
1504.327722
 20
1798.037375
 11
1504.327722
 21
1577.654331
  0
LINE
  8
CSLAYER1
  6
CONTINUOUS
 62
     5
 10
1554.327722
 20
1798.037375
 11
1554.327722
 21
1577.654331
  0
LINE
  8
CSLAYER1
  6
CONTINUOUS
 62
     5
 10
1504.327722
 20
1587.654331
 11
1554.327722
 21
1587.654331
  0
LINE
  8
CSLAYER1
  6
CONTINUOUS
 62
     5
 10
1421.345784
 20
1587.654331
 11
1504.327722
 21
1587.654331
  0
LINE
  8
CSLAYER1
  6
CONTINUOUS
 62
     5
 10
1504.327722
 20
1587.654331
 11
1475.349948
 21
1595.418903
  0
LINE
  8
CSLAYER1
  6
CONTINUOUS
 62
     5
 10
1504.327722
 20
1587.654331
 11
1475.349948
 21
1579.889760
  0
LINE
  8
CSLAYER1
  6
CONTINUOUS
 62
     5
 10
1554.327722
 20
1587.654331
 11
1604.327722
 21
1587.654331
  0
LINE
  8
CSLAYER1
  6
CONTINUOUS
 62
     5
 10
1554.327722
 20
1587.654331
 11
1583.305497
 21
1595.418903
  0
LINE
  8
CSLAYER1
  6
CONTINUOUS
 62
     5
 10
1554.327722
 20
1587.654331
 11
1583.305497
 21
1579.889760
  0
TEXT
  8
CSLAYER1
 62
     3
 10
1422.518311
 20
1597.654297
 40
40.000000
 41
0.900000
  1
50
 50
0.000000
 51
0.000000
  7
EASYDRAW_FONT
 72
     5
 11
1482.518311
 21
1597.654297
  0
ENDBLK
  8
0
  0
BLOCK
  8
CSLAYER1
  2
*D0009
 70
    65
 10
0.0
 20
0.0
 30
0.0
  0
LINE
  8
CSLAYER1
  6
CONTINUOUS
 62
     5
 10
1504.327722
 20
1798.037375
 11
1504.327722
 21
1667.986128
  0
LINE
  8
CSLAYER1
  6
CONTINUOUS
 62
     5
 10
1529.327722
 20
1801.774574
 11
1529.327722
 21
1667.986128
  0
LINE
  8
CSLAYER1
  6
CONTINUOUS
 62
     5
 10
1504.327722
 20
1677.986128
 11
1529.327722
 21
1677.986128
  0
LINE
  8
CSLAYER1
  6
CONTINUOUS
 62
     5
 10
1421.345784
 20
1677.986128
 11
1504.327722
 21
1677.986128
  0
LINE
  8
CSLAYER1
  6
CONTINUOUS
 62
     5
 10
1504.327722
 20
1677.986128
 11
1475.349948
 21
1685.750700
  0
LINE
  8
CSLAYER1
  6
CONTINUOUS
 62
     5
 10
1504.327722
 20
1677.986128
 11
1475.349948
 21
1670.221557
  0
LINE
  8
CSLAYER1
  6
CONTINUOUS
 62
     5
 10
1529.327722
 20
1677.986128
 11
1579.327722
 21
1677.986128
  0
LINE
  8
CSLAYER1
  6
CONTINUOUS
 62
     5
 10
1529.327722
 20
1677.986128
 11
1558.305497
 21
1685.750700
  0
LINE
  8
CSLAYER1
  6
CONTINUOUS
 62
     5
 10
1529.327722
 20
1677.986128
 11
1558.305497
 21
1670.221557
  0
TEXT
  8
CSLAYER1
 62
     3
 10
1423.046631
 20
1687.986084
 40
40.000000
 41
0.900000
  1
25
 50
0.000000
 51
0.000000
  7
EASYDRAW_FONT
 72
     5
 11
1483.046631
 21
1687.986084
  0
ENDBLK
  8
0
  0
BLOCK
  8
CSLAYER1
  2
*D0010
 70
    65
 10
0.0
 20
0.0
 30
0.0
  0
LINE
  8
CSLAYER1
  6
CONTINUOUS
 62
     5
 10
744.099412
 20
789.475417
 11
744.099412
 21
579.475417
  0
LINE
  8
CSLAYER1
  6
CONTINUOUS
 62
     5
 10
1044.099412
 20
789.475417
 11
1044.099412
 21
579.475417
  0
LINE
  8
CSLAYER1
  6
CONTINUOUS
 62
     5
 10
744.099412
 20
589.475417
 11
1044.099412
 21
589.475417
  0
LINE
  8
CSLAYER1
  6
CONTINUOUS
 62
     5
 10
744.099412
 20
589.475417
 11
773.077187
 21
597.239989
  0
LINE
  8
CSLAYER1
  6
CONTINUOUS
 62
     5
 10
744.099412
 20
589.475417
 11
773.077187
 21
581.710846
  0
LINE
  8
CSLAYER1
  6
CONTINUOUS
 62
     5
 10
1044.099412
 20
589.475417
 11
1015.121637
 21
597.239989
  0
LINE
  8
CSLAYER1
  6
CONTINUOUS
 62
     5
 10
1044.099412
 20
589.475417
 11
1015.121637
 21
581.710846
  0
TEXT
  8
CSLAYER1
 62
     3
 10
849.099426
 20
599.475464
 40
40.000000
 41
0.843750
  1
300
 50
0.000000
 51
0.000000
  7
EASYDRAW_FONT
 72
     5
 11
939.099426
 21
599.475464
  0
ENDBLK
  8
0
  0
BLOCK
  8
CSLAYER1
  2
*D0011
 70
    65
 10
0.0
 20
0.0
 30
0.0
  0
LINE
  8
CSLAYER1
  6
CONTINUOUS
 62
     5
 10
769.099412
 20
780.546056
 11
769.099412
 21
669.475417
  0
LINE
  8
CSLAYER1
  6
CONTINUOUS
 62
     5
 10
1019.099412
 20
780.546056
 11
1019.099412
 21
669.475417
  0
LINE
  8
CSLAYER1
  6
CONTINUOUS
 62
     5
 10
769.099412
 20
679.475417
 11
1019.099412
 21
679.475417
  0
LINE
  8
CSLAYER1
  6
CONTINUOUS
 62
     5
 10
769.099412
 20
679.475417
 11
798.077187
 21
687.239989
  0
LINE
  8
CSLAYER1
  6
CONTINUOUS
 62
     5
 10
769.099412
 20
679.475417
 11
798.077187
 21
671.710846
  0
LINE
  8
CSLAYER1
  6
CONTINUOUS
 62
     5
 10
1019.099412
 20
679.475417
 11
990.121637
 21
687.239989
  0
LINE
  8
CSLAYER1
  6
CONTINUOUS
 62
     5
 10
1019.099412
 20
679.475417
 11
990.121637
 21
671.710846
  0
TEXT
  8
CSLAYER1
 62
     3
 10
849.099426
 20
689.475403
 40
40.000000
 41
0.843750
  1
250
 50
0.000000
 51
0.000000
  7
EASYDRAW_FONT
 72
     5
 11
939.099426
 21
689.475403
  0
ENDBLK
  8
0
  0
BLOCK
  8
CSLAYER1
  2
*D0012
 70
    65
 10
0.0
 20
0.0
 30
0.0
  0
LINE
  8
CSLAYER1
  6
CONTINUOUS
 62
     5
 10
1504.327722
 20
789.475417
 11
1504.327722
 21
669.475417
  0
LINE
  8
CSLAYER1
  6
CONTINUOUS
 62
     5
 10
1529.327722
 20
786.431995
 11
1529.327722
 21
669.475417
  0
LINE
  8
CSLAYER1
  6
CONTINUOUS
 62
     5
 10
1504.327722
 20
679.475417
 11
1529.327722
 21
679.475417
  0
LINE
  8
CSLAYER1
  6
CONTINUOUS
 62
     5
 10
1454.327722
 20
679.475417
 11
1504.327722
 21
679.475417
  0
LINE
  8
CSLAYER1
  6
CONTINUOUS
 62
     5
 10
1504.327722
 20
679.475417
 11
1475.349948
 21
687.239989
  0
LINE
  8
CSLAYER1
  6
CONTINUOUS
 62
     5
 10
1504.327722
 20
679.475417
 11
1475.349948
 21
671.710846
  0
LINE
  8
CSLAYER1
  6
CONTINUOUS
 62
     5
 10
1529.327722
 20
679.475417
 11
1619.327722
 21
679.475417
  0
LINE
  8
CSLAYER1
  6
CONTINUOUS
 62
     5
 10
1529.327722
 20
679.475417
 11
1558.305497
 21
687.239989
  0
LINE
  8
CSLAYER1
  6
CONTINUOUS
 62
     5
 10
1529.327722
 20
679.475417
 11
1558.305497
 21
671.710846
  0
TEXT
  8
CSLAYER1
 62
     3
 10
1559.327759
 20
689.475464
 40
40.000000
 41
0.900000
  1
25
 50
0.000000
 51
0.000000
  7
EASYDRAW_FONT
 72
     5
 11
1619.327759
 21
689.475464
  0
ENDBLK
  8
0
  0
BLOCK
  8
CSLAYER1
  2
*D0013
 70
    65
 10
0.0
 20
0.0
 30
0.0
  0
LINE
  8
CSLAYER1
  6
CONTINUOUS
 62
     5
 10
2445.134252
 20
799.475417
 11
2449.305027
 21
799.475417
  0
LINE
  8
CSLAYER1
  6
CONTINUOUS
 62
     5
 10
2239.305027
 20
1379.453528
 11
2449.305027
 21
1379.453528
  0
LINE
  8
CSLAYER1
  6
CONTINUOUS
 62
     5
 10
2439.305027
 20
799.475417
 11
2439.305027
 21
1379.453528
  0
LINE
  8
CSLAYER1
  6
CONTINUOUS
 62
     5
 10
2439.305027
 20
799.475417
 11
2431.540456
 21
828.453192
  0
LINE
  8
CSLAYER1
  6
CONTINUOUS
 62
     5
 10
2439.305027
 20
799.475417
 11
2447.069598
 21
828.453192
  0
LINE
  8
CSLAYER1
  6
CONTINUOUS
 62
     5
 10
2439.305027
 20
1379.453528
 11
2431.540456
 21
1350.475753
  0
LINE
  8
CSLAYER1
  6
CONTINUOUS
 62
     5
 10
2439.305027
 20
1379.453528
 11
2447.069598
 21
1350.475753
  0
TEXT
  8
CSLAYER1
 62
     3
 10
2429.305176
 20
1044.464478
 40
40.000000
 41
0.843750
  1
570
 50
90.000000
 51
0.000000
  7
EASYDRAW_FONT
 72
     5
 11
2429.305176
 21
1134.464478
  0
ENDBLK
  8
0
  0
BLOCK
  8
CSLAYER1
  2
*D0014
 70
    65
 10
0.0
 20
0.0
 30
0.0
  0
LINE
  8
CSLAYER1
  6
CONTINUOUS
 62
     5
 10
2217.027722
 20
864.275417
 11
2359.305027
 21
864.275417
  0
LINE
  8
CSLAYER1
  6
CONTINUOUS
 62
     5
 10
2239.305027
 20
1379.453528
 11
2359.305027
 21
1379.453528
  0
LINE
  8
CSLAYER1
  6
CONTINUOUS
 62
     5
 10
2349.305027
 20
864.275417
 11
2349.305027
 21
1379.453528
  0
LINE
  8
CSLAYER1
  6
CONTINUOUS
 62
     5
 10
2349.305027
 20
864.275417
 11
2341.540456
 21
893.253192
  0
LINE
  8
CSLAYER1
  6
CONTINUOUS
 62
     5
 10
2349.305027
 20
864.275417
 11
2357.069598
 21
893.253192
  0
LINE
  8
CSLAYER1
  6
CONTINUOUS
 62
     5
 10
2349.305027
 20
1379.453528
 11
2341.540456
 21
1350.475753
  0
LINE
  8
CSLAYER1
  6
CONTINUOUS
 62
     5
 10
2349.305027
 20
1379.453528
 11
2357.069598
 21
1350.475753
  0
TEXT
  8
CSLAYER1
 62
     3
 10
2339.304932
 20
1076.864502
 40
40.000000
 41
0.843750
  1
505
 50
90.000000
 51
0.000000
  7
EASYDRAW_FONT
 72
     5
 11
2339.304932
 21
1166.864502
  0
ENDBLK
  8
0
  0
BLOCK
  8
CSLAYER1
  2
*D0015
 70
    65
 10
0.0
 20
0.0
 30
0.0
  0
LINE
  8
CSLAYER1
  6
CONTINUOUS
 62
     5
 10
2349.305027
 20
799.475417
 11
2349.305027
 21
864.275417
  0
LINE
  8
CSLAYER1
  6
CONTINUOUS
 62
     5
 10
2349.305027
 20
799.475417
 11
2341.540456
 21
828.453192
  0
LINE
  8
CSLAYER1
  6
CONTINUOUS
 62
     5
 10
2349.305027
 20
799.475417
 11
2357.069598
 21
828.453192
  0
LINE
  8
CSLAYER1
  6
CONTINUOUS
 62
     5
 10
2349.305027
 20
864.275417
 11
2341.540456
 21
835.297643
  0
LINE
  8
CSLAYER1
  6
CONTINUOUS
 62
     5
 10
2349.305027
 20
864.275417
 11
2357.069598
 21
835.297643
  0
TEXT
  8
CSLAYER1
 62
     3
 10
2339.304932
 20
801.875427
 40
40.000000
 41
0.900000
  1
65
 50
90.000000
 51
0.000000
  7
EASYDRAW_FONT
 72
     5
 11
2339.304932
 21
861.875427
  0
ENDBLK
  8
0
  0
BLOCK
  8
CSLAYER1
  2
BLKF0000
 70
   64
 10
0.0
 20
0.0
 30
0.0
  0
ARC
  8
CSLAYER1
  6
CONTINUOUS
 62
     5
 10
2856.679355
 20
131.098959
 40
3.549225
 50
6.429109
 51
73.182034
  0
ARC
  8
CSLAYER1
  6
CONTINUOUS
 62
     5
 10
2853.218384
 20
129.940566
 40
6.907754
 50
310.517970
 51
330.092764
  0
ARC
  8
CSLAYER1
  6
CONTINUOUS
 62
     5
 10
2853.157734
 20
130.306084
 40
7.148321
 50
-32.205059
 51
9.585194
  0
ARC
  8
CSLAYER1
  6
CONTINUOUS
 62
     5
 10
2856.450462
 20
127.545086
 40
4.767514
 50
180.000000
 51
218.514150
  0
ARC
  8
CSLAYER1
  6
CONTINUOUS
 62
     5
 10
2855.163742
 20
126.867946
 40
3.348282
 50
222.781148
 51
319.406906
  0
ARC
  8
CSLAYER1
  6
CONTINUOUS
 62
     5
 10
2858.229383
 20
127.957838
 40
6.559434
 50
94.574282
 51
183.607718
  0
LINE
  8
CSLAYER1
  6
CONTINUOUS
 62
     5
 10
2871.673290
 20
122.841006
 11
2870.816254
 21
119.802423
  0
LINE
  8
CSLAYER1
  6
CONTINUOUS
 62
     5
 10
2873.465275
 20
142.708663
 11
2871.361640
 21
145.435597
  0
LINE
  8
CSLAYER1
  6
CONTINUOUS
 62
     5
 10
2871.361640
 20
145.435597
 11
2864.608286
 21
149.193509
  0
LINE
  8
CSLAYER1
  6
CONTINUOUS
 62
     5
 10
2864.608286
 20
149.193509
 11
2857.706259
 21
149.996380
  0
LINE
  8
CSLAYER1
  6
CONTINUOUS
 62
     5
 10
2839.417033
 20
136.617706
 11
2841.563728
 21
141.581937
  0
LINE
  8
CSLAYER1
  6
CONTINUOUS
 62
     5
 10
2841.526730
 20
141.496380
 11
2843.710422
 21
144.131136
  0
LINE
  8
CSLAYER1
  6
CONTINUOUS
 62
     5
 10
2843.710422
 20
144.131136
 11
2847.014844
 21
146.496380
  0
LINE
  8
CSLAYER1
  6
CONTINUOUS
 62
     5
 10
2857.706259
 20
149.996380
 11
2856.188083
 21
149.229535
  0
LINE
  8
CSLAYER1
  6
CONTINUOUS
 62
     5
 10
2856.188083
 20
149.229535
 11
2852.699705
 21
149.229535
  0
LINE
  8
CSLAYER1
  6
CONTINUOUS
 62
     5
 10
2852.699705
 20
149.229535
 11
2849.144242
 21
147.284093
  0
LINE
  8
CSLAYER1
  6
CONTINUOUS
 62
     5
 10
2849.144242
 20
147.284093
 11
2847.014844
 21
146.496380
  0
LINE
  8
CSLAYER1
  6
CONTINUOUS
 62
     5
 10
2839.417033
 20
136.617706
 11
2837.899486
 21
129.069103
  0
LINE
  8
CSLAYER1
  6
CONTINUOUS
 62
     5
 10
2837.899486
 20
129.069103
 11
2837.706259
 21
126.496380
  0
LINE
  8
CSLAYER1
  6
CONTINUOUS
 62
     5
 10
2840.415641
 20
118.656597
 11
2837.706259
 21
124.752708
  0
LINE
  8
CSLAYER1
  6
CONTINUOUS
 62
     5
 10
2837.706259
 20
124.752708
 11
2837.706259
 21
126.496380
  0
LINE
  8
CSLAYER1
  6
CONTINUOUS
 62
     5
 10
2870.816254
 20
119.802423
 11
2869.130466
 21
116.799417
  0
LINE
  8
CSLAYER1
  6
CONTINUOUS
 62
     5
 10
2869.130466
 20
116.799417
 11
2867.706259
 21
115.480706
  0
ARC
  8
CSLAYER1
  6
CONTINUOUS
 62
     5
 10
2855.514314
 20
127.033140
 40
17.266626
 50
208.054813
 51
260.640470
  0
ARC
  8
CSLAYER1
  6
CONTINUOUS
 62
     5
 10
2850.320919
 20
139.775609
 40
29.874611
 50
274.579659
 51
305.587364
  0
ARC
  8
CSLAYER1
  6
CONTINUOUS
 62
     5
 10
2861.293268
 20
133.791887
 40
15.088627
 50
313.467013
 51
331.085078
  0
LINE
  8
CSLAYER1
  6
CONTINUOUS
 62
     5
 10
2876.084600
 20
130.009800
 11
2876.381894
 21
133.791887
  0
LINE
  8
CSLAYER1
  6
CONTINUOUS
 62
     5
 10
2876.381894
 20
133.791887
 11
2875.089897
 21
139.900870
  0
LINE
  8
CSLAYER1
  6
CONTINUOUS
 62
     5
 10
2876.084600
 20
130.009800
 11
2874.500925
 21
126.496380
  0
ARC
  8
CSLAYER1
  6
CONTINUOUS
 62
     5
 10
2861.293268
 20
133.791887
 40
15.088627
 50
23.883193
 51
36.225170
  0
LINE
  8
CSLAYER1
  6
CONTINUOUS
 62
     5
 10
2821.706259
 20
161.496380
 11
2822.706259
 21
162.589024
  0
LINE
  8
CSLAYER1
  6
CONTINUOUS
 62
     5
 10
2821.706259
 20
161.496380
 11
2823.283217
 21
160.051346
  0
LINE
  8
CSLAYER1
  6
CONTINUOUS
 62
     5
 10
2824.822429
 20
157.942055
 11
2824.848697
 21
155.773936
  0
LINE
  8
CSLAYER1
  6
CONTINUOUS
 62
     5
 10
2824.848697
 20
155.773936
 11
2825.056095
 21
155.013477
  0
LINE
  8
CSLAYER1
  6
CONTINUOUS
 62
     5
 10
2825.056095
 20
155.013477
 11
2825.643723
 21
154.287584
  0
LINE
  8
CSLAYER1
  6
CONTINUOUS
 62
     5
 10
2825.643723
 20
154.287584
 11
2826.231351
 21
154.356716
  0
LINE
  8
CSLAYER1
  6
CONTINUOUS
 62
     5
 10
2826.231351
 20
154.356716
 11
2826.853545
 21
154.529548
  0
LINE
  8
CSLAYER1
  6
CONTINUOUS
 62
     5
 10
2826.853545
 20
154.529548
 11
2827.268341
 21
154.356716
  0
LINE
  8
CSLAYER1
  6
CONTINUOUS
 62
     5
 10
2827.268341
 20
154.356716
 11
2828.167065
 21
153.907354
  0
LINE
  8
CSLAYER1
  6
CONTINUOUS
 62
     5
 10
2828.167065
 20
153.907354
 11
2828.943117
 21
153.496380
  0
LINE
  8
CSLAYER1
  6
CONTINUOUS
 62
     5
 10
2828.943117
 20
153.496380
 11
2829.446020
 21
153.527124
  0
LINE
  8
CSLAYER1
  6
CONTINUOUS
 62
     5
 10
2829.446020
 20
153.527124
 11
2832.253892
 21
154.973604
  0
LINE
  8
CSLAYER1
  6
CONTINUOUS
 62
     5
 10
2822.706259
 20
162.589024
 11
2823.039110
 21
164.062731
  0
LINE
  8
CSLAYER1
  6
CONTINUOUS
 62
     5
 10
2823.039110
 20
164.062731
 11
2824.492516
 21
164.213083
  0
LINE
  8
CSLAYER1
  6
CONTINUOUS
 62
     5
 10
2825.986274
 20
166.981542
 11
2827.740447
 21
167.138632
  0
LINE
  8
CSLAYER1
  6
CONTINUOUS
 62
     5
 10
2827.740447
 20
167.138632
 11
2831.274975
 21
167.976446
  0
LINE
  8
CSLAYER1
  6
CONTINUOUS
 62
     5
 10
2831.274975
 20
167.976446
 11
2832.706259
 21
168.308085
  0
LINE
  8
CSLAYER1
  6
CONTINUOUS
 62
     5
 10
2825.986274
 20
166.981542
 11
2824.053383
 21
167.140410
  0
LINE
  8
CSLAYER1
  6
CONTINUOUS
 62
     5
 10
2823.317260
 20
166.271723
 11
2823.410785
 21
165.900561
  0
LINE
  8
CSLAYER1
  6
CONTINUOUS
 62
     5
 10
2823.410785
 20
165.900561
 11
2823.902379
 21
165.362880
  0
LINE
  8
CSLAYER1
  6
CONTINUOUS
 62
     5
 10
2823.902379
 20
165.362880
 11
2824.578321
 21
164.855924
  0
LINE
  8
CSLAYER1
  6
CONTINUOUS
 62
     5
 10
2824.578321
 20
164.855924
 11
2824.701646
 21
164.691491
  0
LINE
  8
CSLAYER1
  6
CONTINUOUS
 62
     5
 10
2823.283217
 20
160.051346
 11
2824.822429
 21
157.942055
  0
ARC
  8
CSLAYER1
  6
CONTINUOUS
 62
     5
 10
2867.692959
 20
-10.162273
 40
180.727463
 50
80.438896
 51
96.353582
  0
ARC
  8
CSLAYER1
  6
CONTINUOUS
 62
     5
 10
2842.794046
 20
135.085627
 40
34.720242
 50
81.866516
 51
106.890578
  0
LINE
  8
CSLAYER1
  6
CONTINUOUS
 62
     5
 10
2901.900520
 20
167.263050
 11
2904.147603
 21
166.241649
  0
LINE
  8
CSLAYER1
  6
CONTINUOUS
 62
     5
 10
2907.722507
 20
164.658477
 11
2904.147603
 21
166.241649
  0
LINE
  8
CSLAYER1
  6
CONTINUOUS
 62
     5
 10
2901.900520
 20
167.263050
 11
2897.706259
 21
168.055621
  0
LINE
  8
CSLAYER1
  6
CONTINUOUS
 62
     5
 10
2907.706259
 20
164.665672
 11
2909.577834
 21
163.097196
  0
LINE
  8
CSLAYER1
  6
CONTINUOUS
 62
     5
 10
2890.949515
 20
165.702523
 11
2891.848790
 21
167.155198
  0
LINE
  8
CSLAYER1
  6
CONTINUOUS
 62
     5
 10
2891.848790
 20
167.155198
 11
2896.524388
 21
166.035688
  0
LINE
  8
CSLAYER1
  6
CONTINUOUS
 62
     5
 10
2896.524388
 20
166.035688
 11
2913.266774
 21
161.496380
  0
LINE
  8
CSLAYER1
  6
CONTINUOUS
 62
     5
 10
2916.206259
 20
161.496380
 11
2909.577834
 21
163.097196
  0
LINE
  8
CSLAYER1
  6
CONTINUOUS
 62
     5
 10
2913.266774
 20
161.496380
 11
2916.206259
 21
161.496380
  0
LINE
  8
CSLAYER1
  6
CONTINUOUS
 62
     5
 10
2857.706259
 20
165.961321
 11
2877.706259
 21
166.496380
  0
LINE
  8
CSLAYER1
  6
CONTINUOUS
 62
     5
 10
2877.706259
 20
166.496380
 11
2890.949515
 21
165.702523
  0
LINE
  8
CSLAYER1
  6
CONTINUOUS
 62
     5
 10
2892.552496
 20
163.642043
 11
2877.706259
 21
164.996380
  0
LINE
  8
CSLAYER1
  6
CONTINUOUS
 62
     5
 10
2877.706259
 20
164.996380
 11
2862.657049
 21
165.405032
  0
LINE
  8
CSLAYER1
  6
CONTINUOUS
 62
     5
 10
2862.706259
 20
165.403695
 11
2857.706259
 21
165.498989
  0
LINE
  8
CSLAYER1
  6
CONTINUOUS
 62
     5
 10
2857.706259
 20
165.961321
 11
2857.706259
 21
165.498989
  0
LINE
  8
CSLAYER1
  6
CONTINUOUS
 62
     5
 10
2915.206259
 20
157.996380
 11
2906.363700
 21
160.307042
  0
LINE
  8
CSLAYER1
  6
CONTINUOUS
 62
     5
 10
2892.552496
 20
163.642043
 11
2902.706259
 21
161.669660
  0
LINE
  8
CSLAYER1
  6
CONTINUOUS
 62
     5
 10
2902.706259
 20
161.669660
 11
2906.363700
 21
160.307042
  0
LINE
  8
CSLAYER1
  6
CONTINUOUS
 62
     5
 10
2915.206259
 20
157.996380
 11
2914.913641
 21
157.157274
  0
LINE
  8
CSLAYER1
  6
CONTINUOUS
 62
     5
 10
2924.706259
 20
152.496380
 11
2924.400231
 21
153.725361
  0
LINE
  8
CSLAYER1
  6
CONTINUOUS
 62
     5
 10
2914.913641
 20
157.157274
 11
2924.400231
 21
153.725361
  0
LINE
  8
CSLAYER1
  6
CONTINUOUS
 62
     5
 10
2861.206259
 20
157.996380
 11
2863.629297
 21
157.996380
  0
LINE
  8
CSLAYER1
  6
CONTINUOUS
 62
     5
 10
2883.706259
 20
158.428875
 11
2883.706259
 21
157.996380
  0
LINE
  8
CSLAYER1
  6
CONTINUOUS
 62
     5
 10
2882.706259
 20
158.963316
 11
2880.994979
 21
159.600494
  0
LINE
  8
CSLAYER1
  6
CONTINUOUS
 62
     5
 10
2880.994979
 20
159.600494
 11
2879.884923
 21
159.650952
  0
LINE
  8
CSLAYER1
  6
CONTINUOUS
 62
     5
 10
2879.884923
 20
159.650952
 11
2879.405581
 21
159.398666
  0
LINE
  8
CSLAYER1
  6
CONTINUOUS
 62
     5
 10
2879.405581
 20
159.398666
 11
2879.304667
 21
158.995009
  0
LINE
  8
CSLAYER1
  6
CONTINUOUS
 62
     5
 10
2879.304667
 20
158.995009
 11
2879.758781
 21
158.692267
  0
LINE
  8
CSLAYER1
  6
CONTINUOUS
 62
     5
 10
2879.758781
 20
158.692267
 11
2881.398636
 21
158.540896
  0
LINE
  8
CSLAYER1
  6
CONTINUOUS
 62
     5
 10
2881.398636
 20
158.540896
 11
2883.706259
 21
158.428875
  0
LINE
  8
CSLAYER1
  6
CONTINUOUS
 62
     5
 10
2924.706259
 20
152.496380
 11
2921.730716
 21
153.682961
  0
LINE
  8
CSLAYER1
  6
CONTINUOUS
 62
     5
 10
2921.730716
 20
153.682961
 11
2911.675026
 21
155.525836
  0
LINE
  8
CSLAYER1
  6
CONTINUOUS
 62
     5
 10
2911.675026
 20
155.525836
 11
2906.649246
 21
156.685632
  0
LINE
  8
CSLAYER1
  6
CONTINUOUS
 62
     5
 10
2884.240480
 20
158.996380
 11
2896.006146
 21
158.996380
  0
LINE
  8
CSLAYER1
  6
CONTINUOUS
 62
     5
 10
2882.706259
 20
158.963316
 11
2883.230918
 21
158.654849
  0
LINE
  8
CSLAYER1
  6
CONTINUOUS
 62
     5
 10
2883.230918
 20
158.654849
 11
2883.527730
 21
158.565805
  0
LINE
  8
CSLAYER1
  6
CONTINUOUS
 62
     5
 10
2883.527730
 20
158.565805
 11
2883.706259
 21
158.590976
  0
LINE
  8
CSLAYER1
  6
CONTINUOUS
 62
     5
 10
2883.706259
 20
158.590976
 11
2884.240480
 21
158.996380
  0
LINE
  8
CSLAYER1
  6
CONTINUOUS
 62
     5
 10
2896.006146
 20
158.996380
 11
2900.456415
 21
157.967554
  0
LINE
  8
CSLAYER1
  6
CONTINUOUS
 62
     5
 10
2900.456415
 20
157.967554
 11
2904.609606
 21
156.802405
  0
LINE
  8
CSLAYER1
  6
CONTINUOUS
 62
     5
 10
2904.609606
 20
156.802405
 11
2906.649246
 21
156.685632
  0
LINE
  8
CSLAYER1
  6
CONTINUOUS
 62
     5
 10
2860.206259
 20
156.996380
 11
2860.206259
 21
156.496380
  0
LINE
  8
CSLAYER1
  6
CONTINUOUS
 62
     5
 10
2857.706259
 20
156.496380
 11
2860.206259
 21
156.496380
  0
ARC
  8
CSLAYER1
  6
CONTINUOUS
 62
     5
 10
2861.206259
 20
156.996380
 40
1.000000
 50
90.000000
 51
180.000000
  0
LINE
  8
CSLAYER1
  6
CONTINUOUS
 62
     5
 10
2863.629297
 20
157.996380
 11
2864.326854
 21
157.424383
  0
LINE
  8
CSLAYER1
  6
CONTINUOUS
 62
     5
 10
2864.929222
 20
157.400423
 11
2865.786818
 21
157.996380
  0
LINE
  8
CSLAYER1
  6
CONTINUOUS
 62
     5
 10
2867.365215
 20
157.996380
 11
2869.032340
 21
157.338304
  0
LINE
  8
CSLAYER1
  6
CONTINUOUS
 62
     5
 10
2869.456049
 20
157.364816
 11
2870.609536
 21
157.996380
  0
LINE
  8
CSLAYER1
  6
CONTINUOUS
 62
     5
 10
2865.786818
 20
157.996380
 11
2867.365215
 21
157.996380
  0
LINE
  8
CSLAYER1
  6
CONTINUOUS
 62
     5
 10
2870.609536
 20
157.996380
 11
2883.706259
 21
157.996380
  0
LINE
  8
CSLAYER1
  6
CONTINUOUS
 62
     5
 10
2836.255242
 20
154.887553
 11
2857.706259
 21
156.496380
  0
LINE
  8
CSLAYER1
  6
CONTINUOUS
 62
     5
 10
2832.253892
 20
154.973604
 11
2836.255242
 21
154.887553
  0
ARC
  8
CSLAYER1
  6
CONTINUOUS
 62
     5
 10
2864.643893
 20
157.811017
 40
0.500000
 50
230.648247
 51
304.796026
  0
ARC
  8
CSLAYER1
  6
CONTINUOUS
 62
     5
 10
2869.215923
 20
157.803381
 40
0.500000
 50
248.459024
 51
298.701829
  0
ARC
  8
CSLAYER1
  6
CONTINUOUS
 62
     5
 10
2824.461646
 20
164.511491
 40
0.300000
 50
-84.093859
 51
36.869898
  0
ARC
  8
CSLAYER1
  6
CONTINUOUS
 62
     5
 10
2823.996042
 20
166.442762
 40
0.700000
 50
85.301319
 51
194.142980
  0
LINE
  8
CSLAYER1
  6
CONTINUOUS
 62
     3
 10
2856.188083
 20
149.229535
 11
2864.298579
 21
149.229535
  0
LINE
  8
CSLAYER1
  6
CONTINUOUS
 62
     3
 10
2849.775567
 20
147.629535
 11
2867.418907
 21
147.629535
  0
LINE
  8
CSLAYER1
  6
CONTINUOUS
 62
     3
 10
2846.362628
 20
146.029535
 11
2870.294272
 21
146.029535
  0
LINE
  8
CSLAYER1
  6
CONTINUOUS
 62
     3
 10
2844.127308
 20
144.429535
 11
2872.137745
 21
144.429535
  0
LINE
  8
CSLAYER1
  6
CONTINUOUS
 62
     3
 10
2842.631652
 20
142.829535
 11
2873.372031
 21
142.829535
  0
LINE
  8
CSLAYER1
  6
CONTINUOUS
 62
     3
 10
2841.411338
 20
141.229535
 11
2874.421407
 21
141.229535
  0
LINE
  8
CSLAYER1
  6
CONTINUOUS
 62
     3
 10
2840.719446
 20
139.629535
 11
2875.147282
 21
139.629535
  0
LINE
  8
CSLAYER1
  6
CONTINUOUS
 62
     3
 10
2840.027554
 20
138.029535
 11
2875.485668
 21
138.029535
  0
LINE
  8
CSLAYER1
  6
CONTINUOUS
 62
     3
 10
2839.379204
 20
136.429535
 11
2875.824054
 21
136.429535
  0
LINE
  8
CSLAYER1
  6
CONTINUOUS
 62
     3
 10
2839.057545
 20
134.829535
 11
2876.162441
 21
134.829535
  0
LINE
  8
CSLAYER1
  6
CONTINUOUS
 62
     3
 10
2838.735886
 20
133.229535
 11
2854.326129
 21
133.229535
  0
LINE
  8
CSLAYER1
  6
CONTINUOUS
 62
     3
 10
2838.414227
 20
131.629535
 11
2852.793868
 21
131.629535
  0
LINE
  8
CSLAYER1
  6
CONTINUOUS
 62
     3
 10
2838.092569
 20
130.029535
 11
2852.005699
 21
130.029535
  0
LINE
  8
CSLAYER1
  6
CONTINUOUS
 62
     3
 10
2837.851451
 20
128.429535
 11
2851.686931
 21
128.429535
  0
LINE
  8
CSLAYER1
  6
CONTINUOUS
 62
     3
 10
2837.731281
 20
126.829535
 11
2851.736952
 21
126.829535
  0
LINE
  8
CSLAYER1
  6
CONTINUOUS
 62
     3
 10
2837.706259
 20
125.229535
 11
2852.283039
 21
125.229535
  0
LINE
  8
CSLAYER1
  6
CONTINUOUS
 62
     3
 10
2838.205447
 20
123.629535
 11
2854.313042
 21
123.629535
  0
LINE
  8
CSLAYER1
  6
CONTINUOUS
 62
     3
 10
2838.916558
 20
122.029535
 11
2871.444413
 21
122.029535
  0
LINE
  8
CSLAYER1
  6
CONTINUOUS
 62
     3
 10
2839.627669
 20
120.429535
 11
2870.993131
 21
120.429535
  0
LINE
  8
CSLAYER1
  6
CONTINUOUS
 62
     3
 10
2840.338780
 20
118.829535
 11
2870.270107
 21
118.829535
  0
LINE
  8
CSLAYER1
  6
CONTINUOUS
 62
     3
 10
2841.300739
 20
117.229535
 11
2869.371920
 21
117.229535
  0
LINE
  8
CSLAYER1
  6
CONTINUOUS
 62
     3
 10
2842.549200
 20
115.629535
 11
2867.866994
 21
115.629535
  0
LINE
  8
CSLAYER1
  6
CONTINUOUS
 62
     3
 10
2844.154620
 20
114.029535
 11
2865.474534
 21
114.029535
  0
LINE
  8
CSLAYER1
  6
CONTINUOUS
 62
     3
 10
2846.301762
 20
112.429535
 11
2862.349410
 21
112.429535
  0
LINE
  8
CSLAYER1
  6
CONTINUOUS
 62
     3
 10
2849.549452
 20
110.829535
 11
2857.711262
 21
110.829535
  0
LINE
  8
CSLAYER1
  6
CONTINUOUS
 62
     3
 10
2859.517953
 20
133.229535
 11
2876.337690
 21
133.229535
  0
LINE
  8
CSLAYER1
  6
CONTINUOUS
 62
     3
 10
2860.188697
 20
131.629535
 11
2876.211921
 21
131.629535
  0
LINE
  8
CSLAYER1
  6
CONTINUOUS
 62
     3
 10
2860.300704
 20
130.029535
 11
2876.086151
 21
130.029535
  0
LINE
  8
CSLAYER1
  6
CONTINUOUS
 62
     3
 10
2860.055347
 20
128.429535
 11
2875.372295
 21
128.429535
  0
LINE
  8
CSLAYER1
  6
CONTINUOUS
 62
     3
 10
2859.403701
 20
126.829535
 11
2874.651095
 21
126.829535
  0
LINE
  8
CSLAYER1
  6
CONTINUOUS
 62
     3
 10
2858.270438
 20
125.229535
 11
2873.717147
 21
125.229535
  0
LINE
  8
CSLAYER1
  6
CONTINUOUS
 62
     3
 10
2856.014442
 20
123.629535
 11
2872.446440
 21
123.629535
  0
TEXT
  8
CSLAYER1
 62
     5
 10
2876.877958
 20
131.240703
 40
4.713448
 41
1.951056
  1
M
 50
0.000000
 51
0.000000
  7
EASYDRAW_FONT
 72
     5
 11
2883.008760
 21
131.240703
  0
TEXT
  8
CSLAYER1
 62
     5
 10
2886.529346
 20
131.182432
 40
4.626621
 41
0.778201
  1
T
 50
0.000000
 51
0.000000
  7
EASYDRAW_FONT
 72
     5
 11
2888.929639
 21
131.182432
  0
TEXT
  8
CSLAYER1
 62
     5
 10
2889.294908
 20
131.217232
 40
4.696183
 41
1.055553
  1
E
 50
0.000000
 51
0.000000
  7
EASYDRAW_FONT
 72
     5
 11
2892.599623
 21
131.217232
  0
TEXT
  8
CSLAYER1
 62
     5
 10
2892.411089
 20
132.833076
 40
0.348283
 41
9.375319
  1
-
 50
0.000000
 51
0.000000
  7
EASYDRAW_FONT
 72
     5
 11
2894.587934
 21
132.833076
  0
TEXT
  8
CSLAYER1
 62
     5
 10
2894.225299
 20
131.185885
 40
4.861659
 41
1.298502
  1
H
 50
0.000000
 51
0.000000
  7
EASYDRAW_FONT
 72
     5
 11
2898.433881
 21
131.185885
  0
TEXT
  8
CSLAYER1
 62
     5
 10
2898.301314
 20
131.216263
 40
4.843139
 41
1.269236
  1
A
 50
0.000000
 51
0.000000
  7
EASYDRAW_FONT
 72
     5
 11
2902.399370
 21
131.216263
  0
TEXT
  8
CSLAYER1
 62
     5
 10
2902.007470
 20
131.174737
 40
4.825362
 41
1.490144
  1
N
 50
0.000000
 51
0.000000
  7
EASYDRAW_FONT
 72
     5
 11
2906.801124
 21
131.174737
  0
TEXT
  8
CSLAYER1
 62
     5
 10
2882.798927
 20
131.152164
 40
4.982325
 41
1.177443
  1
A
 50
0.000000
 51
0.000000
  7
EASYDRAW_FONT
 72
     5
 11
2886.709862
 21
131.152164
  0
TEXT
  8
CSLAYER1
 62
     5
 10
2877.244972
 20
124.156932
 40
4.982325
 41
1.177443
  1
A
 50
0.000000
 51
0.000000
  7
EASYDRAW_FONT
 72
     5
 11
2881.155907
 21
124.156932
  0
TEXT
  8
CSLAYER1
 62
     5
 10
2890.029396
 20
124.185252
 40
4.982325
 41
1.177443
  1
A
 50
0.000000
 51
0.000000
  7
EASYDRAW_FONT
 72
     5
 11
2893.940331
 21
124.185252
  0
TEXT
  8
CSLAYER1
 62
     5
 10
2893.789940
 20
124.242249
 40
4.825362
 41
1.490144
  1
N
 50
0.000000
 51
0.000000
  7
EASYDRAW_FONT
 72
     5
 11
2898.583595
 21
124.242249
  0
TEXT
  8
CSLAYER1
 62
     5
 10
2902.692276
 20
124.250644
 40
4.841775
 41
1.184218
  1
E
 50
0.000000
 51
0.000000
  7
EASYDRAW_FONT
 72
     5
 11
2906.514755
 21
124.250644
  0
TEXT
  8
CSLAYER1
 62
     5
 10
2881.525526
 20
124.155607
 40
4.947865
 41
1.093992
  1
D
 50
0.000000
 51
0.000000
  7
EASYDRAW_FONT
 72
     5
 11
2885.134142
 21
124.155607
  0
TEXT
  8
CSLAYER1
 62
     5
 10
2885.927884
 20
124.150223
 40
4.924210
 41
1.228195
  1
V
 50
0.000000
 51
0.000000
  7
EASYDRAW_FONT
 72
     5
 11
2889.959811
 21
124.150223
  0
TEXT
  8
CSLAYER1
 62
     5
 10
2898.153085
 20
124.170954
 40
5.032894
 41
1.481023
  1
C
 50
0.000000
 51
0.000000
  7
EASYDRAW_FONT
 72
     5
 11
2903.122305
 21
124.170954
  0
LINE
  8
CSLAYER1
  6
CONTINUOUS
 62
     5
 10
2888.783596
 20
135.231352
 11
2887.771534
 21
135.231352
  0
LINE
  8
CSLAYER1
  6
CONTINUOUS
 62
     3
 10
2837.881834
 20
169.456623
 11
2887.679660
 21
169.456623
  0
LINE
  8
CSLAYER1
  6
CONTINUOUS
 62
     3
 10
2830.769470
 20
167.856623
 11
2898.759351
 21
167.856623
  0
LINE
  8
CSLAYER1
  6
CONTINUOUS
 62
     3
 10
2823.321065
 20
166.256623
 11
2868.744375
 21
166.256623
  0
LINE
  8
CSLAYER1
  6
CONTINUOUS
 62
     3
 10
2881.705925
 20
166.256623
 11
2891.292529
 21
166.256623
  0
LINE
  8
CSLAYER1
  6
CONTINUOUS
 62
     3
 10
2895.601662
 20
166.256623
 11
2904.114659
 21
166.256623
  0
LINE
  8
CSLAYER1
  6
CONTINUOUS
 62
     3
 10
2824.724204
 20
164.656623
 11
2881.430674
 21
164.656623
  0
LINE
  8
CSLAYER1
  6
CONTINUOUS
 62
     3
 10
2901.610812
 20
164.656623
 11
2907.717057
 21
164.656623
  0
LINE
  8
CSLAYER1
  6
CONTINUOUS
 62
     3
 10
2822.811871
 20
163.056623
 11
2895.566221
 21
163.056623
  0
LINE
  8
CSLAYER1
  6
CONTINUOUS
 62
     3
 10
2907.512111
 20
163.056623
 11
2909.745832
 21
163.056623
  0
LINE
  8
CSLAYER1
  6
CONTINUOUS
 62
     3
 10
2821.749645
 20
161.456623
 11
2903.278078
 21
161.456623
  0
LINE
  8
CSLAYER1
  6
CONTINUOUS
 62
     3
 10
2823.425312
 20
159.856623
 11
2908.087386
 21
159.856623
  0
LINE
  8
CSLAYER1
  6
CONTINUOUS
 62
     3
 10
2824.592880
 20
158.256623
 11
2883.706259
 21
158.256623
  0
LINE
  8
CSLAYER1
  6
CONTINUOUS
 62
     3
 10
2899.206024
 20
158.256623
 11
2914.210347
 21
158.256623
  0
LINE
  8
CSLAYER1
  6
CONTINUOUS
 62
     3
 10
2824.838003
 20
156.656623
 11
2860.206259
 21
156.656623
  0
LINE
  8
CSLAYER1
  6
CONTINUOUS
 62
     3
 10
2906.774952
 20
156.656623
 11
2916.297555
 21
156.656623
  0
LINE
  8
CSLAYER1
  6
CONTINUOUS
 62
     3
 10
2825.044328
 20
155.056623
 11
2838.509502
 21
155.056623
  0
LINE
  8
CSLAYER1
  6
CONTINUOUS
 62
     3
 10
2914.235301
 20
155.056623
 11
2920.720320
 21
155.056623
  0
LINE
  8
CSLAYER1
  6
CONTINUOUS
 62
     3
 10
2922.298295
 20
153.456623
 11
2924.467150
 21
153.456623
  0
ENDBLK
  8
0
  0
BLOCK
  8
CSLAYER1
  2
BLKF0001
 70
   64
 10
0.0
 20
0.0
 30
0.0
  0
LINE
  8
CSLAYER1
  6
CONTINUOUS
 62
     5
 10
3491.394964
 20
1722.217855
 11
2611.394964
 21
1722.217855
  0
TEXT
  8
CSLAYER1
 62
     3
 10
3088.778076
 20
1727.868042
 40
40.000000
 41
0.832500
  1
１０Ｒ４／１３
 50
0.000000
 51
0.000000
  7
EASYDRAW_FONT
 72
     5
 11
3310.778076
 21
1727.868042
  0
ENDBLK
  8
0
  0
BLOCK
  8
CSLAYER1
  2
BLKF0002
 70
   64
 10
0.0
 20
0.0
 30
0.0
  0
LINE
  8
CSLAYER1
  6
CONTINUOUS
 62
     7
 10
808.102300
 20
2051.861125
 11
821.609326
 21
2058.960228
  0
LINE
  8
CSLAYER1
  6
CONTINUOUS
 62
     7
 10
821.609326
 20
2058.960228
 11
836.143673
 21
2065.357094
  0
LINE
  8
CSLAYER1
  6
CONTINUOUS
 62
     7
 10
836.143673
 20
2065.357094
 11
851.594724
 21
2071.003040
  0
LINE
  8
CSLAYER1
  6
CONTINUOUS
 62
     7
 10
851.594724
 20
2071.003040
 11
867.844889
 21
2075.855095
  0
LINE
  8
CSLAYER1
  6
CONTINUOUS
 62
     7
 10
867.844889
 20
2075.855095
 11
884.770494
 21
2079.876334
  0
LINE
  8
CSLAYER1
  6
CONTINUOUS
 62
     7
 10
884.770494
 20
2079.876334
 11
902.242725
 21
2083.036151
  0
LINE
  8
CSLAYER1
  6
CONTINUOUS
 62
     7
 10
902.242725
 20
2083.036151
 11
920.128607
 21
2085.310499
  0
LINE
  8
CSLAYER1
  6
CONTINUOUS
 62
     7
 10
920.128607
 20
2085.310499
 11
938.292018
 21
2086.682068
  0
LINE
  8
CSLAYER1
  6
CONTINUOUS
 62
     7
 10
938.292018
 20
2086.682068
 11
956.594724
 21
2087.140421
  0
LINE
  8
CSLAYER1
  6
CONTINUOUS
 62
     7
 10
956.594724
 20
2087.140421
 11
974.897430
 21
2086.682068
  0
LINE
  8
CSLAYER1
  6
CONTINUOUS
 62
     7
 10
974.897430
 20
2086.682068
 11
993.060842
 21
2085.310499
  0
LINE
  8
CSLAYER1
  6
CONTINUOUS
 62
     7
 10
993.060842
 20
2085.310499
 11
1010.946724
 21
2083.036151
  0
LINE
  8
CSLAYER1
  6
CONTINUOUS
 62
     7
 10
1010.946724
 20
2083.036151
 11
1028.418954
 21
2079.876334
  0
LINE
  8
CSLAYER1
  6
CONTINUOUS
 62
     7
 10
1028.418954
 20
2079.876334
 11
1044.115784
 21
2076.147031
  0
LINE
  8
CSLAYER1
  6
CONTINUOUS
 62
     7
 10
799.192755
 20
2056.971430
 11
813.510202
 21
2064.496479
  0
LINE
  8
CSLAYER1
  6
CONTINUOUS
 62
     7
 10
813.510202
 20
2064.496479
 11
828.916610
 21
2071.277158
  0
LINE
  8
CSLAYER1
  6
CONTINUOUS
 62
     7
 10
828.916610
 20
2071.277158
 11
845.294724
 21
2077.261860
  0
LINE
  8
CSLAYER1
  6
CONTINUOUS
 62
     7
 10
845.294724
 20
2077.261860
 11
862.519899
 21
2082.405039
  0
LINE
  8
CSLAYER1
  6
CONTINUOUS
 62
     7
 10
862.519899
 20
2082.405039
 11
880.461040
 21
2086.667551
  0
LINE
  8
CSLAYER1
  6
CONTINUOUS
 62
     7
 10
880.461040
 20
2086.667551
 11
898.981605
 21
2090.016958
  0
LINE
  8
CSLAYER1
  6
CONTINUOUS
 62
     7
 10
898.981605
 20
2090.016958
 11
917.940640
 21
2092.427766
  0
LINE
  8
CSLAYER1
  6
CONTINUOUS
 62
     7
 10
917.940640
 20
2092.427766
 11
937.193856
 21
2093.881630
  0
LINE
  8
CSLAYER1
  6
CONTINUOUS
 62
     7
 10
937.193856
 20
2093.881630
 11
956.594724
 21
2094.367484
  0
LINE
  8
CSLAYER1
  6
CONTINUOUS
 62
     7
 10
956.594724
 20
2094.367484
 11
975.995593
 21
2093.881630
  0
LINE
  8
CSLAYER1
  6
CONTINUOUS
 62
     7
 10
975.995593
 20
2093.881630
 11
995.248809
 21
2092.427766
  0
LINE
  8
CSLAYER1
  6
CONTINUOUS
 62
     7
 10
995.248809
 20
2092.427766
 11
1014.207844
 21
2090.016958
  0
LINE
  8
CSLAYER1
  6
CONTINUOUS
 62
     7
 10
1014.207844
 20
2090.016958
 11
1032.728408
 21
2086.667551
  0
LINE
  8
CSLAYER1
  6
CONTINUOUS
 62
     7
 10
1032.728408
 20
2086.667551
 11
1044.115784
 21
2083.962103
  0
LINE
  8
CSLAYER1
  6
CONTINUOUS
 62
     7
 10
782.639005
 20
2035.936531
 11
808.236872
 21
2051.931854
  0
LINE
  8
CSLAYER1
  6
CONTINUOUS
 62
     7
 10
782.639005
 20
2046.613336
 11
799.335401
 21
2057.046403
  0
ENDBLK
  8
0
  0
BLOCK
  8
CSLAYER1
  2
BLKF0003
 70
   64
 10
0.0
 20
0.0
 30
0.0
  0
LINE
  8
CSLAYER1
  6
CONTINUOUS
 62
     7
 10
651.068392
 20
2050.902239
 11
651.296072
 21
2051.053127
  0
LINE
  8
CSLAYER1
  6
CONTINUOUS
 62
     7
 10
651.296072
 20
2051.053127
 11
651.505185
 21
2051.232022
  0
LINE
  8
CSLAYER1
  6
CONTINUOUS
 62
     7
 10
651.505185
 20
2051.232022
 11
651.694141
 21
2051.437564
  0
LINE
  8
CSLAYER1
  6
CONTINUOUS
 62
     7
 10
651.694141
 20
2051.437564
 11
651.861502
 21
2051.668187
  0
LINE
  8
CSLAYER1
  6
CONTINUOUS
 62
     7
 10
651.861502
 20
2051.668187
 11
652.005993
 21
2051.922138
  0
LINE
  8
CSLAYER1
  6
CONTINUOUS
 62
     7
 10
652.005993
 20
2051.922138
 11
652.126515
 21
2052.197481
  0
LINE
  8
CSLAYER1
  6
CONTINUOUS
 62
     7
 10
652.126515
 20
2052.197481
 11
652.222152
 21
2052.492124
  0
LINE
  8
CSLAYER1
  6
CONTINUOUS
 62
     7
 10
652.222152
 20
2052.492124
 11
652.292174
 21
2052.803822
  0
LINE
  8
CSLAYER1
  6
CONTINUOUS
 62
     7
 10
652.292174
 20
2052.803822
 11
652.336049
 21
2053.130204
  0
LINE
  8
CSLAYER1
  6
CONTINUOUS
 62
     7
 10
652.336049
 20
2053.130204
 11
652.353444
 21
2053.468785
  0
LINE
  8
CSLAYER1
  6
CONTINUOUS
 62
     7
 10
652.353444
 20
2053.468785
 11
652.344225
 21
2053.816990
  0
LINE
  8
CSLAYER1
  6
CONTINUOUS
 62
     7
 10
652.344225
 20
2053.816990
 11
652.308464
 21
2054.172167
  0
LINE
  8
CSLAYER1
  6
CONTINUOUS
 62
     7
 10
652.308464
 20
2054.172167
 11
652.246431
 21
2054.531615
  0
LINE
  8
CSLAYER1
  6
CONTINUOUS
 62
     7
 10
652.246431
 20
2054.531615
 11
652.158600
 21
2054.892596
  0
LINE
  8
CSLAYER1
  6
CONTINUOUS
 62
     7
 10
652.158600
 20
2054.892596
 11
652.045638
 21
2055.252364
  0
LINE
  8
CSLAYER1
  6
CONTINUOUS
 62
     7
 10
652.045638
 20
2055.252364
 11
651.908406
 21
2055.608182
  0
LINE
  8
CSLAYER1
  6
CONTINUOUS
 62
     7
 10
651.908406
 20
2055.608182
 11
651.747948
 21
2055.957340
  0
LINE
  8
CSLAYER1
  6
CONTINUOUS
 62
     7
 10
651.747948
 20
2055.957340
 11
651.565484
 21
2056.297181
  0
LINE
  8
CSLAYER1
  6
CONTINUOUS
 62
     7
 10
651.565484
 20
2056.297181
 11
651.362405
 21
2056.625120
  0
LINE
  8
CSLAYER1
  6
CONTINUOUS
 62
     7
 10
651.362405
 20
2056.625120
 11
651.140254
 21
2056.938660
  0
LINE
  8
CSLAYER1
  6
CONTINUOUS
 62
     7
 10
651.140254
 20
2056.938660
 11
650.900724
 21
2057.235415
  0
LINE
  8
CSLAYER1
  6
CONTINUOUS
 62
     7
 10
650.900724
 20
2057.235415
 11
650.645636
 21
2057.513127
  0
LINE
  8
CSLAYER1
  6
CONTINUOUS
 62
     7
 10
650.645636
 20
2057.513127
 11
650.376932
 21
2057.769682
  0
LINE
  8
CSLAYER1
  6
CONTINUOUS
 62
     7
 10
650.376932
 20
2057.769682
 11
650.096658
 21
2058.003127
  0
LINE
  8
CSLAYER1
  6
CONTINUOUS
 62
     7
 10
650.096658
 20
2058.003127
 11
649.806946
 21
2058.211686
  0
LINE
  8
CSLAYER1
  6
CONTINUOUS
 62
     7
 10
649.806946
 20
2058.211686
 11
649.510002
 21
2058.393772
  0
LINE
  8
CSLAYER1
  6
CONTINUOUS
 62
     7
 10
649.510002
 20
2058.393772
 11
649.208084
 21
2058.547999
  0
LINE
  8
CSLAYER1
  6
CONTINUOUS
 62
     7
 10
649.208084
 20
2058.547999
 11
648.903491
 21
2058.673192
  0
LINE
  8
CSLAYER1
  6
CONTINUOUS
 62
     7
 10
648.903491
 20
2058.673192
 11
648.598542
 21
2058.768400
  0
LINE
  8
CSLAYER1
  6
CONTINUOUS
 62
     7
 10
648.598542
 20
2058.768400
 11
648.295556
 21
2058.832898
  0
LINE
  8
CSLAYER1
  6
CONTINUOUS
 62
     7
 10
648.295556
 20
2058.832898
 11
647.996840
 21
2058.866195
  0
LINE
  8
CSLAYER1
  6
CONTINUOUS
 62
     7
 10
647.996840
 20
2058.866195
 11
647.704667
 21
2058.868036
  0
LINE
  8
CSLAYER1
  6
CONTINUOUS
 62
     7
 10
647.704667
 20
2058.868036
 11
647.421261
 21
2058.838410
  0
LINE
  8
CSLAYER1
  6
CONTINUOUS
 62
     7
 10
647.421261
 20
2058.838410
 11
647.148779
 21
2058.777540
  0
LINE
  8
CSLAYER1
  6
CONTINUOUS
 62
     7
 10
647.148779
 20
2058.777540
 11
646.889294
 21
2058.685890
  0
LINE
  8
CSLAYER1
  6
CONTINUOUS
 62
     7
 10
646.889294
 20
2058.685890
 11
646.644781
 21
2058.564158
  0
ENDBLK
  8
0
  0
BLOCK
  8
CSLAYER1
  2
BLKF0004
 70
   64
 10
0.0
 20
0.0
 30
0.0
  0
LINE
  8
CSLAYER1
  6
CONTINUOUS
 62
     7
 10
643.697889
 20
2056.862769
 11
643.470210
 21
2056.711881
  0
LINE
  8
CSLAYER1
  6
CONTINUOUS
 62
     7
 10
643.470210
 20
2056.711881
 11
643.261097
 21
2056.532985
  0
LINE
  8
CSLAYER1
  6
CONTINUOUS
 62
     7
 10
643.261097
 20
2056.532985
 11
643.072141
 21
2056.327444
  0
LINE
  8
CSLAYER1
  6
CONTINUOUS
 62
     7
 10
643.072141
 20
2056.327444
 11
642.904780
 21
2056.096820
  0
LINE
  8
CSLAYER1
  6
CONTINUOUS
 62
     7
 10
642.904780
 20
2056.096820
 11
642.760289
 21
2055.842870
  0
LINE
  8
CSLAYER1
  6
CONTINUOUS
 62
     7
 10
642.760289
 20
2055.842870
 11
642.639766
 21
2055.567526
  0
LINE
  8
CSLAYER1
  6
CONTINUOUS
 62
     7
 10
642.639766
 20
2055.567526
 11
642.544130
 21
2055.272884
  0
LINE
  8
CSLAYER1
  6
CONTINUOUS
 62
     7
 10
642.544130
 20
2055.272884
 11
642.474108
 21
2054.961186
  0
LINE
  8
CSLAYER1
  6
CONTINUOUS
 62
     7
 10
642.474108
 20
2054.961186
 11
642.430232
 21
2054.634804
  0
LINE
  8
CSLAYER1
  6
CONTINUOUS
 62
     7
 10
642.430232
 20
2054.634804
 11
642.412838
 21
2054.296223
  0
LINE
  8
CSLAYER1
  6
CONTINUOUS
 62
     7
 10
642.412838
 20
2054.296223
 11
642.422056
 21
2053.948018
  0
LINE
  8
CSLAYER1
  6
CONTINUOUS
 62
     7
 10
642.422056
 20
2053.948018
 11
642.457818
 21
2053.592841
  0
LINE
  8
CSLAYER1
  6
CONTINUOUS
 62
     7
 10
642.457818
 20
2053.592841
 11
642.519851
 21
2053.233393
  0
LINE
  8
CSLAYER1
  6
CONTINUOUS
 62
     7
 10
642.519851
 20
2053.233393
 11
642.607682
 21
2052.872412
  0
LINE
  8
CSLAYER1
  6
CONTINUOUS
 62
     7
 10
642.607682
 20
2052.872412
 11
642.720643
 21
2052.512643
  0
LINE
  8
CSLAYER1
  6
CONTINUOUS
 62
     7
 10
642.720643
 20
2052.512643
 11
642.857876
 21
2052.156826
  0
LINE
  8
CSLAYER1
  6
CONTINUOUS
 62
     7
 10
642.857876
 20
2052.156826
 11
643.018334
 21
2051.807668
  0
LINE
  8
CSLAYER1
  6
CONTINUOUS
 62
     7
 10
643.018334
 20
2051.807668
 11
643.200797
 21
2051.467827
  0
LINE
  8
CSLAYER1
  6
CONTINUOUS
 62
     7
 10
643.200797
 20
2051.467827
 11
643.403877
 21
2051.139888
  0
LINE
  8
CSLAYER1
  6
CONTINUOUS
 62
     7
 10
643.403877
 20
2051.139888
 11
643.626028
 21
2050.826348
  0
LINE
  8
CSLAYER1
  6
CONTINUOUS
 62
     7
 10
643.626028
 20
2050.826348
 11
643.865558
 21
2050.529593
  0
LINE
  8
CSLAYER1
  6
CONTINUOUS
 62
     7
 10
643.865558
 20
2050.529593
 11
644.120646
 21
2050.251881
  0
LINE
  8
CSLAYER1
  6
CONTINUOUS
 62
     7
 10
644.120646
 20
2050.251881
 11
644.389349
 21
2049.995326
  0
LINE
  8
CSLAYER1
  6
CONTINUOUS
 62
     7
 10
644.389349
 20
2049.995326
 11
644.669624
 21
2049.761881
  0
LINE
  8
CSLAYER1
  6
CONTINUOUS
 62
     7
 10
644.669624
 20
2049.761881
 11
644.959336
 21
2049.553322
  0
LINE
  8
CSLAYER1
  6
CONTINUOUS
 62
     7
 10
644.959336
 20
2049.553322
 11
645.256280
 21
2049.371236
  0
LINE
  8
CSLAYER1
  6
CONTINUOUS
 62
     7
 10
645.256280
 20
2049.371236
 11
645.558198
 21
2049.217009
  0
LINE
  8
CSLAYER1
  6
CONTINUOUS
 62
     7
 10
645.558198
 20
2049.217009
 11
645.862791
 21
2049.091815
  0
LINE
  8
CSLAYER1
  6
CONTINUOUS
 62
     7
 10
645.862791
 20
2049.091815
 11
646.167740
 21
2048.996607
  0
LINE
  8
CSLAYER1
  6
CONTINUOUS
 62
     7
 10
646.167740
 20
2048.996607
 11
646.470726
 21
2048.932110
  0
LINE
  8
CSLAYER1
  6
CONTINUOUS
 62
     7
 10
646.470726
 20
2048.932110
 11
646.769442
 21
2048.898813
  0
LINE
  8
CSLAYER1
  6
CONTINUOUS
 62
     7
 10
646.769442
 20
2048.898813
 11
647.061615
 21
2048.896971
  0
LINE
  8
CSLAYER1
  6
CONTINUOUS
 62
     7
 10
647.061615
 20
2048.896971
 11
647.345021
 21
2048.926598
  0
LINE
  8
CSLAYER1
  6
CONTINUOUS
 62
     7
 10
647.345021
 20
2048.926598
 11
647.617503
 21
2048.987468
  0
LINE
  8
CSLAYER1
  6
CONTINUOUS
 62
     7
 10
647.617503
 20
2048.987468
 11
647.876988
 21
2049.079118
  0
LINE
  8
CSLAYER1
  6
CONTINUOUS
 62
     7
 10
647.876988
 20
2049.079118
 11
648.121500
 21
2049.200850
  0
LINE
  8
CSLAYER1
  6
CONTINUOUS
 62
     7
 10
648.121500
 20
2049.200850
 11
648.349180
 21
2049.351738
  0
LINE
  8
CSLAYER1
  6
CONTINUOUS
 62
     7
 10
648.349180
 20
2049.351738
 11
648.558293
 21
2049.530634
  0
LINE
  8
CSLAYER1
  6
CONTINUOUS
 62
     7
 10
648.558293
 20
2049.530634
 11
648.747249
 21
2049.736175
  0
LINE
  8
CSLAYER1
  6
CONTINUOUS
 62
     7
 10
648.747249
 20
2049.736175
 11
648.914610
 21
2049.966799
  0
LINE
  8
CSLAYER1
  6
CONTINUOUS
 62
     7
 10
648.914610
 20
2049.966799
 11
649.059101
 21
2050.220749
  0
LINE
  8
CSLAYER1
  6
CONTINUOUS
 62
     7
 10
649.059101
 20
2050.220749
 11
649.179623
 21
2050.496092
  0
LINE
  8
CSLAYER1
  6
CONTINUOUS
 62
     7
 10
649.179623
 20
2050.496092
 11
649.275260
 21
2050.790735
  0
LINE
  8
CSLAYER1
  6
CONTINUOUS
 62
     7
 10
649.275260
 20
2050.790735
 11
649.345282
 21
2051.102433
  0
LINE
  8
CSLAYER1
  6
CONTINUOUS
 62
     7
 10
649.345282
 20
2051.102433
 11
649.389157
 21
2051.428815
  0
LINE
  8
CSLAYER1
  6
CONTINUOUS
 62
     7
 10
649.389157
 20
2051.428815
 11
649.406552
 21
2051.767396
  0
LINE
  8
CSLAYER1
  6
CONTINUOUS
 62
     7
 10
649.406552
 20
2051.767396
 11
649.397333
 21
2052.115601
  0
LINE
  8
CSLAYER1
  6
CONTINUOUS
 62
     7
 10
649.397333
 20
2052.115601
 11
649.361572
 21
2052.470778
  0
LINE
  8
CSLAYER1
  6
CONTINUOUS
 62
     7
 10
649.361572
 20
2052.470778
 11
649.299539
 21
2052.830226
  0
LINE
  8
CSLAYER1
  6
CONTINUOUS
 62
     7
 10
649.299539
 20
2052.830226
 11
649.211708
 21
2053.191207
  0
LINE
  8
CSLAYER1
  6
CONTINUOUS
 62
     7
 10
649.211708
 20
2053.191207
 11
649.098746
 21
2053.550975
  0
LINE
  8
CSLAYER1
  6
CONTINUOUS
 62
     7
 10
649.098746
 20
2053.550975
 11
648.961514
 21
2053.906793
  0
LINE
  8
CSLAYER1
  6
CONTINUOUS
 62
     7
 10
648.961514
 20
2053.906793
 11
648.801056
 21
2054.255951
  0
LINE
  8
CSLAYER1
  6
CONTINUOUS
 62
     7
 10
648.801056
 20
2054.255951
 11
648.618592
 21
2054.595792
  0
LINE
  8
CSLAYER1
  6
CONTINUOUS
 62
     7
 10
648.618592
 20
2054.595792
 11
648.415513
 21
2054.923731
  0
LINE
  8
CSLAYER1
  6
CONTINUOUS
 62
     7
 10
648.415513
 20
2054.923731
 11
648.193362
 21
2055.237271
  0
LINE
  8
CSLAYER1
  6
CONTINUOUS
 62
     7
 10
648.193362
 20
2055.237271
 11
647.953832
 21
2055.534026
  0
LINE
  8
CSLAYER1
  6
CONTINUOUS
 62
     7
 10
647.953832
 20
2055.534026
 11
647.698744
 21
2055.811738
  0
LINE
  8
CSLAYER1
  6
CONTINUOUS
 62
     7
 10
647.698744
 20
2055.811738
 11
647.430040
 21
2056.068293
  0
LINE
  8
CSLAYER1
  6
CONTINUOUS
 62
     7
 10
647.430040
 20
2056.068293
 11
647.149766
 21
2056.301738
  0
LINE
  8
CSLAYER1
  6
CONTINUOUS
 62
     7
 10
647.149766
 20
2056.301738
 11
646.860054
 21
2056.510297
  0
LINE
  8
CSLAYER1
  6
CONTINUOUS
 62
     7
 10
646.860054
 20
2056.510297
 11
646.563110
 21
2056.692383
  0
LINE
  8
CSLAYER1
  6
CONTINUOUS
 62
     7
 10
646.563110
 20
2056.692383
 11
646.261192
 21
2056.846610
  0
LINE
  8
CSLAYER1
  6
CONTINUOUS
 62
     7
 10
646.261192
 20
2056.846610
 11
645.956599
 21
2056.971803
  0
LINE
  8
CSLAYER1
  6
CONTINUOUS
 62
     7
 10
645.956599
 20
2056.971803
 11
645.651650
 21
2057.067011
  0
LINE
  8
CSLAYER1
  6
CONTINUOUS
 62
     7
 10
645.651650
 20
2057.067011
 11
645.348664
 21
2057.131509
  0
LINE
  8
CSLAYER1
  6
CONTINUOUS
 62
     7
 10
645.348664
 20
2057.131509
 11
645.049948
 21
2057.164806
  0
LINE
  8
CSLAYER1
  6
CONTINUOUS
 62
     7
 10
645.049948
 20
2057.164806
 11
644.757775
 21
2057.166648
  0
LINE
  8
CSLAYER1
  6
CONTINUOUS
 62
     7
 10
644.757775
 20
2057.166648
 11
644.474369
 21
2057.137021
  0
LINE
  8
CSLAYER1
  6
CONTINUOUS
 62
     7
 10
644.474369
 20
2057.137021
 11
644.201887
 21
2057.076151
  0
LINE
  8
CSLAYER1
  6
CONTINUOUS
 62
     7
 10
644.201887
 20
2057.076151
 11
643.942402
 21
2056.984501
  0
LINE
  8
CSLAYER1
  6
CONTINUOUS
 62
     7
 10
643.942402
 20
2056.984501
 11
643.697889
 21
2056.862769
  0
ENDBLK
  8
0
  0
BLOCK
  8
CSLAYER1
  2
BLKF0005
 70
   64
 10
0.0
 20
0.0
 30
0.0
  0
LINE
  8
CSLAYER1
  6
CONTINUOUS
 62
     7
 10
652.323975
 20
2049.382930
 11
652.609708
 21
2049.627374
  0
LINE
  8
CSLAYER1
  6
CONTINUOUS
 62
     7
 10
652.609708
 20
2049.627374
 11
652.867899
 21
2049.908227
  0
LINE
  8
CSLAYER1
  6
CONTINUOUS
 62
     7
 10
652.867899
 20
2049.908227
 11
653.096581
 21
2050.223352
  0
LINE
  8
CSLAYER1
  6
CONTINUOUS
 62
     7
 10
653.096581
 20
2050.223352
 11
653.294015
 21
2050.570351
  0
LINE
  8
CSLAYER1
  6
CONTINUOUS
 62
     7
 10
653.294015
 20
2050.570351
 11
653.458697
 21
2050.946582
  0
LINE
  8
CSLAYER1
  6
CONTINUOUS
 62
     7
 10
653.458697
 20
2050.946582
 11
653.589375
 21
2051.349183
  0
LINE
  8
CSLAYER1
  6
CONTINUOUS
 62
     7
 10
653.589375
 20
2051.349183
 11
653.685054
 21
2051.775089
  0
LINE
  8
CSLAYER1
  6
CONTINUOUS
 62
     7
 10
653.685054
 20
2051.775089
 11
653.745005
 21
2052.221058
  0
LINE
  8
CSLAYER1
  6
CONTINUOUS
 62
     7
 10
653.745005
 20
2052.221058
 11
653.768773
 21
2052.683698
  0
LINE
  8
CSLAYER1
  6
CONTINUOUS
 62
     7
 10
653.768773
 20
2052.683698
 11
653.756177
 21
2053.159487
  0
LINE
  8
CSLAYER1
  6
CONTINUOUS
 62
     7
 10
653.756177
 20
2053.159487
 11
653.707312
 21
2053.644803
  0
LINE
  8
CSLAYER1
  6
CONTINUOUS
 62
     7
 10
653.707312
 20
2053.644803
 11
653.622551
 21
2054.135953
  0
LINE
  8
CSLAYER1
  6
CONTINUOUS
 62
     7
 10
653.622551
 20
2054.135953
 11
653.502537
 21
2054.629200
  0
LINE
  8
CSLAYER1
  6
CONTINUOUS
 62
     7
 10
653.502537
 20
2054.629200
 11
653.348186
 21
2055.120789
  0
LINE
  8
CSLAYER1
  6
CONTINUOUS
 62
     7
 10
653.348186
 20
2055.120789
 11
653.160671
 21
2055.606980
  0
LINE
  8
CSLAYER1
  6
CONTINUOUS
 62
     7
 10
653.160671
 20
2055.606980
 11
652.941420
 21
2056.084071
  0
LINE
  8
CSLAYER1
  6
CONTINUOUS
 62
     7
 10
652.941420
 20
2056.084071
 11
652.692101
 21
2056.548432
  0
LINE
  8
CSLAYER1
  6
CONTINUOUS
 62
     7
 10
652.692101
 20
2056.548432
 11
652.414612
 21
2056.996529
  0
LINE
  8
CSLAYER1
  6
CONTINUOUS
 62
     7
 10
652.414612
 20
2056.996529
 11
652.111065
 21
2057.424952
  0
LINE
  8
CSLAYER1
  6
CONTINUOUS
 62
     7
 10
652.111065
 20
2057.424952
 11
651.783769
 21
2057.830440
  0
LINE
  8
CSLAYER1
  6
CONTINUOUS
 62
     7
 10
651.783769
 20
2057.830440
 11
651.435216
 21
2058.209907
  0
LINE
  8
CSLAYER1
  6
CONTINUOUS
 62
     7
 10
651.435216
 20
2058.209907
 11
651.068058
 21
2058.560464
  0
LINE
  8
CSLAYER1
  6
CONTINUOUS
 62
     7
 10
651.068058
 20
2058.560464
 11
650.685090
 21
2058.879445
  0
LINE
  8
CSLAYER1
  6
CONTINUOUS
 62
     7
 10
650.685090
 20
2058.879445
 11
650.289226
 21
2059.164422
  0
LINE
  8
CSLAYER1
  6
CONTINUOUS
 62
     7
 10
650.289226
 20
2059.164422
 11
649.883479
 21
2059.413225
  0
LINE
  8
CSLAYER1
  6
CONTINUOUS
 62
     7
 10
649.883479
 20
2059.413225
 11
649.470938
 21
2059.623961
  0
LINE
  8
CSLAYER1
  6
CONTINUOUS
 62
     7
 10
649.470938
 20
2059.623961
 11
649.054741
 21
2059.795026
  0
LINE
  8
CSLAYER1
  6
CONTINUOUS
 62
     7
 10
649.054741
 20
2059.795026
 11
648.638056
 21
2059.925119
  0
LINE
  8
CSLAYER1
  6
CONTINUOUS
 62
     7
 10
648.638056
 20
2059.925119
 11
648.224055
 21
2060.013249
  0
LINE
  8
CSLAYER1
  6
CONTINUOUS
 62
     7
 10
648.224055
 20
2060.013249
 11
647.815888
 21
2060.058745
  0
LINE
  8
CSLAYER1
  6
CONTINUOUS
 62
     7
 10
647.815888
 20
2060.058745
 11
647.416661
 21
2060.061262
  0
LINE
  8
CSLAYER1
  6
CONTINUOUS
 62
     7
 10
647.416661
 20
2060.061262
 11
647.029414
 21
2060.020780
  0
LINE
  8
CSLAYER1
  6
CONTINUOUS
 62
     7
 10
647.029414
 20
2060.020780
 11
646.657093
 21
2059.937607
  0
LINE
  8
CSLAYER1
  6
CONTINUOUS
 62
     7
 10
646.657093
 20
2059.937607
 11
646.302531
 21
2059.812376
  0
LINE
  8
CSLAYER1
  6
CONTINUOUS
 62
     7
 10
646.302531
 20
2059.812376
 11
645.968428
 21
2059.646041
  0
LINE
  8
CSLAYER1
  6
CONTINUOUS
 62
     7
 10
645.968428
 20
2059.646041
 11
645.657326
 21
2059.439867
  0
LINE
  8
CSLAYER1
  6
CONTINUOUS
 62
     7
 10
645.657326
 20
2059.439867
 11
645.371592
 21
2059.195423
  0
LINE
  8
CSLAYER1
  6
CONTINUOUS
 62
     7
 10
645.371592
 20
2059.195423
 11
645.113402
 21
2058.914570
  0
LINE
  8
CSLAYER1
  6
CONTINUOUS
 62
     7
 10
645.113402
 20
2058.914570
 11
644.884719
 21
2058.599445
  0
LINE
  8
CSLAYER1
  6
CONTINUOUS
 62
     7
 10
644.884719
 20
2058.599445
 11
644.687286
 21
2058.252446
  0
LINE
  8
CSLAYER1
  6
CONTINUOUS
 62
     7
 10
644.687286
 20
2058.252446
 11
644.522603
 21
2057.876215
  0
LINE
  8
CSLAYER1
  6
CONTINUOUS
 62
     7
 10
644.522603
 20
2057.876215
 11
644.391926
 21
2057.473614
  0
LINE
  8
CSLAYER1
  6
CONTINUOUS
 62
     7
 10
644.391926
 20
2057.473614
 11
644.337682
 21
2057.232154
  0
LINE
  8
CSLAYER1
  6
CONTINUOUS
 62
     7
 10
648.289050
 20
2049.311888
 11
648.510363
 21
2049.198836
  0
LINE
  8
CSLAYER1
  6
CONTINUOUS
 62
     7
 10
648.510363
 20
2049.198836
 11
648.926560
 21
2049.027771
  0
LINE
  8
CSLAYER1
  6
CONTINUOUS
 62
     7
 10
648.926560
 20
2049.027771
 11
649.343245
 21
2048.897678
  0
LINE
  8
CSLAYER1
  6
CONTINUOUS
 62
     7
 10
649.343245
 20
2048.897678
 11
649.757246
 21
2048.809548
  0
LINE
  8
CSLAYER1
  6
CONTINUOUS
 62
     7
 10
649.757246
 20
2048.809548
 11
650.165413
 21
2048.764052
  0
LINE
  8
CSLAYER1
  6
CONTINUOUS
 62
     7
 10
650.165413
 20
2048.764052
 11
650.564639
 21
2048.761535
  0
LINE
  8
CSLAYER1
  6
CONTINUOUS
 62
     7
 10
650.564639
 20
2048.761535
 11
650.951887
 21
2048.802017
  0
LINE
  8
CSLAYER1
  6
CONTINUOUS
 62
     7
 10
650.951887
 20
2048.802017
 11
651.324208
 21
2048.885190
  0
LINE
  8
CSLAYER1
  6
CONTINUOUS
 62
     7
 10
651.324208
 20
2048.885190
 11
651.655095
 21
2049.002059
  0
ENDBLK
  8
0
  0
BLOCK
  8
CSLAYER1
  2
BLKF0006
 70
   64
 10
0.0
 20
0.0
 30
0.0
  0
LINE
  8
CSLAYER1
  6
CONTINUOUS
 62
     7
 10
653.755811
 20
2050.179627
 11
654.149309
 21
2050.516263
  0
LINE
  8
CSLAYER1
  6
CONTINUOUS
 62
     7
 10
654.149309
 20
2050.516263
 11
654.407500
 21
2050.797116
  0
LINE
  8
CSLAYER1
  6
CONTINUOUS
 62
     7
 10
654.407500
 20
2050.797116
 11
654.636182
 21
2051.112241
  0
LINE
  8
CSLAYER1
  6
CONTINUOUS
 62
     7
 10
654.636182
 20
2051.112241
 11
654.833615
 21
2051.459240
  0
LINE
  8
CSLAYER1
  6
CONTINUOUS
 62
     7
 10
654.833615
 20
2051.459240
 11
654.998298
 21
2051.835471
  0
LINE
  8
CSLAYER1
  6
CONTINUOUS
 62
     7
 10
654.998298
 20
2051.835471
 11
655.128976
 21
2052.238072
  0
LINE
  8
CSLAYER1
  6
CONTINUOUS
 62
     7
 10
655.128976
 20
2052.238072
 11
655.224654
 21
2052.663977
  0
LINE
  8
CSLAYER1
  6
CONTINUOUS
 62
     7
 10
655.224654
 20
2052.663977
 11
655.284606
 21
2053.109947
  0
LINE
  8
CSLAYER1
  6
CONTINUOUS
 62
     7
 10
655.284606
 20
2053.109947
 11
655.308374
 21
2053.572587
  0
LINE
  8
CSLAYER1
  6
CONTINUOUS
 62
     7
 10
655.308374
 20
2053.572587
 11
655.295778
 21
2054.048375
  0
LINE
  8
CSLAYER1
  6
CONTINUOUS
 62
     7
 10
655.295778
 20
2054.048375
 11
655.246913
 21
2054.533692
  0
LINE
  8
CSLAYER1
  6
CONTINUOUS
 62
     7
 10
655.246913
 20
2054.533692
 11
655.162151
 21
2055.024842
  0
LINE
  8
CSLAYER1
  6
CONTINUOUS
 62
     7
 10
655.162151
 20
2055.024842
 11
655.042138
 21
2055.518089
  0
LINE
  8
CSLAYER1
  6
CONTINUOUS
 62
     7
 10
655.042138
 20
2055.518089
 11
654.887787
 21
2056.009678
  0
LINE
  8
CSLAYER1
  6
CONTINUOUS
 62
     7
 10
654.887787
 20
2056.009678
 11
654.700272
 21
2056.495869
  0
LINE
  8
CSLAYER1
  6
CONTINUOUS
 62
     7
 10
654.700272
 20
2056.495869
 11
654.481021
 21
2056.972960
  0
LINE
  8
CSLAYER1
  6
CONTINUOUS
 62
     7
 10
654.481021
 20
2056.972960
 11
654.231702
 21
2057.437321
  0
LINE
  8
CSLAYER1
  6
CONTINUOUS
 62
     7
 10
654.231702
 20
2057.437321
 11
653.954213
 21
2057.885418
  0
LINE
  8
CSLAYER1
  6
CONTINUOUS
 62
     7
 10
653.954213
 20
2057.885418
 11
653.650665
 21
2058.313841
  0
LINE
  8
CSLAYER1
  6
CONTINUOUS
 62
     7
 10
653.650665
 20
2058.313841
 11
653.323370
 21
2058.719329
  0
LINE
  8
CSLAYER1
  6
CONTINUOUS
 62
     7
 10
653.323370
 20
2058.719329
 11
652.974816
 21
2059.098795
  0
LINE
  8
CSLAYER1
  6
CONTINUOUS
 62
     7
 10
652.974816
 20
2059.098795
 11
652.607659
 21
2059.449353
  0
LINE
  8
CSLAYER1
  6
CONTINUOUS
 62
     7
 10
652.607659
 20
2059.449353
 11
652.224691
 21
2059.768334
  0
LINE
  8
CSLAYER1
  6
CONTINUOUS
 62
     7
 10
652.224691
 20
2059.768334
 11
651.828827
 21
2060.053311
  0
LINE
  8
CSLAYER1
  6
CONTINUOUS
 62
     7
 10
651.828827
 20
2060.053311
 11
651.423080
 21
2060.302114
  0
LINE
  8
CSLAYER1
  6
CONTINUOUS
 62
     7
 10
651.423080
 20
2060.302114
 11
651.010538
 21
2060.512850
  0
LINE
  8
CSLAYER1
  6
CONTINUOUS
 62
     7
 10
651.010538
 20
2060.512850
 11
650.594341
 21
2060.683915
  0
LINE
  8
CSLAYER1
  6
CONTINUOUS
 62
     7
 10
650.594341
 20
2060.683915
 11
650.177657
 21
2060.814008
  0
LINE
  8
CSLAYER1
  6
CONTINUOUS
 62
     7
 10
650.177657
 20
2060.814008
 11
649.763655
 21
2060.902138
  0
LINE
  8
CSLAYER1
  6
CONTINUOUS
 62
     7
 10
649.763655
 20
2060.902138
 11
649.355488
 21
2060.947634
  0
LINE
  8
CSLAYER1
  6
CONTINUOUS
 62
     7
 10
649.355488
 20
2060.947634
 11
648.956262
 21
2060.950151
  0
LINE
  8
CSLAYER1
  6
CONTINUOUS
 62
     7
 10
648.956262
 20
2060.950151
 11
648.569015
 21
2060.909669
  0
LINE
  8
CSLAYER1
  6
CONTINUOUS
 62
     7
 10
648.569015
 20
2060.909669
 11
648.196693
 21
2060.826496
  0
LINE
  8
CSLAYER1
  6
CONTINUOUS
 62
     7
 10
648.196693
 20
2060.826496
 11
647.842132
 21
2060.701265
  0
ENDBLK
  8
0
  0
BLOCK
  8
CSLAYER1
  2
BLKF0007
 70
   64
 10
0.0
 20
0.0
 30
0.0
  0
LINE
  8
CSLAYER1
  6
CONTINUOUS
 62
     7
 10
667.686412
 20
2062.726918
 11
667.669922
 21
2062.993974
  0
LINE
  8
CSLAYER1
  6
CONTINUOUS
 62
     7
 10
667.669922
 20
2062.993974
 11
667.620579
 21
2063.258998
  0
LINE
  8
CSLAYER1
  6
CONTINUOUS
 62
     7
 10
667.620579
 20
2063.258998
 11
667.538757
 21
2063.519973
  0
LINE
  8
CSLAYER1
  6
CONTINUOUS
 62
     7
 10
667.538757
 20
2063.519973
 11
667.425080
 21
2063.774911
  0
LINE
  8
CSLAYER1
  6
CONTINUOUS
 62
     7
 10
667.425080
 20
2063.774911
 11
667.280412
 21
2064.021875
  0
LINE
  8
CSLAYER1
  6
CONTINUOUS
 62
     7
 10
667.280412
 20
2064.021875
 11
667.105855
 21
2064.258982
  0
LINE
  8
CSLAYER1
  6
CONTINUOUS
 62
     7
 10
667.105855
 20
2064.258982
 11
666.902738
 21
2064.484430
  0
LINE
  8
CSLAYER1
  6
CONTINUOUS
 62
     7
 10
666.902738
 20
2064.484430
 11
666.672605
 21
2064.696502
  0
LINE
  8
CSLAYER1
  6
CONTINUOUS
 62
     7
 10
666.672605
 20
2064.696502
 11
666.417208
 21
2064.893584
  0
LINE
  8
CSLAYER1
  6
CONTINUOUS
 62
     7
 10
666.417208
 20
2064.893584
 11
666.138492
 21
2065.074177
  0
LINE
  8
CSLAYER1
  6
CONTINUOUS
 62
     7
 10
666.138492
 20
2065.074177
 11
665.838577
 21
2065.236905
  0
LINE
  8
CSLAYER1
  6
CONTINUOUS
 62
     7
 10
665.838577
 20
2065.236905
 11
665.519745
 21
2065.380531
  0
LINE
  8
CSLAYER1
  6
CONTINUOUS
 62
     7
 10
665.519745
 20
2065.380531
 11
665.184424
 21
2065.503962
  0
LINE
  8
CSLAYER1
  6
CONTINUOUS
 62
     7
 10
665.184424
 20
2065.503962
 11
664.835166
 21
2065.606257
  0
LINE
  8
CSLAYER1
  6
CONTINUOUS
 62
     7
 10
664.835166
 20
2065.606257
 11
664.474628
 21
2065.686639
  0
LINE
  8
CSLAYER1
  6
CONTINUOUS
 62
     7
 10
664.474628
 20
2065.686639
 11
664.105554
 21
2065.744496
  0
LINE
  8
CSLAYER1
  6
CONTINUOUS
 62
     7
 10
664.105554
 20
2065.744496
 11
663.730754
 21
2065.779387
  0
LINE
  8
CSLAYER1
  6
CONTINUOUS
 62
     7
 10
663.730754
 20
2065.779387
 11
663.353079
 21
2065.791047
  0
LINE
  8
CSLAYER1
  6
CONTINUOUS
 62
     7
 10
663.353079
 20
2065.791047
 11
662.975404
 21
2065.779387
  0
LINE
  8
CSLAYER1
  6
CONTINUOUS
 62
     7
 10
662.975404
 20
2065.779387
 11
662.600603
 21
2065.744496
  0
LINE
  8
CSLAYER1
  6
CONTINUOUS
 62
     7
 10
662.600603
 20
2065.744496
 11
662.231529
 21
2065.686639
  0
LINE
  8
CSLAYER1
  6
CONTINUOUS
 62
     7
 10
662.231529
 20
2065.686639
 11
661.870991
 21
2065.606257
  0
LINE
  8
CSLAYER1
  6
CONTINUOUS
 62
     7
 10
661.870991
 20
2065.606257
 11
661.521733
 21
2065.503962
  0
LINE
  8
CSLAYER1
  6
CONTINUOUS
 62
     7
 10
661.521733
 20
2065.503962
 11
661.186412
 21
2065.380531
  0
LINE
  8
CSLAYER1
  6
CONTINUOUS
 62
     7
 10
661.186412
 20
2065.380531
 11
660.867581
 21
2065.236905
  0
LINE
  8
CSLAYER1
  6
CONTINUOUS
 62
     7
 10
660.867581
 20
2065.236905
 11
660.567666
 21
2065.074177
  0
LINE
  8
CSLAYER1
  6
CONTINUOUS
 62
     7
 10
660.567666
 20
2065.074177
 11
660.288949
 21
2064.893584
  0
LINE
  8
CSLAYER1
  6
CONTINUOUS
 62
     7
 10
660.288949
 20
2064.893584
 11
660.033553
 21
2064.696502
  0
LINE
  8
CSLAYER1
  6
CONTINUOUS
 62
     7
 10
660.033553
 20
2064.696502
 11
659.803420
 21
2064.484430
  0
LINE
  8
CSLAYER1
  6
CONTINUOUS
 62
     7
 10
659.803420
 20
2064.484430
 11
659.600302
 21
2064.258982
  0
LINE
  8
CSLAYER1
  6
CONTINUOUS
 62
     7
 10
659.600302
 20
2064.258982
 11
659.425745
 21
2064.021875
  0
LINE
  8
CSLAYER1
  6
CONTINUOUS
 62
     7
 10
659.425745
 20
2064.021875
 11
659.281077
 21
2063.774911
  0
LINE
  8
CSLAYER1
  6
CONTINUOUS
 62
     7
 10
659.281077
 20
2063.774911
 11
659.167400
 21
2063.519973
  0
LINE
  8
CSLAYER1
  6
CONTINUOUS
 62
     7
 10
659.167400
 20
2063.519973
 11
659.085578
 21
2063.258998
  0
LINE
  8
CSLAYER1
  6
CONTINUOUS
 62
     7
 10
659.085578
 20
2063.258998
 11
659.036235
 21
2062.993974
  0
LINE
  8
CSLAYER1
  6
CONTINUOUS
 62
     7
 10
659.036235
 20
2062.993974
 11
659.019745
 21
2062.726918
  0
LINE
  8
CSLAYER1
  6
CONTINUOUS
 62
     7
 10
659.019745
 20
2062.726918
 11
659.036235
 21
2062.459861
  0
LINE
  8
CSLAYER1
  6
CONTINUOUS
 62
     7
 10
659.036235
 20
2062.459861
 11
659.085578
 21
2062.194837
  0
LINE
  8
CSLAYER1
  6
CONTINUOUS
 62
     7
 10
659.085578
 20
2062.194837
 11
659.167400
 21
2061.933862
  0
LINE
  8
CSLAYER1
  6
CONTINUOUS
 62
     7
 10
659.167400
 20
2061.933862
 11
659.281077
 21
2061.678924
  0
LINE
  8
CSLAYER1
  6
CONTINUOUS
 62
     7
 10
659.281077
 20
2061.678924
 11
659.425745
 21
2061.431960
  0
LINE
  8
CSLAYER1
  6
CONTINUOUS
 62
     7
 10
659.425745
 20
2061.431960
 11
659.600302
 21
2061.194853
  0
LINE
  8
CSLAYER1
  6
CONTINUOUS
 62
     7
 10
659.600302
 20
2061.194853
 11
659.803420
 21
2060.969405
  0
LINE
  8
CSLAYER1
  6
CONTINUOUS
 62
     7
 10
659.803420
 20
2060.969405
 11
660.033553
 21
2060.757333
  0
LINE
  8
CSLAYER1
  6
CONTINUOUS
 62
     7
 10
660.033553
 20
2060.757333
 11
660.288949
 21
2060.560251
  0
LINE
  8
CSLAYER1
  6
CONTINUOUS
 62
     7
 10
660.288949
 20
2060.560251
 11
660.567666
 21
2060.379658
  0
LINE
  8
CSLAYER1
  6
CONTINUOUS
 62
     7
 10
660.567666
 20
2060.379658
 11
660.867581
 21
2060.216930
  0
LINE
  8
CSLAYER1
  6
CONTINUOUS
 62
     7
 10
660.867581
 20
2060.216930
 11
661.186412
 21
2060.073304
  0
LINE
  8
CSLAYER1
  6
CONTINUOUS
 62
     7
 10
661.186412
 20
2060.073304
 11
661.521733
 21
2059.949873
  0
LINE
  8
CSLAYER1
  6
CONTINUOUS
 62
     7
 10
661.521733
 20
2059.949873
 11
661.870991
 21
2059.847578
  0
LINE
  8
CSLAYER1
  6
CONTINUOUS
 62
     7
 10
661.870991
 20
2059.847578
 11
662.231529
 21
2059.767196
  0
LINE
  8
CSLAYER1
  6
CONTINUOUS
 62
     7
 10
662.231529
 20
2059.767196
 11
662.600603
 21
2059.709339
  0
LINE
  8
CSLAYER1
  6
CONTINUOUS
 62
     7
 10
662.600603
 20
2059.709339
 11
662.975404
 21
2059.674448
  0
LINE
  8
CSLAYER1
  6
CONTINUOUS
 62
     7
 10
662.975404
 20
2059.674448
 11
663.353079
 21
2059.662788
  0
LINE
  8
CSLAYER1
  6
CONTINUOUS
 62
     7
 10
663.353079
 20
2059.662788
 11
663.730754
 21
2059.674448
  0
LINE
  8
CSLAYER1
  6
CONTINUOUS
 62
     7
 10
663.730754
 20
2059.674448
 11
664.105554
 21
2059.709339
  0
LINE
  8
CSLAYER1
  6
CONTINUOUS
 62
     7
 10
664.105554
 20
2059.709339
 11
664.474628
 21
2059.767196
  0
LINE
  8
CSLAYER1
  6
CONTINUOUS
 62
     7
 10
664.474628
 20
2059.767196
 11
664.835166
 21
2059.847578
  0
LINE
  8
CSLAYER1
  6
CONTINUOUS
 62
     7
 10
664.835166
 20
2059.847578
 11
665.184424
 21
2059.949873
  0
LINE
  8
CSLAYER1
  6
CONTINUOUS
 62
     7
 10
665.184424
 20
2059.949873
 11
665.519745
 21
2060.073304
  0
LINE
  8
CSLAYER1
  6
CONTINUOUS
 62
     7
 10
665.519745
 20
2060.073304
 11
665.838577
 21
2060.216930
  0
LINE
  8
CSLAYER1
  6
CONTINUOUS
 62
     7
 10
665.838577
 20
2060.216930
 11
666.138492
 21
2060.379658
  0
LINE
  8
CSLAYER1
  6
CONTINUOUS
 62
     7
 10
666.138492
 20
2060.379658
 11
666.417208
 21
2060.560251
  0
LINE
  8
CSLAYER1
  6
CONTINUOUS
 62
     7
 10
666.417208
 20
2060.560251
 11
666.672605
 21
2060.757333
  0
LINE
  8
CSLAYER1
  6
CONTINUOUS
 62
     7
 10
666.672605
 20
2060.757333
 11
666.902738
 21
2060.969405
  0
LINE
  8
CSLAYER1
  6
CONTINUOUS
 62
     7
 10
666.902738
 20
2060.969405
 11
667.105855
 21
2061.194853
  0
LINE
  8
CSLAYER1
  6
CONTINUOUS
 62
     7
 10
667.105855
 20
2061.194853
 11
667.280412
 21
2061.431960
  0
LINE
  8
CSLAYER1
  6
CONTINUOUS
 62
     7
 10
667.280412
 20
2061.431960
 11
667.425080
 21
2061.678924
  0
LINE
  8
CSLAYER1
  6
CONTINUOUS
 62
     7
 10
667.425080
 20
2061.678924
 11
667.538757
 21
2061.933862
  0
LINE
  8
CSLAYER1
  6
CONTINUOUS
 62
     7
 10
667.538757
 20
2061.933862
 11
667.620579
 21
2062.194837
  0
LINE
  8
CSLAYER1
  6
CONTINUOUS
 62
     7
 10
667.620579
 20
2062.194837
 11
667.669922
 21
2062.459861
  0
LINE
  8
CSLAYER1
  6
CONTINUOUS
 62
     7
 10
667.669922
 20
2062.459861
 11
667.686412
 21
2062.726918
  0
ENDBLK
  8
0
  0
BLOCK
  8
CSLAYER1
  2
BLKF0008
 70
   64
 10
0.0
 20
0.0
 30
0.0
  0
LINE
  8
CSLAYER1
  6
CONTINUOUS
 62
     7
 10
601.896268
 20
2060.215490
 11
603.003103
 21
2060.907117
  0
LINE
  8
CSLAYER1
  6
CONTINUOUS
 62
     7
 10
603.408071
 20
2070.997419
 11
629.975512
 21
2087.598599
  0
LINE
  8
CSLAYER1
  6
CONTINUOUS
 62
     7
 10
601.442844
 20
2067.900442
 11
601.442844
 21
2063.082399
  0
LINE
  8
CSLAYER1
  6
CONTINUOUS
 62
     7
 10
601.442844
 20
2067.900442
 11
601.474809
 21
2068.320362
  0
LINE
  8
CSLAYER1
  6
CONTINUOUS
 62
     7
 10
601.474809
 20
2068.320362
 11
601.570459
 21
2068.737086
  0
LINE
  8
CSLAYER1
  6
CONTINUOUS
 62
     7
 10
601.570459
 20
2068.737086
 11
601.729067
 21
2069.147443
  0
LINE
  8
CSLAYER1
  6
CONTINUOUS
 62
     7
 10
601.729067
 20
2069.147443
 11
601.949426
 21
2069.548309
  0
LINE
  8
CSLAYER1
  6
CONTINUOUS
 62
     7
 10
601.949426
 20
2069.548309
 11
602.229859
 21
2069.936634
  0
LINE
  8
CSLAYER1
  6
CONTINUOUS
 62
     7
 10
602.229859
 20
2069.936634
 11
602.568231
 21
2070.309463
  0
LINE
  8
CSLAYER1
  6
CONTINUOUS
 62
     7
 10
602.568231
 20
2070.309463
 11
602.961967
 21
2070.663957
  0
LINE
  8
CSLAYER1
  6
CONTINUOUS
 62
     7
 10
602.961967
 20
2070.663957
 11
603.408071
 21
2070.997419
  0
LINE
  8
CSLAYER1
  6
CONTINUOUS
 62
     7
 10
615.782541
 20
2064.493571
 11
615.242260
 21
2064.209607
  0
LINE
  8
CSLAYER1
  6
CONTINUOUS
 62
     7
 10
615.242260
 20
2064.209607
 11
614.660886
 21
2063.953733
  0
LINE
  8
CSLAYER1
  6
CONTINUOUS
 62
     7
 10
614.660886
 20
2063.953733
 11
614.042844
 21
2063.727895
  0
LINE
  8
CSLAYER1
  6
CONTINUOUS
 62
     7
 10
614.042844
 20
2063.727895
 11
613.392837
 21
2063.533813
  0
LINE
  8
CSLAYER1
  6
CONTINUOUS
 62
     7
 10
613.392837
 20
2063.533813
 11
612.715813
 21
2063.372963
  0
LINE
  8
CSLAYER1
  6
CONTINUOUS
 62
     7
 10
612.715813
 20
2063.372963
 11
612.016924
 21
2063.246570
  0
LINE
  8
CSLAYER1
  6
CONTINUOUS
 62
     7
 10
612.016924
 20
2063.246570
 11
611.301489
 21
2063.155596
  0
LINE
  8
CSLAYER1
  6
CONTINUOUS
 62
     7
 10
611.301489
 20
2063.155596
 11
610.574952
 21
2063.100734
  0
LINE
  8
CSLAYER1
  6
CONTINUOUS
 62
     7
 10
610.574952
 20
2063.100734
 11
609.842844
 21
2063.082399
  0
LINE
  8
CSLAYER1
  6
CONTINUOUS
 62
     7
 10
609.842844
 20
2063.082399
 11
609.110736
 21
2063.100734
  0
LINE
  8
CSLAYER1
  6
CONTINUOUS
 62
     7
 10
609.110736
 20
2063.100734
 11
608.384199
 21
2063.155596
  0
LINE
  8
CSLAYER1
  6
CONTINUOUS
 62
     7
 10
608.384199
 20
2063.155596
 11
607.668764
 21
2063.246570
  0
LINE
  8
CSLAYER1
  6
CONTINUOUS
 62
     7
 10
607.668764
 20
2063.246570
 11
606.969875
 21
2063.372963
  0
LINE
  8
CSLAYER1
  6
CONTINUOUS
 62
     7
 10
606.969875
 20
2063.372963
 11
606.292851
 21
2063.533813
  0
LINE
  8
CSLAYER1
  6
CONTINUOUS
 62
     7
 10
606.292851
 20
2063.533813
 11
605.642844
 21
2063.727895
  0
LINE
  8
CSLAYER1
  6
CONTINUOUS
 62
     7
 10
605.642844
 20
2063.727895
 11
605.024802
 21
2063.953733
  0
LINE
  8
CSLAYER1
  6
CONTINUOUS
 62
     7
 10
605.024802
 20
2063.953733
 11
604.443428
 21
2064.209607
  0
LINE
  8
CSLAYER1
  6
CONTINUOUS
 62
     7
 10
604.443428
 20
2064.209607
 11
603.903147
 21
2064.493571
  0
LINE
  8
CSLAYER1
  6
CONTINUOUS
 62
     7
 10
603.903147
 20
2064.493571
 11
603.408071
 21
2064.803464
  0
LINE
  8
CSLAYER1
  6
CONTINUOUS
 62
     7
 10
603.408071
 20
2064.803464
 11
602.961967
 21
2065.136926
  0
LINE
  8
CSLAYER1
  6
CONTINUOUS
 62
     7
 10
602.961967
 20
2065.136926
 11
602.568231
 21
2065.491421
  0
LINE
  8
CSLAYER1
  6
CONTINUOUS
 62
     7
 10
602.568231
 20
2065.491421
 11
602.229859
 21
2065.864249
  0
LINE
  8
CSLAYER1
  6
CONTINUOUS
 62
     7
 10
602.229859
 20
2065.864249
 11
601.949426
 21
2066.252574
  0
LINE
  8
CSLAYER1
  6
CONTINUOUS
 62
     7
 10
601.949426
 20
2066.252574
 11
601.729067
 21
2066.653441
  0
LINE
  8
CSLAYER1
  6
CONTINUOUS
 62
     7
 10
601.729067
 20
2066.653441
 11
601.570459
 21
2067.063797
  0
LINE
  8
CSLAYER1
  6
CONTINUOUS
 62
     7
 10
601.570459
 20
2067.063797
 11
601.474809
 21
2067.480522
  0
LINE
  8
CSLAYER1
  6
CONTINUOUS
 62
     7
 10
601.474809
 20
2067.480522
 11
601.442844
 21
2067.900442
  0
LINE
  8
CSLAYER1
  6
CONTINUOUS
 62
     7
 10
616.277617
 20
2059.985422
 11
615.782541
 21
2059.675529
  0
LINE
  8
CSLAYER1
  6
CONTINUOUS
 62
     7
 10
615.782541
 20
2059.675529
 11
615.242260
 21
2059.391565
  0
LINE
  8
CSLAYER1
  6
CONTINUOUS
 62
     7
 10
615.242260
 20
2059.391565
 11
614.660886
 21
2059.135690
  0
LINE
  8
CSLAYER1
  6
CONTINUOUS
 62
     7
 10
614.660886
 20
2059.135690
 11
614.042844
 21
2058.909853
  0
LINE
  8
CSLAYER1
  6
CONTINUOUS
 62
     7
 10
614.042844
 20
2058.909853
 11
613.392837
 21
2058.715770
  0
LINE
  8
CSLAYER1
  6
CONTINUOUS
 62
     7
 10
613.392837
 20
2058.715770
 11
612.715813
 21
2058.554921
  0
LINE
  8
CSLAYER1
  6
CONTINUOUS
 62
     7
 10
612.715813
 20
2058.554921
 11
612.016924
 21
2058.428528
  0
LINE
  8
CSLAYER1
  6
CONTINUOUS
 62
     7
 10
612.016924
 20
2058.428528
 11
611.301489
 21
2058.337554
  0
LINE
  8
CSLAYER1
  6
CONTINUOUS
 62
     7
 10
611.301489
 20
2058.337554
 11
610.574952
 21
2058.282692
  0
LINE
  8
CSLAYER1
  6
CONTINUOUS
 62
     7
 10
610.574952
 20
2058.282692
 11
609.842844
 21
2058.264357
  0
LINE
  8
CSLAYER1
  6
CONTINUOUS
 62
     7
 10
609.842844
 20
2058.264357
 11
609.110736
 21
2058.282692
  0
LINE
  8
CSLAYER1
  6
CONTINUOUS
 62
     7
 10
609.110736
 20
2058.282692
 11
608.384199
 21
2058.337554
  0
LINE
  8
CSLAYER1
  6
CONTINUOUS
 62
     7
 10
608.384199
 20
2058.337554
 11
607.668764
 21
2058.428528
  0
LINE
  8
CSLAYER1
  6
CONTINUOUS
 62
     7
 10
607.668764
 20
2058.428528
 11
606.969875
 21
2058.554921
  0
LINE
  8
CSLAYER1
  6
CONTINUOUS
 62
     7
 10
606.969875
 20
2058.554921
 11
606.292851
 21
2058.715770
  0
LINE
  8
CSLAYER1
  6
CONTINUOUS
 62
     7
 10
606.292851
 20
2058.715770
 11
605.642844
 21
2058.909853
  0
LINE
  8
CSLAYER1
  6
CONTINUOUS
 62
     7
 10
605.642844
 20
2058.909853
 11
605.024802
 21
2059.135690
  0
LINE
  8
CSLAYER1
  6
CONTINUOUS
 62
     7
 10
605.024802
 20
2059.135690
 11
604.443428
 21
2059.391565
  0
LINE
  8
CSLAYER1
  6
CONTINUOUS
 62
     7
 10
604.443428
 20
2059.391565
 11
603.903147
 21
2059.675529
  0
LINE
  8
CSLAYER1
  6
CONTINUOUS
 62
     7
 10
603.903147
 20
2059.675529
 11
603.408071
 21
2059.985422
  0
LINE
  8
CSLAYER1
  6
CONTINUOUS
 62
     7
 10
603.408071
 20
2059.985422
 11
602.961967
 21
2060.318884
  0
LINE
  8
CSLAYER1
  6
CONTINUOUS
 62
     7
 10
602.961967
 20
2060.318884
 11
602.568231
 21
2060.673378
  0
LINE
  8
CSLAYER1
  6
CONTINUOUS
 62
     7
 10
602.568231
 20
2060.673378
 11
602.229859
 21
2061.046207
  0
LINE
  8
CSLAYER1
  6
CONTINUOUS
 62
     7
 10
602.229859
 20
2061.046207
 11
601.949426
 21
2061.434532
  0
LINE
  8
CSLAYER1
  6
CONTINUOUS
 62
     7
 10
601.949426
 20
2061.434532
 11
601.729067
 21
2061.835398
  0
LINE
  8
CSLAYER1
  6
CONTINUOUS
 62
     7
 10
601.729067
 20
2061.835398
 11
601.570459
 21
2062.245755
  0
LINE
  8
CSLAYER1
  6
CONTINUOUS
 62
     7
 10
601.570459
 20
2062.245755
 11
601.474809
 21
2062.662479
  0
LINE
  8
CSLAYER1
  6
CONTINUOUS
 62
     7
 10
601.474809
 20
2062.662479
 11
601.442844
 21
2063.082399
  0
LINE
  8
CSLAYER1
  6
CONTINUOUS
 62
     7
 10
603.274881
 20
2067.552961
 11
633.374680
 21
2086.361403
  0
LINE
  8
CSLAYER1
  6
CONTINUOUS
 62
     7
 10
605.827265
 20
2065.786636
 11
636.773848
 21
2085.124207
  0
LINE
  8
CSLAYER1
  6
CONTINUOUS
 62
     7
 10
615.782541
 20
2059.675529
 11
644.479263
 21
2077.607232
  0
LINE
  8
CSLAYER1
  6
CONTINUOUS
 62
     7
 10
615.782541
 20
2064.493571
 11
644.372463
 21
2082.358537
  0
LINE
  8
CSLAYER1
  6
CONTINUOUS
 62
     7
 10
617.169950
 20
2066.151868
 11
643.572184
 21
2082.649815
  0
LINE
  8
CSLAYER1
  6
CONTINUOUS
 62
     7
 10
610.023126
 20
2065.047269
 11
640.173016
 21
2083.887011
  0
LINE
  8
CSLAYER1
  6
CONTINUOUS
 62
     7
 10
636.512367
 20
2091.045480
 11
636.536660
 21
2091.364619
  0
LINE
  8
CSLAYER1
  6
CONTINUOUS
 62
     7
 10
636.536660
 20
2091.364619
 11
636.609354
 21
2091.681329
  0
LINE
  8
CSLAYER1
  6
CONTINUOUS
 62
     7
 10
636.609354
 20
2091.681329
 11
636.729896
 21
2091.993201
  0
LINE
  8
CSLAYER1
  6
CONTINUOUS
 62
     7
 10
636.729896
 20
2091.993201
 11
636.897369
 21
2092.297859
  0
LINE
  8
CSLAYER1
  6
CONTINUOUS
 62
     7
 10
636.897369
 20
2092.297859
 11
637.110498
 21
2092.592986
  0
LINE
  8
CSLAYER1
  6
CONTINUOUS
 62
     7
 10
637.110498
 20
2092.592986
 11
637.367660
 21
2092.876336
  0
LINE
  8
CSLAYER1
  6
CONTINUOUS
 62
     7
 10
637.367660
 20
2092.876336
 11
637.666900
 21
2093.145751
  0
LINE
  8
CSLAYER1
  6
CONTINUOUS
 62
     7
 10
637.666900
 20
2093.145751
 11
638.005939
 21
2093.399183
  0
LINE
  8
CSLAYER1
  6
CONTINUOUS
 62
     7
 10
638.005939
 20
2093.399183
 11
638.382197
 21
2093.634701
  0
LINE
  8
CSLAYER1
  6
CONTINUOUS
 62
     7
 10
638.382197
 20
2093.634701
 11
638.792811
 21
2093.850514
  0
LINE
  8
CSLAYER1
  6
CONTINUOUS
 62
     7
 10
638.792811
 20
2093.850514
 11
639.234655
 21
2094.044979
  0
LINE
  8
CSLAYER1
  6
CONTINUOUS
 62
     7
 10
639.234655
 20
2094.044979
 11
639.704367
 21
2094.216615
  0
LINE
  8
CSLAYER1
  6
CONTINUOUS
 62
     7
 10
639.704367
 20
2094.216615
 11
640.198372
 21
2094.364118
  0
LINE
  8
CSLAYER1
  6
CONTINUOUS
 62
     7
 10
640.198372
 20
2094.364118
 11
640.712910
 21
2094.486363
  0
LINE
  8
CSLAYER1
  6
CONTINUOUS
 62
     7
 10
640.712910
 20
2094.486363
 11
641.244066
 21
2094.582422
  0
LINE
  8
CSLAYER1
  6
CONTINUOUS
 62
     7
 10
641.244066
 20
2094.582422
 11
641.787797
 21
2094.651562
  0
LINE
  8
CSLAYER1
  6
CONTINUOUS
 62
     7
 10
641.787797
 20
2094.651562
 11
642.339964
 21
2094.693258
  0
LINE
  8
CSLAYER1
  6
CONTINUOUS
 62
     7
 10
642.339964
 20
2094.693258
 11
642.896367
 21
2094.707192
  0
LINE
  8
CSLAYER1
  6
CONTINUOUS
 62
     7
 10
642.896367
 20
2094.707192
 11
643.452769
 21
2094.693258
  0
LINE
  8
CSLAYER1
  6
CONTINUOUS
 62
     7
 10
643.452769
 20
2094.693258
 11
644.004937
 21
2094.651562
  0
LINE
  8
CSLAYER1
  6
CONTINUOUS
 62
     7
 10
644.004937
 20
2094.651562
 11
644.548667
 21
2094.582422
  0
LINE
  8
CSLAYER1
  6
CONTINUOUS
 62
     7
 10
644.548667
 20
2094.582422
 11
645.079823
 21
2094.486363
  0
LINE
  8
CSLAYER1
  6
CONTINUOUS
 62
     7
 10
645.079823
 20
2094.486363
 11
645.594362
 21
2094.364118
  0
LINE
  8
CSLAYER1
  6
CONTINUOUS
 62
     7
 10
645.594362
 20
2094.364118
 11
646.088367
 21
2094.216615
  0
LINE
  8
CSLAYER1
  6
CONTINUOUS
 62
     7
 10
646.088367
 20
2094.216615
 11
646.558079
 21
2094.044979
  0
LINE
  8
CSLAYER1
  6
CONTINUOUS
 62
     7
 10
646.558079
 20
2094.044979
 11
646.999923
 21
2093.850514
  0
LINE
  8
CSLAYER1
  6
CONTINUOUS
 62
     7
 10
646.999923
 20
2093.850514
 11
647.410536
 21
2093.634701
  0
LINE
  8
CSLAYER1
  6
CONTINUOUS
 62
     7
 10
647.410536
 20
2093.634701
 11
647.786794
 21
2093.399183
  0
LINE
  8
CSLAYER1
  6
CONTINUOUS
 62
     7
 10
647.786794
 20
2093.399183
 11
648.125833
 21
2093.145751
  0
LINE
  8
CSLAYER1
  6
CONTINUOUS
 62
     7
 10
648.125833
 20
2093.145751
 11
648.425073
 21
2092.876336
  0
LINE
  8
CSLAYER1
  6
CONTINUOUS
 62
     7
 10
648.425073
 20
2092.876336
 11
648.682236
 21
2092.592986
  0
LINE
  8
CSLAYER1
  6
CONTINUOUS
 62
     7
 10
648.682236
 20
2092.592986
 11
648.895364
 21
2092.297859
  0
LINE
  8
CSLAYER1
  6
CONTINUOUS
 62
     7
 10
648.895364
 20
2092.297859
 11
649.062837
 21
2091.993201
  0
LINE
  8
CSLAYER1
  6
CONTINUOUS
 62
     7
 10
649.062837
 20
2091.993201
 11
649.183379
 21
2091.681329
  0
LINE
  8
CSLAYER1
  6
CONTINUOUS
 62
     7
 10
649.183379
 20
2091.681329
 11
649.256074
 21
2091.364619
  0
LINE
  8
CSLAYER1
  6
CONTINUOUS
 62
     7
 10
649.256074
 20
2091.364619
 11
649.280367
 21
2091.045480
  0
LINE
  8
CSLAYER1
  6
CONTINUOUS
 62
     7
 10
649.280367
 20
2091.045480
 11
649.256074
 21
2090.726340
  0
LINE
  8
CSLAYER1
  6
CONTINUOUS
 62
     7
 10
649.256074
 20
2090.726340
 11
649.183379
 21
2090.409630
  0
LINE
  8
CSLAYER1
  6
CONTINUOUS
 62
     7
 10
649.183379
 20
2090.409630
 11
649.062837
 21
2090.097759
  0
LINE
  8
CSLAYER1
  6
CONTINUOUS
 62
     7
 10
649.062837
 20
2090.097759
 11
648.895364
 21
2089.793100
  0
LINE
  8
CSLAYER1
  6
CONTINUOUS
 62
     7
 10
648.895364
 20
2089.793100
 11
648.682236
 21
2089.497973
  0
LINE
  8
CSLAYER1
  6
CONTINUOUS
 62
     7
 10
648.682236
 20
2089.497973
 11
648.425073
 21
2089.214624
  0
LINE
  8
CSLAYER1
  6
CONTINUOUS
 62
     7
 10
648.425073
 20
2089.214624
 11
648.125833
 21
2088.945208
  0
LINE
  8
CSLAYER1
  6
CONTINUOUS
 62
     7
 10
648.125833
 20
2088.945208
 11
647.786794
 21
2088.691777
  0
LINE
  8
CSLAYER1
  6
CONTINUOUS
 62
     7
 10
647.786794
 20
2088.691777
 11
647.410536
 21
2088.456258
  0
LINE
  8
CSLAYER1
  6
CONTINUOUS
 62
     7
 10
647.410536
 20
2088.456258
 11
646.999923
 21
2088.240446
  0
LINE
  8
CSLAYER1
  6
CONTINUOUS
 62
     7
 10
646.999923
 20
2088.240446
 11
646.558079
 21
2088.045981
  0
LINE
  8
CSLAYER1
  6
CONTINUOUS
 62
     7
 10
646.558079
 20
2088.045981
 11
646.088367
 21
2087.874344
  0
LINE
  8
CSLAYER1
  6
CONTINUOUS
 62
     7
 10
646.088367
 20
2087.874344
 11
645.594362
 21
2087.726842
  0
LINE
  8
CSLAYER1
  6
CONTINUOUS
 62
     7
 10
645.594362
 20
2087.726842
 11
645.079823
 21
2087.604596
  0
LINE
  8
CSLAYER1
  6
CONTINUOUS
 62
     7
 10
645.079823
 20
2087.604596
 11
644.548667
 21
2087.508538
  0
LINE
  8
CSLAYER1
  6
CONTINUOUS
 62
     7
 10
644.548667
 20
2087.508538
 11
644.004937
 21
2087.439397
  0
LINE
  8
CSLAYER1
  6
CONTINUOUS
 62
     7
 10
644.004937
 20
2087.439397
 11
643.452769
 21
2087.397702
  0
LINE
  8
CSLAYER1
  6
CONTINUOUS
 62
     7
 10
643.452769
 20
2087.397702
 11
642.896367
 21
2087.383768
  0
LINE
  8
CSLAYER1
  6
CONTINUOUS
 62
     7
 10
642.896367
 20
2087.383768
 11
642.339964
 21
2087.397702
  0
LINE
  8
CSLAYER1
  6
CONTINUOUS
 62
     7
 10
642.339964
 20
2087.397702
 11
641.787797
 21
2087.439397
  0
LINE
  8
CSLAYER1
  6
CONTINUOUS
 62
     7
 10
641.787797
 20
2087.439397
 11
641.244066
 21
2087.508538
  0
LINE
  8
CSLAYER1
  6
CONTINUOUS
 62
     7
 10
641.244066
 20
2087.508538
 11
640.712910
 21
2087.604596
  0
LINE
  8
CSLAYER1
  6
CONTINUOUS
 62
     7
 10
640.712910
 20
2087.604596
 11
640.198372
 21
2087.726842
  0
LINE
  8
CSLAYER1
  6
CONTINUOUS
 62
     7
 10
640.198372
 20
2087.726842
 11
639.704367
 21
2087.874344
  0
LINE
  8
CSLAYER1
  6
CONTINUOUS
 62
     7
 10
639.704367
 20
2087.874344
 11
639.234655
 21
2088.045981
  0
LINE
  8
CSLAYER1
  6
CONTINUOUS
 62
     7
 10
639.234655
 20
2088.045981
 11
638.792811
 21
2088.240446
  0
LINE
  8
CSLAYER1
  6
CONTINUOUS
 62
     7
 10
638.792811
 20
2088.240446
 11
638.382197
 21
2088.456258
  0
LINE
  8
CSLAYER1
  6
CONTINUOUS
 62
     7
 10
638.382197
 20
2088.456258
 11
638.005939
 21
2088.691777
  0
LINE
  8
CSLAYER1
  6
CONTINUOUS
 62
     7
 10
638.005939
 20
2088.691777
 11
637.666900
 21
2088.945208
  0
LINE
  8
CSLAYER1
  6
CONTINUOUS
 62
     7
 10
637.666900
 20
2088.945208
 11
637.367660
 21
2089.214624
  0
LINE
  8
CSLAYER1
  6
CONTINUOUS
 62
     7
 10
637.367660
 20
2089.214624
 11
637.110498
 21
2089.497973
  0
LINE
  8
CSLAYER1
  6
CONTINUOUS
 62
     7
 10
637.110498
 20
2089.497973
 11
636.897369
 21
2089.793100
  0
LINE
  8
CSLAYER1
  6
CONTINUOUS
 62
     7
 10
636.897369
 20
2089.793100
 11
636.729896
 21
2090.097759
  0
LINE
  8
CSLAYER1
  6
CONTINUOUS
 62
     7
 10
636.729896
 20
2090.097759
 11
636.609354
 21
2090.409630
  0
LINE
  8
CSLAYER1
  6
CONTINUOUS
 62
     7
 10
636.609354
 20
2090.409630
 11
636.536660
 21
2090.726340
  0
LINE
  8
CSLAYER1
  6
CONTINUOUS
 62
     7
 10
636.536660
 20
2090.726340
 11
636.512367
 21
2091.045480
  0
LINE
  8
CSLAYER1
  6
CONTINUOUS
 62
     7
 10
639.536367
 20
2091.045480
 11
639.549152
 21
2091.213448
  0
LINE
  8
CSLAYER1
  6
CONTINUOUS
 62
     7
 10
639.549152
 20
2091.213448
 11
639.587413
 21
2091.380137
  0
LINE
  8
CSLAYER1
  6
CONTINUOUS
 62
     7
 10
639.587413
 20
2091.380137
 11
639.650856
 21
2091.544280
  0
LINE
  8
CSLAYER1
  6
CONTINUOUS
 62
     7
 10
639.650856
 20
2091.544280
 11
639.738999
 21
2091.704627
  0
LINE
  8
CSLAYER1
  6
CONTINUOUS
 62
     7
 10
639.738999
 20
2091.704627
 11
639.851172
 21
2091.859957
  0
LINE
  8
CSLAYER1
  6
CONTINUOUS
 62
     7
 10
639.851172
 20
2091.859957
 11
639.986521
 21
2092.009088
  0
LINE
  8
CSLAYER1
  6
CONTINUOUS
 62
     7
 10
639.986521
 20
2092.009088
 11
640.144016
 21
2092.150886
  0
LINE
  8
CSLAYER1
  6
CONTINUOUS
 62
     7
 10
640.144016
 20
2092.150886
 11
640.322457
 21
2092.284271
  0
LINE
  8
CSLAYER1
  6
CONTINUOUS
 62
     7
 10
640.322457
 20
2092.284271
 11
640.520488
 21
2092.408228
  0
LINE
  8
CSLAYER1
  6
CONTINUOUS
 62
     7
 10
640.520488
 20
2092.408228
 11
640.736600
 21
2092.521813
  0
LINE
  8
CSLAYER1
  6
CONTINUOUS
 62
     7
 10
640.736600
 20
2092.521813
 11
640.969150
 21
2092.624163
  0
LINE
  8
CSLAYER1
  6
CONTINUOUS
 62
     7
 10
640.969150
 20
2092.624163
 11
641.216367
 21
2092.714498
  0
LINE
  8
CSLAYER1
  6
CONTINUOUS
 62
     7
 10
641.216367
 20
2092.714498
 11
641.476369
 21
2092.792131
  0
LINE
  8
CSLAYER1
  6
CONTINUOUS
 62
     7
 10
641.476369
 20
2092.792131
 11
641.747179
 21
2092.856471
  0
LINE
  8
CSLAYER1
  6
CONTINUOUS
 62
     7
 10
641.747179
 20
2092.856471
 11
642.026735
 21
2092.907028
  0
LINE
  8
CSLAYER1
  6
CONTINUOUS
 62
     7
 10
642.026735
 20
2092.907028
 11
642.312909
 21
2092.943418
  0
LINE
  8
CSLAYER1
  6
CONTINUOUS
 62
     7
 10
642.312909
 20
2092.943418
 11
642.603523
 21
2092.965363
  0
LINE
  8
CSLAYER1
  6
CONTINUOUS
 62
     7
 10
642.603523
 20
2092.965363
 11
642.896367
 21
2092.972697
  0
LINE
  8
CSLAYER1
  6
CONTINUOUS
 62
     7
 10
642.896367
 20
2092.972697
 11
643.189210
 21
2092.965363
  0
LINE
  8
CSLAYER1
  6
CONTINUOUS
 62
     7
 10
643.189210
 20
2092.965363
 11
643.479824
 21
2092.943418
  0
LINE
  8
CSLAYER1
  6
CONTINUOUS
 62
     7
 10
643.479824
 20
2092.943418
 11
643.765999
 21
2092.907028
  0
LINE
  8
CSLAYER1
  6
CONTINUOUS
 62
     7
 10
643.765999
 20
2092.907028
 11
644.045554
 21
2092.856471
  0
LINE
  8
CSLAYER1
  6
CONTINUOUS
 62
     7
 10
644.045554
 20
2092.856471
 11
644.316364
 21
2092.792131
  0
LINE
  8
CSLAYER1
  6
CONTINUOUS
 62
     7
 10
644.316364
 20
2092.792131
 11
644.576367
 21
2092.714498
  0
LINE
  8
CSLAYER1
  6
CONTINUOUS
 62
     7
 10
644.576367
 20
2092.714498
 11
644.823583
 21
2092.624163
  0
LINE
  8
CSLAYER1
  6
CONTINUOUS
 62
     7
 10
644.823583
 20
2092.624163
 11
645.056133
 21
2092.521813
  0
LINE
  8
CSLAYER1
  6
CONTINUOUS
 62
     7
 10
645.056133
 20
2092.521813
 11
645.272245
 21
2092.408228
  0
LINE
  8
CSLAYER1
  6
CONTINUOUS
 62
     7
 10
645.272245
 20
2092.408228
 11
645.470276
 21
2092.284271
  0
LINE
  8
CSLAYER1
  6
CONTINUOUS
 62
     7
 10
645.470276
 20
2092.284271
 11
645.648717
 21
2092.150886
  0
LINE
  8
CSLAYER1
  6
CONTINUOUS
 62
     7
 10
645.648717
 20
2092.150886
 11
645.806212
 21
2092.009088
  0
LINE
  8
CSLAYER1
  6
CONTINUOUS
 62
     7
 10
645.806212
 20
2092.009088
 11
645.941561
 21
2091.859957
  0
LINE
  8
CSLAYER1
  6
CONTINUOUS
 62
     7
 10
645.941561
 20
2091.859957
 11
646.053734
 21
2091.704627
  0
LINE
  8
CSLAYER1
  6
CONTINUOUS
 62
     7
 10
646.053734
 20
2091.704627
 11
646.141877
 21
2091.544280
  0
LINE
  8
CSLAYER1
  6
CONTINUOUS
 62
     7
 10
646.141877
 20
2091.544280
 11
646.205321
 21
2091.380137
  0
LINE
  8
CSLAYER1
  6
CONTINUOUS
 62
     7
 10
646.205321
 20
2091.380137
 11
646.243581
 21
2091.213448
  0
LINE
  8
CSLAYER1
  6
CONTINUOUS
 62
     7
 10
646.243581
 20
2091.213448
 11
646.256367
 21
2091.045480
  0
LINE
  8
CSLAYER1
  6
CONTINUOUS
 62
     7
 10
646.256367
 20
2091.045480
 11
646.243581
 21
2090.877512
  0
LINE
  8
CSLAYER1
  6
CONTINUOUS
 62
     7
 10
646.243581
 20
2090.877512
 11
646.205321
 21
2090.710822
  0
LINE
  8
CSLAYER1
  6
CONTINUOUS
 62
     7
 10
646.205321
 20
2090.710822
 11
646.141877
 21
2090.546679
  0
LINE
  8
CSLAYER1
  6
CONTINUOUS
 62
     7
 10
646.141877
 20
2090.546679
 11
646.053734
 21
2090.386333
  0
LINE
  8
CSLAYER1
  6
CONTINUOUS
 62
     7
 10
646.053734
 20
2090.386333
 11
645.941561
 21
2090.231003
  0
LINE
  8
CSLAYER1
  6
CONTINUOUS
 62
     7
 10
645.941561
 20
2090.231003
 11
645.806212
 21
2090.081871
  0
LINE
  8
CSLAYER1
  6
CONTINUOUS
 62
     7
 10
645.806212
 20
2090.081871
 11
645.648717
 21
2089.940074
  0
LINE
  8
CSLAYER1
  6
CONTINUOUS
 62
     7
 10
645.648717
 20
2089.940074
 11
645.470276
 21
2089.806689
  0
LINE
  8
CSLAYER1
  6
CONTINUOUS
 62
     7
 10
645.470276
 20
2089.806689
 11
645.272245
 21
2089.682732
  0
LINE
  8
CSLAYER1
  6
CONTINUOUS
 62
     7
 10
645.272245
 20
2089.682732
 11
645.056133
 21
2089.569146
  0
LINE
  8
CSLAYER1
  6
CONTINUOUS
 62
     7
 10
645.056133
 20
2089.569146
 11
644.823583
 21
2089.466796
  0
LINE
  8
CSLAYER1
  6
CONTINUOUS
 62
     7
 10
644.823583
 20
2089.466796
 11
644.576367
 21
2089.376461
  0
LINE
  8
CSLAYER1
  6
CONTINUOUS
 62
     7
 10
644.576367
 20
2089.376461
 11
644.316364
 21
2089.298828
  0
LINE
  8
CSLAYER1
  6
CONTINUOUS
 62
     7
 10
644.316364
 20
2089.298828
 11
644.045554
 21
2089.234488
  0
LINE
  8
CSLAYER1
  6
CONTINUOUS
 62
     7
 10
644.045554
 20
2089.234488
 11
643.765999
 21
2089.183931
  0
LINE
  8
CSLAYER1
  6
CONTINUOUS
 62
     7
 10
643.765999
 20
2089.183931
 11
643.479824
 21
2089.147542
  0
LINE
  8
CSLAYER1
  6
CONTINUOUS
 62
     7
 10
643.479824
 20
2089.147542
 11
643.189210
 21
2089.125597
  0
LINE
  8
CSLAYER1
  6
CONTINUOUS
 62
     7
 10
643.189210
 20
2089.125597
 11
642.896367
 21
2089.118263
  0
LINE
  8
CSLAYER1
  6
CONTINUOUS
 62
     7
 10
642.896367
 20
2089.118263
 11
642.603523
 21
2089.125597
  0
LINE
  8
CSLAYER1
  6
CONTINUOUS
 62
     7
 10
642.603523
 20
2089.125597
 11
642.312909
 21
2089.147542
  0
LINE
  8
CSLAYER1
  6
CONTINUOUS
 62
     7
 10
642.312909
 20
2089.147542
 11
642.026735
 21
2089.183931
  0
LINE
  8
CSLAYER1
  6
CONTINUOUS
 62
     7
 10
642.026735
 20
2089.183931
 11
641.747179
 21
2089.234488
  0
LINE
  8
CSLAYER1
  6
CONTINUOUS
 62
     7
 10
641.747179
 20
2089.234488
 11
641.476369
 21
2089.298828
  0
LINE
  8
CSLAYER1
  6
CONTINUOUS
 62
     7
 10
641.476369
 20
2089.298828
 11
641.216367
 21
2089.376461
  0
LINE
  8
CSLAYER1
  6
CONTINUOUS
 62
     7
 10
641.216367
 20
2089.376461
 11
640.969150
 21
2089.466796
  0
LINE
  8
CSLAYER1
  6
CONTINUOUS
 62
     7
 10
640.969150
 20
2089.466796
 11
640.736600
 21
2089.569146
  0
LINE
  8
CSLAYER1
  6
CONTINUOUS
 62
     7
 10
640.736600
 20
2089.569146
 11
640.520488
 21
2089.682732
  0
LINE
  8
CSLAYER1
  6
CONTINUOUS
 62
     7
 10
640.520488
 20
2089.682732
 11
640.322457
 21
2089.806689
  0
LINE
  8
CSLAYER1
  6
CONTINUOUS
 62
     7
 10
640.322457
 20
2089.806689
 11
640.144016
 21
2089.940074
  0
LINE
  8
CSLAYER1
  6
CONTINUOUS
 62
     7
 10
640.144016
 20
2089.940074
 11
639.986521
 21
2090.081871
  0
LINE
  8
CSLAYER1
  6
CONTINUOUS
 62
     7
 10
639.986521
 20
2090.081871
 11
639.851172
 21
2090.231003
  0
LINE
  8
CSLAYER1
  6
CONTINUOUS
 62
     7
 10
639.851172
 20
2090.231003
 11
639.738999
 21
2090.386333
  0
LINE
  8
CSLAYER1
  6
CONTINUOUS
 62
     7
 10
639.738999
 20
2090.386333
 11
639.650856
 21
2090.546679
  0
LINE
  8
CSLAYER1
  6
CONTINUOUS
 62
     7
 10
639.650856
 20
2090.546679
 11
639.587413
 21
2090.710822
  0
LINE
  8
CSLAYER1
  6
CONTINUOUS
 62
     7
 10
639.587413
 20
2090.710822
 11
639.549152
 21
2090.877512
  0
LINE
  8
CSLAYER1
  6
CONTINUOUS
 62
     7
 10
639.549152
 20
2090.877512
 11
639.536367
 21
2091.045480
  0
LINE
  8
CSLAYER1
  6
CONTINUOUS
 62
     7
 10
649.280367
 20
2091.045480
 11
649.280367
 21
2087.416740
  0
LINE
  8
CSLAYER1
  6
CONTINUOUS
 62
     7
 10
636.512367
 20
2091.045480
 11
636.512367
 21
2087.416740
  0
LINE
  8
CSLAYER1
  6
CONTINUOUS
 62
     7
 10
646.432252
 20
2088.000003
 11
646.432252
 21
2084.371263
  0
LINE
  8
CSLAYER1
  6
CONTINUOUS
 62
     7
 10
639.113165
 20
2088.099451
 11
639.113165
 21
2084.470712
  0
LINE
  8
CSLAYER1
  6
CONTINUOUS
 62
     7
 10
649.280367
 20
2087.416740
 11
649.256074
 21
2087.097601
  0
LINE
  8
CSLAYER1
  6
CONTINUOUS
 62
     7
 10
649.256074
 20
2087.097601
 11
649.183379
 21
2086.780891
  0
LINE
  8
CSLAYER1
  6
CONTINUOUS
 62
     7
 10
649.183379
 20
2086.780891
 11
649.062837
 21
2086.469019
  0
LINE
  8
CSLAYER1
  6
CONTINUOUS
 62
     7
 10
649.062837
 20
2086.469019
 11
648.895364
 21
2086.164361
  0
LINE
  8
CSLAYER1
  6
CONTINUOUS
 62
     7
 10
648.895364
 20
2086.164361
 11
648.682236
 21
2085.869234
  0
LINE
  8
CSLAYER1
  6
CONTINUOUS
 62
     7
 10
648.682236
 20
2085.869234
 11
648.425073
 21
2085.585884
  0
LINE
  8
CSLAYER1
  6
CONTINUOUS
 62
     7
 10
648.425073
 20
2085.585884
 11
648.125833
 21
2085.316469
  0
LINE
  8
CSLAYER1
  6
CONTINUOUS
 62
     7
 10
648.125833
 20
2085.316469
 11
647.786794
 21
2085.063037
  0
LINE
  8
CSLAYER1
  6
CONTINUOUS
 62
     7
 10
647.786794
 20
2085.063037
 11
647.410536
 21
2084.827519
  0
LINE
  8
CSLAYER1
  6
CONTINUOUS
 62
     7
 10
647.410536
 20
2084.827519
 11
646.999923
 21
2084.611706
  0
LINE
  8
CSLAYER1
  6
CONTINUOUS
 62
     7
 10
646.999923
 20
2084.611706
 11
646.558079
 21
2084.417241
  0
LINE
  8
CSLAYER1
  6
CONTINUOUS
 62
     7
 10
646.558079
 20
2084.417241
 11
646.088367
 21
2084.245605
  0
LINE
  8
CSLAYER1
  6
CONTINUOUS
 62
     7
 10
646.088367
 20
2084.245605
 11
645.594362
 21
2084.098102
  0
LINE
  8
CSLAYER1
  6
CONTINUOUS
 62
     7
 10
645.594362
 20
2084.098102
 11
645.079823
 21
2083.975856
  0
LINE
  8
CSLAYER1
  6
CONTINUOUS
 62
     7
 10
645.079823
 20
2083.975856
 11
644.548667
 21
2083.879798
  0
LINE
  8
CSLAYER1
  6
CONTINUOUS
 62
     7
 10
644.548667
 20
2083.879798
 11
644.004937
 21
2083.810658
  0
LINE
  8
CSLAYER1
  6
CONTINUOUS
 62
     7
 10
644.004937
 20
2083.810658
 11
643.452769
 21
2083.768962
  0
LINE
  8
CSLAYER1
  6
CONTINUOUS
 62
     7
 10
643.452769
 20
2083.768962
 11
642.896367
 21
2083.755028
  0
LINE
  8
CSLAYER1
  6
CONTINUOUS
 62
     7
 10
642.896367
 20
2083.755028
 11
642.339964
 21
2083.768962
  0
LINE
  8
CSLAYER1
  6
CONTINUOUS
 62
     7
 10
642.339964
 20
2083.768962
 11
641.787797
 21
2083.810658
  0
LINE
  8
CSLAYER1
  6
CONTINUOUS
 62
     7
 10
641.787797
 20
2083.810658
 11
641.244066
 21
2083.879798
  0
LINE
  8
CSLAYER1
  6
CONTINUOUS
 62
     7
 10
641.244066
 20
2083.879798
 11
640.712910
 21
2083.975856
  0
LINE
  8
CSLAYER1
  6
CONTINUOUS
 62
     7
 10
640.712910
 20
2083.975856
 11
640.198372
 21
2084.098102
  0
LINE
  8
CSLAYER1
  6
CONTINUOUS
 62
     7
 10
640.198372
 20
2084.098102
 11
639.704367
 21
2084.245605
  0
LINE
  8
CSLAYER1
  6
CONTINUOUS
 62
     7
 10
639.704367
 20
2084.245605
 11
639.234655
 21
2084.417241
  0
LINE
  8
CSLAYER1
  6
CONTINUOUS
 62
     7
 10
639.234655
 20
2084.417241
 11
638.792811
 21
2084.611706
  0
LINE
  8
CSLAYER1
  6
CONTINUOUS
 62
     7
 10
638.792811
 20
2084.611706
 11
638.382197
 21
2084.827519
  0
LINE
  8
CSLAYER1
  6
CONTINUOUS
 62
     7
 10
638.382197
 20
2084.827519
 11
638.005939
 21
2085.063037
  0
LINE
  8
CSLAYER1
  6
CONTINUOUS
 62
     7
 10
638.005939
 20
2085.063037
 11
637.666900
 21
2085.316469
  0
LINE
  8
CSLAYER1
  6
CONTINUOUS
 62
     7
 10
637.666900
 20
2085.316469
 11
637.367660
 21
2085.585884
  0
LINE
  8
CSLAYER1
  6
CONTINUOUS
 62
     7
 10
637.367660
 20
2085.585884
 11
637.110498
 21
2085.869234
  0
LINE
  8
CSLAYER1
  6
CONTINUOUS
 62
     7
 10
637.110498
 20
2085.869234
 11
636.897369
 21
2086.164361
  0
LINE
  8
CSLAYER1
  6
CONTINUOUS
 62
     7
 10
636.897369
 20
2086.164361
 11
636.729896
 21
2086.469019
  0
LINE
  8
CSLAYER1
  6
CONTINUOUS
 62
     7
 10
636.729896
 20
2086.469019
 11
636.609354
 21
2086.780891
  0
LINE
  8
CSLAYER1
  6
CONTINUOUS
 62
     7
 10
636.609354
 20
2086.780891
 11
636.536660
 21
2087.097601
  0
LINE
  8
CSLAYER1
  6
CONTINUOUS
 62
     7
 10
636.536660
 20
2087.097601
 11
636.512367
 21
2087.416740
  0
LINE
  8
CSLAYER1
  6
CONTINUOUS
 62
     7
 10
639.113165
 20
2074.254121
 11
639.113165
 21
2073.705072
  0
LINE
  8
CSLAYER1
  6
CONTINUOUS
 62
     7
 10
649.280367
 20
2076.651100
 11
649.256074
 21
2076.331961
  0
LINE
  8
CSLAYER1
  6
CONTINUOUS
 62
     7
 10
649.256074
 20
2076.331961
 11
649.183379
 21
2076.015251
  0
LINE
  8
CSLAYER1
  6
CONTINUOUS
 62
     7
 10
649.183379
 20
2076.015251
 11
649.062837
 21
2075.703380
  0
LINE
  8
CSLAYER1
  6
CONTINUOUS
 62
     7
 10
649.062837
 20
2075.703380
 11
648.895364
 21
2075.398721
  0
LINE
  8
CSLAYER1
  6
CONTINUOUS
 62
     7
 10
648.895364
 20
2075.398721
 11
648.682236
 21
2075.103594
  0
LINE
  8
CSLAYER1
  6
CONTINUOUS
 62
     7
 10
648.682236
 20
2075.103594
 11
648.425073
 21
2074.820244
  0
LINE
  8
CSLAYER1
  6
CONTINUOUS
 62
     7
 10
648.425073
 20
2074.820244
 11
648.125833
 21
2074.550829
  0
LINE
  8
CSLAYER1
  6
CONTINUOUS
 62
     7
 10
648.125833
 20
2074.550829
 11
647.786794
 21
2074.297397
  0
LINE
  8
CSLAYER1
  6
CONTINUOUS
 62
     7
 10
647.786794
 20
2074.297397
 11
647.410536
 21
2074.061879
  0
LINE
  8
CSLAYER1
  6
CONTINUOUS
 62
     7
 10
647.410536
 20
2074.061879
 11
646.999923
 21
2073.846066
  0
LINE
  8
CSLAYER1
  6
CONTINUOUS
 62
     7
 10
646.999923
 20
2073.846066
 11
646.558079
 21
2073.651602
  0
LINE
  8
CSLAYER1
  6
CONTINUOUS
 62
     7
 10
646.558079
 20
2073.651602
 11
646.088367
 21
2073.479965
  0
LINE
  8
CSLAYER1
  6
CONTINUOUS
 62
     7
 10
646.088367
 20
2073.479965
 11
645.594362
 21
2073.332462
  0
LINE
  8
CSLAYER1
  6
CONTINUOUS
 62
     7
 10
645.594362
 20
2073.332462
 11
645.079823
 21
2073.210217
  0
LINE
  8
CSLAYER1
  6
CONTINUOUS
 62
     7
 10
645.079823
 20
2073.210217
 11
644.548667
 21
2073.114158
  0
LINE
  8
CSLAYER1
  6
CONTINUOUS
 62
     7
 10
644.548667
 20
2073.114158
 11
644.004937
 21
2073.045018
  0
LINE
  8
CSLAYER1
  6
CONTINUOUS
 62
     7
 10
644.004937
 20
2073.045018
 11
643.452769
 21
2073.003322
  0
LINE
  8
CSLAYER1
  6
CONTINUOUS
 62
     7
 10
643.452769
 20
2073.003322
 11
642.896367
 21
2072.989388
  0
LINE
  8
CSLAYER1
  6
CONTINUOUS
 62
     7
 10
642.896367
 20
2072.989388
 11
642.339964
 21
2073.003322
  0
LINE
  8
CSLAYER1
  6
CONTINUOUS
 62
     7
 10
642.339964
 20
2073.003322
 11
641.787797
 21
2073.045018
  0
LINE
  8
CSLAYER1
  6
CONTINUOUS
 62
     7
 10
641.787797
 20
2073.045018
 11
641.244066
 21
2073.114158
  0
LINE
  8
CSLAYER1
  6
CONTINUOUS
 62
     7
 10
641.244066
 20
2073.114158
 11
640.712910
 21
2073.210217
  0
LINE
  8
CSLAYER1
  6
CONTINUOUS
 62
     7
 10
640.712910
 20
2073.210217
 11
640.198372
 21
2073.332462
  0
LINE
  8
CSLAYER1
  6
CONTINUOUS
 62
     7
 10
640.198372
 20
2073.332462
 11
639.704367
 21
2073.479965
  0
LINE
  8
CSLAYER1
  6
CONTINUOUS
 62
     7
 10
639.704367
 20
2073.479965
 11
639.234655
 21
2073.651602
  0
LINE
  8
CSLAYER1
  6
CONTINUOUS
 62
     7
 10
639.234655
 20
2073.651602
 11
638.792811
 21
2073.846066
  0
LINE
  8
CSLAYER1
  6
CONTINUOUS
 62
     7
 10
638.792811
 20
2073.846066
 11
638.612121
 21
2073.941034
  0
LINE
  8
CSLAYER1
  6
CONTINUOUS
 62
     7
 10
649.280367
 20
2081.697980
 11
649.280367
 21
2076.651100
  0
LINE
  8
CSLAYER1
  6
CONTINUOUS
 62
     7
 10
646.256367
 20
2069.066575
 11
646.256367
 21
2073.541353
  0
LINE
  8
CSLAYER1
  6
CONTINUOUS
 62
     7
 10
639.536367
 20
2069.066575
 11
639.536367
 21
2073.541353
  0
LINE
  8
CSLAYER1
  6
CONTINUOUS
 62
     7
 10
646.256367
 20
2069.066575
 11
646.243581
 21
2068.898607
  0
LINE
  8
CSLAYER1
  6
CONTINUOUS
 62
     7
 10
646.243581
 20
2068.898607
 11
646.205321
 21
2068.731917
  0
LINE
  8
CSLAYER1
  6
CONTINUOUS
 62
     7
 10
646.205321
 20
2068.731917
 11
646.141877
 21
2068.567774
  0
LINE
  8
CSLAYER1
  6
CONTINUOUS
 62
     7
 10
646.141877
 20
2068.567774
 11
646.053734
 21
2068.407428
  0
LINE
  8
CSLAYER1
  6
CONTINUOUS
 62
     7
 10
646.053734
 20
2068.407428
 11
645.941561
 21
2068.252098
  0
LINE
  8
CSLAYER1
  6
CONTINUOUS
 62
     7
 10
645.941561
 20
2068.252098
 11
645.806212
 21
2068.102966
  0
LINE
  8
CSLAYER1
  6
CONTINUOUS
 62
     7
 10
645.806212
 20
2068.102966
 11
645.648717
 21
2067.961169
  0
LINE
  8
CSLAYER1
  6
CONTINUOUS
 62
     7
 10
645.648717
 20
2067.961169
 11
645.470276
 21
2067.827784
  0
LINE
  8
CSLAYER1
  6
CONTINUOUS
 62
     7
 10
645.470276
 20
2067.827784
 11
645.272245
 21
2067.703827
  0
LINE
  8
CSLAYER1
  6
CONTINUOUS
 62
     7
 10
645.272245
 20
2067.703827
 11
645.056133
 21
2067.590241
  0
LINE
  8
CSLAYER1
  6
CONTINUOUS
 62
     7
 10
645.056133
 20
2067.590241
 11
644.823583
 21
2067.487891
  0
LINE
  8
CSLAYER1
  6
CONTINUOUS
 62
     7
 10
644.823583
 20
2067.487891
 11
644.576367
 21
2067.397556
  0
LINE
  8
CSLAYER1
  6
CONTINUOUS
 62
     7
 10
644.576367
 20
2067.397556
 11
644.316364
 21
2067.319923
  0
LINE
  8
CSLAYER1
  6
CONTINUOUS
 62
     7
 10
644.316364
 20
2067.319923
 11
644.045554
 21
2067.255583
  0
LINE
  8
CSLAYER1
  6
CONTINUOUS
 62
     7
 10
644.045554
 20
2067.255583
 11
643.765999
 21
2067.205026
  0
LINE
  8
CSLAYER1
  6
CONTINUOUS
 62
     7
 10
643.765999
 20
2067.205026
 11
643.479824
 21
2067.168637
  0
LINE
  8
CSLAYER1
  6
CONTINUOUS
 62
     7
 10
643.479824
 20
2067.168637
 11
643.189210
 21
2067.146692
  0
LINE
  8
CSLAYER1
  6
CONTINUOUS
 62
     7
 10
643.189210
 20
2067.146692
 11
642.896367
 21
2067.139358
  0
LINE
  8
CSLAYER1
  6
CONTINUOUS
 62
     7
 10
642.896367
 20
2067.139358
 11
642.603523
 21
2067.146692
  0
LINE
  8
CSLAYER1
  6
CONTINUOUS
 62
     7
 10
642.603523
 20
2067.146692
 11
642.312909
 21
2067.168637
  0
LINE
  8
CSLAYER1
  6
CONTINUOUS
 62
     7
 10
642.312909
 20
2067.168637
 11
642.026735
 21
2067.205026
  0
LINE
  8
CSLAYER1
  6
CONTINUOUS
 62
     7
 10
642.026735
 20
2067.205026
 11
641.747179
 21
2067.255583
  0
LINE
  8
CSLAYER1
  6
CONTINUOUS
 62
     7
 10
641.747179
 20
2067.255583
 11
641.476369
 21
2067.319923
  0
LINE
  8
CSLAYER1
  6
CONTINUOUS
 62
     7
 10
641.476369
 20
2067.319923
 11
641.216367
 21
2067.397556
  0
LINE
  8
CSLAYER1
  6
CONTINUOUS
 62
     7
 10
641.216367
 20
2067.397556
 11
640.969150
 21
2067.487891
  0
LINE
  8
CSLAYER1
  6
CONTINUOUS
 62
     7
 10
640.969150
 20
2067.487891
 11
640.736600
 21
2067.590241
  0
LINE
  8
CSLAYER1
  6
CONTINUOUS
 62
     7
 10
640.736600
 20
2067.590241
 11
640.520488
 21
2067.703827
  0
LINE
  8
CSLAYER1
  6
CONTINUOUS
 62
     7
 10
640.520488
 20
2067.703827
 11
640.322457
 21
2067.827784
  0
LINE
  8
CSLAYER1
  6
CONTINUOUS
 62
     7
 10
640.322457
 20
2067.827784
 11
640.144016
 21
2067.961169
  0
LINE
  8
CSLAYER1
  6
CONTINUOUS
 62
     7
 10
640.144016
 20
2067.961169
 11
639.986521
 21
2068.102966
  0
LINE
  8
CSLAYER1
  6
CONTINUOUS
 62
     7
 10
639.986521
 20
2068.102966
 11
639.851172
 21
2068.252098
  0
LINE
  8
CSLAYER1
  6
CONTINUOUS
 62
     7
 10
639.851172
 20
2068.252098
 11
639.738999
 21
2068.407428
  0
LINE
  8
CSLAYER1
  6
CONTINUOUS
 62
     7
 10
639.738999
 20
2068.407428
 11
639.650856
 21
2068.567774
  0
LINE
  8
CSLAYER1
  6
CONTINUOUS
 62
     7
 10
639.650856
 20
2068.567774
 11
639.587413
 21
2068.731917
  0
LINE
  8
CSLAYER1
  6
CONTINUOUS
 62
     7
 10
639.587413
 20
2068.731917
 11
639.549152
 21
2068.898607
  0
LINE
  8
CSLAYER1
  6
CONTINUOUS
 62
     7
 10
639.549152
 20
2068.898607
 11
639.536367
 21
2069.066575
  0
LINE
  8
CSLAYER1
  6
CONTINUOUS
 62
     7
 10
644.479263
 20
2082.319665
 11
629.975512
 21
2087.598599
  0
LINE
  8
CSLAYER1
  6
CONTINUOUS
 62
     7
 10
644.479263
 20
2082.319665
 11
644.479263
 21
2077.607232
  0
LINE
  8
CSLAYER1
  6
CONTINUOUS
 62
     7
 10
631.765116
 20
2086.947236
 11
636.512367
 21
2089.913647
  0
LINE
  8
CSLAYER1
  6
CONTINUOUS
 62
     7
 10
644.479263
 20
2081.119727
 11
651.712172
 21
2085.639350
  0
LINE
  8
CSLAYER1
  6
CONTINUOUS
 62
     7
 10
644.479263
 20
2078.697918
 11
651.048433
 21
2082.802791
  0
ARC
  8
CSLAYER1
  6
CONTINUOUS
 62
     7
 10
645.301052
 20
2082.109512
 40
7.403380
 50
30.339165
 51
57.486408
  0
ARC
  8
CSLAYER1
  6
CONTINUOUS
 62
     7
 10
646.960374
 20
2085.255309
 40
4.767292
 50
-30.960488
 51
7.154948
  0
ENDBLK
  8
0
  0
BLOCK
  8
CSLAYER1
  2
BLKF0009
 70
   64
 10
0.0
 20
0.0
 30
0.0
  0
CIRCLE
  8
CSLAYER1
  6
CONTINUOUS
 62
     3
 10
1719.879807
 20
1080.252654
 40
8.500000
  0
LINE
  8
CSLAYER1
  6
CONTINUOUS
 62
     3
 10
1724.787284
 20
1088.752654
 11
1714.972330
 21
1088.752654
  0
LINE
  8
CSLAYER1
  6
CONTINUOUS
 62
     3
 10
1714.972330
 20
1088.752654
 11
1710.064852
 21
1080.252654
  0
LINE
  8
CSLAYER1
  6
CONTINUOUS
 62
     3
 10
1710.064852
 20
1080.252654
 11
1714.972330
 21
1071.752654
  0
LINE
  8
CSLAYER1
  6
CONTINUOUS
 62
     3
 10
1714.972330
 20
1071.752654
 11
1724.787284
 21
1071.752654
  0
LINE
  8
CSLAYER1
  6
CONTINUOUS
 62
     3
 10
1724.787284
 20
1071.752654
 11
1729.694762
 21
1080.252654
  0
LINE
  8
CSLAYER1
  6
CONTINUOUS
 62
     3
 10
1729.694762
 20
1080.252654
 11
1724.787284
 21
1088.752654
  0
CIRCLE
  8
CSLAYER1
  6
CONTINUOUS
 62
     4
 10
1719.879807
 20
1080.252654
 40
5.000000
  0
CIRCLE
  8
CSLAYER1
  6
CONTINUOUS
 62
     3
 10
1719.879807
 20
1080.252654
 40
4.300000
  0
POINT
  8
CSLAYER1
 62
     3
 10
1719.879807
 20
1080.252654
  0
ENDBLK
  8
0
  0
BLOCK
  8
CSLAYER1
  2
BLKF0010
 70
   64
 10
0.0
 20
0.0
 30
0.0
  0
POINT
  8
CSLAYER1
 62
     3
 10
1529.327722
 20
816.975417
  0
CIRCLE
  8
CSLAYER1
  6
CONTINUOUS
 62
     3
 10
1529.327722
 20
816.975417
 40
9.500000
  0
LINE
  8
CSLAYER1
  6
CONTINUOUS
 62
     3
 10
1538.827722
 20
822.460245
 11
1529.327722
 21
827.945073
  0
LINE
  8
CSLAYER1
  6
CONTINUOUS
 62
     3
 10
1529.327722
 20
827.945073
 11
1519.827722
 21
822.460245
  0
LINE
  8
CSLAYER1
  6
CONTINUOUS
 62
     3
 10
1519.827722
 20
822.460245
 11
1519.827722
 21
811.490590
  0
LINE
  8
CSLAYER1
  6
CONTINUOUS
 62
     3
 10
1519.827722
 20
811.490590
 11
1529.327722
 21
806.005762
  0
LINE
  8
CSLAYER1
  6
CONTINUOUS
 62
     3
 10
1529.327722
 20
806.005762
 11
1538.827722
 21
811.490590
  0
LINE
  8
CSLAYER1
  6
CONTINUOUS
 62
     3
 10
1538.827722
 20
811.490590
 11
1538.827722
 21
822.460245
  0
POINT
  8
CSLAYER1
 62
     3
 10
1529.327722
 20
816.975417
  0
ENDBLK
  8
0
  0
BLOCK
  8
CSLAYER1
  2
BLKF0011
 70
   64
 10
0.0
 20
0.0
 30
0.0
  0
LINE
  8
CSLAYER1
  6
CONTINUOUS
 62
     3
 10
1548.327722
 20
805.475417
 11
1548.327722
 21
839.475417
  0
LINE
  8
CSLAYER1
  6
CONTINUOUS
 62
     3
 10
1504.327722
 20
805.475417
 11
1554.327722
 21
805.475417
  0
LINE
  8
CSLAYER1
  6
CONTINUOUS
 62
     3
 10
1554.327722
 20
799.475417
 11
1554.327722
 21
805.475417
  0
ENDBLK
  8
0
  0
BLOCK
  8
CSLAYER1
  2
BLKF0012
 70
   64
 10
0.0
 20
0.0
 30
0.0
  0
TEXT
  8
CSLAYER1
 62
     7
 10
1293.831787
 20
1297.165649
 40
40.000000
 41
0.787500
  1
テーブルのズレ
 50
0.000000
 51
0.000000
  7
EASYDRAW_FONT
 72
     5
 11
1503.831787
 21
1297.165649
  0
DIMENSION
  8
CSLAYER1
 62
     3
  2
*D0005
 10
1529.305027
 20
1231.932663
 11
1421.337646
 21
1249.648315
 13
1507.027722
 23
864.275417
 14
1529.305027
 24
1379.453528
  0
INSERT
  8
CSLAYER1
  2
EASYDRAWDIM0006
 10
0.0
 20
0.0
 30
0.0
  0
LINE
  8
CSLAYER1
  6
CONTINUOUS
 62
     5
 10
1616.239989
 20
1022.907172
 11
1459.088413
 21
1115.028926
  0
LINE
  8
CSLAYER1
  6
CONTINUOUS
 62
     5
 10
1616.239989
 20
1022.907172
 11
1587.314166
 21
1030.863101
  0
LINE
  8
CSLAYER1
  6
CONTINUOUS
 62
     5
 10
1616.239989
 20
1022.907172
 11
1595.167456
 21
1044.260119
  0
ENDBLK
  8
0
  0
ENDSEC
  0
SECTION
  2
ENTITIES
  0
LINE
  8
CSLAYER1
  6
CONTINUOUS
 62
     3
 10
192.821653
 20
2452.217859
 11
192.821653
 21
103.670929
  0
LINE
  8
CSLAYER1
  6
CONTINUOUS
 62
     3
 10
3515.394964
 20
2452.217859
 11
192.821653
 21
2452.217859
  0
LINE
  8
CSLAYER1
  6
CONTINUOUS
 62
     3
 10
3515.394964
 20
2452.217859
 11
3515.394964
 21
103.670929
  0
LINE
  8
CSLAYER1
  6
CONTINUOUS
 62
     3
 10
3515.394964
 20
103.670929
 11
192.821653
 21
103.670929
  0
LINE
  8
CSLAYER1
  6
CONTINUOUS
 62
     5
 10
142.821653
 20
1263.670929
 11
92.821653
 21
1263.670929
  0
LINE
  8
CSLAYER1
  6
CONTINUOUS
 62
     5
 10
2715.394964
 20
543.670929
 11
3515.394964
 21
543.670929
  0
LINE
  8
CSLAYER1
  6
CONTINUOUS
 62
     5
 10
2715.394964
 20
183.670929
 11
3515.394964
 21
183.670929
  0
LINE
  8
CSLAYER1
  6
CONTINUOUS
 62
     5
 10
2715.394964
 20
343.670929
 11
3515.394964
 21
343.670929
  0
LINE
  8
CSLAYER1
  6
CONTINUOUS
 62
     5
 10
2715.394964
 20
403.670929
 11
3515.394964
 21
403.670929
  0
LINE
  8
CSLAYER1
  6
CONTINUOUS
 62
     5
 10
2715.394964
 20
463.670929
 11
3515.394964
 21
463.670929
  0
LINE
  8
CSLAYER1
  6
CONTINUOUS
 62
     5
 10
2715.394964
 20
623.670929
 11
3515.394964
 21
623.670929
  0
LINE
  8
CSLAYER1
  6
CONTINUOUS
 62
     5
 10
2715.394964
 20
703.670929
 11
2715.394964
 21
103.670929
  0
LINE
  8
CSLAYER1
  6
CONTINUOUS
 62
     5
 10
2915.394964
 20
703.670929
 11
2915.394964
 21
463.670929
  0
LINE
  8
CSLAYER1
  6
CONTINUOUS
 62
     5
 10
2715.394964
 20
703.670929
 11
3515.394964
 21
703.670929
  0
LINE
  8
CSLAYER1
  6
CONTINUOUS
 62
     5
 10
3215.394964
 20
463.670929
 11
3215.394964
 21
183.670929
  0
TEXT
  8
CSLAYER1
 62
     3
 10
2935.085994
 20
112.233646
 40
59.380363
 41
1.003345
  1
東正車輌株式会社
 50
0.000000
 51
0.000000
  7
EASYDRAW_FONT
 72
     5
 11
3391.858342
 21
112.233646
  0
LINE
  8
CSLAYER1
  6
CONTINUOUS
 62
     5
 10
2965.394964
 20
403.670929
 11
2965.394964
 21
183.670929
  0
TEXT
  8
CSLAYER1
 62
     5
 10
2745.394775
 20
638.670898
 40
50.000000
 41
1.050000
  1
品　名
 50
0.000000
 51
0.000000
  7
EASYDRAW_FONT
 72
     5
 11
2885.394775
 21
638.670898
  0
TEXT
  8
CSLAYER1
 62
     5
 10
2745.394775
 20
558.670898
 40
50.000000
 41
1.050000
  1
型　式
 50
0.000000
 51
0.000000
  7
EASYDRAW_FONT
 72
     5
 11
2885.394775
 21
558.670898
  0
TEXT
  8
CSLAYER1
 62
     5
 10
2720.394775
 20
478.670929
 40
50.000000
 41
1.036364
  1
図面番号
 50
0.000000
 51
0.000000
  7
EASYDRAW_FONT
 72
     5
 11
2910.394775
 21
478.670929
  0
TEXT
  8
CSLAYER1
 62
     5
 10
2745.394775
 20
408.670929
 40
50.000000
 41
0.825000
  1
平成26年01月10日
 50
0.000000
 51
0.000000
  7
EASYDRAW_FONT
 72
     5
 11
3185.394775
 21
408.670929
  0
TEXT
  8
CSLAYER1
 62
     5
 10
3295.394775
 20
408.670929
 40
50.000000
 41
1.050000
  1
Ｂ－４
 50
0.000000
 51
0.000000
  7
EASYDRAW_FONT
 72
     5
 11
3435.394775
 21
408.670929
  0
TEXT
  8
CSLAYER1
 62
     5
 10
2770.394775
 20
348.670929
 40
50.000000
 41
1.050000
  1
検　図
 50
0.000000
 51
0.000000
  7
EASYDRAW_FONT
 72
     5
 11
2910.394775
 21
348.670929
  0
TEXT
  8
CSLAYER1
 62
     5
 10
3020.394775
 20
348.670929
 40
50.000000
 41
1.050000
  1
作　図
 50
0.000000
 51
0.000000
  7
EASYDRAW_FONT
 72
     5
 11
3160.394775
 21
348.670929
  0
TEXT
  8
CSLAYER1
 62
     5
 10
3295.394775
 20
348.670929
 40
50.000000
 41
1.050000
  1
尺　度
 50
0.000000
 51
0.000000
  7
EASYDRAW_FONT
 72
     5
 11
3435.394775
 21
348.670929
  0
TEXT
  8
CSLAYER1
 62
     5
 10
3396.133545
 20
198.156189
 40
50.000000
 41
1.080000
  1
１０
 50
0.000000
 51
0.000000
  7
EASYDRAW_FONT
 72
     5
 11
3486.133545
 21
198.156189
  0
TEXT
  8
CSLAYER1
 62
     5
 10
3375.813965
 20
245.860901
 40
50.000000
 41
1.200000
  1
／
 50
0.000000
 51
0.000000
  7
EASYDRAW_FONT
 72
     5
 11
3415.813965
 21
245.860901
  0
TEXT
  8
CSLAYER1
 62
     5
 10
3345.601074
 20
280.844330
 40
50.000000
 41
1.200000
  1
１
 50
0.000000
 51
0.000000
  7
EASYDRAW_FONT
 72
     5
 11
3385.601074
 21
280.844330
  0
TEXT
  8
CSLAYER1
 62
     3
 10
3055.394775
 20
638.670898
 40
50.000000
 41
0.834783
  1
ゴールドリフター
 50
0.000000
 51
0.000000
  7
EASYDRAW_FONT
 72
     5
 11
3375.394775
 21
638.670898
  0
TEXT
  8
CSLAYER1
 62
     3
 10
2955.394775
 20
558.670898
 40
50.000000
 41
0.821053
  1
GLSH-150-3007
 50
0.000000
 51
0.000000
  7
EASYDRAW_FONT
 72
     5
 11
3475.394775
 21
558.670898
  0
INSERT
  8
CSLAYER1
  2
BLKF0000
 10
0.0
 20
0.0
 30
0.0
  0
LINE
  8
CSLAYER1
  6
CONTINUOUS
 62
     5
 10
3491.394964
 20
2362.217859
 11
2611.394964
 21
2362.217859
  0
LINE
  8
CSLAYER1
  6
CONTINUOUS
 62
     5
 10
3491.394964
 20
2308.884525
 11
2611.394964
 21
2308.884525
  0
LINE
  8
CSLAYER1
  6
CONTINUOUS
 62
     5
 10
3491.394964
 20
2255.551192
 11
2611.394964
 21
2255.551192
  0
LINE
  8
CSLAYER1
  6
CONTINUOUS
 62
     5
 10
3491.394964
 20
2148.884525
 11
2611.394964
 21
2148.884525
  0
LINE
  8
CSLAYER1
  6
CONTINUOUS
 62
     5
 10
3491.394964
 20
2042.217859
 11
2611.394964
 21
2042.217859
  0
LINE
  8
CSLAYER1
  6
CONTINUOUS
 62
     5
 10
3491.394964
 20
1828.884525
 11
2611.394964
 21
1828.884525
  0
LINE
  8
CSLAYER1
  6
CONTINUOUS
 62
     5
 10
3491.394964
 20
1828.884522
 11
2611.394964
 21
1828.884522
  0
LINE
  8
CSLAYER1
  6
CONTINUOUS
 62
     5
 10
3491.394964
 20
1775.551189
 11
2611.394964
 21
1775.551189
  0
TEXT
  8
CSLAYER1
 62
     3
 10
2624.728027
 20
2368.884277
 40
40.000000
 41
0.838235
  1
仕    様
 50
0.000000
 51
0.000000
  7
EASYDRAW_FONT
 72
     5
 11
2814.728027
 21
2368.884277
  0
TEXT
  8
CSLAYER1
 62
     3
 10
2624.728027
 20
2315.551025
 40
40.000000
 41
0.838235
  1
型    式
 50
0.000000
 51
0.000000
  7
EASYDRAW_FONT
 72
     5
 11
2814.728027
 21
2315.551025
  0
TEXT
  8
CSLAYER1
 62
     3
 10
2989.728027
 20
2315.551025
 40
40.000000
 41
0.817105
  1
GLSH-150-3007
 50
0.000000
 51
0.000000
  7
EASYDRAW_FONT
 72
     5
 11
3403.728027
 21
2315.551025
  0
TEXT
  8
CSLAYER1
 62
     3
 10
2624.728027
 20
2262.217773
 40
40.000000
 41
0.859091
  1
均等荷重
 50
0.000000
 51
0.000000
  7
EASYDRAW_FONT
 72
     5
 11
2750.728027
 21
2262.217773
  0
TEXT
  8
CSLAYER1
 62
     3
 10
3416.061279
 20
2262.217773
 40
40.000000
 41
0.930000
  1
ｋｇ
 50
0.000000
 51
0.000000
  7
EASYDRAW_FONT
 72
     5
 11
3478.061279
 21
2262.217773
  0
TEXT
  8
CSLAYER1
 62
     3
 10
2624.728027
 20
2155.551270
 40
40.000000
 41
0.838235
  1
テーブル高サ
 50
0.000000
 51
0.000000
  7
EASYDRAW_FONT
 72
     5
 11
2814.728027
 21
2155.551270
  0
TEXT
  8
CSLAYER1
 62
     3
 10
3416.061279
 20
2155.551270
 40
40.000000
 41
0.930000
  1
ｍｍ
 50
0.000000
 51
0.000000
  7
EASYDRAW_FONT
 72
     5
 11
3478.061279
 21
2155.551270
  0
TEXT
  8
CSLAYER1
 62
     3
 10
2624.728027
 20
2048.884277
 40
40.000000
 41
0.838235
  1
全    長
 50
0.000000
 51
0.000000
  7
EASYDRAW_FONT
 72
     5
 11
2814.728027
 21
2048.884277
  0
TEXT
  8
CSLAYER1
 62
     3
 10
3149.728027
 20
2048.884277
 40
40.000000
 41
0.881250
  1
703
 50
0.000000
 51
0.000000
  7
EASYDRAW_FONT
 72
     5
 11
3243.728027
 21
2048.884277
  0
TEXT
  8
CSLAYER1
 62
     3
 10
3133.728027
 20
1835.550903
 40
40.000000
 41
0.859091
  1
約 28
 50
0.000000
 51
0.000000
  7
EASYDRAW_FONT
 72
     5
 11
3259.728027
 21
1835.550903
  0
TEXT
  8
CSLAYER1
 62
     3
 10
2624.728027
 20
1835.550903
 40
40.000000
 41
0.846429
  1
ポンプ回数
 50
0.000000
 51
0.000000
  7
EASYDRAW_FONT
 72
     5
 11
2782.728027
 21
1835.550903
  0
TEXT
  8
CSLAYER1
 62
     3
 10
2624.728027
 20
1782.217651
 40
40.000000
 41
0.832500
  1
自     重
 50
0.000000
 51
0.000000
  7
EASYDRAW_FONT
 72
     5
 11
2846.728027
 21
1782.217651
  0
TEXT
  8
CSLAYER1
 62
     3
 10
2624.728027
 20
1728.884399
 40
40.000000
 41
0.832500
  1
塗  装  色
 50
0.000000
 51
0.000000
  7
EASYDRAW_FONT
 72
     5
 11
2846.728027
 21
1728.884399
  0
TEXT
  8
CSLAYER1
 62
     3
 10
3149.728027
 20
2262.217773
 40
40.000000
 41
0.881250
  1
150
 50
0.000000
 51
0.000000
  7
EASYDRAW_FONT
 72
     5
 11
3243.728027
 21
2262.217773
  0
TEXT
  8
CSLAYER1
 62
     3
 10
3101.728027
 20
2155.551270
 40
40.000000
 41
0.838235
  1
65～570
 50
0.000000
 51
0.000000
  7
EASYDRAW_FONT
 72
     5
 11
3291.728027
 21
2155.551270
  0
TEXT
  8
CSLAYER1
 62
     3
 10
3416.061279
 20
2048.884277
 40
40.000000
 41
0.930000
  1
ｍｍ
 50
0.000000
 51
0.000000
  7
EASYDRAW_FONT
 72
     5
 11
3478.061279
 21
2048.884277
  0
LINE
  8
CSLAYER1
  6
CONTINUOUS
 62
     5
 10
3491.394964
 20
1988.884525
 11
2611.394964
 21
1988.884525
  0
TEXT
  8
CSLAYER1
 62
     3
 10
2624.728027
 20
1995.550903
 40
40.000000
 41
0.838235
  1
全    幅
 50
0.000000
 51
0.000000
  7
EASYDRAW_FONT
 72
     5
 11
2814.728027
 21
1995.550903
  0
TEXT
  8
CSLAYER1
 62
     3
 10
3149.728027
 20
1995.550903
 40
40.000000
 41
0.881250
  1
300
 50
0.000000
 51
0.000000
  7
EASYDRAW_FONT
 72
     5
 11
3243.728027
 21
1995.550903
  0
TEXT
  8
CSLAYER1
 62
     3
 10
3416.061279
 20
1995.550903
 40
40.000000
 41
0.930000
  1
ｍｍ
 50
0.000000
 51
0.000000
  7
EASYDRAW_FONT
 72
     5
 11
3478.061279
 21
1995.550903
  0
TEXT
  8
CSLAYER1
 62
     3
 10
3416.061279
 20
1782.217651
 40
40.000000
 41
0.930000
  1
ｋｇ
 50
0.000000
 51
0.000000
  7
EASYDRAW_FONT
 72
     5
 11
3478.061279
 21
1782.217651
  0
LINE
  8
CSLAYER1
  6
CONTINUOUS
 62
     5
 10
3491.394964
 20
2202.217859
 11
2611.394964
 21
2202.217859
  0
TEXT
  8
CSLAYER1
 62
     3
 10
2624.728027
 20
2208.884521
 40
40.000000
 41
0.838235
  1
テーブル寸法
 50
0.000000
 51
0.000000
  7
EASYDRAW_FONT
 72
     5
 11
2814.728027
 21
2208.884521
  0
TEXT
  8
CSLAYER1
 62
     3
 10
3416.061279
 20
2208.884521
 40
40.000000
 41
0.930000
  1
ｍｍ
 50
0.000000
 51
0.000000
  7
EASYDRAW_FONT
 72
     5
 11
3478.061279
 21
2208.884521
  0
TEXT
  8
CSLAYER1
 62
     3
 10
3053.728027
 20
2208.884521
 40
40.000000
 41
0.825000
  1
700L×300W
 50
0.000000
 51
0.000000
  7
EASYDRAW_FONT
 72
     5
 11
3339.728027
 21
2208.884521
  0
LINE
  8
CSLAYER1
  6
CONTINUOUS
 62
     5
 10
3491.394964
 20
2095.551192
 11
2611.394964
 21
2095.551192
  0
TEXT
  8
CSLAYER1
 62
     3
 10
3416.061279
 20
2102.217773
 40
40.000000
 41
0.930000
  1
ｍｍ
 50
0.000000
 51
0.000000
  7
EASYDRAW_FONT
 72
     5
 11
3478.061279
 21
2102.217773
  0
TEXT
  8
CSLAYER1
 62
     3
 10
3149.728027
 20
2102.217773
 40
40.000000
 41
0.881250
  1
505
 50
0.000000
 51
0.000000
  7
EASYDRAW_FONT
 72
     5
 11
3243.728027
 21
2102.217773
  0
TEXT
  8
CSLAYER1
 62
     3
 10
2626.560547
 20
2102.217773
 40
40.000000
 41
0.846429
  1
ストローク
 50
0.000000
 51
0.000000
  7
EASYDRAW_FONT
 72
     5
 11
2784.560547
 21
2102.217773
  0
LINE
  8
CSLAYER1
  6
CONTINUOUS
 62
     5
 10
3491.394964
 20
1935.551192
 11
2611.394964
 21
1935.551192
  0
TEXT
  8
CSLAYER1
 62
     3
 10
2624.728027
 20
1942.217651
 40
40.000000
 41
0.838235
  1
全    高
 50
0.000000
 51
0.000000
  7
EASYDRAW_FONT
 72
     5
 11
2814.728027
 21
1942.217651
  0
TEXT
  8
CSLAYER1
 62
     3
 10
3149.728027
 20
1942.217651
 40
40.000000
 41
0.881250
  1
 65
 50
0.000000
 51
0.000000
  7
EASYDRAW_FONT
 72
     5
 11
3243.728027
 21
1942.217651
  0
TEXT
  8
CSLAYER1
 62
     3
 10
3416.061279
 20
1942.217651
 40
40.000000
 41
0.930000
  1
ｍｍ
 50
0.000000
 51
0.000000
  7
EASYDRAW_FONT
 72
     5
 11
3478.061279
 21
1942.217651
  0
LINE
  8
CSLAYER1
  6
CONTINUOUS
 62
     5
 10
3491.394964
 20
1882.217859
 11
2611.394964
 21
1882.217859
  0
TEXT
  8
CSLAYER1
 62
     3
 10
2624.728027
 20
1888.884277
 40
40.000000
 41
0.846429
  1
リフト方式
 50
0.000000
 51
0.000000
  7
EASYDRAW_FONT
 72
     5
 11
2782.728027
 21
1888.884277
  0
TEXT
  8
CSLAYER1
 62
     3
 10
3117.728027
 20
1888.884277
 40
40.000000
 41
0.846429
  1
足踏油圧式
 50
0.000000
 51
0.000000
  7
EASYDRAW_FONT
 72
     5
 11
3275.728027
 21
1888.884277
  0
LINE
  8
CSLAYER1
  6
CONTINUOUS
 62
     5
 10
2915.394964
 20
1722.217855
 11
2915.394964
 21
2362.217859
  0
TEXT
  8
CSLAYER1
 62
     3
 10
3448.061279
 20
1835.551025
 40
40.000000
 41
1.125000
  1
回
 50
0.000000
 51
0.000000
  7
EASYDRAW_FONT
 72
     5
 11
3478.061279
 21
1835.551025
  0
LINE
  8
CSLAYER2
  6
CONTINUOUS
 62
     5
 10
242.821653
 20
1698.108270
 11
242.821653
 21
2402.217859
  0
LINE
  8
CSLAYER2
  6
CONTINUOUS
 62
     5
 10
1044.115784
 20
2402.217859
 11
242.821653
 21
2402.217859
  0
INSERT
  8
CSLAYER1
  2
BLKF0001
 10
0.0
 20
0.0
 30
0.0
  0
INSERT
  8
CSLAYER1
  2
BLKF0002
 10
0.0
 20
0.0
 30
0.0
  0
LINE
  8
CSLAYER1
  6
CONTINUOUS
 62
     7
 10
671.968756
 20
1840.635648
 11
799.495053
 21
1982.656408
  0
LINE
  8
CSLAYER1
  6
CONTINUOUS
 62
     7
 10
448.792864
 20
1928.453667
 11
634.164635
 21
1997.492646
  0
LINE
  8
CSLAYER1
  6
CONTINUOUS
 62
     7
 10
453.858445
 20
1914.498934
 11
673.321102
 21
1996.234560
  0
LINE
  8
CSLAYER1
  6
CONTINUOUS
 62
     7
 10
660.361989
 20
1850.527536
 11
752.123874
 21
1952.718951
  0
LINE
  8
CSLAYER1
  6
CONTINUOUS
 62
     7
 10
782.639005
 20
2129.769930
 11
782.639005
 21
2024.373673
  0
LINE
  8
CSLAYER1
  6
CONTINUOUS
 62
     7
 10
782.639005
 20
2129.769930
 11
662.659051
 21
2173.439062
  0
LINE
  8
CSLAYER1
  6
CONTINUOUS
 62
     7
 10
754.144589
 20
1946.079238
 11
782.639005
 21
1963.884525
  0
LINE
  8
CSLAYER1
  6
CONTINUOUS
 62
     7
 10
754.144589
 20
2111.964643
 11
754.144589
 21
1946.079238
  0
LINE
  8
CSLAYER1
  6
CONTINUOUS
 62
     7
 10
754.144589
 20
2111.964643
 11
782.639005
 21
2129.769930
  0
LINE
  8
CSLAYER1
  6
CONTINUOUS
 62
     7
 10
663.053196
 20
2169.689025
 11
663.053196
 21
2134.862987
  0
LINE
  8
CSLAYER1
  6
CONTINUOUS
 62
     7
 10
634.164635
 20
2155.633775
 11
662.659051
 21
2173.439062
  0
LINE
  8
CSLAYER1
  6
CONTINUOUS
 62
     7
 10
754.144589
 20
1946.079238
 11
752.123874
 21
1946.814718
  0
LINE
  8
CSLAYER1
  6
CONTINUOUS
 62
     7
 10
752.123874
 20
1971.018286
 11
682.712576
 21
1996.281932
  0
LINE
  8
CSLAYER1
  6
CONTINUOUS
 62
     7
 10
778.794647
 20
2129.365872
 11
662.856123
 21
2171.564044
  0
LINE
  8
CSLAYER1
  6
CONTINUOUS
 62
     7
 10
711.987520
 20
2087.620146
 11
778.794647
 21
2129.365872
  0
LINE
  8
CSLAYER1
  6
CONTINUOUS
 62
     7
 10
754.144589
 20
2111.964643
 11
752.123874
 21
2112.700123
  0
LINE
  8
CSLAYER1
  6
CONTINUOUS
 62
     7
 10
752.123874
 20
2112.700123
 11
752.123874
 21
1971.018286
  0
LINE
  8
CSLAYER1
  6
CONTINUOUS
 62
     7
 10
634.164635
 20
2155.633775
 11
634.164635
 21
2153.635612
  0
LINE
  8
CSLAYER1
  6
CONTINUOUS
 62
     7
 10
634.164635
 20
2155.633775
 11
662.659051
 21
2173.439062
  0
LINE
  8
CSLAYER1
  6
CONTINUOUS
 62
     7
 10
636.185350
 20
2154.898295
 11
662.856123
 21
2171.564044
  0
LINE
  8
CSLAYER1
  6
CONTINUOUS
 62
     7
 10
636.185350
 20
2154.898295
 11
634.164635
 21
2155.633775
  0
LINE
  8
CSLAYER1
  6
CONTINUOUS
 62
     7
 10
636.185350
 20
1986.843341
 11
652.638556
 21
1997.124445
  0
LINE
  8
CSLAYER1
  6
CONTINUOUS
 62
     7
 10
709.966805
 20
2088.355626
 11
774.950290
 21
2128.961814
  0
LINE
  8
CSLAYER1
  6
CONTINUOUS
 62
     7
 10
708.387334
 20
2085.506184
 11
708.387334
 21
2018.420428
  0
LINE
  8
CSLAYER1
  6
CONTINUOUS
 62
     7
 10
710.408049
 20
2084.770704
 11
710.408049
 21
2018.774783
  0
LINE
  8
CSLAYER1
  6
CONTINUOUS
 62
     7
 10
774.950290
 20
2128.961814
 11
758.026801
 21
2135.121460
  0
LINE
  8
CSLAYER1
  6
CONTINUOUS
 62
     7
 10
708.387334
 20
2086.826303
 11
599.339682
 21
2126.516403
  0
LINE
  8
CSLAYER1
  6
CONTINUOUS
 62
     7
 10
708.387334
 20
2019.626303
 11
674.907121
 21
2031.812104
  0
LINE
  8
CSLAYER1
  6
CONTINUOUS
 62
     7
 10
599.649182
 20
2130.069800
 11
663.053196
 21
2169.689025
  0
LINE
  8
CSLAYER1
  6
CONTINUOUS
 62
     7
 10
597.628467
 20
2130.805281
 11
634.164635
 21
2153.635612
  0
LINE
  8
CSLAYER1
  6
CONTINUOUS
 62
     7
 10
594.469525
 20
2125.106397
 11
594.469525
 21
2059.251316
  0
LINE
  8
CSLAYER1
  6
CONTINUOUS
 62
     7
 10
596.490240
 20
2124.370917
 11
596.490240
 21
2060.237474
  0
LINE
  8
CSLAYER1
  6
CONTINUOUS
 62
     7
 10
599.339682
 20
2126.516403
 11
599.339682
 21
2059.316403
  0
LINE
  8
CSLAYER1
  6
CONTINUOUS
 62
     7
 10
599.339682
 20
2126.516403
 11
631.232020
 21
2146.444947
  0
LINE
  8
CSLAYER1
  6
CONTINUOUS
 62
     7
 10
739.731191
 20
2106.954479
 11
631.232020
 21
2146.444947
  0
LINE
  8
CSLAYER1
  6
CONTINUOUS
 62
     7
 10
715.548577
 20
2015.925341
 11
752.123874
 21
2038.780123
  0
LINE
  8
CSLAYER1
  6
CONTINUOUS
 62
     7
 10
712.390058
 20
2015.711291
 11
709.334632
 21
2016.823375
  0
LINE
  8
CSLAYER1
  6
CONTINUOUS
 62
     7
 10
658.406135
 20
1995.025218
 11
635.447161
 21
2003.381602
  0
LINE
  8
CSLAYER1
  6
CONTINUOUS
 62
     7
 10
658.406135
 20
1995.025218
 11
662.302814
 21
1997.460134
  0
LINE
  8
CSLAYER1
  6
CONTINUOUS
 62
     7
 10
642.508044
 20
2041.658033
 11
643.793195
 21
2042.461085
  0
LINE
  8
CSLAYER1
  6
CONTINUOUS
 62
     7
 10
650.350160
 20
2028.840091
 11
651.755720
 21
2029.718383
  0
LINE
  8
CSLAYER1
  6
CONTINUOUS
 62
     7
 10
643.793195
 20
2042.461085
 11
644.126852
 21
2042.635866
  0
LINE
  8
CSLAYER1
  6
CONTINUOUS
 62
     7
 10
644.126852
 20
2042.635866
 11
644.488270
 21
2042.760826
  0
LINE
  8
CSLAYER1
  6
CONTINUOUS
 62
     7
 10
644.488270
 20
2042.760826
 11
644.874697
 21
2042.835015
  0
LINE
  8
CSLAYER1
  6
CONTINUOUS
 62
     7
 10
644.874697
 20
2042.835015
 11
645.283193
 21
2042.857869
  0
LINE
  8
CSLAYER1
  6
CONTINUOUS
 62
     7
 10
645.283193
 20
2042.857869
 11
645.710649
 21
2042.829213
  0
LINE
  8
CSLAYER1
  6
CONTINUOUS
 62
     7
 10
645.710649
 20
2042.829213
 11
646.153812
 21
2042.749265
  0
LINE
  8
CSLAYER1
  6
CONTINUOUS
 62
     7
 10
646.153812
 20
2042.749265
 11
646.609309
 21
2042.618635
  0
LINE
  8
CSLAYER1
  6
CONTINUOUS
 62
     7
 10
646.609309
 20
2042.618635
 11
647.073674
 21
2042.438315
  0
LINE
  8
CSLAYER1
  6
CONTINUOUS
 62
     7
 10
647.073674
 20
2042.438315
 11
647.543372
 21
2042.209679
  0
LINE
  8
CSLAYER1
  6
CONTINUOUS
 62
     7
 10
647.543372
 20
2042.209679
 11
648.014828
 21
2041.934467
  0
LINE
  8
CSLAYER1
  6
CONTINUOUS
 62
     7
 10
648.014828
 20
2041.934467
 11
648.484455
 21
2041.614772
  0
LINE
  8
CSLAYER1
  6
CONTINUOUS
 62
     7
 10
648.484455
 20
2041.614772
 11
648.948679
 21
2041.253029
  0
LINE
  8
CSLAYER1
  6
CONTINUOUS
 62
     7
 10
648.948679
 20
2041.253029
 11
649.403966
 21
2040.851990
  0
LINE
  8
CSLAYER1
  6
CONTINUOUS
 62
     7
 10
649.403966
 20
2040.851990
 11
649.846852
 21
2040.414707
  0
LINE
  8
CSLAYER1
  6
CONTINUOUS
 62
     7
 10
649.846852
 20
2040.414707
 11
650.273966
 21
2039.944509
  0
LINE
  8
CSLAYER1
  6
CONTINUOUS
 62
     7
 10
650.273966
 20
2039.944509
 11
650.682056
 21
2039.444973
  0
LINE
  8
CSLAYER1
  6
CONTINUOUS
 62
     7
 10
650.682056
 20
2039.444973
 11
651.068019
 21
2038.919902
  0
LINE
  8
CSLAYER1
  6
CONTINUOUS
 62
     7
 10
651.068019
 20
2038.919902
 11
651.428915
 21
2038.373292
  0
LINE
  8
CSLAYER1
  6
CONTINUOUS
 62
     7
 10
651.428915
 20
2038.373292
 11
651.761998
 21
2037.809303
  0
LINE
  8
CSLAYER1
  6
CONTINUOUS
 62
     7
 10
651.761998
 20
2037.809303
 11
652.064734
 21
2037.232226
  0
LINE
  8
CSLAYER1
  6
CONTINUOUS
 62
     7
 10
652.064734
 20
2037.232226
 11
652.334819
 21
2036.646455
  0
LINE
  8
CSLAYER1
  6
CONTINUOUS
 62
     7
 10
652.334819
 20
2036.646455
 11
652.570196
 21
2036.056446
  0
LINE
  8
CSLAYER1
  6
CONTINUOUS
 62
     7
 10
652.570196
 20
2036.056446
 11
652.769075
 21
2035.466691
  0
LINE
  8
CSLAYER1
  6
CONTINUOUS
 62
     7
 10
652.769075
 20
2035.466691
 11
652.929941
 21
2034.881678
  0
LINE
  8
CSLAYER1
  6
CONTINUOUS
 62
     7
 10
652.929941
 20
2034.881678
 11
653.051572
 21
2034.305858
  0
LINE
  8
CSLAYER1
  6
CONTINUOUS
 62
     7
 10
653.051572
 20
2034.305858
 11
653.133040
 21
2033.743615
  0
LINE
  8
CSLAYER1
  6
CONTINUOUS
 62
     7
 10
653.133040
 20
2033.743615
 11
653.173727
 21
2033.199228
  0
LINE
  8
CSLAYER1
  6
CONTINUOUS
 62
     7
 10
653.173727
 20
2033.199228
 11
653.173321
 21
2032.676839
  0
LINE
  8
CSLAYER1
  6
CONTINUOUS
 62
     7
 10
653.173321
 20
2032.676839
 11
653.131827
 21
2032.180424
  0
LINE
  8
CSLAYER1
  6
CONTINUOUS
 62
     7
 10
653.131827
 20
2032.180424
 11
653.049560
 21
2031.713761
  0
LINE
  8
CSLAYER1
  6
CONTINUOUS
 62
     7
 10
653.049560
 20
2031.713761
 11
652.927147
 21
2031.280402
  0
LINE
  8
CSLAYER1
  6
CONTINUOUS
 62
     7
 10
652.927147
 20
2031.280402
 11
652.765518
 21
2030.883645
  0
LINE
  8
CSLAYER1
  6
CONTINUOUS
 62
     7
 10
652.765518
 20
2030.883645
 11
652.565905
 21
2030.526509
  0
LINE
  8
CSLAYER1
  6
CONTINUOUS
 62
     7
 10
652.565905
 20
2030.526509
 11
652.329825
 21
2030.211713
  0
LINE
  8
CSLAYER1
  6
CONTINUOUS
 62
     7
 10
652.329825
 20
2030.211713
 11
652.059077
 21
2029.941653
  0
LINE
  8
CSLAYER1
  6
CONTINUOUS
 62
     7
 10
652.059077
 20
2029.941653
 11
651.755720
 21
2029.718383
  0
LINE
  8
CSLAYER1
  6
CONTINUOUS
 62
     7
 10
642.523939
 20
2041.654194
 11
642.721292
 21
2041.757574
  0
LINE
  8
CSLAYER1
  6
CONTINUOUS
 62
     7
 10
642.721292
 20
2041.757574
 11
643.082709
 21
2041.882534
  0
LINE
  8
CSLAYER1
  6
CONTINUOUS
 62
     7
 10
643.082709
 20
2041.882534
 11
643.469136
 21
2041.956724
  0
LINE
  8
CSLAYER1
  6
CONTINUOUS
 62
     7
 10
643.469136
 20
2041.956724
 11
643.877632
 21
2041.979577
  0
LINE
  8
CSLAYER1
  6
CONTINUOUS
 62
     7
 10
643.877632
 20
2041.979577
 11
644.305089
 21
2041.950921
  0
LINE
  8
CSLAYER1
  6
CONTINUOUS
 62
     7
 10
644.305089
 20
2041.950921
 11
644.748252
 21
2041.870974
  0
LINE
  8
CSLAYER1
  6
CONTINUOUS
 62
     7
 10
644.748252
 20
2041.870974
 11
645.203749
 21
2041.740343
  0
LINE
  8
CSLAYER1
  6
CONTINUOUS
 62
     7
 10
645.203749
 20
2041.740343
 11
645.668113
 21
2041.560024
  0
LINE
  8
CSLAYER1
  6
CONTINUOUS
 62
     7
 10
645.668113
 20
2041.560024
 11
646.137811
 21
2041.331388
  0
LINE
  8
CSLAYER1
  6
CONTINUOUS
 62
     7
 10
646.137811
 20
2041.331388
 11
646.609268
 21
2041.056175
  0
LINE
  8
CSLAYER1
  6
CONTINUOUS
 62
     7
 10
646.609268
 20
2041.056175
 11
647.078895
 21
2040.736481
  0
LINE
  8
CSLAYER1
  6
CONTINUOUS
 62
     7
 10
647.078895
 20
2040.736481
 11
647.543119
 21
2040.374738
  0
LINE
  8
CSLAYER1
  6
CONTINUOUS
 62
     7
 10
651.727480
 20
2032.865324
 11
651.768166
 21
2032.320936
  0
LINE
  8
CSLAYER1
  6
CONTINUOUS
 62
     7
 10
651.768166
 20
2032.320936
 11
651.767761
 21
2031.798547
  0
LINE
  8
CSLAYER1
  6
CONTINUOUS
 62
     7
 10
651.767761
 20
2031.798547
 11
651.726267
 21
2031.302132
  0
LINE
  8
CSLAYER1
  6
CONTINUOUS
 62
     7
 10
651.726267
 20
2031.302132
 11
651.644000
 21
2030.835469
  0
LINE
  8
CSLAYER1
  6
CONTINUOUS
 62
     7
 10
651.644000
 20
2030.835469
 11
651.521587
 21
2030.402110
  0
LINE
  8
CSLAYER1
  6
CONTINUOUS
 62
     7
 10
651.521587
 20
2030.402110
 11
651.359958
 21
2030.005353
  0
LINE
  8
CSLAYER1
  6
CONTINUOUS
 62
     7
 10
651.359958
 20
2030.005353
 11
651.160344
 21
2029.648218
  0
LINE
  8
CSLAYER1
  6
CONTINUOUS
 62
     7
 10
651.160344
 20
2029.648218
 11
650.924265
 21
2029.333422
  0
LINE
  8
CSLAYER1
  6
CONTINUOUS
 62
     7
 10
650.924265
 20
2029.333422
 11
650.653517
 21
2029.063361
  0
LINE
  8
CSLAYER1
  6
CONTINUOUS
 62
     7
 10
650.653517
 20
2029.063361
 11
650.350160
 21
2028.840091
  0
LINE
  8
CSLAYER1
  6
CONTINUOUS
 62
     7
 10
636.185350
 20
1986.843341
 11
634.164635
 21
1987.578821
  0
LINE
  8
CSLAYER1
  6
CONTINUOUS
 62
     7
 10
636.185350
 20
2003.112923
 11
636.185350
 21
1986.843341
  0
LINE
  8
CSLAYER1
  6
CONTINUOUS
 62
     7
 10
634.164635
 20
1998.075058
 11
634.164635
 21
1997.492646
  0
LINE
  8
CSLAYER1
  6
CONTINUOUS
 62
     7
 10
615.791145
 20
2112.883583
 11
616.000053
 21
2112.993016
  0
LINE
  8
CSLAYER1
  6
CONTINUOUS
 62
     7
 10
616.000053
 20
2112.993016
 11
616.226343
 21
2113.071256
  0
LINE
  8
CSLAYER1
  6
CONTINUOUS
 62
     7
 10
616.226343
 20
2113.071256
 11
616.468292
 21
2113.117707
  0
LINE
  8
CSLAYER1
  6
CONTINUOUS
 62
     7
 10
616.468292
 20
2113.117707
 11
616.724059
 21
2113.132016
  0
LINE
  8
CSLAYER1
  6
CONTINUOUS
 62
     7
 10
616.724059
 20
2113.132016
 11
616.991697
 21
2113.114074
  0
LINE
  8
CSLAYER1
  6
CONTINUOUS
 62
     7
 10
616.991697
 20
2113.114074
 11
617.269169
 21
2113.064018
  0
LINE
  8
CSLAYER1
  6
CONTINUOUS
 62
     7
 10
617.269169
 20
2113.064018
 11
617.554364
 21
2112.982227
  0
LINE
  8
CSLAYER1
  6
CONTINUOUS
 62
     7
 10
617.554364
 20
2112.982227
 11
617.845111
 21
2112.869326
  0
LINE
  8
CSLAYER1
  6
CONTINUOUS
 62
     7
 10
617.845111
 20
2112.869326
 11
618.139198
 21
2112.726173
  0
LINE
  8
CSLAYER1
  6
CONTINUOUS
 62
     7
 10
618.139198
 20
2112.726173
 11
618.434385
 21
2112.553858
  0
LINE
  8
CSLAYER1
  6
CONTINUOUS
 62
     7
 10
618.434385
 20
2112.553858
 11
618.728427
 21
2112.353691
  0
LINE
  8
CSLAYER1
  6
CONTINUOUS
 62
     7
 10
618.728427
 20
2112.353691
 11
619.019086
 21
2112.127197
  0
LINE
  8
CSLAYER1
  6
CONTINUOUS
 62
     7
 10
619.019086
 20
2112.127197
 11
619.304150
 21
2111.876099
  0
LINE
  8
CSLAYER1
  6
CONTINUOUS
 62
     7
 10
619.304150
 20
2111.876099
 11
619.581448
 21
2111.602309
  0
LINE
  8
CSLAYER1
  6
CONTINUOUS
 62
     7
 10
619.581448
 20
2111.602309
 11
619.848872
 21
2111.307909
  0
LINE
  8
CSLAYER1
  6
CONTINUOUS
 62
     7
 10
619.848872
 20
2111.307909
 11
620.104385
 21
2110.995141
  0
LINE
  8
CSLAYER1
  6
CONTINUOUS
 62
     7
 10
620.104385
 20
2110.995141
 11
620.346043
 21
2110.666384
  0
LINE
  8
CSLAYER1
  6
CONTINUOUS
 62
     7
 10
620.346043
 20
2110.666384
 11
620.572006
 21
2110.324142
  0
LINE
  8
CSLAYER1
  6
CONTINUOUS
 62
     7
 10
620.572006
 20
2110.324142
 11
620.780556
 21
2109.971018
  0
LINE
  8
CSLAYER1
  6
CONTINUOUS
 62
     7
 10
620.780556
 20
2109.971018
 11
620.970104
 21
2109.609700
  0
LINE
  8
CSLAYER1
  6
CONTINUOUS
 62
     7
 10
620.970104
 20
2109.609700
 11
621.139209
 21
2109.242938
  0
LINE
  8
CSLAYER1
  6
CONTINUOUS
 62
     7
 10
621.139209
 20
2109.242938
 11
621.286583
 21
2108.873523
  0
LINE
  8
CSLAYER1
  6
CONTINUOUS
 62
     7
 10
621.286583
 20
2108.873523
 11
621.411105
 21
2108.504266
  0
LINE
  8
CSLAYER1
  6
CONTINUOUS
 62
     7
 10
621.411105
 20
2108.504266
 11
621.511826
 21
2108.137979
  0
LINE
  8
CSLAYER1
  6
CONTINUOUS
 62
     7
 10
621.511826
 20
2108.137979
 11
621.587981
 21
2107.777448
  0
LINE
  8
CSLAYER1
  6
CONTINUOUS
 62
     7
 10
621.587981
 20
2107.777448
 11
621.638990
 21
2107.425417
  0
LINE
  8
CSLAYER1
  6
CONTINUOUS
 62
     7
 10
621.638990
 20
2107.425417
 11
621.664465
 21
2107.084566
  0
LINE
  8
CSLAYER1
  6
CONTINUOUS
 62
     7
 10
621.664465
 20
2107.084566
 11
621.664211
 21
2106.757489
  0
LINE
  8
CSLAYER1
  6
CONTINUOUS
 62
     7
 10
621.664211
 20
2106.757489
 11
621.638231
 21
2106.446675
  0
LINE
  8
CSLAYER1
  6
CONTINUOUS
 62
     7
 10
621.638231
 20
2106.446675
 11
621.586722
 21
2106.154489
  0
LINE
  8
CSLAYER1
  6
CONTINUOUS
 62
     7
 10
621.586722
 20
2106.154489
 11
621.510077
 21
2105.883155
  0
LINE
  8
CSLAYER1
  6
CONTINUOUS
 62
     7
 10
621.510077
 20
2105.883155
 11
621.408878
 21
2105.634738
  0
LINE
  8
CSLAYER1
  6
CONTINUOUS
 62
     7
 10
621.408878
 20
2105.634738
 11
621.283896
 21
2105.411129
  0
LINE
  8
CSLAYER1
  6
CONTINUOUS
 62
     7
 10
621.283896
 20
2105.411129
 11
621.136083
 21
2105.214030
  0
LINE
  8
CSLAYER1
  6
CONTINUOUS
 62
     7
 10
621.136083
 20
2105.214030
 11
620.966562
 21
2105.044940
  0
LINE
  8
CSLAYER1
  6
CONTINUOUS
 62
     7
 10
620.966562
 20
2105.044940
 11
620.776625
 21
2104.905146
  0
LINE
  8
CSLAYER1
  6
CONTINUOUS
 62
     7
 10
620.776625
 20
2104.905146
 11
620.567716
 21
2104.795713
  0
LINE
  8
CSLAYER1
  6
CONTINUOUS
 62
     7
 10
620.567716
 20
2104.795713
 11
620.341426
 21
2104.717473
  0
LINE
  8
CSLAYER1
  6
CONTINUOUS
 62
     7
 10
620.341426
 20
2104.717473
 11
620.099477
 21
2104.671022
  0
LINE
  8
CSLAYER1
  6
CONTINUOUS
 62
     7
 10
620.099477
 20
2104.671022
 11
619.843711
 21
2104.656713
  0
LINE
  8
CSLAYER1
  6
CONTINUOUS
 62
     7
 10
619.843711
 20
2104.656713
 11
619.576073
 21
2104.674655
  0
LINE
  8
CSLAYER1
  6
CONTINUOUS
 62
     7
 10
619.576073
 20
2104.674655
 11
619.298600
 21
2104.724712
  0
LINE
  8
CSLAYER1
  6
CONTINUOUS
 62
     7
 10
619.298600
 20
2104.724712
 11
619.013405
 21
2104.806502
  0
LINE
  8
CSLAYER1
  6
CONTINUOUS
 62
     7
 10
619.013405
 20
2104.806502
 11
618.722658
 21
2104.919403
  0
LINE
  8
CSLAYER1
  6
CONTINUOUS
 62
     7
 10
618.722658
 20
2104.919403
 11
618.428572
 21
2105.062556
  0
LINE
  8
CSLAYER1
  6
CONTINUOUS
 62
     7
 10
618.428572
 20
2105.062556
 11
618.133384
 21
2105.234872
  0
LINE
  8
CSLAYER1
  6
CONTINUOUS
 62
     7
 10
618.133384
 20
2105.234872
 11
617.839342
 21
2105.435038
  0
LINE
  8
CSLAYER1
  6
CONTINUOUS
 62
     7
 10
617.839342
 20
2105.435038
 11
617.548683
 21
2105.661532
  0
LINE
  8
CSLAYER1
  6
CONTINUOUS
 62
     7
 10
617.548683
 20
2105.661532
 11
617.263620
 21
2105.912630
  0
LINE
  8
CSLAYER1
  6
CONTINUOUS
 62
     7
 10
617.263620
 20
2105.912630
 11
616.986321
 21
2106.186421
  0
LINE
  8
CSLAYER1
  6
CONTINUOUS
 62
     7
 10
616.986321
 20
2106.186421
 11
616.718898
 21
2106.480820
  0
LINE
  8
CSLAYER1
  6
CONTINUOUS
 62
     7
 10
616.718898
 20
2106.480820
 11
616.463385
 21
2106.793589
  0
LINE
  8
CSLAYER1
  6
CONTINUOUS
 62
     7
 10
616.463385
 20
2106.793589
 11
616.221727
 21
2107.122345
  0
LINE
  8
CSLAYER1
  6
CONTINUOUS
 62
     7
 10
616.221727
 20
2107.122345
 11
615.995763
 21
2107.464588
  0
LINE
  8
CSLAYER1
  6
CONTINUOUS
 62
     7
 10
615.995763
 20
2107.464588
 11
615.787214
 21
2107.817712
  0
LINE
  8
CSLAYER1
  6
CONTINUOUS
 62
     7
 10
615.787214
 20
2107.817712
 11
615.597665
 21
2108.179030
  0
LINE
  8
CSLAYER1
  6
CONTINUOUS
 62
     7
 10
615.597665
 20
2108.179030
 11
615.428560
 21
2108.545792
  0
LINE
  8
CSLAYER1
  6
CONTINUOUS
 62
     7
 10
615.428560
 20
2108.545792
 11
615.281186
 21
2108.915207
  0
LINE
  8
CSLAYER1
  6
CONTINUOUS
 62
     7
 10
615.281186
 20
2108.915207
 11
615.156665
 21
2109.284463
  0
LINE
  8
CSLAYER1
  6
CONTINUOUS
 62
     7
 10
615.156665
 20
2109.284463
 11
615.055943
 21
2109.650751
  0
LINE
  8
CSLAYER1
  6
CONTINUOUS
 62
     7
 10
615.055943
 20
2109.650751
 11
614.979788
 21
2110.011282
  0
LINE
  8
CSLAYER1
  6
CONTINUOUS
 62
     7
 10
614.979788
 20
2110.011282
 11
614.928779
 21
2110.363312
  0
LINE
  8
CSLAYER1
  6
CONTINUOUS
 62
     7
 10
614.928779
 20
2110.363312
 11
614.903305
 21
2110.704163
  0
LINE
  8
CSLAYER1
  6
CONTINUOUS
 62
     7
 10
614.903305
 20
2110.704163
 11
614.903559
 21
2111.031240
  0
LINE
  8
CSLAYER1
  6
CONTINUOUS
 62
     7
 10
614.903559
 20
2111.031240
 11
614.929539
 21
2111.342055
  0
LINE
  8
CSLAYER1
  6
CONTINUOUS
 62
     7
 10
614.929539
 20
2111.342055
 11
614.981048
 21
2111.634241
  0
LINE
  8
CSLAYER1
  6
CONTINUOUS
 62
     7
 10
614.981048
 20
2111.634241
 11
615.057693
 21
2111.905574
  0
LINE
  8
CSLAYER1
  6
CONTINUOUS
 62
     7
 10
615.057693
 20
2111.905574
 11
615.158891
 21
2112.153991
  0
LINE
  8
CSLAYER1
  6
CONTINUOUS
 62
     7
 10
615.158891
 20
2112.153991
 11
615.283873
 21
2112.377600
  0
LINE
  8
CSLAYER1
  6
CONTINUOUS
 62
     7
 10
615.283873
 20
2112.377600
 11
615.431687
 21
2112.574700
  0
LINE
  8
CSLAYER1
  6
CONTINUOUS
 62
     7
 10
615.431687
 20
2112.574700
 11
615.601207
 21
2112.743790
  0
LINE
  8
CSLAYER1
  6
CONTINUOUS
 62
     7
 10
615.601207
 20
2112.743790
 11
615.791145
 21
2112.883583
  0
LINE
  8
CSLAYER1
  6
CONTINUOUS
 62
     7
 10
681.800327
 20
2164.668918
 11
681.800327
 21
2128.039589
  0
LINE
  8
CSLAYER1
  6
CONTINUOUS
 62
     7
 10
679.976684
 20
2163.529379
 11
681.800327
 21
2164.668918
  0
LINE
  8
CSLAYER1
  6
CONTINUOUS
 62
     7
 10
679.976684
 20
2163.529379
 11
679.976684
 21
2128.703341
  0
LINE
  8
CSLAYER1
  6
CONTINUOUS
 62
     7
 10
679.976684
 20
2163.529379
 11
663.053196
 21
2169.689025
  0
LINE
  8
CSLAYER1
  6
CONTINUOUS
 62
     7
 10
758.026801
 20
2135.121460
 11
759.850444
 21
2136.260998
  0
LINE
  8
CSLAYER1
  6
CONTINUOUS
 62
     7
 10
758.026801
 20
2135.121460
 11
758.026801
 21
2118.386845
  0
LINE
  8
CSLAYER1
  6
CONTINUOUS
 62
     7
 10
668.539598
 20
2158.490013
 11
668.763428
 21
2158.607263
  0
LINE
  8
CSLAYER1
  6
CONTINUOUS
 62
     7
 10
668.763428
 20
2158.607263
 11
669.005882
 21
2158.691091
  0
LINE
  8
CSLAYER1
  6
CONTINUOUS
 62
     7
 10
669.005882
 20
2158.691091
 11
669.265113
 21
2158.740860
  0
LINE
  8
CSLAYER1
  6
CONTINUOUS
 62
     7
 10
669.265113
 20
2158.740860
 11
669.539149
 21
2158.756191
  0
LINE
  8
CSLAYER1
  6
CONTINUOUS
 62
     7
 10
669.539149
 20
2158.756191
 11
669.825904
 21
2158.736968
  0
LINE
  8
CSLAYER1
  6
CONTINUOUS
 62
     7
 10
669.825904
 20
2158.736968
 11
670.123195
 21
2158.683336
  0
LINE
  8
CSLAYER1
  6
CONTINUOUS
 62
     7
 10
670.123195
 20
2158.683336
 11
670.428761
 21
2158.595703
  0
LINE
  8
CSLAYER1
  6
CONTINUOUS
 62
     7
 10
670.428761
 20
2158.595703
 11
670.740276
 21
2158.474738
  0
LINE
  8
CSLAYER1
  6
CONTINUOUS
 62
     7
 10
670.740276
 20
2158.474738
 11
671.055369
 21
2158.321359
  0
LINE
  8
CSLAYER1
  6
CONTINUOUS
 62
     7
 10
671.055369
 20
2158.321359
 11
671.371641
 21
2158.136736
  0
LINE
  8
CSLAYER1
  6
CONTINUOUS
 62
     7
 10
671.371641
 20
2158.136736
 11
671.686686
 21
2157.922272
  0
LINE
  8
CSLAYER1
  6
CONTINUOUS
 62
     7
 10
671.686686
 20
2157.922272
 11
671.998106
 21
2157.679599
  0
LINE
  8
CSLAYER1
  6
CONTINUOUS
 62
     7
 10
671.998106
 20
2157.679599
 11
672.303532
 21
2157.410566
  0
LINE
  8
CSLAYER1
  6
CONTINUOUS
 62
     7
 10
672.303532
 20
2157.410566
 11
672.600637
 21
2157.117219
  0
LINE
  8
CSLAYER1
  6
CONTINUOUS
 62
     7
 10
672.600637
 20
2157.117219
 11
672.887163
 21
2156.801791
  0
LINE
  8
CSLAYER1
  6
CONTINUOUS
 62
     7
 10
672.887163
 20
2156.801791
 11
673.160927
 21
2156.466682
  0
LINE
  8
CSLAYER1
  6
CONTINUOUS
 62
     7
 10
673.160927
 20
2156.466682
 11
673.419846
 21
2156.114443
  0
LINE
  8
CSLAYER1
  6
CONTINUOUS
 62
     7
 10
673.419846
 20
2156.114443
 11
673.661950
 21
2155.747755
  0
LINE
  8
CSLAYER1
  6
CONTINUOUS
 62
     7
 10
673.661950
 20
2155.747755
 11
673.885396
 21
2155.369407
  0
LINE
  8
CSLAYER1
  6
CONTINUOUS
 62
     7
 10
673.885396
 20
2155.369407
 11
674.088483
 21
2154.982281
  0
LINE
  8
CSLAYER1
  6
CONTINUOUS
 62
     7
 10
674.088483
 20
2154.982281
 11
674.269667
 21
2154.589322
  0
LINE
  8
CSLAYER1
  6
CONTINUOUS
 62
     7
 10
674.269667
 20
2154.589322
 11
674.427568
 21
2154.193520
  0
LINE
  8
CSLAYER1
  6
CONTINUOUS
 62
     7
 10
674.427568
 20
2154.193520
 11
674.560984
 21
2153.797888
  0
LINE
  8
CSLAYER1
  6
CONTINUOUS
 62
     7
 10
674.560984
 20
2153.797888
 11
674.668900
 21
2153.405437
  0
LINE
  8
CSLAYER1
  6
CONTINUOUS
 62
     7
 10
674.668900
 20
2153.405437
 11
674.750494
 21
2153.019154
  0
LINE
  8
CSLAYER1
  6
CONTINUOUS
 62
     7
 10
674.750494
 20
2153.019154
 11
674.805146
 21
2152.641978
  0
LINE
  8
CSLAYER1
  6
CONTINUOUS
 62
     7
 10
674.805146
 20
2152.641978
 11
674.832441
 21
2152.276781
  0
LINE
  8
CSLAYER1
  6
CONTINUOUS
 62
     7
 10
674.832441
 20
2152.276781
 11
674.832169
 21
2151.926341
  0
LINE
  8
CSLAYER1
  6
CONTINUOUS
 62
     7
 10
674.832169
 20
2151.926341
 11
674.804333
 21
2151.593326
  0
LINE
  8
CSLAYER1
  6
CONTINUOUS
 62
     7
 10
674.804333
 20
2151.593326
 11
674.749145
 21
2151.280269
  0
LINE
  8
CSLAYER1
  6
CONTINUOUS
 62
     7
 10
674.749145
 20
2151.280269
 11
674.667025
 21
2150.989554
  0
LINE
  8
CSLAYER1
  6
CONTINUOUS
 62
     7
 10
674.667025
 20
2150.989554
 11
674.558598
 21
2150.723394
  0
LINE
  8
CSLAYER1
  6
CONTINUOUS
 62
     7
 10
674.558598
 20
2150.723394
 11
674.424689
 21
2150.483813
  0
LINE
  8
CSLAYER1
  6
CONTINUOUS
 62
     7
 10
674.424689
 20
2150.483813
 11
674.266317
 21
2150.272635
  0
LINE
  8
CSLAYER1
  6
CONTINUOUS
 62
     7
 10
674.266317
 20
2150.272635
 11
674.084688
 21
2150.091467
  0
LINE
  8
CSLAYER1
  6
CONTINUOUS
 62
     7
 10
674.084688
 20
2150.091467
 11
673.881184
 21
2149.941688
  0
LINE
  8
CSLAYER1
  6
CONTINUOUS
 62
     7
 10
673.881184
 20
2149.941688
 11
673.657353
 21
2149.824438
  0
LINE
  8
CSLAYER1
  6
CONTINUOUS
 62
     7
 10
673.657353
 20
2149.824438
 11
673.414900
 21
2149.740610
  0
LINE
  8
CSLAYER1
  6
CONTINUOUS
 62
     7
 10
673.414900
 20
2149.740610
 11
673.155669
 21
2149.690841
  0
LINE
  8
CSLAYER1
  6
CONTINUOUS
 62
     7
 10
673.155669
 20
2149.690841
 11
672.881633
 21
2149.675510
  0
LINE
  8
CSLAYER1
  6
CONTINUOUS
 62
     7
 10
672.881633
 20
2149.675510
 11
672.594878
 21
2149.694733
  0
LINE
  8
CSLAYER1
  6
CONTINUOUS
 62
     7
 10
672.594878
 20
2149.694733
 11
672.297586
 21
2149.748365
  0
LINE
  8
CSLAYER1
  6
CONTINUOUS
 62
     7
 10
672.297586
 20
2149.748365
 11
671.992020
 21
2149.835998
  0
LINE
  8
CSLAYER1
  6
CONTINUOUS
 62
     7
 10
671.992020
 20
2149.835998
 11
671.680505
 21
2149.956963
  0
LINE
  8
CSLAYER1
  6
CONTINUOUS
 62
     7
 10
671.680505
 20
2149.956963
 11
671.365413
 21
2150.110342
  0
LINE
  8
CSLAYER1
  6
CONTINUOUS
 62
     7
 10
671.365413
 20
2150.110342
 11
671.049140
 21
2150.294965
  0
LINE
  8
CSLAYER1
  6
CONTINUOUS
 62
     7
 10
671.049140
 20
2150.294965
 11
670.734095
 21
2150.509429
  0
LINE
  8
CSLAYER1
  6
CONTINUOUS
 62
     7
 10
670.734095
 20
2150.509429
 11
670.422675
 21
2150.752102
  0
LINE
  8
CSLAYER1
  6
CONTINUOUS
 62
     7
 10
670.422675
 20
2150.752102
 11
670.117250
 21
2151.021135
  0
LINE
  8
CSLAYER1
  6
CONTINUOUS
 62
     7
 10
670.117250
 20
2151.021135
 11
669.820144
 21
2151.314482
  0
LINE
  8
CSLAYER1
  6
CONTINUOUS
 62
     7
 10
669.820144
 20
2151.314482
 11
669.533619
 21
2151.629910
  0
LINE
  8
CSLAYER1
  6
CONTINUOUS
 62
     7
 10
669.533619
 20
2151.629910
 11
669.259855
 21
2151.965019
  0
LINE
  8
CSLAYER1
  6
CONTINUOUS
 62
     7
 10
669.259855
 20
2151.965019
 11
669.000936
 21
2152.317258
  0
LINE
  8
CSLAYER1
  6
CONTINUOUS
 62
     7
 10
669.000936
 20
2152.317258
 11
668.758832
 21
2152.683947
  0
LINE
  8
CSLAYER1
  6
CONTINUOUS
 62
     7
 10
668.758832
 20
2152.683947
 11
668.535386
 21
2153.062294
  0
LINE
  8
CSLAYER1
  6
CONTINUOUS
 62
     7
 10
668.535386
 20
2153.062294
 11
668.332298
 21
2153.449420
  0
LINE
  8
CSLAYER1
  6
CONTINUOUS
 62
     7
 10
668.332298
 20
2153.449420
 11
668.151115
 21
2153.842380
  0
LINE
  8
CSLAYER1
  6
CONTINUOUS
 62
     7
 10
668.151115
 20
2153.842380
 11
667.993214
 21
2154.238181
  0
LINE
  8
CSLAYER1
  6
CONTINUOUS
 62
     7
 10
667.993214
 20
2154.238181
 11
667.859798
 21
2154.633813
  0
LINE
  8
CSLAYER1
  6
CONTINUOUS
 62
     7
 10
667.859798
 20
2154.633813
 11
667.751882
 21
2155.026264
  0
LINE
  8
CSLAYER1
  6
CONTINUOUS
 62
     7
 10
667.751882
 20
2155.026264
 11
667.670287
 21
2155.412547
  0
LINE
  8
CSLAYER1
  6
CONTINUOUS
 62
     7
 10
667.670287
 20
2155.412547
 11
667.615635
 21
2155.789723
  0
LINE
  8
CSLAYER1
  6
CONTINUOUS
 62
     7
 10
667.615635
 20
2155.789723
 11
667.588341
 21
2156.154920
  0
LINE
  8
CSLAYER1
  6
CONTINUOUS
 62
     7
 10
667.588341
 20
2156.154920
 11
667.588613
 21
2156.505360
  0
LINE
  8
CSLAYER1
  6
CONTINUOUS
 62
     7
 10
667.588613
 20
2156.505360
 11
667.616449
 21
2156.838375
  0
LINE
  8
CSLAYER1
  6
CONTINUOUS
 62
     7
 10
667.616449
 20
2156.838375
 11
667.671637
 21
2157.151432
  0
LINE
  8
CSLAYER1
  6
CONTINUOUS
 62
     7
 10
667.671637
 20
2157.151432
 11
667.753757
 21
2157.442147
  0
LINE
  8
CSLAYER1
  6
CONTINUOUS
 62
     7
 10
667.753757
 20
2157.442147
 11
667.862184
 21
2157.708307
  0
LINE
  8
CSLAYER1
  6
CONTINUOUS
 62
     7
 10
667.862184
 20
2157.708307
 11
667.996093
 21
2157.947888
  0
LINE
  8
CSLAYER1
  6
CONTINUOUS
 62
     7
 10
667.996093
 20
2157.947888
 11
668.154464
 21
2158.159066
  0
LINE
  8
CSLAYER1
  6
CONTINUOUS
 62
     7
 10
668.154464
 20
2158.159066
 11
668.336093
 21
2158.340234
  0
LINE
  8
CSLAYER1
  6
CONTINUOUS
 62
     7
 10
668.336093
 20
2158.340234
 11
668.539598
 21
2158.490013
  0
LINE
  8
CSLAYER1
  6
CONTINUOUS
 62
     7
 10
668.539598
 20
2158.490013
 11
670.991156
 21
2160.021917
  0
LINE
  8
CSLAYER1
  6
CONTINUOUS
 62
     7
 10
673.881184
 20
2149.941688
 11
676.332743
 21
2151.473592
  0
LINE
  8
CSLAYER1
  6
CONTINUOUS
 62
     7
 10
671.998106
 20
2157.679599
 11
674.449665
 21
2159.211503
  0
LINE
  8
CSLAYER1
  6
CONTINUOUS
 62
     7
 10
674.541410
 20
2153.855931
 11
676.992969
 21
2155.387835
  0
LINE
  8
CSLAYER1
  6
CONTINUOUS
 62
     7
 10
670.991156
 20
2160.021917
 11
671.214987
 21
2160.139167
  0
LINE
  8
CSLAYER1
  6
CONTINUOUS
 62
     7
 10
671.214987
 20
2160.139167
 11
671.457441
 21
2160.222995
  0
LINE
  8
CSLAYER1
  6
CONTINUOUS
 62
     7
 10
671.457441
 20
2160.222995
 11
671.716672
 21
2160.272764
  0
LINE
  8
CSLAYER1
  6
CONTINUOUS
 62
     7
 10
671.716672
 20
2160.272764
 11
671.990708
 21
2160.288095
  0
LINE
  8
CSLAYER1
  6
CONTINUOUS
 62
     7
 10
671.990708
 20
2160.288095
 11
672.277463
 21
2160.268872
  0
LINE
  8
CSLAYER1
  6
CONTINUOUS
 62
     7
 10
672.277463
 20
2160.268872
 11
672.574754
 21
2160.215240
  0
LINE
  8
CSLAYER1
  6
CONTINUOUS
 62
     7
 10
672.574754
 20
2160.215240
 11
672.880320
 21
2160.127607
  0
LINE
  8
CSLAYER1
  6
CONTINUOUS
 62
     7
 10
672.880320
 20
2160.127607
 11
673.191835
 21
2160.006642
  0
LINE
  8
CSLAYER1
  6
CONTINUOUS
 62
     7
 10
673.191835
 20
2160.006642
 11
673.506928
 21
2159.853263
  0
LINE
  8
CSLAYER1
  6
CONTINUOUS
 62
     7
 10
673.506928
 20
2159.853263
 11
673.823200
 21
2159.668640
  0
LINE
  8
CSLAYER1
  6
CONTINUOUS
 62
     7
 10
673.823200
 20
2159.668640
 11
674.138245
 21
2159.454176
  0
LINE
  8
CSLAYER1
  6
CONTINUOUS
 62
     7
 10
674.138245
 20
2159.454176
 11
674.449665
 21
2159.211503
  0
LINE
  8
CSLAYER1
  6
CONTINUOUS
 62
     7
 10
674.449665
 20
2159.211503
 11
674.755090
 21
2158.942470
  0
LINE
  8
CSLAYER1
  6
CONTINUOUS
 62
     7
 10
674.755090
 20
2158.942470
 11
675.052196
 21
2158.649123
  0
LINE
  8
CSLAYER1
  6
CONTINUOUS
 62
     7
 10
675.052196
 20
2158.649123
 11
675.338721
 21
2158.333695
  0
LINE
  8
CSLAYER1
  6
CONTINUOUS
 62
     7
 10
675.338721
 20
2158.333695
 11
675.612485
 21
2157.998586
  0
LINE
  8
CSLAYER1
  6
CONTINUOUS
 62
     7
 10
675.612485
 20
2157.998586
 11
675.871405
 21
2157.646347
  0
LINE
  8
CSLAYER1
  6
CONTINUOUS
 62
     7
 10
675.871405
 20
2157.646347
 11
676.113508
 21
2157.279658
  0
LINE
  8
CSLAYER1
  6
CONTINUOUS
 62
     7
 10
676.113508
 20
2157.279658
 11
676.336954
 21
2156.901311
  0
LINE
  8
CSLAYER1
  6
CONTINUOUS
 62
     7
 10
676.336954
 20
2156.901311
 11
676.540042
 21
2156.514185
  0
LINE
  8
CSLAYER1
  6
CONTINUOUS
 62
     7
 10
676.540042
 20
2156.514185
 11
676.721226
 21
2156.121225
  0
LINE
  8
CSLAYER1
  6
CONTINUOUS
 62
     7
 10
676.721226
 20
2156.121225
 11
676.879126
 21
2155.725424
  0
LINE
  8
CSLAYER1
  6
CONTINUOUS
 62
     7
 10
676.879126
 20
2155.725424
 11
677.012542
 21
2155.329792
  0
LINE
  8
CSLAYER1
  6
CONTINUOUS
 62
     7
 10
677.012542
 20
2155.329792
 11
677.120458
 21
2154.937341
  0
LINE
  8
CSLAYER1
  6
CONTINUOUS
 62
     7
 10
677.120458
 20
2154.937341
 11
677.202053
 21
2154.551058
  0
LINE
  8
CSLAYER1
  6
CONTINUOUS
 62
     7
 10
677.202053
 20
2154.551058
 11
677.256705
 21
2154.173882
  0
LINE
  8
CSLAYER1
  6
CONTINUOUS
 62
     7
 10
677.256705
 20
2154.173882
 11
677.283999
 21
2153.808685
  0
LINE
  8
CSLAYER1
  6
CONTINUOUS
 62
     7
 10
677.283999
 20
2153.808685
 11
677.283727
 21
2153.458245
  0
LINE
  8
CSLAYER1
  6
CONTINUOUS
 62
     7
 10
677.283727
 20
2153.458245
 11
677.255892
 21
2153.125230
  0
LINE
  8
CSLAYER1
  6
CONTINUOUS
 62
     7
 10
677.255892
 20
2153.125230
 11
677.200704
 21
2152.812173
  0
LINE
  8
CSLAYER1
  6
CONTINUOUS
 62
     7
 10
677.200704
 20
2152.812173
 11
677.118584
 21
2152.521458
  0
LINE
  8
CSLAYER1
  6
CONTINUOUS
 62
     7
 10
677.118584
 20
2152.521458
 11
677.010157
 21
2152.255298
  0
LINE
  8
CSLAYER1
  6
CONTINUOUS
 62
     7
 10
677.010157
 20
2152.255298
 11
676.876248
 21
2152.015717
  0
LINE
  8
CSLAYER1
  6
CONTINUOUS
 62
     7
 10
676.876248
 20
2152.015717
 11
676.717876
 21
2151.804539
  0
LINE
  8
CSLAYER1
  6
CONTINUOUS
 62
     7
 10
676.717876
 20
2151.804539
 11
676.536247
 21
2151.623371
  0
LINE
  8
CSLAYER1
  6
CONTINUOUS
 62
     7
 10
676.536247
 20
2151.623371
 11
676.332743
 21
2151.473592
  0
LINE
  8
CSLAYER1
  6
CONTINUOUS
 62
     7
 10
759.219184
 20
2125.485343
 11
761.670743
 21
2127.017247
  0
LINE
  8
CSLAYER1
  6
CONTINUOUS
 62
     7
 10
762.677693
 20
2124.674929
 11
765.129251
 21
2126.206833
  0
LINE
  8
CSLAYER1
  6
CONTINUOUS
 62
     7
 10
765.220996
 20
2120.851260
 11
767.672555
 21
2122.383164
  0
LINE
  8
CSLAYER1
  6
CONTINUOUS
 62
     7
 10
761.670743
 20
2127.017247
 11
761.894573
 21
2127.134496
  0
LINE
  8
CSLAYER1
  6
CONTINUOUS
 62
     7
 10
761.894573
 20
2127.134496
 11
762.137027
 21
2127.218325
  0
LINE
  8
CSLAYER1
  6
CONTINUOUS
 62
     7
 10
762.137027
 20
2127.218325
 11
762.396258
 21
2127.268094
  0
LINE
  8
CSLAYER1
  6
CONTINUOUS
 62
     7
 10
762.396258
 20
2127.268094
 11
762.670294
 21
2127.283425
  0
LINE
  8
CSLAYER1
  6
CONTINUOUS
 62
     7
 10
762.670294
 20
2127.283425
 11
762.957049
 21
2127.264202
  0
LINE
  8
CSLAYER1
  6
CONTINUOUS
 62
     7
 10
762.957049
 20
2127.264202
 11
763.254340
 21
2127.210569
  0
LINE
  8
CSLAYER1
  6
CONTINUOUS
 62
     7
 10
763.254340
 20
2127.210569
 11
763.559906
 21
2127.122937
  0
LINE
  8
CSLAYER1
  6
CONTINUOUS
 62
     7
 10
763.559906
 20
2127.122937
 11
763.871421
 21
2127.001972
  0
LINE
  8
CSLAYER1
  6
CONTINUOUS
 62
     7
 10
763.871421
 20
2127.001972
 11
764.186514
 21
2126.848593
  0
LINE
  8
CSLAYER1
  6
CONTINUOUS
 62
     7
 10
764.186514
 20
2126.848593
 11
764.502786
 21
2126.663969
  0
LINE
  8
CSLAYER1
  6
CONTINUOUS
 62
     7
 10
764.502786
 20
2126.663969
 11
764.817831
 21
2126.449505
  0
LINE
  8
CSLAYER1
  6
CONTINUOUS
 62
     7
 10
764.817831
 20
2126.449505
 11
765.129251
 21
2126.206833
  0
LINE
  8
CSLAYER1
  6
CONTINUOUS
 62
     7
 10
765.129251
 20
2126.206833
 11
765.434677
 21
2125.937800
  0
LINE
  8
CSLAYER1
  6
CONTINUOUS
 62
     7
 10
765.434677
 20
2125.937800
 11
765.731782
 21
2125.644453
  0
LINE
  8
CSLAYER1
  6
CONTINUOUS
 62
     7
 10
765.731782
 20
2125.644453
 11
766.018308
 21
2125.329025
  0
LINE
  8
CSLAYER1
  6
CONTINUOUS
 62
     7
 10
766.018308
 20
2125.329025
 11
766.292072
 21
2124.993916
  0
LINE
  8
CSLAYER1
  6
CONTINUOUS
 62
     7
 10
766.292072
 20
2124.993916
 11
766.550991
 21
2124.641677
  0
LINE
  8
CSLAYER1
  6
CONTINUOUS
 62
     7
 10
766.550991
 20
2124.641677
 11
766.793095
 21
2124.274988
  0
LINE
  8
CSLAYER1
  6
CONTINUOUS
 62
     7
 10
766.793095
 20
2124.274988
 11
766.970116
 21
2123.975248
  0
LINE
  8
CSLAYER1
  6
CONTINUOUS
 62
     7
 10
759.219184
 20
2125.485343
 11
759.443014
 21
2125.602592
  0
LINE
  8
CSLAYER1
  6
CONTINUOUS
 62
     7
 10
759.443014
 20
2125.602592
 11
759.685468
 21
2125.686421
  0
LINE
  8
CSLAYER1
  6
CONTINUOUS
 62
     7
 10
759.685468
 20
2125.686421
 11
759.944699
 21
2125.736190
  0
LINE
  8
CSLAYER1
  6
CONTINUOUS
 62
     7
 10
759.944699
 20
2125.736190
 11
760.218735
 21
2125.751521
  0
LINE
  8
CSLAYER1
  6
CONTINUOUS
 62
     7
 10
760.218735
 20
2125.751521
 11
760.505490
 21
2125.732298
  0
LINE
  8
CSLAYER1
  6
CONTINUOUS
 62
     7
 10
760.505490
 20
2125.732298
 11
760.802782
 21
2125.678666
  0
LINE
  8
CSLAYER1
  6
CONTINUOUS
 62
     7
 10
760.802782
 20
2125.678666
 11
761.108348
 21
2125.591033
  0
LINE
  8
CSLAYER1
  6
CONTINUOUS
 62
     7
 10
761.108348
 20
2125.591033
 11
761.419862
 21
2125.470068
  0
LINE
  8
CSLAYER1
  6
CONTINUOUS
 62
     7
 10
761.419862
 20
2125.470068
 11
761.734955
 21
2125.316689
  0
LINE
  8
CSLAYER1
  6
CONTINUOUS
 62
     7
 10
761.734955
 20
2125.316689
 11
762.051227
 21
2125.132065
  0
LINE
  8
CSLAYER1
  6
CONTINUOUS
 62
     7
 10
762.051227
 20
2125.132065
 11
762.366272
 21
2124.917601
  0
LINE
  8
CSLAYER1
  6
CONTINUOUS
 62
     7
 10
762.366272
 20
2124.917601
 11
762.677693
 21
2124.674929
  0
LINE
  8
CSLAYER1
  6
CONTINUOUS
 62
     7
 10
762.677693
 20
2124.674929
 11
762.983118
 21
2124.405896
  0
LINE
  8
CSLAYER1
  6
CONTINUOUS
 62
     7
 10
762.983118
 20
2124.405896
 11
763.280224
 21
2124.112549
  0
LINE
  8
CSLAYER1
  6
CONTINUOUS
 62
     7
 10
763.280224
 20
2124.112549
 11
763.566749
 21
2123.797121
  0
LINE
  8
CSLAYER1
  6
CONTINUOUS
 62
     7
 10
763.566749
 20
2123.797121
 11
763.840513
 21
2123.462012
  0
LINE
  8
CSLAYER1
  6
CONTINUOUS
 62
     7
 10
763.840513
 20
2123.462012
 11
764.099432
 21
2123.109773
  0
LINE
  8
CSLAYER1
  6
CONTINUOUS
 62
     7
 10
764.099432
 20
2123.109773
 11
764.341536
 21
2122.743084
  0
LINE
  8
CSLAYER1
  6
CONTINUOUS
 62
     7
 10
764.341536
 20
2122.743084
 11
764.518558
 21
2122.443344
  0
LINE
  8
CSLAYER1
  6
CONTINUOUS
 62
     7
 10
759.630221
 20
2119.388773
 11
759.438418
 21
2119.679276
  0
LINE
  8
CSLAYER1
  6
CONTINUOUS
 62
     7
 10
759.438418
 20
2119.679276
 11
759.214972
 21
2120.057623
  0
LINE
  8
CSLAYER1
  6
CONTINUOUS
 62
     7
 10
759.214972
 20
2120.057623
 11
759.011884
 21
2120.444750
  0
LINE
  8
CSLAYER1
  6
CONTINUOUS
 62
     7
 10
759.011884
 20
2120.444750
 11
758.830701
 21
2120.837709
  0
LINE
  8
CSLAYER1
  6
CONTINUOUS
 62
     7
 10
758.830701
 20
2120.837709
 11
758.672800
 21
2121.233511
  0
LINE
  8
CSLAYER1
  6
CONTINUOUS
 62
     7
 10
758.672800
 20
2121.233511
 11
758.539384
 21
2121.629143
  0
LINE
  8
CSLAYER1
  6
CONTINUOUS
 62
     7
 10
758.539384
 20
2121.629143
 11
758.431468
 21
2122.021594
  0
LINE
  8
CSLAYER1
  6
CONTINUOUS
 62
     7
 10
758.431468
 20
2122.021594
 11
758.349873
 21
2122.407877
  0
LINE
  8
CSLAYER1
  6
CONTINUOUS
 62
     7
 10
758.349873
 20
2122.407877
 11
758.295221
 21
2122.785052
  0
LINE
  8
CSLAYER1
  6
CONTINUOUS
 62
     7
 10
758.295221
 20
2122.785052
 11
758.267927
 21
2123.150250
  0
LINE
  8
CSLAYER1
  6
CONTINUOUS
 62
     7
 10
758.267927
 20
2123.150250
 11
758.268199
 21
2123.500690
  0
LINE
  8
CSLAYER1
  6
CONTINUOUS
 62
     7
 10
758.268199
 20
2123.500690
 11
758.296035
 21
2123.833705
  0
LINE
  8
CSLAYER1
  6
CONTINUOUS
 62
     7
 10
758.296035
 20
2123.833705
 11
758.351223
 21
2124.146762
  0
LINE
  8
CSLAYER1
  6
CONTINUOUS
 62
     7
 10
758.351223
 20
2124.146762
 11
758.433343
 21
2124.437476
  0
LINE
  8
CSLAYER1
  6
CONTINUOUS
 62
     7
 10
758.433343
 20
2124.437476
 11
758.541770
 21
2124.703637
  0
LINE
  8
CSLAYER1
  6
CONTINUOUS
 62
     7
 10
758.541770
 20
2124.703637
 11
758.675679
 21
2124.943218
  0
LINE
  8
CSLAYER1
  6
CONTINUOUS
 62
     7
 10
758.675679
 20
2124.943218
 11
758.834050
 21
2125.154396
  0
LINE
  8
CSLAYER1
  6
CONTINUOUS
 62
     7
 10
758.834050
 20
2125.154396
 11
759.015680
 21
2125.335564
  0
LINE
  8
CSLAYER1
  6
CONTINUOUS
 62
     7
 10
759.015680
 20
2125.335564
 11
759.219184
 21
2125.485343
  0
ARC
  8
CSLAYER1
  6
CONTINUOUS
 62
     7
 10
603.210240
 20
2124.370917
 40
6.720000
 50
122.000000
 51
180.000000
  0
ARC
  8
CSLAYER1
  6
CONTINUOUS
 62
     7
 10
601.189525
 20
2125.106397
 40
6.720000
 50
122.000000
 51
180.000000
  0
ARC
  8
CSLAYER1
  6
CONTINUOUS
 62
     7
 10
599.850240
 20
2060.237474
 40
3.360000
 50
256.943959
 51
302.000000
  0
ARC
  8
CSLAYER1
  6
CONTINUOUS
 62
     7
 10
597.581501
 20
2060.518282
 40
3.360000
 50
202.152506
 51
217.167534
  0
LINE
  8
CSLAYER1
  6
CONTINUOUS
 62
     7
 10
599.091203
 20
2056.964332
 11
594.904010
 21
2058.488345
  0
ARC
  8
CSLAYER1
  6
CONTINUOUS
 62
     7
 10
713.768049
 20
2084.770704
 40
3.360000
 50
122.000000
 51
180.000000
  0
ARC
  8
CSLAYER1
  6
CONTINUOUS
 62
     7
 10
711.747334
 20
2085.506184
 40
3.360000
 50
122.000000
 51
180.000000
  0
ARC
  8
CSLAYER1
  6
CONTINUOUS
 62
     7
 10
713.768049
 20
2018.774783
 40
3.360000
 50
180.000000
 51
302.000000
  0
ARC
  8
CSLAYER1
  6
CONTINUOUS
 62
     7
 10
711.638336
 20
2019.269299
 40
3.360000
 50
194.633804
 51
226.715114
  0
LINE
  8
CSLAYER1
  6
CONTINUOUS
 62
     7
 10
634.164635
 20
2153.635612
 11
662.856123
 21
2171.564044
  0
LINE
  8
CSLAYER1
  6
CONTINUOUS
 62
     7
 10
602.737604
 20
2058.079660
 11
599.339682
 21
2059.316403
  0
ARC
  8
CSLAYER1
  6
CONTINUOUS
 62
     7
 10
599.850240
 20
2060.237474
 40
3.360000
 50
180.000000
 51
256.943959
  0
LINE
  8
CSLAYER1
  6
CONTINUOUS
 62
     7
 10
634.164635
 20
2003.848403
 11
634.164635
 21
1987.578821
  0
LINE
  8
CSLAYER1
  6
CONTINUOUS
 62
     7
 10
389.893707
 20
1908.310229
 11
390.331678
 21
1908.432900
  0
LINE
  8
CSLAYER1
  6
CONTINUOUS
 62
     7
 10
390.331678
 20
1908.432900
 11
390.789929
 21
1908.489758
  0
LINE
  8
CSLAYER1
  6
CONTINUOUS
 62
     7
 10
390.789929
 20
1908.489758
 11
391.264974
 21
1908.480370
  0
LINE
  8
CSLAYER1
  6
CONTINUOUS
 62
     7
 10
391.264974
 20
1908.480370
 11
391.753197
 21
1908.404807
  0
LINE
  8
CSLAYER1
  6
CONTINUOUS
 62
     7
 10
391.753197
 20
1908.404807
 11
392.250883
 21
1908.263645
  0
LINE
  8
CSLAYER1
  6
CONTINUOUS
 62
     7
 10
392.250883
 20
1908.263645
 11
392.754243
 21
1908.057958
  0
LINE
  8
CSLAYER1
  6
CONTINUOUS
 62
     7
 10
392.754243
 20
1908.057958
 11
393.259447
 21
1907.789312
  0
LINE
  8
CSLAYER1
  6
CONTINUOUS
 62
     7
 10
393.259447
 20
1907.789312
 11
393.762650
 21
1907.459750
  0
LINE
  8
CSLAYER1
  6
CONTINUOUS
 62
     7
 10
393.762650
 20
1907.459750
 11
394.260022
 21
1907.071782
  0
LINE
  8
CSLAYER1
  6
CONTINUOUS
 62
     7
 10
394.260022
 20
1907.071782
 11
394.747778
 21
1906.628359
  0
LINE
  8
CSLAYER1
  6
CONTINUOUS
 62
     7
 10
394.747778
 20
1906.628359
 11
395.222206
 21
1906.132857
  0
LINE
  8
CSLAYER1
  6
CONTINUOUS
 62
     7
 10
395.222206
 20
1906.132857
 11
395.679695
 21
1905.589046
  0
LINE
  8
CSLAYER1
  6
CONTINUOUS
 62
     7
 10
395.679695
 20
1905.589046
 11
396.116764
 21
1905.001065
  0
LINE
  8
CSLAYER1
  6
CONTINUOUS
 62
     7
 10
396.116764
 20
1905.001065
 11
396.530085
 21
1904.373390
  0
LINE
  8
CSLAYER1
  6
CONTINUOUS
 62
     7
 10
396.530085
 20
1904.373390
 11
396.916514
 21
1903.710797
  0
LINE
  8
CSLAYER1
  6
CONTINUOUS
 62
     7
 10
396.916514
 20
1903.710797
 11
397.273109
 21
1903.018329
  0
LINE
  8
CSLAYER1
  6
CONTINUOUS
 62
     7
 10
397.273109
 20
1903.018329
 11
397.597157
 21
1902.301255
  0
LINE
  8
CSLAYER1
  6
CONTINUOUS
 62
     7
 10
397.597157
 20
1902.301255
 11
397.886191
 21
1901.565034
  0
LINE
  8
CSLAYER1
  6
CONTINUOUS
 62
     7
 10
397.886191
 20
1901.565034
 11
398.138012
 21
1900.815269
  0
LINE
  8
CSLAYER1
  6
CONTINUOUS
 62
     7
 10
398.138012
 20
1900.815269
 11
398.350703
 21
1900.057665
  0
LINE
  8
CSLAYER1
  6
CONTINUOUS
 62
     7
 10
398.350703
 20
1900.057665
 11
398.522645
 21
1899.297988
  0
LINE
  8
CSLAYER1
  6
CONTINUOUS
 62
     7
 10
398.522645
 20
1899.297988
 11
398.652530
 21
1898.542021
  0
LINE
  8
CSLAYER1
  6
CONTINUOUS
 62
     7
 10
398.652530
 20
1898.542021
 11
398.739369
 21
1897.795516
  0
LINE
  8
CSLAYER1
  6
CONTINUOUS
 62
     7
 10
398.739369
 20
1897.795516
 11
398.782502
 21
1897.064154
  0
LINE
  8
CSLAYER1
  6
CONTINUOUS
 62
     7
 10
398.782502
 20
1897.064154
 11
398.781600
 21
1896.353503
  0
LINE
  8
CSLAYER1
  6
CONTINUOUS
 62
     7
 10
398.781600
 20
1896.353503
 11
398.736670
 21
1895.668970
  0
LINE
  8
CSLAYER1
  6
CONTINUOUS
 62
     7
 10
398.736670
 20
1895.668970
 11
398.648053
 21
1895.015765
  0
LINE
  8
CSLAYER1
  6
CONTINUOUS
 62
     7
 10
398.648053
 20
1895.015765
 11
398.516426
 21
1894.398859
  0
LINE
  8
CSLAYER1
  6
CONTINUOUS
 62
     7
 10
398.516426
 20
1894.398859
 11
398.342788
 21
1893.822947
  0
LINE
  8
CSLAYER1
  6
CONTINUOUS
 62
     7
 10
398.342788
 20
1893.822947
 11
398.128462
 21
1893.292413
  0
LINE
  8
CSLAYER1
  6
CONTINUOUS
 62
     7
 10
398.128462
 20
1893.292413
 11
397.875079
 21
1892.811294
  0
LINE
  8
CSLAYER1
  6
CONTINUOUS
 62
     7
 10
397.875079
 20
1892.811294
 11
397.584567
 21
1892.383252
  0
LINE
  8
CSLAYER1
  6
CONTINUOUS
 62
     7
 10
397.584567
 20
1892.383252
 11
397.259137
 21
1892.011544
  0
LINE
  8
CSLAYER1
  6
CONTINUOUS
 62
     7
 10
397.259137
 20
1892.011544
 11
396.901266
 21
1891.698999
  0
LINE
  8
CSLAYER1
  6
CONTINUOUS
 62
     7
 10
396.901266
 20
1891.698999
 11
396.513677
 21
1891.447997
  0
LINE
  8
CSLAYER1
  6
CONTINUOUS
 62
     7
 10
396.513677
 20
1891.447997
 11
396.099321
 21
1891.260446
  0
LINE
  8
CSLAYER1
  6
CONTINUOUS
 62
     7
 10
396.099321
 20
1891.260446
 11
395.661350
 21
1891.137775
  0
LINE
  8
CSLAYER1
  6
CONTINUOUS
 62
     7
 10
395.661350
 20
1891.137775
 11
395.203099
 21
1891.080917
  0
LINE
  8
CSLAYER1
  6
CONTINUOUS
 62
     7
 10
395.203099
 20
1891.080917
 11
394.728054
 21
1891.090305
  0
LINE
  8
CSLAYER1
  6
CONTINUOUS
 62
     7
 10
394.728054
 20
1891.090305
 11
394.239831
 21
1891.165868
  0
LINE
  8
CSLAYER1
  6
CONTINUOUS
 62
     7
 10
394.239831
 20
1891.165868
 11
393.742145
 21
1891.307030
  0
LINE
  8
CSLAYER1
  6
CONTINUOUS
 62
     7
 10
393.742145
 20
1891.307030
 11
393.238785
 21
1891.512716
  0
LINE
  8
CSLAYER1
  6
CONTINUOUS
 62
     7
 10
393.238785
 20
1891.512716
 11
392.733581
 21
1891.781363
  0
LINE
  8
CSLAYER1
  6
CONTINUOUS
 62
     7
 10
392.733581
 20
1891.781363
 11
392.230378
 21
1892.110925
  0
LINE
  8
CSLAYER1
  6
CONTINUOUS
 62
     7
 10
392.230378
 20
1892.110925
 11
391.733006
 21
1892.498893
  0
LINE
  8
CSLAYER1
  6
CONTINUOUS
 62
     7
 10
391.733006
 20
1892.498893
 11
391.245250
 21
1892.942316
  0
LINE
  8
CSLAYER1
  6
CONTINUOUS
 62
     7
 10
391.245250
 20
1892.942316
 11
390.770822
 21
1893.437818
  0
LINE
  8
CSLAYER1
  6
CONTINUOUS
 62
     7
 10
390.770822
 20
1893.437818
 11
390.313333
 21
1893.981629
  0
LINE
  8
CSLAYER1
  6
CONTINUOUS
 62
     7
 10
390.313333
 20
1893.981629
 11
389.876265
 21
1894.569609
  0
LINE
  8
CSLAYER1
  6
CONTINUOUS
 62
     7
 10
389.876265
 20
1894.569609
 11
389.462943
 21
1895.197285
  0
LINE
  8
CSLAYER1
  6
CONTINUOUS
 62
     7
 10
389.462943
 20
1895.197285
 11
389.076514
 21
1895.859878
  0
LINE
  8
CSLAYER1
  6
CONTINUOUS
 62
     7
 10
389.076514
 20
1895.859878
 11
388.719919
 21
1896.552346
  0
LINE
  8
CSLAYER1
  6
CONTINUOUS
 62
     7
 10
388.719919
 20
1896.552346
 11
388.395871
 21
1897.269420
  0
LINE
  8
CSLAYER1
  6
CONTINUOUS
 62
     7
 10
388.395871
 20
1897.269420
 11
388.106837
 21
1898.005641
  0
LINE
  8
CSLAYER1
  6
CONTINUOUS
 62
     7
 10
388.106837
 20
1898.005641
 11
387.855017
 21
1898.755406
  0
LINE
  8
CSLAYER1
  6
CONTINUOUS
 62
     7
 10
387.855017
 20
1898.755406
 11
387.642326
 21
1899.513010
  0
LINE
  8
CSLAYER1
  6
CONTINUOUS
 62
     7
 10
387.642326
 20
1899.513010
 11
387.470383
 21
1900.272687
  0
LINE
  8
CSLAYER1
  6
CONTINUOUS
 62
     7
 10
387.470383
 20
1900.272687
 11
387.340498
 21
1901.028654
  0
LINE
  8
CSLAYER1
  6
CONTINUOUS
 62
     7
 10
387.340498
 20
1901.028654
 11
387.253659
 21
1901.775159
  0
LINE
  8
CSLAYER1
  6
CONTINUOUS
 62
     7
 10
387.253659
 20
1901.775159
 11
387.210526
 21
1902.506520
  0
LINE
  8
CSLAYER1
  6
CONTINUOUS
 62
     7
 10
387.210526
 20
1902.506520
 11
387.211428
 21
1903.217172
  0
LINE
  8
CSLAYER1
  6
CONTINUOUS
 62
     7
 10
387.211428
 20
1903.217172
 11
387.256359
 21
1903.901705
  0
LINE
  8
CSLAYER1
  6
CONTINUOUS
 62
     7
 10
387.256359
 20
1903.901705
 11
387.344975
 21
1904.554910
  0
LINE
  8
CSLAYER1
  6
CONTINUOUS
 62
     7
 10
387.344975
 20
1904.554910
 11
387.476603
 21
1905.171816
  0
LINE
  8
CSLAYER1
  6
CONTINUOUS
 62
     7
 10
387.476603
 20
1905.171816
 11
387.650240
 21
1905.747727
  0
LINE
  8
CSLAYER1
  6
CONTINUOUS
 62
     7
 10
387.650240
 20
1905.747727
 11
387.864566
 21
1906.278262
  0
LINE
  8
CSLAYER1
  6
CONTINUOUS
 62
     7
 10
387.864566
 20
1906.278262
 11
388.117949
 21
1906.759381
  0
LINE
  8
CSLAYER1
  6
CONTINUOUS
 62
     7
 10
388.117949
 20
1906.759381
 11
388.408462
 21
1907.187423
  0
LINE
  8
CSLAYER1
  6
CONTINUOUS
 62
     7
 10
388.408462
 20
1907.187423
 11
388.733891
 21
1907.559131
  0
LINE
  8
CSLAYER1
  6
CONTINUOUS
 62
     7
 10
388.733891
 20
1907.559131
 11
389.091762
 21
1907.871675
  0
LINE
  8
CSLAYER1
  6
CONTINUOUS
 62
     7
 10
389.091762
 20
1907.871675
 11
389.479351
 21
1908.122678
  0
LINE
  8
CSLAYER1
  6
CONTINUOUS
 62
     7
 10
389.479351
 20
1908.122678
 11
389.893707
 21
1908.310229
  0
LINE
  8
CSLAYER1
  6
CONTINUOUS
 62
     7
 10
389.893707
 20
1908.310229
 11
445.409364
 21
1928.986216
  0
LINE
  8
CSLAYER1
  6
CONTINUOUS
 62
     7
 10
396.099321
 20
1891.260446
 11
451.614978
 21
1911.936433
  0
LINE
  8
CSLAYER1
  6
CONTINUOUS
 62
     7
 10
445.409364
 20
1928.986216
 11
445.847335
 21
1929.108887
  0
LINE
  8
CSLAYER1
  6
CONTINUOUS
 62
     7
 10
445.847335
 20
1929.108887
 11
446.305587
 21
1929.165744
  0
LINE
  8
CSLAYER1
  6
CONTINUOUS
 62
     7
 10
446.305587
 20
1929.165744
 11
446.780632
 21
1929.156356
  0
LINE
  8
CSLAYER1
  6
CONTINUOUS
 62
     7
 10
446.780632
 20
1929.156356
 11
447.268855
 21
1929.080794
  0
LINE
  8
CSLAYER1
  6
CONTINUOUS
 62
     7
 10
447.268855
 20
1929.080794
 11
447.766540
 21
1928.939632
  0
LINE
  8
CSLAYER1
  6
CONTINUOUS
 62
     7
 10
447.766540
 20
1928.939632
 11
448.269900
 21
1928.733945
  0
LINE
  8
CSLAYER1
  6
CONTINUOUS
 62
     7
 10
448.269900
 20
1928.733945
 11
448.775104
 21
1928.465299
  0
LINE
  8
CSLAYER1
  6
CONTINUOUS
 62
     7
 10
448.775104
 20
1928.465299
 11
449.278307
 21
1928.135737
  0
LINE
  8
CSLAYER1
  6
CONTINUOUS
 62
     7
 10
449.278307
 20
1928.135737
 11
449.775679
 21
1927.747768
  0
LINE
  8
CSLAYER1
  6
CONTINUOUS
 62
     7
 10
449.775679
 20
1927.747768
 11
450.263435
 21
1927.304346
  0
LINE
  8
CSLAYER1
  6
CONTINUOUS
 62
     7
 10
450.263435
 20
1927.304346
 11
450.737863
 21
1926.808843
  0
LINE
  8
CSLAYER1
  6
CONTINUOUS
 62
     7
 10
450.737863
 20
1926.808843
 11
451.195352
 21
1926.265032
  0
LINE
  8
CSLAYER1
  6
CONTINUOUS
 62
     7
 10
451.195352
 20
1926.265032
 11
451.632421
 21
1925.677052
  0
LINE
  8
CSLAYER1
  6
CONTINUOUS
 62
     7
 10
451.632421
 20
1925.677052
 11
452.045742
 21
1925.049377
  0
LINE
  8
CSLAYER1
  6
CONTINUOUS
 62
     7
 10
452.045742
 20
1925.049377
 11
452.432171
 21
1924.386783
  0
LINE
  8
CSLAYER1
  6
CONTINUOUS
 62
     7
 10
452.432171
 20
1924.386783
 11
452.788766
 21
1923.694315
  0
LINE
  8
CSLAYER1
  6
CONTINUOUS
 62
     7
 10
452.788766
 20
1923.694315
 11
453.112814
 21
1922.977242
  0
LINE
  8
CSLAYER1
  6
CONTINUOUS
 62
     7
 10
453.112814
 20
1922.977242
 11
453.401848
 21
1922.241021
  0
LINE
  8
CSLAYER1
  6
CONTINUOUS
 62
     7
 10
453.401848
 20
1922.241021
 11
453.653669
 21
1921.491255
  0
LINE
  8
CSLAYER1
  6
CONTINUOUS
 62
     7
 10
453.653669
 20
1921.491255
 11
453.866360
 21
1920.733651
  0
LINE
  8
CSLAYER1
  6
CONTINUOUS
 62
     7
 10
453.866360
 20
1920.733651
 11
454.038302
 21
1919.973975
  0
LINE
  8
CSLAYER1
  6
CONTINUOUS
 62
     7
 10
454.038302
 20
1919.973975
 11
454.168187
 21
1919.218007
  0
LINE
  8
CSLAYER1
  6
CONTINUOUS
 62
     7
 10
454.168187
 20
1919.218007
 11
454.255026
 21
1918.471502
  0
LINE
  8
CSLAYER1
  6
CONTINUOUS
 62
     7
 10
454.255026
 20
1918.471502
 11
454.298159
 21
1917.740141
  0
LINE
  8
CSLAYER1
  6
CONTINUOUS
 62
     7
 10
454.298159
 20
1917.740141
 11
454.297257
 21
1917.029490
  0
LINE
  8
CSLAYER1
  6
CONTINUOUS
 62
     7
 10
454.297257
 20
1917.029490
 11
454.252327
 21
1916.344956
  0
LINE
  8
CSLAYER1
  6
CONTINUOUS
 62
     7
 10
454.252327
 20
1916.344956
 11
454.163711
 21
1915.691751
  0
LINE
  8
CSLAYER1
  6
CONTINUOUS
 62
     7
 10
454.163711
 20
1915.691751
 11
454.032083
 21
1915.074845
  0
LINE
  8
CSLAYER1
  6
CONTINUOUS
 62
     7
 10
454.032083
 20
1915.074845
 11
453.858445
 21
1914.498934
  0
LINE
  8
CSLAYER1
  6
CONTINUOUS
 62
     7
 10
453.858445
 20
1914.498934
 11
453.644119
 21
1913.968400
  0
LINE
  8
CSLAYER1
  6
CONTINUOUS
 62
     7
 10
453.644119
 20
1913.968400
 11
453.390736
 21
1913.487281
  0
LINE
  8
CSLAYER1
  6
CONTINUOUS
 62
     7
 10
453.390736
 20
1913.487281
 11
453.100224
 21
1913.059239
  0
LINE
  8
CSLAYER1
  6
CONTINUOUS
 62
     7
 10
453.100224
 20
1913.059239
 11
452.774794
 21
1912.687531
  0
LINE
  8
CSLAYER1
  6
CONTINUOUS
 62
     7
 10
452.774794
 20
1912.687531
 11
452.416923
 21
1912.374986
  0
LINE
  8
CSLAYER1
  6
CONTINUOUS
 62
     7
 10
452.416923
 20
1912.374986
 11
452.029334
 21
1912.123983
  0
LINE
  8
CSLAYER1
  6
CONTINUOUS
 62
     7
 10
452.029334
 20
1912.123983
 11
451.614978
 21
1911.936433
  0
LINE
  8
CSLAYER1
  6
CONTINUOUS
 62
     7
 10
627.730783
 20
1816.011979
 11
628.059897
 21
1816.325906
  0
LINE
  8
CSLAYER1
  6
CONTINUOUS
 62
     7
 10
628.059897
 20
1816.325906
 11
628.437816
 21
1816.591244
  0
LINE
  8
CSLAYER1
  6
CONTINUOUS
 62
     7
 10
628.437816
 20
1816.591244
 11
628.861664
 21
1816.805975
  0
LINE
  8
CSLAYER1
  6
CONTINUOUS
 62
     7
 10
628.861664
 20
1816.805975
 11
629.328213
 21
1816.968465
  0
LINE
  8
CSLAYER1
  6
CONTINUOUS
 62
     7
 10
629.328213
 20
1816.968465
 11
629.833915
 21
1817.077475
  0
LINE
  8
CSLAYER1
  6
CONTINUOUS
 62
     7
 10
629.833915
 20
1817.077475
 11
630.374920
 21
1817.132178
  0
LINE
  8
CSLAYER1
  6
CONTINUOUS
 62
     7
 10
630.374920
 20
1817.132178
 11
630.947110
 21
1817.132156
  0
LINE
  8
CSLAYER1
  6
CONTINUOUS
 62
     7
 10
630.947110
 20
1817.132156
 11
631.546132
 21
1817.077410
  0
LINE
  8
CSLAYER1
  6
CONTINUOUS
 62
     7
 10
631.546132
 20
1817.077410
 11
632.167426
 21
1816.968356
  0
LINE
  8
CSLAYER1
  6
CONTINUOUS
 62
     7
 10
632.167426
 20
1816.968356
 11
632.806263
 21
1816.805824
  0
LINE
  8
CSLAYER1
  6
CONTINUOUS
 62
     7
 10
632.806263
 20
1816.805824
 11
633.457782
 21
1816.591052
  0
LINE
  8
CSLAYER1
  6
CONTINUOUS
 62
     7
 10
633.457782
 20
1816.591052
 11
634.117025
 21
1816.325674
  0
LINE
  8
CSLAYER1
  6
CONTINUOUS
 62
     7
 10
634.117025
 20
1816.325674
 11
634.778974
 21
1816.011709
  0
LINE
  8
CSLAYER1
  6
CONTINUOUS
 62
     7
 10
634.778974
 20
1816.011709
 11
635.438590
 21
1815.651547
  0
LINE
  8
CSLAYER1
  6
CONTINUOUS
 62
     7
 10
635.438590
 20
1815.651547
 11
636.090855
 21
1815.247930
  0
LINE
  8
CSLAYER1
  6
CONTINUOUS
 62
     7
 10
636.090855
 20
1815.247930
 11
636.730805
 21
1814.803928
  0
LINE
  8
CSLAYER1
  6
CONTINUOUS
 62
     7
 10
636.730805
 20
1814.803928
 11
637.353567
 21
1814.322921
  0
LINE
  8
CSLAYER1
  6
CONTINUOUS
 62
     7
 10
637.353567
 20
1814.322921
 11
637.954404
 21
1813.808570
  0
LINE
  8
CSLAYER1
  6
CONTINUOUS
 62
     7
 10
637.954404
 20
1813.808570
 11
638.528742
 21
1813.264789
  0
LINE
  8
CSLAYER1
  6
CONTINUOUS
 62
     7
 10
638.528742
 20
1813.264789
 11
639.072211
 21
1812.695716
  0
LINE
  8
CSLAYER1
  6
CONTINUOUS
 62
     7
 10
639.072211
 20
1812.695716
 11
639.580673
 21
1812.105684
  0
LINE
  8
CSLAYER1
  6
CONTINUOUS
 62
     7
 10
639.580673
 20
1812.105684
 11
640.050260
 21
1811.499181
  0
LINE
  8
CSLAYER1
  6
CONTINUOUS
 62
     7
 10
640.050260
 20
1811.499181
 11
640.477397
 21
1810.880825
  0
LINE
  8
CSLAYER1
  6
CONTINUOUS
 62
     7
 10
640.477397
 20
1810.880825
 11
640.858835
 21
1810.255321
  0
LINE
  8
CSLAYER1
  6
CONTINUOUS
 62
     7
 10
640.858835
 20
1810.255321
 11
641.191669
 21
1809.627429
  0
LINE
  8
CSLAYER1
  6
CONTINUOUS
 62
     7
 10
641.191669
 20
1809.627429
 11
641.473367
 21
1809.001929
  0
LINE
  8
CSLAYER1
  6
CONTINUOUS
 62
     7
 10
641.473367
 20
1809.001929
 11
641.701785
 21
1808.383580
  0
LINE
  8
CSLAYER1
  6
CONTINUOUS
 62
     7
 10
641.701785
 20
1808.383580
 11
641.875184
 21
1807.777089
  0
LINE
  8
CSLAYER1
  6
CONTINUOUS
 62
     7
 10
641.875184
 20
1807.777089
 11
641.992245
 21
1807.187072
  0
LINE
  8
CSLAYER1
  6
CONTINUOUS
 62
     7
 10
641.992245
 20
1807.187072
 11
642.052077
 21
1806.618018
  0
LINE
  8
CSLAYER1
  6
CONTINUOUS
 62
     7
 10
642.052077
 20
1806.618018
 11
642.054225
 21
1806.074259
  0
LINE
  8
CSLAYER1
  6
CONTINUOUS
 62
     7
 10
642.054225
 20
1806.074259
 11
641.998671
 21
1805.559933
  0
LINE
  8
CSLAYER1
  6
CONTINUOUS
 62
     7
 10
641.998671
 20
1805.559933
 11
641.885840
 21
1805.078954
  0
LINE
  8
CSLAYER1
  6
CONTINUOUS
 62
     7
 10
641.885840
 20
1805.078954
 11
641.716590
 21
1804.634983
  0
LINE
  8
CSLAYER1
  6
CONTINUOUS
 62
     7
 10
641.716590
 20
1804.634983
 11
641.492208
 21
1804.231399
  0
LINE
  8
CSLAYER1
  6
CONTINUOUS
 62
     7
 10
641.492208
 20
1804.231399
 11
641.214403
 21
1803.871273
  0
LINE
  8
CSLAYER1
  6
CONTINUOUS
 62
     7
 10
641.214403
 20
1803.871273
 11
640.885288
 21
1803.557347
  0
LINE
  8
CSLAYER1
  6
CONTINUOUS
 62
     7
 10
640.885288
 20
1803.557347
 11
640.507369
 21
1803.292008
  0
LINE
  8
CSLAYER1
  6
CONTINUOUS
 62
     7
 10
640.507369
 20
1803.292008
 11
640.083522
 21
1803.077277
  0
LINE
  8
CSLAYER1
  6
CONTINUOUS
 62
     7
 10
640.083522
 20
1803.077277
 11
639.616972
 21
1802.914788
  0
LINE
  8
CSLAYER1
  6
CONTINUOUS
 62
     7
 10
639.616972
 20
1802.914788
 11
639.111270
 21
1802.805777
  0
LINE
  8
CSLAYER1
  6
CONTINUOUS
 62
     7
 10
639.111270
 20
1802.805777
 11
638.570266
 21
1802.751075
  0
LINE
  8
CSLAYER1
  6
CONTINUOUS
 62
     7
 10
638.570266
 20
1802.751075
 11
637.998075
 21
1802.751097
  0
LINE
  8
CSLAYER1
  6
CONTINUOUS
 62
     7
 10
637.998075
 20
1802.751097
 11
637.399054
 21
1802.805843
  0
LINE
  8
CSLAYER1
  6
CONTINUOUS
 62
     7
 10
637.399054
 20
1802.805843
 11
636.777760
 21
1802.914897
  0
LINE
  8
CSLAYER1
  6
CONTINUOUS
 62
     7
 10
636.777760
 20
1802.914897
 11
636.138922
 21
1803.077428
  0
LINE
  8
CSLAYER1
  6
CONTINUOUS
 62
     7
 10
636.138922
 20
1803.077428
 11
635.487403
 21
1803.292200
  0
LINE
  8
CSLAYER1
  6
CONTINUOUS
 62
     7
 10
635.487403
 20
1803.292200
 11
634.828161
 21
1803.557579
  0
LINE
  8
CSLAYER1
  6
CONTINUOUS
 62
     7
 10
634.828161
 20
1803.557579
 11
634.166212
 21
1803.871543
  0
LINE
  8
CSLAYER1
  6
CONTINUOUS
 62
     7
 10
634.166212
 20
1803.871543
 11
633.506595
 21
1804.231705
  0
LINE
  8
CSLAYER1
  6
CONTINUOUS
 62
     7
 10
633.506595
 20
1804.231705
 11
632.854330
 21
1804.635323
  0
LINE
  8
CSLAYER1
  6
CONTINUOUS
 62
     7
 10
632.854330
 20
1804.635323
 11
632.214381
 21
1805.079325
  0
LINE
  8
CSLAYER1
  6
CONTINUOUS
 62
     7
 10
632.214381
 20
1805.079325
 11
631.591618
 21
1805.560332
  0
LINE
  8
CSLAYER1
  6
CONTINUOUS
 62
     7
 10
631.591618
 20
1805.560332
 11
630.990781
 21
1806.074683
  0
LINE
  8
CSLAYER1
  6
CONTINUOUS
 62
     7
 10
630.990781
 20
1806.074683
 11
630.416443
 21
1806.618464
  0
LINE
  8
CSLAYER1
  6
CONTINUOUS
 62
     7
 10
630.416443
 20
1806.618464
 11
629.872975
 21
1807.187536
  0
LINE
  8
CSLAYER1
  6
CONTINUOUS
 62
     7
 10
629.872975
 20
1807.187536
 11
629.364512
 21
1807.777569
  0
LINE
  8
CSLAYER1
  6
CONTINUOUS
 62
     7
 10
629.364512
 20
1807.777569
 11
628.894926
 21
1808.384071
  0
LINE
  8
CSLAYER1
  6
CONTINUOUS
 62
     7
 10
628.894926
 20
1808.384071
 11
628.467788
 21
1809.002427
  0
LINE
  8
CSLAYER1
  6
CONTINUOUS
 62
     7
 10
628.467788
 20
1809.002427
 11
628.086351
 21
1809.627932
  0
LINE
  8
CSLAYER1
  6
CONTINUOUS
 62
     7
 10
628.086351
 20
1809.627932
 11
627.753517
 21
1810.255823
  0
LINE
  8
CSLAYER1
  6
CONTINUOUS
 62
     7
 10
627.753517
 20
1810.255823
 11
627.471819
 21
1810.881323
  0
LINE
  8
CSLAYER1
  6
CONTINUOUS
 62
     7
 10
627.471819
 20
1810.881323
 11
627.243401
 21
1811.499672
  0
LINE
  8
CSLAYER1
  6
CONTINUOUS
 62
     7
 10
627.243401
 20
1811.499672
 11
627.070002
 21
1812.106163
  0
LINE
  8
CSLAYER1
  6
CONTINUOUS
 62
     7
 10
627.070002
 20
1812.106163
 11
626.952940
 21
1812.696181
  0
LINE
  8
CSLAYER1
  6
CONTINUOUS
 62
     7
 10
626.952940
 20
1812.696181
 11
626.893108
 21
1813.265234
  0
LINE
  8
CSLAYER1
  6
CONTINUOUS
 62
     7
 10
626.893108
 20
1813.265234
 11
626.890961
 21
1813.808993
  0
LINE
  8
CSLAYER1
  6
CONTINUOUS
 62
     7
 10
626.890961
 20
1813.808993
 11
626.946514
 21
1814.323320
  0
LINE
  8
CSLAYER1
  6
CONTINUOUS
 62
     7
 10
626.946514
 20
1814.323320
 11
627.059345
 21
1814.804298
  0
LINE
  8
CSLAYER1
  6
CONTINUOUS
 62
     7
 10
627.059345
 20
1814.804298
 11
627.228596
 21
1815.248269
  0
LINE
  8
CSLAYER1
  6
CONTINUOUS
 62
     7
 10
627.228596
 20
1815.248269
 11
627.452978
 21
1815.651853
  0
LINE
  8
CSLAYER1
  6
CONTINUOUS
 62
     7
 10
627.452978
 20
1815.651853
 11
627.730783
 21
1816.011979
  0
LINE
  8
CSLAYER1
  6
CONTINUOUS
 62
     7
 10
641.214403
 20
1803.871273
 11
671.201472
 21
1837.266632
  0
LINE
  8
CSLAYER1
  6
CONTINUOUS
 62
     7
 10
627.730783
 20
1816.011979
 11
657.717852
 21
1849.407338
  0
LINE
  8
CSLAYER1
  6
CONTINUOUS
 62
     7
 10
657.717852
 20
1849.407338
 11
658.046967
 21
1849.721264
  0
LINE
  8
CSLAYER1
  6
CONTINUOUS
 62
     7
 10
658.046967
 20
1849.721264
 11
658.424886
 21
1849.986603
  0
LINE
  8
CSLAYER1
  6
CONTINUOUS
 62
     7
 10
658.424886
 20
1849.986603
 11
658.848733
 21
1850.201334
  0
LINE
  8
CSLAYER1
  6
CONTINUOUS
 62
     7
 10
658.848733
 20
1850.201334
 11
659.315283
 21
1850.363823
  0
LINE
  8
CSLAYER1
  6
CONTINUOUS
 62
     7
 10
659.315283
 20
1850.363823
 11
659.820984
 21
1850.472834
  0
LINE
  8
CSLAYER1
  6
CONTINUOUS
 62
     7
 10
659.820984
 20
1850.472834
 11
660.361989
 21
1850.527536
  0
LINE
  8
CSLAYER1
  6
CONTINUOUS
 62
     7
 10
660.361989
 20
1850.527536
 11
660.934180
 21
1850.527514
  0
LINE
  8
CSLAYER1
  6
CONTINUOUS
 62
     7
 10
660.934180
 20
1850.527514
 11
661.533201
 21
1850.472768
  0
LINE
  8
CSLAYER1
  6
CONTINUOUS
 62
     7
 10
661.533201
 20
1850.472768
 11
662.154495
 21
1850.363714
  0
LINE
  8
CSLAYER1
  6
CONTINUOUS
 62
     7
 10
662.154495
 20
1850.363714
 11
662.793332
 21
1850.201183
  0
LINE
  8
CSLAYER1
  6
CONTINUOUS
 62
     7
 10
662.793332
 20
1850.201183
 11
663.444852
 21
1849.986410
  0
LINE
  8
CSLAYER1
  6
CONTINUOUS
 62
     7
 10
663.444852
 20
1849.986410
 11
664.104094
 21
1849.721032
  0
LINE
  8
CSLAYER1
  6
CONTINUOUS
 62
     7
 10
664.104094
 20
1849.721032
 11
664.766043
 21
1849.407067
  0
LINE
  8
CSLAYER1
  6
CONTINUOUS
 62
     7
 10
664.766043
 20
1849.407067
 11
665.425660
 21
1849.046906
  0
LINE
  8
CSLAYER1
  6
CONTINUOUS
 62
     7
 10
665.425660
 20
1849.046906
 11
666.077925
 21
1848.643288
  0
LINE
  8
CSLAYER1
  6
CONTINUOUS
 62
     7
 10
666.077925
 20
1848.643288
 11
666.717874
 21
1848.199286
  0
LINE
  8
CSLAYER1
  6
CONTINUOUS
 62
     7
 10
666.717874
 20
1848.199286
 11
667.340637
 21
1847.718279
  0
LINE
  8
CSLAYER1
  6
CONTINUOUS
 62
     7
 10
667.340637
 20
1847.718279
 11
667.941473
 21
1847.203928
  0
LINE
  8
CSLAYER1
  6
CONTINUOUS
 62
     7
 10
667.941473
 20
1847.203928
 11
668.515811
 21
1846.660147
  0
LINE
  8
CSLAYER1
  6
CONTINUOUS
 62
     7
 10
668.515811
 20
1846.660147
 11
669.059280
 21
1846.091075
  0
LINE
  8
CSLAYER1
  6
CONTINUOUS
 62
     7
 10
669.059280
 20
1846.091075
 11
669.567742
 21
1845.501042
  0
LINE
  8
CSLAYER1
  6
CONTINUOUS
 62
     7
 10
669.567742
 20
1845.501042
 11
670.037329
 21
1844.894540
  0
LINE
  8
CSLAYER1
  6
CONTINUOUS
 62
     7
 10
670.037329
 20
1844.894540
 11
670.464467
 21
1844.276183
  0
LINE
  8
CSLAYER1
  6
CONTINUOUS
 62
     7
 10
670.464467
 20
1844.276183
 11
670.845904
 21
1843.650679
  0
LINE
  8
CSLAYER1
  6
CONTINUOUS
 62
     7
 10
670.845904
 20
1843.650679
 11
671.178738
 21
1843.022788
  0
LINE
  8
CSLAYER1
  6
CONTINUOUS
 62
     7
 10
671.178738
 20
1843.022788
 11
671.460436
 21
1842.397287
  0
LINE
  8
CSLAYER1
  6
CONTINUOUS
 62
     7
 10
671.460436
 20
1842.397287
 11
671.688854
 21
1841.778939
  0
LINE
  8
CSLAYER1
  6
CONTINUOUS
 62
     7
 10
671.688854
 20
1841.778939
 11
671.862253
 21
1841.172448
  0
LINE
  8
CSLAYER1
  6
CONTINUOUS
 62
     7
 10
671.862253
 20
1841.172448
 11
671.979314
 21
1840.582430
  0
LINE
  8
CSLAYER1
  6
CONTINUOUS
 62
     7
 10
671.979314
 20
1840.582430
 11
672.039146
 21
1840.013376
  0
LINE
  8
CSLAYER1
  6
CONTINUOUS
 62
     7
 10
672.039146
 20
1840.013376
 11
672.041294
 21
1839.469617
  0
LINE
  8
CSLAYER1
  6
CONTINUOUS
 62
     7
 10
672.041294
 20
1839.469617
 11
671.985741
 21
1838.955291
  0
LINE
  8
CSLAYER1
  6
CONTINUOUS
 62
     7
 10
671.985741
 20
1838.955291
 11
671.872909
 21
1838.474313
  0
LINE
  8
CSLAYER1
  6
CONTINUOUS
 62
     7
 10
671.872909
 20
1838.474313
 11
671.703659
 21
1838.030342
  0
LINE
  8
CSLAYER1
  6
CONTINUOUS
 62
     7
 10
671.703659
 20
1838.030342
 11
671.479277
 21
1837.626758
  0
LINE
  8
CSLAYER1
  6
CONTINUOUS
 62
     7
 10
671.479277
 20
1837.626758
 11
671.201472
 21
1837.266632
  0
LINE
  8
CSLAYER1
  6
CONTINUOUS
 62
     7
 10
752.123874
 20
1971.018286
 11
752.123874
 21
1952.718951
  0
LINE
  8
CSLAYER1
  6
CONTINUOUS
 62
     7
 10
752.123874
 20
1952.718951
 11
752.123874
 21
1946.814718
  0
LINE
  8
CSLAYER1
  6
CONTINUOUS
 62
     7
 10
782.639005
 20
2024.373673
 11
782.639005
 21
2004.022470
  0
LINE
  8
CSLAYER1
  6
CONTINUOUS
 62
     7
 10
782.639005
 20
1986.486281
 11
782.639005
 21
1963.884525
  0
LINE
  8
CSLAYER1
  6
CONTINUOUS
 62
     7
 10
794.223873
 20
2017.214306
 11
797.058774
 21
2014.661946
  0
LINE
  8
CSLAYER1
  6
CONTINUOUS
 62
     7
 10
797.058774
 20
2014.661946
 11
799.495053
 21
2011.977581
  0
LINE
  8
CSLAYER1
  6
CONTINUOUS
 62
     7
 10
799.495053
 20
2011.977581
 11
801.514167
 21
2009.181640
  0
LINE
  8
CSLAYER1
  6
CONTINUOUS
 62
     7
 10
801.514167
 20
2009.181640
 11
803.100752
 21
2006.295402
  0
LINE
  8
CSLAYER1
  6
CONTINUOUS
 62
     7
 10
803.100752
 20
2006.295402
 11
804.242730
 21
2003.340833
  0
LINE
  8
CSLAYER1
  6
CONTINUOUS
 62
     7
 10
804.242730
 20
2003.340833
 11
804.931413
 21
2000.340419
  0
LINE
  8
CSLAYER1
  6
CONTINUOUS
 62
     7
 10
804.931413
 20
2000.340419
 11
805.161558
 21
1997.316995
  0
LINE
  8
CSLAYER1
  6
CONTINUOUS
 62
     7
 10
805.161558
 20
1997.316995
 11
804.931413
 21
1994.293571
  0
LINE
  8
CSLAYER1
  6
CONTINUOUS
 62
     7
 10
804.931413
 20
1994.293571
 11
804.242730
 21
1991.293156
  0
LINE
  8
CSLAYER1
  6
CONTINUOUS
 62
     7
 10
804.242730
 20
1991.293156
 11
803.100752
 21
1988.338587
  0
LINE
  8
CSLAYER1
  6
CONTINUOUS
 62
     7
 10
803.100752
 20
1988.338587
 11
801.514167
 21
1985.452349
  0
LINE
  8
CSLAYER1
  6
CONTINUOUS
 62
     7
 10
801.514167
 20
1985.452349
 11
799.495053
 21
1982.656408
  0
LINE
  8
CSLAYER1
  6
CONTINUOUS
 62
     7
 10
799.495053
 20
1982.656408
 11
797.058774
 21
1979.972043
  0
LINE
  8
CSLAYER1
  6
CONTINUOUS
 62
     7
 10
782.639005
 20
2024.373673
 11
787.447376
 21
2021.846460
  0
LINE
  8
CSLAYER1
  6
CONTINUOUS
 62
     7
 10
787.447376
 20
2021.846460
 11
791.011926
 21
2019.615235
  0
LINE
  8
CSLAYER1
  6
CONTINUOUS
 62
     7
 10
791.011926
 20
2019.615235
 11
794.223873
 21
2017.214306
  0
LINE
  8
CSLAYER1
  6
CONTINUOUS
 62
     7
 10
785.857966
 20
2000.073777
 11
786.111663
 21
1998.968484
  0
LINE
  8
CSLAYER1
  6
CONTINUOUS
 62
     7
 10
786.111663
 20
1998.968484
 11
786.285550
 21
1996.684119
  0
LINE
  8
CSLAYER1
  6
CONTINUOUS
 62
     7
 10
786.285550
 20
1996.684119
 11
786.111663
 21
1994.399754
  0
LINE
  8
CSLAYER1
  6
CONTINUOUS
 62
     7
 10
786.111663
 20
1994.399754
 11
785.591325
 21
1992.132774
  0
LINE
  8
CSLAYER1
  6
CONTINUOUS
 62
     7
 10
785.591325
 20
1992.132774
 11
784.728496
 21
1989.900433
  0
LINE
  8
CSLAYER1
  6
CONTINUOUS
 62
     7
 10
784.728496
 20
1989.900433
 11
783.529744
 21
1987.719720
  0
LINE
  8
CSLAYER1
  6
CONTINUOUS
 62
     7
 10
783.529744
 20
1987.719720
 11
782.639005
 21
1986.486281
  0
LINE
  8
CSLAYER1
  6
CONTINUOUS
 62
     7
 10
782.639005
 20
2004.031045
 11
782.596449
 21
2004.069360
  0
LINE
  8
CSLAYER1
  6
CONTINUOUS
 62
     7
 10
782.596449
 20
2004.069360
 11
784.437193
 21
2002.041173
  0
LINE
  8
CSLAYER1
  6
CONTINUOUS
 62
     7
 10
784.437193
 20
2002.041173
 11
785.962746
 21
1999.928684
  0
LINE
  8
CSLAYER1
  6
CONTINUOUS
 62
     7
 10
782.639005
 20
2004.022470
 11
782.639005
 21
1986.486281
  0
LINE
  8
CSLAYER1
  6
CONTINUOUS
 62
     7
 10
601.007638
 20
2024.242566
 11
544.175029
 21
2044.927944
  0
LINE
  8
CSLAYER1
  6
CONTINUOUS
 62
     7
 10
609.886111
 20
2035.313615
 11
553.053501
 21
2055.998994
  0
LINE
  8
CSLAYER1
  6
CONTINUOUS
 62
     7
 10
606.830207
 20
2034.995618
 11
550.040202
 21
2055.665490
  0
LINE
  8
CSLAYER1
  6
CONTINUOUS
 62
     7
 10
605.493989
 20
2034.051707
 11
548.661379
 21
2054.737085
  0
LINE
  8
CSLAYER1
  6
CONTINUOUS
 62
     7
 10
604.445560
 20
2033.003049
 11
547.612951
 21
2053.688427
  0
LINE
  8
CSLAYER1
  6
CONTINUOUS
 62
     7
 10
603.585051
 20
2031.885994
 11
546.752441
 21
2052.571372
  0
LINE
  8
CSLAYER1
  6
CONTINUOUS
 62
     7
 10
602.865147
 20
2030.717762
 11
546.032739
 21
2051.403067
  0
LINE
  8
CSLAYER1
  6
CONTINUOUS
 62
     7
 10
602.272411
 20
2029.503246
 11
545.439801
 21
2050.188624
  0
LINE
  8
CSLAYER1
  6
CONTINUOUS
 62
     7
 10
601.786615
 20
2028.249806
 11
544.954006
 21
2048.935184
  0
LINE
  8
CSLAYER1
  6
CONTINUOUS
 62
     7
 10
601.400745
 20
2026.959996
 11
544.573215
 21
2047.643526
  0
LINE
  8
CSLAYER1
  6
CONTINUOUS
 62
     7
 10
546.847888
 20
2038.949211
 11
546.433531
 21
2039.136761
  0
LINE
  8
CSLAYER1
  6
CONTINUOUS
 62
     7
 10
546.433531
 20
2039.136761
 11
546.045943
 21
2039.387764
  0
LINE
  8
CSLAYER1
  6
CONTINUOUS
 62
     7
 10
546.045943
 20
2039.387764
 11
545.688072
 21
2039.700309
  0
LINE
  8
CSLAYER1
  6
CONTINUOUS
 62
     7
 10
545.688072
 20
2039.700309
 11
545.362642
 21
2040.072017
  0
LINE
  8
CSLAYER1
  6
CONTINUOUS
 62
     7
 10
545.362642
 20
2040.072017
 11
545.072130
 21
2040.500059
  0
LINE
  8
CSLAYER1
  6
CONTINUOUS
 62
     7
 10
545.072130
 20
2040.500059
 11
544.818746
 21
2040.981178
  0
LINE
  8
CSLAYER1
  6
CONTINUOUS
 62
     7
 10
544.818746
 20
2040.981178
 11
544.604420
 21
2041.511712
  0
LINE
  8
CSLAYER1
  6
CONTINUOUS
 62
     7
 10
544.604420
 20
2041.511712
 11
544.430783
 21
2042.087623
  0
LINE
  8
CSLAYER1
  6
CONTINUOUS
 62
     7
 10
544.430783
 20
2042.087623
 11
544.299155
 21
2042.704529
  0
LINE
  8
CSLAYER1
  6
CONTINUOUS
 62
     7
 10
544.299155
 20
2042.704529
 11
544.210539
 21
2043.357734
  0
LINE
  8
CSLAYER1
  6
CONTINUOUS
 62
     7
 10
544.210539
 20
2043.357734
 11
544.165609
 21
2044.042268
  0
LINE
  8
CSLAYER1
  6
CONTINUOUS
 62
     7
 10
544.165609
 20
2044.042268
 11
544.164707
 21
2044.752919
  0
LINE
  8
CSLAYER1
  6
CONTINUOUS
 62
     7
 10
544.164707
 20
2044.752919
 11
544.207839
 21
2045.484280
  0
LINE
  8
CSLAYER1
  6
CONTINUOUS
 62
     7
 10
544.207839
 20
2045.484280
 11
544.294679
 21
2046.230785
  0
LINE
  8
CSLAYER1
  6
CONTINUOUS
 62
     7
 10
544.294679
 20
2046.230785
 11
544.424564
 21
2046.986753
  0
LINE
  8
CSLAYER1
  6
CONTINUOUS
 62
     7
 10
544.424564
 20
2046.986753
 11
544.596506
 21
2047.746429
  0
LINE
  8
CSLAYER1
  6
CONTINUOUS
 62
     7
 10
544.596506
 20
2047.746429
 11
544.809197
 21
2048.504033
  0
LINE
  8
CSLAYER1
  6
CONTINUOUS
 62
     7
 10
544.809197
 20
2048.504033
 11
545.061017
 21
2049.253799
  0
LINE
  8
CSLAYER1
  6
CONTINUOUS
 62
     7
 10
545.061017
 20
2049.253799
 11
545.350052
 21
2049.990020
  0
LINE
  8
CSLAYER1
  6
CONTINUOUS
 62
     7
 10
545.350052
 20
2049.990020
 11
545.674099
 21
2050.707093
  0
LINE
  8
CSLAYER1
  6
CONTINUOUS
 62
     7
 10
545.674099
 20
2050.707093
 11
546.030695
 21
2051.399561
  0
LINE
  8
CSLAYER1
  6
CONTINUOUS
 62
     7
 10
546.030695
 20
2051.399561
 11
546.417123
 21
2052.062155
  0
LINE
  8
CSLAYER1
  6
CONTINUOUS
 62
     7
 10
546.417123
 20
2052.062155
 11
546.830445
 21
2052.689830
  0
LINE
  8
CSLAYER1
  6
CONTINUOUS
 62
     7
 10
546.830445
 20
2052.689830
 11
547.267513
 21
2053.277810
  0
LINE
  8
CSLAYER1
  6
CONTINUOUS
 62
     7
 10
547.267513
 20
2053.277810
 11
547.725002
 21
2053.821621
  0
LINE
  8
CSLAYER1
  6
CONTINUOUS
 62
     7
 10
547.725002
 20
2053.821621
 11
548.199430
 21
2054.317124
  0
LINE
  8
CSLAYER1
  6
CONTINUOUS
 62
     7
 10
548.199430
 20
2054.317124
 11
548.687186
 21
2054.760546
  0
LINE
  8
CSLAYER1
  6
CONTINUOUS
 62
     7
 10
548.687186
 20
2054.760546
 11
549.184558
 21
2055.148515
  0
LINE
  8
CSLAYER1
  6
CONTINUOUS
 62
     7
 10
549.184558
 20
2055.148515
 11
549.687761
 21
2055.478077
  0
LINE
  8
CSLAYER1
  6
CONTINUOUS
 62
     7
 10
549.687761
 20
2055.478077
 11
550.192965
 21
2055.746723
  0
LINE
  8
CSLAYER1
  6
CONTINUOUS
 62
     7
 10
550.192965
 20
2055.746723
 11
550.696325
 21
2055.952410
  0
LINE
  8
CSLAYER1
  6
CONTINUOUS
 62
     7
 10
550.696325
 20
2055.952410
 11
551.194011
 21
2056.093572
  0
LINE
  8
CSLAYER1
  6
CONTINUOUS
 62
     7
 10
551.194011
 20
2056.093572
 11
551.682234
 21
2056.169134
  0
LINE
  8
CSLAYER1
  6
CONTINUOUS
 62
     7
 10
551.682234
 20
2056.169134
 11
552.157279
 21
2056.178522
  0
LINE
  8
CSLAYER1
  6
CONTINUOUS
 62
     7
 10
552.157279
 20
2056.178522
 11
552.615530
 21
2056.121665
  0
LINE
  8
CSLAYER1
  6
CONTINUOUS
 62
     7
 10
552.615530
 20
2056.121665
 11
553.053501
 21
2055.998994
  0
LINE
  8
CSLAYER1
  6
CONTINUOUS
 62
     7
 10
601.140849
 20
2025.624336
 11
544.304038
 21
2046.311243
  0
LINE
  8
CSLAYER1
  6
CONTINUOUS
 62
     7
 10
601.034607
 20
2022.802495
 11
544.201997
 21
2043.487873
  0
LINE
  8
CSLAYER1
  6
CONTINUOUS
 62
     7
 10
601.289597
 20
2021.279431
 11
544.469145
 21
2041.960384
  0
LINE
  8
CSLAYER1
  6
CONTINUOUS
 62
     7
 10
602.028141
 20
2019.580368
 11
545.242845
 21
2040.248526
  0
LINE
  8
CSLAYER1
  6
CONTINUOUS
 62
     7
 10
603.680497
 20
2018.263832
 11
546.847888
 21
2038.949211
  0
LINE
  8
CSLAYER1
  6
CONTINUOUS
 62
     7
 10
677.418171
 20
1995.778839
 11
660.257878
 21
1997.687594
  0
LINE
  8
CSLAYER1
  6
CONTINUOUS
 62
     7
 10
609.886111
 20
2035.313615
 11
610.300467
 21
2035.126065
  0
LINE
  8
CSLAYER1
  6
CONTINUOUS
 62
     7
 10
610.300467
 20
2035.126065
 11
610.688056
 21
2034.875062
  0
LINE
  8
CSLAYER1
  6
CONTINUOUS
 62
     7
 10
610.688056
 20
2034.875062
 11
611.045927
 21
2034.562517
  0
LINE
  8
CSLAYER1
  6
CONTINUOUS
 62
     7
 10
611.045927
 20
2034.562517
 11
611.371357
 21
2034.190809
  0
LINE
  8
CSLAYER1
  6
CONTINUOUS
 62
     7
 10
611.371357
 20
2034.190809
 11
611.661869
 21
2033.762767
  0
LINE
  8
CSLAYER1
  6
CONTINUOUS
 62
     7
 10
611.661869
 20
2033.762767
 11
611.915252
 21
2033.281648
  0
LINE
  8
CSLAYER1
  6
CONTINUOUS
 62
     7
 10
611.915252
 20
2033.281648
 11
612.129578
 21
2032.751114
  0
LINE
  8
CSLAYER1
  6
CONTINUOUS
 62
     7
 10
612.129578
 20
2032.751114
 11
612.303216
 21
2032.175202
  0
LINE
  8
CSLAYER1
  6
CONTINUOUS
 62
     7
 10
612.303216
 20
2032.175202
 11
612.411384
 21
2031.668244
  0
LINE
  8
CSLAYER1
  6
CONTINUOUS
 62
     7
 10
607.311575
 20
2018.958527
 11
607.046237
 21
2018.784749
  0
LINE
  8
CSLAYER1
  6
CONTINUOUS
 62
     7
 10
607.046237
 20
2018.784749
 11
606.541033
 21
2018.516103
  0
LINE
  8
CSLAYER1
  6
CONTINUOUS
 62
     7
 10
606.541033
 20
2018.516103
 11
606.037673
 21
2018.310416
  0
LINE
  8
CSLAYER1
  6
CONTINUOUS
 62
     7
 10
606.037673
 20
2018.310416
 11
605.539987
 21
2018.169254
  0
LINE
  8
CSLAYER1
  6
CONTINUOUS
 62
     7
 10
605.539987
 20
2018.169254
 11
605.051764
 21
2018.093692
  0
LINE
  8
CSLAYER1
  6
CONTINUOUS
 62
     7
 10
605.051764
 20
2018.093692
 11
604.576719
 21
2018.084304
  0
LINE
  8
CSLAYER1
  6
CONTINUOUS
 62
     7
 10
604.576719
 20
2018.084304
 11
604.118468
 21
2018.141161
  0
LINE
  8
CSLAYER1
  6
CONTINUOUS
 62
     7
 10
604.118468
 20
2018.141161
 11
603.680497
 21
2018.263832
  0
LINE
  8
CSLAYER1
  6
CONTINUOUS
 62
     7
 10
603.680497
 20
2018.263832
 11
603.266141
 21
2018.451383
  0
LINE
  8
CSLAYER1
  6
CONTINUOUS
 62
     7
 10
603.266141
 20
2018.451383
 11
602.878552
 21
2018.702386
  0
LINE
  8
CSLAYER1
  6
CONTINUOUS
 62
     7
 10
602.878552
 20
2018.702386
 11
602.520681
 21
2019.014930
  0
LINE
  8
CSLAYER1
  6
CONTINUOUS
 62
     7
 10
602.520681
 20
2019.014930
 11
602.195251
 21
2019.386638
  0
LINE
  8
CSLAYER1
  6
CONTINUOUS
 62
     7
 10
602.195251
 20
2019.386638
 11
601.904739
 21
2019.814681
  0
LINE
  8
CSLAYER1
  6
CONTINUOUS
 62
     7
 10
601.904739
 20
2019.814681
 11
601.651356
 21
2020.295800
  0
LINE
  8
CSLAYER1
  6
CONTINUOUS
 62
     7
 10
601.651356
 20
2020.295800
 11
601.437030
 21
2020.826334
  0
LINE
  8
CSLAYER1
  6
CONTINUOUS
 62
     7
 10
601.437030
 20
2020.826334
 11
601.263392
 21
2021.402245
  0
LINE
  8
CSLAYER1
  6
CONTINUOUS
 62
     7
 10
601.263392
 20
2021.402245
 11
601.131765
 21
2022.019151
  0
LINE
  8
CSLAYER1
  6
CONTINUOUS
 62
     7
 10
601.131765
 20
2022.019151
 11
601.043148
 21
2022.672356
  0
LINE
  8
CSLAYER1
  6
CONTINUOUS
 62
     7
 10
601.043148
 20
2022.672356
 11
600.998218
 21
2023.356889
  0
LINE
  8
CSLAYER1
  6
CONTINUOUS
 62
     7
 10
600.998218
 20
2023.356889
 11
600.997316
 21
2024.067541
  0
LINE
  8
CSLAYER1
  6
CONTINUOUS
 62
     7
 10
600.997316
 20
2024.067541
 11
601.040449
 21
2024.798902
  0
LINE
  8
CSLAYER1
  6
CONTINUOUS
 62
     7
 10
601.040449
 20
2024.798902
 11
601.127288
 21
2025.545407
  0
LINE
  8
CSLAYER1
  6
CONTINUOUS
 62
     7
 10
601.127288
 20
2025.545407
 11
601.257173
 21
2026.301375
  0
LINE
  8
CSLAYER1
  6
CONTINUOUS
 62
     7
 10
601.257173
 20
2026.301375
 11
601.429116
 21
2027.061051
  0
LINE
  8
CSLAYER1
  6
CONTINUOUS
 62
     7
 10
601.429116
 20
2027.061051
 11
601.641806
 21
2027.818655
  0
LINE
  8
CSLAYER1
  6
CONTINUOUS
 62
     7
 10
601.641806
 20
2027.818655
 11
601.893627
 21
2028.568421
  0
LINE
  8
CSLAYER1
  6
CONTINUOUS
 62
     7
 10
601.893627
 20
2028.568421
 11
602.182661
 21
2029.304642
  0
LINE
  8
CSLAYER1
  6
CONTINUOUS
 62
     7
 10
602.182661
 20
2029.304642
 11
602.506709
 21
2030.021715
  0
LINE
  8
CSLAYER1
  6
CONTINUOUS
 62
     7
 10
602.506709
 20
2030.021715
 11
602.863304
 21
2030.714183
  0
LINE
  8
CSLAYER1
  6
CONTINUOUS
 62
     7
 10
602.863304
 20
2030.714183
 11
603.249733
 21
2031.376776
  0
LINE
  8
CSLAYER1
  6
CONTINUOUS
 62
     7
 10
603.249733
 20
2031.376776
 11
603.663055
 21
2032.004452
  0
LINE
  8
CSLAYER1
  6
CONTINUOUS
 62
     7
 10
603.663055
 20
2032.004452
 11
604.100123
 21
2032.592432
  0
LINE
  8
CSLAYER1
  6
CONTINUOUS
 62
     7
 10
604.100123
 20
2032.592432
 11
604.557612
 21
2033.136243
  0
LINE
  8
CSLAYER1
  6
CONTINUOUS
 62
     7
 10
604.557612
 20
2033.136243
 11
605.032040
 21
2033.631745
  0
LINE
  8
CSLAYER1
  6
CONTINUOUS
 62
     7
 10
605.032040
 20
2033.631745
 11
605.519796
 21
2034.075168
  0
LINE
  8
CSLAYER1
  6
CONTINUOUS
 62
     7
 10
605.519796
 20
2034.075168
 11
606.017168
 21
2034.463137
  0
LINE
  8
CSLAYER1
  6
CONTINUOUS
 62
     7
 10
606.017168
 20
2034.463137
 11
606.520371
 21
2034.792698
  0
LINE
  8
CSLAYER1
  6
CONTINUOUS
 62
     7
 10
606.520371
 20
2034.792698
 11
607.025575
 21
2035.061345
  0
LINE
  8
CSLAYER1
  6
CONTINUOUS
 62
     7
 10
607.025575
 20
2035.061345
 11
607.528935
 21
2035.267032
  0
LINE
  8
CSLAYER1
  6
CONTINUOUS
 62
     7
 10
607.528935
 20
2035.267032
 11
608.026621
 21
2035.408194
  0
LINE
  8
CSLAYER1
  6
CONTINUOUS
 62
     7
 10
608.026621
 20
2035.408194
 11
608.514844
 21
2035.483756
  0
LINE
  8
CSLAYER1
  6
CONTINUOUS
 62
     7
 10
608.514844
 20
2035.483756
 11
608.989889
 21
2035.493144
  0
LINE
  8
CSLAYER1
  6
CONTINUOUS
 62
     7
 10
608.989889
 20
2035.493144
 11
609.448140
 21
2035.436286
  0
LINE
  8
CSLAYER1
  6
CONTINUOUS
 62
     7
 10
609.448140
 20
2035.436286
 11
609.886111
 21
2035.313615
  0
LINE
  8
CSLAYER1
  6
CONTINUOUS
 62
     7
 10
678.929199
 20
2009.363441
 11
661.713546
 21
2011.278353
  0
LINE
  8
CSLAYER1
  6
CONTINUOUS
 62
     7
 10
603.366095
 20
2027.988786
 11
603.584605
 21
2028.545369
  0
LINE
  8
CSLAYER1
  6
CONTINUOUS
 62
     7
 10
603.584605
 20
2028.545369
 11
603.829585
 21
2029.087476
  0
LINE
  8
CSLAYER1
  6
CONTINUOUS
 62
     7
 10
603.829585
 20
2029.087476
 11
604.099171
 21
2029.610983
  0
LINE
  8
CSLAYER1
  6
CONTINUOUS
 62
     7
 10
604.099171
 20
2029.610983
 11
604.391311
 21
2030.111903
  0
LINE
  8
CSLAYER1
  6
CONTINUOUS
 62
     7
 10
604.391311
 20
2030.111903
 11
604.703782
 21
2030.586425
  0
LINE
  8
CSLAYER1
  6
CONTINUOUS
 62
     7
 10
604.703782
 20
2030.586425
 11
605.034206
 21
2031.030939
  0
LINE
  8
CSLAYER1
  6
CONTINUOUS
 62
     7
 10
605.034206
 20
2031.030939
 11
605.380068
 21
2031.442060
  0
LINE
  8
CSLAYER1
  6
CONTINUOUS
 62
     7
 10
605.380068
 20
2031.442060
 11
605.738735
 21
2031.816659
  0
LINE
  8
CSLAYER1
  6
CONTINUOUS
 62
     7
 10
605.738735
 20
2031.816659
 11
606.107479
 21
2032.151887
  0
LINE
  8
CSLAYER1
  6
CONTINUOUS
 62
     7
 10
606.107479
 20
2032.151887
 11
606.483492
 21
2032.445191
  0
LINE
  8
CSLAYER1
  6
CONTINUOUS
 62
     7
 10
606.483492
 20
2032.445191
 11
606.863914
 21
2032.694340
  0
LINE
  8
CSLAYER1
  6
CONTINUOUS
 62
     7
 10
606.863914
 20
2032.694340
 11
607.245848
 21
2032.897437
  0
LINE
  8
CSLAYER1
  6
CONTINUOUS
 62
     7
 10
607.245848
 20
2032.897437
 11
607.626388
 21
2033.052936
  0
LINE
  8
CSLAYER1
  6
CONTINUOUS
 62
     7
 10
607.626388
 20
2033.052936
 11
608.002638
 21
2033.159654
  0
LINE
  8
CSLAYER1
  6
CONTINUOUS
 62
     7
 10
608.002638
 20
2033.159654
 11
608.371735
 21
2033.216780
  0
LINE
  8
CSLAYER1
  6
CONTINUOUS
 62
     7
 10
608.371735
 20
2033.216780
 11
608.730869
 21
2033.223877
  0
LINE
  8
CSLAYER1
  6
CONTINUOUS
 62
     7
 10
608.730869
 20
2033.223877
 11
609.077307
 21
2033.180892
  0
LINE
  8
CSLAYER1
  6
CONTINUOUS
 62
     7
 10
609.077307
 20
2033.180892
 11
609.444630
 21
2033.078009
  0
LINE
  8
CSLAYER1
  6
CONTINUOUS
 62
     7
 10
604.403716
 20
2020.340306
 11
604.110699
 21
2020.530064
  0
LINE
  8
CSLAYER1
  6
CONTINUOUS
 62
     7
 10
604.110699
 20
2020.530064
 11
603.840148
 21
2020.766347
  0
LINE
  8
CSLAYER1
  6
CONTINUOUS
 62
     7
 10
603.840148
 20
2020.766347
 11
603.594123
 21
2021.047359
  0
LINE
  8
CSLAYER1
  6
CONTINUOUS
 62
     7
 10
603.594123
 20
2021.047359
 11
603.374496
 21
2021.370959
  0
LINE
  8
CSLAYER1
  6
CONTINUOUS
 62
     7
 10
603.374496
 20
2021.370959
 11
603.182938
 21
2021.734685
  0
LINE
  8
CSLAYER1
  6
CONTINUOUS
 62
     7
 10
603.182938
 20
2021.734685
 11
603.020908
 21
2022.135768
  0
LINE
  8
CSLAYER1
  6
CONTINUOUS
 62
     7
 10
603.020908
 20
2022.135768
 11
602.889638
 21
2022.571157
  0
LINE
  8
CSLAYER1
  6
CONTINUOUS
 62
     7
 10
602.889638
 20
2022.571157
 11
602.790127
 21
2023.037538
  0
LINE
  8
CSLAYER1
  6
CONTINUOUS
 62
     7
 10
602.790127
 20
2023.037538
 11
602.723133
 21
2023.531361
  0
LINE
  8
CSLAYER1
  6
CONTINUOUS
 62
     7
 10
602.723133
 20
2023.531361
 11
602.689166
 21
2024.048868
  0
LINE
  8
CSLAYER1
  6
CONTINUOUS
 62
     7
 10
602.689166
 20
2024.048868
 11
602.688484
 21
2024.586121
  0
LINE
  8
CSLAYER1
  6
CONTINUOUS
 62
     7
 10
602.688484
 20
2024.586121
 11
602.721092
 21
2025.139030
  0
LINE
  8
CSLAYER1
  6
CONTINUOUS
 62
     7
 10
602.721092
 20
2025.139030
 11
602.786743
 21
2025.703388
  0
LINE
  8
CSLAYER1
  6
CONTINUOUS
 62
     7
 10
602.786743
 20
2025.703388
 11
602.884936
 21
2026.274899
  0
LINE
  8
CSLAYER1
  6
CONTINUOUS
 62
     7
 10
602.884936
 20
2026.274899
 11
603.014924
 21
2026.849215
  0
LINE
  8
CSLAYER1
  6
CONTINUOUS
 62
     7
 10
603.014924
 20
2026.849215
 11
603.175719
 21
2027.421963
  0
LINE
  8
CSLAYER1
  6
CONTINUOUS
 62
     7
 10
603.175719
 20
2027.421963
 11
603.366095
 21
2027.988786
  0
ARC
  8
CSLAYER1
  6
CONTINUOUS
 62
     7
 10
679.362460
 20
2003.427642
 40
7.892050
 50
255.737756
 51
348.379625
  0
LINE
  8
CSLAYER1
  6
CONTINUOUS
 62
     7
 10
678.929199
 20
2009.363441
 11
700.150787
 21
2022.624161
  0
INSERT
  8
CSLAYER1
  2
EASYDRAWDIM0000
 10
0.0
 20
0.0
 30
0.0
  0
INSERT
  8
CSLAYER1
  2
EASYDRAWDIM0001
 10
0.0
 20
0.0
 30
0.0
  0
TEXT
  8
CSLAYER1
 62
     3
 10
475.527405
 20
2329.142822
 40
40.000000
 41
0.771429
  1
足踏式油圧ポンプユニット
 50
0.000000
 51
0.000000
  7
EASYDRAW_FONT
 72
     5
 11
835.527405
 21
2329.142822
  0
TEXT
  8
CSLAYER1
 62
     3
 10
385.551819
 20
1724.191406
 40
40.000000
 41
0.763393
  1
外形寸法 400W×500D×280H
 50
0.000000
 51
0.000000
  7
EASYDRAW_FONT
 72
     5
 11
955.551819
 21
1724.191406
  0
LINE
  8
CSLAYER1
  6
CONTINUOUS
 62
     5
 10
1044.115784
 20
2402.217859
 11
1044.115784
 21
1698.108270
  0
LINE
  8
CSLAYER1
  6
CONTINUOUS
 62
     5
 10
1044.115784
 20
1698.108270
 11
242.821653
 21
1698.108270
  0
INSERT
  8
CSLAYER1
  2
EASYDRAWDIM0002
 10
0.0
 20
0.0
 30
0.0
  0
LINE
  8
CSLAYER1
  6
CONTINUOUS
 62
     7
 10
460.618558
 20
2374.589002
 11
850.629805
 21
2374.589002
  0
LINE
  8
CSLAYER1
  6
CONTINUOUS
 62
     7
 10
850.629805
 20
2374.589002
 11
850.629805
 21
2324.444699
  0
LINE
  8
CSLAYER1
  6
CONTINUOUS
 62
     7
 10
850.629805
 20
2324.444699
 11
460.618558
 21
2324.444699
  0
LINE
  8
CSLAYER1
  6
CONTINUOUS
 62
     7
 10
460.618558
 20
2324.444699
 11
460.618558
 21
2374.589002
  0
INSERT
  8
CSLAYER1
  2
BLKF0003
 10
0.0
 20
0.0
 30
0.0
  0
INSERT
  8
CSLAYER1
  2
BLKF0004
 10
0.0
 20
0.0
 30
0.0
  0
LINE
  8
CSLAYER1
  6
CONTINUOUS
 62
     7
 10
646.644781
 20
2058.564158
 11
643.697889
 21
2056.862769
  0
LINE
  8
CSLAYER1
  6
CONTINUOUS
 62
     7
 10
651.068392
 20
2050.902239
 11
648.121500
 21
2049.200850
  0
LINE
  8
CSLAYER1
  6
CONTINUOUS
 62
     7
 10
644.548584
 20
2055.389323
 11
646.937632
 21
2054.812249
  0
LINE
  8
CSLAYER1
  6
CONTINUOUS
 62
     7
 10
646.937632
 20
2054.812249
 11
647.965570
 21
2053.031809
  0
LINE
  8
CSLAYER1
  6
CONTINUOUS
 62
     7
 10
647.965570
 20
2053.031809
 11
647.270806
 21
2050.674296
  0
LINE
  8
CSLAYER1
  6
CONTINUOUS
 62
     7
 10
647.270806
 20
2050.674296
 11
644.881758
 21
2051.251370
  0
LINE
  8
CSLAYER1
  6
CONTINUOUS
 62
     7
 10
644.881758
 20
2051.251370
 11
643.853820
 21
2053.031809
  0
LINE
  8
CSLAYER1
  6
CONTINUOUS
 62
     7
 10
643.853820
 20
2053.031809
 11
644.548584
 21
2055.389323
  0
INSERT
  8
CSLAYER1
  2
BLKF0005
 10
0.0
 20
0.0
 30
0.0
  0
LINE
  8
CSLAYER1
  6
CONTINUOUS
 62
     7
 10
647.842132
 20
2060.701265
 11
645.657326
 21
2059.439867
  0
LINE
  8
CSLAYER1
  6
CONTINUOUS
 62
     7
 10
653.755811
 20
2050.179627
 11
651.655095
 21
2049.002059
  0
INSERT
  8
CSLAYER1
  2
BLKF0006
 10
0.0
 20
0.0
 30
0.0
  0
LINE
  8
CSLAYER1
  6
CONTINUOUS
 62
     7
 10
674.907121
 20
2063.113929
 11
653.862845
 21
2070.773419
  0
LINE
  8
CSLAYER1
  6
CONTINUOUS
 62
     7
 10
674.907121
 20
2063.113929
 11
674.907121
 21
2029.305595
  0
LINE
  8
CSLAYER1
  6
CONTINUOUS
 62
     7
 10
664.712028
 20
2056.743328
 11
664.712028
 21
2010.944830
  0
LINE
  8
CSLAYER1
  6
CONTINUOUS
 62
     7
 10
649.559107
 20
2033.171251
 11
647.425182
 21
2026.180318
  0
LINE
  8
CSLAYER1
  6
CONTINUOUS
 62
     7
 10
647.425182
 20
2026.180318
 11
640.303894
 21
2027.827752
  0
LINE
  8
CSLAYER1
  6
CONTINUOUS
 62
     7
 10
640.303894
 20
2027.827752
 11
637.218823
 21
2033.171251
  0
LINE
  8
CSLAYER1
  6
CONTINUOUS
 62
     7
 10
637.218823
 20
2033.171251
 11
639.303965
 21
2040.246679
  0
LINE
  8
CSLAYER1
  6
CONTINUOUS
 62
     7
 10
639.303965
 20
2040.246679
 11
646.474036
 21
2038.514751
  0
LINE
  8
CSLAYER1
  6
CONTINUOUS
 62
     7
 10
646.474036
 20
2038.514751
 11
649.559107
 21
2033.171251
  0
LINE
  8
CSLAYER1
  6
CONTINUOUS
 62
     7
 10
652.227685
 20
2034.711956
 11
650.093761
 21
2027.721022
  0
LINE
  8
CSLAYER1
  6
CONTINUOUS
 62
     7
 10
649.142614
 20
2040.055455
 11
652.227685
 21
2034.711956
  0
LINE
  8
CSLAYER1
  6
CONTINUOUS
 62
     7
 10
641.972543
 20
2041.787383
 11
649.142614
 21
2040.055455
  0
LINE
  8
CSLAYER1
  6
CONTINUOUS
 62
     7
 10
650.093761
 20
2027.721022
 11
647.425182
 21
2026.180318
  0
LINE
  8
CSLAYER1
  6
CONTINUOUS
 62
     7
 10
652.227685
 20
2034.711956
 11
649.559107
 21
2033.171251
  0
LINE
  8
CSLAYER1
  6
CONTINUOUS
 62
     7
 10
649.142614
 20
2040.055455
 11
646.474036
 21
2038.514751
  0
LINE
  8
CSLAYER1
  6
CONTINUOUS
 62
     7
 10
641.972543
 20
2041.787383
 11
639.303965
 21
2040.246679
  0
INSERT
  8
CSLAYER1
  2
BLKF0007
 10
0.0
 20
0.0
 30
0.0
  0
LINE
  8
CSLAYER1
  6
CONTINUOUS
 62
     7
 10
666.019745
 20
2062.726918
 11
664.360038
 21
2060.982813
  0
LINE
  8
CSLAYER1
  6
CONTINUOUS
 62
     7
 10
664.360038
 20
2060.982813
 11
662.346120
 21
2060.982813
  0
LINE
  8
CSLAYER1
  6
CONTINUOUS
 62
     7
 10
662.346120
 20
2060.982813
 11
660.686412
 21
2062.726918
  0
LINE
  8
CSLAYER1
  6
CONTINUOUS
 62
     7
 10
660.686412
 20
2062.726918
 11
662.346120
 21
2064.471022
  0
LINE
  8
CSLAYER1
  6
CONTINUOUS
 62
     7
 10
662.346120
 20
2064.471022
 11
664.360038
 21
2064.471022
  0
LINE
  8
CSLAYER1
  6
CONTINUOUS
 62
     7
 10
664.360038
 20
2064.471022
 11
666.019745
 21
2062.726918
  0
INSERT
  8
CSLAYER1
  2
BLKF0008
 10
0.0
 20
0.0
 30
0.0
  0
LINE
  8
CSLAYER1
  6
CONTINUOUS
 62
     7
 10
664.712028
 20
2056.743328
 11
643.667752
 21
2064.402818
  0
LINE
  8
CSLAYER1
  6
CONTINUOUS
 62
     7
 10
664.712028
 20
2056.743328
 11
674.907121
 21
2063.113929
  0
LINE
  8
CSLAYER1
  6
CONTINUOUS
 62
     7
 10
630.139141
 20
2068.010282
 11
630.139141
 21
2023.244232
  0
LINE
  8
CSLAYER1
  6
CONTINUOUS
 62
     7
 10
643.667752
 20
2064.402818
 11
653.862845
 21
2070.773419
  0
LINE
  8
CSLAYER1
  6
CONTINUOUS
 62
     7
 10
643.667752
 20
2063.086270
 11
630.139141
 21
2068.010282
  0
LINE
  8
CSLAYER1
  6
CONTINUOUS
 62
     7
 10
643.667752
 20
2064.402818
 11
643.667752
 21
2063.086270
  0
LINE
  8
CSLAYER1
  6
CONTINUOUS
 62
     7
 10
639.593277
 20
2063.390013
 11
632.954931
 21
2065.806174
  0
LINE
  8
CSLAYER1
  6
CONTINUOUS
 62
     7
 10
632.560953
 20
2067.128815
 11
632.954931
 21
2065.806174
  0
LINE
  8
CSLAYER1
  6
CONTINUOUS
 62
     7
 10
639.593277
 20
2063.390013
 11
641.807782
 21
2063.763244
  0
LINE
  8
CSLAYER1
  6
CONTINUOUS
 62
     7
 10
652.531439
 20
2069.941464
 11
646.256367
 21
2072.225403
  0
LINE
  8
CSLAYER1
  6
CONTINUOUS
 62
     7
 10
630.139141
 20
2068.010282
 11
639.195041
 21
2073.669036
  0
LINE
  8
CSLAYER1
  6
CONTINUOUS
 62
     7
 10
639.593277
 20
2063.390013
 11
639.593277
 21
2049.636559
  0
LINE
  8
CSLAYER1
  6
CONTINUOUS
 62
     7
 10
641.807782
 20
2063.763244
 11
641.807782
 21
2051.109224
  0
LINE
  8
CSLAYER1
  6
CONTINUOUS
 62
     7
 10
632.954931
 20
2065.806174
 11
632.954931
 21
2052.052719
  0
LINE
  8
CSLAYER1
  6
CONTINUOUS
 62
     7
 10
632.954931
 20
2052.052719
 11
634.679860
 21
2046.936672
  0
LINE
  8
CSLAYER1
  6
CONTINUOUS
 62
     7
 10
639.593277
 20
2049.636559
 11
637.216117
 21
2045.873081
  0
LINE
  8
CSLAYER1
  6
CONTINUOUS
 62
     7
 10
634.679860
 20
2046.936672
 11
634.679860
 21
2021.451380
  0
LINE
  8
CSLAYER1
  6
CONTINUOUS
 62
     7
 10
637.216117
 20
2045.873081
 11
637.216117
 21
2019.733271
  0
LINE
  8
CSLAYER1
  6
CONTINUOUS
 62
     7
 10
639.593277
 20
2049.636559
 11
641.715026
 21
2050.962374
  0
LINE
  8
CSLAYER1
  6
CONTINUOUS
 62
     7
 10
637.216117
 20
2045.873081
 11
639.337865
 21
2047.198896
  0
LINE
  8
CSLAYER1
  6
CONTINUOUS
 62
     7
 10
641.807782
 20
2051.109224
 11
639.430621
 21
2047.345746
  0
LINE
  8
CSLAYER1
  6
CONTINUOUS
 62
     7
 10
639.430621
 20
2047.345746
 11
639.430621
 21
2040.319804
  0
LINE
  8
CSLAYER1
  6
CONTINUOUS
 62
     7
 10
639.430621
 20
2029.340305
 11
639.430621
 21
2018.833308
  0
LINE
  8
CSLAYER1
  6
CONTINUOUS
 62
     7
 10
674.907121
 20
2029.305595
 11
677.441919
 21
2030.889513
  0
LINE
  8
CSLAYER1
  6
CONTINUOUS
 62
     7
 10
645.781247
 20
2015.811296
 11
609.444630
 21
2033.078009
  0
LINE
  8
CSLAYER1
  6
CONTINUOUS
 62
     7
 10
639.864536
 20
2003.489761
 11
604.403716
 21
2020.340306
  0
LINE
  8
CSLAYER1
  6
CONTINUOUS
 62
     7
 10
690.072154
 20
2016.326332
 11
687.092752
 21
2001.837976
  0
ARC
  8
CSLAYER1
  6
CONTINUOUS
 62
     7
 10
667.241003
 20
2060.971886
 40
50.000000
 50
244.583509
 51
263.653028
  0
ARC
  8
CSLAYER1
  6
CONTINUOUS
 62
     7
 10
667.333023
 20
2061.295316
 40
64.000000
 50
244.583509
 51
263.653028
  0
LINE
  8
CSLAYER1
  6
CONTINUOUS
 62
     7
 10
658.406135
 20
1997.920947
 11
658.406135
 21
1995.025218
  0
LINE
  8
CSLAYER1
  6
CONTINUOUS
 62
     7
 10
635.447161
 20
2003.381602
 11
632.640219
 21
2006.922667
  0
LINE
  8
CSLAYER1
  6
CONTINUOUS
 62
     3
 10
1504.327722
 20
799.475417
 11
1504.327722
 21
839.475417
  0
LINE
  8
CSLAYER1
  6
CENTER
 62
     5
 10
1464.327722
 20
1948.037375
 11
2247.027722
 21
1948.037375
  0
LINE
  8
CSLAYER1
  6
DASHED
 62
     4
 10
1507.027722
 20
2048.037375
 11
2207.027722
 21
2048.037375
  0
LINE
  8
CSLAYER1
  6
CONTINUOUS
 62
     3
 10
1504.327722
 20
1808.037375
 11
1504.327722
 21
1973.887375
  0
LINE
  8
CSLAYER1
  6
CONTINUOUS
 62
     4
 10
1507.027722
 20
2098.037375
 11
1507.027722
 21
1798.037375
  0
LINE
  8
CSLAYER1
  6
CONTINUOUS
 62
     4
 10
2207.027722
 20
2098.037375
 11
2207.027722
 21
1798.037375
  0
INSERT
  8
CSLAYER1
  2
BLKF0009
 10
0.0
 20
0.0
 30
0.0
  0
LINE
  8
CSLAYER1
  6
CENTER
 62
     5
 10
1574.666463
 20
891.556907
 11
1708.360291
 21
1131.985629
  0
LINE
  8
CSLAYER1
  6
CENTER
 62
     5
 10
894.099412
 20
1419.453528
 11
894.099412
 21
759.475417
  0
LINE
  8
CSLAYER1
  6
CENTER
 62
     5
 10
1019.099412
 20
790.546056
 11
1019.099412
 21
814.756018
  0
LINE
  8
CSLAYER1
  6
CENTER
 62
     5
 10
769.099412
 20
790.546056
 11
769.099412
 21
814.756018
  0
LINE
  8
CSLAYER1
  6
CENTER
 62
     5
 10
864.099412
 20
802.785854
 11
864.099412
 21
836.049173
  0
LINE
  8
CSLAYER1
  6
CENTER
 62
     5
 10
846.225466
 20
819.475417
 11
883.222423
 21
819.475417
  0
LINE
  8
CSLAYER1
  6
CENTER
 62
     5
 10
819.599412
 20
1359.653528
 11
968.599412
 21
1359.653528
  0
LINE
  8
CSLAYER1
  6
CENTER
 62
     5
 10
814.599412
 20
1080.252654
 11
973.599412
 21
1080.252654
  0
ARC
  8
CSLAYER1
  6
CONTINUOUS
 62
     3
 10
1551.605027
 20
1359.653528
 40
9.500000
 50
-190.922071
 51
10.922071
  0
LINE
  8
CSLAYER1
  6
CONTINUOUS
 62
     3
 10
1542.105027
 20
1361.453528
 11
1542.105027
 21
1354.168700
  0
LINE
  8
CSLAYER1
  6
CONTINUOUS
 62
     3
 10
1542.105027
 20
1354.168700
 11
1551.605027
 21
1348.683873
  0
LINE
  8
CSLAYER1
  6
CONTINUOUS
 62
     3
 10
1551.605027
 20
1348.683873
 11
1561.105027
 21
1354.168700
  0
LINE
  8
CSLAYER1
  6
CONTINUOUS
 62
     3
 10
1561.105027
 20
1354.168700
 11
1561.105027
 21
1361.453528
  0
POINT
  8
CSLAYER1
 62
     3
 10
1551.605027
 20
1359.653528
  0
LINE
  8
CSLAYER1
  6
CONTINUOUS
 62
     3
 10
1529.305027
 20
1379.453528
 11
1529.305027
 21
1361.453528
  0
LINE
  8
CSLAYER1
  6
CONTINUOUS
 62
     3
 10
2229.305027
 20
1379.453528
 11
2229.305027
 21
1361.453528
  0
LINE
  8
CSLAYER1
  6
CONTINUOUS
 62
     3
 10
1581.605027
 20
1347.153528
 11
2211.605027
 21
1347.153528
  0
LINE
  8
CSLAYER1
  6
CONTINUOUS
 62
     3
 10
1529.305027
 20
1379.453528
 11
2229.305027
 21
1379.453528
  0
LINE
  8
CSLAYER1
  6
CONTINUOUS
 62
     3
 10
1531.605027
 20
1361.453528
 11
1531.605027
 21
1354.153528
  0
LINE
  8
CSLAYER1
  6
CONTINUOUS
 62
     3
 10
1529.305027
 20
1361.453528
 11
2229.305027
 21
1361.453528
  0
LINE
  8
CSLAYER1
  6
CONTINUOUS
 62
     3
 10
1536.605027
 20
1349.153528
 11
1550.791561
 21
1349.153528
  0
ARC
  8
CSLAYER1
  6
CONTINUOUS
 62
     3
 10
1536.605027
 20
1354.153528
 40
5.000000
 50
180.000000
 51
270.000000
  0
LINE
  8
CSLAYER1
  6
CONTINUOUS
 62
     3
 10
2211.605027
 20
1361.453528
 11
2211.605027
 21
1347.153528
  0
LINE
  8
CSLAYER1
  6
CONTINUOUS
 62
     3
 10
1581.605027
 20
1358.153528
 11
1556.605027
 21
1349.153528
  0
LINE
  8
CSLAYER1
  6
CONTINUOUS
 62
     3
 10
1581.605027
 20
1361.453528
 11
1581.605027
 21
1347.153528
  0
LINE
  8
CSLAYER1
  6
CONTINUOUS
 62
     4
 10
1769.832716
 20
1130.509065
 11
1761.751811
 21
1111.668975
  0
LINE
  8
CSLAYER1
  6
CONTINUOUS
 62
     4
 10
1561.660263
 20
839.475417
 11
1575.037658
 21
857.958362
  0
LINE
  8
CSLAYER1
  6
CONTINUOUS
 62
     4
 10
1575.037658
 20
857.958362
 11
1580.580752
 21
861.353080
  0
LINE
  8
CSLAYER1
  6
CONTINUOUS
 62
     4
 10
1539.181483
 20
896.254377
 11
1865.528624
 21
1347.153528
  0
LINE
  8
CSLAYER1
  6
CONTINUOUS
 62
     4
 10
1580.580752
 20
861.353080
 11
1761.751811
 21
1111.668975
  0
ARC
  8
CSLAYER1
  6
DASHED
 62
     5
 10
1888.154587
 20
1359.653528
 40
13.000000
 50
-74.057631
 51
254.057631
  0
POINT
  8
CSLAYER1
 62
     4
 10
1888.154587
 20
1359.653528
  0
POINT
  8
CSLAYER1
 62
     4
 10
1719.879807
 20
1080.252654
  0
LINE
  8
CSLAYER1
  6
CONTINUOUS
 62
     4
 10
1769.832716
 20
1130.509065
 11
1890.027108
 21
1296.576244
  0
LINE
  8
CSLAYER1
  6
CONTINUOUS
 62
     4
 10
1890.027108
 20
1296.576244
 11
1897.440030
 21
1347.153528
  0
LINE
  8
CSLAYER1
  6
CONTINUOUS
 62
     4
 10
1561.107526
 20
889.026053
 11
1574.068867
 21
879.645027
  0
LINE
  8
CSLAYER1
  6
CONTINUOUS
 62
     4
 10
1581.628520
 20
917.378986
 11
1594.589860
 21
907.997961
  0
LINE
  8
CSLAYER1
  6
CONTINUOUS
 62
     4
 10
1578.258060
 20
880.316336
 11
1595.261170
 21
903.808767
  0
LINE
  8
CSLAYER1
  6
CONTINUOUS
 62
     4
 10
1560.436217
 20
893.215247
 11
1577.439326
 21
916.707677
  0
ARC
  8
CSLAYER1
  6
CONTINUOUS
 62
     4
 10
1562.866468
 20
891.456304
 40
3.000000
 50
144.104120
 51
234.104120
  0
ARC
  8
CSLAYER1
  6
CONTINUOUS
 62
     4
 10
1579.869577
 20
914.948735
 40
3.000000
 50
54.104120
 51
144.104120
  0
ARC
  8
CSLAYER1
  6
CONTINUOUS
 62
     4
 10
1575.827809
 20
882.075279
 40
3.000000
 50
234.104120
 51
324.104120
  0
ARC
  8
CSLAYER1
  6
CONTINUOUS
 62
     4
 10
1592.830918
 20
905.567709
 40
3.000000
 50
-35.895880
 51
54.104120
  0
LINE
  8
CSLAYER1
  6
CONTINUOUS
 62
     4
 10
1539.181483
 20
896.254377
 11
1521.111275
 21
835.055227
  0
POINT
  8
CSLAYER1
 62
     7
 10
1708.360291
 20
1131.985629
  0
LINE
  8
CSLAYER1
  6
CONTINUOUS
 62
     7
 10
1752.010873
 20
1017.097332
 11
1880.568231
 21
839.475417
  0
CIRCLE
  8
CSLAYER1
  6
DASHED
 62
     5
 10
1910.431891
 20
816.975417
 40
13.000000
  0
POINT
  8
CSLAYER1
 62
     7
 10
1910.431891
 20
816.975417
  0
POINT
  8
CSLAYER1
 62
     7
 10
1719.879807
 20
1080.252654
  0
LINE
  8
CSLAYER1
  6
CONTINUOUS
 62
     7
 10
1912.304413
 20
880.052701
 11
1918.251672
 21
839.475417
  0
LINE
  8
CSLAYER1
  6
CONTINUOUS
 62
     7
 10
1569.439371
 20
1353.773892
 11
1719.879807
 21
1145.917115
  0
LINE
  8
CSLAYER1
  6
CONTINUOUS
 62
     7
 10
1572.106044
 20
1291.024674
 11
1542.373811
 21
1349.153528
  0
ARC
  8
CSLAYER1
  6
CONTINUOUS
 62
     7
 10
1563.203059
 20
1286.470900
 40
10.000000
 50
-0.046232
 51
27.089216
  0
LINE
  8
CSLAYER1
  6
CONTINUOUS
 62
     7
 10
1573.203056
 20
1286.462831
 11
1573.187687
 21
1267.416504
  0
ARC
  8
CSLAYER1
  6
CONTINUOUS
 62
     7
 10
1583.187684
 20
1267.408435
 40
10.000000
 50
179.953768
 51
215.895880
  0
LINE
  8
CSLAYER1
  6
CONTINUOUS
 62
     7
 10
1678.007803
 20
1111.668975
 11
1686.549922
 21
1099.866714
  0
LINE
  8
CSLAYER1
  6
CONTINUOUS
 62
     7
 10
1752.010873
 20
1017.097332
 11
1736.639213
 21
1030.660595
  0
LINE
  8
CSLAYER1
  6
CONTINUOUS
 62
     7
 10
1669.926898
 20
1130.509065
 11
1678.007803
 21
1111.668975
  0
LINE
  8
CSLAYER1
  6
CONTINUOUS
 62
     7
 10
1669.926898
 20
1130.509065
 11
1575.086846
 21
1261.545294
  0
POINT
  8
CSLAYER1
 62
     7
 10
1551.605027
 20
1359.653528
  0
CIRCLE
  8
CSLAYER1
  6
CONTINUOUS
 62
     7
 10
1719.879807
 20
1080.252654
 40
7.500000
  0
POINT
  8
CSLAYER1
 62
     5
 10
1708.360291
 20
1131.985629
  0
LINE
  8
CSLAYER1
  6
CONTINUOUS
 62
     4
 10
1594.838136
 20
903.224281
 11
1575.473851
 21
913.992069
  0
LINE
  8
CSLAYER1
  6
CONTINUOUS
 62
     4
 10
1629.892500
 20
1038.199619
 11
1638.466453
 21
1033.431949
  0
LINE
  8
CSLAYER1
  6
CONTINUOUS
 62
     4
 10
1600.104564
 20
991.832293
 11
1605.989441
 21
988.559923
  0
LINE
  8
CSLAYER1
  6
CONTINUOUS
 62
     4
 10
1599.716579
 20
993.192244
 11
1616.239989
 21
1022.907172
  0
LINE
  8
CSLAYER1
  6
CONTINUOUS
 62
     4
 10
1616.239989
 20
1022.907172
 11
1629.892500
 21
1038.199619
  0
LINE
  8
CSLAYER1
  6
CONTINUOUS
 62
     4
 10
1599.716579
 20
993.192244
 11
1600.104564
 21
991.832293
  0
LINE
  8
CSLAYER1
  6
CONTINUOUS
 62
     4
 10
1583.602627
 20
957.629072
 11
1602.027295
 21
990.763131
  0
POINT
  8
CSLAYER1
 62
     5
 10
1574.666463
 20
891.556907
  0
LINE
  8
CSLAYER1
  6
CONTINUOUS
 62
     4
 10
1581.167067
 20
862.163164
 11
1581.572108
 21
861.870007
  0
CIRCLE
  8
CSLAYER1
  6
CONTINUOUS
 62
     4
 10
1574.666463
 20
891.556907
 40
8.000000
  0
LINE
  8
CSLAYER1
  6
CONTINUOUS
 62
     4
 10
1584.047489
 20
904.518248
 11
1591.743285
 21
898.948264
  0
ARC
  8
CSLAYER1
  6
CONTINUOUS
 62
     4
 10
1574.666463
 20
891.556907
 40
16.000000
 50
54.104120
 51
105.479287
  0
POINT
  8
CSLAYER1
 62
     2
 10
1574.666463
 20
891.556907
  0
LINE
  8
CSLAYER1
  6
CONTINUOUS
 62
     4
 10
1581.572108
 20
861.870007
 11
1565.363583
 21
839.475417
  0
LINE
  8
CSLAYER1
  6
CENTER
 62
     5
 10
1512.270174
 20
819.475417
 11
1364.533066
 21
819.475417
  0
LINE
  8
CSLAYER1
  6
CONTINUOUS
 62
     1
 10
1504.327722
 20
837.475417
 11
1504.327722
 21
799.475417
  0
LINE
  8
CSLAYER1
  6
CONTINUOUS
 62
     4
 10
1504.327722
 20
839.475417
 11
1504.327722
 21
799.475417
  0
LINE
  8
CSLAYER1
  6
CONTINUOUS
 62
     4
 10
1504.327722
 20
839.475417
 11
1517.871283
 21
839.475417
  0
LINE
  8
CSLAYER1
  6
CONTINUOUS
 62
     3
 10
2207.327722
 20
839.475417
 11
2207.327722
 21
799.475417
  0
LINE
  8
CSLAYER1
  6
CONTINUOUS
 62
     3
 10
1504.327722
 20
839.475417
 11
1517.871283
 21
839.475417
  0
LINE
  8
CSLAYER1
  6
CONTINUOUS
 62
     4
 10
1540.784162
 20
839.475417
 11
1557.327722
 21
839.475417
  0
LINE
  8
CSLAYER1
  6
CONTINUOUS
 62
     5
 10
566.716298
 20
799.475417
 11
744.099412
 21
799.475417
  0
LINE
  8
CSLAYER1
  6
CONTINUOUS
 62
     3
 10
1552.418494
 20
1349.153528
 11
1556.605027
 21
1349.153528
  0
ARC
  8
CSLAYER1
  6
CONTINUOUS
 62
     4
 10
1888.154587
 20
1359.653528
 40
13.000000
 50
254.057631
 51
285.942369
  0
ARC
  8
CSLAYER1
  6
CONTINUOUS
 62
     4
 10
1708.360291
 20
1131.985629
 40
8.000000
 50
45.741168
 51
242.467072
  0
POINT
  8
CSLAYER1
 62
     4
 10
1708.360291
 20
1131.985629
  0
LINE
  8
CSLAYER1
  6
CONTINUOUS
 62
     4
 10
1634.262342
 20
1035.769705
 11
1677.336940
 21
1113.233046
  0
LINE
  8
CSLAYER1
  6
CONTINUOUS
 62
     7
 10
1719.879807
 20
1053.816312
 11
1736.639213
 21
1030.660595
  0
LINE
  8
CSLAYER1
  6
CONTINUOUS
 62
     7
 10
1753.209692
 20
1099.866714
 11
1912.304413
 21
880.052701
  0
LINE
  8
CSLAYER1
  6
CONTINUOUS
 62
     4
 10
1616.239989
 20
1022.907172
 11
1626.656630
 21
1017.114849
  0
ARC
  8
CSLAYER1
  6
CONTINUOUS
 62
     3
 10
1529.327722
 20
844.475417
 40
12.500000
 50
203.578178
 51
336.421822
  0
LINE
  8
CSLAYER1
  6
CONTINUOUS
 62
     3
 10
1540.784162
 20
839.475417
 11
2207.327722
 21
839.475417
  0
INSERT
  8
CSLAYER1
  2
BLKF0010
 10
0.0
 20
0.0
 30
0.0
  0
LINE
  8
CSLAYER1
  6
CENTER
 62
     5
 10
1538.916146
 20
1359.653528
 11
1564.650441
 21
1359.653528
  0
LINE
  8
CSLAYER1
  6
CENTER
 62
     5
 10
1551.605027
 20
1370.498316
 11
1551.605027
 21
1344.764021
  0
LINE
  8
CSLAYER1
  6
CENTER
 62
     5
 10
1888.154587
 20
1375.692869
 11
1888.154587
 21
1340.744550
  0
LINE
  8
CSLAYER1
  6
CENTER
 62
     5
 10
1871.809948
 20
1359.653528
 11
1905.431116
 21
1359.653528
  0
LINE
  8
CSLAYER1
  6
CENTER
 62
     5
 10
1706.420621
 20
1080.252654
 11
1732.977473
 21
1080.252654
  0
LINE
  8
CSLAYER1
  6
CENTER
 62
     5
 10
1719.879807
 20
1091.240092
 11
1719.879807
 21
1068.208486
  0
LINE
  8
CSLAYER1
  6
CENTER
 62
     5
 10
1708.360291
 20
1141.063567
 11
1708.360291
 21
1122.912007
  0
LINE
  8
CSLAYER1
  6
CENTER
 62
     5
 10
1698.502642
 20
1131.985629
 11
1715.575892
 21
1131.985629
  0
LINE
  8
CSLAYER1
  6
CENTER
 62
     5
 10
1893.545446
 20
816.975417
 11
1927.470784
 21
816.975417
  0
LINE
  8
CSLAYER1
  6
CENTER
 62
     5
 10
1910.431891
 20
833.290541
 11
1910.431891
 21
800.261344
  0
LINE
  8
CSLAYER1
  6
CENTER
 62
     5
 10
1574.666463
 20
901.657902
 11
1574.666463
 21
880.976460
  0
LINE
  8
CSLAYER1
  6
CENTER
 62
     5
 10
1563.375131
 20
891.556907
 11
1584.830745
 21
891.556907
  0
LINE
  8
CSLAYER1
  6
CENTER
 62
     5
 10
1516.828062
 20
816.975417
 11
1541.919517
 21
816.975417
  0
LINE
  8
CSLAYER1
  6
CENTER
 62
     5
 10
1529.327722
 20
831.975417
 11
1529.327722
 21
796.431995
  0
LINE
  8
CSLAYER1
  6
PHANTOM
 62
     5
 10
1779.327722
 20
861.975417
 11
1779.327722
 21
857.475417
  0
LINE
  8
CSLAYER1
  6
PHANTOM
 62
     5
 10
1704.327722
 20
861.975417
 11
1704.327722
 21
857.475417
  0
POINT
  8
CSLAYER1
 62
     5
 10
1529.327722
 20
844.475417
  0
LINE
  8
CSLAYER1
  6
PHANTOM
 62
     5
 10
1507.027722
 20
864.275417
 11
1507.027722
 21
846.275417
  0
LINE
  8
CSLAYER1
  6
PHANTOM
 62
     5
 10
2207.027722
 20
864.275417
 11
2207.027722
 21
846.275417
  0
LINE
  8
CSLAYER1
  6
PHANTOM
 62
     5
 10
1507.027722
 20
864.275417
 11
2207.027722
 21
864.275417
  0
LINE
  8
CSLAYER1
  6
PHANTOM
 62
     5
 10
2207.027722
 20
846.275417
 11
1507.027722
 21
846.275417
  0
LINE
  8
CSLAYER1
  6
PHANTOM
 62
     5
 10
1509.327722
 20
846.275417
 11
1509.327722
 21
838.975417
  0
LINE
  8
CSLAYER1
  6
PHANTOM
 62
     5
 10
2189.327722
 20
846.275417
 11
2189.327722
 21
839.475417
  0
LINE
  8
CSLAYER1
  6
PHANTOM
 62
     5
 10
1559.327722
 20
842.975417
 11
1549.605500
 21
839.475417
  0
LINE
  8
CSLAYER1
  6
PHANTOM
 62
     5
 10
1559.327722
 20
846.275417
 11
1559.327722
 21
839.475417
  0
LINE
  8
CSLAYER1
  6
CENTER
 62
     5
 10
1529.327722
 20
854.204813
 11
1529.327722
 21
835.450299
  0
LINE
  8
CSLAYER1
  6
CENTER
 62
     5
 10
1516.647734
 20
844.475417
 11
1540.517116
 21
844.475417
  0
LINE
  8
CSLAYER1
  6
DASHED
 62
     4
 10
1554.327722
 20
2088.037375
 11
1554.327722
 21
2048.037375
  0
LINE
  8
CSLAYER1
  6
CONTINUOUS
 62
     3
 10
1514.327722
 20
2098.037375
 11
1544.327722
 21
2098.037375
  0
ARC
  8
CSLAYER1
  6
CONTINUOUS
 62
     3
 10
1514.327722
 20
2088.037375
 40
10.000000
 50
136.886394
 51
180.000000
  0
ARC
  8
CSLAYER1
  6
CONTINUOUS
 62
     4
 10
1544.327722
 20
2088.037375
 40
10.000000
 50
0.000000
 51
90.000000
  0
LINE
  8
CSLAYER1
  6
CENTER
 62
     5
 10
1529.327722
 20
2061.774574
 11
1529.327722
 21
2084.300177
  0
LINE
  8
CSLAYER1
  6
CENTER
 62
     5
 10
1518.064921
 20
2073.037375
 11
1540.590524
 21
2073.037375
  0
ARC
  8
CSLAYER1
  6
CONTINUOUS
 62
     3
 10
1529.327722
 20
2073.037375
 40
6.500000
 50
156.768748
 51
203.654607
  0
LINE
  8
CSLAYER1
  6
CONTINUOUS
 62
     3
 10
794.099412
 20
839.475417
 11
994.099412
 21
839.475417
  0
LINE
  8
CSLAYER1
  6
CONTINUOUS
 62
     3
 10
794.099412
 20
839.475417
 11
794.099412
 21
805.475417
  0
LINE
  8
CSLAYER1
  6
CONTINUOUS
 62
     3
 10
994.099412
 20
839.475417
 11
994.099412
 21
805.475417
  0
LINE
  8
CSLAYER1
  6
CONTINUOUS
 62
     3
 10
1044.099412
 20
799.475417
 11
1044.099412
 21
805.475417
  0
LINE
  8
CSLAYER1
  6
CONTINUOUS
 62
     3
 10
968.599412
 20
799.475417
 11
968.599412
 21
839.475417
  0
LINE
  8
CSLAYER1
  6
CONTINUOUS
 62
     3
 10
1044.099412
 20
805.475417
 11
968.599412
 21
805.475417
  0
LINE
  8
CSLAYER1
  6
CONTINUOUS
 62
     3
 10
971.599412
 20
827.945073
 11
971.599412
 21
806.005762
  0
LINE
  8
CSLAYER1
  6
CONTINUOUS
 62
     3
 10
968.599412
 20
806.225417
 11
971.599412
 21
806.225417
  0
LINE
  8
CSLAYER1
  6
CONTINUOUS
 62
     3
 10
968.599412
 20
827.725417
 11
971.599412
 21
827.725417
  0
LINE
  8
CSLAYER1
  6
CONTINUOUS
 62
     3
 10
968.599412
 20
818.487614
 11
971.599412
 21
814.987614
  0
LINE
  8
CSLAYER1
  6
CONTINUOUS
 62
     3
 10
979.599412
 20
807.975417
 11
979.599412
 21
825.975417
  0
LINE
  8
CSLAYER1
  6
CONTINUOUS
 62
     3
 10
971.599412
 20
811.490590
 11
978.462231
 21
811.490590
  0
LINE
  8
CSLAYER1
  6
CONTINUOUS
 62
     3
 10
971.599412
 20
806.005762
 11
978.462231
 21
806.005762
  0
LINE
  8
CSLAYER1
  6
CONTINUOUS
 62
     3
 10
979.599412
 20
807.975417
 11
978.462231
 21
806.005762
  0
ARC
  8
CSLAYER1
  6
CONTINUOUS
 62
     3
 10
975.819367
 20
808.748176
 40
3.808617
 50
5.661633
 51
46.059028
  0
ARC
  8
CSLAYER1
  6
CONTINUOUS
 62
     3
 10
965.803668
 20
816.975417
 40
13.795744
 50
-23.426598
 51
23.426598
  0
LINE
  8
CSLAYER1
  6
CONTINUOUS
 62
     3
 10
971.599412
 20
822.460245
 11
978.462231
 21
822.460245
  0
LINE
  8
CSLAYER1
  6
CONTINUOUS
 62
     3
 10
971.599412
 20
827.945073
 11
978.462231
 21
827.945073
  0
LINE
  8
CSLAYER1
  6
CONTINUOUS
 62
     3
 10
979.599412
 20
825.975417
 11
978.462231
 21
827.945073
  0
ARC
  8
CSLAYER1
  6
CONTINUOUS
 62
     3
 10
975.819367
 20
825.202659
 40
3.808617
 50
313.940972
 51
354.338367
  0
LINE
  8
CSLAYER1
  6
CENTER
 62
     5
 10
968.599412
 20
816.975417
 11
979.599412
 21
816.975417
  0
LINE
  8
CSLAYER1
  6
CONTINUOUS
 62
     3
 10
744.099412
 20
799.475417
 11
744.099412
 21
805.475417
  0
LINE
  8
CSLAYER1
  6
CONTINUOUS
 62
     3
 10
744.099412
 20
805.475417
 11
819.599412
 21
805.475417
  0
LINE
  8
CSLAYER1
  6
CONTINUOUS
 62
     3
 10
816.599412
 20
827.945073
 11
816.599412
 21
806.005762
  0
LINE
  8
CSLAYER1
  6
CONTINUOUS
 62
     3
 10
819.599412
 20
806.225417
 11
816.599412
 21
806.225417
  0
LINE
  8
CSLAYER1
  6
CONTINUOUS
 62
     3
 10
819.599412
 20
827.725417
 11
816.599412
 21
827.725417
  0
LINE
  8
CSLAYER1
  6
CONTINUOUS
 62
     3
 10
819.599412
 20
818.487614
 11
816.599412
 21
814.987614
  0
LINE
  8
CSLAYER1
  6
CONTINUOUS
 62
     3
 10
808.599412
 20
807.975417
 11
808.599412
 21
825.975417
  0
LINE
  8
CSLAYER1
  6
CONTINUOUS
 62
     3
 10
816.599412
 20
811.490590
 11
809.736593
 21
811.490590
  0
LINE
  8
CSLAYER1
  6
CONTINUOUS
 62
     3
 10
816.599412
 20
806.005762
 11
809.736593
 21
806.005762
  0
LINE
  8
CSLAYER1
  6
CONTINUOUS
 62
     3
 10
808.599412
 20
807.975417
 11
809.736593
 21
806.005762
  0
ARC
  8
CSLAYER1
  6
CONTINUOUS
 62
     3
 10
812.379456
 20
808.748176
 40
3.808617
 50
133.940972
 51
174.338367
  0
ARC
  8
CSLAYER1
  6
CONTINUOUS
 62
     3
 10
822.395156
 20
816.975417
 40
13.795744
 50
156.573402
 51
203.426598
  0
LINE
  8
CSLAYER1
  6
CONTINUOUS
 62
     3
 10
816.599412
 20
822.460245
 11
809.736593
 21
822.460245
  0
LINE
  8
CSLAYER1
  6
CONTINUOUS
 62
     3
 10
816.599412
 20
827.945073
 11
809.736593
 21
827.945073
  0
LINE
  8
CSLAYER1
  6
CONTINUOUS
 62
     3
 10
808.599412
 20
825.975417
 11
809.736593
 21
827.945073
  0
ARC
  8
CSLAYER1
  6
CONTINUOUS
 62
     3
 10
812.379456
 20
825.202659
 40
3.808617
 50
185.661633
 51
226.059028
  0
LINE
  8
CSLAYER1
  6
CENTER
 62
     5
 10
819.599412
 20
816.975417
 11
808.599412
 21
816.975417
  0
LINE
  8
CSLAYER1
  6
CONTINUOUS
 62
     3
 10
819.599412
 20
799.475417
 11
819.599412
 21
839.475417
  0
CIRCLE
  8
CSLAYER1
  6
CONTINUOUS
 62
     3
 10
864.099412
 20
819.475417
 40
12.500000
  0
LINE
  8
CSLAYER1
  6
CONTINUOUS
 62
     3
 10
1044.099412
 20
1379.453528
 11
744.099412
 21
1379.453528
  0
LINE
  8
CSLAYER1
  6
CONTINUOUS
 62
     3
 10
940.099412
 20
839.475417
 11
940.099412
 21
1361.453528
  0
LINE
  8
CSLAYER1
  6
CONTINUOUS
 62
     3
 10
949.099412
 20
839.475417
 11
949.099412
 21
1361.453528
  0
LINE
  8
CSLAYER1
  6
CONTINUOUS
 62
     3
 10
952.099412
 20
839.475417
 11
952.099412
 21
1349.153528
  0
LINE
  8
CSLAYER1
  6
CONTINUOUS
 62
     3
 10
961.099412
 20
839.475417
 11
961.099412
 21
1348.683873
  0
LINE
  8
CSLAYER1
  6
CONTINUOUS
 62
     3
 10
1044.099412
 20
1361.453528
 11
744.099412
 21
1361.453528
  0
LINE
  8
CSLAYER1
  6
CONTINUOUS
 62
     3
 10
950.099412
 20
1351.003528
 11
949.099412
 21
1351.003528
  0
LINE
  8
CSLAYER1
  6
CONTINUOUS
 62
     3
 10
951.099412
 20
1361.453528
 11
951.099412
 21
1352.003528
  0
LINE
  8
CSLAYER1
  6
CONTINUOUS
 62
     3
 10
951.099412
 20
1352.003528
 11
950.099412
 21
1351.003528
  0
LINE
  8
CSLAYER1
  6
CONTINUOUS
 62
     3
 10
950.099412
 20
1361.453528
 11
950.099412
 21
1351.003528
  0
LINE
  8
CSLAYER1
  6
CONTINUOUS
 62
     3
 10
951.599412
 20
1349.153528
 11
957.599412
 21
1349.153528
  0
LINE
  8
CSLAYER1
  6
CONTINUOUS
 62
     3
 10
957.599412
 20
1361.453528
 11
957.599412
 21
1349.153528
  0
LINE
  8
CSLAYER1
  6
CONTINUOUS
 62
     3
 10
951.599412
 20
1361.453528
 11
951.599412
 21
1349.153528
  0
LINE
  8
CSLAYER1
  6
CONTINUOUS
 62
     3
 10
940.099412
 20
1351.003528
 11
848.099412
 21
1351.003528
  0
LINE
  8
CSLAYER1
  6
CONTINUOUS
 62
     3
 10
960.599412
 20
1348.683873
 11
960.599412
 21
1361.453528
  0
LINE
  8
CSLAYER1
  6
CONTINUOUS
 62
     3
 10
957.599412
 20
1348.903528
 11
960.599412
 21
1348.903528
  0
LINE
  8
CSLAYER1
  6
CONTINUOUS
 62
     3
 10
957.599412
 20
1358.141331
 11
960.438438
 21
1361.453528
  0
LINE
  8
CSLAYER1
  6
CONTINUOUS
 62
     3
 10
968.599412
 20
1361.453528
 11
968.599412
 21
1350.653528
  0
ARC
  8
CSLAYER1
  6
CONTINUOUS
 62
     3
 10
954.803668
 20
1359.653528
 40
13.795744
 50
-23.426598
 51
7.497043
  0
LINE
  8
CSLAYER1
  6
CONTINUOUS
 62
     3
 10
960.599412
 20
1354.168700
 11
967.462231
 21
1354.168700
  0
LINE
  8
CSLAYER1
  6
CONTINUOUS
 62
     3
 10
960.599412
 20
1348.683873
 11
967.462231
 21
1348.683873
  0
LINE
  8
CSLAYER1
  6
CONTINUOUS
 62
     3
 10
968.599412
 20
1350.653528
 11
967.462231
 21
1348.683873
  0
ARC
  8
CSLAYER1
  6
CONTINUOUS
 62
     3
 10
964.819367
 20
1351.426286
 40
3.808617
 50
5.661633
 51
46.059028
  0
LINE
  8
CSLAYER1
  6
CENTER
 62
     5
 10
839.099412
 20
1131.985629
 11
949.099412
 21
1131.985629
  0
LINE
  8
CSLAYER1
  6
CONTINUOUS
 62
     3
 10
848.099412
 20
1104.938942
 11
869.099412
 21
1104.938942
  0
LINE
  8
CSLAYER1
  6
CONTINUOUS
 62
     3
 10
848.099412
 20
1056.338942
 11
886.599412
 21
1056.338942
  0
LINE
  8
CSLAYER1
  6
CONTINUOUS
 62
     3
 10
972.599412
 20
1075.252654
 11
972.099412
 21
1075.252654
  0
LINE
  8
CSLAYER1
  6
CONTINUOUS
 62
     3
 10
961.599412
 20
1090.752654
 11
961.599412
 21
1069.752654
  0
LINE
  8
CSLAYER1
  6
CONTINUOUS
 62
     3
 10
973.599412
 20
1076.252654
 11
973.599412
 21
1084.252654
  0
LINE
  8
CSLAYER1
  6
CONTINUOUS
 62
     3
 10
952.099412
 20
1094.252654
 11
949.099412
 21
1094.252654
  0
LINE
  8
CSLAYER1
  6
CONTINUOUS
 62
     3
 10
952.099412
 20
1066.252654
 11
949.099412
 21
1066.252654
  0
LINE
  8
CSLAYER1
  6
CONTINUOUS
 62
     3
 10
963.599412
 20
1090.752654
 11
963.599412
 21
1069.752654
  0
LINE
  8
CSLAYER1
  6
CONTINUOUS
 62
     3
 10
966.099412
 20
1089.452654
 11
966.099412
 21
1071.052654
  0
LINE
  8
CSLAYER1
  6
CONTINUOUS
 62
     3
 10
966.099412
 20
1071.052654
 11
963.599412
 21
1071.052654
  0
LINE
  8
CSLAYER1
  6
CONTINUOUS
 62
     3
 10
963.599412
 20
1069.752654
 11
961.599412
 21
1069.752654
  0
LINE
  8
CSLAYER1
  6
CONTINUOUS
 62
     3
 10
966.099412
 20
1089.452654
 11
963.599412
 21
1089.452654
  0
LINE
  8
CSLAYER1
  6
CONTINUOUS
 62
     3
 10
963.599412
 20
1090.752654
 11
961.599412
 21
1090.752654
  0
LINE
  8
CSLAYER1
  6
CONTINUOUS
 62
     3
 10
972.099412
 20
1088.752654
 11
972.099412
 21
1071.752654
  0
LINE
  8
CSLAYER1
  6
CONTINUOUS
 62
     3
 10
972.599412
 20
1075.252654
 11
973.599412
 21
1076.252654
  0
LINE
  8
CSLAYER1
  6
CONTINUOUS
 62
     3
 10
973.299412
 20
1075.952654
 11
972.099412
 21
1075.952654
  0
LINE
  8
CSLAYER1
  6
CONTINUOUS
 62
     3
 10
972.599412
 20
1075.252654
 11
972.599412
 21
1085.252654
  0
LINE
  8
CSLAYER1
  6
CONTINUOUS
 62
     3
 10
971.340223
 20
1070.437699
 11
966.858601
 21
1070.437699
  0
LINE
  8
CSLAYER1
  6
CONTINUOUS
 62
     3
 10
971.340223
 20
1075.345176
 11
966.858601
 21
1075.345176
  0
LINE
  8
CSLAYER1
  6
CONTINUOUS
 62
     3
 10
972.099412
 20
1071.752654
 11
971.340223
 21
1070.437699
  0
ARC
  8
CSLAYER1
  6
CONTINUOUS
 62
     3
 10
955.858601
 20
1080.252654
 40
16.240811
 50
-17.587954
 51
17.587954
  0
ARC
  8
CSLAYER1
  6
CONTINUOUS
 62
     3
 10
967.758488
 20
1072.891438
 40
4.341619
 50
-27.480777
 51
34.413868
  0
LINE
  8
CSLAYER1
  6
CONTINUOUS
 62
     3
 10
972.099412
 20
1088.752654
 11
971.340223
 21
1090.067608
  0
ARC
  8
CSLAYER1
  6
CONTINUOUS
 62
     3
 10
967.758488
 20
1087.613870
 40
4.341619
 50
-34.413868
 51
27.480777
  0
LINE
  8
CSLAYER1
  6
CONTINUOUS
 62
     3
 10
966.099412
 20
1071.752654
 11
966.858601
 21
1070.437699
  0
ARC
  8
CSLAYER1
  6
CONTINUOUS
 62
     3
 10
982.340223
 20
1080.252654
 40
16.240811
 50
162.412046
 51
197.587954
  0
ARC
  8
CSLAYER1
  6
CONTINUOUS
 62
     3
 10
970.440336
 20
1072.891438
 40
4.341619
 50
145.586132
 51
207.480777
  0
LINE
  8
CSLAYER1
  6
CONTINUOUS
 62
     3
 10
966.099412
 20
1088.752654
 11
966.858601
 21
1090.067608
  0
ARC
  8
CSLAYER1
  6
CONTINUOUS
 62
     3
 10
970.440336
 20
1087.613870
 40
4.341619
 50
152.519223
 51
214.413868
  0
LINE
  8
CSLAYER1
  6
CONTINUOUS
 62
     3
 10
971.340223
 20
1090.067608
 11
966.858601
 21
1090.067608
  0
LINE
  8
CSLAYER1
  6
CONTINUOUS
 62
     3
 10
971.340223
 20
1085.160131
 11
966.858601
 21
1085.160131
  0
LINE
  8
CSLAYER1
  6
CONTINUOUS
 62
     3
 10
972.599412
 20
1085.252654
 11
972.099412
 21
1085.252654
  0
LINE
  8
CSLAYER1
  6
CONTINUOUS
 62
     3
 10
972.599412
 20
1085.252654
 11
973.599412
 21
1084.252654
  0
LINE
  8
CSLAYER1
  6
CONTINUOUS
 62
     3
 10
973.299412
 20
1084.552654
 11
972.099412
 21
1084.552654
  0
LINE
  8
CSLAYER1
  6
CONTINUOUS
 62
     3
 10
963.599412
 20
1082.154101
 11
966.099412
 21
1078.784536
  0
LINE
  8
CSLAYER1
  6
CONTINUOUS
 62
     3
 10
961.099412
 20
1072.752654
 11
961.599412
 21
1072.752654
  0
LINE
  8
CSLAYER1
  6
CONTINUOUS
 62
     3
 10
961.099412
 20
1087.752654
 11
961.599412
 21
1087.752654
  0
LINE
  8
CSLAYER1
  6
CENTER
 62
     5
 10
904.599412
 20
1145.585629
 11
904.599412
 21
873.009975
  0
LINE
  8
CSLAYER1
  6
CONTINUOUS
 62
     3
 10
933.599412
 20
852.757880
 11
933.599412
 21
907.621770
  0
LINE
  8
CSLAYER1
  6
CONTINUOUS
 62
     3
 10
927.599412
 20
852.757880
 11
927.599412
 21
907.621770
  0
LINE
  8
CSLAYER1
  6
CONTINUOUS
 62
     3
 10
875.599412
 20
852.757880
 11
875.599412
 21
907.621770
  0
LINE
  8
CSLAYER1
  6
CONTINUOUS
 62
     3
 10
881.599412
 20
852.757880
 11
881.599412
 21
907.621770
  0
LINE
  8
CSLAYER1
  6
CONTINUOUS
 62
     3
 10
927.099412
 20
1119.385629
 11
927.099412
 21
1144.585629
  0
LINE
  8
CSLAYER1
  6
CONTINUOUS
 62
     3
 10
882.099412
 20
1119.385629
 11
882.099412
 21
1144.585629
  0
LINE
  8
CSLAYER1
  6
CONTINUOUS
 62
     3
 10
883.099412
 20
1145.585629
 11
926.099412
 21
1145.585629
  0
LINE
  8
CSLAYER1
  6
CONTINUOUS
 62
     3
 10
882.099412
 20
1144.585629
 11
883.099412
 21
1145.585629
  0
LINE
  8
CSLAYER1
  6
CONTINUOUS
 62
     3
 10
926.099412
 20
1145.585629
 11
927.099412
 21
1144.585629
  0
POINT
  8
CSLAYER1
 62
     3
 10
904.599412
 20
1131.985629
  0
LINE
  8
CSLAYER1
  6
CONTINUOUS
 62
     3
 10
928.099412
 20
1139.985629
 11
927.099412
 21
1139.985629
  0
LINE
  8
CSLAYER1
  6
CONTINUOUS
 62
     3
 10
882.099412
 20
1139.985629
 11
881.099412
 21
1139.985629
  0
LINE
  8
CSLAYER1
  6
CENTER
 62
     5
 10
875.599412
 20
891.556907
 11
933.599412
 21
891.556907
  0
LINE
  8
CSLAYER1
  6
CONTINUOUS
 62
     3
 10
836.099412
 20
873.009975
 11
839.099412
 21
873.009975
  0
LINE
  8
CSLAYER1
  6
CONTINUOUS
 62
     3
 10
875.599412
 20
852.757880
 11
881.599412
 21
852.757880
  0
LINE
  8
CSLAYER1
  6
CONTINUOUS
 62
     3
 10
875.599412
 20
907.621770
 11
881.599412
 21
907.621770
  0
LINE
  8
CSLAYER1
  6
CONTINUOUS
 62
     3
 10
927.599412
 20
907.621770
 11
933.599412
 21
907.621770
  0
LINE
  8
CSLAYER1
  6
CONTINUOUS
 62
     3
 10
927.599412
 20
852.757880
 11
933.599412
 21
852.757880
  0
LINE
  8
CSLAYER1
  6
CONTINUOUS
 62
     3
 10
881.599412
 20
873.009975
 11
927.599412
 21
873.009975
  0
LINE
  8
CSLAYER1
  6
CONTINUOUS
 62
     3
 10
933.599412
 20
873.009975
 11
940.099412
 21
873.009975
  0
LINE
  8
CSLAYER1
  6
CONTINUOUS
 62
     3
 10
949.099412
 20
873.009975
 11
952.099412
 21
873.009975
  0
LINE
  8
CSLAYER1
  6
CONTINUOUS
 62
     3
 10
927.511890
 20
1027.993858
 11
931.994766
 21
1010.704632
  0
LINE
  8
CSLAYER1
  6
CONTINUOUS
 62
     3
 10
927.511890
 20
1027.993858
 11
927.249990
 21
1028.958303
  0
LINE
  8
CSLAYER1
  6
CONTINUOUS
 62
     3
 10
927.249990
 20
1028.958303
 11
926.815706
 21
1029.908011
  0
LINE
  8
CSLAYER1
  6
CONTINUOUS
 62
     3
 10
926.815706
 20
1029.908011
 11
926.212342
 21
1030.835755
  0
LINE
  8
CSLAYER1
  6
CONTINUOUS
 62
     3
 10
926.212342
 20
1030.835755
 11
925.444491
 21
1031.734474
  0
LINE
  8
CSLAYER1
  6
CONTINUOUS
 62
     3
 10
925.444491
 20
1031.734474
 11
924.517996
 21
1032.597328
  0
LINE
  8
CSLAYER1
  6
CONTINUOUS
 62
     3
 10
924.517996
 20
1032.597328
 11
923.439909
 21
1033.417751
  0
LINE
  8
CSLAYER1
  6
CONTINUOUS
 62
     3
 10
923.439909
 20
1033.417751
 11
922.218434
 21
1034.189499
  0
LINE
  8
CSLAYER1
  6
CONTINUOUS
 62
     3
 10
922.218434
 20
1034.189499
 11
920.862868
 21
1034.906698
  0
LINE
  8
CSLAYER1
  6
CONTINUOUS
 62
     3
 10
920.862868
 20
1034.906698
 11
919.383527
 21
1035.563889
  0
LINE
  8
CSLAYER1
  6
CONTINUOUS
 62
     3
 10
919.383527
 20
1035.563889
 11
917.791670
 21
1036.156072
  0
LINE
  8
CSLAYER1
  6
CONTINUOUS
 62
     3
 10
917.791670
 20
1036.156072
 11
916.099412
 21
1036.678739
  0
LINE
  8
CSLAYER1
  6
CONTINUOUS
 62
     3
 10
916.099412
 20
1036.678739
 11
914.319632
 21
1037.127913
  0
LINE
  8
CSLAYER1
  6
CONTINUOUS
 62
     3
 10
914.319632
 20
1037.127913
 11
912.465875
 21
1037.500174
  0
LINE
  8
CSLAYER1
  6
CONTINUOUS
 62
     3
 10
912.465875
 20
1037.500174
 11
910.552250
 21
1037.792691
  0
LINE
  8
CSLAYER1
  6
CONTINUOUS
 62
     3
 10
910.552250
 20
1037.792691
 11
908.593320
 21
1038.003236
  0
LINE
  8
CSLAYER1
  6
CONTINUOUS
 62
     3
 10
908.593320
 20
1038.003236
 11
906.603994
 21
1038.130207
  0
LINE
  8
CSLAYER1
  6
CONTINUOUS
 62
     3
 10
906.603994
 20
1038.130207
 11
904.599412
 21
1038.172639
  0
LINE
  8
CSLAYER1
  6
CONTINUOUS
 62
     3
 10
881.686934
 20
1027.993858
 11
877.204058
 21
1010.704632
  0
LINE
  8
CSLAYER1
  6
CONTINUOUS
 62
     3
 10
881.686934
 20
1027.993858
 11
881.948834
 21
1028.958303
  0
LINE
  8
CSLAYER1
  6
CONTINUOUS
 62
     3
 10
881.948834
 20
1028.958303
 11
882.383118
 21
1029.908011
  0
LINE
  8
CSLAYER1
  6
CONTINUOUS
 62
     3
 10
882.383118
 20
1029.908011
 11
882.986482
 21
1030.835755
  0
LINE
  8
CSLAYER1
  6
CONTINUOUS
 62
     3
 10
882.986482
 20
1030.835755
 11
883.754333
 21
1031.734474
  0
LINE
  8
CSLAYER1
  6
CONTINUOUS
 62
     3
 10
883.754333
 20
1031.734474
 11
884.680828
 21
1032.597328
  0
LINE
  8
CSLAYER1
  6
CONTINUOUS
 62
     3
 10
884.680828
 20
1032.597328
 11
885.758915
 21
1033.417751
  0
LINE
  8
CSLAYER1
  6
CONTINUOUS
 62
     3
 10
885.758915
 20
1033.417751
 11
886.980390
 21
1034.189499
  0
LINE
  8
CSLAYER1
  6
CONTINUOUS
 62
     3
 10
886.980390
 20
1034.189499
 11
888.335956
 21
1034.906698
  0
LINE
  8
CSLAYER1
  6
CONTINUOUS
 62
     3
 10
888.335956
 20
1034.906698
 11
889.815297
 21
1035.563889
  0
LINE
  8
CSLAYER1
  6
CONTINUOUS
 62
     3
 10
889.815297
 20
1035.563889
 11
891.407154
 21
1036.156072
  0
LINE
  8
CSLAYER1
  6
CONTINUOUS
 62
     3
 10
891.407154
 20
1036.156072
 11
893.099412
 21
1036.678739
  0
LINE
  8
CSLAYER1
  6
CONTINUOUS
 62
     3
 10
893.099412
 20
1036.678739
 11
894.879192
 21
1037.127913
  0
LINE
  8
CSLAYER1
  6
CONTINUOUS
 62
     3
 10
894.879192
 20
1037.127913
 11
896.732949
 21
1037.500174
  0
LINE
  8
CSLAYER1
  6
CONTINUOUS
 62
     3
 10
896.732949
 20
1037.500174
 11
898.646574
 21
1037.792691
  0
LINE
  8
CSLAYER1
  6
CONTINUOUS
 62
     3
 10
898.646574
 20
1037.792691
 11
900.605504
 21
1038.003236
  0
LINE
  8
CSLAYER1
  6
CONTINUOUS
 62
     3
 10
900.605504
 20
1038.003236
 11
902.594830
 21
1038.130207
  0
LINE
  8
CSLAYER1
  6
CONTINUOUS
 62
     3
 10
902.594830
 20
1038.130207
 11
904.599412
 21
1038.172639
  0
LINE
  8
CSLAYER1
  6
CONTINUOUS
 62
     3
 10
922.599412
 20
1033.948791
 11
922.599412
 21
1120.320509
  0
LINE
  8
CSLAYER1
  6
CONTINUOUS
 62
     3
 10
922.599412
 20
1120.320509
 11
922.530916
 21
1121.081080
  0
LINE
  8
CSLAYER1
  6
CONTINUOUS
 62
     3
 10
922.530916
 20
1121.081080
 11
922.325951
 21
1121.835862
  0
LINE
  8
CSLAYER1
  6
CONTINUOUS
 62
     3
 10
922.325951
 20
1121.835862
 11
921.986077
 21
1122.579112
  0
LINE
  8
CSLAYER1
  6
CONTINUOUS
 62
     3
 10
921.986077
 20
1122.579112
 11
921.513879
 21
1123.305173
  0
LINE
  8
CSLAYER1
  6
CONTINUOUS
 62
     3
 10
921.513879
 20
1123.305173
 11
920.912952
 21
1124.008518
  0
LINE
  8
CSLAYER1
  6
CONTINUOUS
 62
     3
 10
920.912952
 20
1124.008518
 11
920.187869
 21
1124.683795
  0
LINE
  8
CSLAYER1
  6
CONTINUOUS
 62
     3
 10
920.187869
 20
1124.683795
 11
919.344149
 21
1125.325866
  0
LINE
  8
CSLAYER1
  6
CONTINUOUS
 62
     3
 10
919.344149
 20
1125.325866
 11
918.388212
 21
1125.929842
  0
LINE
  8
CSLAYER1
  6
CONTINUOUS
 62
     3
 10
918.388212
 20
1125.929842
 11
917.327334
 21
1126.491128
  0
LINE
  8
CSLAYER1
  6
CONTINUOUS
 62
     3
 10
917.327334
 20
1126.491128
 11
916.169589
 21
1127.005452
  0
LINE
  8
CSLAYER1
  6
CONTINUOUS
 62
     3
 10
916.169589
 20
1127.005452
 11
914.923788
 21
1127.468899
  0
LINE
  8
CSLAYER1
  6
CONTINUOUS
 62
     3
 10
914.923788
 20
1127.468899
 11
913.599412
 21
1127.877943
  0
LINE
  8
CSLAYER1
  6
CONTINUOUS
 62
     3
 10
913.599412
 20
1127.877943
 11
912.206541
 21
1128.229470
  0
LINE
  8
CSLAYER1
  6
CONTINUOUS
 62
     3
 10
912.206541
 20
1128.229470
 11
910.755775
 21
1128.520805
  0
LINE
  8
CSLAYER1
  6
CONTINUOUS
 62
     3
 10
910.755775
 20
1128.520805
 11
909.258155
 21
1128.749731
  0
LINE
  8
CSLAYER1
  6
CONTINUOUS
 62
     3
 10
909.258155
 20
1128.749731
 11
907.725079
 21
1128.914506
  0
LINE
  8
CSLAYER1
  6
CONTINUOUS
 62
     3
 10
907.725079
 20
1128.914506
 11
906.168215
 21
1129.013875
  0
LINE
  8
CSLAYER1
  6
CONTINUOUS
 62
     3
 10
906.168215
 20
1129.013875
 11
904.599412
 21
1129.047082
  0
LINE
  8
CSLAYER1
  6
CONTINUOUS
 62
     3
 10
904.599412
 20
1129.047082
 11
903.030609
 21
1129.013875
  0
LINE
  8
CSLAYER1
  6
CONTINUOUS
 62
     3
 10
903.030609
 20
1129.013875
 11
901.473745
 21
1128.914506
  0
LINE
  8
CSLAYER1
  6
CONTINUOUS
 62
     3
 10
901.473745
 20
1128.914506
 11
899.940669
 21
1128.749731
  0
LINE
  8
CSLAYER1
  6
CONTINUOUS
 62
     3
 10
899.940669
 20
1128.749731
 11
898.443049
 21
1128.520805
  0
LINE
  8
CSLAYER1
  6
CONTINUOUS
 62
     3
 10
898.443049
 20
1128.520805
 11
896.992283
 21
1128.229470
  0
LINE
  8
CSLAYER1
  6
CONTINUOUS
 62
     3
 10
896.992283
 20
1128.229470
 11
895.599412
 21
1127.877943
  0
LINE
  8
CSLAYER1
  6
CONTINUOUS
 62
     3
 10
895.599412
 20
1127.877943
 11
894.275036
 21
1127.468899
  0
LINE
  8
CSLAYER1
  6
CONTINUOUS
 62
     3
 10
894.275036
 20
1127.468899
 11
893.029235
 21
1127.005452
  0
LINE
  8
CSLAYER1
  6
CONTINUOUS
 62
     3
 10
893.029235
 20
1127.005452
 11
891.871490
 21
1126.491128
  0
LINE
  8
CSLAYER1
  6
CONTINUOUS
 62
     3
 10
891.871490
 20
1126.491128
 11
890.810612
 21
1125.929842
  0
LINE
  8
CSLAYER1
  6
CONTINUOUS
 62
     3
 10
890.810612
 20
1125.929842
 11
889.854675
 21
1125.325866
  0
LINE
  8
CSLAYER1
  6
CONTINUOUS
 62
     3
 10
889.854675
 20
1125.325866
 11
889.010955
 21
1124.683795
  0
LINE
  8
CSLAYER1
  6
CONTINUOUS
 62
     3
 10
889.010955
 20
1124.683795
 11
888.285872
 21
1124.008518
  0
LINE
  8
CSLAYER1
  6
CONTINUOUS
 62
     3
 10
888.285872
 20
1124.008518
 11
887.684945
 21
1123.305173
  0
LINE
  8
CSLAYER1
  6
CONTINUOUS
 62
     3
 10
887.684945
 20
1123.305173
 11
887.212747
 21
1122.579112
  0
LINE
  8
CSLAYER1
  6
CONTINUOUS
 62
     3
 10
887.212747
 20
1122.579112
 11
886.872872
 21
1121.835862
  0
LINE
  8
CSLAYER1
  6
CONTINUOUS
 62
     3
 10
886.872872
 20
1121.835862
 11
886.667907
 21
1121.081080
  0
LINE
  8
CSLAYER1
  6
CONTINUOUS
 62
     3
 10
886.667907
 20
1121.081080
 11
886.599412
 21
1120.320509
  0
LINE
  8
CSLAYER1
  6
CONTINUOUS
 62
     3
 10
932.099412
 20
1009.542649
 11
932.099412
 21
978.953753
  0
LINE
  8
CSLAYER1
  6
CONTINUOUS
 62
     3
 10
932.099412
 20
1009.542649
 11
931.994766
 21
1010.704632
  0
LINE
  8
CSLAYER1
  6
CONTINUOUS
 62
     3
 10
931.994766
 20
1010.704632
 11
931.681625
 21
1011.857772
  0
LINE
  8
CSLAYER1
  6
CONTINUOUS
 62
     3
 10
931.681625
 20
1011.857772
 11
931.162372
 21
1012.993293
  0
LINE
  8
CSLAYER1
  6
CONTINUOUS
 62
     3
 10
931.162372
 20
1012.993293
 11
930.440959
 21
1014.102552
  0
LINE
  8
CSLAYER1
  6
CONTINUOUS
 62
     3
 10
930.440959
 20
1014.102552
 11
929.522876
 21
1015.177107
  0
LINE
  8
CSLAYER1
  6
CONTINUOUS
 62
     3
 10
929.522876
 20
1015.177107
 11
928.415111
 21
1016.208781
  0
LINE
  8
CSLAYER1
  6
CONTINUOUS
 62
     3
 10
928.415111
 20
1016.208781
 11
927.126093
 21
1017.189721
  0
LINE
  8
CSLAYER1
  6
CONTINUOUS
 62
     3
 10
927.126093
 20
1017.189721
 11
925.665634
 21
1018.112463
  0
LINE
  8
CSLAYER1
  6
CONTINUOUS
 62
     3
 10
925.665634
 20
1018.112463
 11
924.044848
 21
1018.969983
  0
LINE
  8
CSLAYER1
  6
CONTINUOUS
 62
     3
 10
924.044848
 20
1018.969983
 11
922.276071
 21
1019.755756
  0
LINE
  8
CSLAYER1
  6
CONTINUOUS
 62
     3
 10
922.276071
 20
1019.755756
 11
920.372764
 21
1020.463800
  0
LINE
  8
CSLAYER1
  6
CONTINUOUS
 62
     3
 10
920.372764
 20
1020.463800
 11
918.349412
 21
1021.088728
  0
LINE
  8
CSLAYER1
  6
CONTINUOUS
 62
     3
 10
918.349412
 20
1021.088728
 11
916.221414
 21
1021.625784
  0
LINE
  8
CSLAYER1
  6
CONTINUOUS
 62
     3
 10
916.221414
 20
1021.625784
 11
914.004966
 21
1022.070879
  0
LINE
  8
CSLAYER1
  6
CONTINUOUS
 62
     3
 10
914.004966
 20
1022.070879
 11
911.716936
 21
1022.420627
  0
LINE
  8
CSLAYER1
  6
CONTINUOUS
 62
     3
 10
911.716936
 20
1022.420627
 11
909.374737
 21
1022.672366
  0
LINE
  8
CSLAYER1
  6
CONTINUOUS
 62
     3
 10
909.374737
 20
1022.672366
 11
906.996195
 21
1022.824180
  0
LINE
  8
CSLAYER1
  6
CONTINUOUS
 62
     3
 10
906.996195
 20
1022.824180
 11
904.599412
 21
1022.874913
  0
LINE
  8
CSLAYER1
  6
CONTINUOUS
 62
     3
 10
904.599412
 20
1022.874913
 11
902.202629
 21
1022.824180
  0
LINE
  8
CSLAYER1
  6
CONTINUOUS
 62
     3
 10
902.202629
 20
1022.824180
 11
899.824087
 21
1022.672366
  0
LINE
  8
CSLAYER1
  6
CONTINUOUS
 62
     3
 10
899.824087
 20
1022.672366
 11
897.481888
 21
1022.420627
  0
LINE
  8
CSLAYER1
  6
CONTINUOUS
 62
     3
 10
897.481888
 20
1022.420627
 11
895.193858
 21
1022.070879
  0
LINE
  8
CSLAYER1
  6
CONTINUOUS
 62
     3
 10
895.193858
 20
1022.070879
 11
892.977410
 21
1021.625784
  0
LINE
  8
CSLAYER1
  6
CONTINUOUS
 62
     3
 10
892.977410
 20
1021.625784
 11
890.849412
 21
1021.088728
  0
LINE
  8
CSLAYER1
  6
CONTINUOUS
 62
     3
 10
890.849412
 20
1021.088728
 11
888.826060
 21
1020.463800
  0
LINE
  8
CSLAYER1
  6
CONTINUOUS
 62
     3
 10
888.826060
 20
1020.463800
 11
886.922753
 21
1019.755756
  0
LINE
  8
CSLAYER1
  6
CONTINUOUS
 62
     3
 10
886.922753
 20
1019.755756
 11
885.153975
 21
1018.969983
  0
LINE
  8
CSLAYER1
  6
CONTINUOUS
 62
     3
 10
885.153975
 20
1018.969983
 11
883.533190
 21
1018.112463
  0
LINE
  8
CSLAYER1
  6
CONTINUOUS
 62
     3
 10
883.533190
 20
1018.112463
 11
882.072731
 21
1017.189721
  0
LINE
  8
CSLAYER1
  6
CONTINUOUS
 62
     3
 10
882.072731
 20
1017.189721
 11
880.783713
 21
1016.208781
  0
LINE
  8
CSLAYER1
  6
CONTINUOUS
 62
     3
 10
880.783713
 20
1016.208781
 11
879.675948
 21
1015.177107
  0
LINE
  8
CSLAYER1
  6
CONTINUOUS
 62
     3
 10
879.675948
 20
1015.177107
 11
878.757865
 21
1014.102552
  0
LINE
  8
CSLAYER1
  6
CONTINUOUS
 62
     3
 10
878.757865
 20
1014.102552
 11
878.036452
 21
1012.993293
  0
LINE
  8
CSLAYER1
  6
CONTINUOUS
 62
     3
 10
878.036452
 20
1012.993293
 11
877.517199
 21
1011.857772
  0
LINE
  8
CSLAYER1
  6
CONTINUOUS
 62
     3
 10
877.517199
 20
1011.857772
 11
877.204058
 21
1010.704632
  0
LINE
  8
CSLAYER1
  6
CONTINUOUS
 62
     3
 10
877.204058
 20
1010.704632
 11
877.099412
 21
1009.542649
  0
LINE
  8
CSLAYER1
  6
CONTINUOUS
 62
     3
 10
877.099412
 20
1009.542649
 11
877.099412
 21
978.953753
  0
LINE
  8
CSLAYER1
  6
CONTINUOUS
 62
     3
 10
928.899412
 20
909.036276
 11
928.899412
 21
978.953753
  0
LINE
  8
CSLAYER1
  6
CONTINUOUS
 62
     3
 10
932.099412
 20
978.953753
 11
931.994766
 21
980.115736
  0
LINE
  8
CSLAYER1
  6
CONTINUOUS
 62
     3
 10
931.994766
 20
980.115736
 11
931.681625
 21
981.268876
  0
LINE
  8
CSLAYER1
  6
CONTINUOUS
 62
     3
 10
931.681625
 20
981.268876
 11
931.162372
 21
982.404397
  0
LINE
  8
CSLAYER1
  6
CONTINUOUS
 62
     3
 10
931.162372
 20
982.404397
 11
930.440959
 21
983.513656
  0
LINE
  8
CSLAYER1
  6
CONTINUOUS
 62
     3
 10
930.440959
 20
983.513656
 11
929.522876
 21
984.588211
  0
LINE
  8
CSLAYER1
  6
CONTINUOUS
 62
     3
 10
929.522876
 20
984.588211
 11
928.415111
 21
985.619885
  0
LINE
  8
CSLAYER1
  6
CONTINUOUS
 62
     3
 10
928.415111
 20
985.619885
 11
927.126093
 21
986.600825
  0
LINE
  8
CSLAYER1
  6
CONTINUOUS
 62
     3
 10
927.126093
 20
986.600825
 11
925.665634
 21
987.523567
  0
LINE
  8
CSLAYER1
  6
CONTINUOUS
 62
     3
 10
925.665634
 20
987.523567
 11
924.044848
 21
988.381087
  0
LINE
  8
CSLAYER1
  6
CONTINUOUS
 62
     3
 10
924.044848
 20
988.381087
 11
922.276071
 21
989.166860
  0
LINE
  8
CSLAYER1
  6
CONTINUOUS
 62
     3
 10
922.276071
 20
989.166860
 11
920.372764
 21
989.874904
  0
LINE
  8
CSLAYER1
  6
CONTINUOUS
 62
     3
 10
920.372764
 20
989.874904
 11
918.349412
 21
990.499832
  0
LINE
  8
CSLAYER1
  6
CONTINUOUS
 62
     3
 10
918.349412
 20
990.499832
 11
916.221414
 21
991.036888
  0
LINE
  8
CSLAYER1
  6
CONTINUOUS
 62
     3
 10
916.221414
 20
991.036888
 11
914.004966
 21
991.481983
  0
LINE
  8
CSLAYER1
  6
CONTINUOUS
 62
     3
 10
914.004966
 20
991.481983
 11
911.716936
 21
991.831731
  0
LINE
  8
CSLAYER1
  6
CONTINUOUS
 62
     3
 10
911.716936
 20
991.831731
 11
909.374737
 21
992.083470
  0
LINE
  8
CSLAYER1
  6
CONTINUOUS
 62
     3
 10
909.374737
 20
992.083470
 11
906.996195
 21
992.235284
  0
LINE
  8
CSLAYER1
  6
CONTINUOUS
 62
     3
 10
906.996195
 20
992.235284
 11
904.599412
 21
992.286017
  0
LINE
  8
CSLAYER1
  6
CONTINUOUS
 62
     3
 10
904.599412
 20
992.286017
 11
902.202629
 21
992.235284
  0
LINE
  8
CSLAYER1
  6
CONTINUOUS
 62
     3
 10
902.202629
 20
992.235284
 11
899.824087
 21
992.083470
  0
LINE
  8
CSLAYER1
  6
CONTINUOUS
 62
     3
 10
899.824087
 20
992.083470
 11
897.481888
 21
991.831731
  0
LINE
  8
CSLAYER1
  6
CONTINUOUS
 62
     3
 10
897.481888
 20
991.831731
 11
895.193858
 21
991.481983
  0
LINE
  8
CSLAYER1
  6
CONTINUOUS
 62
     3
 10
895.193858
 20
991.481983
 11
892.977410
 21
991.036888
  0
LINE
  8
CSLAYER1
  6
CONTINUOUS
 62
     3
 10
892.977410
 20
991.036888
 11
890.849412
 21
990.499832
  0
LINE
  8
CSLAYER1
  6
CONTINUOUS
 62
     3
 10
890.849412
 20
990.499832
 11
888.826060
 21
989.874904
  0
LINE
  8
CSLAYER1
  6
CONTINUOUS
 62
     3
 10
888.826060
 20
989.874904
 11
886.922753
 21
989.166860
  0
LINE
  8
CSLAYER1
  6
CONTINUOUS
 62
     3
 10
886.922753
 20
989.166860
 11
885.153975
 21
988.381087
  0
LINE
  8
CSLAYER1
  6
CONTINUOUS
 62
     3
 10
885.153975
 20
988.381087
 11
883.533190
 21
987.523567
  0
LINE
  8
CSLAYER1
  6
CONTINUOUS
 62
     3
 10
883.533190
 20
987.523567
 11
882.072731
 21
986.600825
  0
LINE
  8
CSLAYER1
  6
CONTINUOUS
 62
     3
 10
882.072731
 20
986.600825
 11
880.783713
 21
985.619885
  0
LINE
  8
CSLAYER1
  6
CONTINUOUS
 62
     3
 10
880.783713
 20
985.619885
 11
879.675948
 21
984.588211
  0
LINE
  8
CSLAYER1
  6
CONTINUOUS
 62
     3
 10
879.675948
 20
984.588211
 11
878.757865
 21
983.513656
  0
LINE
  8
CSLAYER1
  6
CONTINUOUS
 62
     3
 10
878.757865
 20
983.513656
 11
878.036452
 21
982.404397
  0
LINE
  8
CSLAYER1
  6
CONTINUOUS
 62
     3
 10
878.036452
 20
982.404397
 11
877.517199
 21
981.268876
  0
LINE
  8
CSLAYER1
  6
CONTINUOUS
 62
     3
 10
877.517199
 20
981.268876
 11
877.204058
 21
980.115736
  0
LINE
  8
CSLAYER1
  6
CONTINUOUS
 62
     3
 10
877.204058
 20
980.115736
 11
877.099412
 21
978.953753
  0
LINE
  8
CSLAYER1
  6
CONTINUOUS
 62
     3
 10
877.099412
 20
978.953753
 11
877.204058
 21
977.791769
  0
LINE
  8
CSLAYER1
  6
CONTINUOUS
 62
     3
 10
877.204058
 20
977.791769
 11
877.517199
 21
976.638629
  0
LINE
  8
CSLAYER1
  6
CONTINUOUS
 62
     3
 10
877.517199
 20
976.638629
 11
878.036452
 21
975.503109
  0
LINE
  8
CSLAYER1
  6
CONTINUOUS
 62
     3
 10
878.036452
 20
975.503109
 11
878.757865
 21
974.393850
  0
LINE
  8
CSLAYER1
  6
CONTINUOUS
 62
     3
 10
878.757865
 20
974.393850
 11
879.675948
 21
973.319294
  0
LINE
  8
CSLAYER1
  6
CONTINUOUS
 62
     3
 10
879.675948
 20
973.319294
 11
880.299412
 21
972.738655
  0
LINE
  8
CSLAYER1
  6
CONTINUOUS
 62
     3
 10
928.899412
 20
972.738655
 11
929.522876
 21
973.319294
  0
LINE
  8
CSLAYER1
  6
CONTINUOUS
 62
     3
 10
929.522876
 20
973.319294
 11
930.440959
 21
974.393850
  0
LINE
  8
CSLAYER1
  6
CONTINUOUS
 62
     3
 10
930.440959
 20
974.393850
 11
931.162372
 21
975.503109
  0
LINE
  8
CSLAYER1
  6
CONTINUOUS
 62
     3
 10
931.162372
 20
975.503109
 11
931.681625
 21
976.638629
  0
LINE
  8
CSLAYER1
  6
CONTINUOUS
 62
     3
 10
931.681625
 20
976.638629
 11
931.994766
 21
977.791769
  0
LINE
  8
CSLAYER1
  6
CONTINUOUS
 62
     3
 10
931.994766
 20
977.791769
 11
932.099412
 21
978.953753
  0
LINE
  8
CSLAYER1
  6
CONTINUOUS
 62
     3
 10
928.899412
 20
978.953753
 11
928.806943
 21
979.980523
  0
LINE
  8
CSLAYER1
  6
CONTINUOUS
 62
     3
 10
928.806943
 20
979.980523
 11
928.530240
 21
980.999480
  0
LINE
  8
CSLAYER1
  6
CONTINUOUS
 62
     3
 10
928.530240
 20
980.999480
 11
928.071410
 21
982.002867
  0
LINE
  8
CSLAYER1
  6
CONTINUOUS
 62
     3
 10
928.071410
 20
982.002867
 11
927.433943
 21
982.983049
  0
LINE
  8
CSLAYER1
  6
CONTINUOUS
 62
     3
 10
927.433943
 20
982.983049
 11
926.622691
 21
983.932565
  0
LINE
  8
CSLAYER1
  6
CONTINUOUS
 62
     3
 10
926.622691
 20
983.932565
 11
925.643829
 21
984.844190
  0
LINE
  8
CSLAYER1
  6
CONTINUOUS
 62
     3
 10
925.643829
 20
984.844190
 11
924.504807
 21
985.710984
  0
LINE
  8
CSLAYER1
  6
CONTINUOUS
 62
     3
 10
924.504807
 20
985.710984
 11
923.214292
 21
986.526352
  0
LINE
  8
CSLAYER1
  6
CONTINUOUS
 62
     3
 10
923.214292
 20
986.526352
 11
921.782107
 21
987.284088
  0
LINE
  8
CSLAYER1
  6
CONTINUOUS
 62
     3
 10
921.782107
 20
987.284088
 11
920.219151
 21
987.978426
  0
LINE
  8
CSLAYER1
  6
CONTINUOUS
 62
     3
 10
920.219151
 20
987.978426
 11
918.537319
 21
988.604079
  0
LINE
  8
CSLAYER1
  6
CONTINUOUS
 62
     3
 10
918.537319
 20
988.604079
 11
916.749412
 21
989.156289
  0
LINE
  8
CSLAYER1
  6
CONTINUOUS
 62
     3
 10
916.749412
 20
989.156289
 11
914.869036
 21
989.630850
  0
LINE
  8
CSLAYER1
  6
CONTINUOUS
 62
     3
 10
914.869036
 20
989.630850
 11
912.910501
 21
990.024153
  0
LINE
  8
CSLAYER1
  6
CONTINUOUS
 62
     3
 10
912.910501
 20
990.024153
 11
910.888715
 21
990.333203
  0
LINE
  8
CSLAYER1
  6
CONTINUOUS
 62
     3
 10
910.888715
 20
990.333203
 11
908.819063
 21
990.555648
  0
LINE
  8
CSLAYER1
  6
CONTINUOUS
 62
     3
 10
908.819063
 20
990.555648
 11
906.717296
 21
990.689797
  0
LINE
  8
CSLAYER1
  6
CONTINUOUS
 62
     3
 10
906.717296
 20
990.689797
 11
904.599412
 21
990.734626
  0
LINE
  8
CSLAYER1
  6
CONTINUOUS
 62
     3
 10
904.599412
 20
990.734626
 11
902.481527
 21
990.689797
  0
LINE
  8
CSLAYER1
  6
CONTINUOUS
 62
     3
 10
902.481527
 20
990.689797
 11
900.379761
 21
990.555648
  0
LINE
  8
CSLAYER1
  6
CONTINUOUS
 62
     3
 10
900.379761
 20
990.555648
 11
898.310109
 21
990.333203
  0
LINE
  8
CSLAYER1
  6
CONTINUOUS
 62
     3
 10
898.310109
 20
990.333203
 11
896.288322
 21
990.024153
  0
LINE
  8
CSLAYER1
  6
CONTINUOUS
 62
     3
 10
896.288322
 20
990.024153
 11
894.329788
 21
989.630850
  0
LINE
  8
CSLAYER1
  6
CONTINUOUS
 62
     3
 10
894.329788
 20
989.630850
 11
892.449412
 21
989.156289
  0
LINE
  8
CSLAYER1
  6
CONTINUOUS
 62
     3
 10
892.449412
 20
989.156289
 11
890.661505
 21
988.604079
  0
LINE
  8
CSLAYER1
  6
CONTINUOUS
 62
     3
 10
890.661505
 20
988.604079
 11
888.979673
 21
987.978426
  0
LINE
  8
CSLAYER1
  6
CONTINUOUS
 62
     3
 10
888.979673
 20
987.978426
 11
887.416717
 21
987.284088
  0
LINE
  8
CSLAYER1
  6
CONTINUOUS
 62
     3
 10
887.416717
 20
987.284088
 11
885.984532
 21
986.526352
  0
LINE
  8
CSLAYER1
  6
CONTINUOUS
 62
     3
 10
885.984532
 20
986.526352
 11
884.694017
 21
985.710984
  0
LINE
  8
CSLAYER1
  6
CONTINUOUS
 62
     3
 10
884.694017
 20
985.710984
 11
883.554995
 21
984.844190
  0
LINE
  8
CSLAYER1
  6
CONTINUOUS
 62
     3
 10
883.554995
 20
984.844190
 11
882.576133
 21
983.932565
  0
LINE
  8
CSLAYER1
  6
CONTINUOUS
 62
     3
 10
882.576133
 20
983.932565
 11
881.764881
 21
982.983049
  0
LINE
  8
CSLAYER1
  6
CONTINUOUS
 62
     3
 10
881.764881
 20
982.983049
 11
881.127414
 21
982.002867
  0
LINE
  8
CSLAYER1
  6
CONTINUOUS
 62
     3
 10
881.127414
 20
982.002867
 11
880.668584
 21
980.999480
  0
LINE
  8
CSLAYER1
  6
CONTINUOUS
 62
     3
 10
880.668584
 20
980.999480
 11
880.391881
 21
979.980523
  0
LINE
  8
CSLAYER1
  6
CONTINUOUS
 62
     3
 10
880.391881
 20
979.980523
 11
880.299412
 21
978.953753
  0
LINE
  8
CSLAYER1
  6
CONTINUOUS
 62
     3
 10
880.299412
 20
909.036276
 11
880.299412
 21
978.953753
  0
LINE
  8
CSLAYER1
  6
CONTINUOUS
 62
     3
 10
886.599412
 20
1033.948791
 11
886.599412
 21
1120.320509
  0
LINE
  8
CSLAYER1
  6
CONTINUOUS
 62
     3
 10
927.099412
 20
878.447380
 11
927.099412
 21
909.036276
  0
LINE
  8
CSLAYER1
  6
CONTINUOUS
 62
     3
 10
927.099412
 20
909.036276
 11
927.013793
 21
909.986990
  0
LINE
  8
CSLAYER1
  6
CONTINUOUS
 62
     3
 10
927.013793
 20
909.986990
 11
926.757586
 21
910.930468
  0
LINE
  8
CSLAYER1
  6
CONTINUOUS
 62
     3
 10
926.757586
 20
910.930468
 11
926.332743
 21
911.859530
  0
LINE
  8
CSLAYER1
  6
CONTINUOUS
 62
     3
 10
926.332743
 20
911.859530
 11
925.742496
 21
912.767106
  0
LINE
  8
CSLAYER1
  6
CONTINUOUS
 62
     3
 10
925.742496
 20
912.767106
 11
924.991337
 21
913.646288
  0
LINE
  8
CSLAYER1
  6
CONTINUOUS
 62
     3
 10
924.991337
 20
913.646288
 11
924.084984
 21
914.490384
  0
LINE
  8
CSLAYER1
  6
CONTINUOUS
 62
     3
 10
924.084984
 20
914.490384
 11
923.030333
 21
915.292972
  0
LINE
  8
CSLAYER1
  6
CONTINUOUS
 62
     3
 10
923.030333
 20
915.292972
 11
921.835412
 21
916.047943
  0
LINE
  8
CSLAYER1
  6
CONTINUOUS
 62
     3
 10
921.835412
 20
916.047943
 11
920.509315
 21
916.749550
  0
LINE
  8
CSLAYER1
  6
CONTINUOUS
 62
     3
 10
920.509315
 20
916.749550
 11
919.062133
 21
917.392455
  0
LINE
  8
CSLAYER1
  6
CONTINUOUS
 62
     3
 10
919.062133
 20
917.392455
 11
917.504882
 21
917.971764
  0
LINE
  8
CSLAYER1
  6
CONTINUOUS
 62
     3
 10
917.504882
 20
917.971764
 11
915.849412
 21
918.483069
  0
LINE
  8
CSLAYER1
  6
CONTINUOUS
 62
     3
 10
915.849412
 20
918.483069
 11
914.108323
 21
918.922478
  0
LINE
  8
CSLAYER1
  6
CONTINUOUS
 62
     3
 10
914.108323
 20
918.922478
 11
912.294865
 21
919.286647
  0
LINE
  8
CSLAYER1
  6
CONTINUOUS
 62
     3
 10
912.294865
 20
919.286647
 11
910.422840
 21
919.572804
  0
LINE
  8
CSLAYER1
  6
CONTINUOUS
 62
     3
 10
910.422840
 20
919.572804
 11
908.506496
 21
919.778772
  0
LINE
  8
CSLAYER1
  6
CONTINUOUS
 62
     3
 10
908.506496
 20
919.778772
 11
906.560416
 21
919.902984
  0
LINE
  8
CSLAYER1
  6
CONTINUOUS
 62
     3
 10
906.560416
 20
919.902984
 11
904.599412
 21
919.944493
  0
LINE
  8
CSLAYER1
  6
CONTINUOUS
 62
     3
 10
904.599412
 20
919.944493
 11
902.638408
 21
919.902984
  0
LINE
  8
CSLAYER1
  6
CONTINUOUS
 62
     3
 10
902.638408
 20
919.902984
 11
900.692328
 21
919.778772
  0
LINE
  8
CSLAYER1
  6
CONTINUOUS
 62
     3
 10
900.692328
 20
919.778772
 11
898.775983
 21
919.572804
  0
LINE
  8
CSLAYER1
  6
CONTINUOUS
 62
     3
 10
898.775983
 20
919.572804
 11
896.903959
 21
919.286647
  0
LINE
  8
CSLAYER1
  6
CONTINUOUS
 62
     3
 10
896.903959
 20
919.286647
 11
895.090501
 21
918.922478
  0
LINE
  8
CSLAYER1
  6
CONTINUOUS
 62
     3
 10
895.090501
 20
918.922478
 11
893.349412
 21
918.483069
  0
LINE
  8
CSLAYER1
  6
CONTINUOUS
 62
     3
 10
893.349412
 20
918.483069
 11
891.693942
 21
917.971764
  0
LINE
  8
CSLAYER1
  6
CONTINUOUS
 62
     3
 10
891.693942
 20
917.971764
 11
890.136691
 21
917.392455
  0
LINE
  8
CSLAYER1
  6
CONTINUOUS
 62
     3
 10
890.136691
 20
917.392455
 11
888.689509
 21
916.749550
  0
LINE
  8
CSLAYER1
  6
CONTINUOUS
 62
     3
 10
888.689509
 20
916.749550
 11
887.363412
 21
916.047943
  0
LINE
  8
CSLAYER1
  6
CONTINUOUS
 62
     3
 10
887.363412
 20
916.047943
 11
886.168491
 21
915.292972
  0
LINE
  8
CSLAYER1
  6
CONTINUOUS
 62
     3
 10
886.168491
 20
915.292972
 11
885.113840
 21
914.490384
  0
LINE
  8
CSLAYER1
  6
CONTINUOUS
 62
     3
 10
885.113840
 20
914.490384
 11
884.207487
 21
913.646288
  0
LINE
  8
CSLAYER1
  6
CONTINUOUS
 62
     3
 10
884.207487
 20
913.646288
 11
883.456328
 21
912.767106
  0
LINE
  8
CSLAYER1
  6
CONTINUOUS
 62
     3
 10
883.456328
 20
912.767106
 11
882.866081
 21
911.859530
  0
LINE
  8
CSLAYER1
  6
CONTINUOUS
 62
     3
 10
882.866081
 20
911.859530
 11
882.441237
 21
910.930468
  0
LINE
  8
CSLAYER1
  6
CONTINUOUS
 62
     3
 10
882.441237
 20
910.930468
 11
882.185031
 21
909.986990
  0
LINE
  8
CSLAYER1
  6
CONTINUOUS
 62
     3
 10
882.185031
 20
909.986990
 11
882.099412
 21
909.036276
  0
LINE
  8
CSLAYER1
  6
CONTINUOUS
 62
     3
 10
928.899412
 20
909.036276
 11
928.806943
 21
910.063047
  0
LINE
  8
CSLAYER1
  6
CONTINUOUS
 62
     3
 10
928.806943
 20
910.063047
 11
928.530240
 21
911.082003
  0
LINE
  8
CSLAYER1
  6
CONTINUOUS
 62
     3
 10
928.530240
 20
911.082003
 11
928.071410
 21
912.085391
  0
LINE
  8
CSLAYER1
  6
CONTINUOUS
 62
     3
 10
928.071410
 20
912.085391
 11
927.433943
 21
913.065572
  0
LINE
  8
CSLAYER1
  6
CONTINUOUS
 62
     3
 10
927.433943
 20
913.065572
 11
926.622691
 21
914.015089
  0
LINE
  8
CSLAYER1
  6
CONTINUOUS
 62
     3
 10
926.622691
 20
914.015089
 11
925.643829
 21
914.926713
  0
LINE
  8
CSLAYER1
  6
CONTINUOUS
 62
     3
 10
925.643829
 20
914.926713
 11
924.504807
 21
915.793508
  0
LINE
  8
CSLAYER1
  6
CONTINUOUS
 62
     3
 10
924.504807
 20
915.793508
 11
923.214292
 21
916.608876
  0
LINE
  8
CSLAYER1
  6
CONTINUOUS
 62
     3
 10
923.214292
 20
916.608876
 11
921.782107
 21
917.366612
  0
LINE
  8
CSLAYER1
  6
CONTINUOUS
 62
     3
 10
921.782107
 20
917.366612
 11
920.219151
 21
918.060949
  0
LINE
  8
CSLAYER1
  6
CONTINUOUS
 62
     3
 10
920.219151
 20
918.060949
 11
918.537319
 21
918.686603
  0
LINE
  8
CSLAYER1
  6
CONTINUOUS
 62
     3
 10
918.537319
 20
918.686603
 11
916.749412
 21
919.238812
  0
LINE
  8
CSLAYER1
  6
CONTINUOUS
 62
     3
 10
916.749412
 20
919.238812
 11
914.869036
 21
919.713374
  0
LINE
  8
CSLAYER1
  6
CONTINUOUS
 62
     3
 10
914.869036
 20
919.713374
 11
912.910501
 21
920.106676
  0
LINE
  8
CSLAYER1
  6
CONTINUOUS
 62
     3
 10
912.910501
 20
920.106676
 11
910.888715
 21
920.415726
  0
LINE
  8
CSLAYER1
  6
CONTINUOUS
 62
     3
 10
910.888715
 20
920.415726
 11
908.819063
 21
920.638172
  0
LINE
  8
CSLAYER1
  6
CONTINUOUS
 62
     3
 10
908.819063
 20
920.638172
 11
906.717296
 21
920.772320
  0
LINE
  8
CSLAYER1
  6
CONTINUOUS
 62
     3
 10
906.717296
 20
920.772320
 11
904.599412
 21
920.817150
  0
LINE
  8
CSLAYER1
  6
CONTINUOUS
 62
     3
 10
904.599412
 20
920.817150
 11
902.481527
 21
920.772320
  0
LINE
  8
CSLAYER1
  6
CONTINUOUS
 62
     3
 10
902.481527
 20
920.772320
 11
900.379761
 21
920.638172
  0
LINE
  8
CSLAYER1
  6
CONTINUOUS
 62
     3
 10
900.379761
 20
920.638172
 11
898.310109
 21
920.415726
  0
LINE
  8
CSLAYER1
  6
CONTINUOUS
 62
     3
 10
898.310109
 20
920.415726
 11
896.288322
 21
920.106676
  0
LINE
  8
CSLAYER1
  6
CONTINUOUS
 62
     3
 10
896.288322
 20
920.106676
 11
894.329788
 21
919.713374
  0
LINE
  8
CSLAYER1
  6
CONTINUOUS
 62
     3
 10
894.329788
 20
919.713374
 11
892.449412
 21
919.238812
  0
LINE
  8
CSLAYER1
  6
CONTINUOUS
 62
     3
 10
892.449412
 20
919.238812
 11
890.661505
 21
918.686603
  0
LINE
  8
CSLAYER1
  6
CONTINUOUS
 62
     3
 10
890.661505
 20
918.686603
 11
888.979673
 21
918.060949
  0
LINE
  8
CSLAYER1
  6
CONTINUOUS
 62
     3
 10
888.979673
 20
918.060949
 11
887.416717
 21
917.366612
  0
LINE
  8
CSLAYER1
  6
CONTINUOUS
 62
     3
 10
887.416717
 20
917.366612
 11
885.984532
 21
916.608876
  0
LINE
  8
CSLAYER1
  6
CONTINUOUS
 62
     3
 10
885.984532
 20
916.608876
 11
884.694017
 21
915.793508
  0
LINE
  8
CSLAYER1
  6
CONTINUOUS
 62
     3
 10
884.694017
 20
915.793508
 11
883.554995
 21
914.926713
  0
LINE
  8
CSLAYER1
  6
CONTINUOUS
 62
     3
 10
883.554995
 20
914.926713
 11
882.576133
 21
914.015089
  0
LINE
  8
CSLAYER1
  6
CONTINUOUS
 62
     3
 10
882.576133
 20
914.015089
 11
881.764881
 21
913.065572
  0
LINE
  8
CSLAYER1
  6
CONTINUOUS
 62
     3
 10
881.764881
 20
913.065572
 11
881.127414
 21
912.085391
  0
LINE
  8
CSLAYER1
  6
CONTINUOUS
 62
     3
 10
881.127414
 20
912.085391
 11
880.668584
 21
911.082003
  0
LINE
  8
CSLAYER1
  6
CONTINUOUS
 62
     3
 10
880.668584
 20
911.082003
 11
880.391881
 21
910.063047
  0
LINE
  8
CSLAYER1
  6
CONTINUOUS
 62
     3
 10
880.391881
 20
910.063047
 11
880.299412
 21
909.036276
  0
LINE
  8
CSLAYER1
  6
CONTINUOUS
 62
     3
 10
880.299412
 20
909.036276
 11
880.391881
 21
908.009505
  0
LINE
  8
CSLAYER1
  6
CONTINUOUS
 62
     3
 10
880.391881
 20
908.009505
 11
880.497172
 21
907.621770
  0
LINE
  8
CSLAYER1
  6
CONTINUOUS
 62
     3
 10
881.599412
 20
905.261409
 11
882.099412
 21
904.615434
  0
LINE
  8
CSLAYER1
  6
CONTINUOUS
 62
     3
 10
927.099412
 20
904.615434
 11
927.599412
 21
905.261409
  0
LINE
  8
CSLAYER1
  6
CONTINUOUS
 62
     3
 10
928.701652
 20
907.621770
 11
928.806943
 21
908.009505
  0
LINE
  8
CSLAYER1
  6
CONTINUOUS
 62
     3
 10
928.806943
 20
908.009505
 11
928.899412
 21
909.036276
  0
LINE
  8
CSLAYER1
  6
CONTINUOUS
 62
     3
 10
882.099412
 20
878.447380
 11
882.099412
 21
909.036276
  0
LINE
  8
CSLAYER1
  6
CONTINUOUS
 62
     3
 10
927.099412
 20
878.447380
 11
927.013793
 21
879.398094
  0
LINE
  8
CSLAYER1
  6
CONTINUOUS
 62
     3
 10
927.013793
 20
879.398094
 11
926.757586
 21
880.341572
  0
LINE
  8
CSLAYER1
  6
CONTINUOUS
 62
     3
 10
926.757586
 20
880.341572
 11
926.332743
 21
881.270634
  0
LINE
  8
CSLAYER1
  6
CONTINUOUS
 62
     3
 10
926.332743
 20
881.270634
 11
925.742496
 21
882.178210
  0
LINE
  8
CSLAYER1
  6
CONTINUOUS
 62
     3
 10
925.742496
 20
882.178210
 11
924.991337
 21
883.057392
  0
LINE
  8
CSLAYER1
  6
CONTINUOUS
 62
     3
 10
924.991337
 20
883.057392
 11
924.084984
 21
883.901489
  0
LINE
  8
CSLAYER1
  6
CONTINUOUS
 62
     3
 10
924.084984
 20
883.901489
 11
923.030333
 21
884.704076
  0
LINE
  8
CSLAYER1
  6
CONTINUOUS
 62
     3
 10
923.030333
 20
884.704076
 11
921.835412
 21
885.459047
  0
LINE
  8
CSLAYER1
  6
CONTINUOUS
 62
     3
 10
921.835412
 20
885.459047
 11
920.509315
 21
886.160654
  0
LINE
  8
CSLAYER1
  6
CONTINUOUS
 62
     3
 10
920.509315
 20
886.160654
 11
919.062133
 21
886.803559
  0
LINE
  8
CSLAYER1
  6
CONTINUOUS
 62
     3
 10
919.062133
 20
886.803559
 11
917.504882
 21
887.382868
  0
LINE
  8
CSLAYER1
  6
CONTINUOUS
 62
     3
 10
917.504882
 20
887.382868
 11
915.849412
 21
887.894173
  0
LINE
  8
CSLAYER1
  6
CONTINUOUS
 62
     3
 10
915.849412
 20
887.894173
 11
914.108323
 21
888.333582
  0
LINE
  8
CSLAYER1
  6
CONTINUOUS
 62
     3
 10
914.108323
 20
888.333582
 11
912.294865
 21
888.697751
  0
LINE
  8
CSLAYER1
  6
CONTINUOUS
 62
     3
 10
912.294865
 20
888.697751
 11
910.422840
 21
888.983908
  0
LINE
  8
CSLAYER1
  6
CONTINUOUS
 62
     3
 10
910.422840
 20
888.983908
 11
908.506496
 21
889.189876
  0
LINE
  8
CSLAYER1
  6
CONTINUOUS
 62
     3
 10
908.506496
 20
889.189876
 11
906.560416
 21
889.314088
  0
LINE
  8
CSLAYER1
  6
CONTINUOUS
 62
     3
 10
906.560416
 20
889.314088
 11
904.599412
 21
889.355597
  0
LINE
  8
CSLAYER1
  6
CONTINUOUS
 62
     3
 10
904.599412
 20
889.355597
 11
902.638408
 21
889.314088
  0
LINE
  8
CSLAYER1
  6
CONTINUOUS
 62
     3
 10
902.638408
 20
889.314088
 11
900.692328
 21
889.189876
  0
LINE
  8
CSLAYER1
  6
CONTINUOUS
 62
     3
 10
900.692328
 20
889.189876
 11
898.775983
 21
888.983908
  0
LINE
  8
CSLAYER1
  6
CONTINUOUS
 62
     3
 10
898.775983
 20
888.983908
 11
896.903959
 21
888.697751
  0
LINE
  8
CSLAYER1
  6
CONTINUOUS
 62
     3
 10
896.903959
 20
888.697751
 11
895.090501
 21
888.333582
  0
LINE
  8
CSLAYER1
  6
CONTINUOUS
 62
     3
 10
895.090501
 20
888.333582
 11
893.349412
 21
887.894173
  0
LINE
  8
CSLAYER1
  6
CONTINUOUS
 62
     3
 10
893.349412
 20
887.894173
 11
891.693942
 21
887.382868
  0
LINE
  8
CSLAYER1
  6
CONTINUOUS
 62
     3
 10
891.693942
 20
887.382868
 11
890.136691
 21
886.803559
  0
LINE
  8
CSLAYER1
  6
CONTINUOUS
 62
     3
 10
890.136691
 20
886.803559
 11
888.689509
 21
886.160654
  0
LINE
  8
CSLAYER1
  6
CONTINUOUS
 62
     3
 10
888.689509
 20
886.160654
 11
887.363412
 21
885.459047
  0
LINE
  8
CSLAYER1
  6
CONTINUOUS
 62
     3
 10
887.363412
 20
885.459047
 11
886.168491
 21
884.704076
  0
LINE
  8
CSLAYER1
  6
CONTINUOUS
 62
     3
 10
886.168491
 20
884.704076
 11
885.113840
 21
883.901489
  0
LINE
  8
CSLAYER1
  6
CONTINUOUS
 62
     3
 10
885.113840
 20
883.901489
 11
884.207487
 21
883.057392
  0
LINE
  8
CSLAYER1
  6
CONTINUOUS
 62
     3
 10
884.207487
 20
883.057392
 11
883.456328
 21
882.178210
  0
LINE
  8
CSLAYER1
  6
CONTINUOUS
 62
     3
 10
883.456328
 20
882.178210
 11
882.866081
 21
881.270634
  0
LINE
  8
CSLAYER1
  6
CONTINUOUS
 62
     3
 10
882.866081
 20
881.270634
 11
882.441237
 21
880.341572
  0
LINE
  8
CSLAYER1
  6
CONTINUOUS
 62
     3
 10
882.441237
 20
880.341572
 11
882.185031
 21
879.398094
  0
LINE
  8
CSLAYER1
  6
CONTINUOUS
 62
     3
 10
882.185031
 20
879.398094
 11
882.099412
 21
878.447380
  0
LINE
  8
CSLAYER1
  6
CONTINUOUS
 62
     3
 10
882.099412
 20
878.447380
 11
882.185031
 21
877.496667
  0
LINE
  8
CSLAYER1
  6
CONTINUOUS
 62
     3
 10
882.185031
 20
877.496667
 11
882.441237
 21
876.553188
  0
LINE
  8
CSLAYER1
  6
CONTINUOUS
 62
     3
 10
882.441237
 20
876.553188
 11
882.866081
 21
875.624126
  0
LINE
  8
CSLAYER1
  6
CONTINUOUS
 62
     3
 10
882.866081
 20
875.624126
 11
883.456328
 21
874.716551
  0
LINE
  8
CSLAYER1
  6
CONTINUOUS
 62
     3
 10
883.456328
 20
874.716551
 11
884.207487
 21
873.837369
  0
LINE
  8
CSLAYER1
  6
CONTINUOUS
 62
     3
 10
884.207487
 20
873.837369
 11
885.095906
 21
873.009975
  0
LINE
  8
CSLAYER1
  6
CONTINUOUS
 62
     3
 10
924.102918
 20
873.009975
 11
924.991337
 21
873.837369
  0
LINE
  8
CSLAYER1
  6
CONTINUOUS
 62
     3
 10
924.991337
 20
873.837369
 11
925.742496
 21
874.716551
  0
LINE
  8
CSLAYER1
  6
CONTINUOUS
 62
     3
 10
925.742496
 20
874.716551
 11
926.332743
 21
875.624126
  0
LINE
  8
CSLAYER1
  6
CONTINUOUS
 62
     3
 10
926.332743
 20
875.624126
 11
926.757586
 21
876.553188
  0
LINE
  8
CSLAYER1
  6
CONTINUOUS
 62
     3
 10
926.757586
 20
876.553188
 11
927.013793
 21
877.496667
  0
LINE
  8
CSLAYER1
  6
CONTINUOUS
 62
     3
 10
927.013793
 20
877.496667
 11
927.099412
 21
878.447380
  0
LINE
  8
CSLAYER1
  6
CENTER
 62
     5
 10
864.599412
 20
839.475417
 11
864.599412
 21
981.567406
  0
LINE
  8
CSLAYER1
  6
CONTINUOUS
 62
     3
 10
871.599412
 20
975.867406
 11
857.599412
 21
975.867406
  0
LINE
  8
CSLAYER1
  6
CONTINUOUS
 62
     3
 10
871.599412
 20
968.067406
 11
857.599412
 21
968.067406
  0
LINE
  8
CSLAYER1
  6
CONTINUOUS
 62
     3
 10
871.031344
 20
962.867406
 11
858.167480
 21
962.867406
  0
LINE
  8
CSLAYER1
  6
CONTINUOUS
 62
     3
 10
870.599412
 20
960.867406
 11
858.599412
 21
960.867406
  0
LINE
  8
CSLAYER1
  6
CONTINUOUS
 62
     3
 10
870.599412
 20
953.867406
 11
858.599412
 21
953.867406
  0
LINE
  8
CSLAYER1
  6
CONTINUOUS
 62
     3
 10
869.482438
 20
928.867406
 11
859.716386
 21
928.867406
  0
LINE
  8
CSLAYER1
  6
CONTINUOUS
 62
     3
 10
870.099412
 20
950.867406
 11
870.099412
 21
953.867406
  0
LINE
  8
CSLAYER1
  6
CONTINUOUS
 62
     3
 10
872.682316
 20
968.692620
 11
872.682316
 21
975.242191
  0
LINE
  8
CSLAYER1
  6
CONTINUOUS
 62
     3
 10
868.640864
 20
968.692620
 11
868.640864
 21
975.242191
  0
ARC
  8
CSLAYER1
  6
CONTINUOUS
 62
     3
 10
841.911642
 20
968.109627
 40
29.587800
 50
345.831727
 51
359.918240
  0
ARC
  8
CSLAYER1
  6
CONTINUOUS
 62
     3
 10
887.287182
 20
968.109627
 40
29.587800
 50
180.081760
 51
194.168273
  0
LINE
  8
CSLAYER1
  6
CONTINUOUS
 62
     3
 10
868.946726
 20
960.867406
 11
868.946726
 21
962.867406
  0
LINE
  8
CSLAYER1
  6
CONTINUOUS
 62
     3
 10
866.964961
 20
960.867406
 11
866.964961
 21
962.867406
  0
LINE
  8
CSLAYER1
  6
CONTINUOUS
 62
     3
 10
860.252098
 20
960.867406
 11
860.252098
 21
962.867406
  0
LINE
  8
CSLAYER1
  6
CONTINUOUS
 62
     3
 10
862.233863
 20
960.867406
 11
862.233863
 21
962.867406
  0
LINE
  8
CSLAYER1
  6
CONTINUOUS
 62
     3
 10
871.599412
 20
975.867406
 11
872.682316
 21
975.242191
  0
ARC
  8
CSLAYER1
  6
CONTINUOUS
 62
     3
 10
870.661590
 20
972.315777
 40
3.556295
 50
64.625569
 51
124.625569
  0
ARC
  8
CSLAYER1
  6
CONTINUOUS
 62
     3
 10
864.599412
 20
962.492620
 40
13.374785
 50
72.412046
 51
107.587954
  0
LINE
  8
CSLAYER1
  6
CONTINUOUS
 62
     3
 10
871.599412
 20
968.067406
 11
872.682316
 21
968.692620
  0
ARC
  8
CSLAYER1
  6
CONTINUOUS
 62
     3
 10
870.661590
 20
971.619035
 40
3.556295
 50
235.374431
 51
295.374431
  0
ARC
  8
CSLAYER1
  6
CONTINUOUS
 62
     3
 10
864.599412
 20
981.442191
 40
13.374785
 50
252.412046
 51
287.587954
  0
LINE
  8
CSLAYER1
  6
CONTINUOUS
 62
     3
 10
856.516508
 20
968.692620
 11
856.516508
 21
975.242191
  0
LINE
  8
CSLAYER1
  6
CONTINUOUS
 62
     3
 10
860.557960
 20
968.692620
 11
860.557960
 21
975.242191
  0
LINE
  8
CSLAYER1
  6
CONTINUOUS
 62
     3
 10
857.599412
 20
975.867406
 11
856.516508
 21
975.242191
  0
ARC
  8
CSLAYER1
  6
CONTINUOUS
 62
     3
 10
858.537234
 20
972.315777
 40
3.556295
 50
55.374431
 51
115.374431
  0
LINE
  8
CSLAYER1
  6
CONTINUOUS
 62
     3
 10
857.599412
 20
968.067406
 11
856.516508
 21
968.692620
  0
ARC
  8
CSLAYER1
  6
CONTINUOUS
 62
     3
 10
858.537234
 20
971.619035
 40
3.556295
 50
244.625569
 51
304.625569
  0
LINE
  8
CSLAYER1
  6
CONTINUOUS
 62
     3
 10
871.527615
 20
954.403304
 11
871.527615
 21
960.131507
  0
LINE
  8
CSLAYER1
  6
CONTINUOUS
 62
     3
 10
868.063514
 20
954.403304
 11
868.063514
 21
960.131507
  0
LINE
  8
CSLAYER1
  6
CONTINUOUS
 62
     3
 10
870.599412
 20
953.867406
 11
871.527615
 21
954.403304
  0
ARC
  8
CSLAYER1
  6
CONTINUOUS
 62
     3
 10
864.599412
 20
965.331507
 40
11.464102
 50
252.178595
 51
287.821405
  0
ARC
  8
CSLAYER1
  6
CONTINUOUS
 62
     3
 10
869.795564
 20
956.933334
 40
3.066114
 50
236.143645
 51
295.804157
  0
LINE
  8
CSLAYER1
  6
CONTINUOUS
 62
     3
 10
870.599412
 20
960.667406
 11
871.527615
 21
960.131507
  0
ARC
  8
CSLAYER1
  6
CONTINUOUS
 62
     3
 10
864.599412
 20
949.203304
 40
11.464102
 50
72.178595
 51
107.821405
  0
ARC
  8
CSLAYER1
  6
CONTINUOUS
 62
     3
 10
869.795564
 20
957.601477
 40
3.066114
 50
64.195843
 51
123.856355
  0
LINE
  8
CSLAYER1
  6
CONTINUOUS
 62
     3
 10
870.599412
 20
960.667406
 11
858.599412
 21
960.667406
  0
LINE
  8
CSLAYER1
  6
CONTINUOUS
 62
     3
 10
868.063514
 20
960.667406
 11
868.063514
 21
960.867406
  0
LINE
  8
CSLAYER1
  6
CONTINUOUS
 62
     3
 10
859.099412
 20
950.867406
 11
859.099412
 21
953.867406
  0
LINE
  8
CSLAYER1
  6
CONTINUOUS
 62
     3
 10
857.671209
 20
954.403304
 11
857.671209
 21
960.131507
  0
LINE
  8
CSLAYER1
  6
CONTINUOUS
 62
     3
 10
861.135310
 20
954.403304
 11
861.135310
 21
960.131507
  0
LINE
  8
CSLAYER1
  6
CONTINUOUS
 62
     3
 10
858.599412
 20
953.867406
 11
857.671209
 21
954.403304
  0
ARC
  8
CSLAYER1
  6
CONTINUOUS
 62
     3
 10
859.403260
 20
956.933334
 40
3.066114
 50
244.195843
 51
303.856355
  0
LINE
  8
CSLAYER1
  6
CONTINUOUS
 62
     3
 10
858.599412
 20
960.667406
 11
857.671209
 21
960.131507
  0
ARC
  8
CSLAYER1
  6
CONTINUOUS
 62
     3
 10
859.403260
 20
957.601477
 40
3.066114
 50
56.143645
 51
115.804157
  0
LINE
  8
CSLAYER1
  6
CONTINUOUS
 62
     3
 10
861.135310
 20
960.667406
 11
861.135310
 21
960.867406
  0
LINE
  8
CSLAYER1
  6
CONTINUOUS
 62
     3
 10
871.527615
 20
941.867406
 11
871.527615
 21
950.331507
  0
LINE
  8
CSLAYER1
  6
CONTINUOUS
 62
     3
 10
868.063514
 20
941.867406
 11
868.063514
 21
950.331507
  0
LINE
  8
CSLAYER1
  6
CONTINUOUS
 62
     3
 10
870.599412
 20
950.867406
 11
871.527615
 21
950.331507
  0
ARC
  8
CSLAYER1
  6
CONTINUOUS
 62
     3
 10
864.599412
 20
939.403304
 40
11.464102
 50
72.178595
 51
107.821405
  0
ARC
  8
CSLAYER1
  6
CONTINUOUS
 62
     3
 10
869.795564
 20
947.801477
 40
3.066114
 50
64.195843
 51
123.856355
  0
LINE
  8
CSLAYER1
  6
CONTINUOUS
 62
     3
 10
870.599412
 20
950.867406
 11
858.599412
 21
950.867406
  0
LINE
  8
CSLAYER1
  6
CONTINUOUS
 62
     3
 10
857.671209
 20
941.867406
 11
857.671209
 21
950.331507
  0
LINE
  8
CSLAYER1
  6
CONTINUOUS
 62
     3
 10
861.135310
 20
941.867406
 11
861.135310
 21
950.331507
  0
LINE
  8
CSLAYER1
  6
CONTINUOUS
 62
     3
 10
858.599412
 20
950.867406
 11
857.671209
 21
950.331507
  0
ARC
  8
CSLAYER1
  6
CONTINUOUS
 62
     3
 10
859.403260
 20
947.801477
 40
3.066114
 50
56.143645
 51
115.804157
  0
LINE
  8
CSLAYER1
  6
CONTINUOUS
 62
     3
 10
870.478693
 20
929.780946
 11
871.527615
 21
941.867406
  0
ARC
  8
CSLAYER1
  6
CONTINUOUS
 62
     3
 10
849.421924
 20
941.867406
 40
18.641590
 50
330.443788
 51
360.000000
  0
ARC
  8
CSLAYER1
  6
CONTINUOUS
 62
     3
 10
864.599412
 20
933.307260
 40
1.217263
 50
210.578468
 51
329.421532
  0
ARC
  8
CSLAYER1
  6
CONTINUOUS
 62
     3
 10
886.705104
 20
941.867406
 40
18.641590
 50
180.000000
 51
209.556212
  0
ARC
  8
CSLAYER1
  6
CONTINUOUS
 62
     3
 10
871.527615
 20
933.307260
 40
1.217263
 50
210.578468
 51
227.594217
  0
ARC
  8
CSLAYER1
  6
CONTINUOUS
 62
     3
 10
869.482438
 20
929.867406
 40
1.000000
 50
270.000000
 51
355.040021
  0
LINE
  8
CSLAYER1
  6
CONTINUOUS
 62
     3
 10
858.720130
 20
929.780946
 11
857.671209
 21
941.867406
  0
ARC
  8
CSLAYER1
  6
CONTINUOUS
 62
     3
 10
879.776900
 20
941.867406
 40
18.641590
 50
180.000000
 51
209.556212
  0
ARC
  8
CSLAYER1
  6
CONTINUOUS
 62
     3
 10
842.493720
 20
941.867406
 40
18.641590
 50
330.443788
 51
360.000000
  0
ARC
  8
CSLAYER1
  6
CONTINUOUS
 62
     3
 10
857.671209
 20
933.307260
 40
1.217263
 50
312.405783
 51
329.421532
  0
ARC
  8
CSLAYER1
  6
CONTINUOUS
 62
     3
 10
859.716386
 20
929.867406
 40
1.000000
 50
184.959979
 51
270.000000
  0
LINE
  8
CSLAYER1
  6
CONTINUOUS
 62
     3
 10
871.599412
 20
995.567406
 11
859.099412
 21
995.567406
  0
LINE
  8
CSLAYER1
  6
CENTER
 62
     5
 10
877.099412
 20
988.567406
 11
871.599412
 21
988.567406
  0
LINE
  8
CSLAYER1
  6
CONTINUOUS
 62
     3
 10
857.599412
 20
981.567406
 11
857.599412
 21
994.067406
  0
LINE
  8
CSLAYER1
  6
CONTINUOUS
 62
     3
 10
871.599412
 20
981.567406
 11
857.599412
 21
981.567406
  0
LINE
  8
CSLAYER1
  6
CONTINUOUS
 62
     3
 10
871.599412
 20
981.567406
 11
871.599412
 21
995.564961
  0
LINE
  8
CSLAYER1
  6
CONTINUOUS
 62
     3
 10
869.199412
 20
975.867406
 11
869.199412
 21
981.567406
  0
LINE
  8
CSLAYER1
  6
CONTINUOUS
 62
     5
 10
868.599412
 20
975.867406
 11
868.599412
 21
980.528175
  0
LINE
  8
CSLAYER1
  6
CONTINUOUS
 62
     5
 10
869.199412
 20
981.567406
 11
868.599412
 21
980.528175
  0
LINE
  8
CSLAYER1
  6
CONTINUOUS
 62
     3
 10
859.999412
 20
975.867406
 11
859.999412
 21
981.567406
  0
LINE
  8
CSLAYER1
  6
CONTINUOUS
 62
     5
 10
859.999412
 20
981.567406
 11
860.599412
 21
980.528175
  0
LINE
  8
CSLAYER1
  6
CONTINUOUS
 62
     5
 10
869.199412
 20
980.528175
 11
859.999412
 21
980.528175
  0
LINE
  8
CSLAYER1
  6
CONTINUOUS
 62
     3
 10
877.099412
 20
983.715620
 11
871.599412
 21
983.617406
  0
LINE
  8
CSLAYER1
  6
CONTINUOUS
 62
     5
 10
877.099412
 20
984.415732
 11
871.586914
 21
984.317294
  0
LINE
  8
CSLAYER1
  6
CONTINUOUS
 62
     3
 10
877.099412
 20
993.419191
 11
871.599412
 21
993.517406
  0
LINE
  8
CSLAYER1
  6
CONTINUOUS
 62
     5
 10
877.099412
 20
992.719080
 11
871.586914
 21
992.817517
  0
ARC
  8
CSLAYER1
  6
CONTINUOUS
 62
     3
 10
859.099412
 20
994.067406
 40
1.500000
 50
90.000000
 51
180.000000
  0
LINE
  8
CSLAYER1
  6
CONTINUOUS
 62
     3
 10
883.099412
 20
1118.385629
 11
886.599412
 21
1118.385629
  0
LINE
  8
CSLAYER1
  6
CONTINUOUS
 62
     3
 10
882.099412
 20
1119.385629
 11
883.099412
 21
1118.385629
  0
LINE
  8
CSLAYER1
  6
CONTINUOUS
 62
     3
 10
926.099412
 20
1118.385629
 11
927.099412
 21
1119.385629
  0
LINE
  8
CSLAYER1
  6
CONTINUOUS
 62
     3
 10
928.099412
 20
1123.985629
 11
927.099412
 21
1123.985629
  0
LINE
  8
CSLAYER1
  6
CONTINUOUS
 62
     3
 10
882.099412
 20
1123.985629
 11
881.099412
 21
1123.985629
  0
LINE
  8
CSLAYER1
  6
CONTINUOUS
 62
     3
 10
869.099412
 20
1148.985629
 11
881.099412
 21
1148.985629
  0
LINE
  8
CSLAYER1
  6
CONTINUOUS
 62
     3
 10
869.099412
 20
1077.229468
 11
881.099412
 21
1077.229468
  0
LINE
  8
CSLAYER1
  6
CONTINUOUS
 62
     3
 10
928.099412
 20
1077.229468
 11
928.099412
 21
1148.985629
  0
LINE
  8
CSLAYER1
  6
CONTINUOUS
 62
     3
 10
881.099412
 20
1077.229468
 11
881.099412
 21
1148.985629
  0
LINE
  8
CSLAYER1
  6
CONTINUOUS
 62
     3
 10
869.099412
 20
1077.229468
 11
869.099412
 21
1148.985629
  0
LINE
  8
CSLAYER1
  6
CONTINUOUS
 62
     3
 10
928.099412
 20
1077.229468
 11
940.099412
 21
1077.229468
  0
LINE
  8
CSLAYER1
  6
CONTINUOUS
 62
     3
 10
922.599412
 20
1056.338942
 11
940.099412
 21
1056.338942
  0
LINE
  8
CSLAYER1
  6
CONTINUOUS
 62
     3
 10
881.099412
 20
1104.938942
 11
886.599412
 21
1104.938942
  0
LINE
  8
CSLAYER1
  6
CONTINUOUS
 62
     3
 10
922.599412
 20
1104.938942
 11
928.099412
 21
1104.938942
  0
LINE
  8
CSLAYER1
  6
CONTINUOUS
 62
     3
 10
928.099412
 20
1148.985629
 11
940.099412
 21
1148.985629
  0
LINE
  8
CSLAYER1
  6
CONTINUOUS
 62
     3
 10
848.099412
 20
1139.985629
 11
869.099412
 21
1139.985629
  0
LINE
  8
CSLAYER1
  6
CONTINUOUS
 62
     3
 10
848.099412
 20
1123.985629
 11
869.099412
 21
1123.985629
  0
LINE
  8
CSLAYER1
  6
CONTINUOUS
 62
     3
 10
940.099412
 20
1293.048846
 11
848.099412
 21
1293.048846
  0
LINE
  8
CSLAYER1
  6
CONTINUOUS
 62
     3
 10
815.599412
 20
1075.252654
 11
816.099412
 21
1075.252654
  0
LINE
  8
CSLAYER1
  6
CONTINUOUS
 62
     3
 10
826.599412
 20
1090.752654
 11
826.599412
 21
1069.752654
  0
LINE
  8
CSLAYER1
  6
CONTINUOUS
 62
     3
 10
814.599412
 20
1076.252654
 11
814.599412
 21
1084.252654
  0
LINE
  8
CSLAYER1
  6
CONTINUOUS
 62
     3
 10
836.099412
 20
1094.252654
 11
839.099412
 21
1094.252654
  0
LINE
  8
CSLAYER1
  6
CONTINUOUS
 62
     3
 10
836.099412
 20
839.475417
 11
836.099412
 21
1349.153528
  0
LINE
  8
CSLAYER1
  6
CONTINUOUS
 62
     3
 10
839.099412
 20
839.475417
 11
839.099412
 21
1361.453528
  0
LINE
  8
CSLAYER1
  6
CONTINUOUS
 62
     3
 10
836.099412
 20
1066.252654
 11
839.099412
 21
1066.252654
  0
LINE
  8
CSLAYER1
  6
CONTINUOUS
 62
     3
 10
824.599412
 20
1090.752654
 11
824.599412
 21
1069.752654
  0
LINE
  8
CSLAYER1
  6
CONTINUOUS
 62
     3
 10
822.099412
 20
1089.452654
 11
822.099412
 21
1071.052654
  0
LINE
  8
CSLAYER1
  6
CONTINUOUS
 62
     3
 10
822.099412
 20
1071.052654
 11
824.599412
 21
1071.052654
  0
LINE
  8
CSLAYER1
  6
CONTINUOUS
 62
     3
 10
824.599412
 20
1069.752654
 11
826.599412
 21
1069.752654
  0
LINE
  8
CSLAYER1
  6
CONTINUOUS
 62
     3
 10
822.099412
 20
1089.452654
 11
824.599412
 21
1089.452654
  0
LINE
  8
CSLAYER1
  6
CONTINUOUS
 62
     3
 10
824.599412
 20
1090.752654
 11
826.599412
 21
1090.752654
  0
LINE
  8
CSLAYER1
  6
CONTINUOUS
 62
     3
 10
816.099412
 20
1088.752654
 11
816.099412
 21
1071.752654
  0
LINE
  8
CSLAYER1
  6
CONTINUOUS
 62
     3
 10
815.599412
 20
1075.252654
 11
814.599412
 21
1076.252654
  0
LINE
  8
CSLAYER1
  6
CONTINUOUS
 62
     3
 10
814.899412
 20
1075.952654
 11
816.099412
 21
1075.952654
  0
LINE
  8
CSLAYER1
  6
CONTINUOUS
 62
     3
 10
815.599412
 20
1075.252654
 11
815.599412
 21
1085.252654
  0
LINE
  8
CSLAYER1
  6
CONTINUOUS
 62
     3
 10
816.858601
 20
1070.437699
 11
821.340223
 21
1070.437699
  0
LINE
  8
CSLAYER1
  6
CONTINUOUS
 62
     3
 10
816.858601
 20
1075.345176
 11
821.340223
 21
1075.345176
  0
LINE
  8
CSLAYER1
  6
CONTINUOUS
 62
     3
 10
816.099412
 20
1071.752654
 11
816.858601
 21
1070.437699
  0
ARC
  8
CSLAYER1
  6
CONTINUOUS
 62
     3
 10
832.340223
 20
1080.252654
 40
16.240811
 50
162.412046
 51
197.587954
  0
ARC
  8
CSLAYER1
  6
CONTINUOUS
 62
     3
 10
820.440336
 20
1072.891438
 40
4.341619
 50
145.586132
 51
207.480777
  0
LINE
  8
CSLAYER1
  6
CONTINUOUS
 62
     3
 10
816.099412
 20
1088.752654
 11
816.858601
 21
1090.067608
  0
ARC
  8
CSLAYER1
  6
CONTINUOUS
 62
     3
 10
820.440336
 20
1087.613870
 40
4.341619
 50
152.519223
 51
214.413868
  0
LINE
  8
CSLAYER1
  6
CONTINUOUS
 62
     3
 10
822.099412
 20
1071.752654
 11
821.340223
 21
1070.437699
  0
ARC
  8
CSLAYER1
  6
CONTINUOUS
 62
     3
 10
805.858601
 20
1080.252654
 40
16.240811
 50
-17.587954
 51
17.587954
  0
ARC
  8
CSLAYER1
  6
CONTINUOUS
 62
     3
 10
817.758488
 20
1072.891438
 40
4.341619
 50
-27.480777
 51
34.413868
  0
LINE
  8
CSLAYER1
  6
CONTINUOUS
 62
     3
 10
822.099412
 20
1088.752654
 11
821.340223
 21
1090.067608
  0
ARC
  8
CSLAYER1
  6
CONTINUOUS
 62
     3
 10
817.758488
 20
1087.613870
 40
4.341619
 50
-34.413868
 51
27.480777
  0
LINE
  8
CSLAYER1
  6
CONTINUOUS
 62
     3
 10
816.858601
 20
1090.067608
 11
821.340223
 21
1090.067608
  0
LINE
  8
CSLAYER1
  6
CONTINUOUS
 62
     3
 10
816.858601
 20
1085.160131
 11
821.340223
 21
1085.160131
  0
LINE
  8
CSLAYER1
  6
CONTINUOUS
 62
     3
 10
815.599412
 20
1085.252654
 11
816.099412
 21
1085.252654
  0
LINE
  8
CSLAYER1
  6
CONTINUOUS
 62
     3
 10
815.599412
 20
1085.252654
 11
814.599412
 21
1084.252654
  0
LINE
  8
CSLAYER1
  6
CONTINUOUS
 62
     3
 10
814.899412
 20
1084.552654
 11
816.099412
 21
1084.552654
  0
LINE
  8
CSLAYER1
  6
CONTINUOUS
 62
     3
 10
824.599412
 20
1082.154101
 11
822.099412
 21
1078.784536
  0
LINE
  8
CSLAYER1
  6
CONTINUOUS
 62
     3
 10
827.099412
 20
1072.752654
 11
826.599412
 21
1072.752654
  0
LINE
  8
CSLAYER1
  6
CONTINUOUS
 62
     3
 10
827.099412
 20
1087.752654
 11
826.599412
 21
1087.752654
  0
LINE
  8
CSLAYER1
  6
CONTINUOUS
 62
     3
 10
838.099412
 20
1351.003528
 11
839.099412
 21
1351.003528
  0
LINE
  8
CSLAYER1
  6
CONTINUOUS
 62
     3
 10
837.099412
 20
1361.453528
 11
837.099412
 21
1352.003528
  0
LINE
  8
CSLAYER1
  6
CONTINUOUS
 62
     3
 10
837.099412
 20
1352.003528
 11
838.099412
 21
1351.003528
  0
LINE
  8
CSLAYER1
  6
CONTINUOUS
 62
     3
 10
838.099412
 20
1361.453528
 11
838.099412
 21
1351.003528
  0
LINE
  8
CSLAYER1
  6
CONTINUOUS
 62
     3
 10
836.599412
 20
1349.153528
 11
830.599412
 21
1349.153528
  0
LINE
  8
CSLAYER1
  6
CONTINUOUS
 62
     3
 10
830.599412
 20
1361.453528
 11
830.599412
 21
1349.153528
  0
LINE
  8
CSLAYER1
  6
CONTINUOUS
 62
     3
 10
836.599412
 20
1361.453528
 11
836.599412
 21
1349.153528
  0
LINE
  8
CSLAYER1
  6
CONTINUOUS
 62
     3
 10
827.599412
 20
1348.683873
 11
827.599412
 21
1361.453528
  0
LINE
  8
CSLAYER1
  6
CONTINUOUS
 62
     3
 10
830.599412
 20
1348.903528
 11
827.599412
 21
1348.903528
  0
LINE
  8
CSLAYER1
  6
CONTINUOUS
 62
     3
 10
830.599412
 20
1358.141331
 11
827.760386
 21
1361.453528
  0
LINE
  8
CSLAYER1
  6
CONTINUOUS
 62
     3
 10
819.599412
 20
1361.453528
 11
819.599412
 21
1350.653528
  0
ARC
  8
CSLAYER1
  6
CONTINUOUS
 62
     3
 10
833.395156
 20
1359.653528
 40
13.795744
 50
172.502957
 51
203.426598
  0
LINE
  8
CSLAYER1
  6
CONTINUOUS
 62
     3
 10
827.599412
 20
1354.168700
 11
820.736593
 21
1354.168700
  0
LINE
  8
CSLAYER1
  6
CONTINUOUS
 62
     3
 10
827.599412
 20
1348.683873
 11
820.736593
 21
1348.683873
  0
LINE
  8
CSLAYER1
  6
CONTINUOUS
 62
     3
 10
819.599412
 20
1350.653528
 11
820.736593
 21
1348.683873
  0
ARC
  8
CSLAYER1
  6
CONTINUOUS
 62
     3
 10
823.379456
 20
1351.426286
 40
3.808617
 50
133.940972
 51
174.338367
  0
LINE
  8
CSLAYER1
  6
CONTINUOUS
 62
     3
 10
848.099412
 20
839.475417
 11
848.099412
 21
1361.453528
  0
LINE
  8
CSLAYER1
  6
CONTINUOUS
 62
     3
 10
827.099412
 20
839.475417
 11
827.099412
 21
1348.683873
  0
LINE
  8
CSLAYER1
  6
CONTINUOUS
 62
     3
 10
848.099412
 20
873.009975
 11
860.449412
 21
873.009975
  0
LINE
  8
CSLAYER1
  6
CONTINUOUS
 62
     3
 10
809.099412
 20
1347.153528
 11
809.099412
 21
1361.453528
  0
LINE
  8
CSLAYER1
  6
CONTINUOUS
 62
     3
 10
813.599412
 20
1347.153528
 11
813.599412
 21
1361.453528
  0
LINE
  8
CSLAYER1
  6
CONTINUOUS
 62
     3
 10
809.099412
 20
1347.153528
 11
813.599412
 21
1347.153528
  0
LINE
  8
CSLAYER1
  6
CONTINUOUS
 62
     3
 10
979.099412
 20
1347.153528
 11
979.099412
 21
1361.453528
  0
LINE
  8
CSLAYER1
  6
CONTINUOUS
 62
     3
 10
974.599412
 20
1347.153528
 11
974.599412
 21
1361.453528
  0
LINE
  8
CSLAYER1
  6
CONTINUOUS
 62
     3
 10
979.099412
 20
1347.153528
 11
974.599412
 21
1347.153528
  0
LINE
  8
CSLAYER1
  6
CONTINUOUS
 62
     3
 10
848.099412
 20
1048.073071
 11
886.599412
 21
1048.073071
  0
LINE
  8
CSLAYER1
  6
CONTINUOUS
 62
     3
 10
848.099412
 20
1049.949276
 11
886.599412
 21
1049.949276
  0
LINE
  8
CSLAYER1
  6
CONTINUOUS
 62
     3
 10
922.599412
 20
1049.949276
 11
940.099412
 21
1049.949276
  0
LINE
  8
CSLAYER1
  6
CONTINUOUS
 62
     3
 10
922.599412
 20
1048.073071
 11
940.099412
 21
1048.073071
  0
LINE
  8
CSLAYER1
  6
CONTINUOUS
 62
     3
 10
922.599412
 20
1118.385629
 11
926.099412
 21
1118.385629
  0
LINE
  8
CSLAYER1
  6
CONTINUOUS
 62
     3
 10
860.449412
 20
839.475417
 11
860.449412
 21
928.867406
  0
LINE
  8
CSLAYER1
  6
CONTINUOUS
 62
     3
 10
868.749412
 20
839.475417
 11
868.749412
 21
928.867406
  0
LINE
  8
CSLAYER1
  6
CONTINUOUS
 62
     3
 10
868.749412
 20
873.009975
 11
875.599412
 21
873.009975
  0
CIRCLE
  8
CSLAYER1
  6
CONTINUOUS
 62
     3
 10
864.099412
 20
811.125417
 40
4.150000
  0
LINE
  8
CSLAYER1
  6
CENTER
 62
     5
 10
1279.631563
 20
1978.037375
 11
1507.027722
 21
1978.037375
  0
LINE
  8
CSLAYER1
  6
CONTINUOUS
 62
     3
 10
1504.327722
 20
2022.537375
 11
1507.027722
 21
2022.537375
  0
LINE
  8
CSLAYER1
  6
CONTINUOUS
 62
     5
 10
860.599412
 20
975.867406
 11
860.599412
 21
980.528175
  0
LINE
  8
CSLAYER1
  6
CONTINUOUS
 62
     3
 10
1279.631563
 20
1982.187375
 11
1507.027722
 21
1982.187375
  0
LINE
  8
CSLAYER1
  6
CONTINUOUS
 62
     3
 10
1279.631563
 20
1973.887375
 11
1507.027722
 21
1973.887375
  0
LINE
  8
CSLAYER1
  6
CONTINUOUS
 62
     3
 10
1504.327722
 20
1982.187375
 11
1504.327722
 21
2088.037375
  0
DIMENSION
  8
CSLAYER1
 62
     3
  2
*D0000
 10
1419.073662
 20
2073.037375
 11
1410.821533
 21
1922.484375
 13
1518.064921
 23
1823.037375
 14
1518.064921
 24
2073.037375
 50
90.000000
 70
1
  0
INSERT
  8
CSLAYER1
  2
EASYDRAWDIM0003
 10
0.0
 20
0.0
 30
0.0
  0
DIMENSION
  8
CSLAYER1
 62
     3
  2
*D0001
 10
2229.305027
 20
1479.453528
 11
1879.305054
 21
1489.453491
 13
1529.305027
 23
1379.453528
 14
2229.305027
 24
1379.453528
 70
1
  0
DIMENSION
  8
CSLAYER1
 62
     3
  2
*D0002
 10
2207.327722
 20
589.475417
 11
1855.827759
 21
599.475464
 13
1504.327722
 23
799.475417
 14
2207.327722
 24
799.475417
 52
270.000000
 70
1
  0
DIMENSION
  8
CSLAYER1
 62
     3
  2
*D0003
 10
1110.486009
 20
805.475417
 11
1100.486084
 21
822.524841
 13
1044.099412
 23
799.475417
 14
1044.099412
 24
805.475417
 50
90.000000
 70
1
  0
LINE
  8
CSLAYER1
  6
CONTINUOUS
 62
     3
 10
1364.533066
 20
823.625417
 11
1504.327722
 21
823.625417
  0
LINE
  8
CSLAYER1
  6
CONTINUOUS
 62
     3
 10
1364.533066
 20
815.325417
 11
1504.327722
 21
815.325417
  0
INSERT
  8
CSLAYER1
  2
EASYDRAWDIM0004
 10
0.0
 20
0.0
 30
0.0
  0
INSERT
  8
CSLAYER1
  2
EASYDRAWDIM0005
 10
0.0
 20
0.0
 30
0.0
  0
LINE
  8
CSLAYER1
  6
CONTINUOUS
 62
     4
 10
1507.027722
 20
2098.037375
 11
2207.027722
 21
2098.037375
  0
ARC
  8
CSLAYER1
  6
CONTINUOUS
 62
     3
 10
1529.327722
 20
2073.037375
 40
6.500000
 50
72.116486
 51
113.266608
  0
ARC
  8
CSLAYER1
  6
CONTINUOUS
 62
     3
 10
1529.327722
 20
2073.037375
 40
6.500000
 50
-22.741190
 51
20.013871
  0
ARC
  8
CSLAYER1
  6
CONTINUOUS
 62
     3
 10
1529.327722
 20
2073.037375
 40
6.500000
 50
247.107161
 51
292.756988
  0
LINE
  8
CSLAYER1
  6
DASHED
 62
     4
 10
1507.027722
 20
1848.037375
 11
2207.027722
 21
1848.037375
  0
LINE
  8
CSLAYER1
  6
DASHED
 62
     4
 10
1554.327722
 20
1808.037375
 11
1554.327722
 21
1848.037375
  0
LINE
  8
CSLAYER1
  6
CONTINUOUS
 62
     3
 10
1514.327722
 20
1798.037375
 11
1544.327722
 21
1798.037375
  0
ARC
  8
CSLAYER1
  6
CONTINUOUS
 62
     3
 10
1514.327722
 20
1808.037375
 40
10.000000
 50
180.000000
 51
223.113606
  0
ARC
  8
CSLAYER1
  6
CONTINUOUS
 62
     4
 10
1544.327722
 20
1808.037375
 40
10.000000
 50
270.000000
 51
360.000000
  0
LINE
  8
CSLAYER1
  6
CENTER
 62
     5
 10
1529.327722
 20
1834.300177
 11
1529.327722
 21
1811.774574
  0
LINE
  8
CSLAYER1
  6
CENTER
 62
     5
 10
1518.064921
 20
1823.037375
 11
1540.590524
 21
1823.037375
  0
ARC
  8
CSLAYER1
  6
CONTINUOUS
 62
     3
 10
1529.327722
 20
1823.037375
 40
6.500000
 50
156.345393
 51
203.231252
  0
LINE
  8
CSLAYER1
  6
CONTINUOUS
 62
     3
 10
1504.327722
 20
1873.537375
 11
1507.027722
 21
1873.537375
  0
LINE
  8
CSLAYER1
  6
CONTINUOUS
 62
     4
 10
1507.027722
 20
1798.037375
 11
2207.027722
 21
1798.037375
  0
ARC
  8
CSLAYER1
  6
CONTINUOUS
 62
     3
 10
1529.327722
 20
1823.037375
 40
6.500000
 50
246.733392
 51
287.883514
  0
ARC
  8
CSLAYER1
  6
CONTINUOUS
 62
     3
 10
1529.327722
 20
1823.037375
 40
6.500000
 50
-20.013871
 51
22.741190
  0
ARC
  8
CSLAYER1
  6
CONTINUOUS
 62
     3
 10
1529.327722
 20
1823.037375
 40
6.500000
 50
67.243012
 51
112.892839
  0
DIMENSION
  8
CSLAYER1
 62
     3
  2
*D0004
 10
2349.305027
 20
2098.037375
 11
2339.304932
 21
1948.037109
 13
2207.027722
 23
1798.037375
 14
2207.027722
 24
2098.037375
 50
90.000000
 70
1
  0
LINE
  8
CSLAYER1
  6
CONTINUOUS
 62
     3
 10
1044.099412
 20
1361.453528
 11
1044.099412
 21
1379.453528
  0
LINE
  8
CSLAYER1
  6
CONTINUOUS
 62
     3
 10
744.099412
 20
1361.453528
 11
744.099412
 21
1379.453528
  0
INSERT
  8
CSLAYER1
  2
BLKF0011
 10
0.0
 20
0.0
 30
0.0
  0
INSERT
  8
CSLAYER1
  2
BLKF0012
 10
0.0
 20
0.0
 30
0.0
  0
TEXT
  8
CSLAYER1
 62
     7
 10
1511.148193
 20
2169.237061
 40
40.000000
 41
0.843750
  1
下降時
 50
0.000000
 51
0.000000
  7
EASYDRAW_FONT
 72
     5
 11
1601.148193
 21
2169.237061
  0
LINE
  8
CSLAYER1
  6
CONTINUOUS
 62
     5
 10
1497.541738
 20
2215.667127
 11
1620.499748
 21
2215.667127
  0
LINE
  8
CSLAYER1
  6
CONTINUOUS
 62
     5
 10
1620.499748
 20
2215.667127
 11
1620.499748
 21
2162.806674
  0
LINE
  8
CSLAYER1
  6
CONTINUOUS
 62
     5
 10
1620.499748
 20
2162.806674
 11
1497.541738
 21
2162.806674
  0
LINE
  8
CSLAYER1
  6
CONTINUOUS
 62
     5
 10
1497.541738
 20
2162.806674
 11
1497.541738
 21
2215.667127
  0
LINE
  8
CSLAYER1
  6
CENTER
 62
     5
 10
2712.120463
 20
844.475417
 11
2861.120463
 21
844.475417
  0
LINE
  8
CSLAYER1
  6
CONTINUOUS
 62
     3
 10
2936.620463
 20
864.275417
 11
2636.620463
 21
864.275417
  0
LINE
  8
CSLAYER1
  6
CONTINUOUS
 62
     3
 10
2936.620463
 20
846.275417
 11
2636.620463
 21
846.275417
  0
LINE
  8
CSLAYER1
  6
CONTINUOUS
 62
     3
 10
2843.620463
 20
846.275417
 11
2843.620463
 21
839.475417
  0
LINE
  8
CSLAYER1
  6
CONTINUOUS
 62
     3
 10
2842.620463
 20
846.275417
 11
2842.620463
 21
839.475417
  0
LINE
  8
CSLAYER1
  6
CONTINUOUS
 62
     3
 10
2850.120463
 20
846.275417
 11
2850.120463
 21
839.475417
  0
LINE
  8
CSLAYER1
  6
CONTINUOUS
 62
     3
 10
2844.120463
 20
846.275417
 11
2844.120463
 21
839.475417
  0
LINE
  8
CSLAYER1
  6
CONTINUOUS
 62
     3
 10
2853.120463
 20
839.475417
 11
2853.120463
 21
846.275417
  0
LINE
  8
CSLAYER1
  6
CONTINUOUS
 62
     3
 10
2850.120463
 20
842.963221
 11
2852.959488
 21
846.275417
  0
LINE
  8
CSLAYER1
  6
CONTINUOUS
 62
     3
 10
2861.120463
 20
846.275417
 11
2861.120463
 21
839.475417
  0
ARC
  8
CSLAYER1
  6
CONTINUOUS
 62
     3
 10
2847.324719
 20
844.475417
 40
13.795744
 50
-21.249544
 51
7.497043
  0
LINE
  8
CSLAYER1
  6
CONTINUOUS
 62
     3
 10
2729.620463
 20
846.275417
 11
2729.620463
 21
839.475417
  0
LINE
  8
CSLAYER1
  6
CONTINUOUS
 62
     3
 10
2730.620463
 20
846.275417
 11
2730.620463
 21
839.475417
  0
LINE
  8
CSLAYER1
  6
CONTINUOUS
 62
     3
 10
2723.120463
 20
846.275417
 11
2723.120463
 21
839.475417
  0
LINE
  8
CSLAYER1
  6
CONTINUOUS
 62
     3
 10
2729.120463
 20
846.275417
 11
2729.120463
 21
839.475417
  0
LINE
  8
CSLAYER1
  6
CONTINUOUS
 62
     3
 10
2720.120463
 20
839.475417
 11
2720.120463
 21
846.275417
  0
LINE
  8
CSLAYER1
  6
CONTINUOUS
 62
     3
 10
2723.120463
 20
842.963221
 11
2720.281437
 21
846.275417
  0
LINE
  8
CSLAYER1
  6
CONTINUOUS
 62
     3
 10
2712.120463
 20
846.275417
 11
2712.120463
 21
839.475417
  0
ARC
  8
CSLAYER1
  6
CONTINUOUS
 62
     3
 10
2725.916207
 20
844.475417
 40
13.795744
 50
172.502957
 51
201.249544
  0
LINE
  8
CSLAYER1
  6
CONTINUOUS
 62
     3
 10
2701.620463
 20
839.475417
 11
2701.620463
 21
846.275417
  0
LINE
  8
CSLAYER1
  6
CONTINUOUS
 62
     3
 10
2706.120463
 20
839.475417
 11
2706.120463
 21
846.275417
  0
LINE
  8
CSLAYER1
  6
CONTINUOUS
 62
     3
 10
2871.620463
 20
839.475417
 11
2871.620463
 21
846.275417
  0
LINE
  8
CSLAYER1
  6
CONTINUOUS
 62
     3
 10
2867.120463
 20
839.475417
 11
2867.120463
 21
846.275417
  0
LINE
  8
CSLAYER1
  6
CONTINUOUS
 62
     3
 10
2936.620463
 20
846.275417
 11
2936.620463
 21
864.275417
  0
LINE
  8
CSLAYER1
  6
CONTINUOUS
 62
     3
 10
2636.620463
 20
846.275417
 11
2636.620463
 21
864.275417
  0
TEXT
  8
CSLAYER1
 62
     5
 10
3025.365934
 20
806.995289
 40
31.844261
 41
0.920655
  1
Ｆ.Ｌ
 50
0.000000
 51
0.000000
  7
EASYDRAW_FONT
 72
     5
 11
3103.546175
 21
806.995289
  0
LINE
  8
CSLAYER1
  6
CONTINUOUS
 62
     3
 10
2636.620463
 20
799.475417
 11
2936.620463
 21
799.475417
  0
LINE
  8
CSLAYER1
  6
CENTER
 62
     5
 10
2911.620463
 20
790.546056
 11
2911.620463
 21
814.756018
  0
LINE
  8
CSLAYER1
  6
CENTER
 62
     5
 10
2661.620463
 20
790.546056
 11
2661.620463
 21
814.756018
  0
LINE
  8
CSLAYER1
  6
CONTINUOUS
 62
     3
 10
2686.620463
 20
839.475417
 11
2886.620463
 21
839.475417
  0
LINE
  8
CSLAYER1
  6
CONTINUOUS
 62
     3
 10
2686.620463
 20
839.475417
 11
2686.620463
 21
805.475417
  0
LINE
  8
CSLAYER1
  6
CONTINUOUS
 62
     3
 10
2886.620463
 20
839.475417
 11
2886.620463
 21
805.475417
  0
LINE
  8
CSLAYER1
  6
CONTINUOUS
 62
     3
 10
2936.620463
 20
799.475417
 11
2936.620463
 21
805.475417
  0
LINE
  8
CSLAYER1
  6
CONTINUOUS
 62
     3
 10
2936.620463
 20
805.475417
 11
2886.620463
 21
805.475417
  0
LINE
  8
CSLAYER1
  6
CONTINUOUS
 62
     3
 10
2636.620463
 20
799.475417
 11
2636.620463
 21
805.475417
  0
LINE
  8
CSLAYER1
  6
CONTINUOUS
 62
     3
 10
2636.620463
 20
805.475417
 11
2686.620463
 21
805.475417
  0
POINT
  8
CSLAYER1
 62
     3
 10
2786.620463
 20
864.275417
  0
POINT
  8
CSLAYER1
 62
     3
 10
2786.620463
 20
839.475417
  0
LINE
  8
CSLAYER1
  6
CENTER
 62
     5
 10
2786.620463
 20
904.275417
 11
2786.620463
 21
759.475417
  0
TEXT
  8
CSLAYER1
 62
     7
 10
2745.702637
 20
968.144592
 40
40.000000
 41
0.843750
  1
下降時
 50
0.000000
 51
0.000000
  7
EASYDRAW_FONT
 72
     5
 11
2835.702637
 21
968.144592
  0
LINE
  8
CSLAYER1
  6
CONTINUOUS
 62
     5
 10
2732.096053
 20
1014.574696
 11
2855.054063
 21
1014.574696
  0
LINE
  8
CSLAYER1
  6
CONTINUOUS
 62
     5
 10
2855.054063
 20
1014.574696
 11
2855.054063
 21
961.714243
  0
LINE
  8
CSLAYER1
  6
CONTINUOUS
 62
     5
 10
2855.054063
 20
961.714243
 11
2732.096053
 21
961.714243
  0
LINE
  8
CSLAYER1
  6
CONTINUOUS
 62
     5
 10
2732.096053
 20
961.714243
 11
2732.096053
 21
1014.574696
  0
DIMENSION
  8
CSLAYER1
 62
     3
  2
*D0006
 10
2529.305027
 20
864.275417
 11
2519.304932
 21
831.875366
 13
2578.175442
 23
799.475417
 14
2628.716595
 24
864.275417
 50
90.000000
  0
LINE
  8
CSLAYER1
  6
CONTINUOUS
 62
     5
 10
3145.964282
 20
799.475417
 11
2936.620463
 21
799.475417
  0
LINE
  8
CSLAYER1
  6
CONTINUOUS
 62
     3
 10
2686.620463
 20
807.123812
 11
2686.620463
 21
799.475417
  0
LINE
  8
CSLAYER1
  6
CONTINUOUS
 62
     3
 10
2886.620463
 20
814.674560
 11
2886.620463
 21
799.475417
  0
DIMENSION
  8
CSLAYER1
 62
     3
  2
*D0007
 10
1044.099412
 20
1479.453528
 11
894.099365
 21
1489.453491
 13
744.099412
 23
1379.453528
 14
1044.099412
 24
1379.453528
 70
1
  0
LINE
  8
CSLAYER1
  6
CONTINUOUS
 62
     3
 10
744.099412
 20
799.475417
 11
1044.099412
 21
799.475417
  0
LINE
  8
CSLAYER1
  6
CONTINUOUS
 62
     5
 10
1044.099412
 20
799.475417
 11
1504.327722
 21
799.475417
  0
LINE
  8
CSLAYER1
  6
CONTINUOUS
 62
     3
 10
1504.327722
 20
799.475417
 11
2207.327722
 21
799.475417
  0
LINE
  8
CSLAYER1
  6
CONTINUOUS
 62
     5
 10
2207.327722
 20
799.475417
 11
2636.620463
 21
799.475417
  0
INSERT
  8
CSLAYER1
  2
EASYDRAWDIM0007
 10
0.0
 20
0.0
 30
0.0
  0
LINE
  8
CSLAYER1
  6
CONTINUOUS
 62
     5
 10
1122.135005
 20
638.692806
 11
1379.332123
 21
638.692806
  0
TEXT
  8
CSLAYER1
 62
     3
 10
1157.388916
 20
646.501587
 40
40.000000
 41
0.787500
  1
(アンカー穴)
 50
0.000000
 51
0.000000
  7
EASYDRAW_FONT
 72
     5
 11
1367.388916
 21
646.501587
  0
LINE
  8
CSLAYER1
  6
CONTINUOUS
 62
     5
 10
1019.099412
 20
799.475417
 11
1122.135005
 21
638.692806
  0
LINE
  8
CSLAYER1
  6
CONTINUOUS
 62
     5
 10
1019.099412
 20
799.475417
 11
1041.271877
 21
779.266959
  0
LINE
  8
CSLAYER1
  6
CONTINUOUS
 62
     5
 10
1019.099412
 20
799.475417
 11
1028.197100
 21
770.888146
  0
TEXT
  8
CSLAYER1
 62
     7
 10
845.242249
 20
498.698486
 40
40.000000
 41
0.843750
  1
上昇時
 50
0.000000
 51
0.000000
  7
EASYDRAW_FONT
 72
     5
 11
935.242249
 21
498.698486
  0
LINE
  8
CSLAYER1
  6
CONTINUOUS
 62
     5
 10
831.635710
 20
545.128658
 11
954.593719
 21
545.128658
  0
LINE
  8
CSLAYER1
  6
CONTINUOUS
 62
     5
 10
954.593719
 20
545.128658
 11
954.593719
 21
492.268205
  0
LINE
  8
CSLAYER1
  6
CONTINUOUS
 62
     5
 10
954.593719
 20
492.268205
 11
831.635710
 21
492.268205
  0
LINE
  8
CSLAYER1
  6
CONTINUOUS
 62
     5
 10
831.635710
 20
492.268205
 11
831.635710
 21
545.128658
  0
DIMENSION
  8
CSLAYER1
 62
     3
  2
*D0008
 10
1554.327722
 20
1587.654331
 11
1452.518311
 21
1597.654297
 13
1504.327722
 23
1808.037375
 14
1554.327722
 24
1808.037375
 52
270.000000
 70
1
  0
DIMENSION
  8
CSLAYER1
 62
     3
  2
*D0009
 10
1529.327722
 20
1677.986128
 11
1453.046631
 21
1687.986084
 13
1504.327722
 23
1808.037375
 14
1529.327722
 24
1811.774574
 52
270.000000
  0
LINE
  8
CSLAYER1
  6
CONTINUOUS
 62
     5
 10
1529.327722
 20
799.475417
 11
1379.332123
 21
638.692806
  0
LINE
  8
CSLAYER1
  6
CONTINUOUS
 62
     5
 10
1529.327722
 20
799.475417
 11
1515.237991
 21
772.989960
  0
LINE
  8
CSLAYER1
  6
CONTINUOUS
 62
     5
 10
1529.327722
 20
799.475417
 11
1503.882928
 21
783.583204
  0
POINT
  8
CSLAYER1
 62
     5
 10
1529.327722
 20
1823.037375
  0
LINE
  8
CSLAYER1
  6
CONTINUOUS
 62
     5
 10
1529.327722
 20
1823.037375
 11
1621.698603
 21
1678.037375
  0
LINE
  8
CSLAYER1
  6
CONTINUOUS
 62
     5
 10
1529.327722
 20
1823.037375
 11
1551.445614
 21
1802.769202
  0
LINE
  8
CSLAYER1
  6
CONTINUOUS
 62
     5
 10
1529.327722
 20
1823.037375
 11
1538.348292
 21
1794.425676
  0
DIMENSION
  8
CSLAYER1
 62
     3
  2
*D0010
 10
1044.099412
 20
589.475417
 11
894.099426
 21
599.475464
 13
744.099412
 23
799.475417
 14
1044.099412
 24
799.475417
 52
270.000000
 70
1
  0
DIMENSION
  8
CSLAYER1
 62
     3
  2
*D0011
 10
1019.099412
 20
679.475417
 11
894.099426
 21
689.475403
 13
769.099412
 23
790.546056
 14
1019.099412
 24
790.546056
 52
270.000000
 70
1
  0
DIMENSION
  8
CSLAYER1
 62
     3
  2
*D0012
 10
1529.327722
 20
679.475417
 11
1589.327759
 21
689.475464
 13
1504.327722
 23
799.475417
 14
1529.327722
 24
796.431995
 52
270.000000
  0
DIMENSION
  8
CSLAYER1
 62
     3
  2
*D0013
 10
2439.305027
 20
1379.453528
 11
2429.305176
 21
1089.464478
 13
2229.305027
 23
799.475417
 14
2229.305027
 24
1379.453528
 50
90.000000
 70
1
  0
DIMENSION
  8
CSLAYER1
 62
     3
  2
*D0014
 10
2349.305027
 20
1379.453528
 11
2339.304932
 21
1121.864502
 13
2207.027722
 23
864.275417
 14
2229.305027
 24
1379.453528
 50
90.000000
  0
DIMENSION
  8
CSLAYER1
 62
     3
  2
*D0015
 10
2349.305027
 20
799.475417
 11
2339.304932
 21
831.875427
 13
2349.305027
 23
864.275417
 14
2349.305027
 24
799.475417
 50
90.000000
 70
1
  0
TEXT
  8
CSLAYER1
 62
     3
 10
3133.728027
 20
1782.217529
 40
40.000000
 41
0.859091
  1
約 44
 50
0.000000
 51
0.000000
  7
EASYDRAW_FONT
 72
     5
 11
3259.728027
 21
1782.217529
  0
ENDSEC
  0
EOF
