  0
SECTION
  2
HEADER
  9
$ACADVER
  1
AC1006
  9
$INSBASE
 10
0.000000
 20
0.000000
 30
0.0
  9
$EXTMIN
 10
0.000000
 20
0.000000
  9
$EXTMAX
 10
3640.000000
 20
2570.000000
  9
$LIMMIN
 10
0.000000
 20
0.000000
  9
$LIMMAX
 10
3640.000000
 20
2570.000000
  9
$VIEWCTR
 10
1820.000000
 20
1285.000000
  9
$VIEWSIZE
 40
2570.000000
  9
$SNAPMODE
 70
     0
  9
$SNAPUNIT
 10
1.0
 20
1.0
  9
$SNAPBASE
 10
0.0
 20
0.0
  9
$SNAPANG
 50
0.0
  9
$SNAPSTYLE
 70
     0
  9
$SNAPISOPAIR
 70
     0
  9
$GRIDMODE
 70
     0
  9
$GRIDUNIT
 10
0.0
 20
0.0
  9
$ORTHOMODE
 70
     0
  9
$REGENMODE
 70
     1
  9
$FILLMODE
 70
     1
  9
$QTEXTMODE
 70
     0
  9
$DRAGMODE
 70
     2
  9
$LTSCALE
 40
15.000000
  9
$OSMODE
 70
     0
  9
$ATTMODE
 70
     1
  9
$TEXTSIZE
 40
0.2
  9
$TRACEWID
 40
0.05
  9
$TEXTSTYLE
  7
STANDARD
  9
$CLAYER
  8
CSLAYER1
  9
$CELTYPE
  6
BYLAYER
  9
$CECOLOR
 62
   256
  9
$DIMSCALE
 40
1.0
  9
$DIMASZ
 40
0.18
  9
$DIMEXO
 40
0.0625
  9
$DIMDLI
 40
0.38
  9
$DIMRND
 40
0.0
  9
$DIMDLE
 40
0.0
  9
$DIMEXE
 40
0.18
  9
$DIMTP
 40
0.0
  9
$DIMTM
 40
0.0
  9
$DIMTXT
 40
0.18
  9
$DIMCEN
 40
0.09
  9
$DIMTSZ
 40
0.0
  9
$DIMTOL
 70
     0
  9
$DIMLIM
 70
     0
  9
$DIMTIH
 70
     1
  9
$DIMTOH
 70
     1
  9
$DIMSE1
 70
     0
  9
$DIMSE2
 70
     0
  9
$DIMTAD
 70
     0
  9
$DIMZIN
 70
     0
  9
$DIMBLK
  1

  9
$LUNITS
 70
     2
  9
$LUPREC
 70
     4
  9
$AXISMODE
 70
     0
  9
$AXISUNIT
 10
0.0
 20
0.0
  9
$SKETCHINC
 40
0.1
  9
$FILLETRAD
 40
0.0
  9
$AUNITS
 70
     0
  9
$AUPREC
 70
     0
  9
$MENU
  1
ACAD
  9
$ELEVATION
 40
0.0
  9
$THICKNESS
 40
0.0
  9
$VIEWDIR
 10
0.0
 20
0.0
 30
1.0
  9
$LIMCHECK
 70
     0
  9
$BLIPMODE
 70
     1
  9
$CHAMFERA
 40
0.0
  9
$CHAMFERB
 40
0.0
  9
$FASTZOOM
 70
     1
  9
$SKPOLY
 70
     0
  9
$TDCREATE
 40
2456676.000000
  9
$TDUPDATE
 40
2456676.000000
  9
$TDINDWG
 40
0.0
  9
$TDUSRTIMER
 40
0.0
  9
$USRTIMER
 70
     1
  9
$ANGBASE
 50
0.0
  9
$ANGDIR
 70
     0
  9
$PDMODE
 70
     0
  9
$PDSIZE
 40
0.0
  9
$PLINEWID
 40
0.0
  9
$COORDS
 70
     0
  9
$USERI1
 70
     0
  9
$USERI2
 70
     0
  9
$USERI3
 70
     0
  9
$USERI4
 70
     0
  9
$USERI5
 70
     0
  9
$USERR1
 40
0.0
  9
$USERR2
 40
0.0
  9
$USERR3
 40
0.0
  9
$USERR4
 40
0.0
  9
$USERR5
 40
0.0
  0
ENDSEC
  0
SECTION
  2
TABLES
  0
TABLE
  2
LTYPE
 70
     9
  0
LTYPE
  2
CONTINUOUS
 70
    64
  3
Solid line
 72
    65
 73
     0
 40
0.0
  0
LTYPE
  2
DASHED
 70
    64
  3
__ __ __ __ __ __ __ __ __ __ __ __ __ __ __
 72
    65
 73
     2
 40
0.75
 49
0.5
 49
-0.25
  0
LTYPE
  2
HIDDEN
 70
    64
  3
_ _ _ _ _ _ _ _ _ _ _ _ _ _ _ _ _ _ _ _ _ _ _
 72
    65
 73
     2
 40
0.375
 49
0.25
 49
-0.125
  0
LTYPE
  2
DOT
 70
    64
  3
...............................................
 72
    65
 73
     2
 40
0.25
 49
0.0
 49
-0.25
  0
LTYPE
  2
DASHDOT
 70
    64
  3
__ . __ . __ . __ . __ . __ . __ . __ . __ . __
 72
    65
 73
     4
 40
1.0
 49
0.5
 49
-0.25
 49
0.0
 49
-0.25
  0
LTYPE
  2
DIVIDE
 70
    64
  3
__ . . __ . . __ . . __ . . __ . . __ . . __
 72
    65
 73
     6
 40
1.25
 49
0.5
 49
-0.25
 49
0.0
 49
-0.25
 49
0.0
 49
-0.25
  0
LTYPE
  2
CENTER
 70
    64
  3
____ _ ____ _ ____ _ ____ _ ____ _ ____ _ ____ 
 72
    65
 73
     4
 40
2.0
 49
1.25
 49
-0.25
 49
0.25
 49
-0.25
  0
LTYPE
  2
PHANTOM
 70
    64
  3
______  __  __  ______  __  __  ______  __  __ 
 72
    65
 73
     6
 40
2.5
 49
1.25
 49
-0.25
 49
0.25
 49
-0.25
 49
0.25
 49
-0.25
  0
LTYPE
  2
BORDER
 70
    64
  3
__ __ . __ __ . __ __ . __ __ . __ __ . __ __ .
 72
    65
 73
     6
 40
1.75
 49
0.5
 49
-0.25
 49
0.5
 49
-0.25
 49
0.0
 49
-0.25
  0
ENDTAB
  0
TABLE
  2
LAYER
 70
    16
  0
LAYER
  2
CSLAYER1
 70
    64
 62
     7
  6
CONTINUOUS
  0
LAYER
  2
CSLAYER2
 70
    64
 62
     7
  6
CONTINUOUS
  0
LAYER
  2
CSLAYER3
 70
    64
 62
     7
  6
CONTINUOUS
  0
LAYER
  2
CSLAYER4
 70
    64
 62
     7
  6
CONTINUOUS
  0
LAYER
  2
CSLAYER5
 70
    64
 62
     7
  6
CONTINUOUS
  0
LAYER
  2
CSLAYER6
 70
    64
 62
     7
  6
CONTINUOUS
  0
LAYER
  2
CSLAYER7
 70
    64
 62
     7
  6
CONTINUOUS
  0
LAYER
  2
CSLAYER8
 70
    64
 62
     7
  6
CONTINUOUS
  0
LAYER
  2
CSLAYER9
 70
    64
 62
     7
  6
CONTINUOUS
  0
LAYER
  2
CSLAYER10
 70
    64
 62
     7
  6
CONTINUOUS
  0
LAYER
  2
CSLAYER11
 70
    64
 62
     7
  6
CONTINUOUS
  0
LAYER
  2
CSLAYER12
 70
    64
 62
     7
  6
CONTINUOUS
  0
LAYER
  2
CSLAYER13
 70
    64
 62
     7
  6
CONTINUOUS
  0
LAYER
  2
CSLAYER14
 70
    64
 62
     7
  6
CONTINUOUS
  0
LAYER
  2
CSLAYER15
 70
    64
 62
     7
  6
CONTINUOUS
  0
LAYER
  2
CSLAYER16
 70
    64
 62
     7
  6
CONTINUOUS
  0
ENDTAB
  0
TABLE
  2
STYLE
 70
     1
  0
STYLE
  2
EASYDRAW_FONT
 70
     0
 40
1.0
 41
1.0
 50
0.0
 71
     0
 42
1.0
  3
monotxt
  4
bigfont
  0
ENDTAB
  0
TABLE
  2
VIEW
 70
     0
  0
ENDTAB
  0
ENDSEC
  0
SECTION
  2
BLOCKS
  0
BLOCK
  8
CSLAYER1
  2
EASYDRAWDIM0000
 70
   64
 10
0.0
 20
0.0
 30
0.0
  0
TEXT
  8
CSLAYER1
 62
     3
 10
275.421631
 20
2222.592041
 40
48.000000
 41
0.787500
  1
昇降切替バルブ
 50
0.000000
 51
0.000000
  7
EASYDRAW_FONT
 72
     5
 11
527.421631
 21
2222.592041
  0
LINE
  8
CSLAYER1
  6
CONTINUOUS
 62
     7
 10
627.317937
 20
2071.870541
 11
527.422137
 21
2212.591898
  0
LINE
  8
CSLAYER1
  6
CONTINUOUS
 62
     7
 10
627.317937
 20
2071.870541
 11
604.212448
 21
2091.005232
  0
LINE
  8
CSLAYER1
  6
CONTINUOUS
 62
     7
 10
627.317937
 20
2071.870541
 11
616.875342
 21
2099.994414
  0
LINE
  8
CSLAYER1
  6
CONTINUOUS
 62
     7
 10
527.422137
 20
2212.591898
 11
267.422137
 21
2212.591898
  0
ENDBLK
  8
0
  0
BLOCK
  8
CSLAYER1
  2
EASYDRAWDIM0001
 70
   64
 10
0.0
 20
0.0
 30
0.0
  0
TEXT
  8
CSLAYER1
 62
     3
 10
299.169189
 20
2133.344482
 40
48.000000
 41
0.794118
  1
ポンプペタル
 50
0.000000
 51
0.000000
  7
EASYDRAW_FONT
 72
     5
 11
515.169189
 21
2133.344482
  0
LINE
  8
CSLAYER1
  6
CONTINUOUS
 62
     7
 10
580.774782
 20
2043.530139
 11
517.121064
 21
2123.344200
  0
LINE
  8
CSLAYER1
  6
CONTINUOUS
 62
     7
 10
580.774782
 20
2043.530139
 11
556.636285
 21
2061.343981
  0
LINE
  8
CSLAYER1
  6
CONTINUOUS
 62
     7
 10
580.774782
 20
2043.530139
 11
568.777152
 21
2071.026627
  0
LINE
  8
CSLAYER1
  6
CONTINUOUS
 62
     7
 10
517.121064
 20
2123.344200
 11
287.121064
 21
2123.344200
  0
ENDBLK
  8
0
  0
BLOCK
  8
CSLAYER1
  2
EASYDRAWDIM0002
 70
   64
 10
0.0
 20
0.0
 30
0.0
  0
TEXT
  8
CSLAYER1
 62
     3
 10
653.889404
 20
2228.465576
 40
48.000000
 41
0.787500
  1
高圧ホース２m
 50
0.000000
 51
0.000000
  7
EASYDRAW_FONT
 72
     5
 11
905.889404
 21
2228.465576
  0
LINE
  8
CSLAYER1
  6
CONTINUOUS
 62
     7
 10
981.205734
 20
2088.620231
 11
913.940702
 21
2218.465522
  0
LINE
  8
CSLAYER1
  6
CONTINUOUS
 62
     7
 10
981.205734
 20
2088.620231
 11
960.982093
 21
2110.778849
  0
LINE
  8
CSLAYER1
  6
CONTINUOUS
 62
     7
 10
981.205734
 20
2088.620231
 11
974.770857
 21
2117.921978
  0
LINE
  8
CSLAYER1
  6
CONTINUOUS
 62
     7
 10
913.940702
 20
2218.465522
 11
643.940702
 21
2218.465522
  0
ENDBLK
  8
0
  0
BLOCK
  8
CSLAYER1
  2
*D0000
 70
    65
 10
0.0
 20
0.0
 30
0.0
  0
TEXT
  8
CSLAYER1
 62
     3
 10
2491.334229
 20
1148.761597
 40
40.000000
 41
0.843750
  1
635
 50
90.000000
 51
0.000000
  7
EASYDRAW_FONT
 72
     5
 11
2491.334229
 21
1238.761597
  0
LINE
  8
CSLAYER1
  6
CONTINUOUS
 62
     5
 10
2391.334508
 20
1519.408263
 11
2612.476582
 21
1519.408263
  0
LINE
  8
CSLAYER1
  6
CONTINUOUS
 62
     5
 10
2501.334508
 20
868.114853
 11
2501.334508
 21
1519.408263
  0
LINE
  8
CSLAYER1
  6
CONTINUOUS
 62
     5
 10
2501.334508
 20
868.114853
 11
2493.569937
 21
897.092628
  0
LINE
  8
CSLAYER1
  6
CONTINUOUS
 62
     5
 10
2501.334508
 20
868.114853
 11
2509.099080
 21
897.092628
  0
LINE
  8
CSLAYER1
  6
CONTINUOUS
 62
     5
 10
2501.334508
 20
1519.408263
 11
2493.569937
 21
1490.430489
  0
LINE
  8
CSLAYER1
  6
CONTINUOUS
 62
     5
 10
2501.334508
 20
1519.408263
 11
2509.099080
 21
1490.430489
  0
ENDBLK
  8
0
  0
BLOCK
  8
CSLAYER1
  2
*D0001
 70
    65
 10
0.0
 20
0.0
 30
0.0
  0
TEXT
  8
CSLAYER1
 62
     3
 10
2581.334229
 20
1116.261597
 40
40.000000
 41
0.843750
  1
700
 50
90.000000
 51
0.000000
  7
EASYDRAW_FONT
 72
     5
 11
2581.334229
 21
1206.261597
  0
LINE
  8
CSLAYER1
  6
CONTINUOUS
 62
     5
 10
2591.334508
 20
803.114853
 11
2591.334508
 21
1519.408263
  0
LINE
  8
CSLAYER1
  6
CONTINUOUS
 62
     5
 10
2591.334508
 20
803.114853
 11
2583.569937
 21
832.092628
  0
LINE
  8
CSLAYER1
  6
CONTINUOUS
 62
     5
 10
2591.334508
 20
803.114853
 11
2599.099080
 21
832.092628
  0
LINE
  8
CSLAYER1
  6
CONTINUOUS
 62
     5
 10
2591.334508
 20
1519.408263
 11
2583.569937
 21
1490.430489
  0
LINE
  8
CSLAYER1
  6
CONTINUOUS
 62
     5
 10
2591.334508
 20
1519.408263
 11
2599.099080
 21
1490.430489
  0
ENDBLK
  8
0
  0
BLOCK
  8
CSLAYER1
  2
*D0002
 70
    65
 10
0.0
 20
0.0
 30
0.0
  0
TEXT
  8
CSLAYER1
 62
     3
 10
1886.334473
 20
1629.407959
 40
40.000000
 41
0.843750
  1
900
 50
0.000000
 51
0.000000
  7
EASYDRAW_FONT
 72
     5
 11
1976.334473
 21
1629.407959
  0
LINE
  8
CSLAYER1
  6
CONTINUOUS
 62
     5
 10
1481.334508
 20
1529.408263
 11
1481.334508
 21
1629.408263
  0
LINE
  8
CSLAYER1
  6
CONTINUOUS
 62
     5
 10
2381.334508
 20
1529.408263
 11
2381.334508
 21
1629.408263
  0
LINE
  8
CSLAYER1
  6
CONTINUOUS
 62
     5
 10
1481.334508
 20
1619.408263
 11
2381.334508
 21
1619.408263
  0
LINE
  8
CSLAYER1
  6
CONTINUOUS
 62
     5
 10
1481.334508
 20
1619.408263
 11
1510.312283
 21
1627.172835
  0
LINE
  8
CSLAYER1
  6
CONTINUOUS
 62
     5
 10
1481.334508
 20
1619.408263
 11
1510.312283
 21
1611.643692
  0
LINE
  8
CSLAYER1
  6
CONTINUOUS
 62
     5
 10
2381.334508
 20
1619.408263
 11
2352.356734
 21
1627.172835
  0
LINE
  8
CSLAYER1
  6
CONTINUOUS
 62
     5
 10
2381.334508
 20
1619.408263
 11
2352.356734
 21
1611.643692
  0
ENDBLK
  8
0
  0
BLOCK
  8
CSLAYER1
  2
*D0003
 70
    65
 10
0.0
 20
0.0
 30
0.0
  0
TEXT
  8
CSLAYER1
 62
     3
 10
1363.719360
 20
2010.634277
 40
40.000000
 41
0.843750
  1
250
 50
90.000000
 51
0.000000
  7
EASYDRAW_FONT
 72
     5
 11
1363.719360
 21
2100.634277
  0
LINE
  8
CSLAYER1
  6
CONTINUOUS
 62
     5
 10
1460.962681
 20
1956.186866
 11
1361.971422
 21
1956.186866
  0
LINE
  8
CSLAYER1
  6
CONTINUOUS
 62
     5
 10
1460.962681
 20
2206.186866
 11
1361.971422
 21
2206.186866
  0
LINE
  8
CSLAYER1
  6
CONTINUOUS
 62
     5
 10
1371.971422
 20
1956.186866
 11
1371.971422
 21
2206.186866
  0
LINE
  8
CSLAYER1
  6
CONTINUOUS
 62
     5
 10
1371.971422
 20
1956.186866
 11
1364.206851
 21
1985.164641
  0
LINE
  8
CSLAYER1
  6
CONTINUOUS
 62
     5
 10
1371.971422
 20
1956.186866
 11
1379.735993
 21
1985.164641
  0
LINE
  8
CSLAYER1
  6
CONTINUOUS
 62
     5
 10
1371.971422
 20
2206.186866
 11
1364.206851
 21
2177.209091
  0
LINE
  8
CSLAYER1
  6
CONTINUOUS
 62
     5
 10
1371.971422
 20
2206.186866
 11
1379.735993
 21
2177.209091
  0
ENDBLK
  8
0
  0
BLOCK
  8
CSLAYER1
  2
EASYDRAWDIM0003
 70
   64
 10
0.0
 20
0.0
 30
0.0
  0
TEXT
  8
CSLAYER1
 62
     3
 10
1571.816528
 20
1821.186768
 40
40.000000
 41
0.771429
  1
2-%%c13(アンカー穴)
 50
0.000000
 51
0.000000
  7
EASYDRAW_FONT
 72
     5
 11
1931.816528
 21
1821.186768
  0
LINE
  8
CSLAYER1
  6
CONTINUOUS
 62
     5
 10
1567.475226
 20
1811.186866
 11
1941.816479
 21
1811.186866
  0
ENDBLK
  8
0
  0
BLOCK
  8
CSLAYER1
  2
EASYDRAWDIM0004
 70
   64
 10
0.0
 20
0.0
 30
0.0
  0
TEXT
  8
CSLAYER1
 62
     3
 10
1179.237671
 20
951.442688
 40
40.000000
 41
0.803571
  1
高圧ホース
 50
0.000000
 51
0.000000
  7
EASYDRAW_FONT
 72
     5
 11
1329.237671
 21
951.442688
  0
LINE
  8
CSLAYER1
  6
CONTINUOUS
 62
     5
 10
1395.783288
 20
822.611107
 11
1329.237619
 21
941.442658
  0
LINE
  8
CSLAYER1
  6
CONTINUOUS
 62
     5
 10
1395.783288
 20
822.611107
 11
1374.850015
 21
844.100594
  0
LINE
  8
CSLAYER1
  6
CONTINUOUS
 62
     5
 10
1395.783288
 20
822.611107
 11
1388.399285
 21
851.688185
  0
LINE
  8
CSLAYER1
  6
CONTINUOUS
 62
     5
 10
1329.237619
 20
941.442658
 11
1169.237619
 21
941.442658
  0
ENDBLK
  8
0
  0
BLOCK
  8
CSLAYER1
  2
*D0004
 70
    65
 10
0.0
 20
0.0
 30
0.0
  0
TEXT
  8
CSLAYER1
 62
     3
 10
1044.252197
 20
820.929260
 40
40.000000
 41
1.125000
  1
6
 50
90.000000
 51
0.000000
  7
EASYDRAW_FONT
 72
     5
 11
1044.252197
 21
850.929260
  0
LINE
  8
CSLAYER1
  6
CONTINUOUS
 62
     5
 10
997.753590
 20
803.114853
 11
1064.252261
 21
803.114853
  0
LINE
  8
CSLAYER1
  6
CONTINUOUS
 62
     5
 10
997.753590
 20
809.114853
 11
1064.252261
 21
809.114853
  0
LINE
  8
CSLAYER1
  6
CONTINUOUS
 62
     5
 10
1054.252261
 20
803.114853
 11
1054.252261
 21
753.114853
  0
LINE
  8
CSLAYER1
  6
CONTINUOUS
 62
     5
 10
1054.252261
 20
803.114853
 11
1046.487690
 21
774.137078
  0
LINE
  8
CSLAYER1
  6
CONTINUOUS
 62
     5
 10
1054.252261
 20
803.114853
 11
1062.016832
 21
774.137078
  0
LINE
  8
CSLAYER1
  6
CONTINUOUS
 62
     5
 10
1054.252261
 20
809.114853
 11
1054.252261
 21
862.743715
  0
LINE
  8
CSLAYER1
  6
CONTINUOUS
 62
     5
 10
1054.252261
 20
809.114853
 11
1046.487690
 21
838.092628
  0
LINE
  8
CSLAYER1
  6
CONTINUOUS
 62
     5
 10
1054.252261
 20
809.114853
 11
1062.016832
 21
838.092628
  0
LINE
  8
CSLAYER1
  6
CONTINUOUS
 62
     5
 10
1054.252261
 20
803.114853
 11
1054.252261
 21
809.114853
  0
ENDBLK
  8
0
  0
BLOCK
  8
CSLAYER1
  2
*D0005
 70
    65
 10
0.0
 20
0.0
 30
0.0
  0
TEXT
  8
CSLAYER1
 62
     3
 10
1863.725464
 20
603.114929
 40
40.000000
 41
0.843750
  1
903
 50
0.000000
 51
0.000000
  7
EASYDRAW_FONT
 72
     5
 11
1953.725464
 21
603.114929
  0
LINE
  8
CSLAYER1
  6
CONTINUOUS
 62
     5
 10
1457.225483
 20
793.114853
 11
1457.225483
 21
583.114853
  0
LINE
  8
CSLAYER1
  6
CONTINUOUS
 62
     5
 10
2360.225483
 20
793.114853
 11
2360.225483
 21
583.114853
  0
LINE
  8
CSLAYER1
  6
CONTINUOUS
 62
     5
 10
1457.225483
 20
593.114853
 11
2360.225483
 21
593.114853
  0
LINE
  8
CSLAYER1
  6
CONTINUOUS
 62
     5
 10
1457.225483
 20
593.114853
 11
1486.203257
 21
600.879425
  0
LINE
  8
CSLAYER1
  6
CONTINUOUS
 62
     5
 10
1457.225483
 20
593.114853
 11
1486.203257
 21
585.350282
  0
LINE
  8
CSLAYER1
  6
CONTINUOUS
 62
     5
 10
2360.225483
 20
593.114853
 11
2331.247708
 21
600.879425
  0
LINE
  8
CSLAYER1
  6
CONTINUOUS
 62
     5
 10
2360.225483
 20
593.114853
 11
2331.247708
 21
585.350282
  0
ENDBLK
  8
0
  0
BLOCK
  8
CSLAYER1
  2
EASYDRAWDIM0005
 70
   64
 10
0.0
 20
0.0
 30
0.0
  0
TEXT
  8
CSLAYER1
 62
     3
 10
1412.958130
 20
1979.086281
 40
33.155758
 41
0.767879
  1
穴ヒﾟッチ
 50
90.000000
 51
0.000000
  7
EASYDRAW_FONT
 72
     5
 11
1412.958130
 21
2097.897850
  0
ENDBLK
  8
0
  0
BLOCK
  8
CSLAYER1
  2
*D0006
 70
    65
 10
0.0
 20
0.0
 30
0.0
  0
TEXT
  8
CSLAYER1
 62
     3
 10
2491.334473
 20
2036.187012
 40
40.000000
 41
0.843750
  1
250
 50
90.000000
 51
0.000000
  7
EASYDRAW_FONT
 72
     5
 11
2491.334473
 21
2126.187012
  0
LINE
  8
CSLAYER1
  6
CONTINUOUS
 62
     5
 10
2369.925483
 20
1956.186866
 11
2511.334508
 21
1956.186866
  0
LINE
  8
CSLAYER1
  6
CONTINUOUS
 62
     5
 10
2369.925483
 20
2206.186866
 11
2511.334508
 21
2206.186866
  0
LINE
  8
CSLAYER1
  6
CONTINUOUS
 62
     5
 10
2501.334508
 20
1956.186866
 11
2501.334508
 21
2206.186866
  0
LINE
  8
CSLAYER1
  6
CONTINUOUS
 62
     5
 10
2501.334508
 20
1956.186866
 11
2493.569937
 21
1985.164641
  0
LINE
  8
CSLAYER1
  6
CONTINUOUS
 62
     5
 10
2501.334508
 20
1956.186866
 11
2509.099080
 21
1985.164641
  0
LINE
  8
CSLAYER1
  6
CONTINUOUS
 62
     5
 10
2501.334508
 20
2206.186866
 11
2493.569937
 21
2177.209091
  0
LINE
  8
CSLAYER1
  6
CONTINUOUS
 62
     5
 10
2501.334508
 20
2206.186866
 11
2509.099080
 21
2177.209091
  0
ENDBLK
  8
0
  0
BLOCK
  8
CSLAYER1
  2
*D0007
 70
    65
 10
0.0
 20
0.0
 30
0.0
  0
TEXT
  8
CSLAYER1
 62
     3
 10
1298.216675
 20
1297.012573
 40
40.000000
 41
0.803571
  1
MAX21
 50
0.000000
 51
0.000000
  7
EASYDRAW_FONT
 72
     5
 11
1448.216675
 21
1297.012573
  0
LINE
  8
CSLAYER1
  6
CONTINUOUS
 62
     5
 10
1459.925483
 20
878.114853
 11
1459.925483
 21
1284.789725
  0
LINE
  8
CSLAYER1
  6
CONTINUOUS
 62
     5
 10
1481.334508
 20
1509.408263
 11
1481.334508
 21
1264.789725
  0
LINE
  8
CSLAYER1
  6
CONTINUOUS
 62
     5
 10
1459.925483
 20
1274.789725
 11
1400.962194
 21
1274.789725
  0
LINE
  8
CSLAYER1
  6
CONTINUOUS
 62
     5
 10
1459.925483
 20
1274.789725
 11
1430.947708
 21
1282.554296
  0
LINE
  8
CSLAYER1
  6
CONTINUOUS
 62
     5
 10
1459.925483
 20
1274.789725
 11
1430.947708
 21
1267.025154
  0
LINE
  8
CSLAYER1
  6
CONTINUOUS
 62
     5
 10
1481.334508
 20
1274.789725
 11
1531.334508
 21
1274.789725
  0
LINE
  8
CSLAYER1
  6
CONTINUOUS
 62
     5
 10
1481.334508
 20
1274.789725
 11
1510.312283
 21
1282.554296
  0
LINE
  8
CSLAYER1
  6
CONTINUOUS
 62
     5
 10
1481.334508
 20
1274.789725
 11
1510.312283
 21
1267.025154
  0
LINE
  8
CSLAYER1
  6
CONTINUOUS
 62
     5
 10
1459.925483
 20
1274.789725
 11
1481.334508
 21
1274.789725
  0
ENDBLK
  8
0
  0
BLOCK
  8
CSLAYER1
  2
EASYDRAWDIM0006
 70
   64
 10
0.0
 20
0.0
 30
0.0
  0
TEXT
  8
CSLAYER1
 62
     3
 10
1213.588257
 20
1158.257446
 40
40.000000
 41
0.787500
  1
油圧シリンダー
 50
0.000000
 51
0.000000
  7
EASYDRAW_FONT
 72
     5
 11
1423.588257
 21
1158.257446
  0
LINE
  8
CSLAYER1
  6
CONTINUOUS
 62
     5
 10
1570.495041
 20
1001.044182
 11
1424.552988
 21
1148.257287
  0
LINE
  8
CSLAYER1
  6
CONTINUOUS
 62
     5
 10
1570.495041
 20
1001.044182
 11
1544.579559
 21
1016.156686
  0
LINE
  8
CSLAYER1
  6
CONTINUOUS
 62
     5
 10
1570.495041
 20
1001.044182
 11
1555.607827
 21
1027.089735
  0
LINE
  8
CSLAYER1
  6
CONTINUOUS
 62
     5
 10
1424.552988
 20
1148.257287
 11
1203.588245
 21
1148.257287
  0
ENDBLK
  8
0
  0
BLOCK
  8
CSLAYER1
  2
*D0008
 70
    65
 10
0.0
 20
0.0
 30
0.0
  0
TEXT
  8
CSLAYER1
 62
     3
 10
2671.333984
 20
805.514832
 40
40.000000
 41
0.900000
  1
65
 50
90.000000
 51
0.000000
  7
EASYDRAW_FONT
 72
     5
 11
2671.333984
 21
865.514832
  0
LINE
  8
CSLAYER1
  6
CONTINUOUS
 62
     5
 10
2706.694875
 20
803.114853
 11
2671.334508
 21
803.114853
  0
LINE
  8
CSLAYER1
  6
CONTINUOUS
 62
     5
 10
2757.236029
 20
867.914853
 11
2671.334508
 21
867.914853
  0
LINE
  8
CSLAYER1
  6
CONTINUOUS
 62
     5
 10
2681.334508
 20
803.114853
 11
2681.334508
 21
867.914853
  0
LINE
  8
CSLAYER1
  6
CONTINUOUS
 62
     5
 10
2681.334508
 20
753.114853
 11
2681.334508
 21
803.114853
  0
LINE
  8
CSLAYER1
  6
CONTINUOUS
 62
     5
 10
2681.334508
 20
803.114853
 11
2673.569937
 21
774.137078
  0
LINE
  8
CSLAYER1
  6
CONTINUOUS
 62
     5
 10
2681.334508
 20
803.114853
 11
2689.099080
 21
774.137078
  0
LINE
  8
CSLAYER1
  6
CONTINUOUS
 62
     5
 10
2681.334508
 20
867.914853
 11
2681.334508
 21
917.914853
  0
LINE
  8
CSLAYER1
  6
CONTINUOUS
 62
     5
 10
2681.334508
 20
867.914853
 11
2673.569937
 21
896.892628
  0
LINE
  8
CSLAYER1
  6
CONTINUOUS
 62
     5
 10
2681.334508
 20
867.914853
 11
2689.099080
 21
896.892628
  0
ENDBLK
  8
0
  0
BLOCK
  8
CSLAYER1
  2
*D0009
 70
    65
 10
0.0
 20
0.0
 30
0.0
  0
TEXT
  8
CSLAYER1
 62
     3
 10
1473.723511
 20
624.182678
 40
40.000000
 41
0.900000
  1
25
 50
0.000000
 51
0.000000
  7
EASYDRAW_FONT
 72
     5
 11
1533.723511
 21
624.182678
  0
LINE
  8
CSLAYER1
  6
CONTINUOUS
 62
     5
 10
1457.225483
 20
793.114853
 11
1457.225483
 21
673.114853
  0
LINE
  8
CSLAYER1
  6
CONTINUOUS
 62
     5
 10
1482.225483
 20
796.184222
 11
1482.225483
 21
673.114853
  0
LINE
  8
CSLAYER1
  6
CONTINUOUS
 62
     5
 10
1457.225483
 20
683.114853
 11
1482.225483
 21
683.114853
  0
LINE
  8
CSLAYER1
  6
CONTINUOUS
 62
     5
 10
1407.225483
 20
683.114853
 11
1457.225483
 21
683.114853
  0
LINE
  8
CSLAYER1
  6
CONTINUOUS
 62
     5
 10
1457.225483
 20
683.114853
 11
1428.247708
 21
690.879425
  0
LINE
  8
CSLAYER1
  6
CONTINUOUS
 62
     5
 10
1457.225483
 20
683.114853
 11
1428.247708
 21
675.350282
  0
LINE
  8
CSLAYER1
  6
CONTINUOUS
 62
     5
 10
1482.225483
 20
683.114853
 11
1532.225483
 21
683.114853
  0
LINE
  8
CSLAYER1
  6
CONTINUOUS
 62
     5
 10
1482.225483
 20
683.114853
 11
1511.203257
 21
690.879425
  0
LINE
  8
CSLAYER1
  6
CONTINUOUS
 62
     5
 10
1482.225483
 20
683.114853
 11
1511.203257
 21
675.350282
  0
ENDBLK
  8
0
  0
BLOCK
  8
CSLAYER1
  2
*D0010
 70
    65
 10
0.0
 20
0.0
 30
0.0
  0
TEXT
  8
CSLAYER1
 62
     3
 10
792.753662
 20
1629.408325
 40
40.000000
 41
0.843750
  1
250
 50
0.000000
 51
0.000000
  7
EASYDRAW_FONT
 72
     5
 11
882.753662
 21
1629.408325
  0
LINE
  8
CSLAYER1
  6
CONTINUOUS
 62
     5
 10
712.753590
 20
1529.408263
 11
712.753590
 21
1629.408263
  0
LINE
  8
CSLAYER1
  6
CONTINUOUS
 62
     5
 10
962.753590
 20
1529.408263
 11
962.753590
 21
1629.408263
  0
LINE
  8
CSLAYER1
  6
CONTINUOUS
 62
     5
 10
712.753590
 20
1619.408263
 11
962.753590
 21
1619.408263
  0
LINE
  8
CSLAYER1
  6
CONTINUOUS
 62
     5
 10
712.753590
 20
1619.408263
 11
741.731365
 21
1627.172835
  0
LINE
  8
CSLAYER1
  6
CONTINUOUS
 62
     5
 10
712.753590
 20
1619.408263
 11
741.731365
 21
1611.643692
  0
LINE
  8
CSLAYER1
  6
CONTINUOUS
 62
     5
 10
962.753590
 20
1619.408263
 11
933.775815
 21
1627.172835
  0
LINE
  8
CSLAYER1
  6
CONTINUOUS
 62
     5
 10
962.753590
 20
1619.408263
 11
933.775815
 21
1611.643692
  0
ENDBLK
  8
0
  0
BLOCK
  8
CSLAYER1
  2
EASYDRAWDIM0007
 70
   64
 10
0.0
 20
0.0
 30
0.0
  0
TEXT
  8
CSLAYER1
 62
     3
 10
1103.003418
 20
693.925659
 40
40.000000
 41
0.803571
  1
2-φ13
 50
0.000000
 51
0.000000
  7
EASYDRAW_FONT
 72
     5
 11
1253.003418
 21
693.925659
  0
ENDBLK
  8
0
  0
BLOCK
  8
CSLAYER1
  2
*D0011
 70
    65
 10
0.0
 20
0.0
 30
0.0
  0
TEXT
  8
CSLAYER1
 62
     3
 10
792.753418
 20
601.114807
 40
40.000000
 41
0.843750
  1
300
 50
0.000000
 51
0.000000
  7
EASYDRAW_FONT
 72
     5
 11
882.753418
 21
601.114807
  0
LINE
  8
CSLAYER1
  6
CONTINUOUS
 62
     5
 10
687.753590
 20
795.114853
 11
687.753590
 21
585.114853
  0
LINE
  8
CSLAYER1
  6
CONTINUOUS
 62
     5
 10
987.753590
 20
795.114853
 11
987.753590
 21
585.114853
  0
LINE
  8
CSLAYER1
  6
CONTINUOUS
 62
     5
 10
687.753590
 20
593.114853
 11
987.753590
 21
593.114853
  0
LINE
  8
CSLAYER1
  6
CONTINUOUS
 62
     5
 10
687.753590
 20
593.114853
 11
716.731365
 21
600.879425
  0
LINE
  8
CSLAYER1
  6
CONTINUOUS
 62
     5
 10
687.753590
 20
593.114853
 11
716.731365
 21
585.350282
  0
LINE
  8
CSLAYER1
  6
CONTINUOUS
 62
     5
 10
987.753590
 20
593.114853
 11
958.775815
 21
600.879425
  0
LINE
  8
CSLAYER1
  6
CONTINUOUS
 62
     5
 10
987.753590
 20
593.114853
 11
958.775815
 21
585.350282
  0
ENDBLK
  8
0
  0
BLOCK
  8
CSLAYER1
  2
*D0012
 70
    65
 10
0.0
 20
0.0
 30
0.0
  0
LINE
  8
CSLAYER1
  6
CONTINUOUS
 62
     5
 10
2370.225483
 20
803.114853
 11
2511.334508
 21
803.114853
  0
LINE
  8
CSLAYER1
  6
CONTINUOUS
 62
     5
 10
2369.925483
 20
868.114853
 11
2511.334508
 21
868.114853
  0
LINE
  8
CSLAYER1
  6
CONTINUOUS
 62
     5
 10
2501.334508
 20
803.114853
 11
2501.334508
 21
868.114853
  0
LINE
  8
CSLAYER1
  6
CONTINUOUS
 62
     5
 10
2501.334508
 20
803.114853
 11
2493.569937
 21
832.092628
  0
LINE
  8
CSLAYER1
  6
CONTINUOUS
 62
     5
 10
2501.334508
 20
803.114853
 11
2509.099080
 21
832.092628
  0
LINE
  8
CSLAYER1
  6
CONTINUOUS
 62
     5
 10
2501.334508
 20
868.114853
 11
2493.569937
 21
839.137078
  0
LINE
  8
CSLAYER1
  6
CONTINUOUS
 62
     5
 10
2501.334508
 20
868.114853
 11
2509.099080
 21
839.137078
  0
TEXT
  8
CSLAYER1
 62
     3
 10
2491.334473
 20
805.614868
 40
40.000000
 41
0.900000
  1
65
 50
90.000000
 51
0.000000
  7
EASYDRAW_FONT
 72
     5
 11
2491.334473
 21
865.614868
  0
ENDBLK
  8
0
  0
BLOCK
  8
CSLAYER1
  2
*D0013
 70
    65
 10
0.0
 20
0.0
 30
0.0
  0
LINE
  8
CSLAYER1
  6
CONTINUOUS
 62
     5
 10
1457.225483
 20
1931.186866
 11
1457.225483
 21
1711.186866
  0
LINE
  8
CSLAYER1
  6
CONTINUOUS
 62
     5
 10
1507.225483
 20
1931.186866
 11
1507.225483
 21
1711.186866
  0
LINE
  8
CSLAYER1
  6
CONTINUOUS
 62
     5
 10
1457.225483
 20
1721.186866
 11
1507.225483
 21
1721.186866
  0
LINE
  8
CSLAYER1
  6
CONTINUOUS
 62
     5
 10
1367.225483
 20
1721.186866
 11
1457.225483
 21
1721.186866
  0
LINE
  8
CSLAYER1
  6
CONTINUOUS
 62
     5
 10
1457.225483
 20
1721.186866
 11
1428.247708
 21
1728.951437
  0
LINE
  8
CSLAYER1
  6
CONTINUOUS
 62
     5
 10
1457.225483
 20
1721.186866
 11
1428.247708
 21
1713.422295
  0
LINE
  8
CSLAYER1
  6
CONTINUOUS
 62
     5
 10
1507.225483
 20
1721.186866
 11
1557.225483
 21
1721.186866
  0
LINE
  8
CSLAYER1
  6
CONTINUOUS
 62
     5
 10
1507.225483
 20
1721.186866
 11
1536.203257
 21
1728.951437
  0
LINE
  8
CSLAYER1
  6
CONTINUOUS
 62
     5
 10
1507.225483
 20
1721.186866
 11
1536.203257
 21
1713.422295
  0
TEXT
  8
CSLAYER1
 62
     3
 10
1374.941895
 20
1731.186890
 40
40.000000
 41
0.900000
  1
50
 50
0.000000
 51
0.000000
  7
EASYDRAW_FONT
 72
     5
 11
1434.941895
 21
1731.186890
  0
ENDBLK
  8
0
  0
BLOCK
  8
CSLAYER1
  2
*D0014
 70
    65
 10
0.0
 20
0.0
 30
0.0
  0
LINE
  8
CSLAYER1
  6
CONTINUOUS
 62
     5
 10
1457.225483
 20
1931.186866
 11
1457.225483
 21
1801.186866
  0
LINE
  8
CSLAYER1
  6
CONTINUOUS
 62
     5
 10
1482.225483
 20
1934.924064
 11
1482.225483
 21
1801.186866
  0
LINE
  8
CSLAYER1
  6
CONTINUOUS
 62
     5
 10
1457.225483
 20
1811.186866
 11
1482.225483
 21
1811.186866
  0
LINE
  8
CSLAYER1
  6
CONTINUOUS
 62
     5
 10
1367.225483
 20
1811.186866
 11
1457.225483
 21
1811.186866
  0
LINE
  8
CSLAYER1
  6
CONTINUOUS
 62
     5
 10
1457.225483
 20
1811.186866
 11
1428.247708
 21
1818.951437
  0
LINE
  8
CSLAYER1
  6
CONTINUOUS
 62
     5
 10
1457.225483
 20
1811.186866
 11
1428.247708
 21
1803.422295
  0
LINE
  8
CSLAYER1
  6
CONTINUOUS
 62
     5
 10
1482.225483
 20
1811.186866
 11
1532.225483
 21
1811.186866
  0
LINE
  8
CSLAYER1
  6
CONTINUOUS
 62
     5
 10
1482.225483
 20
1811.186866
 11
1511.203257
 21
1818.951437
  0
LINE
  8
CSLAYER1
  6
CONTINUOUS
 62
     5
 10
1482.225483
 20
1811.186866
 11
1511.203257
 21
1803.422295
  0
TEXT
  8
CSLAYER1
 62
     3
 10
1377.231079
 20
1821.186890
 40
40.000000
 41
0.900000
  1
25
 50
0.000000
 51
0.000000
  7
EASYDRAW_FONT
 72
     5
 11
1437.231079
 21
1821.186890
  0
ENDBLK
  8
0
  0
BLOCK
  8
CSLAYER1
  2
*D0015
 70
    65
 10
0.0
 20
0.0
 30
0.0
  0
LINE
  8
CSLAYER1
  6
CONTINUOUS
 62
     5
 10
712.753590
 20
784.185492
 11
712.753590
 21
673.114853
  0
LINE
  8
CSLAYER1
  6
CONTINUOUS
 62
     5
 10
962.753590
 20
784.185492
 11
962.753590
 21
673.114853
  0
LINE
  8
CSLAYER1
  6
CONTINUOUS
 62
     5
 10
712.753590
 20
683.114853
 11
962.753590
 21
683.114853
  0
LINE
  8
CSLAYER1
  6
CONTINUOUS
 62
     5
 10
712.753590
 20
683.114853
 11
741.731365
 21
690.879425
  0
LINE
  8
CSLAYER1
  6
CONTINUOUS
 62
     5
 10
712.753590
 20
683.114853
 11
741.731365
 21
675.350282
  0
LINE
  8
CSLAYER1
  6
CONTINUOUS
 62
     5
 10
962.753590
 20
683.114853
 11
933.775815
 21
690.879425
  0
LINE
  8
CSLAYER1
  6
CONTINUOUS
 62
     5
 10
962.753590
 20
683.114853
 11
933.775815
 21
675.350282
  0
TEXT
  8
CSLAYER1
 62
     3
 10
792.753601
 20
693.114807
 40
40.000000
 41
0.843750
  1
250
 50
0.000000
 51
0.000000
  7
EASYDRAW_FONT
 72
     5
 11
882.753601
 21
693.114807
  0
ENDBLK
  8
0
  0
BLOCK
  8
CSLAYER1
  2
BLKF0000
 70
   64
 10
0.0
 20
0.0
 30
0.0
  0
ARC
  8
CSLAYER1
  6
CONTINUOUS
 62
     5
 10
2870.589265
 20
123.675098
 40
3.549225
 50
6.429109
 51
73.182034
  0
ARC
  8
CSLAYER1
  6
CONTINUOUS
 62
     5
 10
2867.128294
 20
122.516705
 40
6.907754
 50
310.517970
 51
330.092764
  0
ARC
  8
CSLAYER1
  6
CONTINUOUS
 62
     5
 10
2867.067645
 20
122.882223
 40
7.148321
 50
-32.205059
 51
9.585194
  0
ARC
  8
CSLAYER1
  6
CONTINUOUS
 62
     5
 10
2870.360373
 20
120.121225
 40
4.767514
 50
180.000000
 51
218.514150
  0
ARC
  8
CSLAYER1
  6
CONTINUOUS
 62
     5
 10
2869.073652
 20
119.444084
 40
3.348282
 50
222.781148
 51
319.406906
  0
ARC
  8
CSLAYER1
  6
CONTINUOUS
 62
     5
 10
2872.139294
 20
120.533977
 40
6.559434
 50
94.574282
 51
183.607718
  0
LINE
  8
CSLAYER1
  6
CONTINUOUS
 62
     5
 10
2885.583200
 20
115.417145
 11
2884.726164
 21
112.378562
  0
LINE
  8
CSLAYER1
  6
CONTINUOUS
 62
     5
 10
2887.375185
 20
135.284802
 11
2885.271550
 21
138.011735
  0
LINE
  8
CSLAYER1
  6
CONTINUOUS
 62
     5
 10
2885.271550
 20
138.011735
 11
2878.518196
 21
141.769647
  0
LINE
  8
CSLAYER1
  6
CONTINUOUS
 62
     5
 10
2878.518196
 20
141.769647
 11
2871.616169
 21
142.572518
  0
LINE
  8
CSLAYER1
  6
CONTINUOUS
 62
     5
 10
2853.326944
 20
129.193844
 11
2855.473638
 21
134.158075
  0
LINE
  8
CSLAYER1
  6
CONTINUOUS
 62
     5
 10
2855.436640
 20
134.072518
 11
2857.620332
 21
136.707275
  0
LINE
  8
CSLAYER1
  6
CONTINUOUS
 62
     5
 10
2857.620332
 20
136.707275
 11
2860.924754
 21
139.072518
  0
LINE
  8
CSLAYER1
  6
CONTINUOUS
 62
     5
 10
2871.616169
 20
142.572518
 11
2870.097993
 21
141.805674
  0
LINE
  8
CSLAYER1
  6
CONTINUOUS
 62
     5
 10
2870.097993
 20
141.805674
 11
2866.609615
 21
141.805674
  0
LINE
  8
CSLAYER1
  6
CONTINUOUS
 62
     5
 10
2866.609615
 20
141.805674
 11
2863.054152
 21
139.860232
  0
LINE
  8
CSLAYER1
  6
CONTINUOUS
 62
     5
 10
2863.054152
 20
139.860232
 11
2860.924754
 21
139.072518
  0
LINE
  8
CSLAYER1
  6
CONTINUOUS
 62
     5
 10
2853.326944
 20
129.193844
 11
2851.809397
 21
121.645241
  0
LINE
  8
CSLAYER1
  6
CONTINUOUS
 62
     5
 10
2851.809397
 20
121.645241
 11
2851.616169
 21
119.072518
  0
LINE
  8
CSLAYER1
  6
CONTINUOUS
 62
     5
 10
2854.325552
 20
111.232736
 11
2851.616169
 21
117.328847
  0
LINE
  8
CSLAYER1
  6
CONTINUOUS
 62
     5
 10
2851.616169
 20
117.328847
 11
2851.616169
 21
119.072518
  0
LINE
  8
CSLAYER1
  6
CONTINUOUS
 62
     5
 10
2884.726164
 20
112.378562
 11
2883.040377
 21
109.375555
  0
LINE
  8
CSLAYER1
  6
CONTINUOUS
 62
     5
 10
2883.040377
 20
109.375555
 11
2881.616169
 21
108.056844
  0
ARC
  8
CSLAYER1
  6
CONTINUOUS
 62
     5
 10
2869.424224
 20
119.609279
 40
17.266626
 50
208.054813
 51
260.640470
  0
ARC
  8
CSLAYER1
  6
CONTINUOUS
 62
     5
 10
2864.230829
 20
132.351748
 40
29.874611
 50
274.579659
 51
305.587364
  0
ARC
  8
CSLAYER1
  6
CONTINUOUS
 62
     5
 10
2875.203178
 20
126.368026
 40
15.088627
 50
313.467013
 51
331.085078
  0
LINE
  8
CSLAYER1
  6
CONTINUOUS
 62
     5
 10
2889.994510
 20
122.585939
 11
2890.291805
 21
126.368026
  0
LINE
  8
CSLAYER1
  6
CONTINUOUS
 62
     5
 10
2890.291805
 20
126.368026
 11
2888.999807
 21
132.477009
  0
LINE
  8
CSLAYER1
  6
CONTINUOUS
 62
     5
 10
2889.994510
 20
122.585939
 11
2888.410836
 21
119.072518
  0
ARC
  8
CSLAYER1
  6
CONTINUOUS
 62
     5
 10
2875.203178
 20
126.368026
 40
15.088627
 50
23.883193
 51
36.225170
  0
LINE
  8
CSLAYER1
  6
CONTINUOUS
 62
     5
 10
2835.616169
 20
154.072518
 11
2836.616169
 21
155.165162
  0
LINE
  8
CSLAYER1
  6
CONTINUOUS
 62
     5
 10
2835.616169
 20
154.072518
 11
2837.193127
 21
152.627485
  0
LINE
  8
CSLAYER1
  6
CONTINUOUS
 62
     5
 10
2838.732339
 20
150.518193
 11
2838.758608
 21
148.350074
  0
LINE
  8
CSLAYER1
  6
CONTINUOUS
 62
     5
 10
2838.758608
 20
148.350074
 11
2838.966006
 21
147.589615
  0
LINE
  8
CSLAYER1
  6
CONTINUOUS
 62
     5
 10
2838.966006
 20
147.589615
 11
2839.553633
 21
146.863722
  0
LINE
  8
CSLAYER1
  6
CONTINUOUS
 62
     5
 10
2839.553633
 20
146.863722
 11
2840.141261
 21
146.932855
  0
LINE
  8
CSLAYER1
  6
CONTINUOUS
 62
     5
 10
2840.141261
 20
146.932855
 11
2840.763455
 21
147.105686
  0
LINE
  8
CSLAYER1
  6
CONTINUOUS
 62
     5
 10
2840.763455
 20
147.105686
 11
2841.178251
 21
146.932855
  0
LINE
  8
CSLAYER1
  6
CONTINUOUS
 62
     5
 10
2841.178251
 20
146.932855
 11
2842.076975
 21
146.483492
  0
LINE
  8
CSLAYER1
  6
CONTINUOUS
 62
     5
 10
2842.076975
 20
146.483492
 11
2842.853027
 21
146.072518
  0
LINE
  8
CSLAYER1
  6
CONTINUOUS
 62
     5
 10
2842.853027
 20
146.072518
 11
2843.355930
 21
146.103263
  0
LINE
  8
CSLAYER1
  6
CONTINUOUS
 62
     5
 10
2843.355930
 20
146.103263
 11
2846.163802
 21
147.549742
  0
LINE
  8
CSLAYER1
  6
CONTINUOUS
 62
     5
 10
2836.616169
 20
155.165162
 11
2836.949021
 21
156.638870
  0
LINE
  8
CSLAYER1
  6
CONTINUOUS
 62
     5
 10
2836.949021
 20
156.638870
 11
2838.402426
 21
156.789222
  0
LINE
  8
CSLAYER1
  6
CONTINUOUS
 62
     5
 10
2839.896184
 20
159.557681
 11
2841.650357
 21
159.714771
  0
LINE
  8
CSLAYER1
  6
CONTINUOUS
 62
     5
 10
2841.650357
 20
159.714771
 11
2845.184885
 21
160.552585
  0
LINE
  8
CSLAYER1
  6
CONTINUOUS
 62
     5
 10
2845.184885
 20
160.552585
 11
2846.616169
 21
160.884224
  0
LINE
  8
CSLAYER1
  6
CONTINUOUS
 62
     5
 10
2839.896184
 20
159.557681
 11
2837.963293
 21
159.716548
  0
LINE
  8
CSLAYER1
  6
CONTINUOUS
 62
     5
 10
2837.227170
 20
158.847861
 11
2837.320696
 21
158.476700
  0
LINE
  8
CSLAYER1
  6
CONTINUOUS
 62
     5
 10
2837.320696
 20
158.476700
 11
2837.812290
 21
157.939019
  0
LINE
  8
CSLAYER1
  6
CONTINUOUS
 62
     5
 10
2837.812290
 20
157.939019
 11
2838.488231
 21
157.432062
  0
LINE
  8
CSLAYER1
  6
CONTINUOUS
 62
     5
 10
2838.488231
 20
157.432062
 11
2838.611556
 21
157.267629
  0
LINE
  8
CSLAYER1
  6
CONTINUOUS
 62
     5
 10
2837.193127
 20
152.627485
 11
2838.732339
 21
150.518193
  0
ARC
  8
CSLAYER1
  6
CONTINUOUS
 62
     5
 10
2881.602869
 20
-17.586135
 40
180.727463
 50
80.438896
 51
96.353582
  0
ARC
  8
CSLAYER1
  6
CONTINUOUS
 62
     5
 10
2856.703956
 20
127.661765
 40
34.720242
 50
81.866516
 51
106.890578
  0
LINE
  8
CSLAYER1
  6
CONTINUOUS
 62
     5
 10
2915.810430
 20
159.839188
 11
2918.057513
 21
158.817787
  0
LINE
  8
CSLAYER1
  6
CONTINUOUS
 62
     5
 10
2921.632417
 20
157.234615
 11
2918.057513
 21
158.817787
  0
LINE
  8
CSLAYER1
  6
CONTINUOUS
 62
     5
 10
2915.810430
 20
159.839188
 11
2911.616169
 21
160.631760
  0
LINE
  8
CSLAYER1
  6
CONTINUOUS
 62
     5
 10
2921.616169
 20
157.241811
 11
2923.487744
 21
155.673334
  0
LINE
  8
CSLAYER1
  6
CONTINUOUS
 62
     5
 10
2904.859425
 20
158.278662
 11
2905.758700
 21
159.731336
  0
LINE
  8
CSLAYER1
  6
CONTINUOUS
 62
     5
 10
2905.758700
 20
159.731336
 11
2910.434298
 21
158.611827
  0
LINE
  8
CSLAYER1
  6
CONTINUOUS
 62
     5
 10
2910.434298
 20
158.611827
 11
2927.176684
 21
154.072518
  0
LINE
  8
CSLAYER1
  6
CONTINUOUS
 62
     5
 10
2930.116169
 20
154.072518
 11
2923.487744
 21
155.673334
  0
LINE
  8
CSLAYER1
  6
CONTINUOUS
 62
     5
 10
2927.176684
 20
154.072518
 11
2930.116169
 21
154.072518
  0
LINE
  8
CSLAYER1
  6
CONTINUOUS
 62
     5
 10
2871.616169
 20
158.537459
 11
2891.616169
 21
159.072518
  0
LINE
  8
CSLAYER1
  6
CONTINUOUS
 62
     5
 10
2891.616169
 20
159.072518
 11
2904.859425
 21
158.278662
  0
LINE
  8
CSLAYER1
  6
CONTINUOUS
 62
     5
 10
2906.462406
 20
156.218182
 11
2891.616169
 21
157.572518
  0
LINE
  8
CSLAYER1
  6
CONTINUOUS
 62
     5
 10
2891.616169
 20
157.572518
 11
2876.566959
 21
157.981170
  0
LINE
  8
CSLAYER1
  6
CONTINUOUS
 62
     5
 10
2876.616169
 20
157.979834
 11
2871.616169
 21
158.075128
  0
LINE
  8
CSLAYER1
  6
CONTINUOUS
 62
     5
 10
2871.616169
 20
158.537459
 11
2871.616169
 21
158.075128
  0
LINE
  8
CSLAYER1
  6
CONTINUOUS
 62
     5
 10
2929.116169
 20
150.572518
 11
2920.273610
 21
152.883180
  0
LINE
  8
CSLAYER1
  6
CONTINUOUS
 62
     5
 10
2906.462406
 20
156.218182
 11
2916.616169
 21
154.245798
  0
LINE
  8
CSLAYER1
  6
CONTINUOUS
 62
     5
 10
2916.616169
 20
154.245798
 11
2920.273610
 21
152.883180
  0
LINE
  8
CSLAYER1
  6
CONTINUOUS
 62
     5
 10
2929.116169
 20
150.572518
 11
2928.823552
 21
149.733412
  0
LINE
  8
CSLAYER1
  6
CONTINUOUS
 62
     5
 10
2938.616169
 20
145.072518
 11
2938.310142
 21
146.301499
  0
LINE
  8
CSLAYER1
  6
CONTINUOUS
 62
     5
 10
2928.823552
 20
149.733412
 11
2938.310142
 21
146.301499
  0
LINE
  8
CSLAYER1
  6
CONTINUOUS
 62
     5
 10
2875.116169
 20
150.572518
 11
2877.539207
 21
150.572518
  0
LINE
  8
CSLAYER1
  6
CONTINUOUS
 62
     5
 10
2897.616169
 20
151.005014
 11
2897.616169
 21
150.572518
  0
LINE
  8
CSLAYER1
  6
CONTINUOUS
 62
     5
 10
2896.616169
 20
151.539454
 11
2894.904890
 21
152.176633
  0
LINE
  8
CSLAYER1
  6
CONTINUOUS
 62
     5
 10
2894.904890
 20
152.176633
 11
2893.794834
 21
152.227090
  0
LINE
  8
CSLAYER1
  6
CONTINUOUS
 62
     5
 10
2893.794834
 20
152.227090
 11
2893.315491
 21
151.974805
  0
LINE
  8
CSLAYER1
  6
CONTINUOUS
 62
     5
 10
2893.315491
 20
151.974805
 11
2893.214577
 21
151.571148
  0
LINE
  8
CSLAYER1
  6
CONTINUOUS
 62
     5
 10
2893.214577
 20
151.571148
 11
2893.668691
 21
151.268405
  0
LINE
  8
CSLAYER1
  6
CONTINUOUS
 62
     5
 10
2893.668691
 20
151.268405
 11
2895.308546
 21
151.117034
  0
LINE
  8
CSLAYER1
  6
CONTINUOUS
 62
     5
 10
2895.308546
 20
151.117034
 11
2897.616169
 21
151.005014
  0
LINE
  8
CSLAYER1
  6
CONTINUOUS
 62
     5
 10
2938.616169
 20
145.072518
 11
2935.640626
 21
146.259100
  0
LINE
  8
CSLAYER1
  6
CONTINUOUS
 62
     5
 10
2935.640626
 20
146.259100
 11
2925.584937
 21
148.101975
  0
LINE
  8
CSLAYER1
  6
CONTINUOUS
 62
     5
 10
2925.584937
 20
148.101975
 11
2920.559157
 21
149.261770
  0
LINE
  8
CSLAYER1
  6
CONTINUOUS
 62
     5
 10
2898.150390
 20
151.572518
 11
2909.916056
 21
151.572518
  0
LINE
  8
CSLAYER1
  6
CONTINUOUS
 62
     5
 10
2896.616169
 20
151.539454
 11
2897.140829
 21
151.230987
  0
LINE
  8
CSLAYER1
  6
CONTINUOUS
 62
     5
 10
2897.140829
 20
151.230987
 11
2897.437641
 21
151.141944
  0
LINE
  8
CSLAYER1
  6
CONTINUOUS
 62
     5
 10
2897.437641
 20
151.141944
 11
2897.616169
 21
151.167114
  0
LINE
  8
CSLAYER1
  6
CONTINUOUS
 62
     5
 10
2897.616169
 20
151.167114
 11
2898.150390
 21
151.572518
  0
LINE
  8
CSLAYER1
  6
CONTINUOUS
 62
     5
 10
2909.916056
 20
151.572518
 11
2914.366325
 21
150.543692
  0
LINE
  8
CSLAYER1
  6
CONTINUOUS
 62
     5
 10
2914.366325
 20
150.543692
 11
2918.519516
 21
149.378544
  0
LINE
  8
CSLAYER1
  6
CONTINUOUS
 62
     5
 10
2918.519516
 20
149.378544
 11
2920.559157
 21
149.261770
  0
LINE
  8
CSLAYER1
  6
CONTINUOUS
 62
     5
 10
2874.116169
 20
149.572518
 11
2874.116169
 21
149.072518
  0
LINE
  8
CSLAYER1
  6
CONTINUOUS
 62
     5
 10
2871.616169
 20
149.072518
 11
2874.116169
 21
149.072518
  0
ARC
  8
CSLAYER1
  6
CONTINUOUS
 62
     5
 10
2875.116169
 20
149.572518
 40
1.000000
 50
90.000000
 51
180.000000
  0
LINE
  8
CSLAYER1
  6
CONTINUOUS
 62
     5
 10
2877.539207
 20
150.572518
 11
2878.236764
 21
150.000522
  0
LINE
  8
CSLAYER1
  6
CONTINUOUS
 62
     5
 10
2878.839132
 20
149.976561
 11
2879.696729
 21
150.572518
  0
LINE
  8
CSLAYER1
  6
CONTINUOUS
 62
     5
 10
2881.275125
 20
150.572518
 11
2882.942250
 21
149.914442
  0
LINE
  8
CSLAYER1
  6
CONTINUOUS
 62
     5
 10
2883.365959
 20
149.940954
 11
2884.519446
 21
150.572518
  0
LINE
  8
CSLAYER1
  6
CONTINUOUS
 62
     5
 10
2879.696729
 20
150.572518
 11
2881.275125
 21
150.572518
  0
LINE
  8
CSLAYER1
  6
CONTINUOUS
 62
     5
 10
2884.519446
 20
150.572518
 11
2897.616169
 21
150.572518
  0
LINE
  8
CSLAYER1
  6
CONTINUOUS
 62
     5
 10
2850.165152
 20
147.463692
 11
2871.616169
 21
149.072518
  0
LINE
  8
CSLAYER1
  6
CONTINUOUS
 62
     5
 10
2846.163802
 20
147.549742
 11
2850.165152
 21
147.463692
  0
ARC
  8
CSLAYER1
  6
CONTINUOUS
 62
     5
 10
2878.553804
 20
150.387155
 40
0.500000
 50
230.648247
 51
304.796026
  0
ARC
  8
CSLAYER1
  6
CONTINUOUS
 62
     5
 10
2883.125833
 20
150.379520
 40
0.500000
 50
248.459024
 51
298.701829
  0
ARC
  8
CSLAYER1
  6
CONTINUOUS
 62
     5
 10
2838.371556
 20
157.087629
 40
0.300000
 50
-84.093859
 51
36.869898
  0
ARC
  8
CSLAYER1
  6
CONTINUOUS
 62
     5
 10
2837.905953
 20
159.018901
 40
0.700000
 50
85.301319
 51
194.142980
  0
LINE
  8
CSLAYER1
  6
CONTINUOUS
 62
     3
 10
2870.097993
 20
141.805674
 11
2878.208489
 21
141.805674
  0
LINE
  8
CSLAYER1
  6
CONTINUOUS
 62
     3
 10
2863.685477
 20
140.205674
 11
2881.328818
 21
140.205674
  0
LINE
  8
CSLAYER1
  6
CONTINUOUS
 62
     3
 10
2860.272538
 20
138.605674
 11
2884.204182
 21
138.605674
  0
LINE
  8
CSLAYER1
  6
CONTINUOUS
 62
     3
 10
2858.037218
 20
137.005674
 11
2886.047655
 21
137.005674
  0
LINE
  8
CSLAYER1
  6
CONTINUOUS
 62
     3
 10
2856.541563
 20
135.405674
 11
2887.281941
 21
135.405674
  0
LINE
  8
CSLAYER1
  6
CONTINUOUS
 62
     3
 10
2855.321248
 20
133.805674
 11
2888.331317
 21
133.805674
  0
LINE
  8
CSLAYER1
  6
CONTINUOUS
 62
     3
 10
2854.629356
 20
132.205674
 11
2889.057192
 21
132.205674
  0
LINE
  8
CSLAYER1
  6
CONTINUOUS
 62
     3
 10
2853.937464
 20
130.605674
 11
2889.395578
 21
130.605674
  0
LINE
  8
CSLAYER1
  6
CONTINUOUS
 62
     3
 10
2853.289114
 20
129.005674
 11
2889.733965
 21
129.005674
  0
LINE
  8
CSLAYER1
  6
CONTINUOUS
 62
     3
 10
2852.967455
 20
127.405674
 11
2890.072351
 21
127.405674
  0
LINE
  8
CSLAYER1
  6
CONTINUOUS
 62
     3
 10
2852.645797
 20
125.805674
 11
2868.236039
 21
125.805674
  0
LINE
  8
CSLAYER1
  6
CONTINUOUS
 62
     3
 10
2852.324138
 20
124.205674
 11
2866.703779
 21
124.205674
  0
LINE
  8
CSLAYER1
  6
CONTINUOUS
 62
     3
 10
2852.002479
 20
122.605674
 11
2865.915609
 21
122.605674
  0
LINE
  8
CSLAYER1
  6
CONTINUOUS
 62
     3
 10
2851.761361
 20
121.005674
 11
2865.596841
 21
121.005674
  0
LINE
  8
CSLAYER1
  6
CONTINUOUS
 62
     3
 10
2851.641191
 20
119.405674
 11
2865.646862
 21
119.405674
  0
LINE
  8
CSLAYER1
  6
CONTINUOUS
 62
     3
 10
2851.616169
 20
117.805674
 11
2866.192949
 21
117.805674
  0
LINE
  8
CSLAYER1
  6
CONTINUOUS
 62
     3
 10
2852.115357
 20
116.205674
 11
2868.222952
 21
116.205674
  0
LINE
  8
CSLAYER1
  6
CONTINUOUS
 62
     3
 10
2852.826468
 20
114.605674
 11
2885.354324
 21
114.605674
  0
LINE
  8
CSLAYER1
  6
CONTINUOUS
 62
     3
 10
2853.537579
 20
113.005674
 11
2884.903042
 21
113.005674
  0
LINE
  8
CSLAYER1
  6
CONTINUOUS
 62
     3
 10
2854.248690
 20
111.405674
 11
2884.180017
 21
111.405674
  0
LINE
  8
CSLAYER1
  6
CONTINUOUS
 62
     3
 10
2855.210649
 20
109.805674
 11
2883.281831
 21
109.805674
  0
LINE
  8
CSLAYER1
  6
CONTINUOUS
 62
     3
 10
2856.459110
 20
108.205674
 11
2881.776904
 21
108.205674
  0
LINE
  8
CSLAYER1
  6
CONTINUOUS
 62
     3
 10
2858.064530
 20
106.605674
 11
2879.384444
 21
106.605674
  0
LINE
  8
CSLAYER1
  6
CONTINUOUS
 62
     3
 10
2860.211672
 20
105.005674
 11
2876.259320
 21
105.005674
  0
LINE
  8
CSLAYER1
  6
CONTINUOUS
 62
     3
 10
2863.459363
 20
103.405674
 11
2871.621172
 21
103.405674
  0
LINE
  8
CSLAYER1
  6
CONTINUOUS
 62
     3
 10
2873.427863
 20
125.805674
 11
2890.247600
 21
125.805674
  0
LINE
  8
CSLAYER1
  6
CONTINUOUS
 62
     3
 10
2874.098607
 20
124.205674
 11
2890.121831
 21
124.205674
  0
LINE
  8
CSLAYER1
  6
CONTINUOUS
 62
     3
 10
2874.210614
 20
122.605674
 11
2889.996061
 21
122.605674
  0
LINE
  8
CSLAYER1
  6
CONTINUOUS
 62
     3
 10
2873.965257
 20
121.005674
 11
2889.282206
 21
121.005674
  0
LINE
  8
CSLAYER1
  6
CONTINUOUS
 62
     3
 10
2873.313612
 20
119.405674
 11
2888.561006
 21
119.405674
  0
LINE
  8
CSLAYER1
  6
CONTINUOUS
 62
     3
 10
2872.180348
 20
117.805674
 11
2887.627058
 21
117.805674
  0
LINE
  8
CSLAYER1
  6
CONTINUOUS
 62
     3
 10
2869.924352
 20
116.205674
 11
2886.356350
 21
116.205674
  0
TEXT
  8
CSLAYER1
 62
     5
 10
2890.787870
 20
123.816852
 40
4.713448
 41
1.951056
  1
M
 50
0.000000
 51
0.000000
  7
EASYDRAW_FONT
 72
     5
 11
2896.918673
 21
123.816852
  0
TEXT
  8
CSLAYER1
 62
     5
 10
2900.439258
 20
123.758581
 40
4.626621
 41
0.778201
  1
T
 50
0.000000
 51
0.000000
  7
EASYDRAW_FONT
 72
     5
 11
2902.839551
 21
123.758581
  0
TEXT
  8
CSLAYER1
 62
     5
 10
2903.204820
 20
123.793380
 40
4.696183
 41
1.055553
  1
E
 50
0.000000
 51
0.000000
  7
EASYDRAW_FONT
 72
     5
 11
2906.509535
 21
123.793380
  0
TEXT
  8
CSLAYER1
 62
     5
 10
2906.321001
 20
125.409225
 40
0.348283
 41
9.375319
  1
-
 50
0.000000
 51
0.000000
  7
EASYDRAW_FONT
 72
     5
 11
2908.497846
 21
125.409225
  0
TEXT
  8
CSLAYER1
 62
     5
 10
2908.135211
 20
123.762034
 40
4.861659
 41
1.298502
  1
H
 50
0.000000
 51
0.000000
  7
EASYDRAW_FONT
 72
     5
 11
2912.343793
 21
123.762034
  0
TEXT
  8
CSLAYER1
 62
     5
 10
2912.211226
 20
123.792412
 40
4.843139
 41
1.269236
  1
A
 50
0.000000
 51
0.000000
  7
EASYDRAW_FONT
 72
     5
 11
2916.309282
 21
123.792412
  0
TEXT
  8
CSLAYER1
 62
     5
 10
2915.917382
 20
123.750886
 40
4.825362
 41
1.490144
  1
N
 50
0.000000
 51
0.000000
  7
EASYDRAW_FONT
 72
     5
 11
2920.711036
 21
123.750886
  0
TEXT
  8
CSLAYER1
 62
     5
 10
2896.708839
 20
123.728312
 40
4.982325
 41
1.177443
  1
A
 50
0.000000
 51
0.000000
  7
EASYDRAW_FONT
 72
     5
 11
2900.619774
 21
123.728312
  0
TEXT
  8
CSLAYER1
 62
     5
 10
2891.154884
 20
116.733073
 40
4.982325
 41
1.177443
  1
A
 50
0.000000
 51
0.000000
  7
EASYDRAW_FONT
 72
     5
 11
2895.065819
 21
116.733073
  0
TEXT
  8
CSLAYER1
 62
     5
 10
2903.939308
 20
116.761394
 40
4.982325
 41
1.177443
  1
A
 50
0.000000
 51
0.000000
  7
EASYDRAW_FONT
 72
     5
 11
2907.850243
 21
116.761394
  0
TEXT
  8
CSLAYER1
 62
     5
 10
2907.699852
 20
116.818391
 40
4.825362
 41
1.490144
  1
N
 50
0.000000
 51
0.000000
  7
EASYDRAW_FONT
 72
     5
 11
2912.493507
 21
116.818391
  0
TEXT
  8
CSLAYER1
 62
     5
 10
2916.602188
 20
116.826785
 40
4.841775
 41
1.184218
  1
E
 50
0.000000
 51
0.000000
  7
EASYDRAW_FONT
 72
     5
 11
2920.424667
 21
116.826785
  0
TEXT
  8
CSLAYER1
 62
     5
 10
2895.435438
 20
116.731749
 40
4.947865
 41
1.093992
  1
D
 50
0.000000
 51
0.000000
  7
EASYDRAW_FONT
 72
     5
 11
2899.044054
 21
116.731749
  0
TEXT
  8
CSLAYER1
 62
     5
 10
2899.837796
 20
116.726364
 40
4.924210
 41
1.228195
  1
V
 50
0.000000
 51
0.000000
  7
EASYDRAW_FONT
 72
     5
 11
2903.869723
 21
116.726364
  0
TEXT
  8
CSLAYER1
 62
     5
 10
2912.062997
 20
116.747095
 40
5.032894
 41
1.481023
  1
C
 50
0.000000
 51
0.000000
  7
EASYDRAW_FONT
 72
     5
 11
2917.032218
 21
116.747095
  0
LINE
  8
CSLAYER1
  6
CONTINUOUS
 62
     5
 10
2902.693506
 20
127.807490
 11
2901.681444
 21
127.807490
  0
LINE
  8
CSLAYER1
  6
CONTINUOUS
 62
     3
 10
2851.791744
 20
162.032761
 11
2901.589570
 21
162.032761
  0
LINE
  8
CSLAYER1
  6
CONTINUOUS
 62
     3
 10
2844.679380
 20
160.432761
 11
2912.669261
 21
160.432761
  0
LINE
  8
CSLAYER1
  6
CONTINUOUS
 62
     3
 10
2837.230975
 20
158.832761
 11
2882.654286
 21
158.832761
  0
LINE
  8
CSLAYER1
  6
CONTINUOUS
 62
     3
 10
2895.615835
 20
158.832761
 11
2905.202439
 21
158.832761
  0
LINE
  8
CSLAYER1
  6
CONTINUOUS
 62
     3
 10
2909.511572
 20
158.832761
 11
2918.024570
 21
158.832761
  0
LINE
  8
CSLAYER1
  6
CONTINUOUS
 62
     3
 10
2838.634114
 20
157.232761
 11
2895.340584
 21
157.232761
  0
LINE
  8
CSLAYER1
  6
CONTINUOUS
 62
     3
 10
2915.520722
 20
157.232761
 11
2921.626967
 21
157.232761
  0
LINE
  8
CSLAYER1
  6
CONTINUOUS
 62
     3
 10
2836.721781
 20
155.632761
 11
2909.476132
 21
155.632761
  0
LINE
  8
CSLAYER1
  6
CONTINUOUS
 62
     3
 10
2921.422021
 20
155.632761
 11
2923.655742
 21
155.632761
  0
LINE
  8
CSLAYER1
  6
CONTINUOUS
 62
     3
 10
2835.659555
 20
154.032761
 11
2917.187988
 21
154.032761
  0
LINE
  8
CSLAYER1
  6
CONTINUOUS
 62
     3
 10
2837.335222
 20
152.432761
 11
2921.997297
 21
152.432761
  0
LINE
  8
CSLAYER1
  6
CONTINUOUS
 62
     3
 10
2838.502790
 20
150.832761
 11
2897.616169
 21
150.832761
  0
LINE
  8
CSLAYER1
  6
CONTINUOUS
 62
     3
 10
2913.115934
 20
150.832761
 11
2928.120257
 21
150.832761
  0
LINE
  8
CSLAYER1
  6
CONTINUOUS
 62
     3
 10
2838.747913
 20
149.232761
 11
2874.116169
 21
149.232761
  0
LINE
  8
CSLAYER1
  6
CONTINUOUS
 62
     3
 10
2920.684863
 20
149.232761
 11
2930.207466
 21
149.232761
  0
LINE
  8
CSLAYER1
  6
CONTINUOUS
 62
     3
 10
2838.954239
 20
147.632761
 11
2852.419412
 21
147.632761
  0
LINE
  8
CSLAYER1
  6
CONTINUOUS
 62
     3
 10
2928.145211
 20
147.632761
 11
2934.630230
 21
147.632761
  0
LINE
  8
CSLAYER1
  6
CONTINUOUS
 62
     3
 10
2936.208206
 20
146.032761
 11
2938.377060
 21
146.032761
  0
ENDBLK
  8
0
  0
BLOCK
  8
CSLAYER1
  2
BLKF0001
 70
   64
 10
0.0
 20
0.0
 30
0.0
  0
LINE
  8
CSLAYER1
  6
CONTINUOUS
 62
     5
 10
3505.304874
 20
1714.793994
 11
2625.304874
 21
1714.793994
  0
TEXT
  8
CSLAYER1
 62
     3
 10
3102.687988
 20
1720.444092
 40
40.000000
 41
0.832500
  1
１０Ｒ４／１３
 50
0.000000
 51
0.000000
  7
EASYDRAW_FONT
 72
     5
 11
3324.687988
 21
1720.444092
  0
ENDBLK
  8
0
  0
BLOCK
  8
CSLAYER1
  2
BLKF0002
 70
   64
 10
0.0
 20
0.0
 30
0.0
  0
LINE
  8
CSLAYER1
  6
CONTINUOUS
 62
     7
 10
822.012210
 20
2044.437263
 11
835.519236
 21
2051.536366
  0
LINE
  8
CSLAYER1
  6
CONTINUOUS
 62
     7
 10
835.519236
 20
2051.536366
 11
850.053583
 21
2057.933233
  0
LINE
  8
CSLAYER1
  6
CONTINUOUS
 62
     7
 10
850.053583
 20
2057.933233
 11
865.504634
 21
2063.579178
  0
LINE
  8
CSLAYER1
  6
CONTINUOUS
 62
     7
 10
865.504634
 20
2063.579178
 11
881.754799
 21
2068.431234
  0
LINE
  8
CSLAYER1
  6
CONTINUOUS
 62
     7
 10
881.754799
 20
2068.431234
 11
898.680404
 21
2072.452472
  0
LINE
  8
CSLAYER1
  6
CONTINUOUS
 62
     7
 10
898.680404
 20
2072.452472
 11
916.152635
 21
2075.612289
  0
LINE
  8
CSLAYER1
  6
CONTINUOUS
 62
     7
 10
916.152635
 20
2075.612289
 11
934.038517
 21
2077.886637
  0
LINE
  8
CSLAYER1
  6
CONTINUOUS
 62
     7
 10
934.038517
 20
2077.886637
 11
952.201928
 21
2079.258207
  0
LINE
  8
CSLAYER1
  6
CONTINUOUS
 62
     7
 10
952.201928
 20
2079.258207
 11
970.504634
 21
2079.716559
  0
LINE
  8
CSLAYER1
  6
CONTINUOUS
 62
     7
 10
970.504634
 20
2079.716559
 11
988.807340
 21
2079.258207
  0
LINE
  8
CSLAYER1
  6
CONTINUOUS
 62
     7
 10
988.807340
 20
2079.258207
 11
1006.970752
 21
2077.886637
  0
LINE
  8
CSLAYER1
  6
CONTINUOUS
 62
     7
 10
1006.970752
 20
2077.886637
 11
1024.856634
 21
2075.612289
  0
LINE
  8
CSLAYER1
  6
CONTINUOUS
 62
     7
 10
1024.856634
 20
2075.612289
 11
1042.328865
 21
2072.452472
  0
LINE
  8
CSLAYER1
  6
CONTINUOUS
 62
     7
 10
1042.328865
 20
2072.452472
 11
1058.025694
 21
2068.723170
  0
LINE
  8
CSLAYER1
  6
CONTINUOUS
 62
     7
 10
813.102665
 20
2049.547568
 11
827.420113
 21
2057.072618
  0
LINE
  8
CSLAYER1
  6
CONTINUOUS
 62
     7
 10
827.420113
 20
2057.072618
 11
842.826520
 21
2063.853296
  0
LINE
  8
CSLAYER1
  6
CONTINUOUS
 62
     7
 10
842.826520
 20
2063.853296
 11
859.204634
 21
2069.837998
  0
LINE
  8
CSLAYER1
  6
CONTINUOUS
 62
     7
 10
859.204634
 20
2069.837998
 11
876.429809
 21
2074.981177
  0
LINE
  8
CSLAYER1
  6
CONTINUOUS
 62
     7
 10
876.429809
 20
2074.981177
 11
894.370951
 21
2079.243690
  0
LINE
  8
CSLAYER1
  6
CONTINUOUS
 62
     7
 10
894.370951
 20
2079.243690
 11
912.891515
 21
2082.593096
  0
LINE
  8
CSLAYER1
  6
CONTINUOUS
 62
     7
 10
912.891515
 20
2082.593096
 11
931.850550
 21
2085.003905
  0
LINE
  8
CSLAYER1
  6
CONTINUOUS
 62
     7
 10
931.850550
 20
2085.003905
 11
951.103766
 21
2086.457769
  0
LINE
  8
CSLAYER1
  6
CONTINUOUS
 62
     7
 10
951.103766
 20
2086.457769
 11
970.504634
 21
2086.943622
  0
LINE
  8
CSLAYER1
  6
CONTINUOUS
 62
     7
 10
970.504634
 20
2086.943622
 11
989.905503
 21
2086.457769
  0
LINE
  8
CSLAYER1
  6
CONTINUOUS
 62
     7
 10
989.905503
 20
2086.457769
 11
1009.158719
 21
2085.003905
  0
LINE
  8
CSLAYER1
  6
CONTINUOUS
 62
     7
 10
1009.158719
 20
2085.003905
 11
1028.117754
 21
2082.593096
  0
LINE
  8
CSLAYER1
  6
CONTINUOUS
 62
     7
 10
1028.117754
 20
2082.593096
 11
1046.638318
 21
2079.243690
  0
LINE
  8
CSLAYER1
  6
CONTINUOUS
 62
     7
 10
1046.638318
 20
2079.243690
 11
1058.025694
 21
2076.538241
  0
LINE
  8
CSLAYER1
  6
CONTINUOUS
 62
     7
 10
796.548915
 20
2028.512669
 11
822.146782
 21
2044.507992
  0
LINE
  8
CSLAYER1
  6
CONTINUOUS
 62
     7
 10
796.548915
 20
2039.189475
 11
813.245311
 21
2049.622541
  0
ENDBLK
  8
0
  0
BLOCK
  8
CSLAYER1
  2
BLKF0003
 70
   64
 10
0.0
 20
0.0
 30
0.0
  0
LINE
  8
CSLAYER1
  6
CONTINUOUS
 62
     7
 10
664.978303
 20
2043.478377
 11
665.205982
 21
2043.629265
  0
LINE
  8
CSLAYER1
  6
CONTINUOUS
 62
     7
 10
665.205982
 20
2043.629265
 11
665.415096
 21
2043.808161
  0
LINE
  8
CSLAYER1
  6
CONTINUOUS
 62
     7
 10
665.415096
 20
2043.808161
 11
665.604052
 21
2044.013703
  0
LINE
  8
CSLAYER1
  6
CONTINUOUS
 62
     7
 10
665.604052
 20
2044.013703
 11
665.771412
 21
2044.244326
  0
LINE
  8
CSLAYER1
  6
CONTINUOUS
 62
     7
 10
665.771412
 20
2044.244326
 11
665.915903
 21
2044.498276
  0
LINE
  8
CSLAYER1
  6
CONTINUOUS
 62
     7
 10
665.915903
 20
2044.498276
 11
666.036426
 21
2044.773620
  0
LINE
  8
CSLAYER1
  6
CONTINUOUS
 62
     7
 10
666.036426
 20
2044.773620
 11
666.132062
 21
2045.068262
  0
LINE
  8
CSLAYER1
  6
CONTINUOUS
 62
     7
 10
666.132062
 20
2045.068262
 11
666.202084
 21
2045.379960
  0
LINE
  8
CSLAYER1
  6
CONTINUOUS
 62
     7
 10
666.202084
 20
2045.379960
 11
666.245960
 21
2045.706342
  0
LINE
  8
CSLAYER1
  6
CONTINUOUS
 62
     7
 10
666.245960
 20
2045.706342
 11
666.263354
 21
2046.044924
  0
LINE
  8
CSLAYER1
  6
CONTINUOUS
 62
     7
 10
666.263354
 20
2046.044924
 11
666.254136
 21
2046.393128
  0
LINE
  8
CSLAYER1
  6
CONTINUOUS
 62
     7
 10
666.254136
 20
2046.393128
 11
666.218374
 21
2046.748306
  0
LINE
  8
CSLAYER1
  6
CONTINUOUS
 62
     7
 10
666.218374
 20
2046.748306
 11
666.156341
 21
2047.107753
  0
LINE
  8
CSLAYER1
  6
CONTINUOUS
 62
     7
 10
666.156341
 20
2047.107753
 11
666.068510
 21
2047.468735
  0
LINE
  8
CSLAYER1
  6
CONTINUOUS
 62
     7
 10
666.068510
 20
2047.468735
 11
665.955549
 21
2047.828503
  0
LINE
  8
CSLAYER1
  6
CONTINUOUS
 62
     7
 10
665.955549
 20
2047.828503
 11
665.818316
 21
2048.184320
  0
LINE
  8
CSLAYER1
  6
CONTINUOUS
 62
     7
 10
665.818316
 20
2048.184320
 11
665.657858
 21
2048.533478
  0
LINE
  8
CSLAYER1
  6
CONTINUOUS
 62
     7
 10
665.657858
 20
2048.533478
 11
665.475395
 21
2048.873320
  0
LINE
  8
CSLAYER1
  6
CONTINUOUS
 62
     7
 10
665.475395
 20
2048.873320
 11
665.272315
 21
2049.201258
  0
LINE
  8
CSLAYER1
  6
CONTINUOUS
 62
     7
 10
665.272315
 20
2049.201258
 11
665.050164
 21
2049.514798
  0
LINE
  8
CSLAYER1
  6
CONTINUOUS
 62
     7
 10
665.050164
 20
2049.514798
 11
664.810634
 21
2049.811553
  0
LINE
  8
CSLAYER1
  6
CONTINUOUS
 62
     7
 10
664.810634
 20
2049.811553
 11
664.555546
 21
2050.089265
  0
LINE
  8
CSLAYER1
  6
CONTINUOUS
 62
     7
 10
664.555546
 20
2050.089265
 11
664.286843
 21
2050.345820
  0
LINE
  8
CSLAYER1
  6
CONTINUOUS
 62
     7
 10
664.286843
 20
2050.345820
 11
664.006568
 21
2050.579265
  0
LINE
  8
CSLAYER1
  6
CONTINUOUS
 62
     7
 10
664.006568
 20
2050.579265
 11
663.716857
 21
2050.787825
  0
LINE
  8
CSLAYER1
  6
CONTINUOUS
 62
     7
 10
663.716857
 20
2050.787825
 11
663.419912
 21
2050.969910
  0
LINE
  8
CSLAYER1
  6
CONTINUOUS
 62
     7
 10
663.419912
 20
2050.969910
 11
663.117994
 21
2051.124137
  0
LINE
  8
CSLAYER1
  6
CONTINUOUS
 62
     7
 10
663.117994
 20
2051.124137
 11
662.813402
 21
2051.249331
  0
LINE
  8
CSLAYER1
  6
CONTINUOUS
 62
     7
 10
662.813402
 20
2051.249331
 11
662.508452
 21
2051.344539
  0
LINE
  8
CSLAYER1
  6
CONTINUOUS
 62
     7
 10
662.508452
 20
2051.344539
 11
662.205466
 21
2051.409037
  0
LINE
  8
CSLAYER1
  6
CONTINUOUS
 62
     7
 10
662.205466
 20
2051.409037
 11
661.906750
 21
2051.442333
  0
LINE
  8
CSLAYER1
  6
CONTINUOUS
 62
     7
 10
661.906750
 20
2051.442333
 11
661.614577
 21
2051.444175
  0
LINE
  8
CSLAYER1
  6
CONTINUOUS
 62
     7
 10
661.614577
 20
2051.444175
 11
661.331171
 21
2051.414548
  0
LINE
  8
CSLAYER1
  6
CONTINUOUS
 62
     7
 10
661.331171
 20
2051.414548
 11
661.058689
 21
2051.353678
  0
LINE
  8
CSLAYER1
  6
CONTINUOUS
 62
     7
 10
661.058689
 20
2051.353678
 11
660.799204
 21
2051.262029
  0
LINE
  8
CSLAYER1
  6
CONTINUOUS
 62
     7
 10
660.799204
 20
2051.262029
 11
660.554692
 21
2051.140296
  0
ENDBLK
  8
0
  0
BLOCK
  8
CSLAYER1
  2
BLKF0004
 70
   64
 10
0.0
 20
0.0
 30
0.0
  0
LINE
  8
CSLAYER1
  6
CONTINUOUS
 62
     7
 10
657.607800
 20
2049.438908
 11
657.380120
 21
2049.288020
  0
LINE
  8
CSLAYER1
  6
CONTINUOUS
 62
     7
 10
657.380120
 20
2049.288020
 11
657.171007
 21
2049.109124
  0
LINE
  8
CSLAYER1
  6
CONTINUOUS
 62
     7
 10
657.171007
 20
2049.109124
 11
656.982051
 21
2048.903582
  0
LINE
  8
CSLAYER1
  6
CONTINUOUS
 62
     7
 10
656.982051
 20
2048.903582
 11
656.814690
 21
2048.672959
  0
LINE
  8
CSLAYER1
  6
CONTINUOUS
 62
     7
 10
656.814690
 20
2048.672959
 11
656.670199
 21
2048.419009
  0
LINE
  8
CSLAYER1
  6
CONTINUOUS
 62
     7
 10
656.670199
 20
2048.419009
 11
656.549677
 21
2048.143665
  0
LINE
  8
CSLAYER1
  6
CONTINUOUS
 62
     7
 10
656.549677
 20
2048.143665
 11
656.454040
 21
2047.849023
  0
LINE
  8
CSLAYER1
  6
CONTINUOUS
 62
     7
 10
656.454040
 20
2047.849023
 11
656.384018
 21
2047.537325
  0
LINE
  8
CSLAYER1
  6
CONTINUOUS
 62
     7
 10
656.384018
 20
2047.537325
 11
656.340143
 21
2047.210943
  0
LINE
  8
CSLAYER1
  6
CONTINUOUS
 62
     7
 10
656.340143
 20
2047.210943
 11
656.322748
 21
2046.872361
  0
LINE
  8
CSLAYER1
  6
CONTINUOUS
 62
     7
 10
656.322748
 20
2046.872361
 11
656.331967
 21
2046.524156
  0
LINE
  8
CSLAYER1
  6
CONTINUOUS
 62
     7
 10
656.331967
 20
2046.524156
 11
656.367728
 21
2046.168979
  0
LINE
  8
CSLAYER1
  6
CONTINUOUS
 62
     7
 10
656.367728
 20
2046.168979
 11
656.429761
 21
2045.809532
  0
LINE
  8
CSLAYER1
  6
CONTINUOUS
 62
     7
 10
656.429761
 20
2045.809532
 11
656.517592
 21
2045.448550
  0
LINE
  8
CSLAYER1
  6
CONTINUOUS
 62
     7
 10
656.517592
 20
2045.448550
 11
656.630554
 21
2045.088782
  0
LINE
  8
CSLAYER1
  6
CONTINUOUS
 62
     7
 10
656.630554
 20
2045.088782
 11
656.767786
 21
2044.732965
  0
LINE
  8
CSLAYER1
  6
CONTINUOUS
 62
     7
 10
656.767786
 20
2044.732965
 11
656.928244
 21
2044.383807
  0
LINE
  8
CSLAYER1
  6
CONTINUOUS
 62
     7
 10
656.928244
 20
2044.383807
 11
657.110708
 21
2044.043965
  0
LINE
  8
CSLAYER1
  6
CONTINUOUS
 62
     7
 10
657.110708
 20
2044.043965
 11
657.313787
 21
2043.716027
  0
LINE
  8
CSLAYER1
  6
CONTINUOUS
 62
     7
 10
657.313787
 20
2043.716027
 11
657.535938
 21
2043.402487
  0
LINE
  8
CSLAYER1
  6
CONTINUOUS
 62
     7
 10
657.535938
 20
2043.402487
 11
657.775468
 21
2043.105731
  0
LINE
  8
CSLAYER1
  6
CONTINUOUS
 62
     7
 10
657.775468
 20
2043.105731
 11
658.030556
 21
2042.828020
  0
LINE
  8
CSLAYER1
  6
CONTINUOUS
 62
     7
 10
658.030556
 20
2042.828020
 11
658.299260
 21
2042.571465
  0
LINE
  8
CSLAYER1
  6
CONTINUOUS
 62
     7
 10
658.299260
 20
2042.571465
 11
658.579534
 21
2042.338019
  0
LINE
  8
CSLAYER1
  6
CONTINUOUS
 62
     7
 10
658.579534
 20
2042.338019
 11
658.869246
 21
2042.129460
  0
LINE
  8
CSLAYER1
  6
CONTINUOUS
 62
     7
 10
658.869246
 20
2042.129460
 11
659.166190
 21
2041.947374
  0
LINE
  8
CSLAYER1
  6
CONTINUOUS
 62
     7
 10
659.166190
 20
2041.947374
 11
659.468108
 21
2041.793148
  0
LINE
  8
CSLAYER1
  6
CONTINUOUS
 62
     7
 10
659.468108
 20
2041.793148
 11
659.772701
 21
2041.667954
  0
LINE
  8
CSLAYER1
  6
CONTINUOUS
 62
     7
 10
659.772701
 20
2041.667954
 11
660.077650
 21
2041.572746
  0
LINE
  8
CSLAYER1
  6
CONTINUOUS
 62
     7
 10
660.077650
 20
2041.572746
 11
660.380636
 21
2041.508248
  0
LINE
  8
CSLAYER1
  6
CONTINUOUS
 62
     7
 10
660.380636
 20
2041.508248
 11
660.679352
 21
2041.474952
  0
LINE
  8
CSLAYER1
  6
CONTINUOUS
 62
     7
 10
660.679352
 20
2041.474952
 11
660.971525
 21
2041.473110
  0
LINE
  8
CSLAYER1
  6
CONTINUOUS
 62
     7
 10
660.971525
 20
2041.473110
 11
661.254931
 21
2041.502737
  0
LINE
  8
CSLAYER1
  6
CONTINUOUS
 62
     7
 10
661.254931
 20
2041.502737
 11
661.527413
 21
2041.563607
  0
LINE
  8
CSLAYER1
  6
CONTINUOUS
 62
     7
 10
661.527413
 20
2041.563607
 11
661.786898
 21
2041.655256
  0
LINE
  8
CSLAYER1
  6
CONTINUOUS
 62
     7
 10
661.786898
 20
2041.655256
 11
662.031411
 21
2041.776988
  0
LINE
  8
CSLAYER1
  6
CONTINUOUS
 62
     7
 10
662.031411
 20
2041.776988
 11
662.259090
 21
2041.927876
  0
LINE
  8
CSLAYER1
  6
CONTINUOUS
 62
     7
 10
662.259090
 20
2041.927876
 11
662.468204
 21
2042.106772
  0
LINE
  8
CSLAYER1
  6
CONTINUOUS
 62
     7
 10
662.468204
 20
2042.106772
 11
662.657160
 21
2042.312314
  0
LINE
  8
CSLAYER1
  6
CONTINUOUS
 62
     7
 10
662.657160
 20
2042.312314
 11
662.824520
 21
2042.542937
  0
LINE
  8
CSLAYER1
  6
CONTINUOUS
 62
     7
 10
662.824520
 20
2042.542937
 11
662.969011
 21
2042.796887
  0
LINE
  8
CSLAYER1
  6
CONTINUOUS
 62
     7
 10
662.969011
 20
2042.796887
 11
663.089534
 21
2043.072231
  0
LINE
  8
CSLAYER1
  6
CONTINUOUS
 62
     7
 10
663.089534
 20
2043.072231
 11
663.185170
 21
2043.366873
  0
LINE
  8
CSLAYER1
  6
CONTINUOUS
 62
     7
 10
663.185170
 20
2043.366873
 11
663.255192
 21
2043.678571
  0
LINE
  8
CSLAYER1
  6
CONTINUOUS
 62
     7
 10
663.255192
 20
2043.678571
 11
663.299068
 21
2044.004953
  0
LINE
  8
CSLAYER1
  6
CONTINUOUS
 62
     7
 10
663.299068
 20
2044.004953
 11
663.316462
 21
2044.343535
  0
LINE
  8
CSLAYER1
  6
CONTINUOUS
 62
     7
 10
663.316462
 20
2044.343535
 11
663.307244
 21
2044.691739
  0
LINE
  8
CSLAYER1
  6
CONTINUOUS
 62
     7
 10
663.307244
 20
2044.691739
 11
663.271482
 21
2045.046917
  0
LINE
  8
CSLAYER1
  6
CONTINUOUS
 62
     7
 10
663.271482
 20
2045.046917
 11
663.209449
 21
2045.406364
  0
LINE
  8
CSLAYER1
  6
CONTINUOUS
 62
     7
 10
663.209449
 20
2045.406364
 11
663.121618
 21
2045.767346
  0
LINE
  8
CSLAYER1
  6
CONTINUOUS
 62
     7
 10
663.121618
 20
2045.767346
 11
663.008657
 21
2046.127114
  0
LINE
  8
CSLAYER1
  6
CONTINUOUS
 62
     7
 10
663.008657
 20
2046.127114
 11
662.871424
 21
2046.482931
  0
LINE
  8
CSLAYER1
  6
CONTINUOUS
 62
     7
 10
662.871424
 20
2046.482931
 11
662.710966
 21
2046.832089
  0
LINE
  8
CSLAYER1
  6
CONTINUOUS
 62
     7
 10
662.710966
 20
2046.832089
 11
662.528503
 21
2047.171931
  0
LINE
  8
CSLAYER1
  6
CONTINUOUS
 62
     7
 10
662.528503
 20
2047.171931
 11
662.325423
 21
2047.499869
  0
LINE
  8
CSLAYER1
  6
CONTINUOUS
 62
     7
 10
662.325423
 20
2047.499869
 11
662.103272
 21
2047.813409
  0
LINE
  8
CSLAYER1
  6
CONTINUOUS
 62
     7
 10
662.103272
 20
2047.813409
 11
661.863742
 21
2048.110165
  0
LINE
  8
CSLAYER1
  6
CONTINUOUS
 62
     7
 10
661.863742
 20
2048.110165
 11
661.608654
 21
2048.387876
  0
LINE
  8
CSLAYER1
  6
CONTINUOUS
 62
     7
 10
661.608654
 20
2048.387876
 11
661.339951
 21
2048.644431
  0
LINE
  8
CSLAYER1
  6
CONTINUOUS
 62
     7
 10
661.339951
 20
2048.644431
 11
661.059676
 21
2048.877877
  0
LINE
  8
CSLAYER1
  6
CONTINUOUS
 62
     7
 10
661.059676
 20
2048.877877
 11
660.769965
 21
2049.086436
  0
LINE
  8
CSLAYER1
  6
CONTINUOUS
 62
     7
 10
660.769965
 20
2049.086436
 11
660.473020
 21
2049.268522
  0
LINE
  8
CSLAYER1
  6
CONTINUOUS
 62
     7
 10
660.473020
 20
2049.268522
 11
660.171102
 21
2049.422748
  0
LINE
  8
CSLAYER1
  6
CONTINUOUS
 62
     7
 10
660.171102
 20
2049.422748
 11
659.866510
 21
2049.547942
  0
LINE
  8
CSLAYER1
  6
CONTINUOUS
 62
     7
 10
659.866510
 20
2049.547942
 11
659.561560
 21
2049.643150
  0
LINE
  8
CSLAYER1
  6
CONTINUOUS
 62
     7
 10
659.561560
 20
2049.643150
 11
659.258574
 21
2049.707648
  0
LINE
  8
CSLAYER1
  6
CONTINUOUS
 62
     7
 10
659.258574
 20
2049.707648
 11
658.959858
 21
2049.740944
  0
LINE
  8
CSLAYER1
  6
CONTINUOUS
 62
     7
 10
658.959858
 20
2049.740944
 11
658.667685
 21
2049.742786
  0
LINE
  8
CSLAYER1
  6
CONTINUOUS
 62
     7
 10
658.667685
 20
2049.742786
 11
658.384279
 21
2049.713159
  0
LINE
  8
CSLAYER1
  6
CONTINUOUS
 62
     7
 10
658.384279
 20
2049.713159
 11
658.111797
 21
2049.652289
  0
LINE
  8
CSLAYER1
  6
CONTINUOUS
 62
     7
 10
658.111797
 20
2049.652289
 11
657.852312
 21
2049.560640
  0
LINE
  8
CSLAYER1
  6
CONTINUOUS
 62
     7
 10
657.852312
 20
2049.560640
 11
657.607800
 21
2049.438908
  0
ENDBLK
  8
0
  0
BLOCK
  8
CSLAYER1
  2
BLKF0005
 70
   64
 10
0.0
 20
0.0
 30
0.0
  0
LINE
  8
CSLAYER1
  6
CONTINUOUS
 62
     7
 10
666.233885
 20
2041.959069
 11
666.519619
 21
2042.203513
  0
LINE
  8
CSLAYER1
  6
CONTINUOUS
 62
     7
 10
666.519619
 20
2042.203513
 11
666.777809
 21
2042.484366
  0
LINE
  8
CSLAYER1
  6
CONTINUOUS
 62
     7
 10
666.777809
 20
2042.484366
 11
667.006491
 21
2042.799491
  0
LINE
  8
CSLAYER1
  6
CONTINUOUS
 62
     7
 10
667.006491
 20
2042.799491
 11
667.203925
 21
2043.146489
  0
LINE
  8
CSLAYER1
  6
CONTINUOUS
 62
     7
 10
667.203925
 20
2043.146489
 11
667.368607
 21
2043.522721
  0
LINE
  8
CSLAYER1
  6
CONTINUOUS
 62
     7
 10
667.368607
 20
2043.522721
 11
667.499285
 21
2043.925321
  0
LINE
  8
CSLAYER1
  6
CONTINUOUS
 62
     7
 10
667.499285
 20
2043.925321
 11
667.594964
 21
2044.351227
  0
LINE
  8
CSLAYER1
  6
CONTINUOUS
 62
     7
 10
667.594964
 20
2044.351227
 11
667.654916
 21
2044.797197
  0
LINE
  8
CSLAYER1
  6
CONTINUOUS
 62
     7
 10
667.654916
 20
2044.797197
 11
667.678684
 21
2045.259837
  0
LINE
  8
CSLAYER1
  6
CONTINUOUS
 62
     7
 10
667.678684
 20
2045.259837
 11
667.666087
 21
2045.735625
  0
LINE
  8
CSLAYER1
  6
CONTINUOUS
 62
     7
 10
667.666087
 20
2045.735625
 11
667.617222
 21
2046.220941
  0
LINE
  8
CSLAYER1
  6
CONTINUOUS
 62
     7
 10
667.617222
 20
2046.220941
 11
667.532461
 21
2046.712092
  0
LINE
  8
CSLAYER1
  6
CONTINUOUS
 62
     7
 10
667.532461
 20
2046.712092
 11
667.412448
 21
2047.205339
  0
LINE
  8
CSLAYER1
  6
CONTINUOUS
 62
     7
 10
667.412448
 20
2047.205339
 11
667.258096
 21
2047.696928
  0
LINE
  8
CSLAYER1
  6
CONTINUOUS
 62
     7
 10
667.258096
 20
2047.696928
 11
667.070582
 21
2048.183118
  0
LINE
  8
CSLAYER1
  6
CONTINUOUS
 62
     7
 10
667.070582
 20
2048.183118
 11
666.851331
 21
2048.660210
  0
LINE
  8
CSLAYER1
  6
CONTINUOUS
 62
     7
 10
666.851331
 20
2048.660210
 11
666.602012
 21
2049.124571
  0
LINE
  8
CSLAYER1
  6
CONTINUOUS
 62
     7
 10
666.602012
 20
2049.124571
 11
666.324522
 21
2049.572668
  0
LINE
  8
CSLAYER1
  6
CONTINUOUS
 62
     7
 10
666.324522
 20
2049.572668
 11
666.020975
 21
2050.001091
  0
LINE
  8
CSLAYER1
  6
CONTINUOUS
 62
     7
 10
666.020975
 20
2050.001091
 11
665.693679
 21
2050.406578
  0
LINE
  8
CSLAYER1
  6
CONTINUOUS
 62
     7
 10
665.693679
 20
2050.406578
 11
665.345126
 21
2050.786045
  0
LINE
  8
CSLAYER1
  6
CONTINUOUS
 62
     7
 10
665.345126
 20
2050.786045
 11
664.977968
 21
2051.136603
  0
LINE
  8
CSLAYER1
  6
CONTINUOUS
 62
     7
 10
664.977968
 20
2051.136603
 11
664.595000
 21
2051.455584
  0
LINE
  8
CSLAYER1
  6
CONTINUOUS
 62
     7
 10
664.595000
 20
2051.455584
 11
664.199136
 21
2051.740560
  0
LINE
  8
CSLAYER1
  6
CONTINUOUS
 62
     7
 10
664.199136
 20
2051.740560
 11
663.793390
 21
2051.989363
  0
LINE
  8
CSLAYER1
  6
CONTINUOUS
 62
     7
 10
663.793390
 20
2051.989363
 11
663.380848
 21
2052.200099
  0
LINE
  8
CSLAYER1
  6
CONTINUOUS
 62
     7
 10
663.380848
 20
2052.200099
 11
662.964651
 21
2052.371165
  0
LINE
  8
CSLAYER1
  6
CONTINUOUS
 62
     7
 10
662.964651
 20
2052.371165
 11
662.547966
 21
2052.501257
  0
LINE
  8
CSLAYER1
  6
CONTINUOUS
 62
     7
 10
662.547966
 20
2052.501257
 11
662.133965
 21
2052.589387
  0
LINE
  8
CSLAYER1
  6
CONTINUOUS
 62
     7
 10
662.133965
 20
2052.589387
 11
661.725798
 21
2052.634884
  0
LINE
  8
CSLAYER1
  6
CONTINUOUS
 62
     7
 10
661.725798
 20
2052.634884
 11
661.326571
 21
2052.637400
  0
LINE
  8
CSLAYER1
  6
CONTINUOUS
 62
     7
 10
661.326571
 20
2052.637400
 11
660.939324
 21
2052.596918
  0
LINE
  8
CSLAYER1
  6
CONTINUOUS
 62
     7
 10
660.939324
 20
2052.596918
 11
660.567003
 21
2052.513745
  0
LINE
  8
CSLAYER1
  6
CONTINUOUS
 62
     7
 10
660.567003
 20
2052.513745
 11
660.212441
 21
2052.388515
  0
LINE
  8
CSLAYER1
  6
CONTINUOUS
 62
     7
 10
660.212441
 20
2052.388515
 11
659.878338
 21
2052.222179
  0
LINE
  8
CSLAYER1
  6
CONTINUOUS
 62
     7
 10
659.878338
 20
2052.222179
 11
659.567236
 21
2052.016005
  0
LINE
  8
CSLAYER1
  6
CONTINUOUS
 62
     7
 10
659.567236
 20
2052.016005
 11
659.281502
 21
2051.771561
  0
LINE
  8
CSLAYER1
  6
CONTINUOUS
 62
     7
 10
659.281502
 20
2051.771561
 11
659.023312
 21
2051.490708
  0
LINE
  8
CSLAYER1
  6
CONTINUOUS
 62
     7
 10
659.023312
 20
2051.490708
 11
658.794630
 21
2051.175583
  0
LINE
  8
CSLAYER1
  6
CONTINUOUS
 62
     7
 10
658.794630
 20
2051.175583
 11
658.597196
 21
2050.828585
  0
LINE
  8
CSLAYER1
  6
CONTINUOUS
 62
     7
 10
658.597196
 20
2050.828585
 11
658.432514
 21
2050.452353
  0
LINE
  8
CSLAYER1
  6
CONTINUOUS
 62
     7
 10
658.432514
 20
2050.452353
 11
658.301836
 21
2050.049753
  0
LINE
  8
CSLAYER1
  6
CONTINUOUS
 62
     7
 10
658.301836
 20
2050.049753
 11
658.247592
 21
2049.808292
  0
LINE
  8
CSLAYER1
  6
CONTINUOUS
 62
     7
 10
662.198960
 20
2041.888027
 11
662.420273
 21
2041.774975
  0
LINE
  8
CSLAYER1
  6
CONTINUOUS
 62
     7
 10
662.420273
 20
2041.774975
 11
662.836470
 21
2041.603909
  0
LINE
  8
CSLAYER1
  6
CONTINUOUS
 62
     7
 10
662.836470
 20
2041.603909
 11
663.253155
 21
2041.473817
  0
LINE
  8
CSLAYER1
  6
CONTINUOUS
 62
     7
 10
663.253155
 20
2041.473817
 11
663.667156
 21
2041.385687
  0
LINE
  8
CSLAYER1
  6
CONTINUOUS
 62
     7
 10
663.667156
 20
2041.385687
 11
664.075323
 21
2041.340190
  0
LINE
  8
CSLAYER1
  6
CONTINUOUS
 62
     7
 10
664.075323
 20
2041.340190
 11
664.474550
 21
2041.337673
  0
LINE
  8
CSLAYER1
  6
CONTINUOUS
 62
     7
 10
664.474550
 20
2041.337673
 11
664.861797
 21
2041.378156
  0
LINE
  8
CSLAYER1
  6
CONTINUOUS
 62
     7
 10
664.861797
 20
2041.378156
 11
665.234118
 21
2041.461328
  0
LINE
  8
CSLAYER1
  6
CONTINUOUS
 62
     7
 10
665.234118
 20
2041.461328
 11
665.565005
 21
2041.578197
  0
ENDBLK
  8
0
  0
BLOCK
  8
CSLAYER1
  2
BLKF0006
 70
   64
 10
0.0
 20
0.0
 30
0.0
  0
LINE
  8
CSLAYER1
  6
CONTINUOUS
 62
     7
 10
667.665721
 20
2042.755766
 11
668.059219
 21
2043.092401
  0
LINE
  8
CSLAYER1
  6
CONTINUOUS
 62
     7
 10
668.059219
 20
2043.092401
 11
668.317410
 21
2043.373255
  0
LINE
  8
CSLAYER1
  6
CONTINUOUS
 62
     7
 10
668.317410
 20
2043.373255
 11
668.546092
 21
2043.688380
  0
LINE
  8
CSLAYER1
  6
CONTINUOUS
 62
     7
 10
668.546092
 20
2043.688380
 11
668.743526
 21
2044.035378
  0
LINE
  8
CSLAYER1
  6
CONTINUOUS
 62
     7
 10
668.743526
 20
2044.035378
 11
668.908208
 21
2044.411609
  0
LINE
  8
CSLAYER1
  6
CONTINUOUS
 62
     7
 10
668.908208
 20
2044.411609
 11
669.038886
 21
2044.814210
  0
LINE
  8
CSLAYER1
  6
CONTINUOUS
 62
     7
 10
669.038886
 20
2044.814210
 11
669.134565
 21
2045.240116
  0
LINE
  8
CSLAYER1
  6
CONTINUOUS
 62
     7
 10
669.134565
 20
2045.240116
 11
669.194516
 21
2045.686086
  0
LINE
  8
CSLAYER1
  6
CONTINUOUS
 62
     7
 10
669.194516
 20
2045.686086
 11
669.218284
 21
2046.148725
  0
LINE
  8
CSLAYER1
  6
CONTINUOUS
 62
     7
 10
669.218284
 20
2046.148725
 11
669.205688
 21
2046.624514
  0
LINE
  8
CSLAYER1
  6
CONTINUOUS
 62
     7
 10
669.205688
 20
2046.624514
 11
669.156823
 21
2047.109830
  0
LINE
  8
CSLAYER1
  6
CONTINUOUS
 62
     7
 10
669.156823
 20
2047.109830
 11
669.072061
 21
2047.600981
  0
LINE
  8
CSLAYER1
  6
CONTINUOUS
 62
     7
 10
669.072061
 20
2047.600981
 11
668.952048
 21
2048.094228
  0
LINE
  8
CSLAYER1
  6
CONTINUOUS
 62
     7
 10
668.952048
 20
2048.094228
 11
668.797697
 21
2048.585817
  0
LINE
  8
CSLAYER1
  6
CONTINUOUS
 62
     7
 10
668.797697
 20
2048.585817
 11
668.610182
 21
2049.072007
  0
LINE
  8
CSLAYER1
  6
CONTINUOUS
 62
     7
 10
668.610182
 20
2049.072007
 11
668.390931
 21
2049.549098
  0
LINE
  8
CSLAYER1
  6
CONTINUOUS
 62
     7
 10
668.390931
 20
2049.549098
 11
668.141612
 21
2050.013460
  0
LINE
  8
CSLAYER1
  6
CONTINUOUS
 62
     7
 10
668.141612
 20
2050.013460
 11
667.864123
 21
2050.461557
  0
LINE
  8
CSLAYER1
  6
CONTINUOUS
 62
     7
 10
667.864123
 20
2050.461557
 11
667.560576
 21
2050.889979
  0
LINE
  8
CSLAYER1
  6
CONTINUOUS
 62
     7
 10
667.560576
 20
2050.889979
 11
667.233280
 21
2051.295467
  0
LINE
  8
CSLAYER1
  6
CONTINUOUS
 62
     7
 10
667.233280
 20
2051.295467
 11
666.884727
 21
2051.674934
  0
LINE
  8
CSLAYER1
  6
CONTINUOUS
 62
     7
 10
666.884727
 20
2051.674934
 11
666.517569
 21
2052.025492
  0
LINE
  8
CSLAYER1
  6
CONTINUOUS
 62
     7
 10
666.517569
 20
2052.025492
 11
666.134601
 21
2052.344473
  0
LINE
  8
CSLAYER1
  6
CONTINUOUS
 62
     7
 10
666.134601
 20
2052.344473
 11
665.738737
 21
2052.629449
  0
LINE
  8
CSLAYER1
  6
CONTINUOUS
 62
     7
 10
665.738737
 20
2052.629449
 11
665.332990
 21
2052.878252
  0
LINE
  8
CSLAYER1
  6
CONTINUOUS
 62
     7
 10
665.332990
 20
2052.878252
 11
664.920449
 21
2053.088988
  0
LINE
  8
CSLAYER1
  6
CONTINUOUS
 62
     7
 10
664.920449
 20
2053.088988
 11
664.504252
 21
2053.260053
  0
LINE
  8
CSLAYER1
  6
CONTINUOUS
 62
     7
 10
664.504252
 20
2053.260053
 11
664.087567
 21
2053.390146
  0
LINE
  8
CSLAYER1
  6
CONTINUOUS
 62
     7
 10
664.087567
 20
2053.390146
 11
663.673566
 21
2053.478276
  0
LINE
  8
CSLAYER1
  6
CONTINUOUS
 62
     7
 10
663.673566
 20
2053.478276
 11
663.265399
 21
2053.523773
  0
LINE
  8
CSLAYER1
  6
CONTINUOUS
 62
     7
 10
663.265399
 20
2053.523773
 11
662.866172
 21
2053.526289
  0
LINE
  8
CSLAYER1
  6
CONTINUOUS
 62
     7
 10
662.866172
 20
2053.526289
 11
662.478925
 21
2053.485807
  0
LINE
  8
CSLAYER1
  6
CONTINUOUS
 62
     7
 10
662.478925
 20
2053.485807
 11
662.106604
 21
2053.402634
  0
LINE
  8
CSLAYER1
  6
CONTINUOUS
 62
     7
 10
662.106604
 20
2053.402634
 11
661.752042
 21
2053.277404
  0
ENDBLK
  8
0
  0
BLOCK
  8
CSLAYER1
  2
BLKF0007
 70
   64
 10
0.0
 20
0.0
 30
0.0
  0
LINE
  8
CSLAYER1
  6
CONTINUOUS
 62
     7
 10
681.596322
 20
2055.303056
 11
681.579833
 21
2055.570112
  0
LINE
  8
CSLAYER1
  6
CONTINUOUS
 62
     7
 10
681.579833
 20
2055.570112
 11
681.530489
 21
2055.835136
  0
LINE
  8
CSLAYER1
  6
CONTINUOUS
 62
     7
 10
681.530489
 20
2055.835136
 11
681.448667
 21
2056.096111
  0
LINE
  8
CSLAYER1
  6
CONTINUOUS
 62
     7
 10
681.448667
 20
2056.096111
 11
681.334990
 21
2056.351050
  0
LINE
  8
CSLAYER1
  6
CONTINUOUS
 62
     7
 10
681.334990
 20
2056.351050
 11
681.190323
 21
2056.598013
  0
LINE
  8
CSLAYER1
  6
CONTINUOUS
 62
     7
 10
681.190323
 20
2056.598013
 11
681.015766
 21
2056.835121
  0
LINE
  8
CSLAYER1
  6
CONTINUOUS
 62
     7
 10
681.015766
 20
2056.835121
 11
680.812648
 21
2057.060568
  0
LINE
  8
CSLAYER1
  6
CONTINUOUS
 62
     7
 10
680.812648
 20
2057.060568
 11
680.582515
 21
2057.272640
  0
LINE
  8
CSLAYER1
  6
CONTINUOUS
 62
     7
 10
680.582515
 20
2057.272640
 11
680.327118
 21
2057.469723
  0
LINE
  8
CSLAYER1
  6
CONTINUOUS
 62
     7
 10
680.327118
 20
2057.469723
 11
680.048402
 21
2057.650315
  0
LINE
  8
CSLAYER1
  6
CONTINUOUS
 62
     7
 10
680.048402
 20
2057.650315
 11
679.748487
 21
2057.813044
  0
LINE
  8
CSLAYER1
  6
CONTINUOUS
 62
     7
 10
679.748487
 20
2057.813044
 11
679.429656
 21
2057.956670
  0
LINE
  8
CSLAYER1
  6
CONTINUOUS
 62
     7
 10
679.429656
 20
2057.956670
 11
679.094335
 21
2058.080100
  0
LINE
  8
CSLAYER1
  6
CONTINUOUS
 62
     7
 10
679.094335
 20
2058.080100
 11
678.745076
 21
2058.182396
  0
LINE
  8
CSLAYER1
  6
CONTINUOUS
 62
     7
 10
678.745076
 20
2058.182396
 11
678.384538
 21
2058.262778
  0
LINE
  8
CSLAYER1
  6
CONTINUOUS
 62
     7
 10
678.384538
 20
2058.262778
 11
678.015464
 21
2058.320634
  0
LINE
  8
CSLAYER1
  6
CONTINUOUS
 62
     7
 10
678.015464
 20
2058.320634
 11
677.640664
 21
2058.355525
  0
LINE
  8
CSLAYER1
  6
CONTINUOUS
 62
     7
 10
677.640664
 20
2058.355525
 11
677.262989
 21
2058.367185
  0
LINE
  8
CSLAYER1
  6
CONTINUOUS
 62
     7
 10
677.262989
 20
2058.367185
 11
676.885314
 21
2058.355525
  0
LINE
  8
CSLAYER1
  6
CONTINUOUS
 62
     7
 10
676.885314
 20
2058.355525
 11
676.510513
 21
2058.320634
  0
LINE
  8
CSLAYER1
  6
CONTINUOUS
 62
     7
 10
676.510513
 20
2058.320634
 11
676.141440
 21
2058.262778
  0
LINE
  8
CSLAYER1
  6
CONTINUOUS
 62
     7
 10
676.141440
 20
2058.262778
 11
675.780902
 21
2058.182396
  0
LINE
  8
CSLAYER1
  6
CONTINUOUS
 62
     7
 10
675.780902
 20
2058.182396
 11
675.431643
 21
2058.080100
  0
LINE
  8
CSLAYER1
  6
CONTINUOUS
 62
     7
 10
675.431643
 20
2058.080100
 11
675.096322
 21
2057.956670
  0
LINE
  8
CSLAYER1
  6
CONTINUOUS
 62
     7
 10
675.096322
 20
2057.956670
 11
674.777491
 21
2057.813044
  0
LINE
  8
CSLAYER1
  6
CONTINUOUS
 62
     7
 10
674.777491
 20
2057.813044
 11
674.477576
 21
2057.650315
  0
LINE
  8
CSLAYER1
  6
CONTINUOUS
 62
     7
 10
674.477576
 20
2057.650315
 11
674.198859
 21
2057.469723
  0
LINE
  8
CSLAYER1
  6
CONTINUOUS
 62
     7
 10
674.198859
 20
2057.469723
 11
673.943463
 21
2057.272640
  0
LINE
  8
CSLAYER1
  6
CONTINUOUS
 62
     7
 10
673.943463
 20
2057.272640
 11
673.713330
 21
2057.060568
  0
LINE
  8
CSLAYER1
  6
CONTINUOUS
 62
     7
 10
673.713330
 20
2057.060568
 11
673.510212
 21
2056.835121
  0
LINE
  8
CSLAYER1
  6
CONTINUOUS
 62
     7
 10
673.510212
 20
2056.835121
 11
673.335655
 21
2056.598013
  0
LINE
  8
CSLAYER1
  6
CONTINUOUS
 62
     7
 10
673.335655
 20
2056.598013
 11
673.190988
 21
2056.351050
  0
LINE
  8
CSLAYER1
  6
CONTINUOUS
 62
     7
 10
673.190988
 20
2056.351050
 11
673.077310
 21
2056.096111
  0
LINE
  8
CSLAYER1
  6
CONTINUOUS
 62
     7
 10
673.077310
 20
2056.096111
 11
672.995489
 21
2055.835136
  0
LINE
  8
CSLAYER1
  6
CONTINUOUS
 62
     7
 10
672.995489
 20
2055.835136
 11
672.946145
 21
2055.570112
  0
LINE
  8
CSLAYER1
  6
CONTINUOUS
 62
     7
 10
672.946145
 20
2055.570112
 11
672.929656
 21
2055.303056
  0
LINE
  8
CSLAYER1
  6
CONTINUOUS
 62
     7
 10
672.929656
 20
2055.303056
 11
672.946145
 21
2055.036000
  0
LINE
  8
CSLAYER1
  6
CONTINUOUS
 62
     7
 10
672.946145
 20
2055.036000
 11
672.995489
 21
2054.770976
  0
LINE
  8
CSLAYER1
  6
CONTINUOUS
 62
     7
 10
672.995489
 20
2054.770976
 11
673.077310
 21
2054.510001
  0
LINE
  8
CSLAYER1
  6
CONTINUOUS
 62
     7
 10
673.077310
 20
2054.510001
 11
673.190988
 21
2054.255062
  0
LINE
  8
CSLAYER1
  6
CONTINUOUS
 62
     7
 10
673.190988
 20
2054.255062
 11
673.335655
 21
2054.008099
  0
LINE
  8
CSLAYER1
  6
CONTINUOUS
 62
     7
 10
673.335655
 20
2054.008099
 11
673.510212
 21
2053.770991
  0
LINE
  8
CSLAYER1
  6
CONTINUOUS
 62
     7
 10
673.510212
 20
2053.770991
 11
673.713330
 21
2053.545544
  0
LINE
  8
CSLAYER1
  6
CONTINUOUS
 62
     7
 10
673.713330
 20
2053.545544
 11
673.943463
 21
2053.333472
  0
LINE
  8
CSLAYER1
  6
CONTINUOUS
 62
     7
 10
673.943463
 20
2053.333472
 11
674.198859
 21
2053.136389
  0
LINE
  8
CSLAYER1
  6
CONTINUOUS
 62
     7
 10
674.198859
 20
2053.136389
 11
674.477576
 21
2052.955797
  0
LINE
  8
CSLAYER1
  6
CONTINUOUS
 62
     7
 10
674.477576
 20
2052.955797
 11
674.777491
 21
2052.793068
  0
LINE
  8
CSLAYER1
  6
CONTINUOUS
 62
     7
 10
674.777491
 20
2052.793068
 11
675.096322
 21
2052.649442
  0
LINE
  8
CSLAYER1
  6
CONTINUOUS
 62
     7
 10
675.096322
 20
2052.649442
 11
675.431643
 21
2052.526012
  0
LINE
  8
CSLAYER1
  6
CONTINUOUS
 62
     7
 10
675.431643
 20
2052.526012
 11
675.780902
 21
2052.423716
  0
LINE
  8
CSLAYER1
  6
CONTINUOUS
 62
     7
 10
675.780902
 20
2052.423716
 11
676.141440
 21
2052.343334
  0
LINE
  8
CSLAYER1
  6
CONTINUOUS
 62
     7
 10
676.141440
 20
2052.343334
 11
676.510513
 21
2052.285478
  0
LINE
  8
CSLAYER1
  6
CONTINUOUS
 62
     7
 10
676.510513
 20
2052.285478
 11
676.885314
 21
2052.250587
  0
LINE
  8
CSLAYER1
  6
CONTINUOUS
 62
     7
 10
676.885314
 20
2052.250587
 11
677.262989
 21
2052.238927
  0
LINE
  8
CSLAYER1
  6
CONTINUOUS
 62
     7
 10
677.262989
 20
2052.238927
 11
677.640664
 21
2052.250587
  0
LINE
  8
CSLAYER1
  6
CONTINUOUS
 62
     7
 10
677.640664
 20
2052.250587
 11
678.015464
 21
2052.285478
  0
LINE
  8
CSLAYER1
  6
CONTINUOUS
 62
     7
 10
678.015464
 20
2052.285478
 11
678.384538
 21
2052.343334
  0
LINE
  8
CSLAYER1
  6
CONTINUOUS
 62
     7
 10
678.384538
 20
2052.343334
 11
678.745076
 21
2052.423716
  0
LINE
  8
CSLAYER1
  6
CONTINUOUS
 62
     7
 10
678.745076
 20
2052.423716
 11
679.094335
 21
2052.526012
  0
LINE
  8
CSLAYER1
  6
CONTINUOUS
 62
     7
 10
679.094335
 20
2052.526012
 11
679.429656
 21
2052.649442
  0
LINE
  8
CSLAYER1
  6
CONTINUOUS
 62
     7
 10
679.429656
 20
2052.649442
 11
679.748487
 21
2052.793068
  0
LINE
  8
CSLAYER1
  6
CONTINUOUS
 62
     7
 10
679.748487
 20
2052.793068
 11
680.048402
 21
2052.955797
  0
LINE
  8
CSLAYER1
  6
CONTINUOUS
 62
     7
 10
680.048402
 20
2052.955797
 11
680.327118
 21
2053.136389
  0
LINE
  8
CSLAYER1
  6
CONTINUOUS
 62
     7
 10
680.327118
 20
2053.136389
 11
680.582515
 21
2053.333472
  0
LINE
  8
CSLAYER1
  6
CONTINUOUS
 62
     7
 10
680.582515
 20
2053.333472
 11
680.812648
 21
2053.545544
  0
LINE
  8
CSLAYER1
  6
CONTINUOUS
 62
     7
 10
680.812648
 20
2053.545544
 11
681.015766
 21
2053.770991
  0
LINE
  8
CSLAYER1
  6
CONTINUOUS
 62
     7
 10
681.015766
 20
2053.770991
 11
681.190323
 21
2054.008099
  0
LINE
  8
CSLAYER1
  6
CONTINUOUS
 62
     7
 10
681.190323
 20
2054.008099
 11
681.334990
 21
2054.255062
  0
LINE
  8
CSLAYER1
  6
CONTINUOUS
 62
     7
 10
681.334990
 20
2054.255062
 11
681.448667
 21
2054.510001
  0
LINE
  8
CSLAYER1
  6
CONTINUOUS
 62
     7
 10
681.448667
 20
2054.510001
 11
681.530489
 21
2054.770976
  0
LINE
  8
CSLAYER1
  6
CONTINUOUS
 62
     7
 10
681.530489
 20
2054.770976
 11
681.579833
 21
2055.036000
  0
LINE
  8
CSLAYER1
  6
CONTINUOUS
 62
     7
 10
681.579833
 20
2055.036000
 11
681.596322
 21
2055.303056
  0
ENDBLK
  8
0
  0
BLOCK
  8
CSLAYER1
  2
BLKF0008
 70
   64
 10
0.0
 20
0.0
 30
0.0
  0
LINE
  8
CSLAYER1
  6
CONTINUOUS
 62
     7
 10
615.806178
 20
2052.791629
 11
616.913013
 21
2053.483256
  0
LINE
  8
CSLAYER1
  6
CONTINUOUS
 62
     7
 10
617.317981
 20
2063.573558
 11
643.885422
 21
2080.174738
  0
LINE
  8
CSLAYER1
  6
CONTINUOUS
 62
     7
 10
615.352754
 20
2060.476580
 11
615.352754
 21
2055.658538
  0
LINE
  8
CSLAYER1
  6
CONTINUOUS
 62
     7
 10
615.352754
 20
2060.476580
 11
615.384719
 21
2060.896500
  0
LINE
  8
CSLAYER1
  6
CONTINUOUS
 62
     7
 10
615.384719
 20
2060.896500
 11
615.480369
 21
2061.313224
  0
LINE
  8
CSLAYER1
  6
CONTINUOUS
 62
     7
 10
615.480369
 20
2061.313224
 11
615.638977
 21
2061.723581
  0
LINE
  8
CSLAYER1
  6
CONTINUOUS
 62
     7
 10
615.638977
 20
2061.723581
 11
615.859336
 21
2062.124447
  0
LINE
  8
CSLAYER1
  6
CONTINUOUS
 62
     7
 10
615.859336
 20
2062.124447
 11
616.139769
 21
2062.512773
  0
LINE
  8
CSLAYER1
  6
CONTINUOUS
 62
     7
 10
616.139769
 20
2062.512773
 11
616.478141
 21
2062.885601
  0
LINE
  8
CSLAYER1
  6
CONTINUOUS
 62
     7
 10
616.478141
 20
2062.885601
 11
616.871877
 21
2063.240095
  0
LINE
  8
CSLAYER1
  6
CONTINUOUS
 62
     7
 10
616.871877
 20
2063.240095
 11
617.317981
 21
2063.573558
  0
LINE
  8
CSLAYER1
  6
CONTINUOUS
 62
     7
 10
629.692451
 20
2057.069710
 11
629.152170
 21
2056.785746
  0
LINE
  8
CSLAYER1
  6
CONTINUOUS
 62
     7
 10
629.152170
 20
2056.785746
 11
628.570796
 21
2056.529871
  0
LINE
  8
CSLAYER1
  6
CONTINUOUS
 62
     7
 10
628.570796
 20
2056.529871
 11
627.952754
 21
2056.304033
  0
LINE
  8
CSLAYER1
  6
CONTINUOUS
 62
     7
 10
627.952754
 20
2056.304033
 11
627.302748
 21
2056.109951
  0
LINE
  8
CSLAYER1
  6
CONTINUOUS
 62
     7
 10
627.302748
 20
2056.109951
 11
626.625723
 21
2055.949101
  0
LINE
  8
CSLAYER1
  6
CONTINUOUS
 62
     7
 10
626.625723
 20
2055.949101
 11
625.926834
 21
2055.822709
  0
LINE
  8
CSLAYER1
  6
CONTINUOUS
 62
     7
 10
625.926834
 20
2055.822709
 11
625.211399
 21
2055.731735
  0
LINE
  8
CSLAYER1
  6
CONTINUOUS
 62
     7
 10
625.211399
 20
2055.731735
 11
624.484862
 21
2055.676872
  0
LINE
  8
CSLAYER1
  6
CONTINUOUS
 62
     7
 10
624.484862
 20
2055.676872
 11
623.752754
 21
2055.658538
  0
LINE
  8
CSLAYER1
  6
CONTINUOUS
 62
     7
 10
623.752754
 20
2055.658538
 11
623.020646
 21
2055.676872
  0
LINE
  8
CSLAYER1
  6
CONTINUOUS
 62
     7
 10
623.020646
 20
2055.676872
 11
622.294110
 21
2055.731735
  0
LINE
  8
CSLAYER1
  6
CONTINUOUS
 62
     7
 10
622.294110
 20
2055.731735
 11
621.578674
 21
2055.822709
  0
LINE
  8
CSLAYER1
  6
CONTINUOUS
 62
     7
 10
621.578674
 20
2055.822709
 11
620.879785
 21
2055.949101
  0
LINE
  8
CSLAYER1
  6
CONTINUOUS
 62
     7
 10
620.879785
 20
2055.949101
 11
620.202761
 21
2056.109951
  0
LINE
  8
CSLAYER1
  6
CONTINUOUS
 62
     7
 10
620.202761
 20
2056.109951
 11
619.552754
 21
2056.304033
  0
LINE
  8
CSLAYER1
  6
CONTINUOUS
 62
     7
 10
619.552754
 20
2056.304033
 11
618.934712
 21
2056.529871
  0
LINE
  8
CSLAYER1
  6
CONTINUOUS
 62
     7
 10
618.934712
 20
2056.529871
 11
618.353338
 21
2056.785746
  0
LINE
  8
CSLAYER1
  6
CONTINUOUS
 62
     7
 10
618.353338
 20
2056.785746
 11
617.813057
 21
2057.069710
  0
LINE
  8
CSLAYER1
  6
CONTINUOUS
 62
     7
 10
617.813057
 20
2057.069710
 11
617.317981
 21
2057.379602
  0
LINE
  8
CSLAYER1
  6
CONTINUOUS
 62
     7
 10
617.317981
 20
2057.379602
 11
616.871877
 21
2057.713065
  0
LINE
  8
CSLAYER1
  6
CONTINUOUS
 62
     7
 10
616.871877
 20
2057.713065
 11
616.478141
 21
2058.067559
  0
LINE
  8
CSLAYER1
  6
CONTINUOUS
 62
     7
 10
616.478141
 20
2058.067559
 11
616.139769
 21
2058.440387
  0
LINE
  8
CSLAYER1
  6
CONTINUOUS
 62
     7
 10
616.139769
 20
2058.440387
 11
615.859336
 21
2058.828713
  0
LINE
  8
CSLAYER1
  6
CONTINUOUS
 62
     7
 10
615.859336
 20
2058.828713
 11
615.638977
 21
2059.229579
  0
LINE
  8
CSLAYER1
  6
CONTINUOUS
 62
     7
 10
615.638977
 20
2059.229579
 11
615.480369
 21
2059.639936
  0
LINE
  8
CSLAYER1
  6
CONTINUOUS
 62
     7
 10
615.480369
 20
2059.639936
 11
615.384719
 21
2060.056660
  0
LINE
  8
CSLAYER1
  6
CONTINUOUS
 62
     7
 10
615.384719
 20
2060.056660
 11
615.352754
 21
2060.476580
  0
LINE
  8
CSLAYER1
  6
CONTINUOUS
 62
     7
 10
630.187528
 20
2052.561560
 11
629.692451
 21
2052.251668
  0
LINE
  8
CSLAYER1
  6
CONTINUOUS
 62
     7
 10
629.692451
 20
2052.251668
 11
629.152170
 21
2051.967704
  0
LINE
  8
CSLAYER1
  6
CONTINUOUS
 62
     7
 10
629.152170
 20
2051.967704
 11
628.570796
 21
2051.711829
  0
LINE
  8
CSLAYER1
  6
CONTINUOUS
 62
     7
 10
628.570796
 20
2051.711829
 11
627.952754
 21
2051.485991
  0
LINE
  8
CSLAYER1
  6
CONTINUOUS
 62
     7
 10
627.952754
 20
2051.485991
 11
627.302748
 21
2051.291909
  0
LINE
  8
CSLAYER1
  6
CONTINUOUS
 62
     7
 10
627.302748
 20
2051.291909
 11
626.625723
 21
2051.131059
  0
LINE
  8
CSLAYER1
  6
CONTINUOUS
 62
     7
 10
626.625723
 20
2051.131059
 11
625.926834
 21
2051.004667
  0
LINE
  8
CSLAYER1
  6
CONTINUOUS
 62
     7
 10
625.926834
 20
2051.004667
 11
625.211399
 21
2050.913693
  0
LINE
  8
CSLAYER1
  6
CONTINUOUS
 62
     7
 10
625.211399
 20
2050.913693
 11
624.484862
 21
2050.858830
  0
LINE
  8
CSLAYER1
  6
CONTINUOUS
 62
     7
 10
624.484862
 20
2050.858830
 11
623.752754
 21
2050.840496
  0
LINE
  8
CSLAYER1
  6
CONTINUOUS
 62
     7
 10
623.752754
 20
2050.840496
 11
623.020646
 21
2050.858830
  0
LINE
  8
CSLAYER1
  6
CONTINUOUS
 62
     7
 10
623.020646
 20
2050.858830
 11
622.294110
 21
2050.913693
  0
LINE
  8
CSLAYER1
  6
CONTINUOUS
 62
     7
 10
622.294110
 20
2050.913693
 11
621.578674
 21
2051.004667
  0
LINE
  8
CSLAYER1
  6
CONTINUOUS
 62
     7
 10
621.578674
 20
2051.004667
 11
620.879785
 21
2051.131059
  0
LINE
  8
CSLAYER1
  6
CONTINUOUS
 62
     7
 10
620.879785
 20
2051.131059
 11
620.202761
 21
2051.291909
  0
LINE
  8
CSLAYER1
  6
CONTINUOUS
 62
     7
 10
620.202761
 20
2051.291909
 11
619.552754
 21
2051.485991
  0
LINE
  8
CSLAYER1
  6
CONTINUOUS
 62
     7
 10
619.552754
 20
2051.485991
 11
618.934712
 21
2051.711829
  0
LINE
  8
CSLAYER1
  6
CONTINUOUS
 62
     7
 10
618.934712
 20
2051.711829
 11
618.353338
 21
2051.967704
  0
LINE
  8
CSLAYER1
  6
CONTINUOUS
 62
     7
 10
618.353338
 20
2051.967704
 11
617.813057
 21
2052.251668
  0
LINE
  8
CSLAYER1
  6
CONTINUOUS
 62
     7
 10
617.813057
 20
2052.251668
 11
617.317981
 21
2052.561560
  0
LINE
  8
CSLAYER1
  6
CONTINUOUS
 62
     7
 10
617.317981
 20
2052.561560
 11
616.871877
 21
2052.895023
  0
LINE
  8
CSLAYER1
  6
CONTINUOUS
 62
     7
 10
616.871877
 20
2052.895023
 11
616.478141
 21
2053.249517
  0
LINE
  8
CSLAYER1
  6
CONTINUOUS
 62
     7
 10
616.478141
 20
2053.249517
 11
616.139769
 21
2053.622345
  0
LINE
  8
CSLAYER1
  6
CONTINUOUS
 62
     7
 10
616.139769
 20
2053.622345
 11
615.859336
 21
2054.010671
  0
LINE
  8
CSLAYER1
  6
CONTINUOUS
 62
     7
 10
615.859336
 20
2054.010671
 11
615.638977
 21
2054.411537
  0
LINE
  8
CSLAYER1
  6
CONTINUOUS
 62
     7
 10
615.638977
 20
2054.411537
 11
615.480369
 21
2054.821894
  0
LINE
  8
CSLAYER1
  6
CONTINUOUS
 62
     7
 10
615.480369
 20
2054.821894
 11
615.384719
 21
2055.238618
  0
LINE
  8
CSLAYER1
  6
CONTINUOUS
 62
     7
 10
615.384719
 20
2055.238618
 11
615.352754
 21
2055.658538
  0
LINE
  8
CSLAYER1
  6
CONTINUOUS
 62
     7
 10
617.184791
 20
2060.129100
 11
647.284590
 21
2078.937542
  0
LINE
  8
CSLAYER1
  6
CONTINUOUS
 62
     7
 10
619.737175
 20
2058.362774
 11
650.683758
 21
2077.700346
  0
LINE
  8
CSLAYER1
  6
CONTINUOUS
 62
     7
 10
629.692451
 20
2052.251668
 11
658.389174
 21
2070.183370
  0
LINE
  8
CSLAYER1
  6
CONTINUOUS
 62
     7
 10
629.692451
 20
2057.069710
 11
658.282373
 21
2074.934676
  0
LINE
  8
CSLAYER1
  6
CONTINUOUS
 62
     7
 10
631.079860
 20
2058.728007
 11
657.482094
 21
2075.225954
  0
LINE
  8
CSLAYER1
  6
CONTINUOUS
 62
     7
 10
623.933036
 20
2057.623407
 11
654.082926
 21
2076.463150
  0
LINE
  8
CSLAYER1
  6
CONTINUOUS
 62
     7
 10
650.422277
 20
2083.621618
 11
650.446570
 21
2083.940757
  0
LINE
  8
CSLAYER1
  6
CONTINUOUS
 62
     7
 10
650.446570
 20
2083.940757
 11
650.519264
 21
2084.257468
  0
LINE
  8
CSLAYER1
  6
CONTINUOUS
 62
     7
 10
650.519264
 20
2084.257468
 11
650.639806
 21
2084.569339
  0
LINE
  8
CSLAYER1
  6
CONTINUOUS
 62
     7
 10
650.639806
 20
2084.569339
 11
650.807279
 21
2084.873997
  0
LINE
  8
CSLAYER1
  6
CONTINUOUS
 62
     7
 10
650.807279
 20
2084.873997
 11
651.020408
 21
2085.169125
  0
LINE
  8
CSLAYER1
  6
CONTINUOUS
 62
     7
 10
651.020408
 20
2085.169125
 11
651.277571
 21
2085.452474
  0
LINE
  8
CSLAYER1
  6
CONTINUOUS
 62
     7
 10
651.277571
 20
2085.452474
 11
651.576810
 21
2085.721890
  0
LINE
  8
CSLAYER1
  6
CONTINUOUS
 62
     7
 10
651.576810
 20
2085.721890
 11
651.915849
 21
2085.975321
  0
LINE
  8
CSLAYER1
  6
CONTINUOUS
 62
     7
 10
651.915849
 20
2085.975321
 11
652.292107
 21
2086.210840
  0
LINE
  8
CSLAYER1
  6
CONTINUOUS
 62
     7
 10
652.292107
 20
2086.210840
 11
652.702721
 21
2086.426652
  0
LINE
  8
CSLAYER1
  6
CONTINUOUS
 62
     7
 10
652.702721
 20
2086.426652
 11
653.144565
 21
2086.621117
  0
LINE
  8
CSLAYER1
  6
CONTINUOUS
 62
     7
 10
653.144565
 20
2086.621117
 11
653.614277
 21
2086.792754
  0
LINE
  8
CSLAYER1
  6
CONTINUOUS
 62
     7
 10
653.614277
 20
2086.792754
 11
654.108282
 21
2086.940256
  0
LINE
  8
CSLAYER1
  6
CONTINUOUS
 62
     7
 10
654.108282
 20
2086.940256
 11
654.622820
 21
2087.062502
  0
LINE
  8
CSLAYER1
  6
CONTINUOUS
 62
     7
 10
654.622820
 20
2087.062502
 11
655.153976
 21
2087.158560
  0
LINE
  8
CSLAYER1
  6
CONTINUOUS
 62
     7
 10
655.153976
 20
2087.158560
 11
655.697707
 21
2087.227701
  0
LINE
  8
CSLAYER1
  6
CONTINUOUS
 62
     7
 10
655.697707
 20
2087.227701
 11
656.249875
 21
2087.269396
  0
LINE
  8
CSLAYER1
  6
CONTINUOUS
 62
     7
 10
656.249875
 20
2087.269396
 11
656.806277
 21
2087.283330
  0
LINE
  8
CSLAYER1
  6
CONTINUOUS
 62
     7
 10
656.806277
 20
2087.283330
 11
657.362679
 21
2087.269396
  0
LINE
  8
CSLAYER1
  6
CONTINUOUS
 62
     7
 10
657.362679
 20
2087.269396
 11
657.914847
 21
2087.227701
  0
LINE
  8
CSLAYER1
  6
CONTINUOUS
 62
     7
 10
657.914847
 20
2087.227701
 11
658.458578
 21
2087.158560
  0
LINE
  8
CSLAYER1
  6
CONTINUOUS
 62
     7
 10
658.458578
 20
2087.158560
 11
658.989733
 21
2087.062502
  0
LINE
  8
CSLAYER1
  6
CONTINUOUS
 62
     7
 10
658.989733
 20
2087.062502
 11
659.504272
 21
2086.940256
  0
LINE
  8
CSLAYER1
  6
CONTINUOUS
 62
     7
 10
659.504272
 20
2086.940256
 11
659.998277
 21
2086.792754
  0
LINE
  8
CSLAYER1
  6
CONTINUOUS
 62
     7
 10
659.998277
 20
2086.792754
 11
660.467989
 21
2086.621117
  0
LINE
  8
CSLAYER1
  6
CONTINUOUS
 62
     7
 10
660.467989
 20
2086.621117
 11
660.909833
 21
2086.426652
  0
LINE
  8
CSLAYER1
  6
CONTINUOUS
 62
     7
 10
660.909833
 20
2086.426652
 11
661.320447
 21
2086.210840
  0
LINE
  8
CSLAYER1
  6
CONTINUOUS
 62
     7
 10
661.320447
 20
2086.210840
 11
661.696705
 21
2085.975321
  0
LINE
  8
CSLAYER1
  6
CONTINUOUS
 62
     7
 10
661.696705
 20
2085.975321
 11
662.035743
 21
2085.721890
  0
LINE
  8
CSLAYER1
  6
CONTINUOUS
 62
     7
 10
662.035743
 20
2085.721890
 11
662.334983
 21
2085.452474
  0
LINE
  8
CSLAYER1
  6
CONTINUOUS
 62
     7
 10
662.334983
 20
2085.452474
 11
662.592146
 21
2085.169125
  0
LINE
  8
CSLAYER1
  6
CONTINUOUS
 62
     7
 10
662.592146
 20
2085.169125
 11
662.805275
 21
2084.873997
  0
LINE
  8
CSLAYER1
  6
CONTINUOUS
 62
     7
 10
662.805275
 20
2084.873997
 11
662.972747
 21
2084.569339
  0
LINE
  8
CSLAYER1
  6
CONTINUOUS
 62
     7
 10
662.972747
 20
2084.569339
 11
663.093290
 21
2084.257468
  0
LINE
  8
CSLAYER1
  6
CONTINUOUS
 62
     7
 10
663.093290
 20
2084.257468
 11
663.165984
 21
2083.940757
  0
LINE
  8
CSLAYER1
  6
CONTINUOUS
 62
     7
 10
663.165984
 20
2083.940757
 11
663.190277
 21
2083.621618
  0
LINE
  8
CSLAYER1
  6
CONTINUOUS
 62
     7
 10
663.190277
 20
2083.621618
 11
663.165984
 21
2083.302479
  0
LINE
  8
CSLAYER1
  6
CONTINUOUS
 62
     7
 10
663.165984
 20
2083.302479
 11
663.093290
 21
2082.985769
  0
LINE
  8
CSLAYER1
  6
CONTINUOUS
 62
     7
 10
663.093290
 20
2082.985769
 11
662.972747
 21
2082.673897
  0
LINE
  8
CSLAYER1
  6
CONTINUOUS
 62
     7
 10
662.972747
 20
2082.673897
 11
662.805275
 21
2082.369239
  0
LINE
  8
CSLAYER1
  6
CONTINUOUS
 62
     7
 10
662.805275
 20
2082.369239
 11
662.592146
 21
2082.074112
  0
LINE
  8
CSLAYER1
  6
CONTINUOUS
 62
     7
 10
662.592146
 20
2082.074112
 11
662.334983
 21
2081.790762
  0
LINE
  8
CSLAYER1
  6
CONTINUOUS
 62
     7
 10
662.334983
 20
2081.790762
 11
662.035743
 21
2081.521347
  0
LINE
  8
CSLAYER1
  6
CONTINUOUS
 62
     7
 10
662.035743
 20
2081.521347
 11
661.696705
 21
2081.267915
  0
LINE
  8
CSLAYER1
  6
CONTINUOUS
 62
     7
 10
661.696705
 20
2081.267915
 11
661.320447
 21
2081.032397
  0
LINE
  8
CSLAYER1
  6
CONTINUOUS
 62
     7
 10
661.320447
 20
2081.032397
 11
660.909833
 21
2080.816584
  0
LINE
  8
CSLAYER1
  6
CONTINUOUS
 62
     7
 10
660.909833
 20
2080.816584
 11
660.467989
 21
2080.622119
  0
LINE
  8
CSLAYER1
  6
CONTINUOUS
 62
     7
 10
660.467989
 20
2080.622119
 11
659.998277
 21
2080.450483
  0
LINE
  8
CSLAYER1
  6
CONTINUOUS
 62
     7
 10
659.998277
 20
2080.450483
 11
659.504272
 21
2080.302980
  0
LINE
  8
CSLAYER1
  6
CONTINUOUS
 62
     7
 10
659.504272
 20
2080.302980
 11
658.989733
 21
2080.180734
  0
LINE
  8
CSLAYER1
  6
CONTINUOUS
 62
     7
 10
658.989733
 20
2080.180734
 11
658.458578
 21
2080.084676
  0
LINE
  8
CSLAYER1
  6
CONTINUOUS
 62
     7
 10
658.458578
 20
2080.084676
 11
657.914847
 21
2080.015536
  0
LINE
  8
CSLAYER1
  6
CONTINUOUS
 62
     7
 10
657.914847
 20
2080.015536
 11
657.362679
 21
2079.973840
  0
LINE
  8
CSLAYER1
  6
CONTINUOUS
 62
     7
 10
657.362679
 20
2079.973840
 11
656.806277
 21
2079.959906
  0
LINE
  8
CSLAYER1
  6
CONTINUOUS
 62
     7
 10
656.806277
 20
2079.959906
 11
656.249875
 21
2079.973840
  0
LINE
  8
CSLAYER1
  6
CONTINUOUS
 62
     7
 10
656.249875
 20
2079.973840
 11
655.697707
 21
2080.015536
  0
LINE
  8
CSLAYER1
  6
CONTINUOUS
 62
     7
 10
655.697707
 20
2080.015536
 11
655.153976
 21
2080.084676
  0
LINE
  8
CSLAYER1
  6
CONTINUOUS
 62
     7
 10
655.153976
 20
2080.084676
 11
654.622820
 21
2080.180734
  0
LINE
  8
CSLAYER1
  6
CONTINUOUS
 62
     7
 10
654.622820
 20
2080.180734
 11
654.108282
 21
2080.302980
  0
LINE
  8
CSLAYER1
  6
CONTINUOUS
 62
     7
 10
654.108282
 20
2080.302980
 11
653.614277
 21
2080.450483
  0
LINE
  8
CSLAYER1
  6
CONTINUOUS
 62
     7
 10
653.614277
 20
2080.450483
 11
653.144565
 21
2080.622119
  0
LINE
  8
CSLAYER1
  6
CONTINUOUS
 62
     7
 10
653.144565
 20
2080.622119
 11
652.702721
 21
2080.816584
  0
LINE
  8
CSLAYER1
  6
CONTINUOUS
 62
     7
 10
652.702721
 20
2080.816584
 11
652.292107
 21
2081.032397
  0
LINE
  8
CSLAYER1
  6
CONTINUOUS
 62
     7
 10
652.292107
 20
2081.032397
 11
651.915849
 21
2081.267915
  0
LINE
  8
CSLAYER1
  6
CONTINUOUS
 62
     7
 10
651.915849
 20
2081.267915
 11
651.576810
 21
2081.521347
  0
LINE
  8
CSLAYER1
  6
CONTINUOUS
 62
     7
 10
651.576810
 20
2081.521347
 11
651.277571
 21
2081.790762
  0
LINE
  8
CSLAYER1
  6
CONTINUOUS
 62
     7
 10
651.277571
 20
2081.790762
 11
651.020408
 21
2082.074112
  0
LINE
  8
CSLAYER1
  6
CONTINUOUS
 62
     7
 10
651.020408
 20
2082.074112
 11
650.807279
 21
2082.369239
  0
LINE
  8
CSLAYER1
  6
CONTINUOUS
 62
     7
 10
650.807279
 20
2082.369239
 11
650.639806
 21
2082.673897
  0
LINE
  8
CSLAYER1
  6
CONTINUOUS
 62
     7
 10
650.639806
 20
2082.673897
 11
650.519264
 21
2082.985769
  0
LINE
  8
CSLAYER1
  6
CONTINUOUS
 62
     7
 10
650.519264
 20
2082.985769
 11
650.446570
 21
2083.302479
  0
LINE
  8
CSLAYER1
  6
CONTINUOUS
 62
     7
 10
650.446570
 20
2083.302479
 11
650.422277
 21
2083.621618
  0
LINE
  8
CSLAYER1
  6
CONTINUOUS
 62
     7
 10
653.446277
 20
2083.621618
 11
653.459063
 21
2083.789586
  0
LINE
  8
CSLAYER1
  6
CONTINUOUS
 62
     7
 10
653.459063
 20
2083.789586
 11
653.497323
 21
2083.956276
  0
LINE
  8
CSLAYER1
  6
CONTINUOUS
 62
     7
 10
653.497323
 20
2083.956276
 11
653.560766
 21
2084.120419
  0
LINE
  8
CSLAYER1
  6
CONTINUOUS
 62
     7
 10
653.560766
 20
2084.120419
 11
653.648910
 21
2084.280765
  0
LINE
  8
CSLAYER1
  6
CONTINUOUS
 62
     7
 10
653.648910
 20
2084.280765
 11
653.761083
 21
2084.436095
  0
LINE
  8
CSLAYER1
  6
CONTINUOUS
 62
     7
 10
653.761083
 20
2084.436095
 11
653.896431
 21
2084.585227
  0
LINE
  8
CSLAYER1
  6
CONTINUOUS
 62
     7
 10
653.896431
 20
2084.585227
 11
654.053926
 21
2084.727024
  0
LINE
  8
CSLAYER1
  6
CONTINUOUS
 62
     7
 10
654.053926
 20
2084.727024
 11
654.232367
 21
2084.860409
  0
LINE
  8
CSLAYER1
  6
CONTINUOUS
 62
     7
 10
654.232367
 20
2084.860409
 11
654.430398
 21
2084.984366
  0
LINE
  8
CSLAYER1
  6
CONTINUOUS
 62
     7
 10
654.430398
 20
2084.984366
 11
654.646510
 21
2085.097952
  0
LINE
  8
CSLAYER1
  6
CONTINUOUS
 62
     7
 10
654.646510
 20
2085.097952
 11
654.879060
 21
2085.200302
  0
LINE
  8
CSLAYER1
  6
CONTINUOUS
 62
     7
 10
654.879060
 20
2085.200302
 11
655.126277
 21
2085.290637
  0
LINE
  8
CSLAYER1
  6
CONTINUOUS
 62
     7
 10
655.126277
 20
2085.290637
 11
655.386279
 21
2085.368270
  0
LINE
  8
CSLAYER1
  6
CONTINUOUS
 62
     7
 10
655.386279
 20
2085.368270
 11
655.657089
 21
2085.432610
  0
LINE
  8
CSLAYER1
  6
CONTINUOUS
 62
     7
 10
655.657089
 20
2085.432610
 11
655.936645
 21
2085.483167
  0
LINE
  8
CSLAYER1
  6
CONTINUOUS
 62
     7
 10
655.936645
 20
2085.483167
 11
656.222819
 21
2085.519556
  0
LINE
  8
CSLAYER1
  6
CONTINUOUS
 62
     7
 10
656.222819
 20
2085.519556
 11
656.513434
 21
2085.541501
  0
LINE
  8
CSLAYER1
  6
CONTINUOUS
 62
     7
 10
656.513434
 20
2085.541501
 11
656.806277
 21
2085.548835
  0
LINE
  8
CSLAYER1
  6
CONTINUOUS
 62
     7
 10
656.806277
 20
2085.548835
 11
657.099120
 21
2085.541501
  0
LINE
  8
CSLAYER1
  6
CONTINUOUS
 62
     7
 10
657.099120
 20
2085.541501
 11
657.389735
 21
2085.519556
  0
LINE
  8
CSLAYER1
  6
CONTINUOUS
 62
     7
 10
657.389735
 20
2085.519556
 11
657.675909
 21
2085.483167
  0
LINE
  8
CSLAYER1
  6
CONTINUOUS
 62
     7
 10
657.675909
 20
2085.483167
 11
657.955464
 21
2085.432610
  0
LINE
  8
CSLAYER1
  6
CONTINUOUS
 62
     7
 10
657.955464
 20
2085.432610
 11
658.226274
 21
2085.368270
  0
LINE
  8
CSLAYER1
  6
CONTINUOUS
 62
     7
 10
658.226274
 20
2085.368270
 11
658.486277
 21
2085.290637
  0
LINE
  8
CSLAYER1
  6
CONTINUOUS
 62
     7
 10
658.486277
 20
2085.290637
 11
658.733494
 21
2085.200302
  0
LINE
  8
CSLAYER1
  6
CONTINUOUS
 62
     7
 10
658.733494
 20
2085.200302
 11
658.966043
 21
2085.097952
  0
LINE
  8
CSLAYER1
  6
CONTINUOUS
 62
     7
 10
658.966043
 20
2085.097952
 11
659.182156
 21
2084.984366
  0
LINE
  8
CSLAYER1
  6
CONTINUOUS
 62
     7
 10
659.182156
 20
2084.984366
 11
659.380186
 21
2084.860409
  0
LINE
  8
CSLAYER1
  6
CONTINUOUS
 62
     7
 10
659.380186
 20
2084.860409
 11
659.558628
 21
2084.727024
  0
LINE
  8
CSLAYER1
  6
CONTINUOUS
 62
     7
 10
659.558628
 20
2084.727024
 11
659.716122
 21
2084.585227
  0
LINE
  8
CSLAYER1
  6
CONTINUOUS
 62
     7
 10
659.716122
 20
2084.585227
 11
659.851471
 21
2084.436095
  0
LINE
  8
CSLAYER1
  6
CONTINUOUS
 62
     7
 10
659.851471
 20
2084.436095
 11
659.963644
 21
2084.280765
  0
LINE
  8
CSLAYER1
  6
CONTINUOUS
 62
     7
 10
659.963644
 20
2084.280765
 11
660.051788
 21
2084.120419
  0
LINE
  8
CSLAYER1
  6
CONTINUOUS
 62
     7
 10
660.051788
 20
2084.120419
 11
660.115231
 21
2083.956276
  0
LINE
  8
CSLAYER1
  6
CONTINUOUS
 62
     7
 10
660.115231
 20
2083.956276
 11
660.153491
 21
2083.789586
  0
LINE
  8
CSLAYER1
  6
CONTINUOUS
 62
     7
 10
660.153491
 20
2083.789586
 11
660.166277
 21
2083.621618
  0
LINE
  8
CSLAYER1
  6
CONTINUOUS
 62
     7
 10
660.166277
 20
2083.621618
 11
660.153491
 21
2083.453650
  0
LINE
  8
CSLAYER1
  6
CONTINUOUS
 62
     7
 10
660.153491
 20
2083.453650
 11
660.115231
 21
2083.286961
  0
LINE
  8
CSLAYER1
  6
CONTINUOUS
 62
     7
 10
660.115231
 20
2083.286961
 11
660.051788
 21
2083.122818
  0
LINE
  8
CSLAYER1
  6
CONTINUOUS
 62
     7
 10
660.051788
 20
2083.122818
 11
659.963644
 21
2082.962471
  0
LINE
  8
CSLAYER1
  6
CONTINUOUS
 62
     7
 10
659.963644
 20
2082.962471
 11
659.851471
 21
2082.807141
  0
LINE
  8
CSLAYER1
  6
CONTINUOUS
 62
     7
 10
659.851471
 20
2082.807141
 11
659.716122
 21
2082.658010
  0
LINE
  8
CSLAYER1
  6
CONTINUOUS
 62
     7
 10
659.716122
 20
2082.658010
 11
659.558628
 21
2082.516212
  0
LINE
  8
CSLAYER1
  6
CONTINUOUS
 62
     7
 10
659.558628
 20
2082.516212
 11
659.380186
 21
2082.382827
  0
LINE
  8
CSLAYER1
  6
CONTINUOUS
 62
     7
 10
659.380186
 20
2082.382827
 11
659.182156
 21
2082.258870
  0
LINE
  8
CSLAYER1
  6
CONTINUOUS
 62
     7
 10
659.182156
 20
2082.258870
 11
658.966043
 21
2082.145284
  0
LINE
  8
CSLAYER1
  6
CONTINUOUS
 62
     7
 10
658.966043
 20
2082.145284
 11
658.733494
 21
2082.042935
  0
LINE
  8
CSLAYER1
  6
CONTINUOUS
 62
     7
 10
658.733494
 20
2082.042935
 11
658.486277
 21
2081.952599
  0
LINE
  8
CSLAYER1
  6
CONTINUOUS
 62
     7
 10
658.486277
 20
2081.952599
 11
658.226274
 21
2081.874967
  0
LINE
  8
CSLAYER1
  6
CONTINUOUS
 62
     7
 10
658.226274
 20
2081.874967
 11
657.955464
 21
2081.810627
  0
LINE
  8
CSLAYER1
  6
CONTINUOUS
 62
     7
 10
657.955464
 20
2081.810627
 11
657.675909
 21
2081.760070
  0
LINE
  8
CSLAYER1
  6
CONTINUOUS
 62
     7
 10
657.675909
 20
2081.760070
 11
657.389735
 21
2081.723680
  0
LINE
  8
CSLAYER1
  6
CONTINUOUS
 62
     7
 10
657.389735
 20
2081.723680
 11
657.099120
 21
2081.701735
  0
LINE
  8
CSLAYER1
  6
CONTINUOUS
 62
     7
 10
657.099120
 20
2081.701735
 11
656.806277
 21
2081.694401
  0
LINE
  8
CSLAYER1
  6
CONTINUOUS
 62
     7
 10
656.806277
 20
2081.694401
 11
656.513434
 21
2081.701735
  0
LINE
  8
CSLAYER1
  6
CONTINUOUS
 62
     7
 10
656.513434
 20
2081.701735
 11
656.222819
 21
2081.723680
  0
LINE
  8
CSLAYER1
  6
CONTINUOUS
 62
     7
 10
656.222819
 20
2081.723680
 11
655.936645
 21
2081.760070
  0
LINE
  8
CSLAYER1
  6
CONTINUOUS
 62
     7
 10
655.936645
 20
2081.760070
 11
655.657089
 21
2081.810627
  0
LINE
  8
CSLAYER1
  6
CONTINUOUS
 62
     7
 10
655.657089
 20
2081.810627
 11
655.386279
 21
2081.874967
  0
LINE
  8
CSLAYER1
  6
CONTINUOUS
 62
     7
 10
655.386279
 20
2081.874967
 11
655.126277
 21
2081.952599
  0
LINE
  8
CSLAYER1
  6
CONTINUOUS
 62
     7
 10
655.126277
 20
2081.952599
 11
654.879060
 21
2082.042935
  0
LINE
  8
CSLAYER1
  6
CONTINUOUS
 62
     7
 10
654.879060
 20
2082.042935
 11
654.646510
 21
2082.145284
  0
LINE
  8
CSLAYER1
  6
CONTINUOUS
 62
     7
 10
654.646510
 20
2082.145284
 11
654.430398
 21
2082.258870
  0
LINE
  8
CSLAYER1
  6
CONTINUOUS
 62
     7
 10
654.430398
 20
2082.258870
 11
654.232367
 21
2082.382827
  0
LINE
  8
CSLAYER1
  6
CONTINUOUS
 62
     7
 10
654.232367
 20
2082.382827
 11
654.053926
 21
2082.516212
  0
LINE
  8
CSLAYER1
  6
CONTINUOUS
 62
     7
 10
654.053926
 20
2082.516212
 11
653.896431
 21
2082.658010
  0
LINE
  8
CSLAYER1
  6
CONTINUOUS
 62
     7
 10
653.896431
 20
2082.658010
 11
653.761083
 21
2082.807141
  0
LINE
  8
CSLAYER1
  6
CONTINUOUS
 62
     7
 10
653.761083
 20
2082.807141
 11
653.648910
 21
2082.962471
  0
LINE
  8
CSLAYER1
  6
CONTINUOUS
 62
     7
 10
653.648910
 20
2082.962471
 11
653.560766
 21
2083.122818
  0
LINE
  8
CSLAYER1
  6
CONTINUOUS
 62
     7
 10
653.560766
 20
2083.122818
 11
653.497323
 21
2083.286961
  0
LINE
  8
CSLAYER1
  6
CONTINUOUS
 62
     7
 10
653.497323
 20
2083.286961
 11
653.459063
 21
2083.453650
  0
LINE
  8
CSLAYER1
  6
CONTINUOUS
 62
     7
 10
653.459063
 20
2083.453650
 11
653.446277
 21
2083.621618
  0
LINE
  8
CSLAYER1
  6
CONTINUOUS
 62
     7
 10
663.190277
 20
2083.621618
 11
663.190277
 21
2079.992879
  0
LINE
  8
CSLAYER1
  6
CONTINUOUS
 62
     7
 10
650.422277
 20
2083.621618
 11
650.422277
 21
2079.992879
  0
LINE
  8
CSLAYER1
  6
CONTINUOUS
 62
     7
 10
660.342162
 20
2080.576141
 11
660.342162
 21
2076.947402
  0
LINE
  8
CSLAYER1
  6
CONTINUOUS
 62
     7
 10
653.023075
 20
2080.675590
 11
653.023075
 21
2077.046850
  0
LINE
  8
CSLAYER1
  6
CONTINUOUS
 62
     7
 10
663.190277
 20
2079.992879
 11
663.165984
 21
2079.673739
  0
LINE
  8
CSLAYER1
  6
CONTINUOUS
 62
     7
 10
663.165984
 20
2079.673739
 11
663.093290
 21
2079.357029
  0
LINE
  8
CSLAYER1
  6
CONTINUOUS
 62
     7
 10
663.093290
 20
2079.357029
 11
662.972747
 21
2079.045158
  0
LINE
  8
CSLAYER1
  6
CONTINUOUS
 62
     7
 10
662.972747
 20
2079.045158
 11
662.805275
 21
2078.740499
  0
LINE
  8
CSLAYER1
  6
CONTINUOUS
 62
     7
 10
662.805275
 20
2078.740499
 11
662.592146
 21
2078.445372
  0
LINE
  8
CSLAYER1
  6
CONTINUOUS
 62
     7
 10
662.592146
 20
2078.445372
 11
662.334983
 21
2078.162023
  0
LINE
  8
CSLAYER1
  6
CONTINUOUS
 62
     7
 10
662.334983
 20
2078.162023
 11
662.035743
 21
2077.892607
  0
LINE
  8
CSLAYER1
  6
CONTINUOUS
 62
     7
 10
662.035743
 20
2077.892607
 11
661.696705
 21
2077.639176
  0
LINE
  8
CSLAYER1
  6
CONTINUOUS
 62
     7
 10
661.696705
 20
2077.639176
 11
661.320447
 21
2077.403657
  0
LINE
  8
CSLAYER1
  6
CONTINUOUS
 62
     7
 10
661.320447
 20
2077.403657
 11
660.909833
 21
2077.187845
  0
LINE
  8
CSLAYER1
  6
CONTINUOUS
 62
     7
 10
660.909833
 20
2077.187845
 11
660.467989
 21
2076.993380
  0
LINE
  8
CSLAYER1
  6
CONTINUOUS
 62
     7
 10
660.467989
 20
2076.993380
 11
659.998277
 21
2076.821743
  0
LINE
  8
CSLAYER1
  6
CONTINUOUS
 62
     7
 10
659.998277
 20
2076.821743
 11
659.504272
 21
2076.674241
  0
LINE
  8
CSLAYER1
  6
CONTINUOUS
 62
     7
 10
659.504272
 20
2076.674241
 11
658.989733
 21
2076.551995
  0
LINE
  8
CSLAYER1
  6
CONTINUOUS
 62
     7
 10
658.989733
 20
2076.551995
 11
658.458578
 21
2076.455937
  0
LINE
  8
CSLAYER1
  6
CONTINUOUS
 62
     7
 10
658.458578
 20
2076.455937
 11
657.914847
 21
2076.386796
  0
LINE
  8
CSLAYER1
  6
CONTINUOUS
 62
     7
 10
657.914847
 20
2076.386796
 11
657.362679
 21
2076.345101
  0
LINE
  8
CSLAYER1
  6
CONTINUOUS
 62
     7
 10
657.362679
 20
2076.345101
 11
656.806277
 21
2076.331167
  0
LINE
  8
CSLAYER1
  6
CONTINUOUS
 62
     7
 10
656.806277
 20
2076.331167
 11
656.249875
 21
2076.345101
  0
LINE
  8
CSLAYER1
  6
CONTINUOUS
 62
     7
 10
656.249875
 20
2076.345101
 11
655.697707
 21
2076.386796
  0
LINE
  8
CSLAYER1
  6
CONTINUOUS
 62
     7
 10
655.697707
 20
2076.386796
 11
655.153976
 21
2076.455937
  0
LINE
  8
CSLAYER1
  6
CONTINUOUS
 62
     7
 10
655.153976
 20
2076.455937
 11
654.622820
 21
2076.551995
  0
LINE
  8
CSLAYER1
  6
CONTINUOUS
 62
     7
 10
654.622820
 20
2076.551995
 11
654.108282
 21
2076.674241
  0
LINE
  8
CSLAYER1
  6
CONTINUOUS
 62
     7
 10
654.108282
 20
2076.674241
 11
653.614277
 21
2076.821743
  0
LINE
  8
CSLAYER1
  6
CONTINUOUS
 62
     7
 10
653.614277
 20
2076.821743
 11
653.144565
 21
2076.993380
  0
LINE
  8
CSLAYER1
  6
CONTINUOUS
 62
     7
 10
653.144565
 20
2076.993380
 11
652.702721
 21
2077.187845
  0
LINE
  8
CSLAYER1
  6
CONTINUOUS
 62
     7
 10
652.702721
 20
2077.187845
 11
652.292107
 21
2077.403657
  0
LINE
  8
CSLAYER1
  6
CONTINUOUS
 62
     7
 10
652.292107
 20
2077.403657
 11
651.915849
 21
2077.639176
  0
LINE
  8
CSLAYER1
  6
CONTINUOUS
 62
     7
 10
651.915849
 20
2077.639176
 11
651.576810
 21
2077.892607
  0
LINE
  8
CSLAYER1
  6
CONTINUOUS
 62
     7
 10
651.576810
 20
2077.892607
 11
651.277571
 21
2078.162023
  0
LINE
  8
CSLAYER1
  6
CONTINUOUS
 62
     7
 10
651.277571
 20
2078.162023
 11
651.020408
 21
2078.445372
  0
LINE
  8
CSLAYER1
  6
CONTINUOUS
 62
     7
 10
651.020408
 20
2078.445372
 11
650.807279
 21
2078.740499
  0
LINE
  8
CSLAYER1
  6
CONTINUOUS
 62
     7
 10
650.807279
 20
2078.740499
 11
650.639806
 21
2079.045158
  0
LINE
  8
CSLAYER1
  6
CONTINUOUS
 62
     7
 10
650.639806
 20
2079.045158
 11
650.519264
 21
2079.357029
  0
LINE
  8
CSLAYER1
  6
CONTINUOUS
 62
     7
 10
650.519264
 20
2079.357029
 11
650.446570
 21
2079.673739
  0
LINE
  8
CSLAYER1
  6
CONTINUOUS
 62
     7
 10
650.446570
 20
2079.673739
 11
650.422277
 21
2079.992879
  0
LINE
  8
CSLAYER1
  6
CONTINUOUS
 62
     7
 10
653.023075
 20
2066.830260
 11
653.023075
 21
2066.281210
  0
LINE
  8
CSLAYER1
  6
CONTINUOUS
 62
     7
 10
663.190277
 20
2069.227239
 11
663.165984
 21
2068.908100
  0
LINE
  8
CSLAYER1
  6
CONTINUOUS
 62
     7
 10
663.165984
 20
2068.908100
 11
663.093290
 21
2068.591389
  0
LINE
  8
CSLAYER1
  6
CONTINUOUS
 62
     7
 10
663.093290
 20
2068.591389
 11
662.972747
 21
2068.279518
  0
LINE
  8
CSLAYER1
  6
CONTINUOUS
 62
     7
 10
662.972747
 20
2068.279518
 11
662.805275
 21
2067.974860
  0
LINE
  8
CSLAYER1
  6
CONTINUOUS
 62
     7
 10
662.805275
 20
2067.974860
 11
662.592146
 21
2067.679733
  0
LINE
  8
CSLAYER1
  6
CONTINUOUS
 62
     7
 10
662.592146
 20
2067.679733
 11
662.334983
 21
2067.396383
  0
LINE
  8
CSLAYER1
  6
CONTINUOUS
 62
     7
 10
662.334983
 20
2067.396383
 11
662.035743
 21
2067.126967
  0
LINE
  8
CSLAYER1
  6
CONTINUOUS
 62
     7
 10
662.035743
 20
2067.126967
 11
661.696705
 21
2066.873536
  0
LINE
  8
CSLAYER1
  6
CONTINUOUS
 62
     7
 10
661.696705
 20
2066.873536
 11
661.320447
 21
2066.638018
  0
LINE
  8
CSLAYER1
  6
CONTINUOUS
 62
     7
 10
661.320447
 20
2066.638018
 11
660.909833
 21
2066.422205
  0
LINE
  8
CSLAYER1
  6
CONTINUOUS
 62
     7
 10
660.909833
 20
2066.422205
 11
660.467989
 21
2066.227740
  0
LINE
  8
CSLAYER1
  6
CONTINUOUS
 62
     7
 10
660.467989
 20
2066.227740
 11
659.998277
 21
2066.056103
  0
LINE
  8
CSLAYER1
  6
CONTINUOUS
 62
     7
 10
659.998277
 20
2066.056103
 11
659.504272
 21
2065.908601
  0
LINE
  8
CSLAYER1
  6
CONTINUOUS
 62
     7
 10
659.504272
 20
2065.908601
 11
658.989733
 21
2065.786355
  0
LINE
  8
CSLAYER1
  6
CONTINUOUS
 62
     7
 10
658.989733
 20
2065.786355
 11
658.458578
 21
2065.690297
  0
LINE
  8
CSLAYER1
  6
CONTINUOUS
 62
     7
 10
658.458578
 20
2065.690297
 11
657.914847
 21
2065.621157
  0
LINE
  8
CSLAYER1
  6
CONTINUOUS
 62
     7
 10
657.914847
 20
2065.621157
 11
657.362679
 21
2065.579461
  0
LINE
  8
CSLAYER1
  6
CONTINUOUS
 62
     7
 10
657.362679
 20
2065.579461
 11
656.806277
 21
2065.565527
  0
LINE
  8
CSLAYER1
  6
CONTINUOUS
 62
     7
 10
656.806277
 20
2065.565527
 11
656.249875
 21
2065.579461
  0
LINE
  8
CSLAYER1
  6
CONTINUOUS
 62
     7
 10
656.249875
 20
2065.579461
 11
655.697707
 21
2065.621157
  0
LINE
  8
CSLAYER1
  6
CONTINUOUS
 62
     7
 10
655.697707
 20
2065.621157
 11
655.153976
 21
2065.690297
  0
LINE
  8
CSLAYER1
  6
CONTINUOUS
 62
     7
 10
655.153976
 20
2065.690297
 11
654.622820
 21
2065.786355
  0
LINE
  8
CSLAYER1
  6
CONTINUOUS
 62
     7
 10
654.622820
 20
2065.786355
 11
654.108282
 21
2065.908601
  0
LINE
  8
CSLAYER1
  6
CONTINUOUS
 62
     7
 10
654.108282
 20
2065.908601
 11
653.614277
 21
2066.056103
  0
LINE
  8
CSLAYER1
  6
CONTINUOUS
 62
     7
 10
653.614277
 20
2066.056103
 11
653.144565
 21
2066.227740
  0
LINE
  8
CSLAYER1
  6
CONTINUOUS
 62
     7
 10
653.144565
 20
2066.227740
 11
652.702721
 21
2066.422205
  0
LINE
  8
CSLAYER1
  6
CONTINUOUS
 62
     7
 10
652.702721
 20
2066.422205
 11
652.522031
 21
2066.517173
  0
LINE
  8
CSLAYER1
  6
CONTINUOUS
 62
     7
 10
663.190277
 20
2074.274119
 11
663.190277
 21
2069.227239
  0
LINE
  8
CSLAYER1
  6
CONTINUOUS
 62
     7
 10
660.166277
 20
2061.642713
 11
660.166277
 21
2066.117492
  0
LINE
  8
CSLAYER1
  6
CONTINUOUS
 62
     7
 10
653.446277
 20
2061.642713
 11
653.446277
 21
2066.117492
  0
LINE
  8
CSLAYER1
  6
CONTINUOUS
 62
     7
 10
660.166277
 20
2061.642713
 11
660.153491
 21
2061.474745
  0
LINE
  8
CSLAYER1
  6
CONTINUOUS
 62
     7
 10
660.153491
 20
2061.474745
 11
660.115231
 21
2061.308056
  0
LINE
  8
CSLAYER1
  6
CONTINUOUS
 62
     7
 10
660.115231
 20
2061.308056
 11
660.051788
 21
2061.143913
  0
LINE
  8
CSLAYER1
  6
CONTINUOUS
 62
     7
 10
660.051788
 20
2061.143913
 11
659.963644
 21
2060.983566
  0
LINE
  8
CSLAYER1
  6
CONTINUOUS
 62
     7
 10
659.963644
 20
2060.983566
 11
659.851471
 21
2060.828236
  0
LINE
  8
CSLAYER1
  6
CONTINUOUS
 62
     7
 10
659.851471
 20
2060.828236
 11
659.716122
 21
2060.679105
  0
LINE
  8
CSLAYER1
  6
CONTINUOUS
 62
     7
 10
659.716122
 20
2060.679105
 11
659.558628
 21
2060.537307
  0
LINE
  8
CSLAYER1
  6
CONTINUOUS
 62
     7
 10
659.558628
 20
2060.537307
 11
659.380186
 21
2060.403922
  0
LINE
  8
CSLAYER1
  6
CONTINUOUS
 62
     7
 10
659.380186
 20
2060.403922
 11
659.182156
 21
2060.279965
  0
LINE
  8
CSLAYER1
  6
CONTINUOUS
 62
     7
 10
659.182156
 20
2060.279965
 11
658.966043
 21
2060.166380
  0
LINE
  8
CSLAYER1
  6
CONTINUOUS
 62
     7
 10
658.966043
 20
2060.166380
 11
658.733494
 21
2060.064030
  0
LINE
  8
CSLAYER1
  6
CONTINUOUS
 62
     7
 10
658.733494
 20
2060.064030
 11
658.486277
 21
2059.973695
  0
LINE
  8
CSLAYER1
  6
CONTINUOUS
 62
     7
 10
658.486277
 20
2059.973695
 11
658.226274
 21
2059.896062
  0
LINE
  8
CSLAYER1
  6
CONTINUOUS
 62
     7
 10
658.226274
 20
2059.896062
 11
657.955464
 21
2059.831722
  0
LINE
  8
CSLAYER1
  6
CONTINUOUS
 62
     7
 10
657.955464
 20
2059.831722
 11
657.675909
 21
2059.781165
  0
LINE
  8
CSLAYER1
  6
CONTINUOUS
 62
     7
 10
657.675909
 20
2059.781165
 11
657.389735
 21
2059.744775
  0
LINE
  8
CSLAYER1
  6
CONTINUOUS
 62
     7
 10
657.389735
 20
2059.744775
 11
657.099120
 21
2059.722830
  0
LINE
  8
CSLAYER1
  6
CONTINUOUS
 62
     7
 10
657.099120
 20
2059.722830
 11
656.806277
 21
2059.715496
  0
LINE
  8
CSLAYER1
  6
CONTINUOUS
 62
     7
 10
656.806277
 20
2059.715496
 11
656.513434
 21
2059.722830
  0
LINE
  8
CSLAYER1
  6
CONTINUOUS
 62
     7
 10
656.513434
 20
2059.722830
 11
656.222819
 21
2059.744775
  0
LINE
  8
CSLAYER1
  6
CONTINUOUS
 62
     7
 10
656.222819
 20
2059.744775
 11
655.936645
 21
2059.781165
  0
LINE
  8
CSLAYER1
  6
CONTINUOUS
 62
     7
 10
655.936645
 20
2059.781165
 11
655.657089
 21
2059.831722
  0
LINE
  8
CSLAYER1
  6
CONTINUOUS
 62
     7
 10
655.657089
 20
2059.831722
 11
655.386279
 21
2059.896062
  0
LINE
  8
CSLAYER1
  6
CONTINUOUS
 62
     7
 10
655.386279
 20
2059.896062
 11
655.126277
 21
2059.973695
  0
LINE
  8
CSLAYER1
  6
CONTINUOUS
 62
     7
 10
655.126277
 20
2059.973695
 11
654.879060
 21
2060.064030
  0
LINE
  8
CSLAYER1
  6
CONTINUOUS
 62
     7
 10
654.879060
 20
2060.064030
 11
654.646510
 21
2060.166380
  0
LINE
  8
CSLAYER1
  6
CONTINUOUS
 62
     7
 10
654.646510
 20
2060.166380
 11
654.430398
 21
2060.279965
  0
LINE
  8
CSLAYER1
  6
CONTINUOUS
 62
     7
 10
654.430398
 20
2060.279965
 11
654.232367
 21
2060.403922
  0
LINE
  8
CSLAYER1
  6
CONTINUOUS
 62
     7
 10
654.232367
 20
2060.403922
 11
654.053926
 21
2060.537307
  0
LINE
  8
CSLAYER1
  6
CONTINUOUS
 62
     7
 10
654.053926
 20
2060.537307
 11
653.896431
 21
2060.679105
  0
LINE
  8
CSLAYER1
  6
CONTINUOUS
 62
     7
 10
653.896431
 20
2060.679105
 11
653.761083
 21
2060.828236
  0
LINE
  8
CSLAYER1
  6
CONTINUOUS
 62
     7
 10
653.761083
 20
2060.828236
 11
653.648910
 21
2060.983566
  0
LINE
  8
CSLAYER1
  6
CONTINUOUS
 62
     7
 10
653.648910
 20
2060.983566
 11
653.560766
 21
2061.143913
  0
LINE
  8
CSLAYER1
  6
CONTINUOUS
 62
     7
 10
653.560766
 20
2061.143913
 11
653.497323
 21
2061.308056
  0
LINE
  8
CSLAYER1
  6
CONTINUOUS
 62
     7
 10
653.497323
 20
2061.308056
 11
653.459063
 21
2061.474745
  0
LINE
  8
CSLAYER1
  6
CONTINUOUS
 62
     7
 10
653.459063
 20
2061.474745
 11
653.446277
 21
2061.642713
  0
LINE
  8
CSLAYER1
  6
CONTINUOUS
 62
     7
 10
658.389174
 20
2074.895804
 11
643.885422
 21
2080.174738
  0
LINE
  8
CSLAYER1
  6
CONTINUOUS
 62
     7
 10
658.389174
 20
2074.895804
 11
658.389174
 21
2070.183370
  0
LINE
  8
CSLAYER1
  6
CONTINUOUS
 62
     7
 10
645.675027
 20
2079.523375
 11
650.422277
 21
2082.489786
  0
LINE
  8
CSLAYER1
  6
CONTINUOUS
 62
     7
 10
658.389174
 20
2073.695865
 11
665.622083
 21
2078.215488
  0
LINE
  8
CSLAYER1
  6
CONTINUOUS
 62
     7
 10
658.389174
 20
2071.274056
 11
664.958343
 21
2075.378929
  0
ARC
  8
CSLAYER1
  6
CONTINUOUS
 62
     7
 10
659.210962
 20
2074.685650
 40
7.403380
 50
30.339165
 51
57.486408
  0
ARC
  8
CSLAYER1
  6
CONTINUOUS
 62
     7
 10
660.870284
 20
2077.831448
 40
4.767292
 50
-30.960488
 51
7.154948
  0
ENDBLK
  8
0
  0
BLOCK
  8
CSLAYER1
  2
BLKF0009
 70
   64
 10
0.0
 20
0.0
 30
0.0
  0
ARC
  8
CSLAYER1
  6
CONTINUOUS
 62
     3
 10
1503.634508
 20
1499.608263
 40
9.500000
 50
-190.922071
 51
10.922071
  0
LINE
  8
CSLAYER1
  6
CONTINUOUS
 62
     3
 10
1494.134508
 20
1501.408263
 11
1494.134508
 21
1494.123436
  0
LINE
  8
CSLAYER1
  6
CONTINUOUS
 62
     3
 10
1494.134508
 20
1494.123436
 11
1503.634508
 21
1488.638608
  0
LINE
  8
CSLAYER1
  6
CONTINUOUS
 62
     3
 10
1503.634508
 20
1488.638608
 11
1513.134508
 21
1494.123436
  0
LINE
  8
CSLAYER1
  6
CONTINUOUS
 62
     3
 10
1513.134508
 20
1494.123436
 11
1513.134508
 21
1501.408263
  0
POINT
  8
CSLAYER1
 62
     3
 10
1503.634508
 20
1499.608263
  0
LINE
  8
CSLAYER1
  6
CONTINUOUS
 62
     3
 10
1481.334508
 20
1519.408263
 11
1481.334508
 21
1501.408263
  0
LINE
  8
CSLAYER1
  6
CONTINUOUS
 62
     3
 10
2381.334508
 20
1519.408263
 11
2381.334508
 21
1501.408263
  0
LINE
  8
CSLAYER1
  6
CONTINUOUS
 62
     3
 10
1533.634508
 20
1487.108263
 11
2363.634508
 21
1487.108263
  0
LINE
  8
CSLAYER1
  6
CONTINUOUS
 62
     3
 10
1481.334508
 20
1519.408263
 11
2381.334508
 21
1519.408263
  0
LINE
  8
CSLAYER1
  6
CONTINUOUS
 62
     3
 10
1481.334508
 20
1501.408263
 11
2381.334508
 21
1501.408263
  0
LINE
  8
CSLAYER1
  6
CONTINUOUS
 62
     3
 10
1483.634508
 20
1501.408263
 11
1483.634508
 21
1494.108263
  0
LINE
  8
CSLAYER1
  6
CONTINUOUS
 62
     3
 10
1481.334508
 20
1501.408263
 11
1483.634508
 21
1501.408263
  0
LINE
  8
CSLAYER1
  6
CONTINUOUS
 62
     3
 10
1488.634508
 20
1489.108263
 11
1502.821042
 21
1489.108263
  0
ARC
  8
CSLAYER1
  6
CONTINUOUS
 62
     3
 10
1488.634508
 20
1494.108263
 40
5.000000
 50
180.000000
 51
270.000000
  0
LINE
  8
CSLAYER1
  6
CONTINUOUS
 62
     3
 10
2363.634508
 20
1501.408263
 11
2363.634508
 21
1487.108263
  0
LINE
  8
CSLAYER1
  6
CONTINUOUS
 62
     3
 10
1533.634508
 20
1498.108263
 11
1508.634508
 21
1489.108263
  0
LINE
  8
CSLAYER1
  6
CONTINUOUS
 62
     3
 10
1533.634508
 20
1501.408263
 11
1533.634508
 21
1487.108263
  0
ARC
  8
CSLAYER1
  6
DASHED
 62
     5
 10
1994.303796
 20
1499.608263
 40
13.000000
 50
-74.057631
 51
254.057631
  0
POINT
  8
CSLAYER1
 62
     4
 10
1994.303796
 20
1499.608263
  0
POINT
  8
CSLAYER1
 62
     7
 10
1503.634508
 20
1499.608263
  0
ARC
  8
CSLAYER1
  6
CONTINUOUS
 62
     4
 10
1994.303796
 20
1499.608263
 40
13.000000
 50
254.057631
 51
285.942369
  0
LINE
  8
CSLAYER1
  6
CONTINUOUS
 62
     3
 10
1504.447975
 20
1489.108263
 11
1508.634508
 21
1489.108263
  0
LINE
  8
CSLAYER1
  6
CENTER
 62
     5
 10
1503.634508
 20
1510.208336
 11
1503.634508
 21
1487.555628
  0
LINE
  8
CSLAYER1
  6
CENTER
 62
     5
 10
1492.654612
 20
1499.608263
 11
1514.879911
 21
1499.608263
  0
LINE
  8
CSLAYER1
  6
CENTER
 62
     5
 10
1994.303796
 20
1515.882087
 11
1994.303796
 21
1482.364542
  0
LINE
  8
CSLAYER1
  6
CENTER
 62
     5
 10
1978.384139
 20
1499.608263
 11
2010.454884
 21
1499.608263
  0
ENDBLK
  8
0
  0
BLOCK
  8
CSLAYER1
  2
BLKF0010
 70
   64
 10
0.0
 20
0.0
 30
0.0
  0
LINE
  8
CSLAYER1
  6
CONTINUOUS
 62
     3
 10
1501.225483
 20
809.114853
 11
1501.225483
 21
843.114853
  0
LINE
  8
CSLAYER1
  6
CONTINUOUS
 62
     3
 10
1457.225483
 20
809.114853
 11
1507.225483
 21
809.114853
  0
LINE
  8
CSLAYER1
  6
CONTINUOUS
 62
     3
 10
1507.225483
 20
803.114853
 11
1507.225483
 21
809.114853
  0
ENDBLK
  8
0
  0
BLOCK
  8
CSLAYER1
  2
BLKF0011
 70
   64
 10
0.0
 20
0.0
 30
0.0
  0
TEXT
  8
CSLAYER1
 62
     7
 10
1239.367065
 20
1338.395142
 40
40.000000
 41
0.787500
  1
テーブルのズレ
 50
0.000000
 51
0.000000
  7
EASYDRAW_FONT
 72
     5
 11
1449.367065
 21
1338.395142
  0
DIMENSION
  8
CSLAYER1
 62
     3
  2
*D0007
 10
1481.334508
 20
1274.789725
 11
1373.216675
 21
1297.012573
 13
1459.925483
 23
868.114853
 14
1481.334508
 24
1519.408263
  0
INSERT
  8
CSLAYER1
  2
EASYDRAWDIM0006
 10
0.0
 20
0.0
 30
0.0
  0
ENDBLK
  8
0
  0
ENDSEC
  0
SECTION
  2
ENTITIES
  0
LINE
  8
CSLAYER1
  6
CONTINUOUS
 62
     3
 10
206.731563
 20
2444.793997
 11
206.731563
 21
96.247067
  0
LINE
  8
CSLAYER1
  6
CONTINUOUS
 62
     3
 10
3529.304874
 20
2444.793997
 11
206.731563
 21
2444.793997
  0
LINE
  8
CSLAYER1
  6
CONTINUOUS
 62
     3
 10
3529.304874
 20
2444.793997
 11
3529.304874
 21
96.247067
  0
LINE
  8
CSLAYER1
  6
CONTINUOUS
 62
     3
 10
3529.304874
 20
96.247067
 11
206.731563
 21
96.247067
  0
LINE
  8
CSLAYER1
  6
CONTINUOUS
 62
     5
 10
156.731563
 20
1256.247067
 11
106.731563
 21
1256.247067
  0
LINE
  8
CSLAYER1
  6
CONTINUOUS
 62
     5
 10
2729.304874
 20
536.247067
 11
3529.304874
 21
536.247067
  0
LINE
  8
CSLAYER1
  6
CONTINUOUS
 62
     5
 10
2729.304874
 20
176.247067
 11
3529.304874
 21
176.247067
  0
LINE
  8
CSLAYER1
  6
CONTINUOUS
 62
     5
 10
2729.304874
 20
336.247067
 11
3529.304874
 21
336.247067
  0
LINE
  8
CSLAYER1
  6
CONTINUOUS
 62
     5
 10
2729.304874
 20
396.247067
 11
3529.304874
 21
396.247067
  0
LINE
  8
CSLAYER1
  6
CONTINUOUS
 62
     5
 10
2729.304874
 20
456.247067
 11
3529.304874
 21
456.247067
  0
LINE
  8
CSLAYER1
  6
CONTINUOUS
 62
     5
 10
2729.304874
 20
616.247067
 11
3529.304874
 21
616.247067
  0
LINE
  8
CSLAYER1
  6
CONTINUOUS
 62
     5
 10
2729.304874
 20
696.247067
 11
2729.304874
 21
96.247067
  0
LINE
  8
CSLAYER1
  6
CONTINUOUS
 62
     5
 10
2929.304874
 20
696.247067
 11
2929.304874
 21
456.247067
  0
LINE
  8
CSLAYER1
  6
CONTINUOUS
 62
     5
 10
2729.304874
 20
696.247067
 11
3529.304874
 21
696.247067
  0
LINE
  8
CSLAYER1
  6
CONTINUOUS
 62
     5
 10
3229.304874
 20
456.247067
 11
3229.304874
 21
176.247067
  0
TEXT
  8
CSLAYER1
 62
     3
 10
2948.995906
 20
104.809788
 40
59.380363
 41
1.003345
  1
東正車輌株式会社
 50
0.000000
 51
0.000000
  7
EASYDRAW_FONT
 72
     5
 11
3405.768254
 21
104.809788
  0
LINE
  8
CSLAYER1
  6
CONTINUOUS
 62
     5
 10
2979.304874
 20
396.247067
 11
2979.304874
 21
176.247067
  0
TEXT
  8
CSLAYER1
 62
     5
 10
2759.304688
 20
631.247070
 40
50.000000
 41
1.050000
  1
品　名
 50
0.000000
 51
0.000000
  7
EASYDRAW_FONT
 72
     5
 11
2899.304688
 21
631.247070
  0
TEXT
  8
CSLAYER1
 62
     5
 10
2759.304688
 20
551.247070
 40
50.000000
 41
1.050000
  1
型　式
 50
0.000000
 51
0.000000
  7
EASYDRAW_FONT
 72
     5
 11
2899.304688
 21
551.247070
  0
TEXT
  8
CSLAYER1
 62
     5
 10
2734.304688
 20
471.247070
 40
50.000000
 41
1.036364
  1
図面番号
 50
0.000000
 51
0.000000
  7
EASYDRAW_FONT
 72
     5
 11
2924.304688
 21
471.247070
  0
TEXT
  8
CSLAYER1
 62
     5
 10
2759.304688
 20
401.247070
 40
50.000000
 41
0.825000
  1
平成26年01月10日
 50
0.000000
 51
0.000000
  7
EASYDRAW_FONT
 72
     5
 11
3199.304688
 21
401.247070
  0
TEXT
  8
CSLAYER1
 62
     5
 10
3309.304688
 20
401.247070
 40
50.000000
 41
1.050000
  1
Ｂ－４
 50
0.000000
 51
0.000000
  7
EASYDRAW_FONT
 72
     5
 11
3449.304688
 21
401.247070
  0
TEXT
  8
CSLAYER1
 62
     5
 10
2784.304688
 20
341.247070
 40
50.000000
 41
1.050000
  1
検　図
 50
0.000000
 51
0.000000
  7
EASYDRAW_FONT
 72
     5
 11
2924.304688
 21
341.247070
  0
TEXT
  8
CSLAYER1
 62
     5
 10
3034.304688
 20
341.247070
 40
50.000000
 41
1.050000
  1
作　図
 50
0.000000
 51
0.000000
  7
EASYDRAW_FONT
 72
     5
 11
3174.304688
 21
341.247070
  0
TEXT
  8
CSLAYER1
 62
     5
 10
3309.304688
 20
341.247070
 40
50.000000
 41
1.050000
  1
尺　度
 50
0.000000
 51
0.000000
  7
EASYDRAW_FONT
 72
     5
 11
3449.304688
 21
341.247070
  0
TEXT
  8
CSLAYER1
 62
     5
 10
3410.043457
 20
190.732330
 40
50.000000
 41
1.080000
  1
１０
 50
0.000000
 51
0.000000
  7
EASYDRAW_FONT
 72
     5
 11
3500.043457
 21
190.732330
  0
TEXT
  8
CSLAYER1
 62
     5
 10
3389.723877
 20
238.437042
 40
50.000000
 41
1.200000
  1
／
 50
0.000000
 51
0.000000
  7
EASYDRAW_FONT
 72
     5
 11
3429.723877
 21
238.437042
  0
TEXT
  8
CSLAYER1
 62
     5
 10
3359.510986
 20
273.420471
 40
50.000000
 41
1.200000
  1
１
 50
0.000000
 51
0.000000
  7
EASYDRAW_FONT
 72
     5
 11
3399.510986
 21
273.420471
  0
TEXT
  8
CSLAYER1
 62
     3
 10
3069.304688
 20
631.247070
 40
50.000000
 41
0.834783
  1
ゴールドリフター
 50
0.000000
 51
0.000000
  7
EASYDRAW_FONT
 72
     5
 11
3389.304688
 21
631.247070
  0
TEXT
  8
CSLAYER1
 62
     3
 10
2969.304688
 20
551.247070
 40
50.000000
 41
0.821053
  1
GLSH-150-2509
 50
0.000000
 51
0.000000
  7
EASYDRAW_FONT
 72
     5
 11
3489.304688
 21
551.247070
  0
INSERT
  8
CSLAYER1
  2
BLKF0000
 10
0.0
 20
0.0
 30
0.0
  0
LINE
  8
CSLAYER1
  6
CONTINUOUS
 62
     5
 10
3505.304874
 20
2354.793997
 11
2625.304874
 21
2354.793997
  0
LINE
  8
CSLAYER1
  6
CONTINUOUS
 62
     5
 10
3505.304874
 20
2301.460664
 11
2625.304874
 21
2301.460664
  0
LINE
  8
CSLAYER1
  6
CONTINUOUS
 62
     5
 10
3505.304874
 20
2248.127331
 11
2625.304874
 21
2248.127331
  0
LINE
  8
CSLAYER1
  6
CONTINUOUS
 62
     5
 10
3505.304874
 20
2141.460664
 11
2625.304874
 21
2141.460664
  0
LINE
  8
CSLAYER1
  6
CONTINUOUS
 62
     5
 10
3505.304874
 20
2034.793997
 11
2625.304874
 21
2034.793997
  0
LINE
  8
CSLAYER1
  6
CONTINUOUS
 62
     5
 10
3505.304874
 20
1821.460664
 11
2625.304874
 21
1821.460664
  0
LINE
  8
CSLAYER1
  6
CONTINUOUS
 62
     5
 10
3505.304874
 20
1821.460661
 11
2625.304874
 21
1821.460661
  0
LINE
  8
CSLAYER1
  6
CONTINUOUS
 62
     5
 10
3505.304874
 20
1768.127327
 11
2625.304874
 21
1768.127327
  0
TEXT
  8
CSLAYER1
 62
     3
 10
2638.637939
 20
2361.460449
 40
40.000000
 41
0.838235
  1
仕    様
 50
0.000000
 51
0.000000
  7
EASYDRAW_FONT
 72
     5
 11
2828.637939
 21
2361.460449
  0
TEXT
  8
CSLAYER1
 62
     3
 10
2638.637939
 20
2308.127197
 40
40.000000
 41
0.838235
  1
型    式
 50
0.000000
 51
0.000000
  7
EASYDRAW_FONT
 72
     5
 11
2828.637939
 21
2308.127197
  0
TEXT
  8
CSLAYER1
 62
     3
 10
3003.637939
 20
2308.127197
 40
40.000000
 41
0.817105
  1
GLSH-150-2509
 50
0.000000
 51
0.000000
  7
EASYDRAW_FONT
 72
     5
 11
3417.637939
 21
2308.127197
  0
TEXT
  8
CSLAYER1
 62
     3
 10
2638.637939
 20
2254.793945
 40
40.000000
 41
0.859091
  1
均等荷重
 50
0.000000
 51
0.000000
  7
EASYDRAW_FONT
 72
     5
 11
2764.637939
 21
2254.793945
  0
TEXT
  8
CSLAYER1
 62
     3
 10
3429.971191
 20
2254.793945
 40
40.000000
 41
0.930000
  1
ｋｇ
 50
0.000000
 51
0.000000
  7
EASYDRAW_FONT
 72
     5
 11
3491.971191
 21
2254.793945
  0
TEXT
  8
CSLAYER1
 62
     3
 10
2638.637939
 20
2148.127197
 40
40.000000
 41
0.838235
  1
テーブル高サ
 50
0.000000
 51
0.000000
  7
EASYDRAW_FONT
 72
     5
 11
2828.637939
 21
2148.127197
  0
TEXT
  8
CSLAYER1
 62
     3
 10
3429.971191
 20
2148.127197
 40
40.000000
 41
0.930000
  1
ｍｍ
 50
0.000000
 51
0.000000
  7
EASYDRAW_FONT
 72
     5
 11
3491.971191
 21
2148.127197
  0
TEXT
  8
CSLAYER1
 62
     3
 10
2638.637939
 20
2041.460449
 40
40.000000
 41
0.838235
  1
全    長
 50
0.000000
 51
0.000000
  7
EASYDRAW_FONT
 72
     5
 11
2828.637939
 21
2041.460449
  0
TEXT
  8
CSLAYER1
 62
     3
 10
3163.637939
 20
2041.460449
 40
40.000000
 41
0.881250
  1
903
 50
0.000000
 51
0.000000
  7
EASYDRAW_FONT
 72
     5
 11
3257.637939
 21
2041.460449
  0
TEXT
  8
CSLAYER1
 62
     3
 10
3147.637939
 20
1828.126953
 40
40.000000
 41
0.859091
  1
約 28
 50
0.000000
 51
0.000000
  7
EASYDRAW_FONT
 72
     5
 11
3273.637939
 21
1828.126953
  0
TEXT
  8
CSLAYER1
 62
     3
 10
2638.637939
 20
1828.126953
 40
40.000000
 41
0.846429
  1
ポンプ回数
 50
0.000000
 51
0.000000
  7
EASYDRAW_FONT
 72
     5
 11
2796.637939
 21
1828.126953
  0
TEXT
  8
CSLAYER1
 62
     3
 10
2638.637939
 20
1774.793701
 40
40.000000
 41
0.832500
  1
自     重
 50
0.000000
 51
0.000000
  7
EASYDRAW_FONT
 72
     5
 11
2860.637939
 21
1774.793701
  0
TEXT
  8
CSLAYER1
 62
     3
 10
2638.637939
 20
1721.460449
 40
40.000000
 41
0.832500
  1
塗  装  色
 50
0.000000
 51
0.000000
  7
EASYDRAW_FONT
 72
     5
 11
2860.637939
 21
1721.460449
  0
TEXT
  8
CSLAYER1
 62
     3
 10
3163.637939
 20
2254.793945
 40
40.000000
 41
0.881250
  1
150
 50
0.000000
 51
0.000000
  7
EASYDRAW_FONT
 72
     5
 11
3257.637939
 21
2254.793945
  0
TEXT
  8
CSLAYER1
 62
     3
 10
3115.637939
 20
2148.127197
 40
40.000000
 41
0.838235
  1
65～700
 50
0.000000
 51
0.000000
  7
EASYDRAW_FONT
 72
     5
 11
3305.637939
 21
2148.127197
  0
TEXT
  8
CSLAYER1
 62
     3
 10
3429.971191
 20
2041.460449
 40
40.000000
 41
0.930000
  1
ｍｍ
 50
0.000000
 51
0.000000
  7
EASYDRAW_FONT
 72
     5
 11
3491.971191
 21
2041.460449
  0
LINE
  8
CSLAYER1
  6
CONTINUOUS
 62
     5
 10
3505.304874
 20
1981.460664
 11
2625.304874
 21
1981.460664
  0
TEXT
  8
CSLAYER1
 62
     3
 10
2638.637939
 20
1988.126953
 40
40.000000
 41
0.838235
  1
全    幅
 50
0.000000
 51
0.000000
  7
EASYDRAW_FONT
 72
     5
 11
2828.637939
 21
1988.126953
  0
TEXT
  8
CSLAYER1
 62
     3
 10
3163.637939
 20
1988.126953
 40
40.000000
 41
0.881250
  1
300
 50
0.000000
 51
0.000000
  7
EASYDRAW_FONT
 72
     5
 11
3257.637939
 21
1988.126953
  0
TEXT
  8
CSLAYER1
 62
     3
 10
3429.971191
 20
1988.126953
 40
40.000000
 41
0.930000
  1
ｍｍ
 50
0.000000
 51
0.000000
  7
EASYDRAW_FONT
 72
     5
 11
3491.971191
 21
1988.126953
  0
TEXT
  8
CSLAYER1
 62
     3
 10
3429.971191
 20
1774.793701
 40
40.000000
 41
0.930000
  1
ｋｇ
 50
0.000000
 51
0.000000
  7
EASYDRAW_FONT
 72
     5
 11
3491.971191
 21
1774.793701
  0
LINE
  8
CSLAYER1
  6
CONTINUOUS
 62
     5
 10
3505.304874
 20
2194.793997
 11
2625.304874
 21
2194.793997
  0
TEXT
  8
CSLAYER1
 62
     3
 10
2638.637939
 20
2201.460693
 40
40.000000
 41
0.838235
  1
テーブル寸法
 50
0.000000
 51
0.000000
  7
EASYDRAW_FONT
 72
     5
 11
2828.637939
 21
2201.460693
  0
TEXT
  8
CSLAYER1
 62
     3
 10
3429.971191
 20
2201.460693
 40
40.000000
 41
0.930000
  1
ｍｍ
 50
0.000000
 51
0.000000
  7
EASYDRAW_FONT
 72
     5
 11
3491.971191
 21
2201.460693
  0
TEXT
  8
CSLAYER1
 62
     3
 10
3067.637939
 20
2201.460693
 40
40.000000
 41
0.825000
  1
900L×250W
 50
0.000000
 51
0.000000
  7
EASYDRAW_FONT
 72
     5
 11
3353.637939
 21
2201.460693
  0
LINE
  8
CSLAYER1
  6
CONTINUOUS
 62
     5
 10
3505.304874
 20
2088.127331
 11
2625.304874
 21
2088.127331
  0
TEXT
  8
CSLAYER1
 62
     3
 10
3429.971191
 20
2094.793945
 40
40.000000
 41
0.930000
  1
ｍｍ
 50
0.000000
 51
0.000000
  7
EASYDRAW_FONT
 72
     5
 11
3491.971191
 21
2094.793945
  0
TEXT
  8
CSLAYER1
 62
     3
 10
3163.637939
 20
2094.793945
 40
40.000000
 41
0.881250
  1
635
 50
0.000000
 51
0.000000
  7
EASYDRAW_FONT
 72
     5
 11
3257.637939
 21
2094.793945
  0
TEXT
  8
CSLAYER1
 62
     3
 10
2640.470459
 20
2094.793945
 40
40.000000
 41
0.846429
  1
ストローク
 50
0.000000
 51
0.000000
  7
EASYDRAW_FONT
 72
     5
 11
2798.470459
 21
2094.793945
  0
LINE
  8
CSLAYER1
  6
CONTINUOUS
 62
     5
 10
3505.304874
 20
1928.127331
 11
2625.304874
 21
1928.127331
  0
TEXT
  8
CSLAYER1
 62
     3
 10
2638.637939
 20
1934.793701
 40
40.000000
 41
0.838235
  1
全    高
 50
0.000000
 51
0.000000
  7
EASYDRAW_FONT
 72
     5
 11
2828.637939
 21
1934.793701
  0
TEXT
  8
CSLAYER1
 62
     3
 10
3163.637939
 20
1934.793701
 40
40.000000
 41
0.881250
  1
 65
 50
0.000000
 51
0.000000
  7
EASYDRAW_FONT
 72
     5
 11
3257.637939
 21
1934.793701
  0
TEXT
  8
CSLAYER1
 62
     3
 10
3429.971191
 20
1934.793701
 40
40.000000
 41
0.930000
  1
ｍｍ
 50
0.000000
 51
0.000000
  7
EASYDRAW_FONT
 72
     5
 11
3491.971191
 21
1934.793701
  0
LINE
  8
CSLAYER1
  6
CONTINUOUS
 62
     5
 10
3505.304874
 20
1874.793997
 11
2625.304874
 21
1874.793997
  0
TEXT
  8
CSLAYER1
 62
     3
 10
2638.637939
 20
1881.460327
 40
40.000000
 41
0.846429
  1
リフト方式
 50
0.000000
 51
0.000000
  7
EASYDRAW_FONT
 72
     5
 11
2796.637939
 21
1881.460327
  0
TEXT
  8
CSLAYER1
 62
     3
 10
3131.637939
 20
1881.460327
 40
40.000000
 41
0.846429
  1
足踏油圧式
 50
0.000000
 51
0.000000
  7
EASYDRAW_FONT
 72
     5
 11
3289.637939
 21
1881.460327
  0
LINE
  8
CSLAYER1
  6
CONTINUOUS
 62
     5
 10
2929.304874
 20
1714.793994
 11
2929.304874
 21
2354.793997
  0
TEXT
  8
CSLAYER1
 62
     3
 10
3461.971191
 20
1828.127075
 40
40.000000
 41
1.125000
  1
回
 50
0.000000
 51
0.000000
  7
EASYDRAW_FONT
 72
     5
 11
3491.971191
 21
1828.127075
  0
LINE
  8
CSLAYER2
  6
CONTINUOUS
 62
     5
 10
256.731563
 20
1690.684408
 11
256.731563
 21
2394.793997
  0
LINE
  8
CSLAYER2
  6
CONTINUOUS
 62
     5
 10
1058.025694
 20
2394.793997
 11
256.731563
 21
2394.793997
  0
INSERT
  8
CSLAYER1
  2
BLKF0001
 10
0.0
 20
0.0
 30
0.0
  0
INSERT
  8
CSLAYER1
  2
BLKF0002
 10
0.0
 20
0.0
 30
0.0
  0
LINE
  8
CSLAYER1
  6
CONTINUOUS
 62
     7
 10
685.878666
 20
1833.211786
 11
813.404963
 21
1975.232547
  0
LINE
  8
CSLAYER1
  6
CONTINUOUS
 62
     7
 10
462.702774
 20
1921.029806
 11
648.074545
 21
1990.068784
  0
LINE
  8
CSLAYER1
  6
CONTINUOUS
 62
     7
 10
467.768355
 20
1907.075072
 11
687.231012
 21
1988.810698
  0
LINE
  8
CSLAYER1
  6
CONTINUOUS
 62
     7
 10
674.271899
 20
1843.103675
 11
766.033784
 21
1945.295089
  0
LINE
  8
CSLAYER1
  6
CONTINUOUS
 62
     7
 10
796.548915
 20
2122.346069
 11
796.548915
 21
2016.949811
  0
LINE
  8
CSLAYER1
  6
CONTINUOUS
 62
     7
 10
796.548915
 20
2122.346069
 11
676.568961
 21
2166.015201
  0
LINE
  8
CSLAYER1
  6
CONTINUOUS
 62
     7
 10
768.054499
 20
1938.655377
 11
796.548915
 21
1956.460664
  0
LINE
  8
CSLAYER1
  6
CONTINUOUS
 62
     7
 10
768.054499
 20
2104.540781
 11
768.054499
 21
1938.655377
  0
LINE
  8
CSLAYER1
  6
CONTINUOUS
 62
     7
 10
768.054499
 20
2104.540781
 11
796.548915
 21
2122.346069
  0
LINE
  8
CSLAYER1
  6
CONTINUOUS
 62
     7
 10
676.963106
 20
2162.265164
 11
676.963106
 21
2127.439125
  0
LINE
  8
CSLAYER1
  6
CONTINUOUS
 62
     7
 10
648.074545
 20
2148.209913
 11
676.568961
 21
2166.015201
  0
LINE
  8
CSLAYER1
  6
CONTINUOUS
 62
     7
 10
768.054499
 20
1938.655377
 11
766.033784
 21
1939.390857
  0
LINE
  8
CSLAYER1
  6
CONTINUOUS
 62
     7
 10
766.033784
 20
1963.594424
 11
696.622486
 21
1988.858071
  0
LINE
  8
CSLAYER1
  6
CONTINUOUS
 62
     7
 10
792.704557
 20
2121.942010
 11
676.766034
 21
2164.140182
  0
LINE
  8
CSLAYER1
  6
CONTINUOUS
 62
     7
 10
725.897430
 20
2080.196284
 11
792.704557
 21
2121.942010
  0
LINE
  8
CSLAYER1
  6
CONTINUOUS
 62
     7
 10
768.054499
 20
2104.540781
 11
766.033784
 21
2105.276262
  0
LINE
  8
CSLAYER1
  6
CONTINUOUS
 62
     7
 10
766.033784
 20
2105.276262
 11
766.033784
 21
1963.594424
  0
LINE
  8
CSLAYER1
  6
CONTINUOUS
 62
     7
 10
648.074545
 20
2148.209913
 11
648.074545
 21
2146.211750
  0
LINE
  8
CSLAYER1
  6
CONTINUOUS
 62
     7
 10
648.074545
 20
2148.209913
 11
676.568961
 21
2166.015201
  0
LINE
  8
CSLAYER1
  6
CONTINUOUS
 62
     7
 10
650.095260
 20
2147.474433
 11
676.766034
 21
2164.140182
  0
LINE
  8
CSLAYER1
  6
CONTINUOUS
 62
     7
 10
650.095260
 20
2147.474433
 11
648.074545
 21
2148.209913
  0
LINE
  8
CSLAYER1
  6
CONTINUOUS
 62
     7
 10
650.095260
 20
1979.419479
 11
666.548467
 21
1989.700584
  0
LINE
  8
CSLAYER1
  6
CONTINUOUS
 62
     7
 10
723.876715
 20
2080.931764
 11
788.860200
 21
2121.537952
  0
LINE
  8
CSLAYER1
  6
CONTINUOUS
 62
     7
 10
722.297244
 20
2078.082323
 11
722.297244
 21
2010.996567
  0
LINE
  8
CSLAYER1
  6
CONTINUOUS
 62
     7
 10
724.317959
 20
2077.346843
 11
724.317959
 21
2011.350921
  0
LINE
  8
CSLAYER1
  6
CONTINUOUS
 62
     7
 10
788.860200
 20
2121.537952
 11
771.936711
 21
2127.697598
  0
LINE
  8
CSLAYER1
  6
CONTINUOUS
 62
     7
 10
722.297244
 20
2079.402442
 11
613.249592
 21
2119.092541
  0
LINE
  8
CSLAYER1
  6
CONTINUOUS
 62
     7
 10
722.297244
 20
2012.202442
 11
688.817031
 21
2024.388243
  0
LINE
  8
CSLAYER1
  6
CONTINUOUS
 62
     7
 10
613.559093
 20
2122.645939
 11
676.963106
 21
2162.265164
  0
LINE
  8
CSLAYER1
  6
CONTINUOUS
 62
     7
 10
611.538378
 20
2123.381419
 11
648.074545
 21
2146.211750
  0
LINE
  8
CSLAYER1
  6
CONTINUOUS
 62
     7
 10
608.379435
 20
2117.682536
 11
608.379435
 21
2051.827454
  0
LINE
  8
CSLAYER1
  6
CONTINUOUS
 62
     7
 10
610.400150
 20
2116.947056
 11
610.400150
 21
2052.813613
  0
LINE
  8
CSLAYER1
  6
CONTINUOUS
 62
     7
 10
613.249592
 20
2119.092541
 11
613.249592
 21
2051.892541
  0
LINE
  8
CSLAYER1
  6
CONTINUOUS
 62
     7
 10
613.249592
 20
2119.092541
 11
645.141930
 21
2139.021086
  0
LINE
  8
CSLAYER1
  6
CONTINUOUS
 62
     7
 10
753.641102
 20
2099.530617
 11
645.141930
 21
2139.021086
  0
LINE
  8
CSLAYER1
  6
CONTINUOUS
 62
     7
 10
729.458488
 20
2008.501480
 11
766.033784
 21
2031.356262
  0
LINE
  8
CSLAYER1
  6
CONTINUOUS
 62
     7
 10
726.299968
 20
2008.287430
 11
723.244542
 21
2009.399514
  0
LINE
  8
CSLAYER1
  6
CONTINUOUS
 62
     7
 10
672.316045
 20
1987.601357
 11
649.357071
 21
1995.957740
  0
LINE
  8
CSLAYER1
  6
CONTINUOUS
 62
     7
 10
672.316045
 20
1987.601357
 11
676.212724
 21
1990.036272
  0
LINE
  8
CSLAYER1
  6
CONTINUOUS
 62
     7
 10
656.417954
 20
2034.234172
 11
657.703106
 21
2035.037224
  0
LINE
  8
CSLAYER1
  6
CONTINUOUS
 62
     7
 10
664.260070
 20
2021.416229
 11
665.665630
 21
2022.294521
  0
LINE
  8
CSLAYER1
  6
CONTINUOUS
 62
     7
 10
657.703106
 20
2035.037224
 11
658.036762
 21
2035.212004
  0
LINE
  8
CSLAYER1
  6
CONTINUOUS
 62
     7
 10
658.036762
 20
2035.212004
 11
658.398180
 21
2035.336964
  0
LINE
  8
CSLAYER1
  6
CONTINUOUS
 62
     7
 10
658.398180
 20
2035.336964
 11
658.784607
 21
2035.411154
  0
LINE
  8
CSLAYER1
  6
CONTINUOUS
 62
     7
 10
658.784607
 20
2035.411154
 11
659.193103
 21
2035.434007
  0
LINE
  8
CSLAYER1
  6
CONTINUOUS
 62
     7
 10
659.193103
 20
2035.434007
 11
659.620559
 21
2035.405351
  0
LINE
  8
CSLAYER1
  6
CONTINUOUS
 62
     7
 10
659.620559
 20
2035.405351
 11
660.063722
 21
2035.325404
  0
LINE
  8
CSLAYER1
  6
CONTINUOUS
 62
     7
 10
660.063722
 20
2035.325404
 11
660.519219
 21
2035.194773
  0
LINE
  8
CSLAYER1
  6
CONTINUOUS
 62
     7
 10
660.519219
 20
2035.194773
 11
660.983584
 21
2035.014454
  0
LINE
  8
CSLAYER1
  6
CONTINUOUS
 62
     7
 10
660.983584
 20
2035.014454
 11
661.453282
 21
2034.785818
  0
LINE
  8
CSLAYER1
  6
CONTINUOUS
 62
     7
 10
661.453282
 20
2034.785818
 11
661.924738
 21
2034.510605
  0
LINE
  8
CSLAYER1
  6
CONTINUOUS
 62
     7
 10
661.924738
 20
2034.510605
 11
662.394366
 21
2034.190911
  0
LINE
  8
CSLAYER1
  6
CONTINUOUS
 62
     7
 10
662.394366
 20
2034.190911
 11
662.858589
 21
2033.829168
  0
LINE
  8
CSLAYER1
  6
CONTINUOUS
 62
     7
 10
662.858589
 20
2033.829168
 11
663.313877
 21
2033.428129
  0
LINE
  8
CSLAYER1
  6
CONTINUOUS
 62
     7
 10
663.313877
 20
2033.428129
 11
663.756762
 21
2032.990846
  0
LINE
  8
CSLAYER1
  6
CONTINUOUS
 62
     7
 10
663.756762
 20
2032.990846
 11
664.183876
 21
2032.520647
  0
LINE
  8
CSLAYER1
  6
CONTINUOUS
 62
     7
 10
664.183876
 20
2032.520647
 11
664.591967
 21
2032.021112
  0
LINE
  8
CSLAYER1
  6
CONTINUOUS
 62
     7
 10
664.591967
 20
2032.021112
 11
664.977929
 21
2031.496041
  0
LINE
  8
CSLAYER1
  6
CONTINUOUS
 62
     7
 10
664.977929
 20
2031.496041
 11
665.338825
 21
2030.949431
  0
LINE
  8
CSLAYER1
  6
CONTINUOUS
 62
     7
 10
665.338825
 20
2030.949431
 11
665.671908
 21
2030.385441
  0
LINE
  8
CSLAYER1
  6
CONTINUOUS
 62
     7
 10
665.671908
 20
2030.385441
 11
665.974644
 21
2029.808365
  0
LINE
  8
CSLAYER1
  6
CONTINUOUS
 62
     7
 10
665.974644
 20
2029.808365
 11
666.244729
 21
2029.222593
  0
LINE
  8
CSLAYER1
  6
CONTINUOUS
 62
     7
 10
666.244729
 20
2029.222593
 11
666.480106
 21
2028.632585
  0
LINE
  8
CSLAYER1
  6
CONTINUOUS
 62
     7
 10
666.480106
 20
2028.632585
 11
666.678985
 21
2028.042830
  0
LINE
  8
CSLAYER1
  6
CONTINUOUS
 62
     7
 10
666.678985
 20
2028.042830
 11
666.839852
 21
2027.457816
  0
LINE
  8
CSLAYER1
  6
CONTINUOUS
 62
     7
 10
666.839852
 20
2027.457816
 11
666.961482
 21
2026.881997
  0
LINE
  8
CSLAYER1
  6
CONTINUOUS
 62
     7
 10
666.961482
 20
2026.881997
 11
667.042950
 21
2026.319754
  0
LINE
  8
CSLAYER1
  6
CONTINUOUS
 62
     7
 10
667.042950
 20
2026.319754
 11
667.083637
 21
2025.775366
  0
LINE
  8
CSLAYER1
  6
CONTINUOUS
 62
     7
 10
667.083637
 20
2025.775366
 11
667.083231
 21
2025.252977
  0
LINE
  8
CSLAYER1
  6
CONTINUOUS
 62
     7
 10
667.083231
 20
2025.252977
 11
667.041737
 21
2024.756562
  0
LINE
  8
CSLAYER1
  6
CONTINUOUS
 62
     7
 10
667.041737
 20
2024.756562
 11
666.959471
 21
2024.289899
  0
LINE
  8
CSLAYER1
  6
CONTINUOUS
 62
     7
 10
666.959471
 20
2024.289899
 11
666.837057
 21
2023.856540
  0
LINE
  8
CSLAYER1
  6
CONTINUOUS
 62
     7
 10
666.837057
 20
2023.856540
 11
666.675429
 21
2023.459783
  0
LINE
  8
CSLAYER1
  6
CONTINUOUS
 62
     7
 10
666.675429
 20
2023.459783
 11
666.475815
 21
2023.102648
  0
LINE
  8
CSLAYER1
  6
CONTINUOUS
 62
     7
 10
666.475815
 20
2023.102648
 11
666.239736
 21
2022.787852
  0
LINE
  8
CSLAYER1
  6
CONTINUOUS
 62
     7
 10
666.239736
 20
2022.787852
 11
665.968987
 21
2022.517791
  0
LINE
  8
CSLAYER1
  6
CONTINUOUS
 62
     7
 10
665.968987
 20
2022.517791
 11
665.665630
 21
2022.294521
  0
LINE
  8
CSLAYER1
  6
CONTINUOUS
 62
     7
 10
656.433849
 20
2034.230333
 11
656.631202
 21
2034.333713
  0
LINE
  8
CSLAYER1
  6
CONTINUOUS
 62
     7
 10
656.631202
 20
2034.333713
 11
656.992619
 21
2034.458673
  0
LINE
  8
CSLAYER1
  6
CONTINUOUS
 62
     7
 10
656.992619
 20
2034.458673
 11
657.379047
 21
2034.532862
  0
LINE
  8
CSLAYER1
  6
CONTINUOUS
 62
     7
 10
657.379047
 20
2034.532862
 11
657.787543
 21
2034.555716
  0
LINE
  8
CSLAYER1
  6
CONTINUOUS
 62
     7
 10
657.787543
 20
2034.555716
 11
658.214999
 21
2034.527060
  0
LINE
  8
CSLAYER1
  6
CONTINUOUS
 62
     7
 10
658.214999
 20
2034.527060
 11
658.658162
 21
2034.447112
  0
LINE
  8
CSLAYER1
  6
CONTINUOUS
 62
     7
 10
658.658162
 20
2034.447112
 11
659.113659
 21
2034.316482
  0
LINE
  8
CSLAYER1
  6
CONTINUOUS
 62
     7
 10
659.113659
 20
2034.316482
 11
659.578023
 21
2034.136162
  0
LINE
  8
CSLAYER1
  6
CONTINUOUS
 62
     7
 10
659.578023
 20
2034.136162
 11
660.047721
 21
2033.907526
  0
LINE
  8
CSLAYER1
  6
CONTINUOUS
 62
     7
 10
660.047721
 20
2033.907526
 11
660.519178
 21
2033.632314
  0
LINE
  8
CSLAYER1
  6
CONTINUOUS
 62
     7
 10
660.519178
 20
2033.632314
 11
660.988805
 21
2033.312619
  0
LINE
  8
CSLAYER1
  6
CONTINUOUS
 62
     7
 10
660.988805
 20
2033.312619
 11
661.453029
 21
2032.950876
  0
LINE
  8
CSLAYER1
  6
CONTINUOUS
 62
     7
 10
665.637390
 20
2025.441462
 11
665.678076
 21
2024.897075
  0
LINE
  8
CSLAYER1
  6
CONTINUOUS
 62
     7
 10
665.678076
 20
2024.897075
 11
665.677671
 21
2024.374685
  0
LINE
  8
CSLAYER1
  6
CONTINUOUS
 62
     7
 10
665.677671
 20
2024.374685
 11
665.636177
 21
2023.878270
  0
LINE
  8
CSLAYER1
  6
CONTINUOUS
 62
     7
 10
665.636177
 20
2023.878270
 11
665.553910
 21
2023.411608
  0
LINE
  8
CSLAYER1
  6
CONTINUOUS
 62
     7
 10
665.553910
 20
2023.411608
 11
665.431497
 21
2022.978249
  0
LINE
  8
CSLAYER1
  6
CONTINUOUS
 62
     7
 10
665.431497
 20
2022.978249
 11
665.269868
 21
2022.581492
  0
LINE
  8
CSLAYER1
  6
CONTINUOUS
 62
     7
 10
665.269868
 20
2022.581492
 11
665.070255
 21
2022.224356
  0
LINE
  8
CSLAYER1
  6
CONTINUOUS
 62
     7
 10
665.070255
 20
2022.224356
 11
664.834175
 21
2021.909560
  0
LINE
  8
CSLAYER1
  6
CONTINUOUS
 62
     7
 10
664.834175
 20
2021.909560
 11
664.563427
 21
2021.639500
  0
LINE
  8
CSLAYER1
  6
CONTINUOUS
 62
     7
 10
664.563427
 20
2021.639500
 11
664.260070
 21
2021.416229
  0
LINE
  8
CSLAYER1
  6
CONTINUOUS
 62
     7
 10
650.095260
 20
1979.419479
 11
648.074545
 21
1980.154959
  0
LINE
  8
CSLAYER1
  6
CONTINUOUS
 62
     7
 10
650.095260
 20
1995.689061
 11
650.095260
 21
1979.419479
  0
LINE
  8
CSLAYER1
  6
CONTINUOUS
 62
     7
 10
648.074545
 20
1990.651197
 11
648.074545
 21
1990.068784
  0
LINE
  8
CSLAYER1
  6
CONTINUOUS
 62
     7
 10
629.701055
 20
2105.459721
 11
629.909963
 21
2105.569155
  0
LINE
  8
CSLAYER1
  6
CONTINUOUS
 62
     7
 10
629.909963
 20
2105.569155
 11
630.136253
 21
2105.647394
  0
LINE
  8
CSLAYER1
  6
CONTINUOUS
 62
     7
 10
630.136253
 20
2105.647394
 11
630.378202
 21
2105.693846
  0
LINE
  8
CSLAYER1
  6
CONTINUOUS
 62
     7
 10
630.378202
 20
2105.693846
 11
630.633969
 21
2105.708155
  0
LINE
  8
CSLAYER1
  6
CONTINUOUS
 62
     7
 10
630.633969
 20
2105.708155
 11
630.901607
 21
2105.690213
  0
LINE
  8
CSLAYER1
  6
CONTINUOUS
 62
     7
 10
630.901607
 20
2105.690213
 11
631.179079
 21
2105.640156
  0
LINE
  8
CSLAYER1
  6
CONTINUOUS
 62
     7
 10
631.179079
 20
2105.640156
 11
631.464274
 21
2105.558366
  0
LINE
  8
CSLAYER1
  6
CONTINUOUS
 62
     7
 10
631.464274
 20
2105.558366
 11
631.755021
 21
2105.445465
  0
LINE
  8
CSLAYER1
  6
CONTINUOUS
 62
     7
 10
631.755021
 20
2105.445465
 11
632.049108
 21
2105.302312
  0
LINE
  8
CSLAYER1
  6
CONTINUOUS
 62
     7
 10
632.049108
 20
2105.302312
 11
632.344295
 21
2105.129996
  0
LINE
  8
CSLAYER1
  6
CONTINUOUS
 62
     7
 10
632.344295
 20
2105.129996
 11
632.638337
 21
2104.929830
  0
LINE
  8
CSLAYER1
  6
CONTINUOUS
 62
     7
 10
632.638337
 20
2104.929830
 11
632.928996
 21
2104.703336
  0
LINE
  8
CSLAYER1
  6
CONTINUOUS
 62
     7
 10
632.928996
 20
2104.703336
 11
633.214060
 21
2104.452238
  0
LINE
  8
CSLAYER1
  6
CONTINUOUS
 62
     7
 10
633.214060
 20
2104.452238
 11
633.491359
 21
2104.178447
  0
LINE
  8
CSLAYER1
  6
CONTINUOUS
 62
     7
 10
633.491359
 20
2104.178447
 11
633.758782
 21
2103.884047
  0
LINE
  8
CSLAYER1
  6
CONTINUOUS
 62
     7
 10
633.758782
 20
2103.884047
 11
634.014295
 21
2103.571279
  0
LINE
  8
CSLAYER1
  6
CONTINUOUS
 62
     7
 10
634.014295
 20
2103.571279
 11
634.255953
 21
2103.242523
  0
LINE
  8
CSLAYER1
  6
CONTINUOUS
 62
     7
 10
634.255953
 20
2103.242523
 11
634.481917
 21
2102.900280
  0
LINE
  8
CSLAYER1
  6
CONTINUOUS
 62
     7
 10
634.481917
 20
2102.900280
 11
634.690466
 21
2102.547156
  0
LINE
  8
CSLAYER1
  6
CONTINUOUS
 62
     7
 10
634.690466
 20
2102.547156
 11
634.880015
 21
2102.185838
  0
LINE
  8
CSLAYER1
  6
CONTINUOUS
 62
     7
 10
634.880015
 20
2102.185838
 11
635.049119
 21
2101.819076
  0
LINE
  8
CSLAYER1
  6
CONTINUOUS
 62
     7
 10
635.049119
 20
2101.819076
 11
635.196493
 21
2101.449661
  0
LINE
  8
CSLAYER1
  6
CONTINUOUS
 62
     7
 10
635.196493
 20
2101.449661
 11
635.321015
 21
2101.080405
  0
LINE
  8
CSLAYER1
  6
CONTINUOUS
 62
     7
 10
635.321015
 20
2101.080405
 11
635.421736
 21
2100.714117
  0
LINE
  8
CSLAYER1
  6
CONTINUOUS
 62
     7
 10
635.421736
 20
2100.714117
 11
635.497891
 21
2100.353586
  0
LINE
  8
CSLAYER1
  6
CONTINUOUS
 62
     7
 10
635.497891
 20
2100.353586
 11
635.548900
 21
2100.001556
  0
LINE
  8
CSLAYER1
  6
CONTINUOUS
 62
     7
 10
635.548900
 20
2100.001556
 11
635.574375
 21
2099.660705
  0
LINE
  8
CSLAYER1
  6
CONTINUOUS
 62
     7
 10
635.574375
 20
2099.660705
 11
635.574121
 21
2099.333628
  0
LINE
  8
CSLAYER1
  6
CONTINUOUS
 62
     7
 10
635.574121
 20
2099.333628
 11
635.548141
 21
2099.022813
  0
LINE
  8
CSLAYER1
  6
CONTINUOUS
 62
     7
 10
635.548141
 20
2099.022813
 11
635.496632
 21
2098.730627
  0
LINE
  8
CSLAYER1
  6
CONTINUOUS
 62
     7
 10
635.496632
 20
2098.730627
 11
635.419987
 21
2098.459294
  0
LINE
  8
CSLAYER1
  6
CONTINUOUS
 62
     7
 10
635.419987
 20
2098.459294
 11
635.318788
 21
2098.210877
  0
LINE
  8
CSLAYER1
  6
CONTINUOUS
 62
     7
 10
635.318788
 20
2098.210877
 11
635.193807
 21
2097.987268
  0
LINE
  8
CSLAYER1
  6
CONTINUOUS
 62
     7
 10
635.193807
 20
2097.987268
 11
635.045993
 21
2097.790168
  0
LINE
  8
CSLAYER1
  6
CONTINUOUS
 62
     7
 10
635.045993
 20
2097.790168
 11
634.876472
 21
2097.621078
  0
LINE
  8
CSLAYER1
  6
CONTINUOUS
 62
     7
 10
634.876472
 20
2097.621078
 11
634.686535
 21
2097.481285
  0
LINE
  8
CSLAYER1
  6
CONTINUOUS
 62
     7
 10
634.686535
 20
2097.481285
 11
634.477627
 21
2097.371852
  0
LINE
  8
CSLAYER1
  6
CONTINUOUS
 62
     7
 10
634.477627
 20
2097.371852
 11
634.251337
 21
2097.293612
  0
LINE
  8
CSLAYER1
  6
CONTINUOUS
 62
     7
 10
634.251337
 20
2097.293612
 11
634.009388
 21
2097.247161
  0
LINE
  8
CSLAYER1
  6
CONTINUOUS
 62
     7
 10
634.009388
 20
2097.247161
 11
633.753621
 21
2097.232852
  0
LINE
  8
CSLAYER1
  6
CONTINUOUS
 62
     7
 10
633.753621
 20
2097.232852
 11
633.485983
 21
2097.250794
  0
LINE
  8
CSLAYER1
  6
CONTINUOUS
 62
     7
 10
633.485983
 20
2097.250794
 11
633.208510
 21
2097.300850
  0
LINE
  8
CSLAYER1
  6
CONTINUOUS
 62
     7
 10
633.208510
 20
2097.300850
 11
632.923316
 21
2097.382641
  0
LINE
  8
CSLAYER1
  6
CONTINUOUS
 62
     7
 10
632.923316
 20
2097.382641
 11
632.632569
 21
2097.495542
  0
LINE
  8
CSLAYER1
  6
CONTINUOUS
 62
     7
 10
632.632569
 20
2097.495542
 11
632.338482
 21
2097.638695
  0
LINE
  8
CSLAYER1
  6
CONTINUOUS
 62
     7
 10
632.338482
 20
2097.638695
 11
632.043295
 21
2097.811010
  0
LINE
  8
CSLAYER1
  6
CONTINUOUS
 62
     7
 10
632.043295
 20
2097.811010
 11
631.749253
 21
2098.011177
  0
LINE
  8
CSLAYER1
  6
CONTINUOUS
 62
     7
 10
631.749253
 20
2098.011177
 11
631.458594
 21
2098.237671
  0
LINE
  8
CSLAYER1
  6
CONTINUOUS
 62
     7
 10
631.458594
 20
2098.237671
 11
631.173530
 21
2098.488769
  0
LINE
  8
CSLAYER1
  6
CONTINUOUS
 62
     7
 10
631.173530
 20
2098.488769
 11
630.896231
 21
2098.762559
  0
LINE
  8
CSLAYER1
  6
CONTINUOUS
 62
     7
 10
630.896231
 20
2098.762559
 11
630.628808
 21
2099.056959
  0
LINE
  8
CSLAYER1
  6
CONTINUOUS
 62
     7
 10
630.628808
 20
2099.056959
 11
630.373295
 21
2099.369727
  0
LINE
  8
CSLAYER1
  6
CONTINUOUS
 62
     7
 10
630.373295
 20
2099.369727
 11
630.131637
 21
2099.698484
  0
LINE
  8
CSLAYER1
  6
CONTINUOUS
 62
     7
 10
630.131637
 20
2099.698484
 11
629.905673
 21
2100.040726
  0
LINE
  8
CSLAYER1
  6
CONTINUOUS
 62
     7
 10
629.905673
 20
2100.040726
 11
629.697124
 21
2100.393850
  0
LINE
  8
CSLAYER1
  6
CONTINUOUS
 62
     7
 10
629.697124
 20
2100.393850
 11
629.507575
 21
2100.755168
  0
LINE
  8
CSLAYER1
  6
CONTINUOUS
 62
     7
 10
629.507575
 20
2100.755168
 11
629.338471
 21
2101.121930
  0
LINE
  8
CSLAYER1
  6
CONTINUOUS
 62
     7
 10
629.338471
 20
2101.121930
 11
629.191097
 21
2101.491345
  0
LINE
  8
CSLAYER1
  6
CONTINUOUS
 62
     7
 10
629.191097
 20
2101.491345
 11
629.066575
 21
2101.860602
  0
LINE
  8
CSLAYER1
  6
CONTINUOUS
 62
     7
 10
629.066575
 20
2101.860602
 11
628.965853
 21
2102.226889
  0
LINE
  8
CSLAYER1
  6
CONTINUOUS
 62
     7
 10
628.965853
 20
2102.226889
 11
628.889698
 21
2102.587420
  0
LINE
  8
CSLAYER1
  6
CONTINUOUS
 62
     7
 10
628.889698
 20
2102.587420
 11
628.838690
 21
2102.939451
  0
LINE
  8
CSLAYER1
  6
CONTINUOUS
 62
     7
 10
628.838690
 20
2102.939451
 11
628.813215
 21
2103.280301
  0
LINE
  8
CSLAYER1
  6
CONTINUOUS
 62
     7
 10
628.813215
 20
2103.280301
 11
628.813469
 21
2103.607379
  0
LINE
  8
CSLAYER1
  6
CONTINUOUS
 62
     7
 10
628.813469
 20
2103.607379
 11
628.839449
 21
2103.918193
  0
LINE
  8
CSLAYER1
  6
CONTINUOUS
 62
     7
 10
628.839449
 20
2103.918193
 11
628.890958
 21
2104.210379
  0
LINE
  8
CSLAYER1
  6
CONTINUOUS
 62
     7
 10
628.890958
 20
2104.210379
 11
628.967603
 21
2104.481713
  0
LINE
  8
CSLAYER1
  6
CONTINUOUS
 62
     7
 10
628.967603
 20
2104.481713
 11
629.068802
 21
2104.730130
  0
LINE
  8
CSLAYER1
  6
CONTINUOUS
 62
     7
 10
629.068802
 20
2104.730130
 11
629.193783
 21
2104.953739
  0
LINE
  8
CSLAYER1
  6
CONTINUOUS
 62
     7
 10
629.193783
 20
2104.953739
 11
629.341597
 21
2105.150838
  0
LINE
  8
CSLAYER1
  6
CONTINUOUS
 62
     7
 10
629.341597
 20
2105.150838
 11
629.511117
 21
2105.319928
  0
LINE
  8
CSLAYER1
  6
CONTINUOUS
 62
     7
 10
629.511117
 20
2105.319928
 11
629.701055
 21
2105.459721
  0
LINE
  8
CSLAYER1
  6
CONTINUOUS
 62
     7
 10
695.710237
 20
2157.245056
 11
695.710237
 21
2120.615727
  0
LINE
  8
CSLAYER1
  6
CONTINUOUS
 62
     7
 10
693.886594
 20
2156.105518
 11
695.710237
 21
2157.245056
  0
LINE
  8
CSLAYER1
  6
CONTINUOUS
 62
     7
 10
693.886594
 20
2156.105518
 11
693.886594
 21
2121.279479
  0
LINE
  8
CSLAYER1
  6
CONTINUOUS
 62
     7
 10
693.886594
 20
2156.105518
 11
676.963106
 21
2162.265164
  0
LINE
  8
CSLAYER1
  6
CONTINUOUS
 62
     7
 10
771.936711
 20
2127.697598
 11
773.760354
 21
2128.837137
  0
LINE
  8
CSLAYER1
  6
CONTINUOUS
 62
     7
 10
771.936711
 20
2127.697598
 11
771.936711
 21
2110.962983
  0
LINE
  8
CSLAYER1
  6
CONTINUOUS
 62
     7
 10
682.449508
 20
2151.066151
 11
682.673338
 21
2151.183401
  0
LINE
  8
CSLAYER1
  6
CONTINUOUS
 62
     7
 10
682.673338
 20
2151.183401
 11
682.915792
 21
2151.267230
  0
LINE
  8
CSLAYER1
  6
CONTINUOUS
 62
     7
 10
682.915792
 20
2151.267230
 11
683.175023
 21
2151.316999
  0
LINE
  8
CSLAYER1
  6
CONTINUOUS
 62
     7
 10
683.175023
 20
2151.316999
 11
683.449059
 21
2151.332330
  0
LINE
  8
CSLAYER1
  6
CONTINUOUS
 62
     7
 10
683.449059
 20
2151.332330
 11
683.735814
 21
2151.313106
  0
LINE
  8
CSLAYER1
  6
CONTINUOUS
 62
     7
 10
683.735814
 20
2151.313106
 11
684.033106
 21
2151.259474
  0
LINE
  8
CSLAYER1
  6
CONTINUOUS
 62
     7
 10
684.033106
 20
2151.259474
 11
684.338672
 21
2151.171842
  0
LINE
  8
CSLAYER1
  6
CONTINUOUS
 62
     7
 10
684.338672
 20
2151.171842
 11
684.650186
 21
2151.050876
  0
LINE
  8
CSLAYER1
  6
CONTINUOUS
 62
     7
 10
684.650186
 20
2151.050876
 11
684.965279
 21
2150.897498
  0
LINE
  8
CSLAYER1
  6
CONTINUOUS
 62
     7
 10
684.965279
 20
2150.897498
 11
685.281551
 21
2150.712874
  0
LINE
  8
CSLAYER1
  6
CONTINUOUS
 62
     7
 10
685.281551
 20
2150.712874
 11
685.596596
 21
2150.498410
  0
LINE
  8
CSLAYER1
  6
CONTINUOUS
 62
     7
 10
685.596596
 20
2150.498410
 11
685.908017
 21
2150.255738
  0
LINE
  8
CSLAYER1
  6
CONTINUOUS
 62
     7
 10
685.908017
 20
2150.255738
 11
686.213442
 21
2149.986705
  0
LINE
  8
CSLAYER1
  6
CONTINUOUS
 62
     7
 10
686.213442
 20
2149.986705
 11
686.510548
 21
2149.693358
  0
LINE
  8
CSLAYER1
  6
CONTINUOUS
 62
     7
 10
686.510548
 20
2149.693358
 11
686.797073
 21
2149.377929
  0
LINE
  8
CSLAYER1
  6
CONTINUOUS
 62
     7
 10
686.797073
 20
2149.377929
 11
687.070837
 21
2149.042820
  0
LINE
  8
CSLAYER1
  6
CONTINUOUS
 62
     7
 10
687.070837
 20
2149.042820
 11
687.329756
 21
2148.690581
  0
LINE
  8
CSLAYER1
  6
CONTINUOUS
 62
     7
 10
687.329756
 20
2148.690581
 11
687.571860
 21
2148.323893
  0
LINE
  8
CSLAYER1
  6
CONTINUOUS
 62
     7
 10
687.571860
 20
2148.323893
 11
687.795306
 21
2147.945546
  0
LINE
  8
CSLAYER1
  6
CONTINUOUS
 62
     7
 10
687.795306
 20
2147.945546
 11
687.998393
 21
2147.558419
  0
LINE
  8
CSLAYER1
  6
CONTINUOUS
 62
     7
 10
687.998393
 20
2147.558419
 11
688.179577
 21
2147.165460
  0
LINE
  8
CSLAYER1
  6
CONTINUOUS
 62
     7
 10
688.179577
 20
2147.165460
 11
688.337478
 21
2146.769658
  0
LINE
  8
CSLAYER1
  6
CONTINUOUS
 62
     7
 10
688.337478
 20
2146.769658
 11
688.470894
 21
2146.374026
  0
LINE
  8
CSLAYER1
  6
CONTINUOUS
 62
     7
 10
688.470894
 20
2146.374026
 11
688.578810
 21
2145.981576
  0
LINE
  8
CSLAYER1
  6
CONTINUOUS
 62
     7
 10
688.578810
 20
2145.981576
 11
688.660404
 21
2145.595292
  0
LINE
  8
CSLAYER1
  6
CONTINUOUS
 62
     7
 10
688.660404
 20
2145.595292
 11
688.715057
 21
2145.218117
  0
LINE
  8
CSLAYER1
  6
CONTINUOUS
 62
     7
 10
688.715057
 20
2145.218117
 11
688.742351
 21
2144.852919
  0
LINE
  8
CSLAYER1
  6
CONTINUOUS
 62
     7
 10
688.742351
 20
2144.852919
 11
688.742079
 21
2144.502480
  0
LINE
  8
CSLAYER1
  6
CONTINUOUS
 62
     7
 10
688.742079
 20
2144.502480
 11
688.714243
 21
2144.169464
  0
LINE
  8
CSLAYER1
  6
CONTINUOUS
 62
     7
 10
688.714243
 20
2144.169464
 11
688.659055
 21
2143.856408
  0
LINE
  8
CSLAYER1
  6
CONTINUOUS
 62
     7
 10
688.659055
 20
2143.856408
 11
688.576935
 21
2143.565693
  0
LINE
  8
CSLAYER1
  6
CONTINUOUS
 62
     7
 10
688.576935
 20
2143.565693
 11
688.468508
 21
2143.299532
  0
LINE
  8
CSLAYER1
  6
CONTINUOUS
 62
     7
 10
688.468508
 20
2143.299532
 11
688.334599
 21
2143.059951
  0
LINE
  8
CSLAYER1
  6
CONTINUOUS
 62
     7
 10
688.334599
 20
2143.059951
 11
688.176227
 21
2142.848773
  0
LINE
  8
CSLAYER1
  6
CONTINUOUS
 62
     7
 10
688.176227
 20
2142.848773
 11
687.994598
 21
2142.667605
  0
LINE
  8
CSLAYER1
  6
CONTINUOUS
 62
     7
 10
687.994598
 20
2142.667605
 11
687.791094
 21
2142.517827
  0
LINE
  8
CSLAYER1
  6
CONTINUOUS
 62
     7
 10
687.791094
 20
2142.517827
 11
687.567263
 21
2142.400577
  0
LINE
  8
CSLAYER1
  6
CONTINUOUS
 62
     7
 10
687.567263
 20
2142.400577
 11
687.324810
 21
2142.316748
  0
LINE
  8
CSLAYER1
  6
CONTINUOUS
 62
     7
 10
687.324810
 20
2142.316748
 11
687.065579
 21
2142.266979
  0
LINE
  8
CSLAYER1
  6
CONTINUOUS
 62
     7
 10
687.065579
 20
2142.266979
 11
686.791543
 21
2142.251648
  0
LINE
  8
CSLAYER1
  6
CONTINUOUS
 62
     7
 10
686.791543
 20
2142.251648
 11
686.504788
 21
2142.270872
  0
LINE
  8
CSLAYER1
  6
CONTINUOUS
 62
     7
 10
686.504788
 20
2142.270872
 11
686.207496
 21
2142.324504
  0
LINE
  8
CSLAYER1
  6
CONTINUOUS
 62
     7
 10
686.207496
 20
2142.324504
 11
685.901930
 21
2142.412136
  0
LINE
  8
CSLAYER1
  6
CONTINUOUS
 62
     7
 10
685.901930
 20
2142.412136
 11
685.590415
 21
2142.533102
  0
LINE
  8
CSLAYER1
  6
CONTINUOUS
 62
     7
 10
685.590415
 20
2142.533102
 11
685.275323
 21
2142.686480
  0
LINE
  8
CSLAYER1
  6
CONTINUOUS
 62
     7
 10
685.275323
 20
2142.686480
 11
684.959051
 21
2142.871104
  0
LINE
  8
CSLAYER1
  6
CONTINUOUS
 62
     7
 10
684.959051
 20
2142.871104
 11
684.644005
 21
2143.085568
  0
LINE
  8
CSLAYER1
  6
CONTINUOUS
 62
     7
 10
684.644005
 20
2143.085568
 11
684.332585
 21
2143.328240
  0
LINE
  8
CSLAYER1
  6
CONTINUOUS
 62
     7
 10
684.332585
 20
2143.328240
 11
684.027160
 21
2143.597273
  0
LINE
  8
CSLAYER1
  6
CONTINUOUS
 62
     7
 10
684.027160
 20
2143.597273
 11
683.730054
 21
2143.890620
  0
LINE
  8
CSLAYER1
  6
CONTINUOUS
 62
     7
 10
683.730054
 20
2143.890620
 11
683.443529
 21
2144.206049
  0
LINE
  8
CSLAYER1
  6
CONTINUOUS
 62
     7
 10
683.443529
 20
2144.206049
 11
683.169765
 21
2144.541158
  0
LINE
  8
CSLAYER1
  6
CONTINUOUS
 62
     7
 10
683.169765
 20
2144.541158
 11
682.910846
 21
2144.893397
  0
LINE
  8
CSLAYER1
  6
CONTINUOUS
 62
     7
 10
682.910846
 20
2144.893397
 11
682.668742
 21
2145.260085
  0
LINE
  8
CSLAYER1
  6
CONTINUOUS
 62
     7
 10
682.668742
 20
2145.260085
 11
682.445296
 21
2145.638432
  0
LINE
  8
CSLAYER1
  6
CONTINUOUS
 62
     7
 10
682.445296
 20
2145.638432
 11
682.242208
 21
2146.025559
  0
LINE
  8
CSLAYER1
  6
CONTINUOUS
 62
     7
 10
682.242208
 20
2146.025559
 11
682.061025
 21
2146.418518
  0
LINE
  8
CSLAYER1
  6
CONTINUOUS
 62
     7
 10
682.061025
 20
2146.418518
 11
681.903124
 21
2146.814320
  0
LINE
  8
CSLAYER1
  6
CONTINUOUS
 62
     7
 10
681.903124
 20
2146.814320
 11
681.769708
 21
2147.209952
  0
LINE
  8
CSLAYER1
  6
CONTINUOUS
 62
     7
 10
681.769708
 20
2147.209952
 11
681.661792
 21
2147.602402
  0
LINE
  8
CSLAYER1
  6
CONTINUOUS
 62
     7
 10
681.661792
 20
2147.602402
 11
681.580197
 21
2147.988686
  0
LINE
  8
CSLAYER1
  6
CONTINUOUS
 62
     7
 10
681.580197
 20
2147.988686
 11
681.525545
 21
2148.365861
  0
LINE
  8
CSLAYER1
  6
CONTINUOUS
 62
     7
 10
681.525545
 20
2148.365861
 11
681.498251
 21
2148.731059
  0
LINE
  8
CSLAYER1
  6
CONTINUOUS
 62
     7
 10
681.498251
 20
2148.731059
 11
681.498523
 21
2149.081498
  0
LINE
  8
CSLAYER1
  6
CONTINUOUS
 62
     7
 10
681.498523
 20
2149.081498
 11
681.526359
 21
2149.414514
  0
LINE
  8
CSLAYER1
  6
CONTINUOUS
 62
     7
 10
681.526359
 20
2149.414514
 11
681.581547
 21
2149.727570
  0
LINE
  8
CSLAYER1
  6
CONTINUOUS
 62
     7
 10
681.581547
 20
2149.727570
 11
681.663667
 21
2150.018285
  0
LINE
  8
CSLAYER1
  6
CONTINUOUS
 62
     7
 10
681.663667
 20
2150.018285
 11
681.772094
 21
2150.284446
  0
LINE
  8
CSLAYER1
  6
CONTINUOUS
 62
     7
 10
681.772094
 20
2150.284446
 11
681.906003
 21
2150.524027
  0
LINE
  8
CSLAYER1
  6
CONTINUOUS
 62
     7
 10
681.906003
 20
2150.524027
 11
682.064374
 21
2150.735205
  0
LINE
  8
CSLAYER1
  6
CONTINUOUS
 62
     7
 10
682.064374
 20
2150.735205
 11
682.246004
 21
2150.916373
  0
LINE
  8
CSLAYER1
  6
CONTINUOUS
 62
     7
 10
682.246004
 20
2150.916373
 11
682.449508
 21
2151.066151
  0
LINE
  8
CSLAYER1
  6
CONTINUOUS
 62
     7
 10
682.449508
 20
2151.066151
 11
684.901067
 21
2152.598055
  0
LINE
  8
CSLAYER1
  6
CONTINUOUS
 62
     7
 10
687.791094
 20
2142.517827
 11
690.242653
 21
2144.049731
  0
LINE
  8
CSLAYER1
  6
CONTINUOUS
 62
     7
 10
685.908017
 20
2150.255738
 11
688.359575
 21
2151.787642
  0
LINE
  8
CSLAYER1
  6
CONTINUOUS
 62
     7
 10
688.451320
 20
2146.432069
 11
690.902879
 21
2147.963973
  0
LINE
  8
CSLAYER1
  6
CONTINUOUS
 62
     7
 10
684.901067
 20
2152.598055
 11
685.124897
 21
2152.715305
  0
LINE
  8
CSLAYER1
  6
CONTINUOUS
 62
     7
 10
685.124897
 20
2152.715305
 11
685.367351
 21
2152.799134
  0
LINE
  8
CSLAYER1
  6
CONTINUOUS
 62
     7
 10
685.367351
 20
2152.799134
 11
685.626582
 21
2152.848903
  0
LINE
  8
CSLAYER1
  6
CONTINUOUS
 62
     7
 10
685.626582
 20
2152.848903
 11
685.900618
 21
2152.864234
  0
LINE
  8
CSLAYER1
  6
CONTINUOUS
 62
     7
 10
685.900618
 20
2152.864234
 11
686.187373
 21
2152.845010
  0
LINE
  8
CSLAYER1
  6
CONTINUOUS
 62
     7
 10
686.187373
 20
2152.845010
 11
686.484665
 21
2152.791378
  0
LINE
  8
CSLAYER1
  6
CONTINUOUS
 62
     7
 10
686.484665
 20
2152.791378
 11
686.790231
 21
2152.703746
  0
LINE
  8
CSLAYER1
  6
CONTINUOUS
 62
     7
 10
686.790231
 20
2152.703746
 11
687.101745
 21
2152.582780
  0
LINE
  8
CSLAYER1
  6
CONTINUOUS
 62
     7
 10
687.101745
 20
2152.582780
 11
687.416838
 21
2152.429402
  0
LINE
  8
CSLAYER1
  6
CONTINUOUS
 62
     7
 10
687.416838
 20
2152.429402
 11
687.733110
 21
2152.244778
  0
LINE
  8
CSLAYER1
  6
CONTINUOUS
 62
     7
 10
687.733110
 20
2152.244778
 11
688.048155
 21
2152.030314
  0
LINE
  8
CSLAYER1
  6
CONTINUOUS
 62
     7
 10
688.048155
 20
2152.030314
 11
688.359575
 21
2151.787642
  0
LINE
  8
CSLAYER1
  6
CONTINUOUS
 62
     7
 10
688.359575
 20
2151.787642
 11
688.665001
 21
2151.518609
  0
LINE
  8
CSLAYER1
  6
CONTINUOUS
 62
     7
 10
688.665001
 20
2151.518609
 11
688.962106
 21
2151.225261
  0
LINE
  8
CSLAYER1
  6
CONTINUOUS
 62
     7
 10
688.962106
 20
2151.225261
 11
689.248632
 21
2150.909833
  0
LINE
  8
CSLAYER1
  6
CONTINUOUS
 62
     7
 10
689.248632
 20
2150.909833
 11
689.522396
 21
2150.574724
  0
LINE
  8
CSLAYER1
  6
CONTINUOUS
 62
     7
 10
689.522396
 20
2150.574724
 11
689.781315
 21
2150.222485
  0
LINE
  8
CSLAYER1
  6
CONTINUOUS
 62
     7
 10
689.781315
 20
2150.222485
 11
690.023419
 21
2149.855797
  0
LINE
  8
CSLAYER1
  6
CONTINUOUS
 62
     7
 10
690.023419
 20
2149.855797
 11
690.246865
 21
2149.477450
  0
LINE
  8
CSLAYER1
  6
CONTINUOUS
 62
     7
 10
690.246865
 20
2149.477450
 11
690.449952
 21
2149.090323
  0
LINE
  8
CSLAYER1
  6
CONTINUOUS
 62
     7
 10
690.449952
 20
2149.090323
 11
690.631136
 21
2148.697364
  0
LINE
  8
CSLAYER1
  6
CONTINUOUS
 62
     7
 10
690.631136
 20
2148.697364
 11
690.789037
 21
2148.301562
  0
LINE
  8
CSLAYER1
  6
CONTINUOUS
 62
     7
 10
690.789037
 20
2148.301562
 11
690.922453
 21
2147.905930
  0
LINE
  8
CSLAYER1
  6
CONTINUOUS
 62
     7
 10
690.922453
 20
2147.905930
 11
691.030369
 21
2147.513480
  0
LINE
  8
CSLAYER1
  6
CONTINUOUS
 62
     7
 10
691.030369
 20
2147.513480
 11
691.111963
 21
2147.127196
  0
LINE
  8
CSLAYER1
  6
CONTINUOUS
 62
     7
 10
691.111963
 20
2147.127196
 11
691.166615
 21
2146.750021
  0
LINE
  8
CSLAYER1
  6
CONTINUOUS
 62
     7
 10
691.166615
 20
2146.750021
 11
691.193910
 21
2146.384823
  0
LINE
  8
CSLAYER1
  6
CONTINUOUS
 62
     7
 10
691.193910
 20
2146.384823
 11
691.193638
 21
2146.034384
  0
LINE
  8
CSLAYER1
  6
CONTINUOUS
 62
     7
 10
691.193638
 20
2146.034384
 11
691.165802
 21
2145.701368
  0
LINE
  8
CSLAYER1
  6
CONTINUOUS
 62
     7
 10
691.165802
 20
2145.701368
 11
691.110614
 21
2145.388312
  0
LINE
  8
CSLAYER1
  6
CONTINUOUS
 62
     7
 10
691.110614
 20
2145.388312
 11
691.028494
 21
2145.097597
  0
LINE
  8
CSLAYER1
  6
CONTINUOUS
 62
     7
 10
691.028494
 20
2145.097597
 11
690.920067
 21
2144.831436
  0
LINE
  8
CSLAYER1
  6
CONTINUOUS
 62
     7
 10
690.920067
 20
2144.831436
 11
690.786158
 21
2144.591855
  0
LINE
  8
CSLAYER1
  6
CONTINUOUS
 62
     7
 10
690.786158
 20
2144.591855
 11
690.627786
 21
2144.380677
  0
LINE
  8
CSLAYER1
  6
CONTINUOUS
 62
     7
 10
690.627786
 20
2144.380677
 11
690.446157
 21
2144.199509
  0
LINE
  8
CSLAYER1
  6
CONTINUOUS
 62
     7
 10
690.446157
 20
2144.199509
 11
690.242653
 21
2144.049731
  0
LINE
  8
CSLAYER1
  6
CONTINUOUS
 62
     7
 10
773.129094
 20
2118.061481
 11
775.580653
 21
2119.593385
  0
LINE
  8
CSLAYER1
  6
CONTINUOUS
 62
     7
 10
776.587603
 20
2117.251068
 11
779.039162
 21
2118.782972
  0
LINE
  8
CSLAYER1
  6
CONTINUOUS
 62
     7
 10
779.130907
 20
2113.427399
 11
781.582465
 21
2114.959303
  0
LINE
  8
CSLAYER1
  6
CONTINUOUS
 62
     7
 10
775.580653
 20
2119.593385
 11
775.804483
 21
2119.710635
  0
LINE
  8
CSLAYER1
  6
CONTINUOUS
 62
     7
 10
775.804483
 20
2119.710635
 11
776.046937
 21
2119.794463
  0
LINE
  8
CSLAYER1
  6
CONTINUOUS
 62
     7
 10
776.046937
 20
2119.794463
 11
776.306168
 21
2119.844233
  0
LINE
  8
CSLAYER1
  6
CONTINUOUS
 62
     7
 10
776.306168
 20
2119.844233
 11
776.580204
 21
2119.859564
  0
LINE
  8
CSLAYER1
  6
CONTINUOUS
 62
     7
 10
776.580204
 20
2119.859564
 11
776.866959
 21
2119.840340
  0
LINE
  8
CSLAYER1
  6
CONTINUOUS
 62
     7
 10
776.866959
 20
2119.840340
 11
777.164251
 21
2119.786708
  0
LINE
  8
CSLAYER1
  6
CONTINUOUS
 62
     7
 10
777.164251
 20
2119.786708
 11
777.469817
 21
2119.699076
  0
LINE
  8
CSLAYER1
  6
CONTINUOUS
 62
     7
 10
777.469817
 20
2119.699076
 11
777.781331
 21
2119.578110
  0
LINE
  8
CSLAYER1
  6
CONTINUOUS
 62
     7
 10
777.781331
 20
2119.578110
 11
778.096424
 21
2119.424732
  0
LINE
  8
CSLAYER1
  6
CONTINUOUS
 62
     7
 10
778.096424
 20
2119.424732
 11
778.412696
 21
2119.240108
  0
LINE
  8
CSLAYER1
  6
CONTINUOUS
 62
     7
 10
778.412696
 20
2119.240108
 11
778.727741
 21
2119.025644
  0
LINE
  8
CSLAYER1
  6
CONTINUOUS
 62
     7
 10
778.727741
 20
2119.025644
 11
779.039162
 21
2118.782972
  0
LINE
  8
CSLAYER1
  6
CONTINUOUS
 62
     7
 10
779.039162
 20
2118.782972
 11
779.344587
 21
2118.513938
  0
LINE
  8
CSLAYER1
  6
CONTINUOUS
 62
     7
 10
779.344587
 20
2118.513938
 11
779.641693
 21
2118.220591
  0
LINE
  8
CSLAYER1
  6
CONTINUOUS
 62
     7
 10
779.641693
 20
2118.220591
 11
779.928218
 21
2117.905163
  0
LINE
  8
CSLAYER1
  6
CONTINUOUS
 62
     7
 10
779.928218
 20
2117.905163
 11
780.201982
 21
2117.570054
  0
LINE
  8
CSLAYER1
  6
CONTINUOUS
 62
     7
 10
780.201982
 20
2117.570054
 11
780.460901
 21
2117.217815
  0
LINE
  8
CSLAYER1
  6
CONTINUOUS
 62
     7
 10
780.460901
 20
2117.217815
 11
780.703005
 21
2116.851127
  0
LINE
  8
CSLAYER1
  6
CONTINUOUS
 62
     7
 10
780.703005
 20
2116.851127
 11
780.880027
 21
2116.551387
  0
LINE
  8
CSLAYER1
  6
CONTINUOUS
 62
     7
 10
773.129094
 20
2118.061481
 11
773.352925
 21
2118.178731
  0
LINE
  8
CSLAYER1
  6
CONTINUOUS
 62
     7
 10
773.352925
 20
2118.178731
 11
773.595378
 21
2118.262559
  0
LINE
  8
CSLAYER1
  6
CONTINUOUS
 62
     7
 10
773.595378
 20
2118.262559
 11
773.854609
 21
2118.312329
  0
LINE
  8
CSLAYER1
  6
CONTINUOUS
 62
     7
 10
773.854609
 20
2118.312329
 11
774.128645
 21
2118.327660
  0
LINE
  8
CSLAYER1
  6
CONTINUOUS
 62
     7
 10
774.128645
 20
2118.327660
 11
774.415400
 21
2118.308436
  0
LINE
  8
CSLAYER1
  6
CONTINUOUS
 62
     7
 10
774.415400
 20
2118.308436
 11
774.712692
 21
2118.254804
  0
LINE
  8
CSLAYER1
  6
CONTINUOUS
 62
     7
 10
774.712692
 20
2118.254804
 11
775.018258
 21
2118.167172
  0
LINE
  8
CSLAYER1
  6
CONTINUOUS
 62
     7
 10
775.018258
 20
2118.167172
 11
775.329773
 21
2118.046206
  0
LINE
  8
CSLAYER1
  6
CONTINUOUS
 62
     7
 10
775.329773
 20
2118.046206
 11
775.644865
 21
2117.892828
  0
LINE
  8
CSLAYER1
  6
CONTINUOUS
 62
     7
 10
775.644865
 20
2117.892828
 11
775.961137
 21
2117.708204
  0
LINE
  8
CSLAYER1
  6
CONTINUOUS
 62
     7
 10
775.961137
 20
2117.708204
 11
776.276183
 21
2117.493740
  0
LINE
  8
CSLAYER1
  6
CONTINUOUS
 62
     7
 10
776.276183
 20
2117.493740
 11
776.587603
 21
2117.251068
  0
LINE
  8
CSLAYER1
  6
CONTINUOUS
 62
     7
 10
776.587603
 20
2117.251068
 11
776.893028
 21
2116.982034
  0
LINE
  8
CSLAYER1
  6
CONTINUOUS
 62
     7
 10
776.893028
 20
2116.982034
 11
777.190134
 21
2116.688687
  0
LINE
  8
CSLAYER1
  6
CONTINUOUS
 62
     7
 10
777.190134
 20
2116.688687
 11
777.476659
 21
2116.373259
  0
LINE
  8
CSLAYER1
  6
CONTINUOUS
 62
     7
 10
777.476659
 20
2116.373259
 11
777.750423
 21
2116.038150
  0
LINE
  8
CSLAYER1
  6
CONTINUOUS
 62
     7
 10
777.750423
 20
2116.038150
 11
778.009342
 21
2115.685911
  0
LINE
  8
CSLAYER1
  6
CONTINUOUS
 62
     7
 10
778.009342
 20
2115.685911
 11
778.251446
 21
2115.319223
  0
LINE
  8
CSLAYER1
  6
CONTINUOUS
 62
     7
 10
778.251446
 20
2115.319223
 11
778.428468
 21
2115.019483
  0
LINE
  8
CSLAYER1
  6
CONTINUOUS
 62
     7
 10
773.540132
 20
2111.964911
 11
773.348328
 21
2112.255415
  0
LINE
  8
CSLAYER1
  6
CONTINUOUS
 62
     7
 10
773.348328
 20
2112.255415
 11
773.124882
 21
2112.633762
  0
LINE
  8
CSLAYER1
  6
CONTINUOUS
 62
     7
 10
773.124882
 20
2112.633762
 11
772.921795
 21
2113.020888
  0
LINE
  8
CSLAYER1
  6
CONTINUOUS
 62
     7
 10
772.921795
 20
2113.020888
 11
772.740611
 21
2113.413848
  0
LINE
  8
CSLAYER1
  6
CONTINUOUS
 62
     7
 10
772.740611
 20
2113.413848
 11
772.582710
 21
2113.809650
  0
LINE
  8
CSLAYER1
  6
CONTINUOUS
 62
     7
 10
772.582710
 20
2113.809650
 11
772.449294
 21
2114.205281
  0
LINE
  8
CSLAYER1
  6
CONTINUOUS
 62
     7
 10
772.449294
 20
2114.205281
 11
772.341378
 21
2114.597732
  0
LINE
  8
CSLAYER1
  6
CONTINUOUS
 62
     7
 10
772.341378
 20
2114.597732
 11
772.259784
 21
2114.984015
  0
LINE
  8
CSLAYER1
  6
CONTINUOUS
 62
     7
 10
772.259784
 20
2114.984015
 11
772.205131
 21
2115.361191
  0
LINE
  8
CSLAYER1
  6
CONTINUOUS
 62
     7
 10
772.205131
 20
2115.361191
 11
772.177837
 21
2115.726388
  0
LINE
  8
CSLAYER1
  6
CONTINUOUS
 62
     7
 10
772.177837
 20
2115.726388
 11
772.178109
 21
2116.076828
  0
LINE
  8
CSLAYER1
  6
CONTINUOUS
 62
     7
 10
772.178109
 20
2116.076828
 11
772.205945
 21
2116.409844
  0
LINE
  8
CSLAYER1
  6
CONTINUOUS
 62
     7
 10
772.205945
 20
2116.409844
 11
772.261133
 21
2116.722900
  0
LINE
  8
CSLAYER1
  6
CONTINUOUS
 62
     7
 10
772.261133
 20
2116.722900
 11
772.343253
 21
2117.013615
  0
LINE
  8
CSLAYER1
  6
CONTINUOUS
 62
     7
 10
772.343253
 20
2117.013615
 11
772.451680
 21
2117.279776
  0
LINE
  8
CSLAYER1
  6
CONTINUOUS
 62
     7
 10
772.451680
 20
2117.279776
 11
772.585589
 21
2117.519357
  0
LINE
  8
CSLAYER1
  6
CONTINUOUS
 62
     7
 10
772.585589
 20
2117.519357
 11
772.743961
 21
2117.730535
  0
LINE
  8
CSLAYER1
  6
CONTINUOUS
 62
     7
 10
772.743961
 20
2117.730535
 11
772.925590
 21
2117.911702
  0
LINE
  8
CSLAYER1
  6
CONTINUOUS
 62
     7
 10
772.925590
 20
2117.911702
 11
773.129094
 21
2118.061481
  0
ARC
  8
CSLAYER1
  6
CONTINUOUS
 62
     7
 10
617.120150
 20
2116.947056
 40
6.720000
 50
122.000000
 51
180.000000
  0
ARC
  8
CSLAYER1
  6
CONTINUOUS
 62
     7
 10
615.099435
 20
2117.682536
 40
6.720000
 50
122.000000
 51
180.000000
  0
ARC
  8
CSLAYER1
  6
CONTINUOUS
 62
     7
 10
613.760150
 20
2052.813613
 40
3.360000
 50
256.943959
 51
302.000000
  0
ARC
  8
CSLAYER1
  6
CONTINUOUS
 62
     7
 10
611.491412
 20
2053.094420
 40
3.360000
 50
202.152506
 51
217.167534
  0
LINE
  8
CSLAYER1
  6
CONTINUOUS
 62
     7
 10
613.001113
 20
2049.540470
 11
608.813920
 21
2051.064484
  0
ARC
  8
CSLAYER1
  6
CONTINUOUS
 62
     7
 10
727.677959
 20
2077.346843
 40
3.360000
 50
122.000000
 51
180.000000
  0
ARC
  8
CSLAYER1
  6
CONTINUOUS
 62
     7
 10
725.657244
 20
2078.082323
 40
3.360000
 50
122.000000
 51
180.000000
  0
ARC
  8
CSLAYER1
  6
CONTINUOUS
 62
     7
 10
727.677959
 20
2011.350921
 40
3.360000
 50
180.000000
 51
302.000000
  0
ARC
  8
CSLAYER1
  6
CONTINUOUS
 62
     7
 10
725.548246
 20
2011.845438
 40
3.360000
 50
194.633804
 51
226.715114
  0
LINE
  8
CSLAYER1
  6
CONTINUOUS
 62
     7
 10
648.074545
 20
2146.211750
 11
676.766034
 21
2164.140182
  0
LINE
  8
CSLAYER1
  6
CONTINUOUS
 62
     7
 10
616.647514
 20
2050.655799
 11
613.249592
 21
2051.892541
  0
ARC
  8
CSLAYER1
  6
CONTINUOUS
 62
     7
 10
613.760150
 20
2052.813613
 40
3.360000
 50
180.000000
 51
256.943959
  0
LINE
  8
CSLAYER1
  6
CONTINUOUS
 62
     7
 10
648.074545
 20
1996.424541
 11
648.074545
 21
1980.154959
  0
LINE
  8
CSLAYER1
  6
CONTINUOUS
 62
     7
 10
403.803618
 20
1900.886367
 11
404.241588
 21
1901.009038
  0
LINE
  8
CSLAYER1
  6
CONTINUOUS
 62
     7
 10
404.241588
 20
1901.009038
 11
404.699840
 21
1901.065896
  0
LINE
  8
CSLAYER1
  6
CONTINUOUS
 62
     7
 10
404.699840
 20
1901.065896
 11
405.174885
 21
1901.056508
  0
LINE
  8
CSLAYER1
  6
CONTINUOUS
 62
     7
 10
405.174885
 20
1901.056508
 11
405.663108
 21
1900.980946
  0
LINE
  8
CSLAYER1
  6
CONTINUOUS
 62
     7
 10
405.663108
 20
1900.980946
 11
406.160793
 21
1900.839784
  0
LINE
  8
CSLAYER1
  6
CONTINUOUS
 62
     7
 10
406.160793
 20
1900.839784
 11
406.664153
 21
1900.634097
  0
LINE
  8
CSLAYER1
  6
CONTINUOUS
 62
     7
 10
406.664153
 20
1900.634097
 11
407.169357
 21
1900.365450
  0
LINE
  8
CSLAYER1
  6
CONTINUOUS
 62
     7
 10
407.169357
 20
1900.365450
 11
407.672560
 21
1900.035889
  0
LINE
  8
CSLAYER1
  6
CONTINUOUS
 62
     7
 10
407.672560
 20
1900.035889
 11
408.169932
 21
1899.647920
  0
LINE
  8
CSLAYER1
  6
CONTINUOUS
 62
     7
 10
408.169932
 20
1899.647920
 11
408.657688
 21
1899.204497
  0
LINE
  8
CSLAYER1
  6
CONTINUOUS
 62
     7
 10
408.657688
 20
1899.204497
 11
409.132116
 21
1898.708995
  0
LINE
  8
CSLAYER1
  6
CONTINUOUS
 62
     7
 10
409.132116
 20
1898.708995
 11
409.589605
 21
1898.165184
  0
LINE
  8
CSLAYER1
  6
CONTINUOUS
 62
     7
 10
409.589605
 20
1898.165184
 11
410.026674
 21
1897.577204
  0
LINE
  8
CSLAYER1
  6
CONTINUOUS
 62
     7
 10
410.026674
 20
1897.577204
 11
410.439995
 21
1896.949528
  0
LINE
  8
CSLAYER1
  6
CONTINUOUS
 62
     7
 10
410.439995
 20
1896.949528
 11
410.826424
 21
1896.286935
  0
LINE
  8
CSLAYER1
  6
CONTINUOUS
 62
     7
 10
410.826424
 20
1896.286935
 11
411.183019
 21
1895.594467
  0
LINE
  8
CSLAYER1
  6
CONTINUOUS
 62
     7
 10
411.183019
 20
1895.594467
 11
411.507067
 21
1894.877394
  0
LINE
  8
CSLAYER1
  6
CONTINUOUS
 62
     7
 10
411.507067
 20
1894.877394
 11
411.796101
 21
1894.141173
  0
LINE
  8
CSLAYER1
  6
CONTINUOUS
 62
     7
 10
411.796101
 20
1894.141173
 11
412.047922
 21
1893.391407
  0
LINE
  8
CSLAYER1
  6
CONTINUOUS
 62
     7
 10
412.047922
 20
1893.391407
 11
412.260613
 21
1892.633803
  0
LINE
  8
CSLAYER1
  6
CONTINUOUS
 62
     7
 10
412.260613
 20
1892.633803
 11
412.432555
 21
1891.874127
  0
LINE
  8
CSLAYER1
  6
CONTINUOUS
 62
     7
 10
412.432555
 20
1891.874127
 11
412.562440
 21
1891.118159
  0
LINE
  8
CSLAYER1
  6
CONTINUOUS
 62
     7
 10
412.562440
 20
1891.118159
 11
412.649279
 21
1890.371654
  0
LINE
  8
CSLAYER1
  6
CONTINUOUS
 62
     7
 10
412.649279
 20
1890.371654
 11
412.692412
 21
1889.640293
  0
LINE
  8
CSLAYER1
  6
CONTINUOUS
 62
     7
 10
412.692412
 20
1889.640293
 11
412.691510
 21
1888.929641
  0
LINE
  8
CSLAYER1
  6
CONTINUOUS
 62
     7
 10
412.691510
 20
1888.929641
 11
412.646580
 21
1888.245108
  0
LINE
  8
CSLAYER1
  6
CONTINUOUS
 62
     7
 10
412.646580
 20
1888.245108
 11
412.557964
 21
1887.591903
  0
LINE
  8
CSLAYER1
  6
CONTINUOUS
 62
     7
 10
412.557964
 20
1887.591903
 11
412.426336
 21
1886.974997
  0
LINE
  8
CSLAYER1
  6
CONTINUOUS
 62
     7
 10
412.426336
 20
1886.974997
 11
412.252698
 21
1886.399086
  0
LINE
  8
CSLAYER1
  6
CONTINUOUS
 62
     7
 10
412.252698
 20
1886.399086
 11
412.038372
 21
1885.868552
  0
LINE
  8
CSLAYER1
  6
CONTINUOUS
 62
     7
 10
412.038372
 20
1885.868552
 11
411.784989
 21
1885.387433
  0
LINE
  8
CSLAYER1
  6
CONTINUOUS
 62
     7
 10
411.784989
 20
1885.387433
 11
411.494477
 21
1884.959390
  0
LINE
  8
CSLAYER1
  6
CONTINUOUS
 62
     7
 10
411.494477
 20
1884.959390
 11
411.169047
 21
1884.587682
  0
LINE
  8
CSLAYER1
  6
CONTINUOUS
 62
     7
 10
411.169047
 20
1884.587682
 11
410.811176
 21
1884.275138
  0
LINE
  8
CSLAYER1
  6
CONTINUOUS
 62
     7
 10
410.811176
 20
1884.275138
 11
410.423587
 21
1884.024135
  0
LINE
  8
CSLAYER1
  6
CONTINUOUS
 62
     7
 10
410.423587
 20
1884.024135
 11
410.009231
 21
1883.836584
  0
LINE
  8
CSLAYER1
  6
CONTINUOUS
 62
     7
 10
410.009231
 20
1883.836584
 11
409.571261
 21
1883.713913
  0
LINE
  8
CSLAYER1
  6
CONTINUOUS
 62
     7
 10
409.571261
 20
1883.713913
 11
409.113009
 21
1883.657056
  0
LINE
  8
CSLAYER1
  6
CONTINUOUS
 62
     7
 10
409.113009
 20
1883.657056
 11
408.637964
 21
1883.666444
  0
LINE
  8
CSLAYER1
  6
CONTINUOUS
 62
     7
 10
408.637964
 20
1883.666444
 11
408.149741
 21
1883.742006
  0
LINE
  8
CSLAYER1
  6
CONTINUOUS
 62
     7
 10
408.149741
 20
1883.742006
 11
407.652055
 21
1883.883168
  0
LINE
  8
CSLAYER1
  6
CONTINUOUS
 62
     7
 10
407.652055
 20
1883.883168
 11
407.148695
 21
1884.088855
  0
LINE
  8
CSLAYER1
  6
CONTINUOUS
 62
     7
 10
407.148695
 20
1884.088855
 11
406.643491
 21
1884.357501
  0
LINE
  8
CSLAYER1
  6
CONTINUOUS
 62
     7
 10
406.643491
 20
1884.357501
 11
406.140288
 21
1884.687063
  0
LINE
  8
CSLAYER1
  6
CONTINUOUS
 62
     7
 10
406.140288
 20
1884.687063
 11
405.642916
 21
1885.075032
  0
LINE
  8
CSLAYER1
  6
CONTINUOUS
 62
     7
 10
405.642916
 20
1885.075032
 11
405.155160
 21
1885.518454
  0
LINE
  8
CSLAYER1
  6
CONTINUOUS
 62
     7
 10
405.155160
 20
1885.518454
 11
404.680732
 21
1886.013957
  0
LINE
  8
CSLAYER1
  6
CONTINUOUS
 62
     7
 10
404.680732
 20
1886.013957
 11
404.223243
 21
1886.557767
  0
LINE
  8
CSLAYER1
  6
CONTINUOUS
 62
     7
 10
404.223243
 20
1886.557767
 11
403.786175
 21
1887.145748
  0
LINE
  8
CSLAYER1
  6
CONTINUOUS
 62
     7
 10
403.786175
 20
1887.145748
 11
403.372853
 21
1887.773423
  0
LINE
  8
CSLAYER1
  6
CONTINUOUS
 62
     7
 10
403.372853
 20
1887.773423
 11
402.986425
 21
1888.436016
  0
LINE
  8
CSLAYER1
  6
CONTINUOUS
 62
     7
 10
402.986425
 20
1888.436016
 11
402.629829
 21
1889.128485
  0
LINE
  8
CSLAYER1
  6
CONTINUOUS
 62
     7
 10
402.629829
 20
1889.128485
 11
402.305782
 21
1889.845558
  0
LINE
  8
CSLAYER1
  6
CONTINUOUS
 62
     7
 10
402.305782
 20
1889.845558
 11
402.016747
 21
1890.581779
  0
LINE
  8
CSLAYER1
  6
CONTINUOUS
 62
     7
 10
402.016747
 20
1890.581779
 11
401.764927
 21
1891.331545
  0
LINE
  8
CSLAYER1
  6
CONTINUOUS
 62
     7
 10
401.764927
 20
1891.331545
 11
401.552236
 21
1892.089149
  0
LINE
  8
CSLAYER1
  6
CONTINUOUS
 62
     7
 10
401.552236
 20
1892.089149
 11
401.380294
 21
1892.848825
  0
LINE
  8
CSLAYER1
  6
CONTINUOUS
 62
     7
 10
401.380294
 20
1892.848825
 11
401.250409
 21
1893.604793
  0
LINE
  8
CSLAYER1
  6
CONTINUOUS
 62
     7
 10
401.250409
 20
1893.604793
 11
401.163569
 21
1894.351298
  0
LINE
  8
CSLAYER1
  6
CONTINUOUS
 62
     7
 10
401.163569
 20
1894.351298
 11
401.120437
 21
1895.082659
  0
LINE
  8
CSLAYER1
  6
CONTINUOUS
 62
     7
 10
401.120437
 20
1895.082659
 11
401.121339
 21
1895.793310
  0
LINE
  8
CSLAYER1
  6
CONTINUOUS
 62
     7
 10
401.121339
 20
1895.793310
 11
401.166269
 21
1896.477844
  0
LINE
  8
CSLAYER1
  6
CONTINUOUS
 62
     7
 10
401.166269
 20
1896.477844
 11
401.254885
 21
1897.131049
  0
LINE
  8
CSLAYER1
  6
CONTINUOUS
 62
     7
 10
401.254885
 20
1897.131049
 11
401.386513
 21
1897.747955
  0
LINE
  8
CSLAYER1
  6
CONTINUOUS
 62
     7
 10
401.386513
 20
1897.747955
 11
401.560150
 21
1898.323866
  0
LINE
  8
CSLAYER1
  6
CONTINUOUS
 62
     7
 10
401.560150
 20
1898.323866
 11
401.774476
 21
1898.854400
  0
LINE
  8
CSLAYER1
  6
CONTINUOUS
 62
     7
 10
401.774476
 20
1898.854400
 11
402.027860
 21
1899.335519
  0
LINE
  8
CSLAYER1
  6
CONTINUOUS
 62
     7
 10
402.027860
 20
1899.335519
 11
402.318372
 21
1899.763561
  0
LINE
  8
CSLAYER1
  6
CONTINUOUS
 62
     7
 10
402.318372
 20
1899.763561
 11
402.643802
 21
1900.135269
  0
LINE
  8
CSLAYER1
  6
CONTINUOUS
 62
     7
 10
402.643802
 20
1900.135269
 11
403.001673
 21
1900.447814
  0
LINE
  8
CSLAYER1
  6
CONTINUOUS
 62
     7
 10
403.001673
 20
1900.447814
 11
403.389261
 21
1900.698817
  0
LINE
  8
CSLAYER1
  6
CONTINUOUS
 62
     7
 10
403.389261
 20
1900.698817
 11
403.803618
 21
1900.886367
  0
LINE
  8
CSLAYER1
  6
CONTINUOUS
 62
     7
 10
403.803618
 20
1900.886367
 11
459.319275
 21
1921.562354
  0
LINE
  8
CSLAYER1
  6
CONTINUOUS
 62
     7
 10
410.009231
 20
1883.836584
 11
465.524888
 21
1904.512571
  0
LINE
  8
CSLAYER1
  6
CONTINUOUS
 62
     7
 10
459.319275
 20
1921.562354
 11
459.757245
 21
1921.685025
  0
LINE
  8
CSLAYER1
  6
CONTINUOUS
 62
     7
 10
459.757245
 20
1921.685025
 11
460.215497
 21
1921.741883
  0
LINE
  8
CSLAYER1
  6
CONTINUOUS
 62
     7
 10
460.215497
 20
1921.741883
 11
460.690542
 21
1921.732495
  0
LINE
  8
CSLAYER1
  6
CONTINUOUS
 62
     7
 10
460.690542
 20
1921.732495
 11
461.178765
 21
1921.656932
  0
LINE
  8
CSLAYER1
  6
CONTINUOUS
 62
     7
 10
461.178765
 20
1921.656932
 11
461.676450
 21
1921.515770
  0
LINE
  8
CSLAYER1
  6
CONTINUOUS
 62
     7
 10
461.676450
 20
1921.515770
 11
462.179810
 21
1921.310084
  0
LINE
  8
CSLAYER1
  6
CONTINUOUS
 62
     7
 10
462.179810
 20
1921.310084
 11
462.685014
 21
1921.041437
  0
LINE
  8
CSLAYER1
  6
CONTINUOUS
 62
     7
 10
462.685014
 20
1921.041437
 11
463.188217
 21
1920.711875
  0
LINE
  8
CSLAYER1
  6
CONTINUOUS
 62
     7
 10
463.188217
 20
1920.711875
 11
463.685589
 21
1920.323907
  0
LINE
  8
CSLAYER1
  6
CONTINUOUS
 62
     7
 10
463.685589
 20
1920.323907
 11
464.173345
 21
1919.880484
  0
LINE
  8
CSLAYER1
  6
CONTINUOUS
 62
     7
 10
464.173345
 20
1919.880484
 11
464.647773
 21
1919.384982
  0
LINE
  8
CSLAYER1
  6
CONTINUOUS
 62
     7
 10
464.647773
 20
1919.384982
 11
465.105262
 21
1918.841171
  0
LINE
  8
CSLAYER1
  6
CONTINUOUS
 62
     7
 10
465.105262
 20
1918.841171
 11
465.542331
 21
1918.253190
  0
LINE
  8
CSLAYER1
  6
CONTINUOUS
 62
     7
 10
465.542331
 20
1918.253190
 11
465.955652
 21
1917.625515
  0
LINE
  8
CSLAYER1
  6
CONTINUOUS
 62
     7
 10
465.955652
 20
1917.625515
 11
466.342081
 21
1916.962922
  0
LINE
  8
CSLAYER1
  6
CONTINUOUS
 62
     7
 10
466.342081
 20
1916.962922
 11
466.698676
 21
1916.270454
  0
LINE
  8
CSLAYER1
  6
CONTINUOUS
 62
     7
 10
466.698676
 20
1916.270454
 11
467.022724
 21
1915.553380
  0
LINE
  8
CSLAYER1
  6
CONTINUOUS
 62
     7
 10
467.022724
 20
1915.553380
 11
467.311758
 21
1914.817159
  0
LINE
  8
CSLAYER1
  6
CONTINUOUS
 62
     7
 10
467.311758
 20
1914.817159
 11
467.563579
 21
1914.067394
  0
LINE
  8
CSLAYER1
  6
CONTINUOUS
 62
     7
 10
467.563579
 20
1914.067394
 11
467.776270
 21
1913.309790
  0
LINE
  8
CSLAYER1
  6
CONTINUOUS
 62
     7
 10
467.776270
 20
1913.309790
 11
467.948212
 21
1912.550113
  0
LINE
  8
CSLAYER1
  6
CONTINUOUS
 62
     7
 10
467.948212
 20
1912.550113
 11
468.078097
 21
1911.794146
  0
LINE
  8
CSLAYER1
  6
CONTINUOUS
 62
     7
 10
468.078097
 20
1911.794146
 11
468.164936
 21
1911.047641
  0
LINE
  8
CSLAYER1
  6
CONTINUOUS
 62
     7
 10
468.164936
 20
1911.047641
 11
468.208069
 21
1910.316280
  0
LINE
  8
CSLAYER1
  6
CONTINUOUS
 62
     7
 10
468.208069
 20
1910.316280
 11
468.207167
 21
1909.605628
  0
LINE
  8
CSLAYER1
  6
CONTINUOUS
 62
     7
 10
468.207167
 20
1909.605628
 11
468.162237
 21
1908.921095
  0
LINE
  8
CSLAYER1
  6
CONTINUOUS
 62
     7
 10
468.162237
 20
1908.921095
 11
468.073621
 21
1908.267890
  0
LINE
  8
CSLAYER1
  6
CONTINUOUS
 62
     7
 10
468.073621
 20
1908.267890
 11
467.941993
 21
1907.650984
  0
LINE
  8
CSLAYER1
  6
CONTINUOUS
 62
     7
 10
467.941993
 20
1907.650984
 11
467.768355
 21
1907.075072
  0
LINE
  8
CSLAYER1
  6
CONTINUOUS
 62
     7
 10
467.768355
 20
1907.075072
 11
467.554029
 21
1906.544538
  0
LINE
  8
CSLAYER1
  6
CONTINUOUS
 62
     7
 10
467.554029
 20
1906.544538
 11
467.300646
 21
1906.063419
  0
LINE
  8
CSLAYER1
  6
CONTINUOUS
 62
     7
 10
467.300646
 20
1906.063419
 11
467.010134
 21
1905.635377
  0
LINE
  8
CSLAYER1
  6
CONTINUOUS
 62
     7
 10
467.010134
 20
1905.635377
 11
466.684704
 21
1905.263669
  0
LINE
  8
CSLAYER1
  6
CONTINUOUS
 62
     7
 10
466.684704
 20
1905.263669
 11
466.326833
 21
1904.951124
  0
LINE
  8
CSLAYER1
  6
CONTINUOUS
 62
     7
 10
466.326833
 20
1904.951124
 11
465.939244
 21
1904.700122
  0
LINE
  8
CSLAYER1
  6
CONTINUOUS
 62
     7
 10
465.939244
 20
1904.700122
 11
465.524888
 21
1904.512571
  0
LINE
  8
CSLAYER1
  6
CONTINUOUS
 62
     7
 10
641.640693
 20
1808.588118
 11
641.969808
 21
1808.902044
  0
LINE
  8
CSLAYER1
  6
CONTINUOUS
 62
     7
 10
641.969808
 20
1808.902044
 11
642.347727
 21
1809.167383
  0
LINE
  8
CSLAYER1
  6
CONTINUOUS
 62
     7
 10
642.347727
 20
1809.167383
 11
642.771574
 21
1809.382114
  0
LINE
  8
CSLAYER1
  6
CONTINUOUS
 62
     7
 10
642.771574
 20
1809.382114
 11
643.238124
 21
1809.544603
  0
LINE
  8
CSLAYER1
  6
CONTINUOUS
 62
     7
 10
643.238124
 20
1809.544603
 11
643.743825
 21
1809.653614
  0
LINE
  8
CSLAYER1
  6
CONTINUOUS
 62
     7
 10
643.743825
 20
1809.653614
 11
644.284830
 21
1809.708316
  0
LINE
  8
CSLAYER1
  6
CONTINUOUS
 62
     7
 10
644.284830
 20
1809.708316
 11
644.857021
 21
1809.708294
  0
LINE
  8
CSLAYER1
  6
CONTINUOUS
 62
     7
 10
644.857021
 20
1809.708294
 11
645.456042
 21
1809.653548
  0
LINE
  8
CSLAYER1
  6
CONTINUOUS
 62
     7
 10
645.456042
 20
1809.653548
 11
646.077336
 21
1809.544494
  0
LINE
  8
CSLAYER1
  6
CONTINUOUS
 62
     7
 10
646.077336
 20
1809.544494
 11
646.716173
 21
1809.381963
  0
LINE
  8
CSLAYER1
  6
CONTINUOUS
 62
     7
 10
646.716173
 20
1809.381963
 11
647.367693
 21
1809.167191
  0
LINE
  8
CSLAYER1
  6
CONTINUOUS
 62
     7
 10
647.367693
 20
1809.167191
 11
648.026935
 21
1808.901812
  0
LINE
  8
CSLAYER1
  6
CONTINUOUS
 62
     7
 10
648.026935
 20
1808.901812
 11
648.688884
 21
1808.587847
  0
LINE
  8
CSLAYER1
  6
CONTINUOUS
 62
     7
 10
648.688884
 20
1808.587847
 11
649.348501
 21
1808.227686
  0
LINE
  8
CSLAYER1
  6
CONTINUOUS
 62
     7
 10
649.348501
 20
1808.227686
 11
650.000766
 21
1807.824068
  0
LINE
  8
CSLAYER1
  6
CONTINUOUS
 62
     7
 10
650.000766
 20
1807.824068
 11
650.640715
 21
1807.380066
  0
LINE
  8
CSLAYER1
  6
CONTINUOUS
 62
     7
 10
650.640715
 20
1807.380066
 11
651.263478
 21
1806.899059
  0
LINE
  8
CSLAYER1
  6
CONTINUOUS
 62
     7
 10
651.263478
 20
1806.899059
 11
651.864314
 21
1806.384708
  0
LINE
  8
CSLAYER1
  6
CONTINUOUS
 62
     7
 10
651.864314
 20
1806.384708
 11
652.438652
 21
1805.840927
  0
LINE
  8
CSLAYER1
  6
CONTINUOUS
 62
     7
 10
652.438652
 20
1805.840927
 11
652.982121
 21
1805.271855
  0
LINE
  8
CSLAYER1
  6
CONTINUOUS
 62
     7
 10
652.982121
 20
1805.271855
 11
653.490583
 21
1804.681822
  0
LINE
  8
CSLAYER1
  6
CONTINUOUS
 62
     7
 10
653.490583
 20
1804.681822
 11
653.960170
 21
1804.075320
  0
LINE
  8
CSLAYER1
  6
CONTINUOUS
 62
     7
 10
653.960170
 20
1804.075320
 11
654.387308
 21
1803.456964
  0
LINE
  8
CSLAYER1
  6
CONTINUOUS
 62
     7
 10
654.387308
 20
1803.456964
 11
654.768745
 21
1802.831459
  0
LINE
  8
CSLAYER1
  6
CONTINUOUS
 62
     7
 10
654.768745
 20
1802.831459
 11
655.101579
 21
1802.203568
  0
LINE
  8
CSLAYER1
  6
CONTINUOUS
 62
     7
 10
655.101579
 20
1802.203568
 11
655.383277
 21
1801.578068
  0
LINE
  8
CSLAYER1
  6
CONTINUOUS
 62
     7
 10
655.383277
 20
1801.578068
 11
655.611695
 21
1800.959719
  0
LINE
  8
CSLAYER1
  6
CONTINUOUS
 62
     7
 10
655.611695
 20
1800.959719
 11
655.785094
 21
1800.353228
  0
LINE
  8
CSLAYER1
  6
CONTINUOUS
 62
     7
 10
655.785094
 20
1800.353228
 11
655.902155
 21
1799.763210
  0
LINE
  8
CSLAYER1
  6
CONTINUOUS
 62
     7
 10
655.902155
 20
1799.763210
 11
655.961987
 21
1799.194157
  0
LINE
  8
CSLAYER1
  6
CONTINUOUS
 62
     7
 10
655.961987
 20
1799.194157
 11
655.964135
 21
1798.650397
  0
LINE
  8
CSLAYER1
  6
CONTINUOUS
 62
     7
 10
655.964135
 20
1798.650397
 11
655.908582
 21
1798.136071
  0
LINE
  8
CSLAYER1
  6
CONTINUOUS
 62
     7
 10
655.908582
 20
1798.136071
 11
655.795750
 21
1797.655093
  0
LINE
  8
CSLAYER1
  6
CONTINUOUS
 62
     7
 10
655.795750
 20
1797.655093
 11
655.626500
 21
1797.211122
  0
LINE
  8
CSLAYER1
  6
CONTINUOUS
 62
     7
 10
655.626500
 20
1797.211122
 11
655.402118
 21
1796.807538
  0
LINE
  8
CSLAYER1
  6
CONTINUOUS
 62
     7
 10
655.402118
 20
1796.807538
 11
655.124313
 21
1796.447412
  0
LINE
  8
CSLAYER1
  6
CONTINUOUS
 62
     7
 10
655.124313
 20
1796.447412
 11
654.795198
 21
1796.133485
  0
LINE
  8
CSLAYER1
  6
CONTINUOUS
 62
     7
 10
654.795198
 20
1796.133485
 11
654.417279
 21
1795.868147
  0
LINE
  8
CSLAYER1
  6
CONTINUOUS
 62
     7
 10
654.417279
 20
1795.868147
 11
653.993432
 21
1795.653416
  0
LINE
  8
CSLAYER1
  6
CONTINUOUS
 62
     7
 10
653.993432
 20
1795.653416
 11
653.526882
 21
1795.490926
  0
LINE
  8
CSLAYER1
  6
CONTINUOUS
 62
     7
 10
653.526882
 20
1795.490926
 11
653.021181
 21
1795.381916
  0
LINE
  8
CSLAYER1
  6
CONTINUOUS
 62
     7
 10
653.021181
 20
1795.381916
 11
652.480176
 21
1795.327213
  0
LINE
  8
CSLAYER1
  6
CONTINUOUS
 62
     7
 10
652.480176
 20
1795.327213
 11
651.907985
 21
1795.327235
  0
LINE
  8
CSLAYER1
  6
CONTINUOUS
 62
     7
 10
651.907985
 20
1795.327235
 11
651.308964
 21
1795.381981
  0
LINE
  8
CSLAYER1
  6
CONTINUOUS
 62
     7
 10
651.308964
 20
1795.381981
 11
650.687670
 21
1795.491035
  0
LINE
  8
CSLAYER1
  6
CONTINUOUS
 62
     7
 10
650.687670
 20
1795.491035
 11
650.048833
 21
1795.653567
  0
LINE
  8
CSLAYER1
  6
CONTINUOUS
 62
     7
 10
650.048833
 20
1795.653567
 11
649.397313
 21
1795.868339
  0
LINE
  8
CSLAYER1
  6
CONTINUOUS
 62
     7
 10
649.397313
 20
1795.868339
 11
648.738071
 21
1796.133717
  0
LINE
  8
CSLAYER1
  6
CONTINUOUS
 62
     7
 10
648.738071
 20
1796.133717
 11
648.076122
 21
1796.447682
  0
LINE
  8
CSLAYER1
  6
CONTINUOUS
 62
     7
 10
648.076122
 20
1796.447682
 11
647.416505
 21
1796.807844
  0
LINE
  8
CSLAYER1
  6
CONTINUOUS
 62
     7
 10
647.416505
 20
1796.807844
 11
646.764240
 21
1797.211461
  0
LINE
  8
CSLAYER1
  6
CONTINUOUS
 62
     7
 10
646.764240
 20
1797.211461
 11
646.124291
 21
1797.655463
  0
LINE
  8
CSLAYER1
  6
CONTINUOUS
 62
     7
 10
646.124291
 20
1797.655463
 11
645.501528
 21
1798.136470
  0
LINE
  8
CSLAYER1
  6
CONTINUOUS
 62
     7
 10
645.501528
 20
1798.136470
 11
644.900692
 21
1798.650821
  0
LINE
  8
CSLAYER1
  6
CONTINUOUS
 62
     7
 10
644.900692
 20
1798.650821
 11
644.326353
 21
1799.194602
  0
LINE
  8
CSLAYER1
  6
CONTINUOUS
 62
     7
 10
644.326353
 20
1799.194602
 11
643.782885
 21
1799.763675
  0
LINE
  8
CSLAYER1
  6
CONTINUOUS
 62
     7
 10
643.782885
 20
1799.763675
 11
643.274423
 21
1800.353707
  0
LINE
  8
CSLAYER1
  6
CONTINUOUS
 62
     7
 10
643.274423
 20
1800.353707
 11
642.804836
 21
1800.960210
  0
LINE
  8
CSLAYER1
  6
CONTINUOUS
 62
     7
 10
642.804836
 20
1800.960210
 11
642.377698
 21
1801.578566
  0
LINE
  8
CSLAYER1
  6
CONTINUOUS
 62
     7
 10
642.377698
 20
1801.578566
 11
641.996261
 21
1802.204070
  0
LINE
  8
CSLAYER1
  6
CONTINUOUS
 62
     7
 10
641.996261
 20
1802.204070
 11
641.663427
 21
1802.831962
  0
LINE
  8
CSLAYER1
  6
CONTINUOUS
 62
     7
 10
641.663427
 20
1802.831962
 11
641.381729
 21
1803.457462
  0
LINE
  8
CSLAYER1
  6
CONTINUOUS
 62
     7
 10
641.381729
 20
1803.457462
 11
641.153311
 21
1804.075811
  0
LINE
  8
CSLAYER1
  6
CONTINUOUS
 62
     7
 10
641.153311
 20
1804.075811
 11
640.979912
 21
1804.682302
  0
LINE
  8
CSLAYER1
  6
CONTINUOUS
 62
     7
 10
640.979912
 20
1804.682302
 11
640.862851
 21
1805.272319
  0
LINE
  8
CSLAYER1
  6
CONTINUOUS
 62
     7
 10
640.862851
 20
1805.272319
 11
640.803019
 21
1805.841373
  0
LINE
  8
CSLAYER1
  6
CONTINUOUS
 62
     7
 10
640.803019
 20
1805.841373
 11
640.800871
 21
1806.385132
  0
LINE
  8
CSLAYER1
  6
CONTINUOUS
 62
     7
 10
640.800871
 20
1806.385132
 11
640.856424
 21
1806.899458
  0
LINE
  8
CSLAYER1
  6
CONTINUOUS
 62
     7
 10
640.856424
 20
1806.899458
 11
640.969256
 21
1807.380437
  0
LINE
  8
CSLAYER1
  6
CONTINUOUS
 62
     7
 10
640.969256
 20
1807.380437
 11
641.138506
 21
1807.824408
  0
LINE
  8
CSLAYER1
  6
CONTINUOUS
 62
     7
 10
641.138506
 20
1807.824408
 11
641.362888
 21
1808.227992
  0
LINE
  8
CSLAYER1
  6
CONTINUOUS
 62
     7
 10
641.362888
 20
1808.227992
 11
641.640693
 21
1808.588118
  0
LINE
  8
CSLAYER1
  6
CONTINUOUS
 62
     7
 10
655.124313
 20
1796.447412
 11
685.111382
 21
1829.842770
  0
LINE
  8
CSLAYER1
  6
CONTINUOUS
 62
     7
 10
641.640693
 20
1808.588118
 11
671.627762
 21
1841.983476
  0
LINE
  8
CSLAYER1
  6
CONTINUOUS
 62
     7
 10
671.627762
 20
1841.983476
 11
671.956877
 21
1842.297403
  0
LINE
  8
CSLAYER1
  6
CONTINUOUS
 62
     7
 10
671.956877
 20
1842.297403
 11
672.334796
 21
1842.562741
  0
LINE
  8
CSLAYER1
  6
CONTINUOUS
 62
     7
 10
672.334796
 20
1842.562741
 11
672.758643
 21
1842.777472
  0
LINE
  8
CSLAYER1
  6
CONTINUOUS
 62
     7
 10
672.758643
 20
1842.777472
 11
673.225193
 21
1842.939961
  0
LINE
  8
CSLAYER1
  6
CONTINUOUS
 62
     7
 10
673.225193
 20
1842.939961
 11
673.730895
 21
1843.048972
  0
LINE
  8
CSLAYER1
  6
CONTINUOUS
 62
     7
 10
673.730895
 20
1843.048972
 11
674.271899
 21
1843.103675
  0
LINE
  8
CSLAYER1
  6
CONTINUOUS
 62
     7
 10
674.271899
 20
1843.103675
 11
674.844090
 21
1843.103653
  0
LINE
  8
CSLAYER1
  6
CONTINUOUS
 62
     7
 10
674.844090
 20
1843.103653
 11
675.443111
 21
1843.048906
  0
LINE
  8
CSLAYER1
  6
CONTINUOUS
 62
     7
 10
675.443111
 20
1843.048906
 11
676.064405
 21
1842.939853
  0
LINE
  8
CSLAYER1
  6
CONTINUOUS
 62
     7
 10
676.064405
 20
1842.939853
 11
676.703243
 21
1842.777321
  0
LINE
  8
CSLAYER1
  6
CONTINUOUS
 62
     7
 10
676.703243
 20
1842.777321
 11
677.354762
 21
1842.562549
  0
LINE
  8
CSLAYER1
  6
CONTINUOUS
 62
     7
 10
677.354762
 20
1842.562549
 11
678.014004
 21
1842.297171
  0
LINE
  8
CSLAYER1
  6
CONTINUOUS
 62
     7
 10
678.014004
 20
1842.297171
 11
678.675953
 21
1841.983206
  0
LINE
  8
CSLAYER1
  6
CONTINUOUS
 62
     7
 10
678.675953
 20
1841.983206
 11
679.335570
 21
1841.623044
  0
LINE
  8
CSLAYER1
  6
CONTINUOUS
 62
     7
 10
679.335570
 20
1841.623044
 11
679.987835
 21
1841.219426
  0
LINE
  8
CSLAYER1
  6
CONTINUOUS
 62
     7
 10
679.987835
 20
1841.219426
 11
680.627784
 21
1840.775425
  0
LINE
  8
CSLAYER1
  6
CONTINUOUS
 62
     7
 10
680.627784
 20
1840.775425
 11
681.250547
 21
1840.294418
  0
LINE
  8
CSLAYER1
  6
CONTINUOUS
 62
     7
 10
681.250547
 20
1840.294418
 11
681.851384
 21
1839.780066
  0
LINE
  8
CSLAYER1
  6
CONTINUOUS
 62
     7
 10
681.851384
 20
1839.780066
 11
682.425722
 21
1839.236285
  0
LINE
  8
CSLAYER1
  6
CONTINUOUS
 62
     7
 10
682.425722
 20
1839.236285
 11
682.969190
 21
1838.667213
  0
LINE
  8
CSLAYER1
  6
CONTINUOUS
 62
     7
 10
682.969190
 20
1838.667213
 11
683.477653
 21
1838.077181
  0
LINE
  8
CSLAYER1
  6
CONTINUOUS
 62
     7
 10
683.477653
 20
1838.077181
 11
683.947239
 21
1837.470678
  0
LINE
  8
CSLAYER1
  6
CONTINUOUS
 62
     7
 10
683.947239
 20
1837.470678
 11
684.374377
 21
1836.852322
  0
LINE
  8
CSLAYER1
  6
CONTINUOUS
 62
     7
 10
684.374377
 20
1836.852322
 11
684.755814
 21
1836.226818
  0
LINE
  8
CSLAYER1
  6
CONTINUOUS
 62
     7
 10
684.755814
 20
1836.226818
 11
685.088648
 21
1835.598926
  0
LINE
  8
CSLAYER1
  6
CONTINUOUS
 62
     7
 10
685.088648
 20
1835.598926
 11
685.370346
 21
1834.973426
  0
LINE
  8
CSLAYER1
  6
CONTINUOUS
 62
     7
 10
685.370346
 20
1834.973426
 11
685.598764
 21
1834.355077
  0
LINE
  8
CSLAYER1
  6
CONTINUOUS
 62
     7
 10
685.598764
 20
1834.355077
 11
685.772163
 21
1833.748586
  0
LINE
  8
CSLAYER1
  6
CONTINUOUS
 62
     7
 10
685.772163
 20
1833.748586
 11
685.889225
 21
1833.158569
  0
LINE
  8
CSLAYER1
  6
CONTINUOUS
 62
     7
 10
685.889225
 20
1833.158569
 11
685.949057
 21
1832.589515
  0
LINE
  8
CSLAYER1
  6
CONTINUOUS
 62
     7
 10
685.949057
 20
1832.589515
 11
685.951204
 21
1832.045756
  0
LINE
  8
CSLAYER1
  6
CONTINUOUS
 62
     7
 10
685.951204
 20
1832.045756
 11
685.895651
 21
1831.531430
  0
LINE
  8
CSLAYER1
  6
CONTINUOUS
 62
     7
 10
685.895651
 20
1831.531430
 11
685.782820
 21
1831.050451
  0
LINE
  8
CSLAYER1
  6
CONTINUOUS
 62
     7
 10
685.782820
 20
1831.050451
 11
685.613569
 21
1830.606480
  0
LINE
  8
CSLAYER1
  6
CONTINUOUS
 62
     7
 10
685.613569
 20
1830.606480
 11
685.389187
 21
1830.202896
  0
LINE
  8
CSLAYER1
  6
CONTINUOUS
 62
     7
 10
685.389187
 20
1830.202896
 11
685.111382
 21
1829.842770
  0
LINE
  8
CSLAYER1
  6
CONTINUOUS
 62
     7
 10
766.033784
 20
1963.594424
 11
766.033784
 21
1945.295089
  0
LINE
  8
CSLAYER1
  6
CONTINUOUS
 62
     7
 10
766.033784
 20
1945.295089
 11
766.033784
 21
1939.390857
  0
LINE
  8
CSLAYER1
  6
CONTINUOUS
 62
     7
 10
796.548915
 20
2016.949811
 11
796.548915
 21
1996.598609
  0
LINE
  8
CSLAYER1
  6
CONTINUOUS
 62
     7
 10
796.548915
 20
1979.062420
 11
796.548915
 21
1956.460664
  0
LINE
  8
CSLAYER1
  6
CONTINUOUS
 62
     7
 10
808.133783
 20
2009.790444
 11
810.968684
 21
2007.238085
  0
LINE
  8
CSLAYER1
  6
CONTINUOUS
 62
     7
 10
810.968684
 20
2007.238085
 11
813.404963
 21
2004.553720
  0
LINE
  8
CSLAYER1
  6
CONTINUOUS
 62
     7
 10
813.404963
 20
2004.553720
 11
815.424077
 21
2001.757779
  0
LINE
  8
CSLAYER1
  6
CONTINUOUS
 62
     7
 10
815.424077
 20
2001.757779
 11
817.010662
 21
1998.871541
  0
LINE
  8
CSLAYER1
  6
CONTINUOUS
 62
     7
 10
817.010662
 20
1998.871541
 11
818.152641
 21
1995.916972
  0
LINE
  8
CSLAYER1
  6
CONTINUOUS
 62
     7
 10
818.152641
 20
1995.916972
 11
818.841323
 21
1992.916558
  0
LINE
  8
CSLAYER1
  6
CONTINUOUS
 62
     7
 10
818.841323
 20
1992.916558
 11
819.071468
 21
1989.893133
  0
LINE
  8
CSLAYER1
  6
CONTINUOUS
 62
     7
 10
819.071468
 20
1989.893133
 11
818.841323
 21
1986.869709
  0
LINE
  8
CSLAYER1
  6
CONTINUOUS
 62
     7
 10
818.841323
 20
1986.869709
 11
818.152641
 21
1983.869295
  0
LINE
  8
CSLAYER1
  6
CONTINUOUS
 62
     7
 10
818.152641
 20
1983.869295
 11
817.010662
 21
1980.914726
  0
LINE
  8
CSLAYER1
  6
CONTINUOUS
 62
     7
 10
817.010662
 20
1980.914726
 11
815.424077
 21
1978.028488
  0
LINE
  8
CSLAYER1
  6
CONTINUOUS
 62
     7
 10
815.424077
 20
1978.028488
 11
813.404963
 21
1975.232547
  0
LINE
  8
CSLAYER1
  6
CONTINUOUS
 62
     7
 10
813.404963
 20
1975.232547
 11
810.968684
 21
1972.548182
  0
LINE
  8
CSLAYER1
  6
CONTINUOUS
 62
     7
 10
796.548915
 20
2016.949811
 11
801.357286
 21
2014.422599
  0
LINE
  8
CSLAYER1
  6
CONTINUOUS
 62
     7
 10
801.357286
 20
2014.422599
 11
804.921836
 21
2012.191373
  0
LINE
  8
CSLAYER1
  6
CONTINUOUS
 62
     7
 10
804.921836
 20
2012.191373
 11
808.133783
 21
2009.790444
  0
LINE
  8
CSLAYER1
  6
CONTINUOUS
 62
     7
 10
799.767876
 20
1992.649916
 11
800.021573
 21
1991.544622
  0
LINE
  8
CSLAYER1
  6
CONTINUOUS
 62
     7
 10
800.021573
 20
1991.544622
 11
800.195460
 21
1989.260257
  0
LINE
  8
CSLAYER1
  6
CONTINUOUS
 62
     7
 10
800.195460
 20
1989.260257
 11
800.021573
 21
1986.975892
  0
LINE
  8
CSLAYER1
  6
CONTINUOUS
 62
     7
 10
800.021573
 20
1986.975892
 11
799.501235
 21
1984.708913
  0
LINE
  8
CSLAYER1
  6
CONTINUOUS
 62
     7
 10
799.501235
 20
1984.708913
 11
798.638407
 21
1982.476572
  0
LINE
  8
CSLAYER1
  6
CONTINUOUS
 62
     7
 10
798.638407
 20
1982.476572
 11
797.439654
 21
1980.295858
  0
LINE
  8
CSLAYER1
  6
CONTINUOUS
 62
     7
 10
797.439654
 20
1980.295858
 11
796.548915
 21
1979.062420
  0
LINE
  8
CSLAYER1
  6
CONTINUOUS
 62
     7
 10
796.548915
 20
1996.607184
 11
796.506359
 21
1996.645498
  0
LINE
  8
CSLAYER1
  6
CONTINUOUS
 62
     7
 10
796.506359
 20
1996.645498
 11
798.347103
 21
1994.617311
  0
LINE
  8
CSLAYER1
  6
CONTINUOUS
 62
     7
 10
798.347103
 20
1994.617311
 11
799.872656
 21
1992.504823
  0
LINE
  8
CSLAYER1
  6
CONTINUOUS
 62
     7
 10
796.548915
 20
1996.598609
 11
796.548915
 21
1979.062420
  0
LINE
  8
CSLAYER1
  6
CONTINUOUS
 62
     7
 10
614.917549
 20
2016.818704
 11
558.084939
 21
2037.504082
  0
LINE
  8
CSLAYER1
  6
CONTINUOUS
 62
     7
 10
623.796021
 20
2027.889754
 11
566.963411
 21
2048.575132
  0
LINE
  8
CSLAYER1
  6
CONTINUOUS
 62
     7
 10
620.740117
 20
2027.571757
 11
563.950112
 21
2048.241628
  0
LINE
  8
CSLAYER1
  6
CONTINUOUS
 62
     7
 10
619.403899
 20
2026.627845
 11
562.571290
 21
2047.313224
  0
LINE
  8
CSLAYER1
  6
CONTINUOUS
 62
     7
 10
618.355471
 20
2025.579187
 11
561.522861
 21
2046.264566
  0
LINE
  8
CSLAYER1
  6
CONTINUOUS
 62
     7
 10
617.494961
 20
2024.462132
 11
560.662351
 21
2045.147511
  0
LINE
  8
CSLAYER1
  6
CONTINUOUS
 62
     7
 10
616.775058
 20
2023.293901
 11
559.942649
 21
2043.979206
  0
LINE
  8
CSLAYER1
  6
CONTINUOUS
 62
     7
 10
616.182321
 20
2022.079384
 11
559.349712
 21
2042.764763
  0
LINE
  8
CSLAYER1
  6
CONTINUOUS
 62
     7
 10
615.696525
 20
2020.825945
 11
558.863916
 21
2041.511323
  0
LINE
  8
CSLAYER1
  6
CONTINUOUS
 62
     7
 10
615.310655
 20
2019.536135
 11
558.483125
 21
2040.219664
  0
LINE
  8
CSLAYER1
  6
CONTINUOUS
 62
     7
 10
560.757798
 20
2031.525349
 11
560.343441
 21
2031.712900
  0
LINE
  8
CSLAYER1
  6
CONTINUOUS
 62
     7
 10
560.343441
 20
2031.712900
 11
559.955853
 21
2031.963902
  0
LINE
  8
CSLAYER1
  6
CONTINUOUS
 62
     7
 10
559.955853
 20
2031.963902
 11
559.597982
 21
2032.276447
  0
LINE
  8
CSLAYER1
  6
CONTINUOUS
 62
     7
 10
559.597982
 20
2032.276447
 11
559.272552
 21
2032.648155
  0
LINE
  8
CSLAYER1
  6
CONTINUOUS
 62
     7
 10
559.272552
 20
2032.648155
 11
558.982040
 21
2033.076197
  0
LINE
  8
CSLAYER1
  6
CONTINUOUS
 62
     7
 10
558.982040
 20
2033.076197
 11
558.728657
 21
2033.557316
  0
LINE
  8
CSLAYER1
  6
CONTINUOUS
 62
     7
 10
558.728657
 20
2033.557316
 11
558.514331
 21
2034.087850
  0
LINE
  8
CSLAYER1
  6
CONTINUOUS
 62
     7
 10
558.514331
 20
2034.087850
 11
558.340693
 21
2034.663762
  0
LINE
  8
CSLAYER1
  6
CONTINUOUS
 62
     7
 10
558.340693
 20
2034.663762
 11
558.209065
 21
2035.280668
  0
LINE
  8
CSLAYER1
  6
CONTINUOUS
 62
     7
 10
558.209065
 20
2035.280668
 11
558.120449
 21
2035.933873
  0
LINE
  8
CSLAYER1
  6
CONTINUOUS
 62
     7
 10
558.120449
 20
2035.933873
 11
558.075519
 21
2036.618406
  0
LINE
  8
CSLAYER1
  6
CONTINUOUS
 62
     7
 10
558.075519
 20
2036.618406
 11
558.074617
 21
2037.329058
  0
LINE
  8
CSLAYER1
  6
CONTINUOUS
 62
     7
 10
558.074617
 20
2037.329058
 11
558.117749
 21
2038.060419
  0
LINE
  8
CSLAYER1
  6
CONTINUOUS
 62
     7
 10
558.117749
 20
2038.060419
 11
558.204589
 21
2038.806924
  0
LINE
  8
CSLAYER1
  6
CONTINUOUS
 62
     7
 10
558.204589
 20
2038.806924
 11
558.334474
 21
2039.562891
  0
LINE
  8
CSLAYER1
  6
CONTINUOUS
 62
     7
 10
558.334474
 20
2039.562891
 11
558.506416
 21
2040.322568
  0
LINE
  8
CSLAYER1
  6
CONTINUOUS
 62
     7
 10
558.506416
 20
2040.322568
 11
558.719107
 21
2041.080172
  0
LINE
  8
CSLAYER1
  6
CONTINUOUS
 62
     7
 10
558.719107
 20
2041.080172
 11
558.970928
 21
2041.829937
  0
LINE
  8
CSLAYER1
  6
CONTINUOUS
 62
     7
 10
558.970928
 20
2041.829937
 11
559.259962
 21
2042.566158
  0
LINE
  8
CSLAYER1
  6
CONTINUOUS
 62
     7
 10
559.259962
 20
2042.566158
 11
559.584010
 21
2043.283232
  0
LINE
  8
CSLAYER1
  6
CONTINUOUS
 62
     7
 10
559.584010
 20
2043.283232
 11
559.940605
 21
2043.975700
  0
LINE
  8
CSLAYER1
  6
CONTINUOUS
 62
     7
 10
559.940605
 20
2043.975700
 11
560.327034
 21
2044.638293
  0
LINE
  8
CSLAYER1
  6
CONTINUOUS
 62
     7
 10
560.327034
 20
2044.638293
 11
560.740355
 21
2045.265968
  0
LINE
  8
CSLAYER1
  6
CONTINUOUS
 62
     7
 10
560.740355
 20
2045.265968
 11
561.177423
 21
2045.853949
  0
LINE
  8
CSLAYER1
  6
CONTINUOUS
 62
     7
 10
561.177423
 20
2045.853949
 11
561.634912
 21
2046.397760
  0
LINE
  8
CSLAYER1
  6
CONTINUOUS
 62
     7
 10
561.634912
 20
2046.397760
 11
562.109340
 21
2046.893262
  0
LINE
  8
CSLAYER1
  6
CONTINUOUS
 62
     7
 10
562.109340
 20
2046.893262
 11
562.597096
 21
2047.336685
  0
LINE
  8
CSLAYER1
  6
CONTINUOUS
 62
     7
 10
562.597096
 20
2047.336685
 11
563.094469
 21
2047.724653
  0
LINE
  8
CSLAYER1
  6
CONTINUOUS
 62
     7
 10
563.094469
 20
2047.724653
 11
563.597672
 21
2048.054215
  0
LINE
  8
CSLAYER1
  6
CONTINUOUS
 62
     7
 10
563.597672
 20
2048.054215
 11
564.102875
 21
2048.322862
  0
LINE
  8
CSLAYER1
  6
CONTINUOUS
 62
     7
 10
564.102875
 20
2048.322862
 11
564.606236
 21
2048.528548
  0
LINE
  8
CSLAYER1
  6
CONTINUOUS
 62
     7
 10
564.606236
 20
2048.528548
 11
565.103921
 21
2048.669710
  0
LINE
  8
CSLAYER1
  6
CONTINUOUS
 62
     7
 10
565.103921
 20
2048.669710
 11
565.592144
 21
2048.745273
  0
LINE
  8
CSLAYER1
  6
CONTINUOUS
 62
     7
 10
565.592144
 20
2048.745273
 11
566.067189
 21
2048.754661
  0
LINE
  8
CSLAYER1
  6
CONTINUOUS
 62
     7
 10
566.067189
 20
2048.754661
 11
566.525441
 21
2048.697803
  0
LINE
  8
CSLAYER1
  6
CONTINUOUS
 62
     7
 10
566.525441
 20
2048.697803
 11
566.963411
 21
2048.575132
  0
LINE
  8
CSLAYER1
  6
CONTINUOUS
 62
     7
 10
615.050759
 20
2018.200474
 11
558.213948
 21
2038.887382
  0
LINE
  8
CSLAYER1
  6
CONTINUOUS
 62
     7
 10
614.944517
 20
2015.378634
 11
558.111907
 21
2036.064012
  0
LINE
  8
CSLAYER1
  6
CONTINUOUS
 62
     7
 10
615.199507
 20
2013.855570
 11
558.379056
 21
2034.536523
  0
LINE
  8
CSLAYER1
  6
CONTINUOUS
 62
     7
 10
615.938051
 20
2012.156507
 11
559.152755
 21
2032.824664
  0
LINE
  8
CSLAYER1
  6
CONTINUOUS
 62
     7
 10
617.590407
 20
2010.839971
 11
560.757798
 21
2031.525349
  0
LINE
  8
CSLAYER1
  6
CONTINUOUS
 62
     7
 10
691.328081
 20
1988.354977
 11
674.167789
 21
1990.263732
  0
LINE
  8
CSLAYER1
  6
CONTINUOUS
 62
     7
 10
623.796021
 20
2027.889754
 11
624.210377
 21
2027.702203
  0
LINE
  8
CSLAYER1
  6
CONTINUOUS
 62
     7
 10
624.210377
 20
2027.702203
 11
624.597966
 21
2027.451200
  0
LINE
  8
CSLAYER1
  6
CONTINUOUS
 62
     7
 10
624.597966
 20
2027.451200
 11
624.955837
 21
2027.138656
  0
LINE
  8
CSLAYER1
  6
CONTINUOUS
 62
     7
 10
624.955837
 20
2027.138656
 11
625.281267
 21
2026.766948
  0
LINE
  8
CSLAYER1
  6
CONTINUOUS
 62
     7
 10
625.281267
 20
2026.766948
 11
625.571779
 21
2026.338905
  0
LINE
  8
CSLAYER1
  6
CONTINUOUS
 62
     7
 10
625.571779
 20
2026.338905
 11
625.825162
 21
2025.857786
  0
LINE
  8
CSLAYER1
  6
CONTINUOUS
 62
     7
 10
625.825162
 20
2025.857786
 11
626.039488
 21
2025.327252
  0
LINE
  8
CSLAYER1
  6
CONTINUOUS
 62
     7
 10
626.039488
 20
2025.327252
 11
626.213126
 21
2024.751341
  0
LINE
  8
CSLAYER1
  6
CONTINUOUS
 62
     7
 10
626.213126
 20
2024.751341
 11
626.321294
 21
2024.244383
  0
LINE
  8
CSLAYER1
  6
CONTINUOUS
 62
     7
 10
621.221485
 20
2011.534665
 11
620.956147
 21
2011.360888
  0
LINE
  8
CSLAYER1
  6
CONTINUOUS
 62
     7
 10
620.956147
 20
2011.360888
 11
620.450943
 21
2011.092241
  0
LINE
  8
CSLAYER1
  6
CONTINUOUS
 62
     7
 10
620.450943
 20
2011.092241
 11
619.947583
 21
2010.886554
  0
LINE
  8
CSLAYER1
  6
CONTINUOUS
 62
     7
 10
619.947583
 20
2010.886554
 11
619.449898
 21
2010.745393
  0
LINE
  8
CSLAYER1
  6
CONTINUOUS
 62
     7
 10
619.449898
 20
2010.745393
 11
618.961674
 21
2010.669830
  0
LINE
  8
CSLAYER1
  6
CONTINUOUS
 62
     7
 10
618.961674
 20
2010.669830
 11
618.486629
 21
2010.660442
  0
LINE
  8
CSLAYER1
  6
CONTINUOUS
 62
     7
 10
618.486629
 20
2010.660442
 11
618.028378
 21
2010.717300
  0
LINE
  8
CSLAYER1
  6
CONTINUOUS
 62
     7
 10
618.028378
 20
2010.717300
 11
617.590407
 21
2010.839971
  0
LINE
  8
CSLAYER1
  6
CONTINUOUS
 62
     7
 10
617.590407
 20
2010.839971
 11
617.176051
 21
2011.027521
  0
LINE
  8
CSLAYER1
  6
CONTINUOUS
 62
     7
 10
617.176051
 20
2011.027521
 11
616.788463
 21
2011.278524
  0
LINE
  8
CSLAYER1
  6
CONTINUOUS
 62
     7
 10
616.788463
 20
2011.278524
 11
616.430591
 21
2011.591069
  0
LINE
  8
CSLAYER1
  6
CONTINUOUS
 62
     7
 10
616.430591
 20
2011.591069
 11
616.105162
 21
2011.962777
  0
LINE
  8
CSLAYER1
  6
CONTINUOUS
 62
     7
 10
616.105162
 20
2011.962777
 11
615.814650
 21
2012.390819
  0
LINE
  8
CSLAYER1
  6
CONTINUOUS
 62
     7
 10
615.814650
 20
2012.390819
 11
615.561266
 21
2012.871938
  0
LINE
  8
CSLAYER1
  6
CONTINUOUS
 62
     7
 10
615.561266
 20
2012.871938
 11
615.346940
 21
2013.402472
  0
LINE
  8
CSLAYER1
  6
CONTINUOUS
 62
     7
 10
615.346940
 20
2013.402472
 11
615.173303
 21
2013.978384
  0
LINE
  8
CSLAYER1
  6
CONTINUOUS
 62
     7
 10
615.173303
 20
2013.978384
 11
615.041675
 21
2014.595289
  0
LINE
  8
CSLAYER1
  6
CONTINUOUS
 62
     7
 10
615.041675
 20
2014.595289
 11
614.953059
 21
2015.248495
  0
LINE
  8
CSLAYER1
  6
CONTINUOUS
 62
     7
 10
614.953059
 20
2015.248495
 11
614.908129
 21
2015.933028
  0
LINE
  8
CSLAYER1
  6
CONTINUOUS
 62
     7
 10
614.908129
 20
2015.933028
 11
614.907226
 21
2016.643679
  0
LINE
  8
CSLAYER1
  6
CONTINUOUS
 62
     7
 10
614.907226
 20
2016.643679
 11
614.950359
 21
2017.375041
  0
LINE
  8
CSLAYER1
  6
CONTINUOUS
 62
     7
 10
614.950359
 20
2017.375041
 11
615.037198
 21
2018.121546
  0
LINE
  8
CSLAYER1
  6
CONTINUOUS
 62
     7
 10
615.037198
 20
2018.121546
 11
615.167084
 21
2018.877513
  0
LINE
  8
CSLAYER1
  6
CONTINUOUS
 62
     7
 10
615.167084
 20
2018.877513
 11
615.339026
 21
2019.637190
  0
LINE
  8
CSLAYER1
  6
CONTINUOUS
 62
     7
 10
615.339026
 20
2019.637190
 11
615.551717
 21
2020.394794
  0
LINE
  8
CSLAYER1
  6
CONTINUOUS
 62
     7
 10
615.551717
 20
2020.394794
 11
615.803537
 21
2021.144559
  0
LINE
  8
CSLAYER1
  6
CONTINUOUS
 62
     7
 10
615.803537
 20
2021.144559
 11
616.092571
 21
2021.880780
  0
LINE
  8
CSLAYER1
  6
CONTINUOUS
 62
     7
 10
616.092571
 20
2021.880780
 11
616.416619
 21
2022.597853
  0
LINE
  8
CSLAYER1
  6
CONTINUOUS
 62
     7
 10
616.416619
 20
2022.597853
 11
616.773214
 21
2023.290322
  0
LINE
  8
CSLAYER1
  6
CONTINUOUS
 62
     7
 10
616.773214
 20
2023.290322
 11
617.159643
 21
2023.952915
  0
LINE
  8
CSLAYER1
  6
CONTINUOUS
 62
     7
 10
617.159643
 20
2023.952915
 11
617.572965
 21
2024.580590
  0
LINE
  8
CSLAYER1
  6
CONTINUOUS
 62
     7
 10
617.572965
 20
2024.580590
 11
618.010033
 21
2025.168571
  0
LINE
  8
CSLAYER1
  6
CONTINUOUS
 62
     7
 10
618.010033
 20
2025.168571
 11
618.467522
 21
2025.712381
  0
LINE
  8
CSLAYER1
  6
CONTINUOUS
 62
     7
 10
618.467522
 20
2025.712381
 11
618.941950
 21
2026.207884
  0
LINE
  8
CSLAYER1
  6
CONTINUOUS
 62
     7
 10
618.941950
 20
2026.207884
 11
619.429706
 21
2026.651307
  0
LINE
  8
CSLAYER1
  6
CONTINUOUS
 62
     7
 10
619.429706
 20
2026.651307
 11
619.927078
 21
2027.039275
  0
LINE
  8
CSLAYER1
  6
CONTINUOUS
 62
     7
 10
619.927078
 20
2027.039275
 11
620.430281
 21
2027.368837
  0
LINE
  8
CSLAYER1
  6
CONTINUOUS
 62
     7
 10
620.430281
 20
2027.368837
 11
620.935485
 21
2027.637483
  0
LINE
  8
CSLAYER1
  6
CONTINUOUS
 62
     7
 10
620.935485
 20
2027.637483
 11
621.438845
 21
2027.843170
  0
LINE
  8
CSLAYER1
  6
CONTINUOUS
 62
     7
 10
621.438845
 20
2027.843170
 11
621.936531
 21
2027.984332
  0
LINE
  8
CSLAYER1
  6
CONTINUOUS
 62
     7
 10
621.936531
 20
2027.984332
 11
622.424754
 21
2028.059895
  0
LINE
  8
CSLAYER1
  6
CONTINUOUS
 62
     7
 10
622.424754
 20
2028.059895
 11
622.899799
 21
2028.069283
  0
LINE
  8
CSLAYER1
  6
CONTINUOUS
 62
     7
 10
622.899799
 20
2028.069283
 11
623.358050
 21
2028.012425
  0
LINE
  8
CSLAYER1
  6
CONTINUOUS
 62
     7
 10
623.358050
 20
2028.012425
 11
623.796021
 21
2027.889754
  0
LINE
  8
CSLAYER1
  6
CONTINUOUS
 62
     7
 10
692.839109
 20
2001.939579
 11
675.623457
 21
2003.854492
  0
LINE
  8
CSLAYER1
  6
CONTINUOUS
 62
     7
 10
617.276005
 20
2020.564924
 11
617.494515
 21
2021.121508
  0
LINE
  8
CSLAYER1
  6
CONTINUOUS
 62
     7
 10
617.494515
 20
2021.121508
 11
617.739495
 21
2021.663615
  0
LINE
  8
CSLAYER1
  6
CONTINUOUS
 62
     7
 10
617.739495
 20
2021.663615
 11
618.009081
 21
2022.187121
  0
LINE
  8
CSLAYER1
  6
CONTINUOUS
 62
     7
 10
618.009081
 20
2022.187121
 11
618.301221
 21
2022.688041
  0
LINE
  8
CSLAYER1
  6
CONTINUOUS
 62
     7
 10
618.301221
 20
2022.688041
 11
618.613692
 21
2023.162564
  0
LINE
  8
CSLAYER1
  6
CONTINUOUS
 62
     7
 10
618.613692
 20
2023.162564
 11
618.944116
 21
2023.607077
  0
LINE
  8
CSLAYER1
  6
CONTINUOUS
 62
     7
 10
618.944116
 20
2023.607077
 11
619.289978
 21
2024.018198
  0
LINE
  8
CSLAYER1
  6
CONTINUOUS
 62
     7
 10
619.289978
 20
2024.018198
 11
619.648645
 21
2024.392798
  0
LINE
  8
CSLAYER1
  6
CONTINUOUS
 62
     7
 10
619.648645
 20
2024.392798
 11
620.017389
 21
2024.728026
  0
LINE
  8
CSLAYER1
  6
CONTINUOUS
 62
     7
 10
620.017389
 20
2024.728026
 11
620.393402
 21
2025.021330
  0
LINE
  8
CSLAYER1
  6
CONTINUOUS
 62
     7
 10
620.393402
 20
2025.021330
 11
620.773824
 21
2025.270478
  0
LINE
  8
CSLAYER1
  6
CONTINUOUS
 62
     7
 10
620.773824
 20
2025.270478
 11
621.155758
 21
2025.473575
  0
LINE
  8
CSLAYER1
  6
CONTINUOUS
 62
     7
 10
621.155758
 20
2025.473575
 11
621.536298
 21
2025.629074
  0
LINE
  8
CSLAYER1
  6
CONTINUOUS
 62
     7
 10
621.536298
 20
2025.629074
 11
621.912548
 21
2025.735793
  0
LINE
  8
CSLAYER1
  6
CONTINUOUS
 62
     7
 10
621.912548
 20
2025.735793
 11
622.281645
 21
2025.792918
  0
LINE
  8
CSLAYER1
  6
CONTINUOUS
 62
     7
 10
622.281645
 20
2025.792918
 11
622.640779
 21
2025.800015
  0
LINE
  8
CSLAYER1
  6
CONTINUOUS
 62
     7
 10
622.640779
 20
2025.800015
 11
622.987217
 21
2025.757031
  0
LINE
  8
CSLAYER1
  6
CONTINUOUS
 62
     7
 10
622.987217
 20
2025.757031
 11
623.354540
 21
2025.654148
  0
LINE
  8
CSLAYER1
  6
CONTINUOUS
 62
     7
 10
618.313626
 20
2012.916444
 11
618.020609
 21
2013.106202
  0
LINE
  8
CSLAYER1
  6
CONTINUOUS
 62
     7
 10
618.020609
 20
2013.106202
 11
617.750058
 21
2013.342486
  0
LINE
  8
CSLAYER1
  6
CONTINUOUS
 62
     7
 10
617.750058
 20
2013.342486
 11
617.504033
 21
2013.623497
  0
LINE
  8
CSLAYER1
  6
CONTINUOUS
 62
     7
 10
617.504033
 20
2013.623497
 11
617.284406
 21
2013.947097
  0
LINE
  8
CSLAYER1
  6
CONTINUOUS
 62
     7
 10
617.284406
 20
2013.947097
 11
617.092848
 21
2014.310823
  0
LINE
  8
CSLAYER1
  6
CONTINUOUS
 62
     7
 10
617.092848
 20
2014.310823
 11
616.930818
 21
2014.711907
  0
LINE
  8
CSLAYER1
  6
CONTINUOUS
 62
     7
 10
616.930818
 20
2014.711907
 11
616.799548
 21
2015.147296
  0
LINE
  8
CSLAYER1
  6
CONTINUOUS
 62
     7
 10
616.799548
 20
2015.147296
 11
616.700037
 21
2015.613677
  0
LINE
  8
CSLAYER1
  6
CONTINUOUS
 62
     7
 10
616.700037
 20
2015.613677
 11
616.633043
 21
2016.107500
  0
LINE
  8
CSLAYER1
  6
CONTINUOUS
 62
     7
 10
616.633043
 20
2016.107500
 11
616.599076
 21
2016.625007
  0
LINE
  8
CSLAYER1
  6
CONTINUOUS
 62
     7
 10
616.599076
 20
2016.625007
 11
616.598394
 21
2017.162259
  0
LINE
  8
CSLAYER1
  6
CONTINUOUS
 62
     7
 10
616.598394
 20
2017.162259
 11
616.631003
 21
2017.715168
  0
LINE
  8
CSLAYER1
  6
CONTINUOUS
 62
     7
 10
616.631003
 20
2017.715168
 11
616.696653
 21
2018.279526
  0
LINE
  8
CSLAYER1
  6
CONTINUOUS
 62
     7
 10
616.696653
 20
2018.279526
 11
616.794846
 21
2018.851038
  0
LINE
  8
CSLAYER1
  6
CONTINUOUS
 62
     7
 10
616.794846
 20
2018.851038
 11
616.924835
 21
2019.425353
  0
LINE
  8
CSLAYER1
  6
CONTINUOUS
 62
     7
 10
616.924835
 20
2019.425353
 11
617.085629
 21
2019.998102
  0
LINE
  8
CSLAYER1
  6
CONTINUOUS
 62
     7
 10
617.085629
 20
2019.998102
 11
617.276005
 21
2020.564924
  0
ARC
  8
CSLAYER1
  6
CONTINUOUS
 62
     7
 10
693.272370
 20
1996.003781
 40
7.892050
 50
255.737756
 51
348.379625
  0
LINE
  8
CSLAYER1
  6
CONTINUOUS
 62
     7
 10
692.839109
 20
2001.939579
 11
714.060697
 21
2015.200300
  0
INSERT
  8
CSLAYER1
  2
EASYDRAWDIM0000
 10
0.0
 20
0.0
 30
0.0
  0
INSERT
  8
CSLAYER1
  2
EASYDRAWDIM0001
 10
0.0
 20
0.0
 30
0.0
  0
TEXT
  8
CSLAYER1
 62
     3
 10
489.437500
 20
2321.718750
 40
40.000000
 41
0.771429
  1
足踏式油圧ポンプユニット
 50
0.000000
 51
0.000000
  7
EASYDRAW_FONT
 72
     5
 11
849.437500
 21
2321.718750
  0
TEXT
  8
CSLAYER1
 62
     3
 10
399.461914
 20
1716.767578
 40
40.000000
 41
0.763393
  1
外形寸法 400W×500D×280H
 50
0.000000
 51
0.000000
  7
EASYDRAW_FONT
 72
     5
 11
969.461914
 21
1716.767578
  0
LINE
  8
CSLAYER1
  6
CONTINUOUS
 62
     5
 10
1058.025694
 20
2394.793997
 11
1058.025694
 21
1690.684408
  0
LINE
  8
CSLAYER1
  6
CONTINUOUS
 62
     5
 10
1058.025694
 20
1690.684408
 11
256.731563
 21
1690.684408
  0
INSERT
  8
CSLAYER1
  2
EASYDRAWDIM0002
 10
0.0
 20
0.0
 30
0.0
  0
LINE
  8
CSLAYER1
  6
CONTINUOUS
 62
     7
 10
474.528469
 20
2367.165141
 11
864.539715
 21
2367.165141
  0
LINE
  8
CSLAYER1
  6
CONTINUOUS
 62
     7
 10
864.539715
 20
2367.165141
 11
864.539715
 21
2317.020838
  0
LINE
  8
CSLAYER1
  6
CONTINUOUS
 62
     7
 10
864.539715
 20
2317.020838
 11
474.528469
 21
2317.020838
  0
LINE
  8
CSLAYER1
  6
CONTINUOUS
 62
     7
 10
474.528469
 20
2317.020838
 11
474.528469
 21
2367.165141
  0
INSERT
  8
CSLAYER1
  2
BLKF0003
 10
0.0
 20
0.0
 30
0.0
  0
INSERT
  8
CSLAYER1
  2
BLKF0004
 10
0.0
 20
0.0
 30
0.0
  0
LINE
  8
CSLAYER1
  6
CONTINUOUS
 62
     7
 10
660.554692
 20
2051.140296
 11
657.607800
 21
2049.438908
  0
LINE
  8
CSLAYER1
  6
CONTINUOUS
 62
     7
 10
664.978303
 20
2043.478377
 11
662.031411
 21
2041.776988
  0
LINE
  8
CSLAYER1
  6
CONTINUOUS
 62
     7
 10
658.458494
 20
2047.965462
 11
660.847543
 21
2047.388388
  0
LINE
  8
CSLAYER1
  6
CONTINUOUS
 62
     7
 10
660.847543
 20
2047.388388
 11
661.875480
 21
2045.607948
  0
LINE
  8
CSLAYER1
  6
CONTINUOUS
 62
     7
 10
661.875480
 20
2045.607948
 11
661.180716
 21
2043.250434
  0
LINE
  8
CSLAYER1
  6
CONTINUOUS
 62
     7
 10
661.180716
 20
2043.250434
 11
658.791668
 21
2043.827508
  0
LINE
  8
CSLAYER1
  6
CONTINUOUS
 62
     7
 10
658.791668
 20
2043.827508
 11
657.763730
 21
2045.607948
  0
LINE
  8
CSLAYER1
  6
CONTINUOUS
 62
     7
 10
657.763730
 20
2045.607948
 11
658.458494
 21
2047.965462
  0
INSERT
  8
CSLAYER1
  2
BLKF0005
 10
0.0
 20
0.0
 30
0.0
  0
LINE
  8
CSLAYER1
  6
CONTINUOUS
 62
     7
 10
661.752042
 20
2053.277404
 11
659.567236
 21
2052.016005
  0
LINE
  8
CSLAYER1
  6
CONTINUOUS
 62
     7
 10
667.665721
 20
2042.755766
 11
665.565005
 21
2041.578197
  0
INSERT
  8
CSLAYER1
  2
BLKF0006
 10
0.0
 20
0.0
 30
0.0
  0
LINE
  8
CSLAYER1
  6
CONTINUOUS
 62
     7
 10
688.817031
 20
2055.690068
 11
667.772756
 21
2063.349558
  0
LINE
  8
CSLAYER1
  6
CONTINUOUS
 62
     7
 10
688.817031
 20
2055.690068
 11
688.817031
 21
2021.881734
  0
LINE
  8
CSLAYER1
  6
CONTINUOUS
 62
     7
 10
678.621938
 20
2049.319467
 11
678.621938
 21
2003.520968
  0
LINE
  8
CSLAYER1
  6
CONTINUOUS
 62
     7
 10
663.469017
 20
2025.747390
 11
661.335092
 21
2018.756456
  0
LINE
  8
CSLAYER1
  6
CONTINUOUS
 62
     7
 10
661.335092
 20
2018.756456
 11
654.213804
 21
2020.403890
  0
LINE
  8
CSLAYER1
  6
CONTINUOUS
 62
     7
 10
654.213804
 20
2020.403890
 11
651.128733
 21
2025.747390
  0
LINE
  8
CSLAYER1
  6
CONTINUOUS
 62
     7
 10
651.128733
 20
2025.747390
 11
653.213875
 21
2032.822817
  0
LINE
  8
CSLAYER1
  6
CONTINUOUS
 62
     7
 10
653.213875
 20
2032.822817
 11
660.383946
 21
2031.090889
  0
LINE
  8
CSLAYER1
  6
CONTINUOUS
 62
     7
 10
660.383946
 20
2031.090889
 11
663.469017
 21
2025.747390
  0
LINE
  8
CSLAYER1
  6
CONTINUOUS
 62
     7
 10
666.137595
 20
2027.288094
 11
664.003671
 21
2020.297161
  0
LINE
  8
CSLAYER1
  6
CONTINUOUS
 62
     7
 10
663.052524
 20
2032.631594
 11
666.137595
 21
2027.288094
  0
LINE
  8
CSLAYER1
  6
CONTINUOUS
 62
     7
 10
655.882453
 20
2034.363522
 11
663.052524
 21
2032.631594
  0
LINE
  8
CSLAYER1
  6
CONTINUOUS
 62
     7
 10
664.003671
 20
2020.297161
 11
661.335092
 21
2018.756456
  0
LINE
  8
CSLAYER1
  6
CONTINUOUS
 62
     7
 10
666.137595
 20
2027.288094
 11
663.469017
 21
2025.747390
  0
LINE
  8
CSLAYER1
  6
CONTINUOUS
 62
     7
 10
663.052524
 20
2032.631594
 11
660.383946
 21
2031.090889
  0
LINE
  8
CSLAYER1
  6
CONTINUOUS
 62
     7
 10
655.882453
 20
2034.363522
 11
653.213875
 21
2032.822817
  0
INSERT
  8
CSLAYER1
  2
BLKF0007
 10
0.0
 20
0.0
 30
0.0
  0
LINE
  8
CSLAYER1
  6
CONTINUOUS
 62
     7
 10
679.929656
 20
2055.303056
 11
678.269948
 21
2053.558952
  0
LINE
  8
CSLAYER1
  6
CONTINUOUS
 62
     7
 10
678.269948
 20
2053.558952
 11
676.256030
 21
2053.558952
  0
LINE
  8
CSLAYER1
  6
CONTINUOUS
 62
     7
 10
676.256030
 20
2053.558952
 11
674.596322
 21
2055.303056
  0
LINE
  8
CSLAYER1
  6
CONTINUOUS
 62
     7
 10
674.596322
 20
2055.303056
 11
676.256030
 21
2057.047160
  0
LINE
  8
CSLAYER1
  6
CONTINUOUS
 62
     7
 10
676.256030
 20
2057.047160
 11
678.269948
 21
2057.047160
  0
LINE
  8
CSLAYER1
  6
CONTINUOUS
 62
     7
 10
678.269948
 20
2057.047160
 11
679.929656
 21
2055.303056
  0
INSERT
  8
CSLAYER1
  2
BLKF0008
 10
0.0
 20
0.0
 30
0.0
  0
LINE
  8
CSLAYER1
  6
CONTINUOUS
 62
     7
 10
678.621938
 20
2049.319467
 11
657.577663
 21
2056.978957
  0
LINE
  8
CSLAYER1
  6
CONTINUOUS
 62
     7
 10
678.621938
 20
2049.319467
 11
688.817031
 21
2055.690068
  0
LINE
  8
CSLAYER1
  6
CONTINUOUS
 62
     7
 10
644.049052
 20
2060.586421
 11
644.049052
 21
2015.820371
  0
LINE
  8
CSLAYER1
  6
CONTINUOUS
 62
     7
 10
657.577663
 20
2056.978957
 11
667.772756
 21
2063.349558
  0
LINE
  8
CSLAYER1
  6
CONTINUOUS
 62
     7
 10
657.577663
 20
2055.662409
 11
644.049052
 21
2060.586421
  0
LINE
  8
CSLAYER1
  6
CONTINUOUS
 62
     7
 10
657.577663
 20
2056.978957
 11
657.577663
 21
2055.662409
  0
LINE
  8
CSLAYER1
  6
CONTINUOUS
 62
     7
 10
653.503188
 20
2055.966152
 11
646.864842
 21
2058.382312
  0
LINE
  8
CSLAYER1
  6
CONTINUOUS
 62
     7
 10
646.470863
 20
2059.704953
 11
646.864842
 21
2058.382312
  0
LINE
  8
CSLAYER1
  6
CONTINUOUS
 62
     7
 10
653.503188
 20
2055.966152
 11
655.717692
 21
2056.339383
  0
LINE
  8
CSLAYER1
  6
CONTINUOUS
 62
     7
 10
666.441349
 20
2062.517603
 11
660.166277
 21
2064.801542
  0
LINE
  8
CSLAYER1
  6
CONTINUOUS
 62
     7
 10
644.049052
 20
2060.586421
 11
653.104951
 21
2066.245175
  0
LINE
  8
CSLAYER1
  6
CONTINUOUS
 62
     7
 10
653.503188
 20
2055.966152
 11
653.503188
 21
2042.212697
  0
LINE
  8
CSLAYER1
  6
CONTINUOUS
 62
     7
 10
655.717692
 20
2056.339383
 11
655.717692
 21
2043.685363
  0
LINE
  8
CSLAYER1
  6
CONTINUOUS
 62
     7
 10
646.864842
 20
2058.382312
 11
646.864842
 21
2044.628858
  0
LINE
  8
CSLAYER1
  6
CONTINUOUS
 62
     7
 10
646.864842
 20
2044.628858
 11
648.589770
 21
2039.512811
  0
LINE
  8
CSLAYER1
  6
CONTINUOUS
 62
     7
 10
653.503188
 20
2042.212697
 11
651.126027
 21
2038.449219
  0
LINE
  8
CSLAYER1
  6
CONTINUOUS
 62
     7
 10
648.589770
 20
2039.512811
 11
648.589770
 21
2014.027519
  0
LINE
  8
CSLAYER1
  6
CONTINUOUS
 62
     7
 10
651.126027
 20
2038.449219
 11
651.126027
 21
2012.309409
  0
LINE
  8
CSLAYER1
  6
CONTINUOUS
 62
     7
 10
653.503188
 20
2042.212697
 11
655.624936
 21
2043.538513
  0
LINE
  8
CSLAYER1
  6
CONTINUOUS
 62
     7
 10
651.126027
 20
2038.449219
 11
653.247775
 21
2039.775035
  0
LINE
  8
CSLAYER1
  6
CONTINUOUS
 62
     7
 10
655.717692
 20
2043.685363
 11
653.340531
 21
2039.921884
  0
LINE
  8
CSLAYER1
  6
CONTINUOUS
 62
     7
 10
653.340531
 20
2039.921884
 11
653.340531
 21
2032.895942
  0
LINE
  8
CSLAYER1
  6
CONTINUOUS
 62
     7
 10
653.340531
 20
2021.916443
 11
653.340531
 21
2011.409447
  0
LINE
  8
CSLAYER1
  6
CONTINUOUS
 62
     7
 10
688.817031
 20
2021.881734
 11
691.351829
 21
2023.465652
  0
LINE
  8
CSLAYER1
  6
CONTINUOUS
 62
     7
 10
659.691157
 20
2008.387435
 11
623.354540
 21
2025.654148
  0
LINE
  8
CSLAYER1
  6
CONTINUOUS
 62
     7
 10
653.774446
 20
1996.065899
 11
618.313626
 21
2012.916444
  0
LINE
  8
CSLAYER1
  6
CONTINUOUS
 62
     7
 10
703.982064
 20
2008.902470
 11
701.002662
 21
1994.414115
  0
ARC
  8
CSLAYER1
  6
CONTINUOUS
 62
     7
 10
681.150913
 20
2053.548025
 40
50.000000
 50
244.583509
 51
263.653028
  0
ARC
  8
CSLAYER1
  6
CONTINUOUS
 62
     7
 10
681.242933
 20
2053.871455
 40
64.000000
 50
244.583509
 51
263.653028
  0
LINE
  8
CSLAYER1
  6
CONTINUOUS
 62
     7
 10
672.316045
 20
1990.497085
 11
672.316045
 21
1987.601357
  0
LINE
  8
CSLAYER1
  6
CONTINUOUS
 62
     7
 10
649.357071
 20
1995.957740
 11
646.550129
 21
1999.498806
  0
LINE
  8
CSLAYER1
  6
CONTINUOUS
 62
     5
 10
429.787379
 20
803.114853
 11
687.753590
 21
803.114853
  0
LINE
  8
CSLAYER1
  6
CONTINUOUS
 62
     3
 10
1457.225483
 20
1941.186866
 11
1457.225483
 21
2107.036866
  0
LINE
  8
CSLAYER1
  6
CONTINUOUS
 62
     3
 10
1507.225483
 20
1941.186866
 11
1507.225483
 21
1956.186866
  0
LINE
  8
CSLAYER1
  6
CONTINUOUS
 62
     4
 10
1459.925483
 20
2206.186866
 11
1459.925483
 21
1956.186866
  0
LINE
  8
CSLAYER1
  6
CONTINUOUS
 62
     4
 10
2359.925483
 20
2206.186866
 11
2359.925483
 21
1956.186866
  0
LINE
  8
CSLAYER1
  6
CONTINUOUS
 62
     3
 10
1467.225483
 20
1931.186866
 11
1497.225483
 21
1931.186866
  0
ARC
  8
CSLAYER1
  6
CONTINUOUS
 62
     3
 10
1467.225483
 20
1941.186866
 40
10.000000
 50
180.000000
 51
270.000000
  0
ARC
  8
CSLAYER1
  6
CONTINUOUS
 62
     3
 10
1497.225483
 20
1941.186866
 40
10.000000
 50
270.000000
 51
360.000000
  0
LINE
  8
CSLAYER1
  6
CENTER
 62
     5
 10
1203.729628
 20
2111.186866
 11
1459.925483
 21
2111.186866
  0
LINE
  8
CSLAYER1
  6
CENTER
 62
     5
 10
1417.225483
 20
2081.186866
 11
2399.925483
 21
2081.186866
  0
ARC
  8
CSLAYER1
  6
CONTINUOUS
 62
     3
 10
1497.225483
 20
2221.186866
 40
10.000000
 50
0.000000
 51
90.000000
  0
LINE
  8
CSLAYER1
  6
CONTINUOUS
 62
     3
 10
1467.225483
 20
2231.186866
 11
1497.225483
 21
2231.186866
  0
ARC
  8
CSLAYER1
  6
CONTINUOUS
 62
     3
 10
1467.225483
 20
2221.186866
 40
10.000000
 50
90.000000
 51
180.000000
  0
LINE
  8
CSLAYER1
  6
CONTINUOUS
 62
     3
 10
1507.225483
 20
2221.186866
 11
1507.225483
 21
2206.186866
  0
LINE
  8
CSLAYER1
  6
CONTINUOUS
 62
     4
 10
1590.137747
 20
1015.810045
 11
1583.347290
 21
1020.334268
  0
LINE
  8
CSLAYER1
  6
CENTER
 62
     5
 10
1482.225483
 20
2194.924064
 11
1482.225483
 21
2217.449667
  0
LINE
  8
CSLAYER1
  6
CENTER
 62
     5
 10
1470.962681
 20
2206.186866
 11
1493.488284
 21
2206.186866
  0
ARC
  8
CSLAYER1
  6
CONTINUOUS
 62
     3
 10
1482.225483
 20
2206.186866
 40
6.500000
 50
0.000000
 51
180.000000
  0
LINE
  8
CSLAYER1
  6
CENTER
 62
     5
 10
1482.225483
 20
1967.449667
 11
1482.225483
 21
1944.924064
  0
LINE
  8
CSLAYER1
  6
CENTER
 62
     5
 10
1470.962681
 20
1956.186866
 11
1493.488284
 21
1956.186866
  0
ARC
  8
CSLAYER1
  6
CONTINUOUS
 62
     3
 10
1482.225483
 20
1956.186866
 40
6.500000
 50
180.000000
 51
360.000000
  0
LINE
  8
CSLAYER1
  6
CENTER
 62
     5
 10
837.753590
 20
1559.408263
 11
837.753590
 21
763.114853
  0
LINE
  8
CSLAYER1
  6
CONTINUOUS
 62
     3
 10
737.753590
 20
843.114853
 11
937.753590
 21
843.114853
  0
LINE
  8
CSLAYER1
  6
CONTINUOUS
 62
     3
 10
737.753590
 20
843.114853
 11
737.753590
 21
809.114853
  0
LINE
  8
CSLAYER1
  6
CONTINUOUS
 62
     3
 10
937.753590
 20
843.114853
 11
937.753590
 21
809.114853
  0
LINE
  8
CSLAYER1
  6
CONTINUOUS
 62
     3
 10
987.753590
 20
803.114853
 11
987.753590
 21
809.114853
  0
LINE
  8
CSLAYER1
  6
CENTER
 62
     5
 10
962.753590
 20
794.185492
 11
962.753590
 21
818.395453
  0
LINE
  8
CSLAYER1
  6
CONTINUOUS
 62
     3
 10
912.253590
 20
803.114853
 11
912.253590
 21
843.114853
  0
LINE
  8
CSLAYER1
  6
CONTINUOUS
 62
     3
 10
987.753590
 20
809.114853
 11
912.253590
 21
809.114853
  0
LINE
  8
CSLAYER1
  6
CONTINUOUS
 62
     3
 10
915.253590
 20
831.584508
 11
915.253590
 21
809.645198
  0
LINE
  8
CSLAYER1
  6
CONTINUOUS
 62
     3
 10
912.253590
 20
809.864853
 11
915.253590
 21
809.864853
  0
LINE
  8
CSLAYER1
  6
CONTINUOUS
 62
     3
 10
912.253590
 20
831.364853
 11
915.253590
 21
831.364853
  0
LINE
  8
CSLAYER1
  6
CONTINUOUS
 62
     3
 10
912.253590
 20
822.127050
 11
915.253590
 21
818.627050
  0
LINE
  8
CSLAYER1
  6
CONTINUOUS
 62
     3
 10
923.253590
 20
811.614853
 11
923.253590
 21
829.614853
  0
LINE
  8
CSLAYER1
  6
CONTINUOUS
 62
     3
 10
915.253590
 20
815.130026
 11
922.116409
 21
815.130026
  0
LINE
  8
CSLAYER1
  6
CONTINUOUS
 62
     3
 10
915.253590
 20
809.645198
 11
922.116409
 21
809.645198
  0
LINE
  8
CSLAYER1
  6
CONTINUOUS
 62
     3
 10
923.253590
 20
811.614853
 11
922.116409
 21
809.645198
  0
ARC
  8
CSLAYER1
  6
CONTINUOUS
 62
     3
 10
919.473545
 20
812.387612
 40
3.808617
 50
5.661633
 51
46.059028
  0
ARC
  8
CSLAYER1
  6
CONTINUOUS
 62
     3
 10
909.457846
 20
820.614853
 40
13.795744
 50
-23.426598
 51
23.426598
  0
LINE
  8
CSLAYER1
  6
CONTINUOUS
 62
     3
 10
915.253590
 20
826.099681
 11
922.116409
 21
826.099681
  0
LINE
  8
CSLAYER1
  6
CONTINUOUS
 62
     3
 10
915.253590
 20
831.584508
 11
922.116409
 21
831.584508
  0
LINE
  8
CSLAYER1
  6
CONTINUOUS
 62
     3
 10
923.253590
 20
829.614853
 11
922.116409
 21
831.584508
  0
ARC
  8
CSLAYER1
  6
CONTINUOUS
 62
     3
 10
919.473545
 20
828.842095
 40
3.808617
 50
313.940972
 51
354.338367
  0
LINE
  8
CSLAYER1
  6
CENTER
 62
     5
 10
912.253590
 20
820.614853
 11
923.253590
 21
820.614853
  0
LINE
  8
CSLAYER1
  6
CONTINUOUS
 62
     3
 10
687.753590
 20
803.114853
 11
687.753590
 21
809.114853
  0
LINE
  8
CSLAYER1
  6
CENTER
 62
     5
 10
712.753590
 20
794.185492
 11
712.753590
 21
818.395453
  0
LINE
  8
CSLAYER1
  6
CONTINUOUS
 62
     3
 10
687.753590
 20
809.114853
 11
763.253590
 21
809.114853
  0
LINE
  8
CSLAYER1
  6
CONTINUOUS
 62
     3
 10
760.253590
 20
831.584508
 11
760.253590
 21
809.645198
  0
LINE
  8
CSLAYER1
  6
CONTINUOUS
 62
     3
 10
763.253590
 20
809.864853
 11
760.253590
 21
809.864853
  0
LINE
  8
CSLAYER1
  6
CONTINUOUS
 62
     3
 10
763.253590
 20
831.364853
 11
760.253590
 21
831.364853
  0
LINE
  8
CSLAYER1
  6
CONTINUOUS
 62
     3
 10
763.253590
 20
822.127050
 11
760.253590
 21
818.627050
  0
LINE
  8
CSLAYER1
  6
CONTINUOUS
 62
     3
 10
752.253590
 20
811.614853
 11
752.253590
 21
829.614853
  0
LINE
  8
CSLAYER1
  6
CONTINUOUS
 62
     3
 10
760.253590
 20
815.130026
 11
753.390771
 21
815.130026
  0
LINE
  8
CSLAYER1
  6
CONTINUOUS
 62
     3
 10
760.253590
 20
809.645198
 11
753.390771
 21
809.645198
  0
LINE
  8
CSLAYER1
  6
CONTINUOUS
 62
     3
 10
752.253590
 20
811.614853
 11
753.390771
 21
809.645198
  0
ARC
  8
CSLAYER1
  6
CONTINUOUS
 62
     3
 10
756.033634
 20
812.387612
 40
3.808617
 50
133.940972
 51
174.338367
  0
ARC
  8
CSLAYER1
  6
CONTINUOUS
 62
     3
 10
766.049334
 20
820.614853
 40
13.795744
 50
156.573402
 51
203.426598
  0
LINE
  8
CSLAYER1
  6
CONTINUOUS
 62
     3
 10
760.253590
 20
826.099681
 11
753.390771
 21
826.099681
  0
LINE
  8
CSLAYER1
  6
CONTINUOUS
 62
     3
 10
760.253590
 20
831.584508
 11
753.390771
 21
831.584508
  0
LINE
  8
CSLAYER1
  6
CONTINUOUS
 62
     3
 10
752.253590
 20
829.614853
 11
753.390771
 21
831.584508
  0
ARC
  8
CSLAYER1
  6
CONTINUOUS
 62
     3
 10
756.033634
 20
828.842095
 40
3.808617
 50
185.661633
 51
226.059028
  0
LINE
  8
CSLAYER1
  6
CENTER
 62
     5
 10
763.253590
 20
820.614853
 11
752.253590
 21
820.614853
  0
LINE
  8
CSLAYER1
  6
CONTINUOUS
 62
     3
 10
763.253590
 20
803.114853
 11
763.253590
 21
843.114853
  0
LINE
  8
CSLAYER1
  6
CENTER
 62
     5
 10
807.753590
 20
806.425290
 11
807.753590
 21
839.688609
  0
LINE
  8
CSLAYER1
  6
CENTER
 62
     5
 10
789.879644
 20
823.114853
 11
826.876601
 21
823.114853
  0
CIRCLE
  8
CSLAYER1
  6
CONTINUOUS
 62
     3
 10
807.753590
 20
823.114853
 40
12.500000
  0
LINE
  8
CSLAYER1
  6
CONTINUOUS
 62
     3
 10
962.753590
 20
1519.408263
 11
712.753590
 21
1519.408263
  0
LINE
  8
CSLAYER1
  6
CONTINUOUS
 62
     3
 10
883.753590
 20
843.114853
 11
883.753590
 21
1501.408263
  0
LINE
  8
CSLAYER1
  6
CONTINUOUS
 62
     3
 10
892.753590
 20
843.114853
 11
892.753590
 21
1501.408263
  0
LINE
  8
CSLAYER1
  6
CONTINUOUS
 62
     3
 10
895.753590
 20
843.114853
 11
895.753590
 21
1489.108263
  0
LINE
  8
CSLAYER1
  6
CONTINUOUS
 62
     3
 10
904.753590
 20
843.114853
 11
904.753590
 21
1488.638608
  0
LINE
  8
CSLAYER1
  6
CONTINUOUS
 62
     3
 10
962.753590
 20
1501.408263
 11
712.753590
 21
1501.408263
  0
LINE
  8
CSLAYER1
  6
CONTINUOUS
 62
     3
 10
893.753590
 20
1490.958263
 11
892.753590
 21
1490.958263
  0
LINE
  8
CSLAYER1
  6
CONTINUOUS
 62
     3
 10
894.753590
 20
1501.408263
 11
894.753590
 21
1491.958263
  0
LINE
  8
CSLAYER1
  6
CONTINUOUS
 62
     3
 10
894.753590
 20
1491.958263
 11
893.753590
 21
1490.958263
  0
LINE
  8
CSLAYER1
  6
CONTINUOUS
 62
     3
 10
893.753590
 20
1501.408263
 11
893.753590
 21
1490.958263
  0
LINE
  8
CSLAYER1
  6
CONTINUOUS
 62
     3
 10
895.253590
 20
1489.108263
 11
901.253590
 21
1489.108263
  0
LINE
  8
CSLAYER1
  6
CONTINUOUS
 62
     3
 10
901.253590
 20
1501.408263
 11
901.253590
 21
1489.108263
  0
LINE
  8
CSLAYER1
  6
CONTINUOUS
 62
     3
 10
895.253590
 20
1501.408263
 11
895.253590
 21
1489.108263
  0
LINE
  8
CSLAYER1
  6
CONTINUOUS
 62
     3
 10
883.753590
 20
1490.958263
 11
791.753590
 21
1490.958263
  0
LINE
  8
CSLAYER1
  6
CENTER
 62
     5
 10
763.253590
 20
1499.608263
 11
912.253590
 21
1499.608263
  0
LINE
  8
CSLAYER1
  6
CONTINUOUS
 62
     3
 10
904.253590
 20
1488.638608
 11
904.253590
 21
1501.408263
  0
LINE
  8
CSLAYER1
  6
CONTINUOUS
 62
     3
 10
901.253590
 20
1488.858263
 11
904.253590
 21
1488.858263
  0
LINE
  8
CSLAYER1
  6
CONTINUOUS
 62
     3
 10
901.253590
 20
1498.096067
 11
904.092616
 21
1501.408263
  0
LINE
  8
CSLAYER1
  6
CONTINUOUS
 62
     3
 10
912.253590
 20
1501.408263
 11
912.253590
 21
1490.608263
  0
ARC
  8
CSLAYER1
  6
CONTINUOUS
 62
     3
 10
898.457846
 20
1499.608263
 40
13.795744
 50
-23.426598
 51
7.497043
  0
LINE
  8
CSLAYER1
  6
CONTINUOUS
 62
     3
 10
904.253590
 20
1494.123436
 11
911.116409
 21
1494.123436
  0
LINE
  8
CSLAYER1
  6
CONTINUOUS
 62
     3
 10
904.253590
 20
1488.638608
 11
911.116409
 21
1488.638608
  0
LINE
  8
CSLAYER1
  6
CONTINUOUS
 62
     3
 10
912.253590
 20
1490.608263
 11
911.116409
 21
1488.638608
  0
ARC
  8
CSLAYER1
  6
CONTINUOUS
 62
     3
 10
908.473545
 20
1491.381022
 40
3.808617
 50
5.661633
 51
46.059028
  0
LINE
  8
CSLAYER1
  6
CENTER
 62
     5
 10
782.753590
 20
1205.731234
 11
892.753590
 21
1205.731234
  0
LINE
  8
CSLAYER1
  6
CENTER
 62
     5
 10
758.253590
 20
1151.481616
 11
917.253590
 21
1151.481616
  0
LINE
  8
CSLAYER1
  6
CONTINUOUS
 62
     3
 10
916.253590
 20
1146.481616
 11
915.753590
 21
1146.481616
  0
LINE
  8
CSLAYER1
  6
CONTINUOUS
 62
     3
 10
905.253590
 20
1161.981616
 11
905.253590
 21
1140.981616
  0
LINE
  8
CSLAYER1
  6
CONTINUOUS
 62
     3
 10
917.253590
 20
1147.481616
 11
917.253590
 21
1155.481616
  0
LINE
  8
CSLAYER1
  6
CONTINUOUS
 62
     3
 10
895.753590
 20
1165.481616
 11
892.753590
 21
1165.481616
  0
LINE
  8
CSLAYER1
  6
CONTINUOUS
 62
     3
 10
895.753590
 20
1137.481616
 11
892.753590
 21
1137.481616
  0
LINE
  8
CSLAYER1
  6
CONTINUOUS
 62
     3
 10
907.253590
 20
1161.981616
 11
907.253590
 21
1140.981616
  0
LINE
  8
CSLAYER1
  6
CONTINUOUS
 62
     3
 10
909.753590
 20
1160.681616
 11
909.753590
 21
1142.281616
  0
LINE
  8
CSLAYER1
  6
CONTINUOUS
 62
     3
 10
909.753590
 20
1142.281616
 11
907.253590
 21
1142.281616
  0
LINE
  8
CSLAYER1
  6
CONTINUOUS
 62
     3
 10
907.253590
 20
1140.981616
 11
905.253590
 21
1140.981616
  0
LINE
  8
CSLAYER1
  6
CONTINUOUS
 62
     3
 10
909.753590
 20
1160.681616
 11
907.253590
 21
1160.681616
  0
LINE
  8
CSLAYER1
  6
CONTINUOUS
 62
     3
 10
907.253590
 20
1161.981616
 11
905.253590
 21
1161.981616
  0
LINE
  8
CSLAYER1
  6
CONTINUOUS
 62
     3
 10
915.753590
 20
1159.981616
 11
915.753590
 21
1142.981616
  0
LINE
  8
CSLAYER1
  6
CONTINUOUS
 62
     3
 10
916.253590
 20
1146.481616
 11
917.253590
 21
1147.481616
  0
LINE
  8
CSLAYER1
  6
CONTINUOUS
 62
     3
 10
916.953590
 20
1147.181616
 11
915.753590
 21
1147.181616
  0
LINE
  8
CSLAYER1
  6
CONTINUOUS
 62
     3
 10
916.253590
 20
1146.481616
 11
916.253590
 21
1156.481616
  0
LINE
  8
CSLAYER1
  6
CONTINUOUS
 62
     3
 10
914.994401
 20
1141.666662
 11
910.512779
 21
1141.666662
  0
LINE
  8
CSLAYER1
  6
CONTINUOUS
 62
     3
 10
914.994401
 20
1146.574139
 11
910.512779
 21
1146.574139
  0
LINE
  8
CSLAYER1
  6
CONTINUOUS
 62
     3
 10
915.753590
 20
1142.981616
 11
914.994401
 21
1141.666662
  0
ARC
  8
CSLAYER1
  6
CONTINUOUS
 62
     3
 10
899.512779
 20
1151.481616
 40
16.240811
 50
-17.587954
 51
17.587954
  0
ARC
  8
CSLAYER1
  6
CONTINUOUS
 62
     3
 10
911.412666
 20
1144.120400
 40
4.341619
 50
-27.480777
 51
34.413868
  0
LINE
  8
CSLAYER1
  6
CONTINUOUS
 62
     3
 10
915.753590
 20
1159.981616
 11
914.994401
 21
1161.296571
  0
ARC
  8
CSLAYER1
  6
CONTINUOUS
 62
     3
 10
911.412666
 20
1158.842832
 40
4.341619
 50
-34.413868
 51
27.480777
  0
LINE
  8
CSLAYER1
  6
CONTINUOUS
 62
     3
 10
909.753590
 20
1142.981616
 11
910.512779
 21
1141.666662
  0
ARC
  8
CSLAYER1
  6
CONTINUOUS
 62
     3
 10
925.994401
 20
1151.481616
 40
16.240811
 50
162.412046
 51
197.587954
  0
ARC
  8
CSLAYER1
  6
CONTINUOUS
 62
     3
 10
914.094514
 20
1144.120400
 40
4.341619
 50
145.586132
 51
207.480777
  0
LINE
  8
CSLAYER1
  6
CONTINUOUS
 62
     3
 10
909.753590
 20
1159.981616
 11
910.512779
 21
1161.296571
  0
ARC
  8
CSLAYER1
  6
CONTINUOUS
 62
     3
 10
914.094514
 20
1158.842832
 40
4.341619
 50
152.519223
 51
214.413868
  0
LINE
  8
CSLAYER1
  6
CONTINUOUS
 62
     3
 10
914.994401
 20
1161.296571
 11
910.512779
 21
1161.296571
  0
LINE
  8
CSLAYER1
  6
CONTINUOUS
 62
     3
 10
914.994401
 20
1156.389093
 11
910.512779
 21
1156.389093
  0
LINE
  8
CSLAYER1
  6
CONTINUOUS
 62
     3
 10
916.253590
 20
1156.481616
 11
915.753590
 21
1156.481616
  0
LINE
  8
CSLAYER1
  6
CONTINUOUS
 62
     3
 10
916.253590
 20
1156.481616
 11
917.253590
 21
1155.481616
  0
LINE
  8
CSLAYER1
  6
CONTINUOUS
 62
     3
 10
916.953590
 20
1155.781616
 11
915.753590
 21
1155.781616
  0
LINE
  8
CSLAYER1
  6
CONTINUOUS
 62
     3
 10
907.253590
 20
1153.383064
 11
909.753590
 21
1150.013499
  0
LINE
  8
CSLAYER1
  6
CONTINUOUS
 62
     3
 10
904.753590
 20
1143.981616
 11
905.253590
 21
1143.981616
  0
LINE
  8
CSLAYER1
  6
CONTINUOUS
 62
     3
 10
904.753590
 20
1158.981616
 11
905.253590
 21
1158.981616
  0
LINE
  8
CSLAYER1
  6
CENTER
 62
     5
 10
848.253590
 20
1205.731234
 11
848.253590
 21
876.649410
  0
LINE
  8
CSLAYER1
  6
CONTINUOUS
 62
     3
 10
877.253590
 20
855.195171
 11
877.253590
 21
908.738651
  0
LINE
  8
CSLAYER1
  6
CONTINUOUS
 62
     3
 10
871.253590
 20
855.195171
 11
871.253590
 21
908.738651
  0
LINE
  8
CSLAYER1
  6
CONTINUOUS
 62
     3
 10
819.253590
 20
855.195171
 11
819.253590
 21
908.738651
  0
LINE
  8
CSLAYER1
  6
CONTINUOUS
 62
     3
 10
825.253590
 20
855.195171
 11
825.253590
 21
908.738651
  0
LINE
  8
CSLAYER1
  6
CONTINUOUS
 62
     3
 10
870.753590
 20
1193.131234
 11
870.753590
 21
1218.331234
  0
LINE
  8
CSLAYER1
  6
CONTINUOUS
 62
     3
 10
825.753590
 20
1193.131234
 11
825.753590
 21
1218.331234
  0
LINE
  8
CSLAYER1
  6
CONTINUOUS
 62
     3
 10
826.753590
 20
1219.331234
 11
869.753590
 21
1219.331234
  0
LINE
  8
CSLAYER1
  6
CONTINUOUS
 62
     3
 10
825.753590
 20
1218.331234
 11
826.753590
 21
1219.331234
  0
LINE
  8
CSLAYER1
  6
CONTINUOUS
 62
     3
 10
869.753590
 20
1219.331234
 11
870.753590
 21
1218.331234
  0
POINT
  8
CSLAYER1
 62
     3
 10
848.253590
 20
1205.731234
  0
LINE
  8
CSLAYER1
  6
CONTINUOUS
 62
     3
 10
871.753590
 20
1213.731234
 11
870.753590
 21
1213.731234
  0
LINE
  8
CSLAYER1
  6
CONTINUOUS
 62
     3
 10
825.753590
 20
1213.731234
 11
824.753590
 21
1213.731234
  0
LINE
  8
CSLAYER1
  6
CONTINUOUS
 62
     3
 10
866.253590
 20
1028.657316
 11
866.253590
 21
1194.066114
  0
LINE
  8
CSLAYER1
  6
CONTINUOUS
 62
     3
 10
866.253590
 20
1194.066114
 11
866.185094
 21
1194.826684
  0
LINE
  8
CSLAYER1
  6
CONTINUOUS
 62
     3
 10
866.185094
 20
1194.826684
 11
865.980129
 21
1195.581467
  0
LINE
  8
CSLAYER1
  6
CONTINUOUS
 62
     3
 10
865.980129
 20
1195.581467
 11
865.640255
 21
1196.324717
  0
LINE
  8
CSLAYER1
  6
CONTINUOUS
 62
     3
 10
865.640255
 20
1196.324717
 11
865.168057
 21
1197.050777
  0
LINE
  8
CSLAYER1
  6
CONTINUOUS
 62
     3
 10
865.168057
 20
1197.050777
 11
864.567130
 21
1197.754123
  0
LINE
  8
CSLAYER1
  6
CONTINUOUS
 62
     3
 10
864.567130
 20
1197.754123
 11
863.842047
 21
1198.429400
  0
LINE
  8
CSLAYER1
  6
CONTINUOUS
 62
     3
 10
863.842047
 20
1198.429400
 11
862.998327
 21
1199.071470
  0
LINE
  8
CSLAYER1
  6
CONTINUOUS
 62
     3
 10
862.998327
 20
1199.071470
 11
862.042390
 21
1199.675447
  0
LINE
  8
CSLAYER1
  6
CONTINUOUS
 62
     3
 10
862.042390
 20
1199.675447
 11
860.981512
 21
1200.236733
  0
LINE
  8
CSLAYER1
  6
CONTINUOUS
 62
     3
 10
860.981512
 20
1200.236733
 11
859.823767
 21
1200.751056
  0
LINE
  8
CSLAYER1
  6
CONTINUOUS
 62
     3
 10
859.823767
 20
1200.751056
 11
858.577966
 21
1201.214504
  0
LINE
  8
CSLAYER1
  6
CONTINUOUS
 62
     3
 10
858.577966
 20
1201.214504
 11
857.253590
 21
1201.623548
  0
LINE
  8
CSLAYER1
  6
CONTINUOUS
 62
     3
 10
857.253590
 20
1201.623548
 11
855.860719
 21
1201.975075
  0
LINE
  8
CSLAYER1
  6
CONTINUOUS
 62
     3
 10
855.860719
 20
1201.975075
 11
854.409952
 21
1202.266410
  0
LINE
  8
CSLAYER1
  6
CONTINUOUS
 62
     3
 10
854.409952
 20
1202.266410
 11
852.912333
 21
1202.495336
  0
LINE
  8
CSLAYER1
  6
CONTINUOUS
 62
     3
 10
852.912333
 20
1202.495336
 11
851.379257
 21
1202.660110
  0
LINE
  8
CSLAYER1
  6
CONTINUOUS
 62
     3
 10
851.379257
 20
1202.660110
 11
849.822393
 21
1202.759479
  0
LINE
  8
CSLAYER1
  6
CONTINUOUS
 62
     3
 10
849.822393
 20
1202.759479
 11
848.253590
 21
1202.792687
  0
LINE
  8
CSLAYER1
  6
CONTINUOUS
 62
     3
 10
848.253590
 20
1202.792687
 11
846.684787
 21
1202.759479
  0
LINE
  8
CSLAYER1
  6
CONTINUOUS
 62
     3
 10
846.684787
 20
1202.759479
 11
845.127923
 21
1202.660110
  0
LINE
  8
CSLAYER1
  6
CONTINUOUS
 62
     3
 10
845.127923
 20
1202.660110
 11
843.594847
 21
1202.495336
  0
LINE
  8
CSLAYER1
  6
CONTINUOUS
 62
     3
 10
843.594847
 20
1202.495336
 11
842.097227
 21
1202.266410
  0
LINE
  8
CSLAYER1
  6
CONTINUOUS
 62
     3
 10
842.097227
 20
1202.266410
 11
840.646461
 21
1201.975075
  0
LINE
  8
CSLAYER1
  6
CONTINUOUS
 62
     3
 10
840.646461
 20
1201.975075
 11
839.253590
 21
1201.623548
  0
LINE
  8
CSLAYER1
  6
CONTINUOUS
 62
     3
 10
839.253590
 20
1201.623548
 11
837.929214
 21
1201.214504
  0
LINE
  8
CSLAYER1
  6
CONTINUOUS
 62
     3
 10
837.929214
 20
1201.214504
 11
836.683413
 21
1200.751056
  0
LINE
  8
CSLAYER1
  6
CONTINUOUS
 62
     3
 10
836.683413
 20
1200.751056
 11
835.525668
 21
1200.236733
  0
LINE
  8
CSLAYER1
  6
CONTINUOUS
 62
     3
 10
835.525668
 20
1200.236733
 11
834.464790
 21
1199.675447
  0
LINE
  8
CSLAYER1
  6
CONTINUOUS
 62
     3
 10
834.464790
 20
1199.675447
 11
833.508853
 21
1199.071470
  0
LINE
  8
CSLAYER1
  6
CONTINUOUS
 62
     3
 10
833.508853
 20
1199.071470
 11
832.665133
 21
1198.429400
  0
LINE
  8
CSLAYER1
  6
CONTINUOUS
 62
     3
 10
832.665133
 20
1198.429400
 11
831.940050
 21
1197.754123
  0
LINE
  8
CSLAYER1
  6
CONTINUOUS
 62
     3
 10
831.940050
 20
1197.754123
 11
831.339123
 21
1197.050777
  0
LINE
  8
CSLAYER1
  6
CONTINUOUS
 62
     3
 10
831.339123
 20
1197.050777
 11
830.866925
 21
1196.324717
  0
LINE
  8
CSLAYER1
  6
CONTINUOUS
 62
     3
 10
830.866925
 20
1196.324717
 11
830.527050
 21
1195.581467
  0
LINE
  8
CSLAYER1
  6
CONTINUOUS
 62
     3
 10
830.527050
 20
1195.581467
 11
830.322085
 21
1194.826684
  0
LINE
  8
CSLAYER1
  6
CONTINUOUS
 62
     3
 10
830.322085
 20
1194.826684
 11
830.253590
 21
1194.066114
  0
LINE
  8
CSLAYER1
  6
CONTINUOUS
 62
     3
 10
830.253590
 20
1028.696457
 11
830.253590
 21
1194.066114
  0
LINE
  8
CSLAYER1
  6
CENTER
 62
     5
 10
808.253590
 20
843.114853
 11
808.253590
 21
978.113489
  0
LINE
  8
CSLAYER1
  6
CONTINUOUS
 62
     3
 10
815.253590
 20
972.413489
 11
801.253590
 21
972.413489
  0
LINE
  8
CSLAYER1
  6
CONTINUOUS
 62
     3
 10
815.253590
 20
964.613489
 11
801.253590
 21
964.613489
  0
LINE
  8
CSLAYER1
  6
CONTINUOUS
 62
     3
 10
814.685522
 20
959.413489
 11
801.821658
 21
959.413489
  0
LINE
  8
CSLAYER1
  6
CONTINUOUS
 62
     3
 10
814.253590
 20
957.413489
 11
802.253590
 21
957.413489
  0
LINE
  8
CSLAYER1
  6
CONTINUOUS
 62
     3
 10
814.253590
 20
950.413489
 11
802.253590
 21
950.413489
  0
LINE
  8
CSLAYER1
  6
CONTINUOUS
 62
     3
 10
813.136616
 20
925.413489
 11
803.370564
 21
925.413489
  0
LINE
  8
CSLAYER1
  6
CONTINUOUS
 62
     3
 10
813.753590
 20
947.413489
 11
813.753590
 21
950.413489
  0
LINE
  8
CSLAYER1
  6
CONTINUOUS
 62
     3
 10
816.336494
 20
965.238704
 11
816.336494
 21
971.788274
  0
LINE
  8
CSLAYER1
  6
CONTINUOUS
 62
     3
 10
812.295042
 20
965.238704
 11
812.295042
 21
971.788274
  0
ARC
  8
CSLAYER1
  6
CONTINUOUS
 62
     3
 10
785.565820
 20
964.655711
 40
29.587800
 50
345.831727
 51
359.918240
  0
ARC
  8
CSLAYER1
  6
CONTINUOUS
 62
     3
 10
830.941360
 20
964.655711
 40
29.587800
 50
180.081760
 51
194.168273
  0
LINE
  8
CSLAYER1
  6
CONTINUOUS
 62
     3
 10
812.600904
 20
957.413489
 11
812.600904
 21
959.413489
  0
LINE
  8
CSLAYER1
  6
CONTINUOUS
 62
     3
 10
810.619139
 20
957.413489
 11
810.619139
 21
959.413489
  0
LINE
  8
CSLAYER1
  6
CONTINUOUS
 62
     3
 10
803.906276
 20
957.413489
 11
803.906276
 21
959.413489
  0
LINE
  8
CSLAYER1
  6
CONTINUOUS
 62
     3
 10
805.888041
 20
957.413489
 11
805.888041
 21
959.413489
  0
LINE
  8
CSLAYER1
  6
CONTINUOUS
 62
     3
 10
815.253590
 20
972.413489
 11
816.336494
 21
971.788274
  0
ARC
  8
CSLAYER1
  6
CONTINUOUS
 62
     3
 10
814.315768
 20
968.861860
 40
3.556295
 50
64.625569
 51
124.625569
  0
ARC
  8
CSLAYER1
  6
CONTINUOUS
 62
     3
 10
808.253590
 20
959.038704
 40
13.374785
 50
72.412046
 51
107.587954
  0
LINE
  8
CSLAYER1
  6
CONTINUOUS
 62
     3
 10
815.253590
 20
964.613489
 11
816.336494
 21
965.238704
  0
ARC
  8
CSLAYER1
  6
CONTINUOUS
 62
     3
 10
814.315768
 20
968.165118
 40
3.556295
 50
235.374431
 51
295.374431
  0
ARC
  8
CSLAYER1
  6
CONTINUOUS
 62
     3
 10
808.253590
 20
977.988274
 40
13.374785
 50
252.412046
 51
287.587954
  0
LINE
  8
CSLAYER1
  6
CONTINUOUS
 62
     3
 10
800.170686
 20
965.238704
 11
800.170686
 21
971.788274
  0
LINE
  8
CSLAYER1
  6
CONTINUOUS
 62
     3
 10
804.212138
 20
965.238704
 11
804.212138
 21
971.788274
  0
LINE
  8
CSLAYER1
  6
CONTINUOUS
 62
     3
 10
801.253590
 20
972.413489
 11
800.170686
 21
971.788274
  0
ARC
  8
CSLAYER1
  6
CONTINUOUS
 62
     3
 10
802.191412
 20
968.861860
 40
3.556295
 50
55.374431
 51
115.374431
  0
LINE
  8
CSLAYER1
  6
CONTINUOUS
 62
     3
 10
801.253590
 20
964.613489
 11
800.170686
 21
965.238704
  0
ARC
  8
CSLAYER1
  6
CONTINUOUS
 62
     3
 10
802.191412
 20
968.165118
 40
3.556295
 50
244.625569
 51
304.625569
  0
LINE
  8
CSLAYER1
  6
CONTINUOUS
 62
     3
 10
815.181793
 20
950.949388
 11
815.181793
 21
956.677591
  0
LINE
  8
CSLAYER1
  6
CONTINUOUS
 62
     3
 10
811.717692
 20
950.949388
 11
811.717692
 21
956.677591
  0
LINE
  8
CSLAYER1
  6
CONTINUOUS
 62
     3
 10
814.253590
 20
950.413489
 11
815.181793
 21
950.949388
  0
ARC
  8
CSLAYER1
  6
CONTINUOUS
 62
     3
 10
808.253590
 20
961.877591
 40
11.464102
 50
252.178595
 51
287.821405
  0
ARC
  8
CSLAYER1
  6
CONTINUOUS
 62
     3
 10
813.449742
 20
953.479418
 40
3.066114
 50
236.143645
 51
295.804157
  0
LINE
  8
CSLAYER1
  6
CONTINUOUS
 62
     3
 10
814.253590
 20
957.213489
 11
815.181793
 21
956.677591
  0
ARC
  8
CSLAYER1
  6
CONTINUOUS
 62
     3
 10
808.253590
 20
945.749388
 40
11.464102
 50
72.178595
 51
107.821405
  0
ARC
  8
CSLAYER1
  6
CONTINUOUS
 62
     3
 10
813.449742
 20
954.147561
 40
3.066114
 50
64.195843
 51
123.856355
  0
LINE
  8
CSLAYER1
  6
CONTINUOUS
 62
     3
 10
814.253590
 20
957.213489
 11
802.253590
 21
957.213489
  0
LINE
  8
CSLAYER1
  6
CONTINUOUS
 62
     3
 10
811.717692
 20
957.213489
 11
811.717692
 21
957.413489
  0
LINE
  8
CSLAYER1
  6
CONTINUOUS
 62
     3
 10
802.753590
 20
947.413489
 11
802.753590
 21
950.413489
  0
LINE
  8
CSLAYER1
  6
CONTINUOUS
 62
     3
 10
801.325387
 20
950.949388
 11
801.325387
 21
956.677591
  0
LINE
  8
CSLAYER1
  6
CONTINUOUS
 62
     3
 10
804.789488
 20
950.949388
 11
804.789488
 21
956.677591
  0
LINE
  8
CSLAYER1
  6
CONTINUOUS
 62
     3
 10
802.253590
 20
950.413489
 11
801.325387
 21
950.949388
  0
ARC
  8
CSLAYER1
  6
CONTINUOUS
 62
     3
 10
803.057437
 20
953.479418
 40
3.066114
 50
244.195843
 51
303.856355
  0
LINE
  8
CSLAYER1
  6
CONTINUOUS
 62
     3
 10
802.253590
 20
957.213489
 11
801.325387
 21
956.677591
  0
ARC
  8
CSLAYER1
  6
CONTINUOUS
 62
     3
 10
803.057437
 20
954.147561
 40
3.066114
 50
56.143645
 51
115.804157
  0
LINE
  8
CSLAYER1
  6
CONTINUOUS
 62
     3
 10
804.789488
 20
957.213489
 11
804.789488
 21
957.413489
  0
LINE
  8
CSLAYER1
  6
CONTINUOUS
 62
     3
 10
815.181793
 20
938.413489
 11
815.181793
 21
946.877591
  0
LINE
  8
CSLAYER1
  6
CONTINUOUS
 62
     3
 10
811.717692
 20
938.413489
 11
811.717692
 21
946.877591
  0
LINE
  8
CSLAYER1
  6
CONTINUOUS
 62
     3
 10
814.253590
 20
947.413489
 11
815.181793
 21
946.877591
  0
ARC
  8
CSLAYER1
  6
CONTINUOUS
 62
     3
 10
808.253590
 20
935.949388
 40
11.464102
 50
72.178595
 51
107.821405
  0
ARC
  8
CSLAYER1
  6
CONTINUOUS
 62
     3
 10
813.449742
 20
944.347561
 40
3.066114
 50
64.195843
 51
123.856355
  0
LINE
  8
CSLAYER1
  6
CONTINUOUS
 62
     3
 10
814.253590
 20
947.413489
 11
802.253590
 21
947.413489
  0
LINE
  8
CSLAYER1
  6
CONTINUOUS
 62
     3
 10
801.325387
 20
938.413489
 11
801.325387
 21
946.877591
  0
LINE
  8
CSLAYER1
  6
CONTINUOUS
 62
     3
 10
804.789488
 20
938.413489
 11
804.789488
 21
946.877591
  0
LINE
  8
CSLAYER1
  6
CONTINUOUS
 62
     3
 10
802.253590
 20
947.413489
 11
801.325387
 21
946.877591
  0
ARC
  8
CSLAYER1
  6
CONTINUOUS
 62
     3
 10
803.057437
 20
944.347561
 40
3.066114
 50
56.143645
 51
115.804157
  0
LINE
  8
CSLAYER1
  6
CONTINUOUS
 62
     3
 10
814.132871
 20
926.327029
 11
815.181793
 21
938.413489
  0
ARC
  8
CSLAYER1
  6
CONTINUOUS
 62
     3
 10
793.076102
 20
938.413489
 40
18.641590
 50
330.443788
 51
360.000000
  0
ARC
  8
CSLAYER1
  6
CONTINUOUS
 62
     3
 10
808.253590
 20
929.853343
 40
1.217263
 50
210.578468
 51
329.421532
  0
ARC
  8
CSLAYER1
  6
CONTINUOUS
 62
     3
 10
830.359281
 20
938.413489
 40
18.641590
 50
180.000000
 51
209.556212
  0
ARC
  8
CSLAYER1
  6
CONTINUOUS
 62
     3
 10
815.181793
 20
929.853343
 40
1.217263
 50
210.578468
 51
227.594217
  0
ARC
  8
CSLAYER1
  6
CONTINUOUS
 62
     3
 10
813.136616
 20
926.413489
 40
1.000000
 50
270.000000
 51
355.040021
  0
LINE
  8
CSLAYER1
  6
CONTINUOUS
 62
     3
 10
802.374308
 20
926.327029
 11
801.325387
 21
938.413489
  0
ARC
  8
CSLAYER1
  6
CONTINUOUS
 62
     3
 10
823.431078
 20
938.413489
 40
18.641590
 50
180.000000
 51
209.556212
  0
ARC
  8
CSLAYER1
  6
CONTINUOUS
 62
     3
 10
786.147898
 20
938.413489
 40
18.641590
 50
330.443788
 51
360.000000
  0
ARC
  8
CSLAYER1
  6
CONTINUOUS
 62
     3
 10
801.325387
 20
929.853343
 40
1.217263
 50
312.405783
 51
329.421532
  0
ARC
  8
CSLAYER1
  6
CONTINUOUS
 62
     3
 10
803.370564
 20
926.413489
 40
1.000000
 50
184.959979
 51
270.000000
  0
LINE
  8
CSLAYER1
  6
CONTINUOUS
 62
     3
 10
815.253590
 20
992.113489
 11
802.753590
 21
992.113489
  0
LINE
  8
CSLAYER1
  6
CENTER
 62
     5
 10
820.753590
 20
985.113489
 11
815.253590
 21
985.113489
  0
LINE
  8
CSLAYER1
  6
CONTINUOUS
 62
     3
 10
801.253590
 20
978.113489
 11
801.253590
 21
990.613489
  0
LINE
  8
CSLAYER1
  6
CONTINUOUS
 62
     3
 10
815.253590
 20
978.113489
 11
801.253590
 21
978.113489
  0
LINE
  8
CSLAYER1
  6
CONTINUOUS
 62
     3
 10
815.253590
 20
978.113489
 11
815.253590
 21
992.111044
  0
LINE
  8
CSLAYER1
  6
CONTINUOUS
 62
     3
 10
812.853590
 20
972.413489
 11
812.853590
 21
978.113489
  0
LINE
  8
CSLAYER1
  6
CONTINUOUS
 62
     5
 10
812.253590
 20
972.413489
 11
812.253590
 21
977.074259
  0
LINE
  8
CSLAYER1
  6
CONTINUOUS
 62
     5
 10
812.853590
 20
978.113489
 11
812.253590
 21
977.074259
  0
LINE
  8
CSLAYER1
  6
CONTINUOUS
 62
     3
 10
803.653590
 20
972.413489
 11
803.653590
 21
978.113489
  0
LINE
  8
CSLAYER1
  6
CONTINUOUS
 62
     5
 10
803.653590
 20
978.113489
 11
804.253590
 21
977.074259
  0
LINE
  8
CSLAYER1
  6
CONTINUOUS
 62
     5
 10
812.253590
 20
977.074259
 11
804.253590
 21
977.074259
  0
LINE
  8
CSLAYER1
  6
CONTINUOUS
 62
     3
 10
820.753590
 20
980.261704
 11
815.253590
 21
980.163489
  0
LINE
  8
CSLAYER1
  6
CONTINUOUS
 62
     5
 10
820.753590
 20
980.961815
 11
815.241092
 21
980.863378
  0
LINE
  8
CSLAYER1
  6
CONTINUOUS
 62
     3
 10
820.753590
 20
989.965275
 11
815.253590
 21
990.063489
  0
LINE
  8
CSLAYER1
  6
CONTINUOUS
 62
     5
 10
820.753590
 20
989.265163
 11
815.241092
 21
989.363601
  0
ARC
  8
CSLAYER1
  6
CONTINUOUS
 62
     3
 10
802.753590
 20
990.613489
 40
1.500000
 50
90.000000
 51
180.000000
  0
LINE
  8
CSLAYER1
  6
CONTINUOUS
 62
     3
 10
826.753590
 20
1192.131234
 11
830.253590
 21
1192.131234
  0
LINE
  8
CSLAYER1
  6
CONTINUOUS
 62
     3
 10
825.753590
 20
1193.131234
 11
826.753590
 21
1192.131234
  0
LINE
  8
CSLAYER1
  6
CONTINUOUS
 62
     3
 10
869.753590
 20
1192.131234
 11
870.753590
 21
1193.131234
  0
LINE
  8
CSLAYER1
  6
CONTINUOUS
 62
     3
 10
871.753590
 20
1197.731234
 11
870.753590
 21
1197.731234
  0
LINE
  8
CSLAYER1
  6
CONTINUOUS
 62
     3
 10
825.753590
 20
1197.731234
 11
824.753590
 21
1197.731234
  0
LINE
  8
CSLAYER1
  6
CONTINUOUS
 62
     3
 10
812.753590
 20
1222.731234
 11
824.753590
 21
1222.731234
  0
LINE
  8
CSLAYER1
  6
CONTINUOUS
 62
     3
 10
812.753590
 20
1150.975072
 11
824.753590
 21
1150.975072
  0
LINE
  8
CSLAYER1
  6
CONTINUOUS
 62
     3
 10
871.753590
 20
1150.975072
 11
871.753590
 21
1222.731234
  0
LINE
  8
CSLAYER1
  6
CONTINUOUS
 62
     3
 10
824.753590
 20
1150.975072
 11
824.753590
 21
1222.731234
  0
LINE
  8
CSLAYER1
  6
CONTINUOUS
 62
     3
 10
812.753590
 20
1150.975072
 11
812.753590
 21
1222.731234
  0
LINE
  8
CSLAYER1
  6
CONTINUOUS
 62
     3
 10
871.753590
 20
1150.975072
 11
883.753590
 21
1150.975072
  0
LINE
  8
CSLAYER1
  6
CONTINUOUS
 62
     3
 10
871.753590
 20
1222.731234
 11
883.753590
 21
1222.731234
  0
LINE
  8
CSLAYER1
  6
CONTINUOUS
 62
     3
 10
791.753590
 20
1213.731234
 11
812.753590
 21
1213.731234
  0
LINE
  8
CSLAYER1
  6
CONTINUOUS
 62
     3
 10
791.753590
 20
1197.731234
 11
812.753590
 21
1197.731234
  0
LINE
  8
CSLAYER1
  6
CONTINUOUS
 62
     3
 10
883.753590
 20
1296.688282
 11
791.753590
 21
1296.688282
  0
LINE
  8
CSLAYER1
  6
CONTINUOUS
 62
     3
 10
759.253590
 20
1146.481616
 11
759.753590
 21
1146.481616
  0
LINE
  8
CSLAYER1
  6
CONTINUOUS
 62
     3
 10
770.253590
 20
1161.981616
 11
770.253590
 21
1140.981616
  0
LINE
  8
CSLAYER1
  6
CONTINUOUS
 62
     3
 10
758.253590
 20
1147.481616
 11
758.253590
 21
1155.481616
  0
LINE
  8
CSLAYER1
  6
CONTINUOUS
 62
     3
 10
779.753590
 20
1165.481616
 11
782.753590
 21
1165.481616
  0
LINE
  8
CSLAYER1
  6
CONTINUOUS
 62
     3
 10
779.753590
 20
843.114853
 11
779.753590
 21
1489.108263
  0
LINE
  8
CSLAYER1
  6
CONTINUOUS
 62
     3
 10
782.753590
 20
843.114853
 11
782.753590
 21
1501.408263
  0
LINE
  8
CSLAYER1
  6
CONTINUOUS
 62
     3
 10
779.753590
 20
1137.481616
 11
782.753590
 21
1137.481616
  0
LINE
  8
CSLAYER1
  6
CONTINUOUS
 62
     3
 10
768.253590
 20
1161.981616
 11
768.253590
 21
1140.981616
  0
LINE
  8
CSLAYER1
  6
CONTINUOUS
 62
     3
 10
765.753590
 20
1160.681616
 11
765.753590
 21
1142.281616
  0
LINE
  8
CSLAYER1
  6
CONTINUOUS
 62
     3
 10
765.753590
 20
1142.281616
 11
768.253590
 21
1142.281616
  0
LINE
  8
CSLAYER1
  6
CONTINUOUS
 62
     3
 10
768.253590
 20
1140.981616
 11
770.253590
 21
1140.981616
  0
LINE
  8
CSLAYER1
  6
CONTINUOUS
 62
     3
 10
765.753590
 20
1160.681616
 11
768.253590
 21
1160.681616
  0
LINE
  8
CSLAYER1
  6
CONTINUOUS
 62
     3
 10
768.253590
 20
1161.981616
 11
770.253590
 21
1161.981616
  0
LINE
  8
CSLAYER1
  6
CONTINUOUS
 62
     3
 10
759.753590
 20
1159.981616
 11
759.753590
 21
1142.981616
  0
LINE
  8
CSLAYER1
  6
CONTINUOUS
 62
     3
 10
759.253590
 20
1146.481616
 11
758.253590
 21
1147.481616
  0
LINE
  8
CSLAYER1
  6
CONTINUOUS
 62
     3
 10
758.553590
 20
1147.181616
 11
759.753590
 21
1147.181616
  0
LINE
  8
CSLAYER1
  6
CONTINUOUS
 62
     3
 10
759.253590
 20
1146.481616
 11
759.253590
 21
1156.481616
  0
LINE
  8
CSLAYER1
  6
CONTINUOUS
 62
     3
 10
760.512779
 20
1141.666662
 11
764.994401
 21
1141.666662
  0
LINE
  8
CSLAYER1
  6
CONTINUOUS
 62
     3
 10
760.512779
 20
1146.574139
 11
764.994401
 21
1146.574139
  0
LINE
  8
CSLAYER1
  6
CONTINUOUS
 62
     3
 10
759.753590
 20
1142.981616
 11
760.512779
 21
1141.666662
  0
ARC
  8
CSLAYER1
  6
CONTINUOUS
 62
     3
 10
775.994401
 20
1151.481616
 40
16.240811
 50
162.412046
 51
197.587954
  0
ARC
  8
CSLAYER1
  6
CONTINUOUS
 62
     3
 10
764.094514
 20
1144.120400
 40
4.341619
 50
145.586132
 51
207.480777
  0
LINE
  8
CSLAYER1
  6
CONTINUOUS
 62
     3
 10
759.753590
 20
1159.981616
 11
760.512779
 21
1161.296571
  0
ARC
  8
CSLAYER1
  6
CONTINUOUS
 62
     3
 10
764.094514
 20
1158.842832
 40
4.341619
 50
152.519223
 51
214.413868
  0
LINE
  8
CSLAYER1
  6
CONTINUOUS
 62
     3
 10
765.753590
 20
1142.981616
 11
764.994401
 21
1141.666662
  0
ARC
  8
CSLAYER1
  6
CONTINUOUS
 62
     3
 10
749.512779
 20
1151.481616
 40
16.240811
 50
-17.587954
 51
17.587954
  0
ARC
  8
CSLAYER1
  6
CONTINUOUS
 62
     3
 10
761.412666
 20
1144.120400
 40
4.341619
 50
-27.480777
 51
34.413868
  0
LINE
  8
CSLAYER1
  6
CONTINUOUS
 62
     3
 10
765.753590
 20
1159.981616
 11
764.994401
 21
1161.296571
  0
ARC
  8
CSLAYER1
  6
CONTINUOUS
 62
     3
 10
761.412666
 20
1158.842832
 40
4.341619
 50
-34.413868
 51
27.480777
  0
LINE
  8
CSLAYER1
  6
CONTINUOUS
 62
     3
 10
760.512779
 20
1161.296571
 11
764.994401
 21
1161.296571
  0
LINE
  8
CSLAYER1
  6
CONTINUOUS
 62
     3
 10
760.512779
 20
1156.389093
 11
764.994401
 21
1156.389093
  0
LINE
  8
CSLAYER1
  6
CONTINUOUS
 62
     3
 10
759.253590
 20
1156.481616
 11
759.753590
 21
1156.481616
  0
LINE
  8
CSLAYER1
  6
CONTINUOUS
 62
     3
 10
759.253590
 20
1156.481616
 11
758.253590
 21
1155.481616
  0
LINE
  8
CSLAYER1
  6
CONTINUOUS
 62
     3
 10
758.553590
 20
1155.781616
 11
759.753590
 21
1155.781616
  0
LINE
  8
CSLAYER1
  6
CONTINUOUS
 62
     3
 10
768.253590
 20
1153.383064
 11
765.753590
 21
1150.013499
  0
LINE
  8
CSLAYER1
  6
CONTINUOUS
 62
     3
 10
770.753590
 20
1143.981616
 11
770.253590
 21
1143.981616
  0
LINE
  8
CSLAYER1
  6
CONTINUOUS
 62
     3
 10
770.753590
 20
1158.981616
 11
770.253590
 21
1158.981616
  0
LINE
  8
CSLAYER1
  6
CONTINUOUS
 62
     3
 10
781.753590
 20
1490.958263
 11
782.753590
 21
1490.958263
  0
LINE
  8
CSLAYER1
  6
CONTINUOUS
 62
     3
 10
780.753590
 20
1501.408263
 11
780.753590
 21
1491.958263
  0
LINE
  8
CSLAYER1
  6
CONTINUOUS
 62
     3
 10
780.753590
 20
1491.958263
 11
781.753590
 21
1490.958263
  0
LINE
  8
CSLAYER1
  6
CONTINUOUS
 62
     3
 10
781.753590
 20
1501.408263
 11
781.753590
 21
1490.958263
  0
LINE
  8
CSLAYER1
  6
CONTINUOUS
 62
     3
 10
780.253590
 20
1489.108263
 11
774.253590
 21
1489.108263
  0
LINE
  8
CSLAYER1
  6
CONTINUOUS
 62
     3
 10
774.253590
 20
1501.408263
 11
774.253590
 21
1488.858263
  0
LINE
  8
CSLAYER1
  6
CONTINUOUS
 62
     3
 10
780.253590
 20
1501.408263
 11
780.253590
 21
1489.108263
  0
LINE
  8
CSLAYER1
  6
CONTINUOUS
 62
     3
 10
771.253590
 20
1488.638608
 11
771.253590
 21
1501.408263
  0
LINE
  8
CSLAYER1
  6
CONTINUOUS
 62
     3
 10
774.253590
 20
1488.858263
 11
771.253590
 21
1488.858263
  0
LINE
  8
CSLAYER1
  6
CONTINUOUS
 62
     3
 10
774.253590
 20
1498.096067
 11
771.414564
 21
1501.408263
  0
LINE
  8
CSLAYER1
  6
CONTINUOUS
 62
     3
 10
763.253590
 20
1501.408263
 11
763.253590
 21
1490.608263
  0
ARC
  8
CSLAYER1
  6
CONTINUOUS
 62
     3
 10
777.049334
 20
1499.608263
 40
13.795744
 50
172.502957
 51
203.426598
  0
LINE
  8
CSLAYER1
  6
CONTINUOUS
 62
     3
 10
771.253590
 20
1494.123436
 11
764.390771
 21
1494.123436
  0
LINE
  8
CSLAYER1
  6
CONTINUOUS
 62
     3
 10
771.253590
 20
1488.638608
 11
764.390771
 21
1488.638608
  0
LINE
  8
CSLAYER1
  6
CONTINUOUS
 62
     3
 10
763.253590
 20
1490.608263
 11
764.390771
 21
1488.638608
  0
ARC
  8
CSLAYER1
  6
CONTINUOUS
 62
     3
 10
767.033634
 20
1491.381022
 40
3.808617
 50
133.940972
 51
174.338367
  0
LINE
  8
CSLAYER1
  6
CONTINUOUS
 62
     3
 10
791.753590
 20
843.114853
 11
791.753590
 21
1501.408263
  0
LINE
  8
CSLAYER1
  6
CONTINUOUS
 62
     3
 10
770.753590
 20
843.114853
 11
770.753590
 21
1488.638608
  0
LINE
  8
CSLAYER1
  6
CONTINUOUS
 62
     3
 10
752.753590
 20
1487.108263
 11
752.753590
 21
1501.408263
  0
LINE
  8
CSLAYER1
  6
CONTINUOUS
 62
     3
 10
757.253590
 20
1487.108263
 11
757.253590
 21
1501.408263
  0
LINE
  8
CSLAYER1
  6
CONTINUOUS
 62
     3
 10
752.753590
 20
1487.108263
 11
757.253590
 21
1487.108263
  0
LINE
  8
CSLAYER1
  6
CONTINUOUS
 62
     3
 10
922.753590
 20
1487.108263
 11
922.753590
 21
1501.408263
  0
LINE
  8
CSLAYER1
  6
CONTINUOUS
 62
     3
 10
918.253590
 20
1487.108263
 11
918.253590
 21
1501.408263
  0
LINE
  8
CSLAYER1
  6
CONTINUOUS
 62
     3
 10
922.753590
 20
1487.108263
 11
918.253590
 21
1487.108263
  0
LINE
  8
CSLAYER1
  6
CONTINUOUS
 62
     3
 10
866.253590
 20
1192.131234
 11
869.753590
 21
1192.131234
  0
LINE
  8
CSLAYER1
  6
CONTINUOUS
 62
     3
 10
791.753590
 20
1177.450796
 11
812.753590
 21
1177.450796
  0
LINE
  8
CSLAYER1
  6
CONTINUOUS
 62
     3
 10
791.753590
 20
1128.850796
 11
830.253590
 21
1128.850796
  0
LINE
  8
CSLAYER1
  6
CONTINUOUS
 62
     3
 10
791.753590
 20
1435.971749
 11
883.753590
 21
1435.971749
  0
LINE
  8
CSLAYER1
  6
CONTINUOUS
 62
     3
 10
824.753590
 20
1177.450796
 11
830.253590
 21
1177.450796
  0
LINE
  8
CSLAYER1
  6
CONTINUOUS
 62
     3
 10
866.253590
 20
1177.450796
 11
871.753590
 21
1177.450796
  0
LINE
  8
CSLAYER1
  6
CONTINUOUS
 62
     3
 10
866.253590
 20
1128.850796
 11
883.753590
 21
1128.850796
  0
LINE
  8
CSLAYER1
  6
CENTER
 62
     5
 10
819.253590
 20
892.738651
 11
877.253590
 21
892.738651
  0
LINE
  8
CSLAYER1
  6
CONTINUOUS
 62
     3
 10
871.166068
 20
1022.702383
 11
875.648944
 21
1005.413157
  0
LINE
  8
CSLAYER1
  6
CONTINUOUS
 62
     3
 10
871.166068
 20
1022.702383
 11
870.904168
 21
1023.666827
  0
LINE
  8
CSLAYER1
  6
CONTINUOUS
 62
     3
 10
870.904168
 20
1023.666827
 11
870.469884
 21
1024.616535
  0
LINE
  8
CSLAYER1
  6
CONTINUOUS
 62
     3
 10
870.469884
 20
1024.616535
 11
869.866520
 21
1025.544279
  0
LINE
  8
CSLAYER1
  6
CONTINUOUS
 62
     3
 10
869.866520
 20
1025.544279
 11
869.098669
 21
1026.442998
  0
LINE
  8
CSLAYER1
  6
CONTINUOUS
 62
     3
 10
869.098669
 20
1026.442998
 11
868.172174
 21
1027.305853
  0
LINE
  8
CSLAYER1
  6
CONTINUOUS
 62
     3
 10
868.172174
 20
1027.305853
 11
867.094087
 21
1028.126276
  0
LINE
  8
CSLAYER1
  6
CONTINUOUS
 62
     3
 10
867.094087
 20
1028.126276
 11
865.872612
 21
1028.898023
  0
LINE
  8
CSLAYER1
  6
CONTINUOUS
 62
     3
 10
865.872612
 20
1028.898023
 11
864.517046
 21
1029.615222
  0
LINE
  8
CSLAYER1
  6
CONTINUOUS
 62
     3
 10
864.517046
 20
1029.615222
 11
863.037705
 21
1030.272414
  0
LINE
  8
CSLAYER1
  6
CONTINUOUS
 62
     3
 10
863.037705
 20
1030.272414
 11
861.445848
 21
1030.864596
  0
LINE
  8
CSLAYER1
  6
CONTINUOUS
 62
     3
 10
861.445848
 20
1030.864596
 11
859.753590
 21
1031.387264
  0
LINE
  8
CSLAYER1
  6
CONTINUOUS
 62
     3
 10
859.753590
 20
1031.387264
 11
857.973810
 21
1031.836437
  0
LINE
  8
CSLAYER1
  6
CONTINUOUS
 62
     3
 10
857.973810
 20
1031.836437
 11
856.120053
 21
1032.208699
  0
LINE
  8
CSLAYER1
  6
CONTINUOUS
 62
     3
 10
856.120053
 20
1032.208699
 11
854.206428
 21
1032.501215
  0
LINE
  8
CSLAYER1
  6
CONTINUOUS
 62
     3
 10
854.206428
 20
1032.501215
 11
852.247498
 21
1032.711761
  0
LINE
  8
CSLAYER1
  6
CONTINUOUS
 62
     3
 10
852.247498
 20
1032.711761
 11
850.258172
 21
1032.838732
  0
LINE
  8
CSLAYER1
  6
CONTINUOUS
 62
     3
 10
850.258172
 20
1032.838732
 11
848.253590
 21
1032.881164
  0
LINE
  8
CSLAYER1
  6
CONTINUOUS
 62
     3
 10
825.341112
 20
1022.702383
 11
820.858236
 21
1005.413157
  0
LINE
  8
CSLAYER1
  6
CONTINUOUS
 62
     3
 10
825.341112
 20
1022.702383
 11
825.603012
 21
1023.666827
  0
LINE
  8
CSLAYER1
  6
CONTINUOUS
 62
     3
 10
825.603012
 20
1023.666827
 11
826.037296
 21
1024.616535
  0
LINE
  8
CSLAYER1
  6
CONTINUOUS
 62
     3
 10
826.037296
 20
1024.616535
 11
826.640660
 21
1025.544279
  0
LINE
  8
CSLAYER1
  6
CONTINUOUS
 62
     3
 10
826.640660
 20
1025.544279
 11
827.408511
 21
1026.442998
  0
LINE
  8
CSLAYER1
  6
CONTINUOUS
 62
     3
 10
827.408511
 20
1026.442998
 11
828.335006
 21
1027.305853
  0
LINE
  8
CSLAYER1
  6
CONTINUOUS
 62
     3
 10
828.335006
 20
1027.305853
 11
829.413093
 21
1028.126276
  0
LINE
  8
CSLAYER1
  6
CONTINUOUS
 62
     3
 10
829.413093
 20
1028.126276
 11
830.634568
 21
1028.898023
  0
LINE
  8
CSLAYER1
  6
CONTINUOUS
 62
     3
 10
830.634568
 20
1028.898023
 11
831.990134
 21
1029.615222
  0
LINE
  8
CSLAYER1
  6
CONTINUOUS
 62
     3
 10
831.990134
 20
1029.615222
 11
833.469475
 21
1030.272414
  0
LINE
  8
CSLAYER1
  6
CONTINUOUS
 62
     3
 10
833.469475
 20
1030.272414
 11
835.061332
 21
1030.864596
  0
LINE
  8
CSLAYER1
  6
CONTINUOUS
 62
     3
 10
835.061332
 20
1030.864596
 11
836.753590
 21
1031.387264
  0
LINE
  8
CSLAYER1
  6
CONTINUOUS
 62
     3
 10
836.753590
 20
1031.387264
 11
838.533370
 21
1031.836437
  0
LINE
  8
CSLAYER1
  6
CONTINUOUS
 62
     3
 10
838.533370
 20
1031.836437
 11
840.387127
 21
1032.208699
  0
LINE
  8
CSLAYER1
  6
CONTINUOUS
 62
     3
 10
840.387127
 20
1032.208699
 11
842.300752
 21
1032.501215
  0
LINE
  8
CSLAYER1
  6
CONTINUOUS
 62
     3
 10
842.300752
 20
1032.501215
 11
844.259682
 21
1032.711761
  0
LINE
  8
CSLAYER1
  6
CONTINUOUS
 62
     3
 10
844.259682
 20
1032.711761
 11
846.249008
 21
1032.838732
  0
LINE
  8
CSLAYER1
  6
CONTINUOUS
 62
     3
 10
846.249008
 20
1032.838732
 11
848.253590
 21
1032.881164
  0
LINE
  8
CSLAYER1
  6
CONTINUOUS
 62
     3
 10
875.753590
 20
1004.251173
 11
875.753590
 21
973.662277
  0
LINE
  8
CSLAYER1
  6
CONTINUOUS
 62
     3
 10
875.753590
 20
1004.251173
 11
875.648944
 21
1005.413157
  0
LINE
  8
CSLAYER1
  6
CONTINUOUS
 62
     3
 10
875.648944
 20
1005.413157
 11
875.335803
 21
1006.566297
  0
LINE
  8
CSLAYER1
  6
CONTINUOUS
 62
     3
 10
875.335803
 20
1006.566297
 11
874.816550
 21
1007.701817
  0
LINE
  8
CSLAYER1
  6
CONTINUOUS
 62
     3
 10
874.816550
 20
1007.701817
 11
874.095137
 21
1008.811076
  0
LINE
  8
CSLAYER1
  6
CONTINUOUS
 62
     3
 10
874.095137
 20
1008.811076
 11
873.177054
 21
1009.885632
  0
LINE
  8
CSLAYER1
  6
CONTINUOUS
 62
     3
 10
873.177054
 20
1009.885632
 11
872.069289
 21
1010.917305
  0
LINE
  8
CSLAYER1
  6
CONTINUOUS
 62
     3
 10
872.069289
 20
1010.917305
 11
870.780271
 21
1011.898246
  0
LINE
  8
CSLAYER1
  6
CONTINUOUS
 62
     3
 10
870.780271
 20
1011.898246
 11
869.319812
 21
1012.820988
  0
LINE
  8
CSLAYER1
  6
CONTINUOUS
 62
     3
 10
869.319812
 20
1012.820988
 11
867.699026
 21
1013.678508
  0
LINE
  8
CSLAYER1
  6
CONTINUOUS
 62
     3
 10
867.699026
 20
1013.678508
 11
865.930249
 21
1014.464280
  0
LINE
  8
CSLAYER1
  6
CONTINUOUS
 62
     3
 10
865.930249
 20
1014.464280
 11
864.026942
 21
1015.172325
  0
LINE
  8
CSLAYER1
  6
CONTINUOUS
 62
     3
 10
864.026942
 20
1015.172325
 11
862.003590
 21
1015.797253
  0
LINE
  8
CSLAYER1
  6
CONTINUOUS
 62
     3
 10
862.003590
 20
1015.797253
 11
859.875592
 21
1016.334308
  0
LINE
  8
CSLAYER1
  6
CONTINUOUS
 62
     3
 10
859.875592
 20
1016.334308
 11
857.659144
 21
1016.779404
  0
LINE
  8
CSLAYER1
  6
CONTINUOUS
 62
     3
 10
857.659144
 20
1016.779404
 11
855.371114
 21
1017.129152
  0
LINE
  8
CSLAYER1
  6
CONTINUOUS
 62
     3
 10
855.371114
 20
1017.129152
 11
853.028915
 21
1017.380891
  0
LINE
  8
CSLAYER1
  6
CONTINUOUS
 62
     3
 10
853.028915
 20
1017.380891
 11
850.650373
 21
1017.532704
  0
LINE
  8
CSLAYER1
  6
CONTINUOUS
 62
     3
 10
850.650373
 20
1017.532704
 11
848.253590
 21
1017.583438
  0
LINE
  8
CSLAYER1
  6
CONTINUOUS
 62
     3
 10
848.253590
 20
1017.583438
 11
845.856807
 21
1017.532704
  0
LINE
  8
CSLAYER1
  6
CONTINUOUS
 62
     3
 10
845.856807
 20
1017.532704
 11
843.478265
 21
1017.380891
  0
LINE
  8
CSLAYER1
  6
CONTINUOUS
 62
     3
 10
843.478265
 20
1017.380891
 11
841.136066
 21
1017.129152
  0
LINE
  8
CSLAYER1
  6
CONTINUOUS
 62
     3
 10
841.136066
 20
1017.129152
 11
838.848036
 21
1016.779404
  0
LINE
  8
CSLAYER1
  6
CONTINUOUS
 62
     3
 10
838.848036
 20
1016.779404
 11
836.631588
 21
1016.334308
  0
LINE
  8
CSLAYER1
  6
CONTINUOUS
 62
     3
 10
836.631588
 20
1016.334308
 11
834.503590
 21
1015.797253
  0
LINE
  8
CSLAYER1
  6
CONTINUOUS
 62
     3
 10
834.503590
 20
1015.797253
 11
832.480238
 21
1015.172325
  0
LINE
  8
CSLAYER1
  6
CONTINUOUS
 62
     3
 10
832.480238
 20
1015.172325
 11
830.576931
 21
1014.464280
  0
LINE
  8
CSLAYER1
  6
CONTINUOUS
 62
     3
 10
830.576931
 20
1014.464280
 11
828.808153
 21
1013.678508
  0
LINE
  8
CSLAYER1
  6
CONTINUOUS
 62
     3
 10
828.808153
 20
1013.678508
 11
827.187368
 21
1012.820988
  0
LINE
  8
CSLAYER1
  6
CONTINUOUS
 62
     3
 10
827.187368
 20
1012.820988
 11
825.726909
 21
1011.898246
  0
LINE
  8
CSLAYER1
  6
CONTINUOUS
 62
     3
 10
825.726909
 20
1011.898246
 11
824.437891
 21
1010.917305
  0
LINE
  8
CSLAYER1
  6
CONTINUOUS
 62
     3
 10
824.437891
 20
1010.917305
 11
823.330126
 21
1009.885632
  0
LINE
  8
CSLAYER1
  6
CONTINUOUS
 62
     3
 10
823.330126
 20
1009.885632
 11
822.412043
 21
1008.811076
  0
LINE
  8
CSLAYER1
  6
CONTINUOUS
 62
     3
 10
822.412043
 20
1008.811076
 11
821.690630
 21
1007.701817
  0
LINE
  8
CSLAYER1
  6
CONTINUOUS
 62
     3
 10
821.690630
 20
1007.701817
 11
821.171377
 21
1006.566297
  0
LINE
  8
CSLAYER1
  6
CONTINUOUS
 62
     3
 10
821.171377
 20
1006.566297
 11
820.858236
 21
1005.413157
  0
LINE
  8
CSLAYER1
  6
CONTINUOUS
 62
     3
 10
820.858236
 20
1005.413157
 11
820.753590
 21
1004.251173
  0
LINE
  8
CSLAYER1
  6
CONTINUOUS
 62
     3
 10
820.753590
 20
1004.251173
 11
820.753590
 21
973.662277
  0
LINE
  8
CSLAYER1
  6
CONTINUOUS
 62
     3
 10
872.553590
 20
910.844461
 11
872.553590
 21
973.662277
  0
LINE
  8
CSLAYER1
  6
CONTINUOUS
 62
     3
 10
875.753590
 20
973.662277
 11
875.648944
 21
974.824261
  0
LINE
  8
CSLAYER1
  6
CONTINUOUS
 62
     3
 10
875.648944
 20
974.824261
 11
875.335803
 21
975.977401
  0
LINE
  8
CSLAYER1
  6
CONTINUOUS
 62
     3
 10
875.335803
 20
975.977401
 11
874.816550
 21
977.112921
  0
LINE
  8
CSLAYER1
  6
CONTINUOUS
 62
     3
 10
874.816550
 20
977.112921
 11
874.095137
 21
978.222180
  0
LINE
  8
CSLAYER1
  6
CONTINUOUS
 62
     3
 10
874.095137
 20
978.222180
 11
873.177054
 21
979.296736
  0
LINE
  8
CSLAYER1
  6
CONTINUOUS
 62
     3
 10
873.177054
 20
979.296736
 11
872.069289
 21
980.328410
  0
LINE
  8
CSLAYER1
  6
CONTINUOUS
 62
     3
 10
872.069289
 20
980.328410
 11
870.780271
 21
981.309350
  0
LINE
  8
CSLAYER1
  6
CONTINUOUS
 62
     3
 10
870.780271
 20
981.309350
 11
869.319812
 21
982.232092
  0
LINE
  8
CSLAYER1
  6
CONTINUOUS
 62
     3
 10
869.319812
 20
982.232092
 11
867.699026
 21
983.089612
  0
LINE
  8
CSLAYER1
  6
CONTINUOUS
 62
     3
 10
867.699026
 20
983.089612
 11
865.930249
 21
983.875384
  0
LINE
  8
CSLAYER1
  6
CONTINUOUS
 62
     3
 10
865.930249
 20
983.875384
 11
864.026942
 21
984.583429
  0
LINE
  8
CSLAYER1
  6
CONTINUOUS
 62
     3
 10
864.026942
 20
984.583429
 11
862.003590
 21
985.208357
  0
LINE
  8
CSLAYER1
  6
CONTINUOUS
 62
     3
 10
862.003590
 20
985.208357
 11
859.875592
 21
985.745412
  0
LINE
  8
CSLAYER1
  6
CONTINUOUS
 62
     3
 10
859.875592
 20
985.745412
 11
857.659144
 21
986.190508
  0
LINE
  8
CSLAYER1
  6
CONTINUOUS
 62
     3
 10
857.659144
 20
986.190508
 11
855.371114
 21
986.540256
  0
LINE
  8
CSLAYER1
  6
CONTINUOUS
 62
     3
 10
855.371114
 20
986.540256
 11
853.028915
 21
986.791995
  0
LINE
  8
CSLAYER1
  6
CONTINUOUS
 62
     3
 10
853.028915
 20
986.791995
 11
850.650373
 21
986.943809
  0
LINE
  8
CSLAYER1
  6
CONTINUOUS
 62
     3
 10
850.650373
 20
986.943809
 11
848.253590
 21
986.994542
  0
LINE
  8
CSLAYER1
  6
CONTINUOUS
 62
     3
 10
848.253590
 20
986.994542
 11
845.856807
 21
986.943809
  0
LINE
  8
CSLAYER1
  6
CONTINUOUS
 62
     3
 10
845.856807
 20
986.943809
 11
843.478265
 21
986.791995
  0
LINE
  8
CSLAYER1
  6
CONTINUOUS
 62
     3
 10
843.478265
 20
986.791995
 11
841.136066
 21
986.540256
  0
LINE
  8
CSLAYER1
  6
CONTINUOUS
 62
     3
 10
841.136066
 20
986.540256
 11
838.848036
 21
986.190508
  0
LINE
  8
CSLAYER1
  6
CONTINUOUS
 62
     3
 10
838.848036
 20
986.190508
 11
836.631588
 21
985.745412
  0
LINE
  8
CSLAYER1
  6
CONTINUOUS
 62
     3
 10
836.631588
 20
985.745412
 11
834.503590
 21
985.208357
  0
LINE
  8
CSLAYER1
  6
CONTINUOUS
 62
     3
 10
834.503590
 20
985.208357
 11
832.480238
 21
984.583429
  0
LINE
  8
CSLAYER1
  6
CONTINUOUS
 62
     3
 10
832.480238
 20
984.583429
 11
830.576931
 21
983.875384
  0
LINE
  8
CSLAYER1
  6
CONTINUOUS
 62
     3
 10
830.576931
 20
983.875384
 11
828.808153
 21
983.089612
  0
LINE
  8
CSLAYER1
  6
CONTINUOUS
 62
     3
 10
828.808153
 20
983.089612
 11
827.187368
 21
982.232092
  0
LINE
  8
CSLAYER1
  6
CONTINUOUS
 62
     3
 10
827.187368
 20
982.232092
 11
825.726909
 21
981.309350
  0
LINE
  8
CSLAYER1
  6
CONTINUOUS
 62
     3
 10
825.726909
 20
981.309350
 11
824.437891
 21
980.328410
  0
LINE
  8
CSLAYER1
  6
CONTINUOUS
 62
     3
 10
824.437891
 20
980.328410
 11
823.330126
 21
979.296736
  0
LINE
  8
CSLAYER1
  6
CONTINUOUS
 62
     3
 10
823.330126
 20
979.296736
 11
822.412043
 21
978.222180
  0
LINE
  8
CSLAYER1
  6
CONTINUOUS
 62
     3
 10
822.412043
 20
978.222180
 11
821.690630
 21
977.112921
  0
LINE
  8
CSLAYER1
  6
CONTINUOUS
 62
     3
 10
821.690630
 20
977.112921
 11
821.171377
 21
975.977401
  0
LINE
  8
CSLAYER1
  6
CONTINUOUS
 62
     3
 10
821.171377
 20
975.977401
 11
820.858236
 21
974.824261
  0
LINE
  8
CSLAYER1
  6
CONTINUOUS
 62
     3
 10
820.858236
 20
974.824261
 11
820.753590
 21
973.662277
  0
LINE
  8
CSLAYER1
  6
CONTINUOUS
 62
     3
 10
820.753590
 20
973.662277
 11
820.858236
 21
972.500294
  0
LINE
  8
CSLAYER1
  6
CONTINUOUS
 62
     3
 10
820.858236
 20
972.500294
 11
821.171377
 21
971.347154
  0
LINE
  8
CSLAYER1
  6
CONTINUOUS
 62
     3
 10
821.171377
 20
971.347154
 11
821.690630
 21
970.211633
  0
LINE
  8
CSLAYER1
  6
CONTINUOUS
 62
     3
 10
821.690630
 20
970.211633
 11
822.412043
 21
969.102374
  0
LINE
  8
CSLAYER1
  6
CONTINUOUS
 62
     3
 10
822.412043
 20
969.102374
 11
823.330126
 21
968.027819
  0
LINE
  8
CSLAYER1
  6
CONTINUOUS
 62
     3
 10
823.330126
 20
968.027819
 11
823.953590
 21
967.447180
  0
LINE
  8
CSLAYER1
  6
CONTINUOUS
 62
     3
 10
872.553590
 20
967.447180
 11
873.177054
 21
968.027819
  0
LINE
  8
CSLAYER1
  6
CONTINUOUS
 62
     3
 10
873.177054
 20
968.027819
 11
874.095137
 21
969.102374
  0
LINE
  8
CSLAYER1
  6
CONTINUOUS
 62
     3
 10
874.095137
 20
969.102374
 11
874.816550
 21
970.211633
  0
LINE
  8
CSLAYER1
  6
CONTINUOUS
 62
     3
 10
874.816550
 20
970.211633
 11
875.335803
 21
971.347154
  0
LINE
  8
CSLAYER1
  6
CONTINUOUS
 62
     3
 10
875.335803
 20
971.347154
 11
875.648944
 21
972.500294
  0
LINE
  8
CSLAYER1
  6
CONTINUOUS
 62
     3
 10
875.648944
 20
972.500294
 11
875.753590
 21
973.662277
  0
LINE
  8
CSLAYER1
  6
CONTINUOUS
 62
     3
 10
872.553590
 20
973.662277
 11
872.461121
 21
974.689048
  0
LINE
  8
CSLAYER1
  6
CONTINUOUS
 62
     3
 10
872.461121
 20
974.689048
 11
872.184418
 21
975.708005
  0
LINE
  8
CSLAYER1
  6
CONTINUOUS
 62
     3
 10
872.184418
 20
975.708005
 11
871.725587
 21
976.711392
  0
LINE
  8
CSLAYER1
  6
CONTINUOUS
 62
     3
 10
871.725587
 20
976.711392
 11
871.088121
 21
977.691573
  0
LINE
  8
CSLAYER1
  6
CONTINUOUS
 62
     3
 10
871.088121
 20
977.691573
 11
870.276869
 21
978.641090
  0
LINE
  8
CSLAYER1
  6
CONTINUOUS
 62
     3
 10
870.276869
 20
978.641090
 11
869.298007
 21
979.552714
  0
LINE
  8
CSLAYER1
  6
CONTINUOUS
 62
     3
 10
869.298007
 20
979.552714
 11
868.158985
 21
980.419509
  0
LINE
  8
CSLAYER1
  6
CONTINUOUS
 62
     3
 10
868.158985
 20
980.419509
 11
866.868470
 21
981.234877
  0
LINE
  8
CSLAYER1
  6
CONTINUOUS
 62
     3
 10
866.868470
 20
981.234877
 11
865.436285
 21
981.992613
  0
LINE
  8
CSLAYER1
  6
CONTINUOUS
 62
     3
 10
865.436285
 20
981.992613
 11
863.873329
 21
982.686950
  0
LINE
  8
CSLAYER1
  6
CONTINUOUS
 62
     3
 10
863.873329
 20
982.686950
 11
862.191497
 21
983.312604
  0
LINE
  8
CSLAYER1
  6
CONTINUOUS
 62
     3
 10
862.191497
 20
983.312604
 11
860.403590
 21
983.864813
  0
LINE
  8
CSLAYER1
  6
CONTINUOUS
 62
     3
 10
860.403590
 20
983.864813
 11
858.523214
 21
984.339375
  0
LINE
  8
CSLAYER1
  6
CONTINUOUS
 62
     3
 10
858.523214
 20
984.339375
 11
856.564679
 21
984.732677
  0
LINE
  8
CSLAYER1
  6
CONTINUOUS
 62
     3
 10
856.564679
 20
984.732677
 11
854.542893
 21
985.041727
  0
LINE
  8
CSLAYER1
  6
CONTINUOUS
 62
     3
 10
854.542893
 20
985.041727
 11
852.473241
 21
985.264173
  0
LINE
  8
CSLAYER1
  6
CONTINUOUS
 62
     3
 10
852.473241
 20
985.264173
 11
850.371474
 21
985.398321
  0
LINE
  8
CSLAYER1
  6
CONTINUOUS
 62
     3
 10
850.371474
 20
985.398321
 11
848.253590
 21
985.443151
  0
LINE
  8
CSLAYER1
  6
CONTINUOUS
 62
     3
 10
848.253590
 20
985.443151
 11
846.135705
 21
985.398321
  0
LINE
  8
CSLAYER1
  6
CONTINUOUS
 62
     3
 10
846.135705
 20
985.398321
 11
844.033939
 21
985.264173
  0
LINE
  8
CSLAYER1
  6
CONTINUOUS
 62
     3
 10
844.033939
 20
985.264173
 11
841.964287
 21
985.041727
  0
LINE
  8
CSLAYER1
  6
CONTINUOUS
 62
     3
 10
841.964287
 20
985.041727
 11
839.942500
 21
984.732677
  0
LINE
  8
CSLAYER1
  6
CONTINUOUS
 62
     3
 10
839.942500
 20
984.732677
 11
837.983966
 21
984.339375
  0
LINE
  8
CSLAYER1
  6
CONTINUOUS
 62
     3
 10
837.983966
 20
984.339375
 11
836.103590
 21
983.864813
  0
LINE
  8
CSLAYER1
  6
CONTINUOUS
 62
     3
 10
836.103590
 20
983.864813
 11
834.315683
 21
983.312604
  0
LINE
  8
CSLAYER1
  6
CONTINUOUS
 62
     3
 10
834.315683
 20
983.312604
 11
832.633851
 21
982.686950
  0
LINE
  8
CSLAYER1
  6
CONTINUOUS
 62
     3
 10
832.633851
 20
982.686950
 11
831.070895
 21
981.992613
  0
LINE
  8
CSLAYER1
  6
CONTINUOUS
 62
     3
 10
831.070895
 20
981.992613
 11
829.638710
 21
981.234877
  0
LINE
  8
CSLAYER1
  6
CONTINUOUS
 62
     3
 10
829.638710
 20
981.234877
 11
828.348195
 21
980.419509
  0
LINE
  8
CSLAYER1
  6
CONTINUOUS
 62
     3
 10
828.348195
 20
980.419509
 11
827.209173
 21
979.552714
  0
LINE
  8
CSLAYER1
  6
CONTINUOUS
 62
     3
 10
827.209173
 20
979.552714
 11
826.230311
 21
978.641090
  0
LINE
  8
CSLAYER1
  6
CONTINUOUS
 62
     3
 10
826.230311
 20
978.641090
 11
825.419059
 21
977.691573
  0
LINE
  8
CSLAYER1
  6
CONTINUOUS
 62
     3
 10
825.419059
 20
977.691573
 11
824.781592
 21
976.711392
  0
LINE
  8
CSLAYER1
  6
CONTINUOUS
 62
     3
 10
824.781592
 20
976.711392
 11
824.322762
 21
975.708005
  0
LINE
  8
CSLAYER1
  6
CONTINUOUS
 62
     3
 10
824.322762
 20
975.708005
 11
824.046059
 21
974.689048
  0
LINE
  8
CSLAYER1
  6
CONTINUOUS
 62
     3
 10
824.046059
 20
974.689048
 11
823.953590
 21
973.662277
  0
LINE
  8
CSLAYER1
  6
CONTINUOUS
 62
     3
 10
823.953590
 20
910.844461
 11
823.953590
 21
973.662277
  0
LINE
  8
CSLAYER1
  6
CONTINUOUS
 62
     3
 10
870.753590
 20
880.255565
 11
870.753590
 21
910.844461
  0
LINE
  8
CSLAYER1
  6
CONTINUOUS
 62
     3
 10
870.753590
 20
910.844461
 11
870.667971
 21
911.795174
  0
LINE
  8
CSLAYER1
  6
CONTINUOUS
 62
     3
 10
870.667971
 20
911.795174
 11
870.411764
 21
912.738653
  0
LINE
  8
CSLAYER1
  6
CONTINUOUS
 62
     3
 10
870.411764
 20
912.738653
 11
869.986921
 21
913.667715
  0
LINE
  8
CSLAYER1
  6
CONTINUOUS
 62
     3
 10
869.986921
 20
913.667715
 11
869.396674
 21
914.575290
  0
LINE
  8
CSLAYER1
  6
CONTINUOUS
 62
     3
 10
869.396674
 20
914.575290
 11
868.645515
 21
915.454472
  0
LINE
  8
CSLAYER1
  6
CONTINUOUS
 62
     3
 10
868.645515
 20
915.454472
 11
867.739161
 21
916.298569
  0
LINE
  8
CSLAYER1
  6
CONTINUOUS
 62
     3
 10
867.739161
 20
916.298569
 11
866.684511
 21
917.101157
  0
LINE
  8
CSLAYER1
  6
CONTINUOUS
 62
     3
 10
866.684511
 20
917.101157
 11
865.489590
 21
917.856127
  0
LINE
  8
CSLAYER1
  6
CONTINUOUS
 62
     3
 10
865.489590
 20
917.856127
 11
864.163492
 21
918.557734
  0
LINE
  8
CSLAYER1
  6
CONTINUOUS
 62
     3
 10
864.163492
 20
918.557734
 11
862.716311
 21
919.200639
  0
LINE
  8
CSLAYER1
  6
CONTINUOUS
 62
     3
 10
862.716311
 20
919.200639
 11
861.159060
 21
919.779948
  0
LINE
  8
CSLAYER1
  6
CONTINUOUS
 62
     3
 10
861.159060
 20
919.779948
 11
859.503590
 21
920.291253
  0
LINE
  8
CSLAYER1
  6
CONTINUOUS
 62
     3
 10
859.503590
 20
920.291253
 11
857.762501
 21
920.730662
  0
LINE
  8
CSLAYER1
  6
CONTINUOUS
 62
     3
 10
857.762501
 20
920.730662
 11
855.949043
 21
921.094831
  0
LINE
  8
CSLAYER1
  6
CONTINUOUS
 62
     3
 10
855.949043
 20
921.094831
 11
854.077018
 21
921.380989
  0
LINE
  8
CSLAYER1
  6
CONTINUOUS
 62
     3
 10
854.077018
 20
921.380989
 11
852.160674
 21
921.586957
  0
LINE
  8
CSLAYER1
  6
CONTINUOUS
 62
     3
 10
852.160674
 20
921.586957
 11
850.214594
 21
921.711168
  0
LINE
  8
CSLAYER1
  6
CONTINUOUS
 62
     3
 10
850.214594
 20
921.711168
 11
848.253590
 21
921.752677
  0
LINE
  8
CSLAYER1
  6
CONTINUOUS
 62
     3
 10
848.253590
 20
921.752677
 11
846.292586
 21
921.711168
  0
LINE
  8
CSLAYER1
  6
CONTINUOUS
 62
     3
 10
846.292586
 20
921.711168
 11
844.346506
 21
921.586957
  0
LINE
  8
CSLAYER1
  6
CONTINUOUS
 62
     3
 10
844.346506
 20
921.586957
 11
842.430161
 21
921.380989
  0
LINE
  8
CSLAYER1
  6
CONTINUOUS
 62
     3
 10
842.430161
 20
921.380989
 11
840.558137
 21
921.094831
  0
LINE
  8
CSLAYER1
  6
CONTINUOUS
 62
     3
 10
840.558137
 20
921.094831
 11
838.744679
 21
920.730662
  0
LINE
  8
CSLAYER1
  6
CONTINUOUS
 62
     3
 10
838.744679
 20
920.730662
 11
837.003590
 21
920.291253
  0
LINE
  8
CSLAYER1
  6
CONTINUOUS
 62
     3
 10
837.003590
 20
920.291253
 11
835.348120
 21
919.779948
  0
LINE
  8
CSLAYER1
  6
CONTINUOUS
 62
     3
 10
835.348120
 20
919.779948
 11
833.790869
 21
919.200639
  0
LINE
  8
CSLAYER1
  6
CONTINUOUS
 62
     3
 10
833.790869
 20
919.200639
 11
832.343687
 21
918.557734
  0
LINE
  8
CSLAYER1
  6
CONTINUOUS
 62
     3
 10
832.343687
 20
918.557734
 11
831.017590
 21
917.856127
  0
LINE
  8
CSLAYER1
  6
CONTINUOUS
 62
     3
 10
831.017590
 20
917.856127
 11
829.822669
 21
917.101157
  0
LINE
  8
CSLAYER1
  6
CONTINUOUS
 62
     3
 10
829.822669
 20
917.101157
 11
828.768018
 21
916.298569
  0
LINE
  8
CSLAYER1
  6
CONTINUOUS
 62
     3
 10
828.768018
 20
916.298569
 11
827.861665
 21
915.454472
  0
LINE
  8
CSLAYER1
  6
CONTINUOUS
 62
     3
 10
827.861665
 20
915.454472
 11
827.110506
 21
914.575290
  0
LINE
  8
CSLAYER1
  6
CONTINUOUS
 62
     3
 10
827.110506
 20
914.575290
 11
826.520259
 21
913.667715
  0
LINE
  8
CSLAYER1
  6
CONTINUOUS
 62
     3
 10
826.520259
 20
913.667715
 11
826.095415
 21
912.738653
  0
LINE
  8
CSLAYER1
  6
CONTINUOUS
 62
     3
 10
826.095415
 20
912.738653
 11
825.839209
 21
911.795174
  0
LINE
  8
CSLAYER1
  6
CONTINUOUS
 62
     3
 10
825.839209
 20
911.795174
 11
825.753590
 21
910.844461
  0
LINE
  8
CSLAYER1
  6
CONTINUOUS
 62
     3
 10
825.753590
 20
910.844461
 11
825.839209
 21
909.893747
  0
LINE
  8
CSLAYER1
  6
CONTINUOUS
 62
     3
 10
872.553590
 20
910.844461
 11
872.461121
 21
911.871231
  0
LINE
  8
CSLAYER1
  6
CONTINUOUS
 62
     3
 10
872.461121
 20
911.871231
 11
872.184418
 21
912.890188
  0
LINE
  8
CSLAYER1
  6
CONTINUOUS
 62
     3
 10
872.184418
 20
912.890188
 11
871.725587
 21
913.893575
  0
LINE
  8
CSLAYER1
  6
CONTINUOUS
 62
     3
 10
871.725587
 20
913.893575
 11
871.088121
 21
914.873757
  0
LINE
  8
CSLAYER1
  6
CONTINUOUS
 62
     3
 10
871.088121
 20
914.873757
 11
870.276869
 21
915.823273
  0
LINE
  8
CSLAYER1
  6
CONTINUOUS
 62
     3
 10
870.276869
 20
915.823273
 11
869.298007
 21
916.734898
  0
LINE
  8
CSLAYER1
  6
CONTINUOUS
 62
     3
 10
869.298007
 20
916.734898
 11
868.158985
 21
917.601692
  0
LINE
  8
CSLAYER1
  6
CONTINUOUS
 62
     3
 10
868.158985
 20
917.601692
 11
866.868470
 21
918.417060
  0
LINE
  8
CSLAYER1
  6
CONTINUOUS
 62
     3
 10
866.868470
 20
918.417060
 11
865.436285
 21
919.174796
  0
LINE
  8
CSLAYER1
  6
CONTINUOUS
 62
     3
 10
865.436285
 20
919.174796
 11
863.873329
 21
919.869134
  0
LINE
  8
CSLAYER1
  6
CONTINUOUS
 62
     3
 10
863.873329
 20
919.869134
 11
862.191497
 21
920.494787
  0
LINE
  8
CSLAYER1
  6
CONTINUOUS
 62
     3
 10
862.191497
 20
920.494787
 11
860.403590
 21
921.046997
  0
LINE
  8
CSLAYER1
  6
CONTINUOUS
 62
     3
 10
860.403590
 20
921.046997
 11
858.523214
 21
921.521558
  0
LINE
  8
CSLAYER1
  6
CONTINUOUS
 62
     3
 10
858.523214
 20
921.521558
 11
856.564679
 21
921.914861
  0
LINE
  8
CSLAYER1
  6
CONTINUOUS
 62
     3
 10
856.564679
 20
921.914861
 11
854.542893
 21
922.223911
  0
LINE
  8
CSLAYER1
  6
CONTINUOUS
 62
     3
 10
854.542893
 20
922.223911
 11
852.473241
 21
922.446356
  0
LINE
  8
CSLAYER1
  6
CONTINUOUS
 62
     3
 10
852.473241
 20
922.446356
 11
850.371474
 21
922.580505
  0
LINE
  8
CSLAYER1
  6
CONTINUOUS
 62
     3
 10
850.371474
 20
922.580505
 11
848.253590
 21
922.625334
  0
LINE
  8
CSLAYER1
  6
CONTINUOUS
 62
     3
 10
848.253590
 20
922.625334
 11
846.135705
 21
922.580505
  0
LINE
  8
CSLAYER1
  6
CONTINUOUS
 62
     3
 10
846.135705
 20
922.580505
 11
844.033939
 21
922.446356
  0
LINE
  8
CSLAYER1
  6
CONTINUOUS
 62
     3
 10
844.033939
 20
922.446356
 11
841.964287
 21
922.223911
  0
LINE
  8
CSLAYER1
  6
CONTINUOUS
 62
     3
 10
841.964287
 20
922.223911
 11
839.942500
 21
921.914861
  0
LINE
  8
CSLAYER1
  6
CONTINUOUS
 62
     3
 10
839.942500
 20
921.914861
 11
837.983966
 21
921.521558
  0
LINE
  8
CSLAYER1
  6
CONTINUOUS
 62
     3
 10
837.983966
 20
921.521558
 11
836.103590
 21
921.046997
  0
LINE
  8
CSLAYER1
  6
CONTINUOUS
 62
     3
 10
836.103590
 20
921.046997
 11
834.315683
 21
920.494787
  0
LINE
  8
CSLAYER1
  6
CONTINUOUS
 62
     3
 10
834.315683
 20
920.494787
 11
832.633851
 21
919.869134
  0
LINE
  8
CSLAYER1
  6
CONTINUOUS
 62
     3
 10
832.633851
 20
919.869134
 11
831.070895
 21
919.174796
  0
LINE
  8
CSLAYER1
  6
CONTINUOUS
 62
     3
 10
831.070895
 20
919.174796
 11
829.638710
 21
918.417060
  0
LINE
  8
CSLAYER1
  6
CONTINUOUS
 62
     3
 10
829.638710
 20
918.417060
 11
828.348195
 21
917.601692
  0
LINE
  8
CSLAYER1
  6
CONTINUOUS
 62
     3
 10
828.348195
 20
917.601692
 11
827.209173
 21
916.734898
  0
LINE
  8
CSLAYER1
  6
CONTINUOUS
 62
     3
 10
827.209173
 20
916.734898
 11
826.230311
 21
915.823273
  0
LINE
  8
CSLAYER1
  6
CONTINUOUS
 62
     3
 10
826.230311
 20
915.823273
 11
825.419059
 21
914.873757
  0
LINE
  8
CSLAYER1
  6
CONTINUOUS
 62
     3
 10
825.419059
 20
914.873757
 11
824.781592
 21
913.893575
  0
LINE
  8
CSLAYER1
  6
CONTINUOUS
 62
     3
 10
824.781592
 20
913.893575
 11
824.322762
 21
912.890188
  0
LINE
  8
CSLAYER1
  6
CONTINUOUS
 62
     3
 10
824.322762
 20
912.890188
 11
824.046059
 21
911.871231
  0
LINE
  8
CSLAYER1
  6
CONTINUOUS
 62
     3
 10
824.046059
 20
911.871231
 11
823.953590
 21
910.844461
  0
LINE
  8
CSLAYER1
  6
CONTINUOUS
 62
     3
 10
823.953590
 20
910.844461
 11
824.046059
 21
909.817690
  0
LINE
  8
CSLAYER1
  6
CONTINUOUS
 62
     3
 10
824.046059
 20
909.817690
 11
824.339077
 21
908.738651
  0
LINE
  8
CSLAYER1
  6
CONTINUOUS
 62
     3
 10
825.253590
 20
907.069593
 11
825.753590
 21
906.423618
  0
LINE
  8
CSLAYER1
  6
CONTINUOUS
 62
     3
 10
872.168103
 20
908.738651
 11
872.461121
 21
909.817690
  0
LINE
  8
CSLAYER1
  6
CONTINUOUS
 62
     3
 10
872.461121
 20
909.817690
 11
872.553590
 21
910.844461
  0
LINE
  8
CSLAYER1
  6
CONTINUOUS
 62
     3
 10
825.753590
 20
880.255565
 11
825.753590
 21
910.844461
  0
LINE
  8
CSLAYER1
  6
CONTINUOUS
 62
     3
 10
870.753590
 20
880.255565
 11
870.667971
 21
881.206278
  0
LINE
  8
CSLAYER1
  6
CONTINUOUS
 62
     3
 10
870.667971
 20
881.206278
 11
870.411764
 21
882.149757
  0
LINE
  8
CSLAYER1
  6
CONTINUOUS
 62
     3
 10
870.411764
 20
882.149757
 11
869.986921
 21
883.078819
  0
LINE
  8
CSLAYER1
  6
CONTINUOUS
 62
     3
 10
869.986921
 20
883.078819
 11
869.396674
 21
883.986394
  0
LINE
  8
CSLAYER1
  6
CONTINUOUS
 62
     3
 10
869.396674
 20
883.986394
 11
868.645515
 21
884.865576
  0
LINE
  8
CSLAYER1
  6
CONTINUOUS
 62
     3
 10
868.645515
 20
884.865576
 11
867.739161
 21
885.709673
  0
LINE
  8
CSLAYER1
  6
CONTINUOUS
 62
     3
 10
867.739161
 20
885.709673
 11
866.684511
 21
886.512261
  0
LINE
  8
CSLAYER1
  6
CONTINUOUS
 62
     3
 10
866.684511
 20
886.512261
 11
865.489590
 21
887.267231
  0
LINE
  8
CSLAYER1
  6
CONTINUOUS
 62
     3
 10
865.489590
 20
887.267231
 11
864.163492
 21
887.968839
  0
LINE
  8
CSLAYER1
  6
CONTINUOUS
 62
     3
 10
864.163492
 20
887.968839
 11
862.716311
 21
888.611743
  0
LINE
  8
CSLAYER1
  6
CONTINUOUS
 62
     3
 10
862.716311
 20
888.611743
 11
861.159060
 21
889.191053
  0
LINE
  8
CSLAYER1
  6
CONTINUOUS
 62
     3
 10
861.159060
 20
889.191053
 11
859.503590
 21
889.702357
  0
LINE
  8
CSLAYER1
  6
CONTINUOUS
 62
     3
 10
859.503590
 20
889.702357
 11
857.762501
 21
890.141766
  0
LINE
  8
CSLAYER1
  6
CONTINUOUS
 62
     3
 10
857.762501
 20
890.141766
 11
855.949043
 21
890.505935
  0
LINE
  8
CSLAYER1
  6
CONTINUOUS
 62
     3
 10
855.949043
 20
890.505935
 11
854.077018
 21
890.792093
  0
LINE
  8
CSLAYER1
  6
CONTINUOUS
 62
     3
 10
854.077018
 20
890.792093
 11
852.160674
 21
890.998061
  0
LINE
  8
CSLAYER1
  6
CONTINUOUS
 62
     3
 10
852.160674
 20
890.998061
 11
850.214594
 21
891.122272
  0
LINE
  8
CSLAYER1
  6
CONTINUOUS
 62
     3
 10
850.214594
 20
891.122272
 11
848.253590
 21
891.163781
  0
LINE
  8
CSLAYER1
  6
CONTINUOUS
 62
     3
 10
848.253590
 20
891.163781
 11
846.292586
 21
891.122272
  0
LINE
  8
CSLAYER1
  6
CONTINUOUS
 62
     3
 10
846.292586
 20
891.122272
 11
844.346506
 21
890.998061
  0
LINE
  8
CSLAYER1
  6
CONTINUOUS
 62
     3
 10
844.346506
 20
890.998061
 11
842.430161
 21
890.792093
  0
LINE
  8
CSLAYER1
  6
CONTINUOUS
 62
     3
 10
842.430161
 20
890.792093
 11
840.558137
 21
890.505935
  0
LINE
  8
CSLAYER1
  6
CONTINUOUS
 62
     3
 10
840.558137
 20
890.505935
 11
838.744679
 21
890.141766
  0
LINE
  8
CSLAYER1
  6
CONTINUOUS
 62
     3
 10
838.744679
 20
890.141766
 11
837.003590
 21
889.702357
  0
LINE
  8
CSLAYER1
  6
CONTINUOUS
 62
     3
 10
837.003590
 20
889.702357
 11
835.348120
 21
889.191053
  0
LINE
  8
CSLAYER1
  6
CONTINUOUS
 62
     3
 10
835.348120
 20
889.191053
 11
833.790869
 21
888.611743
  0
LINE
  8
CSLAYER1
  6
CONTINUOUS
 62
     3
 10
833.790869
 20
888.611743
 11
832.343687
 21
887.968839
  0
LINE
  8
CSLAYER1
  6
CONTINUOUS
 62
     3
 10
832.343687
 20
887.968839
 11
831.017590
 21
887.267231
  0
LINE
  8
CSLAYER1
  6
CONTINUOUS
 62
     3
 10
831.017590
 20
887.267231
 11
829.822669
 21
886.512261
  0
LINE
  8
CSLAYER1
  6
CONTINUOUS
 62
     3
 10
829.822669
 20
886.512261
 11
828.768018
 21
885.709673
  0
LINE
  8
CSLAYER1
  6
CONTINUOUS
 62
     3
 10
828.768018
 20
885.709673
 11
827.861665
 21
884.865576
  0
LINE
  8
CSLAYER1
  6
CONTINUOUS
 62
     3
 10
827.861665
 20
884.865576
 11
827.110506
 21
883.986394
  0
LINE
  8
CSLAYER1
  6
CONTINUOUS
 62
     3
 10
827.110506
 20
883.986394
 11
826.520259
 21
883.078819
  0
LINE
  8
CSLAYER1
  6
CONTINUOUS
 62
     3
 10
826.520259
 20
883.078819
 11
826.095415
 21
882.149757
  0
LINE
  8
CSLAYER1
  6
CONTINUOUS
 62
     3
 10
826.095415
 20
882.149757
 11
825.839209
 21
881.206278
  0
LINE
  8
CSLAYER1
  6
CONTINUOUS
 62
     3
 10
825.839209
 20
881.206278
 11
825.753590
 21
880.255565
  0
LINE
  8
CSLAYER1
  6
CONTINUOUS
 62
     3
 10
825.753590
 20
880.255565
 11
825.839209
 21
879.304851
  0
LINE
  8
CSLAYER1
  6
CONTINUOUS
 62
     3
 10
825.839209
 20
879.304851
 11
826.095415
 21
878.361373
  0
LINE
  8
CSLAYER1
  6
CONTINUOUS
 62
     3
 10
826.095415
 20
878.361373
 11
826.520259
 21
877.432311
  0
LINE
  8
CSLAYER1
  6
CONTINUOUS
 62
     3
 10
826.520259
 20
877.432311
 11
827.110506
 21
876.524735
  0
LINE
  8
CSLAYER1
  6
CONTINUOUS
 62
     3
 10
827.110506
 20
876.524735
 11
827.861665
 21
875.645553
  0
LINE
  8
CSLAYER1
  6
CONTINUOUS
 62
     3
 10
827.861665
 20
875.645553
 11
828.750084
 21
874.818159
  0
LINE
  8
CSLAYER1
  6
CONTINUOUS
 62
     3
 10
867.757096
 20
874.818159
 11
868.645515
 21
875.645553
  0
LINE
  8
CSLAYER1
  6
CONTINUOUS
 62
     3
 10
868.645515
 20
875.645553
 11
869.396674
 21
876.524735
  0
LINE
  8
CSLAYER1
  6
CONTINUOUS
 62
     3
 10
869.396674
 20
876.524735
 11
869.986921
 21
877.432311
  0
LINE
  8
CSLAYER1
  6
CONTINUOUS
 62
     3
 10
869.986921
 20
877.432311
 11
870.411764
 21
878.361373
  0
LINE
  8
CSLAYER1
  6
CONTINUOUS
 62
     3
 10
870.411764
 20
878.361373
 11
870.667971
 21
879.304851
  0
LINE
  8
CSLAYER1
  6
CONTINUOUS
 62
     3
 10
870.667971
 20
879.304851
 11
870.753590
 21
880.255565
  0
LINE
  8
CSLAYER1
  6
CENTER
 62
     5
 10
814.205596
 20
883.324169
 11
825.253590
 21
883.324169
  0
LINE
  8
CSLAYER1
  6
CONTINUOUS
 62
     3
 10
819.253590
 20
908.738651
 11
825.253590
 21
908.738651
  0
LINE
  8
CSLAYER1
  6
CONTINUOUS
 62
     3
 10
819.253590
 20
855.195171
 11
825.253590
 21
855.195171
  0
LINE
  8
CSLAYER1
  6
CONTINUOUS
 62
     3
 10
779.753590
 20
874.657922
 11
782.753590
 21
874.657922
  0
LINE
  8
CSLAYER1
  6
CONTINUOUS
 62
     3
 10
871.253590
 20
907.069593
 11
870.753590
 21
906.423618
  0
LINE
  8
CSLAYER1
  6
CONTINUOUS
 62
     3
 10
871.253590
 20
908.738651
 11
877.253590
 21
908.738651
  0
LINE
  8
CSLAYER1
  6
CONTINUOUS
 62
     3
 10
871.253590
 20
855.195171
 11
877.253590
 21
855.195171
  0
LINE
  8
CSLAYER1
  6
CONTINUOUS
 62
     3
 10
791.753590
 20
874.657922
 11
804.103590
 21
874.657922
  0
LINE
  8
CSLAYER1
  6
CONTINUOUS
 62
     3
 10
825.253590
 20
874.657922
 11
871.253590
 21
874.657922
  0
LINE
  8
CSLAYER1
  6
CONTINUOUS
 62
     3
 10
892.753590
 20
874.657922
 11
895.753590
 21
874.657922
  0
LINE
  8
CSLAYER1
  6
CONTINUOUS
 62
     3
 10
877.253590
 20
874.657922
 11
883.753590
 21
874.657922
  0
LINE
  8
CSLAYER1
  6
CONTINUOUS
 62
     3
 10
791.753590
 20
1044.649513
 11
830.253590
 21
1044.649513
  0
LINE
  8
CSLAYER1
  6
CONTINUOUS
 62
     3
 10
791.753590
 20
1042.641090
 11
830.253590
 21
1042.641090
  0
LINE
  8
CSLAYER1
  6
CONTINUOUS
 62
     3
 10
866.253590
 20
1044.649513
 11
883.753590
 21
1044.649513
  0
LINE
  8
CSLAYER1
  6
CONTINUOUS
 62
     3
 10
866.253590
 20
1042.641090
 11
883.753590
 21
1042.641090
  0
LINE
  8
CSLAYER1
  6
CONTINUOUS
 62
     3
 10
804.103590
 20
843.114853
 11
804.103590
 21
925.413489
  0
LINE
  8
CSLAYER1
  6
CONTINUOUS
 62
     3
 10
812.403590
 20
843.114853
 11
812.403590
 21
925.413489
  0
LINE
  8
CSLAYER1
  6
CONTINUOUS
 62
     3
 10
812.403590
 20
874.657922
 11
819.253590
 21
874.657922
  0
LINE
  8
CSLAYER1
  6
CENTER
 62
     5
 10
1531.379911
 20
892.738651
 11
1739.914927
 21
1205.731234
  0
ARC
  8
CSLAYER1
  6
CONTINUOUS
 62
     3
 10
1739.914927
 20
1205.731234
 40
8.000000
 50
32.176883
 51
250.071831
  0
POINT
  8
CSLAYER1
 62
     3
 10
1739.914927
 20
1205.731234
  0
LINE
  8
CSLAYER1
  6
CONTINUOUS
 62
     3
 10
1602.342583
 20
1031.710947
 11
1703.852866
 21
1184.068888
  0
CIRCLE
  8
CSLAYER1
  6
CONTINUOUS
 62
     4
 10
1748.969152
 20
1151.481616
 40
8.500000
  0
LINE
  8
CSLAYER1
  6
CONTINUOUS
 62
     4
 10
1748.946430
 20
1161.296544
 11
1740.457814
 21
1156.369403
  0
LINE
  8
CSLAYER1
  6
CONTINUOUS
 62
     4
 10
1740.457814
 20
1156.369403
 11
1740.480536
 21
1146.554474
  0
LINE
  8
CSLAYER1
  6
CONTINUOUS
 62
     4
 10
1740.480536
 20
1146.554474
 11
1748.991874
 21
1141.666688
  0
LINE
  8
CSLAYER1
  6
CONTINUOUS
 62
     4
 10
1748.991874
 20
1141.666688
 11
1757.480490
 21
1146.593830
  0
LINE
  8
CSLAYER1
  6
CONTINUOUS
 62
     4
 10
1757.480490
 20
1146.593830
 11
1757.457768
 21
1156.408758
  0
LINE
  8
CSLAYER1
  6
CONTINUOUS
 62
     4
 10
1757.457768
 20
1156.408758
 11
1748.946430
 21
1161.296544
  0
CIRCLE
  8
CSLAYER1
  6
CONTINUOUS
 62
     5
 10
1748.969152
 20
1151.481616
 40
5.000000
  0
CIRCLE
  8
CSLAYER1
  6
CONTINUOUS
 62
     4
 10
1748.969152
 20
1151.481616
 40
4.300000
  0
POINT
  8
CSLAYER1
 62
     4
 10
1748.969152
 20
1151.481616
  0
LINE
  8
CSLAYER1
  6
CONTINUOUS
 62
     4
 10
1801.467014
 20
1199.073364
 11
1792.417666
 21
1180.678819
  0
LINE
  8
CSLAYER1
  6
CONTINUOUS
 62
     4
 10
1801.467014
 20
1199.073364
 11
1992.894824
 21
1436.518924
  0
LINE
  8
CSLAYER1
  6
CONTINUOUS
 62
     4
 10
1992.894824
 20
1436.518924
 11
2003.020120
 21
1487.108263
  0
LINE
  8
CSLAYER1
  6
CONTINUOUS
 62
     4
 10
1496.187098
 20
899.274394
 11
1970.096783
 21
1487.108263
  0
LINE
  8
CSLAYER1
  6
CONTINUOUS
 62
     4
 10
1535.716111
 20
862.268217
 11
1792.417666
 21
1180.678819
  0
LINE
  8
CSLAYER1
  6
CONTINUOUS
 62
     4
 10
1496.187098
 20
899.274394
 11
1474.637041
 21
838.181799
  0
LINE
  8
CSLAYER1
  6
CONTINUOUS
 62
     4
 10
1517.063471
 20
843.114853
 11
1530.004043
 21
859.166237
  0
LINE
  8
CSLAYER1
  6
CONTINUOUS
 62
     4
 10
1530.004043
 20
859.166237
 11
1535.716111
 21
862.268217
  0
POINT
  8
CSLAYER1
 62
     4
 10
1482.225483
 20
820.614853
  0
LINE
  8
CSLAYER1
  6
CONTINUOUS
 62
     4
 10
1536.343743
 20
863.046727
 11
1536.732998
 21
862.732911
  0
CIRCLE
  8
CSLAYER1
  6
CONTINUOUS
 62
     4
 10
1531.379911
 20
892.738651
 40
8.000000
  0
LINE
  8
CSLAYER1
  6
CONTINUOUS
 62
     4
 10
1541.422025
 20
905.194811
 11
1548.817870
 21
899.232306
  0
ARC
  8
CSLAYER1
  6
CONTINUOUS
 62
     4
 10
1531.379911
 20
892.738651
 40
16.000000
 50
51.124357
 51
102.499524
  0
POINT
  8
CSLAYER1
 62
     4
 10
1531.379911
 20
892.738651
  0
LINE
  8
CSLAYER1
  6
CONTINUOUS
 62
     4
 10
1536.732998
 20
862.732911
 11
1520.916986
 21
843.114853
  0
POINT
  8
CSLAYER1
 62
     7
 10
1739.914927
 20
1205.731234
  0
LINE
  8
CSLAYER1
  6
CONTINUOUS
 62
     7
 10
1784.339793
 20
1090.081960
 11
1983.443843
 21
843.114853
  0
CIRCLE
  8
CSLAYER1
  6
DASHED
 62
     5
 10
2015.712822
 20
820.614853
 40
13.000000
  0
POINT
  8
CSLAYER1
 62
     7
 10
2015.712822
 20
820.614853
  0
POINT
  8
CSLAYER1
 62
     7
 10
1748.969152
 20
1151.481616
  0
LINE
  8
CSLAYER1
  6
CONTINUOUS
 62
     7
 10
2014.303850
 20
883.704193
 11
2022.427677
 21
843.114853
  0
LINE
  8
CSLAYER1
  6
CONTINUOUS
 62
     7
 10
1522.271308
 20
1494.017512
 11
1748.969152
 21
1212.823278
  0
LINE
  8
CSLAYER1
  6
CONTINUOUS
 62
     7
 10
1527.675358
 20
1432.137908
 11
1494.691994
 21
1489.108263
  0
ARC
  8
CSLAYER1
  6
CONTINUOUS
 62
     7
 10
1519.021129
 20
1427.127485
 40
10.000000
 50
2.933531
 51
30.068979
  0
LINE
  8
CSLAYER1
  6
CONTINUOUS
 62
     7
 10
1529.008025
 20
1427.639259
 11
1529.982767
 21
1408.617885
  0
ARC
  8
CSLAYER1
  6
CONTINUOUS
 62
     7
 10
1539.969663
 20
1409.129659
 40
10.000000
 50
182.933531
 51
218.875643
  0
LINE
  8
CSLAYER1
  6
CONTINUOUS
 62
     7
 10
1705.520638
 20
1180.678819
 11
1714.287518
 21
1169.804450
  0
LINE
  8
CSLAYER1
  6
CONTINUOUS
 62
     7
 10
1784.339793
 20
1090.081960
 11
1768.283855
 21
1102.827816
  0
LINE
  8
CSLAYER1
  6
CONTINUOUS
 62
     7
 10
1696.471290
 20
1199.073364
 11
1705.520638
 21
1180.678819
  0
LINE
  8
CSLAYER1
  6
CONTINUOUS
 62
     7
 10
1696.471290
 20
1199.073364
 11
1532.184563
 21
1402.853337
  0
CIRCLE
  8
CSLAYER1
  6
CONTINUOUS
 62
     7
 10
1748.969152
 20
1151.481616
 40
7.500000
  0
ARC
  8
CSLAYER1
  6
CONTINUOUS
 62
     7
 10
1739.914927
 20
1205.731234
 40
17.000000
 50
42.335098
 51
86.307189
  0
POINT
  8
CSLAYER1
 62
     5
 10
1739.914927
 20
1205.731234
  0
CIRCLE
  8
CSLAYER1
  6
CONTINUOUS
 62
     2
 10
1531.379911
 20
892.738651
 40
8.250000
  0
LINE
  8
CSLAYER1
  6
CONTINUOUS
 62
     4
 10
1598.181554
 20
1034.483282
 11
1602.742299
 21
1031.444632
  0
LINE
  8
CSLAYER1
  6
CONTINUOUS
 62
     4
 10
1564.773152
 20
990.652600
 11
1568.079783
 21
988.449518
  0
LINE
  8
CSLAYER1
  6
CONTINUOUS
 62
     4
 10
1564.495414
 20
992.039273
 11
1583.347290
 21
1020.334268
  0
LINE
  8
CSLAYER1
  6
CONTINUOUS
 62
     4
 10
1583.347290
 20
1020.334268
 11
1598.181554
 21
1034.483282
  0
LINE
  8
CSLAYER1
  6
CONTINUOUS
 62
     2
 10
1588.480909
 20
1010.905803
 11
1598.627654
 21
1026.135169
  0
LINE
  8
CSLAYER1
  6
CONTINUOUS
 62
     4
 10
1564.495414
 20
992.039273
 11
1564.773152
 21
990.652600
  0
LINE
  8
CSLAYER1
  6
CONTINUOUS
 62
     4
 10
1555.803274
 20
973.221833
 11
1566.604005
 21
989.432773
  0
POINT
  8
CSLAYER1
 62
     5
 10
1531.379911
 20
892.738651
  0
CIRCLE
  8
CSLAYER1
  6
CONTINUOUS
 62
     3
 10
1482.225483
 20
820.614853
 40
9.500000
  0
LINE
  8
CSLAYER1
  6
CONTINUOUS
 62
     3
 10
1491.725483
 20
826.099681
 11
1482.225483
 21
831.584508
  0
LINE
  8
CSLAYER1
  6
CONTINUOUS
 62
     3
 10
1482.225483
 20
831.584508
 11
1472.725483
 21
826.099681
  0
LINE
  8
CSLAYER1
  6
CONTINUOUS
 62
     3
 10
1472.725483
 20
826.099681
 11
1472.725483
 21
815.130026
  0
LINE
  8
CSLAYER1
  6
CONTINUOUS
 62
     3
 10
1472.725483
 20
815.130026
 11
1482.225483
 21
809.645198
  0
LINE
  8
CSLAYER1
  6
CONTINUOUS
 62
     3
 10
1482.225483
 20
809.645198
 11
1491.725483
 21
815.130026
  0
LINE
  8
CSLAYER1
  6
CONTINUOUS
 62
     3
 10
1491.725483
 20
815.130026
 11
1491.725483
 21
826.099681
  0
POINT
  8
CSLAYER1
 62
     3
 10
1482.225483
 20
820.614853
  0
LINE
  8
CSLAYER1
  6
CONTINUOUS
 62
     3
 10
1457.225483
 20
843.114853
 11
1457.225483
 21
803.114853
  0
LINE
  8
CSLAYER1
  6
CONTINUOUS
 62
     3
 10
2360.225483
 20
843.114853
 11
2360.225483
 21
803.114853
  0
LINE
  8
CSLAYER1
  6
CONTINUOUS
 62
     3
 10
1457.225483
 20
843.114853
 11
1470.769043
 21
843.114853
  0
LINE
  8
CSLAYER1
  6
CONTINUOUS
 62
     3
 10
1493.681922
 20
843.114853
 11
2360.225483
 21
843.114853
  0
ARC
  8
CSLAYER1
  6
CONTINUOUS
 62
     3
 10
1482.225483
 20
848.114853
 40
12.500000
 50
203.578178
 51
336.421822
  0
LINE
  8
CSLAYER1
  6
CONTINUOUS
 62
     7
 10
1783.650786
 20
1169.804450
 11
2014.303850
 21
883.704193
  0
LINE
  8
CSLAYER1
  6
CONTINUOUS
 62
     7
 10
1748.969152
 20
1126.785622
 11
1768.283855
 21
1102.827816
  0
LINE
  8
CSLAYER1
  6
CONTINUOUS
 62
     4
 10
1517.255110
 20
895.134483
 11
1535.456443
 21
917.711274
  0
ARC
  8
CSLAYER1
  6
CONTINUOUS
 62
     4
 10
1519.590640
 20
893.251586
 40
3.000000
 50
141.124357
 51
231.124357
  0
LINE
  8
CSLAYER1
  6
CONTINUOUS
 62
     4
 10
1517.707744
 20
890.916056
 11
1530.163904
 21
880.873942
  0
ARC
  8
CSLAYER1
  6
CONTINUOUS
 62
     4
 10
1532.046801
 20
883.209472
 40
3.000000
 50
231.124357
 51
321.124357
  0
LINE
  8
CSLAYER1
  6
CONTINUOUS
 62
     4
 10
1534.382331
 20
881.326575
 11
1552.583663
 21
903.903366
  0
ARC
  8
CSLAYER1
  6
CONTINUOUS
 62
     4
 10
1550.248133
 20
905.786263
 40
3.000000
 50
-38.875643
 51
51.124357
  0
LINE
  8
CSLAYER1
  6
CONTINUOUS
 62
     4
 10
1539.674869
 20
918.163907
 11
1552.131030
 21
908.121793
  0
ARC
  8
CSLAYER1
  6
CONTINUOUS
 62
     4
 10
1537.791973
 20
915.828377
 40
3.000000
 50
51.124357
 51
141.124357
  0
CIRCLE
  8
CSLAYER1
  6
CONTINUOUS
 62
     3
 10
807.753590
 20
814.764853
 40
4.150000
  0
LINE
  8
CSLAYER1
  6
CENTER
 62
     5
 10
1482.225483
 20
855.326734
 11
1482.225483
 21
803.114853
  0
LINE
  8
CSLAYER1
  6
CENTER
 62
     5
 10
1469.665292
 20
820.614853
 11
1495.271679
 21
820.614853
  0
LINE
  8
CSLAYER1
  6
CENTER
 62
     5
 10
1521.501025
 20
892.738651
 11
1541.700690
 21
892.738651
  0
LINE
  8
CSLAYER1
  6
CENTER
 62
     5
 10
1531.379911
 20
902.956655
 11
1531.379911
 21
882.884836
  0
LINE
  8
CSLAYER1
  6
CENTER
 62
     5
 10
2015.712822
 20
836.467448
 11
2015.712822
 21
804.538496
  0
LINE
  8
CSLAYER1
  6
CENTER
 62
     5
 10
2000.195887
 20
820.614853
 11
2031.966775
 21
820.614853
  0
LINE
  8
CSLAYER1
  6
CENTER
 62
     5
 10
1738.265901
 20
1151.481616
 11
1759.782563
 21
1151.481616
  0
LINE
  8
CSLAYER1
  6
CENTER
 62
     5
 10
1748.969152
 20
1161.793441
 11
1748.969152
 21
1140.276779
  0
LINE
  8
CSLAYER1
  6
CENTER
 62
     5
 10
1730.413834
 20
1205.731234
 11
1747.622025
 21
1205.731234
  0
LINE
  8
CSLAYER1
  6
CENTER
 62
     5
 10
1739.914927
 20
1215.486733
 11
1739.914927
 21
1196.531518
  0
LINE
  8
CSLAYER1
  6
CONTINUOUS
 62
     5
 10
804.253590
 20
972.413489
 11
804.253590
 21
977.074259
  0
LINE
  8
CSLAYER1
  6
CONTINUOUS
 62
     3
 10
1203.729628
 20
2115.336866
 11
1459.925483
 21
2115.336866
  0
LINE
  8
CSLAYER1
  6
CONTINUOUS
 62
     3
 10
1203.729628
 20
2107.036866
 11
1459.925483
 21
2107.036866
  0
LINE
  8
CSLAYER1
  6
CONTINUOUS
 62
     3
 10
1457.225483
 20
2115.336866
 11
1457.225483
 21
2221.186866
  0
LINE
  8
CSLAYER1
  6
CENTER
 62
     5
 10
1200.843042
 20
819.186337
 11
1457.225483
 21
819.186337
  0
LINE
  8
CSLAYER1
  6
CONTINUOUS
 62
     3
 10
1200.843042
 20
823.336337
 11
1457.225483
 21
823.336337
  0
LINE
  8
CSLAYER1
  6
CONTINUOUS
 62
     3
 10
1200.843042
 20
815.036337
 11
1457.225483
 21
815.036337
  0
INSERT
  8
CSLAYER1
  2
BLKF0009
 10
0.0
 20
0.0
 30
0.0
  0
ARC
  8
CSLAYER1
  6
PHANTOM
 62
     5
 10
1482.225483
 20
848.314853
 40
9.500000
 50
-190.922071
 51
10.922071
  0
LINE
  8
CSLAYER1
  6
PHANTOM
 62
     5
 10
1472.725483
 20
850.114853
 11
1472.725483
 21
842.830026
  0
LINE
  8
CSLAYER1
  6
PHANTOM
 62
     5
 10
1472.725483
 20
842.830026
 11
1482.225483
 21
837.345198
  0
LINE
  8
CSLAYER1
  6
PHANTOM
 62
     5
 10
1482.225483
 20
837.345198
 11
1491.725483
 21
842.830026
  0
LINE
  8
CSLAYER1
  6
PHANTOM
 62
     5
 10
1491.725483
 20
842.830026
 11
1491.725483
 21
850.114853
  0
POINT
  8
CSLAYER1
 62
     5
 10
1482.225483
 20
848.314853
  0
LINE
  8
CSLAYER1
  6
PHANTOM
 62
     5
 10
1459.925483
 20
868.114853
 11
1459.925483
 21
850.114853
  0
LINE
  8
CSLAYER1
  6
PHANTOM
 62
     5
 10
2359.925483
 20
868.114853
 11
2359.925483
 21
850.114853
  0
LINE
  8
CSLAYER1
  6
PHANTOM
 62
     5
 10
1459.925483
 20
868.114853
 11
2359.925483
 21
868.114853
  0
LINE
  8
CSLAYER1
  6
PHANTOM
 62
     5
 10
1459.925483
 20
850.114853
 11
2359.925483
 21
850.114853
  0
LINE
  8
CSLAYER1
  6
PHANTOM
 62
     5
 10
1462.225483
 20
850.114853
 11
1462.225483
 21
843.114853
  0
LINE
  8
CSLAYER1
  6
PHANTOM
 62
     5
 10
1475.143110
 20
837.814853
 11
1481.412016
 21
837.814853
  0
LINE
  8
CSLAYER1
  6
PHANTOM
 62
     5
 10
2342.225483
 20
850.114853
 11
2342.225483
 21
843.114853
  0
LINE
  8
CSLAYER1
  6
PHANTOM
 62
     5
 10
1512.225483
 20
846.814853
 11
1501.947705
 21
843.114853
  0
LINE
  8
CSLAYER1
  6
PHANTOM
 62
     5
 10
1512.225483
 20
850.114853
 11
1512.225483
 21
843.114853
  0
LINE
  8
CSLAYER1
  6
PHANTOM
 62
     5
 10
1483.038949
 20
837.814853
 11
1487.225483
 21
837.814853
  0
LINE
  8
CSLAYER1
  6
PHANTOM
 62
     5
 10
1482.225483
 20
858.914926
 11
1482.225483
 21
836.262218
  0
LINE
  8
CSLAYER1
  6
PHANTOM
 62
     5
 10
1470.038679
 20
848.314853
 11
1493.470885
 21
848.314853
  0
LINE
  8
CSLAYER1
  6
PHANTOM
 62
     5
 10
1490.937801
 20
839.151288
 11
1487.225483
 21
837.814853
  0
DIMENSION
  8
CSLAYER1
 62
     3
  2
*D0000
 10
2501.334508
 20
1519.408263
 11
2491.334229
 21
1193.761597
 13
2380.192435
 23
868.114853
 14
2380.192435
 24
1519.408263
 50
90.000000
 70
1
  0
DIMENSION
  8
CSLAYER1
 62
     3
  2
*D0001
 10
2591.334508
 20
803.114853
 11
2581.334229
 21
1161.261597
 13
2591.334508
 23
1519.408263
 14
2591.334508
 24
803.114853
 50
90.000000
 70
1
  0
DIMENSION
  8
CSLAYER1
 62
     3
  2
*D0002
 10
2381.334508
 20
1619.408263
 11
1931.334473
 21
1629.407959
 13
1481.334508
 23
1519.408263
 14
2381.334508
 24
1519.408263
 70
1
  0
DIMENSION
  8
CSLAYER1
 62
     3
  2
*D0003
 10
1371.971422
 20
2206.186866
 11
1363.719360
 21
2055.634277
 13
1470.962681
 23
1956.186866
 14
1470.962681
 24
2206.186866
 50
90.000000
 70
1
  0
INSERT
  8
CSLAYER1
  2
EASYDRAWDIM0003
 10
0.0
 20
0.0
 30
0.0
  0
INSERT
  8
CSLAYER1
  2
EASYDRAWDIM0004
 10
0.0
 20
0.0
 30
0.0
  0
DIMENSION
  8
CSLAYER1
 62
     3
  2
*D0004
 10
1054.252261
 20
809.114853
 11
1044.252197
 21
835.929260
 13
987.753590
 23
803.114853
 14
987.753590
 24
809.114853
 50
90.000000
 70
1
  0
DIMENSION
  8
CSLAYER1
 62
     3
  2
*D0005
 10
2360.225483
 20
593.114853
 11
1908.725464
 21
603.114929
 13
1457.225483
 23
803.114853
 14
2360.225483
 24
803.114853
 52
270.000000
 70
1
  0
INSERT
  8
CSLAYER1
  2
EASYDRAWDIM0005
 10
0.0
 20
0.0
 30
0.0
  0
LINE
  8
CSLAYER1
  6
CONTINUOUS
 62
     4
 10
1459.925483
 20
2206.186866
 11
2359.925483
 21
2206.186866
  0
LINE
  8
CSLAYER1
  6
CONTINUOUS
 62
     4
 10
1459.925483
 20
1956.186866
 11
2359.925483
 21
1956.186866
  0
DIMENSION
  8
CSLAYER1
 62
     3
  2
*D0006
 10
2501.334508
 20
2206.186866
 11
2491.334473
 21
2081.187012
 13
2359.925483
 23
1956.186866
 14
2359.925483
 24
2206.186866
 50
90.000000
 70
1
  0
LINE
  8
CSLAYER1
  6
CONTINUOUS
 62
     3
 10
712.753590
 20
1519.408263
 11
712.753590
 21
1501.408263
  0
LINE
  8
CSLAYER1
  6
CONTINUOUS
 62
     3
 10
962.753590
 20
1519.408263
 11
962.753590
 21
1501.408263
  0
INSERT
  8
CSLAYER1
  2
BLKF0010
 10
0.0
 20
0.0
 30
0.0
  0
INSERT
  8
CSLAYER1
  2
BLKF0011
 10
0.0
 20
0.0
 30
0.0
  0
TEXT
  8
CSLAYER1
 62
     7
 10
1464.045776
 20
2302.386230
 40
40.000000
 41
0.843750
  1
下降時
 50
0.000000
 51
0.000000
  7
EASYDRAW_FONT
 72
     5
 11
1554.045776
 21
2302.386230
  0
LINE
  8
CSLAYER1
  6
CONTINUOUS
 62
     5
 10
1450.439498
 20
2348.816618
 11
1573.397508
 21
2348.816618
  0
LINE
  8
CSLAYER1
  6
CONTINUOUS
 62
     5
 10
1573.397508
 20
2348.816618
 11
1573.397508
 21
2295.956165
  0
LINE
  8
CSLAYER1
  6
CONTINUOUS
 62
     5
 10
1573.397508
 20
2295.956165
 11
1450.439498
 21
2295.956165
  0
LINE
  8
CSLAYER1
  6
CONTINUOUS
 62
     5
 10
1450.439498
 20
2295.956165
 11
1450.439498
 21
2348.816618
  0
LINE
  8
CSLAYER1
  6
CENTER
 62
     5
 10
3022.609294
 20
794.185492
 11
3022.609294
 21
818.395453
  0
LINE
  8
CSLAYER1
  6
CENTER
 62
     5
 10
2772.609294
 20
794.185492
 11
2772.609294
 21
818.395453
  0
LINE
  8
CSLAYER1
  6
CONTINUOUS
 62
     3
 10
2797.609294
 20
843.114853
 11
2997.609294
 21
843.114853
  0
LINE
  8
CSLAYER1
  6
CONTINUOUS
 62
     3
 10
2797.609294
 20
843.114853
 11
2797.609294
 21
809.114853
  0
LINE
  8
CSLAYER1
  6
CONTINUOUS
 62
     3
 10
2997.609294
 20
843.114853
 11
2997.609294
 21
809.114853
  0
LINE
  8
CSLAYER1
  6
CONTINUOUS
 62
     3
 10
3047.609294
 20
803.114853
 11
3047.609294
 21
809.114853
  0
LINE
  8
CSLAYER1
  6
CONTINUOUS
 62
     3
 10
3047.609294
 20
809.114853
 11
2997.609294
 21
809.114853
  0
LINE
  8
CSLAYER1
  6
CONTINUOUS
 62
     3
 10
2747.609294
 20
803.114853
 11
2747.609294
 21
809.114853
  0
LINE
  8
CSLAYER1
  6
CONTINUOUS
 62
     3
 10
2747.609294
 20
809.114853
 11
2797.609294
 21
809.114853
  0
POINT
  8
CSLAYER1
 62
     3
 10
2897.609294
 20
867.914853
  0
POINT
  8
CSLAYER1
 62
     3
 10
2897.609294
 20
843.114853
  0
LINE
  8
CSLAYER1
  6
CENTER
 62
     5
 10
2897.609294
 20
907.914853
 11
2897.609294
 21
763.114853
  0
LINE
  8
CSLAYER1
  6
CENTER
 62
     5
 10
2822.737072
 20
848.114853
 11
2971.737072
 21
848.114853
  0
LINE
  8
CSLAYER1
  6
CONTINUOUS
 62
     3
 10
3022.237072
 20
867.914853
 11
2772.237072
 21
867.914853
  0
LINE
  8
CSLAYER1
  6
CONTINUOUS
 62
     3
 10
3022.237072
 20
849.914853
 11
2772.237072
 21
849.914853
  0
LINE
  8
CSLAYER1
  6
CONTINUOUS
 62
     3
 10
2954.237072
 20
849.914853
 11
2954.237072
 21
843.114853
  0
LINE
  8
CSLAYER1
  6
CONTINUOUS
 62
     3
 10
2953.237072
 20
849.914853
 11
2953.237072
 21
843.114853
  0
LINE
  8
CSLAYER1
  6
CONTINUOUS
 62
     3
 10
2960.737072
 20
849.914853
 11
2960.737072
 21
843.114853
  0
LINE
  8
CSLAYER1
  6
CONTINUOUS
 62
     3
 10
2954.737072
 20
849.914853
 11
2954.737072
 21
843.114853
  0
LINE
  8
CSLAYER1
  6
CONTINUOUS
 62
     3
 10
2963.737072
 20
843.114853
 11
2963.737072
 21
849.914853
  0
LINE
  8
CSLAYER1
  6
CONTINUOUS
 62
     3
 10
2960.737072
 20
846.602657
 11
2963.576097
 21
849.914853
  0
LINE
  8
CSLAYER1
  6
CONTINUOUS
 62
     3
 10
2971.737072
 20
849.914853
 11
2971.737072
 21
843.114853
  0
ARC
  8
CSLAYER1
  6
CONTINUOUS
 62
     3
 10
2957.941327
 20
848.114853
 40
13.795744
 50
-21.249544
 51
7.497043
  0
LINE
  8
CSLAYER1
  6
CONTINUOUS
 62
     3
 10
2840.237072
 20
849.914853
 11
2840.237072
 21
843.114853
  0
LINE
  8
CSLAYER1
  6
CONTINUOUS
 62
     3
 10
2841.237072
 20
849.914853
 11
2841.237072
 21
843.114853
  0
LINE
  8
CSLAYER1
  6
CONTINUOUS
 62
     3
 10
2833.737072
 20
849.914853
 11
2833.737072
 21
843.114853
  0
LINE
  8
CSLAYER1
  6
CONTINUOUS
 62
     3
 10
2839.737072
 20
849.914853
 11
2839.737072
 21
843.114853
  0
LINE
  8
CSLAYER1
  6
CONTINUOUS
 62
     3
 10
2830.737072
 20
843.114853
 11
2830.737072
 21
849.914853
  0
LINE
  8
CSLAYER1
  6
CONTINUOUS
 62
     3
 10
2833.737072
 20
846.602657
 11
2830.898046
 21
849.914853
  0
LINE
  8
CSLAYER1
  6
CONTINUOUS
 62
     3
 10
2822.737072
 20
849.914853
 11
2822.737072
 21
843.114853
  0
ARC
  8
CSLAYER1
  6
CONTINUOUS
 62
     3
 10
2836.532816
 20
848.114853
 40
13.795744
 50
172.502957
 51
201.249544
  0
LINE
  8
CSLAYER1
  6
CONTINUOUS
 62
     3
 10
2812.237072
 20
843.114853
 11
2812.237072
 21
849.914853
  0
LINE
  8
CSLAYER1
  6
CONTINUOUS
 62
     3
 10
2816.737072
 20
843.114853
 11
2816.737072
 21
849.914853
  0
LINE
  8
CSLAYER1
  6
CONTINUOUS
 62
     3
 10
2982.237072
 20
843.114853
 11
2982.237072
 21
849.914853
  0
LINE
  8
CSLAYER1
  6
CONTINUOUS
 62
     3
 10
2977.737072
 20
843.114853
 11
2977.737072
 21
849.914853
  0
LINE
  8
CSLAYER1
  6
CONTINUOUS
 62
     3
 10
2772.237072
 20
867.914853
 11
2772.237072
 21
849.914853
  0
LINE
  8
CSLAYER1
  6
CONTINUOUS
 62
     3
 10
3022.237072
 20
867.914853
 11
3022.237072
 21
849.914853
  0
TEXT
  8
CSLAYER1
 62
     7
 10
2856.691162
 20
957.149536
 40
40.000000
 41
0.843750
  1
下降時
 50
0.000000
 51
0.000000
  7
EASYDRAW_FONT
 72
     5
 11
2946.691162
 21
957.149536
  0
LINE
  8
CSLAYER1
  6
CONTINUOUS
 62
     3
 10
2747.609294
 20
803.114853
 11
3047.609294
 21
803.114853
  0
LINE
  8
CSLAYER1
  6
CONTINUOUS
 62
     5
 10
2843.084885
 20
1003.579669
 11
2966.042895
 21
1003.579669
  0
LINE
  8
CSLAYER1
  6
CONTINUOUS
 62
     5
 10
2966.042895
 20
1003.579669
 11
2966.042895
 21
950.719216
  0
LINE
  8
CSLAYER1
  6
CONTINUOUS
 62
     5
 10
2966.042895
 20
950.719216
 11
2843.084885
 21
950.719216
  0
LINE
  8
CSLAYER1
  6
CONTINUOUS
 62
     5
 10
2843.084885
 20
950.719216
 11
2843.084885
 21
1003.579669
  0
TEXT
  8
CSLAYER1
 62
     5
 10
3136.354460
 20
810.634754
 40
31.844261
 41
0.920655
  1
Ｆ.Ｌ
 50
0.000000
 51
0.000000
  7
EASYDRAW_FONT
 72
     5
 11
3214.534700
 21
810.634754
  0
LINE
  8
CSLAYER1
  6
CONTINUOUS
 62
     5
 10
3256.953113
 20
803.114853
 11
3047.609294
 21
803.114853
  0
DIMENSION
  8
CSLAYER1
 62
     3
  2
*D0008
 10
2681.334508
 20
867.914853
 11
2671.333984
 21
835.514832
 13
2716.694875
 23
803.114853
 14
2767.236029
 24
867.914853
 50
90.000000
  0
LINE
  8
CSLAYER1
  6
CONTINUOUS
 62
     3
 10
2797.609294
 20
809.114853
 11
2797.609294
 21
803.114853
  0
LINE
  8
CSLAYER1
  6
CONTINUOUS
 62
     3
 10
2997.609294
 20
810.782141
 11
2997.609294
 21
803.114853
  0
DIMENSION
  8
CSLAYER1
 62
     3
  2
*D0009
 10
1482.225483
 20
683.114853
 11
1503.723511
 21
664.182678
 13
1457.225483
 23
803.114853
 14
1482.225483
 24
806.184222
 52
270.000000
  0
DIMENSION
  8
CSLAYER1
 62
     3
  2
*D0010
 10
962.753590
 20
1619.408263
 11
837.753662
 21
1629.408325
 13
712.753590
 23
1519.408263
 14
962.753590
 24
1519.408263
 70
1
  0
LINE
  8
CSLAYER1
  6
CONTINUOUS
 62
     3
 10
687.753590
 20
803.114853
 11
987.753590
 21
803.114853
  0
LINE
  8
CSLAYER1
  6
CONTINUOUS
 62
     5
 10
987.753590
 20
803.114853
 11
1457.225483
 21
803.114853
  0
LINE
  8
CSLAYER1
  6
CONTINUOUS
 62
     3
 10
1457.225483
 20
803.114853
 11
2360.225483
 21
803.114853
  0
LINE
  8
CSLAYER1
  6
CONTINUOUS
 62
     5
 10
2360.225483
 20
803.114853
 11
2747.609294
 21
803.114853
  0
INSERT
  8
CSLAYER1
  2
EASYDRAWDIM0007
 10
0.0
 20
0.0
 30
0.0
  0
LINE
  8
CSLAYER1
  6
CONTINUOUS
 62
     5
 10
1098.952359
 20
642.332241
 11
1356.149477
 21
642.332241
  0
TEXT
  8
CSLAYER1
 62
     3
 10
1134.206177
 20
650.140991
 40
40.000000
 41
0.787500
  1
(アンカー穴)
 50
0.000000
 51
0.000000
  7
EASYDRAW_FONT
 72
     5
 11
1344.206177
 21
650.140991
  0
TEXT
  8
CSLAYER1
 62
     7
 10
788.617188
 20
506.669678
 40
40.000000
 41
0.843750
  1
上昇時
 50
0.000000
 51
0.000000
  7
EASYDRAW_FONT
 72
     5
 11
878.617188
 21
506.669678
  0
LINE
  8
CSLAYER1
  6
CONTINUOUS
 62
     5
 10
775.010624
 20
553.099856
 11
897.968634
 21
553.099856
  0
LINE
  8
CSLAYER1
  6
CONTINUOUS
 62
     5
 10
897.968634
 20
553.099856
 11
897.968634
 21
500.239403
  0
LINE
  8
CSLAYER1
  6
CONTINUOUS
 62
     5
 10
897.968634
 20
500.239403
 11
775.010624
 21
500.239403
  0
LINE
  8
CSLAYER1
  6
CONTINUOUS
 62
     5
 10
775.010624
 20
500.239403
 11
775.010624
 21
553.099856
  0
DIMENSION
  8
CSLAYER1
 62
     3
  2
*D0011
 10
987.753590
 20
593.114853
 11
837.753418
 21
601.114807
 13
687.753590
 23
805.114853
 14
987.753590
 24
805.114853
 52
270.000000
 70
1
  0
DIMENSION
  8
CSLAYER1
 62
     3
  2
*D0012
 10
2501.334508
 20
868.114853
 11
2491.334473
 21
835.614868
 13
2360.225483
 23
803.114853
 14
2359.925483
 24
868.114853
 50
90.000000
  0
DIMENSION
  8
CSLAYER1
 62
     3
  2
*D0013
 10
1507.225483
 20
1721.186866
 11
1404.941895
 21
1731.186890
 13
1457.225483
 23
1941.186866
 14
1507.225483
 24
1941.186866
 52
270.000000
 70
1
  0
DIMENSION
  8
CSLAYER1
 62
     3
  2
*D0014
 10
1482.225483
 20
1811.186866
 11
1407.231079
 21
1821.186890
 13
1457.225483
 23
1941.186866
 14
1482.225483
 24
1944.924064
 52
270.000000
  0
DIMENSION
  8
CSLAYER1
 62
     3
  2
*D0015
 10
962.753590
 20
683.114853
 11
837.753601
 21
693.114807
 13
712.753590
 23
794.185492
 14
962.753590
 24
794.185492
 52
270.000000
 70
1
  0
LINE
  8
CSLAYER1
  6
CONTINUOUS
 62
     5
 10
1482.225483
 20
1956.186866
 11
1567.475226
 21
1811.186866
  0
LINE
  8
CSLAYER1
  6
CONTINUOUS
 62
     5
 10
1482.225483
 20
1956.186866
 11
1503.605562
 21
1935.141862
  0
LINE
  8
CSLAYER1
  6
CONTINUOUS
 62
     5
 10
1482.225483
 20
1956.186866
 11
1490.218673
 21
1927.271318
  0
LINE
  8
CSLAYER1
  6
CONTINUOUS
 62
     5
 10
962.753590
 20
803.114853
 11
1098.952359
 21
642.332241
  0
LINE
  8
CSLAYER1
  6
CONTINUOUS
 62
     5
 10
962.753590
 20
803.114853
 11
987.408338
 21
786.022651
  0
LINE
  8
CSLAYER1
  6
CONTINUOUS
 62
     5
 10
962.753590
 20
803.114853
 11
975.559127
 21
775.985198
  0
LINE
  8
CSLAYER1
  6
CONTINUOUS
 62
     5
 10
1482.225483
 20
803.114853
 11
1356.149477
 21
642.332241
  0
LINE
  8
CSLAYER1
  6
CONTINUOUS
 62
     5
 10
1482.225483
 20
803.114853
 11
1470.454696
 21
775.520495
  0
LINE
  8
CSLAYER1
  6
CONTINUOUS
 62
     5
 10
1482.225483
 20
803.114853
 11
1458.234503
 21
785.102832
  0
TEXT
  8
CSLAYER1
 62
     3
 10
3147.637939
 20
1774.793579
 40
40.000000
 41
0.859091
  1
約 48
 50
0.000000
 51
0.000000
  7
EASYDRAW_FONT
 72
     5
 11
3273.637939
 21
1774.793579
  0
ENDSEC
  0
EOF
