  0
SECTION
  2
HEADER
  9
$ACADVER
  1
AC1006
  9
$INSBASE
 10
0.000000
 20
0.000000
 30
0.0
  9
$EXTMIN
 10
0.000000
 20
0.000000
  9
$EXTMAX
 10
3640.000000
 20
2570.000000
  9
$LIMMIN
 10
0.000000
 20
0.000000
  9
$LIMMAX
 10
3640.000000
 20
2570.000000
  9
$VIEWCTR
 10
1820.000000
 20
1285.000000
  9
$VIEWSIZE
 40
2570.000000
  9
$SNAPMODE
 70
     0
  9
$SNAPUNIT
 10
1.0
 20
1.0
  9
$SNAPBASE
 10
0.0
 20
0.0
  9
$SNAPANG
 50
0.0
  9
$SNAPSTYLE
 70
     0
  9
$SNAPISOPAIR
 70
     0
  9
$GRIDMODE
 70
     0
  9
$GRIDUNIT
 10
0.0
 20
0.0
  9
$ORTHOMODE
 70
     0
  9
$REGENMODE
 70
     1
  9
$FILLMODE
 70
     1
  9
$QTEXTMODE
 70
     0
  9
$DRAGMODE
 70
     2
  9
$LTSCALE
 40
15.000000
  9
$OSMODE
 70
     0
  9
$ATTMODE
 70
     1
  9
$TEXTSIZE
 40
0.2
  9
$TRACEWID
 40
0.05
  9
$TEXTSTYLE
  7
STANDARD
  9
$CLAYER
  8
CSLAYER1
  9
$CELTYPE
  6
BYLAYER
  9
$CECOLOR
 62
   256
  9
$DIMSCALE
 40
1.0
  9
$DIMASZ
 40
0.18
  9
$DIMEXO
 40
0.0625
  9
$DIMDLI
 40
0.38
  9
$DIMRND
 40
0.0
  9
$DIMDLE
 40
0.0
  9
$DIMEXE
 40
0.18
  9
$DIMTP
 40
0.0
  9
$DIMTM
 40
0.0
  9
$DIMTXT
 40
0.18
  9
$DIMCEN
 40
0.09
  9
$DIMTSZ
 40
0.0
  9
$DIMTOL
 70
     0
  9
$DIMLIM
 70
     0
  9
$DIMTIH
 70
     1
  9
$DIMTOH
 70
     1
  9
$DIMSE1
 70
     0
  9
$DIMSE2
 70
     0
  9
$DIMTAD
 70
     0
  9
$DIMZIN
 70
     0
  9
$DIMBLK
  1

  9
$LUNITS
 70
     2
  9
$LUPREC
 70
     4
  9
$AXISMODE
 70
     0
  9
$AXISUNIT
 10
0.0
 20
0.0
  9
$SKETCHINC
 40
0.1
  9
$FILLETRAD
 40
0.0
  9
$AUNITS
 70
     0
  9
$AUPREC
 70
     0
  9
$MENU
  1
ACAD
  9
$ELEVATION
 40
0.0
  9
$THICKNESS
 40
0.0
  9
$VIEWDIR
 10
0.0
 20
0.0
 30
1.0
  9
$LIMCHECK
 70
     0
  9
$BLIPMODE
 70
     1
  9
$CHAMFERA
 40
0.0
  9
$CHAMFERB
 40
0.0
  9
$FASTZOOM
 70
     1
  9
$SKPOLY
 70
     0
  9
$TDCREATE
 40
2456676.000000
  9
$TDUPDATE
 40
2456676.000000
  9
$TDINDWG
 40
0.0
  9
$TDUSRTIMER
 40
0.0
  9
$USRTIMER
 70
     1
  9
$ANGBASE
 50
0.0
  9
$ANGDIR
 70
     0
  9
$PDMODE
 70
     0
  9
$PDSIZE
 40
0.0
  9
$PLINEWID
 40
0.0
  9
$COORDS
 70
     0
  9
$USERI1
 70
     0
  9
$USERI2
 70
     0
  9
$USERI3
 70
     0
  9
$USERI4
 70
     0
  9
$USERI5
 70
     0
  9
$USERR1
 40
0.0
  9
$USERR2
 40
0.0
  9
$USERR3
 40
0.0
  9
$USERR4
 40
0.0
  9
$USERR5
 40
0.0
  0
ENDSEC
  0
SECTION
  2
TABLES
  0
TABLE
  2
LTYPE
 70
     9
  0
LTYPE
  2
CONTINUOUS
 70
    64
  3
Solid line
 72
    65
 73
     0
 40
0.0
  0
LTYPE
  2
DASHED
 70
    64
  3
__ __ __ __ __ __ __ __ __ __ __ __ __ __ __
 72
    65
 73
     2
 40
0.75
 49
0.5
 49
-0.25
  0
LTYPE
  2
HIDDEN
 70
    64
  3
_ _ _ _ _ _ _ _ _ _ _ _ _ _ _ _ _ _ _ _ _ _ _
 72
    65
 73
     2
 40
0.375
 49
0.25
 49
-0.125
  0
LTYPE
  2
DOT
 70
    64
  3
...............................................
 72
    65
 73
     2
 40
0.25
 49
0.0
 49
-0.25
  0
LTYPE
  2
DASHDOT
 70
    64
  3
__ . __ . __ . __ . __ . __ . __ . __ . __ . __
 72
    65
 73
     4
 40
1.0
 49
0.5
 49
-0.25
 49
0.0
 49
-0.25
  0
LTYPE
  2
DIVIDE
 70
    64
  3
__ . . __ . . __ . . __ . . __ . . __ . . __
 72
    65
 73
     6
 40
1.25
 49
0.5
 49
-0.25
 49
0.0
 49
-0.25
 49
0.0
 49
-0.25
  0
LTYPE
  2
CENTER
 70
    64
  3
____ _ ____ _ ____ _ ____ _ ____ _ ____ _ ____ 
 72
    65
 73
     4
 40
2.0
 49
1.25
 49
-0.25
 49
0.25
 49
-0.25
  0
LTYPE
  2
PHANTOM
 70
    64
  3
______  __  __  ______  __  __  ______  __  __ 
 72
    65
 73
     6
 40
2.5
 49
1.25
 49
-0.25
 49
0.25
 49
-0.25
 49
0.25
 49
-0.25
  0
LTYPE
  2
BORDER
 70
    64
  3
__ __ . __ __ . __ __ . __ __ . __ __ . __ __ .
 72
    65
 73
     6
 40
1.75
 49
0.5
 49
-0.25
 49
0.5
 49
-0.25
 49
0.0
 49
-0.25
  0
ENDTAB
  0
TABLE
  2
LAYER
 70
    16
  0
LAYER
  2
CSLAYER1
 70
    64
 62
     7
  6
CONTINUOUS
  0
LAYER
  2
CSLAYER2
 70
    64
 62
     7
  6
CONTINUOUS
  0
LAYER
  2
CSLAYER3
 70
    64
 62
     7
  6
CONTINUOUS
  0
LAYER
  2
CSLAYER4
 70
    64
 62
     7
  6
CONTINUOUS
  0
LAYER
  2
CSLAYER5
 70
    64
 62
     7
  6
CONTINUOUS
  0
LAYER
  2
CSLAYER6
 70
    64
 62
     7
  6
CONTINUOUS
  0
LAYER
  2
CSLAYER7
 70
    64
 62
     7
  6
CONTINUOUS
  0
LAYER
  2
CSLAYER8
 70
    64
 62
     7
  6
CONTINUOUS
  0
LAYER
  2
CSLAYER9
 70
    64
 62
     7
  6
CONTINUOUS
  0
LAYER
  2
CSLAYER10
 70
    64
 62
     7
  6
CONTINUOUS
  0
LAYER
  2
CSLAYER11
 70
    64
 62
     7
  6
CONTINUOUS
  0
LAYER
  2
CSLAYER12
 70
    64
 62
     7
  6
CONTINUOUS
  0
LAYER
  2
CSLAYER13
 70
    64
 62
     7
  6
CONTINUOUS
  0
LAYER
  2
CSLAYER14
 70
    64
 62
     7
  6
CONTINUOUS
  0
LAYER
  2
CSLAYER15
 70
    64
 62
     7
  6
CONTINUOUS
  0
LAYER
  2
CSLAYER16
 70
    64
 62
     7
  6
CONTINUOUS
  0
ENDTAB
  0
TABLE
  2
STYLE
 70
     1
  0
STYLE
  2
EASYDRAW_FONT
 70
     0
 40
1.0
 41
1.0
 50
0.0
 71
     0
 42
1.0
  3
monotxt
  4
bigfont
  0
ENDTAB
  0
TABLE
  2
VIEW
 70
     0
  0
ENDTAB
  0
ENDSEC
  0
SECTION
  2
BLOCKS
  0
BLOCK
  8
CSLAYER1
  2
EASYDRAWDIM0000
 70
   64
 10
0.0
 20
0.0
 30
0.0
  0
TEXT
  8
CSLAYER1
 62
     3
 10
253.570374
 20
2239.940186
 40
48.000000
 41
0.787500
  1
昇降切替バルブ
 50
0.000000
 51
0.000000
  7
EASYDRAW_FONT
 72
     5
 11
505.570374
 21
2239.940186
  0
LINE
  8
CSLAYER1
  6
CONTINUOUS
 62
     7
 10
605.466723
 20
2089.218549
 11
505.570923
 21
2229.939905
  0
LINE
  8
CSLAYER1
  6
CONTINUOUS
 62
     7
 10
605.466723
 20
2089.218549
 11
582.361234
 21
2108.353239
  0
LINE
  8
CSLAYER1
  6
CONTINUOUS
 62
     7
 10
605.466723
 20
2089.218549
 11
595.024128
 21
2117.342421
  0
LINE
  8
CSLAYER1
  6
CONTINUOUS
 62
     7
 10
505.570923
 20
2229.939905
 11
245.570923
 21
2229.939905
  0
ENDBLK
  8
0
  0
BLOCK
  8
CSLAYER1
  2
EASYDRAWDIM0001
 70
   64
 10
0.0
 20
0.0
 30
0.0
  0
TEXT
  8
CSLAYER1
 62
     3
 10
277.317932
 20
2150.692627
 40
48.000000
 41
0.794118
  1
ポンプペタル
 50
0.000000
 51
0.000000
  7
EASYDRAW_FONT
 72
     5
 11
493.317932
 21
2150.692627
  0
LINE
  8
CSLAYER1
  6
CONTINUOUS
 62
     7
 10
558.923568
 20
2060.878146
 11
495.269851
 21
2140.692208
  0
LINE
  8
CSLAYER1
  6
CONTINUOUS
 62
     7
 10
558.923568
 20
2060.878146
 11
534.785072
 21
2078.691989
  0
LINE
  8
CSLAYER1
  6
CONTINUOUS
 62
     7
 10
558.923568
 20
2060.878146
 11
546.925938
 21
2088.374635
  0
LINE
  8
CSLAYER1
  6
CONTINUOUS
 62
     7
 10
495.269851
 20
2140.692208
 11
265.269851
 21
2140.692208
  0
ENDBLK
  8
0
  0
BLOCK
  8
CSLAYER1
  2
EASYDRAWDIM0002
 70
   64
 10
0.0
 20
0.0
 30
0.0
  0
TEXT
  8
CSLAYER1
 62
     3
 10
632.038208
 20
2245.813721
 40
48.000000
 41
0.787500
  1
高圧ホース２m
 50
0.000000
 51
0.000000
  7
EASYDRAW_FONT
 72
     5
 11
884.038208
 21
2245.813721
  0
LINE
  8
CSLAYER1
  6
CONTINUOUS
 62
     7
 10
959.354521
 20
2105.968239
 11
892.089489
 21
2235.813530
  0
LINE
  8
CSLAYER1
  6
CONTINUOUS
 62
     7
 10
959.354521
 20
2105.968239
 11
939.130880
 21
2128.126857
  0
LINE
  8
CSLAYER1
  6
CONTINUOUS
 62
     7
 10
959.354521
 20
2105.968239
 11
952.919643
 21
2135.269985
  0
LINE
  8
CSLAYER1
  6
CONTINUOUS
 62
     7
 10
892.089489
 20
2235.813530
 11
622.089489
 21
2235.813530
  0
ENDBLK
  8
0
  0
BLOCK
  8
CSLAYER1
  2
*D0000
 70
    65
 10
0.0
 20
0.0
 30
0.0
  0
TEXT
  8
CSLAYER1
 62
     3
 10
1420.453369
 20
1920.535645
 40
40.000000
 41
0.843750
  1
250
 50
90.000000
 51
0.000000
  7
EASYDRAW_FONT
 72
     5
 11
1420.453369
 21
2010.535645
  0
LINE
  8
CSLAYER1
  6
CONTINUOUS
 62
     5
 10
1517.696660
 20
1866.088062
 11
1418.705400
 21
1866.088062
  0
LINE
  8
CSLAYER1
  6
CONTINUOUS
 62
     5
 10
1517.696660
 20
2116.088062
 11
1418.705400
 21
2116.088062
  0
LINE
  8
CSLAYER1
  6
CONTINUOUS
 62
     5
 10
1428.705400
 20
1866.088062
 11
1428.705400
 21
2116.088062
  0
LINE
  8
CSLAYER1
  6
CONTINUOUS
 62
     5
 10
1428.705400
 20
1866.088062
 11
1420.940829
 21
1895.065836
  0
LINE
  8
CSLAYER1
  6
CONTINUOUS
 62
     5
 10
1428.705400
 20
1866.088062
 11
1436.469972
 21
1895.065836
  0
LINE
  8
CSLAYER1
  6
CONTINUOUS
 62
     5
 10
1428.705400
 20
2116.088062
 11
1420.940829
 21
2087.110287
  0
LINE
  8
CSLAYER1
  6
CONTINUOUS
 62
     5
 10
1428.705400
 20
2116.088062
 11
1436.469972
 21
2087.110287
  0
ENDBLK
  8
0
  0
BLOCK
  8
CSLAYER1
  2
*D0001
 70
    65
 10
0.0
 20
0.0
 30
0.0
  0
TEXT
  8
CSLAYER1
 62
     3
 10
2348.936523
 20
1946.087891
 40
40.000000
 41
0.843750
  1
200
 50
90.000000
 51
0.000000
  7
EASYDRAW_FONT
 72
     5
 11
2348.936523
 21
2036.087891
  0
LINE
  8
CSLAYER1
  6
CONTINUOUS
 62
     5
 10
2226.659461
 20
1891.088062
 11
2368.936766
 21
1891.088062
  0
LINE
  8
CSLAYER1
  6
CONTINUOUS
 62
     5
 10
2226.659461
 20
2091.088062
 11
2368.936766
 21
2091.088062
  0
LINE
  8
CSLAYER1
  6
CONTINUOUS
 62
     5
 10
2358.936766
 20
1891.088062
 11
2358.936766
 21
2091.088062
  0
LINE
  8
CSLAYER1
  6
CONTINUOUS
 62
     5
 10
2358.936766
 20
1891.088062
 11
2351.172194
 21
1920.065836
  0
LINE
  8
CSLAYER1
  6
CONTINUOUS
 62
     5
 10
2358.936766
 20
1891.088062
 11
2366.701337
 21
1920.065836
  0
LINE
  8
CSLAYER1
  6
CONTINUOUS
 62
     5
 10
2358.936766
 20
2091.088062
 11
2351.172194
 21
2062.110287
  0
LINE
  8
CSLAYER1
  6
CONTINUOUS
 62
     5
 10
2358.936766
 20
2091.088062
 11
2366.701337
 21
2062.110287
  0
ENDBLK
  8
0
  0
BLOCK
  8
CSLAYER1
  2
EASYDRAWDIM0003
 70
   64
 10
0.0
 20
0.0
 30
0.0
  0
TEXT
  8
CSLAYER1
 62
     3
 10
1629.567749
 20
1731.088257
 40
40.000000
 41
0.771429
  1
2-%%c13(アンカー穴)
 50
0.000000
 51
0.000000
  7
EASYDRAW_FONT
 72
     5
 11
1989.567749
 21
1731.088257
  0
LINE
  8
CSLAYER1
  6
CONTINUOUS
 62
     5
 10
1625.226374
 20
1721.088062
 11
1999.567627
 21
1721.088062
  0
ENDBLK
  8
0
  0
BLOCK
  8
CSLAYER1
  2
*D0002
 70
    65
 10
0.0
 20
0.0
 30
0.0
  0
TEXT
  8
CSLAYER1
 62
     3
 10
1843.936768
 20
1528.234619
 40
40.000000
 41
0.843750
  1
700
 50
0.000000
 51
0.000000
  7
EASYDRAW_FONT
 72
     5
 11
1933.936768
 21
1528.234619
  0
LINE
  8
CSLAYER1
  6
CONTINUOUS
 62
     5
 10
1538.936766
 20
1428.234699
 11
1538.936766
 21
1528.234699
  0
LINE
  8
CSLAYER1
  6
CONTINUOUS
 62
     5
 10
2238.936766
 20
1428.234699
 11
2238.936766
 21
1528.234699
  0
LINE
  8
CSLAYER1
  6
CONTINUOUS
 62
     5
 10
1538.936766
 20
1518.234699
 11
2238.936766
 21
1518.234699
  0
LINE
  8
CSLAYER1
  6
CONTINUOUS
 62
     5
 10
1538.936766
 20
1518.234699
 11
1567.914540
 21
1525.999270
  0
LINE
  8
CSLAYER1
  6
CONTINUOUS
 62
     5
 10
1538.936766
 20
1518.234699
 11
1567.914540
 21
1510.470127
  0
LINE
  8
CSLAYER1
  6
CONTINUOUS
 62
     5
 10
2238.936766
 20
1518.234699
 11
2209.958991
 21
1525.999270
  0
LINE
  8
CSLAYER1
  6
CONTINUOUS
 62
     5
 10
2238.936766
 20
1518.234699
 11
2209.958991
 21
1510.470127
  0
ENDBLK
  8
0
  0
BLOCK
  8
CSLAYER1
  2
*D0003
 70
    65
 10
0.0
 20
0.0
 30
0.0
  0
TEXT
  8
CSLAYER1
 62
     3
 10
1820.459473
 20
638.256775
 40
40.000000
 41
0.843750
  1
703
 50
0.000000
 51
0.000000
  7
EASYDRAW_FONT
 72
     5
 11
1910.459473
 21
638.256775
  0
LINE
  8
CSLAYER1
  6
CONTINUOUS
 62
     5
 10
1513.959461
 20
828.256588
 11
1513.959461
 21
618.256588
  0
LINE
  8
CSLAYER1
  6
CONTINUOUS
 62
     5
 10
2216.959461
 20
828.256588
 11
2216.959461
 21
618.256588
  0
LINE
  8
CSLAYER1
  6
CONTINUOUS
 62
     5
 10
1513.959461
 20
628.256588
 11
2216.959461
 21
628.256588
  0
LINE
  8
CSLAYER1
  6
CONTINUOUS
 62
     5
 10
1513.959461
 20
628.256588
 11
1542.937236
 21
636.021160
  0
LINE
  8
CSLAYER1
  6
CONTINUOUS
 62
     5
 10
1513.959461
 20
628.256588
 11
1542.937236
 21
620.492017
  0
LINE
  8
CSLAYER1
  6
CONTINUOUS
 62
     5
 10
2216.959461
 20
628.256588
 11
2187.981686
 21
636.021160
  0
LINE
  8
CSLAYER1
  6
CONTINUOUS
 62
     5
 10
2216.959461
 20
628.256588
 11
2187.981686
 21
620.492017
  0
ENDBLK
  8
0
  0
BLOCK
  8
CSLAYER1
  2
*D0004
 70
    65
 10
0.0
 20
0.0
 30
0.0
  0
TEXT
  8
CSLAYER1
 62
     3
 10
1152.524536
 20
846.306152
 40
40.000000
 41
1.125000
  1
6
 50
90.000000
 51
0.000000
  7
EASYDRAW_FONT
 72
     5
 11
1152.524536
 21
876.306152
  0
LINE
  8
CSLAYER1
  6
CONTINUOUS
 62
     5
 10
1106.137990
 20
838.256588
 11
1172.524587
 21
838.256588
  0
LINE
  8
CSLAYER1
  6
CONTINUOUS
 62
     5
 10
1106.137990
 20
844.256588
 11
1172.524587
 21
844.256588
  0
LINE
  8
CSLAYER1
  6
CONTINUOUS
 62
     5
 10
1162.524587
 20
838.256588
 11
1162.524587
 21
788.256588
  0
LINE
  8
CSLAYER1
  6
CONTINUOUS
 62
     5
 10
1162.524587
 20
838.256588
 11
1154.760015
 21
809.278814
  0
LINE
  8
CSLAYER1
  6
CONTINUOUS
 62
     5
 10
1162.524587
 20
838.256588
 11
1170.289158
 21
809.278814
  0
LINE
  8
CSLAYER1
  6
CONTINUOUS
 62
     5
 10
1162.524587
 20
844.256588
 11
1162.524587
 21
878.355551
  0
LINE
  8
CSLAYER1
  6
CONTINUOUS
 62
     5
 10
1162.524587
 20
844.256588
 11
1154.760015
 21
873.234363
  0
LINE
  8
CSLAYER1
  6
CONTINUOUS
 62
     5
 10
1162.524587
 20
844.256588
 11
1170.289158
 21
873.234363
  0
LINE
  8
CSLAYER1
  6
CONTINUOUS
 62
     5
 10
1162.524587
 20
838.256588
 11
1162.524587
 21
844.256588
  0
ENDBLK
  8
0
  0
BLOCK
  8
CSLAYER1
  2
EASYDRAWDIM0004
 70
   64
 10
0.0
 20
0.0
 30
0.0
  0
TEXT
  8
CSLAYER1
 62
     3
 10
1221.762207
 20
992.796631
 40
40.000000
 41
0.803571
  1
高圧ホース
 50
0.000000
 51
0.000000
  7
EASYDRAW_FONT
 72
     5
 11
1371.762207
 21
992.796631
  0
LINE
  8
CSLAYER1
  6
CONTINUOUS
 62
     5
 10
1438.307726
 20
863.965181
 11
1371.762057
 21
982.796732
  0
LINE
  8
CSLAYER1
  6
CONTINUOUS
 62
     5
 10
1438.307726
 20
863.965181
 11
1417.374452
 21
885.454668
  0
LINE
  8
CSLAYER1
  6
CONTINUOUS
 62
     5
 10
1438.307726
 20
863.965181
 11
1430.923723
 21
893.042259
  0
LINE
  8
CSLAYER1
  6
CONTINUOUS
 62
     5
 10
1371.762057
 20
982.796732
 11
1211.762057
 21
982.796732
  0
ENDBLK
  8
0
  0
BLOCK
  8
CSLAYER1
  2
EASYDRAWDIM0005
 70
   64
 10
0.0
 20
0.0
 30
0.0
  0
TEXT
  8
CSLAYER1
 62
     3
 10
1469.692139
 20
1888.987770
 40
33.155758
 41
0.767879
  1
穴ヒﾟッチ
 50
90.000000
 51
0.000000
  7
EASYDRAW_FONT
 72
     5
 11
1469.692139
 21
2007.799339
  0
ENDBLK
  8
0
  0
BLOCK
  8
CSLAYER1
  2
*D0005
 70
    65
 10
0.0
 20
0.0
 30
0.0
  0
TEXT
  8
CSLAYER1
 62
     3
 10
1355.969482
 20
1288.429321
 40
40.000000
 41
0.803571
  1
MAX22
 50
0.000000
 51
0.000000
  7
EASYDRAW_FONT
 72
     5
 11
1505.969482
 21
1288.429321
  0
LINE
  8
CSLAYER1
  6
CONTINUOUS
 62
     5
 10
1516.659461
 20
913.056588
 11
1516.659461
 21
1280.713834
  0
LINE
  8
CSLAYER1
  6
CONTINUOUS
 62
     5
 10
1538.936766
 20
1408.234699
 11
1538.936766
 21
1260.713834
  0
LINE
  8
CSLAYER1
  6
CONTINUOUS
 62
     5
 10
1516.659461
 20
1270.713834
 11
1427.542932
 21
1270.713834
  0
LINE
  8
CSLAYER1
  6
CONTINUOUS
 62
     5
 10
1516.659461
 20
1270.713834
 11
1487.681686
 21
1278.478405
  0
LINE
  8
CSLAYER1
  6
CONTINUOUS
 62
     5
 10
1516.659461
 20
1270.713834
 11
1487.681686
 21
1262.949262
  0
LINE
  8
CSLAYER1
  6
CONTINUOUS
 62
     5
 10
1538.936766
 20
1270.713834
 11
1588.936766
 21
1270.713834
  0
LINE
  8
CSLAYER1
  6
CONTINUOUS
 62
     5
 10
1538.936766
 20
1270.713834
 11
1567.914540
 21
1278.478405
  0
LINE
  8
CSLAYER1
  6
CONTINUOUS
 62
     5
 10
1538.936766
 20
1270.713834
 11
1567.914540
 21
1262.949262
  0
LINE
  8
CSLAYER1
  6
CONTINUOUS
 62
     5
 10
1516.659461
 20
1270.713834
 11
1538.936766
 21
1270.713834
  0
ENDBLK
  8
0
  0
BLOCK
  8
CSLAYER1
  2
EASYDRAWDIM0006
 70
   64
 10
0.0
 20
0.0
 30
0.0
  0
TEXT
  8
CSLAYER1
 62
     3
 10
1257.755371
 20
1163.810059
 40
40.000000
 41
0.787500
  1
油圧シリンダー
 50
0.000000
 51
0.000000
  7
EASYDRAW_FONT
 72
     5
 11
1467.755371
 21
1163.810059
  0
LINE
  8
CSLAYER1
  6
CONTINUOUS
 62
     5
 10
1468.720152
 20
1153.810097
 11
1247.755410
 21
1153.810097
  0
ENDBLK
  8
0
  0
BLOCK
  8
CSLAYER1
  2
*D0006
 70
    65
 10
0.0
 20
0.0
 30
0.0
  0
TEXT
  8
CSLAYER1
 62
     3
 10
2528.936523
 20
840.656555
 40
40.000000
 41
0.900000
  1
65
 50
90.000000
 51
0.000000
  7
EASYDRAW_FONT
 72
     5
 11
2528.936523
 21
900.656555
  0
LINE
  8
CSLAYER1
  6
CONTINUOUS
 62
     5
 10
2586.921980
 20
838.256588
 11
2528.936766
 21
838.256588
  0
LINE
  8
CSLAYER1
  6
CONTINUOUS
 62
     5
 10
2637.463134
 20
903.056588
 11
2528.936766
 21
903.056588
  0
LINE
  8
CSLAYER1
  6
CONTINUOUS
 62
     5
 10
2538.936766
 20
838.256588
 11
2538.936766
 21
903.056588
  0
LINE
  8
CSLAYER1
  6
CONTINUOUS
 62
     5
 10
2538.936766
 20
788.256588
 11
2538.936766
 21
838.256588
  0
LINE
  8
CSLAYER1
  6
CONTINUOUS
 62
     5
 10
2538.936766
 20
838.256588
 11
2531.172194
 21
809.278814
  0
LINE
  8
CSLAYER1
  6
CONTINUOUS
 62
     5
 10
2538.936766
 20
838.256588
 11
2546.701337
 21
809.278814
  0
LINE
  8
CSLAYER1
  6
CONTINUOUS
 62
     5
 10
2538.936766
 20
903.056588
 11
2538.936766
 21
953.056588
  0
LINE
  8
CSLAYER1
  6
CONTINUOUS
 62
     5
 10
2538.936766
 20
903.056588
 11
2531.172194
 21
932.034363
  0
LINE
  8
CSLAYER1
  6
CONTINUOUS
 62
     5
 10
2538.936766
 20
903.056588
 11
2546.701337
 21
932.034363
  0
ENDBLK
  8
0
  0
BLOCK
  8
CSLAYER1
  2
*D0007
 70
    65
 10
0.0
 20
0.0
 30
0.0
  0
TEXT
  8
CSLAYER1
 62
     3
 10
901.138000
 20
638.256653
 40
40.000000
 41
0.843750
  1
300
 50
0.000000
 51
0.000000
  7
EASYDRAW_FONT
 72
     5
 11
991.138000
 21
638.256653
  0
LINE
  8
CSLAYER1
  6
CONTINUOUS
 62
     5
 10
796.137990
 20
828.256588
 11
796.137990
 21
618.256588
  0
LINE
  8
CSLAYER1
  6
CONTINUOUS
 62
     5
 10
1096.137990
 20
834.256588
 11
1096.137990
 21
618.256588
  0
LINE
  8
CSLAYER1
  6
CONTINUOUS
 62
     5
 10
796.137990
 20
628.256588
 11
1096.137990
 21
628.256588
  0
LINE
  8
CSLAYER1
  6
CONTINUOUS
 62
     5
 10
796.137990
 20
628.256588
 11
825.115765
 21
636.021160
  0
LINE
  8
CSLAYER1
  6
CONTINUOUS
 62
     5
 10
796.137990
 20
628.256588
 11
825.115765
 21
620.492017
  0
LINE
  8
CSLAYER1
  6
CONTINUOUS
 62
     5
 10
1096.137990
 20
628.256588
 11
1067.160215
 21
636.021160
  0
LINE
  8
CSLAYER1
  6
CONTINUOUS
 62
     5
 10
1096.137990
 20
628.256588
 11
1067.160215
 21
620.492017
  0
ENDBLK
  8
0
  0
BLOCK
  8
CSLAYER1
  2
*D0008
 70
    65
 10
0.0
 20
0.0
 30
0.0
  0
TEXT
  8
CSLAYER1
 62
     3
 10
1534.725342
 20
656.081909
 40
40.000000
 41
0.900000
  1
25
 50
0.000000
 51
0.000000
  7
EASYDRAW_FONT
 72
     5
 11
1594.725342
 21
656.081909
  0
LINE
  8
CSLAYER1
  6
CONTINUOUS
 62
     5
 10
1513.959461
 20
828.256588
 11
1513.959461
 21
708.256588
  0
LINE
  8
CSLAYER1
  6
CONTINUOUS
 62
     5
 10
1538.959461
 20
828.256588
 11
1538.959461
 21
708.256588
  0
LINE
  8
CSLAYER1
  6
CONTINUOUS
 62
     5
 10
1513.959461
 20
718.256588
 11
1538.959461
 21
718.256588
  0
LINE
  8
CSLAYER1
  6
CONTINUOUS
 62
     5
 10
1463.959461
 20
718.256588
 11
1513.959461
 21
718.256588
  0
LINE
  8
CSLAYER1
  6
CONTINUOUS
 62
     5
 10
1513.959461
 20
718.256588
 11
1484.981686
 21
726.021160
  0
LINE
  8
CSLAYER1
  6
CONTINUOUS
 62
     5
 10
1513.959461
 20
718.256588
 11
1484.981686
 21
710.492017
  0
LINE
  8
CSLAYER1
  6
CONTINUOUS
 62
     5
 10
1538.959461
 20
718.256588
 11
1588.959461
 21
718.256588
  0
LINE
  8
CSLAYER1
  6
CONTINUOUS
 62
     5
 10
1538.959461
 20
718.256588
 11
1567.937236
 21
726.021160
  0
LINE
  8
CSLAYER1
  6
CONTINUOUS
 62
     5
 10
1538.959461
 20
718.256588
 11
1567.937236
 21
710.492017
  0
ENDBLK
  8
0
  0
BLOCK
  8
CSLAYER1
  2
*D0009
 70
    65
 10
0.0
 20
0.0
 30
0.0
  0
TEXT
  8
CSLAYER1
 62
     3
 10
901.138000
 20
1528.234741
 40
40.000000
 41
0.843750
  1
200
 50
0.000000
 51
0.000000
  7
EASYDRAW_FONT
 72
     5
 11
991.138000
 21
1528.234741
  0
LINE
  8
CSLAYER1
  6
CONTINUOUS
 62
     5
 10
846.137990
 20
1428.234699
 11
846.137990
 21
1528.234699
  0
LINE
  8
CSLAYER1
  6
CONTINUOUS
 62
     5
 10
1046.137990
 20
1428.234699
 11
1046.137990
 21
1528.234699
  0
LINE
  8
CSLAYER1
  6
CONTINUOUS
 62
     5
 10
846.137990
 20
1518.234699
 11
1046.137990
 21
1518.234699
  0
LINE
  8
CSLAYER1
  6
CONTINUOUS
 62
     5
 10
846.137990
 20
1518.234699
 11
875.115765
 21
1525.999270
  0
LINE
  8
CSLAYER1
  6
CONTINUOUS
 62
     5
 10
846.137990
 20
1518.234699
 11
875.115765
 21
1510.470127
  0
LINE
  8
CSLAYER1
  6
CONTINUOUS
 62
     5
 10
1046.137990
 20
1518.234699
 11
1017.160215
 21
1525.999270
  0
LINE
  8
CSLAYER1
  6
CONTINUOUS
 62
     5
 10
1046.137990
 20
1518.234699
 11
1017.160215
 21
1510.470127
  0
ENDBLK
  8
0
  0
BLOCK
  8
CSLAYER1
  2
EASYDRAWDIM0007
 70
   64
 10
0.0
 20
0.0
 30
0.0
  0
TEXT
  8
CSLAYER1
 62
     3
 10
1178.224731
 20
729.067444
 40
40.000000
 41
0.803571
  1
2-φ13
 50
0.000000
 51
0.000000
  7
EASYDRAW_FONT
 72
     5
 11
1328.224731
 21
729.067444
  0
ENDBLK
  8
0
  0
BLOCK
  8
CSLAYER1
  2
*D0010
 70
    65
 10
0.0
 20
0.0
 30
0.0
  0
LINE
  8
CSLAYER1
  6
CONTINUOUS
 62
     5
 10
821.137990
 20
819.327227
 11
821.137990
 21
708.256588
  0
LINE
  8
CSLAYER1
  6
CONTINUOUS
 62
     5
 10
1071.137990
 20
819.327227
 11
1071.137990
 21
708.256588
  0
LINE
  8
CSLAYER1
  6
CONTINUOUS
 62
     5
 10
821.137990
 20
718.256588
 11
1071.137990
 21
718.256588
  0
LINE
  8
CSLAYER1
  6
CONTINUOUS
 62
     5
 10
821.137990
 20
718.256588
 11
850.115765
 21
726.021160
  0
LINE
  8
CSLAYER1
  6
CONTINUOUS
 62
     5
 10
821.137990
 20
718.256588
 11
850.115765
 21
710.492017
  0
LINE
  8
CSLAYER1
  6
CONTINUOUS
 62
     5
 10
1071.137990
 20
718.256588
 11
1042.160215
 21
726.021160
  0
LINE
  8
CSLAYER1
  6
CONTINUOUS
 62
     5
 10
1071.137990
 20
718.256588
 11
1042.160215
 21
710.492017
  0
TEXT
  8
CSLAYER1
 62
     3
 10
901.138000
 20
728.256592
 40
40.000000
 41
0.843750
  1
250
 50
0.000000
 51
0.000000
  7
EASYDRAW_FONT
 72
     5
 11
991.138000
 21
728.256592
  0
ENDBLK
  8
0
  0
BLOCK
  8
CSLAYER1
  2
*D0011
 70
    65
 10
0.0
 20
0.0
 30
0.0
  0
LINE
  8
CSLAYER1
  6
CONTINUOUS
 62
     5
 10
2248.936766
 20
1418.234699
 11
2458.936766
 21
1418.234699
  0
LINE
  8
CSLAYER1
  6
CONTINUOUS
 62
     5
 10
2448.936766
 20
838.256588
 11
2448.936766
 21
1418.234699
  0
LINE
  8
CSLAYER1
  6
CONTINUOUS
 62
     5
 10
2448.936766
 20
838.256588
 11
2441.172194
 21
867.234363
  0
LINE
  8
CSLAYER1
  6
CONTINUOUS
 62
     5
 10
2448.936766
 20
838.256588
 11
2456.701337
 21
867.234363
  0
LINE
  8
CSLAYER1
  6
CONTINUOUS
 62
     5
 10
2448.936766
 20
1418.234699
 11
2441.172194
 21
1389.256924
  0
LINE
  8
CSLAYER1
  6
CONTINUOUS
 62
     5
 10
2448.936766
 20
1418.234699
 11
2456.701337
 21
1389.256924
  0
TEXT
  8
CSLAYER1
 62
     3
 10
2438.936768
 20
1083.245605
 40
40.000000
 41
0.843750
  1
570
 50
90.000000
 51
0.000000
  7
EASYDRAW_FONT
 72
     5
 11
2438.936768
 21
1173.245605
  0
ENDBLK
  8
0
  0
BLOCK
  8
CSLAYER1
  2
*D0012
 70
    65
 10
0.0
 20
0.0
 30
0.0
  0
LINE
  8
CSLAYER1
  6
CONTINUOUS
 62
     5
 10
2226.659461
 20
903.056588
 11
2368.936766
 21
903.056588
  0
LINE
  8
CSLAYER1
  6
CONTINUOUS
 62
     5
 10
2358.936766
 20
903.056588
 11
2358.936766
 21
1418.234699
  0
LINE
  8
CSLAYER1
  6
CONTINUOUS
 62
     5
 10
2358.936766
 20
903.056588
 11
2351.172194
 21
932.034363
  0
LINE
  8
CSLAYER1
  6
CONTINUOUS
 62
     5
 10
2358.936766
 20
903.056588
 11
2366.701337
 21
932.034363
  0
LINE
  8
CSLAYER1
  6
CONTINUOUS
 62
     5
 10
2358.936766
 20
1418.234699
 11
2351.172194
 21
1389.256924
  0
LINE
  8
CSLAYER1
  6
CONTINUOUS
 62
     5
 10
2358.936766
 20
1418.234699
 11
2366.701337
 21
1389.256924
  0
TEXT
  8
CSLAYER1
 62
     3
 10
2348.936768
 20
1115.645630
 40
40.000000
 41
0.843750
  1
505
 50
90.000000
 51
0.000000
  7
EASYDRAW_FONT
 72
     5
 11
2348.936768
 21
1205.645630
  0
ENDBLK
  8
0
  0
BLOCK
  8
CSLAYER1
  2
*D0013
 70
    65
 10
0.0
 20
0.0
 30
0.0
  0
LINE
  8
CSLAYER1
  6
CONTINUOUS
 62
     5
 10
2358.936766
 20
838.256588
 11
2358.936766
 21
903.056588
  0
LINE
  8
CSLAYER1
  6
CONTINUOUS
 62
     5
 10
2358.936766
 20
838.256588
 11
2351.172194
 21
867.234363
  0
LINE
  8
CSLAYER1
  6
CONTINUOUS
 62
     5
 10
2358.936766
 20
838.256588
 11
2366.701337
 21
867.234363
  0
LINE
  8
CSLAYER1
  6
CONTINUOUS
 62
     5
 10
2358.936766
 20
903.056588
 11
2351.172194
 21
874.078814
  0
LINE
  8
CSLAYER1
  6
CONTINUOUS
 62
     5
 10
2358.936766
 20
903.056588
 11
2366.701337
 21
874.078814
  0
TEXT
  8
CSLAYER1
 62
     3
 10
2348.936768
 20
840.656616
 40
40.000000
 41
0.900000
  1
65
 50
90.000000
 51
0.000000
  7
EASYDRAW_FONT
 72
     5
 11
2348.936768
 21
900.656616
  0
ENDBLK
  8
0
  0
BLOCK
  8
CSLAYER1
  2
*D0014
 70
    65
 10
0.0
 20
0.0
 30
0.0
  0
LINE
  8
CSLAYER1
  6
CONTINUOUS
 62
     5
 10
1513.959461
 20
1841.088062
 11
1513.959461
 21
1621.088062
  0
LINE
  8
CSLAYER1
  6
CONTINUOUS
 62
     5
 10
1563.959461
 20
1841.088062
 11
1563.959461
 21
1621.088062
  0
LINE
  8
CSLAYER1
  6
CONTINUOUS
 62
     5
 10
1513.959461
 20
1631.088062
 11
1563.959461
 21
1631.088062
  0
LINE
  8
CSLAYER1
  6
CONTINUOUS
 62
     5
 10
1423.959461
 20
1631.088062
 11
1513.959461
 21
1631.088062
  0
LINE
  8
CSLAYER1
  6
CONTINUOUS
 62
     5
 10
1513.959461
 20
1631.088062
 11
1484.981686
 21
1638.852633
  0
LINE
  8
CSLAYER1
  6
CONTINUOUS
 62
     5
 10
1513.959461
 20
1631.088062
 11
1484.981686
 21
1623.323490
  0
LINE
  8
CSLAYER1
  6
CONTINUOUS
 62
     5
 10
1563.959461
 20
1631.088062
 11
1613.959461
 21
1631.088062
  0
LINE
  8
CSLAYER1
  6
CONTINUOUS
 62
     5
 10
1563.959461
 20
1631.088062
 11
1592.937236
 21
1638.852633
  0
LINE
  8
CSLAYER1
  6
CONTINUOUS
 62
     5
 10
1563.959461
 20
1631.088062
 11
1592.937236
 21
1623.323490
  0
TEXT
  8
CSLAYER1
 62
     3
 10
1423.959473
 20
1641.088135
 40
40.000000
 41
0.900000
  1
50
 50
0.000000
 51
0.000000
  7
EASYDRAW_FONT
 72
     5
 11
1483.959473
 21
1641.088135
  0
ENDBLK
  8
0
  0
BLOCK
  8
CSLAYER1
  2
*D0015
 70
    65
 10
0.0
 20
0.0
 30
0.0
  0
LINE
  8
CSLAYER1
  6
CONTINUOUS
 62
     5
 10
1513.959461
 20
1841.088062
 11
1513.959461
 21
1711.088062
  0
LINE
  8
CSLAYER1
  6
CONTINUOUS
 62
     5
 10
1538.959461
 20
1844.825260
 11
1538.959461
 21
1711.088062
  0
LINE
  8
CSLAYER1
  6
CONTINUOUS
 62
     5
 10
1513.959461
 20
1721.088062
 11
1538.959461
 21
1721.088062
  0
LINE
  8
CSLAYER1
  6
CONTINUOUS
 62
     5
 10
1423.959461
 20
1721.088062
 11
1513.959461
 21
1721.088062
  0
LINE
  8
CSLAYER1
  6
CONTINUOUS
 62
     5
 10
1513.959461
 20
1721.088062
 11
1484.981686
 21
1728.852633
  0
LINE
  8
CSLAYER1
  6
CONTINUOUS
 62
     5
 10
1513.959461
 20
1721.088062
 11
1484.981686
 21
1713.323490
  0
LINE
  8
CSLAYER1
  6
CONTINUOUS
 62
     5
 10
1538.959461
 20
1721.088062
 11
1588.959461
 21
1721.088062
  0
LINE
  8
CSLAYER1
  6
CONTINUOUS
 62
     5
 10
1538.959461
 20
1721.088062
 11
1567.937236
 21
1728.852633
  0
LINE
  8
CSLAYER1
  6
CONTINUOUS
 62
     5
 10
1538.959461
 20
1721.088062
 11
1567.937236
 21
1713.323490
  0
TEXT
  8
CSLAYER1
 62
     3
 10
1423.959473
 20
1731.088135
 40
40.000000
 41
0.900000
  1
25
 50
0.000000
 51
0.000000
  7
EASYDRAW_FONT
 72
     5
 11
1483.959473
 21
1731.088135
  0
ENDBLK
  8
0
  0
BLOCK
  8
CSLAYER1
  2
BLKF0000
 70
   64
 10
0.0
 20
0.0
 30
0.0
  0
ARC
  8
CSLAYER1
  6
CONTINUOUS
 62
     5
 10
2848.738051
 20
141.023106
 40
3.549225
 50
6.429109
 51
73.182034
  0
ARC
  8
CSLAYER1
  6
CONTINUOUS
 62
     5
 10
2845.277081
 20
139.864713
 40
6.907754
 50
310.517970
 51
330.092764
  0
ARC
  8
CSLAYER1
  6
CONTINUOUS
 62
     5
 10
2845.216431
 20
140.230231
 40
7.148321
 50
-32.205059
 51
9.585194
  0
ARC
  8
CSLAYER1
  6
CONTINUOUS
 62
     5
 10
2848.509159
 20
137.469233
 40
4.767514
 50
180.000000
 51
218.514150
  0
ARC
  8
CSLAYER1
  6
CONTINUOUS
 62
     5
 10
2847.222438
 20
136.792092
 40
3.348282
 50
222.781148
 51
319.406906
  0
ARC
  8
CSLAYER1
  6
CONTINUOUS
 62
     5
 10
2850.288080
 20
137.881985
 40
6.559434
 50
94.574282
 51
183.607718
  0
LINE
  8
CSLAYER1
  6
CONTINUOUS
 62
     5
 10
2863.731987
 20
132.765152
 11
2862.874950
 21
129.726569
  0
LINE
  8
CSLAYER1
  6
CONTINUOUS
 62
     5
 10
2865.523971
 20
152.632810
 11
2863.420337
 21
155.359743
  0
LINE
  8
CSLAYER1
  6
CONTINUOUS
 62
     5
 10
2863.420337
 20
155.359743
 11
2856.666983
 21
159.117655
  0
LINE
  8
CSLAYER1
  6
CONTINUOUS
 62
     5
 10
2856.666983
 20
159.117655
 11
2849.764956
 21
159.920526
  0
LINE
  8
CSLAYER1
  6
CONTINUOUS
 62
     5
 10
2831.475730
 20
146.541852
 11
2833.622425
 21
151.506083
  0
LINE
  8
CSLAYER1
  6
CONTINUOUS
 62
     5
 10
2833.585427
 20
151.420526
 11
2835.769119
 21
154.055282
  0
LINE
  8
CSLAYER1
  6
CONTINUOUS
 62
     5
 10
2835.769119
 20
154.055282
 11
2839.073541
 21
156.420526
  0
LINE
  8
CSLAYER1
  6
CONTINUOUS
 62
     5
 10
2849.764956
 20
159.920526
 11
2848.246780
 21
159.153681
  0
LINE
  8
CSLAYER1
  6
CONTINUOUS
 62
     5
 10
2848.246780
 20
159.153681
 11
2844.758402
 21
159.153681
  0
LINE
  8
CSLAYER1
  6
CONTINUOUS
 62
     5
 10
2844.758402
 20
159.153681
 11
2841.202939
 21
157.208240
  0
LINE
  8
CSLAYER1
  6
CONTINUOUS
 62
     5
 10
2841.202939
 20
157.208240
 11
2839.073541
 21
156.420526
  0
LINE
  8
CSLAYER1
  6
CONTINUOUS
 62
     5
 10
2831.475730
 20
146.541852
 11
2829.958183
 21
138.993249
  0
LINE
  8
CSLAYER1
  6
CONTINUOUS
 62
     5
 10
2829.958183
 20
138.993249
 11
2829.764956
 21
136.420526
  0
LINE
  8
CSLAYER1
  6
CONTINUOUS
 62
     5
 10
2832.474338
 20
128.580743
 11
2829.764956
 21
134.676855
  0
LINE
  8
CSLAYER1
  6
CONTINUOUS
 62
     5
 10
2829.764956
 20
134.676855
 11
2829.764956
 21
136.420526
  0
LINE
  8
CSLAYER1
  6
CONTINUOUS
 62
     5
 10
2862.874950
 20
129.726569
 11
2861.189163
 21
126.723563
  0
LINE
  8
CSLAYER1
  6
CONTINUOUS
 62
     5
 10
2861.189163
 20
126.723563
 11
2859.764956
 21
125.404852
  0
ARC
  8
CSLAYER1
  6
CONTINUOUS
 62
     5
 10
2847.573011
 20
136.957286
 40
17.266626
 50
208.054813
 51
260.640470
  0
ARC
  8
CSLAYER1
  6
CONTINUOUS
 62
     5
 10
2842.379616
 20
149.699756
 40
29.874611
 50
274.579659
 51
305.587364
  0
ARC
  8
CSLAYER1
  6
CONTINUOUS
 62
     5
 10
2853.351965
 20
143.716033
 40
15.088627
 50
313.467013
 51
331.085078
  0
LINE
  8
CSLAYER1
  6
CONTINUOUS
 62
     5
 10
2868.143297
 20
139.933947
 11
2868.440591
 21
143.716033
  0
LINE
  8
CSLAYER1
  6
CONTINUOUS
 62
     5
 10
2868.440591
 20
143.716033
 11
2867.148594
 21
149.825017
  0
LINE
  8
CSLAYER1
  6
CONTINUOUS
 62
     5
 10
2868.143297
 20
139.933947
 11
2866.559622
 21
136.420526
  0
ARC
  8
CSLAYER1
  6
CONTINUOUS
 62
     5
 10
2853.351965
 20
143.716033
 40
15.088627
 50
23.883193
 51
36.225170
  0
LINE
  8
CSLAYER1
  6
CONTINUOUS
 62
     5
 10
2813.764956
 20
171.420526
 11
2814.764956
 21
172.513170
  0
LINE
  8
CSLAYER1
  6
CONTINUOUS
 62
     5
 10
2813.764956
 20
171.420526
 11
2815.341913
 21
169.975493
  0
LINE
  8
CSLAYER1
  6
CONTINUOUS
 62
     5
 10
2816.881126
 20
167.866201
 11
2816.907394
 21
165.698082
  0
LINE
  8
CSLAYER1
  6
CONTINUOUS
 62
     5
 10
2816.907394
 20
165.698082
 11
2817.114792
 21
164.937623
  0
LINE
  8
CSLAYER1
  6
CONTINUOUS
 62
     5
 10
2817.114792
 20
164.937623
 11
2817.702420
 21
164.211730
  0
LINE
  8
CSLAYER1
  6
CONTINUOUS
 62
     5
 10
2817.702420
 20
164.211730
 11
2818.290048
 21
164.280863
  0
LINE
  8
CSLAYER1
  6
CONTINUOUS
 62
     5
 10
2818.290048
 20
164.280863
 11
2818.912242
 21
164.453694
  0
LINE
  8
CSLAYER1
  6
CONTINUOUS
 62
     5
 10
2818.912242
 20
164.453694
 11
2819.327038
 21
164.280863
  0
LINE
  8
CSLAYER1
  6
CONTINUOUS
 62
     5
 10
2819.327038
 20
164.280863
 11
2820.225762
 21
163.831500
  0
LINE
  8
CSLAYER1
  6
CONTINUOUS
 62
     5
 10
2820.225762
 20
163.831500
 11
2821.001814
 21
163.420526
  0
LINE
  8
CSLAYER1
  6
CONTINUOUS
 62
     5
 10
2821.001814
 20
163.420526
 11
2821.504716
 21
163.451271
  0
LINE
  8
CSLAYER1
  6
CONTINUOUS
 62
     5
 10
2821.504716
 20
163.451271
 11
2824.312588
 21
164.897750
  0
LINE
  8
CSLAYER1
  6
CONTINUOUS
 62
     5
 10
2814.764956
 20
172.513170
 11
2815.097807
 21
173.986877
  0
LINE
  8
CSLAYER1
  6
CONTINUOUS
 62
     5
 10
2815.097807
 20
173.986877
 11
2816.551213
 21
174.137230
  0
LINE
  8
CSLAYER1
  6
CONTINUOUS
 62
     5
 10
2818.044971
 20
176.905688
 11
2819.799144
 21
177.062779
  0
LINE
  8
CSLAYER1
  6
CONTINUOUS
 62
     5
 10
2819.799144
 20
177.062779
 11
2823.333672
 21
177.900592
  0
LINE
  8
CSLAYER1
  6
CONTINUOUS
 62
     5
 10
2823.333672
 20
177.900592
 11
2824.764956
 21
178.232231
  0
LINE
  8
CSLAYER1
  6
CONTINUOUS
 62
     5
 10
2818.044971
 20
176.905688
 11
2816.112080
 21
177.064556
  0
LINE
  8
CSLAYER1
  6
CONTINUOUS
 62
     5
 10
2815.375957
 20
176.195869
 11
2815.469482
 21
175.824708
  0
LINE
  8
CSLAYER1
  6
CONTINUOUS
 62
     5
 10
2815.469482
 20
175.824708
 11
2815.961076
 21
175.287027
  0
LINE
  8
CSLAYER1
  6
CONTINUOUS
 62
     5
 10
2815.961076
 20
175.287027
 11
2816.637018
 21
174.780070
  0
LINE
  8
CSLAYER1
  6
CONTINUOUS
 62
     5
 10
2816.637018
 20
174.780070
 11
2816.760343
 21
174.615637
  0
LINE
  8
CSLAYER1
  6
CONTINUOUS
 62
     5
 10
2815.341913
 20
169.975493
 11
2816.881126
 21
167.866201
  0
ARC
  8
CSLAYER1
  6
CONTINUOUS
 62
     5
 10
2859.751656
 20
-0.238127
 40
180.727463
 50
80.438896
 51
96.353582
  0
ARC
  8
CSLAYER1
  6
CONTINUOUS
 62
     5
 10
2834.852743
 20
145.009773
 40
34.720242
 50
81.866516
 51
106.890578
  0
LINE
  8
CSLAYER1
  6
CONTINUOUS
 62
     5
 10
2893.959217
 20
177.187196
 11
2896.206299
 21
176.165795
  0
LINE
  8
CSLAYER1
  6
CONTINUOUS
 62
     5
 10
2899.781204
 20
174.582623
 11
2896.206299
 21
176.165795
  0
LINE
  8
CSLAYER1
  6
CONTINUOUS
 62
     5
 10
2893.959217
 20
177.187196
 11
2889.764956
 21
177.979767
  0
LINE
  8
CSLAYER1
  6
CONTINUOUS
 62
     5
 10
2899.764956
 20
174.589819
 11
2901.636531
 21
173.021342
  0
LINE
  8
CSLAYER1
  6
CONTINUOUS
 62
     5
 10
2883.008212
 20
175.626669
 11
2883.907486
 21
177.079344
  0
LINE
  8
CSLAYER1
  6
CONTINUOUS
 62
     5
 10
2883.907486
 20
177.079344
 11
2888.583085
 21
175.959835
  0
LINE
  8
CSLAYER1
  6
CONTINUOUS
 62
     5
 10
2888.583085
 20
175.959835
 11
2905.325471
 21
171.420526
  0
LINE
  8
CSLAYER1
  6
CONTINUOUS
 62
     5
 10
2908.264956
 20
171.420526
 11
2901.636531
 21
173.021342
  0
LINE
  8
CSLAYER1
  6
CONTINUOUS
 62
     5
 10
2905.325471
 20
171.420526
 11
2908.264956
 21
171.420526
  0
LINE
  8
CSLAYER1
  6
CONTINUOUS
 62
     5
 10
2849.764956
 20
175.885467
 11
2869.764956
 21
176.420526
  0
LINE
  8
CSLAYER1
  6
CONTINUOUS
 62
     5
 10
2869.764956
 20
176.420526
 11
2883.008212
 21
175.626669
  0
LINE
  8
CSLAYER1
  6
CONTINUOUS
 62
     5
 10
2884.611193
 20
173.566190
 11
2869.764956
 21
174.920526
  0
LINE
  8
CSLAYER1
  6
CONTINUOUS
 62
     5
 10
2869.764956
 20
174.920526
 11
2854.715746
 21
175.329178
  0
LINE
  8
CSLAYER1
  6
CONTINUOUS
 62
     5
 10
2854.764956
 20
175.327842
 11
2849.764956
 21
175.423135
  0
LINE
  8
CSLAYER1
  6
CONTINUOUS
 62
     5
 10
2849.764956
 20
175.885467
 11
2849.764956
 21
175.423135
  0
LINE
  8
CSLAYER1
  6
CONTINUOUS
 62
     5
 10
2907.264956
 20
167.920526
 11
2898.422397
 21
170.231188
  0
LINE
  8
CSLAYER1
  6
CONTINUOUS
 62
     5
 10
2884.611193
 20
173.566190
 11
2894.764956
 21
171.593806
  0
LINE
  8
CSLAYER1
  6
CONTINUOUS
 62
     5
 10
2894.764956
 20
171.593806
 11
2898.422397
 21
170.231188
  0
LINE
  8
CSLAYER1
  6
CONTINUOUS
 62
     5
 10
2907.264956
 20
167.920526
 11
2906.972338
 21
167.081420
  0
LINE
  8
CSLAYER1
  6
CONTINUOUS
 62
     5
 10
2916.764956
 20
162.420526
 11
2916.458928
 21
163.649507
  0
LINE
  8
CSLAYER1
  6
CONTINUOUS
 62
     5
 10
2906.972338
 20
167.081420
 11
2916.458928
 21
163.649507
  0
LINE
  8
CSLAYER1
  6
CONTINUOUS
 62
     5
 10
2853.264956
 20
167.920526
 11
2855.687994
 21
167.920526
  0
LINE
  8
CSLAYER1
  6
CONTINUOUS
 62
     5
 10
2875.764956
 20
168.353021
 11
2875.764956
 21
167.920526
  0
LINE
  8
CSLAYER1
  6
CONTINUOUS
 62
     5
 10
2874.764956
 20
168.887462
 11
2873.053676
 21
169.524641
  0
LINE
  8
CSLAYER1
  6
CONTINUOUS
 62
     5
 10
2873.053676
 20
169.524641
 11
2871.943620
 21
169.575098
  0
LINE
  8
CSLAYER1
  6
CONTINUOUS
 62
     5
 10
2871.943620
 20
169.575098
 11
2871.464278
 21
169.322812
  0
LINE
  8
CSLAYER1
  6
CONTINUOUS
 62
     5
 10
2871.464278
 20
169.322812
 11
2871.363364
 21
168.919156
  0
LINE
  8
CSLAYER1
  6
CONTINUOUS
 62
     5
 10
2871.363364
 20
168.919156
 11
2871.817478
 21
168.616413
  0
LINE
  8
CSLAYER1
  6
CONTINUOUS
 62
     5
 10
2871.817478
 20
168.616413
 11
2873.457333
 21
168.465042
  0
LINE
  8
CSLAYER1
  6
CONTINUOUS
 62
     5
 10
2873.457333
 20
168.465042
 11
2875.764956
 21
168.353021
  0
LINE
  8
CSLAYER1
  6
CONTINUOUS
 62
     5
 10
2916.764956
 20
162.420526
 11
2913.789413
 21
163.607107
  0
LINE
  8
CSLAYER1
  6
CONTINUOUS
 62
     5
 10
2913.789413
 20
163.607107
 11
2903.733723
 21
165.449983
  0
LINE
  8
CSLAYER1
  6
CONTINUOUS
 62
     5
 10
2903.733723
 20
165.449983
 11
2898.707943
 21
166.609778
  0
LINE
  8
CSLAYER1
  6
CONTINUOUS
 62
     5
 10
2876.299176
 20
168.920526
 11
2888.064842
 21
168.920526
  0
LINE
  8
CSLAYER1
  6
CONTINUOUS
 62
     5
 10
2874.764956
 20
168.887462
 11
2875.289615
 21
168.578995
  0
LINE
  8
CSLAYER1
  6
CONTINUOUS
 62
     5
 10
2875.289615
 20
168.578995
 11
2875.586427
 21
168.489951
  0
LINE
  8
CSLAYER1
  6
CONTINUOUS
 62
     5
 10
2875.586427
 20
168.489951
 11
2875.764956
 21
168.515122
  0
LINE
  8
CSLAYER1
  6
CONTINUOUS
 62
     5
 10
2875.764956
 20
168.515122
 11
2876.299176
 21
168.920526
  0
LINE
  8
CSLAYER1
  6
CONTINUOUS
 62
     5
 10
2888.064842
 20
168.920526
 11
2892.515111
 21
167.891700
  0
LINE
  8
CSLAYER1
  6
CONTINUOUS
 62
     5
 10
2892.515111
 20
167.891700
 11
2896.668303
 21
166.726551
  0
LINE
  8
CSLAYER1
  6
CONTINUOUS
 62
     5
 10
2896.668303
 20
166.726551
 11
2898.707943
 21
166.609778
  0
LINE
  8
CSLAYER1
  6
CONTINUOUS
 62
     5
 10
2852.264956
 20
166.920526
 11
2852.264956
 21
166.420526
  0
LINE
  8
CSLAYER1
  6
CONTINUOUS
 62
     5
 10
2849.764956
 20
166.420526
 11
2852.264956
 21
166.420526
  0
ARC
  8
CSLAYER1
  6
CONTINUOUS
 62
     5
 10
2853.264956
 20
166.920526
 40
1.000000
 50
90.000000
 51
180.000000
  0
LINE
  8
CSLAYER1
  6
CONTINUOUS
 62
     5
 10
2855.687994
 20
167.920526
 11
2856.385550
 21
167.348529
  0
LINE
  8
CSLAYER1
  6
CONTINUOUS
 62
     5
 10
2856.987918
 20
167.324569
 11
2857.845515
 21
167.920526
  0
LINE
  8
CSLAYER1
  6
CONTINUOUS
 62
     5
 10
2859.423911
 20
167.920526
 11
2861.091037
 21
167.262450
  0
LINE
  8
CSLAYER1
  6
CONTINUOUS
 62
     5
 10
2861.514746
 20
167.288962
 11
2862.668233
 21
167.920526
  0
LINE
  8
CSLAYER1
  6
CONTINUOUS
 62
     5
 10
2857.845515
 20
167.920526
 11
2859.423911
 21
167.920526
  0
LINE
  8
CSLAYER1
  6
CONTINUOUS
 62
     5
 10
2862.668233
 20
167.920526
 11
2875.764956
 21
167.920526
  0
LINE
  8
CSLAYER1
  6
CONTINUOUS
 62
     5
 10
2828.313939
 20
164.811700
 11
2849.764956
 21
166.420526
  0
LINE
  8
CSLAYER1
  6
CONTINUOUS
 62
     5
 10
2824.312588
 20
164.897750
 11
2828.313939
 21
164.811700
  0
ARC
  8
CSLAYER1
  6
CONTINUOUS
 62
     5
 10
2856.702590
 20
167.735163
 40
0.500000
 50
230.648247
 51
304.796026
  0
ARC
  8
CSLAYER1
  6
CONTINUOUS
 62
     5
 10
2861.274620
 20
167.727528
 40
0.500000
 50
248.459024
 51
298.701829
  0
ARC
  8
CSLAYER1
  6
CONTINUOUS
 62
     5
 10
2816.520343
 20
174.435637
 40
0.300000
 50
-84.093859
 51
36.869898
  0
ARC
  8
CSLAYER1
  6
CONTINUOUS
 62
     5
 10
2816.054739
 20
176.366909
 40
0.700000
 50
85.301319
 51
194.142980
  0
LINE
  8
CSLAYER1
  6
CONTINUOUS
 62
     3
 10
2848.246780
 20
159.153681
 11
2856.357275
 21
159.153681
  0
LINE
  8
CSLAYER1
  6
CONTINUOUS
 62
     3
 10
2841.834264
 20
157.553681
 11
2859.477604
 21
157.553681
  0
LINE
  8
CSLAYER1
  6
CONTINUOUS
 62
     3
 10
2838.421325
 20
155.953681
 11
2862.352969
 21
155.953681
  0
LINE
  8
CSLAYER1
  6
CONTINUOUS
 62
     3
 10
2836.186005
 20
154.353681
 11
2864.196442
 21
154.353681
  0
LINE
  8
CSLAYER1
  6
CONTINUOUS
 62
     3
 10
2834.690349
 20
152.753681
 11
2865.430728
 21
152.753681
  0
LINE
  8
CSLAYER1
  6
CONTINUOUS
 62
     3
 10
2833.470035
 20
151.153681
 11
2866.480104
 21
151.153681
  0
LINE
  8
CSLAYER1
  6
CONTINUOUS
 62
     3
 10
2832.778143
 20
149.553681
 11
2867.205979
 21
149.553681
  0
LINE
  8
CSLAYER1
  6
CONTINUOUS
 62
     3
 10
2832.086251
 20
147.953681
 11
2867.544365
 21
147.953681
  0
LINE
  8
CSLAYER1
  6
CONTINUOUS
 62
     3
 10
2831.437901
 20
146.353681
 11
2867.882751
 21
146.353681
  0
LINE
  8
CSLAYER1
  6
CONTINUOUS
 62
     3
 10
2831.116242
 20
144.753681
 11
2868.221138
 21
144.753681
  0
LINE
  8
CSLAYER1
  6
CONTINUOUS
 62
     3
 10
2830.794583
 20
143.153681
 11
2846.384826
 21
143.153681
  0
LINE
  8
CSLAYER1
  6
CONTINUOUS
 62
     3
 10
2830.472924
 20
141.553681
 11
2844.852565
 21
141.553681
  0
LINE
  8
CSLAYER1
  6
CONTINUOUS
 62
     3
 10
2830.151265
 20
139.953681
 11
2844.064395
 21
139.953681
  0
LINE
  8
CSLAYER1
  6
CONTINUOUS
 62
     3
 10
2829.910148
 20
138.353681
 11
2843.745628
 21
138.353681
  0
LINE
  8
CSLAYER1
  6
CONTINUOUS
 62
     3
 10
2829.789978
 20
136.753681
 11
2843.795649
 21
136.753681
  0
LINE
  8
CSLAYER1
  6
CONTINUOUS
 62
     3
 10
2829.764956
 20
135.153681
 11
2844.341736
 21
135.153681
  0
LINE
  8
CSLAYER1
  6
CONTINUOUS
 62
     3
 10
2830.264144
 20
133.553681
 11
2846.371738
 21
133.553681
  0
LINE
  8
CSLAYER1
  6
CONTINUOUS
 62
     3
 10
2830.975255
 20
131.953681
 11
2863.503110
 21
131.953681
  0
LINE
  8
CSLAYER1
  6
CONTINUOUS
 62
     3
 10
2831.686366
 20
130.353681
 11
2863.051828
 21
130.353681
  0
LINE
  8
CSLAYER1
  6
CONTINUOUS
 62
     3
 10
2832.397477
 20
128.753681
 11
2862.328804
 21
128.753681
  0
LINE
  8
CSLAYER1
  6
CONTINUOUS
 62
     3
 10
2833.359436
 20
127.153681
 11
2861.430617
 21
127.153681
  0
LINE
  8
CSLAYER1
  6
CONTINUOUS
 62
     3
 10
2834.607897
 20
125.553681
 11
2859.925691
 21
125.553681
  0
LINE
  8
CSLAYER1
  6
CONTINUOUS
 62
     3
 10
2836.213317
 20
123.953681
 11
2857.533230
 21
123.953681
  0
LINE
  8
CSLAYER1
  6
CONTINUOUS
 62
     3
 10
2838.360459
 20
122.353681
 11
2854.408107
 21
122.353681
  0
LINE
  8
CSLAYER1
  6
CONTINUOUS
 62
     3
 10
2841.608149
 20
120.753681
 11
2849.769958
 21
120.753681
  0
LINE
  8
CSLAYER1
  6
CONTINUOUS
 62
     3
 10
2851.576650
 20
143.153681
 11
2868.396387
 21
143.153681
  0
LINE
  8
CSLAYER1
  6
CONTINUOUS
 62
     3
 10
2852.247394
 20
141.553681
 11
2868.270618
 21
141.553681
  0
LINE
  8
CSLAYER1
  6
CONTINUOUS
 62
     3
 10
2852.359401
 20
139.953681
 11
2868.144848
 21
139.953681
  0
LINE
  8
CSLAYER1
  6
CONTINUOUS
 62
     3
 10
2852.114044
 20
138.353681
 11
2867.430992
 21
138.353681
  0
LINE
  8
CSLAYER1
  6
CONTINUOUS
 62
     3
 10
2851.462398
 20
136.753681
 11
2866.709792
 21
136.753681
  0
LINE
  8
CSLAYER1
  6
CONTINUOUS
 62
     3
 10
2850.329135
 20
135.153681
 11
2865.775844
 21
135.153681
  0
LINE
  8
CSLAYER1
  6
CONTINUOUS
 62
     3
 10
2848.073138
 20
133.553681
 11
2864.505137
 21
133.553681
  0
TEXT
  8
CSLAYER1
 62
     5
 10
2868.936796
 20
141.164852
 40
4.713448
 41
1.951056
  1
M
 50
0.000000
 51
0.000000
  7
EASYDRAW_FONT
 72
     5
 11
2875.067598
 21
141.164852
  0
TEXT
  8
CSLAYER1
 62
     5
 10
2878.588183
 20
141.106581
 40
4.626621
 41
0.778201
  1
T
 50
0.000000
 51
0.000000
  7
EASYDRAW_FONT
 72
     5
 11
2880.988477
 21
141.106581
  0
TEXT
  8
CSLAYER1
 62
     5
 10
2881.353746
 20
141.141380
 40
4.696183
 41
1.055553
  1
E
 50
0.000000
 51
0.000000
  7
EASYDRAW_FONT
 72
     5
 11
2884.658461
 21
141.141380
  0
TEXT
  8
CSLAYER1
 62
     5
 10
2884.469927
 20
142.757224
 40
0.348283
 41
9.375319
  1
-
 50
0.000000
 51
0.000000
  7
EASYDRAW_FONT
 72
     5
 11
2886.646772
 21
142.757224
  0
TEXT
  8
CSLAYER1
 62
     5
 10
2886.284137
 20
141.110034
 40
4.861659
 41
1.298502
  1
H
 50
0.000000
 51
0.000000
  7
EASYDRAW_FONT
 72
     5
 11
2890.492719
 21
141.110034
  0
TEXT
  8
CSLAYER1
 62
     5
 10
2890.360152
 20
141.140412
 40
4.843139
 41
1.269236
  1
A
 50
0.000000
 51
0.000000
  7
EASYDRAW_FONT
 72
     5
 11
2894.458208
 21
141.140412
  0
TEXT
  8
CSLAYER1
 62
     5
 10
2894.066308
 20
141.098885
 40
4.825362
 41
1.490144
  1
N
 50
0.000000
 51
0.000000
  7
EASYDRAW_FONT
 72
     5
 11
2898.859962
 21
141.098885
  0
TEXT
  8
CSLAYER1
 62
     5
 10
2874.857765
 20
141.076312
 40
4.982325
 41
1.177443
  1
A
 50
0.000000
 51
0.000000
  7
EASYDRAW_FONT
 72
     5
 11
2878.768700
 21
141.076312
  0
TEXT
  8
CSLAYER1
 62
     5
 10
2869.303810
 20
134.081073
 40
4.982325
 41
1.177443
  1
A
 50
0.000000
 51
0.000000
  7
EASYDRAW_FONT
 72
     5
 11
2873.214745
 21
134.081073
  0
TEXT
  8
CSLAYER1
 62
     5
 10
2882.088234
 20
134.109393
 40
4.982325
 41
1.177443
  1
A
 50
0.000000
 51
0.000000
  7
EASYDRAW_FONT
 72
     5
 11
2885.999168
 21
134.109393
  0
TEXT
  8
CSLAYER1
 62
     5
 10
2885.848778
 20
134.166390
 40
4.825362
 41
1.490144
  1
N
 50
0.000000
 51
0.000000
  7
EASYDRAW_FONT
 72
     5
 11
2890.642433
 21
134.166390
  0
TEXT
  8
CSLAYER1
 62
     5
 10
2894.751114
 20
134.174785
 40
4.841775
 41
1.184218
  1
E
 50
0.000000
 51
0.000000
  7
EASYDRAW_FONT
 72
     5
 11
2898.573593
 21
134.174785
  0
TEXT
  8
CSLAYER1
 62
     5
 10
2873.584364
 20
134.079748
 40
4.947865
 41
1.093992
  1
D
 50
0.000000
 51
0.000000
  7
EASYDRAW_FONT
 72
     5
 11
2877.192980
 21
134.079748
  0
TEXT
  8
CSLAYER1
 62
     5
 10
2877.986722
 20
134.074363
 40
4.924210
 41
1.228195
  1
V
 50
0.000000
 51
0.000000
  7
EASYDRAW_FONT
 72
     5
 11
2882.018649
 21
134.074363
  0
TEXT
  8
CSLAYER1
 62
     5
 10
2890.211923
 20
134.095095
 40
5.032894
 41
1.481023
  1
C
 50
0.000000
 51
0.000000
  7
EASYDRAW_FONT
 72
     5
 11
2895.181143
 21
134.095095
  0
LINE
  8
CSLAYER1
  6
CONTINUOUS
 62
     5
 10
2880.842292
 20
145.155498
 11
2879.830230
 21
145.155498
  0
LINE
  8
CSLAYER1
  6
CONTINUOUS
 62
     3
 10
2829.940530
 20
179.380769
 11
2879.738357
 21
179.380769
  0
LINE
  8
CSLAYER1
  6
CONTINUOUS
 62
     3
 10
2822.828167
 20
177.780769
 11
2890.818048
 21
177.780769
  0
LINE
  8
CSLAYER1
  6
CONTINUOUS
 62
     3
 10
2815.379762
 20
176.180769
 11
2860.803072
 21
176.180769
  0
LINE
  8
CSLAYER1
  6
CONTINUOUS
 62
     3
 10
2873.764622
 20
176.180769
 11
2883.351226
 21
176.180769
  0
LINE
  8
CSLAYER1
  6
CONTINUOUS
 62
     3
 10
2887.660359
 20
176.180769
 11
2896.173356
 21
176.180769
  0
LINE
  8
CSLAYER1
  6
CONTINUOUS
 62
     3
 10
2816.782901
 20
174.580769
 11
2873.489370
 21
174.580769
  0
LINE
  8
CSLAYER1
  6
CONTINUOUS
 62
     3
 10
2893.669509
 20
174.580769
 11
2899.775754
 21
174.580769
  0
LINE
  8
CSLAYER1
  6
CONTINUOUS
 62
     3
 10
2814.870567
 20
172.980769
 11
2887.624918
 21
172.980769
  0
LINE
  8
CSLAYER1
  6
CONTINUOUS
 62
     3
 10
2899.570807
 20
172.980769
 11
2901.804529
 21
172.980769
  0
LINE
  8
CSLAYER1
  6
CONTINUOUS
 62
     3
 10
2813.808342
 20
171.380769
 11
2895.336774
 21
171.380769
  0
LINE
  8
CSLAYER1
  6
CONTINUOUS
 62
     3
 10
2815.484009
 20
169.780769
 11
2900.146083
 21
169.780769
  0
LINE
  8
CSLAYER1
  6
CONTINUOUS
 62
     3
 10
2816.651577
 20
168.180769
 11
2875.764956
 21
168.180769
  0
LINE
  8
CSLAYER1
  6
CONTINUOUS
 62
     3
 10
2891.264721
 20
168.180769
 11
2906.269044
 21
168.180769
  0
LINE
  8
CSLAYER1
  6
CONTINUOUS
 62
     3
 10
2816.896700
 20
166.580769
 11
2852.264956
 21
166.580769
  0
LINE
  8
CSLAYER1
  6
CONTINUOUS
 62
     3
 10
2898.833649
 20
166.580769
 11
2908.356252
 21
166.580769
  0
LINE
  8
CSLAYER1
  6
CONTINUOUS
 62
     3
 10
2817.103025
 20
164.980769
 11
2830.568199
 21
164.980769
  0
LINE
  8
CSLAYER1
  6
CONTINUOUS
 62
     3
 10
2906.293998
 20
164.980769
 11
2912.779016
 21
164.980769
  0
LINE
  8
CSLAYER1
  6
CONTINUOUS
 62
     3
 10
2914.356992
 20
163.380769
 11
2916.525846
 21
163.380769
  0
ENDBLK
  8
0
  0
BLOCK
  8
CSLAYER1
  2
BLKF0001
 70
   64
 10
0.0
 20
0.0
 30
0.0
  0
LINE
  8
CSLAYER1
  6
CONTINUOUS
 62
     5
 10
3483.453660
 20
1732.142002
 11
2603.453660
 21
1732.142002
  0
TEXT
  8
CSLAYER1
 62
     3
 10
3080.836670
 20
1737.792114
 40
40.000000
 41
0.832500
  1
１０Ｒ４／１３
 50
0.000000
 51
0.000000
  7
EASYDRAW_FONT
 72
     5
 11
3302.836670
 21
1737.792114
  0
ENDBLK
  8
0
  0
BLOCK
  8
CSLAYER1
  2
BLKF0002
 70
   64
 10
0.0
 20
0.0
 30
0.0
  0
LINE
  8
CSLAYER1
  6
CONTINUOUS
 62
     7
 10
800.160997
 20
2061.785271
 11
813.668023
 21
2068.884374
  0
LINE
  8
CSLAYER1
  6
CONTINUOUS
 62
     7
 10
813.668023
 20
2068.884374
 11
828.202369
 21
2075.281241
  0
LINE
  8
CSLAYER1
  6
CONTINUOUS
 62
     7
 10
828.202369
 20
2075.281241
 11
843.653421
 21
2080.927186
  0
LINE
  8
CSLAYER1
  6
CONTINUOUS
 62
     7
 10
843.653421
 20
2080.927186
 11
859.903586
 21
2085.779241
  0
LINE
  8
CSLAYER1
  6
CONTINUOUS
 62
     7
 10
859.903586
 20
2085.779241
 11
876.829191
 21
2089.800480
  0
LINE
  8
CSLAYER1
  6
CONTINUOUS
 62
     7
 10
876.829191
 20
2089.800480
 11
894.301422
 21
2092.960297
  0
LINE
  8
CSLAYER1
  6
CONTINUOUS
 62
     7
 10
894.301422
 20
2092.960297
 11
912.187304
 21
2095.234645
  0
LINE
  8
CSLAYER1
  6
CONTINUOUS
 62
     7
 10
912.187304
 20
2095.234645
 11
930.350715
 21
2096.606214
  0
LINE
  8
CSLAYER1
  6
CONTINUOUS
 62
     7
 10
930.350715
 20
2096.606214
 11
948.653421
 21
2097.064567
  0
LINE
  8
CSLAYER1
  6
CONTINUOUS
 62
     7
 10
948.653421
 20
2097.064567
 11
966.956127
 21
2096.606214
  0
LINE
  8
CSLAYER1
  6
CONTINUOUS
 62
     7
 10
966.956127
 20
2096.606214
 11
985.119538
 21
2095.234645
  0
LINE
  8
CSLAYER1
  6
CONTINUOUS
 62
     7
 10
985.119538
 20
2095.234645
 11
1003.005421
 21
2092.960297
  0
LINE
  8
CSLAYER1
  6
CONTINUOUS
 62
     7
 10
1003.005421
 20
2092.960297
 11
1020.477651
 21
2089.800480
  0
LINE
  8
CSLAYER1
  6
CONTINUOUS
 62
     7
 10
1020.477651
 20
2089.800480
 11
1036.174481
 21
2086.071178
  0
LINE
  8
CSLAYER1
  6
CONTINUOUS
 62
     7
 10
791.251452
 20
2066.895576
 11
805.568899
 21
2074.420626
  0
LINE
  8
CSLAYER1
  6
CONTINUOUS
 62
     7
 10
805.568899
 20
2074.420626
 11
820.975306
 21
2081.201304
  0
LINE
  8
CSLAYER1
  6
CONTINUOUS
 62
     7
 10
820.975306
 20
2081.201304
 11
837.353421
 21
2087.186006
  0
LINE
  8
CSLAYER1
  6
CONTINUOUS
 62
     7
 10
837.353421
 20
2087.186006
 11
854.578596
 21
2092.329185
  0
LINE
  8
CSLAYER1
  6
CONTINUOUS
 62
     7
 10
854.578596
 20
2092.329185
 11
872.519737
 21
2096.591698
  0
LINE
  8
CSLAYER1
  6
CONTINUOUS
 62
     7
 10
872.519737
 20
2096.591698
 11
891.040302
 21
2099.941104
  0
LINE
  8
CSLAYER1
  6
CONTINUOUS
 62
     7
 10
891.040302
 20
2099.941104
 11
909.999337
 21
2102.351913
  0
LINE
  8
CSLAYER1
  6
CONTINUOUS
 62
     7
 10
909.999337
 20
2102.351913
 11
929.252553
 21
2103.805776
  0
LINE
  8
CSLAYER1
  6
CONTINUOUS
 62
     7
 10
929.252553
 20
2103.805776
 11
948.653421
 21
2104.291630
  0
LINE
  8
CSLAYER1
  6
CONTINUOUS
 62
     7
 10
948.653421
 20
2104.291630
 11
968.054289
 21
2103.805776
  0
LINE
  8
CSLAYER1
  6
CONTINUOUS
 62
     7
 10
968.054289
 20
2103.805776
 11
987.307505
 21
2102.351913
  0
LINE
  8
CSLAYER1
  6
CONTINUOUS
 62
     7
 10
987.307505
 20
2102.351913
 11
1006.266541
 21
2099.941104
  0
LINE
  8
CSLAYER1
  6
CONTINUOUS
 62
     7
 10
1006.266541
 20
2099.941104
 11
1024.787105
 21
2096.591698
  0
LINE
  8
CSLAYER1
  6
CONTINUOUS
 62
     7
 10
1024.787105
 20
2096.591698
 11
1036.174481
 21
2093.886249
  0
LINE
  8
CSLAYER1
  6
CONTINUOUS
 62
     7
 10
774.697702
 20
2045.860677
 11
800.295569
 21
2061.856000
  0
LINE
  8
CSLAYER1
  6
CONTINUOUS
 62
     7
 10
774.697702
 20
2056.537483
 11
791.394098
 21
2066.970549
  0
ENDBLK
  8
0
  0
BLOCK
  8
CSLAYER1
  2
BLKF0003
 70
   64
 10
0.0
 20
0.0
 30
0.0
  0
LINE
  8
CSLAYER1
  6
CONTINUOUS
 62
     7
 10
643.127089
 20
2060.826385
 11
643.354769
 21
2060.977273
  0
LINE
  8
CSLAYER1
  6
CONTINUOUS
 62
     7
 10
643.354769
 20
2060.977273
 11
643.563882
 21
2061.156169
  0
LINE
  8
CSLAYER1
  6
CONTINUOUS
 62
     7
 10
643.563882
 20
2061.156169
 11
643.752838
 21
2061.361710
  0
LINE
  8
CSLAYER1
  6
CONTINUOUS
 62
     7
 10
643.752838
 20
2061.361710
 11
643.920199
 21
2061.592334
  0
LINE
  8
CSLAYER1
  6
CONTINUOUS
 62
     7
 10
643.920199
 20
2061.592334
 11
644.064690
 21
2061.846284
  0
LINE
  8
CSLAYER1
  6
CONTINUOUS
 62
     7
 10
644.064690
 20
2061.846284
 11
644.185212
 21
2062.121628
  0
LINE
  8
CSLAYER1
  6
CONTINUOUS
 62
     7
 10
644.185212
 20
2062.121628
 11
644.280849
 21
2062.416270
  0
LINE
  8
CSLAYER1
  6
CONTINUOUS
 62
     7
 10
644.280849
 20
2062.416270
 11
644.350871
 21
2062.727968
  0
LINE
  8
CSLAYER1
  6
CONTINUOUS
 62
     7
 10
644.350871
 20
2062.727968
 11
644.394746
 21
2063.054350
  0
LINE
  8
CSLAYER1
  6
CONTINUOUS
 62
     7
 10
644.394746
 20
2063.054350
 11
644.412141
 21
2063.392932
  0
LINE
  8
CSLAYER1
  6
CONTINUOUS
 62
     7
 10
644.412141
 20
2063.392932
 11
644.402922
 21
2063.741136
  0
LINE
  8
CSLAYER1
  6
CONTINUOUS
 62
     7
 10
644.402922
 20
2063.741136
 11
644.367161
 21
2064.096314
  0
LINE
  8
CSLAYER1
  6
CONTINUOUS
 62
     7
 10
644.367161
 20
2064.096314
 11
644.305128
 21
2064.455761
  0
LINE
  8
CSLAYER1
  6
CONTINUOUS
 62
     7
 10
644.305128
 20
2064.455761
 11
644.217297
 21
2064.816742
  0
LINE
  8
CSLAYER1
  6
CONTINUOUS
 62
     7
 10
644.217297
 20
2064.816742
 11
644.104335
 21
2065.176511
  0
LINE
  8
CSLAYER1
  6
CONTINUOUS
 62
     7
 10
644.104335
 20
2065.176511
 11
643.967103
 21
2065.532328
  0
LINE
  8
CSLAYER1
  6
CONTINUOUS
 62
     7
 10
643.967103
 20
2065.532328
 11
643.806645
 21
2065.881486
  0
LINE
  8
CSLAYER1
  6
CONTINUOUS
 62
     7
 10
643.806645
 20
2065.881486
 11
643.624181
 21
2066.221327
  0
LINE
  8
CSLAYER1
  6
CONTINUOUS
 62
     7
 10
643.624181
 20
2066.221327
 11
643.421102
 21
2066.549266
  0
LINE
  8
CSLAYER1
  6
CONTINUOUS
 62
     7
 10
643.421102
 20
2066.549266
 11
643.198951
 21
2066.862806
  0
LINE
  8
CSLAYER1
  6
CONTINUOUS
 62
     7
 10
643.198951
 20
2066.862806
 11
642.959420
 21
2067.159561
  0
LINE
  8
CSLAYER1
  6
CONTINUOUS
 62
     7
 10
642.959420
 20
2067.159561
 11
642.704333
 21
2067.437273
  0
LINE
  8
CSLAYER1
  6
CONTINUOUS
 62
     7
 10
642.704333
 20
2067.437273
 11
642.435629
 21
2067.693828
  0
LINE
  8
CSLAYER1
  6
CONTINUOUS
 62
     7
 10
642.435629
 20
2067.693828
 11
642.155355
 21
2067.927273
  0
LINE
  8
CSLAYER1
  6
CONTINUOUS
 62
     7
 10
642.155355
 20
2067.927273
 11
641.865643
 21
2068.135832
  0
LINE
  8
CSLAYER1
  6
CONTINUOUS
 62
     7
 10
641.865643
 20
2068.135832
 11
641.568698
 21
2068.317918
  0
LINE
  8
CSLAYER1
  6
CONTINUOUS
 62
     7
 10
641.568698
 20
2068.317918
 11
641.266781
 21
2068.472145
  0
LINE
  8
CSLAYER1
  6
CONTINUOUS
 62
     7
 10
641.266781
 20
2068.472145
 11
640.962188
 21
2068.597339
  0
LINE
  8
CSLAYER1
  6
CONTINUOUS
 62
     7
 10
640.962188
 20
2068.597339
 11
640.657239
 21
2068.692547
  0
LINE
  8
CSLAYER1
  6
CONTINUOUS
 62
     7
 10
640.657239
 20
2068.692547
 11
640.354253
 21
2068.757044
  0
LINE
  8
CSLAYER1
  6
CONTINUOUS
 62
     7
 10
640.354253
 20
2068.757044
 11
640.055537
 21
2068.790341
  0
LINE
  8
CSLAYER1
  6
CONTINUOUS
 62
     7
 10
640.055537
 20
2068.790341
 11
639.763364
 21
2068.792183
  0
LINE
  8
CSLAYER1
  6
CONTINUOUS
 62
     7
 10
639.763364
 20
2068.792183
 11
639.479958
 21
2068.762556
  0
LINE
  8
CSLAYER1
  6
CONTINUOUS
 62
     7
 10
639.479958
 20
2068.762556
 11
639.207476
 21
2068.701686
  0
LINE
  8
CSLAYER1
  6
CONTINUOUS
 62
     7
 10
639.207476
 20
2068.701686
 11
638.947991
 21
2068.610036
  0
LINE
  8
CSLAYER1
  6
CONTINUOUS
 62
     7
 10
638.947991
 20
2068.610036
 11
638.703478
 21
2068.488304
  0
ENDBLK
  8
0
  0
BLOCK
  8
CSLAYER1
  2
BLKF0004
 70
   64
 10
0.0
 20
0.0
 30
0.0
  0
LINE
  8
CSLAYER1
  6
CONTINUOUS
 62
     7
 10
635.756586
 20
2066.786915
 11
635.528907
 21
2066.636027
  0
LINE
  8
CSLAYER1
  6
CONTINUOUS
 62
     7
 10
635.528907
 20
2066.636027
 11
635.319793
 21
2066.457132
  0
LINE
  8
CSLAYER1
  6
CONTINUOUS
 62
     7
 10
635.319793
 20
2066.457132
 11
635.130837
 21
2066.251590
  0
LINE
  8
CSLAYER1
  6
CONTINUOUS
 62
     7
 10
635.130837
 20
2066.251590
 11
634.963477
 21
2066.020967
  0
LINE
  8
CSLAYER1
  6
CONTINUOUS
 62
     7
 10
634.963477
 20
2066.020967
 11
634.818986
 21
2065.767017
  0
LINE
  8
CSLAYER1
  6
CONTINUOUS
 62
     7
 10
634.818986
 20
2065.767017
 11
634.698463
 21
2065.491673
  0
LINE
  8
CSLAYER1
  6
CONTINUOUS
 62
     7
 10
634.698463
 20
2065.491673
 11
634.602827
 21
2065.197030
  0
LINE
  8
CSLAYER1
  6
CONTINUOUS
 62
     7
 10
634.602827
 20
2065.197030
 11
634.532805
 21
2064.885332
  0
LINE
  8
CSLAYER1
  6
CONTINUOUS
 62
     7
 10
634.532805
 20
2064.885332
 11
634.488929
 21
2064.558950
  0
LINE
  8
CSLAYER1
  6
CONTINUOUS
 62
     7
 10
634.488929
 20
2064.558950
 11
634.471535
 21
2064.220369
  0
LINE
  8
CSLAYER1
  6
CONTINUOUS
 62
     7
 10
634.471535
 20
2064.220369
 11
634.480753
 21
2063.872164
  0
LINE
  8
CSLAYER1
  6
CONTINUOUS
 62
     7
 10
634.480753
 20
2063.872164
 11
634.516515
 21
2063.516987
  0
LINE
  8
CSLAYER1
  6
CONTINUOUS
 62
     7
 10
634.516515
 20
2063.516987
 11
634.578547
 21
2063.157539
  0
LINE
  8
CSLAYER1
  6
CONTINUOUS
 62
     7
 10
634.578547
 20
2063.157539
 11
634.666379
 21
2062.796558
  0
LINE
  8
CSLAYER1
  6
CONTINUOUS
 62
     7
 10
634.666379
 20
2062.796558
 11
634.779340
 21
2062.436790
  0
LINE
  8
CSLAYER1
  6
CONTINUOUS
 62
     7
 10
634.779340
 20
2062.436790
 11
634.916572
 21
2062.080973
  0
LINE
  8
CSLAYER1
  6
CONTINUOUS
 62
     7
 10
634.916572
 20
2062.080973
 11
635.077031
 21
2061.731815
  0
LINE
  8
CSLAYER1
  6
CONTINUOUS
 62
     7
 10
635.077031
 20
2061.731815
 11
635.259494
 21
2061.391973
  0
LINE
  8
CSLAYER1
  6
CONTINUOUS
 62
     7
 10
635.259494
 20
2061.391973
 11
635.462574
 21
2061.064034
  0
LINE
  8
CSLAYER1
  6
CONTINUOUS
 62
     7
 10
635.462574
 20
2061.064034
 11
635.684725
 21
2060.750494
  0
LINE
  8
CSLAYER1
  6
CONTINUOUS
 62
     7
 10
635.684725
 20
2060.750494
 11
635.924255
 21
2060.453739
  0
LINE
  8
CSLAYER1
  6
CONTINUOUS
 62
     7
 10
635.924255
 20
2060.453739
 11
636.179343
 21
2060.176027
  0
LINE
  8
CSLAYER1
  6
CONTINUOUS
 62
     7
 10
636.179343
 20
2060.176027
 11
636.448046
 21
2059.919473
  0
LINE
  8
CSLAYER1
  6
CONTINUOUS
 62
     7
 10
636.448046
 20
2059.919473
 11
636.728320
 21
2059.686027
  0
LINE
  8
CSLAYER1
  6
CONTINUOUS
 62
     7
 10
636.728320
 20
2059.686027
 11
637.018032
 21
2059.477468
  0
LINE
  8
CSLAYER1
  6
CONTINUOUS
 62
     7
 10
637.018032
 20
2059.477468
 11
637.314977
 21
2059.295382
  0
LINE
  8
CSLAYER1
  6
CONTINUOUS
 62
     7
 10
637.314977
 20
2059.295382
 11
637.616895
 21
2059.141155
  0
LINE
  8
CSLAYER1
  6
CONTINUOUS
 62
     7
 10
637.616895
 20
2059.141155
 11
637.921487
 21
2059.015962
  0
LINE
  8
CSLAYER1
  6
CONTINUOUS
 62
     7
 10
637.921487
 20
2059.015962
 11
638.226437
 21
2058.920754
  0
LINE
  8
CSLAYER1
  6
CONTINUOUS
 62
     7
 10
638.226437
 20
2058.920754
 11
638.529423
 21
2058.856256
  0
LINE
  8
CSLAYER1
  6
CONTINUOUS
 62
     7
 10
638.529423
 20
2058.856256
 11
638.828139
 21
2058.822960
  0
LINE
  8
CSLAYER1
  6
CONTINUOUS
 62
     7
 10
638.828139
 20
2058.822960
 11
639.120312
 21
2058.821118
  0
LINE
  8
CSLAYER1
  6
CONTINUOUS
 62
     7
 10
639.120312
 20
2058.821118
 11
639.403718
 21
2058.850744
  0
LINE
  8
CSLAYER1
  6
CONTINUOUS
 62
     7
 10
639.403718
 20
2058.850744
 11
639.676200
 21
2058.911614
  0
LINE
  8
CSLAYER1
  6
CONTINUOUS
 62
     7
 10
639.676200
 20
2058.911614
 11
639.935685
 21
2059.003264
  0
LINE
  8
CSLAYER1
  6
CONTINUOUS
 62
     7
 10
639.935685
 20
2059.003264
 11
640.180197
 21
2059.124996
  0
LINE
  8
CSLAYER1
  6
CONTINUOUS
 62
     7
 10
640.180197
 20
2059.124996
 11
640.407877
 21
2059.275884
  0
LINE
  8
CSLAYER1
  6
CONTINUOUS
 62
     7
 10
640.407877
 20
2059.275884
 11
640.616990
 21
2059.454780
  0
LINE
  8
CSLAYER1
  6
CONTINUOUS
 62
     7
 10
640.616990
 20
2059.454780
 11
640.805946
 21
2059.660321
  0
LINE
  8
CSLAYER1
  6
CONTINUOUS
 62
     7
 10
640.805946
 20
2059.660321
 11
640.973307
 21
2059.890945
  0
LINE
  8
CSLAYER1
  6
CONTINUOUS
 62
     7
 10
640.973307
 20
2059.890945
 11
641.117798
 21
2060.144895
  0
LINE
  8
CSLAYER1
  6
CONTINUOUS
 62
     7
 10
641.117798
 20
2060.144895
 11
641.238320
 21
2060.420239
  0
LINE
  8
CSLAYER1
  6
CONTINUOUS
 62
     7
 10
641.238320
 20
2060.420239
 11
641.333957
 21
2060.714881
  0
LINE
  8
CSLAYER1
  6
CONTINUOUS
 62
     7
 10
641.333957
 20
2060.714881
 11
641.403979
 21
2061.026579
  0
LINE
  8
CSLAYER1
  6
CONTINUOUS
 62
     7
 10
641.403979
 20
2061.026579
 11
641.447854
 21
2061.352961
  0
LINE
  8
CSLAYER1
  6
CONTINUOUS
 62
     7
 10
641.447854
 20
2061.352961
 11
641.465249
 21
2061.691543
  0
LINE
  8
CSLAYER1
  6
CONTINUOUS
 62
     7
 10
641.465249
 20
2061.691543
 11
641.456030
 21
2062.039747
  0
LINE
  8
CSLAYER1
  6
CONTINUOUS
 62
     7
 10
641.456030
 20
2062.039747
 11
641.420269
 21
2062.394925
  0
LINE
  8
CSLAYER1
  6
CONTINUOUS
 62
     7
 10
641.420269
 20
2062.394925
 11
641.358236
 21
2062.754372
  0
LINE
  8
CSLAYER1
  6
CONTINUOUS
 62
     7
 10
641.358236
 20
2062.754372
 11
641.270405
 21
2063.115353
  0
LINE
  8
CSLAYER1
  6
CONTINUOUS
 62
     7
 10
641.270405
 20
2063.115353
 11
641.157443
 21
2063.475122
  0
LINE
  8
CSLAYER1
  6
CONTINUOUS
 62
     7
 10
641.157443
 20
2063.475122
 11
641.020211
 21
2063.830939
  0
LINE
  8
CSLAYER1
  6
CONTINUOUS
 62
     7
 10
641.020211
 20
2063.830939
 11
640.859753
 21
2064.180097
  0
LINE
  8
CSLAYER1
  6
CONTINUOUS
 62
     7
 10
640.859753
 20
2064.180097
 11
640.677289
 21
2064.519938
  0
LINE
  8
CSLAYER1
  6
CONTINUOUS
 62
     7
 10
640.677289
 20
2064.519938
 11
640.474210
 21
2064.847877
  0
LINE
  8
CSLAYER1
  6
CONTINUOUS
 62
     7
 10
640.474210
 20
2064.847877
 11
640.252059
 21
2065.161417
  0
LINE
  8
CSLAYER1
  6
CONTINUOUS
 62
     7
 10
640.252059
 20
2065.161417
 11
640.012528
 21
2065.458172
  0
LINE
  8
CSLAYER1
  6
CONTINUOUS
 62
     7
 10
640.012528
 20
2065.458172
 11
639.757441
 21
2065.735884
  0
LINE
  8
CSLAYER1
  6
CONTINUOUS
 62
     7
 10
639.757441
 20
2065.735884
 11
639.488737
 21
2065.992439
  0
LINE
  8
CSLAYER1
  6
CONTINUOUS
 62
     7
 10
639.488737
 20
2065.992439
 11
639.208463
 21
2066.225884
  0
LINE
  8
CSLAYER1
  6
CONTINUOUS
 62
     7
 10
639.208463
 20
2066.225884
 11
638.918751
 21
2066.434444
  0
LINE
  8
CSLAYER1
  6
CONTINUOUS
 62
     7
 10
638.918751
 20
2066.434444
 11
638.621806
 21
2066.616529
  0
LINE
  8
CSLAYER1
  6
CONTINUOUS
 62
     7
 10
638.621806
 20
2066.616529
 11
638.319889
 21
2066.770756
  0
LINE
  8
CSLAYER1
  6
CONTINUOUS
 62
     7
 10
638.319889
 20
2066.770756
 11
638.015296
 21
2066.895950
  0
LINE
  8
CSLAYER1
  6
CONTINUOUS
 62
     7
 10
638.015296
 20
2066.895950
 11
637.710347
 21
2066.991158
  0
LINE
  8
CSLAYER1
  6
CONTINUOUS
 62
     7
 10
637.710347
 20
2066.991158
 11
637.407361
 21
2067.055655
  0
LINE
  8
CSLAYER1
  6
CONTINUOUS
 62
     7
 10
637.407361
 20
2067.055655
 11
637.108645
 21
2067.088952
  0
LINE
  8
CSLAYER1
  6
CONTINUOUS
 62
     7
 10
637.108645
 20
2067.088952
 11
636.816472
 21
2067.090794
  0
LINE
  8
CSLAYER1
  6
CONTINUOUS
 62
     7
 10
636.816472
 20
2067.090794
 11
636.533066
 21
2067.061167
  0
LINE
  8
CSLAYER1
  6
CONTINUOUS
 62
     7
 10
636.533066
 20
2067.061167
 11
636.260584
 21
2067.000297
  0
LINE
  8
CSLAYER1
  6
CONTINUOUS
 62
     7
 10
636.260584
 20
2067.000297
 11
636.001099
 21
2066.908647
  0
LINE
  8
CSLAYER1
  6
CONTINUOUS
 62
     7
 10
636.001099
 20
2066.908647
 11
635.756586
 21
2066.786915
  0
ENDBLK
  8
0
  0
BLOCK
  8
CSLAYER1
  2
BLKF0005
 70
   64
 10
0.0
 20
0.0
 30
0.0
  0
LINE
  8
CSLAYER1
  6
CONTINUOUS
 62
     7
 10
644.382672
 20
2059.307076
 11
644.668405
 21
2059.551520
  0
LINE
  8
CSLAYER1
  6
CONTINUOUS
 62
     7
 10
644.668405
 20
2059.551520
 11
644.926596
 21
2059.832373
  0
LINE
  8
CSLAYER1
  6
CONTINUOUS
 62
     7
 10
644.926596
 20
2059.832373
 11
645.155278
 21
2060.147498
  0
LINE
  8
CSLAYER1
  6
CONTINUOUS
 62
     7
 10
645.155278
 20
2060.147498
 11
645.352711
 21
2060.494497
  0
LINE
  8
CSLAYER1
  6
CONTINUOUS
 62
     7
 10
645.352711
 20
2060.494497
 11
645.517394
 21
2060.870728
  0
LINE
  8
CSLAYER1
  6
CONTINUOUS
 62
     7
 10
645.517394
 20
2060.870728
 11
645.648072
 21
2061.273329
  0
LINE
  8
CSLAYER1
  6
CONTINUOUS
 62
     7
 10
645.648072
 20
2061.273329
 11
645.743751
 21
2061.699235
  0
LINE
  8
CSLAYER1
  6
CONTINUOUS
 62
     7
 10
645.743751
 20
2061.699235
 11
645.803702
 21
2062.145205
  0
LINE
  8
CSLAYER1
  6
CONTINUOUS
 62
     7
 10
645.803702
 20
2062.145205
 11
645.827470
 21
2062.607844
  0
LINE
  8
CSLAYER1
  6
CONTINUOUS
 62
     7
 10
645.827470
 20
2062.607844
 11
645.814874
 21
2063.083633
  0
LINE
  8
CSLAYER1
  6
CONTINUOUS
 62
     7
 10
645.814874
 20
2063.083633
 11
645.766009
 21
2063.568949
  0
LINE
  8
CSLAYER1
  6
CONTINUOUS
 62
     7
 10
645.766009
 20
2063.568949
 11
645.681247
 21
2064.060100
  0
LINE
  8
CSLAYER1
  6
CONTINUOUS
 62
     7
 10
645.681247
 20
2064.060100
 11
645.561234
 21
2064.553346
  0
LINE
  8
CSLAYER1
  6
CONTINUOUS
 62
     7
 10
645.561234
 20
2064.553346
 11
645.406883
 21
2065.044936
  0
LINE
  8
CSLAYER1
  6
CONTINUOUS
 62
     7
 10
645.406883
 20
2065.044936
 11
645.219368
 21
2065.531126
  0
LINE
  8
CSLAYER1
  6
CONTINUOUS
 62
     7
 10
645.219368
 20
2065.531126
 11
645.000117
 21
2066.008217
  0
LINE
  8
CSLAYER1
  6
CONTINUOUS
 62
     7
 10
645.000117
 20
2066.008217
 11
644.750798
 21
2066.472579
  0
LINE
  8
CSLAYER1
  6
CONTINUOUS
 62
     7
 10
644.750798
 20
2066.472579
 11
644.473309
 21
2066.920676
  0
LINE
  8
CSLAYER1
  6
CONTINUOUS
 62
     7
 10
644.473309
 20
2066.920676
 11
644.169762
 21
2067.349098
  0
LINE
  8
CSLAYER1
  6
CONTINUOUS
 62
     7
 10
644.169762
 20
2067.349098
 11
643.842466
 21
2067.754586
  0
LINE
  8
CSLAYER1
  6
CONTINUOUS
 62
     7
 10
643.842466
 20
2067.754586
 11
643.493913
 21
2068.134053
  0
LINE
  8
CSLAYER1
  6
CONTINUOUS
 62
     7
 10
643.493913
 20
2068.134053
 11
643.126755
 21
2068.484611
  0
LINE
  8
CSLAYER1
  6
CONTINUOUS
 62
     7
 10
643.126755
 20
2068.484611
 11
642.743787
 21
2068.803591
  0
LINE
  8
CSLAYER1
  6
CONTINUOUS
 62
     7
 10
642.743787
 20
2068.803591
 11
642.347923
 21
2069.088568
  0
LINE
  8
CSLAYER1
  6
CONTINUOUS
 62
     7
 10
642.347923
 20
2069.088568
 11
641.942176
 21
2069.337371
  0
LINE
  8
CSLAYER1
  6
CONTINUOUS
 62
     7
 10
641.942176
 20
2069.337371
 11
641.529634
 21
2069.548107
  0
LINE
  8
CSLAYER1
  6
CONTINUOUS
 62
     7
 10
641.529634
 20
2069.548107
 11
641.113438
 21
2069.719172
  0
LINE
  8
CSLAYER1
  6
CONTINUOUS
 62
     7
 10
641.113438
 20
2069.719172
 11
640.696753
 21
2069.849265
  0
LINE
  8
CSLAYER1
  6
CONTINUOUS
 62
     7
 10
640.696753
 20
2069.849265
 11
640.282751
 21
2069.937395
  0
LINE
  8
CSLAYER1
  6
CONTINUOUS
 62
     7
 10
640.282751
 20
2069.937395
 11
639.874584
 21
2069.982891
  0
LINE
  8
CSLAYER1
  6
CONTINUOUS
 62
     7
 10
639.874584
 20
2069.982891
 11
639.475358
 21
2069.985408
  0
LINE
  8
CSLAYER1
  6
CONTINUOUS
 62
     7
 10
639.475358
 20
2069.985408
 11
639.088111
 21
2069.944926
  0
LINE
  8
CSLAYER1
  6
CONTINUOUS
 62
     7
 10
639.088111
 20
2069.944926
 11
638.715789
 21
2069.861753
  0
LINE
  8
CSLAYER1
  6
CONTINUOUS
 62
     7
 10
638.715789
 20
2069.861753
 11
638.361228
 21
2069.736523
  0
LINE
  8
CSLAYER1
  6
CONTINUOUS
 62
     7
 10
638.361228
 20
2069.736523
 11
638.027125
 21
2069.570187
  0
LINE
  8
CSLAYER1
  6
CONTINUOUS
 62
     7
 10
638.027125
 20
2069.570187
 11
637.716023
 21
2069.364013
  0
LINE
  8
CSLAYER1
  6
CONTINUOUS
 62
     7
 10
637.716023
 20
2069.364013
 11
637.430289
 21
2069.119569
  0
LINE
  8
CSLAYER1
  6
CONTINUOUS
 62
     7
 10
637.430289
 20
2069.119569
 11
637.172099
 21
2068.838716
  0
LINE
  8
CSLAYER1
  6
CONTINUOUS
 62
     7
 10
637.172099
 20
2068.838716
 11
636.943416
 21
2068.523591
  0
LINE
  8
CSLAYER1
  6
CONTINUOUS
 62
     7
 10
636.943416
 20
2068.523591
 11
636.745983
 21
2068.176592
  0
LINE
  8
CSLAYER1
  6
CONTINUOUS
 62
     7
 10
636.745983
 20
2068.176592
 11
636.581300
 21
2067.800361
  0
LINE
  8
CSLAYER1
  6
CONTINUOUS
 62
     7
 10
636.581300
 20
2067.800361
 11
636.450622
 21
2067.397760
  0
LINE
  8
CSLAYER1
  6
CONTINUOUS
 62
     7
 10
636.450622
 20
2067.397760
 11
636.396379
 21
2067.156300
  0
LINE
  8
CSLAYER1
  6
CONTINUOUS
 62
     7
 10
640.347746
 20
2059.236034
 11
640.569060
 21
2059.122982
  0
LINE
  8
CSLAYER1
  6
CONTINUOUS
 62
     7
 10
640.569060
 20
2059.122982
 11
640.985257
 21
2058.951917
  0
LINE
  8
CSLAYER1
  6
CONTINUOUS
 62
     7
 10
640.985257
 20
2058.951917
 11
641.401941
 21
2058.821824
  0
LINE
  8
CSLAYER1
  6
CONTINUOUS
 62
     7
 10
641.401941
 20
2058.821824
 11
641.815943
 21
2058.733694
  0
LINE
  8
CSLAYER1
  6
CONTINUOUS
 62
     7
 10
641.815943
 20
2058.733694
 11
642.224110
 21
2058.688198
  0
LINE
  8
CSLAYER1
  6
CONTINUOUS
 62
     7
 10
642.224110
 20
2058.688198
 11
642.623336
 21
2058.685681
  0
LINE
  8
CSLAYER1
  6
CONTINUOUS
 62
     7
 10
642.623336
 20
2058.685681
 11
643.010584
 21
2058.726163
  0
LINE
  8
CSLAYER1
  6
CONTINUOUS
 62
     7
 10
643.010584
 20
2058.726163
 11
643.382905
 21
2058.809336
  0
LINE
  8
CSLAYER1
  6
CONTINUOUS
 62
     7
 10
643.382905
 20
2058.809336
 11
643.713792
 21
2058.926205
  0
ENDBLK
  8
0
  0
BLOCK
  8
CSLAYER1
  2
BLKF0006
 70
   64
 10
0.0
 20
0.0
 30
0.0
  0
LINE
  8
CSLAYER1
  6
CONTINUOUS
 62
     7
 10
645.814508
 20
2060.103773
 11
646.208006
 21
2060.440409
  0
LINE
  8
CSLAYER1
  6
CONTINUOUS
 62
     7
 10
646.208006
 20
2060.440409
 11
646.466196
 21
2060.721262
  0
LINE
  8
CSLAYER1
  6
CONTINUOUS
 62
     7
 10
646.466196
 20
2060.721262
 11
646.694879
 21
2061.036387
  0
LINE
  8
CSLAYER1
  6
CONTINUOUS
 62
     7
 10
646.694879
 20
2061.036387
 11
646.892312
 21
2061.383386
  0
LINE
  8
CSLAYER1
  6
CONTINUOUS
 62
     7
 10
646.892312
 20
2061.383386
 11
647.056995
 21
2061.759617
  0
LINE
  8
CSLAYER1
  6
CONTINUOUS
 62
     7
 10
647.056995
 20
2061.759617
 11
647.187673
 21
2062.162218
  0
LINE
  8
CSLAYER1
  6
CONTINUOUS
 62
     7
 10
647.187673
 20
2062.162218
 11
647.283351
 21
2062.588124
  0
LINE
  8
CSLAYER1
  6
CONTINUOUS
 62
     7
 10
647.283351
 20
2062.588124
 11
647.343303
 21
2063.034094
  0
LINE
  8
CSLAYER1
  6
CONTINUOUS
 62
     7
 10
647.343303
 20
2063.034094
 11
647.367071
 21
2063.496733
  0
LINE
  8
CSLAYER1
  6
CONTINUOUS
 62
     7
 10
647.367071
 20
2063.496733
 11
647.354475
 21
2063.972522
  0
LINE
  8
CSLAYER1
  6
CONTINUOUS
 62
     7
 10
647.354475
 20
2063.972522
 11
647.305610
 21
2064.457838
  0
LINE
  8
CSLAYER1
  6
CONTINUOUS
 62
     7
 10
647.305610
 20
2064.457838
 11
647.220848
 21
2064.948988
  0
LINE
  8
CSLAYER1
  6
CONTINUOUS
 62
     7
 10
647.220848
 20
2064.948988
 11
647.100835
 21
2065.442235
  0
LINE
  8
CSLAYER1
  6
CONTINUOUS
 62
     7
 10
647.100835
 20
2065.442235
 11
646.946484
 21
2065.933825
  0
LINE
  8
CSLAYER1
  6
CONTINUOUS
 62
     7
 10
646.946484
 20
2065.933825
 11
646.758969
 21
2066.420015
  0
LINE
  8
CSLAYER1
  6
CONTINUOUS
 62
     7
 10
646.758969
 20
2066.420015
 11
646.539718
 21
2066.897106
  0
LINE
  8
CSLAYER1
  6
CONTINUOUS
 62
     7
 10
646.539718
 20
2066.897106
 11
646.290399
 21
2067.361467
  0
LINE
  8
CSLAYER1
  6
CONTINUOUS
 62
     7
 10
646.290399
 20
2067.361467
 11
646.012910
 21
2067.809564
  0
LINE
  8
CSLAYER1
  6
CONTINUOUS
 62
     7
 10
646.012910
 20
2067.809564
 11
645.709362
 21
2068.237987
  0
LINE
  8
CSLAYER1
  6
CONTINUOUS
 62
     7
 10
645.709362
 20
2068.237987
 11
645.382066
 21
2068.643475
  0
LINE
  8
CSLAYER1
  6
CONTINUOUS
 62
     7
 10
645.382066
 20
2068.643475
 11
645.033513
 21
2069.022942
  0
LINE
  8
CSLAYER1
  6
CONTINUOUS
 62
     7
 10
645.033513
 20
2069.022942
 11
644.666356
 21
2069.373499
  0
LINE
  8
CSLAYER1
  6
CONTINUOUS
 62
     7
 10
644.666356
 20
2069.373499
 11
644.283387
 21
2069.692480
  0
LINE
  8
CSLAYER1
  6
CONTINUOUS
 62
     7
 10
644.283387
 20
2069.692480
 11
643.887524
 21
2069.977457
  0
LINE
  8
CSLAYER1
  6
CONTINUOUS
 62
     7
 10
643.887524
 20
2069.977457
 11
643.481777
 21
2070.226260
  0
LINE
  8
CSLAYER1
  6
CONTINUOUS
 62
     7
 10
643.481777
 20
2070.226260
 11
643.069235
 21
2070.436996
  0
LINE
  8
CSLAYER1
  6
CONTINUOUS
 62
     7
 10
643.069235
 20
2070.436996
 11
642.653038
 21
2070.608061
  0
LINE
  8
CSLAYER1
  6
CONTINUOUS
 62
     7
 10
642.653038
 20
2070.608061
 11
642.236353
 21
2070.738154
  0
LINE
  8
CSLAYER1
  6
CONTINUOUS
 62
     7
 10
642.236353
 20
2070.738154
 11
641.822352
 21
2070.826284
  0
LINE
  8
CSLAYER1
  6
CONTINUOUS
 62
     7
 10
641.822352
 20
2070.826284
 11
641.414185
 21
2070.871780
  0
LINE
  8
CSLAYER1
  6
CONTINUOUS
 62
     7
 10
641.414185
 20
2070.871780
 11
641.014959
 21
2070.874297
  0
LINE
  8
CSLAYER1
  6
CONTINUOUS
 62
     7
 10
641.014959
 20
2070.874297
 11
640.627711
 21
2070.833815
  0
LINE
  8
CSLAYER1
  6
CONTINUOUS
 62
     7
 10
640.627711
 20
2070.833815
 11
640.255390
 21
2070.750642
  0
LINE
  8
CSLAYER1
  6
CONTINUOUS
 62
     7
 10
640.255390
 20
2070.750642
 11
639.900829
 21
2070.625411
  0
ENDBLK
  8
0
  0
BLOCK
  8
CSLAYER1
  2
BLKF0007
 70
   64
 10
0.0
 20
0.0
 30
0.0
  0
LINE
  8
CSLAYER1
  6
CONTINUOUS
 62
     7
 10
659.745109
 20
2072.651064
 11
659.728619
 21
2072.918120
  0
LINE
  8
CSLAYER1
  6
CONTINUOUS
 62
     7
 10
659.728619
 20
2072.918120
 11
659.679276
 21
2073.183144
  0
LINE
  8
CSLAYER1
  6
CONTINUOUS
 62
     7
 10
659.679276
 20
2073.183144
 11
659.597454
 21
2073.444119
  0
LINE
  8
CSLAYER1
  6
CONTINUOUS
 62
     7
 10
659.597454
 20
2073.444119
 11
659.483777
 21
2073.699058
  0
LINE
  8
CSLAYER1
  6
CONTINUOUS
 62
     7
 10
659.483777
 20
2073.699058
 11
659.339109
 21
2073.946021
  0
LINE
  8
CSLAYER1
  6
CONTINUOUS
 62
     7
 10
659.339109
 20
2073.946021
 11
659.164552
 21
2074.183128
  0
LINE
  8
CSLAYER1
  6
CONTINUOUS
 62
     7
 10
659.164552
 20
2074.183128
 11
658.961434
 21
2074.408576
  0
LINE
  8
CSLAYER1
  6
CONTINUOUS
 62
     7
 10
658.961434
 20
2074.408576
 11
658.731301
 21
2074.620648
  0
LINE
  8
CSLAYER1
  6
CONTINUOUS
 62
     7
 10
658.731301
 20
2074.620648
 11
658.475905
 21
2074.817730
  0
LINE
  8
CSLAYER1
  6
CONTINUOUS
 62
     7
 10
658.475905
 20
2074.817730
 11
658.197188
 21
2074.998323
  0
LINE
  8
CSLAYER1
  6
CONTINUOUS
 62
     7
 10
658.197188
 20
2074.998323
 11
657.897273
 21
2075.161052
  0
LINE
  8
CSLAYER1
  6
CONTINUOUS
 62
     7
 10
657.897273
 20
2075.161052
 11
657.578442
 21
2075.304678
  0
LINE
  8
CSLAYER1
  6
CONTINUOUS
 62
     7
 10
657.578442
 20
2075.304678
 11
657.243121
 21
2075.428108
  0
LINE
  8
CSLAYER1
  6
CONTINUOUS
 62
     7
 10
657.243121
 20
2075.428108
 11
656.893863
 21
2075.530404
  0
LINE
  8
CSLAYER1
  6
CONTINUOUS
 62
     7
 10
656.893863
 20
2075.530404
 11
656.533325
 21
2075.610785
  0
LINE
  8
CSLAYER1
  6
CONTINUOUS
 62
     7
 10
656.533325
 20
2075.610785
 11
656.164251
 21
2075.668642
  0
LINE
  8
CSLAYER1
  6
CONTINUOUS
 62
     7
 10
656.164251
 20
2075.668642
 11
655.789450
 21
2075.703533
  0
LINE
  8
CSLAYER1
  6
CONTINUOUS
 62
     7
 10
655.789450
 20
2075.703533
 11
655.411776
 21
2075.715193
  0
LINE
  8
CSLAYER1
  6
CONTINUOUS
 62
     7
 10
655.411776
 20
2075.715193
 11
655.034101
 21
2075.703533
  0
LINE
  8
CSLAYER1
  6
CONTINUOUS
 62
     7
 10
655.034101
 20
2075.703533
 11
654.659300
 21
2075.668642
  0
LINE
  8
CSLAYER1
  6
CONTINUOUS
 62
     7
 10
654.659300
 20
2075.668642
 11
654.290226
 21
2075.610785
  0
LINE
  8
CSLAYER1
  6
CONTINUOUS
 62
     7
 10
654.290226
 20
2075.610785
 11
653.929688
 21
2075.530404
  0
LINE
  8
CSLAYER1
  6
CONTINUOUS
 62
     7
 10
653.929688
 20
2075.530404
 11
653.580430
 21
2075.428108
  0
LINE
  8
CSLAYER1
  6
CONTINUOUS
 62
     7
 10
653.580430
 20
2075.428108
 11
653.245109
 21
2075.304678
  0
LINE
  8
CSLAYER1
  6
CONTINUOUS
 62
     7
 10
653.245109
 20
2075.304678
 11
652.926278
 21
2075.161052
  0
LINE
  8
CSLAYER1
  6
CONTINUOUS
 62
     7
 10
652.926278
 20
2075.161052
 11
652.626363
 21
2074.998323
  0
LINE
  8
CSLAYER1
  6
CONTINUOUS
 62
     7
 10
652.626363
 20
2074.998323
 11
652.347646
 21
2074.817730
  0
LINE
  8
CSLAYER1
  6
CONTINUOUS
 62
     7
 10
652.347646
 20
2074.817730
 11
652.092250
 21
2074.620648
  0
LINE
  8
CSLAYER1
  6
CONTINUOUS
 62
     7
 10
652.092250
 20
2074.620648
 11
651.862117
 21
2074.408576
  0
LINE
  8
CSLAYER1
  6
CONTINUOUS
 62
     7
 10
651.862117
 20
2074.408576
 11
651.658999
 21
2074.183128
  0
LINE
  8
CSLAYER1
  6
CONTINUOUS
 62
     7
 10
651.658999
 20
2074.183128
 11
651.484442
 21
2073.946021
  0
LINE
  8
CSLAYER1
  6
CONTINUOUS
 62
     7
 10
651.484442
 20
2073.946021
 11
651.339774
 21
2073.699058
  0
LINE
  8
CSLAYER1
  6
CONTINUOUS
 62
     7
 10
651.339774
 20
2073.699058
 11
651.226097
 21
2073.444119
  0
LINE
  8
CSLAYER1
  6
CONTINUOUS
 62
     7
 10
651.226097
 20
2073.444119
 11
651.144275
 21
2073.183144
  0
LINE
  8
CSLAYER1
  6
CONTINUOUS
 62
     7
 10
651.144275
 20
2073.183144
 11
651.094932
 21
2072.918120
  0
LINE
  8
CSLAYER1
  6
CONTINUOUS
 62
     7
 10
651.094932
 20
2072.918120
 11
651.078442
 21
2072.651064
  0
LINE
  8
CSLAYER1
  6
CONTINUOUS
 62
     7
 10
651.078442
 20
2072.651064
 11
651.094932
 21
2072.384007
  0
LINE
  8
CSLAYER1
  6
CONTINUOUS
 62
     7
 10
651.094932
 20
2072.384007
 11
651.144275
 21
2072.118983
  0
LINE
  8
CSLAYER1
  6
CONTINUOUS
 62
     7
 10
651.144275
 20
2072.118983
 11
651.226097
 21
2071.858009
  0
LINE
  8
CSLAYER1
  6
CONTINUOUS
 62
     7
 10
651.226097
 20
2071.858009
 11
651.339774
 21
2071.603070
  0
LINE
  8
CSLAYER1
  6
CONTINUOUS
 62
     7
 10
651.339774
 20
2071.603070
 11
651.484442
 21
2071.356107
  0
LINE
  8
CSLAYER1
  6
CONTINUOUS
 62
     7
 10
651.484442
 20
2071.356107
 11
651.658999
 21
2071.118999
  0
LINE
  8
CSLAYER1
  6
CONTINUOUS
 62
     7
 10
651.658999
 20
2071.118999
 11
651.862117
 21
2070.893551
  0
LINE
  8
CSLAYER1
  6
CONTINUOUS
 62
     7
 10
651.862117
 20
2070.893551
 11
652.092250
 21
2070.681479
  0
LINE
  8
CSLAYER1
  6
CONTINUOUS
 62
     7
 10
652.092250
 20
2070.681479
 11
652.347646
 21
2070.484397
  0
LINE
  8
CSLAYER1
  6
CONTINUOUS
 62
     7
 10
652.347646
 20
2070.484397
 11
652.626363
 21
2070.303804
  0
LINE
  8
CSLAYER1
  6
CONTINUOUS
 62
     7
 10
652.626363
 20
2070.303804
 11
652.926278
 21
2070.141076
  0
LINE
  8
CSLAYER1
  6
CONTINUOUS
 62
     7
 10
652.926278
 20
2070.141076
 11
653.245109
 21
2069.997450
  0
LINE
  8
CSLAYER1
  6
CONTINUOUS
 62
     7
 10
653.245109
 20
2069.997450
 11
653.580430
 21
2069.874019
  0
LINE
  8
CSLAYER1
  6
CONTINUOUS
 62
     7
 10
653.580430
 20
2069.874019
 11
653.929688
 21
2069.771724
  0
LINE
  8
CSLAYER1
  6
CONTINUOUS
 62
     7
 10
653.929688
 20
2069.771724
 11
654.290226
 21
2069.691342
  0
LINE
  8
CSLAYER1
  6
CONTINUOUS
 62
     7
 10
654.290226
 20
2069.691342
 11
654.659300
 21
2069.633485
  0
LINE
  8
CSLAYER1
  6
CONTINUOUS
 62
     7
 10
654.659300
 20
2069.633485
 11
655.034101
 21
2069.598594
  0
LINE
  8
CSLAYER1
  6
CONTINUOUS
 62
     7
 10
655.034101
 20
2069.598594
 11
655.411776
 21
2069.586934
  0
LINE
  8
CSLAYER1
  6
CONTINUOUS
 62
     7
 10
655.411776
 20
2069.586934
 11
655.789450
 21
2069.598594
  0
LINE
  8
CSLAYER1
  6
CONTINUOUS
 62
     7
 10
655.789450
 20
2069.598594
 11
656.164251
 21
2069.633485
  0
LINE
  8
CSLAYER1
  6
CONTINUOUS
 62
     7
 10
656.164251
 20
2069.633485
 11
656.533325
 21
2069.691342
  0
LINE
  8
CSLAYER1
  6
CONTINUOUS
 62
     7
 10
656.533325
 20
2069.691342
 11
656.893863
 21
2069.771724
  0
LINE
  8
CSLAYER1
  6
CONTINUOUS
 62
     7
 10
656.893863
 20
2069.771724
 11
657.243121
 21
2069.874019
  0
LINE
  8
CSLAYER1
  6
CONTINUOUS
 62
     7
 10
657.243121
 20
2069.874019
 11
657.578442
 21
2069.997450
  0
LINE
  8
CSLAYER1
  6
CONTINUOUS
 62
     7
 10
657.578442
 20
2069.997450
 11
657.897273
 21
2070.141076
  0
LINE
  8
CSLAYER1
  6
CONTINUOUS
 62
     7
 10
657.897273
 20
2070.141076
 11
658.197188
 21
2070.303804
  0
LINE
  8
CSLAYER1
  6
CONTINUOUS
 62
     7
 10
658.197188
 20
2070.303804
 11
658.475905
 21
2070.484397
  0
LINE
  8
CSLAYER1
  6
CONTINUOUS
 62
     7
 10
658.475905
 20
2070.484397
 11
658.731301
 21
2070.681479
  0
LINE
  8
CSLAYER1
  6
CONTINUOUS
 62
     7
 10
658.731301
 20
2070.681479
 11
658.961434
 21
2070.893551
  0
LINE
  8
CSLAYER1
  6
CONTINUOUS
 62
     7
 10
658.961434
 20
2070.893551
 11
659.164552
 21
2071.118999
  0
LINE
  8
CSLAYER1
  6
CONTINUOUS
 62
     7
 10
659.164552
 20
2071.118999
 11
659.339109
 21
2071.356107
  0
LINE
  8
CSLAYER1
  6
CONTINUOUS
 62
     7
 10
659.339109
 20
2071.356107
 11
659.483777
 21
2071.603070
  0
LINE
  8
CSLAYER1
  6
CONTINUOUS
 62
     7
 10
659.483777
 20
2071.603070
 11
659.597454
 21
2071.858009
  0
LINE
  8
CSLAYER1
  6
CONTINUOUS
 62
     7
 10
659.597454
 20
2071.858009
 11
659.679276
 21
2072.118983
  0
LINE
  8
CSLAYER1
  6
CONTINUOUS
 62
     7
 10
659.679276
 20
2072.118983
 11
659.728619
 21
2072.384007
  0
LINE
  8
CSLAYER1
  6
CONTINUOUS
 62
     7
 10
659.728619
 20
2072.384007
 11
659.745109
 21
2072.651064
  0
ENDBLK
  8
0
  0
BLOCK
  8
CSLAYER1
  2
BLKF0008
 70
   64
 10
0.0
 20
0.0
 30
0.0
  0
LINE
  8
CSLAYER1
  6
CONTINUOUS
 62
     7
 10
593.954964
 20
2070.139636
 11
595.061800
 21
2070.831264
  0
LINE
  8
CSLAYER1
  6
CONTINUOUS
 62
     7
 10
595.466768
 20
2080.921566
 11
622.034209
 21
2097.522745
  0
LINE
  8
CSLAYER1
  6
CONTINUOUS
 62
     7
 10
593.501541
 20
2077.824588
 11
593.501541
 21
2073.006546
  0
LINE
  8
CSLAYER1
  6
CONTINUOUS
 62
     7
 10
593.501541
 20
2077.824588
 11
593.533505
 21
2078.244508
  0
LINE
  8
CSLAYER1
  6
CONTINUOUS
 62
     7
 10
593.533505
 20
2078.244508
 11
593.629156
 21
2078.661232
  0
LINE
  8
CSLAYER1
  6
CONTINUOUS
 62
     7
 10
593.629156
 20
2078.661232
 11
593.787764
 21
2079.071589
  0
LINE
  8
CSLAYER1
  6
CONTINUOUS
 62
     7
 10
593.787764
 20
2079.071589
 11
594.008123
 21
2079.472455
  0
LINE
  8
CSLAYER1
  6
CONTINUOUS
 62
     7
 10
594.008123
 20
2079.472455
 11
594.288555
 21
2079.860780
  0
LINE
  8
CSLAYER1
  6
CONTINUOUS
 62
     7
 10
594.288555
 20
2079.860780
 11
594.626927
 21
2080.233609
  0
LINE
  8
CSLAYER1
  6
CONTINUOUS
 62
     7
 10
594.626927
 20
2080.233609
 11
595.020664
 21
2080.588103
  0
LINE
  8
CSLAYER1
  6
CONTINUOUS
 62
     7
 10
595.020664
 20
2080.588103
 11
595.466768
 21
2080.921566
  0
LINE
  8
CSLAYER1
  6
CONTINUOUS
 62
     7
 10
607.841238
 20
2074.417718
 11
607.300957
 21
2074.133753
  0
LINE
  8
CSLAYER1
  6
CONTINUOUS
 62
     7
 10
607.300957
 20
2074.133753
 11
606.719583
 21
2073.877879
  0
LINE
  8
CSLAYER1
  6
CONTINUOUS
 62
     7
 10
606.719583
 20
2073.877879
 11
606.101541
 21
2073.652041
  0
LINE
  8
CSLAYER1
  6
CONTINUOUS
 62
     7
 10
606.101541
 20
2073.652041
 11
605.451534
 21
2073.457959
  0
LINE
  8
CSLAYER1
  6
CONTINUOUS
 62
     7
 10
605.451534
 20
2073.457959
 11
604.774510
 21
2073.297109
  0
LINE
  8
CSLAYER1
  6
CONTINUOUS
 62
     7
 10
604.774510
 20
2073.297109
 11
604.075621
 21
2073.170717
  0
LINE
  8
CSLAYER1
  6
CONTINUOUS
 62
     7
 10
604.075621
 20
2073.170717
 11
603.360186
 21
2073.079743
  0
LINE
  8
CSLAYER1
  6
CONTINUOUS
 62
     7
 10
603.360186
 20
2073.079743
 11
602.633649
 21
2073.024880
  0
LINE
  8
CSLAYER1
  6
CONTINUOUS
 62
     7
 10
602.633649
 20
2073.024880
 11
601.901541
 21
2073.006546
  0
LINE
  8
CSLAYER1
  6
CONTINUOUS
 62
     7
 10
601.901541
 20
2073.006546
 11
601.169433
 21
2073.024880
  0
LINE
  8
CSLAYER1
  6
CONTINUOUS
 62
     7
 10
601.169433
 20
2073.024880
 11
600.442896
 21
2073.079743
  0
LINE
  8
CSLAYER1
  6
CONTINUOUS
 62
     7
 10
600.442896
 20
2073.079743
 11
599.727461
 21
2073.170717
  0
LINE
  8
CSLAYER1
  6
CONTINUOUS
 62
     7
 10
599.727461
 20
2073.170717
 11
599.028572
 21
2073.297109
  0
LINE
  8
CSLAYER1
  6
CONTINUOUS
 62
     7
 10
599.028572
 20
2073.297109
 11
598.351547
 21
2073.457959
  0
LINE
  8
CSLAYER1
  6
CONTINUOUS
 62
     7
 10
598.351547
 20
2073.457959
 11
597.701541
 21
2073.652041
  0
LINE
  8
CSLAYER1
  6
CONTINUOUS
 62
     7
 10
597.701541
 20
2073.652041
 11
597.083499
 21
2073.877879
  0
LINE
  8
CSLAYER1
  6
CONTINUOUS
 62
     7
 10
597.083499
 20
2073.877879
 11
596.502125
 21
2074.133753
  0
LINE
  8
CSLAYER1
  6
CONTINUOUS
 62
     7
 10
596.502125
 20
2074.133753
 11
595.961844
 21
2074.417718
  0
LINE
  8
CSLAYER1
  6
CONTINUOUS
 62
     7
 10
595.961844
 20
2074.417718
 11
595.466768
 21
2074.727610
  0
LINE
  8
CSLAYER1
  6
CONTINUOUS
 62
     7
 10
595.466768
 20
2074.727610
 11
595.020664
 21
2075.061072
  0
LINE
  8
CSLAYER1
  6
CONTINUOUS
 62
     7
 10
595.020664
 20
2075.061072
 11
594.626927
 21
2075.415567
  0
LINE
  8
CSLAYER1
  6
CONTINUOUS
 62
     7
 10
594.626927
 20
2075.415567
 11
594.288555
 21
2075.788395
  0
LINE
  8
CSLAYER1
  6
CONTINUOUS
 62
     7
 10
594.288555
 20
2075.788395
 11
594.008123
 21
2076.176720
  0
LINE
  8
CSLAYER1
  6
CONTINUOUS
 62
     7
 10
594.008123
 20
2076.176720
 11
593.787764
 21
2076.577587
  0
LINE
  8
CSLAYER1
  6
CONTINUOUS
 62
     7
 10
593.787764
 20
2076.577587
 11
593.629156
 21
2076.987944
  0
LINE
  8
CSLAYER1
  6
CONTINUOUS
 62
     7
 10
593.629156
 20
2076.987944
 11
593.533505
 21
2077.404668
  0
LINE
  8
CSLAYER1
  6
CONTINUOUS
 62
     7
 10
593.533505
 20
2077.404668
 11
593.501541
 21
2077.824588
  0
LINE
  8
CSLAYER1
  6
CONTINUOUS
 62
     7
 10
608.336314
 20
2069.909568
 11
607.841238
 21
2069.599676
  0
LINE
  8
CSLAYER1
  6
CONTINUOUS
 62
     7
 10
607.841238
 20
2069.599676
 11
607.300957
 21
2069.315711
  0
LINE
  8
CSLAYER1
  6
CONTINUOUS
 62
     7
 10
607.300957
 20
2069.315711
 11
606.719583
 21
2069.059837
  0
LINE
  8
CSLAYER1
  6
CONTINUOUS
 62
     7
 10
606.719583
 20
2069.059837
 11
606.101541
 21
2068.833999
  0
LINE
  8
CSLAYER1
  6
CONTINUOUS
 62
     7
 10
606.101541
 20
2068.833999
 11
605.451534
 21
2068.639917
  0
LINE
  8
CSLAYER1
  6
CONTINUOUS
 62
     7
 10
605.451534
 20
2068.639917
 11
604.774510
 21
2068.479067
  0
LINE
  8
CSLAYER1
  6
CONTINUOUS
 62
     7
 10
604.774510
 20
2068.479067
 11
604.075621
 21
2068.352674
  0
LINE
  8
CSLAYER1
  6
CONTINUOUS
 62
     7
 10
604.075621
 20
2068.352674
 11
603.360186
 21
2068.261701
  0
LINE
  8
CSLAYER1
  6
CONTINUOUS
 62
     7
 10
603.360186
 20
2068.261701
 11
602.633649
 21
2068.206838
  0
LINE
  8
CSLAYER1
  6
CONTINUOUS
 62
     7
 10
602.633649
 20
2068.206838
 11
601.901541
 21
2068.188504
  0
LINE
  8
CSLAYER1
  6
CONTINUOUS
 62
     7
 10
601.901541
 20
2068.188504
 11
601.169433
 21
2068.206838
  0
LINE
  8
CSLAYER1
  6
CONTINUOUS
 62
     7
 10
601.169433
 20
2068.206838
 11
600.442896
 21
2068.261701
  0
LINE
  8
CSLAYER1
  6
CONTINUOUS
 62
     7
 10
600.442896
 20
2068.261701
 11
599.727461
 21
2068.352674
  0
LINE
  8
CSLAYER1
  6
CONTINUOUS
 62
     7
 10
599.727461
 20
2068.352674
 11
599.028572
 21
2068.479067
  0
LINE
  8
CSLAYER1
  6
CONTINUOUS
 62
     7
 10
599.028572
 20
2068.479067
 11
598.351547
 21
2068.639917
  0
LINE
  8
CSLAYER1
  6
CONTINUOUS
 62
     7
 10
598.351547
 20
2068.639917
 11
597.701541
 21
2068.833999
  0
LINE
  8
CSLAYER1
  6
CONTINUOUS
 62
     7
 10
597.701541
 20
2068.833999
 11
597.083499
 21
2069.059837
  0
LINE
  8
CSLAYER1
  6
CONTINUOUS
 62
     7
 10
597.083499
 20
2069.059837
 11
596.502125
 21
2069.315711
  0
LINE
  8
CSLAYER1
  6
CONTINUOUS
 62
     7
 10
596.502125
 20
2069.315711
 11
595.961844
 21
2069.599676
  0
LINE
  8
CSLAYER1
  6
CONTINUOUS
 62
     7
 10
595.961844
 20
2069.599676
 11
595.466768
 21
2069.909568
  0
LINE
  8
CSLAYER1
  6
CONTINUOUS
 62
     7
 10
595.466768
 20
2069.909568
 11
595.020664
 21
2070.243030
  0
LINE
  8
CSLAYER1
  6
CONTINUOUS
 62
     7
 10
595.020664
 20
2070.243030
 11
594.626927
 21
2070.597525
  0
LINE
  8
CSLAYER1
  6
CONTINUOUS
 62
     7
 10
594.626927
 20
2070.597525
 11
594.288555
 21
2070.970353
  0
LINE
  8
CSLAYER1
  6
CONTINUOUS
 62
     7
 10
594.288555
 20
2070.970353
 11
594.008123
 21
2071.358678
  0
LINE
  8
CSLAYER1
  6
CONTINUOUS
 62
     7
 10
594.008123
 20
2071.358678
 11
593.787764
 21
2071.759545
  0
LINE
  8
CSLAYER1
  6
CONTINUOUS
 62
     7
 10
593.787764
 20
2071.759545
 11
593.629156
 21
2072.169902
  0
LINE
  8
CSLAYER1
  6
CONTINUOUS
 62
     7
 10
593.629156
 20
2072.169902
 11
593.533505
 21
2072.586626
  0
LINE
  8
CSLAYER1
  6
CONTINUOUS
 62
     7
 10
593.533505
 20
2072.586626
 11
593.501541
 21
2073.006546
  0
LINE
  8
CSLAYER1
  6
CONTINUOUS
 62
     7
 10
595.333578
 20
2077.477107
 11
625.433377
 21
2096.285549
  0
LINE
  8
CSLAYER1
  6
CONTINUOUS
 62
     7
 10
597.885961
 20
2075.710782
 11
628.832545
 21
2095.048353
  0
LINE
  8
CSLAYER1
  6
CONTINUOUS
 62
     7
 10
607.841238
 20
2069.599676
 11
636.537960
 21
2087.531378
  0
LINE
  8
CSLAYER1
  6
CONTINUOUS
 62
     7
 10
607.841238
 20
2074.417718
 11
636.431160
 21
2092.282684
  0
LINE
  8
CSLAYER1
  6
CONTINUOUS
 62
     7
 10
609.228647
 20
2076.076015
 11
635.630881
 21
2092.573961
  0
LINE
  8
CSLAYER1
  6
CONTINUOUS
 62
     7
 10
602.081823
 20
2074.971415
 11
632.231713
 21
2093.811157
  0
LINE
  8
CSLAYER1
  6
CONTINUOUS
 62
     7
 10
628.571063
 20
2100.969626
 11
628.595357
 21
2101.288765
  0
LINE
  8
CSLAYER1
  6
CONTINUOUS
 62
     7
 10
628.595357
 20
2101.288765
 11
628.668051
 21
2101.605476
  0
LINE
  8
CSLAYER1
  6
CONTINUOUS
 62
     7
 10
628.668051
 20
2101.605476
 11
628.788593
 21
2101.917347
  0
LINE
  8
CSLAYER1
  6
CONTINUOUS
 62
     7
 10
628.788593
 20
2101.917347
 11
628.956066
 21
2102.222005
  0
LINE
  8
CSLAYER1
  6
CONTINUOUS
 62
     7
 10
628.956066
 20
2102.222005
 11
629.169195
 21
2102.517132
  0
LINE
  8
CSLAYER1
  6
CONTINUOUS
 62
     7
 10
629.169195
 20
2102.517132
 11
629.426357
 21
2102.800482
  0
LINE
  8
CSLAYER1
  6
CONTINUOUS
 62
     7
 10
629.426357
 20
2102.800482
 11
629.725597
 21
2103.069898
  0
LINE
  8
CSLAYER1
  6
CONTINUOUS
 62
     7
 10
629.725597
 20
2103.069898
 11
630.064636
 21
2103.323329
  0
LINE
  8
CSLAYER1
  6
CONTINUOUS
 62
     7
 10
630.064636
 20
2103.323329
 11
630.440894
 21
2103.558847
  0
LINE
  8
CSLAYER1
  6
CONTINUOUS
 62
     7
 10
630.440894
 20
2103.558847
 11
630.851507
 21
2103.774660
  0
LINE
  8
CSLAYER1
  6
CONTINUOUS
 62
     7
 10
630.851507
 20
2103.774660
 11
631.293351
 21
2103.969125
  0
LINE
  8
CSLAYER1
  6
CONTINUOUS
 62
     7
 10
631.293351
 20
2103.969125
 11
631.763063
 21
2104.140762
  0
LINE
  8
CSLAYER1
  6
CONTINUOUS
 62
     7
 10
631.763063
 20
2104.140762
 11
632.257068
 21
2104.288264
  0
LINE
  8
CSLAYER1
  6
CONTINUOUS
 62
     7
 10
632.257068
 20
2104.288264
 11
632.771607
 21
2104.410510
  0
LINE
  8
CSLAYER1
  6
CONTINUOUS
 62
     7
 10
632.771607
 20
2104.410510
 11
633.302763
 21
2104.506568
  0
LINE
  8
CSLAYER1
  6
CONTINUOUS
 62
     7
 10
633.302763
 20
2104.506568
 11
633.846493
 21
2104.575708
  0
LINE
  8
CSLAYER1
  6
CONTINUOUS
 62
     7
 10
633.846493
 20
2104.575708
 11
634.398661
 21
2104.617404
  0
LINE
  8
CSLAYER1
  6
CONTINUOUS
 62
     7
 10
634.398661
 20
2104.617404
 11
634.955063
 21
2104.631338
  0
LINE
  8
CSLAYER1
  6
CONTINUOUS
 62
     7
 10
634.955063
 20
2104.631338
 11
635.511466
 21
2104.617404
  0
LINE
  8
CSLAYER1
  6
CONTINUOUS
 62
     7
 10
635.511466
 20
2104.617404
 11
636.063633
 21
2104.575708
  0
LINE
  8
CSLAYER1
  6
CONTINUOUS
 62
     7
 10
636.063633
 20
2104.575708
 11
636.607364
 21
2104.506568
  0
LINE
  8
CSLAYER1
  6
CONTINUOUS
 62
     7
 10
636.607364
 20
2104.506568
 11
637.138520
 21
2104.410510
  0
LINE
  8
CSLAYER1
  6
CONTINUOUS
 62
     7
 10
637.138520
 20
2104.410510
 11
637.653058
 21
2104.288264
  0
LINE
  8
CSLAYER1
  6
CONTINUOUS
 62
     7
 10
637.653058
 20
2104.288264
 11
638.147063
 21
2104.140762
  0
LINE
  8
CSLAYER1
  6
CONTINUOUS
 62
     7
 10
638.147063
 20
2104.140762
 11
638.616775
 21
2103.969125
  0
LINE
  8
CSLAYER1
  6
CONTINUOUS
 62
     7
 10
638.616775
 20
2103.969125
 11
639.058620
 21
2103.774660
  0
LINE
  8
CSLAYER1
  6
CONTINUOUS
 62
     7
 10
639.058620
 20
2103.774660
 11
639.469233
 21
2103.558847
  0
LINE
  8
CSLAYER1
  6
CONTINUOUS
 62
     7
 10
639.469233
 20
2103.558847
 11
639.845491
 21
2103.323329
  0
LINE
  8
CSLAYER1
  6
CONTINUOUS
 62
     7
 10
639.845491
 20
2103.323329
 11
640.184530
 21
2103.069898
  0
LINE
  8
CSLAYER1
  6
CONTINUOUS
 62
     7
 10
640.184530
 20
2103.069898
 11
640.483770
 21
2102.800482
  0
LINE
  8
CSLAYER1
  6
CONTINUOUS
 62
     7
 10
640.483770
 20
2102.800482
 11
640.740932
 21
2102.517132
  0
LINE
  8
CSLAYER1
  6
CONTINUOUS
 62
     7
 10
640.740932
 20
2102.517132
 11
640.954061
 21
2102.222005
  0
LINE
  8
CSLAYER1
  6
CONTINUOUS
 62
     7
 10
640.954061
 20
2102.222005
 11
641.121534
 21
2101.917347
  0
LINE
  8
CSLAYER1
  6
CONTINUOUS
 62
     7
 10
641.121534
 20
2101.917347
 11
641.242076
 21
2101.605476
  0
LINE
  8
CSLAYER1
  6
CONTINUOUS
 62
     7
 10
641.242076
 20
2101.605476
 11
641.314770
 21
2101.288765
  0
LINE
  8
CSLAYER1
  6
CONTINUOUS
 62
     7
 10
641.314770
 20
2101.288765
 11
641.339063
 21
2100.969626
  0
LINE
  8
CSLAYER1
  6
CONTINUOUS
 62
     7
 10
641.339063
 20
2100.969626
 11
641.314770
 21
2100.650487
  0
LINE
  8
CSLAYER1
  6
CONTINUOUS
 62
     7
 10
641.314770
 20
2100.650487
 11
641.242076
 21
2100.333776
  0
LINE
  8
CSLAYER1
  6
CONTINUOUS
 62
     7
 10
641.242076
 20
2100.333776
 11
641.121534
 21
2100.021905
  0
LINE
  8
CSLAYER1
  6
CONTINUOUS
 62
     7
 10
641.121534
 20
2100.021905
 11
640.954061
 21
2099.717247
  0
LINE
  8
CSLAYER1
  6
CONTINUOUS
 62
     7
 10
640.954061
 20
2099.717247
 11
640.740932
 21
2099.422120
  0
LINE
  8
CSLAYER1
  6
CONTINUOUS
 62
     7
 10
640.740932
 20
2099.422120
 11
640.483770
 21
2099.138770
  0
LINE
  8
CSLAYER1
  6
CONTINUOUS
 62
     7
 10
640.483770
 20
2099.138770
 11
640.184530
 21
2098.869354
  0
LINE
  8
CSLAYER1
  6
CONTINUOUS
 62
     7
 10
640.184530
 20
2098.869354
 11
639.845491
 21
2098.615923
  0
LINE
  8
CSLAYER1
  6
CONTINUOUS
 62
     7
 10
639.845491
 20
2098.615923
 11
639.469233
 21
2098.380405
  0
LINE
  8
CSLAYER1
  6
CONTINUOUS
 62
     7
 10
639.469233
 20
2098.380405
 11
639.058620
 21
2098.164592
  0
LINE
  8
CSLAYER1
  6
CONTINUOUS
 62
     7
 10
639.058620
 20
2098.164592
 11
638.616775
 21
2097.970127
  0
LINE
  8
CSLAYER1
  6
CONTINUOUS
 62
     7
 10
638.616775
 20
2097.970127
 11
638.147063
 21
2097.798490
  0
LINE
  8
CSLAYER1
  6
CONTINUOUS
 62
     7
 10
638.147063
 20
2097.798490
 11
637.653058
 21
2097.650988
  0
LINE
  8
CSLAYER1
  6
CONTINUOUS
 62
     7
 10
637.653058
 20
2097.650988
 11
637.138520
 21
2097.528742
  0
LINE
  8
CSLAYER1
  6
CONTINUOUS
 62
     7
 10
637.138520
 20
2097.528742
 11
636.607364
 21
2097.432684
  0
LINE
  8
CSLAYER1
  6
CONTINUOUS
 62
     7
 10
636.607364
 20
2097.432684
 11
636.063633
 21
2097.363544
  0
LINE
  8
CSLAYER1
  6
CONTINUOUS
 62
     7
 10
636.063633
 20
2097.363544
 11
635.511466
 21
2097.321848
  0
LINE
  8
CSLAYER1
  6
CONTINUOUS
 62
     7
 10
635.511466
 20
2097.321848
 11
634.955063
 21
2097.307914
  0
LINE
  8
CSLAYER1
  6
CONTINUOUS
 62
     7
 10
634.955063
 20
2097.307914
 11
634.398661
 21
2097.321848
  0
LINE
  8
CSLAYER1
  6
CONTINUOUS
 62
     7
 10
634.398661
 20
2097.321848
 11
633.846493
 21
2097.363544
  0
LINE
  8
CSLAYER1
  6
CONTINUOUS
 62
     7
 10
633.846493
 20
2097.363544
 11
633.302763
 21
2097.432684
  0
LINE
  8
CSLAYER1
  6
CONTINUOUS
 62
     7
 10
633.302763
 20
2097.432684
 11
632.771607
 21
2097.528742
  0
LINE
  8
CSLAYER1
  6
CONTINUOUS
 62
     7
 10
632.771607
 20
2097.528742
 11
632.257068
 21
2097.650988
  0
LINE
  8
CSLAYER1
  6
CONTINUOUS
 62
     7
 10
632.257068
 20
2097.650988
 11
631.763063
 21
2097.798490
  0
LINE
  8
CSLAYER1
  6
CONTINUOUS
 62
     7
 10
631.763063
 20
2097.798490
 11
631.293351
 21
2097.970127
  0
LINE
  8
CSLAYER1
  6
CONTINUOUS
 62
     7
 10
631.293351
 20
2097.970127
 11
630.851507
 21
2098.164592
  0
LINE
  8
CSLAYER1
  6
CONTINUOUS
 62
     7
 10
630.851507
 20
2098.164592
 11
630.440894
 21
2098.380405
  0
LINE
  8
CSLAYER1
  6
CONTINUOUS
 62
     7
 10
630.440894
 20
2098.380405
 11
630.064636
 21
2098.615923
  0
LINE
  8
CSLAYER1
  6
CONTINUOUS
 62
     7
 10
630.064636
 20
2098.615923
 11
629.725597
 21
2098.869354
  0
LINE
  8
CSLAYER1
  6
CONTINUOUS
 62
     7
 10
629.725597
 20
2098.869354
 11
629.426357
 21
2099.138770
  0
LINE
  8
CSLAYER1
  6
CONTINUOUS
 62
     7
 10
629.426357
 20
2099.138770
 11
629.169195
 21
2099.422120
  0
LINE
  8
CSLAYER1
  6
CONTINUOUS
 62
     7
 10
629.169195
 20
2099.422120
 11
628.956066
 21
2099.717247
  0
LINE
  8
CSLAYER1
  6
CONTINUOUS
 62
     7
 10
628.956066
 20
2099.717247
 11
628.788593
 21
2100.021905
  0
LINE
  8
CSLAYER1
  6
CONTINUOUS
 62
     7
 10
628.788593
 20
2100.021905
 11
628.668051
 21
2100.333776
  0
LINE
  8
CSLAYER1
  6
CONTINUOUS
 62
     7
 10
628.668051
 20
2100.333776
 11
628.595357
 21
2100.650487
  0
LINE
  8
CSLAYER1
  6
CONTINUOUS
 62
     7
 10
628.595357
 20
2100.650487
 11
628.571063
 21
2100.969626
  0
LINE
  8
CSLAYER1
  6
CONTINUOUS
 62
     7
 10
631.595063
 20
2100.969626
 11
631.607849
 21
2101.137594
  0
LINE
  8
CSLAYER1
  6
CONTINUOUS
 62
     7
 10
631.607849
 20
2101.137594
 11
631.646109
 21
2101.304284
  0
LINE
  8
CSLAYER1
  6
CONTINUOUS
 62
     7
 10
631.646109
 20
2101.304284
 11
631.709553
 21
2101.468426
  0
LINE
  8
CSLAYER1
  6
CONTINUOUS
 62
     7
 10
631.709553
 20
2101.468426
 11
631.797696
 21
2101.628773
  0
LINE
  8
CSLAYER1
  6
CONTINUOUS
 62
     7
 10
631.797696
 20
2101.628773
 11
631.909869
 21
2101.784103
  0
LINE
  8
CSLAYER1
  6
CONTINUOUS
 62
     7
 10
631.909869
 20
2101.784103
 11
632.045218
 21
2101.933234
  0
LINE
  8
CSLAYER1
  6
CONTINUOUS
 62
     7
 10
632.045218
 20
2101.933234
 11
632.202713
 21
2102.075032
  0
LINE
  8
CSLAYER1
  6
CONTINUOUS
 62
     7
 10
632.202713
 20
2102.075032
 11
632.381154
 21
2102.208417
  0
LINE
  8
CSLAYER1
  6
CONTINUOUS
 62
     7
 10
632.381154
 20
2102.208417
 11
632.579185
 21
2102.332374
  0
LINE
  8
CSLAYER1
  6
CONTINUOUS
 62
     7
 10
632.579185
 20
2102.332374
 11
632.795297
 21
2102.445960
  0
LINE
  8
CSLAYER1
  6
CONTINUOUS
 62
     7
 10
632.795297
 20
2102.445960
 11
633.027847
 21
2102.548310
  0
LINE
  8
CSLAYER1
  6
CONTINUOUS
 62
     7
 10
633.027847
 20
2102.548310
 11
633.275063
 21
2102.638645
  0
LINE
  8
CSLAYER1
  6
CONTINUOUS
 62
     7
 10
633.275063
 20
2102.638645
 11
633.535066
 21
2102.716278
  0
LINE
  8
CSLAYER1
  6
CONTINUOUS
 62
     7
 10
633.535066
 20
2102.716278
 11
633.805876
 21
2102.780617
  0
LINE
  8
CSLAYER1
  6
CONTINUOUS
 62
     7
 10
633.805876
 20
2102.780617
 11
634.085431
 21
2102.831174
  0
LINE
  8
CSLAYER1
  6
CONTINUOUS
 62
     7
 10
634.085431
 20
2102.831174
 11
634.371606
 21
2102.867564
  0
LINE
  8
CSLAYER1
  6
CONTINUOUS
 62
     7
 10
634.371606
 20
2102.867564
 11
634.662220
 21
2102.889509
  0
LINE
  8
CSLAYER1
  6
CONTINUOUS
 62
     7
 10
634.662220
 20
2102.889509
 11
634.955063
 21
2102.896843
  0
LINE
  8
CSLAYER1
  6
CONTINUOUS
 62
     7
 10
634.955063
 20
2102.896843
 11
635.247907
 21
2102.889509
  0
LINE
  8
CSLAYER1
  6
CONTINUOUS
 62
     7
 10
635.247907
 20
2102.889509
 11
635.538521
 21
2102.867564
  0
LINE
  8
CSLAYER1
  6
CONTINUOUS
 62
     7
 10
635.538521
 20
2102.867564
 11
635.824695
 21
2102.831174
  0
LINE
  8
CSLAYER1
  6
CONTINUOUS
 62
     7
 10
635.824695
 20
2102.831174
 11
636.104251
 21
2102.780617
  0
LINE
  8
CSLAYER1
  6
CONTINUOUS
 62
     7
 10
636.104251
 20
2102.780617
 11
636.375061
 21
2102.716278
  0
LINE
  8
CSLAYER1
  6
CONTINUOUS
 62
     7
 10
636.375061
 20
2102.716278
 11
636.635063
 21
2102.638645
  0
LINE
  8
CSLAYER1
  6
CONTINUOUS
 62
     7
 10
636.635063
 20
2102.638645
 11
636.882280
 21
2102.548310
  0
LINE
  8
CSLAYER1
  6
CONTINUOUS
 62
     7
 10
636.882280
 20
2102.548310
 11
637.114830
 21
2102.445960
  0
LINE
  8
CSLAYER1
  6
CONTINUOUS
 62
     7
 10
637.114830
 20
2102.445960
 11
637.330942
 21
2102.332374
  0
LINE
  8
CSLAYER1
  6
CONTINUOUS
 62
     7
 10
637.330942
 20
2102.332374
 11
637.528973
 21
2102.208417
  0
LINE
  8
CSLAYER1
  6
CONTINUOUS
 62
     7
 10
637.528973
 20
2102.208417
 11
637.707414
 21
2102.075032
  0
LINE
  8
CSLAYER1
  6
CONTINUOUS
 62
     7
 10
637.707414
 20
2102.075032
 11
637.864909
 21
2101.933234
  0
LINE
  8
CSLAYER1
  6
CONTINUOUS
 62
     7
 10
637.864909
 20
2101.933234
 11
638.000258
 21
2101.784103
  0
LINE
  8
CSLAYER1
  6
CONTINUOUS
 62
     7
 10
638.000258
 20
2101.784103
 11
638.112431
 21
2101.628773
  0
LINE
  8
CSLAYER1
  6
CONTINUOUS
 62
     7
 10
638.112431
 20
2101.628773
 11
638.200574
 21
2101.468426
  0
LINE
  8
CSLAYER1
  6
CONTINUOUS
 62
     7
 10
638.200574
 20
2101.468426
 11
638.264018
 21
2101.304284
  0
LINE
  8
CSLAYER1
  6
CONTINUOUS
 62
     7
 10
638.264018
 20
2101.304284
 11
638.302278
 21
2101.137594
  0
LINE
  8
CSLAYER1
  6
CONTINUOUS
 62
     7
 10
638.302278
 20
2101.137594
 11
638.315063
 21
2100.969626
  0
LINE
  8
CSLAYER1
  6
CONTINUOUS
 62
     7
 10
638.315063
 20
2100.969626
 11
638.302278
 21
2100.801658
  0
LINE
  8
CSLAYER1
  6
CONTINUOUS
 62
     7
 10
638.302278
 20
2100.801658
 11
638.264018
 21
2100.634968
  0
LINE
  8
CSLAYER1
  6
CONTINUOUS
 62
     7
 10
638.264018
 20
2100.634968
 11
638.200574
 21
2100.470826
  0
LINE
  8
CSLAYER1
  6
CONTINUOUS
 62
     7
 10
638.200574
 20
2100.470826
 11
638.112431
 21
2100.310479
  0
LINE
  8
CSLAYER1
  6
CONTINUOUS
 62
     7
 10
638.112431
 20
2100.310479
 11
638.000258
 21
2100.155149
  0
LINE
  8
CSLAYER1
  6
CONTINUOUS
 62
     7
 10
638.000258
 20
2100.155149
 11
637.864909
 21
2100.006018
  0
LINE
  8
CSLAYER1
  6
CONTINUOUS
 62
     7
 10
637.864909
 20
2100.006018
 11
637.707414
 21
2099.864220
  0
LINE
  8
CSLAYER1
  6
CONTINUOUS
 62
     7
 10
637.707414
 20
2099.864220
 11
637.528973
 21
2099.730835
  0
LINE
  8
CSLAYER1
  6
CONTINUOUS
 62
     7
 10
637.528973
 20
2099.730835
 11
637.330942
 21
2099.606878
  0
LINE
  8
CSLAYER1
  6
CONTINUOUS
 62
     7
 10
637.330942
 20
2099.606878
 11
637.114830
 21
2099.493292
  0
LINE
  8
CSLAYER1
  6
CONTINUOUS
 62
     7
 10
637.114830
 20
2099.493292
 11
636.882280
 21
2099.390942
  0
LINE
  8
CSLAYER1
  6
CONTINUOUS
 62
     7
 10
636.882280
 20
2099.390942
 11
636.635063
 21
2099.300607
  0
LINE
  8
CSLAYER1
  6
CONTINUOUS
 62
     7
 10
636.635063
 20
2099.300607
 11
636.375061
 21
2099.222974
  0
LINE
  8
CSLAYER1
  6
CONTINUOUS
 62
     7
 10
636.375061
 20
2099.222974
 11
636.104251
 21
2099.158635
  0
LINE
  8
CSLAYER1
  6
CONTINUOUS
 62
     7
 10
636.104251
 20
2099.158635
 11
635.824695
 21
2099.108077
  0
LINE
  8
CSLAYER1
  6
CONTINUOUS
 62
     7
 10
635.824695
 20
2099.108077
 11
635.538521
 21
2099.071688
  0
LINE
  8
CSLAYER1
  6
CONTINUOUS
 62
     7
 10
635.538521
 20
2099.071688
 11
635.247907
 21
2099.049743
  0
LINE
  8
CSLAYER1
  6
CONTINUOUS
 62
     7
 10
635.247907
 20
2099.049743
 11
634.955063
 21
2099.042409
  0
LINE
  8
CSLAYER1
  6
CONTINUOUS
 62
     7
 10
634.955063
 20
2099.042409
 11
634.662220
 21
2099.049743
  0
LINE
  8
CSLAYER1
  6
CONTINUOUS
 62
     7
 10
634.662220
 20
2099.049743
 11
634.371606
 21
2099.071688
  0
LINE
  8
CSLAYER1
  6
CONTINUOUS
 62
     7
 10
634.371606
 20
2099.071688
 11
634.085431
 21
2099.108077
  0
LINE
  8
CSLAYER1
  6
CONTINUOUS
 62
     7
 10
634.085431
 20
2099.108077
 11
633.805876
 21
2099.158635
  0
LINE
  8
CSLAYER1
  6
CONTINUOUS
 62
     7
 10
633.805876
 20
2099.158635
 11
633.535066
 21
2099.222974
  0
LINE
  8
CSLAYER1
  6
CONTINUOUS
 62
     7
 10
633.535066
 20
2099.222974
 11
633.275063
 21
2099.300607
  0
LINE
  8
CSLAYER1
  6
CONTINUOUS
 62
     7
 10
633.275063
 20
2099.300607
 11
633.027847
 21
2099.390942
  0
LINE
  8
CSLAYER1
  6
CONTINUOUS
 62
     7
 10
633.027847
 20
2099.390942
 11
632.795297
 21
2099.493292
  0
LINE
  8
CSLAYER1
  6
CONTINUOUS
 62
     7
 10
632.795297
 20
2099.493292
 11
632.579185
 21
2099.606878
  0
LINE
  8
CSLAYER1
  6
CONTINUOUS
 62
     7
 10
632.579185
 20
2099.606878
 11
632.381154
 21
2099.730835
  0
LINE
  8
CSLAYER1
  6
CONTINUOUS
 62
     7
 10
632.381154
 20
2099.730835
 11
632.202713
 21
2099.864220
  0
LINE
  8
CSLAYER1
  6
CONTINUOUS
 62
     7
 10
632.202713
 20
2099.864220
 11
632.045218
 21
2100.006018
  0
LINE
  8
CSLAYER1
  6
CONTINUOUS
 62
     7
 10
632.045218
 20
2100.006018
 11
631.909869
 21
2100.155149
  0
LINE
  8
CSLAYER1
  6
CONTINUOUS
 62
     7
 10
631.909869
 20
2100.155149
 11
631.797696
 21
2100.310479
  0
LINE
  8
CSLAYER1
  6
CONTINUOUS
 62
     7
 10
631.797696
 20
2100.310479
 11
631.709553
 21
2100.470826
  0
LINE
  8
CSLAYER1
  6
CONTINUOUS
 62
     7
 10
631.709553
 20
2100.470826
 11
631.646109
 21
2100.634968
  0
LINE
  8
CSLAYER1
  6
CONTINUOUS
 62
     7
 10
631.646109
 20
2100.634968
 11
631.607849
 21
2100.801658
  0
LINE
  8
CSLAYER1
  6
CONTINUOUS
 62
     7
 10
631.607849
 20
2100.801658
 11
631.595063
 21
2100.969626
  0
LINE
  8
CSLAYER1
  6
CONTINUOUS
 62
     7
 10
641.339063
 20
2100.969626
 11
641.339063
 21
2097.340886
  0
LINE
  8
CSLAYER1
  6
CONTINUOUS
 62
     7
 10
628.571063
 20
2100.969626
 11
628.571063
 21
2097.340886
  0
LINE
  8
CSLAYER1
  6
CONTINUOUS
 62
     7
 10
638.490949
 20
2097.924149
 11
638.490949
 21
2094.295410
  0
LINE
  8
CSLAYER1
  6
CONTINUOUS
 62
     7
 10
631.171862
 20
2098.023597
 11
631.171862
 21
2094.394858
  0
LINE
  8
CSLAYER1
  6
CONTINUOUS
 62
     7
 10
641.339063
 20
2097.340886
 11
641.314770
 21
2097.021747
  0
LINE
  8
CSLAYER1
  6
CONTINUOUS
 62
     7
 10
641.314770
 20
2097.021747
 11
641.242076
 21
2096.705037
  0
LINE
  8
CSLAYER1
  6
CONTINUOUS
 62
     7
 10
641.242076
 20
2096.705037
 11
641.121534
 21
2096.393166
  0
LINE
  8
CSLAYER1
  6
CONTINUOUS
 62
     7
 10
641.121534
 20
2096.393166
 11
640.954061
 21
2096.088507
  0
LINE
  8
CSLAYER1
  6
CONTINUOUS
 62
     7
 10
640.954061
 20
2096.088507
 11
640.740932
 21
2095.793380
  0
LINE
  8
CSLAYER1
  6
CONTINUOUS
 62
     7
 10
640.740932
 20
2095.793380
 11
640.483770
 21
2095.510030
  0
LINE
  8
CSLAYER1
  6
CONTINUOUS
 62
     7
 10
640.483770
 20
2095.510030
 11
640.184530
 21
2095.240615
  0
LINE
  8
CSLAYER1
  6
CONTINUOUS
 62
     7
 10
640.184530
 20
2095.240615
 11
639.845491
 21
2094.987183
  0
LINE
  8
CSLAYER1
  6
CONTINUOUS
 62
     7
 10
639.845491
 20
2094.987183
 11
639.469233
 21
2094.751665
  0
LINE
  8
CSLAYER1
  6
CONTINUOUS
 62
     7
 10
639.469233
 20
2094.751665
 11
639.058620
 21
2094.535852
  0
LINE
  8
CSLAYER1
  6
CONTINUOUS
 62
     7
 10
639.058620
 20
2094.535852
 11
638.616775
 21
2094.341388
  0
LINE
  8
CSLAYER1
  6
CONTINUOUS
 62
     7
 10
638.616775
 20
2094.341388
 11
638.147063
 21
2094.169751
  0
LINE
  8
CSLAYER1
  6
CONTINUOUS
 62
     7
 10
638.147063
 20
2094.169751
 11
637.653058
 21
2094.022248
  0
LINE
  8
CSLAYER1
  6
CONTINUOUS
 62
     7
 10
637.653058
 20
2094.022248
 11
637.138520
 21
2093.900003
  0
LINE
  8
CSLAYER1
  6
CONTINUOUS
 62
     7
 10
637.138520
 20
2093.900003
 11
636.607364
 21
2093.803944
  0
LINE
  8
CSLAYER1
  6
CONTINUOUS
 62
     7
 10
636.607364
 20
2093.803944
 11
636.063633
 21
2093.734804
  0
LINE
  8
CSLAYER1
  6
CONTINUOUS
 62
     7
 10
636.063633
 20
2093.734804
 11
635.511466
 21
2093.693108
  0
LINE
  8
CSLAYER1
  6
CONTINUOUS
 62
     7
 10
635.511466
 20
2093.693108
 11
634.955063
 21
2093.679174
  0
LINE
  8
CSLAYER1
  6
CONTINUOUS
 62
     7
 10
634.955063
 20
2093.679174
 11
634.398661
 21
2093.693108
  0
LINE
  8
CSLAYER1
  6
CONTINUOUS
 62
     7
 10
634.398661
 20
2093.693108
 11
633.846493
 21
2093.734804
  0
LINE
  8
CSLAYER1
  6
CONTINUOUS
 62
     7
 10
633.846493
 20
2093.734804
 11
633.302763
 21
2093.803944
  0
LINE
  8
CSLAYER1
  6
CONTINUOUS
 62
     7
 10
633.302763
 20
2093.803944
 11
632.771607
 21
2093.900003
  0
LINE
  8
CSLAYER1
  6
CONTINUOUS
 62
     7
 10
632.771607
 20
2093.900003
 11
632.257068
 21
2094.022248
  0
LINE
  8
CSLAYER1
  6
CONTINUOUS
 62
     7
 10
632.257068
 20
2094.022248
 11
631.763063
 21
2094.169751
  0
LINE
  8
CSLAYER1
  6
CONTINUOUS
 62
     7
 10
631.763063
 20
2094.169751
 11
631.293351
 21
2094.341388
  0
LINE
  8
CSLAYER1
  6
CONTINUOUS
 62
     7
 10
631.293351
 20
2094.341388
 11
630.851507
 21
2094.535852
  0
LINE
  8
CSLAYER1
  6
CONTINUOUS
 62
     7
 10
630.851507
 20
2094.535852
 11
630.440894
 21
2094.751665
  0
LINE
  8
CSLAYER1
  6
CONTINUOUS
 62
     7
 10
630.440894
 20
2094.751665
 11
630.064636
 21
2094.987183
  0
LINE
  8
CSLAYER1
  6
CONTINUOUS
 62
     7
 10
630.064636
 20
2094.987183
 11
629.725597
 21
2095.240615
  0
LINE
  8
CSLAYER1
  6
CONTINUOUS
 62
     7
 10
629.725597
 20
2095.240615
 11
629.426357
 21
2095.510030
  0
LINE
  8
CSLAYER1
  6
CONTINUOUS
 62
     7
 10
629.426357
 20
2095.510030
 11
629.169195
 21
2095.793380
  0
LINE
  8
CSLAYER1
  6
CONTINUOUS
 62
     7
 10
629.169195
 20
2095.793380
 11
628.956066
 21
2096.088507
  0
LINE
  8
CSLAYER1
  6
CONTINUOUS
 62
     7
 10
628.956066
 20
2096.088507
 11
628.788593
 21
2096.393166
  0
LINE
  8
CSLAYER1
  6
CONTINUOUS
 62
     7
 10
628.788593
 20
2096.393166
 11
628.668051
 21
2096.705037
  0
LINE
  8
CSLAYER1
  6
CONTINUOUS
 62
     7
 10
628.668051
 20
2096.705037
 11
628.595357
 21
2097.021747
  0
LINE
  8
CSLAYER1
  6
CONTINUOUS
 62
     7
 10
628.595357
 20
2097.021747
 11
628.571063
 21
2097.340886
  0
LINE
  8
CSLAYER1
  6
CONTINUOUS
 62
     7
 10
631.171862
 20
2084.178267
 11
631.171862
 21
2083.629218
  0
LINE
  8
CSLAYER1
  6
CONTINUOUS
 62
     7
 10
641.339063
 20
2086.575247
 11
641.314770
 21
2086.256107
  0
LINE
  8
CSLAYER1
  6
CONTINUOUS
 62
     7
 10
641.314770
 20
2086.256107
 11
641.242076
 21
2085.939397
  0
LINE
  8
CSLAYER1
  6
CONTINUOUS
 62
     7
 10
641.242076
 20
2085.939397
 11
641.121534
 21
2085.627526
  0
LINE
  8
CSLAYER1
  6
CONTINUOUS
 62
     7
 10
641.121534
 20
2085.627526
 11
640.954061
 21
2085.322867
  0
LINE
  8
CSLAYER1
  6
CONTINUOUS
 62
     7
 10
640.954061
 20
2085.322867
 11
640.740932
 21
2085.027740
  0
LINE
  8
CSLAYER1
  6
CONTINUOUS
 62
     7
 10
640.740932
 20
2085.027740
 11
640.483770
 21
2084.744391
  0
LINE
  8
CSLAYER1
  6
CONTINUOUS
 62
     7
 10
640.483770
 20
2084.744391
 11
640.184530
 21
2084.474975
  0
LINE
  8
CSLAYER1
  6
CONTINUOUS
 62
     7
 10
640.184530
 20
2084.474975
 11
639.845491
 21
2084.221544
  0
LINE
  8
CSLAYER1
  6
CONTINUOUS
 62
     7
 10
639.845491
 20
2084.221544
 11
639.469233
 21
2083.986025
  0
LINE
  8
CSLAYER1
  6
CONTINUOUS
 62
     7
 10
639.469233
 20
2083.986025
 11
639.058620
 21
2083.770213
  0
LINE
  8
CSLAYER1
  6
CONTINUOUS
 62
     7
 10
639.058620
 20
2083.770213
 11
638.616775
 21
2083.575748
  0
LINE
  8
CSLAYER1
  6
CONTINUOUS
 62
     7
 10
638.616775
 20
2083.575748
 11
638.147063
 21
2083.404111
  0
LINE
  8
CSLAYER1
  6
CONTINUOUS
 62
     7
 10
638.147063
 20
2083.404111
 11
637.653058
 21
2083.256609
  0
LINE
  8
CSLAYER1
  6
CONTINUOUS
 62
     7
 10
637.653058
 20
2083.256609
 11
637.138520
 21
2083.134363
  0
LINE
  8
CSLAYER1
  6
CONTINUOUS
 62
     7
 10
637.138520
 20
2083.134363
 11
636.607364
 21
2083.038304
  0
LINE
  8
CSLAYER1
  6
CONTINUOUS
 62
     7
 10
636.607364
 20
2083.038304
 11
636.063633
 21
2082.969164
  0
LINE
  8
CSLAYER1
  6
CONTINUOUS
 62
     7
 10
636.063633
 20
2082.969164
 11
635.511466
 21
2082.927469
  0
LINE
  8
CSLAYER1
  6
CONTINUOUS
 62
     7
 10
635.511466
 20
2082.927469
 11
634.955063
 21
2082.913535
  0
LINE
  8
CSLAYER1
  6
CONTINUOUS
 62
     7
 10
634.955063
 20
2082.913535
 11
634.398661
 21
2082.927469
  0
LINE
  8
CSLAYER1
  6
CONTINUOUS
 62
     7
 10
634.398661
 20
2082.927469
 11
633.846493
 21
2082.969164
  0
LINE
  8
CSLAYER1
  6
CONTINUOUS
 62
     7
 10
633.846493
 20
2082.969164
 11
633.302763
 21
2083.038304
  0
LINE
  8
CSLAYER1
  6
CONTINUOUS
 62
     7
 10
633.302763
 20
2083.038304
 11
632.771607
 21
2083.134363
  0
LINE
  8
CSLAYER1
  6
CONTINUOUS
 62
     7
 10
632.771607
 20
2083.134363
 11
632.257068
 21
2083.256609
  0
LINE
  8
CSLAYER1
  6
CONTINUOUS
 62
     7
 10
632.257068
 20
2083.256609
 11
631.763063
 21
2083.404111
  0
LINE
  8
CSLAYER1
  6
CONTINUOUS
 62
     7
 10
631.763063
 20
2083.404111
 11
631.293351
 21
2083.575748
  0
LINE
  8
CSLAYER1
  6
CONTINUOUS
 62
     7
 10
631.293351
 20
2083.575748
 11
630.851507
 21
2083.770213
  0
LINE
  8
CSLAYER1
  6
CONTINUOUS
 62
     7
 10
630.851507
 20
2083.770213
 11
630.670818
 21
2083.865180
  0
LINE
  8
CSLAYER1
  6
CONTINUOUS
 62
     7
 10
641.339063
 20
2091.622126
 11
641.339063
 21
2086.575247
  0
LINE
  8
CSLAYER1
  6
CONTINUOUS
 62
     7
 10
638.315063
 20
2078.990721
 11
638.315063
 21
2083.465500
  0
LINE
  8
CSLAYER1
  6
CONTINUOUS
 62
     7
 10
631.595063
 20
2078.990721
 11
631.595063
 21
2083.465500
  0
LINE
  8
CSLAYER1
  6
CONTINUOUS
 62
     7
 10
638.315063
 20
2078.990721
 11
638.302278
 21
2078.822753
  0
LINE
  8
CSLAYER1
  6
CONTINUOUS
 62
     7
 10
638.302278
 20
2078.822753
 11
638.264018
 21
2078.656063
  0
LINE
  8
CSLAYER1
  6
CONTINUOUS
 62
     7
 10
638.264018
 20
2078.656063
 11
638.200574
 21
2078.491921
  0
LINE
  8
CSLAYER1
  6
CONTINUOUS
 62
     7
 10
638.200574
 20
2078.491921
 11
638.112431
 21
2078.331574
  0
LINE
  8
CSLAYER1
  6
CONTINUOUS
 62
     7
 10
638.112431
 20
2078.331574
 11
638.000258
 21
2078.176244
  0
LINE
  8
CSLAYER1
  6
CONTINUOUS
 62
     7
 10
638.000258
 20
2078.176244
 11
637.864909
 21
2078.027113
  0
LINE
  8
CSLAYER1
  6
CONTINUOUS
 62
     7
 10
637.864909
 20
2078.027113
 11
637.707414
 21
2077.885315
  0
LINE
  8
CSLAYER1
  6
CONTINUOUS
 62
     7
 10
637.707414
 20
2077.885315
 11
637.528973
 21
2077.751930
  0
LINE
  8
CSLAYER1
  6
CONTINUOUS
 62
     7
 10
637.528973
 20
2077.751930
 11
637.330942
 21
2077.627973
  0
LINE
  8
CSLAYER1
  6
CONTINUOUS
 62
     7
 10
637.330942
 20
2077.627973
 11
637.114830
 21
2077.514387
  0
LINE
  8
CSLAYER1
  6
CONTINUOUS
 62
     7
 10
637.114830
 20
2077.514387
 11
636.882280
 21
2077.412037
  0
LINE
  8
CSLAYER1
  6
CONTINUOUS
 62
     7
 10
636.882280
 20
2077.412037
 11
636.635063
 21
2077.321702
  0
LINE
  8
CSLAYER1
  6
CONTINUOUS
 62
     7
 10
636.635063
 20
2077.321702
 11
636.375061
 21
2077.244069
  0
LINE
  8
CSLAYER1
  6
CONTINUOUS
 62
     7
 10
636.375061
 20
2077.244069
 11
636.104251
 21
2077.179730
  0
LINE
  8
CSLAYER1
  6
CONTINUOUS
 62
     7
 10
636.104251
 20
2077.179730
 11
635.824695
 21
2077.129173
  0
LINE
  8
CSLAYER1
  6
CONTINUOUS
 62
     7
 10
635.824695
 20
2077.129173
 11
635.538521
 21
2077.092783
  0
LINE
  8
CSLAYER1
  6
CONTINUOUS
 62
     7
 10
635.538521
 20
2077.092783
 11
635.247907
 21
2077.070838
  0
LINE
  8
CSLAYER1
  6
CONTINUOUS
 62
     7
 10
635.247907
 20
2077.070838
 11
634.955063
 21
2077.063504
  0
LINE
  8
CSLAYER1
  6
CONTINUOUS
 62
     7
 10
634.955063
 20
2077.063504
 11
634.662220
 21
2077.070838
  0
LINE
  8
CSLAYER1
  6
CONTINUOUS
 62
     7
 10
634.662220
 20
2077.070838
 11
634.371606
 21
2077.092783
  0
LINE
  8
CSLAYER1
  6
CONTINUOUS
 62
     7
 10
634.371606
 20
2077.092783
 11
634.085431
 21
2077.129173
  0
LINE
  8
CSLAYER1
  6
CONTINUOUS
 62
     7
 10
634.085431
 20
2077.129173
 11
633.805876
 21
2077.179730
  0
LINE
  8
CSLAYER1
  6
CONTINUOUS
 62
     7
 10
633.805876
 20
2077.179730
 11
633.535066
 21
2077.244069
  0
LINE
  8
CSLAYER1
  6
CONTINUOUS
 62
     7
 10
633.535066
 20
2077.244069
 11
633.275063
 21
2077.321702
  0
LINE
  8
CSLAYER1
  6
CONTINUOUS
 62
     7
 10
633.275063
 20
2077.321702
 11
633.027847
 21
2077.412037
  0
LINE
  8
CSLAYER1
  6
CONTINUOUS
 62
     7
 10
633.027847
 20
2077.412037
 11
632.795297
 21
2077.514387
  0
LINE
  8
CSLAYER1
  6
CONTINUOUS
 62
     7
 10
632.795297
 20
2077.514387
 11
632.579185
 21
2077.627973
  0
LINE
  8
CSLAYER1
  6
CONTINUOUS
 62
     7
 10
632.579185
 20
2077.627973
 11
632.381154
 21
2077.751930
  0
LINE
  8
CSLAYER1
  6
CONTINUOUS
 62
     7
 10
632.381154
 20
2077.751930
 11
632.202713
 21
2077.885315
  0
LINE
  8
CSLAYER1
  6
CONTINUOUS
 62
     7
 10
632.202713
 20
2077.885315
 11
632.045218
 21
2078.027113
  0
LINE
  8
CSLAYER1
  6
CONTINUOUS
 62
     7
 10
632.045218
 20
2078.027113
 11
631.909869
 21
2078.176244
  0
LINE
  8
CSLAYER1
  6
CONTINUOUS
 62
     7
 10
631.909869
 20
2078.176244
 11
631.797696
 21
2078.331574
  0
LINE
  8
CSLAYER1
  6
CONTINUOUS
 62
     7
 10
631.797696
 20
2078.331574
 11
631.709553
 21
2078.491921
  0
LINE
  8
CSLAYER1
  6
CONTINUOUS
 62
     7
 10
631.709553
 20
2078.491921
 11
631.646109
 21
2078.656063
  0
LINE
  8
CSLAYER1
  6
CONTINUOUS
 62
     7
 10
631.646109
 20
2078.656063
 11
631.607849
 21
2078.822753
  0
LINE
  8
CSLAYER1
  6
CONTINUOUS
 62
     7
 10
631.607849
 20
2078.822753
 11
631.595063
 21
2078.990721
  0
LINE
  8
CSLAYER1
  6
CONTINUOUS
 62
     7
 10
636.537960
 20
2092.243811
 11
622.034209
 21
2097.522745
  0
LINE
  8
CSLAYER1
  6
CONTINUOUS
 62
     7
 10
636.537960
 20
2092.243811
 11
636.537960
 21
2087.531378
  0
LINE
  8
CSLAYER1
  6
CONTINUOUS
 62
     7
 10
623.823813
 20
2096.871383
 11
628.571063
 21
2099.837794
  0
LINE
  8
CSLAYER1
  6
CONTINUOUS
 62
     7
 10
636.537960
 20
2091.043873
 11
643.770869
 21
2095.563496
  0
LINE
  8
CSLAYER1
  6
CONTINUOUS
 62
     7
 10
636.537960
 20
2088.622064
 11
643.107130
 21
2092.726937
  0
ARC
  8
CSLAYER1
  6
CONTINUOUS
 62
     7
 10
637.359749
 20
2092.033658
 40
7.403380
 50
30.339165
 51
57.486408
  0
ARC
  8
CSLAYER1
  6
CONTINUOUS
 62
     7
 10
639.019071
 20
2095.179456
 40
4.767292
 50
-30.960488
 51
7.154948
  0
ENDBLK
  8
0
  0
BLOCK
  8
CSLAYER1
  2
BLKF0009
 70
   64
 10
0.0
 20
0.0
 30
0.0
  0
CIRCLE
  8
CSLAYER1
  6
CONTINUOUS
 62
     3
 10
1729.511546
 20
1119.033825
 40
8.500000
  0
LINE
  8
CSLAYER1
  6
CONTINUOUS
 62
     3
 10
1734.419023
 20
1127.533825
 11
1724.604068
 21
1127.533825
  0
LINE
  8
CSLAYER1
  6
CONTINUOUS
 62
     3
 10
1724.604068
 20
1127.533825
 11
1719.696591
 21
1119.033825
  0
LINE
  8
CSLAYER1
  6
CONTINUOUS
 62
     3
 10
1719.696591
 20
1119.033825
 11
1724.604068
 21
1110.533825
  0
LINE
  8
CSLAYER1
  6
CONTINUOUS
 62
     3
 10
1724.604068
 20
1110.533825
 11
1734.419023
 21
1110.533825
  0
LINE
  8
CSLAYER1
  6
CONTINUOUS
 62
     3
 10
1734.419023
 20
1110.533825
 11
1739.326500
 21
1119.033825
  0
LINE
  8
CSLAYER1
  6
CONTINUOUS
 62
     3
 10
1739.326500
 20
1119.033825
 11
1734.419023
 21
1127.533825
  0
CIRCLE
  8
CSLAYER1
  6
CONTINUOUS
 62
     4
 10
1729.511546
 20
1119.033825
 40
5.000000
  0
CIRCLE
  8
CSLAYER1
  6
CONTINUOUS
 62
     3
 10
1729.511546
 20
1119.033825
 40
4.300000
  0
POINT
  8
CSLAYER1
 62
     3
 10
1729.511546
 20
1119.033825
  0
ENDBLK
  8
0
  0
BLOCK
  8
CSLAYER1
  2
BLKF0010
 70
   64
 10
0.0
 20
0.0
 30
0.0
  0
POINT
  8
CSLAYER1
 62
     3
 10
1538.959461
 20
855.756588
  0
CIRCLE
  8
CSLAYER1
  6
CONTINUOUS
 62
     3
 10
1538.959461
 20
855.756588
 40
9.500000
  0
LINE
  8
CSLAYER1
  6
CONTINUOUS
 62
     3
 10
1548.459461
 20
861.241416
 11
1538.959461
 21
866.726244
  0
LINE
  8
CSLAYER1
  6
CONTINUOUS
 62
     3
 10
1538.959461
 20
866.726244
 11
1529.459461
 21
861.241416
  0
LINE
  8
CSLAYER1
  6
CONTINUOUS
 62
     3
 10
1529.459461
 20
861.241416
 11
1529.459461
 21
850.271761
  0
LINE
  8
CSLAYER1
  6
CONTINUOUS
 62
     3
 10
1529.459461
 20
850.271761
 11
1538.959461
 21
844.786933
  0
LINE
  8
CSLAYER1
  6
CONTINUOUS
 62
     3
 10
1538.959461
 20
844.786933
 11
1548.459461
 21
850.271761
  0
LINE
  8
CSLAYER1
  6
CONTINUOUS
 62
     3
 10
1548.459461
 20
850.271761
 11
1548.459461
 21
861.241416
  0
POINT
  8
CSLAYER1
 62
     3
 10
1538.959461
 20
855.756588
  0
ENDBLK
  8
0
  0
BLOCK
  8
CSLAYER1
  2
BLKF0011
 70
   64
 10
0.0
 20
0.0
 30
0.0
  0
LINE
  8
CSLAYER1
  6
CONTINUOUS
 62
     3
 10
1557.959461
 20
844.256588
 11
1557.959461
 21
878.256588
  0
LINE
  8
CSLAYER1
  6
CONTINUOUS
 62
     3
 10
1513.959461
 20
844.256588
 11
1563.959461
 21
844.256588
  0
LINE
  8
CSLAYER1
  6
CONTINUOUS
 62
     3
 10
1563.959461
 20
838.256588
 11
1563.959461
 21
844.256588
  0
ENDBLK
  8
0
  0
BLOCK
  8
CSLAYER1
  2
BLKF0012
 70
   64
 10
0.0
 20
0.0
 30
0.0
  0
TEXT
  8
CSLAYER1
 62
     7
 10
1303.463623
 20
1335.946655
 40
40.000000
 41
0.787500
  1
テーブルのズレ
 50
0.000000
 51
0.000000
  7
EASYDRAW_FONT
 72
     5
 11
1513.463623
 21
1335.946655
  0
DIMENSION
  8
CSLAYER1
 62
     3
  2
*D0005
 10
1538.936766
 20
1270.713834
 11
1430.969482
 21
1288.429321
 13
1516.659461
 23
903.056588
 14
1538.936766
 24
1418.234699
  0
INSERT
  8
CSLAYER1
  2
EASYDRAWDIM0006
 10
0.0
 20
0.0
 30
0.0
  0
LINE
  8
CSLAYER1
  6
CONTINUOUS
 62
     5
 10
1625.871727
 20
1061.688342
 11
1468.720152
 21
1153.810097
  0
LINE
  8
CSLAYER1
  6
CONTINUOUS
 62
     5
 10
1625.871727
 20
1061.688342
 11
1596.945905
 21
1069.644271
  0
LINE
  8
CSLAYER1
  6
CONTINUOUS
 62
     5
 10
1625.871727
 20
1061.688342
 11
1604.799195
 21
1083.041290
  0
ENDBLK
  8
0
  0
ENDSEC
  0
SECTION
  2
ENTITIES
  0
LINE
  8
CSLAYER1
  6
CONTINUOUS
 62
     3
 10
184.880350
 20
2462.142005
 11
184.880350
 21
113.595075
  0
LINE
  8
CSLAYER1
  6
CONTINUOUS
 62
     3
 10
3507.453660
 20
2462.142005
 11
184.880350
 21
2462.142005
  0
LINE
  8
CSLAYER1
  6
CONTINUOUS
 62
     3
 10
3507.453660
 20
2462.142005
 11
3507.453660
 21
113.595075
  0
LINE
  8
CSLAYER1
  6
CONTINUOUS
 62
     3
 10
3507.453660
 20
113.595075
 11
184.880350
 21
113.595075
  0
LINE
  8
CSLAYER1
  6
CONTINUOUS
 62
     5
 10
134.880350
 20
1273.595075
 11
84.880350
 21
1273.595075
  0
LINE
  8
CSLAYER1
  6
CONTINUOUS
 62
     5
 10
2707.453660
 20
553.595075
 11
3507.453660
 21
553.595075
  0
LINE
  8
CSLAYER1
  6
CONTINUOUS
 62
     5
 10
2707.453660
 20
193.595075
 11
3507.453660
 21
193.595075
  0
LINE
  8
CSLAYER1
  6
CONTINUOUS
 62
     5
 10
2707.453660
 20
353.595075
 11
3507.453660
 21
353.595075
  0
LINE
  8
CSLAYER1
  6
CONTINUOUS
 62
     5
 10
2707.453660
 20
413.595075
 11
3507.453660
 21
413.595075
  0
LINE
  8
CSLAYER1
  6
CONTINUOUS
 62
     5
 10
2707.453660
 20
473.595075
 11
3507.453660
 21
473.595075
  0
LINE
  8
CSLAYER1
  6
CONTINUOUS
 62
     5
 10
2707.453660
 20
633.595075
 11
3507.453660
 21
633.595075
  0
LINE
  8
CSLAYER1
  6
CONTINUOUS
 62
     5
 10
2707.453660
 20
713.595075
 11
2707.453660
 21
113.595075
  0
LINE
  8
CSLAYER1
  6
CONTINUOUS
 62
     5
 10
2907.453660
 20
713.595075
 11
2907.453660
 21
473.595075
  0
LINE
  8
CSLAYER1
  6
CONTINUOUS
 62
     5
 10
2707.453660
 20
713.595075
 11
3507.453660
 21
713.595075
  0
LINE
  8
CSLAYER1
  6
CONTINUOUS
 62
     5
 10
3207.453660
 20
473.595075
 11
3207.453660
 21
193.595075
  0
TEXT
  8
CSLAYER1
 62
     3
 10
2927.144832
 20
122.157795
 40
59.380363
 41
1.003345
  1
東正車輌株式会社
 50
0.000000
 51
0.000000
  7
EASYDRAW_FONT
 72
     5
 11
3383.917180
 21
122.157795
  0
LINE
  8
CSLAYER1
  6
CONTINUOUS
 62
     5
 10
2957.453660
 20
413.595075
 11
2957.453660
 21
193.595075
  0
TEXT
  8
CSLAYER1
 62
     5
 10
2737.453613
 20
648.595032
 40
50.000000
 41
1.050000
  1
品　名
 50
0.000000
 51
0.000000
  7
EASYDRAW_FONT
 72
     5
 11
2877.453613
 21
648.595032
  0
TEXT
  8
CSLAYER1
 62
     5
 10
2737.453613
 20
568.595032
 40
50.000000
 41
1.050000
  1
型　式
 50
0.000000
 51
0.000000
  7
EASYDRAW_FONT
 72
     5
 11
2877.453613
 21
568.595032
  0
TEXT
  8
CSLAYER1
 62
     5
 10
2712.453613
 20
488.595093
 40
50.000000
 41
1.036364
  1
図面番号
 50
0.000000
 51
0.000000
  7
EASYDRAW_FONT
 72
     5
 11
2902.453613
 21
488.595093
  0
TEXT
  8
CSLAYER1
 62
     5
 10
2737.453613
 20
418.595093
 40
50.000000
 41
0.825000
  1
平成26年01月10日
 50
0.000000
 51
0.000000
  7
EASYDRAW_FONT
 72
     5
 11
3177.453613
 21
418.595093
  0
TEXT
  8
CSLAYER1
 62
     5
 10
3287.453613
 20
418.595093
 40
50.000000
 41
1.050000
  1
Ｂ－４
 50
0.000000
 51
0.000000
  7
EASYDRAW_FONT
 72
     5
 11
3427.453613
 21
418.595093
  0
TEXT
  8
CSLAYER1
 62
     5
 10
2762.453613
 20
358.595093
 40
50.000000
 41
1.050000
  1
検　図
 50
0.000000
 51
0.000000
  7
EASYDRAW_FONT
 72
     5
 11
2902.453613
 21
358.595093
  0
TEXT
  8
CSLAYER1
 62
     5
 10
3012.453613
 20
358.595093
 40
50.000000
 41
1.050000
  1
作　図
 50
0.000000
 51
0.000000
  7
EASYDRAW_FONT
 72
     5
 11
3152.453613
 21
358.595093
  0
TEXT
  8
CSLAYER1
 62
     5
 10
3287.453613
 20
358.595093
 40
50.000000
 41
1.050000
  1
尺　度
 50
0.000000
 51
0.000000
  7
EASYDRAW_FONT
 72
     5
 11
3427.453613
 21
358.595093
  0
TEXT
  8
CSLAYER1
 62
     5
 10
3388.192383
 20
208.080338
 40
50.000000
 41
1.080000
  1
１０
 50
0.000000
 51
0.000000
  7
EASYDRAW_FONT
 72
     5
 11
3478.192383
 21
208.080338
  0
TEXT
  8
CSLAYER1
 62
     5
 10
3367.872803
 20
255.785034
 40
50.000000
 41
1.200000
  1
／
 50
0.000000
 51
0.000000
  7
EASYDRAW_FONT
 72
     5
 11
3407.872803
 21
255.785034
  0
TEXT
  8
CSLAYER1
 62
     5
 10
3337.659912
 20
290.768494
 40
50.000000
 41
1.200000
  1
１
 50
0.000000
 51
0.000000
  7
EASYDRAW_FONT
 72
     5
 11
3377.659912
 21
290.768494
  0
TEXT
  8
CSLAYER1
 62
     3
 10
3047.453613
 20
648.595032
 40
50.000000
 41
0.834783
  1
ゴールドリフター
 50
0.000000
 51
0.000000
  7
EASYDRAW_FONT
 72
     5
 11
3367.453613
 21
648.595032
  0
TEXT
  8
CSLAYER1
 62
     3
 10
2947.453613
 20
568.595032
 40
50.000000
 41
0.821053
  1
GLSH-150-2007
 50
0.000000
 51
0.000000
  7
EASYDRAW_FONT
 72
     5
 11
3467.453613
 21
568.595032
  0
INSERT
  8
CSLAYER1
  2
BLKF0000
 10
0.0
 20
0.0
 30
0.0
  0
LINE
  8
CSLAYER1
  6
CONTINUOUS
 62
     5
 10
3483.453660
 20
2372.142005
 11
2603.453660
 21
2372.142005
  0
LINE
  8
CSLAYER1
  6
CONTINUOUS
 62
     5
 10
3483.453660
 20
2318.808672
 11
2603.453660
 21
2318.808672
  0
LINE
  8
CSLAYER1
  6
CONTINUOUS
 62
     5
 10
3483.453660
 20
2265.475338
 11
2603.453660
 21
2265.475338
  0
LINE
  8
CSLAYER1
  6
CONTINUOUS
 62
     5
 10
3483.453660
 20
2158.808672
 11
2603.453660
 21
2158.808672
  0
LINE
  8
CSLAYER1
  6
CONTINUOUS
 62
     5
 10
3483.453660
 20
2052.142005
 11
2603.453660
 21
2052.142005
  0
LINE
  8
CSLAYER1
  6
CONTINUOUS
 62
     5
 10
3483.453660
 20
1838.808672
 11
2603.453660
 21
1838.808672
  0
LINE
  8
CSLAYER1
  6
CONTINUOUS
 62
     5
 10
3483.453660
 20
1838.808668
 11
2603.453660
 21
1838.808668
  0
LINE
  8
CSLAYER1
  6
CONTINUOUS
 62
     5
 10
3483.453660
 20
1785.475335
 11
2603.453660
 21
1785.475335
  0
TEXT
  8
CSLAYER1
 62
     3
 10
2616.786621
 20
2378.808594
 40
40.000000
 41
0.838235
  1
仕    様
 50
0.000000
 51
0.000000
  7
EASYDRAW_FONT
 72
     5
 11
2806.786621
 21
2378.808594
  0
TEXT
  8
CSLAYER1
 62
     3
 10
2616.786621
 20
2325.475342
 40
40.000000
 41
0.838235
  1
型    式
 50
0.000000
 51
0.000000
  7
EASYDRAW_FONT
 72
     5
 11
2806.786621
 21
2325.475342
  0
TEXT
  8
CSLAYER1
 62
     3
 10
2981.786865
 20
2325.475342
 40
40.000000
 41
0.817105
  1
GLSH-150-2007
 50
0.000000
 51
0.000000
  7
EASYDRAW_FONT
 72
     5
 11
3395.786865
 21
2325.475342
  0
TEXT
  8
CSLAYER1
 62
     3
 10
2616.786621
 20
2272.142090
 40
40.000000
 41
0.859091
  1
均等荷重
 50
0.000000
 51
0.000000
  7
EASYDRAW_FONT
 72
     5
 11
2742.786621
 21
2272.142090
  0
TEXT
  8
CSLAYER1
 62
     3
 10
3408.119873
 20
2272.142090
 40
40.000000
 41
0.930000
  1
ｋｇ
 50
0.000000
 51
0.000000
  7
EASYDRAW_FONT
 72
     5
 11
3470.119873
 21
2272.142090
  0
TEXT
  8
CSLAYER1
 62
     3
 10
2616.786621
 20
2165.475098
 40
40.000000
 41
0.838235
  1
テーブル高サ
 50
0.000000
 51
0.000000
  7
EASYDRAW_FONT
 72
     5
 11
2806.786621
 21
2165.475098
  0
TEXT
  8
CSLAYER1
 62
     3
 10
3408.119873
 20
2165.475098
 40
40.000000
 41
0.930000
  1
ｍｍ
 50
0.000000
 51
0.000000
  7
EASYDRAW_FONT
 72
     5
 11
3470.119873
 21
2165.475098
  0
TEXT
  8
CSLAYER1
 62
     3
 10
2616.786621
 20
2058.808350
 40
40.000000
 41
0.838235
  1
全    長
 50
0.000000
 51
0.000000
  7
EASYDRAW_FONT
 72
     5
 11
2806.786621
 21
2058.808350
  0
TEXT
  8
CSLAYER1
 62
     3
 10
3141.786865
 20
2058.808350
 40
40.000000
 41
0.881250
  1
703
 50
0.000000
 51
0.000000
  7
EASYDRAW_FONT
 72
     5
 11
3235.786865
 21
2058.808350
  0
TEXT
  8
CSLAYER1
 62
     3
 10
3125.786865
 20
1845.474976
 40
40.000000
 41
0.859091
  1
約 28
 50
0.000000
 51
0.000000
  7
EASYDRAW_FONT
 72
     5
 11
3251.786865
 21
1845.474976
  0
TEXT
  8
CSLAYER1
 62
     3
 10
2616.786621
 20
1845.474976
 40
40.000000
 41
0.846429
  1
ポンプ回数
 50
0.000000
 51
0.000000
  7
EASYDRAW_FONT
 72
     5
 11
2774.786621
 21
1845.474976
  0
TEXT
  8
CSLAYER1
 62
     3
 10
2616.786621
 20
1792.141724
 40
40.000000
 41
0.832500
  1
自     重
 50
0.000000
 51
0.000000
  7
EASYDRAW_FONT
 72
     5
 11
2838.786621
 21
1792.141724
  0
TEXT
  8
CSLAYER1
 62
     3
 10
2616.786621
 20
1738.808472
 40
40.000000
 41
0.832500
  1
塗  装  色
 50
0.000000
 51
0.000000
  7
EASYDRAW_FONT
 72
     5
 11
2838.786621
 21
1738.808472
  0
TEXT
  8
CSLAYER1
 62
     3
 10
3141.786865
 20
2272.142090
 40
40.000000
 41
0.881250
  1
150
 50
0.000000
 51
0.000000
  7
EASYDRAW_FONT
 72
     5
 11
3235.786865
 21
2272.142090
  0
TEXT
  8
CSLAYER1
 62
     3
 10
3093.786865
 20
2165.475098
 40
40.000000
 41
0.838235
  1
65～570
 50
0.000000
 51
0.000000
  7
EASYDRAW_FONT
 72
     5
 11
3283.786865
 21
2165.475098
  0
TEXT
  8
CSLAYER1
 62
     3
 10
3408.119873
 20
2058.808350
 40
40.000000
 41
0.930000
  1
ｍｍ
 50
0.000000
 51
0.000000
  7
EASYDRAW_FONT
 72
     5
 11
3470.119873
 21
2058.808350
  0
LINE
  8
CSLAYER1
  6
CONTINUOUS
 62
     5
 10
3483.453660
 20
1998.808672
 11
2603.453660
 21
1998.808672
  0
TEXT
  8
CSLAYER1
 62
     3
 10
2616.786621
 20
2005.474976
 40
40.000000
 41
0.838235
  1
全    幅
 50
0.000000
 51
0.000000
  7
EASYDRAW_FONT
 72
     5
 11
2806.786621
 21
2005.474976
  0
TEXT
  8
CSLAYER1
 62
     3
 10
3141.786865
 20
2005.474976
 40
40.000000
 41
0.881250
  1
300
 50
0.000000
 51
0.000000
  7
EASYDRAW_FONT
 72
     5
 11
3235.786865
 21
2005.474976
  0
TEXT
  8
CSLAYER1
 62
     3
 10
3408.119873
 20
2005.474976
 40
40.000000
 41
0.930000
  1
ｍｍ
 50
0.000000
 51
0.000000
  7
EASYDRAW_FONT
 72
     5
 11
3470.119873
 21
2005.474976
  0
TEXT
  8
CSLAYER1
 62
     3
 10
3408.119873
 20
1792.141724
 40
40.000000
 41
0.930000
  1
ｋｇ
 50
0.000000
 51
0.000000
  7
EASYDRAW_FONT
 72
     5
 11
3470.119873
 21
1792.141724
  0
LINE
  8
CSLAYER1
  6
CONTINUOUS
 62
     5
 10
3483.453660
 20
2212.142005
 11
2603.453660
 21
2212.142005
  0
TEXT
  8
CSLAYER1
 62
     3
 10
2616.786621
 20
2218.808838
 40
40.000000
 41
0.838235
  1
テーブル寸法
 50
0.000000
 51
0.000000
  7
EASYDRAW_FONT
 72
     5
 11
2806.786621
 21
2218.808838
  0
TEXT
  8
CSLAYER1
 62
     3
 10
3408.119873
 20
2218.808838
 40
40.000000
 41
0.930000
  1
ｍｍ
 50
0.000000
 51
0.000000
  7
EASYDRAW_FONT
 72
     5
 11
3470.119873
 21
2218.808838
  0
TEXT
  8
CSLAYER1
 62
     3
 10
3045.786865
 20
2218.808838
 40
40.000000
 41
0.825000
  1
700L×200W
 50
0.000000
 51
0.000000
  7
EASYDRAW_FONT
 72
     5
 11
3331.786865
 21
2218.808838
  0
LINE
  8
CSLAYER1
  6
CONTINUOUS
 62
     5
 10
3483.453660
 20
2105.475338
 11
2603.453660
 21
2105.475338
  0
TEXT
  8
CSLAYER1
 62
     3
 10
3408.119873
 20
2112.141846
 40
40.000000
 41
0.930000
  1
ｍｍ
 50
0.000000
 51
0.000000
  7
EASYDRAW_FONT
 72
     5
 11
3470.119873
 21
2112.141846
  0
TEXT
  8
CSLAYER1
 62
     3
 10
3141.786865
 20
2112.141846
 40
40.000000
 41
0.881250
  1
505
 50
0.000000
 51
0.000000
  7
EASYDRAW_FONT
 72
     5
 11
3235.786865
 21
2112.141846
  0
TEXT
  8
CSLAYER1
 62
     3
 10
2618.619141
 20
2112.141846
 40
40.000000
 41
0.846429
  1
ストローク
 50
0.000000
 51
0.000000
  7
EASYDRAW_FONT
 72
     5
 11
2776.619141
 21
2112.141846
  0
LINE
  8
CSLAYER1
  6
CONTINUOUS
 62
     5
 10
3483.453660
 20
1945.475338
 11
2603.453660
 21
1945.475338
  0
TEXT
  8
CSLAYER1
 62
     3
 10
2616.786621
 20
1952.141724
 40
40.000000
 41
0.838235
  1
全    高
 50
0.000000
 51
0.000000
  7
EASYDRAW_FONT
 72
     5
 11
2806.786621
 21
1952.141724
  0
TEXT
  8
CSLAYER1
 62
     3
 10
3141.786865
 20
1952.141724
 40
40.000000
 41
0.881250
  1
 65
 50
0.000000
 51
0.000000
  7
EASYDRAW_FONT
 72
     5
 11
3235.786865
 21
1952.141724
  0
TEXT
  8
CSLAYER1
 62
     3
 10
3408.119873
 20
1952.141724
 40
40.000000
 41
0.930000
  1
ｍｍ
 50
0.000000
 51
0.000000
  7
EASYDRAW_FONT
 72
     5
 11
3470.119873
 21
1952.141724
  0
LINE
  8
CSLAYER1
  6
CONTINUOUS
 62
     5
 10
3483.453660
 20
1892.142005
 11
2603.453660
 21
1892.142005
  0
TEXT
  8
CSLAYER1
 62
     3
 10
2616.786621
 20
1898.808350
 40
40.000000
 41
0.846429
  1
リフト方式
 50
0.000000
 51
0.000000
  7
EASYDRAW_FONT
 72
     5
 11
2774.786621
 21
1898.808350
  0
TEXT
  8
CSLAYER1
 62
     3
 10
3109.786865
 20
1898.808350
 40
40.000000
 41
0.846429
  1
足踏油圧式
 50
0.000000
 51
0.000000
  7
EASYDRAW_FONT
 72
     5
 11
3267.786865
 21
1898.808350
  0
LINE
  8
CSLAYER1
  6
CONTINUOUS
 62
     5
 10
2907.453660
 20
1732.142002
 11
2907.453660
 21
2372.142005
  0
TEXT
  8
CSLAYER1
 62
     3
 10
3440.119873
 20
1845.475098
 40
40.000000
 41
1.125000
  1
回
 50
0.000000
 51
0.000000
  7
EASYDRAW_FONT
 72
     5
 11
3470.119873
 21
1845.475098
  0
LINE
  8
CSLAYER2
  6
CONTINUOUS
 62
     5
 10
1036.174481
 20
2412.142005
 11
234.880350
 21
2412.142005
  0
INSERT
  8
CSLAYER1
  2
BLKF0001
 10
0.0
 20
0.0
 30
0.0
  0
INSERT
  8
CSLAYER1
  2
BLKF0002
 10
0.0
 20
0.0
 30
0.0
  0
LINE
  8
CSLAYER1
  6
CONTINUOUS
 62
     7
 10
664.027453
 20
1850.559794
 11
791.553749
 21
1992.580555
  0
LINE
  8
CSLAYER1
  6
CONTINUOUS
 62
     7
 10
440.851561
 20
1938.377814
 11
626.223332
 21
2007.416792
  0
LINE
  8
CSLAYER1
  6
CONTINUOUS
 62
     7
 10
445.917142
 20
1924.423080
 11
665.379799
 21
2006.158706
  0
LINE
  8
CSLAYER1
  6
CONTINUOUS
 62
     7
 10
652.420686
 20
1860.451682
 11
744.182571
 21
1962.643097
  0
LINE
  8
CSLAYER1
  6
CONTINUOUS
 62
     7
 10
774.697702
 20
2139.694076
 11
774.697702
 21
2034.297819
  0
LINE
  8
CSLAYER1
  6
CONTINUOUS
 62
     7
 10
774.697702
 20
2139.694076
 11
654.717748
 21
2183.363208
  0
LINE
  8
CSLAYER1
  6
CONTINUOUS
 62
     7
 10
746.203286
 20
1956.003384
 11
774.697702
 21
1973.808672
  0
LINE
  8
CSLAYER1
  6
CONTINUOUS
 62
     7
 10
746.203286
 20
2121.888789
 11
746.203286
 21
1956.003384
  0
LINE
  8
CSLAYER1
  6
CONTINUOUS
 62
     7
 10
746.203286
 20
2121.888789
 11
774.697702
 21
2139.694076
  0
LINE
  8
CSLAYER1
  6
CONTINUOUS
 62
     7
 10
655.111893
 20
2179.613171
 11
655.111893
 21
2144.787133
  0
LINE
  8
CSLAYER1
  6
CONTINUOUS
 62
     7
 10
626.223332
 20
2165.557921
 11
654.717748
 21
2183.363208
  0
LINE
  8
CSLAYER1
  6
CONTINUOUS
 62
     7
 10
746.203286
 20
1956.003384
 11
744.182571
 21
1956.738865
  0
LINE
  8
CSLAYER1
  6
CONTINUOUS
 62
     7
 10
744.182571
 20
1980.942432
 11
674.771273
 21
2006.206078
  0
LINE
  8
CSLAYER1
  6
CONTINUOUS
 62
     7
 10
770.853344
 20
2139.290018
 11
654.914820
 21
2181.488190
  0
LINE
  8
CSLAYER1
  6
CONTINUOUS
 62
     7
 10
704.046217
 20
2097.544292
 11
770.853344
 21
2139.290018
  0
LINE
  8
CSLAYER1
  6
CONTINUOUS
 62
     7
 10
746.203286
 20
2121.888789
 11
744.182571
 21
2122.624269
  0
LINE
  8
CSLAYER1
  6
CONTINUOUS
 62
     7
 10
744.182571
 20
2122.624269
 11
744.182571
 21
1980.942432
  0
LINE
  8
CSLAYER1
  6
CONTINUOUS
 62
     7
 10
626.223332
 20
2165.557921
 11
626.223332
 21
2163.559758
  0
LINE
  8
CSLAYER1
  6
CONTINUOUS
 62
     7
 10
626.223332
 20
2165.557921
 11
654.717748
 21
2183.363208
  0
LINE
  8
CSLAYER1
  6
CONTINUOUS
 62
     7
 10
628.244047
 20
2164.822441
 11
654.914820
 21
2181.488190
  0
LINE
  8
CSLAYER1
  6
CONTINUOUS
 62
     7
 10
628.244047
 20
2164.822441
 11
626.223332
 21
2165.557921
  0
LINE
  8
CSLAYER1
  6
CONTINUOUS
 62
     7
 10
628.244047
 20
1996.767487
 11
644.697253
 21
2007.048592
  0
LINE
  8
CSLAYER1
  6
CONTINUOUS
 62
     7
 10
702.025502
 20
2098.279772
 11
767.008986
 21
2138.885960
  0
LINE
  8
CSLAYER1
  6
CONTINUOUS
 62
     7
 10
700.446031
 20
2095.430330
 11
700.446031
 21
2028.344574
  0
LINE
  8
CSLAYER1
  6
CONTINUOUS
 62
     7
 10
702.466746
 20
2094.694850
 11
702.466746
 21
2028.698929
  0
LINE
  8
CSLAYER1
  6
CONTINUOUS
 62
     7
 10
767.008986
 20
2138.885960
 11
750.085498
 21
2145.045606
  0
LINE
  8
CSLAYER1
  6
CONTINUOUS
 62
     7
 10
700.446031
 20
2096.750449
 11
591.398378
 21
2136.440549
  0
LINE
  8
CSLAYER1
  6
CONTINUOUS
 62
     7
 10
700.446031
 20
2029.550449
 11
666.965817
 21
2041.736250
  0
LINE
  8
CSLAYER1
  6
CONTINUOUS
 62
     7
 10
591.707879
 20
2139.993947
 11
655.111893
 21
2179.613171
  0
LINE
  8
CSLAYER1
  6
CONTINUOUS
 62
     7
 10
589.687164
 20
2140.729427
 11
626.223332
 21
2163.559758
  0
LINE
  8
CSLAYER1
  6
CONTINUOUS
 62
     7
 10
586.528222
 20
2135.030544
 11
586.528222
 21
2069.175462
  0
LINE
  8
CSLAYER1
  6
CONTINUOUS
 62
     7
 10
588.548937
 20
2134.295063
 11
588.548937
 21
2070.161621
  0
LINE
  8
CSLAYER1
  6
CONTINUOUS
 62
     7
 10
591.398378
 20
2136.440549
 11
591.398378
 21
2069.240549
  0
LINE
  8
CSLAYER1
  6
CONTINUOUS
 62
     7
 10
591.398378
 20
2136.440549
 11
623.290717
 21
2156.369094
  0
LINE
  8
CSLAYER1
  6
CONTINUOUS
 62
     7
 10
731.789888
 20
2116.878625
 11
623.290717
 21
2156.369094
  0
LINE
  8
CSLAYER1
  6
CONTINUOUS
 62
     7
 10
707.607274
 20
2025.849488
 11
744.182571
 21
2048.704269
  0
LINE
  8
CSLAYER1
  6
CONTINUOUS
 62
     7
 10
704.448754
 20
2025.635437
 11
701.393329
 21
2026.747521
  0
LINE
  8
CSLAYER1
  6
CONTINUOUS
 62
     7
 10
650.464832
 20
2004.949365
 11
627.505858
 21
2013.305748
  0
LINE
  8
CSLAYER1
  6
CONTINUOUS
 62
     7
 10
650.464832
 20
2004.949365
 11
654.361511
 21
2007.384280
  0
LINE
  8
CSLAYER1
  6
CONTINUOUS
 62
     7
 10
634.566741
 20
2051.582180
 11
635.851892
 21
2052.385232
  0
LINE
  8
CSLAYER1
  6
CONTINUOUS
 62
     7
 10
642.408856
 20
2038.764237
 11
643.814417
 21
2039.642529
  0
LINE
  8
CSLAYER1
  6
CONTINUOUS
 62
     7
 10
635.851892
 20
2052.385232
 11
636.185549
 21
2052.560012
  0
LINE
  8
CSLAYER1
  6
CONTINUOUS
 62
     7
 10
636.185549
 20
2052.560012
 11
636.546966
 21
2052.684972
  0
LINE
  8
CSLAYER1
  6
CONTINUOUS
 62
     7
 10
636.546966
 20
2052.684972
 11
636.933394
 21
2052.759161
  0
LINE
  8
CSLAYER1
  6
CONTINUOUS
 62
     7
 10
636.933394
 20
2052.759161
 11
637.341890
 21
2052.782015
  0
LINE
  8
CSLAYER1
  6
CONTINUOUS
 62
     7
 10
637.341890
 20
2052.782015
 11
637.769346
 21
2052.753359
  0
LINE
  8
CSLAYER1
  6
CONTINUOUS
 62
     7
 10
637.769346
 20
2052.753359
 11
638.212509
 21
2052.673412
  0
LINE
  8
CSLAYER1
  6
CONTINUOUS
 62
     7
 10
638.212509
 20
2052.673412
 11
638.668006
 21
2052.542781
  0
LINE
  8
CSLAYER1
  6
CONTINUOUS
 62
     7
 10
638.668006
 20
2052.542781
 11
639.132370
 21
2052.362462
  0
LINE
  8
CSLAYER1
  6
CONTINUOUS
 62
     7
 10
639.132370
 20
2052.362462
 11
639.602068
 21
2052.133826
  0
LINE
  8
CSLAYER1
  6
CONTINUOUS
 62
     7
 10
639.602068
 20
2052.133826
 11
640.073525
 21
2051.858613
  0
LINE
  8
CSLAYER1
  6
CONTINUOUS
 62
     7
 10
640.073525
 20
2051.858613
 11
640.543152
 21
2051.538919
  0
LINE
  8
CSLAYER1
  6
CONTINUOUS
 62
     7
 10
640.543152
 20
2051.538919
 11
641.007376
 21
2051.177175
  0
LINE
  8
CSLAYER1
  6
CONTINUOUS
 62
     7
 10
641.007376
 20
2051.177175
 11
641.462663
 21
2050.776136
  0
LINE
  8
CSLAYER1
  6
CONTINUOUS
 62
     7
 10
641.462663
 20
2050.776136
 11
641.905549
 21
2050.338854
  0
LINE
  8
CSLAYER1
  6
CONTINUOUS
 62
     7
 10
641.905549
 20
2050.338854
 11
642.332662
 21
2049.868655
  0
LINE
  8
CSLAYER1
  6
CONTINUOUS
 62
     7
 10
642.332662
 20
2049.868655
 11
642.740753
 21
2049.369120
  0
LINE
  8
CSLAYER1
  6
CONTINUOUS
 62
     7
 10
642.740753
 20
2049.369120
 11
643.126715
 21
2048.844049
  0
LINE
  8
CSLAYER1
  6
CONTINUOUS
 62
     7
 10
643.126715
 20
2048.844049
 11
643.487612
 21
2048.297438
  0
LINE
  8
CSLAYER1
  6
CONTINUOUS
 62
     7
 10
643.487612
 20
2048.297438
 11
643.820695
 21
2047.733449
  0
LINE
  8
CSLAYER1
  6
CONTINUOUS
 62
     7
 10
643.820695
 20
2047.733449
 11
644.123431
 21
2047.156372
  0
LINE
  8
CSLAYER1
  6
CONTINUOUS
 62
     7
 10
644.123431
 20
2047.156372
 11
644.393515
 21
2046.570601
  0
LINE
  8
CSLAYER1
  6
CONTINUOUS
 62
     7
 10
644.393515
 20
2046.570601
 11
644.628893
 21
2045.980593
  0
LINE
  8
CSLAYER1
  6
CONTINUOUS
 62
     7
 10
644.628893
 20
2045.980593
 11
644.827772
 21
2045.390837
  0
LINE
  8
CSLAYER1
  6
CONTINUOUS
 62
     7
 10
644.827772
 20
2045.390837
 11
644.988638
 21
2044.805824
  0
LINE
  8
CSLAYER1
  6
CONTINUOUS
 62
     7
 10
644.988638
 20
2044.805824
 11
645.110269
 21
2044.230005
  0
LINE
  8
CSLAYER1
  6
CONTINUOUS
 62
     7
 10
645.110269
 20
2044.230005
 11
645.191737
 21
2043.667762
  0
LINE
  8
CSLAYER1
  6
CONTINUOUS
 62
     7
 10
645.191737
 20
2043.667762
 11
645.232423
 21
2043.123374
  0
LINE
  8
CSLAYER1
  6
CONTINUOUS
 62
     7
 10
645.232423
 20
2043.123374
 11
645.232018
 21
2042.600985
  0
LINE
  8
CSLAYER1
  6
CONTINUOUS
 62
     7
 10
645.232018
 20
2042.600985
 11
645.190524
 21
2042.104570
  0
LINE
  8
CSLAYER1
  6
CONTINUOUS
 62
     7
 10
645.190524
 20
2042.104570
 11
645.108257
 21
2041.637907
  0
LINE
  8
CSLAYER1
  6
CONTINUOUS
 62
     7
 10
645.108257
 20
2041.637907
 11
644.985844
 21
2041.204548
  0
LINE
  8
CSLAYER1
  6
CONTINUOUS
 62
     7
 10
644.985844
 20
2041.204548
 11
644.824215
 21
2040.807791
  0
LINE
  8
CSLAYER1
  6
CONTINUOUS
 62
     7
 10
644.824215
 20
2040.807791
 11
644.624602
 21
2040.450656
  0
LINE
  8
CSLAYER1
  6
CONTINUOUS
 62
     7
 10
644.624602
 20
2040.450656
 11
644.388522
 21
2040.135860
  0
LINE
  8
CSLAYER1
  6
CONTINUOUS
 62
     7
 10
644.388522
 20
2040.135860
 11
644.117774
 21
2039.865799
  0
LINE
  8
CSLAYER1
  6
CONTINUOUS
 62
     7
 10
644.117774
 20
2039.865799
 11
643.814417
 21
2039.642529
  0
LINE
  8
CSLAYER1
  6
CONTINUOUS
 62
     7
 10
634.582636
 20
2051.578340
 11
634.779989
 21
2051.681720
  0
LINE
  8
CSLAYER1
  6
CONTINUOUS
 62
     7
 10
634.779989
 20
2051.681720
 11
635.141406
 21
2051.806681
  0
LINE
  8
CSLAYER1
  6
CONTINUOUS
 62
     7
 10
635.141406
 20
2051.806681
 11
635.527833
 21
2051.880870
  0
LINE
  8
CSLAYER1
  6
CONTINUOUS
 62
     7
 10
635.527833
 20
2051.880870
 11
635.936329
 21
2051.903723
  0
LINE
  8
CSLAYER1
  6
CONTINUOUS
 62
     7
 10
635.936329
 20
2051.903723
 11
636.363785
 21
2051.875067
  0
LINE
  8
CSLAYER1
  6
CONTINUOUS
 62
     7
 10
636.363785
 20
2051.875067
 11
636.806948
 21
2051.795120
  0
LINE
  8
CSLAYER1
  6
CONTINUOUS
 62
     7
 10
636.806948
 20
2051.795120
 11
637.262445
 21
2051.664489
  0
LINE
  8
CSLAYER1
  6
CONTINUOUS
 62
     7
 10
637.262445
 20
2051.664489
 11
637.726810
 21
2051.484170
  0
LINE
  8
CSLAYER1
  6
CONTINUOUS
 62
     7
 10
637.726810
 20
2051.484170
 11
638.196508
 21
2051.255534
  0
LINE
  8
CSLAYER1
  6
CONTINUOUS
 62
     7
 10
638.196508
 20
2051.255534
 11
638.667965
 21
2050.980321
  0
LINE
  8
CSLAYER1
  6
CONTINUOUS
 62
     7
 10
638.667965
 20
2050.980321
 11
639.137592
 21
2050.660627
  0
LINE
  8
CSLAYER1
  6
CONTINUOUS
 62
     7
 10
639.137592
 20
2050.660627
 11
639.601816
 21
2050.298884
  0
LINE
  8
CSLAYER1
  6
CONTINUOUS
 62
     7
 10
643.786177
 20
2042.789470
 11
643.826863
 21
2042.245082
  0
LINE
  8
CSLAYER1
  6
CONTINUOUS
 62
     7
 10
643.826863
 20
2042.245082
 11
643.826458
 21
2041.722693
  0
LINE
  8
CSLAYER1
  6
CONTINUOUS
 62
     7
 10
643.826458
 20
2041.722693
 11
643.784964
 21
2041.226278
  0
LINE
  8
CSLAYER1
  6
CONTINUOUS
 62
     7
 10
643.784964
 20
2041.226278
 11
643.702697
 21
2040.759616
  0
LINE
  8
CSLAYER1
  6
CONTINUOUS
 62
     7
 10
643.702697
 20
2040.759616
 11
643.580283
 21
2040.326257
  0
LINE
  8
CSLAYER1
  6
CONTINUOUS
 62
     7
 10
643.580283
 20
2040.326257
 11
643.418655
 21
2039.929500
  0
LINE
  8
CSLAYER1
  6
CONTINUOUS
 62
     7
 10
643.418655
 20
2039.929500
 11
643.219041
 21
2039.572364
  0
LINE
  8
CSLAYER1
  6
CONTINUOUS
 62
     7
 10
643.219041
 20
2039.572364
 11
642.982962
 21
2039.257568
  0
LINE
  8
CSLAYER1
  6
CONTINUOUS
 62
     7
 10
642.982962
 20
2039.257568
 11
642.712213
 21
2038.987507
  0
LINE
  8
CSLAYER1
  6
CONTINUOUS
 62
     7
 10
642.712213
 20
2038.987507
 11
642.408856
 21
2038.764237
  0
LINE
  8
CSLAYER1
  6
CONTINUOUS
 62
     7
 10
628.244047
 20
1996.767487
 11
626.223332
 21
1997.502967
  0
LINE
  8
CSLAYER1
  6
CONTINUOUS
 62
     7
 10
628.244047
 20
2013.037069
 11
628.244047
 21
1996.767487
  0
LINE
  8
CSLAYER1
  6
CONTINUOUS
 62
     7
 10
626.223332
 20
2007.999204
 11
626.223332
 21
2007.416792
  0
LINE
  8
CSLAYER1
  6
CONTINUOUS
 62
     7
 10
607.849841
 20
2122.807729
 11
608.058750
 21
2122.917162
  0
LINE
  8
CSLAYER1
  6
CONTINUOUS
 62
     7
 10
608.058750
 20
2122.917162
 11
608.285040
 21
2122.995402
  0
LINE
  8
CSLAYER1
  6
CONTINUOUS
 62
     7
 10
608.285040
 20
2122.995402
 11
608.526989
 21
2123.041853
  0
LINE
  8
CSLAYER1
  6
CONTINUOUS
 62
     7
 10
608.526989
 20
2123.041853
 11
608.782756
 21
2123.056162
  0
LINE
  8
CSLAYER1
  6
CONTINUOUS
 62
     7
 10
608.782756
 20
2123.056162
 11
609.050394
 21
2123.038220
  0
LINE
  8
CSLAYER1
  6
CONTINUOUS
 62
     7
 10
609.050394
 20
2123.038220
 11
609.327866
 21
2122.988164
  0
LINE
  8
CSLAYER1
  6
CONTINUOUS
 62
     7
 10
609.327866
 20
2122.988164
 11
609.613061
 21
2122.906374
  0
LINE
  8
CSLAYER1
  6
CONTINUOUS
 62
     7
 10
609.613061
 20
2122.906374
 11
609.903808
 21
2122.793472
  0
LINE
  8
CSLAYER1
  6
CONTINUOUS
 62
     7
 10
609.903808
 20
2122.793472
 11
610.197894
 21
2122.650319
  0
LINE
  8
CSLAYER1
  6
CONTINUOUS
 62
     7
 10
610.197894
 20
2122.650319
 11
610.493082
 21
2122.478004
  0
LINE
  8
CSLAYER1
  6
CONTINUOUS
 62
     7
 10
610.493082
 20
2122.478004
 11
610.787124
 21
2122.277837
  0
LINE
  8
CSLAYER1
  6
CONTINUOUS
 62
     7
 10
610.787124
 20
2122.277837
 11
611.077783
 21
2122.051343
  0
LINE
  8
CSLAYER1
  6
CONTINUOUS
 62
     7
 10
611.077783
 20
2122.051343
 11
611.362846
 21
2121.800246
  0
LINE
  8
CSLAYER1
  6
CONTINUOUS
 62
     7
 10
611.362846
 20
2121.800246
 11
611.640145
 21
2121.526455
  0
LINE
  8
CSLAYER1
  6
CONTINUOUS
 62
     7
 10
611.640145
 20
2121.526455
 11
611.907569
 21
2121.232055
  0
LINE
  8
CSLAYER1
  6
CONTINUOUS
 62
     7
 10
611.907569
 20
2121.232055
 11
612.163082
 21
2120.919287
  0
LINE
  8
CSLAYER1
  6
CONTINUOUS
 62
     7
 10
612.163082
 20
2120.919287
 11
612.404740
 21
2120.590531
  0
LINE
  8
CSLAYER1
  6
CONTINUOUS
 62
     7
 10
612.404740
 20
2120.590531
 11
612.630703
 21
2120.248288
  0
LINE
  8
CSLAYER1
  6
CONTINUOUS
 62
     7
 10
612.630703
 20
2120.248288
 11
612.839253
 21
2119.895164
  0
LINE
  8
CSLAYER1
  6
CONTINUOUS
 62
     7
 10
612.839253
 20
2119.895164
 11
613.028801
 21
2119.533846
  0
LINE
  8
CSLAYER1
  6
CONTINUOUS
 62
     7
 10
613.028801
 20
2119.533846
 11
613.197906
 21
2119.167084
  0
LINE
  8
CSLAYER1
  6
CONTINUOUS
 62
     7
 10
613.197906
 20
2119.167084
 11
613.345280
 21
2118.797669
  0
LINE
  8
CSLAYER1
  6
CONTINUOUS
 62
     7
 10
613.345280
 20
2118.797669
 11
613.469802
 21
2118.428413
  0
LINE
  8
CSLAYER1
  6
CONTINUOUS
 62
     7
 10
613.469802
 20
2118.428413
 11
613.570523
 21
2118.062125
  0
LINE
  8
CSLAYER1
  6
CONTINUOUS
 62
     7
 10
613.570523
 20
2118.062125
 11
613.646678
 21
2117.701594
  0
LINE
  8
CSLAYER1
  6
CONTINUOUS
 62
     7
 10
613.646678
 20
2117.701594
 11
613.697687
 21
2117.349564
  0
LINE
  8
CSLAYER1
  6
CONTINUOUS
 62
     7
 10
613.697687
 20
2117.349564
 11
613.723161
 21
2117.008713
  0
LINE
  8
CSLAYER1
  6
CONTINUOUS
 62
     7
 10
613.723161
 20
2117.008713
 11
613.722908
 21
2116.681635
  0
LINE
  8
CSLAYER1
  6
CONTINUOUS
 62
     7
 10
613.722908
 20
2116.681635
 11
613.696927
 21
2116.370821
  0
LINE
  8
CSLAYER1
  6
CONTINUOUS
 62
     7
 10
613.696927
 20
2116.370821
 11
613.645419
 21
2116.078635
  0
LINE
  8
CSLAYER1
  6
CONTINUOUS
 62
     7
 10
613.645419
 20
2116.078635
 11
613.568773
 21
2115.807301
  0
LINE
  8
CSLAYER1
  6
CONTINUOUS
 62
     7
 10
613.568773
 20
2115.807301
 11
613.467575
 21
2115.558885
  0
LINE
  8
CSLAYER1
  6
CONTINUOUS
 62
     7
 10
613.467575
 20
2115.558885
 11
613.342593
 21
2115.335276
  0
LINE
  8
CSLAYER1
  6
CONTINUOUS
 62
     7
 10
613.342593
 20
2115.335276
 11
613.194780
 21
2115.138176
  0
LINE
  8
CSLAYER1
  6
CONTINUOUS
 62
     7
 10
613.194780
 20
2115.138176
 11
613.025259
 21
2114.969086
  0
LINE
  8
CSLAYER1
  6
CONTINUOUS
 62
     7
 10
613.025259
 20
2114.969086
 11
612.835322
 21
2114.829293
  0
LINE
  8
CSLAYER1
  6
CONTINUOUS
 62
     7
 10
612.835322
 20
2114.829293
 11
612.626413
 21
2114.719860
  0
LINE
  8
CSLAYER1
  6
CONTINUOUS
 62
     7
 10
612.626413
 20
2114.719860
 11
612.400123
 21
2114.641620
  0
LINE
  8
CSLAYER1
  6
CONTINUOUS
 62
     7
 10
612.400123
 20
2114.641620
 11
612.158174
 21
2114.595169
  0
LINE
  8
CSLAYER1
  6
CONTINUOUS
 62
     7
 10
612.158174
 20
2114.595169
 11
611.902407
 21
2114.580859
  0
LINE
  8
CSLAYER1
  6
CONTINUOUS
 62
     7
 10
611.902407
 20
2114.580859
 11
611.634769
 21
2114.598802
  0
LINE
  8
CSLAYER1
  6
CONTINUOUS
 62
     7
 10
611.634769
 20
2114.598802
 11
611.357297
 21
2114.648858
  0
LINE
  8
CSLAYER1
  6
CONTINUOUS
 62
     7
 10
611.357297
 20
2114.648858
 11
611.072102
 21
2114.730648
  0
LINE
  8
CSLAYER1
  6
CONTINUOUS
 62
     7
 10
611.072102
 20
2114.730648
 11
610.781355
 21
2114.843550
  0
LINE
  8
CSLAYER1
  6
CONTINUOUS
 62
     7
 10
610.781355
 20
2114.843550
 11
610.487269
 21
2114.986703
  0
LINE
  8
CSLAYER1
  6
CONTINUOUS
 62
     7
 10
610.487269
 20
2114.986703
 11
610.192081
 21
2115.159018
  0
LINE
  8
CSLAYER1
  6
CONTINUOUS
 62
     7
 10
610.192081
 20
2115.159018
 11
609.898039
 21
2115.359185
  0
LINE
  8
CSLAYER1
  6
CONTINUOUS
 62
     7
 10
609.898039
 20
2115.359185
 11
609.607380
 21
2115.585679
  0
LINE
  8
CSLAYER1
  6
CONTINUOUS
 62
     7
 10
609.607380
 20
2115.585679
 11
609.322317
 21
2115.836776
  0
LINE
  8
CSLAYER1
  6
CONTINUOUS
 62
     7
 10
609.322317
 20
2115.836776
 11
609.045018
 21
2116.110567
  0
LINE
  8
CSLAYER1
  6
CONTINUOUS
 62
     7
 10
609.045018
 20
2116.110567
 11
608.777594
 21
2116.404967
  0
LINE
  8
CSLAYER1
  6
CONTINUOUS
 62
     7
 10
608.777594
 20
2116.404967
 11
608.522081
 21
2116.717735
  0
LINE
  8
CSLAYER1
  6
CONTINUOUS
 62
     7
 10
608.522081
 20
2116.717735
 11
608.280424
 21
2117.046491
  0
LINE
  8
CSLAYER1
  6
CONTINUOUS
 62
     7
 10
608.280424
 20
2117.046491
 11
608.054460
 21
2117.388734
  0
LINE
  8
CSLAYER1
  6
CONTINUOUS
 62
     7
 10
608.054460
 20
2117.388734
 11
607.845910
 21
2117.741858
  0
LINE
  8
CSLAYER1
  6
CONTINUOUS
 62
     7
 10
607.845910
 20
2117.741858
 11
607.656362
 21
2118.103176
  0
LINE
  8
CSLAYER1
  6
CONTINUOUS
 62
     7
 10
607.656362
 20
2118.103176
 11
607.487257
 21
2118.469938
  0
LINE
  8
CSLAYER1
  6
CONTINUOUS
 62
     7
 10
607.487257
 20
2118.469938
 11
607.339883
 21
2118.839353
  0
LINE
  8
CSLAYER1
  6
CONTINUOUS
 62
     7
 10
607.339883
 20
2118.839353
 11
607.215362
 21
2119.208609
  0
LINE
  8
CSLAYER1
  6
CONTINUOUS
 62
     7
 10
607.215362
 20
2119.208609
 11
607.114640
 21
2119.574897
  0
LINE
  8
CSLAYER1
  6
CONTINUOUS
 62
     7
 10
607.114640
 20
2119.574897
 11
607.038485
 21
2119.935428
  0
LINE
  8
CSLAYER1
  6
CONTINUOUS
 62
     7
 10
607.038485
 20
2119.935428
 11
606.987476
 21
2120.287458
  0
LINE
  8
CSLAYER1
  6
CONTINUOUS
 62
     7
 10
606.987476
 20
2120.287458
 11
606.962002
 21
2120.628309
  0
LINE
  8
CSLAYER1
  6
CONTINUOUS
 62
     7
 10
606.962002
 20
2120.628309
 11
606.962256
 21
2120.955386
  0
LINE
  8
CSLAYER1
  6
CONTINUOUS
 62
     7
 10
606.962256
 20
2120.955386
 11
606.988236
 21
2121.266201
  0
LINE
  8
CSLAYER1
  6
CONTINUOUS
 62
     7
 10
606.988236
 20
2121.266201
 11
607.039744
 21
2121.558387
  0
LINE
  8
CSLAYER1
  6
CONTINUOUS
 62
     7
 10
607.039744
 20
2121.558387
 11
607.116390
 21
2121.829721
  0
LINE
  8
CSLAYER1
  6
CONTINUOUS
 62
     7
 10
607.116390
 20
2121.829721
 11
607.217588
 21
2122.078137
  0
LINE
  8
CSLAYER1
  6
CONTINUOUS
 62
     7
 10
607.217588
 20
2122.078137
 11
607.342570
 21
2122.301746
  0
LINE
  8
CSLAYER1
  6
CONTINUOUS
 62
     7
 10
607.342570
 20
2122.301746
 11
607.490384
 21
2122.498846
  0
LINE
  8
CSLAYER1
  6
CONTINUOUS
 62
     7
 10
607.490384
 20
2122.498846
 11
607.659904
 21
2122.667936
  0
LINE
  8
CSLAYER1
  6
CONTINUOUS
 62
     7
 10
607.659904
 20
2122.667936
 11
607.849841
 21
2122.807729
  0
LINE
  8
CSLAYER1
  6
CONTINUOUS
 62
     7
 10
673.859023
 20
2174.593064
 11
673.859023
 21
2137.963735
  0
LINE
  8
CSLAYER1
  6
CONTINUOUS
 62
     7
 10
672.035381
 20
2173.453525
 11
673.859023
 21
2174.593064
  0
LINE
  8
CSLAYER1
  6
CONTINUOUS
 62
     7
 10
672.035381
 20
2173.453525
 11
672.035381
 21
2138.627487
  0
LINE
  8
CSLAYER1
  6
CONTINUOUS
 62
     7
 10
672.035381
 20
2173.453525
 11
655.111893
 21
2179.613171
  0
LINE
  8
CSLAYER1
  6
CONTINUOUS
 62
     7
 10
750.085498
 20
2145.045606
 11
751.909141
 21
2146.185144
  0
LINE
  8
CSLAYER1
  6
CONTINUOUS
 62
     7
 10
750.085498
 20
2145.045606
 11
750.085498
 21
2128.310991
  0
LINE
  8
CSLAYER1
  6
CONTINUOUS
 62
     7
 10
660.598294
 20
2168.414159
 11
660.822125
 21
2168.531409
  0
LINE
  8
CSLAYER1
  6
CONTINUOUS
 62
     7
 10
660.822125
 20
2168.531409
 11
661.064579
 21
2168.615237
  0
LINE
  8
CSLAYER1
  6
CONTINUOUS
 62
     7
 10
661.064579
 20
2168.615237
 11
661.323810
 21
2168.665007
  0
LINE
  8
CSLAYER1
  6
CONTINUOUS
 62
     7
 10
661.323810
 20
2168.665007
 11
661.597846
 21
2168.680338
  0
LINE
  8
CSLAYER1
  6
CONTINUOUS
 62
     7
 10
661.597846
 20
2168.680338
 11
661.884601
 21
2168.661114
  0
LINE
  8
CSLAYER1
  6
CONTINUOUS
 62
     7
 10
661.884601
 20
2168.661114
 11
662.181892
 21
2168.607482
  0
LINE
  8
CSLAYER1
  6
CONTINUOUS
 62
     7
 10
662.181892
 20
2168.607482
 11
662.487458
 21
2168.519850
  0
LINE
  8
CSLAYER1
  6
CONTINUOUS
 62
     7
 10
662.487458
 20
2168.519850
 11
662.798973
 21
2168.398884
  0
LINE
  8
CSLAYER1
  6
CONTINUOUS
 62
     7
 10
662.798973
 20
2168.398884
 11
663.114066
 21
2168.245506
  0
LINE
  8
CSLAYER1
  6
CONTINUOUS
 62
     7
 10
663.114066
 20
2168.245506
 11
663.430338
 21
2168.060882
  0
LINE
  8
CSLAYER1
  6
CONTINUOUS
 62
     7
 10
663.430338
 20
2168.060882
 11
663.745383
 21
2167.846418
  0
LINE
  8
CSLAYER1
  6
CONTINUOUS
 62
     7
 10
663.745383
 20
2167.846418
 11
664.056803
 21
2167.603746
  0
LINE
  8
CSLAYER1
  6
CONTINUOUS
 62
     7
 10
664.056803
 20
2167.603746
 11
664.362228
 21
2167.334712
  0
LINE
  8
CSLAYER1
  6
CONTINUOUS
 62
     7
 10
664.362228
 20
2167.334712
 11
664.659334
 21
2167.041365
  0
LINE
  8
CSLAYER1
  6
CONTINUOUS
 62
     7
 10
664.659334
 20
2167.041365
 11
664.945859
 21
2166.725937
  0
LINE
  8
CSLAYER1
  6
CONTINUOUS
 62
     7
 10
664.945859
 20
2166.725937
 11
665.219623
 21
2166.390828
  0
LINE
  8
CSLAYER1
  6
CONTINUOUS
 62
     7
 10
665.219623
 20
2166.390828
 11
665.478543
 21
2166.038589
  0
LINE
  8
CSLAYER1
  6
CONTINUOUS
 62
     7
 10
665.478543
 20
2166.038589
 11
665.720646
 21
2165.671901
  0
LINE
  8
CSLAYER1
  6
CONTINUOUS
 62
     7
 10
665.720646
 20
2165.671901
 11
665.944092
 21
2165.293554
  0
LINE
  8
CSLAYER1
  6
CONTINUOUS
 62
     7
 10
665.944092
 20
2165.293554
 11
666.147180
 21
2164.906427
  0
LINE
  8
CSLAYER1
  6
CONTINUOUS
 62
     7
 10
666.147180
 20
2164.906427
 11
666.328364
 21
2164.513468
  0
LINE
  8
CSLAYER1
  6
CONTINUOUS
 62
     7
 10
666.328364
 20
2164.513468
 11
666.486264
 21
2164.117666
  0
LINE
  8
CSLAYER1
  6
CONTINUOUS
 62
     7
 10
666.486264
 20
2164.117666
 11
666.619680
 21
2163.722034
  0
LINE
  8
CSLAYER1
  6
CONTINUOUS
 62
     7
 10
666.619680
 20
2163.722034
 11
666.727596
 21
2163.329583
  0
LINE
  8
CSLAYER1
  6
CONTINUOUS
 62
     7
 10
666.727596
 20
2163.329583
 11
666.809191
 21
2162.943300
  0
LINE
  8
CSLAYER1
  6
CONTINUOUS
 62
     7
 10
666.809191
 20
2162.943300
 11
666.863843
 21
2162.566125
  0
LINE
  8
CSLAYER1
  6
CONTINUOUS
 62
     7
 10
666.863843
 20
2162.566125
 11
666.891137
 21
2162.200927
  0
LINE
  8
CSLAYER1
  6
CONTINUOUS
 62
     7
 10
666.891137
 20
2162.200927
 11
666.890865
 21
2161.850487
  0
LINE
  8
CSLAYER1
  6
CONTINUOUS
 62
     7
 10
666.890865
 20
2161.850487
 11
666.863030
 21
2161.517472
  0
LINE
  8
CSLAYER1
  6
CONTINUOUS
 62
     7
 10
666.863030
 20
2161.517472
 11
666.807842
 21
2161.204416
  0
LINE
  8
CSLAYER1
  6
CONTINUOUS
 62
     7
 10
666.807842
 20
2161.204416
 11
666.725722
 21
2160.913701
  0
LINE
  8
CSLAYER1
  6
CONTINUOUS
 62
     7
 10
666.725722
 20
2160.913701
 11
666.617295
 21
2160.647540
  0
LINE
  8
CSLAYER1
  6
CONTINUOUS
 62
     7
 10
666.617295
 20
2160.647540
 11
666.483386
 21
2160.407959
  0
LINE
  8
CSLAYER1
  6
CONTINUOUS
 62
     7
 10
666.483386
 20
2160.407959
 11
666.325014
 21
2160.196781
  0
LINE
  8
CSLAYER1
  6
CONTINUOUS
 62
     7
 10
666.325014
 20
2160.196781
 11
666.143385
 21
2160.015613
  0
LINE
  8
CSLAYER1
  6
CONTINUOUS
 62
     7
 10
666.143385
 20
2160.015613
 11
665.939881
 21
2159.865834
  0
LINE
  8
CSLAYER1
  6
CONTINUOUS
 62
     7
 10
665.939881
 20
2159.865834
 11
665.716050
 21
2159.748585
  0
LINE
  8
CSLAYER1
  6
CONTINUOUS
 62
     7
 10
665.716050
 20
2159.748585
 11
665.473597
 21
2159.664756
  0
LINE
  8
CSLAYER1
  6
CONTINUOUS
 62
     7
 10
665.473597
 20
2159.664756
 11
665.214365
 21
2159.614987
  0
LINE
  8
CSLAYER1
  6
CONTINUOUS
 62
     7
 10
665.214365
 20
2159.614987
 11
664.940330
 21
2159.599656
  0
LINE
  8
CSLAYER1
  6
CONTINUOUS
 62
     7
 10
664.940330
 20
2159.599656
 11
664.653575
 21
2159.618879
  0
LINE
  8
CSLAYER1
  6
CONTINUOUS
 62
     7
 10
664.653575
 20
2159.618879
 11
664.356283
 21
2159.672512
  0
LINE
  8
CSLAYER1
  6
CONTINUOUS
 62
     7
 10
664.356283
 20
2159.672512
 11
664.050717
 21
2159.760144
  0
LINE
  8
CSLAYER1
  6
CONTINUOUS
 62
     7
 10
664.050717
 20
2159.760144
 11
663.739202
 21
2159.881109
  0
LINE
  8
CSLAYER1
  6
CONTINUOUS
 62
     7
 10
663.739202
 20
2159.881109
 11
663.424110
 21
2160.034488
  0
LINE
  8
CSLAYER1
  6
CONTINUOUS
 62
     7
 10
663.424110
 20
2160.034488
 11
663.107837
 21
2160.219112
  0
LINE
  8
CSLAYER1
  6
CONTINUOUS
 62
     7
 10
663.107837
 20
2160.219112
 11
662.792792
 21
2160.433576
  0
LINE
  8
CSLAYER1
  6
CONTINUOUS
 62
     7
 10
662.792792
 20
2160.433576
 11
662.481372
 21
2160.676248
  0
LINE
  8
CSLAYER1
  6
CONTINUOUS
 62
     7
 10
662.481372
 20
2160.676248
 11
662.175947
 21
2160.945281
  0
LINE
  8
CSLAYER1
  6
CONTINUOUS
 62
     7
 10
662.175947
 20
2160.945281
 11
661.878841
 21
2161.238628
  0
LINE
  8
CSLAYER1
  6
CONTINUOUS
 62
     7
 10
661.878841
 20
2161.238628
 11
661.592316
 21
2161.554057
  0
LINE
  8
CSLAYER1
  6
CONTINUOUS
 62
     7
 10
661.592316
 20
2161.554057
 11
661.318552
 21
2161.889165
  0
LINE
  8
CSLAYER1
  6
CONTINUOUS
 62
     7
 10
661.318552
 20
2161.889165
 11
661.059633
 21
2162.241404
  0
LINE
  8
CSLAYER1
  6
CONTINUOUS
 62
     7
 10
661.059633
 20
2162.241404
 11
660.817529
 21
2162.608093
  0
LINE
  8
CSLAYER1
  6
CONTINUOUS
 62
     7
 10
660.817529
 20
2162.608093
 11
660.594083
 21
2162.986440
  0
LINE
  8
CSLAYER1
  6
CONTINUOUS
 62
     7
 10
660.594083
 20
2162.986440
 11
660.390995
 21
2163.373566
  0
LINE
  8
CSLAYER1
  6
CONTINUOUS
 62
     7
 10
660.390995
 20
2163.373566
 11
660.209811
 21
2163.766526
  0
LINE
  8
CSLAYER1
  6
CONTINUOUS
 62
     7
 10
660.209811
 20
2163.766526
 11
660.051911
 21
2164.162328
  0
LINE
  8
CSLAYER1
  6
CONTINUOUS
 62
     7
 10
660.051911
 20
2164.162328
 11
659.918495
 21
2164.557959
  0
LINE
  8
CSLAYER1
  6
CONTINUOUS
 62
     7
 10
659.918495
 20
2164.557959
 11
659.810579
 21
2164.950410
  0
LINE
  8
CSLAYER1
  6
CONTINUOUS
 62
     7
 10
659.810579
 20
2164.950410
 11
659.728984
 21
2165.336693
  0
LINE
  8
CSLAYER1
  6
CONTINUOUS
 62
     7
 10
659.728984
 20
2165.336693
 11
659.674332
 21
2165.713869
  0
LINE
  8
CSLAYER1
  6
CONTINUOUS
 62
     7
 10
659.674332
 20
2165.713869
 11
659.647038
 21
2166.079066
  0
LINE
  8
CSLAYER1
  6
CONTINUOUS
 62
     7
 10
659.647038
 20
2166.079066
 11
659.647310
 21
2166.429506
  0
LINE
  8
CSLAYER1
  6
CONTINUOUS
 62
     7
 10
659.647310
 20
2166.429506
 11
659.675146
 21
2166.762522
  0
LINE
  8
CSLAYER1
  6
CONTINUOUS
 62
     7
 10
659.675146
 20
2166.762522
 11
659.730333
 21
2167.075578
  0
LINE
  8
CSLAYER1
  6
CONTINUOUS
 62
     7
 10
659.730333
 20
2167.075578
 11
659.812453
 21
2167.366293
  0
LINE
  8
CSLAYER1
  6
CONTINUOUS
 62
     7
 10
659.812453
 20
2167.366293
 11
659.920880
 21
2167.632454
  0
LINE
  8
CSLAYER1
  6
CONTINUOUS
 62
     7
 10
659.920880
 20
2167.632454
 11
660.054789
 21
2167.872035
  0
LINE
  8
CSLAYER1
  6
CONTINUOUS
 62
     7
 10
660.054789
 20
2167.872035
 11
660.213161
 21
2168.083213
  0
LINE
  8
CSLAYER1
  6
CONTINUOUS
 62
     7
 10
660.213161
 20
2168.083213
 11
660.394790
 21
2168.264380
  0
LINE
  8
CSLAYER1
  6
CONTINUOUS
 62
     7
 10
660.394790
 20
2168.264380
 11
660.598294
 21
2168.414159
  0
LINE
  8
CSLAYER1
  6
CONTINUOUS
 62
     7
 10
660.598294
 20
2168.414159
 11
663.049853
 21
2169.946063
  0
LINE
  8
CSLAYER1
  6
CONTINUOUS
 62
     7
 10
665.939881
 20
2159.865834
 11
668.391439
 21
2161.397738
  0
LINE
  8
CSLAYER1
  6
CONTINUOUS
 62
     7
 10
664.056803
 20
2167.603746
 11
666.508362
 21
2169.135650
  0
LINE
  8
CSLAYER1
  6
CONTINUOUS
 62
     7
 10
666.600107
 20
2163.780077
 11
669.051666
 21
2165.311981
  0
LINE
  8
CSLAYER1
  6
CONTINUOUS
 62
     7
 10
663.049853
 20
2169.946063
 11
663.273684
 21
2170.063313
  0
LINE
  8
CSLAYER1
  6
CONTINUOUS
 62
     7
 10
663.273684
 20
2170.063313
 11
663.516137
 21
2170.147141
  0
LINE
  8
CSLAYER1
  6
CONTINUOUS
 62
     7
 10
663.516137
 20
2170.147141
 11
663.775368
 21
2170.196911
  0
LINE
  8
CSLAYER1
  6
CONTINUOUS
 62
     7
 10
663.775368
 20
2170.196911
 11
664.049404
 21
2170.212242
  0
LINE
  8
CSLAYER1
  6
CONTINUOUS
 62
     7
 10
664.049404
 20
2170.212242
 11
664.336159
 21
2170.193018
  0
LINE
  8
CSLAYER1
  6
CONTINUOUS
 62
     7
 10
664.336159
 20
2170.193018
 11
664.633451
 21
2170.139386
  0
LINE
  8
CSLAYER1
  6
CONTINUOUS
 62
     7
 10
664.633451
 20
2170.139386
 11
664.939017
 21
2170.051754
  0
LINE
  8
CSLAYER1
  6
CONTINUOUS
 62
     7
 10
664.939017
 20
2170.051754
 11
665.250532
 21
2169.930788
  0
LINE
  8
CSLAYER1
  6
CONTINUOUS
 62
     7
 10
665.250532
 20
2169.930788
 11
665.565624
 21
2169.777410
  0
LINE
  8
CSLAYER1
  6
CONTINUOUS
 62
     7
 10
665.565624
 20
2169.777410
 11
665.881897
 21
2169.592786
  0
LINE
  8
CSLAYER1
  6
CONTINUOUS
 62
     7
 10
665.881897
 20
2169.592786
 11
666.196942
 21
2169.378322
  0
LINE
  8
CSLAYER1
  6
CONTINUOUS
 62
     7
 10
666.196942
 20
2169.378322
 11
666.508362
 21
2169.135650
  0
LINE
  8
CSLAYER1
  6
CONTINUOUS
 62
     7
 10
666.508362
 20
2169.135650
 11
666.813787
 21
2168.866616
  0
LINE
  8
CSLAYER1
  6
CONTINUOUS
 62
     7
 10
666.813787
 20
2168.866616
 11
667.110893
 21
2168.573269
  0
LINE
  8
CSLAYER1
  6
CONTINUOUS
 62
     7
 10
667.110893
 20
2168.573269
 11
667.397418
 21
2168.257841
  0
LINE
  8
CSLAYER1
  6
CONTINUOUS
 62
     7
 10
667.397418
 20
2168.257841
 11
667.671182
 21
2167.922732
  0
LINE
  8
CSLAYER1
  6
CONTINUOUS
 62
     7
 10
667.671182
 20
2167.922732
 11
667.930101
 21
2167.570493
  0
LINE
  8
CSLAYER1
  6
CONTINUOUS
 62
     7
 10
667.930101
 20
2167.570493
 11
668.172205
 21
2167.203805
  0
LINE
  8
CSLAYER1
  6
CONTINUOUS
 62
     7
 10
668.172205
 20
2167.203805
 11
668.395651
 21
2166.825458
  0
LINE
  8
CSLAYER1
  6
CONTINUOUS
 62
     7
 10
668.395651
 20
2166.825458
 11
668.598739
 21
2166.438331
  0
LINE
  8
CSLAYER1
  6
CONTINUOUS
 62
     7
 10
668.598739
 20
2166.438331
 11
668.779923
 21
2166.045372
  0
LINE
  8
CSLAYER1
  6
CONTINUOUS
 62
     7
 10
668.779923
 20
2166.045372
 11
668.937823
 21
2165.649570
  0
LINE
  8
CSLAYER1
  6
CONTINUOUS
 62
     7
 10
668.937823
 20
2165.649570
 11
669.071239
 21
2165.253938
  0
LINE
  8
CSLAYER1
  6
CONTINUOUS
 62
     7
 10
669.071239
 20
2165.253938
 11
669.179155
 21
2164.861487
  0
LINE
  8
CSLAYER1
  6
CONTINUOUS
 62
     7
 10
669.179155
 20
2164.861487
 11
669.260750
 21
2164.475204
  0
LINE
  8
CSLAYER1
  6
CONTINUOUS
 62
     7
 10
669.260750
 20
2164.475204
 11
669.315402
 21
2164.098029
  0
LINE
  8
CSLAYER1
  6
CONTINUOUS
 62
     7
 10
669.315402
 20
2164.098029
 11
669.342696
 21
2163.732831
  0
LINE
  8
CSLAYER1
  6
CONTINUOUS
 62
     7
 10
669.342696
 20
2163.732831
 11
669.342424
 21
2163.382391
  0
LINE
  8
CSLAYER1
  6
CONTINUOUS
 62
     7
 10
669.342424
 20
2163.382391
 11
669.314588
 21
2163.049376
  0
LINE
  8
CSLAYER1
  6
CONTINUOUS
 62
     7
 10
669.314588
 20
2163.049376
 11
669.259400
 21
2162.736320
  0
LINE
  8
CSLAYER1
  6
CONTINUOUS
 62
     7
 10
669.259400
 20
2162.736320
 11
669.177281
 21
2162.445605
  0
LINE
  8
CSLAYER1
  6
CONTINUOUS
 62
     7
 10
669.177281
 20
2162.445605
 11
669.068853
 21
2162.179444
  0
LINE
  8
CSLAYER1
  6
CONTINUOUS
 62
     7
 10
669.068853
 20
2162.179444
 11
668.934945
 21
2161.939863
  0
LINE
  8
CSLAYER1
  6
CONTINUOUS
 62
     7
 10
668.934945
 20
2161.939863
 11
668.776573
 21
2161.728685
  0
LINE
  8
CSLAYER1
  6
CONTINUOUS
 62
     7
 10
668.776573
 20
2161.728685
 11
668.594944
 21
2161.547517
  0
LINE
  8
CSLAYER1
  6
CONTINUOUS
 62
     7
 10
668.594944
 20
2161.547517
 11
668.391439
 21
2161.397738
  0
LINE
  8
CSLAYER1
  6
CONTINUOUS
 62
     7
 10
751.277881
 20
2135.409489
 11
753.729439
 21
2136.941393
  0
LINE
  8
CSLAYER1
  6
CONTINUOUS
 62
     7
 10
754.736389
 20
2134.599076
 11
757.187948
 21
2136.130979
  0
LINE
  8
CSLAYER1
  6
CONTINUOUS
 62
     7
 10
757.279693
 20
2130.775407
 11
759.731252
 21
2132.307311
  0
LINE
  8
CSLAYER1
  6
CONTINUOUS
 62
     7
 10
753.729439
 20
2136.941393
 11
753.953270
 21
2137.058643
  0
LINE
  8
CSLAYER1
  6
CONTINUOUS
 62
     7
 10
753.953270
 20
2137.058643
 11
754.195724
 21
2137.142471
  0
LINE
  8
CSLAYER1
  6
CONTINUOUS
 62
     7
 10
754.195724
 20
2137.142471
 11
754.454955
 21
2137.192240
  0
LINE
  8
CSLAYER1
  6
CONTINUOUS
 62
     7
 10
754.454955
 20
2137.192240
 11
754.728990
 21
2137.207571
  0
LINE
  8
CSLAYER1
  6
CONTINUOUS
 62
     7
 10
754.728990
 20
2137.207571
 11
755.015746
 21
2137.188348
  0
LINE
  8
CSLAYER1
  6
CONTINUOUS
 62
     7
 10
755.015746
 20
2137.188348
 11
755.313037
 21
2137.134716
  0
LINE
  8
CSLAYER1
  6
CONTINUOUS
 62
     7
 10
755.313037
 20
2137.134716
 11
755.618603
 21
2137.047083
  0
LINE
  8
CSLAYER1
  6
CONTINUOUS
 62
     7
 10
755.618603
 20
2137.047083
 11
755.930118
 21
2136.926118
  0
LINE
  8
CSLAYER1
  6
CONTINUOUS
 62
     7
 10
755.930118
 20
2136.926118
 11
756.245211
 21
2136.772739
  0
LINE
  8
CSLAYER1
  6
CONTINUOUS
 62
     7
 10
756.245211
 20
2136.772739
 11
756.561483
 21
2136.588116
  0
LINE
  8
CSLAYER1
  6
CONTINUOUS
 62
     7
 10
756.561483
 20
2136.588116
 11
756.876528
 21
2136.373652
  0
LINE
  8
CSLAYER1
  6
CONTINUOUS
 62
     7
 10
756.876528
 20
2136.373652
 11
757.187948
 21
2136.130979
  0
LINE
  8
CSLAYER1
  6
CONTINUOUS
 62
     7
 10
757.187948
 20
2136.130979
 11
757.493373
 21
2135.861946
  0
LINE
  8
CSLAYER1
  6
CONTINUOUS
 62
     7
 10
757.493373
 20
2135.861946
 11
757.790479
 21
2135.568599
  0
LINE
  8
CSLAYER1
  6
CONTINUOUS
 62
     7
 10
757.790479
 20
2135.568599
 11
758.077004
 21
2135.253171
  0
LINE
  8
CSLAYER1
  6
CONTINUOUS
 62
     7
 10
758.077004
 20
2135.253171
 11
758.350768
 21
2134.918062
  0
LINE
  8
CSLAYER1
  6
CONTINUOUS
 62
     7
 10
758.350768
 20
2134.918062
 11
758.609688
 21
2134.565823
  0
LINE
  8
CSLAYER1
  6
CONTINUOUS
 62
     7
 10
758.609688
 20
2134.565823
 11
758.851791
 21
2134.199135
  0
LINE
  8
CSLAYER1
  6
CONTINUOUS
 62
     7
 10
758.851791
 20
2134.199135
 11
759.028813
 21
2133.899394
  0
LINE
  8
CSLAYER1
  6
CONTINUOUS
 62
     7
 10
751.277881
 20
2135.409489
 11
751.501711
 21
2135.526739
  0
LINE
  8
CSLAYER1
  6
CONTINUOUS
 62
     7
 10
751.501711
 20
2135.526739
 11
751.744165
 21
2135.610567
  0
LINE
  8
CSLAYER1
  6
CONTINUOUS
 62
     7
 10
751.744165
 20
2135.610567
 11
752.003396
 21
2135.660336
  0
LINE
  8
CSLAYER1
  6
CONTINUOUS
 62
     7
 10
752.003396
 20
2135.660336
 11
752.277432
 21
2135.675667
  0
LINE
  8
CSLAYER1
  6
CONTINUOUS
 62
     7
 10
752.277432
 20
2135.675667
 11
752.564187
 21
2135.656444
  0
LINE
  8
CSLAYER1
  6
CONTINUOUS
 62
     7
 10
752.564187
 20
2135.656444
 11
752.861478
 21
2135.602812
  0
LINE
  8
CSLAYER1
  6
CONTINUOUS
 62
     7
 10
752.861478
 20
2135.602812
 11
753.167044
 21
2135.515179
  0
LINE
  8
CSLAYER1
  6
CONTINUOUS
 62
     7
 10
753.167044
 20
2135.515179
 11
753.478559
 21
2135.394214
  0
LINE
  8
CSLAYER1
  6
CONTINUOUS
 62
     7
 10
753.478559
 20
2135.394214
 11
753.793652
 21
2135.240835
  0
LINE
  8
CSLAYER1
  6
CONTINUOUS
 62
     7
 10
753.793652
 20
2135.240835
 11
754.109924
 21
2135.056212
  0
LINE
  8
CSLAYER1
  6
CONTINUOUS
 62
     7
 10
754.109924
 20
2135.056212
 11
754.424969
 21
2134.841748
  0
LINE
  8
CSLAYER1
  6
CONTINUOUS
 62
     7
 10
754.424969
 20
2134.841748
 11
754.736389
 21
2134.599076
  0
LINE
  8
CSLAYER1
  6
CONTINUOUS
 62
     7
 10
754.736389
 20
2134.599076
 11
755.041815
 21
2134.330042
  0
LINE
  8
CSLAYER1
  6
CONTINUOUS
 62
     7
 10
755.041815
 20
2134.330042
 11
755.338920
 21
2134.036695
  0
LINE
  8
CSLAYER1
  6
CONTINUOUS
 62
     7
 10
755.338920
 20
2134.036695
 11
755.625446
 21
2133.721267
  0
LINE
  8
CSLAYER1
  6
CONTINUOUS
 62
     7
 10
755.625446
 20
2133.721267
 11
755.899210
 21
2133.386158
  0
LINE
  8
CSLAYER1
  6
CONTINUOUS
 62
     7
 10
755.899210
 20
2133.386158
 11
756.158129
 21
2133.033919
  0
LINE
  8
CSLAYER1
  6
CONTINUOUS
 62
     7
 10
756.158129
 20
2133.033919
 11
756.400233
 21
2132.667231
  0
LINE
  8
CSLAYER1
  6
CONTINUOUS
 62
     7
 10
756.400233
 20
2132.667231
 11
756.577254
 21
2132.367490
  0
LINE
  8
CSLAYER1
  6
CONTINUOUS
 62
     7
 10
751.688918
 20
2129.312919
 11
751.497115
 21
2129.603423
  0
LINE
  8
CSLAYER1
  6
CONTINUOUS
 62
     7
 10
751.497115
 20
2129.603423
 11
751.273669
 21
2129.981770
  0
LINE
  8
CSLAYER1
  6
CONTINUOUS
 62
     7
 10
751.273669
 20
2129.981770
 11
751.070581
 21
2130.368896
  0
LINE
  8
CSLAYER1
  6
CONTINUOUS
 62
     7
 10
751.070581
 20
2130.368896
 11
750.889398
 21
2130.761856
  0
LINE
  8
CSLAYER1
  6
CONTINUOUS
 62
     7
 10
750.889398
 20
2130.761856
 11
750.731497
 21
2131.157657
  0
LINE
  8
CSLAYER1
  6
CONTINUOUS
 62
     7
 10
750.731497
 20
2131.157657
 11
750.598081
 21
2131.553289
  0
LINE
  8
CSLAYER1
  6
CONTINUOUS
 62
     7
 10
750.598081
 20
2131.553289
 11
750.490165
 21
2131.945740
  0
LINE
  8
CSLAYER1
  6
CONTINUOUS
 62
     7
 10
750.490165
 20
2131.945740
 11
750.408570
 21
2132.332023
  0
LINE
  8
CSLAYER1
  6
CONTINUOUS
 62
     7
 10
750.408570
 20
2132.332023
 11
750.353918
 21
2132.709199
  0
LINE
  8
CSLAYER1
  6
CONTINUOUS
 62
     7
 10
750.353918
 20
2132.709199
 11
750.326624
 21
2133.074396
  0
LINE
  8
CSLAYER1
  6
CONTINUOUS
 62
     7
 10
750.326624
 20
2133.074396
 11
750.326896
 21
2133.424836
  0
LINE
  8
CSLAYER1
  6
CONTINUOUS
 62
     7
 10
750.326896
 20
2133.424836
 11
750.354732
 21
2133.757851
  0
LINE
  8
CSLAYER1
  6
CONTINUOUS
 62
     7
 10
750.354732
 20
2133.757851
 11
750.409920
 21
2134.070908
  0
LINE
  8
CSLAYER1
  6
CONTINUOUS
 62
     7
 10
750.409920
 20
2134.070908
 11
750.492040
 21
2134.361623
  0
LINE
  8
CSLAYER1
  6
CONTINUOUS
 62
     7
 10
750.492040
 20
2134.361623
 11
750.600467
 21
2134.627783
  0
LINE
  8
CSLAYER1
  6
CONTINUOUS
 62
     7
 10
750.600467
 20
2134.627783
 11
750.734376
 21
2134.867364
  0
LINE
  8
CSLAYER1
  6
CONTINUOUS
 62
     7
 10
750.734376
 20
2134.867364
 11
750.892747
 21
2135.078542
  0
LINE
  8
CSLAYER1
  6
CONTINUOUS
 62
     7
 10
750.892747
 20
2135.078542
 11
751.074376
 21
2135.259710
  0
LINE
  8
CSLAYER1
  6
CONTINUOUS
 62
     7
 10
751.074376
 20
2135.259710
 11
751.277881
 21
2135.409489
  0
ARC
  8
CSLAYER1
  6
CONTINUOUS
 62
     7
 10
595.268937
 20
2134.295063
 40
6.720000
 50
122.000000
 51
180.000000
  0
ARC
  8
CSLAYER1
  6
CONTINUOUS
 62
     7
 10
593.248222
 20
2135.030544
 40
6.720000
 50
122.000000
 51
180.000000
  0
ARC
  8
CSLAYER1
  6
CONTINUOUS
 62
     7
 10
591.908937
 20
2070.161621
 40
3.360000
 50
256.943959
 51
302.000000
  0
ARC
  8
CSLAYER1
  6
CONTINUOUS
 62
     7
 10
589.640198
 20
2070.442428
 40
3.360000
 50
202.152506
 51
217.167534
  0
LINE
  8
CSLAYER1
  6
CONTINUOUS
 62
     7
 10
591.149899
 20
2066.888478
 11
586.962707
 21
2068.412492
  0
ARC
  8
CSLAYER1
  6
CONTINUOUS
 62
     7
 10
705.826746
 20
2094.694850
 40
3.360000
 50
122.000000
 51
180.000000
  0
ARC
  8
CSLAYER1
  6
CONTINUOUS
 62
     7
 10
703.806031
 20
2095.430330
 40
3.360000
 50
122.000000
 51
180.000000
  0
ARC
  8
CSLAYER1
  6
CONTINUOUS
 62
     7
 10
705.826746
 20
2028.698929
 40
3.360000
 50
180.000000
 51
302.000000
  0
ARC
  8
CSLAYER1
  6
CONTINUOUS
 62
     7
 10
703.697033
 20
2029.193446
 40
3.360000
 50
194.633804
 51
226.715114
  0
LINE
  8
CSLAYER1
  6
CONTINUOUS
 62
     7
 10
626.223332
 20
2163.559758
 11
654.914820
 21
2181.488190
  0
LINE
  8
CSLAYER1
  6
CONTINUOUS
 62
     7
 10
594.796301
 20
2068.003806
 11
591.398378
 21
2069.240549
  0
ARC
  8
CSLAYER1
  6
CONTINUOUS
 62
     7
 10
591.908937
 20
2070.161621
 40
3.360000
 50
180.000000
 51
256.943959
  0
LINE
  8
CSLAYER1
  6
CONTINUOUS
 62
     7
 10
626.223332
 20
2013.772549
 11
626.223332
 21
1997.502967
  0
LINE
  8
CSLAYER1
  6
CONTINUOUS
 62
     7
 10
381.952404
 20
1918.234375
 11
382.390375
 21
1918.357046
  0
LINE
  8
CSLAYER1
  6
CONTINUOUS
 62
     7
 10
382.390375
 20
1918.357046
 11
382.848626
 21
1918.413904
  0
LINE
  8
CSLAYER1
  6
CONTINUOUS
 62
     7
 10
382.848626
 20
1918.413904
 11
383.323671
 21
1918.404516
  0
LINE
  8
CSLAYER1
  6
CONTINUOUS
 62
     7
 10
383.323671
 20
1918.404516
 11
383.811894
 21
1918.328953
  0
LINE
  8
CSLAYER1
  6
CONTINUOUS
 62
     7
 10
383.811894
 20
1918.328953
 11
384.309580
 21
1918.187792
  0
LINE
  8
CSLAYER1
  6
CONTINUOUS
 62
     7
 10
384.309580
 20
1918.187792
 11
384.812940
 21
1917.982105
  0
LINE
  8
CSLAYER1
  6
CONTINUOUS
 62
     7
 10
384.812940
 20
1917.982105
 11
385.318144
 21
1917.713458
  0
LINE
  8
CSLAYER1
  6
CONTINUOUS
 62
     7
 10
385.318144
 20
1917.713458
 11
385.821347
 21
1917.383896
  0
LINE
  8
CSLAYER1
  6
CONTINUOUS
 62
     7
 10
385.821347
 20
1917.383896
 11
386.318719
 21
1916.995928
  0
LINE
  8
CSLAYER1
  6
CONTINUOUS
 62
     7
 10
386.318719
 20
1916.995928
 11
386.806475
 21
1916.552505
  0
LINE
  8
CSLAYER1
  6
CONTINUOUS
 62
     7
 10
386.806475
 20
1916.552505
 11
387.280903
 21
1916.057003
  0
LINE
  8
CSLAYER1
  6
CONTINUOUS
 62
     7
 10
387.280903
 20
1916.057003
 11
387.738392
 21
1915.513192
  0
LINE
  8
CSLAYER1
  6
CONTINUOUS
 62
     7
 10
387.738392
 20
1915.513192
 11
388.175460
 21
1914.925212
  0
LINE
  8
CSLAYER1
  6
CONTINUOUS
 62
     7
 10
388.175460
 20
1914.925212
 11
388.588782
 21
1914.297536
  0
LINE
  8
CSLAYER1
  6
CONTINUOUS
 62
     7
 10
388.588782
 20
1914.297536
 11
388.975211
 21
1913.634943
  0
LINE
  8
CSLAYER1
  6
CONTINUOUS
 62
     7
 10
388.975211
 20
1913.634943
 11
389.331806
 21
1912.942475
  0
LINE
  8
CSLAYER1
  6
CONTINUOUS
 62
     7
 10
389.331806
 20
1912.942475
 11
389.655854
 21
1912.225401
  0
LINE
  8
CSLAYER1
  6
CONTINUOUS
 62
     7
 10
389.655854
 20
1912.225401
 11
389.944888
 21
1911.489180
  0
LINE
  8
CSLAYER1
  6
CONTINUOUS
 62
     7
 10
389.944888
 20
1911.489180
 11
390.196709
 21
1910.739415
  0
LINE
  8
CSLAYER1
  6
CONTINUOUS
 62
     7
 10
390.196709
 20
1910.739415
 11
390.409399
 21
1909.981811
  0
LINE
  8
CSLAYER1
  6
CONTINUOUS
 62
     7
 10
390.409399
 20
1909.981811
 11
390.581342
 21
1909.222135
  0
LINE
  8
CSLAYER1
  6
CONTINUOUS
 62
     7
 10
390.581342
 20
1909.222135
 11
390.711227
 21
1908.466167
  0
LINE
  8
CSLAYER1
  6
CONTINUOUS
 62
     7
 10
390.711227
 20
1908.466167
 11
390.798066
 21
1907.719662
  0
LINE
  8
CSLAYER1
  6
CONTINUOUS
 62
     7
 10
390.798066
 20
1907.719662
 11
390.841199
 21
1906.988301
  0
LINE
  8
CSLAYER1
  6
CONTINUOUS
 62
     7
 10
390.841199
 20
1906.988301
 11
390.840297
 21
1906.277649
  0
LINE
  8
CSLAYER1
  6
CONTINUOUS
 62
     7
 10
390.840297
 20
1906.277649
 11
390.795366
 21
1905.593116
  0
LINE
  8
CSLAYER1
  6
CONTINUOUS
 62
     7
 10
390.795366
 20
1905.593116
 11
390.706750
 21
1904.939911
  0
LINE
  8
CSLAYER1
  6
CONTINUOUS
 62
     7
 10
390.706750
 20
1904.939911
 11
390.575123
 21
1904.323005
  0
LINE
  8
CSLAYER1
  6
CONTINUOUS
 62
     7
 10
390.575123
 20
1904.323005
 11
390.401485
 21
1903.747094
  0
LINE
  8
CSLAYER1
  6
CONTINUOUS
 62
     7
 10
390.401485
 20
1903.747094
 11
390.187159
 21
1903.216559
  0
LINE
  8
CSLAYER1
  6
CONTINUOUS
 62
     7
 10
390.187159
 20
1903.216559
 11
389.933776
 21
1902.735441
  0
LINE
  8
CSLAYER1
  6
CONTINUOUS
 62
     7
 10
389.933776
 20
1902.735441
 11
389.643264
 21
1902.307398
  0
LINE
  8
CSLAYER1
  6
CONTINUOUS
 62
     7
 10
389.643264
 20
1902.307398
 11
389.317834
 21
1901.935690
  0
LINE
  8
CSLAYER1
  6
CONTINUOUS
 62
     7
 10
389.317834
 20
1901.935690
 11
388.959963
 21
1901.623146
  0
LINE
  8
CSLAYER1
  6
CONTINUOUS
 62
     7
 10
388.959963
 20
1901.623146
 11
388.572374
 21
1901.372143
  0
LINE
  8
CSLAYER1
  6
CONTINUOUS
 62
     7
 10
388.572374
 20
1901.372143
 11
388.158018
 21
1901.184592
  0
LINE
  8
CSLAYER1
  6
CONTINUOUS
 62
     7
 10
388.158018
 20
1901.184592
 11
387.720047
 21
1901.061921
  0
LINE
  8
CSLAYER1
  6
CONTINUOUS
 62
     7
 10
387.720047
 20
1901.061921
 11
387.261796
 21
1901.005063
  0
LINE
  8
CSLAYER1
  6
CONTINUOUS
 62
     7
 10
387.261796
 20
1901.005063
 11
386.786751
 21
1901.014451
  0
LINE
  8
CSLAYER1
  6
CONTINUOUS
 62
     7
 10
386.786751
 20
1901.014451
 11
386.298528
 21
1901.090014
  0
LINE
  8
CSLAYER1
  6
CONTINUOUS
 62
     7
 10
386.298528
 20
1901.090014
 11
385.800842
 21
1901.231176
  0
LINE
  8
CSLAYER1
  6
CONTINUOUS
 62
     7
 10
385.800842
 20
1901.231176
 11
385.297482
 21
1901.436863
  0
LINE
  8
CSLAYER1
  6
CONTINUOUS
 62
     7
 10
385.297482
 20
1901.436863
 11
384.792278
 21
1901.705509
  0
LINE
  8
CSLAYER1
  6
CONTINUOUS
 62
     7
 10
384.792278
 20
1901.705509
 11
384.289075
 21
1902.035071
  0
LINE
  8
CSLAYER1
  6
CONTINUOUS
 62
     7
 10
384.289075
 20
1902.035071
 11
383.791703
 21
1902.423039
  0
LINE
  8
CSLAYER1
  6
CONTINUOUS
 62
     7
 10
383.791703
 20
1902.423039
 11
383.303947
 21
1902.866462
  0
LINE
  8
CSLAYER1
  6
CONTINUOUS
 62
     7
 10
383.303947
 20
1902.866462
 11
382.829519
 21
1903.361964
  0
LINE
  8
CSLAYER1
  6
CONTINUOUS
 62
     7
 10
382.829519
 20
1903.361964
 11
382.372030
 21
1903.905775
  0
LINE
  8
CSLAYER1
  6
CONTINUOUS
 62
     7
 10
382.372030
 20
1903.905775
 11
381.934962
 21
1904.493756
  0
LINE
  8
CSLAYER1
  6
CONTINUOUS
 62
     7
 10
381.934962
 20
1904.493756
 11
381.521640
 21
1905.121431
  0
LINE
  8
CSLAYER1
  6
CONTINUOUS
 62
     7
 10
381.521640
 20
1905.121431
 11
381.135211
 21
1905.784024
  0
LINE
  8
CSLAYER1
  6
CONTINUOUS
 62
     7
 10
381.135211
 20
1905.784024
 11
380.778616
 21
1906.476493
  0
LINE
  8
CSLAYER1
  6
CONTINUOUS
 62
     7
 10
380.778616
 20
1906.476493
 11
380.454568
 21
1907.193566
  0
LINE
  8
CSLAYER1
  6
CONTINUOUS
 62
     7
 10
380.454568
 20
1907.193566
 11
380.165534
 21
1907.929787
  0
LINE
  8
CSLAYER1
  6
CONTINUOUS
 62
     7
 10
380.165534
 20
1907.929787
 11
379.913713
 21
1908.679552
  0
LINE
  8
CSLAYER1
  6
CONTINUOUS
 62
     7
 10
379.913713
 20
1908.679552
 11
379.701023
 21
1909.437156
  0
LINE
  8
CSLAYER1
  6
CONTINUOUS
 62
     7
 10
379.701023
 20
1909.437156
 11
379.529080
 21
1910.196833
  0
LINE
  8
CSLAYER1
  6
CONTINUOUS
 62
     7
 10
379.529080
 20
1910.196833
 11
379.399195
 21
1910.952800
  0
LINE
  8
CSLAYER1
  6
CONTINUOUS
 62
     7
 10
379.399195
 20
1910.952800
 11
379.312356
 21
1911.699305
  0
LINE
  8
CSLAYER1
  6
CONTINUOUS
 62
     7
 10
379.312356
 20
1911.699305
 11
379.269223
 21
1912.430667
  0
LINE
  8
CSLAYER1
  6
CONTINUOUS
 62
     7
 10
379.269223
 20
1912.430667
 11
379.270125
 21
1913.141318
  0
LINE
  8
CSLAYER1
  6
CONTINUOUS
 62
     7
 10
379.270125
 20
1913.141318
 11
379.315055
 21
1913.825851
  0
LINE
  8
CSLAYER1
  6
CONTINUOUS
 62
     7
 10
379.315055
 20
1913.825851
 11
379.403672
 21
1914.479056
  0
LINE
  8
CSLAYER1
  6
CONTINUOUS
 62
     7
 10
379.403672
 20
1914.479056
 11
379.535299
 21
1915.095962
  0
LINE
  8
CSLAYER1
  6
CONTINUOUS
 62
     7
 10
379.535299
 20
1915.095962
 11
379.708937
 21
1915.671874
  0
LINE
  8
CSLAYER1
  6
CONTINUOUS
 62
     7
 10
379.708937
 20
1915.671874
 11
379.923263
 21
1916.202408
  0
LINE
  8
CSLAYER1
  6
CONTINUOUS
 62
     7
 10
379.923263
 20
1916.202408
 11
380.176646
 21
1916.683527
  0
LINE
  8
CSLAYER1
  6
CONTINUOUS
 62
     7
 10
380.176646
 20
1916.683527
 11
380.467158
 21
1917.111569
  0
LINE
  8
CSLAYER1
  6
CONTINUOUS
 62
     7
 10
380.467158
 20
1917.111569
 11
380.792588
 21
1917.483277
  0
LINE
  8
CSLAYER1
  6
CONTINUOUS
 62
     7
 10
380.792588
 20
1917.483277
 11
381.150459
 21
1917.795822
  0
LINE
  8
CSLAYER1
  6
CONTINUOUS
 62
     7
 10
381.150459
 20
1917.795822
 11
381.538048
 21
1918.046825
  0
LINE
  8
CSLAYER1
  6
CONTINUOUS
 62
     7
 10
381.538048
 20
1918.046825
 11
381.952404
 21
1918.234375
  0
LINE
  8
CSLAYER1
  6
CONTINUOUS
 62
     7
 10
381.952404
 20
1918.234375
 11
437.468061
 21
1938.910362
  0
LINE
  8
CSLAYER1
  6
CONTINUOUS
 62
     7
 10
388.158018
 20
1901.184592
 11
443.673675
 21
1921.860579
  0
LINE
  8
CSLAYER1
  6
CONTINUOUS
 62
     7
 10
437.468061
 20
1938.910362
 11
437.906032
 21
1939.033033
  0
LINE
  8
CSLAYER1
  6
CONTINUOUS
 62
     7
 10
437.906032
 20
1939.033033
 11
438.364283
 21
1939.089891
  0
LINE
  8
CSLAYER1
  6
CONTINUOUS
 62
     7
 10
438.364283
 20
1939.089891
 11
438.839328
 21
1939.080503
  0
LINE
  8
CSLAYER1
  6
CONTINUOUS
 62
     7
 10
438.839328
 20
1939.080503
 11
439.327551
 21
1939.004940
  0
LINE
  8
CSLAYER1
  6
CONTINUOUS
 62
     7
 10
439.327551
 20
1939.004940
 11
439.825237
 21
1938.863778
  0
LINE
  8
CSLAYER1
  6
CONTINUOUS
 62
     7
 10
439.825237
 20
1938.863778
 11
440.328597
 21
1938.658091
  0
LINE
  8
CSLAYER1
  6
CONTINUOUS
 62
     7
 10
440.328597
 20
1938.658091
 11
440.833801
 21
1938.389445
  0
LINE
  8
CSLAYER1
  6
CONTINUOUS
 62
     7
 10
440.833801
 20
1938.389445
 11
441.337004
 21
1938.059883
  0
LINE
  8
CSLAYER1
  6
CONTINUOUS
 62
     7
 10
441.337004
 20
1938.059883
 11
441.834376
 21
1937.671915
  0
LINE
  8
CSLAYER1
  6
CONTINUOUS
 62
     7
 10
441.834376
 20
1937.671915
 11
442.322132
 21
1937.228492
  0
LINE
  8
CSLAYER1
  6
CONTINUOUS
 62
     7
 10
442.322132
 20
1937.228492
 11
442.796560
 21
1936.732989
  0
LINE
  8
CSLAYER1
  6
CONTINUOUS
 62
     7
 10
442.796560
 20
1936.732989
 11
443.254049
 21
1936.189179
  0
LINE
  8
CSLAYER1
  6
CONTINUOUS
 62
     7
 10
443.254049
 20
1936.189179
 11
443.691117
 21
1935.601198
  0
LINE
  8
CSLAYER1
  6
CONTINUOUS
 62
     7
 10
443.691117
 20
1935.601198
 11
444.104439
 21
1934.973523
  0
LINE
  8
CSLAYER1
  6
CONTINUOUS
 62
     7
 10
444.104439
 20
1934.973523
 11
444.490868
 21
1934.310930
  0
LINE
  8
CSLAYER1
  6
CONTINUOUS
 62
     7
 10
444.490868
 20
1934.310930
 11
444.847463
 21
1933.618461
  0
LINE
  8
CSLAYER1
  6
CONTINUOUS
 62
     7
 10
444.847463
 20
1933.618461
 11
445.171511
 21
1932.901388
  0
LINE
  8
CSLAYER1
  6
CONTINUOUS
 62
     7
 10
445.171511
 20
1932.901388
 11
445.460545
 21
1932.165167
  0
LINE
  8
CSLAYER1
  6
CONTINUOUS
 62
     7
 10
445.460545
 20
1932.165167
 11
445.712366
 21
1931.415402
  0
LINE
  8
CSLAYER1
  6
CONTINUOUS
 62
     7
 10
445.712366
 20
1931.415402
 11
445.925056
 21
1930.657798
  0
LINE
  8
CSLAYER1
  6
CONTINUOUS
 62
     7
 10
445.925056
 20
1930.657798
 11
446.096999
 21
1929.898121
  0
LINE
  8
CSLAYER1
  6
CONTINUOUS
 62
     7
 10
446.096999
 20
1929.898121
 11
446.226884
 21
1929.142154
  0
LINE
  8
CSLAYER1
  6
CONTINUOUS
 62
     7
 10
446.226884
 20
1929.142154
 11
446.313723
 21
1928.395649
  0
LINE
  8
CSLAYER1
  6
CONTINUOUS
 62
     7
 10
446.313723
 20
1928.395649
 11
446.356856
 21
1927.664287
  0
LINE
  8
CSLAYER1
  6
CONTINUOUS
 62
     7
 10
446.356856
 20
1927.664287
 11
446.355954
 21
1926.953636
  0
LINE
  8
CSLAYER1
  6
CONTINUOUS
 62
     7
 10
446.355954
 20
1926.953636
 11
446.311024
 21
1926.269103
  0
LINE
  8
CSLAYER1
  6
CONTINUOUS
 62
     7
 10
446.311024
 20
1926.269103
 11
446.222407
 21
1925.615897
  0
LINE
  8
CSLAYER1
  6
CONTINUOUS
 62
     7
 10
446.222407
 20
1925.615897
 11
446.090780
 21
1924.998992
  0
LINE
  8
CSLAYER1
  6
CONTINUOUS
 62
     7
 10
446.090780
 20
1924.998992
 11
445.917142
 21
1924.423080
  0
LINE
  8
CSLAYER1
  6
CONTINUOUS
 62
     7
 10
445.917142
 20
1924.423080
 11
445.702816
 21
1923.892546
  0
LINE
  8
CSLAYER1
  6
CONTINUOUS
 62
     7
 10
445.702816
 20
1923.892546
 11
445.449433
 21
1923.411427
  0
LINE
  8
CSLAYER1
  6
CONTINUOUS
 62
     7
 10
445.449433
 20
1923.411427
 11
445.158921
 21
1922.983385
  0
LINE
  8
CSLAYER1
  6
CONTINUOUS
 62
     7
 10
445.158921
 20
1922.983385
 11
444.833491
 21
1922.611677
  0
LINE
  8
CSLAYER1
  6
CONTINUOUS
 62
     7
 10
444.833491
 20
1922.611677
 11
444.475620
 21
1922.299132
  0
LINE
  8
CSLAYER1
  6
CONTINUOUS
 62
     7
 10
444.475620
 20
1922.299132
 11
444.088031
 21
1922.048129
  0
LINE
  8
CSLAYER1
  6
CONTINUOUS
 62
     7
 10
444.088031
 20
1922.048129
 11
443.673675
 21
1921.860579
  0
LINE
  8
CSLAYER1
  6
CONTINUOUS
 62
     7
 10
619.789480
 20
1825.936125
 11
620.118594
 21
1826.250052
  0
LINE
  8
CSLAYER1
  6
CONTINUOUS
 62
     7
 10
620.118594
 20
1826.250052
 11
620.496513
 21
1826.515391
  0
LINE
  8
CSLAYER1
  6
CONTINUOUS
 62
     7
 10
620.496513
 20
1826.515391
 11
620.920360
 21
1826.730122
  0
LINE
  8
CSLAYER1
  6
CONTINUOUS
 62
     7
 10
620.920360
 20
1826.730122
 11
621.386910
 21
1826.892611
  0
LINE
  8
CSLAYER1
  6
CONTINUOUS
 62
     7
 10
621.386910
 20
1826.892611
 11
621.892612
 21
1827.001621
  0
LINE
  8
CSLAYER1
  6
CONTINUOUS
 62
     7
 10
621.892612
 20
1827.001621
 11
622.433617
 21
1827.056324
  0
LINE
  8
CSLAYER1
  6
CONTINUOUS
 62
     7
 10
622.433617
 20
1827.056324
 11
623.005807
 21
1827.056302
  0
LINE
  8
CSLAYER1
  6
CONTINUOUS
 62
     7
 10
623.005807
 20
1827.056302
 11
623.604829
 21
1827.001556
  0
LINE
  8
CSLAYER1
  6
CONTINUOUS
 62
     7
 10
623.604829
 20
1827.001556
 11
624.226123
 21
1826.892502
  0
LINE
  8
CSLAYER1
  6
CONTINUOUS
 62
     7
 10
624.226123
 20
1826.892502
 11
624.864960
 21
1826.729970
  0
LINE
  8
CSLAYER1
  6
CONTINUOUS
 62
     7
 10
624.864960
 20
1826.729970
 11
625.516479
 21
1826.515198
  0
LINE
  8
CSLAYER1
  6
CONTINUOUS
 62
     7
 10
625.516479
 20
1826.515198
 11
626.175722
 21
1826.249820
  0
LINE
  8
CSLAYER1
  6
CONTINUOUS
 62
     7
 10
626.175722
 20
1826.249820
 11
626.837670
 21
1825.935855
  0
LINE
  8
CSLAYER1
  6
CONTINUOUS
 62
     7
 10
626.837670
 20
1825.935855
 11
627.497287
 21
1825.575693
  0
LINE
  8
CSLAYER1
  6
CONTINUOUS
 62
     7
 10
627.497287
 20
1825.575693
 11
628.149552
 21
1825.172076
  0
LINE
  8
CSLAYER1
  6
CONTINUOUS
 62
     7
 10
628.149552
 20
1825.172076
 11
628.789501
 21
1824.728074
  0
LINE
  8
CSLAYER1
  6
CONTINUOUS
 62
     7
 10
628.789501
 20
1824.728074
 11
629.412264
 21
1824.247067
  0
LINE
  8
CSLAYER1
  6
CONTINUOUS
 62
     7
 10
629.412264
 20
1824.247067
 11
630.013101
 21
1823.732716
  0
LINE
  8
CSLAYER1
  6
CONTINUOUS
 62
     7
 10
630.013101
 20
1823.732716
 11
630.587439
 21
1823.188935
  0
LINE
  8
CSLAYER1
  6
CONTINUOUS
 62
     7
 10
630.587439
 20
1823.188935
 11
631.130907
 21
1822.619862
  0
LINE
  8
CSLAYER1
  6
CONTINUOUS
 62
     7
 10
631.130907
 20
1822.619862
 11
631.639370
 21
1822.029830
  0
LINE
  8
CSLAYER1
  6
CONTINUOUS
 62
     7
 10
631.639370
 20
1822.029830
 11
632.108957
 21
1821.423328
  0
LINE
  8
CSLAYER1
  6
CONTINUOUS
 62
     7
 10
632.108957
 20
1821.423328
 11
632.536094
 21
1820.804971
  0
LINE
  8
CSLAYER1
  6
CONTINUOUS
 62
     7
 10
632.536094
 20
1820.804971
 11
632.917532
 21
1820.179467
  0
LINE
  8
CSLAYER1
  6
CONTINUOUS
 62
     7
 10
632.917532
 20
1820.179467
 11
633.250366
 21
1819.551576
  0
LINE
  8
CSLAYER1
  6
CONTINUOUS
 62
     7
 10
633.250366
 20
1819.551576
 11
633.532064
 21
1818.926075
  0
LINE
  8
CSLAYER1
  6
CONTINUOUS
 62
     7
 10
633.532064
 20
1818.926075
 11
633.760481
 21
1818.307727
  0
LINE
  8
CSLAYER1
  6
CONTINUOUS
 62
     7
 10
633.760481
 20
1818.307727
 11
633.933881
 21
1817.701236
  0
LINE
  8
CSLAYER1
  6
CONTINUOUS
 62
     7
 10
633.933881
 20
1817.701236
 11
634.050942
 21
1817.111218
  0
LINE
  8
CSLAYER1
  6
CONTINUOUS
 62
     7
 10
634.050942
 20
1817.111218
 11
634.110774
 21
1816.542164
  0
LINE
  8
CSLAYER1
  6
CONTINUOUS
 62
     7
 10
634.110774
 20
1816.542164
 11
634.112921
 21
1815.998405
  0
LINE
  8
CSLAYER1
  6
CONTINUOUS
 62
     7
 10
634.112921
 20
1815.998405
 11
634.057368
 21
1815.484079
  0
LINE
  8
CSLAYER1
  6
CONTINUOUS
 62
     7
 10
634.057368
 20
1815.484079
 11
633.944537
 21
1815.003100
  0
LINE
  8
CSLAYER1
  6
CONTINUOUS
 62
     7
 10
633.944537
 20
1815.003100
 11
633.775286
 21
1814.559130
  0
LINE
  8
CSLAYER1
  6
CONTINUOUS
 62
     7
 10
633.775286
 20
1814.559130
 11
633.550905
 21
1814.155545
  0
LINE
  8
CSLAYER1
  6
CONTINUOUS
 62
     7
 10
633.550905
 20
1814.155545
 11
633.273099
 21
1813.795420
  0
LINE
  8
CSLAYER1
  6
CONTINUOUS
 62
     7
 10
633.273099
 20
1813.795420
 11
632.943985
 21
1813.481493
  0
LINE
  8
CSLAYER1
  6
CONTINUOUS
 62
     7
 10
632.943985
 20
1813.481493
 11
632.566066
 21
1813.216154
  0
LINE
  8
CSLAYER1
  6
CONTINUOUS
 62
     7
 10
632.566066
 20
1813.216154
 11
632.142219
 21
1813.001423
  0
LINE
  8
CSLAYER1
  6
CONTINUOUS
 62
     7
 10
632.142219
 20
1813.001423
 11
631.675669
 21
1812.838934
  0
LINE
  8
CSLAYER1
  6
CONTINUOUS
 62
     7
 10
631.675669
 20
1812.838934
 11
631.169967
 21
1812.729924
  0
LINE
  8
CSLAYER1
  6
CONTINUOUS
 62
     7
 10
631.169967
 20
1812.729924
 11
630.628963
 21
1812.675221
  0
LINE
  8
CSLAYER1
  6
CONTINUOUS
 62
     7
 10
630.628963
 20
1812.675221
 11
630.056772
 21
1812.675243
  0
LINE
  8
CSLAYER1
  6
CONTINUOUS
 62
     7
 10
630.056772
 20
1812.675243
 11
629.457750
 21
1812.729989
  0
LINE
  8
CSLAYER1
  6
CONTINUOUS
 62
     7
 10
629.457750
 20
1812.729989
 11
628.836457
 21
1812.839043
  0
LINE
  8
CSLAYER1
  6
CONTINUOUS
 62
     7
 10
628.836457
 20
1812.839043
 11
628.197619
 21
1813.001574
  0
LINE
  8
CSLAYER1
  6
CONTINUOUS
 62
     7
 10
628.197619
 20
1813.001574
 11
627.546100
 21
1813.216347
  0
LINE
  8
CSLAYER1
  6
CONTINUOUS
 62
     7
 10
627.546100
 20
1813.216347
 11
626.886857
 21
1813.481725
  0
LINE
  8
CSLAYER1
  6
CONTINUOUS
 62
     7
 10
626.886857
 20
1813.481725
 11
626.224909
 21
1813.795690
  0
LINE
  8
CSLAYER1
  6
CONTINUOUS
 62
     7
 10
626.224909
 20
1813.795690
 11
625.565292
 21
1814.155851
  0
LINE
  8
CSLAYER1
  6
CONTINUOUS
 62
     7
 10
625.565292
 20
1814.155851
 11
624.913027
 21
1814.559469
  0
LINE
  8
CSLAYER1
  6
CONTINUOUS
 62
     7
 10
624.913027
 20
1814.559469
 11
624.273078
 21
1815.003471
  0
LINE
  8
CSLAYER1
  6
CONTINUOUS
 62
     7
 10
624.273078
 20
1815.003471
 11
623.650315
 21
1815.484478
  0
LINE
  8
CSLAYER1
  6
CONTINUOUS
 62
     7
 10
623.650315
 20
1815.484478
 11
623.049478
 21
1815.998829
  0
LINE
  8
CSLAYER1
  6
CONTINUOUS
 62
     7
 10
623.049478
 20
1815.998829
 11
622.475140
 21
1816.542610
  0
LINE
  8
CSLAYER1
  6
CONTINUOUS
 62
     7
 10
622.475140
 20
1816.542610
 11
621.931672
 21
1817.111682
  0
LINE
  8
CSLAYER1
  6
CONTINUOUS
 62
     7
 10
621.931672
 20
1817.111682
 11
621.423209
 21
1817.701715
  0
LINE
  8
CSLAYER1
  6
CONTINUOUS
 62
     7
 10
621.423209
 20
1817.701715
 11
620.953622
 21
1818.308217
  0
LINE
  8
CSLAYER1
  6
CONTINUOUS
 62
     7
 10
620.953622
 20
1818.308217
 11
620.526485
 21
1818.926574
  0
LINE
  8
CSLAYER1
  6
CONTINUOUS
 62
     7
 10
620.526485
 20
1818.926574
 11
620.145048
 21
1819.552078
  0
LINE
  8
CSLAYER1
  6
CONTINUOUS
 62
     7
 10
620.145048
 20
1819.552078
 11
619.812213
 21
1820.179969
  0
LINE
  8
CSLAYER1
  6
CONTINUOUS
 62
     7
 10
619.812213
 20
1820.179969
 11
619.530516
 21
1820.805470
  0
LINE
  8
CSLAYER1
  6
CONTINUOUS
 62
     7
 10
619.530516
 20
1820.805470
 11
619.302098
 21
1821.423818
  0
LINE
  8
CSLAYER1
  6
CONTINUOUS
 62
     7
 10
619.302098
 20
1821.423818
 11
619.128698
 21
1822.030309
  0
LINE
  8
CSLAYER1
  6
CONTINUOUS
 62
     7
 10
619.128698
 20
1822.030309
 11
619.011637
 21
1822.620327
  0
LINE
  8
CSLAYER1
  6
CONTINUOUS
 62
     7
 10
619.011637
 20
1822.620327
 11
618.951805
 21
1823.189381
  0
LINE
  8
CSLAYER1
  6
CONTINUOUS
 62
     7
 10
618.951805
 20
1823.189381
 11
618.949658
 21
1823.733140
  0
LINE
  8
CSLAYER1
  6
CONTINUOUS
 62
     7
 10
618.949658
 20
1823.733140
 11
619.005211
 21
1824.247466
  0
LINE
  8
CSLAYER1
  6
CONTINUOUS
 62
     7
 10
619.005211
 20
1824.247466
 11
619.118042
 21
1824.728445
  0
LINE
  8
CSLAYER1
  6
CONTINUOUS
 62
     7
 10
619.118042
 20
1824.728445
 11
619.287293
 21
1825.172415
  0
LINE
  8
CSLAYER1
  6
CONTINUOUS
 62
     7
 10
619.287293
 20
1825.172415
 11
619.511675
 21
1825.575999
  0
LINE
  8
CSLAYER1
  6
CONTINUOUS
 62
     7
 10
619.511675
 20
1825.575999
 11
619.789480
 21
1825.936125
  0
LINE
  8
CSLAYER1
  6
CONTINUOUS
 62
     7
 10
633.273099
 20
1813.795420
 11
663.260169
 21
1847.190778
  0
LINE
  8
CSLAYER1
  6
CONTINUOUS
 62
     7
 10
619.789480
 20
1825.936125
 11
649.776549
 21
1859.331484
  0
LINE
  8
CSLAYER1
  6
CONTINUOUS
 62
     7
 10
649.776549
 20
1859.331484
 11
650.105663
 21
1859.645411
  0
LINE
  8
CSLAYER1
  6
CONTINUOUS
 62
     7
 10
650.105663
 20
1859.645411
 11
650.483582
 21
1859.910749
  0
LINE
  8
CSLAYER1
  6
CONTINUOUS
 62
     7
 10
650.483582
 20
1859.910749
 11
650.907430
 21
1860.125480
  0
LINE
  8
CSLAYER1
  6
CONTINUOUS
 62
     7
 10
650.907430
 20
1860.125480
 11
651.373980
 21
1860.287969
  0
LINE
  8
CSLAYER1
  6
CONTINUOUS
 62
     7
 10
651.373980
 20
1860.287969
 11
651.879681
 21
1860.396980
  0
LINE
  8
CSLAYER1
  6
CONTINUOUS
 62
     7
 10
651.879681
 20
1860.396980
 11
652.420686
 21
1860.451682
  0
LINE
  8
CSLAYER1
  6
CONTINUOUS
 62
     7
 10
652.420686
 20
1860.451682
 11
652.992876
 21
1860.451660
  0
LINE
  8
CSLAYER1
  6
CONTINUOUS
 62
     7
 10
652.992876
 20
1860.451660
 11
653.591898
 21
1860.396914
  0
LINE
  8
CSLAYER1
  6
CONTINUOUS
 62
     7
 10
653.591898
 20
1860.396914
 11
654.213192
 21
1860.287860
  0
LINE
  8
CSLAYER1
  6
CONTINUOUS
 62
     7
 10
654.213192
 20
1860.287860
 11
654.852029
 21
1860.125329
  0
LINE
  8
CSLAYER1
  6
CONTINUOUS
 62
     7
 10
654.852029
 20
1860.125329
 11
655.503548
 21
1859.910557
  0
LINE
  8
CSLAYER1
  6
CONTINUOUS
 62
     7
 10
655.503548
 20
1859.910557
 11
656.162791
 21
1859.645178
  0
LINE
  8
CSLAYER1
  6
CONTINUOUS
 62
     7
 10
656.162791
 20
1859.645178
 11
656.824740
 21
1859.331214
  0
LINE
  8
CSLAYER1
  6
CONTINUOUS
 62
     7
 10
656.824740
 20
1859.331214
 11
657.484357
 21
1858.971052
  0
LINE
  8
CSLAYER1
  6
CONTINUOUS
 62
     7
 10
657.484357
 20
1858.971052
 11
658.136622
 21
1858.567434
  0
LINE
  8
CSLAYER1
  6
CONTINUOUS
 62
     7
 10
658.136622
 20
1858.567434
 11
658.776571
 21
1858.123432
  0
LINE
  8
CSLAYER1
  6
CONTINUOUS
 62
     7
 10
658.776571
 20
1858.123432
 11
659.399333
 21
1857.642425
  0
LINE
  8
CSLAYER1
  6
CONTINUOUS
 62
     7
 10
659.399333
 20
1857.642425
 11
660.000170
 21
1857.128074
  0
LINE
  8
CSLAYER1
  6
CONTINUOUS
 62
     7
 10
660.000170
 20
1857.128074
 11
660.574508
 21
1856.584293
  0
LINE
  8
CSLAYER1
  6
CONTINUOUS
 62
     7
 10
660.574508
 20
1856.584293
 11
661.117977
 21
1856.015221
  0
LINE
  8
CSLAYER1
  6
CONTINUOUS
 62
     7
 10
661.117977
 20
1856.015221
 11
661.626439
 21
1855.425188
  0
LINE
  8
CSLAYER1
  6
CONTINUOUS
 62
     7
 10
661.626439
 20
1855.425188
 11
662.096026
 21
1854.818686
  0
LINE
  8
CSLAYER1
  6
CONTINUOUS
 62
     7
 10
662.096026
 20
1854.818686
 11
662.523164
 21
1854.200330
  0
LINE
  8
CSLAYER1
  6
CONTINUOUS
 62
     7
 10
662.523164
 20
1854.200330
 11
662.904601
 21
1853.574826
  0
LINE
  8
CSLAYER1
  6
CONTINUOUS
 62
     7
 10
662.904601
 20
1853.574826
 11
663.237435
 21
1852.946934
  0
LINE
  8
CSLAYER1
  6
CONTINUOUS
 62
     7
 10
663.237435
 20
1852.946934
 11
663.519133
 21
1852.321434
  0
LINE
  8
CSLAYER1
  6
CONTINUOUS
 62
     7
 10
663.519133
 20
1852.321434
 11
663.747551
 21
1851.703085
  0
LINE
  8
CSLAYER1
  6
CONTINUOUS
 62
     7
 10
663.747551
 20
1851.703085
 11
663.920950
 21
1851.096594
  0
LINE
  8
CSLAYER1
  6
CONTINUOUS
 62
     7
 10
663.920950
 20
1851.096594
 11
664.038011
 21
1850.506576
  0
LINE
  8
CSLAYER1
  6
CONTINUOUS
 62
     7
 10
664.038011
 20
1850.506576
 11
664.097843
 21
1849.937523
  0
LINE
  8
CSLAYER1
  6
CONTINUOUS
 62
     7
 10
664.097843
 20
1849.937523
 11
664.099991
 21
1849.393764
  0
LINE
  8
CSLAYER1
  6
CONTINUOUS
 62
     7
 10
664.099991
 20
1849.393764
 11
664.044437
 21
1848.879438
  0
LINE
  8
CSLAYER1
  6
CONTINUOUS
 62
     7
 10
664.044437
 20
1848.879438
 11
663.931606
 21
1848.398459
  0
LINE
  8
CSLAYER1
  6
CONTINUOUS
 62
     7
 10
663.931606
 20
1848.398459
 11
663.762356
 21
1847.954488
  0
LINE
  8
CSLAYER1
  6
CONTINUOUS
 62
     7
 10
663.762356
 20
1847.954488
 11
663.537974
 21
1847.550904
  0
LINE
  8
CSLAYER1
  6
CONTINUOUS
 62
     7
 10
663.537974
 20
1847.550904
 11
663.260169
 21
1847.190778
  0
LINE
  8
CSLAYER1
  6
CONTINUOUS
 62
     7
 10
744.182571
 20
1980.942432
 11
744.182571
 21
1962.643097
  0
LINE
  8
CSLAYER1
  6
CONTINUOUS
 62
     7
 10
744.182571
 20
1962.643097
 11
744.182571
 21
1956.738865
  0
LINE
  8
CSLAYER1
  6
CONTINUOUS
 62
     7
 10
774.697702
 20
2034.297819
 11
774.697702
 21
2013.946617
  0
LINE
  8
CSLAYER1
  6
CONTINUOUS
 62
     7
 10
774.697702
 20
1996.410428
 11
774.697702
 21
1973.808672
  0
LINE
  8
CSLAYER1
  6
CONTINUOUS
 62
     7
 10
786.282570
 20
2027.138452
 11
789.117471
 21
2024.586093
  0
LINE
  8
CSLAYER1
  6
CONTINUOUS
 62
     7
 10
789.117471
 20
2024.586093
 11
791.553749
 21
2021.901728
  0
LINE
  8
CSLAYER1
  6
CONTINUOUS
 62
     7
 10
791.553749
 20
2021.901728
 11
793.572864
 21
2019.105787
  0
LINE
  8
CSLAYER1
  6
CONTINUOUS
 62
     7
 10
793.572864
 20
2019.105787
 11
795.159448
 21
2016.219549
  0
LINE
  8
CSLAYER1
  6
CONTINUOUS
 62
     7
 10
795.159448
 20
2016.219549
 11
796.301427
 21
2013.264980
  0
LINE
  8
CSLAYER1
  6
CONTINUOUS
 62
     7
 10
796.301427
 20
2013.264980
 11
796.990110
 21
2010.264565
  0
LINE
  8
CSLAYER1
  6
CONTINUOUS
 62
     7
 10
796.990110
 20
2010.264565
 11
797.220254
 21
2007.241141
  0
LINE
  8
CSLAYER1
  6
CONTINUOUS
 62
     7
 10
797.220254
 20
2007.241141
 11
796.990110
 21
2004.217717
  0
LINE
  8
CSLAYER1
  6
CONTINUOUS
 62
     7
 10
796.990110
 20
2004.217717
 11
796.301427
 21
2001.217303
  0
LINE
  8
CSLAYER1
  6
CONTINUOUS
 62
     7
 10
796.301427
 20
2001.217303
 11
795.159448
 21
1998.262734
  0
LINE
  8
CSLAYER1
  6
CONTINUOUS
 62
     7
 10
795.159448
 20
1998.262734
 11
793.572864
 21
1995.376496
  0
LINE
  8
CSLAYER1
  6
CONTINUOUS
 62
     7
 10
793.572864
 20
1995.376496
 11
791.553749
 21
1992.580555
  0
LINE
  8
CSLAYER1
  6
CONTINUOUS
 62
     7
 10
791.553749
 20
1992.580555
 11
789.117471
 21
1989.896190
  0
LINE
  8
CSLAYER1
  6
CONTINUOUS
 62
     7
 10
774.697702
 20
2034.297819
 11
779.506073
 21
2031.770607
  0
LINE
  8
CSLAYER1
  6
CONTINUOUS
 62
     7
 10
779.506073
 20
2031.770607
 11
783.070622
 21
2029.539381
  0
LINE
  8
CSLAYER1
  6
CONTINUOUS
 62
     7
 10
783.070622
 20
2029.539381
 11
786.282570
 21
2027.138452
  0
LINE
  8
CSLAYER1
  6
CONTINUOUS
 62
     7
 10
777.916663
 20
2009.997924
 11
778.170360
 21
2008.892630
  0
LINE
  8
CSLAYER1
  6
CONTINUOUS
 62
     7
 10
778.170360
 20
2008.892630
 11
778.344247
 21
2006.608265
  0
LINE
  8
CSLAYER1
  6
CONTINUOUS
 62
     7
 10
778.344247
 20
2006.608265
 11
778.170360
 21
2004.323900
  0
LINE
  8
CSLAYER1
  6
CONTINUOUS
 62
     7
 10
778.170360
 20
2004.323900
 11
777.650022
 21
2002.056920
  0
LINE
  8
CSLAYER1
  6
CONTINUOUS
 62
     7
 10
777.650022
 20
2002.056920
 11
776.787193
 21
1999.824579
  0
LINE
  8
CSLAYER1
  6
CONTINUOUS
 62
     7
 10
776.787193
 20
1999.824579
 11
775.588441
 21
1997.643866
  0
LINE
  8
CSLAYER1
  6
CONTINUOUS
 62
     7
 10
775.588441
 20
1997.643866
 11
774.697702
 21
1996.410428
  0
LINE
  8
CSLAYER1
  6
CONTINUOUS
 62
     7
 10
774.697702
 20
2013.955191
 11
774.655146
 21
2013.993506
  0
LINE
  8
CSLAYER1
  6
CONTINUOUS
 62
     7
 10
774.655146
 20
2013.993506
 11
776.495890
 21
2011.965319
  0
LINE
  8
CSLAYER1
  6
CONTINUOUS
 62
     7
 10
776.495890
 20
2011.965319
 11
778.021443
 21
2009.852830
  0
LINE
  8
CSLAYER1
  6
CONTINUOUS
 62
     7
 10
774.697702
 20
2013.946617
 11
774.697702
 21
1996.410428
  0
LINE
  8
CSLAYER1
  6
CONTINUOUS
 62
     7
 10
593.066335
 20
2034.166712
 11
536.233726
 21
2054.852090
  0
LINE
  8
CSLAYER1
  6
CONTINUOUS
 62
     7
 10
601.944808
 20
2045.237762
 11
545.112198
 21
2065.923140
  0
LINE
  8
CSLAYER1
  6
CONTINUOUS
 62
     7
 10
598.888904
 20
2044.919765
 11
542.098899
 21
2065.589636
  0
LINE
  8
CSLAYER1
  6
CONTINUOUS
 62
     7
 10
597.552686
 20
2043.975853
 11
540.720076
 21
2064.661231
  0
LINE
  8
CSLAYER1
  6
CONTINUOUS
 62
     7
 10
596.504257
 20
2042.927195
 11
539.671648
 21
2063.612573
  0
LINE
  8
CSLAYER1
  6
CONTINUOUS
 62
     7
 10
595.643747
 20
2041.810140
 11
538.811138
 21
2062.495518
  0
LINE
  8
CSLAYER1
  6
CONTINUOUS
 62
     7
 10
594.923844
 20
2040.641909
 11
538.091436
 21
2061.327213
  0
LINE
  8
CSLAYER1
  6
CONTINUOUS
 62
     7
 10
594.331108
 20
2039.427392
 11
537.498498
 21
2060.112770
  0
LINE
  8
CSLAYER1
  6
CONTINUOUS
 62
     7
 10
593.845312
 20
2038.173952
 11
537.012702
 21
2058.859331
  0
LINE
  8
CSLAYER1
  6
CONTINUOUS
 62
     7
 10
593.459442
 20
2036.884143
 11
536.631912
 21
2057.567672
  0
LINE
  8
CSLAYER1
  6
CONTINUOUS
 62
     7
 10
538.906584
 20
2048.873357
 11
538.492228
 21
2049.060907
  0
LINE
  8
CSLAYER1
  6
CONTINUOUS
 62
     7
 10
538.492228
 20
2049.060907
 11
538.104639
 21
2049.311910
  0
LINE
  8
CSLAYER1
  6
CONTINUOUS
 62
     7
 10
538.104639
 20
2049.311910
 11
537.746768
 21
2049.624455
  0
LINE
  8
CSLAYER1
  6
CONTINUOUS
 62
     7
 10
537.746768
 20
2049.624455
 11
537.421339
 21
2049.996163
  0
LINE
  8
CSLAYER1
  6
CONTINUOUS
 62
     7
 10
537.421339
 20
2049.996163
 11
537.130826
 21
2050.424205
  0
LINE
  8
CSLAYER1
  6
CONTINUOUS
 62
     7
 10
537.130826
 20
2050.424205
 11
536.877443
 21
2050.905324
  0
LINE
  8
CSLAYER1
  6
CONTINUOUS
 62
     7
 10
536.877443
 20
2050.905324
 11
536.663117
 21
2051.435858
  0
LINE
  8
CSLAYER1
  6
CONTINUOUS
 62
     7
 10
536.663117
 20
2051.435858
 11
536.489480
 21
2052.011770
  0
LINE
  8
CSLAYER1
  6
CONTINUOUS
 62
     7
 10
536.489480
 20
2052.011770
 11
536.357852
 21
2052.628675
  0
LINE
  8
CSLAYER1
  6
CONTINUOUS
 62
     7
 10
536.357852
 20
2052.628675
 11
536.269236
 21
2053.281881
  0
LINE
  8
CSLAYER1
  6
CONTINUOUS
 62
     7
 10
536.269236
 20
2053.281881
 11
536.224305
 21
2053.966414
  0
LINE
  8
CSLAYER1
  6
CONTINUOUS
 62
     7
 10
536.224305
 20
2053.966414
 11
536.223403
 21
2054.677065
  0
LINE
  8
CSLAYER1
  6
CONTINUOUS
 62
     7
 10
536.223403
 20
2054.677065
 11
536.266536
 21
2055.408427
  0
LINE
  8
CSLAYER1
  6
CONTINUOUS
 62
     7
 10
536.266536
 20
2055.408427
 11
536.353375
 21
2056.154932
  0
LINE
  8
CSLAYER1
  6
CONTINUOUS
 62
     7
 10
536.353375
 20
2056.154932
 11
536.483260
 21
2056.910899
  0
LINE
  8
CSLAYER1
  6
CONTINUOUS
 62
     7
 10
536.483260
 20
2056.910899
 11
536.655203
 21
2057.670576
  0
LINE
  8
CSLAYER1
  6
CONTINUOUS
 62
     7
 10
536.655203
 20
2057.670576
 11
536.867894
 21
2058.428180
  0
LINE
  8
CSLAYER1
  6
CONTINUOUS
 62
     7
 10
536.867894
 20
2058.428180
 11
537.119714
 21
2059.177945
  0
LINE
  8
CSLAYER1
  6
CONTINUOUS
 62
     7
 10
537.119714
 20
2059.177945
 11
537.408748
 21
2059.914166
  0
LINE
  8
CSLAYER1
  6
CONTINUOUS
 62
     7
 10
537.408748
 20
2059.914166
 11
537.732796
 21
2060.631239
  0
LINE
  8
CSLAYER1
  6
CONTINUOUS
 62
     7
 10
537.732796
 20
2060.631239
 11
538.089391
 21
2061.323708
  0
LINE
  8
CSLAYER1
  6
CONTINUOUS
 62
     7
 10
538.089391
 20
2061.323708
 11
538.475820
 21
2061.986301
  0
LINE
  8
CSLAYER1
  6
CONTINUOUS
 62
     7
 10
538.475820
 20
2061.986301
 11
538.889142
 21
2062.613976
  0
LINE
  8
CSLAYER1
  6
CONTINUOUS
 62
     7
 10
538.889142
 20
2062.613976
 11
539.326210
 21
2063.201957
  0
LINE
  8
CSLAYER1
  6
CONTINUOUS
 62
     7
 10
539.326210
 20
2063.201957
 11
539.783699
 21
2063.745767
  0
LINE
  8
CSLAYER1
  6
CONTINUOUS
 62
     7
 10
539.783699
 20
2063.745767
 11
540.258127
 21
2064.241270
  0
LINE
  8
CSLAYER1
  6
CONTINUOUS
 62
     7
 10
540.258127
 20
2064.241270
 11
540.745883
 21
2064.684693
  0
LINE
  8
CSLAYER1
  6
CONTINUOUS
 62
     7
 10
540.745883
 20
2064.684693
 11
541.243255
 21
2065.072661
  0
LINE
  8
CSLAYER1
  6
CONTINUOUS
 62
     7
 10
541.243255
 20
2065.072661
 11
541.746458
 21
2065.402223
  0
LINE
  8
CSLAYER1
  6
CONTINUOUS
 62
     7
 10
541.746458
 20
2065.402223
 11
542.251662
 21
2065.670869
  0
LINE
  8
CSLAYER1
  6
CONTINUOUS
 62
     7
 10
542.251662
 20
2065.670869
 11
542.755022
 21
2065.876556
  0
LINE
  8
CSLAYER1
  6
CONTINUOUS
 62
     7
 10
542.755022
 20
2065.876556
 11
543.252708
 21
2066.017718
  0
LINE
  8
CSLAYER1
  6
CONTINUOUS
 62
     7
 10
543.252708
 20
2066.017718
 11
543.740931
 21
2066.093281
  0
LINE
  8
CSLAYER1
  6
CONTINUOUS
 62
     7
 10
543.740931
 20
2066.093281
 11
544.215976
 21
2066.102669
  0
LINE
  8
CSLAYER1
  6
CONTINUOUS
 62
     7
 10
544.215976
 20
2066.102669
 11
544.674227
 21
2066.045811
  0
LINE
  8
CSLAYER1
  6
CONTINUOUS
 62
     7
 10
544.674227
 20
2066.045811
 11
545.112198
 21
2065.923140
  0
LINE
  8
CSLAYER1
  6
CONTINUOUS
 62
     7
 10
593.199546
 20
2035.548482
 11
536.362735
 21
2056.235390
  0
LINE
  8
CSLAYER1
  6
CONTINUOUS
 62
     7
 10
593.093303
 20
2032.726641
 11
536.260694
 21
2053.412020
  0
LINE
  8
CSLAYER1
  6
CONTINUOUS
 62
     7
 10
593.348294
 20
2031.203578
 11
536.527842
 21
2051.884531
  0
LINE
  8
CSLAYER1
  6
CONTINUOUS
 62
     7
 10
594.086838
 20
2029.504515
 11
537.301542
 21
2050.172672
  0
LINE
  8
CSLAYER1
  6
CONTINUOUS
 62
     7
 10
595.739194
 20
2028.187979
 11
538.906584
 21
2048.873357
  0
LINE
  8
CSLAYER1
  6
CONTINUOUS
 62
     7
 10
669.476868
 20
2005.702985
 11
652.316575
 21
2007.611740
  0
LINE
  8
CSLAYER1
  6
CONTINUOUS
 62
     7
 10
601.944808
 20
2045.237762
 11
602.359164
 21
2045.050211
  0
LINE
  8
CSLAYER1
  6
CONTINUOUS
 62
     7
 10
602.359164
 20
2045.050211
 11
602.746752
 21
2044.799208
  0
LINE
  8
CSLAYER1
  6
CONTINUOUS
 62
     7
 10
602.746752
 20
2044.799208
 11
603.104623
 21
2044.486663
  0
LINE
  8
CSLAYER1
  6
CONTINUOUS
 62
     7
 10
603.104623
 20
2044.486663
 11
603.430053
 21
2044.114955
  0
LINE
  8
CSLAYER1
  6
CONTINUOUS
 62
     7
 10
603.430053
 20
2044.114955
 11
603.720565
 21
2043.686913
  0
LINE
  8
CSLAYER1
  6
CONTINUOUS
 62
     7
 10
603.720565
 20
2043.686913
 11
603.973949
 21
2043.205794
  0
LINE
  8
CSLAYER1
  6
CONTINUOUS
 62
     7
 10
603.973949
 20
2043.205794
 11
604.188275
 21
2042.675260
  0
LINE
  8
CSLAYER1
  6
CONTINUOUS
 62
     7
 10
604.188275
 20
2042.675260
 11
604.361912
 21
2042.099349
  0
LINE
  8
CSLAYER1
  6
CONTINUOUS
 62
     7
 10
604.361912
 20
2042.099349
 11
604.470081
 21
2041.592390
  0
LINE
  8
CSLAYER1
  6
CONTINUOUS
 62
     7
 10
599.370272
 20
2028.882673
 11
599.104934
 21
2028.708896
  0
LINE
  8
CSLAYER1
  6
CONTINUOUS
 62
     7
 10
599.104934
 20
2028.708896
 11
598.599730
 21
2028.440249
  0
LINE
  8
CSLAYER1
  6
CONTINUOUS
 62
     7
 10
598.599730
 20
2028.440249
 11
598.096370
 21
2028.234562
  0
LINE
  8
CSLAYER1
  6
CONTINUOUS
 62
     7
 10
598.096370
 20
2028.234562
 11
597.598684
 21
2028.093400
  0
LINE
  8
CSLAYER1
  6
CONTINUOUS
 62
     7
 10
597.598684
 20
2028.093400
 11
597.110461
 21
2028.017838
  0
LINE
  8
CSLAYER1
  6
CONTINUOUS
 62
     7
 10
597.110461
 20
2028.017838
 11
596.635416
 21
2028.008450
  0
LINE
  8
CSLAYER1
  6
CONTINUOUS
 62
     7
 10
596.635416
 20
2028.008450
 11
596.177165
 21
2028.065308
  0
LINE
  8
CSLAYER1
  6
CONTINUOUS
 62
     7
 10
596.177165
 20
2028.065308
 11
595.739194
 21
2028.187979
  0
LINE
  8
CSLAYER1
  6
CONTINUOUS
 62
     7
 10
595.739194
 20
2028.187979
 11
595.324838
 21
2028.375529
  0
LINE
  8
CSLAYER1
  6
CONTINUOUS
 62
     7
 10
595.324838
 20
2028.375529
 11
594.937249
 21
2028.626532
  0
LINE
  8
CSLAYER1
  6
CONTINUOUS
 62
     7
 10
594.937249
 20
2028.626532
 11
594.579378
 21
2028.939077
  0
LINE
  8
CSLAYER1
  6
CONTINUOUS
 62
     7
 10
594.579378
 20
2028.939077
 11
594.253948
 21
2029.310785
  0
LINE
  8
CSLAYER1
  6
CONTINUOUS
 62
     7
 10
594.253948
 20
2029.310785
 11
593.963436
 21
2029.738827
  0
LINE
  8
CSLAYER1
  6
CONTINUOUS
 62
     7
 10
593.963436
 20
2029.738827
 11
593.710053
 21
2030.219946
  0
LINE
  8
CSLAYER1
  6
CONTINUOUS
 62
     7
 10
593.710053
 20
2030.219946
 11
593.495727
 21
2030.750480
  0
LINE
  8
CSLAYER1
  6
CONTINUOUS
 62
     7
 10
593.495727
 20
2030.750480
 11
593.322089
 21
2031.326391
  0
LINE
  8
CSLAYER1
  6
CONTINUOUS
 62
     7
 10
593.322089
 20
2031.326391
 11
593.190461
 21
2031.943297
  0
LINE
  8
CSLAYER1
  6
CONTINUOUS
 62
     7
 10
593.190461
 20
2031.943297
 11
593.101845
 21
2032.596502
  0
LINE
  8
CSLAYER1
  6
CONTINUOUS
 62
     7
 10
593.101845
 20
2032.596502
 11
593.056915
 21
2033.281035
  0
LINE
  8
CSLAYER1
  6
CONTINUOUS
 62
     7
 10
593.056915
 20
2033.281035
 11
593.056013
 21
2033.991687
  0
LINE
  8
CSLAYER1
  6
CONTINUOUS
 62
     7
 10
593.056013
 20
2033.991687
 11
593.099146
 21
2034.723048
  0
LINE
  8
CSLAYER1
  6
CONTINUOUS
 62
     7
 10
593.099146
 20
2034.723048
 11
593.185985
 21
2035.469553
  0
LINE
  8
CSLAYER1
  6
CONTINUOUS
 62
     7
 10
593.185985
 20
2035.469553
 11
593.315870
 21
2036.225521
  0
LINE
  8
CSLAYER1
  6
CONTINUOUS
 62
     7
 10
593.315870
 20
2036.225521
 11
593.487812
 21
2036.985197
  0
LINE
  8
CSLAYER1
  6
CONTINUOUS
 62
     7
 10
593.487812
 20
2036.985197
 11
593.700503
 21
2037.742801
  0
LINE
  8
CSLAYER1
  6
CONTINUOUS
 62
     7
 10
593.700503
 20
2037.742801
 11
593.952324
 21
2038.492567
  0
LINE
  8
CSLAYER1
  6
CONTINUOUS
 62
     7
 10
593.952324
 20
2038.492567
 11
594.241358
 21
2039.228788
  0
LINE
  8
CSLAYER1
  6
CONTINUOUS
 62
     7
 10
594.241358
 20
2039.228788
 11
594.565406
 21
2039.945861
  0
LINE
  8
CSLAYER1
  6
CONTINUOUS
 62
     7
 10
594.565406
 20
2039.945861
 11
594.922001
 21
2040.638329
  0
LINE
  8
CSLAYER1
  6
CONTINUOUS
 62
     7
 10
594.922001
 20
2040.638329
 11
595.308430
 21
2041.300923
  0
LINE
  8
CSLAYER1
  6
CONTINUOUS
 62
     7
 10
595.308430
 20
2041.300923
 11
595.721751
 21
2041.928598
  0
LINE
  8
CSLAYER1
  6
CONTINUOUS
 62
     7
 10
595.721751
 20
2041.928598
 11
596.158820
 21
2042.516578
  0
LINE
  8
CSLAYER1
  6
CONTINUOUS
 62
     7
 10
596.158820
 20
2042.516578
 11
596.616309
 21
2043.060389
  0
LINE
  8
CSLAYER1
  6
CONTINUOUS
 62
     7
 10
596.616309
 20
2043.060389
 11
597.090737
 21
2043.555892
  0
LINE
  8
CSLAYER1
  6
CONTINUOUS
 62
     7
 10
597.090737
 20
2043.555892
 11
597.578493
 21
2043.999314
  0
LINE
  8
CSLAYER1
  6
CONTINUOUS
 62
     7
 10
597.578493
 20
2043.999314
 11
598.075865
 21
2044.387283
  0
LINE
  8
CSLAYER1
  6
CONTINUOUS
 62
     7
 10
598.075865
 20
2044.387283
 11
598.579068
 21
2044.716844
  0
LINE
  8
CSLAYER1
  6
CONTINUOUS
 62
     7
 10
598.579068
 20
2044.716844
 11
599.084272
 21
2044.985491
  0
LINE
  8
CSLAYER1
  6
CONTINUOUS
 62
     7
 10
599.084272
 20
2044.985491
 11
599.587632
 21
2045.191178
  0
LINE
  8
CSLAYER1
  6
CONTINUOUS
 62
     7
 10
599.587632
 20
2045.191178
 11
600.085317
 21
2045.332340
  0
LINE
  8
CSLAYER1
  6
CONTINUOUS
 62
     7
 10
600.085317
 20
2045.332340
 11
600.573540
 21
2045.407902
  0
LINE
  8
CSLAYER1
  6
CONTINUOUS
 62
     7
 10
600.573540
 20
2045.407902
 11
601.048585
 21
2045.417290
  0
LINE
  8
CSLAYER1
  6
CONTINUOUS
 62
     7
 10
601.048585
 20
2045.417290
 11
601.506837
 21
2045.360433
  0
LINE
  8
CSLAYER1
  6
CONTINUOUS
 62
     7
 10
601.506837
 20
2045.360433
 11
601.944808
 21
2045.237762
  0
LINE
  8
CSLAYER1
  6
CONTINUOUS
 62
     7
 10
670.987895
 20
2019.287587
 11
653.772243
 21
2021.202500
  0
LINE
  8
CSLAYER1
  6
CONTINUOUS
 62
     7
 10
595.424792
 20
2037.912932
 11
595.643302
 21
2038.469515
  0
LINE
  8
CSLAYER1
  6
CONTINUOUS
 62
     7
 10
595.643302
 20
2038.469515
 11
595.888282
 21
2039.011623
  0
LINE
  8
CSLAYER1
  6
CONTINUOUS
 62
     7
 10
595.888282
 20
2039.011623
 11
596.157868
 21
2039.535129
  0
LINE
  8
CSLAYER1
  6
CONTINUOUS
 62
     7
 10
596.157868
 20
2039.535129
 11
596.450008
 21
2040.036049
  0
LINE
  8
CSLAYER1
  6
CONTINUOUS
 62
     7
 10
596.450008
 20
2040.036049
 11
596.762479
 21
2040.510572
  0
LINE
  8
CSLAYER1
  6
CONTINUOUS
 62
     7
 10
596.762479
 20
2040.510572
 11
597.092903
 21
2040.955085
  0
LINE
  8
CSLAYER1
  6
CONTINUOUS
 62
     7
 10
597.092903
 20
2040.955085
 11
597.438765
 21
2041.366206
  0
LINE
  8
CSLAYER1
  6
CONTINUOUS
 62
     7
 10
597.438765
 20
2041.366206
 11
597.797432
 21
2041.740806
  0
LINE
  8
CSLAYER1
  6
CONTINUOUS
 62
     7
 10
597.797432
 20
2041.740806
 11
598.166176
 21
2042.076033
  0
LINE
  8
CSLAYER1
  6
CONTINUOUS
 62
     7
 10
598.166176
 20
2042.076033
 11
598.542189
 21
2042.369338
  0
LINE
  8
CSLAYER1
  6
CONTINUOUS
 62
     7
 10
598.542189
 20
2042.369338
 11
598.922610
 21
2042.618486
  0
LINE
  8
CSLAYER1
  6
CONTINUOUS
 62
     7
 10
598.922610
 20
2042.618486
 11
599.304545
 21
2042.821583
  0
LINE
  8
CSLAYER1
  6
CONTINUOUS
 62
     7
 10
599.304545
 20
2042.821583
 11
599.685085
 21
2042.977082
  0
LINE
  8
CSLAYER1
  6
CONTINUOUS
 62
     7
 10
599.685085
 20
2042.977082
 11
600.061335
 21
2043.083801
  0
LINE
  8
CSLAYER1
  6
CONTINUOUS
 62
     7
 10
600.061335
 20
2043.083801
 11
600.430432
 21
2043.140926
  0
LINE
  8
CSLAYER1
  6
CONTINUOUS
 62
     7
 10
600.430432
 20
2043.140926
 11
600.789566
 21
2043.148023
  0
LINE
  8
CSLAYER1
  6
CONTINUOUS
 62
     7
 10
600.789566
 20
2043.148023
 11
601.136004
 21
2043.105039
  0
LINE
  8
CSLAYER1
  6
CONTINUOUS
 62
     7
 10
601.136004
 20
2043.105039
 11
601.503327
 21
2043.002155
  0
LINE
  8
CSLAYER1
  6
CONTINUOUS
 62
     7
 10
596.462412
 20
2030.264452
 11
596.169395
 21
2030.454210
  0
LINE
  8
CSLAYER1
  6
CONTINUOUS
 62
     7
 10
596.169395
 20
2030.454210
 11
595.898845
 21
2030.690494
  0
LINE
  8
CSLAYER1
  6
CONTINUOUS
 62
     7
 10
595.898845
 20
2030.690494
 11
595.652820
 21
2030.971505
  0
LINE
  8
CSLAYER1
  6
CONTINUOUS
 62
     7
 10
595.652820
 20
2030.971505
 11
595.433193
 21
2031.295105
  0
LINE
  8
CSLAYER1
  6
CONTINUOUS
 62
     7
 10
595.433193
 20
2031.295105
 11
595.241635
 21
2031.658831
  0
LINE
  8
CSLAYER1
  6
CONTINUOUS
 62
     7
 10
595.241635
 20
2031.658831
 11
595.079605
 21
2032.059915
  0
LINE
  8
CSLAYER1
  6
CONTINUOUS
 62
     7
 10
595.079605
 20
2032.059915
 11
594.948335
 21
2032.495304
  0
LINE
  8
CSLAYER1
  6
CONTINUOUS
 62
     7
 10
594.948335
 20
2032.495304
 11
594.848824
 21
2032.961684
  0
LINE
  8
CSLAYER1
  6
CONTINUOUS
 62
     7
 10
594.848824
 20
2032.961684
 11
594.781830
 21
2033.455507
  0
LINE
  8
CSLAYER1
  6
CONTINUOUS
 62
     7
 10
594.781830
 20
2033.455507
 11
594.747863
 21
2033.973015
  0
LINE
  8
CSLAYER1
  6
CONTINUOUS
 62
     7
 10
594.747863
 20
2033.973015
 11
594.747181
 21
2034.510267
  0
LINE
  8
CSLAYER1
  6
CONTINUOUS
 62
     7
 10
594.747181
 20
2034.510267
 11
594.779789
 21
2035.063176
  0
LINE
  8
CSLAYER1
  6
CONTINUOUS
 62
     7
 10
594.779789
 20
2035.063176
 11
594.845440
 21
2035.627534
  0
LINE
  8
CSLAYER1
  6
CONTINUOUS
 62
     7
 10
594.845440
 20
2035.627534
 11
594.943633
 21
2036.199045
  0
LINE
  8
CSLAYER1
  6
CONTINUOUS
 62
     7
 10
594.943633
 20
2036.199045
 11
595.073621
 21
2036.773361
  0
LINE
  8
CSLAYER1
  6
CONTINUOUS
 62
     7
 10
595.073621
 20
2036.773361
 11
595.234415
 21
2037.346110
  0
LINE
  8
CSLAYER1
  6
CONTINUOUS
 62
     7
 10
595.234415
 20
2037.346110
 11
595.424792
 21
2037.912932
  0
ARC
  8
CSLAYER1
  6
CONTINUOUS
 62
     7
 10
671.421156
 20
2013.351789
 40
7.892050
 50
255.737756
 51
348.379625
  0
LINE
  8
CSLAYER1
  6
CONTINUOUS
 62
     7
 10
670.987895
 20
2019.287587
 11
692.209484
 21
2032.548307
  0
INSERT
  8
CSLAYER1
  2
EASYDRAWDIM0000
 10
0.0
 20
0.0
 30
0.0
  0
INSERT
  8
CSLAYER1
  2
EASYDRAWDIM0001
 10
0.0
 20
0.0
 30
0.0
  0
TEXT
  8
CSLAYER1
 62
     3
 10
467.586304
 20
2339.066895
 40
40.000000
 41
0.771429
  1
足踏式油圧ポンプユニット
 50
0.000000
 51
0.000000
  7
EASYDRAW_FONT
 72
     5
 11
827.586304
 21
2339.066895
  0
TEXT
  8
CSLAYER1
 62
     3
 10
377.610718
 20
1734.115479
 40
40.000000
 41
0.763393
  1
外形寸法 400W×500D×280H
 50
0.000000
 51
0.000000
  7
EASYDRAW_FONT
 72
     5
 11
947.610718
 21
1734.115479
  0
LINE
  8
CSLAYER1
  6
CONTINUOUS
 62
     5
 10
1036.174481
 20
2412.142005
 11
1036.174481
 21
1708.032416
  0
LINE
  8
CSLAYER1
  6
CONTINUOUS
 62
     5
 10
1036.174481
 20
1708.032416
 11
234.880350
 21
1708.032416
  0
INSERT
  8
CSLAYER1
  2
EASYDRAWDIM0002
 10
0.0
 20
0.0
 30
0.0
  0
LINE
  8
CSLAYER1
  6
CONTINUOUS
 62
     7
 10
452.677255
 20
2384.513148
 11
842.688501
 21
2384.513148
  0
LINE
  8
CSLAYER1
  6
CONTINUOUS
 62
     7
 10
842.688501
 20
2384.513148
 11
842.688501
 21
2334.368845
  0
LINE
  8
CSLAYER1
  6
CONTINUOUS
 62
     7
 10
842.688501
 20
2334.368845
 11
452.677255
 21
2334.368845
  0
LINE
  8
CSLAYER1
  6
CONTINUOUS
 62
     7
 10
452.677255
 20
2334.368845
 11
452.677255
 21
2384.513148
  0
INSERT
  8
CSLAYER1
  2
BLKF0003
 10
0.0
 20
0.0
 30
0.0
  0
INSERT
  8
CSLAYER1
  2
BLKF0004
 10
0.0
 20
0.0
 30
0.0
  0
LINE
  8
CSLAYER1
  6
CONTINUOUS
 62
     7
 10
638.703478
 20
2068.488304
 11
635.756586
 21
2066.786915
  0
LINE
  8
CSLAYER1
  6
CONTINUOUS
 62
     7
 10
643.127089
 20
2060.826385
 11
640.180197
 21
2059.124996
  0
LINE
  8
CSLAYER1
  6
CONTINUOUS
 62
     7
 10
636.607281
 20
2065.313469
 11
638.996329
 21
2064.736395
  0
LINE
  8
CSLAYER1
  6
CONTINUOUS
 62
     7
 10
638.996329
 20
2064.736395
 11
640.024267
 21
2062.955956
  0
LINE
  8
CSLAYER1
  6
CONTINUOUS
 62
     7
 10
640.024267
 20
2062.955956
 11
639.329503
 21
2060.598442
  0
LINE
  8
CSLAYER1
  6
CONTINUOUS
 62
     7
 10
639.329503
 20
2060.598442
 11
636.940454
 21
2061.175516
  0
LINE
  8
CSLAYER1
  6
CONTINUOUS
 62
     7
 10
636.940454
 20
2061.175516
 11
635.912517
 21
2062.955956
  0
LINE
  8
CSLAYER1
  6
CONTINUOUS
 62
     7
 10
635.912517
 20
2062.955956
 11
636.607281
 21
2065.313469
  0
INSERT
  8
CSLAYER1
  2
BLKF0005
 10
0.0
 20
0.0
 30
0.0
  0
LINE
  8
CSLAYER1
  6
CONTINUOUS
 62
     7
 10
639.900829
 20
2070.625411
 11
637.716023
 21
2069.364013
  0
LINE
  8
CSLAYER1
  6
CONTINUOUS
 62
     7
 10
645.814508
 20
2060.103773
 11
643.713792
 21
2058.926205
  0
INSERT
  8
CSLAYER1
  2
BLKF0006
 10
0.0
 20
0.0
 30
0.0
  0
LINE
  8
CSLAYER1
  6
CONTINUOUS
 62
     7
 10
666.965817
 20
2073.038076
 11
645.921542
 21
2080.697565
  0
LINE
  8
CSLAYER1
  6
CONTINUOUS
 62
     7
 10
666.965817
 20
2073.038076
 11
666.965817
 21
2039.229742
  0
LINE
  8
CSLAYER1
  6
CONTINUOUS
 62
     7
 10
656.770724
 20
2066.667475
 11
656.770724
 21
2020.868976
  0
LINE
  8
CSLAYER1
  6
CONTINUOUS
 62
     7
 10
641.617803
 20
2043.095398
 11
639.483879
 21
2036.104464
  0
LINE
  8
CSLAYER1
  6
CONTINUOUS
 62
     7
 10
639.483879
 20
2036.104464
 11
632.362591
 21
2037.751898
  0
LINE
  8
CSLAYER1
  6
CONTINUOUS
 62
     7
 10
632.362591
 20
2037.751898
 11
629.277520
 21
2043.095398
  0
LINE
  8
CSLAYER1
  6
CONTINUOUS
 62
     7
 10
629.277520
 20
2043.095398
 11
631.362662
 21
2050.170825
  0
LINE
  8
CSLAYER1
  6
CONTINUOUS
 62
     7
 10
631.362662
 20
2050.170825
 11
638.532732
 21
2048.438897
  0
LINE
  8
CSLAYER1
  6
CONTINUOUS
 62
     7
 10
638.532732
 20
2048.438897
 11
641.617803
 21
2043.095398
  0
LINE
  8
CSLAYER1
  6
CONTINUOUS
 62
     7
 10
644.286382
 20
2044.636102
 11
642.152458
 21
2037.645168
  0
LINE
  8
CSLAYER1
  6
CONTINUOUS
 62
     7
 10
641.201311
 20
2049.979602
 11
644.286382
 21
2044.636102
  0
LINE
  8
CSLAYER1
  6
CONTINUOUS
 62
     7
 10
634.031240
 20
2051.711530
 11
641.201311
 21
2049.979602
  0
LINE
  8
CSLAYER1
  6
CONTINUOUS
 62
     7
 10
642.152458
 20
2037.645168
 11
639.483879
 21
2036.104464
  0
LINE
  8
CSLAYER1
  6
CONTINUOUS
 62
     7
 10
644.286382
 20
2044.636102
 11
641.617803
 21
2043.095398
  0
LINE
  8
CSLAYER1
  6
CONTINUOUS
 62
     7
 10
641.201311
 20
2049.979602
 11
638.532732
 21
2048.438897
  0
LINE
  8
CSLAYER1
  6
CONTINUOUS
 62
     7
 10
634.031240
 20
2051.711530
 11
631.362662
 21
2050.170825
  0
INSERT
  8
CSLAYER1
  2
BLKF0007
 10
0.0
 20
0.0
 30
0.0
  0
LINE
  8
CSLAYER1
  6
CONTINUOUS
 62
     7
 10
658.078442
 20
2072.651064
 11
656.418735
 21
2070.906959
  0
LINE
  8
CSLAYER1
  6
CONTINUOUS
 62
     7
 10
656.418735
 20
2070.906959
 11
654.404816
 21
2070.906959
  0
LINE
  8
CSLAYER1
  6
CONTINUOUS
 62
     7
 10
654.404816
 20
2070.906959
 11
652.745109
 21
2072.651064
  0
LINE
  8
CSLAYER1
  6
CONTINUOUS
 62
     7
 10
652.745109
 20
2072.651064
 11
654.404816
 21
2074.395168
  0
LINE
  8
CSLAYER1
  6
CONTINUOUS
 62
     7
 10
654.404816
 20
2074.395168
 11
656.418735
 21
2074.395168
  0
LINE
  8
CSLAYER1
  6
CONTINUOUS
 62
     7
 10
656.418735
 20
2074.395168
 11
658.078442
 21
2072.651064
  0
INSERT
  8
CSLAYER1
  2
BLKF0008
 10
0.0
 20
0.0
 30
0.0
  0
LINE
  8
CSLAYER1
  6
CONTINUOUS
 62
     7
 10
656.770724
 20
2066.667475
 11
635.726449
 21
2074.326964
  0
LINE
  8
CSLAYER1
  6
CONTINUOUS
 62
     7
 10
656.770724
 20
2066.667475
 11
666.965817
 21
2073.038076
  0
LINE
  8
CSLAYER1
  6
CONTINUOUS
 62
     7
 10
622.197838
 20
2077.934428
 11
622.197838
 21
2033.168379
  0
LINE
  8
CSLAYER1
  6
CONTINUOUS
 62
     7
 10
635.726449
 20
2074.326964
 11
645.921542
 21
2080.697565
  0
LINE
  8
CSLAYER1
  6
CONTINUOUS
 62
     7
 10
635.726449
 20
2073.010417
 11
622.197838
 21
2077.934428
  0
LINE
  8
CSLAYER1
  6
CONTINUOUS
 62
     7
 10
635.726449
 20
2074.326964
 11
635.726449
 21
2073.010417
  0
LINE
  8
CSLAYER1
  6
CONTINUOUS
 62
     7
 10
631.651974
 20
2073.314160
 11
625.013628
 21
2075.730320
  0
LINE
  8
CSLAYER1
  6
CONTINUOUS
 62
     7
 10
624.619650
 20
2077.052961
 11
625.013628
 21
2075.730320
  0
LINE
  8
CSLAYER1
  6
CONTINUOUS
 62
     7
 10
631.651974
 20
2073.314160
 11
633.866479
 21
2073.687391
  0
LINE
  8
CSLAYER1
  6
CONTINUOUS
 62
     7
 10
644.590136
 20
2079.865610
 11
638.315063
 21
2082.149550
  0
LINE
  8
CSLAYER1
  6
CONTINUOUS
 62
     7
 10
622.197838
 20
2077.934428
 11
631.253738
 21
2083.593183
  0
LINE
  8
CSLAYER1
  6
CONTINUOUS
 62
     7
 10
631.651974
 20
2073.314160
 11
631.651974
 21
2059.560705
  0
LINE
  8
CSLAYER1
  6
CONTINUOUS
 62
     7
 10
633.866479
 20
2073.687391
 11
633.866479
 21
2061.033370
  0
LINE
  8
CSLAYER1
  6
CONTINUOUS
 62
     7
 10
625.013628
 20
2075.730320
 11
625.013628
 21
2061.976865
  0
LINE
  8
CSLAYER1
  6
CONTINUOUS
 62
     7
 10
625.013628
 20
2061.976865
 11
626.738556
 21
2056.860819
  0
LINE
  8
CSLAYER1
  6
CONTINUOUS
 62
     7
 10
631.651974
 20
2059.560705
 11
629.274813
 21
2055.797227
  0
LINE
  8
CSLAYER1
  6
CONTINUOUS
 62
     7
 10
626.738556
 20
2056.860819
 11
626.738556
 21
2031.375526
  0
LINE
  8
CSLAYER1
  6
CONTINUOUS
 62
     7
 10
629.274813
 20
2055.797227
 11
629.274813
 21
2029.657417
  0
LINE
  8
CSLAYER1
  6
CONTINUOUS
 62
     7
 10
631.651974
 20
2059.560705
 11
633.773723
 21
2060.886521
  0
LINE
  8
CSLAYER1
  6
CONTINUOUS
 62
     7
 10
629.274813
 20
2055.797227
 11
631.396562
 21
2057.123042
  0
LINE
  8
CSLAYER1
  6
CONTINUOUS
 62
     7
 10
633.866479
 20
2061.033370
 11
631.489318
 21
2057.269892
  0
LINE
  8
CSLAYER1
  6
CONTINUOUS
 62
     7
 10
631.489318
 20
2057.269892
 11
631.489318
 21
2050.243950
  0
LINE
  8
CSLAYER1
  6
CONTINUOUS
 62
     7
 10
631.489318
 20
2039.264451
 11
631.489318
 21
2028.757455
  0
LINE
  8
CSLAYER1
  6
CONTINUOUS
 62
     7
 10
666.965817
 20
2039.229742
 11
669.500616
 21
2040.813659
  0
LINE
  8
CSLAYER1
  6
CONTINUOUS
 62
     7
 10
637.839944
 20
2025.735443
 11
601.503327
 21
2043.002155
  0
LINE
  8
CSLAYER1
  6
CONTINUOUS
 62
     7
 10
631.923232
 20
2013.413907
 11
596.462412
 21
2030.264452
  0
LINE
  8
CSLAYER1
  6
CONTINUOUS
 62
     7
 10
682.130850
 20
2026.250478
 11
679.151448
 21
2011.762123
  0
ARC
  8
CSLAYER1
  6
CONTINUOUS
 62
     7
 10
659.299700
 20
2070.896033
 40
50.000000
 50
244.583509
 51
263.653028
  0
ARC
  8
CSLAYER1
  6
CONTINUOUS
 62
     7
 10
659.391720
 20
2071.219462
 40
64.000000
 50
244.583509
 51
263.653028
  0
LINE
  8
CSLAYER1
  6
CONTINUOUS
 62
     7
 10
650.464832
 20
2007.845093
 11
650.464832
 21
2004.949365
  0
LINE
  8
CSLAYER1
  6
CONTINUOUS
 62
     7
 10
627.505858
 20
2013.305748
 11
624.698915
 21
2016.846814
  0
LINE
  8
CSLAYER1
  6
CONTINUOUS
 62
     5
 10
234.880350
 20
1708.032416
 11
234.880350
 21
2412.142005
  0
LINE
  8
CSLAYER1
  6
CONTINUOUS
 62
     3
 10
1513.959461
 20
838.256588
 11
1513.959461
 21
878.256588
  0
LINE
  8
CSLAYER1
  6
CENTER
 62
     5
 10
1473.959461
 20
1991.088062
 11
2256.659461
 21
1991.088062
  0
LINE
  8
CSLAYER1
  6
CONTINUOUS
 62
     4
 10
1516.659461
 20
2091.088062
 11
2216.659461
 21
2091.088062
  0
LINE
  8
CSLAYER1
  6
CONTINUOUS
 62
     3
 10
1513.959461
 20
1851.088062
 11
1513.959461
 21
2016.938062
  0
LINE
  8
CSLAYER1
  6
CONTINUOUS
 62
     3
 10
1563.959461
 20
1851.088062
 11
1563.959461
 21
1891.088062
  0
LINE
  8
CSLAYER1
  6
CONTINUOUS
 62
     4
 10
1516.659461
 20
2091.088062
 11
1516.659461
 21
1891.088062
  0
LINE
  8
CSLAYER1
  6
CONTINUOUS
 62
     4
 10
2216.659461
 20
2091.088062
 11
2216.659461
 21
1891.088062
  0
LINE
  8
CSLAYER1
  6
CONTINUOUS
 62
     3
 10
1523.959461
 20
1841.088062
 11
1553.959461
 21
1841.088062
  0
ARC
  8
CSLAYER1
  6
CONTINUOUS
 62
     3
 10
1523.959461
 20
1851.088062
 40
10.000000
 50
180.000000
 51
270.000000
  0
ARC
  8
CSLAYER1
  6
CONTINUOUS
 62
     3
 10
1553.959461
 20
1851.088062
 40
10.000000
 50
270.000000
 51
360.000000
  0
INSERT
  8
CSLAYER1
  2
BLKF0009
 10
0.0
 20
0.0
 30
0.0
  0
LINE
  8
CSLAYER1
  6
CENTER
 62
     5
 10
1584.298202
 20
930.338078
 11
1717.992030
 21
1170.766800
  0
LINE
  8
CSLAYER1
  6
CENTER
 62
     5
 10
946.137990
 20
1458.234699
 11
946.137990
 21
798.256588
  0
LINE
  8
CSLAYER1
  6
CENTER
 62
     5
 10
1071.137990
 20
829.327227
 11
1071.137990
 21
853.537189
  0
LINE
  8
CSLAYER1
  6
CENTER
 62
     5
 10
821.137990
 20
829.327227
 11
821.137990
 21
853.537189
  0
LINE
  8
CSLAYER1
  6
CENTER
 62
     5
 10
916.137990
 20
841.567025
 11
916.137990
 21
874.830344
  0
LINE
  8
CSLAYER1
  6
CENTER
 62
     5
 10
898.264044
 20
858.256588
 11
935.261001
 21
858.256588
  0
LINE
  8
CSLAYER1
  6
CENTER
 62
     5
 10
871.637990
 20
1398.434699
 11
1020.637990
 21
1398.434699
  0
LINE
  8
CSLAYER1
  6
CENTER
 62
     5
 10
866.637990
 20
1119.033825
 11
1025.637990
 21
1119.033825
  0
ARC
  8
CSLAYER1
  6
CONTINUOUS
 62
     3
 10
1561.236766
 20
1398.434699
 40
9.500000
 50
-190.922071
 51
10.922071
  0
LINE
  8
CSLAYER1
  6
CONTINUOUS
 62
     3
 10
1551.736766
 20
1400.234699
 11
1551.736766
 21
1392.949871
  0
LINE
  8
CSLAYER1
  6
CONTINUOUS
 62
     3
 10
1551.736766
 20
1392.949871
 11
1561.236766
 21
1387.465044
  0
LINE
  8
CSLAYER1
  6
CONTINUOUS
 62
     3
 10
1561.236766
 20
1387.465044
 11
1570.736766
 21
1392.949871
  0
LINE
  8
CSLAYER1
  6
CONTINUOUS
 62
     3
 10
1570.736766
 20
1392.949871
 11
1570.736766
 21
1400.234699
  0
POINT
  8
CSLAYER1
 62
     3
 10
1561.236766
 20
1398.434699
  0
LINE
  8
CSLAYER1
  6
CONTINUOUS
 62
     3
 10
1538.936766
 20
1418.234699
 11
1538.936766
 21
1400.234699
  0
LINE
  8
CSLAYER1
  6
CONTINUOUS
 62
     3
 10
2238.936766
 20
1418.234699
 11
2238.936766
 21
1400.234699
  0
LINE
  8
CSLAYER1
  6
CONTINUOUS
 62
     3
 10
1591.236766
 20
1385.934699
 11
2221.236766
 21
1385.934699
  0
LINE
  8
CSLAYER1
  6
CONTINUOUS
 62
     3
 10
1538.936766
 20
1418.234699
 11
2238.936766
 21
1418.234699
  0
LINE
  8
CSLAYER1
  6
CONTINUOUS
 62
     3
 10
1541.236766
 20
1400.234699
 11
1541.236766
 21
1392.934699
  0
LINE
  8
CSLAYER1
  6
CONTINUOUS
 62
     3
 10
1538.936766
 20
1400.234699
 11
2238.936766
 21
1400.234699
  0
LINE
  8
CSLAYER1
  6
CONTINUOUS
 62
     3
 10
1546.236766
 20
1387.934699
 11
1560.423299
 21
1387.934699
  0
ARC
  8
CSLAYER1
  6
CONTINUOUS
 62
     3
 10
1546.236766
 20
1392.934699
 40
5.000000
 50
180.000000
 51
270.000000
  0
LINE
  8
CSLAYER1
  6
CONTINUOUS
 62
     3
 10
2221.236766
 20
1400.234699
 11
2221.236766
 21
1385.934699
  0
LINE
  8
CSLAYER1
  6
CONTINUOUS
 62
     3
 10
1591.236766
 20
1396.934699
 11
1566.236766
 21
1387.934699
  0
LINE
  8
CSLAYER1
  6
CONTINUOUS
 62
     3
 10
1591.236766
 20
1400.234699
 11
1591.236766
 21
1385.934699
  0
LINE
  8
CSLAYER1
  6
CONTINUOUS
 62
     4
 10
1779.464455
 20
1169.290236
 11
1771.383550
 21
1150.450146
  0
LINE
  8
CSLAYER1
  6
CONTINUOUS
 62
     4
 10
1571.292002
 20
878.256588
 11
1584.669397
 21
896.739533
  0
LINE
  8
CSLAYER1
  6
CONTINUOUS
 62
     4
 10
1584.669397
 20
896.739533
 11
1590.212491
 21
900.134251
  0
LINE
  8
CSLAYER1
  6
CONTINUOUS
 62
     4
 10
1548.813222
 20
935.035548
 11
1875.160362
 21
1385.934699
  0
LINE
  8
CSLAYER1
  6
CONTINUOUS
 62
     4
 10
1590.212491
 20
900.134251
 11
1771.383550
 21
1150.450146
  0
ARC
  8
CSLAYER1
  6
DASHED
 62
     5
 10
1897.786325
 20
1398.434699
 40
13.000000
 50
-74.057631
 51
254.057631
  0
POINT
  8
CSLAYER1
 62
     4
 10
1897.786325
 20
1398.434699
  0
POINT
  8
CSLAYER1
 62
     4
 10
1729.511546
 20
1119.033825
  0
LINE
  8
CSLAYER1
  6
CONTINUOUS
 62
     4
 10
1779.464455
 20
1169.290236
 11
1899.658847
 21
1335.357415
  0
LINE
  8
CSLAYER1
  6
CONTINUOUS
 62
     4
 10
1899.658847
 20
1335.357415
 11
1907.071769
 21
1385.934699
  0
LINE
  8
CSLAYER1
  6
CONTINUOUS
 62
     4
 10
1570.739264
 20
927.807224
 11
1583.700605
 21
918.426198
  0
LINE
  8
CSLAYER1
  6
CONTINUOUS
 62
     4
 10
1591.260258
 20
956.160157
 11
1604.221599
 21
946.779131
  0
LINE
  8
CSLAYER1
  6
CONTINUOUS
 62
     4
 10
1587.889799
 20
919.097507
 11
1604.892908
 21
942.589938
  0
LINE
  8
CSLAYER1
  6
CONTINUOUS
 62
     4
 10
1570.067955
 20
931.996418
 11
1587.071064
 21
955.488848
  0
ARC
  8
CSLAYER1
  6
CONTINUOUS
 62
     4
 10
1572.498207
 20
930.237475
 40
3.000000
 50
144.104120
 51
234.104120
  0
ARC
  8
CSLAYER1
  6
CONTINUOUS
 62
     4
 10
1589.501316
 20
953.729906
 40
3.000000
 50
54.104120
 51
144.104120
  0
ARC
  8
CSLAYER1
  6
CONTINUOUS
 62
     4
 10
1585.459548
 20
920.856450
 40
3.000000
 50
234.104120
 51
324.104120
  0
ARC
  8
CSLAYER1
  6
CONTINUOUS
 62
     4
 10
1602.462657
 20
944.348880
 40
3.000000
 50
-35.895880
 51
54.104120
  0
LINE
  8
CSLAYER1
  6
CONTINUOUS
 62
     4
 10
1548.813222
 20
935.035548
 11
1530.743014
 21
873.836398
  0
POINT
  8
CSLAYER1
 62
     7
 10
1717.992030
 20
1170.766800
  0
LINE
  8
CSLAYER1
  6
CONTINUOUS
 62
     7
 10
1761.642611
 20
1055.878503
 11
1890.199970
 21
878.256588
  0
CIRCLE
  8
CSLAYER1
  6
DASHED
 62
     5
 10
1920.063630
 20
855.756588
 40
13.000000
  0
POINT
  8
CSLAYER1
 62
     7
 10
1920.063630
 20
855.756588
  0
POINT
  8
CSLAYER1
 62
     7
 10
1729.511546
 20
1119.033825
  0
LINE
  8
CSLAYER1
  6
CONTINUOUS
 62
     7
 10
1921.936151
 20
918.833872
 11
1927.883411
 21
878.256588
  0
LINE
  8
CSLAYER1
  6
CONTINUOUS
 62
     7
 10
1579.071110
 20
1392.555063
 11
1729.511546
 21
1184.698286
  0
LINE
  8
CSLAYER1
  6
CONTINUOUS
 62
     7
 10
1581.737783
 20
1329.805845
 11
1552.005550
 21
1387.934699
  0
ARC
  8
CSLAYER1
  6
CONTINUOUS
 62
     7
 10
1572.834798
 20
1325.252071
 40
10.000000
 50
-0.046232
 51
27.089216
  0
LINE
  8
CSLAYER1
  6
CONTINUOUS
 62
     7
 10
1582.834795
 20
1325.244002
 11
1582.819426
 21
1306.197675
  0
ARC
  8
CSLAYER1
  6
CONTINUOUS
 62
     7
 10
1592.819423
 20
1306.189606
 40
10.000000
 50
179.953768
 51
215.895880
  0
LINE
  8
CSLAYER1
  6
CONTINUOUS
 62
     7
 10
1687.639541
 20
1150.450146
 11
1696.181661
 21
1138.647884
  0
LINE
  8
CSLAYER1
  6
CONTINUOUS
 62
     7
 10
1761.642611
 20
1055.878503
 11
1746.270952
 21
1069.441766
  0
LINE
  8
CSLAYER1
  6
CONTINUOUS
 62
     7
 10
1679.558636
 20
1169.290236
 11
1687.639541
 21
1150.450146
  0
LINE
  8
CSLAYER1
  6
CONTINUOUS
 62
     7
 10
1679.558636
 20
1169.290236
 11
1584.718585
 21
1300.326465
  0
POINT
  8
CSLAYER1
 62
     7
 10
1561.236766
 20
1398.434699
  0
CIRCLE
  8
CSLAYER1
  6
CONTINUOUS
 62
     7
 10
1729.511546
 20
1119.033825
 40
7.500000
  0
POINT
  8
CSLAYER1
 62
     5
 10
1717.992030
 20
1170.766800
  0
LINE
  8
CSLAYER1
  6
CONTINUOUS
 62
     4
 10
1604.469875
 20
942.005452
 11
1585.105589
 21
952.773240
  0
LINE
  8
CSLAYER1
  6
CONTINUOUS
 62
     4
 10
1639.524238
 20
1076.980790
 11
1648.098192
 21
1072.213120
  0
LINE
  8
CSLAYER1
  6
CONTINUOUS
 62
     4
 10
1609.736303
 20
1030.613464
 11
1615.621179
 21
1027.341094
  0
LINE
  8
CSLAYER1
  6
CONTINUOUS
 62
     4
 10
1609.348317
 20
1031.973415
 11
1625.871727
 21
1061.688342
  0
LINE
  8
CSLAYER1
  6
CONTINUOUS
 62
     4
 10
1625.871727
 20
1061.688342
 11
1639.524238
 21
1076.980790
  0
LINE
  8
CSLAYER1
  6
CONTINUOUS
 62
     4
 10
1609.348317
 20
1031.973415
 11
1609.736303
 21
1030.613464
  0
LINE
  8
CSLAYER1
  6
CONTINUOUS
 62
     4
 10
1593.234366
 20
996.410243
 11
1611.659034
 21
1029.544302
  0
POINT
  8
CSLAYER1
 62
     5
 10
1584.298202
 20
930.338078
  0
LINE
  8
CSLAYER1
  6
CONTINUOUS
 62
     4
 10
1590.798805
 20
900.944335
 11
1591.203847
 21
900.651178
  0
CIRCLE
  8
CSLAYER1
  6
CONTINUOUS
 62
     4
 10
1584.298202
 20
930.338078
 40
8.000000
  0
LINE
  8
CSLAYER1
  6
CONTINUOUS
 62
     4
 10
1593.679227
 20
943.299419
 11
1601.375024
 21
937.729435
  0
ARC
  8
CSLAYER1
  6
CONTINUOUS
 62
     4
 10
1584.298202
 20
930.338078
 40
16.000000
 50
54.104120
 51
105.479287
  0
POINT
  8
CSLAYER1
 62
     2
 10
1584.298202
 20
930.338078
  0
LINE
  8
CSLAYER1
  6
CONTINUOUS
 62
     4
 10
1591.203847
 20
900.651178
 11
1574.995322
 21
878.256588
  0
LINE
  8
CSLAYER1
  6
CENTER
 62
     5
 10
1521.901913
 20
858.256588
 11
1374.164805
 21
858.256588
  0
LINE
  8
CSLAYER1
  6
CONTINUOUS
 62
     1
 10
1513.959461
 20
876.256588
 11
1513.959461
 21
838.256588
  0
LINE
  8
CSLAYER1
  6
CONTINUOUS
 62
     4
 10
1513.959461
 20
878.256588
 11
1513.959461
 21
838.256588
  0
LINE
  8
CSLAYER1
  6
CONTINUOUS
 62
     4
 10
1513.959461
 20
838.256588
 11
1553.959461
 21
838.256588
  0
LINE
  8
CSLAYER1
  6
CONTINUOUS
 62
     4
 10
1513.959461
 20
878.256588
 11
1527.503022
 21
878.256588
  0
LINE
  8
CSLAYER1
  6
CONTINUOUS
 62
     3
 10
2216.959461
 20
878.256588
 11
2216.959461
 21
838.256588
  0
LINE
  8
CSLAYER1
  6
CONTINUOUS
 62
     3
 10
1513.959461
 20
878.256588
 11
1527.503022
 21
878.256588
  0
LINE
  8
CSLAYER1
  6
CONTINUOUS
 62
     4
 10
1550.415900
 20
878.256588
 11
1566.959461
 21
878.256588
  0
LINE
  8
CSLAYER1
  6
CONTINUOUS
 62
     5
 10
494.334337
 20
838.256588
 11
796.137990
 21
838.256588
  0
LINE
  8
CSLAYER1
  6
CONTINUOUS
 62
     3
 10
1562.050232
 20
1387.934699
 11
1566.236766
 21
1387.934699
  0
ARC
  8
CSLAYER1
  6
CONTINUOUS
 62
     4
 10
1897.786325
 20
1398.434699
 40
13.000000
 50
254.057631
 51
285.942369
  0
ARC
  8
CSLAYER1
  6
CONTINUOUS
 62
     4
 10
1717.992030
 20
1170.766800
 40
8.000000
 50
45.741168
 51
242.467072
  0
POINT
  8
CSLAYER1
 62
     4
 10
1717.992030
 20
1170.766800
  0
LINE
  8
CSLAYER1
  6
CONTINUOUS
 62
     4
 10
1643.894081
 20
1074.550876
 11
1686.968679
 21
1152.014217
  0
LINE
  8
CSLAYER1
  6
CONTINUOUS
 62
     7
 10
1729.511546
 20
1092.597483
 11
1746.270952
 21
1069.441766
  0
LINE
  8
CSLAYER1
  6
CONTINUOUS
 62
     7
 10
1762.841431
 20
1138.647884
 11
1921.936151
 21
918.833872
  0
LINE
  8
CSLAYER1
  6
CONTINUOUS
 62
     4
 10
1625.871727
 20
1061.688342
 11
1636.288369
 21
1055.896020
  0
ARC
  8
CSLAYER1
  6
CONTINUOUS
 62
     3
 10
1538.959461
 20
883.256588
 40
12.500000
 50
203.578178
 51
336.421822
  0
LINE
  8
CSLAYER1
  6
CONTINUOUS
 62
     3
 10
1550.415900
 20
878.256588
 11
2216.959461
 21
878.256588
  0
INSERT
  8
CSLAYER1
  2
BLKF0010
 10
0.0
 20
0.0
 30
0.0
  0
LINE
  8
CSLAYER1
  6
CENTER
 62
     5
 10
1548.547885
 20
1398.434699
 11
1574.282179
 21
1398.434699
  0
LINE
  8
CSLAYER1
  6
CENTER
 62
     5
 10
1561.236766
 20
1409.279487
 11
1561.236766
 21
1383.545192
  0
LINE
  8
CSLAYER1
  6
CENTER
 62
     5
 10
1897.786325
 20
1414.474040
 11
1897.786325
 21
1379.525721
  0
LINE
  8
CSLAYER1
  6
CENTER
 62
     5
 10
1881.441687
 20
1398.434699
 11
1915.062855
 21
1398.434699
  0
LINE
  8
CSLAYER1
  6
CENTER
 62
     5
 10
1716.052360
 20
1119.033825
 11
1742.609211
 21
1119.033825
  0
LINE
  8
CSLAYER1
  6
CENTER
 62
     5
 10
1729.511546
 20
1130.021263
 11
1729.511546
 21
1106.989657
  0
LINE
  8
CSLAYER1
  6
CENTER
 62
     5
 10
1717.992030
 20
1179.844738
 11
1717.992030
 21
1161.693178
  0
LINE
  8
CSLAYER1
  6
CENTER
 62
     5
 10
1708.134381
 20
1170.766800
 11
1725.207630
 21
1170.766800
  0
LINE
  8
CSLAYER1
  6
CENTER
 62
     5
 10
1903.177185
 20
855.756588
 11
1937.102523
 21
855.756588
  0
LINE
  8
CSLAYER1
  6
CENTER
 62
     5
 10
1920.063630
 20
872.071712
 11
1920.063630
 21
839.042515
  0
LINE
  8
CSLAYER1
  6
CENTER
 62
     5
 10
1584.298202
 20
940.439073
 11
1584.298202
 21
919.757630
  0
LINE
  8
CSLAYER1
  6
CENTER
 62
     5
 10
1573.006870
 20
930.338078
 11
1594.462484
 21
930.338078
  0
LINE
  8
CSLAYER1
  6
CENTER
 62
     5
 10
1526.459800
 20
855.756588
 11
1551.551256
 21
855.756588
  0
LINE
  8
CSLAYER1
  6
CENTER
 62
     5
 10
1538.959461
 20
870.756588
 11
1538.959461
 21
835.213166
  0
LINE
  8
CSLAYER1
  6
PHANTOM
 62
     5
 10
1788.959461
 20
900.756588
 11
1788.959461
 21
896.256588
  0
LINE
  8
CSLAYER1
  6
PHANTOM
 62
     5
 10
1713.959461
 20
900.756588
 11
1713.959461
 21
896.256588
  0
POINT
  8
CSLAYER1
 62
     5
 10
1538.959461
 20
883.256588
  0
LINE
  8
CSLAYER1
  6
PHANTOM
 62
     5
 10
1516.659461
 20
903.056588
 11
1516.659461
 21
885.056588
  0
LINE
  8
CSLAYER1
  6
PHANTOM
 62
     5
 10
2216.659461
 20
903.056588
 11
2216.659461
 21
885.056588
  0
LINE
  8
CSLAYER1
  6
PHANTOM
 62
     5
 10
1516.659461
 20
903.056588
 11
2216.659461
 21
903.056588
  0
LINE
  8
CSLAYER1
  6
PHANTOM
 62
     5
 10
2216.659461
 20
885.056588
 11
1516.659461
 21
885.056588
  0
LINE
  8
CSLAYER1
  6
PHANTOM
 62
     5
 10
1518.959461
 20
885.056588
 11
1518.959461
 21
877.756588
  0
LINE
  8
CSLAYER1
  6
PHANTOM
 62
     5
 10
2198.959461
 20
885.056588
 11
2198.959461
 21
878.256588
  0
LINE
  8
CSLAYER1
  6
PHANTOM
 62
     5
 10
1568.959461
 20
881.756588
 11
1559.237239
 21
878.256588
  0
LINE
  8
CSLAYER1
  6
PHANTOM
 62
     5
 10
1568.959461
 20
885.056588
 11
1568.959461
 21
878.256588
  0
LINE
  8
CSLAYER1
  6
CENTER
 62
     5
 10
1538.959461
 20
892.985984
 11
1538.959461
 21
874.231470
  0
LINE
  8
CSLAYER1
  6
CENTER
 62
     5
 10
1526.279472
 20
883.256588
 11
1550.148855
 21
883.256588
  0
LINE
  8
CSLAYER1
  6
CENTER
 62
     5
 10
1538.959461
 20
1877.350863
 11
1538.959461
 21
1854.825260
  0
LINE
  8
CSLAYER1
  6
CENTER
 62
     5
 10
1527.696660
 20
1866.088062
 11
1550.222263
 21
1866.088062
  0
CIRCLE
  8
CSLAYER1
  6
CONTINUOUS
 62
     3
 10
1538.959461
 20
1866.088062
 40
6.500000
  0
LINE
  8
CSLAYER1
  6
CONTINUOUS
 62
     4
 10
1516.659461
 20
1891.088062
 11
2216.659461
 21
1891.088062
  0
LINE
  8
CSLAYER1
  6
CONTINUOUS
 62
     3
 10
1563.959461
 20
2131.088062
 11
1563.959461
 21
2091.088062
  0
LINE
  8
CSLAYER1
  6
CONTINUOUS
 62
     3
 10
1523.959461
 20
2141.088062
 11
1553.959461
 21
2141.088062
  0
ARC
  8
CSLAYER1
  6
CONTINUOUS
 62
     3
 10
1523.959461
 20
2131.088062
 40
10.000000
 50
90.000000
 51
180.000000
  0
ARC
  8
CSLAYER1
  6
CONTINUOUS
 62
     3
 10
1553.959461
 20
2131.088062
 40
10.000000
 50
0.000000
 51
90.000000
  0
LINE
  8
CSLAYER1
  6
CENTER
 62
     5
 10
1538.959461
 20
2104.825260
 11
1538.959461
 21
2127.350863
  0
LINE
  8
CSLAYER1
  6
CENTER
 62
     5
 10
1527.696660
 20
2116.088062
 11
1550.222263
 21
2116.088062
  0
CIRCLE
  8
CSLAYER1
  6
CONTINUOUS
 62
     3
 10
1538.959461
 20
2116.088062
 40
6.500000
  0
LINE
  8
CSLAYER1
  6
CONTINUOUS
 62
     3
 10
846.137990
 20
878.256588
 11
1046.137990
 21
878.256588
  0
LINE
  8
CSLAYER1
  6
CONTINUOUS
 62
     3
 10
846.137990
 20
878.256588
 11
846.137990
 21
844.256588
  0
LINE
  8
CSLAYER1
  6
CONTINUOUS
 62
     3
 10
1046.137990
 20
878.256588
 11
1046.137990
 21
844.256588
  0
LINE
  8
CSLAYER1
  6
CONTINUOUS
 62
     3
 10
1096.137990
 20
838.256588
 11
1096.137990
 21
844.256588
  0
LINE
  8
CSLAYER1
  6
CONTINUOUS
 62
     3
 10
1020.637990
 20
838.256588
 11
1020.637990
 21
878.256588
  0
LINE
  8
CSLAYER1
  6
CONTINUOUS
 62
     3
 10
1096.137990
 20
844.256588
 11
1020.637990
 21
844.256588
  0
LINE
  8
CSLAYER1
  6
CONTINUOUS
 62
     3
 10
1023.637990
 20
866.726244
 11
1023.637990
 21
844.786933
  0
LINE
  8
CSLAYER1
  6
CONTINUOUS
 62
     3
 10
1020.637990
 20
845.006588
 11
1023.637990
 21
845.006588
  0
LINE
  8
CSLAYER1
  6
CONTINUOUS
 62
     3
 10
1020.637990
 20
866.506588
 11
1023.637990
 21
866.506588
  0
LINE
  8
CSLAYER1
  6
CONTINUOUS
 62
     3
 10
1020.637990
 20
857.268785
 11
1023.637990
 21
853.768785
  0
LINE
  8
CSLAYER1
  6
CONTINUOUS
 62
     3
 10
1031.637990
 20
846.756588
 11
1031.637990
 21
864.756588
  0
LINE
  8
CSLAYER1
  6
CONTINUOUS
 62
     3
 10
1023.637990
 20
850.271761
 11
1030.500809
 21
850.271761
  0
LINE
  8
CSLAYER1
  6
CONTINUOUS
 62
     3
 10
1023.637990
 20
844.786933
 11
1030.500809
 21
844.786933
  0
LINE
  8
CSLAYER1
  6
CONTINUOUS
 62
     3
 10
1031.637990
 20
846.756588
 11
1030.500809
 21
844.786933
  0
ARC
  8
CSLAYER1
  6
CONTINUOUS
 62
     3
 10
1027.857946
 20
847.529347
 40
3.808617
 50
5.661633
 51
46.059028
  0
ARC
  8
CSLAYER1
  6
CONTINUOUS
 62
     3
 10
1017.842246
 20
855.756588
 40
13.795744
 50
-23.426598
 51
23.426598
  0
LINE
  8
CSLAYER1
  6
CONTINUOUS
 62
     3
 10
1023.637990
 20
861.241416
 11
1030.500809
 21
861.241416
  0
LINE
  8
CSLAYER1
  6
CONTINUOUS
 62
     3
 10
1023.637990
 20
866.726244
 11
1030.500809
 21
866.726244
  0
LINE
  8
CSLAYER1
  6
CONTINUOUS
 62
     3
 10
1031.637990
 20
864.756588
 11
1030.500809
 21
866.726244
  0
ARC
  8
CSLAYER1
  6
CONTINUOUS
 62
     3
 10
1027.857946
 20
863.983830
 40
3.808617
 50
313.940972
 51
354.338367
  0
LINE
  8
CSLAYER1
  6
CENTER
 62
     5
 10
1020.637990
 20
855.756588
 11
1031.637990
 21
855.756588
  0
LINE
  8
CSLAYER1
  6
CONTINUOUS
 62
     3
 10
796.137990
 20
838.256588
 11
796.137990
 21
844.256588
  0
LINE
  8
CSLAYER1
  6
CONTINUOUS
 62
     3
 10
796.137990
 20
844.256588
 11
871.637990
 21
844.256588
  0
LINE
  8
CSLAYER1
  6
CONTINUOUS
 62
     3
 10
868.637990
 20
866.726244
 11
868.637990
 21
844.786933
  0
LINE
  8
CSLAYER1
  6
CONTINUOUS
 62
     3
 10
871.637990
 20
845.006588
 11
868.637990
 21
845.006588
  0
LINE
  8
CSLAYER1
  6
CONTINUOUS
 62
     3
 10
871.637990
 20
866.506588
 11
868.637990
 21
866.506588
  0
LINE
  8
CSLAYER1
  6
CONTINUOUS
 62
     3
 10
871.637990
 20
857.268785
 11
868.637990
 21
853.768785
  0
LINE
  8
CSLAYER1
  6
CONTINUOUS
 62
     3
 10
860.637990
 20
846.756588
 11
860.637990
 21
864.756588
  0
LINE
  8
CSLAYER1
  6
CONTINUOUS
 62
     3
 10
868.637990
 20
850.271761
 11
861.775171
 21
850.271761
  0
LINE
  8
CSLAYER1
  6
CONTINUOUS
 62
     3
 10
868.637990
 20
844.786933
 11
861.775171
 21
844.786933
  0
LINE
  8
CSLAYER1
  6
CONTINUOUS
 62
     3
 10
860.637990
 20
846.756588
 11
861.775171
 21
844.786933
  0
ARC
  8
CSLAYER1
  6
CONTINUOUS
 62
     3
 10
864.418035
 20
847.529347
 40
3.808617
 50
133.940972
 51
174.338367
  0
ARC
  8
CSLAYER1
  6
CONTINUOUS
 62
     3
 10
874.433734
 20
855.756588
 40
13.795744
 50
156.573402
 51
203.426598
  0
LINE
  8
CSLAYER1
  6
CONTINUOUS
 62
     3
 10
868.637990
 20
861.241416
 11
861.775171
 21
861.241416
  0
LINE
  8
CSLAYER1
  6
CONTINUOUS
 62
     3
 10
868.637990
 20
866.726244
 11
861.775171
 21
866.726244
  0
LINE
  8
CSLAYER1
  6
CONTINUOUS
 62
     3
 10
860.637990
 20
864.756588
 11
861.775171
 21
866.726244
  0
ARC
  8
CSLAYER1
  6
CONTINUOUS
 62
     3
 10
864.418035
 20
863.983830
 40
3.808617
 50
185.661633
 51
226.059028
  0
LINE
  8
CSLAYER1
  6
CENTER
 62
     5
 10
871.637990
 20
855.756588
 11
860.637990
 21
855.756588
  0
LINE
  8
CSLAYER1
  6
CONTINUOUS
 62
     3
 10
871.637990
 20
838.256588
 11
871.637990
 21
878.256588
  0
CIRCLE
  8
CSLAYER1
  6
CONTINUOUS
 62
     3
 10
916.137990
 20
858.256588
 40
12.500000
  0
LINE
  8
CSLAYER1
  6
CONTINUOUS
 62
     3
 10
1046.137990
 20
1418.234699
 11
846.137990
 21
1418.234699
  0
LINE
  8
CSLAYER1
  6
CONTINUOUS
 62
     3
 10
992.137990
 20
878.256588
 11
992.137990
 21
1400.234699
  0
LINE
  8
CSLAYER1
  6
CONTINUOUS
 62
     3
 10
1001.137990
 20
878.256588
 11
1001.137990
 21
1400.234699
  0
LINE
  8
CSLAYER1
  6
CONTINUOUS
 62
     3
 10
1004.137990
 20
878.256588
 11
1004.137990
 21
1387.934699
  0
LINE
  8
CSLAYER1
  6
CONTINUOUS
 62
     3
 10
1013.137990
 20
878.256588
 11
1013.137990
 21
1387.465044
  0
LINE
  8
CSLAYER1
  6
CONTINUOUS
 62
     3
 10
1046.137990
 20
1400.234699
 11
846.137990
 21
1400.234699
  0
LINE
  8
CSLAYER1
  6
CONTINUOUS
 62
     3
 10
1046.137990
 20
1400.234699
 11
1046.137990
 21
1418.234699
  0
LINE
  8
CSLAYER1
  6
CONTINUOUS
 62
     3
 10
1002.137990
 20
1389.784699
 11
1001.137990
 21
1389.784699
  0
LINE
  8
CSLAYER1
  6
CONTINUOUS
 62
     3
 10
1003.137990
 20
1400.234699
 11
1003.137990
 21
1390.784699
  0
LINE
  8
CSLAYER1
  6
CONTINUOUS
 62
     3
 10
1003.137990
 20
1390.784699
 11
1002.137990
 21
1389.784699
  0
LINE
  8
CSLAYER1
  6
CONTINUOUS
 62
     3
 10
1002.137990
 20
1400.234699
 11
1002.137990
 21
1389.784699
  0
LINE
  8
CSLAYER1
  6
CONTINUOUS
 62
     3
 10
1003.637990
 20
1387.934699
 11
1009.637990
 21
1387.934699
  0
LINE
  8
CSLAYER1
  6
CONTINUOUS
 62
     3
 10
1009.637990
 20
1400.234699
 11
1009.637990
 21
1387.934699
  0
LINE
  8
CSLAYER1
  6
CONTINUOUS
 62
     3
 10
1003.637990
 20
1400.234699
 11
1003.637990
 21
1387.934699
  0
LINE
  8
CSLAYER1
  6
CONTINUOUS
 62
     3
 10
992.137990
 20
1389.784699
 11
900.137990
 21
1389.784699
  0
LINE
  8
CSLAYER1
  6
CONTINUOUS
 62
     3
 10
1012.637990
 20
1387.465044
 11
1012.637990
 21
1400.234699
  0
LINE
  8
CSLAYER1
  6
CONTINUOUS
 62
     3
 10
1009.637990
 20
1387.684699
 11
1012.637990
 21
1387.684699
  0
LINE
  8
CSLAYER1
  6
CONTINUOUS
 62
     3
 10
1009.637990
 20
1396.922502
 11
1012.477016
 21
1400.234699
  0
LINE
  8
CSLAYER1
  6
CONTINUOUS
 62
     3
 10
1020.637990
 20
1400.234699
 11
1020.637990
 21
1389.434699
  0
ARC
  8
CSLAYER1
  6
CONTINUOUS
 62
     3
 10
1006.842246
 20
1398.434699
 40
13.795744
 50
-23.426598
 51
7.497043
  0
LINE
  8
CSLAYER1
  6
CONTINUOUS
 62
     3
 10
1012.637990
 20
1392.949871
 11
1019.500809
 21
1392.949871
  0
LINE
  8
CSLAYER1
  6
CONTINUOUS
 62
     3
 10
1012.637990
 20
1387.465044
 11
1019.500809
 21
1387.465044
  0
LINE
  8
CSLAYER1
  6
CONTINUOUS
 62
     3
 10
1020.637990
 20
1389.434699
 11
1019.500809
 21
1387.465044
  0
ARC
  8
CSLAYER1
  6
CONTINUOUS
 62
     3
 10
1016.857946
 20
1390.207457
 40
3.808617
 50
5.661633
 51
46.059028
  0
LINE
  8
CSLAYER1
  6
CENTER
 62
     5
 10
891.137990
 20
1170.766800
 11
1001.137990
 21
1170.766800
  0
LINE
  8
CSLAYER1
  6
CONTINUOUS
 62
     3
 10
900.137990
 20
1143.720113
 11
921.137990
 21
1143.720113
  0
LINE
  8
CSLAYER1
  6
CONTINUOUS
 62
     3
 10
900.137990
 20
1095.120113
 11
938.637990
 21
1095.120113
  0
LINE
  8
CSLAYER1
  6
CONTINUOUS
 62
     3
 10
1024.637990
 20
1114.033825
 11
1024.137990
 21
1114.033825
  0
LINE
  8
CSLAYER1
  6
CONTINUOUS
 62
     3
 10
1013.637990
 20
1129.533825
 11
1013.637990
 21
1108.533825
  0
LINE
  8
CSLAYER1
  6
CONTINUOUS
 62
     3
 10
1025.637990
 20
1115.033825
 11
1025.637990
 21
1123.033825
  0
LINE
  8
CSLAYER1
  6
CONTINUOUS
 62
     3
 10
1004.137990
 20
1133.033825
 11
1001.137990
 21
1133.033825
  0
LINE
  8
CSLAYER1
  6
CONTINUOUS
 62
     3
 10
1004.137990
 20
1105.033825
 11
1001.137990
 21
1105.033825
  0
LINE
  8
CSLAYER1
  6
CONTINUOUS
 62
     3
 10
1015.637990
 20
1129.533825
 11
1015.637990
 21
1108.533825
  0
LINE
  8
CSLAYER1
  6
CONTINUOUS
 62
     3
 10
1018.137990
 20
1128.233825
 11
1018.137990
 21
1109.833825
  0
LINE
  8
CSLAYER1
  6
CONTINUOUS
 62
     3
 10
1018.137990
 20
1109.833825
 11
1015.637990
 21
1109.833825
  0
LINE
  8
CSLAYER1
  6
CONTINUOUS
 62
     3
 10
1015.637990
 20
1108.533825
 11
1013.637990
 21
1108.533825
  0
LINE
  8
CSLAYER1
  6
CONTINUOUS
 62
     3
 10
1018.137990
 20
1128.233825
 11
1015.637990
 21
1128.233825
  0
LINE
  8
CSLAYER1
  6
CONTINUOUS
 62
     3
 10
1015.637990
 20
1129.533825
 11
1013.637990
 21
1129.533825
  0
LINE
  8
CSLAYER1
  6
CONTINUOUS
 62
     3
 10
1024.137990
 20
1127.533825
 11
1024.137990
 21
1110.533825
  0
LINE
  8
CSLAYER1
  6
CONTINUOUS
 62
     3
 10
1024.637990
 20
1114.033825
 11
1025.637990
 21
1115.033825
  0
LINE
  8
CSLAYER1
  6
CONTINUOUS
 62
     3
 10
1025.337990
 20
1114.733825
 11
1024.137990
 21
1114.733825
  0
LINE
  8
CSLAYER1
  6
CONTINUOUS
 62
     3
 10
1024.637990
 20
1114.033825
 11
1024.637990
 21
1124.033825
  0
LINE
  8
CSLAYER1
  6
CONTINUOUS
 62
     3
 10
1023.378801
 20
1109.218870
 11
1018.897179
 21
1109.218870
  0
LINE
  8
CSLAYER1
  6
CONTINUOUS
 62
     3
 10
1023.378801
 20
1114.126347
 11
1018.897179
 21
1114.126347
  0
LINE
  8
CSLAYER1
  6
CONTINUOUS
 62
     3
 10
1024.137990
 20
1110.533825
 11
1023.378801
 21
1109.218870
  0
ARC
  8
CSLAYER1
  6
CONTINUOUS
 62
     3
 10
1007.897179
 20
1119.033825
 40
16.240811
 50
-17.587954
 51
17.587954
  0
ARC
  8
CSLAYER1
  6
CONTINUOUS
 62
     3
 10
1019.797066
 20
1111.672609
 40
4.341619
 50
-27.480777
 51
34.413868
  0
LINE
  8
CSLAYER1
  6
CONTINUOUS
 62
     3
 10
1024.137990
 20
1127.533825
 11
1023.378801
 21
1128.848779
  0
ARC
  8
CSLAYER1
  6
CONTINUOUS
 62
     3
 10
1019.797066
 20
1126.395041
 40
4.341619
 50
-34.413868
 51
27.480777
  0
LINE
  8
CSLAYER1
  6
CONTINUOUS
 62
     3
 10
1018.137990
 20
1110.533825
 11
1018.897179
 21
1109.218870
  0
ARC
  8
CSLAYER1
  6
CONTINUOUS
 62
     3
 10
1034.378801
 20
1119.033825
 40
16.240811
 50
162.412046
 51
197.587954
  0
ARC
  8
CSLAYER1
  6
CONTINUOUS
 62
     3
 10
1022.478914
 20
1111.672609
 40
4.341619
 50
145.586132
 51
207.480777
  0
LINE
  8
CSLAYER1
  6
CONTINUOUS
 62
     3
 10
1018.137990
 20
1127.533825
 11
1018.897179
 21
1128.848779
  0
ARC
  8
CSLAYER1
  6
CONTINUOUS
 62
     3
 10
1022.478914
 20
1126.395041
 40
4.341619
 50
152.519223
 51
214.413868
  0
LINE
  8
CSLAYER1
  6
CONTINUOUS
 62
     3
 10
1023.378801
 20
1128.848779
 11
1018.897179
 21
1128.848779
  0
LINE
  8
CSLAYER1
  6
CONTINUOUS
 62
     3
 10
1023.378801
 20
1123.941302
 11
1018.897179
 21
1123.941302
  0
LINE
  8
CSLAYER1
  6
CONTINUOUS
 62
     3
 10
1024.637990
 20
1124.033825
 11
1024.137990
 21
1124.033825
  0
LINE
  8
CSLAYER1
  6
CONTINUOUS
 62
     3
 10
1024.637990
 20
1124.033825
 11
1025.637990
 21
1123.033825
  0
LINE
  8
CSLAYER1
  6
CONTINUOUS
 62
     3
 10
1025.337990
 20
1123.333825
 11
1024.137990
 21
1123.333825
  0
LINE
  8
CSLAYER1
  6
CONTINUOUS
 62
     3
 10
1015.637990
 20
1120.935272
 11
1018.137990
 21
1117.565707
  0
LINE
  8
CSLAYER1
  6
CONTINUOUS
 62
     3
 10
1013.137990
 20
1111.533825
 11
1013.637990
 21
1111.533825
  0
LINE
  8
CSLAYER1
  6
CONTINUOUS
 62
     3
 10
1013.137990
 20
1126.533825
 11
1013.637990
 21
1126.533825
  0
LINE
  8
CSLAYER1
  6
CENTER
 62
     5
 10
956.637990
 20
1184.366800
 11
956.637990
 21
911.791146
  0
LINE
  8
CSLAYER1
  6
CONTINUOUS
 62
     3
 10
985.637990
 20
891.539050
 11
985.637990
 21
946.402941
  0
LINE
  8
CSLAYER1
  6
CONTINUOUS
 62
     3
 10
979.637990
 20
891.539050
 11
979.637990
 21
946.402941
  0
LINE
  8
CSLAYER1
  6
CONTINUOUS
 62
     3
 10
927.637990
 20
891.539050
 11
927.637990
 21
946.402941
  0
LINE
  8
CSLAYER1
  6
CONTINUOUS
 62
     3
 10
933.637990
 20
891.539050
 11
933.637990
 21
946.402941
  0
LINE
  8
CSLAYER1
  6
CONTINUOUS
 62
     3
 10
979.137990
 20
1158.166800
 11
979.137990
 21
1183.366800
  0
LINE
  8
CSLAYER1
  6
CONTINUOUS
 62
     3
 10
934.137990
 20
1158.166800
 11
934.137990
 21
1183.366800
  0
LINE
  8
CSLAYER1
  6
CONTINUOUS
 62
     3
 10
935.137990
 20
1184.366800
 11
978.137990
 21
1184.366800
  0
LINE
  8
CSLAYER1
  6
CONTINUOUS
 62
     3
 10
934.137990
 20
1183.366800
 11
935.137990
 21
1184.366800
  0
LINE
  8
CSLAYER1
  6
CONTINUOUS
 62
     3
 10
978.137990
 20
1184.366800
 11
979.137990
 21
1183.366800
  0
POINT
  8
CSLAYER1
 62
     3
 10
956.637990
 20
1170.766800
  0
LINE
  8
CSLAYER1
  6
CONTINUOUS
 62
     3
 10
980.137990
 20
1178.766800
 11
979.137990
 21
1178.766800
  0
LINE
  8
CSLAYER1
  6
CONTINUOUS
 62
     3
 10
934.137990
 20
1178.766800
 11
933.137990
 21
1178.766800
  0
LINE
  8
CSLAYER1
  6
CENTER
 62
     5
 10
927.637990
 20
930.338078
 11
985.637990
 21
930.338078
  0
LINE
  8
CSLAYER1
  6
CONTINUOUS
 62
     3
 10
888.137990
 20
911.791146
 11
891.137990
 21
911.791146
  0
LINE
  8
CSLAYER1
  6
CONTINUOUS
 62
     3
 10
927.637990
 20
891.539050
 11
933.637990
 21
891.539050
  0
LINE
  8
CSLAYER1
  6
CONTINUOUS
 62
     3
 10
927.637990
 20
946.402941
 11
933.637990
 21
946.402941
  0
LINE
  8
CSLAYER1
  6
CONTINUOUS
 62
     3
 10
979.637990
 20
946.402941
 11
985.637990
 21
946.402941
  0
LINE
  8
CSLAYER1
  6
CONTINUOUS
 62
     3
 10
979.637990
 20
891.539050
 11
985.637990
 21
891.539050
  0
LINE
  8
CSLAYER1
  6
CONTINUOUS
 62
     3
 10
933.637990
 20
911.791146
 11
979.637990
 21
911.791146
  0
LINE
  8
CSLAYER1
  6
CONTINUOUS
 62
     3
 10
985.637990
 20
911.791146
 11
992.137990
 21
911.791146
  0
LINE
  8
CSLAYER1
  6
CONTINUOUS
 62
     3
 10
1001.137990
 20
911.791146
 11
1004.137990
 21
911.791146
  0
LINE
  8
CSLAYER1
  6
CONTINUOUS
 62
     3
 10
979.550468
 20
1066.775029
 11
984.033344
 21
1049.485803
  0
LINE
  8
CSLAYER1
  6
CONTINUOUS
 62
     3
 10
979.550468
 20
1066.775029
 11
979.288568
 21
1067.739474
  0
LINE
  8
CSLAYER1
  6
CONTINUOUS
 62
     3
 10
979.288568
 20
1067.739474
 11
978.854284
 21
1068.689182
  0
LINE
  8
CSLAYER1
  6
CONTINUOUS
 62
     3
 10
978.854284
 20
1068.689182
 11
978.250920
 21
1069.616926
  0
LINE
  8
CSLAYER1
  6
CONTINUOUS
 62
     3
 10
978.250920
 20
1069.616926
 11
977.483069
 21
1070.515645
  0
LINE
  8
CSLAYER1
  6
CONTINUOUS
 62
     3
 10
977.483069
 20
1070.515645
 11
976.556574
 21
1071.378499
  0
LINE
  8
CSLAYER1
  6
CONTINUOUS
 62
     3
 10
976.556574
 20
1071.378499
 11
975.478487
 21
1072.198922
  0
LINE
  8
CSLAYER1
  6
CONTINUOUS
 62
     3
 10
975.478487
 20
1072.198922
 11
974.257012
 21
1072.970670
  0
LINE
  8
CSLAYER1
  6
CONTINUOUS
 62
     3
 10
974.257012
 20
1072.970670
 11
972.901446
 21
1073.687869
  0
LINE
  8
CSLAYER1
  6
CONTINUOUS
 62
     3
 10
972.901446
 20
1073.687869
 11
971.422105
 21
1074.345060
  0
LINE
  8
CSLAYER1
  6
CONTINUOUS
 62
     3
 10
971.422105
 20
1074.345060
 11
969.830248
 21
1074.937243
  0
LINE
  8
CSLAYER1
  6
CONTINUOUS
 62
     3
 10
969.830248
 20
1074.937243
 11
968.137990
 21
1075.459910
  0
LINE
  8
CSLAYER1
  6
CONTINUOUS
 62
     3
 10
968.137990
 20
1075.459910
 11
966.358210
 21
1075.909084
  0
LINE
  8
CSLAYER1
  6
CONTINUOUS
 62
     3
 10
966.358210
 20
1075.909084
 11
964.504453
 21
1076.281345
  0
LINE
  8
CSLAYER1
  6
CONTINUOUS
 62
     3
 10
964.504453
 20
1076.281345
 11
962.590828
 21
1076.573862
  0
LINE
  8
CSLAYER1
  6
CONTINUOUS
 62
     3
 10
962.590828
 20
1076.573862
 11
960.631898
 21
1076.784407
  0
LINE
  8
CSLAYER1
  6
CONTINUOUS
 62
     3
 10
960.631898
 20
1076.784407
 11
958.642572
 21
1076.911378
  0
LINE
  8
CSLAYER1
  6
CONTINUOUS
 62
     3
 10
958.642572
 20
1076.911378
 11
956.637990
 21
1076.953810
  0
LINE
  8
CSLAYER1
  6
CONTINUOUS
 62
     3
 10
933.725512
 20
1066.775029
 11
929.242636
 21
1049.485803
  0
LINE
  8
CSLAYER1
  6
CONTINUOUS
 62
     3
 10
933.725512
 20
1066.775029
 11
933.987412
 21
1067.739474
  0
LINE
  8
CSLAYER1
  6
CONTINUOUS
 62
     3
 10
933.987412
 20
1067.739474
 11
934.421696
 21
1068.689182
  0
LINE
  8
CSLAYER1
  6
CONTINUOUS
 62
     3
 10
934.421696
 20
1068.689182
 11
935.025060
 21
1069.616926
  0
LINE
  8
CSLAYER1
  6
CONTINUOUS
 62
     3
 10
935.025060
 20
1069.616926
 11
935.792911
 21
1070.515645
  0
LINE
  8
CSLAYER1
  6
CONTINUOUS
 62
     3
 10
935.792911
 20
1070.515645
 11
936.719406
 21
1071.378499
  0
LINE
  8
CSLAYER1
  6
CONTINUOUS
 62
     3
 10
936.719406
 20
1071.378499
 11
937.797493
 21
1072.198922
  0
LINE
  8
CSLAYER1
  6
CONTINUOUS
 62
     3
 10
937.797493
 20
1072.198922
 11
939.018968
 21
1072.970670
  0
LINE
  8
CSLAYER1
  6
CONTINUOUS
 62
     3
 10
939.018968
 20
1072.970670
 11
940.374534
 21
1073.687869
  0
LINE
  8
CSLAYER1
  6
CONTINUOUS
 62
     3
 10
940.374534
 20
1073.687869
 11
941.853875
 21
1074.345060
  0
LINE
  8
CSLAYER1
  6
CONTINUOUS
 62
     3
 10
941.853875
 20
1074.345060
 11
943.445732
 21
1074.937243
  0
LINE
  8
CSLAYER1
  6
CONTINUOUS
 62
     3
 10
943.445732
 20
1074.937243
 11
945.137990
 21
1075.459910
  0
LINE
  8
CSLAYER1
  6
CONTINUOUS
 62
     3
 10
945.137990
 20
1075.459910
 11
946.917770
 21
1075.909084
  0
LINE
  8
CSLAYER1
  6
CONTINUOUS
 62
     3
 10
946.917770
 20
1075.909084
 11
948.771527
 21
1076.281345
  0
LINE
  8
CSLAYER1
  6
CONTINUOUS
 62
     3
 10
948.771527
 20
1076.281345
 11
950.685152
 21
1076.573862
  0
LINE
  8
CSLAYER1
  6
CONTINUOUS
 62
     3
 10
950.685152
 20
1076.573862
 11
952.644082
 21
1076.784407
  0
LINE
  8
CSLAYER1
  6
CONTINUOUS
 62
     3
 10
952.644082
 20
1076.784407
 11
954.633408
 21
1076.911378
  0
LINE
  8
CSLAYER1
  6
CONTINUOUS
 62
     3
 10
954.633408
 20
1076.911378
 11
956.637990
 21
1076.953810
  0
LINE
  8
CSLAYER1
  6
CONTINUOUS
 62
     3
 10
974.637990
 20
1072.729962
 11
974.637990
 21
1159.101680
  0
LINE
  8
CSLAYER1
  6
CONTINUOUS
 62
     3
 10
974.637990
 20
1159.101680
 11
974.569495
 21
1159.862251
  0
LINE
  8
CSLAYER1
  6
CONTINUOUS
 62
     3
 10
974.569495
 20
1159.862251
 11
974.364530
 21
1160.617033
  0
LINE
  8
CSLAYER1
  6
CONTINUOUS
 62
     3
 10
974.364530
 20
1160.617033
 11
974.024655
 21
1161.360283
  0
LINE
  8
CSLAYER1
  6
CONTINUOUS
 62
     3
 10
974.024655
 20
1161.360283
 11
973.552457
 21
1162.086344
  0
LINE
  8
CSLAYER1
  6
CONTINUOUS
 62
     3
 10
973.552457
 20
1162.086344
 11
972.951530
 21
1162.789689
  0
LINE
  8
CSLAYER1
  6
CONTINUOUS
 62
     3
 10
972.951530
 20
1162.789689
 11
972.226447
 21
1163.464966
  0
LINE
  8
CSLAYER1
  6
CONTINUOUS
 62
     3
 10
972.226447
 20
1163.464966
 11
971.382727
 21
1164.107037
  0
LINE
  8
CSLAYER1
  6
CONTINUOUS
 62
     3
 10
971.382727
 20
1164.107037
 11
970.426790
 21
1164.711013
  0
LINE
  8
CSLAYER1
  6
CONTINUOUS
 62
     3
 10
970.426790
 20
1164.711013
 11
969.365912
 21
1165.272299
  0
LINE
  8
CSLAYER1
  6
CONTINUOUS
 62
     3
 10
969.365912
 20
1165.272299
 11
968.208167
 21
1165.786623
  0
LINE
  8
CSLAYER1
  6
CONTINUOUS
 62
     3
 10
968.208167
 20
1165.786623
 11
966.962366
 21
1166.250070
  0
LINE
  8
CSLAYER1
  6
CONTINUOUS
 62
     3
 10
966.962366
 20
1166.250070
 11
965.637990
 21
1166.659114
  0
LINE
  8
CSLAYER1
  6
CONTINUOUS
 62
     3
 10
965.637990
 20
1166.659114
 11
964.245119
 21
1167.010641
  0
LINE
  8
CSLAYER1
  6
CONTINUOUS
 62
     3
 10
964.245119
 20
1167.010641
 11
962.794353
 21
1167.301976
  0
LINE
  8
CSLAYER1
  6
CONTINUOUS
 62
     3
 10
962.794353
 20
1167.301976
 11
961.296733
 21
1167.530902
  0
LINE
  8
CSLAYER1
  6
CONTINUOUS
 62
     3
 10
961.296733
 20
1167.530902
 11
959.763657
 21
1167.695677
  0
LINE
  8
CSLAYER1
  6
CONTINUOUS
 62
     3
 10
959.763657
 20
1167.695677
 11
958.206793
 21
1167.795046
  0
LINE
  8
CSLAYER1
  6
CONTINUOUS
 62
     3
 10
958.206793
 20
1167.795046
 11
956.637990
 21
1167.828253
  0
LINE
  8
CSLAYER1
  6
CONTINUOUS
 62
     3
 10
956.637990
 20
1167.828253
 11
955.069187
 21
1167.795046
  0
LINE
  8
CSLAYER1
  6
CONTINUOUS
 62
     3
 10
955.069187
 20
1167.795046
 11
953.512323
 21
1167.695677
  0
LINE
  8
CSLAYER1
  6
CONTINUOUS
 62
     3
 10
953.512323
 20
1167.695677
 11
951.979247
 21
1167.530902
  0
LINE
  8
CSLAYER1
  6
CONTINUOUS
 62
     3
 10
951.979247
 20
1167.530902
 11
950.481627
 21
1167.301976
  0
LINE
  8
CSLAYER1
  6
CONTINUOUS
 62
     3
 10
950.481627
 20
1167.301976
 11
949.030861
 21
1167.010641
  0
LINE
  8
CSLAYER1
  6
CONTINUOUS
 62
     3
 10
949.030861
 20
1167.010641
 11
947.637990
 21
1166.659114
  0
LINE
  8
CSLAYER1
  6
CONTINUOUS
 62
     3
 10
947.637990
 20
1166.659114
 11
946.313614
 21
1166.250070
  0
LINE
  8
CSLAYER1
  6
CONTINUOUS
 62
     3
 10
946.313614
 20
1166.250070
 11
945.067813
 21
1165.786623
  0
LINE
  8
CSLAYER1
  6
CONTINUOUS
 62
     3
 10
945.067813
 20
1165.786623
 11
943.910068
 21
1165.272299
  0
LINE
  8
CSLAYER1
  6
CONTINUOUS
 62
     3
 10
943.910068
 20
1165.272299
 11
942.849190
 21
1164.711013
  0
LINE
  8
CSLAYER1
  6
CONTINUOUS
 62
     3
 10
942.849190
 20
1164.711013
 11
941.893253
 21
1164.107037
  0
LINE
  8
CSLAYER1
  6
CONTINUOUS
 62
     3
 10
941.893253
 20
1164.107037
 11
941.049533
 21
1163.464966
  0
LINE
  8
CSLAYER1
  6
CONTINUOUS
 62
     3
 10
941.049533
 20
1163.464966
 11
940.324450
 21
1162.789689
  0
LINE
  8
CSLAYER1
  6
CONTINUOUS
 62
     3
 10
940.324450
 20
1162.789689
 11
939.723523
 21
1162.086344
  0
LINE
  8
CSLAYER1
  6
CONTINUOUS
 62
     3
 10
939.723523
 20
1162.086344
 11
939.251325
 21
1161.360283
  0
LINE
  8
CSLAYER1
  6
CONTINUOUS
 62
     3
 10
939.251325
 20
1161.360283
 11
938.911451
 21
1160.617033
  0
LINE
  8
CSLAYER1
  6
CONTINUOUS
 62
     3
 10
938.911451
 20
1160.617033
 11
938.706486
 21
1159.862251
  0
LINE
  8
CSLAYER1
  6
CONTINUOUS
 62
     3
 10
938.706486
 20
1159.862251
 11
938.637990
 21
1159.101680
  0
LINE
  8
CSLAYER1
  6
CONTINUOUS
 62
     3
 10
984.137990
 20
1048.323820
 11
984.137990
 21
1017.734924
  0
LINE
  8
CSLAYER1
  6
CONTINUOUS
 62
     3
 10
984.137990
 20
1048.323820
 11
984.033344
 21
1049.485803
  0
LINE
  8
CSLAYER1
  6
CONTINUOUS
 62
     3
 10
984.033344
 20
1049.485803
 11
983.720203
 21
1050.638943
  0
LINE
  8
CSLAYER1
  6
CONTINUOUS
 62
     3
 10
983.720203
 20
1050.638943
 11
983.200950
 21
1051.774464
  0
LINE
  8
CSLAYER1
  6
CONTINUOUS
 62
     3
 10
983.200950
 20
1051.774464
 11
982.479537
 21
1052.883723
  0
LINE
  8
CSLAYER1
  6
CONTINUOUS
 62
     3
 10
982.479537
 20
1052.883723
 11
981.561454
 21
1053.958278
  0
LINE
  8
CSLAYER1
  6
CONTINUOUS
 62
     3
 10
981.561454
 20
1053.958278
 11
980.453689
 21
1054.989952
  0
LINE
  8
CSLAYER1
  6
CONTINUOUS
 62
     3
 10
980.453689
 20
1054.989952
 11
979.164671
 21
1055.970892
  0
LINE
  8
CSLAYER1
  6
CONTINUOUS
 62
     3
 10
979.164671
 20
1055.970892
 11
977.704212
 21
1056.893634
  0
LINE
  8
CSLAYER1
  6
CONTINUOUS
 62
     3
 10
977.704212
 20
1056.893634
 11
976.083427
 21
1057.751154
  0
LINE
  8
CSLAYER1
  6
CONTINUOUS
 62
     3
 10
976.083427
 20
1057.751154
 11
974.314649
 21
1058.536927
  0
LINE
  8
CSLAYER1
  6
CONTINUOUS
 62
     3
 10
974.314649
 20
1058.536927
 11
972.411342
 21
1059.244971
  0
LINE
  8
CSLAYER1
  6
CONTINUOUS
 62
     3
 10
972.411342
 20
1059.244971
 11
970.387990
 21
1059.869899
  0
LINE
  8
CSLAYER1
  6
CONTINUOUS
 62
     3
 10
970.387990
 20
1059.869899
 11
968.259992
 21
1060.406955
  0
LINE
  8
CSLAYER1
  6
CONTINUOUS
 62
     3
 10
968.259992
 20
1060.406955
 11
966.043544
 21
1060.852050
  0
LINE
  8
CSLAYER1
  6
CONTINUOUS
 62
     3
 10
966.043544
 20
1060.852050
 11
963.755514
 21
1061.201798
  0
LINE
  8
CSLAYER1
  6
CONTINUOUS
 62
     3
 10
963.755514
 20
1061.201798
 11
961.413315
 21
1061.453537
  0
LINE
  8
CSLAYER1
  6
CONTINUOUS
 62
     3
 10
961.413315
 20
1061.453537
 11
959.034773
 21
1061.605351
  0
LINE
  8
CSLAYER1
  6
CONTINUOUS
 62
     3
 10
959.034773
 20
1061.605351
 11
956.637990
 21
1061.656084
  0
LINE
  8
CSLAYER1
  6
CONTINUOUS
 62
     3
 10
956.637990
 20
1061.656084
 11
954.241207
 21
1061.605351
  0
LINE
  8
CSLAYER1
  6
CONTINUOUS
 62
     3
 10
954.241207
 20
1061.605351
 11
951.862665
 21
1061.453537
  0
LINE
  8
CSLAYER1
  6
CONTINUOUS
 62
     3
 10
951.862665
 20
1061.453537
 11
949.520466
 21
1061.201798
  0
LINE
  8
CSLAYER1
  6
CONTINUOUS
 62
     3
 10
949.520466
 20
1061.201798
 11
947.232436
 21
1060.852050
  0
LINE
  8
CSLAYER1
  6
CONTINUOUS
 62
     3
 10
947.232436
 20
1060.852050
 11
945.015988
 21
1060.406955
  0
LINE
  8
CSLAYER1
  6
CONTINUOUS
 62
     3
 10
945.015988
 20
1060.406955
 11
942.887990
 21
1059.869899
  0
LINE
  8
CSLAYER1
  6
CONTINUOUS
 62
     3
 10
942.887990
 20
1059.869899
 11
940.864638
 21
1059.244971
  0
LINE
  8
CSLAYER1
  6
CONTINUOUS
 62
     3
 10
940.864638
 20
1059.244971
 11
938.961331
 21
1058.536927
  0
LINE
  8
CSLAYER1
  6
CONTINUOUS
 62
     3
 10
938.961331
 20
1058.536927
 11
937.192554
 21
1057.751154
  0
LINE
  8
CSLAYER1
  6
CONTINUOUS
 62
     3
 10
937.192554
 20
1057.751154
 11
935.571768
 21
1056.893634
  0
LINE
  8
CSLAYER1
  6
CONTINUOUS
 62
     3
 10
935.571768
 20
1056.893634
 11
934.111309
 21
1055.970892
  0
LINE
  8
CSLAYER1
  6
CONTINUOUS
 62
     3
 10
934.111309
 20
1055.970892
 11
932.822291
 21
1054.989952
  0
LINE
  8
CSLAYER1
  6
CONTINUOUS
 62
     3
 10
932.822291
 20
1054.989952
 11
931.714526
 21
1053.958278
  0
LINE
  8
CSLAYER1
  6
CONTINUOUS
 62
     3
 10
931.714526
 20
1053.958278
 11
930.796443
 21
1052.883723
  0
LINE
  8
CSLAYER1
  6
CONTINUOUS
 62
     3
 10
930.796443
 20
1052.883723
 11
930.075030
 21
1051.774464
  0
LINE
  8
CSLAYER1
  6
CONTINUOUS
 62
     3
 10
930.075030
 20
1051.774464
 11
929.555777
 21
1050.638943
  0
LINE
  8
CSLAYER1
  6
CONTINUOUS
 62
     3
 10
929.555777
 20
1050.638943
 11
929.242636
 21
1049.485803
  0
LINE
  8
CSLAYER1
  6
CONTINUOUS
 62
     3
 10
929.242636
 20
1049.485803
 11
929.137990
 21
1048.323820
  0
LINE
  8
CSLAYER1
  6
CONTINUOUS
 62
     3
 10
929.137990
 20
1048.323820
 11
929.137990
 21
1017.734924
  0
LINE
  8
CSLAYER1
  6
CONTINUOUS
 62
     3
 10
980.937990
 20
947.817447
 11
980.937990
 21
1017.734924
  0
LINE
  8
CSLAYER1
  6
CONTINUOUS
 62
     3
 10
984.137990
 20
1017.734924
 11
984.033344
 21
1018.896907
  0
LINE
  8
CSLAYER1
  6
CONTINUOUS
 62
     3
 10
984.033344
 20
1018.896907
 11
983.720203
 21
1020.050047
  0
LINE
  8
CSLAYER1
  6
CONTINUOUS
 62
     3
 10
983.720203
 20
1020.050047
 11
983.200950
 21
1021.185568
  0
LINE
  8
CSLAYER1
  6
CONTINUOUS
 62
     3
 10
983.200950
 20
1021.185568
 11
982.479537
 21
1022.294827
  0
LINE
  8
CSLAYER1
  6
CONTINUOUS
 62
     3
 10
982.479537
 20
1022.294827
 11
981.561454
 21
1023.369382
  0
LINE
  8
CSLAYER1
  6
CONTINUOUS
 62
     3
 10
981.561454
 20
1023.369382
 11
980.453689
 21
1024.401056
  0
LINE
  8
CSLAYER1
  6
CONTINUOUS
 62
     3
 10
980.453689
 20
1024.401056
 11
979.164671
 21
1025.381996
  0
LINE
  8
CSLAYER1
  6
CONTINUOUS
 62
     3
 10
979.164671
 20
1025.381996
 11
977.704212
 21
1026.304738
  0
LINE
  8
CSLAYER1
  6
CONTINUOUS
 62
     3
 10
977.704212
 20
1026.304738
 11
976.083427
 21
1027.162258
  0
LINE
  8
CSLAYER1
  6
CONTINUOUS
 62
     3
 10
976.083427
 20
1027.162258
 11
974.314649
 21
1027.948031
  0
LINE
  8
CSLAYER1
  6
CONTINUOUS
 62
     3
 10
974.314649
 20
1027.948031
 11
972.411342
 21
1028.656075
  0
LINE
  8
CSLAYER1
  6
CONTINUOUS
 62
     3
 10
972.411342
 20
1028.656075
 11
970.387990
 21
1029.281003
  0
LINE
  8
CSLAYER1
  6
CONTINUOUS
 62
     3
 10
970.387990
 20
1029.281003
 11
968.259992
 21
1029.818059
  0
LINE
  8
CSLAYER1
  6
CONTINUOUS
 62
     3
 10
968.259992
 20
1029.818059
 11
966.043544
 21
1030.263154
  0
LINE
  8
CSLAYER1
  6
CONTINUOUS
 62
     3
 10
966.043544
 20
1030.263154
 11
963.755514
 21
1030.612902
  0
LINE
  8
CSLAYER1
  6
CONTINUOUS
 62
     3
 10
963.755514
 20
1030.612902
 11
961.413315
 21
1030.864641
  0
LINE
  8
CSLAYER1
  6
CONTINUOUS
 62
     3
 10
961.413315
 20
1030.864641
 11
959.034773
 21
1031.016455
  0
LINE
  8
CSLAYER1
  6
CONTINUOUS
 62
     3
 10
959.034773
 20
1031.016455
 11
956.637990
 21
1031.067188
  0
LINE
  8
CSLAYER1
  6
CONTINUOUS
 62
     3
 10
956.637990
 20
1031.067188
 11
954.241207
 21
1031.016455
  0
LINE
  8
CSLAYER1
  6
CONTINUOUS
 62
     3
 10
954.241207
 20
1031.016455
 11
951.862665
 21
1030.864641
  0
LINE
  8
CSLAYER1
  6
CONTINUOUS
 62
     3
 10
951.862665
 20
1030.864641
 11
949.520466
 21
1030.612902
  0
LINE
  8
CSLAYER1
  6
CONTINUOUS
 62
     3
 10
949.520466
 20
1030.612902
 11
947.232436
 21
1030.263154
  0
LINE
  8
CSLAYER1
  6
CONTINUOUS
 62
     3
 10
947.232436
 20
1030.263154
 11
945.015988
 21
1029.818059
  0
LINE
  8
CSLAYER1
  6
CONTINUOUS
 62
     3
 10
945.015988
 20
1029.818059
 11
942.887990
 21
1029.281003
  0
LINE
  8
CSLAYER1
  6
CONTINUOUS
 62
     3
 10
942.887990
 20
1029.281003
 11
940.864638
 21
1028.656075
  0
LINE
  8
CSLAYER1
  6
CONTINUOUS
 62
     3
 10
940.864638
 20
1028.656075
 11
938.961331
 21
1027.948031
  0
LINE
  8
CSLAYER1
  6
CONTINUOUS
 62
     3
 10
938.961331
 20
1027.948031
 11
937.192554
 21
1027.162258
  0
LINE
  8
CSLAYER1
  6
CONTINUOUS
 62
     3
 10
937.192554
 20
1027.162258
 11
935.571768
 21
1026.304738
  0
LINE
  8
CSLAYER1
  6
CONTINUOUS
 62
     3
 10
935.571768
 20
1026.304738
 11
934.111309
 21
1025.381996
  0
LINE
  8
CSLAYER1
  6
CONTINUOUS
 62
     3
 10
934.111309
 20
1025.381996
 11
932.822291
 21
1024.401056
  0
LINE
  8
CSLAYER1
  6
CONTINUOUS
 62
     3
 10
932.822291
 20
1024.401056
 11
931.714526
 21
1023.369382
  0
LINE
  8
CSLAYER1
  6
CONTINUOUS
 62
     3
 10
931.714526
 20
1023.369382
 11
930.796443
 21
1022.294827
  0
LINE
  8
CSLAYER1
  6
CONTINUOUS
 62
     3
 10
930.796443
 20
1022.294827
 11
930.075030
 21
1021.185568
  0
LINE
  8
CSLAYER1
  6
CONTINUOUS
 62
     3
 10
930.075030
 20
1021.185568
 11
929.555777
 21
1020.050047
  0
LINE
  8
CSLAYER1
  6
CONTINUOUS
 62
     3
 10
929.555777
 20
1020.050047
 11
929.242636
 21
1018.896907
  0
LINE
  8
CSLAYER1
  6
CONTINUOUS
 62
     3
 10
929.242636
 20
1018.896907
 11
929.137990
 21
1017.734924
  0
LINE
  8
CSLAYER1
  6
CONTINUOUS
 62
     3
 10
929.137990
 20
1017.734924
 11
929.242636
 21
1016.572940
  0
LINE
  8
CSLAYER1
  6
CONTINUOUS
 62
     3
 10
929.242636
 20
1016.572940
 11
929.555777
 21
1015.419800
  0
LINE
  8
CSLAYER1
  6
CONTINUOUS
 62
     3
 10
929.555777
 20
1015.419800
 11
930.075030
 21
1014.284280
  0
LINE
  8
CSLAYER1
  6
CONTINUOUS
 62
     3
 10
930.075030
 20
1014.284280
 11
930.796443
 21
1013.175021
  0
LINE
  8
CSLAYER1
  6
CONTINUOUS
 62
     3
 10
930.796443
 20
1013.175021
 11
931.714526
 21
1012.100465
  0
LINE
  8
CSLAYER1
  6
CONTINUOUS
 62
     3
 10
931.714526
 20
1012.100465
 11
932.337990
 21
1011.519826
  0
LINE
  8
CSLAYER1
  6
CONTINUOUS
 62
     3
 10
980.937990
 20
1011.519826
 11
981.561454
 21
1012.100465
  0
LINE
  8
CSLAYER1
  6
CONTINUOUS
 62
     3
 10
981.561454
 20
1012.100465
 11
982.479537
 21
1013.175021
  0
LINE
  8
CSLAYER1
  6
CONTINUOUS
 62
     3
 10
982.479537
 20
1013.175021
 11
983.200950
 21
1014.284280
  0
LINE
  8
CSLAYER1
  6
CONTINUOUS
 62
     3
 10
983.200950
 20
1014.284280
 11
983.720203
 21
1015.419800
  0
LINE
  8
CSLAYER1
  6
CONTINUOUS
 62
     3
 10
983.720203
 20
1015.419800
 11
984.033344
 21
1016.572940
  0
LINE
  8
CSLAYER1
  6
CONTINUOUS
 62
     3
 10
984.033344
 20
1016.572940
 11
984.137990
 21
1017.734924
  0
LINE
  8
CSLAYER1
  6
CONTINUOUS
 62
     3
 10
980.937990
 20
1017.734924
 11
980.845521
 21
1018.761694
  0
LINE
  8
CSLAYER1
  6
CONTINUOUS
 62
     3
 10
980.845521
 20
1018.761694
 11
980.568818
 21
1019.780651
  0
LINE
  8
CSLAYER1
  6
CONTINUOUS
 62
     3
 10
980.568818
 20
1019.780651
 11
980.109988
 21
1020.784038
  0
LINE
  8
CSLAYER1
  6
CONTINUOUS
 62
     3
 10
980.109988
 20
1020.784038
 11
979.472521
 21
1021.764220
  0
LINE
  8
CSLAYER1
  6
CONTINUOUS
 62
     3
 10
979.472521
 20
1021.764220
 11
978.661269
 21
1022.713736
  0
LINE
  8
CSLAYER1
  6
CONTINUOUS
 62
     3
 10
978.661269
 20
1022.713736
 11
977.682407
 21
1023.625360
  0
LINE
  8
CSLAYER1
  6
CONTINUOUS
 62
     3
 10
977.682407
 20
1023.625360
 11
976.543385
 21
1024.492155
  0
LINE
  8
CSLAYER1
  6
CONTINUOUS
 62
     3
 10
976.543385
 20
1024.492155
 11
975.252870
 21
1025.307523
  0
LINE
  8
CSLAYER1
  6
CONTINUOUS
 62
     3
 10
975.252870
 20
1025.307523
 11
973.820685
 21
1026.065259
  0
LINE
  8
CSLAYER1
  6
CONTINUOUS
 62
     3
 10
973.820685
 20
1026.065259
 11
972.257729
 21
1026.759596
  0
LINE
  8
CSLAYER1
  6
CONTINUOUS
 62
     3
 10
972.257729
 20
1026.759596
 11
970.575897
 21
1027.385250
  0
LINE
  8
CSLAYER1
  6
CONTINUOUS
 62
     3
 10
970.575897
 20
1027.385250
 11
968.787990
 21
1027.937460
  0
LINE
  8
CSLAYER1
  6
CONTINUOUS
 62
     3
 10
968.787990
 20
1027.937460
 11
966.907614
 21
1028.412021
  0
LINE
  8
CSLAYER1
  6
CONTINUOUS
 62
     3
 10
966.907614
 20
1028.412021
 11
964.949080
 21
1028.805324
  0
LINE
  8
CSLAYER1
  6
CONTINUOUS
 62
     3
 10
964.949080
 20
1028.805324
 11
962.927293
 21
1029.114374
  0
LINE
  8
CSLAYER1
  6
CONTINUOUS
 62
     3
 10
962.927293
 20
1029.114374
 11
960.857641
 21
1029.336819
  0
LINE
  8
CSLAYER1
  6
CONTINUOUS
 62
     3
 10
960.857641
 20
1029.336819
 11
958.755875
 21
1029.470968
  0
LINE
  8
CSLAYER1
  6
CONTINUOUS
 62
     3
 10
958.755875
 20
1029.470968
 11
956.637990
 21
1029.515797
  0
LINE
  8
CSLAYER1
  6
CONTINUOUS
 62
     3
 10
956.637990
 20
1029.515797
 11
954.520106
 21
1029.470968
  0
LINE
  8
CSLAYER1
  6
CONTINUOUS
 62
     3
 10
954.520106
 20
1029.470968
 11
952.418339
 21
1029.336819
  0
LINE
  8
CSLAYER1
  6
CONTINUOUS
 62
     3
 10
952.418339
 20
1029.336819
 11
950.348687
 21
1029.114374
  0
LINE
  8
CSLAYER1
  6
CONTINUOUS
 62
     3
 10
950.348687
 20
1029.114374
 11
948.326901
 21
1028.805324
  0
LINE
  8
CSLAYER1
  6
CONTINUOUS
 62
     3
 10
948.326901
 20
1028.805324
 11
946.368366
 21
1028.412021
  0
LINE
  8
CSLAYER1
  6
CONTINUOUS
 62
     3
 10
946.368366
 20
1028.412021
 11
944.487990
 21
1027.937460
  0
LINE
  8
CSLAYER1
  6
CONTINUOUS
 62
     3
 10
944.487990
 20
1027.937460
 11
942.700083
 21
1027.385250
  0
LINE
  8
CSLAYER1
  6
CONTINUOUS
 62
     3
 10
942.700083
 20
1027.385250
 11
941.018251
 21
1026.759596
  0
LINE
  8
CSLAYER1
  6
CONTINUOUS
 62
     3
 10
941.018251
 20
1026.759596
 11
939.455295
 21
1026.065259
  0
LINE
  8
CSLAYER1
  6
CONTINUOUS
 62
     3
 10
939.455295
 20
1026.065259
 11
938.023110
 21
1025.307523
  0
LINE
  8
CSLAYER1
  6
CONTINUOUS
 62
     3
 10
938.023110
 20
1025.307523
 11
936.732595
 21
1024.492155
  0
LINE
  8
CSLAYER1
  6
CONTINUOUS
 62
     3
 10
936.732595
 20
1024.492155
 11
935.593573
 21
1023.625360
  0
LINE
  8
CSLAYER1
  6
CONTINUOUS
 62
     3
 10
935.593573
 20
1023.625360
 11
934.614711
 21
1022.713736
  0
LINE
  8
CSLAYER1
  6
CONTINUOUS
 62
     3
 10
934.614711
 20
1022.713736
 11
933.803459
 21
1021.764220
  0
LINE
  8
CSLAYER1
  6
CONTINUOUS
 62
     3
 10
933.803459
 20
1021.764220
 11
933.165992
 21
1020.784038
  0
LINE
  8
CSLAYER1
  6
CONTINUOUS
 62
     3
 10
933.165992
 20
1020.784038
 11
932.707162
 21
1019.780651
  0
LINE
  8
CSLAYER1
  6
CONTINUOUS
 62
     3
 10
932.707162
 20
1019.780651
 11
932.430459
 21
1018.761694
  0
LINE
  8
CSLAYER1
  6
CONTINUOUS
 62
     3
 10
932.430459
 20
1018.761694
 11
932.337990
 21
1017.734924
  0
LINE
  8
CSLAYER1
  6
CONTINUOUS
 62
     3
 10
932.337990
 20
947.817447
 11
932.337990
 21
1017.734924
  0
LINE
  8
CSLAYER1
  6
CONTINUOUS
 62
     3
 10
938.637990
 20
1072.729962
 11
938.637990
 21
1159.101680
  0
LINE
  8
CSLAYER1
  6
CONTINUOUS
 62
     3
 10
979.137990
 20
917.228551
 11
979.137990
 21
947.817447
  0
LINE
  8
CSLAYER1
  6
CONTINUOUS
 62
     3
 10
979.137990
 20
947.817447
 11
979.052371
 21
948.768161
  0
LINE
  8
CSLAYER1
  6
CONTINUOUS
 62
     3
 10
979.052371
 20
948.768161
 11
978.796165
 21
949.711639
  0
LINE
  8
CSLAYER1
  6
CONTINUOUS
 62
     3
 10
978.796165
 20
949.711639
 11
978.371321
 21
950.640701
  0
LINE
  8
CSLAYER1
  6
CONTINUOUS
 62
     3
 10
978.371321
 20
950.640701
 11
977.781074
 21
951.548277
  0
LINE
  8
CSLAYER1
  6
CONTINUOUS
 62
     3
 10
977.781074
 20
951.548277
 11
977.029915
 21
952.427459
  0
LINE
  8
CSLAYER1
  6
CONTINUOUS
 62
     3
 10
977.029915
 20
952.427459
 11
976.123562
 21
953.271555
  0
LINE
  8
CSLAYER1
  6
CONTINUOUS
 62
     3
 10
976.123562
 20
953.271555
 11
975.068911
 21
954.074143
  0
LINE
  8
CSLAYER1
  6
CONTINUOUS
 62
     3
 10
975.068911
 20
954.074143
 11
973.873990
 21
954.829114
  0
LINE
  8
CSLAYER1
  6
CONTINUOUS
 62
     3
 10
973.873990
 20
954.829114
 11
972.547893
 21
955.530721
  0
LINE
  8
CSLAYER1
  6
CONTINUOUS
 62
     3
 10
972.547893
 20
955.530721
 11
971.100711
 21
956.173626
  0
LINE
  8
CSLAYER1
  6
CONTINUOUS
 62
     3
 10
971.100711
 20
956.173626
 11
969.543460
 21
956.752935
  0
LINE
  8
CSLAYER1
  6
CONTINUOUS
 62
     3
 10
969.543460
 20
956.752935
 11
967.887990
 21
957.264240
  0
LINE
  8
CSLAYER1
  6
CONTINUOUS
 62
     3
 10
967.887990
 20
957.264240
 11
966.146901
 21
957.703649
  0
LINE
  8
CSLAYER1
  6
CONTINUOUS
 62
     3
 10
966.146901
 20
957.703649
 11
964.333443
 21
958.067818
  0
LINE
  8
CSLAYER1
  6
CONTINUOUS
 62
     3
 10
964.333443
 20
958.067818
 11
962.461419
 21
958.353975
  0
LINE
  8
CSLAYER1
  6
CONTINUOUS
 62
     3
 10
962.461419
 20
958.353975
 11
960.545074
 21
958.559943
  0
LINE
  8
CSLAYER1
  6
CONTINUOUS
 62
     3
 10
960.545074
 20
958.559943
 11
958.598994
 21
958.684155
  0
LINE
  8
CSLAYER1
  6
CONTINUOUS
 62
     3
 10
958.598994
 20
958.684155
 11
956.637990
 21
958.725664
  0
LINE
  8
CSLAYER1
  6
CONTINUOUS
 62
     3
 10
956.637990
 20
958.725664
 11
954.676986
 21
958.684155
  0
LINE
  8
CSLAYER1
  6
CONTINUOUS
 62
     3
 10
954.676986
 20
958.684155
 11
952.730906
 21
958.559943
  0
LINE
  8
CSLAYER1
  6
CONTINUOUS
 62
     3
 10
952.730906
 20
958.559943
 11
950.814562
 21
958.353975
  0
LINE
  8
CSLAYER1
  6
CONTINUOUS
 62
     3
 10
950.814562
 20
958.353975
 11
948.942537
 21
958.067818
  0
LINE
  8
CSLAYER1
  6
CONTINUOUS
 62
     3
 10
948.942537
 20
958.067818
 11
947.129079
 21
957.703649
  0
LINE
  8
CSLAYER1
  6
CONTINUOUS
 62
     3
 10
947.129079
 20
957.703649
 11
945.387990
 21
957.264240
  0
LINE
  8
CSLAYER1
  6
CONTINUOUS
 62
     3
 10
945.387990
 20
957.264240
 11
943.732520
 21
956.752935
  0
LINE
  8
CSLAYER1
  6
CONTINUOUS
 62
     3
 10
943.732520
 20
956.752935
 11
942.175269
 21
956.173626
  0
LINE
  8
CSLAYER1
  6
CONTINUOUS
 62
     3
 10
942.175269
 20
956.173626
 11
940.728087
 21
955.530721
  0
LINE
  8
CSLAYER1
  6
CONTINUOUS
 62
     3
 10
940.728087
 20
955.530721
 11
939.401990
 21
954.829114
  0
LINE
  8
CSLAYER1
  6
CONTINUOUS
 62
     3
 10
939.401990
 20
954.829114
 11
938.207069
 21
954.074143
  0
LINE
  8
CSLAYER1
  6
CONTINUOUS
 62
     3
 10
938.207069
 20
954.074143
 11
937.152418
 21
953.271555
  0
LINE
  8
CSLAYER1
  6
CONTINUOUS
 62
     3
 10
937.152418
 20
953.271555
 11
936.246065
 21
952.427459
  0
LINE
  8
CSLAYER1
  6
CONTINUOUS
 62
     3
 10
936.246065
 20
952.427459
 11
935.494906
 21
951.548277
  0
LINE
  8
CSLAYER1
  6
CONTINUOUS
 62
     3
 10
935.494906
 20
951.548277
 11
934.904659
 21
950.640701
  0
LINE
  8
CSLAYER1
  6
CONTINUOUS
 62
     3
 10
934.904659
 20
950.640701
 11
934.479816
 21
949.711639
  0
LINE
  8
CSLAYER1
  6
CONTINUOUS
 62
     3
 10
934.479816
 20
949.711639
 11
934.223609
 21
948.768161
  0
LINE
  8
CSLAYER1
  6
CONTINUOUS
 62
     3
 10
934.223609
 20
948.768161
 11
934.137990
 21
947.817447
  0
LINE
  8
CSLAYER1
  6
CONTINUOUS
 62
     3
 10
980.937990
 20
947.817447
 11
980.845521
 21
948.844218
  0
LINE
  8
CSLAYER1
  6
CONTINUOUS
 62
     3
 10
980.845521
 20
948.844218
 11
980.568818
 21
949.863174
  0
LINE
  8
CSLAYER1
  6
CONTINUOUS
 62
     3
 10
980.568818
 20
949.863174
 11
980.109988
 21
950.866562
  0
LINE
  8
CSLAYER1
  6
CONTINUOUS
 62
     3
 10
980.109988
 20
950.866562
 11
979.472521
 21
951.846743
  0
LINE
  8
CSLAYER1
  6
CONTINUOUS
 62
     3
 10
979.472521
 20
951.846743
 11
978.661269
 21
952.796260
  0
LINE
  8
CSLAYER1
  6
CONTINUOUS
 62
     3
 10
978.661269
 20
952.796260
 11
977.682407
 21
953.707884
  0
LINE
  8
CSLAYER1
  6
CONTINUOUS
 62
     3
 10
977.682407
 20
953.707884
 11
976.543385
 21
954.574679
  0
LINE
  8
CSLAYER1
  6
CONTINUOUS
 62
     3
 10
976.543385
 20
954.574679
 11
975.252870
 21
955.390047
  0
LINE
  8
CSLAYER1
  6
CONTINUOUS
 62
     3
 10
975.252870
 20
955.390047
 11
973.820685
 21
956.147783
  0
LINE
  8
CSLAYER1
  6
CONTINUOUS
 62
     3
 10
973.820685
 20
956.147783
 11
972.257729
 21
956.842120
  0
LINE
  8
CSLAYER1
  6
CONTINUOUS
 62
     3
 10
972.257729
 20
956.842120
 11
970.575897
 21
957.467774
  0
LINE
  8
CSLAYER1
  6
CONTINUOUS
 62
     3
 10
970.575897
 20
957.467774
 11
968.787990
 21
958.019983
  0
LINE
  8
CSLAYER1
  6
CONTINUOUS
 62
     3
 10
968.787990
 20
958.019983
 11
966.907614
 21
958.494545
  0
LINE
  8
CSLAYER1
  6
CONTINUOUS
 62
     3
 10
966.907614
 20
958.494545
 11
964.949080
 21
958.887847
  0
LINE
  8
CSLAYER1
  6
CONTINUOUS
 62
     3
 10
964.949080
 20
958.887847
 11
962.927293
 21
959.196897
  0
LINE
  8
CSLAYER1
  6
CONTINUOUS
 62
     3
 10
962.927293
 20
959.196897
 11
960.857641
 21
959.419343
  0
LINE
  8
CSLAYER1
  6
CONTINUOUS
 62
     3
 10
960.857641
 20
959.419343
 11
958.755875
 21
959.553491
  0
LINE
  8
CSLAYER1
  6
CONTINUOUS
 62
     3
 10
958.755875
 20
959.553491
 11
956.637990
 21
959.598321
  0
LINE
  8
CSLAYER1
  6
CONTINUOUS
 62
     3
 10
956.637990
 20
959.598321
 11
954.520106
 21
959.553491
  0
LINE
  8
CSLAYER1
  6
CONTINUOUS
 62
     3
 10
954.520106
 20
959.553491
 11
952.418339
 21
959.419343
  0
LINE
  8
CSLAYER1
  6
CONTINUOUS
 62
     3
 10
952.418339
 20
959.419343
 11
950.348687
 21
959.196897
  0
LINE
  8
CSLAYER1
  6
CONTINUOUS
 62
     3
 10
950.348687
 20
959.196897
 11
948.326901
 21
958.887847
  0
LINE
  8
CSLAYER1
  6
CONTINUOUS
 62
     3
 10
948.326901
 20
958.887847
 11
946.368366
 21
958.494545
  0
LINE
  8
CSLAYER1
  6
CONTINUOUS
 62
     3
 10
946.368366
 20
958.494545
 11
944.487990
 21
958.019983
  0
LINE
  8
CSLAYER1
  6
CONTINUOUS
 62
     3
 10
944.487990
 20
958.019983
 11
942.700083
 21
957.467774
  0
LINE
  8
CSLAYER1
  6
CONTINUOUS
 62
     3
 10
942.700083
 20
957.467774
 11
941.018251
 21
956.842120
  0
LINE
  8
CSLAYER1
  6
CONTINUOUS
 62
     3
 10
941.018251
 20
956.842120
 11
939.455295
 21
956.147783
  0
LINE
  8
CSLAYER1
  6
CONTINUOUS
 62
     3
 10
939.455295
 20
956.147783
 11
938.023110
 21
955.390047
  0
LINE
  8
CSLAYER1
  6
CONTINUOUS
 62
     3
 10
938.023110
 20
955.390047
 11
936.732595
 21
954.574679
  0
LINE
  8
CSLAYER1
  6
CONTINUOUS
 62
     3
 10
936.732595
 20
954.574679
 11
935.593573
 21
953.707884
  0
LINE
  8
CSLAYER1
  6
CONTINUOUS
 62
     3
 10
935.593573
 20
953.707884
 11
934.614711
 21
952.796260
  0
LINE
  8
CSLAYER1
  6
CONTINUOUS
 62
     3
 10
934.614711
 20
952.796260
 11
933.803459
 21
951.846743
  0
LINE
  8
CSLAYER1
  6
CONTINUOUS
 62
     3
 10
933.803459
 20
951.846743
 11
933.165992
 21
950.866562
  0
LINE
  8
CSLAYER1
  6
CONTINUOUS
 62
     3
 10
933.165992
 20
950.866562
 11
932.707162
 21
949.863174
  0
LINE
  8
CSLAYER1
  6
CONTINUOUS
 62
     3
 10
932.707162
 20
949.863174
 11
932.430459
 21
948.844218
  0
LINE
  8
CSLAYER1
  6
CONTINUOUS
 62
     3
 10
932.430459
 20
948.844218
 11
932.337990
 21
947.817447
  0
LINE
  8
CSLAYER1
  6
CONTINUOUS
 62
     3
 10
932.337990
 20
947.817447
 11
932.430459
 21
946.790676
  0
LINE
  8
CSLAYER1
  6
CONTINUOUS
 62
     3
 10
932.430459
 20
946.790676
 11
932.535750
 21
946.402941
  0
LINE
  8
CSLAYER1
  6
CONTINUOUS
 62
     3
 10
933.637990
 20
944.042580
 11
934.137990
 21
943.396605
  0
LINE
  8
CSLAYER1
  6
CONTINUOUS
 62
     3
 10
979.137990
 20
943.396605
 11
979.637990
 21
944.042580
  0
LINE
  8
CSLAYER1
  6
CONTINUOUS
 62
     3
 10
980.740230
 20
946.402941
 11
980.845521
 21
946.790676
  0
LINE
  8
CSLAYER1
  6
CONTINUOUS
 62
     3
 10
980.845521
 20
946.790676
 11
980.937990
 21
947.817447
  0
LINE
  8
CSLAYER1
  6
CONTINUOUS
 62
     3
 10
934.137990
 20
917.228551
 11
934.137990
 21
947.817447
  0
LINE
  8
CSLAYER1
  6
CONTINUOUS
 62
     3
 10
979.137990
 20
917.228551
 11
979.052371
 21
918.179265
  0
LINE
  8
CSLAYER1
  6
CONTINUOUS
 62
     3
 10
979.052371
 20
918.179265
 11
978.796165
 21
919.122743
  0
LINE
  8
CSLAYER1
  6
CONTINUOUS
 62
     3
 10
978.796165
 20
919.122743
 11
978.371321
 21
920.051805
  0
LINE
  8
CSLAYER1
  6
CONTINUOUS
 62
     3
 10
978.371321
 20
920.051805
 11
977.781074
 21
920.959381
  0
LINE
  8
CSLAYER1
  6
CONTINUOUS
 62
     3
 10
977.781074
 20
920.959381
 11
977.029915
 21
921.838563
  0
LINE
  8
CSLAYER1
  6
CONTINUOUS
 62
     3
 10
977.029915
 20
921.838563
 11
976.123562
 21
922.682659
  0
LINE
  8
CSLAYER1
  6
CONTINUOUS
 62
     3
 10
976.123562
 20
922.682659
 11
975.068911
 21
923.485247
  0
LINE
  8
CSLAYER1
  6
CONTINUOUS
 62
     3
 10
975.068911
 20
923.485247
 11
973.873990
 21
924.240218
  0
LINE
  8
CSLAYER1
  6
CONTINUOUS
 62
     3
 10
973.873990
 20
924.240218
 11
972.547893
 21
924.941825
  0
LINE
  8
CSLAYER1
  6
CONTINUOUS
 62
     3
 10
972.547893
 20
924.941825
 11
971.100711
 21
925.584730
  0
LINE
  8
CSLAYER1
  6
CONTINUOUS
 62
     3
 10
971.100711
 20
925.584730
 11
969.543460
 21
926.164039
  0
LINE
  8
CSLAYER1
  6
CONTINUOUS
 62
     3
 10
969.543460
 20
926.164039
 11
967.887990
 21
926.675344
  0
LINE
  8
CSLAYER1
  6
CONTINUOUS
 62
     3
 10
967.887990
 20
926.675344
 11
966.146901
 21
927.114753
  0
LINE
  8
CSLAYER1
  6
CONTINUOUS
 62
     3
 10
966.146901
 20
927.114753
 11
964.333443
 21
927.478922
  0
LINE
  8
CSLAYER1
  6
CONTINUOUS
 62
     3
 10
964.333443
 20
927.478922
 11
962.461419
 21
927.765079
  0
LINE
  8
CSLAYER1
  6
CONTINUOUS
 62
     3
 10
962.461419
 20
927.765079
 11
960.545074
 21
927.971047
  0
LINE
  8
CSLAYER1
  6
CONTINUOUS
 62
     3
 10
960.545074
 20
927.971047
 11
958.598994
 21
928.095259
  0
LINE
  8
CSLAYER1
  6
CONTINUOUS
 62
     3
 10
958.598994
 20
928.095259
 11
956.637990
 21
928.136768
  0
LINE
  8
CSLAYER1
  6
CONTINUOUS
 62
     3
 10
956.637990
 20
928.136768
 11
954.676986
 21
928.095259
  0
LINE
  8
CSLAYER1
  6
CONTINUOUS
 62
     3
 10
954.676986
 20
928.095259
 11
952.730906
 21
927.971047
  0
LINE
  8
CSLAYER1
  6
CONTINUOUS
 62
     3
 10
952.730906
 20
927.971047
 11
950.814562
 21
927.765079
  0
LINE
  8
CSLAYER1
  6
CONTINUOUS
 62
     3
 10
950.814562
 20
927.765079
 11
948.942537
 21
927.478922
  0
LINE
  8
CSLAYER1
  6
CONTINUOUS
 62
     3
 10
948.942537
 20
927.478922
 11
947.129079
 21
927.114753
  0
LINE
  8
CSLAYER1
  6
CONTINUOUS
 62
     3
 10
947.129079
 20
927.114753
 11
945.387990
 21
926.675344
  0
LINE
  8
CSLAYER1
  6
CONTINUOUS
 62
     3
 10
945.387990
 20
926.675344
 11
943.732520
 21
926.164039
  0
LINE
  8
CSLAYER1
  6
CONTINUOUS
 62
     3
 10
943.732520
 20
926.164039
 11
942.175269
 21
925.584730
  0
LINE
  8
CSLAYER1
  6
CONTINUOUS
 62
     3
 10
942.175269
 20
925.584730
 11
940.728087
 21
924.941825
  0
LINE
  8
CSLAYER1
  6
CONTINUOUS
 62
     3
 10
940.728087
 20
924.941825
 11
939.401990
 21
924.240218
  0
LINE
  8
CSLAYER1
  6
CONTINUOUS
 62
     3
 10
939.401990
 20
924.240218
 11
938.207069
 21
923.485247
  0
LINE
  8
CSLAYER1
  6
CONTINUOUS
 62
     3
 10
938.207069
 20
923.485247
 11
937.152418
 21
922.682659
  0
LINE
  8
CSLAYER1
  6
CONTINUOUS
 62
     3
 10
937.152418
 20
922.682659
 11
936.246065
 21
921.838563
  0
LINE
  8
CSLAYER1
  6
CONTINUOUS
 62
     3
 10
936.246065
 20
921.838563
 11
935.494906
 21
920.959381
  0
LINE
  8
CSLAYER1
  6
CONTINUOUS
 62
     3
 10
935.494906
 20
920.959381
 11
934.904659
 21
920.051805
  0
LINE
  8
CSLAYER1
  6
CONTINUOUS
 62
     3
 10
934.904659
 20
920.051805
 11
934.479816
 21
919.122743
  0
LINE
  8
CSLAYER1
  6
CONTINUOUS
 62
     3
 10
934.479816
 20
919.122743
 11
934.223609
 21
918.179265
  0
LINE
  8
CSLAYER1
  6
CONTINUOUS
 62
     3
 10
934.223609
 20
918.179265
 11
934.137990
 21
917.228551
  0
LINE
  8
CSLAYER1
  6
CONTINUOUS
 62
     3
 10
934.137990
 20
917.228551
 11
934.223609
 21
916.277838
  0
LINE
  8
CSLAYER1
  6
CONTINUOUS
 62
     3
 10
934.223609
 20
916.277838
 11
934.479816
 21
915.334359
  0
LINE
  8
CSLAYER1
  6
CONTINUOUS
 62
     3
 10
934.479816
 20
915.334359
 11
934.904659
 21
914.405297
  0
LINE
  8
CSLAYER1
  6
CONTINUOUS
 62
     3
 10
934.904659
 20
914.405297
 11
935.494906
 21
913.497721
  0
LINE
  8
CSLAYER1
  6
CONTINUOUS
 62
     3
 10
935.494906
 20
913.497721
 11
936.246065
 21
912.618540
  0
LINE
  8
CSLAYER1
  6
CONTINUOUS
 62
     3
 10
936.246065
 20
912.618540
 11
937.134484
 21
911.791146
  0
LINE
  8
CSLAYER1
  6
CONTINUOUS
 62
     3
 10
976.141496
 20
911.791146
 11
977.029915
 21
912.618540
  0
LINE
  8
CSLAYER1
  6
CONTINUOUS
 62
     3
 10
977.029915
 20
912.618540
 11
977.781074
 21
913.497721
  0
LINE
  8
CSLAYER1
  6
CONTINUOUS
 62
     3
 10
977.781074
 20
913.497721
 11
978.371321
 21
914.405297
  0
LINE
  8
CSLAYER1
  6
CONTINUOUS
 62
     3
 10
978.371321
 20
914.405297
 11
978.796165
 21
915.334359
  0
LINE
  8
CSLAYER1
  6
CONTINUOUS
 62
     3
 10
978.796165
 20
915.334359
 11
979.052371
 21
916.277838
  0
LINE
  8
CSLAYER1
  6
CONTINUOUS
 62
     3
 10
979.052371
 20
916.277838
 11
979.137990
 21
917.228551
  0
LINE
  8
CSLAYER1
  6
CENTER
 62
     5
 10
916.637990
 20
878.256588
 11
916.637990
 21
1020.348577
  0
LINE
  8
CSLAYER1
  6
CONTINUOUS
 62
     3
 10
923.637990
 20
1014.648577
 11
909.637990
 21
1014.648577
  0
LINE
  8
CSLAYER1
  6
CONTINUOUS
 62
     3
 10
923.637990
 20
1006.848577
 11
909.637990
 21
1006.848577
  0
LINE
  8
CSLAYER1
  6
CONTINUOUS
 62
     3
 10
923.069922
 20
1001.648577
 11
910.206058
 21
1001.648577
  0
LINE
  8
CSLAYER1
  6
CONTINUOUS
 62
     3
 10
922.637990
 20
999.648577
 11
910.637990
 21
999.648577
  0
LINE
  8
CSLAYER1
  6
CONTINUOUS
 62
     3
 10
922.637990
 20
992.648577
 11
910.637990
 21
992.648577
  0
LINE
  8
CSLAYER1
  6
CONTINUOUS
 62
     3
 10
921.521016
 20
967.648577
 11
911.754964
 21
967.648577
  0
LINE
  8
CSLAYER1
  6
CONTINUOUS
 62
     3
 10
922.137990
 20
989.648577
 11
922.137990
 21
992.648577
  0
LINE
  8
CSLAYER1
  6
CONTINUOUS
 62
     3
 10
924.720894
 20
1007.473791
 11
924.720894
 21
1014.023362
  0
LINE
  8
CSLAYER1
  6
CONTINUOUS
 62
     3
 10
920.679442
 20
1007.473791
 11
920.679442
 21
1014.023362
  0
ARC
  8
CSLAYER1
  6
CONTINUOUS
 62
     3
 10
893.950220
 20
1006.890798
 40
29.587800
 50
345.831727
 51
359.918240
  0
ARC
  8
CSLAYER1
  6
CONTINUOUS
 62
     3
 10
939.325760
 20
1006.890798
 40
29.587800
 50
180.081760
 51
194.168273
  0
LINE
  8
CSLAYER1
  6
CONTINUOUS
 62
     3
 10
920.985304
 20
999.648577
 11
920.985304
 21
1001.648577
  0
LINE
  8
CSLAYER1
  6
CONTINUOUS
 62
     3
 10
919.003539
 20
999.648577
 11
919.003539
 21
1001.648577
  0
LINE
  8
CSLAYER1
  6
CONTINUOUS
 62
     3
 10
912.290676
 20
999.648577
 11
912.290676
 21
1001.648577
  0
LINE
  8
CSLAYER1
  6
CONTINUOUS
 62
     3
 10
914.272441
 20
999.648577
 11
914.272441
 21
1001.648577
  0
LINE
  8
CSLAYER1
  6
CONTINUOUS
 62
     3
 10
923.637990
 20
1014.648577
 11
924.720894
 21
1014.023362
  0
ARC
  8
CSLAYER1
  6
CONTINUOUS
 62
     3
 10
922.700168
 20
1011.096948
 40
3.556295
 50
64.625569
 51
124.625569
  0
ARC
  8
CSLAYER1
  6
CONTINUOUS
 62
     3
 10
916.637990
 20
1001.273791
 40
13.374785
 50
72.412046
 51
107.587954
  0
LINE
  8
CSLAYER1
  6
CONTINUOUS
 62
     3
 10
923.637990
 20
1006.848577
 11
924.720894
 21
1007.473791
  0
ARC
  8
CSLAYER1
  6
CONTINUOUS
 62
     3
 10
922.700168
 20
1010.400205
 40
3.556295
 50
235.374431
 51
295.374431
  0
ARC
  8
CSLAYER1
  6
CONTINUOUS
 62
     3
 10
916.637990
 20
1020.223362
 40
13.374785
 50
252.412046
 51
287.587954
  0
LINE
  8
CSLAYER1
  6
CONTINUOUS
 62
     3
 10
908.555086
 20
1007.473791
 11
908.555086
 21
1014.023362
  0
LINE
  8
CSLAYER1
  6
CONTINUOUS
 62
     3
 10
912.596538
 20
1007.473791
 11
912.596538
 21
1014.023362
  0
LINE
  8
CSLAYER1
  6
CONTINUOUS
 62
     3
 10
909.637990
 20
1014.648577
 11
908.555086
 21
1014.023362
  0
ARC
  8
CSLAYER1
  6
CONTINUOUS
 62
     3
 10
910.575812
 20
1011.096948
 40
3.556295
 50
55.374431
 51
115.374431
  0
LINE
  8
CSLAYER1
  6
CONTINUOUS
 62
     3
 10
909.637990
 20
1006.848577
 11
908.555086
 21
1007.473791
  0
ARC
  8
CSLAYER1
  6
CONTINUOUS
 62
     3
 10
910.575812
 20
1010.400205
 40
3.556295
 50
244.625569
 51
304.625569
  0
LINE
  8
CSLAYER1
  6
CONTINUOUS
 62
     3
 10
923.566193
 20
993.184475
 11
923.566193
 21
998.912678
  0
LINE
  8
CSLAYER1
  6
CONTINUOUS
 62
     3
 10
920.102092
 20
993.184475
 11
920.102092
 21
998.912678
  0
LINE
  8
CSLAYER1
  6
CONTINUOUS
 62
     3
 10
922.637990
 20
992.648577
 11
923.566193
 21
993.184475
  0
ARC
  8
CSLAYER1
  6
CONTINUOUS
 62
     3
 10
916.637990
 20
1004.112678
 40
11.464102
 50
252.178595
 51
287.821405
  0
ARC
  8
CSLAYER1
  6
CONTINUOUS
 62
     3
 10
921.834142
 20
995.714505
 40
3.066114
 50
236.143645
 51
295.804157
  0
LINE
  8
CSLAYER1
  6
CONTINUOUS
 62
     3
 10
922.637990
 20
999.448577
 11
923.566193
 21
998.912678
  0
ARC
  8
CSLAYER1
  6
CONTINUOUS
 62
     3
 10
916.637990
 20
987.984475
 40
11.464102
 50
72.178595
 51
107.821405
  0
ARC
  8
CSLAYER1
  6
CONTINUOUS
 62
     3
 10
921.834142
 20
996.382648
 40
3.066114
 50
64.195843
 51
123.856355
  0
LINE
  8
CSLAYER1
  6
CONTINUOUS
 62
     3
 10
922.637990
 20
999.448577
 11
910.637990
 21
999.448577
  0
LINE
  8
CSLAYER1
  6
CONTINUOUS
 62
     3
 10
920.102092
 20
999.448577
 11
920.102092
 21
999.648577
  0
LINE
  8
CSLAYER1
  6
CONTINUOUS
 62
     3
 10
911.137990
 20
989.648577
 11
911.137990
 21
992.648577
  0
LINE
  8
CSLAYER1
  6
CONTINUOUS
 62
     3
 10
909.709787
 20
993.184475
 11
909.709787
 21
998.912678
  0
LINE
  8
CSLAYER1
  6
CONTINUOUS
 62
     3
 10
913.173888
 20
993.184475
 11
913.173888
 21
998.912678
  0
LINE
  8
CSLAYER1
  6
CONTINUOUS
 62
     3
 10
910.637990
 20
992.648577
 11
909.709787
 21
993.184475
  0
ARC
  8
CSLAYER1
  6
CONTINUOUS
 62
     3
 10
911.441838
 20
995.714505
 40
3.066114
 50
244.195843
 51
303.856355
  0
LINE
  8
CSLAYER1
  6
CONTINUOUS
 62
     3
 10
910.637990
 20
999.448577
 11
909.709787
 21
998.912678
  0
ARC
  8
CSLAYER1
  6
CONTINUOUS
 62
     3
 10
911.441838
 20
996.382648
 40
3.066114
 50
56.143645
 51
115.804157
  0
LINE
  8
CSLAYER1
  6
CONTINUOUS
 62
     3
 10
913.173888
 20
999.448577
 11
913.173888
 21
999.648577
  0
LINE
  8
CSLAYER1
  6
CONTINUOUS
 62
     3
 10
923.566193
 20
980.648577
 11
923.566193
 21
989.112678
  0
LINE
  8
CSLAYER1
  6
CONTINUOUS
 62
     3
 10
920.102092
 20
980.648577
 11
920.102092
 21
989.112678
  0
LINE
  8
CSLAYER1
  6
CONTINUOUS
 62
     3
 10
922.637990
 20
989.648577
 11
923.566193
 21
989.112678
  0
ARC
  8
CSLAYER1
  6
CONTINUOUS
 62
     3
 10
916.637990
 20
978.184475
 40
11.464102
 50
72.178595
 51
107.821405
  0
ARC
  8
CSLAYER1
  6
CONTINUOUS
 62
     3
 10
921.834142
 20
986.582648
 40
3.066114
 50
64.195843
 51
123.856355
  0
LINE
  8
CSLAYER1
  6
CONTINUOUS
 62
     3
 10
922.637990
 20
989.648577
 11
910.637990
 21
989.648577
  0
LINE
  8
CSLAYER1
  6
CONTINUOUS
 62
     3
 10
909.709787
 20
980.648577
 11
909.709787
 21
989.112678
  0
LINE
  8
CSLAYER1
  6
CONTINUOUS
 62
     3
 10
913.173888
 20
980.648577
 11
913.173888
 21
989.112678
  0
LINE
  8
CSLAYER1
  6
CONTINUOUS
 62
     3
 10
910.637990
 20
989.648577
 11
909.709787
 21
989.112678
  0
ARC
  8
CSLAYER1
  6
CONTINUOUS
 62
     3
 10
911.441838
 20
986.582648
 40
3.066114
 50
56.143645
 51
115.804157
  0
LINE
  8
CSLAYER1
  6
CONTINUOUS
 62
     3
 10
922.517272
 20
968.562117
 11
923.566193
 21
980.648577
  0
ARC
  8
CSLAYER1
  6
CONTINUOUS
 62
     3
 10
901.460502
 20
980.648577
 40
18.641590
 50
330.443788
 51
360.000000
  0
ARC
  8
CSLAYER1
  6
CONTINUOUS
 62
     3
 10
916.637990
 20
972.088431
 40
1.217263
 50
210.578468
 51
329.421532
  0
ARC
  8
CSLAYER1
  6
CONTINUOUS
 62
     3
 10
938.743682
 20
980.648577
 40
18.641590
 50
180.000000
 51
209.556212
  0
ARC
  8
CSLAYER1
  6
CONTINUOUS
 62
     3
 10
923.566193
 20
972.088431
 40
1.217263
 50
210.578468
 51
227.594217
  0
ARC
  8
CSLAYER1
  6
CONTINUOUS
 62
     3
 10
921.521016
 20
968.648577
 40
1.000000
 50
270.000000
 51
355.040021
  0
LINE
  8
CSLAYER1
  6
CONTINUOUS
 62
     3
 10
910.758709
 20
968.562117
 11
909.709787
 21
980.648577
  0
ARC
  8
CSLAYER1
  6
CONTINUOUS
 62
     3
 10
931.815478
 20
980.648577
 40
18.641590
 50
180.000000
 51
209.556212
  0
ARC
  8
CSLAYER1
  6
CONTINUOUS
 62
     3
 10
894.532298
 20
980.648577
 40
18.641590
 50
330.443788
 51
360.000000
  0
ARC
  8
CSLAYER1
  6
CONTINUOUS
 62
     3
 10
909.709787
 20
972.088431
 40
1.217263
 50
312.405783
 51
329.421532
  0
ARC
  8
CSLAYER1
  6
CONTINUOUS
 62
     3
 10
911.754964
 20
968.648577
 40
1.000000
 50
184.959979
 51
270.000000
  0
LINE
  8
CSLAYER1
  6
CONTINUOUS
 62
     3
 10
923.637990
 20
1034.348577
 11
911.137990
 21
1034.348577
  0
LINE
  8
CSLAYER1
  6
CENTER
 62
     5
 10
929.137990
 20
1027.348577
 11
923.637990
 21
1027.348577
  0
LINE
  8
CSLAYER1
  6
CONTINUOUS
 62
     3
 10
909.637990
 20
1020.348577
 11
909.637990
 21
1032.848577
  0
LINE
  8
CSLAYER1
  6
CONTINUOUS
 62
     3
 10
923.637990
 20
1020.348577
 11
909.637990
 21
1020.348577
  0
LINE
  8
CSLAYER1
  6
CONTINUOUS
 62
     3
 10
923.637990
 20
1020.348577
 11
923.637990
 21
1034.346132
  0
LINE
  8
CSLAYER1
  6
CONTINUOUS
 62
     3
 10
921.237990
 20
1014.648577
 11
921.237990
 21
1020.348577
  0
LINE
  8
CSLAYER1
  6
CONTINUOUS
 62
     5
 10
920.637990
 20
1014.648577
 11
920.637990
 21
1019.309346
  0
LINE
  8
CSLAYER1
  6
CONTINUOUS
 62
     5
 10
921.237990
 20
1020.348577
 11
920.637990
 21
1019.309346
  0
LINE
  8
CSLAYER1
  6
CONTINUOUS
 62
     3
 10
912.037990
 20
1014.648577
 11
912.037990
 21
1020.348577
  0
LINE
  8
CSLAYER1
  6
CONTINUOUS
 62
     5
 10
912.037990
 20
1020.348577
 11
912.637990
 21
1019.309346
  0
LINE
  8
CSLAYER1
  6
CONTINUOUS
 62
     5
 10
921.237990
 20
1019.309346
 11
912.037990
 21
1019.309346
  0
LINE
  8
CSLAYER1
  6
CONTINUOUS
 62
     3
 10
929.137990
 20
1022.496791
 11
923.637990
 21
1022.398577
  0
LINE
  8
CSLAYER1
  6
CONTINUOUS
 62
     5
 10
929.137990
 20
1023.196902
 11
923.625492
 21
1023.098465
  0
LINE
  8
CSLAYER1
  6
CONTINUOUS
 62
     3
 10
929.137990
 20
1032.200362
 11
923.637990
 21
1032.298577
  0
LINE
  8
CSLAYER1
  6
CONTINUOUS
 62
     5
 10
929.137990
 20
1031.500251
 11
923.625492
 21
1031.598688
  0
ARC
  8
CSLAYER1
  6
CONTINUOUS
 62
     3
 10
911.137990
 20
1032.848577
 40
1.500000
 50
90.000000
 51
180.000000
  0
LINE
  8
CSLAYER1
  6
CONTINUOUS
 62
     3
 10
935.137990
 20
1157.166800
 11
938.637990
 21
1157.166800
  0
LINE
  8
CSLAYER1
  6
CONTINUOUS
 62
     3
 10
934.137990
 20
1158.166800
 11
935.137990
 21
1157.166800
  0
LINE
  8
CSLAYER1
  6
CONTINUOUS
 62
     3
 10
978.137990
 20
1157.166800
 11
979.137990
 21
1158.166800
  0
LINE
  8
CSLAYER1
  6
CONTINUOUS
 62
     3
 10
980.137990
 20
1162.766800
 11
979.137990
 21
1162.766800
  0
LINE
  8
CSLAYER1
  6
CONTINUOUS
 62
     3
 10
934.137990
 20
1162.766800
 11
933.137990
 21
1162.766800
  0
LINE
  8
CSLAYER1
  6
CONTINUOUS
 62
     3
 10
921.137990
 20
1187.766800
 11
933.137990
 21
1187.766800
  0
LINE
  8
CSLAYER1
  6
CONTINUOUS
 62
     3
 10
921.137990
 20
1116.010639
 11
933.137990
 21
1116.010639
  0
LINE
  8
CSLAYER1
  6
CONTINUOUS
 62
     3
 10
980.137990
 20
1116.010639
 11
980.137990
 21
1187.766800
  0
LINE
  8
CSLAYER1
  6
CONTINUOUS
 62
     3
 10
933.137990
 20
1116.010639
 11
933.137990
 21
1187.766800
  0
LINE
  8
CSLAYER1
  6
CONTINUOUS
 62
     3
 10
921.137990
 20
1116.010639
 11
921.137990
 21
1187.766800
  0
LINE
  8
CSLAYER1
  6
CONTINUOUS
 62
     3
 10
980.137990
 20
1116.010639
 11
992.137990
 21
1116.010639
  0
LINE
  8
CSLAYER1
  6
CONTINUOUS
 62
     3
 10
974.637990
 20
1095.120113
 11
992.137990
 21
1095.120113
  0
LINE
  8
CSLAYER1
  6
CONTINUOUS
 62
     3
 10
933.137990
 20
1143.720113
 11
938.637990
 21
1143.720113
  0
LINE
  8
CSLAYER1
  6
CONTINUOUS
 62
     3
 10
974.637990
 20
1143.720113
 11
980.137990
 21
1143.720113
  0
LINE
  8
CSLAYER1
  6
CONTINUOUS
 62
     3
 10
980.137990
 20
1187.766800
 11
992.137990
 21
1187.766800
  0
LINE
  8
CSLAYER1
  6
CONTINUOUS
 62
     3
 10
900.137990
 20
1178.766800
 11
921.137990
 21
1178.766800
  0
LINE
  8
CSLAYER1
  6
CONTINUOUS
 62
     3
 10
900.137990
 20
1162.766800
 11
921.137990
 21
1162.766800
  0
LINE
  8
CSLAYER1
  6
CONTINUOUS
 62
     3
 10
992.137990
 20
1331.830017
 11
900.137990
 21
1331.830017
  0
LINE
  8
CSLAYER1
  6
CONTINUOUS
 62
     3
 10
867.637990
 20
1114.033825
 11
868.137990
 21
1114.033825
  0
LINE
  8
CSLAYER1
  6
CONTINUOUS
 62
     3
 10
878.637990
 20
1129.533825
 11
878.637990
 21
1108.533825
  0
LINE
  8
CSLAYER1
  6
CONTINUOUS
 62
     3
 10
866.637990
 20
1115.033825
 11
866.637990
 21
1123.033825
  0
LINE
  8
CSLAYER1
  6
CONTINUOUS
 62
     3
 10
888.137990
 20
1133.033825
 11
891.137990
 21
1133.033825
  0
LINE
  8
CSLAYER1
  6
CONTINUOUS
 62
     3
 10
888.137990
 20
878.256588
 11
888.137990
 21
1387.934699
  0
LINE
  8
CSLAYER1
  6
CONTINUOUS
 62
     3
 10
891.137990
 20
878.256588
 11
891.137990
 21
1400.234699
  0
LINE
  8
CSLAYER1
  6
CONTINUOUS
 62
     3
 10
888.137990
 20
1105.033825
 11
891.137990
 21
1105.033825
  0
LINE
  8
CSLAYER1
  6
CONTINUOUS
 62
     3
 10
876.637990
 20
1129.533825
 11
876.637990
 21
1108.533825
  0
LINE
  8
CSLAYER1
  6
CONTINUOUS
 62
     3
 10
874.137990
 20
1128.233825
 11
874.137990
 21
1109.833825
  0
LINE
  8
CSLAYER1
  6
CONTINUOUS
 62
     3
 10
874.137990
 20
1109.833825
 11
876.637990
 21
1109.833825
  0
LINE
  8
CSLAYER1
  6
CONTINUOUS
 62
     3
 10
876.637990
 20
1108.533825
 11
878.637990
 21
1108.533825
  0
LINE
  8
CSLAYER1
  6
CONTINUOUS
 62
     3
 10
874.137990
 20
1128.233825
 11
876.637990
 21
1128.233825
  0
LINE
  8
CSLAYER1
  6
CONTINUOUS
 62
     3
 10
876.637990
 20
1129.533825
 11
878.637990
 21
1129.533825
  0
LINE
  8
CSLAYER1
  6
CONTINUOUS
 62
     3
 10
868.137990
 20
1127.533825
 11
868.137990
 21
1110.533825
  0
LINE
  8
CSLAYER1
  6
CONTINUOUS
 62
     3
 10
867.637990
 20
1114.033825
 11
866.637990
 21
1115.033825
  0
LINE
  8
CSLAYER1
  6
CONTINUOUS
 62
     3
 10
866.937990
 20
1114.733825
 11
868.137990
 21
1114.733825
  0
LINE
  8
CSLAYER1
  6
CONTINUOUS
 62
     3
 10
867.637990
 20
1114.033825
 11
867.637990
 21
1124.033825
  0
LINE
  8
CSLAYER1
  6
CONTINUOUS
 62
     3
 10
868.897179
 20
1109.218870
 11
873.378801
 21
1109.218870
  0
LINE
  8
CSLAYER1
  6
CONTINUOUS
 62
     3
 10
868.897179
 20
1114.126347
 11
873.378801
 21
1114.126347
  0
LINE
  8
CSLAYER1
  6
CONTINUOUS
 62
     3
 10
868.137990
 20
1110.533825
 11
868.897179
 21
1109.218870
  0
ARC
  8
CSLAYER1
  6
CONTINUOUS
 62
     3
 10
884.378801
 20
1119.033825
 40
16.240811
 50
162.412046
 51
197.587954
  0
ARC
  8
CSLAYER1
  6
CONTINUOUS
 62
     3
 10
872.478914
 20
1111.672609
 40
4.341619
 50
145.586132
 51
207.480777
  0
LINE
  8
CSLAYER1
  6
CONTINUOUS
 62
     3
 10
868.137990
 20
1127.533825
 11
868.897179
 21
1128.848779
  0
ARC
  8
CSLAYER1
  6
CONTINUOUS
 62
     3
 10
872.478914
 20
1126.395041
 40
4.341619
 50
152.519223
 51
214.413868
  0
LINE
  8
CSLAYER1
  6
CONTINUOUS
 62
     3
 10
874.137990
 20
1110.533825
 11
873.378801
 21
1109.218870
  0
ARC
  8
CSLAYER1
  6
CONTINUOUS
 62
     3
 10
857.897179
 20
1119.033825
 40
16.240811
 50
-17.587954
 51
17.587954
  0
ARC
  8
CSLAYER1
  6
CONTINUOUS
 62
     3
 10
869.797066
 20
1111.672609
 40
4.341619
 50
-27.480777
 51
34.413868
  0
LINE
  8
CSLAYER1
  6
CONTINUOUS
 62
     3
 10
874.137990
 20
1127.533825
 11
873.378801
 21
1128.848779
  0
ARC
  8
CSLAYER1
  6
CONTINUOUS
 62
     3
 10
869.797066
 20
1126.395041
 40
4.341619
 50
-34.413868
 51
27.480777
  0
LINE
  8
CSLAYER1
  6
CONTINUOUS
 62
     3
 10
868.897179
 20
1128.848779
 11
873.378801
 21
1128.848779
  0
LINE
  8
CSLAYER1
  6
CONTINUOUS
 62
     3
 10
868.897179
 20
1123.941302
 11
873.378801
 21
1123.941302
  0
LINE
  8
CSLAYER1
  6
CONTINUOUS
 62
     3
 10
867.637990
 20
1124.033825
 11
868.137990
 21
1124.033825
  0
LINE
  8
CSLAYER1
  6
CONTINUOUS
 62
     3
 10
867.637990
 20
1124.033825
 11
866.637990
 21
1123.033825
  0
LINE
  8
CSLAYER1
  6
CONTINUOUS
 62
     3
 10
866.937990
 20
1123.333825
 11
868.137990
 21
1123.333825
  0
LINE
  8
CSLAYER1
  6
CONTINUOUS
 62
     3
 10
876.637990
 20
1120.935272
 11
874.137990
 21
1117.565707
  0
LINE
  8
CSLAYER1
  6
CONTINUOUS
 62
     3
 10
879.137990
 20
1111.533825
 11
878.637990
 21
1111.533825
  0
LINE
  8
CSLAYER1
  6
CONTINUOUS
 62
     3
 10
879.137990
 20
1126.533825
 11
878.637990
 21
1126.533825
  0
LINE
  8
CSLAYER1
  6
CONTINUOUS
 62
     3
 10
846.137990
 20
1400.234699
 11
846.137990
 21
1418.234699
  0
LINE
  8
CSLAYER1
  6
CONTINUOUS
 62
     3
 10
890.137990
 20
1389.784699
 11
891.137990
 21
1389.784699
  0
LINE
  8
CSLAYER1
  6
CONTINUOUS
 62
     3
 10
889.137990
 20
1400.234699
 11
889.137990
 21
1390.784699
  0
LINE
  8
CSLAYER1
  6
CONTINUOUS
 62
     3
 10
889.137990
 20
1390.784699
 11
890.137990
 21
1389.784699
  0
LINE
  8
CSLAYER1
  6
CONTINUOUS
 62
     3
 10
890.137990
 20
1400.234699
 11
890.137990
 21
1389.784699
  0
LINE
  8
CSLAYER1
  6
CONTINUOUS
 62
     3
 10
888.637990
 20
1387.934699
 11
882.637990
 21
1387.934699
  0
LINE
  8
CSLAYER1
  6
CONTINUOUS
 62
     3
 10
882.637990
 20
1400.234699
 11
882.637990
 21
1387.934699
  0
LINE
  8
CSLAYER1
  6
CONTINUOUS
 62
     3
 10
888.637990
 20
1400.234699
 11
888.637990
 21
1387.934699
  0
LINE
  8
CSLAYER1
  6
CONTINUOUS
 62
     3
 10
879.637990
 20
1387.465044
 11
879.637990
 21
1400.234699
  0
LINE
  8
CSLAYER1
  6
CONTINUOUS
 62
     3
 10
882.637990
 20
1387.684699
 11
879.637990
 21
1387.684699
  0
LINE
  8
CSLAYER1
  6
CONTINUOUS
 62
     3
 10
882.637990
 20
1396.922502
 11
879.798964
 21
1400.234699
  0
LINE
  8
CSLAYER1
  6
CONTINUOUS
 62
     3
 10
871.637990
 20
1400.234699
 11
871.637990
 21
1389.434699
  0
ARC
  8
CSLAYER1
  6
CONTINUOUS
 62
     3
 10
885.433734
 20
1398.434699
 40
13.795744
 50
172.502957
 51
203.426598
  0
LINE
  8
CSLAYER1
  6
CONTINUOUS
 62
     3
 10
879.637990
 20
1392.949871
 11
872.775171
 21
1392.949871
  0
LINE
  8
CSLAYER1
  6
CONTINUOUS
 62
     3
 10
879.637990
 20
1387.465044
 11
872.775171
 21
1387.465044
  0
LINE
  8
CSLAYER1
  6
CONTINUOUS
 62
     3
 10
871.637990
 20
1389.434699
 11
872.775171
 21
1387.465044
  0
ARC
  8
CSLAYER1
  6
CONTINUOUS
 62
     3
 10
875.418035
 20
1390.207457
 40
3.808617
 50
133.940972
 51
174.338367
  0
LINE
  8
CSLAYER1
  6
CONTINUOUS
 62
     3
 10
900.137990
 20
878.256588
 11
900.137990
 21
1400.234699
  0
LINE
  8
CSLAYER1
  6
CONTINUOUS
 62
     3
 10
879.137990
 20
878.256588
 11
879.137990
 21
1387.465044
  0
LINE
  8
CSLAYER1
  6
CONTINUOUS
 62
     3
 10
900.137990
 20
911.791146
 11
912.487990
 21
911.791146
  0
LINE
  8
CSLAYER1
  6
CONTINUOUS
 62
     3
 10
861.137990
 20
1385.934699
 11
861.137990
 21
1400.234699
  0
LINE
  8
CSLAYER1
  6
CONTINUOUS
 62
     3
 10
865.637990
 20
1385.934699
 11
865.637990
 21
1400.234699
  0
LINE
  8
CSLAYER1
  6
CONTINUOUS
 62
     3
 10
861.137990
 20
1385.934699
 11
865.637990
 21
1385.934699
  0
LINE
  8
CSLAYER1
  6
CONTINUOUS
 62
     3
 10
1031.137990
 20
1385.934699
 11
1031.137990
 21
1400.234699
  0
LINE
  8
CSLAYER1
  6
CONTINUOUS
 62
     3
 10
1026.637990
 20
1385.934699
 11
1026.637990
 21
1400.234699
  0
LINE
  8
CSLAYER1
  6
CONTINUOUS
 62
     3
 10
1031.137990
 20
1385.934699
 11
1026.637990
 21
1385.934699
  0
LINE
  8
CSLAYER1
  6
CONTINUOUS
 62
     3
 10
900.137990
 20
1086.854242
 11
938.637990
 21
1086.854242
  0
LINE
  8
CSLAYER1
  6
CONTINUOUS
 62
     3
 10
900.137990
 20
1088.730447
 11
938.637990
 21
1088.730447
  0
LINE
  8
CSLAYER1
  6
CONTINUOUS
 62
     3
 10
974.637990
 20
1088.730447
 11
992.137990
 21
1088.730447
  0
LINE
  8
CSLAYER1
  6
CONTINUOUS
 62
     3
 10
974.637990
 20
1086.854242
 11
992.137990
 21
1086.854242
  0
LINE
  8
CSLAYER1
  6
CONTINUOUS
 62
     3
 10
974.637990
 20
1157.166800
 11
978.137990
 21
1157.166800
  0
LINE
  8
CSLAYER1
  6
CONTINUOUS
 62
     3
 10
912.487990
 20
878.256588
 11
912.487990
 21
967.648577
  0
LINE
  8
CSLAYER1
  6
CONTINUOUS
 62
     3
 10
920.787990
 20
878.256588
 11
920.787990
 21
967.648577
  0
LINE
  8
CSLAYER1
  6
CONTINUOUS
 62
     3
 10
920.787990
 20
911.791146
 11
927.637990
 21
911.791146
  0
CIRCLE
  8
CSLAYER1
  6
CONTINUOUS
 62
     3
 10
916.137990
 20
849.906588
 40
4.150000
  0
LINE
  8
CSLAYER1
  6
CENTER
 62
     5
 10
1289.263302
 20
2021.088062
 11
1516.659461
 21
2021.088062
  0
LINE
  8
CSLAYER1
  6
CONTINUOUS
 62
     3
 10
1513.959461
 20
1916.588062
 11
1516.659461
 21
1916.588062
  0
LINE
  8
CSLAYER1
  6
CONTINUOUS
 62
     3
 10
1513.959461
 20
2065.588062
 11
1516.659461
 21
2065.588062
  0
LINE
  8
CSLAYER1
  6
CONTINUOUS
 62
     5
 10
912.637990
 20
1014.648577
 11
912.637990
 21
1019.309346
  0
LINE
  8
CSLAYER1
  6
CONTINUOUS
 62
     3
 10
1289.263302
 20
2025.238062
 11
1516.659461
 21
2025.238062
  0
LINE
  8
CSLAYER1
  6
CONTINUOUS
 62
     3
 10
1289.263302
 20
2016.938062
 11
1516.659461
 21
2016.938062
  0
LINE
  8
CSLAYER1
  6
CONTINUOUS
 62
     3
 10
1513.959461
 20
2025.238062
 11
1513.959461
 21
2131.088062
  0
DIMENSION
  8
CSLAYER1
 62
     3
  2
*D0000
 10
1428.705400
 20
2116.088062
 11
1420.453369
 21
1965.535645
 13
1527.696660
 23
1866.088062
 14
1527.696660
 24
2116.088062
 50
90.000000
 70
1
  0
DIMENSION
  8
CSLAYER1
 62
     3
  2
*D0001
 10
2358.936766
 20
2091.088062
 11
2348.936523
 21
1991.087891
 13
2216.659461
 23
1891.088062
 14
2216.659461
 24
2091.088062
 50
90.000000
 70
1
  0
INSERT
  8
CSLAYER1
  2
EASYDRAWDIM0003
 10
0.0
 20
0.0
 30
0.0
  0
DIMENSION
  8
CSLAYER1
 62
     3
  2
*D0002
 10
2238.936766
 20
1518.234699
 11
1888.936768
 21
1528.234619
 13
1538.936766
 23
1418.234699
 14
2238.936766
 24
1418.234699
 70
1
  0
DIMENSION
  8
CSLAYER1
 62
     3
  2
*D0003
 10
2216.959461
 20
628.256588
 11
1865.459473
 21
638.256775
 13
1513.959461
 23
838.256588
 14
2216.959461
 24
838.256588
 52
270.000000
 70
1
  0
DIMENSION
  8
CSLAYER1
 62
     3
  2
*D0004
 10
1162.524587
 20
844.256588
 11
1152.524536
 21
861.306152
 13
1096.137990
 23
838.256588
 14
1096.137990
 24
844.256588
 50
90.000000
 70
1
  0
LINE
  8
CSLAYER1
  6
CONTINUOUS
 62
     3
 10
1374.164805
 20
862.406588
 11
1513.959461
 21
862.406588
  0
LINE
  8
CSLAYER1
  6
CONTINUOUS
 62
     3
 10
1374.164805
 20
854.106588
 11
1513.959461
 21
854.106588
  0
INSERT
  8
CSLAYER1
  2
EASYDRAWDIM0004
 10
0.0
 20
0.0
 30
0.0
  0
INSERT
  8
CSLAYER1
  2
EASYDRAWDIM0005
 10
0.0
 20
0.0
 30
0.0
  0
INSERT
  8
CSLAYER1
  2
BLKF0011
 10
0.0
 20
0.0
 30
0.0
  0
INSERT
  8
CSLAYER1
  2
BLKF0012
 10
0.0
 20
0.0
 30
0.0
  0
TEXT
  8
CSLAYER1
 62
     7
 10
1520.780029
 20
2212.287598
 40
40.000000
 41
0.843750
  1
下降時
 50
0.000000
 51
0.000000
  7
EASYDRAW_FONT
 72
     5
 11
1610.780029
 21
2212.287598
  0
LINE
  8
CSLAYER1
  6
CONTINUOUS
 62
     5
 10
1507.173477
 20
2258.717814
 11
1630.131487
 21
2258.717814
  0
LINE
  8
CSLAYER1
  6
CONTINUOUS
 62
     5
 10
1630.131487
 20
2258.717814
 11
1630.131487
 21
2205.857361
  0
LINE
  8
CSLAYER1
  6
CONTINUOUS
 62
     5
 10
1630.131487
 20
2205.857361
 11
1507.173477
 21
2205.857361
  0
LINE
  8
CSLAYER1
  6
CONTINUOUS
 62
     5
 10
1507.173477
 20
2205.857361
 11
1507.173477
 21
2258.717814
  0
TEXT
  8
CSLAYER1
 62
     5
 10
2986.208708
 20
845.776478
 40
31.844261
 41
0.920655
  1
Ｆ.Ｌ
 50
0.000000
 51
0.000000
  7
EASYDRAW_FONT
 72
     5
 11
3064.388948
 21
845.776478
  0
LINE
  8
CSLAYER1
  6
CONTINUOUS
 62
     3
 10
2597.463134
 20
838.256588
 11
2897.463134
 21
838.256588
  0
LINE
  8
CSLAYER1
  6
CENTER
 62
     5
 10
2872.463134
 20
829.327227
 11
2872.463134
 21
853.537189
  0
LINE
  8
CSLAYER1
  6
CENTER
 62
     5
 10
2622.463134
 20
829.327227
 11
2622.463134
 21
853.537189
  0
LINE
  8
CSLAYER1
  6
CONTINUOUS
 62
     3
 10
2647.463134
 20
878.256588
 11
2847.463134
 21
878.256588
  0
LINE
  8
CSLAYER1
  6
CONTINUOUS
 62
     3
 10
2647.463134
 20
878.256588
 11
2647.463134
 21
844.256588
  0
LINE
  8
CSLAYER1
  6
CONTINUOUS
 62
     3
 10
2847.463134
 20
878.256588
 11
2847.463134
 21
844.256588
  0
LINE
  8
CSLAYER1
  6
CONTINUOUS
 62
     3
 10
2897.463134
 20
838.256588
 11
2897.463134
 21
844.256588
  0
LINE
  8
CSLAYER1
  6
CONTINUOUS
 62
     3
 10
2897.463134
 20
844.256588
 11
2847.463134
 21
844.256588
  0
LINE
  8
CSLAYER1
  6
CONTINUOUS
 62
     3
 10
2597.463134
 20
838.256588
 11
2597.463134
 21
844.256588
  0
POINT
  8
CSLAYER1
 62
     3
 10
2747.463134
 20
878.256588
  0
LINE
  8
CSLAYER1
  6
CENTER
 62
     5
 10
2672.963134
 20
883.256588
 11
2821.963134
 21
883.256588
  0
LINE
  8
CSLAYER1
  6
CONTINUOUS
 62
     3
 10
2847.463134
 20
903.056588
 11
2647.463134
 21
903.056588
  0
LINE
  8
CSLAYER1
  6
CONTINUOUS
 62
     3
 10
2847.463134
 20
885.056588
 11
2647.463134
 21
885.056588
  0
LINE
  8
CSLAYER1
  6
CONTINUOUS
 62
     3
 10
2847.463134
 20
885.056588
 11
2847.463134
 21
903.056588
  0
LINE
  8
CSLAYER1
  6
CONTINUOUS
 62
     3
 10
2804.463134
 20
885.056588
 11
2804.463134
 21
878.256588
  0
LINE
  8
CSLAYER1
  6
CONTINUOUS
 62
     3
 10
2803.463134
 20
885.056588
 11
2803.463134
 21
878.256588
  0
LINE
  8
CSLAYER1
  6
CONTINUOUS
 62
     3
 10
2810.963134
 20
885.056588
 11
2810.963134
 21
878.256588
  0
LINE
  8
CSLAYER1
  6
CONTINUOUS
 62
     3
 10
2804.963134
 20
885.056588
 11
2804.963134
 21
878.256588
  0
LINE
  8
CSLAYER1
  6
CONTINUOUS
 62
     3
 10
2813.963134
 20
878.256588
 11
2813.963134
 21
885.056588
  0
LINE
  8
CSLAYER1
  6
CONTINUOUS
 62
     3
 10
2810.963134
 20
881.744392
 11
2813.802160
 21
885.056588
  0
LINE
  8
CSLAYER1
  6
CONTINUOUS
 62
     3
 10
2821.963134
 20
885.056588
 11
2821.963134
 21
878.256588
  0
ARC
  8
CSLAYER1
  6
CONTINUOUS
 62
     3
 10
2808.167390
 20
883.256588
 40
13.795744
 50
-21.249544
 51
7.497043
  0
LINE
  8
CSLAYER1
  6
CONTINUOUS
 62
     3
 10
2647.463134
 20
885.056588
 11
2647.463134
 21
903.056588
  0
LINE
  8
CSLAYER1
  6
CONTINUOUS
 62
     3
 10
2690.463134
 20
885.056588
 11
2690.463134
 21
878.256588
  0
LINE
  8
CSLAYER1
  6
CONTINUOUS
 62
     3
 10
2691.463134
 20
885.056588
 11
2691.463134
 21
878.256588
  0
LINE
  8
CSLAYER1
  6
CONTINUOUS
 62
     3
 10
2683.963134
 20
885.056588
 11
2683.963134
 21
878.256588
  0
LINE
  8
CSLAYER1
  6
CONTINUOUS
 62
     3
 10
2689.963134
 20
885.056588
 11
2689.963134
 21
878.256588
  0
LINE
  8
CSLAYER1
  6
CONTINUOUS
 62
     3
 10
2680.963134
 20
878.256588
 11
2680.963134
 21
885.056588
  0
LINE
  8
CSLAYER1
  6
CONTINUOUS
 62
     3
 10
2683.963134
 20
881.744392
 11
2681.124108
 21
885.056588
  0
LINE
  8
CSLAYER1
  6
CONTINUOUS
 62
     3
 10
2672.963134
 20
885.056588
 11
2672.963134
 21
878.256588
  0
ARC
  8
CSLAYER1
  6
CONTINUOUS
 62
     3
 10
2686.758878
 20
883.256588
 40
13.795744
 50
172.502957
 51
201.249544
  0
LINE
  8
CSLAYER1
  6
CONTINUOUS
 62
     3
 10
2662.463134
 20
878.256588
 11
2662.463134
 21
885.056588
  0
LINE
  8
CSLAYER1
  6
CONTINUOUS
 62
     3
 10
2666.963134
 20
878.256588
 11
2666.963134
 21
885.056588
  0
LINE
  8
CSLAYER1
  6
CONTINUOUS
 62
     3
 10
2832.463134
 20
878.256588
 11
2832.463134
 21
885.056588
  0
LINE
  8
CSLAYER1
  6
CONTINUOUS
 62
     3
 10
2827.963134
 20
878.256588
 11
2827.963134
 21
885.056588
  0
LINE
  8
CSLAYER1
  6
CENTER
 62
     5
 10
2747.463134
 20
943.056588
 11
2747.463134
 21
798.256588
  0
TEXT
  8
CSLAYER1
 62
     7
 10
2700.182617
 20
970.194946
 40
40.000000
 41
0.843750
  1
下降時
 50
0.000000
 51
0.000000
  7
EASYDRAW_FONT
 72
     5
 11
2790.182617
 21
970.194946
  0
LINE
  8
CSLAYER1
  6
CONTINUOUS
 62
     5
 10
2686.575973
 20
1016.625031
 11
2809.533982
 21
1016.625031
  0
LINE
  8
CSLAYER1
  6
CONTINUOUS
 62
     5
 10
2809.533982
 20
1016.625031
 11
2809.533982
 21
963.764578
  0
LINE
  8
CSLAYER1
  6
CONTINUOUS
 62
     5
 10
2809.533982
 20
963.764578
 11
2686.575973
 21
963.764578
  0
LINE
  8
CSLAYER1
  6
CONTINUOUS
 62
     5
 10
2686.575973
 20
963.764578
 11
2686.575973
 21
1016.625031
  0
DIMENSION
  8
CSLAYER1
 62
     3
  2
*D0006
 10
2538.936766
 20
903.056588
 11
2528.936523
 21
870.656555
 13
2596.921980
 23
838.256588
 14
2647.463134
 24
903.056588
 50
90.000000
  0
LINE
  8
CSLAYER1
  6
CONTINUOUS
 62
     3
 10
2847.463134
 20
844.256588
 11
2847.463134
 21
838.256588
  0
LINE
  8
CSLAYER1
  6
CONTINUOUS
 62
     3
 10
2647.463134
 20
844.256588
 11
2597.463134
 21
844.256588
  0
LINE
  8
CSLAYER1
  6
CONTINUOUS
 62
     3
 10
2647.463134
 20
838.256588
 11
2647.463134
 21
844.256588
  0
LINE
  8
CSLAYER1
  6
CONTINUOUS
 62
     5
 10
3106.806953
 20
838.256588
 11
2897.463134
 21
838.256588
  0
LINE
  8
CSLAYER1
  6
CONTINUOUS
 62
     5
 10
2597.463134
 20
838.256588
 11
2216.959461
 21
838.256588
  0
TEXT
  8
CSLAYER1
 62
     7
 10
897.001526
 20
546.478638
 40
40.000000
 41
0.843750
  1
上昇時
 50
0.000000
 51
0.000000
  7
EASYDRAW_FONT
 72
     5
 11
987.001526
 21
546.478638
  0
LINE
  8
CSLAYER1
  6
CONTINUOUS
 62
     5
 10
883.395024
 20
592.908756
 11
1006.353034
 21
592.908756
  0
LINE
  8
CSLAYER1
  6
CONTINUOUS
 62
     5
 10
1006.353034
 20
592.908756
 11
1006.353034
 21
540.048303
  0
LINE
  8
CSLAYER1
  6
CONTINUOUS
 62
     5
 10
1006.353034
 20
540.048303
 11
883.395024
 21
540.048303
  0
LINE
  8
CSLAYER1
  6
CONTINUOUS
 62
     5
 10
883.395024
 20
540.048303
 11
883.395024
 21
592.908756
  0
DIMENSION
  8
CSLAYER1
 62
     3
  2
*D0007
 10
1096.137990
 20
628.256588
 11
946.138000
 21
638.256653
 13
796.137990
 23
838.256588
 14
1096.137990
 24
844.256588
 52
270.000000
  0
DIMENSION
  8
CSLAYER1
 62
     3
  2
*D0008
 10
1538.959461
 20
718.256588
 11
1564.725342
 21
696.081909
 13
1513.959461
 23
838.256588
 14
1538.959461
 24
838.256588
 52
270.000000
 70
1
  0
DIMENSION
  8
CSLAYER1
 62
     3
  2
*D0009
 10
1046.137990
 20
1518.234699
 11
946.138000
 21
1528.234741
 13
846.137990
 23
1418.234699
 14
1046.137990
 24
1418.234699
 70
1
  0
LINE
  8
CSLAYER1
  6
CONTINUOUS
 62
     3
 10
796.137990
 20
838.256588
 11
1096.137990
 21
838.256588
  0
LINE
  8
CSLAYER1
  6
CONTINUOUS
 62
     5
 10
1096.137990
 20
838.256588
 11
1513.959461
 21
838.256588
  0
LINE
  8
CSLAYER1
  6
CONTINUOUS
 62
     3
 10
1513.959461
 20
838.256588
 11
2216.959461
 21
838.256588
  0
INSERT
  8
CSLAYER1
  2
EASYDRAWDIM0007
 10
0.0
 20
0.0
 30
0.0
  0
LINE
  8
CSLAYER1
  6
CONTINUOUS
 62
     5
 10
1174.173583
 20
677.473977
 11
1431.370701
 21
677.473977
  0
TEXT
  8
CSLAYER1
 62
     3
 10
1209.427490
 20
685.282776
 40
40.000000
 41
0.787500
  1
(アンカー穴)
 50
0.000000
 51
0.000000
  7
EASYDRAW_FONT
 72
     5
 11
1419.427490
 21
685.282776
  0
LINE
  8
CSLAYER1
  6
CONTINUOUS
 62
     5
 10
1071.137990
 20
838.256588
 11
1174.173583
 21
677.473977
  0
LINE
  8
CSLAYER1
  6
CONTINUOUS
 62
     5
 10
1071.137990
 20
838.256588
 11
1093.310455
 21
818.048130
  0
LINE
  8
CSLAYER1
  6
CONTINUOUS
 62
     5
 10
1071.137990
 20
838.256588
 11
1080.235679
 21
809.669317
  0
LINE
  8
CSLAYER1
  6
CONTINUOUS
 62
     5
 10
1538.959461
 20
838.256588
 11
1431.370701
 21
677.473977
  0
LINE
  8
CSLAYER1
  6
CONTINUOUS
 62
     5
 10
1538.959461
 20
838.256588
 11
1529.297080
 21
809.855208
  0
LINE
  8
CSLAYER1
  6
CONTINUOUS
 62
     5
 10
1538.959461
 20
838.256588
 11
1516.390903
 21
818.491463
  0
DIMENSION
  8
CSLAYER1
 62
     3
  2
*D0010
 10
1071.137990
 20
718.256588
 11
946.138000
 21
728.256592
 13
821.137990
 23
829.327227
 14
1071.137990
 24
829.327227
 52
270.000000
 70
1
  0
DIMENSION
  8
CSLAYER1
 62
     3
  2
*D0011
 10
2448.936766
 20
1418.234699
 11
2438.936768
 21
1128.245605
 13
2238.936766
 23
838.256588
 14
2238.936766
 24
1418.234699
 50
90.000000
 70
1
  0
DIMENSION
  8
CSLAYER1
 62
     3
  2
*D0012
 10
2358.936766
 20
1418.234699
 11
2348.936768
 21
1160.645630
 13
2216.659461
 23
903.056588
 14
2216.659461
 24
1418.234699
 50
90.000000
 70
1
  0
DIMENSION
  8
CSLAYER1
 62
     3
  2
*D0013
 10
2358.936766
 20
838.256588
 11
2348.936768
 21
870.656616
 13
2358.936766
 23
903.056588
 14
2358.936766
 24
838.256588
 50
90.000000
 70
1
  0
DIMENSION
  8
CSLAYER1
 62
     3
  2
*D0014
 10
1563.959461
 20
1631.088062
 11
1453.959473
 21
1641.088135
 13
1513.959461
 23
1851.088062
 14
1563.959461
 24
1851.088062
 52
270.000000
 70
1
  0
DIMENSION
  8
CSLAYER1
 62
     3
  2
*D0015
 10
1538.959461
 20
1721.088062
 11
1453.959473
 21
1731.088135
 13
1513.959461
 23
1851.088062
 14
1538.959461
 24
1854.825260
 52
270.000000
  0
LINE
  8
CSLAYER1
  6
CONTINUOUS
 62
     5
 10
1538.959461
 20
1866.088062
 11
1625.226374
 21
1721.088062
  0
LINE
  8
CSLAYER1
  6
CONTINUOUS
 62
     5
 10
1538.959461
 20
1866.088062
 11
1560.448624
 21
1845.154455
  0
LINE
  8
CSLAYER1
  6
CONTINUOUS
 62
     5
 10
1538.959461
 20
1866.088062
 11
1547.102818
 21
1837.214445
  0
TEXT
  8
CSLAYER1
 62
     3
 10
3125.786865
 20
1792.141602
 40
40.000000
 41
0.859091
  1
約 40
 50
0.000000
 51
0.000000
  7
EASYDRAW_FONT
 72
     5
 11
3251.786865
 21
1792.141602
  0
ENDSEC
  0
EOF
