  0
SECTION
  2
HEADER
  9
$ACADVER
  1
AC1006
  9
$INSBASE
 10
0.000000
 20
0.000000
 30
0.0
  9
$EXTMIN
 10
0.000000
 20
0.000000
  9
$EXTMAX
 10
3640.000000
 20
2570.000000
  9
$LIMMIN
 10
0.000000
 20
0.000000
  9
$LIMMAX
 10
3640.000000
 20
2570.000000
  9
$VIEWCTR
 10
1820.000000
 20
1285.000000
  9
$VIEWSIZE
 40
2570.000000
  9
$SNAPMODE
 70
     0
  9
$SNAPUNIT
 10
1.0
 20
1.0
  9
$SNAPBASE
 10
0.0
 20
0.0
  9
$SNAPANG
 50
0.0
  9
$SNAPSTYLE
 70
     0
  9
$SNAPISOPAIR
 70
     0
  9
$GRIDMODE
 70
     0
  9
$GRIDUNIT
 10
0.0
 20
0.0
  9
$ORTHOMODE
 70
     0
  9
$REGENMODE
 70
     1
  9
$FILLMODE
 70
     1
  9
$QTEXTMODE
 70
     0
  9
$DRAGMODE
 70
     2
  9
$LTSCALE
 40
15.000000
  9
$OSMODE
 70
     0
  9
$ATTMODE
 70
     1
  9
$TEXTSIZE
 40
0.2
  9
$TRACEWID
 40
0.05
  9
$TEXTSTYLE
  7
STANDARD
  9
$CLAYER
  8
CSLAYER1
  9
$CELTYPE
  6
BYLAYER
  9
$CECOLOR
 62
   256
  9
$DIMSCALE
 40
1.0
  9
$DIMASZ
 40
0.18
  9
$DIMEXO
 40
0.0625
  9
$DIMDLI
 40
0.38
  9
$DIMRND
 40
0.0
  9
$DIMDLE
 40
0.0
  9
$DIMEXE
 40
0.18
  9
$DIMTP
 40
0.0
  9
$DIMTM
 40
0.0
  9
$DIMTXT
 40
0.18
  9
$DIMCEN
 40
0.09
  9
$DIMTSZ
 40
0.0
  9
$DIMTOL
 70
     0
  9
$DIMLIM
 70
     0
  9
$DIMTIH
 70
     1
  9
$DIMTOH
 70
     1
  9
$DIMSE1
 70
     0
  9
$DIMSE2
 70
     0
  9
$DIMTAD
 70
     0
  9
$DIMZIN
 70
     0
  9
$DIMBLK
  1

  9
$LUNITS
 70
     2
  9
$LUPREC
 70
     4
  9
$AXISMODE
 70
     0
  9
$AXISUNIT
 10
0.0
 20
0.0
  9
$SKETCHINC
 40
0.1
  9
$FILLETRAD
 40
0.0
  9
$AUNITS
 70
     0
  9
$AUPREC
 70
     0
  9
$MENU
  1
ACAD
  9
$ELEVATION
 40
0.0
  9
$THICKNESS
 40
0.0
  9
$VIEWDIR
 10
0.0
 20
0.0
 30
1.0
  9
$LIMCHECK
 70
     0
  9
$BLIPMODE
 70
     1
  9
$CHAMFERA
 40
0.0
  9
$CHAMFERB
 40
0.0
  9
$FASTZOOM
 70
     1
  9
$SKPOLY
 70
     0
  9
$TDCREATE
 40
2456676.000000
  9
$TDUPDATE
 40
2456676.000000
  9
$TDINDWG
 40
0.0
  9
$TDUSRTIMER
 40
0.0
  9
$USRTIMER
 70
     1
  9
$ANGBASE
 50
0.0
  9
$ANGDIR
 70
     0
  9
$PDMODE
 70
     0
  9
$PDSIZE
 40
0.0
  9
$PLINEWID
 40
0.0
  9
$COORDS
 70
     0
  9
$USERI1
 70
     0
  9
$USERI2
 70
     0
  9
$USERI3
 70
     0
  9
$USERI4
 70
     0
  9
$USERI5
 70
     0
  9
$USERR1
 40
0.0
  9
$USERR2
 40
0.0
  9
$USERR3
 40
0.0
  9
$USERR4
 40
0.0
  9
$USERR5
 40
0.0
  0
ENDSEC
  0
SECTION
  2
TABLES
  0
TABLE
  2
LTYPE
 70
     9
  0
LTYPE
  2
CONTINUOUS
 70
    64
  3
Solid line
 72
    65
 73
     0
 40
0.0
  0
LTYPE
  2
DASHED
 70
    64
  3
__ __ __ __ __ __ __ __ __ __ __ __ __ __ __
 72
    65
 73
     2
 40
0.75
 49
0.5
 49
-0.25
  0
LTYPE
  2
HIDDEN
 70
    64
  3
_ _ _ _ _ _ _ _ _ _ _ _ _ _ _ _ _ _ _ _ _ _ _
 72
    65
 73
     2
 40
0.375
 49
0.25
 49
-0.125
  0
LTYPE
  2
DOT
 70
    64
  3
...............................................
 72
    65
 73
     2
 40
0.25
 49
0.0
 49
-0.25
  0
LTYPE
  2
DASHDOT
 70
    64
  3
__ . __ . __ . __ . __ . __ . __ . __ . __ . __
 72
    65
 73
     4
 40
1.0
 49
0.5
 49
-0.25
 49
0.0
 49
-0.25
  0
LTYPE
  2
DIVIDE
 70
    64
  3
__ . . __ . . __ . . __ . . __ . . __ . . __
 72
    65
 73
     6
 40
1.25
 49
0.5
 49
-0.25
 49
0.0
 49
-0.25
 49
0.0
 49
-0.25
  0
LTYPE
  2
CENTER
 70
    64
  3
____ _ ____ _ ____ _ ____ _ ____ _ ____ _ ____ 
 72
    65
 73
     4
 40
2.0
 49
1.25
 49
-0.25
 49
0.25
 49
-0.25
  0
LTYPE
  2
PHANTOM
 70
    64
  3
______  __  __  ______  __  __  ______  __  __ 
 72
    65
 73
     6
 40
2.5
 49
1.25
 49
-0.25
 49
0.25
 49
-0.25
 49
0.25
 49
-0.25
  0
LTYPE
  2
BORDER
 70
    64
  3
__ __ . __ __ . __ __ . __ __ . __ __ . __ __ .
 72
    65
 73
     6
 40
1.75
 49
0.5
 49
-0.25
 49
0.5
 49
-0.25
 49
0.0
 49
-0.25
  0
ENDTAB
  0
TABLE
  2
LAYER
 70
    16
  0
LAYER
  2
CSLAYER1
 70
    64
 62
     7
  6
CONTINUOUS
  0
LAYER
  2
CSLAYER2
 70
    64
 62
     7
  6
CONTINUOUS
  0
LAYER
  2
CSLAYER3
 70
    64
 62
     7
  6
CONTINUOUS
  0
LAYER
  2
CSLAYER4
 70
    64
 62
     7
  6
CONTINUOUS
  0
LAYER
  2
CSLAYER5
 70
    64
 62
     7
  6
CONTINUOUS
  0
LAYER
  2
CSLAYER6
 70
    64
 62
     7
  6
CONTINUOUS
  0
LAYER
  2
CSLAYER7
 70
    64
 62
     7
  6
CONTINUOUS
  0
LAYER
  2
CSLAYER8
 70
    64
 62
     7
  6
CONTINUOUS
  0
LAYER
  2
CSLAYER9
 70
    64
 62
     7
  6
CONTINUOUS
  0
LAYER
  2
CSLAYER10
 70
    64
 62
     7
  6
CONTINUOUS
  0
LAYER
  2
CSLAYER11
 70
    64
 62
     7
  6
CONTINUOUS
  0
LAYER
  2
CSLAYER12
 70
    64
 62
     7
  6
CONTINUOUS
  0
LAYER
  2
CSLAYER13
 70
    64
 62
     7
  6
CONTINUOUS
  0
LAYER
  2
CSLAYER14
 70
    64
 62
     7
  6
CONTINUOUS
  0
LAYER
  2
CSLAYER15
 70
    64
 62
     7
  6
CONTINUOUS
  0
LAYER
  2
CSLAYER16
 70
    64
 62
     7
  6
CONTINUOUS
  0
ENDTAB
  0
TABLE
  2
STYLE
 70
     1
  0
STYLE
  2
EASYDRAW_FONT
 70
     0
 40
1.0
 41
1.0
 50
0.0
 71
     0
 42
1.0
  3
monotxt
  4
bigfont
  0
ENDTAB
  0
TABLE
  2
VIEW
 70
     0
  0
ENDTAB
  0
ENDSEC
  0
SECTION
  2
BLOCKS
  0
BLOCK
  8
CSLAYER1
  2
*D0000
 70
    65
 10
0.0
 20
0.0
 30
0.0
  0
TEXT
  8
CSLAYER1
 62
     3
 10
867.193054
 20
1566.294434
 40
40.000000
 41
0.843750
  1
300
 50
0.000000
 51
0.000000
  7
EASYDRAW_FONT
 72
     5
 11
957.193054
 21
1566.294434
  0
LINE
  8
CSLAYER1
  6
CONTINUOUS
 62
     5
 10
762.192972
 20
1473.124757
 11
762.192972
 21
1566.294495
  0
LINE
  8
CSLAYER1
  6
CONTINUOUS
 62
     5
 10
1062.192972
 20
1473.124757
 11
1062.192972
 21
1566.294495
  0
LINE
  8
CSLAYER1
  6
CONTINUOUS
 62
     5
 10
762.192972
 20
1556.294495
 11
1062.192972
 21
1556.294495
  0
LINE
  8
CSLAYER1
  6
CONTINUOUS
 62
     5
 10
762.192972
 20
1556.294495
 11
791.170747
 21
1564.059066
  0
LINE
  8
CSLAYER1
  6
CONTINUOUS
 62
     5
 10
762.192972
 20
1556.294495
 11
791.170747
 21
1548.529924
  0
LINE
  8
CSLAYER1
  6
CONTINUOUS
 62
     5
 10
1062.192972
 20
1556.294495
 11
1033.215197
 21
1564.059066
  0
LINE
  8
CSLAYER1
  6
CONTINUOUS
 62
     5
 10
1062.192972
 20
1556.294495
 11
1033.215197
 21
1548.529924
  0
ENDBLK
  8
0
  0
BLOCK
  8
CSLAYER1
  2
*D0001
 70
    65
 10
0.0
 20
0.0
 30
0.0
  0
TEXT
  8
CSLAYER1
 62
     3
 10
2605.271973
 20
846.352966
 40
40.000000
 41
0.843750
  1
100
 50
90.000000
 51
0.000000
  7
EASYDRAW_FONT
 72
     5
 11
2605.271973
 21
936.352966
  0
LINE
  8
CSLAYER1
  6
CONTINUOUS
 62
     5
 10
2700.251117
 20
941.353156
 11
2605.271848
 21
941.353156
  0
LINE
  8
CSLAYER1
  6
CONTINUOUS
 62
     5
 10
2615.271848
 20
841.353156
 11
2615.271848
 21
941.353156
  0
LINE
  8
CSLAYER1
  6
CONTINUOUS
 62
     5
 10
2615.271848
 20
841.353156
 11
2607.507277
 21
870.330931
  0
LINE
  8
CSLAYER1
  6
CONTINUOUS
 62
     5
 10
2615.271848
 20
841.353156
 11
2623.036420
 21
870.330931
  0
LINE
  8
CSLAYER1
  6
CONTINUOUS
 62
     5
 10
2615.271848
 20
941.353156
 11
2607.507277
 21
912.375381
  0
LINE
  8
CSLAYER1
  6
CONTINUOUS
 62
     5
 10
2615.271848
 20
941.353156
 11
2623.036420
 21
912.375381
  0
ENDBLK
  8
0
  0
BLOCK
  8
CSLAYER1
  2
*D0002
 70
    65
 10
0.0
 20
0.0
 30
0.0
  0
TEXT
  8
CSLAYER1
 62
     3
 10
1865.150024
 20
1556.954834
 40
40.000000
 41
0.843750
  1
800
 50
0.000000
 51
0.000000
  7
EASYDRAW_FONT
 72
     5
 11
1955.150024
 21
1556.954834
  0
LINE
  8
CSLAYER1
  6
CONTINUOUS
 62
     5
 10
1510.150146
 20
1473.124757
 11
1510.150146
 21
1556.955082
  0
LINE
  8
CSLAYER1
  6
CONTINUOUS
 62
     5
 10
2310.150146
 20
1473.124757
 11
2310.150146
 21
1556.955082
  0
LINE
  8
CSLAYER1
  6
CONTINUOUS
 62
     5
 10
1510.150146
 20
1546.955082
 11
2310.150146
 21
1546.955082
  0
LINE
  8
CSLAYER1
  6
CONTINUOUS
 62
     5
 10
1510.150146
 20
1546.955082
 11
1539.127921
 21
1554.719653
  0
LINE
  8
CSLAYER1
  6
CONTINUOUS
 62
     5
 10
1510.150146
 20
1546.955082
 11
1539.127921
 21
1539.190510
  0
LINE
  8
CSLAYER1
  6
CONTINUOUS
 62
     5
 10
2310.150146
 20
1546.955082
 11
2281.172371
 21
1554.719653
  0
LINE
  8
CSLAYER1
  6
CONTINUOUS
 62
     5
 10
2310.150146
 20
1546.955082
 11
2281.172371
 21
1539.190510
  0
ENDBLK
  8
0
  0
BLOCK
  8
CSLAYER1
  2
*D0003
 70
    65
 10
0.0
 20
0.0
 30
0.0
  0
TEXT
  8
CSLAYER1
 62
     3
 10
2393.219482
 20
1905.860840
 40
40.000000
 41
0.843750
  1
300
 50
90.000000
 51
0.000000
  7
EASYDRAW_FONT
 72
     5
 11
2393.219482
 21
1995.860840
  0
LINE
  8
CSLAYER1
  6
CONTINUOUS
 62
     5
 10
2320.150146
 20
1800.860719
 11
2413.219311
 21
1800.860719
  0
LINE
  8
CSLAYER1
  6
CONTINUOUS
 62
     5
 10
2320.150146
 20
2100.860719
 11
2413.219311
 21
2100.860719
  0
LINE
  8
CSLAYER1
  6
CONTINUOUS
 62
     5
 10
2403.219311
 20
1800.860719
 11
2403.219311
 21
2100.860719
  0
LINE
  8
CSLAYER1
  6
CONTINUOUS
 62
     5
 10
2403.219311
 20
1800.860719
 11
2395.454740
 21
1829.838493
  0
LINE
  8
CSLAYER1
  6
CONTINUOUS
 62
     5
 10
2403.219311
 20
1800.860719
 11
2410.983882
 21
1829.838493
  0
LINE
  8
CSLAYER1
  6
CONTINUOUS
 62
     5
 10
2403.219311
 20
2100.860719
 11
2395.454740
 21
2071.882944
  0
LINE
  8
CSLAYER1
  6
CONTINUOUS
 62
     5
 10
2403.219311
 20
2100.860719
 11
2410.983882
 21
2071.882944
  0
ENDBLK
  8
0
  0
BLOCK
  8
CSLAYER1
  2
*D0004
 70
    65
 10
0.0
 20
0.0
 30
0.0
  0
TEXT
  8
CSLAYER1
 62
     3
 10
1409.158813
 20
1720.533447
 40
40.000000
 41
0.900000
  1
25
 50
0.000000
 51
0.000000
  7
EASYDRAW_FONT
 72
     5
 11
1469.158813
 21
1720.533447
  0
LINE
  8
CSLAYER1
  6
CONTINUOUS
 62
     5
 10
1480.014443
 20
1800.860719
 11
1480.014443
 21
1659.989086
  0
LINE
  8
CSLAYER1
  6
CONTINUOUS
 62
     5
 10
1505.014443
 20
1804.597917
 11
1505.014443
 21
1726.800654
  0
LINE
  8
CSLAYER1
  6
CONTINUOUS
 62
     5
 10
1480.014443
 20
1736.800654
 11
1505.014443
 21
1736.800654
  0
LINE
  8
CSLAYER1
  6
CONTINUOUS
 62
     5
 10
1480.014443
 20
1736.800654
 11
1508.992218
 21
1744.565225
  0
LINE
  8
CSLAYER1
  6
CONTINUOUS
 62
     5
 10
1480.014443
 20
1736.800654
 11
1508.992218
 21
1729.036082
  0
LINE
  8
CSLAYER1
  6
CONTINUOUS
 62
     5
 10
1505.014443
 20
1736.800654
 11
1476.036668
 21
1744.565225
  0
LINE
  8
CSLAYER1
  6
CONTINUOUS
 62
     5
 10
1505.014443
 20
1736.800654
 11
1476.036668
 21
1729.036082
  0
ENDBLK
  8
0
  0
BLOCK
  8
CSLAYER1
  2
*D0005
 70
    65
 10
0.0
 20
0.0
 30
0.0
  0
TEXT
  8
CSLAYER1
 62
     3
 10
1410.320679
 20
1653.140869
 40
40.000000
 41
0.900000
  1
50
 50
0.000000
 51
0.000000
  7
EASYDRAW_FONT
 72
     5
 11
1470.320679
 21
1653.140869
  0
LINE
  8
CSLAYER1
  6
CONTINUOUS
 62
     5
 10
1530.014443
 20
1800.860719
 11
1530.014443
 21
1659.989086
  0
LINE
  8
CSLAYER1
  6
CONTINUOUS
 62
     5
 10
1480.014443
 20
1669.989086
 11
1530.014443
 21
1669.989086
  0
LINE
  8
CSLAYER1
  6
CONTINUOUS
 62
     5
 10
1480.014443
 20
1669.989086
 11
1508.992218
 21
1677.753658
  0
LINE
  8
CSLAYER1
  6
CONTINUOUS
 62
     5
 10
1480.014443
 20
1669.989086
 11
1508.992218
 21
1662.224515
  0
LINE
  8
CSLAYER1
  6
CONTINUOUS
 62
     5
 10
1530.014443
 20
1669.989086
 11
1501.036668
 21
1677.753658
  0
LINE
  8
CSLAYER1
  6
CONTINUOUS
 62
     5
 10
1530.014443
 20
1669.989086
 11
1501.036668
 21
1662.224515
  0
ENDBLK
  8
0
  0
BLOCK
  8
CSLAYER1
  2
EASYDRAWDIM0000
 70
   64
 10
0.0
 20
0.0
 30
0.0
  0
TEXT
  8
CSLAYER1
 62
     3
 10
1623.236206
 20
1705.484131
 40
40.000000
 41
0.771429
  1
2-%%c13(アンカー穴)
 50
0.000000
 51
0.000000
  7
EASYDRAW_FONT
 72
     5
 11
1983.236206
 21
1705.484131
  0
LINE
  8
CSLAYER1
  6
CONTINUOUS
 62
     5
 10
1509.413043
 20
1821.602877
 11
1618.895010
 21
1695.484354
  0
LINE
  8
CSLAYER1
  6
CONTINUOUS
 62
     5
 10
1509.413043
 20
1821.602877
 11
1534.272703
 21
1804.810101
  0
LINE
  8
CSLAYER1
  6
CONTINUOUS
 62
     5
 10
1509.413043
 20
1821.602877
 11
1522.545752
 21
1794.630077
  0
LINE
  8
CSLAYER1
  6
CONTINUOUS
 62
     5
 10
1618.895010
 20
1695.484354
 11
1993.236263
 21
1695.484354
  0
ENDBLK
  8
0
  0
BLOCK
  8
CSLAYER1
  2
*D0006
 70
    65
 10
0.0
 20
0.0
 30
0.0
  0
TEXT
  8
CSLAYER1
 62
     3
 10
1386.508179
 20
1880.308105
 40
40.000000
 41
0.843750
  1
250
 50
90.000000
 51
0.000000
  7
EASYDRAW_FONT
 72
     5
 11
1386.508179
 21
1970.308105
  0
LINE
  8
CSLAYER1
  6
CONTINUOUS
 62
     5
 10
1483.751642
 20
1825.860719
 11
1384.760382
 21
1825.860719
  0
LINE
  8
CSLAYER1
  6
CONTINUOUS
 62
     5
 10
1483.751642
 20
2075.860719
 11
1384.760382
 21
2075.860719
  0
LINE
  8
CSLAYER1
  6
CONTINUOUS
 62
     5
 10
1394.760382
 20
1825.860719
 11
1394.760382
 21
2075.860719
  0
LINE
  8
CSLAYER1
  6
CONTINUOUS
 62
     5
 10
1394.760382
 20
1825.860719
 11
1386.995811
 21
1854.838493
  0
LINE
  8
CSLAYER1
  6
CONTINUOUS
 62
     5
 10
1394.760382
 20
1825.860719
 11
1402.524954
 21
1854.838493
  0
LINE
  8
CSLAYER1
  6
CONTINUOUS
 62
     5
 10
1394.760382
 20
2075.860719
 11
1386.995811
 21
2046.882944
  0
LINE
  8
CSLAYER1
  6
CONTINUOUS
 62
     5
 10
1394.760382
 20
2075.860719
 11
1402.524954
 21
2046.882944
  0
ENDBLK
  8
0
  0
BLOCK
  8
CSLAYER1
  2
EASYDRAWDIM0001
 70
   64
 10
0.0
 20
0.0
 30
0.0
  0
TEXT
  8
CSLAYER1
 62
     3
 10
1435.746948
 20
1848.760231
 40
33.155758
 41
0.767879
  1
穴ヒﾟッチ
 50
90.000000
 51
0.000000
  7
EASYDRAW_FONT
 72
     5
 11
1435.746948
 21
1967.571800
  0
ENDBLK
  8
0
  0
BLOCK
  8
CSLAYER1
  2
*D0007
 70
    65
 10
0.0
 20
0.0
 30
0.0
  0
TEXT
  8
CSLAYER1
 62
     3
 10
2385.926270
 20
846.352966
 40
40.000000
 41
0.843750
  1
100
 50
90.000000
 51
0.000000
  7
EASYDRAW_FONT
 72
     5
 11
2385.926270
 21
936.352966
  0
LINE
  8
CSLAYER1
  6
CONTINUOUS
 62
     5
 10
2292.714443
 20
841.353156
 11
2506.319338
 21
841.353156
  0
LINE
  8
CSLAYER1
  6
CONTINUOUS
 62
     5
 10
2292.714443
 20
941.353156
 11
2405.926265
 21
941.353156
  0
LINE
  8
CSLAYER1
  6
CONTINUOUS
 62
     5
 10
2395.926265
 20
841.353156
 11
2395.926265
 21
941.353156
  0
LINE
  8
CSLAYER1
  6
CONTINUOUS
 62
     5
 10
2395.926265
 20
841.353156
 11
2388.161694
 21
870.330931
  0
LINE
  8
CSLAYER1
  6
CONTINUOUS
 62
     5
 10
2395.926265
 20
841.353156
 11
2403.690836
 21
870.330931
  0
LINE
  8
CSLAYER1
  6
CONTINUOUS
 62
     5
 10
2395.926265
 20
941.353156
 11
2388.161694
 21
912.375381
  0
LINE
  8
CSLAYER1
  6
CONTINUOUS
 62
     5
 10
2395.926265
 20
941.353156
 11
2403.690836
 21
912.375381
  0
ENDBLK
  8
0
  0
BLOCK
  8
CSLAYER1
  2
*D0008
 70
    65
 10
0.0
 20
0.0
 30
0.0
  0
TEXT
  8
CSLAYER1
 62
     3
 10
2385.926270
 20
1157.239014
 40
40.000000
 41
0.843750
  1
500
 50
90.000000
 51
0.000000
  7
EASYDRAW_FONT
 72
     5
 11
2385.926270
 21
1247.239014
  0
LINE
  8
CSLAYER1
  6
CONTINUOUS
 62
     5
 10
2320.150146
 20
1463.124757
 11
2506.319338
 21
1463.124757
  0
LINE
  8
CSLAYER1
  6
CONTINUOUS
 62
     5
 10
2395.926265
 20
941.353156
 11
2395.926265
 21
1463.124757
  0
LINE
  8
CSLAYER1
  6
CONTINUOUS
 62
     5
 10
2395.926265
 20
941.353156
 11
2388.161694
 21
970.330931
  0
LINE
  8
CSLAYER1
  6
CONTINUOUS
 62
     5
 10
2395.926265
 20
941.353156
 11
2403.690836
 21
970.330931
  0
LINE
  8
CSLAYER1
  6
CONTINUOUS
 62
     5
 10
2395.926265
 20
1463.124757
 11
2388.161694
 21
1434.146982
  0
LINE
  8
CSLAYER1
  6
CONTINUOUS
 62
     5
 10
2395.926265
 20
1463.124757
 11
2403.690836
 21
1434.146982
  0
ENDBLK
  8
0
  0
BLOCK
  8
CSLAYER1
  2
*D0009
 70
    65
 10
0.0
 20
0.0
 30
0.0
  0
TEXT
  8
CSLAYER1
 62
     3
 10
2486.319336
 20
1107.239014
 40
40.000000
 41
0.843750
  1
600
 50
90.000000
 51
0.000000
  7
EASYDRAW_FONT
 72
     5
 11
2486.319336
 21
1197.239014
  0
LINE
  8
CSLAYER1
  6
CONTINUOUS
 62
     5
 10
2496.319338
 20
841.353156
 11
2496.319338
 21
1463.124757
  0
LINE
  8
CSLAYER1
  6
CONTINUOUS
 62
     5
 10
2496.319338
 20
841.353156
 11
2488.554767
 21
870.330931
  0
LINE
  8
CSLAYER1
  6
CONTINUOUS
 62
     5
 10
2496.319338
 20
841.353156
 11
2504.083910
 21
870.330931
  0
LINE
  8
CSLAYER1
  6
CONTINUOUS
 62
     5
 10
2496.319338
 20
1463.124757
 11
2488.554767
 21
1434.146982
  0
LINE
  8
CSLAYER1
  6
CONTINUOUS
 62
     5
 10
2496.319338
 20
1463.124757
 11
2504.083910
 21
1434.146982
  0
ENDBLK
  8
0
  0
BLOCK
  8
CSLAYER1
  2
*D0010
 70
    65
 10
0.0
 20
0.0
 30
0.0
  0
TEXT
  8
CSLAYER1
 62
     3
 10
1310.608765
 20
1288.101318
 40
40.000000
 41
0.794118
  1
MAX 27
 50
0.000000
 51
0.000000
  7
EASYDRAW_FONT
 72
     5
 11
1490.608765
 21
1288.101318
  0
LINE
  8
CSLAYER1
  6
CONTINUOUS
 62
     5
 10
1482.714443
 20
951.353156
 11
1482.714443
 21
1274.630787
  0
LINE
  8
CSLAYER1
  6
CONTINUOUS
 62
     5
 10
1510.150146
 20
1418.124757
 11
1510.150146
 21
1254.630787
  0
LINE
  8
CSLAYER1
  6
CONTINUOUS
 62
     5
 10
1482.714443
 20
1264.630787
 11
1438.882318
 21
1264.630787
  0
LINE
  8
CSLAYER1
  6
CONTINUOUS
 62
     5
 10
1482.714443
 20
1264.630787
 11
1453.736668
 21
1272.395359
  0
LINE
  8
CSLAYER1
  6
CONTINUOUS
 62
     5
 10
1482.714443
 20
1264.630787
 11
1453.736668
 21
1256.866216
  0
LINE
  8
CSLAYER1
  6
CONTINUOUS
 62
     5
 10
1510.150146
 20
1264.630787
 11
1560.150146
 21
1264.630787
  0
LINE
  8
CSLAYER1
  6
CONTINUOUS
 62
     5
 10
1510.150146
 20
1264.630787
 11
1539.127921
 21
1272.395359
  0
LINE
  8
CSLAYER1
  6
CONTINUOUS
 62
     5
 10
1510.150146
 20
1264.630787
 11
1539.127921
 21
1256.866216
  0
LINE
  8
CSLAYER1
  6
CONTINUOUS
 62
     5
 10
1482.714443
 20
1264.630787
 11
1510.150146
 21
1264.630787
  0
ENDBLK
  8
0
  0
BLOCK
  8
CSLAYER1
  2
EASYDRAWDIM0002
 70
   64
 10
0.0
 20
0.0
 30
0.0
  0
TEXT
  8
CSLAYER1
 62
     3
 10
1175.570190
 20
1197.892334
 40
40.000000
 41
0.787500
  1
油圧シリンダー
 50
0.000000
 51
0.000000
  7
EASYDRAW_FONT
 72
     5
 11
1385.570190
 21
1197.892334
  0
LINE
  8
CSLAYER1
  6
CONTINUOUS
 62
     5
 10
1386.535053
 20
1187.892309
 11
1165.570311
 21
1187.892309
  0
ENDBLK
  8
0
  0
BLOCK
  8
CSLAYER1
  2
EASYDRAWDIM0003
 70
   64
 10
0.0
 20
0.0
 30
0.0
  0
TEXT
  8
CSLAYER1
 62
     3
 10
1187.817017
 20
995.893250
 40
40.000000
 41
0.803571
  1
高圧ホース
 50
0.000000
 51
0.000000
  7
EASYDRAW_FONT
 72
     5
 11
1337.817017
 21
995.893250
  0
LINE
  8
CSLAYER1
  6
CONTINUOUS
 62
     5
 10
1404.362708
 20
867.061748
 11
1337.817039
 21
985.893300
  0
LINE
  8
CSLAYER1
  6
CONTINUOUS
 62
     5
 10
1404.362708
 20
867.061748
 11
1383.429434
 21
888.551235
  0
LINE
  8
CSLAYER1
  6
CONTINUOUS
 62
     5
 10
1404.362708
 20
867.061748
 11
1396.978705
 21
896.138827
  0
LINE
  8
CSLAYER1
  6
CONTINUOUS
 62
     5
 10
1337.817039
 20
985.893300
 11
1177.817039
 21
985.893300
  0
ENDBLK
  8
0
  0
BLOCK
  8
CSLAYER1
  2
*D0011
 70
    65
 10
0.0
 20
0.0
 30
0.0
  0
TEXT
  8
CSLAYER1
 62
     3
 10
1836.364380
 20
631.247803
 40
40.000000
 41
0.843750
  1
803
 50
0.000000
 51
0.000000
  7
EASYDRAW_FONT
 72
     5
 11
1926.364380
 21
631.247803
  0
LINE
  8
CSLAYER1
  6
CONTINUOUS
 62
     5
 10
1480.014443
 20
831.353156
 11
1480.014443
 21
611.247747
  0
LINE
  8
CSLAYER1
  6
CONTINUOUS
 62
     5
 10
2282.714443
 20
831.353156
 11
2282.714443
 21
611.247747
  0
LINE
  8
CSLAYER1
  6
CONTINUOUS
 62
     5
 10
1480.014443
 20
621.247747
 11
2282.714443
 21
621.247747
  0
LINE
  8
CSLAYER1
  6
CONTINUOUS
 62
     5
 10
1480.014443
 20
621.247747
 11
1508.992218
 21
629.012318
  0
LINE
  8
CSLAYER1
  6
CONTINUOUS
 62
     5
 10
1480.014443
 20
621.247747
 11
1508.992218
 21
613.483175
  0
LINE
  8
CSLAYER1
  6
CONTINUOUS
 62
     5
 10
2282.714443
 20
621.247747
 11
2253.736668
 21
629.012318
  0
LINE
  8
CSLAYER1
  6
CONTINUOUS
 62
     5
 10
2282.714443
 20
621.247747
 11
2253.736668
 21
613.483175
  0
ENDBLK
  8
0
  0
BLOCK
  8
CSLAYER1
  2
*D0012
 70
    65
 10
0.0
 20
0.0
 30
0.0
  0
TEXT
  8
CSLAYER1
 62
     3
 10
1181.446167
 20
850.217957
 40
40.000000
 41
1.125000
  1
6
 50
90.000000
 51
0.000000
  7
EASYDRAW_FONT
 72
     5
 11
1181.446167
 21
880.217957
  0
LINE
  8
CSLAYER1
  6
CONTINUOUS
 62
     5
 10
1072.192972
 20
841.353156
 11
1138.579569
 21
841.353156
  0
LINE
  8
CSLAYER1
  6
CONTINUOUS
 62
     5
 10
1072.192972
 20
847.353156
 11
1138.579569
 21
847.353156
  0
LINE
  8
CSLAYER1
  6
CONTINUOUS
 62
     5
 10
1128.579569
 20
841.353156
 11
1128.579569
 21
791.353156
  0
LINE
  8
CSLAYER1
  6
CONTINUOUS
 62
     5
 10
1128.579569
 20
841.353156
 11
1120.814997
 21
812.375381
  0
LINE
  8
CSLAYER1
  6
CONTINUOUS
 62
     5
 10
1128.579569
 20
841.353156
 11
1136.344140
 21
812.375381
  0
LINE
  8
CSLAYER1
  6
CONTINUOUS
 62
     5
 10
1128.579569
 20
847.353156
 11
1128.579569
 21
881.452119
  0
LINE
  8
CSLAYER1
  6
CONTINUOUS
 62
     5
 10
1128.579569
 20
847.353156
 11
1120.814997
 21
876.330931
  0
LINE
  8
CSLAYER1
  6
CONTINUOUS
 62
     5
 10
1128.579569
 20
847.353156
 11
1136.344140
 21
876.330931
  0
LINE
  8
CSLAYER1
  6
CONTINUOUS
 62
     5
 10
1128.579569
 20
841.353156
 11
1128.579569
 21
847.353156
  0
ENDBLK
  8
0
  0
BLOCK
  8
CSLAYER1
  2
EASYDRAWDIM0004
 70
   64
 10
0.0
 20
0.0
 30
0.0
  0
TEXT
  8
CSLAYER1
 62
     3
 10
1093.077271
 20
710.496460
 40
40.000000
 41
0.771429
  1
2-%%c13（アンカー穴）
 50
0.000000
 51
0.000000
  7
EASYDRAW_FONT
 72
     5
 11
1453.077271
 21
710.496460
  0
LINE
  8
CSLAYER1
  6
CONTINUOUS
 62
     5
 10
1133.100618
 20
758.451419
 11
1418.697282
 21
758.451419
  0
ENDBLK
  8
0
  0
BLOCK
  8
CSLAYER1
  2
*D0013
 70
    65
 10
0.0
 20
0.0
 30
0.0
  0
TEXT
  8
CSLAYER1
 62
     3
 10
867.192810
 20
705.148132
 40
40.000000
 41
0.843750
  1
300
 50
0.000000
 51
0.000000
  7
EASYDRAW_FONT
 72
     5
 11
957.192810
 21
705.148132
  0
LINE
  8
CSLAYER1
  6
CONTINUOUS
 62
     5
 10
762.192972
 20
833.353156
 11
762.192972
 21
689.148130
  0
LINE
  8
CSLAYER1
  6
CONTINUOUS
 62
     5
 10
1062.192972
 20
833.353156
 11
1062.192972
 21
689.148130
  0
LINE
  8
CSLAYER1
  6
CONTINUOUS
 62
     5
 10
762.192972
 20
697.148130
 11
1062.192972
 21
697.148130
  0
LINE
  8
CSLAYER1
  6
CONTINUOUS
 62
     5
 10
762.192972
 20
697.148130
 11
791.170747
 21
704.912701
  0
LINE
  8
CSLAYER1
  6
CONTINUOUS
 62
     5
 10
762.192972
 20
697.148130
 11
791.170747
 21
689.383558
  0
LINE
  8
CSLAYER1
  6
CONTINUOUS
 62
     5
 10
1062.192972
 20
697.148130
 11
1033.215197
 21
704.912701
  0
LINE
  8
CSLAYER1
  6
CONTINUOUS
 62
     5
 10
1062.192972
 20
697.148130
 11
1033.215197
 21
689.383558
  0
ENDBLK
  8
0
  0
BLOCK
  8
CSLAYER1
  2
*D0014
 70
    65
 10
0.0
 20
0.0
 30
0.0
  0
TEXT
  8
CSLAYER1
 62
     3
 10
867.192810
 20
774.521545
 40
40.000000
 41
0.843750
  1
250
 50
0.000000
 51
0.000000
  7
EASYDRAW_FONT
 72
     5
 11
957.192810
 21
774.521545
  0
LINE
  8
CSLAYER1
  6
CONTINUOUS
 62
     5
 10
787.192972
 20
833.353156
 11
787.192972
 21
758.521587
  0
LINE
  8
CSLAYER1
  6
CONTINUOUS
 62
     5
 10
1037.192972
 20
833.353156
 11
1037.192972
 21
758.521587
  0
LINE
  8
CSLAYER1
  6
CONTINUOUS
 62
     5
 10
787.192972
 20
766.521587
 11
1037.192972
 21
766.521587
  0
LINE
  8
CSLAYER1
  6
CONTINUOUS
 62
     5
 10
787.192972
 20
766.521587
 11
816.170747
 21
774.286158
  0
LINE
  8
CSLAYER1
  6
CONTINUOUS
 62
     5
 10
787.192972
 20
766.521587
 11
816.170747
 21
758.757015
  0
LINE
  8
CSLAYER1
  6
CONTINUOUS
 62
     5
 10
1037.192972
 20
766.521587
 11
1008.215197
 21
774.286158
  0
LINE
  8
CSLAYER1
  6
CONTINUOUS
 62
     5
 10
1037.192972
 20
766.521587
 11
1008.215197
 21
758.757015
  0
ENDBLK
  8
0
  0
BLOCK
  8
CSLAYER1
  2
*D0015
 70
    65
 10
0.0
 20
0.0
 30
0.0
  0
TEXT
  8
CSLAYER1
 62
     3
 10
1488.296997
 20
651.227600
 40
40.000000
 41
0.900000
  1
25
 50
0.000000
 51
0.000000
  7
EASYDRAW_FONT
 72
     5
 11
1548.296997
 21
651.227600
  0
LINE
  8
CSLAYER1
  6
CONTINUOUS
 62
     5
 10
1480.014443
 20
831.353156
 11
1480.014443
 21
695.283343
  0
LINE
  8
CSLAYER1
  6
CONTINUOUS
 62
     5
 10
1505.014443
 20
831.353156
 11
1505.014443
 21
695.283343
  0
LINE
  8
CSLAYER1
  6
CONTINUOUS
 62
     5
 10
1480.014443
 20
705.283343
 11
1505.014443
 21
705.283343
  0
LINE
  8
CSLAYER1
  6
CONTINUOUS
 62
     5
 10
1430.014443
 20
705.283343
 11
1480.014443
 21
705.283343
  0
LINE
  8
CSLAYER1
  6
CONTINUOUS
 62
     5
 10
1480.014443
 20
705.283343
 11
1451.036668
 21
713.047914
  0
LINE
  8
CSLAYER1
  6
CONTINUOUS
 62
     5
 10
1480.014443
 20
705.283343
 11
1451.036668
 21
697.518771
  0
LINE
  8
CSLAYER1
  6
CONTINUOUS
 62
     5
 10
1505.014443
 20
705.283343
 11
1555.014443
 21
705.283343
  0
LINE
  8
CSLAYER1
  6
CONTINUOUS
 62
     5
 10
1505.014443
 20
705.283343
 11
1533.992218
 21
713.047914
  0
LINE
  8
CSLAYER1
  6
CONTINUOUS
 62
     5
 10
1505.014443
 20
705.283343
 11
1533.992218
 21
697.518771
  0
ENDBLK
  8
0
  0
BLOCK
  8
CSLAYER1
  2
EASYDRAWDIM0005
 70
   64
 10
0.0
 20
0.0
 30
0.0
  0
LINE
  8
CSLAYER1
  6
CONTINUOUS
 62
     6
 10
1505.014443
 20
841.353156
 11
1418.697282
 21
758.451419
  0
LINE
  8
CSLAYER1
  6
CONTINUOUS
 62
     6
 10
1505.014443
 20
841.353156
 11
1489.493222
 21
815.680374
  0
LINE
  8
CSLAYER1
  6
CONTINUOUS
 62
     6
 10
1505.014443
 20
841.353156
 11
1478.736281
 21
826.880485
  0
LINE
  8
CSLAYER1
  6
CONTINUOUS
 62
     6
 10
1418.697282
 20
758.451419
 11
1301.982809
 21
758.451419
  0
ENDBLK
  8
0
  0
BLOCK
  8
CSLAYER1
  2
BLKF0000
 70
   64
 10
0.0
 20
0.0
 30
0.0
  0
LINE
  8
CSLAYER1
  6
CONTINUOUS
 62
     5
 10
3461.569057
 20
1491.427954
 11
2581.569057
 21
1491.427954
  0
TEXT
  8
CSLAYER1
 62
     3
 10
3058.952148
 20
1497.078125
 40
40.000000
 41
0.832500
  1
10R4/13
 50
0.000000
 51
0.000000
  7
EASYDRAW_FONT
 72
     5
 11
3280.952148
 21
1497.078125
  0
ENDBLK
  8
0
  0
BLOCK
  8
CSLAYER1
  2
BLKF0001
 70
   64
 10
0.0
 20
0.0
 30
0.0
  0
ARC
  8
CSLAYER1
  6
CONTINUOUS
 62
     5
 10
2876.853447
 20
123.642391
 40
3.549225
 50
6.429109
 51
73.182034
  0
ARC
  8
CSLAYER1
  6
CONTINUOUS
 62
     5
 10
2873.392477
 20
122.483998
 40
6.907754
 50
310.517970
 51
330.092764
  0
ARC
  8
CSLAYER1
  6
CONTINUOUS
 62
     5
 10
2873.331827
 20
122.849516
 40
7.148321
 50
-32.205059
 51
9.585194
  0
ARC
  8
CSLAYER1
  6
CONTINUOUS
 62
     5
 10
2876.624555
 20
120.088518
 40
4.767514
 50
180.000000
 51
218.514150
  0
ARC
  8
CSLAYER1
  6
CONTINUOUS
 62
     5
 10
2875.337834
 20
119.411377
 40
3.348282
 50
222.781148
 51
319.406906
  0
ARC
  8
CSLAYER1
  6
CONTINUOUS
 62
     5
 10
2878.403476
 20
120.501270
 40
6.559434
 50
94.574282
 51
183.607718
  0
LINE
  8
CSLAYER1
  6
CONTINUOUS
 62
     5
 10
2891.847383
 20
115.384438
 11
2890.990347
 21
112.345855
  0
LINE
  8
CSLAYER1
  6
CONTINUOUS
 62
     5
 10
2893.639367
 20
135.252095
 11
2891.535733
 21
137.979029
  0
LINE
  8
CSLAYER1
  6
CONTINUOUS
 62
     5
 10
2891.535733
 20
137.979029
 11
2884.782379
 21
141.736941
  0
LINE
  8
CSLAYER1
  6
CONTINUOUS
 62
     5
 10
2884.782379
 20
141.736941
 11
2877.880352
 21
142.539811
  0
LINE
  8
CSLAYER1
  6
CONTINUOUS
 62
     5
 10
2859.591126
 20
129.161138
 11
2861.737821
 21
134.125368
  0
LINE
  8
CSLAYER1
  6
CONTINUOUS
 62
     5
 10
2861.700823
 20
134.039811
 11
2863.884515
 21
136.674568
  0
LINE
  8
CSLAYER1
  6
CONTINUOUS
 62
     5
 10
2863.884515
 20
136.674568
 11
2867.188937
 21
139.039811
  0
LINE
  8
CSLAYER1
  6
CONTINUOUS
 62
     5
 10
2877.880352
 20
142.539811
 11
2876.362176
 21
141.772967
  0
LINE
  8
CSLAYER1
  6
CONTINUOUS
 62
     5
 10
2876.362176
 20
141.772967
 11
2872.873798
 21
141.772967
  0
LINE
  8
CSLAYER1
  6
CONTINUOUS
 62
     5
 10
2872.873798
 20
141.772967
 11
2869.318335
 21
139.827525
  0
LINE
  8
CSLAYER1
  6
CONTINUOUS
 62
     5
 10
2869.318335
 20
139.827525
 11
2867.188937
 21
139.039811
  0
LINE
  8
CSLAYER1
  6
CONTINUOUS
 62
     5
 10
2859.591126
 20
129.161138
 11
2858.073579
 21
121.612535
  0
LINE
  8
CSLAYER1
  6
CONTINUOUS
 62
     5
 10
2858.073579
 20
121.612535
 11
2857.880352
 21
119.039811
  0
LINE
  8
CSLAYER1
  6
CONTINUOUS
 62
     5
 10
2860.589734
 20
111.200029
 11
2857.880352
 21
117.296140
  0
LINE
  8
CSLAYER1
  6
CONTINUOUS
 62
     5
 10
2857.880352
 20
117.296140
 11
2857.880352
 21
119.039811
  0
LINE
  8
CSLAYER1
  6
CONTINUOUS
 62
     5
 10
2890.990347
 20
112.345855
 11
2889.304559
 21
109.342849
  0
LINE
  8
CSLAYER1
  6
CONTINUOUS
 62
     5
 10
2889.304559
 20
109.342849
 11
2887.880352
 21
108.024138
  0
ARC
  8
CSLAYER1
  6
CONTINUOUS
 62
     5
 10
2875.688407
 20
119.576572
 40
17.266626
 50
208.054813
 51
260.640470
  0
ARC
  8
CSLAYER1
  6
CONTINUOUS
 62
     5
 10
2870.495012
 20
132.319041
 40
29.874611
 50
274.579659
 51
305.587364
  0
ARC
  8
CSLAYER1
  6
CONTINUOUS
 62
     5
 10
2881.467361
 20
126.335319
 40
15.088627
 50
313.467013
 51
331.085078
  0
LINE
  8
CSLAYER1
  6
CONTINUOUS
 62
     5
 10
2896.258693
 20
122.553232
 11
2896.555987
 21
126.335319
  0
LINE
  8
CSLAYER1
  6
CONTINUOUS
 62
     5
 10
2896.555987
 20
126.335319
 11
2895.263990
 21
132.444302
  0
LINE
  8
CSLAYER1
  6
CONTINUOUS
 62
     5
 10
2896.258693
 20
122.553232
 11
2894.675018
 21
119.039811
  0
ARC
  8
CSLAYER1
  6
CONTINUOUS
 62
     5
 10
2881.467361
 20
126.335319
 40
15.088627
 50
23.883193
 51
36.225170
  0
LINE
  8
CSLAYER1
  6
CONTINUOUS
 62
     5
 10
2841.880352
 20
154.039811
 11
2842.880352
 21
155.132456
  0
LINE
  8
CSLAYER1
  6
CONTINUOUS
 62
     5
 10
2841.880352
 20
154.039811
 11
2843.457309
 21
152.594778
  0
LINE
  8
CSLAYER1
  6
CONTINUOUS
 62
     5
 10
2844.996522
 20
150.485487
 11
2845.022790
 21
148.317368
  0
LINE
  8
CSLAYER1
  6
CONTINUOUS
 62
     5
 10
2845.022790
 20
148.317368
 11
2845.230188
 21
147.556908
  0
LINE
  8
CSLAYER1
  6
CONTINUOUS
 62
     5
 10
2845.230188
 20
147.556908
 11
2845.817816
 21
146.831016
  0
LINE
  8
CSLAYER1
  6
CONTINUOUS
 62
     5
 10
2845.817816
 20
146.831016
 11
2846.405444
 21
146.900148
  0
LINE
  8
CSLAYER1
  6
CONTINUOUS
 62
     5
 10
2846.405444
 20
146.900148
 11
2847.027638
 21
147.072980
  0
LINE
  8
CSLAYER1
  6
CONTINUOUS
 62
     5
 10
2847.027638
 20
147.072980
 11
2847.442434
 21
146.900148
  0
LINE
  8
CSLAYER1
  6
CONTINUOUS
 62
     5
 10
2847.442434
 20
146.900148
 11
2848.341158
 21
146.450786
  0
LINE
  8
CSLAYER1
  6
CONTINUOUS
 62
     5
 10
2848.341158
 20
146.450786
 11
2849.117210
 21
146.039811
  0
LINE
  8
CSLAYER1
  6
CONTINUOUS
 62
     5
 10
2849.117210
 20
146.039811
 11
2849.620112
 21
146.070556
  0
LINE
  8
CSLAYER1
  6
CONTINUOUS
 62
     5
 10
2849.620112
 20
146.070556
 11
2852.427984
 21
147.517036
  0
LINE
  8
CSLAYER1
  6
CONTINUOUS
 62
     5
 10
2842.880352
 20
155.132456
 11
2843.213203
 21
156.606163
  0
LINE
  8
CSLAYER1
  6
CONTINUOUS
 62
     5
 10
2843.213203
 20
156.606163
 11
2844.666609
 21
156.756515
  0
LINE
  8
CSLAYER1
  6
CONTINUOUS
 62
     5
 10
2846.160367
 20
159.524974
 11
2847.914540
 21
159.682064
  0
LINE
  8
CSLAYER1
  6
CONTINUOUS
 62
     5
 10
2847.914540
 20
159.682064
 11
2851.449068
 21
160.519878
  0
LINE
  8
CSLAYER1
  6
CONTINUOUS
 62
     5
 10
2851.449068
 20
160.519878
 11
2852.880352
 21
160.851517
  0
LINE
  8
CSLAYER1
  6
CONTINUOUS
 62
     5
 10
2846.160367
 20
159.524974
 11
2844.227476
 21
159.683842
  0
LINE
  8
CSLAYER1
  6
CONTINUOUS
 62
     5
 10
2843.491353
 20
158.815155
 11
2843.584878
 21
158.443993
  0
LINE
  8
CSLAYER1
  6
CONTINUOUS
 62
     5
 10
2843.584878
 20
158.443993
 11
2844.076472
 21
157.906312
  0
LINE
  8
CSLAYER1
  6
CONTINUOUS
 62
     5
 10
2844.076472
 20
157.906312
 11
2844.752414
 21
157.399356
  0
LINE
  8
CSLAYER1
  6
CONTINUOUS
 62
     5
 10
2844.752414
 20
157.399356
 11
2844.875739
 21
157.234923
  0
LINE
  8
CSLAYER1
  6
CONTINUOUS
 62
     5
 10
2843.457309
 20
152.594778
 11
2844.996522
 21
150.485487
  0
ARC
  8
CSLAYER1
  6
CONTINUOUS
 62
     5
 10
2887.867052
 20
-17.618841
 40
180.727463
 50
80.438896
 51
96.353582
  0
ARC
  8
CSLAYER1
  6
CONTINUOUS
 62
     5
 10
2862.968139
 20
127.629059
 40
34.720242
 50
81.866516
 51
106.890578
  0
LINE
  8
CSLAYER1
  6
CONTINUOUS
 62
     5
 10
2922.074613
 20
159.806482
 11
2924.321695
 21
158.785080
  0
LINE
  8
CSLAYER1
  6
CONTINUOUS
 62
     5
 10
2927.896600
 20
157.201909
 11
2924.321695
 21
158.785080
  0
LINE
  8
CSLAYER1
  6
CONTINUOUS
 62
     5
 10
2922.074613
 20
159.806482
 11
2917.880352
 21
160.599053
  0
LINE
  8
CSLAYER1
  6
CONTINUOUS
 62
     5
 10
2927.880352
 20
157.209104
 11
2929.751927
 21
155.640627
  0
LINE
  8
CSLAYER1
  6
CONTINUOUS
 62
     5
 10
2911.123608
 20
158.245955
 11
2912.022882
 21
159.698630
  0
LINE
  8
CSLAYER1
  6
CONTINUOUS
 62
     5
 10
2912.022882
 20
159.698630
 11
2916.698481
 21
158.579120
  0
LINE
  8
CSLAYER1
  6
CONTINUOUS
 62
     5
 10
2916.698481
 20
158.579120
 11
2933.440867
 21
154.039811
  0
LINE
  8
CSLAYER1
  6
CONTINUOUS
 62
     5
 10
2936.380352
 20
154.039811
 11
2929.751927
 21
155.640627
  0
LINE
  8
CSLAYER1
  6
CONTINUOUS
 62
     5
 10
2933.440867
 20
154.039811
 11
2936.380352
 21
154.039811
  0
LINE
  8
CSLAYER1
  6
CONTINUOUS
 62
     5
 10
2877.880352
 20
158.504753
 11
2897.880352
 21
159.039811
  0
LINE
  8
CSLAYER1
  6
CONTINUOUS
 62
     5
 10
2897.880352
 20
159.039811
 11
2911.123608
 21
158.245955
  0
LINE
  8
CSLAYER1
  6
CONTINUOUS
 62
     5
 10
2912.726589
 20
156.185475
 11
2897.880352
 21
157.539811
  0
LINE
  8
CSLAYER1
  6
CONTINUOUS
 62
     5
 10
2897.880352
 20
157.539811
 11
2882.831142
 21
157.948463
  0
LINE
  8
CSLAYER1
  6
CONTINUOUS
 62
     5
 10
2882.880352
 20
157.947127
 11
2877.880352
 21
158.042421
  0
LINE
  8
CSLAYER1
  6
CONTINUOUS
 62
     5
 10
2877.880352
 20
158.504753
 11
2877.880352
 21
158.042421
  0
LINE
  8
CSLAYER1
  6
CONTINUOUS
 62
     5
 10
2935.380352
 20
150.539811
 11
2926.537793
 21
152.850474
  0
LINE
  8
CSLAYER1
  6
CONTINUOUS
 62
     5
 10
2912.726589
 20
156.185475
 11
2922.880352
 21
154.213092
  0
LINE
  8
CSLAYER1
  6
CONTINUOUS
 62
     5
 10
2922.880352
 20
154.213092
 11
2926.537793
 21
152.850474
  0
LINE
  8
CSLAYER1
  6
CONTINUOUS
 62
     5
 10
2935.380352
 20
150.539811
 11
2935.087734
 21
149.700706
  0
LINE
  8
CSLAYER1
  6
CONTINUOUS
 62
     5
 10
2944.880352
 20
145.039811
 11
2944.574324
 21
146.268792
  0
LINE
  8
CSLAYER1
  6
CONTINUOUS
 62
     5
 10
2935.087734
 20
149.700706
 11
2944.574324
 21
146.268792
  0
LINE
  8
CSLAYER1
  6
CONTINUOUS
 62
     5
 10
2881.380352
 20
150.539811
 11
2883.803390
 21
150.539811
  0
LINE
  8
CSLAYER1
  6
CONTINUOUS
 62
     5
 10
2903.880352
 20
150.972307
 11
2903.880352
 21
150.539811
  0
LINE
  8
CSLAYER1
  6
CONTINUOUS
 62
     5
 10
2902.880352
 20
151.506748
 11
2901.169072
 21
152.143926
  0
LINE
  8
CSLAYER1
  6
CONTINUOUS
 62
     5
 10
2901.169072
 20
152.143926
 11
2900.059016
 21
152.194383
  0
LINE
  8
CSLAYER1
  6
CONTINUOUS
 62
     5
 10
2900.059016
 20
152.194383
 11
2899.579674
 21
151.942098
  0
LINE
  8
CSLAYER1
  6
CONTINUOUS
 62
     5
 10
2899.579674
 20
151.942098
 11
2899.478760
 21
151.538441
  0
LINE
  8
CSLAYER1
  6
CONTINUOUS
 62
     5
 10
2899.478760
 20
151.538441
 11
2899.932874
 21
151.235699
  0
LINE
  8
CSLAYER1
  6
CONTINUOUS
 62
     5
 10
2899.932874
 20
151.235699
 11
2901.572729
 21
151.084327
  0
LINE
  8
CSLAYER1
  6
CONTINUOUS
 62
     5
 10
2901.572729
 20
151.084327
 11
2903.880352
 21
150.972307
  0
LINE
  8
CSLAYER1
  6
CONTINUOUS
 62
     5
 10
2944.880352
 20
145.039811
 11
2941.904809
 21
146.226393
  0
LINE
  8
CSLAYER1
  6
CONTINUOUS
 62
     5
 10
2941.904809
 20
146.226393
 11
2931.849119
 21
148.069268
  0
LINE
  8
CSLAYER1
  6
CONTINUOUS
 62
     5
 10
2931.849119
 20
148.069268
 11
2926.823339
 21
149.229064
  0
LINE
  8
CSLAYER1
  6
CONTINUOUS
 62
     5
 10
2904.414573
 20
151.539811
 11
2916.180238
 21
151.539811
  0
LINE
  8
CSLAYER1
  6
CONTINUOUS
 62
     5
 10
2902.880352
 20
151.506748
 11
2903.405011
 21
151.198281
  0
LINE
  8
CSLAYER1
  6
CONTINUOUS
 62
     5
 10
2903.405011
 20
151.198281
 11
2903.701823
 21
151.109237
  0
LINE
  8
CSLAYER1
  6
CONTINUOUS
 62
     5
 10
2903.701823
 20
151.109237
 11
2903.880352
 21
151.134407
  0
LINE
  8
CSLAYER1
  6
CONTINUOUS
 62
     5
 10
2903.880352
 20
151.134407
 11
2904.414573
 21
151.539811
  0
LINE
  8
CSLAYER1
  6
CONTINUOUS
 62
     5
 10
2916.180238
 20
151.539811
 11
2920.630507
 21
150.510986
  0
LINE
  8
CSLAYER1
  6
CONTINUOUS
 62
     5
 10
2920.630507
 20
150.510986
 11
2924.783699
 21
149.345837
  0
LINE
  8
CSLAYER1
  6
CONTINUOUS
 62
     5
 10
2924.783699
 20
149.345837
 11
2926.823339
 21
149.229064
  0
LINE
  8
CSLAYER1
  6
CONTINUOUS
 62
     5
 10
2880.380352
 20
149.539811
 11
2880.380352
 21
149.039811
  0
LINE
  8
CSLAYER1
  6
CONTINUOUS
 62
     5
 10
2877.880352
 20
149.039811
 11
2880.380352
 21
149.039811
  0
ARC
  8
CSLAYER1
  6
CONTINUOUS
 62
     5
 10
2881.380352
 20
149.539811
 40
1.000000
 50
90.000000
 51
180.000000
  0
LINE
  8
CSLAYER1
  6
CONTINUOUS
 62
     5
 10
2883.803390
 20
150.539811
 11
2884.500946
 21
149.967815
  0
LINE
  8
CSLAYER1
  6
CONTINUOUS
 62
     5
 10
2885.103315
 20
149.943854
 11
2885.960911
 21
150.539811
  0
LINE
  8
CSLAYER1
  6
CONTINUOUS
 62
     5
 10
2887.539307
 20
150.539811
 11
2889.206433
 21
149.881736
  0
LINE
  8
CSLAYER1
  6
CONTINUOUS
 62
     5
 10
2889.630142
 20
149.908248
 11
2890.783629
 21
150.539811
  0
LINE
  8
CSLAYER1
  6
CONTINUOUS
 62
     5
 10
2885.960911
 20
150.539811
 11
2887.539307
 21
150.539811
  0
LINE
  8
CSLAYER1
  6
CONTINUOUS
 62
     5
 10
2890.783629
 20
150.539811
 11
2903.880352
 21
150.539811
  0
LINE
  8
CSLAYER1
  6
CONTINUOUS
 62
     5
 10
2856.429335
 20
147.430985
 11
2877.880352
 21
149.039811
  0
LINE
  8
CSLAYER1
  6
CONTINUOUS
 62
     5
 10
2852.427984
 20
147.517036
 11
2856.429335
 21
147.430985
  0
ARC
  8
CSLAYER1
  6
CONTINUOUS
 62
     5
 10
2884.817986
 20
150.354449
 40
0.500000
 50
230.648247
 51
304.796026
  0
ARC
  8
CSLAYER1
  6
CONTINUOUS
 62
     5
 10
2889.390016
 20
150.346813
 40
0.500000
 50
248.459024
 51
298.701829
  0
ARC
  8
CSLAYER1
  6
CONTINUOUS
 62
     5
 10
2844.635739
 20
157.054923
 40
0.300000
 50
-84.093859
 51
36.869898
  0
ARC
  8
CSLAYER1
  6
CONTINUOUS
 62
     5
 10
2844.170135
 20
158.986194
 40
0.700000
 50
85.301319
 51
194.142980
  0
LINE
  8
CSLAYER1
  6
CONTINUOUS
 62
     3
 10
2876.362176
 20
141.772967
 11
2884.472671
 21
141.772967
  0
LINE
  8
CSLAYER1
  6
CONTINUOUS
 62
     3
 10
2869.949660
 20
140.172967
 11
2887.593000
 21
140.172967
  0
LINE
  8
CSLAYER1
  6
CONTINUOUS
 62
     3
 10
2866.536721
 20
138.572967
 11
2890.468365
 21
138.572967
  0
LINE
  8
CSLAYER1
  6
CONTINUOUS
 62
     3
 10
2864.301401
 20
136.972967
 11
2892.311838
 21
136.972967
  0
LINE
  8
CSLAYER1
  6
CONTINUOUS
 62
     3
 10
2862.805745
 20
135.372967
 11
2893.546124
 21
135.372967
  0
LINE
  8
CSLAYER1
  6
CONTINUOUS
 62
     3
 10
2861.585431
 20
133.772967
 11
2894.595500
 21
133.772967
  0
LINE
  8
CSLAYER1
  6
CONTINUOUS
 62
     3
 10
2860.893539
 20
132.172967
 11
2895.321375
 21
132.172967
  0
LINE
  8
CSLAYER1
  6
CONTINUOUS
 62
     3
 10
2860.201647
 20
130.572967
 11
2895.659761
 21
130.572967
  0
LINE
  8
CSLAYER1
  6
CONTINUOUS
 62
     3
 10
2859.553297
 20
128.972967
 11
2895.998147
 21
128.972967
  0
LINE
  8
CSLAYER1
  6
CONTINUOUS
 62
     3
 10
2859.231638
 20
127.372967
 11
2896.336534
 21
127.372967
  0
LINE
  8
CSLAYER1
  6
CONTINUOUS
 62
     3
 10
2858.909979
 20
125.772967
 11
2874.500222
 21
125.772967
  0
LINE
  8
CSLAYER1
  6
CONTINUOUS
 62
     3
 10
2858.588320
 20
124.172967
 11
2872.967961
 21
124.172967
  0
LINE
  8
CSLAYER1
  6
CONTINUOUS
 62
     3
 10
2858.266661
 20
122.572967
 11
2872.179791
 21
122.572967
  0
LINE
  8
CSLAYER1
  6
CONTINUOUS
 62
     3
 10
2858.025544
 20
120.972967
 11
2871.861024
 21
120.972967
  0
LINE
  8
CSLAYER1
  6
CONTINUOUS
 62
     3
 10
2857.905374
 20
119.372967
 11
2871.911045
 21
119.372967
  0
LINE
  8
CSLAYER1
  6
CONTINUOUS
 62
     3
 10
2857.880352
 20
117.772967
 11
2872.457132
 21
117.772967
  0
LINE
  8
CSLAYER1
  6
CONTINUOUS
 62
     3
 10
2858.379540
 20
116.172967
 11
2874.487134
 21
116.172967
  0
LINE
  8
CSLAYER1
  6
CONTINUOUS
 62
     3
 10
2859.090651
 20
114.572967
 11
2891.618506
 21
114.572967
  0
LINE
  8
CSLAYER1
  6
CONTINUOUS
 62
     3
 10
2859.801762
 20
112.972967
 11
2891.167224
 21
112.972967
  0
LINE
  8
CSLAYER1
  6
CONTINUOUS
 62
     3
 10
2860.512873
 20
111.372967
 11
2890.444200
 21
111.372967
  0
LINE
  8
CSLAYER1
  6
CONTINUOUS
 62
     3
 10
2861.474832
 20
109.772967
 11
2889.546013
 21
109.772967
  0
LINE
  8
CSLAYER1
  6
CONTINUOUS
 62
     3
 10
2862.723293
 20
108.172967
 11
2888.041087
 21
108.172967
  0
LINE
  8
CSLAYER1
  6
CONTINUOUS
 62
     3
 10
2864.328713
 20
106.572967
 11
2885.648626
 21
106.572967
  0
LINE
  8
CSLAYER1
  6
CONTINUOUS
 62
     3
 10
2866.475855
 20
104.972967
 11
2882.523503
 21
104.972967
  0
LINE
  8
CSLAYER1
  6
CONTINUOUS
 62
     3
 10
2869.723545
 20
103.372967
 11
2877.885354
 21
103.372967
  0
LINE
  8
CSLAYER1
  6
CONTINUOUS
 62
     3
 10
2879.692046
 20
125.772967
 11
2896.511783
 21
125.772967
  0
LINE
  8
CSLAYER1
  6
CONTINUOUS
 62
     3
 10
2880.362790
 20
124.172967
 11
2896.386014
 21
124.172967
  0
LINE
  8
CSLAYER1
  6
CONTINUOUS
 62
     3
 10
2880.474797
 20
122.572967
 11
2896.260244
 21
122.572967
  0
LINE
  8
CSLAYER1
  6
CONTINUOUS
 62
     3
 10
2880.229440
 20
120.972967
 11
2895.546388
 21
120.972967
  0
LINE
  8
CSLAYER1
  6
CONTINUOUS
 62
     3
 10
2879.577794
 20
119.372967
 11
2894.825188
 21
119.372967
  0
LINE
  8
CSLAYER1
  6
CONTINUOUS
 62
     3
 10
2878.444531
 20
117.772967
 11
2893.891240
 21
117.772967
  0
LINE
  8
CSLAYER1
  6
CONTINUOUS
 62
     3
 10
2876.188535
 20
116.172967
 11
2892.620533
 21
116.172967
  0
TEXT
  8
CSLAYER1
 62
     5
 10
2897.052275
 20
123.784137
 40
4.713448
 41
1.951056
  1
M
 50
0.000000
 51
0.000000
  7
EASYDRAW_FONT
 72
     5
 11
2903.183077
 21
123.784137
  0
TEXT
  8
CSLAYER1
 62
     5
 10
2906.703662
 20
123.725867
 40
4.626621
 41
0.778201
  1
T
 50
0.000000
 51
0.000000
  7
EASYDRAW_FONT
 72
     5
 11
2909.103955
 21
123.725867
  0
TEXT
  8
CSLAYER1
 62
     5
 10
2909.469225
 20
123.760666
 40
4.696183
 41
1.055553
  1
E
 50
0.000000
 51
0.000000
  7
EASYDRAW_FONT
 72
     5
 11
2912.773939
 21
123.760666
  0
TEXT
  8
CSLAYER1
 62
     5
 10
2912.585406
 20
125.376510
 40
0.348283
 41
9.375319
  1
-
 50
0.000000
 51
0.000000
  7
EASYDRAW_FONT
 72
     5
 11
2914.762251
 21
125.376510
  0
TEXT
  8
CSLAYER1
 62
     5
 10
2914.399615
 20
123.729319
 40
4.861659
 41
1.298502
  1
H
 50
0.000000
 51
0.000000
  7
EASYDRAW_FONT
 72
     5
 11
2918.608197
 21
123.729319
  0
TEXT
  8
CSLAYER1
 62
     5
 10
2918.475630
 20
123.759697
 40
4.843139
 41
1.269236
  1
A
 50
0.000000
 51
0.000000
  7
EASYDRAW_FONT
 72
     5
 11
2922.573686
 21
123.759697
  0
TEXT
  8
CSLAYER1
 62
     5
 10
2922.181786
 20
123.718171
 40
4.825362
 41
1.490144
  1
N
 50
0.000000
 51
0.000000
  7
EASYDRAW_FONT
 72
     5
 11
2926.975441
 21
123.718171
  0
TEXT
  8
CSLAYER1
 62
     5
 10
2902.973244
 20
123.695598
 40
4.982325
 41
1.177443
  1
A
 50
0.000000
 51
0.000000
  7
EASYDRAW_FONT
 72
     5
 11
2906.884178
 21
123.695598
  0
TEXT
  8
CSLAYER1
 62
     5
 10
2897.419289
 20
116.700358
 40
4.982325
 41
1.177443
  1
A
 50
0.000000
 51
0.000000
  7
EASYDRAW_FONT
 72
     5
 11
2901.330223
 21
116.700358
  0
TEXT
  8
CSLAYER1
 62
     5
 10
2910.203712
 20
116.728679
 40
4.982325
 41
1.177443
  1
A
 50
0.000000
 51
0.000000
  7
EASYDRAW_FONT
 72
     5
 11
2914.114647
 21
116.728679
  0
TEXT
  8
CSLAYER1
 62
     5
 10
2913.964257
 20
116.785676
 40
4.825362
 41
1.490144
  1
N
 50
0.000000
 51
0.000000
  7
EASYDRAW_FONT
 72
     5
 11
2918.757911
 21
116.785676
  0
TEXT
  8
CSLAYER1
 62
     5
 10
2922.866593
 20
116.794070
 40
4.841775
 41
1.184218
  1
E
 50
0.000000
 51
0.000000
  7
EASYDRAW_FONT
 72
     5
 11
2926.689071
 21
116.794070
  0
TEXT
  8
CSLAYER1
 62
     5
 10
2901.699842
 20
116.699034
 40
4.947865
 41
1.093992
  1
D
 50
0.000000
 51
0.000000
  7
EASYDRAW_FONT
 72
     5
 11
2905.308459
 21
116.699034
  0
TEXT
  8
CSLAYER1
 62
     5
 10
2906.102201
 20
116.693649
 40
4.924210
 41
1.228195
  1
V
 50
0.000000
 51
0.000000
  7
EASYDRAW_FONT
 72
     5
 11
2910.134128
 21
116.693649
  0
TEXT
  8
CSLAYER1
 62
     5
 10
2918.327402
 20
116.714381
 40
5.032894
 41
1.481023
  1
C
 50
0.000000
 51
0.000000
  7
EASYDRAW_FONT
 72
     5
 11
2923.296622
 21
116.714381
  0
LINE
  8
CSLAYER1
  6
CONTINUOUS
 62
     5
 10
2908.957688
 20
127.774784
 11
2907.945627
 21
127.774784
  0
LINE
  8
CSLAYER1
  6
CONTINUOUS
 62
     3
 10
2858.055927
 20
162.000055
 11
2907.853753
 21
162.000055
  0
LINE
  8
CSLAYER1
  6
CONTINUOUS
 62
     3
 10
2850.943563
 20
160.400055
 11
2918.933444
 21
160.400055
  0
LINE
  8
CSLAYER1
  6
CONTINUOUS
 62
     3
 10
2843.495158
 20
158.800055
 11
2888.918468
 21
158.800055
  0
LINE
  8
CSLAYER1
  6
CONTINUOUS
 62
     3
 10
2901.880018
 20
158.800055
 11
2911.466622
 21
158.800055
  0
LINE
  8
CSLAYER1
  6
CONTINUOUS
 62
     3
 10
2915.775755
 20
158.800055
 11
2924.288752
 21
158.800055
  0
LINE
  8
CSLAYER1
  6
CONTINUOUS
 62
     3
 10
2844.898297
 20
157.200055
 11
2901.604766
 21
157.200055
  0
LINE
  8
CSLAYER1
  6
CONTINUOUS
 62
     3
 10
2921.784905
 20
157.200055
 11
2927.891150
 21
157.200055
  0
LINE
  8
CSLAYER1
  6
CONTINUOUS
 62
     3
 10
2842.985964
 20
155.600055
 11
2915.740314
 21
155.600055
  0
LINE
  8
CSLAYER1
  6
CONTINUOUS
 62
     3
 10
2927.686203
 20
155.600055
 11
2929.919925
 21
155.600055
  0
LINE
  8
CSLAYER1
  6
CONTINUOUS
 62
     3
 10
2841.923738
 20
154.000055
 11
2923.452171
 21
154.000055
  0
LINE
  8
CSLAYER1
  6
CONTINUOUS
 62
     3
 10
2843.599405
 20
152.400055
 11
2928.261479
 21
152.400055
  0
LINE
  8
CSLAYER1
  6
CONTINUOUS
 62
     3
 10
2844.766973
 20
150.800055
 11
2903.880352
 21
150.800055
  0
LINE
  8
CSLAYER1
  6
CONTINUOUS
 62
     3
 10
2919.380117
 20
150.800055
 11
2934.384440
 21
150.800055
  0
LINE
  8
CSLAYER1
  6
CONTINUOUS
 62
     3
 10
2845.012096
 20
149.200055
 11
2880.380352
 21
149.200055
  0
LINE
  8
CSLAYER1
  6
CONTINUOUS
 62
     3
 10
2926.949045
 20
149.200055
 11
2936.471648
 21
149.200055
  0
LINE
  8
CSLAYER1
  6
CONTINUOUS
 62
     3
 10
2845.218421
 20
147.600055
 11
2858.683595
 21
147.600055
  0
LINE
  8
CSLAYER1
  6
CONTINUOUS
 62
     3
 10
2934.409394
 20
147.600055
 11
2940.894412
 21
147.600055
  0
LINE
  8
CSLAYER1
  6
CONTINUOUS
 62
     3
 10
2942.472388
 20
146.000055
 11
2944.641242
 21
146.000055
  0
ENDBLK
  8
0
  0
ENDSEC
  0
SECTION
  2
ENTITIES
  0
LINE
  8
CSLAYER1
  6
CONTINUOUS
 62
     3
 10
212.995746
 20
2444.761291
 11
212.995746
 21
96.214360
  0
LINE
  8
CSLAYER1
  6
CONTINUOUS
 62
     3
 10
3535.569057
 20
2444.761291
 11
212.995746
 21
2444.761291
  0
LINE
  8
CSLAYER1
  6
CONTINUOUS
 62
     3
 10
3535.569057
 20
2444.761291
 11
3535.569057
 21
96.214360
  0
LINE
  8
CSLAYER1
  6
CONTINUOUS
 62
     3
 10
3535.569057
 20
96.214360
 11
212.995746
 21
96.214360
  0
LINE
  8
CSLAYER1
  6
CONTINUOUS
 62
     5
 10
162.995746
 20
1256.214360
 11
112.995746
 21
1256.214360
  0
LINE
  8
CSLAYER1
  6
CONTINUOUS
 62
     5
 10
3461.569057
 20
2344.761291
 11
2581.569057
 21
2344.761291
  0
LINE
  8
CSLAYER1
  6
CONTINUOUS
 62
     5
 10
3461.569057
 20
2291.427957
 11
2581.569057
 21
2291.427957
  0
LINE
  8
CSLAYER1
  6
CONTINUOUS
 62
     5
 10
3461.569057
 20
2238.094624
 11
2581.569057
 21
2238.094624
  0
LINE
  8
CSLAYER1
  6
CONTINUOUS
 62
     5
 10
3461.569057
 20
2131.427957
 11
2581.569057
 21
2131.427957
  0
LINE
  8
CSLAYER1
  6
CONTINUOUS
 62
     5
 10
3461.569057
 20
2024.761291
 11
2581.569057
 21
2024.761291
  0
LINE
  8
CSLAYER1
  6
CONTINUOUS
 62
     5
 10
3461.569057
 20
1811.427957
 11
2581.569057
 21
1811.427957
  0
LINE
  8
CSLAYER1
  6
CONTINUOUS
 62
     5
 10
3461.569057
 20
1598.094621
 11
2581.569057
 21
1598.094621
  0
LINE
  8
CSLAYER1
  6
CONTINUOUS
 62
     5
 10
3461.569057
 20
1544.761287
 11
2581.569057
 21
1544.761287
  0
TEXT
  8
CSLAYER1
 62
     3
 10
2594.902100
 20
2351.427734
 40
40.000000
 41
0.838235
  1
仕    様
 50
0.000000
 51
0.000000
  7
EASYDRAW_FONT
 72
     5
 11
2784.902100
 21
2351.427734
  0
TEXT
  8
CSLAYER1
 62
     3
 10
2594.902100
 20
2298.094482
 40
40.000000
 41
0.838235
  1
型    式
 50
0.000000
 51
0.000000
  7
EASYDRAW_FONT
 72
     5
 11
2784.902100
 21
2298.094482
  0
TEXT
  8
CSLAYER1
 62
     3
 10
2959.902100
 20
2298.094482
 40
40.000000
 41
0.817105
  1
GLSE-350-3008
 50
0.000000
 51
0.000000
  7
EASYDRAW_FONT
 72
     5
 11
3373.902100
 21
2298.094482
  0
TEXT
  8
CSLAYER1
 62
     3
 10
2594.902100
 20
2244.761230
 40
40.000000
 41
0.859091
  1
均等荷重
 50
0.000000
 51
0.000000
  7
EASYDRAW_FONT
 72
     5
 11
2720.902100
 21
2244.761230
  0
TEXT
  8
CSLAYER1
 62
     3
 10
3386.235352
 20
2244.761230
 40
40.000000
 41
0.930000
  1
ｋｇ
 50
0.000000
 51
0.000000
  7
EASYDRAW_FONT
 72
     5
 11
3448.235352
 21
2244.761230
  0
TEXT
  8
CSLAYER1
 62
     3
 10
2594.902100
 20
2138.094482
 40
40.000000
 41
0.838235
  1
テーブル高サ
 50
0.000000
 51
0.000000
  7
EASYDRAW_FONT
 72
     5
 11
2784.902100
 21
2138.094482
  0
TEXT
  8
CSLAYER1
 62
     3
 10
3386.235352
 20
2138.094482
 40
40.000000
 41
0.930000
  1
ｍｍ
 50
0.000000
 51
0.000000
  7
EASYDRAW_FONT
 72
     5
 11
3448.235352
 21
2138.094482
  0
TEXT
  8
CSLAYER1
 62
     3
 10
2594.902100
 20
2031.427734
 40
40.000000
 41
0.838235
  1
全    長
 50
0.000000
 51
0.000000
  7
EASYDRAW_FONT
 72
     5
 11
2784.902100
 21
2031.427734
  0
TEXT
  8
CSLAYER1
 62
     3
 10
3119.902100
 20
2031.427734
 40
40.000000
 41
0.881250
  1
803
 50
0.000000
 51
0.000000
  7
EASYDRAW_FONT
 72
     5
 11
3213.902100
 21
2031.427734
  0
TEXT
  8
CSLAYER1
 62
     3
 10
3055.902100
 20
1818.094360
 40
40.000000
 41
0.832500
  1
フットスイッチ
 50
0.000000
 51
0.000000
  7
EASYDRAW_FONT
 72
     5
 11
3277.902100
 21
1818.094360
  0
TEXT
  8
CSLAYER1
 62
     3
 10
2594.902100
 20
1818.094360
 40
40.000000
 41
0.859091
  1
操作方式
 50
0.000000
 51
0.000000
  7
EASYDRAW_FONT
 72
     5
 11
2720.902100
 21
1818.094360
  0
TEXT
  8
CSLAYER1
 62
     3
 10
2594.902100
 20
1551.427734
 40
40.000000
 41
0.832500
  1
自     重
 50
0.000000
 51
0.000000
  7
EASYDRAW_FONT
 72
     5
 11
2816.902100
 21
1551.427734
  0
TEXT
  8
CSLAYER1
 62
     3
 10
3110.568848
 20
1551.427734
 40
40.000000
 41
0.859091
  1
約 64
 50
0.000000
 51
0.000000
  7
EASYDRAW_FONT
 72
     5
 11
3236.568848
 21
1551.427734
  0
TEXT
  8
CSLAYER1
 62
     3
 10
2594.902100
 20
1498.094482
 40
40.000000
 41
0.832500
  1
塗  装  色
 50
0.000000
 51
0.000000
  7
EASYDRAW_FONT
 72
     5
 11
2816.902100
 21
1498.094482
  0
TEXT
  8
CSLAYER1
 62
     3
 10
3119.902100
 20
2244.761230
 40
40.000000
 41
0.881250
  1
350
 50
0.000000
 51
0.000000
  7
EASYDRAW_FONT
 72
     5
 11
3213.902100
 21
2244.761230
  0
TEXT
  8
CSLAYER1
 62
     3
 10
3055.902100
 20
2138.094482
 40
40.000000
 41
0.832500
  1
100～600
 50
0.000000
 51
0.000000
  7
EASYDRAW_FONT
 72
     5
 11
3277.902100
 21
2138.094482
  0
TEXT
  8
CSLAYER1
 62
     3
 10
3386.235352
 20
2031.427734
 40
40.000000
 41
0.930000
  1
ｍｍ
 50
0.000000
 51
0.000000
  7
EASYDRAW_FONT
 72
     5
 11
3448.235352
 21
2031.427734
  0
LINE
  8
CSLAYER1
  6
CONTINUOUS
 62
     5
 10
3461.569057
 20
1971.427957
 11
2581.569057
 21
1971.427957
  0
TEXT
  8
CSLAYER1
 62
     3
 10
2594.902100
 20
1978.094360
 40
40.000000
 41
0.838235
  1
全    幅
 50
0.000000
 51
0.000000
  7
EASYDRAW_FONT
 72
     5
 11
2784.902100
 21
1978.094360
  0
TEXT
  8
CSLAYER1
 62
     3
 10
3119.902100
 20
1978.094360
 40
40.000000
 41
0.881250
  1
300
 50
0.000000
 51
0.000000
  7
EASYDRAW_FONT
 72
     5
 11
3213.902100
 21
1978.094360
  0
TEXT
  8
CSLAYER1
 62
     3
 10
3386.235352
 20
1978.094360
 40
40.000000
 41
0.930000
  1
ｍｍ
 50
0.000000
 51
0.000000
  7
EASYDRAW_FONT
 72
     5
 11
3448.235352
 21
1978.094360
  0
LINE
  8
CSLAYER1
  6
CONTINUOUS
 62
     5
 10
3461.569057
 20
1651.427957
 11
2581.569057
 21
1651.427957
  0
TEXT
  8
CSLAYER1
 62
     3
 10
3022.864502
 20
1603.362671
 40
40.000000
 41
0.825000
  1
油圧ユニット別置型
 50
0.000000
 51
0.000000
  7
EASYDRAW_FONT
 72
     5
 11
3308.864502
 21
1603.362671
  0
LINE
  8
CSLAYER1
  6
CONTINUOUS
 62
     5
 10
3461.569057
 20
1598.094624
 11
2581.569057
 21
1598.094624
  0
TEXT
  8
CSLAYER1
 62
     3
 10
3386.235352
 20
1551.427734
 40
40.000000
 41
0.930000
  1
ｋｇ
 50
0.000000
 51
0.000000
  7
EASYDRAW_FONT
 72
     5
 11
3448.235352
 21
1551.427734
  0
LINE
  8
CSLAYER1
  6
CONTINUOUS
 62
     5
 10
3461.569057
 20
2184.761291
 11
2581.569057
 21
2184.761291
  0
TEXT
  8
CSLAYER1
 62
     3
 10
2594.902100
 20
2191.427979
 40
40.000000
 41
0.838235
  1
テーブル寸法
 50
0.000000
 51
0.000000
  7
EASYDRAW_FONT
 72
     5
 11
2784.902100
 21
2191.427979
  0
TEXT
  8
CSLAYER1
 62
     3
 10
3386.235352
 20
2191.427979
 40
40.000000
 41
0.930000
  1
ｍｍ
 50
0.000000
 51
0.000000
  7
EASYDRAW_FONT
 72
     5
 11
3448.235352
 21
2191.427979
  0
TEXT
  8
CSLAYER1
 62
     3
 10
3023.902100
 20
2191.427979
 40
40.000000
 41
0.825000
  1
800L×300W
 50
0.000000
 51
0.000000
  7
EASYDRAW_FONT
 72
     5
 11
3309.902100
 21
2191.427979
  0
LINE
  8
CSLAYER1
  6
CONTINUOUS
 62
     5
 10
3461.569057
 20
2078.094624
 11
2581.569057
 21
2078.094624
  0
TEXT
  8
CSLAYER1
 62
     3
 10
3386.235352
 20
2084.761230
 40
40.000000
 41
0.930000
  1
ｍｍ
 50
0.000000
 51
0.000000
  7
EASYDRAW_FONT
 72
     5
 11
3448.235352
 21
2084.761230
  0
TEXT
  8
CSLAYER1
 62
     3
 10
3119.902100
 20
2084.761230
 40
40.000000
 41
0.881250
  1
500
 50
0.000000
 51
0.000000
  7
EASYDRAW_FONT
 72
     5
 11
3213.902100
 21
2084.761230
  0
TEXT
  8
CSLAYER1
 62
     3
 10
2596.734619
 20
2084.761230
 40
40.000000
 41
0.846429
  1
ストローク
 50
0.000000
 51
0.000000
  7
EASYDRAW_FONT
 72
     5
 11
2754.734619
 21
2084.761230
  0
LINE
  8
CSLAYER1
  6
CONTINUOUS
 62
     5
 10
3461.569057
 20
1918.094624
 11
2581.569057
 21
1918.094624
  0
TEXT
  8
CSLAYER1
 62
     3
 10
2594.902100
 20
1924.761108
 40
40.000000
 41
0.838235
  1
全    高
 50
0.000000
 51
0.000000
  7
EASYDRAW_FONT
 72
     5
 11
2784.902100
 21
1924.761108
  0
TEXT
  8
CSLAYER1
 62
     3
 10
3119.902100
 20
1924.761108
 40
40.000000
 41
0.881250
  1
100
 50
0.000000
 51
0.000000
  7
EASYDRAW_FONT
 72
     5
 11
3213.902100
 21
1924.761108
  0
TEXT
  8
CSLAYER1
 62
     3
 10
3386.235352
 20
1924.761108
 40
40.000000
 41
0.930000
  1
ｍｍ
 50
0.000000
 51
0.000000
  7
EASYDRAW_FONT
 72
     5
 11
3448.235352
 21
1924.761108
  0
LINE
  8
CSLAYER1
  6
CONTINUOUS
 62
     5
 10
3461.569057
 20
1864.761291
 11
2581.569057
 21
1864.761291
  0
TEXT
  8
CSLAYER1
 62
     3
 10
2594.902100
 20
1871.427734
 40
40.000000
 41
0.846429
  1
リフト方式
 50
0.000000
 51
0.000000
  7
EASYDRAW_FONT
 72
     5
 11
2752.902100
 21
1871.427734
  0
TEXT
  8
CSLAYER1
 62
     3
 10
3087.902100
 20
1871.427734
 40
40.000000
 41
0.846429
  1
電動油圧式
 50
0.000000
 51
0.000000
  7
EASYDRAW_FONT
 72
     5
 11
3245.902100
 21
1871.427734
  0
LINE
  8
CSLAYER1
  6
CONTINUOUS
 62
     5
 10
3461.569057
 20
1704.761291
 11
2581.569057
 21
1704.761291
  0
TEXT
  8
CSLAYER1
 62
     3
 10
3087.902100
 20
1711.427612
 40
40.000000
 41
0.846429
  1
長さ 4m
 50
0.000000
 51
0.000000
  7
EASYDRAW_FONT
 72
     5
 11
3245.902100
 21
1711.427612
  0
TEXT
  8
CSLAYER1
 62
     3
 10
2594.902100
 20
1711.427612
 40
40.000000
 41
0.846429
  1
電源コード
 50
0.000000
 51
0.000000
  7
EASYDRAW_FONT
 72
     5
 11
2752.902100
 21
1711.427612
  0
TEXT
  8
CSLAYER1
 62
     3
 10
2594.902100
 20
1658.094360
 40
40.000000
 41
0.859091
  1
上昇時間
 50
0.000000
 51
0.000000
  7
EASYDRAW_FONT
 72
     5
 11
2720.902100
 21
1658.094360
  0
TEXT
  8
CSLAYER1
 62
     3
 10
2893.902120
 20
1658.094360
 40
40.000000
 41
0.660484
  1
約10sec/50Hz，8sec/60Hz
 50
0.000000
 51
0.000000
  7
EASYDRAW_FONT
 72
     5
 11
3439.902080
 21
1658.094360
  0
LINE
  8
CSLAYER1
  6
CONTINUOUS
 62
     5
 10
3461.569057
 20
1758.094624
 11
2581.569057
 21
1758.094624
  0
TEXT
  8
CSLAYER1
 62
     3
 10
2594.902100
 20
1764.761108
 40
40.000000
 41
0.859091
  1
モーター
 50
0.000000
 51
0.000000
  7
EASYDRAW_FONT
 72
     5
 11
2720.902100
 21
1764.761108
  0
TEXT
  8
CSLAYER1
 62
     3
 10
2927.902100
 20
1764.761108
 40
40.000000
 41
0.814773
  1
AC200V，三相，0.4kw
 50
0.000000
 51
0.000000
  7
EASYDRAW_FONT
 72
     5
 11
3405.902100
 21
1764.761108
  0
LINE
  8
CSLAYER1
  6
CONTINUOUS
 62
     5
 10
2885.569057
 20
1491.427954
 11
2885.569057
 21
1598.094621
  0
LINE
  8
CSLAYER1
  6
CONTINUOUS
 62
     5
 10
2885.569057
 20
1651.427957
 11
2885.569057
 21
2344.761291
  0
TEXT
  8
CSLAYER1
 62
     7
 10
499.045593
 20
2341.147461
 40
34.000000
 41
0.778846
  1
電動式油圧ユニット
 50
0.000000
 51
0.000000
  7
EASYDRAW_FONT
 72
     5
 11
728.545593
 21
2341.147461
  0
LINE
  8
CSLAYER1
  6
CONTINUOUS
 62
     5
 10
262.995746
 20
2394.761291
 11
981.187527
 21
2394.761291
  0
LINE
  8
CSLAYER1
  6
CONTINUOUS
 62
     5
 10
981.187527
 20
2394.761291
 11
981.187527
 21
1693.627020
  0
LINE
  8
CSLAYER1
  6
CONTINUOUS
 62
     5
 10
262.995746
 20
1693.627020
 11
262.995746
 21
2394.761291
  0
TEXT
  8
CSLAYER1
 62
     3
 10
400.053215
 20
2234.752057
 40
33.963734
 41
1.050000
  1
278
 50
30.000000
 51
0.000000
  7
EASYDRAW_FONT
 72
     5
 11
482.410890
 21
2282.301283
  0
TEXT
  8
CSLAYER1
 62
     3
 10
546.128996
 20
2268.844740
 40
33.963734
 41
1.050000
  1
415
 50
-30.000000
 51
0.000000
  7
EASYDRAW_FONT
 72
     5
 11
628.486671
 21
2221.295514
  0
TEXT
  8
CSLAYER1
 62
     3
 10
335.740808
 20
2102.203216
 40
33.963734
 41
1.050000
  1
275
 50
90.000000
 51
0.000000
  7
EASYDRAW_FONT
 72
     5
 11
335.740808
 21
2197.301667
  0
LINE
  8
CSLAYER1
  6
CONTINUOUS
 62
     5
 10
346.583212
 20
2194.758704
 11
383.943319
 21
2173.188837
  0
LINE
  8
CSLAYER1
  6
CONTINUOUS
 62
     5
 10
387.339692
 20
2218.289469
 11
387.339692
 21
2175.149734
  0
LINE
  8
CSLAYER1
  6
CONTINUOUS
 62
     5
 10
645.464065
 20
2206.524087
 11
645.464065
 21
2163.384351
  0
LINE
  8
CSLAYER1
  6
CONTINUOUS
 62
     5
 10
387.339692
 20
2210.445881
 11
506.212759
 21
2279.077278
  0
LINE
  8
CSLAYER1
  6
CONTINUOUS
 62
     5
 10
387.339692
 20
2210.445881
 11
408.552895
 21
2231.659084
  0
LINE
  8
CSLAYER1
  6
CONTINUOUS
 62
     5
 10
387.339692
 20
2210.445881
 11
416.317467
 21
2218.210452
  0
LINE
  8
CSLAYER1
  6
CONTINUOUS
 62
     5
 10
506.212759
 20
2279.077278
 11
484.999555
 21
2257.864074
  0
LINE
  8
CSLAYER1
  6
CONTINUOUS
 62
     5
 10
506.212759
 20
2279.077278
 11
477.234984
 21
2271.312706
  0
LINE
  8
CSLAYER1
  6
CONTINUOUS
 62
     5
 10
506.212759
 20
2279.077278
 11
645.464065
 21
2198.680498
  0
LINE
  8
CSLAYER1
  6
CONTINUOUS
 62
     5
 10
506.212759
 20
2279.077278
 11
535.190533
 21
2271.312706
  0
LINE
  8
CSLAYER1
  6
CONTINUOUS
 62
     5
 10
506.212759
 20
2279.077278
 11
527.425962
 21
2257.864074
  0
LINE
  8
CSLAYER1
  6
CONTINUOUS
 62
     5
 10
645.464065
 20
2198.680498
 11
616.486290
 21
2206.445070
  0
LINE
  8
CSLAYER1
  6
CONTINUOUS
 62
     5
 10
645.464065
 20
2198.680498
 11
624.250862
 21
2219.893702
  0
LINE
  8
CSLAYER1
  6
CONTINUOUS
 62
     5
 10
506.212759
 20
2286.920866
 11
506.212759
 21
2243.781131
  0
LINE
  8
CSLAYER1
  6
CONTINUOUS
 62
     5
 10
353.375959
 20
2190.836910
 11
353.375959
 21
2092.792057
  0
LINE
  8
CSLAYER1
  6
CONTINUOUS
 62
     5
 10
353.375959
 20
2190.836910
 11
345.611387
 21
2161.859135
  0
LINE
  8
CSLAYER1
  6
CONTINUOUS
 62
     5
 10
353.375959
 20
2190.836910
 11
361.140530
 21
2161.859135
  0
LINE
  8
CSLAYER1
  6
CONTINUOUS
 62
     5
 10
353.375959
 20
2092.792057
 11
345.611387
 21
2121.769832
  0
LINE
  8
CSLAYER1
  6
CONTINUOUS
 62
     5
 10
353.375959
 20
2092.792057
 11
361.140530
 21
2121.769832
  0
TEXT
  8
CSLAYER1
 62
     3
 10
761.978436
 20
2175.336004
 40
33.963734
 41
1.028571
  1
高圧ホース
 50
0.000000
 51
0.000000
  7
EASYDRAW_FONT
 72
     5
 11
925.004353
 21
2175.336004
  0
TEXT
  8
CSLAYER1
 62
     3
 10
317.276012
 20
1966.024115
 40
33.963734
 41
1.028571
  1
電源コード
 50
0.000000
 51
0.000000
  7
EASYDRAW_FONT
 72
     5
 11
480.301929
 21
1966.024115
  0
LINE
  8
CSLAYER1
  6
CONTINUOUS
 62
     5
 10
676.670370
 20
2041.291429
 11
750.054885
 21
2168.397137
  0
LINE
  8
CSLAYER1
  6
CONTINUOUS
 62
     5
 10
676.670370
 20
2041.291429
 11
684.434942
 21
2070.269204
  0
LINE
  8
CSLAYER1
  6
CONTINUOUS
 62
     5
 10
676.670370
 20
2041.291429
 11
697.883574
 21
2062.504632
  0
LINE
  8
CSLAYER1
  6
CONTINUOUS
 62
     5
 10
937.662181
 20
2168.397137
 11
750.054885
 21
2168.397137
  0
LINE
  8
CSLAYER1
  6
CONTINUOUS
 62
     5
 10
319.433284
 20
1959.707723
 11
484.114392
 21
1959.707723
  0
LINE
  8
CSLAYER1
  6
CONTINUOUS
 62
     3
 10
526.590999
 20
1992.786307
 11
561.573644
 21
2012.983547
  0
LINE
  8
CSLAYER1
  6
CONTINUOUS
 62
     3
 10
387.339692
 20
2073.183087
 11
395.830625
 21
2068.280844
  0
LINE
  8
CSLAYER1
  6
CONTINUOUS
 62
     3
 10
526.590999
 20
2090.831160
 11
526.590999
 21
1992.786307
  0
LINE
  8
CSLAYER1
  6
CONTINUOUS
 62
     3
 10
526.590999
 20
2090.831160
 11
645.464065
 21
2159.462557
  0
LINE
  8
CSLAYER1
  6
CONTINUOUS
 62
     3
 10
506.212759
 20
2239.859337
 11
645.464065
 21
2159.462557
  0
LINE
  8
CSLAYER1
  6
CONTINUOUS
 62
     3
 10
526.590999
 20
2012.395278
 11
544.591777
 21
2022.788032
  0
LINE
  8
CSLAYER1
  6
CONTINUOUS
 62
     3
 10
610.113913
 20
2101.436095
 11
645.464065
 21
2081.026675
  0
LINE
  8
CSLAYER1
  6
CONTINUOUS
 62
     3
 10
518.100065
 20
1997.688550
 11
526.590999
 21
1992.786307
  0
LINE
  8
CSLAYER1
  6
CONTINUOUS
 62
     3
 10
608.103959
 20
2102.988722
 11
606.875947
 21
2103.578326
  0
LINE
  8
CSLAYER1
  6
CONTINUOUS
 62
     3
 10
606.875947
 20
2103.578326
 11
605.553888
 21
2103.984359
  0
LINE
  8
CSLAYER1
  6
CONTINUOUS
 62
     3
 10
605.553888
 20
2103.984359
 11
604.147843
 21
2104.203731
  0
LINE
  8
CSLAYER1
  6
CONTINUOUS
 62
     3
 10
604.147843
 20
2104.203731
 11
602.668513
 21
2104.234773
  0
LINE
  8
CSLAYER1
  6
CONTINUOUS
 62
     3
 10
602.668513
 20
2104.234773
 11
601.127155
 21
2104.077249
  0
LINE
  8
CSLAYER1
  6
CONTINUOUS
 62
     3
 10
601.127155
 20
2104.077249
 11
599.535502
 21
2103.732357
  0
LINE
  8
CSLAYER1
  6
CONTINUOUS
 62
     3
 10
599.535502
 20
2103.732357
 11
597.905665
 21
2103.202722
  0
LINE
  8
CSLAYER1
  6
CONTINUOUS
 62
     3
 10
597.905665
 20
2103.202722
 11
596.250050
 21
2102.492375
  0
LINE
  8
CSLAYER1
  6
CONTINUOUS
 62
     3
 10
596.250050
 20
2102.492375
 11
594.581257
 21
2101.606722
  0
LINE
  8
CSLAYER1
  6
CONTINUOUS
 62
     3
 10
594.581257
 20
2101.606722
 11
592.911986
 21
2100.552504
  0
LINE
  8
CSLAYER1
  6
CONTINUOUS
 62
     3
 10
592.911986
 20
2100.552504
 11
591.254941
 21
2099.337743
  0
LINE
  8
CSLAYER1
  6
CONTINUOUS
 62
     3
 10
591.254941
 20
2099.337743
 11
589.622734
 21
2097.971686
  0
LINE
  8
CSLAYER1
  6
CONTINUOUS
 62
     3
 10
589.622734
 20
2097.971686
 11
588.027786
 21
2096.464727
  0
LINE
  8
CSLAYER1
  6
CONTINUOUS
 62
     3
 10
588.027786
 20
2096.464727
 11
586.482236
 21
2094.828337
  0
LINE
  8
CSLAYER1
  6
CONTINUOUS
 62
     3
 10
586.482236
 20
2094.828337
 11
584.997846
 21
2093.074969
  0
LINE
  8
CSLAYER1
  6
CONTINUOUS
 62
     3
 10
584.997846
 20
2093.074969
 11
583.585914
 21
2091.217968
  0
LINE
  8
CSLAYER1
  6
CONTINUOUS
 62
     3
 10
583.585914
 20
2091.217968
 11
582.257186
 21
2089.271465
  0
LINE
  8
CSLAYER1
  6
CONTINUOUS
 62
     3
 10
582.257186
 20
2089.271465
 11
581.021773
 21
2087.250276
  0
LINE
  8
CSLAYER1
  6
CONTINUOUS
 62
     3
 10
581.021773
 20
2087.250276
 11
579.889078
 21
2085.169783
  0
LINE
  8
CSLAYER1
  6
CONTINUOUS
 62
     3
 10
579.889078
 20
2085.169783
 11
578.867722
 21
2083.045819
  0
LINE
  8
CSLAYER1
  6
CONTINUOUS
 62
     3
 10
578.867722
 20
2083.045819
 11
577.965477
 21
2080.894549
  0
LINE
  8
CSLAYER1
  6
CONTINUOUS
 62
     3
 10
577.965477
 20
2080.894549
 11
577.189211
 21
2078.732346
  0
LINE
  8
CSLAYER1
  6
CONTINUOUS
 62
     3
 10
577.189211
 20
2078.732346
 11
576.544831
 21
2076.575666
  0
LINE
  8
CSLAYER1
  6
CONTINUOUS
 62
     3
 10
576.544831
 20
2076.575666
 11
576.037240
 21
2074.440921
  0
LINE
  8
CSLAYER1
  6
CONTINUOUS
 62
     3
 10
576.037240
 20
2074.440921
 11
575.670303
 21
2072.344359
  0
LINE
  8
CSLAYER1
  6
CONTINUOUS
 62
     3
 10
575.670303
 20
2072.344359
 11
575.446812
 21
2070.301936
  0
LINE
  8
CSLAYER1
  6
CONTINUOUS
 62
     3
 10
575.446812
 20
2070.301936
 11
575.368468
 21
2068.329195
  0
LINE
  8
CSLAYER1
  6
CONTINUOUS
 62
     3
 10
575.368468
 20
2068.329195
 11
575.435867
 21
2066.441152
  0
LINE
  8
CSLAYER1
  6
CONTINUOUS
 62
     3
 10
575.435867
 20
2066.441152
 11
575.648496
 21
2064.652174
  0
LINE
  8
CSLAYER1
  6
CONTINUOUS
 62
     3
 10
575.648496
 20
2064.652174
 11
576.004737
 21
2062.975877
  0
LINE
  8
CSLAYER1
  6
CONTINUOUS
 62
     3
 10
576.004737
 20
2062.975877
 11
576.501878
 21
2061.425018
  0
LINE
  8
CSLAYER1
  6
CONTINUOUS
 62
     3
 10
576.501878
 20
2061.425018
 11
577.136137
 21
2060.011401
  0
LINE
  8
CSLAYER1
  6
CONTINUOUS
 62
     3
 10
577.136137
 20
2060.011401
 11
577.902685
 21
2058.745784
  0
LINE
  8
CSLAYER1
  6
CONTINUOUS
 62
     3
 10
577.902685
 20
2058.745784
 11
578.795690
 21
2057.637800
  0
LINE
  8
CSLAYER1
  6
CONTINUOUS
 62
     3
 10
579.808355
 20
2056.695879
 11
580.932972
 21
2055.927192
  0
LINE
  8
CSLAYER1
  6
CONTINUOUS
 62
     3
 10
580.932972
 20
2055.927192
 11
582.160983
 21
2055.337589
  0
LINE
  8
CSLAYER1
  6
CONTINUOUS
 62
     3
 10
582.160983
 20
2055.337589
 11
583.483042
 21
2054.931556
  0
LINE
  8
CSLAYER1
  6
CONTINUOUS
 62
     3
 10
583.483042
 20
2054.931556
 11
584.889087
 21
2054.712183
  0
LINE
  8
CSLAYER1
  6
CONTINUOUS
 62
     3
 10
584.889087
 20
2054.712183
 11
586.368418
 21
2054.681141
  0
LINE
  8
CSLAYER1
  6
CONTINUOUS
 62
     3
 10
586.368418
 20
2054.681141
 11
587.909775
 21
2054.838666
  0
LINE
  8
CSLAYER1
  6
CONTINUOUS
 62
     3
 10
587.909775
 20
2054.838666
 11
589.501429
 21
2055.183558
  0
LINE
  8
CSLAYER1
  6
CONTINUOUS
 62
     3
 10
589.501429
 20
2055.183558
 11
591.131265
 21
2055.713193
  0
LINE
  8
CSLAYER1
  6
CONTINUOUS
 62
     3
 10
591.131265
 20
2055.713193
 11
592.786880
 21
2056.423540
  0
LINE
  8
CSLAYER1
  6
CONTINUOUS
 62
     3
 10
592.786880
 20
2056.423540
 11
594.455673
 21
2057.309192
  0
LINE
  8
CSLAYER1
  6
CONTINUOUS
 62
     3
 10
594.455673
 20
2057.309192
 11
596.124945
 21
2058.363411
  0
LINE
  8
CSLAYER1
  6
CONTINUOUS
 62
     3
 10
596.124945
 20
2058.363411
 11
597.781989
 21
2059.578171
  0
LINE
  8
CSLAYER1
  6
CONTINUOUS
 62
     3
 10
597.781989
 20
2059.578171
 11
599.414197
 21
2060.944229
  0
LINE
  8
CSLAYER1
  6
CONTINUOUS
 62
     3
 10
599.414197
 20
2060.944229
 11
601.009145
 21
2062.451187
  0
LINE
  8
CSLAYER1
  6
CONTINUOUS
 62
     3
 10
601.009145
 20
2062.451187
 11
602.554695
 21
2064.087577
  0
LINE
  8
CSLAYER1
  6
CONTINUOUS
 62
     3
 10
602.554695
 20
2064.087577
 11
604.039084
 21
2065.840945
  0
LINE
  8
CSLAYER1
  6
CONTINUOUS
 62
     3
 10
604.039084
 20
2065.840945
 11
605.451016
 21
2067.697947
  0
LINE
  8
CSLAYER1
  6
CONTINUOUS
 62
     3
 10
605.451016
 20
2067.697947
 11
606.779745
 21
2069.644449
  0
LINE
  8
CSLAYER1
  6
CONTINUOUS
 62
     3
 10
606.779745
 20
2069.644449
 11
608.015157
 21
2071.665638
  0
LINE
  8
CSLAYER1
  6
CONTINUOUS
 62
     3
 10
608.015157
 20
2071.665638
 11
609.147852
 21
2073.746132
  0
LINE
  8
CSLAYER1
  6
CONTINUOUS
 62
     3
 10
609.147852
 20
2073.746132
 11
610.169209
 21
2075.870096
  0
LINE
  8
CSLAYER1
  6
CONTINUOUS
 62
     3
 10
610.169209
 20
2075.870096
 11
611.071453
 21
2078.021365
  0
LINE
  8
CSLAYER1
  6
CONTINUOUS
 62
     3
 10
611.071453
 20
2078.021365
 11
611.847720
 21
2080.183568
  0
LINE
  8
CSLAYER1
  6
CONTINUOUS
 62
     3
 10
611.847720
 20
2080.183568
 11
612.492100
 21
2082.340249
  0
LINE
  8
CSLAYER1
  6
CONTINUOUS
 62
     3
 10
612.492100
 20
2082.340249
 11
612.999690
 21
2084.474993
  0
LINE
  8
CSLAYER1
  6
CONTINUOUS
 62
     3
 10
612.999690
 20
2084.474993
 11
613.366627
 21
2086.571555
  0
LINE
  8
CSLAYER1
  6
CONTINUOUS
 62
     3
 10
613.366627
 20
2086.571555
 11
613.590118
 21
2088.613979
  0
LINE
  8
CSLAYER1
  6
CONTINUOUS
 62
     3
 10
613.590118
 20
2088.613979
 11
613.668462
 21
2090.586719
  0
LINE
  8
CSLAYER1
  6
CONTINUOUS
 62
     3
 10
613.668462
 20
2090.586719
 11
613.601063
 21
2092.474763
  0
LINE
  8
CSLAYER1
  6
CONTINUOUS
 62
     3
 10
613.601063
 20
2092.474763
 11
613.388435
 21
2094.263741
  0
LINE
  8
CSLAYER1
  6
CONTINUOUS
 62
     3
 10
613.388435
 20
2094.263741
 11
613.032194
 21
2095.940038
  0
LINE
  8
CSLAYER1
  6
CONTINUOUS
 62
     3
 10
613.032194
 20
2095.940038
 11
612.535052
 21
2097.490896
  0
LINE
  8
CSLAYER1
  6
CONTINUOUS
 62
     3
 10
612.535052
 20
2097.490896
 11
611.900794
 21
2098.904513
  0
LINE
  8
CSLAYER1
  6
CONTINUOUS
 62
     3
 10
611.900794
 20
2098.904513
 11
611.134245
 21
2100.170130
  0
LINE
  8
CSLAYER1
  6
CONTINUOUS
 62
     3
 10
611.134245
 20
2100.170130
 11
610.241240
 21
2101.278115
  0
LINE
  8
CSLAYER1
  6
CONTINUOUS
 62
     3
 10
610.241240
 20
2101.278115
 11
609.228576
 21
2102.220035
  0
LINE
  8
CSLAYER1
  6
CONTINUOUS
 62
     3
 10
609.228576
 20
2102.220035
 11
608.103959
 21
2102.988722
  0
LINE
  8
CSLAYER1
  6
CONTINUOUS
 62
     3
 10
526.590999
 20
2087.301545
 11
580.932972
 21
2055.927192
  0
LINE
  8
CSLAYER1
  6
CONTINUOUS
 62
     3
 10
577.876236
 20
2120.440706
 11
608.103959
 21
2102.988722
  0
LINE
  8
CSLAYER1
  6
CONTINUOUS
 62
     3
 10
395.830625
 20
2068.280844
 11
412.812492
 21
2078.085329
  0
LINE
  8
CSLAYER1
  6
CONTINUOUS
 62
     3
 10
387.339692
 20
2073.183087
 11
404.321559
 21
2082.987572
  0
LINE
  8
CSLAYER1
  6
CONTINUOUS
 62
     3
 10
599.613025
 20
2088.281994
 11
599.152521
 21
2088.503095
  0
LINE
  8
CSLAYER1
  6
CONTINUOUS
 62
     3
 10
599.152521
 20
2088.503095
 11
598.656749
 21
2088.655358
  0
LINE
  8
CSLAYER1
  6
CONTINUOUS
 62
     3
 10
598.656749
 20
2088.655358
 11
598.129482
 21
2088.737622
  0
LINE
  8
CSLAYER1
  6
CONTINUOUS
 62
     3
 10
598.129482
 20
2088.737622
 11
597.574733
 21
2088.749263
  0
LINE
  8
CSLAYER1
  6
CONTINUOUS
 62
     3
 10
597.574733
 20
2088.749263
 11
596.996724
 21
2088.690192
  0
LINE
  8
CSLAYER1
  6
CONTINUOUS
 62
     3
 10
596.996724
 20
2088.690192
 11
596.399854
 21
2088.560857
  0
LINE
  8
CSLAYER1
  6
CONTINUOUS
 62
     3
 10
596.399854
 20
2088.560857
 11
595.788665
 21
2088.362244
  0
LINE
  8
CSLAYER1
  6
CONTINUOUS
 62
     3
 10
595.788665
 20
2088.362244
 11
595.167810
 21
2088.095864
  0
LINE
  8
CSLAYER1
  6
CONTINUOUS
 62
     3
 10
595.167810
 20
2088.095864
 11
594.542012
 21
2087.763744
  0
LINE
  8
CSLAYER1
  6
CONTINUOUS
 62
     3
 10
594.542012
 20
2087.763744
 11
593.916036
 21
2087.368412
  0
LINE
  8
CSLAYER1
  6
CONTINUOUS
 62
     3
 10
593.916036
 20
2087.368412
 11
593.294644
 21
2086.912877
  0
LINE
  8
CSLAYER1
  6
CONTINUOUS
 62
     3
 10
593.294644
 20
2086.912877
 11
592.682566
 21
2086.400605
  0
LINE
  8
CSLAYER1
  6
CONTINUOUS
 62
     3
 10
592.682566
 20
2086.400605
 11
592.084460
 21
2085.835496
  0
LINE
  8
CSLAYER1
  6
CONTINUOUS
 62
     3
 10
592.084460
 20
2085.835496
 11
591.504879
 21
2085.221850
  0
LINE
  8
CSLAYER1
  6
CONTINUOUS
 62
     3
 10
591.504879
 20
2085.221850
 11
590.948233
 21
2084.564337
  0
LINE
  8
CSLAYER1
  6
CONTINUOUS
 62
     3
 10
590.948233
 20
2084.564337
 11
590.418759
 21
2083.867961
  0
LINE
  8
CSLAYER1
  6
CONTINUOUS
 62
     3
 10
590.418759
 20
2083.867961
 11
589.920486
 21
2083.138023
  0
LINE
  8
CSLAYER1
  6
CONTINUOUS
 62
     3
 10
589.920486
 20
2083.138023
 11
589.457206
 21
2082.380077
  0
LINE
  8
CSLAYER1
  6
CONTINUOUS
 62
     3
 10
589.457206
 20
2082.380077
 11
589.032445
 21
2081.599892
  0
LINE
  8
CSLAYER1
  6
CONTINUOUS
 62
     3
 10
589.032445
 20
2081.599892
 11
588.649437
 21
2080.803405
  0
LINE
  8
CSLAYER1
  6
CONTINUOUS
 62
     3
 10
588.649437
 20
2080.803405
 11
588.311095
 21
2079.996679
  0
LINE
  8
CSLAYER1
  6
CONTINUOUS
 62
     3
 10
588.311095
 20
2079.996679
 11
588.019995
 21
2079.185853
  0
LINE
  8
CSLAYER1
  6
CONTINUOUS
 62
     3
 10
588.019995
 20
2079.185853
 11
587.778352
 21
2078.377098
  0
LINE
  8
CSLAYER1
  6
CONTINUOUS
 62
     3
 10
587.778352
 20
2078.377098
 11
587.588006
 21
2077.576569
  0
LINE
  8
CSLAYER1
  6
CONTINUOUS
 62
     3
 10
587.588006
 20
2077.576569
 11
587.450405
 21
2076.790358
  0
LINE
  8
CSLAYER1
  6
CONTINUOUS
 62
     3
 10
587.450405
 20
2076.790358
 11
587.366595
 21
2076.024449
  0
LINE
  8
CSLAYER1
  6
CONTINUOUS
 62
     3
 10
587.366595
 20
2076.024449
 11
587.337216
 21
2075.284672
  0
LINE
  8
CSLAYER1
  6
CONTINUOUS
 62
     3
 10
587.337216
 20
2075.284672
 11
587.362491
 21
2074.576655
  0
LINE
  8
CSLAYER1
  6
CONTINUOUS
 62
     3
 10
587.362491
 20
2074.576655
 11
587.442227
 21
2073.905788
  0
LINE
  8
CSLAYER1
  6
CONTINUOUS
 62
     3
 10
587.442227
 20
2073.905788
 11
587.575817
 21
2073.277177
  0
LINE
  8
CSLAYER1
  6
CONTINUOUS
 62
     3
 10
587.575817
 20
2073.277177
 11
587.762245
 21
2072.695605
  0
LINE
  8
CSLAYER1
  6
CONTINUOUS
 62
     3
 10
587.762245
 20
2072.695605
 11
588.000092
 21
2072.165499
  0
LINE
  8
CSLAYER1
  6
CONTINUOUS
 62
     3
 10
588.000092
 20
2072.165499
 11
588.287548
 21
2071.690892
  0
LINE
  8
CSLAYER1
  6
CONTINUOUS
 62
     3
 10
588.287548
 20
2071.690892
 11
588.622425
 21
2071.275398
  0
LINE
  8
CSLAYER1
  6
CONTINUOUS
 62
     3
 10
588.622425
 20
2071.275398
 11
589.002174
 21
2070.922178
  0
LINE
  8
CSLAYER1
  6
CONTINUOUS
 62
     3
 10
589.002174
 20
2070.922178
 11
589.423905
 21
2070.633920
  0
LINE
  8
CSLAYER1
  6
CONTINUOUS
 62
     3
 10
589.423905
 20
2070.633920
 11
589.884409
 21
2070.412819
  0
LINE
  8
CSLAYER1
  6
CONTINUOUS
 62
     3
 10
589.884409
 20
2070.412819
 11
590.380182
 21
2070.260557
  0
LINE
  8
CSLAYER1
  6
CONTINUOUS
 62
     3
 10
590.380182
 20
2070.260557
 11
590.907449
 21
2070.178292
  0
LINE
  8
CSLAYER1
  6
CONTINUOUS
 62
     3
 10
590.907449
 20
2070.178292
 11
591.462198
 21
2070.166651
  0
LINE
  8
CSLAYER1
  6
CONTINUOUS
 62
     3
 10
591.462198
 20
2070.166651
 11
592.040207
 21
2070.225723
  0
LINE
  8
CSLAYER1
  6
CONTINUOUS
 62
     3
 10
592.040207
 20
2070.225723
 11
592.637077
 21
2070.355057
  0
LINE
  8
CSLAYER1
  6
CONTINUOUS
 62
     3
 10
592.637077
 20
2070.355057
 11
593.248265
 21
2070.553670
  0
LINE
  8
CSLAYER1
  6
CONTINUOUS
 62
     3
 10
593.248265
 20
2070.553670
 11
593.869121
 21
2070.820051
  0
LINE
  8
CSLAYER1
  6
CONTINUOUS
 62
     3
 10
593.869121
 20
2070.820051
 11
594.494918
 21
2071.152170
  0
LINE
  8
CSLAYER1
  6
CONTINUOUS
 62
     3
 10
594.494918
 20
2071.152170
 11
595.120895
 21
2071.547502
  0
LINE
  8
CSLAYER1
  6
CONTINUOUS
 62
     3
 10
595.120895
 20
2071.547502
 11
595.742287
 21
2072.003037
  0
LINE
  8
CSLAYER1
  6
CONTINUOUS
 62
     3
 10
595.742287
 20
2072.003037
 11
596.354365
 21
2072.515309
  0
LINE
  8
CSLAYER1
  6
CONTINUOUS
 62
     3
 10
596.354365
 20
2072.515309
 11
596.952470
 21
2073.080418
  0
LINE
  8
CSLAYER1
  6
CONTINUOUS
 62
     3
 10
596.952470
 20
2073.080418
 11
597.532051
 21
2073.694065
  0
LINE
  8
CSLAYER1
  6
CONTINUOUS
 62
     3
 10
597.532051
 20
2073.694065
 11
598.088697
 21
2074.351578
  0
LINE
  8
CSLAYER1
  6
CONTINUOUS
 62
     3
 10
598.088697
 20
2074.351578
 11
598.618172
 21
2075.047953
  0
LINE
  8
CSLAYER1
  6
CONTINUOUS
 62
     3
 10
598.618172
 20
2075.047953
 11
599.116445
 21
2075.777892
  0
LINE
  8
CSLAYER1
  6
CONTINUOUS
 62
     3
 10
599.116445
 20
2075.777892
 11
599.579725
 21
2076.535838
  0
LINE
  8
CSLAYER1
  6
CONTINUOUS
 62
     3
 10
599.579725
 20
2076.535838
 11
600.004485
 21
2077.316023
  0
LINE
  8
CSLAYER1
  6
CONTINUOUS
 62
     3
 10
600.004485
 20
2077.316023
 11
600.387494
 21
2078.112509
  0
LINE
  8
CSLAYER1
  6
CONTINUOUS
 62
     3
 10
600.387494
 20
2078.112509
 11
600.725836
 21
2078.919235
  0
LINE
  8
CSLAYER1
  6
CONTINUOUS
 62
     3
 10
600.725836
 20
2078.919235
 11
601.016936
 21
2079.730061
  0
LINE
  8
CSLAYER1
  6
CONTINUOUS
 62
     3
 10
601.016936
 20
2079.730061
 11
601.258578
 21
2080.538817
  0
LINE
  8
CSLAYER1
  6
CONTINUOUS
 62
     3
 10
601.258578
 20
2080.538817
 11
601.448925
 21
2081.339346
  0
LINE
  8
CSLAYER1
  6
CONTINUOUS
 62
     3
 10
601.448925
 20
2081.339346
 11
601.586526
 21
2082.125557
  0
LINE
  8
CSLAYER1
  6
CONTINUOUS
 62
     3
 10
601.586526
 20
2082.125557
 11
601.670335
 21
2082.891465
  0
LINE
  8
CSLAYER1
  6
CONTINUOUS
 62
     3
 10
601.670335
 20
2082.891465
 11
601.699714
 21
2083.631243
  0
LINE
  8
CSLAYER1
  6
CONTINUOUS
 62
     3
 10
601.699714
 20
2083.631243
 11
601.674440
 21
2084.339259
  0
LINE
  8
CSLAYER1
  6
CONTINUOUS
 62
     3
 10
601.674440
 20
2084.339259
 11
601.594704
 21
2085.010126
  0
LINE
  8
CSLAYER1
  6
CONTINUOUS
 62
     3
 10
601.594704
 20
2085.010126
 11
601.461113
 21
2085.638737
  0
LINE
  8
CSLAYER1
  6
CONTINUOUS
 62
     3
 10
601.461113
 20
2085.638737
 11
601.274685
 21
2086.220309
  0
LINE
  8
CSLAYER1
  6
CONTINUOUS
 62
     3
 10
601.274685
 20
2086.220309
 11
601.036838
 21
2086.750416
  0
LINE
  8
CSLAYER1
  6
CONTINUOUS
 62
     3
 10
601.036838
 20
2086.750416
 11
600.749383
 21
2087.225022
  0
LINE
  8
CSLAYER1
  6
CONTINUOUS
 62
     3
 10
600.749383
 20
2087.225022
 11
600.414506
 21
2087.640516
  0
LINE
  8
CSLAYER1
  6
CONTINUOUS
 62
     3
 10
600.414506
 20
2087.640516
 11
600.034757
 21
2087.993736
  0
LINE
  8
CSLAYER1
  6
CONTINUOUS
 62
     3
 10
600.034757
 20
2087.993736
 11
599.613025
 21
2088.281994
  0
LINE
  8
CSLAYER1
  6
CONTINUOUS
 62
     3
 10
589.423905
 20
2127.107756
 11
645.464065
 21
2094.752954
  0
LINE
  8
CSLAYER1
  6
CONTINUOUS
 62
     3
 10
518.100065
 20
1997.688550
 11
526.590999
 21
2002.590792
  0
LINE
  8
CSLAYER1
  6
CONTINUOUS
 62
     3
 10
609.152326
 20
2073.754349
 11
865.098900
 21
1925.983526
  0
LINE
  8
CSLAYER1
  6
CONTINUOUS
 62
     3
 10
526.590999
 20
2037.886940
 11
675.323297
 21
1952.016307
  0
LINE
  8
CSLAYER1
  6
CONTINUOUS
 62
     3
 10
526.590999
 20
2033.180787
 11
653.061024
 21
1960.163283
  0
LINE
  8
CSLAYER1
  6
CONTINUOUS
 62
     3
 10
548.667425
 20
2025.141109
 11
616.760177
 21
2064.454477
  0
LINE
  8
CSLAYER1
  6
CONTINUOUS
 62
     3
 10
565.649292
 20
2015.336623
 11
633.742044
 21
2054.649992
  0
LINE
  8
CSLAYER1
  6
CONTINUOUS
 62
     3
 10
621.010177
 20
2066.908216
 11
645.464065
 21
2081.026675
  0
LINE
  8
CSLAYER1
  6
CONTINUOUS
 62
     3
 10
637.992044
 20
2057.103731
 11
645.464065
 21
2061.417704
  0
LINE
  8
CSLAYER1
  6
CONTINUOUS
 62
     3
 10
688.229516
 20
1926.132466
 11
688.009804
 21
1929.018834
  0
LINE
  8
CSLAYER1
  6
CONTINUOUS
 62
     3
 10
688.009804
 20
1929.018834
 11
687.352340
 21
1931.883234
  0
LINE
  8
CSLAYER1
  6
CONTINUOUS
 62
     3
 10
687.352340
 20
1931.883234
 11
686.262129
 21
1934.703868
  0
LINE
  8
CSLAYER1
  6
CONTINUOUS
 62
     3
 10
686.262129
 20
1934.703868
 11
684.747467
 21
1937.459268
  0
LINE
  8
CSLAYER1
  6
CONTINUOUS
 62
     3
 10
684.747467
 20
1937.459268
 11
682.819882
 21
1940.128465
  0
LINE
  8
CSLAYER1
  6
CONTINUOUS
 62
     3
 10
682.819882
 20
1940.128465
 11
680.494044
 21
1942.691143
  0
LINE
  8
CSLAYER1
  6
CONTINUOUS
 62
     3
 10
680.494044
 20
1942.691143
 11
677.787654
 21
1945.127800
  0
LINE
  8
CSLAYER1
  6
CONTINUOUS
 62
     3
 10
677.787654
 20
1945.127800
 11
674.721309
 21
1947.419891
  0
LINE
  8
CSLAYER1
  6
CONTINUOUS
 62
     3
 10
674.721309
 20
1947.419891
 11
671.318345
 21
1949.549972
  0
LINE
  8
CSLAYER1
  6
CONTINUOUS
 62
     3
 10
671.318345
 20
1949.549972
 11
667.604663
 21
1951.501832
  0
LINE
  8
CSLAYER1
  6
CONTINUOUS
 62
     3
 10
667.604663
 20
1951.501832
 11
663.608524
 21
1953.260615
  0
LINE
  8
CSLAYER1
  6
CONTINUOUS
 62
     3
 10
663.608524
 20
1953.260615
 11
659.360342
 21
1954.812937
  0
LINE
  8
CSLAYER1
  6
CONTINUOUS
 62
     3
 10
659.360342
 20
1954.812937
 11
654.892449
 21
1956.146983
  0
LINE
  8
CSLAYER1
  6
CONTINUOUS
 62
     3
 10
654.892449
 20
1956.146983
 11
650.238847
 21
1957.252600
  0
LINE
  8
CSLAYER1
  6
CONTINUOUS
 62
     3
 10
650.238847
 20
1957.252600
 11
645.434953
 21
1958.121375
  0
LINE
  8
CSLAYER1
  6
CONTINUOUS
 62
     3
 10
645.434953
 20
1958.121375
 11
640.517328
 21
1958.746694
  0
LINE
  8
CSLAYER1
  6
CONTINUOUS
 62
     3
 10
640.517328
 20
1958.746694
 11
635.523397
 21
1959.123800
  0
LINE
  8
CSLAYER1
  6
CONTINUOUS
 62
     3
 10
635.523397
 20
1959.123800
 11
630.491169
 21
1959.249821
  0
LINE
  8
CSLAYER1
  6
CONTINUOUS
 62
     3
 10
630.491169
 20
1959.249821
 11
625.458940
 21
1959.123800
  0
LINE
  8
CSLAYER1
  6
CONTINUOUS
 62
     3
 10
625.458940
 20
1959.123800
 11
620.465010
 21
1958.746694
  0
LINE
  8
CSLAYER1
  6
CONTINUOUS
 62
     3
 10
620.465010
 20
1958.746694
 11
615.547385
 21
1958.121375
  0
LINE
  8
CSLAYER1
  6
CONTINUOUS
 62
     3
 10
615.547385
 20
1958.121375
 11
610.743491
 21
1957.252600
  0
LINE
  8
CSLAYER1
  6
CONTINUOUS
 62
     3
 10
610.743491
 20
1957.252600
 11
606.089889
 21
1956.146983
  0
LINE
  8
CSLAYER1
  6
CONTINUOUS
 62
     3
 10
606.089889
 20
1956.146983
 11
601.621996
 21
1954.812937
  0
LINE
  8
CSLAYER1
  6
CONTINUOUS
 62
     3
 10
601.621996
 20
1954.812937
 11
597.373814
 21
1953.260615
  0
LINE
  8
CSLAYER1
  6
CONTINUOUS
 62
     3
 10
597.373814
 20
1953.260615
 11
593.377675
 21
1951.501832
  0
LINE
  8
CSLAYER1
  6
CONTINUOUS
 62
     3
 10
593.377675
 20
1951.501832
 11
589.663992
 21
1949.549972
  0
LINE
  8
CSLAYER1
  6
CONTINUOUS
 62
     3
 10
589.663992
 20
1949.549972
 11
586.261029
 21
1947.419891
  0
LINE
  8
CSLAYER1
  6
CONTINUOUS
 62
     3
 10
586.261029
 20
1947.419891
 11
583.194684
 21
1945.127800
  0
LINE
  8
CSLAYER1
  6
CONTINUOUS
 62
     3
 10
583.194684
 20
1945.127800
 11
580.488294
 21
1942.691143
  0
LINE
  8
CSLAYER1
  6
CONTINUOUS
 62
     3
 10
580.488294
 20
1942.691143
 11
578.162456
 21
1940.128465
  0
LINE
  8
CSLAYER1
  6
CONTINUOUS
 62
     3
 10
578.162456
 20
1940.128465
 11
576.234871
 21
1937.459268
  0
LINE
  8
CSLAYER1
  6
CONTINUOUS
 62
     3
 10
576.234871
 20
1937.459268
 11
574.720209
 21
1934.703868
  0
LINE
  8
CSLAYER1
  6
CONTINUOUS
 62
     3
 10
574.720209
 20
1934.703868
 11
573.629997
 21
1931.883234
  0
LINE
  8
CSLAYER1
  6
CONTINUOUS
 62
     3
 10
573.629997
 20
1931.883234
 11
572.972534
 21
1929.018834
  0
LINE
  8
CSLAYER1
  6
CONTINUOUS
 62
     3
 10
572.972534
 20
1929.018834
 11
572.752822
 21
1926.132466
  0
LINE
  8
CSLAYER1
  6
CONTINUOUS
 62
     3
 10
572.752822
 20
1926.132466
 11
572.972534
 21
1923.246098
  0
LINE
  8
CSLAYER1
  6
CONTINUOUS
 62
     3
 10
572.972534
 20
1923.246098
 11
573.629997
 21
1920.381698
  0
LINE
  8
CSLAYER1
  6
CONTINUOUS
 62
     3
 10
573.629997
 20
1920.381698
 11
574.720209
 21
1917.561064
  0
LINE
  8
CSLAYER1
  6
CONTINUOUS
 62
     3
 10
574.720209
 20
1917.561064
 11
576.234871
 21
1914.805663
  0
LINE
  8
CSLAYER1
  6
CONTINUOUS
 62
     3
 10
576.234871
 20
1914.805663
 11
578.162456
 21
1912.136467
  0
LINE
  8
CSLAYER1
  6
CONTINUOUS
 62
     3
 10
578.162456
 20
1912.136467
 11
580.488294
 21
1909.573788
  0
LINE
  8
CSLAYER1
  6
CONTINUOUS
 62
     3
 10
580.488294
 20
1909.573788
 11
583.194684
 21
1907.137131
  0
LINE
  8
CSLAYER1
  6
CONTINUOUS
 62
     3
 10
583.194684
 20
1907.137131
 11
586.261029
 21
1904.845040
  0
LINE
  8
CSLAYER1
  6
CONTINUOUS
 62
     3
 10
586.261029
 20
1904.845040
 11
589.663992
 21
1902.714960
  0
LINE
  8
CSLAYER1
  6
CONTINUOUS
 62
     3
 10
589.663992
 20
1902.714960
 11
593.377675
 21
1900.763100
  0
LINE
  8
CSLAYER1
  6
CONTINUOUS
 62
     3
 10
593.377675
 20
1900.763100
 11
597.373814
 21
1899.004317
  0
LINE
  8
CSLAYER1
  6
CONTINUOUS
 62
     3
 10
597.373814
 20
1899.004317
 11
601.621996
 21
1897.451995
  0
LINE
  8
CSLAYER1
  6
CONTINUOUS
 62
     3
 10
601.621996
 20
1897.451995
 11
606.089889
 21
1896.117949
  0
LINE
  8
CSLAYER1
  6
CONTINUOUS
 62
     3
 10
606.089889
 20
1896.117949
 11
610.743491
 21
1895.012332
  0
LINE
  8
CSLAYER1
  6
CONTINUOUS
 62
     3
 10
610.743491
 20
1895.012332
 11
615.547385
 21
1894.143557
  0
LINE
  8
CSLAYER1
  6
CONTINUOUS
 62
     3
 10
615.547385
 20
1894.143557
 11
620.465010
 21
1893.518238
  0
LINE
  8
CSLAYER1
  6
CONTINUOUS
 62
     3
 10
620.465010
 20
1893.518238
 11
625.458940
 21
1893.141132
  0
LINE
  8
CSLAYER1
  6
CONTINUOUS
 62
     3
 10
625.458940
 20
1893.141132
 11
630.491169
 21
1893.015111
  0
LINE
  8
CSLAYER1
  6
CONTINUOUS
 62
     3
 10
630.491169
 20
1893.015111
 11
635.523397
 21
1893.141132
  0
LINE
  8
CSLAYER1
  6
CONTINUOUS
 62
     3
 10
635.523397
 20
1893.141132
 11
640.517328
 21
1893.518238
  0
LINE
  8
CSLAYER1
  6
CONTINUOUS
 62
     3
 10
640.517328
 20
1893.518238
 11
645.434953
 21
1894.143557
  0
LINE
  8
CSLAYER1
  6
CONTINUOUS
 62
     3
 10
645.434953
 20
1894.143557
 11
650.238847
 21
1895.012332
  0
LINE
  8
CSLAYER1
  6
CONTINUOUS
 62
     3
 10
650.238847
 20
1895.012332
 11
654.892449
 21
1896.117949
  0
LINE
  8
CSLAYER1
  6
CONTINUOUS
 62
     3
 10
654.892449
 20
1896.117949
 11
659.360342
 21
1897.451995
  0
LINE
  8
CSLAYER1
  6
CONTINUOUS
 62
     3
 10
659.360342
 20
1897.451995
 11
663.608524
 21
1899.004317
  0
LINE
  8
CSLAYER1
  6
CONTINUOUS
 62
     3
 10
663.608524
 20
1899.004317
 11
667.604663
 21
1900.763100
  0
LINE
  8
CSLAYER1
  6
CONTINUOUS
 62
     3
 10
667.604663
 20
1900.763100
 11
671.318345
 21
1902.714960
  0
LINE
  8
CSLAYER1
  6
CONTINUOUS
 62
     3
 10
671.318345
 20
1902.714960
 11
674.721309
 21
1904.845040
  0
LINE
  8
CSLAYER1
  6
CONTINUOUS
 62
     3
 10
674.721309
 20
1904.845040
 11
677.787654
 21
1907.137131
  0
LINE
  8
CSLAYER1
  6
CONTINUOUS
 62
     3
 10
677.787654
 20
1907.137131
 11
680.494044
 21
1909.573788
  0
LINE
  8
CSLAYER1
  6
CONTINUOUS
 62
     3
 10
680.494044
 20
1909.573788
 11
682.819882
 21
1912.136467
  0
LINE
  8
CSLAYER1
  6
CONTINUOUS
 62
     3
 10
682.819882
 20
1912.136467
 11
684.747467
 21
1914.805663
  0
LINE
  8
CSLAYER1
  6
CONTINUOUS
 62
     3
 10
684.747467
 20
1914.805663
 11
686.262129
 21
1917.561064
  0
LINE
  8
CSLAYER1
  6
CONTINUOUS
 62
     3
 10
686.262129
 20
1917.561064
 11
687.352340
 21
1920.381698
  0
LINE
  8
CSLAYER1
  6
CONTINUOUS
 62
     3
 10
687.352340
 20
1920.381698
 11
688.009804
 21
1923.246098
  0
LINE
  8
CSLAYER1
  6
CONTINUOUS
 62
     3
 10
688.009804
 20
1923.246098
 11
688.229516
 21
1926.132466
  0
LINE
  8
CSLAYER1
  6
CONTINUOUS
 62
     3
 10
694.003350
 20
1926.132466
 11
693.761667
 21
1929.307470
  0
LINE
  8
CSLAYER1
  6
CONTINUOUS
 62
     3
 10
693.761667
 20
1929.307470
 11
693.038457
 21
1932.458311
  0
LINE
  8
CSLAYER1
  6
CONTINUOUS
 62
     3
 10
693.038457
 20
1932.458311
 11
691.839225
 21
1935.561008
  0
LINE
  8
CSLAYER1
  6
CONTINUOUS
 62
     3
 10
691.839225
 20
1935.561008
 11
690.173097
 21
1938.591949
  0
LINE
  8
CSLAYER1
  6
CONTINUOUS
 62
     3
 10
690.173097
 20
1938.591949
 11
688.052753
 21
1941.528065
  0
LINE
  8
CSLAYER1
  6
CONTINUOUS
 62
     3
 10
688.052753
 20
1941.528065
 11
685.494331
 21
1944.347011
  0
LINE
  8
CSLAYER1
  6
CONTINUOUS
 62
     3
 10
685.494331
 20
1944.347011
 11
682.517302
 21
1947.027334
  0
LINE
  8
CSLAYER1
  6
CONTINUOUS
 62
     3
 10
682.517302
 20
1947.027334
 11
679.144322
 21
1949.548634
  0
LINE
  8
CSLAYER1
  6
CONTINUOUS
 62
     3
 10
679.144322
 20
1949.548634
 11
675.401063
 21
1951.891723
  0
LINE
  8
CSLAYER1
  6
CONTINUOUS
 62
     3
 10
675.401063
 20
1951.891723
 11
671.316012
 21
1954.038768
  0
LINE
  8
CSLAYER1
  6
CONTINUOUS
 62
     3
 10
671.316012
 20
1954.038768
 11
666.920260
 21
1955.973430
  0
LINE
  8
CSLAYER1
  6
CONTINUOUS
 62
     3
 10
666.920260
 20
1955.973430
 11
662.247260
 21
1957.680984
  0
LINE
  8
CSLAYER1
  6
CONTINUOUS
 62
     3
 10
662.247260
 20
1957.680984
 11
657.332577
 21
1959.148434
  0
LINE
  8
CSLAYER1
  6
CONTINUOUS
 62
     3
 10
657.332577
 20
1959.148434
 11
652.213614
 21
1960.364614
  0
LINE
  8
CSLAYER1
  6
CONTINUOUS
 62
     3
 10
652.213614
 20
1960.364614
 11
646.929331
 21
1961.320265
  0
LINE
  8
CSLAYER1
  6
CONTINUOUS
 62
     3
 10
646.929331
 20
1961.320265
 11
641.519943
 21
1962.008117
  0
LINE
  8
CSLAYER1
  6
CONTINUOUS
 62
     3
 10
641.519943
 20
1962.008117
 11
636.026620
 21
1962.422933
  0
LINE
  8
CSLAYER1
  6
CONTINUOUS
 62
     3
 10
636.026620
 20
1962.422933
 11
630.491169
 21
1962.561557
  0
LINE
  8
CSLAYER1
  6
CONTINUOUS
 62
     3
 10
630.491169
 20
1962.561557
 11
624.955718
 21
1962.422933
  0
LINE
  8
CSLAYER1
  6
CONTINUOUS
 62
     3
 10
624.955718
 20
1962.422933
 11
619.462394
 21
1962.008117
  0
LINE
  8
CSLAYER1
  6
CONTINUOUS
 62
     3
 10
619.462394
 20
1962.008117
 11
614.053007
 21
1961.320265
  0
LINE
  8
CSLAYER1
  6
CONTINUOUS
 62
     3
 10
614.053007
 20
1961.320265
 11
608.768724
 21
1960.364614
  0
LINE
  8
CSLAYER1
  6
CONTINUOUS
 62
     3
 10
608.768724
 20
1960.364614
 11
603.649761
 21
1959.148434
  0
LINE
  8
CSLAYER1
  6
CONTINUOUS
 62
     3
 10
603.649761
 20
1959.148434
 11
598.735078
 21
1957.680984
  0
LINE
  8
CSLAYER1
  6
CONTINUOUS
 62
     3
 10
598.735078
 20
1957.680984
 11
594.062078
 21
1955.973430
  0
LINE
  8
CSLAYER1
  6
CONTINUOUS
 62
     3
 10
594.062078
 20
1955.973430
 11
589.666326
 21
1954.038768
  0
LINE
  8
CSLAYER1
  6
CONTINUOUS
 62
     3
 10
589.666326
 20
1954.038768
 11
585.581275
 21
1951.891723
  0
LINE
  8
CSLAYER1
  6
CONTINUOUS
 62
     3
 10
585.581275
 20
1951.891723
 11
581.838015
 21
1949.548634
  0
LINE
  8
CSLAYER1
  6
CONTINUOUS
 62
     3
 10
581.838015
 20
1949.548634
 11
578.465036
 21
1947.027334
  0
LINE
  8
CSLAYER1
  6
CONTINUOUS
 62
     3
 10
578.465036
 20
1947.027334
 11
575.488006
 21
1944.347011
  0
LINE
  8
CSLAYER1
  6
CONTINUOUS
 62
     3
 10
575.488006
 20
1944.347011
 11
572.929584
 21
1941.528065
  0
LINE
  8
CSLAYER1
  6
CONTINUOUS
 62
     3
 10
572.929584
 20
1941.528065
 11
570.809241
 21
1938.591949
  0
LINE
  8
CSLAYER1
  6
CONTINUOUS
 62
     3
 10
570.809241
 20
1938.591949
 11
569.143113
 21
1935.561008
  0
LINE
  8
CSLAYER1
  6
CONTINUOUS
 62
     3
 10
569.143113
 20
1935.561008
 11
567.943880
 21
1932.458311
  0
LINE
  8
CSLAYER1
  6
CONTINUOUS
 62
     3
 10
567.943880
 20
1932.458311
 11
567.220671
 21
1929.307470
  0
LINE
  8
CSLAYER1
  6
CONTINUOUS
 62
     3
 10
567.220671
 20
1929.307470
 11
566.978988
 21
1926.132466
  0
LINE
  8
CSLAYER1
  6
CONTINUOUS
 62
     3
 10
566.978988
 20
1926.132466
 11
567.220671
 21
1922.957461
  0
LINE
  8
CSLAYER1
  6
CONTINUOUS
 62
     3
 10
567.220671
 20
1922.957461
 11
567.943880
 21
1919.806621
  0
LINE
  8
CSLAYER1
  6
CONTINUOUS
 62
     3
 10
567.943880
 20
1919.806621
 11
569.143113
 21
1916.703923
  0
LINE
  8
CSLAYER1
  6
CONTINUOUS
 62
     3
 10
569.143113
 20
1916.703923
 11
570.809241
 21
1913.672983
  0
LINE
  8
CSLAYER1
  6
CONTINUOUS
 62
     3
 10
570.809241
 20
1913.672983
 11
572.929584
 21
1910.736867
  0
LINE
  8
CSLAYER1
  6
CONTINUOUS
 62
     3
 10
572.929584
 20
1910.736867
 11
575.488006
 21
1907.917921
  0
LINE
  8
CSLAYER1
  6
CONTINUOUS
 62
     3
 10
575.488006
 20
1907.917921
 11
578.465036
 21
1905.237598
  0
LINE
  8
CSLAYER1
  6
CONTINUOUS
 62
     3
 10
578.465036
 20
1905.237598
 11
581.838015
 21
1902.716298
  0
LINE
  8
CSLAYER1
  6
CONTINUOUS
 62
     3
 10
581.838015
 20
1902.716298
 11
585.581275
 21
1900.373209
  0
LINE
  8
CSLAYER1
  6
CONTINUOUS
 62
     3
 10
585.581275
 20
1900.373209
 11
589.666326
 21
1898.226163
  0
LINE
  8
CSLAYER1
  6
CONTINUOUS
 62
     3
 10
589.666326
 20
1898.226163
 11
594.062078
 21
1896.291502
  0
LINE
  8
CSLAYER1
  6
CONTINUOUS
 62
     3
 10
594.062078
 20
1896.291502
 11
598.735078
 21
1894.583948
  0
LINE
  8
CSLAYER1
  6
CONTINUOUS
 62
     3
 10
598.735078
 20
1894.583948
 11
603.649761
 21
1893.116497
  0
LINE
  8
CSLAYER1
  6
CONTINUOUS
 62
     3
 10
603.649761
 20
1893.116497
 11
603.720258
 21
1893.099749
  0
LINE
  8
CSLAYER1
  6
CONTINUOUS
 62
     3
 10
630.491169
 20
1889.703375
 11
636.026620
 21
1889.841999
  0
LINE
  8
CSLAYER1
  6
CONTINUOUS
 62
     3
 10
636.026620
 20
1889.841999
 11
641.519943
 21
1890.256815
  0
LINE
  8
CSLAYER1
  6
CONTINUOUS
 62
     3
 10
641.519943
 20
1890.256815
 11
646.929331
 21
1890.944666
  0
LINE
  8
CSLAYER1
  6
CONTINUOUS
 62
     3
 10
646.929331
 20
1890.944666
 11
652.213614
 21
1891.900318
  0
LINE
  8
CSLAYER1
  6
CONTINUOUS
 62
     3
 10
652.213614
 20
1891.900318
 11
657.332577
 21
1893.116497
  0
LINE
  8
CSLAYER1
  6
CONTINUOUS
 62
     3
 10
657.332577
 20
1893.116497
 11
662.247260
 21
1894.583948
  0
LINE
  8
CSLAYER1
  6
CONTINUOUS
 62
     3
 10
662.247260
 20
1894.583948
 11
666.920260
 21
1896.291502
  0
LINE
  8
CSLAYER1
  6
CONTINUOUS
 62
     3
 10
666.920260
 20
1896.291502
 11
671.316012
 21
1898.226163
  0
LINE
  8
CSLAYER1
  6
CONTINUOUS
 62
     3
 10
671.316012
 20
1898.226163
 11
675.401063
 21
1900.373209
  0
LINE
  8
CSLAYER1
  6
CONTINUOUS
 62
     3
 10
675.401063
 20
1900.373209
 11
679.144322
 21
1902.716298
  0
LINE
  8
CSLAYER1
  6
CONTINUOUS
 62
     3
 10
679.144322
 20
1902.716298
 11
682.517302
 21
1905.237598
  0
LINE
  8
CSLAYER1
  6
CONTINUOUS
 62
     3
 10
682.517302
 20
1905.237598
 11
685.494331
 21
1907.917921
  0
LINE
  8
CSLAYER1
  6
CONTINUOUS
 62
     3
 10
685.494331
 20
1907.917921
 11
688.052753
 21
1910.736867
  0
LINE
  8
CSLAYER1
  6
CONTINUOUS
 62
     3
 10
688.052753
 20
1910.736867
 11
690.173097
 21
1913.672983
  0
LINE
  8
CSLAYER1
  6
CONTINUOUS
 62
     3
 10
690.173097
 20
1913.672983
 11
691.839225
 21
1916.703923
  0
LINE
  8
CSLAYER1
  6
CONTINUOUS
 62
     3
 10
691.839225
 20
1916.703923
 11
693.038457
 21
1919.806621
  0
LINE
  8
CSLAYER1
  6
CONTINUOUS
 62
     3
 10
693.038457
 20
1919.806621
 11
693.761667
 21
1922.957461
  0
LINE
  8
CSLAYER1
  6
CONTINUOUS
 62
     3
 10
693.761667
 20
1922.957461
 11
694.003350
 21
1926.132466
  0
LINE
  8
CSLAYER1
  6
CONTINUOUS
 62
     3
 10
506.212759
 20
1889.703375
 11
630.491169
 21
1889.703375
  0
LINE
  8
CSLAYER1
  6
CONTINUOUS
 62
     3
 10
506.212759
 20
1893.099749
 11
630.491169
 21
1893.099749
  0
LINE
  8
CSLAYER1
  6
CONTINUOUS
 62
     3
 10
506.212759
 20
1889.703375
 11
506.212759
 21
1893.099749
  0
LINE
  8
CSLAYER1
  6
CONTINUOUS
 62
     3
 10
506.212759
 20
1893.099749
 11
498.388254
 21
1895.515036
  0
LINE
  8
CSLAYER1
  6
CONTINUOUS
 62
     3
 10
498.388254
 20
1895.515036
 11
497.084401
 21
1900.991218
  0
LINE
  8
CSLAYER1
  6
CONTINUOUS
 62
     3
 10
506.212759
 20
1889.703375
 11
493.172843
 21
1890.821165
  0
LINE
  8
CSLAYER1
  6
CONTINUOUS
 62
     3
 10
493.172843
 20
1890.821165
 11
487.435890
 21
1888.995771
  0
LINE
  8
CSLAYER1
  6
CONTINUOUS
 62
     3
 10
487.435890
 20
1888.995771
 11
481.177396
 21
1886.127295
  0
LINE
  8
CSLAYER1
  6
CONTINUOUS
 62
     3
 10
497.084401
 20
1900.991218
 11
490.565137
 21
1905.945859
  0
LINE
  8
CSLAYER1
  6
CONTINUOUS
 62
     3
 10
387.339692
 20
2092.792057
 11
526.590999
 21
2012.395278
  0
LINE
  8
CSLAYER1
  6
CONTINUOUS
 62
     3
 10
387.339692
 20
2171.227940
 11
526.590999
 21
2090.831160
  0
LINE
  8
CSLAYER1
  6
CONTINUOUS
 62
     3
 10
387.339692
 20
2171.227940
 11
387.339692
 21
2073.183087
  0
LINE
  8
CSLAYER1
  6
CONTINUOUS
 62
     3
 10
645.464065
 20
2159.462557
 11
645.464065
 21
2061.417704
  0
LINE
  8
CSLAYER1
  6
CONTINUOUS
 62
     3
 10
387.339692
 20
2171.227940
 11
506.212759
 21
2239.859337
  0
LINE
  8
CSLAYER1
  6
CONTINUOUS
 62
     5
 10
345.351402
 20
2097.425037
 11
380.125738
 21
2077.348065
  0
TEXT
  8
CSLAYER1
 62
     3
 10
758.830684
 20
2132.793653
 40
29.612888
 41
0.852344
  1
ホース長サ２ｍ
 50
0.000000
 51
0.000000
  7
EASYDRAW_FONT
 72
     5
 11
927.099858
 21
2132.793653
  0
TEXT
  8
CSLAYER1
 62
     3
 10
320.006414
 20
1921.843939
 40
33.963734
 41
1.036364
  1
長サ4ｍ
 50
0.000000
 51
0.000000
  7
EASYDRAW_FONT
 72
     5
 11
449.068598
 21
1921.843939
  0
LINE
  8
CSLAYER1
  6
CONTINUOUS
 62
     3
 10
607.059937
 20
2070.054914
 11
862.973900
 21
1922.302918
  0
ARC
  8
CSLAYER1
  6
CONTINUOUS
 62
     3
 10
907.598900
 20
1999.595686
 40
85.000000
 50
240.000000
 51
270.000000
  0
ARC
  8
CSLAYER1
  6
CONTINUOUS
 62
     3
 10
907.598900
 20
1999.595686
 40
89.250000
 50
240.000000
 51
270.000000
  0
TEXT
  8
CSLAYER1
 62
     3
 10
709.660211
 20
1823.908392
 40
33.963734
 41
1.020000
  1
フットスイッチ
 50
0.000000
 51
0.000000
  7
EASYDRAW_FONT
 72
     5
 11
940.613593
 21
1823.908392
  0
TEXT
  8
CSLAYER1
 62
     3
 10
707.829644
 20
1777.533392
 40
33.963734
 41
1.020000
  1
ＵＰ・ＤＯＷＮ
 50
0.000000
 51
0.000000
  7
EASYDRAW_FONT
 72
     5
 11
938.783027
 21
1777.533392
  0
TEXT
  8
CSLAYER1
 62
     3
 10
710.270318
 20
1736.039251
 40
33.963734
 41
1.020000
  1
コード長サ２ｍ
 50
0.000000
 51
0.000000
  7
EASYDRAW_FONT
 72
     5
 11
941.223701
 21
1736.039251
  0
LINE
  8
CSLAYER1
  6
CONTINUOUS
 62
     5
 10
597.675022
 20
1790.788455
 11
702.395696
 21
1818.848275
  0
LINE
  8
CSLAYER1
  6
CONTINUOUS
 62
     5
 10
597.675022
 20
1790.788455
 11
623.655784
 21
1805.788455
  0
LINE
  8
CSLAYER1
  6
CONTINUOUS
 62
     5
 10
597.675022
 20
1790.788455
 11
627.675022
 21
1790.788455
  0
LINE
  8
CSLAYER1
  6
CONTINUOUS
 62
     5
 10
935.583169
 20
1818.848275
 11
702.395696
 21
1818.848275
  0
LINE
  8
CSLAYER1
  6
CONTINUOUS
 62
     3
 10
446.536409
 20
1805.887363
 11
541.634862
 21
1750.982245
  0
LINE
  8
CSLAYER1
  6
CONTINUOUS
 62
     3
 10
541.634862
 20
1750.982245
 11
597.675022
 21
1783.337046
  0
LINE
  8
CSLAYER1
  6
CONTINUOUS
 62
     3
 10
597.675022
 20
1790.788455
 11
597.675022
 21
1783.337046
  0
LINE
  8
CSLAYER1
  6
CONTINUOUS
 62
     5
 10
541.634862
 20
1780.003521
 11
541.634862
 21
1760.394551
  0
LINE
  8
CSLAYER1
  6
CONTINUOUS
 62
     3
 10
446.536409
 20
1813.730951
 11
446.536409
 21
1805.887363
  0
LINE
  8
CSLAYER1
  6
CONTINUOUS
 62
     3
 10
449.593145
 20
1833.536011
 11
502.236931
 21
1863.929916
  0
LINE
  8
CSLAYER1
  6
CONTINUOUS
 62
     3
 10
483.556878
 20
1813.927041
 11
536.200665
 21
1844.320945
  0
LINE
  8
CSLAYER1
  6
CONTINUOUS
 62
     3
 10
541.634862
 20
1780.003521
 11
594.618286
 21
1810.593516
  0
LINE
  8
CSLAYER1
  6
CONTINUOUS
 62
     3
 10
508.010766
 20
1799.808582
 11
560.654553
 21
1830.202486
  0
LINE
  8
CSLAYER1
  6
CONTINUOUS
 62
     3
 10
449.593145
 20
1833.536011
 11
483.556878
 21
1813.927041
  0
LINE
  8
CSLAYER1
  6
CONTINUOUS
 62
     3
 10
502.236931
 20
1863.929916
 11
536.200665
 21
1844.320945
  0
LINE
  8
CSLAYER1
  6
CONTINUOUS
 62
     3
 10
446.536409
 20
1813.730951
 11
541.634862
 21
1758.825833
  0
LINE
  8
CSLAYER1
  6
CONTINUOUS
 62
     3
 10
541.634862
 20
1758.433654
 11
597.675022
 21
1790.788455
  0
LINE
  8
CSLAYER1
  6
CONTINUOUS
 62
     3
 10
490.689262
 20
1809.809157
 11
500.878382
 21
1803.926466
  0
LINE
  8
CSLAYER1
  6
CONTINUOUS
 62
     5
 10
541.634862
 20
1760.394551
 11
594.618286
 21
1790.984545
  0
LINE
  8
CSLAYER1
  6
CONTINUOUS
 62
     5
 10
449.593145
 20
1813.927041
 11
483.556878
 21
1794.318070
  0
LINE
  8
CSLAYER1
  6
CONTINUOUS
 62
     3
 10
594.618286
 20
1810.593516
 11
594.618286
 21
1790.984545
  0
LINE
  8
CSLAYER1
  6
CONTINUOUS
 62
     5
 10
508.010766
 20
1799.808582
 11
508.010766
 21
1779.631889
  0
LINE
  8
CSLAYER1
  6
CONTINUOUS
 62
     5
 10
483.556878
 20
1794.318070
 11
483.556878
 21
1813.927041
  0
LINE
  8
CSLAYER1
  6
CONTINUOUS
 62
     3
 10
536.200665
 20
1844.320945
 11
536.200665
 21
1836.085177
  0
LINE
  8
CSLAYER1
  6
CONTINUOUS
 62
     5
 10
490.689262
 20
1790.200186
 11
500.878382
 21
1784.317495
  0
LINE
  8
CSLAYER1
  6
CONTINUOUS
 62
     3
 10
541.634862
 20
1758.433654
 11
541.634862
 21
1750.982245
  0
LINE
  8
CSLAYER1
  6
CONTINUOUS
 62
     3
 10
594.618286
 20
1792.553263
 11
597.675022
 21
1790.788455
  0
LINE
  8
CSLAYER1
  6
CONTINUOUS
 62
     3
 10
490.689262
 20
1809.809157
 11
543.333049
 21
1840.203061
  0
LINE
  8
CSLAYER1
  6
CONTINUOUS
 62
     3
 10
500.878382
 20
1803.926466
 11
553.522169
 21
1834.320370
  0
LINE
  8
CSLAYER1
  6
CONTINUOUS
 62
     3
 10
553.522169
 20
1834.320370
 11
553.522169
 21
1826.084602
  0
LINE
  8
CSLAYER1
  6
CONTINUOUS
 62
     3
 10
543.333049
 20
1840.203061
 11
553.522169
 21
1834.320370
  0
LINE
  8
CSLAYER1
  6
CONTINUOUS
 62
     3
 10
560.654553
 20
1830.202486
 11
594.618286
 21
1810.593516
  0
LINE
  8
CSLAYER1
  6
CONTINUOUS
 62
     3
 10
508.010766
 20
1799.808582
 11
541.634862
 21
1780.395701
  0
LINE
  8
CSLAYER1
  6
CONTINUOUS
 62
     5
 10
500.878382
 20
1803.926466
 11
500.878382
 21
1784.317495
  0
LINE
  8
CSLAYER1
  6
CONTINUOUS
 62
     5
 10
490.689262
 20
1809.809157
 11
490.689262
 21
1790.200186
  0
LINE
  8
CSLAYER1
  6
CONTINUOUS
 62
     5
 10
500.878382
 20
1784.317495
 11
508.010766
 21
1788.435379
  0
LINE
  8
CSLAYER1
  6
CONTINUOUS
 62
     5
 10
483.556878
 20
1794.318070
 11
490.689262
 21
1798.435954
  0
LINE
  8
CSLAYER1
  6
CONTINUOUS
 62
     5
 10
508.010766
 20
1780.199611
 11
541.634862
 21
1760.786730
  0
LINE
  8
CSLAYER1
  6
CONTINUOUS
 62
     3
 10
449.593145
 20
1833.536011
 11
449.593145
 21
1813.927041
  0
LINE
  8
CSLAYER1
  6
CONTINUOUS
 62
     3
 10
446.536409
 20
1813.730951
 11
449.593145
 21
1815.495758
  0
LINE
  8
CSLAYER1
  6
CONTINUOUS
 62
     5
 10
459.782265
 20
1839.418702
 11
493.745998
 21
1819.809732
  0
LINE
  8
CSLAYER1
  6
CONTINUOUS
 62
     5
 10
469.971385
 20
1845.301393
 11
503.935118
 21
1825.692423
  0
LINE
  8
CSLAYER1
  6
CONTINUOUS
 62
     5
 10
480.160505
 20
1851.184085
 11
514.124238
 21
1831.575114
  0
LINE
  8
CSLAYER1
  6
CONTINUOUS
 62
     5
 10
528.389006
 20
1811.573964
 11
562.352739
 21
1791.964994
  0
LINE
  8
CSLAYER1
  6
CONTINUOUS
 62
     5
 10
518.199886
 20
1805.691273
 11
552.163619
 21
1786.082302
  0
LINE
  8
CSLAYER1
  6
CONTINUOUS
 62
     5
 10
538.578126
 20
1817.456655
 11
572.541859
 21
1797.847685
  0
ARC
  8
CSLAYER1
  6
CONTINUOUS
 62
     3
 10
552.478317
 20
1829.127062
 40
10.105980
 50
-0.219250
 51
120.219250
  0
LINE
  8
CSLAYER1
  6
CONTINUOUS
 62
     3
 10
561.108092
 20
1834.386132
 11
675.254287
 21
1900.288468
  0
LINE
  8
CSLAYER1
  6
CONTINUOUS
 62
     3
 10
558.234738
 20
1837.433352
 11
652.738797
 21
1891.995297
  0
LINE
  8
CSLAYER1
  6
CONTINUOUS
 62
     5
 10
517.888228
 20
1893.905666
 11
484.114392
 21
1959.707723
  0
LINE
  8
CSLAYER1
  6
CONTINUOUS
 62
     5
 10
517.888228
 20
1893.905666
 11
497.748326
 21
1916.140421
  0
LINE
  8
CSLAYER1
  6
CONTINUOUS
 62
     5
 10
517.888228
 20
1893.905666
 11
511.563939
 21
1923.231480
  0
LINE
  8
CSLAYER1
  6
CONTINUOUS
 62
     5
 10
262.995746
 20
1693.627020
 11
981.187527
 21
1693.627020
  0
LINE
  8
CSLAYER1
  6
CONTINUOUS
 62
     5
 10
494.402812
 20
2379.290101
 11
732.048592
 21
2379.290101
  0
LINE
  8
CSLAYER1
  6
CONTINUOUS
 62
     5
 10
732.048592
 20
2379.290101
 11
732.048592
 21
2336.190615
  0
LINE
  8
CSLAYER1
  6
CONTINUOUS
 62
     5
 10
732.048592
 20
2336.190615
 11
494.402812
 21
2336.190615
  0
LINE
  8
CSLAYER1
  6
CONTINUOUS
 62
     5
 10
494.402812
 20
2336.190615
 11
494.402812
 21
2379.290101
  0
DIMENSION
  8
CSLAYER1
 62
     3
  2
*D0000
 10
1062.192972
 20
1556.294495
 11
912.193054
 21
1566.294434
 13
762.192972
 23
1463.124757
 14
1062.192972
 24
1463.124757
 70
1
  0
TEXT
  8
CSLAYER1
 62
     5
 10
3069.772673
 20
844.960377
 40
31.844261
 41
0.920655
  1
Ｆ.Ｌ
 50
0.000000
 51
0.000000
  7
EASYDRAW_FONT
 72
     5
 11
3147.952913
 21
844.960377
  0
LINE
  8
CSLAYER1
  6
CENTER
 62
     5
 10
2850.251117
 20
841.353156
 11
2850.251117
 21
941.353156
  0
LINE
  8
CSLAYER1
  6
CENTER
 62
     5
 10
2975.251117
 20
832.423795
 11
2975.251117
 21
856.633756
  0
LINE
  8
CSLAYER1
  6
CENTER
 62
     5
 10
2725.251117
 20
832.423795
 11
2725.251117
 21
856.633756
  0
LINE
  8
CSLAYER1
  6
CENTER
 62
     5
 10
2775.751117
 20
904.053156
 11
2924.751117
 21
904.053156
  0
LINE
  8
CSLAYER1
  6
CONTINUOUS
 62
     3
 10
2750.251117
 20
885.353156
 11
2750.251117
 21
841.353156
  0
LINE
  8
CSLAYER1
  6
CONTINUOUS
 62
     3
 10
2950.251117
 20
885.353156
 11
2950.251117
 21
841.353156
  0
LINE
  8
CSLAYER1
  6
CONTINUOUS
 62
     3
 10
3000.251117
 20
841.353156
 11
3000.251117
 21
847.353156
  0
LINE
  8
CSLAYER1
  6
CONTINUOUS
 62
     3
 10
3000.251117
 20
847.353156
 11
2950.251117
 21
847.353156
  0
LINE
  8
CSLAYER1
  6
CONTINUOUS
 62
     3
 10
2700.251117
 20
841.353156
 11
2700.251117
 21
847.353156
  0
LINE
  8
CSLAYER1
  6
CONTINUOUS
 62
     3
 10
2700.251117
 20
847.353156
 11
2750.251117
 21
847.353156
  0
LINE
  8
CSLAYER1
  6
CONTINUOUS
 62
     3
 10
3000.251117
 20
941.353156
 11
2700.251117
 21
941.353156
  0
LINE
  8
CSLAYER1
  6
CONTINUOUS
 62
     3
 10
2896.251117
 20
885.353156
 11
2896.251117
 21
909.053156
  0
LINE
  8
CSLAYER1
  6
CONTINUOUS
 62
     3
 10
2905.251117
 20
885.353156
 11
2905.251117
 21
909.053156
  0
LINE
  8
CSLAYER1
  6
CONTINUOUS
 62
     3
 10
2908.251117
 20
885.353156
 11
2908.251117
 21
909.053156
  0
LINE
  8
CSLAYER1
  6
CONTINUOUS
 62
     3
 10
2917.251117
 20
885.353156
 11
2917.251117
 21
909.053156
  0
LINE
  8
CSLAYER1
  6
CONTINUOUS
 62
     3
 10
3000.251117
 20
909.053156
 11
2700.251117
 21
909.053156
  0
LINE
  8
CSLAYER1
  6
CONTINUOUS
 62
     3
 10
2924.751117
 20
909.053156
 11
2924.751117
 21
895.053156
  0
ARC
  8
CSLAYER1
  6
CONTINUOUS
 62
     3
 10
2910.955373
 20
904.053156
 40
13.795744
 50
-23.426598
 51
21.249544
  0
LINE
  8
CSLAYER1
  6
CONTINUOUS
 62
     3
 10
2917.251117
 20
898.568328
 11
2923.613937
 21
898.568328
  0
LINE
  8
CSLAYER1
  6
CONTINUOUS
 62
     3
 10
2917.251117
 20
893.083501
 11
2923.613937
 21
893.083501
  0
LINE
  8
CSLAYER1
  6
CONTINUOUS
 62
     3
 10
2924.751117
 20
895.053156
 11
2923.613937
 21
893.083501
  0
ARC
  8
CSLAYER1
  6
CONTINUOUS
 62
     3
 10
2920.971073
 20
895.825914
 40
3.808617
 50
5.661633
 51
46.059028
  0
LINE
  8
CSLAYER1
  6
CONTINUOUS
 62
     3
 10
2888.251117
 20
909.053156
 11
2888.251117
 21
885.353156
  0
LINE
  8
CSLAYER1
  6
CONTINUOUS
 62
     3
 10
2833.251117
 20
885.353156
 11
2833.251117
 21
909.053156
  0
LINE
  8
CSLAYER1
  6
CENTER
 62
     5
 10
2820.751117
 20
885.353156
 11
2820.751117
 21
909.053156
  0
LINE
  8
CSLAYER1
  6
CONTINUOUS
 62
     3
 10
2775.751117
 20
909.053156
 11
2775.751117
 21
895.053156
  0
ARC
  8
CSLAYER1
  6
CONTINUOUS
 62
     3
 10
2789.546862
 20
904.053156
 40
13.795744
 50
158.750456
 51
203.426598
  0
LINE
  8
CSLAYER1
  6
CONTINUOUS
 62
     3
 10
2783.251117
 20
898.568328
 11
2776.888298
 21
898.568328
  0
LINE
  8
CSLAYER1
  6
CONTINUOUS
 62
     3
 10
2783.251117
 20
893.083501
 11
2776.888298
 21
893.083501
  0
LINE
  8
CSLAYER1
  6
CONTINUOUS
 62
     3
 10
2775.751117
 20
895.053156
 11
2776.888298
 21
893.083501
  0
ARC
  8
CSLAYER1
  6
CONTINUOUS
 62
     3
 10
2779.531162
 20
895.825914
 40
3.808617
 50
133.940972
 51
174.338367
  0
LINE
  8
CSLAYER1
  6
CONTINUOUS
 62
     3
 10
2804.251117
 20
885.353156
 11
2804.251117
 21
909.053156
  0
LINE
  8
CSLAYER1
  6
CONTINUOUS
 62
     3
 10
2795.251117
 20
885.353156
 11
2795.251117
 21
909.053156
  0
LINE
  8
CSLAYER1
  6
CONTINUOUS
 62
     3
 10
2792.251117
 20
885.353156
 11
2792.251117
 21
909.053156
  0
LINE
  8
CSLAYER1
  6
CONTINUOUS
 62
     3
 10
2783.251117
 20
885.353156
 11
2783.251117
 21
909.053156
  0
LINE
  8
CSLAYER1
  6
CONTINUOUS
 62
     3
 10
2816.601117
 20
885.353156
 11
2816.601117
 21
909.053156
  0
LINE
  8
CSLAYER1
  6
CONTINUOUS
 62
     3
 10
2824.901117
 20
885.353156
 11
2824.901117
 21
909.053156
  0
LINE
  8
CSLAYER1
  6
CONTINUOUS
 62
     3
 10
2750.251117
 20
885.353156
 11
2950.251117
 21
885.353156
  0
DIMENSION
  8
CSLAYER1
 62
     3
  2
*D0001
 10
2615.271848
 20
941.353156
 11
2605.271973
 21
891.352966
 13
2710.251117
 23
841.353156
 14
2710.251117
 24
941.353156
 50
90.000000
 70
1
  0
TEXT
  8
CSLAYER1
 62
     7
 10
2802.391602
 20
994.987366
 40
40.000000
 41
0.843750
  1
下降時
 50
0.000000
 51
0.000000
  7
EASYDRAW_FONT
 72
     5
 11
2892.391602
 21
994.987366
  0
LINE
  8
CSLAYER1
  6
CONTINUOUS
 62
     5
 10
2788.785387
 20
1041.417699
 11
2911.743396
 21
1041.417699
  0
LINE
  8
CSLAYER1
  6
CONTINUOUS
 62
     5
 10
2911.743396
 20
1041.417699
 11
2911.743396
 21
988.557246
  0
LINE
  8
CSLAYER1
  6
CONTINUOUS
 62
     5
 10
2911.743396
 20
988.557246
 11
2788.785387
 21
988.557246
  0
LINE
  8
CSLAYER1
  6
CONTINUOUS
 62
     5
 10
2788.785387
 20
988.557246
 11
2788.785387
 21
1041.417699
  0
LINE
  8
CSLAYER1
  6
CONTINUOUS
 62
     3
 10
2700.251117
 20
909.053156
 11
2700.251117
 21
941.353156
  0
LINE
  8
CSLAYER1
  6
CONTINUOUS
 62
     3
 10
3000.251117
 20
909.053156
 11
3000.251117
 21
941.353156
  0
LINE
  8
CSLAYER1
  6
CENTER
 62
     5
 10
1480.014443
 20
1950.860719
 11
2310.150146
 21
1950.860719
  0
LINE
  8
CSLAYER1
  6
CONTINUOUS
 62
     4
 10
1482.714443
 20
2100.860719
 11
1482.714443
 21
1800.860719
  0
LINE
  8
CSLAYER1
  6
CONTINUOUS
 62
     4
 10
2310.150146
 20
2100.860719
 11
2310.150146
 21
1800.860719
  0
LINE
  8
CSLAYER1
  6
CONTINUOUS
 62
     3
 10
1480.014443
 20
1976.710719
 11
1480.014443
 21
1810.860719
  0
LINE
  8
CSLAYER1
  6
CONTINUOUS
 62
     3
 10
1490.014443
 20
2100.860719
 11
1520.014443
 21
2100.860719
  0
LINE
  8
CSLAYER1
  6
CENTER
 62
     5
 10
1505.014443
 20
2064.597917
 11
1505.014443
 21
2087.123520
  0
LINE
  8
CSLAYER1
  6
CENTER
 62
     5
 10
1493.751642
 20
2075.860719
 11
1516.277244
 21
2075.860719
  0
LINE
  8
CSLAYER1
  6
CENTER
 62
     5
 10
1255.318284
 20
1980.860719
 11
1482.714443
 21
1980.860719
  0
LINE
  8
CSLAYER1
  6
CONTINUOUS
 62
     3
 10
1255.318284
 20
1985.010719
 11
1482.714443
 21
1985.010719
  0
LINE
  8
CSLAYER1
  6
CONTINUOUS
 62
     3
 10
1255.318284
 20
1976.710719
 11
1482.714443
 21
1976.710719
  0
LINE
  8
CSLAYER1
  6
CONTINUOUS
 62
     3
 10
1480.014443
 20
1985.010719
 11
1480.014443
 21
2090.860719
  0
DIMENSION
  8
CSLAYER1
 62
     3
  2
*D0002
 10
2310.150146
 20
1546.955082
 11
1910.150024
 21
1556.954834
 13
1510.150146
 23
1463.124757
 14
2310.150146
 24
1463.124757
 70
1
  0
LINE
  8
CSLAYER1
  6
CONTINUOUS
 62
     4
 10
1482.714443
 20
2100.860719
 11
2310.150146
 21
2100.860719
  0
ARC
  8
CSLAYER1
  6
CONTINUOUS
 62
     3
 10
1490.014443
 20
2090.860719
 40
10.000000
 50
136.886394
 51
180.000000
  0
LINE
  8
CSLAYER1
  6
CONTINUOUS
 62
     3
 10
1490.014443
 20
1800.860719
 11
1520.014443
 21
1800.860719
  0
LINE
  8
CSLAYER1
  6
CENTER
 62
     5
 10
1505.014443
 20
1837.123520
 11
1505.014443
 21
1814.597917
  0
LINE
  8
CSLAYER1
  6
CENTER
 62
     5
 10
1493.751642
 20
1825.860719
 11
1516.277244
 21
1825.860719
  0
LINE
  8
CSLAYER1
  6
CONTINUOUS
 62
     3
 10
1480.014443
 20
1876.360719
 11
1482.714443
 21
1876.360719
  0
LINE
  8
CSLAYER1
  6
CONTINUOUS
 62
     4
 10
1482.714443
 20
1800.860719
 11
2310.150146
 21
1800.860719
  0
ARC
  8
CSLAYER1
  6
CONTINUOUS
 62
     3
 10
1490.014443
 20
1810.860719
 40
10.000000
 50
180.000000
 51
223.113606
  0
DIMENSION
  8
CSLAYER1
 62
     3
  2
*D0003
 10
2403.219311
 20
2100.860719
 11
2393.219482
 21
1950.860840
 13
2310.150146
 23
1800.860719
 14
2310.150146
 24
2100.860719
 50
90.000000
 70
1
  0
TEXT
  8
CSLAYER1
 62
     7
 10
1492.643188
 20
2173.684570
 40
40.000000
 41
0.843750
  1
下降時
 50
0.000000
 51
0.000000
  7
EASYDRAW_FONT
 72
     5
 11
1582.643188
 21
2173.684570
  0
LINE
  8
CSLAYER1
  6
CONTINUOUS
 62
     5
 10
1479.036925
 20
2220.114872
 11
1601.994935
 21
2220.114872
  0
LINE
  8
CSLAYER1
  6
CONTINUOUS
 62
     5
 10
1601.994935
 20
2220.114872
 11
1601.994935
 21
2167.254419
  0
LINE
  8
CSLAYER1
  6
CONTINUOUS
 62
     5
 10
1601.994935
 20
2167.254419
 11
1479.036925
 21
2167.254419
  0
LINE
  8
CSLAYER1
  6
CONTINUOUS
 62
     5
 10
1479.036925
 20
2167.254419
 11
1479.036925
 21
2220.114872
  0
DIMENSION
  8
CSLAYER1
 62
     3
  2
*D0004
 10
1505.014443
 20
1736.800654
 11
1439.158813
 21
1720.533447
 13
1480.014443
 23
1669.989086
 14
1505.014443
 24
1814.597917
  0
DIMENSION
  8
CSLAYER1
 62
     3
  2
*D0005
 10
1530.014443
 20
1669.989086
 11
1440.320679
 21
1653.140869
 13
1480.014443
 23
1810.860719
 14
1530.014443
 24
1810.860719
 52
270.000000
 70
1
  0
INSERT
  8
CSLAYER1
  2
EASYDRAWDIM0000
 10
0.0
 20
0.0
 30
0.0
  0
ARC
  8
CSLAYER1
  6
CONTINUOUS
 62
     5
 10
1505.014443
 20
1825.860719
 40
6.500000
 50
244.452294
 51
292.969420
  0
DIMENSION
  8
CSLAYER1
 62
     3
  2
*D0006
 10
1394.760382
 20
2075.860719
 11
1386.508179
 21
1925.308105
 13
1493.751642
 23
1825.860719
 14
1493.751642
 24
2075.860719
 50
90.000000
 70
1
  0
INSERT
  8
CSLAYER1
  2
EASYDRAWDIM0001
 10
0.0
 20
0.0
 30
0.0
  0
ARC
  8
CSLAYER1
  6
CONTINUOUS
 62
     5
 10
1505.014443
 20
1825.860719
 40
6.500000
 50
62.740267
 51
113.228660
  0
ARC
  8
CSLAYER1
  6
CONTINUOUS
 62
     5
 10
1505.014443
 20
1825.860719
 40
6.500000
 50
150.667324
 51
208.584235
  0
ARC
  8
CSLAYER1
  6
CONTINUOUS
 62
     5
 10
1505.014443
 20
1825.860719
 40
6.500000
 50
-27.313840
 51
24.091742
  0
LINE
  8
CSLAYER1
  6
DASHED
 62
     5
 10
1530.014443
 20
1810.860719
 11
1530.014443
 21
1850.860719
  0
ARC
  8
CSLAYER1
  6
CONTINUOUS
 62
     5
 10
1520.014443
 20
1810.860719
 40
10.000000
 50
270.000000
 51
360.000000
  0
ARC
  8
CSLAYER1
  6
CONTINUOUS
 62
     5
 10
1505.014443
 20
2075.860719
 40
6.500000
 50
246.771340
 51
297.259733
  0
ARC
  8
CSLAYER1
  6
CONTINUOUS
 62
     5
 10
1505.014443
 20
2075.860719
 40
6.500000
 50
-24.091742
 51
27.313840
  0
ARC
  8
CSLAYER1
  6
CONTINUOUS
 62
     5
 10
1505.014443
 20
2075.860719
 40
6.500000
 50
67.030580
 51
115.547706
  0
ARC
  8
CSLAYER1
  6
CONTINUOUS
 62
     5
 10
1505.014443
 20
2075.860719
 40
6.500000
 50
151.415765
 51
209.332676
  0
LINE
  8
CSLAYER1
  6
DASHED
 62
     5
 10
1530.014443
 20
2090.860719
 11
1530.014443
 21
2050.860719
  0
ARC
  8
CSLAYER1
  6
CONTINUOUS
 62
     5
 10
1520.014443
 20
2090.860719
 40
10.000000
 50
0.000000
 51
90.000000
  0
LINE
  8
CSLAYER1
  6
DASHED
 62
     5
 10
1482.714443
 20
2050.860719
 11
2310.150146
 21
2050.860719
  0
LINE
  8
CSLAYER1
  6
DASHED
 62
     5
 10
1482.714443
 20
1850.860719
 11
2310.150146
 21
1850.860719
  0
LINE
  8
CSLAYER1
  6
CONTINUOUS
 62
     3
 10
1480.014443
 20
2025.360719
 11
1482.714443
 21
2025.360719
  0
ARC
  8
CSLAYER1
  6
CONTINUOUS
 62
     5
 10
1490.014443
 20
1810.860719
 40
10.000000
 50
223.113606
 51
270.000000
  0
ARC
  8
CSLAYER1
  6
CONTINUOUS
 62
     5
 10
1490.014443
 20
2090.860719
 40
10.000000
 50
90.000000
 51
136.886394
  0
LINE
  8
CSLAYER1
  6
CENTER
 62
     5
 10
1505.014443
 20
879.217195
 11
1505.014443
 21
850.440381
  0
POINT
  8
CSLAYER1
 62
     4
 10
1505.014443
 20
864.353156
  0
LINE
  8
CSLAYER1
  6
CONTINUOUS
 62
     3
 10
1480.014443
 20
885.353156
 11
1480.014443
 21
841.353156
  0
LINE
  8
CSLAYER1
  6
CONTINUOUS
 62
     3
 10
1530.014443
 20
885.353156
 11
1530.014443
 21
841.353156
  0
LINE
  8
CSLAYER1
  6
CONTINUOUS
 62
     3
 10
1480.014443
 20
847.353156
 11
1530.014443
 21
847.353156
  0
LINE
  8
CSLAYER1
  6
CONTINUOUS
 62
     3
 10
1524.014443
 20
885.353156
 11
1524.014443
 21
847.353156
  0
CIRCLE
  8
CSLAYER1
  6
CONTINUOUS
 62
     3
 10
1505.014443
 20
864.353156
 40
8.650000
  0
CIRCLE
  8
CSLAYER1
  6
CONTINUOUS
 62
     3
 10
1505.014443
 20
864.353156
 40
5.000000
  0
CIRCLE
  8
CSLAYER1
  6
CONTINUOUS
 62
     3
 10
1505.014443
 20
864.353156
 40
9.500000
  0
LINE
  8
CSLAYER1
  6
CONTINUOUS
 62
     3
 10
1514.514443
 20
869.837983
 11
1505.014443
 21
875.322811
  0
LINE
  8
CSLAYER1
  6
CONTINUOUS
 62
     3
 10
1505.014443
 20
875.322811
 11
1495.514443
 21
869.837983
  0
LINE
  8
CSLAYER1
  6
CONTINUOUS
 62
     3
 10
1495.514443
 20
869.837983
 11
1495.514443
 21
858.868328
  0
LINE
  8
CSLAYER1
  6
CONTINUOUS
 62
     3
 10
1495.514443
 20
858.868328
 11
1505.014443
 21
853.383501
  0
LINE
  8
CSLAYER1
  6
CONTINUOUS
 62
     3
 10
1505.014443
 20
853.383501
 11
1514.514443
 21
858.868328
  0
LINE
  8
CSLAYER1
  6
CONTINUOUS
 62
     3
 10
1514.514443
 20
858.868328
 11
1514.514443
 21
869.837983
  0
POINT
  8
CSLAYER1
 62
     3
 10
1505.014443
 20
864.353156
  0
CIRCLE
  8
CSLAYER1
  6
CONTINUOUS
 62
     3
 10
1505.014443
 20
864.353156
 40
6.000000
  0
LINE
  8
CSLAYER1
  6
CONTINUOUS
 62
     3
 10
1480.014443
 20
885.353156
 11
2282.714443
 21
885.353156
  0
LINE
  8
CSLAYER1
  6
CONTINUOUS
 62
     3
 10
2282.714443
 20
885.353156
 11
2282.714443
 21
841.353156
  0
LINE
  8
CSLAYER1
  6
CONTINUOUS
 62
     7
 10
1552.264302
 20
925.889331
 11
1563.666152
 21
914.664457
  0
LINE
  8
CSLAYER1
  6
CONTINUOUS
 62
     7
 10
1576.818714
 20
950.830879
 11
1588.220565
 21
939.606005
  0
LINE
  8
CSLAYER1
  6
CONTINUOUS
 62
     7
 10
1567.908663
 20
914.697640
 11
1588.253748
 21
935.363494
  0
LINE
  8
CSLAYER1
  6
CONTINUOUS
 62
     7
 10
1552.231119
 20
930.131842
 11
1572.576203
 21
950.797696
  0
ARC
  8
CSLAYER1
  6
CONTINUOUS
 62
     7
 10
1554.368966
 20
928.027178
 40
3.000000
 50
135.448133
 51
225.448133
  0
ARC
  8
CSLAYER1
  6
CONTINUOUS
 62
     7
 10
1574.714050
 20
948.693032
 40
3.000000
 50
45.448133
 51
135.448133
  0
ARC
  8
CSLAYER1
  6
CONTINUOUS
 62
     7
 10
1565.770816
 20
916.802304
 40
3.000000
 50
225.448133
 51
315.448133
  0
ARC
  8
CSLAYER1
  6
CONTINUOUS
 62
     7
 10
1586.115901
 20
937.468158
 40
3.000000
 50
-44.551867
 51
45.448133
  0
CIRCLE
  8
CSLAYER1
  6
CONTINUOUS
 62
     4
 10
1564.980773
 20
927.403050
 40
8.250000
  0
LINE
  8
CSLAYER1
  6
CONTINUOUS
 62
     4
 10
1654.740036
 20
1102.037740
 11
1660.693228
 21
1098.032944
  0
LINE
  8
CSLAYER1
  6
CONTINUOUS
 62
     4
 10
1621.136687
 20
1058.356337
 11
1621.434943
 21
1058.155696
  0
LINE
  8
CSLAYER1
  6
CONTINUOUS
 62
     4
 10
1620.865129
 20
1059.744234
 11
1639.842881
 21
1087.954958
  0
LINE
  8
CSLAYER1
  6
CONTINUOUS
 62
     4
 10
1639.842881
 20
1087.954958
 11
1654.740036
 21
1102.037740
  0
LINE
  8
CSLAYER1
  6
CONTINUOUS
 62
     4
 10
1620.865129
 20
1059.744234
 11
1621.136687
 21
1058.356337
  0
POINT
  8
CSLAYER1
 62
     4
 10
1564.980773
 20
927.403050
  0
CIRCLE
  8
CSLAYER1
  6
CONTINUOUS
 62
     4
 10
1762.070307
 20
1220.379715
 40
8.000000
  0
POINT
  8
CSLAYER1
 62
     4
 10
1762.070307
 20
1220.379715
  0
LINE
  8
CSLAYER1
  6
CONTINUOUS
 62
     4
 10
1658.888672
 20
1099.246894
 11
1707.883688
 21
1172.078749
  0
LINE
  8
CSLAYER1
  6
CENTER
 62
     5
 10
1564.980773
 20
927.403050
 11
1769.661407
 21
1231.664004
  0
CIRCLE
  8
CSLAYER1
  6
CONTINUOUS
 62
     7
 10
1768.097434
 20
1131.584029
 40
10.000000
  0
CIRCLE
  8
CSLAYER1
  6
CONTINUOUS
 62
     7
 10
1762.070307
 20
1220.379715
 40
8.000000
  0
ARC
  8
CSLAYER1
  6
CONTINUOUS
 62
     7
 10
1720.738598
 20
1179.689546
 40
72.000000
 50
33.832141
 51
87.150680
  0
LINE
  8
CSLAYER1
  6
CONTINUOUS
 62
     7
 10
1708.655682
 20
1171.294584
 11
1571.852527
 21
1310.254638
  0
LINE
  8
CSLAYER1
  6
CONTINUOUS
 62
     7
 10
1806.873332
 20
1071.528391
 11
1788.210237
 21
1081.220599
  0
LINE
  8
CSLAYER1
  6
CONTINUOUS
 62
     7
 10
1708.655682
 20
1171.294584
 11
1716.789822
 21
1155.013982
  0
LINE
  8
CSLAYER1
  6
CONTINUOUS
 62
     7
 10
1768.097434
 20
1101.650509
 11
1788.210237
 21
1081.220599
  0
LINE
  8
CSLAYER1
  6
CONTINUOUS
 62
     7
 10
1806.873332
 20
1071.528391
 11
1990.158807
 21
885.353156
  0
POINT
  8
CSLAYER1
 62
     7
 10
2031.180425
 20
864.353156
  0
ARC
  8
CSLAYER1
  6
CONTINUOUS
 62
     7
 10
2031.180425
 20
864.353156
 40
18.500000
 50
65.556769
 51
120.003527
  0
POINT
  8
CSLAYER1
 62
     7
 10
1762.070307
 20
1220.379715
  0
POINT
  8
CSLAYER1
 62
     7
 10
1768.097434
 20
1131.584029
  0
LINE
  8
CSLAYER1
  6
CONTINUOUS
 62
     7
 10
2019.840230
 20
951.418648
 11
2039.946068
 21
885.353156
  0
LINE
  8
CSLAYER1
  6
CONTINUOUS
 62
     7
 10
1560.110458
 20
1418.396723
 11
1724.317684
 21
1251.600533
  0
LINE
  8
CSLAYER1
  6
CONTINUOUS
 62
     7
 10
1571.852527
 20
1310.254638
 11
1521.630650
 21
1414.858392
  0
LINE
  8
CSLAYER1
  6
CONTINUOUS
 62
     7
 10
1819.452482
 20
1154.965798
 11
2019.840230
 21
951.418648
  0
LINE
  8
CSLAYER1
  6
CONTINUOUS
 62
     4
 10
1994.898682
 20
1336.303823
 11
2014.797960
 21
1410.989800
  0
ARC
  8
CSLAYER1
  6
CONTINUOUS
 62
     4
 10
2003.744722
 20
1425.824757
 40
18.500000
 50
-187.141738
 51
7.141738
  0
ARC
  8
CSLAYER1
  6
CONTINUOUS
 62
     4
 10
2003.744722
 20
1425.824757
 40
6.000000
 50
-202.540310
 51
22.540310
  0
POINT
  8
CSLAYER1
 62
     4
 10
1768.097434
 20
1131.584029
  0
LINE
  8
CSLAYER1
  6
CONTINUOUS
 62
     4
 10
1985.351546
 20
1427.809969
 11
1516.354638
 21
951.418648
  0
LINE
  8
CSLAYER1
  6
CONTINUOUS
 62
     4
 10
1994.898682
 20
1336.303823
 11
1823.017794
 21
1161.712986
  0
LINE
  8
CSLAYER1
  6
CONTINUOUS
 62
     4
 10
1823.017794
 20
1161.712986
 11
1818.140095
 21
1152.482165
  0
LINE
  8
CSLAYER1
  6
CONTINUOUS
 62
     4
 10
1747.984631
 20
1081.220599
 11
1818.140095
 21
1152.482165
  0
LINE
  8
CSLAYER1
  6
CONTINUOUS
 62
     4
 10
1738.831237
 20
1076.199106
 11
1747.984631
 21
1081.220599
  0
LINE
  8
CSLAYER1
  6
CONTINUOUS
 62
     4
 10
1550.947544
 20
885.353156
 11
1738.831237
 21
1076.199106
  0
LINE
  8
CSLAYER1
  6
CONTINUOUS
 62
     4
 10
1516.354638
 20
951.418648
 11
1497.491012
 21
885.353156
  0
LINE
  8
CSLAYER1
  6
CONTINUOUS
 62
     7
 10
1564.845686
 20
899.470422
 11
1567.339841
 21
897.014980
  0
CIRCLE
  8
CSLAYER1
  6
CONTINUOUS
 62
     7
 10
1564.980773
 20
927.403050
 40
8.000000
  0
LINE
  8
CSLAYER1
  6
CONTINUOUS
 62
     7
 10
1586.972310
 20
918.382389
 11
1566.627225
 21
897.716535
  0
LINE
  8
CSLAYER1
  6
CONTINUOUS
 62
     7
 10
1576.205648
 20
938.804901
 11
1584.044420
 21
931.087800
  0
ARC
  8
CSLAYER1
  6
CONTINUOUS
 62
     7
 10
1564.980773
 20
927.403050
 40
16.000000
 50
45.448133
 51
88.880670
  0
ARC
  8
CSLAYER1
  6
CONTINUOUS
 62
     7
 10
1581.984000
 20
923.293272
 40
7.000000
 50
-44.551867
 51
5.442932
  0
POINT
  8
CSLAYER1
 62
     7
 10
1564.980773
 20
927.403050
  0
LINE
  8
CSLAYER1
  6
CONTINUOUS
 62
     7
 10
1567.339841
 20
897.014980
 11
1555.859028
 21
885.353156
  0
LINE
  8
CSLAYER1
  6
CONTINUOUS
 62
     4
 10
1639.842881
 20
1087.954958
 11
1646.417488
 21
1083.532127
  0
LINE
  8
CSLAYER1
  6
CENTER
 62
     5
 10
2031.180425
 20
885.981726
 11
2031.180425
 21
843.492145
  0
LINE
  8
CSLAYER1
  6
CENTER
 62
     5
 10
2007.816353
 20
864.353156
 11
2058.272730
 21
864.353156
  0
ARC
  8
CSLAYER1
  6
CONTINUOUS
 62
     7
 10
2031.180425
 20
864.353156
 40
18.500000
 50
158.503526
 51
207.162714
  0
ARC
  8
CSLAYER1
  6
CONTINUOUS
 62
     7
 10
2031.180425
 20
864.353156
 40
18.500000
 50
246.238191
 51
293.124953
  0
ARC
  8
CSLAYER1
  6
CONTINUOUS
 62
     7
 10
2031.180425
 20
864.353156
 40
18.500000
 50
-26.285980
 51
29.355347
  0
LINE
  8
CSLAYER1
  6
CENTER
 62
     5
 10
1749.737649
 20
1131.584029
 11
1786.864250
 21
1131.584029
  0
LINE
  8
CSLAYER1
  6
CENTER
 62
     5
 10
1748.751987
 20
1220.379715
 11
1776.021968
 21
1220.379715
  0
LINE
  8
CSLAYER1
  6
CENTER
 62
     5
 10
1762.070307
 20
1232.728256
 11
1762.070307
 21
1206.443937
  0
LINE
  8
CSLAYER1
  6
CENTER
 62
     5
 10
1768.097434
 20
1150.261203
 11
1768.097434
 21
1113.791710
  0
LINE
  8
CSLAYER1
  6
CENTER
 62
     5
 10
2003.744722
 20
1444.849412
 11
2003.744722
 21
1402.307952
  0
LINE
  8
CSLAYER1
  6
CENTER
 62
     5
 10
1532.450146
 20
1463.124757
 11
1532.450146
 21
1406.381548
  0
LINE
  8
CSLAYER1
  6
CENTER
 62
     5
 10
1488.385241
 20
864.353156
 11
1520.755527
 21
864.353156
  0
POINT
  8
CSLAYER1
 62
     7
 10
1532.450146
 20
1425.824757
  0
POINT
  8
CSLAYER1
 62
     4
 10
2003.744722
 20
1425.824757
  0
LINE
  8
CSLAYER1
  6
CENTER
 62
     5
 10
1980.586798
 20
1425.824757
 11
2022.244722
 21
1425.824757
  0
LINE
  8
CSLAYER1
  6
CENTER
 62
     5
 10
1518.397547
 20
1425.824757
 11
1547.676240
 21
1425.824757
  0
LINE
  8
CSLAYER1
  6
CONTINUOUS
 62
     3
 10
2310.150146
 20
1463.124757
 11
2310.150146
 21
1428.124757
  0
ARC
  8
CSLAYER1
  6
CONTINUOUS
 62
     3
 10
1532.450146
 20
1425.824757
 40
9.500000
 50
-194.010828
 51
14.010828
  0
LINE
  8
CSLAYER1
  6
CONTINUOUS
 62
     3
 10
1522.950146
 20
1428.124757
 11
1522.950146
 21
1420.339929
  0
LINE
  8
CSLAYER1
  6
CONTINUOUS
 62
     3
 10
1522.950146
 20
1420.339929
 11
1532.450146
 21
1414.855102
  0
LINE
  8
CSLAYER1
  6
CONTINUOUS
 62
     3
 10
1532.450146
 20
1414.855102
 11
1541.950146
 21
1420.339929
  0
LINE
  8
CSLAYER1
  6
CONTINUOUS
 62
     3
 10
1541.950146
 20
1420.339929
 11
1541.950146
 21
1428.124757
  0
POINT
  8
CSLAYER1
 62
     3
 10
1532.450146
 20
1425.824757
  0
POINT
  8
CSLAYER1
 62
     3
 10
1532.450146
 20
1425.824757
  0
ARC
  8
CSLAYER1
  6
CONTINUOUS
 62
     3
 10
1522.450146
 20
1424.824757
 40
10.000000
 50
180.000000
 51
270.000000
  0
LINE
  8
CSLAYER1
  6
CONTINUOUS
 62
     3
 10
1522.450146
 20
1414.824757
 11
1552.450146
 21
1414.824757
  0
ARC
  8
CSLAYER1
  6
CONTINUOUS
 62
     3
 10
1552.450146
 20
1424.824757
 40
10.000000
 50
270.000000
 51
360.000000
  0
LINE
  8
CSLAYER1
  6
CONTINUOUS
 62
     3
 10
1562.450146
 20
1428.124757
 11
1562.450146
 21
1424.824757
  0
LINE
  8
CSLAYER1
  6
CONTINUOUS
 62
     3
 10
1512.450146
 20
1428.124757
 11
1512.450146
 21
1424.824757
  0
LINE
  8
CSLAYER1
  6
CONTINUOUS
 62
     3
 10
1510.150146
 20
1463.124757
 11
2310.150146
 21
1463.124757
  0
LINE
  8
CSLAYER1
  6
CONTINUOUS
 62
     3
 10
1510.150146
 20
1463.124757
 11
1510.150146
 21
1428.124757
  0
LINE
  8
CSLAYER1
  6
CONTINUOUS
 62
     3
 10
1510.150146
 20
1428.124757
 11
2310.150146
 21
1428.124757
  0
LINE
  8
CSLAYER1
  6
CENTER
 62
     5
 10
1505.014443
 20
906.353156
 11
1505.014443
 21
884.609947
  0
POINT
  8
CSLAYER1
 62
     5
 10
1505.014443
 20
904.053156
  0
POINT
  8
CSLAYER1
 62
     5
 10
1976.309019
 20
904.053156
  0
LINE
  8
CSLAYER1
  6
PHANTOM
 62
     5
 10
1953.151095
 20
904.053156
 11
1994.809019
 21
904.053156
  0
LINE
  8
CSLAYER1
  6
PHANTOM
 62
     5
 10
1490.961844
 20
904.053156
 11
1520.240537
 21
904.053156
  0
LINE
  8
CSLAYER1
  6
PHANTOM
 62
     5
 10
2282.714443
 20
941.353156
 11
2282.714443
 21
906.353156
  0
ARC
  8
CSLAYER1
  6
PHANTOM
 62
     5
 10
1505.014443
 20
904.053156
 40
9.500000
 50
-194.010828
 51
14.010828
  0
LINE
  8
CSLAYER1
  6
PHANTOM
 62
     5
 10
1495.514443
 20
906.353156
 11
1495.514443
 21
898.568328
  0
LINE
  8
CSLAYER1
  6
PHANTOM
 62
     5
 10
1495.514443
 20
898.568328
 11
1505.014443
 21
893.083501
  0
LINE
  8
CSLAYER1
  6
PHANTOM
 62
     5
 10
1505.014443
 20
893.083501
 11
1514.514443
 21
898.568328
  0
LINE
  8
CSLAYER1
  6
PHANTOM
 62
     5
 10
1514.514443
 20
898.568328
 11
1514.514443
 21
906.353156
  0
POINT
  8
CSLAYER1
 62
     5
 10
1505.014443
 20
904.053156
  0
POINT
  8
CSLAYER1
 62
     5
 10
1505.014443
 20
904.053156
  0
ARC
  8
CSLAYER1
  6
PHANTOM
 62
     5
 10
1495.014443
 20
903.053156
 40
10.000000
 50
180.000000
 51
270.000000
  0
LINE
  8
CSLAYER1
  6
PHANTOM
 62
     5
 10
1495.014443
 20
893.053156
 11
1525.014443
 21
893.053156
  0
ARC
  8
CSLAYER1
  6
PHANTOM
 62
     5
 10
1525.014443
 20
903.053156
 40
10.000000
 50
270.000000
 51
360.000000
  0
LINE
  8
CSLAYER1
  6
PHANTOM
 62
     5
 10
1535.014443
 20
906.353156
 11
1535.014443
 21
903.053156
  0
LINE
  8
CSLAYER1
  6
PHANTOM
 62
     5
 10
1485.014443
 20
906.353156
 11
1485.014443
 21
903.053156
  0
LINE
  8
CSLAYER1
  6
PHANTOM
 62
     5
 10
1482.714443
 20
941.353156
 11
2282.714443
 21
941.353156
  0
LINE
  8
CSLAYER1
  6
PHANTOM
 62
     5
 10
1482.714443
 20
941.353156
 11
1482.714443
 21
906.353156
  0
LINE
  8
CSLAYER1
  6
PHANTOM
 62
     5
 10
1482.714443
 20
906.353156
 11
2282.714443
 21
906.353156
  0
DIMENSION
  8
CSLAYER1
 62
     3
  2
*D0007
 10
2395.926265
 20
941.353156
 11
2385.926270
 21
891.352966
 13
2496.319338
 23
841.353156
 14
2282.714443
 24
941.353156
 50
90.000000
  0
DIMENSION
  8
CSLAYER1
 62
     3
  2
*D0008
 10
2395.926265
 20
1463.124757
 11
2385.926270
 21
1202.239014
 13
2275.533191
 23
941.353156
 14
2275.533191
 24
1463.124757
 50
90.000000
 70
1
  0
DIMENSION
  8
CSLAYER1
 62
     3
  2
*D0009
 10
2496.319338
 20
841.353156
 11
2486.319336
 21
1152.239014
 13
2496.319338
 23
1463.124757
 14
2496.319338
 24
841.353156
 50
90.000000
 70
1
  0
DIMENSION
  8
CSLAYER1
 62
     3
  2
*D0010
 10
1510.150146
 20
1264.630787
 11
1400.608765
 21
1288.101318
 13
1482.714443
 23
941.353156
 14
1510.150146
 24
1428.124757
  0
INSERT
  8
CSLAYER1
  2
EASYDRAWDIM0002
 10
0.0
 20
0.0
 30
0.0
  0
INSERT
  8
CSLAYER1
  2
EASYDRAWDIM0003
 10
0.0
 20
0.0
 30
0.0
  0
LINE
  8
CSLAYER1
  6
CONTINUOUS
 62
     3
 10
1340.219787
 20
865.503156
 11
1480.014443
 21
865.503156
  0
LINE
  8
CSLAYER1
  6
CENTER
 62
     5
 10
1340.219787
 20
861.353156
 11
1480.014443
 21
861.353156
  0
LINE
  8
CSLAYER1
  6
CONTINUOUS
 62
     3
 10
1340.219787
 20
857.203156
 11
1480.014443
 21
857.203156
  0
LINE
  8
CSLAYER1
  6
CONTINUOUS
 62
     5
 10
1639.842881
 20
1087.954958
 11
1386.535053
 21
1187.892309
  0
LINE
  8
CSLAYER1
  6
CONTINUOUS
 62
     5
 10
1639.842881
 20
1087.954958
 11
1610.037548
 21
1091.367017
  0
LINE
  8
CSLAYER1
  6
CONTINUOUS
 62
     5
 10
1639.842881
 20
1087.954958
 11
1615.736735
 21
1105.812554
  0
DIMENSION
  8
CSLAYER1
 62
     3
  2
*D0011
 10
2282.714443
 20
621.247747
 11
1881.364380
 21
631.247803
 13
1480.014443
 23
841.353156
 14
2282.714443
 24
841.353156
 52
270.000000
 70
1
  0
LINE
  8
CSLAYER1
  6
CENTER
 62
     5
 10
912.192972
 20
1421.331266
 11
912.192972
 21
841.353156
  0
LINE
  8
CSLAYER1
  6
CENTER
 62
     5
 10
1037.192972
 20
832.423795
 11
1037.192972
 21
856.633756
  0
LINE
  8
CSLAYER1
  6
CENTER
 62
     5
 10
787.192972
 20
832.423795
 11
787.192972
 21
856.633756
  0
LINE
  8
CSLAYER1
  6
CENTER
 62
     5
 10
882.192972
 20
844.663592
 11
882.192972
 21
877.926912
  0
LINE
  8
CSLAYER1
  6
CENTER
 62
     5
 10
864.319026
 20
861.353156
 11
901.315983
 21
861.353156
  0
LINE
  8
CSLAYER1
  6
CENTER
 62
     5
 10
837.692972
 20
1425.824757
 11
986.692972
 21
1425.824757
  0
LINE
  8
CSLAYER1
  6
CENTER
 62
     5
 10
832.692972
 20
1131.584029
 11
995.692972
 21
1131.584029
  0
LINE
  8
CSLAYER1
  6
CONTINUOUS
 62
     3
 10
843.692972
 20
881.353156
 11
912.192972
 21
881.353156
  0
LINE
  8
CSLAYER1
  6
CONTINUOUS
 62
     3
 10
762.192972
 20
841.353156
 11
912.192972
 21
841.353156
  0
LINE
  8
CSLAYER1
  6
CONTINUOUS
 62
     3
 10
812.192972
 20
885.353156
 11
812.192972
 21
847.353156
  0
LINE
  8
CSLAYER1
  6
CONTINUOUS
 62
     3
 10
980.692972
 20
881.353156
 11
912.192972
 21
881.353156
  0
LINE
  8
CSLAYER1
  6
CONTINUOUS
 62
     3
 10
1062.192972
 20
841.353156
 11
912.192972
 21
841.353156
  0
LINE
  8
CSLAYER1
  6
CONTINUOUS
 62
     3
 10
1012.192972
 20
885.353156
 11
1012.192972
 21
847.353156
  0
LINE
  8
CSLAYER1
  6
CONTINUOUS
 62
     3
 10
1062.192972
 20
841.353156
 11
1062.192972
 21
847.353156
  0
LINE
  8
CSLAYER1
  6
CONTINUOUS
 62
     3
 10
986.692972
 20
847.353156
 11
986.692972
 21
885.353156
  0
LINE
  8
CSLAYER1
  6
CONTINUOUS
 62
     3
 10
1062.192972
 20
847.353156
 11
980.692972
 21
847.353156
  0
LINE
  8
CSLAYER1
  6
CONTINUOUS
 62
     3
 10
762.192972
 20
841.353156
 11
762.192972
 21
847.353156
  0
LINE
  8
CSLAYER1
  6
CONTINUOUS
 62
     3
 10
762.192972
 20
847.353156
 11
843.692972
 21
847.353156
  0
LINE
  8
CSLAYER1
  6
CONTINUOUS
 62
     3
 10
834.692972
 20
875.322811
 11
834.692972
 21
853.383501
  0
LINE
  8
CSLAYER1
  6
CONTINUOUS
 62
     3
 10
837.692972
 20
853.603156
 11
834.692972
 21
853.603156
  0
LINE
  8
CSLAYER1
  6
CONTINUOUS
 62
     3
 10
837.692972
 20
875.103156
 11
834.692972
 21
875.103156
  0
LINE
  8
CSLAYER1
  6
CONTINUOUS
 62
     3
 10
837.692972
 20
865.865352
 11
834.692972
 21
862.365352
  0
LINE
  8
CSLAYER1
  6
CONTINUOUS
 62
     3
 10
826.692972
 20
864.353156
 11
826.692972
 21
855.353156
  0
LINE
  8
CSLAYER1
  6
CONTINUOUS
 62
     3
 10
834.692972
 20
858.868328
 11
827.830153
 21
858.868328
  0
LINE
  8
CSLAYER1
  6
CONTINUOUS
 62
     3
 10
834.692972
 20
853.383501
 11
827.830153
 21
853.383501
  0
LINE
  8
CSLAYER1
  6
CONTINUOUS
 62
     3
 10
826.692972
 20
855.353156
 11
827.830153
 21
853.383501
  0
ARC
  8
CSLAYER1
  6
CONTINUOUS
 62
     3
 10
830.473016
 20
856.125914
 40
3.808617
 50
133.940972
 51
174.338367
  0
ARC
  8
CSLAYER1
  6
CONTINUOUS
 62
     3
 10
840.488716
 20
864.353156
 40
13.795744
 50
180.000000
 51
203.426598
  0
LINE
  8
CSLAYER1
  6
CONTINUOUS
 62
     3
 10
826.692972
 20
864.353156
 11
826.692972
 21
873.353156
  0
LINE
  8
CSLAYER1
  6
CONTINUOUS
 62
     3
 10
834.692972
 20
869.837983
 11
827.830153
 21
869.837983
  0
LINE
  8
CSLAYER1
  6
CONTINUOUS
 62
     3
 10
834.692972
 20
875.322811
 11
827.830153
 21
875.322811
  0
LINE
  8
CSLAYER1
  6
CONTINUOUS
 62
     3
 10
826.692972
 20
873.353156
 11
827.830153
 21
875.322811
  0
ARC
  8
CSLAYER1
  6
CONTINUOUS
 62
     3
 10
830.473016
 20
872.580397
 40
3.808617
 50
185.661633
 51
226.059028
  0
ARC
  8
CSLAYER1
  6
CONTINUOUS
 62
     3
 10
840.488716
 20
864.353156
 40
13.795744
 50
156.573402
 51
180.000000
  0
LINE
  8
CSLAYER1
  6
CENTER
 62
     5
 10
837.692972
 20
864.353156
 11
826.692972
 21
864.353156
  0
LINE
  8
CSLAYER1
  6
CONTINUOUS
 62
     3
 10
837.692972
 20
847.353156
 11
837.692972
 21
885.353156
  0
CIRCLE
  8
CSLAYER1
  6
CONTINUOUS
 62
     3
 10
882.192972
 20
861.353156
 40
12.500000
  0
LINE
  8
CSLAYER1
  6
CONTINUOUS
 62
     3
 10
912.192972
 20
1463.124757
 11
1062.192972
 21
1463.124757
  0
LINE
  8
CSLAYER1
  6
CONTINUOUS
 62
     3
 10
958.192972
 20
881.353156
 11
958.192972
 21
1430.824757
  0
LINE
  8
CSLAYER1
  6
CONTINUOUS
 62
     3
 10
967.192972
 20
881.353156
 11
967.192972
 21
1430.824757
  0
LINE
  8
CSLAYER1
  6
CONTINUOUS
 62
     3
 10
970.192972
 20
881.353156
 11
970.192972
 21
1415.324757
  0
LINE
  8
CSLAYER1
  6
CONTINUOUS
 62
     3
 10
979.192972
 20
881.353156
 11
979.192972
 21
1414.855102
  0
LINE
  8
CSLAYER1
  6
CONTINUOUS
 62
     3
 10
1062.192972
 20
1430.824757
 11
912.192972
 21
1430.824757
  0
LINE
  8
CSLAYER1
  6
CONTINUOUS
 62
     3
 10
968.192972
 20
1417.174757
 11
967.192972
 21
1417.174757
  0
LINE
  8
CSLAYER1
  6
CONTINUOUS
 62
     3
 10
969.192972
 20
1430.824757
 11
969.192972
 21
1418.174757
  0
LINE
  8
CSLAYER1
  6
CONTINUOUS
 62
     3
 10
969.192972
 20
1418.174757
 11
968.192972
 21
1417.174757
  0
LINE
  8
CSLAYER1
  6
CONTINUOUS
 62
     3
 10
968.192972
 20
1430.824757
 11
968.192972
 21
1417.174757
  0
LINE
  8
CSLAYER1
  6
CONTINUOUS
 62
     3
 10
969.692972
 20
1415.324757
 11
975.692972
 21
1415.324757
  0
LINE
  8
CSLAYER1
  6
CONTINUOUS
 62
     3
 10
975.692972
 20
1430.824757
 11
975.692972
 21
1415.324757
  0
LINE
  8
CSLAYER1
  6
CONTINUOUS
 62
     3
 10
969.692972
 20
1430.824757
 11
969.692972
 21
1415.324757
  0
LINE
  8
CSLAYER1
  6
CONTINUOUS
 62
     3
 10
958.192972
 20
1417.174757
 11
912.192972
 21
1417.174757
  0
LINE
  8
CSLAYER1
  6
CONTINUOUS
 62
     3
 10
978.692972
 20
1414.855102
 11
978.692972
 21
1430.824757
  0
LINE
  8
CSLAYER1
  6
CONTINUOUS
 62
     3
 10
975.692972
 20
1415.074757
 11
978.692972
 21
1415.074757
  0
LINE
  8
CSLAYER1
  6
CONTINUOUS
 62
     3
 10
975.692972
 20
1424.312560
 11
978.531998
 21
1427.624757
  0
LINE
  8
CSLAYER1
  6
CONTINUOUS
 62
     3
 10
986.692972
 20
1425.824757
 11
986.692972
 21
1430.824757
  0
ARC
  8
CSLAYER1
  6
CONTINUOUS
 62
     3
 10
972.897228
 20
1425.824757
 40
13.795744
 50
0.000000
 51
21.249544
  0
LINE
  8
CSLAYER1
  6
CONTINUOUS
 62
     3
 10
986.692972
 20
1425.824757
 11
986.692972
 21
1416.824757
  0
LINE
  8
CSLAYER1
  6
CONTINUOUS
 62
     3
 10
978.692972
 20
1420.339929
 11
985.555791
 21
1420.339929
  0
LINE
  8
CSLAYER1
  6
CONTINUOUS
 62
     3
 10
978.692972
 20
1414.855102
 11
985.555791
 21
1414.855102
  0
LINE
  8
CSLAYER1
  6
CONTINUOUS
 62
     3
 10
986.692972
 20
1416.824757
 11
985.555791
 21
1414.855102
  0
ARC
  8
CSLAYER1
  6
CONTINUOUS
 62
     3
 10
982.912928
 20
1417.597516
 40
3.808617
 50
5.661633
 51
46.059028
  0
ARC
  8
CSLAYER1
  6
CONTINUOUS
 62
     3
 10
972.897228
 20
1425.824757
 40
13.795744
 50
336.573402
 51
360.000000
  0
LINE
  8
CSLAYER1
  6
CENTER
 62
     5
 10
857.192972
 20
1220.379715
 11
967.192972
 21
1220.379715
  0
LINE
  8
CSLAYER1
  6
CONTINUOUS
 62
     3
 10
866.192972
 20
1164.863368
 11
887.192972
 21
1164.863368
  0
LINE
  8
CSLAYER1
  6
CONTINUOUS
 62
     3
 10
866.192972
 20
1116.263368
 11
904.692972
 21
1116.263368
  0
LINE
  8
CSLAYER1
  6
CONTINUOUS
 62
     3
 10
970.192972
 20
1145.584029
 11
970.192972
 21
1139.084029
  0
LINE
  8
CSLAYER1
  6
CONTINUOUS
 62
     3
 10
967.192972
 20
1145.584029
 11
967.192972
 21
1139.084029
  0
LINE
  8
CSLAYER1
  6
CONTINUOUS
 62
     3
 10
970.192972
 20
1145.584029
 11
967.192972
 21
1145.584029
  0
LINE
  8
CSLAYER1
  6
CENTER
 62
     5
 10
922.692972
 20
1233.979715
 11
922.692972
 21
910.344519
  0
LINE
  8
CSLAYER1
  6
CONTINUOUS
 62
     3
 10
951.692972
 20
894.635618
 11
951.692972
 21
943.467914
  0
LINE
  8
CSLAYER1
  6
CONTINUOUS
 62
     3
 10
945.692972
 20
894.635618
 11
945.692972
 21
943.467914
  0
LINE
  8
CSLAYER1
  6
CONTINUOUS
 62
     3
 10
893.692972
 20
894.635618
 11
893.692972
 21
943.467914
  0
LINE
  8
CSLAYER1
  6
CONTINUOUS
 62
     3
 10
899.692972
 20
894.635618
 11
899.692972
 21
943.467914
  0
LINE
  8
CSLAYER1
  6
CONTINUOUS
 62
     3
 10
945.192972
 20
1207.779715
 11
945.192972
 21
1232.979715
  0
LINE
  8
CSLAYER1
  6
CONTINUOUS
 62
     3
 10
900.192972
 20
1207.779715
 11
900.192972
 21
1232.979715
  0
LINE
  8
CSLAYER1
  6
CONTINUOUS
 62
     3
 10
901.192972
 20
1233.979715
 11
944.192972
 21
1233.979715
  0
LINE
  8
CSLAYER1
  6
CONTINUOUS
 62
     3
 10
900.192972
 20
1232.979715
 11
901.192972
 21
1233.979715
  0
LINE
  8
CSLAYER1
  6
CONTINUOUS
 62
     3
 10
944.192972
 20
1233.979715
 11
945.192972
 21
1232.979715
  0
POINT
  8
CSLAYER1
 62
     3
 10
922.692972
 20
1220.379715
  0
LINE
  8
CSLAYER1
  6
CONTINUOUS
 62
     3
 10
946.192972
 20
1228.379715
 11
945.192972
 21
1228.379715
  0
LINE
  8
CSLAYER1
  6
CONTINUOUS
 62
     3
 10
900.192972
 20
1228.379715
 11
899.192972
 21
1228.379715
  0
LINE
  8
CSLAYER1
  6
CENTER
 62
     5
 10
893.692972
 20
927.403050
 11
951.692972
 21
927.403050
  0
LINE
  8
CSLAYER1
  6
CONTINUOUS
 62
     3
 10
854.192972
 20
910.344519
 11
857.192972
 21
910.344519
  0
LINE
  8
CSLAYER1
  6
CONTINUOUS
 62
     3
 10
893.692972
 20
894.635618
 11
899.692972
 21
894.635618
  0
LINE
  8
CSLAYER1
  6
CONTINUOUS
 62
     3
 10
893.692972
 20
943.467914
 11
899.692972
 21
943.467914
  0
LINE
  8
CSLAYER1
  6
CONTINUOUS
 62
     3
 10
945.692972
 20
943.467914
 11
951.692972
 21
943.467914
  0
LINE
  8
CSLAYER1
  6
CONTINUOUS
 62
     3
 10
945.692972
 20
894.635618
 11
951.692972
 21
894.635618
  0
LINE
  8
CSLAYER1
  6
CONTINUOUS
 62
     3
 10
899.692972
 20
910.344519
 11
945.692972
 21
910.344519
  0
LINE
  8
CSLAYER1
  6
CONTINUOUS
 62
     3
 10
951.692972
 20
910.344519
 11
958.192972
 21
910.344519
  0
LINE
  8
CSLAYER1
  6
CONTINUOUS
 62
     3
 10
967.192972
 20
910.344519
 11
970.192972
 21
910.344519
  0
LINE
  8
CSLAYER1
  6
CONTINUOUS
 62
     3
 10
945.605450
 20
1088.235405
 11
950.088326
 21
1070.946178
  0
LINE
  8
CSLAYER1
  6
CONTINUOUS
 62
     3
 10
945.605450
 20
1088.235405
 11
945.343550
 21
1089.199849
  0
LINE
  8
CSLAYER1
  6
CONTINUOUS
 62
     3
 10
945.343550
 20
1089.199849
 11
944.909266
 21
1090.149557
  0
LINE
  8
CSLAYER1
  6
CONTINUOUS
 62
     3
 10
944.909266
 20
1090.149557
 11
944.305902
 21
1091.077301
  0
LINE
  8
CSLAYER1
  6
CONTINUOUS
 62
     3
 10
944.305902
 20
1091.077301
 11
943.538051
 21
1091.976020
  0
LINE
  8
CSLAYER1
  6
CONTINUOUS
 62
     3
 10
943.538051
 20
1091.976020
 11
942.611556
 21
1092.838875
  0
LINE
  8
CSLAYER1
  6
CONTINUOUS
 62
     3
 10
942.611556
 20
1092.838875
 11
941.533469
 21
1093.659298
  0
LINE
  8
CSLAYER1
  6
CONTINUOUS
 62
     3
 10
941.533469
 20
1093.659298
 11
940.311994
 21
1094.431045
  0
LINE
  8
CSLAYER1
  6
CONTINUOUS
 62
     3
 10
940.311994
 20
1094.431045
 11
938.956428
 21
1095.148244
  0
LINE
  8
CSLAYER1
  6
CONTINUOUS
 62
     3
 10
938.956428
 20
1095.148244
 11
937.477087
 21
1095.805435
  0
LINE
  8
CSLAYER1
  6
CONTINUOUS
 62
     3
 10
937.477087
 20
1095.805435
 11
935.885230
 21
1096.397618
  0
LINE
  8
CSLAYER1
  6
CONTINUOUS
 62
     3
 10
935.885230
 20
1096.397618
 11
934.192972
 21
1096.920285
  0
LINE
  8
CSLAYER1
  6
CONTINUOUS
 62
     3
 10
934.192972
 20
1096.920285
 11
932.413192
 21
1097.369459
  0
LINE
  8
CSLAYER1
  6
CONTINUOUS
 62
     3
 10
932.413192
 20
1097.369459
 11
930.559435
 21
1097.741720
  0
LINE
  8
CSLAYER1
  6
CONTINUOUS
 62
     3
 10
930.559435
 20
1097.741720
 11
928.645810
 21
1098.034237
  0
LINE
  8
CSLAYER1
  6
CONTINUOUS
 62
     3
 10
928.645810
 20
1098.034237
 11
926.686880
 21
1098.244782
  0
LINE
  8
CSLAYER1
  6
CONTINUOUS
 62
     3
 10
926.686880
 20
1098.244782
 11
924.697554
 21
1098.371754
  0
LINE
  8
CSLAYER1
  6
CONTINUOUS
 62
     3
 10
924.697554
 20
1098.371754
 11
922.692972
 21
1098.414185
  0
LINE
  8
CSLAYER1
  6
CONTINUOUS
 62
     3
 10
899.780494
 20
1088.235405
 11
895.297618
 21
1070.946178
  0
LINE
  8
CSLAYER1
  6
CONTINUOUS
 62
     3
 10
899.780494
 20
1088.235405
 11
900.042394
 21
1089.199849
  0
LINE
  8
CSLAYER1
  6
CONTINUOUS
 62
     3
 10
900.042394
 20
1089.199849
 11
900.476678
 21
1090.149557
  0
LINE
  8
CSLAYER1
  6
CONTINUOUS
 62
     3
 10
900.476678
 20
1090.149557
 11
901.080042
 21
1091.077301
  0
LINE
  8
CSLAYER1
  6
CONTINUOUS
 62
     3
 10
901.080042
 20
1091.077301
 11
901.847893
 21
1091.976020
  0
LINE
  8
CSLAYER1
  6
CONTINUOUS
 62
     3
 10
901.847893
 20
1091.976020
 11
902.774388
 21
1092.838875
  0
LINE
  8
CSLAYER1
  6
CONTINUOUS
 62
     3
 10
902.774388
 20
1092.838875
 11
903.852475
 21
1093.659298
  0
LINE
  8
CSLAYER1
  6
CONTINUOUS
 62
     3
 10
903.852475
 20
1093.659298
 11
905.073950
 21
1094.431045
  0
LINE
  8
CSLAYER1
  6
CONTINUOUS
 62
     3
 10
905.073950
 20
1094.431045
 11
906.429516
 21
1095.148244
  0
LINE
  8
CSLAYER1
  6
CONTINUOUS
 62
     3
 10
906.429516
 20
1095.148244
 11
907.908857
 21
1095.805435
  0
LINE
  8
CSLAYER1
  6
CONTINUOUS
 62
     3
 10
907.908857
 20
1095.805435
 11
909.500714
 21
1096.397618
  0
LINE
  8
CSLAYER1
  6
CONTINUOUS
 62
     3
 10
909.500714
 20
1096.397618
 11
911.192972
 21
1096.920285
  0
LINE
  8
CSLAYER1
  6
CONTINUOUS
 62
     3
 10
911.192972
 20
1096.920285
 11
912.972752
 21
1097.369459
  0
LINE
  8
CSLAYER1
  6
CONTINUOUS
 62
     3
 10
912.972752
 20
1097.369459
 11
914.826509
 21
1097.741720
  0
LINE
  8
CSLAYER1
  6
CONTINUOUS
 62
     3
 10
914.826509
 20
1097.741720
 11
916.740134
 21
1098.034237
  0
LINE
  8
CSLAYER1
  6
CONTINUOUS
 62
     3
 10
916.740134
 20
1098.034237
 11
918.699064
 21
1098.244782
  0
LINE
  8
CSLAYER1
  6
CONTINUOUS
 62
     3
 10
918.699064
 20
1098.244782
 11
920.688390
 21
1098.371754
  0
LINE
  8
CSLAYER1
  6
CONTINUOUS
 62
     3
 10
920.688390
 20
1098.371754
 11
922.692972
 21
1098.414185
  0
LINE
  8
CSLAYER1
  6
CONTINUOUS
 62
     3
 10
940.692972
 20
1094.229479
 11
940.692972
 21
1209.222932
  0
LINE
  8
CSLAYER1
  6
CONTINUOUS
 62
     3
 10
940.692972
 20
1208.714595
 11
940.624477
 21
1209.475166
  0
LINE
  8
CSLAYER1
  6
CONTINUOUS
 62
     3
 10
940.624477
 20
1209.475166
 11
940.419512
 21
1210.229948
  0
LINE
  8
CSLAYER1
  6
CONTINUOUS
 62
     3
 10
940.419512
 20
1210.229948
 11
940.079637
 21
1210.973198
  0
LINE
  8
CSLAYER1
  6
CONTINUOUS
 62
     3
 10
940.079637
 20
1210.973198
 11
939.607439
 21
1211.699258
  0
LINE
  8
CSLAYER1
  6
CONTINUOUS
 62
     3
 10
939.607439
 20
1211.699258
 11
939.006512
 21
1212.402604
  0
LINE
  8
CSLAYER1
  6
CONTINUOUS
 62
     3
 10
939.006512
 20
1212.402604
 11
938.281429
 21
1213.077881
  0
LINE
  8
CSLAYER1
  6
CONTINUOUS
 62
     3
 10
938.281429
 20
1213.077881
 11
937.437709
 21
1213.719951
  0
LINE
  8
CSLAYER1
  6
CONTINUOUS
 62
     3
 10
937.437709
 20
1213.719951
 11
936.481772
 21
1214.323928
  0
LINE
  8
CSLAYER1
  6
CONTINUOUS
 62
     3
 10
936.481772
 20
1214.323928
 11
935.420894
 21
1214.885214
  0
LINE
  8
CSLAYER1
  6
CONTINUOUS
 62
     3
 10
935.420894
 20
1214.885214
 11
934.263149
 21
1215.399538
  0
LINE
  8
CSLAYER1
  6
CONTINUOUS
 62
     3
 10
934.263149
 20
1215.399538
 11
933.017348
 21
1215.862985
  0
LINE
  8
CSLAYER1
  6
CONTINUOUS
 62
     3
 10
933.017348
 20
1215.862985
 11
931.692972
 21
1216.272029
  0
LINE
  8
CSLAYER1
  6
CONTINUOUS
 62
     3
 10
931.692972
 20
1216.272029
 11
930.300101
 21
1216.623556
  0
LINE
  8
CSLAYER1
  6
CONTINUOUS
 62
     3
 10
930.300101
 20
1216.623556
 11
928.849335
 21
1216.914891
  0
LINE
  8
CSLAYER1
  6
CONTINUOUS
 62
     3
 10
928.849335
 20
1216.914891
 11
927.351715
 21
1217.143817
  0
LINE
  8
CSLAYER1
  6
CONTINUOUS
 62
     3
 10
927.351715
 20
1217.143817
 11
925.818639
 21
1217.308592
  0
LINE
  8
CSLAYER1
  6
CONTINUOUS
 62
     3
 10
925.818639
 20
1217.308592
 11
924.261775
 21
1217.407961
  0
LINE
  8
CSLAYER1
  6
CONTINUOUS
 62
     3
 10
924.261775
 20
1217.407961
 11
922.692972
 21
1217.441168
  0
LINE
  8
CSLAYER1
  6
CONTINUOUS
 62
     3
 10
922.692972
 20
1217.441168
 11
921.124169
 21
1217.407961
  0
LINE
  8
CSLAYER1
  6
CONTINUOUS
 62
     3
 10
921.124169
 20
1217.407961
 11
919.567305
 21
1217.308592
  0
LINE
  8
CSLAYER1
  6
CONTINUOUS
 62
     3
 10
919.567305
 20
1217.308592
 11
918.034229
 21
1217.143817
  0
LINE
  8
CSLAYER1
  6
CONTINUOUS
 62
     3
 10
918.034229
 20
1217.143817
 11
916.536609
 21
1216.914891
  0
LINE
  8
CSLAYER1
  6
CONTINUOUS
 62
     3
 10
916.536609
 20
1216.914891
 11
915.085843
 21
1216.623556
  0
LINE
  8
CSLAYER1
  6
CONTINUOUS
 62
     3
 10
915.085843
 20
1216.623556
 11
913.692972
 21
1216.272029
  0
LINE
  8
CSLAYER1
  6
CONTINUOUS
 62
     3
 10
913.692972
 20
1216.272029
 11
912.368596
 21
1215.862985
  0
LINE
  8
CSLAYER1
  6
CONTINUOUS
 62
     3
 10
912.368596
 20
1215.862985
 11
911.122795
 21
1215.399538
  0
LINE
  8
CSLAYER1
  6
CONTINUOUS
 62
     3
 10
911.122795
 20
1215.399538
 11
909.965050
 21
1214.885214
  0
LINE
  8
CSLAYER1
  6
CONTINUOUS
 62
     3
 10
909.965050
 20
1214.885214
 11
908.904172
 21
1214.323928
  0
LINE
  8
CSLAYER1
  6
CONTINUOUS
 62
     3
 10
908.904172
 20
1214.323928
 11
907.948235
 21
1213.719951
  0
LINE
  8
CSLAYER1
  6
CONTINUOUS
 62
     3
 10
907.948235
 20
1213.719951
 11
907.104515
 21
1213.077881
  0
LINE
  8
CSLAYER1
  6
CONTINUOUS
 62
     3
 10
907.104515
 20
1213.077881
 11
906.379432
 21
1212.402604
  0
LINE
  8
CSLAYER1
  6
CONTINUOUS
 62
     3
 10
906.379432
 20
1212.402604
 11
905.778505
 21
1211.699258
  0
LINE
  8
CSLAYER1
  6
CONTINUOUS
 62
     3
 10
905.778505
 20
1211.699258
 11
905.306307
 21
1210.973198
  0
LINE
  8
CSLAYER1
  6
CONTINUOUS
 62
     3
 10
905.306307
 20
1210.973198
 11
904.966432
 21
1210.229948
  0
LINE
  8
CSLAYER1
  6
CONTINUOUS
 62
     3
 10
904.966432
 20
1210.229948
 11
904.761467
 21
1209.475166
  0
LINE
  8
CSLAYER1
  6
CONTINUOUS
 62
     3
 10
904.761467
 20
1209.475166
 11
904.692972
 21
1208.714595
  0
LINE
  8
CSLAYER1
  6
CONTINUOUS
 62
     3
 10
950.192972
 20
1069.784195
 11
950.192972
 21
1039.195299
  0
LINE
  8
CSLAYER1
  6
CONTINUOUS
 62
     3
 10
950.192972
 20
1069.784195
 11
950.088326
 21
1070.946178
  0
LINE
  8
CSLAYER1
  6
CONTINUOUS
 62
     3
 10
950.088326
 20
1070.946178
 11
949.775185
 21
1072.099318
  0
LINE
  8
CSLAYER1
  6
CONTINUOUS
 62
     3
 10
949.775185
 20
1072.099318
 11
949.255932
 21
1073.234839
  0
LINE
  8
CSLAYER1
  6
CONTINUOUS
 62
     3
 10
949.255932
 20
1073.234839
 11
948.534519
 21
1074.344098
  0
LINE
  8
CSLAYER1
  6
CONTINUOUS
 62
     3
 10
948.534519
 20
1074.344098
 11
947.616436
 21
1075.418653
  0
LINE
  8
CSLAYER1
  6
CONTINUOUS
 62
     3
 10
947.616436
 20
1075.418653
 11
946.508671
 21
1076.450327
  0
LINE
  8
CSLAYER1
  6
CONTINUOUS
 62
     3
 10
946.508671
 20
1076.450327
 11
945.219653
 21
1077.431268
  0
LINE
  8
CSLAYER1
  6
CONTINUOUS
 62
     3
 10
945.219653
 20
1077.431268
 11
943.759194
 21
1078.354009
  0
LINE
  8
CSLAYER1
  6
CONTINUOUS
 62
     3
 10
943.759194
 20
1078.354009
 11
942.138408
 21
1079.211529
  0
LINE
  8
CSLAYER1
  6
CONTINUOUS
 62
     3
 10
942.138408
 20
1079.211529
 11
940.369631
 21
1079.997302
  0
LINE
  8
CSLAYER1
  6
CONTINUOUS
 62
     3
 10
940.369631
 20
1079.997302
 11
938.466324
 21
1080.705347
  0
LINE
  8
CSLAYER1
  6
CONTINUOUS
 62
     3
 10
938.466324
 20
1080.705347
 11
936.442972
 21
1081.330275
  0
LINE
  8
CSLAYER1
  6
CONTINUOUS
 62
     3
 10
936.442972
 20
1081.330275
 11
934.314974
 21
1081.867330
  0
LINE
  8
CSLAYER1
  6
CONTINUOUS
 62
     3
 10
934.314974
 20
1081.867330
 11
932.098526
 21
1082.312425
  0
LINE
  8
CSLAYER1
  6
CONTINUOUS
 62
     3
 10
932.098526
 20
1082.312425
 11
929.810496
 21
1082.662173
  0
LINE
  8
CSLAYER1
  6
CONTINUOUS
 62
     3
 10
929.810496
 20
1082.662173
 11
927.468297
 21
1082.913912
  0
LINE
  8
CSLAYER1
  6
CONTINUOUS
 62
     3
 10
927.468297
 20
1082.913912
 11
925.089755
 21
1083.065726
  0
LINE
  8
CSLAYER1
  6
CONTINUOUS
 62
     3
 10
925.089755
 20
1083.065726
 11
922.692972
 21
1083.116459
  0
LINE
  8
CSLAYER1
  6
CONTINUOUS
 62
     3
 10
922.692972
 20
1083.116459
 11
920.296189
 21
1083.065726
  0
LINE
  8
CSLAYER1
  6
CONTINUOUS
 62
     3
 10
920.296189
 20
1083.065726
 11
917.917647
 21
1082.913912
  0
LINE
  8
CSLAYER1
  6
CONTINUOUS
 62
     3
 10
917.917647
 20
1082.913912
 11
915.575448
 21
1082.662173
  0
LINE
  8
CSLAYER1
  6
CONTINUOUS
 62
     3
 10
915.575448
 20
1082.662173
 11
913.287418
 21
1082.312425
  0
LINE
  8
CSLAYER1
  6
CONTINUOUS
 62
     3
 10
913.287418
 20
1082.312425
 11
911.070970
 21
1081.867330
  0
LINE
  8
CSLAYER1
  6
CONTINUOUS
 62
     3
 10
911.070970
 20
1081.867330
 11
908.942972
 21
1081.330275
  0
LINE
  8
CSLAYER1
  6
CONTINUOUS
 62
     3
 10
908.942972
 20
1081.330275
 11
906.919620
 21
1080.705347
  0
LINE
  8
CSLAYER1
  6
CONTINUOUS
 62
     3
 10
906.919620
 20
1080.705347
 11
905.016313
 21
1079.997302
  0
LINE
  8
CSLAYER1
  6
CONTINUOUS
 62
     3
 10
905.016313
 20
1079.997302
 11
903.247536
 21
1079.211529
  0
LINE
  8
CSLAYER1
  6
CONTINUOUS
 62
     3
 10
903.247536
 20
1079.211529
 11
901.626750
 21
1078.354009
  0
LINE
  8
CSLAYER1
  6
CONTINUOUS
 62
     3
 10
901.626750
 20
1078.354009
 11
900.166291
 21
1077.431268
  0
LINE
  8
CSLAYER1
  6
CONTINUOUS
 62
     3
 10
900.166291
 20
1077.431268
 11
898.877273
 21
1076.450327
  0
LINE
  8
CSLAYER1
  6
CONTINUOUS
 62
     3
 10
898.877273
 20
1076.450327
 11
897.769508
 21
1075.418653
  0
LINE
  8
CSLAYER1
  6
CONTINUOUS
 62
     3
 10
897.769508
 20
1075.418653
 11
896.851425
 21
1074.344098
  0
LINE
  8
CSLAYER1
  6
CONTINUOUS
 62
     3
 10
896.851425
 20
1074.344098
 11
896.130012
 21
1073.234839
  0
LINE
  8
CSLAYER1
  6
CONTINUOUS
 62
     3
 10
896.130012
 20
1073.234839
 11
895.610759
 21
1072.099318
  0
LINE
  8
CSLAYER1
  6
CONTINUOUS
 62
     3
 10
895.610759
 20
1072.099318
 11
895.297618
 21
1070.946178
  0
LINE
  8
CSLAYER1
  6
CONTINUOUS
 62
     3
 10
895.297618
 20
1070.946178
 11
895.192972
 21
1069.784195
  0
LINE
  8
CSLAYER1
  6
CONTINUOUS
 62
     3
 10
895.192972
 20
1069.784195
 11
895.192972
 21
1039.195299
  0
LINE
  8
CSLAYER1
  6
CONTINUOUS
 62
     3
 10
946.992972
 20
944.882420
 11
946.992972
 21
1039.195299
  0
LINE
  8
CSLAYER1
  6
CONTINUOUS
 62
     3
 10
950.192972
 20
1039.195299
 11
950.088326
 21
1040.357282
  0
LINE
  8
CSLAYER1
  6
CONTINUOUS
 62
     3
 10
950.088326
 20
1040.357282
 11
949.775185
 21
1041.510422
  0
LINE
  8
CSLAYER1
  6
CONTINUOUS
 62
     3
 10
949.775185
 20
1041.510422
 11
949.255932
 21
1042.645943
  0
LINE
  8
CSLAYER1
  6
CONTINUOUS
 62
     3
 10
949.255932
 20
1042.645943
 11
948.534519
 21
1043.755202
  0
LINE
  8
CSLAYER1
  6
CONTINUOUS
 62
     3
 10
948.534519
 20
1043.755202
 11
947.616436
 21
1044.829757
  0
LINE
  8
CSLAYER1
  6
CONTINUOUS
 62
     3
 10
947.616436
 20
1044.829757
 11
946.508671
 21
1045.861431
  0
LINE
  8
CSLAYER1
  6
CONTINUOUS
 62
     3
 10
946.508671
 20
1045.861431
 11
945.219653
 21
1046.842372
  0
LINE
  8
CSLAYER1
  6
CONTINUOUS
 62
     3
 10
945.219653
 20
1046.842372
 11
943.759194
 21
1047.765113
  0
LINE
  8
CSLAYER1
  6
CONTINUOUS
 62
     3
 10
943.759194
 20
1047.765113
 11
942.138408
 21
1048.622634
  0
LINE
  8
CSLAYER1
  6
CONTINUOUS
 62
     3
 10
942.138408
 20
1048.622634
 11
940.369631
 21
1049.408406
  0
LINE
  8
CSLAYER1
  6
CONTINUOUS
 62
     3
 10
940.369631
 20
1049.408406
 11
938.466324
 21
1050.116451
  0
LINE
  8
CSLAYER1
  6
CONTINUOUS
 62
     3
 10
938.466324
 20
1050.116451
 11
936.442972
 21
1050.741379
  0
LINE
  8
CSLAYER1
  6
CONTINUOUS
 62
     3
 10
936.442972
 20
1050.741379
 11
934.314974
 21
1051.278434
  0
LINE
  8
CSLAYER1
  6
CONTINUOUS
 62
     3
 10
934.314974
 20
1051.278434
 11
932.098526
 21
1051.723529
  0
LINE
  8
CSLAYER1
  6
CONTINUOUS
 62
     3
 10
932.098526
 20
1051.723529
 11
929.810496
 21
1052.073278
  0
LINE
  8
CSLAYER1
  6
CONTINUOUS
 62
     3
 10
929.810496
 20
1052.073278
 11
927.468297
 21
1052.325016
  0
LINE
  8
CSLAYER1
  6
CONTINUOUS
 62
     3
 10
927.468297
 20
1052.325016
 11
925.089755
 21
1052.476830
  0
LINE
  8
CSLAYER1
  6
CONTINUOUS
 62
     3
 10
925.089755
 20
1052.476830
 11
922.692972
 21
1052.527563
  0
LINE
  8
CSLAYER1
  6
CONTINUOUS
 62
     3
 10
922.692972
 20
1052.527563
 11
920.296189
 21
1052.476830
  0
LINE
  8
CSLAYER1
  6
CONTINUOUS
 62
     3
 10
920.296189
 20
1052.476830
 11
917.917647
 21
1052.325016
  0
LINE
  8
CSLAYER1
  6
CONTINUOUS
 62
     3
 10
917.917647
 20
1052.325016
 11
915.575448
 21
1052.073278
  0
LINE
  8
CSLAYER1
  6
CONTINUOUS
 62
     3
 10
915.575448
 20
1052.073278
 11
913.287418
 21
1051.723529
  0
LINE
  8
CSLAYER1
  6
CONTINUOUS
 62
     3
 10
913.287418
 20
1051.723529
 11
911.070970
 21
1051.278434
  0
LINE
  8
CSLAYER1
  6
CONTINUOUS
 62
     3
 10
911.070970
 20
1051.278434
 11
908.942972
 21
1050.741379
  0
LINE
  8
CSLAYER1
  6
CONTINUOUS
 62
     3
 10
908.942972
 20
1050.741379
 11
906.919620
 21
1050.116451
  0
LINE
  8
CSLAYER1
  6
CONTINUOUS
 62
     3
 10
906.919620
 20
1050.116451
 11
905.016313
 21
1049.408406
  0
LINE
  8
CSLAYER1
  6
CONTINUOUS
 62
     3
 10
905.016313
 20
1049.408406
 11
903.247536
 21
1048.622634
  0
LINE
  8
CSLAYER1
  6
CONTINUOUS
 62
     3
 10
903.247536
 20
1048.622634
 11
901.626750
 21
1047.765113
  0
LINE
  8
CSLAYER1
  6
CONTINUOUS
 62
     3
 10
901.626750
 20
1047.765113
 11
900.166291
 21
1046.842372
  0
LINE
  8
CSLAYER1
  6
CONTINUOUS
 62
     3
 10
900.166291
 20
1046.842372
 11
898.877273
 21
1045.861431
  0
LINE
  8
CSLAYER1
  6
CONTINUOUS
 62
     3
 10
898.877273
 20
1045.861431
 11
897.769508
 21
1044.829757
  0
LINE
  8
CSLAYER1
  6
CONTINUOUS
 62
     3
 10
897.769508
 20
1044.829757
 11
896.851425
 21
1043.755202
  0
LINE
  8
CSLAYER1
  6
CONTINUOUS
 62
     3
 10
896.851425
 20
1043.755202
 11
896.130012
 21
1042.645943
  0
LINE
  8
CSLAYER1
  6
CONTINUOUS
 62
     3
 10
896.130012
 20
1042.645943
 11
895.610759
 21
1041.510422
  0
LINE
  8
CSLAYER1
  6
CONTINUOUS
 62
     3
 10
895.610759
 20
1041.510422
 11
895.297618
 21
1040.357282
  0
LINE
  8
CSLAYER1
  6
CONTINUOUS
 62
     3
 10
895.297618
 20
1040.357282
 11
895.192972
 21
1039.195299
  0
LINE
  8
CSLAYER1
  6
CONTINUOUS
 62
     3
 10
895.192972
 20
1039.195299
 11
895.297618
 21
1038.033315
  0
LINE
  8
CSLAYER1
  6
CONTINUOUS
 62
     3
 10
895.297618
 20
1038.033315
 11
895.610759
 21
1036.880175
  0
LINE
  8
CSLAYER1
  6
CONTINUOUS
 62
     3
 10
895.610759
 20
1036.880175
 11
896.130012
 21
1035.744655
  0
LINE
  8
CSLAYER1
  6
CONTINUOUS
 62
     3
 10
896.130012
 20
1035.744655
 11
896.851425
 21
1034.635396
  0
LINE
  8
CSLAYER1
  6
CONTINUOUS
 62
     3
 10
896.851425
 20
1034.635396
 11
897.769508
 21
1033.560840
  0
LINE
  8
CSLAYER1
  6
CONTINUOUS
 62
     3
 10
897.769508
 20
1033.560840
 11
898.392972
 21
1032.980202
  0
LINE
  8
CSLAYER1
  6
CONTINUOUS
 62
     3
 10
946.992972
 20
1032.980202
 11
947.616436
 21
1033.560840
  0
LINE
  8
CSLAYER1
  6
CONTINUOUS
 62
     3
 10
947.616436
 20
1033.560840
 11
948.534519
 21
1034.635396
  0
LINE
  8
CSLAYER1
  6
CONTINUOUS
 62
     3
 10
948.534519
 20
1034.635396
 11
949.255932
 21
1035.744655
  0
LINE
  8
CSLAYER1
  6
CONTINUOUS
 62
     3
 10
949.255932
 20
1035.744655
 11
949.775185
 21
1036.880175
  0
LINE
  8
CSLAYER1
  6
CONTINUOUS
 62
     3
 10
949.775185
 20
1036.880175
 11
950.088326
 21
1038.033315
  0
LINE
  8
CSLAYER1
  6
CONTINUOUS
 62
     3
 10
950.088326
 20
1038.033315
 11
950.192972
 21
1039.195299
  0
LINE
  8
CSLAYER1
  6
CONTINUOUS
 62
     3
 10
946.992972
 20
1039.195299
 11
946.900503
 21
1040.222070
  0
LINE
  8
CSLAYER1
  6
CONTINUOUS
 62
     3
 10
946.900503
 20
1040.222070
 11
946.623800
 21
1041.241026
  0
LINE
  8
CSLAYER1
  6
CONTINUOUS
 62
     3
 10
946.623800
 20
1041.241026
 11
946.164970
 21
1042.244413
  0
LINE
  8
CSLAYER1
  6
CONTINUOUS
 62
     3
 10
946.164970
 20
1042.244413
 11
945.527503
 21
1043.224595
  0
LINE
  8
CSLAYER1
  6
CONTINUOUS
 62
     3
 10
945.527503
 20
1043.224595
 11
944.716251
 21
1044.174111
  0
LINE
  8
CSLAYER1
  6
CONTINUOUS
 62
     3
 10
944.716251
 20
1044.174111
 11
943.737389
 21
1045.085736
  0
LINE
  8
CSLAYER1
  6
CONTINUOUS
 62
     3
 10
943.737389
 20
1045.085736
 11
942.598367
 21
1045.952530
  0
LINE
  8
CSLAYER1
  6
CONTINUOUS
 62
     3
 10
942.598367
 20
1045.952530
 11
941.307852
 21
1046.767899
  0
LINE
  8
CSLAYER1
  6
CONTINUOUS
 62
     3
 10
941.307852
 20
1046.767899
 11
939.875667
 21
1047.525635
  0
LINE
  8
CSLAYER1
  6
CONTINUOUS
 62
     3
 10
939.875667
 20
1047.525635
 11
938.312711
 21
1048.219972
  0
LINE
  8
CSLAYER1
  6
CONTINUOUS
 62
     3
 10
938.312711
 20
1048.219972
 11
936.630879
 21
1048.845626
  0
LINE
  8
CSLAYER1
  6
CONTINUOUS
 62
     3
 10
936.630879
 20
1048.845626
 11
934.842972
 21
1049.397835
  0
LINE
  8
CSLAYER1
  6
CONTINUOUS
 62
     3
 10
934.842972
 20
1049.397835
 11
932.962596
 21
1049.872397
  0
LINE
  8
CSLAYER1
  6
CONTINUOUS
 62
     3
 10
932.962596
 20
1049.872397
 11
931.004061
 21
1050.265699
  0
LINE
  8
CSLAYER1
  6
CONTINUOUS
 62
     3
 10
931.004061
 20
1050.265699
 11
928.982275
 21
1050.574749
  0
LINE
  8
CSLAYER1
  6
CONTINUOUS
 62
     3
 10
928.982275
 20
1050.574749
 11
926.912623
 21
1050.797195
  0
LINE
  8
CSLAYER1
  6
CONTINUOUS
 62
     3
 10
926.912623
 20
1050.797195
 11
924.810857
 21
1050.931343
  0
LINE
  8
CSLAYER1
  6
CONTINUOUS
 62
     3
 10
924.810857
 20
1050.931343
 11
922.692972
 21
1050.976173
  0
LINE
  8
CSLAYER1
  6
CONTINUOUS
 62
     3
 10
922.692972
 20
1050.976173
 11
920.575087
 21
1050.931343
  0
LINE
  8
CSLAYER1
  6
CONTINUOUS
 62
     3
 10
920.575087
 20
1050.931343
 11
918.473321
 21
1050.797195
  0
LINE
  8
CSLAYER1
  6
CONTINUOUS
 62
     3
 10
918.473321
 20
1050.797195
 11
916.403669
 21
1050.574749
  0
LINE
  8
CSLAYER1
  6
CONTINUOUS
 62
     3
 10
916.403669
 20
1050.574749
 11
914.381883
 21
1050.265699
  0
LINE
  8
CSLAYER1
  6
CONTINUOUS
 62
     3
 10
914.381883
 20
1050.265699
 11
912.423348
 21
1049.872397
  0
LINE
  8
CSLAYER1
  6
CONTINUOUS
 62
     3
 10
912.423348
 20
1049.872397
 11
910.542972
 21
1049.397835
  0
LINE
  8
CSLAYER1
  6
CONTINUOUS
 62
     3
 10
910.542972
 20
1049.397835
 11
908.755065
 21
1048.845626
  0
LINE
  8
CSLAYER1
  6
CONTINUOUS
 62
     3
 10
908.755065
 20
1048.845626
 11
907.073233
 21
1048.219972
  0
LINE
  8
CSLAYER1
  6
CONTINUOUS
 62
     3
 10
907.073233
 20
1048.219972
 11
905.510277
 21
1047.525635
  0
LINE
  8
CSLAYER1
  6
CONTINUOUS
 62
     3
 10
905.510277
 20
1047.525635
 11
904.078092
 21
1046.767899
  0
LINE
  8
CSLAYER1
  6
CONTINUOUS
 62
     3
 10
904.078092
 20
1046.767899
 11
902.787577
 21
1045.952530
  0
LINE
  8
CSLAYER1
  6
CONTINUOUS
 62
     3
 10
902.787577
 20
1045.952530
 11
901.648555
 21
1045.085736
  0
LINE
  8
CSLAYER1
  6
CONTINUOUS
 62
     3
 10
901.648555
 20
1045.085736
 11
900.669693
 21
1044.174111
  0
LINE
  8
CSLAYER1
  6
CONTINUOUS
 62
     3
 10
900.669693
 20
1044.174111
 11
899.858441
 21
1043.224595
  0
LINE
  8
CSLAYER1
  6
CONTINUOUS
 62
     3
 10
899.858441
 20
1043.224595
 11
899.220974
 21
1042.244413
  0
LINE
  8
CSLAYER1
  6
CONTINUOUS
 62
     3
 10
899.220974
 20
1042.244413
 11
898.762144
 21
1041.241026
  0
LINE
  8
CSLAYER1
  6
CONTINUOUS
 62
     3
 10
898.762144
 20
1041.241026
 11
898.485441
 21
1040.222070
  0
LINE
  8
CSLAYER1
  6
CONTINUOUS
 62
     3
 10
898.485441
 20
1040.222070
 11
898.392972
 21
1039.195299
  0
LINE
  8
CSLAYER1
  6
CONTINUOUS
 62
     3
 10
898.392972
 20
944.882420
 11
898.392972
 21
1039.195299
  0
LINE
  8
CSLAYER1
  6
CONTINUOUS
 62
     3
 10
904.692972
 20
1094.190337
 11
904.692972
 21
1208.714595
  0
LINE
  8
CSLAYER1
  6
CONTINUOUS
 62
     3
 10
945.192972
 20
914.293524
 11
945.192972
 21
944.882420
  0
LINE
  8
CSLAYER1
  6
CONTINUOUS
 62
     3
 10
945.192972
 20
944.882420
 11
945.107353
 21
945.833133
  0
LINE
  8
CSLAYER1
  6
CONTINUOUS
 62
     3
 10
945.107353
 20
945.833133
 11
944.851146
 21
946.776611
  0
LINE
  8
CSLAYER1
  6
CONTINUOUS
 62
     3
 10
944.851146
 20
946.776611
 11
944.426303
 21
947.705674
  0
LINE
  8
CSLAYER1
  6
CONTINUOUS
 62
     3
 10
944.426303
 20
947.705674
 11
943.836056
 21
948.613249
  0
LINE
  8
CSLAYER1
  6
CONTINUOUS
 62
     3
 10
943.836056
 20
948.613249
 11
943.084897
 21
949.492431
  0
LINE
  8
CSLAYER1
  6
CONTINUOUS
 62
     3
 10
943.084897
 20
949.492431
 11
942.178544
 21
950.336528
  0
LINE
  8
CSLAYER1
  6
CONTINUOUS
 62
     3
 10
942.178544
 20
950.336528
 11
941.123893
 21
951.139115
  0
LINE
  8
CSLAYER1
  6
CONTINUOUS
 62
     3
 10
941.123893
 20
951.139115
 11
939.928972
 21
951.894086
  0
LINE
  8
CSLAYER1
  6
CONTINUOUS
 62
     3
 10
939.928972
 20
951.894086
 11
938.602875
 21
952.595693
  0
LINE
  8
CSLAYER1
  6
CONTINUOUS
 62
     3
 10
938.602875
 20
952.595693
 11
937.155693
 21
953.238598
  0
LINE
  8
CSLAYER1
  6
CONTINUOUS
 62
     3
 10
937.155693
 20
953.238598
 11
935.598442
 21
953.817907
  0
LINE
  8
CSLAYER1
  6
CONTINUOUS
 62
     3
 10
935.598442
 20
953.817907
 11
933.942972
 21
954.329212
  0
LINE
  8
CSLAYER1
  6
CONTINUOUS
 62
     3
 10
933.942972
 20
954.329212
 11
932.201883
 21
954.768621
  0
LINE
  8
CSLAYER1
  6
CONTINUOUS
 62
     3
 10
932.201883
 20
954.768621
 11
930.388425
 21
955.132790
  0
LINE
  8
CSLAYER1
  6
CONTINUOUS
 62
     3
 10
930.388425
 20
955.132790
 11
928.516401
 21
955.418948
  0
LINE
  8
CSLAYER1
  6
CONTINUOUS
 62
     3
 10
928.516401
 20
955.418948
 11
926.600056
 21
955.624916
  0
LINE
  8
CSLAYER1
  6
CONTINUOUS
 62
     3
 10
926.600056
 20
955.624916
 11
924.653976
 21
955.749127
  0
LINE
  8
CSLAYER1
  6
CONTINUOUS
 62
     3
 10
924.653976
 20
955.749127
 11
922.692972
 21
955.790636
  0
LINE
  8
CSLAYER1
  6
CONTINUOUS
 62
     3
 10
922.692972
 20
955.790636
 11
920.731968
 21
955.749127
  0
LINE
  8
CSLAYER1
  6
CONTINUOUS
 62
     3
 10
920.731968
 20
955.749127
 11
918.785888
 21
955.624916
  0
LINE
  8
CSLAYER1
  6
CONTINUOUS
 62
     3
 10
918.785888
 20
955.624916
 11
916.869543
 21
955.418948
  0
LINE
  8
CSLAYER1
  6
CONTINUOUS
 62
     3
 10
916.869543
 20
955.418948
 11
914.997519
 21
955.132790
  0
LINE
  8
CSLAYER1
  6
CONTINUOUS
 62
     3
 10
914.997519
 20
955.132790
 11
913.184061
 21
954.768621
  0
LINE
  8
CSLAYER1
  6
CONTINUOUS
 62
     3
 10
913.184061
 20
954.768621
 11
911.442972
 21
954.329212
  0
LINE
  8
CSLAYER1
  6
CONTINUOUS
 62
     3
 10
911.442972
 20
954.329212
 11
909.787502
 21
953.817907
  0
LINE
  8
CSLAYER1
  6
CONTINUOUS
 62
     3
 10
909.787502
 20
953.817907
 11
908.230251
 21
953.238598
  0
LINE
  8
CSLAYER1
  6
CONTINUOUS
 62
     3
 10
908.230251
 20
953.238598
 11
906.783069
 21
952.595693
  0
LINE
  8
CSLAYER1
  6
CONTINUOUS
 62
     3
 10
906.783069
 20
952.595693
 11
905.456972
 21
951.894086
  0
LINE
  8
CSLAYER1
  6
CONTINUOUS
 62
     3
 10
905.456972
 20
951.894086
 11
904.262051
 21
951.139115
  0
LINE
  8
CSLAYER1
  6
CONTINUOUS
 62
     3
 10
904.262051
 20
951.139115
 11
903.207400
 21
950.336528
  0
LINE
  8
CSLAYER1
  6
CONTINUOUS
 62
     3
 10
903.207400
 20
950.336528
 11
902.301047
 21
949.492431
  0
LINE
  8
CSLAYER1
  6
CONTINUOUS
 62
     3
 10
902.301047
 20
949.492431
 11
901.549888
 21
948.613249
  0
LINE
  8
CSLAYER1
  6
CONTINUOUS
 62
     3
 10
901.549888
 20
948.613249
 11
900.959641
 21
947.705674
  0
LINE
  8
CSLAYER1
  6
CONTINUOUS
 62
     3
 10
900.959641
 20
947.705674
 11
900.534798
 21
946.776611
  0
LINE
  8
CSLAYER1
  6
CONTINUOUS
 62
     3
 10
900.534798
 20
946.776611
 11
900.278591
 21
945.833133
  0
LINE
  8
CSLAYER1
  6
CONTINUOUS
 62
     3
 10
900.278591
 20
945.833133
 11
900.192972
 21
944.882420
  0
LINE
  8
CSLAYER1
  6
CONTINUOUS
 62
     3
 10
946.992972
 20
944.882420
 11
946.900503
 21
945.909190
  0
LINE
  8
CSLAYER1
  6
CONTINUOUS
 62
     3
 10
946.900503
 20
945.909190
 11
946.623800
 21
946.928147
  0
LINE
  8
CSLAYER1
  6
CONTINUOUS
 62
     3
 10
946.623800
 20
946.928147
 11
946.164970
 21
947.931534
  0
LINE
  8
CSLAYER1
  6
CONTINUOUS
 62
     3
 10
946.164970
 20
947.931534
 11
945.527503
 21
948.911716
  0
LINE
  8
CSLAYER1
  6
CONTINUOUS
 62
     3
 10
945.527503
 20
948.911716
 11
944.716251
 21
949.861232
  0
LINE
  8
CSLAYER1
  6
CONTINUOUS
 62
     3
 10
944.716251
 20
949.861232
 11
943.737389
 21
950.772856
  0
LINE
  8
CSLAYER1
  6
CONTINUOUS
 62
     3
 10
943.737389
 20
950.772856
 11
942.598367
 21
951.639651
  0
LINE
  8
CSLAYER1
  6
CONTINUOUS
 62
     3
 10
942.598367
 20
951.639651
 11
941.307852
 21
952.455019
  0
LINE
  8
CSLAYER1
  6
CONTINUOUS
 62
     3
 10
941.307852
 20
952.455019
 11
939.875667
 21
953.212755
  0
LINE
  8
CSLAYER1
  6
CONTINUOUS
 62
     3
 10
939.875667
 20
953.212755
 11
938.312711
 21
953.907092
  0
LINE
  8
CSLAYER1
  6
CONTINUOUS
 62
     3
 10
938.312711
 20
953.907092
 11
936.630879
 21
954.532746
  0
LINE
  8
CSLAYER1
  6
CONTINUOUS
 62
     3
 10
936.630879
 20
954.532746
 11
934.842972
 21
955.084956
  0
LINE
  8
CSLAYER1
  6
CONTINUOUS
 62
     3
 10
934.842972
 20
955.084956
 11
932.962596
 21
955.559517
  0
LINE
  8
CSLAYER1
  6
CONTINUOUS
 62
     3
 10
932.962596
 20
955.559517
 11
931.004061
 21
955.952820
  0
LINE
  8
CSLAYER1
  6
CONTINUOUS
 62
     3
 10
931.004061
 20
955.952820
 11
928.982275
 21
956.261870
  0
LINE
  8
CSLAYER1
  6
CONTINUOUS
 62
     3
 10
928.982275
 20
956.261870
 11
926.912623
 21
956.484315
  0
LINE
  8
CSLAYER1
  6
CONTINUOUS
 62
     3
 10
926.912623
 20
956.484315
 11
924.810857
 21
956.618464
  0
LINE
  8
CSLAYER1
  6
CONTINUOUS
 62
     3
 10
924.810857
 20
956.618464
 11
922.692972
 21
956.663293
  0
LINE
  8
CSLAYER1
  6
CONTINUOUS
 62
     3
 10
922.692972
 20
956.663293
 11
920.575087
 21
956.618464
  0
LINE
  8
CSLAYER1
  6
CONTINUOUS
 62
     3
 10
920.575087
 20
956.618464
 11
918.473321
 21
956.484315
  0
LINE
  8
CSLAYER1
  6
CONTINUOUS
 62
     3
 10
918.473321
 20
956.484315
 11
916.403669
 21
956.261870
  0
LINE
  8
CSLAYER1
  6
CONTINUOUS
 62
     3
 10
916.403669
 20
956.261870
 11
914.381883
 21
955.952820
  0
LINE
  8
CSLAYER1
  6
CONTINUOUS
 62
     3
 10
914.381883
 20
955.952820
 11
912.423348
 21
955.559517
  0
LINE
  8
CSLAYER1
  6
CONTINUOUS
 62
     3
 10
912.423348
 20
955.559517
 11
910.542972
 21
955.084956
  0
LINE
  8
CSLAYER1
  6
CONTINUOUS
 62
     3
 10
910.542972
 20
955.084956
 11
908.755065
 21
954.532746
  0
LINE
  8
CSLAYER1
  6
CONTINUOUS
 62
     3
 10
908.755065
 20
954.532746
 11
907.073233
 21
953.907092
  0
LINE
  8
CSLAYER1
  6
CONTINUOUS
 62
     3
 10
907.073233
 20
953.907092
 11
905.510277
 21
953.212755
  0
LINE
  8
CSLAYER1
  6
CONTINUOUS
 62
     3
 10
905.510277
 20
953.212755
 11
904.078092
 21
952.455019
  0
LINE
  8
CSLAYER1
  6
CONTINUOUS
 62
     3
 10
904.078092
 20
952.455019
 11
902.787577
 21
951.639651
  0
LINE
  8
CSLAYER1
  6
CONTINUOUS
 62
     3
 10
902.787577
 20
951.639651
 11
901.648555
 21
950.772856
  0
LINE
  8
CSLAYER1
  6
CONTINUOUS
 62
     3
 10
901.648555
 20
950.772856
 11
900.669693
 21
949.861232
  0
LINE
  8
CSLAYER1
  6
CONTINUOUS
 62
     3
 10
900.669693
 20
949.861232
 11
899.858441
 21
948.911716
  0
LINE
  8
CSLAYER1
  6
CONTINUOUS
 62
     3
 10
899.858441
 20
948.911716
 11
899.220974
 21
947.931534
  0
LINE
  8
CSLAYER1
  6
CONTINUOUS
 62
     3
 10
899.220974
 20
947.931534
 11
898.762144
 21
946.928147
  0
LINE
  8
CSLAYER1
  6
CONTINUOUS
 62
     3
 10
898.762144
 20
946.928147
 11
898.485441
 21
945.909190
  0
LINE
  8
CSLAYER1
  6
CONTINUOUS
 62
     3
 10
898.485441
 20
945.909190
 11
898.392972
 21
944.882420
  0
LINE
  8
CSLAYER1
  6
CONTINUOUS
 62
     3
 10
898.392972
 20
944.882420
 11
898.485441
 21
943.855649
  0
LINE
  8
CSLAYER1
  6
CONTINUOUS
 62
     3
 10
898.485441
 20
943.855649
 11
898.590732
 21
943.467914
  0
LINE
  8
CSLAYER1
  6
CONTINUOUS
 62
     3
 10
899.692972
 20
941.107552
 11
899.858441
 21
940.853123
  0
LINE
  8
CSLAYER1
  6
CONTINUOUS
 62
     3
 10
899.858441
 20
940.853123
 11
900.192972
 21
940.461577
  0
LINE
  8
CSLAYER1
  6
CONTINUOUS
 62
     3
 10
945.192972
 20
940.461577
 11
945.527503
 21
940.853123
  0
LINE
  8
CSLAYER1
  6
CONTINUOUS
 62
     3
 10
945.527503
 20
940.853123
 11
945.692972
 21
941.107552
  0
LINE
  8
CSLAYER1
  6
CONTINUOUS
 62
     3
 10
946.795212
 20
943.467914
 11
946.900503
 21
943.855649
  0
LINE
  8
CSLAYER1
  6
CONTINUOUS
 62
     3
 10
946.900503
 20
943.855649
 11
946.992972
 21
944.882420
  0
LINE
  8
CSLAYER1
  6
CONTINUOUS
 62
     3
 10
900.192972
 20
914.293524
 11
900.192972
 21
944.882420
  0
LINE
  8
CSLAYER1
  6
CONTINUOUS
 62
     3
 10
945.192972
 20
914.293524
 11
945.107353
 21
915.244237
  0
LINE
  8
CSLAYER1
  6
CONTINUOUS
 62
     3
 10
945.107353
 20
915.244237
 11
944.851146
 21
916.187716
  0
LINE
  8
CSLAYER1
  6
CONTINUOUS
 62
     3
 10
944.851146
 20
916.187716
 11
944.426303
 21
917.116778
  0
LINE
  8
CSLAYER1
  6
CONTINUOUS
 62
     3
 10
944.426303
 20
917.116778
 11
943.836056
 21
918.024353
  0
LINE
  8
CSLAYER1
  6
CONTINUOUS
 62
     3
 10
943.836056
 20
918.024353
 11
943.084897
 21
918.903535
  0
LINE
  8
CSLAYER1
  6
CONTINUOUS
 62
     3
 10
943.084897
 20
918.903535
 11
942.178544
 21
919.747632
  0
LINE
  8
CSLAYER1
  6
CONTINUOUS
 62
     3
 10
942.178544
 20
919.747632
 11
941.123893
 21
920.550220
  0
LINE
  8
CSLAYER1
  6
CONTINUOUS
 62
     3
 10
941.123893
 20
920.550220
 11
939.928972
 21
921.305190
  0
LINE
  8
CSLAYER1
  6
CONTINUOUS
 62
     3
 10
939.928972
 20
921.305190
 11
938.602875
 21
922.006797
  0
LINE
  8
CSLAYER1
  6
CONTINUOUS
 62
     3
 10
938.602875
 20
922.006797
 11
937.155693
 21
922.649702
  0
LINE
  8
CSLAYER1
  6
CONTINUOUS
 62
     3
 10
937.155693
 20
922.649702
 11
935.598442
 21
923.229011
  0
LINE
  8
CSLAYER1
  6
CONTINUOUS
 62
     3
 10
935.598442
 20
923.229011
 11
933.942972
 21
923.740316
  0
LINE
  8
CSLAYER1
  6
CONTINUOUS
 62
     3
 10
933.942972
 20
923.740316
 11
932.201883
 21
924.179725
  0
LINE
  8
CSLAYER1
  6
CONTINUOUS
 62
     3
 10
932.201883
 20
924.179725
 11
930.388425
 21
924.543894
  0
LINE
  8
CSLAYER1
  6
CONTINUOUS
 62
     3
 10
930.388425
 20
924.543894
 11
928.516401
 21
924.830052
  0
LINE
  8
CSLAYER1
  6
CONTINUOUS
 62
     3
 10
928.516401
 20
924.830052
 11
926.600056
 21
925.036020
  0
LINE
  8
CSLAYER1
  6
CONTINUOUS
 62
     3
 10
926.600056
 20
925.036020
 11
924.653976
 21
925.160231
  0
LINE
  8
CSLAYER1
  6
CONTINUOUS
 62
     3
 10
924.653976
 20
925.160231
 11
922.692972
 21
925.201740
  0
LINE
  8
CSLAYER1
  6
CONTINUOUS
 62
     3
 10
922.692972
 20
925.201740
 11
920.731968
 21
925.160231
  0
LINE
  8
CSLAYER1
  6
CONTINUOUS
 62
     3
 10
920.731968
 20
925.160231
 11
918.785888
 21
925.036020
  0
LINE
  8
CSLAYER1
  6
CONTINUOUS
 62
     3
 10
918.785888
 20
925.036020
 11
916.869543
 21
924.830052
  0
LINE
  8
CSLAYER1
  6
CONTINUOUS
 62
     3
 10
916.869543
 20
924.830052
 11
914.997519
 21
924.543894
  0
LINE
  8
CSLAYER1
  6
CONTINUOUS
 62
     3
 10
914.997519
 20
924.543894
 11
913.184061
 21
924.179725
  0
LINE
  8
CSLAYER1
  6
CONTINUOUS
 62
     3
 10
913.184061
 20
924.179725
 11
911.442972
 21
923.740316
  0
LINE
  8
CSLAYER1
  6
CONTINUOUS
 62
     3
 10
911.442972
 20
923.740316
 11
909.787502
 21
923.229011
  0
LINE
  8
CSLAYER1
  6
CONTINUOUS
 62
     3
 10
909.787502
 20
923.229011
 11
908.230251
 21
922.649702
  0
LINE
  8
CSLAYER1
  6
CONTINUOUS
 62
     3
 10
908.230251
 20
922.649702
 11
906.783069
 21
922.006797
  0
LINE
  8
CSLAYER1
  6
CONTINUOUS
 62
     3
 10
906.783069
 20
922.006797
 11
905.456972
 21
921.305190
  0
LINE
  8
CSLAYER1
  6
CONTINUOUS
 62
     3
 10
905.456972
 20
921.305190
 11
904.262051
 21
920.550220
  0
LINE
  8
CSLAYER1
  6
CONTINUOUS
 62
     3
 10
904.262051
 20
920.550220
 11
903.207400
 21
919.747632
  0
LINE
  8
CSLAYER1
  6
CONTINUOUS
 62
     3
 10
903.207400
 20
919.747632
 11
902.301047
 21
918.903535
  0
LINE
  8
CSLAYER1
  6
CONTINUOUS
 62
     3
 10
902.301047
 20
918.903535
 11
901.549888
 21
918.024353
  0
LINE
  8
CSLAYER1
  6
CONTINUOUS
 62
     3
 10
901.549888
 20
918.024353
 11
900.959641
 21
917.116778
  0
LINE
  8
CSLAYER1
  6
CONTINUOUS
 62
     3
 10
900.959641
 20
917.116778
 11
900.534798
 21
916.187716
  0
LINE
  8
CSLAYER1
  6
CONTINUOUS
 62
     3
 10
900.534798
 20
916.187716
 11
900.278591
 21
915.244237
  0
LINE
  8
CSLAYER1
  6
CONTINUOUS
 62
     3
 10
900.278591
 20
915.244237
 11
900.192972
 21
914.293524
  0
LINE
  8
CSLAYER1
  6
CONTINUOUS
 62
     3
 10
900.192972
 20
914.293524
 11
900.278591
 21
913.342810
  0
LINE
  8
CSLAYER1
  6
CONTINUOUS
 62
     3
 10
900.278591
 20
913.342810
 11
900.534798
 21
912.399332
  0
LINE
  8
CSLAYER1
  6
CONTINUOUS
 62
     3
 10
900.534798
 20
912.399332
 11
900.959641
 21
911.470269
  0
LINE
  8
CSLAYER1
  6
CONTINUOUS
 62
     3
 10
900.959641
 20
911.470269
 11
901.549888
 21
910.562694
  0
LINE
  8
CSLAYER1
  6
CONTINUOUS
 62
     3
 10
901.549888
 20
910.562694
 11
901.736293
 21
910.344519
  0
LINE
  8
CSLAYER1
  6
CONTINUOUS
 62
     3
 10
943.649651
 20
910.344519
 11
943.836056
 21
910.562694
  0
LINE
  8
CSLAYER1
  6
CONTINUOUS
 62
     3
 10
943.836056
 20
910.562694
 11
944.426303
 21
911.470269
  0
LINE
  8
CSLAYER1
  6
CONTINUOUS
 62
     3
 10
944.426303
 20
911.470269
 11
944.851146
 21
912.399332
  0
LINE
  8
CSLAYER1
  6
CONTINUOUS
 62
     3
 10
944.851146
 20
912.399332
 11
945.107353
 21
913.342810
  0
LINE
  8
CSLAYER1
  6
CONTINUOUS
 62
     3
 10
945.107353
 20
913.342810
 11
945.192972
 21
914.293524
  0
LINE
  8
CSLAYER1
  6
CENTER
 62
     5
 10
882.692972
 20
881.353156
 11
882.692972
 21
1023.445144
  0
LINE
  8
CSLAYER1
  6
CONTINUOUS
 62
     3
 10
889.692972
 20
1036.108952
 11
875.692972
 21
1036.108952
  0
LINE
  8
CSLAYER1
  6
CONTINUOUS
 62
     3
 10
889.692972
 20
1028.308952
 11
875.692972
 21
1028.308952
  0
LINE
  8
CSLAYER1
  6
CONTINUOUS
 62
     3
 10
889.124904
 20
1023.108952
 11
876.261040
 21
1023.108952
  0
LINE
  8
CSLAYER1
  6
CONTINUOUS
 62
     3
 10
888.692972
 20
1021.108952
 11
876.692972
 21
1021.108952
  0
LINE
  8
CSLAYER1
  6
CONTINUOUS
 62
     3
 10
888.692972
 20
1014.108952
 11
876.692972
 21
1014.108952
  0
LINE
  8
CSLAYER1
  6
CONTINUOUS
 62
     3
 10
887.575998
 20
989.108952
 11
877.809946
 21
989.108952
  0
LINE
  8
CSLAYER1
  6
CONTINUOUS
 62
     3
 10
888.192972
 20
1011.108952
 11
888.192972
 21
1014.108952
  0
LINE
  8
CSLAYER1
  6
CONTINUOUS
 62
     3
 10
890.775876
 20
1028.934167
 11
890.775876
 21
1035.483737
  0
LINE
  8
CSLAYER1
  6
CONTINUOUS
 62
     3
 10
886.734424
 20
1028.934167
 11
886.734424
 21
1035.483737
  0
ARC
  8
CSLAYER1
  6
CONTINUOUS
 62
     3
 10
860.005202
 20
1028.351173
 40
29.587800
 50
345.831727
 51
359.918240
  0
ARC
  8
CSLAYER1
  6
CONTINUOUS
 62
     3
 10
905.380742
 20
1028.351173
 40
29.587800
 50
180.081760
 51
194.168273
  0
LINE
  8
CSLAYER1
  6
CONTINUOUS
 62
     3
 10
887.040286
 20
1021.108952
 11
887.040286
 21
1023.108952
  0
LINE
  8
CSLAYER1
  6
CONTINUOUS
 62
     3
 10
885.058521
 20
1021.108952
 11
885.058521
 21
1023.108952
  0
LINE
  8
CSLAYER1
  6
CONTINUOUS
 62
     3
 10
878.345658
 20
1021.108952
 11
878.345658
 21
1023.108952
  0
LINE
  8
CSLAYER1
  6
CONTINUOUS
 62
     3
 10
880.327423
 20
1021.108952
 11
880.327423
 21
1023.108952
  0
LINE
  8
CSLAYER1
  6
CONTINUOUS
 62
     3
 10
889.692972
 20
1036.108952
 11
890.775876
 21
1035.483737
  0
ARC
  8
CSLAYER1
  6
CONTINUOUS
 62
     3
 10
888.755150
 20
1032.557323
 40
3.556295
 50
64.625569
 51
124.625569
  0
ARC
  8
CSLAYER1
  6
CONTINUOUS
 62
     3
 10
882.692972
 20
1022.734167
 40
13.374785
 50
72.412046
 51
90.000000
  0
LINE
  8
CSLAYER1
  6
CONTINUOUS
 62
     3
 10
889.692972
 20
1028.308952
 11
890.775876
 21
1028.934167
  0
ARC
  8
CSLAYER1
  6
CONTINUOUS
 62
     3
 10
888.755150
 20
1031.860581
 40
3.556295
 50
235.374431
 51
295.374431
  0
ARC
  8
CSLAYER1
  6
CONTINUOUS
 62
     3
 10
882.692972
 20
1041.683737
 40
13.374785
 50
270.000000
 51
287.587954
  0
LINE
  8
CSLAYER1
  6
CONTINUOUS
 62
     3
 10
874.610068
 20
1028.934167
 11
874.610068
 21
1035.483737
  0
LINE
  8
CSLAYER1
  6
CONTINUOUS
 62
     3
 10
878.651520
 20
1028.934167
 11
878.651520
 21
1035.483737
  0
LINE
  8
CSLAYER1
  6
CONTINUOUS
 62
     3
 10
875.692972
 20
1036.108952
 11
874.610068
 21
1035.483737
  0
ARC
  8
CSLAYER1
  6
CONTINUOUS
 62
     3
 10
876.630794
 20
1032.557323
 40
3.556295
 50
55.374431
 51
115.374431
  0
ARC
  8
CSLAYER1
  6
CONTINUOUS
 62
     3
 10
882.692972
 20
1022.734167
 40
13.374785
 50
90.000000
 51
107.587954
  0
LINE
  8
CSLAYER1
  6
CONTINUOUS
 62
     3
 10
875.692972
 20
1028.308952
 11
874.610068
 21
1028.934167
  0
ARC
  8
CSLAYER1
  6
CONTINUOUS
 62
     3
 10
876.630794
 20
1031.860581
 40
3.556295
 50
244.625569
 51
304.625569
  0
ARC
  8
CSLAYER1
  6
CONTINUOUS
 62
     3
 10
882.692972
 20
1041.683737
 40
13.374785
 50
252.412046
 51
270.000000
  0
LINE
  8
CSLAYER1
  6
CONTINUOUS
 62
     3
 10
889.621175
 20
1014.644850
 11
889.621175
 21
1020.373053
  0
LINE
  8
CSLAYER1
  6
CONTINUOUS
 62
     3
 10
886.157074
 20
1014.644850
 11
886.157074
 21
1020.373053
  0
LINE
  8
CSLAYER1
  6
CONTINUOUS
 62
     3
 10
888.692972
 20
1014.108952
 11
889.621175
 21
1014.644850
  0
ARC
  8
CSLAYER1
  6
CONTINUOUS
 62
     3
 10
882.692972
 20
1025.573053
 40
11.464102
 50
270.000000
 51
287.821405
  0
ARC
  8
CSLAYER1
  6
CONTINUOUS
 62
     3
 10
887.889124
 20
1017.174880
 40
3.066114
 50
236.143645
 51
295.804157
  0
LINE
  8
CSLAYER1
  6
CONTINUOUS
 62
     3
 10
888.692972
 20
1020.908952
 11
889.621175
 21
1020.373053
  0
ARC
  8
CSLAYER1
  6
CONTINUOUS
 62
     3
 10
882.692972
 20
1009.444850
 40
11.464102
 50
72.178595
 51
90.000000
  0
ARC
  8
CSLAYER1
  6
CONTINUOUS
 62
     3
 10
887.889124
 20
1017.843023
 40
3.066114
 50
64.195843
 51
123.856355
  0
LINE
  8
CSLAYER1
  6
CONTINUOUS
 62
     3
 10
888.692972
 20
1020.908952
 11
876.692972
 21
1020.908952
  0
LINE
  8
CSLAYER1
  6
CONTINUOUS
 62
     3
 10
886.157074
 20
1020.908952
 11
886.157074
 21
1021.108952
  0
LINE
  8
CSLAYER1
  6
CONTINUOUS
 62
     3
 10
877.192972
 20
1011.108952
 11
877.192972
 21
1014.108952
  0
LINE
  8
CSLAYER1
  6
CONTINUOUS
 62
     3
 10
875.764769
 20
1014.644850
 11
875.764769
 21
1020.373053
  0
LINE
  8
CSLAYER1
  6
CONTINUOUS
 62
     3
 10
879.228870
 20
1014.644850
 11
879.228870
 21
1020.373053
  0
LINE
  8
CSLAYER1
  6
CONTINUOUS
 62
     3
 10
876.692972
 20
1014.108952
 11
875.764769
 21
1014.644850
  0
ARC
  8
CSLAYER1
  6
CONTINUOUS
 62
     3
 10
882.692972
 20
1025.573053
 40
11.464102
 50
252.178595
 51
270.000000
  0
ARC
  8
CSLAYER1
  6
CONTINUOUS
 62
     3
 10
877.496820
 20
1017.174880
 40
3.066114
 50
244.195843
 51
303.856355
  0
LINE
  8
CSLAYER1
  6
CONTINUOUS
 62
     3
 10
876.692972
 20
1020.908952
 11
875.764769
 21
1020.373053
  0
ARC
  8
CSLAYER1
  6
CONTINUOUS
 62
     3
 10
882.692972
 20
1009.444850
 40
11.464102
 50
90.000000
 51
107.821405
  0
ARC
  8
CSLAYER1
  6
CONTINUOUS
 62
     3
 10
877.496820
 20
1017.843023
 40
3.066114
 50
56.143645
 51
115.804157
  0
LINE
  8
CSLAYER1
  6
CONTINUOUS
 62
     3
 10
879.228870
 20
1020.908952
 11
879.228870
 21
1021.108952
  0
LINE
  8
CSLAYER1
  6
CONTINUOUS
 62
     3
 10
889.621175
 20
1002.108952
 11
889.621175
 21
1010.573053
  0
LINE
  8
CSLAYER1
  6
CONTINUOUS
 62
     3
 10
886.157074
 20
1002.108952
 11
886.157074
 21
1010.573053
  0
LINE
  8
CSLAYER1
  6
CONTINUOUS
 62
     3
 10
888.692972
 20
1011.108952
 11
889.621175
 21
1010.573053
  0
ARC
  8
CSLAYER1
  6
CONTINUOUS
 62
     3
 10
882.692972
 20
999.644850
 40
11.464102
 50
72.178595
 51
90.000000
  0
ARC
  8
CSLAYER1
  6
CONTINUOUS
 62
     3
 10
887.889124
 20
1008.043023
 40
3.066114
 50
64.195843
 51
123.856355
  0
LINE
  8
CSLAYER1
  6
CONTINUOUS
 62
     3
 10
888.692972
 20
1011.108952
 11
876.692972
 21
1011.108952
  0
LINE
  8
CSLAYER1
  6
CONTINUOUS
 62
     3
 10
875.764769
 20
1002.108952
 11
875.764769
 21
1010.573053
  0
LINE
  8
CSLAYER1
  6
CONTINUOUS
 62
     3
 10
879.228870
 20
1002.108952
 11
879.228870
 21
1010.573053
  0
LINE
  8
CSLAYER1
  6
CONTINUOUS
 62
     3
 10
876.692972
 20
1011.108952
 11
875.764769
 21
1010.573053
  0
ARC
  8
CSLAYER1
  6
CONTINUOUS
 62
     3
 10
882.692972
 20
999.644850
 40
11.464102
 50
90.000000
 51
107.821405
  0
ARC
  8
CSLAYER1
  6
CONTINUOUS
 62
     3
 10
877.496820
 20
1008.043023
 40
3.066114
 50
56.143645
 51
115.804157
  0
LINE
  8
CSLAYER1
  6
CONTINUOUS
 62
     3
 10
888.572253
 20
990.022492
 11
889.621175
 21
1002.108952
  0
ARC
  8
CSLAYER1
  6
CONTINUOUS
 62
     3
 10
867.515484
 20
1002.108952
 40
18.641590
 50
330.443788
 51
360.000000
  0
ARC
  8
CSLAYER1
  6
CONTINUOUS
 62
     3
 10
882.692972
 20
993.548806
 40
1.217263
 50
270.000000
 51
329.421532
  0
ARC
  8
CSLAYER1
  6
CONTINUOUS
 62
     3
 10
904.798664
 20
1002.108952
 40
18.641590
 50
180.000000
 51
209.556212
  0
ARC
  8
CSLAYER1
  6
CONTINUOUS
 62
     3
 10
889.621175
 20
993.548806
 40
1.217263
 50
210.578468
 51
227.594217
  0
ARC
  8
CSLAYER1
  6
CONTINUOUS
 62
     3
 10
887.575998
 20
990.108952
 40
1.000000
 50
270.000000
 51
355.040021
  0
LINE
  8
CSLAYER1
  6
CONTINUOUS
 62
     3
 10
876.813691
 20
990.022492
 11
875.764769
 21
1002.108952
  0
ARC
  8
CSLAYER1
  6
CONTINUOUS
 62
     3
 10
897.870460
 20
1002.108952
 40
18.641590
 50
180.000000
 51
209.556212
  0
ARC
  8
CSLAYER1
  6
CONTINUOUS
 62
     3
 10
882.692972
 20
993.548806
 40
1.217263
 50
210.578468
 51
270.000000
  0
ARC
  8
CSLAYER1
  6
CONTINUOUS
 62
     3
 10
860.587280
 20
1002.108952
 40
18.641590
 50
330.443788
 51
360.000000
  0
ARC
  8
CSLAYER1
  6
CONTINUOUS
 62
     3
 10
875.764769
 20
993.548806
 40
1.217263
 50
312.405783
 51
329.421532
  0
ARC
  8
CSLAYER1
  6
CONTINUOUS
 62
     3
 10
877.809946
 20
990.108952
 40
1.000000
 50
184.959979
 51
270.000000
  0
LINE
  8
CSLAYER1
  6
CONTINUOUS
 62
     3
 10
887.575998
 20
1055.808952
 11
877.809946
 21
1055.808952
  0
LINE
  8
CSLAYER1
  6
CENTER
 62
     5
 10
895.192972
 20
1048.808952
 11
889.692972
 21
1048.808952
  0
LINE
  8
CSLAYER1
  6
CONTINUOUS
 62
     3
 10
875.692972
 20
1041.808952
 11
875.692972
 21
1054.308952
  0
LINE
  8
CSLAYER1
  6
CONTINUOUS
 62
     3
 10
889.692972
 20
1055.808952
 11
877.192972
 21
1055.808952
  0
LINE
  8
CSLAYER1
  6
CONTINUOUS
 62
     3
 10
889.692972
 20
1041.808952
 11
875.692972
 21
1041.808952
  0
LINE
  8
CSLAYER1
  6
CONTINUOUS
 62
     3
 10
889.692972
 20
1041.808952
 11
889.692972
 21
1055.806507
  0
LINE
  8
CSLAYER1
  6
CONTINUOUS
 62
     3
 10
887.292972
 20
1036.108952
 11
887.292972
 21
1041.808952
  0
LINE
  8
CSLAYER1
  6
CONTINUOUS
 62
     5
 10
886.692972
 20
1036.108952
 11
886.692972
 21
1040.769721
  0
LINE
  8
CSLAYER1
  6
CONTINUOUS
 62
     5
 10
887.292972
 20
1041.808952
 11
886.692972
 21
1040.769721
  0
LINE
  8
CSLAYER1
  6
CONTINUOUS
 62
     3
 10
878.092972
 20
1036.108952
 11
878.092972
 21
1041.808952
  0
LINE
  8
CSLAYER1
  6
CONTINUOUS
 62
     5
 10
878.092972
 20
1041.808952
 11
878.692972
 21
1040.769721
  0
LINE
  8
CSLAYER1
  6
CONTINUOUS
 62
     5
 10
887.292972
 20
1040.769721
 11
878.092972
 21
1040.769721
  0
LINE
  8
CSLAYER1
  6
CONTINUOUS
 62
     3
 10
895.192972
 20
1043.957166
 11
889.692972
 21
1043.858952
  0
LINE
  8
CSLAYER1
  6
CONTINUOUS
 62
     5
 10
895.192972
 20
1044.657278
 11
889.680474
 21
1044.558840
  0
LINE
  8
CSLAYER1
  6
CONTINUOUS
 62
     3
 10
895.192972
 20
1053.660738
 11
889.692972
 21
1053.758952
  0
LINE
  8
CSLAYER1
  6
CONTINUOUS
 62
     5
 10
895.192972
 20
1052.960626
 11
889.680474
 21
1053.059063
  0
ARC
  8
CSLAYER1
  6
CONTINUOUS
 62
     3
 10
877.192972
 20
1054.308952
 40
1.500000
 50
90.000000
 51
180.000000
  0
LINE
  8
CSLAYER1
  6
CONTINUOUS
 62
     3
 10
901.192972
 20
1206.779715
 11
904.692972
 21
1206.779715
  0
LINE
  8
CSLAYER1
  6
CONTINUOUS
 62
     3
 10
900.192972
 20
1207.779715
 11
901.192972
 21
1206.779715
  0
LINE
  8
CSLAYER1
  6
CONTINUOUS
 62
     3
 10
944.192972
 20
1206.779715
 11
945.192972
 21
1207.779715
  0
LINE
  8
CSLAYER1
  6
CONTINUOUS
 62
     3
 10
946.192972
 20
1212.379715
 11
945.192972
 21
1212.379715
  0
LINE
  8
CSLAYER1
  6
CONTINUOUS
 62
     3
 10
900.192972
 20
1212.379715
 11
899.192972
 21
1212.379715
  0
LINE
  8
CSLAYER1
  6
CONTINUOUS
 62
     3
 10
887.192972
 20
1237.379715
 11
899.192972
 21
1237.379715
  0
LINE
  8
CSLAYER1
  6
CONTINUOUS
 62
     3
 10
887.192972
 20
1145.971446
 11
899.192972
 21
1145.971446
  0
LINE
  8
CSLAYER1
  6
CONTINUOUS
 62
     3
 10
946.192972
 20
1145.971446
 11
946.192972
 21
1237.379715
  0
LINE
  8
CSLAYER1
  6
CONTINUOUS
 62
     3
 10
899.192972
 20
1145.971446
 11
899.192972
 21
1237.379715
  0
LINE
  8
CSLAYER1
  6
CONTINUOUS
 62
     3
 10
887.192972
 20
1145.971446
 11
887.192972
 21
1237.379715
  0
LINE
  8
CSLAYER1
  6
CONTINUOUS
 62
     3
 10
946.192972
 20
1145.971446
 11
958.192972
 21
1145.971446
  0
LINE
  8
CSLAYER1
  6
CONTINUOUS
 62
     3
 10
940.692972
 20
1116.263368
 11
958.192972
 21
1116.263368
  0
LINE
  8
CSLAYER1
  6
CONTINUOUS
 62
     3
 10
899.192972
 20
1164.863368
 11
904.692972
 21
1164.863368
  0
LINE
  8
CSLAYER1
  6
CONTINUOUS
 62
     3
 10
940.692972
 20
1164.863368
 11
946.192972
 21
1164.863368
  0
LINE
  8
CSLAYER1
  6
CONTINUOUS
 62
     3
 10
946.192972
 20
1237.379715
 11
958.192972
 21
1237.379715
  0
LINE
  8
CSLAYER1
  6
CONTINUOUS
 62
     3
 10
866.192972
 20
1228.379715
 11
887.192972
 21
1228.379715
  0
LINE
  8
CSLAYER1
  6
CONTINUOUS
 62
     3
 10
866.192972
 20
1212.379715
 11
887.192972
 21
1212.379715
  0
LINE
  8
CSLAYER1
  6
CONTINUOUS
 62
     3
 10
912.192972
 20
1325.000855
 11
958.192972
 21
1325.000855
  0
LINE
  8
CSLAYER1
  6
CONTINUOUS
 62
     3
 10
854.192972
 20
1145.584029
 11
854.192972
 21
1139.084029
  0
LINE
  8
CSLAYER1
  6
CONTINUOUS
 62
     3
 10
857.192972
 20
1145.584029
 11
857.192972
 21
1139.084029
  0
LINE
  8
CSLAYER1
  6
CONTINUOUS
 62
     3
 10
854.192972
 20
1145.584029
 11
857.192972
 21
1145.584029
  0
LINE
  8
CSLAYER1
  6
CONTINUOUS
 62
     3
 10
854.192972
 20
1117.584029
 11
854.192972
 21
1124.084029
  0
LINE
  8
CSLAYER1
  6
CONTINUOUS
 62
     3
 10
857.192972
 20
1117.584029
 11
857.192972
 21
1124.084029
  0
LINE
  8
CSLAYER1
  6
CONTINUOUS
 62
     3
 10
854.192972
 20
1117.584029
 11
857.192972
 21
1117.584029
  0
LINE
  8
CSLAYER1
  6
CONTINUOUS
 62
     3
 10
857.192972
 20
910.344519
 11
854.192972
 21
910.344519
  0
LINE
  8
CSLAYER1
  6
CONTINUOUS
 62
     3
 10
912.192972
 20
1463.124757
 11
762.192972
 21
1463.124757
  0
LINE
  8
CSLAYER1
  6
CONTINUOUS
 62
     3
 10
762.192972
 20
1430.824757
 11
912.192972
 21
1430.824757
  0
LINE
  8
CSLAYER1
  6
CONTINUOUS
 62
     3
 10
856.192972
 20
1417.174757
 11
857.192972
 21
1417.174757
  0
LINE
  8
CSLAYER1
  6
CONTINUOUS
 62
     3
 10
855.192972
 20
1430.824757
 11
855.192972
 21
1418.174757
  0
LINE
  8
CSLAYER1
  6
CONTINUOUS
 62
     3
 10
855.192972
 20
1418.174757
 11
856.192972
 21
1417.174757
  0
LINE
  8
CSLAYER1
  6
CONTINUOUS
 62
     3
 10
856.192972
 20
1430.824757
 11
856.192972
 21
1417.174757
  0
LINE
  8
CSLAYER1
  6
CONTINUOUS
 62
     3
 10
854.692972
 20
1415.324757
 11
848.692972
 21
1415.324757
  0
LINE
  8
CSLAYER1
  6
CONTINUOUS
 62
     3
 10
848.692972
 20
1430.824757
 11
848.692972
 21
1415.324757
  0
LINE
  8
CSLAYER1
  6
CONTINUOUS
 62
     3
 10
854.692972
 20
1430.824757
 11
854.692972
 21
1415.324757
  0
LINE
  8
CSLAYER1
  6
CONTINUOUS
 62
     3
 10
866.192972
 20
1417.174757
 11
912.192972
 21
1417.174757
  0
LINE
  8
CSLAYER1
  6
CONTINUOUS
 62
     3
 10
845.692972
 20
1414.855102
 11
845.692972
 21
1430.824757
  0
LINE
  8
CSLAYER1
  6
CONTINUOUS
 62
     3
 10
848.692972
 20
1415.074757
 11
845.692972
 21
1415.074757
  0
LINE
  8
CSLAYER1
  6
CONTINUOUS
 62
     3
 10
848.692972
 20
1424.312560
 11
845.853946
 21
1427.624757
  0
LINE
  8
CSLAYER1
  6
CONTINUOUS
 62
     3
 10
837.692972
 20
1425.824757
 11
837.692972
 21
1427.624757
  0
ARC
  8
CSLAYER1
  6
CONTINUOUS
 62
     3
 10
851.488716
 20
1425.824757
 40
13.795744
 50
158.750456
 51
180.000000
  0
LINE
  8
CSLAYER1
  6
CONTINUOUS
 62
     3
 10
837.692972
 20
1430.824757
 11
837.692972
 21
1416.824757
  0
LINE
  8
CSLAYER1
  6
CONTINUOUS
 62
     3
 10
845.692972
 20
1420.339929
 11
838.830153
 21
1420.339929
  0
LINE
  8
CSLAYER1
  6
CONTINUOUS
 62
     3
 10
845.692972
 20
1414.855102
 11
838.830153
 21
1414.855102
  0
LINE
  8
CSLAYER1
  6
CONTINUOUS
 62
     3
 10
837.692972
 20
1416.824757
 11
838.830153
 21
1414.855102
  0
ARC
  8
CSLAYER1
  6
CONTINUOUS
 62
     3
 10
841.473016
 20
1417.597516
 40
3.808617
 50
133.940972
 51
174.338367
  0
ARC
  8
CSLAYER1
  6
CONTINUOUS
 62
     3
 10
851.488716
 20
1425.824757
 40
13.795744
 50
180.000000
 51
203.426598
  0
LINE
  8
CSLAYER1
  6
CONTINUOUS
 62
     3
 10
912.192972
 20
1325.000855
 11
866.192972
 21
1325.000855
  0
LINE
  8
CSLAYER1
  6
CONTINUOUS
 62
     3
 10
866.192972
 20
881.353156
 11
866.192972
 21
1430.824757
  0
LINE
  8
CSLAYER1
  6
CONTINUOUS
 62
     3
 10
857.192972
 20
881.353156
 11
857.192972
 21
1430.824757
  0
LINE
  8
CSLAYER1
  6
CONTINUOUS
 62
     3
 10
854.192972
 20
881.353156
 11
854.192972
 21
1415.324757
  0
LINE
  8
CSLAYER1
  6
CONTINUOUS
 62
     3
 10
845.192972
 20
881.353156
 11
845.192972
 21
1414.855102
  0
LINE
  8
CSLAYER1
  6
CONTINUOUS
 62
     3
 10
866.192972
 20
910.344519
 11
878.542972
 21
910.344519
  0
LINE
  8
CSLAYER1
  6
CONTINUOUS
 62
     3
 10
827.192972
 20
1430.824757
 11
831.692972
 21
1430.824757
  0
LINE
  8
CSLAYER1
  6
CONTINUOUS
 62
     3
 10
997.192972
 20
1430.824757
 11
992.692972
 21
1430.824757
  0
LINE
  8
CSLAYER1
  6
CONTINUOUS
 62
     3
 10
940.692972
 20
1206.779715
 11
944.192972
 21
1206.779715
  0
LINE
  8
CSLAYER1
  6
CONTINUOUS
 62
     3
 10
878.542972
 20
881.353156
 11
878.542972
 21
989.108952
  0
LINE
  8
CSLAYER1
  6
CONTINUOUS
 62
     3
 10
886.842972
 20
881.353156
 11
886.842972
 21
989.108952
  0
LINE
  8
CSLAYER1
  6
CONTINUOUS
 62
     3
 10
886.842972
 20
910.344519
 11
893.692972
 21
910.344519
  0
CIRCLE
  8
CSLAYER1
  6
CONTINUOUS
 62
     3
 10
882.192972
 20
853.003156
 40
4.150000
  0
LINE
  8
CSLAYER1
  6
CONTINUOUS
 62
     5
 10
878.692972
 20
1036.108952
 11
878.692972
 21
1040.769721
  0
DIMENSION
  8
CSLAYER1
 62
     3
  2
*D0012
 10
1128.579569
 20
847.353156
 11
1181.446167
 21
865.217957
 13
1062.192972
 23
841.353156
 14
1062.192972
 24
847.353156
 50
90.000000
 70
1
  0
LINE
  8
CSLAYER1
  6
CENTER
 62
     5
 10
837.692972
 20
1425.824757
 11
986.692972
 21
1425.824757
  0
LINE
  8
CSLAYER1
  6
CONTINUOUS
 62
     1
 10
995.542972
 20
1126.434029
 11
994.992972
 21
1126.434029
  0
LINE
  8
CSLAYER1
  6
CONTINUOUS
 62
     1
 10
995.542972
 20
1136.734029
 11
994.992972
 21
1136.734029
  0
LINE
  8
CSLAYER1
  6
CONTINUOUS
 62
     4
 10
984.992972
 20
1131.584029
 11
984.992972
 21
1120.614374
  0
LINE
  8
CSLAYER1
  6
CONTINUOUS
 62
     4
 10
994.992972
 20
1131.584029
 11
994.992972
 21
1122.084029
  0
LINE
  8
CSLAYER1
  6
CONTINUOUS
 62
     4
 10
984.992972
 20
1120.614374
 11
994.144466
 21
1120.614374
  0
LINE
  8
CSLAYER1
  6
CONTINUOUS
 62
     4
 10
984.992972
 20
1126.099202
 11
994.144466
 21
1126.099202
  0
LINE
  8
CSLAYER1
  6
CONTINUOUS
 62
     4
 10
994.992972
 20
1122.084029
 11
994.144466
 21
1120.614374
  0
ARC
  8
CSLAYER1
  6
CONTINUOUS
 62
     4
 10
976.841478
 20
1131.584029
 40
18.151494
 50
342.412046
 51
360.000000
  0
ARC
  8
CSLAYER1
  6
CONTINUOUS
 62
     4
 10
990.143643
 20
1123.356788
 40
4.850507
 50
-25.570827
 51
34.796733
  0
LINE
  8
CSLAYER1
  6
CONTINUOUS
 62
     4
 10
984.992972
 20
1120.834029
 11
981.992972
 21
1120.834029
  0
LINE
  8
CSLAYER1
  6
CONTINUOUS
 62
     4
 10
981.992972
 20
1119.584029
 11
979.692972
 21
1119.584029
  0
LINE
  8
CSLAYER1
  6
CONTINUOUS
 62
     4
 10
979.692972
 20
1131.584029
 11
979.692972
 21
1119.584029
  0
LINE
  8
CSLAYER1
  6
CONTINUOUS
 62
     4
 10
981.992972
 20
1131.584029
 11
981.992972
 21
1119.584029
  0
LINE
  8
CSLAYER1
  6
CONTINUOUS
 62
     4
 10
995.692972
 20
1131.584029
 11
995.692972
 21
1126.584029
  0
LINE
  8
CSLAYER1
  6
CONTINUOUS
 62
     4
 10
994.992972
 20
1125.884029
 11
995.692972
 21
1126.584029
  0
LINE
  8
CSLAYER1
  6
CONTINUOUS
 62
     4
 10
984.992972
 20
1131.584029
 11
984.992972
 21
1142.553685
  0
LINE
  8
CSLAYER1
  6
CONTINUOUS
 62
     4
 10
994.992972
 20
1131.584029
 11
994.992972
 21
1141.084029
  0
LINE
  8
CSLAYER1
  6
CONTINUOUS
 62
     4
 10
984.992972
 20
1142.553685
 11
994.144466
 21
1142.553685
  0
LINE
  8
CSLAYER1
  6
CONTINUOUS
 62
     4
 10
984.992972
 20
1137.068857
 11
994.144466
 21
1137.068857
  0
LINE
  8
CSLAYER1
  6
CONTINUOUS
 62
     4
 10
994.992972
 20
1141.084029
 11
994.144466
 21
1142.553685
  0
ARC
  8
CSLAYER1
  6
CONTINUOUS
 62
     4
 10
976.841478
 20
1131.584029
 40
18.151494
 50
0.000000
 51
17.587954
  0
ARC
  8
CSLAYER1
  6
CONTINUOUS
 62
     4
 10
990.143643
 20
1139.811271
 40
4.850507
 50
-34.796733
 51
25.570827
  0
LINE
  8
CSLAYER1
  6
CONTINUOUS
 62
     4
 10
984.992972
 20
1142.334029
 11
981.992972
 21
1142.334029
  0
LINE
  8
CSLAYER1
  6
CONTINUOUS
 62
     4
 10
981.992972
 20
1143.584029
 11
979.692972
 21
1143.584029
  0
LINE
  8
CSLAYER1
  6
CONTINUOUS
 62
     4
 10
979.692972
 20
1131.584029
 11
979.692972
 21
1143.584029
  0
LINE
  8
CSLAYER1
  6
CONTINUOUS
 62
     4
 10
981.992972
 20
1131.584029
 11
981.992972
 21
1143.584029
  0
LINE
  8
CSLAYER1
  6
CONTINUOUS
 62
     4
 10
995.692972
 20
1131.584029
 11
995.692972
 21
1136.584029
  0
LINE
  8
CSLAYER1
  6
CONTINUOUS
 62
     4
 10
994.992972
 20
1137.284029
 11
995.692972
 21
1136.584029
  0
LINE
  8
CSLAYER1
  6
CONTINUOUS
 62
     4
 10
979.692972
 20
1131.584029
 11
979.692972
 21
1119.584029
  0
LINE
  8
CSLAYER1
  6
CONTINUOUS
 62
     4
 10
979.192972
 20
1123.084029
 11
979.692972
 21
1123.584029
  0
LINE
  8
CSLAYER1
  6
CONTINUOUS
 62
     4
 10
979.192972
 20
1140.084029
 11
979.692972
 21
1139.584029
  0
LINE
  8
CSLAYER1
  6
CONTINUOUS
 62
     1
 10
828.842972
 20
1126.434029
 11
829.392972
 21
1126.434029
  0
LINE
  8
CSLAYER1
  6
CONTINUOUS
 62
     1
 10
828.842972
 20
1136.734029
 11
829.392972
 21
1136.734029
  0
LINE
  8
CSLAYER1
  6
CONTINUOUS
 62
     4
 10
839.392972
 20
1131.584029
 11
839.392972
 21
1120.614374
  0
LINE
  8
CSLAYER1
  6
CONTINUOUS
 62
     4
 10
829.392972
 20
1131.584029
 11
829.392972
 21
1122.084029
  0
LINE
  8
CSLAYER1
  6
CONTINUOUS
 62
     4
 10
839.392972
 20
1120.614374
 11
830.241478
 21
1120.614374
  0
LINE
  8
CSLAYER1
  6
CONTINUOUS
 62
     4
 10
839.392972
 20
1126.099202
 11
830.241478
 21
1126.099202
  0
LINE
  8
CSLAYER1
  6
CONTINUOUS
 62
     4
 10
829.392972
 20
1122.084029
 11
830.241478
 21
1120.614374
  0
ARC
  8
CSLAYER1
  6
CONTINUOUS
 62
     4
 10
847.544466
 20
1131.584029
 40
18.151494
 50
180.000000
 51
197.587954
  0
ARC
  8
CSLAYER1
  6
CONTINUOUS
 62
     4
 10
834.242301
 20
1123.356788
 40
4.850507
 50
145.203267
 51
205.570827
  0
LINE
  8
CSLAYER1
  6
CONTINUOUS
 62
     4
 10
839.392972
 20
1120.834029
 11
842.392972
 21
1120.834029
  0
LINE
  8
CSLAYER1
  6
CONTINUOUS
 62
     4
 10
842.392972
 20
1119.584029
 11
844.692972
 21
1119.584029
  0
LINE
  8
CSLAYER1
  6
CONTINUOUS
 62
     4
 10
844.692972
 20
1131.584029
 11
844.692972
 21
1119.584029
  0
LINE
  8
CSLAYER1
  6
CONTINUOUS
 62
     4
 10
842.392972
 20
1131.584029
 11
842.392972
 21
1119.584029
  0
LINE
  8
CSLAYER1
  6
CONTINUOUS
 62
     4
 10
828.692972
 20
1131.584029
 11
828.692972
 21
1126.584029
  0
LINE
  8
CSLAYER1
  6
CONTINUOUS
 62
     4
 10
829.392972
 20
1125.884029
 11
828.692972
 21
1126.584029
  0
LINE
  8
CSLAYER1
  6
CONTINUOUS
 62
     4
 10
839.392972
 20
1131.584029
 11
839.392972
 21
1142.553685
  0
LINE
  8
CSLAYER1
  6
CONTINUOUS
 62
     4
 10
829.392972
 20
1131.584029
 11
829.392972
 21
1141.084029
  0
LINE
  8
CSLAYER1
  6
CONTINUOUS
 62
     4
 10
839.392972
 20
1142.553685
 11
830.241478
 21
1142.553685
  0
LINE
  8
CSLAYER1
  6
CONTINUOUS
 62
     4
 10
839.392972
 20
1137.068857
 11
830.241478
 21
1137.068857
  0
LINE
  8
CSLAYER1
  6
CONTINUOUS
 62
     4
 10
829.392972
 20
1141.084029
 11
830.241478
 21
1142.553685
  0
ARC
  8
CSLAYER1
  6
CONTINUOUS
 62
     4
 10
847.544466
 20
1131.584029
 40
18.151494
 50
162.412046
 51
180.000000
  0
ARC
  8
CSLAYER1
  6
CONTINUOUS
 62
     4
 10
834.242301
 20
1139.811271
 40
4.850507
 50
154.429173
 51
214.796733
  0
LINE
  8
CSLAYER1
  6
CONTINUOUS
 62
     4
 10
839.392972
 20
1142.334029
 11
842.392972
 21
1142.334029
  0
LINE
  8
CSLAYER1
  6
CONTINUOUS
 62
     4
 10
842.392972
 20
1143.584029
 11
844.692972
 21
1143.584029
  0
LINE
  8
CSLAYER1
  6
CONTINUOUS
 62
     4
 10
844.692972
 20
1131.584029
 11
844.692972
 21
1143.584029
  0
LINE
  8
CSLAYER1
  6
CONTINUOUS
 62
     4
 10
842.392972
 20
1131.584029
 11
842.392972
 21
1143.584029
  0
LINE
  8
CSLAYER1
  6
CONTINUOUS
 62
     4
 10
828.692972
 20
1131.584029
 11
828.692972
 21
1136.584029
  0
LINE
  8
CSLAYER1
  6
CONTINUOUS
 62
     4
 10
829.392972
 20
1137.284029
 11
828.692972
 21
1136.584029
  0
LINE
  8
CSLAYER1
  6
CONTINUOUS
 62
     4
 10
844.692972
 20
1131.584029
 11
844.692972
 21
1119.584029
  0
LINE
  8
CSLAYER1
  6
CONTINUOUS
 62
     4
 10
845.192972
 20
1123.084029
 11
844.692972
 21
1123.584029
  0
LINE
  8
CSLAYER1
  6
CONTINUOUS
 62
     4
 10
845.192972
 20
1140.084029
 11
844.692972
 21
1139.584029
  0
LINE
  8
CSLAYER1
  6
CONTINUOUS
 62
     3
 10
866.192972
 20
1106.420954
 11
904.692972
 21
1106.420954
  0
LINE
  8
CSLAYER1
  6
CONTINUOUS
 62
     3
 10
866.192972
 20
1104.175979
 11
904.692972
 21
1104.175979
  0
LINE
  8
CSLAYER1
  6
CONTINUOUS
 62
     3
 10
940.692972
 20
1106.420954
 11
958.192972
 21
1106.420954
  0
LINE
  8
CSLAYER1
  6
CONTINUOUS
 62
     3
 10
940.692972
 20
1104.175979
 11
958.192972
 21
1104.175979
  0
LINE
  8
CSLAYER1
  6
CONTINUOUS
 62
     3
 10
812.192972
 20
885.353156
 11
843.692972
 21
885.353156
  0
LINE
  8
CSLAYER1
  6
CONTINUOUS
 62
     3
 10
980.692972
 20
841.353156
 11
980.692972
 21
885.353156
  0
LINE
  8
CSLAYER1
  6
CONTINUOUS
 62
     3
 10
843.692972
 20
841.353156
 11
843.692972
 21
885.353156
  0
LINE
  8
CSLAYER1
  6
CONTINUOUS
 62
     3
 10
980.692972
 20
885.353156
 11
1012.192972
 21
885.353156
  0
LINE
  8
CSLAYER1
  6
CONTINUOUS
 62
     3
 10
989.692972
 20
875.322811
 11
989.692972
 21
853.383501
  0
LINE
  8
CSLAYER1
  6
CONTINUOUS
 62
     3
 10
986.692972
 20
853.603156
 11
989.692972
 21
853.603156
  0
LINE
  8
CSLAYER1
  6
CONTINUOUS
 62
     3
 10
986.692972
 20
875.103156
 11
989.692972
 21
875.103156
  0
LINE
  8
CSLAYER1
  6
CONTINUOUS
 62
     3
 10
986.692972
 20
865.865352
 11
989.692972
 21
862.365352
  0
LINE
  8
CSLAYER1
  6
CONTINUOUS
 62
     3
 10
997.692972
 20
864.353156
 11
997.692972
 21
855.353156
  0
LINE
  8
CSLAYER1
  6
CONTINUOUS
 62
     3
 10
989.692972
 20
858.868328
 11
996.555791
 21
858.868328
  0
LINE
  8
CSLAYER1
  6
CONTINUOUS
 62
     3
 10
989.692972
 20
853.383501
 11
996.555791
 21
853.383501
  0
LINE
  8
CSLAYER1
  6
CONTINUOUS
 62
     3
 10
997.692972
 20
855.353156
 11
996.555791
 21
853.383501
  0
ARC
  8
CSLAYER1
  6
CONTINUOUS
 62
     3
 10
993.912928
 20
856.125914
 40
3.808617
 50
5.661633
 51
46.059028
  0
ARC
  8
CSLAYER1
  6
CONTINUOUS
 62
     3
 10
983.897228
 20
864.353156
 40
13.795744
 50
336.573402
 51
360.000000
  0
LINE
  8
CSLAYER1
  6
CONTINUOUS
 62
     3
 10
997.692972
 20
864.353156
 11
997.692972
 21
873.353156
  0
LINE
  8
CSLAYER1
  6
CONTINUOUS
 62
     3
 10
989.692972
 20
869.837983
 11
996.555791
 21
869.837983
  0
LINE
  8
CSLAYER1
  6
CONTINUOUS
 62
     3
 10
989.692972
 20
875.322811
 11
996.555791
 21
875.322811
  0
LINE
  8
CSLAYER1
  6
CONTINUOUS
 62
     3
 10
997.692972
 20
873.353156
 11
996.555791
 21
875.322811
  0
ARC
  8
CSLAYER1
  6
CONTINUOUS
 62
     3
 10
993.912928
 20
872.580397
 40
3.808617
 50
313.940972
 51
354.338367
  0
ARC
  8
CSLAYER1
  6
CONTINUOUS
 62
     3
 10
983.897228
 20
864.353156
 40
13.795744
 50
-0.000000
 51
23.426598
  0
LINE
  8
CSLAYER1
  6
CENTER
 62
     5
 10
986.692972
 20
864.353156
 11
997.692972
 21
864.353156
  0
LINE
  8
CSLAYER1
  6
CONTINUOUS
 62
     3
 10
762.192972
 20
1430.824757
 11
762.192972
 21
1463.124757
  0
LINE
  8
CSLAYER1
  6
CONTINUOUS
 62
     3
 10
1062.192972
 20
1430.824757
 11
1062.192972
 21
1463.124757
  0
LINE
  8
CSLAYER1
  6
CONTINUOUS
 62
     5
 10
1505.014443
 20
828.227385
 11
1505.014443
 21
850.440381
  0
TEXT
  8
CSLAYER1
 62
     7
 10
1286.712524
 20
1341.813232
 40
40.000000
 41
0.787500
  1
テーブルのズレ
 50
0.000000
 51
0.000000
  7
EASYDRAW_FONT
 72
     5
 11
1496.712524
 21
1341.813232
  0
INSERT
  8
CSLAYER1
  2
EASYDRAWDIM0004
 10
0.0
 20
0.0
 30
0.0
  0
TEXT
  8
CSLAYER1
 62
     7
 10
863.056580
 20
609.337524
 40
40.000000
 41
0.843750
  1
上昇時
 50
0.000000
 51
0.000000
  7
EASYDRAW_FONT
 72
     5
 11
953.056580
 21
609.337524
  0
LINE
  8
CSLAYER1
  6
CONTINUOUS
 62
     5
 10
849.450006
 20
655.767652
 11
972.408016
 21
655.767652
  0
LINE
  8
CSLAYER1
  6
CONTINUOUS
 62
     5
 10
972.408016
 20
655.767652
 11
972.408016
 21
602.907199
  0
LINE
  8
CSLAYER1
  6
CONTINUOUS
 62
     5
 10
972.408016
 20
602.907199
 11
849.450006
 21
602.907199
  0
LINE
  8
CSLAYER1
  6
CONTINUOUS
 62
     5
 10
849.450006
 20
602.907199
 11
849.450006
 21
655.767652
  0
DIMENSION
  8
CSLAYER1
 62
     3
  2
*D0013
 10
1062.192972
 20
697.148130
 11
912.192810
 21
705.148132
 13
762.192972
 23
843.353156
 14
1062.192972
 24
843.353156
 52
270.000000
 70
1
  0
DIMENSION
  8
CSLAYER1
 62
     3
  2
*D0014
 10
1037.192972
 20
766.521587
 11
912.192810
 21
774.521545
 13
787.192972
 23
843.353156
 14
1037.192972
 24
843.353156
 52
270.000000
 70
1
  0
LINE
  8
CSLAYER1
  6
CONTINUOUS
 62
     6
 10
1037.192972
 20
841.353156
 11
1133.100618
 21
758.451419
  0
LINE
  8
CSLAYER1
  6
CONTINUOUS
 62
     6
 10
1037.192972
 20
841.353156
 11
1064.193447
 21
828.277440
  0
LINE
  8
CSLAYER1
  6
CONTINUOUS
 62
     6
 10
1037.192972
 20
841.353156
 11
1054.038212
 21
816.529016
  0
DIMENSION
  8
CSLAYER1
 62
     3
  2
*D0015
 10
1505.014443
 20
705.283343
 11
1518.296997
 21
691.227600
 13
1480.014443
 23
841.353156
 14
1505.014443
 24
841.353156
 52
270.000000
 70
1
  0
INSERT
  8
CSLAYER1
  2
EASYDRAWDIM0005
 10
0.0
 20
0.0
 30
0.0
  0
LINE
  8
CSLAYER1
  6
CONTINUOUS
 62
     5
 10
507.498071
 20
841.353156
 11
762.192972
 21
841.353156
  0
INSERT
  8
CSLAYER1
  2
BLKF0000
 10
0.0
 20
0.0
 30
0.0
  0
LINE
  8
CSLAYER1
  6
CONTINUOUS
 62
     5
 10
2735.569057
 20
536.214360
 11
3535.569057
 21
536.214360
  0
LINE
  8
CSLAYER1
  6
CONTINUOUS
 62
     5
 10
2735.569057
 20
176.214360
 11
3535.569057
 21
176.214360
  0
LINE
  8
CSLAYER1
  6
CONTINUOUS
 62
     5
 10
2735.569057
 20
336.214360
 11
3535.569057
 21
336.214360
  0
LINE
  8
CSLAYER1
  6
CONTINUOUS
 62
     5
 10
2735.569057
 20
396.214360
 11
3535.569057
 21
396.214360
  0
LINE
  8
CSLAYER1
  6
CONTINUOUS
 62
     5
 10
2735.569057
 20
456.214360
 11
3535.569057
 21
456.214360
  0
LINE
  8
CSLAYER1
  6
CONTINUOUS
 62
     5
 10
2735.569057
 20
616.214360
 11
3535.569057
 21
616.214360
  0
LINE
  8
CSLAYER1
  6
CONTINUOUS
 62
     5
 10
2735.569057
 20
696.214360
 11
2735.569057
 21
96.214360
  0
LINE
  8
CSLAYER1
  6
CONTINUOUS
 62
     5
 10
2935.569057
 20
696.214360
 11
2935.569057
 21
456.214360
  0
LINE
  8
CSLAYER1
  6
CONTINUOUS
 62
     5
 10
2735.569057
 20
696.214360
 11
3535.569057
 21
696.214360
  0
LINE
  8
CSLAYER1
  6
CONTINUOUS
 62
     5
 10
3235.569057
 20
456.214360
 11
3235.569057
 21
176.214360
  0
TEXT
  8
CSLAYER1
 62
     3
 10
2955.260311
 20
104.777073
 40
59.380363
 41
1.003345
  1
東正車輌株式会社
 50
0.000000
 51
0.000000
  7
EASYDRAW_FONT
 72
     5
 11
3412.032658
 21
104.777073
  0
LINE
  8
CSLAYER1
  6
CONTINUOUS
 62
     5
 10
2985.569057
 20
396.214360
 11
2985.569057
 21
176.214360
  0
TEXT
  8
CSLAYER1
 62
     5
 10
2765.569092
 20
631.214294
 40
50.000000
 41
1.050000
  1
品　名
 50
0.000000
 51
0.000000
  7
EASYDRAW_FONT
 72
     5
 11
2905.569092
 21
631.214294
  0
TEXT
  8
CSLAYER1
 62
     5
 10
2765.569092
 20
551.214294
 40
50.000000
 41
1.050000
  1
型　式
 50
0.000000
 51
0.000000
  7
EASYDRAW_FONT
 72
     5
 11
2905.569092
 21
551.214294
  0
TEXT
  8
CSLAYER1
 62
     5
 10
2740.569092
 20
471.214386
 40
50.000000
 41
1.036364
  1
図面番号
 50
0.000000
 51
0.000000
  7
EASYDRAW_FONT
 72
     5
 11
2930.569092
 21
471.214386
  0
TEXT
  8
CSLAYER1
 62
     5
 10
2765.569092
 20
401.214386
 40
50.000000
 41
0.825000
  1
平成26年01月10日
 50
0.000000
 51
0.000000
  7
EASYDRAW_FONT
 72
     5
 11
3205.569092
 21
401.214386
  0
TEXT
  8
CSLAYER1
 62
     5
 10
3315.569092
 20
401.214386
 40
50.000000
 41
1.050000
  1
Ｂ－４
 50
0.000000
 51
0.000000
  7
EASYDRAW_FONT
 72
     5
 11
3455.569092
 21
401.214386
  0
TEXT
  8
CSLAYER1
 62
     5
 10
2790.569092
 20
341.214386
 40
50.000000
 41
1.050000
  1
検　図
 50
0.000000
 51
0.000000
  7
EASYDRAW_FONT
 72
     5
 11
2930.569092
 21
341.214386
  0
TEXT
  8
CSLAYER1
 62
     5
 10
3040.569092
 20
341.214386
 40
50.000000
 41
1.050000
  1
作　図
 50
0.000000
 51
0.000000
  7
EASYDRAW_FONT
 72
     5
 11
3180.569092
 21
341.214386
  0
TEXT
  8
CSLAYER1
 62
     5
 10
3315.569092
 20
341.214386
 40
50.000000
 41
1.050000
  1
尺　度
 50
0.000000
 51
0.000000
  7
EASYDRAW_FONT
 72
     5
 11
3455.569092
 21
341.214386
  0
TEXT
  8
CSLAYER1
 62
     5
 10
3416.307861
 20
190.699615
 40
50.000000
 41
1.080000
  1
１０
 50
0.000000
 51
0.000000
  7
EASYDRAW_FONT
 72
     5
 11
3506.307861
 21
190.699615
  0
TEXT
  8
CSLAYER1
 62
     5
 10
3395.988281
 20
238.404327
 40
50.000000
 41
1.200000
  1
／
 50
0.000000
 51
0.000000
  7
EASYDRAW_FONT
 72
     5
 11
3435.988281
 21
238.404327
  0
TEXT
  8
CSLAYER1
 62
     5
 10
3365.775391
 20
273.387787
 40
50.000000
 41
1.200000
  1
１
 50
0.000000
 51
0.000000
  7
EASYDRAW_FONT
 72
     5
 11
3405.775391
 21
273.387787
  0
TEXT
  8
CSLAYER1
 62
     3
 10
3075.569092
 20
631.214294
 40
50.000000
 41
0.834783
  1
ゴールドリフター
 50
0.000000
 51
0.000000
  7
EASYDRAW_FONT
 72
     5
 11
3395.569092
 21
631.214294
  0
TEXT
  8
CSLAYER1
 62
     3
 10
2975.569092
 20
551.214294
 40
50.000000
 41
0.821053
  1
GLSE-350-3008
 50
0.000000
 51
0.000000
  7
EASYDRAW_FONT
 72
     5
 11
3495.569092
 21
551.214294
  0
INSERT
  8
CSLAYER1
  2
BLKF0001
 10
0.0
 20
0.0
 30
0.0
  0
LINE
  8
CSLAYER1
  6
CONTINUOUS
 62
     3
 10
2700.251117
 20
841.353156
 11
3000.251117
 21
841.353156
  0
LINE
  8
CSLAYER1
  6
CONTINUOUS
 62
     5
 10
3000.251117
 20
841.353156
 11
3148.115575
 21
841.353156
  0
LINE
  8
CSLAYER1
  6
CONTINUOUS
 62
     5
 10
2282.714443
 20
841.353156
 11
2700.251117
 21
841.353156
  0
LINE
  8
CSLAYER1
  6
CONTINUOUS
 62
     3
 10
1480.014443
 20
841.353156
 11
2282.714443
 21
841.353156
  0
LINE
  8
CSLAYER1
  6
CONTINUOUS
 62
     5
 10
1062.192972
 20
841.353156
 11
1480.014443
 21
841.353156
  0
ENDSEC
  0
EOF
