  0
SECTION
  2
HEADER
  9
$ACADVER
  1
AC1006
  9
$INSBASE
 10
0.000000
 20
0.000000
 30
0.0
  9
$EXTMIN
 10
0.000000
 20
0.000000
  9
$EXTMAX
 10
3640.000000
 20
2570.000000
  9
$LIMMIN
 10
0.000000
 20
0.000000
  9
$LIMMAX
 10
3640.000000
 20
2570.000000
  9
$VIEWCTR
 10
1820.000000
 20
1285.000000
  9
$VIEWSIZE
 40
2570.000000
  9
$SNAPMODE
 70
     0
  9
$SNAPUNIT
 10
1.0
 20
1.0
  9
$SNAPBASE
 10
0.0
 20
0.0
  9
$SNAPANG
 50
0.0
  9
$SNAPSTYLE
 70
     0
  9
$SNAPISOPAIR
 70
     0
  9
$GRIDMODE
 70
     0
  9
$GRIDUNIT
 10
0.0
 20
0.0
  9
$ORTHOMODE
 70
     0
  9
$REGENMODE
 70
     1
  9
$FILLMODE
 70
     1
  9
$QTEXTMODE
 70
     0
  9
$DRAGMODE
 70
     2
  9
$LTSCALE
 40
15.000000
  9
$OSMODE
 70
     0
  9
$ATTMODE
 70
     1
  9
$TEXTSIZE
 40
0.2
  9
$TRACEWID
 40
0.05
  9
$TEXTSTYLE
  7
STANDARD
  9
$CLAYER
  8
CSLAYER1
  9
$CELTYPE
  6
BYLAYER
  9
$CECOLOR
 62
   256
  9
$DIMSCALE
 40
1.0
  9
$DIMASZ
 40
0.18
  9
$DIMEXO
 40
0.0625
  9
$DIMDLI
 40
0.38
  9
$DIMRND
 40
0.0
  9
$DIMDLE
 40
0.0
  9
$DIMEXE
 40
0.18
  9
$DIMTP
 40
0.0
  9
$DIMTM
 40
0.0
  9
$DIMTXT
 40
0.18
  9
$DIMCEN
 40
0.09
  9
$DIMTSZ
 40
0.0
  9
$DIMTOL
 70
     0
  9
$DIMLIM
 70
     0
  9
$DIMTIH
 70
     1
  9
$DIMTOH
 70
     1
  9
$DIMSE1
 70
     0
  9
$DIMSE2
 70
     0
  9
$DIMTAD
 70
     0
  9
$DIMZIN
 70
     0
  9
$DIMBLK
  1

  9
$LUNITS
 70
     2
  9
$LUPREC
 70
     4
  9
$AXISMODE
 70
     0
  9
$AXISUNIT
 10
0.0
 20
0.0
  9
$SKETCHINC
 40
0.1
  9
$FILLETRAD
 40
0.0
  9
$AUNITS
 70
     0
  9
$AUPREC
 70
     0
  9
$MENU
  1
ACAD
  9
$ELEVATION
 40
0.0
  9
$THICKNESS
 40
0.0
  9
$VIEWDIR
 10
0.0
 20
0.0
 30
1.0
  9
$LIMCHECK
 70
     0
  9
$BLIPMODE
 70
     1
  9
$CHAMFERA
 40
0.0
  9
$CHAMFERB
 40
0.0
  9
$FASTZOOM
 70
     1
  9
$SKPOLY
 70
     0
  9
$TDCREATE
 40
2456676.000000
  9
$TDUPDATE
 40
2456676.000000
  9
$TDINDWG
 40
0.0
  9
$TDUSRTIMER
 40
0.0
  9
$USRTIMER
 70
     1
  9
$ANGBASE
 50
0.0
  9
$ANGDIR
 70
     0
  9
$PDMODE
 70
     0
  9
$PDSIZE
 40
0.0
  9
$PLINEWID
 40
0.0
  9
$COORDS
 70
     0
  9
$USERI1
 70
     0
  9
$USERI2
 70
     0
  9
$USERI3
 70
     0
  9
$USERI4
 70
     0
  9
$USERI5
 70
     0
  9
$USERR1
 40
0.0
  9
$USERR2
 40
0.0
  9
$USERR3
 40
0.0
  9
$USERR4
 40
0.0
  9
$USERR5
 40
0.0
  0
ENDSEC
  0
SECTION
  2
TABLES
  0
TABLE
  2
LTYPE
 70
     9
  0
LTYPE
  2
CONTINUOUS
 70
    64
  3
Solid line
 72
    65
 73
     0
 40
0.0
  0
LTYPE
  2
DASHED
 70
    64
  3
__ __ __ __ __ __ __ __ __ __ __ __ __ __ __
 72
    65
 73
     2
 40
0.75
 49
0.5
 49
-0.25
  0
LTYPE
  2
HIDDEN
 70
    64
  3
_ _ _ _ _ _ _ _ _ _ _ _ _ _ _ _ _ _ _ _ _ _ _
 72
    65
 73
     2
 40
0.375
 49
0.25
 49
-0.125
  0
LTYPE
  2
DOT
 70
    64
  3
...............................................
 72
    65
 73
     2
 40
0.25
 49
0.0
 49
-0.25
  0
LTYPE
  2
DASHDOT
 70
    64
  3
__ . __ . __ . __ . __ . __ . __ . __ . __ . __
 72
    65
 73
     4
 40
1.0
 49
0.5
 49
-0.25
 49
0.0
 49
-0.25
  0
LTYPE
  2
DIVIDE
 70
    64
  3
__ . . __ . . __ . . __ . . __ . . __ . . __
 72
    65
 73
     6
 40
1.25
 49
0.5
 49
-0.25
 49
0.0
 49
-0.25
 49
0.0
 49
-0.25
  0
LTYPE
  2
CENTER
 70
    64
  3
____ _ ____ _ ____ _ ____ _ ____ _ ____ _ ____ 
 72
    65
 73
     4
 40
2.0
 49
1.25
 49
-0.25
 49
0.25
 49
-0.25
  0
LTYPE
  2
PHANTOM
 70
    64
  3
______  __  __  ______  __  __  ______  __  __ 
 72
    65
 73
     6
 40
2.5
 49
1.25
 49
-0.25
 49
0.25
 49
-0.25
 49
0.25
 49
-0.25
  0
LTYPE
  2
BORDER
 70
    64
  3
__ __ . __ __ . __ __ . __ __ . __ __ . __ __ .
 72
    65
 73
     6
 40
1.75
 49
0.5
 49
-0.25
 49
0.5
 49
-0.25
 49
0.0
 49
-0.25
  0
ENDTAB
  0
TABLE
  2
LAYER
 70
    16
  0
LAYER
  2
CSLAYER1
 70
    64
 62
     7
  6
CONTINUOUS
  0
LAYER
  2
CSLAYER2
 70
    64
 62
     7
  6
CONTINUOUS
  0
LAYER
  2
CSLAYER3
 70
    64
 62
     7
  6
CONTINUOUS
  0
LAYER
  2
CSLAYER4
 70
    64
 62
     7
  6
CONTINUOUS
  0
LAYER
  2
CSLAYER5
 70
    64
 62
     7
  6
CONTINUOUS
  0
LAYER
  2
CSLAYER6
 70
    64
 62
     7
  6
CONTINUOUS
  0
LAYER
  2
CSLAYER7
 70
    64
 62
     7
  6
CONTINUOUS
  0
LAYER
  2
CSLAYER8
 70
    64
 62
     7
  6
CONTINUOUS
  0
LAYER
  2
CSLAYER9
 70
    64
 62
     7
  6
CONTINUOUS
  0
LAYER
  2
CSLAYER10
 70
    64
 62
     7
  6
CONTINUOUS
  0
LAYER
  2
CSLAYER11
 70
    64
 62
     7
  6
CONTINUOUS
  0
LAYER
  2
CSLAYER12
 70
    64
 62
     7
  6
CONTINUOUS
  0
LAYER
  2
CSLAYER13
 70
    64
 62
     7
  6
CONTINUOUS
  0
LAYER
  2
CSLAYER14
 70
    64
 62
     7
  6
CONTINUOUS
  0
LAYER
  2
CSLAYER15
 70
    64
 62
     7
  6
CONTINUOUS
  0
LAYER
  2
CSLAYER16
 70
    64
 62
     7
  6
CONTINUOUS
  0
ENDTAB
  0
TABLE
  2
STYLE
 70
     1
  0
STYLE
  2
EASYDRAW_FONT
 70
     0
 40
1.0
 41
1.0
 50
0.0
 71
     0
 42
1.0
  3
monotxt
  4
bigfont
  0
ENDTAB
  0
TABLE
  2
VIEW
 70
     0
  0
ENDTAB
  0
ENDSEC
  0
SECTION
  2
BLOCKS
  0
BLOCK
  8
CSLAYER1
  2
*D0000
 70
    65
 10
0.0
 20
0.0
 30
0.0
  0
TEXT
  8
CSLAYER1
 62
     3
 10
1335.272705
 20
1840.579224
 40
40.000000
 41
0.843750
  1
250
 50
90.000000
 51
0.000000
  7
EASYDRAW_FONT
 72
     5
 11
1335.272705
 21
1930.579224
  0
LINE
  8
CSLAYER1
  6
CONTINUOUS
 62
     5
 10
1432.516183
 20
1786.132153
 11
1333.524924
 21
1786.132153
  0
LINE
  8
CSLAYER1
  6
CONTINUOUS
 62
     5
 10
1432.516183
 20
2036.132153
 11
1333.524924
 21
2036.132153
  0
LINE
  8
CSLAYER1
  6
CONTINUOUS
 62
     5
 10
1343.524924
 20
1786.132153
 11
1343.524924
 21
2036.132153
  0
LINE
  8
CSLAYER1
  6
CONTINUOUS
 62
     5
 10
1343.524924
 20
1786.132153
 11
1335.760353
 21
1815.109928
  0
LINE
  8
CSLAYER1
  6
CONTINUOUS
 62
     5
 10
1343.524924
 20
1786.132153
 11
1351.289495
 21
1815.109928
  0
LINE
  8
CSLAYER1
  6
CONTINUOUS
 62
     5
 10
1343.524924
 20
2036.132153
 11
1335.760353
 21
2007.154379
  0
LINE
  8
CSLAYER1
  6
CONTINUOUS
 62
     5
 10
1343.524924
 20
2036.132153
 11
1351.289495
 21
2007.154379
  0
ENDBLK
  8
0
  0
BLOCK
  8
CSLAYER1
  2
*D0001
 70
    65
 10
0.0
 20
0.0
 30
0.0
  0
TEXT
  8
CSLAYER1
 62
     3
 10
1357.923340
 20
1680.804810
 40
40.000000
 41
0.900000
  1
25
 50
0.000000
 51
0.000000
  7
EASYDRAW_FONT
 72
     5
 11
1417.923340
 21
1680.804810
  0
LINE
  8
CSLAYER1
  6
CONTINUOUS
 62
     5
 10
1428.778985
 20
1761.132153
 11
1428.778985
 21
1620.260521
  0
LINE
  8
CSLAYER1
  6
CONTINUOUS
 62
     5
 10
1453.778985
 20
1764.869352
 11
1453.778985
 21
1687.072089
  0
LINE
  8
CSLAYER1
  6
CONTINUOUS
 62
     5
 10
1428.778985
 20
1697.072089
 11
1453.778985
 21
1697.072089
  0
LINE
  8
CSLAYER1
  6
CONTINUOUS
 62
     5
 10
1428.778985
 20
1697.072089
 11
1457.756759
 21
1704.836660
  0
LINE
  8
CSLAYER1
  6
CONTINUOUS
 62
     5
 10
1428.778985
 20
1697.072089
 11
1457.756759
 21
1689.307517
  0
LINE
  8
CSLAYER1
  6
CONTINUOUS
 62
     5
 10
1453.778985
 20
1697.072089
 11
1424.801210
 21
1704.836660
  0
LINE
  8
CSLAYER1
  6
CONTINUOUS
 62
     5
 10
1453.778985
 20
1697.072089
 11
1424.801210
 21
1689.307517
  0
ENDBLK
  8
0
  0
BLOCK
  8
CSLAYER1
  2
*D0002
 70
    65
 10
0.0
 20
0.0
 30
0.0
  0
TEXT
  8
CSLAYER1
 62
     3
 10
1359.085205
 20
1613.412231
 40
40.000000
 41
0.900000
  1
50
 50
0.000000
 51
0.000000
  7
EASYDRAW_FONT
 72
     5
 11
1419.085205
 21
1613.412231
  0
LINE
  8
CSLAYER1
  6
CONTINUOUS
 62
     5
 10
1478.778985
 20
1761.132153
 11
1478.778985
 21
1620.260521
  0
LINE
  8
CSLAYER1
  6
CONTINUOUS
 62
     5
 10
1428.778985
 20
1630.260521
 11
1478.778985
 21
1630.260521
  0
LINE
  8
CSLAYER1
  6
CONTINUOUS
 62
     5
 10
1428.778985
 20
1630.260521
 11
1457.756759
 21
1638.025093
  0
LINE
  8
CSLAYER1
  6
CONTINUOUS
 62
     5
 10
1428.778985
 20
1630.260521
 11
1457.756759
 21
1622.495950
  0
LINE
  8
CSLAYER1
  6
CONTINUOUS
 62
     5
 10
1478.778985
 20
1630.260521
 11
1449.801210
 21
1638.025093
  0
LINE
  8
CSLAYER1
  6
CONTINUOUS
 62
     5
 10
1478.778985
 20
1630.260521
 11
1449.801210
 21
1622.495950
  0
ENDBLK
  8
0
  0
BLOCK
  8
CSLAYER1
  2
EASYDRAWDIM0000
 70
   64
 10
0.0
 20
0.0
 30
0.0
  0
TEXT
  8
CSLAYER1
 62
     3
 10
1572.000732
 20
1665.755737
 40
40.000000
 41
0.771429
  1
2-%%c13(アンカー穴)
 50
0.000000
 51
0.000000
  7
EASYDRAW_FONT
 72
     5
 11
1932.000732
 21
1665.755737
  0
LINE
  8
CSLAYER1
  6
CONTINUOUS
 62
     5
 10
1458.177585
 20
1781.874312
 11
1567.659552
 21
1655.755789
  0
LINE
  8
CSLAYER1
  6
CONTINUOUS
 62
     5
 10
1458.177585
 20
1781.874312
 11
1483.037244
 21
1765.081536
  0
LINE
  8
CSLAYER1
  6
CONTINUOUS
 62
     5
 10
1458.177585
 20
1781.874312
 11
1471.310294
 21
1754.901512
  0
LINE
  8
CSLAYER1
  6
CONTINUOUS
 62
     5
 10
1567.659552
 20
1655.755789
 11
1942.000805
 21
1655.755789
  0
ENDBLK
  8
0
  0
BLOCK
  8
CSLAYER1
  2
EASYDRAWDIM0001
 70
   64
 10
0.0
 20
0.0
 30
0.0
  0
TEXT
  8
CSLAYER1
 62
     3
 10
1384.511475
 20
1809.031837
 40
33.155758
 41
0.767879
  1
穴ヒﾟッチ
 50
90.000000
 51
0.000000
  7
EASYDRAW_FONT
 72
     5
 11
1384.511475
 21
1927.843407
  0
ENDBLK
  8
0
  0
BLOCK
  8
CSLAYER1
  2
*D0003
 70
    65
 10
0.0
 20
0.0
 30
0.0
  0
TEXT
  8
CSLAYER1
 62
     3
 10
2334.690674
 20
806.624573
 40
40.000000
 41
0.843750
  1
100
 50
90.000000
 51
0.000000
  7
EASYDRAW_FONT
 72
     5
 11
2334.690674
 21
896.624573
  0
LINE
  8
CSLAYER1
  6
CONTINUOUS
 62
     5
 10
2231.478985
 20
801.624591
 11
2455.083880
 21
801.624591
  0
LINE
  8
CSLAYER1
  6
CONTINUOUS
 62
     5
 10
2241.478985
 20
901.624591
 11
2354.690807
 21
901.624591
  0
LINE
  8
CSLAYER1
  6
CONTINUOUS
 62
     5
 10
2344.690807
 20
801.624591
 11
2344.690807
 21
901.624591
  0
LINE
  8
CSLAYER1
  6
CONTINUOUS
 62
     5
 10
2344.690807
 20
801.624591
 11
2336.926235
 21
830.602366
  0
LINE
  8
CSLAYER1
  6
CONTINUOUS
 62
     5
 10
2344.690807
 20
801.624591
 11
2352.455378
 21
830.602366
  0
LINE
  8
CSLAYER1
  6
CONTINUOUS
 62
     5
 10
2344.690807
 20
901.624591
 11
2336.926235
 21
872.646816
  0
LINE
  8
CSLAYER1
  6
CONTINUOUS
 62
     5
 10
2344.690807
 20
901.624591
 11
2352.455378
 21
872.646816
  0
ENDBLK
  8
0
  0
BLOCK
  8
CSLAYER1
  2
*D0004
 70
    65
 10
0.0
 20
0.0
 30
0.0
  0
TEXT
  8
CSLAYER1
 62
     3
 10
2334.690674
 20
1117.510376
 40
40.000000
 41
0.843750
  1
500
 50
90.000000
 51
0.000000
  7
EASYDRAW_FONT
 72
     5
 11
2334.690674
 21
1207.510376
  0
LINE
  8
CSLAYER1
  6
CONTINUOUS
 62
     5
 10
2268.914688
 20
1423.396192
 11
2455.083880
 21
1423.396192
  0
LINE
  8
CSLAYER1
  6
CONTINUOUS
 62
     5
 10
2344.690807
 20
901.624591
 11
2344.690807
 21
1423.396192
  0
LINE
  8
CSLAYER1
  6
CONTINUOUS
 62
     5
 10
2344.690807
 20
901.624591
 11
2336.926235
 21
930.602366
  0
LINE
  8
CSLAYER1
  6
CONTINUOUS
 62
     5
 10
2344.690807
 20
901.624591
 11
2352.455378
 21
930.602366
  0
LINE
  8
CSLAYER1
  6
CONTINUOUS
 62
     5
 10
2344.690807
 20
1423.396192
 11
2336.926235
 21
1394.418417
  0
LINE
  8
CSLAYER1
  6
CONTINUOUS
 62
     5
 10
2344.690807
 20
1423.396192
 11
2352.455378
 21
1394.418417
  0
ENDBLK
  8
0
  0
BLOCK
  8
CSLAYER1
  2
*D0005
 70
    65
 10
0.0
 20
0.0
 30
0.0
  0
TEXT
  8
CSLAYER1
 62
     3
 10
2435.083740
 20
1067.510376
 40
40.000000
 41
0.843750
  1
600
 50
90.000000
 51
0.000000
  7
EASYDRAW_FONT
 72
     5
 11
2435.083740
 21
1157.510376
  0
LINE
  8
CSLAYER1
  6
CONTINUOUS
 62
     5
 10
2445.083880
 20
801.624591
 11
2445.083880
 21
1423.396192
  0
LINE
  8
CSLAYER1
  6
CONTINUOUS
 62
     5
 10
2445.083880
 20
801.624591
 11
2437.319309
 21
830.602366
  0
LINE
  8
CSLAYER1
  6
CONTINUOUS
 62
     5
 10
2445.083880
 20
801.624591
 11
2452.848451
 21
830.602366
  0
LINE
  8
CSLAYER1
  6
CONTINUOUS
 62
     5
 10
2445.083880
 20
1423.396192
 11
2437.319309
 21
1394.418417
  0
LINE
  8
CSLAYER1
  6
CONTINUOUS
 62
     5
 10
2445.083880
 20
1423.396192
 11
2452.848451
 21
1394.418417
  0
ENDBLK
  8
0
  0
BLOCK
  8
CSLAYER1
  2
*D0006
 70
    65
 10
0.0
 20
0.0
 30
0.0
  0
TEXT
  8
CSLAYER1
 62
     3
 10
1813.914673
 20
1517.226440
 40
40.000000
 41
0.843750
  1
800
 50
0.000000
 51
0.000000
  7
EASYDRAW_FONT
 72
     5
 11
1903.914673
 21
1517.226440
  0
LINE
  8
CSLAYER1
  6
CONTINUOUS
 62
     5
 10
1458.914688
 20
1433.396192
 11
1458.914688
 21
1517.226517
  0
LINE
  8
CSLAYER1
  6
CONTINUOUS
 62
     5
 10
2258.914688
 20
1433.396192
 11
2258.914688
 21
1517.226517
  0
LINE
  8
CSLAYER1
  6
CONTINUOUS
 62
     5
 10
1458.914688
 20
1507.226517
 11
2258.914688
 21
1507.226517
  0
LINE
  8
CSLAYER1
  6
CONTINUOUS
 62
     5
 10
1458.914688
 20
1507.226517
 11
1487.892462
 21
1514.991088
  0
LINE
  8
CSLAYER1
  6
CONTINUOUS
 62
     5
 10
1458.914688
 20
1507.226517
 11
1487.892462
 21
1499.461945
  0
LINE
  8
CSLAYER1
  6
CONTINUOUS
 62
     5
 10
2258.914688
 20
1507.226517
 11
2229.936913
 21
1514.991088
  0
LINE
  8
CSLAYER1
  6
CONTINUOUS
 62
     5
 10
2258.914688
 20
1507.226517
 11
2229.936913
 21
1499.461945
  0
ENDBLK
  8
0
  0
BLOCK
  8
CSLAYER1
  2
*D0007
 70
    65
 10
0.0
 20
0.0
 30
0.0
  0
TEXT
  8
CSLAYER1
 62
     3
 10
1259.373291
 20
1248.372925
 40
40.000000
 41
0.794118
  1
MAX 27
 50
0.000000
 51
0.000000
  7
EASYDRAW_FONT
 72
     5
 11
1439.373291
 21
1248.372925
  0
LINE
  8
CSLAYER1
  6
CONTINUOUS
 62
     5
 10
1431.478985
 20
911.624591
 11
1431.478985
 21
1234.902222
  0
LINE
  8
CSLAYER1
  6
CONTINUOUS
 62
     5
 10
1458.914688
 20
1378.396192
 11
1458.914688
 21
1214.902222
  0
LINE
  8
CSLAYER1
  6
CONTINUOUS
 62
     5
 10
1431.478985
 20
1224.902222
 11
1387.646860
 21
1224.902222
  0
LINE
  8
CSLAYER1
  6
CONTINUOUS
 62
     5
 10
1431.478985
 20
1224.902222
 11
1402.501210
 21
1232.666794
  0
LINE
  8
CSLAYER1
  6
CONTINUOUS
 62
     5
 10
1431.478985
 20
1224.902222
 11
1402.501210
 21
1217.137651
  0
LINE
  8
CSLAYER1
  6
CONTINUOUS
 62
     5
 10
1458.914688
 20
1224.902222
 11
1508.914688
 21
1224.902222
  0
LINE
  8
CSLAYER1
  6
CONTINUOUS
 62
     5
 10
1458.914688
 20
1224.902222
 11
1487.892462
 21
1232.666794
  0
LINE
  8
CSLAYER1
  6
CONTINUOUS
 62
     5
 10
1458.914688
 20
1224.902222
 11
1487.892462
 21
1217.137651
  0
LINE
  8
CSLAYER1
  6
CONTINUOUS
 62
     5
 10
1431.478985
 20
1224.902222
 11
1458.914688
 21
1224.902222
  0
ENDBLK
  8
0
  0
BLOCK
  8
CSLAYER1
  2
EASYDRAWDIM0002
 70
   64
 10
0.0
 20
0.0
 30
0.0
  0
TEXT
  8
CSLAYER1
 62
     3
 10
1124.334717
 20
1158.163696
 40
40.000000
 41
0.787500
  1
油圧シリンダー
 50
0.000000
 51
0.000000
  7
EASYDRAW_FONT
 72
     5
 11
1334.334717
 21
1158.163696
  0
LINE
  8
CSLAYER1
  6
CONTINUOUS
 62
     5
 10
1335.299595
 20
1148.163744
 11
1114.334853
 21
1148.163744
  0
ENDBLK
  8
0
  0
BLOCK
  8
CSLAYER1
  2
EASYDRAWDIM0003
 70
   64
 10
0.0
 20
0.0
 30
0.0
  0
TEXT
  8
CSLAYER1
 62
     3
 10
1136.581543
 20
956.164612
 40
40.000000
 41
0.803571
  1
高圧ホース
 50
0.000000
 51
0.000000
  7
EASYDRAW_FONT
 72
     5
 11
1286.581543
 21
956.164612
  0
LINE
  8
CSLAYER1
  6
CONTINUOUS
 62
     5
 10
1353.127250
 20
827.333183
 11
1286.581581
 21
946.164735
  0
LINE
  8
CSLAYER1
  6
CONTINUOUS
 62
     5
 10
1353.127250
 20
827.333183
 11
1332.193976
 21
848.822670
  0
LINE
  8
CSLAYER1
  6
CONTINUOUS
 62
     5
 10
1353.127250
 20
827.333183
 11
1345.743246
 21
856.410262
  0
LINE
  8
CSLAYER1
  6
CONTINUOUS
 62
     5
 10
1286.581581
 20
946.164735
 11
1126.581581
 21
946.164735
  0
ENDBLK
  8
0
  0
BLOCK
  8
CSLAYER1
  2
*D0008
 70
    65
 10
0.0
 20
0.0
 30
0.0
  0
TEXT
  8
CSLAYER1
 62
     3
 10
1785.128906
 20
640.590210
 40
40.000000
 41
0.843750
  1
803
 50
0.000000
 51
0.000000
  7
EASYDRAW_FONT
 72
     5
 11
1875.128906
 21
640.590210
  0
LINE
  8
CSLAYER1
  6
CONTINUOUS
 62
     5
 10
1428.778985
 20
791.624591
 11
1428.778985
 21
620.590257
  0
LINE
  8
CSLAYER1
  6
CONTINUOUS
 62
     5
 10
2231.478985
 20
791.624591
 11
2231.478985
 21
620.590257
  0
LINE
  8
CSLAYER1
  6
CONTINUOUS
 62
     5
 10
1428.778985
 20
630.590257
 11
2231.478985
 21
630.590257
  0
LINE
  8
CSLAYER1
  6
CONTINUOUS
 62
     5
 10
1428.778985
 20
630.590257
 11
1457.756759
 21
638.354828
  0
LINE
  8
CSLAYER1
  6
CONTINUOUS
 62
     5
 10
1428.778985
 20
630.590257
 11
1457.756759
 21
622.825685
  0
LINE
  8
CSLAYER1
  6
CONTINUOUS
 62
     5
 10
2231.478985
 20
630.590257
 11
2202.501210
 21
638.354828
  0
LINE
  8
CSLAYER1
  6
CONTINUOUS
 62
     5
 10
2231.478985
 20
630.590257
 11
2202.501210
 21
622.825685
  0
ENDBLK
  8
0
  0
BLOCK
  8
CSLAYER1
  2
*D0009
 70
    65
 10
0.0
 20
0.0
 30
0.0
  0
TEXT
  8
CSLAYER1
 62
     3
 10
2579.036377
 20
806.624573
 40
40.000000
 41
0.843750
  1
100
 50
90.000000
 51
0.000000
  7
EASYDRAW_FONT
 72
     5
 11
2579.036377
 21
896.624573
  0
LINE
  8
CSLAYER1
  6
CONTINUOUS
 62
     5
 10
2674.015659
 20
901.624591
 11
2579.036390
 21
901.624591
  0
LINE
  8
CSLAYER1
  6
CONTINUOUS
 62
     5
 10
2589.036390
 20
801.624591
 11
2589.036390
 21
901.624591
  0
LINE
  8
CSLAYER1
  6
CONTINUOUS
 62
     5
 10
2589.036390
 20
801.624591
 11
2581.271819
 21
830.602366
  0
LINE
  8
CSLAYER1
  6
CONTINUOUS
 62
     5
 10
2589.036390
 20
801.624591
 11
2596.800961
 21
830.602366
  0
LINE
  8
CSLAYER1
  6
CONTINUOUS
 62
     5
 10
2589.036390
 20
901.624591
 11
2581.271819
 21
872.646816
  0
LINE
  8
CSLAYER1
  6
CONTINUOUS
 62
     5
 10
2589.036390
 20
901.624591
 11
2596.800961
 21
872.646816
  0
ENDBLK
  8
0
  0
BLOCK
  8
CSLAYER1
  2
*D0010
 70
    65
 10
0.0
 20
0.0
 30
0.0
  0
TEXT
  8
CSLAYER1
 62
     3
 10
1130.210938
 20
810.489563
 40
40.000000
 41
1.125000
  1
6
 50
90.000000
 51
0.000000
  7
EASYDRAW_FONT
 72
     5
 11
1130.210938
 21
840.489563
  0
LINE
  8
CSLAYER1
  6
CONTINUOUS
 62
     5
 10
1020.957514
 20
801.624591
 11
1087.344110
 21
801.624591
  0
LINE
  8
CSLAYER1
  6
CONTINUOUS
 62
     5
 10
1020.957514
 20
807.624591
 11
1087.344110
 21
807.624591
  0
LINE
  8
CSLAYER1
  6
CONTINUOUS
 62
     5
 10
1077.344110
 20
801.624591
 11
1077.344110
 21
751.624591
  0
LINE
  8
CSLAYER1
  6
CONTINUOUS
 62
     5
 10
1077.344110
 20
801.624591
 11
1069.579539
 21
772.646816
  0
LINE
  8
CSLAYER1
  6
CONTINUOUS
 62
     5
 10
1077.344110
 20
801.624591
 11
1085.108682
 21
772.646816
  0
LINE
  8
CSLAYER1
  6
CONTINUOUS
 62
     5
 10
1077.344110
 20
807.624591
 11
1077.344110
 21
841.723554
  0
LINE
  8
CSLAYER1
  6
CONTINUOUS
 62
     5
 10
1077.344110
 20
807.624591
 11
1069.579539
 21
836.602366
  0
LINE
  8
CSLAYER1
  6
CONTINUOUS
 62
     5
 10
1077.344110
 20
807.624591
 11
1085.108682
 21
836.602366
  0
LINE
  8
CSLAYER1
  6
CONTINUOUS
 62
     5
 10
1077.344110
 20
801.624591
 11
1077.344110
 21
807.624591
  0
ENDBLK
  8
0
  0
BLOCK
  8
CSLAYER1
  2
*D0011
 70
    65
 10
0.0
 20
0.0
 30
0.0
  0
TEXT
  8
CSLAYER1
 62
     3
 10
2342.613281
 20
1866.132080
 40
40.000000
 41
0.843750
  1
250
 50
90.000000
 51
0.000000
  7
EASYDRAW_FONT
 72
     5
 11
2342.613281
 21
1956.132080
  0
LINE
  8
CSLAYER1
  6
CONTINUOUS
 62
     5
 10
2268.914688
 20
1786.132153
 11
2362.613479
 21
1786.132153
  0
LINE
  8
CSLAYER1
  6
CONTINUOUS
 62
     5
 10
2268.914688
 20
2036.132153
 11
2362.613479
 21
2036.132153
  0
LINE
  8
CSLAYER1
  6
CONTINUOUS
 62
     5
 10
2352.613479
 20
1786.132153
 11
2352.613479
 21
2036.132153
  0
LINE
  8
CSLAYER1
  6
CONTINUOUS
 62
     5
 10
2352.613479
 20
1786.132153
 11
2344.848907
 21
1815.109928
  0
LINE
  8
CSLAYER1
  6
CONTINUOUS
 62
     5
 10
2352.613479
 20
1786.132153
 11
2360.378050
 21
1815.109928
  0
LINE
  8
CSLAYER1
  6
CONTINUOUS
 62
     5
 10
2352.613479
 20
2036.132153
 11
2344.848907
 21
2007.154379
  0
LINE
  8
CSLAYER1
  6
CONTINUOUS
 62
     5
 10
2352.613479
 20
2036.132153
 11
2360.378050
 21
2007.154379
  0
ENDBLK
  8
0
  0
BLOCK
  8
CSLAYER1
  2
EASYDRAWDIM0004
 70
   64
 10
0.0
 20
0.0
 30
0.0
  0
TEXT
  8
CSLAYER1
 62
     3
 10
1041.841797
 20
670.767883
 40
40.000000
 41
0.771429
  1
2-%%c13（アンカー穴）
 50
0.000000
 51
0.000000
  7
EASYDRAW_FONT
 72
     5
 11
1401.841797
 21
670.767883
  0
LINE
  8
CSLAYER1
  6
CONTINUOUS
 62
     5
 10
1081.865160
 20
718.722854
 11
1367.461823
 21
718.722854
  0
ENDBLK
  8
0
  0
BLOCK
  8
CSLAYER1
  2
*D0012
 70
    65
 10
0.0
 20
0.0
 30
0.0
  0
TEXT
  8
CSLAYER1
 62
     3
 10
815.957520
 20
665.419556
 40
40.000000
 41
0.843750
  1
300
 50
0.000000
 51
0.000000
  7
EASYDRAW_FONT
 72
     5
 11
905.957520
 21
665.419556
  0
LINE
  8
CSLAYER1
  6
CONTINUOUS
 62
     5
 10
710.957514
 20
793.624591
 11
710.957514
 21
649.419565
  0
LINE
  8
CSLAYER1
  6
CONTINUOUS
 62
     5
 10
1010.957514
 20
793.624591
 11
1010.957514
 21
649.419565
  0
LINE
  8
CSLAYER1
  6
CONTINUOUS
 62
     5
 10
710.957514
 20
657.419565
 11
1010.957514
 21
657.419565
  0
LINE
  8
CSLAYER1
  6
CONTINUOUS
 62
     5
 10
710.957514
 20
657.419565
 11
739.935288
 21
665.184136
  0
LINE
  8
CSLAYER1
  6
CONTINUOUS
 62
     5
 10
710.957514
 20
657.419565
 11
739.935288
 21
649.654993
  0
LINE
  8
CSLAYER1
  6
CONTINUOUS
 62
     5
 10
1010.957514
 20
657.419565
 11
981.979739
 21
665.184136
  0
LINE
  8
CSLAYER1
  6
CONTINUOUS
 62
     5
 10
1010.957514
 20
657.419565
 11
981.979739
 21
649.654993
  0
ENDBLK
  8
0
  0
BLOCK
  8
CSLAYER1
  2
*D0013
 70
    65
 10
0.0
 20
0.0
 30
0.0
  0
TEXT
  8
CSLAYER1
 62
     3
 10
815.957520
 20
734.792969
 40
40.000000
 41
0.843750
  1
250
 50
0.000000
 51
0.000000
  7
EASYDRAW_FONT
 72
     5
 11
905.957520
 21
734.792969
  0
LINE
  8
CSLAYER1
  6
CONTINUOUS
 62
     5
 10
735.957514
 20
793.624591
 11
735.957514
 21
718.793022
  0
LINE
  8
CSLAYER1
  6
CONTINUOUS
 62
     5
 10
985.957514
 20
793.624591
 11
985.957514
 21
718.793022
  0
LINE
  8
CSLAYER1
  6
CONTINUOUS
 62
     5
 10
735.957514
 20
726.793022
 11
985.957514
 21
726.793022
  0
LINE
  8
CSLAYER1
  6
CONTINUOUS
 62
     5
 10
735.957514
 20
726.793022
 11
764.935288
 21
734.557593
  0
LINE
  8
CSLAYER1
  6
CONTINUOUS
 62
     5
 10
735.957514
 20
726.793022
 11
764.935288
 21
719.028450
  0
LINE
  8
CSLAYER1
  6
CONTINUOUS
 62
     5
 10
985.957514
 20
726.793022
 11
956.979739
 21
734.557593
  0
LINE
  8
CSLAYER1
  6
CONTINUOUS
 62
     5
 10
985.957514
 20
726.793022
 11
956.979739
 21
719.028450
  0
ENDBLK
  8
0
  0
BLOCK
  8
CSLAYER1
  2
*D0014
 70
    65
 10
0.0
 20
0.0
 30
0.0
  0
TEXT
  8
CSLAYER1
 62
     3
 10
1439.295410
 20
657.802063
 40
40.000000
 41
0.900000
  1
25
 50
0.000000
 51
0.000000
  7
EASYDRAW_FONT
 72
     5
 11
1499.295410
 21
657.802063
  0
LINE
  8
CSLAYER1
  6
CONTINUOUS
 62
     5
 10
1428.778985
 20
791.624591
 11
1428.778985
 21
708.596841
  0
LINE
  8
CSLAYER1
  6
CONTINUOUS
 62
     5
 10
1453.778985
 20
791.624591
 11
1453.778985
 21
708.596841
  0
LINE
  8
CSLAYER1
  6
CONTINUOUS
 62
     5
 10
1428.778985
 20
718.596841
 11
1453.778985
 21
718.596841
  0
LINE
  8
CSLAYER1
  6
CONTINUOUS
 62
     5
 10
1378.778985
 20
718.596841
 11
1428.778985
 21
718.596841
  0
LINE
  8
CSLAYER1
  6
CONTINUOUS
 62
     5
 10
1428.778985
 20
718.596841
 11
1399.801210
 21
726.361412
  0
LINE
  8
CSLAYER1
  6
CONTINUOUS
 62
     5
 10
1428.778985
 20
718.596841
 11
1399.801210
 21
710.832269
  0
LINE
  8
CSLAYER1
  6
CONTINUOUS
 62
     5
 10
1453.778985
 20
718.596841
 11
1503.778985
 21
718.596841
  0
LINE
  8
CSLAYER1
  6
CONTINUOUS
 62
     5
 10
1453.778985
 20
718.596841
 11
1482.756759
 21
726.361412
  0
LINE
  8
CSLAYER1
  6
CONTINUOUS
 62
     5
 10
1453.778985
 20
718.596841
 11
1482.756759
 21
710.832269
  0
ENDBLK
  8
0
  0
BLOCK
  8
CSLAYER1
  2
EASYDRAWDIM0005
 70
   64
 10
0.0
 20
0.0
 30
0.0
  0
LINE
  8
CSLAYER1
  6
CONTINUOUS
 62
     6
 10
1453.778985
 20
801.624591
 11
1367.461823
 21
718.722854
  0
LINE
  8
CSLAYER1
  6
CONTINUOUS
 62
     6
 10
1453.778985
 20
801.624591
 11
1438.257764
 21
775.951809
  0
LINE
  8
CSLAYER1
  6
CONTINUOUS
 62
     6
 10
1453.778985
 20
801.624591
 11
1427.500822
 21
787.151920
  0
LINE
  8
CSLAYER1
  6
CONTINUOUS
 62
     6
 10
1367.461823
 20
718.722854
 11
1261.080236
 21
718.722854
  0
ENDBLK
  8
0
  0
BLOCK
  8
CSLAYER1
  2
*D0015
 70
    65
 10
0.0
 20
0.0
 30
0.0
  0
TEXT
  8
CSLAYER1
 62
     3
 10
815.957520
 20
1522.884155
 40
40.000000
 41
0.843750
  1
250
 50
0.000000
 51
0.000000
  7
EASYDRAW_FONT
 72
     5
 11
905.957520
 21
1522.884155
  0
LINE
  8
CSLAYER1
  6
CONTINUOUS
 62
     5
 10
735.957514
 20
1433.396192
 11
735.957514
 21
1522.884113
  0
LINE
  8
CSLAYER1
  6
CONTINUOUS
 62
     5
 10
985.957514
 20
1433.396192
 11
985.957514
 21
1522.884113
  0
LINE
  8
CSLAYER1
  6
CONTINUOUS
 62
     5
 10
735.957514
 20
1512.884113
 11
985.957514
 21
1512.884113
  0
LINE
  8
CSLAYER1
  6
CONTINUOUS
 62
     5
 10
735.957514
 20
1512.884113
 11
764.935288
 21
1520.648684
  0
LINE
  8
CSLAYER1
  6
CONTINUOUS
 62
     5
 10
735.957514
 20
1512.884113
 11
764.935288
 21
1505.119541
  0
LINE
  8
CSLAYER1
  6
CONTINUOUS
 62
     5
 10
985.957514
 20
1512.884113
 11
956.979739
 21
1520.648684
  0
LINE
  8
CSLAYER1
  6
CONTINUOUS
 62
     5
 10
985.957514
 20
1512.884113
 11
956.979739
 21
1505.119541
  0
ENDBLK
  8
0
  0
BLOCK
  8
CSLAYER1
  2
BLKF0000
 70
   64
 10
0.0
 20
0.0
 30
0.0
  0
TEXT
  8
CSLAYER1
 62
     5
 10
3018.537077
 20
805.231739
 40
31.844261
 41
0.920655
  1
Ｆ.Ｌ
 50
0.000000
 51
0.000000
  7
EASYDRAW_FONT
 72
     5
 11
3096.717318
 21
805.231739
  0
LINE
  8
CSLAYER1
  6
CENTER
 62
     5
 10
1428.778985
 20
1911.132153
 11
2258.914688
 21
1911.132153
  0
LINE
  8
CSLAYER1
  6
DASHED
 62
     5
 10
1431.478985
 20
2011.132153
 11
2258.914688
 21
2011.132153
  0
LINE
  8
CSLAYER1
  6
CONTINUOUS
 62
     4
 10
1431.478985
 20
1911.132153
 11
1431.478985
 21
2036.132153
  0
LINE
  8
CSLAYER1
  6
CONTINUOUS
 62
     4
 10
2258.914688
 20
1911.132153
 11
2258.914688
 21
2036.132153
  0
LINE
  8
CSLAYER1
  6
CONTINUOUS
 62
     3
 10
1428.778985
 20
1911.132153
 11
1428.778985
 21
1936.982153
  0
LINE
  8
CSLAYER1
  6
CONTINUOUS
 62
     3
 10
1478.778985
 20
2051.132153
 11
1478.778985
 21
2036.132153
  0
LINE
  8
CSLAYER1
  6
CONTINUOUS
 62
     3
 10
1438.778985
 20
2061.132153
 11
1468.778985
 21
2061.132153
  0
ARC
  8
CSLAYER1
  6
CONTINUOUS
 62
     3
 10
1468.778985
 20
2051.132153
 40
10.000000
 50
0.000000
 51
90.000000
  0
LINE
  8
CSLAYER1
  6
CENTER
 62
     5
 10
1453.778985
 20
2024.869352
 11
1453.778985
 21
2047.394955
  0
LINE
  8
CSLAYER1
  6
CENTER
 62
     5
 10
1442.516183
 20
2036.132153
 11
1465.041786
 21
2036.132153
  0
ARC
  8
CSLAYER1
  6
CONTINUOUS
 62
     5
 10
1453.778985
 20
2036.132153
 40
6.500000
 50
180.000000
 51
209.332676
  0
LINE
  8
CSLAYER1
  6
CONTINUOUS
 62
     4
 10
1431.478985
 20
1911.132153
 11
1431.478985
 21
2011.132153
  0
LINE
  8
CSLAYER1
  6
CENTER
 62
     5
 10
1204.082825
 20
1941.132153
 11
1431.478985
 21
1941.132153
  0
LINE
  8
CSLAYER1
  6
CONTINUOUS
 62
     3
 10
1428.778985
 20
1985.632153
 11
1431.478985
 21
1985.632153
  0
LINE
  8
CSLAYER1
  6
CONTINUOUS
 62
     3
 10
1204.082825
 20
1945.282153
 11
1431.478985
 21
1945.282153
  0
LINE
  8
CSLAYER1
  6
CONTINUOUS
 62
     3
 10
1204.082825
 20
1936.982153
 11
1431.478985
 21
1936.982153
  0
LINE
  8
CSLAYER1
  6
CONTINUOUS
 62
     3
 10
1428.778985
 20
1945.282153
 11
1428.778985
 21
2051.132153
  0
DIMENSION
  8
CSLAYER1
 62
     3
  2
*D0000
 10
1343.524924
 20
2036.132153
 11
1335.272705
 21
1885.579224
 13
1442.516183
 23
1786.132153
 14
1442.516183
 24
2036.132153
 50
90.000000
 70
1
  0
DIMENSION
  8
CSLAYER1
 62
     3
  2
*D0001
 10
1453.778985
 20
1697.072089
 11
1387.923340
 21
1680.804810
 13
1428.778985
 23
1630.260521
 14
1453.778985
 24
1774.869352
  0
DIMENSION
  8
CSLAYER1
 62
     3
  2
*D0002
 10
1478.778985
 20
1630.260521
 11
1389.085205
 21
1613.412231
 13
1428.778985
 23
1771.132153
 14
1478.778985
 24
1771.132153
 52
270.000000
 70
1
  0
INSERT
  8
CSLAYER1
  2
EASYDRAWDIM0000
 10
0.0
 20
0.0
 30
0.0
  0
INSERT
  8
CSLAYER1
  2
EASYDRAWDIM0001
 10
0.0
 20
0.0
 30
0.0
  0
LINE
  8
CSLAYER1
  6
CENTER
 62
     5
 10
1453.778985
 20
839.488630
 11
1453.778985
 21
810.711816
  0
POINT
  8
CSLAYER1
 62
     4
 10
1453.778985
 20
824.624591
  0
LINE
  8
CSLAYER1
  6
CONTINUOUS
 62
     3
 10
1428.778985
 20
845.624591
 11
1428.778985
 21
801.624591
  0
LINE
  8
CSLAYER1
  6
CONTINUOUS
 62
     3
 10
1478.778985
 20
845.624591
 11
1478.778985
 21
801.624591
  0
LINE
  8
CSLAYER1
  6
CONTINUOUS
 62
     3
 10
1428.778985
 20
807.624591
 11
1478.778985
 21
807.624591
  0
LINE
  8
CSLAYER1
  6
CONTINUOUS
 62
     3
 10
1472.778985
 20
845.624591
 11
1472.778985
 21
807.624591
  0
CIRCLE
  8
CSLAYER1
  6
CONTINUOUS
 62
     3
 10
1453.778985
 20
824.624591
 40
8.650000
  0
CIRCLE
  8
CSLAYER1
  6
CONTINUOUS
 62
     3
 10
1453.778985
 20
824.624591
 40
5.000000
  0
CIRCLE
  8
CSLAYER1
  6
CONTINUOUS
 62
     3
 10
1453.778985
 20
824.624591
 40
9.500000
  0
LINE
  8
CSLAYER1
  6
CONTINUOUS
 62
     3
 10
1463.278985
 20
830.109418
 11
1453.778985
 21
835.594246
  0
LINE
  8
CSLAYER1
  6
CONTINUOUS
 62
     3
 10
1453.778985
 20
835.594246
 11
1444.278985
 21
830.109418
  0
LINE
  8
CSLAYER1
  6
CONTINUOUS
 62
     3
 10
1444.278985
 20
830.109418
 11
1444.278985
 21
819.139763
  0
LINE
  8
CSLAYER1
  6
CONTINUOUS
 62
     3
 10
1444.278985
 20
819.139763
 11
1453.778985
 21
813.654936
  0
LINE
  8
CSLAYER1
  6
CONTINUOUS
 62
     3
 10
1453.778985
 20
813.654936
 11
1463.278985
 21
819.139763
  0
LINE
  8
CSLAYER1
  6
CONTINUOUS
 62
     3
 10
1463.278985
 20
819.139763
 11
1463.278985
 21
830.109418
  0
POINT
  8
CSLAYER1
 62
     3
 10
1453.778985
 20
824.624591
  0
CIRCLE
  8
CSLAYER1
  6
CONTINUOUS
 62
     3
 10
1453.778985
 20
824.624591
 40
6.000000
  0
LINE
  8
CSLAYER1
  6
CONTINUOUS
 62
     3
 10
1428.778985
 20
845.624591
 11
2231.478985
 21
845.624591
  0
LINE
  8
CSLAYER1
  6
CONTINUOUS
 62
     5
 10
533.258535
 20
801.624591
 11
710.957514
 21
801.624591
  0
LINE
  8
CSLAYER1
  6
CONTINUOUS
 62
     3
 10
2231.478985
 20
845.624591
 11
2231.478985
 21
801.624591
  0
LINE
  8
CSLAYER1
  6
CONTINUOUS
 62
     7
 10
1501.028843
 20
886.160766
 11
1512.430694
 21
874.935892
  0
LINE
  8
CSLAYER1
  6
CONTINUOUS
 62
     7
 10
1525.583256
 20
911.102314
 11
1536.985106
 21
899.877440
  0
LINE
  8
CSLAYER1
  6
CONTINUOUS
 62
     7
 10
1516.673205
 20
874.969075
 11
1537.018289
 21
895.634929
  0
LINE
  8
CSLAYER1
  6
CONTINUOUS
 62
     7
 10
1500.995660
 20
890.403277
 11
1521.340745
 21
911.069131
  0
ARC
  8
CSLAYER1
  6
CONTINUOUS
 62
     7
 10
1503.133507
 20
888.298613
 40
3.000000
 50
135.448133
 51
225.448133
  0
ARC
  8
CSLAYER1
  6
CONTINUOUS
 62
     7
 10
1523.478592
 20
908.964467
 40
3.000000
 50
45.448133
 51
135.448133
  0
ARC
  8
CSLAYER1
  6
CONTINUOUS
 62
     7
 10
1514.535358
 20
877.073739
 40
3.000000
 50
225.448133
 51
315.448133
  0
ARC
  8
CSLAYER1
  6
CONTINUOUS
 62
     7
 10
1534.880442
 20
897.739593
 40
3.000000
 50
-44.551867
 51
45.448133
  0
CIRCLE
  8
CSLAYER1
  6
CONTINUOUS
 62
     4
 10
1513.745315
 20
887.674485
 40
8.250000
  0
LINE
  8
CSLAYER1
  6
CONTINUOUS
 62
     4
 10
1603.504578
 20
1062.309175
 11
1609.457769
 21
1058.304379
  0
LINE
  8
CSLAYER1
  6
CONTINUOUS
 62
     4
 10
1569.901229
 20
1018.627772
 11
1570.199485
 21
1018.427131
  0
LINE
  8
CSLAYER1
  6
CONTINUOUS
 62
     4
 10
1569.629671
 20
1020.015669
 11
1588.607422
 21
1048.226393
  0
LINE
  8
CSLAYER1
  6
CONTINUOUS
 62
     4
 10
1588.607422
 20
1048.226393
 11
1603.504578
 21
1062.309175
  0
LINE
  8
CSLAYER1
  6
CONTINUOUS
 62
     4
 10
1569.629671
 20
1020.015669
 11
1569.901229
 21
1018.627772
  0
POINT
  8
CSLAYER1
 62
     4
 10
1513.745315
 20
887.674485
  0
CIRCLE
  8
CSLAYER1
  6
CONTINUOUS
 62
     4
 10
1710.834848
 20
1180.651150
 40
8.000000
  0
POINT
  8
CSLAYER1
 62
     4
 10
1710.834848
 20
1180.651150
  0
LINE
  8
CSLAYER1
  6
CONTINUOUS
 62
     4
 10
1607.653214
 20
1059.518329
 11
1656.648230
 21
1132.350184
  0
LINE
  8
CSLAYER1
  6
CENTER
 62
     5
 10
1513.745315
 20
887.674485
 11
1718.425949
 21
1191.935439
  0
CIRCLE
  8
CSLAYER1
  6
CONTINUOUS
 62
     7
 10
1716.861976
 20
1091.855464
 40
10.000000
  0
CIRCLE
  8
CSLAYER1
  6
CONTINUOUS
 62
     7
 10
1710.834848
 20
1180.651150
 40
8.000000
  0
ARC
  8
CSLAYER1
  6
CONTINUOUS
 62
     7
 10
1669.503140
 20
1139.960981
 40
72.000000
 50
33.832141
 51
87.150680
  0
LINE
  8
CSLAYER1
  6
CONTINUOUS
 62
     7
 10
1657.420224
 20
1131.566019
 11
1520.617068
 21
1270.526073
  0
LINE
  8
CSLAYER1
  6
CONTINUOUS
 62
     7
 10
1755.637873
 20
1031.799826
 11
1736.974779
 21
1041.492034
  0
LINE
  8
CSLAYER1
  6
CONTINUOUS
 62
     7
 10
1657.420224
 20
1131.566019
 11
1665.554364
 21
1115.285417
  0
LINE
  8
CSLAYER1
  6
CONTINUOUS
 62
     7
 10
1716.861976
 20
1061.921944
 11
1736.974779
 21
1041.492034
  0
LINE
  8
CSLAYER1
  6
CONTINUOUS
 62
     7
 10
1755.637873
 20
1031.799826
 11
1938.923349
 21
845.624591
  0
POINT
  8
CSLAYER1
 62
     7
 10
1979.944967
 20
824.624591
  0
ARC
  8
CSLAYER1
  6
CONTINUOUS
 62
     7
 10
1979.944967
 20
824.624591
 40
18.500000
 50
65.556769
 51
120.003527
  0
POINT
  8
CSLAYER1
 62
     7
 10
1710.834848
 20
1180.651150
  0
POINT
  8
CSLAYER1
 62
     7
 10
1716.861976
 20
1091.855464
  0
LINE
  8
CSLAYER1
  6
CONTINUOUS
 62
     7
 10
1968.604772
 20
911.690083
 11
1988.710609
 21
845.624591
  0
LINE
  8
CSLAYER1
  6
CONTINUOUS
 62
     7
 10
1508.875000
 20
1378.668158
 11
1673.082226
 21
1211.871968
  0
LINE
  8
CSLAYER1
  6
CONTINUOUS
 62
     7
 10
1716.861976
 20
1061.921944
 11
1736.974779
 21
1041.492034
  0
LINE
  8
CSLAYER1
  6
CONTINUOUS
 62
     7
 10
1520.617068
 20
1270.526073
 11
1470.395192
 21
1375.129827
  0
LINE
  8
CSLAYER1
  6
CONTINUOUS
 62
     7
 10
1768.217024
 20
1115.237233
 11
1968.604772
 21
911.690083
  0
LINE
  8
CSLAYER1
  6
CONTINUOUS
 62
     4
 10
1943.663224
 20
1296.575258
 11
1963.562501
 21
1371.261235
  0
POINT
  8
CSLAYER1
 62
     4
 10
1513.745315
 20
887.674485
  0
ARC
  8
CSLAYER1
  6
CONTINUOUS
 62
     4
 10
1952.509264
 20
1386.096192
 40
18.500000
 50
-187.141738
 51
7.141738
  0
ARC
  8
CSLAYER1
  6
CONTINUOUS
 62
     4
 10
1952.509264
 20
1386.096192
 40
6.000000
 50
-202.540310
 51
22.540310
  0
POINT
  8
CSLAYER1
 62
     4
 10
1716.861976
 20
1091.855464
  0
LINE
  8
CSLAYER1
  6
CONTINUOUS
 62
     4
 10
1934.116087
 20
1388.081404
 11
1465.119179
 21
911.690083
  0
LINE
  8
CSLAYER1
  6
CONTINUOUS
 62
     4
 10
1943.663224
 20
1296.575258
 11
1771.782336
 21
1121.984421
  0
LINE
  8
CSLAYER1
  6
CONTINUOUS
 62
     4
 10
1771.782336
 20
1121.984421
 11
1766.904637
 21
1112.753600
  0
LINE
  8
CSLAYER1
  6
CONTINUOUS
 62
     4
 10
1696.749172
 20
1041.492034
 11
1766.904637
 21
1112.753600
  0
LINE
  8
CSLAYER1
  6
CONTINUOUS
 62
     4
 10
1687.595779
 20
1036.470541
 11
1696.749172
 21
1041.492034
  0
LINE
  8
CSLAYER1
  6
CONTINUOUS
 62
     4
 10
1499.712086
 20
845.624591
 11
1687.595779
 21
1036.470541
  0
LINE
  8
CSLAYER1
  6
CONTINUOUS
 62
     4
 10
1465.119179
 20
911.690083
 11
1446.255554
 21
845.624591
  0
LINE
  8
CSLAYER1
  6
CONTINUOUS
 62
     7
 10
1513.610228
 20
859.741857
 11
1516.104382
 21
857.286415
  0
CIRCLE
  8
CSLAYER1
  6
CONTINUOUS
 62
     7
 10
1513.745315
 20
887.674485
 40
8.000000
  0
LINE
  8
CSLAYER1
  6
CONTINUOUS
 62
     7
 10
1535.736851
 20
878.653824
 11
1515.391767
 21
857.987970
  0
LINE
  8
CSLAYER1
  6
CONTINUOUS
 62
     7
 10
1524.970189
 20
899.076336
 11
1532.808962
 21
891.359235
  0
ARC
  8
CSLAYER1
  6
CONTINUOUS
 62
     7
 10
1513.745315
 20
887.674485
 40
16.000000
 50
45.448133
 51
88.880670
  0
ARC
  8
CSLAYER1
  6
CONTINUOUS
 62
     7
 10
1530.748542
 20
883.564707
 40
7.000000
 50
-44.551867
 51
5.442932
  0
POINT
  8
CSLAYER1
 62
     7
 10
1513.745315
 20
887.674485
  0
LINE
  8
CSLAYER1
  6
CONTINUOUS
 62
     7
 10
1516.104382
 20
857.286415
 11
1504.623569
 21
845.624591
  0
LINE
  8
CSLAYER1
  6
CONTINUOUS
 62
     4
 10
1588.607422
 20
1048.226393
 11
1595.182029
 21
1043.803562
  0
LINE
  8
CSLAYER1
  6
CENTER
 62
     5
 10
1979.944967
 20
846.253161
 11
1979.944967
 21
803.763580
  0
LINE
  8
CSLAYER1
  6
CENTER
 62
     5
 10
1956.580894
 20
824.624591
 11
2007.037271
 21
824.624591
  0
ARC
  8
CSLAYER1
  6
CONTINUOUS
 62
     7
 10
1979.944967
 20
824.624591
 40
18.500000
 50
158.503526
 51
207.162714
  0
ARC
  8
CSLAYER1
  6
CONTINUOUS
 62
     7
 10
1979.944967
 20
824.624591
 40
18.500000
 50
246.238191
 51
293.124953
  0
ARC
  8
CSLAYER1
  6
CONTINUOUS
 62
     7
 10
1979.944967
 20
824.624591
 40
18.500000
 50
-26.285980
 51
29.355347
  0
LINE
  8
CSLAYER1
  6
CENTER
 62
     5
 10
1698.502190
 20
1091.855464
 11
1735.628792
 21
1091.855464
  0
LINE
  8
CSLAYER1
  6
CENTER
 62
     5
 10
1697.516528
 20
1180.651150
 11
1724.786510
 21
1180.651150
  0
LINE
  8
CSLAYER1
  6
CENTER
 62
     5
 10
1710.834848
 20
1192.999691
 11
1710.834848
 21
1166.715372
  0
LINE
  8
CSLAYER1
  6
CENTER
 62
     5
 10
1716.861976
 20
1110.532638
 11
1716.861976
 21
1074.063145
  0
LINE
  8
CSLAYER1
  6
CENTER
 62
     5
 10
1952.509264
 20
1405.120847
 11
1952.509264
 21
1362.579387
  0
LINE
  8
CSLAYER1
  6
CENTER
 62
     5
 10
1481.214688
 20
1423.396192
 11
1481.214688
 21
1366.652983
  0
LINE
  8
CSLAYER1
  6
CENTER
 62
     5
 10
1437.149782
 20
824.624591
 11
1469.520068
 21
824.624591
  0
POINT
  8
CSLAYER1
 62
     7
 10
1481.214688
 20
1386.096192
  0
POINT
  8
CSLAYER1
 62
     4
 10
1952.509264
 20
1386.096192
  0
LINE
  8
CSLAYER1
  6
CENTER
 62
     5
 10
1929.351340
 20
1386.096192
 11
1971.009264
 21
1386.096192
  0
LINE
  8
CSLAYER1
  6
CENTER
 62
     5
 10
1467.162088
 20
1386.096192
 11
1496.440781
 21
1386.096192
  0
LINE
  8
CSLAYER1
  6
CONTINUOUS
 62
     3
 10
2258.914688
 20
1423.396192
 11
2258.914688
 21
1388.396192
  0
ARC
  8
CSLAYER1
  6
CONTINUOUS
 62
     3
 10
1481.214688
 20
1386.096192
 40
9.500000
 50
-194.010828
 51
14.010828
  0
LINE
  8
CSLAYER1
  6
CONTINUOUS
 62
     3
 10
1471.714688
 20
1388.396192
 11
1471.714688
 21
1380.611364
  0
LINE
  8
CSLAYER1
  6
CONTINUOUS
 62
     3
 10
1471.714688
 20
1380.611364
 11
1481.214688
 21
1375.126537
  0
LINE
  8
CSLAYER1
  6
CONTINUOUS
 62
     3
 10
1481.214688
 20
1375.126537
 11
1490.714688
 21
1380.611364
  0
LINE
  8
CSLAYER1
  6
CONTINUOUS
 62
     3
 10
1490.714688
 20
1380.611364
 11
1490.714688
 21
1388.396192
  0
POINT
  8
CSLAYER1
 62
     3
 10
1481.214688
 20
1386.096192
  0
POINT
  8
CSLAYER1
 62
     3
 10
1481.214688
 20
1386.096192
  0
ARC
  8
CSLAYER1
  6
CONTINUOUS
 62
     3
 10
1471.214688
 20
1385.096192
 40
10.000000
 50
180.000000
 51
270.000000
  0
LINE
  8
CSLAYER1
  6
CONTINUOUS
 62
     3
 10
1471.214688
 20
1375.096192
 11
1501.214688
 21
1375.096192
  0
ARC
  8
CSLAYER1
  6
CONTINUOUS
 62
     3
 10
1501.214688
 20
1385.096192
 40
10.000000
 50
270.000000
 51
360.000000
  0
LINE
  8
CSLAYER1
  6
CONTINUOUS
 62
     3
 10
1511.214688
 20
1388.396192
 11
1511.214688
 21
1385.096192
  0
LINE
  8
CSLAYER1
  6
CONTINUOUS
 62
     3
 10
1461.214688
 20
1388.396192
 11
1461.214688
 21
1385.096192
  0
LINE
  8
CSLAYER1
  6
CONTINUOUS
 62
     3
 10
1458.914688
 20
1423.396192
 11
2258.914688
 21
1423.396192
  0
LINE
  8
CSLAYER1
  6
CONTINUOUS
 62
     3
 10
1458.914688
 20
1423.396192
 11
1458.914688
 21
1388.396192
  0
LINE
  8
CSLAYER1
  6
CONTINUOUS
 62
     3
 10
1458.914688
 20
1388.396192
 11
2258.914688
 21
1388.396192
  0
LINE
  8
CSLAYER1
  6
CENTER
 62
     5
 10
1453.778985
 20
866.624591
 11
1453.778985
 21
844.881382
  0
POINT
  8
CSLAYER1
 62
     5
 10
1453.778985
 20
864.324591
  0
POINT
  8
CSLAYER1
 62
     5
 10
1925.073561
 20
864.324591
  0
LINE
  8
CSLAYER1
  6
PHANTOM
 62
     5
 10
1901.915637
 20
864.324591
 11
1943.573561
 21
864.324591
  0
LINE
  8
CSLAYER1
  6
PHANTOM
 62
     5
 10
1439.726385
 20
864.324591
 11
1469.005078
 21
864.324591
  0
LINE
  8
CSLAYER1
  6
PHANTOM
 62
     5
 10
2231.478985
 20
901.624591
 11
2231.478985
 21
866.624591
  0
ARC
  8
CSLAYER1
  6
PHANTOM
 62
     5
 10
1453.778985
 20
864.324591
 40
9.500000
 50
-194.010828
 51
14.010828
  0
LINE
  8
CSLAYER1
  6
PHANTOM
 62
     5
 10
1444.278985
 20
866.624591
 11
1444.278985
 21
858.839763
  0
LINE
  8
CSLAYER1
  6
PHANTOM
 62
     5
 10
1444.278985
 20
858.839763
 11
1453.778985
 21
853.354936
  0
LINE
  8
CSLAYER1
  6
PHANTOM
 62
     5
 10
1453.778985
 20
853.354936
 11
1463.278985
 21
858.839763
  0
LINE
  8
CSLAYER1
  6
PHANTOM
 62
     5
 10
1463.278985
 20
858.839763
 11
1463.278985
 21
866.624591
  0
POINT
  8
CSLAYER1
 62
     5
 10
1453.778985
 20
864.324591
  0
POINT
  8
CSLAYER1
 62
     5
 10
1453.778985
 20
864.324591
  0
ARC
  8
CSLAYER1
  6
PHANTOM
 62
     5
 10
1443.778985
 20
863.324591
 40
10.000000
 50
180.000000
 51
270.000000
  0
LINE
  8
CSLAYER1
  6
PHANTOM
 62
     5
 10
1443.778985
 20
853.324591
 11
1473.778985
 21
853.324591
  0
ARC
  8
CSLAYER1
  6
PHANTOM
 62
     5
 10
1473.778985
 20
863.324591
 40
10.000000
 50
270.000000
 51
360.000000
  0
LINE
  8
CSLAYER1
  6
PHANTOM
 62
     5
 10
1483.778985
 20
866.624591
 11
1483.778985
 21
863.324591
  0
LINE
  8
CSLAYER1
  6
PHANTOM
 62
     5
 10
1433.778985
 20
866.624591
 11
1433.778985
 21
863.324591
  0
LINE
  8
CSLAYER1
  6
PHANTOM
 62
     5
 10
1431.478985
 20
901.624591
 11
2231.478985
 21
901.624591
  0
LINE
  8
CSLAYER1
  6
PHANTOM
 62
     5
 10
1431.478985
 20
901.624591
 11
1431.478985
 21
866.624591
  0
LINE
  8
CSLAYER1
  6
PHANTOM
 62
     5
 10
1431.478985
 20
866.624591
 11
2231.478985
 21
866.624591
  0
DIMENSION
  8
CSLAYER1
 62
     3
  2
*D0003
 10
2344.690807
 20
901.624591
 11
2334.690674
 21
851.624573
 13
2221.478985
 23
801.624591
 14
2231.478985
 24
901.624591
 50
90.000000
  0
DIMENSION
  8
CSLAYER1
 62
     3
  2
*D0004
 10
2344.690807
 20
1423.396192
 11
2334.690674
 21
1162.510376
 13
2224.297733
 23
901.624591
 14
2224.297733
 24
1423.396192
 50
90.000000
 70
1
  0
DIMENSION
  8
CSLAYER1
 62
     3
  2
*D0005
 10
2445.083880
 20
801.624591
 11
2435.083740
 21
1112.510376
 13
2445.083880
 23
1423.396192
 14
2445.083880
 24
801.624591
 50
90.000000
 70
1
  0
DIMENSION
  8
CSLAYER1
 62
     3
  2
*D0006
 10
2258.914688
 20
1507.226517
 11
1858.914673
 21
1517.226440
 13
1458.914688
 23
1423.396192
 14
2258.914688
 24
1423.396192
 70
1
  0
DIMENSION
  8
CSLAYER1
 62
     3
  2
*D0007
 10
1458.914688
 20
1224.902222
 11
1349.373291
 21
1248.372925
 13
1431.478985
 23
901.624591
 14
1458.914688
 24
1388.396192
  0
INSERT
  8
CSLAYER1
  2
EASYDRAWDIM0002
 10
0.0
 20
0.0
 30
0.0
  0
INSERT
  8
CSLAYER1
  2
EASYDRAWDIM0003
 10
0.0
 20
0.0
 30
0.0
  0
LINE
  8
CSLAYER1
  6
CONTINUOUS
 62
     3
 10
1288.984329
 20
825.774591
 11
1428.778985
 21
825.774591
  0
LINE
  8
CSLAYER1
  6
CENTER
 62
     5
 10
1288.984329
 20
821.624591
 11
1428.778985
 21
821.624591
  0
LINE
  8
CSLAYER1
  6
CONTINUOUS
 62
     3
 10
1288.984329
 20
817.474591
 11
1428.778985
 21
817.474591
  0
LINE
  8
CSLAYER1
  6
CONTINUOUS
 62
     5
 10
1588.607422
 20
1048.226393
 11
1335.299595
 21
1148.163744
  0
LINE
  8
CSLAYER1
  6
CONTINUOUS
 62
     5
 10
1588.607422
 20
1048.226393
 11
1558.802090
 21
1051.638452
  0
LINE
  8
CSLAYER1
  6
CONTINUOUS
 62
     5
 10
1588.607422
 20
1048.226393
 11
1564.501277
 21
1066.083989
  0
DIMENSION
  8
CSLAYER1
 62
     3
  2
*D0008
 10
2231.478985
 20
630.590257
 11
1830.128906
 21
640.590210
 13
1428.778985
 23
801.624591
 14
2231.478985
 24
801.624591
 52
270.000000
 70
1
  0
LINE
  8
CSLAYER1
  6
CENTER
 62
     5
 10
2799.015659
 20
801.624591
 11
2799.015659
 21
901.624591
  0
LINE
  8
CSLAYER1
  6
CENTER
 62
     5
 10
2924.015659
 20
792.695230
 11
2924.015659
 21
816.905191
  0
LINE
  8
CSLAYER1
  6
CENTER
 62
     5
 10
2674.015659
 20
792.695230
 11
2674.015659
 21
816.905191
  0
LINE
  8
CSLAYER1
  6
CENTER
 62
     5
 10
2724.515659
 20
864.324591
 11
2873.515659
 21
864.324591
  0
LINE
  8
CSLAYER1
  6
CONTINUOUS
 62
     3
 10
2649.015659
 20
801.624591
 11
2799.015659
 21
801.624591
  0
LINE
  8
CSLAYER1
  6
CONTINUOUS
 62
     3
 10
2699.015659
 20
845.624591
 11
2699.015659
 21
801.624591
  0
LINE
  8
CSLAYER1
  6
CONTINUOUS
 62
     3
 10
2949.015659
 20
801.624591
 11
2799.015659
 21
801.624591
  0
LINE
  8
CSLAYER1
  6
CONTINUOUS
 62
     3
 10
2899.015659
 20
845.624591
 11
2899.015659
 21
801.624591
  0
LINE
  8
CSLAYER1
  6
CONTINUOUS
 62
     3
 10
2949.015659
 20
801.624591
 11
2949.015659
 21
807.624591
  0
LINE
  8
CSLAYER1
  6
CONTINUOUS
 62
     3
 10
2949.015659
 20
807.624591
 11
2899.015659
 21
807.624591
  0
LINE
  8
CSLAYER1
  6
CONTINUOUS
 62
     3
 10
2649.015659
 20
801.624591
 11
2649.015659
 21
807.624591
  0
LINE
  8
CSLAYER1
  6
CONTINUOUS
 62
     3
 10
2649.015659
 20
807.624591
 11
2699.015659
 21
807.624591
  0
LINE
  8
CSLAYER1
  6
CONTINUOUS
 62
     3
 10
2845.015659
 20
845.624591
 11
2845.015659
 21
869.324591
  0
LINE
  8
CSLAYER1
  6
CONTINUOUS
 62
     3
 10
2854.015659
 20
845.624591
 11
2854.015659
 21
869.324591
  0
LINE
  8
CSLAYER1
  6
CONTINUOUS
 62
     3
 10
2857.015659
 20
845.624591
 11
2857.015659
 21
869.324591
  0
LINE
  8
CSLAYER1
  6
CONTINUOUS
 62
     3
 10
2866.015659
 20
845.624591
 11
2866.015659
 21
869.324591
  0
LINE
  8
CSLAYER1
  6
CONTINUOUS
 62
     3
 10
2873.515659
 20
864.324591
 11
2873.515659
 21
869.324591
  0
ARC
  8
CSLAYER1
  6
CONTINUOUS
 62
     3
 10
2859.719915
 20
864.324591
 40
13.795744
 50
0.000000
 51
21.249544
  0
LINE
  8
CSLAYER1
  6
CONTINUOUS
 62
     3
 10
2873.515659
 20
864.324591
 11
2873.515659
 21
855.324591
  0
LINE
  8
CSLAYER1
  6
CONTINUOUS
 62
     3
 10
2866.015659
 20
858.839763
 11
2872.378478
 21
858.839763
  0
LINE
  8
CSLAYER1
  6
CONTINUOUS
 62
     3
 10
2866.015659
 20
853.354936
 11
2872.378478
 21
853.354936
  0
LINE
  8
CSLAYER1
  6
CONTINUOUS
 62
     3
 10
2873.515659
 20
855.324591
 11
2872.378478
 21
853.354936
  0
ARC
  8
CSLAYER1
  6
CONTINUOUS
 62
     3
 10
2869.735615
 20
856.097349
 40
3.808617
 50
5.661633
 51
46.059028
  0
ARC
  8
CSLAYER1
  6
CONTINUOUS
 62
     3
 10
2859.719915
 20
864.324591
 40
13.795744
 50
336.573402
 51
360.000000
  0
LINE
  8
CSLAYER1
  6
CONTINUOUS
 62
     3
 10
2837.015659
 20
869.324591
 11
2837.015659
 21
845.624591
  0
LINE
  8
CSLAYER1
  6
CONTINUOUS
 62
     3
 10
2782.015659
 20
845.624591
 11
2782.015659
 21
869.324591
  0
LINE
  8
CSLAYER1
  6
CENTER
 62
     5
 10
2769.515659
 20
845.624591
 11
2769.515659
 21
869.324591
  0
LINE
  8
CSLAYER1
  6
CONTINUOUS
 62
     3
 10
2799.015659
 20
901.624591
 11
2674.015659
 21
901.624591
  0
LINE
  8
CSLAYER1
  6
CONTINUOUS
 62
     3
 10
2674.015659
 20
869.324591
 11
2799.015659
 21
869.324591
  0
LINE
  8
CSLAYER1
  6
CONTINUOUS
 62
     3
 10
2724.515659
 20
864.324591
 11
2724.515659
 21
866.124591
  0
ARC
  8
CSLAYER1
  6
CONTINUOUS
 62
     3
 10
2738.311403
 20
864.324591
 40
13.795744
 50
158.750456
 51
180.000000
  0
LINE
  8
CSLAYER1
  6
CONTINUOUS
 62
     3
 10
2724.515659
 20
869.324591
 11
2724.515659
 21
855.324591
  0
LINE
  8
CSLAYER1
  6
CONTINUOUS
 62
     3
 10
2732.015659
 20
858.839763
 11
2725.652840
 21
858.839763
  0
LINE
  8
CSLAYER1
  6
CONTINUOUS
 62
     3
 10
2732.015659
 20
853.354936
 11
2725.652840
 21
853.354936
  0
LINE
  8
CSLAYER1
  6
CONTINUOUS
 62
     3
 10
2724.515659
 20
855.324591
 11
2725.652840
 21
853.354936
  0
ARC
  8
CSLAYER1
  6
CONTINUOUS
 62
     3
 10
2728.295704
 20
856.097349
 40
3.808617
 50
133.940972
 51
174.338367
  0
ARC
  8
CSLAYER1
  6
CONTINUOUS
 62
     3
 10
2738.311403
 20
864.324591
 40
13.795744
 50
180.000000
 51
203.426598
  0
LINE
  8
CSLAYER1
  6
CONTINUOUS
 62
     3
 10
2753.015659
 20
845.624591
 11
2753.015659
 21
869.324591
  0
LINE
  8
CSLAYER1
  6
CONTINUOUS
 62
     3
 10
2744.015659
 20
845.624591
 11
2744.015659
 21
869.324591
  0
LINE
  8
CSLAYER1
  6
CONTINUOUS
 62
     3
 10
2741.015659
 20
845.624591
 11
2741.015659
 21
869.324591
  0
LINE
  8
CSLAYER1
  6
CONTINUOUS
 62
     3
 10
2732.015659
 20
845.624591
 11
2732.015659
 21
869.324591
  0
LINE
  8
CSLAYER1
  6
CONTINUOUS
 62
     3
 10
2714.015659
 20
869.324591
 11
2718.515659
 21
869.324591
  0
LINE
  8
CSLAYER1
  6
CONTINUOUS
 62
     3
 10
2884.015659
 20
869.324591
 11
2879.515659
 21
869.324591
  0
LINE
  8
CSLAYER1
  6
CONTINUOUS
 62
     3
 10
2765.365659
 20
845.624591
 11
2765.365659
 21
869.324591
  0
LINE
  8
CSLAYER1
  6
CONTINUOUS
 62
     3
 10
2773.665659
 20
845.624591
 11
2773.665659
 21
869.324591
  0
LINE
  8
CSLAYER1
  6
CENTER
 62
     5
 10
2724.515659
 20
864.324591
 11
2873.515659
 21
864.324591
  0
LINE
  8
CSLAYER1
  6
CONTINUOUS
 62
     3
 10
2699.015659
 20
845.624591
 11
2899.015659
 21
845.624591
  0
DIMENSION
  8
CSLAYER1
 62
     3
  2
*D0009
 10
2589.036390
 20
901.624591
 11
2579.036377
 21
851.624573
 13
2684.015659
 23
801.624591
 14
2684.015659
 24
901.624591
 50
90.000000
 70
1
  0
ARC
  8
CSLAYER1
  6
CONTINUOUS
 62
     3
 10
1453.778985
 20
2036.132153
 40
6.500000
 50
0.000000
 51
180.000000
  0
ARC
  8
CSLAYER1
  6
CONTINUOUS
 62
     5
 10
1453.778985
 20
2036.132153
 40
6.500000
 50
335.908258
 51
360.000000
  0
ARC
  8
CSLAYER1
  6
CONTINUOUS
 62
     5
 10
1453.778985
 20
2036.132153
 40
6.500000
 50
246.771340
 51
297.259733
  0
ARC
  8
CSLAYER1
  6
CONTINUOUS
 62
     3
 10
1438.778985
 20
2051.132153
 40
10.000000
 50
90.000000
 51
180.000000
  0
TEXT
  8
CSLAYER1
 62
     7
 10
1435.599365
 20
2132.331787
 40
40.000000
 41
0.843750
  1
下降時
 50
0.000000
 51
0.000000
  7
EASYDRAW_FONT
 72
     5
 11
1525.599365
 21
2132.331787
  0
LINE
  8
CSLAYER1
  6
CONTINUOUS
 62
     5
 10
1421.993001
 20
2178.761905
 11
1544.951010
 21
2178.761905
  0
LINE
  8
CSLAYER1
  6
CONTINUOUS
 62
     5
 10
1544.951010
 20
2178.761905
 11
1544.951010
 21
2125.901453
  0
LINE
  8
CSLAYER1
  6
CONTINUOUS
 62
     5
 10
1544.951010
 20
2125.901453
 11
1421.993001
 21
2125.901453
  0
LINE
  8
CSLAYER1
  6
CONTINUOUS
 62
     5
 10
1421.993001
 20
2125.901453
 11
1421.993001
 21
2178.761905
  0
LINE
  8
CSLAYER1
  6
CONTINUOUS
 62
     5
 10
1453.778985
 20
788.498819
 11
1453.778985
 21
810.711816
  0
TEXT
  8
CSLAYER1
 62
     7
 10
1235.477051
 20
1302.084839
 40
40.000000
 41
0.787500
  1
テーブルのズレ
 50
0.000000
 51
0.000000
  7
EASYDRAW_FONT
 72
     5
 11
1445.477051
 21
1302.084839
  0
LINE
  8
CSLAYER1
  6
CONTINUOUS
 62
     4
 10
1431.478985
 20
2036.132153
 11
2258.914688
 21
2036.132153
  0
LINE
  8
CSLAYER1
  6
DASHED
 62
     5
 10
1478.778985
 20
2036.132153
 11
1478.778985
 21
2011.132153
  0
LINE
  8
CSLAYER1
  6
DASHED
 62
     5
 10
1431.478985
 20
1811.132153
 11
2258.914688
 21
1811.132153
  0
LINE
  8
CSLAYER1
  6
CONTINUOUS
 62
     4
 10
1431.478985
 20
1911.132153
 11
1431.478985
 21
1786.132153
  0
LINE
  8
CSLAYER1
  6
CONTINUOUS
 62
     4
 10
2258.914688
 20
1911.132153
 11
2258.914688
 21
1786.132153
  0
LINE
  8
CSLAYER1
  6
CONTINUOUS
 62
     3
 10
1478.778985
 20
1771.132153
 11
1478.778985
 21
1786.132153
  0
LINE
  8
CSLAYER1
  6
CONTINUOUS
 62
     3
 10
1438.778985
 20
1761.132153
 11
1468.778985
 21
1761.132153
  0
ARC
  8
CSLAYER1
  6
CONTINUOUS
 62
     3
 10
1468.778985
 20
1771.132153
 40
10.000000
 50
270.000000
 51
360.000000
  0
LINE
  8
CSLAYER1
  6
CENTER
 62
     5
 10
1453.778985
 20
1797.394955
 11
1453.778985
 21
1774.869352
  0
LINE
  8
CSLAYER1
  6
CENTER
 62
     5
 10
1442.516183
 20
1786.132153
 11
1465.041786
 21
1786.132153
  0
ARC
  8
CSLAYER1
  6
CONTINUOUS
 62
     5
 10
1453.778985
 20
1786.132153
 40
6.500000
 50
150.667324
 51
180.000000
  0
LINE
  8
CSLAYER1
  6
CONTINUOUS
 62
     4
 10
1431.478985
 20
1911.132153
 11
1431.478985
 21
1811.132153
  0
LINE
  8
CSLAYER1
  6
CONTINUOUS
 62
     3
 10
1428.778985
 20
1836.632153
 11
1431.478985
 21
1836.632153
  0
LINE
  8
CSLAYER1
  6
CONTINUOUS
 62
     3
 10
1428.778985
 20
1911.132153
 11
1428.778985
 21
1771.132153
  0
ARC
  8
CSLAYER1
  6
CONTINUOUS
 62
     3
 10
1453.778985
 20
1786.132153
 40
6.500000
 50
180.000000
 51
360.000000
  0
ARC
  8
CSLAYER1
  6
CONTINUOUS
 62
     5
 10
1453.778985
 20
1786.132153
 40
6.500000
 50
0.000000
 51
24.091742
  0
ARC
  8
CSLAYER1
  6
CONTINUOUS
 62
     5
 10
1453.778985
 20
1786.132153
 40
6.500000
 50
62.740267
 51
113.228660
  0
ARC
  8
CSLAYER1
  6
CONTINUOUS
 62
     3
 10
1438.778985
 20
1771.132153
 40
10.000000
 50
180.000000
 51
270.000000
  0
LINE
  8
CSLAYER1
  6
CONTINUOUS
 62
     4
 10
1431.478985
 20
1786.132153
 11
2258.914688
 21
1786.132153
  0
LINE
  8
CSLAYER1
  6
DASHED
 62
     5
 10
1478.778985
 20
1786.132153
 11
1478.778985
 21
1811.132153
  0
LINE
  8
CSLAYER1
  6
CONTINUOUS
 62
     3
 10
985.957514
 20
1391.096192
 11
985.957514
 21
1423.396192
  0
LINE
  8
CSLAYER1
  6
CONTINUOUS
 62
     3
 10
735.957514
 20
1391.096192
 11
735.957514
 21
1423.396192
  0
LINE
  8
CSLAYER1
  6
CENTER
 62
     5
 10
860.957514
 20
1423.396192
 11
860.957514
 21
801.624591
  0
LINE
  8
CSLAYER1
  6
CENTER
 62
     5
 10
985.957514
 20
792.695230
 11
985.957514
 21
816.905191
  0
LINE
  8
CSLAYER1
  6
CENTER
 62
     5
 10
735.957514
 20
792.695230
 11
735.957514
 21
816.905191
  0
LINE
  8
CSLAYER1
  6
CENTER
 62
     5
 10
830.957514
 20
804.935027
 11
830.957514
 21
838.198347
  0
LINE
  8
CSLAYER1
  6
CENTER
 62
     5
 10
813.083567
 20
821.624591
 11
850.080525
 21
821.624591
  0
LINE
  8
CSLAYER1
  6
CENTER
 62
     5
 10
786.457514
 20
1386.096192
 11
935.457514
 21
1386.096192
  0
LINE
  8
CSLAYER1
  6
CENTER
 62
     5
 10
781.457514
 20
1091.855464
 11
944.457514
 21
1091.855464
  0
LINE
  8
CSLAYER1
  6
CONTINUOUS
 62
     3
 10
792.457514
 20
841.624591
 11
860.957514
 21
841.624591
  0
LINE
  8
CSLAYER1
  6
CONTINUOUS
 62
     3
 10
710.957514
 20
801.624591
 11
860.957514
 21
801.624591
  0
LINE
  8
CSLAYER1
  6
CONTINUOUS
 62
     3
 10
760.957514
 20
845.624591
 11
760.957514
 21
807.624591
  0
LINE
  8
CSLAYER1
  6
CONTINUOUS
 62
     3
 10
929.457514
 20
841.624591
 11
860.957514
 21
841.624591
  0
LINE
  8
CSLAYER1
  6
CONTINUOUS
 62
     3
 10
1010.957514
 20
801.624591
 11
860.957514
 21
801.624591
  0
LINE
  8
CSLAYER1
  6
CONTINUOUS
 62
     3
 10
960.957514
 20
845.624591
 11
960.957514
 21
807.624591
  0
LINE
  8
CSLAYER1
  6
CONTINUOUS
 62
     3
 10
1010.957514
 20
801.624591
 11
1010.957514
 21
807.624591
  0
LINE
  8
CSLAYER1
  6
CONTINUOUS
 62
     3
 10
935.457514
 20
807.624591
 11
935.457514
 21
845.624591
  0
LINE
  8
CSLAYER1
  6
CONTINUOUS
 62
     3
 10
1010.957514
 20
807.624591
 11
929.457514
 21
807.624591
  0
LINE
  8
CSLAYER1
  6
CONTINUOUS
 62
     3
 10
710.957514
 20
801.624591
 11
710.957514
 21
807.624591
  0
LINE
  8
CSLAYER1
  6
CONTINUOUS
 62
     3
 10
710.957514
 20
807.624591
 11
792.457514
 21
807.624591
  0
LINE
  8
CSLAYER1
  6
CONTINUOUS
 62
     3
 10
783.457514
 20
835.594246
 11
783.457514
 21
813.654936
  0
LINE
  8
CSLAYER1
  6
CONTINUOUS
 62
     3
 10
786.457514
 20
813.874591
 11
783.457514
 21
813.874591
  0
LINE
  8
CSLAYER1
  6
CONTINUOUS
 62
     3
 10
786.457514
 20
835.374591
 11
783.457514
 21
835.374591
  0
LINE
  8
CSLAYER1
  6
CONTINUOUS
 62
     3
 10
786.457514
 20
826.136787
 11
783.457514
 21
822.636787
  0
LINE
  8
CSLAYER1
  6
CONTINUOUS
 62
     3
 10
775.457514
 20
824.624591
 11
775.457514
 21
815.624591
  0
LINE
  8
CSLAYER1
  6
CONTINUOUS
 62
     3
 10
783.457514
 20
819.139763
 11
776.594695
 21
819.139763
  0
LINE
  8
CSLAYER1
  6
CONTINUOUS
 62
     3
 10
783.457514
 20
813.654936
 11
776.594695
 21
813.654936
  0
LINE
  8
CSLAYER1
  6
CONTINUOUS
 62
     3
 10
775.457514
 20
815.624591
 11
776.594695
 21
813.654936
  0
ARC
  8
CSLAYER1
  6
CONTINUOUS
 62
     3
 10
779.237558
 20
816.397349
 40
3.808617
 50
133.940972
 51
174.338367
  0
ARC
  8
CSLAYER1
  6
CONTINUOUS
 62
     3
 10
789.253258
 20
824.624591
 40
13.795744
 50
180.000000
 51
203.426598
  0
LINE
  8
CSLAYER1
  6
CONTINUOUS
 62
     3
 10
775.457514
 20
824.624591
 11
775.457514
 21
833.624591
  0
LINE
  8
CSLAYER1
  6
CONTINUOUS
 62
     3
 10
783.457514
 20
830.109418
 11
776.594695
 21
830.109418
  0
LINE
  8
CSLAYER1
  6
CONTINUOUS
 62
     3
 10
783.457514
 20
835.594246
 11
776.594695
 21
835.594246
  0
LINE
  8
CSLAYER1
  6
CONTINUOUS
 62
     3
 10
775.457514
 20
833.624591
 11
776.594695
 21
835.594246
  0
ARC
  8
CSLAYER1
  6
CONTINUOUS
 62
     3
 10
779.237558
 20
832.851832
 40
3.808617
 50
185.661633
 51
226.059028
  0
ARC
  8
CSLAYER1
  6
CONTINUOUS
 62
     3
 10
789.253258
 20
824.624591
 40
13.795744
 50
156.573402
 51
180.000000
  0
LINE
  8
CSLAYER1
  6
CENTER
 62
     5
 10
786.457514
 20
824.624591
 11
775.457514
 21
824.624591
  0
LINE
  8
CSLAYER1
  6
CONTINUOUS
 62
     3
 10
786.457514
 20
807.624591
 11
786.457514
 21
845.624591
  0
CIRCLE
  8
CSLAYER1
  6
CONTINUOUS
 62
     3
 10
830.957514
 20
821.624591
 40
12.500000
  0
LINE
  8
CSLAYER1
  6
CONTINUOUS
 62
     3
 10
860.957514
 20
1423.396192
 11
985.957514
 21
1423.396192
  0
LINE
  8
CSLAYER1
  6
CONTINUOUS
 62
     3
 10
906.957514
 20
841.624591
 11
906.957514
 21
1391.096192
  0
LINE
  8
CSLAYER1
  6
CONTINUOUS
 62
     3
 10
915.957514
 20
841.624591
 11
915.957514
 21
1391.096192
  0
LINE
  8
CSLAYER1
  6
CONTINUOUS
 62
     3
 10
918.957514
 20
841.624591
 11
918.957514
 21
1375.596192
  0
LINE
  8
CSLAYER1
  6
CONTINUOUS
 62
     3
 10
927.957514
 20
841.624591
 11
927.957514
 21
1375.126537
  0
LINE
  8
CSLAYER1
  6
CONTINUOUS
 62
     3
 10
985.957514
 20
1391.096192
 11
860.957514
 21
1391.096192
  0
LINE
  8
CSLAYER1
  6
CONTINUOUS
 62
     3
 10
916.957514
 20
1377.446192
 11
915.957514
 21
1377.446192
  0
LINE
  8
CSLAYER1
  6
CONTINUOUS
 62
     3
 10
917.957514
 20
1391.096192
 11
917.957514
 21
1378.446192
  0
LINE
  8
CSLAYER1
  6
CONTINUOUS
 62
     3
 10
917.957514
 20
1378.446192
 11
916.957514
 21
1377.446192
  0
LINE
  8
CSLAYER1
  6
CONTINUOUS
 62
     3
 10
916.957514
 20
1391.096192
 11
916.957514
 21
1377.446192
  0
LINE
  8
CSLAYER1
  6
CONTINUOUS
 62
     3
 10
918.457514
 20
1375.596192
 11
924.457514
 21
1375.596192
  0
LINE
  8
CSLAYER1
  6
CONTINUOUS
 62
     3
 10
924.457514
 20
1391.096192
 11
924.457514
 21
1375.596192
  0
LINE
  8
CSLAYER1
  6
CONTINUOUS
 62
     3
 10
918.457514
 20
1391.096192
 11
918.457514
 21
1375.596192
  0
LINE
  8
CSLAYER1
  6
CONTINUOUS
 62
     3
 10
906.957514
 20
1377.446192
 11
860.957514
 21
1377.446192
  0
LINE
  8
CSLAYER1
  6
CONTINUOUS
 62
     3
 10
927.457514
 20
1375.126537
 11
927.457514
 21
1391.096192
  0
LINE
  8
CSLAYER1
  6
CONTINUOUS
 62
     3
 10
924.457514
 20
1375.346192
 11
927.457514
 21
1375.346192
  0
LINE
  8
CSLAYER1
  6
CONTINUOUS
 62
     3
 10
924.457514
 20
1384.583995
 11
927.296539
 21
1387.896192
  0
LINE
  8
CSLAYER1
  6
CONTINUOUS
 62
     3
 10
935.457514
 20
1386.096192
 11
935.457514
 21
1391.096192
  0
ARC
  8
CSLAYER1
  6
CONTINUOUS
 62
     3
 10
921.661769
 20
1386.096192
 40
13.795744
 50
0.000000
 51
21.249544
  0
LINE
  8
CSLAYER1
  6
CONTINUOUS
 62
     3
 10
935.457514
 20
1386.096192
 11
935.457514
 21
1377.096192
  0
LINE
  8
CSLAYER1
  6
CONTINUOUS
 62
     3
 10
927.457514
 20
1380.611364
 11
934.320333
 21
1380.611364
  0
LINE
  8
CSLAYER1
  6
CONTINUOUS
 62
     3
 10
927.457514
 20
1375.126537
 11
934.320333
 21
1375.126537
  0
LINE
  8
CSLAYER1
  6
CONTINUOUS
 62
     3
 10
935.457514
 20
1377.096192
 11
934.320333
 21
1375.126537
  0
ARC
  8
CSLAYER1
  6
CONTINUOUS
 62
     3
 10
931.677469
 20
1377.868951
 40
3.808617
 50
5.661633
 51
46.059028
  0
ARC
  8
CSLAYER1
  6
CONTINUOUS
 62
     3
 10
921.661769
 20
1386.096192
 40
13.795744
 50
336.573402
 51
360.000000
  0
LINE
  8
CSLAYER1
  6
CENTER
 62
     5
 10
805.957514
 20
1180.651150
 11
915.957514
 21
1180.651150
  0
LINE
  8
CSLAYER1
  6
CONTINUOUS
 62
     3
 10
814.957514
 20
1125.134803
 11
835.957514
 21
1125.134803
  0
LINE
  8
CSLAYER1
  6
CONTINUOUS
 62
     3
 10
814.957514
 20
1076.534803
 11
853.457514
 21
1076.534803
  0
LINE
  8
CSLAYER1
  6
CONTINUOUS
 62
     3
 10
918.957514
 20
1105.855464
 11
918.957514
 21
1099.355464
  0
LINE
  8
CSLAYER1
  6
CONTINUOUS
 62
     3
 10
915.957514
 20
1105.855464
 11
915.957514
 21
1099.355464
  0
LINE
  8
CSLAYER1
  6
CONTINUOUS
 62
     3
 10
918.957514
 20
1105.855464
 11
915.957514
 21
1105.855464
  0
LINE
  8
CSLAYER1
  6
CENTER
 62
     5
 10
871.457514
 20
1194.251150
 11
871.457514
 21
870.615954
  0
LINE
  8
CSLAYER1
  6
CONTINUOUS
 62
     3
 10
900.457514
 20
854.907053
 11
900.457514
 21
903.739349
  0
LINE
  8
CSLAYER1
  6
CONTINUOUS
 62
     3
 10
894.457514
 20
854.907053
 11
894.457514
 21
903.739349
  0
LINE
  8
CSLAYER1
  6
CONTINUOUS
 62
     3
 10
842.457514
 20
854.907053
 11
842.457514
 21
903.739349
  0
LINE
  8
CSLAYER1
  6
CONTINUOUS
 62
     3
 10
848.457514
 20
854.907053
 11
848.457514
 21
903.739349
  0
LINE
  8
CSLAYER1
  6
CONTINUOUS
 62
     3
 10
893.957514
 20
1168.051150
 11
893.957514
 21
1193.251150
  0
LINE
  8
CSLAYER1
  6
CONTINUOUS
 62
     3
 10
848.957514
 20
1168.051150
 11
848.957514
 21
1193.251150
  0
LINE
  8
CSLAYER1
  6
CONTINUOUS
 62
     3
 10
849.957514
 20
1194.251150
 11
892.957514
 21
1194.251150
  0
LINE
  8
CSLAYER1
  6
CONTINUOUS
 62
     3
 10
848.957514
 20
1193.251150
 11
849.957514
 21
1194.251150
  0
LINE
  8
CSLAYER1
  6
CONTINUOUS
 62
     3
 10
892.957514
 20
1194.251150
 11
893.957514
 21
1193.251150
  0
POINT
  8
CSLAYER1
 62
     3
 10
871.457514
 20
1180.651150
  0
LINE
  8
CSLAYER1
  6
CONTINUOUS
 62
     3
 10
894.957514
 20
1188.651150
 11
893.957514
 21
1188.651150
  0
LINE
  8
CSLAYER1
  6
CONTINUOUS
 62
     3
 10
848.957514
 20
1188.651150
 11
847.957514
 21
1188.651150
  0
LINE
  8
CSLAYER1
  6
CENTER
 62
     5
 10
842.457514
 20
887.674485
 11
900.457514
 21
887.674485
  0
LINE
  8
CSLAYER1
  6
CONTINUOUS
 62
     3
 10
802.957514
 20
870.615954
 11
805.957514
 21
870.615954
  0
LINE
  8
CSLAYER1
  6
CONTINUOUS
 62
     3
 10
842.457514
 20
854.907053
 11
848.457514
 21
854.907053
  0
LINE
  8
CSLAYER1
  6
CONTINUOUS
 62
     3
 10
842.457514
 20
903.739349
 11
848.457514
 21
903.739349
  0
LINE
  8
CSLAYER1
  6
CONTINUOUS
 62
     3
 10
894.457514
 20
903.739349
 11
900.457514
 21
903.739349
  0
LINE
  8
CSLAYER1
  6
CONTINUOUS
 62
     3
 10
894.457514
 20
854.907053
 11
900.457514
 21
854.907053
  0
LINE
  8
CSLAYER1
  6
CONTINUOUS
 62
     3
 10
848.457514
 20
870.615954
 11
894.457514
 21
870.615954
  0
LINE
  8
CSLAYER1
  6
CONTINUOUS
 62
     3
 10
900.457514
 20
870.615954
 11
906.957514
 21
870.615954
  0
LINE
  8
CSLAYER1
  6
CONTINUOUS
 62
     3
 10
915.957514
 20
870.615954
 11
918.957514
 21
870.615954
  0
LINE
  8
CSLAYER1
  6
CONTINUOUS
 62
     3
 10
894.369992
 20
1048.506840
 11
898.852868
 21
1031.217613
  0
LINE
  8
CSLAYER1
  6
CONTINUOUS
 62
     3
 10
894.369992
 20
1048.506840
 11
894.108092
 21
1049.471284
  0
LINE
  8
CSLAYER1
  6
CONTINUOUS
 62
     3
 10
894.108092
 20
1049.471284
 11
893.673808
 21
1050.420992
  0
LINE
  8
CSLAYER1
  6
CONTINUOUS
 62
     3
 10
893.673808
 20
1050.420992
 11
893.070444
 21
1051.348736
  0
LINE
  8
CSLAYER1
  6
CONTINUOUS
 62
     3
 10
893.070444
 20
1051.348736
 11
892.302593
 21
1052.247455
  0
LINE
  8
CSLAYER1
  6
CONTINUOUS
 62
     3
 10
892.302593
 20
1052.247455
 11
891.376098
 21
1053.110310
  0
LINE
  8
CSLAYER1
  6
CONTINUOUS
 62
     3
 10
891.376098
 20
1053.110310
 11
890.298011
 21
1053.930732
  0
LINE
  8
CSLAYER1
  6
CONTINUOUS
 62
     3
 10
890.298011
 20
1053.930732
 11
889.076536
 21
1054.702480
  0
LINE
  8
CSLAYER1
  6
CONTINUOUS
 62
     3
 10
889.076536
 20
1054.702480
 11
887.720970
 21
1055.419679
  0
LINE
  8
CSLAYER1
  6
CONTINUOUS
 62
     3
 10
887.720970
 20
1055.419679
 11
886.241629
 21
1056.076870
  0
LINE
  8
CSLAYER1
  6
CONTINUOUS
 62
     3
 10
886.241629
 20
1056.076870
 11
884.649772
 21
1056.669053
  0
LINE
  8
CSLAYER1
  6
CONTINUOUS
 62
     3
 10
884.649772
 20
1056.669053
 11
882.957514
 21
1057.191720
  0
LINE
  8
CSLAYER1
  6
CONTINUOUS
 62
     3
 10
882.957514
 20
1057.191720
 11
881.177734
 21
1057.640894
  0
LINE
  8
CSLAYER1
  6
CONTINUOUS
 62
     3
 10
881.177734
 20
1057.640894
 11
879.323977
 21
1058.013155
  0
LINE
  8
CSLAYER1
  6
CONTINUOUS
 62
     3
 10
879.323977
 20
1058.013155
 11
877.410352
 21
1058.305672
  0
LINE
  8
CSLAYER1
  6
CONTINUOUS
 62
     3
 10
877.410352
 20
1058.305672
 11
875.451422
 21
1058.516217
  0
LINE
  8
CSLAYER1
  6
CONTINUOUS
 62
     3
 10
875.451422
 20
1058.516217
 11
873.462096
 21
1058.643189
  0
LINE
  8
CSLAYER1
  6
CONTINUOUS
 62
     3
 10
873.462096
 20
1058.643189
 11
871.457514
 21
1058.685620
  0
LINE
  8
CSLAYER1
  6
CONTINUOUS
 62
     3
 10
848.545036
 20
1048.506840
 11
844.062159
 21
1031.217613
  0
LINE
  8
CSLAYER1
  6
CONTINUOUS
 62
     3
 10
848.545036
 20
1048.506840
 11
848.806935
 21
1049.471284
  0
LINE
  8
CSLAYER1
  6
CONTINUOUS
 62
     3
 10
848.806935
 20
1049.471284
 11
849.241220
 21
1050.420992
  0
LINE
  8
CSLAYER1
  6
CONTINUOUS
 62
     3
 10
849.241220
 20
1050.420992
 11
849.844583
 21
1051.348736
  0
LINE
  8
CSLAYER1
  6
CONTINUOUS
 62
     3
 10
849.844583
 20
1051.348736
 11
850.612435
 21
1052.247455
  0
LINE
  8
CSLAYER1
  6
CONTINUOUS
 62
     3
 10
850.612435
 20
1052.247455
 11
851.538929
 21
1053.110310
  0
LINE
  8
CSLAYER1
  6
CONTINUOUS
 62
     3
 10
851.538929
 20
1053.110310
 11
852.617017
 21
1053.930732
  0
LINE
  8
CSLAYER1
  6
CONTINUOUS
 62
     3
 10
852.617017
 20
1053.930732
 11
853.838491
 21
1054.702480
  0
LINE
  8
CSLAYER1
  6
CONTINUOUS
 62
     3
 10
853.838491
 20
1054.702480
 11
855.194058
 21
1055.419679
  0
LINE
  8
CSLAYER1
  6
CONTINUOUS
 62
     3
 10
855.194058
 20
1055.419679
 11
856.673399
 21
1056.076870
  0
LINE
  8
CSLAYER1
  6
CONTINUOUS
 62
     3
 10
856.673399
 20
1056.076870
 11
858.265256
 21
1056.669053
  0
LINE
  8
CSLAYER1
  6
CONTINUOUS
 62
     3
 10
858.265256
 20
1056.669053
 11
859.957514
 21
1057.191720
  0
LINE
  8
CSLAYER1
  6
CONTINUOUS
 62
     3
 10
859.957514
 20
1057.191720
 11
861.737294
 21
1057.640894
  0
LINE
  8
CSLAYER1
  6
CONTINUOUS
 62
     3
 10
861.737294
 20
1057.640894
 11
863.591050
 21
1058.013155
  0
LINE
  8
CSLAYER1
  6
CONTINUOUS
 62
     3
 10
863.591050
 20
1058.013155
 11
865.504676
 21
1058.305672
  0
LINE
  8
CSLAYER1
  6
CONTINUOUS
 62
     3
 10
865.504676
 20
1058.305672
 11
867.463606
 21
1058.516217
  0
LINE
  8
CSLAYER1
  6
CONTINUOUS
 62
     3
 10
867.463606
 20
1058.516217
 11
869.452932
 21
1058.643189
  0
LINE
  8
CSLAYER1
  6
CONTINUOUS
 62
     3
 10
869.452932
 20
1058.643189
 11
871.457514
 21
1058.685620
  0
LINE
  8
CSLAYER1
  6
CONTINUOUS
 62
     3
 10
889.457514
 20
1054.500914
 11
889.457514
 21
1169.494367
  0
LINE
  8
CSLAYER1
  6
CONTINUOUS
 62
     3
 10
889.457514
 20
1168.986030
 11
889.389018
 21
1169.746601
  0
LINE
  8
CSLAYER1
  6
CONTINUOUS
 62
     3
 10
889.389018
 20
1169.746601
 11
889.184053
 21
1170.501383
  0
LINE
  8
CSLAYER1
  6
CONTINUOUS
 62
     3
 10
889.184053
 20
1170.501383
 11
888.844178
 21
1171.244633
  0
LINE
  8
CSLAYER1
  6
CONTINUOUS
 62
     3
 10
888.844178
 20
1171.244633
 11
888.371981
 21
1171.970693
  0
LINE
  8
CSLAYER1
  6
CONTINUOUS
 62
     3
 10
888.371981
 20
1171.970693
 11
887.771054
 21
1172.674039
  0
LINE
  8
CSLAYER1
  6
CONTINUOUS
 62
     3
 10
887.771054
 20
1172.674039
 11
887.045971
 21
1173.349316
  0
LINE
  8
CSLAYER1
  6
CONTINUOUS
 62
     3
 10
887.045971
 20
1173.349316
 11
886.202250
 21
1173.991386
  0
LINE
  8
CSLAYER1
  6
CONTINUOUS
 62
     3
 10
886.202250
 20
1173.991386
 11
885.246314
 21
1174.595363
  0
LINE
  8
CSLAYER1
  6
CONTINUOUS
 62
     3
 10
885.246314
 20
1174.595363
 11
884.185436
 21
1175.156649
  0
LINE
  8
CSLAYER1
  6
CONTINUOUS
 62
     3
 10
884.185436
 20
1175.156649
 11
883.027691
 21
1175.670972
  0
LINE
  8
CSLAYER1
  6
CONTINUOUS
 62
     3
 10
883.027691
 20
1175.670972
 11
881.781889
 21
1176.134420
  0
LINE
  8
CSLAYER1
  6
CONTINUOUS
 62
     3
 10
881.781889
 20
1176.134420
 11
880.457514
 21
1176.543464
  0
LINE
  8
CSLAYER1
  6
CONTINUOUS
 62
     3
 10
880.457514
 20
1176.543464
 11
879.064642
 21
1176.894991
  0
LINE
  8
CSLAYER1
  6
CONTINUOUS
 62
     3
 10
879.064642
 20
1176.894991
 11
877.613876
 21
1177.186326
  0
LINE
  8
CSLAYER1
  6
CONTINUOUS
 62
     3
 10
877.613876
 20
1177.186326
 11
876.116256
 21
1177.415252
  0
LINE
  8
CSLAYER1
  6
CONTINUOUS
 62
     3
 10
876.116256
 20
1177.415252
 11
874.583181
 21
1177.580027
  0
LINE
  8
CSLAYER1
  6
CONTINUOUS
 62
     3
 10
874.583181
 20
1177.580027
 11
873.026317
 21
1177.679396
  0
LINE
  8
CSLAYER1
  6
CONTINUOUS
 62
     3
 10
873.026317
 20
1177.679396
 11
871.457514
 21
1177.712603
  0
LINE
  8
CSLAYER1
  6
CONTINUOUS
 62
     3
 10
871.457514
 20
1177.712603
 11
869.888710
 21
1177.679396
  0
LINE
  8
CSLAYER1
  6
CONTINUOUS
 62
     3
 10
869.888710
 20
1177.679396
 11
868.331846
 21
1177.580027
  0
LINE
  8
CSLAYER1
  6
CONTINUOUS
 62
     3
 10
868.331846
 20
1177.580027
 11
866.798771
 21
1177.415252
  0
LINE
  8
CSLAYER1
  6
CONTINUOUS
 62
     3
 10
866.798771
 20
1177.415252
 11
865.301151
 21
1177.186326
  0
LINE
  8
CSLAYER1
  6
CONTINUOUS
 62
     3
 10
865.301151
 20
1177.186326
 11
863.850385
 21
1176.894991
  0
LINE
  8
CSLAYER1
  6
CONTINUOUS
 62
     3
 10
863.850385
 20
1176.894991
 11
862.457514
 21
1176.543464
  0
LINE
  8
CSLAYER1
  6
CONTINUOUS
 62
     3
 10
862.457514
 20
1176.543464
 11
861.133138
 21
1176.134420
  0
LINE
  8
CSLAYER1
  6
CONTINUOUS
 62
     3
 10
861.133138
 20
1176.134420
 11
859.887337
 21
1175.670972
  0
LINE
  8
CSLAYER1
  6
CONTINUOUS
 62
     3
 10
859.887337
 20
1175.670972
 11
858.729592
 21
1175.156649
  0
LINE
  8
CSLAYER1
  6
CONTINUOUS
 62
     3
 10
858.729592
 20
1175.156649
 11
857.668714
 21
1174.595363
  0
LINE
  8
CSLAYER1
  6
CONTINUOUS
 62
     3
 10
857.668714
 20
1174.595363
 11
856.712777
 21
1173.991386
  0
LINE
  8
CSLAYER1
  6
CONTINUOUS
 62
     3
 10
856.712777
 20
1173.991386
 11
855.869056
 21
1173.349316
  0
LINE
  8
CSLAYER1
  6
CONTINUOUS
 62
     3
 10
855.869056
 20
1173.349316
 11
855.143973
 21
1172.674039
  0
LINE
  8
CSLAYER1
  6
CONTINUOUS
 62
     3
 10
855.143973
 20
1172.674039
 11
854.543046
 21
1171.970693
  0
LINE
  8
CSLAYER1
  6
CONTINUOUS
 62
     3
 10
854.543046
 20
1171.970693
 11
854.070849
 21
1171.244633
  0
LINE
  8
CSLAYER1
  6
CONTINUOUS
 62
     3
 10
854.070849
 20
1171.244633
 11
853.730974
 21
1170.501383
  0
LINE
  8
CSLAYER1
  6
CONTINUOUS
 62
     3
 10
853.730974
 20
1170.501383
 11
853.526009
 21
1169.746601
  0
LINE
  8
CSLAYER1
  6
CONTINUOUS
 62
     3
 10
853.526009
 20
1169.746601
 11
853.457514
 21
1168.986030
  0
LINE
  8
CSLAYER1
  6
CONTINUOUS
 62
     3
 10
898.957514
 20
1030.055630
 11
898.957514
 21
999.466734
  0
LINE
  8
CSLAYER1
  6
CONTINUOUS
 62
     3
 10
898.957514
 20
1030.055630
 11
898.852868
 21
1031.217613
  0
LINE
  8
CSLAYER1
  6
CONTINUOUS
 62
     3
 10
898.852868
 20
1031.217613
 11
898.539727
 21
1032.370753
  0
LINE
  8
CSLAYER1
  6
CONTINUOUS
 62
     3
 10
898.539727
 20
1032.370753
 11
898.020474
 21
1033.506274
  0
LINE
  8
CSLAYER1
  6
CONTINUOUS
 62
     3
 10
898.020474
 20
1033.506274
 11
897.299061
 21
1034.615533
  0
LINE
  8
CSLAYER1
  6
CONTINUOUS
 62
     3
 10
897.299061
 20
1034.615533
 11
896.380978
 21
1035.690088
  0
LINE
  8
CSLAYER1
  6
CONTINUOUS
 62
     3
 10
896.380978
 20
1035.690088
 11
895.273212
 21
1036.721762
  0
LINE
  8
CSLAYER1
  6
CONTINUOUS
 62
     3
 10
895.273212
 20
1036.721762
 11
893.984195
 21
1037.702703
  0
LINE
  8
CSLAYER1
  6
CONTINUOUS
 62
     3
 10
893.984195
 20
1037.702703
 11
892.523736
 21
1038.625444
  0
LINE
  8
CSLAYER1
  6
CONTINUOUS
 62
     3
 10
892.523736
 20
1038.625444
 11
890.902950
 21
1039.482964
  0
LINE
  8
CSLAYER1
  6
CONTINUOUS
 62
     3
 10
890.902950
 20
1039.482964
 11
889.134173
 21
1040.268737
  0
LINE
  8
CSLAYER1
  6
CONTINUOUS
 62
     3
 10
889.134173
 20
1040.268737
 11
887.230866
 21
1040.976782
  0
LINE
  8
CSLAYER1
  6
CONTINUOUS
 62
     3
 10
887.230866
 20
1040.976782
 11
885.207514
 21
1041.601710
  0
LINE
  8
CSLAYER1
  6
CONTINUOUS
 62
     3
 10
885.207514
 20
1041.601710
 11
883.079516
 21
1042.138765
  0
LINE
  8
CSLAYER1
  6
CONTINUOUS
 62
     3
 10
883.079516
 20
1042.138765
 11
880.863068
 21
1042.583860
  0
LINE
  8
CSLAYER1
  6
CONTINUOUS
 62
     3
 10
880.863068
 20
1042.583860
 11
878.575037
 21
1042.933608
  0
LINE
  8
CSLAYER1
  6
CONTINUOUS
 62
     3
 10
878.575037
 20
1042.933608
 11
876.232839
 21
1043.185347
  0
LINE
  8
CSLAYER1
  6
CONTINUOUS
 62
     3
 10
876.232839
 20
1043.185347
 11
873.854297
 21
1043.337161
  0
LINE
  8
CSLAYER1
  6
CONTINUOUS
 62
     3
 10
873.854297
 20
1043.337161
 11
871.457514
 21
1043.387894
  0
LINE
  8
CSLAYER1
  6
CONTINUOUS
 62
     3
 10
871.457514
 20
1043.387894
 11
869.060731
 21
1043.337161
  0
LINE
  8
CSLAYER1
  6
CONTINUOUS
 62
     3
 10
869.060731
 20
1043.337161
 11
866.682189
 21
1043.185347
  0
LINE
  8
CSLAYER1
  6
CONTINUOUS
 62
     3
 10
866.682189
 20
1043.185347
 11
864.339990
 21
1042.933608
  0
LINE
  8
CSLAYER1
  6
CONTINUOUS
 62
     3
 10
864.339990
 20
1042.933608
 11
862.051960
 21
1042.583860
  0
LINE
  8
CSLAYER1
  6
CONTINUOUS
 62
     3
 10
862.051960
 20
1042.583860
 11
859.835511
 21
1042.138765
  0
LINE
  8
CSLAYER1
  6
CONTINUOUS
 62
     3
 10
859.835511
 20
1042.138765
 11
857.707514
 21
1041.601710
  0
LINE
  8
CSLAYER1
  6
CONTINUOUS
 62
     3
 10
857.707514
 20
1041.601710
 11
855.684162
 21
1040.976782
  0
LINE
  8
CSLAYER1
  6
CONTINUOUS
 62
     3
 10
855.684162
 20
1040.976782
 11
853.780854
 21
1040.268737
  0
LINE
  8
CSLAYER1
  6
CONTINUOUS
 62
     3
 10
853.780854
 20
1040.268737
 11
852.012077
 21
1039.482964
  0
LINE
  8
CSLAYER1
  6
CONTINUOUS
 62
     3
 10
852.012077
 20
1039.482964
 11
850.391291
 21
1038.625444
  0
LINE
  8
CSLAYER1
  6
CONTINUOUS
 62
     3
 10
850.391291
 20
1038.625444
 11
848.930832
 21
1037.702703
  0
LINE
  8
CSLAYER1
  6
CONTINUOUS
 62
     3
 10
848.930832
 20
1037.702703
 11
847.641815
 21
1036.721762
  0
LINE
  8
CSLAYER1
  6
CONTINUOUS
 62
     3
 10
847.641815
 20
1036.721762
 11
846.534049
 21
1035.690088
  0
LINE
  8
CSLAYER1
  6
CONTINUOUS
 62
     3
 10
846.534049
 20
1035.690088
 11
845.615967
 21
1034.615533
  0
LINE
  8
CSLAYER1
  6
CONTINUOUS
 62
     3
 10
845.615967
 20
1034.615533
 11
844.894553
 21
1033.506274
  0
LINE
  8
CSLAYER1
  6
CONTINUOUS
 62
     3
 10
844.894553
 20
1033.506274
 11
844.375300
 21
1032.370753
  0
LINE
  8
CSLAYER1
  6
CONTINUOUS
 62
     3
 10
844.375300
 20
1032.370753
 11
844.062159
 21
1031.217613
  0
LINE
  8
CSLAYER1
  6
CONTINUOUS
 62
     3
 10
844.062159
 20
1031.217613
 11
843.957514
 21
1030.055630
  0
LINE
  8
CSLAYER1
  6
CONTINUOUS
 62
     3
 10
843.957514
 20
1030.055630
 11
843.957514
 21
999.466734
  0
LINE
  8
CSLAYER1
  6
CONTINUOUS
 62
     3
 10
895.757514
 20
905.153855
 11
895.757514
 21
999.466734
  0
LINE
  8
CSLAYER1
  6
CONTINUOUS
 62
     3
 10
898.957514
 20
999.466734
 11
898.852868
 21
1000.628717
  0
LINE
  8
CSLAYER1
  6
CONTINUOUS
 62
     3
 10
898.852868
 20
1000.628717
 11
898.539727
 21
1001.781857
  0
LINE
  8
CSLAYER1
  6
CONTINUOUS
 62
     3
 10
898.539727
 20
1001.781857
 11
898.020474
 21
1002.917378
  0
LINE
  8
CSLAYER1
  6
CONTINUOUS
 62
     3
 10
898.020474
 20
1002.917378
 11
897.299061
 21
1004.026637
  0
LINE
  8
CSLAYER1
  6
CONTINUOUS
 62
     3
 10
897.299061
 20
1004.026637
 11
896.380978
 21
1005.101192
  0
LINE
  8
CSLAYER1
  6
CONTINUOUS
 62
     3
 10
896.380978
 20
1005.101192
 11
895.273212
 21
1006.132866
  0
LINE
  8
CSLAYER1
  6
CONTINUOUS
 62
     3
 10
895.273212
 20
1006.132866
 11
893.984195
 21
1007.113807
  0
LINE
  8
CSLAYER1
  6
CONTINUOUS
 62
     3
 10
893.984195
 20
1007.113807
 11
892.523736
 21
1008.036548
  0
LINE
  8
CSLAYER1
  6
CONTINUOUS
 62
     3
 10
892.523736
 20
1008.036548
 11
890.902950
 21
1008.894069
  0
LINE
  8
CSLAYER1
  6
CONTINUOUS
 62
     3
 10
890.902950
 20
1008.894069
 11
889.134173
 21
1009.679841
  0
LINE
  8
CSLAYER1
  6
CONTINUOUS
 62
     3
 10
889.134173
 20
1009.679841
 11
887.230866
 21
1010.387886
  0
LINE
  8
CSLAYER1
  6
CONTINUOUS
 62
     3
 10
887.230866
 20
1010.387886
 11
885.207514
 21
1011.012814
  0
LINE
  8
CSLAYER1
  6
CONTINUOUS
 62
     3
 10
885.207514
 20
1011.012814
 11
883.079516
 21
1011.549869
  0
LINE
  8
CSLAYER1
  6
CONTINUOUS
 62
     3
 10
883.079516
 20
1011.549869
 11
880.863068
 21
1011.994964
  0
LINE
  8
CSLAYER1
  6
CONTINUOUS
 62
     3
 10
880.863068
 20
1011.994964
 11
878.575037
 21
1012.344713
  0
LINE
  8
CSLAYER1
  6
CONTINUOUS
 62
     3
 10
878.575037
 20
1012.344713
 11
876.232839
 21
1012.596451
  0
LINE
  8
CSLAYER1
  6
CONTINUOUS
 62
     3
 10
876.232839
 20
1012.596451
 11
873.854297
 21
1012.748265
  0
LINE
  8
CSLAYER1
  6
CONTINUOUS
 62
     3
 10
873.854297
 20
1012.748265
 11
871.457514
 21
1012.798998
  0
LINE
  8
CSLAYER1
  6
CONTINUOUS
 62
     3
 10
871.457514
 20
1012.798998
 11
869.060731
 21
1012.748265
  0
LINE
  8
CSLAYER1
  6
CONTINUOUS
 62
     3
 10
869.060731
 20
1012.748265
 11
866.682189
 21
1012.596451
  0
LINE
  8
CSLAYER1
  6
CONTINUOUS
 62
     3
 10
866.682189
 20
1012.596451
 11
864.339990
 21
1012.344713
  0
LINE
  8
CSLAYER1
  6
CONTINUOUS
 62
     3
 10
864.339990
 20
1012.344713
 11
862.051960
 21
1011.994964
  0
LINE
  8
CSLAYER1
  6
CONTINUOUS
 62
     3
 10
862.051960
 20
1011.994964
 11
859.835511
 21
1011.549869
  0
LINE
  8
CSLAYER1
  6
CONTINUOUS
 62
     3
 10
859.835511
 20
1011.549869
 11
857.707514
 21
1011.012814
  0
LINE
  8
CSLAYER1
  6
CONTINUOUS
 62
     3
 10
857.707514
 20
1011.012814
 11
855.684162
 21
1010.387886
  0
LINE
  8
CSLAYER1
  6
CONTINUOUS
 62
     3
 10
855.684162
 20
1010.387886
 11
853.780854
 21
1009.679841
  0
LINE
  8
CSLAYER1
  6
CONTINUOUS
 62
     3
 10
853.780854
 20
1009.679841
 11
852.012077
 21
1008.894069
  0
LINE
  8
CSLAYER1
  6
CONTINUOUS
 62
     3
 10
852.012077
 20
1008.894069
 11
850.391291
 21
1008.036548
  0
LINE
  8
CSLAYER1
  6
CONTINUOUS
 62
     3
 10
850.391291
 20
1008.036548
 11
848.930832
 21
1007.113807
  0
LINE
  8
CSLAYER1
  6
CONTINUOUS
 62
     3
 10
848.930832
 20
1007.113807
 11
847.641815
 21
1006.132866
  0
LINE
  8
CSLAYER1
  6
CONTINUOUS
 62
     3
 10
847.641815
 20
1006.132866
 11
846.534049
 21
1005.101192
  0
LINE
  8
CSLAYER1
  6
CONTINUOUS
 62
     3
 10
846.534049
 20
1005.101192
 11
845.615967
 21
1004.026637
  0
LINE
  8
CSLAYER1
  6
CONTINUOUS
 62
     3
 10
845.615967
 20
1004.026637
 11
844.894553
 21
1002.917378
  0
LINE
  8
CSLAYER1
  6
CONTINUOUS
 62
     3
 10
844.894553
 20
1002.917378
 11
844.375300
 21
1001.781857
  0
LINE
  8
CSLAYER1
  6
CONTINUOUS
 62
     3
 10
844.375300
 20
1001.781857
 11
844.062159
 21
1000.628717
  0
LINE
  8
CSLAYER1
  6
CONTINUOUS
 62
     3
 10
844.062159
 20
1000.628717
 11
843.957514
 21
999.466734
  0
LINE
  8
CSLAYER1
  6
CONTINUOUS
 62
     3
 10
843.957514
 20
999.466734
 11
844.062159
 21
998.304750
  0
LINE
  8
CSLAYER1
  6
CONTINUOUS
 62
     3
 10
844.062159
 20
998.304750
 11
844.375300
 21
997.151610
  0
LINE
  8
CSLAYER1
  6
CONTINUOUS
 62
     3
 10
844.375300
 20
997.151610
 11
844.894553
 21
996.016090
  0
LINE
  8
CSLAYER1
  6
CONTINUOUS
 62
     3
 10
844.894553
 20
996.016090
 11
845.615967
 21
994.906831
  0
LINE
  8
CSLAYER1
  6
CONTINUOUS
 62
     3
 10
845.615967
 20
994.906831
 11
846.534049
 21
993.832275
  0
LINE
  8
CSLAYER1
  6
CONTINUOUS
 62
     3
 10
846.534049
 20
993.832275
 11
847.157514
 21
993.251637
  0
LINE
  8
CSLAYER1
  6
CONTINUOUS
 62
     3
 10
895.757514
 20
993.251637
 11
896.380978
 21
993.832275
  0
LINE
  8
CSLAYER1
  6
CONTINUOUS
 62
     3
 10
896.380978
 20
993.832275
 11
897.299061
 21
994.906831
  0
LINE
  8
CSLAYER1
  6
CONTINUOUS
 62
     3
 10
897.299061
 20
994.906831
 11
898.020474
 21
996.016090
  0
LINE
  8
CSLAYER1
  6
CONTINUOUS
 62
     3
 10
898.020474
 20
996.016090
 11
898.539727
 21
997.151610
  0
LINE
  8
CSLAYER1
  6
CONTINUOUS
 62
     3
 10
898.539727
 20
997.151610
 11
898.852868
 21
998.304750
  0
LINE
  8
CSLAYER1
  6
CONTINUOUS
 62
     3
 10
898.852868
 20
998.304750
 11
898.957514
 21
999.466734
  0
LINE
  8
CSLAYER1
  6
CONTINUOUS
 62
     3
 10
895.757514
 20
999.466734
 11
895.665045
 21
1000.493505
  0
LINE
  8
CSLAYER1
  6
CONTINUOUS
 62
     3
 10
895.665045
 20
1000.493505
 11
895.388342
 21
1001.512461
  0
LINE
  8
CSLAYER1
  6
CONTINUOUS
 62
     3
 10
895.388342
 20
1001.512461
 11
894.929511
 21
1002.515848
  0
LINE
  8
CSLAYER1
  6
CONTINUOUS
 62
     3
 10
894.929511
 20
1002.515848
 11
894.292044
 21
1003.496030
  0
LINE
  8
CSLAYER1
  6
CONTINUOUS
 62
     3
 10
894.292044
 20
1003.496030
 11
893.480793
 21
1004.445546
  0
LINE
  8
CSLAYER1
  6
CONTINUOUS
 62
     3
 10
893.480793
 20
1004.445546
 11
892.501931
 21
1005.357171
  0
LINE
  8
CSLAYER1
  6
CONTINUOUS
 62
     3
 10
892.501931
 20
1005.357171
 11
891.362908
 21
1006.223965
  0
LINE
  8
CSLAYER1
  6
CONTINUOUS
 62
     3
 10
891.362908
 20
1006.223965
 11
890.072394
 21
1007.039334
  0
LINE
  8
CSLAYER1
  6
CONTINUOUS
 62
     3
 10
890.072394
 20
1007.039334
 11
888.640208
 21
1007.797070
  0
LINE
  8
CSLAYER1
  6
CONTINUOUS
 62
     3
 10
888.640208
 20
1007.797070
 11
887.077253
 21
1008.491407
  0
LINE
  8
CSLAYER1
  6
CONTINUOUS
 62
     3
 10
887.077253
 20
1008.491407
 11
885.395421
 21
1009.117061
  0
LINE
  8
CSLAYER1
  6
CONTINUOUS
 62
     3
 10
885.395421
 20
1009.117061
 11
883.607514
 21
1009.669270
  0
LINE
  8
CSLAYER1
  6
CONTINUOUS
 62
     3
 10
883.607514
 20
1009.669270
 11
881.727137
 21
1010.143831
  0
LINE
  8
CSLAYER1
  6
CONTINUOUS
 62
     3
 10
881.727137
 20
1010.143831
 11
879.768603
 21
1010.537134
  0
LINE
  8
CSLAYER1
  6
CONTINUOUS
 62
     3
 10
879.768603
 20
1010.537134
 11
877.746816
 21
1010.846184
  0
LINE
  8
CSLAYER1
  6
CONTINUOUS
 62
     3
 10
877.746816
 20
1010.846184
 11
875.677164
 21
1011.068630
  0
LINE
  8
CSLAYER1
  6
CONTINUOUS
 62
     3
 10
875.677164
 20
1011.068630
 11
873.575398
 21
1011.202778
  0
LINE
  8
CSLAYER1
  6
CONTINUOUS
 62
     3
 10
873.575398
 20
1011.202778
 11
871.457514
 21
1011.247608
  0
LINE
  8
CSLAYER1
  6
CONTINUOUS
 62
     3
 10
871.457514
 20
1011.247608
 11
869.339629
 21
1011.202778
  0
LINE
  8
CSLAYER1
  6
CONTINUOUS
 62
     3
 10
869.339629
 20
1011.202778
 11
867.237863
 21
1011.068630
  0
LINE
  8
CSLAYER1
  6
CONTINUOUS
 62
     3
 10
867.237863
 20
1011.068630
 11
865.168211
 21
1010.846184
  0
LINE
  8
CSLAYER1
  6
CONTINUOUS
 62
     3
 10
865.168211
 20
1010.846184
 11
863.146424
 21
1010.537134
  0
LINE
  8
CSLAYER1
  6
CONTINUOUS
 62
     3
 10
863.146424
 20
1010.537134
 11
861.187890
 21
1010.143831
  0
LINE
  8
CSLAYER1
  6
CONTINUOUS
 62
     3
 10
861.187890
 20
1010.143831
 11
859.307514
 21
1009.669270
  0
LINE
  8
CSLAYER1
  6
CONTINUOUS
 62
     3
 10
859.307514
 20
1009.669270
 11
857.519606
 21
1009.117061
  0
LINE
  8
CSLAYER1
  6
CONTINUOUS
 62
     3
 10
857.519606
 20
1009.117061
 11
855.837775
 21
1008.491407
  0
LINE
  8
CSLAYER1
  6
CONTINUOUS
 62
     3
 10
855.837775
 20
1008.491407
 11
854.274819
 21
1007.797070
  0
LINE
  8
CSLAYER1
  6
CONTINUOUS
 62
     3
 10
854.274819
 20
1007.797070
 11
852.842634
 21
1007.039334
  0
LINE
  8
CSLAYER1
  6
CONTINUOUS
 62
     3
 10
852.842634
 20
1007.039334
 11
851.552119
 21
1006.223965
  0
LINE
  8
CSLAYER1
  6
CONTINUOUS
 62
     3
 10
851.552119
 20
1006.223965
 11
850.413096
 21
1005.357171
  0
LINE
  8
CSLAYER1
  6
CONTINUOUS
 62
     3
 10
850.413096
 20
1005.357171
 11
849.434234
 21
1004.445546
  0
LINE
  8
CSLAYER1
  6
CONTINUOUS
 62
     3
 10
849.434234
 20
1004.445546
 11
848.622983
 21
1003.496030
  0
LINE
  8
CSLAYER1
  6
CONTINUOUS
 62
     3
 10
848.622983
 20
1003.496030
 11
847.985516
 21
1002.515848
  0
LINE
  8
CSLAYER1
  6
CONTINUOUS
 62
     3
 10
847.985516
 20
1002.515848
 11
847.526685
 21
1001.512461
  0
LINE
  8
CSLAYER1
  6
CONTINUOUS
 62
     3
 10
847.526685
 20
1001.512461
 11
847.249982
 21
1000.493505
  0
LINE
  8
CSLAYER1
  6
CONTINUOUS
 62
     3
 10
847.249982
 20
1000.493505
 11
847.157514
 21
999.466734
  0
LINE
  8
CSLAYER1
  6
CONTINUOUS
 62
     3
 10
847.157514
 20
905.153855
 11
847.157514
 21
999.466734
  0
LINE
  8
CSLAYER1
  6
CONTINUOUS
 62
     3
 10
853.457514
 20
1054.461772
 11
853.457514
 21
1168.986030
  0
LINE
  8
CSLAYER1
  6
CONTINUOUS
 62
     3
 10
893.957514
 20
874.564959
 11
893.957514
 21
905.153855
  0
LINE
  8
CSLAYER1
  6
CONTINUOUS
 62
     3
 10
893.957514
 20
905.153855
 11
893.871894
 21
906.104568
  0
LINE
  8
CSLAYER1
  6
CONTINUOUS
 62
     3
 10
893.871894
 20
906.104568
 11
893.615688
 21
907.048046
  0
LINE
  8
CSLAYER1
  6
CONTINUOUS
 62
     3
 10
893.615688
 20
907.048046
 11
893.190845
 21
907.977109
  0
LINE
  8
CSLAYER1
  6
CONTINUOUS
 62
     3
 10
893.190845
 20
907.977109
 11
892.600598
 21
908.884684
  0
LINE
  8
CSLAYER1
  6
CONTINUOUS
 62
     3
 10
892.600598
 20
908.884684
 11
891.849439
 21
909.763866
  0
LINE
  8
CSLAYER1
  6
CONTINUOUS
 62
     3
 10
891.849439
 20
909.763866
 11
890.943085
 21
910.607963
  0
LINE
  8
CSLAYER1
  6
CONTINUOUS
 62
     3
 10
890.943085
 20
910.607963
 11
889.888435
 21
911.410550
  0
LINE
  8
CSLAYER1
  6
CONTINUOUS
 62
     3
 10
889.888435
 20
911.410550
 11
888.693514
 21
912.165521
  0
LINE
  8
CSLAYER1
  6
CONTINUOUS
 62
     3
 10
888.693514
 20
912.165521
 11
887.367416
 21
912.867128
  0
LINE
  8
CSLAYER1
  6
CONTINUOUS
 62
     3
 10
887.367416
 20
912.867128
 11
885.920235
 21
913.510033
  0
LINE
  8
CSLAYER1
  6
CONTINUOUS
 62
     3
 10
885.920235
 20
913.510033
 11
884.362983
 21
914.089342
  0
LINE
  8
CSLAYER1
  6
CONTINUOUS
 62
     3
 10
884.362983
 20
914.089342
 11
882.707514
 21
914.600647
  0
LINE
  8
CSLAYER1
  6
CONTINUOUS
 62
     3
 10
882.707514
 20
914.600647
 11
880.966425
 21
915.040056
  0
LINE
  8
CSLAYER1
  6
CONTINUOUS
 62
     3
 10
880.966425
 20
915.040056
 11
879.152967
 21
915.404225
  0
LINE
  8
CSLAYER1
  6
CONTINUOUS
 62
     3
 10
879.152967
 20
915.404225
 11
877.280942
 21
915.690383
  0
LINE
  8
CSLAYER1
  6
CONTINUOUS
 62
     3
 10
877.280942
 20
915.690383
 11
875.364598
 21
915.896351
  0
LINE
  8
CSLAYER1
  6
CONTINUOUS
 62
     3
 10
875.364598
 20
915.896351
 11
873.418518
 21
916.020562
  0
LINE
  8
CSLAYER1
  6
CONTINUOUS
 62
     3
 10
873.418518
 20
916.020562
 11
871.457514
 21
916.062071
  0
LINE
  8
CSLAYER1
  6
CONTINUOUS
 62
     3
 10
871.457514
 20
916.062071
 11
869.496509
 21
916.020562
  0
LINE
  8
CSLAYER1
  6
CONTINUOUS
 62
     3
 10
869.496509
 20
916.020562
 11
867.550430
 21
915.896351
  0
LINE
  8
CSLAYER1
  6
CONTINUOUS
 62
     3
 10
867.550430
 20
915.896351
 11
865.634085
 21
915.690383
  0
LINE
  8
CSLAYER1
  6
CONTINUOUS
 62
     3
 10
865.634085
 20
915.690383
 11
863.762060
 21
915.404225
  0
LINE
  8
CSLAYER1
  6
CONTINUOUS
 62
     3
 10
863.762060
 20
915.404225
 11
861.948603
 21
915.040056
  0
LINE
  8
CSLAYER1
  6
CONTINUOUS
 62
     3
 10
861.948603
 20
915.040056
 11
860.207514
 21
914.600647
  0
LINE
  8
CSLAYER1
  6
CONTINUOUS
 62
     3
 10
860.207514
 20
914.600647
 11
858.552044
 21
914.089342
  0
LINE
  8
CSLAYER1
  6
CONTINUOUS
 62
     3
 10
858.552044
 20
914.089342
 11
856.994792
 21
913.510033
  0
LINE
  8
CSLAYER1
  6
CONTINUOUS
 62
     3
 10
856.994792
 20
913.510033
 11
855.547611
 21
912.867128
  0
LINE
  8
CSLAYER1
  6
CONTINUOUS
 62
     3
 10
855.547611
 20
912.867128
 11
854.221514
 21
912.165521
  0
LINE
  8
CSLAYER1
  6
CONTINUOUS
 62
     3
 10
854.221514
 20
912.165521
 11
853.026593
 21
911.410550
  0
LINE
  8
CSLAYER1
  6
CONTINUOUS
 62
     3
 10
853.026593
 20
911.410550
 11
851.971942
 21
910.607963
  0
LINE
  8
CSLAYER1
  6
CONTINUOUS
 62
     3
 10
851.971942
 20
910.607963
 11
851.065588
 21
909.763866
  0
LINE
  8
CSLAYER1
  6
CONTINUOUS
 62
     3
 10
851.065588
 20
909.763866
 11
850.314430
 21
908.884684
  0
LINE
  8
CSLAYER1
  6
CONTINUOUS
 62
     3
 10
850.314430
 20
908.884684
 11
849.724183
 21
907.977109
  0
LINE
  8
CSLAYER1
  6
CONTINUOUS
 62
     3
 10
849.724183
 20
907.977109
 11
849.299339
 21
907.048046
  0
LINE
  8
CSLAYER1
  6
CONTINUOUS
 62
     3
 10
849.299339
 20
907.048046
 11
849.043133
 21
906.104568
  0
LINE
  8
CSLAYER1
  6
CONTINUOUS
 62
     3
 10
849.043133
 20
906.104568
 11
848.957514
 21
905.153855
  0
LINE
  8
CSLAYER1
  6
CONTINUOUS
 62
     3
 10
895.757514
 20
905.153855
 11
895.665045
 21
906.180625
  0
LINE
  8
CSLAYER1
  6
CONTINUOUS
 62
     3
 10
895.665045
 20
906.180625
 11
895.388342
 21
907.199582
  0
LINE
  8
CSLAYER1
  6
CONTINUOUS
 62
     3
 10
895.388342
 20
907.199582
 11
894.929511
 21
908.202969
  0
LINE
  8
CSLAYER1
  6
CONTINUOUS
 62
     3
 10
894.929511
 20
908.202969
 11
894.292044
 21
909.183151
  0
LINE
  8
CSLAYER1
  6
CONTINUOUS
 62
     3
 10
894.292044
 20
909.183151
 11
893.480793
 21
910.132667
  0
LINE
  8
CSLAYER1
  6
CONTINUOUS
 62
     3
 10
893.480793
 20
910.132667
 11
892.501931
 21
911.044291
  0
LINE
  8
CSLAYER1
  6
CONTINUOUS
 62
     3
 10
892.501931
 20
911.044291
 11
891.362908
 21
911.911086
  0
LINE
  8
CSLAYER1
  6
CONTINUOUS
 62
     3
 10
891.362908
 20
911.911086
 11
890.072394
 21
912.726454
  0
LINE
  8
CSLAYER1
  6
CONTINUOUS
 62
     3
 10
890.072394
 20
912.726454
 11
888.640208
 21
913.484190
  0
LINE
  8
CSLAYER1
  6
CONTINUOUS
 62
     3
 10
888.640208
 20
913.484190
 11
887.077253
 21
914.178527
  0
LINE
  8
CSLAYER1
  6
CONTINUOUS
 62
     3
 10
887.077253
 20
914.178527
 11
885.395421
 21
914.804181
  0
LINE
  8
CSLAYER1
  6
CONTINUOUS
 62
     3
 10
885.395421
 20
914.804181
 11
883.607514
 21
915.356391
  0
LINE
  8
CSLAYER1
  6
CONTINUOUS
 62
     3
 10
883.607514
 20
915.356391
 11
881.727137
 21
915.830952
  0
LINE
  8
CSLAYER1
  6
CONTINUOUS
 62
     3
 10
881.727137
 20
915.830952
 11
879.768603
 21
916.224255
  0
LINE
  8
CSLAYER1
  6
CONTINUOUS
 62
     3
 10
879.768603
 20
916.224255
 11
877.746816
 21
916.533305
  0
LINE
  8
CSLAYER1
  6
CONTINUOUS
 62
     3
 10
877.746816
 20
916.533305
 11
875.677164
 21
916.755750
  0
LINE
  8
CSLAYER1
  6
CONTINUOUS
 62
     3
 10
875.677164
 20
916.755750
 11
873.575398
 21
916.889899
  0
LINE
  8
CSLAYER1
  6
CONTINUOUS
 62
     3
 10
873.575398
 20
916.889899
 11
871.457514
 21
916.934728
  0
LINE
  8
CSLAYER1
  6
CONTINUOUS
 62
     3
 10
871.457514
 20
916.934728
 11
869.339629
 21
916.889899
  0
LINE
  8
CSLAYER1
  6
CONTINUOUS
 62
     3
 10
869.339629
 20
916.889899
 11
867.237863
 21
916.755750
  0
LINE
  8
CSLAYER1
  6
CONTINUOUS
 62
     3
 10
867.237863
 20
916.755750
 11
865.168211
 21
916.533305
  0
LINE
  8
CSLAYER1
  6
CONTINUOUS
 62
     3
 10
865.168211
 20
916.533305
 11
863.146424
 21
916.224255
  0
LINE
  8
CSLAYER1
  6
CONTINUOUS
 62
     3
 10
863.146424
 20
916.224255
 11
861.187890
 21
915.830952
  0
LINE
  8
CSLAYER1
  6
CONTINUOUS
 62
     3
 10
861.187890
 20
915.830952
 11
859.307514
 21
915.356391
  0
LINE
  8
CSLAYER1
  6
CONTINUOUS
 62
     3
 10
859.307514
 20
915.356391
 11
857.519606
 21
914.804181
  0
LINE
  8
CSLAYER1
  6
CONTINUOUS
 62
     3
 10
857.519606
 20
914.804181
 11
855.837775
 21
914.178527
  0
LINE
  8
CSLAYER1
  6
CONTINUOUS
 62
     3
 10
855.837775
 20
914.178527
 11
854.274819
 21
913.484190
  0
LINE
  8
CSLAYER1
  6
CONTINUOUS
 62
     3
 10
854.274819
 20
913.484190
 11
852.842634
 21
912.726454
  0
LINE
  8
CSLAYER1
  6
CONTINUOUS
 62
     3
 10
852.842634
 20
912.726454
 11
851.552119
 21
911.911086
  0
LINE
  8
CSLAYER1
  6
CONTINUOUS
 62
     3
 10
851.552119
 20
911.911086
 11
850.413096
 21
911.044291
  0
LINE
  8
CSLAYER1
  6
CONTINUOUS
 62
     3
 10
850.413096
 20
911.044291
 11
849.434234
 21
910.132667
  0
LINE
  8
CSLAYER1
  6
CONTINUOUS
 62
     3
 10
849.434234
 20
910.132667
 11
848.622983
 21
909.183151
  0
LINE
  8
CSLAYER1
  6
CONTINUOUS
 62
     3
 10
848.622983
 20
909.183151
 11
847.985516
 21
908.202969
  0
LINE
  8
CSLAYER1
  6
CONTINUOUS
 62
     3
 10
847.985516
 20
908.202969
 11
847.526685
 21
907.199582
  0
LINE
  8
CSLAYER1
  6
CONTINUOUS
 62
     3
 10
847.526685
 20
907.199582
 11
847.249982
 21
906.180625
  0
LINE
  8
CSLAYER1
  6
CONTINUOUS
 62
     3
 10
847.249982
 20
906.180625
 11
847.157514
 21
905.153855
  0
LINE
  8
CSLAYER1
  6
CONTINUOUS
 62
     3
 10
847.157514
 20
905.153855
 11
847.249982
 21
904.127084
  0
LINE
  8
CSLAYER1
  6
CONTINUOUS
 62
     3
 10
847.249982
 20
904.127084
 11
847.355274
 21
903.739349
  0
LINE
  8
CSLAYER1
  6
CONTINUOUS
 62
     3
 10
848.457514
 20
901.378987
 11
848.622983
 21
901.124558
  0
LINE
  8
CSLAYER1
  6
CONTINUOUS
 62
     3
 10
848.622983
 20
901.124558
 11
848.957514
 21
900.733012
  0
LINE
  8
CSLAYER1
  6
CONTINUOUS
 62
     3
 10
893.957514
 20
900.733012
 11
894.292044
 21
901.124558
  0
LINE
  8
CSLAYER1
  6
CONTINUOUS
 62
     3
 10
894.292044
 20
901.124558
 11
894.457514
 21
901.378987
  0
LINE
  8
CSLAYER1
  6
CONTINUOUS
 62
     3
 10
895.559753
 20
903.739349
 11
895.665045
 21
904.127084
  0
LINE
  8
CSLAYER1
  6
CONTINUOUS
 62
     3
 10
895.665045
 20
904.127084
 11
895.757514
 21
905.153855
  0
LINE
  8
CSLAYER1
  6
CONTINUOUS
 62
     3
 10
848.957514
 20
874.564959
 11
848.957514
 21
905.153855
  0
LINE
  8
CSLAYER1
  6
CONTINUOUS
 62
     3
 10
893.957514
 20
874.564959
 11
893.871894
 21
875.515672
  0
LINE
  8
CSLAYER1
  6
CONTINUOUS
 62
     3
 10
893.871894
 20
875.515672
 11
893.615688
 21
876.459151
  0
LINE
  8
CSLAYER1
  6
CONTINUOUS
 62
     3
 10
893.615688
 20
876.459151
 11
893.190845
 21
877.388213
  0
LINE
  8
CSLAYER1
  6
CONTINUOUS
 62
     3
 10
893.190845
 20
877.388213
 11
892.600598
 21
878.295788
  0
LINE
  8
CSLAYER1
  6
CONTINUOUS
 62
     3
 10
892.600598
 20
878.295788
 11
891.849439
 21
879.174970
  0
LINE
  8
CSLAYER1
  6
CONTINUOUS
 62
     3
 10
891.849439
 20
879.174970
 11
890.943085
 21
880.019067
  0
LINE
  8
CSLAYER1
  6
CONTINUOUS
 62
     3
 10
890.943085
 20
880.019067
 11
889.888435
 21
880.821655
  0
LINE
  8
CSLAYER1
  6
CONTINUOUS
 62
     3
 10
889.888435
 20
880.821655
 11
888.693514
 21
881.576625
  0
LINE
  8
CSLAYER1
  6
CONTINUOUS
 62
     3
 10
888.693514
 20
881.576625
 11
887.367416
 21
882.278232
  0
LINE
  8
CSLAYER1
  6
CONTINUOUS
 62
     3
 10
887.367416
 20
882.278232
 11
885.920235
 21
882.921137
  0
LINE
  8
CSLAYER1
  6
CONTINUOUS
 62
     3
 10
885.920235
 20
882.921137
 11
884.362983
 21
883.500446
  0
LINE
  8
CSLAYER1
  6
CONTINUOUS
 62
     3
 10
884.362983
 20
883.500446
 11
882.707514
 21
884.011751
  0
LINE
  8
CSLAYER1
  6
CONTINUOUS
 62
     3
 10
882.707514
 20
884.011751
 11
880.966425
 21
884.451160
  0
LINE
  8
CSLAYER1
  6
CONTINUOUS
 62
     3
 10
880.966425
 20
884.451160
 11
879.152967
 21
884.815329
  0
LINE
  8
CSLAYER1
  6
CONTINUOUS
 62
     3
 10
879.152967
 20
884.815329
 11
877.280942
 21
885.101487
  0
LINE
  8
CSLAYER1
  6
CONTINUOUS
 62
     3
 10
877.280942
 20
885.101487
 11
875.364598
 21
885.307455
  0
LINE
  8
CSLAYER1
  6
CONTINUOUS
 62
     3
 10
875.364598
 20
885.307455
 11
873.418518
 21
885.431666
  0
LINE
  8
CSLAYER1
  6
CONTINUOUS
 62
     3
 10
873.418518
 20
885.431666
 11
871.457514
 21
885.473175
  0
LINE
  8
CSLAYER1
  6
CONTINUOUS
 62
     3
 10
871.457514
 20
885.473175
 11
869.496509
 21
885.431666
  0
LINE
  8
CSLAYER1
  6
CONTINUOUS
 62
     3
 10
869.496509
 20
885.431666
 11
867.550430
 21
885.307455
  0
LINE
  8
CSLAYER1
  6
CONTINUOUS
 62
     3
 10
867.550430
 20
885.307455
 11
865.634085
 21
885.101487
  0
LINE
  8
CSLAYER1
  6
CONTINUOUS
 62
     3
 10
865.634085
 20
885.101487
 11
863.762060
 21
884.815329
  0
LINE
  8
CSLAYER1
  6
CONTINUOUS
 62
     3
 10
863.762060
 20
884.815329
 11
861.948603
 21
884.451160
  0
LINE
  8
CSLAYER1
  6
CONTINUOUS
 62
     3
 10
861.948603
 20
884.451160
 11
860.207514
 21
884.011751
  0
LINE
  8
CSLAYER1
  6
CONTINUOUS
 62
     3
 10
860.207514
 20
884.011751
 11
858.552044
 21
883.500446
  0
LINE
  8
CSLAYER1
  6
CONTINUOUS
 62
     3
 10
858.552044
 20
883.500446
 11
856.994792
 21
882.921137
  0
LINE
  8
CSLAYER1
  6
CONTINUOUS
 62
     3
 10
856.994792
 20
882.921137
 11
855.547611
 21
882.278232
  0
LINE
  8
CSLAYER1
  6
CONTINUOUS
 62
     3
 10
855.547611
 20
882.278232
 11
854.221514
 21
881.576625
  0
LINE
  8
CSLAYER1
  6
CONTINUOUS
 62
     3
 10
854.221514
 20
881.576625
 11
853.026593
 21
880.821655
  0
LINE
  8
CSLAYER1
  6
CONTINUOUS
 62
     3
 10
853.026593
 20
880.821655
 11
851.971942
 21
880.019067
  0
LINE
  8
CSLAYER1
  6
CONTINUOUS
 62
     3
 10
851.971942
 20
880.019067
 11
851.065588
 21
879.174970
  0
LINE
  8
CSLAYER1
  6
CONTINUOUS
 62
     3
 10
851.065588
 20
879.174970
 11
850.314430
 21
878.295788
  0
LINE
  8
CSLAYER1
  6
CONTINUOUS
 62
     3
 10
850.314430
 20
878.295788
 11
849.724183
 21
877.388213
  0
LINE
  8
CSLAYER1
  6
CONTINUOUS
 62
     3
 10
849.724183
 20
877.388213
 11
849.299339
 21
876.459151
  0
LINE
  8
CSLAYER1
  6
CONTINUOUS
 62
     3
 10
849.299339
 20
876.459151
 11
849.043133
 21
875.515672
  0
LINE
  8
CSLAYER1
  6
CONTINUOUS
 62
     3
 10
849.043133
 20
875.515672
 11
848.957514
 21
874.564959
  0
LINE
  8
CSLAYER1
  6
CONTINUOUS
 62
     3
 10
848.957514
 20
874.564959
 11
849.043133
 21
873.614245
  0
LINE
  8
CSLAYER1
  6
CONTINUOUS
 62
     3
 10
849.043133
 20
873.614245
 11
849.299339
 21
872.670767
  0
LINE
  8
CSLAYER1
  6
CONTINUOUS
 62
     3
 10
849.299339
 20
872.670767
 11
849.724183
 21
871.741704
  0
LINE
  8
CSLAYER1
  6
CONTINUOUS
 62
     3
 10
849.724183
 20
871.741704
 11
850.314430
 21
870.834129
  0
LINE
  8
CSLAYER1
  6
CONTINUOUS
 62
     3
 10
850.314430
 20
870.834129
 11
850.500835
 21
870.615954
  0
LINE
  8
CSLAYER1
  6
CONTINUOUS
 62
     3
 10
892.414192
 20
870.615954
 11
892.600598
 21
870.834129
  0
LINE
  8
CSLAYER1
  6
CONTINUOUS
 62
     3
 10
892.600598
 20
870.834129
 11
893.190845
 21
871.741704
  0
LINE
  8
CSLAYER1
  6
CONTINUOUS
 62
     3
 10
893.190845
 20
871.741704
 11
893.615688
 21
872.670767
  0
LINE
  8
CSLAYER1
  6
CONTINUOUS
 62
     3
 10
893.615688
 20
872.670767
 11
893.871894
 21
873.614245
  0
LINE
  8
CSLAYER1
  6
CONTINUOUS
 62
     3
 10
893.871894
 20
873.614245
 11
893.957514
 21
874.564959
  0
LINE
  8
CSLAYER1
  6
CENTER
 62
     5
 10
831.457514
 20
841.624591
 11
831.457514
 21
983.716579
  0
LINE
  8
CSLAYER1
  6
CONTINUOUS
 62
     3
 10
838.457514
 20
996.380387
 11
824.457514
 21
996.380387
  0
LINE
  8
CSLAYER1
  6
CONTINUOUS
 62
     3
 10
838.457514
 20
988.580387
 11
824.457514
 21
988.580387
  0
LINE
  8
CSLAYER1
  6
CONTINUOUS
 62
     3
 10
837.889445
 20
983.380387
 11
825.025582
 21
983.380387
  0
LINE
  8
CSLAYER1
  6
CONTINUOUS
 62
     3
 10
837.457514
 20
981.380387
 11
825.457514
 21
981.380387
  0
LINE
  8
CSLAYER1
  6
CONTINUOUS
 62
     3
 10
837.457514
 20
974.380387
 11
825.457514
 21
974.380387
  0
LINE
  8
CSLAYER1
  6
CONTINUOUS
 62
     3
 10
836.340540
 20
949.380387
 11
826.574487
 21
949.380387
  0
LINE
  8
CSLAYER1
  6
CONTINUOUS
 62
     3
 10
836.957514
 20
971.380387
 11
836.957514
 21
974.380387
  0
LINE
  8
CSLAYER1
  6
CONTINUOUS
 62
     3
 10
839.540417
 20
989.205602
 11
839.540417
 21
995.755172
  0
LINE
  8
CSLAYER1
  6
CONTINUOUS
 62
     3
 10
835.498966
 20
989.205602
 11
835.498966
 21
995.755172
  0
ARC
  8
CSLAYER1
  6
CONTINUOUS
 62
     3
 10
808.769743
 20
988.622608
 40
29.587800
 50
345.831727
 51
359.918240
  0
ARC
  8
CSLAYER1
  6
CONTINUOUS
 62
     3
 10
854.145284
 20
988.622608
 40
29.587800
 50
180.081760
 51
194.168273
  0
LINE
  8
CSLAYER1
  6
CONTINUOUS
 62
     3
 10
835.804828
 20
981.380387
 11
835.804828
 21
983.380387
  0
LINE
  8
CSLAYER1
  6
CONTINUOUS
 62
     3
 10
833.823062
 20
981.380387
 11
833.823062
 21
983.380387
  0
LINE
  8
CSLAYER1
  6
CONTINUOUS
 62
     3
 10
827.110200
 20
981.380387
 11
827.110200
 21
983.380387
  0
LINE
  8
CSLAYER1
  6
CONTINUOUS
 62
     3
 10
829.091965
 20
981.380387
 11
829.091965
 21
983.380387
  0
LINE
  8
CSLAYER1
  6
CONTINUOUS
 62
     3
 10
838.457514
 20
996.380387
 11
839.540417
 21
995.755172
  0
ARC
  8
CSLAYER1
  6
CONTINUOUS
 62
     3
 10
837.519691
 20
992.828758
 40
3.556295
 50
64.625569
 51
124.625569
  0
ARC
  8
CSLAYER1
  6
CONTINUOUS
 62
     3
 10
831.457514
 20
983.005602
 40
13.374785
 50
72.412046
 51
90.000000
  0
LINE
  8
CSLAYER1
  6
CONTINUOUS
 62
     3
 10
838.457514
 20
988.580387
 11
839.540417
 21
989.205602
  0
ARC
  8
CSLAYER1
  6
CONTINUOUS
 62
     3
 10
837.519691
 20
992.132016
 40
3.556295
 50
235.374431
 51
295.374431
  0
ARC
  8
CSLAYER1
  6
CONTINUOUS
 62
     3
 10
831.457514
 20
1001.955172
 40
13.374785
 50
270.000000
 51
287.587954
  0
LINE
  8
CSLAYER1
  6
CONTINUOUS
 62
     3
 10
823.374610
 20
989.205602
 11
823.374610
 21
995.755172
  0
LINE
  8
CSLAYER1
  6
CONTINUOUS
 62
     3
 10
827.416062
 20
989.205602
 11
827.416062
 21
995.755172
  0
LINE
  8
CSLAYER1
  6
CONTINUOUS
 62
     3
 10
824.457514
 20
996.380387
 11
823.374610
 21
995.755172
  0
ARC
  8
CSLAYER1
  6
CONTINUOUS
 62
     3
 10
825.395336
 20
992.828758
 40
3.556295
 50
55.374431
 51
115.374431
  0
ARC
  8
CSLAYER1
  6
CONTINUOUS
 62
     3
 10
831.457514
 20
983.005602
 40
13.374785
 50
90.000000
 51
107.587954
  0
LINE
  8
CSLAYER1
  6
CONTINUOUS
 62
     3
 10
824.457514
 20
988.580387
 11
823.374610
 21
989.205602
  0
ARC
  8
CSLAYER1
  6
CONTINUOUS
 62
     3
 10
825.395336
 20
992.132016
 40
3.556295
 50
244.625569
 51
304.625569
  0
ARC
  8
CSLAYER1
  6
CONTINUOUS
 62
     3
 10
831.457514
 20
1001.955172
 40
13.374785
 50
252.412046
 51
270.000000
  0
LINE
  8
CSLAYER1
  6
CONTINUOUS
 62
     3
 10
838.385717
 20
974.916285
 11
838.385717
 21
980.644488
  0
LINE
  8
CSLAYER1
  6
CONTINUOUS
 62
     3
 10
834.921615
 20
974.916285
 11
834.921615
 21
980.644488
  0
LINE
  8
CSLAYER1
  6
CONTINUOUS
 62
     3
 10
837.457514
 20
974.380387
 11
838.385717
 21
974.916285
  0
ARC
  8
CSLAYER1
  6
CONTINUOUS
 62
     3
 10
831.457514
 20
985.844488
 40
11.464102
 50
270.000000
 51
287.821405
  0
ARC
  8
CSLAYER1
  6
CONTINUOUS
 62
     3
 10
836.653666
 20
977.446315
 40
3.066114
 50
236.143645
 51
295.804157
  0
LINE
  8
CSLAYER1
  6
CONTINUOUS
 62
     3
 10
837.457514
 20
981.180387
 11
838.385717
 21
980.644488
  0
ARC
  8
CSLAYER1
  6
CONTINUOUS
 62
     3
 10
831.457514
 20
969.716285
 40
11.464102
 50
72.178595
 51
90.000000
  0
ARC
  8
CSLAYER1
  6
CONTINUOUS
 62
     3
 10
836.653666
 20
978.114458
 40
3.066114
 50
64.195843
 51
123.856355
  0
LINE
  8
CSLAYER1
  6
CONTINUOUS
 62
     3
 10
837.457514
 20
981.180387
 11
825.457514
 21
981.180387
  0
LINE
  8
CSLAYER1
  6
CONTINUOUS
 62
     3
 10
834.921615
 20
981.180387
 11
834.921615
 21
981.380387
  0
LINE
  8
CSLAYER1
  6
CONTINUOUS
 62
     3
 10
825.957514
 20
971.380387
 11
825.957514
 21
974.380387
  0
LINE
  8
CSLAYER1
  6
CONTINUOUS
 62
     3
 10
824.529310
 20
974.916285
 11
824.529310
 21
980.644488
  0
LINE
  8
CSLAYER1
  6
CONTINUOUS
 62
     3
 10
827.993412
 20
974.916285
 11
827.993412
 21
980.644488
  0
LINE
  8
CSLAYER1
  6
CONTINUOUS
 62
     3
 10
825.457514
 20
974.380387
 11
824.529310
 21
974.916285
  0
ARC
  8
CSLAYER1
  6
CONTINUOUS
 62
     3
 10
831.457514
 20
985.844488
 40
11.464102
 50
252.178595
 51
270.000000
  0
ARC
  8
CSLAYER1
  6
CONTINUOUS
 62
     3
 10
826.261361
 20
977.446315
 40
3.066114
 50
244.195843
 51
303.856355
  0
LINE
  8
CSLAYER1
  6
CONTINUOUS
 62
     3
 10
825.457514
 20
981.180387
 11
824.529310
 21
980.644488
  0
ARC
  8
CSLAYER1
  6
CONTINUOUS
 62
     3
 10
831.457514
 20
969.716285
 40
11.464102
 50
90.000000
 51
107.821405
  0
ARC
  8
CSLAYER1
  6
CONTINUOUS
 62
     3
 10
826.261361
 20
978.114458
 40
3.066114
 50
56.143645
 51
115.804157
  0
LINE
  8
CSLAYER1
  6
CONTINUOUS
 62
     3
 10
827.993412
 20
981.180387
 11
827.993412
 21
981.380387
  0
LINE
  8
CSLAYER1
  6
CONTINUOUS
 62
     3
 10
838.385717
 20
962.380387
 11
838.385717
 21
970.844488
  0
LINE
  8
CSLAYER1
  6
CONTINUOUS
 62
     3
 10
834.921615
 20
962.380387
 11
834.921615
 21
970.844488
  0
LINE
  8
CSLAYER1
  6
CONTINUOUS
 62
     3
 10
837.457514
 20
971.380387
 11
838.385717
 21
970.844488
  0
ARC
  8
CSLAYER1
  6
CONTINUOUS
 62
     3
 10
831.457514
 20
959.916285
 40
11.464102
 50
72.178595
 51
90.000000
  0
ARC
  8
CSLAYER1
  6
CONTINUOUS
 62
     3
 10
836.653666
 20
968.314458
 40
3.066114
 50
64.195843
 51
123.856355
  0
LINE
  8
CSLAYER1
  6
CONTINUOUS
 62
     3
 10
837.457514
 20
971.380387
 11
825.457514
 21
971.380387
  0
LINE
  8
CSLAYER1
  6
CONTINUOUS
 62
     3
 10
824.529310
 20
962.380387
 11
824.529310
 21
970.844488
  0
LINE
  8
CSLAYER1
  6
CONTINUOUS
 62
     3
 10
827.993412
 20
962.380387
 11
827.993412
 21
970.844488
  0
LINE
  8
CSLAYER1
  6
CONTINUOUS
 62
     3
 10
825.457514
 20
971.380387
 11
824.529310
 21
970.844488
  0
ARC
  8
CSLAYER1
  6
CONTINUOUS
 62
     3
 10
831.457514
 20
959.916285
 40
11.464102
 50
90.000000
 51
107.821405
  0
ARC
  8
CSLAYER1
  6
CONTINUOUS
 62
     3
 10
826.261361
 20
968.314458
 40
3.066114
 50
56.143645
 51
115.804157
  0
LINE
  8
CSLAYER1
  6
CONTINUOUS
 62
     3
 10
837.336795
 20
950.293927
 11
838.385717
 21
962.380387
  0
ARC
  8
CSLAYER1
  6
CONTINUOUS
 62
     3
 10
816.280025
 20
962.380387
 40
18.641590
 50
330.443788
 51
360.000000
  0
ARC
  8
CSLAYER1
  6
CONTINUOUS
 62
     3
 10
831.457514
 20
953.820241
 40
1.217263
 50
270.000000
 51
329.421532
  0
ARC
  8
CSLAYER1
  6
CONTINUOUS
 62
     3
 10
853.563205
 20
962.380387
 40
18.641590
 50
180.000000
 51
209.556212
  0
ARC
  8
CSLAYER1
  6
CONTINUOUS
 62
     3
 10
838.385717
 20
953.820241
 40
1.217263
 50
210.578468
 51
227.594217
  0
ARC
  8
CSLAYER1
  6
CONTINUOUS
 62
     3
 10
836.340540
 20
950.380387
 40
1.000000
 50
270.000000
 51
355.040021
  0
LINE
  8
CSLAYER1
  6
CONTINUOUS
 62
     3
 10
825.578232
 20
950.293927
 11
824.529310
 21
962.380387
  0
ARC
  8
CSLAYER1
  6
CONTINUOUS
 62
     3
 10
846.635002
 20
962.380387
 40
18.641590
 50
180.000000
 51
209.556212
  0
ARC
  8
CSLAYER1
  6
CONTINUOUS
 62
     3
 10
831.457514
 20
953.820241
 40
1.217263
 50
210.578468
 51
270.000000
  0
ARC
  8
CSLAYER1
  6
CONTINUOUS
 62
     3
 10
809.351822
 20
962.380387
 40
18.641590
 50
330.443788
 51
360.000000
  0
ARC
  8
CSLAYER1
  6
CONTINUOUS
 62
     3
 10
824.529310
 20
953.820241
 40
1.217263
 50
312.405783
 51
329.421532
  0
ARC
  8
CSLAYER1
  6
CONTINUOUS
 62
     3
 10
826.574487
 20
950.380387
 40
1.000000
 50
184.959979
 51
270.000000
  0
LINE
  8
CSLAYER1
  6
CONTINUOUS
 62
     3
 10
836.340540
 20
1016.080387
 11
826.574487
 21
1016.080387
  0
LINE
  8
CSLAYER1
  6
CENTER
 62
     5
 10
843.957514
 20
1009.080387
 11
838.457514
 21
1009.080387
  0
LINE
  8
CSLAYER1
  6
CONTINUOUS
 62
     3
 10
824.457514
 20
1002.080387
 11
824.457514
 21
1014.580387
  0
LINE
  8
CSLAYER1
  6
CONTINUOUS
 62
     3
 10
838.457514
 20
1016.080387
 11
825.957514
 21
1016.080387
  0
LINE
  8
CSLAYER1
  6
CONTINUOUS
 62
     3
 10
838.457514
 20
1002.080387
 11
824.457514
 21
1002.080387
  0
LINE
  8
CSLAYER1
  6
CONTINUOUS
 62
     3
 10
838.457514
 20
1002.080387
 11
838.457514
 21
1016.077942
  0
LINE
  8
CSLAYER1
  6
CONTINUOUS
 62
     3
 10
836.057514
 20
996.380387
 11
836.057514
 21
1002.080387
  0
LINE
  8
CSLAYER1
  6
CONTINUOUS
 62
     5
 10
835.457514
 20
996.380387
 11
835.457514
 21
1001.041156
  0
LINE
  8
CSLAYER1
  6
CONTINUOUS
 62
     5
 10
836.057514
 20
1002.080387
 11
835.457514
 21
1001.041156
  0
LINE
  8
CSLAYER1
  6
CONTINUOUS
 62
     3
 10
826.857514
 20
996.380387
 11
826.857514
 21
1002.080387
  0
LINE
  8
CSLAYER1
  6
CONTINUOUS
 62
     5
 10
826.857514
 20
1002.080387
 11
827.457514
 21
1001.041156
  0
LINE
  8
CSLAYER1
  6
CONTINUOUS
 62
     5
 10
836.057514
 20
1001.041156
 11
826.857514
 21
1001.041156
  0
LINE
  8
CSLAYER1
  6
CONTINUOUS
 62
     3
 10
843.957514
 20
1004.228601
 11
838.457514
 21
1004.130387
  0
LINE
  8
CSLAYER1
  6
CONTINUOUS
 62
     5
 10
843.957514
 20
1004.928713
 11
838.445016
 21
1004.830275
  0
LINE
  8
CSLAYER1
  6
CONTINUOUS
 62
     3
 10
843.957514
 20
1013.932173
 11
838.457514
 21
1014.030387
  0
LINE
  8
CSLAYER1
  6
CONTINUOUS
 62
     5
 10
843.957514
 20
1013.232061
 11
838.445016
 21
1013.330498
  0
ARC
  8
CSLAYER1
  6
CONTINUOUS
 62
     3
 10
825.957514
 20
1014.580387
 40
1.500000
 50
90.000000
 51
180.000000
  0
LINE
  8
CSLAYER1
  6
CONTINUOUS
 62
     3
 10
849.957514
 20
1167.051150
 11
853.457514
 21
1167.051150
  0
LINE
  8
CSLAYER1
  6
CONTINUOUS
 62
     3
 10
848.957514
 20
1168.051150
 11
849.957514
 21
1167.051150
  0
LINE
  8
CSLAYER1
  6
CONTINUOUS
 62
     3
 10
892.957514
 20
1167.051150
 11
893.957514
 21
1168.051150
  0
LINE
  8
CSLAYER1
  6
CONTINUOUS
 62
     3
 10
894.957514
 20
1172.651150
 11
893.957514
 21
1172.651150
  0
LINE
  8
CSLAYER1
  6
CONTINUOUS
 62
     3
 10
848.957514
 20
1172.651150
 11
847.957514
 21
1172.651150
  0
LINE
  8
CSLAYER1
  6
CONTINUOUS
 62
     3
 10
835.957514
 20
1197.651150
 11
847.957514
 21
1197.651150
  0
LINE
  8
CSLAYER1
  6
CONTINUOUS
 62
     3
 10
835.957514
 20
1106.242881
 11
847.957514
 21
1106.242881
  0
LINE
  8
CSLAYER1
  6
CONTINUOUS
 62
     3
 10
894.957514
 20
1106.242881
 11
894.957514
 21
1197.651150
  0
LINE
  8
CSLAYER1
  6
CONTINUOUS
 62
     3
 10
847.957514
 20
1106.242881
 11
847.957514
 21
1197.651150
  0
LINE
  8
CSLAYER1
  6
CONTINUOUS
 62
     3
 10
835.957514
 20
1106.242881
 11
835.957514
 21
1197.651150
  0
LINE
  8
CSLAYER1
  6
CONTINUOUS
 62
     3
 10
894.957514
 20
1106.242881
 11
906.957514
 21
1106.242881
  0
LINE
  8
CSLAYER1
  6
CONTINUOUS
 62
     3
 10
889.457514
 20
1076.534803
 11
906.957514
 21
1076.534803
  0
LINE
  8
CSLAYER1
  6
CONTINUOUS
 62
     3
 10
847.957514
 20
1125.134803
 11
853.457514
 21
1125.134803
  0
LINE
  8
CSLAYER1
  6
CONTINUOUS
 62
     3
 10
889.457514
 20
1125.134803
 11
894.957514
 21
1125.134803
  0
LINE
  8
CSLAYER1
  6
CONTINUOUS
 62
     3
 10
894.957514
 20
1197.651150
 11
906.957514
 21
1197.651150
  0
LINE
  8
CSLAYER1
  6
CONTINUOUS
 62
     3
 10
814.957514
 20
1188.651150
 11
835.957514
 21
1188.651150
  0
LINE
  8
CSLAYER1
  6
CONTINUOUS
 62
     3
 10
814.957514
 20
1172.651150
 11
835.957514
 21
1172.651150
  0
LINE
  8
CSLAYER1
  6
CONTINUOUS
 62
     3
 10
860.957514
 20
1285.272290
 11
906.957514
 21
1285.272290
  0
LINE
  8
CSLAYER1
  6
CONTINUOUS
 62
     3
 10
802.957514
 20
1105.855464
 11
802.957514
 21
1099.355464
  0
LINE
  8
CSLAYER1
  6
CONTINUOUS
 62
     3
 10
805.957514
 20
1105.855464
 11
805.957514
 21
1099.355464
  0
LINE
  8
CSLAYER1
  6
CONTINUOUS
 62
     3
 10
802.957514
 20
1105.855464
 11
805.957514
 21
1105.855464
  0
LINE
  8
CSLAYER1
  6
CONTINUOUS
 62
     3
 10
802.957514
 20
1077.855464
 11
802.957514
 21
1084.355464
  0
LINE
  8
CSLAYER1
  6
CONTINUOUS
 62
     3
 10
805.957514
 20
1077.855464
 11
805.957514
 21
1084.355464
  0
LINE
  8
CSLAYER1
  6
CONTINUOUS
 62
     3
 10
802.957514
 20
1077.855464
 11
805.957514
 21
1077.855464
  0
LINE
  8
CSLAYER1
  6
CONTINUOUS
 62
     3
 10
805.957514
 20
870.615954
 11
802.957514
 21
870.615954
  0
LINE
  8
CSLAYER1
  6
CONTINUOUS
 62
     3
 10
804.957514
 20
1377.446192
 11
805.957514
 21
1377.446192
  0
LINE
  8
CSLAYER1
  6
CONTINUOUS
 62
     3
 10
803.957514
 20
1391.096192
 11
803.957514
 21
1378.446192
  0
LINE
  8
CSLAYER1
  6
CONTINUOUS
 62
     3
 10
803.957514
 20
1378.446192
 11
804.957514
 21
1377.446192
  0
LINE
  8
CSLAYER1
  6
CONTINUOUS
 62
     3
 10
804.957514
 20
1391.096192
 11
804.957514
 21
1377.446192
  0
LINE
  8
CSLAYER1
  6
CONTINUOUS
 62
     3
 10
803.457514
 20
1375.596192
 11
797.457514
 21
1375.596192
  0
LINE
  8
CSLAYER1
  6
CONTINUOUS
 62
     3
 10
797.457514
 20
1391.096192
 11
797.457514
 21
1375.596192
  0
LINE
  8
CSLAYER1
  6
CONTINUOUS
 62
     3
 10
803.457514
 20
1391.096192
 11
803.457514
 21
1375.596192
  0
LINE
  8
CSLAYER1
  6
CONTINUOUS
 62
     3
 10
814.957514
 20
1377.446192
 11
860.957514
 21
1377.446192
  0
LINE
  8
CSLAYER1
  6
CONTINUOUS
 62
     3
 10
794.457514
 20
1375.126537
 11
794.457514
 21
1391.096192
  0
LINE
  8
CSLAYER1
  6
CONTINUOUS
 62
     3
 10
797.457514
 20
1375.346192
 11
794.457514
 21
1375.346192
  0
LINE
  8
CSLAYER1
  6
CONTINUOUS
 62
     3
 10
797.457514
 20
1384.583995
 11
794.618488
 21
1387.896192
  0
LINE
  8
CSLAYER1
  6
CONTINUOUS
 62
     3
 10
786.457514
 20
1386.096192
 11
786.457514
 21
1387.896192
  0
ARC
  8
CSLAYER1
  6
CONTINUOUS
 62
     3
 10
800.253258
 20
1386.096192
 40
13.795744
 50
158.750456
 51
180.000000
  0
LINE
  8
CSLAYER1
  6
CONTINUOUS
 62
     3
 10
786.457514
 20
1391.096192
 11
786.457514
 21
1377.096192
  0
LINE
  8
CSLAYER1
  6
CONTINUOUS
 62
     3
 10
794.457514
 20
1380.611364
 11
787.594695
 21
1380.611364
  0
LINE
  8
CSLAYER1
  6
CONTINUOUS
 62
     3
 10
794.457514
 20
1375.126537
 11
787.594695
 21
1375.126537
  0
LINE
  8
CSLAYER1
  6
CONTINUOUS
 62
     3
 10
786.457514
 20
1377.096192
 11
787.594695
 21
1375.126537
  0
ARC
  8
CSLAYER1
  6
CONTINUOUS
 62
     3
 10
790.237558
 20
1377.868951
 40
3.808617
 50
133.940972
 51
174.338367
  0
ARC
  8
CSLAYER1
  6
CONTINUOUS
 62
     3
 10
800.253258
 20
1386.096192
 40
13.795744
 50
180.000000
 51
203.426598
  0
LINE
  8
CSLAYER1
  6
CONTINUOUS
 62
     3
 10
860.957514
 20
1285.272290
 11
814.957514
 21
1285.272290
  0
LINE
  8
CSLAYER1
  6
CONTINUOUS
 62
     3
 10
814.957514
 20
841.624591
 11
814.957514
 21
1391.096192
  0
LINE
  8
CSLAYER1
  6
CONTINUOUS
 62
     3
 10
805.957514
 20
841.624591
 11
805.957514
 21
1391.096192
  0
LINE
  8
CSLAYER1
  6
CONTINUOUS
 62
     3
 10
802.957514
 20
841.624591
 11
802.957514
 21
1375.596192
  0
LINE
  8
CSLAYER1
  6
CONTINUOUS
 62
     3
 10
793.957514
 20
841.624591
 11
793.957514
 21
1375.126537
  0
LINE
  8
CSLAYER1
  6
CONTINUOUS
 62
     3
 10
814.957514
 20
870.615954
 11
827.307514
 21
870.615954
  0
LINE
  8
CSLAYER1
  6
CONTINUOUS
 62
     3
 10
775.957514
 20
1391.096192
 11
780.457514
 21
1391.096192
  0
LINE
  8
CSLAYER1
  6
CONTINUOUS
 62
     3
 10
945.957514
 20
1391.096192
 11
941.457514
 21
1391.096192
  0
LINE
  8
CSLAYER1
  6
CONTINUOUS
 62
     3
 10
889.457514
 20
1167.051150
 11
892.957514
 21
1167.051150
  0
LINE
  8
CSLAYER1
  6
CONTINUOUS
 62
     3
 10
827.307514
 20
841.624591
 11
827.307514
 21
949.380387
  0
LINE
  8
CSLAYER1
  6
CONTINUOUS
 62
     3
 10
835.607514
 20
841.624591
 11
835.607514
 21
949.380387
  0
LINE
  8
CSLAYER1
  6
CONTINUOUS
 62
     3
 10
835.607514
 20
870.615954
 11
842.457514
 21
870.615954
  0
CIRCLE
  8
CSLAYER1
  6
CONTINUOUS
 62
     3
 10
830.957514
 20
813.274591
 40
4.150000
  0
LINE
  8
CSLAYER1
  6
CONTINUOUS
 62
     5
 10
827.457514
 20
996.380387
 11
827.457514
 21
1001.041156
  0
DIMENSION
  8
CSLAYER1
 62
     3
  2
*D0010
 10
1077.344110
 20
807.624591
 11
1130.210938
 21
825.489563
 13
1010.957514
 23
801.624591
 14
1010.957514
 24
807.624591
 50
90.000000
 70
1
  0
LINE
  8
CSLAYER1
  6
CENTER
 62
     5
 10
786.457514
 20
1386.096192
 11
935.457514
 21
1386.096192
  0
LINE
  8
CSLAYER1
  6
CONTINUOUS
 62
     1
 10
944.307514
 20
1086.705464
 11
943.757514
 21
1086.705464
  0
LINE
  8
CSLAYER1
  6
CONTINUOUS
 62
     1
 10
944.307514
 20
1097.005464
 11
943.757514
 21
1097.005464
  0
LINE
  8
CSLAYER1
  6
CONTINUOUS
 62
     4
 10
933.757514
 20
1091.855464
 11
933.757514
 21
1080.885809
  0
LINE
  8
CSLAYER1
  6
CONTINUOUS
 62
     4
 10
943.757514
 20
1091.855464
 11
943.757514
 21
1082.355464
  0
LINE
  8
CSLAYER1
  6
CONTINUOUS
 62
     4
 10
933.757514
 20
1080.885809
 11
942.909008
 21
1080.885809
  0
LINE
  8
CSLAYER1
  6
CONTINUOUS
 62
     4
 10
933.757514
 20
1086.370637
 11
942.909008
 21
1086.370637
  0
LINE
  8
CSLAYER1
  6
CONTINUOUS
 62
     4
 10
943.757514
 20
1082.355464
 11
942.909008
 21
1080.885809
  0
ARC
  8
CSLAYER1
  6
CONTINUOUS
 62
     4
 10
925.606019
 20
1091.855464
 40
18.151494
 50
342.412046
 51
360.000000
  0
ARC
  8
CSLAYER1
  6
CONTINUOUS
 62
     4
 10
938.908185
 20
1083.628223
 40
4.850507
 50
-25.570827
 51
34.796733
  0
LINE
  8
CSLAYER1
  6
CONTINUOUS
 62
     4
 10
933.757514
 20
1081.105464
 11
930.757514
 21
1081.105464
  0
LINE
  8
CSLAYER1
  6
CONTINUOUS
 62
     4
 10
930.757514
 20
1079.855464
 11
928.457514
 21
1079.855464
  0
LINE
  8
CSLAYER1
  6
CONTINUOUS
 62
     4
 10
928.457514
 20
1091.855464
 11
928.457514
 21
1079.855464
  0
LINE
  8
CSLAYER1
  6
CONTINUOUS
 62
     4
 10
930.757514
 20
1091.855464
 11
930.757514
 21
1079.855464
  0
LINE
  8
CSLAYER1
  6
CONTINUOUS
 62
     4
 10
944.457514
 20
1091.855464
 11
944.457514
 21
1086.855464
  0
LINE
  8
CSLAYER1
  6
CONTINUOUS
 62
     4
 10
943.757514
 20
1086.155464
 11
944.457514
 21
1086.855464
  0
LINE
  8
CSLAYER1
  6
CONTINUOUS
 62
     4
 10
933.757514
 20
1091.855464
 11
933.757514
 21
1102.825120
  0
LINE
  8
CSLAYER1
  6
CONTINUOUS
 62
     4
 10
943.757514
 20
1091.855464
 11
943.757514
 21
1101.355464
  0
LINE
  8
CSLAYER1
  6
CONTINUOUS
 62
     4
 10
933.757514
 20
1102.825120
 11
942.909008
 21
1102.825120
  0
LINE
  8
CSLAYER1
  6
CONTINUOUS
 62
     4
 10
933.757514
 20
1097.340292
 11
942.909008
 21
1097.340292
  0
LINE
  8
CSLAYER1
  6
CONTINUOUS
 62
     4
 10
943.757514
 20
1101.355464
 11
942.909008
 21
1102.825120
  0
ARC
  8
CSLAYER1
  6
CONTINUOUS
 62
     4
 10
925.606019
 20
1091.855464
 40
18.151494
 50
0.000000
 51
17.587954
  0
ARC
  8
CSLAYER1
  6
CONTINUOUS
 62
     4
 10
938.908185
 20
1100.082706
 40
4.850507
 50
-34.796733
 51
25.570827
  0
LINE
  8
CSLAYER1
  6
CONTINUOUS
 62
     4
 10
933.757514
 20
1102.605464
 11
930.757514
 21
1102.605464
  0
LINE
  8
CSLAYER1
  6
CONTINUOUS
 62
     4
 10
930.757514
 20
1103.855464
 11
928.457514
 21
1103.855464
  0
LINE
  8
CSLAYER1
  6
CONTINUOUS
 62
     4
 10
928.457514
 20
1091.855464
 11
928.457514
 21
1103.855464
  0
LINE
  8
CSLAYER1
  6
CONTINUOUS
 62
     4
 10
930.757514
 20
1091.855464
 11
930.757514
 21
1103.855464
  0
LINE
  8
CSLAYER1
  6
CONTINUOUS
 62
     4
 10
944.457514
 20
1091.855464
 11
944.457514
 21
1096.855464
  0
LINE
  8
CSLAYER1
  6
CONTINUOUS
 62
     4
 10
943.757514
 20
1097.555464
 11
944.457514
 21
1096.855464
  0
LINE
  8
CSLAYER1
  6
CONTINUOUS
 62
     4
 10
928.457514
 20
1091.855464
 11
928.457514
 21
1079.855464
  0
LINE
  8
CSLAYER1
  6
CONTINUOUS
 62
     4
 10
927.957514
 20
1083.355464
 11
928.457514
 21
1083.855464
  0
LINE
  8
CSLAYER1
  6
CONTINUOUS
 62
     4
 10
927.957514
 20
1100.355464
 11
928.457514
 21
1099.855464
  0
LINE
  8
CSLAYER1
  6
CONTINUOUS
 62
     1
 10
777.607514
 20
1086.705464
 11
778.157514
 21
1086.705464
  0
LINE
  8
CSLAYER1
  6
CONTINUOUS
 62
     1
 10
777.607514
 20
1097.005464
 11
778.157514
 21
1097.005464
  0
LINE
  8
CSLAYER1
  6
CONTINUOUS
 62
     4
 10
788.157514
 20
1091.855464
 11
788.157514
 21
1080.885809
  0
LINE
  8
CSLAYER1
  6
CONTINUOUS
 62
     4
 10
778.157514
 20
1091.855464
 11
778.157514
 21
1082.355464
  0
LINE
  8
CSLAYER1
  6
CONTINUOUS
 62
     4
 10
788.157514
 20
1080.885809
 11
779.006019
 21
1080.885809
  0
LINE
  8
CSLAYER1
  6
CONTINUOUS
 62
     4
 10
788.157514
 20
1086.370637
 11
779.006019
 21
1086.370637
  0
LINE
  8
CSLAYER1
  6
CONTINUOUS
 62
     4
 10
778.157514
 20
1082.355464
 11
779.006019
 21
1080.885809
  0
ARC
  8
CSLAYER1
  6
CONTINUOUS
 62
     4
 10
796.309008
 20
1091.855464
 40
18.151494
 50
180.000000
 51
197.587954
  0
ARC
  8
CSLAYER1
  6
CONTINUOUS
 62
     4
 10
783.006842
 20
1083.628223
 40
4.850507
 50
145.203267
 51
205.570827
  0
LINE
  8
CSLAYER1
  6
CONTINUOUS
 62
     4
 10
788.157514
 20
1081.105464
 11
791.157514
 21
1081.105464
  0
LINE
  8
CSLAYER1
  6
CONTINUOUS
 62
     4
 10
791.157514
 20
1079.855464
 11
793.457514
 21
1079.855464
  0
LINE
  8
CSLAYER1
  6
CONTINUOUS
 62
     4
 10
793.457514
 20
1091.855464
 11
793.457514
 21
1079.855464
  0
LINE
  8
CSLAYER1
  6
CONTINUOUS
 62
     4
 10
791.157514
 20
1091.855464
 11
791.157514
 21
1079.855464
  0
LINE
  8
CSLAYER1
  6
CONTINUOUS
 62
     4
 10
777.457514
 20
1091.855464
 11
777.457514
 21
1086.855464
  0
LINE
  8
CSLAYER1
  6
CONTINUOUS
 62
     4
 10
778.157514
 20
1086.155464
 11
777.457514
 21
1086.855464
  0
LINE
  8
CSLAYER1
  6
CONTINUOUS
 62
     4
 10
788.157514
 20
1091.855464
 11
788.157514
 21
1102.825120
  0
LINE
  8
CSLAYER1
  6
CONTINUOUS
 62
     4
 10
778.157514
 20
1091.855464
 11
778.157514
 21
1101.355464
  0
LINE
  8
CSLAYER1
  6
CONTINUOUS
 62
     4
 10
788.157514
 20
1102.825120
 11
779.006019
 21
1102.825120
  0
LINE
  8
CSLAYER1
  6
CONTINUOUS
 62
     4
 10
788.157514
 20
1097.340292
 11
779.006019
 21
1097.340292
  0
LINE
  8
CSLAYER1
  6
CONTINUOUS
 62
     4
 10
778.157514
 20
1101.355464
 11
779.006019
 21
1102.825120
  0
ARC
  8
CSLAYER1
  6
CONTINUOUS
 62
     4
 10
796.309008
 20
1091.855464
 40
18.151494
 50
162.412046
 51
180.000000
  0
ARC
  8
CSLAYER1
  6
CONTINUOUS
 62
     4
 10
783.006842
 20
1100.082706
 40
4.850507
 50
154.429173
 51
214.796733
  0
LINE
  8
CSLAYER1
  6
CONTINUOUS
 62
     4
 10
788.157514
 20
1102.605464
 11
791.157514
 21
1102.605464
  0
LINE
  8
CSLAYER1
  6
CONTINUOUS
 62
     4
 10
791.157514
 20
1103.855464
 11
793.457514
 21
1103.855464
  0
LINE
  8
CSLAYER1
  6
CONTINUOUS
 62
     4
 10
793.457514
 20
1091.855464
 11
793.457514
 21
1103.855464
  0
LINE
  8
CSLAYER1
  6
CONTINUOUS
 62
     4
 10
791.157514
 20
1091.855464
 11
791.157514
 21
1103.855464
  0
LINE
  8
CSLAYER1
  6
CONTINUOUS
 62
     4
 10
777.457514
 20
1091.855464
 11
777.457514
 21
1096.855464
  0
LINE
  8
CSLAYER1
  6
CONTINUOUS
 62
     4
 10
778.157514
 20
1097.555464
 11
777.457514
 21
1096.855464
  0
LINE
  8
CSLAYER1
  6
CONTINUOUS
 62
     4
 10
793.457514
 20
1091.855464
 11
793.457514
 21
1079.855464
  0
LINE
  8
CSLAYER1
  6
CONTINUOUS
 62
     4
 10
793.957514
 20
1083.355464
 11
793.457514
 21
1083.855464
  0
LINE
  8
CSLAYER1
  6
CONTINUOUS
 62
     4
 10
793.957514
 20
1100.355464
 11
793.457514
 21
1099.855464
  0
LINE
  8
CSLAYER1
  6
CONTINUOUS
 62
     3
 10
814.957514
 20
1066.692389
 11
853.457514
 21
1066.692389
  0
LINE
  8
CSLAYER1
  6
CONTINUOUS
 62
     3
 10
814.957514
 20
1064.447414
 11
853.457514
 21
1064.447414
  0
LINE
  8
CSLAYER1
  6
CONTINUOUS
 62
     3
 10
889.457514
 20
1066.692389
 11
906.957514
 21
1066.692389
  0
LINE
  8
CSLAYER1
  6
CONTINUOUS
 62
     3
 10
889.457514
 20
1064.447414
 11
906.957514
 21
1064.447414
  0
LINE
  8
CSLAYER1
  6
CONTINUOUS
 62
     3
 10
760.957514
 20
845.624591
 11
792.457514
 21
845.624591
  0
LINE
  8
CSLAYER1
  6
CONTINUOUS
 62
     3
 10
929.457514
 20
801.624591
 11
929.457514
 21
845.624591
  0
LINE
  8
CSLAYER1
  6
CONTINUOUS
 62
     3
 10
792.457514
 20
801.624591
 11
792.457514
 21
845.624591
  0
LINE
  8
CSLAYER1
  6
CONTINUOUS
 62
     3
 10
929.457514
 20
845.624591
 11
960.957514
 21
845.624591
  0
LINE
  8
CSLAYER1
  6
CONTINUOUS
 62
     3
 10
938.457514
 20
835.594246
 11
938.457514
 21
813.654936
  0
LINE
  8
CSLAYER1
  6
CONTINUOUS
 62
     3
 10
935.457514
 20
813.874591
 11
938.457514
 21
813.874591
  0
LINE
  8
CSLAYER1
  6
CONTINUOUS
 62
     3
 10
935.457514
 20
835.374591
 11
938.457514
 21
835.374591
  0
LINE
  8
CSLAYER1
  6
CONTINUOUS
 62
     3
 10
935.457514
 20
826.136787
 11
938.457514
 21
822.636787
  0
LINE
  8
CSLAYER1
  6
CONTINUOUS
 62
     3
 10
946.457514
 20
824.624591
 11
946.457514
 21
815.624591
  0
LINE
  8
CSLAYER1
  6
CONTINUOUS
 62
     3
 10
938.457514
 20
819.139763
 11
945.320333
 21
819.139763
  0
LINE
  8
CSLAYER1
  6
CONTINUOUS
 62
     3
 10
938.457514
 20
813.654936
 11
945.320333
 21
813.654936
  0
LINE
  8
CSLAYER1
  6
CONTINUOUS
 62
     3
 10
946.457514
 20
815.624591
 11
945.320333
 21
813.654936
  0
ARC
  8
CSLAYER1
  6
CONTINUOUS
 62
     3
 10
942.677469
 20
816.397349
 40
3.808617
 50
5.661633
 51
46.059028
  0
ARC
  8
CSLAYER1
  6
CONTINUOUS
 62
     3
 10
932.661769
 20
824.624591
 40
13.795744
 50
336.573402
 51
360.000000
  0
LINE
  8
CSLAYER1
  6
CONTINUOUS
 62
     3
 10
946.457514
 20
824.624591
 11
946.457514
 21
833.624591
  0
LINE
  8
CSLAYER1
  6
CONTINUOUS
 62
     3
 10
938.457514
 20
830.109418
 11
945.320333
 21
830.109418
  0
LINE
  8
CSLAYER1
  6
CONTINUOUS
 62
     3
 10
938.457514
 20
835.594246
 11
945.320333
 21
835.594246
  0
LINE
  8
CSLAYER1
  6
CONTINUOUS
 62
     3
 10
946.457514
 20
833.624591
 11
945.320333
 21
835.594246
  0
ARC
  8
CSLAYER1
  6
CONTINUOUS
 62
     3
 10
942.677469
 20
832.851832
 40
3.808617
 50
313.940972
 51
354.338367
  0
ARC
  8
CSLAYER1
  6
CONTINUOUS
 62
     3
 10
932.661769
 20
824.624591
 40
13.795744
 50
-0.000000
 51
23.426598
  0
LINE
  8
CSLAYER1
  6
CENTER
 62
     5
 10
935.457514
 20
824.624591
 11
946.457514
 21
824.624591
  0
LINE
  8
CSLAYER1
  6
CONTINUOUS
 62
     3
 10
860.957514
 20
1423.396192
 11
735.957514
 21
1423.396192
  0
LINE
  8
CSLAYER1
  6
CONTINUOUS
 62
     3
 10
735.957514
 20
1391.096192
 11
860.957514
 21
1391.096192
  0
LINE
  8
CSLAYER1
  6
CONTINUOUS
 62
     3
 10
2674.015659
 20
869.324591
 11
2674.015659
 21
901.624591
  0
LINE
  8
CSLAYER1
  6
CONTINUOUS
 62
     3
 10
2924.015659
 20
869.324591
 11
2924.015659
 21
901.624591
  0
LINE
  8
CSLAYER1
  6
CONTINUOUS
 62
     3
 10
2924.015659
 20
869.324591
 11
2799.015659
 21
869.324591
  0
LINE
  8
CSLAYER1
  6
CONTINUOUS
 62
     3
 10
2799.015659
 20
901.624591
 11
2924.015659
 21
901.624591
  0
DIMENSION
  8
CSLAYER1
 62
     3
  2
*D0011
 10
2352.613479
 20
2036.132153
 11
2342.613281
 21
1911.132080
 13
2258.914688
 23
1786.132153
 14
2258.914688
 24
2036.132153
 50
90.000000
 70
1
  0
LINE
  8
CSLAYER1
  6
CONTINUOUS
 62
     5
 10
1010.957514
 20
801.624591
 11
1428.778985
 21
801.624591
  0
LINE
  8
CSLAYER1
  6
CONTINUOUS
 62
     3
 10
1428.778985
 20
801.624591
 11
2231.478985
 21
801.624591
  0
LINE
  8
CSLAYER1
  6
CONTINUOUS
 62
     5
 10
2265.044442
 20
801.624591
 11
2649.015659
 21
801.624591
  0
LINE
  8
CSLAYER1
  6
CONTINUOUS
 62
     5
 10
2949.015659
 20
801.624591
 11
3096.880117
 21
801.624591
  0
ENDBLK
  8
0
  0
BLOCK
  8
CSLAYER1
  2
BLKF0001
 70
   64
 10
0.0
 20
0.0
 30
0.0
  0
LINE
  8
CSLAYER1
  6
CONTINUOUS
 62
     5
 10
3468.515059
 20
1492.405201
 11
2588.515059
 21
1492.405201
  0
TEXT
  8
CSLAYER1
 62
     3
 10
3065.898193
 20
1498.055298
 40
40.000000
 41
0.832500
  1
10R4/13
 50
0.000000
 51
0.000000
  7
EASYDRAW_FONT
 72
     5
 11
3287.898193
 21
1498.055298
  0
ENDBLK
  8
0
  0
BLOCK
  8
CSLAYER1
  2
BLKF0002
 70
   64
 10
0.0
 20
0.0
 30
0.0
  0
ARC
  8
CSLAYER1
  6
CONTINUOUS
 62
     5
 10
2883.799450
 20
124.619638
 40
3.549225
 50
6.429109
 51
73.182034
  0
ARC
  8
CSLAYER1
  6
CONTINUOUS
 62
     5
 10
2880.338480
 20
123.461245
 40
6.907754
 50
310.517970
 51
330.092764
  0
ARC
  8
CSLAYER1
  6
CONTINUOUS
 62
     5
 10
2880.277830
 20
123.826763
 40
7.148321
 50
-32.205059
 51
9.585194
  0
ARC
  8
CSLAYER1
  6
CONTINUOUS
 62
     5
 10
2883.570558
 20
121.065765
 40
4.767514
 50
180.000000
 51
218.514150
  0
ARC
  8
CSLAYER1
  6
CONTINUOUS
 62
     5
 10
2882.283837
 20
120.388624
 40
3.348282
 50
222.781148
 51
319.406906
  0
ARC
  8
CSLAYER1
  6
CONTINUOUS
 62
     5
 10
2885.349479
 20
121.478517
 40
6.559434
 50
94.574282
 51
183.607718
  0
LINE
  8
CSLAYER1
  6
CONTINUOUS
 62
     5
 10
2898.793385
 20
116.361685
 11
2897.936349
 21
113.323102
  0
LINE
  8
CSLAYER1
  6
CONTINUOUS
 62
     5
 10
2900.585370
 20
136.229342
 11
2898.481736
 21
138.956276
  0
LINE
  8
CSLAYER1
  6
CONTINUOUS
 62
     5
 10
2898.481736
 20
138.956276
 11
2891.728381
 21
142.714188
  0
LINE
  8
CSLAYER1
  6
CONTINUOUS
 62
     5
 10
2891.728381
 20
142.714188
 11
2884.826354
 21
143.517058
  0
LINE
  8
CSLAYER1
  6
CONTINUOUS
 62
     5
 10
2866.537129
 20
130.138385
 11
2868.683823
 21
135.102615
  0
LINE
  8
CSLAYER1
  6
CONTINUOUS
 62
     5
 10
2868.646826
 20
135.017058
 11
2870.830518
 21
137.651815
  0
LINE
  8
CSLAYER1
  6
CONTINUOUS
 62
     5
 10
2870.830518
 20
137.651815
 11
2874.134940
 21
140.017058
  0
LINE
  8
CSLAYER1
  6
CONTINUOUS
 62
     5
 10
2884.826354
 20
143.517058
 11
2883.308179
 21
142.750214
  0
LINE
  8
CSLAYER1
  6
CONTINUOUS
 62
     5
 10
2883.308179
 20
142.750214
 11
2879.819800
 21
142.750214
  0
LINE
  8
CSLAYER1
  6
CONTINUOUS
 62
     5
 10
2879.819800
 20
142.750214
 11
2876.264338
 21
140.804772
  0
LINE
  8
CSLAYER1
  6
CONTINUOUS
 62
     5
 10
2876.264338
 20
140.804772
 11
2874.134940
 21
140.017058
  0
LINE
  8
CSLAYER1
  6
CONTINUOUS
 62
     5
 10
2866.537129
 20
130.138385
 11
2865.019582
 21
122.589782
  0
LINE
  8
CSLAYER1
  6
CONTINUOUS
 62
     5
 10
2865.019582
 20
122.589782
 11
2864.826354
 21
120.017058
  0
LINE
  8
CSLAYER1
  6
CONTINUOUS
 62
     5
 10
2867.535737
 20
112.177276
 11
2864.826354
 21
118.273387
  0
LINE
  8
CSLAYER1
  6
CONTINUOUS
 62
     5
 10
2864.826354
 20
118.273387
 11
2864.826354
 21
120.017058
  0
LINE
  8
CSLAYER1
  6
CONTINUOUS
 62
     5
 10
2897.936349
 20
113.323102
 11
2896.250562
 21
110.320096
  0
LINE
  8
CSLAYER1
  6
CONTINUOUS
 62
     5
 10
2896.250562
 20
110.320096
 11
2894.826354
 21
109.001385
  0
ARC
  8
CSLAYER1
  6
CONTINUOUS
 62
     5
 10
2882.634410
 20
120.553819
 40
17.266626
 50
208.054813
 51
260.640470
  0
ARC
  8
CSLAYER1
  6
CONTINUOUS
 62
     5
 10
2877.441014
 20
133.296288
 40
29.874611
 50
274.579659
 51
305.587364
  0
ARC
  8
CSLAYER1
  6
CONTINUOUS
 62
     5
 10
2888.413363
 20
127.312566
 40
15.088627
 50
313.467013
 51
331.085078
  0
LINE
  8
CSLAYER1
  6
CONTINUOUS
 62
     5
 10
2903.204695
 20
123.530479
 11
2903.501990
 21
127.312566
  0
LINE
  8
CSLAYER1
  6
CONTINUOUS
 62
     5
 10
2903.501990
 20
127.312566
 11
2902.209992
 21
133.421549
  0
LINE
  8
CSLAYER1
  6
CONTINUOUS
 62
     5
 10
2903.204695
 20
123.530479
 11
2901.621021
 21
120.017058
  0
ARC
  8
CSLAYER1
  6
CONTINUOUS
 62
     5
 10
2888.413363
 20
127.312566
 40
15.088627
 50
23.883193
 51
36.225170
  0
LINE
  8
CSLAYER1
  6
CONTINUOUS
 62
     5
 10
2848.826354
 20
155.017058
 11
2849.826354
 21
156.109703
  0
LINE
  8
CSLAYER1
  6
CONTINUOUS
 62
     5
 10
2848.826354
 20
155.017058
 11
2850.403312
 21
153.572025
  0
LINE
  8
CSLAYER1
  6
CONTINUOUS
 62
     5
 10
2851.942525
 20
151.462734
 11
2851.968793
 21
149.294615
  0
LINE
  8
CSLAYER1
  6
CONTINUOUS
 62
     5
 10
2851.968793
 20
149.294615
 11
2852.176191
 21
148.534155
  0
LINE
  8
CSLAYER1
  6
CONTINUOUS
 62
     5
 10
2852.176191
 20
148.534155
 11
2852.763819
 21
147.808262
  0
LINE
  8
CSLAYER1
  6
CONTINUOUS
 62
     5
 10
2852.763819
 20
147.808262
 11
2853.351446
 21
147.877395
  0
LINE
  8
CSLAYER1
  6
CONTINUOUS
 62
     5
 10
2853.351446
 20
147.877395
 11
2853.973640
 21
148.050227
  0
LINE
  8
CSLAYER1
  6
CONTINUOUS
 62
     5
 10
2853.973640
 20
148.050227
 11
2854.388436
 21
147.877395
  0
LINE
  8
CSLAYER1
  6
CONTINUOUS
 62
     5
 10
2854.388436
 20
147.877395
 11
2855.287161
 21
147.428033
  0
LINE
  8
CSLAYER1
  6
CONTINUOUS
 62
     5
 10
2855.287161
 20
147.428033
 11
2856.063212
 21
147.017058
  0
LINE
  8
CSLAYER1
  6
CONTINUOUS
 62
     5
 10
2856.063212
 20
147.017058
 11
2856.566115
 21
147.047803
  0
LINE
  8
CSLAYER1
  6
CONTINUOUS
 62
     5
 10
2856.566115
 20
147.047803
 11
2859.373987
 21
148.494283
  0
LINE
  8
CSLAYER1
  6
CONTINUOUS
 62
     5
 10
2849.826354
 20
156.109703
 11
2850.159206
 21
157.583410
  0
LINE
  8
CSLAYER1
  6
CONTINUOUS
 62
     5
 10
2850.159206
 20
157.583410
 11
2851.612611
 21
157.733762
  0
LINE
  8
CSLAYER1
  6
CONTINUOUS
 62
     5
 10
2853.106370
 20
160.502221
 11
2854.860543
 21
160.659311
  0
LINE
  8
CSLAYER1
  6
CONTINUOUS
 62
     5
 10
2854.860543
 20
160.659311
 11
2858.395070
 21
161.497125
  0
LINE
  8
CSLAYER1
  6
CONTINUOUS
 62
     5
 10
2858.395070
 20
161.497125
 11
2859.826354
 21
161.828764
  0
LINE
  8
CSLAYER1
  6
CONTINUOUS
 62
     5
 10
2853.106370
 20
160.502221
 11
2851.173479
 21
160.661089
  0
LINE
  8
CSLAYER1
  6
CONTINUOUS
 62
     5
 10
2850.437356
 20
159.792402
 11
2850.530881
 21
159.421240
  0
LINE
  8
CSLAYER1
  6
CONTINUOUS
 62
     5
 10
2850.530881
 20
159.421240
 11
2851.022475
 21
158.883559
  0
LINE
  8
CSLAYER1
  6
CONTINUOUS
 62
     5
 10
2851.022475
 20
158.883559
 11
2851.698417
 21
158.376603
  0
LINE
  8
CSLAYER1
  6
CONTINUOUS
 62
     5
 10
2851.698417
 20
158.376603
 11
2851.821741
 21
158.212170
  0
LINE
  8
CSLAYER1
  6
CONTINUOUS
 62
     5
 10
2850.403312
 20
153.572025
 11
2851.942525
 21
151.462734
  0
ARC
  8
CSLAYER1
  6
CONTINUOUS
 62
     5
 10
2894.813055
 20
-16.641594
 40
180.727463
 50
80.438896
 51
96.353582
  0
ARC
  8
CSLAYER1
  6
CONTINUOUS
 62
     5
 10
2869.914142
 20
128.606306
 40
34.720242
 50
81.866516
 51
106.890578
  0
LINE
  8
CSLAYER1
  6
CONTINUOUS
 62
     5
 10
2929.020615
 20
160.783729
 11
2931.267698
 21
159.762327
  0
LINE
  8
CSLAYER1
  6
CONTINUOUS
 62
     5
 10
2934.842602
 20
158.179156
 11
2931.267698
 21
159.762327
  0
LINE
  8
CSLAYER1
  6
CONTINUOUS
 62
     5
 10
2929.020615
 20
160.783729
 11
2924.826354
 21
161.576300
  0
LINE
  8
CSLAYER1
  6
CONTINUOUS
 62
     5
 10
2934.826354
 20
158.186351
 11
2936.697930
 21
156.617874
  0
LINE
  8
CSLAYER1
  6
CONTINUOUS
 62
     5
 10
2918.069610
 20
159.223202
 11
2918.968885
 21
160.675877
  0
LINE
  8
CSLAYER1
  6
CONTINUOUS
 62
     5
 10
2918.968885
 20
160.675877
 11
2923.644484
 21
159.556367
  0
LINE
  8
CSLAYER1
  6
CONTINUOUS
 62
     5
 10
2923.644484
 20
159.556367
 11
2940.386869
 21
155.017058
  0
LINE
  8
CSLAYER1
  6
CONTINUOUS
 62
     5
 10
2943.326354
 20
155.017058
 11
2936.697930
 21
156.617874
  0
LINE
  8
CSLAYER1
  6
CONTINUOUS
 62
     5
 10
2940.386869
 20
155.017058
 11
2943.326354
 21
155.017058
  0
LINE
  8
CSLAYER1
  6
CONTINUOUS
 62
     5
 10
2884.826354
 20
159.482000
 11
2904.826354
 21
160.017058
  0
LINE
  8
CSLAYER1
  6
CONTINUOUS
 62
     5
 10
2904.826354
 20
160.017058
 11
2918.069610
 21
159.223202
  0
LINE
  8
CSLAYER1
  6
CONTINUOUS
 62
     5
 10
2919.672591
 20
157.162722
 11
2904.826354
 21
158.517058
  0
LINE
  8
CSLAYER1
  6
CONTINUOUS
 62
     5
 10
2904.826354
 20
158.517058
 11
2889.777145
 21
158.925710
  0
LINE
  8
CSLAYER1
  6
CONTINUOUS
 62
     5
 10
2889.826354
 20
158.924374
 11
2884.826354
 21
159.019668
  0
LINE
  8
CSLAYER1
  6
CONTINUOUS
 62
     5
 10
2884.826354
 20
159.482000
 11
2884.826354
 21
159.019668
  0
LINE
  8
CSLAYER1
  6
CONTINUOUS
 62
     5
 10
2942.326354
 20
151.517058
 11
2933.483796
 21
153.827721
  0
LINE
  8
CSLAYER1
  6
CONTINUOUS
 62
     5
 10
2919.672591
 20
157.162722
 11
2929.826354
 21
155.190339
  0
LINE
  8
CSLAYER1
  6
CONTINUOUS
 62
     5
 10
2929.826354
 20
155.190339
 11
2933.483796
 21
153.827721
  0
LINE
  8
CSLAYER1
  6
CONTINUOUS
 62
     5
 10
2942.326354
 20
151.517058
 11
2942.033737
 21
150.677953
  0
LINE
  8
CSLAYER1
  6
CONTINUOUS
 62
     5
 10
2951.826354
 20
146.017058
 11
2951.520327
 21
147.246039
  0
LINE
  8
CSLAYER1
  6
CONTINUOUS
 62
     5
 10
2942.033737
 20
150.677953
 11
2951.520327
 21
147.246039
  0
LINE
  8
CSLAYER1
  6
CONTINUOUS
 62
     5
 10
2888.326354
 20
151.517058
 11
2890.749392
 21
151.517058
  0
LINE
  8
CSLAYER1
  6
CONTINUOUS
 62
     5
 10
2910.826354
 20
151.949554
 11
2910.826354
 21
151.517058
  0
LINE
  8
CSLAYER1
  6
CONTINUOUS
 62
     5
 10
2909.826354
 20
152.483995
 11
2908.115075
 21
153.121173
  0
LINE
  8
CSLAYER1
  6
CONTINUOUS
 62
     5
 10
2908.115075
 20
153.121173
 11
2907.005019
 21
153.171630
  0
LINE
  8
CSLAYER1
  6
CONTINUOUS
 62
     5
 10
2907.005019
 20
153.171630
 11
2906.525677
 21
152.919345
  0
LINE
  8
CSLAYER1
  6
CONTINUOUS
 62
     5
 10
2906.525677
 20
152.919345
 11
2906.424762
 21
152.515688
  0
LINE
  8
CSLAYER1
  6
CONTINUOUS
 62
     5
 10
2906.424762
 20
152.515688
 11
2906.878876
 21
152.212946
  0
LINE
  8
CSLAYER1
  6
CONTINUOUS
 62
     5
 10
2906.878876
 20
152.212946
 11
2908.518732
 21
152.061574
  0
LINE
  8
CSLAYER1
  6
CONTINUOUS
 62
     5
 10
2908.518732
 20
152.061574
 11
2910.826354
 21
151.949554
  0
LINE
  8
CSLAYER1
  6
CONTINUOUS
 62
     5
 10
2951.826354
 20
146.017058
 11
2948.850812
 21
147.203640
  0
LINE
  8
CSLAYER1
  6
CONTINUOUS
 62
     5
 10
2948.850812
 20
147.203640
 11
2938.795122
 21
149.046515
  0
LINE
  8
CSLAYER1
  6
CONTINUOUS
 62
     5
 10
2938.795122
 20
149.046515
 11
2933.769342
 21
150.206311
  0
LINE
  8
CSLAYER1
  6
CONTINUOUS
 62
     5
 10
2911.360575
 20
152.517058
 11
2923.126241
 21
152.517058
  0
LINE
  8
CSLAYER1
  6
CONTINUOUS
 62
     5
 10
2909.826354
 20
152.483995
 11
2910.351014
 21
152.175528
  0
LINE
  8
CSLAYER1
  6
CONTINUOUS
 62
     5
 10
2910.351014
 20
152.175528
 11
2910.647826
 21
152.086484
  0
LINE
  8
CSLAYER1
  6
CONTINUOUS
 62
     5
 10
2910.647826
 20
152.086484
 11
2910.826354
 21
152.111654
  0
LINE
  8
CSLAYER1
  6
CONTINUOUS
 62
     5
 10
2910.826354
 20
152.111654
 11
2911.360575
 21
152.517058
  0
LINE
  8
CSLAYER1
  6
CONTINUOUS
 62
     5
 10
2923.126241
 20
152.517058
 11
2927.576510
 21
151.488233
  0
LINE
  8
CSLAYER1
  6
CONTINUOUS
 62
     5
 10
2927.576510
 20
151.488233
 11
2931.729702
 21
150.323084
  0
LINE
  8
CSLAYER1
  6
CONTINUOUS
 62
     5
 10
2931.729702
 20
150.323084
 11
2933.769342
 21
150.206311
  0
LINE
  8
CSLAYER1
  6
CONTINUOUS
 62
     5
 10
2887.326354
 20
150.517058
 11
2887.326354
 21
150.017058
  0
LINE
  8
CSLAYER1
  6
CONTINUOUS
 62
     5
 10
2884.826354
 20
150.017058
 11
2887.326354
 21
150.017058
  0
ARC
  8
CSLAYER1
  6
CONTINUOUS
 62
     5
 10
2888.326354
 20
150.517058
 40
1.000000
 50
90.000000
 51
180.000000
  0
LINE
  8
CSLAYER1
  6
CONTINUOUS
 62
     5
 10
2890.749392
 20
151.517058
 11
2891.446949
 21
150.945062
  0
LINE
  8
CSLAYER1
  6
CONTINUOUS
 62
     5
 10
2892.049317
 20
150.921101
 11
2892.906914
 21
151.517058
  0
LINE
  8
CSLAYER1
  6
CONTINUOUS
 62
     5
 10
2894.485310
 20
151.517058
 11
2896.152435
 21
150.858983
  0
LINE
  8
CSLAYER1
  6
CONTINUOUS
 62
     5
 10
2896.576144
 20
150.885495
 11
2897.729632
 21
151.517058
  0
LINE
  8
CSLAYER1
  6
CONTINUOUS
 62
     5
 10
2892.906914
 20
151.517058
 11
2894.485310
 21
151.517058
  0
LINE
  8
CSLAYER1
  6
CONTINUOUS
 62
     5
 10
2897.729632
 20
151.517058
 11
2910.826354
 21
151.517058
  0
LINE
  8
CSLAYER1
  6
CONTINUOUS
 62
     5
 10
2863.375337
 20
148.408232
 11
2884.826354
 21
150.017058
  0
LINE
  8
CSLAYER1
  6
CONTINUOUS
 62
     5
 10
2859.373987
 20
148.494283
 11
2863.375337
 21
148.408232
  0
ARC
  8
CSLAYER1
  6
CONTINUOUS
 62
     5
 10
2891.763989
 20
151.331696
 40
0.500000
 50
230.648247
 51
304.796026
  0
ARC
  8
CSLAYER1
  6
CONTINUOUS
 62
     5
 10
2896.336019
 20
151.324060
 40
0.500000
 50
248.459024
 51
298.701829
  0
ARC
  8
CSLAYER1
  6
CONTINUOUS
 62
     5
 10
2851.581741
 20
158.032170
 40
0.300000
 50
-84.093859
 51
36.869898
  0
ARC
  8
CSLAYER1
  6
CONTINUOUS
 62
     5
 10
2851.116138
 20
159.963441
 40
0.700000
 50
85.301319
 51
194.142980
  0
LINE
  8
CSLAYER1
  6
CONTINUOUS
 62
     3
 10
2883.308179
 20
142.750214
 11
2891.418674
 21
142.750214
  0
LINE
  8
CSLAYER1
  6
CONTINUOUS
 62
     3
 10
2876.895662
 20
141.150214
 11
2894.539003
 21
141.150214
  0
LINE
  8
CSLAYER1
  6
CONTINUOUS
 62
     3
 10
2873.482723
 20
139.550214
 11
2897.414367
 21
139.550214
  0
LINE
  8
CSLAYER1
  6
CONTINUOUS
 62
     3
 10
2871.247404
 20
137.950214
 11
2899.257841
 21
137.950214
  0
LINE
  8
CSLAYER1
  6
CONTINUOUS
 62
     3
 10
2869.751748
 20
136.350214
 11
2900.492126
 21
136.350214
  0
LINE
  8
CSLAYER1
  6
CONTINUOUS
 62
     3
 10
2868.531433
 20
134.750214
 11
2901.541503
 21
134.750214
  0
LINE
  8
CSLAYER1
  6
CONTINUOUS
 62
     3
 10
2867.839542
 20
133.150214
 11
2902.267378
 21
133.150214
  0
LINE
  8
CSLAYER1
  6
CONTINUOUS
 62
     3
 10
2867.147650
 20
131.550214
 11
2902.605764
 21
131.550214
  0
LINE
  8
CSLAYER1
  6
CONTINUOUS
 62
     3
 10
2866.499300
 20
129.950214
 11
2902.944150
 21
129.950214
  0
LINE
  8
CSLAYER1
  6
CONTINUOUS
 62
     3
 10
2866.177641
 20
128.350214
 11
2903.282536
 21
128.350214
  0
LINE
  8
CSLAYER1
  6
CONTINUOUS
 62
     3
 10
2865.855982
 20
126.750214
 11
2881.446225
 21
126.750214
  0
LINE
  8
CSLAYER1
  6
CONTINUOUS
 62
     3
 10
2865.534323
 20
125.150214
 11
2879.913964
 21
125.150214
  0
LINE
  8
CSLAYER1
  6
CONTINUOUS
 62
     3
 10
2865.212664
 20
123.550214
 11
2879.125794
 21
123.550214
  0
LINE
  8
CSLAYER1
  6
CONTINUOUS
 62
     3
 10
2864.971546
 20
121.950214
 11
2878.807027
 21
121.950214
  0
LINE
  8
CSLAYER1
  6
CONTINUOUS
 62
     3
 10
2864.851376
 20
120.350214
 11
2878.857048
 21
120.350214
  0
LINE
  8
CSLAYER1
  6
CONTINUOUS
 62
     3
 10
2864.826354
 20
118.750214
 11
2879.403135
 21
118.750214
  0
LINE
  8
CSLAYER1
  6
CONTINUOUS
 62
     3
 10
2865.325542
 20
117.150214
 11
2881.433137
 21
117.150214
  0
LINE
  8
CSLAYER1
  6
CONTINUOUS
 62
     3
 10
2866.036653
 20
115.550214
 11
2898.564509
 21
115.550214
  0
LINE
  8
CSLAYER1
  6
CONTINUOUS
 62
     3
 10
2866.747764
 20
113.950214
 11
2898.113227
 21
113.950214
  0
LINE
  8
CSLAYER1
  6
CONTINUOUS
 62
     3
 10
2867.458876
 20
112.350214
 11
2897.390202
 21
112.350214
  0
LINE
  8
CSLAYER1
  6
CONTINUOUS
 62
     3
 10
2868.420834
 20
110.750214
 11
2896.492016
 21
110.750214
  0
LINE
  8
CSLAYER1
  6
CONTINUOUS
 62
     3
 10
2869.669296
 20
109.150214
 11
2894.987090
 21
109.150214
  0
LINE
  8
CSLAYER1
  6
CONTINUOUS
 62
     3
 10
2871.274716
 20
107.550214
 11
2892.594629
 21
107.550214
  0
LINE
  8
CSLAYER1
  6
CONTINUOUS
 62
     3
 10
2873.421858
 20
105.950214
 11
2889.469506
 21
105.950214
  0
LINE
  8
CSLAYER1
  6
CONTINUOUS
 62
     3
 10
2876.669548
 20
104.350214
 11
2884.831357
 21
104.350214
  0
LINE
  8
CSLAYER1
  6
CONTINUOUS
 62
     3
 10
2886.638049
 20
126.750214
 11
2903.457786
 21
126.750214
  0
LINE
  8
CSLAYER1
  6
CONTINUOUS
 62
     3
 10
2887.308793
 20
125.150214
 11
2903.332016
 21
125.150214
  0
LINE
  8
CSLAYER1
  6
CONTINUOUS
 62
     3
 10
2887.420800
 20
123.550214
 11
2903.206247
 21
123.550214
  0
LINE
  8
CSLAYER1
  6
CONTINUOUS
 62
     3
 10
2887.175443
 20
121.950214
 11
2902.492391
 21
121.950214
  0
LINE
  8
CSLAYER1
  6
CONTINUOUS
 62
     3
 10
2886.523797
 20
120.350214
 11
2901.771191
 21
120.350214
  0
LINE
  8
CSLAYER1
  6
CONTINUOUS
 62
     3
 10
2885.390534
 20
118.750214
 11
2900.837243
 21
118.750214
  0
LINE
  8
CSLAYER1
  6
CONTINUOUS
 62
     3
 10
2883.134537
 20
117.150214
 11
2899.566536
 21
117.150214
  0
TEXT
  8
CSLAYER1
 62
     5
 10
2903.998075
 20
124.761387
 40
4.713448
 41
1.951056
  1
M
 50
0.000000
 51
0.000000
  7
EASYDRAW_FONT
 72
     5
 11
2910.128878
 21
124.761387
  0
TEXT
  8
CSLAYER1
 62
     5
 10
2913.649463
 20
124.703116
 40
4.626621
 41
0.778201
  1
T
 50
0.000000
 51
0.000000
  7
EASYDRAW_FONT
 72
     5
 11
2916.049756
 21
124.703116
  0
TEXT
  8
CSLAYER1
 62
     5
 10
2916.415025
 20
124.737915
 40
4.696183
 41
1.055553
  1
E
 50
0.000000
 51
0.000000
  7
EASYDRAW_FONT
 72
     5
 11
2919.719740
 21
124.737915
  0
TEXT
  8
CSLAYER1
 62
     5
 10
2919.531206
 20
126.353759
 40
0.348283
 41
9.375319
  1
-
 50
0.000000
 51
0.000000
  7
EASYDRAW_FONT
 72
     5
 11
2921.708051
 21
126.353759
  0
TEXT
  8
CSLAYER1
 62
     5
 10
2921.345416
 20
124.706568
 40
4.861659
 41
1.298502
  1
H
 50
0.000000
 51
0.000000
  7
EASYDRAW_FONT
 72
     5
 11
2925.553998
 21
124.706568
  0
TEXT
  8
CSLAYER1
 62
     5
 10
2925.421431
 20
124.736947
 40
4.843139
 41
1.269236
  1
A
 50
0.000000
 51
0.000000
  7
EASYDRAW_FONT
 72
     5
 11
2929.519487
 21
124.736947
  0
TEXT
  8
CSLAYER1
 62
     5
 10
2929.127587
 20
124.695420
 40
4.825362
 41
1.490144
  1
N
 50
0.000000
 51
0.000000
  7
EASYDRAW_FONT
 72
     5
 11
2933.921241
 21
124.695420
  0
TEXT
  8
CSLAYER1
 62
     5
 10
2909.919044
 20
124.672847
 40
4.982325
 41
1.177443
  1
A
 50
0.000000
 51
0.000000
  7
EASYDRAW_FONT
 72
     5
 11
2913.829979
 21
124.672847
  0
TEXT
  8
CSLAYER1
 62
     5
 10
2904.365089
 20
117.677608
 40
4.982325
 41
1.177443
  1
A
 50
0.000000
 51
0.000000
  7
EASYDRAW_FONT
 72
     5
 11
2908.276024
 21
117.677608
  0
TEXT
  8
CSLAYER1
 62
     5
 10
2917.149513
 20
117.705928
 40
4.982325
 41
1.177443
  1
A
 50
0.000000
 51
0.000000
  7
EASYDRAW_FONT
 72
     5
 11
2921.060448
 21
117.705928
  0
TEXT
  8
CSLAYER1
 62
     5
 10
2920.910058
 20
117.762925
 40
4.825362
 41
1.490144
  1
N
 50
0.000000
 51
0.000000
  7
EASYDRAW_FONT
 72
     5
 11
2925.703712
 21
117.762925
  0
TEXT
  8
CSLAYER1
 62
     5
 10
2929.812394
 20
117.771320
 40
4.841775
 41
1.184218
  1
E
 50
0.000000
 51
0.000000
  7
EASYDRAW_FONT
 72
     5
 11
2933.634872
 21
117.771320
  0
TEXT
  8
CSLAYER1
 62
     5
 10
2908.645643
 20
117.676283
 40
4.947865
 41
1.093992
  1
D
 50
0.000000
 51
0.000000
  7
EASYDRAW_FONT
 72
     5
 11
2912.254259
 21
117.676283
  0
TEXT
  8
CSLAYER1
 62
     5
 10
2913.048001
 20
117.670898
 40
4.924210
 41
1.228195
  1
V
 50
0.000000
 51
0.000000
  7
EASYDRAW_FONT
 72
     5
 11
2917.079928
 21
117.670898
  0
TEXT
  8
CSLAYER1
 62
     5
 10
2925.273202
 20
117.691630
 40
5.032894
 41
1.481023
  1
C
 50
0.000000
 51
0.000000
  7
EASYDRAW_FONT
 72
     5
 11
2930.242423
 21
117.691630
  0
LINE
  8
CSLAYER1
  6
CONTINUOUS
 62
     5
 10
2915.903691
 20
128.752031
 11
2914.891629
 21
128.752031
  0
LINE
  8
CSLAYER1
  6
CONTINUOUS
 62
     3
 10
2865.001929
 20
162.977302
 11
2914.799755
 21
162.977302
  0
LINE
  8
CSLAYER1
  6
CONTINUOUS
 62
     3
 10
2857.889565
 20
161.377302
 11
2925.879447
 21
161.377302
  0
LINE
  8
CSLAYER1
  6
CONTINUOUS
 62
     3
 10
2850.441160
 20
159.777302
 11
2895.864471
 21
159.777302
  0
LINE
  8
CSLAYER1
  6
CONTINUOUS
 62
     3
 10
2908.826020
 20
159.777302
 11
2918.412624
 21
159.777302
  0
LINE
  8
CSLAYER1
  6
CONTINUOUS
 62
     3
 10
2922.721758
 20
159.777302
 11
2931.234755
 21
159.777302
  0
LINE
  8
CSLAYER1
  6
CONTINUOUS
 62
     3
 10
2851.844300
 20
158.177302
 11
2908.550769
 21
158.177302
  0
LINE
  8
CSLAYER1
  6
CONTINUOUS
 62
     3
 10
2928.730907
 20
158.177302
 11
2934.837153
 21
158.177302
  0
LINE
  8
CSLAYER1
  6
CONTINUOUS
 62
     3
 10
2849.931966
 20
156.577302
 11
2922.686317
 21
156.577302
  0
LINE
  8
CSLAYER1
  6
CONTINUOUS
 62
     3
 10
2934.632206
 20
156.577302
 11
2936.865928
 21
156.577302
  0
LINE
  8
CSLAYER1
  6
CONTINUOUS
 62
     3
 10
2848.869741
 20
154.977302
 11
2930.398173
 21
154.977302
  0
LINE
  8
CSLAYER1
  6
CONTINUOUS
 62
     3
 10
2850.545408
 20
153.377302
 11
2935.207482
 21
153.377302
  0
LINE
  8
CSLAYER1
  6
CONTINUOUS
 62
     3
 10
2851.712975
 20
151.777302
 11
2910.826354
 21
151.777302
  0
LINE
  8
CSLAYER1
  6
CONTINUOUS
 62
     3
 10
2926.326119
 20
151.777302
 11
2941.330442
 21
151.777302
  0
LINE
  8
CSLAYER1
  6
CONTINUOUS
 62
     3
 10
2851.958099
 20
150.177302
 11
2887.326354
 21
150.177302
  0
LINE
  8
CSLAYER1
  6
CONTINUOUS
 62
     3
 10
2933.895048
 20
150.177302
 11
2943.417651
 21
150.177302
  0
LINE
  8
CSLAYER1
  6
CONTINUOUS
 62
     3
 10
2852.164424
 20
148.577302
 11
2865.629597
 21
148.577302
  0
LINE
  8
CSLAYER1
  6
CONTINUOUS
 62
     3
 10
2941.355397
 20
148.577302
 11
2947.840415
 21
148.577302
  0
LINE
  8
CSLAYER1
  6
CONTINUOUS
 62
     3
 10
2949.418391
 20
146.977302
 11
2951.587245
 21
146.977302
  0
ENDBLK
  8
0
  0
ENDSEC
  0
SECTION
  2
ENTITIES
  0
LINE
  8
CSLAYER1
  6
CONTINUOUS
 62
     3
 10
219.941749
 20
2445.738538
 11
219.941749
 21
97.191607
  0
LINE
  8
CSLAYER1
  6
CONTINUOUS
 62
     3
 10
3542.515059
 20
2445.738538
 11
219.941749
 21
2445.738538
  0
LINE
  8
CSLAYER1
  6
CONTINUOUS
 62
     3
 10
3542.515059
 20
2445.738538
 11
3542.515059
 21
97.191607
  0
LINE
  8
CSLAYER1
  6
CONTINUOUS
 62
     3
 10
3542.515059
 20
97.191607
 11
219.941749
 21
97.191607
  0
LINE
  8
CSLAYER1
  6
CONTINUOUS
 62
     5
 10
169.941749
 20
1257.191607
 11
119.941749
 21
1257.191607
  0
INSERT
  8
CSLAYER1
  2
BLKF0000
 10
0.0
 20
0.0
 30
0.0
  0
LINE
  8
CSLAYER1
  6
CONTINUOUS
 62
     5
 10
3468.515059
 20
2345.738538
 11
2588.515059
 21
2345.738538
  0
LINE
  8
CSLAYER1
  6
CONTINUOUS
 62
     5
 10
3468.515059
 20
2292.405204
 11
2588.515059
 21
2292.405204
  0
LINE
  8
CSLAYER1
  6
CONTINUOUS
 62
     5
 10
3468.515059
 20
2239.071871
 11
2588.515059
 21
2239.071871
  0
LINE
  8
CSLAYER1
  6
CONTINUOUS
 62
     5
 10
3468.515059
 20
2132.405204
 11
2588.515059
 21
2132.405204
  0
LINE
  8
CSLAYER1
  6
CONTINUOUS
 62
     5
 10
3468.515059
 20
2025.738538
 11
2588.515059
 21
2025.738538
  0
LINE
  8
CSLAYER1
  6
CONTINUOUS
 62
     5
 10
3468.515059
 20
1812.405204
 11
2588.515059
 21
1812.405204
  0
LINE
  8
CSLAYER1
  6
CONTINUOUS
 62
     5
 10
3468.515059
 20
1599.071868
 11
2588.515059
 21
1599.071868
  0
LINE
  8
CSLAYER1
  6
CONTINUOUS
 62
     5
 10
3468.515059
 20
1545.738534
 11
2588.515059
 21
1545.738534
  0
TEXT
  8
CSLAYER1
 62
     3
 10
2601.848145
 20
2352.405273
 40
40.000000
 41
0.838235
  1
仕    様
 50
0.000000
 51
0.000000
  7
EASYDRAW_FONT
 72
     5
 11
2791.848145
 21
2352.405273
  0
TEXT
  8
CSLAYER1
 62
     3
 10
2601.848145
 20
2299.072021
 40
40.000000
 41
0.838235
  1
型    式
 50
0.000000
 51
0.000000
  7
EASYDRAW_FONT
 72
     5
 11
2791.848145
 21
2299.072021
  0
TEXT
  8
CSLAYER1
 62
     3
 10
2966.848145
 20
2299.072021
 40
40.000000
 41
0.817105
  1
GLSE-350-2508
 50
0.000000
 51
0.000000
  7
EASYDRAW_FONT
 72
     5
 11
3380.848145
 21
2299.072021
  0
TEXT
  8
CSLAYER1
 62
     3
 10
2601.848145
 20
2245.738770
 40
40.000000
 41
0.859091
  1
均等荷重
 50
0.000000
 51
0.000000
  7
EASYDRAW_FONT
 72
     5
 11
2727.848145
 21
2245.738770
  0
TEXT
  8
CSLAYER1
 62
     3
 10
3393.181396
 20
2245.738770
 40
40.000000
 41
0.930000
  1
ｋｇ
 50
0.000000
 51
0.000000
  7
EASYDRAW_FONT
 72
     5
 11
3455.181396
 21
2245.738770
  0
TEXT
  8
CSLAYER1
 62
     3
 10
2601.848145
 20
2139.072021
 40
40.000000
 41
0.838235
  1
テーブル高サ
 50
0.000000
 51
0.000000
  7
EASYDRAW_FONT
 72
     5
 11
2791.848145
 21
2139.072021
  0
TEXT
  8
CSLAYER1
 62
     3
 10
3393.181396
 20
2139.072021
 40
40.000000
 41
0.930000
  1
ｍｍ
 50
0.000000
 51
0.000000
  7
EASYDRAW_FONT
 72
     5
 11
3455.181396
 21
2139.072021
  0
TEXT
  8
CSLAYER1
 62
     3
 10
2601.848145
 20
2032.405029
 40
40.000000
 41
0.838235
  1
全    長
 50
0.000000
 51
0.000000
  7
EASYDRAW_FONT
 72
     5
 11
2791.848145
 21
2032.405029
  0
TEXT
  8
CSLAYER1
 62
     3
 10
3126.848145
 20
2032.405029
 40
40.000000
 41
0.881250
  1
803
 50
0.000000
 51
0.000000
  7
EASYDRAW_FONT
 72
     5
 11
3220.848145
 21
2032.405029
  0
TEXT
  8
CSLAYER1
 62
     3
 10
3062.848145
 20
1819.071533
 40
40.000000
 41
0.832500
  1
フットスイッチ
 50
0.000000
 51
0.000000
  7
EASYDRAW_FONT
 72
     5
 11
3284.848145
 21
1819.071533
  0
TEXT
  8
CSLAYER1
 62
     3
 10
2601.848145
 20
1819.071533
 40
40.000000
 41
0.859091
  1
操作方式
 50
0.000000
 51
0.000000
  7
EASYDRAW_FONT
 72
     5
 11
2727.848145
 21
1819.071533
  0
TEXT
  8
CSLAYER1
 62
     3
 10
2601.848145
 20
1552.404907
 40
40.000000
 41
0.832500
  1
自     重
 50
0.000000
 51
0.000000
  7
EASYDRAW_FONT
 72
     5
 11
2823.848145
 21
1552.404907
  0
TEXT
  8
CSLAYER1
 62
     3
 10
3117.514893
 20
1552.404907
 40
40.000000
 41
0.859091
  1
約 62
 50
0.000000
 51
0.000000
  7
EASYDRAW_FONT
 72
     5
 11
3243.514893
 21
1552.404907
  0
TEXT
  8
CSLAYER1
 62
     3
 10
2601.848145
 20
1499.071655
 40
40.000000
 41
0.832500
  1
塗  装  色
 50
0.000000
 51
0.000000
  7
EASYDRAW_FONT
 72
     5
 11
2823.848145
 21
1499.071655
  0
TEXT
  8
CSLAYER1
 62
     3
 10
3126.848145
 20
2245.738770
 40
40.000000
 41
0.881250
  1
350
 50
0.000000
 51
0.000000
  7
EASYDRAW_FONT
 72
     5
 11
3220.848145
 21
2245.738770
  0
TEXT
  8
CSLAYER1
 62
     3
 10
3062.848145
 20
2139.072021
 40
40.000000
 41
0.832500
  1
100～600
 50
0.000000
 51
0.000000
  7
EASYDRAW_FONT
 72
     5
 11
3284.848145
 21
2139.072021
  0
TEXT
  8
CSLAYER1
 62
     3
 10
3393.181396
 20
2032.405029
 40
40.000000
 41
0.930000
  1
ｍｍ
 50
0.000000
 51
0.000000
  7
EASYDRAW_FONT
 72
     5
 11
3455.181396
 21
2032.405029
  0
LINE
  8
CSLAYER1
  6
CONTINUOUS
 62
     5
 10
3468.515059
 20
1972.405204
 11
2588.515059
 21
1972.405204
  0
TEXT
  8
CSLAYER1
 62
     3
 10
2601.848145
 20
1979.071533
 40
40.000000
 41
0.838235
  1
全    幅
 50
0.000000
 51
0.000000
  7
EASYDRAW_FONT
 72
     5
 11
2791.848145
 21
1979.071533
  0
TEXT
  8
CSLAYER1
 62
     3
 10
3126.848145
 20
1979.071533
 40
40.000000
 41
0.881250
  1
300
 50
0.000000
 51
0.000000
  7
EASYDRAW_FONT
 72
     5
 11
3220.848145
 21
1979.071533
  0
TEXT
  8
CSLAYER1
 62
     3
 10
3393.181396
 20
1979.071533
 40
40.000000
 41
0.930000
  1
ｍｍ
 50
0.000000
 51
0.000000
  7
EASYDRAW_FONT
 72
     5
 11
3455.181396
 21
1979.071533
  0
LINE
  8
CSLAYER1
  6
CONTINUOUS
 62
     5
 10
3468.515059
 20
1652.405204
 11
2588.515059
 21
1652.405204
  0
TEXT
  8
CSLAYER1
 62
     3
 10
3029.810547
 20
1604.339844
 40
40.000000
 41
0.825000
  1
油圧ユニット別置型
 50
0.000000
 51
0.000000
  7
EASYDRAW_FONT
 72
     5
 11
3315.810547
 21
1604.339844
  0
LINE
  8
CSLAYER1
  6
CONTINUOUS
 62
     5
 10
3468.515059
 20
1599.071871
 11
2588.515059
 21
1599.071871
  0
TEXT
  8
CSLAYER1
 62
     3
 10
3393.181396
 20
1552.404907
 40
40.000000
 41
0.930000
  1
ｋｇ
 50
0.000000
 51
0.000000
  7
EASYDRAW_FONT
 72
     5
 11
3455.181396
 21
1552.404907
  0
LINE
  8
CSLAYER1
  6
CONTINUOUS
 62
     5
 10
3468.515059
 20
2185.738538
 11
2588.515059
 21
2185.738538
  0
TEXT
  8
CSLAYER1
 62
     3
 10
2601.848145
 20
2192.405518
 40
40.000000
 41
0.838235
  1
テーブル寸法
 50
0.000000
 51
0.000000
  7
EASYDRAW_FONT
 72
     5
 11
2791.848145
 21
2192.405518
  0
TEXT
  8
CSLAYER1
 62
     3
 10
3393.181396
 20
2192.405518
 40
40.000000
 41
0.930000
  1
ｍｍ
 50
0.000000
 51
0.000000
  7
EASYDRAW_FONT
 72
     5
 11
3455.181396
 21
2192.405518
  0
TEXT
  8
CSLAYER1
 62
     3
 10
3030.848145
 20
2192.405518
 40
40.000000
 41
0.825000
  1
800L×250W
 50
0.000000
 51
0.000000
  7
EASYDRAW_FONT
 72
     5
 11
3316.848145
 21
2192.405518
  0
LINE
  8
CSLAYER1
  6
CONTINUOUS
 62
     5
 10
3468.515059
 20
2079.071871
 11
2588.515059
 21
2079.071871
  0
TEXT
  8
CSLAYER1
 62
     3
 10
3393.181396
 20
2085.738770
 40
40.000000
 41
0.930000
  1
ｍｍ
 50
0.000000
 51
0.000000
  7
EASYDRAW_FONT
 72
     5
 11
3455.181396
 21
2085.738770
  0
TEXT
  8
CSLAYER1
 62
     3
 10
3126.848145
 20
2085.738770
 40
40.000000
 41
0.881250
  1
500
 50
0.000000
 51
0.000000
  7
EASYDRAW_FONT
 72
     5
 11
3220.848145
 21
2085.738770
  0
TEXT
  8
CSLAYER1
 62
     3
 10
2603.680664
 20
2085.738770
 40
40.000000
 41
0.846429
  1
ストローク
 50
0.000000
 51
0.000000
  7
EASYDRAW_FONT
 72
     5
 11
2761.680664
 21
2085.738770
  0
LINE
  8
CSLAYER1
  6
CONTINUOUS
 62
     5
 10
3468.515059
 20
1919.071871
 11
2588.515059
 21
1919.071871
  0
TEXT
  8
CSLAYER1
 62
     3
 10
2601.848145
 20
1925.738281
 40
40.000000
 41
0.838235
  1
全    高
 50
0.000000
 51
0.000000
  7
EASYDRAW_FONT
 72
     5
 11
2791.848145
 21
1925.738281
  0
TEXT
  8
CSLAYER1
 62
     3
 10
3126.848145
 20
1925.738281
 40
40.000000
 41
0.881250
  1
100
 50
0.000000
 51
0.000000
  7
EASYDRAW_FONT
 72
     5
 11
3220.848145
 21
1925.738281
  0
TEXT
  8
CSLAYER1
 62
     3
 10
3393.181396
 20
1925.738281
 40
40.000000
 41
0.930000
  1
ｍｍ
 50
0.000000
 51
0.000000
  7
EASYDRAW_FONT
 72
     5
 11
3455.181396
 21
1925.738281
  0
LINE
  8
CSLAYER1
  6
CONTINUOUS
 62
     5
 10
3468.515059
 20
1865.738538
 11
2588.515059
 21
1865.738538
  0
TEXT
  8
CSLAYER1
 62
     3
 10
2601.848145
 20
1872.404907
 40
40.000000
 41
0.846429
  1
リフト方式
 50
0.000000
 51
0.000000
  7
EASYDRAW_FONT
 72
     5
 11
2759.848145
 21
1872.404907
  0
TEXT
  8
CSLAYER1
 62
     3
 10
3094.848145
 20
1872.404907
 40
40.000000
 41
0.846429
  1
電動油圧式
 50
0.000000
 51
0.000000
  7
EASYDRAW_FONT
 72
     5
 11
3252.848145
 21
1872.404907
  0
LINE
  8
CSLAYER1
  6
CONTINUOUS
 62
     5
 10
3468.515059
 20
1705.738538
 11
2588.515059
 21
1705.738538
  0
TEXT
  8
CSLAYER1
 62
     3
 10
3094.848145
 20
1712.404785
 40
40.000000
 41
0.846429
  1
長さ 4m
 50
0.000000
 51
0.000000
  7
EASYDRAW_FONT
 72
     5
 11
3252.848145
 21
1712.404785
  0
TEXT
  8
CSLAYER1
 62
     3
 10
2601.848145
 20
1712.404785
 40
40.000000
 41
0.846429
  1
電源コード
 50
0.000000
 51
0.000000
  7
EASYDRAW_FONT
 72
     5
 11
2759.848145
 21
1712.404785
  0
TEXT
  8
CSLAYER1
 62
     3
 10
2601.848145
 20
1659.071533
 40
40.000000
 41
0.859091
  1
上昇時間
 50
0.000000
 51
0.000000
  7
EASYDRAW_FONT
 72
     5
 11
2727.848145
 21
1659.071533
  0
TEXT
  8
CSLAYER1
 62
     3
 10
2900.848165
 20
1659.071533
 40
40.000000
 41
0.660484
  1
約10sec/50Hz，8sec/60Hz
 50
0.000000
 51
0.000000
  7
EASYDRAW_FONT
 72
     5
 11
3446.848125
 21
1659.071533
  0
LINE
  8
CSLAYER1
  6
CONTINUOUS
 62
     5
 10
3468.515059
 20
1759.071871
 11
2588.515059
 21
1759.071871
  0
TEXT
  8
CSLAYER1
 62
     3
 10
2601.848145
 20
1765.738281
 40
40.000000
 41
0.859091
  1
モーター
 50
0.000000
 51
0.000000
  7
EASYDRAW_FONT
 72
     5
 11
2727.848145
 21
1765.738281
  0
TEXT
  8
CSLAYER1
 62
     3
 10
2934.848145
 20
1765.738281
 40
40.000000
 41
0.814773
  1
AC200V，三相，0.4kw
 50
0.000000
 51
0.000000
  7
EASYDRAW_FONT
 72
     5
 11
3412.848145
 21
1765.738281
  0
LINE
  8
CSLAYER1
  6
CONTINUOUS
 62
     5
 10
2892.515059
 20
1492.405201
 11
2892.515059
 21
1599.071868
  0
LINE
  8
CSLAYER1
  6
CONTINUOUS
 62
     5
 10
2892.515059
 20
1652.405204
 11
2892.515059
 21
2345.738538
  0
TEXT
  8
CSLAYER1
 62
     7
 10
505.991516
 20
2342.124756
 40
34.000000
 41
0.778846
  1
電動式油圧ユニット
 50
0.000000
 51
0.000000
  7
EASYDRAW_FONT
 72
     5
 11
735.491516
 21
2342.124756
  0
LINE
  8
CSLAYER1
  6
CONTINUOUS
 62
     5
 10
269.941749
 20
2395.738538
 11
988.133530
 21
2395.738538
  0
LINE
  8
CSLAYER1
  6
CONTINUOUS
 62
     5
 10
988.133530
 20
2395.738538
 11
988.133530
 21
1694.604267
  0
LINE
  8
CSLAYER1
  6
CONTINUOUS
 62
     5
 10
269.941749
 20
1694.604267
 11
269.941749
 21
2395.738538
  0
TEXT
  8
CSLAYER1
 62
     3
 10
406.999169
 20
2235.729352
 40
33.963734
 41
1.050000
  1
278
 50
30.000000
 51
0.000000
  7
EASYDRAW_FONT
 72
     5
 11
489.356844
 21
2283.278578
  0
TEXT
  8
CSLAYER1
 62
     3
 10
553.075163
 20
2269.822035
 40
33.963734
 41
1.050000
  1
415
 50
-30.000000
 51
0.000000
  7
EASYDRAW_FONT
 72
     5
 11
635.432838
 21
2222.272809
  0
TEXT
  8
CSLAYER1
 62
     3
 10
342.686762
 20
2103.180511
 40
33.963734
 41
1.050000
  1
275
 50
90.000000
 51
0.000000
  7
EASYDRAW_FONT
 72
     5
 11
342.686762
 21
2198.278962
  0
LINE
  8
CSLAYER1
  6
CONTINUOUS
 62
     5
 10
353.529215
 20
2195.735951
 11
390.889321
 21
2174.166084
  0
LINE
  8
CSLAYER1
  6
CONTINUOUS
 62
     5
 10
394.285695
 20
2219.266716
 11
394.285695
 21
2176.126981
  0
LINE
  8
CSLAYER1
  6
CONTINUOUS
 62
     5
 10
652.410068
 20
2207.501334
 11
652.410068
 21
2164.361598
  0
LINE
  8
CSLAYER1
  6
CONTINUOUS
 62
     5
 10
394.285695
 20
2211.423128
 11
513.158761
 21
2280.054525
  0
LINE
  8
CSLAYER1
  6
CONTINUOUS
 62
     5
 10
394.285695
 20
2211.423128
 11
415.498898
 21
2232.636331
  0
LINE
  8
CSLAYER1
  6
CONTINUOUS
 62
     5
 10
394.285695
 20
2211.423128
 11
423.263469
 21
2219.187699
  0
LINE
  8
CSLAYER1
  6
CONTINUOUS
 62
     5
 10
513.158761
 20
2280.054525
 11
491.945558
 21
2258.841321
  0
LINE
  8
CSLAYER1
  6
CONTINUOUS
 62
     5
 10
513.158761
 20
2280.054525
 11
484.180986
 21
2272.289953
  0
LINE
  8
CSLAYER1
  6
CONTINUOUS
 62
     5
 10
513.158761
 20
2280.054525
 11
652.410068
 21
2199.657745
  0
LINE
  8
CSLAYER1
  6
CONTINUOUS
 62
     5
 10
513.158761
 20
2280.054525
 11
542.136536
 21
2272.289953
  0
LINE
  8
CSLAYER1
  6
CONTINUOUS
 62
     5
 10
513.158761
 20
2280.054525
 11
534.371965
 21
2258.841321
  0
LINE
  8
CSLAYER1
  6
CONTINUOUS
 62
     5
 10
652.410068
 20
2199.657745
 11
623.432293
 21
2207.422317
  0
LINE
  8
CSLAYER1
  6
CONTINUOUS
 62
     5
 10
652.410068
 20
2199.657745
 11
631.196864
 21
2220.870949
  0
LINE
  8
CSLAYER1
  6
CONTINUOUS
 62
     5
 10
513.158761
 20
2287.898113
 11
513.158761
 21
2244.758378
  0
LINE
  8
CSLAYER1
  6
CONTINUOUS
 62
     5
 10
360.321961
 20
2191.814157
 11
360.321961
 21
2093.769304
  0
LINE
  8
CSLAYER1
  6
CONTINUOUS
 62
     5
 10
360.321961
 20
2191.814157
 11
352.557390
 21
2162.836382
  0
LINE
  8
CSLAYER1
  6
CONTINUOUS
 62
     5
 10
360.321961
 20
2191.814157
 11
368.086533
 21
2162.836382
  0
LINE
  8
CSLAYER1
  6
CONTINUOUS
 62
     5
 10
360.321961
 20
2093.769304
 11
352.557390
 21
2122.747079
  0
LINE
  8
CSLAYER1
  6
CONTINUOUS
 62
     5
 10
360.321961
 20
2093.769304
 11
368.086533
 21
2122.747079
  0
TEXT
  8
CSLAYER1
 62
     3
 10
768.924358
 20
2176.313299
 40
33.963734
 41
1.028571
  1
高圧ホース
 50
0.000000
 51
0.000000
  7
EASYDRAW_FONT
 72
     5
 11
931.950275
 21
2176.313299
  0
TEXT
  8
CSLAYER1
 62
     3
 10
324.221966
 20
1967.001287
 40
33.963734
 41
1.028571
  1
電源コード
 50
0.000000
 51
0.000000
  7
EASYDRAW_FONT
 72
     5
 11
487.247883
 21
1967.001287
  0
LINE
  8
CSLAYER1
  6
CONTINUOUS
 62
     5
 10
683.616373
 20
2042.268676
 11
757.000888
 21
2169.374384
  0
LINE
  8
CSLAYER1
  6
CONTINUOUS
 62
     5
 10
683.616373
 20
2042.268676
 11
691.380944
 21
2071.246451
  0
LINE
  8
CSLAYER1
  6
CONTINUOUS
 62
     5
 10
683.616373
 20
2042.268676
 11
704.829576
 21
2063.481879
  0
LINE
  8
CSLAYER1
  6
CONTINUOUS
 62
     5
 10
944.608183
 20
2169.374384
 11
757.000888
 21
2169.374384
  0
LINE
  8
CSLAYER1
  6
CONTINUOUS
 62
     5
 10
326.379287
 20
1960.684970
 11
491.060395
 21
1960.684970
  0
LINE
  8
CSLAYER1
  6
CONTINUOUS
 62
     3
 10
533.537001
 20
1993.763554
 11
568.519647
 21
2013.960794
  0
LINE
  8
CSLAYER1
  6
CONTINUOUS
 62
     3
 10
394.285695
 20
2074.160334
 11
402.776628
 21
2069.258091
  0
LINE
  8
CSLAYER1
  6
CONTINUOUS
 62
     3
 10
533.537001
 20
2091.808407
 11
533.537001
 21
1993.763554
  0
LINE
  8
CSLAYER1
  6
CONTINUOUS
 62
     3
 10
533.537001
 20
2091.808407
 11
652.410068
 21
2160.439804
  0
LINE
  8
CSLAYER1
  6
CONTINUOUS
 62
     3
 10
513.158761
 20
2240.836584
 11
652.410068
 21
2160.439804
  0
LINE
  8
CSLAYER1
  6
CONTINUOUS
 62
     3
 10
533.537001
 20
2013.372525
 11
551.537780
 21
2023.765279
  0
LINE
  8
CSLAYER1
  6
CONTINUOUS
 62
     3
 10
617.059916
 20
2102.413342
 11
652.410068
 21
2082.003922
  0
LINE
  8
CSLAYER1
  6
CONTINUOUS
 62
     3
 10
525.046068
 20
1998.665797
 11
533.537001
 21
1993.763554
  0
LINE
  8
CSLAYER1
  6
CONTINUOUS
 62
     3
 10
615.049961
 20
2103.965969
 11
613.821950
 21
2104.555573
  0
LINE
  8
CSLAYER1
  6
CONTINUOUS
 62
     3
 10
613.821950
 20
2104.555573
 11
612.499891
 21
2104.961606
  0
LINE
  8
CSLAYER1
  6
CONTINUOUS
 62
     3
 10
612.499891
 20
2104.961606
 11
611.093846
 21
2105.180978
  0
LINE
  8
CSLAYER1
  6
CONTINUOUS
 62
     3
 10
611.093846
 20
2105.180978
 11
609.614515
 21
2105.212020
  0
LINE
  8
CSLAYER1
  6
CONTINUOUS
 62
     3
 10
609.614515
 20
2105.212020
 11
608.073158
 21
2105.054496
  0
LINE
  8
CSLAYER1
  6
CONTINUOUS
 62
     3
 10
608.073158
 20
2105.054496
 11
606.481504
 21
2104.709604
  0
LINE
  8
CSLAYER1
  6
CONTINUOUS
 62
     3
 10
606.481504
 20
2104.709604
 11
604.851668
 21
2104.179969
  0
LINE
  8
CSLAYER1
  6
CONTINUOUS
 62
     3
 10
604.851668
 20
2104.179969
 11
603.196053
 21
2103.469622
  0
LINE
  8
CSLAYER1
  6
CONTINUOUS
 62
     3
 10
603.196053
 20
2103.469622
 11
601.527260
 21
2102.583969
  0
LINE
  8
CSLAYER1
  6
CONTINUOUS
 62
     3
 10
601.527260
 20
2102.583969
 11
599.857989
 21
2101.529751
  0
LINE
  8
CSLAYER1
  6
CONTINUOUS
 62
     3
 10
599.857989
 20
2101.529751
 11
598.200944
 21
2100.314990
  0
LINE
  8
CSLAYER1
  6
CONTINUOUS
 62
     3
 10
598.200944
 20
2100.314990
 11
596.568736
 21
2098.948933
  0
LINE
  8
CSLAYER1
  6
CONTINUOUS
 62
     3
 10
596.568736
 20
2098.948933
 11
594.973788
 21
2097.441974
  0
LINE
  8
CSLAYER1
  6
CONTINUOUS
 62
     3
 10
594.973788
 20
2097.441974
 11
593.428238
 21
2095.805584
  0
LINE
  8
CSLAYER1
  6
CONTINUOUS
 62
     3
 10
593.428238
 20
2095.805584
 11
591.943849
 21
2094.052216
  0
LINE
  8
CSLAYER1
  6
CONTINUOUS
 62
     3
 10
591.943849
 20
2094.052216
 11
590.531917
 21
2092.195215
  0
LINE
  8
CSLAYER1
  6
CONTINUOUS
 62
     3
 10
590.531917
 20
2092.195215
 11
589.203189
 21
2090.248712
  0
LINE
  8
CSLAYER1
  6
CONTINUOUS
 62
     3
 10
589.203189
 20
2090.248712
 11
587.967776
 21
2088.227523
  0
LINE
  8
CSLAYER1
  6
CONTINUOUS
 62
     3
 10
587.967776
 20
2088.227523
 11
586.835081
 21
2086.147030
  0
LINE
  8
CSLAYER1
  6
CONTINUOUS
 62
     3
 10
586.835081
 20
2086.147030
 11
585.813725
 21
2084.023066
  0
LINE
  8
CSLAYER1
  6
CONTINUOUS
 62
     3
 10
585.813725
 20
2084.023066
 11
584.911480
 21
2081.871796
  0
LINE
  8
CSLAYER1
  6
CONTINUOUS
 62
     3
 10
584.911480
 20
2081.871796
 11
584.135214
 21
2079.709593
  0
LINE
  8
CSLAYER1
  6
CONTINUOUS
 62
     3
 10
584.135214
 20
2079.709593
 11
583.490833
 21
2077.552913
  0
LINE
  8
CSLAYER1
  6
CONTINUOUS
 62
     3
 10
583.490833
 20
2077.552913
 11
582.983243
 21
2075.418168
  0
LINE
  8
CSLAYER1
  6
CONTINUOUS
 62
     3
 10
582.983243
 20
2075.418168
 11
582.616306
 21
2073.321606
  0
LINE
  8
CSLAYER1
  6
CONTINUOUS
 62
     3
 10
582.616306
 20
2073.321606
 11
582.392815
 21
2071.279183
  0
LINE
  8
CSLAYER1
  6
CONTINUOUS
 62
     3
 10
582.392815
 20
2071.279183
 11
582.314471
 21
2069.306442
  0
LINE
  8
CSLAYER1
  6
CONTINUOUS
 62
     3
 10
582.314471
 20
2069.306442
 11
582.381870
 21
2067.418399
  0
LINE
  8
CSLAYER1
  6
CONTINUOUS
 62
     3
 10
582.381870
 20
2067.418399
 11
582.594499
 21
2065.629421
  0
LINE
  8
CSLAYER1
  6
CONTINUOUS
 62
     3
 10
582.594499
 20
2065.629421
 11
582.950740
 21
2063.953124
  0
LINE
  8
CSLAYER1
  6
CONTINUOUS
 62
     3
 10
582.950740
 20
2063.953124
 11
583.447881
 21
2062.402265
  0
LINE
  8
CSLAYER1
  6
CONTINUOUS
 62
     3
 10
583.447881
 20
2062.402265
 11
584.082140
 21
2060.988648
  0
LINE
  8
CSLAYER1
  6
CONTINUOUS
 62
     3
 10
584.082140
 20
2060.988648
 11
584.848688
 21
2059.723031
  0
LINE
  8
CSLAYER1
  6
CONTINUOUS
 62
     3
 10
584.848688
 20
2059.723031
 11
585.741693
 21
2058.615047
  0
LINE
  8
CSLAYER1
  6
CONTINUOUS
 62
     3
 10
586.754357
 20
2057.673126
 11
587.878975
 21
2056.904439
  0
LINE
  8
CSLAYER1
  6
CONTINUOUS
 62
     3
 10
587.878975
 20
2056.904439
 11
589.106986
 21
2056.314836
  0
LINE
  8
CSLAYER1
  6
CONTINUOUS
 62
     3
 10
589.106986
 20
2056.314836
 11
590.429045
 21
2055.908803
  0
LINE
  8
CSLAYER1
  6
CONTINUOUS
 62
     3
 10
590.429045
 20
2055.908803
 11
591.835090
 21
2055.689430
  0
LINE
  8
CSLAYER1
  6
CONTINUOUS
 62
     3
 10
591.835090
 20
2055.689430
 11
593.314421
 21
2055.658388
  0
LINE
  8
CSLAYER1
  6
CONTINUOUS
 62
     3
 10
593.314421
 20
2055.658388
 11
594.855778
 21
2055.815913
  0
LINE
  8
CSLAYER1
  6
CONTINUOUS
 62
     3
 10
594.855778
 20
2055.815913
 11
596.447432
 21
2056.160805
  0
LINE
  8
CSLAYER1
  6
CONTINUOUS
 62
     3
 10
596.447432
 20
2056.160805
 11
598.077268
 21
2056.690440
  0
LINE
  8
CSLAYER1
  6
CONTINUOUS
 62
     3
 10
598.077268
 20
2056.690440
 11
599.732883
 21
2057.400787
  0
LINE
  8
CSLAYER1
  6
CONTINUOUS
 62
     3
 10
599.732883
 20
2057.400787
 11
601.401676
 21
2058.286439
  0
LINE
  8
CSLAYER1
  6
CONTINUOUS
 62
     3
 10
601.401676
 20
2058.286439
 11
603.070947
 21
2059.340658
  0
LINE
  8
CSLAYER1
  6
CONTINUOUS
 62
     3
 10
603.070947
 20
2059.340658
 11
604.727992
 21
2060.555418
  0
LINE
  8
CSLAYER1
  6
CONTINUOUS
 62
     3
 10
604.727992
 20
2060.555418
 11
606.360200
 21
2061.921476
  0
LINE
  8
CSLAYER1
  6
CONTINUOUS
 62
     3
 10
606.360200
 20
2061.921476
 11
607.955148
 21
2063.428434
  0
LINE
  8
CSLAYER1
  6
CONTINUOUS
 62
     3
 10
607.955148
 20
2063.428434
 11
609.500698
 21
2065.064824
  0
LINE
  8
CSLAYER1
  6
CONTINUOUS
 62
     3
 10
609.500698
 20
2065.064824
 11
610.985087
 21
2066.818192
  0
LINE
  8
CSLAYER1
  6
CONTINUOUS
 62
     3
 10
610.985087
 20
2066.818192
 11
612.397019
 21
2068.675194
  0
LINE
  8
CSLAYER1
  6
CONTINUOUS
 62
     3
 10
612.397019
 20
2068.675194
 11
613.725747
 21
2070.621696
  0
LINE
  8
CSLAYER1
  6
CONTINUOUS
 62
     3
 10
613.725747
 20
2070.621696
 11
614.961160
 21
2072.642885
  0
LINE
  8
CSLAYER1
  6
CONTINUOUS
 62
     3
 10
614.961160
 20
2072.642885
 11
616.093855
 21
2074.723379
  0
LINE
  8
CSLAYER1
  6
CONTINUOUS
 62
     3
 10
616.093855
 20
2074.723379
 11
617.115211
 21
2076.847343
  0
LINE
  8
CSLAYER1
  6
CONTINUOUS
 62
     3
 10
617.115211
 20
2076.847343
 11
618.017456
 21
2078.998612
  0
LINE
  8
CSLAYER1
  6
CONTINUOUS
 62
     3
 10
618.017456
 20
2078.998612
 11
618.793722
 21
2081.160815
  0
LINE
  8
CSLAYER1
  6
CONTINUOUS
 62
     3
 10
618.793722
 20
2081.160815
 11
619.438103
 21
2083.317496
  0
LINE
  8
CSLAYER1
  6
CONTINUOUS
 62
     3
 10
619.438103
 20
2083.317496
 11
619.945693
 21
2085.452240
  0
LINE
  8
CSLAYER1
  6
CONTINUOUS
 62
     3
 10
619.945693
 20
2085.452240
 11
620.312630
 21
2087.548802
  0
LINE
  8
CSLAYER1
  6
CONTINUOUS
 62
     3
 10
620.312630
 20
2087.548802
 11
620.536121
 21
2089.591226
  0
LINE
  8
CSLAYER1
  6
CONTINUOUS
 62
     3
 10
620.536121
 20
2089.591226
 11
620.614465
 21
2091.563966
  0
LINE
  8
CSLAYER1
  6
CONTINUOUS
 62
     3
 10
620.614465
 20
2091.563966
 11
620.547066
 21
2093.452010
  0
LINE
  8
CSLAYER1
  6
CONTINUOUS
 62
     3
 10
620.547066
 20
2093.452010
 11
620.334437
 21
2095.240988
  0
LINE
  8
CSLAYER1
  6
CONTINUOUS
 62
     3
 10
620.334437
 20
2095.240988
 11
619.978196
 21
2096.917285
  0
LINE
  8
CSLAYER1
  6
CONTINUOUS
 62
     3
 10
619.978196
 20
2096.917285
 11
619.481055
 21
2098.468143
  0
LINE
  8
CSLAYER1
  6
CONTINUOUS
 62
     3
 10
619.481055
 20
2098.468143
 11
618.846796
 21
2099.881760
  0
LINE
  8
CSLAYER1
  6
CONTINUOUS
 62
     3
 10
618.846796
 20
2099.881760
 11
618.080248
 21
2101.147377
  0
LINE
  8
CSLAYER1
  6
CONTINUOUS
 62
     3
 10
618.080248
 20
2101.147377
 11
617.187243
 21
2102.255362
  0
LINE
  8
CSLAYER1
  6
CONTINUOUS
 62
     3
 10
617.187243
 20
2102.255362
 11
616.174579
 21
2103.197282
  0
LINE
  8
CSLAYER1
  6
CONTINUOUS
 62
     3
 10
616.174579
 20
2103.197282
 11
615.049961
 21
2103.965969
  0
LINE
  8
CSLAYER1
  6
CONTINUOUS
 62
     3
 10
533.537001
 20
2088.278792
 11
587.878975
 21
2056.904439
  0
LINE
  8
CSLAYER1
  6
CONTINUOUS
 62
     3
 10
584.822239
 20
2121.417953
 11
615.049961
 21
2103.965969
  0
LINE
  8
CSLAYER1
  6
CONTINUOUS
 62
     3
 10
402.776628
 20
2069.258091
 11
419.758495
 21
2079.062576
  0
LINE
  8
CSLAYER1
  6
CONTINUOUS
 62
     3
 10
394.285695
 20
2074.160334
 11
411.267561
 21
2083.964819
  0
LINE
  8
CSLAYER1
  6
CONTINUOUS
 62
     3
 10
606.559028
 20
2089.259241
 11
606.098524
 21
2089.480342
  0
LINE
  8
CSLAYER1
  6
CONTINUOUS
 62
     3
 10
606.098524
 20
2089.480342
 11
605.602752
 21
2089.632605
  0
LINE
  8
CSLAYER1
  6
CONTINUOUS
 62
     3
 10
605.602752
 20
2089.632605
 11
605.075485
 21
2089.714869
  0
LINE
  8
CSLAYER1
  6
CONTINUOUS
 62
     3
 10
605.075485
 20
2089.714869
 11
604.520736
 21
2089.726510
  0
LINE
  8
CSLAYER1
  6
CONTINUOUS
 62
     3
 10
604.520736
 20
2089.726510
 11
603.942727
 21
2089.667438
  0
LINE
  8
CSLAYER1
  6
CONTINUOUS
 62
     3
 10
603.942727
 20
2089.667438
 11
603.345857
 21
2089.538104
  0
LINE
  8
CSLAYER1
  6
CONTINUOUS
 62
     3
 10
603.345857
 20
2089.538104
 11
602.734668
 21
2089.339491
  0
LINE
  8
CSLAYER1
  6
CONTINUOUS
 62
     3
 10
602.734668
 20
2089.339491
 11
602.113812
 21
2089.073111
  0
LINE
  8
CSLAYER1
  6
CONTINUOUS
 62
     3
 10
602.113812
 20
2089.073111
 11
601.488015
 21
2088.740991
  0
LINE
  8
CSLAYER1
  6
CONTINUOUS
 62
     3
 10
601.488015
 20
2088.740991
 11
600.862038
 21
2088.345659
  0
LINE
  8
CSLAYER1
  6
CONTINUOUS
 62
     3
 10
600.862038
 20
2088.345659
 11
600.240646
 21
2087.890124
  0
LINE
  8
CSLAYER1
  6
CONTINUOUS
 62
     3
 10
600.240646
 20
2087.890124
 11
599.628569
 21
2087.377852
  0
LINE
  8
CSLAYER1
  6
CONTINUOUS
 62
     3
 10
599.628569
 20
2087.377852
 11
599.030463
 21
2086.812743
  0
LINE
  8
CSLAYER1
  6
CONTINUOUS
 62
     3
 10
599.030463
 20
2086.812743
 11
598.450882
 21
2086.199097
  0
LINE
  8
CSLAYER1
  6
CONTINUOUS
 62
     3
 10
598.450882
 20
2086.199097
 11
597.894236
 21
2085.541584
  0
LINE
  8
CSLAYER1
  6
CONTINUOUS
 62
     3
 10
597.894236
 20
2085.541584
 11
597.364761
 21
2084.845208
  0
LINE
  8
CSLAYER1
  6
CONTINUOUS
 62
     3
 10
597.364761
 20
2084.845208
 11
596.866488
 21
2084.115270
  0
LINE
  8
CSLAYER1
  6
CONTINUOUS
 62
     3
 10
596.866488
 20
2084.115270
 11
596.403208
 21
2083.357324
  0
LINE
  8
CSLAYER1
  6
CONTINUOUS
 62
     3
 10
596.403208
 20
2083.357324
 11
595.978448
 21
2082.577139
  0
LINE
  8
CSLAYER1
  6
CONTINUOUS
 62
     3
 10
595.978448
 20
2082.577139
 11
595.595439
 21
2081.780652
  0
LINE
  8
CSLAYER1
  6
CONTINUOUS
 62
     3
 10
595.595439
 20
2081.780652
 11
595.257097
 21
2080.973926
  0
LINE
  8
CSLAYER1
  6
CONTINUOUS
 62
     3
 10
595.257097
 20
2080.973926
 11
594.965998
 21
2080.163100
  0
LINE
  8
CSLAYER1
  6
CONTINUOUS
 62
     3
 10
594.965998
 20
2080.163100
 11
594.724355
 21
2079.354345
  0
LINE
  8
CSLAYER1
  6
CONTINUOUS
 62
     3
 10
594.724355
 20
2079.354345
 11
594.534009
 21
2078.553816
  0
LINE
  8
CSLAYER1
  6
CONTINUOUS
 62
     3
 10
594.534009
 20
2078.553816
 11
594.396407
 21
2077.767605
  0
LINE
  8
CSLAYER1
  6
CONTINUOUS
 62
     3
 10
594.396407
 20
2077.767605
 11
594.312598
 21
2077.001696
  0
LINE
  8
CSLAYER1
  6
CONTINUOUS
 62
     3
 10
594.312598
 20
2077.001696
 11
594.283219
 21
2076.261918
  0
LINE
  8
CSLAYER1
  6
CONTINUOUS
 62
     3
 10
594.283219
 20
2076.261918
 11
594.308494
 21
2075.553902
  0
LINE
  8
CSLAYER1
  6
CONTINUOUS
 62
     3
 10
594.308494
 20
2075.553902
 11
594.388229
 21
2074.883035
  0
LINE
  8
CSLAYER1
  6
CONTINUOUS
 62
     3
 10
594.388229
 20
2074.883035
 11
594.521820
 21
2074.254424
  0
LINE
  8
CSLAYER1
  6
CONTINUOUS
 62
     3
 10
594.521820
 20
2074.254424
 11
594.708248
 21
2073.672852
  0
LINE
  8
CSLAYER1
  6
CONTINUOUS
 62
     3
 10
594.708248
 20
2073.672852
 11
594.946095
 21
2073.142746
  0
LINE
  8
CSLAYER1
  6
CONTINUOUS
 62
     3
 10
594.946095
 20
2073.142746
 11
595.233550
 21
2072.668139
  0
LINE
  8
CSLAYER1
  6
CONTINUOUS
 62
     3
 10
595.233550
 20
2072.668139
 11
595.568427
 21
2072.252645
  0
LINE
  8
CSLAYER1
  6
CONTINUOUS
 62
     3
 10
595.568427
 20
2072.252645
 11
595.948176
 21
2071.899425
  0
LINE
  8
CSLAYER1
  6
CONTINUOUS
 62
     3
 10
595.948176
 20
2071.899425
 11
596.369908
 21
2071.611167
  0
LINE
  8
CSLAYER1
  6
CONTINUOUS
 62
     3
 10
596.369908
 20
2071.611167
 11
596.830412
 21
2071.390066
  0
LINE
  8
CSLAYER1
  6
CONTINUOUS
 62
     3
 10
596.830412
 20
2071.390066
 11
597.326184
 21
2071.237804
  0
LINE
  8
CSLAYER1
  6
CONTINUOUS
 62
     3
 10
597.326184
 20
2071.237804
 11
597.853451
 21
2071.155539
  0
LINE
  8
CSLAYER1
  6
CONTINUOUS
 62
     3
 10
597.853451
 20
2071.155539
 11
598.408200
 21
2071.143898
  0
LINE
  8
CSLAYER1
  6
CONTINUOUS
 62
     3
 10
598.408200
 20
2071.143898
 11
598.986209
 21
2071.202970
  0
LINE
  8
CSLAYER1
  6
CONTINUOUS
 62
     3
 10
598.986209
 20
2071.202970
 11
599.583079
 21
2071.332304
  0
LINE
  8
CSLAYER1
  6
CONTINUOUS
 62
     3
 10
599.583079
 20
2071.332304
 11
600.194268
 21
2071.530917
  0
LINE
  8
CSLAYER1
  6
CONTINUOUS
 62
     3
 10
600.194268
 20
2071.530917
 11
600.815123
 21
2071.797298
  0
LINE
  8
CSLAYER1
  6
CONTINUOUS
 62
     3
 10
600.815123
 20
2071.797298
 11
601.440921
 21
2072.129417
  0
LINE
  8
CSLAYER1
  6
CONTINUOUS
 62
     3
 10
601.440921
 20
2072.129417
 11
602.066898
 21
2072.524749
  0
LINE
  8
CSLAYER1
  6
CONTINUOUS
 62
     3
 10
602.066898
 20
2072.524749
 11
602.688289
 21
2072.980284
  0
LINE
  8
CSLAYER1
  6
CONTINUOUS
 62
     3
 10
602.688289
 20
2072.980284
 11
603.300367
 21
2073.492556
  0
LINE
  8
CSLAYER1
  6
CONTINUOUS
 62
     3
 10
603.300367
 20
2073.492556
 11
603.898473
 21
2074.057665
  0
LINE
  8
CSLAYER1
  6
CONTINUOUS
 62
     3
 10
603.898473
 20
2074.057665
 11
604.478054
 21
2074.671312
  0
LINE
  8
CSLAYER1
  6
CONTINUOUS
 62
     3
 10
604.478054
 20
2074.671312
 11
605.034700
 21
2075.328825
  0
LINE
  8
CSLAYER1
  6
CONTINUOUS
 62
     3
 10
605.034700
 20
2075.328825
 11
605.564175
 21
2076.025200
  0
LINE
  8
CSLAYER1
  6
CONTINUOUS
 62
     3
 10
605.564175
 20
2076.025200
 11
606.062448
 21
2076.755139
  0
LINE
  8
CSLAYER1
  6
CONTINUOUS
 62
     3
 10
606.062448
 20
2076.755139
 11
606.525727
 21
2077.513085
  0
LINE
  8
CSLAYER1
  6
CONTINUOUS
 62
     3
 10
606.525727
 20
2077.513085
 11
606.950488
 21
2078.293270
  0
LINE
  8
CSLAYER1
  6
CONTINUOUS
 62
     3
 10
606.950488
 20
2078.293270
 11
607.333497
 21
2079.089756
  0
LINE
  8
CSLAYER1
  6
CONTINUOUS
 62
     3
 10
607.333497
 20
2079.089756
 11
607.671838
 21
2079.896482
  0
LINE
  8
CSLAYER1
  6
CONTINUOUS
 62
     3
 10
607.671838
 20
2079.896482
 11
607.962938
 21
2080.707308
  0
LINE
  8
CSLAYER1
  6
CONTINUOUS
 62
     3
 10
607.962938
 20
2080.707308
 11
608.204581
 21
2081.516064
  0
LINE
  8
CSLAYER1
  6
CONTINUOUS
 62
     3
 10
608.204581
 20
2081.516064
 11
608.394927
 21
2082.316593
  0
LINE
  8
CSLAYER1
  6
CONTINUOUS
 62
     3
 10
608.394927
 20
2082.316593
 11
608.532529
 21
2083.102803
  0
LINE
  8
CSLAYER1
  6
CONTINUOUS
 62
     3
 10
608.532529
 20
2083.102803
 11
608.616338
 21
2083.868712
  0
LINE
  8
CSLAYER1
  6
CONTINUOUS
 62
     3
 10
608.616338
 20
2083.868712
 11
608.645717
 21
2084.608490
  0
LINE
  8
CSLAYER1
  6
CONTINUOUS
 62
     3
 10
608.645717
 20
2084.608490
 11
608.620442
 21
2085.316506
  0
LINE
  8
CSLAYER1
  6
CONTINUOUS
 62
     3
 10
608.620442
 20
2085.316506
 11
608.540706
 21
2085.987373
  0
LINE
  8
CSLAYER1
  6
CONTINUOUS
 62
     3
 10
608.540706
 20
2085.987373
 11
608.407116
 21
2086.615984
  0
LINE
  8
CSLAYER1
  6
CONTINUOUS
 62
     3
 10
608.407116
 20
2086.615984
 11
608.220688
 21
2087.197556
  0
LINE
  8
CSLAYER1
  6
CONTINUOUS
 62
     3
 10
608.220688
 20
2087.197556
 11
607.982841
 21
2087.727663
  0
LINE
  8
CSLAYER1
  6
CONTINUOUS
 62
     3
 10
607.982841
 20
2087.727663
 11
607.695385
 21
2088.202269
  0
LINE
  8
CSLAYER1
  6
CONTINUOUS
 62
     3
 10
607.695385
 20
2088.202269
 11
607.360509
 21
2088.617763
  0
LINE
  8
CSLAYER1
  6
CONTINUOUS
 62
     3
 10
607.360509
 20
2088.617763
 11
606.980759
 21
2088.970983
  0
LINE
  8
CSLAYER1
  6
CONTINUOUS
 62
     3
 10
606.980759
 20
2088.970983
 11
606.559028
 21
2089.259241
  0
LINE
  8
CSLAYER1
  6
CONTINUOUS
 62
     3
 10
596.369908
 20
2128.085003
 11
652.410068
 21
2095.730201
  0
LINE
  8
CSLAYER1
  6
CONTINUOUS
 62
     3
 10
525.046068
 20
1998.665797
 11
533.537001
 21
2003.568039
  0
LINE
  8
CSLAYER1
  6
CONTINUOUS
 62
     3
 10
616.098329
 20
2074.731596
 11
872.044902
 21
1926.960773
  0
LINE
  8
CSLAYER1
  6
CONTINUOUS
 62
     3
 10
533.537001
 20
2038.864187
 11
682.269300
 21
1952.993554
  0
LINE
  8
CSLAYER1
  6
CONTINUOUS
 62
     3
 10
533.537001
 20
2034.158034
 11
660.007027
 21
1961.140530
  0
LINE
  8
CSLAYER1
  6
CONTINUOUS
 62
     3
 10
555.613428
 20
2026.118356
 11
623.706180
 21
2065.431724
  0
LINE
  8
CSLAYER1
  6
CONTINUOUS
 62
     3
 10
572.595295
 20
2016.313870
 11
640.688047
 21
2055.627239
  0
LINE
  8
CSLAYER1
  6
CONTINUOUS
 62
     3
 10
627.956180
 20
2067.885463
 11
652.410068
 21
2082.003922
  0
LINE
  8
CSLAYER1
  6
CONTINUOUS
 62
     3
 10
644.938047
 20
2058.080978
 11
652.410068
 21
2062.394951
  0
LINE
  8
CSLAYER1
  6
CONTINUOUS
 62
     3
 10
695.175518
 20
1927.109713
 11
694.955806
 21
1929.996081
  0
LINE
  8
CSLAYER1
  6
CONTINUOUS
 62
     3
 10
694.955806
 20
1929.996081
 11
694.298343
 21
1932.860481
  0
LINE
  8
CSLAYER1
  6
CONTINUOUS
 62
     3
 10
694.298343
 20
1932.860481
 11
693.208132
 21
1935.681115
  0
LINE
  8
CSLAYER1
  6
CONTINUOUS
 62
     3
 10
693.208132
 20
1935.681115
 11
691.693470
 21
1938.436515
  0
LINE
  8
CSLAYER1
  6
CONTINUOUS
 62
     3
 10
691.693470
 20
1938.436515
 11
689.765885
 21
1941.105712
  0
LINE
  8
CSLAYER1
  6
CONTINUOUS
 62
     3
 10
689.765885
 20
1941.105712
 11
687.440047
 21
1943.668390
  0
LINE
  8
CSLAYER1
  6
CONTINUOUS
 62
     3
 10
687.440047
 20
1943.668390
 11
684.733656
 21
1946.105047
  0
LINE
  8
CSLAYER1
  6
CONTINUOUS
 62
     3
 10
684.733656
 20
1946.105047
 11
681.667311
 21
1948.397138
  0
LINE
  8
CSLAYER1
  6
CONTINUOUS
 62
     3
 10
681.667311
 20
1948.397138
 11
678.264348
 21
1950.527219
  0
LINE
  8
CSLAYER1
  6
CONTINUOUS
 62
     3
 10
678.264348
 20
1950.527219
 11
674.550665
 21
1952.479079
  0
LINE
  8
CSLAYER1
  6
CONTINUOUS
 62
     3
 10
674.550665
 20
1952.479079
 11
670.554527
 21
1954.237862
  0
LINE
  8
CSLAYER1
  6
CONTINUOUS
 62
     3
 10
670.554527
 20
1954.237862
 11
666.306345
 21
1955.790184
  0
LINE
  8
CSLAYER1
  6
CONTINUOUS
 62
     3
 10
666.306345
 20
1955.790184
 11
661.838451
 21
1957.124230
  0
LINE
  8
CSLAYER1
  6
CONTINUOUS
 62
     3
 10
661.838451
 20
1957.124230
 11
657.184849
 21
1958.229847
  0
LINE
  8
CSLAYER1
  6
CONTINUOUS
 62
     3
 10
657.184849
 20
1958.229847
 11
652.380955
 21
1959.098621
  0
LINE
  8
CSLAYER1
  6
CONTINUOUS
 62
     3
 10
652.380955
 20
1959.098621
 11
647.463330
 21
1959.723941
  0
LINE
  8
CSLAYER1
  6
CONTINUOUS
 62
     3
 10
647.463330
 20
1959.723941
 11
642.469400
 21
1960.101046
  0
LINE
  8
CSLAYER1
  6
CONTINUOUS
 62
     3
 10
642.469400
 20
1960.101046
 11
637.437172
 21
1960.227068
  0
LINE
  8
CSLAYER1
  6
CONTINUOUS
 62
     3
 10
637.437172
 20
1960.227068
 11
632.404943
 21
1960.101046
  0
LINE
  8
CSLAYER1
  6
CONTINUOUS
 62
     3
 10
632.404943
 20
1960.101046
 11
627.411013
 21
1959.723941
  0
LINE
  8
CSLAYER1
  6
CONTINUOUS
 62
     3
 10
627.411013
 20
1959.723941
 11
622.493388
 21
1959.098621
  0
LINE
  8
CSLAYER1
  6
CONTINUOUS
 62
     3
 10
622.493388
 20
1959.098621
 11
617.689494
 21
1958.229847
  0
LINE
  8
CSLAYER1
  6
CONTINUOUS
 62
     3
 10
617.689494
 20
1958.229847
 11
613.035892
 21
1957.124230
  0
LINE
  8
CSLAYER1
  6
CONTINUOUS
 62
     3
 10
613.035892
 20
1957.124230
 11
608.567998
 21
1955.790184
  0
LINE
  8
CSLAYER1
  6
CONTINUOUS
 62
     3
 10
608.567998
 20
1955.790184
 11
604.319816
 21
1954.237862
  0
LINE
  8
CSLAYER1
  6
CONTINUOUS
 62
     3
 10
604.319816
 20
1954.237862
 11
600.323678
 21
1952.479079
  0
LINE
  8
CSLAYER1
  6
CONTINUOUS
 62
     3
 10
600.323678
 20
1952.479079
 11
596.609995
 21
1950.527219
  0
LINE
  8
CSLAYER1
  6
CONTINUOUS
 62
     3
 10
596.609995
 20
1950.527219
 11
593.207032
 21
1948.397138
  0
LINE
  8
CSLAYER1
  6
CONTINUOUS
 62
     3
 10
593.207032
 20
1948.397138
 11
590.140687
 21
1946.105047
  0
LINE
  8
CSLAYER1
  6
CONTINUOUS
 62
     3
 10
590.140687
 20
1946.105047
 11
587.434297
 21
1943.668390
  0
LINE
  8
CSLAYER1
  6
CONTINUOUS
 62
     3
 10
587.434297
 20
1943.668390
 11
585.108458
 21
1941.105712
  0
LINE
  8
CSLAYER1
  6
CONTINUOUS
 62
     3
 10
585.108458
 20
1941.105712
 11
583.180873
 21
1938.436515
  0
LINE
  8
CSLAYER1
  6
CONTINUOUS
 62
     3
 10
583.180873
 20
1938.436515
 11
581.666211
 21
1935.681115
  0
LINE
  8
CSLAYER1
  6
CONTINUOUS
 62
     3
 10
581.666211
 20
1935.681115
 11
580.576000
 21
1932.860481
  0
LINE
  8
CSLAYER1
  6
CONTINUOUS
 62
     3
 10
580.576000
 20
1932.860481
 11
579.918537
 21
1929.996081
  0
LINE
  8
CSLAYER1
  6
CONTINUOUS
 62
     3
 10
579.918537
 20
1929.996081
 11
579.698825
 21
1927.109713
  0
LINE
  8
CSLAYER1
  6
CONTINUOUS
 62
     3
 10
579.698825
 20
1927.109713
 11
579.918537
 21
1924.223345
  0
LINE
  8
CSLAYER1
  6
CONTINUOUS
 62
     3
 10
579.918537
 20
1924.223345
 11
580.576000
 21
1921.358945
  0
LINE
  8
CSLAYER1
  6
CONTINUOUS
 62
     3
 10
580.576000
 20
1921.358945
 11
581.666211
 21
1918.538311
  0
LINE
  8
CSLAYER1
  6
CONTINUOUS
 62
     3
 10
581.666211
 20
1918.538311
 11
583.180873
 21
1915.782910
  0
LINE
  8
CSLAYER1
  6
CONTINUOUS
 62
     3
 10
583.180873
 20
1915.782910
 11
585.108458
 21
1913.113714
  0
LINE
  8
CSLAYER1
  6
CONTINUOUS
 62
     3
 10
585.108458
 20
1913.113714
 11
587.434297
 21
1910.551035
  0
LINE
  8
CSLAYER1
  6
CONTINUOUS
 62
     3
 10
587.434297
 20
1910.551035
 11
590.140687
 21
1908.114378
  0
LINE
  8
CSLAYER1
  6
CONTINUOUS
 62
     3
 10
590.140687
 20
1908.114378
 11
593.207032
 21
1905.822287
  0
LINE
  8
CSLAYER1
  6
CONTINUOUS
 62
     3
 10
593.207032
 20
1905.822287
 11
596.609995
 21
1903.692207
  0
LINE
  8
CSLAYER1
  6
CONTINUOUS
 62
     3
 10
596.609995
 20
1903.692207
 11
600.323678
 21
1901.740347
  0
LINE
  8
CSLAYER1
  6
CONTINUOUS
 62
     3
 10
600.323678
 20
1901.740347
 11
604.319816
 21
1899.981564
  0
LINE
  8
CSLAYER1
  6
CONTINUOUS
 62
     3
 10
604.319816
 20
1899.981564
 11
608.567998
 21
1898.429242
  0
LINE
  8
CSLAYER1
  6
CONTINUOUS
 62
     3
 10
608.567998
 20
1898.429242
 11
613.035892
 21
1897.095196
  0
LINE
  8
CSLAYER1
  6
CONTINUOUS
 62
     3
 10
613.035892
 20
1897.095196
 11
617.689494
 21
1895.989579
  0
LINE
  8
CSLAYER1
  6
CONTINUOUS
 62
     3
 10
617.689494
 20
1895.989579
 11
622.493388
 21
1895.120804
  0
LINE
  8
CSLAYER1
  6
CONTINUOUS
 62
     3
 10
622.493388
 20
1895.120804
 11
627.411013
 21
1894.495485
  0
LINE
  8
CSLAYER1
  6
CONTINUOUS
 62
     3
 10
627.411013
 20
1894.495485
 11
632.404943
 21
1894.118379
  0
LINE
  8
CSLAYER1
  6
CONTINUOUS
 62
     3
 10
632.404943
 20
1894.118379
 11
637.437172
 21
1893.992358
  0
LINE
  8
CSLAYER1
  6
CONTINUOUS
 62
     3
 10
637.437172
 20
1893.992358
 11
642.469400
 21
1894.118379
  0
LINE
  8
CSLAYER1
  6
CONTINUOUS
 62
     3
 10
642.469400
 20
1894.118379
 11
647.463330
 21
1894.495485
  0
LINE
  8
CSLAYER1
  6
CONTINUOUS
 62
     3
 10
647.463330
 20
1894.495485
 11
652.380955
 21
1895.120804
  0
LINE
  8
CSLAYER1
  6
CONTINUOUS
 62
     3
 10
652.380955
 20
1895.120804
 11
657.184849
 21
1895.989579
  0
LINE
  8
CSLAYER1
  6
CONTINUOUS
 62
     3
 10
657.184849
 20
1895.989579
 11
661.838451
 21
1897.095196
  0
LINE
  8
CSLAYER1
  6
CONTINUOUS
 62
     3
 10
661.838451
 20
1897.095196
 11
666.306345
 21
1898.429242
  0
LINE
  8
CSLAYER1
  6
CONTINUOUS
 62
     3
 10
666.306345
 20
1898.429242
 11
670.554527
 21
1899.981564
  0
LINE
  8
CSLAYER1
  6
CONTINUOUS
 62
     3
 10
670.554527
 20
1899.981564
 11
674.550665
 21
1901.740347
  0
LINE
  8
CSLAYER1
  6
CONTINUOUS
 62
     3
 10
674.550665
 20
1901.740347
 11
678.264348
 21
1903.692207
  0
LINE
  8
CSLAYER1
  6
CONTINUOUS
 62
     3
 10
678.264348
 20
1903.692207
 11
681.667311
 21
1905.822287
  0
LINE
  8
CSLAYER1
  6
CONTINUOUS
 62
     3
 10
681.667311
 20
1905.822287
 11
684.733656
 21
1908.114378
  0
LINE
  8
CSLAYER1
  6
CONTINUOUS
 62
     3
 10
684.733656
 20
1908.114378
 11
687.440047
 21
1910.551035
  0
LINE
  8
CSLAYER1
  6
CONTINUOUS
 62
     3
 10
687.440047
 20
1910.551035
 11
689.765885
 21
1913.113714
  0
LINE
  8
CSLAYER1
  6
CONTINUOUS
 62
     3
 10
689.765885
 20
1913.113714
 11
691.693470
 21
1915.782910
  0
LINE
  8
CSLAYER1
  6
CONTINUOUS
 62
     3
 10
691.693470
 20
1915.782910
 11
693.208132
 21
1918.538311
  0
LINE
  8
CSLAYER1
  6
CONTINUOUS
 62
     3
 10
693.208132
 20
1918.538311
 11
694.298343
 21
1921.358945
  0
LINE
  8
CSLAYER1
  6
CONTINUOUS
 62
     3
 10
694.298343
 20
1921.358945
 11
694.955806
 21
1924.223345
  0
LINE
  8
CSLAYER1
  6
CONTINUOUS
 62
     3
 10
694.955806
 20
1924.223345
 11
695.175518
 21
1927.109713
  0
LINE
  8
CSLAYER1
  6
CONTINUOUS
 62
     3
 10
700.949353
 20
1927.109713
 11
700.707670
 21
1930.284717
  0
LINE
  8
CSLAYER1
  6
CONTINUOUS
 62
     3
 10
700.707670
 20
1930.284717
 11
699.984460
 21
1933.435558
  0
LINE
  8
CSLAYER1
  6
CONTINUOUS
 62
     3
 10
699.984460
 20
1933.435558
 11
698.785228
 21
1936.538255
  0
LINE
  8
CSLAYER1
  6
CONTINUOUS
 62
     3
 10
698.785228
 20
1936.538255
 11
697.119100
 21
1939.569196
  0
LINE
  8
CSLAYER1
  6
CONTINUOUS
 62
     3
 10
697.119100
 20
1939.569196
 11
694.998756
 21
1942.505312
  0
LINE
  8
CSLAYER1
  6
CONTINUOUS
 62
     3
 10
694.998756
 20
1942.505312
 11
692.440334
 21
1945.324258
  0
LINE
  8
CSLAYER1
  6
CONTINUOUS
 62
     3
 10
692.440334
 20
1945.324258
 11
689.463305
 21
1948.004581
  0
LINE
  8
CSLAYER1
  6
CONTINUOUS
 62
     3
 10
689.463305
 20
1948.004581
 11
686.090325
 21
1950.525881
  0
LINE
  8
CSLAYER1
  6
CONTINUOUS
 62
     3
 10
686.090325
 20
1950.525881
 11
682.347066
 21
1952.868970
  0
LINE
  8
CSLAYER1
  6
CONTINUOUS
 62
     3
 10
682.347066
 20
1952.868970
 11
678.262015
 21
1955.016015
  0
LINE
  8
CSLAYER1
  6
CONTINUOUS
 62
     3
 10
678.262015
 20
1955.016015
 11
673.866262
 21
1956.950677
  0
LINE
  8
CSLAYER1
  6
CONTINUOUS
 62
     3
 10
673.866262
 20
1956.950677
 11
669.193262
 21
1958.658231
  0
LINE
  8
CSLAYER1
  6
CONTINUOUS
 62
     3
 10
669.193262
 20
1958.658231
 11
664.278579
 21
1960.125681
  0
LINE
  8
CSLAYER1
  6
CONTINUOUS
 62
     3
 10
664.278579
 20
1960.125681
 11
659.159617
 21
1961.341861
  0
LINE
  8
CSLAYER1
  6
CONTINUOUS
 62
     3
 10
659.159617
 20
1961.341861
 11
653.875334
 21
1962.297512
  0
LINE
  8
CSLAYER1
  6
CONTINUOUS
 62
     3
 10
653.875334
 20
1962.297512
 11
648.465946
 21
1962.985364
  0
LINE
  8
CSLAYER1
  6
CONTINUOUS
 62
     3
 10
648.465946
 20
1962.985364
 11
642.972623
 21
1963.400180
  0
LINE
  8
CSLAYER1
  6
CONTINUOUS
 62
     3
 10
642.972623
 20
1963.400180
 11
637.437172
 21
1963.538804
  0
LINE
  8
CSLAYER1
  6
CONTINUOUS
 62
     3
 10
637.437172
 20
1963.538804
 11
631.901720
 21
1963.400180
  0
LINE
  8
CSLAYER1
  6
CONTINUOUS
 62
     3
 10
631.901720
 20
1963.400180
 11
626.408397
 21
1962.985364
  0
LINE
  8
CSLAYER1
  6
CONTINUOUS
 62
     3
 10
626.408397
 20
1962.985364
 11
620.999009
 21
1962.297512
  0
LINE
  8
CSLAYER1
  6
CONTINUOUS
 62
     3
 10
620.999009
 20
1962.297512
 11
615.714726
 21
1961.341861
  0
LINE
  8
CSLAYER1
  6
CONTINUOUS
 62
     3
 10
615.714726
 20
1961.341861
 11
610.595764
 21
1960.125681
  0
LINE
  8
CSLAYER1
  6
CONTINUOUS
 62
     3
 10
610.595764
 20
1960.125681
 11
605.681081
 21
1958.658231
  0
LINE
  8
CSLAYER1
  6
CONTINUOUS
 62
     3
 10
605.681081
 20
1958.658231
 11
601.008081
 21
1956.950677
  0
LINE
  8
CSLAYER1
  6
CONTINUOUS
 62
     3
 10
601.008081
 20
1956.950677
 11
596.612328
 21
1955.016015
  0
LINE
  8
CSLAYER1
  6
CONTINUOUS
 62
     3
 10
596.612328
 20
1955.016015
 11
592.527277
 21
1952.868970
  0
LINE
  8
CSLAYER1
  6
CONTINUOUS
 62
     3
 10
592.527277
 20
1952.868970
 11
588.784018
 21
1950.525881
  0
LINE
  8
CSLAYER1
  6
CONTINUOUS
 62
     3
 10
588.784018
 20
1950.525881
 11
585.411038
 21
1948.004581
  0
LINE
  8
CSLAYER1
  6
CONTINUOUS
 62
     3
 10
585.411038
 20
1948.004581
 11
582.434009
 21
1945.324258
  0
LINE
  8
CSLAYER1
  6
CONTINUOUS
 62
     3
 10
582.434009
 20
1945.324258
 11
579.875587
 21
1942.505312
  0
LINE
  8
CSLAYER1
  6
CONTINUOUS
 62
     3
 10
579.875587
 20
1942.505312
 11
577.755243
 21
1939.569196
  0
LINE
  8
CSLAYER1
  6
CONTINUOUS
 62
     3
 10
577.755243
 20
1939.569196
 11
576.089115
 21
1936.538255
  0
LINE
  8
CSLAYER1
  6
CONTINUOUS
 62
     3
 10
576.089115
 20
1936.538255
 11
574.889883
 21
1933.435558
  0
LINE
  8
CSLAYER1
  6
CONTINUOUS
 62
     3
 10
574.889883
 20
1933.435558
 11
574.166673
 21
1930.284717
  0
LINE
  8
CSLAYER1
  6
CONTINUOUS
 62
     3
 10
574.166673
 20
1930.284717
 11
573.924990
 21
1927.109713
  0
LINE
  8
CSLAYER1
  6
CONTINUOUS
 62
     3
 10
573.924990
 20
1927.109713
 11
574.166673
 21
1923.934708
  0
LINE
  8
CSLAYER1
  6
CONTINUOUS
 62
     3
 10
574.166673
 20
1923.934708
 11
574.889883
 21
1920.783868
  0
LINE
  8
CSLAYER1
  6
CONTINUOUS
 62
     3
 10
574.889883
 20
1920.783868
 11
576.089115
 21
1917.681170
  0
LINE
  8
CSLAYER1
  6
CONTINUOUS
 62
     3
 10
576.089115
 20
1917.681170
 11
577.755243
 21
1914.650230
  0
LINE
  8
CSLAYER1
  6
CONTINUOUS
 62
     3
 10
577.755243
 20
1914.650230
 11
579.875587
 21
1911.714114
  0
LINE
  8
CSLAYER1
  6
CONTINUOUS
 62
     3
 10
579.875587
 20
1911.714114
 11
582.434009
 21
1908.895168
  0
LINE
  8
CSLAYER1
  6
CONTINUOUS
 62
     3
 10
582.434009
 20
1908.895168
 11
585.411038
 21
1906.214845
  0
LINE
  8
CSLAYER1
  6
CONTINUOUS
 62
     3
 10
585.411038
 20
1906.214845
 11
588.784018
 21
1903.693545
  0
LINE
  8
CSLAYER1
  6
CONTINUOUS
 62
     3
 10
588.784018
 20
1903.693545
 11
592.527277
 21
1901.350456
  0
LINE
  8
CSLAYER1
  6
CONTINUOUS
 62
     3
 10
592.527277
 20
1901.350456
 11
596.612328
 21
1899.203410
  0
LINE
  8
CSLAYER1
  6
CONTINUOUS
 62
     3
 10
596.612328
 20
1899.203410
 11
601.008081
 21
1897.268749
  0
LINE
  8
CSLAYER1
  6
CONTINUOUS
 62
     3
 10
601.008081
 20
1897.268749
 11
605.681081
 21
1895.561195
  0
LINE
  8
CSLAYER1
  6
CONTINUOUS
 62
     3
 10
605.681081
 20
1895.561195
 11
610.595764
 21
1894.093744
  0
LINE
  8
CSLAYER1
  6
CONTINUOUS
 62
     3
 10
610.595764
 20
1894.093744
 11
610.666260
 21
1894.076996
  0
LINE
  8
CSLAYER1
  6
CONTINUOUS
 62
     3
 10
637.437172
 20
1890.680622
 11
642.972623
 21
1890.819246
  0
LINE
  8
CSLAYER1
  6
CONTINUOUS
 62
     3
 10
642.972623
 20
1890.819246
 11
648.465946
 21
1891.234062
  0
LINE
  8
CSLAYER1
  6
CONTINUOUS
 62
     3
 10
648.465946
 20
1891.234062
 11
653.875334
 21
1891.921913
  0
LINE
  8
CSLAYER1
  6
CONTINUOUS
 62
     3
 10
653.875334
 20
1891.921913
 11
659.159617
 21
1892.877565
  0
LINE
  8
CSLAYER1
  6
CONTINUOUS
 62
     3
 10
659.159617
 20
1892.877565
 11
664.278579
 21
1894.093744
  0
LINE
  8
CSLAYER1
  6
CONTINUOUS
 62
     3
 10
664.278579
 20
1894.093744
 11
669.193262
 21
1895.561195
  0
LINE
  8
CSLAYER1
  6
CONTINUOUS
 62
     3
 10
669.193262
 20
1895.561195
 11
673.866262
 21
1897.268749
  0
LINE
  8
CSLAYER1
  6
CONTINUOUS
 62
     3
 10
673.866262
 20
1897.268749
 11
678.262015
 21
1899.203410
  0
LINE
  8
CSLAYER1
  6
CONTINUOUS
 62
     3
 10
678.262015
 20
1899.203410
 11
682.347066
 21
1901.350456
  0
LINE
  8
CSLAYER1
  6
CONTINUOUS
 62
     3
 10
682.347066
 20
1901.350456
 11
686.090325
 21
1903.693545
  0
LINE
  8
CSLAYER1
  6
CONTINUOUS
 62
     3
 10
686.090325
 20
1903.693545
 11
689.463305
 21
1906.214845
  0
LINE
  8
CSLAYER1
  6
CONTINUOUS
 62
     3
 10
689.463305
 20
1906.214845
 11
692.440334
 21
1908.895168
  0
LINE
  8
CSLAYER1
  6
CONTINUOUS
 62
     3
 10
692.440334
 20
1908.895168
 11
694.998756
 21
1911.714114
  0
LINE
  8
CSLAYER1
  6
CONTINUOUS
 62
     3
 10
694.998756
 20
1911.714114
 11
697.119100
 21
1914.650230
  0
LINE
  8
CSLAYER1
  6
CONTINUOUS
 62
     3
 10
697.119100
 20
1914.650230
 11
698.785228
 21
1917.681170
  0
LINE
  8
CSLAYER1
  6
CONTINUOUS
 62
     3
 10
698.785228
 20
1917.681170
 11
699.984460
 21
1920.783868
  0
LINE
  8
CSLAYER1
  6
CONTINUOUS
 62
     3
 10
699.984460
 20
1920.783868
 11
700.707670
 21
1923.934708
  0
LINE
  8
CSLAYER1
  6
CONTINUOUS
 62
     3
 10
700.707670
 20
1923.934708
 11
700.949353
 21
1927.109713
  0
LINE
  8
CSLAYER1
  6
CONTINUOUS
 62
     3
 10
513.158761
 20
1890.680622
 11
637.437172
 21
1890.680622
  0
LINE
  8
CSLAYER1
  6
CONTINUOUS
 62
     3
 10
513.158761
 20
1894.076996
 11
637.437172
 21
1894.076996
  0
LINE
  8
CSLAYER1
  6
CONTINUOUS
 62
     3
 10
513.158761
 20
1890.680622
 11
513.158761
 21
1894.076996
  0
LINE
  8
CSLAYER1
  6
CONTINUOUS
 62
     3
 10
513.158761
 20
1894.076996
 11
505.334257
 21
1896.492283
  0
LINE
  8
CSLAYER1
  6
CONTINUOUS
 62
     3
 10
505.334257
 20
1896.492283
 11
504.030404
 21
1901.968465
  0
LINE
  8
CSLAYER1
  6
CONTINUOUS
 62
     3
 10
513.158761
 20
1890.680622
 11
500.118845
 21
1891.798412
  0
LINE
  8
CSLAYER1
  6
CONTINUOUS
 62
     3
 10
500.118845
 20
1891.798412
 11
494.381893
 21
1889.973018
  0
LINE
  8
CSLAYER1
  6
CONTINUOUS
 62
     3
 10
494.381893
 20
1889.973018
 11
488.123399
 21
1887.104542
  0
LINE
  8
CSLAYER1
  6
CONTINUOUS
 62
     3
 10
504.030404
 20
1901.968465
 11
497.511140
 21
1906.923106
  0
LINE
  8
CSLAYER1
  6
CONTINUOUS
 62
     3
 10
394.285695
 20
2093.769304
 11
533.537001
 21
2013.372525
  0
LINE
  8
CSLAYER1
  6
CONTINUOUS
 62
     3
 10
394.285695
 20
2172.205186
 11
533.537001
 21
2091.808407
  0
LINE
  8
CSLAYER1
  6
CONTINUOUS
 62
     3
 10
394.285695
 20
2172.205186
 11
394.285695
 21
2074.160334
  0
LINE
  8
CSLAYER1
  6
CONTINUOUS
 62
     3
 10
652.410068
 20
2160.439804
 11
652.410068
 21
2062.394951
  0
LINE
  8
CSLAYER1
  6
CONTINUOUS
 62
     3
 10
394.285695
 20
2172.205186
 11
513.158761
 21
2240.836584
  0
LINE
  8
CSLAYER1
  6
CONTINUOUS
 62
     5
 10
352.297405
 20
2098.402284
 11
387.071741
 21
2078.325312
  0
TEXT
  8
CSLAYER1
 62
     3
 10
765.776607
 20
2133.770948
 40
29.612888
 41
0.852344
  1
ホース長サ２ｍ
 50
0.000000
 51
0.000000
  7
EASYDRAW_FONT
 72
     5
 11
934.045781
 21
2133.770948
  0
TEXT
  8
CSLAYER1
 62
     3
 10
326.952367
 20
1922.821112
 40
33.963734
 41
1.036364
  1
長サ4ｍ
 50
0.000000
 51
0.000000
  7
EASYDRAW_FONT
 72
     5
 11
456.014552
 21
1922.821112
  0
LINE
  8
CSLAYER1
  6
CONTINUOUS
 62
     3
 10
614.005940
 20
2071.032160
 11
869.919902
 21
1923.280165
  0
ARC
  8
CSLAYER1
  6
CONTINUOUS
 62
     3
 10
914.544902
 20
2000.572933
 40
85.000000
 50
240.000000
 51
270.000000
  0
ARC
  8
CSLAYER1
  6
CONTINUOUS
 62
     3
 10
914.544902
 20
2000.572933
 40
89.250000
 50
240.000000
 51
270.000000
  0
TEXT
  8
CSLAYER1
 62
     3
 10
716.606378
 20
1824.885565
 40
33.963734
 41
1.020000
  1
フットスイッチ
 50
0.000000
 51
0.000000
  7
EASYDRAW_FONT
 72
     5
 11
947.559760
 21
1824.885565
  0
TEXT
  8
CSLAYER1
 62
     3
 10
714.775567
 20
1778.510565
 40
33.963734
 41
1.020000
  1
ＵＰ・ＤＯＷＮ
 50
0.000000
 51
0.000000
  7
EASYDRAW_FONT
 72
     5
 11
945.728950
 21
1778.510565
  0
TEXT
  8
CSLAYER1
 62
     3
 10
717.216485
 20
1737.016424
 40
33.963734
 41
1.020000
  1
コード長サ２ｍ
 50
0.000000
 51
0.000000
  7
EASYDRAW_FONT
 72
     5
 11
948.169868
 21
1737.016424
  0
LINE
  8
CSLAYER1
  6
CONTINUOUS
 62
     5
 10
604.621025
 20
1791.765702
 11
709.341699
 21
1819.825522
  0
LINE
  8
CSLAYER1
  6
CONTINUOUS
 62
     5
 10
604.621025
 20
1791.765702
 11
630.601787
 21
1806.765702
  0
LINE
  8
CSLAYER1
  6
CONTINUOUS
 62
     5
 10
604.621025
 20
1791.765702
 11
634.621025
 21
1791.765702
  0
LINE
  8
CSLAYER1
  6
CONTINUOUS
 62
     5
 10
942.529171
 20
1819.825522
 11
709.341699
 21
1819.825522
  0
LINE
  8
CSLAYER1
  6
CONTINUOUS
 62
     3
 10
453.482411
 20
1806.864610
 11
548.580865
 21
1751.959492
  0
LINE
  8
CSLAYER1
  6
CONTINUOUS
 62
     3
 10
548.580865
 20
1751.959492
 11
604.621025
 21
1784.314293
  0
LINE
  8
CSLAYER1
  6
CONTINUOUS
 62
     3
 10
604.621025
 20
1791.765702
 11
604.621025
 21
1784.314293
  0
LINE
  8
CSLAYER1
  6
CONTINUOUS
 62
     5
 10
548.580865
 20
1780.980768
 11
548.580865
 21
1761.371798
  0
LINE
  8
CSLAYER1
  6
CONTINUOUS
 62
     3
 10
453.482411
 20
1814.708198
 11
453.482411
 21
1806.864610
  0
LINE
  8
CSLAYER1
  6
CONTINUOUS
 62
     3
 10
456.539147
 20
1834.513258
 11
509.182934
 21
1864.907163
  0
LINE
  8
CSLAYER1
  6
CONTINUOUS
 62
     3
 10
490.502881
 20
1814.904288
 11
543.146667
 21
1845.298192
  0
LINE
  8
CSLAYER1
  6
CONTINUOUS
 62
     3
 10
548.580865
 20
1780.980768
 11
601.564289
 21
1811.570763
  0
LINE
  8
CSLAYER1
  6
CONTINUOUS
 62
     3
 10
514.956769
 20
1800.785829
 11
567.600555
 21
1831.179733
  0
LINE
  8
CSLAYER1
  6
CONTINUOUS
 62
     3
 10
456.539147
 20
1834.513258
 11
490.502881
 21
1814.904288
  0
LINE
  8
CSLAYER1
  6
CONTINUOUS
 62
     3
 10
509.182934
 20
1864.907163
 11
543.146667
 21
1845.298192
  0
LINE
  8
CSLAYER1
  6
CONTINUOUS
 62
     3
 10
453.482411
 20
1814.708198
 11
548.580865
 21
1759.803080
  0
LINE
  8
CSLAYER1
  6
CONTINUOUS
 62
     3
 10
548.580865
 20
1759.410901
 11
604.621025
 21
1791.765702
  0
LINE
  8
CSLAYER1
  6
CONTINUOUS
 62
     3
 10
497.635265
 20
1810.786404
 11
507.824385
 21
1804.903713
  0
LINE
  8
CSLAYER1
  6
CONTINUOUS
 62
     5
 10
548.580865
 20
1761.371798
 11
601.564289
 21
1791.961792
  0
LINE
  8
CSLAYER1
  6
CONTINUOUS
 62
     5
 10
456.539147
 20
1814.904288
 11
490.502881
 21
1795.295317
  0
LINE
  8
CSLAYER1
  6
CONTINUOUS
 62
     3
 10
601.564289
 20
1811.570763
 11
601.564289
 21
1791.961792
  0
LINE
  8
CSLAYER1
  6
CONTINUOUS
 62
     5
 10
514.956769
 20
1800.785829
 11
514.956769
 21
1780.609136
  0
LINE
  8
CSLAYER1
  6
CONTINUOUS
 62
     5
 10
490.502881
 20
1795.295317
 11
490.502881
 21
1814.904288
  0
LINE
  8
CSLAYER1
  6
CONTINUOUS
 62
     3
 10
543.146667
 20
1845.298192
 11
543.146667
 21
1837.062424
  0
LINE
  8
CSLAYER1
  6
CONTINUOUS
 62
     5
 10
497.635265
 20
1791.177433
 11
507.824385
 21
1785.294742
  0
LINE
  8
CSLAYER1
  6
CONTINUOUS
 62
     3
 10
548.580865
 20
1759.410901
 11
548.580865
 21
1751.959492
  0
LINE
  8
CSLAYER1
  6
CONTINUOUS
 62
     3
 10
601.564289
 20
1793.530510
 11
604.621025
 21
1791.765702
  0
LINE
  8
CSLAYER1
  6
CONTINUOUS
 62
     3
 10
497.635265
 20
1810.786404
 11
550.279051
 21
1841.180308
  0
LINE
  8
CSLAYER1
  6
CONTINUOUS
 62
     3
 10
507.824385
 20
1804.903713
 11
560.468171
 21
1835.297617
  0
LINE
  8
CSLAYER1
  6
CONTINUOUS
 62
     3
 10
560.468171
 20
1835.297617
 11
560.468171
 21
1827.061849
  0
LINE
  8
CSLAYER1
  6
CONTINUOUS
 62
     3
 10
550.279051
 20
1841.180308
 11
560.468171
 21
1835.297617
  0
LINE
  8
CSLAYER1
  6
CONTINUOUS
 62
     3
 10
567.600555
 20
1831.179733
 11
601.564289
 21
1811.570763
  0
LINE
  8
CSLAYER1
  6
CONTINUOUS
 62
     3
 10
514.956769
 20
1800.785829
 11
548.580865
 21
1781.372948
  0
LINE
  8
CSLAYER1
  6
CONTINUOUS
 62
     5
 10
507.824385
 20
1804.903713
 11
507.824385
 21
1785.294742
  0
LINE
  8
CSLAYER1
  6
CONTINUOUS
 62
     5
 10
497.635265
 20
1810.786404
 11
497.635265
 21
1791.177433
  0
LINE
  8
CSLAYER1
  6
CONTINUOUS
 62
     5
 10
507.824385
 20
1785.294742
 11
514.956769
 21
1789.412626
  0
LINE
  8
CSLAYER1
  6
CONTINUOUS
 62
     5
 10
490.502881
 20
1795.295317
 11
497.635265
 21
1799.413201
  0
LINE
  8
CSLAYER1
  6
CONTINUOUS
 62
     5
 10
514.956769
 20
1781.176858
 11
548.580865
 21
1761.763977
  0
LINE
  8
CSLAYER1
  6
CONTINUOUS
 62
     3
 10
456.539147
 20
1834.513258
 11
456.539147
 21
1814.904288
  0
LINE
  8
CSLAYER1
  6
CONTINUOUS
 62
     3
 10
453.482411
 20
1814.708198
 11
456.539147
 21
1816.473005
  0
LINE
  8
CSLAYER1
  6
CONTINUOUS
 62
     5
 10
466.728267
 20
1840.395949
 11
500.692001
 21
1820.786979
  0
LINE
  8
CSLAYER1
  6
CONTINUOUS
 62
     5
 10
476.917387
 20
1846.278640
 11
510.881121
 21
1826.669670
  0
LINE
  8
CSLAYER1
  6
CONTINUOUS
 62
     5
 10
487.106507
 20
1852.161332
 11
521.070241
 21
1832.552361
  0
LINE
  8
CSLAYER1
  6
CONTINUOUS
 62
     5
 10
535.335009
 20
1812.551211
 11
569.298742
 21
1792.942240
  0
LINE
  8
CSLAYER1
  6
CONTINUOUS
 62
     5
 10
525.145889
 20
1806.668520
 11
559.109622
 21
1787.059549
  0
LINE
  8
CSLAYER1
  6
CONTINUOUS
 62
     5
 10
545.524129
 20
1818.433902
 11
579.487862
 21
1798.824932
  0
ARC
  8
CSLAYER1
  6
CONTINUOUS
 62
     3
 10
559.424320
 20
1830.104309
 40
10.105980
 50
-0.219250
 51
120.219250
  0
LINE
  8
CSLAYER1
  6
CONTINUOUS
 62
     3
 10
568.054095
 20
1835.363379
 11
682.200290
 21
1901.265715
  0
LINE
  8
CSLAYER1
  6
CONTINUOUS
 62
     3
 10
565.180740
 20
1838.410599
 11
659.684800
 21
1892.972543
  0
LINE
  8
CSLAYER1
  6
CONTINUOUS
 62
     5
 10
524.834230
 20
1894.882913
 11
491.060395
 21
1960.684970
  0
LINE
  8
CSLAYER1
  6
CONTINUOUS
 62
     5
 10
524.834230
 20
1894.882913
 11
504.694328
 21
1917.117668
  0
LINE
  8
CSLAYER1
  6
CONTINUOUS
 62
     5
 10
524.834230
 20
1894.882913
 11
518.509941
 21
1924.208727
  0
LINE
  8
CSLAYER1
  6
CONTINUOUS
 62
     5
 10
269.941749
 20
1694.604267
 11
988.133530
 21
1694.604267
  0
LINE
  8
CSLAYER1
  6
CONTINUOUS
 62
     5
 10
501.348815
 20
2380.267348
 11
738.994594
 21
2380.267348
  0
LINE
  8
CSLAYER1
  6
CONTINUOUS
 62
     5
 10
738.994594
 20
2380.267348
 11
738.994594
 21
2337.167862
  0
LINE
  8
CSLAYER1
  6
CONTINUOUS
 62
     5
 10
738.994594
 20
2337.167862
 11
501.348815
 21
2337.167862
  0
LINE
  8
CSLAYER1
  6
CONTINUOUS
 62
     5
 10
501.348815
 20
2337.167862
 11
501.348815
 21
2380.267348
  0
INSERT
  8
CSLAYER1
  2
EASYDRAWDIM0004
 10
0.0
 20
0.0
 30
0.0
  0
TEXT
  8
CSLAYER1
 62
     7
 10
811.821045
 20
569.608948
 40
40.000000
 41
0.843750
  1
上昇時
 50
0.000000
 51
0.000000
  7
EASYDRAW_FONT
 72
     5
 11
901.821045
 21
569.608948
  0
LINE
  8
CSLAYER1
  6
CONTINUOUS
 62
     5
 10
798.214548
 20
616.039087
 11
921.172558
 21
616.039087
  0
LINE
  8
CSLAYER1
  6
CONTINUOUS
 62
     5
 10
921.172558
 20
616.039087
 11
921.172558
 21
563.178634
  0
LINE
  8
CSLAYER1
  6
CONTINUOUS
 62
     5
 10
921.172558
 20
563.178634
 11
798.214548
 21
563.178634
  0
LINE
  8
CSLAYER1
  6
CONTINUOUS
 62
     5
 10
798.214548
 20
563.178634
 11
798.214548
 21
616.039087
  0
DIMENSION
  8
CSLAYER1
 62
     3
  2
*D0012
 10
1010.957514
 20
657.419565
 11
860.957520
 21
665.419556
 13
710.957514
 23
803.624591
 14
1010.957514
 24
803.624591
 52
270.000000
 70
1
  0
DIMENSION
  8
CSLAYER1
 62
     3
  2
*D0013
 10
985.957514
 20
726.793022
 11
860.957520
 21
734.792969
 13
735.957514
 23
803.624591
 14
985.957514
 24
803.624591
 52
270.000000
 70
1
  0
LINE
  8
CSLAYER1
  6
CONTINUOUS
 62
     6
 10
985.957514
 20
801.624591
 11
1081.865160
 21
718.722854
  0
LINE
  8
CSLAYER1
  6
CONTINUOUS
 62
     6
 10
985.957514
 20
801.624591
 11
1012.957989
 21
788.548875
  0
LINE
  8
CSLAYER1
  6
CONTINUOUS
 62
     6
 10
985.957514
 20
801.624591
 11
1002.802753
 21
776.800451
  0
DIMENSION
  8
CSLAYER1
 62
     3
  2
*D0014
 10
1453.778985
 20
718.596841
 11
1469.295410
 21
697.802063
 13
1428.778985
 23
801.624591
 14
1453.778985
 24
801.624591
 52
270.000000
 70
1
  0
INSERT
  8
CSLAYER1
  2
EASYDRAWDIM0005
 10
0.0
 20
0.0
 30
0.0
  0
DIMENSION
  8
CSLAYER1
 62
     3
  2
*D0015
 10
985.957514
 20
1512.884113
 11
860.957520
 21
1522.884155
 13
735.957514
 23
1423.396192
 14
985.957514
 24
1423.396192
 70
1
  0
INSERT
  8
CSLAYER1
  2
BLKF0001
 10
0.0
 20
0.0
 30
0.0
  0
LINE
  8
CSLAYER1
  6
CONTINUOUS
 62
     5
 10
2742.515059
 20
537.191607
 11
3542.515059
 21
537.191607
  0
LINE
  8
CSLAYER1
  6
CONTINUOUS
 62
     5
 10
2742.515059
 20
177.191607
 11
3542.515059
 21
177.191607
  0
LINE
  8
CSLAYER1
  6
CONTINUOUS
 62
     5
 10
2742.515059
 20
337.191607
 11
3542.515059
 21
337.191607
  0
LINE
  8
CSLAYER1
  6
CONTINUOUS
 62
     5
 10
2742.515059
 20
397.191607
 11
3542.515059
 21
397.191607
  0
LINE
  8
CSLAYER1
  6
CONTINUOUS
 62
     5
 10
2742.515059
 20
457.191607
 11
3542.515059
 21
457.191607
  0
LINE
  8
CSLAYER1
  6
CONTINUOUS
 62
     5
 10
2742.515059
 20
617.191607
 11
3542.515059
 21
617.191607
  0
LINE
  8
CSLAYER1
  6
CONTINUOUS
 62
     5
 10
2742.515059
 20
697.191607
 11
2742.515059
 21
97.191607
  0
LINE
  8
CSLAYER1
  6
CONTINUOUS
 62
     5
 10
2942.515059
 20
697.191607
 11
2942.515059
 21
457.191607
  0
LINE
  8
CSLAYER1
  6
CONTINUOUS
 62
     5
 10
2742.515059
 20
697.191607
 11
3542.515059
 21
697.191607
  0
LINE
  8
CSLAYER1
  6
CONTINUOUS
 62
     5
 10
3242.515059
 20
457.191607
 11
3242.515059
 21
177.191607
  0
TEXT
  8
CSLAYER1
 62
     3
 10
2962.206111
 20
105.754322
 40
59.380363
 41
1.003345
  1
東正車輌株式会社
 50
0.000000
 51
0.000000
  7
EASYDRAW_FONT
 72
     5
 11
3418.978459
 21
105.754322
  0
LINE
  8
CSLAYER1
  6
CONTINUOUS
 62
     5
 10
2992.515059
 20
397.191607
 11
2992.515059
 21
177.191607
  0
TEXT
  8
CSLAYER1
 62
     5
 10
2772.514893
 20
632.191589
 40
50.000000
 41
1.050000
  1
品　名
 50
0.000000
 51
0.000000
  7
EASYDRAW_FONT
 72
     5
 11
2912.514893
 21
632.191589
  0
TEXT
  8
CSLAYER1
 62
     5
 10
2772.514893
 20
552.191589
 40
50.000000
 41
1.050000
  1
型　式
 50
0.000000
 51
0.000000
  7
EASYDRAW_FONT
 72
     5
 11
2912.514893
 21
552.191589
  0
TEXT
  8
CSLAYER1
 62
     5
 10
2747.514893
 20
472.191620
 40
50.000000
 41
1.036364
  1
図面番号
 50
0.000000
 51
0.000000
  7
EASYDRAW_FONT
 72
     5
 11
2937.514893
 21
472.191620
  0
TEXT
  8
CSLAYER1
 62
     5
 10
2772.514893
 20
402.191620
 40
50.000000
 41
0.825000
  1
平成26年01月10日
 50
0.000000
 51
0.000000
  7
EASYDRAW_FONT
 72
     5
 11
3212.514893
 21
402.191620
  0
TEXT
  8
CSLAYER1
 62
     5
 10
3322.514893
 20
402.191620
 40
50.000000
 41
1.050000
  1
Ｂ－４
 50
0.000000
 51
0.000000
  7
EASYDRAW_FONT
 72
     5
 11
3462.514893
 21
402.191620
  0
TEXT
  8
CSLAYER1
 62
     5
 10
2797.514893
 20
342.191620
 40
50.000000
 41
1.050000
  1
検　図
 50
0.000000
 51
0.000000
  7
EASYDRAW_FONT
 72
     5
 11
2937.514893
 21
342.191620
  0
TEXT
  8
CSLAYER1
 62
     5
 10
3047.514893
 20
342.191620
 40
50.000000
 41
1.050000
  1
作　図
 50
0.000000
 51
0.000000
  7
EASYDRAW_FONT
 72
     5
 11
3187.514893
 21
342.191620
  0
TEXT
  8
CSLAYER1
 62
     5
 10
3322.514893
 20
342.191620
 40
50.000000
 41
1.050000
  1
尺　度
 50
0.000000
 51
0.000000
  7
EASYDRAW_FONT
 72
     5
 11
3462.514893
 21
342.191620
  0
TEXT
  8
CSLAYER1
 62
     5
 10
3423.253662
 20
191.676865
 40
50.000000
 41
1.080000
  1
１０
 50
0.000000
 51
0.000000
  7
EASYDRAW_FONT
 72
     5
 11
3513.253662
 21
191.676865
  0
TEXT
  8
CSLAYER1
 62
     5
 10
3402.934082
 20
239.381561
 40
50.000000
 41
1.200000
  1
／
 50
0.000000
 51
0.000000
  7
EASYDRAW_FONT
 72
     5
 11
3442.934082
 21
239.381561
  0
TEXT
  8
CSLAYER1
 62
     5
 10
3372.721191
 20
274.365021
 40
50.000000
 41
1.200000
  1
１
 50
0.000000
 51
0.000000
  7
EASYDRAW_FONT
 72
     5
 11
3412.721191
 21
274.365021
  0
TEXT
  8
CSLAYER1
 62
     3
 10
3082.514893
 20
632.191589
 40
50.000000
 41
0.834783
  1
ゴールドリフター
 50
0.000000
 51
0.000000
  7
EASYDRAW_FONT
 72
     5
 11
3402.514893
 21
632.191589
  0
TEXT
  8
CSLAYER1
 62
     3
 10
2982.514893
 20
552.191589
 40
50.000000
 41
0.821053
  1
GLSE-350-2508
 50
0.000000
 51
0.000000
  7
EASYDRAW_FONT
 72
     5
 11
3502.514893
 21
552.191589
  0
INSERT
  8
CSLAYER1
  2
BLKF0002
 10
0.0
 20
0.0
 30
0.0
  0
TEXT
  8
CSLAYER1
 62
     7
 10
2751.464844
 20
962.628845
 40
40.000000
 41
0.843750
  1
下降時
 50
0.000000
 51
0.000000
  7
EASYDRAW_FONT
 72
     5
 11
2841.464844
 21
962.628845
  0
LINE
  8
CSLAYER1
  6
CONTINUOUS
 62
     5
 10
2737.858276
 20
1009.059006
 11
2860.816286
 21
1009.059006
  0
LINE
  8
CSLAYER1
  6
CONTINUOUS
 62
     5
 10
2860.816286
 20
1009.059006
 11
2860.816286
 21
956.198553
  0
LINE
  8
CSLAYER1
  6
CONTINUOUS
 62
     5
 10
2860.816286
 20
956.198553
 11
2737.858276
 21
956.198553
  0
LINE
  8
CSLAYER1
  6
CONTINUOUS
 62
     5
 10
2737.858276
 20
956.198553
 11
2737.858276
 21
1009.059006
  0
ENDSEC
  0
EOF
