  0
SECTION
  2
HEADER
  9
$ACADVER
  1
AC1006
  9
$INSBASE
 10
0.000000
 20
0.000000
 30
0.0
  9
$EXTMIN
 10
0.000000
 20
0.000000
  9
$EXTMAX
 10
3640.000000
 20
2570.000000
  9
$LIMMIN
 10
0.000000
 20
0.000000
  9
$LIMMAX
 10
3640.000000
 20
2570.000000
  9
$VIEWCTR
 10
1820.000000
 20
1285.000000
  9
$VIEWSIZE
 40
2570.000000
  9
$SNAPMODE
 70
     0
  9
$SNAPUNIT
 10
1.0
 20
1.0
  9
$SNAPBASE
 10
0.0
 20
0.0
  9
$SNAPANG
 50
0.0
  9
$SNAPSTYLE
 70
     0
  9
$SNAPISOPAIR
 70
     0
  9
$GRIDMODE
 70
     0
  9
$GRIDUNIT
 10
0.0
 20
0.0
  9
$ORTHOMODE
 70
     0
  9
$REGENMODE
 70
     1
  9
$FILLMODE
 70
     1
  9
$QTEXTMODE
 70
     0
  9
$DRAGMODE
 70
     2
  9
$LTSCALE
 40
15.000000
  9
$OSMODE
 70
     0
  9
$ATTMODE
 70
     1
  9
$TEXTSIZE
 40
0.2
  9
$TRACEWID
 40
0.05
  9
$TEXTSTYLE
  7
STANDARD
  9
$CLAYER
  8
CSLAYER1
  9
$CELTYPE
  6
BYLAYER
  9
$CECOLOR
 62
   256
  9
$DIMSCALE
 40
1.0
  9
$DIMASZ
 40
0.18
  9
$DIMEXO
 40
0.0625
  9
$DIMDLI
 40
0.38
  9
$DIMRND
 40
0.0
  9
$DIMDLE
 40
0.0
  9
$DIMEXE
 40
0.18
  9
$DIMTP
 40
0.0
  9
$DIMTM
 40
0.0
  9
$DIMTXT
 40
0.18
  9
$DIMCEN
 40
0.09
  9
$DIMTSZ
 40
0.0
  9
$DIMTOL
 70
     0
  9
$DIMLIM
 70
     0
  9
$DIMTIH
 70
     1
  9
$DIMTOH
 70
     1
  9
$DIMSE1
 70
     0
  9
$DIMSE2
 70
     0
  9
$DIMTAD
 70
     0
  9
$DIMZIN
 70
     0
  9
$DIMBLK
  1

  9
$LUNITS
 70
     2
  9
$LUPREC
 70
     4
  9
$AXISMODE
 70
     0
  9
$AXISUNIT
 10
0.0
 20
0.0
  9
$SKETCHINC
 40
0.1
  9
$FILLETRAD
 40
0.0
  9
$AUNITS
 70
     0
  9
$AUPREC
 70
     0
  9
$MENU
  1
ACAD
  9
$ELEVATION
 40
0.0
  9
$THICKNESS
 40
0.0
  9
$VIEWDIR
 10
0.0
 20
0.0
 30
1.0
  9
$LIMCHECK
 70
     0
  9
$BLIPMODE
 70
     1
  9
$CHAMFERA
 40
0.0
  9
$CHAMFERB
 40
0.0
  9
$FASTZOOM
 70
     1
  9
$SKPOLY
 70
     0
  9
$TDCREATE
 40
2456676.000000
  9
$TDUPDATE
 40
2456676.000000
  9
$TDINDWG
 40
0.0
  9
$TDUSRTIMER
 40
0.0
  9
$USRTIMER
 70
     1
  9
$ANGBASE
 50
0.0
  9
$ANGDIR
 70
     0
  9
$PDMODE
 70
     0
  9
$PDSIZE
 40
0.0
  9
$PLINEWID
 40
0.0
  9
$COORDS
 70
     0
  9
$USERI1
 70
     0
  9
$USERI2
 70
     0
  9
$USERI3
 70
     0
  9
$USERI4
 70
     0
  9
$USERI5
 70
     0
  9
$USERR1
 40
0.0
  9
$USERR2
 40
0.0
  9
$USERR3
 40
0.0
  9
$USERR4
 40
0.0
  9
$USERR5
 40
0.0
  0
ENDSEC
  0
SECTION
  2
TABLES
  0
TABLE
  2
LTYPE
 70
     9
  0
LTYPE
  2
CONTINUOUS
 70
    64
  3
Solid line
 72
    65
 73
     0
 40
0.0
  0
LTYPE
  2
DASHED
 70
    64
  3
__ __ __ __ __ __ __ __ __ __ __ __ __ __ __
 72
    65
 73
     2
 40
0.75
 49
0.5
 49
-0.25
  0
LTYPE
  2
HIDDEN
 70
    64
  3
_ _ _ _ _ _ _ _ _ _ _ _ _ _ _ _ _ _ _ _ _ _ _
 72
    65
 73
     2
 40
0.375
 49
0.25
 49
-0.125
  0
LTYPE
  2
DOT
 70
    64
  3
...............................................
 72
    65
 73
     2
 40
0.25
 49
0.0
 49
-0.25
  0
LTYPE
  2
DASHDOT
 70
    64
  3
__ . __ . __ . __ . __ . __ . __ . __ . __ . __
 72
    65
 73
     4
 40
1.0
 49
0.5
 49
-0.25
 49
0.0
 49
-0.25
  0
LTYPE
  2
DIVIDE
 70
    64
  3
__ . . __ . . __ . . __ . . __ . . __ . . __
 72
    65
 73
     6
 40
1.25
 49
0.5
 49
-0.25
 49
0.0
 49
-0.25
 49
0.0
 49
-0.25
  0
LTYPE
  2
CENTER
 70
    64
  3
____ _ ____ _ ____ _ ____ _ ____ _ ____ _ ____ 
 72
    65
 73
     4
 40
2.0
 49
1.25
 49
-0.25
 49
0.25
 49
-0.25
  0
LTYPE
  2
PHANTOM
 70
    64
  3
______  __  __  ______  __  __  ______  __  __ 
 72
    65
 73
     6
 40
2.5
 49
1.25
 49
-0.25
 49
0.25
 49
-0.25
 49
0.25
 49
-0.25
  0
LTYPE
  2
BORDER
 70
    64
  3
__ __ . __ __ . __ __ . __ __ . __ __ . __ __ .
 72
    65
 73
     6
 40
1.75
 49
0.5
 49
-0.25
 49
0.5
 49
-0.25
 49
0.0
 49
-0.25
  0
ENDTAB
  0
TABLE
  2
LAYER
 70
    16
  0
LAYER
  2
CSLAYER1
 70
    64
 62
     7
  6
CONTINUOUS
  0
LAYER
  2
CSLAYER2
 70
    64
 62
     7
  6
CONTINUOUS
  0
LAYER
  2
CSLAYER3
 70
    64
 62
     7
  6
CONTINUOUS
  0
LAYER
  2
CSLAYER4
 70
    64
 62
     7
  6
CONTINUOUS
  0
LAYER
  2
CSLAYER5
 70
    64
 62
     7
  6
CONTINUOUS
  0
LAYER
  2
CSLAYER6
 70
    64
 62
     7
  6
CONTINUOUS
  0
LAYER
  2
CSLAYER7
 70
    64
 62
     7
  6
CONTINUOUS
  0
LAYER
  2
CSLAYER8
 70
    64
 62
     7
  6
CONTINUOUS
  0
LAYER
  2
CSLAYER9
 70
    64
 62
     7
  6
CONTINUOUS
  0
LAYER
  2
CSLAYER10
 70
    64
 62
     7
  6
CONTINUOUS
  0
LAYER
  2
CSLAYER11
 70
    64
 62
     7
  6
CONTINUOUS
  0
LAYER
  2
CSLAYER12
 70
    64
 62
     7
  6
CONTINUOUS
  0
LAYER
  2
CSLAYER13
 70
    64
 62
     7
  6
CONTINUOUS
  0
LAYER
  2
CSLAYER14
 70
    64
 62
     7
  6
CONTINUOUS
  0
LAYER
  2
CSLAYER15
 70
    64
 62
     7
  6
CONTINUOUS
  0
LAYER
  2
CSLAYER16
 70
    64
 62
     7
  6
CONTINUOUS
  0
ENDTAB
  0
TABLE
  2
STYLE
 70
     1
  0
STYLE
  2
EASYDRAW_FONT
 70
     0
 40
1.0
 41
1.0
 50
0.0
 71
     0
 42
1.0
  3
monotxt
  4
bigfont
  0
ENDTAB
  0
TABLE
  2
VIEW
 70
     0
  0
ENDTAB
  0
ENDSEC
  0
SECTION
  2
BLOCKS
  0
BLOCK
  8
CSLAYER1
  2
*D0000
 70
    65
 10
0.0
 20
0.0
 30
0.0
  0
TEXT
  8
CSLAYER1
 62
     3
 10
1310.660400
 20
1857.293945
 40
40.000000
 41
0.843750
  1
250
 50
90.000000
 51
0.000000
  7
EASYDRAW_FONT
 72
     5
 11
1310.660400
 21
1947.293945
  0
LINE
  8
CSLAYER1
  6
CONTINUOUS
 62
     5
 10
1407.903798
 20
1802.846645
 11
1308.912539
 21
1802.846645
  0
LINE
  8
CSLAYER1
  6
CONTINUOUS
 62
     5
 10
1429.166599
 20
2052.846645
 11
1308.912539
 21
2052.846645
  0
LINE
  8
CSLAYER1
  6
CONTINUOUS
 62
     5
 10
1318.912539
 20
1802.846645
 11
1318.912539
 21
2052.846645
  0
LINE
  8
CSLAYER1
  6
CONTINUOUS
 62
     5
 10
1318.912539
 20
1802.846645
 11
1311.147967
 21
1831.824420
  0
LINE
  8
CSLAYER1
  6
CONTINUOUS
 62
     5
 10
1318.912539
 20
1802.846645
 11
1326.677110
 21
1831.824420
  0
LINE
  8
CSLAYER1
  6
CONTINUOUS
 62
     5
 10
1318.912539
 20
2052.846645
 11
1311.147967
 21
2023.868870
  0
LINE
  8
CSLAYER1
  6
CONTINUOUS
 62
     5
 10
1318.912539
 20
2052.846645
 11
1326.677110
 21
2023.868870
  0
ENDBLK
  8
0
  0
BLOCK
  8
CSLAYER1
  2
*D0001
 70
    65
 10
0.0
 20
0.0
 30
0.0
  0
TEXT
  8
CSLAYER1
 62
     3
 10
1333.311035
 20
1697.519287
 40
40.000000
 41
0.900000
  1
25
 50
0.000000
 51
0.000000
  7
EASYDRAW_FONT
 72
     5
 11
1393.311035
 21
1697.519287
  0
LINE
  8
CSLAYER1
  6
CONTINUOUS
 62
     5
 10
1404.166599
 20
1777.846645
 11
1404.166599
 21
1636.975013
  0
LINE
  8
CSLAYER1
  6
CONTINUOUS
 62
     5
 10
1429.166599
 20
1781.583844
 11
1429.166599
 21
1703.786580
  0
LINE
  8
CSLAYER1
  6
CONTINUOUS
 62
     5
 10
1404.166599
 20
1713.786580
 11
1429.166599
 21
1713.786580
  0
LINE
  8
CSLAYER1
  6
CONTINUOUS
 62
     5
 10
1404.166599
 20
1713.786580
 11
1433.144374
 21
1721.551152
  0
LINE
  8
CSLAYER1
  6
CONTINUOUS
 62
     5
 10
1404.166599
 20
1713.786580
 11
1433.144374
 21
1706.022009
  0
LINE
  8
CSLAYER1
  6
CONTINUOUS
 62
     5
 10
1429.166599
 20
1713.786580
 11
1400.188824
 21
1721.551152
  0
LINE
  8
CSLAYER1
  6
CONTINUOUS
 62
     5
 10
1429.166599
 20
1713.786580
 11
1400.188824
 21
1706.022009
  0
ENDBLK
  8
0
  0
BLOCK
  8
CSLAYER1
  2
*D0002
 70
    65
 10
0.0
 20
0.0
 30
0.0
  0
TEXT
  8
CSLAYER1
 62
     3
 10
1334.473145
 20
1630.126709
 40
40.000000
 41
0.900000
  1
50
 50
0.000000
 51
0.000000
  7
EASYDRAW_FONT
 72
     5
 11
1394.473145
 21
1630.126709
  0
LINE
  8
CSLAYER1
  6
CONTINUOUS
 62
     5
 10
1454.166599
 20
1777.846645
 11
1454.166599
 21
1636.975013
  0
LINE
  8
CSLAYER1
  6
CONTINUOUS
 62
     5
 10
1404.166599
 20
1646.975013
 11
1454.166599
 21
1646.975013
  0
LINE
  8
CSLAYER1
  6
CONTINUOUS
 62
     5
 10
1404.166599
 20
1646.975013
 11
1433.144374
 21
1654.739584
  0
LINE
  8
CSLAYER1
  6
CONTINUOUS
 62
     5
 10
1404.166599
 20
1646.975013
 11
1433.144374
 21
1639.210441
  0
LINE
  8
CSLAYER1
  6
CONTINUOUS
 62
     5
 10
1454.166599
 20
1646.975013
 11
1425.188824
 21
1654.739584
  0
LINE
  8
CSLAYER1
  6
CONTINUOUS
 62
     5
 10
1454.166599
 20
1646.975013
 11
1425.188824
 21
1639.210441
  0
ENDBLK
  8
0
  0
BLOCK
  8
CSLAYER1
  2
EASYDRAWDIM0000
 70
   64
 10
0.0
 20
0.0
 30
0.0
  0
TEXT
  8
CSLAYER1
 62
     3
 10
1547.388428
 20
1682.470215
 40
40.000000
 41
0.771429
  1
2-%%c13(アンカー穴)
 50
0.000000
 51
0.000000
  7
EASYDRAW_FONT
 72
     5
 11
1907.388428
 21
1682.470215
  0
LINE
  8
CSLAYER1
  6
CONTINUOUS
 62
     5
 10
1433.565199
 20
1798.588804
 11
1543.047166
 21
1672.470281
  0
LINE
  8
CSLAYER1
  6
CONTINUOUS
 62
     5
 10
1433.565199
 20
1798.588804
 11
1458.424859
 21
1781.796028
  0
LINE
  8
CSLAYER1
  6
CONTINUOUS
 62
     5
 10
1433.565199
 20
1798.588804
 11
1446.697908
 21
1771.616004
  0
LINE
  8
CSLAYER1
  6
CONTINUOUS
 62
     5
 10
1543.047166
 20
1672.470281
 11
1917.388419
 21
1672.470281
  0
ENDBLK
  8
0
  0
BLOCK
  8
CSLAYER1
  2
EASYDRAWDIM0001
 70
   64
 10
0.0
 20
0.0
 30
0.0
  0
TEXT
  8
CSLAYER1
 62
     3
 10
1359.899170
 20
1825.746071
 40
33.155758
 41
0.767879
  1
穴ヒﾟッチ
 50
90.000000
 51
0.000000
  7
EASYDRAW_FONT
 72
     5
 11
1359.899170
 21
1944.557640
  0
ENDBLK
  8
0
  0
BLOCK
  8
CSLAYER1
  2
*D0003
 70
    65
 10
0.0
 20
0.0
 30
0.0
  0
TEXT
  8
CSLAYER1
 62
     3
 10
2310.078369
 20
823.339233
 40
40.000000
 41
0.843750
  1
100
 50
90.000000
 51
0.000000
  7
EASYDRAW_FONT
 72
     5
 11
2310.078369
 21
913.339233
  0
LINE
  8
CSLAYER1
  6
CONTINUOUS
 62
     5
 10
2216.866599
 20
818.339082
 11
2430.471495
 21
818.339082
  0
LINE
  8
CSLAYER1
  6
CONTINUOUS
 62
     5
 10
2216.866599
 20
918.339082
 11
2330.078421
 21
918.339082
  0
LINE
  8
CSLAYER1
  6
CONTINUOUS
 62
     5
 10
2320.078421
 20
818.339082
 11
2320.078421
 21
918.339082
  0
LINE
  8
CSLAYER1
  6
CONTINUOUS
 62
     5
 10
2320.078421
 20
818.339082
 11
2312.313850
 21
847.316857
  0
LINE
  8
CSLAYER1
  6
CONTINUOUS
 62
     5
 10
2320.078421
 20
818.339082
 11
2327.842992
 21
847.316857
  0
LINE
  8
CSLAYER1
  6
CONTINUOUS
 62
     5
 10
2320.078421
 20
918.339082
 11
2312.313850
 21
889.361308
  0
LINE
  8
CSLAYER1
  6
CONTINUOUS
 62
     5
 10
2320.078421
 20
918.339082
 11
2327.842992
 21
889.361308
  0
ENDBLK
  8
0
  0
BLOCK
  8
CSLAYER1
  2
*D0004
 70
    65
 10
0.0
 20
0.0
 30
0.0
  0
TEXT
  8
CSLAYER1
 62
     3
 10
2310.078369
 20
1134.224976
 40
40.000000
 41
0.843750
  1
500
 50
90.000000
 51
0.000000
  7
EASYDRAW_FONT
 72
     5
 11
2310.078369
 21
1224.224976
  0
LINE
  8
CSLAYER1
  6
CONTINUOUS
 62
     5
 10
2244.302302
 20
1440.110683
 11
2430.471495
 21
1440.110683
  0
LINE
  8
CSLAYER1
  6
CONTINUOUS
 62
     5
 10
2320.078421
 20
918.339082
 11
2320.078421
 21
1440.110683
  0
LINE
  8
CSLAYER1
  6
CONTINUOUS
 62
     5
 10
2320.078421
 20
918.339082
 11
2312.313850
 21
947.316857
  0
LINE
  8
CSLAYER1
  6
CONTINUOUS
 62
     5
 10
2320.078421
 20
918.339082
 11
2327.842992
 21
947.316857
  0
LINE
  8
CSLAYER1
  6
CONTINUOUS
 62
     5
 10
2320.078421
 20
1440.110683
 11
2312.313850
 21
1411.132909
  0
LINE
  8
CSLAYER1
  6
CONTINUOUS
 62
     5
 10
2320.078421
 20
1440.110683
 11
2327.842992
 21
1411.132909
  0
ENDBLK
  8
0
  0
BLOCK
  8
CSLAYER1
  2
*D0005
 70
    65
 10
0.0
 20
0.0
 30
0.0
  0
TEXT
  8
CSLAYER1
 62
     3
 10
2410.471436
 20
1084.224976
 40
40.000000
 41
0.843750
  1
600
 50
90.000000
 51
0.000000
  7
EASYDRAW_FONT
 72
     5
 11
2410.471436
 21
1174.224976
  0
LINE
  8
CSLAYER1
  6
CONTINUOUS
 62
     5
 10
2420.471495
 20
818.339082
 11
2420.471495
 21
1440.110683
  0
LINE
  8
CSLAYER1
  6
CONTINUOUS
 62
     5
 10
2420.471495
 20
818.339082
 11
2412.706923
 21
847.316857
  0
LINE
  8
CSLAYER1
  6
CONTINUOUS
 62
     5
 10
2420.471495
 20
818.339082
 11
2428.236066
 21
847.316857
  0
LINE
  8
CSLAYER1
  6
CONTINUOUS
 62
     5
 10
2420.471495
 20
1440.110683
 11
2412.706923
 21
1411.132909
  0
LINE
  8
CSLAYER1
  6
CONTINUOUS
 62
     5
 10
2420.471495
 20
1440.110683
 11
2428.236066
 21
1411.132909
  0
ENDBLK
  8
0
  0
BLOCK
  8
CSLAYER1
  2
*D0006
 70
    65
 10
0.0
 20
0.0
 30
0.0
  0
TEXT
  8
CSLAYER1
 62
     3
 10
1789.302490
 20
1533.940918
 40
40.000000
 41
0.843750
  1
800
 50
0.000000
 51
0.000000
  7
EASYDRAW_FONT
 72
     5
 11
1879.302490
 21
1533.940918
  0
LINE
  8
CSLAYER1
  6
CONTINUOUS
 62
     5
 10
1434.302302
 20
1450.110683
 11
1434.302302
 21
1533.941008
  0
LINE
  8
CSLAYER1
  6
CONTINUOUS
 62
     5
 10
2234.302302
 20
1450.110683
 11
2234.302302
 21
1533.941008
  0
LINE
  8
CSLAYER1
  6
CONTINUOUS
 62
     5
 10
1434.302302
 20
1523.941008
 11
2234.302302
 21
1523.941008
  0
LINE
  8
CSLAYER1
  6
CONTINUOUS
 62
     5
 10
1434.302302
 20
1523.941008
 11
1463.280077
 21
1531.705579
  0
LINE
  8
CSLAYER1
  6
CONTINUOUS
 62
     5
 10
1434.302302
 20
1523.941008
 11
1463.280077
 21
1516.176437
  0
LINE
  8
CSLAYER1
  6
CONTINUOUS
 62
     5
 10
2234.302302
 20
1523.941008
 11
2205.324527
 21
1531.705579
  0
LINE
  8
CSLAYER1
  6
CONTINUOUS
 62
     5
 10
2234.302302
 20
1523.941008
 11
2205.324527
 21
1516.176437
  0
ENDBLK
  8
0
  0
BLOCK
  8
CSLAYER1
  2
*D0007
 70
    65
 10
0.0
 20
0.0
 30
0.0
  0
TEXT
  8
CSLAYER1
 62
     3
 10
1234.761230
 20
1265.087524
 40
40.000000
 41
0.794118
  1
MAX 27
 50
0.000000
 51
0.000000
  7
EASYDRAW_FONT
 72
     5
 11
1414.761230
 21
1265.087524
  0
LINE
  8
CSLAYER1
  6
CONTINUOUS
 62
     5
 10
1406.866599
 20
928.339082
 11
1406.866599
 21
1251.616714
  0
LINE
  8
CSLAYER1
  6
CONTINUOUS
 62
     5
 10
1434.302302
 20
1395.110683
 11
1434.302302
 21
1231.616714
  0
LINE
  8
CSLAYER1
  6
CONTINUOUS
 62
     5
 10
1406.866599
 20
1241.616714
 11
1363.034475
 21
1241.616714
  0
LINE
  8
CSLAYER1
  6
CONTINUOUS
 62
     5
 10
1406.866599
 20
1241.616714
 11
1377.888824
 21
1249.381285
  0
LINE
  8
CSLAYER1
  6
CONTINUOUS
 62
     5
 10
1406.866599
 20
1241.616714
 11
1377.888824
 21
1233.852142
  0
LINE
  8
CSLAYER1
  6
CONTINUOUS
 62
     5
 10
1434.302302
 20
1241.616714
 11
1484.302302
 21
1241.616714
  0
LINE
  8
CSLAYER1
  6
CONTINUOUS
 62
     5
 10
1434.302302
 20
1241.616714
 11
1463.280077
 21
1249.381285
  0
LINE
  8
CSLAYER1
  6
CONTINUOUS
 62
     5
 10
1434.302302
 20
1241.616714
 11
1463.280077
 21
1233.852142
  0
LINE
  8
CSLAYER1
  6
CONTINUOUS
 62
     5
 10
1406.866599
 20
1241.616714
 11
1434.302302
 21
1241.616714
  0
ENDBLK
  8
0
  0
BLOCK
  8
CSLAYER1
  2
EASYDRAWDIM0002
 70
   64
 10
0.0
 20
0.0
 30
0.0
  0
TEXT
  8
CSLAYER1
 62
     3
 10
1099.722656
 20
1174.878296
 40
40.000000
 41
0.787500
  1
油圧シリンダー
 50
0.000000
 51
0.000000
  7
EASYDRAW_FONT
 72
     5
 11
1309.722656
 21
1174.878296
  0
LINE
  8
CSLAYER1
  6
CONTINUOUS
 62
     5
 10
1310.687210
 20
1164.878235
 11
1089.722468
 21
1164.878235
  0
ENDBLK
  8
0
  0
BLOCK
  8
CSLAYER1
  2
EASYDRAWDIM0003
 70
   64
 10
0.0
 20
0.0
 30
0.0
  0
TEXT
  8
CSLAYER1
 62
     3
 10
1111.969238
 20
972.879272
 40
40.000000
 41
0.803571
  1
高圧ホース
 50
0.000000
 51
0.000000
  7
EASYDRAW_FONT
 72
     5
 11
1261.969238
 21
972.879272
  0
LINE
  8
CSLAYER1
  6
CONTINUOUS
 62
     5
 10
1328.514864
 20
844.047675
 11
1261.969195
 21
962.879226
  0
LINE
  8
CSLAYER1
  6
CONTINUOUS
 62
     5
 10
1328.514864
 20
844.047675
 11
1307.581591
 21
865.537162
  0
LINE
  8
CSLAYER1
  6
CONTINUOUS
 62
     5
 10
1328.514864
 20
844.047675
 11
1321.130861
 21
873.124753
  0
LINE
  8
CSLAYER1
  6
CONTINUOUS
 62
     5
 10
1261.969195
 20
962.879226
 11
1101.969195
 21
962.879226
  0
ENDBLK
  8
0
  0
BLOCK
  8
CSLAYER1
  2
*D0008
 70
    65
 10
0.0
 20
0.0
 30
0.0
  0
TEXT
  8
CSLAYER1
 62
     3
 10
1760.516602
 20
588.689453
 40
40.000000
 41
0.843750
  1
803
 50
0.000000
 51
0.000000
  7
EASYDRAW_FONT
 72
     5
 11
1850.516602
 21
588.689453
  0
LINE
  8
CSLAYER1
  6
CONTINUOUS
 62
     5
 10
1404.166599
 20
808.339082
 11
1404.166599
 21
568.689522
  0
LINE
  8
CSLAYER1
  6
CONTINUOUS
 62
     5
 10
2206.866599
 20
808.339082
 11
2206.866599
 21
568.689522
  0
LINE
  8
CSLAYER1
  6
CONTINUOUS
 62
     5
 10
1404.166599
 20
578.689522
 11
2206.866599
 21
578.689522
  0
LINE
  8
CSLAYER1
  6
CONTINUOUS
 62
     5
 10
1404.166599
 20
578.689522
 11
1433.144374
 21
586.454093
  0
LINE
  8
CSLAYER1
  6
CONTINUOUS
 62
     5
 10
1404.166599
 20
578.689522
 11
1433.144374
 21
570.924951
  0
LINE
  8
CSLAYER1
  6
CONTINUOUS
 62
     5
 10
2206.866599
 20
578.689522
 11
2177.888824
 21
586.454093
  0
LINE
  8
CSLAYER1
  6
CONTINUOUS
 62
     5
 10
2206.866599
 20
578.689522
 11
2177.888824
 21
570.924951
  0
ENDBLK
  8
0
  0
BLOCK
  8
CSLAYER1
  2
*D0009
 70
    65
 10
0.0
 20
0.0
 30
0.0
  0
TEXT
  8
CSLAYER1
 62
     3
 10
2554.424316
 20
823.339233
 40
40.000000
 41
0.843750
  1
100
 50
90.000000
 51
0.000000
  7
EASYDRAW_FONT
 72
     5
 11
2554.424316
 21
913.339233
  0
LINE
  8
CSLAYER1
  6
CONTINUOUS
 62
     5
 10
2674.403274
 20
918.339082
 11
2554.424005
 21
918.339082
  0
LINE
  8
CSLAYER1
  6
CONTINUOUS
 62
     5
 10
2564.424005
 20
818.339082
 11
2564.424005
 21
918.339082
  0
LINE
  8
CSLAYER1
  6
CONTINUOUS
 62
     5
 10
2564.424005
 20
818.339082
 11
2556.659433
 21
847.316857
  0
LINE
  8
CSLAYER1
  6
CONTINUOUS
 62
     5
 10
2564.424005
 20
818.339082
 11
2572.188576
 21
847.316857
  0
LINE
  8
CSLAYER1
  6
CONTINUOUS
 62
     5
 10
2564.424005
 20
918.339082
 11
2556.659433
 21
889.361308
  0
LINE
  8
CSLAYER1
  6
CONTINUOUS
 62
     5
 10
2564.424005
 20
918.339082
 11
2572.188576
 21
889.361308
  0
ENDBLK
  8
0
  0
BLOCK
  8
CSLAYER1
  2
*D0010
 70
    65
 10
0.0
 20
0.0
 30
0.0
  0
TEXT
  8
CSLAYER1
 62
     3
 10
1105.598633
 20
827.204224
 40
40.000000
 41
1.125000
  1
6
 50
90.000000
 51
0.000000
  7
EASYDRAW_FONT
 72
     5
 11
1105.598633
 21
857.204224
  0
LINE
  8
CSLAYER1
  6
CONTINUOUS
 62
     5
 10
996.345128
 20
818.339082
 11
1062.731725
 21
818.339082
  0
LINE
  8
CSLAYER1
  6
CONTINUOUS
 62
     5
 10
996.345128
 20
824.339082
 11
1062.731725
 21
824.339082
  0
LINE
  8
CSLAYER1
  6
CONTINUOUS
 62
     5
 10
1052.731725
 20
818.339082
 11
1052.731725
 21
768.339082
  0
LINE
  8
CSLAYER1
  6
CONTINUOUS
 62
     5
 10
1052.731725
 20
818.339082
 11
1044.967154
 21
789.361308
  0
LINE
  8
CSLAYER1
  6
CONTINUOUS
 62
     5
 10
1052.731725
 20
818.339082
 11
1060.496296
 21
789.361308
  0
LINE
  8
CSLAYER1
  6
CONTINUOUS
 62
     5
 10
1052.731725
 20
824.339082
 11
1052.731725
 21
858.438045
  0
LINE
  8
CSLAYER1
  6
CONTINUOUS
 62
     5
 10
1052.731725
 20
824.339082
 11
1044.967154
 21
853.316857
  0
LINE
  8
CSLAYER1
  6
CONTINUOUS
 62
     5
 10
1052.731725
 20
824.339082
 11
1060.496296
 21
853.316857
  0
LINE
  8
CSLAYER1
  6
CONTINUOUS
 62
     5
 10
1052.731725
 20
818.339082
 11
1052.731725
 21
824.339082
  0
ENDBLK
  8
0
  0
BLOCK
  8
CSLAYER1
  2
*D0011
 70
    65
 10
0.0
 20
0.0
 30
0.0
  0
TEXT
  8
CSLAYER1
 62
     3
 10
2319.350830
 20
1882.846680
 40
40.000000
 41
0.843750
  1
200
 50
90.000000
 51
0.000000
  7
EASYDRAW_FONT
 72
     5
 11
2319.350830
 21
1972.846680
  0
LINE
  8
CSLAYER1
  6
CONTINUOUS
 62
     5
 10
2244.302302
 20
1827.846645
 11
2339.350996
 21
1827.846645
  0
LINE
  8
CSLAYER1
  6
CONTINUOUS
 62
     5
 10
2244.302302
 20
2027.846645
 11
2339.350996
 21
2027.846645
  0
LINE
  8
CSLAYER1
  6
CONTINUOUS
 62
     5
 10
2329.350996
 20
1827.846645
 11
2329.350996
 21
2027.846645
  0
LINE
  8
CSLAYER1
  6
CONTINUOUS
 62
     5
 10
2329.350996
 20
1827.846645
 11
2321.586424
 21
1856.824420
  0
LINE
  8
CSLAYER1
  6
CONTINUOUS
 62
     5
 10
2329.350996
 20
1827.846645
 11
2337.115567
 21
1856.824420
  0
LINE
  8
CSLAYER1
  6
CONTINUOUS
 62
     5
 10
2329.350996
 20
2027.846645
 11
2321.586424
 21
1998.868870
  0
LINE
  8
CSLAYER1
  6
CONTINUOUS
 62
     5
 10
2329.350996
 20
2027.846645
 11
2337.115567
 21
1998.868870
  0
ENDBLK
  8
0
  0
BLOCK
  8
CSLAYER1
  2
EASYDRAWDIM0004
 70
   64
 10
0.0
 20
0.0
 30
0.0
  0
TEXT
  8
CSLAYER1
 62
     3
 10
1017.229431
 20
687.482422
 40
40.000000
 41
0.771429
  1
2-%%c13（アンカー穴）
 50
0.000000
 51
0.000000
  7
EASYDRAW_FONT
 72
     5
 11
1377.229431
 21
687.482422
  0
LINE
  8
CSLAYER1
  6
CONTINUOUS
 62
     5
 10
1057.252774
 20
735.437346
 11
1342.849438
 21
735.437346
  0
ENDBLK
  8
0
  0
BLOCK
  8
CSLAYER1
  2
*D0012
 70
    65
 10
0.0
 20
0.0
 30
0.0
  0
TEXT
  8
CSLAYER1
 62
     3
 10
791.345154
 20
682.134094
 40
40.000000
 41
0.843750
  1
300
 50
0.000000
 51
0.000000
  7
EASYDRAW_FONT
 72
     5
 11
881.345154
 21
682.134094
  0
LINE
  8
CSLAYER1
  6
CONTINUOUS
 62
     5
 10
686.345128
 20
810.339082
 11
686.345128
 21
666.134056
  0
LINE
  8
CSLAYER1
  6
CONTINUOUS
 62
     5
 10
986.345128
 20
810.339082
 11
986.345128
 21
666.134056
  0
LINE
  8
CSLAYER1
  6
CONTINUOUS
 62
     5
 10
686.345128
 20
674.134056
 11
986.345128
 21
674.134056
  0
LINE
  8
CSLAYER1
  6
CONTINUOUS
 62
     5
 10
686.345128
 20
674.134056
 11
715.322903
 21
681.898628
  0
LINE
  8
CSLAYER1
  6
CONTINUOUS
 62
     5
 10
686.345128
 20
674.134056
 11
715.322903
 21
666.369485
  0
LINE
  8
CSLAYER1
  6
CONTINUOUS
 62
     5
 10
986.345128
 20
674.134056
 11
957.367353
 21
681.898628
  0
LINE
  8
CSLAYER1
  6
CONTINUOUS
 62
     5
 10
986.345128
 20
674.134056
 11
957.367353
 21
666.369485
  0
ENDBLK
  8
0
  0
BLOCK
  8
CSLAYER1
  2
*D0013
 70
    65
 10
0.0
 20
0.0
 30
0.0
  0
TEXT
  8
CSLAYER1
 62
     3
 10
791.345154
 20
751.507507
 40
40.000000
 41
0.843750
  1
250
 50
0.000000
 51
0.000000
  7
EASYDRAW_FONT
 72
     5
 11
881.345154
 21
751.507507
  0
LINE
  8
CSLAYER1
  6
CONTINUOUS
 62
     5
 10
711.345128
 20
810.339082
 11
711.345128
 21
735.507513
  0
LINE
  8
CSLAYER1
  6
CONTINUOUS
 62
     5
 10
961.345128
 20
810.339082
 11
961.345128
 21
735.507513
  0
LINE
  8
CSLAYER1
  6
CONTINUOUS
 62
     5
 10
711.345128
 20
743.507513
 11
961.345128
 21
743.507513
  0
LINE
  8
CSLAYER1
  6
CONTINUOUS
 62
     5
 10
711.345128
 20
743.507513
 11
740.322903
 21
751.272084
  0
LINE
  8
CSLAYER1
  6
CONTINUOUS
 62
     5
 10
711.345128
 20
743.507513
 11
740.322903
 21
735.742942
  0
LINE
  8
CSLAYER1
  6
CONTINUOUS
 62
     5
 10
961.345128
 20
743.507513
 11
932.367353
 21
751.272084
  0
LINE
  8
CSLAYER1
  6
CONTINUOUS
 62
     5
 10
961.345128
 20
743.507513
 11
932.367353
 21
735.742942
  0
ENDBLK
  8
0
  0
BLOCK
  8
CSLAYER1
  2
*D0014
 70
    65
 10
0.0
 20
0.0
 30
0.0
  0
TEXT
  8
CSLAYER1
 62
     3
 10
1424.750732
 20
618.724182
 40
40.000000
 41
0.900000
  1
25
 50
0.000000
 51
0.000000
  7
EASYDRAW_FONT
 72
     5
 11
1484.750732
 21
618.724182
  0
LINE
  8
CSLAYER1
  6
CONTINUOUS
 62
     5
 10
1404.166599
 20
808.339082
 11
1404.166599
 21
667.621183
  0
LINE
  8
CSLAYER1
  6
CONTINUOUS
 62
     5
 10
1429.166599
 20
808.339082
 11
1429.166599
 21
667.621183
  0
LINE
  8
CSLAYER1
  6
CONTINUOUS
 62
     5
 10
1404.166599
 20
677.621183
 11
1429.166599
 21
677.621183
  0
LINE
  8
CSLAYER1
  6
CONTINUOUS
 62
     5
 10
1354.166599
 20
677.621183
 11
1404.166599
 21
677.621183
  0
LINE
  8
CSLAYER1
  6
CONTINUOUS
 62
     5
 10
1404.166599
 20
677.621183
 11
1375.188824
 21
685.385754
  0
LINE
  8
CSLAYER1
  6
CONTINUOUS
 62
     5
 10
1404.166599
 20
677.621183
 11
1375.188824
 21
669.856611
  0
LINE
  8
CSLAYER1
  6
CONTINUOUS
 62
     5
 10
1429.166599
 20
677.621183
 11
1479.166599
 21
677.621183
  0
LINE
  8
CSLAYER1
  6
CONTINUOUS
 62
     5
 10
1429.166599
 20
677.621183
 11
1458.144374
 21
685.385754
  0
LINE
  8
CSLAYER1
  6
CONTINUOUS
 62
     5
 10
1429.166599
 20
677.621183
 11
1458.144374
 21
669.856611
  0
ENDBLK
  8
0
  0
BLOCK
  8
CSLAYER1
  2
EASYDRAWDIM0005
 70
   64
 10
0.0
 20
0.0
 30
0.0
  0
LINE
  8
CSLAYER1
  6
CONTINUOUS
 62
     6
 10
1429.166599
 20
818.339082
 11
1342.849438
 21
735.437346
  0
LINE
  8
CSLAYER1
  6
CONTINUOUS
 62
     6
 10
1429.166599
 20
818.339082
 11
1413.645378
 21
792.666301
  0
LINE
  8
CSLAYER1
  6
CONTINUOUS
 62
     6
 10
1429.166599
 20
818.339082
 11
1402.888437
 21
803.866412
  0
LINE
  8
CSLAYER1
  6
CONTINUOUS
 62
     6
 10
1342.849438
 20
735.437346
 11
1192.432258
 21
735.437346
  0
ENDBLK
  8
0
  0
BLOCK
  8
CSLAYER1
  2
BLKF0000
 70
   64
 10
0.0
 20
0.0
 30
0.0
  0
TEXT
  8
CSLAYER1
 62
     5
 10
2993.925016
 20
821.946400
 40
31.844261
 41
0.920655
  1
Ｆ.Ｌ
 50
0.000000
 51
0.000000
  7
EASYDRAW_FONT
 72
     5
 11
3072.105257
 21
821.946400
  0
LINE
  8
CSLAYER1
  6
CENTER
 62
     5
 10
1404.166599
 20
1927.846645
 11
2234.302302
 21
1927.846645
  0
LINE
  8
CSLAYER1
  6
CONTINUOUS
 62
     4
 10
1406.866599
 20
1927.846645
 11
1406.866599
 21
2027.846645
  0
LINE
  8
CSLAYER1
  6
CONTINUOUS
 62
     4
 10
2234.302302
 20
1927.846645
 11
2234.302302
 21
2027.846645
  0
LINE
  8
CSLAYER1
  6
CONTINUOUS
 62
     3
 10
1404.166599
 20
1927.846645
 11
1404.166599
 21
1953.696645
  0
LINE
  8
CSLAYER1
  6
CONTINUOUS
 62
     3
 10
1454.166599
 20
2067.846645
 11
1454.166599
 21
2027.846645
  0
LINE
  8
CSLAYER1
  6
CONTINUOUS
 62
     3
 10
1414.166599
 20
2077.846645
 11
1444.166599
 21
2077.846645
  0
ARC
  8
CSLAYER1
  6
CONTINUOUS
 62
     3
 10
1444.166599
 20
2067.846645
 40
10.000000
 50
0.000000
 51
90.000000
  0
LINE
  8
CSLAYER1
  6
CENTER
 62
     5
 10
1429.166599
 20
2041.583844
 11
1429.166599
 21
2064.109447
  0
LINE
  8
CSLAYER1
  6
CENTER
 62
     5
 10
1417.903798
 20
2052.846645
 11
1440.429401
 21
2052.846645
  0
LINE
  8
CSLAYER1
  6
CONTINUOUS
 62
     4
 10
1406.866599
 20
1927.846645
 11
1406.866599
 21
2027.846645
  0
LINE
  8
CSLAYER1
  6
CENTER
 62
     5
 10
1179.470440
 20
1957.846645
 11
1406.866599
 21
1957.846645
  0
LINE
  8
CSLAYER1
  6
CONTINUOUS
 62
     3
 10
1404.166599
 20
2002.346645
 11
1406.866599
 21
2002.346645
  0
LINE
  8
CSLAYER1
  6
CONTINUOUS
 62
     3
 10
1179.470440
 20
1961.996645
 11
1406.866599
 21
1961.996645
  0
LINE
  8
CSLAYER1
  6
CONTINUOUS
 62
     3
 10
1179.470440
 20
1953.696645
 11
1406.866599
 21
1953.696645
  0
LINE
  8
CSLAYER1
  6
CONTINUOUS
 62
     3
 10
1404.166599
 20
1961.996645
 11
1404.166599
 21
2067.846645
  0
DIMENSION
  8
CSLAYER1
 62
     3
  2
*D0000
 10
1318.912539
 20
2052.846645
 11
1310.660400
 21
1902.293945
 13
1417.903798
 23
1802.846645
 14
1439.166599
 24
2052.846645
 50
90.000000
  0
DIMENSION
  8
CSLAYER1
 62
     3
  2
*D0001
 10
1429.166599
 20
1713.786580
 11
1363.311035
 21
1697.519287
 13
1404.166599
 23
1646.975013
 14
1429.166599
 24
1791.583844
  0
DIMENSION
  8
CSLAYER1
 62
     3
  2
*D0002
 10
1454.166599
 20
1646.975013
 11
1364.473145
 21
1630.126709
 13
1404.166599
 23
1787.846645
 14
1454.166599
 24
1787.846645
 52
270.000000
 70
1
  0
INSERT
  8
CSLAYER1
  2
EASYDRAWDIM0000
 10
0.0
 20
0.0
 30
0.0
  0
INSERT
  8
CSLAYER1
  2
EASYDRAWDIM0001
 10
0.0
 20
0.0
 30
0.0
  0
LINE
  8
CSLAYER1
  6
CENTER
 62
     5
 10
1429.166599
 20
856.203122
 11
1429.166599
 21
827.426308
  0
POINT
  8
CSLAYER1
 62
     4
 10
1429.166599
 20
841.339082
  0
LINE
  8
CSLAYER1
  6
CONTINUOUS
 62
     3
 10
1404.166599
 20
862.339082
 11
1404.166599
 21
818.339082
  0
LINE
  8
CSLAYER1
  6
CONTINUOUS
 62
     3
 10
1454.166599
 20
862.339082
 11
1454.166599
 21
818.339082
  0
LINE
  8
CSLAYER1
  6
CONTINUOUS
 62
     3
 10
1404.166599
 20
824.339082
 11
1454.166599
 21
824.339082
  0
LINE
  8
CSLAYER1
  6
CONTINUOUS
 62
     3
 10
1448.166599
 20
862.339082
 11
1448.166599
 21
824.339082
  0
CIRCLE
  8
CSLAYER1
  6
CONTINUOUS
 62
     3
 10
1429.166599
 20
841.339082
 40
8.650000
  0
CIRCLE
  8
CSLAYER1
  6
CONTINUOUS
 62
     3
 10
1429.166599
 20
841.339082
 40
5.000000
  0
CIRCLE
  8
CSLAYER1
  6
CONTINUOUS
 62
     3
 10
1429.166599
 20
841.339082
 40
9.500000
  0
LINE
  8
CSLAYER1
  6
CONTINUOUS
 62
     3
 10
1438.666599
 20
846.823910
 11
1429.166599
 21
852.308737
  0
LINE
  8
CSLAYER1
  6
CONTINUOUS
 62
     3
 10
1429.166599
 20
852.308737
 11
1419.666599
 21
846.823910
  0
LINE
  8
CSLAYER1
  6
CONTINUOUS
 62
     3
 10
1419.666599
 20
846.823910
 11
1419.666599
 21
835.854255
  0
LINE
  8
CSLAYER1
  6
CONTINUOUS
 62
     3
 10
1419.666599
 20
835.854255
 11
1429.166599
 21
830.369427
  0
LINE
  8
CSLAYER1
  6
CONTINUOUS
 62
     3
 10
1429.166599
 20
830.369427
 11
1438.666599
 21
835.854255
  0
LINE
  8
CSLAYER1
  6
CONTINUOUS
 62
     3
 10
1438.666599
 20
835.854255
 11
1438.666599
 21
846.823910
  0
POINT
  8
CSLAYER1
 62
     3
 10
1429.166599
 20
841.339082
  0
CIRCLE
  8
CSLAYER1
  6
CONTINUOUS
 62
     3
 10
1429.166599
 20
841.339082
 40
6.000000
  0
LINE
  8
CSLAYER1
  6
CONTINUOUS
 62
     3
 10
1404.166599
 20
862.339082
 11
2206.866599
 21
862.339082
  0
LINE
  8
CSLAYER1
  6
CONTINUOUS
 62
     5
 10
487.363468
 20
818.339082
 11
686.345128
 21
818.339082
  0
LINE
  8
CSLAYER1
  6
CONTINUOUS
 62
     3
 10
2206.866599
 20
862.339082
 11
2206.866599
 21
818.339082
  0
LINE
  8
CSLAYER1
  6
CONTINUOUS
 62
     7
 10
1476.416458
 20
902.875258
 11
1487.818308
 21
891.650383
  0
LINE
  8
CSLAYER1
  6
CONTINUOUS
 62
     7
 10
1500.970870
 20
927.816806
 11
1512.372721
 21
916.591931
  0
LINE
  8
CSLAYER1
  6
CONTINUOUS
 62
     7
 10
1492.060819
 20
891.683566
 11
1512.405904
 21
912.349421
  0
LINE
  8
CSLAYER1
  6
CONTINUOUS
 62
     7
 10
1476.383275
 20
907.117768
 11
1496.728359
 21
927.783623
  0
ARC
  8
CSLAYER1
  6
CONTINUOUS
 62
     7
 10
1478.521122
 20
905.013105
 40
3.000000
 50
135.448133
 51
225.448133
  0
ARC
  8
CSLAYER1
  6
CONTINUOUS
 62
     7
 10
1498.866206
 20
925.678959
 40
3.000000
 50
45.448133
 51
135.448133
  0
ARC
  8
CSLAYER1
  6
CONTINUOUS
 62
     7
 10
1489.922972
 20
893.788230
 40
3.000000
 50
225.448133
 51
315.448133
  0
ARC
  8
CSLAYER1
  6
CONTINUOUS
 62
     7
 10
1510.268057
 20
914.454084
 40
3.000000
 50
-44.551867
 51
45.448133
  0
CIRCLE
  8
CSLAYER1
  6
CONTINUOUS
 62
     4
 10
1489.132930
 20
904.388977
 40
8.250000
  0
LINE
  8
CSLAYER1
  6
CONTINUOUS
 62
     4
 10
1578.892192
 20
1079.023666
 11
1584.845384
 21
1075.018871
  0
LINE
  8
CSLAYER1
  6
CONTINUOUS
 62
     4
 10
1545.288843
 20
1035.342264
 11
1545.587099
 21
1035.141623
  0
LINE
  8
CSLAYER1
  6
CONTINUOUS
 62
     4
 10
1545.017285
 20
1036.730160
 11
1563.995037
 21
1064.940884
  0
LINE
  8
CSLAYER1
  6
CONTINUOUS
 62
     4
 10
1563.995037
 20
1064.940884
 11
1578.892192
 21
1079.023666
  0
LINE
  8
CSLAYER1
  6
CONTINUOUS
 62
     4
 10
1545.017285
 20
1036.730160
 11
1545.288843
 21
1035.342264
  0
POINT
  8
CSLAYER1
 62
     4
 10
1489.132930
 20
904.388977
  0
CIRCLE
  8
CSLAYER1
  6
CONTINUOUS
 62
     4
 10
1686.222463
 20
1197.365641
 40
8.000000
  0
POINT
  8
CSLAYER1
 62
     4
 10
1686.222463
 20
1197.365641
  0
LINE
  8
CSLAYER1
  6
CONTINUOUS
 62
     4
 10
1583.040828
 20
1076.232821
 11
1632.035844
 21
1149.064676
  0
LINE
  8
CSLAYER1
  6
CENTER
 62
     5
 10
1489.132930
 20
904.388977
 11
1693.813564
 21
1208.649931
  0
CIRCLE
  8
CSLAYER1
  6
CONTINUOUS
 62
     7
 10
1692.249590
 20
1108.569956
 40
10.000000
  0
CIRCLE
  8
CSLAYER1
  6
CONTINUOUS
 62
     7
 10
1686.222463
 20
1197.365641
 40
8.000000
  0
ARC
  8
CSLAYER1
  6
CONTINUOUS
 62
     7
 10
1644.890754
 20
1156.675472
 40
72.000000
 50
33.832141
 51
87.150680
  0
LINE
  8
CSLAYER1
  6
CONTINUOUS
 62
     7
 10
1632.807838
 20
1148.280510
 11
1496.004683
 21
1287.240564
  0
LINE
  8
CSLAYER1
  6
CONTINUOUS
 62
     7
 10
1731.025488
 20
1048.514317
 11
1712.362393
 21
1058.206525
  0
LINE
  8
CSLAYER1
  6
CONTINUOUS
 62
     7
 10
1632.807838
 20
1148.280510
 11
1640.941978
 21
1131.999909
  0
LINE
  8
CSLAYER1
  6
CONTINUOUS
 62
     7
 10
1692.249590
 20
1078.636436
 11
1712.362393
 21
1058.206525
  0
LINE
  8
CSLAYER1
  6
CONTINUOUS
 62
     7
 10
1731.025488
 20
1048.514317
 11
1914.310963
 21
862.339082
  0
POINT
  8
CSLAYER1
 62
     7
 10
1955.332581
 20
841.339082
  0
ARC
  8
CSLAYER1
  6
CONTINUOUS
 62
     7
 10
1955.332581
 20
841.339082
 40
18.500000
 50
65.556769
 51
120.003527
  0
POINT
  8
CSLAYER1
 62
     7
 10
1686.222463
 20
1197.365641
  0
POINT
  8
CSLAYER1
 62
     7
 10
1692.249590
 20
1108.569956
  0
LINE
  8
CSLAYER1
  6
CONTINUOUS
 62
     7
 10
1943.992386
 20
928.404575
 11
1964.098224
 21
862.339082
  0
LINE
  8
CSLAYER1
  6
CONTINUOUS
 62
     7
 10
1484.262614
 20
1395.382650
 11
1648.469840
 21
1228.586460
  0
LINE
  8
CSLAYER1
  6
CONTINUOUS
 62
     7
 10
1692.249590
 20
1078.636436
 11
1712.362393
 21
1058.206525
  0
LINE
  8
CSLAYER1
  6
CONTINUOUS
 62
     7
 10
1496.004683
 20
1287.240564
 11
1445.782806
 21
1391.844319
  0
LINE
  8
CSLAYER1
  6
CONTINUOUS
 62
     7
 10
1743.604639
 20
1131.951724
 11
1943.992386
 21
928.404575
  0
LINE
  8
CSLAYER1
  6
CONTINUOUS
 62
     4
 10
1919.050838
 20
1313.289750
 11
1938.950116
 21
1387.975727
  0
POINT
  8
CSLAYER1
 62
     4
 10
1489.132930
 20
904.388977
  0
ARC
  8
CSLAYER1
  6
CONTINUOUS
 62
     4
 10
1927.896878
 20
1402.810683
 40
18.500000
 50
-187.141738
 51
7.141738
  0
ARC
  8
CSLAYER1
  6
CONTINUOUS
 62
     4
 10
1927.896878
 20
1402.810683
 40
6.000000
 50
-202.540310
 51
22.540310
  0
POINT
  8
CSLAYER1
 62
     4
 10
1692.249590
 20
1108.569956
  0
LINE
  8
CSLAYER1
  6
CONTINUOUS
 62
     4
 10
1909.503702
 20
1404.795895
 11
1440.506794
 21
928.404575
  0
LINE
  8
CSLAYER1
  6
CONTINUOUS
 62
     4
 10
1919.050838
 20
1313.289750
 11
1747.169951
 21
1138.698912
  0
LINE
  8
CSLAYER1
  6
CONTINUOUS
 62
     4
 10
1747.169951
 20
1138.698912
 11
1742.292251
 21
1129.468092
  0
LINE
  8
CSLAYER1
  6
CONTINUOUS
 62
     4
 10
1672.136787
 20
1058.206525
 11
1742.292251
 21
1129.468092
  0
LINE
  8
CSLAYER1
  6
CONTINUOUS
 62
     4
 10
1662.983394
 20
1053.185033
 11
1672.136787
 21
1058.206525
  0
LINE
  8
CSLAYER1
  6
CONTINUOUS
 62
     4
 10
1475.099701
 20
862.339082
 11
1662.983394
 21
1053.185033
  0
LINE
  8
CSLAYER1
  6
CONTINUOUS
 62
     4
 10
1440.506794
 20
928.404575
 11
1421.643169
 21
862.339082
  0
LINE
  8
CSLAYER1
  6
CONTINUOUS
 62
     7
 10
1488.997842
 20
876.456348
 11
1491.491997
 21
874.000907
  0
CIRCLE
  8
CSLAYER1
  6
CONTINUOUS
 62
     7
 10
1489.132930
 20
904.388977
 40
8.000000
  0
LINE
  8
CSLAYER1
  6
CONTINUOUS
 62
     7
 10
1511.124466
 20
895.368316
 11
1490.779381
 21
874.702462
  0
LINE
  8
CSLAYER1
  6
CONTINUOUS
 62
     7
 10
1500.357804
 20
915.790828
 11
1508.196576
 21
908.073727
  0
ARC
  8
CSLAYER1
  6
CONTINUOUS
 62
     7
 10
1489.132930
 20
904.388977
 40
16.000000
 50
45.448133
 51
88.880670
  0
ARC
  8
CSLAYER1
  6
CONTINUOUS
 62
     7
 10
1506.136156
 20
900.279198
 40
7.000000
 50
-44.551867
 51
5.442932
  0
POINT
  8
CSLAYER1
 62
     7
 10
1489.132930
 20
904.388977
  0
LINE
  8
CSLAYER1
  6
CONTINUOUS
 62
     7
 10
1491.491997
 20
874.000907
 11
1480.011184
 21
862.339082
  0
LINE
  8
CSLAYER1
  6
CONTINUOUS
 62
     4
 10
1563.995037
 20
1064.940884
 11
1570.569644
 21
1060.518053
  0
LINE
  8
CSLAYER1
  6
CENTER
 62
     5
 10
1955.332581
 20
862.967652
 11
1955.332581
 21
820.478072
  0
LINE
  8
CSLAYER1
  6
CENTER
 62
     5
 10
1931.968509
 20
841.339082
 11
1982.424886
 21
841.339082
  0
ARC
  8
CSLAYER1
  6
CONTINUOUS
 62
     7
 10
1955.332581
 20
841.339082
 40
18.500000
 50
158.503526
 51
207.162714
  0
ARC
  8
CSLAYER1
  6
CONTINUOUS
 62
     7
 10
1955.332581
 20
841.339082
 40
18.500000
 50
246.238191
 51
293.124953
  0
ARC
  8
CSLAYER1
  6
CONTINUOUS
 62
     7
 10
1955.332581
 20
841.339082
 40
18.500000
 50
-26.285980
 51
29.355347
  0
LINE
  8
CSLAYER1
  6
CENTER
 62
     5
 10
1673.889805
 20
1108.569956
 11
1711.016406
 21
1108.569956
  0
LINE
  8
CSLAYER1
  6
CENTER
 62
     5
 10
1672.904143
 20
1197.365641
 11
1700.174125
 21
1197.365641
  0
LINE
  8
CSLAYER1
  6
CENTER
 62
     5
 10
1686.222463
 20
1209.714183
 11
1686.222463
 21
1183.429863
  0
LINE
  8
CSLAYER1
  6
CENTER
 62
     5
 10
1692.249590
 20
1127.247130
 11
1692.249590
 21
1090.777636
  0
LINE
  8
CSLAYER1
  6
CENTER
 62
     5
 10
1927.896878
 20
1421.835339
 11
1927.896878
 21
1379.293878
  0
LINE
  8
CSLAYER1
  6
CENTER
 62
     5
 10
1456.602302
 20
1440.110683
 11
1456.602302
 21
1383.367475
  0
LINE
  8
CSLAYER1
  6
CENTER
 62
     5
 10
1412.537397
 20
841.339082
 11
1444.907683
 21
841.339082
  0
POINT
  8
CSLAYER1
 62
     7
 10
1456.602302
 20
1402.810683
  0
POINT
  8
CSLAYER1
 62
     4
 10
1927.896878
 20
1402.810683
  0
LINE
  8
CSLAYER1
  6
CENTER
 62
     5
 10
1904.738954
 20
1402.810683
 11
1946.396878
 21
1402.810683
  0
LINE
  8
CSLAYER1
  6
CENTER
 62
     5
 10
1442.549703
 20
1402.810683
 11
1471.828396
 21
1402.810683
  0
LINE
  8
CSLAYER1
  6
CONTINUOUS
 62
     3
 10
2234.302302
 20
1440.110683
 11
2234.302302
 21
1405.110683
  0
ARC
  8
CSLAYER1
  6
CONTINUOUS
 62
     3
 10
1456.602302
 20
1402.810683
 40
9.500000
 50
-194.010828
 51
14.010828
  0
LINE
  8
CSLAYER1
  6
CONTINUOUS
 62
     3
 10
1447.102302
 20
1405.110683
 11
1447.102302
 21
1397.325856
  0
LINE
  8
CSLAYER1
  6
CONTINUOUS
 62
     3
 10
1447.102302
 20
1397.325856
 11
1456.602302
 21
1391.841028
  0
LINE
  8
CSLAYER1
  6
CONTINUOUS
 62
     3
 10
1456.602302
 20
1391.841028
 11
1466.102302
 21
1397.325856
  0
LINE
  8
CSLAYER1
  6
CONTINUOUS
 62
     3
 10
1466.102302
 20
1397.325856
 11
1466.102302
 21
1405.110683
  0
POINT
  8
CSLAYER1
 62
     3
 10
1456.602302
 20
1402.810683
  0
POINT
  8
CSLAYER1
 62
     3
 10
1456.602302
 20
1402.810683
  0
ARC
  8
CSLAYER1
  6
CONTINUOUS
 62
     3
 10
1446.602302
 20
1401.810683
 40
10.000000
 50
180.000000
 51
270.000000
  0
LINE
  8
CSLAYER1
  6
CONTINUOUS
 62
     3
 10
1446.602302
 20
1391.810683
 11
1476.602302
 21
1391.810683
  0
ARC
  8
CSLAYER1
  6
CONTINUOUS
 62
     3
 10
1476.602302
 20
1401.810683
 40
10.000000
 50
270.000000
 51
360.000000
  0
LINE
  8
CSLAYER1
  6
CONTINUOUS
 62
     3
 10
1486.602302
 20
1405.110683
 11
1486.602302
 21
1401.810683
  0
LINE
  8
CSLAYER1
  6
CONTINUOUS
 62
     3
 10
1436.602302
 20
1405.110683
 11
1436.602302
 21
1401.810683
  0
LINE
  8
CSLAYER1
  6
CONTINUOUS
 62
     3
 10
1434.302302
 20
1440.110683
 11
2234.302302
 21
1440.110683
  0
LINE
  8
CSLAYER1
  6
CONTINUOUS
 62
     3
 10
1434.302302
 20
1440.110683
 11
1434.302302
 21
1405.110683
  0
LINE
  8
CSLAYER1
  6
CONTINUOUS
 62
     3
 10
1434.302302
 20
1405.110683
 11
2234.302302
 21
1405.110683
  0
LINE
  8
CSLAYER1
  6
CENTER
 62
     5
 10
1429.166599
 20
883.339082
 11
1429.166599
 21
861.595874
  0
POINT
  8
CSLAYER1
 62
     5
 10
1429.166599
 20
881.039082
  0
POINT
  8
CSLAYER1
 62
     5
 10
1900.461175
 20
881.039082
  0
LINE
  8
CSLAYER1
  6
PHANTOM
 62
     5
 10
1877.303251
 20
881.039082
 11
1918.961175
 21
881.039082
  0
LINE
  8
CSLAYER1
  6
PHANTOM
 62
     5
 10
1415.114000
 20
881.039082
 11
1444.392693
 21
881.039082
  0
LINE
  8
CSLAYER1
  6
PHANTOM
 62
     5
 10
2206.866599
 20
918.339082
 11
2206.866599
 21
883.339082
  0
ARC
  8
CSLAYER1
  6
PHANTOM
 62
     5
 10
1429.166599
 20
881.039082
 40
9.500000
 50
-194.010828
 51
14.010828
  0
LINE
  8
CSLAYER1
  6
PHANTOM
 62
     5
 10
1419.666599
 20
883.339082
 11
1419.666599
 21
875.554255
  0
LINE
  8
CSLAYER1
  6
PHANTOM
 62
     5
 10
1419.666599
 20
875.554255
 11
1429.166599
 21
870.069427
  0
LINE
  8
CSLAYER1
  6
PHANTOM
 62
     5
 10
1429.166599
 20
870.069427
 11
1438.666599
 21
875.554255
  0
LINE
  8
CSLAYER1
  6
PHANTOM
 62
     5
 10
1438.666599
 20
875.554255
 11
1438.666599
 21
883.339082
  0
POINT
  8
CSLAYER1
 62
     5
 10
1429.166599
 20
881.039082
  0
POINT
  8
CSLAYER1
 62
     5
 10
1429.166599
 20
881.039082
  0
ARC
  8
CSLAYER1
  6
PHANTOM
 62
     5
 10
1419.166599
 20
880.039082
 40
10.000000
 50
180.000000
 51
270.000000
  0
LINE
  8
CSLAYER1
  6
PHANTOM
 62
     5
 10
1419.166599
 20
870.039082
 11
1449.166599
 21
870.039082
  0
ARC
  8
CSLAYER1
  6
PHANTOM
 62
     5
 10
1449.166599
 20
880.039082
 40
10.000000
 50
270.000000
 51
360.000000
  0
LINE
  8
CSLAYER1
  6
PHANTOM
 62
     5
 10
1459.166599
 20
883.339082
 11
1459.166599
 21
880.039082
  0
LINE
  8
CSLAYER1
  6
PHANTOM
 62
     5
 10
1409.166599
 20
883.339082
 11
1409.166599
 21
880.039082
  0
LINE
  8
CSLAYER1
  6
PHANTOM
 62
     5
 10
1406.866599
 20
918.339082
 11
2206.866599
 21
918.339082
  0
LINE
  8
CSLAYER1
  6
PHANTOM
 62
     5
 10
1406.866599
 20
918.339082
 11
1406.866599
 21
883.339082
  0
LINE
  8
CSLAYER1
  6
PHANTOM
 62
     5
 10
1406.866599
 20
883.339082
 11
2206.866599
 21
883.339082
  0
DIMENSION
  8
CSLAYER1
 62
     3
  2
*D0003
 10
2320.078421
 20
918.339082
 11
2310.078369
 21
868.339233
 13
2420.471495
 23
818.339082
 14
2206.866599
 24
918.339082
 50
90.000000
  0
DIMENSION
  8
CSLAYER1
 62
     3
  2
*D0004
 10
2320.078421
 20
1440.110683
 11
2310.078369
 21
1179.224976
 13
2199.685348
 23
918.339082
 14
2199.685348
 24
1440.110683
 50
90.000000
 70
1
  0
DIMENSION
  8
CSLAYER1
 62
     3
  2
*D0005
 10
2420.471495
 20
818.339082
 11
2410.471436
 21
1129.224976
 13
2420.471495
 23
1440.110683
 14
2420.471495
 24
818.339082
 50
90.000000
 70
1
  0
DIMENSION
  8
CSLAYER1
 62
     3
  2
*D0006
 10
2234.302302
 20
1523.941008
 11
1834.302490
 21
1533.940918
 13
1434.302302
 23
1440.110683
 14
2234.302302
 24
1440.110683
 70
1
  0
DIMENSION
  8
CSLAYER1
 62
     3
  2
*D0007
 10
1434.302302
 20
1241.616714
 11
1324.761230
 21
1265.087524
 13
1406.866599
 23
918.339082
 14
1434.302302
 24
1405.110683
  0
INSERT
  8
CSLAYER1
  2
EASYDRAWDIM0002
 10
0.0
 20
0.0
 30
0.0
  0
INSERT
  8
CSLAYER1
  2
EASYDRAWDIM0003
 10
0.0
 20
0.0
 30
0.0
  0
LINE
  8
CSLAYER1
  6
CONTINUOUS
 62
     3
 10
1264.371943
 20
842.489082
 11
1404.166599
 21
842.489082
  0
LINE
  8
CSLAYER1
  6
CENTER
 62
     5
 10
1264.371943
 20
838.339082
 11
1404.166599
 21
838.339082
  0
LINE
  8
CSLAYER1
  6
CONTINUOUS
 62
     3
 10
1264.371943
 20
834.189082
 11
1404.166599
 21
834.189082
  0
LINE
  8
CSLAYER1
  6
CONTINUOUS
 62
     5
 10
1563.995037
 20
1064.940884
 11
1310.687210
 21
1164.878235
  0
LINE
  8
CSLAYER1
  6
CONTINUOUS
 62
     5
 10
1563.995037
 20
1064.940884
 11
1534.189704
 21
1068.352944
  0
LINE
  8
CSLAYER1
  6
CONTINUOUS
 62
     5
 10
1563.995037
 20
1064.940884
 11
1539.888891
 21
1082.798481
  0
DIMENSION
  8
CSLAYER1
 62
     3
  2
*D0008
 10
2206.866599
 20
578.689522
 11
1805.516602
 21
588.689453
 13
1404.166599
 23
818.339082
 14
2206.866599
 24
818.339082
 52
270.000000
 70
1
  0
LINE
  8
CSLAYER1
  6
CENTER
 62
     5
 10
2774.403274
 20
818.339082
 11
2774.403274
 21
918.339082
  0
LINE
  8
CSLAYER1
  6
CENTER
 62
     5
 10
2899.403274
 20
809.409721
 11
2899.403274
 21
833.619683
  0
LINE
  8
CSLAYER1
  6
CENTER
 62
     5
 10
2649.403274
 20
809.409721
 11
2649.403274
 21
833.619683
  0
LINE
  8
CSLAYER1
  6
CENTER
 62
     5
 10
2699.903274
 20
881.039082
 11
2848.903274
 21
881.039082
  0
LINE
  8
CSLAYER1
  6
CONTINUOUS
 62
     3
 10
2624.403274
 20
818.339082
 11
2774.403274
 21
818.339082
  0
LINE
  8
CSLAYER1
  6
CONTINUOUS
 62
     3
 10
2674.403274
 20
862.339082
 11
2674.403274
 21
818.339082
  0
LINE
  8
CSLAYER1
  6
CONTINUOUS
 62
     3
 10
2924.403274
 20
818.339082
 11
2774.403274
 21
818.339082
  0
LINE
  8
CSLAYER1
  6
CONTINUOUS
 62
     3
 10
2874.403274
 20
862.339082
 11
2874.403274
 21
818.339082
  0
LINE
  8
CSLAYER1
  6
CONTINUOUS
 62
     3
 10
2924.403274
 20
818.339082
 11
2924.403274
 21
824.339082
  0
LINE
  8
CSLAYER1
  6
CONTINUOUS
 62
     3
 10
2924.403274
 20
824.339082
 11
2874.403274
 21
824.339082
  0
LINE
  8
CSLAYER1
  6
CONTINUOUS
 62
     3
 10
2624.403274
 20
818.339082
 11
2624.403274
 21
824.339082
  0
LINE
  8
CSLAYER1
  6
CONTINUOUS
 62
     3
 10
2624.403274
 20
824.339082
 11
2674.403274
 21
824.339082
  0
LINE
  8
CSLAYER1
  6
CONTINUOUS
 62
     3
 10
2820.403274
 20
862.339082
 11
2820.403274
 21
886.039082
  0
LINE
  8
CSLAYER1
  6
CONTINUOUS
 62
     3
 10
2829.403274
 20
862.339082
 11
2829.403274
 21
886.039082
  0
LINE
  8
CSLAYER1
  6
CONTINUOUS
 62
     3
 10
2832.403274
 20
862.339082
 11
2832.403274
 21
886.039082
  0
LINE
  8
CSLAYER1
  6
CONTINUOUS
 62
     3
 10
2841.403274
 20
862.339082
 11
2841.403274
 21
886.039082
  0
LINE
  8
CSLAYER1
  6
CONTINUOUS
 62
     3
 10
2848.903274
 20
881.039082
 11
2848.903274
 21
886.039082
  0
ARC
  8
CSLAYER1
  6
CONTINUOUS
 62
     3
 10
2835.107530
 20
881.039082
 40
13.795744
 50
0.000000
 51
21.249544
  0
LINE
  8
CSLAYER1
  6
CONTINUOUS
 62
     3
 10
2848.903274
 20
881.039082
 11
2848.903274
 21
872.039082
  0
LINE
  8
CSLAYER1
  6
CONTINUOUS
 62
     3
 10
2841.403274
 20
875.554255
 11
2847.766093
 21
875.554255
  0
LINE
  8
CSLAYER1
  6
CONTINUOUS
 62
     3
 10
2841.403274
 20
870.069427
 11
2847.766093
 21
870.069427
  0
LINE
  8
CSLAYER1
  6
CONTINUOUS
 62
     3
 10
2848.903274
 20
872.039082
 11
2847.766093
 21
870.069427
  0
ARC
  8
CSLAYER1
  6
CONTINUOUS
 62
     3
 10
2845.123229
 20
872.811841
 40
3.808617
 50
5.661633
 51
46.059028
  0
ARC
  8
CSLAYER1
  6
CONTINUOUS
 62
     3
 10
2835.107530
 20
881.039082
 40
13.795744
 50
336.573402
 51
360.000000
  0
LINE
  8
CSLAYER1
  6
CONTINUOUS
 62
     3
 10
2812.403274
 20
886.039082
 11
2812.403274
 21
862.339082
  0
LINE
  8
CSLAYER1
  6
CONTINUOUS
 62
     3
 10
2757.403274
 20
862.339082
 11
2757.403274
 21
886.039082
  0
LINE
  8
CSLAYER1
  6
CENTER
 62
     5
 10
2744.903274
 20
862.339082
 11
2744.903274
 21
886.039082
  0
LINE
  8
CSLAYER1
  6
CONTINUOUS
 62
     3
 10
2774.403274
 20
918.339082
 11
2674.403274
 21
918.339082
  0
LINE
  8
CSLAYER1
  6
CONTINUOUS
 62
     3
 10
2674.403274
 20
886.039082
 11
2774.403274
 21
886.039082
  0
LINE
  8
CSLAYER1
  6
CONTINUOUS
 62
     3
 10
2699.903274
 20
881.039082
 11
2699.903274
 21
882.839082
  0
ARC
  8
CSLAYER1
  6
CONTINUOUS
 62
     3
 10
2713.699018
 20
881.039082
 40
13.795744
 50
158.750456
 51
180.000000
  0
LINE
  8
CSLAYER1
  6
CONTINUOUS
 62
     3
 10
2699.903274
 20
886.039082
 11
2699.903274
 21
872.039082
  0
LINE
  8
CSLAYER1
  6
CONTINUOUS
 62
     3
 10
2707.403274
 20
875.554255
 11
2701.040455
 21
875.554255
  0
LINE
  8
CSLAYER1
  6
CONTINUOUS
 62
     3
 10
2707.403274
 20
870.069427
 11
2701.040455
 21
870.069427
  0
LINE
  8
CSLAYER1
  6
CONTINUOUS
 62
     3
 10
2699.903274
 20
872.039082
 11
2701.040455
 21
870.069427
  0
ARC
  8
CSLAYER1
  6
CONTINUOUS
 62
     3
 10
2703.683318
 20
872.811841
 40
3.808617
 50
133.940972
 51
174.338367
  0
ARC
  8
CSLAYER1
  6
CONTINUOUS
 62
     3
 10
2713.699018
 20
881.039082
 40
13.795744
 50
180.000000
 51
203.426598
  0
LINE
  8
CSLAYER1
  6
CONTINUOUS
 62
     3
 10
2728.403274
 20
862.339082
 11
2728.403274
 21
886.039082
  0
LINE
  8
CSLAYER1
  6
CONTINUOUS
 62
     3
 10
2719.403274
 20
862.339082
 11
2719.403274
 21
886.039082
  0
LINE
  8
CSLAYER1
  6
CONTINUOUS
 62
     3
 10
2716.403274
 20
862.339082
 11
2716.403274
 21
886.039082
  0
LINE
  8
CSLAYER1
  6
CONTINUOUS
 62
     3
 10
2707.403274
 20
862.339082
 11
2707.403274
 21
886.039082
  0
LINE
  8
CSLAYER1
  6
CONTINUOUS
 62
     3
 10
2689.403274
 20
886.039082
 11
2693.903274
 21
886.039082
  0
LINE
  8
CSLAYER1
  6
CONTINUOUS
 62
     3
 10
2859.403274
 20
886.039082
 11
2854.903274
 21
886.039082
  0
LINE
  8
CSLAYER1
  6
CONTINUOUS
 62
     3
 10
2740.753274
 20
862.339082
 11
2740.753274
 21
886.039082
  0
LINE
  8
CSLAYER1
  6
CONTINUOUS
 62
     3
 10
2749.053274
 20
862.339082
 11
2749.053274
 21
886.039082
  0
LINE
  8
CSLAYER1
  6
CENTER
 62
     5
 10
2699.903274
 20
881.039082
 11
2848.903274
 21
881.039082
  0
LINE
  8
CSLAYER1
  6
CONTINUOUS
 62
     3
 10
2674.403274
 20
862.339082
 11
2874.403274
 21
862.339082
  0
DIMENSION
  8
CSLAYER1
 62
     3
  2
*D0009
 10
2564.424005
 20
918.339082
 11
2554.424316
 21
868.339233
 13
2684.403274
 23
818.339082
 14
2684.403274
 24
918.339082
 50
90.000000
 70
1
  0
CIRCLE
  8
CSLAYER1
  6
CONTINUOUS
 62
     3
 10
1429.166599
 20
2052.846645
 40
6.500000
  0
ARC
  8
CSLAYER1
  6
CONTINUOUS
 62
     3
 10
1414.166599
 20
2067.846645
 40
10.000000
 50
90.000000
 51
180.000000
  0
TEXT
  8
CSLAYER1
 62
     7
 10
1411.238037
 20
2138.649658
 40
40.000000
 41
0.843750
  1
下降時
 50
0.000000
 51
0.000000
  7
EASYDRAW_FONT
 72
     5
 11
1501.238037
 21
2138.649658
  0
LINE
  8
CSLAYER1
  6
CONTINUOUS
 62
     5
 10
1397.631555
 20
2185.080292
 11
1520.589565
 21
2185.080292
  0
LINE
  8
CSLAYER1
  6
CONTINUOUS
 62
     5
 10
1520.589565
 20
2185.080292
 11
1520.589565
 21
2132.219840
  0
LINE
  8
CSLAYER1
  6
CONTINUOUS
 62
     5
 10
1520.589565
 20
2132.219840
 11
1397.631555
 21
2132.219840
  0
LINE
  8
CSLAYER1
  6
CONTINUOUS
 62
     5
 10
1397.631555
 20
2132.219840
 11
1397.631555
 21
2185.080292
  0
LINE
  8
CSLAYER1
  6
CONTINUOUS
 62
     5
 10
1429.166599
 20
805.213311
 11
1429.166599
 21
827.426308
  0
TEXT
  8
CSLAYER1
 62
     7
 10
1210.864990
 20
1318.799072
 40
40.000000
 41
0.787500
  1
テーブルのズレ
 50
0.000000
 51
0.000000
  7
EASYDRAW_FONT
 72
     5
 11
1420.864990
 21
1318.799072
  0
LINE
  8
CSLAYER1
  6
CENTER
 62
     5
 10
836.345128
 20
1440.110683
 11
836.345128
 21
818.339082
  0
LINE
  8
CSLAYER1
  6
CENTER
 62
     5
 10
961.345128
 20
809.409721
 11
961.345128
 21
833.619683
  0
LINE
  8
CSLAYER1
  6
CENTER
 62
     5
 10
711.345128
 20
809.409721
 11
711.345128
 21
833.619683
  0
LINE
  8
CSLAYER1
  6
CENTER
 62
     5
 10
806.345128
 20
821.649519
 11
806.345128
 21
854.912838
  0
LINE
  8
CSLAYER1
  6
CENTER
 62
     5
 10
788.471182
 20
838.339082
 11
825.468139
 21
838.339082
  0
LINE
  8
CSLAYER1
  6
CENTER
 62
     5
 10
761.845128
 20
1402.810683
 11
910.845128
 21
1402.810683
  0
LINE
  8
CSLAYER1
  6
CENTER
 62
     5
 10
756.845128
 20
1108.569956
 11
919.845128
 21
1108.569956
  0
LINE
  8
CSLAYER1
  6
CONTINUOUS
 62
     3
 10
767.845128
 20
858.339082
 11
836.345128
 21
858.339082
  0
LINE
  8
CSLAYER1
  6
CONTINUOUS
 62
     3
 10
686.345128
 20
818.339082
 11
986.345128
 21
818.339082
  0
LINE
  8
CSLAYER1
  6
CONTINUOUS
 62
     3
 10
736.345128
 20
862.339082
 11
736.345128
 21
824.339082
  0
LINE
  8
CSLAYER1
  6
CONTINUOUS
 62
     3
 10
904.845128
 20
858.339082
 11
836.345128
 21
858.339082
  0
LINE
  8
CSLAYER1
  6
CONTINUOUS
 62
     3
 10
936.345128
 20
862.339082
 11
936.345128
 21
824.339082
  0
LINE
  8
CSLAYER1
  6
CONTINUOUS
 62
     3
 10
986.345128
 20
818.339082
 11
986.345128
 21
824.339082
  0
LINE
  8
CSLAYER1
  6
CONTINUOUS
 62
     3
 10
910.845128
 20
824.339082
 11
910.845128
 21
862.339082
  0
LINE
  8
CSLAYER1
  6
CONTINUOUS
 62
     3
 10
986.345128
 20
824.339082
 11
904.845128
 21
824.339082
  0
LINE
  8
CSLAYER1
  6
CONTINUOUS
 62
     3
 10
686.345128
 20
818.339082
 11
686.345128
 21
824.339082
  0
LINE
  8
CSLAYER1
  6
CONTINUOUS
 62
     3
 10
686.345128
 20
824.339082
 11
767.845128
 21
824.339082
  0
LINE
  8
CSLAYER1
  6
CONTINUOUS
 62
     3
 10
758.845128
 20
852.308737
 11
758.845128
 21
830.369427
  0
LINE
  8
CSLAYER1
  6
CONTINUOUS
 62
     3
 10
761.845128
 20
830.589082
 11
758.845128
 21
830.589082
  0
LINE
  8
CSLAYER1
  6
CONTINUOUS
 62
     3
 10
761.845128
 20
852.089082
 11
758.845128
 21
852.089082
  0
LINE
  8
CSLAYER1
  6
CONTINUOUS
 62
     3
 10
761.845128
 20
842.851279
 11
758.845128
 21
839.351279
  0
LINE
  8
CSLAYER1
  6
CONTINUOUS
 62
     3
 10
750.845128
 20
841.339082
 11
750.845128
 21
832.339082
  0
LINE
  8
CSLAYER1
  6
CONTINUOUS
 62
     3
 10
758.845128
 20
835.854255
 11
751.982309
 21
835.854255
  0
LINE
  8
CSLAYER1
  6
CONTINUOUS
 62
     3
 10
758.845128
 20
830.369427
 11
751.982309
 21
830.369427
  0
LINE
  8
CSLAYER1
  6
CONTINUOUS
 62
     3
 10
750.845128
 20
832.339082
 11
751.982309
 21
830.369427
  0
ARC
  8
CSLAYER1
  6
CONTINUOUS
 62
     3
 10
754.625173
 20
833.111841
 40
3.808617
 50
133.940972
 51
174.338367
  0
ARC
  8
CSLAYER1
  6
CONTINUOUS
 62
     3
 10
764.640872
 20
841.339082
 40
13.795744
 50
180.000000
 51
203.426598
  0
LINE
  8
CSLAYER1
  6
CONTINUOUS
 62
     3
 10
750.845128
 20
841.339082
 11
750.845128
 21
850.339082
  0
LINE
  8
CSLAYER1
  6
CONTINUOUS
 62
     3
 10
758.845128
 20
846.823910
 11
751.982309
 21
846.823910
  0
LINE
  8
CSLAYER1
  6
CONTINUOUS
 62
     3
 10
758.845128
 20
852.308737
 11
751.982309
 21
852.308737
  0
LINE
  8
CSLAYER1
  6
CONTINUOUS
 62
     3
 10
750.845128
 20
850.339082
 11
751.982309
 21
852.308737
  0
ARC
  8
CSLAYER1
  6
CONTINUOUS
 62
     3
 10
754.625173
 20
849.566324
 40
3.808617
 50
185.661633
 51
226.059028
  0
ARC
  8
CSLAYER1
  6
CONTINUOUS
 62
     3
 10
764.640872
 20
841.339082
 40
13.795744
 50
156.573402
 51
180.000000
  0
LINE
  8
CSLAYER1
  6
CENTER
 62
     5
 10
761.845128
 20
841.339082
 11
750.845128
 21
841.339082
  0
LINE
  8
CSLAYER1
  6
CONTINUOUS
 62
     3
 10
761.845128
 20
824.339082
 11
761.845128
 21
862.339082
  0
CIRCLE
  8
CSLAYER1
  6
CONTINUOUS
 62
     3
 10
806.345128
 20
838.339082
 40
12.500000
  0
LINE
  8
CSLAYER1
  6
CONTINUOUS
 62
     3
 10
836.345128
 20
1440.110683
 11
936.345128
 21
1440.110683
  0
LINE
  8
CSLAYER1
  6
CONTINUOUS
 62
     3
 10
882.345128
 20
858.339082
 11
882.345128
 21
1407.810683
  0
LINE
  8
CSLAYER1
  6
CONTINUOUS
 62
     3
 10
891.345128
 20
858.339082
 11
891.345128
 21
1407.810683
  0
LINE
  8
CSLAYER1
  6
CONTINUOUS
 62
     3
 10
894.345128
 20
858.339082
 11
894.345128
 21
1392.310683
  0
LINE
  8
CSLAYER1
  6
CONTINUOUS
 62
     3
 10
903.345128
 20
858.339082
 11
903.345128
 21
1391.841028
  0
LINE
  8
CSLAYER1
  6
CONTINUOUS
 62
     3
 10
936.345128
 20
1407.810683
 11
836.345128
 21
1407.810683
  0
LINE
  8
CSLAYER1
  6
CONTINUOUS
 62
     3
 10
892.345128
 20
1394.160683
 11
891.345128
 21
1394.160683
  0
LINE
  8
CSLAYER1
  6
CONTINUOUS
 62
     3
 10
893.345128
 20
1407.810683
 11
893.345128
 21
1395.160683
  0
LINE
  8
CSLAYER1
  6
CONTINUOUS
 62
     3
 10
893.345128
 20
1395.160683
 11
892.345128
 21
1394.160683
  0
LINE
  8
CSLAYER1
  6
CONTINUOUS
 62
     3
 10
892.345128
 20
1407.810683
 11
892.345128
 21
1394.160683
  0
LINE
  8
CSLAYER1
  6
CONTINUOUS
 62
     3
 10
893.845128
 20
1392.310683
 11
899.845128
 21
1392.310683
  0
LINE
  8
CSLAYER1
  6
CONTINUOUS
 62
     3
 10
899.845128
 20
1407.810683
 11
899.845128
 21
1392.310683
  0
LINE
  8
CSLAYER1
  6
CONTINUOUS
 62
     3
 10
893.845128
 20
1407.810683
 11
893.845128
 21
1392.310683
  0
LINE
  8
CSLAYER1
  6
CONTINUOUS
 62
     3
 10
882.345128
 20
1394.160683
 11
836.345128
 21
1394.160683
  0
LINE
  8
CSLAYER1
  6
CONTINUOUS
 62
     3
 10
902.845128
 20
1391.841028
 11
902.845128
 21
1407.810683
  0
LINE
  8
CSLAYER1
  6
CONTINUOUS
 62
     3
 10
899.845128
 20
1392.060683
 11
902.845128
 21
1392.060683
  0
LINE
  8
CSLAYER1
  6
CONTINUOUS
 62
     3
 10
899.845128
 20
1401.298487
 11
902.684154
 21
1404.610683
  0
LINE
  8
CSLAYER1
  6
CONTINUOUS
 62
     3
 10
910.845128
 20
1402.810683
 11
910.845128
 21
1407.810683
  0
ARC
  8
CSLAYER1
  6
CONTINUOUS
 62
     3
 10
897.049384
 20
1402.810683
 40
13.795744
 50
0.000000
 51
21.249544
  0
LINE
  8
CSLAYER1
  6
CONTINUOUS
 62
     3
 10
910.845128
 20
1402.810683
 11
910.845128
 21
1393.810683
  0
LINE
  8
CSLAYER1
  6
CONTINUOUS
 62
     3
 10
902.845128
 20
1397.325856
 11
909.707947
 21
1397.325856
  0
LINE
  8
CSLAYER1
  6
CONTINUOUS
 62
     3
 10
902.845128
 20
1391.841028
 11
909.707947
 21
1391.841028
  0
LINE
  8
CSLAYER1
  6
CONTINUOUS
 62
     3
 10
910.845128
 20
1393.810683
 11
909.707947
 21
1391.841028
  0
ARC
  8
CSLAYER1
  6
CONTINUOUS
 62
     3
 10
907.065084
 20
1394.583442
 40
3.808617
 50
5.661633
 51
46.059028
  0
ARC
  8
CSLAYER1
  6
CONTINUOUS
 62
     3
 10
897.049384
 20
1402.810683
 40
13.795744
 50
336.573402
 51
360.000000
  0
LINE
  8
CSLAYER1
  6
CENTER
 62
     5
 10
781.345128
 20
1197.365641
 11
891.345128
 21
1197.365641
  0
LINE
  8
CSLAYER1
  6
CONTINUOUS
 62
     3
 10
790.345128
 20
1141.849295
 11
811.345128
 21
1141.849295
  0
LINE
  8
CSLAYER1
  6
CONTINUOUS
 62
     3
 10
790.345128
 20
1093.249295
 11
828.845128
 21
1093.249295
  0
LINE
  8
CSLAYER1
  6
CONTINUOUS
 62
     3
 10
894.345128
 20
1122.569956
 11
894.345128
 21
1116.069956
  0
LINE
  8
CSLAYER1
  6
CONTINUOUS
 62
     3
 10
891.345128
 20
1122.569956
 11
891.345128
 21
1116.069956
  0
LINE
  8
CSLAYER1
  6
CONTINUOUS
 62
     3
 10
894.345128
 20
1122.569956
 11
891.345128
 21
1122.569956
  0
LINE
  8
CSLAYER1
  6
CENTER
 62
     5
 10
846.845128
 20
1210.965641
 11
846.845128
 21
887.330445
  0
LINE
  8
CSLAYER1
  6
CONTINUOUS
 62
     3
 10
875.845128
 20
871.621544
 11
875.845128
 21
920.453840
  0
LINE
  8
CSLAYER1
  6
CONTINUOUS
 62
     3
 10
869.845128
 20
871.621544
 11
869.845128
 21
920.453840
  0
LINE
  8
CSLAYER1
  6
CONTINUOUS
 62
     3
 10
817.845128
 20
871.621544
 11
817.845128
 21
920.453840
  0
LINE
  8
CSLAYER1
  6
CONTINUOUS
 62
     3
 10
823.845128
 20
871.621544
 11
823.845128
 21
920.453840
  0
LINE
  8
CSLAYER1
  6
CONTINUOUS
 62
     3
 10
869.345128
 20
1184.765641
 11
869.345128
 21
1209.965641
  0
LINE
  8
CSLAYER1
  6
CONTINUOUS
 62
     3
 10
824.345128
 20
1184.765641
 11
824.345128
 21
1209.965641
  0
LINE
  8
CSLAYER1
  6
CONTINUOUS
 62
     3
 10
825.345128
 20
1210.965641
 11
868.345128
 21
1210.965641
  0
LINE
  8
CSLAYER1
  6
CONTINUOUS
 62
     3
 10
824.345128
 20
1209.965641
 11
825.345128
 21
1210.965641
  0
LINE
  8
CSLAYER1
  6
CONTINUOUS
 62
     3
 10
868.345128
 20
1210.965641
 11
869.345128
 21
1209.965641
  0
POINT
  8
CSLAYER1
 62
     3
 10
846.845128
 20
1197.365641
  0
LINE
  8
CSLAYER1
  6
CONTINUOUS
 62
     3
 10
870.345128
 20
1205.365641
 11
869.345128
 21
1205.365641
  0
LINE
  8
CSLAYER1
  6
CONTINUOUS
 62
     3
 10
824.345128
 20
1205.365641
 11
823.345128
 21
1205.365641
  0
LINE
  8
CSLAYER1
  6
CENTER
 62
     5
 10
817.845128
 20
904.388977
 11
875.845128
 21
904.388977
  0
LINE
  8
CSLAYER1
  6
CONTINUOUS
 62
     3
 10
778.345128
 20
887.330445
 11
781.345128
 21
887.330445
  0
LINE
  8
CSLAYER1
  6
CONTINUOUS
 62
     3
 10
817.845128
 20
871.621544
 11
823.845128
 21
871.621544
  0
LINE
  8
CSLAYER1
  6
CONTINUOUS
 62
     3
 10
817.845128
 20
920.453840
 11
823.845128
 21
920.453840
  0
LINE
  8
CSLAYER1
  6
CONTINUOUS
 62
     3
 10
869.845128
 20
920.453840
 11
875.845128
 21
920.453840
  0
LINE
  8
CSLAYER1
  6
CONTINUOUS
 62
     3
 10
869.845128
 20
871.621544
 11
875.845128
 21
871.621544
  0
LINE
  8
CSLAYER1
  6
CONTINUOUS
 62
     3
 10
823.845128
 20
887.330445
 11
869.845128
 21
887.330445
  0
LINE
  8
CSLAYER1
  6
CONTINUOUS
 62
     3
 10
875.845128
 20
887.330445
 11
882.345128
 21
887.330445
  0
LINE
  8
CSLAYER1
  6
CONTINUOUS
 62
     3
 10
891.345128
 20
887.330445
 11
894.345128
 21
887.330445
  0
LINE
  8
CSLAYER1
  6
CONTINUOUS
 62
     3
 10
869.757606
 20
1065.221331
 11
874.240482
 21
1047.932105
  0
LINE
  8
CSLAYER1
  6
CONTINUOUS
 62
     3
 10
869.757606
 20
1065.221331
 11
869.495707
 21
1066.185776
  0
LINE
  8
CSLAYER1
  6
CONTINUOUS
 62
     3
 10
869.495707
 20
1066.185776
 11
869.061422
 21
1067.135484
  0
LINE
  8
CSLAYER1
  6
CONTINUOUS
 62
     3
 10
869.061422
 20
1067.135484
 11
868.458058
 21
1068.063228
  0
LINE
  8
CSLAYER1
  6
CONTINUOUS
 62
     3
 10
868.458058
 20
1068.063228
 11
867.690207
 21
1068.961947
  0
LINE
  8
CSLAYER1
  6
CONTINUOUS
 62
     3
 10
867.690207
 20
1068.961947
 11
866.763713
 21
1069.824801
  0
LINE
  8
CSLAYER1
  6
CONTINUOUS
 62
     3
 10
866.763713
 20
1069.824801
 11
865.685625
 21
1070.645224
  0
LINE
  8
CSLAYER1
  6
CONTINUOUS
 62
     3
 10
865.685625
 20
1070.645224
 11
864.464150
 21
1071.416972
  0
LINE
  8
CSLAYER1
  6
CONTINUOUS
 62
     3
 10
864.464150
 20
1071.416972
 11
863.108584
 21
1072.134170
  0
LINE
  8
CSLAYER1
  6
CONTINUOUS
 62
     3
 10
863.108584
 20
1072.134170
 11
861.629243
 21
1072.791362
  0
LINE
  8
CSLAYER1
  6
CONTINUOUS
 62
     3
 10
861.629243
 20
1072.791362
 11
860.037386
 21
1073.383545
  0
LINE
  8
CSLAYER1
  6
CONTINUOUS
 62
     3
 10
860.037386
 20
1073.383545
 11
858.345128
 21
1073.906212
  0
LINE
  8
CSLAYER1
  6
CONTINUOUS
 62
     3
 10
858.345128
 20
1073.906212
 11
856.565348
 21
1074.355385
  0
LINE
  8
CSLAYER1
  6
CONTINUOUS
 62
     3
 10
856.565348
 20
1074.355385
 11
854.711592
 21
1074.727647
  0
LINE
  8
CSLAYER1
  6
CONTINUOUS
 62
     3
 10
854.711592
 20
1074.727647
 11
852.797966
 21
1075.020164
  0
LINE
  8
CSLAYER1
  6
CONTINUOUS
 62
     3
 10
852.797966
 20
1075.020164
 11
850.839036
 21
1075.230709
  0
LINE
  8
CSLAYER1
  6
CONTINUOUS
 62
     3
 10
850.839036
 20
1075.230709
 11
848.849710
 21
1075.357680
  0
LINE
  8
CSLAYER1
  6
CONTINUOUS
 62
     3
 10
848.849710
 20
1075.357680
 11
846.845128
 21
1075.400112
  0
LINE
  8
CSLAYER1
  6
CONTINUOUS
 62
     3
 10
823.932650
 20
1065.221331
 11
819.449774
 21
1047.932105
  0
LINE
  8
CSLAYER1
  6
CONTINUOUS
 62
     3
 10
823.932650
 20
1065.221331
 11
824.194550
 21
1066.185776
  0
LINE
  8
CSLAYER1
  6
CONTINUOUS
 62
     3
 10
824.194550
 20
1066.185776
 11
824.628834
 21
1067.135484
  0
LINE
  8
CSLAYER1
  6
CONTINUOUS
 62
     3
 10
824.628834
 20
1067.135484
 11
825.232198
 21
1068.063228
  0
LINE
  8
CSLAYER1
  6
CONTINUOUS
 62
     3
 10
825.232198
 20
1068.063228
 11
826.000049
 21
1068.961947
  0
LINE
  8
CSLAYER1
  6
CONTINUOUS
 62
     3
 10
826.000049
 20
1068.961947
 11
826.926544
 21
1069.824801
  0
LINE
  8
CSLAYER1
  6
CONTINUOUS
 62
     3
 10
826.926544
 20
1069.824801
 11
828.004631
 21
1070.645224
  0
LINE
  8
CSLAYER1
  6
CONTINUOUS
 62
     3
 10
828.004631
 20
1070.645224
 11
829.226106
 21
1071.416972
  0
LINE
  8
CSLAYER1
  6
CONTINUOUS
 62
     3
 10
829.226106
 20
1071.416972
 11
830.581672
 21
1072.134170
  0
LINE
  8
CSLAYER1
  6
CONTINUOUS
 62
     3
 10
830.581672
 20
1072.134170
 11
832.061013
 21
1072.791362
  0
LINE
  8
CSLAYER1
  6
CONTINUOUS
 62
     3
 10
832.061013
 20
1072.791362
 11
833.652870
 21
1073.383545
  0
LINE
  8
CSLAYER1
  6
CONTINUOUS
 62
     3
 10
833.652870
 20
1073.383545
 11
835.345128
 21
1073.906212
  0
LINE
  8
CSLAYER1
  6
CONTINUOUS
 62
     3
 10
835.345128
 20
1073.906212
 11
837.124908
 21
1074.355385
  0
LINE
  8
CSLAYER1
  6
CONTINUOUS
 62
     3
 10
837.124908
 20
1074.355385
 11
838.978665
 21
1074.727647
  0
LINE
  8
CSLAYER1
  6
CONTINUOUS
 62
     3
 10
838.978665
 20
1074.727647
 11
840.892290
 21
1075.020164
  0
LINE
  8
CSLAYER1
  6
CONTINUOUS
 62
     3
 10
840.892290
 20
1075.020164
 11
842.851220
 21
1075.230709
  0
LINE
  8
CSLAYER1
  6
CONTINUOUS
 62
     3
 10
842.851220
 20
1075.230709
 11
844.840546
 21
1075.357680
  0
LINE
  8
CSLAYER1
  6
CONTINUOUS
 62
     3
 10
844.840546
 20
1075.357680
 11
846.845128
 21
1075.400112
  0
LINE
  8
CSLAYER1
  6
CONTINUOUS
 62
     3
 10
864.845128
 20
1071.215405
 11
864.845128
 21
1186.208858
  0
LINE
  8
CSLAYER1
  6
CONTINUOUS
 62
     3
 10
864.845128
 20
1185.700521
 11
864.776633
 21
1186.461092
  0
LINE
  8
CSLAYER1
  6
CONTINUOUS
 62
     3
 10
864.776633
 20
1186.461092
 11
864.571668
 21
1187.215875
  0
LINE
  8
CSLAYER1
  6
CONTINUOUS
 62
     3
 10
864.571668
 20
1187.215875
 11
864.231793
 21
1187.959125
  0
LINE
  8
CSLAYER1
  6
CONTINUOUS
 62
     3
 10
864.231793
 20
1187.959125
 11
863.759595
 21
1188.685185
  0
LINE
  8
CSLAYER1
  6
CONTINUOUS
 62
     3
 10
863.759595
 20
1188.685185
 11
863.158668
 21
1189.388530
  0
LINE
  8
CSLAYER1
  6
CONTINUOUS
 62
     3
 10
863.158668
 20
1189.388530
 11
862.433585
 21
1190.063808
  0
LINE
  8
CSLAYER1
  6
CONTINUOUS
 62
     3
 10
862.433585
 20
1190.063808
 11
861.589865
 21
1190.705878
  0
LINE
  8
CSLAYER1
  6
CONTINUOUS
 62
     3
 10
861.589865
 20
1190.705878
 11
860.633928
 21
1191.309854
  0
LINE
  8
CSLAYER1
  6
CONTINUOUS
 62
     3
 10
860.633928
 20
1191.309854
 11
859.573050
 21
1191.871140
  0
LINE
  8
CSLAYER1
  6
CONTINUOUS
 62
     3
 10
859.573050
 20
1191.871140
 11
858.415305
 21
1192.385464
  0
LINE
  8
CSLAYER1
  6
CONTINUOUS
 62
     3
 10
858.415305
 20
1192.385464
 11
857.169504
 21
1192.848911
  0
LINE
  8
CSLAYER1
  6
CONTINUOUS
 62
     3
 10
857.169504
 20
1192.848911
 11
855.845128
 21
1193.257955
  0
LINE
  8
CSLAYER1
  6
CONTINUOUS
 62
     3
 10
855.845128
 20
1193.257955
 11
854.452257
 21
1193.609482
  0
LINE
  8
CSLAYER1
  6
CONTINUOUS
 62
     3
 10
854.452257
 20
1193.609482
 11
853.001491
 21
1193.900818
  0
LINE
  8
CSLAYER1
  6
CONTINUOUS
 62
     3
 10
853.001491
 20
1193.900818
 11
851.503871
 21
1194.129744
  0
LINE
  8
CSLAYER1
  6
CONTINUOUS
 62
     3
 10
851.503871
 20
1194.129744
 11
849.970795
 21
1194.294518
  0
LINE
  8
CSLAYER1
  6
CONTINUOUS
 62
     3
 10
849.970795
 20
1194.294518
 11
848.413932
 21
1194.393887
  0
LINE
  8
CSLAYER1
  6
CONTINUOUS
 62
     3
 10
848.413932
 20
1194.393887
 11
846.845128
 21
1194.427094
  0
LINE
  8
CSLAYER1
  6
CONTINUOUS
 62
     3
 10
846.845128
 20
1194.427094
 11
845.276325
 21
1194.393887
  0
LINE
  8
CSLAYER1
  6
CONTINUOUS
 62
     3
 10
845.276325
 20
1194.393887
 11
843.719461
 21
1194.294518
  0
LINE
  8
CSLAYER1
  6
CONTINUOUS
 62
     3
 10
843.719461
 20
1194.294518
 11
842.186385
 21
1194.129744
  0
LINE
  8
CSLAYER1
  6
CONTINUOUS
 62
     3
 10
842.186385
 20
1194.129744
 11
840.688766
 21
1193.900818
  0
LINE
  8
CSLAYER1
  6
CONTINUOUS
 62
     3
 10
840.688766
 20
1193.900818
 11
839.238000
 21
1193.609482
  0
LINE
  8
CSLAYER1
  6
CONTINUOUS
 62
     3
 10
839.238000
 20
1193.609482
 11
837.845128
 21
1193.257955
  0
LINE
  8
CSLAYER1
  6
CONTINUOUS
 62
     3
 10
837.845128
 20
1193.257955
 11
836.520752
 21
1192.848911
  0
LINE
  8
CSLAYER1
  6
CONTINUOUS
 62
     3
 10
836.520752
 20
1192.848911
 11
835.274951
 21
1192.385464
  0
LINE
  8
CSLAYER1
  6
CONTINUOUS
 62
     3
 10
835.274951
 20
1192.385464
 11
834.117206
 21
1191.871140
  0
LINE
  8
CSLAYER1
  6
CONTINUOUS
 62
     3
 10
834.117206
 20
1191.871140
 11
833.056328
 21
1191.309854
  0
LINE
  8
CSLAYER1
  6
CONTINUOUS
 62
     3
 10
833.056328
 20
1191.309854
 11
832.100391
 21
1190.705878
  0
LINE
  8
CSLAYER1
  6
CONTINUOUS
 62
     3
 10
832.100391
 20
1190.705878
 11
831.256671
 21
1190.063808
  0
LINE
  8
CSLAYER1
  6
CONTINUOUS
 62
     3
 10
831.256671
 20
1190.063808
 11
830.531588
 21
1189.388530
  0
LINE
  8
CSLAYER1
  6
CONTINUOUS
 62
     3
 10
830.531588
 20
1189.388530
 11
829.930661
 21
1188.685185
  0
LINE
  8
CSLAYER1
  6
CONTINUOUS
 62
     3
 10
829.930661
 20
1188.685185
 11
829.458463
 21
1187.959125
  0
LINE
  8
CSLAYER1
  6
CONTINUOUS
 62
     3
 10
829.458463
 20
1187.959125
 11
829.118589
 21
1187.215875
  0
LINE
  8
CSLAYER1
  6
CONTINUOUS
 62
     3
 10
829.118589
 20
1187.215875
 11
828.913624
 21
1186.461092
  0
LINE
  8
CSLAYER1
  6
CONTINUOUS
 62
     3
 10
828.913624
 20
1186.461092
 11
828.845128
 21
1185.700521
  0
LINE
  8
CSLAYER1
  6
CONTINUOUS
 62
     3
 10
874.345128
 20
1046.770121
 11
874.345128
 21
1016.181225
  0
LINE
  8
CSLAYER1
  6
CONTINUOUS
 62
     3
 10
874.345128
 20
1046.770121
 11
874.240482
 21
1047.932105
  0
LINE
  8
CSLAYER1
  6
CONTINUOUS
 62
     3
 10
874.240482
 20
1047.932105
 11
873.927341
 21
1049.085245
  0
LINE
  8
CSLAYER1
  6
CONTINUOUS
 62
     3
 10
873.927341
 20
1049.085245
 11
873.408088
 21
1050.220765
  0
LINE
  8
CSLAYER1
  6
CONTINUOUS
 62
     3
 10
873.408088
 20
1050.220765
 11
872.686675
 21
1051.330024
  0
LINE
  8
CSLAYER1
  6
CONTINUOUS
 62
     3
 10
872.686675
 20
1051.330024
 11
871.768592
 21
1052.404580
  0
LINE
  8
CSLAYER1
  6
CONTINUOUS
 62
     3
 10
871.768592
 20
1052.404580
 11
870.660827
 21
1053.436254
  0
LINE
  8
CSLAYER1
  6
CONTINUOUS
 62
     3
 10
870.660827
 20
1053.436254
 11
869.371809
 21
1054.417194
  0
LINE
  8
CSLAYER1
  6
CONTINUOUS
 62
     3
 10
869.371809
 20
1054.417194
 11
867.911350
 21
1055.339936
  0
LINE
  8
CSLAYER1
  6
CONTINUOUS
 62
     3
 10
867.911350
 20
1055.339936
 11
866.290565
 21
1056.197456
  0
LINE
  8
CSLAYER1
  6
CONTINUOUS
 62
     3
 10
866.290565
 20
1056.197456
 11
864.521787
 21
1056.983229
  0
LINE
  8
CSLAYER1
  6
CONTINUOUS
 62
     3
 10
864.521787
 20
1056.983229
 11
862.618480
 21
1057.691273
  0
LINE
  8
CSLAYER1
  6
CONTINUOUS
 62
     3
 10
862.618480
 20
1057.691273
 11
860.595128
 21
1058.316201
  0
LINE
  8
CSLAYER1
  6
CONTINUOUS
 62
     3
 10
860.595128
 20
1058.316201
 11
858.467130
 21
1058.853257
  0
LINE
  8
CSLAYER1
  6
CONTINUOUS
 62
     3
 10
858.467130
 20
1058.853257
 11
856.250682
 21
1059.298352
  0
LINE
  8
CSLAYER1
  6
CONTINUOUS
 62
     3
 10
856.250682
 20
1059.298352
 11
853.962652
 21
1059.648100
  0
LINE
  8
CSLAYER1
  6
CONTINUOUS
 62
     3
 10
853.962652
 20
1059.648100
 11
851.620453
 21
1059.899839
  0
LINE
  8
CSLAYER1
  6
CONTINUOUS
 62
     3
 10
851.620453
 20
1059.899839
 11
849.241911
 21
1060.051653
  0
LINE
  8
CSLAYER1
  6
CONTINUOUS
 62
     3
 10
849.241911
 20
1060.051653
 11
846.845128
 21
1060.102386
  0
LINE
  8
CSLAYER1
  6
CONTINUOUS
 62
     3
 10
846.845128
 20
1060.102386
 11
844.448345
 21
1060.051653
  0
LINE
  8
CSLAYER1
  6
CONTINUOUS
 62
     3
 10
844.448345
 20
1060.051653
 11
842.069803
 21
1059.899839
  0
LINE
  8
CSLAYER1
  6
CONTINUOUS
 62
     3
 10
842.069803
 20
1059.899839
 11
839.727604
 21
1059.648100
  0
LINE
  8
CSLAYER1
  6
CONTINUOUS
 62
     3
 10
839.727604
 20
1059.648100
 11
837.439574
 21
1059.298352
  0
LINE
  8
CSLAYER1
  6
CONTINUOUS
 62
     3
 10
837.439574
 20
1059.298352
 11
835.223126
 21
1058.853257
  0
LINE
  8
CSLAYER1
  6
CONTINUOUS
 62
     3
 10
835.223126
 20
1058.853257
 11
833.095128
 21
1058.316201
  0
LINE
  8
CSLAYER1
  6
CONTINUOUS
 62
     3
 10
833.095128
 20
1058.316201
 11
831.071776
 21
1057.691273
  0
LINE
  8
CSLAYER1
  6
CONTINUOUS
 62
     3
 10
831.071776
 20
1057.691273
 11
829.168469
 21
1056.983229
  0
LINE
  8
CSLAYER1
  6
CONTINUOUS
 62
     3
 10
829.168469
 20
1056.983229
 11
827.399692
 21
1056.197456
  0
LINE
  8
CSLAYER1
  6
CONTINUOUS
 62
     3
 10
827.399692
 20
1056.197456
 11
825.778906
 21
1055.339936
  0
LINE
  8
CSLAYER1
  6
CONTINUOUS
 62
     3
 10
825.778906
 20
1055.339936
 11
824.318447
 21
1054.417194
  0
LINE
  8
CSLAYER1
  6
CONTINUOUS
 62
     3
 10
824.318447
 20
1054.417194
 11
823.029430
 21
1053.436254
  0
LINE
  8
CSLAYER1
  6
CONTINUOUS
 62
     3
 10
823.029430
 20
1053.436254
 11
821.921664
 21
1052.404580
  0
LINE
  8
CSLAYER1
  6
CONTINUOUS
 62
     3
 10
821.921664
 20
1052.404580
 11
821.003581
 21
1051.330024
  0
LINE
  8
CSLAYER1
  6
CONTINUOUS
 62
     3
 10
821.003581
 20
1051.330024
 11
820.282168
 21
1050.220765
  0
LINE
  8
CSLAYER1
  6
CONTINUOUS
 62
     3
 10
820.282168
 20
1050.220765
 11
819.762915
 21
1049.085245
  0
LINE
  8
CSLAYER1
  6
CONTINUOUS
 62
     3
 10
819.762915
 20
1049.085245
 11
819.449774
 21
1047.932105
  0
LINE
  8
CSLAYER1
  6
CONTINUOUS
 62
     3
 10
819.449774
 20
1047.932105
 11
819.345128
 21
1046.770121
  0
LINE
  8
CSLAYER1
  6
CONTINUOUS
 62
     3
 10
819.345128
 20
1046.770121
 11
819.345128
 21
1016.181225
  0
LINE
  8
CSLAYER1
  6
CONTINUOUS
 62
     3
 10
871.145128
 20
921.868346
 11
871.145128
 21
1016.181225
  0
LINE
  8
CSLAYER1
  6
CONTINUOUS
 62
     3
 10
874.345128
 20
1016.181225
 11
874.240482
 21
1017.343209
  0
LINE
  8
CSLAYER1
  6
CONTINUOUS
 62
     3
 10
874.240482
 20
1017.343209
 11
873.927341
 21
1018.496349
  0
LINE
  8
CSLAYER1
  6
CONTINUOUS
 62
     3
 10
873.927341
 20
1018.496349
 11
873.408088
 21
1019.631869
  0
LINE
  8
CSLAYER1
  6
CONTINUOUS
 62
     3
 10
873.408088
 20
1019.631869
 11
872.686675
 21
1020.741128
  0
LINE
  8
CSLAYER1
  6
CONTINUOUS
 62
     3
 10
872.686675
 20
1020.741128
 11
871.768592
 21
1021.815684
  0
LINE
  8
CSLAYER1
  6
CONTINUOUS
 62
     3
 10
871.768592
 20
1021.815684
 11
870.660827
 21
1022.847358
  0
LINE
  8
CSLAYER1
  6
CONTINUOUS
 62
     3
 10
870.660827
 20
1022.847358
 11
869.371809
 21
1023.828298
  0
LINE
  8
CSLAYER1
  6
CONTINUOUS
 62
     3
 10
869.371809
 20
1023.828298
 11
867.911350
 21
1024.751040
  0
LINE
  8
CSLAYER1
  6
CONTINUOUS
 62
     3
 10
867.911350
 20
1024.751040
 11
866.290565
 21
1025.608560
  0
LINE
  8
CSLAYER1
  6
CONTINUOUS
 62
     3
 10
866.290565
 20
1025.608560
 11
864.521787
 21
1026.394333
  0
LINE
  8
CSLAYER1
  6
CONTINUOUS
 62
     3
 10
864.521787
 20
1026.394333
 11
862.618480
 21
1027.102377
  0
LINE
  8
CSLAYER1
  6
CONTINUOUS
 62
     3
 10
862.618480
 20
1027.102377
 11
860.595128
 21
1027.727305
  0
LINE
  8
CSLAYER1
  6
CONTINUOUS
 62
     3
 10
860.595128
 20
1027.727305
 11
858.467130
 21
1028.264361
  0
LINE
  8
CSLAYER1
  6
CONTINUOUS
 62
     3
 10
858.467130
 20
1028.264361
 11
856.250682
 21
1028.709456
  0
LINE
  8
CSLAYER1
  6
CONTINUOUS
 62
     3
 10
856.250682
 20
1028.709456
 11
853.962652
 21
1029.059204
  0
LINE
  8
CSLAYER1
  6
CONTINUOUS
 62
     3
 10
853.962652
 20
1029.059204
 11
851.620453
 21
1029.310943
  0
LINE
  8
CSLAYER1
  6
CONTINUOUS
 62
     3
 10
851.620453
 20
1029.310943
 11
849.241911
 21
1029.462757
  0
LINE
  8
CSLAYER1
  6
CONTINUOUS
 62
     3
 10
849.241911
 20
1029.462757
 11
846.845128
 21
1029.513490
  0
LINE
  8
CSLAYER1
  6
CONTINUOUS
 62
     3
 10
846.845128
 20
1029.513490
 11
844.448345
 21
1029.462757
  0
LINE
  8
CSLAYER1
  6
CONTINUOUS
 62
     3
 10
844.448345
 20
1029.462757
 11
842.069803
 21
1029.310943
  0
LINE
  8
CSLAYER1
  6
CONTINUOUS
 62
     3
 10
842.069803
 20
1029.310943
 11
839.727604
 21
1029.059204
  0
LINE
  8
CSLAYER1
  6
CONTINUOUS
 62
     3
 10
839.727604
 20
1029.059204
 11
837.439574
 21
1028.709456
  0
LINE
  8
CSLAYER1
  6
CONTINUOUS
 62
     3
 10
837.439574
 20
1028.709456
 11
835.223126
 21
1028.264361
  0
LINE
  8
CSLAYER1
  6
CONTINUOUS
 62
     3
 10
835.223126
 20
1028.264361
 11
833.095128
 21
1027.727305
  0
LINE
  8
CSLAYER1
  6
CONTINUOUS
 62
     3
 10
833.095128
 20
1027.727305
 11
831.071776
 21
1027.102377
  0
LINE
  8
CSLAYER1
  6
CONTINUOUS
 62
     3
 10
831.071776
 20
1027.102377
 11
829.168469
 21
1026.394333
  0
LINE
  8
CSLAYER1
  6
CONTINUOUS
 62
     3
 10
829.168469
 20
1026.394333
 11
827.399692
 21
1025.608560
  0
LINE
  8
CSLAYER1
  6
CONTINUOUS
 62
     3
 10
827.399692
 20
1025.608560
 11
825.778906
 21
1024.751040
  0
LINE
  8
CSLAYER1
  6
CONTINUOUS
 62
     3
 10
825.778906
 20
1024.751040
 11
824.318447
 21
1023.828298
  0
LINE
  8
CSLAYER1
  6
CONTINUOUS
 62
     3
 10
824.318447
 20
1023.828298
 11
823.029430
 21
1022.847358
  0
LINE
  8
CSLAYER1
  6
CONTINUOUS
 62
     3
 10
823.029430
 20
1022.847358
 11
821.921664
 21
1021.815684
  0
LINE
  8
CSLAYER1
  6
CONTINUOUS
 62
     3
 10
821.921664
 20
1021.815684
 11
821.003581
 21
1020.741128
  0
LINE
  8
CSLAYER1
  6
CONTINUOUS
 62
     3
 10
821.003581
 20
1020.741128
 11
820.282168
 21
1019.631869
  0
LINE
  8
CSLAYER1
  6
CONTINUOUS
 62
     3
 10
820.282168
 20
1019.631869
 11
819.762915
 21
1018.496349
  0
LINE
  8
CSLAYER1
  6
CONTINUOUS
 62
     3
 10
819.762915
 20
1018.496349
 11
819.449774
 21
1017.343209
  0
LINE
  8
CSLAYER1
  6
CONTINUOUS
 62
     3
 10
819.449774
 20
1017.343209
 11
819.345128
 21
1016.181225
  0
LINE
  8
CSLAYER1
  6
CONTINUOUS
 62
     3
 10
819.345128
 20
1016.181225
 11
819.449774
 21
1015.019242
  0
LINE
  8
CSLAYER1
  6
CONTINUOUS
 62
     3
 10
819.449774
 20
1015.019242
 11
819.762915
 21
1013.866102
  0
LINE
  8
CSLAYER1
  6
CONTINUOUS
 62
     3
 10
819.762915
 20
1013.866102
 11
820.282168
 21
1012.730581
  0
LINE
  8
CSLAYER1
  6
CONTINUOUS
 62
     3
 10
820.282168
 20
1012.730581
 11
821.003581
 21
1011.621322
  0
LINE
  8
CSLAYER1
  6
CONTINUOUS
 62
     3
 10
821.003581
 20
1011.621322
 11
821.921664
 21
1010.546767
  0
LINE
  8
CSLAYER1
  6
CONTINUOUS
 62
     3
 10
821.921664
 20
1010.546767
 11
822.545128
 21
1009.966128
  0
LINE
  8
CSLAYER1
  6
CONTINUOUS
 62
     3
 10
871.145128
 20
1009.966128
 11
871.768592
 21
1010.546767
  0
LINE
  8
CSLAYER1
  6
CONTINUOUS
 62
     3
 10
871.768592
 20
1010.546767
 11
872.686675
 21
1011.621322
  0
LINE
  8
CSLAYER1
  6
CONTINUOUS
 62
     3
 10
872.686675
 20
1011.621322
 11
873.408088
 21
1012.730581
  0
LINE
  8
CSLAYER1
  6
CONTINUOUS
 62
     3
 10
873.408088
 20
1012.730581
 11
873.927341
 21
1013.866102
  0
LINE
  8
CSLAYER1
  6
CONTINUOUS
 62
     3
 10
873.927341
 20
1013.866102
 11
874.240482
 21
1015.019242
  0
LINE
  8
CSLAYER1
  6
CONTINUOUS
 62
     3
 10
874.240482
 20
1015.019242
 11
874.345128
 21
1016.181225
  0
LINE
  8
CSLAYER1
  6
CONTINUOUS
 62
     3
 10
871.145128
 20
1016.181225
 11
871.052659
 21
1017.207996
  0
LINE
  8
CSLAYER1
  6
CONTINUOUS
 62
     3
 10
871.052659
 20
1017.207996
 11
870.775957
 21
1018.226953
  0
LINE
  8
CSLAYER1
  6
CONTINUOUS
 62
     3
 10
870.775957
 20
1018.226953
 11
870.317126
 21
1019.230340
  0
LINE
  8
CSLAYER1
  6
CONTINUOUS
 62
     3
 10
870.317126
 20
1019.230340
 11
869.679659
 21
1020.210522
  0
LINE
  8
CSLAYER1
  6
CONTINUOUS
 62
     3
 10
869.679659
 20
1020.210522
 11
868.868407
 21
1021.160038
  0
LINE
  8
CSLAYER1
  6
CONTINUOUS
 62
     3
 10
868.868407
 20
1021.160038
 11
867.889546
 21
1022.071662
  0
LINE
  8
CSLAYER1
  6
CONTINUOUS
 62
     3
 10
867.889546
 20
1022.071662
 11
866.750523
 21
1022.938457
  0
LINE
  8
CSLAYER1
  6
CONTINUOUS
 62
     3
 10
866.750523
 20
1022.938457
 11
865.460008
 21
1023.753825
  0
LINE
  8
CSLAYER1
  6
CONTINUOUS
 62
     3
 10
865.460008
 20
1023.753825
 11
864.027823
 21
1024.511561
  0
LINE
  8
CSLAYER1
  6
CONTINUOUS
 62
     3
 10
864.027823
 20
1024.511561
 11
862.464867
 21
1025.205898
  0
LINE
  8
CSLAYER1
  6
CONTINUOUS
 62
     3
 10
862.464867
 20
1025.205898
 11
860.783036
 21
1025.831552
  0
LINE
  8
CSLAYER1
  6
CONTINUOUS
 62
     3
 10
860.783036
 20
1025.831552
 11
858.995128
 21
1026.383761
  0
LINE
  8
CSLAYER1
  6
CONTINUOUS
 62
     3
 10
858.995128
 20
1026.383761
 11
857.114752
 21
1026.858323
  0
LINE
  8
CSLAYER1
  6
CONTINUOUS
 62
     3
 10
857.114752
 20
1026.858323
 11
855.156218
 21
1027.251626
  0
LINE
  8
CSLAYER1
  6
CONTINUOUS
 62
     3
 10
855.156218
 20
1027.251626
 11
853.134431
 21
1027.560676
  0
LINE
  8
CSLAYER1
  6
CONTINUOUS
 62
     3
 10
853.134431
 20
1027.560676
 11
851.064779
 21
1027.783121
  0
LINE
  8
CSLAYER1
  6
CONTINUOUS
 62
     3
 10
851.064779
 20
1027.783121
 11
848.963013
 21
1027.917269
  0
LINE
  8
CSLAYER1
  6
CONTINUOUS
 62
     3
 10
848.963013
 20
1027.917269
 11
846.845128
 21
1027.962099
  0
LINE
  8
CSLAYER1
  6
CONTINUOUS
 62
     3
 10
846.845128
 20
1027.962099
 11
844.727244
 21
1027.917269
  0
LINE
  8
CSLAYER1
  6
CONTINUOUS
 62
     3
 10
844.727244
 20
1027.917269
 11
842.625477
 21
1027.783121
  0
LINE
  8
CSLAYER1
  6
CONTINUOUS
 62
     3
 10
842.625477
 20
1027.783121
 11
840.555825
 21
1027.560676
  0
LINE
  8
CSLAYER1
  6
CONTINUOUS
 62
     3
 10
840.555825
 20
1027.560676
 11
838.534039
 21
1027.251626
  0
LINE
  8
CSLAYER1
  6
CONTINUOUS
 62
     3
 10
838.534039
 20
1027.251626
 11
836.575504
 21
1026.858323
  0
LINE
  8
CSLAYER1
  6
CONTINUOUS
 62
     3
 10
836.575504
 20
1026.858323
 11
834.695128
 21
1026.383761
  0
LINE
  8
CSLAYER1
  6
CONTINUOUS
 62
     3
 10
834.695128
 20
1026.383761
 11
832.907221
 21
1025.831552
  0
LINE
  8
CSLAYER1
  6
CONTINUOUS
 62
     3
 10
832.907221
 20
1025.831552
 11
831.225389
 21
1025.205898
  0
LINE
  8
CSLAYER1
  6
CONTINUOUS
 62
     3
 10
831.225389
 20
1025.205898
 11
829.662433
 21
1024.511561
  0
LINE
  8
CSLAYER1
  6
CONTINUOUS
 62
     3
 10
829.662433
 20
1024.511561
 11
828.230248
 21
1023.753825
  0
LINE
  8
CSLAYER1
  6
CONTINUOUS
 62
     3
 10
828.230248
 20
1023.753825
 11
826.939734
 21
1022.938457
  0
LINE
  8
CSLAYER1
  6
CONTINUOUS
 62
     3
 10
826.939734
 20
1022.938457
 11
825.800711
 21
1022.071662
  0
LINE
  8
CSLAYER1
  6
CONTINUOUS
 62
     3
 10
825.800711
 20
1022.071662
 11
824.821849
 21
1021.160038
  0
LINE
  8
CSLAYER1
  6
CONTINUOUS
 62
     3
 10
824.821849
 20
1021.160038
 11
824.010598
 21
1020.210522
  0
LINE
  8
CSLAYER1
  6
CONTINUOUS
 62
     3
 10
824.010598
 20
1020.210522
 11
823.373131
 21
1019.230340
  0
LINE
  8
CSLAYER1
  6
CONTINUOUS
 62
     3
 10
823.373131
 20
1019.230340
 11
822.914300
 21
1018.226953
  0
LINE
  8
CSLAYER1
  6
CONTINUOUS
 62
     3
 10
822.914300
 20
1018.226953
 11
822.637597
 21
1017.207996
  0
LINE
  8
CSLAYER1
  6
CONTINUOUS
 62
     3
 10
822.637597
 20
1017.207996
 11
822.545128
 21
1016.181225
  0
LINE
  8
CSLAYER1
  6
CONTINUOUS
 62
     3
 10
822.545128
 20
921.868346
 11
822.545128
 21
1016.181225
  0
LINE
  8
CSLAYER1
  6
CONTINUOUS
 62
     3
 10
828.845128
 20
1071.176264
 11
828.845128
 21
1185.700521
  0
LINE
  8
CSLAYER1
  6
CONTINUOUS
 62
     3
 10
869.345128
 20
891.279450
 11
869.345128
 21
921.868346
  0
LINE
  8
CSLAYER1
  6
CONTINUOUS
 62
     3
 10
869.345128
 20
921.868346
 11
869.259509
 21
922.819060
  0
LINE
  8
CSLAYER1
  6
CONTINUOUS
 62
     3
 10
869.259509
 20
922.819060
 11
869.003303
 21
923.762538
  0
LINE
  8
CSLAYER1
  6
CONTINUOUS
 62
     3
 10
869.003303
 20
923.762538
 11
868.578459
 21
924.691600
  0
LINE
  8
CSLAYER1
  6
CONTINUOUS
 62
     3
 10
868.578459
 20
924.691600
 11
867.988212
 21
925.599176
  0
LINE
  8
CSLAYER1
  6
CONTINUOUS
 62
     3
 10
867.988212
 20
925.599176
 11
867.237053
 21
926.478358
  0
LINE
  8
CSLAYER1
  6
CONTINUOUS
 62
     3
 10
867.237053
 20
926.478358
 11
866.330700
 21
927.322454
  0
LINE
  8
CSLAYER1
  6
CONTINUOUS
 62
     3
 10
866.330700
 20
927.322454
 11
865.276049
 21
928.125042
  0
LINE
  8
CSLAYER1
  6
CONTINUOUS
 62
     3
 10
865.276049
 20
928.125042
 11
864.081128
 21
928.880013
  0
LINE
  8
CSLAYER1
  6
CONTINUOUS
 62
     3
 10
864.081128
 20
928.880013
 11
862.755031
 21
929.581620
  0
LINE
  8
CSLAYER1
  6
CONTINUOUS
 62
     3
 10
862.755031
 20
929.581620
 11
861.307849
 21
930.224525
  0
LINE
  8
CSLAYER1
  6
CONTINUOUS
 62
     3
 10
861.307849
 20
930.224525
 11
859.750598
 21
930.803834
  0
LINE
  8
CSLAYER1
  6
CONTINUOUS
 62
     3
 10
859.750598
 20
930.803834
 11
858.095128
 21
931.315139
  0
LINE
  8
CSLAYER1
  6
CONTINUOUS
 62
     3
 10
858.095128
 20
931.315139
 11
856.354039
 21
931.754548
  0
LINE
  8
CSLAYER1
  6
CONTINUOUS
 62
     3
 10
856.354039
 20
931.754548
 11
854.540581
 21
932.118717
  0
LINE
  8
CSLAYER1
  6
CONTINUOUS
 62
     3
 10
854.540581
 20
932.118717
 11
852.668557
 21
932.404874
  0
LINE
  8
CSLAYER1
  6
CONTINUOUS
 62
     3
 10
852.668557
 20
932.404874
 11
850.752212
 21
932.610842
  0
LINE
  8
CSLAYER1
  6
CONTINUOUS
 62
     3
 10
850.752212
 20
932.610842
 11
848.806132
 21
932.735054
  0
LINE
  8
CSLAYER1
  6
CONTINUOUS
 62
     3
 10
848.806132
 20
932.735054
 11
846.845128
 21
932.776563
  0
LINE
  8
CSLAYER1
  6
CONTINUOUS
 62
     3
 10
846.845128
 20
932.776563
 11
844.884124
 21
932.735054
  0
LINE
  8
CSLAYER1
  6
CONTINUOUS
 62
     3
 10
844.884124
 20
932.735054
 11
842.938044
 21
932.610842
  0
LINE
  8
CSLAYER1
  6
CONTINUOUS
 62
     3
 10
842.938044
 20
932.610842
 11
841.021700
 21
932.404874
  0
LINE
  8
CSLAYER1
  6
CONTINUOUS
 62
     3
 10
841.021700
 20
932.404874
 11
839.149675
 21
932.118717
  0
LINE
  8
CSLAYER1
  6
CONTINUOUS
 62
     3
 10
839.149675
 20
932.118717
 11
837.336217
 21
931.754548
  0
LINE
  8
CSLAYER1
  6
CONTINUOUS
 62
     3
 10
837.336217
 20
931.754548
 11
835.595128
 21
931.315139
  0
LINE
  8
CSLAYER1
  6
CONTINUOUS
 62
     3
 10
835.595128
 20
931.315139
 11
833.939658
 21
930.803834
  0
LINE
  8
CSLAYER1
  6
CONTINUOUS
 62
     3
 10
833.939658
 20
930.803834
 11
832.382407
 21
930.224525
  0
LINE
  8
CSLAYER1
  6
CONTINUOUS
 62
     3
 10
832.382407
 20
930.224525
 11
830.935226
 21
929.581620
  0
LINE
  8
CSLAYER1
  6
CONTINUOUS
 62
     3
 10
830.935226
 20
929.581620
 11
829.609128
 21
928.880013
  0
LINE
  8
CSLAYER1
  6
CONTINUOUS
 62
     3
 10
829.609128
 20
928.880013
 11
828.414207
 21
928.125042
  0
LINE
  8
CSLAYER1
  6
CONTINUOUS
 62
     3
 10
828.414207
 20
928.125042
 11
827.359557
 21
927.322454
  0
LINE
  8
CSLAYER1
  6
CONTINUOUS
 62
     3
 10
827.359557
 20
927.322454
 11
826.453203
 21
926.478358
  0
LINE
  8
CSLAYER1
  6
CONTINUOUS
 62
     3
 10
826.453203
 20
926.478358
 11
825.702044
 21
925.599176
  0
LINE
  8
CSLAYER1
  6
CONTINUOUS
 62
     3
 10
825.702044
 20
925.599176
 11
825.111797
 21
924.691600
  0
LINE
  8
CSLAYER1
  6
CONTINUOUS
 62
     3
 10
825.111797
 20
924.691600
 11
824.686954
 21
923.762538
  0
LINE
  8
CSLAYER1
  6
CONTINUOUS
 62
     3
 10
824.686954
 20
923.762538
 11
824.430748
 21
922.819060
  0
LINE
  8
CSLAYER1
  6
CONTINUOUS
 62
     3
 10
824.430748
 20
922.819060
 11
824.345128
 21
921.868346
  0
LINE
  8
CSLAYER1
  6
CONTINUOUS
 62
     3
 10
871.145128
 20
921.868346
 11
871.052659
 21
922.895117
  0
LINE
  8
CSLAYER1
  6
CONTINUOUS
 62
     3
 10
871.052659
 20
922.895117
 11
870.775957
 21
923.914073
  0
LINE
  8
CSLAYER1
  6
CONTINUOUS
 62
     3
 10
870.775957
 20
923.914073
 11
870.317126
 21
924.917461
  0
LINE
  8
CSLAYER1
  6
CONTINUOUS
 62
     3
 10
870.317126
 20
924.917461
 11
869.679659
 21
925.897642
  0
LINE
  8
CSLAYER1
  6
CONTINUOUS
 62
     3
 10
869.679659
 20
925.897642
 11
868.868407
 21
926.847159
  0
LINE
  8
CSLAYER1
  6
CONTINUOUS
 62
     3
 10
868.868407
 20
926.847159
 11
867.889546
 21
927.758783
  0
LINE
  8
CSLAYER1
  6
CONTINUOUS
 62
     3
 10
867.889546
 20
927.758783
 11
866.750523
 21
928.625578
  0
LINE
  8
CSLAYER1
  6
CONTINUOUS
 62
     3
 10
866.750523
 20
928.625578
 11
865.460008
 21
929.440946
  0
LINE
  8
CSLAYER1
  6
CONTINUOUS
 62
     3
 10
865.460008
 20
929.440946
 11
864.027823
 21
930.198682
  0
LINE
  8
CSLAYER1
  6
CONTINUOUS
 62
     3
 10
864.027823
 20
930.198682
 11
862.464867
 21
930.893019
  0
LINE
  8
CSLAYER1
  6
CONTINUOUS
 62
     3
 10
862.464867
 20
930.893019
 11
860.783036
 21
931.518673
  0
LINE
  8
CSLAYER1
  6
CONTINUOUS
 62
     3
 10
860.783036
 20
931.518673
 11
858.995128
 21
932.070882
  0
LINE
  8
CSLAYER1
  6
CONTINUOUS
 62
     3
 10
858.995128
 20
932.070882
 11
857.114752
 21
932.545444
  0
LINE
  8
CSLAYER1
  6
CONTINUOUS
 62
     3
 10
857.114752
 20
932.545444
 11
855.156218
 21
932.938746
  0
LINE
  8
CSLAYER1
  6
CONTINUOUS
 62
     3
 10
855.156218
 20
932.938746
 11
853.134431
 21
933.247796
  0
LINE
  8
CSLAYER1
  6
CONTINUOUS
 62
     3
 10
853.134431
 20
933.247796
 11
851.064779
 21
933.470242
  0
LINE
  8
CSLAYER1
  6
CONTINUOUS
 62
     3
 10
851.064779
 20
933.470242
 11
848.963013
 21
933.604390
  0
LINE
  8
CSLAYER1
  6
CONTINUOUS
 62
     3
 10
848.963013
 20
933.604390
 11
846.845128
 21
933.649220
  0
LINE
  8
CSLAYER1
  6
CONTINUOUS
 62
     3
 10
846.845128
 20
933.649220
 11
844.727244
 21
933.604390
  0
LINE
  8
CSLAYER1
  6
CONTINUOUS
 62
     3
 10
844.727244
 20
933.604390
 11
842.625477
 21
933.470242
  0
LINE
  8
CSLAYER1
  6
CONTINUOUS
 62
     3
 10
842.625477
 20
933.470242
 11
840.555825
 21
933.247796
  0
LINE
  8
CSLAYER1
  6
CONTINUOUS
 62
     3
 10
840.555825
 20
933.247796
 11
838.534039
 21
932.938746
  0
LINE
  8
CSLAYER1
  6
CONTINUOUS
 62
     3
 10
838.534039
 20
932.938746
 11
836.575504
 21
932.545444
  0
LINE
  8
CSLAYER1
  6
CONTINUOUS
 62
     3
 10
836.575504
 20
932.545444
 11
834.695128
 21
932.070882
  0
LINE
  8
CSLAYER1
  6
CONTINUOUS
 62
     3
 10
834.695128
 20
932.070882
 11
832.907221
 21
931.518673
  0
LINE
  8
CSLAYER1
  6
CONTINUOUS
 62
     3
 10
832.907221
 20
931.518673
 11
831.225389
 21
930.893019
  0
LINE
  8
CSLAYER1
  6
CONTINUOUS
 62
     3
 10
831.225389
 20
930.893019
 11
829.662433
 21
930.198682
  0
LINE
  8
CSLAYER1
  6
CONTINUOUS
 62
     3
 10
829.662433
 20
930.198682
 11
828.230248
 21
929.440946
  0
LINE
  8
CSLAYER1
  6
CONTINUOUS
 62
     3
 10
828.230248
 20
929.440946
 11
826.939734
 21
928.625578
  0
LINE
  8
CSLAYER1
  6
CONTINUOUS
 62
     3
 10
826.939734
 20
928.625578
 11
825.800711
 21
927.758783
  0
LINE
  8
CSLAYER1
  6
CONTINUOUS
 62
     3
 10
825.800711
 20
927.758783
 11
824.821849
 21
926.847159
  0
LINE
  8
CSLAYER1
  6
CONTINUOUS
 62
     3
 10
824.821849
 20
926.847159
 11
824.010598
 21
925.897642
  0
LINE
  8
CSLAYER1
  6
CONTINUOUS
 62
     3
 10
824.010598
 20
925.897642
 11
823.373131
 21
924.917461
  0
LINE
  8
CSLAYER1
  6
CONTINUOUS
 62
     3
 10
823.373131
 20
924.917461
 11
822.914300
 21
923.914073
  0
LINE
  8
CSLAYER1
  6
CONTINUOUS
 62
     3
 10
822.914300
 20
923.914073
 11
822.637597
 21
922.895117
  0
LINE
  8
CSLAYER1
  6
CONTINUOUS
 62
     3
 10
822.637597
 20
922.895117
 11
822.545128
 21
921.868346
  0
LINE
  8
CSLAYER1
  6
CONTINUOUS
 62
     3
 10
822.545128
 20
921.868346
 11
822.637597
 21
920.841575
  0
LINE
  8
CSLAYER1
  6
CONTINUOUS
 62
     3
 10
822.637597
 20
920.841575
 11
822.742888
 21
920.453840
  0
LINE
  8
CSLAYER1
  6
CONTINUOUS
 62
     3
 10
823.845128
 20
918.093479
 11
824.010598
 21
917.839050
  0
LINE
  8
CSLAYER1
  6
CONTINUOUS
 62
     3
 10
824.010598
 20
917.839050
 11
824.345128
 21
917.447504
  0
LINE
  8
CSLAYER1
  6
CONTINUOUS
 62
     3
 10
869.345128
 20
917.447504
 11
869.679659
 21
917.839050
  0
LINE
  8
CSLAYER1
  6
CONTINUOUS
 62
     3
 10
869.679659
 20
917.839050
 11
869.845128
 21
918.093479
  0
LINE
  8
CSLAYER1
  6
CONTINUOUS
 62
     3
 10
870.947368
 20
920.453840
 11
871.052659
 21
920.841575
  0
LINE
  8
CSLAYER1
  6
CONTINUOUS
 62
     3
 10
871.052659
 20
920.841575
 11
871.145128
 21
921.868346
  0
LINE
  8
CSLAYER1
  6
CONTINUOUS
 62
     3
 10
824.345128
 20
891.279450
 11
824.345128
 21
921.868346
  0
LINE
  8
CSLAYER1
  6
CONTINUOUS
 62
     3
 10
869.345128
 20
891.279450
 11
869.259509
 21
892.230164
  0
LINE
  8
CSLAYER1
  6
CONTINUOUS
 62
     3
 10
869.259509
 20
892.230164
 11
869.003303
 21
893.173642
  0
LINE
  8
CSLAYER1
  6
CONTINUOUS
 62
     3
 10
869.003303
 20
893.173642
 11
868.578459
 21
894.102704
  0
LINE
  8
CSLAYER1
  6
CONTINUOUS
 62
     3
 10
868.578459
 20
894.102704
 11
867.988212
 21
895.010280
  0
LINE
  8
CSLAYER1
  6
CONTINUOUS
 62
     3
 10
867.988212
 20
895.010280
 11
867.237053
 21
895.889462
  0
LINE
  8
CSLAYER1
  6
CONTINUOUS
 62
     3
 10
867.237053
 20
895.889462
 11
866.330700
 21
896.733558
  0
LINE
  8
CSLAYER1
  6
CONTINUOUS
 62
     3
 10
866.330700
 20
896.733558
 11
865.276049
 21
897.536146
  0
LINE
  8
CSLAYER1
  6
CONTINUOUS
 62
     3
 10
865.276049
 20
897.536146
 11
864.081128
 21
898.291117
  0
LINE
  8
CSLAYER1
  6
CONTINUOUS
 62
     3
 10
864.081128
 20
898.291117
 11
862.755031
 21
898.992724
  0
LINE
  8
CSLAYER1
  6
CONTINUOUS
 62
     3
 10
862.755031
 20
898.992724
 11
861.307849
 21
899.635629
  0
LINE
  8
CSLAYER1
  6
CONTINUOUS
 62
     3
 10
861.307849
 20
899.635629
 11
859.750598
 21
900.214938
  0
LINE
  8
CSLAYER1
  6
CONTINUOUS
 62
     3
 10
859.750598
 20
900.214938
 11
858.095128
 21
900.726243
  0
LINE
  8
CSLAYER1
  6
CONTINUOUS
 62
     3
 10
858.095128
 20
900.726243
 11
856.354039
 21
901.165652
  0
LINE
  8
CSLAYER1
  6
CONTINUOUS
 62
     3
 10
856.354039
 20
901.165652
 11
854.540581
 21
901.529821
  0
LINE
  8
CSLAYER1
  6
CONTINUOUS
 62
     3
 10
854.540581
 20
901.529821
 11
852.668557
 21
901.815978
  0
LINE
  8
CSLAYER1
  6
CONTINUOUS
 62
     3
 10
852.668557
 20
901.815978
 11
850.752212
 21
902.021946
  0
LINE
  8
CSLAYER1
  6
CONTINUOUS
 62
     3
 10
850.752212
 20
902.021946
 11
848.806132
 21
902.146158
  0
LINE
  8
CSLAYER1
  6
CONTINUOUS
 62
     3
 10
848.806132
 20
902.146158
 11
846.845128
 21
902.187667
  0
LINE
  8
CSLAYER1
  6
CONTINUOUS
 62
     3
 10
846.845128
 20
902.187667
 11
844.884124
 21
902.146158
  0
LINE
  8
CSLAYER1
  6
CONTINUOUS
 62
     3
 10
844.884124
 20
902.146158
 11
842.938044
 21
902.021946
  0
LINE
  8
CSLAYER1
  6
CONTINUOUS
 62
     3
 10
842.938044
 20
902.021946
 11
841.021700
 21
901.815978
  0
LINE
  8
CSLAYER1
  6
CONTINUOUS
 62
     3
 10
841.021700
 20
901.815978
 11
839.149675
 21
901.529821
  0
LINE
  8
CSLAYER1
  6
CONTINUOUS
 62
     3
 10
839.149675
 20
901.529821
 11
837.336217
 21
901.165652
  0
LINE
  8
CSLAYER1
  6
CONTINUOUS
 62
     3
 10
837.336217
 20
901.165652
 11
835.595128
 21
900.726243
  0
LINE
  8
CSLAYER1
  6
CONTINUOUS
 62
     3
 10
835.595128
 20
900.726243
 11
833.939658
 21
900.214938
  0
LINE
  8
CSLAYER1
  6
CONTINUOUS
 62
     3
 10
833.939658
 20
900.214938
 11
832.382407
 21
899.635629
  0
LINE
  8
CSLAYER1
  6
CONTINUOUS
 62
     3
 10
832.382407
 20
899.635629
 11
830.935226
 21
898.992724
  0
LINE
  8
CSLAYER1
  6
CONTINUOUS
 62
     3
 10
830.935226
 20
898.992724
 11
829.609128
 21
898.291117
  0
LINE
  8
CSLAYER1
  6
CONTINUOUS
 62
     3
 10
829.609128
 20
898.291117
 11
828.414207
 21
897.536146
  0
LINE
  8
CSLAYER1
  6
CONTINUOUS
 62
     3
 10
828.414207
 20
897.536146
 11
827.359557
 21
896.733558
  0
LINE
  8
CSLAYER1
  6
CONTINUOUS
 62
     3
 10
827.359557
 20
896.733558
 11
826.453203
 21
895.889462
  0
LINE
  8
CSLAYER1
  6
CONTINUOUS
 62
     3
 10
826.453203
 20
895.889462
 11
825.702044
 21
895.010280
  0
LINE
  8
CSLAYER1
  6
CONTINUOUS
 62
     3
 10
825.702044
 20
895.010280
 11
825.111797
 21
894.102704
  0
LINE
  8
CSLAYER1
  6
CONTINUOUS
 62
     3
 10
825.111797
 20
894.102704
 11
824.686954
 21
893.173642
  0
LINE
  8
CSLAYER1
  6
CONTINUOUS
 62
     3
 10
824.686954
 20
893.173642
 11
824.430748
 21
892.230164
  0
LINE
  8
CSLAYER1
  6
CONTINUOUS
 62
     3
 10
824.430748
 20
892.230164
 11
824.345128
 21
891.279450
  0
LINE
  8
CSLAYER1
  6
CONTINUOUS
 62
     3
 10
824.345128
 20
891.279450
 11
824.430748
 21
890.328736
  0
LINE
  8
CSLAYER1
  6
CONTINUOUS
 62
     3
 10
824.430748
 20
890.328736
 11
824.686954
 21
889.385258
  0
LINE
  8
CSLAYER1
  6
CONTINUOUS
 62
     3
 10
824.686954
 20
889.385258
 11
825.111797
 21
888.456196
  0
LINE
  8
CSLAYER1
  6
CONTINUOUS
 62
     3
 10
825.111797
 20
888.456196
 11
825.702044
 21
887.548620
  0
LINE
  8
CSLAYER1
  6
CONTINUOUS
 62
     3
 10
825.702044
 20
887.548620
 11
825.888450
 21
887.330445
  0
LINE
  8
CSLAYER1
  6
CONTINUOUS
 62
     3
 10
867.801807
 20
887.330445
 11
867.988212
 21
887.548620
  0
LINE
  8
CSLAYER1
  6
CONTINUOUS
 62
     3
 10
867.988212
 20
887.548620
 11
868.578459
 21
888.456196
  0
LINE
  8
CSLAYER1
  6
CONTINUOUS
 62
     3
 10
868.578459
 20
888.456196
 11
869.003303
 21
889.385258
  0
LINE
  8
CSLAYER1
  6
CONTINUOUS
 62
     3
 10
869.003303
 20
889.385258
 11
869.259509
 21
890.328736
  0
LINE
  8
CSLAYER1
  6
CONTINUOUS
 62
     3
 10
869.259509
 20
890.328736
 11
869.345128
 21
891.279450
  0
LINE
  8
CSLAYER1
  6
CENTER
 62
     5
 10
806.845128
 20
858.339082
 11
806.845128
 21
1000.431071
  0
LINE
  8
CSLAYER1
  6
CONTINUOUS
 62
     3
 10
813.845128
 20
1013.094878
 11
799.845128
 21
1013.094878
  0
LINE
  8
CSLAYER1
  6
CONTINUOUS
 62
     3
 10
813.845128
 20
1005.294878
 11
799.845128
 21
1005.294878
  0
LINE
  8
CSLAYER1
  6
CONTINUOUS
 62
     3
 10
813.277060
 20
1000.094878
 11
800.413196
 21
1000.094878
  0
LINE
  8
CSLAYER1
  6
CONTINUOUS
 62
     3
 10
812.845128
 20
998.094878
 11
800.845128
 21
998.094878
  0
LINE
  8
CSLAYER1
  6
CONTINUOUS
 62
     3
 10
812.845128
 20
991.094878
 11
800.845128
 21
991.094878
  0
LINE
  8
CSLAYER1
  6
CONTINUOUS
 62
     3
 10
811.728154
 20
966.094878
 11
801.962102
 21
966.094878
  0
LINE
  8
CSLAYER1
  6
CONTINUOUS
 62
     3
 10
812.345128
 20
988.094878
 11
812.345128
 21
991.094878
  0
LINE
  8
CSLAYER1
  6
CONTINUOUS
 62
     3
 10
814.928032
 20
1005.920093
 11
814.928032
 21
1012.469664
  0
LINE
  8
CSLAYER1
  6
CONTINUOUS
 62
     3
 10
810.886580
 20
1005.920093
 11
810.886580
 21
1012.469664
  0
ARC
  8
CSLAYER1
  6
CONTINUOUS
 62
     3
 10
784.157358
 20
1005.337100
 40
29.587800
 50
345.831727
 51
359.918240
  0
ARC
  8
CSLAYER1
  6
CONTINUOUS
 62
     3
 10
829.532898
 20
1005.337100
 40
29.587800
 50
180.081760
 51
194.168273
  0
LINE
  8
CSLAYER1
  6
CONTINUOUS
 62
     3
 10
811.192442
 20
998.094878
 11
811.192442
 21
1000.094878
  0
LINE
  8
CSLAYER1
  6
CONTINUOUS
 62
     3
 10
809.210677
 20
998.094878
 11
809.210677
 21
1000.094878
  0
LINE
  8
CSLAYER1
  6
CONTINUOUS
 62
     3
 10
802.497814
 20
998.094878
 11
802.497814
 21
1000.094878
  0
LINE
  8
CSLAYER1
  6
CONTINUOUS
 62
     3
 10
804.479580
 20
998.094878
 11
804.479580
 21
1000.094878
  0
LINE
  8
CSLAYER1
  6
CONTINUOUS
 62
     3
 10
813.845128
 20
1013.094878
 11
814.928032
 21
1012.469664
  0
ARC
  8
CSLAYER1
  6
CONTINUOUS
 62
     3
 10
812.907306
 20
1009.543250
 40
3.556295
 50
64.625569
 51
124.625569
  0
ARC
  8
CSLAYER1
  6
CONTINUOUS
 62
     3
 10
806.845128
 20
999.720093
 40
13.374785
 50
72.412046
 51
90.000000
  0
LINE
  8
CSLAYER1
  6
CONTINUOUS
 62
     3
 10
813.845128
 20
1005.294878
 11
814.928032
 21
1005.920093
  0
ARC
  8
CSLAYER1
  6
CONTINUOUS
 62
     3
 10
812.907306
 20
1008.846507
 40
3.556295
 50
235.374431
 51
295.374431
  0
ARC
  8
CSLAYER1
  6
CONTINUOUS
 62
     3
 10
806.845128
 20
1018.669664
 40
13.374785
 50
270.000000
 51
287.587954
  0
LINE
  8
CSLAYER1
  6
CONTINUOUS
 62
     3
 10
798.762224
 20
1005.920093
 11
798.762224
 21
1012.469664
  0
LINE
  8
CSLAYER1
  6
CONTINUOUS
 62
     3
 10
802.803676
 20
1005.920093
 11
802.803676
 21
1012.469664
  0
LINE
  8
CSLAYER1
  6
CONTINUOUS
 62
     3
 10
799.845128
 20
1013.094878
 11
798.762224
 21
1012.469664
  0
ARC
  8
CSLAYER1
  6
CONTINUOUS
 62
     3
 10
800.782950
 20
1009.543250
 40
3.556295
 50
55.374431
 51
115.374431
  0
ARC
  8
CSLAYER1
  6
CONTINUOUS
 62
     3
 10
806.845128
 20
999.720093
 40
13.374785
 50
90.000000
 51
107.587954
  0
LINE
  8
CSLAYER1
  6
CONTINUOUS
 62
     3
 10
799.845128
 20
1005.294878
 11
798.762224
 21
1005.920093
  0
ARC
  8
CSLAYER1
  6
CONTINUOUS
 62
     3
 10
800.782950
 20
1008.846507
 40
3.556295
 50
244.625569
 51
304.625569
  0
ARC
  8
CSLAYER1
  6
CONTINUOUS
 62
     3
 10
806.845128
 20
1018.669664
 40
13.374785
 50
252.412046
 51
270.000000
  0
LINE
  8
CSLAYER1
  6
CONTINUOUS
 62
     3
 10
813.773331
 20
991.630777
 11
813.773331
 21
997.358980
  0
LINE
  8
CSLAYER1
  6
CONTINUOUS
 62
     3
 10
810.309230
 20
991.630777
 11
810.309230
 21
997.358980
  0
LINE
  8
CSLAYER1
  6
CONTINUOUS
 62
     3
 10
812.845128
 20
991.094878
 11
813.773331
 21
991.630777
  0
ARC
  8
CSLAYER1
  6
CONTINUOUS
 62
     3
 10
806.845128
 20
1002.558980
 40
11.464102
 50
270.000000
 51
287.821405
  0
ARC
  8
CSLAYER1
  6
CONTINUOUS
 62
     3
 10
812.041281
 20
994.160807
 40
3.066114
 50
236.143645
 51
295.804157
  0
LINE
  8
CSLAYER1
  6
CONTINUOUS
 62
     3
 10
812.845128
 20
997.894878
 11
813.773331
 21
997.358980
  0
ARC
  8
CSLAYER1
  6
CONTINUOUS
 62
     3
 10
806.845128
 20
986.430777
 40
11.464102
 50
72.178595
 51
90.000000
  0
ARC
  8
CSLAYER1
  6
CONTINUOUS
 62
     3
 10
812.041281
 20
994.828950
 40
3.066114
 50
64.195843
 51
123.856355
  0
LINE
  8
CSLAYER1
  6
CONTINUOUS
 62
     3
 10
812.845128
 20
997.894878
 11
800.845128
 21
997.894878
  0
LINE
  8
CSLAYER1
  6
CONTINUOUS
 62
     3
 10
810.309230
 20
997.894878
 11
810.309230
 21
998.094878
  0
LINE
  8
CSLAYER1
  6
CONTINUOUS
 62
     3
 10
801.345128
 20
988.094878
 11
801.345128
 21
991.094878
  0
LINE
  8
CSLAYER1
  6
CONTINUOUS
 62
     3
 10
799.916925
 20
991.630777
 11
799.916925
 21
997.358980
  0
LINE
  8
CSLAYER1
  6
CONTINUOUS
 62
     3
 10
803.381027
 20
991.630777
 11
803.381027
 21
997.358980
  0
LINE
  8
CSLAYER1
  6
CONTINUOUS
 62
     3
 10
800.845128
 20
991.094878
 11
799.916925
 21
991.630777
  0
ARC
  8
CSLAYER1
  6
CONTINUOUS
 62
     3
 10
806.845128
 20
1002.558980
 40
11.464102
 50
252.178595
 51
270.000000
  0
ARC
  8
CSLAYER1
  6
CONTINUOUS
 62
     3
 10
801.648976
 20
994.160807
 40
3.066114
 50
244.195843
 51
303.856355
  0
LINE
  8
CSLAYER1
  6
CONTINUOUS
 62
     3
 10
800.845128
 20
997.894878
 11
799.916925
 21
997.358980
  0
ARC
  8
CSLAYER1
  6
CONTINUOUS
 62
     3
 10
806.845128
 20
986.430777
 40
11.464102
 50
90.000000
 51
107.821405
  0
ARC
  8
CSLAYER1
  6
CONTINUOUS
 62
     3
 10
801.648976
 20
994.828950
 40
3.066114
 50
56.143645
 51
115.804157
  0
LINE
  8
CSLAYER1
  6
CONTINUOUS
 62
     3
 10
803.381027
 20
997.894878
 11
803.381027
 21
998.094878
  0
LINE
  8
CSLAYER1
  6
CONTINUOUS
 62
     3
 10
813.773331
 20
979.094878
 11
813.773331
 21
987.558980
  0
LINE
  8
CSLAYER1
  6
CONTINUOUS
 62
     3
 10
810.309230
 20
979.094878
 11
810.309230
 21
987.558980
  0
LINE
  8
CSLAYER1
  6
CONTINUOUS
 62
     3
 10
812.845128
 20
988.094878
 11
813.773331
 21
987.558980
  0
ARC
  8
CSLAYER1
  6
CONTINUOUS
 62
     3
 10
806.845128
 20
976.630777
 40
11.464102
 50
72.178595
 51
90.000000
  0
ARC
  8
CSLAYER1
  6
CONTINUOUS
 62
     3
 10
812.041281
 20
985.028950
 40
3.066114
 50
64.195843
 51
123.856355
  0
LINE
  8
CSLAYER1
  6
CONTINUOUS
 62
     3
 10
812.845128
 20
988.094878
 11
800.845128
 21
988.094878
  0
LINE
  8
CSLAYER1
  6
CONTINUOUS
 62
     3
 10
799.916925
 20
979.094878
 11
799.916925
 21
987.558980
  0
LINE
  8
CSLAYER1
  6
CONTINUOUS
 62
     3
 10
803.381027
 20
979.094878
 11
803.381027
 21
987.558980
  0
LINE
  8
CSLAYER1
  6
CONTINUOUS
 62
     3
 10
800.845128
 20
988.094878
 11
799.916925
 21
987.558980
  0
ARC
  8
CSLAYER1
  6
CONTINUOUS
 62
     3
 10
806.845128
 20
976.630777
 40
11.464102
 50
90.000000
 51
107.821405
  0
ARC
  8
CSLAYER1
  6
CONTINUOUS
 62
     3
 10
801.648976
 20
985.028950
 40
3.066114
 50
56.143645
 51
115.804157
  0
LINE
  8
CSLAYER1
  6
CONTINUOUS
 62
     3
 10
812.724410
 20
967.008419
 11
813.773331
 21
979.094878
  0
ARC
  8
CSLAYER1
  6
CONTINUOUS
 62
     3
 10
791.667640
 20
979.094878
 40
18.641590
 50
330.443788
 51
360.000000
  0
ARC
  8
CSLAYER1
  6
CONTINUOUS
 62
     3
 10
806.845128
 20
970.534732
 40
1.217263
 50
270.000000
 51
329.421532
  0
ARC
  8
CSLAYER1
  6
CONTINUOUS
 62
     3
 10
828.950820
 20
979.094878
 40
18.641590
 50
180.000000
 51
209.556212
  0
ARC
  8
CSLAYER1
  6
CONTINUOUS
 62
     3
 10
813.773331
 20
970.534732
 40
1.217263
 50
210.578468
 51
227.594217
  0
ARC
  8
CSLAYER1
  6
CONTINUOUS
 62
     3
 10
811.728154
 20
967.094878
 40
1.000000
 50
270.000000
 51
355.040021
  0
LINE
  8
CSLAYER1
  6
CONTINUOUS
 62
     3
 10
800.965847
 20
967.008419
 11
799.916925
 21
979.094878
  0
ARC
  8
CSLAYER1
  6
CONTINUOUS
 62
     3
 10
822.022617
 20
979.094878
 40
18.641590
 50
180.000000
 51
209.556212
  0
ARC
  8
CSLAYER1
  6
CONTINUOUS
 62
     3
 10
806.845128
 20
970.534732
 40
1.217263
 50
210.578468
 51
270.000000
  0
ARC
  8
CSLAYER1
  6
CONTINUOUS
 62
     3
 10
784.739437
 20
979.094878
 40
18.641590
 50
330.443788
 51
360.000000
  0
ARC
  8
CSLAYER1
  6
CONTINUOUS
 62
     3
 10
799.916925
 20
970.534732
 40
1.217263
 50
312.405783
 51
329.421532
  0
ARC
  8
CSLAYER1
  6
CONTINUOUS
 62
     3
 10
801.962102
 20
967.094878
 40
1.000000
 50
184.959979
 51
270.000000
  0
LINE
  8
CSLAYER1
  6
CONTINUOUS
 62
     3
 10
811.728154
 20
1032.794878
 11
801.962102
 21
1032.794878
  0
LINE
  8
CSLAYER1
  6
CENTER
 62
     5
 10
819.345128
 20
1025.794878
 11
813.845128
 21
1025.794878
  0
LINE
  8
CSLAYER1
  6
CONTINUOUS
 62
     3
 10
799.845128
 20
1018.794878
 11
799.845128
 21
1031.294878
  0
LINE
  8
CSLAYER1
  6
CONTINUOUS
 62
     3
 10
813.845128
 20
1032.794878
 11
801.345128
 21
1032.794878
  0
LINE
  8
CSLAYER1
  6
CONTINUOUS
 62
     3
 10
813.845128
 20
1018.794878
 11
799.845128
 21
1018.794878
  0
LINE
  8
CSLAYER1
  6
CONTINUOUS
 62
     3
 10
813.845128
 20
1018.794878
 11
813.845128
 21
1032.792433
  0
LINE
  8
CSLAYER1
  6
CONTINUOUS
 62
     3
 10
811.445128
 20
1013.094878
 11
811.445128
 21
1018.794878
  0
LINE
  8
CSLAYER1
  6
CONTINUOUS
 62
     5
 10
810.845128
 20
1013.094878
 11
810.845128
 21
1017.755648
  0
LINE
  8
CSLAYER1
  6
CONTINUOUS
 62
     5
 10
811.445128
 20
1018.794878
 11
810.845128
 21
1017.755648
  0
LINE
  8
CSLAYER1
  6
CONTINUOUS
 62
     3
 10
802.245128
 20
1013.094878
 11
802.245128
 21
1018.794878
  0
LINE
  8
CSLAYER1
  6
CONTINUOUS
 62
     5
 10
802.245128
 20
1018.794878
 11
802.845128
 21
1017.755648
  0
LINE
  8
CSLAYER1
  6
CONTINUOUS
 62
     5
 10
811.445128
 20
1017.755648
 11
802.245128
 21
1017.755648
  0
LINE
  8
CSLAYER1
  6
CONTINUOUS
 62
     3
 10
819.345128
 20
1020.943093
 11
813.845128
 21
1020.844878
  0
LINE
  8
CSLAYER1
  6
CONTINUOUS
 62
     5
 10
819.345128
 20
1021.643204
 11
813.832630
 21
1021.544767
  0
LINE
  8
CSLAYER1
  6
CONTINUOUS
 62
     3
 10
819.345128
 20
1030.646664
 11
813.845128
 21
1030.744878
  0
LINE
  8
CSLAYER1
  6
CONTINUOUS
 62
     5
 10
819.345128
 20
1029.946553
 11
813.832630
 21
1030.044990
  0
ARC
  8
CSLAYER1
  6
CONTINUOUS
 62
     3
 10
801.345128
 20
1031.294878
 40
1.500000
 50
90.000000
 51
180.000000
  0
LINE
  8
CSLAYER1
  6
CONTINUOUS
 62
     3
 10
825.345128
 20
1183.765641
 11
828.845128
 21
1183.765641
  0
LINE
  8
CSLAYER1
  6
CONTINUOUS
 62
     3
 10
824.345128
 20
1184.765641
 11
825.345128
 21
1183.765641
  0
LINE
  8
CSLAYER1
  6
CONTINUOUS
 62
     3
 10
868.345128
 20
1183.765641
 11
869.345128
 21
1184.765641
  0
LINE
  8
CSLAYER1
  6
CONTINUOUS
 62
     3
 10
870.345128
 20
1189.365641
 11
869.345128
 21
1189.365641
  0
LINE
  8
CSLAYER1
  6
CONTINUOUS
 62
     3
 10
824.345128
 20
1189.365641
 11
823.345128
 21
1189.365641
  0
LINE
  8
CSLAYER1
  6
CONTINUOUS
 62
     3
 10
811.345128
 20
1214.365641
 11
823.345128
 21
1214.365641
  0
LINE
  8
CSLAYER1
  6
CONTINUOUS
 62
     3
 10
811.345128
 20
1122.957373
 11
823.345128
 21
1122.957373
  0
LINE
  8
CSLAYER1
  6
CONTINUOUS
 62
     3
 10
870.345128
 20
1122.957373
 11
870.345128
 21
1214.365641
  0
LINE
  8
CSLAYER1
  6
CONTINUOUS
 62
     3
 10
823.345128
 20
1122.957373
 11
823.345128
 21
1214.365641
  0
LINE
  8
CSLAYER1
  6
CONTINUOUS
 62
     3
 10
811.345128
 20
1122.957373
 11
811.345128
 21
1214.365641
  0
LINE
  8
CSLAYER1
  6
CONTINUOUS
 62
     3
 10
870.345128
 20
1122.957373
 11
882.345128
 21
1122.957373
  0
LINE
  8
CSLAYER1
  6
CONTINUOUS
 62
     3
 10
864.845128
 20
1093.249295
 11
882.345128
 21
1093.249295
  0
LINE
  8
CSLAYER1
  6
CONTINUOUS
 62
     3
 10
823.345128
 20
1141.849295
 11
828.845128
 21
1141.849295
  0
LINE
  8
CSLAYER1
  6
CONTINUOUS
 62
     3
 10
864.845128
 20
1141.849295
 11
870.345128
 21
1141.849295
  0
LINE
  8
CSLAYER1
  6
CONTINUOUS
 62
     3
 10
870.345128
 20
1214.365641
 11
882.345128
 21
1214.365641
  0
LINE
  8
CSLAYER1
  6
CONTINUOUS
 62
     3
 10
790.345128
 20
1205.365641
 11
811.345128
 21
1205.365641
  0
LINE
  8
CSLAYER1
  6
CONTINUOUS
 62
     3
 10
790.345128
 20
1189.365641
 11
811.345128
 21
1189.365641
  0
LINE
  8
CSLAYER1
  6
CONTINUOUS
 62
     3
 10
836.345128
 20
1301.986782
 11
882.345128
 21
1301.986782
  0
LINE
  8
CSLAYER1
  6
CONTINUOUS
 62
     3
 10
778.345128
 20
1122.569956
 11
778.345128
 21
1116.069956
  0
LINE
  8
CSLAYER1
  6
CONTINUOUS
 62
     3
 10
781.345128
 20
1122.569956
 11
781.345128
 21
1116.069956
  0
LINE
  8
CSLAYER1
  6
CONTINUOUS
 62
     3
 10
778.345128
 20
1122.569956
 11
781.345128
 21
1122.569956
  0
LINE
  8
CSLAYER1
  6
CONTINUOUS
 62
     3
 10
778.345128
 20
1094.569956
 11
778.345128
 21
1101.069956
  0
LINE
  8
CSLAYER1
  6
CONTINUOUS
 62
     3
 10
781.345128
 20
1094.569956
 11
781.345128
 21
1101.069956
  0
LINE
  8
CSLAYER1
  6
CONTINUOUS
 62
     3
 10
778.345128
 20
1094.569956
 11
781.345128
 21
1094.569956
  0
LINE
  8
CSLAYER1
  6
CONTINUOUS
 62
     3
 10
781.345128
 20
887.330445
 11
778.345128
 21
887.330445
  0
LINE
  8
CSLAYER1
  6
CONTINUOUS
 62
     3
 10
780.345128
 20
1394.160683
 11
781.345128
 21
1394.160683
  0
LINE
  8
CSLAYER1
  6
CONTINUOUS
 62
     3
 10
779.345128
 20
1407.810683
 11
779.345128
 21
1395.160683
  0
LINE
  8
CSLAYER1
  6
CONTINUOUS
 62
     3
 10
779.345128
 20
1395.160683
 11
780.345128
 21
1394.160683
  0
LINE
  8
CSLAYER1
  6
CONTINUOUS
 62
     3
 10
780.345128
 20
1407.810683
 11
780.345128
 21
1394.160683
  0
LINE
  8
CSLAYER1
  6
CONTINUOUS
 62
     3
 10
778.845128
 20
1392.310683
 11
772.845128
 21
1392.310683
  0
LINE
  8
CSLAYER1
  6
CONTINUOUS
 62
     3
 10
772.845128
 20
1407.810683
 11
772.845128
 21
1392.310683
  0
LINE
  8
CSLAYER1
  6
CONTINUOUS
 62
     3
 10
778.845128
 20
1407.810683
 11
778.845128
 21
1392.310683
  0
LINE
  8
CSLAYER1
  6
CONTINUOUS
 62
     3
 10
790.345128
 20
1394.160683
 11
836.345128
 21
1394.160683
  0
LINE
  8
CSLAYER1
  6
CONTINUOUS
 62
     3
 10
769.845128
 20
1391.841028
 11
769.845128
 21
1407.810683
  0
LINE
  8
CSLAYER1
  6
CONTINUOUS
 62
     3
 10
772.845128
 20
1392.060683
 11
769.845128
 21
1392.060683
  0
LINE
  8
CSLAYER1
  6
CONTINUOUS
 62
     3
 10
772.845128
 20
1401.298487
 11
770.006103
 21
1404.610683
  0
LINE
  8
CSLAYER1
  6
CONTINUOUS
 62
     3
 10
761.845128
 20
1402.810683
 11
761.845128
 21
1404.610683
  0
ARC
  8
CSLAYER1
  6
CONTINUOUS
 62
     3
 10
775.640872
 20
1402.810683
 40
13.795744
 50
158.750456
 51
180.000000
  0
LINE
  8
CSLAYER1
  6
CONTINUOUS
 62
     3
 10
761.845128
 20
1407.810683
 11
761.845128
 21
1393.810683
  0
LINE
  8
CSLAYER1
  6
CONTINUOUS
 62
     3
 10
769.845128
 20
1397.325856
 11
762.982309
 21
1397.325856
  0
LINE
  8
CSLAYER1
  6
CONTINUOUS
 62
     3
 10
769.845128
 20
1391.841028
 11
762.982309
 21
1391.841028
  0
LINE
  8
CSLAYER1
  6
CONTINUOUS
 62
     3
 10
761.845128
 20
1393.810683
 11
762.982309
 21
1391.841028
  0
ARC
  8
CSLAYER1
  6
CONTINUOUS
 62
     3
 10
765.625173
 20
1394.583442
 40
3.808617
 50
133.940972
 51
174.338367
  0
ARC
  8
CSLAYER1
  6
CONTINUOUS
 62
     3
 10
775.640872
 20
1402.810683
 40
13.795744
 50
180.000000
 51
203.426598
  0
LINE
  8
CSLAYER1
  6
CONTINUOUS
 62
     3
 10
836.345128
 20
1301.986782
 11
790.345128
 21
1301.986782
  0
LINE
  8
CSLAYER1
  6
CONTINUOUS
 62
     3
 10
790.345128
 20
858.339082
 11
790.345128
 21
1407.810683
  0
LINE
  8
CSLAYER1
  6
CONTINUOUS
 62
     3
 10
781.345128
 20
858.339082
 11
781.345128
 21
1407.810683
  0
LINE
  8
CSLAYER1
  6
CONTINUOUS
 62
     3
 10
778.345128
 20
858.339082
 11
778.345128
 21
1392.310683
  0
LINE
  8
CSLAYER1
  6
CONTINUOUS
 62
     3
 10
769.345128
 20
858.339082
 11
769.345128
 21
1391.841028
  0
LINE
  8
CSLAYER1
  6
CONTINUOUS
 62
     3
 10
790.345128
 20
887.330445
 11
802.695128
 21
887.330445
  0
LINE
  8
CSLAYER1
  6
CONTINUOUS
 62
     3
 10
751.345128
 20
1407.810683
 11
755.845128
 21
1407.810683
  0
LINE
  8
CSLAYER1
  6
CONTINUOUS
 62
     3
 10
921.345128
 20
1407.810683
 11
916.845128
 21
1407.810683
  0
LINE
  8
CSLAYER1
  6
CONTINUOUS
 62
     3
 10
864.845128
 20
1183.765641
 11
868.345128
 21
1183.765641
  0
LINE
  8
CSLAYER1
  6
CONTINUOUS
 62
     3
 10
802.695128
 20
858.339082
 11
802.695128
 21
966.094878
  0
LINE
  8
CSLAYER1
  6
CONTINUOUS
 62
     3
 10
810.995128
 20
858.339082
 11
810.995128
 21
966.094878
  0
LINE
  8
CSLAYER1
  6
CONTINUOUS
 62
     3
 10
810.995128
 20
887.330445
 11
817.845128
 21
887.330445
  0
CIRCLE
  8
CSLAYER1
  6
CONTINUOUS
 62
     3
 10
806.345128
 20
829.989082
 40
4.150000
  0
LINE
  8
CSLAYER1
  6
CONTINUOUS
 62
     5
 10
802.845128
 20
1013.094878
 11
802.845128
 21
1017.755648
  0
DIMENSION
  8
CSLAYER1
 62
     3
  2
*D0010
 10
1052.731725
 20
824.339082
 11
1105.598633
 21
842.204224
 13
986.345128
 23
818.339082
 14
986.345128
 24
824.339082
 50
90.000000
 70
1
  0
LINE
  8
CSLAYER1
  6
CENTER
 62
     5
 10
761.845128
 20
1402.810683
 11
910.845128
 21
1402.810683
  0
LINE
  8
CSLAYER1
  6
CONTINUOUS
 62
     1
 10
919.695128
 20
1103.419956
 11
919.145128
 21
1103.419956
  0
LINE
  8
CSLAYER1
  6
CONTINUOUS
 62
     1
 10
919.695128
 20
1113.719956
 11
919.145128
 21
1113.719956
  0
LINE
  8
CSLAYER1
  6
CONTINUOUS
 62
     4
 10
909.145128
 20
1108.569956
 11
909.145128
 21
1097.600301
  0
LINE
  8
CSLAYER1
  6
CONTINUOUS
 62
     4
 10
919.145128
 20
1108.569956
 11
919.145128
 21
1099.069956
  0
LINE
  8
CSLAYER1
  6
CONTINUOUS
 62
     4
 10
909.145128
 20
1097.600301
 11
918.296622
 21
1097.600301
  0
LINE
  8
CSLAYER1
  6
CONTINUOUS
 62
     4
 10
909.145128
 20
1103.085128
 11
918.296622
 21
1103.085128
  0
LINE
  8
CSLAYER1
  6
CONTINUOUS
 62
     4
 10
919.145128
 20
1099.069956
 11
918.296622
 21
1097.600301
  0
ARC
  8
CSLAYER1
  6
CONTINUOUS
 62
     4
 10
900.993634
 20
1108.569956
 40
18.151494
 50
342.412046
 51
360.000000
  0
ARC
  8
CSLAYER1
  6
CONTINUOUS
 62
     4
 10
914.295800
 20
1100.342715
 40
4.850507
 50
-25.570827
 51
34.796733
  0
LINE
  8
CSLAYER1
  6
CONTINUOUS
 62
     4
 10
909.145128
 20
1097.819956
 11
906.145128
 21
1097.819956
  0
LINE
  8
CSLAYER1
  6
CONTINUOUS
 62
     4
 10
906.145128
 20
1096.569956
 11
903.845128
 21
1096.569956
  0
LINE
  8
CSLAYER1
  6
CONTINUOUS
 62
     4
 10
903.845128
 20
1108.569956
 11
903.845128
 21
1096.569956
  0
LINE
  8
CSLAYER1
  6
CONTINUOUS
 62
     4
 10
906.145128
 20
1108.569956
 11
906.145128
 21
1096.569956
  0
LINE
  8
CSLAYER1
  6
CONTINUOUS
 62
     4
 10
919.845128
 20
1108.569956
 11
919.845128
 21
1103.569956
  0
LINE
  8
CSLAYER1
  6
CONTINUOUS
 62
     4
 10
919.145128
 20
1102.869956
 11
919.845128
 21
1103.569956
  0
LINE
  8
CSLAYER1
  6
CONTINUOUS
 62
     4
 10
909.145128
 20
1108.569956
 11
909.145128
 21
1119.539611
  0
LINE
  8
CSLAYER1
  6
CONTINUOUS
 62
     4
 10
919.145128
 20
1108.569956
 11
919.145128
 21
1118.069956
  0
LINE
  8
CSLAYER1
  6
CONTINUOUS
 62
     4
 10
909.145128
 20
1119.539611
 11
918.296622
 21
1119.539611
  0
LINE
  8
CSLAYER1
  6
CONTINUOUS
 62
     4
 10
909.145128
 20
1114.054784
 11
918.296622
 21
1114.054784
  0
LINE
  8
CSLAYER1
  6
CONTINUOUS
 62
     4
 10
919.145128
 20
1118.069956
 11
918.296622
 21
1119.539611
  0
ARC
  8
CSLAYER1
  6
CONTINUOUS
 62
     4
 10
900.993634
 20
1108.569956
 40
18.151494
 50
0.000000
 51
17.587954
  0
ARC
  8
CSLAYER1
  6
CONTINUOUS
 62
     4
 10
914.295800
 20
1116.797197
 40
4.850507
 50
-34.796733
 51
25.570827
  0
LINE
  8
CSLAYER1
  6
CONTINUOUS
 62
     4
 10
909.145128
 20
1119.319956
 11
906.145128
 21
1119.319956
  0
LINE
  8
CSLAYER1
  6
CONTINUOUS
 62
     4
 10
906.145128
 20
1120.569956
 11
903.845128
 21
1120.569956
  0
LINE
  8
CSLAYER1
  6
CONTINUOUS
 62
     4
 10
903.845128
 20
1108.569956
 11
903.845128
 21
1120.569956
  0
LINE
  8
CSLAYER1
  6
CONTINUOUS
 62
     4
 10
906.145128
 20
1108.569956
 11
906.145128
 21
1120.569956
  0
LINE
  8
CSLAYER1
  6
CONTINUOUS
 62
     4
 10
919.845128
 20
1108.569956
 11
919.845128
 21
1113.569956
  0
LINE
  8
CSLAYER1
  6
CONTINUOUS
 62
     4
 10
919.145128
 20
1114.269956
 11
919.845128
 21
1113.569956
  0
LINE
  8
CSLAYER1
  6
CONTINUOUS
 62
     4
 10
903.845128
 20
1108.569956
 11
903.845128
 21
1096.569956
  0
LINE
  8
CSLAYER1
  6
CONTINUOUS
 62
     4
 10
903.345128
 20
1100.069956
 11
903.845128
 21
1100.569956
  0
LINE
  8
CSLAYER1
  6
CONTINUOUS
 62
     4
 10
903.345128
 20
1117.069956
 11
903.845128
 21
1116.569956
  0
LINE
  8
CSLAYER1
  6
CONTINUOUS
 62
     1
 10
752.995128
 20
1103.419956
 11
753.545128
 21
1103.419956
  0
LINE
  8
CSLAYER1
  6
CONTINUOUS
 62
     1
 10
752.995128
 20
1113.719956
 11
753.545128
 21
1113.719956
  0
LINE
  8
CSLAYER1
  6
CONTINUOUS
 62
     4
 10
763.545128
 20
1108.569956
 11
763.545128
 21
1097.600301
  0
LINE
  8
CSLAYER1
  6
CONTINUOUS
 62
     4
 10
753.545128
 20
1108.569956
 11
753.545128
 21
1099.069956
  0
LINE
  8
CSLAYER1
  6
CONTINUOUS
 62
     4
 10
763.545128
 20
1097.600301
 11
754.393634
 21
1097.600301
  0
LINE
  8
CSLAYER1
  6
CONTINUOUS
 62
     4
 10
763.545128
 20
1103.085128
 11
754.393634
 21
1103.085128
  0
LINE
  8
CSLAYER1
  6
CONTINUOUS
 62
     4
 10
753.545128
 20
1099.069956
 11
754.393634
 21
1097.600301
  0
ARC
  8
CSLAYER1
  6
CONTINUOUS
 62
     4
 10
771.696622
 20
1108.569956
 40
18.151494
 50
180.000000
 51
197.587954
  0
ARC
  8
CSLAYER1
  6
CONTINUOUS
 62
     4
 10
758.394457
 20
1100.342715
 40
4.850507
 50
145.203267
 51
205.570827
  0
LINE
  8
CSLAYER1
  6
CONTINUOUS
 62
     4
 10
763.545128
 20
1097.819956
 11
766.545128
 21
1097.819956
  0
LINE
  8
CSLAYER1
  6
CONTINUOUS
 62
     4
 10
766.545128
 20
1096.569956
 11
768.845128
 21
1096.569956
  0
LINE
  8
CSLAYER1
  6
CONTINUOUS
 62
     4
 10
768.845128
 20
1108.569956
 11
768.845128
 21
1096.569956
  0
LINE
  8
CSLAYER1
  6
CONTINUOUS
 62
     4
 10
766.545128
 20
1108.569956
 11
766.545128
 21
1096.569956
  0
LINE
  8
CSLAYER1
  6
CONTINUOUS
 62
     4
 10
752.845128
 20
1108.569956
 11
752.845128
 21
1103.569956
  0
LINE
  8
CSLAYER1
  6
CONTINUOUS
 62
     4
 10
753.545128
 20
1102.869956
 11
752.845128
 21
1103.569956
  0
LINE
  8
CSLAYER1
  6
CONTINUOUS
 62
     4
 10
763.545128
 20
1108.569956
 11
763.545128
 21
1119.539611
  0
LINE
  8
CSLAYER1
  6
CONTINUOUS
 62
     4
 10
753.545128
 20
1108.569956
 11
753.545128
 21
1118.069956
  0
LINE
  8
CSLAYER1
  6
CONTINUOUS
 62
     4
 10
763.545128
 20
1119.539611
 11
754.393634
 21
1119.539611
  0
LINE
  8
CSLAYER1
  6
CONTINUOUS
 62
     4
 10
763.545128
 20
1114.054784
 11
754.393634
 21
1114.054784
  0
LINE
  8
CSLAYER1
  6
CONTINUOUS
 62
     4
 10
753.545128
 20
1118.069956
 11
754.393634
 21
1119.539611
  0
ARC
  8
CSLAYER1
  6
CONTINUOUS
 62
     4
 10
771.696622
 20
1108.569956
 40
18.151494
 50
162.412046
 51
180.000000
  0
ARC
  8
CSLAYER1
  6
CONTINUOUS
 62
     4
 10
758.394457
 20
1116.797197
 40
4.850507
 50
154.429173
 51
214.796733
  0
LINE
  8
CSLAYER1
  6
CONTINUOUS
 62
     4
 10
763.545128
 20
1119.319956
 11
766.545128
 21
1119.319956
  0
LINE
  8
CSLAYER1
  6
CONTINUOUS
 62
     4
 10
766.545128
 20
1120.569956
 11
768.845128
 21
1120.569956
  0
LINE
  8
CSLAYER1
  6
CONTINUOUS
 62
     4
 10
768.845128
 20
1108.569956
 11
768.845128
 21
1120.569956
  0
LINE
  8
CSLAYER1
  6
CONTINUOUS
 62
     4
 10
766.545128
 20
1108.569956
 11
766.545128
 21
1120.569956
  0
LINE
  8
CSLAYER1
  6
CONTINUOUS
 62
     4
 10
752.845128
 20
1108.569956
 11
752.845128
 21
1113.569956
  0
LINE
  8
CSLAYER1
  6
CONTINUOUS
 62
     4
 10
753.545128
 20
1114.269956
 11
752.845128
 21
1113.569956
  0
LINE
  8
CSLAYER1
  6
CONTINUOUS
 62
     4
 10
768.845128
 20
1108.569956
 11
768.845128
 21
1096.569956
  0
LINE
  8
CSLAYER1
  6
CONTINUOUS
 62
     4
 10
769.345128
 20
1100.069956
 11
768.845128
 21
1100.569956
  0
LINE
  8
CSLAYER1
  6
CONTINUOUS
 62
     4
 10
769.345128
 20
1117.069956
 11
768.845128
 21
1116.569956
  0
LINE
  8
CSLAYER1
  6
CONTINUOUS
 62
     3
 10
790.345128
 20
1083.406880
 11
828.845128
 21
1083.406880
  0
LINE
  8
CSLAYER1
  6
CONTINUOUS
 62
     3
 10
790.345128
 20
1081.161906
 11
828.845128
 21
1081.161906
  0
LINE
  8
CSLAYER1
  6
CONTINUOUS
 62
     3
 10
864.845128
 20
1083.406880
 11
882.345128
 21
1083.406880
  0
LINE
  8
CSLAYER1
  6
CONTINUOUS
 62
     3
 10
864.845128
 20
1081.161906
 11
882.345128
 21
1081.161906
  0
LINE
  8
CSLAYER1
  6
CONTINUOUS
 62
     3
 10
736.345128
 20
862.339082
 11
767.845128
 21
862.339082
  0
LINE
  8
CSLAYER1
  6
CONTINUOUS
 62
     3
 10
904.845128
 20
818.339082
 11
904.845128
 21
862.339082
  0
LINE
  8
CSLAYER1
  6
CONTINUOUS
 62
     3
 10
767.845128
 20
818.339082
 11
767.845128
 21
862.339082
  0
LINE
  8
CSLAYER1
  6
CONTINUOUS
 62
     3
 10
904.845128
 20
862.339082
 11
936.345128
 21
862.339082
  0
LINE
  8
CSLAYER1
  6
CONTINUOUS
 62
     3
 10
913.845128
 20
852.308737
 11
913.845128
 21
830.369427
  0
LINE
  8
CSLAYER1
  6
CONTINUOUS
 62
     3
 10
910.845128
 20
830.589082
 11
913.845128
 21
830.589082
  0
LINE
  8
CSLAYER1
  6
CONTINUOUS
 62
     3
 10
910.845128
 20
852.089082
 11
913.845128
 21
852.089082
  0
LINE
  8
CSLAYER1
  6
CONTINUOUS
 62
     3
 10
910.845128
 20
842.851279
 11
913.845128
 21
839.351279
  0
LINE
  8
CSLAYER1
  6
CONTINUOUS
 62
     3
 10
921.845128
 20
841.339082
 11
921.845128
 21
832.339082
  0
LINE
  8
CSLAYER1
  6
CONTINUOUS
 62
     3
 10
913.845128
 20
835.854255
 11
920.707947
 21
835.854255
  0
LINE
  8
CSLAYER1
  6
CONTINUOUS
 62
     3
 10
913.845128
 20
830.369427
 11
920.707947
 21
830.369427
  0
LINE
  8
CSLAYER1
  6
CONTINUOUS
 62
     3
 10
921.845128
 20
832.339082
 11
920.707947
 21
830.369427
  0
ARC
  8
CSLAYER1
  6
CONTINUOUS
 62
     3
 10
918.065084
 20
833.111841
 40
3.808617
 50
5.661633
 51
46.059028
  0
ARC
  8
CSLAYER1
  6
CONTINUOUS
 62
     3
 10
908.049384
 20
841.339082
 40
13.795744
 50
336.573402
 51
360.000000
  0
LINE
  8
CSLAYER1
  6
CONTINUOUS
 62
     3
 10
921.845128
 20
841.339082
 11
921.845128
 21
850.339082
  0
LINE
  8
CSLAYER1
  6
CONTINUOUS
 62
     3
 10
913.845128
 20
846.823910
 11
920.707947
 21
846.823910
  0
LINE
  8
CSLAYER1
  6
CONTINUOUS
 62
     3
 10
913.845128
 20
852.308737
 11
920.707947
 21
852.308737
  0
LINE
  8
CSLAYER1
  6
CONTINUOUS
 62
     3
 10
921.845128
 20
850.339082
 11
920.707947
 21
852.308737
  0
ARC
  8
CSLAYER1
  6
CONTINUOUS
 62
     3
 10
918.065084
 20
849.566324
 40
3.808617
 50
313.940972
 51
354.338367
  0
ARC
  8
CSLAYER1
  6
CONTINUOUS
 62
     3
 10
908.049384
 20
841.339082
 40
13.795744
 50
-0.000000
 51
23.426598
  0
LINE
  8
CSLAYER1
  6
CENTER
 62
     5
 10
910.845128
 20
841.339082
 11
921.845128
 21
841.339082
  0
LINE
  8
CSLAYER1
  6
CONTINUOUS
 62
     3
 10
836.345128
 20
1440.110683
 11
736.345128
 21
1440.110683
  0
LINE
  8
CSLAYER1
  6
CONTINUOUS
 62
     3
 10
736.345128
 20
1407.810683
 11
836.345128
 21
1407.810683
  0
LINE
  8
CSLAYER1
  6
CONTINUOUS
 62
     4
 10
1406.866599
 20
2027.846645
 11
2234.302302
 21
2027.846645
  0
LINE
  8
CSLAYER1
  6
CONTINUOUS
 62
     4
 10
1406.866599
 20
1927.846645
 11
1406.866599
 21
1827.846645
  0
LINE
  8
CSLAYER1
  6
CONTINUOUS
 62
     4
 10
2234.302302
 20
1927.846645
 11
2234.302302
 21
1827.846645
  0
LINE
  8
CSLAYER1
  6
CONTINUOUS
 62
     3
 10
1454.166599
 20
1787.846645
 11
1454.166599
 21
1827.846645
  0
LINE
  8
CSLAYER1
  6
CONTINUOUS
 62
     3
 10
1414.166599
 20
1777.846645
 11
1444.166599
 21
1777.846645
  0
ARC
  8
CSLAYER1
  6
CONTINUOUS
 62
     3
 10
1444.166599
 20
1787.846645
 40
10.000000
 50
270.000000
 51
360.000000
  0
LINE
  8
CSLAYER1
  6
CENTER
 62
     5
 10
1429.166599
 20
1814.109447
 11
1429.166599
 21
1791.583844
  0
LINE
  8
CSLAYER1
  6
CENTER
 62
     5
 10
1417.903798
 20
1802.846645
 11
1440.429401
 21
1802.846645
  0
LINE
  8
CSLAYER1
  6
CONTINUOUS
 62
     4
 10
1406.866599
 20
1927.846645
 11
1406.866599
 21
1827.846645
  0
LINE
  8
CSLAYER1
  6
CONTINUOUS
 62
     3
 10
1404.166599
 20
1853.346645
 11
1406.866599
 21
1853.346645
  0
LINE
  8
CSLAYER1
  6
CONTINUOUS
 62
     3
 10
1404.166599
 20
1927.846645
 11
1404.166599
 21
1787.846645
  0
CIRCLE
  8
CSLAYER1
  6
CONTINUOUS
 62
     3
 10
1429.166599
 20
1802.846645
 40
6.500000
  0
ARC
  8
CSLAYER1
  6
CONTINUOUS
 62
     3
 10
1414.166599
 20
1787.846645
 40
10.000000
 50
180.000000
 51
270.000000
  0
LINE
  8
CSLAYER1
  6
CONTINUOUS
 62
     4
 10
1406.866599
 20
1827.846645
 11
2234.302302
 21
1827.846645
  0
DIMENSION
  8
CSLAYER1
 62
     3
  2
*D0011
 10
2329.350996
 20
2027.846645
 11
2319.350830
 21
1927.846680
 13
2234.302302
 23
1827.846645
 14
2234.302302
 24
2027.846645
 50
90.000000
 70
1
  0
LINE
  8
CSLAYER1
  6
CONTINUOUS
 62
     3
 10
736.345128
 20
1407.810683
 11
736.345128
 21
1440.110683
  0
LINE
  8
CSLAYER1
  6
CONTINUOUS
 62
     3
 10
936.345128
 20
1407.810683
 11
936.345128
 21
1440.110683
  0
LINE
  8
CSLAYER1
  6
CONTINUOUS
 62
     3
 10
2674.403274
 20
886.039082
 11
2674.403274
 21
918.339082
  0
LINE
  8
CSLAYER1
  6
CONTINUOUS
 62
     3
 10
2874.403274
 20
886.039082
 11
2874.403274
 21
918.339082
  0
LINE
  8
CSLAYER1
  6
CONTINUOUS
 62
     3
 10
2874.403274
 20
886.039082
 11
2774.403274
 21
886.039082
  0
LINE
  8
CSLAYER1
  6
CONTINUOUS
 62
     3
 10
2774.403274
 20
918.339082
 11
2874.403274
 21
918.339082
  0
LINE
  8
CSLAYER1
  6
CONTINUOUS
 62
     5
 10
986.345128
 20
818.339082
 11
1404.166599
 21
818.339082
  0
LINE
  8
CSLAYER1
  6
CONTINUOUS
 62
     3
 10
1404.166599
 20
818.339082
 11
2206.866599
 21
818.339082
  0
LINE
  8
CSLAYER1
  6
CONTINUOUS
 62
     5
 10
2206.866599
 20
818.339082
 11
2624.403274
 21
818.339082
  0
LINE
  8
CSLAYER1
  6
CONTINUOUS
 62
     5
 10
2924.403274
 20
818.339082
 11
3072.267731
 21
818.339082
  0
ENDBLK
  8
0
  0
BLOCK
  8
CSLAYER1
  2
BLKF0001
 70
   64
 10
0.0
 20
0.0
 30
0.0
  0
LINE
  8
CSLAYER1
  6
CONTINUOUS
 62
     5
 10
3462.833157
 20
1487.629431
 11
2582.833157
 21
1487.629431
  0
TEXT
  8
CSLAYER1
 62
     3
 10
3060.216309
 20
1493.279541
 40
40.000000
 41
0.832500
  1
10R4/13
 50
0.000000
 51
0.000000
  7
EASYDRAW_FONT
 72
     5
 11
3282.216309
 21
1493.279541
  0
ENDBLK
  8
0
  0
BLOCK
  8
CSLAYER1
  2
BLKF0002
 70
   64
 10
0.0
 20
0.0
 30
0.0
  0
ARC
  8
CSLAYER1
  6
CONTINUOUS
 62
     5
 10
2878.117548
 20
119.843868
 40
3.549225
 50
6.429109
 51
73.182034
  0
ARC
  8
CSLAYER1
  6
CONTINUOUS
 62
     5
 10
2874.656578
 20
118.685475
 40
6.907754
 50
310.517970
 51
330.092764
  0
ARC
  8
CSLAYER1
  6
CONTINUOUS
 62
     5
 10
2874.595928
 20
119.050993
 40
7.148321
 50
-32.205059
 51
9.585194
  0
ARC
  8
CSLAYER1
  6
CONTINUOUS
 62
     5
 10
2877.888656
 20
116.289995
 40
4.767514
 50
180.000000
 51
218.514150
  0
ARC
  8
CSLAYER1
  6
CONTINUOUS
 62
     5
 10
2876.601935
 20
115.612854
 40
3.348282
 50
222.781148
 51
319.406906
  0
ARC
  8
CSLAYER1
  6
CONTINUOUS
 62
     5
 10
2879.667577
 20
116.702747
 40
6.559434
 50
94.574282
 51
183.607718
  0
LINE
  8
CSLAYER1
  6
CONTINUOUS
 62
     5
 10
2893.111483
 20
111.585915
 11
2892.254447
 21
108.547332
  0
LINE
  8
CSLAYER1
  6
CONTINUOUS
 62
     5
 10
2894.903468
 20
131.453572
 11
2892.799834
 21
134.180505
  0
LINE
  8
CSLAYER1
  6
CONTINUOUS
 62
     5
 10
2892.799834
 20
134.180505
 11
2886.046479
 21
137.938417
  0
LINE
  8
CSLAYER1
  6
CONTINUOUS
 62
     5
 10
2886.046479
 20
137.938417
 11
2879.144452
 21
138.741288
  0
LINE
  8
CSLAYER1
  6
CONTINUOUS
 62
     5
 10
2860.855227
 20
125.362614
 11
2863.001921
 21
130.326845
  0
LINE
  8
CSLAYER1
  6
CONTINUOUS
 62
     5
 10
2862.964924
 20
130.241288
 11
2865.148616
 21
132.876045
  0
LINE
  8
CSLAYER1
  6
CONTINUOUS
 62
     5
 10
2865.148616
 20
132.876045
 11
2868.453038
 21
135.241288
  0
LINE
  8
CSLAYER1
  6
CONTINUOUS
 62
     5
 10
2879.144452
 20
138.741288
 11
2877.626277
 21
137.974444
  0
LINE
  8
CSLAYER1
  6
CONTINUOUS
 62
     5
 10
2877.626277
 20
137.974444
 11
2874.137898
 21
137.974444
  0
LINE
  8
CSLAYER1
  6
CONTINUOUS
 62
     5
 10
2874.137898
 20
137.974444
 11
2870.582436
 21
136.029002
  0
LINE
  8
CSLAYER1
  6
CONTINUOUS
 62
     5
 10
2870.582436
 20
136.029002
 11
2868.453038
 21
135.241288
  0
LINE
  8
CSLAYER1
  6
CONTINUOUS
 62
     5
 10
2860.855227
 20
125.362614
 11
2859.337680
 21
117.814012
  0
LINE
  8
CSLAYER1
  6
CONTINUOUS
 62
     5
 10
2859.337680
 20
117.814012
 11
2859.144452
 21
115.241288
  0
LINE
  8
CSLAYER1
  6
CONTINUOUS
 62
     5
 10
2861.853835
 20
107.401506
 11
2859.144452
 21
113.497617
  0
LINE
  8
CSLAYER1
  6
CONTINUOUS
 62
     5
 10
2859.144452
 20
113.497617
 11
2859.144452
 21
115.241288
  0
LINE
  8
CSLAYER1
  6
CONTINUOUS
 62
     5
 10
2892.254447
 20
108.547332
 11
2890.568660
 21
105.544325
  0
LINE
  8
CSLAYER1
  6
CONTINUOUS
 62
     5
 10
2890.568660
 20
105.544325
 11
2889.144452
 21
104.225615
  0
ARC
  8
CSLAYER1
  6
CONTINUOUS
 62
     5
 10
2876.952508
 20
115.778049
 40
17.266626
 50
208.054813
 51
260.640470
  0
ARC
  8
CSLAYER1
  6
CONTINUOUS
 62
     5
 10
2871.759112
 20
128.520518
 40
29.874611
 50
274.579659
 51
305.587364
  0
ARC
  8
CSLAYER1
  6
CONTINUOUS
 62
     5
 10
2882.731461
 20
122.536796
 40
15.088627
 50
313.467013
 51
331.085078
  0
LINE
  8
CSLAYER1
  6
CONTINUOUS
 62
     5
 10
2897.522793
 20
118.754709
 11
2897.820088
 21
122.536796
  0
LINE
  8
CSLAYER1
  6
CONTINUOUS
 62
     5
 10
2897.820088
 20
122.536796
 11
2896.528090
 21
128.645779
  0
LINE
  8
CSLAYER1
  6
CONTINUOUS
 62
     5
 10
2897.522793
 20
118.754709
 11
2895.939119
 21
115.241288
  0
ARC
  8
CSLAYER1
  6
CONTINUOUS
 62
     5
 10
2882.731461
 20
122.536796
 40
15.088627
 50
23.883193
 51
36.225170
  0
LINE
  8
CSLAYER1
  6
CONTINUOUS
 62
     5
 10
2843.144452
 20
150.241288
 11
2844.144452
 21
151.333932
  0
LINE
  8
CSLAYER1
  6
CONTINUOUS
 62
     5
 10
2843.144452
 20
150.241288
 11
2844.721410
 21
148.796255
  0
LINE
  8
CSLAYER1
  6
CONTINUOUS
 62
     5
 10
2846.260623
 20
146.686963
 11
2846.286891
 21
144.518845
  0
LINE
  8
CSLAYER1
  6
CONTINUOUS
 62
     5
 10
2846.286891
 20
144.518845
 11
2846.494289
 21
143.758385
  0
LINE
  8
CSLAYER1
  6
CONTINUOUS
 62
     5
 10
2846.494289
 20
143.758385
 11
2847.081917
 21
143.032492
  0
LINE
  8
CSLAYER1
  6
CONTINUOUS
 62
     5
 10
2847.081917
 20
143.032492
 11
2847.669544
 21
143.101625
  0
LINE
  8
CSLAYER1
  6
CONTINUOUS
 62
     5
 10
2847.669544
 20
143.101625
 11
2848.291738
 21
143.274457
  0
LINE
  8
CSLAYER1
  6
CONTINUOUS
 62
     5
 10
2848.291738
 20
143.274457
 11
2848.706534
 21
143.101625
  0
LINE
  8
CSLAYER1
  6
CONTINUOUS
 62
     5
 10
2848.706534
 20
143.101625
 11
2849.605259
 21
142.652263
  0
LINE
  8
CSLAYER1
  6
CONTINUOUS
 62
     5
 10
2849.605259
 20
142.652263
 11
2850.381310
 21
142.241288
  0
LINE
  8
CSLAYER1
  6
CONTINUOUS
 62
     5
 10
2850.381310
 20
142.241288
 11
2850.884213
 21
142.272033
  0
LINE
  8
CSLAYER1
  6
CONTINUOUS
 62
     5
 10
2850.884213
 20
142.272033
 11
2853.692085
 21
143.718512
  0
LINE
  8
CSLAYER1
  6
CONTINUOUS
 62
     5
 10
2844.144452
 20
151.333932
 11
2844.477304
 21
152.807640
  0
LINE
  8
CSLAYER1
  6
CONTINUOUS
 62
     5
 10
2844.477304
 20
152.807640
 11
2845.930709
 21
152.957992
  0
LINE
  8
CSLAYER1
  6
CONTINUOUS
 62
     5
 10
2847.424468
 20
155.726451
 11
2849.178641
 21
155.883541
  0
LINE
  8
CSLAYER1
  6
CONTINUOUS
 62
     5
 10
2849.178641
 20
155.883541
 11
2852.713168
 21
156.721355
  0
LINE
  8
CSLAYER1
  6
CONTINUOUS
 62
     5
 10
2852.713168
 20
156.721355
 11
2854.144452
 21
157.052994
  0
LINE
  8
CSLAYER1
  6
CONTINUOUS
 62
     5
 10
2847.424468
 20
155.726451
 11
2845.491577
 21
155.885318
  0
LINE
  8
CSLAYER1
  6
CONTINUOUS
 62
     5
 10
2844.755454
 20
155.016631
 11
2844.848979
 21
154.645470
  0
LINE
  8
CSLAYER1
  6
CONTINUOUS
 62
     5
 10
2844.848979
 20
154.645470
 11
2845.340573
 21
154.107789
  0
LINE
  8
CSLAYER1
  6
CONTINUOUS
 62
     5
 10
2845.340573
 20
154.107789
 11
2846.016515
 21
153.600833
  0
LINE
  8
CSLAYER1
  6
CONTINUOUS
 62
     5
 10
2846.016515
 20
153.600833
 11
2846.139839
 21
153.436400
  0
LINE
  8
CSLAYER1
  6
CONTINUOUS
 62
     5
 10
2844.721410
 20
148.796255
 11
2846.260623
 21
146.686963
  0
ARC
  8
CSLAYER1
  6
CONTINUOUS
 62
     5
 10
2889.131153
 20
-21.417365
 40
180.727463
 50
80.438896
 51
96.353582
  0
ARC
  8
CSLAYER1
  6
CONTINUOUS
 62
     5
 10
2864.232240
 20
123.830536
 40
34.720242
 50
81.866516
 51
106.890578
  0
LINE
  8
CSLAYER1
  6
CONTINUOUS
 62
     5
 10
2923.338713
 20
156.007958
 11
2925.585796
 21
154.986557
  0
LINE
  8
CSLAYER1
  6
CONTINUOUS
 62
     5
 10
2929.160700
 20
153.403385
 11
2925.585796
 21
154.986557
  0
LINE
  8
CSLAYER1
  6
CONTINUOUS
 62
     5
 10
2923.338713
 20
156.007958
 11
2919.144452
 21
156.800530
  0
LINE
  8
CSLAYER1
  6
CONTINUOUS
 62
     5
 10
2929.144452
 20
153.410581
 11
2931.016028
 21
151.842104
  0
LINE
  8
CSLAYER1
  6
CONTINUOUS
 62
     5
 10
2912.387708
 20
154.447432
 11
2913.286983
 21
155.900106
  0
LINE
  8
CSLAYER1
  6
CONTINUOUS
 62
     5
 10
2913.286983
 20
155.900106
 11
2917.962582
 21
154.780597
  0
LINE
  8
CSLAYER1
  6
CONTINUOUS
 62
     5
 10
2917.962582
 20
154.780597
 11
2934.704967
 21
150.241288
  0
LINE
  8
CSLAYER1
  6
CONTINUOUS
 62
     5
 10
2937.644452
 20
150.241288
 11
2931.016028
 21
151.842104
  0
LINE
  8
CSLAYER1
  6
CONTINUOUS
 62
     5
 10
2934.704967
 20
150.241288
 11
2937.644452
 21
150.241288
  0
LINE
  8
CSLAYER1
  6
CONTINUOUS
 62
     5
 10
2879.144452
 20
154.706229
 11
2899.144452
 21
155.241288
  0
LINE
  8
CSLAYER1
  6
CONTINUOUS
 62
     5
 10
2899.144452
 20
155.241288
 11
2912.387708
 21
154.447432
  0
LINE
  8
CSLAYER1
  6
CONTINUOUS
 62
     5
 10
2913.990689
 20
152.386952
 11
2899.144452
 21
153.741288
  0
LINE
  8
CSLAYER1
  6
CONTINUOUS
 62
     5
 10
2899.144452
 20
153.741288
 11
2884.095243
 21
154.149940
  0
LINE
  8
CSLAYER1
  6
CONTINUOUS
 62
     5
 10
2884.144452
 20
154.148604
 11
2879.144452
 21
154.243898
  0
LINE
  8
CSLAYER1
  6
CONTINUOUS
 62
     5
 10
2879.144452
 20
154.706229
 11
2879.144452
 21
154.243898
  0
LINE
  8
CSLAYER1
  6
CONTINUOUS
 62
     5
 10
2936.644452
 20
146.741288
 11
2927.801894
 21
149.051950
  0
LINE
  8
CSLAYER1
  6
CONTINUOUS
 62
     5
 10
2913.990689
 20
152.386952
 11
2924.144452
 21
150.414569
  0
LINE
  8
CSLAYER1
  6
CONTINUOUS
 62
     5
 10
2924.144452
 20
150.414569
 11
2927.801894
 21
149.051950
  0
LINE
  8
CSLAYER1
  6
CONTINUOUS
 62
     5
 10
2936.644452
 20
146.741288
 11
2936.351835
 21
145.902183
  0
LINE
  8
CSLAYER1
  6
CONTINUOUS
 62
     5
 10
2946.144452
 20
141.241288
 11
2945.838425
 21
142.470269
  0
LINE
  8
CSLAYER1
  6
CONTINUOUS
 62
     5
 10
2936.351835
 20
145.902183
 11
2945.838425
 21
142.470269
  0
LINE
  8
CSLAYER1
  6
CONTINUOUS
 62
     5
 10
2882.644452
 20
146.741288
 11
2885.067490
 21
146.741288
  0
LINE
  8
CSLAYER1
  6
CONTINUOUS
 62
     5
 10
2905.144452
 20
147.173784
 11
2905.144452
 21
146.741288
  0
LINE
  8
CSLAYER1
  6
CONTINUOUS
 62
     5
 10
2904.144452
 20
147.708225
 11
2902.433173
 21
148.345403
  0
LINE
  8
CSLAYER1
  6
CONTINUOUS
 62
     5
 10
2902.433173
 20
148.345403
 11
2901.323117
 21
148.395860
  0
LINE
  8
CSLAYER1
  6
CONTINUOUS
 62
     5
 10
2901.323117
 20
148.395860
 11
2900.843775
 21
148.143575
  0
LINE
  8
CSLAYER1
  6
CONTINUOUS
 62
     5
 10
2900.843775
 20
148.143575
 11
2900.742860
 21
147.739918
  0
LINE
  8
CSLAYER1
  6
CONTINUOUS
 62
     5
 10
2900.742860
 20
147.739918
 11
2901.196974
 21
147.437175
  0
LINE
  8
CSLAYER1
  6
CONTINUOUS
 62
     5
 10
2901.196974
 20
147.437175
 11
2902.836830
 21
147.285804
  0
LINE
  8
CSLAYER1
  6
CONTINUOUS
 62
     5
 10
2902.836830
 20
147.285804
 11
2905.144452
 21
147.173784
  0
LINE
  8
CSLAYER1
  6
CONTINUOUS
 62
     5
 10
2946.144452
 20
141.241288
 11
2943.168910
 21
142.427870
  0
LINE
  8
CSLAYER1
  6
CONTINUOUS
 62
     5
 10
2943.168910
 20
142.427870
 11
2933.113220
 21
144.270745
  0
LINE
  8
CSLAYER1
  6
CONTINUOUS
 62
     5
 10
2933.113220
 20
144.270745
 11
2928.087440
 21
145.430540
  0
LINE
  8
CSLAYER1
  6
CONTINUOUS
 62
     5
 10
2905.678673
 20
147.741288
 11
2917.444339
 21
147.741288
  0
LINE
  8
CSLAYER1
  6
CONTINUOUS
 62
     5
 10
2904.144452
 20
147.708225
 11
2904.669112
 21
147.399757
  0
LINE
  8
CSLAYER1
  6
CONTINUOUS
 62
     5
 10
2904.669112
 20
147.399757
 11
2904.965924
 21
147.310714
  0
LINE
  8
CSLAYER1
  6
CONTINUOUS
 62
     5
 10
2904.965924
 20
147.310714
 11
2905.144452
 21
147.335884
  0
LINE
  8
CSLAYER1
  6
CONTINUOUS
 62
     5
 10
2905.144452
 20
147.335884
 11
2905.678673
 21
147.741288
  0
LINE
  8
CSLAYER1
  6
CONTINUOUS
 62
     5
 10
2917.444339
 20
147.741288
 11
2921.894608
 21
146.712463
  0
LINE
  8
CSLAYER1
  6
CONTINUOUS
 62
     5
 10
2921.894608
 20
146.712463
 11
2926.047800
 21
145.547314
  0
LINE
  8
CSLAYER1
  6
CONTINUOUS
 62
     5
 10
2926.047800
 20
145.547314
 11
2928.087440
 21
145.430540
  0
LINE
  8
CSLAYER1
  6
CONTINUOUS
 62
     5
 10
2881.644452
 20
145.741288
 11
2881.644452
 21
145.241288
  0
LINE
  8
CSLAYER1
  6
CONTINUOUS
 62
     5
 10
2879.144452
 20
145.241288
 11
2881.644452
 21
145.241288
  0
ARC
  8
CSLAYER1
  6
CONTINUOUS
 62
     5
 10
2882.644452
 20
145.741288
 40
1.000000
 50
90.000000
 51
180.000000
  0
LINE
  8
CSLAYER1
  6
CONTINUOUS
 62
     5
 10
2885.067490
 20
146.741288
 11
2885.765047
 21
146.169292
  0
LINE
  8
CSLAYER1
  6
CONTINUOUS
 62
     5
 10
2886.367415
 20
146.145331
 11
2887.225012
 21
146.741288
  0
LINE
  8
CSLAYER1
  6
CONTINUOUS
 62
     5
 10
2888.803408
 20
146.741288
 11
2890.470533
 21
146.083212
  0
LINE
  8
CSLAYER1
  6
CONTINUOUS
 62
     5
 10
2890.894242
 20
146.109725
 11
2892.047730
 21
146.741288
  0
LINE
  8
CSLAYER1
  6
CONTINUOUS
 62
     5
 10
2887.225012
 20
146.741288
 11
2888.803408
 21
146.741288
  0
LINE
  8
CSLAYER1
  6
CONTINUOUS
 62
     5
 10
2892.047730
 20
146.741288
 11
2905.144452
 21
146.741288
  0
LINE
  8
CSLAYER1
  6
CONTINUOUS
 62
     5
 10
2857.693435
 20
143.632462
 11
2879.144452
 21
145.241288
  0
LINE
  8
CSLAYER1
  6
CONTINUOUS
 62
     5
 10
2853.692085
 20
143.718512
 11
2857.693435
 21
143.632462
  0
ARC
  8
CSLAYER1
  6
CONTINUOUS
 62
     5
 10
2886.082087
 20
146.555926
 40
0.500000
 50
230.648247
 51
304.796026
  0
ARC
  8
CSLAYER1
  6
CONTINUOUS
 62
     5
 10
2890.654117
 20
146.548290
 40
0.500000
 50
248.459024
 51
298.701829
  0
ARC
  8
CSLAYER1
  6
CONTINUOUS
 62
     5
 10
2845.899839
 20
153.256400
 40
0.300000
 50
-84.093859
 51
36.869898
  0
ARC
  8
CSLAYER1
  6
CONTINUOUS
 62
     5
 10
2845.434236
 20
155.187671
 40
0.700000
 50
85.301319
 51
194.142980
  0
LINE
  8
CSLAYER1
  6
CONTINUOUS
 62
     3
 10
2877.626277
 20
137.974444
 11
2885.736772
 21
137.974444
  0
LINE
  8
CSLAYER1
  6
CONTINUOUS
 62
     3
 10
2871.213760
 20
136.374444
 11
2888.857101
 21
136.374444
  0
LINE
  8
CSLAYER1
  6
CONTINUOUS
 62
     3
 10
2867.800821
 20
134.774444
 11
2891.732465
 21
134.774444
  0
LINE
  8
CSLAYER1
  6
CONTINUOUS
 62
     3
 10
2865.565502
 20
133.174444
 11
2893.575939
 21
133.174444
  0
LINE
  8
CSLAYER1
  6
CONTINUOUS
 62
     3
 10
2864.069846
 20
131.574444
 11
2894.810224
 21
131.574444
  0
LINE
  8
CSLAYER1
  6
CONTINUOUS
 62
     3
 10
2862.849531
 20
129.974444
 11
2895.859601
 21
129.974444
  0
LINE
  8
CSLAYER1
  6
CONTINUOUS
 62
     3
 10
2862.157640
 20
128.374444
 11
2896.585476
 21
128.374444
  0
LINE
  8
CSLAYER1
  6
CONTINUOUS
 62
     3
 10
2861.465748
 20
126.774444
 11
2896.923862
 21
126.774444
  0
LINE
  8
CSLAYER1
  6
CONTINUOUS
 62
     3
 10
2860.817398
 20
125.174444
 11
2897.262248
 21
125.174444
  0
LINE
  8
CSLAYER1
  6
CONTINUOUS
 62
     3
 10
2860.495739
 20
123.574444
 11
2897.600634
 21
123.574444
  0
LINE
  8
CSLAYER1
  6
CONTINUOUS
 62
     3
 10
2860.174080
 20
121.974444
 11
2875.764323
 21
121.974444
  0
LINE
  8
CSLAYER1
  6
CONTINUOUS
 62
     3
 10
2859.852421
 20
120.374444
 11
2874.232062
 21
120.374444
  0
LINE
  8
CSLAYER1
  6
CONTINUOUS
 62
     3
 10
2859.530762
 20
118.774444
 11
2873.443892
 21
118.774444
  0
LINE
  8
CSLAYER1
  6
CONTINUOUS
 62
     3
 10
2859.289644
 20
117.174444
 11
2873.125125
 21
117.174444
  0
LINE
  8
CSLAYER1
  6
CONTINUOUS
 62
     3
 10
2859.169474
 20
115.574444
 11
2873.175146
 21
115.574444
  0
LINE
  8
CSLAYER1
  6
CONTINUOUS
 62
     3
 10
2859.144452
 20
113.974444
 11
2873.721233
 21
113.974444
  0
LINE
  8
CSLAYER1
  6
CONTINUOUS
 62
     3
 10
2859.643640
 20
112.374444
 11
2875.751235
 21
112.374444
  0
LINE
  8
CSLAYER1
  6
CONTINUOUS
 62
     3
 10
2860.354751
 20
110.774444
 11
2892.882607
 21
110.774444
  0
LINE
  8
CSLAYER1
  6
CONTINUOUS
 62
     3
 10
2861.065862
 20
109.174444
 11
2892.431325
 21
109.174444
  0
LINE
  8
CSLAYER1
  6
CONTINUOUS
 62
     3
 10
2861.776974
 20
107.574444
 11
2891.708300
 21
107.574444
  0
LINE
  8
CSLAYER1
  6
CONTINUOUS
 62
     3
 10
2862.738932
 20
105.974444
 11
2890.810114
 21
105.974444
  0
LINE
  8
CSLAYER1
  6
CONTINUOUS
 62
     3
 10
2863.987394
 20
104.374444
 11
2889.305188
 21
104.374444
  0
LINE
  8
CSLAYER1
  6
CONTINUOUS
 62
     3
 10
2865.592814
 20
102.774444
 11
2886.912727
 21
102.774444
  0
LINE
  8
CSLAYER1
  6
CONTINUOUS
 62
     3
 10
2867.739956
 20
101.174444
 11
2883.787604
 21
101.174444
  0
LINE
  8
CSLAYER1
  6
CONTINUOUS
 62
     3
 10
2870.987646
 20
99.574444
 11
2879.149455
 21
99.574444
  0
LINE
  8
CSLAYER1
  6
CONTINUOUS
 62
     3
 10
2880.956147
 20
121.974444
 11
2897.775884
 21
121.974444
  0
LINE
  8
CSLAYER1
  6
CONTINUOUS
 62
     3
 10
2881.626891
 20
120.374444
 11
2897.650114
 21
120.374444
  0
LINE
  8
CSLAYER1
  6
CONTINUOUS
 62
     3
 10
2881.738898
 20
118.774444
 11
2897.524345
 21
118.774444
  0
LINE
  8
CSLAYER1
  6
CONTINUOUS
 62
     3
 10
2881.493541
 20
117.174444
 11
2896.810489
 21
117.174444
  0
LINE
  8
CSLAYER1
  6
CONTINUOUS
 62
     3
 10
2880.841895
 20
115.574444
 11
2896.089289
 21
115.574444
  0
LINE
  8
CSLAYER1
  6
CONTINUOUS
 62
     3
 10
2879.708632
 20
113.974444
 11
2895.155341
 21
113.974444
  0
LINE
  8
CSLAYER1
  6
CONTINUOUS
 62
     3
 10
2877.452635
 20
112.374444
 11
2893.884634
 21
112.374444
  0
TEXT
  8
CSLAYER1
 62
     5
 10
2898.316191
 20
119.985615
 40
4.713448
 41
1.951056
  1
M
 50
0.000000
 51
0.000000
  7
EASYDRAW_FONT
 72
     5
 11
2904.446993
 21
119.985615
  0
TEXT
  8
CSLAYER1
 62
     5
 10
2907.967578
 20
119.927344
 40
4.626621
 41
0.778201
  1
T
 50
0.000000
 51
0.000000
  7
EASYDRAW_FONT
 72
     5
 11
2910.367871
 21
119.927344
  0
TEXT
  8
CSLAYER1
 62
     5
 10
2910.733141
 20
119.962143
 40
4.696183
 41
1.055553
  1
E
 50
0.000000
 51
0.000000
  7
EASYDRAW_FONT
 72
     5
 11
2914.037855
 21
119.962143
  0
TEXT
  8
CSLAYER1
 62
     5
 10
2913.849322
 20
121.577987
 40
0.348283
 41
9.375319
  1
-
 50
0.000000
 51
0.000000
  7
EASYDRAW_FONT
 72
     5
 11
2916.026167
 21
121.577987
  0
TEXT
  8
CSLAYER1
 62
     5
 10
2915.663531
 20
119.930796
 40
4.861659
 41
1.298502
  1
H
 50
0.000000
 51
0.000000
  7
EASYDRAW_FONT
 72
     5
 11
2919.872113
 21
119.930796
  0
TEXT
  8
CSLAYER1
 62
     5
 10
2919.739546
 20
119.961174
 40
4.843139
 41
1.269236
  1
A
 50
0.000000
 51
0.000000
  7
EASYDRAW_FONT
 72
     5
 11
2923.837602
 21
119.961174
  0
TEXT
  8
CSLAYER1
 62
     5
 10
2923.445702
 20
119.919648
 40
4.825362
 41
1.490144
  1
N
 50
0.000000
 51
0.000000
  7
EASYDRAW_FONT
 72
     5
 11
2928.239357
 21
119.919648
  0
TEXT
  8
CSLAYER1
 62
     5
 10
2904.237160
 20
119.897075
 40
4.982325
 41
1.177443
  1
A
 50
0.000000
 51
0.000000
  7
EASYDRAW_FONT
 72
     5
 11
2908.148094
 21
119.897075
  0
TEXT
  8
CSLAYER1
 62
     5
 10
2898.683205
 20
112.901835
 40
4.982325
 41
1.177443
  1
A
 50
0.000000
 51
0.000000
  7
EASYDRAW_FONT
 72
     5
 11
2902.594139
 21
112.901835
  0
TEXT
  8
CSLAYER1
 62
     5
 10
2911.467628
 20
112.930156
 40
4.982325
 41
1.177443
  1
A
 50
0.000000
 51
0.000000
  7
EASYDRAW_FONT
 72
     5
 11
2915.378563
 21
112.930156
  0
TEXT
  8
CSLAYER1
 62
     5
 10
2915.228173
 20
112.987153
 40
4.825362
 41
1.490144
  1
N
 50
0.000000
 51
0.000000
  7
EASYDRAW_FONT
 72
     5
 11
2920.021827
 21
112.987153
  0
TEXT
  8
CSLAYER1
 62
     5
 10
2924.130509
 20
112.995548
 40
4.841775
 41
1.184218
  1
E
 50
0.000000
 51
0.000000
  7
EASYDRAW_FONT
 72
     5
 11
2927.952987
 21
112.995548
  0
TEXT
  8
CSLAYER1
 62
     5
 10
2902.963758
 20
112.900511
 40
4.947865
 41
1.093992
  1
D
 50
0.000000
 51
0.000000
  7
EASYDRAW_FONT
 72
     5
 11
2906.572375
 21
112.900511
  0
TEXT
  8
CSLAYER1
 62
     5
 10
2907.366117
 20
112.895126
 40
4.924210
 41
1.228195
  1
V
 50
0.000000
 51
0.000000
  7
EASYDRAW_FONT
 72
     5
 11
2911.398044
 21
112.895126
  0
TEXT
  8
CSLAYER1
 62
     5
 10
2919.591318
 20
112.915858
 40
5.032894
 41
1.481023
  1
C
 50
0.000000
 51
0.000000
  7
EASYDRAW_FONT
 72
     5
 11
2924.560538
 21
112.915858
  0
LINE
  8
CSLAYER1
  6
CONTINUOUS
 62
     5
 10
2910.221789
 20
123.976260
 11
2909.209727
 21
123.976260
  0
LINE
  8
CSLAYER1
  6
CONTINUOUS
 62
     3
 10
2859.320027
 20
158.201531
 11
2909.117853
 21
158.201531
  0
LINE
  8
CSLAYER1
  6
CONTINUOUS
 62
     3
 10
2852.207663
 20
156.601531
 11
2920.197545
 21
156.601531
  0
LINE
  8
CSLAYER1
  6
CONTINUOUS
 62
     3
 10
2844.759258
 20
155.001531
 11
2890.182569
 21
155.001531
  0
LINE
  8
CSLAYER1
  6
CONTINUOUS
 62
     3
 10
2903.144118
 20
155.001531
 11
2912.730722
 21
155.001531
  0
LINE
  8
CSLAYER1
  6
CONTINUOUS
 62
     3
 10
2917.039856
 20
155.001531
 11
2925.552853
 21
155.001531
  0
LINE
  8
CSLAYER1
  6
CONTINUOUS
 62
     3
 10
2846.162398
 20
153.401531
 11
2902.868867
 21
153.401531
  0
LINE
  8
CSLAYER1
  6
CONTINUOUS
 62
     3
 10
2923.049005
 20
153.401531
 11
2929.155251
 21
153.401531
  0
LINE
  8
CSLAYER1
  6
CONTINUOUS
 62
     3
 10
2844.250064
 20
151.801531
 11
2917.004415
 21
151.801531
  0
LINE
  8
CSLAYER1
  6
CONTINUOUS
 62
     3
 10
2928.950304
 20
151.801531
 11
2931.184026
 21
151.801531
  0
LINE
  8
CSLAYER1
  6
CONTINUOUS
 62
     3
 10
2843.187839
 20
150.201531
 11
2924.716271
 21
150.201531
  0
LINE
  8
CSLAYER1
  6
CONTINUOUS
 62
     3
 10
2844.863506
 20
148.601531
 11
2929.525580
 21
148.601531
  0
LINE
  8
CSLAYER1
  6
CONTINUOUS
 62
     3
 10
2846.031073
 20
147.001531
 11
2905.144452
 21
147.001531
  0
LINE
  8
CSLAYER1
  6
CONTINUOUS
 62
     3
 10
2920.644217
 20
147.001531
 11
2935.648540
 21
147.001531
  0
LINE
  8
CSLAYER1
  6
CONTINUOUS
 62
     3
 10
2846.276197
 20
145.401531
 11
2881.644452
 21
145.401531
  0
LINE
  8
CSLAYER1
  6
CONTINUOUS
 62
     3
 10
2928.213146
 20
145.401531
 11
2937.735749
 21
145.401531
  0
LINE
  8
CSLAYER1
  6
CONTINUOUS
 62
     3
 10
2846.482522
 20
143.801531
 11
2859.947695
 21
143.801531
  0
LINE
  8
CSLAYER1
  6
CONTINUOUS
 62
     3
 10
2935.673495
 20
143.801531
 11
2942.158513
 21
143.801531
  0
LINE
  8
CSLAYER1
  6
CONTINUOUS
 62
     3
 10
2943.736489
 20
142.201531
 11
2945.905343
 21
142.201531
  0
ENDBLK
  8
0
  0
ENDSEC
  0
SECTION
  2
ENTITIES
  0
LINE
  8
CSLAYER1
  6
CONTINUOUS
 62
     3
 10
214.259847
 20
2440.962767
 11
214.259847
 21
92.415837
  0
LINE
  8
CSLAYER1
  6
CONTINUOUS
 62
     3
 10
3536.833157
 20
2440.962767
 11
214.259847
 21
2440.962767
  0
LINE
  8
CSLAYER1
  6
CONTINUOUS
 62
     3
 10
3536.833157
 20
2440.962767
 11
3536.833157
 21
92.415837
  0
LINE
  8
CSLAYER1
  6
CONTINUOUS
 62
     3
 10
3536.833157
 20
92.415837
 11
214.259847
 21
92.415837
  0
LINE
  8
CSLAYER1
  6
CONTINUOUS
 62
     5
 10
164.259847
 20
1252.415837
 11
114.259847
 21
1252.415837
  0
INSERT
  8
CSLAYER1
  2
BLKF0000
 10
0.0
 20
0.0
 30
0.0
  0
LINE
  8
CSLAYER1
  6
CONTINUOUS
 62
     5
 10
3462.833157
 20
2340.962767
 11
2582.833157
 21
2340.962767
  0
LINE
  8
CSLAYER1
  6
CONTINUOUS
 62
     5
 10
3462.833157
 20
2287.629434
 11
2582.833157
 21
2287.629434
  0
LINE
  8
CSLAYER1
  6
CONTINUOUS
 62
     5
 10
3462.833157
 20
2234.296101
 11
2582.833157
 21
2234.296101
  0
LINE
  8
CSLAYER1
  6
CONTINUOUS
 62
     5
 10
3462.833157
 20
2127.629434
 11
2582.833157
 21
2127.629434
  0
LINE
  8
CSLAYER1
  6
CONTINUOUS
 62
     5
 10
3462.833157
 20
2020.962767
 11
2582.833157
 21
2020.962767
  0
LINE
  8
CSLAYER1
  6
CONTINUOUS
 62
     5
 10
3462.833157
 20
1807.629434
 11
2582.833157
 21
1807.629434
  0
LINE
  8
CSLAYER1
  6
CONTINUOUS
 62
     5
 10
3462.833157
 20
1594.296097
 11
2582.833157
 21
1594.296097
  0
LINE
  8
CSLAYER1
  6
CONTINUOUS
 62
     5
 10
3462.833157
 20
1540.962764
 11
2582.833157
 21
1540.962764
  0
TEXT
  8
CSLAYER1
 62
     3
 10
2596.166260
 20
2347.629395
 40
40.000000
 41
0.838235
  1
仕    様
 50
0.000000
 51
0.000000
  7
EASYDRAW_FONT
 72
     5
 11
2786.166260
 21
2347.629395
  0
TEXT
  8
CSLAYER1
 62
     3
 10
2596.166260
 20
2294.296143
 40
40.000000
 41
0.838235
  1
型    式
 50
0.000000
 51
0.000000
  7
EASYDRAW_FONT
 72
     5
 11
2786.166260
 21
2294.296143
  0
TEXT
  8
CSLAYER1
 62
     3
 10
2961.166260
 20
2294.296143
 40
40.000000
 41
0.817105
  1
GLSE-350-2008
 50
0.000000
 51
0.000000
  7
EASYDRAW_FONT
 72
     5
 11
3375.166260
 21
2294.296143
  0
TEXT
  8
CSLAYER1
 62
     3
 10
2596.166260
 20
2240.962891
 40
40.000000
 41
0.859091
  1
均等荷重
 50
0.000000
 51
0.000000
  7
EASYDRAW_FONT
 72
     5
 11
2722.166260
 21
2240.962891
  0
TEXT
  8
CSLAYER1
 62
     3
 10
3387.499512
 20
2240.962891
 40
40.000000
 41
0.930000
  1
ｋｇ
 50
0.000000
 51
0.000000
  7
EASYDRAW_FONT
 72
     5
 11
3449.499512
 21
2240.962891
  0
TEXT
  8
CSLAYER1
 62
     3
 10
2596.166260
 20
2134.296143
 40
40.000000
 41
0.838235
  1
テーブル高サ
 50
0.000000
 51
0.000000
  7
EASYDRAW_FONT
 72
     5
 11
2786.166260
 21
2134.296143
  0
TEXT
  8
CSLAYER1
 62
     3
 10
3387.499512
 20
2134.296143
 40
40.000000
 41
0.930000
  1
ｍｍ
 50
0.000000
 51
0.000000
  7
EASYDRAW_FONT
 72
     5
 11
3449.499512
 21
2134.296143
  0
TEXT
  8
CSLAYER1
 62
     3
 10
2596.166260
 20
2027.629150
 40
40.000000
 41
0.838235
  1
全    長
 50
0.000000
 51
0.000000
  7
EASYDRAW_FONT
 72
     5
 11
2786.166260
 21
2027.629150
  0
TEXT
  8
CSLAYER1
 62
     3
 10
3121.166260
 20
2027.629150
 40
40.000000
 41
0.881250
  1
803
 50
0.000000
 51
0.000000
  7
EASYDRAW_FONT
 72
     5
 11
3215.166260
 21
2027.629150
  0
TEXT
  8
CSLAYER1
 62
     3
 10
3057.166260
 20
1814.295776
 40
40.000000
 41
0.832500
  1
フットスイッチ
 50
0.000000
 51
0.000000
  7
EASYDRAW_FONT
 72
     5
 11
3279.166260
 21
1814.295776
  0
TEXT
  8
CSLAYER1
 62
     3
 10
2596.166260
 20
1814.295776
 40
40.000000
 41
0.859091
  1
操作方式
 50
0.000000
 51
0.000000
  7
EASYDRAW_FONT
 72
     5
 11
2722.166260
 21
1814.295776
  0
TEXT
  8
CSLAYER1
 62
     3
 10
2596.166260
 20
1547.629150
 40
40.000000
 41
0.832500
  1
自     重
 50
0.000000
 51
0.000000
  7
EASYDRAW_FONT
 72
     5
 11
2818.166260
 21
1547.629150
  0
TEXT
  8
CSLAYER1
 62
     3
 10
3111.833008
 20
1547.629150
 40
40.000000
 41
0.859091
  1
約 60
 50
0.000000
 51
0.000000
  7
EASYDRAW_FONT
 72
     5
 11
3237.833008
 21
1547.629150
  0
TEXT
  8
CSLAYER1
 62
     3
 10
2596.166260
 20
1494.295898
 40
40.000000
 41
0.832500
  1
塗  装  色
 50
0.000000
 51
0.000000
  7
EASYDRAW_FONT
 72
     5
 11
2818.166260
 21
1494.295898
  0
TEXT
  8
CSLAYER1
 62
     3
 10
3121.166260
 20
2240.962891
 40
40.000000
 41
0.881250
  1
350
 50
0.000000
 51
0.000000
  7
EASYDRAW_FONT
 72
     5
 11
3215.166260
 21
2240.962891
  0
TEXT
  8
CSLAYER1
 62
     3
 10
3057.166260
 20
2134.296143
 40
40.000000
 41
0.832500
  1
100～600
 50
0.000000
 51
0.000000
  7
EASYDRAW_FONT
 72
     5
 11
3279.166260
 21
2134.296143
  0
TEXT
  8
CSLAYER1
 62
     3
 10
3387.499512
 20
2027.629150
 40
40.000000
 41
0.930000
  1
ｍｍ
 50
0.000000
 51
0.000000
  7
EASYDRAW_FONT
 72
     5
 11
3449.499512
 21
2027.629150
  0
LINE
  8
CSLAYER1
  6
CONTINUOUS
 62
     5
 10
3462.833157
 20
1967.629434
 11
2582.833157
 21
1967.629434
  0
TEXT
  8
CSLAYER1
 62
     3
 10
2596.166260
 20
1974.295776
 40
40.000000
 41
0.838235
  1
全    幅
 50
0.000000
 51
0.000000
  7
EASYDRAW_FONT
 72
     5
 11
2786.166260
 21
1974.295776
  0
TEXT
  8
CSLAYER1
 62
     3
 10
3121.166260
 20
1974.295776
 40
40.000000
 41
0.881250
  1
300
 50
0.000000
 51
0.000000
  7
EASYDRAW_FONT
 72
     5
 11
3215.166260
 21
1974.295776
  0
TEXT
  8
CSLAYER1
 62
     3
 10
3387.499512
 20
1974.295776
 40
40.000000
 41
0.930000
  1
ｍｍ
 50
0.000000
 51
0.000000
  7
EASYDRAW_FONT
 72
     5
 11
3449.499512
 21
1974.295776
  0
LINE
  8
CSLAYER1
  6
CONTINUOUS
 62
     5
 10
3462.833157
 20
1647.629434
 11
2582.833157
 21
1647.629434
  0
TEXT
  8
CSLAYER1
 62
     3
 10
3024.128662
 20
1599.564087
 40
40.000000
 41
0.825000
  1
油圧ユニット別置型
 50
0.000000
 51
0.000000
  7
EASYDRAW_FONT
 72
     5
 11
3310.128662
 21
1599.564087
  0
LINE
  8
CSLAYER1
  6
CONTINUOUS
 62
     5
 10
3462.833157
 20
1594.296101
 11
2582.833157
 21
1594.296101
  0
TEXT
  8
CSLAYER1
 62
     3
 10
3387.499512
 20
1547.629150
 40
40.000000
 41
0.930000
  1
ｋｇ
 50
0.000000
 51
0.000000
  7
EASYDRAW_FONT
 72
     5
 11
3449.499512
 21
1547.629150
  0
LINE
  8
CSLAYER1
  6
CONTINUOUS
 62
     5
 10
3462.833157
 20
2180.962767
 11
2582.833157
 21
2180.962767
  0
TEXT
  8
CSLAYER1
 62
     3
 10
2596.166260
 20
2187.629639
 40
40.000000
 41
0.838235
  1
テーブル寸法
 50
0.000000
 51
0.000000
  7
EASYDRAW_FONT
 72
     5
 11
2786.166260
 21
2187.629639
  0
TEXT
  8
CSLAYER1
 62
     3
 10
3387.499512
 20
2187.629639
 40
40.000000
 41
0.930000
  1
ｍｍ
 50
0.000000
 51
0.000000
  7
EASYDRAW_FONT
 72
     5
 11
3449.499512
 21
2187.629639
  0
TEXT
  8
CSLAYER1
 62
     3
 10
3025.166260
 20
2187.629639
 40
40.000000
 41
0.825000
  1
800L×200W
 50
0.000000
 51
0.000000
  7
EASYDRAW_FONT
 72
     5
 11
3311.166260
 21
2187.629639
  0
LINE
  8
CSLAYER1
  6
CONTINUOUS
 62
     5
 10
3462.833157
 20
2074.296101
 11
2582.833157
 21
2074.296101
  0
TEXT
  8
CSLAYER1
 62
     3
 10
3387.499512
 20
2080.962891
 40
40.000000
 41
0.930000
  1
ｍｍ
 50
0.000000
 51
0.000000
  7
EASYDRAW_FONT
 72
     5
 11
3449.499512
 21
2080.962891
  0
TEXT
  8
CSLAYER1
 62
     3
 10
3121.166260
 20
2080.962891
 40
40.000000
 41
0.881250
  1
500
 50
0.000000
 51
0.000000
  7
EASYDRAW_FONT
 72
     5
 11
3215.166260
 21
2080.962891
  0
TEXT
  8
CSLAYER1
 62
     3
 10
2597.998779
 20
2080.962891
 40
40.000000
 41
0.846429
  1
ストローク
 50
0.000000
 51
0.000000
  7
EASYDRAW_FONT
 72
     5
 11
2755.998779
 21
2080.962891
  0
LINE
  8
CSLAYER1
  6
CONTINUOUS
 62
     5
 10
3462.833157
 20
1914.296101
 11
2582.833157
 21
1914.296101
  0
TEXT
  8
CSLAYER1
 62
     3
 10
2596.166260
 20
1920.962524
 40
40.000000
 41
0.838235
  1
全    高
 50
0.000000
 51
0.000000
  7
EASYDRAW_FONT
 72
     5
 11
2786.166260
 21
1920.962524
  0
TEXT
  8
CSLAYER1
 62
     3
 10
3121.166260
 20
1920.962524
 40
40.000000
 41
0.881250
  1
100
 50
0.000000
 51
0.000000
  7
EASYDRAW_FONT
 72
     5
 11
3215.166260
 21
1920.962524
  0
TEXT
  8
CSLAYER1
 62
     3
 10
3387.499512
 20
1920.962524
 40
40.000000
 41
0.930000
  1
ｍｍ
 50
0.000000
 51
0.000000
  7
EASYDRAW_FONT
 72
     5
 11
3449.499512
 21
1920.962524
  0
LINE
  8
CSLAYER1
  6
CONTINUOUS
 62
     5
 10
3462.833157
 20
1860.962767
 11
2582.833157
 21
1860.962767
  0
TEXT
  8
CSLAYER1
 62
     3
 10
2596.166260
 20
1867.629150
 40
40.000000
 41
0.846429
  1
リフト方式
 50
0.000000
 51
0.000000
  7
EASYDRAW_FONT
 72
     5
 11
2754.166260
 21
1867.629150
  0
TEXT
  8
CSLAYER1
 62
     3
 10
3089.166260
 20
1867.629150
 40
40.000000
 41
0.846429
  1
電動油圧式
 50
0.000000
 51
0.000000
  7
EASYDRAW_FONT
 72
     5
 11
3247.166260
 21
1867.629150
  0
LINE
  8
CSLAYER1
  6
CONTINUOUS
 62
     5
 10
3462.833157
 20
1700.962767
 11
2582.833157
 21
1700.962767
  0
TEXT
  8
CSLAYER1
 62
     3
 10
3089.166260
 20
1707.629028
 40
40.000000
 41
0.846429
  1
長さ 4m
 50
0.000000
 51
0.000000
  7
EASYDRAW_FONT
 72
     5
 11
3247.166260
 21
1707.629028
  0
TEXT
  8
CSLAYER1
 62
     3
 10
2596.166260
 20
1707.629028
 40
40.000000
 41
0.846429
  1
電源コード
 50
0.000000
 51
0.000000
  7
EASYDRAW_FONT
 72
     5
 11
2754.166260
 21
1707.629028
  0
TEXT
  8
CSLAYER1
 62
     3
 10
2596.166260
 20
1654.295776
 40
40.000000
 41
0.859091
  1
上昇時間
 50
0.000000
 51
0.000000
  7
EASYDRAW_FONT
 72
     5
 11
2722.166260
 21
1654.295776
  0
TEXT
  8
CSLAYER1
 62
     3
 10
2895.166280
 20
1654.295776
 40
40.000000
 41
0.660484
  1
約10sec/50Hz，8sec/60Hz
 50
0.000000
 51
0.000000
  7
EASYDRAW_FONT
 72
     5
 11
3441.166240
 21
1654.295776
  0
LINE
  8
CSLAYER1
  6
CONTINUOUS
 62
     5
 10
3462.833157
 20
1754.296101
 11
2582.833157
 21
1754.296101
  0
TEXT
  8
CSLAYER1
 62
     3
 10
2596.166260
 20
1760.962524
 40
40.000000
 41
0.859091
  1
モーター
 50
0.000000
 51
0.000000
  7
EASYDRAW_FONT
 72
     5
 11
2722.166260
 21
1760.962524
  0
TEXT
  8
CSLAYER1
 62
     3
 10
2929.166260
 20
1760.962524
 40
40.000000
 41
0.814773
  1
AC200V，三相，0.4kw
 50
0.000000
 51
0.000000
  7
EASYDRAW_FONT
 72
     5
 11
3407.166260
 21
1760.962524
  0
LINE
  8
CSLAYER1
  6
CONTINUOUS
 62
     5
 10
2886.833157
 20
1487.629431
 11
2886.833157
 21
1594.296097
  0
LINE
  8
CSLAYER1
  6
CONTINUOUS
 62
     5
 10
2886.833157
 20
1647.629434
 11
2886.833157
 21
2340.962767
  0
TEXT
  8
CSLAYER1
 62
     7
 10
500.309631
 20
2337.348877
 40
34.000000
 41
0.778846
  1
電動式油圧ユニット
 50
0.000000
 51
0.000000
  7
EASYDRAW_FONT
 72
     5
 11
729.809631
 21
2337.348877
  0
LINE
  8
CSLAYER1
  6
CONTINUOUS
 62
     5
 10
264.259847
 20
2390.962767
 11
982.451628
 21
2390.962767
  0
LINE
  8
CSLAYER1
  6
CONTINUOUS
 62
     5
 10
982.451628
 20
2390.962767
 11
982.451628
 21
1689.828497
  0
LINE
  8
CSLAYER1
  6
CONTINUOUS
 62
     5
 10
264.259847
 20
1689.828497
 11
264.259847
 21
2390.962767
  0
TEXT
  8
CSLAYER1
 62
     3
 10
401.317284
 20
2230.953473
 40
33.963734
 41
1.050000
  1
278
 50
30.000000
 51
0.000000
  7
EASYDRAW_FONT
 72
     5
 11
483.674959
 21
2278.502699
  0
TEXT
  8
CSLAYER1
 62
     3
 10
547.393278
 20
2265.046156
 40
33.963734
 41
1.050000
  1
415
 50
-30.000000
 51
0.000000
  7
EASYDRAW_FONT
 72
     5
 11
629.750953
 21
2217.496930
  0
TEXT
  8
CSLAYER1
 62
     3
 10
337.004877
 20
2098.404632
 40
33.963734
 41
1.050000
  1
275
 50
90.000000
 51
0.000000
  7
EASYDRAW_FONT
 72
     5
 11
337.004877
 21
2193.503083
  0
LINE
  8
CSLAYER1
  6
CONTINUOUS
 62
     5
 10
347.847313
 20
2190.960181
 11
385.207419
 21
2169.390313
  0
LINE
  8
CSLAYER1
  6
CONTINUOUS
 62
     5
 10
388.603793
 20
2214.490946
 11
388.603793
 21
2171.351210
  0
LINE
  8
CSLAYER1
  6
CONTINUOUS
 62
     5
 10
646.728166
 20
2202.725563
 11
646.728166
 21
2159.585828
  0
LINE
  8
CSLAYER1
  6
CONTINUOUS
 62
     5
 10
388.603793
 20
2206.647357
 11
507.476859
 21
2275.278754
  0
LINE
  8
CSLAYER1
  6
CONTINUOUS
 62
     5
 10
388.603793
 20
2206.647357
 11
409.816996
 21
2227.860561
  0
LINE
  8
CSLAYER1
  6
CONTINUOUS
 62
     5
 10
388.603793
 20
2206.647357
 11
417.581567
 21
2214.411929
  0
LINE
  8
CSLAYER1
  6
CONTINUOUS
 62
     5
 10
507.476859
 20
2275.278754
 11
486.263656
 21
2254.065551
  0
LINE
  8
CSLAYER1
  6
CONTINUOUS
 62
     5
 10
507.476859
 20
2275.278754
 11
478.499084
 21
2267.514183
  0
LINE
  8
CSLAYER1
  6
CONTINUOUS
 62
     5
 10
507.476859
 20
2275.278754
 11
646.728166
 21
2194.881975
  0
LINE
  8
CSLAYER1
  6
CONTINUOUS
 62
     5
 10
507.476859
 20
2275.278754
 11
536.454634
 21
2267.514183
  0
LINE
  8
CSLAYER1
  6
CONTINUOUS
 62
     5
 10
507.476859
 20
2275.278754
 11
528.690063
 21
2254.065551
  0
LINE
  8
CSLAYER1
  6
CONTINUOUS
 62
     5
 10
646.728166
 20
2194.881975
 11
617.750391
 21
2202.646546
  0
LINE
  8
CSLAYER1
  6
CONTINUOUS
 62
     5
 10
646.728166
 20
2194.881975
 11
625.514962
 21
2216.095178
  0
LINE
  8
CSLAYER1
  6
CONTINUOUS
 62
     5
 10
507.476859
 20
2283.122343
 11
507.476859
 21
2239.982607
  0
LINE
  8
CSLAYER1
  6
CONTINUOUS
 62
     5
 10
354.640059
 20
2187.038387
 11
354.640059
 21
2088.993534
  0
LINE
  8
CSLAYER1
  6
CONTINUOUS
 62
     5
 10
354.640059
 20
2187.038387
 11
346.875488
 21
2158.060612
  0
LINE
  8
CSLAYER1
  6
CONTINUOUS
 62
     5
 10
354.640059
 20
2187.038387
 11
362.404631
 21
2158.060612
  0
LINE
  8
CSLAYER1
  6
CONTINUOUS
 62
     5
 10
354.640059
 20
2088.993534
 11
346.875488
 21
2117.971309
  0
LINE
  8
CSLAYER1
  6
CONTINUOUS
 62
     5
 10
354.640059
 20
2088.993534
 11
362.404631
 21
2117.971309
  0
TEXT
  8
CSLAYER1
 62
     3
 10
763.242474
 20
2171.537420
 40
33.963734
 41
1.028571
  1
高圧ホース
 50
0.000000
 51
0.000000
  7
EASYDRAW_FONT
 72
     5
 11
926.268391
 21
2171.537420
  0
TEXT
  8
CSLAYER1
 62
     3
 10
318.540081
 20
1962.225653
 40
33.963734
 41
1.028571
  1
電源コード
 50
0.000000
 51
0.000000
  7
EASYDRAW_FONT
 72
     5
 11
481.565998
 21
1962.225653
  0
LINE
  8
CSLAYER1
  6
CONTINUOUS
 62
     5
 10
677.934471
 20
2037.492906
 11
751.318986
 21
2164.598614
  0
LINE
  8
CSLAYER1
  6
CONTINUOUS
 62
     5
 10
677.934471
 20
2037.492906
 11
685.699042
 21
2066.470680
  0
LINE
  8
CSLAYER1
  6
CONTINUOUS
 62
     5
 10
677.934471
 20
2037.492906
 11
699.147674
 21
2058.706109
  0
LINE
  8
CSLAYER1
  6
CONTINUOUS
 62
     5
 10
938.926281
 20
2164.598614
 11
751.318986
 21
2164.598614
  0
LINE
  8
CSLAYER1
  6
CONTINUOUS
 62
     5
 10
320.697385
 20
1955.909199
 11
485.378493
 21
1955.909199
  0
LINE
  8
CSLAYER1
  6
CONTINUOUS
 62
     3
 10
527.855099
 20
1988.987784
 11
562.837745
 21
2009.185024
  0
LINE
  8
CSLAYER1
  6
CONTINUOUS
 62
     3
 10
388.603793
 20
2069.384563
 11
397.094726
 21
2064.482321
  0
LINE
  8
CSLAYER1
  6
CONTINUOUS
 62
     3
 10
527.855099
 20
2087.032637
 11
527.855099
 21
1988.987784
  0
LINE
  8
CSLAYER1
  6
CONTINUOUS
 62
     3
 10
527.855099
 20
2087.032637
 11
646.728166
 21
2155.664034
  0
LINE
  8
CSLAYER1
  6
CONTINUOUS
 62
     3
 10
507.476859
 20
2236.060813
 11
646.728166
 21
2155.664034
  0
LINE
  8
CSLAYER1
  6
CONTINUOUS
 62
     3
 10
527.855099
 20
2008.596755
 11
545.855878
 21
2018.989509
  0
LINE
  8
CSLAYER1
  6
CONTINUOUS
 62
     3
 10
611.378014
 20
2097.637572
 11
646.728166
 21
2077.228152
  0
LINE
  8
CSLAYER1
  6
CONTINUOUS
 62
     3
 10
519.364166
 20
1993.890027
 11
527.855099
 21
1988.987784
  0
LINE
  8
CSLAYER1
  6
CONTINUOUS
 62
     3
 10
609.368059
 20
2099.190199
 11
608.140048
 21
2099.779802
  0
LINE
  8
CSLAYER1
  6
CONTINUOUS
 62
     3
 10
608.140048
 20
2099.779802
 11
606.817989
 21
2100.185835
  0
LINE
  8
CSLAYER1
  6
CONTINUOUS
 62
     3
 10
606.817989
 20
2100.185835
 11
605.411944
 21
2100.405208
  0
LINE
  8
CSLAYER1
  6
CONTINUOUS
 62
     3
 10
605.411944
 20
2100.405208
 11
603.932613
 21
2100.436250
  0
LINE
  8
CSLAYER1
  6
CONTINUOUS
 62
     3
 10
603.932613
 20
2100.436250
 11
602.391256
 21
2100.278725
  0
LINE
  8
CSLAYER1
  6
CONTINUOUS
 62
     3
 10
602.391256
 20
2100.278725
 11
600.799602
 21
2099.933833
  0
LINE
  8
CSLAYER1
  6
CONTINUOUS
 62
     3
 10
600.799602
 20
2099.933833
 11
599.169766
 21
2099.404198
  0
LINE
  8
CSLAYER1
  6
CONTINUOUS
 62
     3
 10
599.169766
 20
2099.404198
 11
597.514151
 21
2098.693851
  0
LINE
  8
CSLAYER1
  6
CONTINUOUS
 62
     3
 10
597.514151
 20
2098.693851
 11
595.845358
 21
2097.808199
  0
LINE
  8
CSLAYER1
  6
CONTINUOUS
 62
     3
 10
595.845358
 20
2097.808199
 11
594.176087
 21
2096.753980
  0
LINE
  8
CSLAYER1
  6
CONTINUOUS
 62
     3
 10
594.176087
 20
2096.753980
 11
592.519042
 21
2095.539220
  0
LINE
  8
CSLAYER1
  6
CONTINUOUS
 62
     3
 10
592.519042
 20
2095.539220
 11
590.886834
 21
2094.173162
  0
LINE
  8
CSLAYER1
  6
CONTINUOUS
 62
     3
 10
590.886834
 20
2094.173162
 11
589.291886
 21
2092.666204
  0
LINE
  8
CSLAYER1
  6
CONTINUOUS
 62
     3
 10
589.291886
 20
2092.666204
 11
587.746336
 21
2091.029814
  0
LINE
  8
CSLAYER1
  6
CONTINUOUS
 62
     3
 10
587.746336
 20
2091.029814
 11
586.261947
 21
2089.276446
  0
LINE
  8
CSLAYER1
  6
CONTINUOUS
 62
     3
 10
586.261947
 20
2089.276446
 11
584.850015
 21
2087.419444
  0
LINE
  8
CSLAYER1
  6
CONTINUOUS
 62
     3
 10
584.850015
 20
2087.419444
 11
583.521287
 21
2085.472942
  0
LINE
  8
CSLAYER1
  6
CONTINUOUS
 62
     3
 10
583.521287
 20
2085.472942
 11
582.285874
 21
2083.451753
  0
LINE
  8
CSLAYER1
  6
CONTINUOUS
 62
     3
 10
582.285874
 20
2083.451753
 11
581.153179
 21
2081.371259
  0
LINE
  8
CSLAYER1
  6
CONTINUOUS
 62
     3
 10
581.153179
 20
2081.371259
 11
580.131823
 21
2079.247296
  0
LINE
  8
CSLAYER1
  6
CONTINUOUS
 62
     3
 10
580.131823
 20
2079.247296
 11
579.229578
 21
2077.096026
  0
LINE
  8
CSLAYER1
  6
CONTINUOUS
 62
     3
 10
579.229578
 20
2077.096026
 11
578.453312
 21
2074.933823
  0
LINE
  8
CSLAYER1
  6
CONTINUOUS
 62
     3
 10
578.453312
 20
2074.933823
 11
577.808931
 21
2072.777142
  0
LINE
  8
CSLAYER1
  6
CONTINUOUS
 62
     3
 10
577.808931
 20
2072.777142
 11
577.301341
 21
2070.642398
  0
LINE
  8
CSLAYER1
  6
CONTINUOUS
 62
     3
 10
577.301341
 20
2070.642398
 11
576.934404
 21
2068.545836
  0
LINE
  8
CSLAYER1
  6
CONTINUOUS
 62
     3
 10
576.934404
 20
2068.545836
 11
576.710913
 21
2066.503412
  0
LINE
  8
CSLAYER1
  6
CONTINUOUS
 62
     3
 10
576.710913
 20
2066.503412
 11
576.632569
 21
2064.530672
  0
LINE
  8
CSLAYER1
  6
CONTINUOUS
 62
     3
 10
576.632569
 20
2064.530672
 11
576.699968
 21
2062.642628
  0
LINE
  8
CSLAYER1
  6
CONTINUOUS
 62
     3
 10
576.699968
 20
2062.642628
 11
576.912597
 21
2060.853650
  0
LINE
  8
CSLAYER1
  6
CONTINUOUS
 62
     3
 10
576.912597
 20
2060.853650
 11
577.268837
 21
2059.177353
  0
LINE
  8
CSLAYER1
  6
CONTINUOUS
 62
     3
 10
577.268837
 20
2059.177353
 11
577.765979
 21
2057.626495
  0
LINE
  8
CSLAYER1
  6
CONTINUOUS
 62
     3
 10
577.765979
 20
2057.626495
 11
578.400238
 21
2056.212878
  0
LINE
  8
CSLAYER1
  6
CONTINUOUS
 62
     3
 10
578.400238
 20
2056.212878
 11
579.166786
 21
2054.947261
  0
LINE
  8
CSLAYER1
  6
CONTINUOUS
 62
     3
 10
579.166786
 20
2054.947261
 11
580.059791
 21
2053.839276
  0
LINE
  8
CSLAYER1
  6
CONTINUOUS
 62
     3
 10
581.072455
 20
2052.897356
 11
582.197073
 21
2052.128669
  0
LINE
  8
CSLAYER1
  6
CONTINUOUS
 62
     3
 10
582.197073
 20
2052.128669
 11
583.425084
 21
2051.539066
  0
LINE
  8
CSLAYER1
  6
CONTINUOUS
 62
     3
 10
583.425084
 20
2051.539066
 11
584.747143
 21
2051.133032
  0
LINE
  8
CSLAYER1
  6
CONTINUOUS
 62
     3
 10
584.747143
 20
2051.133032
 11
586.153188
 21
2050.913660
  0
LINE
  8
CSLAYER1
  6
CONTINUOUS
 62
     3
 10
586.153188
 20
2050.913660
 11
587.632519
 21
2050.882618
  0
LINE
  8
CSLAYER1
  6
CONTINUOUS
 62
     3
 10
587.632519
 20
2050.882618
 11
589.173876
 21
2051.040142
  0
LINE
  8
CSLAYER1
  6
CONTINUOUS
 62
     3
 10
589.173876
 20
2051.040142
 11
590.765530
 21
2051.385034
  0
LINE
  8
CSLAYER1
  6
CONTINUOUS
 62
     3
 10
590.765530
 20
2051.385034
 11
592.395366
 21
2051.914669
  0
LINE
  8
CSLAYER1
  6
CONTINUOUS
 62
     3
 10
592.395366
 20
2051.914669
 11
594.050981
 21
2052.625016
  0
LINE
  8
CSLAYER1
  6
CONTINUOUS
 62
     3
 10
594.050981
 20
2052.625016
 11
595.719774
 21
2053.510669
  0
LINE
  8
CSLAYER1
  6
CONTINUOUS
 62
     3
 10
595.719774
 20
2053.510669
 11
597.389045
 21
2054.564887
  0
LINE
  8
CSLAYER1
  6
CONTINUOUS
 62
     3
 10
597.389045
 20
2054.564887
 11
599.046090
 21
2055.779648
  0
LINE
  8
CSLAYER1
  6
CONTINUOUS
 62
     3
 10
599.046090
 20
2055.779648
 11
600.678298
 21
2057.145705
  0
LINE
  8
CSLAYER1
  6
CONTINUOUS
 62
     3
 10
600.678298
 20
2057.145705
 11
602.273246
 21
2058.652664
  0
LINE
  8
CSLAYER1
  6
CONTINUOUS
 62
     3
 10
602.273246
 20
2058.652664
 11
603.818796
 21
2060.289054
  0
LINE
  8
CSLAYER1
  6
CONTINUOUS
 62
     3
 10
603.818796
 20
2060.289054
 11
605.303185
 21
2062.042422
  0
LINE
  8
CSLAYER1
  6
CONTINUOUS
 62
     3
 10
605.303185
 20
2062.042422
 11
606.715117
 21
2063.899423
  0
LINE
  8
CSLAYER1
  6
CONTINUOUS
 62
     3
 10
606.715117
 20
2063.899423
 11
608.043845
 21
2065.845926
  0
LINE
  8
CSLAYER1
  6
CONTINUOUS
 62
     3
 10
608.043845
 20
2065.845926
 11
609.279258
 21
2067.867115
  0
LINE
  8
CSLAYER1
  6
CONTINUOUS
 62
     3
 10
609.279258
 20
2067.867115
 11
610.411953
 21
2069.947608
  0
LINE
  8
CSLAYER1
  6
CONTINUOUS
 62
     3
 10
610.411953
 20
2069.947608
 11
611.433309
 21
2072.071572
  0
LINE
  8
CSLAYER1
  6
CONTINUOUS
 62
     3
 10
611.433309
 20
2072.071572
 11
612.335554
 21
2074.222842
  0
LINE
  8
CSLAYER1
  6
CONTINUOUS
 62
     3
 10
612.335554
 20
2074.222842
 11
613.111820
 21
2076.385045
  0
LINE
  8
CSLAYER1
  6
CONTINUOUS
 62
     3
 10
613.111820
 20
2076.385045
 11
613.756201
 21
2078.541726
  0
LINE
  8
CSLAYER1
  6
CONTINUOUS
 62
     3
 10
613.756201
 20
2078.541726
 11
614.263791
 21
2080.676470
  0
LINE
  8
CSLAYER1
  6
CONTINUOUS
 62
     3
 10
614.263791
 20
2080.676470
 11
614.630728
 21
2082.773032
  0
LINE
  8
CSLAYER1
  6
CONTINUOUS
 62
     3
 10
614.630728
 20
2082.773032
 11
614.854219
 21
2084.815455
  0
LINE
  8
CSLAYER1
  6
CONTINUOUS
 62
     3
 10
614.854219
 20
2084.815455
 11
614.932563
 21
2086.788196
  0
LINE
  8
CSLAYER1
  6
CONTINUOUS
 62
     3
 10
614.932563
 20
2086.788196
 11
614.865164
 21
2088.676239
  0
LINE
  8
CSLAYER1
  6
CONTINUOUS
 62
     3
 10
614.865164
 20
2088.676239
 11
614.652535
 21
2090.465217
  0
LINE
  8
CSLAYER1
  6
CONTINUOUS
 62
     3
 10
614.652535
 20
2090.465217
 11
614.296294
 21
2092.141514
  0
LINE
  8
CSLAYER1
  6
CONTINUOUS
 62
     3
 10
614.296294
 20
2092.141514
 11
613.799153
 21
2093.692373
  0
LINE
  8
CSLAYER1
  6
CONTINUOUS
 62
     3
 10
613.799153
 20
2093.692373
 11
613.164894
 21
2095.105990
  0
LINE
  8
CSLAYER1
  6
CONTINUOUS
 62
     3
 10
613.164894
 20
2095.105990
 11
612.398346
 21
2096.371607
  0
LINE
  8
CSLAYER1
  6
CONTINUOUS
 62
     3
 10
612.398346
 20
2096.371607
 11
611.505341
 21
2097.479591
  0
LINE
  8
CSLAYER1
  6
CONTINUOUS
 62
     3
 10
611.505341
 20
2097.479591
 11
610.492677
 21
2098.421512
  0
LINE
  8
CSLAYER1
  6
CONTINUOUS
 62
     3
 10
610.492677
 20
2098.421512
 11
609.368059
 21
2099.190199
  0
LINE
  8
CSLAYER1
  6
CONTINUOUS
 62
     3
 10
527.855099
 20
2083.503022
 11
582.197073
 21
2052.128669
  0
LINE
  8
CSLAYER1
  6
CONTINUOUS
 62
     3
 10
579.140337
 20
2116.642182
 11
609.368059
 21
2099.190199
  0
LINE
  8
CSLAYER1
  6
CONTINUOUS
 62
     3
 10
397.094726
 20
2064.482321
 11
414.076593
 21
2074.286806
  0
LINE
  8
CSLAYER1
  6
CONTINUOUS
 62
     3
 10
388.603793
 20
2069.384563
 11
405.585659
 21
2079.189049
  0
LINE
  8
CSLAYER1
  6
CONTINUOUS
 62
     3
 10
600.877126
 20
2084.483471
 11
600.416622
 21
2084.704572
  0
LINE
  8
CSLAYER1
  6
CONTINUOUS
 62
     3
 10
600.416622
 20
2084.704572
 11
599.920850
 21
2084.856834
  0
LINE
  8
CSLAYER1
  6
CONTINUOUS
 62
     3
 10
599.920850
 20
2084.856834
 11
599.393583
 21
2084.939099
  0
LINE
  8
CSLAYER1
  6
CONTINUOUS
 62
     3
 10
599.393583
 20
2084.939099
 11
598.838834
 21
2084.950740
  0
LINE
  8
CSLAYER1
  6
CONTINUOUS
 62
     3
 10
598.838834
 20
2084.950740
 11
598.260825
 21
2084.891668
  0
LINE
  8
CSLAYER1
  6
CONTINUOUS
 62
     3
 10
598.260825
 20
2084.891668
 11
597.663955
 21
2084.762334
  0
LINE
  8
CSLAYER1
  6
CONTINUOUS
 62
     3
 10
597.663955
 20
2084.762334
 11
597.052766
 21
2084.563721
  0
LINE
  8
CSLAYER1
  6
CONTINUOUS
 62
     3
 10
597.052766
 20
2084.563721
 11
596.431910
 21
2084.297340
  0
LINE
  8
CSLAYER1
  6
CONTINUOUS
 62
     3
 10
596.431910
 20
2084.297340
 11
595.806113
 21
2083.965221
  0
LINE
  8
CSLAYER1
  6
CONTINUOUS
 62
     3
 10
595.806113
 20
2083.965221
 11
595.180136
 21
2083.569889
  0
LINE
  8
CSLAYER1
  6
CONTINUOUS
 62
     3
 10
595.180136
 20
2083.569889
 11
594.558744
 21
2083.114354
  0
LINE
  8
CSLAYER1
  6
CONTINUOUS
 62
     3
 10
594.558744
 20
2083.114354
 11
593.946667
 21
2082.602082
  0
LINE
  8
CSLAYER1
  6
CONTINUOUS
 62
     3
 10
593.946667
 20
2082.602082
 11
593.348561
 21
2082.036973
  0
LINE
  8
CSLAYER1
  6
CONTINUOUS
 62
     3
 10
593.348561
 20
2082.036973
 11
592.768980
 21
2081.423326
  0
LINE
  8
CSLAYER1
  6
CONTINUOUS
 62
     3
 10
592.768980
 20
2081.423326
 11
592.212334
 21
2080.765813
  0
LINE
  8
CSLAYER1
  6
CONTINUOUS
 62
     3
 10
592.212334
 20
2080.765813
 11
591.682859
 21
2080.069438
  0
LINE
  8
CSLAYER1
  6
CONTINUOUS
 62
     3
 10
591.682859
 20
2080.069438
 11
591.184586
 21
2079.339499
  0
LINE
  8
CSLAYER1
  6
CONTINUOUS
 62
     3
 10
591.184586
 20
2079.339499
 11
590.721306
 21
2078.581553
  0
LINE
  8
CSLAYER1
  6
CONTINUOUS
 62
     3
 10
590.721306
 20
2078.581553
 11
590.296546
 21
2077.801368
  0
LINE
  8
CSLAYER1
  6
CONTINUOUS
 62
     3
 10
590.296546
 20
2077.801368
 11
589.913537
 21
2077.004882
  0
LINE
  8
CSLAYER1
  6
CONTINUOUS
 62
     3
 10
589.913537
 20
2077.004882
 11
589.575195
 21
2076.198156
  0
LINE
  8
CSLAYER1
  6
CONTINUOUS
 62
     3
 10
589.575195
 20
2076.198156
 11
589.284096
 21
2075.387330
  0
LINE
  8
CSLAYER1
  6
CONTINUOUS
 62
     3
 10
589.284096
 20
2075.387330
 11
589.042453
 21
2074.578575
  0
LINE
  8
CSLAYER1
  6
CONTINUOUS
 62
     3
 10
589.042453
 20
2074.578575
 11
588.852107
 21
2073.778045
  0
LINE
  8
CSLAYER1
  6
CONTINUOUS
 62
     3
 10
588.852107
 20
2073.778045
 11
588.714505
 21
2072.991835
  0
LINE
  8
CSLAYER1
  6
CONTINUOUS
 62
     3
 10
588.714505
 20
2072.991835
 11
588.630696
 21
2072.225926
  0
LINE
  8
CSLAYER1
  6
CONTINUOUS
 62
     3
 10
588.630696
 20
2072.225926
 11
588.601317
 21
2071.486148
  0
LINE
  8
CSLAYER1
  6
CONTINUOUS
 62
     3
 10
588.601317
 20
2071.486148
 11
588.626592
 21
2070.778132
  0
LINE
  8
CSLAYER1
  6
CONTINUOUS
 62
     3
 10
588.626592
 20
2070.778132
 11
588.706327
 21
2070.107265
  0
LINE
  8
CSLAYER1
  6
CONTINUOUS
 62
     3
 10
588.706327
 20
2070.107265
 11
588.839918
 21
2069.478654
  0
LINE
  8
CSLAYER1
  6
CONTINUOUS
 62
     3
 10
588.839918
 20
2069.478654
 11
589.026346
 21
2068.897082
  0
LINE
  8
CSLAYER1
  6
CONTINUOUS
 62
     3
 10
589.026346
 20
2068.897082
 11
589.264193
 21
2068.366975
  0
LINE
  8
CSLAYER1
  6
CONTINUOUS
 62
     3
 10
589.264193
 20
2068.366975
 11
589.551648
 21
2067.892369
  0
LINE
  8
CSLAYER1
  6
CONTINUOUS
 62
     3
 10
589.551648
 20
2067.892369
 11
589.886525
 21
2067.476875
  0
LINE
  8
CSLAYER1
  6
CONTINUOUS
 62
     3
 10
589.886525
 20
2067.476875
 11
590.266274
 21
2067.123655
  0
LINE
  8
CSLAYER1
  6
CONTINUOUS
 62
     3
 10
590.266274
 20
2067.123655
 11
590.688006
 21
2066.835397
  0
LINE
  8
CSLAYER1
  6
CONTINUOUS
 62
     3
 10
590.688006
 20
2066.835397
 11
591.148510
 21
2066.614296
  0
LINE
  8
CSLAYER1
  6
CONTINUOUS
 62
     3
 10
591.148510
 20
2066.614296
 11
591.644282
 21
2066.462033
  0
LINE
  8
CSLAYER1
  6
CONTINUOUS
 62
     3
 10
591.644282
 20
2066.462033
 11
592.171549
 21
2066.379769
  0
LINE
  8
CSLAYER1
  6
CONTINUOUS
 62
     3
 10
592.171549
 20
2066.379769
 11
592.726298
 21
2066.368128
  0
LINE
  8
CSLAYER1
  6
CONTINUOUS
 62
     3
 10
592.726298
 20
2066.368128
 11
593.304307
 21
2066.427200
  0
LINE
  8
CSLAYER1
  6
CONTINUOUS
 62
     3
 10
593.304307
 20
2066.427200
 11
593.901177
 21
2066.556534
  0
LINE
  8
CSLAYER1
  6
CONTINUOUS
 62
     3
 10
593.901177
 20
2066.556534
 11
594.512366
 21
2066.755147
  0
LINE
  8
CSLAYER1
  6
CONTINUOUS
 62
     3
 10
594.512366
 20
2066.755147
 11
595.133221
 21
2067.021527
  0
LINE
  8
CSLAYER1
  6
CONTINUOUS
 62
     3
 10
595.133221
 20
2067.021527
 11
595.759019
 21
2067.353647
  0
LINE
  8
CSLAYER1
  6
CONTINUOUS
 62
     3
 10
595.759019
 20
2067.353647
 11
596.384996
 21
2067.748979
  0
LINE
  8
CSLAYER1
  6
CONTINUOUS
 62
     3
 10
596.384996
 20
2067.748979
 11
597.006387
 21
2068.204514
  0
LINE
  8
CSLAYER1
  6
CONTINUOUS
 62
     3
 10
597.006387
 20
2068.204514
 11
597.618465
 21
2068.716786
  0
LINE
  8
CSLAYER1
  6
CONTINUOUS
 62
     3
 10
597.618465
 20
2068.716786
 11
598.216571
 21
2069.281895
  0
LINE
  8
CSLAYER1
  6
CONTINUOUS
 62
     3
 10
598.216571
 20
2069.281895
 11
598.796152
 21
2069.895541
  0
LINE
  8
CSLAYER1
  6
CONTINUOUS
 62
     3
 10
598.796152
 20
2069.895541
 11
599.352798
 21
2070.553054
  0
LINE
  8
CSLAYER1
  6
CONTINUOUS
 62
     3
 10
599.352798
 20
2070.553054
 11
599.882273
 21
2071.249430
  0
LINE
  8
CSLAYER1
  6
CONTINUOUS
 62
     3
 10
599.882273
 20
2071.249430
 11
600.380546
 21
2071.979368
  0
LINE
  8
CSLAYER1
  6
CONTINUOUS
 62
     3
 10
600.380546
 20
2071.979368
 11
600.843825
 21
2072.737314
  0
LINE
  8
CSLAYER1
  6
CONTINUOUS
 62
     3
 10
600.843825
 20
2072.737314
 11
601.268586
 21
2073.517499
  0
LINE
  8
CSLAYER1
  6
CONTINUOUS
 62
     3
 10
601.268586
 20
2073.517499
 11
601.651595
 21
2074.313986
  0
LINE
  8
CSLAYER1
  6
CONTINUOUS
 62
     3
 10
601.651595
 20
2074.313986
 11
601.989936
 21
2075.120712
  0
LINE
  8
CSLAYER1
  6
CONTINUOUS
 62
     3
 10
601.989936
 20
2075.120712
 11
602.281036
 21
2075.931538
  0
LINE
  8
CSLAYER1
  6
CONTINUOUS
 62
     3
 10
602.281036
 20
2075.931538
 11
602.522679
 21
2076.740293
  0
LINE
  8
CSLAYER1
  6
CONTINUOUS
 62
     3
 10
602.522679
 20
2076.740293
 11
602.713025
 21
2077.540823
  0
LINE
  8
CSLAYER1
  6
CONTINUOUS
 62
     3
 10
602.713025
 20
2077.540823
 11
602.850627
 21
2078.327033
  0
LINE
  8
CSLAYER1
  6
CONTINUOUS
 62
     3
 10
602.850627
 20
2078.327033
 11
602.934436
 21
2079.092942
  0
LINE
  8
CSLAYER1
  6
CONTINUOUS
 62
     3
 10
602.934436
 20
2079.092942
 11
602.963815
 21
2079.832720
  0
LINE
  8
CSLAYER1
  6
CONTINUOUS
 62
     3
 10
602.963815
 20
2079.832720
 11
602.938540
 21
2080.540736
  0
LINE
  8
CSLAYER1
  6
CONTINUOUS
 62
     3
 10
602.938540
 20
2080.540736
 11
602.858804
 21
2081.211603
  0
LINE
  8
CSLAYER1
  6
CONTINUOUS
 62
     3
 10
602.858804
 20
2081.211603
 11
602.725214
 21
2081.840214
  0
LINE
  8
CSLAYER1
  6
CONTINUOUS
 62
     3
 10
602.725214
 20
2081.840214
 11
602.538786
 21
2082.421786
  0
LINE
  8
CSLAYER1
  6
CONTINUOUS
 62
     3
 10
602.538786
 20
2082.421786
 11
602.300939
 21
2082.951892
  0
LINE
  8
CSLAYER1
  6
CONTINUOUS
 62
     3
 10
602.300939
 20
2082.951892
 11
602.013483
 21
2083.426499
  0
LINE
  8
CSLAYER1
  6
CONTINUOUS
 62
     3
 10
602.013483
 20
2083.426499
 11
601.678607
 21
2083.841993
  0
LINE
  8
CSLAYER1
  6
CONTINUOUS
 62
     3
 10
601.678607
 20
2083.841993
 11
601.298857
 21
2084.195213
  0
LINE
  8
CSLAYER1
  6
CONTINUOUS
 62
     3
 10
601.298857
 20
2084.195213
 11
600.877126
 21
2084.483471
  0
LINE
  8
CSLAYER1
  6
CONTINUOUS
 62
     3
 10
590.688006
 20
2123.309232
 11
646.728166
 21
2090.954431
  0
LINE
  8
CSLAYER1
  6
CONTINUOUS
 62
     3
 10
519.364166
 20
1993.890027
 11
527.855099
 21
1998.792269
  0
LINE
  8
CSLAYER1
  6
CONTINUOUS
 62
     3
 10
610.416427
 20
2069.955826
 11
866.363000
 21
1922.185003
  0
LINE
  8
CSLAYER1
  6
CONTINUOUS
 62
     3
 10
527.855099
 20
2034.088416
 11
676.587398
 21
1948.217784
  0
LINE
  8
CSLAYER1
  6
CONTINUOUS
 62
     3
 10
527.855099
 20
2029.382263
 11
654.325125
 21
1956.364760
  0
LINE
  8
CSLAYER1
  6
CONTINUOUS
 62
     3
 10
549.931526
 20
2021.342585
 11
618.024278
 21
2060.655954
  0
LINE
  8
CSLAYER1
  6
CONTINUOUS
 62
     3
 10
566.913393
 20
2011.538100
 11
635.006145
 21
2050.851469
  0
LINE
  8
CSLAYER1
  6
CONTINUOUS
 62
     3
 10
622.274278
 20
2063.109693
 11
646.728166
 21
2077.228152
  0
LINE
  8
CSLAYER1
  6
CONTINUOUS
 62
     3
 10
639.256145
 20
2053.305207
 11
646.728166
 21
2057.619181
  0
LINE
  8
CSLAYER1
  6
CONTINUOUS
 62
     3
 10
689.493616
 20
1922.333943
 11
689.273904
 21
1925.220310
  0
LINE
  8
CSLAYER1
  6
CONTINUOUS
 62
     3
 10
689.273904
 20
1925.220310
 11
688.616441
 21
1928.084711
  0
LINE
  8
CSLAYER1
  6
CONTINUOUS
 62
     3
 10
688.616441
 20
1928.084711
 11
687.526230
 21
1930.905345
  0
LINE
  8
CSLAYER1
  6
CONTINUOUS
 62
     3
 10
687.526230
 20
1930.905345
 11
686.011568
 21
1933.660745
  0
LINE
  8
CSLAYER1
  6
CONTINUOUS
 62
     3
 10
686.011568
 20
1933.660745
 11
684.083983
 21
1936.329942
  0
LINE
  8
CSLAYER1
  6
CONTINUOUS
 62
     3
 10
684.083983
 20
1936.329942
 11
681.758145
 21
1938.892620
  0
LINE
  8
CSLAYER1
  6
CONTINUOUS
 62
     3
 10
681.758145
 20
1938.892620
 11
679.051754
 21
1941.329277
  0
LINE
  8
CSLAYER1
  6
CONTINUOUS
 62
     3
 10
679.051754
 20
1941.329277
 11
675.985409
 21
1943.621368
  0
LINE
  8
CSLAYER1
  6
CONTINUOUS
 62
     3
 10
675.985409
 20
1943.621368
 11
672.582446
 21
1945.751449
  0
LINE
  8
CSLAYER1
  6
CONTINUOUS
 62
     3
 10
672.582446
 20
1945.751449
 11
668.868763
 21
1947.703309
  0
LINE
  8
CSLAYER1
  6
CONTINUOUS
 62
     3
 10
668.868763
 20
1947.703309
 11
664.872625
 21
1949.462092
  0
LINE
  8
CSLAYER1
  6
CONTINUOUS
 62
     3
 10
664.872625
 20
1949.462092
 11
660.624443
 21
1951.014413
  0
LINE
  8
CSLAYER1
  6
CONTINUOUS
 62
     3
 10
660.624443
 20
1951.014413
 11
656.156549
 21
1952.348459
  0
LINE
  8
CSLAYER1
  6
CONTINUOUS
 62
     3
 10
656.156549
 20
1952.348459
 11
651.502947
 21
1953.454077
  0
LINE
  8
CSLAYER1
  6
CONTINUOUS
 62
     3
 10
651.502947
 20
1953.454077
 11
646.699053
 21
1954.322851
  0
LINE
  8
CSLAYER1
  6
CONTINUOUS
 62
     3
 10
646.699053
 20
1954.322851
 11
641.781428
 21
1954.948171
  0
LINE
  8
CSLAYER1
  6
CONTINUOUS
 62
     3
 10
641.781428
 20
1954.948171
 11
636.787498
 21
1955.325276
  0
LINE
  8
CSLAYER1
  6
CONTINUOUS
 62
     3
 10
636.787498
 20
1955.325276
 11
631.755270
 21
1955.451298
  0
LINE
  8
CSLAYER1
  6
CONTINUOUS
 62
     3
 10
631.755270
 20
1955.451298
 11
626.723041
 21
1955.325276
  0
LINE
  8
CSLAYER1
  6
CONTINUOUS
 62
     3
 10
626.723041
 20
1955.325276
 11
621.729111
 21
1954.948171
  0
LINE
  8
CSLAYER1
  6
CONTINUOUS
 62
     3
 10
621.729111
 20
1954.948171
 11
616.811486
 21
1954.322851
  0
LINE
  8
CSLAYER1
  6
CONTINUOUS
 62
     3
 10
616.811486
 20
1954.322851
 11
612.007592
 21
1953.454077
  0
LINE
  8
CSLAYER1
  6
CONTINUOUS
 62
     3
 10
612.007592
 20
1953.454077
 11
607.353990
 21
1952.348459
  0
LINE
  8
CSLAYER1
  6
CONTINUOUS
 62
     3
 10
607.353990
 20
1952.348459
 11
602.886096
 21
1951.014413
  0
LINE
  8
CSLAYER1
  6
CONTINUOUS
 62
     3
 10
602.886096
 20
1951.014413
 11
598.637914
 21
1949.462092
  0
LINE
  8
CSLAYER1
  6
CONTINUOUS
 62
     3
 10
598.637914
 20
1949.462092
 11
594.641776
 21
1947.703309
  0
LINE
  8
CSLAYER1
  6
CONTINUOUS
 62
     3
 10
594.641776
 20
1947.703309
 11
590.928093
 21
1945.751449
  0
LINE
  8
CSLAYER1
  6
CONTINUOUS
 62
     3
 10
590.928093
 20
1945.751449
 11
587.525130
 21
1943.621368
  0
LINE
  8
CSLAYER1
  6
CONTINUOUS
 62
     3
 10
587.525130
 20
1943.621368
 11
584.458785
 21
1941.329277
  0
LINE
  8
CSLAYER1
  6
CONTINUOUS
 62
     3
 10
584.458785
 20
1941.329277
 11
581.752395
 21
1938.892620
  0
LINE
  8
CSLAYER1
  6
CONTINUOUS
 62
     3
 10
581.752395
 20
1938.892620
 11
579.426556
 21
1936.329942
  0
LINE
  8
CSLAYER1
  6
CONTINUOUS
 62
     3
 10
579.426556
 20
1936.329942
 11
577.498971
 21
1933.660745
  0
LINE
  8
CSLAYER1
  6
CONTINUOUS
 62
     3
 10
577.498971
 20
1933.660745
 11
575.984309
 21
1930.905345
  0
LINE
  8
CSLAYER1
  6
CONTINUOUS
 62
     3
 10
575.984309
 20
1930.905345
 11
574.894098
 21
1928.084711
  0
LINE
  8
CSLAYER1
  6
CONTINUOUS
 62
     3
 10
574.894098
 20
1928.084711
 11
574.236635
 21
1925.220310
  0
LINE
  8
CSLAYER1
  6
CONTINUOUS
 62
     3
 10
574.236635
 20
1925.220310
 11
574.016923
 21
1922.333943
  0
LINE
  8
CSLAYER1
  6
CONTINUOUS
 62
     3
 10
574.016923
 20
1922.333943
 11
574.236635
 21
1919.447575
  0
LINE
  8
CSLAYER1
  6
CONTINUOUS
 62
     3
 10
574.236635
 20
1919.447575
 11
574.894098
 21
1916.583174
  0
LINE
  8
CSLAYER1
  6
CONTINUOUS
 62
     3
 10
574.894098
 20
1916.583174
 11
575.984309
 21
1913.762540
  0
LINE
  8
CSLAYER1
  6
CONTINUOUS
 62
     3
 10
575.984309
 20
1913.762540
 11
577.498971
 21
1911.007140
  0
LINE
  8
CSLAYER1
  6
CONTINUOUS
 62
     3
 10
577.498971
 20
1911.007140
 11
579.426556
 21
1908.337944
  0
LINE
  8
CSLAYER1
  6
CONTINUOUS
 62
     3
 10
579.426556
 20
1908.337944
 11
581.752395
 21
1905.775265
  0
LINE
  8
CSLAYER1
  6
CONTINUOUS
 62
     3
 10
581.752395
 20
1905.775265
 11
584.458785
 21
1903.338608
  0
LINE
  8
CSLAYER1
  6
CONTINUOUS
 62
     3
 10
584.458785
 20
1903.338608
 11
587.525130
 21
1901.046517
  0
LINE
  8
CSLAYER1
  6
CONTINUOUS
 62
     3
 10
587.525130
 20
1901.046517
 11
590.928093
 21
1898.916436
  0
LINE
  8
CSLAYER1
  6
CONTINUOUS
 62
     3
 10
590.928093
 20
1898.916436
 11
594.641776
 21
1896.964577
  0
LINE
  8
CSLAYER1
  6
CONTINUOUS
 62
     3
 10
594.641776
 20
1896.964577
 11
598.637914
 21
1895.205793
  0
LINE
  8
CSLAYER1
  6
CONTINUOUS
 62
     3
 10
598.637914
 20
1895.205793
 11
602.886096
 21
1893.653472
  0
LINE
  8
CSLAYER1
  6
CONTINUOUS
 62
     3
 10
602.886096
 20
1893.653472
 11
607.353990
 21
1892.319426
  0
LINE
  8
CSLAYER1
  6
CONTINUOUS
 62
     3
 10
607.353990
 20
1892.319426
 11
612.007592
 21
1891.213808
  0
LINE
  8
CSLAYER1
  6
CONTINUOUS
 62
     3
 10
612.007592
 20
1891.213808
 11
616.811486
 21
1890.345034
  0
LINE
  8
CSLAYER1
  6
CONTINUOUS
 62
     3
 10
616.811486
 20
1890.345034
 11
621.729111
 21
1889.719715
  0
LINE
  8
CSLAYER1
  6
CONTINUOUS
 62
     3
 10
621.729111
 20
1889.719715
 11
626.723041
 21
1889.342609
  0
LINE
  8
CSLAYER1
  6
CONTINUOUS
 62
     3
 10
626.723041
 20
1889.342609
 11
631.755270
 21
1889.216588
  0
LINE
  8
CSLAYER1
  6
CONTINUOUS
 62
     3
 10
631.755270
 20
1889.216588
 11
636.787498
 21
1889.342609
  0
LINE
  8
CSLAYER1
  6
CONTINUOUS
 62
     3
 10
636.787498
 20
1889.342609
 11
641.781428
 21
1889.719715
  0
LINE
  8
CSLAYER1
  6
CONTINUOUS
 62
     3
 10
641.781428
 20
1889.719715
 11
646.699053
 21
1890.345034
  0
LINE
  8
CSLAYER1
  6
CONTINUOUS
 62
     3
 10
646.699053
 20
1890.345034
 11
651.502947
 21
1891.213808
  0
LINE
  8
CSLAYER1
  6
CONTINUOUS
 62
     3
 10
651.502947
 20
1891.213808
 11
656.156549
 21
1892.319426
  0
LINE
  8
CSLAYER1
  6
CONTINUOUS
 62
     3
 10
656.156549
 20
1892.319426
 11
660.624443
 21
1893.653472
  0
LINE
  8
CSLAYER1
  6
CONTINUOUS
 62
     3
 10
660.624443
 20
1893.653472
 11
664.872625
 21
1895.205793
  0
LINE
  8
CSLAYER1
  6
CONTINUOUS
 62
     3
 10
664.872625
 20
1895.205793
 11
668.868763
 21
1896.964577
  0
LINE
  8
CSLAYER1
  6
CONTINUOUS
 62
     3
 10
668.868763
 20
1896.964577
 11
672.582446
 21
1898.916436
  0
LINE
  8
CSLAYER1
  6
CONTINUOUS
 62
     3
 10
672.582446
 20
1898.916436
 11
675.985409
 21
1901.046517
  0
LINE
  8
CSLAYER1
  6
CONTINUOUS
 62
     3
 10
675.985409
 20
1901.046517
 11
679.051754
 21
1903.338608
  0
LINE
  8
CSLAYER1
  6
CONTINUOUS
 62
     3
 10
679.051754
 20
1903.338608
 11
681.758145
 21
1905.775265
  0
LINE
  8
CSLAYER1
  6
CONTINUOUS
 62
     3
 10
681.758145
 20
1905.775265
 11
684.083983
 21
1908.337944
  0
LINE
  8
CSLAYER1
  6
CONTINUOUS
 62
     3
 10
684.083983
 20
1908.337944
 11
686.011568
 21
1911.007140
  0
LINE
  8
CSLAYER1
  6
CONTINUOUS
 62
     3
 10
686.011568
 20
1911.007140
 11
687.526230
 21
1913.762540
  0
LINE
  8
CSLAYER1
  6
CONTINUOUS
 62
     3
 10
687.526230
 20
1913.762540
 11
688.616441
 21
1916.583174
  0
LINE
  8
CSLAYER1
  6
CONTINUOUS
 62
     3
 10
688.616441
 20
1916.583174
 11
689.273904
 21
1919.447575
  0
LINE
  8
CSLAYER1
  6
CONTINUOUS
 62
     3
 10
689.273904
 20
1919.447575
 11
689.493616
 21
1922.333943
  0
LINE
  8
CSLAYER1
  6
CONTINUOUS
 62
     3
 10
695.267451
 20
1922.333943
 11
695.025768
 21
1925.508947
  0
LINE
  8
CSLAYER1
  6
CONTINUOUS
 62
     3
 10
695.025768
 20
1925.508947
 11
694.302558
 21
1928.659788
  0
LINE
  8
CSLAYER1
  6
CONTINUOUS
 62
     3
 10
694.302558
 20
1928.659788
 11
693.103326
 21
1931.762485
  0
LINE
  8
CSLAYER1
  6
CONTINUOUS
 62
     3
 10
693.103326
 20
1931.762485
 11
691.437198
 21
1934.793425
  0
LINE
  8
CSLAYER1
  6
CONTINUOUS
 62
     3
 10
691.437198
 20
1934.793425
 11
689.316854
 21
1937.729542
  0
LINE
  8
CSLAYER1
  6
CONTINUOUS
 62
     3
 10
689.316854
 20
1937.729542
 11
686.758432
 21
1940.548488
  0
LINE
  8
CSLAYER1
  6
CONTINUOUS
 62
     3
 10
686.758432
 20
1940.548488
 11
683.781403
 21
1943.228811
  0
LINE
  8
CSLAYER1
  6
CONTINUOUS
 62
     3
 10
683.781403
 20
1943.228811
 11
680.408423
 21
1945.750111
  0
LINE
  8
CSLAYER1
  6
CONTINUOUS
 62
     3
 10
680.408423
 20
1945.750111
 11
676.665164
 21
1948.093200
  0
LINE
  8
CSLAYER1
  6
CONTINUOUS
 62
     3
 10
676.665164
 20
1948.093200
 11
672.580113
 21
1950.240245
  0
LINE
  8
CSLAYER1
  6
CONTINUOUS
 62
     3
 10
672.580113
 20
1950.240245
 11
668.184360
 21
1952.174907
  0
LINE
  8
CSLAYER1
  6
CONTINUOUS
 62
     3
 10
668.184360
 20
1952.174907
 11
663.511360
 21
1953.882461
  0
LINE
  8
CSLAYER1
  6
CONTINUOUS
 62
     3
 10
663.511360
 20
1953.882461
 11
658.596677
 21
1955.349911
  0
LINE
  8
CSLAYER1
  6
CONTINUOUS
 62
     3
 10
658.596677
 20
1955.349911
 11
653.477715
 21
1956.566090
  0
LINE
  8
CSLAYER1
  6
CONTINUOUS
 62
     3
 10
653.477715
 20
1956.566090
 11
648.193432
 21
1957.521742
  0
LINE
  8
CSLAYER1
  6
CONTINUOUS
 62
     3
 10
648.193432
 20
1957.521742
 11
642.784044
 21
1958.209594
  0
LINE
  8
CSLAYER1
  6
CONTINUOUS
 62
     3
 10
642.784044
 20
1958.209594
 11
637.290721
 21
1958.624410
  0
LINE
  8
CSLAYER1
  6
CONTINUOUS
 62
     3
 10
637.290721
 20
1958.624410
 11
631.755270
 21
1958.763033
  0
LINE
  8
CSLAYER1
  6
CONTINUOUS
 62
     3
 10
631.755270
 20
1958.763033
 11
626.219818
 21
1958.624410
  0
LINE
  8
CSLAYER1
  6
CONTINUOUS
 62
     3
 10
626.219818
 20
1958.624410
 11
620.726495
 21
1958.209594
  0
LINE
  8
CSLAYER1
  6
CONTINUOUS
 62
     3
 10
620.726495
 20
1958.209594
 11
615.317107
 21
1957.521742
  0
LINE
  8
CSLAYER1
  6
CONTINUOUS
 62
     3
 10
615.317107
 20
1957.521742
 11
610.032824
 21
1956.566090
  0
LINE
  8
CSLAYER1
  6
CONTINUOUS
 62
     3
 10
610.032824
 20
1956.566090
 11
604.913862
 21
1955.349911
  0
LINE
  8
CSLAYER1
  6
CONTINUOUS
 62
     3
 10
604.913862
 20
1955.349911
 11
599.999179
 21
1953.882461
  0
LINE
  8
CSLAYER1
  6
CONTINUOUS
 62
     3
 10
599.999179
 20
1953.882461
 11
595.326179
 21
1952.174907
  0
LINE
  8
CSLAYER1
  6
CONTINUOUS
 62
     3
 10
595.326179
 20
1952.174907
 11
590.930426
 21
1950.240245
  0
LINE
  8
CSLAYER1
  6
CONTINUOUS
 62
     3
 10
590.930426
 20
1950.240245
 11
586.845375
 21
1948.093200
  0
LINE
  8
CSLAYER1
  6
CONTINUOUS
 62
     3
 10
586.845375
 20
1948.093200
 11
583.102116
 21
1945.750111
  0
LINE
  8
CSLAYER1
  6
CONTINUOUS
 62
     3
 10
583.102116
 20
1945.750111
 11
579.729136
 21
1943.228811
  0
LINE
  8
CSLAYER1
  6
CONTINUOUS
 62
     3
 10
579.729136
 20
1943.228811
 11
576.752107
 21
1940.548488
  0
LINE
  8
CSLAYER1
  6
CONTINUOUS
 62
     3
 10
576.752107
 20
1940.548488
 11
574.193685
 21
1937.729542
  0
LINE
  8
CSLAYER1
  6
CONTINUOUS
 62
     3
 10
574.193685
 20
1937.729542
 11
572.073341
 21
1934.793425
  0
LINE
  8
CSLAYER1
  6
CONTINUOUS
 62
     3
 10
572.073341
 20
1934.793425
 11
570.407213
 21
1931.762485
  0
LINE
  8
CSLAYER1
  6
CONTINUOUS
 62
     3
 10
570.407213
 20
1931.762485
 11
569.207981
 21
1928.659788
  0
LINE
  8
CSLAYER1
  6
CONTINUOUS
 62
     3
 10
569.207981
 20
1928.659788
 11
568.484771
 21
1925.508947
  0
LINE
  8
CSLAYER1
  6
CONTINUOUS
 62
     3
 10
568.484771
 20
1925.508947
 11
568.243088
 21
1922.333943
  0
LINE
  8
CSLAYER1
  6
CONTINUOUS
 62
     3
 10
568.243088
 20
1922.333943
 11
568.484771
 21
1919.158938
  0
LINE
  8
CSLAYER1
  6
CONTINUOUS
 62
     3
 10
568.484771
 20
1919.158938
 11
569.207981
 21
1916.008097
  0
LINE
  8
CSLAYER1
  6
CONTINUOUS
 62
     3
 10
569.207981
 20
1916.008097
 11
570.407213
 21
1912.905400
  0
LINE
  8
CSLAYER1
  6
CONTINUOUS
 62
     3
 10
570.407213
 20
1912.905400
 11
572.073341
 21
1909.874460
  0
LINE
  8
CSLAYER1
  6
CONTINUOUS
 62
     3
 10
572.073341
 20
1909.874460
 11
574.193685
 21
1906.938344
  0
LINE
  8
CSLAYER1
  6
CONTINUOUS
 62
     3
 10
574.193685
 20
1906.938344
 11
576.752107
 21
1904.119397
  0
LINE
  8
CSLAYER1
  6
CONTINUOUS
 62
     3
 10
576.752107
 20
1904.119397
 11
579.729136
 21
1901.439075
  0
LINE
  8
CSLAYER1
  6
CONTINUOUS
 62
     3
 10
579.729136
 20
1901.439075
 11
583.102116
 21
1898.917775
  0
LINE
  8
CSLAYER1
  6
CONTINUOUS
 62
     3
 10
583.102116
 20
1898.917775
 11
586.845375
 21
1896.574686
  0
LINE
  8
CSLAYER1
  6
CONTINUOUS
 62
     3
 10
586.845375
 20
1896.574686
 11
590.930426
 21
1894.427640
  0
LINE
  8
CSLAYER1
  6
CONTINUOUS
 62
     3
 10
590.930426
 20
1894.427640
 11
595.326179
 21
1892.492979
  0
LINE
  8
CSLAYER1
  6
CONTINUOUS
 62
     3
 10
595.326179
 20
1892.492979
 11
599.999179
 21
1890.785425
  0
LINE
  8
CSLAYER1
  6
CONTINUOUS
 62
     3
 10
599.999179
 20
1890.785425
 11
604.913862
 21
1889.317974
  0
LINE
  8
CSLAYER1
  6
CONTINUOUS
 62
     3
 10
604.913862
 20
1889.317974
 11
604.984358
 21
1889.301225
  0
LINE
  8
CSLAYER1
  6
CONTINUOUS
 62
     3
 10
631.755270
 20
1885.904852
 11
637.290721
 21
1886.043476
  0
LINE
  8
CSLAYER1
  6
CONTINUOUS
 62
     3
 10
637.290721
 20
1886.043476
 11
642.784044
 21
1886.458292
  0
LINE
  8
CSLAYER1
  6
CONTINUOUS
 62
     3
 10
642.784044
 20
1886.458292
 11
648.193432
 21
1887.146143
  0
LINE
  8
CSLAYER1
  6
CONTINUOUS
 62
     3
 10
648.193432
 20
1887.146143
 11
653.477715
 21
1888.101795
  0
LINE
  8
CSLAYER1
  6
CONTINUOUS
 62
     3
 10
653.477715
 20
1888.101795
 11
658.596677
 21
1889.317974
  0
LINE
  8
CSLAYER1
  6
CONTINUOUS
 62
     3
 10
658.596677
 20
1889.317974
 11
663.511360
 21
1890.785425
  0
LINE
  8
CSLAYER1
  6
CONTINUOUS
 62
     3
 10
663.511360
 20
1890.785425
 11
668.184360
 21
1892.492979
  0
LINE
  8
CSLAYER1
  6
CONTINUOUS
 62
     3
 10
668.184360
 20
1892.492979
 11
672.580113
 21
1894.427640
  0
LINE
  8
CSLAYER1
  6
CONTINUOUS
 62
     3
 10
672.580113
 20
1894.427640
 11
676.665164
 21
1896.574686
  0
LINE
  8
CSLAYER1
  6
CONTINUOUS
 62
     3
 10
676.665164
 20
1896.574686
 11
680.408423
 21
1898.917775
  0
LINE
  8
CSLAYER1
  6
CONTINUOUS
 62
     3
 10
680.408423
 20
1898.917775
 11
683.781403
 21
1901.439075
  0
LINE
  8
CSLAYER1
  6
CONTINUOUS
 62
     3
 10
683.781403
 20
1901.439075
 11
686.758432
 21
1904.119397
  0
LINE
  8
CSLAYER1
  6
CONTINUOUS
 62
     3
 10
686.758432
 20
1904.119397
 11
689.316854
 21
1906.938344
  0
LINE
  8
CSLAYER1
  6
CONTINUOUS
 62
     3
 10
689.316854
 20
1906.938344
 11
691.437198
 21
1909.874460
  0
LINE
  8
CSLAYER1
  6
CONTINUOUS
 62
     3
 10
691.437198
 20
1909.874460
 11
693.103326
 21
1912.905400
  0
LINE
  8
CSLAYER1
  6
CONTINUOUS
 62
     3
 10
693.103326
 20
1912.905400
 11
694.302558
 21
1916.008097
  0
LINE
  8
CSLAYER1
  6
CONTINUOUS
 62
     3
 10
694.302558
 20
1916.008097
 11
695.025768
 21
1919.158938
  0
LINE
  8
CSLAYER1
  6
CONTINUOUS
 62
     3
 10
695.025768
 20
1919.158938
 11
695.267451
 21
1922.333943
  0
LINE
  8
CSLAYER1
  6
CONTINUOUS
 62
     3
 10
507.476859
 20
1885.904852
 11
631.755270
 21
1885.904852
  0
LINE
  8
CSLAYER1
  6
CONTINUOUS
 62
     3
 10
507.476859
 20
1889.301225
 11
631.755270
 21
1889.301225
  0
LINE
  8
CSLAYER1
  6
CONTINUOUS
 62
     3
 10
507.476859
 20
1885.904852
 11
507.476859
 21
1889.301225
  0
LINE
  8
CSLAYER1
  6
CONTINUOUS
 62
     3
 10
507.476859
 20
1889.301225
 11
499.652355
 21
1891.716512
  0
LINE
  8
CSLAYER1
  6
CONTINUOUS
 62
     3
 10
499.652355
 20
1891.716512
 11
498.348502
 21
1897.192694
  0
LINE
  8
CSLAYER1
  6
CONTINUOUS
 62
     3
 10
507.476859
 20
1885.904852
 11
494.436943
 21
1887.022642
  0
LINE
  8
CSLAYER1
  6
CONTINUOUS
 62
     3
 10
494.436943
 20
1887.022642
 11
488.699991
 21
1885.197248
  0
LINE
  8
CSLAYER1
  6
CONTINUOUS
 62
     3
 10
488.699991
 20
1885.197248
 11
482.441497
 21
1882.328772
  0
LINE
  8
CSLAYER1
  6
CONTINUOUS
 62
     3
 10
498.348502
 20
1897.192694
 11
491.829238
 21
1902.147335
  0
LINE
  8
CSLAYER1
  6
CONTINUOUS
 62
     3
 10
388.603793
 20
2088.993534
 11
527.855099
 21
2008.596755
  0
LINE
  8
CSLAYER1
  6
CONTINUOUS
 62
     3
 10
388.603793
 20
2167.429416
 11
527.855099
 21
2087.032637
  0
LINE
  8
CSLAYER1
  6
CONTINUOUS
 62
     3
 10
388.603793
 20
2167.429416
 11
388.603793
 21
2069.384563
  0
LINE
  8
CSLAYER1
  6
CONTINUOUS
 62
     3
 10
646.728166
 20
2155.664034
 11
646.728166
 21
2057.619181
  0
LINE
  8
CSLAYER1
  6
CONTINUOUS
 62
     3
 10
388.603793
 20
2167.429416
 11
507.476859
 21
2236.060813
  0
LINE
  8
CSLAYER1
  6
CONTINUOUS
 62
     5
 10
346.615503
 20
2093.626514
 11
381.389839
 21
2073.549541
  0
TEXT
  8
CSLAYER1
 62
     3
 10
760.094722
 20
2128.995070
 40
29.612888
 41
0.852344
  1
ホース長サ２ｍ
 50
0.000000
 51
0.000000
  7
EASYDRAW_FONT
 72
     5
 11
928.363896
 21
2128.995070
  0
TEXT
  8
CSLAYER1
 62
     3
 10
321.270483
 20
1918.045477
 40
33.963734
 41
1.036364
  1
長サ4ｍ
 50
0.000000
 51
0.000000
  7
EASYDRAW_FONT
 72
     5
 11
450.332667
 21
1918.045477
  0
LINE
  8
CSLAYER1
  6
CONTINUOUS
 62
     3
 10
608.324038
 20
2066.256390
 11
864.238000
 21
1918.504395
  0
ARC
  8
CSLAYER1
  6
CONTINUOUS
 62
     3
 10
908.863000
 20
1995.797162
 40
85.000000
 50
240.000000
 51
270.000000
  0
ARC
  8
CSLAYER1
  6
CONTINUOUS
 62
     3
 10
908.863000
 20
1995.797162
 40
89.250000
 50
240.000000
 51
270.000000
  0
TEXT
  8
CSLAYER1
 62
     3
 10
710.924493
 20
1820.109930
 40
33.963734
 41
1.020000
  1
フットスイッチ
 50
0.000000
 51
0.000000
  7
EASYDRAW_FONT
 72
     5
 11
941.877875
 21
1820.109930
  0
TEXT
  8
CSLAYER1
 62
     3
 10
709.093682
 20
1773.734930
 40
33.963734
 41
1.020000
  1
ＵＰ・ＤＯＷＮ
 50
0.000000
 51
0.000000
  7
EASYDRAW_FONT
 72
     5
 11
940.047065
 21
1773.734930
  0
TEXT
  8
CSLAYER1
 62
     3
 10
711.534600
 20
1732.240789
 40
33.963734
 41
1.020000
  1
コード長サ２ｍ
 50
0.000000
 51
0.000000
  7
EASYDRAW_FONT
 72
     5
 11
942.487983
 21
1732.240789
  0
LINE
  8
CSLAYER1
  6
CONTINUOUS
 62
     5
 10
598.939123
 20
1786.989932
 11
703.659797
 21
1815.049752
  0
LINE
  8
CSLAYER1
  6
CONTINUOUS
 62
     5
 10
598.939123
 20
1786.989932
 11
624.919885
 21
1801.989932
  0
LINE
  8
CSLAYER1
  6
CONTINUOUS
 62
     5
 10
598.939123
 20
1786.989932
 11
628.939123
 21
1786.989932
  0
LINE
  8
CSLAYER1
  6
CONTINUOUS
 62
     5
 10
936.847269
 20
1815.049752
 11
703.659797
 21
1815.049752
  0
LINE
  8
CSLAYER1
  6
CONTINUOUS
 62
     3
 10
447.800509
 20
1802.088839
 11
542.898963
 21
1747.183722
  0
LINE
  8
CSLAYER1
  6
CONTINUOUS
 62
     3
 10
542.898963
 20
1747.183722
 11
598.939123
 21
1779.538523
  0
LINE
  8
CSLAYER1
  6
CONTINUOUS
 62
     3
 10
598.939123
 20
1786.989932
 11
598.939123
 21
1779.538523
  0
LINE
  8
CSLAYER1
  6
CONTINUOUS
 62
     5
 10
542.898963
 20
1776.204998
 11
542.898963
 21
1756.596028
  0
LINE
  8
CSLAYER1
  6
CONTINUOUS
 62
     3
 10
447.800509
 20
1809.932428
 11
447.800509
 21
1802.088839
  0
LINE
  8
CSLAYER1
  6
CONTINUOUS
 62
     3
 10
450.857245
 20
1829.737488
 11
503.501032
 21
1860.131392
  0
LINE
  8
CSLAYER1
  6
CONTINUOUS
 62
     3
 10
484.820979
 20
1810.128517
 11
537.464765
 21
1840.522422
  0
LINE
  8
CSLAYER1
  6
CONTINUOUS
 62
     3
 10
542.898963
 20
1776.204998
 11
595.882387
 21
1806.794992
  0
LINE
  8
CSLAYER1
  6
CONTINUOUS
 62
     3
 10
509.274867
 20
1796.010058
 11
561.918653
 21
1826.403963
  0
LINE
  8
CSLAYER1
  6
CONTINUOUS
 62
     3
 10
450.857245
 20
1829.737488
 11
484.820979
 21
1810.128517
  0
LINE
  8
CSLAYER1
  6
CONTINUOUS
 62
     3
 10
503.501032
 20
1860.131392
 11
537.464765
 21
1840.522422
  0
LINE
  8
CSLAYER1
  6
CONTINUOUS
 62
     3
 10
447.800509
 20
1809.932428
 11
542.898963
 21
1755.027310
  0
LINE
  8
CSLAYER1
  6
CONTINUOUS
 62
     3
 10
542.898963
 20
1754.635131
 11
598.939123
 21
1786.989932
  0
LINE
  8
CSLAYER1
  6
CONTINUOUS
 62
     3
 10
491.953363
 20
1806.010633
 11
502.142483
 21
1800.127942
  0
LINE
  8
CSLAYER1
  6
CONTINUOUS
 62
     5
 10
542.898963
 20
1756.596028
 11
595.882387
 21
1787.186022
  0
LINE
  8
CSLAYER1
  6
CONTINUOUS
 62
     5
 10
450.857245
 20
1810.128517
 11
484.820979
 21
1790.519547
  0
LINE
  8
CSLAYER1
  6
CONTINUOUS
 62
     3
 10
595.882387
 20
1806.794992
 11
595.882387
 21
1787.186022
  0
LINE
  8
CSLAYER1
  6
CONTINUOUS
 62
     5
 10
509.274867
 20
1796.010058
 11
509.274867
 21
1775.833366
  0
LINE
  8
CSLAYER1
  6
CONTINUOUS
 62
     5
 10
484.820979
 20
1790.519547
 11
484.820979
 21
1810.128517
  0
LINE
  8
CSLAYER1
  6
CONTINUOUS
 62
     3
 10
537.464765
 20
1840.522422
 11
537.464765
 21
1832.286654
  0
LINE
  8
CSLAYER1
  6
CONTINUOUS
 62
     5
 10
491.953363
 20
1786.401663
 11
502.142483
 21
1780.518972
  0
LINE
  8
CSLAYER1
  6
CONTINUOUS
 62
     3
 10
542.898963
 20
1754.635131
 11
542.898963
 21
1747.183722
  0
LINE
  8
CSLAYER1
  6
CONTINUOUS
 62
     3
 10
595.882387
 20
1788.754739
 11
598.939123
 21
1786.989932
  0
LINE
  8
CSLAYER1
  6
CONTINUOUS
 62
     3
 10
491.953363
 20
1806.010633
 11
544.597149
 21
1836.404538
  0
LINE
  8
CSLAYER1
  6
CONTINUOUS
 62
     3
 10
502.142483
 20
1800.127942
 11
554.786269
 21
1830.521847
  0
LINE
  8
CSLAYER1
  6
CONTINUOUS
 62
     3
 10
554.786269
 20
1830.521847
 11
554.786269
 21
1822.286079
  0
LINE
  8
CSLAYER1
  6
CONTINUOUS
 62
     3
 10
544.597149
 20
1836.404538
 11
554.786269
 21
1830.521847
  0
LINE
  8
CSLAYER1
  6
CONTINUOUS
 62
     3
 10
561.918653
 20
1826.403963
 11
595.882387
 21
1806.794992
  0
LINE
  8
CSLAYER1
  6
CONTINUOUS
 62
     3
 10
509.274867
 20
1796.010058
 11
542.898963
 21
1776.597178
  0
LINE
  8
CSLAYER1
  6
CONTINUOUS
 62
     5
 10
502.142483
 20
1800.127942
 11
502.142483
 21
1780.518972
  0
LINE
  8
CSLAYER1
  6
CONTINUOUS
 62
     5
 10
491.953363
 20
1806.010633
 11
491.953363
 21
1786.401663
  0
LINE
  8
CSLAYER1
  6
CONTINUOUS
 62
     5
 10
502.142483
 20
1780.518972
 11
509.274867
 21
1784.636856
  0
LINE
  8
CSLAYER1
  6
CONTINUOUS
 62
     5
 10
484.820979
 20
1790.519547
 11
491.953363
 21
1794.637431
  0
LINE
  8
CSLAYER1
  6
CONTINUOUS
 62
     5
 10
509.274867
 20
1776.401088
 11
542.898963
 21
1756.988207
  0
LINE
  8
CSLAYER1
  6
CONTINUOUS
 62
     3
 10
450.857245
 20
1829.737488
 11
450.857245
 21
1810.128517
  0
LINE
  8
CSLAYER1
  6
CONTINUOUS
 62
     3
 10
447.800509
 20
1809.932428
 11
450.857245
 21
1811.697235
  0
LINE
  8
CSLAYER1
  6
CONTINUOUS
 62
     5
 10
461.046365
 20
1835.620179
 11
495.010099
 21
1816.011208
  0
LINE
  8
CSLAYER1
  6
CONTINUOUS
 62
     5
 10
471.235485
 20
1841.502870
 11
505.199219
 21
1821.893900
  0
LINE
  8
CSLAYER1
  6
CONTINUOUS
 62
     5
 10
481.424605
 20
1847.385561
 11
515.388339
 21
1827.776591
  0
LINE
  8
CSLAYER1
  6
CONTINUOUS
 62
     5
 10
529.653107
 20
1807.775441
 11
563.616840
 21
1788.166470
  0
LINE
  8
CSLAYER1
  6
CONTINUOUS
 62
     5
 10
519.463987
 20
1801.892750
 11
553.427720
 21
1782.283779
  0
LINE
  8
CSLAYER1
  6
CONTINUOUS
 62
     5
 10
539.842227
 20
1813.658132
 11
573.805960
 21
1794.049161
  0
ARC
  8
CSLAYER1
  6
CONTINUOUS
 62
     3
 10
553.742418
 20
1825.328539
 40
10.105980
 50
-0.219250
 51
120.219250
  0
LINE
  8
CSLAYER1
  6
CONTINUOUS
 62
     3
 10
562.372193
 20
1830.587608
 11
676.518388
 21
1896.489944
  0
LINE
  8
CSLAYER1
  6
CONTINUOUS
 62
     3
 10
559.498838
 20
1833.634829
 11
654.002898
 21
1888.196773
  0
LINE
  8
CSLAYER1
  6
CONTINUOUS
 62
     5
 10
519.152328
 20
1890.107142
 11
485.378493
 21
1955.909199
  0
LINE
  8
CSLAYER1
  6
CONTINUOUS
 62
     5
 10
519.152328
 20
1890.107142
 11
499.012426
 21
1912.341898
  0
LINE
  8
CSLAYER1
  6
CONTINUOUS
 62
     5
 10
519.152328
 20
1890.107142
 11
512.828039
 21
1919.432956
  0
LINE
  8
CSLAYER1
  6
CONTINUOUS
 62
     5
 10
264.259847
 20
1689.828497
 11
982.451628
 21
1689.828497
  0
LINE
  8
CSLAYER1
  6
CONTINUOUS
 62
     5
 10
495.666913
 20
2375.491578
 11
733.312692
 21
2375.491578
  0
LINE
  8
CSLAYER1
  6
CONTINUOUS
 62
     5
 10
733.312692
 20
2375.491578
 11
733.312692
 21
2332.392091
  0
LINE
  8
CSLAYER1
  6
CONTINUOUS
 62
     5
 10
733.312692
 20
2332.392091
 11
495.666913
 21
2332.392091
  0
LINE
  8
CSLAYER1
  6
CONTINUOUS
 62
     5
 10
495.666913
 20
2332.392091
 11
495.666913
 21
2375.491578
  0
INSERT
  8
CSLAYER1
  2
EASYDRAWDIM0004
 10
0.0
 20
0.0
 30
0.0
  0
TEXT
  8
CSLAYER1
 62
     7
 10
787.208679
 20
586.323425
 40
40.000000
 41
0.843750
  1
上昇時
 50
0.000000
 51
0.000000
  7
EASYDRAW_FONT
 72
     5
 11
877.208679
 21
586.323425
  0
LINE
  8
CSLAYER1
  6
CONTINUOUS
 62
     5
 10
773.602162
 20
632.753578
 11
896.560172
 21
632.753578
  0
LINE
  8
CSLAYER1
  6
CONTINUOUS
 62
     5
 10
896.560172
 20
632.753578
 11
896.560172
 21
579.893125
  0
LINE
  8
CSLAYER1
  6
CONTINUOUS
 62
     5
 10
896.560172
 20
579.893125
 11
773.602162
 21
579.893125
  0
LINE
  8
CSLAYER1
  6
CONTINUOUS
 62
     5
 10
773.602162
 20
579.893125
 11
773.602162
 21
632.753578
  0
LINE
  8
CSLAYER1
  6
CONTINUOUS
 62
     6
 10
961.345128
 20
818.339082
 11
1057.252774
 21
735.437346
  0
LINE
  8
CSLAYER1
  6
CONTINUOUS
 62
     6
 10
961.345128
 20
818.339082
 11
988.345603
 21
805.263367
  0
LINE
  8
CSLAYER1
  6
CONTINUOUS
 62
     6
 10
961.345128
 20
818.339082
 11
978.190368
 21
793.514943
  0
DIMENSION
  8
CSLAYER1
 62
     3
  2
*D0012
 10
986.345128
 20
674.134056
 11
836.345154
 21
682.134094
 13
686.345128
 23
820.339082
 14
986.345128
 24
820.339082
 52
270.000000
 70
1
  0
DIMENSION
  8
CSLAYER1
 62
     3
  2
*D0013
 10
961.345128
 20
743.507513
 11
836.345154
 21
751.507507
 13
711.345128
 23
820.339082
 14
961.345128
 24
820.339082
 52
270.000000
 70
1
  0
DIMENSION
  8
CSLAYER1
 62
     3
  2
*D0014
 10
1429.166599
 20
677.621183
 11
1454.750732
 21
658.724182
 13
1404.166599
 23
818.339082
 14
1429.166599
 24
818.339082
 52
270.000000
 70
1
  0
INSERT
  8
CSLAYER1
  2
EASYDRAWDIM0005
 10
0.0
 20
0.0
 30
0.0
  0
INSERT
  8
CSLAYER1
  2
BLKF0001
 10
0.0
 20
0.0
 30
0.0
  0
LINE
  8
CSLAYER1
  6
CONTINUOUS
 62
     5
 10
2736.833157
 20
532.415837
 11
3536.833157
 21
532.415837
  0
LINE
  8
CSLAYER1
  6
CONTINUOUS
 62
     5
 10
2736.833157
 20
172.415837
 11
3536.833157
 21
172.415837
  0
LINE
  8
CSLAYER1
  6
CONTINUOUS
 62
     5
 10
2736.833157
 20
332.415837
 11
3536.833157
 21
332.415837
  0
LINE
  8
CSLAYER1
  6
CONTINUOUS
 62
     5
 10
2736.833157
 20
392.415837
 11
3536.833157
 21
392.415837
  0
LINE
  8
CSLAYER1
  6
CONTINUOUS
 62
     5
 10
2736.833157
 20
452.415837
 11
3536.833157
 21
452.415837
  0
LINE
  8
CSLAYER1
  6
CONTINUOUS
 62
     5
 10
2736.833157
 20
612.415837
 11
3536.833157
 21
612.415837
  0
LINE
  8
CSLAYER1
  6
CONTINUOUS
 62
     5
 10
2736.833157
 20
692.415837
 11
2736.833157
 21
92.415837
  0
LINE
  8
CSLAYER1
  6
CONTINUOUS
 62
     5
 10
2936.833157
 20
692.415837
 11
2936.833157
 21
452.415837
  0
LINE
  8
CSLAYER1
  6
CONTINUOUS
 62
     5
 10
2736.833157
 20
692.415837
 11
3536.833157
 21
692.415837
  0
LINE
  8
CSLAYER1
  6
CONTINUOUS
 62
     5
 10
3236.833157
 20
452.415837
 11
3236.833157
 21
172.415837
  0
TEXT
  8
CSLAYER1
 62
     3
 10
2956.524227
 20
100.978550
 40
59.380363
 41
1.003345
  1
東正車輌株式会社
 50
0.000000
 51
0.000000
  7
EASYDRAW_FONT
 72
     5
 11
3413.296574
 21
100.978550
  0
LINE
  8
CSLAYER1
  6
CONTINUOUS
 62
     5
 10
2986.833157
 20
392.415837
 11
2986.833157
 21
172.415837
  0
TEXT
  8
CSLAYER1
 62
     5
 10
2766.833008
 20
627.415771
 40
50.000000
 41
1.050000
  1
品　名
 50
0.000000
 51
0.000000
  7
EASYDRAW_FONT
 72
     5
 11
2906.833008
 21
627.415771
  0
TEXT
  8
CSLAYER1
 62
     5
 10
2766.833008
 20
547.415771
 40
50.000000
 41
1.050000
  1
型　式
 50
0.000000
 51
0.000000
  7
EASYDRAW_FONT
 72
     5
 11
2906.833008
 21
547.415771
  0
TEXT
  8
CSLAYER1
 62
     5
 10
2741.833008
 20
467.415863
 40
50.000000
 41
1.036364
  1
図面番号
 50
0.000000
 51
0.000000
  7
EASYDRAW_FONT
 72
     5
 11
2931.833008
 21
467.415863
  0
TEXT
  8
CSLAYER1
 62
     5
 10
2766.833008
 20
397.415863
 40
50.000000
 41
0.825000
  1
平成26年01月10日
 50
0.000000
 51
0.000000
  7
EASYDRAW_FONT
 72
     5
 11
3206.833008
 21
397.415863
  0
TEXT
  8
CSLAYER1
 62
     5
 10
3316.833008
 20
397.415863
 40
50.000000
 41
1.050000
  1
Ｂ－４
 50
0.000000
 51
0.000000
  7
EASYDRAW_FONT
 72
     5
 11
3456.833008
 21
397.415863
  0
TEXT
  8
CSLAYER1
 62
     5
 10
2791.833008
 20
337.415863
 40
50.000000
 41
1.050000
  1
検　図
 50
0.000000
 51
0.000000
  7
EASYDRAW_FONT
 72
     5
 11
2931.833008
 21
337.415863
  0
TEXT
  8
CSLAYER1
 62
     5
 10
3041.833008
 20
337.415863
 40
50.000000
 41
1.050000
  1
作　図
 50
0.000000
 51
0.000000
  7
EASYDRAW_FONT
 72
     5
 11
3181.833008
 21
337.415863
  0
TEXT
  8
CSLAYER1
 62
     5
 10
3316.833008
 20
337.415863
 40
50.000000
 41
1.050000
  1
尺　度
 50
0.000000
 51
0.000000
  7
EASYDRAW_FONT
 72
     5
 11
3456.833008
 21
337.415863
  0
TEXT
  8
CSLAYER1
 62
     5
 10
3417.571777
 20
186.901093
 40
50.000000
 41
1.080000
  1
１０
 50
0.000000
 51
0.000000
  7
EASYDRAW_FONT
 72
     5
 11
3507.571777
 21
186.901093
  0
TEXT
  8
CSLAYER1
 62
     5
 10
3397.252197
 20
234.605804
 40
50.000000
 41
1.200000
  1
／
 50
0.000000
 51
0.000000
  7
EASYDRAW_FONT
 72
     5
 11
3437.252197
 21
234.605804
  0
TEXT
  8
CSLAYER1
 62
     5
 10
3367.039307
 20
269.589264
 40
50.000000
 41
1.200000
  1
１
 50
0.000000
 51
0.000000
  7
EASYDRAW_FONT
 72
     5
 11
3407.039307
 21
269.589264
  0
TEXT
  8
CSLAYER1
 62
     3
 10
3076.833008
 20
627.415771
 40
50.000000
 41
0.834783
  1
ゴールドリフター
 50
0.000000
 51
0.000000
  7
EASYDRAW_FONT
 72
     5
 11
3396.833008
 21
627.415771
  0
TEXT
  8
CSLAYER1
 62
     3
 10
2976.833008
 20
547.415771
 40
50.000000
 41
0.821053
  1
GLSE-350-2008
 50
0.000000
 51
0.000000
  7
EASYDRAW_FONT
 72
     5
 11
3496.833008
 21
547.415771
  0
INSERT
  8
CSLAYER1
  2
BLKF0002
 10
0.0
 20
0.0
 30
0.0
  0
TEXT
  8
CSLAYER1
 62
     7
 10
2718.223877
 20
974.529663
 40
40.000000
 41
0.843750
  1
下降時
 50
0.000000
 51
0.000000
  7
EASYDRAW_FONT
 72
     5
 11
2808.223877
 21
974.529663
  0
LINE
  8
CSLAYER1
  6
CONTINUOUS
 62
     5
 10
2704.617131
 20
1020.959834
 11
2827.575141
 21
1020.959834
  0
LINE
  8
CSLAYER1
  6
CONTINUOUS
 62
     5
 10
2827.575141
 20
1020.959834
 11
2827.575141
 21
968.099381
  0
LINE
  8
CSLAYER1
  6
CONTINUOUS
 62
     5
 10
2827.575141
 20
968.099381
 11
2704.617131
 21
968.099381
  0
LINE
  8
CSLAYER1
  6
CONTINUOUS
 62
     5
 10
2704.617131
 20
968.099381
 11
2704.617131
 21
1020.959834
  0
ENDSEC
  0
EOF
