  0
SECTION
  2
HEADER
  9
$ACADVER
  1
AC1006
  9
$INSBASE
 10
677.310070
 20
2064.420294
 30
0.0
  9
$EXTMIN
 10
677.310070
 20
2064.420294
  9
$EXTMAX
 10
4317.310070
 20
4634.420294
  9
$LIMMIN
 10
677.310070
 20
2064.420294
  9
$LIMMAX
 10
4317.310070
 20
4634.420294
  9
$VIEWCTR
 10
2497.310070
 20
3349.420294
  9
$VIEWSIZE
 40
2570.000000
  9
$SNAPMODE
 70
     0
  9
$SNAPUNIT
 10
1.0
 20
1.0
  9
$SNAPBASE
 10
0.0
 20
0.0
  9
$SNAPANG
 50
0.0
  9
$SNAPSTYLE
 70
     0
  9
$SNAPISOPAIR
 70
     0
  9
$GRIDMODE
 70
     0
  9
$GRIDUNIT
 10
0.0
 20
0.0
  9
$ORTHOMODE
 70
     0
  9
$REGENMODE
 70
     1
  9
$FILLMODE
 70
     1
  9
$QTEXTMODE
 70
     0
  9
$DRAGMODE
 70
     2
  9
$LTSCALE
 40
15.000000
  9
$OSMODE
 70
     0
  9
$ATTMODE
 70
     1
  9
$TEXTSIZE
 40
0.2
  9
$TRACEWID
 40
0.05
  9
$TEXTSTYLE
  7
STANDARD
  9
$CLAYER
  8
CSLAYER1
  9
$CELTYPE
  6
BYLAYER
  9
$CECOLOR
 62
   256
  9
$DIMSCALE
 40
1.0
  9
$DIMASZ
 40
0.18
  9
$DIMEXO
 40
0.0625
  9
$DIMDLI
 40
0.38
  9
$DIMRND
 40
0.0
  9
$DIMDLE
 40
0.0
  9
$DIMEXE
 40
0.18
  9
$DIMTP
 40
0.0
  9
$DIMTM
 40
0.0
  9
$DIMTXT
 40
0.18
  9
$DIMCEN
 40
0.09
  9
$DIMTSZ
 40
0.0
  9
$DIMTOL
 70
     0
  9
$DIMLIM
 70
     0
  9
$DIMTIH
 70
     1
  9
$DIMTOH
 70
     1
  9
$DIMSE1
 70
     0
  9
$DIMSE2
 70
     0
  9
$DIMTAD
 70
     0
  9
$DIMZIN
 70
     0
  9
$DIMBLK
  1

  9
$LUNITS
 70
     2
  9
$LUPREC
 70
     4
  9
$AXISMODE
 70
     0
  9
$AXISUNIT
 10
0.0
 20
0.0
  9
$SKETCHINC
 40
0.1
  9
$FILLETRAD
 40
0.0
  9
$AUNITS
 70
     0
  9
$AUPREC
 70
     0
  9
$MENU
  1
ACAD
  9
$ELEVATION
 40
0.0
  9
$THICKNESS
 40
0.0
  9
$VIEWDIR
 10
0.0
 20
0.0
 30
1.0
  9
$LIMCHECK
 70
     0
  9
$BLIPMODE
 70
     1
  9
$CHAMFERA
 40
0.0
  9
$CHAMFERB
 40
0.0
  9
$FASTZOOM
 70
     1
  9
$SKPOLY
 70
     0
  9
$TDCREATE
 40
2456676.000000
  9
$TDUPDATE
 40
2456676.000000
  9
$TDINDWG
 40
0.0
  9
$TDUSRTIMER
 40
0.0
  9
$USRTIMER
 70
     1
  9
$ANGBASE
 50
0.0
  9
$ANGDIR
 70
     0
  9
$PDMODE
 70
     0
  9
$PDSIZE
 40
0.0
  9
$PLINEWID
 40
0.0
  9
$COORDS
 70
     0
  9
$USERI1
 70
     0
  9
$USERI2
 70
     0
  9
$USERI3
 70
     0
  9
$USERI4
 70
     0
  9
$USERI5
 70
     0
  9
$USERR1
 40
0.0
  9
$USERR2
 40
0.0
  9
$USERR3
 40
0.0
  9
$USERR4
 40
0.0
  9
$USERR5
 40
0.0
  0
ENDSEC
  0
SECTION
  2
TABLES
  0
TABLE
  2
LTYPE
 70
     9
  0
LTYPE
  2
CONTINUOUS
 70
    64
  3
Solid line
 72
    65
 73
     0
 40
0.0
  0
LTYPE
  2
DASHED
 70
    64
  3
__ __ __ __ __ __ __ __ __ __ __ __ __ __ __
 72
    65
 73
     2
 40
0.75
 49
0.5
 49
-0.25
  0
LTYPE
  2
HIDDEN
 70
    64
  3
_ _ _ _ _ _ _ _ _ _ _ _ _ _ _ _ _ _ _ _ _ _ _
 72
    65
 73
     2
 40
0.375
 49
0.25
 49
-0.125
  0
LTYPE
  2
DOT
 70
    64
  3
...............................................
 72
    65
 73
     2
 40
0.25
 49
0.0
 49
-0.25
  0
LTYPE
  2
DASHDOT
 70
    64
  3
__ . __ . __ . __ . __ . __ . __ . __ . __ . __
 72
    65
 73
     4
 40
1.0
 49
0.5
 49
-0.25
 49
0.0
 49
-0.25
  0
LTYPE
  2
DIVIDE
 70
    64
  3
__ . . __ . . __ . . __ . . __ . . __ . . __
 72
    65
 73
     6
 40
1.25
 49
0.5
 49
-0.25
 49
0.0
 49
-0.25
 49
0.0
 49
-0.25
  0
LTYPE
  2
CENTER
 70
    64
  3
____ _ ____ _ ____ _ ____ _ ____ _ ____ _ ____ 
 72
    65
 73
     4
 40
2.0
 49
1.25
 49
-0.25
 49
0.25
 49
-0.25
  0
LTYPE
  2
PHANTOM
 70
    64
  3
______  __  __  ______  __  __  ______  __  __ 
 72
    65
 73
     6
 40
2.5
 49
1.25
 49
-0.25
 49
0.25
 49
-0.25
 49
0.25
 49
-0.25
  0
LTYPE
  2
BORDER
 70
    64
  3
__ __ . __ __ . __ __ . __ __ . __ __ . __ __ .
 72
    65
 73
     6
 40
1.75
 49
0.5
 49
-0.25
 49
0.5
 49
-0.25
 49
0.0
 49
-0.25
  0
ENDTAB
  0
TABLE
  2
LAYER
 70
    16
  0
LAYER
  2
CSLAYER1
 70
    64
 62
     7
  6
CONTINUOUS
  0
LAYER
  2
CSLAYER2
 70
    64
 62
     7
  6
CONTINUOUS
  0
LAYER
  2
CSLAYER3
 70
    64
 62
     7
  6
CONTINUOUS
  0
LAYER
  2
CSLAYER4
 70
    64
 62
     7
  6
CONTINUOUS
  0
LAYER
  2
CSLAYER5
 70
    64
 62
     7
  6
CONTINUOUS
  0
LAYER
  2
CSLAYER6
 70
    64
 62
     7
  6
CONTINUOUS
  0
LAYER
  2
CSLAYER7
 70
    64
 62
     7
  6
CONTINUOUS
  0
LAYER
  2
CSLAYER8
 70
    64
 62
     7
  6
CONTINUOUS
  0
LAYER
  2
CSLAYER9
 70
    64
 62
     7
  6
CONTINUOUS
  0
LAYER
  2
CSLAYER10
 70
    64
 62
     7
  6
CONTINUOUS
  0
LAYER
  2
CSLAYER11
 70
    64
 62
     7
  6
CONTINUOUS
  0
LAYER
  2
CSLAYER12
 70
    64
 62
     7
  6
CONTINUOUS
  0
LAYER
  2
CSLAYER13
 70
    64
 62
     7
  6
CONTINUOUS
  0
LAYER
  2
CSLAYER14
 70
    64
 62
     7
  6
CONTINUOUS
  0
LAYER
  2
CSLAYER15
 70
    64
 62
     7
  6
CONTINUOUS
  0
LAYER
  2
CSLAYER16
 70
    64
 62
     7
  6
CONTINUOUS
  0
ENDTAB
  0
TABLE
  2
STYLE
 70
     1
  0
STYLE
  2
EASYDRAW_FONT
 70
     0
 40
1.0
 41
1.0
 50
0.0
 71
     0
 42
1.0
  3
monotxt
  4
bigfont
  0
ENDTAB
  0
TABLE
  2
VIEW
 70
     0
  0
ENDTAB
  0
ENDSEC
  0
SECTION
  2
BLOCKS
  0
BLOCK
  8
CSLAYER1
  2
*D0000
 70
    65
 10
0.0
 20
0.0
 30
0.0
  0
TEXT
  8
CSLAYER1
 62
     3
 10
2388.173584
 20
1056.873535
 40
40.000000
 41
0.843750
  1
580
 50
90.000000
 51
0.000000
  7
EASYDRAW_FONT
 72
     5
 11
2388.173584
 21
1146.873535
  0
LINE
  8
CSLAYER1
  6
CONTINUOUS
 62
     5
 10
2404.173561
 20
796.091760
 11
2192.464408
 21
796.091760
  0
LINE
  8
CSLAYER1
  6
CONTINUOUS
 62
     5
 10
2404.173561
 20
1407.655432
 11
2212.009366
 21
1407.655432
  0
LINE
  8
CSLAYER1
  6
CONTINUOUS
 62
     5
 10
2396.173561
 20
796.091760
 11
2396.173561
 21
1407.655432
  0
LINE
  8
CSLAYER1
  6
CONTINUOUS
 62
     5
 10
2396.173561
 20
796.091760
 11
2388.408990
 21
825.069535
  0
LINE
  8
CSLAYER1
  6
CONTINUOUS
 62
     5
 10
2396.173561
 20
796.091760
 11
2403.938133
 21
825.069535
  0
LINE
  8
CSLAYER1
  6
CONTINUOUS
 62
     5
 10
2396.173561
 20
1407.655432
 11
2388.408990
 21
1378.677657
  0
LINE
  8
CSLAYER1
  6
CONTINUOUS
 62
     5
 10
2396.173561
 20
1407.655432
 11
2403.938133
 21
1378.677657
  0
ENDBLK
  8
0
  0
BLOCK
  8
CSLAYER1
  2
*D0001
 70
    65
 10
0.0
 20
0.0
 30
0.0
  0
TEXT
  8
CSLAYER1
 62
     3
 10
1008.680664
 20
1261.675659
 40
40.000000
 41
0.769737
  1
テーブルのズレ　ＭＡＸ２０
 50
0.000000
 51
0.000000
  7
EASYDRAW_FONT
 72
     5
 11
1398.680664
 21
1261.675659
  0
LINE
  8
CSLAYER1
  6
CONTINUOUS
 62
     5
 10
1382.164408
 20
876.091760
 11
1382.164408
 21
1257.931133
  0
LINE
  8
CSLAYER1
  6
CONTINUOUS
 62
     5
 10
1402.009366
 20
1377.655432
 11
1402.009366
 21
1241.931133
  0
LINE
  8
CSLAYER1
  6
CONTINUOUS
 62
     5
 10
1382.164408
 20
1249.931133
 11
1402.009366
 21
1249.931133
  0
LINE
  8
CSLAYER1
  6
CONTINUOUS
 62
     5
 10
995.885890
 20
1249.931133
 11
1382.164408
 21
1249.931133
  0
LINE
  8
CSLAYER1
  6
CONTINUOUS
 62
     5
 10
1382.164408
 20
1249.931133
 11
1353.186633
 21
1257.695704
  0
LINE
  8
CSLAYER1
  6
CONTINUOUS
 62
     5
 10
1382.164408
 20
1249.931133
 11
1353.186633
 21
1242.166561
  0
LINE
  8
CSLAYER1
  6
CONTINUOUS
 62
     5
 10
1402.009366
 20
1249.931133
 11
1442.009366
 21
1249.931133
  0
LINE
  8
CSLAYER1
  6
CONTINUOUS
 62
     5
 10
1402.009366
 20
1249.931133
 11
1430.987141
 21
1257.695704
  0
LINE
  8
CSLAYER1
  6
CONTINUOUS
 62
     5
 10
1402.009366
 20
1249.931133
 11
1430.987141
 21
1242.166561
  0
ENDBLK
  8
0
  0
BLOCK
  8
CSLAYER1
  2
EASYDRAWDIM0000
 70
   64
 10
0.0
 20
0.0
 30
0.0
  0
TEXT
  8
CSLAYER1
 62
     3
 10
974.939941
 20
665.235046
 40
40.000000
 41
0.771429
  1
2-%%c13（アンカー穴）
 50
0.000000
 51
0.000000
  7
EASYDRAW_FONT
 72
     5
 11
1334.939941
 21
665.235046
  0
LINE
  8
CSLAYER1
  6
CONTINUOUS
 62
     5
 10
1014.963228
 20
713.190024
 11
1300.559891
 21
713.190024
  0
ENDBLK
  8
0
  0
BLOCK
  8
CSLAYER1
  2
EASYDRAWDIM0001
 70
   64
 10
0.0
 20
0.0
 30
0.0
  0
TEXT
  8
CSLAYER1
 62
     3
 10
1073.342529
 20
1176.102173
 40
40.000000
 41
0.787500
  1
油圧シリンダー
 50
0.000000
 51
0.000000
  7
EASYDRAW_FONT
 72
     5
 11
1283.342529
 21
1176.102173
  0
LINE
  8
CSLAYER1
  6
CONTINUOUS
 62
     5
 10
1289.346155
 20
1168.102254
 11
1067.018362
 21
1168.102254
  0
ENDBLK
  8
0
  0
BLOCK
  8
CSLAYER1
  2
EASYDRAWDIM0002
 70
   64
 10
0.0
 20
0.0
 30
0.0
  0
TEXT
  8
CSLAYER1
 62
     3
 10
1039.032959
 20
1003.953857
 40
40.000000
 41
0.803571
  1
高圧ホース
 50
0.000000
 51
0.000000
  7
EASYDRAW_FONT
 72
     5
 11
1189.032959
 21
1003.953857
  0
LINE
  8
CSLAYER1
  6
CONTINUOUS
 62
     5
 10
1304.306577
 20
814.741760
 11
1201.503526
 21
995.953918
  0
LINE
  8
CSLAYER1
  6
CONTINUOUS
 62
     5
 10
1304.306577
 20
814.741760
 11
1283.254450
 21
836.114826
  0
LINE
  8
CSLAYER1
  6
CONTINUOUS
 62
     5
 10
1304.306577
 20
814.741760
 11
1296.761433
 21
843.777442
  0
LINE
  8
CSLAYER1
  6
CONTINUOUS
 62
     5
 10
1201.503526
 20
995.953918
 11
1028.970761
 21
995.953918
  0
ENDBLK
  8
0
  0
BLOCK
  8
CSLAYER1
  2
*D0002
 70
    65
 10
0.0
 20
0.0
 30
0.0
  0
TEXT
  8
CSLAYER1
 62
     3
 10
1021.149414
 20
831.311768
 40
40.000000
 41
1.125000
  1
6
 50
90.000000
 51
0.000000
  7
EASYDRAW_FONT
 72
     5
 11
1021.149414
 21
861.311768
  0
LINE
  8
CSLAYER1
  6
CONTINUOUS
 62
     5
 10
952.055581
 20
796.091760
 11
1037.149372
 21
796.091760
  0
LINE
  8
CSLAYER1
  6
CONTINUOUS
 62
     5
 10
952.055581
 20
802.091760
 11
1037.149372
 21
802.091760
  0
LINE
  8
CSLAYER1
  6
CONTINUOUS
 62
     5
 10
1029.149372
 20
796.091760
 11
1029.149372
 21
802.091760
  0
LINE
  8
CSLAYER1
  6
CONTINUOUS
 62
     5
 10
1029.149372
 20
775.427541
 11
1029.149372
 21
796.091760
  0
LINE
  8
CSLAYER1
  6
CONTINUOUS
 62
     5
 10
1029.149372
 20
796.091760
 11
1021.384801
 21
767.113986
  0
LINE
  8
CSLAYER1
  6
CONTINUOUS
 62
     5
 10
1029.149372
 20
796.091760
 11
1036.913943
 21
767.113986
  0
LINE
  8
CSLAYER1
  6
CONTINUOUS
 62
     5
 10
1029.149372
 20
802.091760
 11
1029.149372
 21
866.531880
  0
LINE
  8
CSLAYER1
  6
CONTINUOUS
 62
     5
 10
1029.149372
 20
802.091760
 11
1021.384801
 21
831.069535
  0
LINE
  8
CSLAYER1
  6
CONTINUOUS
 62
     5
 10
1029.149372
 20
802.091760
 11
1036.913943
 21
831.069535
  0
ENDBLK
  8
0
  0
BLOCK
  8
CSLAYER1
  2
*D0003
 70
    65
 10
0.0
 20
0.0
 30
0.0
  0
TEXT
  8
CSLAYER1
 62
     3
 10
749.055420
 20
729.260132
 40
40.000000
 41
0.843750
  1
250
 50
0.000000
 51
0.000000
  7
EASYDRAW_FONT
 72
     5
 11
839.055420
 21
729.260132
  0
LINE
  8
CSLAYER1
  6
CONTINUOUS
 62
     5
 10
669.055581
 20
788.091760
 11
669.055581
 21
713.260191
  0
LINE
  8
CSLAYER1
  6
CONTINUOUS
 62
     5
 10
919.055581
 20
788.091760
 11
919.055581
 21
713.260191
  0
LINE
  8
CSLAYER1
  6
CONTINUOUS
 62
     5
 10
669.055581
 20
721.260191
 11
919.055581
 21
721.260191
  0
LINE
  8
CSLAYER1
  6
CONTINUOUS
 62
     5
 10
669.055581
 20
721.260191
 11
698.033356
 21
729.024762
  0
LINE
  8
CSLAYER1
  6
CONTINUOUS
 62
     5
 10
669.055581
 20
721.260191
 11
698.033356
 21
713.495620
  0
LINE
  8
CSLAYER1
  6
CONTINUOUS
 62
     5
 10
919.055581
 20
721.260191
 11
890.077807
 21
729.024762
  0
LINE
  8
CSLAYER1
  6
CONTINUOUS
 62
     5
 10
919.055581
 20
721.260191
 11
890.077807
 21
713.495620
  0
ENDBLK
  8
0
  0
BLOCK
  8
CSLAYER1
  2
*D0004
 70
    65
 10
0.0
 20
0.0
 30
0.0
  0
TEXT
  8
CSLAYER1
 62
     3
 10
749.055420
 20
659.886719
 40
40.000000
 41
0.843750
  1
300
 50
0.000000
 51
0.000000
  7
EASYDRAW_FONT
 72
     5
 11
839.055420
 21
659.886719
  0
LINE
  8
CSLAYER1
  6
CONTINUOUS
 62
     5
 10
644.055581
 20
788.091760
 11
644.055581
 21
643.886734
  0
LINE
  8
CSLAYER1
  6
CONTINUOUS
 62
     5
 10
944.055581
 20
788.091760
 11
944.055581
 21
643.886734
  0
LINE
  8
CSLAYER1
  6
CONTINUOUS
 62
     5
 10
644.055581
 20
651.886734
 11
944.055581
 21
651.886734
  0
LINE
  8
CSLAYER1
  6
CONTINUOUS
 62
     5
 10
644.055581
 20
651.886734
 11
673.033356
 21
659.651306
  0
LINE
  8
CSLAYER1
  6
CONTINUOUS
 62
     5
 10
644.055581
 20
651.886734
 11
673.033356
 21
644.122163
  0
LINE
  8
CSLAYER1
  6
CONTINUOUS
 62
     5
 10
944.055581
 20
651.886734
 11
915.077807
 21
659.651306
  0
LINE
  8
CSLAYER1
  6
CONTINUOUS
 62
     5
 10
944.055581
 20
651.886734
 11
915.077807
 21
644.122163
  0
ENDBLK
  8
0
  0
BLOCK
  8
CSLAYER1
  2
*D0005
 70
    65
 10
0.0
 20
0.0
 30
0.0
  0
TEXT
  8
CSLAYER1
 62
     3
 10
1384.557129
 20
665.692017
 40
40.000000
 41
0.900000
  1
25
 50
0.000000
 51
0.000000
  7
EASYDRAW_FONT
 72
     5
 11
1444.557129
 21
665.692017
  0
LINE
  8
CSLAYER1
  6
CONTINUOUS
 62
     5
 10
1379.464408
 20
788.091760
 11
1379.464408
 21
632.555944
  0
LINE
  8
CSLAYER1
  6
CONTINUOUS
 62
     5
 10
1404.464408
 20
805.591760
 11
1404.464408
 21
713.260191
  0
LINE
  8
CSLAYER1
  6
CONTINUOUS
 62
     5
 10
1379.464408
 20
721.260191
 11
1404.464408
 21
721.260191
  0
LINE
  8
CSLAYER1
  6
CONTINUOUS
 62
     5
 10
1339.464408
 20
721.260191
 11
1379.464408
 21
721.260191
  0
LINE
  8
CSLAYER1
  6
CONTINUOUS
 62
     5
 10
1379.464408
 20
721.260191
 11
1350.486633
 21
729.024762
  0
LINE
  8
CSLAYER1
  6
CONTINUOUS
 62
     5
 10
1379.464408
 20
721.260191
 11
1350.486633
 21
713.495620
  0
LINE
  8
CSLAYER1
  6
CONTINUOUS
 62
     5
 10
1404.464408
 20
721.260191
 11
1444.464408
 21
721.260191
  0
LINE
  8
CSLAYER1
  6
CONTINUOUS
 62
     5
 10
1404.464408
 20
721.260191
 11
1433.442182
 21
729.024762
  0
LINE
  8
CSLAYER1
  6
CONTINUOUS
 62
     5
 10
1404.464408
 20
721.260191
 11
1433.442182
 21
713.495620
  0
ENDBLK
  8
0
  0
BLOCK
  8
CSLAYER1
  2
*D0006
 70
    65
 10
0.0
 20
0.0
 30
0.0
  0
TEXT
  8
CSLAYER1
 62
     3
 10
2474.057617
 20
806.091736
 40
40.000000
 41
0.900000
  1
80
 50
90.000000
 51
0.000000
  7
EASYDRAW_FONT
 72
     5
 11
2474.057617
 21
866.091736
  0
LINE
  8
CSLAYER1
  6
CONTINUOUS
 62
     5
 10
2515.872570
 20
796.091760
 11
2474.057477
 21
796.091760
  0
LINE
  8
CSLAYER1
  6
CONTINUOUS
 62
     5
 10
2565.872570
 20
876.091760
 11
2474.057477
 21
876.091760
  0
LINE
  8
CSLAYER1
  6
CONTINUOUS
 62
     5
 10
2484.057477
 20
796.091760
 11
2484.057477
 21
876.091760
  0
LINE
  8
CSLAYER1
  6
CONTINUOUS
 62
     5
 10
2484.057477
 20
796.091760
 11
2476.292906
 21
825.069535
  0
LINE
  8
CSLAYER1
  6
CONTINUOUS
 62
     5
 10
2484.057477
 20
796.091760
 11
2491.822048
 21
825.069535
  0
LINE
  8
CSLAYER1
  6
CONTINUOUS
 62
     5
 10
2484.057477
 20
876.091760
 11
2476.292906
 21
847.113986
  0
LINE
  8
CSLAYER1
  6
CONTINUOUS
 62
     5
 10
2484.057477
 20
876.091760
 11
2491.822048
 21
847.113986
  0
ENDBLK
  8
0
  0
BLOCK
  8
CSLAYER1
  2
*D0007
 70
    65
 10
0.0
 20
0.0
 30
0.0
  0
TEXT
  8
CSLAYER1
 62
     3
 10
2308.316895
 20
806.091736
 40
40.000000
 41
0.900000
  1
80
 50
90.000000
 51
0.000000
  7
EASYDRAW_FONT
 72
     5
 11
2308.316895
 21
866.091736
  0
LINE
  8
CSLAYER1
  6
CONTINUOUS
 62
     5
 10
2192.164408
 20
876.091760
 11
2328.316785
 21
876.091760
  0
LINE
  8
CSLAYER1
  6
CONTINUOUS
 62
     5
 10
2318.316785
 20
796.091760
 11
2318.316785
 21
876.091760
  0
LINE
  8
CSLAYER1
  6
CONTINUOUS
 62
     5
 10
2318.316785
 20
796.091760
 11
2310.552213
 21
825.069535
  0
LINE
  8
CSLAYER1
  6
CONTINUOUS
 62
     5
 10
2318.316785
 20
796.091760
 11
2326.081356
 21
825.069535
  0
LINE
  8
CSLAYER1
  6
CONTINUOUS
 62
     5
 10
2318.316785
 20
876.091760
 11
2310.552213
 21
847.113986
  0
LINE
  8
CSLAYER1
  6
CONTINUOUS
 62
     5
 10
2318.316785
 20
876.091760
 11
2326.081356
 21
847.113986
  0
ENDBLK
  8
0
  0
BLOCK
  8
CSLAYER1
  2
*D0008
 70
    65
 10
0.0
 20
0.0
 30
0.0
  0
TEXT
  8
CSLAYER1
 62
     3
 10
2308.316895
 20
1096.873535
 40
40.000000
 41
0.843750
  1
500
 50
90.000000
 51
0.000000
  7
EASYDRAW_FONT
 72
     5
 11
2308.316895
 21
1186.873535
  0
LINE
  8
CSLAYER1
  6
CONTINUOUS
 62
     5
 10
2318.316785
 20
876.091760
 11
2318.316785
 21
1407.655432
  0
LINE
  8
CSLAYER1
  6
CONTINUOUS
 62
     5
 10
2318.316785
 20
876.091760
 11
2310.552213
 21
905.069535
  0
LINE
  8
CSLAYER1
  6
CONTINUOUS
 62
     5
 10
2318.316785
 20
876.091760
 11
2326.081356
 21
905.069535
  0
LINE
  8
CSLAYER1
  6
CONTINUOUS
 62
     5
 10
2318.316785
 20
1407.655432
 11
2310.552213
 21
1378.677657
  0
LINE
  8
CSLAYER1
  6
CONTINUOUS
 62
     5
 10
2318.316785
 20
1407.655432
 11
2326.081356
 21
1378.677657
  0
ENDBLK
  8
0
  0
BLOCK
  8
CSLAYER1
  2
*D0009
 70
    65
 10
0.0
 20
0.0
 30
0.0
  0
TEXT
  8
CSLAYER1
 62
     3
 10
1757.009277
 20
1521.151733
 40
40.000000
 41
0.843750
  1
800
 50
0.000000
 51
0.000000
  7
EASYDRAW_FONT
 72
     5
 11
1847.009277
 21
1521.151733
  0
LINE
  8
CSLAYER1
  6
CONTINUOUS
 62
     5
 10
1402.009366
 20
1417.655432
 11
1402.009366
 21
1521.151789
  0
LINE
  8
CSLAYER1
  6
CONTINUOUS
 62
     5
 10
2202.009366
 20
1417.655432
 11
2202.009366
 21
1521.151789
  0
LINE
  8
CSLAYER1
  6
CONTINUOUS
 62
     5
 10
1402.009366
 20
1511.151789
 11
2202.009366
 21
1511.151789
  0
LINE
  8
CSLAYER1
  6
CONTINUOUS
 62
     5
 10
1402.009366
 20
1511.151789
 11
1430.987141
 21
1518.916361
  0
LINE
  8
CSLAYER1
  6
CONTINUOUS
 62
     5
 10
1402.009366
 20
1511.151789
 11
1430.987141
 21
1503.387218
  0
LINE
  8
CSLAYER1
  6
CONTINUOUS
 62
     5
 10
2202.009366
 20
1511.151789
 11
2173.031591
 21
1518.916361
  0
LINE
  8
CSLAYER1
  6
CONTINUOUS
 62
     5
 10
2202.009366
 20
1511.151789
 11
2173.031591
 21
1503.387218
  0
ENDBLK
  8
0
  0
BLOCK
  8
CSLAYER1
  2
*D0010
 70
    65
 10
0.0
 20
0.0
 30
0.0
  0
TEXT
  8
CSLAYER1
 62
     3
 10
1735.964355
 20
652.555908
 40
40.000000
 41
0.843750
  1
803
 50
0.000000
 51
0.000000
  7
EASYDRAW_FONT
 72
     5
 11
1825.964355
 21
652.555908
  0
LINE
  8
CSLAYER1
  6
CONTINUOUS
 62
     5
 10
2182.464408
 20
786.091760
 11
2182.464408
 21
632.555944
  0
LINE
  8
CSLAYER1
  6
CONTINUOUS
 62
     5
 10
1379.464408
 20
642.555944
 11
2182.464408
 21
642.555944
  0
LINE
  8
CSLAYER1
  6
CONTINUOUS
 62
     5
 10
1379.464408
 20
642.555944
 11
1408.442182
 21
650.320515
  0
LINE
  8
CSLAYER1
  6
CONTINUOUS
 62
     5
 10
1379.464408
 20
642.555944
 11
1408.442182
 21
634.791372
  0
LINE
  8
CSLAYER1
  6
CONTINUOUS
 62
     5
 10
2182.464408
 20
642.555944
 11
2153.486633
 21
650.320515
  0
LINE
  8
CSLAYER1
  6
CONTINUOUS
 62
     5
 10
2182.464408
 20
642.555944
 11
2153.486633
 21
634.791372
  0
ENDBLK
  8
0
  0
BLOCK
  8
CSLAYER1
  2
*D0011
 70
    65
 10
0.0
 20
0.0
 30
0.0
  0
TEXT
  8
CSLAYER1
 62
     3
 10
749.055664
 20
1511.601685
 40
40.000000
 41
0.843750
  1
300
 50
0.000000
 51
0.000000
  7
EASYDRAW_FONT
 72
     5
 11
839.055664
 21
1511.601685
  0
LINE
  8
CSLAYER1
  6
CONTINUOUS
 62
     5
 10
644.055581
 20
1417.655432
 11
644.055581
 21
1511.601806
  0
LINE
  8
CSLAYER1
  6
CONTINUOUS
 62
     5
 10
944.055581
 20
1417.655432
 11
944.055581
 21
1511.601806
  0
LINE
  8
CSLAYER1
  6
CONTINUOUS
 62
     5
 10
644.055581
 20
1501.601806
 11
944.055581
 21
1501.601806
  0
LINE
  8
CSLAYER1
  6
CONTINUOUS
 62
     5
 10
644.055581
 20
1501.601806
 11
673.033356
 21
1509.366377
  0
LINE
  8
CSLAYER1
  6
CONTINUOUS
 62
     5
 10
644.055581
 20
1501.601806
 11
673.033356
 21
1493.837234
  0
LINE
  8
CSLAYER1
  6
CONTINUOUS
 62
     5
 10
944.055581
 20
1501.601806
 11
915.077807
 21
1509.366377
  0
LINE
  8
CSLAYER1
  6
CONTINUOUS
 62
     5
 10
944.055581
 20
1501.601806
 11
915.077807
 21
1493.837234
  0
ENDBLK
  8
0
  0
BLOCK
  8
CSLAYER1
  2
*D0012
 70
    65
 10
0.0
 20
0.0
 30
0.0
  0
TEXT
  8
CSLAYER1
 62
     3
 10
1308.608643
 20
1733.708374
 40
40.000000
 41
0.900000
  1
25
 50
0.000000
 51
0.000000
  7
EASYDRAW_FONT
 72
     5
 11
1368.608643
 21
1733.708374
  0
LINE
  8
CSLAYER1
  6
CONTINUOUS
 62
     5
 10
1379.464408
 20
1814.035634
 11
1379.464408
 21
1673.164002
  0
LINE
  8
CSLAYER1
  6
CONTINUOUS
 62
     5
 10
1404.464408
 20
1817.772833
 11
1404.464408
 21
1739.975570
  0
LINE
  8
CSLAYER1
  6
CONTINUOUS
 62
     5
 10
1379.464408
 20
1749.975570
 11
1404.464408
 21
1749.975570
  0
LINE
  8
CSLAYER1
  6
CONTINUOUS
 62
     5
 10
1379.464408
 20
1749.975570
 11
1408.442182
 21
1757.740141
  0
LINE
  8
CSLAYER1
  6
CONTINUOUS
 62
     5
 10
1379.464408
 20
1749.975570
 11
1408.442182
 21
1742.210998
  0
LINE
  8
CSLAYER1
  6
CONTINUOUS
 62
     5
 10
1404.464408
 20
1749.975570
 11
1375.486633
 21
1757.740141
  0
LINE
  8
CSLAYER1
  6
CONTINUOUS
 62
     5
 10
1404.464408
 20
1749.975570
 11
1375.486633
 21
1742.210998
  0
ENDBLK
  8
0
  0
BLOCK
  8
CSLAYER1
  2
*D0013
 70
    65
 10
0.0
 20
0.0
 30
0.0
  0
TEXT
  8
CSLAYER1
 62
     3
 10
1309.770752
 20
1666.315796
 40
40.000000
 41
0.900000
  1
50
 50
0.000000
 51
0.000000
  7
EASYDRAW_FONT
 72
     5
 11
1369.770752
 21
1666.315796
  0
LINE
  8
CSLAYER1
  6
CONTINUOUS
 62
     5
 10
1429.464408
 20
1814.035634
 11
1429.464408
 21
1673.164002
  0
LINE
  8
CSLAYER1
  6
CONTINUOUS
 62
     5
 10
1379.464408
 20
1683.164002
 11
1429.464408
 21
1683.164002
  0
LINE
  8
CSLAYER1
  6
CONTINUOUS
 62
     5
 10
1379.464408
 20
1683.164002
 11
1408.442182
 21
1690.928573
  0
LINE
  8
CSLAYER1
  6
CONTINUOUS
 62
     5
 10
1379.464408
 20
1683.164002
 11
1408.442182
 21
1675.399431
  0
LINE
  8
CSLAYER1
  6
CONTINUOUS
 62
     5
 10
1429.464408
 20
1683.164002
 11
1400.486633
 21
1690.928573
  0
LINE
  8
CSLAYER1
  6
CONTINUOUS
 62
     5
 10
1429.464408
 20
1683.164002
 11
1400.486633
 21
1675.399431
  0
ENDBLK
  8
0
  0
BLOCK
  8
CSLAYER1
  2
EASYDRAWDIM0003
 70
   64
 10
0.0
 20
0.0
 30
0.0
  0
TEXT
  8
CSLAYER1
 62
     3
 10
1522.686035
 20
1718.659058
 40
40.000000
 41
0.771429
  1
2-%%c13(アンカー穴)
 50
0.000000
 51
0.000000
  7
EASYDRAW_FONT
 72
     5
 11
1882.686035
 21
1718.659058
  0
LINE
  8
CSLAYER1
  6
CONTINUOUS
 62
     5
 10
1408.863008
 20
1834.777793
 11
1518.344975
 21
1708.659270
  0
LINE
  8
CSLAYER1
  6
CONTINUOUS
 62
     5
 10
1408.863008
 20
1834.777793
 11
1433.722667
 21
1817.985017
  0
LINE
  8
CSLAYER1
  6
CONTINUOUS
 62
     5
 10
1408.863008
 20
1834.777793
 11
1421.995717
 21
1807.804993
  0
LINE
  8
CSLAYER1
  6
CONTINUOUS
 62
     5
 10
1518.344975
 20
1708.659270
 11
1892.686228
 21
1708.659270
  0
ENDBLK
  8
0
  0
BLOCK
  8
CSLAYER1
  2
*D0014
 70
    65
 10
0.0
 20
0.0
 30
0.0
  0
TEXT
  8
CSLAYER1
 62
     3
 10
1285.958008
 20
1893.483032
 40
40.000000
 41
0.843750
  1
250
 50
90.000000
 51
0.000000
  7
EASYDRAW_FONT
 72
     5
 11
1285.958008
 21
1983.483032
  0
LINE
  8
CSLAYER1
  6
CONTINUOUS
 62
     5
 10
1383.201606
 20
1839.035634
 11
1284.210347
 21
1839.035634
  0
LINE
  8
CSLAYER1
  6
CONTINUOUS
 62
     5
 10
1383.201606
 20
2089.035634
 11
1284.210347
 21
2089.035634
  0
LINE
  8
CSLAYER1
  6
CONTINUOUS
 62
     5
 10
1294.210347
 20
1839.035634
 11
1294.210347
 21
2089.035634
  0
LINE
  8
CSLAYER1
  6
CONTINUOUS
 62
     5
 10
1294.210347
 20
1839.035634
 11
1286.445776
 21
1868.013409
  0
LINE
  8
CSLAYER1
  6
CONTINUOUS
 62
     5
 10
1294.210347
 20
1839.035634
 11
1301.974918
 21
1868.013409
  0
LINE
  8
CSLAYER1
  6
CONTINUOUS
 62
     5
 10
1294.210347
 20
2089.035634
 11
1286.445776
 21
2060.057859
  0
LINE
  8
CSLAYER1
  6
CONTINUOUS
 62
     5
 10
1294.210347
 20
2089.035634
 11
1301.974918
 21
2060.057859
  0
ENDBLK
  8
0
  0
BLOCK
  8
CSLAYER1
  2
EASYDRAWDIM0004
 70
   64
 10
0.0
 20
0.0
 30
0.0
  0
TEXT
  8
CSLAYER1
 62
     3
 10
1335.196777
 20
1861.935158
 40
33.155758
 41
0.767879
  1
穴ヒﾟッチ
 50
90.000000
 51
0.000000
  7
EASYDRAW_FONT
 72
     5
 11
1335.196777
 21
1980.746727
  0
ENDBLK
  8
0
  0
BLOCK
  8
CSLAYER1
  2
*D0015
 70
    65
 10
0.0
 20
0.0
 30
0.0
  0
TEXT
  8
CSLAYER1
 62
     3
 10
1308.608643
 20
1733.708374
 40
40.000000
 41
0.900000
  1
25
 50
0.000000
 51
0.000000
  7
EASYDRAW_FONT
 72
     5
 11
1368.608643
 21
1733.708374
  0
LINE
  8
CSLAYER1
  6
CONTINUOUS
 62
     5
 10
1379.464408
 20
1814.035634
 11
1379.464408
 21
1673.164002
  0
LINE
  8
CSLAYER1
  6
CONTINUOUS
 62
     5
 10
1404.464408
 20
1817.772833
 11
1404.464408
 21
1739.975570
  0
LINE
  8
CSLAYER1
  6
CONTINUOUS
 62
     5
 10
1379.464408
 20
1749.975570
 11
1404.464408
 21
1749.975570
  0
LINE
  8
CSLAYER1
  6
CONTINUOUS
 62
     5
 10
1379.464408
 20
1749.975570
 11
1408.442182
 21
1757.740141
  0
LINE
  8
CSLAYER1
  6
CONTINUOUS
 62
     5
 10
1379.464408
 20
1749.975570
 11
1408.442182
 21
1742.210998
  0
LINE
  8
CSLAYER1
  6
CONTINUOUS
 62
     5
 10
1404.464408
 20
1749.975570
 11
1375.486633
 21
1757.740141
  0
LINE
  8
CSLAYER1
  6
CONTINUOUS
 62
     5
 10
1404.464408
 20
1749.975570
 11
1375.486633
 21
1742.210998
  0
ENDBLK
  8
0
  0
BLOCK
  8
CSLAYER1
  2
*D0016
 70
    65
 10
0.0
 20
0.0
 30
0.0
  0
TEXT
  8
CSLAYER1
 62
     3
 10
1309.770752
 20
1666.315796
 40
40.000000
 41
0.900000
  1
50
 50
0.000000
 51
0.000000
  7
EASYDRAW_FONT
 72
     5
 11
1369.770752
 21
1666.315796
  0
LINE
  8
CSLAYER1
  6
CONTINUOUS
 62
     5
 10
1429.464408
 20
1814.035634
 11
1429.464408
 21
1673.164002
  0
LINE
  8
CSLAYER1
  6
CONTINUOUS
 62
     5
 10
1379.464408
 20
1683.164002
 11
1429.464408
 21
1683.164002
  0
LINE
  8
CSLAYER1
  6
CONTINUOUS
 62
     5
 10
1379.464408
 20
1683.164002
 11
1408.442182
 21
1690.928573
  0
LINE
  8
CSLAYER1
  6
CONTINUOUS
 62
     5
 10
1379.464408
 20
1683.164002
 11
1408.442182
 21
1675.399431
  0
LINE
  8
CSLAYER1
  6
CONTINUOUS
 62
     5
 10
1429.464408
 20
1683.164002
 11
1400.486633
 21
1690.928573
  0
LINE
  8
CSLAYER1
  6
CONTINUOUS
 62
     5
 10
1429.464408
 20
1683.164002
 11
1400.486633
 21
1675.399431
  0
ENDBLK
  8
0
  0
BLOCK
  8
CSLAYER1
  2
EASYDRAWDIM0005
 70
   64
 10
0.0
 20
0.0
 30
0.0
  0
TEXT
  8
CSLAYER1
 62
     3
 10
1522.686035
 20
1718.659058
 40
40.000000
 41
0.771429
  1
2-%%c13(アンカー穴)
 50
0.000000
 51
0.000000
  7
EASYDRAW_FONT
 72
     5
 11
1882.686035
 21
1718.659058
  0
LINE
  8
CSLAYER1
  6
CONTINUOUS
 62
     5
 10
1408.863008
 20
1834.777793
 11
1518.344975
 21
1708.659270
  0
LINE
  8
CSLAYER1
  6
CONTINUOUS
 62
     5
 10
1408.863008
 20
1834.777793
 11
1433.722667
 21
1817.985017
  0
LINE
  8
CSLAYER1
  6
CONTINUOUS
 62
     5
 10
1408.863008
 20
1834.777793
 11
1421.995717
 21
1807.804993
  0
LINE
  8
CSLAYER1
  6
CONTINUOUS
 62
     5
 10
1518.344975
 20
1708.659270
 11
1892.686228
 21
1708.659270
  0
ENDBLK
  8
0
  0
BLOCK
  8
CSLAYER1
  2
*D0017
 70
    65
 10
0.0
 20
0.0
 30
0.0
  0
TEXT
  8
CSLAYER1
 62
     3
 10
1285.958008
 20
1893.483032
 40
40.000000
 41
0.843750
  1
250
 50
90.000000
 51
0.000000
  7
EASYDRAW_FONT
 72
     5
 11
1285.958008
 21
1983.483032
  0
LINE
  8
CSLAYER1
  6
CONTINUOUS
 62
     5
 10
1383.201606
 20
1839.035634
 11
1284.210347
 21
1839.035634
  0
LINE
  8
CSLAYER1
  6
CONTINUOUS
 62
     5
 10
1383.201606
 20
2089.035634
 11
1284.210347
 21
2089.035634
  0
LINE
  8
CSLAYER1
  6
CONTINUOUS
 62
     5
 10
1294.210347
 20
1839.035634
 11
1294.210347
 21
2089.035634
  0
LINE
  8
CSLAYER1
  6
CONTINUOUS
 62
     5
 10
1294.210347
 20
1839.035634
 11
1286.445776
 21
1868.013409
  0
LINE
  8
CSLAYER1
  6
CONTINUOUS
 62
     5
 10
1294.210347
 20
1839.035634
 11
1301.974918
 21
1868.013409
  0
LINE
  8
CSLAYER1
  6
CONTINUOUS
 62
     5
 10
1294.210347
 20
2089.035634
 11
1286.445776
 21
2060.057859
  0
LINE
  8
CSLAYER1
  6
CONTINUOUS
 62
     5
 10
1294.210347
 20
2089.035634
 11
1301.974918
 21
2060.057859
  0
ENDBLK
  8
0
  0
BLOCK
  8
CSLAYER1
  2
EASYDRAWDIM0006
 70
   64
 10
0.0
 20
0.0
 30
0.0
  0
TEXT
  8
CSLAYER1
 62
     3
 10
1335.196777
 20
1861.935158
 40
33.155758
 41
0.767879
  1
穴ヒﾟッチ
 50
90.000000
 51
0.000000
  7
EASYDRAW_FONT
 72
     5
 11
1335.196777
 21
1980.746727
  0
ENDBLK
  8
0
  0
BLOCK
  8
CSLAYER1
  2
*D0018
 70
    65
 10
0.0
 20
0.0
 30
0.0
  0
TEXT
  8
CSLAYER1
 62
     3
 10
2255.723389
 20
1919.035645
 40
40.000000
 41
0.843750
  1
300
 50
90.000000
 51
0.000000
  7
EASYDRAW_FONT
 72
     5
 11
2255.723389
 21
2009.035645
  0
LINE
  8
CSLAYER1
  6
CONTINUOUS
 62
     5
 10
2192.164408
 20
1814.035634
 11
2275.723467
 21
1814.035634
  0
LINE
  8
CSLAYER1
  6
CONTINUOUS
 62
     5
 10
2192.164408
 20
2114.035634
 11
2275.723467
 21
2114.035634
  0
LINE
  8
CSLAYER1
  6
CONTINUOUS
 62
     5
 10
2265.723467
 20
1814.035634
 11
2265.723467
 21
2114.035634
  0
LINE
  8
CSLAYER1
  6
CONTINUOUS
 62
     5
 10
2265.723467
 20
1814.035634
 11
2257.958896
 21
1843.013409
  0
LINE
  8
CSLAYER1
  6
CONTINUOUS
 62
     5
 10
2265.723467
 20
1814.035634
 11
2273.488038
 21
1843.013409
  0
LINE
  8
CSLAYER1
  6
CONTINUOUS
 62
     5
 10
2265.723467
 20
2114.035634
 11
2257.958896
 21
2085.057859
  0
LINE
  8
CSLAYER1
  6
CONTINUOUS
 62
     5
 10
2265.723467
 20
2114.035634
 11
2273.488038
 21
2085.057859
  0
ENDBLK
  8
0
  0
BLOCK
  8
CSLAYER1
  2
BLKF0000
 70
   64
 10
0.0
 20
0.0
 30
0.0
  0
LINE
  8
CSLAYER1
  6
CONTINUOUS
 62
     3
 10
644.432294
 20
796.091760
 11
944.055581
 21
796.091760
  0
LINE
  8
CSLAYER1
  6
CONTINUOUS
 62
     3
 10
694.055581
 20
836.091760
 11
794.055581
 21
836.091760
  0
LINE
  8
CSLAYER1
  6
CONTINUOUS
 62
     3
 10
644.055581
 20
796.091760
 11
794.055581
 21
796.091760
  0
LINE
  8
CSLAYER1
  6
CONTINUOUS
 62
     3
 10
694.055581
 20
836.091760
 11
694.055581
 21
802.091760
  0
LINE
  8
CSLAYER1
  6
CONTINUOUS
 62
     3
 10
894.055581
 20
836.091760
 11
794.055581
 21
836.091760
  0
LINE
  8
CSLAYER1
  6
CONTINUOUS
 62
     3
 10
944.055581
 20
796.091760
 11
794.055581
 21
796.091760
  0
LINE
  8
CSLAYER1
  6
CONTINUOUS
 62
     3
 10
894.055581
 20
836.091760
 11
894.055581
 21
802.091760
  0
LINE
  8
CSLAYER1
  6
CONTINUOUS
 62
     3
 10
944.055581
 20
796.091760
 11
944.055581
 21
802.091760
  0
LINE
  8
CSLAYER1
  6
CENTER
 62
     5
 10
919.055581
 20
787.162399
 11
919.055581
 21
811.372360
  0
LINE
  8
CSLAYER1
  6
CONTINUOUS
 62
     3
 10
868.555581
 20
802.091760
 11
868.555581
 21
836.091760
  0
LINE
  8
CSLAYER1
  6
CONTINUOUS
 62
     3
 10
944.055581
 20
802.091760
 11
862.555581
 21
802.091760
  0
LINE
  8
CSLAYER1
  6
CONTINUOUS
 62
     3
 10
644.055581
 20
796.091760
 11
644.055581
 21
802.091760
  0
LINE
  8
CSLAYER1
  6
CENTER
 62
     5
 10
669.055581
 20
787.162399
 11
669.055581
 21
811.372360
  0
LINE
  8
CSLAYER1
  6
CONTINUOUS
 62
     3
 10
644.055581
 20
802.091760
 11
725.555581
 21
802.091760
  0
LINE
  8
CSLAYER1
  6
CONTINUOUS
 62
     3
 10
719.555581
 20
802.091760
 11
719.555581
 21
836.091760
  0
LINE
  8
CSLAYER1
  6
CENTER
 62
     5
 10
764.055581
 20
799.402197
 11
764.055581
 21
832.665516
  0
LINE
  8
CSLAYER1
  6
CENTER
 62
     5
 10
746.181635
 20
816.091760
 11
783.178592
 21
816.091760
  0
CIRCLE
  8
CSLAYER1
  6
CONTINUOUS
 62
     3
 10
764.055581
 20
816.091760
 40
12.500000
  0
LINE
  8
CSLAYER1
  6
CENTER
 62
     5
 10
708.555581
 20
813.591760
 11
879.555581
 21
813.591760
  0
LINE
  8
CSLAYER1
  6
CONTINUOUS
 62
     3
 10
725.555581
 20
796.091760
 11
725.555581
 21
836.091760
  0
LINE
  8
CSLAYER1
  6
CONTINUOUS
 62
     3
 10
862.555581
 20
796.091760
 11
862.555581
 21
836.091760
  0
ENDBLK
  8
0
  0
BLOCK
  8
CSLAYER1
  2
BLKF0001
 70
   64
 10
0.0
 20
0.0
 30
0.0
  0
LINE
  8
CSLAYER1
  6
CONTINUOUS
 62
     3
 10
860.555581
 20
1362.885777
 11
860.555581
 21
1377.655432
  0
LINE
  8
CSLAYER1
  6
CONTINUOUS
 62
     3
 10
857.555581
 20
1363.105432
 11
860.555581
 21
1363.105432
  0
LINE
  8
CSLAYER1
  6
CONTINUOUS
 62
     3
 10
857.555581
 20
1372.343235
 11
860.555581
 21
1375.843235
  0
LINE
  8
CSLAYER1
  6
CONTINUOUS
 62
     3
 10
868.555581
 20
1373.855432
 11
868.555581
 21
1377.655432
  0
ARC
  8
CSLAYER1
  6
CONTINUOUS
 62
     3
 10
854.759837
 20
1373.855432
 40
13.795744
 50
0.000000
 51
15.988670
  0
LINE
  8
CSLAYER1
  6
CONTINUOUS
 62
     3
 10
868.555581
 20
1373.855432
 11
868.555581
 21
1364.855432
  0
LINE
  8
CSLAYER1
  6
CONTINUOUS
 62
     3
 10
860.555581
 20
1368.370604
 11
867.418401
 21
1368.370604
  0
LINE
  8
CSLAYER1
  6
CONTINUOUS
 62
     3
 10
860.555581
 20
1362.885777
 11
867.418401
 21
1362.885777
  0
LINE
  8
CSLAYER1
  6
CONTINUOUS
 62
     3
 10
868.555581
 20
1364.855432
 11
867.418401
 21
1362.885777
  0
ARC
  8
CSLAYER1
  6
CONTINUOUS
 62
     3
 10
864.775537
 20
1365.628190
 40
3.808617
 50
5.661633
 51
46.059028
  0
ARC
  8
CSLAYER1
  6
CONTINUOUS
 62
     3
 10
854.759837
 20
1373.855432
 40
13.795744
 50
336.573402
 51
360.000000
  0
ENDBLK
  8
0
  0
BLOCK
  8
CSLAYER1
  2
BLKF0002
 70
   64
 10
0.0
 20
0.0
 30
0.0
  0
LINE
  8
CSLAYER1
  6
CENTER
 62
     5
 10
804.555581
 20
1177.526897
 11
804.555581
 21
853.891701
  0
LINE
  8
CSLAYER1
  6
CONTINUOUS
 62
     3
 10
827.055581
 20
1151.326897
 11
827.055581
 21
1176.526897
  0
LINE
  8
CSLAYER1
  6
CONTINUOUS
 62
     3
 10
782.055581
 20
1151.326897
 11
782.055581
 21
1176.526897
  0
LINE
  8
CSLAYER1
  6
CONTINUOUS
 62
     3
 10
783.055581
 20
1177.526897
 11
826.055581
 21
1177.526897
  0
LINE
  8
CSLAYER1
  6
CONTINUOUS
 62
     3
 10
782.055581
 20
1176.526897
 11
783.055581
 21
1177.526897
  0
LINE
  8
CSLAYER1
  6
CONTINUOUS
 62
     3
 10
826.055581
 20
1177.526897
 11
827.055581
 21
1176.526897
  0
POINT
  8
CSLAYER1
 62
     3
 10
804.555581
 20
1163.926897
  0
LINE
  8
CSLAYER1
  6
CONTINUOUS
 62
     3
 10
828.055581
 20
1171.926897
 11
827.055581
 21
1171.926897
  0
LINE
  8
CSLAYER1
  6
CONTINUOUS
 62
     3
 10
782.055581
 20
1171.926897
 11
781.055581
 21
1171.926897
  0
LINE
  8
CSLAYER1
  6
CENTER
 62
     5
 10
775.555581
 20
881.219910
 11
833.555581
 21
881.219910
  0
LINE
  8
CSLAYER1
  6
CONTINUOUS
 62
     3
 10
827.468060
 20
1042.052264
 11
831.950936
 21
1024.763037
  0
LINE
  8
CSLAYER1
  6
CONTINUOUS
 62
     3
 10
827.468060
 20
1042.052264
 11
827.206160
 21
1043.016708
  0
LINE
  8
CSLAYER1
  6
CONTINUOUS
 62
     3
 10
827.206160
 20
1043.016708
 11
826.771875
 21
1043.966416
  0
LINE
  8
CSLAYER1
  6
CONTINUOUS
 62
     3
 10
826.771875
 20
1043.966416
 11
826.168512
 21
1044.894160
  0
LINE
  8
CSLAYER1
  6
CONTINUOUS
 62
     3
 10
826.168512
 20
1044.894160
 11
825.400661
 21
1045.792879
  0
LINE
  8
CSLAYER1
  6
CONTINUOUS
 62
     3
 10
825.400661
 20
1045.792879
 11
824.474166
 21
1046.655734
  0
LINE
  8
CSLAYER1
  6
CONTINUOUS
 62
     3
 10
824.474166
 20
1046.655734
 11
823.396078
 21
1047.476157
  0
LINE
  8
CSLAYER1
  6
CONTINUOUS
 62
     3
 10
823.396078
 20
1047.476157
 11
822.174604
 21
1048.247904
  0
LINE
  8
CSLAYER1
  6
CONTINUOUS
 62
     3
 10
822.174604
 20
1048.247904
 11
820.819037
 21
1048.965103
  0
LINE
  8
CSLAYER1
  6
CONTINUOUS
 62
     3
 10
820.819037
 20
1048.965103
 11
819.339696
 21
1049.622295
  0
LINE
  8
CSLAYER1
  6
CONTINUOUS
 62
     3
 10
819.339696
 20
1049.622295
 11
817.747839
 21
1050.214477
  0
LINE
  8
CSLAYER1
  6
CONTINUOUS
 62
     3
 10
817.747839
 20
1050.214477
 11
816.055581
 21
1050.737144
  0
LINE
  8
CSLAYER1
  6
CONTINUOUS
 62
     3
 10
816.055581
 20
1050.737144
 11
814.275801
 21
1051.186318
  0
LINE
  8
CSLAYER1
  6
CONTINUOUS
 62
     3
 10
814.275801
 20
1051.186318
 11
812.422045
 21
1051.558580
  0
LINE
  8
CSLAYER1
  6
CONTINUOUS
 62
     3
 10
812.422045
 20
1051.558580
 11
810.508419
 21
1051.851096
  0
LINE
  8
CSLAYER1
  6
CONTINUOUS
 62
     3
 10
810.508419
 20
1051.851096
 11
808.549490
 21
1052.061641
  0
LINE
  8
CSLAYER1
  6
CONTINUOUS
 62
     3
 10
808.549490
 20
1052.061641
 11
806.560164
 21
1052.188613
  0
LINE
  8
CSLAYER1
  6
CONTINUOUS
 62
     3
 10
806.560164
 20
1052.188613
 11
804.555581
 21
1052.231044
  0
LINE
  8
CSLAYER1
  6
CONTINUOUS
 62
     3
 10
781.643103
 20
1042.052264
 11
777.160227
 21
1024.763037
  0
LINE
  8
CSLAYER1
  6
CONTINUOUS
 62
     3
 10
781.643103
 20
1042.052264
 11
781.905003
 21
1043.016708
  0
LINE
  8
CSLAYER1
  6
CONTINUOUS
 62
     3
 10
781.905003
 20
1043.016708
 11
782.339287
 21
1043.966416
  0
LINE
  8
CSLAYER1
  6
CONTINUOUS
 62
     3
 10
782.339287
 20
1043.966416
 11
782.942651
 21
1044.894160
  0
LINE
  8
CSLAYER1
  6
CONTINUOUS
 62
     3
 10
782.942651
 20
1044.894160
 11
783.710502
 21
1045.792879
  0
LINE
  8
CSLAYER1
  6
CONTINUOUS
 62
     3
 10
783.710502
 20
1045.792879
 11
784.636997
 21
1046.655734
  0
LINE
  8
CSLAYER1
  6
CONTINUOUS
 62
     3
 10
784.636997
 20
1046.655734
 11
785.715084
 21
1047.476157
  0
LINE
  8
CSLAYER1
  6
CONTINUOUS
 62
     3
 10
785.715084
 20
1047.476157
 11
786.936559
 21
1048.247904
  0
LINE
  8
CSLAYER1
  6
CONTINUOUS
 62
     3
 10
786.936559
 20
1048.247904
 11
788.292125
 21
1048.965103
  0
LINE
  8
CSLAYER1
  6
CONTINUOUS
 62
     3
 10
788.292125
 20
1048.965103
 11
789.771466
 21
1049.622295
  0
LINE
  8
CSLAYER1
  6
CONTINUOUS
 62
     3
 10
789.771466
 20
1049.622295
 11
791.363323
 21
1050.214477
  0
LINE
  8
CSLAYER1
  6
CONTINUOUS
 62
     3
 10
791.363323
 20
1050.214477
 11
793.055581
 21
1050.737144
  0
LINE
  8
CSLAYER1
  6
CONTINUOUS
 62
     3
 10
793.055581
 20
1050.737144
 11
794.835361
 21
1051.186318
  0
LINE
  8
CSLAYER1
  6
CONTINUOUS
 62
     3
 10
794.835361
 20
1051.186318
 11
796.689118
 21
1051.558580
  0
LINE
  8
CSLAYER1
  6
CONTINUOUS
 62
     3
 10
796.689118
 20
1051.558580
 11
798.602743
 21
1051.851096
  0
LINE
  8
CSLAYER1
  6
CONTINUOUS
 62
     3
 10
798.602743
 20
1051.851096
 11
800.561673
 21
1052.061641
  0
LINE
  8
CSLAYER1
  6
CONTINUOUS
 62
     3
 10
800.561673
 20
1052.061641
 11
802.550999
 21
1052.188613
  0
LINE
  8
CSLAYER1
  6
CONTINUOUS
 62
     3
 10
802.550999
 20
1052.188613
 11
804.555581
 21
1052.231044
  0
LINE
  8
CSLAYER1
  6
CONTINUOUS
 62
     3
 10
822.555581
 20
1048.007196
 11
822.555581
 21
1152.770114
  0
LINE
  8
CSLAYER1
  6
CONTINUOUS
 62
     3
 10
822.555581
 20
1152.261777
 11
822.487086
 21
1153.022348
  0
LINE
  8
CSLAYER1
  6
CONTINUOUS
 62
     3
 10
822.487086
 20
1153.022348
 11
822.282121
 21
1153.777131
  0
LINE
  8
CSLAYER1
  6
CONTINUOUS
 62
     3
 10
822.282121
 20
1153.777131
 11
821.942246
 21
1154.520381
  0
LINE
  8
CSLAYER1
  6
CONTINUOUS
 62
     3
 10
821.942246
 20
1154.520381
 11
821.470049
 21
1155.246441
  0
LINE
  8
CSLAYER1
  6
CONTINUOUS
 62
     3
 10
821.470049
 20
1155.246441
 11
820.869122
 21
1155.949786
  0
LINE
  8
CSLAYER1
  6
CONTINUOUS
 62
     3
 10
820.869122
 20
1155.949786
 11
820.144039
 21
1156.625064
  0
LINE
  8
CSLAYER1
  6
CONTINUOUS
 62
     3
 10
820.144039
 20
1156.625064
 11
819.300318
 21
1157.267134
  0
LINE
  8
CSLAYER1
  6
CONTINUOUS
 62
     3
 10
819.300318
 20
1157.267134
 11
818.344381
 21
1157.871110
  0
LINE
  8
CSLAYER1
  6
CONTINUOUS
 62
     3
 10
818.344381
 20
1157.871110
 11
817.283504
 21
1158.432396
  0
LINE
  8
CSLAYER1
  6
CONTINUOUS
 62
     3
 10
817.283504
 20
1158.432396
 11
816.125758
 21
1158.946720
  0
LINE
  8
CSLAYER1
  6
CONTINUOUS
 62
     3
 10
816.125758
 20
1158.946720
 11
814.879957
 21
1159.410168
  0
LINE
  8
CSLAYER1
  6
CONTINUOUS
 62
     3
 10
814.879957
 20
1159.410168
 11
813.555581
 21
1159.819211
  0
LINE
  8
CSLAYER1
  6
CONTINUOUS
 62
     3
 10
813.555581
 20
1159.819211
 11
812.162710
 21
1160.170738
  0
LINE
  8
CSLAYER1
  6
CONTINUOUS
 62
     3
 10
812.162710
 20
1160.170738
 11
810.711944
 21
1160.462074
  0
LINE
  8
CSLAYER1
  6
CONTINUOUS
 62
     3
 10
810.711944
 20
1160.462074
 11
809.214324
 21
1160.691000
  0
LINE
  8
CSLAYER1
  6
CONTINUOUS
 62
     3
 10
809.214324
 20
1160.691000
 11
807.681249
 21
1160.855774
  0
LINE
  8
CSLAYER1
  6
CONTINUOUS
 62
     3
 10
807.681249
 20
1160.855774
 11
806.124385
 21
1160.955143
  0
LINE
  8
CSLAYER1
  6
CONTINUOUS
 62
     3
 10
806.124385
 20
1160.955143
 11
804.555581
 21
1160.988350
  0
LINE
  8
CSLAYER1
  6
CONTINUOUS
 62
     3
 10
804.555581
 20
1160.988350
 11
802.986778
 21
1160.955143
  0
LINE
  8
CSLAYER1
  6
CONTINUOUS
 62
     3
 10
802.986778
 20
1160.955143
 11
801.429914
 21
1160.855774
  0
LINE
  8
CSLAYER1
  6
CONTINUOUS
 62
     3
 10
801.429914
 20
1160.855774
 11
799.896839
 21
1160.691000
  0
LINE
  8
CSLAYER1
  6
CONTINUOUS
 62
     3
 10
799.896839
 20
1160.691000
 11
798.399219
 21
1160.462074
  0
LINE
  8
CSLAYER1
  6
CONTINUOUS
 62
     3
 10
798.399219
 20
1160.462074
 11
796.948453
 21
1160.170738
  0
LINE
  8
CSLAYER1
  6
CONTINUOUS
 62
     3
 10
796.948453
 20
1160.170738
 11
795.555581
 21
1159.819211
  0
LINE
  8
CSLAYER1
  6
CONTINUOUS
 62
     3
 10
795.555581
 20
1159.819211
 11
794.231206
 21
1159.410168
  0
LINE
  8
CSLAYER1
  6
CONTINUOUS
 62
     3
 10
794.231206
 20
1159.410168
 11
792.985404
 21
1158.946720
  0
LINE
  8
CSLAYER1
  6
CONTINUOUS
 62
     3
 10
792.985404
 20
1158.946720
 11
791.827659
 21
1158.432396
  0
LINE
  8
CSLAYER1
  6
CONTINUOUS
 62
     3
 10
791.827659
 20
1158.432396
 11
790.766781
 21
1157.871110
  0
LINE
  8
CSLAYER1
  6
CONTINUOUS
 62
     3
 10
790.766781
 20
1157.871110
 11
789.810845
 21
1157.267134
  0
LINE
  8
CSLAYER1
  6
CONTINUOUS
 62
     3
 10
789.810845
 20
1157.267134
 11
788.967124
 21
1156.625064
  0
LINE
  8
CSLAYER1
  6
CONTINUOUS
 62
     3
 10
788.967124
 20
1156.625064
 11
788.242041
 21
1155.949786
  0
LINE
  8
CSLAYER1
  6
CONTINUOUS
 62
     3
 10
788.242041
 20
1155.949786
 11
787.641114
 21
1155.246441
  0
LINE
  8
CSLAYER1
  6
CONTINUOUS
 62
     3
 10
787.641114
 20
1155.246441
 11
787.168917
 21
1154.520381
  0
LINE
  8
CSLAYER1
  6
CONTINUOUS
 62
     3
 10
787.168917
 20
1154.520381
 11
786.829042
 21
1153.777131
  0
LINE
  8
CSLAYER1
  6
CONTINUOUS
 62
     3
 10
786.829042
 20
1153.777131
 11
786.624077
 21
1153.022348
  0
LINE
  8
CSLAYER1
  6
CONTINUOUS
 62
     3
 10
786.624077
 20
1153.022348
 11
786.555581
 21
1152.261777
  0
LINE
  8
CSLAYER1
  6
CONTINUOUS
 62
     3
 10
832.055581
 20
1023.601054
 11
832.055581
 21
993.012158
  0
LINE
  8
CSLAYER1
  6
CONTINUOUS
 62
     3
 10
832.055581
 20
1023.601054
 11
831.950936
 21
1024.763037
  0
LINE
  8
CSLAYER1
  6
CONTINUOUS
 62
     3
 10
831.950936
 20
1024.763037
 11
831.637795
 21
1025.916178
  0
LINE
  8
CSLAYER1
  6
CONTINUOUS
 62
     3
 10
831.637795
 20
1025.916178
 11
831.118542
 21
1027.051698
  0
LINE
  8
CSLAYER1
  6
CONTINUOUS
 62
     3
 10
831.118542
 20
1027.051698
 11
830.397129
 21
1028.160957
  0
LINE
  8
CSLAYER1
  6
CONTINUOUS
 62
     3
 10
830.397129
 20
1028.160957
 11
829.479046
 21
1029.235513
  0
LINE
  8
CSLAYER1
  6
CONTINUOUS
 62
     3
 10
829.479046
 20
1029.235513
 11
828.371280
 21
1030.267186
  0
LINE
  8
CSLAYER1
  6
CONTINUOUS
 62
     3
 10
828.371280
 20
1030.267186
 11
827.082263
 21
1031.248127
  0
LINE
  8
CSLAYER1
  6
CONTINUOUS
 62
     3
 10
827.082263
 20
1031.248127
 11
825.621804
 21
1032.170869
  0
LINE
  8
CSLAYER1
  6
CONTINUOUS
 62
     3
 10
825.621804
 20
1032.170869
 11
824.001018
 21
1033.028389
  0
LINE
  8
CSLAYER1
  6
CONTINUOUS
 62
     3
 10
824.001018
 20
1033.028389
 11
822.232241
 21
1033.814161
  0
LINE
  8
CSLAYER1
  6
CONTINUOUS
 62
     3
 10
822.232241
 20
1033.814161
 11
820.328933
 21
1034.522206
  0
LINE
  8
CSLAYER1
  6
CONTINUOUS
 62
     3
 10
820.328933
 20
1034.522206
 11
818.305581
 21
1035.147134
  0
LINE
  8
CSLAYER1
  6
CONTINUOUS
 62
     3
 10
818.305581
 20
1035.147134
 11
816.177584
 21
1035.684189
  0
LINE
  8
CSLAYER1
  6
CONTINUOUS
 62
     3
 10
816.177584
 20
1035.684189
 11
813.961135
 21
1036.129285
  0
LINE
  8
CSLAYER1
  6
CONTINUOUS
 62
     3
 10
813.961135
 20
1036.129285
 11
811.673105
 21
1036.479033
  0
LINE
  8
CSLAYER1
  6
CONTINUOUS
 62
     3
 10
811.673105
 20
1036.479033
 11
809.330906
 21
1036.730772
  0
LINE
  8
CSLAYER1
  6
CONTINUOUS
 62
     3
 10
809.330906
 20
1036.730772
 11
806.952364
 21
1036.882585
  0
LINE
  8
CSLAYER1
  6
CONTINUOUS
 62
     3
 10
806.952364
 20
1036.882585
 11
804.555581
 21
1036.933319
  0
LINE
  8
CSLAYER1
  6
CONTINUOUS
 62
     3
 10
804.555581
 20
1036.933319
 11
802.158799
 21
1036.882585
  0
LINE
  8
CSLAYER1
  6
CONTINUOUS
 62
     3
 10
802.158799
 20
1036.882585
 11
799.780257
 21
1036.730772
  0
LINE
  8
CSLAYER1
  6
CONTINUOUS
 62
     3
 10
799.780257
 20
1036.730772
 11
797.438058
 21
1036.479033
  0
LINE
  8
CSLAYER1
  6
CONTINUOUS
 62
     3
 10
797.438058
 20
1036.479033
 11
795.150028
 21
1036.129285
  0
LINE
  8
CSLAYER1
  6
CONTINUOUS
 62
     3
 10
795.150028
 20
1036.129285
 11
792.933579
 21
1035.684189
  0
LINE
  8
CSLAYER1
  6
CONTINUOUS
 62
     3
 10
792.933579
 20
1035.684189
 11
790.805581
 21
1035.147134
  0
LINE
  8
CSLAYER1
  6
CONTINUOUS
 62
     3
 10
790.805581
 20
1035.147134
 11
788.782229
 21
1034.522206
  0
LINE
  8
CSLAYER1
  6
CONTINUOUS
 62
     3
 10
788.782229
 20
1034.522206
 11
786.878922
 21
1033.814161
  0
LINE
  8
CSLAYER1
  6
CONTINUOUS
 62
     3
 10
786.878922
 20
1033.814161
 11
785.110145
 21
1033.028389
  0
LINE
  8
CSLAYER1
  6
CONTINUOUS
 62
     3
 10
785.110145
 20
1033.028389
 11
783.489359
 21
1032.170869
  0
LINE
  8
CSLAYER1
  6
CONTINUOUS
 62
     3
 10
783.489359
 20
1032.170869
 11
782.028900
 21
1031.248127
  0
LINE
  8
CSLAYER1
  6
CONTINUOUS
 62
     3
 10
782.028900
 20
1031.248127
 11
780.739883
 21
1030.267186
  0
LINE
  8
CSLAYER1
  6
CONTINUOUS
 62
     3
 10
780.739883
 20
1030.267186
 11
779.632117
 21
1029.235513
  0
LINE
  8
CSLAYER1
  6
CONTINUOUS
 62
     3
 10
779.632117
 20
1029.235513
 11
778.714034
 21
1028.160957
  0
LINE
  8
CSLAYER1
  6
CONTINUOUS
 62
     3
 10
778.714034
 20
1028.160957
 11
777.992621
 21
1027.051698
  0
LINE
  8
CSLAYER1
  6
CONTINUOUS
 62
     3
 10
777.992621
 20
1027.051698
 11
777.473368
 21
1025.916178
  0
LINE
  8
CSLAYER1
  6
CONTINUOUS
 62
     3
 10
777.473368
 20
1025.916178
 11
777.160227
 21
1024.763037
  0
LINE
  8
CSLAYER1
  6
CONTINUOUS
 62
     3
 10
777.160227
 20
1024.763037
 11
777.055581
 21
1023.601054
  0
LINE
  8
CSLAYER1
  6
CONTINUOUS
 62
     3
 10
777.055581
 20
1023.601054
 11
777.055581
 21
993.012158
  0
LINE
  8
CSLAYER1
  6
CONTINUOUS
 62
     3
 10
828.855581
 20
898.699279
 11
828.855581
 21
993.012158
  0
LINE
  8
CSLAYER1
  6
CONTINUOUS
 62
     3
 10
832.055581
 20
993.012158
 11
831.950936
 21
994.174142
  0
LINE
  8
CSLAYER1
  6
CONTINUOUS
 62
     3
 10
831.950936
 20
994.174142
 11
831.637795
 21
995.327282
  0
LINE
  8
CSLAYER1
  6
CONTINUOUS
 62
     3
 10
831.637795
 20
995.327282
 11
831.118542
 21
996.462802
  0
LINE
  8
CSLAYER1
  6
CONTINUOUS
 62
     3
 10
831.118542
 20
996.462802
 11
830.397129
 21
997.572061
  0
LINE
  8
CSLAYER1
  6
CONTINUOUS
 62
     3
 10
830.397129
 20
997.572061
 11
829.479046
 21
998.646617
  0
LINE
  8
CSLAYER1
  6
CONTINUOUS
 62
     3
 10
829.479046
 20
998.646617
 11
828.371280
 21
999.678290
  0
LINE
  8
CSLAYER1
  6
CONTINUOUS
 62
     3
 10
828.371280
 20
999.678290
 11
827.082263
 21
1000.659231
  0
LINE
  8
CSLAYER1
  6
CONTINUOUS
 62
     3
 10
827.082263
 20
1000.659231
 11
825.621804
 21
1001.581973
  0
LINE
  8
CSLAYER1
  6
CONTINUOUS
 62
     3
 10
825.621804
 20
1001.581973
 11
824.001018
 21
1002.439493
  0
LINE
  8
CSLAYER1
  6
CONTINUOUS
 62
     3
 10
824.001018
 20
1002.439493
 11
822.232241
 21
1003.225265
  0
LINE
  8
CSLAYER1
  6
CONTINUOUS
 62
     3
 10
822.232241
 20
1003.225265
 11
820.328933
 21
1003.933310
  0
LINE
  8
CSLAYER1
  6
CONTINUOUS
 62
     3
 10
820.328933
 20
1003.933310
 11
818.305581
 21
1004.558238
  0
LINE
  8
CSLAYER1
  6
CONTINUOUS
 62
     3
 10
818.305581
 20
1004.558238
 11
816.177584
 21
1005.095293
  0
LINE
  8
CSLAYER1
  6
CONTINUOUS
 62
     3
 10
816.177584
 20
1005.095293
 11
813.961135
 21
1005.540389
  0
LINE
  8
CSLAYER1
  6
CONTINUOUS
 62
     3
 10
813.961135
 20
1005.540389
 11
811.673105
 21
1005.890137
  0
LINE
  8
CSLAYER1
  6
CONTINUOUS
 62
     3
 10
811.673105
 20
1005.890137
 11
809.330906
 21
1006.141876
  0
LINE
  8
CSLAYER1
  6
CONTINUOUS
 62
     3
 10
809.330906
 20
1006.141876
 11
806.952364
 21
1006.293689
  0
LINE
  8
CSLAYER1
  6
CONTINUOUS
 62
     3
 10
806.952364
 20
1006.293689
 11
804.555581
 21
1006.344423
  0
LINE
  8
CSLAYER1
  6
CONTINUOUS
 62
     3
 10
804.555581
 20
1006.344423
 11
802.158799
 21
1006.293689
  0
LINE
  8
CSLAYER1
  6
CONTINUOUS
 62
     3
 10
802.158799
 20
1006.293689
 11
799.780257
 21
1006.141876
  0
LINE
  8
CSLAYER1
  6
CONTINUOUS
 62
     3
 10
799.780257
 20
1006.141876
 11
797.438058
 21
1005.890137
  0
LINE
  8
CSLAYER1
  6
CONTINUOUS
 62
     3
 10
797.438058
 20
1005.890137
 11
795.150028
 21
1005.540389
  0
LINE
  8
CSLAYER1
  6
CONTINUOUS
 62
     3
 10
795.150028
 20
1005.540389
 11
792.933579
 21
1005.095293
  0
LINE
  8
CSLAYER1
  6
CONTINUOUS
 62
     3
 10
792.933579
 20
1005.095293
 11
790.805581
 21
1004.558238
  0
LINE
  8
CSLAYER1
  6
CONTINUOUS
 62
     3
 10
790.805581
 20
1004.558238
 11
788.782229
 21
1003.933310
  0
LINE
  8
CSLAYER1
  6
CONTINUOUS
 62
     3
 10
788.782229
 20
1003.933310
 11
786.878922
 21
1003.225265
  0
LINE
  8
CSLAYER1
  6
CONTINUOUS
 62
     3
 10
786.878922
 20
1003.225265
 11
785.110145
 21
1002.439493
  0
LINE
  8
CSLAYER1
  6
CONTINUOUS
 62
     3
 10
785.110145
 20
1002.439493
 11
783.489359
 21
1001.581973
  0
LINE
  8
CSLAYER1
  6
CONTINUOUS
 62
     3
 10
783.489359
 20
1001.581973
 11
782.028900
 21
1000.659231
  0
LINE
  8
CSLAYER1
  6
CONTINUOUS
 62
     3
 10
782.028900
 20
1000.659231
 11
780.739883
 21
999.678290
  0
LINE
  8
CSLAYER1
  6
CONTINUOUS
 62
     3
 10
780.739883
 20
999.678290
 11
779.632117
 21
998.646617
  0
LINE
  8
CSLAYER1
  6
CONTINUOUS
 62
     3
 10
779.632117
 20
998.646617
 11
778.714034
 21
997.572061
  0
LINE
  8
CSLAYER1
  6
CONTINUOUS
 62
     3
 10
778.714034
 20
997.572061
 11
777.992621
 21
996.462802
  0
LINE
  8
CSLAYER1
  6
CONTINUOUS
 62
     3
 10
777.992621
 20
996.462802
 11
777.473368
 21
995.327282
  0
LINE
  8
CSLAYER1
  6
CONTINUOUS
 62
     3
 10
777.473368
 20
995.327282
 11
777.160227
 21
994.174142
  0
LINE
  8
CSLAYER1
  6
CONTINUOUS
 62
     3
 10
777.160227
 20
994.174142
 11
777.055581
 21
993.012158
  0
LINE
  8
CSLAYER1
  6
CONTINUOUS
 62
     3
 10
777.055581
 20
993.012158
 11
777.160227
 21
991.850175
  0
LINE
  8
CSLAYER1
  6
CONTINUOUS
 62
     3
 10
777.160227
 20
991.850175
 11
777.473368
 21
990.697035
  0
LINE
  8
CSLAYER1
  6
CONTINUOUS
 62
     3
 10
777.473368
 20
990.697035
 11
777.992621
 21
989.561514
  0
LINE
  8
CSLAYER1
  6
CONTINUOUS
 62
     3
 10
777.992621
 20
989.561514
 11
778.714034
 21
988.452255
  0
LINE
  8
CSLAYER1
  6
CONTINUOUS
 62
     3
 10
778.714034
 20
988.452255
 11
779.632117
 21
987.377700
  0
LINE
  8
CSLAYER1
  6
CONTINUOUS
 62
     3
 10
779.632117
 20
987.377700
 11
780.255581
 21
986.797061
  0
LINE
  8
CSLAYER1
  6
CONTINUOUS
 62
     3
 10
828.855581
 20
986.797061
 11
829.479046
 21
987.377700
  0
LINE
  8
CSLAYER1
  6
CONTINUOUS
 62
     3
 10
829.479046
 20
987.377700
 11
830.397129
 21
988.452255
  0
LINE
  8
CSLAYER1
  6
CONTINUOUS
 62
     3
 10
830.397129
 20
988.452255
 11
831.118542
 21
989.561514
  0
LINE
  8
CSLAYER1
  6
CONTINUOUS
 62
     3
 10
831.118542
 20
989.561514
 11
831.637795
 21
990.697035
  0
LINE
  8
CSLAYER1
  6
CONTINUOUS
 62
     3
 10
831.637795
 20
990.697035
 11
831.950936
 21
991.850175
  0
LINE
  8
CSLAYER1
  6
CONTINUOUS
 62
     3
 10
831.950936
 20
991.850175
 11
832.055581
 21
993.012158
  0
LINE
  8
CSLAYER1
  6
CONTINUOUS
 62
     3
 10
828.855581
 20
993.012158
 11
828.763113
 21
994.038929
  0
LINE
  8
CSLAYER1
  6
CONTINUOUS
 62
     3
 10
828.763113
 20
994.038929
 11
828.486410
 21
995.057885
  0
LINE
  8
CSLAYER1
  6
CONTINUOUS
 62
     3
 10
828.486410
 20
995.057885
 11
828.027579
 21
996.061273
  0
LINE
  8
CSLAYER1
  6
CONTINUOUS
 62
     3
 10
828.027579
 20
996.061273
 11
827.390112
 21
997.041454
  0
LINE
  8
CSLAYER1
  6
CONTINUOUS
 62
     3
 10
827.390112
 20
997.041454
 11
826.578861
 21
997.990971
  0
LINE
  8
CSLAYER1
  6
CONTINUOUS
 62
     3
 10
826.578861
 20
997.990971
 11
825.599999
 21
998.902595
  0
LINE
  8
CSLAYER1
  6
CONTINUOUS
 62
     3
 10
825.599999
 20
998.902595
 11
824.460976
 21
999.769390
  0
LINE
  8
CSLAYER1
  6
CONTINUOUS
 62
     3
 10
824.460976
 20
999.769390
 11
823.170461
 21
1000.584758
  0
LINE
  8
CSLAYER1
  6
CONTINUOUS
 62
     3
 10
823.170461
 20
1000.584758
 11
821.738276
 21
1001.342494
  0
LINE
  8
CSLAYER1
  6
CONTINUOUS
 62
     3
 10
821.738276
 20
1001.342494
 11
820.175320
 21
1002.036831
  0
LINE
  8
CSLAYER1
  6
CONTINUOUS
 62
     3
 10
820.175320
 20
1002.036831
 11
818.493489
 21
1002.662485
  0
LINE
  8
CSLAYER1
  6
CONTINUOUS
 62
     3
 10
818.493489
 20
1002.662485
 11
816.705581
 21
1003.214694
  0
LINE
  8
CSLAYER1
  6
CONTINUOUS
 62
     3
 10
816.705581
 20
1003.214694
 11
814.825205
 21
1003.689256
  0
LINE
  8
CSLAYER1
  6
CONTINUOUS
 62
     3
 10
814.825205
 20
1003.689256
 11
812.866671
 21
1004.082558
  0
LINE
  8
CSLAYER1
  6
CONTINUOUS
 62
     3
 10
812.866671
 20
1004.082558
 11
810.844884
 21
1004.391608
  0
LINE
  8
CSLAYER1
  6
CONTINUOUS
 62
     3
 10
810.844884
 20
1004.391608
 11
808.775232
 21
1004.614054
  0
LINE
  8
CSLAYER1
  6
CONTINUOUS
 62
     3
 10
808.775232
 20
1004.614054
 11
806.673466
 21
1004.748202
  0
LINE
  8
CSLAYER1
  6
CONTINUOUS
 62
     3
 10
806.673466
 20
1004.748202
 11
804.555581
 21
1004.793032
  0
LINE
  8
CSLAYER1
  6
CONTINUOUS
 62
     3
 10
804.555581
 20
1004.793032
 11
802.437697
 21
1004.748202
  0
LINE
  8
CSLAYER1
  6
CONTINUOUS
 62
     3
 10
802.437697
 20
1004.748202
 11
800.335931
 21
1004.614054
  0
LINE
  8
CSLAYER1
  6
CONTINUOUS
 62
     3
 10
800.335931
 20
1004.614054
 11
798.266279
 21
1004.391608
  0
LINE
  8
CSLAYER1
  6
CONTINUOUS
 62
     3
 10
798.266279
 20
1004.391608
 11
796.244492
 21
1004.082558
  0
LINE
  8
CSLAYER1
  6
CONTINUOUS
 62
     3
 10
796.244492
 20
1004.082558
 11
794.285958
 21
1003.689256
  0
LINE
  8
CSLAYER1
  6
CONTINUOUS
 62
     3
 10
794.285958
 20
1003.689256
 11
792.405581
 21
1003.214694
  0
LINE
  8
CSLAYER1
  6
CONTINUOUS
 62
     3
 10
792.405581
 20
1003.214694
 11
790.617674
 21
1002.662485
  0
LINE
  8
CSLAYER1
  6
CONTINUOUS
 62
     3
 10
790.617674
 20
1002.662485
 11
788.935843
 21
1002.036831
  0
LINE
  8
CSLAYER1
  6
CONTINUOUS
 62
     3
 10
788.935843
 20
1002.036831
 11
787.372887
 21
1001.342494
  0
LINE
  8
CSLAYER1
  6
CONTINUOUS
 62
     3
 10
787.372887
 20
1001.342494
 11
785.940701
 21
1000.584758
  0
LINE
  8
CSLAYER1
  6
CONTINUOUS
 62
     3
 10
785.940701
 20
1000.584758
 11
784.650187
 21
999.769390
  0
LINE
  8
CSLAYER1
  6
CONTINUOUS
 62
     3
 10
784.650187
 20
999.769390
 11
783.511164
 21
998.902595
  0
LINE
  8
CSLAYER1
  6
CONTINUOUS
 62
     3
 10
783.511164
 20
998.902595
 11
782.532302
 21
997.990971
  0
LINE
  8
CSLAYER1
  6
CONTINUOUS
 62
     3
 10
782.532302
 20
997.990971
 11
781.721051
 21
997.041454
  0
LINE
  8
CSLAYER1
  6
CONTINUOUS
 62
     3
 10
781.721051
 20
997.041454
 11
781.083584
 21
996.061273
  0
LINE
  8
CSLAYER1
  6
CONTINUOUS
 62
     3
 10
781.083584
 20
996.061273
 11
780.624753
 21
995.057885
  0
LINE
  8
CSLAYER1
  6
CONTINUOUS
 62
     3
 10
780.624753
 20
995.057885
 11
780.348050
 21
994.038929
  0
LINE
  8
CSLAYER1
  6
CONTINUOUS
 62
     3
 10
780.348050
 20
994.038929
 11
780.255581
 21
993.012158
  0
LINE
  8
CSLAYER1
  6
CONTINUOUS
 62
     3
 10
780.255581
 20
898.699279
 11
780.255581
 21
993.012158
  0
LINE
  8
CSLAYER1
  6
CONTINUOUS
 62
     3
 10
786.555581
 20
1048.007196
 11
786.555581
 21
1152.261777
  0
LINE
  8
CSLAYER1
  6
CONTINUOUS
 62
     3
 10
827.055581
 20
868.110383
 11
827.055581
 21
898.699279
  0
LINE
  8
CSLAYER1
  6
CONTINUOUS
 62
     3
 10
827.055581
 20
898.699279
 11
826.969962
 21
899.649993
  0
LINE
  8
CSLAYER1
  6
CONTINUOUS
 62
     3
 10
826.969962
 20
899.649993
 11
826.713756
 21
900.593471
  0
LINE
  8
CSLAYER1
  6
CONTINUOUS
 62
     3
 10
826.713756
 20
900.593471
 11
826.288913
 21
901.522533
  0
LINE
  8
CSLAYER1
  6
CONTINUOUS
 62
     3
 10
826.288913
 20
901.522533
 11
825.698665
 21
902.430109
  0
LINE
  8
CSLAYER1
  6
CONTINUOUS
 62
     3
 10
825.698665
 20
902.430109
 11
824.947507
 21
903.309290
  0
LINE
  8
CSLAYER1
  6
CONTINUOUS
 62
     3
 10
824.947507
 20
903.309290
 11
824.041153
 21
904.153387
  0
LINE
  8
CSLAYER1
  6
CONTINUOUS
 62
     3
 10
824.041153
 20
904.153387
 11
822.986502
 21
904.955975
  0
LINE
  8
CSLAYER1
  6
CONTINUOUS
 62
     3
 10
822.986502
 20
904.955975
 11
821.791581
 21
905.710945
  0
LINE
  8
CSLAYER1
  6
CONTINUOUS
 62
     3
 10
821.791581
 20
905.710945
 11
820.465484
 21
906.412553
  0
LINE
  8
CSLAYER1
  6
CONTINUOUS
 62
     3
 10
820.465484
 20
906.412553
 11
819.018303
 21
907.055457
  0
LINE
  8
CSLAYER1
  6
CONTINUOUS
 62
     3
 10
819.018303
 20
907.055457
 11
817.461051
 21
907.634767
  0
LINE
  8
CSLAYER1
  6
CONTINUOUS
 62
     3
 10
817.461051
 20
907.634767
 11
815.805581
 21
908.146071
  0
LINE
  8
CSLAYER1
  6
CONTINUOUS
 62
     3
 10
815.805581
 20
908.146071
 11
814.064492
 21
908.585480
  0
LINE
  8
CSLAYER1
  6
CONTINUOUS
 62
     3
 10
814.064492
 20
908.585480
 11
812.251035
 21
908.949649
  0
LINE
  8
CSLAYER1
  6
CONTINUOUS
 62
     3
 10
812.251035
 20
908.949649
 11
810.379010
 21
909.235807
  0
LINE
  8
CSLAYER1
  6
CONTINUOUS
 62
     3
 10
810.379010
 20
909.235807
 11
808.462665
 21
909.441775
  0
LINE
  8
CSLAYER1
  6
CONTINUOUS
 62
     3
 10
808.462665
 20
909.441775
 11
806.516586
 21
909.565986
  0
LINE
  8
CSLAYER1
  6
CONTINUOUS
 62
     3
 10
806.516586
 20
909.565986
 11
804.555581
 21
909.607495
  0
LINE
  8
CSLAYER1
  6
CONTINUOUS
 62
     3
 10
804.555581
 20
909.607495
 11
802.594577
 21
909.565986
  0
LINE
  8
CSLAYER1
  6
CONTINUOUS
 62
     3
 10
802.594577
 20
909.565986
 11
800.648497
 21
909.441775
  0
LINE
  8
CSLAYER1
  6
CONTINUOUS
 62
     3
 10
800.648497
 20
909.441775
 11
798.732153
 21
909.235807
  0
LINE
  8
CSLAYER1
  6
CONTINUOUS
 62
     3
 10
798.732153
 20
909.235807
 11
796.860128
 21
908.949649
  0
LINE
  8
CSLAYER1
  6
CONTINUOUS
 62
     3
 10
796.860128
 20
908.949649
 11
795.046671
 21
908.585480
  0
LINE
  8
CSLAYER1
  6
CONTINUOUS
 62
     3
 10
795.046671
 20
908.585480
 11
793.305581
 21
908.146071
  0
LINE
  8
CSLAYER1
  6
CONTINUOUS
 62
     3
 10
793.305581
 20
908.146071
 11
791.650112
 21
907.634767
  0
LINE
  8
CSLAYER1
  6
CONTINUOUS
 62
     3
 10
791.650112
 20
907.634767
 11
790.092860
 21
907.055457
  0
LINE
  8
CSLAYER1
  6
CONTINUOUS
 62
     3
 10
790.092860
 20
907.055457
 11
788.645679
 21
906.412553
  0
LINE
  8
CSLAYER1
  6
CONTINUOUS
 62
     3
 10
788.645679
 20
906.412553
 11
787.319581
 21
905.710945
  0
LINE
  8
CSLAYER1
  6
CONTINUOUS
 62
     3
 10
787.319581
 20
905.710945
 11
786.124660
 21
904.955975
  0
LINE
  8
CSLAYER1
  6
CONTINUOUS
 62
     3
 10
786.124660
 20
904.955975
 11
785.070010
 21
904.153387
  0
LINE
  8
CSLAYER1
  6
CONTINUOUS
 62
     3
 10
785.070010
 20
904.153387
 11
784.163656
 21
903.309290
  0
LINE
  8
CSLAYER1
  6
CONTINUOUS
 62
     3
 10
784.163656
 20
903.309290
 11
783.412497
 21
902.430109
  0
LINE
  8
CSLAYER1
  6
CONTINUOUS
 62
     3
 10
783.412497
 20
902.430109
 11
782.822250
 21
901.522533
  0
LINE
  8
CSLAYER1
  6
CONTINUOUS
 62
     3
 10
782.822250
 20
901.522533
 11
782.397407
 21
900.593471
  0
LINE
  8
CSLAYER1
  6
CONTINUOUS
 62
     3
 10
782.397407
 20
900.593471
 11
782.141201
 21
899.649993
  0
LINE
  8
CSLAYER1
  6
CONTINUOUS
 62
     3
 10
782.141201
 20
899.649993
 11
782.055581
 21
898.699279
  0
LINE
  8
CSLAYER1
  6
CONTINUOUS
 62
     3
 10
828.855581
 20
898.699279
 11
828.763113
 21
899.726050
  0
LINE
  8
CSLAYER1
  6
CONTINUOUS
 62
     3
 10
828.763113
 20
899.726050
 11
828.486410
 21
900.745006
  0
LINE
  8
CSLAYER1
  6
CONTINUOUS
 62
     3
 10
828.486410
 20
900.745006
 11
828.027579
 21
901.748393
  0
LINE
  8
CSLAYER1
  6
CONTINUOUS
 62
     3
 10
828.027579
 20
901.748393
 11
827.390112
 21
902.728575
  0
LINE
  8
CSLAYER1
  6
CONTINUOUS
 62
     3
 10
827.390112
 20
902.728575
 11
826.578861
 21
903.678091
  0
LINE
  8
CSLAYER1
  6
CONTINUOUS
 62
     3
 10
826.578861
 20
903.678091
 11
825.599999
 21
904.589716
  0
LINE
  8
CSLAYER1
  6
CONTINUOUS
 62
     3
 10
825.599999
 20
904.589716
 11
824.460976
 21
905.456510
  0
LINE
  8
CSLAYER1
  6
CONTINUOUS
 62
     3
 10
824.460976
 20
905.456510
 11
823.170461
 21
906.271879
  0
LINE
  8
CSLAYER1
  6
CONTINUOUS
 62
     3
 10
823.170461
 20
906.271879
 11
821.738276
 21
907.029615
  0
LINE
  8
CSLAYER1
  6
CONTINUOUS
 62
     3
 10
821.738276
 20
907.029615
 11
820.175320
 21
907.723952
  0
LINE
  8
CSLAYER1
  6
CONTINUOUS
 62
     3
 10
820.175320
 20
907.723952
 11
818.493489
 21
908.349606
  0
LINE
  8
CSLAYER1
  6
CONTINUOUS
 62
     3
 10
818.493489
 20
908.349606
 11
816.705581
 21
908.901815
  0
LINE
  8
CSLAYER1
  6
CONTINUOUS
 62
     3
 10
816.705581
 20
908.901815
 11
814.825205
 21
909.376376
  0
LINE
  8
CSLAYER1
  6
CONTINUOUS
 62
     3
 10
814.825205
 20
909.376376
 11
812.866671
 21
909.769679
  0
LINE
  8
CSLAYER1
  6
CONTINUOUS
 62
     3
 10
812.866671
 20
909.769679
 11
810.844884
 21
910.078729
  0
LINE
  8
CSLAYER1
  6
CONTINUOUS
 62
     3
 10
810.844884
 20
910.078729
 11
808.775232
 21
910.301175
  0
LINE
  8
CSLAYER1
  6
CONTINUOUS
 62
     3
 10
808.775232
 20
910.301175
 11
806.673466
 21
910.435323
  0
LINE
  8
CSLAYER1
  6
CONTINUOUS
 62
     3
 10
806.673466
 20
910.435323
 11
804.555581
 21
910.480153
  0
LINE
  8
CSLAYER1
  6
CONTINUOUS
 62
     3
 10
804.555581
 20
910.480153
 11
802.437697
 21
910.435323
  0
LINE
  8
CSLAYER1
  6
CONTINUOUS
 62
     3
 10
802.437697
 20
910.435323
 11
800.335931
 21
910.301175
  0
LINE
  8
CSLAYER1
  6
CONTINUOUS
 62
     3
 10
800.335931
 20
910.301175
 11
798.266279
 21
910.078729
  0
LINE
  8
CSLAYER1
  6
CONTINUOUS
 62
     3
 10
798.266279
 20
910.078729
 11
796.244492
 21
909.769679
  0
LINE
  8
CSLAYER1
  6
CONTINUOUS
 62
     3
 10
796.244492
 20
909.769679
 11
794.285958
 21
909.376376
  0
LINE
  8
CSLAYER1
  6
CONTINUOUS
 62
     3
 10
794.285958
 20
909.376376
 11
792.405581
 21
908.901815
  0
LINE
  8
CSLAYER1
  6
CONTINUOUS
 62
     3
 10
792.405581
 20
908.901815
 11
790.617674
 21
908.349606
  0
LINE
  8
CSLAYER1
  6
CONTINUOUS
 62
     3
 10
790.617674
 20
908.349606
 11
788.935843
 21
907.723952
  0
LINE
  8
CSLAYER1
  6
CONTINUOUS
 62
     3
 10
788.935843
 20
907.723952
 11
787.372887
 21
907.029615
  0
LINE
  8
CSLAYER1
  6
CONTINUOUS
 62
     3
 10
787.372887
 20
907.029615
 11
785.940701
 21
906.271879
  0
LINE
  8
CSLAYER1
  6
CONTINUOUS
 62
     3
 10
785.940701
 20
906.271879
 11
784.650187
 21
905.456510
  0
LINE
  8
CSLAYER1
  6
CONTINUOUS
 62
     3
 10
784.650187
 20
905.456510
 11
783.511164
 21
904.589716
  0
LINE
  8
CSLAYER1
  6
CONTINUOUS
 62
     3
 10
783.511164
 20
904.589716
 11
782.532302
 21
903.678091
  0
LINE
  8
CSLAYER1
  6
CONTINUOUS
 62
     3
 10
782.532302
 20
903.678091
 11
781.721051
 21
902.728575
  0
LINE
  8
CSLAYER1
  6
CONTINUOUS
 62
     3
 10
781.721051
 20
902.728575
 11
781.083584
 21
901.748393
  0
LINE
  8
CSLAYER1
  6
CONTINUOUS
 62
     3
 10
781.083584
 20
901.748393
 11
780.624753
 21
900.745006
  0
LINE
  8
CSLAYER1
  6
CONTINUOUS
 62
     3
 10
780.624753
 20
900.745006
 11
780.348050
 21
899.726050
  0
LINE
  8
CSLAYER1
  6
CONTINUOUS
 62
     3
 10
780.348050
 20
899.726050
 11
780.255581
 21
898.699279
  0
LINE
  8
CSLAYER1
  6
CONTINUOUS
 62
     3
 10
780.255581
 20
898.699279
 11
780.348050
 21
897.672508
  0
LINE
  8
CSLAYER1
  6
CONTINUOUS
 62
     3
 10
780.348050
 20
897.672508
 11
780.453342
 21
897.284773
  0
LINE
  8
CSLAYER1
  6
CONTINUOUS
 62
     3
 10
781.555581
 20
894.924412
 11
781.721051
 21
894.669983
  0
LINE
  8
CSLAYER1
  6
CONTINUOUS
 62
     3
 10
781.721051
 20
894.669983
 11
782.055581
 21
894.278437
  0
LINE
  8
CSLAYER1
  6
CONTINUOUS
 62
     3
 10
827.055581
 20
894.278437
 11
827.390112
 21
894.669983
  0
LINE
  8
CSLAYER1
  6
CONTINUOUS
 62
     3
 10
827.390112
 20
894.669983
 11
827.555581
 21
894.924412
  0
LINE
  8
CSLAYER1
  6
CONTINUOUS
 62
     3
 10
828.657821
 20
897.284773
 11
828.763113
 21
897.672508
  0
LINE
  8
CSLAYER1
  6
CONTINUOUS
 62
     3
 10
828.763113
 20
897.672508
 11
828.855581
 21
898.699279
  0
LINE
  8
CSLAYER1
  6
CONTINUOUS
 62
     3
 10
782.055581
 20
868.110383
 11
782.055581
 21
898.699279
  0
LINE
  8
CSLAYER1
  6
CONTINUOUS
 62
     3
 10
827.055581
 20
868.110383
 11
826.969962
 21
869.061097
  0
LINE
  8
CSLAYER1
  6
CONTINUOUS
 62
     3
 10
826.969962
 20
869.061097
 11
826.713756
 21
870.004575
  0
LINE
  8
CSLAYER1
  6
CONTINUOUS
 62
     3
 10
826.713756
 20
870.004575
 11
826.288913
 21
870.933637
  0
LINE
  8
CSLAYER1
  6
CONTINUOUS
 62
     3
 10
826.288913
 20
870.933637
 11
825.698665
 21
871.841213
  0
LINE
  8
CSLAYER1
  6
CONTINUOUS
 62
     3
 10
825.698665
 20
871.841213
 11
824.947507
 21
872.720394
  0
LINE
  8
CSLAYER1
  6
CONTINUOUS
 62
     3
 10
824.947507
 20
872.720394
 11
824.041153
 21
873.564491
  0
LINE
  8
CSLAYER1
  6
CONTINUOUS
 62
     3
 10
824.041153
 20
873.564491
 11
822.986502
 21
874.367079
  0
LINE
  8
CSLAYER1
  6
CONTINUOUS
 62
     3
 10
822.986502
 20
874.367079
 11
821.791581
 21
875.122049
  0
LINE
  8
CSLAYER1
  6
CONTINUOUS
 62
     3
 10
821.791581
 20
875.122049
 11
820.465484
 21
875.823657
  0
LINE
  8
CSLAYER1
  6
CONTINUOUS
 62
     3
 10
820.465484
 20
875.823657
 11
819.018303
 21
876.466562
  0
LINE
  8
CSLAYER1
  6
CONTINUOUS
 62
     3
 10
819.018303
 20
876.466562
 11
817.461051
 21
877.045871
  0
LINE
  8
CSLAYER1
  6
CONTINUOUS
 62
     3
 10
817.461051
 20
877.045871
 11
815.805581
 21
877.557175
  0
LINE
  8
CSLAYER1
  6
CONTINUOUS
 62
     3
 10
815.805581
 20
877.557175
 11
814.064492
 21
877.996584
  0
LINE
  8
CSLAYER1
  6
CONTINUOUS
 62
     3
 10
814.064492
 20
877.996584
 11
812.251035
 21
878.360753
  0
LINE
  8
CSLAYER1
  6
CONTINUOUS
 62
     3
 10
812.251035
 20
878.360753
 11
810.379010
 21
878.646911
  0
LINE
  8
CSLAYER1
  6
CONTINUOUS
 62
     3
 10
810.379010
 20
878.646911
 11
808.462665
 21
878.852879
  0
LINE
  8
CSLAYER1
  6
CONTINUOUS
 62
     3
 10
808.462665
 20
878.852879
 11
806.516586
 21
878.977090
  0
LINE
  8
CSLAYER1
  6
CONTINUOUS
 62
     3
 10
806.516586
 20
878.977090
 11
804.555581
 21
879.018599
  0
LINE
  8
CSLAYER1
  6
CONTINUOUS
 62
     3
 10
804.555581
 20
879.018599
 11
802.594577
 21
878.977090
  0
LINE
  8
CSLAYER1
  6
CONTINUOUS
 62
     3
 10
802.594577
 20
878.977090
 11
800.648497
 21
878.852879
  0
LINE
  8
CSLAYER1
  6
CONTINUOUS
 62
     3
 10
800.648497
 20
878.852879
 11
798.732153
 21
878.646911
  0
LINE
  8
CSLAYER1
  6
CONTINUOUS
 62
     3
 10
798.732153
 20
878.646911
 11
796.860128
 21
878.360753
  0
LINE
  8
CSLAYER1
  6
CONTINUOUS
 62
     3
 10
796.860128
 20
878.360753
 11
795.046671
 21
877.996584
  0
LINE
  8
CSLAYER1
  6
CONTINUOUS
 62
     3
 10
795.046671
 20
877.996584
 11
793.305581
 21
877.557175
  0
LINE
  8
CSLAYER1
  6
CONTINUOUS
 62
     3
 10
793.305581
 20
877.557175
 11
791.650112
 21
877.045871
  0
LINE
  8
CSLAYER1
  6
CONTINUOUS
 62
     3
 10
791.650112
 20
877.045871
 11
790.092860
 21
876.466562
  0
LINE
  8
CSLAYER1
  6
CONTINUOUS
 62
     3
 10
790.092860
 20
876.466562
 11
788.645679
 21
875.823657
  0
LINE
  8
CSLAYER1
  6
CONTINUOUS
 62
     3
 10
788.645679
 20
875.823657
 11
787.319581
 21
875.122049
  0
LINE
  8
CSLAYER1
  6
CONTINUOUS
 62
     3
 10
787.319581
 20
875.122049
 11
786.124660
 21
874.367079
  0
LINE
  8
CSLAYER1
  6
CONTINUOUS
 62
     3
 10
786.124660
 20
874.367079
 11
785.070010
 21
873.564491
  0
LINE
  8
CSLAYER1
  6
CONTINUOUS
 62
     3
 10
785.070010
 20
873.564491
 11
784.163656
 21
872.720394
  0
LINE
  8
CSLAYER1
  6
CONTINUOUS
 62
     3
 10
784.163656
 20
872.720394
 11
783.412497
 21
871.841213
  0
LINE
  8
CSLAYER1
  6
CONTINUOUS
 62
     3
 10
783.412497
 20
871.841213
 11
782.822250
 21
870.933637
  0
LINE
  8
CSLAYER1
  6
CONTINUOUS
 62
     3
 10
782.822250
 20
870.933637
 11
782.397407
 21
870.004575
  0
LINE
  8
CSLAYER1
  6
CONTINUOUS
 62
     3
 10
782.397407
 20
870.004575
 11
782.141201
 21
869.061097
  0
LINE
  8
CSLAYER1
  6
CONTINUOUS
 62
     3
 10
782.141201
 20
869.061097
 11
782.055581
 21
868.110383
  0
LINE
  8
CSLAYER1
  6
CONTINUOUS
 62
     3
 10
782.055581
 20
868.110383
 11
782.141201
 21
867.159669
  0
LINE
  8
CSLAYER1
  6
CONTINUOUS
 62
     3
 10
782.141201
 20
867.159669
 11
782.397407
 21
866.216191
  0
LINE
  8
CSLAYER1
  6
CONTINUOUS
 62
     3
 10
782.397407
 20
866.216191
 11
782.822250
 21
865.287129
  0
LINE
  8
CSLAYER1
  6
CONTINUOUS
 62
     3
 10
782.822250
 20
865.287129
 11
783.412497
 21
864.379553
  0
LINE
  8
CSLAYER1
  6
CONTINUOUS
 62
     3
 10
783.412497
 20
864.379553
 11
783.598903
 21
864.161378
  0
LINE
  8
CSLAYER1
  6
CONTINUOUS
 62
     3
 10
825.512260
 20
864.161378
 11
825.698665
 21
864.379553
  0
LINE
  8
CSLAYER1
  6
CONTINUOUS
 62
     3
 10
825.698665
 20
864.379553
 11
826.288913
 21
865.287129
  0
LINE
  8
CSLAYER1
  6
CONTINUOUS
 62
     3
 10
826.288913
 20
865.287129
 11
826.713756
 21
866.216191
  0
LINE
  8
CSLAYER1
  6
CONTINUOUS
 62
     3
 10
826.713756
 20
866.216191
 11
826.969962
 21
867.159669
  0
LINE
  8
CSLAYER1
  6
CONTINUOUS
 62
     3
 10
826.969962
 20
867.159669
 11
827.055581
 21
868.110383
  0
LINE
  8
CSLAYER1
  6
CENTER
 62
     5
 10
764.555581
 20
835.170015
 11
764.555581
 21
977.262003
  0
LINE
  8
CSLAYER1
  6
CONTINUOUS
 62
     3
 10
771.555581
 20
989.925811
 11
757.555581
 21
989.925811
  0
LINE
  8
CSLAYER1
  6
CONTINUOUS
 62
     3
 10
771.555581
 20
982.125811
 11
757.555581
 21
982.125811
  0
LINE
  8
CSLAYER1
  6
CONTINUOUS
 62
     3
 10
770.987513
 20
976.925811
 11
758.123650
 21
976.925811
  0
LINE
  8
CSLAYER1
  6
CONTINUOUS
 62
     3
 10
770.555581
 20
974.925811
 11
758.555581
 21
974.925811
  0
LINE
  8
CSLAYER1
  6
CONTINUOUS
 62
     3
 10
770.555581
 20
967.925811
 11
758.555581
 21
967.925811
  0
LINE
  8
CSLAYER1
  6
CONTINUOUS
 62
     3
 10
769.438608
 20
942.925811
 11
759.672555
 21
942.925811
  0
LINE
  8
CSLAYER1
  6
CONTINUOUS
 62
     3
 10
770.055581
 20
964.925811
 11
770.055581
 21
967.925811
  0
LINE
  8
CSLAYER1
  6
CONTINUOUS
 62
     3
 10
772.638485
 20
982.751026
 11
772.638485
 21
989.300596
  0
LINE
  8
CSLAYER1
  6
CONTINUOUS
 62
     3
 10
768.597033
 20
982.751026
 11
768.597033
 21
989.300596
  0
ARC
  8
CSLAYER1
  6
CONTINUOUS
 62
     3
 10
741.867811
 20
982.168032
 40
29.587800
 50
345.831727
 51
359.918240
  0
ARC
  8
CSLAYER1
  6
CONTINUOUS
 62
     3
 10
787.243352
 20
982.168032
 40
29.587800
 50
180.081760
 51
194.168273
  0
LINE
  8
CSLAYER1
  6
CONTINUOUS
 62
     3
 10
768.902896
 20
974.925811
 11
768.902896
 21
976.925811
  0
LINE
  8
CSLAYER1
  6
CONTINUOUS
 62
     3
 10
766.921130
 20
974.925811
 11
766.921130
 21
976.925811
  0
LINE
  8
CSLAYER1
  6
CONTINUOUS
 62
     3
 10
760.208267
 20
974.925811
 11
760.208267
 21
976.925811
  0
LINE
  8
CSLAYER1
  6
CONTINUOUS
 62
     3
 10
762.190033
 20
974.925811
 11
762.190033
 21
976.925811
  0
LINE
  8
CSLAYER1
  6
CONTINUOUS
 62
     3
 10
771.555581
 20
989.925811
 11
772.638485
 21
989.300596
  0
ARC
  8
CSLAYER1
  6
CONTINUOUS
 62
     3
 10
770.617759
 20
986.374182
 40
3.556295
 50
64.625569
 51
124.625569
  0
ARC
  8
CSLAYER1
  6
CONTINUOUS
 62
     3
 10
764.555581
 20
976.551026
 40
13.374785
 50
72.412046
 51
90.000000
  0
LINE
  8
CSLAYER1
  6
CONTINUOUS
 62
     3
 10
771.555581
 20
982.125811
 11
772.638485
 21
982.751026
  0
ARC
  8
CSLAYER1
  6
CONTINUOUS
 62
     3
 10
770.617759
 20
985.677440
 40
3.556295
 50
235.374431
 51
295.374431
  0
ARC
  8
CSLAYER1
  6
CONTINUOUS
 62
     3
 10
764.555581
 20
995.500596
 40
13.374785
 50
270.000000
 51
287.587954
  0
LINE
  8
CSLAYER1
  6
CONTINUOUS
 62
     3
 10
756.472678
 20
982.751026
 11
756.472678
 21
989.300596
  0
LINE
  8
CSLAYER1
  6
CONTINUOUS
 62
     3
 10
760.514130
 20
982.751026
 11
760.514130
 21
989.300596
  0
LINE
  8
CSLAYER1
  6
CONTINUOUS
 62
     3
 10
757.555581
 20
989.925811
 11
756.472678
 21
989.300596
  0
ARC
  8
CSLAYER1
  6
CONTINUOUS
 62
     3
 10
758.493404
 20
986.374182
 40
3.556295
 50
55.374431
 51
115.374431
  0
ARC
  8
CSLAYER1
  6
CONTINUOUS
 62
     3
 10
764.555581
 20
976.551026
 40
13.374785
 50
90.000000
 51
107.587954
  0
LINE
  8
CSLAYER1
  6
CONTINUOUS
 62
     3
 10
757.555581
 20
982.125811
 11
756.472678
 21
982.751026
  0
ARC
  8
CSLAYER1
  6
CONTINUOUS
 62
     3
 10
758.493404
 20
985.677440
 40
3.556295
 50
244.625569
 51
304.625569
  0
ARC
  8
CSLAYER1
  6
CONTINUOUS
 62
     3
 10
764.555581
 20
995.500596
 40
13.374785
 50
252.412046
 51
270.000000
  0
LINE
  8
CSLAYER1
  6
CONTINUOUS
 62
     3
 10
771.483785
 20
968.461710
 11
771.483785
 21
974.189913
  0
LINE
  8
CSLAYER1
  6
CONTINUOUS
 62
     3
 10
768.019683
 20
968.461710
 11
768.019683
 21
974.189913
  0
LINE
  8
CSLAYER1
  6
CONTINUOUS
 62
     3
 10
770.555581
 20
967.925811
 11
771.483785
 21
968.461710
  0
ARC
  8
CSLAYER1
  6
CONTINUOUS
 62
     3
 10
764.555581
 20
979.389913
 40
11.464102
 50
270.000000
 51
287.821405
  0
ARC
  8
CSLAYER1
  6
CONTINUOUS
 62
     3
 10
769.751734
 20
970.991740
 40
3.066114
 50
236.143645
 51
295.804157
  0
LINE
  8
CSLAYER1
  6
CONTINUOUS
 62
     3
 10
770.555581
 20
974.725811
 11
771.483785
 21
974.189913
  0
ARC
  8
CSLAYER1
  6
CONTINUOUS
 62
     3
 10
764.555581
 20
963.261710
 40
11.464102
 50
72.178595
 51
90.000000
  0
ARC
  8
CSLAYER1
  6
CONTINUOUS
 62
     3
 10
769.751734
 20
971.659883
 40
3.066114
 50
64.195843
 51
123.856355
  0
LINE
  8
CSLAYER1
  6
CONTINUOUS
 62
     3
 10
770.555581
 20
974.725811
 11
758.555581
 21
974.725811
  0
LINE
  8
CSLAYER1
  6
CONTINUOUS
 62
     3
 10
768.019683
 20
974.725811
 11
768.019683
 21
974.925811
  0
LINE
  8
CSLAYER1
  6
CONTINUOUS
 62
     3
 10
759.055581
 20
964.925811
 11
759.055581
 21
967.925811
  0
LINE
  8
CSLAYER1
  6
CONTINUOUS
 62
     3
 10
757.627378
 20
968.461710
 11
757.627378
 21
974.189913
  0
LINE
  8
CSLAYER1
  6
CONTINUOUS
 62
     3
 10
761.091480
 20
968.461710
 11
761.091480
 21
974.189913
  0
LINE
  8
CSLAYER1
  6
CONTINUOUS
 62
     3
 10
758.555581
 20
967.925811
 11
757.627378
 21
968.461710
  0
ARC
  8
CSLAYER1
  6
CONTINUOUS
 62
     3
 10
764.555581
 20
979.389913
 40
11.464102
 50
252.178595
 51
270.000000
  0
ARC
  8
CSLAYER1
  6
CONTINUOUS
 62
     3
 10
759.359429
 20
970.991740
 40
3.066114
 50
244.195843
 51
303.856355
  0
LINE
  8
CSLAYER1
  6
CONTINUOUS
 62
     3
 10
758.555581
 20
974.725811
 11
757.627378
 21
974.189913
  0
ARC
  8
CSLAYER1
  6
CONTINUOUS
 62
     3
 10
764.555581
 20
963.261710
 40
11.464102
 50
90.000000
 51
107.821405
  0
ARC
  8
CSLAYER1
  6
CONTINUOUS
 62
     3
 10
759.359429
 20
971.659883
 40
3.066114
 50
56.143645
 51
115.804157
  0
LINE
  8
CSLAYER1
  6
CONTINUOUS
 62
     3
 10
761.091480
 20
974.725811
 11
761.091480
 21
974.925811
  0
LINE
  8
CSLAYER1
  6
CONTINUOUS
 62
     3
 10
771.483785
 20
955.925811
 11
771.483785
 21
964.389913
  0
LINE
  8
CSLAYER1
  6
CONTINUOUS
 62
     3
 10
768.019683
 20
955.925811
 11
768.019683
 21
964.389913
  0
LINE
  8
CSLAYER1
  6
CONTINUOUS
 62
     3
 10
770.555581
 20
964.925811
 11
771.483785
 21
964.389913
  0
ARC
  8
CSLAYER1
  6
CONTINUOUS
 62
     3
 10
764.555581
 20
953.461710
 40
11.464102
 50
72.178595
 51
90.000000
  0
ARC
  8
CSLAYER1
  6
CONTINUOUS
 62
     3
 10
769.751734
 20
961.859883
 40
3.066114
 50
64.195843
 51
123.856355
  0
LINE
  8
CSLAYER1
  6
CONTINUOUS
 62
     3
 10
770.555581
 20
964.925811
 11
758.555581
 21
964.925811
  0
LINE
  8
CSLAYER1
  6
CONTINUOUS
 62
     3
 10
757.627378
 20
955.925811
 11
757.627378
 21
964.389913
  0
LINE
  8
CSLAYER1
  6
CONTINUOUS
 62
     3
 10
761.091480
 20
955.925811
 11
761.091480
 21
964.389913
  0
LINE
  8
CSLAYER1
  6
CONTINUOUS
 62
     3
 10
758.555581
 20
964.925811
 11
757.627378
 21
964.389913
  0
ARC
  8
CSLAYER1
  6
CONTINUOUS
 62
     3
 10
764.555581
 20
953.461710
 40
11.464102
 50
90.000000
 51
107.821405
  0
ARC
  8
CSLAYER1
  6
CONTINUOUS
 62
     3
 10
759.359429
 20
961.859883
 40
3.066114
 50
56.143645
 51
115.804157
  0
LINE
  8
CSLAYER1
  6
CONTINUOUS
 62
     3
 10
770.434863
 20
943.839351
 11
771.483785
 21
955.925811
  0
ARC
  8
CSLAYER1
  6
CONTINUOUS
 62
     3
 10
749.378093
 20
955.925811
 40
18.641590
 50
330.443788
 51
360.000000
  0
ARC
  8
CSLAYER1
  6
CONTINUOUS
 62
     3
 10
764.555581
 20
947.365665
 40
1.217263
 50
270.000000
 51
329.421532
  0
ARC
  8
CSLAYER1
  6
CONTINUOUS
 62
     3
 10
786.661273
 20
955.925811
 40
18.641590
 50
180.000000
 51
209.556212
  0
ARC
  8
CSLAYER1
  6
CONTINUOUS
 62
     3
 10
771.483785
 20
947.365665
 40
1.217263
 50
210.578468
 51
227.594217
  0
ARC
  8
CSLAYER1
  6
CONTINUOUS
 62
     3
 10
769.438608
 20
943.925811
 40
1.000000
 50
270.000000
 51
355.040021
  0
LINE
  8
CSLAYER1
  6
CONTINUOUS
 62
     3
 10
758.676300
 20
943.839351
 11
757.627378
 21
955.925811
  0
ARC
  8
CSLAYER1
  6
CONTINUOUS
 62
     3
 10
779.733070
 20
955.925811
 40
18.641590
 50
180.000000
 51
209.556212
  0
ARC
  8
CSLAYER1
  6
CONTINUOUS
 62
     3
 10
764.555581
 20
947.365665
 40
1.217263
 50
210.578468
 51
270.000000
  0
ARC
  8
CSLAYER1
  6
CONTINUOUS
 62
     3
 10
742.449890
 20
955.925811
 40
18.641590
 50
330.443788
 51
360.000000
  0
ARC
  8
CSLAYER1
  6
CONTINUOUS
 62
     3
 10
757.627378
 20
947.365665
 40
1.217263
 50
312.405783
 51
329.421532
  0
ARC
  8
CSLAYER1
  6
CONTINUOUS
 62
     3
 10
759.672555
 20
943.925811
 40
1.000000
 50
184.959979
 51
270.000000
  0
LINE
  8
CSLAYER1
  6
CONTINUOUS
 62
     3
 10
769.438608
 20
1009.625811
 11
759.672555
 21
1009.625811
  0
LINE
  8
CSLAYER1
  6
CENTER
 62
     5
 10
777.055581
 20
1002.625811
 11
771.555581
 21
1002.625811
  0
LINE
  8
CSLAYER1
  6
CONTINUOUS
 62
     3
 10
757.555581
 20
995.625811
 11
757.555581
 21
1008.125811
  0
LINE
  8
CSLAYER1
  6
CONTINUOUS
 62
     3
 10
771.555581
 20
1009.625811
 11
759.055581
 21
1009.625811
  0
LINE
  8
CSLAYER1
  6
CONTINUOUS
 62
     3
 10
771.555581
 20
995.625811
 11
757.555581
 21
995.625811
  0
LINE
  8
CSLAYER1
  6
CONTINUOUS
 62
     3
 10
771.555581
 20
995.625811
 11
771.555581
 21
1009.623366
  0
LINE
  8
CSLAYER1
  6
CONTINUOUS
 62
     3
 10
769.155581
 20
989.925811
 11
769.155581
 21
995.625811
  0
LINE
  8
CSLAYER1
  6
CONTINUOUS
 62
     4
 10
768.555581
 20
989.925811
 11
768.555581
 21
994.586581
  0
LINE
  8
CSLAYER1
  6
CONTINUOUS
 62
     4
 10
769.155581
 20
995.625811
 11
768.555581
 21
994.586581
  0
LINE
  8
CSLAYER1
  6
CONTINUOUS
 62
     3
 10
759.955581
 20
989.925811
 11
759.955581
 21
995.625811
  0
LINE
  8
CSLAYER1
  6
CONTINUOUS
 62
     4
 10
759.955581
 20
995.625811
 11
760.555581
 21
994.586581
  0
LINE
  8
CSLAYER1
  6
CONTINUOUS
 62
     4
 10
769.155581
 20
994.586581
 11
759.955581
 21
994.586581
  0
LINE
  8
CSLAYER1
  6
CONTINUOUS
 62
     3
 10
777.055581
 20
997.774025
 11
771.555581
 21
997.675811
  0
LINE
  8
CSLAYER1
  6
CONTINUOUS
 62
     4
 10
777.055581
 20
998.474137
 11
771.543083
 21
998.375700
  0
LINE
  8
CSLAYER1
  6
CONTINUOUS
 62
     3
 10
777.055581
 20
1007.477597
 11
771.555581
 21
1007.575811
  0
LINE
  8
CSLAYER1
  6
CONTINUOUS
 62
     4
 10
777.055581
 20
1006.777485
 11
771.543083
 21
1006.875923
  0
ARC
  8
CSLAYER1
  6
CONTINUOUS
 62
     3
 10
759.055581
 20
1008.125811
 40
1.500000
 50
90.000000
 51
180.000000
  0
LINE
  8
CSLAYER1
  6
CONTINUOUS
 62
     3
 10
783.055581
 20
1150.326897
 11
786.555581
 21
1150.326897
  0
LINE
  8
CSLAYER1
  6
CONTINUOUS
 62
     3
 10
782.055581
 20
1151.326897
 11
783.055581
 21
1150.326897
  0
LINE
  8
CSLAYER1
  6
CONTINUOUS
 62
     3
 10
826.055581
 20
1150.326897
 11
827.055581
 21
1151.326897
  0
LINE
  8
CSLAYER1
  6
CONTINUOUS
 62
     3
 10
828.055581
 20
1155.926897
 11
827.055581
 21
1155.926897
  0
LINE
  8
CSLAYER1
  6
CONTINUOUS
 62
     3
 10
782.055581
 20
1155.926897
 11
781.055581
 21
1155.926897
  0
LINE
  8
CSLAYER1
  6
CONTINUOUS
 62
     3
 10
822.555581
 20
1150.326897
 11
826.055581
 21
1150.326897
  0
LINE
  8
CSLAYER1
  6
CONTINUOUS
 62
     3
 10
760.405581
 20
836.091760
 11
760.405581
 21
942.925811
  0
LINE
  8
CSLAYER1
  6
CONTINUOUS
 62
     3
 10
768.705581
 20
836.091760
 11
768.705581
 21
942.925811
  0
LINE
  8
CSLAYER1
  6
CONTINUOUS
 62
     4
 10
760.555581
 20
989.925811
 11
760.555581
 21
994.586581
  0
ENDBLK
  8
0
  0
BLOCK
  8
CSLAYER1
  2
BLKF0003
 70
   64
 10
0.0
 20
0.0
 30
0.0
  0
LINE
  8
CSLAYER1
  6
CENTER
 62
     6
 10
1404.464408
 20
2077.772833
 11
1404.464408
 21
2100.298436
  0
LINE
  8
CSLAYER1
  6
CENTER
 62
     6
 10
1393.201606
 20
2089.035634
 11
1415.727209
 21
2089.035634
  0
ENDBLK
  8
0
  0
BLOCK
  8
CSLAYER1
  2
BLKF0004
 70
   64
 10
0.0
 20
0.0
 30
0.0
  0
LINE
  8
CSLAYER1
  6
CONTINUOUS
 62
     3
 10
727.555581
 20
1362.885777
 11
727.555581
 21
1377.655432
  0
LINE
  8
CSLAYER1
  6
CONTINUOUS
 62
     3
 10
730.555581
 20
1363.105432
 11
727.555581
 21
1363.105432
  0
LINE
  8
CSLAYER1
  6
CONTINUOUS
 62
     3
 10
730.555581
 20
1372.343235
 11
727.555581
 21
1375.843235
  0
LINE
  8
CSLAYER1
  6
CONTINUOUS
 62
     3
 10
719.555581
 20
1373.855432
 11
719.555581
 21
1377.655432
  0
ARC
  8
CSLAYER1
  6
CONTINUOUS
 62
     3
 10
733.351326
 20
1373.855432
 40
13.795744
 50
164.011330
 51
180.000000
  0
LINE
  8
CSLAYER1
  6
CONTINUOUS
 62
     3
 10
719.555581
 20
1373.855432
 11
719.555581
 21
1364.855432
  0
LINE
  8
CSLAYER1
  6
CONTINUOUS
 62
     3
 10
727.555581
 20
1368.370604
 11
720.692762
 21
1368.370604
  0
LINE
  8
CSLAYER1
  6
CONTINUOUS
 62
     3
 10
727.555581
 20
1362.885777
 11
720.692762
 21
1362.885777
  0
LINE
  8
CSLAYER1
  6
CONTINUOUS
 62
     3
 10
719.555581
 20
1364.855432
 11
720.692762
 21
1362.885777
  0
ARC
  8
CSLAYER1
  6
CONTINUOUS
 62
     3
 10
723.335626
 20
1365.628190
 40
3.808617
 50
133.940972
 51
174.338367
  0
ARC
  8
CSLAYER1
  6
CONTINUOUS
 62
     3
 10
733.351326
 20
1373.855432
 40
13.795744
 50
180.000000
 51
203.426598
  0
ENDBLK
  8
0
  0
BLOCK
  8
CSLAYER1
  2
BLKF0005
 70
   64
 10
0.0
 20
0.0
 30
0.0
  0
LINE
  8
CSLAYER1
  6
CONTINUOUS
 62
     3
 10
2202.009366
 20
1407.655432
 11
2202.009366
 21
1377.655432
  0
LINE
  8
CSLAYER1
  6
CONTINUOUS
 62
     3
 10
2199.709366
 20
1375.355432
 11
2199.709366
 21
1377.655432
  0
POINT
  8
CSLAYER1
 62
     3
 10
1424.309366
 20
1373.855432
  0
POINT
  8
CSLAYER1
 62
     3
 10
1424.309366
 20
1373.855432
  0
LINE
  8
CSLAYER1
  6
CONTINUOUS
 62
     3
 10
1402.009366
 20
1407.655432
 11
1402.009366
 21
1377.655432
  0
LINE
  8
CSLAYER1
  6
CONTINUOUS
 62
     3
 10
1454.309366
 20
1375.355432
 11
2084.309366
 21
1375.355432
  0
LINE
  8
CSLAYER1
  6
CONTINUOUS
 62
     3
 10
1402.009366
 20
1407.655432
 11
2202.009366
 21
1407.655432
  0
LINE
  8
CSLAYER1
  6
CONTINUOUS
 62
     3
 10
1404.309366
 20
1377.655432
 11
1404.309366
 21
1368.355432
  0
LINE
  8
CSLAYER1
  6
CONTINUOUS
 62
     3
 10
1402.009366
 20
1377.655432
 11
1404.309366
 21
1377.655432
  0
LINE
  8
CSLAYER1
  6
CONTINUOUS
 62
     3
 10
1409.309366
 20
1363.355432
 11
1429.309366
 21
1363.355432
  0
ARC
  8
CSLAYER1
  6
CONTINUOUS
 62
     3
 10
1409.309366
 20
1368.355432
 40
5.000000
 50
180.000000
 51
270.000000
  0
LINE
  8
CSLAYER1
  6
CONTINUOUS
 62
     3
 10
1454.309366
 20
1372.355432
 11
1429.309366
 21
1363.355432
  0
LINE
  8
CSLAYER1
  6
CONTINUOUS
 62
     3
 10
1454.309366
 20
1377.655432
 11
1454.309366
 21
1372.355432
  0
LINE
  8
CSLAYER1
  6
CENTER
 62
     5
 10
1413.550997
 20
1373.855432
 11
1435.641498
 21
1373.855432
  0
LINE
  8
CSLAYER1
  6
CENTER
 62
     5
 10
1424.309366
 20
1363.355432
 11
1424.309366
 21
1377.655432
  0
LINE
  8
CSLAYER1
  6
CONTINUOUS
 62
     3
 10
1454.309366
 20
1375.355432
 11
2199.709366
 21
1375.355432
  0
LINE
  8
CSLAYER1
  6
CONTINUOUS
 62
     3
 10
1402.009366
 20
1377.655432
 11
2202.009366
 21
1377.655432
  0
ENDBLK
  8
0
  0
BLOCK
  8
CSLAYER1
  2
BLKF0006
 70
   64
 10
0.0
 20
0.0
 30
0.0
  0
LINE
  8
CSLAYER1
  6
PHANTOM
 62
     6
 10
2182.164408
 20
876.091760
 11
2182.164408
 21
846.091760
  0
LINE
  8
CSLAYER1
  6
PHANTOM
 62
     6
 10
2179.864408
 20
843.791760
 11
2179.864408
 21
846.091760
  0
POINT
  8
CSLAYER1
 62
     6
 10
1404.464408
 20
842.291760
  0
POINT
  8
CSLAYER1
 62
     6
 10
1404.464408
 20
842.291760
  0
LINE
  8
CSLAYER1
  6
PHANTOM
 62
     6
 10
1382.164408
 20
876.091760
 11
1382.164408
 21
846.091760
  0
LINE
  8
CSLAYER1
  6
PHANTOM
 62
     6
 10
1434.464408
 20
843.791760
 11
2064.464408
 21
843.791760
  0
LINE
  8
CSLAYER1
  6
PHANTOM
 62
     6
 10
1382.164408
 20
876.091760
 11
2182.164408
 21
876.091760
  0
LINE
  8
CSLAYER1
  6
PHANTOM
 62
     6
 10
1384.464408
 20
846.091760
 11
1384.464408
 21
836.791760
  0
LINE
  8
CSLAYER1
  6
PHANTOM
 62
     6
 10
1382.164408
 20
846.091760
 11
1384.464408
 21
846.091760
  0
LINE
  8
CSLAYER1
  6
PHANTOM
 62
     6
 10
1389.464408
 20
831.791760
 11
1409.464408
 21
831.791760
  0
ARC
  8
CSLAYER1
  6
PHANTOM
 62
     6
 10
1389.464408
 20
836.791760
 40
5.000000
 50
180.000000
 51
270.000000
  0
LINE
  8
CSLAYER1
  6
PHANTOM
 62
     6
 10
1434.464408
 20
840.791760
 11
1409.464408
 21
831.791760
  0
LINE
  8
CSLAYER1
  6
PHANTOM
 62
     6
 10
1434.464408
 20
846.091760
 11
1434.464408
 21
840.791760
  0
LINE
  8
CSLAYER1
  6
PHANTOM
 62
     6
 10
1393.706039
 20
842.291760
 11
1415.796540
 21
842.291760
  0
LINE
  8
CSLAYER1
  6
PHANTOM
 62
     6
 10
1404.464408
 20
831.791760
 11
1404.464408
 21
846.091760
  0
LINE
  8
CSLAYER1
  6
PHANTOM
 62
     6
 10
1434.464408
 20
843.791760
 11
2179.864408
 21
843.791760
  0
LINE
  8
CSLAYER1
  6
PHANTOM
 62
     6
 10
1382.164408
 20
846.091760
 11
2182.164408
 21
846.091760
  0
ENDBLK
  8
0
  0
BLOCK
  8
CSLAYER1
  2
BLKF0007
 70
   64
 10
0.0
 20
0.0
 30
0.0
  0
LINE
  8
CSLAYER1
  6
CENTER
 62
     6
 10
1404.464408
 20
1850.298436
 11
1404.464408
 21
1827.772833
  0
LINE
  8
CSLAYER1
  6
CENTER
 62
     6
 10
1393.201606
 20
1839.035634
 11
1415.727209
 21
1839.035634
  0
ENDBLK
  8
0
  0
BLOCK
  8
CSLAYER1
  2
BLKF0008
 70
   64
 10
0.0
 20
0.0
 30
0.0
  0
DIMENSION
  8
CSLAYER1
 62
     3
  2
*D0012
 10
1404.464408
 20
1749.975570
 11
1338.608643
 21
1733.708374
 13
1379.464408
 23
1683.164002
 14
1404.464408
 24
1827.772833
  0
DIMENSION
  8
CSLAYER1
 62
     3
  2
*D0013
 10
1429.464408
 20
1683.164002
 11
1339.770752
 21
1666.315796
 13
1379.464408
 23
1824.035634
 14
1429.464408
 24
1824.035634
 52
270.000000
 70
1
  0
INSERT
  8
CSLAYER1
  2
EASYDRAWDIM0003
 10
0.0
 20
0.0
 30
0.0
  0
ARC
  8
CSLAYER1
  6
CONTINUOUS
 62
     5
 10
1404.464408
 20
1839.035634
 40
6.500000
 50
244.452294
 51
292.969420
  0
DIMENSION
  8
CSLAYER1
 62
     3
  2
*D0014
 10
1294.210347
 20
2089.035634
 11
1285.958008
 21
1938.483032
 13
1393.201606
 23
1839.035634
 14
1393.201606
 24
2089.035634
 50
90.000000
 70
1
  0
INSERT
  8
CSLAYER1
  2
EASYDRAWDIM0004
 10
0.0
 20
0.0
 30
0.0
  0
ARC
  8
CSLAYER1
  6
CONTINUOUS
 62
     5
 10
1404.464408
 20
1839.035634
 40
6.500000
 50
62.740267
 51
113.228660
  0
ARC
  8
CSLAYER1
  6
CONTINUOUS
 62
     5
 10
1404.464408
 20
1839.035634
 40
6.500000
 50
150.667324
 51
208.584235
  0
ARC
  8
CSLAYER1
  6
CONTINUOUS
 62
     5
 10
1404.464408
 20
1839.035634
 40
6.500000
 50
-27.313840
 51
24.091742
  0
LINE
  8
CSLAYER1
  6
DASHED
 62
     5
 10
1429.464408
 20
1824.035634
 11
1429.464408
 21
1864.035634
  0
ARC
  8
CSLAYER1
  6
CONTINUOUS
 62
     5
 10
1419.464408
 20
1824.035634
 40
10.000000
 50
270.000000
 51
360.000000
  0
ARC
  8
CSLAYER1
  6
CONTINUOUS
 62
     5
 10
1404.464408
 20
2089.035634
 40
6.500000
 50
246.771340
 51
297.259733
  0
ARC
  8
CSLAYER1
  6
CONTINUOUS
 62
     5
 10
1404.464408
 20
2089.035634
 40
6.500000
 50
-24.091742
 51
27.313840
  0
ARC
  8
CSLAYER1
  6
CONTINUOUS
 62
     5
 10
1404.464408
 20
2089.035634
 40
6.500000
 50
67.030580
 51
115.547706
  0
ARC
  8
CSLAYER1
  6
CONTINUOUS
 62
     5
 10
1404.464408
 20
2089.035634
 40
6.500000
 50
151.415765
 51
209.332676
  0
LINE
  8
CSLAYER1
  6
DASHED
 62
     5
 10
1429.464408
 20
2104.035634
 11
1429.464408
 21
2064.035634
  0
ARC
  8
CSLAYER1
  6
CONTINUOUS
 62
     5
 10
1419.464408
 20
2104.035634
 40
10.000000
 50
0.000000
 51
90.000000
  0
LINE
  8
CSLAYER1
  6
DASHED
 62
     5
 10
1382.164408
 20
2064.035634
 11
2182.164408
 21
2064.035634
  0
LINE
  8
CSLAYER1
  6
DASHED
 62
     5
 10
1382.164408
 20
1864.035634
 11
2182.164408
 21
1864.035634
  0
ENDBLK
  8
0
  0
BLOCK
  8
CSLAYER1
  2
BLKF0009
 70
   64
 10
0.0
 20
0.0
 30
0.0
  0
LINE
  8
CSLAYER1
  6
CONTINUOUS
 62
     3
 10
1379.464408
 20
2038.535634
 11
1382.164408
 21
2038.535634
  0
ARC
  8
CSLAYER1
  6
CONTINUOUS
 62
     5
 10
1389.464408
 20
1824.035634
 40
10.000000
 50
223.113606
 51
270.000000
  0
ARC
  8
CSLAYER1
  6
CONTINUOUS
 62
     5
 10
1389.464408
 20
2104.035634
 40
10.000000
 50
90.000000
 51
136.886394
  0
ENDBLK
  8
0
  0
BLOCK
  8
CSLAYER1
  2
BLKF0010
 70
   64
 10
0.0
 20
0.0
 30
0.0
  0
DIMENSION
  8
CSLAYER1
 62
     3
  2
*D0015
 10
1404.464408
 20
1749.975570
 11
1338.608643
 21
1733.708374
 13
1379.464408
 23
1683.164002
 14
1404.464408
 24
1827.772833
  0
DIMENSION
  8
CSLAYER1
 62
     3
  2
*D0016
 10
1429.464408
 20
1683.164002
 11
1339.770752
 21
1666.315796
 13
1379.464408
 23
1824.035634
 14
1429.464408
 24
1824.035634
 52
270.000000
 70
1
  0
INSERT
  8
CSLAYER1
  2
EASYDRAWDIM0005
 10
0.0
 20
0.0
 30
0.0
  0
ARC
  8
CSLAYER1
  6
CONTINUOUS
 62
     5
 10
1404.464408
 20
1839.035634
 40
6.500000
 50
244.452294
 51
292.969420
  0
DIMENSION
  8
CSLAYER1
 62
     3
  2
*D0017
 10
1294.210347
 20
2089.035634
 11
1285.958008
 21
1938.483032
 13
1393.201606
 23
1839.035634
 14
1393.201606
 24
2089.035634
 50
90.000000
 70
1
  0
INSERT
  8
CSLAYER1
  2
EASYDRAWDIM0006
 10
0.0
 20
0.0
 30
0.0
  0
ARC
  8
CSLAYER1
  6
CONTINUOUS
 62
     5
 10
1404.464408
 20
1839.035634
 40
6.500000
 50
62.740267
 51
113.228660
  0
ARC
  8
CSLAYER1
  6
CONTINUOUS
 62
     5
 10
1404.464408
 20
1839.035634
 40
6.500000
 50
150.667324
 51
208.584235
  0
ARC
  8
CSLAYER1
  6
CONTINUOUS
 62
     5
 10
1404.464408
 20
1839.035634
 40
6.500000
 50
-27.313840
 51
24.091742
  0
LINE
  8
CSLAYER1
  6
DASHED
 62
     5
 10
1429.464408
 20
1824.035634
 11
1429.464408
 21
1864.035634
  0
ARC
  8
CSLAYER1
  6
CONTINUOUS
 62
     5
 10
1419.464408
 20
1824.035634
 40
10.000000
 50
270.000000
 51
360.000000
  0
ARC
  8
CSLAYER1
  6
CONTINUOUS
 62
     5
 10
1404.464408
 20
2089.035634
 40
6.500000
 50
246.771340
 51
297.259733
  0
ARC
  8
CSLAYER1
  6
CONTINUOUS
 62
     5
 10
1404.464408
 20
2089.035634
 40
6.500000
 50
-24.091742
 51
27.313840
  0
ARC
  8
CSLAYER1
  6
CONTINUOUS
 62
     5
 10
1404.464408
 20
2089.035634
 40
6.500000
 50
67.030580
 51
115.547706
  0
ARC
  8
CSLAYER1
  6
CONTINUOUS
 62
     5
 10
1404.464408
 20
2089.035634
 40
6.500000
 50
151.415765
 51
209.332676
  0
LINE
  8
CSLAYER1
  6
DASHED
 62
     5
 10
1429.464408
 20
2104.035634
 11
1429.464408
 21
2064.035634
  0
ARC
  8
CSLAYER1
  6
CONTINUOUS
 62
     5
 10
1419.464408
 20
2104.035634
 40
10.000000
 50
0.000000
 51
90.000000
  0
LINE
  8
CSLAYER1
  6
DASHED
 62
     5
 10
1382.164408
 20
2064.035634
 11
2182.164408
 21
2064.035634
  0
LINE
  8
CSLAYER1
  6
DASHED
 62
     5
 10
1382.164408
 20
1864.035634
 11
2182.164408
 21
1864.035634
  0
ENDBLK
  8
0
  0
BLOCK
  8
CSLAYER1
  2
BLKF0011
 70
   64
 10
0.0
 20
0.0
 30
0.0
  0
LINE
  8
CSLAYER1
  6
CONTINUOUS
 62
     3
 10
1379.464408
 20
2038.535634
 11
1382.164408
 21
2038.535634
  0
ARC
  8
CSLAYER1
  6
CONTINUOUS
 62
     5
 10
1389.464408
 20
1824.035634
 40
10.000000
 50
223.113606
 51
270.000000
  0
ARC
  8
CSLAYER1
  6
CONTINUOUS
 62
     5
 10
1389.464408
 20
2104.035634
 40
10.000000
 50
90.000000
 51
136.886394
  0
ENDBLK
  8
0
  0
BLOCK
  8
CSLAYER1
  2
BLKF0012
 70
   64
 10
0.0
 20
0.0
 30
0.0
  0
LINE
  8
CSLAYER1
  6
CONTINUOUS
 62
     5
 10
3447.429784
 20
1499.406155
 11
2567.429784
 21
1499.406155
  0
TEXT
  8
CSLAYER1
 62
     3
 10
3044.812988
 20
1505.056274
 40
40.000000
 41
0.832500
  1
10R4/13
 50
0.000000
 51
0.000000
  7
EASYDRAW_FONT
 72
     5
 11
3266.812988
 21
1505.056274
  0
ENDBLK
  8
0
  0
BLOCK
  8
CSLAYER1
  2
BLKF0013
 70
   64
 10
0.0
 20
0.0
 30
0.0
  0
ARC
  8
CSLAYER1
  6
CONTINUOUS
 62
     5
 10
2862.714175
 20
131.620592
 40
3.549225
 50
6.429109
 51
73.182034
  0
ARC
  8
CSLAYER1
  6
CONTINUOUS
 62
     5
 10
2859.253204
 20
130.462199
 40
6.907754
 50
310.517970
 51
330.092764
  0
ARC
  8
CSLAYER1
  6
CONTINUOUS
 62
     5
 10
2859.192555
 20
130.827717
 40
7.148321
 50
-32.205059
 51
9.585194
  0
ARC
  8
CSLAYER1
  6
CONTINUOUS
 62
     5
 10
2862.485283
 20
128.066719
 40
4.767514
 50
180.000000
 51
218.514150
  0
ARC
  8
CSLAYER1
  6
CONTINUOUS
 62
     5
 10
2861.198562
 20
127.389578
 40
3.348282
 50
222.781148
 51
319.406906
  0
ARC
  8
CSLAYER1
  6
CONTINUOUS
 62
     5
 10
2864.264203
 20
128.479471
 40
6.559434
 50
94.574282
 51
183.607718
  0
LINE
  8
CSLAYER1
  6
CONTINUOUS
 62
     5
 10
2877.708110
 20
123.362639
 11
2876.851074
 21
120.324056
  0
LINE
  8
CSLAYER1
  6
CONTINUOUS
 62
     5
 10
2879.500095
 20
143.230296
 11
2877.396460
 21
145.957229
  0
LINE
  8
CSLAYER1
  6
CONTINUOUS
 62
     5
 10
2877.396460
 20
145.957229
 11
2870.643106
 21
149.715141
  0
LINE
  8
CSLAYER1
  6
CONTINUOUS
 62
     5
 10
2870.643106
 20
149.715141
 11
2863.741079
 21
150.518012
  0
LINE
  8
CSLAYER1
  6
CONTINUOUS
 62
     5
 10
2845.451853
 20
137.139338
 11
2847.598548
 21
142.103569
  0
LINE
  8
CSLAYER1
  6
CONTINUOUS
 62
     5
 10
2847.561550
 20
142.018012
 11
2849.745242
 21
144.652769
  0
LINE
  8
CSLAYER1
  6
CONTINUOUS
 62
     5
 10
2849.745242
 20
144.652769
 11
2853.049664
 21
147.018012
  0
LINE
  8
CSLAYER1
  6
CONTINUOUS
 62
     5
 10
2863.741079
 20
150.518012
 11
2862.222903
 21
149.751168
  0
LINE
  8
CSLAYER1
  6
CONTINUOUS
 62
     5
 10
2862.222903
 20
149.751168
 11
2858.734525
 21
149.751168
  0
LINE
  8
CSLAYER1
  6
CONTINUOUS
 62
     5
 10
2858.734525
 20
149.751168
 11
2855.179062
 21
147.805726
  0
LINE
  8
CSLAYER1
  6
CONTINUOUS
 62
     5
 10
2855.179062
 20
147.805726
 11
2853.049664
 21
147.018012
  0
LINE
  8
CSLAYER1
  6
CONTINUOUS
 62
     5
 10
2845.451853
 20
137.139338
 11
2843.934306
 21
129.590736
  0
LINE
  8
CSLAYER1
  6
CONTINUOUS
 62
     5
 10
2843.934306
 20
129.590736
 11
2843.741079
 21
127.018012
  0
LINE
  8
CSLAYER1
  6
CONTINUOUS
 62
     5
 10
2846.450462
 20
119.178230
 11
2843.741079
 21
125.274341
  0
LINE
  8
CSLAYER1
  6
CONTINUOUS
 62
     5
 10
2843.741079
 20
125.274341
 11
2843.741079
 21
127.018012
  0
LINE
  8
CSLAYER1
  6
CONTINUOUS
 62
     5
 10
2876.851074
 20
120.324056
 11
2875.165287
 21
117.321049
  0
LINE
  8
CSLAYER1
  6
CONTINUOUS
 62
     5
 10
2875.165287
 20
117.321049
 11
2873.741079
 21
116.002339
  0
ARC
  8
CSLAYER1
  6
CONTINUOUS
 62
     5
 10
2861.549134
 20
127.554773
 40
17.266626
 50
208.054813
 51
260.640470
  0
ARC
  8
CSLAYER1
  6
CONTINUOUS
 62
     5
 10
2856.355739
 20
140.297242
 40
29.874611
 50
274.579659
 51
305.587364
  0
ARC
  8
CSLAYER1
  6
CONTINUOUS
 62
     5
 10
2867.328088
 20
134.313520
 40
15.088627
 50
313.467013
 51
331.085078
  0
LINE
  8
CSLAYER1
  6
CONTINUOUS
 62
     5
 10
2882.119420
 20
130.531433
 11
2882.416714
 21
134.313520
  0
LINE
  8
CSLAYER1
  6
CONTINUOUS
 62
     5
 10
2882.416714
 20
134.313520
 11
2881.124717
 21
140.422503
  0
LINE
  8
CSLAYER1
  6
CONTINUOUS
 62
     5
 10
2882.119420
 20
130.531433
 11
2880.535746
 21
127.018012
  0
ARC
  8
CSLAYER1
  6
CONTINUOUS
 62
     5
 10
2867.328088
 20
134.313520
 40
15.088627
 50
23.883193
 51
36.225170
  0
LINE
  8
CSLAYER1
  6
CONTINUOUS
 62
     5
 10
2827.741079
 20
162.018012
 11
2828.741079
 21
163.110657
  0
LINE
  8
CSLAYER1
  6
CONTINUOUS
 62
     5
 10
2827.741079
 20
162.018012
 11
2829.318037
 21
160.572979
  0
LINE
  8
CSLAYER1
  6
CONTINUOUS
 62
     5
 10
2830.857249
 20
158.463688
 11
2830.883518
 21
156.295569
  0
LINE
  8
CSLAYER1
  6
CONTINUOUS
 62
     5
 10
2830.883518
 20
156.295569
 11
2831.090916
 21
155.535109
  0
LINE
  8
CSLAYER1
  6
CONTINUOUS
 62
     5
 10
2831.090916
 20
155.535109
 11
2831.678543
 21
154.809216
  0
LINE
  8
CSLAYER1
  6
CONTINUOUS
 62
     5
 10
2831.678543
 20
154.809216
 11
2832.266171
 21
154.878349
  0
LINE
  8
CSLAYER1
  6
CONTINUOUS
 62
     5
 10
2832.266171
 20
154.878349
 11
2832.888365
 21
155.051181
  0
LINE
  8
CSLAYER1
  6
CONTINUOUS
 62
     5
 10
2832.888365
 20
155.051181
 11
2833.303161
 21
154.878349
  0
LINE
  8
CSLAYER1
  6
CONTINUOUS
 62
     5
 10
2833.303161
 20
154.878349
 11
2834.201885
 21
154.428987
  0
LINE
  8
CSLAYER1
  6
CONTINUOUS
 62
     5
 10
2834.201885
 20
154.428987
 11
2834.977937
 21
154.018012
  0
LINE
  8
CSLAYER1
  6
CONTINUOUS
 62
     5
 10
2834.977937
 20
154.018012
 11
2835.480840
 21
154.048757
  0
LINE
  8
CSLAYER1
  6
CONTINUOUS
 62
     5
 10
2835.480840
 20
154.048757
 11
2838.288712
 21
155.495236
  0
LINE
  8
CSLAYER1
  6
CONTINUOUS
 62
     5
 10
2828.741079
 20
163.110657
 11
2829.073930
 21
164.584364
  0
LINE
  8
CSLAYER1
  6
CONTINUOUS
 62
     5
 10
2829.073930
 20
164.584364
 11
2830.527336
 21
164.734716
  0
LINE
  8
CSLAYER1
  6
CONTINUOUS
 62
     5
 10
2832.021094
 20
167.503175
 11
2833.775267
 21
167.660265
  0
LINE
  8
CSLAYER1
  6
CONTINUOUS
 62
     5
 10
2833.775267
 20
167.660265
 11
2837.309795
 21
168.498079
  0
LINE
  8
CSLAYER1
  6
CONTINUOUS
 62
     5
 10
2837.309795
 20
168.498079
 11
2838.741079
 21
168.829718
  0
LINE
  8
CSLAYER1
  6
CONTINUOUS
 62
     5
 10
2832.021094
 20
167.503175
 11
2830.088203
 21
167.662043
  0
LINE
  8
CSLAYER1
  6
CONTINUOUS
 62
     5
 10
2829.352080
 20
166.793355
 11
2829.445605
 21
166.422194
  0
LINE
  8
CSLAYER1
  6
CONTINUOUS
 62
     5
 10
2829.445605
 20
166.422194
 11
2829.937199
 21
165.884513
  0
LINE
  8
CSLAYER1
  6
CONTINUOUS
 62
     5
 10
2829.937199
 20
165.884513
 11
2830.613141
 21
165.377557
  0
LINE
  8
CSLAYER1
  6
CONTINUOUS
 62
     5
 10
2830.613141
 20
165.377557
 11
2830.736466
 21
165.213124
  0
LINE
  8
CSLAYER1
  6
CONTINUOUS
 62
     5
 10
2829.318037
 20
160.572979
 11
2830.857249
 21
158.463688
  0
ARC
  8
CSLAYER1
  6
CONTINUOUS
 62
     5
 10
2873.727779
 20
-9.640641
 40
180.727463
 50
80.438896
 51
96.353582
  0
ARC
  8
CSLAYER1
  6
CONTINUOUS
 62
     5
 10
2848.828866
 20
135.607260
 40
34.720242
 50
81.866516
 51
106.890578
  0
LINE
  8
CSLAYER1
  6
CONTINUOUS
 62
     5
 10
2907.935340
 20
167.784682
 11
2910.182423
 21
166.763281
  0
LINE
  8
CSLAYER1
  6
CONTINUOUS
 62
     5
 10
2913.757327
 20
165.180109
 11
2910.182423
 21
166.763281
  0
LINE
  8
CSLAYER1
  6
CONTINUOUS
 62
     5
 10
2907.935340
 20
167.784682
 11
2903.741079
 21
168.577254
  0
LINE
  8
CSLAYER1
  6
CONTINUOUS
 62
     5
 10
2913.741079
 20
165.187305
 11
2915.612654
 21
163.618828
  0
LINE
  8
CSLAYER1
  6
CONTINUOUS
 62
     5
 10
2896.984335
 20
166.224156
 11
2897.883610
 21
167.676831
  0
LINE
  8
CSLAYER1
  6
CONTINUOUS
 62
     5
 10
2897.883610
 20
167.676831
 11
2902.559208
 21
166.557321
  0
LINE
  8
CSLAYER1
  6
CONTINUOUS
 62
     5
 10
2902.559208
 20
166.557321
 11
2919.301594
 21
162.018012
  0
LINE
  8
CSLAYER1
  6
CONTINUOUS
 62
     5
 10
2922.241079
 20
162.018012
 11
2915.612654
 21
163.618828
  0
LINE
  8
CSLAYER1
  6
CONTINUOUS
 62
     5
 10
2919.301594
 20
162.018012
 11
2922.241079
 21
162.018012
  0
LINE
  8
CSLAYER1
  6
CONTINUOUS
 62
     5
 10
2863.741079
 20
166.482953
 11
2883.741079
 21
167.018012
  0
LINE
  8
CSLAYER1
  6
CONTINUOUS
 62
     5
 10
2883.741079
 20
167.018012
 11
2896.984335
 21
166.224156
  0
LINE
  8
CSLAYER1
  6
CONTINUOUS
 62
     5
 10
2898.587316
 20
164.163676
 11
2883.741079
 21
165.518012
  0
LINE
  8
CSLAYER1
  6
CONTINUOUS
 62
     5
 10
2883.741079
 20
165.518012
 11
2868.691869
 21
165.926664
  0
LINE
  8
CSLAYER1
  6
CONTINUOUS
 62
     5
 10
2868.741079
 20
165.925328
 11
2863.741079
 21
166.020622
  0
LINE
  8
CSLAYER1
  6
CONTINUOUS
 62
     5
 10
2863.741079
 20
166.482953
 11
2863.741079
 21
166.020622
  0
LINE
  8
CSLAYER1
  6
CONTINUOUS
 62
     5
 10
2921.241079
 20
158.518012
 11
2912.398520
 21
160.828674
  0
LINE
  8
CSLAYER1
  6
CONTINUOUS
 62
     5
 10
2898.587316
 20
164.163676
 11
2908.741079
 21
162.191293
  0
LINE
  8
CSLAYER1
  6
CONTINUOUS
 62
     5
 10
2908.741079
 20
162.191293
 11
2912.398520
 21
160.828674
  0
LINE
  8
CSLAYER1
  6
CONTINUOUS
 62
     5
 10
2921.241079
 20
158.518012
 11
2920.948461
 21
157.678907
  0
LINE
  8
CSLAYER1
  6
CONTINUOUS
 62
     5
 10
2930.741079
 20
153.018012
 11
2930.435051
 21
154.246993
  0
LINE
  8
CSLAYER1
  6
CONTINUOUS
 62
     5
 10
2920.948461
 20
157.678907
 11
2930.435051
 21
154.246993
  0
LINE
  8
CSLAYER1
  6
CONTINUOUS
 62
     5
 10
2867.241079
 20
158.518012
 11
2869.664117
 21
158.518012
  0
LINE
  8
CSLAYER1
  6
CONTINUOUS
 62
     5
 10
2889.741079
 20
158.950508
 11
2889.741079
 21
158.518012
  0
LINE
  8
CSLAYER1
  6
CONTINUOUS
 62
     5
 10
2888.741079
 20
159.484949
 11
2887.029799
 21
160.122127
  0
LINE
  8
CSLAYER1
  6
CONTINUOUS
 62
     5
 10
2887.029799
 20
160.122127
 11
2885.919743
 21
160.172584
  0
LINE
  8
CSLAYER1
  6
CONTINUOUS
 62
     5
 10
2885.919743
 20
160.172584
 11
2885.440401
 21
159.920299
  0
LINE
  8
CSLAYER1
  6
CONTINUOUS
 62
     5
 10
2885.440401
 20
159.920299
 11
2885.339487
 21
159.516642
  0
LINE
  8
CSLAYER1
  6
CONTINUOUS
 62
     5
 10
2885.339487
 20
159.516642
 11
2885.793601
 21
159.213899
  0
LINE
  8
CSLAYER1
  6
CONTINUOUS
 62
     5
 10
2885.793601
 20
159.213899
 11
2887.433456
 21
159.062528
  0
LINE
  8
CSLAYER1
  6
CONTINUOUS
 62
     5
 10
2887.433456
 20
159.062528
 11
2889.741079
 21
158.950508
  0
LINE
  8
CSLAYER1
  6
CONTINUOUS
 62
     5
 10
2930.741079
 20
153.018012
 11
2927.765536
 21
154.204594
  0
LINE
  8
CSLAYER1
  6
CONTINUOUS
 62
     5
 10
2927.765536
 20
154.204594
 11
2917.709846
 21
156.047469
  0
LINE
  8
CSLAYER1
  6
CONTINUOUS
 62
     5
 10
2917.709846
 20
156.047469
 11
2912.684066
 21
157.207264
  0
LINE
  8
CSLAYER1
  6
CONTINUOUS
 62
     5
 10
2890.275300
 20
159.518012
 11
2902.040966
 21
159.518012
  0
LINE
  8
CSLAYER1
  6
CONTINUOUS
 62
     5
 10
2888.741079
 20
159.484949
 11
2889.265739
 21
159.176481
  0
LINE
  8
CSLAYER1
  6
CONTINUOUS
 62
     5
 10
2889.265739
 20
159.176481
 11
2889.562550
 21
159.087438
  0
LINE
  8
CSLAYER1
  6
CONTINUOUS
 62
     5
 10
2889.562550
 20
159.087438
 11
2889.741079
 21
159.112608
  0
LINE
  8
CSLAYER1
  6
CONTINUOUS
 62
     5
 10
2889.741079
 20
159.112608
 11
2890.275300
 21
159.518012
  0
LINE
  8
CSLAYER1
  6
CONTINUOUS
 62
     5
 10
2902.040966
 20
159.518012
 11
2906.491235
 21
158.489187
  0
LINE
  8
CSLAYER1
  6
CONTINUOUS
 62
     5
 10
2906.491235
 20
158.489187
 11
2910.644426
 21
157.324038
  0
LINE
  8
CSLAYER1
  6
CONTINUOUS
 62
     5
 10
2910.644426
 20
157.324038
 11
2912.684066
 21
157.207264
  0
LINE
  8
CSLAYER1
  6
CONTINUOUS
 62
     5
 10
2866.241079
 20
157.518012
 11
2866.241079
 21
157.018012
  0
LINE
  8
CSLAYER1
  6
CONTINUOUS
 62
     5
 10
2863.741079
 20
157.018012
 11
2866.241079
 21
157.018012
  0
ARC
  8
CSLAYER1
  6
CONTINUOUS
 62
     5
 10
2867.241079
 20
157.518012
 40
1.000000
 50
90.000000
 51
180.000000
  0
LINE
  8
CSLAYER1
  6
CONTINUOUS
 62
     5
 10
2869.664117
 20
158.518012
 11
2870.361674
 21
157.946016
  0
LINE
  8
CSLAYER1
  6
CONTINUOUS
 62
     5
 10
2870.964042
 20
157.922055
 11
2871.821638
 21
158.518012
  0
LINE
  8
CSLAYER1
  6
CONTINUOUS
 62
     5
 10
2873.400035
 20
158.518012
 11
2875.067160
 21
157.859936
  0
LINE
  8
CSLAYER1
  6
CONTINUOUS
 62
     5
 10
2875.490869
 20
157.886449
 11
2876.644356
 21
158.518012
  0
LINE
  8
CSLAYER1
  6
CONTINUOUS
 62
     5
 10
2871.821638
 20
158.518012
 11
2873.400035
 21
158.518012
  0
LINE
  8
CSLAYER1
  6
CONTINUOUS
 62
     5
 10
2876.644356
 20
158.518012
 11
2889.741079
 21
158.518012
  0
LINE
  8
CSLAYER1
  6
CONTINUOUS
 62
     5
 10
2842.290062
 20
155.409186
 11
2863.741079
 21
157.018012
  0
LINE
  8
CSLAYER1
  6
CONTINUOUS
 62
     5
 10
2838.288712
 20
155.495236
 11
2842.290062
 21
155.409186
  0
ARC
  8
CSLAYER1
  6
CONTINUOUS
 62
     5
 10
2870.678713
 20
158.332650
 40
0.500000
 50
230.648247
 51
304.796026
  0
ARC
  8
CSLAYER1
  6
CONTINUOUS
 62
     5
 10
2875.250743
 20
158.325014
 40
0.500000
 50
248.459024
 51
298.701829
  0
ARC
  8
CSLAYER1
  6
CONTINUOUS
 62
     5
 10
2830.496466
 20
165.033124
 40
0.300000
 50
-84.093859
 51
36.869898
  0
ARC
  8
CSLAYER1
  6
CONTINUOUS
 62
     5
 10
2830.030862
 20
166.964395
 40
0.700000
 50
85.301319
 51
194.142980
  0
LINE
  8
CSLAYER1
  6
CONTINUOUS
 62
     3
 10
2862.222903
 20
149.751168
 11
2870.333399
 21
149.751168
  0
LINE
  8
CSLAYER1
  6
CONTINUOUS
 62
     3
 10
2855.810387
 20
148.151168
 11
2873.453727
 21
148.151168
  0
LINE
  8
CSLAYER1
  6
CONTINUOUS
 62
     3
 10
2852.397448
 20
146.551168
 11
2876.329092
 21
146.551168
  0
LINE
  8
CSLAYER1
  6
CONTINUOUS
 62
     3
 10
2850.162128
 20
144.951168
 11
2878.172565
 21
144.951168
  0
LINE
  8
CSLAYER1
  6
CONTINUOUS
 62
     3
 10
2848.666473
 20
143.351168
 11
2879.406851
 21
143.351168
  0
LINE
  8
CSLAYER1
  6
CONTINUOUS
 62
     3
 10
2847.446158
 20
141.751168
 11
2880.456227
 21
141.751168
  0
LINE
  8
CSLAYER1
  6
CONTINUOUS
 62
     3
 10
2846.754266
 20
140.151168
 11
2881.182102
 21
140.151168
  0
LINE
  8
CSLAYER1
  6
CONTINUOUS
 62
     3
 10
2846.062374
 20
138.551168
 11
2881.520488
 21
138.551168
  0
LINE
  8
CSLAYER1
  6
CONTINUOUS
 62
     3
 10
2845.414024
 20
136.951168
 11
2881.858875
 21
136.951168
  0
LINE
  8
CSLAYER1
  6
CONTINUOUS
 62
     3
 10
2845.092365
 20
135.351168
 11
2882.197261
 21
135.351168
  0
LINE
  8
CSLAYER1
  6
CONTINUOUS
 62
     3
 10
2844.770706
 20
133.751168
 11
2860.360949
 21
133.751168
  0
LINE
  8
CSLAYER1
  6
CONTINUOUS
 62
     3
 10
2844.449048
 20
132.151168
 11
2858.828689
 21
132.151168
  0
LINE
  8
CSLAYER1
  6
CONTINUOUS
 62
     3
 10
2844.127389
 20
130.551168
 11
2858.040519
 21
130.551168
  0
LINE
  8
CSLAYER1
  6
CONTINUOUS
 62
     3
 10
2843.886271
 20
128.951168
 11
2857.721751
 21
128.951168
  0
LINE
  8
CSLAYER1
  6
CONTINUOUS
 62
     3
 10
2843.766101
 20
127.351168
 11
2857.771772
 21
127.351168
  0
LINE
  8
CSLAYER1
  6
CONTINUOUS
 62
     3
 10
2843.741079
 20
125.751168
 11
2858.317859
 21
125.751168
  0
LINE
  8
CSLAYER1
  6
CONTINUOUS
 62
     3
 10
2844.240267
 20
124.151168
 11
2860.347862
 21
124.151168
  0
LINE
  8
CSLAYER1
  6
CONTINUOUS
 62
     3
 10
2844.951378
 20
122.551168
 11
2877.479234
 21
122.551168
  0
LINE
  8
CSLAYER1
  6
CONTINUOUS
 62
     3
 10
2845.662489
 20
120.951168
 11
2877.027951
 21
120.951168
  0
LINE
  8
CSLAYER1
  6
CONTINUOUS
 62
     3
 10
2846.373600
 20
119.351168
 11
2876.304927
 21
119.351168
  0
LINE
  8
CSLAYER1
  6
CONTINUOUS
 62
     3
 10
2847.335559
 20
117.751168
 11
2875.406741
 21
117.751168
  0
LINE
  8
CSLAYER1
  6
CONTINUOUS
 62
     3
 10
2848.584020
 20
116.151168
 11
2873.901814
 21
116.151168
  0
LINE
  8
CSLAYER1
  6
CONTINUOUS
 62
     3
 10
2850.189440
 20
114.551168
 11
2871.509354
 21
114.551168
  0
LINE
  8
CSLAYER1
  6
CONTINUOUS
 62
     3
 10
2852.336582
 20
112.951168
 11
2868.384230
 21
112.951168
  0
LINE
  8
CSLAYER1
  6
CONTINUOUS
 62
     3
 10
2855.584273
 20
111.351168
 11
2863.746082
 21
111.351168
  0
LINE
  8
CSLAYER1
  6
CONTINUOUS
 62
     3
 10
2865.552773
 20
133.751168
 11
2882.372510
 21
133.751168
  0
LINE
  8
CSLAYER1
  6
CONTINUOUS
 62
     3
 10
2866.223517
 20
132.151168
 11
2882.246741
 21
132.151168
  0
LINE
  8
CSLAYER1
  6
CONTINUOUS
 62
     3
 10
2866.335524
 20
130.551168
 11
2882.120971
 21
130.551168
  0
LINE
  8
CSLAYER1
  6
CONTINUOUS
 62
     3
 10
2866.090167
 20
128.951168
 11
2881.407115
 21
128.951168
  0
LINE
  8
CSLAYER1
  6
CONTINUOUS
 62
     3
 10
2865.438521
 20
127.351168
 11
2880.685915
 21
127.351168
  0
LINE
  8
CSLAYER1
  6
CONTINUOUS
 62
     3
 10
2864.305258
 20
125.751168
 11
2879.751967
 21
125.751168
  0
LINE
  8
CSLAYER1
  6
CONTINUOUS
 62
     3
 10
2862.049262
 20
124.151168
 11
2878.481260
 21
124.151168
  0
TEXT
  8
CSLAYER1
 62
     5
 10
2882.912870
 20
131.762340
 40
4.713448
 41
1.951056
  1
M
 50
0.000000
 51
0.000000
  7
EASYDRAW_FONT
 72
     5
 11
2889.043673
 21
131.762340
  0
TEXT
  8
CSLAYER1
 62
     5
 10
2892.564258
 20
131.704069
 40
4.626621
 41
0.778201
  1
T
 50
0.000000
 51
0.000000
  7
EASYDRAW_FONT
 72
     5
 11
2894.964551
 21
131.704069
  0
TEXT
  8
CSLAYER1
 62
     5
 10
2895.329820
 20
131.738868
 40
4.696183
 41
1.055553
  1
E
 50
0.000000
 51
0.000000
  7
EASYDRAW_FONT
 72
     5
 11
2898.634535
 21
131.738868
  0
TEXT
  8
CSLAYER1
 62
     5
 10
2898.446001
 20
133.354713
 40
0.348283
 41
9.375319
  1
-
 50
0.000000
 51
0.000000
  7
EASYDRAW_FONT
 72
     5
 11
2900.622846
 21
133.354713
  0
TEXT
  8
CSLAYER1
 62
     5
 10
2900.260211
 20
131.707522
 40
4.861659
 41
1.298502
  1
H
 50
0.000000
 51
0.000000
  7
EASYDRAW_FONT
 72
     5
 11
2904.468793
 21
131.707522
  0
TEXT
  8
CSLAYER1
 62
     5
 10
2904.336226
 20
131.737900
 40
4.843139
 41
1.269236
  1
A
 50
0.000000
 51
0.000000
  7
EASYDRAW_FONT
 72
     5
 11
2908.434282
 21
131.737900
  0
TEXT
  8
CSLAYER1
 62
     5
 10
2908.042382
 20
131.696374
 40
4.825362
 41
1.490144
  1
N
 50
0.000000
 51
0.000000
  7
EASYDRAW_FONT
 72
     5
 11
2912.836036
 21
131.696374
  0
TEXT
  8
CSLAYER1
 62
     5
 10
2888.833839
 20
131.673800
 40
4.982325
 41
1.177443
  1
A
 50
0.000000
 51
0.000000
  7
EASYDRAW_FONT
 72
     5
 11
2892.744774
 21
131.673800
  0
TEXT
  8
CSLAYER1
 62
     5
 10
2883.279884
 20
124.678561
 40
4.982325
 41
1.177443
  1
A
 50
0.000000
 51
0.000000
  7
EASYDRAW_FONT
 72
     5
 11
2887.190819
 21
124.678561
  0
TEXT
  8
CSLAYER1
 62
     5
 10
2896.064308
 20
124.706882
 40
4.982325
 41
1.177443
  1
A
 50
0.000000
 51
0.000000
  7
EASYDRAW_FONT
 72
     5
 11
2899.975243
 21
124.706882
  0
TEXT
  8
CSLAYER1
 62
     5
 10
2899.824852
 20
124.763879
 40
4.825362
 41
1.490144
  1
N
 50
0.000000
 51
0.000000
  7
EASYDRAW_FONT
 72
     5
 11
2904.618507
 21
124.763879
  0
TEXT
  8
CSLAYER1
 62
     5
 10
2908.727188
 20
124.772273
 40
4.841775
 41
1.184218
  1
E
 50
0.000000
 51
0.000000
  7
EASYDRAW_FONT
 72
     5
 11
2912.549667
 21
124.772273
  0
TEXT
  8
CSLAYER1
 62
     5
 10
2887.560438
 20
124.677237
 40
4.947865
 41
1.093992
  1
D
 50
0.000000
 51
0.000000
  7
EASYDRAW_FONT
 72
     5
 11
2891.169054
 21
124.677237
  0
TEXT
  8
CSLAYER1
 62
     5
 10
2891.962796
 20
124.671852
 40
4.924210
 41
1.228195
  1
V
 50
0.000000
 51
0.000000
  7
EASYDRAW_FONT
 72
     5
 11
2895.994723
 21
124.671852
  0
TEXT
  8
CSLAYER1
 62
     5
 10
2904.187997
 20
124.692583
 40
5.032894
 41
1.481023
  1
C
 50
0.000000
 51
0.000000
  7
EASYDRAW_FONT
 72
     5
 11
2909.157218
 21
124.692583
  0
LINE
  8
CSLAYER1
  6
CONTINUOUS
 62
     5
 10
2894.818416
 20
135.752984
 11
2893.806354
 21
135.752984
  0
LINE
  8
CSLAYER1
  6
CONTINUOUS
 62
     3
 10
2843.916654
 20
169.978255
 11
2893.714480
 21
169.978255
  0
LINE
  8
CSLAYER1
  6
CONTINUOUS
 62
     3
 10
2836.804290
 20
168.378255
 11
2904.794171
 21
168.378255
  0
LINE
  8
CSLAYER1
  6
CONTINUOUS
 62
     3
 10
2829.355885
 20
166.778255
 11
2874.779195
 21
166.778255
  0
LINE
  8
CSLAYER1
  6
CONTINUOUS
 62
     3
 10
2887.740745
 20
166.778255
 11
2897.327349
 21
166.778255
  0
LINE
  8
CSLAYER1
  6
CONTINUOUS
 62
     3
 10
2901.636482
 20
166.778255
 11
2910.149479
 21
166.778255
  0
LINE
  8
CSLAYER1
  6
CONTINUOUS
 62
     3
 10
2830.759024
 20
165.178255
 11
2887.465494
 21
165.178255
  0
LINE
  8
CSLAYER1
  6
CONTINUOUS
 62
     3
 10
2907.645632
 20
165.178255
 11
2913.751877
 21
165.178255
  0
LINE
  8
CSLAYER1
  6
CONTINUOUS
 62
     3
 10
2828.846691
 20
163.578255
 11
2901.601042
 21
163.578255
  0
LINE
  8
CSLAYER1
  6
CONTINUOUS
 62
     3
 10
2913.546931
 20
163.578255
 11
2915.780652
 21
163.578255
  0
LINE
  8
CSLAYER1
  6
CONTINUOUS
 62
     3
 10
2827.784465
 20
161.978255
 11
2909.312898
 21
161.978255
  0
LINE
  8
CSLAYER1
  6
CONTINUOUS
 62
     3
 10
2829.460132
 20
160.378255
 11
2914.122206
 21
160.378255
  0
LINE
  8
CSLAYER1
  6
CONTINUOUS
 62
     3
 10
2830.627700
 20
158.778255
 11
2889.741079
 21
158.778255
  0
LINE
  8
CSLAYER1
  6
CONTINUOUS
 62
     3
 10
2905.240844
 20
158.778255
 11
2920.245167
 21
158.778255
  0
LINE
  8
CSLAYER1
  6
CONTINUOUS
 62
     3
 10
2830.872823
 20
157.178255
 11
2866.241079
 21
157.178255
  0
LINE
  8
CSLAYER1
  6
CONTINUOUS
 62
     3
 10
2912.809772
 20
157.178255
 11
2922.332375
 21
157.178255
  0
LINE
  8
CSLAYER1
  6
CONTINUOUS
 62
     3
 10
2831.079148
 20
155.578255
 11
2844.544322
 21
155.578255
  0
LINE
  8
CSLAYER1
  6
CONTINUOUS
 62
     3
 10
2920.270121
 20
155.578255
 11
2926.755140
 21
155.578255
  0
LINE
  8
CSLAYER1
  6
CONTINUOUS
 62
     3
 10
2928.333116
 20
153.978255
 11
2930.501970
 21
153.978255
  0
ENDBLK
  8
0
  0
ENDSEC
  0
SECTION
  2
ENTITIES
  0
LINE
  8
CSLAYER1
  6
CONTINUOUS
 62
     3
 10
198.856473
 20
2452.739491
 11
198.856473
 21
104.192561
  0
LINE
  8
CSLAYER1
  6
CONTINUOUS
 62
     3
 10
3521.429784
 20
2452.739491
 11
198.856473
 21
2452.739491
  0
LINE
  8
CSLAYER1
  6
CONTINUOUS
 62
     3
 10
3521.429784
 20
2452.739491
 11
3521.429784
 21
104.192561
  0
LINE
  8
CSLAYER1
  6
CONTINUOUS
 62
     3
 10
3521.429784
 20
104.192561
 11
198.856473
 21
104.192561
  0
LINE
  8
CSLAYER1
  6
CONTINUOUS
 62
     5
 10
148.856473
 20
1264.192561
 11
98.856473
 21
1264.192561
  0
LINE
  8
CSLAYER1
  6
CONTINUOUS
 62
     5
 10
359.102835
 20
796.091760
 11
644.055581
 21
796.091760
  0
POINT
  8
CSLAYER1
 62
     5
 10
1404.464408
 20
813.591760
  0
LINE
  8
CSLAYER1
  6
CONTINUOUS
 62
     3
 10
1379.464408
 20
836.091760
 11
1379.464408
 21
796.091760
  0
LINE
  8
CSLAYER1
  6
CONTINUOUS
 62
     3
 10
1379.464408
 20
836.091760
 11
1393.007968
 21
836.091760
  0
LINE
  8
CSLAYER1
  6
CONTINUOUS
 62
     3
 10
1415.920847
 20
836.091760
 11
2182.464408
 21
836.091760
  0
LINE
  8
CSLAYER1
  6
CONTINUOUS
 62
     3
 10
1379.464408
 20
802.091760
 11
1423.464408
 21
802.091760
  0
ARC
  8
CSLAYER1
  6
CONTINUOUS
 62
     3
 10
1404.464408
 20
841.091760
 40
12.500000
 50
203.578178
 51
336.421822
  0
LINE
  8
CSLAYER1
  6
CONTINUOUS
 62
     3
 10
1423.464408
 20
836.091760
 11
1423.464408
 21
802.091760
  0
LINE
  8
CSLAYER1
  6
CENTER
 62
     5
 10
1393.569578
 20
813.591760
 11
1414.684812
 21
813.591760
  0
LINE
  8
CSLAYER1
  6
CENTER
 62
     5
 10
1404.464408
 20
824.561415
 11
1404.464408
 21
802.622105
  0
INSERT
  8
CSLAYER1
  2
BLKF0000
 10
0.0
 20
0.0
 30
0.0
  0
LINE
  8
CSLAYER1
  6
CONTINUOUS
 62
     3
 10
1460.182118
 20
899.840632
 11
1479.111828
 21
887.793865
  0
LINE
  8
CSLAYER1
  6
CONTINUOUS
 62
     3
 10
1541.709843
 20
1053.018253
 11
1565.980846
 21
1037.572316
  0
LINE
  8
CSLAYER1
  6
CONTINUOUS
 62
     3
 10
1509.227892
 20
1008.496654
 11
1527.147948
 21
997.092425
  0
LINE
  8
CSLAYER1
  6
CONTINUOUS
 62
     3
 10
1508.921137
 20
1009.877197
 11
1527.175537
 21
1038.561284
  0
LINE
  8
CSLAYER1
  6
CONTINUOUS
 62
     3
 10
1527.175537
 20
1038.561284
 11
1541.709843
 21
1053.018253
  0
LINE
  8
CSLAYER1
  6
CONTINUOUS
 62
     3
 10
1508.921137
 20
1009.877197
 11
1509.227892
 21
1008.496654
  0
LINE
  8
CSLAYER1
  6
CONTINUOUS
 62
     3
 10
1460.098128
 20
927.198863
 11
1511.083921
 21
1007.315486
  0
POINT
  8
CSLAYER1
 62
     3
 10
1459.640792
 20
881.219910
  0
LINE
  8
CSLAYER1
  6
CENTER
 62
     6
 10
1454.164989
 20
872.615496
 11
1639.554019
 21
1163.926897
  0
POINT
  8
CSLAYER1
 62
     3
 10
1639.554019
 20
1163.926897
  0
CIRCLE
  8
CSLAYER1
  6
CONTINUOUS
 62
     3
 10
1639.554019
 20
1163.926897
 40
8.000000
  0
LINE
  8
CSLAYER1
  6
CONTINUOUS
 62
     3
 10
1609.049899
 20
1082.468030
 11
1623.089974
 21
1104.529928
  0
LINE
  8
CSLAYER1
  6
CONTINUOUS
 62
     3
 10
1545.928092
 20
1050.333782
 11
1597.436427
 21
1131.271502
  0
CIRCLE
  8
CSLAYER1
  6
CONTINUOUS
 62
     3
 10
1459.640792
 20
881.219910
 40
8.000000
  0
LINE
  8
CSLAYER1
  6
CONTINUOUS
 62
     3
 10
1462.392916
 20
850.864913
 11
1448.220834
 21
836.091760
  0
LINE
  8
CSLAYER1
  6
CONTINUOUS
 62
     3
 10
1720.464272
 20
1127.104257
 11
1709.866151
 21
1109.556327
  0
LINE
  8
CSLAYER1
  6
CONTINUOUS
 62
     3
 10
1444.063607
 20
836.091760
 11
1455.382094
 21
847.890291
  0
LINE
  8
CSLAYER1
  6
CONTINUOUS
 62
     3
 10
1455.382094
 20
847.890291
 11
1461.339825
 21
850.489415
  0
LINE
  8
CSLAYER1
  6
CONTINUOUS
 62
     3
 10
1425.140638
 20
890.758745
 11
1890.020671
 21
1375.355432
  0
LINE
  8
CSLAYER1
  6
CONTINUOUS
 62
     3
 10
1461.339825
 20
850.489415
 11
1709.866151
 21
1109.556327
  0
CIRCLE
  8
CSLAYER1
  6
CONTINUOUS
 62
     3
 10
1664.067117
 20
1084.204830
 40
7.500000
  0
ARC
  8
CSLAYER1
  6
CONTINUOUS
 62
     3
 10
1903.824867
 20
1373.855432
 40
5.000000
 50
-197.457603
 51
17.457603
  0
ARC
  8
CSLAYER1
  6
CONTINUOUS
 62
     3
 10
1903.824867
 20
1373.855432
 40
13.000000
 50
-186.625810
 51
6.625810
  0
POINT
  8
CSLAYER1
 62
     3
 10
1903.824867
 20
1373.855432
  0
POINT
  8
CSLAYER1
 62
     3
 10
1664.067117
 20
1084.204830
  0
LINE
  8
CSLAYER1
  6
CONTINUOUS
 62
     3
 10
1720.464272
 20
1127.104257
 11
1896.994114
 21
1311.121144
  0
LINE
  8
CSLAYER1
  6
CONTINUOUS
 62
     3
 10
1896.994114
 20
1311.121144
 11
1912.446235
 21
1364.125477
  0
POINT
  8
CSLAYER1
 62
     3
 10
1404.464408
 20
813.591760
  0
LINE
  8
CSLAYER1
  6
CONTINUOUS
 62
     3
 10
1445.862522
 20
880.580163
 11
1457.408680
 21
869.503781
  0
LINE
  8
CSLAYER1
  6
CONTINUOUS
 62
     3
 10
1470.092108
 20
905.837383
 11
1481.638266
 21
894.761001
  0
LINE
  8
CSLAYER1
  6
CONTINUOUS
 62
     3
 10
1461.650406
 20
869.591864
 11
1481.726349
 21
890.519275
  0
LINE
  8
CSLAYER1
  6
CONTINUOUS
 62
     3
 10
1445.774439
 20
884.821889
 11
1465.850382
 21
905.749300
  0
ARC
  8
CSLAYER1
  6
CONTINUOUS
 62
     3
 10
1447.939344
 20
882.745068
 40
3.000000
 50
136.189622
 51
226.189622
  0
ARC
  8
CSLAYER1
  6
CONTINUOUS
 62
     3
 10
1468.015287
 20
903.672478
 40
3.000000
 50
46.189622
 51
136.189622
  0
ARC
  8
CSLAYER1
  6
CONTINUOUS
 62
     3
 10
1459.485501
 20
871.668685
 40
3.000000
 50
226.189622
 51
316.189622
  0
ARC
  8
CSLAYER1
  6
CONTINUOUS
 62
     3
 10
1479.561444
 20
892.596096
 40
3.000000
 50
-43.810378
 51
46.189622
  0
LINE
  8
CSLAYER1
  6
CONTINUOUS
 62
     3
 10
1425.140638
 20
890.758745
 11
1397.845367
 21
830.488067
  0
ARC
  8
CSLAYER1
  6
CONTINUOUS
 62
     3
 10
1639.554019
 20
1163.926897
 40
17.000000
 50
42.544562
 51
100.895989
  0
LINE
  8
CSLAYER1
  6
CONTINUOUS
 62
     3
 10
1652.078797
 20
1175.421676
 11
1674.639481
 21
1150.839420
  0
ARC
  8
CSLAYER1
  6
CONTINUOUS
 62
     3
 10
1627.286226
 20
1152.158241
 40
30.000000
 50
43.810378
 51
92.000063
  0
LINE
  8
CSLAYER1
  6
CONTINUOUS
 62
     3
 10
1704.588305
 20
1026.075378
 11
1886.842111
 21
836.091760
  0
ARC
  8
CSLAYER1
  6
CONTINUOUS
 62
     3
 10
1923.669826
 20
813.591760
 40
13.000000
 50
62.435886
 51
118.531765
  0
POINT
  8
CSLAYER1
 62
     3
 10
1923.669826
 20
813.591760
  0
LINE
  8
CSLAYER1
  6
CONTINUOUS
 62
     3
 10
1583.654387
 20
1145.638070
 11
1626.652072
 21
1100.816752
  0
LINE
  8
CSLAYER1
  6
CONTINUOUS
 62
     3
 10
1704.588305
 20
1026.075378
 11
1687.495471
 21
1037.392842
  0
LINE
  8
CSLAYER1
  6
CONTINUOUS
 62
     3
 10
1573.056266
 20
1163.186000
 11
1583.654387
 21
1145.638070
  0
LINE
  8
CSLAYER1
  6
CONTINUOUS
 62
     3
 10
1573.056266
 20
1163.186000
 11
1465.012250
 21
1275.812416
  0
LINE
  8
CSLAYER1
  6
CONTINUOUS
 62
     3
 10
1446.470248
 20
1369.533349
 11
1626.239208
 21
1182.139965
  0
LINE
  8
CSLAYER1
  6
CONTINUOUS
 62
     3
 10
1918.282343
 20
877.710596
 11
1929.159080
 21
836.091760
  0
LINE
  8
CSLAYER1
  6
CONTINUOUS
 62
     3
 10
1648.935272
 20
1172.926458
 11
1672.381571
 21
1148.485746
  0
ARC
  8
CSLAYER1
  6
CONTINUOUS
 62
     3
 10
1664.067117
 20
1084.204830
 40
50.500000
 50
7.129993
 51
28.315266
  0
LINE
  8
CSLAYER1
  6
CONTINUOUS
 62
     3
 10
1714.176605
 20
1090.472937
 11
1918.282343
 21
877.710596
  0
LINE
  8
CSLAYER1
  6
CONTINUOUS
 62
     3
 10
1456.443671
 20
1303.523103
 11
1415.729977
 21
1363.355432
  0
LINE
  8
CSLAYER1
  6
CONTINUOUS
 62
     3
 10
1456.443671
 20
1303.523103
 11
1459.798321
 21
1285.914893
  0
ARC
  8
CSLAYER1
  6
CONTINUOUS
 62
     3
 10
1479.444947
 20
1289.657894
 40
20.000000
 50
190.786510
 51
223.810378
  0
LINE
  8
CSLAYER1
  6
CONTINUOUS
 62
     3
 10
1664.067117
 20
1061.814848
 11
1687.495471
 21
1037.392842
  0
LINE
  8
CSLAYER1
  6
CONTINUOUS
 62
     3
 10
1527.175537
 20
1038.561284
 11
1551.859792
 21
1022.852356
  0
LINE
  8
CSLAYER1
  6
CENTER
 62
     6
 10
1903.824867
 20
1388.917220
 11
1903.824867
 21
1358.725234
  0
LINE
  8
CSLAYER1
  6
CENTER
 62
     6
 10
1888.461281
 20
1373.855432
 11
1919.810787
 21
1373.855432
  0
ARC
  8
CSLAYER1
  6
CONTINUOUS
 62
     3
 10
1903.824867
 20
1373.855432
 40
13.000000
 50
30.558220
 51
60.792798
  0
ARC
  8
CSLAYER1
  6
CONTINUOUS
 62
     3
 10
1903.824867
 20
1373.855432
 40
13.000000
 50
78.150466
 51
117.215867
  0
ARC
  8
CSLAYER1
  6
CONTINUOUS
 62
     3
 10
1903.824867
 20
1373.855432
 40
13.000000
 50
129.904453
 51
154.186413
  0
POINT
  8
CSLAYER1
 62
     4
 10
1404.464408
 20
813.591760
  0
CIRCLE
  8
CSLAYER1
  6
CONTINUOUS
 62
     3
 10
1404.464408
 20
813.591760
 40
9.500000
  0
LINE
  8
CSLAYER1
  6
CONTINUOUS
 62
     3
 10
1413.964408
 20
819.076588
 11
1404.464408
 21
824.561415
  0
LINE
  8
CSLAYER1
  6
CONTINUOUS
 62
     3
 10
1404.464408
 20
824.561415
 11
1394.964408
 21
819.076588
  0
LINE
  8
CSLAYER1
  6
CONTINUOUS
 62
     3
 10
1394.964408
 20
819.076588
 11
1394.964408
 21
808.106933
  0
LINE
  8
CSLAYER1
  6
CONTINUOUS
 62
     3
 10
1394.964408
 20
808.106933
 11
1404.464408
 21
802.622105
  0
LINE
  8
CSLAYER1
  6
CONTINUOUS
 62
     3
 10
1404.464408
 20
802.622105
 11
1413.964408
 21
808.106933
  0
LINE
  8
CSLAYER1
  6
CONTINUOUS
 62
     3
 10
1413.964408
 20
808.106933
 11
1413.964408
 21
819.076588
  0
LINE
  8
CSLAYER1
  6
CENTER
 62
     6
 10
1905.932297
 20
813.591760
 11
1942.928499
 21
813.591760
  0
LINE
  8
CSLAYER1
  6
CENTER
 62
     6
 10
1923.669826
 20
832.084978
 11
1923.669826
 21
797.622762
  0
ARC
  8
CSLAYER1
  6
CONTINUOUS
 62
     3
 10
1923.669826
 20
813.591760
 40
13.000000
 50
-30.596977
 51
29.035047
  0
ARC
  8
CSLAYER1
  6
CONTINUOUS
 62
     3
 10
1923.669826
 20
813.591760
 40
13.000000
 50
239.433195
 51
304.891780
  0
ARC
  8
CSLAYER1
  6
CONTINUOUS
 62
     3
 10
1923.669826
 20
813.591760
 40
13.000000
 50
145.113852
 51
207.530823
  0
LINE
  8
CSLAYER1
  6
CENTER
 62
     5
 10
794.055581
 20
1447.328710
 11
794.055581
 21
796.091760
  0
LINE
  8
CSLAYER1
  6
CENTER
 62
     5
 10
885.055581
 20
1373.855432
 11
703.055581
 21
1373.855432
  0
LINE
  8
CSLAYER1
  6
CONTINUOUS
 62
     2
 10
849.055581
 20
1377.655432
 11
849.055581
 21
1333.355432
  0
LINE
  8
CSLAYER1
  6
CONTINUOUS
 62
     3
 10
850.055581
 20
1365.205432
 11
849.055581
 21
1365.205432
  0
LINE
  8
CSLAYER1
  6
CONTINUOUS
 62
     3
 10
851.055581
 20
1377.655432
 11
851.055581
 21
1366.205432
  0
LINE
  8
CSLAYER1
  6
CONTINUOUS
 62
     3
 10
851.055581
 20
1366.205432
 11
850.055581
 21
1365.205432
  0
LINE
  8
CSLAYER1
  6
CONTINUOUS
 62
     3
 10
850.055581
 20
1377.655432
 11
850.055581
 21
1365.205432
  0
LINE
  8
CSLAYER1
  6
CONTINUOUS
 62
     3
 10
840.055581
 20
1365.205432
 11
748.055581
 21
1365.205432
  0
LINE
  8
CSLAYER1
  6
CONTINUOUS
 62
     3
 10
851.555581
 20
1363.355432
 11
857.555581
 21
1363.355432
  0
INSERT
  8
CSLAYER1
  2
BLKF0001
 10
0.0
 20
0.0
 30
0.0
  0
LINE
  8
CSLAYER1
  6
CONTINUOUS
 62
     3
 10
857.555581
 20
1377.655432
 11
857.555581
 21
1363.105432
  0
LINE
  8
CSLAYER1
  6
CONTINUOUS
 62
     3
 10
851.555581
 20
1377.655432
 11
851.555581
 21
1363.355432
  0
LINE
  8
CSLAYER1
  6
CONTINUOUS
 62
     3
 10
891.055581
 20
1377.655432
 11
891.055581
 21
1375.355432
  0
LINE
  8
CSLAYER1
  6
CONTINUOUS
 62
     3
 10
891.055581
 20
1375.355432
 11
886.555581
 21
1375.355432
  0
LINE
  8
CSLAYER1
  6
CONTINUOUS
 62
     3
 10
886.555581
 20
1377.655432
 11
886.555581
 21
1375.355432
  0
LINE
  8
CSLAYER1
  6
CONTINUOUS
 62
     3
 10
944.055581
 20
1407.655432
 11
644.055581
 21
1407.655432
  0
LINE
  8
CSLAYER1
  6
CONTINUOUS
 62
     3
 10
944.055581
 20
1377.655432
 11
644.055581
 21
1377.655432
  0
LINE
  8
CSLAYER1
  6
CONTINUOUS
 62
     3
 10
840.055581
 20
836.091760
 11
840.055581
 21
1377.655432
  0
LINE
  8
CSLAYER1
  6
CONTINUOUS
 62
     3
 10
852.055581
 20
836.091760
 11
852.055581
 21
1363.355432
  0
LINE
  8
CSLAYER1
  6
CONTINUOUS
 62
     3
 10
849.055581
 20
836.091760
 11
849.055581
 21
1377.655432
  0
LINE
  8
CSLAYER1
  6
CONTINUOUS
 62
     3
 10
861.055581
 20
836.091760
 11
861.055581
 21
1362.885777
  0
LINE
  8
CSLAYER1
  6
CONTINUOUS
 62
     1
 10
871.555581
 20
802.622105
 11
871.555581
 21
824.561415
  0
LINE
  8
CSLAYER1
  6
CONTINUOUS
 62
     1
 10
868.555581
 20
824.341760
 11
871.555581
 21
824.341760
  0
LINE
  8
CSLAYER1
  6
CONTINUOUS
 62
     1
 10
868.555581
 20
802.841760
 11
871.555581
 21
802.841760
  0
LINE
  8
CSLAYER1
  6
CONTINUOUS
 62
     1
 10
868.555581
 20
812.079564
 11
871.555581
 21
815.579564
  0
LINE
  8
CSLAYER1
  6
CONTINUOUS
 62
     1
 10
879.555581
 20
822.591760
 11
879.555581
 21
804.591760
  0
LINE
  8
CSLAYER1
  6
CONTINUOUS
 62
     1
 10
871.555581
 20
819.076588
 11
878.418401
 21
819.076588
  0
LINE
  8
CSLAYER1
  6
CONTINUOUS
 62
     1
 10
871.555581
 20
824.561415
 11
878.418401
 21
824.561415
  0
LINE
  8
CSLAYER1
  6
CONTINUOUS
 62
     1
 10
879.555581
 20
822.591760
 11
878.418401
 21
824.561415
  0
ARC
  8
CSLAYER1
  6
CONTINUOUS
 62
     1
 10
875.775537
 20
821.819002
 40
3.808617
 50
313.940972
 51
354.338367
  0
ARC
  8
CSLAYER1
  6
CONTINUOUS
 62
     1
 10
865.759837
 20
813.591760
 40
13.795744
 50
-23.426598
 51
23.426598
  0
LINE
  8
CSLAYER1
  6
CONTINUOUS
 62
     1
 10
871.555581
 20
808.106933
 11
878.418401
 21
808.106933
  0
LINE
  8
CSLAYER1
  6
CONTINUOUS
 62
     1
 10
871.555581
 20
802.622105
 11
878.418401
 21
802.622105
  0
LINE
  8
CSLAYER1
  6
CONTINUOUS
 62
     1
 10
879.555581
 20
804.591760
 11
878.418401
 21
802.622105
  0
ARC
  8
CSLAYER1
  6
CONTINUOUS
 62
     1
 10
875.775537
 20
805.364519
 40
3.808617
 50
5.661633
 51
46.059028
  0
LINE
  8
CSLAYER1
  6
CONTINUOUS
 62
     3
 10
873.055581
 20
1377.655432
 11
873.055581
 21
1360.855432
  0
LINE
  8
CSLAYER1
  6
CONTINUOUS
 62
     3
 10
865.055581
 20
1362.885777
 11
865.055581
 21
1360.855432
  0
LINE
  8
CSLAYER1
  6
CONTINUOUS
 62
     3
 10
881.055581
 20
1377.655432
 11
881.055581
 21
1360.855432
  0
LINE
  8
CSLAYER1
  6
CONTINUOUS
 62
     3
 10
882.055581
 20
1377.655432
 11
882.055581
 21
1365.855432
  0
LINE
  8
CSLAYER1
  6
CONTINUOUS
 62
     3
 10
884.055581
 20
1377.655432
 11
884.055581
 21
1369.355432
  0
LINE
  8
CSLAYER1
  6
CONTINUOUS
 62
     3
 10
883.555581
 20
1368.855432
 11
882.055581
 21
1368.855432
  0
LINE
  8
CSLAYER1
  6
CONTINUOUS
 62
     3
 10
882.055581
 20
1365.855432
 11
881.055581
 21
1365.855432
  0
LINE
  8
CSLAYER1
  6
CONTINUOUS
 62
     3
 10
883.555581
 20
1368.855432
 11
884.055581
 21
1369.355432
  0
LINE
  8
CSLAYER1
  6
CONTINUOUS
 62
     3
 10
881.055581
 20
1360.855432
 11
865.055581
 21
1360.855432
  0
LINE
  8
CSLAYER1
  6
CENTER
 62
     6
 10
769.055581
 20
1163.926897
 11
849.055581
 21
1163.926897
  0
LINE
  8
CSLAYER1
  6
CENTER
 62
     6
 10
748.055581
 20
1115.748202
 11
840.055581
 21
1115.748202
  0
LINE
  8
CSLAYER1
  6
CENTER
 62
     6
 10
714.555581
 20
1084.204830
 11
873.555581
 21
1084.204830
  0
LINE
  8
CSLAYER1
  6
CENTER
 62
     6
 10
775.555581
 20
881.219910
 11
833.555581
 21
881.219910
  0
LINE
  8
CSLAYER1
  6
CONTINUOUS
 62
     3
 10
769.055581
 20
1180.926897
 11
781.055581
 21
1180.926897
  0
LINE
  8
CSLAYER1
  6
CONTINUOUS
 62
     3
 10
769.055581
 20
1109.536995
 11
781.055581
 21
1109.536995
  0
LINE
  8
CSLAYER1
  6
CONTINUOUS
 62
     3
 10
748.055581
 20
1140.048202
 11
769.055581
 21
1140.048202
  0
LINE
  8
CSLAYER1
  6
CONTINUOUS
 62
     3
 10
748.055581
 20
1091.704830
 11
786.555581
 21
1091.704830
  0
LINE
  8
CSLAYER1
  6
CONTINUOUS
 62
     3
 10
748.055581
 20
1076.704830
 11
786.555581
 21
1076.704830
  0
LINE
  8
CSLAYER1
  6
CONTINUOUS
 62
     3
 10
775.555581
 20
845.977246
 11
781.555581
 21
845.977246
  0
LINE
  8
CSLAYER1
  6
CONTINUOUS
 62
     3
 10
748.055581
 20
864.018117
 11
760.405581
 21
864.018117
  0
LINE
  8
CSLAYER1
  6
CONTINUOUS
 62
     3
 10
775.555581
 20
897.219910
 11
781.555581
 21
897.219910
  0
LINE
  8
CSLAYER1
  6
CONTINUOUS
 62
     3
 10
833.555581
 20
845.977246
 11
833.555581
 21
897.219910
  0
LINE
  8
CSLAYER1
  6
CONTINUOUS
 62
     3
 10
827.555581
 20
845.977246
 11
827.555581
 21
897.219910
  0
LINE
  8
CSLAYER1
  6
CONTINUOUS
 62
     3
 10
781.555581
 20
845.977246
 11
781.555581
 21
897.219910
  0
LINE
  8
CSLAYER1
  6
CONTINUOUS
 62
     3
 10
775.555581
 20
845.977246
 11
775.555581
 21
897.219910
  0
LINE
  8
CSLAYER1
  6
CONTINUOUS
 62
     3
 10
827.555581
 20
897.219910
 11
833.555581
 21
897.219910
  0
LINE
  8
CSLAYER1
  6
CONTINUOUS
 62
     3
 10
827.555581
 20
845.977246
 11
833.555581
 21
845.977246
  0
LINE
  8
CSLAYER1
  6
CONTINUOUS
 62
     3
 10
849.055581
 20
864.018117
 11
852.055581
 21
864.018117
  0
LINE
  8
CSLAYER1
  6
CONTINUOUS
 62
     3
 10
833.555581
 20
864.018117
 11
840.055581
 21
864.018117
  0
LINE
  8
CSLAYER1
  6
CONTINUOUS
 62
     3
 10
781.555581
 20
864.018117
 11
827.555581
 21
864.018117
  0
LINE
  8
CSLAYER1
  6
CONTINUOUS
 62
     3
 10
769.055581
 20
1109.536995
 11
769.055581
 21
1180.926897
  0
LINE
  8
CSLAYER1
  6
CONTINUOUS
 62
     3
 10
781.055581
 20
1109.536995
 11
781.055581
 21
1180.926897
  0
LINE
  8
CSLAYER1
  6
CONTINUOUS
 62
     3
 10
828.055581
 20
1109.536995
 11
828.055581
 21
1180.926897
  0
LINE
  8
CSLAYER1
  6
CONTINUOUS
 62
     3
 10
828.055581
 20
1109.536995
 11
840.055581
 21
1109.536995
  0
LINE
  8
CSLAYER1
  6
CONTINUOUS
 62
     3
 10
781.055581
 20
1140.048202
 11
786.555581
 21
1140.048202
  0
LINE
  8
CSLAYER1
  6
CONTINUOUS
 62
     3
 10
828.055581
 20
1180.926897
 11
840.055581
 21
1180.926897
  0
LINE
  8
CSLAYER1
  6
CONTINUOUS
 62
     3
 10
872.555581
 20
1089.204830
 11
872.055581
 21
1089.204830
  0
LINE
  8
CSLAYER1
  6
CONTINUOUS
 62
     3
 10
861.055581
 20
1075.704830
 11
861.555581
 21
1075.704830
  0
LINE
  8
CSLAYER1
  6
CONTINUOUS
 62
     3
 10
861.055581
 20
1092.704830
 11
861.555581
 21
1092.704830
  0
LINE
  8
CSLAYER1
  6
CONTINUOUS
 62
     3
 10
861.555581
 20
1073.704830
 11
861.555581
 21
1094.704830
  0
LINE
  8
CSLAYER1
  6
CONTINUOUS
 62
     3
 10
873.555581
 20
1088.204830
 11
873.555581
 21
1080.204830
  0
LINE
  8
CSLAYER1
  6
CONTINUOUS
 62
     3
 10
852.055581
 20
1070.204830
 11
849.055581
 21
1070.204830
  0
LINE
  8
CSLAYER1
  6
CONTINUOUS
 62
     3
 10
852.055581
 20
1098.204830
 11
849.055581
 21
1098.204830
  0
LINE
  8
CSLAYER1
  6
CONTINUOUS
 62
     3
 10
863.555581
 20
1073.704830
 11
863.555581
 21
1094.704830
  0
LINE
  8
CSLAYER1
  6
CONTINUOUS
 62
     3
 10
866.055581
 20
1075.004830
 11
866.055581
 21
1093.404830
  0
LINE
  8
CSLAYER1
  6
CONTINUOUS
 62
     3
 10
866.055581
 20
1093.404830
 11
863.555581
 21
1093.404830
  0
LINE
  8
CSLAYER1
  6
CONTINUOUS
 62
     3
 10
863.555581
 20
1094.704830
 11
861.555581
 21
1094.704830
  0
LINE
  8
CSLAYER1
  6
CONTINUOUS
 62
     3
 10
866.055581
 20
1075.004830
 11
863.555581
 21
1075.004830
  0
LINE
  8
CSLAYER1
  6
CONTINUOUS
 62
     3
 10
863.555581
 20
1073.704830
 11
861.555581
 21
1073.704830
  0
LINE
  8
CSLAYER1
  6
CONTINUOUS
 62
     3
 10
872.055581
 20
1075.704830
 11
872.055581
 21
1092.704830
  0
LINE
  8
CSLAYER1
  6
CONTINUOUS
 62
     3
 10
872.555581
 20
1089.204830
 11
873.555581
 21
1088.204830
  0
LINE
  8
CSLAYER1
  6
CONTINUOUS
 62
     3
 10
873.255581
 20
1088.504830
 11
872.055581
 21
1088.504830
  0
LINE
  8
CSLAYER1
  6
CONTINUOUS
 62
     3
 10
872.555581
 20
1089.204830
 11
872.555581
 21
1079.204830
  0
LINE
  8
CSLAYER1
  6
CONTINUOUS
 62
     3
 10
871.296392
 20
1094.019785
 11
866.814771
 21
1094.019785
  0
LINE
  8
CSLAYER1
  6
CONTINUOUS
 62
     3
 10
871.296392
 20
1089.112307
 11
866.814771
 21
1089.112307
  0
LINE
  8
CSLAYER1
  6
CONTINUOUS
 62
     3
 10
872.055581
 20
1092.704830
 11
871.296392
 21
1094.019785
  0
ARC
  8
CSLAYER1
  6
CONTINUOUS
 62
     3
 10
855.814771
 20
1084.204830
 40
16.240811
 50
-17.587954
 51
17.587954
  0
ARC
  8
CSLAYER1
  6
CONTINUOUS
 62
     3
 10
867.714657
 20
1091.566046
 40
4.341619
 50
-34.413868
 51
27.480777
  0
LINE
  8
CSLAYER1
  6
CONTINUOUS
 62
     3
 10
872.055581
 20
1075.704830
 11
871.296392
 21
1074.389875
  0
ARC
  8
CSLAYER1
  6
CONTINUOUS
 62
     3
 10
867.714657
 20
1076.843614
 40
4.341619
 50
-27.480777
 51
34.413868
  0
LINE
  8
CSLAYER1
  6
CONTINUOUS
 62
     3
 10
866.055581
 20
1092.704830
 11
866.814771
 21
1094.019785
  0
ARC
  8
CSLAYER1
  6
CONTINUOUS
 62
     3
 10
882.296392
 20
1084.204830
 40
16.240811
 50
162.412046
 51
197.587954
  0
ARC
  8
CSLAYER1
  6
CONTINUOUS
 62
     3
 10
870.396506
 20
1091.566046
 40
4.341619
 50
152.519223
 51
214.413868
  0
LINE
  8
CSLAYER1
  6
CONTINUOUS
 62
     3
 10
866.055581
 20
1075.704830
 11
866.814771
 21
1074.389875
  0
ARC
  8
CSLAYER1
  6
CONTINUOUS
 62
     3
 10
870.396506
 20
1076.843614
 40
4.341619
 50
145.586132
 51
207.480777
  0
LINE
  8
CSLAYER1
  6
CONTINUOUS
 62
     3
 10
871.296392
 20
1074.389875
 11
866.814771
 21
1074.389875
  0
LINE
  8
CSLAYER1
  6
CONTINUOUS
 62
     3
 10
871.296392
 20
1079.297353
 11
866.814771
 21
1079.297353
  0
LINE
  8
CSLAYER1
  6
CONTINUOUS
 62
     3
 10
872.555581
 20
1079.204830
 11
872.055581
 21
1079.204830
  0
LINE
  8
CSLAYER1
  6
CONTINUOUS
 62
     3
 10
872.555581
 20
1079.204830
 11
873.555581
 21
1080.204830
  0
LINE
  8
CSLAYER1
  6
CONTINUOUS
 62
     3
 10
873.255581
 20
1079.904830
 11
872.055581
 21
1079.904830
  0
LINE
  8
CSLAYER1
  6
CONTINUOUS
 62
     3
 10
863.555581
 20
1082.303382
 11
866.055581
 21
1085.672948
  0
LINE
  8
CSLAYER1
  6
CONTINUOUS
 62
     3
 10
715.555581
 20
1089.204830
 11
716.055581
 21
1089.204830
  0
LINE
  8
CSLAYER1
  6
CONTINUOUS
 62
     3
 10
727.055581
 20
1075.704830
 11
726.555581
 21
1075.704830
  0
LINE
  8
CSLAYER1
  6
CONTINUOUS
 62
     3
 10
727.055581
 20
1092.704830
 11
726.555581
 21
1092.704830
  0
LINE
  8
CSLAYER1
  6
CONTINUOUS
 62
     3
 10
726.555581
 20
1073.704830
 11
726.555581
 21
1094.704830
  0
LINE
  8
CSLAYER1
  6
CONTINUOUS
 62
     3
 10
714.555581
 20
1088.204830
 11
714.555581
 21
1080.204830
  0
LINE
  8
CSLAYER1
  6
CONTINUOUS
 62
     3
 10
736.055581
 20
1070.204830
 11
739.055581
 21
1070.204830
  0
LINE
  8
CSLAYER1
  6
CONTINUOUS
 62
     3
 10
736.055581
 20
1098.204830
 11
739.055581
 21
1098.204830
  0
LINE
  8
CSLAYER1
  6
CONTINUOUS
 62
     3
 10
724.555581
 20
1073.704830
 11
724.555581
 21
1094.704830
  0
LINE
  8
CSLAYER1
  6
CONTINUOUS
 62
     3
 10
722.055581
 20
1075.004830
 11
722.055581
 21
1093.404830
  0
LINE
  8
CSLAYER1
  6
CONTINUOUS
 62
     3
 10
722.055581
 20
1093.404830
 11
724.555581
 21
1093.404830
  0
LINE
  8
CSLAYER1
  6
CONTINUOUS
 62
     3
 10
724.555581
 20
1094.704830
 11
726.555581
 21
1094.704830
  0
LINE
  8
CSLAYER1
  6
CONTINUOUS
 62
     3
 10
722.055581
 20
1075.004830
 11
724.555581
 21
1075.004830
  0
LINE
  8
CSLAYER1
  6
CONTINUOUS
 62
     3
 10
724.555581
 20
1073.704830
 11
726.555581
 21
1073.704830
  0
LINE
  8
CSLAYER1
  6
CONTINUOUS
 62
     3
 10
716.055581
 20
1075.704830
 11
716.055581
 21
1092.704830
  0
LINE
  8
CSLAYER1
  6
CONTINUOUS
 62
     3
 10
715.555581
 20
1089.204830
 11
714.555581
 21
1088.204830
  0
LINE
  8
CSLAYER1
  6
CONTINUOUS
 62
     3
 10
714.855581
 20
1088.504830
 11
716.055581
 21
1088.504830
  0
LINE
  8
CSLAYER1
  6
CONTINUOUS
 62
     3
 10
715.555581
 20
1089.204830
 11
715.555581
 21
1079.204830
  0
LINE
  8
CSLAYER1
  6
CONTINUOUS
 62
     3
 10
716.814771
 20
1094.019785
 11
721.296392
 21
1094.019785
  0
LINE
  8
CSLAYER1
  6
CONTINUOUS
 62
     3
 10
716.814771
 20
1089.112307
 11
721.296392
 21
1089.112307
  0
LINE
  8
CSLAYER1
  6
CONTINUOUS
 62
     3
 10
716.055581
 20
1092.704830
 11
716.814771
 21
1094.019785
  0
ARC
  8
CSLAYER1
  6
CONTINUOUS
 62
     3
 10
732.296392
 20
1084.204830
 40
16.240811
 50
162.412046
 51
197.587954
  0
ARC
  8
CSLAYER1
  6
CONTINUOUS
 62
     3
 10
720.396506
 20
1091.566046
 40
4.341619
 50
152.519223
 51
214.413868
  0
LINE
  8
CSLAYER1
  6
CONTINUOUS
 62
     3
 10
716.055581
 20
1075.704830
 11
716.814771
 21
1074.389875
  0
ARC
  8
CSLAYER1
  6
CONTINUOUS
 62
     3
 10
720.396506
 20
1076.843614
 40
4.341619
 50
145.586132
 51
207.480777
  0
LINE
  8
CSLAYER1
  6
CONTINUOUS
 62
     3
 10
722.055581
 20
1092.704830
 11
721.296392
 21
1094.019785
  0
ARC
  8
CSLAYER1
  6
CONTINUOUS
 62
     3
 10
705.814771
 20
1084.204830
 40
16.240811
 50
-17.587954
 51
17.587954
  0
ARC
  8
CSLAYER1
  6
CONTINUOUS
 62
     3
 10
717.714657
 20
1091.566046
 40
4.341619
 50
-34.413868
 51
27.480777
  0
LINE
  8
CSLAYER1
  6
CONTINUOUS
 62
     3
 10
722.055581
 20
1075.704830
 11
721.296392
 21
1074.389875
  0
ARC
  8
CSLAYER1
  6
CONTINUOUS
 62
     3
 10
717.714657
 20
1076.843614
 40
4.341619
 50
-27.480777
 51
34.413868
  0
LINE
  8
CSLAYER1
  6
CONTINUOUS
 62
     3
 10
716.814771
 20
1074.389875
 11
721.296392
 21
1074.389875
  0
LINE
  8
CSLAYER1
  6
CONTINUOUS
 62
     3
 10
716.814771
 20
1079.297353
 11
721.296392
 21
1079.297353
  0
LINE
  8
CSLAYER1
  6
CONTINUOUS
 62
     3
 10
715.555581
 20
1079.204830
 11
716.055581
 21
1079.204830
  0
LINE
  8
CSLAYER1
  6
CONTINUOUS
 62
     3
 10
715.555581
 20
1079.204830
 11
714.555581
 21
1080.204830
  0
LINE
  8
CSLAYER1
  6
CONTINUOUS
 62
     3
 10
714.855581
 20
1079.904830
 11
716.055581
 21
1079.904830
  0
LINE
  8
CSLAYER1
  6
CONTINUOUS
 62
     3
 10
724.555581
 20
1082.303382
 11
722.055581
 21
1085.672948
  0
LINE
  8
CSLAYER1
  6
CONTINUOUS
 62
     3
 10
727.055581
 20
836.091760
 11
727.055581
 21
1362.885777
  0
LINE
  8
CSLAYER1
  6
CONTINUOUS
 62
     3
 10
736.055581
 20
836.091760
 11
736.055581
 21
1363.355432
  0
LINE
  8
CSLAYER1
  6
CONTINUOUS
 62
     3
 10
739.055581
 20
836.091760
 11
739.055581
 21
1377.655432
  0
LINE
  8
CSLAYER1
  6
CONTINUOUS
 62
     3
 10
748.055581
 20
836.091760
 11
748.055581
 21
1377.655432
  0
LINE
  8
CSLAYER1
  6
CONTINUOUS
 62
     3
 10
739.055581
 20
864.018117
 11
736.055581
 21
864.018117
  0
INSERT
  8
CSLAYER1
  2
BLKF0002
 10
0.0
 20
0.0
 30
0.0
  0
LINE
  8
CSLAYER1
  6
CONTINUOUS
 62
     3
 10
822.555581
 20
1140.048202
 11
828.055581
 21
1140.048202
  0
LINE
  8
CSLAYER1
  6
CONTINUOUS
 62
     3
 10
822.555581
 20
1091.704830
 11
840.055581
 21
1091.704830
  0
LINE
  8
CSLAYER1
  6
CONTINUOUS
 62
     3
 10
822.555581
 20
1076.704830
 11
840.055581
 21
1076.704830
  0
LINE
  8
CSLAYER1
  6
CONTINUOUS
 62
     3
 10
768.705581
 20
864.018117
 11
775.555581
 21
864.018117
  0
LINE
  8
CSLAYER1
  6
CENTER
 62
     6
 10
1467.874103
 20
875.980274
 11
1450.684699
 21
886.919520
  0
LINE
  8
CSLAYER1
  6
CENTER
 62
     6
 10
804.555581
 20
864.018117
 11
804.555581
 21
1177.526897
  0
CIRCLE
  8
CSLAYER1
  6
CONTINUOUS
 62
     3
 10
764.055581
 20
807.741760
 40
4.150000
  0
LINE
  8
CSLAYER1
  6
CONTINUOUS
 62
     3
 10
1239.669752
 20
814.741760
 11
1379.464408
 21
814.741760
  0
LINE
  8
CSLAYER1
  6
CENTER
 62
     5
 10
1239.669752
 20
810.591760
 11
1379.464408
 21
810.591760
  0
LINE
  8
CSLAYER1
  6
CONTINUOUS
 62
     3
 10
1239.669752
 20
806.441760
 11
1379.464408
 21
806.441760
  0
DIMENSION
  8
CSLAYER1
 62
     3
  2
*D0000
 10
2396.173561
 20
1407.655432
 11
2388.173584
 21
1101.873535
 13
2202.464408
 23
796.091760
 14
2222.009366
 24
1407.655432
 50
90.000000
  0
DIMENSION
  8
CSLAYER1
 62
     3
  2
*D0001
 10
1402.009366
 20
1249.931133
 11
1203.680664
 21
1261.675659
 13
1382.164408
 23
866.091760
 14
1402.009366
 24
1387.655432
  0
INSERT
  8
CSLAYER1
  2
EASYDRAWDIM0000
 10
0.0
 20
0.0
 30
0.0
  0
INSERT
  8
CSLAYER1
  2
EASYDRAWDIM0001
 10
0.0
 20
0.0
 30
0.0
  0
INSERT
  8
CSLAYER1
  2
EASYDRAWDIM0002
 10
0.0
 20
0.0
 30
0.0
  0
LINE
  8
CSLAYER1
  6
CONTINUOUS
 62
     6
 10
1518.744650
 20
1025.313395
 11
1289.346155
 21
1168.102254
  0
LINE
  8
CSLAYER1
  6
CONTINUOUS
 62
     6
 10
1518.744650
 20
1025.313395
 11
1490.040267
 21
1034.034539
  0
LINE
  8
CSLAYER1
  6
CONTINUOUS
 62
     6
 10
1518.744650
 20
1025.313395
 11
1498.246497
 21
1047.218319
  0
DIMENSION
  8
CSLAYER1
 62
     3
  2
*D0002
 10
1029.149372
 20
802.091760
 11
1021.149414
 21
846.311768
 13
942.055581
 23
796.091760
 14
942.055581
 24
802.091760
 50
90.000000
 70
1
  0
DIMENSION
  8
CSLAYER1
 62
     3
  2
*D0003
 10
919.055581
 20
721.260191
 11
794.055420
 21
729.260132
 13
669.055581
 23
798.091760
 14
919.055581
 24
798.091760
 52
270.000000
 70
1
  0
DIMENSION
  8
CSLAYER1
 62
     3
  2
*D0004
 10
944.055581
 20
651.886734
 11
794.055420
 21
659.886719
 13
644.055581
 23
798.091760
 14
944.055581
 24
798.091760
 52
270.000000
 70
1
  0
DIMENSION
  8
CSLAYER1
 62
     3
  2
*D0005
 10
1404.464408
 20
721.260191
 11
1414.557129
 21
705.692017
 13
1379.464408
 23
642.555944
 14
1404.464408
 24
815.591760
  0
LINE
  8
CSLAYER1
  6
CONTINUOUS
 62
     6
 10
919.055581
 20
796.091760
 11
1014.963228
 21
713.190024
  0
LINE
  8
CSLAYER1
  6
CONTINUOUS
 62
     6
 10
919.055581
 20
796.091760
 11
946.056057
 21
783.016045
  0
LINE
  8
CSLAYER1
  6
CONTINUOUS
 62
     6
 10
919.055581
 20
796.091760
 11
935.900821
 21
771.267621
  0
LINE
  8
CSLAYER1
  6
CONTINUOUS
 62
     6
 10
1404.464408
 20
796.091760
 11
1300.559891
 21
713.190024
  0
LINE
  8
CSLAYER1
  6
CONTINUOUS
 62
     6
 10
1404.464408
 20
796.091760
 11
1386.655574
 21
771.949568
  0
LINE
  8
CSLAYER1
  6
CONTINUOUS
 62
     6
 10
1404.464408
 20
796.091760
 11
1376.970409
 21
784.088426
  0
LINE
  8
CSLAYER1
  6
CENTER
 62
     6
 10
1624.990954
 20
1163.926897
 11
1653.931840
 21
1163.926897
  0
LINE
  8
CSLAYER1
  6
CENTER
 62
     6
 10
1639.554019
 20
1175.744356
 11
1639.554019
 21
1147.545545
  0
LINE
  8
CSLAYER1
  6
CENTER
 62
     6
 10
1649.504052
 20
1084.204830
 11
1678.444938
 21
1084.204830
  0
LINE
  8
CSLAYER1
  6
CENTER
 62
     6
 10
1664.067117
 20
1096.022289
 11
1664.067117
 21
1067.823477
  0
LINE
  8
CSLAYER1
  6
CONTINUOUS
 62
     3
 10
1379.464408
 20
1989.885634
 11
1379.464408
 21
1824.035634
  0
LINE
  8
CSLAYER1
  6
CENTER
 62
     6
 10
1345.743911
 20
1964.035634
 11
2182.164408
 21
1964.035634
  0
LINE
  8
CSLAYER1
  6
CENTER
 62
     5
 10
1155.068248
 20
1994.035634
 11
1382.464408
 21
1994.035634
  0
LINE
  8
CSLAYER1
  6
CONTINUOUS
 62
     3
 10
1155.068248
 20
1998.185634
 11
1382.164408
 21
1998.185634
  0
LINE
  8
CSLAYER1
  6
CONTINUOUS
 62
     3
 10
1155.068248
 20
1989.885634
 11
1382.164408
 21
1989.885634
  0
LINE
  8
CSLAYER1
  6
CONTINUOUS
 62
     3
 10
1379.464408
 20
1998.185634
 11
1379.464408
 21
2104.035634
  0
INSERT
  8
CSLAYER1
  2
BLKF0003
 10
0.0
 20
0.0
 30
0.0
  0
ARC
  8
CSLAYER1
  6
CONTINUOUS
 62
     3
 10
1389.464408
 20
2104.035634
 40
10.000000
 50
136.886394
 51
180.000000
  0
LINE
  8
CSLAYER1
  6
CONTINUOUS
 62
     3
 10
1382.164408
 20
2114.035634
 11
1382.164408
 21
1814.035634
  0
LINE
  8
CSLAYER1
  6
CONTINUOUS
 62
     1
 10
716.555581
 20
802.622105
 11
716.555581
 21
824.561415
  0
LINE
  8
CSLAYER1
  6
CONTINUOUS
 62
     1
 10
719.555581
 20
824.341760
 11
716.555581
 21
824.341760
  0
LINE
  8
CSLAYER1
  6
CONTINUOUS
 62
     1
 10
719.555581
 20
802.841760
 11
716.555581
 21
802.841760
  0
LINE
  8
CSLAYER1
  6
CONTINUOUS
 62
     1
 10
719.555581
 20
812.079564
 11
716.555581
 21
815.579564
  0
LINE
  8
CSLAYER1
  6
CONTINUOUS
 62
     1
 10
708.555581
 20
822.591760
 11
708.555581
 21
804.591760
  0
LINE
  8
CSLAYER1
  6
CONTINUOUS
 62
     1
 10
716.555581
 20
819.076588
 11
709.692762
 21
819.076588
  0
LINE
  8
CSLAYER1
  6
CONTINUOUS
 62
     1
 10
716.555581
 20
824.561415
 11
709.692762
 21
824.561415
  0
LINE
  8
CSLAYER1
  6
CONTINUOUS
 62
     1
 10
708.555581
 20
822.591760
 11
709.692762
 21
824.561415
  0
ARC
  8
CSLAYER1
  6
CONTINUOUS
 62
     1
 10
712.335626
 20
821.819002
 40
3.808617
 50
185.661633
 51
226.059028
  0
ARC
  8
CSLAYER1
  6
CONTINUOUS
 62
     1
 10
722.351326
 20
813.591760
 40
13.795744
 50
156.573402
 51
203.426598
  0
LINE
  8
CSLAYER1
  6
CONTINUOUS
 62
     1
 10
716.555581
 20
808.106933
 11
709.692762
 21
808.106933
  0
LINE
  8
CSLAYER1
  6
CONTINUOUS
 62
     1
 10
716.555581
 20
802.622105
 11
709.692762
 21
802.622105
  0
LINE
  8
CSLAYER1
  6
CONTINUOUS
 62
     1
 10
708.555581
 20
804.591760
 11
709.692762
 21
802.622105
  0
ARC
  8
CSLAYER1
  6
CONTINUOUS
 62
     1
 10
712.335626
 20
805.364519
 40
3.808617
 50
133.940972
 51
174.338367
  0
LINE
  8
CSLAYER1
  6
CONTINUOUS
 62
     2
 10
739.055581
 20
1377.655432
 11
739.055581
 21
1333.355432
  0
LINE
  8
CSLAYER1
  6
CONTINUOUS
 62
     3
 10
738.055581
 20
1365.205432
 11
739.055581
 21
1365.205432
  0
LINE
  8
CSLAYER1
  6
CONTINUOUS
 62
     3
 10
737.055581
 20
1377.655432
 11
737.055581
 21
1366.205432
  0
LINE
  8
CSLAYER1
  6
CONTINUOUS
 62
     3
 10
737.055581
 20
1366.205432
 11
738.055581
 21
1365.205432
  0
LINE
  8
CSLAYER1
  6
CONTINUOUS
 62
     3
 10
738.055581
 20
1377.655432
 11
738.055581
 21
1365.205432
  0
LINE
  8
CSLAYER1
  6
CONTINUOUS
 62
     3
 10
736.555581
 20
1363.355432
 11
730.555581
 21
1363.355432
  0
INSERT
  8
CSLAYER1
  2
BLKF0004
 10
0.0
 20
0.0
 30
0.0
  0
LINE
  8
CSLAYER1
  6
CONTINUOUS
 62
     3
 10
730.555581
 20
1377.655432
 11
730.555581
 21
1363.105432
  0
LINE
  8
CSLAYER1
  6
CONTINUOUS
 62
     3
 10
736.555581
 20
1377.655432
 11
736.555581
 21
1363.355432
  0
LINE
  8
CSLAYER1
  6
CONTINUOUS
 62
     3
 10
697.055581
 20
1377.655432
 11
697.055581
 21
1375.355432
  0
LINE
  8
CSLAYER1
  6
CONTINUOUS
 62
     3
 10
697.055581
 20
1375.355432
 11
701.555581
 21
1375.355432
  0
LINE
  8
CSLAYER1
  6
CONTINUOUS
 62
     3
 10
701.555581
 20
1377.655432
 11
701.555581
 21
1375.355432
  0
LINE
  8
CSLAYER1
  6
CONTINUOUS
 62
     3
 10
715.055581
 20
1377.655432
 11
715.055581
 21
1360.855432
  0
LINE
  8
CSLAYER1
  6
CONTINUOUS
 62
     3
 10
723.055581
 20
1362.885777
 11
723.055581
 21
1360.855432
  0
LINE
  8
CSLAYER1
  6
CONTINUOUS
 62
     3
 10
707.055581
 20
1377.655432
 11
707.055581
 21
1360.855432
  0
LINE
  8
CSLAYER1
  6
CONTINUOUS
 62
     3
 10
706.055581
 20
1377.655432
 11
706.055581
 21
1365.855432
  0
LINE
  8
CSLAYER1
  6
CONTINUOUS
 62
     3
 10
704.055581
 20
1377.655432
 11
704.055581
 21
1369.355432
  0
LINE
  8
CSLAYER1
  6
CONTINUOUS
 62
     3
 10
704.555581
 20
1368.855432
 11
706.055581
 21
1368.855432
  0
LINE
  8
CSLAYER1
  6
CONTINUOUS
 62
     3
 10
706.055581
 20
1365.855432
 11
707.055581
 21
1365.855432
  0
LINE
  8
CSLAYER1
  6
CONTINUOUS
 62
     3
 10
704.555581
 20
1368.855432
 11
704.055581
 21
1369.355432
  0
LINE
  8
CSLAYER1
  6
CONTINUOUS
 62
     3
 10
707.055581
 20
1360.855432
 11
723.055581
 21
1360.855432
  0
TEXT
  8
CSLAYER1
 62
     5
 10
2963.557585
 20
799.699024
 40
31.844261
 41
0.920655
  1
Ｆ.Ｌ
 50
0.000000
 51
0.000000
  7
EASYDRAW_FONT
 72
     5
 11
3041.737825
 21
799.699024
  0
LINE
  8
CSLAYER1
  6
CENTER
 62
     5
 10
2744.035745
 20
796.091760
 11
2744.035745
 21
876.091760
  0
LINE
  8
CSLAYER1
  6
CENTER
 62
     5
 10
2869.035745
 20
787.162399
 11
2869.035745
 21
811.372360
  0
LINE
  8
CSLAYER1
  6
CENTER
 62
     5
 10
2619.035745
 20
787.162399
 11
2619.035745
 21
811.372360
  0
LINE
  8
CSLAYER1
  6
CONTINUOUS
 62
     3
 10
2644.035745
 20
836.091760
 11
2644.035745
 21
796.091760
  0
LINE
  8
CSLAYER1
  6
CONTINUOUS
 62
     3
 10
2844.035745
 20
836.091760
 11
2844.035745
 21
796.091760
  0
LINE
  8
CSLAYER1
  6
CONTINUOUS
 62
     3
 10
2894.035745
 20
796.091760
 11
2894.035745
 21
802.091760
  0
LINE
  8
CSLAYER1
  6
CONTINUOUS
 62
     3
 10
2894.035745
 20
802.091760
 11
2844.035745
 21
802.091760
  0
LINE
  8
CSLAYER1
  6
CONTINUOUS
 62
     3
 10
2594.035745
 20
796.091760
 11
2594.035745
 21
802.091760
  0
LINE
  8
CSLAYER1
  6
CONTINUOUS
 62
     3
 10
2594.035745
 20
802.091760
 11
2644.035745
 21
802.091760
  0
TEXT
  8
CSLAYER1
 62
     7
 10
2687.218018
 20
956.551147
 40
40.000000
 41
0.843750
  1
下降時
 50
0.000000
 51
0.000000
  7
EASYDRAW_FONT
 72
     5
 11
2777.218018
 21
956.551147
  0
LINE
  8
CSLAYER1
  6
CONTINUOUS
 62
     5
 10
2673.611412
 20
1002.981294
 11
2796.569422
 21
1002.981294
  0
LINE
  8
CSLAYER1
  6
CONTINUOUS
 62
     5
 10
2796.569422
 20
1002.981294
 11
2796.569422
 21
950.120841
  0
LINE
  8
CSLAYER1
  6
CONTINUOUS
 62
     5
 10
2796.569422
 20
950.120841
 11
2673.611412
 21
950.120841
  0
LINE
  8
CSLAYER1
  6
CONTINUOUS
 62
     5
 10
2673.611412
 20
950.120841
 11
2673.611412
 21
1002.981294
  0
LINE
  8
CSLAYER1
  6
CONTINUOUS
 62
     3
 10
2594.035745
 20
876.091760
 11
2894.035745
 21
876.091760
  0
LINE
  8
CSLAYER1
  6
CONTINUOUS
 62
     3
 10
2594.035745
 20
846.091760
 11
2894.035745
 21
846.091760
  0
LINE
  8
CSLAYER1
  6
CONTINUOUS
 62
     3
 10
2644.035745
 20
836.091760
 11
2844.035745
 21
836.091760
  0
DIMENSION
  8
CSLAYER1
 62
     3
  2
*D0006
 10
2484.057477
 20
876.091760
 11
2474.057617
 21
836.091736
 13
2525.872570
 23
796.091760
 14
2575.872570
 24
876.091760
 50
90.000000
  0
LINE
  8
CSLAYER1
  6
CONTINUOUS
 62
     3
 10
2841.035745
 20
846.091760
 11
2841.035745
 21
843.791760
  0
LINE
  8
CSLAYER1
  6
CONTINUOUS
 62
     3
 10
2841.035745
 20
843.791760
 11
2836.535745
 21
843.791760
  0
LINE
  8
CSLAYER1
  6
CONTINUOUS
 62
     3
 10
2836.535745
 20
846.091760
 11
2836.535745
 21
843.791760
  0
LINE
  8
CSLAYER1
  6
CONTINUOUS
 62
     3
 10
2823.035745
 20
846.091760
 11
2823.035745
 21
836.091760
  0
LINE
  8
CSLAYER1
  6
CONTINUOUS
 62
     3
 10
2831.035745
 20
846.091760
 11
2831.035745
 21
836.091760
  0
LINE
  8
CSLAYER1
  6
CONTINUOUS
 62
     3
 10
2832.035745
 20
846.091760
 11
2832.035745
 21
836.091760
  0
LINE
  8
CSLAYER1
  6
CONTINUOUS
 62
     3
 10
2834.035745
 20
846.091760
 11
2834.035745
 21
837.791760
  0
LINE
  8
CSLAYER1
  6
CONTINUOUS
 62
     3
 10
2833.535745
 20
837.291760
 11
2832.035745
 21
837.291760
  0
LINE
  8
CSLAYER1
  6
CONTINUOUS
 62
     3
 10
2833.535745
 20
837.291760
 11
2834.035745
 21
837.791760
  0
LINE
  8
CSLAYER1
  6
CENTER
 62
     5
 10
2835.035745
 20
842.291760
 11
2653.035745
 21
842.291760
  0
LINE
  8
CSLAYER1
  6
CONTINUOUS
 62
     3
 10
2815.035745
 20
846.091760
 11
2815.035745
 21
836.091760
  0
LINE
  8
CSLAYER1
  6
CONTINUOUS
 62
     3
 10
2790.035745
 20
836.091760
 11
2790.035745
 21
846.091760
  0
LINE
  8
CSLAYER1
  6
CONTINUOUS
 62
     3
 10
2799.035745
 20
836.091760
 11
2799.035745
 21
846.091760
  0
LINE
  8
CSLAYER1
  6
CONTINUOUS
 62
     3
 10
2802.035745
 20
836.091760
 11
2802.035745
 21
846.091760
  0
LINE
  8
CSLAYER1
  6
CONTINUOUS
 62
     3
 10
2811.035745
 20
836.091760
 11
2811.035745
 21
846.091760
  0
LINE
  8
CSLAYER1
  6
CONTINUOUS
 62
     3
 10
2647.035745
 20
846.091760
 11
2647.035745
 21
843.791760
  0
LINE
  8
CSLAYER1
  6
CONTINUOUS
 62
     3
 10
2647.035745
 20
843.791760
 11
2651.535745
 21
843.791760
  0
LINE
  8
CSLAYER1
  6
CONTINUOUS
 62
     3
 10
2651.535745
 20
846.091760
 11
2651.535745
 21
843.791760
  0
LINE
  8
CSLAYER1
  6
CONTINUOUS
 62
     3
 10
2665.035745
 20
846.091760
 11
2665.035745
 21
836.091760
  0
LINE
  8
CSLAYER1
  6
CONTINUOUS
 62
     3
 10
2657.035745
 20
846.091760
 11
2657.035745
 21
836.091760
  0
LINE
  8
CSLAYER1
  6
CONTINUOUS
 62
     3
 10
2656.035745
 20
846.091760
 11
2656.035745
 21
836.091760
  0
LINE
  8
CSLAYER1
  6
CONTINUOUS
 62
     3
 10
2654.035745
 20
846.091760
 11
2654.035745
 21
837.791760
  0
LINE
  8
CSLAYER1
  6
CONTINUOUS
 62
     3
 10
2654.535745
 20
837.291760
 11
2656.035745
 21
837.291760
  0
LINE
  8
CSLAYER1
  6
CONTINUOUS
 62
     3
 10
2654.535745
 20
837.291760
 11
2654.035745
 21
837.791760
  0
LINE
  8
CSLAYER1
  6
CONTINUOUS
 62
     3
 10
2673.035745
 20
846.091760
 11
2673.035745
 21
836.091760
  0
LINE
  8
CSLAYER1
  6
CONTINUOUS
 62
     3
 10
2698.035745
 20
836.091760
 11
2698.035745
 21
846.091760
  0
LINE
  8
CSLAYER1
  6
CONTINUOUS
 62
     3
 10
2689.035745
 20
836.091760
 11
2689.035745
 21
846.091760
  0
LINE
  8
CSLAYER1
  6
CONTINUOUS
 62
     3
 10
2686.035745
 20
836.091760
 11
2686.035745
 21
846.091760
  0
LINE
  8
CSLAYER1
  6
CONTINUOUS
 62
     3
 10
2677.035745
 20
836.091760
 11
2677.035745
 21
846.091760
  0
TEXT
  8
CSLAYER1
 62
     7
 10
744.919189
 20
564.076172
 40
40.000000
 41
0.843750
  1
上昇時
 50
0.000000
 51
0.000000
  7
EASYDRAW_FONT
 72
     5
 11
834.919189
 21
564.076172
  0
LINE
  8
CSLAYER1
  6
CONTINUOUS
 62
     5
 10
731.312616
 20
610.506256
 11
854.270625
 21
610.506256
  0
LINE
  8
CSLAYER1
  6
CONTINUOUS
 62
     5
 10
854.270625
 20
610.506256
 11
854.270625
 21
557.645803
  0
LINE
  8
CSLAYER1
  6
CONTINUOUS
 62
     5
 10
854.270625
 20
557.645803
 11
731.312616
 21
557.645803
  0
LINE
  8
CSLAYER1
  6
CONTINUOUS
 62
     5
 10
731.312616
 20
557.645803
 11
731.312616
 21
610.506256
  0
TEXT
  8
CSLAYER1
 62
     7
 10
1390.759521
 20
2238.807617
 40
40.000000
 41
0.843750
  1
下降時
 50
0.000000
 51
0.000000
  7
EASYDRAW_FONT
 72
     5
 11
1480.759521
 21
2238.807617
  0
LINE
  8
CSLAYER1
  6
CONTINUOUS
 62
     5
 10
1377.153170
 20
2285.237625
 11
1500.111180
 21
2285.237625
  0
LINE
  8
CSLAYER1
  6
CONTINUOUS
 62
     5
 10
1500.111180
 20
2285.237625
 11
1500.111180
 21
2232.377173
  0
LINE
  8
CSLAYER1
  6
CONTINUOUS
 62
     5
 10
1500.111180
 20
2232.377173
 11
1377.153170
 21
2232.377173
  0
LINE
  8
CSLAYER1
  6
CONTINUOUS
 62
     5
 10
1377.153170
 20
2232.377173
 11
1377.153170
 21
2285.237625
  0
INSERT
  8
CSLAYER1
  2
BLKF0005
 10
0.0
 20
0.0
 30
0.0
  0
INSERT
  8
CSLAYER1
  2
BLKF0006
 10
0.0
 20
0.0
 30
0.0
  0
LINE
  8
CSLAYER1
  6
CONTINUOUS
 62
     3
 10
2182.464408
 20
836.091760
 11
2182.464408
 21
796.091760
  0
DIMENSION
  8
CSLAYER1
 62
     3
  2
*D0007
 10
2318.316785
 20
876.091760
 11
2308.316895
 21
836.091736
 13
2182.164408
 23
796.091760
 14
2182.164408
 24
876.091760
 50
90.000000
 70
1
  0
DIMENSION
  8
CSLAYER1
 62
     3
  2
*D0008
 10
2318.316785
 20
876.091760
 11
2308.316895
 21
1141.873535
 13
2318.316785
 23
1407.655432
 14
2318.316785
 24
876.091760
 50
90.000000
 70
1
  0
DIMENSION
  8
CSLAYER1
 62
     3
  2
*D0009
 10
2202.009366
 20
1511.151789
 11
1802.009277
 21
1521.151733
 13
1402.009366
 23
1407.655432
 14
2202.009366
 24
1407.655432
 70
1
  0
DIMENSION
  8
CSLAYER1
 62
     3
  2
*D0010
 10
2182.464408
 20
642.555944
 11
1780.964355
 21
652.555908
 13
1379.464408
 23
796.091760
 14
2182.464408
 24
796.091760
 52
270.000000
 70
1
  0
LINE
  8
CSLAYER1
  6
CONTINUOUS
 62
     5
 10
3447.429784
 20
2352.739491
 11
2567.429784
 21
2352.739491
  0
LINE
  8
CSLAYER1
  6
CONTINUOUS
 62
     5
 10
3447.429784
 20
2299.406158
 11
2567.429784
 21
2299.406158
  0
LINE
  8
CSLAYER1
  6
CONTINUOUS
 62
     5
 10
3447.429784
 20
2246.072825
 11
2567.429784
 21
2246.072825
  0
LINE
  8
CSLAYER1
  6
CONTINUOUS
 62
     5
 10
3447.429784
 20
2139.406158
 11
2567.429784
 21
2139.406158
  0
LINE
  8
CSLAYER1
  6
CONTINUOUS
 62
     5
 10
3447.429784
 20
2032.739491
 11
2567.429784
 21
2032.739491
  0
LINE
  8
CSLAYER1
  6
CONTINUOUS
 62
     5
 10
3447.429784
 20
1819.406158
 11
2567.429784
 21
1819.406158
  0
LINE
  8
CSLAYER1
  6
CONTINUOUS
 62
     5
 10
3447.429784
 20
1606.072821
 11
2567.429784
 21
1606.072821
  0
LINE
  8
CSLAYER1
  6
CONTINUOUS
 62
     5
 10
3447.429784
 20
1552.739488
 11
2567.429784
 21
1552.739488
  0
TEXT
  8
CSLAYER1
 62
     3
 10
2580.762939
 20
2359.406006
 40
40.000000
 41
0.838235
  1
仕    様
 50
0.000000
 51
0.000000
  7
EASYDRAW_FONT
 72
     5
 11
2770.762939
 21
2359.406006
  0
TEXT
  8
CSLAYER1
 62
     3
 10
2580.762939
 20
2306.072754
 40
40.000000
 41
0.838235
  1
型    式
 50
0.000000
 51
0.000000
  7
EASYDRAW_FONT
 72
     5
 11
2770.762939
 21
2306.072754
  0
TEXT
  8
CSLAYER1
 62
     3
 10
2945.762939
 20
2306.072754
 40
40.000000
 41
0.817105
  1
GLSE-250-3008
 50
0.000000
 51
0.000000
  7
EASYDRAW_FONT
 72
     5
 11
3359.762939
 21
2306.072754
  0
TEXT
  8
CSLAYER1
 62
     3
 10
2580.762939
 20
2252.739502
 40
40.000000
 41
0.859091
  1
均等荷重
 50
0.000000
 51
0.000000
  7
EASYDRAW_FONT
 72
     5
 11
2706.762939
 21
2252.739502
  0
TEXT
  8
CSLAYER1
 62
     3
 10
3372.096191
 20
2252.739502
 40
40.000000
 41
0.930000
  1
ｋｇ
 50
0.000000
 51
0.000000
  7
EASYDRAW_FONT
 72
     5
 11
3434.096191
 21
2252.739502
  0
TEXT
  8
CSLAYER1
 62
     3
 10
2580.762939
 20
2146.072754
 40
40.000000
 41
0.838235
  1
テーブル高サ
 50
0.000000
 51
0.000000
  7
EASYDRAW_FONT
 72
     5
 11
2770.762939
 21
2146.072754
  0
TEXT
  8
CSLAYER1
 62
     3
 10
3372.096191
 20
2146.072754
 40
40.000000
 41
0.930000
  1
ｍｍ
 50
0.000000
 51
0.000000
  7
EASYDRAW_FONT
 72
     5
 11
3434.096191
 21
2146.072754
  0
TEXT
  8
CSLAYER1
 62
     3
 10
2580.762939
 20
2039.405762
 40
40.000000
 41
0.838235
  1
全    長
 50
0.000000
 51
0.000000
  7
EASYDRAW_FONT
 72
     5
 11
2770.762939
 21
2039.405762
  0
TEXT
  8
CSLAYER1
 62
     3
 10
3105.762939
 20
2039.405762
 40
40.000000
 41
0.881250
  1
803
 50
0.000000
 51
0.000000
  7
EASYDRAW_FONT
 72
     5
 11
3199.762939
 21
2039.405762
  0
TEXT
  8
CSLAYER1
 62
     3
 10
3041.762939
 20
1826.072510
 40
40.000000
 41
0.832500
  1
フットスイッチ
 50
0.000000
 51
0.000000
  7
EASYDRAW_FONT
 72
     5
 11
3263.762939
 21
1826.072510
  0
TEXT
  8
CSLAYER1
 62
     3
 10
2580.762939
 20
1826.072510
 40
40.000000
 41
0.859091
  1
操作方式
 50
0.000000
 51
0.000000
  7
EASYDRAW_FONT
 72
     5
 11
2706.762939
 21
1826.072510
  0
TEXT
  8
CSLAYER1
 62
     3
 10
2580.762939
 20
1559.405884
 40
40.000000
 41
0.832500
  1
自     重
 50
0.000000
 51
0.000000
  7
EASYDRAW_FONT
 72
     5
 11
2802.762939
 21
1559.405884
  0
TEXT
  8
CSLAYER1
 62
     3
 10
3096.429688
 20
1559.405884
 40
40.000000
 41
0.859091
  1
約 61
 50
0.000000
 51
0.000000
  7
EASYDRAW_FONT
 72
     5
 11
3222.429688
 21
1559.405884
  0
TEXT
  8
CSLAYER1
 62
     3
 10
2580.762939
 20
1506.072632
 40
40.000000
 41
0.832500
  1
塗  装  色
 50
0.000000
 51
0.000000
  7
EASYDRAW_FONT
 72
     5
 11
2802.762939
 21
1506.072632
  0
TEXT
  8
CSLAYER1
 62
     3
 10
3105.762939
 20
2252.739502
 40
40.000000
 41
0.881250
  1
250
 50
0.000000
 51
0.000000
  7
EASYDRAW_FONT
 72
     5
 11
3199.762939
 21
2252.739502
  0
TEXT
  8
CSLAYER1
 62
     3
 10
3057.762939
 20
2146.072754
 40
40.000000
 41
0.838235
  1
80～580
 50
0.000000
 51
0.000000
  7
EASYDRAW_FONT
 72
     5
 11
3247.762939
 21
2146.072754
  0
TEXT
  8
CSLAYER1
 62
     3
 10
3372.096191
 20
2039.405762
 40
40.000000
 41
0.930000
  1
ｍｍ
 50
0.000000
 51
0.000000
  7
EASYDRAW_FONT
 72
     5
 11
3434.096191
 21
2039.405762
  0
LINE
  8
CSLAYER1
  6
CONTINUOUS
 62
     5
 10
3447.429784
 20
1979.406158
 11
2567.429784
 21
1979.406158
  0
TEXT
  8
CSLAYER1
 62
     3
 10
2580.762939
 20
1986.072510
 40
40.000000
 41
0.838235
  1
全    幅
 50
0.000000
 51
0.000000
  7
EASYDRAW_FONT
 72
     5
 11
2770.762939
 21
1986.072510
  0
TEXT
  8
CSLAYER1
 62
     3
 10
3105.762939
 20
1986.072510
 40
40.000000
 41
0.881250
  1
300
 50
0.000000
 51
0.000000
  7
EASYDRAW_FONT
 72
     5
 11
3199.762939
 21
1986.072510
  0
TEXT
  8
CSLAYER1
 62
     3
 10
3372.096191
 20
1986.072510
 40
40.000000
 41
0.930000
  1
ｍｍ
 50
0.000000
 51
0.000000
  7
EASYDRAW_FONT
 72
     5
 11
3434.096191
 21
1986.072510
  0
LINE
  8
CSLAYER1
  6
CONTINUOUS
 62
     5
 10
3447.429784
 20
1659.406158
 11
2567.429784
 21
1659.406158
  0
TEXT
  8
CSLAYER1
 62
     3
 10
3008.725342
 20
1611.340820
 40
40.000000
 41
0.825000
  1
油圧ユニット別置型
 50
0.000000
 51
0.000000
  7
EASYDRAW_FONT
 72
     5
 11
3294.725342
 21
1611.340820
  0
LINE
  8
CSLAYER1
  6
CONTINUOUS
 62
     5
 10
3447.429784
 20
1606.072825
 11
2567.429784
 21
1606.072825
  0
TEXT
  8
CSLAYER1
 62
     3
 10
3372.096191
 20
1559.405884
 40
40.000000
 41
0.930000
  1
ｋｇ
 50
0.000000
 51
0.000000
  7
EASYDRAW_FONT
 72
     5
 11
3434.096191
 21
1559.405884
  0
LINE
  8
CSLAYER1
  6
CONTINUOUS
 62
     5
 10
3447.429784
 20
2192.739491
 11
2567.429784
 21
2192.739491
  0
TEXT
  8
CSLAYER1
 62
     3
 10
2580.762939
 20
2199.406250
 40
40.000000
 41
0.838235
  1
テーブル寸法
 50
0.000000
 51
0.000000
  7
EASYDRAW_FONT
 72
     5
 11
2770.762939
 21
2199.406250
  0
TEXT
  8
CSLAYER1
 62
     3
 10
3372.096191
 20
2199.406250
 40
40.000000
 41
0.930000
  1
ｍｍ
 50
0.000000
 51
0.000000
  7
EASYDRAW_FONT
 72
     5
 11
3434.096191
 21
2199.406250
  0
TEXT
  8
CSLAYER1
 62
     3
 10
3009.762939
 20
2199.406250
 40
40.000000
 41
0.825000
  1
800L×300W
 50
0.000000
 51
0.000000
  7
EASYDRAW_FONT
 72
     5
 11
3295.762939
 21
2199.406250
  0
LINE
  8
CSLAYER1
  6
CONTINUOUS
 62
     5
 10
3447.429784
 20
2086.072825
 11
2567.429784
 21
2086.072825
  0
TEXT
  8
CSLAYER1
 62
     3
 10
3372.096191
 20
2092.739502
 40
40.000000
 41
0.930000
  1
ｍｍ
 50
0.000000
 51
0.000000
  7
EASYDRAW_FONT
 72
     5
 11
3434.096191
 21
2092.739502
  0
TEXT
  8
CSLAYER1
 62
     3
 10
3105.762939
 20
2092.739502
 40
40.000000
 41
0.881250
  1
500
 50
0.000000
 51
0.000000
  7
EASYDRAW_FONT
 72
     5
 11
3199.762939
 21
2092.739502
  0
TEXT
  8
CSLAYER1
 62
     3
 10
2582.595459
 20
2092.739502
 40
40.000000
 41
0.846429
  1
ストローク
 50
0.000000
 51
0.000000
  7
EASYDRAW_FONT
 72
     5
 11
2740.595459
 21
2092.739502
  0
LINE
  8
CSLAYER1
  6
CONTINUOUS
 62
     5
 10
3447.429784
 20
1926.072825
 11
2567.429784
 21
1926.072825
  0
TEXT
  8
CSLAYER1
 62
     3
 10
2580.762939
 20
1932.739258
 40
40.000000
 41
0.838235
  1
全    高
 50
0.000000
 51
0.000000
  7
EASYDRAW_FONT
 72
     5
 11
2770.762939
 21
1932.739258
  0
TEXT
  8
CSLAYER1
 62
     3
 10
3105.762939
 20
1932.739258
 40
40.000000
 41
0.881250
  1
 80
 50
0.000000
 51
0.000000
  7
EASYDRAW_FONT
 72
     5
 11
3199.762939
 21
1932.739258
  0
TEXT
  8
CSLAYER1
 62
     3
 10
3372.096191
 20
1932.739258
 40
40.000000
 41
0.930000
  1
ｍｍ
 50
0.000000
 51
0.000000
  7
EASYDRAW_FONT
 72
     5
 11
3434.096191
 21
1932.739258
  0
LINE
  8
CSLAYER1
  6
CONTINUOUS
 62
     5
 10
3447.429784
 20
1872.739491
 11
2567.429784
 21
1872.739491
  0
TEXT
  8
CSLAYER1
 62
     3
 10
2580.762939
 20
1879.405884
 40
40.000000
 41
0.846429
  1
リフト方式
 50
0.000000
 51
0.000000
  7
EASYDRAW_FONT
 72
     5
 11
2738.762939
 21
1879.405884
  0
TEXT
  8
CSLAYER1
 62
     3
 10
3073.762939
 20
1879.405884
 40
40.000000
 41
0.846429
  1
電動油圧式
 50
0.000000
 51
0.000000
  7
EASYDRAW_FONT
 72
     5
 11
3231.762939
 21
1879.405884
  0
LINE
  8
CSLAYER1
  6
CONTINUOUS
 62
     5
 10
3447.429784
 20
1712.739491
 11
2567.429784
 21
1712.739491
  0
TEXT
  8
CSLAYER1
 62
     3
 10
3073.762939
 20
1719.405762
 40
40.000000
 41
0.846429
  1
長さ 4m
 50
0.000000
 51
0.000000
  7
EASYDRAW_FONT
 72
     5
 11
3231.762939
 21
1719.405762
  0
TEXT
  8
CSLAYER1
 62
     3
 10
2580.762939
 20
1719.405762
 40
40.000000
 41
0.846429
  1
電源コード
 50
0.000000
 51
0.000000
  7
EASYDRAW_FONT
 72
     5
 11
2738.762939
 21
1719.405762
  0
TEXT
  8
CSLAYER1
 62
     3
 10
2580.762939
 20
1666.072510
 40
40.000000
 41
0.859091
  1
上昇時間
 50
0.000000
 51
0.000000
  7
EASYDRAW_FONT
 72
     5
 11
2706.762939
 21
1666.072510
  0
TEXT
  8
CSLAYER1
 62
     3
 10
2879.762959
 20
1666.072510
 40
40.000000
 41
0.660484
  1
約10sec/50Hz，8sec/60Hz
 50
0.000000
 51
0.000000
  7
EASYDRAW_FONT
 72
     5
 11
3425.762919
 21
1666.072510
  0
LINE
  8
CSLAYER1
  6
CONTINUOUS
 62
     5
 10
3447.429784
 20
1766.072825
 11
2567.429784
 21
1766.072825
  0
TEXT
  8
CSLAYER1
 62
     3
 10
2580.762939
 20
1772.739258
 40
40.000000
 41
0.859091
  1
モーター
 50
0.000000
 51
0.000000
  7
EASYDRAW_FONT
 72
     5
 11
2706.762939
 21
1772.739258
  0
TEXT
  8
CSLAYER1
 62
     3
 10
2913.762939
 20
1772.739258
 40
40.000000
 41
0.814773
  1
AC200V，三相，0.4kw
 50
0.000000
 51
0.000000
  7
EASYDRAW_FONT
 72
     5
 11
3391.762939
 21
1772.739258
  0
LINE
  8
CSLAYER1
  6
CONTINUOUS
 62
     5
 10
2871.429784
 20
1499.406155
 11
2871.429784
 21
1606.072821
  0
LINE
  8
CSLAYER1
  6
CONTINUOUS
 62
     5
 10
2871.429784
 20
1659.406158
 11
2871.429784
 21
2352.739491
  0
LINE
  8
CSLAYER1
  6
CONTINUOUS
 62
     3
 10
1382.164408
 20
2114.035634
 11
2182.164408
 21
2114.035634
  0
INSERT
  8
CSLAYER1
  2
BLKF0007
 10
0.0
 20
0.0
 30
0.0
  0
ARC
  8
CSLAYER1
  6
CONTINUOUS
 62
     3
 10
1389.464408
 20
1824.035634
 40
10.000000
 50
180.000000
 51
223.113606
  0
LINE
  8
CSLAYER1
  6
CONTINUOUS
 62
     3
 10
1382.164408
 20
1814.035634
 11
2182.164408
 21
1814.035634
  0
LINE
  8
CSLAYER1
  6
CONTINUOUS
 62
     3
 10
2182.164408
 20
2114.035634
 11
2182.164408
 21
1814.035634
  0
LINE
  8
CSLAYER1
  6
CONTINUOUS
 62
     3
 10
644.055581
 20
1407.655432
 11
644.055581
 21
1377.655432
  0
LINE
  8
CSLAYER1
  6
CONTINUOUS
 62
     3
 10
944.055581
 20
1407.655432
 11
944.055581
 21
1377.655432
  0
DIMENSION
  8
CSLAYER1
 62
     3
  2
*D0011
 10
944.055581
 20
1501.601806
 11
794.055664
 21
1511.601685
 13
644.055581
 23
1407.655432
 14
944.055581
 24
1407.655432
 70
1
  0
LINE
  8
CSLAYER1
  6
CONTINUOUS
 62
     3
 10
2594.035745
 20
846.091760
 11
2594.035745
 21
876.091760
  0
LINE
  8
CSLAYER1
  6
CONTINUOUS
 62
     3
 10
2894.035745
 20
846.091760
 11
2894.035745
 21
876.091760
  0
TEXT
  8
CSLAYER1
 62
     7
 10
484.906311
 20
2349.125732
 40
34.000000
 41
0.778846
  1
電動式油圧ユニット
 50
0.000000
 51
0.000000
  7
EASYDRAW_FONT
 72
     5
 11
714.406311
 21
2349.125732
  0
LINE
  8
CSLAYER1
  6
CONTINUOUS
 62
     5
 10
248.856473
 20
2402.739491
 11
967.048254
 21
2402.739491
  0
LINE
  8
CSLAYER1
  6
CONTINUOUS
 62
     5
 10
967.048254
 20
2402.739491
 11
967.048254
 21
1701.605221
  0
LINE
  8
CSLAYER1
  6
CONTINUOUS
 62
     5
 10
248.856473
 20
1701.605221
 11
248.856473
 21
2402.739491
  0
TEXT
  8
CSLAYER1
 62
     3
 10
385.913964
 20
2242.730329
 40
33.963734
 41
1.050000
  1
278
 50
30.000000
 51
0.000000
  7
EASYDRAW_FONT
 72
     5
 11
468.271639
 21
2290.279555
  0
TEXT
  8
CSLAYER1
 62
     3
 10
531.989714
 20
2276.823012
 40
33.963734
 41
1.050000
  1
415
 50
-30.000000
 51
0.000000
  7
EASYDRAW_FONT
 72
     5
 11
614.347389
 21
2229.273786
  0
TEXT
  8
CSLAYER1
 62
     3
 10
321.601557
 20
2110.181487
 40
33.963734
 41
1.050000
  1
275
 50
90.000000
 51
0.000000
  7
EASYDRAW_FONT
 72
     5
 11
321.601557
 21
2205.279939
  0
LINE
  8
CSLAYER1
  6
CONTINUOUS
 62
     5
 10
332.443939
 20
2202.736905
 11
369.804046
 21
2181.167037
  0
LINE
  8
CSLAYER1
  6
CONTINUOUS
 62
     5
 10
373.200419
 20
2226.267670
 11
373.200419
 21
2183.127934
  0
LINE
  8
CSLAYER1
  6
CONTINUOUS
 62
     5
 10
631.324792
 20
2214.502287
 11
631.324792
 21
2171.362552
  0
LINE
  8
CSLAYER1
  6
CONTINUOUS
 62
     5
 10
373.200419
 20
2218.424081
 11
492.073486
 21
2287.055478
  0
LINE
  8
CSLAYER1
  6
CONTINUOUS
 62
     5
 10
373.200419
 20
2218.424081
 11
394.413623
 21
2239.637285
  0
LINE
  8
CSLAYER1
  6
CONTINUOUS
 62
     5
 10
373.200419
 20
2218.424081
 11
402.178194
 21
2226.188653
  0
LINE
  8
CSLAYER1
  6
CONTINUOUS
 62
     5
 10
492.073486
 20
2287.055478
 11
470.860282
 21
2265.842275
  0
LINE
  8
CSLAYER1
  6
CONTINUOUS
 62
     5
 10
492.073486
 20
2287.055478
 11
463.095711
 21
2279.290907
  0
LINE
  8
CSLAYER1
  6
CONTINUOUS
 62
     5
 10
492.073486
 20
2287.055478
 11
631.324792
 21
2206.658699
  0
LINE
  8
CSLAYER1
  6
CONTINUOUS
 62
     5
 10
492.073486
 20
2287.055478
 11
521.051261
 21
2279.290907
  0
LINE
  8
CSLAYER1
  6
CONTINUOUS
 62
     5
 10
492.073486
 20
2287.055478
 11
513.286689
 21
2265.842275
  0
LINE
  8
CSLAYER1
  6
CONTINUOUS
 62
     5
 10
631.324792
 20
2206.658699
 11
602.347018
 21
2214.423270
  0
LINE
  8
CSLAYER1
  6
CONTINUOUS
 62
     5
 10
631.324792
 20
2206.658699
 11
610.111589
 21
2227.871903
  0
LINE
  8
CSLAYER1
  6
CONTINUOUS
 62
     5
 10
492.073486
 20
2294.899067
 11
492.073486
 21
2251.759331
  0
LINE
  8
CSLAYER1
  6
CONTINUOUS
 62
     5
 10
339.236686
 20
2198.815111
 11
339.236686
 21
2100.770258
  0
LINE
  8
CSLAYER1
  6
CONTINUOUS
 62
     5
 10
339.236686
 20
2198.815111
 11
331.472114
 21
2169.837336
  0
LINE
  8
CSLAYER1
  6
CONTINUOUS
 62
     5
 10
339.236686
 20
2198.815111
 11
347.001257
 21
2169.837336
  0
LINE
  8
CSLAYER1
  6
CONTINUOUS
 62
     5
 10
339.236686
 20
2100.770258
 11
331.472114
 21
2129.748033
  0
LINE
  8
CSLAYER1
  6
CONTINUOUS
 62
     5
 10
339.236686
 20
2100.770258
 11
347.001257
 21
2129.748033
  0
TEXT
  8
CSLAYER1
 62
     3
 10
747.839153
 20
2183.314276
 40
33.963734
 41
1.028571
  1
高圧ホース
 50
0.000000
 51
0.000000
  7
EASYDRAW_FONT
 72
     5
 11
910.865070
 21
2183.314276
  0
TEXT
  8
CSLAYER1
 62
     3
 10
303.136761
 20
1974.002264
 40
33.963734
 41
1.028571
  1
電源コード
 50
0.000000
 51
0.000000
  7
EASYDRAW_FONT
 72
     5
 11
466.162678
 21
1974.002264
  0
LINE
  8
CSLAYER1
  6
CONTINUOUS
 62
     5
 10
662.531097
 20
2049.269630
 11
735.915612
 21
2176.375338
  0
LINE
  8
CSLAYER1
  6
CONTINUOUS
 62
     5
 10
662.531097
 20
2049.269630
 11
670.295669
 21
2078.247405
  0
LINE
  8
CSLAYER1
  6
CONTINUOUS
 62
     5
 10
662.531097
 20
2049.269630
 11
683.744301
 21
2070.482833
  0
LINE
  8
CSLAYER1
  6
CONTINUOUS
 62
     5
 10
923.522908
 20
2176.375338
 11
735.915612
 21
2176.375338
  0
LINE
  8
CSLAYER1
  6
CONTINUOUS
 62
     5
 10
305.294012
 20
1967.685923
 11
469.975119
 21
1967.685923
  0
LINE
  8
CSLAYER1
  6
CONTINUOUS
 62
     3
 10
512.451726
 20
2000.764508
 11
547.434371
 21
2020.961748
  0
LINE
  8
CSLAYER1
  6
CONTINUOUS
 62
     3
 10
373.200419
 20
2081.161287
 11
381.691352
 21
2076.259045
  0
LINE
  8
CSLAYER1
  6
CONTINUOUS
 62
     3
 10
512.451726
 20
2098.809361
 11
512.451726
 21
2000.764508
  0
LINE
  8
CSLAYER1
  6
CONTINUOUS
 62
     3
 10
512.451726
 20
2098.809361
 11
631.324792
 21
2167.440758
  0
LINE
  8
CSLAYER1
  6
CONTINUOUS
 62
     3
 10
492.073486
 20
2247.837537
 11
631.324792
 21
2167.440758
  0
LINE
  8
CSLAYER1
  6
CONTINUOUS
 62
     3
 10
512.451726
 20
2020.373479
 11
530.452504
 21
2030.766233
  0
LINE
  8
CSLAYER1
  6
CONTINUOUS
 62
     3
 10
595.974640
 20
2109.414296
 11
631.324792
 21
2089.004876
  0
LINE
  8
CSLAYER1
  6
CONTINUOUS
 62
     3
 10
503.960792
 20
2005.666751
 11
512.451726
 21
2000.764508
  0
LINE
  8
CSLAYER1
  6
CONTINUOUS
 62
     3
 10
593.964686
 20
2110.966923
 11
592.736675
 21
2111.556526
  0
LINE
  8
CSLAYER1
  6
CONTINUOUS
 62
     3
 10
592.736675
 20
2111.556526
 11
591.414616
 21
2111.962559
  0
LINE
  8
CSLAYER1
  6
CONTINUOUS
 62
     3
 10
591.414616
 20
2111.962559
 11
590.008570
 21
2112.181932
  0
LINE
  8
CSLAYER1
  6
CONTINUOUS
 62
     3
 10
590.008570
 20
2112.181932
 11
588.529240
 21
2112.212974
  0
LINE
  8
CSLAYER1
  6
CONTINUOUS
 62
     3
 10
588.529240
 20
2112.212974
 11
586.987882
 21
2112.055449
  0
LINE
  8
CSLAYER1
  6
CONTINUOUS
 62
     3
 10
586.987882
 20
2112.055449
 11
585.396229
 21
2111.710557
  0
LINE
  8
CSLAYER1
  6
CONTINUOUS
 62
     3
 10
585.396229
 20
2111.710557
 11
583.766393
 21
2111.180922
  0
LINE
  8
CSLAYER1
  6
CONTINUOUS
 62
     3
 10
583.766393
 20
2111.180922
 11
582.110778
 21
2110.470575
  0
LINE
  8
CSLAYER1
  6
CONTINUOUS
 62
     3
 10
582.110778
 20
2110.470575
 11
580.441984
 21
2109.584923
  0
LINE
  8
CSLAYER1
  6
CONTINUOUS
 62
     3
 10
580.441984
 20
2109.584923
 11
578.772713
 21
2108.530704
  0
LINE
  8
CSLAYER1
  6
CONTINUOUS
 62
     3
 10
578.772713
 20
2108.530704
 11
577.115668
 21
2107.315944
  0
LINE
  8
CSLAYER1
  6
CONTINUOUS
 62
     3
 10
577.115668
 20
2107.315944
 11
575.483461
 21
2105.949886
  0
LINE
  8
CSLAYER1
  6
CONTINUOUS
 62
     3
 10
575.483461
 20
2105.949886
 11
573.888513
 21
2104.442928
  0
LINE
  8
CSLAYER1
  6
CONTINUOUS
 62
     3
 10
573.888513
 20
2104.442928
 11
572.342963
 21
2102.806538
  0
LINE
  8
CSLAYER1
  6
CONTINUOUS
 62
     3
 10
572.342963
 20
2102.806538
 11
570.858573
 21
2101.053170
  0
LINE
  8
CSLAYER1
  6
CONTINUOUS
 62
     3
 10
570.858573
 20
2101.053170
 11
569.446642
 21
2099.196168
  0
LINE
  8
CSLAYER1
  6
CONTINUOUS
 62
     3
 10
569.446642
 20
2099.196168
 11
568.117913
 21
2097.249666
  0
LINE
  8
CSLAYER1
  6
CONTINUOUS
 62
     3
 10
568.117913
 20
2097.249666
 11
566.882500
 21
2095.228477
  0
LINE
  8
CSLAYER1
  6
CONTINUOUS
 62
     3
 10
566.882500
 20
2095.228477
 11
565.749806
 21
2093.147983
  0
LINE
  8
CSLAYER1
  6
CONTINUOUS
 62
     3
 10
565.749806
 20
2093.147983
 11
564.728449
 21
2091.024020
  0
LINE
  8
CSLAYER1
  6
CONTINUOUS
 62
     3
 10
564.728449
 20
2091.024020
 11
563.826205
 21
2088.872750
  0
LINE
  8
CSLAYER1
  6
CONTINUOUS
 62
     3
 10
563.826205
 20
2088.872750
 11
563.049938
 21
2086.710547
  0
LINE
  8
CSLAYER1
  6
CONTINUOUS
 62
     3
 10
563.049938
 20
2086.710547
 11
562.405558
 21
2084.553866
  0
LINE
  8
CSLAYER1
  6
CONTINUOUS
 62
     3
 10
562.405558
 20
2084.553866
 11
561.897968
 21
2082.419122
  0
LINE
  8
CSLAYER1
  6
CONTINUOUS
 62
     3
 10
561.897968
 20
2082.419122
 11
561.531031
 21
2080.322560
  0
LINE
  8
CSLAYER1
  6
CONTINUOUS
 62
     3
 10
561.531031
 20
2080.322560
 11
561.307540
 21
2078.280136
  0
LINE
  8
CSLAYER1
  6
CONTINUOUS
 62
     3
 10
561.307540
 20
2078.280136
 11
561.229195
 21
2076.307396
  0
LINE
  8
CSLAYER1
  6
CONTINUOUS
 62
     3
 10
561.229195
 20
2076.307396
 11
561.296594
 21
2074.419352
  0
LINE
  8
CSLAYER1
  6
CONTINUOUS
 62
     3
 10
561.296594
 20
2074.419352
 11
561.509223
 21
2072.630374
  0
LINE
  8
CSLAYER1
  6
CONTINUOUS
 62
     3
 10
561.509223
 20
2072.630374
 11
561.865464
 21
2070.954077
  0
LINE
  8
CSLAYER1
  6
CONTINUOUS
 62
     3
 10
561.865464
 20
2070.954077
 11
562.362606
 21
2069.403219
  0
LINE
  8
CSLAYER1
  6
CONTINUOUS
 62
     3
 10
562.362606
 20
2069.403219
 11
562.996864
 21
2067.989602
  0
LINE
  8
CSLAYER1
  6
CONTINUOUS
 62
     3
 10
562.996864
 20
2067.989602
 11
563.763413
 21
2066.723985
  0
LINE
  8
CSLAYER1
  6
CONTINUOUS
 62
     3
 10
563.763413
 20
2066.723985
 11
564.656417
 21
2065.616000
  0
LINE
  8
CSLAYER1
  6
CONTINUOUS
 62
     3
 10
565.669082
 20
2064.674080
 11
566.793699
 21
2063.905393
  0
LINE
  8
CSLAYER1
  6
CONTINUOUS
 62
     3
 10
566.793699
 20
2063.905393
 11
568.021710
 21
2063.315790
  0
LINE
  8
CSLAYER1
  6
CONTINUOUS
 62
     3
 10
568.021710
 20
2063.315790
 11
569.343769
 21
2062.909756
  0
LINE
  8
CSLAYER1
  6
CONTINUOUS
 62
     3
 10
569.343769
 20
2062.909756
 11
570.749815
 21
2062.690384
  0
LINE
  8
CSLAYER1
  6
CONTINUOUS
 62
     3
 10
570.749815
 20
2062.690384
 11
572.229145
 21
2062.659342
  0
LINE
  8
CSLAYER1
  6
CONTINUOUS
 62
     3
 10
572.229145
 20
2062.659342
 11
573.770503
 21
2062.816866
  0
LINE
  8
CSLAYER1
  6
CONTINUOUS
 62
     3
 10
573.770503
 20
2062.816866
 11
575.362156
 21
2063.161759
  0
LINE
  8
CSLAYER1
  6
CONTINUOUS
 62
     3
 10
575.362156
 20
2063.161759
 11
576.991992
 21
2063.691393
  0
LINE
  8
CSLAYER1
  6
CONTINUOUS
 62
     3
 10
576.991992
 20
2063.691393
 11
578.647607
 21
2064.401740
  0
LINE
  8
CSLAYER1
  6
CONTINUOUS
 62
     3
 10
578.647607
 20
2064.401740
 11
580.316401
 21
2065.287393
  0
LINE
  8
CSLAYER1
  6
CONTINUOUS
 62
     3
 10
580.316401
 20
2065.287393
 11
581.985672
 21
2066.341611
  0
LINE
  8
CSLAYER1
  6
CONTINUOUS
 62
     3
 10
581.985672
 20
2066.341611
 11
583.642717
 21
2067.556372
  0
LINE
  8
CSLAYER1
  6
CONTINUOUS
 62
     3
 10
583.642717
 20
2067.556372
 11
585.274924
 21
2068.922430
  0
LINE
  8
CSLAYER1
  6
CONTINUOUS
 62
     3
 10
585.274924
 20
2068.922430
 11
586.869872
 21
2070.429388
  0
LINE
  8
CSLAYER1
  6
CONTINUOUS
 62
     3
 10
586.869872
 20
2070.429388
 11
588.415422
 21
2072.065778
  0
LINE
  8
CSLAYER1
  6
CONTINUOUS
 62
     3
 10
588.415422
 20
2072.065778
 11
589.899812
 21
2073.819146
  0
LINE
  8
CSLAYER1
  6
CONTINUOUS
 62
     3
 10
589.899812
 20
2073.819146
 11
591.311743
 21
2075.676148
  0
LINE
  8
CSLAYER1
  6
CONTINUOUS
 62
     3
 10
591.311743
 20
2075.676148
 11
592.640472
 21
2077.622650
  0
LINE
  8
CSLAYER1
  6
CONTINUOUS
 62
     3
 10
592.640472
 20
2077.622650
 11
593.875885
 21
2079.643839
  0
LINE
  8
CSLAYER1
  6
CONTINUOUS
 62
     3
 10
593.875885
 20
2079.643839
 11
595.008579
 21
2081.724332
  0
LINE
  8
CSLAYER1
  6
CONTINUOUS
 62
     3
 10
595.008579
 20
2081.724332
 11
596.029936
 21
2083.848296
  0
LINE
  8
CSLAYER1
  6
CONTINUOUS
 62
     3
 10
596.029936
 20
2083.848296
 11
596.932180
 21
2085.999566
  0
LINE
  8
CSLAYER1
  6
CONTINUOUS
 62
     3
 10
596.932180
 20
2085.999566
 11
597.708447
 21
2088.161769
  0
LINE
  8
CSLAYER1
  6
CONTINUOUS
 62
     3
 10
597.708447
 20
2088.161769
 11
598.352827
 21
2090.318450
  0
LINE
  8
CSLAYER1
  6
CONTINUOUS
 62
     3
 10
598.352827
 20
2090.318450
 11
598.860417
 21
2092.453194
  0
LINE
  8
CSLAYER1
  6
CONTINUOUS
 62
     3
 10
598.860417
 20
2092.453194
 11
599.227354
 21
2094.549756
  0
LINE
  8
CSLAYER1
  6
CONTINUOUS
 62
     3
 10
599.227354
 20
2094.549756
 11
599.450845
 21
2096.592179
  0
LINE
  8
CSLAYER1
  6
CONTINUOUS
 62
     3
 10
599.450845
 20
2096.592179
 11
599.529189
 21
2098.564920
  0
LINE
  8
CSLAYER1
  6
CONTINUOUS
 62
     3
 10
599.529189
 20
2098.564920
 11
599.461791
 21
2100.452963
  0
LINE
  8
CSLAYER1
  6
CONTINUOUS
 62
     3
 10
599.461791
 20
2100.452963
 11
599.249162
 21
2102.241941
  0
LINE
  8
CSLAYER1
  6
CONTINUOUS
 62
     3
 10
599.249162
 20
2102.241941
 11
598.892921
 21
2103.918239
  0
LINE
  8
CSLAYER1
  6
CONTINUOUS
 62
     3
 10
598.892921
 20
2103.918239
 11
598.395779
 21
2105.469097
  0
LINE
  8
CSLAYER1
  6
CONTINUOUS
 62
     3
 10
598.395779
 20
2105.469097
 11
597.761521
 21
2106.882714
  0
LINE
  8
CSLAYER1
  6
CONTINUOUS
 62
     3
 10
597.761521
 20
2106.882714
 11
596.994972
 21
2108.148331
  0
LINE
  8
CSLAYER1
  6
CONTINUOUS
 62
     3
 10
596.994972
 20
2108.148331
 11
596.101968
 21
2109.256315
  0
LINE
  8
CSLAYER1
  6
CONTINUOUS
 62
     3
 10
596.101968
 20
2109.256315
 11
595.089303
 21
2110.198236
  0
LINE
  8
CSLAYER1
  6
CONTINUOUS
 62
     3
 10
595.089303
 20
2110.198236
 11
593.964686
 21
2110.966923
  0
LINE
  8
CSLAYER1
  6
CONTINUOUS
 62
     3
 10
512.451726
 20
2095.279746
 11
566.793699
 21
2063.905393
  0
LINE
  8
CSLAYER1
  6
CONTINUOUS
 62
     3
 10
563.736963
 20
2128.418906
 11
593.964686
 21
2110.966923
  0
LINE
  8
CSLAYER1
  6
CONTINUOUS
 62
     3
 10
381.691352
 20
2076.259045
 11
398.673219
 21
2086.063530
  0
LINE
  8
CSLAYER1
  6
CONTINUOUS
 62
     3
 10
373.200419
 20
2081.161287
 11
390.182286
 21
2090.965773
  0
LINE
  8
CSLAYER1
  6
CONTINUOUS
 62
     3
 10
585.473752
 20
2096.260195
 11
585.013248
 21
2096.481296
  0
LINE
  8
CSLAYER1
  6
CONTINUOUS
 62
     3
 10
585.013248
 20
2096.481296
 11
584.517476
 21
2096.633558
  0
LINE
  8
CSLAYER1
  6
CONTINUOUS
 62
     3
 10
584.517476
 20
2096.633558
 11
583.990209
 21
2096.715823
  0
LINE
  8
CSLAYER1
  6
CONTINUOUS
 62
     3
 10
583.990209
 20
2096.715823
 11
583.435460
 21
2096.727464
  0
LINE
  8
CSLAYER1
  6
CONTINUOUS
 62
     3
 10
583.435460
 20
2096.727464
 11
582.857451
 21
2096.668392
  0
LINE
  8
CSLAYER1
  6
CONTINUOUS
 62
     3
 10
582.857451
 20
2096.668392
 11
582.260581
 21
2096.539058
  0
LINE
  8
CSLAYER1
  6
CONTINUOUS
 62
     3
 10
582.260581
 20
2096.539058
 11
581.649392
 21
2096.340445
  0
LINE
  8
CSLAYER1
  6
CONTINUOUS
 62
     3
 10
581.649392
 20
2096.340445
 11
581.028537
 21
2096.074065
  0
LINE
  8
CSLAYER1
  6
CONTINUOUS
 62
     3
 10
581.028537
 20
2096.074065
 11
580.402739
 21
2095.741945
  0
LINE
  8
CSLAYER1
  6
CONTINUOUS
 62
     3
 10
580.402739
 20
2095.741945
 11
579.776763
 21
2095.346613
  0
LINE
  8
CSLAYER1
  6
CONTINUOUS
 62
     3
 10
579.776763
 20
2095.346613
 11
579.155371
 21
2094.891078
  0
LINE
  8
CSLAYER1
  6
CONTINUOUS
 62
     3
 10
579.155371
 20
2094.891078
 11
578.543293
 21
2094.378806
  0
LINE
  8
CSLAYER1
  6
CONTINUOUS
 62
     3
 10
578.543293
 20
2094.378806
 11
577.945188
 21
2093.813697
  0
LINE
  8
CSLAYER1
  6
CONTINUOUS
 62
     3
 10
577.945188
 20
2093.813697
 11
577.365606
 21
2093.200050
  0
LINE
  8
CSLAYER1
  6
CONTINUOUS
 62
     3
 10
577.365606
 20
2093.200050
 11
576.808960
 21
2092.542537
  0
LINE
  8
CSLAYER1
  6
CONTINUOUS
 62
     3
 10
576.808960
 20
2092.542537
 11
576.279486
 21
2091.846162
  0
LINE
  8
CSLAYER1
  6
CONTINUOUS
 62
     3
 10
576.279486
 20
2091.846162
 11
575.781213
 21
2091.116223
  0
LINE
  8
CSLAYER1
  6
CONTINUOUS
 62
     3
 10
575.781213
 20
2091.116223
 11
575.317933
 21
2090.358278
  0
LINE
  8
CSLAYER1
  6
CONTINUOUS
 62
     3
 10
575.317933
 20
2090.358278
 11
574.893172
 21
2089.578092
  0
LINE
  8
CSLAYER1
  6
CONTINUOUS
 62
     3
 10
574.893172
 20
2089.578092
 11
574.510164
 21
2088.781606
  0
LINE
  8
CSLAYER1
  6
CONTINUOUS
 62
     3
 10
574.510164
 20
2088.781606
 11
574.171822
 21
2087.974880
  0
LINE
  8
CSLAYER1
  6
CONTINUOUS
 62
     3
 10
574.171822
 20
2087.974880
 11
573.880722
 21
2087.164054
  0
LINE
  8
CSLAYER1
  6
CONTINUOUS
 62
     3
 10
573.880722
 20
2087.164054
 11
573.639079
 21
2086.355299
  0
LINE
  8
CSLAYER1
  6
CONTINUOUS
 62
     3
 10
573.639079
 20
2086.355299
 11
573.448733
 21
2085.554769
  0
LINE
  8
CSLAYER1
  6
CONTINUOUS
 62
     3
 10
573.448733
 20
2085.554769
 11
573.311132
 21
2084.768559
  0
LINE
  8
CSLAYER1
  6
CONTINUOUS
 62
     3
 10
573.311132
 20
2084.768559
 11
573.227323
 21
2084.002650
  0
LINE
  8
CSLAYER1
  6
CONTINUOUS
 62
     3
 10
573.227323
 20
2084.002650
 11
573.197944
 21
2083.262872
  0
LINE
  8
CSLAYER1
  6
CONTINUOUS
 62
     3
 10
573.197944
 20
2083.262872
 11
573.223218
 21
2082.554856
  0
LINE
  8
CSLAYER1
  6
CONTINUOUS
 62
     3
 10
573.223218
 20
2082.554856
 11
573.302954
 21
2081.883989
  0
LINE
  8
CSLAYER1
  6
CONTINUOUS
 62
     3
 10
573.302954
 20
2081.883989
 11
573.436544
 21
2081.255378
  0
LINE
  8
CSLAYER1
  6
CONTINUOUS
 62
     3
 10
573.436544
 20
2081.255378
 11
573.622972
 21
2080.673806
  0
LINE
  8
CSLAYER1
  6
CONTINUOUS
 62
     3
 10
573.622972
 20
2080.673806
 11
573.860819
 21
2080.143699
  0
LINE
  8
CSLAYER1
  6
CONTINUOUS
 62
     3
 10
573.860819
 20
2080.143699
 11
574.148275
 21
2079.669093
  0
LINE
  8
CSLAYER1
  6
CONTINUOUS
 62
     3
 10
574.148275
 20
2079.669093
 11
574.483152
 21
2079.253599
  0
LINE
  8
CSLAYER1
  6
CONTINUOUS
 62
     3
 10
574.483152
 20
2079.253599
 11
574.862901
 21
2078.900379
  0
LINE
  8
CSLAYER1
  6
CONTINUOUS
 62
     3
 10
574.862901
 20
2078.900379
 11
575.284632
 21
2078.612121
  0
LINE
  8
CSLAYER1
  6
CONTINUOUS
 62
     3
 10
575.284632
 20
2078.612121
 11
575.745137
 21
2078.391020
  0
LINE
  8
CSLAYER1
  6
CONTINUOUS
 62
     3
 10
575.745137
 20
2078.391020
 11
576.240909
 21
2078.238757
  0
LINE
  8
CSLAYER1
  6
CONTINUOUS
 62
     3
 10
576.240909
 20
2078.238757
 11
576.768176
 21
2078.156493
  0
LINE
  8
CSLAYER1
  6
CONTINUOUS
 62
     3
 10
576.768176
 20
2078.156493
 11
577.322925
 21
2078.144852
  0
LINE
  8
CSLAYER1
  6
CONTINUOUS
 62
     3
 10
577.322925
 20
2078.144852
 11
577.900934
 21
2078.203924
  0
LINE
  8
CSLAYER1
  6
CONTINUOUS
 62
     3
 10
577.900934
 20
2078.203924
 11
578.497804
 21
2078.333258
  0
LINE
  8
CSLAYER1
  6
CONTINUOUS
 62
     3
 10
578.497804
 20
2078.333258
 11
579.108992
 21
2078.531871
  0
LINE
  8
CSLAYER1
  6
CONTINUOUS
 62
     3
 10
579.108992
 20
2078.531871
 11
579.729848
 21
2078.798251
  0
LINE
  8
CSLAYER1
  6
CONTINUOUS
 62
     3
 10
579.729848
 20
2078.798251
 11
580.355646
 21
2079.130371
  0
LINE
  8
CSLAYER1
  6
CONTINUOUS
 62
     3
 10
580.355646
 20
2079.130371
 11
580.981622
 21
2079.525703
  0
LINE
  8
CSLAYER1
  6
CONTINUOUS
 62
     3
 10
580.981622
 20
2079.525703
 11
581.603014
 21
2079.981238
  0
LINE
  8
CSLAYER1
  6
CONTINUOUS
 62
     3
 10
581.603014
 20
2079.981238
 11
582.215092
 21
2080.493510
  0
LINE
  8
CSLAYER1
  6
CONTINUOUS
 62
     3
 10
582.215092
 20
2080.493510
 11
582.813197
 21
2081.058619
  0
LINE
  8
CSLAYER1
  6
CONTINUOUS
 62
     3
 10
582.813197
 20
2081.058619
 11
583.392779
 21
2081.672265
  0
LINE
  8
CSLAYER1
  6
CONTINUOUS
 62
     3
 10
583.392779
 20
2081.672265
 11
583.949425
 21
2082.329778
  0
LINE
  8
CSLAYER1
  6
CONTINUOUS
 62
     3
 10
583.949425
 20
2082.329778
 11
584.478899
 21
2083.026154
  0
LINE
  8
CSLAYER1
  6
CONTINUOUS
 62
     3
 10
584.478899
 20
2083.026154
 11
584.977172
 21
2083.756092
  0
LINE
  8
CSLAYER1
  6
CONTINUOUS
 62
     3
 10
584.977172
 20
2083.756092
 11
585.440452
 21
2084.514038
  0
LINE
  8
CSLAYER1
  6
CONTINUOUS
 62
     3
 10
585.440452
 20
2084.514038
 11
585.865213
 21
2085.294223
  0
LINE
  8
CSLAYER1
  6
CONTINUOUS
 62
     3
 10
585.865213
 20
2085.294223
 11
586.248221
 21
2086.090710
  0
LINE
  8
CSLAYER1
  6
CONTINUOUS
 62
     3
 10
586.248221
 20
2086.090710
 11
586.586563
 21
2086.897436
  0
LINE
  8
CSLAYER1
  6
CONTINUOUS
 62
     3
 10
586.586563
 20
2086.897436
 11
586.877663
 21
2087.708262
  0
LINE
  8
CSLAYER1
  6
CONTINUOUS
 62
     3
 10
586.877663
 20
2087.708262
 11
587.119306
 21
2088.517017
  0
LINE
  8
CSLAYER1
  6
CONTINUOUS
 62
     3
 10
587.119306
 20
2088.517017
 11
587.309652
 21
2089.317547
  0
LINE
  8
CSLAYER1
  6
CONTINUOUS
 62
     3
 10
587.309652
 20
2089.317547
 11
587.447253
 21
2090.103757
  0
LINE
  8
CSLAYER1
  6
CONTINUOUS
 62
     3
 10
587.447253
 20
2090.103757
 11
587.531062
 21
2090.869666
  0
LINE
  8
CSLAYER1
  6
CONTINUOUS
 62
     3
 10
587.531062
 20
2090.869666
 11
587.560441
 21
2091.609444
  0
LINE
  8
CSLAYER1
  6
CONTINUOUS
 62
     3
 10
587.560441
 20
2091.609444
 11
587.535167
 21
2092.317460
  0
LINE
  8
CSLAYER1
  6
CONTINUOUS
 62
     3
 10
587.535167
 20
2092.317460
 11
587.455431
 21
2092.988327
  0
LINE
  8
CSLAYER1
  6
CONTINUOUS
 62
     3
 10
587.455431
 20
2092.988327
 11
587.321841
 21
2093.616938
  0
LINE
  8
CSLAYER1
  6
CONTINUOUS
 62
     3
 10
587.321841
 20
2093.616938
 11
587.135413
 21
2094.198510
  0
LINE
  8
CSLAYER1
  6
CONTINUOUS
 62
     3
 10
587.135413
 20
2094.198510
 11
586.897566
 21
2094.728616
  0
LINE
  8
CSLAYER1
  6
CONTINUOUS
 62
     3
 10
586.897566
 20
2094.728616
 11
586.610110
 21
2095.203223
  0
LINE
  8
CSLAYER1
  6
CONTINUOUS
 62
     3
 10
586.610110
 20
2095.203223
 11
586.275233
 21
2095.618717
  0
LINE
  8
CSLAYER1
  6
CONTINUOUS
 62
     3
 10
586.275233
 20
2095.618717
 11
585.895484
 21
2095.971937
  0
LINE
  8
CSLAYER1
  6
CONTINUOUS
 62
     3
 10
585.895484
 20
2095.971937
 11
585.473752
 21
2096.260195
  0
LINE
  8
CSLAYER1
  6
CONTINUOUS
 62
     3
 10
575.284632
 20
2135.085956
 11
631.324792
 21
2102.731155
  0
LINE
  8
CSLAYER1
  6
CONTINUOUS
 62
     3
 10
503.960792
 20
2005.666751
 11
512.451726
 21
2010.568993
  0
LINE
  8
CSLAYER1
  6
CONTINUOUS
 62
     3
 10
595.013053
 20
2081.732550
 11
850.959627
 21
1933.961727
  0
LINE
  8
CSLAYER1
  6
CONTINUOUS
 62
     3
 10
512.451726
 20
2045.865140
 11
661.184024
 21
1959.994508
  0
LINE
  8
CSLAYER1
  6
CONTINUOUS
 62
     3
 10
512.451726
 20
2041.158987
 11
638.921751
 21
1968.141484
  0
LINE
  8
CSLAYER1
  6
CONTINUOUS
 62
     3
 10
534.528152
 20
2033.119309
 11
602.620904
 21
2072.432678
  0
LINE
  8
CSLAYER1
  6
CONTINUOUS
 62
     3
 10
551.510019
 20
2023.314824
 11
619.602771
 21
2062.628193
  0
LINE
  8
CSLAYER1
  6
CONTINUOUS
 62
     3
 10
606.870904
 20
2074.886417
 11
631.324792
 21
2089.004876
  0
LINE
  8
CSLAYER1
  6
CONTINUOUS
 62
     3
 10
623.852771
 20
2065.081931
 11
631.324792
 21
2069.395905
  0
LINE
  8
CSLAYER1
  6
CONTINUOUS
 62
     3
 10
674.090243
 20
1934.110667
 11
673.870531
 21
1936.997034
  0
LINE
  8
CSLAYER1
  6
CONTINUOUS
 62
     3
 10
673.870531
 20
1936.997034
 11
673.213068
 21
1939.861435
  0
LINE
  8
CSLAYER1
  6
CONTINUOUS
 62
     3
 10
673.213068
 20
1939.861435
 11
672.122856
 21
1942.682069
  0
LINE
  8
CSLAYER1
  6
CONTINUOUS
 62
     3
 10
672.122856
 20
1942.682069
 11
670.608194
 21
1945.437469
  0
LINE
  8
CSLAYER1
  6
CONTINUOUS
 62
     3
 10
670.608194
 20
1945.437469
 11
668.680609
 21
1948.106666
  0
LINE
  8
CSLAYER1
  6
CONTINUOUS
 62
     3
 10
668.680609
 20
1948.106666
 11
666.354771
 21
1950.669344
  0
LINE
  8
CSLAYER1
  6
CONTINUOUS
 62
     3
 10
666.354771
 20
1950.669344
 11
663.648381
 21
1953.106001
  0
LINE
  8
CSLAYER1
  6
CONTINUOUS
 62
     3
 10
663.648381
 20
1953.106001
 11
660.582036
 21
1955.398092
  0
LINE
  8
CSLAYER1
  6
CONTINUOUS
 62
     3
 10
660.582036
 20
1955.398092
 11
657.179073
 21
1957.528173
  0
LINE
  8
CSLAYER1
  6
CONTINUOUS
 62
     3
 10
657.179073
 20
1957.528173
 11
653.465390
 21
1959.480033
  0
LINE
  8
CSLAYER1
  6
CONTINUOUS
 62
     3
 10
653.465390
 20
1959.480033
 11
649.469251
 21
1961.238816
  0
LINE
  8
CSLAYER1
  6
CONTINUOUS
 62
     3
 10
649.469251
 20
1961.238816
 11
645.221069
 21
1962.791138
  0
LINE
  8
CSLAYER1
  6
CONTINUOUS
 62
     3
 10
645.221069
 20
1962.791138
 11
640.753176
 21
1964.125184
  0
LINE
  8
CSLAYER1
  6
CONTINUOUS
 62
     3
 10
640.753176
 20
1964.125184
 11
636.099574
 21
1965.230801
  0
LINE
  8
CSLAYER1
  6
CONTINUOUS
 62
     3
 10
636.099574
 20
1965.230801
 11
631.295680
 21
1966.099575
  0
LINE
  8
CSLAYER1
  6
CONTINUOUS
 62
     3
 10
631.295680
 20
1966.099575
 11
626.378055
 21
1966.724895
  0
LINE
  8
CSLAYER1
  6
CONTINUOUS
 62
     3
 10
626.378055
 20
1966.724895
 11
621.384125
 21
1967.102000
  0
LINE
  8
CSLAYER1
  6
CONTINUOUS
 62
     3
 10
621.384125
 20
1967.102000
 11
616.351896
 21
1967.228022
  0
LINE
  8
CSLAYER1
  6
CONTINUOUS
 62
     3
 10
616.351896
 20
1967.228022
 11
611.319668
 21
1967.102000
  0
LINE
  8
CSLAYER1
  6
CONTINUOUS
 62
     3
 10
611.319668
 20
1967.102000
 11
606.325737
 21
1966.724895
  0
LINE
  8
CSLAYER1
  6
CONTINUOUS
 62
     3
 10
606.325737
 20
1966.724895
 11
601.408112
 21
1966.099575
  0
LINE
  8
CSLAYER1
  6
CONTINUOUS
 62
     3
 10
601.408112
 20
1966.099575
 11
596.604219
 21
1965.230801
  0
LINE
  8
CSLAYER1
  6
CONTINUOUS
 62
     3
 10
596.604219
 20
1965.230801
 11
591.950616
 21
1964.125184
  0
LINE
  8
CSLAYER1
  6
CONTINUOUS
 62
     3
 10
591.950616
 20
1964.125184
 11
587.482723
 21
1962.791138
  0
LINE
  8
CSLAYER1
  6
CONTINUOUS
 62
     3
 10
587.482723
 20
1962.791138
 11
583.234541
 21
1961.238816
  0
LINE
  8
CSLAYER1
  6
CONTINUOUS
 62
     3
 10
583.234541
 20
1961.238816
 11
579.238402
 21
1959.480033
  0
LINE
  8
CSLAYER1
  6
CONTINUOUS
 62
     3
 10
579.238402
 20
1959.480033
 11
575.524720
 21
1957.528173
  0
LINE
  8
CSLAYER1
  6
CONTINUOUS
 62
     3
 10
575.524720
 20
1957.528173
 11
572.121756
 21
1955.398092
  0
LINE
  8
CSLAYER1
  6
CONTINUOUS
 62
     3
 10
572.121756
 20
1955.398092
 11
569.055411
 21
1953.106001
  0
LINE
  8
CSLAYER1
  6
CONTINUOUS
 62
     3
 10
569.055411
 20
1953.106001
 11
566.349021
 21
1950.669344
  0
LINE
  8
CSLAYER1
  6
CONTINUOUS
 62
     3
 10
566.349021
 20
1950.669344
 11
564.023183
 21
1948.106666
  0
LINE
  8
CSLAYER1
  6
CONTINUOUS
 62
     3
 10
564.023183
 20
1948.106666
 11
562.095598
 21
1945.437469
  0
LINE
  8
CSLAYER1
  6
CONTINUOUS
 62
     3
 10
562.095598
 20
1945.437469
 11
560.580936
 21
1942.682069
  0
LINE
  8
CSLAYER1
  6
CONTINUOUS
 62
     3
 10
560.580936
 20
1942.682069
 11
559.490725
 21
1939.861435
  0
LINE
  8
CSLAYER1
  6
CONTINUOUS
 62
     3
 10
559.490725
 20
1939.861435
 11
558.833261
 21
1936.997034
  0
LINE
  8
CSLAYER1
  6
CONTINUOUS
 62
     3
 10
558.833261
 20
1936.997034
 11
558.613549
 21
1934.110667
  0
LINE
  8
CSLAYER1
  6
CONTINUOUS
 62
     3
 10
558.613549
 20
1934.110667
 11
558.833261
 21
1931.224299
  0
LINE
  8
CSLAYER1
  6
CONTINUOUS
 62
     3
 10
558.833261
 20
1931.224299
 11
559.490725
 21
1928.359898
  0
LINE
  8
CSLAYER1
  6
CONTINUOUS
 62
     3
 10
559.490725
 20
1928.359898
 11
560.580936
 21
1925.539264
  0
LINE
  8
CSLAYER1
  6
CONTINUOUS
 62
     3
 10
560.580936
 20
1925.539264
 11
562.095598
 21
1922.783864
  0
LINE
  8
CSLAYER1
  6
CONTINUOUS
 62
     3
 10
562.095598
 20
1922.783864
 11
564.023183
 21
1920.114668
  0
LINE
  8
CSLAYER1
  6
CONTINUOUS
 62
     3
 10
564.023183
 20
1920.114668
 11
566.349021
 21
1917.551989
  0
LINE
  8
CSLAYER1
  6
CONTINUOUS
 62
     3
 10
566.349021
 20
1917.551989
 11
569.055411
 21
1915.115332
  0
LINE
  8
CSLAYER1
  6
CONTINUOUS
 62
     3
 10
569.055411
 20
1915.115332
 11
572.121756
 21
1912.823241
  0
LINE
  8
CSLAYER1
  6
CONTINUOUS
 62
     3
 10
572.121756
 20
1912.823241
 11
575.524720
 21
1910.693160
  0
LINE
  8
CSLAYER1
  6
CONTINUOUS
 62
     3
 10
575.524720
 20
1910.693160
 11
579.238402
 21
1908.741301
  0
LINE
  8
CSLAYER1
  6
CONTINUOUS
 62
     3
 10
579.238402
 20
1908.741301
 11
583.234541
 21
1906.982518
  0
LINE
  8
CSLAYER1
  6
CONTINUOUS
 62
     3
 10
583.234541
 20
1906.982518
 11
587.482723
 21
1905.430196
  0
LINE
  8
CSLAYER1
  6
CONTINUOUS
 62
     3
 10
587.482723
 20
1905.430196
 11
591.950616
 21
1904.096150
  0
LINE
  8
CSLAYER1
  6
CONTINUOUS
 62
     3
 10
591.950616
 20
1904.096150
 11
596.604219
 21
1902.990532
  0
LINE
  8
CSLAYER1
  6
CONTINUOUS
 62
     3
 10
596.604219
 20
1902.990532
 11
601.408112
 21
1902.121758
  0
LINE
  8
CSLAYER1
  6
CONTINUOUS
 62
     3
 10
601.408112
 20
1902.121758
 11
606.325737
 21
1901.496439
  0
LINE
  8
CSLAYER1
  6
CONTINUOUS
 62
     3
 10
606.325737
 20
1901.496439
 11
611.319668
 21
1901.119333
  0
LINE
  8
CSLAYER1
  6
CONTINUOUS
 62
     3
 10
611.319668
 20
1901.119333
 11
616.351896
 21
1900.993312
  0
LINE
  8
CSLAYER1
  6
CONTINUOUS
 62
     3
 10
616.351896
 20
1900.993312
 11
621.384125
 21
1901.119333
  0
LINE
  8
CSLAYER1
  6
CONTINUOUS
 62
     3
 10
621.384125
 20
1901.119333
 11
626.378055
 21
1901.496439
  0
LINE
  8
CSLAYER1
  6
CONTINUOUS
 62
     3
 10
626.378055
 20
1901.496439
 11
631.295680
 21
1902.121758
  0
LINE
  8
CSLAYER1
  6
CONTINUOUS
 62
     3
 10
631.295680
 20
1902.121758
 11
636.099574
 21
1902.990532
  0
LINE
  8
CSLAYER1
  6
CONTINUOUS
 62
     3
 10
636.099574
 20
1902.990532
 11
640.753176
 21
1904.096150
  0
LINE
  8
CSLAYER1
  6
CONTINUOUS
 62
     3
 10
640.753176
 20
1904.096150
 11
645.221069
 21
1905.430196
  0
LINE
  8
CSLAYER1
  6
CONTINUOUS
 62
     3
 10
645.221069
 20
1905.430196
 11
649.469251
 21
1906.982518
  0
LINE
  8
CSLAYER1
  6
CONTINUOUS
 62
     3
 10
649.469251
 20
1906.982518
 11
653.465390
 21
1908.741301
  0
LINE
  8
CSLAYER1
  6
CONTINUOUS
 62
     3
 10
653.465390
 20
1908.741301
 11
657.179073
 21
1910.693160
  0
LINE
  8
CSLAYER1
  6
CONTINUOUS
 62
     3
 10
657.179073
 20
1910.693160
 11
660.582036
 21
1912.823241
  0
LINE
  8
CSLAYER1
  6
CONTINUOUS
 62
     3
 10
660.582036
 20
1912.823241
 11
663.648381
 21
1915.115332
  0
LINE
  8
CSLAYER1
  6
CONTINUOUS
 62
     3
 10
663.648381
 20
1915.115332
 11
666.354771
 21
1917.551989
  0
LINE
  8
CSLAYER1
  6
CONTINUOUS
 62
     3
 10
666.354771
 20
1917.551989
 11
668.680609
 21
1920.114668
  0
LINE
  8
CSLAYER1
  6
CONTINUOUS
 62
     3
 10
668.680609
 20
1920.114668
 11
670.608194
 21
1922.783864
  0
LINE
  8
CSLAYER1
  6
CONTINUOUS
 62
     3
 10
670.608194
 20
1922.783864
 11
672.122856
 21
1925.539264
  0
LINE
  8
CSLAYER1
  6
CONTINUOUS
 62
     3
 10
672.122856
 20
1925.539264
 11
673.213068
 21
1928.359898
  0
LINE
  8
CSLAYER1
  6
CONTINUOUS
 62
     3
 10
673.213068
 20
1928.359898
 11
673.870531
 21
1931.224299
  0
LINE
  8
CSLAYER1
  6
CONTINUOUS
 62
     3
 10
673.870531
 20
1931.224299
 11
674.090243
 21
1934.110667
  0
LINE
  8
CSLAYER1
  6
CONTINUOUS
 62
     3
 10
679.864077
 20
1934.110667
 11
679.622394
 21
1937.285671
  0
LINE
  8
CSLAYER1
  6
CONTINUOUS
 62
     3
 10
679.622394
 20
1937.285671
 11
678.899185
 21
1940.436512
  0
LINE
  8
CSLAYER1
  6
CONTINUOUS
 62
     3
 10
678.899185
 20
1940.436512
 11
677.699952
 21
1943.539209
  0
LINE
  8
CSLAYER1
  6
CONTINUOUS
 62
     3
 10
677.699952
 20
1943.539209
 11
676.033824
 21
1946.570149
  0
LINE
  8
CSLAYER1
  6
CONTINUOUS
 62
     3
 10
676.033824
 20
1946.570149
 11
673.913481
 21
1949.506266
  0
LINE
  8
CSLAYER1
  6
CONTINUOUS
 62
     3
 10
673.913481
 20
1949.506266
 11
671.355059
 21
1952.325212
  0
LINE
  8
CSLAYER1
  6
CONTINUOUS
 62
     3
 10
671.355059
 20
1952.325212
 11
668.378029
 21
1955.005535
  0
LINE
  8
CSLAYER1
  6
CONTINUOUS
 62
     3
 10
668.378029
 20
1955.005535
 11
665.005050
 21
1957.526835
  0
LINE
  8
CSLAYER1
  6
CONTINUOUS
 62
     3
 10
665.005050
 20
1957.526835
 11
661.261790
 21
1959.869924
  0
LINE
  8
CSLAYER1
  6
CONTINUOUS
 62
     3
 10
661.261790
 20
1959.869924
 11
657.176739
 21
1962.016969
  0
LINE
  8
CSLAYER1
  6
CONTINUOUS
 62
     3
 10
657.176739
 20
1962.016969
 11
652.780987
 21
1963.951631
  0
LINE
  8
CSLAYER1
  6
CONTINUOUS
 62
     3
 10
652.780987
 20
1963.951631
 11
648.107987
 21
1965.659185
  0
LINE
  8
CSLAYER1
  6
CONTINUOUS
 62
     3
 10
648.107987
 20
1965.659185
 11
643.193304
 21
1967.126635
  0
LINE
  8
CSLAYER1
  6
CONTINUOUS
 62
     3
 10
643.193304
 20
1967.126635
 11
638.074341
 21
1968.342814
  0
LINE
  8
CSLAYER1
  6
CONTINUOUS
 62
     3
 10
638.074341
 20
1968.342814
 11
632.790058
 21
1969.298466
  0
LINE
  8
CSLAYER1
  6
CONTINUOUS
 62
     3
 10
632.790058
 20
1969.298466
 11
627.380671
 21
1969.986318
  0
LINE
  8
CSLAYER1
  6
CONTINUOUS
 62
     3
 10
627.380671
 20
1969.986318
 11
621.887347
 21
1970.401134
  0
LINE
  8
CSLAYER1
  6
CONTINUOUS
 62
     3
 10
621.887347
 20
1970.401134
 11
616.351896
 21
1970.539757
  0
LINE
  8
CSLAYER1
  6
CONTINUOUS
 62
     3
 10
616.351896
 20
1970.539757
 11
610.816445
 21
1970.401134
  0
LINE
  8
CSLAYER1
  6
CONTINUOUS
 62
     3
 10
610.816445
 20
1970.401134
 11
605.323122
 21
1969.986318
  0
LINE
  8
CSLAYER1
  6
CONTINUOUS
 62
     3
 10
605.323122
 20
1969.986318
 11
599.913734
 21
1969.298466
  0
LINE
  8
CSLAYER1
  6
CONTINUOUS
 62
     3
 10
599.913734
 20
1969.298466
 11
594.629451
 21
1968.342814
  0
LINE
  8
CSLAYER1
  6
CONTINUOUS
 62
     3
 10
594.629451
 20
1968.342814
 11
589.510488
 21
1967.126635
  0
LINE
  8
CSLAYER1
  6
CONTINUOUS
 62
     3
 10
589.510488
 20
1967.126635
 11
584.595805
 21
1965.659185
  0
LINE
  8
CSLAYER1
  6
CONTINUOUS
 62
     3
 10
584.595805
 20
1965.659185
 11
579.922805
 21
1963.951631
  0
LINE
  8
CSLAYER1
  6
CONTINUOUS
 62
     3
 10
579.922805
 20
1963.951631
 11
575.527053
 21
1962.016969
  0
LINE
  8
CSLAYER1
  6
CONTINUOUS
 62
     3
 10
575.527053
 20
1962.016969
 11
571.442002
 21
1959.869924
  0
LINE
  8
CSLAYER1
  6
CONTINUOUS
 62
     3
 10
571.442002
 20
1959.869924
 11
567.698743
 21
1957.526835
  0
LINE
  8
CSLAYER1
  6
CONTINUOUS
 62
     3
 10
567.698743
 20
1957.526835
 11
564.325763
 21
1955.005535
  0
LINE
  8
CSLAYER1
  6
CONTINUOUS
 62
     3
 10
564.325763
 20
1955.005535
 11
561.348734
 21
1952.325212
  0
LINE
  8
CSLAYER1
  6
CONTINUOUS
 62
     3
 10
561.348734
 20
1952.325212
 11
558.790312
 21
1949.506266
  0
LINE
  8
CSLAYER1
  6
CONTINUOUS
 62
     3
 10
558.790312
 20
1949.506266
 11
556.669968
 21
1946.570149
  0
LINE
  8
CSLAYER1
  6
CONTINUOUS
 62
     3
 10
556.669968
 20
1946.570149
 11
555.003840
 21
1943.539209
  0
LINE
  8
CSLAYER1
  6
CONTINUOUS
 62
     3
 10
555.003840
 20
1943.539209
 11
553.804608
 21
1940.436512
  0
LINE
  8
CSLAYER1
  6
CONTINUOUS
 62
     3
 10
553.804608
 20
1940.436512
 11
553.081398
 21
1937.285671
  0
LINE
  8
CSLAYER1
  6
CONTINUOUS
 62
     3
 10
553.081398
 20
1937.285671
 11
552.839715
 21
1934.110667
  0
LINE
  8
CSLAYER1
  6
CONTINUOUS
 62
     3
 10
552.839715
 20
1934.110667
 11
553.081398
 21
1930.935662
  0
LINE
  8
CSLAYER1
  6
CONTINUOUS
 62
     3
 10
553.081398
 20
1930.935662
 11
553.804608
 21
1927.784821
  0
LINE
  8
CSLAYER1
  6
CONTINUOUS
 62
     3
 10
553.804608
 20
1927.784821
 11
555.003840
 21
1924.682124
  0
LINE
  8
CSLAYER1
  6
CONTINUOUS
 62
     3
 10
555.003840
 20
1924.682124
 11
556.669968
 21
1921.651184
  0
LINE
  8
CSLAYER1
  6
CONTINUOUS
 62
     3
 10
556.669968
 20
1921.651184
 11
558.790312
 21
1918.715068
  0
LINE
  8
CSLAYER1
  6
CONTINUOUS
 62
     3
 10
558.790312
 20
1918.715068
 11
561.348734
 21
1915.896121
  0
LINE
  8
CSLAYER1
  6
CONTINUOUS
 62
     3
 10
561.348734
 20
1915.896121
 11
564.325763
 21
1913.215799
  0
LINE
  8
CSLAYER1
  6
CONTINUOUS
 62
     3
 10
564.325763
 20
1913.215799
 11
567.698743
 21
1910.694499
  0
LINE
  8
CSLAYER1
  6
CONTINUOUS
 62
     3
 10
567.698743
 20
1910.694499
 11
571.442002
 21
1908.351410
  0
LINE
  8
CSLAYER1
  6
CONTINUOUS
 62
     3
 10
571.442002
 20
1908.351410
 11
575.527053
 21
1906.204364
  0
LINE
  8
CSLAYER1
  6
CONTINUOUS
 62
     3
 10
575.527053
 20
1906.204364
 11
579.922805
 21
1904.269703
  0
LINE
  8
CSLAYER1
  6
CONTINUOUS
 62
     3
 10
579.922805
 20
1904.269703
 11
584.595805
 21
1902.562149
  0
LINE
  8
CSLAYER1
  6
CONTINUOUS
 62
     3
 10
584.595805
 20
1902.562149
 11
589.510488
 21
1901.094698
  0
LINE
  8
CSLAYER1
  6
CONTINUOUS
 62
     3
 10
589.510488
 20
1901.094698
 11
589.580985
 21
1901.077949
  0
LINE
  8
CSLAYER1
  6
CONTINUOUS
 62
     3
 10
616.351896
 20
1897.681576
 11
621.887347
 21
1897.820200
  0
LINE
  8
CSLAYER1
  6
CONTINUOUS
 62
     3
 10
621.887347
 20
1897.820200
 11
627.380671
 21
1898.235016
  0
LINE
  8
CSLAYER1
  6
CONTINUOUS
 62
     3
 10
627.380671
 20
1898.235016
 11
632.790058
 21
1898.922867
  0
LINE
  8
CSLAYER1
  6
CONTINUOUS
 62
     3
 10
632.790058
 20
1898.922867
 11
638.074341
 21
1899.878519
  0
LINE
  8
CSLAYER1
  6
CONTINUOUS
 62
     3
 10
638.074341
 20
1899.878519
 11
643.193304
 21
1901.094698
  0
LINE
  8
CSLAYER1
  6
CONTINUOUS
 62
     3
 10
643.193304
 20
1901.094698
 11
648.107987
 21
1902.562149
  0
LINE
  8
CSLAYER1
  6
CONTINUOUS
 62
     3
 10
648.107987
 20
1902.562149
 11
652.780987
 21
1904.269703
  0
LINE
  8
CSLAYER1
  6
CONTINUOUS
 62
     3
 10
652.780987
 20
1904.269703
 11
657.176739
 21
1906.204364
  0
LINE
  8
CSLAYER1
  6
CONTINUOUS
 62
     3
 10
657.176739
 20
1906.204364
 11
661.261790
 21
1908.351410
  0
LINE
  8
CSLAYER1
  6
CONTINUOUS
 62
     3
 10
661.261790
 20
1908.351410
 11
665.005050
 21
1910.694499
  0
LINE
  8
CSLAYER1
  6
CONTINUOUS
 62
     3
 10
665.005050
 20
1910.694499
 11
668.378029
 21
1913.215799
  0
LINE
  8
CSLAYER1
  6
CONTINUOUS
 62
     3
 10
668.378029
 20
1913.215799
 11
671.355059
 21
1915.896121
  0
LINE
  8
CSLAYER1
  6
CONTINUOUS
 62
     3
 10
671.355059
 20
1915.896121
 11
673.913481
 21
1918.715068
  0
LINE
  8
CSLAYER1
  6
CONTINUOUS
 62
     3
 10
673.913481
 20
1918.715068
 11
676.033824
 21
1921.651184
  0
LINE
  8
CSLAYER1
  6
CONTINUOUS
 62
     3
 10
676.033824
 20
1921.651184
 11
677.699952
 21
1924.682124
  0
LINE
  8
CSLAYER1
  6
CONTINUOUS
 62
     3
 10
677.699952
 20
1924.682124
 11
678.899185
 21
1927.784821
  0
LINE
  8
CSLAYER1
  6
CONTINUOUS
 62
     3
 10
678.899185
 20
1927.784821
 11
679.622394
 21
1930.935662
  0
LINE
  8
CSLAYER1
  6
CONTINUOUS
 62
     3
 10
679.622394
 20
1930.935662
 11
679.864077
 21
1934.110667
  0
LINE
  8
CSLAYER1
  6
CONTINUOUS
 62
     3
 10
492.073486
 20
1897.681576
 11
616.351896
 21
1897.681576
  0
LINE
  8
CSLAYER1
  6
CONTINUOUS
 62
     3
 10
492.073486
 20
1901.077949
 11
616.351896
 21
1901.077949
  0
LINE
  8
CSLAYER1
  6
CONTINUOUS
 62
     3
 10
492.073486
 20
1897.681576
 11
492.073486
 21
1901.077949
  0
LINE
  8
CSLAYER1
  6
CONTINUOUS
 62
     3
 10
492.073486
 20
1901.077949
 11
484.248981
 21
1903.493236
  0
LINE
  8
CSLAYER1
  6
CONTINUOUS
 62
     3
 10
484.248981
 20
1903.493236
 11
482.945129
 21
1908.969419
  0
LINE
  8
CSLAYER1
  6
CONTINUOUS
 62
     3
 10
492.073486
 20
1897.681576
 11
479.033570
 21
1898.799366
  0
LINE
  8
CSLAYER1
  6
CONTINUOUS
 62
     3
 10
479.033570
 20
1898.799366
 11
473.296617
 21
1896.973972
  0
LINE
  8
CSLAYER1
  6
CONTINUOUS
 62
     3
 10
473.296617
 20
1896.973972
 11
467.038123
 21
1894.105496
  0
LINE
  8
CSLAYER1
  6
CONTINUOUS
 62
     3
 10
482.945129
 20
1908.969419
 11
476.425864
 21
1913.924060
  0
LINE
  8
CSLAYER1
  6
CONTINUOUS
 62
     3
 10
373.200419
 20
2100.770258
 11
512.451726
 21
2020.373479
  0
LINE
  8
CSLAYER1
  6
CONTINUOUS
 62
     3
 10
373.200419
 20
2179.206140
 11
512.451726
 21
2098.809361
  0
LINE
  8
CSLAYER1
  6
CONTINUOUS
 62
     3
 10
373.200419
 20
2179.206140
 11
373.200419
 21
2081.161287
  0
LINE
  8
CSLAYER1
  6
CONTINUOUS
 62
     3
 10
631.324792
 20
2167.440758
 11
631.324792
 21
2069.395905
  0
LINE
  8
CSLAYER1
  6
CONTINUOUS
 62
     3
 10
373.200419
 20
2179.206140
 11
492.073486
 21
2247.837537
  0
LINE
  8
CSLAYER1
  6
CONTINUOUS
 62
     5
 10
331.212129
 20
2105.403238
 11
365.986466
 21
2085.326265
  0
TEXT
  8
CSLAYER1
 62
     3
 10
744.691402
 20
2140.771925
 40
29.612888
 41
0.852344
  1
ホース長サ２ｍ
 50
0.000000
 51
0.000000
  7
EASYDRAW_FONT
 72
     5
 11
912.960576
 21
2140.771925
  0
TEXT
  8
CSLAYER1
 62
     3
 10
305.867162
 20
1929.822088
 40
33.963734
 41
1.036364
  1
長サ4ｍ
 50
0.000000
 51
0.000000
  7
EASYDRAW_FONT
 72
     5
 11
434.929347
 21
1929.822088
  0
LINE
  8
CSLAYER1
  6
CONTINUOUS
 62
     3
 10
592.920665
 20
2078.033114
 11
848.834627
 21
1930.281119
  0
ARC
  8
CSLAYER1
  6
CONTINUOUS
 62
     3
 10
893.459627
 20
2007.573886
 40
85.000000
 50
240.000000
 51
270.000000
  0
ARC
  8
CSLAYER1
  6
CONTINUOUS
 62
     3
 10
893.459627
 20
2007.573886
 40
89.250000
 50
240.000000
 51
270.000000
  0
TEXT
  8
CSLAYER1
 62
     3
 10
695.520928
 20
1831.886541
 40
33.963734
 41
1.020000
  1
フットスイッチ
 50
0.000000
 51
0.000000
  7
EASYDRAW_FONT
 72
     5
 11
926.474311
 21
1831.886541
  0
TEXT
  8
CSLAYER1
 62
     3
 10
693.690362
 20
1785.511541
 40
33.963734
 41
1.020000
  1
ＵＰ・ＤＯＷＮ
 50
0.000000
 51
0.000000
  7
EASYDRAW_FONT
 72
     5
 11
924.643744
 21
1785.511541
  0
TEXT
  8
CSLAYER1
 62
     3
 10
696.131036
 20
1744.017401
 40
33.963734
 41
1.020000
  1
コード長サ２ｍ
 50
0.000000
 51
0.000000
  7
EASYDRAW_FONT
 72
     5
 11
927.084418
 21
1744.017401
  0
LINE
  8
CSLAYER1
  6
CONTINUOUS
 62
     5
 10
583.535749
 20
1798.766656
 11
688.256423
 21
1826.826476
  0
LINE
  8
CSLAYER1
  6
CONTINUOUS
 62
     5
 10
583.535749
 20
1798.766656
 11
609.516511
 21
1813.766656
  0
LINE
  8
CSLAYER1
  6
CONTINUOUS
 62
     5
 10
583.535749
 20
1798.766656
 11
613.535749
 21
1798.766656
  0
LINE
  8
CSLAYER1
  6
CONTINUOUS
 62
     5
 10
921.443896
 20
1826.826476
 11
688.256423
 21
1826.826476
  0
LINE
  8
CSLAYER1
  6
CONTINUOUS
 62
     3
 10
432.397136
 20
1813.865563
 11
527.495589
 21
1758.960446
  0
LINE
  8
CSLAYER1
  6
CONTINUOUS
 62
     3
 10
527.495589
 20
1758.960446
 11
583.535749
 21
1791.315247
  0
LINE
  8
CSLAYER1
  6
CONTINUOUS
 62
     3
 10
583.535749
 20
1798.766656
 11
583.535749
 21
1791.315247
  0
LINE
  8
CSLAYER1
  6
CONTINUOUS
 62
     5
 10
527.495589
 20
1787.981722
 11
527.495589
 21
1768.372752
  0
LINE
  8
CSLAYER1
  6
CONTINUOUS
 62
     3
 10
432.397136
 20
1821.709152
 11
432.397136
 21
1813.865563
  0
LINE
  8
CSLAYER1
  6
CONTINUOUS
 62
     3
 10
435.453872
 20
1841.514212
 11
488.097659
 21
1871.908116
  0
LINE
  8
CSLAYER1
  6
CONTINUOUS
 62
     3
 10
469.417605
 20
1821.905241
 11
522.061392
 21
1852.299146
  0
LINE
  8
CSLAYER1
  6
CONTINUOUS
 62
     3
 10
527.495589
 20
1787.981722
 11
580.479013
 21
1818.571716
  0
LINE
  8
CSLAYER1
  6
CONTINUOUS
 62
     3
 10
493.871493
 20
1807.786783
 11
546.515280
 21
1838.180687
  0
LINE
  8
CSLAYER1
  6
CONTINUOUS
 62
     3
 10
435.453872
 20
1841.514212
 11
469.417605
 21
1821.905241
  0
LINE
  8
CSLAYER1
  6
CONTINUOUS
 62
     3
 10
488.097659
 20
1871.908116
 11
522.061392
 21
1852.299146
  0
LINE
  8
CSLAYER1
  6
CONTINUOUS
 62
     3
 10
432.397136
 20
1821.709152
 11
527.495589
 21
1766.804034
  0
LINE
  8
CSLAYER1
  6
CONTINUOUS
 62
     3
 10
527.495589
 20
1766.411855
 11
583.535749
 21
1798.766656
  0
LINE
  8
CSLAYER1
  6
CONTINUOUS
 62
     3
 10
476.549989
 20
1817.787358
 11
486.739109
 21
1811.904666
  0
LINE
  8
CSLAYER1
  6
CONTINUOUS
 62
     5
 10
527.495589
 20
1768.372752
 11
580.479013
 21
1798.962746
  0
LINE
  8
CSLAYER1
  6
CONTINUOUS
 62
     5
 10
435.453872
 20
1821.905241
 11
469.417605
 21
1802.296271
  0
LINE
  8
CSLAYER1
  6
CONTINUOUS
 62
     3
 10
580.479013
 20
1818.571716
 11
580.479013
 21
1798.962746
  0
LINE
  8
CSLAYER1
  6
CONTINUOUS
 62
     5
 10
493.871493
 20
1807.786783
 11
493.871493
 21
1787.610090
  0
LINE
  8
CSLAYER1
  6
CONTINUOUS
 62
     5
 10
469.417605
 20
1802.296271
 11
469.417605
 21
1821.905241
  0
LINE
  8
CSLAYER1
  6
CONTINUOUS
 62
     3
 10
522.061392
 20
1852.299146
 11
522.061392
 21
1844.063378
  0
LINE
  8
CSLAYER1
  6
CONTINUOUS
 62
     5
 10
476.549989
 20
1798.178387
 11
486.739109
 21
1792.295696
  0
LINE
  8
CSLAYER1
  6
CONTINUOUS
 62
     3
 10
527.495589
 20
1766.411855
 11
527.495589
 21
1758.960446
  0
LINE
  8
CSLAYER1
  6
CONTINUOUS
 62
     3
 10
580.479013
 20
1800.531463
 11
583.535749
 21
1798.766656
  0
LINE
  8
CSLAYER1
  6
CONTINUOUS
 62
     3
 10
476.549989
 20
1817.787358
 11
529.193776
 21
1848.181262
  0
LINE
  8
CSLAYER1
  6
CONTINUOUS
 62
     3
 10
486.739109
 20
1811.904666
 11
539.382896
 21
1842.298571
  0
LINE
  8
CSLAYER1
  6
CONTINUOUS
 62
     3
 10
539.382896
 20
1842.298571
 11
539.382896
 21
1834.062803
  0
LINE
  8
CSLAYER1
  6
CONTINUOUS
 62
     3
 10
529.193776
 20
1848.181262
 11
539.382896
 21
1842.298571
  0
LINE
  8
CSLAYER1
  6
CONTINUOUS
 62
     3
 10
546.515280
 20
1838.180687
 11
580.479013
 21
1818.571716
  0
LINE
  8
CSLAYER1
  6
CONTINUOUS
 62
     3
 10
493.871493
 20
1807.786783
 11
527.495589
 21
1788.373902
  0
LINE
  8
CSLAYER1
  6
CONTINUOUS
 62
     5
 10
486.739109
 20
1811.904666
 11
486.739109
 21
1792.295696
  0
LINE
  8
CSLAYER1
  6
CONTINUOUS
 62
     5
 10
476.549989
 20
1817.787358
 11
476.549989
 21
1798.178387
  0
LINE
  8
CSLAYER1
  6
CONTINUOUS
 62
     5
 10
486.739109
 20
1792.295696
 11
493.871493
 21
1796.413580
  0
LINE
  8
CSLAYER1
  6
CONTINUOUS
 62
     5
 10
469.417605
 20
1802.296271
 11
476.549989
 21
1806.414155
  0
LINE
  8
CSLAYER1
  6
CONTINUOUS
 62
     5
 10
493.871493
 20
1788.177812
 11
527.495589
 21
1768.764931
  0
LINE
  8
CSLAYER1
  6
CONTINUOUS
 62
     3
 10
435.453872
 20
1841.514212
 11
435.453872
 21
1821.905241
  0
LINE
  8
CSLAYER1
  6
CONTINUOUS
 62
     3
 10
432.397136
 20
1821.709152
 11
435.453872
 21
1823.473959
  0
LINE
  8
CSLAYER1
  6
CONTINUOUS
 62
     5
 10
445.642992
 20
1847.396903
 11
479.606725
 21
1827.787933
  0
LINE
  8
CSLAYER1
  6
CONTINUOUS
 62
     5
 10
455.832112
 20
1853.279594
 11
489.795845
 21
1833.670624
  0
LINE
  8
CSLAYER1
  6
CONTINUOUS
 62
     5
 10
466.021232
 20
1859.162285
 11
499.984965
 21
1839.553315
  0
LINE
  8
CSLAYER1
  6
CONTINUOUS
 62
     5
 10
514.249733
 20
1819.552165
 11
548.213467
 21
1799.943194
  0
LINE
  8
CSLAYER1
  6
CONTINUOUS
 62
     5
 10
504.060613
 20
1813.669474
 11
538.024347
 21
1794.060503
  0
LINE
  8
CSLAYER1
  6
CONTINUOUS
 62
     5
 10
524.438853
 20
1825.434856
 11
558.402587
 21
1805.825885
  0
ARC
  8
CSLAYER1
  6
CONTINUOUS
 62
     3
 10
538.339044
 20
1837.105263
 40
10.105980
 50
-0.219250
 51
120.219250
  0
LINE
  8
CSLAYER1
  6
CONTINUOUS
 62
     3
 10
546.968820
 20
1842.364332
 11
661.115014
 21
1908.266668
  0
LINE
  8
CSLAYER1
  6
CONTINUOUS
 62
     3
 10
544.095465
 20
1845.411553
 11
638.599524
 21
1899.973497
  0
LINE
  8
CSLAYER1
  6
CONTINUOUS
 62
     5
 10
503.748955
 20
1901.883866
 11
469.975119
 21
1967.685923
  0
LINE
  8
CSLAYER1
  6
CONTINUOUS
 62
     5
 10
503.748955
 20
1901.883866
 11
483.609053
 21
1924.118622
  0
LINE
  8
CSLAYER1
  6
CONTINUOUS
 62
     5
 10
503.748955
 20
1901.883866
 11
497.424666
 21
1931.209680
  0
LINE
  8
CSLAYER1
  6
CONTINUOUS
 62
     5
 10
248.856473
 20
1701.605221
 11
967.048254
 21
1701.605221
  0
LINE
  8
CSLAYER1
  6
CONTINUOUS
 62
     5
 10
480.263540
 20
2387.268302
 11
717.909319
 21
2387.268302
  0
LINE
  8
CSLAYER1
  6
CONTINUOUS
 62
     5
 10
717.909319
 20
2387.268302
 11
717.909319
 21
2344.168815
  0
LINE
  8
CSLAYER1
  6
CONTINUOUS
 62
     5
 10
717.909319
 20
2344.168815
 11
480.263540
 21
2344.168815
  0
LINE
  8
CSLAYER1
  6
CONTINUOUS
 62
     5
 10
480.263540
 20
2344.168815
 11
480.263540
 21
2387.268302
  0
INSERT
  8
CSLAYER1
  2
BLKF0008
 10
0.0
 20
0.0
 30
0.0
  0
INSERT
  8
CSLAYER1
  2
BLKF0009
 10
0.0
 20
0.0
 30
0.0
  0
INSERT
  8
CSLAYER1
  2
BLKF0010
 10
0.0
 20
0.0
 30
0.0
  0
INSERT
  8
CSLAYER1
  2
BLKF0011
 10
0.0
 20
0.0
 30
0.0
  0
DIMENSION
  8
CSLAYER1
 62
     3
  2
*D0018
 10
2265.723467
 20
2114.035634
 11
2255.723389
 21
1964.035645
 13
2182.164408
 23
1814.035634
 14
2182.164408
 24
2114.035634
 50
90.000000
 70
1
  0
INSERT
  8
CSLAYER1
  2
BLKF0012
 10
0.0
 20
0.0
 30
0.0
  0
LINE
  8
CSLAYER1
  6
CONTINUOUS
 62
     5
 10
2721.429784
 20
544.192561
 11
3521.429784
 21
544.192561
  0
LINE
  8
CSLAYER1
  6
CONTINUOUS
 62
     5
 10
2721.429784
 20
184.192561
 11
3521.429784
 21
184.192561
  0
LINE
  8
CSLAYER1
  6
CONTINUOUS
 62
     5
 10
2721.429784
 20
344.192561
 11
3521.429784
 21
344.192561
  0
LINE
  8
CSLAYER1
  6
CONTINUOUS
 62
     5
 10
2721.429784
 20
404.192561
 11
3521.429784
 21
404.192561
  0
LINE
  8
CSLAYER1
  6
CONTINUOUS
 62
     5
 10
2721.429784
 20
464.192561
 11
3521.429784
 21
464.192561
  0
LINE
  8
CSLAYER1
  6
CONTINUOUS
 62
     5
 10
2721.429784
 20
624.192561
 11
3521.429784
 21
624.192561
  0
LINE
  8
CSLAYER1
  6
CONTINUOUS
 62
     5
 10
2721.429784
 20
704.192561
 11
2721.429784
 21
104.192561
  0
LINE
  8
CSLAYER1
  6
CONTINUOUS
 62
     5
 10
2921.429784
 20
704.192561
 11
2921.429784
 21
464.192561
  0
LINE
  8
CSLAYER1
  6
CONTINUOUS
 62
     5
 10
2721.429784
 20
704.192561
 11
3521.429784
 21
704.192561
  0
LINE
  8
CSLAYER1
  6
CONTINUOUS
 62
     5
 10
3221.429784
 20
464.192561
 11
3221.429784
 21
184.192561
  0
TEXT
  8
CSLAYER1
 62
     3
 10
2941.120906
 20
112.755283
 40
59.380363
 41
1.003345
  1
東正車輌株式会社
 50
0.000000
 51
0.000000
  7
EASYDRAW_FONT
 72
     5
 11
3397.893254
 21
112.755283
  0
LINE
  8
CSLAYER1
  6
CONTINUOUS
 62
     5
 10
2971.429784
 20
404.192561
 11
2971.429784
 21
184.192561
  0
TEXT
  8
CSLAYER1
 62
     5
 10
2751.429688
 20
639.192505
 40
50.000000
 41
1.050000
  1
品　名
 50
0.000000
 51
0.000000
  7
EASYDRAW_FONT
 72
     5
 11
2891.429688
 21
639.192505
  0
TEXT
  8
CSLAYER1
 62
     5
 10
2751.429688
 20
559.192505
 40
50.000000
 41
1.050000
  1
型　式
 50
0.000000
 51
0.000000
  7
EASYDRAW_FONT
 72
     5
 11
2891.429688
 21
559.192505
  0
TEXT
  8
CSLAYER1
 62
     5
 10
2726.429688
 20
479.192566
 40
50.000000
 41
1.036364
  1
図面番号
 50
0.000000
 51
0.000000
  7
EASYDRAW_FONT
 72
     5
 11
2916.429688
 21
479.192566
  0
TEXT
  8
CSLAYER1
 62
     5
 10
2751.429688
 20
409.192566
 40
50.000000
 41
0.825000
  1
平成26年01月10日
 50
0.000000
 51
0.000000
  7
EASYDRAW_FONT
 72
     5
 11
3191.429688
 21
409.192566
  0
TEXT
  8
CSLAYER1
 62
     5
 10
3301.429688
 20
409.192566
 40
50.000000
 41
1.050000
  1
Ｂ－４
 50
0.000000
 51
0.000000
  7
EASYDRAW_FONT
 72
     5
 11
3441.429688
 21
409.192566
  0
TEXT
  8
CSLAYER1
 62
     5
 10
2776.429688
 20
349.192566
 40
50.000000
 41
1.050000
  1
検　図
 50
0.000000
 51
0.000000
  7
EASYDRAW_FONT
 72
     5
 11
2916.429688
 21
349.192566
  0
TEXT
  8
CSLAYER1
 62
     5
 10
3026.429688
 20
349.192566
 40
50.000000
 41
1.050000
  1
作　図
 50
0.000000
 51
0.000000
  7
EASYDRAW_FONT
 72
     5
 11
3166.429688
 21
349.192566
  0
TEXT
  8
CSLAYER1
 62
     5
 10
3301.429688
 20
349.192566
 40
50.000000
 41
1.050000
  1
尺　度
 50
0.000000
 51
0.000000
  7
EASYDRAW_FONT
 72
     5
 11
3441.429688
 21
349.192566
  0
TEXT
  8
CSLAYER1
 62
     5
 10
3402.168457
 20
198.677826
 40
50.000000
 41
1.080000
  1
１０
 50
0.000000
 51
0.000000
  7
EASYDRAW_FONT
 72
     5
 11
3492.168457
 21
198.677826
  0
TEXT
  8
CSLAYER1
 62
     5
 10
3381.848877
 20
246.382507
 40
50.000000
 41
1.200000
  1
／
 50
0.000000
 51
0.000000
  7
EASYDRAW_FONT
 72
     5
 11
3421.848877
 21
246.382507
  0
TEXT
  8
CSLAYER1
 62
     5
 10
3351.635986
 20
281.365967
 40
50.000000
 41
1.200000
  1
１
 50
0.000000
 51
0.000000
  7
EASYDRAW_FONT
 72
     5
 11
3391.635986
 21
281.365967
  0
TEXT
  8
CSLAYER1
 62
     3
 10
3061.429688
 20
639.192505
 40
50.000000
 41
0.834783
  1
ゴールドリフター
 50
0.000000
 51
0.000000
  7
EASYDRAW_FONT
 72
     5
 11
3381.429688
 21
639.192505
  0
TEXT
  8
CSLAYER1
 62
     3
 10
2961.429688
 20
559.192505
 40
50.000000
 41
0.821053
  1
GLSE-250-3008
 50
0.000000
 51
0.000000
  7
EASYDRAW_FONT
 72
     5
 11
3481.429688
 21
559.192505
  0
INSERT
  8
CSLAYER1
  2
BLKF0013
 10
0.0
 20
0.0
 30
0.0
  0
LINE
  8
CSLAYER1
  6
CONTINUOUS
 62
     5
 10
944.055581
 20
796.091760
 11
1379.464408
 21
796.091760
  0
LINE
  8
CSLAYER1
  6
CONTINUOUS
 62
     3
 10
1379.464408
 20
796.091760
 11
2182.464408
 21
796.091760
  0
LINE
  8
CSLAYER1
  6
CONTINUOUS
 62
     5
 10
2182.464408
 20
796.091760
 11
2594.035745
 21
796.091760
  0
LINE
  8
CSLAYER1
  6
CONTINUOUS
 62
     3
 10
2594.035745
 20
796.091760
 11
2894.035745
 21
796.091760
  0
LINE
  8
CSLAYER1
  6
CONTINUOUS
 62
     5
 10
2894.035745
 20
796.091760
 11
3151.674567
 21
796.091760
  0
ENDSEC
  0
EOF
