  0
SECTION
  2
HEADER
  9
$ACADVER
  1
AC1006
  9
$INSBASE
 10
760.418446
 20
2198.746674
 30
0.0
  9
$EXTMIN
 10
760.418446
 20
2198.746674
  9
$EXTMAX
 10
4400.418446
 20
4768.746674
  9
$LIMMIN
 10
760.418446
 20
2198.746674
  9
$LIMMAX
 10
4400.418446
 20
4768.746674
  9
$VIEWCTR
 10
2580.418446
 20
3483.746674
  9
$VIEWSIZE
 40
2570.000000
  9
$SNAPMODE
 70
     0
  9
$SNAPUNIT
 10
1.0
 20
1.0
  9
$SNAPBASE
 10
0.0
 20
0.0
  9
$SNAPANG
 50
0.0
  9
$SNAPSTYLE
 70
     0
  9
$SNAPISOPAIR
 70
     0
  9
$GRIDMODE
 70
     0
  9
$GRIDUNIT
 10
0.0
 20
0.0
  9
$ORTHOMODE
 70
     0
  9
$REGENMODE
 70
     1
  9
$FILLMODE
 70
     1
  9
$QTEXTMODE
 70
     0
  9
$DRAGMODE
 70
     2
  9
$LTSCALE
 40
15.000000
  9
$OSMODE
 70
     0
  9
$ATTMODE
 70
     1
  9
$TEXTSIZE
 40
0.2
  9
$TRACEWID
 40
0.05
  9
$TEXTSTYLE
  7
STANDARD
  9
$CLAYER
  8
CSLAYER1
  9
$CELTYPE
  6
BYLAYER
  9
$CECOLOR
 62
   256
  9
$DIMSCALE
 40
1.0
  9
$DIMASZ
 40
0.18
  9
$DIMEXO
 40
0.0625
  9
$DIMDLI
 40
0.38
  9
$DIMRND
 40
0.0
  9
$DIMDLE
 40
0.0
  9
$DIMEXE
 40
0.18
  9
$DIMTP
 40
0.0
  9
$DIMTM
 40
0.0
  9
$DIMTXT
 40
0.18
  9
$DIMCEN
 40
0.09
  9
$DIMTSZ
 40
0.0
  9
$DIMTOL
 70
     0
  9
$DIMLIM
 70
     0
  9
$DIMTIH
 70
     1
  9
$DIMTOH
 70
     1
  9
$DIMSE1
 70
     0
  9
$DIMSE2
 70
     0
  9
$DIMTAD
 70
     0
  9
$DIMZIN
 70
     0
  9
$DIMBLK
  1

  9
$LUNITS
 70
     2
  9
$LUPREC
 70
     4
  9
$AXISMODE
 70
     0
  9
$AXISUNIT
 10
0.0
 20
0.0
  9
$SKETCHINC
 40
0.1
  9
$FILLETRAD
 40
0.0
  9
$AUNITS
 70
     0
  9
$AUPREC
 70
     0
  9
$MENU
  1
ACAD
  9
$ELEVATION
 40
0.0
  9
$THICKNESS
 40
0.0
  9
$VIEWDIR
 10
0.0
 20
0.0
 30
1.0
  9
$LIMCHECK
 70
     0
  9
$BLIPMODE
 70
     1
  9
$CHAMFERA
 40
0.0
  9
$CHAMFERB
 40
0.0
  9
$FASTZOOM
 70
     1
  9
$SKPOLY
 70
     0
  9
$TDCREATE
 40
2456676.000000
  9
$TDUPDATE
 40
2456676.000000
  9
$TDINDWG
 40
0.0
  9
$TDUSRTIMER
 40
0.0
  9
$USRTIMER
 70
     1
  9
$ANGBASE
 50
0.0
  9
$ANGDIR
 70
     0
  9
$PDMODE
 70
     0
  9
$PDSIZE
 40
0.0
  9
$PLINEWID
 40
0.0
  9
$COORDS
 70
     0
  9
$USERI1
 70
     0
  9
$USERI2
 70
     0
  9
$USERI3
 70
     0
  9
$USERI4
 70
     0
  9
$USERI5
 70
     0
  9
$USERR1
 40
0.0
  9
$USERR2
 40
0.0
  9
$USERR3
 40
0.0
  9
$USERR4
 40
0.0
  9
$USERR5
 40
0.0
  0
ENDSEC
  0
SECTION
  2
TABLES
  0
TABLE
  2
LTYPE
 70
     9
  0
LTYPE
  2
CONTINUOUS
 70
    64
  3
Solid line
 72
    65
 73
     0
 40
0.0
  0
LTYPE
  2
DASHED
 70
    64
  3
__ __ __ __ __ __ __ __ __ __ __ __ __ __ __
 72
    65
 73
     2
 40
0.75
 49
0.5
 49
-0.25
  0
LTYPE
  2
HIDDEN
 70
    64
  3
_ _ _ _ _ _ _ _ _ _ _ _ _ _ _ _ _ _ _ _ _ _ _
 72
    65
 73
     2
 40
0.375
 49
0.25
 49
-0.125
  0
LTYPE
  2
DOT
 70
    64
  3
...............................................
 72
    65
 73
     2
 40
0.25
 49
0.0
 49
-0.25
  0
LTYPE
  2
DASHDOT
 70
    64
  3
__ . __ . __ . __ . __ . __ . __ . __ . __ . __
 72
    65
 73
     4
 40
1.0
 49
0.5
 49
-0.25
 49
0.0
 49
-0.25
  0
LTYPE
  2
DIVIDE
 70
    64
  3
__ . . __ . . __ . . __ . . __ . . __ . . __
 72
    65
 73
     6
 40
1.25
 49
0.5
 49
-0.25
 49
0.0
 49
-0.25
 49
0.0
 49
-0.25
  0
LTYPE
  2
CENTER
 70
    64
  3
____ _ ____ _ ____ _ ____ _ ____ _ ____ _ ____ 
 72
    65
 73
     4
 40
2.0
 49
1.25
 49
-0.25
 49
0.25
 49
-0.25
  0
LTYPE
  2
PHANTOM
 70
    64
  3
______  __  __  ______  __  __  ______  __  __ 
 72
    65
 73
     6
 40
2.5
 49
1.25
 49
-0.25
 49
0.25
 49
-0.25
 49
0.25
 49
-0.25
  0
LTYPE
  2
BORDER
 70
    64
  3
__ __ . __ __ . __ __ . __ __ . __ __ . __ __ .
 72
    65
 73
     6
 40
1.75
 49
0.5
 49
-0.25
 49
0.5
 49
-0.25
 49
0.0
 49
-0.25
  0
ENDTAB
  0
TABLE
  2
LAYER
 70
    16
  0
LAYER
  2
CSLAYER1
 70
    64
 62
     7
  6
CONTINUOUS
  0
LAYER
  2
CSLAYER2
 70
    64
 62
     7
  6
CONTINUOUS
  0
LAYER
  2
CSLAYER3
 70
    64
 62
     7
  6
CONTINUOUS
  0
LAYER
  2
CSLAYER4
 70
    64
 62
     7
  6
CONTINUOUS
  0
LAYER
  2
CSLAYER5
 70
    64
 62
     7
  6
CONTINUOUS
  0
LAYER
  2
CSLAYER6
 70
    64
 62
     7
  6
CONTINUOUS
  0
LAYER
  2
CSLAYER7
 70
    64
 62
     7
  6
CONTINUOUS
  0
LAYER
  2
CSLAYER8
 70
    64
 62
     7
  6
CONTINUOUS
  0
LAYER
  2
CSLAYER9
 70
    64
 62
     7
  6
CONTINUOUS
  0
LAYER
  2
CSLAYER10
 70
    64
 62
     7
  6
CONTINUOUS
  0
LAYER
  2
CSLAYER11
 70
    64
 62
     7
  6
CONTINUOUS
  0
LAYER
  2
CSLAYER12
 70
    64
 62
     7
  6
CONTINUOUS
  0
LAYER
  2
CSLAYER13
 70
    64
 62
     7
  6
CONTINUOUS
  0
LAYER
  2
CSLAYER14
 70
    64
 62
     7
  6
CONTINUOUS
  0
LAYER
  2
CSLAYER15
 70
    64
 62
     7
  6
CONTINUOUS
  0
LAYER
  2
CSLAYER16
 70
    64
 62
     7
  6
CONTINUOUS
  0
ENDTAB
  0
TABLE
  2
STYLE
 70
     1
  0
STYLE
  2
EASYDRAW_FONT
 70
     0
 40
1.0
 41
1.0
 50
0.0
 71
     0
 42
1.0
  3
monotxt
  4
bigfont
  0
ENDTAB
  0
TABLE
  2
VIEW
 70
     0
  0
ENDTAB
  0
ENDSEC
  0
SECTION
  2
BLOCKS
  0
BLOCK
  8
CSLAYER1
  2
*D0000
 70
    65
 10
0.0
 20
0.0
 30
0.0
  0
TEXT
  8
CSLAYER1
 62
     3
 10
2353.716553
 20
1038.083252
 40
40.000000
 41
0.843750
  1
580
 50
90.000000
 51
0.000000
  7
EASYDRAW_FONT
 72
     5
 11
2353.716553
 21
1128.083252
  0
LINE
  8
CSLAYER1
  6
CONTINUOUS
 62
     5
 10
2369.716477
 20
777.301468
 11
2158.007323
 21
777.301468
  0
LINE
  8
CSLAYER1
  6
CONTINUOUS
 62
     5
 10
2369.716477
 20
1388.865139
 11
2177.552282
 21
1388.865139
  0
LINE
  8
CSLAYER1
  6
CONTINUOUS
 62
     5
 10
2361.716477
 20
777.301468
 11
2361.716477
 21
1388.865139
  0
LINE
  8
CSLAYER1
  6
CONTINUOUS
 62
     5
 10
2361.716477
 20
777.301468
 11
2353.951906
 21
806.279243
  0
LINE
  8
CSLAYER1
  6
CONTINUOUS
 62
     5
 10
2361.716477
 20
777.301468
 11
2369.481048
 21
806.279243
  0
LINE
  8
CSLAYER1
  6
CONTINUOUS
 62
     5
 10
2361.716477
 20
1388.865139
 11
2353.951906
 21
1359.887364
  0
LINE
  8
CSLAYER1
  6
CONTINUOUS
 62
     5
 10
2361.716477
 20
1388.865139
 11
2369.481048
 21
1359.887364
  0
ENDBLK
  8
0
  0
BLOCK
  8
CSLAYER1
  2
*D0001
 70
    65
 10
0.0
 20
0.0
 30
0.0
  0
TEXT
  8
CSLAYER1
 62
     3
 10
974.223511
 20
1242.885376
 40
40.000000
 41
0.769737
  1
テーブルのズレ　ＭＡＸ２０
 50
0.000000
 51
0.000000
  7
EASYDRAW_FONT
 72
     5
 11
1364.223511
 21
1242.885376
  0
LINE
  8
CSLAYER1
  6
CONTINUOUS
 62
     5
 10
1347.707323
 20
857.301468
 11
1347.707323
 21
1239.140840
  0
LINE
  8
CSLAYER1
  6
CONTINUOUS
 62
     5
 10
1367.552282
 20
1358.865139
 11
1367.552282
 21
1223.140840
  0
LINE
  8
CSLAYER1
  6
CONTINUOUS
 62
     5
 10
1347.707323
 20
1231.140840
 11
1367.552282
 21
1231.140840
  0
LINE
  8
CSLAYER1
  6
CONTINUOUS
 62
     5
 10
961.428806
 20
1231.140840
 11
1347.707323
 21
1231.140840
  0
LINE
  8
CSLAYER1
  6
CONTINUOUS
 62
     5
 10
1347.707323
 20
1231.140840
 11
1318.729548
 21
1238.905411
  0
LINE
  8
CSLAYER1
  6
CONTINUOUS
 62
     5
 10
1347.707323
 20
1231.140840
 11
1318.729548
 21
1223.376269
  0
LINE
  8
CSLAYER1
  6
CONTINUOUS
 62
     5
 10
1367.552282
 20
1231.140840
 11
1407.552282
 21
1231.140840
  0
LINE
  8
CSLAYER1
  6
CONTINUOUS
 62
     5
 10
1367.552282
 20
1231.140840
 11
1396.530056
 21
1238.905411
  0
LINE
  8
CSLAYER1
  6
CONTINUOUS
 62
     5
 10
1367.552282
 20
1231.140840
 11
1396.530056
 21
1223.376269
  0
ENDBLK
  8
0
  0
BLOCK
  8
CSLAYER1
  2
EASYDRAWDIM0000
 70
   64
 10
0.0
 20
0.0
 30
0.0
  0
TEXT
  8
CSLAYER1
 62
     3
 10
940.482971
 20
646.444763
 40
40.000000
 41
0.771429
  1
2-%%c13（アンカー穴）
 50
0.000000
 51
0.000000
  7
EASYDRAW_FONT
 72
     5
 11
1300.482971
 21
646.444763
  0
LINE
  8
CSLAYER1
  6
CONTINUOUS
 62
     5
 10
980.506143
 20
694.399731
 11
1266.102807
 21
694.399731
  0
ENDBLK
  8
0
  0
BLOCK
  8
CSLAYER1
  2
EASYDRAWDIM0001
 70
   64
 10
0.0
 20
0.0
 30
0.0
  0
TEXT
  8
CSLAYER1
 62
     3
 10
1038.885376
 20
1157.311890
 40
40.000000
 41
0.787500
  1
油圧シリンダー
 50
0.000000
 51
0.000000
  7
EASYDRAW_FONT
 72
     5
 11
1248.885376
 21
1157.311890
  0
LINE
  8
CSLAYER1
  6
CONTINUOUS
 62
     5
 10
1254.889071
 20
1149.311961
 11
1032.561277
 21
1149.311961
  0
ENDBLK
  8
0
  0
BLOCK
  8
CSLAYER1
  2
EASYDRAWDIM0002
 70
   64
 10
0.0
 20
0.0
 30
0.0
  0
TEXT
  8
CSLAYER1
 62
     3
 10
1004.576050
 20
985.163574
 40
40.000000
 41
0.803571
  1
高圧ホース
 50
0.000000
 51
0.000000
  7
EASYDRAW_FONT
 72
     5
 11
1154.576050
 21
985.163574
  0
LINE
  8
CSLAYER1
  6
CONTINUOUS
 62
     5
 10
1269.849492
 20
795.951468
 11
1167.046442
 21
977.163625
  0
LINE
  8
CSLAYER1
  6
CONTINUOUS
 62
     5
 10
1269.849492
 20
795.951468
 11
1248.797366
 21
817.324534
  0
LINE
  8
CSLAYER1
  6
CONTINUOUS
 62
     5
 10
1269.849492
 20
795.951468
 11
1262.304349
 21
824.987149
  0
LINE
  8
CSLAYER1
  6
CONTINUOUS
 62
     5
 10
1167.046442
 20
977.163625
 11
994.513676
 21
977.163625
  0
ENDBLK
  8
0
  0
BLOCK
  8
CSLAYER1
  2
*D0002
 70
    65
 10
0.0
 20
0.0
 30
0.0
  0
TEXT
  8
CSLAYER1
 62
     3
 10
986.692200
 20
812.521484
 40
40.000000
 41
1.125000
  1
6
 50
90.000000
 51
0.000000
  7
EASYDRAW_FONT
 72
     5
 11
986.692200
 21
842.521484
  0
LINE
  8
CSLAYER1
  6
CONTINUOUS
 62
     5
 10
917.598497
 20
777.301468
 11
1002.692288
 21
777.301468
  0
LINE
  8
CSLAYER1
  6
CONTINUOUS
 62
     5
 10
917.598497
 20
783.301468
 11
1002.692288
 21
783.301468
  0
LINE
  8
CSLAYER1
  6
CONTINUOUS
 62
     5
 10
994.692288
 20
777.301468
 11
994.692288
 21
783.301468
  0
LINE
  8
CSLAYER1
  6
CONTINUOUS
 62
     5
 10
994.692288
 20
756.637249
 11
994.692288
 21
777.301468
  0
LINE
  8
CSLAYER1
  6
CONTINUOUS
 62
     5
 10
994.692288
 20
777.301468
 11
986.927716
 21
748.323693
  0
LINE
  8
CSLAYER1
  6
CONTINUOUS
 62
     5
 10
994.692288
 20
777.301468
 11
1002.456859
 21
748.323693
  0
LINE
  8
CSLAYER1
  6
CONTINUOUS
 62
     5
 10
994.692288
 20
783.301468
 11
994.692288
 21
847.741588
  0
LINE
  8
CSLAYER1
  6
CONTINUOUS
 62
     5
 10
994.692288
 20
783.301468
 11
986.927716
 21
812.279243
  0
LINE
  8
CSLAYER1
  6
CONTINUOUS
 62
     5
 10
994.692288
 20
783.301468
 11
1002.456859
 21
812.279243
  0
ENDBLK
  8
0
  0
BLOCK
  8
CSLAYER1
  2
*D0003
 70
    65
 10
0.0
 20
0.0
 30
0.0
  0
TEXT
  8
CSLAYER1
 62
     3
 10
714.598450
 20
710.469849
 40
40.000000
 41
0.843750
  1
250
 50
0.000000
 51
0.000000
  7
EASYDRAW_FONT
 72
     5
 11
804.598450
 21
710.469849
  0
LINE
  8
CSLAYER1
  6
CONTINUOUS
 62
     5
 10
634.598497
 20
769.301468
 11
634.598497
 21
694.469899
  0
LINE
  8
CSLAYER1
  6
CONTINUOUS
 62
     5
 10
884.598497
 20
769.301468
 11
884.598497
 21
694.469899
  0
LINE
  8
CSLAYER1
  6
CONTINUOUS
 62
     5
 10
634.598497
 20
702.469899
 11
884.598497
 21
702.469899
  0
LINE
  8
CSLAYER1
  6
CONTINUOUS
 62
     5
 10
634.598497
 20
702.469899
 11
663.576272
 21
710.234470
  0
LINE
  8
CSLAYER1
  6
CONTINUOUS
 62
     5
 10
634.598497
 20
702.469899
 11
663.576272
 21
694.705327
  0
LINE
  8
CSLAYER1
  6
CONTINUOUS
 62
     5
 10
884.598497
 20
702.469899
 11
855.620722
 21
710.234470
  0
LINE
  8
CSLAYER1
  6
CONTINUOUS
 62
     5
 10
884.598497
 20
702.469899
 11
855.620722
 21
694.705327
  0
ENDBLK
  8
0
  0
BLOCK
  8
CSLAYER1
  2
*D0004
 70
    65
 10
0.0
 20
0.0
 30
0.0
  0
TEXT
  8
CSLAYER1
 62
     3
 10
714.598450
 20
641.096436
 40
40.000000
 41
0.843750
  1
300
 50
0.000000
 51
0.000000
  7
EASYDRAW_FONT
 72
     5
 11
804.598450
 21
641.096436
  0
LINE
  8
CSLAYER1
  6
CONTINUOUS
 62
     5
 10
609.598497
 20
769.301468
 11
609.598497
 21
625.096442
  0
LINE
  8
CSLAYER1
  6
CONTINUOUS
 62
     5
 10
909.598497
 20
769.301468
 11
909.598497
 21
625.096442
  0
LINE
  8
CSLAYER1
  6
CONTINUOUS
 62
     5
 10
609.598497
 20
633.096442
 11
909.598497
 21
633.096442
  0
LINE
  8
CSLAYER1
  6
CONTINUOUS
 62
     5
 10
609.598497
 20
633.096442
 11
638.576272
 21
640.861013
  0
LINE
  8
CSLAYER1
  6
CONTINUOUS
 62
     5
 10
609.598497
 20
633.096442
 11
638.576272
 21
625.331870
  0
LINE
  8
CSLAYER1
  6
CONTINUOUS
 62
     5
 10
909.598497
 20
633.096442
 11
880.620722
 21
640.861013
  0
LINE
  8
CSLAYER1
  6
CONTINUOUS
 62
     5
 10
909.598497
 20
633.096442
 11
880.620722
 21
625.331870
  0
ENDBLK
  8
0
  0
BLOCK
  8
CSLAYER1
  2
*D0005
 70
    65
 10
0.0
 20
0.0
 30
0.0
  0
TEXT
  8
CSLAYER1
 62
     3
 10
1350.099976
 20
646.901733
 40
40.000000
 41
0.900000
  1
25
 50
0.000000
 51
0.000000
  7
EASYDRAW_FONT
 72
     5
 11
1410.099976
 21
646.901733
  0
LINE
  8
CSLAYER1
  6
CONTINUOUS
 62
     5
 10
1345.007323
 20
769.301468
 11
1345.007323
 21
613.765651
  0
LINE
  8
CSLAYER1
  6
CONTINUOUS
 62
     5
 10
1370.007323
 20
786.801468
 11
1370.007323
 21
694.469899
  0
LINE
  8
CSLAYER1
  6
CONTINUOUS
 62
     5
 10
1345.007323
 20
702.469899
 11
1370.007323
 21
702.469899
  0
LINE
  8
CSLAYER1
  6
CONTINUOUS
 62
     5
 10
1305.007323
 20
702.469899
 11
1345.007323
 21
702.469899
  0
LINE
  8
CSLAYER1
  6
CONTINUOUS
 62
     5
 10
1345.007323
 20
702.469899
 11
1316.029548
 21
710.234470
  0
LINE
  8
CSLAYER1
  6
CONTINUOUS
 62
     5
 10
1345.007323
 20
702.469899
 11
1316.029548
 21
694.705327
  0
LINE
  8
CSLAYER1
  6
CONTINUOUS
 62
     5
 10
1370.007323
 20
702.469899
 11
1410.007323
 21
702.469899
  0
LINE
  8
CSLAYER1
  6
CONTINUOUS
 62
     5
 10
1370.007323
 20
702.469899
 11
1398.985098
 21
710.234470
  0
LINE
  8
CSLAYER1
  6
CONTINUOUS
 62
     5
 10
1370.007323
 20
702.469899
 11
1398.985098
 21
694.705327
  0
ENDBLK
  8
0
  0
BLOCK
  8
CSLAYER1
  2
*D0006
 70
    65
 10
0.0
 20
0.0
 30
0.0
  0
TEXT
  8
CSLAYER1
 62
     3
 10
2459.567139
 20
787.301453
 40
40.000000
 41
0.900000
  1
80
 50
90.000000
 51
0.000000
  7
EASYDRAW_FONT
 72
     5
 11
2459.567139
 21
847.301453
  0
LINE
  8
CSLAYER1
  6
CONTINUOUS
 62
     5
 10
2501.382172
 20
777.301468
 11
2459.567079
 21
777.301468
  0
LINE
  8
CSLAYER1
  6
CONTINUOUS
 62
     5
 10
2551.382172
 20
857.301468
 11
2459.567079
 21
857.301468
  0
LINE
  8
CSLAYER1
  6
CONTINUOUS
 62
     5
 10
2469.567079
 20
777.301468
 11
2469.567079
 21
857.301468
  0
LINE
  8
CSLAYER1
  6
CONTINUOUS
 62
     5
 10
2469.567079
 20
777.301468
 11
2461.802507
 21
806.279243
  0
LINE
  8
CSLAYER1
  6
CONTINUOUS
 62
     5
 10
2469.567079
 20
777.301468
 11
2477.331650
 21
806.279243
  0
LINE
  8
CSLAYER1
  6
CONTINUOUS
 62
     5
 10
2469.567079
 20
857.301468
 11
2461.802507
 21
828.323693
  0
LINE
  8
CSLAYER1
  6
CONTINUOUS
 62
     5
 10
2469.567079
 20
857.301468
 11
2477.331650
 21
828.323693
  0
ENDBLK
  8
0
  0
BLOCK
  8
CSLAYER1
  2
*D0007
 70
    65
 10
0.0
 20
0.0
 30
0.0
  0
TEXT
  8
CSLAYER1
 62
     3
 10
2273.859863
 20
787.301453
 40
40.000000
 41
0.900000
  1
80
 50
90.000000
 51
0.000000
  7
EASYDRAW_FONT
 72
     5
 11
2273.859863
 21
847.301453
  0
LINE
  8
CSLAYER1
  6
CONTINUOUS
 62
     5
 10
2157.707323
 20
857.301468
 11
2293.859700
 21
857.301468
  0
LINE
  8
CSLAYER1
  6
CONTINUOUS
 62
     5
 10
2283.859700
 20
777.301468
 11
2283.859700
 21
857.301468
  0
LINE
  8
CSLAYER1
  6
CONTINUOUS
 62
     5
 10
2283.859700
 20
777.301468
 11
2276.095129
 21
806.279243
  0
LINE
  8
CSLAYER1
  6
CONTINUOUS
 62
     5
 10
2283.859700
 20
777.301468
 11
2291.624272
 21
806.279243
  0
LINE
  8
CSLAYER1
  6
CONTINUOUS
 62
     5
 10
2283.859700
 20
857.301468
 11
2276.095129
 21
828.323693
  0
LINE
  8
CSLAYER1
  6
CONTINUOUS
 62
     5
 10
2283.859700
 20
857.301468
 11
2291.624272
 21
828.323693
  0
ENDBLK
  8
0
  0
BLOCK
  8
CSLAYER1
  2
*D0008
 70
    65
 10
0.0
 20
0.0
 30
0.0
  0
TEXT
  8
CSLAYER1
 62
     3
 10
2273.859863
 20
1078.083252
 40
40.000000
 41
0.843750
  1
500
 50
90.000000
 51
0.000000
  7
EASYDRAW_FONT
 72
     5
 11
2273.859863
 21
1168.083252
  0
LINE
  8
CSLAYER1
  6
CONTINUOUS
 62
     5
 10
2283.859700
 20
857.301468
 11
2283.859700
 21
1388.865139
  0
LINE
  8
CSLAYER1
  6
CONTINUOUS
 62
     5
 10
2283.859700
 20
857.301468
 11
2276.095129
 21
886.279243
  0
LINE
  8
CSLAYER1
  6
CONTINUOUS
 62
     5
 10
2283.859700
 20
857.301468
 11
2291.624272
 21
886.279243
  0
LINE
  8
CSLAYER1
  6
CONTINUOUS
 62
     5
 10
2283.859700
 20
1388.865139
 11
2276.095129
 21
1359.887364
  0
LINE
  8
CSLAYER1
  6
CONTINUOUS
 62
     5
 10
2283.859700
 20
1388.865139
 11
2291.624272
 21
1359.887364
  0
ENDBLK
  8
0
  0
BLOCK
  8
CSLAYER1
  2
*D0009
 70
    65
 10
0.0
 20
0.0
 30
0.0
  0
TEXT
  8
CSLAYER1
 62
     3
 10
1722.552368
 20
1502.361450
 40
40.000000
 41
0.843750
  1
800
 50
0.000000
 51
0.000000
  7
EASYDRAW_FONT
 72
     5
 11
1812.552368
 21
1502.361450
  0
LINE
  8
CSLAYER1
  6
CONTINUOUS
 62
     5
 10
1367.552282
 20
1398.865139
 11
1367.552282
 21
1502.361497
  0
LINE
  8
CSLAYER1
  6
CONTINUOUS
 62
     5
 10
2167.552282
 20
1398.865139
 11
2167.552282
 21
1502.361497
  0
LINE
  8
CSLAYER1
  6
CONTINUOUS
 62
     5
 10
1367.552282
 20
1492.361497
 11
2167.552282
 21
1492.361497
  0
LINE
  8
CSLAYER1
  6
CONTINUOUS
 62
     5
 10
1367.552282
 20
1492.361497
 11
1396.530056
 21
1500.126068
  0
LINE
  8
CSLAYER1
  6
CONTINUOUS
 62
     5
 10
1367.552282
 20
1492.361497
 11
1396.530056
 21
1484.596925
  0
LINE
  8
CSLAYER1
  6
CONTINUOUS
 62
     5
 10
2167.552282
 20
1492.361497
 11
2138.574507
 21
1500.126068
  0
LINE
  8
CSLAYER1
  6
CONTINUOUS
 62
     5
 10
2167.552282
 20
1492.361497
 11
2138.574507
 21
1484.596925
  0
ENDBLK
  8
0
  0
BLOCK
  8
CSLAYER1
  2
*D0010
 70
    65
 10
0.0
 20
0.0
 30
0.0
  0
TEXT
  8
CSLAYER1
 62
     3
 10
1701.507202
 20
633.765625
 40
40.000000
 41
0.843750
  1
803
 50
0.000000
 51
0.000000
  7
EASYDRAW_FONT
 72
     5
 11
1791.507202
 21
633.765625
  0
LINE
  8
CSLAYER1
  6
CONTINUOUS
 62
     5
 10
2148.007323
 20
767.301468
 11
2148.007323
 21
613.765651
  0
LINE
  8
CSLAYER1
  6
CONTINUOUS
 62
     5
 10
1345.007323
 20
623.765651
 11
2148.007323
 21
623.765651
  0
LINE
  8
CSLAYER1
  6
CONTINUOUS
 62
     5
 10
1345.007323
 20
623.765651
 11
1373.985098
 21
631.530223
  0
LINE
  8
CSLAYER1
  6
CONTINUOUS
 62
     5
 10
1345.007323
 20
623.765651
 11
1373.985098
 21
616.001080
  0
LINE
  8
CSLAYER1
  6
CONTINUOUS
 62
     5
 10
2148.007323
 20
623.765651
 11
2119.029548
 21
631.530223
  0
LINE
  8
CSLAYER1
  6
CONTINUOUS
 62
     5
 10
2148.007323
 20
623.765651
 11
2119.029548
 21
616.001080
  0
ENDBLK
  8
0
  0
BLOCK
  8
CSLAYER1
  2
*D0011
 70
    65
 10
0.0
 20
0.0
 30
0.0
  0
TEXT
  8
CSLAYER1
 62
     3
 10
714.598450
 20
1458.021484
 40
40.000000
 41
0.843750
  1
250
 50
0.000000
 51
0.000000
  7
EASYDRAW_FONT
 72
     5
 11
804.598450
 21
1458.021484
  0
LINE
  8
CSLAYER1
  6
CONTINUOUS
 62
     5
 10
634.598497
 20
1398.865139
 11
634.598497
 21
1458.021472
  0
LINE
  8
CSLAYER1
  6
CONTINUOUS
 62
     5
 10
884.598497
 20
1398.865139
 11
884.598497
 21
1458.021472
  0
LINE
  8
CSLAYER1
  6
CONTINUOUS
 62
     5
 10
634.598497
 20
1448.021472
 11
884.598497
 21
1448.021472
  0
LINE
  8
CSLAYER1
  6
CONTINUOUS
 62
     5
 10
634.598497
 20
1448.021472
 11
663.576272
 21
1455.786044
  0
LINE
  8
CSLAYER1
  6
CONTINUOUS
 62
     5
 10
634.598497
 20
1448.021472
 11
663.576272
 21
1440.256901
  0
LINE
  8
CSLAYER1
  6
CONTINUOUS
 62
     5
 10
884.598497
 20
1448.021472
 11
855.620722
 21
1455.786044
  0
LINE
  8
CSLAYER1
  6
CONTINUOUS
 62
     5
 10
884.598497
 20
1448.021472
 11
855.620722
 21
1440.256901
  0
ENDBLK
  8
0
  0
BLOCK
  8
CSLAYER1
  2
*D0012
 70
    65
 10
0.0
 20
0.0
 30
0.0
  0
TEXT
  8
CSLAYER1
 62
     3
 10
1251.501099
 20
1874.692749
 40
40.000000
 41
0.843750
  1
250
 50
90.000000
 51
0.000000
  7
EASYDRAW_FONT
 72
     5
 11
1251.501099
 21
1964.692749
  0
LINE
  8
CSLAYER1
  6
CONTINUOUS
 62
     5
 10
1348.744522
 20
1820.245342
 11
1249.753263
 21
1820.245342
  0
LINE
  8
CSLAYER1
  6
CONTINUOUS
 62
     5
 10
1348.744522
 20
2070.245342
 11
1249.753263
 21
2070.245342
  0
LINE
  8
CSLAYER1
  6
CONTINUOUS
 62
     5
 10
1259.753263
 20
1820.245342
 11
1259.753263
 21
2070.245342
  0
LINE
  8
CSLAYER1
  6
CONTINUOUS
 62
     5
 10
1259.753263
 20
1820.245342
 11
1251.988691
 21
1849.223117
  0
LINE
  8
CSLAYER1
  6
CONTINUOUS
 62
     5
 10
1259.753263
 20
1820.245342
 11
1267.517834
 21
1849.223117
  0
LINE
  8
CSLAYER1
  6
CONTINUOUS
 62
     5
 10
1259.753263
 20
2070.245342
 11
1251.988691
 21
2041.267567
  0
LINE
  8
CSLAYER1
  6
CONTINUOUS
 62
     5
 10
1259.753263
 20
2070.245342
 11
1267.517834
 21
2041.267567
  0
ENDBLK
  8
0
  0
BLOCK
  8
CSLAYER1
  2
*D0013
 70
    65
 10
0.0
 20
0.0
 30
0.0
  0
TEXT
  8
CSLAYER1
 62
     3
 10
1274.151733
 20
1714.918335
 40
40.000000
 41
0.900000
  1
25
 50
0.000000
 51
0.000000
  7
EASYDRAW_FONT
 72
     5
 11
1334.151733
 21
1714.918335
  0
LINE
  8
CSLAYER1
  6
CONTINUOUS
 62
     5
 10
1345.007323
 20
1795.245342
 11
1345.007323
 21
1654.373709
  0
LINE
  8
CSLAYER1
  6
CONTINUOUS
 62
     5
 10
1370.007323
 20
1798.982540
 11
1370.007323
 21
1721.185277
  0
LINE
  8
CSLAYER1
  6
CONTINUOUS
 62
     5
 10
1345.007323
 20
1731.185277
 11
1370.007323
 21
1731.185277
  0
LINE
  8
CSLAYER1
  6
CONTINUOUS
 62
     5
 10
1345.007323
 20
1731.185277
 11
1373.985098
 21
1738.949848
  0
LINE
  8
CSLAYER1
  6
CONTINUOUS
 62
     5
 10
1345.007323
 20
1731.185277
 11
1373.985098
 21
1723.420706
  0
LINE
  8
CSLAYER1
  6
CONTINUOUS
 62
     5
 10
1370.007323
 20
1731.185277
 11
1341.029548
 21
1738.949848
  0
LINE
  8
CSLAYER1
  6
CONTINUOUS
 62
     5
 10
1370.007323
 20
1731.185277
 11
1341.029548
 21
1723.420706
  0
ENDBLK
  8
0
  0
BLOCK
  8
CSLAYER1
  2
*D0014
 70
    65
 10
0.0
 20
0.0
 30
0.0
  0
TEXT
  8
CSLAYER1
 62
     3
 10
1275.313843
 20
1647.525757
 40
40.000000
 41
0.900000
  1
50
 50
0.000000
 51
0.000000
  7
EASYDRAW_FONT
 72
     5
 11
1335.313843
 21
1647.525757
  0
LINE
  8
CSLAYER1
  6
CONTINUOUS
 62
     5
 10
1395.007323
 20
1795.245342
 11
1395.007323
 21
1654.373709
  0
LINE
  8
CSLAYER1
  6
CONTINUOUS
 62
     5
 10
1345.007323
 20
1664.373709
 11
1395.007323
 21
1664.373709
  0
LINE
  8
CSLAYER1
  6
CONTINUOUS
 62
     5
 10
1345.007323
 20
1664.373709
 11
1373.985098
 21
1672.138281
  0
LINE
  8
CSLAYER1
  6
CONTINUOUS
 62
     5
 10
1345.007323
 20
1664.373709
 11
1373.985098
 21
1656.609138
  0
LINE
  8
CSLAYER1
  6
CONTINUOUS
 62
     5
 10
1395.007323
 20
1664.373709
 11
1366.029548
 21
1672.138281
  0
LINE
  8
CSLAYER1
  6
CONTINUOUS
 62
     5
 10
1395.007323
 20
1664.373709
 11
1366.029548
 21
1656.609138
  0
ENDBLK
  8
0
  0
BLOCK
  8
CSLAYER1
  2
EASYDRAWDIM0003
 70
   64
 10
0.0
 20
0.0
 30
0.0
  0
TEXT
  8
CSLAYER1
 62
     3
 10
1488.229126
 20
1699.869019
 40
40.000000
 41
0.771429
  1
2-%%c13(アンカー穴)
 50
0.000000
 51
0.000000
  7
EASYDRAW_FONT
 72
     5
 11
1848.229126
 21
1699.869019
  0
LINE
  8
CSLAYER1
  6
CONTINUOUS
 62
     5
 10
1374.405923
 20
1815.987501
 11
1483.887890
 21
1689.868977
  0
LINE
  8
CSLAYER1
  6
CONTINUOUS
 62
     5
 10
1374.405923
 20
1815.987501
 11
1399.265583
 21
1799.194725
  0
LINE
  8
CSLAYER1
  6
CONTINUOUS
 62
     5
 10
1374.405923
 20
1815.987501
 11
1387.538632
 21
1789.014700
  0
LINE
  8
CSLAYER1
  6
CONTINUOUS
 62
     5
 10
1483.887890
 20
1689.868977
 11
1858.229143
 21
1689.868977
  0
ENDBLK
  8
0
  0
BLOCK
  8
CSLAYER1
  2
EASYDRAWDIM0004
 70
   64
 10
0.0
 20
0.0
 30
0.0
  0
TEXT
  8
CSLAYER1
 62
     3
 10
1300.739868
 20
1843.144875
 40
33.155758
 41
0.767879
  1
穴ヒﾟッチ
 50
90.000000
 51
0.000000
  7
EASYDRAW_FONT
 72
     5
 11
1300.739868
 21
1961.956444
  0
ENDBLK
  8
0
  0
BLOCK
  8
CSLAYER1
  2
*D0015
 70
    65
 10
0.0
 20
0.0
 30
0.0
  0
TEXT
  8
CSLAYER1
 62
     3
 10
2243.422363
 20
1900.245483
 40
40.000000
 41
0.843750
  1
250
 50
90.000000
 51
0.000000
  7
EASYDRAW_FONT
 72
     5
 11
2243.422363
 21
1990.245483
  0
LINE
  8
CSLAYER1
  6
CONTINUOUS
 62
     5
 10
2157.407323
 20
1820.245342
 11
2263.422373
 21
1820.245342
  0
LINE
  8
CSLAYER1
  6
CONTINUOUS
 62
     5
 10
2157.407323
 20
2070.245342
 11
2263.422373
 21
2070.245342
  0
LINE
  8
CSLAYER1
  6
CONTINUOUS
 62
     5
 10
2253.422373
 20
1820.245342
 11
2253.422373
 21
2070.245342
  0
LINE
  8
CSLAYER1
  6
CONTINUOUS
 62
     5
 10
2253.422373
 20
1820.245342
 11
2245.657802
 21
1849.223117
  0
LINE
  8
CSLAYER1
  6
CONTINUOUS
 62
     5
 10
2253.422373
 20
1820.245342
 11
2261.186945
 21
1849.223117
  0
LINE
  8
CSLAYER1
  6
CONTINUOUS
 62
     5
 10
2253.422373
 20
2070.245342
 11
2245.657802
 21
2041.267567
  0
LINE
  8
CSLAYER1
  6
CONTINUOUS
 62
     5
 10
2253.422373
 20
2070.245342
 11
2261.186945
 21
2041.267567
  0
ENDBLK
  8
0
  0
BLOCK
  8
CSLAYER1
  2
BLKF0000
 70
   64
 10
0.0
 20
0.0
 30
0.0
  0
LINE
  8
CSLAYER1
  6
CONTINUOUS
 62
     5
 10
3457.667423
 20
1487.584029
 11
2577.667423
 21
1487.584029
  0
TEXT
  8
CSLAYER1
 62
     3
 10
3055.050537
 20
1493.234131
 40
40.000000
 41
0.832500
  1
10R4/13
 50
0.000000
 51
0.000000
  7
EASYDRAW_FONT
 72
     5
 11
3277.050537
 21
1493.234131
  0
ENDBLK
  8
0
  0
BLOCK
  8
CSLAYER1
  2
BLKF0001
 70
   64
 10
0.0
 20
0.0
 30
0.0
  0
ARC
  8
CSLAYER1
  6
CONTINUOUS
 62
     5
 10
2872.951814
 20
119.798467
 40
3.549225
 50
6.429109
 51
73.182034
  0
ARC
  8
CSLAYER1
  6
CONTINUOUS
 62
     5
 10
2869.490843
 20
118.640074
 40
6.907754
 50
310.517970
 51
330.092764
  0
ARC
  8
CSLAYER1
  6
CONTINUOUS
 62
     5
 10
2869.430194
 20
119.005592
 40
7.148321
 50
-32.205059
 51
9.585194
  0
ARC
  8
CSLAYER1
  6
CONTINUOUS
 62
     5
 10
2872.722922
 20
116.244593
 40
4.767514
 50
180.000000
 51
218.514150
  0
ARC
  8
CSLAYER1
  6
CONTINUOUS
 62
     5
 10
2871.436201
 20
115.567453
 40
3.348282
 50
222.781148
 51
319.406906
  0
ARC
  8
CSLAYER1
  6
CONTINUOUS
 62
     5
 10
2874.501843
 20
116.657345
 40
6.559434
 50
94.574282
 51
183.607718
  0
LINE
  8
CSLAYER1
  6
CONTINUOUS
 62
     5
 10
2887.945749
 20
111.540513
 11
2887.088713
 21
108.501930
  0
LINE
  8
CSLAYER1
  6
CONTINUOUS
 62
     5
 10
2889.737734
 20
131.408171
 11
2887.634099
 21
134.135104
  0
LINE
  8
CSLAYER1
  6
CONTINUOUS
 62
     5
 10
2887.634099
 20
134.135104
 11
2880.880745
 21
137.893016
  0
LINE
  8
CSLAYER1
  6
CONTINUOUS
 62
     5
 10
2880.880745
 20
137.893016
 11
2873.978718
 21
138.695887
  0
LINE
  8
CSLAYER1
  6
CONTINUOUS
 62
     5
 10
2855.689493
 20
125.317213
 11
2857.836187
 21
130.281444
  0
LINE
  8
CSLAYER1
  6
CONTINUOUS
 62
     5
 10
2857.799189
 20
130.195887
 11
2859.982881
 21
132.830643
  0
LINE
  8
CSLAYER1
  6
CONTINUOUS
 62
     5
 10
2859.982881
 20
132.830643
 11
2863.287303
 21
135.195887
  0
LINE
  8
CSLAYER1
  6
CONTINUOUS
 62
     5
 10
2873.978718
 20
138.695887
 11
2872.460542
 21
137.929042
  0
LINE
  8
CSLAYER1
  6
CONTINUOUS
 62
     5
 10
2872.460542
 20
137.929042
 11
2868.972164
 21
137.929042
  0
LINE
  8
CSLAYER1
  6
CONTINUOUS
 62
     5
 10
2868.972164
 20
137.929042
 11
2865.416701
 21
135.983601
  0
LINE
  8
CSLAYER1
  6
CONTINUOUS
 62
     5
 10
2865.416701
 20
135.983601
 11
2863.287303
 21
135.195887
  0
LINE
  8
CSLAYER1
  6
CONTINUOUS
 62
     5
 10
2855.689493
 20
125.317213
 11
2854.171946
 21
117.768610
  0
LINE
  8
CSLAYER1
  6
CONTINUOUS
 62
     5
 10
2854.171946
 20
117.768610
 11
2853.978718
 21
115.195887
  0
LINE
  8
CSLAYER1
  6
CONTINUOUS
 62
     5
 10
2856.688101
 20
107.356104
 11
2853.978718
 21
113.452215
  0
LINE
  8
CSLAYER1
  6
CONTINUOUS
 62
     5
 10
2853.978718
 20
113.452215
 11
2853.978718
 21
115.195887
  0
LINE
  8
CSLAYER1
  6
CONTINUOUS
 62
     5
 10
2887.088713
 20
108.501930
 11
2885.402926
 21
105.498924
  0
LINE
  8
CSLAYER1
  6
CONTINUOUS
 62
     5
 10
2885.402926
 20
105.498924
 11
2883.978718
 21
104.180213
  0
ARC
  8
CSLAYER1
  6
CONTINUOUS
 62
     5
 10
2871.786773
 20
115.732647
 40
17.266626
 50
208.054813
 51
260.640470
  0
ARC
  8
CSLAYER1
  6
CONTINUOUS
 62
     5
 10
2866.593378
 20
128.475117
 40
29.874611
 50
274.579659
 51
305.587364
  0
ARC
  8
CSLAYER1
  6
CONTINUOUS
 62
     5
 10
2877.565727
 20
122.491394
 40
15.088627
 50
313.467013
 51
331.085078
  0
LINE
  8
CSLAYER1
  6
CONTINUOUS
 62
     5
 10
2892.357059
 20
118.709308
 11
2892.654354
 21
122.491394
  0
LINE
  8
CSLAYER1
  6
CONTINUOUS
 62
     5
 10
2892.654354
 20
122.491394
 11
2891.362356
 21
128.600377
  0
LINE
  8
CSLAYER1
  6
CONTINUOUS
 62
     5
 10
2892.357059
 20
118.709308
 11
2890.773385
 21
115.195887
  0
ARC
  8
CSLAYER1
  6
CONTINUOUS
 62
     5
 10
2877.565727
 20
122.491394
 40
15.088627
 50
23.883193
 51
36.225170
  0
LINE
  8
CSLAYER1
  6
CONTINUOUS
 62
     5
 10
2837.978718
 20
150.195887
 11
2838.978718
 21
151.288531
  0
LINE
  8
CSLAYER1
  6
CONTINUOUS
 62
     5
 10
2837.978718
 20
150.195887
 11
2839.555676
 21
148.750854
  0
LINE
  8
CSLAYER1
  6
CONTINUOUS
 62
     5
 10
2841.094888
 20
146.641562
 11
2841.121157
 21
144.473443
  0
LINE
  8
CSLAYER1
  6
CONTINUOUS
 62
     5
 10
2841.121157
 20
144.473443
 11
2841.328555
 21
143.712984
  0
LINE
  8
CSLAYER1
  6
CONTINUOUS
 62
     5
 10
2841.328555
 20
143.712984
 11
2841.916182
 21
142.987091
  0
LINE
  8
CSLAYER1
  6
CONTINUOUS
 62
     5
 10
2841.916182
 20
142.987091
 11
2842.503810
 21
143.056223
  0
LINE
  8
CSLAYER1
  6
CONTINUOUS
 62
     5
 10
2842.503810
 20
143.056223
 11
2843.126004
 21
143.229055
  0
LINE
  8
CSLAYER1
  6
CONTINUOUS
 62
     5
 10
2843.126004
 20
143.229055
 11
2843.540800
 21
143.056223
  0
LINE
  8
CSLAYER1
  6
CONTINUOUS
 62
     5
 10
2843.540800
 20
143.056223
 11
2844.439524
 21
142.606861
  0
LINE
  8
CSLAYER1
  6
CONTINUOUS
 62
     5
 10
2844.439524
 20
142.606861
 11
2845.215576
 21
142.195887
  0
LINE
  8
CSLAYER1
  6
CONTINUOUS
 62
     5
 10
2845.215576
 20
142.195887
 11
2845.718479
 21
142.226631
  0
LINE
  8
CSLAYER1
  6
CONTINUOUS
 62
     5
 10
2845.718479
 20
142.226631
 11
2848.526351
 21
143.673111
  0
LINE
  8
CSLAYER1
  6
CONTINUOUS
 62
     5
 10
2838.978718
 20
151.288531
 11
2839.311570
 21
152.762238
  0
LINE
  8
CSLAYER1
  6
CONTINUOUS
 62
     5
 10
2839.311570
 20
152.762238
 11
2840.764975
 21
152.912591
  0
LINE
  8
CSLAYER1
  6
CONTINUOUS
 62
     5
 10
2842.258733
 20
155.681049
 11
2844.012906
 21
155.838139
  0
LINE
  8
CSLAYER1
  6
CONTINUOUS
 62
     5
 10
2844.012906
 20
155.838139
 11
2847.547434
 21
156.675953
  0
LINE
  8
CSLAYER1
  6
CONTINUOUS
 62
     5
 10
2847.547434
 20
156.675953
 11
2848.978718
 21
157.007592
  0
LINE
  8
CSLAYER1
  6
CONTINUOUS
 62
     5
 10
2842.258733
 20
155.681049
 11
2840.325842
 21
155.839917
  0
LINE
  8
CSLAYER1
  6
CONTINUOUS
 62
     5
 10
2839.589719
 20
154.971230
 11
2839.683245
 21
154.600068
  0
LINE
  8
CSLAYER1
  6
CONTINUOUS
 62
     5
 10
2839.683245
 20
154.600068
 11
2840.174839
 21
154.062387
  0
LINE
  8
CSLAYER1
  6
CONTINUOUS
 62
     5
 10
2840.174839
 20
154.062387
 11
2840.850780
 21
153.555431
  0
LINE
  8
CSLAYER1
  6
CONTINUOUS
 62
     5
 10
2840.850780
 20
153.555431
 11
2840.974105
 21
153.390998
  0
LINE
  8
CSLAYER1
  6
CONTINUOUS
 62
     5
 10
2839.555676
 20
148.750854
 11
2841.094888
 21
146.641562
  0
ARC
  8
CSLAYER1
  6
CONTINUOUS
 62
     5
 10
2883.965418
 20
-21.462766
 40
180.727463
 50
80.438896
 51
96.353582
  0
ARC
  8
CSLAYER1
  6
CONTINUOUS
 62
     5
 10
2859.066505
 20
123.785134
 40
34.720242
 50
81.866516
 51
106.890578
  0
LINE
  8
CSLAYER1
  6
CONTINUOUS
 62
     5
 10
2918.172979
 20
155.962557
 11
2920.420062
 21
154.941156
  0
LINE
  8
CSLAYER1
  6
CONTINUOUS
 62
     5
 10
2923.994966
 20
153.357984
 11
2920.420062
 21
154.941156
  0
LINE
  8
CSLAYER1
  6
CONTINUOUS
 62
     5
 10
2918.172979
 20
155.962557
 11
2913.978718
 21
156.755128
  0
LINE
  8
CSLAYER1
  6
CONTINUOUS
 62
     5
 10
2923.978718
 20
153.365179
 11
2925.850293
 21
151.796703
  0
LINE
  8
CSLAYER1
  6
CONTINUOUS
 62
     5
 10
2907.221974
 20
154.402030
 11
2908.121249
 21
155.854705
  0
LINE
  8
CSLAYER1
  6
CONTINUOUS
 62
     5
 10
2908.121249
 20
155.854705
 11
2912.796847
 21
154.735196
  0
LINE
  8
CSLAYER1
  6
CONTINUOUS
 62
     5
 10
2912.796847
 20
154.735196
 11
2929.539233
 21
150.195887
  0
LINE
  8
CSLAYER1
  6
CONTINUOUS
 62
     5
 10
2932.478718
 20
150.195887
 11
2925.850293
 21
151.796703
  0
LINE
  8
CSLAYER1
  6
CONTINUOUS
 62
     5
 10
2929.539233
 20
150.195887
 11
2932.478718
 21
150.195887
  0
LINE
  8
CSLAYER1
  6
CONTINUOUS
 62
     5
 10
2873.978718
 20
154.660828
 11
2893.978718
 21
155.195887
  0
LINE
  8
CSLAYER1
  6
CONTINUOUS
 62
     5
 10
2893.978718
 20
155.195887
 11
2907.221974
 21
154.402030
  0
LINE
  8
CSLAYER1
  6
CONTINUOUS
 62
     5
 10
2908.824955
 20
152.341551
 11
2893.978718
 21
153.695887
  0
LINE
  8
CSLAYER1
  6
CONTINUOUS
 62
     5
 10
2893.978718
 20
153.695887
 11
2878.929508
 21
154.104539
  0
LINE
  8
CSLAYER1
  6
CONTINUOUS
 62
     5
 10
2878.978718
 20
154.103202
 11
2873.978718
 21
154.198496
  0
LINE
  8
CSLAYER1
  6
CONTINUOUS
 62
     5
 10
2873.978718
 20
154.660828
 11
2873.978718
 21
154.198496
  0
LINE
  8
CSLAYER1
  6
CONTINUOUS
 62
     5
 10
2931.478718
 20
146.695887
 11
2922.636159
 21
149.006549
  0
LINE
  8
CSLAYER1
  6
CONTINUOUS
 62
     5
 10
2908.824955
 20
152.341551
 11
2918.978718
 21
150.369167
  0
LINE
  8
CSLAYER1
  6
CONTINUOUS
 62
     5
 10
2918.978718
 20
150.369167
 11
2922.636159
 21
149.006549
  0
LINE
  8
CSLAYER1
  6
CONTINUOUS
 62
     5
 10
2931.478718
 20
146.695887
 11
2931.186101
 21
145.856781
  0
LINE
  8
CSLAYER1
  6
CONTINUOUS
 62
     5
 10
2940.978718
 20
141.195887
 11
2940.672691
 21
142.424868
  0
LINE
  8
CSLAYER1
  6
CONTINUOUS
 62
     5
 10
2931.186101
 20
145.856781
 11
2940.672691
 21
142.424868
  0
LINE
  8
CSLAYER1
  6
CONTINUOUS
 62
     5
 10
2877.478718
 20
146.695887
 11
2879.901756
 21
146.695887
  0
LINE
  8
CSLAYER1
  6
CONTINUOUS
 62
     5
 10
2899.978718
 20
147.128382
 11
2899.978718
 21
146.695887
  0
LINE
  8
CSLAYER1
  6
CONTINUOUS
 62
     5
 10
2898.978718
 20
147.662823
 11
2897.267439
 21
148.300002
  0
LINE
  8
CSLAYER1
  6
CONTINUOUS
 62
     5
 10
2897.267439
 20
148.300002
 11
2896.157383
 21
148.350459
  0
LINE
  8
CSLAYER1
  6
CONTINUOUS
 62
     5
 10
2896.157383
 20
148.350459
 11
2895.678040
 21
148.098173
  0
LINE
  8
CSLAYER1
  6
CONTINUOUS
 62
     5
 10
2895.678040
 20
148.098173
 11
2895.577126
 21
147.694516
  0
LINE
  8
CSLAYER1
  6
CONTINUOUS
 62
     5
 10
2895.577126
 20
147.694516
 11
2896.031240
 21
147.391774
  0
LINE
  8
CSLAYER1
  6
CONTINUOUS
 62
     5
 10
2896.031240
 20
147.391774
 11
2897.671095
 21
147.240403
  0
LINE
  8
CSLAYER1
  6
CONTINUOUS
 62
     5
 10
2897.671095
 20
147.240403
 11
2899.978718
 21
147.128382
  0
LINE
  8
CSLAYER1
  6
CONTINUOUS
 62
     5
 10
2940.978718
 20
141.195887
 11
2938.003175
 21
142.382468
  0
LINE
  8
CSLAYER1
  6
CONTINUOUS
 62
     5
 10
2938.003175
 20
142.382468
 11
2927.947486
 21
144.225344
  0
LINE
  8
CSLAYER1
  6
CONTINUOUS
 62
     5
 10
2927.947486
 20
144.225344
 11
2922.921706
 21
145.385139
  0
LINE
  8
CSLAYER1
  6
CONTINUOUS
 62
     5
 10
2900.512939
 20
147.695887
 11
2912.278605
 21
147.695887
  0
LINE
  8
CSLAYER1
  6
CONTINUOUS
 62
     5
 10
2898.978718
 20
147.662823
 11
2899.503378
 21
147.354356
  0
LINE
  8
CSLAYER1
  6
CONTINUOUS
 62
     5
 10
2899.503378
 20
147.354356
 11
2899.800190
 21
147.265312
  0
LINE
  8
CSLAYER1
  6
CONTINUOUS
 62
     5
 10
2899.800190
 20
147.265312
 11
2899.978718
 21
147.290483
  0
LINE
  8
CSLAYER1
  6
CONTINUOUS
 62
     5
 10
2899.978718
 20
147.290483
 11
2900.512939
 21
147.695887
  0
LINE
  8
CSLAYER1
  6
CONTINUOUS
 62
     5
 10
2912.278605
 20
147.695887
 11
2916.728874
 21
146.667061
  0
LINE
  8
CSLAYER1
  6
CONTINUOUS
 62
     5
 10
2916.728874
 20
146.667061
 11
2920.882065
 21
145.501912
  0
LINE
  8
CSLAYER1
  6
CONTINUOUS
 62
     5
 10
2920.882065
 20
145.501912
 11
2922.921706
 21
145.385139
  0
LINE
  8
CSLAYER1
  6
CONTINUOUS
 62
     5
 10
2876.478718
 20
145.695887
 11
2876.478718
 21
145.195887
  0
LINE
  8
CSLAYER1
  6
CONTINUOUS
 62
     5
 10
2873.978718
 20
145.195887
 11
2876.478718
 21
145.195887
  0
ARC
  8
CSLAYER1
  6
CONTINUOUS
 62
     5
 10
2877.478718
 20
145.695887
 40
1.000000
 50
90.000000
 51
180.000000
  0
LINE
  8
CSLAYER1
  6
CONTINUOUS
 62
     5
 10
2879.901756
 20
146.695887
 11
2880.599313
 21
146.123890
  0
LINE
  8
CSLAYER1
  6
CONTINUOUS
 62
     5
 10
2881.201681
 20
146.099930
 11
2882.059278
 21
146.695887
  0
LINE
  8
CSLAYER1
  6
CONTINUOUS
 62
     5
 10
2883.637674
 20
146.695887
 11
2885.304799
 21
146.037811
  0
LINE
  8
CSLAYER1
  6
CONTINUOUS
 62
     5
 10
2885.728508
 20
146.064323
 11
2886.881995
 21
146.695887
  0
LINE
  8
CSLAYER1
  6
CONTINUOUS
 62
     5
 10
2882.059278
 20
146.695887
 11
2883.637674
 21
146.695887
  0
LINE
  8
CSLAYER1
  6
CONTINUOUS
 62
     5
 10
2886.881995
 20
146.695887
 11
2899.978718
 21
146.695887
  0
LINE
  8
CSLAYER1
  6
CONTINUOUS
 62
     5
 10
2852.527701
 20
143.587060
 11
2873.978718
 21
145.195887
  0
LINE
  8
CSLAYER1
  6
CONTINUOUS
 62
     5
 10
2848.526351
 20
143.673111
 11
2852.527701
 21
143.587060
  0
ARC
  8
CSLAYER1
  6
CONTINUOUS
 62
     5
 10
2880.916353
 20
146.510524
 40
0.500000
 50
230.648247
 51
304.796026
  0
ARC
  8
CSLAYER1
  6
CONTINUOUS
 62
     5
 10
2885.488382
 20
146.502888
 40
0.500000
 50
248.459024
 51
298.701829
  0
ARC
  8
CSLAYER1
  6
CONTINUOUS
 62
     5
 10
2840.734105
 20
153.210998
 40
0.300000
 50
-84.093859
 51
36.869898
  0
ARC
  8
CSLAYER1
  6
CONTINUOUS
 62
     5
 10
2840.268502
 20
155.142270
 40
0.700000
 50
85.301319
 51
194.142980
  0
LINE
  8
CSLAYER1
  6
CONTINUOUS
 62
     3
 10
2872.460542
 20
137.929042
 11
2880.571038
 21
137.929042
  0
LINE
  8
CSLAYER1
  6
CONTINUOUS
 62
     3
 10
2866.048026
 20
136.329042
 11
2883.691367
 21
136.329042
  0
LINE
  8
CSLAYER1
  6
CONTINUOUS
 62
     3
 10
2862.635087
 20
134.729042
 11
2886.566731
 21
134.729042
  0
LINE
  8
CSLAYER1
  6
CONTINUOUS
 62
     3
 10
2860.399767
 20
133.129042
 11
2888.410204
 21
133.129042
  0
LINE
  8
CSLAYER1
  6
CONTINUOUS
 62
     3
 10
2858.904112
 20
131.529042
 11
2889.644490
 21
131.529042
  0
LINE
  8
CSLAYER1
  6
CONTINUOUS
 62
     3
 10
2857.683797
 20
129.929042
 11
2890.693866
 21
129.929042
  0
LINE
  8
CSLAYER1
  6
CONTINUOUS
 62
     3
 10
2856.991905
 20
128.329042
 11
2891.419741
 21
128.329042
  0
LINE
  8
CSLAYER1
  6
CONTINUOUS
 62
     3
 10
2856.300013
 20
126.729042
 11
2891.758127
 21
126.729042
  0
LINE
  8
CSLAYER1
  6
CONTINUOUS
 62
     3
 10
2855.651663
 20
125.129042
 11
2892.096514
 21
125.129042
  0
LINE
  8
CSLAYER1
  6
CONTINUOUS
 62
     3
 10
2855.330004
 20
123.529042
 11
2892.434900
 21
123.529042
  0
LINE
  8
CSLAYER1
  6
CONTINUOUS
 62
     3
 10
2855.008346
 20
121.929042
 11
2870.598588
 21
121.929042
  0
LINE
  8
CSLAYER1
  6
CONTINUOUS
 62
     3
 10
2854.686687
 20
120.329042
 11
2869.066328
 21
120.329042
  0
LINE
  8
CSLAYER1
  6
CONTINUOUS
 62
     3
 10
2854.365028
 20
118.729042
 11
2868.278158
 21
118.729042
  0
LINE
  8
CSLAYER1
  6
CONTINUOUS
 62
     3
 10
2854.123910
 20
117.129042
 11
2867.959390
 21
117.129042
  0
LINE
  8
CSLAYER1
  6
CONTINUOUS
 62
     3
 10
2854.003740
 20
115.529042
 11
2868.009411
 21
115.529042
  0
LINE
  8
CSLAYER1
  6
CONTINUOUS
 62
     3
 10
2853.978718
 20
113.929042
 11
2868.555498
 21
113.929042
  0
LINE
  8
CSLAYER1
  6
CONTINUOUS
 62
     3
 10
2854.477906
 20
112.329042
 11
2870.585501
 21
112.329042
  0
LINE
  8
CSLAYER1
  6
CONTINUOUS
 62
     3
 10
2855.189017
 20
110.729042
 11
2887.716873
 21
110.729042
  0
LINE
  8
CSLAYER1
  6
CONTINUOUS
 62
     3
 10
2855.900128
 20
109.129042
 11
2887.265591
 21
109.129042
  0
LINE
  8
CSLAYER1
  6
CONTINUOUS
 62
     3
 10
2856.611239
 20
107.529042
 11
2886.542566
 21
107.529042
  0
LINE
  8
CSLAYER1
  6
CONTINUOUS
 62
     3
 10
2857.573198
 20
105.929042
 11
2885.644380
 21
105.929042
  0
LINE
  8
CSLAYER1
  6
CONTINUOUS
 62
     3
 10
2858.821659
 20
104.329042
 11
2884.139453
 21
104.329042
  0
LINE
  8
CSLAYER1
  6
CONTINUOUS
 62
     3
 10
2860.427079
 20
102.729042
 11
2881.746993
 21
102.729042
  0
LINE
  8
CSLAYER1
  6
CONTINUOUS
 62
     3
 10
2862.574221
 20
101.129042
 11
2878.621869
 21
101.129042
  0
LINE
  8
CSLAYER1
  6
CONTINUOUS
 62
     3
 10
2865.821912
 20
99.529042
 11
2873.983721
 21
99.529042
  0
LINE
  8
CSLAYER1
  6
CONTINUOUS
 62
     3
 10
2875.790412
 20
121.929042
 11
2892.610149
 21
121.929042
  0
LINE
  8
CSLAYER1
  6
CONTINUOUS
 62
     3
 10
2876.461156
 20
120.329042
 11
2892.484380
 21
120.329042
  0
LINE
  8
CSLAYER1
  6
CONTINUOUS
 62
     3
 10
2876.573163
 20
118.729042
 11
2892.358610
 21
118.729042
  0
LINE
  8
CSLAYER1
  6
CONTINUOUS
 62
     3
 10
2876.327806
 20
117.129042
 11
2891.644755
 21
117.129042
  0
LINE
  8
CSLAYER1
  6
CONTINUOUS
 62
     3
 10
2875.676161
 20
115.529042
 11
2890.923555
 21
115.529042
  0
LINE
  8
CSLAYER1
  6
CONTINUOUS
 62
     3
 10
2874.542897
 20
113.929042
 11
2889.989607
 21
113.929042
  0
LINE
  8
CSLAYER1
  6
CONTINUOUS
 62
     3
 10
2872.286901
 20
112.329042
 11
2888.718899
 21
112.329042
  0
TEXT
  8
CSLAYER1
 62
     5
 10
2893.150663
 20
119.940212
 40
4.713448
 41
1.951056
  1
M
 50
0.000000
 51
0.000000
  7
EASYDRAW_FONT
 72
     5
 11
2899.281466
 21
119.940212
  0
TEXT
  8
CSLAYER1
 62
     5
 10
2902.802051
 20
119.881941
 40
4.626621
 41
0.778201
  1
T
 50
0.000000
 51
0.000000
  7
EASYDRAW_FONT
 72
     5
 11
2905.202344
 21
119.881941
  0
TEXT
  8
CSLAYER1
 62
     5
 10
2905.567613
 20
119.916740
 40
4.696183
 41
1.055553
  1
E
 50
0.000000
 51
0.000000
  7
EASYDRAW_FONT
 72
     5
 11
2908.872328
 21
119.916740
  0
TEXT
  8
CSLAYER1
 62
     5
 10
2908.683794
 20
121.532584
 40
0.348283
 41
9.375319
  1
-
 50
0.000000
 51
0.000000
  7
EASYDRAW_FONT
 72
     5
 11
2910.860639
 21
121.532584
  0
TEXT
  8
CSLAYER1
 62
     5
 10
2910.498004
 20
119.885394
 40
4.861659
 41
1.298502
  1
H
 50
0.000000
 51
0.000000
  7
EASYDRAW_FONT
 72
     5
 11
2914.706586
 21
119.885394
  0
TEXT
  8
CSLAYER1
 62
     5
 10
2914.574019
 20
119.915772
 40
4.843139
 41
1.269236
  1
A
 50
0.000000
 51
0.000000
  7
EASYDRAW_FONT
 72
     5
 11
2918.672075
 21
119.915772
  0
TEXT
  8
CSLAYER1
 62
     5
 10
2918.280175
 20
119.874245
 40
4.825362
 41
1.490144
  1
N
 50
0.000000
 51
0.000000
  7
EASYDRAW_FONT
 72
     5
 11
2923.073829
 21
119.874245
  0
TEXT
  8
CSLAYER1
 62
     5
 10
2899.071632
 20
119.851672
 40
4.982325
 41
1.177443
  1
A
 50
0.000000
 51
0.000000
  7
EASYDRAW_FONT
 72
     5
 11
2902.982567
 21
119.851672
  0
TEXT
  8
CSLAYER1
 62
     5
 10
2893.517677
 20
112.856433
 40
4.982325
 41
1.177443
  1
A
 50
0.000000
 51
0.000000
  7
EASYDRAW_FONT
 72
     5
 11
2897.428612
 21
112.856433
  0
TEXT
  8
CSLAYER1
 62
     5
 10
2906.302101
 20
112.884753
 40
4.982325
 41
1.177443
  1
A
 50
0.000000
 51
0.000000
  7
EASYDRAW_FONT
 72
     5
 11
2910.213036
 21
112.884753
  0
TEXT
  8
CSLAYER1
 62
     5
 10
2910.062645
 20
112.941750
 40
4.825362
 41
1.490144
  1
N
 50
0.000000
 51
0.000000
  7
EASYDRAW_FONT
 72
     5
 11
2914.856300
 21
112.941750
  0
TEXT
  8
CSLAYER1
 62
     5
 10
2918.964981
 20
112.950145
 40
4.841775
 41
1.184218
  1
E
 50
0.000000
 51
0.000000
  7
EASYDRAW_FONT
 72
     5
 11
2922.787460
 21
112.950145
  0
TEXT
  8
CSLAYER1
 62
     5
 10
2897.798231
 20
112.855108
 40
4.947865
 41
1.093992
  1
D
 50
0.000000
 51
0.000000
  7
EASYDRAW_FONT
 72
     5
 11
2901.406847
 21
112.855108
  0
TEXT
  8
CSLAYER1
 62
     5
 10
2902.200589
 20
112.849724
 40
4.924210
 41
1.228195
  1
V
 50
0.000000
 51
0.000000
  7
EASYDRAW_FONT
 72
     5
 11
2906.232516
 21
112.849724
  0
TEXT
  8
CSLAYER1
 62
     5
 10
2914.425790
 20
112.870455
 40
5.032894
 41
1.481023
  1
C
 50
0.000000
 51
0.000000
  7
EASYDRAW_FONT
 72
     5
 11
2919.395010
 21
112.870455
  0
LINE
  8
CSLAYER1
  6
CONTINUOUS
 62
     5
 10
2905.056055
 20
123.930859
 11
2904.043993
 21
123.930859
  0
LINE
  8
CSLAYER1
  6
CONTINUOUS
 62
     3
 10
2854.154293
 20
158.156130
 11
2903.952119
 21
158.156130
  0
LINE
  8
CSLAYER1
  6
CONTINUOUS
 62
     3
 10
2847.041929
 20
156.556130
 11
2915.031810
 21
156.556130
  0
LINE
  8
CSLAYER1
  6
CONTINUOUS
 62
     3
 10
2839.593524
 20
154.956130
 11
2885.016835
 21
154.956130
  0
LINE
  8
CSLAYER1
  6
CONTINUOUS
 62
     3
 10
2897.978384
 20
154.956130
 11
2907.564988
 21
154.956130
  0
LINE
  8
CSLAYER1
  6
CONTINUOUS
 62
     3
 10
2911.874121
 20
154.956130
 11
2920.387119
 21
154.956130
  0
LINE
  8
CSLAYER1
  6
CONTINUOUS
 62
     3
 10
2840.996663
 20
153.356130
 11
2897.703133
 21
153.356130
  0
LINE
  8
CSLAYER1
  6
CONTINUOUS
 62
     3
 10
2917.883271
 20
153.356130
 11
2923.989516
 21
153.356130
  0
LINE
  8
CSLAYER1
  6
CONTINUOUS
 62
     3
 10
2839.084330
 20
151.756130
 11
2911.838681
 21
151.756130
  0
LINE
  8
CSLAYER1
  6
CONTINUOUS
 62
     3
 10
2923.784570
 20
151.756130
 11
2926.018291
 21
151.756130
  0
LINE
  8
CSLAYER1
  6
CONTINUOUS
 62
     3
 10
2838.022104
 20
150.156130
 11
2919.550537
 21
150.156130
  0
LINE
  8
CSLAYER1
  6
CONTINUOUS
 62
     3
 10
2839.697771
 20
148.556130
 11
2924.359846
 21
148.556130
  0
LINE
  8
CSLAYER1
  6
CONTINUOUS
 62
     3
 10
2840.865339
 20
146.956130
 11
2899.978718
 21
146.956130
  0
LINE
  8
CSLAYER1
  6
CONTINUOUS
 62
     3
 10
2915.478483
 20
146.956130
 11
2930.482806
 21
146.956130
  0
LINE
  8
CSLAYER1
  6
CONTINUOUS
 62
     3
 10
2841.110462
 20
145.356130
 11
2876.478718
 21
145.356130
  0
LINE
  8
CSLAYER1
  6
CONTINUOUS
 62
     3
 10
2923.047412
 20
145.356130
 11
2932.570015
 21
145.356130
  0
LINE
  8
CSLAYER1
  6
CONTINUOUS
 62
     3
 10
2841.316788
 20
143.756130
 11
2854.781961
 21
143.756130
  0
LINE
  8
CSLAYER1
  6
CONTINUOUS
 62
     3
 10
2930.507760
 20
143.756130
 11
2936.992779
 21
143.756130
  0
LINE
  8
CSLAYER1
  6
CONTINUOUS
 62
     3
 10
2938.570755
 20
142.156130
 11
2940.739609
 21
142.156130
  0
ENDBLK
  8
0
  0
BLOCK
  8
CSLAYER1
  2
BLKF0002
 70
   64
 10
0.0
 20
0.0
 30
0.0
  0
LINE
  8
CSLAYER1
  6
CONTINUOUS
 62
     3
 10
609.975209
 20
777.301468
 11
909.598497
 21
777.301468
  0
LINE
  8
CSLAYER1
  6
CONTINUOUS
 62
     3
 10
659.598497
 20
817.301468
 11
759.598497
 21
817.301468
  0
LINE
  8
CSLAYER1
  6
CONTINUOUS
 62
     3
 10
609.598497
 20
777.301468
 11
759.598497
 21
777.301468
  0
LINE
  8
CSLAYER1
  6
CONTINUOUS
 62
     3
 10
659.598497
 20
817.301468
 11
659.598497
 21
783.301468
  0
LINE
  8
CSLAYER1
  6
CONTINUOUS
 62
     3
 10
859.598497
 20
817.301468
 11
759.598497
 21
817.301468
  0
LINE
  8
CSLAYER1
  6
CONTINUOUS
 62
     3
 10
909.598497
 20
777.301468
 11
759.598497
 21
777.301468
  0
LINE
  8
CSLAYER1
  6
CONTINUOUS
 62
     3
 10
859.598497
 20
817.301468
 11
859.598497
 21
783.301468
  0
LINE
  8
CSLAYER1
  6
CONTINUOUS
 62
     3
 10
909.598497
 20
777.301468
 11
909.598497
 21
783.301468
  0
LINE
  8
CSLAYER1
  6
CENTER
 62
     5
 10
884.598497
 20
768.372107
 11
884.598497
 21
792.582068
  0
LINE
  8
CSLAYER1
  6
CONTINUOUS
 62
     3
 10
834.098497
 20
783.301468
 11
834.098497
 21
817.301468
  0
LINE
  8
CSLAYER1
  6
CONTINUOUS
 62
     3
 10
909.598497
 20
783.301468
 11
828.098497
 21
783.301468
  0
LINE
  8
CSLAYER1
  6
CONTINUOUS
 62
     3
 10
609.598497
 20
777.301468
 11
609.598497
 21
783.301468
  0
LINE
  8
CSLAYER1
  6
CENTER
 62
     5
 10
634.598497
 20
768.372107
 11
634.598497
 21
792.582068
  0
LINE
  8
CSLAYER1
  6
CONTINUOUS
 62
     3
 10
609.598497
 20
783.301468
 11
691.098497
 21
783.301468
  0
LINE
  8
CSLAYER1
  6
CONTINUOUS
 62
     3
 10
685.098497
 20
783.301468
 11
685.098497
 21
817.301468
  0
LINE
  8
CSLAYER1
  6
CENTER
 62
     5
 10
729.598497
 20
780.611904
 11
729.598497
 21
813.875224
  0
LINE
  8
CSLAYER1
  6
CENTER
 62
     5
 10
711.724551
 20
797.301468
 11
748.721508
 21
797.301468
  0
CIRCLE
  8
CSLAYER1
  6
CONTINUOUS
 62
     3
 10
729.598497
 20
797.301468
 40
12.500000
  0
LINE
  8
CSLAYER1
  6
CENTER
 62
     5
 10
674.098497
 20
794.801468
 11
845.098497
 21
794.801468
  0
LINE
  8
CSLAYER1
  6
CONTINUOUS
 62
     3
 10
691.098497
 20
777.301468
 11
691.098497
 21
817.301468
  0
LINE
  8
CSLAYER1
  6
CONTINUOUS
 62
     3
 10
828.098497
 20
777.301468
 11
828.098497
 21
817.301468
  0
ENDBLK
  8
0
  0
BLOCK
  8
CSLAYER1
  2
BLKF0003
 70
   64
 10
0.0
 20
0.0
 30
0.0
  0
LINE
  8
CSLAYER1
  6
CONTINUOUS
 62
     3
 10
826.098497
 20
1344.095484
 11
826.098497
 21
1358.865139
  0
LINE
  8
CSLAYER1
  6
CONTINUOUS
 62
     3
 10
823.098497
 20
1344.315139
 11
826.098497
 21
1344.315139
  0
LINE
  8
CSLAYER1
  6
CONTINUOUS
 62
     3
 10
823.098497
 20
1353.552943
 11
826.098497
 21
1357.052943
  0
LINE
  8
CSLAYER1
  6
CONTINUOUS
 62
     3
 10
834.098497
 20
1355.065139
 11
834.098497
 21
1358.865139
  0
ARC
  8
CSLAYER1
  6
CONTINUOUS
 62
     3
 10
820.302753
 20
1355.065139
 40
13.795744
 50
0.000000
 51
15.988670
  0
LINE
  8
CSLAYER1
  6
CONTINUOUS
 62
     3
 10
834.098497
 20
1355.065139
 11
834.098497
 21
1346.065139
  0
LINE
  8
CSLAYER1
  6
CONTINUOUS
 62
     3
 10
826.098497
 20
1349.580312
 11
832.961316
 21
1349.580312
  0
LINE
  8
CSLAYER1
  6
CONTINUOUS
 62
     3
 10
826.098497
 20
1344.095484
 11
832.961316
 21
1344.095484
  0
LINE
  8
CSLAYER1
  6
CONTINUOUS
 62
     3
 10
834.098497
 20
1346.065139
 11
832.961316
 21
1344.095484
  0
ARC
  8
CSLAYER1
  6
CONTINUOUS
 62
     3
 10
830.318453
 20
1346.837898
 40
3.808617
 50
5.661633
 51
46.059028
  0
ARC
  8
CSLAYER1
  6
CONTINUOUS
 62
     3
 10
820.302753
 20
1355.065139
 40
13.795744
 50
336.573402
 51
360.000000
  0
ENDBLK
  8
0
  0
BLOCK
  8
CSLAYER1
  2
BLKF0004
 70
   64
 10
0.0
 20
0.0
 30
0.0
  0
LINE
  8
CSLAYER1
  6
CENTER
 62
     5
 10
770.098497
 20
1158.736605
 11
770.098497
 21
835.101409
  0
LINE
  8
CSLAYER1
  6
CONTINUOUS
 62
     3
 10
792.598497
 20
1132.536605
 11
792.598497
 21
1157.736605
  0
LINE
  8
CSLAYER1
  6
CONTINUOUS
 62
     3
 10
747.598497
 20
1132.536605
 11
747.598497
 21
1157.736605
  0
LINE
  8
CSLAYER1
  6
CONTINUOUS
 62
     3
 10
748.598497
 20
1158.736605
 11
791.598497
 21
1158.736605
  0
LINE
  8
CSLAYER1
  6
CONTINUOUS
 62
     3
 10
747.598497
 20
1157.736605
 11
748.598497
 21
1158.736605
  0
LINE
  8
CSLAYER1
  6
CONTINUOUS
 62
     3
 10
791.598497
 20
1158.736605
 11
792.598497
 21
1157.736605
  0
POINT
  8
CSLAYER1
 62
     3
 10
770.098497
 20
1145.136605
  0
LINE
  8
CSLAYER1
  6
CONTINUOUS
 62
     3
 10
793.598497
 20
1153.136605
 11
792.598497
 21
1153.136605
  0
LINE
  8
CSLAYER1
  6
CONTINUOUS
 62
     3
 10
747.598497
 20
1153.136605
 11
746.598497
 21
1153.136605
  0
LINE
  8
CSLAYER1
  6
CENTER
 62
     5
 10
741.098497
 20
862.429617
 11
799.098497
 21
862.429617
  0
LINE
  8
CSLAYER1
  6
CONTINUOUS
 62
     3
 10
793.010975
 20
1023.261971
 11
797.493851
 21
1005.972745
  0
LINE
  8
CSLAYER1
  6
CONTINUOUS
 62
     3
 10
793.010975
 20
1023.261971
 11
792.749075
 21
1024.226416
  0
LINE
  8
CSLAYER1
  6
CONTINUOUS
 62
     3
 10
792.749075
 20
1024.226416
 11
792.314791
 21
1025.176124
  0
LINE
  8
CSLAYER1
  6
CONTINUOUS
 62
     3
 10
792.314791
 20
1025.176124
 11
791.711427
 21
1026.103868
  0
LINE
  8
CSLAYER1
  6
CONTINUOUS
 62
     3
 10
791.711427
 20
1026.103868
 11
790.943576
 21
1027.002587
  0
LINE
  8
CSLAYER1
  6
CONTINUOUS
 62
     3
 10
790.943576
 20
1027.002587
 11
790.017081
 21
1027.865441
  0
LINE
  8
CSLAYER1
  6
CONTINUOUS
 62
     3
 10
790.017081
 20
1027.865441
 11
788.938994
 21
1028.685864
  0
LINE
  8
CSLAYER1
  6
CONTINUOUS
 62
     3
 10
788.938994
 20
1028.685864
 11
787.717519
 21
1029.457612
  0
LINE
  8
CSLAYER1
  6
CONTINUOUS
 62
     3
 10
787.717519
 20
1029.457612
 11
786.361953
 21
1030.174811
  0
LINE
  8
CSLAYER1
  6
CONTINUOUS
 62
     3
 10
786.361953
 20
1030.174811
 11
784.882612
 21
1030.832002
  0
LINE
  8
CSLAYER1
  6
CONTINUOUS
 62
     3
 10
784.882612
 20
1030.832002
 11
783.290755
 21
1031.424185
  0
LINE
  8
CSLAYER1
  6
CONTINUOUS
 62
     3
 10
783.290755
 20
1031.424185
 11
781.598497
 21
1031.946852
  0
LINE
  8
CSLAYER1
  6
CONTINUOUS
 62
     3
 10
781.598497
 20
1031.946852
 11
779.818717
 21
1032.396026
  0
LINE
  8
CSLAYER1
  6
CONTINUOUS
 62
     3
 10
779.818717
 20
1032.396026
 11
777.964960
 21
1032.768287
  0
LINE
  8
CSLAYER1
  6
CONTINUOUS
 62
     3
 10
777.964960
 20
1032.768287
 11
776.051335
 21
1033.060804
  0
LINE
  8
CSLAYER1
  6
CONTINUOUS
 62
     3
 10
776.051335
 20
1033.060804
 11
774.092405
 21
1033.271349
  0
LINE
  8
CSLAYER1
  6
CONTINUOUS
 62
     3
 10
774.092405
 20
1033.271349
 11
772.103079
 21
1033.398320
  0
LINE
  8
CSLAYER1
  6
CONTINUOUS
 62
     3
 10
772.103079
 20
1033.398320
 11
770.098497
 21
1033.440752
  0
LINE
  8
CSLAYER1
  6
CONTINUOUS
 62
     3
 10
747.186019
 20
1023.261971
 11
742.703143
 21
1005.972745
  0
LINE
  8
CSLAYER1
  6
CONTINUOUS
 62
     3
 10
747.186019
 20
1023.261971
 11
747.447919
 21
1024.226416
  0
LINE
  8
CSLAYER1
  6
CONTINUOUS
 62
     3
 10
747.447919
 20
1024.226416
 11
747.882203
 21
1025.176124
  0
LINE
  8
CSLAYER1
  6
CONTINUOUS
 62
     3
 10
747.882203
 20
1025.176124
 11
748.485567
 21
1026.103868
  0
LINE
  8
CSLAYER1
  6
CONTINUOUS
 62
     3
 10
748.485567
 20
1026.103868
 11
749.253418
 21
1027.002587
  0
LINE
  8
CSLAYER1
  6
CONTINUOUS
 62
     3
 10
749.253418
 20
1027.002587
 11
750.179913
 21
1027.865441
  0
LINE
  8
CSLAYER1
  6
CONTINUOUS
 62
     3
 10
750.179913
 20
1027.865441
 11
751.258000
 21
1028.685864
  0
LINE
  8
CSLAYER1
  6
CONTINUOUS
 62
     3
 10
751.258000
 20
1028.685864
 11
752.479475
 21
1029.457612
  0
LINE
  8
CSLAYER1
  6
CONTINUOUS
 62
     3
 10
752.479475
 20
1029.457612
 11
753.835041
 21
1030.174811
  0
LINE
  8
CSLAYER1
  6
CONTINUOUS
 62
     3
 10
753.835041
 20
1030.174811
 11
755.314382
 21
1030.832002
  0
LINE
  8
CSLAYER1
  6
CONTINUOUS
 62
     3
 10
755.314382
 20
1030.832002
 11
756.906239
 21
1031.424185
  0
LINE
  8
CSLAYER1
  6
CONTINUOUS
 62
     3
 10
756.906239
 20
1031.424185
 11
758.598497
 21
1031.946852
  0
LINE
  8
CSLAYER1
  6
CONTINUOUS
 62
     3
 10
758.598497
 20
1031.946852
 11
760.378277
 21
1032.396026
  0
LINE
  8
CSLAYER1
  6
CONTINUOUS
 62
     3
 10
760.378277
 20
1032.396026
 11
762.232034
 21
1032.768287
  0
LINE
  8
CSLAYER1
  6
CONTINUOUS
 62
     3
 10
762.232034
 20
1032.768287
 11
764.145659
 21
1033.060804
  0
LINE
  8
CSLAYER1
  6
CONTINUOUS
 62
     3
 10
764.145659
 20
1033.060804
 11
766.104589
 21
1033.271349
  0
LINE
  8
CSLAYER1
  6
CONTINUOUS
 62
     3
 10
766.104589
 20
1033.271349
 11
768.093915
 21
1033.398320
  0
LINE
  8
CSLAYER1
  6
CONTINUOUS
 62
     3
 10
768.093915
 20
1033.398320
 11
770.098497
 21
1033.440752
  0
LINE
  8
CSLAYER1
  6
CONTINUOUS
 62
     3
 10
788.098497
 20
1029.216904
 11
788.098497
 21
1133.979822
  0
LINE
  8
CSLAYER1
  6
CONTINUOUS
 62
     3
 10
788.098497
 20
1133.471485
 11
788.030002
 21
1134.232056
  0
LINE
  8
CSLAYER1
  6
CONTINUOUS
 62
     3
 10
788.030002
 20
1134.232056
 11
787.825037
 21
1134.986838
  0
LINE
  8
CSLAYER1
  6
CONTINUOUS
 62
     3
 10
787.825037
 20
1134.986838
 11
787.485162
 21
1135.730088
  0
LINE
  8
CSLAYER1
  6
CONTINUOUS
 62
     3
 10
787.485162
 20
1135.730088
 11
787.012964
 21
1136.456149
  0
LINE
  8
CSLAYER1
  6
CONTINUOUS
 62
     3
 10
787.012964
 20
1136.456149
 11
786.412037
 21
1137.159494
  0
LINE
  8
CSLAYER1
  6
CONTINUOUS
 62
     3
 10
786.412037
 20
1137.159494
 11
785.686954
 21
1137.834771
  0
LINE
  8
CSLAYER1
  6
CONTINUOUS
 62
     3
 10
785.686954
 20
1137.834771
 11
784.843234
 21
1138.476841
  0
LINE
  8
CSLAYER1
  6
CONTINUOUS
 62
     3
 10
784.843234
 20
1138.476841
 11
783.887297
 21
1139.080818
  0
LINE
  8
CSLAYER1
  6
CONTINUOUS
 62
     3
 10
783.887297
 20
1139.080818
 11
782.826419
 21
1139.642104
  0
LINE
  8
CSLAYER1
  6
CONTINUOUS
 62
     3
 10
782.826419
 20
1139.642104
 11
781.668674
 21
1140.156428
  0
LINE
  8
CSLAYER1
  6
CONTINUOUS
 62
     3
 10
781.668674
 20
1140.156428
 11
780.422873
 21
1140.619875
  0
LINE
  8
CSLAYER1
  6
CONTINUOUS
 62
     3
 10
780.422873
 20
1140.619875
 11
779.098497
 21
1141.028919
  0
LINE
  8
CSLAYER1
  6
CONTINUOUS
 62
     3
 10
779.098497
 20
1141.028919
 11
777.705626
 21
1141.380446
  0
LINE
  8
CSLAYER1
  6
CONTINUOUS
 62
     3
 10
777.705626
 20
1141.380446
 11
776.254860
 21
1141.671781
  0
LINE
  8
CSLAYER1
  6
CONTINUOUS
 62
     3
 10
776.254860
 20
1141.671781
 11
774.757240
 21
1141.900707
  0
LINE
  8
CSLAYER1
  6
CONTINUOUS
 62
     3
 10
774.757240
 20
1141.900707
 11
773.224164
 21
1142.065482
  0
LINE
  8
CSLAYER1
  6
CONTINUOUS
 62
     3
 10
773.224164
 20
1142.065482
 11
771.667300
 21
1142.164851
  0
LINE
  8
CSLAYER1
  6
CONTINUOUS
 62
     3
 10
771.667300
 20
1142.164851
 11
770.098497
 21
1142.198058
  0
LINE
  8
CSLAYER1
  6
CONTINUOUS
 62
     3
 10
770.098497
 20
1142.198058
 11
768.529694
 21
1142.164851
  0
LINE
  8
CSLAYER1
  6
CONTINUOUS
 62
     3
 10
768.529694
 20
1142.164851
 11
766.972830
 21
1142.065482
  0
LINE
  8
CSLAYER1
  6
CONTINUOUS
 62
     3
 10
766.972830
 20
1142.065482
 11
765.439754
 21
1141.900707
  0
LINE
  8
CSLAYER1
  6
CONTINUOUS
 62
     3
 10
765.439754
 20
1141.900707
 11
763.942134
 21
1141.671781
  0
LINE
  8
CSLAYER1
  6
CONTINUOUS
 62
     3
 10
763.942134
 20
1141.671781
 11
762.491368
 21
1141.380446
  0
LINE
  8
CSLAYER1
  6
CONTINUOUS
 62
     3
 10
762.491368
 20
1141.380446
 11
761.098497
 21
1141.028919
  0
LINE
  8
CSLAYER1
  6
CONTINUOUS
 62
     3
 10
761.098497
 20
1141.028919
 11
759.774121
 21
1140.619875
  0
LINE
  8
CSLAYER1
  6
CONTINUOUS
 62
     3
 10
759.774121
 20
1140.619875
 11
758.528320
 21
1140.156428
  0
LINE
  8
CSLAYER1
  6
CONTINUOUS
 62
     3
 10
758.528320
 20
1140.156428
 11
757.370575
 21
1139.642104
  0
LINE
  8
CSLAYER1
  6
CONTINUOUS
 62
     3
 10
757.370575
 20
1139.642104
 11
756.309697
 21
1139.080818
  0
LINE
  8
CSLAYER1
  6
CONTINUOUS
 62
     3
 10
756.309697
 20
1139.080818
 11
755.353760
 21
1138.476841
  0
LINE
  8
CSLAYER1
  6
CONTINUOUS
 62
     3
 10
755.353760
 20
1138.476841
 11
754.510040
 21
1137.834771
  0
LINE
  8
CSLAYER1
  6
CONTINUOUS
 62
     3
 10
754.510040
 20
1137.834771
 11
753.784957
 21
1137.159494
  0
LINE
  8
CSLAYER1
  6
CONTINUOUS
 62
     3
 10
753.784957
 20
1137.159494
 11
753.184030
 21
1136.456149
  0
LINE
  8
CSLAYER1
  6
CONTINUOUS
 62
     3
 10
753.184030
 20
1136.456149
 11
752.711832
 21
1135.730088
  0
LINE
  8
CSLAYER1
  6
CONTINUOUS
 62
     3
 10
752.711832
 20
1135.730088
 11
752.371957
 21
1134.986838
  0
LINE
  8
CSLAYER1
  6
CONTINUOUS
 62
     3
 10
752.371957
 20
1134.986838
 11
752.166992
 21
1134.232056
  0
LINE
  8
CSLAYER1
  6
CONTINUOUS
 62
     3
 10
752.166992
 20
1134.232056
 11
752.098497
 21
1133.471485
  0
LINE
  8
CSLAYER1
  6
CONTINUOUS
 62
     3
 10
797.598497
 20
1004.810762
 11
797.598497
 21
974.221866
  0
LINE
  8
CSLAYER1
  6
CONTINUOUS
 62
     3
 10
797.598497
 20
1004.810762
 11
797.493851
 21
1005.972745
  0
LINE
  8
CSLAYER1
  6
CONTINUOUS
 62
     3
 10
797.493851
 20
1005.972745
 11
797.180710
 21
1007.125885
  0
LINE
  8
CSLAYER1
  6
CONTINUOUS
 62
     3
 10
797.180710
 20
1007.125885
 11
796.661457
 21
1008.261406
  0
LINE
  8
CSLAYER1
  6
CONTINUOUS
 62
     3
 10
796.661457
 20
1008.261406
 11
795.940044
 21
1009.370665
  0
LINE
  8
CSLAYER1
  6
CONTINUOUS
 62
     3
 10
795.940044
 20
1009.370665
 11
795.021961
 21
1010.445220
  0
LINE
  8
CSLAYER1
  6
CONTINUOUS
 62
     3
 10
795.021961
 20
1010.445220
 11
793.914196
 21
1011.476894
  0
LINE
  8
CSLAYER1
  6
CONTINUOUS
 62
     3
 10
793.914196
 20
1011.476894
 11
792.625178
 21
1012.457834
  0
LINE
  8
CSLAYER1
  6
CONTINUOUS
 62
     3
 10
792.625178
 20
1012.457834
 11
791.164719
 21
1013.380576
  0
LINE
  8
CSLAYER1
  6
CONTINUOUS
 62
     3
 10
791.164719
 20
1013.380576
 11
789.543934
 21
1014.238096
  0
LINE
  8
CSLAYER1
  6
CONTINUOUS
 62
     3
 10
789.543934
 20
1014.238096
 11
787.775156
 21
1015.023869
  0
LINE
  8
CSLAYER1
  6
CONTINUOUS
 62
     3
 10
787.775156
 20
1015.023869
 11
785.871849
 21
1015.731913
  0
LINE
  8
CSLAYER1
  6
CONTINUOUS
 62
     3
 10
785.871849
 20
1015.731913
 11
783.848497
 21
1016.356841
  0
LINE
  8
CSLAYER1
  6
CONTINUOUS
 62
     3
 10
783.848497
 20
1016.356841
 11
781.720499
 21
1016.893897
  0
LINE
  8
CSLAYER1
  6
CONTINUOUS
 62
     3
 10
781.720499
 20
1016.893897
 11
779.504051
 21
1017.338992
  0
LINE
  8
CSLAYER1
  6
CONTINUOUS
 62
     3
 10
779.504051
 20
1017.338992
 11
777.216021
 21
1017.688740
  0
LINE
  8
CSLAYER1
  6
CONTINUOUS
 62
     3
 10
777.216021
 20
1017.688740
 11
774.873822
 21
1017.940479
  0
LINE
  8
CSLAYER1
  6
CONTINUOUS
 62
     3
 10
774.873822
 20
1017.940479
 11
772.495280
 21
1018.092293
  0
LINE
  8
CSLAYER1
  6
CONTINUOUS
 62
     3
 10
772.495280
 20
1018.092293
 11
770.098497
 21
1018.143026
  0
LINE
  8
CSLAYER1
  6
CONTINUOUS
 62
     3
 10
770.098497
 20
1018.143026
 11
767.701714
 21
1018.092293
  0
LINE
  8
CSLAYER1
  6
CONTINUOUS
 62
     3
 10
767.701714
 20
1018.092293
 11
765.323172
 21
1017.940479
  0
LINE
  8
CSLAYER1
  6
CONTINUOUS
 62
     3
 10
765.323172
 20
1017.940479
 11
762.980973
 21
1017.688740
  0
LINE
  8
CSLAYER1
  6
CONTINUOUS
 62
     3
 10
762.980973
 20
1017.688740
 11
760.692943
 21
1017.338992
  0
LINE
  8
CSLAYER1
  6
CONTINUOUS
 62
     3
 10
760.692943
 20
1017.338992
 11
758.476495
 21
1016.893897
  0
LINE
  8
CSLAYER1
  6
CONTINUOUS
 62
     3
 10
758.476495
 20
1016.893897
 11
756.348497
 21
1016.356841
  0
LINE
  8
CSLAYER1
  6
CONTINUOUS
 62
     3
 10
756.348497
 20
1016.356841
 11
754.325145
 21
1015.731913
  0
LINE
  8
CSLAYER1
  6
CONTINUOUS
 62
     3
 10
754.325145
 20
1015.731913
 11
752.421838
 21
1015.023869
  0
LINE
  8
CSLAYER1
  6
CONTINUOUS
 62
     3
 10
752.421838
 20
1015.023869
 11
750.653061
 21
1014.238096
  0
LINE
  8
CSLAYER1
  6
CONTINUOUS
 62
     3
 10
750.653061
 20
1014.238096
 11
749.032275
 21
1013.380576
  0
LINE
  8
CSLAYER1
  6
CONTINUOUS
 62
     3
 10
749.032275
 20
1013.380576
 11
747.571816
 21
1012.457834
  0
LINE
  8
CSLAYER1
  6
CONTINUOUS
 62
     3
 10
747.571816
 20
1012.457834
 11
746.282798
 21
1011.476894
  0
LINE
  8
CSLAYER1
  6
CONTINUOUS
 62
     3
 10
746.282798
 20
1011.476894
 11
745.175033
 21
1010.445220
  0
LINE
  8
CSLAYER1
  6
CONTINUOUS
 62
     3
 10
745.175033
 20
1010.445220
 11
744.256950
 21
1009.370665
  0
LINE
  8
CSLAYER1
  6
CONTINUOUS
 62
     3
 10
744.256950
 20
1009.370665
 11
743.535537
 21
1008.261406
  0
LINE
  8
CSLAYER1
  6
CONTINUOUS
 62
     3
 10
743.535537
 20
1008.261406
 11
743.016284
 21
1007.125885
  0
LINE
  8
CSLAYER1
  6
CONTINUOUS
 62
     3
 10
743.016284
 20
1007.125885
 11
742.703143
 21
1005.972745
  0
LINE
  8
CSLAYER1
  6
CONTINUOUS
 62
     3
 10
742.703143
 20
1005.972745
 11
742.598497
 21
1004.810762
  0
LINE
  8
CSLAYER1
  6
CONTINUOUS
 62
     3
 10
742.598497
 20
1004.810762
 11
742.598497
 21
974.221866
  0
LINE
  8
CSLAYER1
  6
CONTINUOUS
 62
     3
 10
794.398497
 20
879.908986
 11
794.398497
 21
974.221866
  0
LINE
  8
CSLAYER1
  6
CONTINUOUS
 62
     3
 10
797.598497
 20
974.221866
 11
797.493851
 21
975.383849
  0
LINE
  8
CSLAYER1
  6
CONTINUOUS
 62
     3
 10
797.493851
 20
975.383849
 11
797.180710
 21
976.536989
  0
LINE
  8
CSLAYER1
  6
CONTINUOUS
 62
     3
 10
797.180710
 20
976.536989
 11
796.661457
 21
977.672510
  0
LINE
  8
CSLAYER1
  6
CONTINUOUS
 62
     3
 10
796.661457
 20
977.672510
 11
795.940044
 21
978.781769
  0
LINE
  8
CSLAYER1
  6
CONTINUOUS
 62
     3
 10
795.940044
 20
978.781769
 11
795.021961
 21
979.856324
  0
LINE
  8
CSLAYER1
  6
CONTINUOUS
 62
     3
 10
795.021961
 20
979.856324
 11
793.914196
 21
980.887998
  0
LINE
  8
CSLAYER1
  6
CONTINUOUS
 62
     3
 10
793.914196
 20
980.887998
 11
792.625178
 21
981.868938
  0
LINE
  8
CSLAYER1
  6
CONTINUOUS
 62
     3
 10
792.625178
 20
981.868938
 11
791.164719
 21
982.791680
  0
LINE
  8
CSLAYER1
  6
CONTINUOUS
 62
     3
 10
791.164719
 20
982.791680
 11
789.543934
 21
983.649200
  0
LINE
  8
CSLAYER1
  6
CONTINUOUS
 62
     3
 10
789.543934
 20
983.649200
 11
787.775156
 21
984.434973
  0
LINE
  8
CSLAYER1
  6
CONTINUOUS
 62
     3
 10
787.775156
 20
984.434973
 11
785.871849
 21
985.143017
  0
LINE
  8
CSLAYER1
  6
CONTINUOUS
 62
     3
 10
785.871849
 20
985.143017
 11
783.848497
 21
985.767945
  0
LINE
  8
CSLAYER1
  6
CONTINUOUS
 62
     3
 10
783.848497
 20
985.767945
 11
781.720499
 21
986.305001
  0
LINE
  8
CSLAYER1
  6
CONTINUOUS
 62
     3
 10
781.720499
 20
986.305001
 11
779.504051
 21
986.750096
  0
LINE
  8
CSLAYER1
  6
CONTINUOUS
 62
     3
 10
779.504051
 20
986.750096
 11
777.216021
 21
987.099844
  0
LINE
  8
CSLAYER1
  6
CONTINUOUS
 62
     3
 10
777.216021
 20
987.099844
 11
774.873822
 21
987.351583
  0
LINE
  8
CSLAYER1
  6
CONTINUOUS
 62
     3
 10
774.873822
 20
987.351583
 11
772.495280
 21
987.503397
  0
LINE
  8
CSLAYER1
  6
CONTINUOUS
 62
     3
 10
772.495280
 20
987.503397
 11
770.098497
 21
987.554130
  0
LINE
  8
CSLAYER1
  6
CONTINUOUS
 62
     3
 10
770.098497
 20
987.554130
 11
767.701714
 21
987.503397
  0
LINE
  8
CSLAYER1
  6
CONTINUOUS
 62
     3
 10
767.701714
 20
987.503397
 11
765.323172
 21
987.351583
  0
LINE
  8
CSLAYER1
  6
CONTINUOUS
 62
     3
 10
765.323172
 20
987.351583
 11
762.980973
 21
987.099844
  0
LINE
  8
CSLAYER1
  6
CONTINUOUS
 62
     3
 10
762.980973
 20
987.099844
 11
760.692943
 21
986.750096
  0
LINE
  8
CSLAYER1
  6
CONTINUOUS
 62
     3
 10
760.692943
 20
986.750096
 11
758.476495
 21
986.305001
  0
LINE
  8
CSLAYER1
  6
CONTINUOUS
 62
     3
 10
758.476495
 20
986.305001
 11
756.348497
 21
985.767945
  0
LINE
  8
CSLAYER1
  6
CONTINUOUS
 62
     3
 10
756.348497
 20
985.767945
 11
754.325145
 21
985.143017
  0
LINE
  8
CSLAYER1
  6
CONTINUOUS
 62
     3
 10
754.325145
 20
985.143017
 11
752.421838
 21
984.434973
  0
LINE
  8
CSLAYER1
  6
CONTINUOUS
 62
     3
 10
752.421838
 20
984.434973
 11
750.653061
 21
983.649200
  0
LINE
  8
CSLAYER1
  6
CONTINUOUS
 62
     3
 10
750.653061
 20
983.649200
 11
749.032275
 21
982.791680
  0
LINE
  8
CSLAYER1
  6
CONTINUOUS
 62
     3
 10
749.032275
 20
982.791680
 11
747.571816
 21
981.868938
  0
LINE
  8
CSLAYER1
  6
CONTINUOUS
 62
     3
 10
747.571816
 20
981.868938
 11
746.282798
 21
980.887998
  0
LINE
  8
CSLAYER1
  6
CONTINUOUS
 62
     3
 10
746.282798
 20
980.887998
 11
745.175033
 21
979.856324
  0
LINE
  8
CSLAYER1
  6
CONTINUOUS
 62
     3
 10
745.175033
 20
979.856324
 11
744.256950
 21
978.781769
  0
LINE
  8
CSLAYER1
  6
CONTINUOUS
 62
     3
 10
744.256950
 20
978.781769
 11
743.535537
 21
977.672510
  0
LINE
  8
CSLAYER1
  6
CONTINUOUS
 62
     3
 10
743.535537
 20
977.672510
 11
743.016284
 21
976.536989
  0
LINE
  8
CSLAYER1
  6
CONTINUOUS
 62
     3
 10
743.016284
 20
976.536989
 11
742.703143
 21
975.383849
  0
LINE
  8
CSLAYER1
  6
CONTINUOUS
 62
     3
 10
742.703143
 20
975.383849
 11
742.598497
 21
974.221866
  0
LINE
  8
CSLAYER1
  6
CONTINUOUS
 62
     3
 10
742.598497
 20
974.221866
 11
742.703143
 21
973.059882
  0
LINE
  8
CSLAYER1
  6
CONTINUOUS
 62
     3
 10
742.703143
 20
973.059882
 11
743.016284
 21
971.906742
  0
LINE
  8
CSLAYER1
  6
CONTINUOUS
 62
     3
 10
743.016284
 20
971.906742
 11
743.535537
 21
970.771222
  0
LINE
  8
CSLAYER1
  6
CONTINUOUS
 62
     3
 10
743.535537
 20
970.771222
 11
744.256950
 21
969.661963
  0
LINE
  8
CSLAYER1
  6
CONTINUOUS
 62
     3
 10
744.256950
 20
969.661963
 11
745.175033
 21
968.587407
  0
LINE
  8
CSLAYER1
  6
CONTINUOUS
 62
     3
 10
745.175033
 20
968.587407
 11
745.798497
 21
968.006768
  0
LINE
  8
CSLAYER1
  6
CONTINUOUS
 62
     3
 10
794.398497
 20
968.006768
 11
795.021961
 21
968.587407
  0
LINE
  8
CSLAYER1
  6
CONTINUOUS
 62
     3
 10
795.021961
 20
968.587407
 11
795.940044
 21
969.661963
  0
LINE
  8
CSLAYER1
  6
CONTINUOUS
 62
     3
 10
795.940044
 20
969.661963
 11
796.661457
 21
970.771222
  0
LINE
  8
CSLAYER1
  6
CONTINUOUS
 62
     3
 10
796.661457
 20
970.771222
 11
797.180710
 21
971.906742
  0
LINE
  8
CSLAYER1
  6
CONTINUOUS
 62
     3
 10
797.180710
 20
971.906742
 11
797.493851
 21
973.059882
  0
LINE
  8
CSLAYER1
  6
CONTINUOUS
 62
     3
 10
797.493851
 20
973.059882
 11
797.598497
 21
974.221866
  0
LINE
  8
CSLAYER1
  6
CONTINUOUS
 62
     3
 10
794.398497
 20
974.221866
 11
794.306028
 21
975.248636
  0
LINE
  8
CSLAYER1
  6
CONTINUOUS
 62
     3
 10
794.306028
 20
975.248636
 11
794.029325
 21
976.267593
  0
LINE
  8
CSLAYER1
  6
CONTINUOUS
 62
     3
 10
794.029325
 20
976.267593
 11
793.570495
 21
977.270980
  0
LINE
  8
CSLAYER1
  6
CONTINUOUS
 62
     3
 10
793.570495
 20
977.270980
 11
792.933028
 21
978.251162
  0
LINE
  8
CSLAYER1
  6
CONTINUOUS
 62
     3
 10
792.933028
 20
978.251162
 11
792.121776
 21
979.200678
  0
LINE
  8
CSLAYER1
  6
CONTINUOUS
 62
     3
 10
792.121776
 20
979.200678
 11
791.142914
 21
980.112303
  0
LINE
  8
CSLAYER1
  6
CONTINUOUS
 62
     3
 10
791.142914
 20
980.112303
 11
790.003892
 21
980.979097
  0
LINE
  8
CSLAYER1
  6
CONTINUOUS
 62
     3
 10
790.003892
 20
980.979097
 11
788.713377
 21
981.794465
  0
LINE
  8
CSLAYER1
  6
CONTINUOUS
 62
     3
 10
788.713377
 20
981.794465
 11
787.281192
 21
982.552201
  0
LINE
  8
CSLAYER1
  6
CONTINUOUS
 62
     3
 10
787.281192
 20
982.552201
 11
785.718236
 21
983.246539
  0
LINE
  8
CSLAYER1
  6
CONTINUOUS
 62
     3
 10
785.718236
 20
983.246539
 11
784.036404
 21
983.872192
  0
LINE
  8
CSLAYER1
  6
CONTINUOUS
 62
     3
 10
784.036404
 20
983.872192
 11
782.248497
 21
984.424402
  0
LINE
  8
CSLAYER1
  6
CONTINUOUS
 62
     3
 10
782.248497
 20
984.424402
 11
780.368121
 21
984.898963
  0
LINE
  8
CSLAYER1
  6
CONTINUOUS
 62
     3
 10
780.368121
 20
984.898963
 11
778.409587
 21
985.292266
  0
LINE
  8
CSLAYER1
  6
CONTINUOUS
 62
     3
 10
778.409587
 20
985.292266
 11
776.387800
 21
985.601316
  0
LINE
  8
CSLAYER1
  6
CONTINUOUS
 62
     3
 10
776.387800
 20
985.601316
 11
774.318148
 21
985.823761
  0
LINE
  8
CSLAYER1
  6
CONTINUOUS
 62
     3
 10
774.318148
 20
985.823761
 11
772.216382
 21
985.957910
  0
LINE
  8
CSLAYER1
  6
CONTINUOUS
 62
     3
 10
772.216382
 20
985.957910
 11
770.098497
 21
986.002739
  0
LINE
  8
CSLAYER1
  6
CONTINUOUS
 62
     3
 10
770.098497
 20
986.002739
 11
767.980612
 21
985.957910
  0
LINE
  8
CSLAYER1
  6
CONTINUOUS
 62
     3
 10
767.980612
 20
985.957910
 11
765.878846
 21
985.823761
  0
LINE
  8
CSLAYER1
  6
CONTINUOUS
 62
     3
 10
765.878846
 20
985.823761
 11
763.809194
 21
985.601316
  0
LINE
  8
CSLAYER1
  6
CONTINUOUS
 62
     3
 10
763.809194
 20
985.601316
 11
761.787408
 21
985.292266
  0
LINE
  8
CSLAYER1
  6
CONTINUOUS
 62
     3
 10
761.787408
 20
985.292266
 11
759.828873
 21
984.898963
  0
LINE
  8
CSLAYER1
  6
CONTINUOUS
 62
     3
 10
759.828873
 20
984.898963
 11
757.948497
 21
984.424402
  0
LINE
  8
CSLAYER1
  6
CONTINUOUS
 62
     3
 10
757.948497
 20
984.424402
 11
756.160590
 21
983.872192
  0
LINE
  8
CSLAYER1
  6
CONTINUOUS
 62
     3
 10
756.160590
 20
983.872192
 11
754.478758
 21
983.246539
  0
LINE
  8
CSLAYER1
  6
CONTINUOUS
 62
     3
 10
754.478758
 20
983.246539
 11
752.915802
 21
982.552201
  0
LINE
  8
CSLAYER1
  6
CONTINUOUS
 62
     3
 10
752.915802
 20
982.552201
 11
751.483617
 21
981.794465
  0
LINE
  8
CSLAYER1
  6
CONTINUOUS
 62
     3
 10
751.483617
 20
981.794465
 11
750.193102
 21
980.979097
  0
LINE
  8
CSLAYER1
  6
CONTINUOUS
 62
     3
 10
750.193102
 20
980.979097
 11
749.054080
 21
980.112303
  0
LINE
  8
CSLAYER1
  6
CONTINUOUS
 62
     3
 10
749.054080
 20
980.112303
 11
748.075218
 21
979.200678
  0
LINE
  8
CSLAYER1
  6
CONTINUOUS
 62
     3
 10
748.075218
 20
979.200678
 11
747.263966
 21
978.251162
  0
LINE
  8
CSLAYER1
  6
CONTINUOUS
 62
     3
 10
747.263966
 20
978.251162
 11
746.626499
 21
977.270980
  0
LINE
  8
CSLAYER1
  6
CONTINUOUS
 62
     3
 10
746.626499
 20
977.270980
 11
746.167669
 21
976.267593
  0
LINE
  8
CSLAYER1
  6
CONTINUOUS
 62
     3
 10
746.167669
 20
976.267593
 11
745.890966
 21
975.248636
  0
LINE
  8
CSLAYER1
  6
CONTINUOUS
 62
     3
 10
745.890966
 20
975.248636
 11
745.798497
 21
974.221866
  0
LINE
  8
CSLAYER1
  6
CONTINUOUS
 62
     3
 10
745.798497
 20
879.908986
 11
745.798497
 21
974.221866
  0
LINE
  8
CSLAYER1
  6
CONTINUOUS
 62
     3
 10
752.098497
 20
1029.216904
 11
752.098497
 21
1133.471485
  0
LINE
  8
CSLAYER1
  6
CONTINUOUS
 62
     3
 10
792.598497
 20
849.320090
 11
792.598497
 21
879.908986
  0
LINE
  8
CSLAYER1
  6
CONTINUOUS
 62
     3
 10
792.598497
 20
879.908986
 11
792.512878
 21
880.859700
  0
LINE
  8
CSLAYER1
  6
CONTINUOUS
 62
     3
 10
792.512878
 20
880.859700
 11
792.256671
 21
881.803178
  0
LINE
  8
CSLAYER1
  6
CONTINUOUS
 62
     3
 10
792.256671
 20
881.803178
 11
791.831828
 21
882.732241
  0
LINE
  8
CSLAYER1
  6
CONTINUOUS
 62
     3
 10
791.831828
 20
882.732241
 11
791.241581
 21
883.639816
  0
LINE
  8
CSLAYER1
  6
CONTINUOUS
 62
     3
 10
791.241581
 20
883.639816
 11
790.490422
 21
884.518998
  0
LINE
  8
CSLAYER1
  6
CONTINUOUS
 62
     3
 10
790.490422
 20
884.518998
 11
789.584069
 21
885.363095
  0
LINE
  8
CSLAYER1
  6
CONTINUOUS
 62
     3
 10
789.584069
 20
885.363095
 11
788.529418
 21
886.165682
  0
LINE
  8
CSLAYER1
  6
CONTINUOUS
 62
     3
 10
788.529418
 20
886.165682
 11
787.334497
 21
886.920653
  0
LINE
  8
CSLAYER1
  6
CONTINUOUS
 62
     3
 10
787.334497
 20
886.920653
 11
786.008400
 21
887.622260
  0
LINE
  8
CSLAYER1
  6
CONTINUOUS
 62
     3
 10
786.008400
 20
887.622260
 11
784.561218
 21
888.265165
  0
LINE
  8
CSLAYER1
  6
CONTINUOUS
 62
     3
 10
784.561218
 20
888.265165
 11
783.003967
 21
888.844474
  0
LINE
  8
CSLAYER1
  6
CONTINUOUS
 62
     3
 10
783.003967
 20
888.844474
 11
781.348497
 21
889.355779
  0
LINE
  8
CSLAYER1
  6
CONTINUOUS
 62
     3
 10
781.348497
 20
889.355779
 11
779.607408
 21
889.795188
  0
LINE
  8
CSLAYER1
  6
CONTINUOUS
 62
     3
 10
779.607408
 20
889.795188
 11
777.793950
 21
890.159357
  0
LINE
  8
CSLAYER1
  6
CONTINUOUS
 62
     3
 10
777.793950
 20
890.159357
 11
775.921926
 21
890.445514
  0
LINE
  8
CSLAYER1
  6
CONTINUOUS
 62
     3
 10
775.921926
 20
890.445514
 11
774.005581
 21
890.651482
  0
LINE
  8
CSLAYER1
  6
CONTINUOUS
 62
     3
 10
774.005581
 20
890.651482
 11
772.059501
 21
890.775694
  0
LINE
  8
CSLAYER1
  6
CONTINUOUS
 62
     3
 10
772.059501
 20
890.775694
 11
770.098497
 21
890.817203
  0
LINE
  8
CSLAYER1
  6
CONTINUOUS
 62
     3
 10
770.098497
 20
890.817203
 11
768.137493
 21
890.775694
  0
LINE
  8
CSLAYER1
  6
CONTINUOUS
 62
     3
 10
768.137493
 20
890.775694
 11
766.191413
 21
890.651482
  0
LINE
  8
CSLAYER1
  6
CONTINUOUS
 62
     3
 10
766.191413
 20
890.651482
 11
764.275069
 21
890.445514
  0
LINE
  8
CSLAYER1
  6
CONTINUOUS
 62
     3
 10
764.275069
 20
890.445514
 11
762.403044
 21
890.159357
  0
LINE
  8
CSLAYER1
  6
CONTINUOUS
 62
     3
 10
762.403044
 20
890.159357
 11
760.589586
 21
889.795188
  0
LINE
  8
CSLAYER1
  6
CONTINUOUS
 62
     3
 10
760.589586
 20
889.795188
 11
758.848497
 21
889.355779
  0
LINE
  8
CSLAYER1
  6
CONTINUOUS
 62
     3
 10
758.848497
 20
889.355779
 11
757.193027
 21
888.844474
  0
LINE
  8
CSLAYER1
  6
CONTINUOUS
 62
     3
 10
757.193027
 20
888.844474
 11
755.635776
 21
888.265165
  0
LINE
  8
CSLAYER1
  6
CONTINUOUS
 62
     3
 10
755.635776
 20
888.265165
 11
754.188594
 21
887.622260
  0
LINE
  8
CSLAYER1
  6
CONTINUOUS
 62
     3
 10
754.188594
 20
887.622260
 11
752.862497
 21
886.920653
  0
LINE
  8
CSLAYER1
  6
CONTINUOUS
 62
     3
 10
752.862497
 20
886.920653
 11
751.667576
 21
886.165682
  0
LINE
  8
CSLAYER1
  6
CONTINUOUS
 62
     3
 10
751.667576
 20
886.165682
 11
750.612925
 21
885.363095
  0
LINE
  8
CSLAYER1
  6
CONTINUOUS
 62
     3
 10
750.612925
 20
885.363095
 11
749.706572
 21
884.518998
  0
LINE
  8
CSLAYER1
  6
CONTINUOUS
 62
     3
 10
749.706572
 20
884.518998
 11
748.955413
 21
883.639816
  0
LINE
  8
CSLAYER1
  6
CONTINUOUS
 62
     3
 10
748.955413
 20
883.639816
 11
748.365166
 21
882.732241
  0
LINE
  8
CSLAYER1
  6
CONTINUOUS
 62
     3
 10
748.365166
 20
882.732241
 11
747.940323
 21
881.803178
  0
LINE
  8
CSLAYER1
  6
CONTINUOUS
 62
     3
 10
747.940323
 20
881.803178
 11
747.684116
 21
880.859700
  0
LINE
  8
CSLAYER1
  6
CONTINUOUS
 62
     3
 10
747.684116
 20
880.859700
 11
747.598497
 21
879.908986
  0
LINE
  8
CSLAYER1
  6
CONTINUOUS
 62
     3
 10
794.398497
 20
879.908986
 11
794.306028
 21
880.935757
  0
LINE
  8
CSLAYER1
  6
CONTINUOUS
 62
     3
 10
794.306028
 20
880.935757
 11
794.029325
 21
881.954714
  0
LINE
  8
CSLAYER1
  6
CONTINUOUS
 62
     3
 10
794.029325
 20
881.954714
 11
793.570495
 21
882.958101
  0
LINE
  8
CSLAYER1
  6
CONTINUOUS
 62
     3
 10
793.570495
 20
882.958101
 11
792.933028
 21
883.938282
  0
LINE
  8
CSLAYER1
  6
CONTINUOUS
 62
     3
 10
792.933028
 20
883.938282
 11
792.121776
 21
884.887799
  0
LINE
  8
CSLAYER1
  6
CONTINUOUS
 62
     3
 10
792.121776
 20
884.887799
 11
791.142914
 21
885.799423
  0
LINE
  8
CSLAYER1
  6
CONTINUOUS
 62
     3
 10
791.142914
 20
885.799423
 11
790.003892
 21
886.666218
  0
LINE
  8
CSLAYER1
  6
CONTINUOUS
 62
     3
 10
790.003892
 20
886.666218
 11
788.713377
 21
887.481586
  0
LINE
  8
CSLAYER1
  6
CONTINUOUS
 62
     3
 10
788.713377
 20
887.481586
 11
787.281192
 21
888.239322
  0
LINE
  8
CSLAYER1
  6
CONTINUOUS
 62
     3
 10
787.281192
 20
888.239322
 11
785.718236
 21
888.933659
  0
LINE
  8
CSLAYER1
  6
CONTINUOUS
 62
     3
 10
785.718236
 20
888.933659
 11
784.036404
 21
889.559313
  0
LINE
  8
CSLAYER1
  6
CONTINUOUS
 62
     3
 10
784.036404
 20
889.559313
 11
782.248497
 21
890.111522
  0
LINE
  8
CSLAYER1
  6
CONTINUOUS
 62
     3
 10
782.248497
 20
890.111522
 11
780.368121
 21
890.586084
  0
LINE
  8
CSLAYER1
  6
CONTINUOUS
 62
     3
 10
780.368121
 20
890.586084
 11
778.409587
 21
890.979386
  0
LINE
  8
CSLAYER1
  6
CONTINUOUS
 62
     3
 10
778.409587
 20
890.979386
 11
776.387800
 21
891.288437
  0
LINE
  8
CSLAYER1
  6
CONTINUOUS
 62
     3
 10
776.387800
 20
891.288437
 11
774.318148
 21
891.510882
  0
LINE
  8
CSLAYER1
  6
CONTINUOUS
 62
     3
 10
774.318148
 20
891.510882
 11
772.216382
 21
891.645030
  0
LINE
  8
CSLAYER1
  6
CONTINUOUS
 62
     3
 10
772.216382
 20
891.645030
 11
770.098497
 21
891.689860
  0
LINE
  8
CSLAYER1
  6
CONTINUOUS
 62
     3
 10
770.098497
 20
891.689860
 11
767.980612
 21
891.645030
  0
LINE
  8
CSLAYER1
  6
CONTINUOUS
 62
     3
 10
767.980612
 20
891.645030
 11
765.878846
 21
891.510882
  0
LINE
  8
CSLAYER1
  6
CONTINUOUS
 62
     3
 10
765.878846
 20
891.510882
 11
763.809194
 21
891.288437
  0
LINE
  8
CSLAYER1
  6
CONTINUOUS
 62
     3
 10
763.809194
 20
891.288437
 11
761.787408
 21
890.979386
  0
LINE
  8
CSLAYER1
  6
CONTINUOUS
 62
     3
 10
761.787408
 20
890.979386
 11
759.828873
 21
890.586084
  0
LINE
  8
CSLAYER1
  6
CONTINUOUS
 62
     3
 10
759.828873
 20
890.586084
 11
757.948497
 21
890.111522
  0
LINE
  8
CSLAYER1
  6
CONTINUOUS
 62
     3
 10
757.948497
 20
890.111522
 11
756.160590
 21
889.559313
  0
LINE
  8
CSLAYER1
  6
CONTINUOUS
 62
     3
 10
756.160590
 20
889.559313
 11
754.478758
 21
888.933659
  0
LINE
  8
CSLAYER1
  6
CONTINUOUS
 62
     3
 10
754.478758
 20
888.933659
 11
752.915802
 21
888.239322
  0
LINE
  8
CSLAYER1
  6
CONTINUOUS
 62
     3
 10
752.915802
 20
888.239322
 11
751.483617
 21
887.481586
  0
LINE
  8
CSLAYER1
  6
CONTINUOUS
 62
     3
 10
751.483617
 20
887.481586
 11
750.193102
 21
886.666218
  0
LINE
  8
CSLAYER1
  6
CONTINUOUS
 62
     3
 10
750.193102
 20
886.666218
 11
749.054080
 21
885.799423
  0
LINE
  8
CSLAYER1
  6
CONTINUOUS
 62
     3
 10
749.054080
 20
885.799423
 11
748.075218
 21
884.887799
  0
LINE
  8
CSLAYER1
  6
CONTINUOUS
 62
     3
 10
748.075218
 20
884.887799
 11
747.263966
 21
883.938282
  0
LINE
  8
CSLAYER1
  6
CONTINUOUS
 62
     3
 10
747.263966
 20
883.938282
 11
746.626499
 21
882.958101
  0
LINE
  8
CSLAYER1
  6
CONTINUOUS
 62
     3
 10
746.626499
 20
882.958101
 11
746.167669
 21
881.954714
  0
LINE
  8
CSLAYER1
  6
CONTINUOUS
 62
     3
 10
746.167669
 20
881.954714
 11
745.890966
 21
880.935757
  0
LINE
  8
CSLAYER1
  6
CONTINUOUS
 62
     3
 10
745.890966
 20
880.935757
 11
745.798497
 21
879.908986
  0
LINE
  8
CSLAYER1
  6
CONTINUOUS
 62
     3
 10
745.798497
 20
879.908986
 11
745.890966
 21
878.882216
  0
LINE
  8
CSLAYER1
  6
CONTINUOUS
 62
     3
 10
745.890966
 20
878.882216
 11
745.996257
 21
878.494481
  0
LINE
  8
CSLAYER1
  6
CONTINUOUS
 62
     3
 10
747.098497
 20
876.134119
 11
747.263966
 21
875.879690
  0
LINE
  8
CSLAYER1
  6
CONTINUOUS
 62
     3
 10
747.263966
 20
875.879690
 11
747.598497
 21
875.488144
  0
LINE
  8
CSLAYER1
  6
CONTINUOUS
 62
     3
 10
792.598497
 20
875.488144
 11
792.933028
 21
875.879690
  0
LINE
  8
CSLAYER1
  6
CONTINUOUS
 62
     3
 10
792.933028
 20
875.879690
 11
793.098497
 21
876.134119
  0
LINE
  8
CSLAYER1
  6
CONTINUOUS
 62
     3
 10
794.200737
 20
878.494481
 11
794.306028
 21
878.882216
  0
LINE
  8
CSLAYER1
  6
CONTINUOUS
 62
     3
 10
794.306028
 20
878.882216
 11
794.398497
 21
879.908986
  0
LINE
  8
CSLAYER1
  6
CONTINUOUS
 62
     3
 10
747.598497
 20
849.320090
 11
747.598497
 21
879.908986
  0
LINE
  8
CSLAYER1
  6
CONTINUOUS
 62
     3
 10
792.598497
 20
849.320090
 11
792.512878
 21
850.270804
  0
LINE
  8
CSLAYER1
  6
CONTINUOUS
 62
     3
 10
792.512878
 20
850.270804
 11
792.256671
 21
851.214282
  0
LINE
  8
CSLAYER1
  6
CONTINUOUS
 62
     3
 10
792.256671
 20
851.214282
 11
791.831828
 21
852.143345
  0
LINE
  8
CSLAYER1
  6
CONTINUOUS
 62
     3
 10
791.831828
 20
852.143345
 11
791.241581
 21
853.050920
  0
LINE
  8
CSLAYER1
  6
CONTINUOUS
 62
     3
 10
791.241581
 20
853.050920
 11
790.490422
 21
853.930102
  0
LINE
  8
CSLAYER1
  6
CONTINUOUS
 62
     3
 10
790.490422
 20
853.930102
 11
789.584069
 21
854.774199
  0
LINE
  8
CSLAYER1
  6
CONTINUOUS
 62
     3
 10
789.584069
 20
854.774199
 11
788.529418
 21
855.576786
  0
LINE
  8
CSLAYER1
  6
CONTINUOUS
 62
     3
 10
788.529418
 20
855.576786
 11
787.334497
 21
856.331757
  0
LINE
  8
CSLAYER1
  6
CONTINUOUS
 62
     3
 10
787.334497
 20
856.331757
 11
786.008400
 21
857.033364
  0
LINE
  8
CSLAYER1
  6
CONTINUOUS
 62
     3
 10
786.008400
 20
857.033364
 11
784.561218
 21
857.676269
  0
LINE
  8
CSLAYER1
  6
CONTINUOUS
 62
     3
 10
784.561218
 20
857.676269
 11
783.003967
 21
858.255578
  0
LINE
  8
CSLAYER1
  6
CONTINUOUS
 62
     3
 10
783.003967
 20
858.255578
 11
781.348497
 21
858.766883
  0
LINE
  8
CSLAYER1
  6
CONTINUOUS
 62
     3
 10
781.348497
 20
858.766883
 11
779.607408
 21
859.206292
  0
LINE
  8
CSLAYER1
  6
CONTINUOUS
 62
     3
 10
779.607408
 20
859.206292
 11
777.793950
 21
859.570461
  0
LINE
  8
CSLAYER1
  6
CONTINUOUS
 62
     3
 10
777.793950
 20
859.570461
 11
775.921926
 21
859.856618
  0
LINE
  8
CSLAYER1
  6
CONTINUOUS
 62
     3
 10
775.921926
 20
859.856618
 11
774.005581
 21
860.062587
  0
LINE
  8
CSLAYER1
  6
CONTINUOUS
 62
     3
 10
774.005581
 20
860.062587
 11
772.059501
 21
860.186798
  0
LINE
  8
CSLAYER1
  6
CONTINUOUS
 62
     3
 10
772.059501
 20
860.186798
 11
770.098497
 21
860.228307
  0
LINE
  8
CSLAYER1
  6
CONTINUOUS
 62
     3
 10
770.098497
 20
860.228307
 11
768.137493
 21
860.186798
  0
LINE
  8
CSLAYER1
  6
CONTINUOUS
 62
     3
 10
768.137493
 20
860.186798
 11
766.191413
 21
860.062587
  0
LINE
  8
CSLAYER1
  6
CONTINUOUS
 62
     3
 10
766.191413
 20
860.062587
 11
764.275069
 21
859.856618
  0
LINE
  8
CSLAYER1
  6
CONTINUOUS
 62
     3
 10
764.275069
 20
859.856618
 11
762.403044
 21
859.570461
  0
LINE
  8
CSLAYER1
  6
CONTINUOUS
 62
     3
 10
762.403044
 20
859.570461
 11
760.589586
 21
859.206292
  0
LINE
  8
CSLAYER1
  6
CONTINUOUS
 62
     3
 10
760.589586
 20
859.206292
 11
758.848497
 21
858.766883
  0
LINE
  8
CSLAYER1
  6
CONTINUOUS
 62
     3
 10
758.848497
 20
858.766883
 11
757.193027
 21
858.255578
  0
LINE
  8
CSLAYER1
  6
CONTINUOUS
 62
     3
 10
757.193027
 20
858.255578
 11
755.635776
 21
857.676269
  0
LINE
  8
CSLAYER1
  6
CONTINUOUS
 62
     3
 10
755.635776
 20
857.676269
 11
754.188594
 21
857.033364
  0
LINE
  8
CSLAYER1
  6
CONTINUOUS
 62
     3
 10
754.188594
 20
857.033364
 11
752.862497
 21
856.331757
  0
LINE
  8
CSLAYER1
  6
CONTINUOUS
 62
     3
 10
752.862497
 20
856.331757
 11
751.667576
 21
855.576786
  0
LINE
  8
CSLAYER1
  6
CONTINUOUS
 62
     3
 10
751.667576
 20
855.576786
 11
750.612925
 21
854.774199
  0
LINE
  8
CSLAYER1
  6
CONTINUOUS
 62
     3
 10
750.612925
 20
854.774199
 11
749.706572
 21
853.930102
  0
LINE
  8
CSLAYER1
  6
CONTINUOUS
 62
     3
 10
749.706572
 20
853.930102
 11
748.955413
 21
853.050920
  0
LINE
  8
CSLAYER1
  6
CONTINUOUS
 62
     3
 10
748.955413
 20
853.050920
 11
748.365166
 21
852.143345
  0
LINE
  8
CSLAYER1
  6
CONTINUOUS
 62
     3
 10
748.365166
 20
852.143345
 11
747.940323
 21
851.214282
  0
LINE
  8
CSLAYER1
  6
CONTINUOUS
 62
     3
 10
747.940323
 20
851.214282
 11
747.684116
 21
850.270804
  0
LINE
  8
CSLAYER1
  6
CONTINUOUS
 62
     3
 10
747.684116
 20
850.270804
 11
747.598497
 21
849.320090
  0
LINE
  8
CSLAYER1
  6
CONTINUOUS
 62
     3
 10
747.598497
 20
849.320090
 11
747.684116
 21
848.369377
  0
LINE
  8
CSLAYER1
  6
CONTINUOUS
 62
     3
 10
747.684116
 20
848.369377
 11
747.940323
 21
847.425898
  0
LINE
  8
CSLAYER1
  6
CONTINUOUS
 62
     3
 10
747.940323
 20
847.425898
 11
748.365166
 21
846.496836
  0
LINE
  8
CSLAYER1
  6
CONTINUOUS
 62
     3
 10
748.365166
 20
846.496836
 11
748.955413
 21
845.589261
  0
LINE
  8
CSLAYER1
  6
CONTINUOUS
 62
     3
 10
748.955413
 20
845.589261
 11
749.141818
 21
845.371085
  0
LINE
  8
CSLAYER1
  6
CONTINUOUS
 62
     3
 10
791.055176
 20
845.371085
 11
791.241581
 21
845.589261
  0
LINE
  8
CSLAYER1
  6
CONTINUOUS
 62
     3
 10
791.241581
 20
845.589261
 11
791.831828
 21
846.496836
  0
LINE
  8
CSLAYER1
  6
CONTINUOUS
 62
     3
 10
791.831828
 20
846.496836
 11
792.256671
 21
847.425898
  0
LINE
  8
CSLAYER1
  6
CONTINUOUS
 62
     3
 10
792.256671
 20
847.425898
 11
792.512878
 21
848.369377
  0
LINE
  8
CSLAYER1
  6
CONTINUOUS
 62
     3
 10
792.512878
 20
848.369377
 11
792.598497
 21
849.320090
  0
LINE
  8
CSLAYER1
  6
CENTER
 62
     5
 10
730.098497
 20
816.379723
 11
730.098497
 21
958.471711
  0
LINE
  8
CSLAYER1
  6
CONTINUOUS
 62
     3
 10
737.098497
 20
971.135519
 11
723.098497
 21
971.135519
  0
LINE
  8
CSLAYER1
  6
CONTINUOUS
 62
     3
 10
737.098497
 20
963.335519
 11
723.098497
 21
963.335519
  0
LINE
  8
CSLAYER1
  6
CONTINUOUS
 62
     3
 10
736.530429
 20
958.135519
 11
723.666565
 21
958.135519
  0
LINE
  8
CSLAYER1
  6
CONTINUOUS
 62
     3
 10
736.098497
 20
956.135519
 11
724.098497
 21
956.135519
  0
LINE
  8
CSLAYER1
  6
CONTINUOUS
 62
     3
 10
736.098497
 20
949.135519
 11
724.098497
 21
949.135519
  0
LINE
  8
CSLAYER1
  6
CONTINUOUS
 62
     3
 10
734.981523
 20
924.135519
 11
725.215471
 21
924.135519
  0
LINE
  8
CSLAYER1
  6
CONTINUOUS
 62
     3
 10
735.598497
 20
946.135519
 11
735.598497
 21
949.135519
  0
LINE
  8
CSLAYER1
  6
CONTINUOUS
 62
     3
 10
738.181401
 20
963.960733
 11
738.181401
 21
970.510304
  0
LINE
  8
CSLAYER1
  6
CONTINUOUS
 62
     3
 10
734.139949
 20
963.960733
 11
734.139949
 21
970.510304
  0
ARC
  8
CSLAYER1
  6
CONTINUOUS
 62
     3
 10
707.410727
 20
963.377740
 40
29.587800
 50
345.831727
 51
359.918240
  0
ARC
  8
CSLAYER1
  6
CONTINUOUS
 62
     3
 10
752.786267
 20
963.377740
 40
29.587800
 50
180.081760
 51
194.168273
  0
LINE
  8
CSLAYER1
  6
CONTINUOUS
 62
     3
 10
734.445811
 20
956.135519
 11
734.445811
 21
958.135519
  0
LINE
  8
CSLAYER1
  6
CONTINUOUS
 62
     3
 10
732.464046
 20
956.135519
 11
732.464046
 21
958.135519
  0
LINE
  8
CSLAYER1
  6
CONTINUOUS
 62
     3
 10
725.751183
 20
956.135519
 11
725.751183
 21
958.135519
  0
LINE
  8
CSLAYER1
  6
CONTINUOUS
 62
     3
 10
727.732948
 20
956.135519
 11
727.732948
 21
958.135519
  0
LINE
  8
CSLAYER1
  6
CONTINUOUS
 62
     3
 10
737.098497
 20
971.135519
 11
738.181401
 21
970.510304
  0
ARC
  8
CSLAYER1
  6
CONTINUOUS
 62
     3
 10
736.160675
 20
967.583890
 40
3.556295
 50
64.625569
 51
124.625569
  0
ARC
  8
CSLAYER1
  6
CONTINUOUS
 62
     3
 10
730.098497
 20
957.760733
 40
13.374785
 50
72.412046
 51
90.000000
  0
LINE
  8
CSLAYER1
  6
CONTINUOUS
 62
     3
 10
737.098497
 20
963.335519
 11
738.181401
 21
963.960733
  0
ARC
  8
CSLAYER1
  6
CONTINUOUS
 62
     3
 10
736.160675
 20
966.887148
 40
3.556295
 50
235.374431
 51
295.374431
  0
ARC
  8
CSLAYER1
  6
CONTINUOUS
 62
     3
 10
730.098497
 20
976.710304
 40
13.374785
 50
270.000000
 51
287.587954
  0
LINE
  8
CSLAYER1
  6
CONTINUOUS
 62
     3
 10
722.015593
 20
963.960733
 11
722.015593
 21
970.510304
  0
LINE
  8
CSLAYER1
  6
CONTINUOUS
 62
     3
 10
726.057045
 20
963.960733
 11
726.057045
 21
970.510304
  0
LINE
  8
CSLAYER1
  6
CONTINUOUS
 62
     3
 10
723.098497
 20
971.135519
 11
722.015593
 21
970.510304
  0
ARC
  8
CSLAYER1
  6
CONTINUOUS
 62
     3
 10
724.036319
 20
967.583890
 40
3.556295
 50
55.374431
 51
115.374431
  0
ARC
  8
CSLAYER1
  6
CONTINUOUS
 62
     3
 10
730.098497
 20
957.760733
 40
13.374785
 50
90.000000
 51
107.587954
  0
LINE
  8
CSLAYER1
  6
CONTINUOUS
 62
     3
 10
723.098497
 20
963.335519
 11
722.015593
 21
963.960733
  0
ARC
  8
CSLAYER1
  6
CONTINUOUS
 62
     3
 10
724.036319
 20
966.887148
 40
3.556295
 50
244.625569
 51
304.625569
  0
ARC
  8
CSLAYER1
  6
CONTINUOUS
 62
     3
 10
730.098497
 20
976.710304
 40
13.374785
 50
252.412046
 51
270.000000
  0
LINE
  8
CSLAYER1
  6
CONTINUOUS
 62
     3
 10
737.026700
 20
949.671417
 11
737.026700
 21
955.399620
  0
LINE
  8
CSLAYER1
  6
CONTINUOUS
 62
     3
 10
733.562599
 20
949.671417
 11
733.562599
 21
955.399620
  0
LINE
  8
CSLAYER1
  6
CONTINUOUS
 62
     3
 10
736.098497
 20
949.135519
 11
737.026700
 21
949.671417
  0
ARC
  8
CSLAYER1
  6
CONTINUOUS
 62
     3
 10
730.098497
 20
960.599620
 40
11.464102
 50
270.000000
 51
287.821405
  0
ARC
  8
CSLAYER1
  6
CONTINUOUS
 62
     3
 10
735.294649
 20
952.201447
 40
3.066114
 50
236.143645
 51
295.804157
  0
LINE
  8
CSLAYER1
  6
CONTINUOUS
 62
     3
 10
736.098497
 20
955.935519
 11
737.026700
 21
955.399620
  0
ARC
  8
CSLAYER1
  6
CONTINUOUS
 62
     3
 10
730.098497
 20
944.471417
 40
11.464102
 50
72.178595
 51
90.000000
  0
ARC
  8
CSLAYER1
  6
CONTINUOUS
 62
     3
 10
735.294649
 20
952.869590
 40
3.066114
 50
64.195843
 51
123.856355
  0
LINE
  8
CSLAYER1
  6
CONTINUOUS
 62
     3
 10
736.098497
 20
955.935519
 11
724.098497
 21
955.935519
  0
LINE
  8
CSLAYER1
  6
CONTINUOUS
 62
     3
 10
733.562599
 20
955.935519
 11
733.562599
 21
956.135519
  0
LINE
  8
CSLAYER1
  6
CONTINUOUS
 62
     3
 10
724.598497
 20
946.135519
 11
724.598497
 21
949.135519
  0
LINE
  8
CSLAYER1
  6
CONTINUOUS
 62
     3
 10
723.170294
 20
949.671417
 11
723.170294
 21
955.399620
  0
LINE
  8
CSLAYER1
  6
CONTINUOUS
 62
     3
 10
726.634395
 20
949.671417
 11
726.634395
 21
955.399620
  0
LINE
  8
CSLAYER1
  6
CONTINUOUS
 62
     3
 10
724.098497
 20
949.135519
 11
723.170294
 21
949.671417
  0
ARC
  8
CSLAYER1
  6
CONTINUOUS
 62
     3
 10
730.098497
 20
960.599620
 40
11.464102
 50
252.178595
 51
270.000000
  0
ARC
  8
CSLAYER1
  6
CONTINUOUS
 62
     3
 10
724.902345
 20
952.201447
 40
3.066114
 50
244.195843
 51
303.856355
  0
LINE
  8
CSLAYER1
  6
CONTINUOUS
 62
     3
 10
724.098497
 20
955.935519
 11
723.170294
 21
955.399620
  0
ARC
  8
CSLAYER1
  6
CONTINUOUS
 62
     3
 10
730.098497
 20
944.471417
 40
11.464102
 50
90.000000
 51
107.821405
  0
ARC
  8
CSLAYER1
  6
CONTINUOUS
 62
     3
 10
724.902345
 20
952.869590
 40
3.066114
 50
56.143645
 51
115.804157
  0
LINE
  8
CSLAYER1
  6
CONTINUOUS
 62
     3
 10
726.634395
 20
955.935519
 11
726.634395
 21
956.135519
  0
LINE
  8
CSLAYER1
  6
CONTINUOUS
 62
     3
 10
737.026700
 20
937.135519
 11
737.026700
 21
945.599620
  0
LINE
  8
CSLAYER1
  6
CONTINUOUS
 62
     3
 10
733.562599
 20
937.135519
 11
733.562599
 21
945.599620
  0
LINE
  8
CSLAYER1
  6
CONTINUOUS
 62
     3
 10
736.098497
 20
946.135519
 11
737.026700
 21
945.599620
  0
ARC
  8
CSLAYER1
  6
CONTINUOUS
 62
     3
 10
730.098497
 20
934.671417
 40
11.464102
 50
72.178595
 51
90.000000
  0
ARC
  8
CSLAYER1
  6
CONTINUOUS
 62
     3
 10
735.294649
 20
943.069590
 40
3.066114
 50
64.195843
 51
123.856355
  0
LINE
  8
CSLAYER1
  6
CONTINUOUS
 62
     3
 10
736.098497
 20
946.135519
 11
724.098497
 21
946.135519
  0
LINE
  8
CSLAYER1
  6
CONTINUOUS
 62
     3
 10
723.170294
 20
937.135519
 11
723.170294
 21
945.599620
  0
LINE
  8
CSLAYER1
  6
CONTINUOUS
 62
     3
 10
726.634395
 20
937.135519
 11
726.634395
 21
945.599620
  0
LINE
  8
CSLAYER1
  6
CONTINUOUS
 62
     3
 10
724.098497
 20
946.135519
 11
723.170294
 21
945.599620
  0
ARC
  8
CSLAYER1
  6
CONTINUOUS
 62
     3
 10
730.098497
 20
934.671417
 40
11.464102
 50
90.000000
 51
107.821405
  0
ARC
  8
CSLAYER1
  6
CONTINUOUS
 62
     3
 10
724.902345
 20
943.069590
 40
3.066114
 50
56.143645
 51
115.804157
  0
LINE
  8
CSLAYER1
  6
CONTINUOUS
 62
     3
 10
735.977778
 20
925.049059
 11
737.026700
 21
937.135519
  0
ARC
  8
CSLAYER1
  6
CONTINUOUS
 62
     3
 10
714.921009
 20
937.135519
 40
18.641590
 50
330.443788
 51
360.000000
  0
ARC
  8
CSLAYER1
  6
CONTINUOUS
 62
     3
 10
730.098497
 20
928.575373
 40
1.217263
 50
270.000000
 51
329.421532
  0
ARC
  8
CSLAYER1
  6
CONTINUOUS
 62
     3
 10
752.204189
 20
937.135519
 40
18.641590
 50
180.000000
 51
209.556212
  0
ARC
  8
CSLAYER1
  6
CONTINUOUS
 62
     3
 10
737.026700
 20
928.575373
 40
1.217263
 50
210.578468
 51
227.594217
  0
ARC
  8
CSLAYER1
  6
CONTINUOUS
 62
     3
 10
734.981523
 20
925.135519
 40
1.000000
 50
270.000000
 51
355.040021
  0
LINE
  8
CSLAYER1
  6
CONTINUOUS
 62
     3
 10
724.219216
 20
925.049059
 11
723.170294
 21
937.135519
  0
ARC
  8
CSLAYER1
  6
CONTINUOUS
 62
     3
 10
745.275985
 20
937.135519
 40
18.641590
 50
180.000000
 51
209.556212
  0
ARC
  8
CSLAYER1
  6
CONTINUOUS
 62
     3
 10
730.098497
 20
928.575373
 40
1.217263
 50
210.578468
 51
270.000000
  0
ARC
  8
CSLAYER1
  6
CONTINUOUS
 62
     3
 10
707.992805
 20
937.135519
 40
18.641590
 50
330.443788
 51
360.000000
  0
ARC
  8
CSLAYER1
  6
CONTINUOUS
 62
     3
 10
723.170294
 20
928.575373
 40
1.217263
 50
312.405783
 51
329.421532
  0
ARC
  8
CSLAYER1
  6
CONTINUOUS
 62
     3
 10
725.215471
 20
925.135519
 40
1.000000
 50
184.959979
 51
270.000000
  0
LINE
  8
CSLAYER1
  6
CONTINUOUS
 62
     3
 10
734.981523
 20
990.835519
 11
725.215471
 21
990.835519
  0
LINE
  8
CSLAYER1
  6
CENTER
 62
     5
 10
742.598497
 20
983.835519
 11
737.098497
 21
983.835519
  0
LINE
  8
CSLAYER1
  6
CONTINUOUS
 62
     3
 10
723.098497
 20
976.835519
 11
723.098497
 21
989.335519
  0
LINE
  8
CSLAYER1
  6
CONTINUOUS
 62
     3
 10
737.098497
 20
990.835519
 11
724.598497
 21
990.835519
  0
LINE
  8
CSLAYER1
  6
CONTINUOUS
 62
     3
 10
737.098497
 20
976.835519
 11
723.098497
 21
976.835519
  0
LINE
  8
CSLAYER1
  6
CONTINUOUS
 62
     3
 10
737.098497
 20
976.835519
 11
737.098497
 21
990.833074
  0
LINE
  8
CSLAYER1
  6
CONTINUOUS
 62
     3
 10
734.698497
 20
971.135519
 11
734.698497
 21
976.835519
  0
LINE
  8
CSLAYER1
  6
CONTINUOUS
 62
     4
 10
734.098497
 20
971.135519
 11
734.098497
 21
975.796288
  0
LINE
  8
CSLAYER1
  6
CONTINUOUS
 62
     4
 10
734.698497
 20
976.835519
 11
734.098497
 21
975.796288
  0
LINE
  8
CSLAYER1
  6
CONTINUOUS
 62
     3
 10
725.498497
 20
971.135519
 11
725.498497
 21
976.835519
  0
LINE
  8
CSLAYER1
  6
CONTINUOUS
 62
     4
 10
725.498497
 20
976.835519
 11
726.098497
 21
975.796288
  0
LINE
  8
CSLAYER1
  6
CONTINUOUS
 62
     4
 10
734.698497
 20
975.796288
 11
725.498497
 21
975.796288
  0
LINE
  8
CSLAYER1
  6
CONTINUOUS
 62
     3
 10
742.598497
 20
978.983733
 11
737.098497
 21
978.885519
  0
LINE
  8
CSLAYER1
  6
CONTINUOUS
 62
     4
 10
742.598497
 20
979.683845
 11
737.085999
 21
979.585407
  0
LINE
  8
CSLAYER1
  6
CONTINUOUS
 62
     3
 10
742.598497
 20
988.687304
 11
737.098497
 21
988.785519
  0
LINE
  8
CSLAYER1
  6
CONTINUOUS
 62
     4
 10
742.598497
 20
987.987193
 11
737.085999
 21
988.085630
  0
ARC
  8
CSLAYER1
  6
CONTINUOUS
 62
     3
 10
724.598497
 20
989.335519
 40
1.500000
 50
90.000000
 51
180.000000
  0
LINE
  8
CSLAYER1
  6
CONTINUOUS
 62
     3
 10
748.598497
 20
1131.536605
 11
752.098497
 21
1131.536605
  0
LINE
  8
CSLAYER1
  6
CONTINUOUS
 62
     3
 10
747.598497
 20
1132.536605
 11
748.598497
 21
1131.536605
  0
LINE
  8
CSLAYER1
  6
CONTINUOUS
 62
     3
 10
791.598497
 20
1131.536605
 11
792.598497
 21
1132.536605
  0
LINE
  8
CSLAYER1
  6
CONTINUOUS
 62
     3
 10
793.598497
 20
1137.136605
 11
792.598497
 21
1137.136605
  0
LINE
  8
CSLAYER1
  6
CONTINUOUS
 62
     3
 10
747.598497
 20
1137.136605
 11
746.598497
 21
1137.136605
  0
LINE
  8
CSLAYER1
  6
CONTINUOUS
 62
     3
 10
788.098497
 20
1131.536605
 11
791.598497
 21
1131.536605
  0
LINE
  8
CSLAYER1
  6
CONTINUOUS
 62
     3
 10
725.948497
 20
817.301468
 11
725.948497
 21
924.135519
  0
LINE
  8
CSLAYER1
  6
CONTINUOUS
 62
     3
 10
734.248497
 20
817.301468
 11
734.248497
 21
924.135519
  0
LINE
  8
CSLAYER1
  6
CONTINUOUS
 62
     4
 10
726.098497
 20
971.135519
 11
726.098497
 21
975.796288
  0
ENDBLK
  8
0
  0
BLOCK
  8
CSLAYER1
  2
BLKF0005
 70
   64
 10
0.0
 20
0.0
 30
0.0
  0
LINE
  8
CSLAYER1
  6
CENTER
 62
     6
 10
1370.007323
 20
1831.508143
 11
1370.007323
 21
1808.982540
  0
LINE
  8
CSLAYER1
  6
CENTER
 62
     6
 10
1358.744522
 20
1820.245342
 11
1381.270125
 21
1820.245342
  0
ENDBLK
  8
0
  0
BLOCK
  8
CSLAYER1
  2
BLKF0006
 70
   64
 10
0.0
 20
0.0
 30
0.0
  0
LINE
  8
CSLAYER1
  6
CENTER
 62
     6
 10
1370.007323
 20
2058.982540
 11
1370.007323
 21
2081.508143
  0
LINE
  8
CSLAYER1
  6
CENTER
 62
     6
 10
1358.744522
 20
2070.245342
 11
1381.270125
 21
2070.245342
  0
ENDBLK
  8
0
  0
BLOCK
  8
CSLAYER1
  2
BLKF0007
 70
   64
 10
0.0
 20
0.0
 30
0.0
  0
LINE
  8
CSLAYER1
  6
CONTINUOUS
 62
     3
 10
693.098497
 20
1344.095484
 11
693.098497
 21
1358.865139
  0
LINE
  8
CSLAYER1
  6
CONTINUOUS
 62
     3
 10
696.098497
 20
1344.315139
 11
693.098497
 21
1344.315139
  0
LINE
  8
CSLAYER1
  6
CONTINUOUS
 62
     3
 10
696.098497
 20
1353.552943
 11
693.098497
 21
1357.052943
  0
LINE
  8
CSLAYER1
  6
CONTINUOUS
 62
     3
 10
685.098497
 20
1355.065139
 11
685.098497
 21
1358.865139
  0
ARC
  8
CSLAYER1
  6
CONTINUOUS
 62
     3
 10
698.894241
 20
1355.065139
 40
13.795744
 50
164.011330
 51
180.000000
  0
LINE
  8
CSLAYER1
  6
CONTINUOUS
 62
     3
 10
685.098497
 20
1355.065139
 11
685.098497
 21
1346.065139
  0
LINE
  8
CSLAYER1
  6
CONTINUOUS
 62
     3
 10
693.098497
 20
1349.580312
 11
686.235678
 21
1349.580312
  0
LINE
  8
CSLAYER1
  6
CONTINUOUS
 62
     3
 10
693.098497
 20
1344.095484
 11
686.235678
 21
1344.095484
  0
LINE
  8
CSLAYER1
  6
CONTINUOUS
 62
     3
 10
685.098497
 20
1346.065139
 11
686.235678
 21
1344.095484
  0
ARC
  8
CSLAYER1
  6
CONTINUOUS
 62
     3
 10
688.878541
 20
1346.837898
 40
3.808617
 50
133.940972
 51
174.338367
  0
ARC
  8
CSLAYER1
  6
CONTINUOUS
 62
     3
 10
698.894241
 20
1355.065139
 40
13.795744
 50
180.000000
 51
203.426598
  0
ENDBLK
  8
0
  0
BLOCK
  8
CSLAYER1
  2
BLKF0008
 70
   64
 10
0.0
 20
0.0
 30
0.0
  0
LINE
  8
CSLAYER1
  6
CONTINUOUS
 62
     3
 10
2167.552282
 20
1388.865139
 11
2167.552282
 21
1358.865139
  0
LINE
  8
CSLAYER1
  6
CONTINUOUS
 62
     3
 10
2165.252282
 20
1356.565139
 11
2165.252282
 21
1358.865139
  0
POINT
  8
CSLAYER1
 62
     3
 10
1389.852282
 20
1355.065139
  0
POINT
  8
CSLAYER1
 62
     3
 10
1389.852282
 20
1355.065139
  0
LINE
  8
CSLAYER1
  6
CONTINUOUS
 62
     3
 10
1367.552282
 20
1388.865139
 11
1367.552282
 21
1358.865139
  0
LINE
  8
CSLAYER1
  6
CONTINUOUS
 62
     3
 10
1419.852282
 20
1356.565139
 11
2049.852282
 21
1356.565139
  0
LINE
  8
CSLAYER1
  6
CONTINUOUS
 62
     3
 10
1367.552282
 20
1388.865139
 11
2167.552282
 21
1388.865139
  0
LINE
  8
CSLAYER1
  6
CONTINUOUS
 62
     3
 10
1369.852282
 20
1358.865139
 11
1369.852282
 21
1349.565139
  0
LINE
  8
CSLAYER1
  6
CONTINUOUS
 62
     3
 10
1367.552282
 20
1358.865139
 11
1369.852282
 21
1358.865139
  0
LINE
  8
CSLAYER1
  6
CONTINUOUS
 62
     3
 10
1374.852282
 20
1344.565139
 11
1394.852282
 21
1344.565139
  0
ARC
  8
CSLAYER1
  6
CONTINUOUS
 62
     3
 10
1374.852282
 20
1349.565139
 40
5.000000
 50
180.000000
 51
270.000000
  0
LINE
  8
CSLAYER1
  6
CONTINUOUS
 62
     3
 10
1419.852282
 20
1353.565139
 11
1394.852282
 21
1344.565139
  0
LINE
  8
CSLAYER1
  6
CONTINUOUS
 62
     3
 10
1419.852282
 20
1358.865139
 11
1419.852282
 21
1353.565139
  0
LINE
  8
CSLAYER1
  6
CENTER
 62
     5
 10
1379.093913
 20
1355.065139
 11
1401.184414
 21
1355.065139
  0
LINE
  8
CSLAYER1
  6
CENTER
 62
     5
 10
1389.852282
 20
1344.565139
 11
1389.852282
 21
1358.865139
  0
LINE
  8
CSLAYER1
  6
CONTINUOUS
 62
     3
 10
1419.852282
 20
1356.565139
 11
2165.252282
 21
1356.565139
  0
LINE
  8
CSLAYER1
  6
CONTINUOUS
 62
     3
 10
1367.552282
 20
1358.865139
 11
2167.552282
 21
1358.865139
  0
ENDBLK
  8
0
  0
BLOCK
  8
CSLAYER1
  2
BLKF0009
 70
   64
 10
0.0
 20
0.0
 30
0.0
  0
LINE
  8
CSLAYER1
  6
PHANTOM
 62
     6
 10
2147.707323
 20
857.301468
 11
2147.707323
 21
827.301468
  0
LINE
  8
CSLAYER1
  6
PHANTOM
 62
     6
 10
2145.407323
 20
825.001468
 11
2145.407323
 21
827.301468
  0
POINT
  8
CSLAYER1
 62
     6
 10
1370.007323
 20
823.501468
  0
POINT
  8
CSLAYER1
 62
     6
 10
1370.007323
 20
823.501468
  0
LINE
  8
CSLAYER1
  6
PHANTOM
 62
     6
 10
1347.707323
 20
857.301468
 11
1347.707323
 21
827.301468
  0
LINE
  8
CSLAYER1
  6
PHANTOM
 62
     6
 10
1400.007323
 20
825.001468
 11
2030.007323
 21
825.001468
  0
LINE
  8
CSLAYER1
  6
PHANTOM
 62
     6
 10
1347.707323
 20
857.301468
 11
2147.707323
 21
857.301468
  0
LINE
  8
CSLAYER1
  6
PHANTOM
 62
     6
 10
1350.007323
 20
827.301468
 11
1350.007323
 21
818.001468
  0
LINE
  8
CSLAYER1
  6
PHANTOM
 62
     6
 10
1347.707323
 20
827.301468
 11
1350.007323
 21
827.301468
  0
LINE
  8
CSLAYER1
  6
PHANTOM
 62
     6
 10
1355.007323
 20
813.001468
 11
1375.007323
 21
813.001468
  0
ARC
  8
CSLAYER1
  6
PHANTOM
 62
     6
 10
1355.007323
 20
818.001468
 40
5.000000
 50
180.000000
 51
270.000000
  0
LINE
  8
CSLAYER1
  6
PHANTOM
 62
     6
 10
1400.007323
 20
822.001468
 11
1375.007323
 21
813.001468
  0
LINE
  8
CSLAYER1
  6
PHANTOM
 62
     6
 10
1400.007323
 20
827.301468
 11
1400.007323
 21
822.001468
  0
LINE
  8
CSLAYER1
  6
PHANTOM
 62
     6
 10
1359.248955
 20
823.501468
 11
1381.339455
 21
823.501468
  0
LINE
  8
CSLAYER1
  6
PHANTOM
 62
     6
 10
1370.007323
 20
813.001468
 11
1370.007323
 21
827.301468
  0
LINE
  8
CSLAYER1
  6
PHANTOM
 62
     6
 10
1400.007323
 20
825.001468
 11
2145.407323
 21
825.001468
  0
LINE
  8
CSLAYER1
  6
PHANTOM
 62
     6
 10
1347.707323
 20
827.301468
 11
2147.707323
 21
827.301468
  0
ENDBLK
  8
0
  0
BLOCK
  8
CSLAYER1
  2
BLKF0010
 70
   64
 10
0.0
 20
0.0
 30
0.0
  0
DIMENSION
  8
CSLAYER1
 62
     3
  2
*D0012
 10
1259.753263
 20
2070.245342
 11
1251.501099
 21
1919.692749
 13
1358.744522
 23
1820.245342
 14
1358.744522
 24
2070.245342
 50
90.000000
 70
1
  0
DIMENSION
  8
CSLAYER1
 62
     3
  2
*D0013
 10
1370.007323
 20
1731.185277
 11
1304.151733
 21
1714.918335
 13
1345.007323
 23
1664.373709
 14
1370.007323
 24
1808.982540
  0
DIMENSION
  8
CSLAYER1
 62
     3
  2
*D0014
 10
1395.007323
 20
1664.373709
 11
1305.313843
 21
1647.525757
 13
1345.007323
 23
1805.245342
 14
1395.007323
 24
1805.245342
 52
270.000000
 70
1
  0
INSERT
  8
CSLAYER1
  2
EASYDRAWDIM0003
 10
0.0
 20
0.0
 30
0.0
  0
LINE
  8
CSLAYER1
  6
CENTER
 62
     5
 10
1370.007323
 20
1831.508143
 11
1370.007323
 21
1808.982540
  0
LINE
  8
CSLAYER1
  6
CENTER
 62
     5
 10
1370.007323
 20
2058.982540
 11
1370.007323
 21
2081.508143
  0
INSERT
  8
CSLAYER1
  2
EASYDRAWDIM0004
 10
0.0
 20
0.0
 30
0.0
  0
ENDBLK
  8
0
  0
BLOCK
  8
CSLAYER1
  2
BLKF0011
 70
   64
 10
0.0
 20
0.0
 30
0.0
  0
LINE
  8
CSLAYER1
  6
DASHED
 62
     5
 10
1347.707323
 20
1845.245342
 11
2147.707323
 21
1845.245342
  0
LINE
  8
CSLAYER1
  6
DASHED
 62
     5
 10
1395.007323
 20
1820.245342
 11
1395.007323
 21
1845.245342
  0
ARC
  8
CSLAYER1
  6
CONTINUOUS
 62
     5
 10
1370.007323
 20
1820.245342
 40
6.500000
 50
62.740267
 51
113.228660
  0
ARC
  8
CSLAYER1
  6
CONTINUOUS
 62
     5
 10
1370.007323
 20
1820.245342
 40
6.500000
 50
150.667324
 51
180.000000
  0
ARC
  8
CSLAYER1
  6
CONTINUOUS
 62
     5
 10
1370.007323
 20
1820.245342
 40
6.500000
 50
0.000000
 51
24.091742
  0
LINE
  8
CSLAYER1
  6
DASHED
 62
     5
 10
1347.707323
 20
2045.245342
 11
2147.707323
 21
2045.245342
  0
LINE
  8
CSLAYER1
  6
DASHED
 62
     5
 10
1395.007323
 20
2070.245342
 11
1395.007323
 21
2045.245342
  0
ARC
  8
CSLAYER1
  6
CONTINUOUS
 62
     5
 10
1370.007323
 20
2070.245342
 40
6.500000
 50
246.771340
 51
297.259733
  0
ARC
  8
CSLAYER1
  6
CONTINUOUS
 62
     5
 10
1370.007323
 20
2070.245342
 40
6.500000
 50
180.000000
 51
209.332676
  0
ARC
  8
CSLAYER1
  6
CONTINUOUS
 62
     5
 10
1370.007323
 20
2070.245342
 40
6.500000
 50
335.908258
 51
360.000000
  0
ENDBLK
  8
0
  0
ENDSEC
  0
SECTION
  2
ENTITIES
  0
LINE
  8
CSLAYER1
  6
CONTINUOUS
 62
     3
 10
209.094112
 20
2440.917366
 11
209.094112
 21
92.370436
  0
LINE
  8
CSLAYER1
  6
CONTINUOUS
 62
     3
 10
3531.667423
 20
2440.917366
 11
209.094112
 21
2440.917366
  0
LINE
  8
CSLAYER1
  6
CONTINUOUS
 62
     3
 10
3531.667423
 20
2440.917366
 11
3531.667423
 21
92.370436
  0
LINE
  8
CSLAYER1
  6
CONTINUOUS
 62
     3
 10
3531.667423
 20
92.370436
 11
209.094112
 21
92.370436
  0
LINE
  8
CSLAYER1
  6
CONTINUOUS
 62
     5
 10
159.094112
 20
1252.370436
 11
109.094112
 21
1252.370436
  0
LINE
  8
CSLAYER1
  6
CONTINUOUS
 62
     5
 10
3457.667423
 20
2340.917366
 11
2577.667423
 21
2340.917366
  0
LINE
  8
CSLAYER1
  6
CONTINUOUS
 62
     5
 10
3457.667423
 20
2287.584033
 11
2577.667423
 21
2287.584033
  0
LINE
  8
CSLAYER1
  6
CONTINUOUS
 62
     5
 10
3457.667423
 20
2234.250699
 11
2577.667423
 21
2234.250699
  0
LINE
  8
CSLAYER1
  6
CONTINUOUS
 62
     5
 10
3457.667423
 20
2127.584033
 11
2577.667423
 21
2127.584033
  0
LINE
  8
CSLAYER1
  6
CONTINUOUS
 62
     5
 10
3457.667423
 20
2020.917366
 11
2577.667423
 21
2020.917366
  0
LINE
  8
CSLAYER1
  6
CONTINUOUS
 62
     5
 10
3457.667423
 20
1807.584033
 11
2577.667423
 21
1807.584033
  0
LINE
  8
CSLAYER1
  6
CONTINUOUS
 62
     5
 10
3457.667423
 20
1594.250696
 11
2577.667423
 21
1594.250696
  0
LINE
  8
CSLAYER1
  6
CONTINUOUS
 62
     5
 10
3457.667423
 20
1540.917363
 11
2577.667423
 21
1540.917363
  0
TEXT
  8
CSLAYER1
 62
     3
 10
2591.000488
 20
2347.583984
 40
40.000000
 41
0.838235
  1
仕    様
 50
0.000000
 51
0.000000
  7
EASYDRAW_FONT
 72
     5
 11
2781.000488
 21
2347.583984
  0
TEXT
  8
CSLAYER1
 62
     3
 10
2591.000488
 20
2294.250732
 40
40.000000
 41
0.838235
  1
型    式
 50
0.000000
 51
0.000000
  7
EASYDRAW_FONT
 72
     5
 11
2781.000488
 21
2294.250732
  0
TEXT
  8
CSLAYER1
 62
     3
 10
2956.000488
 20
2294.250732
 40
40.000000
 41
0.817105
  1
GLSE-250-2508
 50
0.000000
 51
0.000000
  7
EASYDRAW_FONT
 72
     5
 11
3370.000488
 21
2294.250732
  0
TEXT
  8
CSLAYER1
 62
     3
 10
2591.000488
 20
2240.917480
 40
40.000000
 41
0.859091
  1
均等荷重
 50
0.000000
 51
0.000000
  7
EASYDRAW_FONT
 72
     5
 11
2717.000488
 21
2240.917480
  0
TEXT
  8
CSLAYER1
 62
     3
 10
3382.333740
 20
2240.917480
 40
40.000000
 41
0.930000
  1
ｋｇ
 50
0.000000
 51
0.000000
  7
EASYDRAW_FONT
 72
     5
 11
3444.333740
 21
2240.917480
  0
TEXT
  8
CSLAYER1
 62
     3
 10
2591.000488
 20
2134.250732
 40
40.000000
 41
0.838235
  1
テーブル高サ
 50
0.000000
 51
0.000000
  7
EASYDRAW_FONT
 72
     5
 11
2781.000488
 21
2134.250732
  0
TEXT
  8
CSLAYER1
 62
     3
 10
3382.333740
 20
2134.250732
 40
40.000000
 41
0.930000
  1
ｍｍ
 50
0.000000
 51
0.000000
  7
EASYDRAW_FONT
 72
     5
 11
3444.333740
 21
2134.250732
  0
TEXT
  8
CSLAYER1
 62
     3
 10
2591.000488
 20
2027.583740
 40
40.000000
 41
0.838235
  1
全    長
 50
0.000000
 51
0.000000
  7
EASYDRAW_FONT
 72
     5
 11
2781.000488
 21
2027.583740
  0
TEXT
  8
CSLAYER1
 62
     3
 10
3116.000488
 20
2027.583740
 40
40.000000
 41
0.881250
  1
803
 50
0.000000
 51
0.000000
  7
EASYDRAW_FONT
 72
     5
 11
3210.000488
 21
2027.583740
  0
TEXT
  8
CSLAYER1
 62
     3
 10
3052.000488
 20
1814.250366
 40
40.000000
 41
0.832500
  1
フットスイッチ
 50
0.000000
 51
0.000000
  7
EASYDRAW_FONT
 72
     5
 11
3274.000488
 21
1814.250366
  0
TEXT
  8
CSLAYER1
 62
     3
 10
2591.000488
 20
1814.250366
 40
40.000000
 41
0.859091
  1
操作方式
 50
0.000000
 51
0.000000
  7
EASYDRAW_FONT
 72
     5
 11
2717.000488
 21
1814.250366
  0
TEXT
  8
CSLAYER1
 62
     3
 10
2591.000488
 20
1547.583740
 40
40.000000
 41
0.832500
  1
自     重
 50
0.000000
 51
0.000000
  7
EASYDRAW_FONT
 72
     5
 11
2813.000488
 21
1547.583740
  0
TEXT
  8
CSLAYER1
 62
     3
 10
3106.667236
 20
1547.583740
 40
40.000000
 41
0.859091
  1
約 59
 50
0.000000
 51
0.000000
  7
EASYDRAW_FONT
 72
     5
 11
3232.667236
 21
1547.583740
  0
TEXT
  8
CSLAYER1
 62
     3
 10
2591.000488
 20
1494.250488
 40
40.000000
 41
0.832500
  1
塗  装  色
 50
0.000000
 51
0.000000
  7
EASYDRAW_FONT
 72
     5
 11
2813.000488
 21
1494.250488
  0
TEXT
  8
CSLAYER1
 62
     3
 10
3116.000488
 20
2240.917480
 40
40.000000
 41
0.881250
  1
250
 50
0.000000
 51
0.000000
  7
EASYDRAW_FONT
 72
     5
 11
3210.000488
 21
2240.917480
  0
TEXT
  8
CSLAYER1
 62
     3
 10
3068.000488
 20
2134.250732
 40
40.000000
 41
0.838235
  1
80～580
 50
0.000000
 51
0.000000
  7
EASYDRAW_FONT
 72
     5
 11
3258.000488
 21
2134.250732
  0
TEXT
  8
CSLAYER1
 62
     3
 10
3382.333740
 20
2027.583740
 40
40.000000
 41
0.930000
  1
ｍｍ
 50
0.000000
 51
0.000000
  7
EASYDRAW_FONT
 72
     5
 11
3444.333740
 21
2027.583740
  0
LINE
  8
CSLAYER1
  6
CONTINUOUS
 62
     5
 10
3457.667423
 20
1967.584033
 11
2577.667423
 21
1967.584033
  0
TEXT
  8
CSLAYER1
 62
     3
 10
2591.000488
 20
1974.250366
 40
40.000000
 41
0.838235
  1
全    幅
 50
0.000000
 51
0.000000
  7
EASYDRAW_FONT
 72
     5
 11
2781.000488
 21
1974.250366
  0
TEXT
  8
CSLAYER1
 62
     3
 10
3116.000488
 20
1974.250366
 40
40.000000
 41
0.881250
  1
300
 50
0.000000
 51
0.000000
  7
EASYDRAW_FONT
 72
     5
 11
3210.000488
 21
1974.250366
  0
TEXT
  8
CSLAYER1
 62
     3
 10
3382.333740
 20
1974.250366
 40
40.000000
 41
0.930000
  1
ｍｍ
 50
0.000000
 51
0.000000
  7
EASYDRAW_FONT
 72
     5
 11
3444.333740
 21
1974.250366
  0
LINE
  8
CSLAYER1
  6
CONTINUOUS
 62
     5
 10
3457.667423
 20
1647.584033
 11
2577.667423
 21
1647.584033
  0
TEXT
  8
CSLAYER1
 62
     3
 10
3018.962891
 20
1599.518677
 40
40.000000
 41
0.825000
  1
油圧ユニット別置型
 50
0.000000
 51
0.000000
  7
EASYDRAW_FONT
 72
     5
 11
3304.962891
 21
1599.518677
  0
LINE
  8
CSLAYER1
  6
CONTINUOUS
 62
     5
 10
3457.667423
 20
1594.250699
 11
2577.667423
 21
1594.250699
  0
TEXT
  8
CSLAYER1
 62
     3
 10
3382.333740
 20
1547.583740
 40
40.000000
 41
0.930000
  1
ｋｇ
 50
0.000000
 51
0.000000
  7
EASYDRAW_FONT
 72
     5
 11
3444.333740
 21
1547.583740
  0
LINE
  8
CSLAYER1
  6
CONTINUOUS
 62
     5
 10
3457.667423
 20
2180.917366
 11
2577.667423
 21
2180.917366
  0
TEXT
  8
CSLAYER1
 62
     3
 10
2591.000488
 20
2187.584229
 40
40.000000
 41
0.838235
  1
テーブル寸法
 50
0.000000
 51
0.000000
  7
EASYDRAW_FONT
 72
     5
 11
2781.000488
 21
2187.584229
  0
TEXT
  8
CSLAYER1
 62
     3
 10
3382.333740
 20
2187.584229
 40
40.000000
 41
0.930000
  1
ｍｍ
 50
0.000000
 51
0.000000
  7
EASYDRAW_FONT
 72
     5
 11
3444.333740
 21
2187.584229
  0
TEXT
  8
CSLAYER1
 62
     3
 10
3020.000488
 20
2187.584229
 40
40.000000
 41
0.825000
  1
800L×250W
 50
0.000000
 51
0.000000
  7
EASYDRAW_FONT
 72
     5
 11
3306.000488
 21
2187.584229
  0
LINE
  8
CSLAYER1
  6
CONTINUOUS
 62
     5
 10
3457.667423
 20
2074.250699
 11
2577.667423
 21
2074.250699
  0
TEXT
  8
CSLAYER1
 62
     3
 10
3382.333740
 20
2080.917480
 40
40.000000
 41
0.930000
  1
ｍｍ
 50
0.000000
 51
0.000000
  7
EASYDRAW_FONT
 72
     5
 11
3444.333740
 21
2080.917480
  0
TEXT
  8
CSLAYER1
 62
     3
 10
3116.000488
 20
2080.917480
 40
40.000000
 41
0.881250
  1
500
 50
0.000000
 51
0.000000
  7
EASYDRAW_FONT
 72
     5
 11
3210.000488
 21
2080.917480
  0
TEXT
  8
CSLAYER1
 62
     3
 10
2592.833008
 20
2080.917480
 40
40.000000
 41
0.846429
  1
ストローク
 50
0.000000
 51
0.000000
  7
EASYDRAW_FONT
 72
     5
 11
2750.833008
 21
2080.917480
  0
LINE
  8
CSLAYER1
  6
CONTINUOUS
 62
     5
 10
3457.667423
 20
1914.250699
 11
2577.667423
 21
1914.250699
  0
TEXT
  8
CSLAYER1
 62
     3
 10
2591.000488
 20
1920.917114
 40
40.000000
 41
0.838235
  1
全    高
 50
0.000000
 51
0.000000
  7
EASYDRAW_FONT
 72
     5
 11
2781.000488
 21
1920.917114
  0
TEXT
  8
CSLAYER1
 62
     3
 10
3116.000488
 20
1920.917114
 40
40.000000
 41
0.881250
  1
 80
 50
0.000000
 51
0.000000
  7
EASYDRAW_FONT
 72
     5
 11
3210.000488
 21
1920.917114
  0
TEXT
  8
CSLAYER1
 62
     3
 10
3382.333740
 20
1920.917114
 40
40.000000
 41
0.930000
  1
ｍｍ
 50
0.000000
 51
0.000000
  7
EASYDRAW_FONT
 72
     5
 11
3444.333740
 21
1920.917114
  0
LINE
  8
CSLAYER1
  6
CONTINUOUS
 62
     5
 10
3457.667423
 20
1860.917366
 11
2577.667423
 21
1860.917366
  0
TEXT
  8
CSLAYER1
 62
     3
 10
2591.000488
 20
1867.583740
 40
40.000000
 41
0.846429
  1
リフト方式
 50
0.000000
 51
0.000000
  7
EASYDRAW_FONT
 72
     5
 11
2749.000488
 21
1867.583740
  0
TEXT
  8
CSLAYER1
 62
     3
 10
3084.000488
 20
1867.583740
 40
40.000000
 41
0.846429
  1
電動油圧式
 50
0.000000
 51
0.000000
  7
EASYDRAW_FONT
 72
     5
 11
3242.000488
 21
1867.583740
  0
LINE
  8
CSLAYER1
  6
CONTINUOUS
 62
     5
 10
3457.667423
 20
1700.917366
 11
2577.667423
 21
1700.917366
  0
TEXT
  8
CSLAYER1
 62
     3
 10
3084.000488
 20
1707.583618
 40
40.000000
 41
0.846429
  1
長さ 4m
 50
0.000000
 51
0.000000
  7
EASYDRAW_FONT
 72
     5
 11
3242.000488
 21
1707.583618
  0
TEXT
  8
CSLAYER1
 62
     3
 10
2591.000488
 20
1707.583618
 40
40.000000
 41
0.846429
  1
電源コード
 50
0.000000
 51
0.000000
  7
EASYDRAW_FONT
 72
     5
 11
2749.000488
 21
1707.583618
  0
TEXT
  8
CSLAYER1
 62
     3
 10
2591.000488
 20
1654.250366
 40
40.000000
 41
0.859091
  1
上昇時間
 50
0.000000
 51
0.000000
  7
EASYDRAW_FONT
 72
     5
 11
2717.000488
 21
1654.250366
  0
TEXT
  8
CSLAYER1
 62
     3
 10
2890.000508
 20
1654.250366
 40
40.000000
 41
0.660484
  1
約10sec/50Hz，8sec/60Hz
 50
0.000000
 51
0.000000
  7
EASYDRAW_FONT
 72
     5
 11
3436.000468
 21
1654.250366
  0
LINE
  8
CSLAYER1
  6
CONTINUOUS
 62
     5
 10
3457.667423
 20
1754.250699
 11
2577.667423
 21
1754.250699
  0
TEXT
  8
CSLAYER1
 62
     3
 10
2591.000488
 20
1760.917114
 40
40.000000
 41
0.859091
  1
モーター
 50
0.000000
 51
0.000000
  7
EASYDRAW_FONT
 72
     5
 11
2717.000488
 21
1760.917114
  0
TEXT
  8
CSLAYER1
 62
     3
 10
2924.000488
 20
1760.917114
 40
40.000000
 41
0.814773
  1
AC200V，三相，0.4kw
 50
0.000000
 51
0.000000
  7
EASYDRAW_FONT
 72
     5
 11
3402.000488
 21
1760.917114
  0
LINE
  8
CSLAYER1
  6
CONTINUOUS
 62
     5
 10
2881.667423
 20
1487.584029
 11
2881.667423
 21
1594.250696
  0
LINE
  8
CSLAYER1
  6
CONTINUOUS
 62
     5
 10
2881.667423
 20
1647.584033
 11
2881.667423
 21
2340.917366
  0
TEXT
  8
CSLAYER1
 62
     7
 10
495.143921
 20
2337.303711
 40
34.000000
 41
0.778846
  1
電動式油圧ユニット
 50
0.000000
 51
0.000000
  7
EASYDRAW_FONT
 72
     5
 11
724.643921
 21
2337.303711
  0
LINE
  8
CSLAYER1
  6
CONTINUOUS
 62
     5
 10
259.094112
 20
2390.917366
 11
977.285893
 21
2390.917366
  0
LINE
  8
CSLAYER1
  6
CONTINUOUS
 62
     5
 10
977.285893
 20
2390.917366
 11
977.285893
 21
1689.783095
  0
LINE
  8
CSLAYER1
  6
CONTINUOUS
 62
     5
 10
259.094112
 20
1689.783095
 11
259.094112
 21
2390.917366
  0
TEXT
  8
CSLAYER1
 62
     3
 10
396.151573
 20
2230.908307
 40
33.963734
 41
1.050000
  1
278
 50
30.000000
 51
0.000000
  7
EASYDRAW_FONT
 72
     5
 11
478.509248
 21
2278.457533
  0
TEXT
  8
CSLAYER1
 62
     3
 10
542.227568
 20
2265.000990
 40
33.963734
 41
1.050000
  1
415
 50
-30.000000
 51
0.000000
  7
EASYDRAW_FONT
 72
     5
 11
624.585243
 21
2217.451764
  0
TEXT
  8
CSLAYER1
 62
     3
 10
331.839167
 20
2098.359466
 40
33.963734
 41
1.050000
  1
275
 50
90.000000
 51
0.000000
  7
EASYDRAW_FONT
 72
     5
 11
331.839167
 21
2193.457917
  0
LINE
  8
CSLAYER1
  6
CONTINUOUS
 62
     5
 10
342.681578
 20
2190.914779
 11
380.041685
 21
2169.344912
  0
LINE
  8
CSLAYER1
  6
CONTINUOUS
 62
     5
 10
383.438058
 20
2214.445544
 11
383.438058
 21
2171.305809
  0
LINE
  8
CSLAYER1
  6
CONTINUOUS
 62
     5
 10
641.562432
 20
2202.680162
 11
641.562432
 21
2159.540427
  0
LINE
  8
CSLAYER1
  6
CONTINUOUS
 62
     5
 10
383.438058
 20
2206.601956
 11
502.311125
 21
2275.233353
  0
LINE
  8
CSLAYER1
  6
CONTINUOUS
 62
     5
 10
383.438058
 20
2206.601956
 11
404.651262
 21
2227.815159
  0
LINE
  8
CSLAYER1
  6
CONTINUOUS
 62
     5
 10
383.438058
 20
2206.601956
 11
412.415833
 21
2214.366527
  0
LINE
  8
CSLAYER1
  6
CONTINUOUS
 62
     5
 10
502.311125
 20
2275.233353
 11
481.097921
 21
2254.020150
  0
LINE
  8
CSLAYER1
  6
CONTINUOUS
 62
     5
 10
502.311125
 20
2275.233353
 11
473.333350
 21
2267.468782
  0
LINE
  8
CSLAYER1
  6
CONTINUOUS
 62
     5
 10
502.311125
 20
2275.233353
 11
641.562432
 21
2194.836574
  0
LINE
  8
CSLAYER1
  6
CONTINUOUS
 62
     5
 10
502.311125
 20
2275.233353
 11
531.288900
 21
2267.468782
  0
LINE
  8
CSLAYER1
  6
CONTINUOUS
 62
     5
 10
502.311125
 20
2275.233353
 11
523.524328
 21
2254.020150
  0
LINE
  8
CSLAYER1
  6
CONTINUOUS
 62
     5
 10
641.562432
 20
2194.836574
 11
612.584657
 21
2202.601145
  0
LINE
  8
CSLAYER1
  6
CONTINUOUS
 62
     5
 10
641.562432
 20
2194.836574
 11
620.349228
 21
2216.049777
  0
LINE
  8
CSLAYER1
  6
CONTINUOUS
 62
     5
 10
502.311125
 20
2283.076941
 11
502.311125
 21
2239.937206
  0
LINE
  8
CSLAYER1
  6
CONTINUOUS
 62
     5
 10
349.474325
 20
2186.992985
 11
349.474325
 21
2088.948132
  0
LINE
  8
CSLAYER1
  6
CONTINUOUS
 62
     5
 10
349.474325
 20
2186.992985
 11
341.709754
 21
2158.015211
  0
LINE
  8
CSLAYER1
  6
CONTINUOUS
 62
     5
 10
349.474325
 20
2186.992985
 11
357.238896
 21
2158.015211
  0
LINE
  8
CSLAYER1
  6
CONTINUOUS
 62
     5
 10
349.474325
 20
2088.948132
 11
341.709754
 21
2117.925907
  0
LINE
  8
CSLAYER1
  6
CONTINUOUS
 62
     5
 10
349.474325
 20
2088.948132
 11
357.238896
 21
2117.925907
  0
TEXT
  8
CSLAYER1
 62
     3
 10
758.076763
 20
2171.492254
 40
33.963734
 41
1.028571
  1
高圧ホース
 50
0.000000
 51
0.000000
  7
EASYDRAW_FONT
 72
     5
 11
921.102680
 21
2171.492254
  0
TEXT
  8
CSLAYER1
 62
     3
 10
313.374371
 20
1962.180120
 40
33.963734
 41
1.028571
  1
電源コード
 50
0.000000
 51
0.000000
  7
EASYDRAW_FONT
 72
     5
 11
476.400288
 21
1962.180120
  0
LINE
  8
CSLAYER1
  6
CONTINUOUS
 62
     5
 10
672.768737
 20
2037.447504
 11
746.153252
 21
2164.553213
  0
LINE
  8
CSLAYER1
  6
CONTINUOUS
 62
     5
 10
672.768737
 20
2037.447504
 11
680.533308
 21
2066.425279
  0
LINE
  8
CSLAYER1
  6
CONTINUOUS
 62
     5
 10
672.768737
 20
2037.447504
 11
693.981940
 21
2058.660708
  0
LINE
  8
CSLAYER1
  6
CONTINUOUS
 62
     5
 10
933.760547
 20
2164.553213
 11
746.153252
 21
2164.553213
  0
LINE
  8
CSLAYER1
  6
CONTINUOUS
 62
     5
 10
315.531651
 20
1955.863798
 11
480.212758
 21
1955.863798
  0
LINE
  8
CSLAYER1
  6
CONTINUOUS
 62
     3
 10
522.689365
 20
1988.942382
 11
557.672010
 21
2009.139622
  0
LINE
  8
CSLAYER1
  6
CONTINUOUS
 62
     3
 10
383.438058
 20
2069.339162
 11
391.928992
 21
2064.436919
  0
LINE
  8
CSLAYER1
  6
CONTINUOUS
 62
     3
 10
522.689365
 20
2086.987235
 11
522.689365
 21
1988.942382
  0
LINE
  8
CSLAYER1
  6
CONTINUOUS
 62
     3
 10
522.689365
 20
2086.987235
 11
641.562432
 21
2155.618632
  0
LINE
  8
CSLAYER1
  6
CONTINUOUS
 62
     3
 10
502.311125
 20
2236.015412
 11
641.562432
 21
2155.618632
  0
LINE
  8
CSLAYER1
  6
CONTINUOUS
 62
     3
 10
522.689365
 20
2008.551353
 11
540.690144
 21
2018.944107
  0
LINE
  8
CSLAYER1
  6
CONTINUOUS
 62
     3
 10
606.212279
 20
2097.592170
 11
641.562432
 21
2077.182750
  0
LINE
  8
CSLAYER1
  6
CONTINUOUS
 62
     3
 10
514.198432
 20
1993.844625
 11
522.689365
 21
1988.942382
  0
LINE
  8
CSLAYER1
  6
CONTINUOUS
 62
     3
 10
604.202325
 20
2099.144797
 11
602.974314
 21
2099.734401
  0
LINE
  8
CSLAYER1
  6
CONTINUOUS
 62
     3
 10
602.974314
 20
2099.734401
 11
601.652255
 21
2100.140434
  0
LINE
  8
CSLAYER1
  6
CONTINUOUS
 62
     3
 10
601.652255
 20
2100.140434
 11
600.246209
 21
2100.359806
  0
LINE
  8
CSLAYER1
  6
CONTINUOUS
 62
     3
 10
600.246209
 20
2100.359806
 11
598.766879
 21
2100.390848
  0
LINE
  8
CSLAYER1
  6
CONTINUOUS
 62
     3
 10
598.766879
 20
2100.390848
 11
597.225521
 21
2100.233324
  0
LINE
  8
CSLAYER1
  6
CONTINUOUS
 62
     3
 10
597.225521
 20
2100.233324
 11
595.633868
 21
2099.888432
  0
LINE
  8
CSLAYER1
  6
CONTINUOUS
 62
     3
 10
595.633868
 20
2099.888432
 11
594.004032
 21
2099.358797
  0
LINE
  8
CSLAYER1
  6
CONTINUOUS
 62
     3
 10
594.004032
 20
2099.358797
 11
592.348417
 21
2098.648450
  0
LINE
  8
CSLAYER1
  6
CONTINUOUS
 62
     3
 10
592.348417
 20
2098.648450
 11
590.679623
 21
2097.762797
  0
LINE
  8
CSLAYER1
  6
CONTINUOUS
 62
     3
 10
590.679623
 20
2097.762797
 11
589.010352
 21
2096.708579
  0
LINE
  8
CSLAYER1
  6
CONTINUOUS
 62
     3
 10
589.010352
 20
2096.708579
 11
587.353307
 21
2095.493819
  0
LINE
  8
CSLAYER1
  6
CONTINUOUS
 62
     3
 10
587.353307
 20
2095.493819
 11
585.721100
 21
2094.127761
  0
LINE
  8
CSLAYER1
  6
CONTINUOUS
 62
     3
 10
585.721100
 20
2094.127761
 11
584.126152
 21
2092.620803
  0
LINE
  8
CSLAYER1
  6
CONTINUOUS
 62
     3
 10
584.126152
 20
2092.620803
 11
582.580602
 21
2090.984412
  0
LINE
  8
CSLAYER1
  6
CONTINUOUS
 62
     3
 10
582.580602
 20
2090.984412
 11
581.096212
 21
2089.231045
  0
LINE
  8
CSLAYER1
  6
CONTINUOUS
 62
     3
 10
581.096212
 20
2089.231045
 11
579.684281
 21
2087.374043
  0
LINE
  8
CSLAYER1
  6
CONTINUOUS
 62
     3
 10
579.684281
 20
2087.374043
 11
578.355552
 21
2085.427540
  0
LINE
  8
CSLAYER1
  6
CONTINUOUS
 62
     3
 10
578.355552
 20
2085.427540
 11
577.120139
 21
2083.406351
  0
LINE
  8
CSLAYER1
  6
CONTINUOUS
 62
     3
 10
577.120139
 20
2083.406351
 11
575.987445
 21
2081.325858
  0
LINE
  8
CSLAYER1
  6
CONTINUOUS
 62
     3
 10
575.987445
 20
2081.325858
 11
574.966088
 21
2079.201894
  0
LINE
  8
CSLAYER1
  6
CONTINUOUS
 62
     3
 10
574.966088
 20
2079.201894
 11
574.063844
 21
2077.050624
  0
LINE
  8
CSLAYER1
  6
CONTINUOUS
 62
     3
 10
574.063844
 20
2077.050624
 11
573.287577
 21
2074.888421
  0
LINE
  8
CSLAYER1
  6
CONTINUOUS
 62
     3
 10
573.287577
 20
2074.888421
 11
572.643197
 21
2072.731741
  0
LINE
  8
CSLAYER1
  6
CONTINUOUS
 62
     3
 10
572.643197
 20
2072.731741
 11
572.135607
 21
2070.596996
  0
LINE
  8
CSLAYER1
  6
CONTINUOUS
 62
     3
 10
572.135607
 20
2070.596996
 11
571.768670
 21
2068.500434
  0
LINE
  8
CSLAYER1
  6
CONTINUOUS
 62
     3
 10
571.768670
 20
2068.500434
 11
571.545179
 21
2066.458011
  0
LINE
  8
CSLAYER1
  6
CONTINUOUS
 62
     3
 10
571.545179
 20
2066.458011
 11
571.466835
 21
2064.485271
  0
LINE
  8
CSLAYER1
  6
CONTINUOUS
 62
     3
 10
571.466835
 20
2064.485271
 11
571.534233
 21
2062.597227
  0
LINE
  8
CSLAYER1
  6
CONTINUOUS
 62
     3
 10
571.534233
 20
2062.597227
 11
571.746862
 21
2060.808249
  0
LINE
  8
CSLAYER1
  6
CONTINUOUS
 62
     3
 10
571.746862
 20
2060.808249
 11
572.103103
 21
2059.131952
  0
LINE
  8
CSLAYER1
  6
CONTINUOUS
 62
     3
 10
572.103103
 20
2059.131952
 11
572.600245
 21
2057.581093
  0
LINE
  8
CSLAYER1
  6
CONTINUOUS
 62
     3
 10
572.600245
 20
2057.581093
 11
573.234503
 21
2056.167477
  0
LINE
  8
CSLAYER1
  6
CONTINUOUS
 62
     3
 10
573.234503
 20
2056.167477
 11
574.001052
 21
2054.901860
  0
LINE
  8
CSLAYER1
  6
CONTINUOUS
 62
     3
 10
574.001052
 20
2054.901860
 11
574.894056
 21
2053.793875
  0
LINE
  8
CSLAYER1
  6
CONTINUOUS
 62
     3
 10
575.906721
 20
2052.851955
 11
577.031338
 21
2052.083268
  0
LINE
  8
CSLAYER1
  6
CONTINUOUS
 62
     3
 10
577.031338
 20
2052.083268
 11
578.259349
 21
2051.493664
  0
LINE
  8
CSLAYER1
  6
CONTINUOUS
 62
     3
 10
578.259349
 20
2051.493664
 11
579.581408
 21
2051.087631
  0
LINE
  8
CSLAYER1
  6
CONTINUOUS
 62
     3
 10
579.581408
 20
2051.087631
 11
580.987454
 21
2050.868259
  0
LINE
  8
CSLAYER1
  6
CONTINUOUS
 62
     3
 10
580.987454
 20
2050.868259
 11
582.466784
 21
2050.837216
  0
LINE
  8
CSLAYER1
  6
CONTINUOUS
 62
     3
 10
582.466784
 20
2050.837216
 11
584.008142
 21
2050.994741
  0
LINE
  8
CSLAYER1
  6
CONTINUOUS
 62
     3
 10
584.008142
 20
2050.994741
 11
585.599795
 21
2051.339633
  0
LINE
  8
CSLAYER1
  6
CONTINUOUS
 62
     3
 10
585.599795
 20
2051.339633
 11
587.229632
 21
2051.869268
  0
LINE
  8
CSLAYER1
  6
CONTINUOUS
 62
     3
 10
587.229632
 20
2051.869268
 11
588.885246
 21
2052.579615
  0
LINE
  8
CSLAYER1
  6
CONTINUOUS
 62
     3
 10
588.885246
 20
2052.579615
 11
590.554040
 21
2053.465268
  0
LINE
  8
CSLAYER1
  6
CONTINUOUS
 62
     3
 10
590.554040
 20
2053.465268
 11
592.223311
 21
2054.519486
  0
LINE
  8
CSLAYER1
  6
CONTINUOUS
 62
     3
 10
592.223311
 20
2054.519486
 11
593.880356
 21
2055.734246
  0
LINE
  8
CSLAYER1
  6
CONTINUOUS
 62
     3
 10
593.880356
 20
2055.734246
 11
595.512563
 21
2057.100304
  0
LINE
  8
CSLAYER1
  6
CONTINUOUS
 62
     3
 10
595.512563
 20
2057.100304
 11
597.107511
 21
2058.607262
  0
LINE
  8
CSLAYER1
  6
CONTINUOUS
 62
     3
 10
597.107511
 20
2058.607262
 11
598.653061
 21
2060.243652
  0
LINE
  8
CSLAYER1
  6
CONTINUOUS
 62
     3
 10
598.653061
 20
2060.243652
 11
600.137451
 21
2061.997020
  0
LINE
  8
CSLAYER1
  6
CONTINUOUS
 62
     3
 10
600.137451
 20
2061.997020
 11
601.549383
 21
2063.854022
  0
LINE
  8
CSLAYER1
  6
CONTINUOUS
 62
     3
 10
601.549383
 20
2063.854022
 11
602.878111
 21
2065.800524
  0
LINE
  8
CSLAYER1
  6
CONTINUOUS
 62
     3
 10
602.878111
 20
2065.800524
 11
604.113524
 21
2067.821714
  0
LINE
  8
CSLAYER1
  6
CONTINUOUS
 62
     3
 10
604.113524
 20
2067.821714
 11
605.246219
 21
2069.902207
  0
LINE
  8
CSLAYER1
  6
CONTINUOUS
 62
     3
 10
605.246219
 20
2069.902207
 11
606.267575
 21
2072.026171
  0
LINE
  8
CSLAYER1
  6
CONTINUOUS
 62
     3
 10
606.267575
 20
2072.026171
 11
607.169820
 21
2074.177440
  0
LINE
  8
CSLAYER1
  6
CONTINUOUS
 62
     3
 10
607.169820
 20
2074.177440
 11
607.946086
 21
2076.339643
  0
LINE
  8
CSLAYER1
  6
CONTINUOUS
 62
     3
 10
607.946086
 20
2076.339643
 11
608.590466
 21
2078.496324
  0
LINE
  8
CSLAYER1
  6
CONTINUOUS
 62
     3
 10
608.590466
 20
2078.496324
 11
609.098057
 21
2080.631069
  0
LINE
  8
CSLAYER1
  6
CONTINUOUS
 62
     3
 10
609.098057
 20
2080.631069
 11
609.464993
 21
2082.727631
  0
LINE
  8
CSLAYER1
  6
CONTINUOUS
 62
     3
 10
609.464993
 20
2082.727631
 11
609.688484
 21
2084.770054
  0
LINE
  8
CSLAYER1
  6
CONTINUOUS
 62
     3
 10
609.688484
 20
2084.770054
 11
609.766829
 21
2086.742794
  0
LINE
  8
CSLAYER1
  6
CONTINUOUS
 62
     3
 10
609.766829
 20
2086.742794
 11
609.699430
 21
2088.630838
  0
LINE
  8
CSLAYER1
  6
CONTINUOUS
 62
     3
 10
609.699430
 20
2088.630838
 11
609.486801
 21
2090.419816
  0
LINE
  8
CSLAYER1
  6
CONTINUOUS
 62
     3
 10
609.486801
 20
2090.419816
 11
609.130560
 21
2092.096113
  0
LINE
  8
CSLAYER1
  6
CONTINUOUS
 62
     3
 10
609.130560
 20
2092.096113
 11
608.633419
 21
2093.646971
  0
LINE
  8
CSLAYER1
  6
CONTINUOUS
 62
     3
 10
608.633419
 20
2093.646971
 11
607.999160
 21
2095.060588
  0
LINE
  8
CSLAYER1
  6
CONTINUOUS
 62
     3
 10
607.999160
 20
2095.060588
 11
607.232611
 21
2096.326205
  0
LINE
  8
CSLAYER1
  6
CONTINUOUS
 62
     3
 10
607.232611
 20
2096.326205
 11
606.339607
 21
2097.434190
  0
LINE
  8
CSLAYER1
  6
CONTINUOUS
 62
     3
 10
606.339607
 20
2097.434190
 11
605.326942
 21
2098.376110
  0
LINE
  8
CSLAYER1
  6
CONTINUOUS
 62
     3
 10
605.326942
 20
2098.376110
 11
604.202325
 21
2099.144797
  0
LINE
  8
CSLAYER1
  6
CONTINUOUS
 62
     3
 10
522.689365
 20
2083.457621
 11
577.031338
 21
2052.083268
  0
LINE
  8
CSLAYER1
  6
CONTINUOUS
 62
     3
 10
573.974602
 20
2116.596781
 11
604.202325
 21
2099.144797
  0
LINE
  8
CSLAYER1
  6
CONTINUOUS
 62
     3
 10
391.928992
 20
2064.436919
 11
408.910858
 21
2074.241405
  0
LINE
  8
CSLAYER1
  6
CONTINUOUS
 62
     3
 10
383.438058
 20
2069.339162
 11
400.419925
 21
2079.143647
  0
LINE
  8
CSLAYER1
  6
CONTINUOUS
 62
     3
 10
595.711392
 20
2084.438069
 11
595.250887
 21
2084.659171
  0
LINE
  8
CSLAYER1
  6
CONTINUOUS
 62
     3
 10
595.250887
 20
2084.659171
 11
594.755115
 21
2084.811433
  0
LINE
  8
CSLAYER1
  6
CONTINUOUS
 62
     3
 10
594.755115
 20
2084.811433
 11
594.227848
 21
2084.893698
  0
LINE
  8
CSLAYER1
  6
CONTINUOUS
 62
     3
 10
594.227848
 20
2084.893698
 11
593.673099
 21
2084.905338
  0
LINE
  8
CSLAYER1
  6
CONTINUOUS
 62
     3
 10
593.673099
 20
2084.905338
 11
593.095090
 21
2084.846267
  0
LINE
  8
CSLAYER1
  6
CONTINUOUS
 62
     3
 10
593.095090
 20
2084.846267
 11
592.498220
 21
2084.716932
  0
LINE
  8
CSLAYER1
  6
CONTINUOUS
 62
     3
 10
592.498220
 20
2084.716932
 11
591.887032
 21
2084.518319
  0
LINE
  8
CSLAYER1
  6
CONTINUOUS
 62
     3
 10
591.887032
 20
2084.518319
 11
591.266176
 21
2084.251939
  0
LINE
  8
CSLAYER1
  6
CONTINUOUS
 62
     3
 10
591.266176
 20
2084.251939
 11
590.640379
 21
2083.919819
  0
LINE
  8
CSLAYER1
  6
CONTINUOUS
 62
     3
 10
590.640379
 20
2083.919819
 11
590.014402
 21
2083.524487
  0
LINE
  8
CSLAYER1
  6
CONTINUOUS
 62
     3
 10
590.014402
 20
2083.524487
 11
589.393010
 21
2083.068952
  0
LINE
  8
CSLAYER1
  6
CONTINUOUS
 62
     3
 10
589.393010
 20
2083.068952
 11
588.780932
 21
2082.556681
  0
LINE
  8
CSLAYER1
  6
CONTINUOUS
 62
     3
 10
588.780932
 20
2082.556681
 11
588.182827
 21
2081.991571
  0
LINE
  8
CSLAYER1
  6
CONTINUOUS
 62
     3
 10
588.182827
 20
2081.991571
 11
587.603245
 21
2081.377925
  0
LINE
  8
CSLAYER1
  6
CONTINUOUS
 62
     3
 10
587.603245
 20
2081.377925
 11
587.046599
 21
2080.720412
  0
LINE
  8
CSLAYER1
  6
CONTINUOUS
 62
     3
 10
587.046599
 20
2080.720412
 11
586.517125
 21
2080.024036
  0
LINE
  8
CSLAYER1
  6
CONTINUOUS
 62
     3
 10
586.517125
 20
2080.024036
 11
586.018852
 21
2079.294098
  0
LINE
  8
CSLAYER1
  6
CONTINUOUS
 62
     3
 10
586.018852
 20
2079.294098
 11
585.555572
 21
2078.536152
  0
LINE
  8
CSLAYER1
  6
CONTINUOUS
 62
     3
 10
585.555572
 20
2078.536152
 11
585.130811
 21
2077.755967
  0
LINE
  8
CSLAYER1
  6
CONTINUOUS
 62
     3
 10
585.130811
 20
2077.755967
 11
584.747803
 21
2076.959481
  0
LINE
  8
CSLAYER1
  6
CONTINUOUS
 62
     3
 10
584.747803
 20
2076.959481
 11
584.409461
 21
2076.152754
  0
LINE
  8
CSLAYER1
  6
CONTINUOUS
 62
     3
 10
584.409461
 20
2076.152754
 11
584.118361
 21
2075.341928
  0
LINE
  8
CSLAYER1
  6
CONTINUOUS
 62
     3
 10
584.118361
 20
2075.341928
 11
583.876719
 21
2074.533173
  0
LINE
  8
CSLAYER1
  6
CONTINUOUS
 62
     3
 10
583.876719
 20
2074.533173
 11
583.686372
 21
2073.732644
  0
LINE
  8
CSLAYER1
  6
CONTINUOUS
 62
     3
 10
583.686372
 20
2073.732644
 11
583.548771
 21
2072.946433
  0
LINE
  8
CSLAYER1
  6
CONTINUOUS
 62
     3
 10
583.548771
 20
2072.946433
 11
583.464962
 21
2072.180524
  0
LINE
  8
CSLAYER1
  6
CONTINUOUS
 62
     3
 10
583.464962
 20
2072.180524
 11
583.435583
 21
2071.440747
  0
LINE
  8
CSLAYER1
  6
CONTINUOUS
 62
     3
 10
583.435583
 20
2071.440747
 11
583.460857
 21
2070.732730
  0
LINE
  8
CSLAYER1
  6
CONTINUOUS
 62
     3
 10
583.460857
 20
2070.732730
 11
583.540593
 21
2070.061864
  0
LINE
  8
CSLAYER1
  6
CONTINUOUS
 62
     3
 10
583.540593
 20
2070.061864
 11
583.674183
 21
2069.433252
  0
LINE
  8
CSLAYER1
  6
CONTINUOUS
 62
     3
 10
583.674183
 20
2069.433252
 11
583.860611
 21
2068.851680
  0
LINE
  8
CSLAYER1
  6
CONTINUOUS
 62
     3
 10
583.860611
 20
2068.851680
 11
584.098458
 21
2068.321574
  0
LINE
  8
CSLAYER1
  6
CONTINUOUS
 62
     3
 10
584.098458
 20
2068.321574
 11
584.385914
 21
2067.846968
  0
LINE
  8
CSLAYER1
  6
CONTINUOUS
 62
     3
 10
584.385914
 20
2067.846968
 11
584.720791
 21
2067.431473
  0
LINE
  8
CSLAYER1
  6
CONTINUOUS
 62
     3
 10
584.720791
 20
2067.431473
 11
585.100540
 21
2067.078253
  0
LINE
  8
CSLAYER1
  6
CONTINUOUS
 62
     3
 10
585.100540
 20
2067.078253
 11
585.522272
 21
2066.789996
  0
LINE
  8
CSLAYER1
  6
CONTINUOUS
 62
     3
 10
585.522272
 20
2066.789996
 11
585.982776
 21
2066.568894
  0
LINE
  8
CSLAYER1
  6
CONTINUOUS
 62
     3
 10
585.982776
 20
2066.568894
 11
586.478548
 21
2066.416632
  0
LINE
  8
CSLAYER1
  6
CONTINUOUS
 62
     3
 10
586.478548
 20
2066.416632
 11
587.005815
 21
2066.334367
  0
LINE
  8
CSLAYER1
  6
CONTINUOUS
 62
     3
 10
587.005815
 20
2066.334367
 11
587.560564
 21
2066.322726
  0
LINE
  8
CSLAYER1
  6
CONTINUOUS
 62
     3
 10
587.560564
 20
2066.322726
 11
588.138573
 21
2066.381798
  0
LINE
  8
CSLAYER1
  6
CONTINUOUS
 62
     3
 10
588.138573
 20
2066.381798
 11
588.735443
 21
2066.511133
  0
LINE
  8
CSLAYER1
  6
CONTINUOUS
 62
     3
 10
588.735443
 20
2066.511133
 11
589.346632
 21
2066.709746
  0
LINE
  8
CSLAYER1
  6
CONTINUOUS
 62
     3
 10
589.346632
 20
2066.709746
 11
589.967487
 21
2066.976126
  0
LINE
  8
CSLAYER1
  6
CONTINUOUS
 62
     3
 10
589.967487
 20
2066.976126
 11
590.593285
 21
2067.308246
  0
LINE
  8
CSLAYER1
  6
CONTINUOUS
 62
     3
 10
590.593285
 20
2067.308246
 11
591.219261
 21
2067.703577
  0
LINE
  8
CSLAYER1
  6
CONTINUOUS
 62
     3
 10
591.219261
 20
2067.703577
 11
591.840653
 21
2068.159113
  0
LINE
  8
CSLAYER1
  6
CONTINUOUS
 62
     3
 10
591.840653
 20
2068.159113
 11
592.452731
 21
2068.671384
  0
LINE
  8
CSLAYER1
  6
CONTINUOUS
 62
     3
 10
592.452731
 20
2068.671384
 11
593.050836
 21
2069.236494
  0
LINE
  8
CSLAYER1
  6
CONTINUOUS
 62
     3
 10
593.050836
 20
2069.236494
 11
593.630418
 21
2069.850140
  0
LINE
  8
CSLAYER1
  6
CONTINUOUS
 62
     3
 10
593.630418
 20
2069.850140
 11
594.187064
 21
2070.507653
  0
LINE
  8
CSLAYER1
  6
CONTINUOUS
 62
     3
 10
594.187064
 20
2070.507653
 11
594.716538
 21
2071.204029
  0
LINE
  8
CSLAYER1
  6
CONTINUOUS
 62
     3
 10
594.716538
 20
2071.204029
 11
595.214811
 21
2071.933967
  0
LINE
  8
CSLAYER1
  6
CONTINUOUS
 62
     3
 10
595.214811
 20
2071.933967
 11
595.678091
 21
2072.691913
  0
LINE
  8
CSLAYER1
  6
CONTINUOUS
 62
     3
 10
595.678091
 20
2072.691913
 11
596.102852
 21
2073.472098
  0
LINE
  8
CSLAYER1
  6
CONTINUOUS
 62
     3
 10
596.102852
 20
2073.472098
 11
596.485860
 21
2074.268584
  0
LINE
  8
CSLAYER1
  6
CONTINUOUS
 62
     3
 10
596.485860
 20
2074.268584
 11
596.824202
 21
2075.075310
  0
LINE
  8
CSLAYER1
  6
CONTINUOUS
 62
     3
 10
596.824202
 20
2075.075310
 11
597.115302
 21
2075.886137
  0
LINE
  8
CSLAYER1
  6
CONTINUOUS
 62
     3
 10
597.115302
 20
2075.886137
 11
597.356945
 21
2076.694892
  0
LINE
  8
CSLAYER1
  6
CONTINUOUS
 62
     3
 10
597.356945
 20
2076.694892
 11
597.547291
 21
2077.495421
  0
LINE
  8
CSLAYER1
  6
CONTINUOUS
 62
     3
 10
597.547291
 20
2077.495421
 11
597.684892
 21
2078.281632
  0
LINE
  8
CSLAYER1
  6
CONTINUOUS
 62
     3
 10
597.684892
 20
2078.281632
 11
597.768701
 21
2079.047540
  0
LINE
  8
CSLAYER1
  6
CONTINUOUS
 62
     3
 10
597.768701
 20
2079.047540
 11
597.798080
 21
2079.787318
  0
LINE
  8
CSLAYER1
  6
CONTINUOUS
 62
     3
 10
597.798080
 20
2079.787318
 11
597.772806
 21
2080.495335
  0
LINE
  8
CSLAYER1
  6
CONTINUOUS
 62
     3
 10
597.772806
 20
2080.495335
 11
597.693070
 21
2081.166201
  0
LINE
  8
CSLAYER1
  6
CONTINUOUS
 62
     3
 10
597.693070
 20
2081.166201
 11
597.559480
 21
2081.794813
  0
LINE
  8
CSLAYER1
  6
CONTINUOUS
 62
     3
 10
597.559480
 20
2081.794813
 11
597.373052
 21
2082.376385
  0
LINE
  8
CSLAYER1
  6
CONTINUOUS
 62
     3
 10
597.373052
 20
2082.376385
 11
597.135205
 21
2082.906491
  0
LINE
  8
CSLAYER1
  6
CONTINUOUS
 62
     3
 10
597.135205
 20
2082.906491
 11
596.847749
 21
2083.381097
  0
LINE
  8
CSLAYER1
  6
CONTINUOUS
 62
     3
 10
596.847749
 20
2083.381097
 11
596.512872
 21
2083.796592
  0
LINE
  8
CSLAYER1
  6
CONTINUOUS
 62
     3
 10
596.512872
 20
2083.796592
 11
596.133123
 21
2084.149812
  0
LINE
  8
CSLAYER1
  6
CONTINUOUS
 62
     3
 10
596.133123
 20
2084.149812
 11
595.711392
 21
2084.438069
  0
LINE
  8
CSLAYER1
  6
CONTINUOUS
 62
     3
 10
585.522272
 20
2123.263831
 11
641.562432
 21
2090.909029
  0
LINE
  8
CSLAYER1
  6
CONTINUOUS
 62
     3
 10
514.198432
 20
1993.844625
 11
522.689365
 21
1998.746868
  0
LINE
  8
CSLAYER1
  6
CONTINUOUS
 62
     3
 10
605.250693
 20
2069.910425
 11
861.197266
 21
1922.139602
  0
LINE
  8
CSLAYER1
  6
CONTINUOUS
 62
     3
 10
522.689365
 20
2034.043015
 11
671.421663
 21
1948.172382
  0
LINE
  8
CSLAYER1
  6
CONTINUOUS
 62
     3
 10
522.689365
 20
2029.336862
 11
649.159391
 21
1956.319358
  0
LINE
  8
CSLAYER1
  6
CONTINUOUS
 62
     3
 10
544.765792
 20
2021.297184
 11
612.858544
 21
2060.610553
  0
LINE
  8
CSLAYER1
  6
CONTINUOUS
 62
     3
 10
561.747658
 20
2011.492699
 11
629.840410
 21
2050.806067
  0
LINE
  8
CSLAYER1
  6
CONTINUOUS
 62
     3
 10
617.108544
 20
2063.064291
 11
641.562432
 21
2077.182750
  0
LINE
  8
CSLAYER1
  6
CONTINUOUS
 62
     3
 10
634.090410
 20
2053.259806
 11
641.562432
 21
2057.573780
  0
LINE
  8
CSLAYER1
  6
CONTINUOUS
 62
     3
 10
684.327882
 20
1922.288541
 11
684.108170
 21
1925.174909
  0
LINE
  8
CSLAYER1
  6
CONTINUOUS
 62
     3
 10
684.108170
 20
1925.174909
 11
683.450707
 21
1928.039310
  0
LINE
  8
CSLAYER1
  6
CONTINUOUS
 62
     3
 10
683.450707
 20
1928.039310
 11
682.360495
 21
1930.859943
  0
LINE
  8
CSLAYER1
  6
CONTINUOUS
 62
     3
 10
682.360495
 20
1930.859943
 11
680.845834
 21
1933.615344
  0
LINE
  8
CSLAYER1
  6
CONTINUOUS
 62
     3
 10
680.845834
 20
1933.615344
 11
678.918248
 21
1936.284540
  0
LINE
  8
CSLAYER1
  6
CONTINUOUS
 62
     3
 10
678.918248
 20
1936.284540
 11
676.592410
 21
1938.847219
  0
LINE
  8
CSLAYER1
  6
CONTINUOUS
 62
     3
 10
676.592410
 20
1938.847219
 11
673.886020
 21
1941.283876
  0
LINE
  8
CSLAYER1
  6
CONTINUOUS
 62
     3
 10
673.886020
 20
1941.283876
 11
670.819675
 21
1943.575967
  0
LINE
  8
CSLAYER1
  6
CONTINUOUS
 62
     3
 10
670.819675
 20
1943.575967
 11
667.416712
 21
1945.706048
  0
LINE
  8
CSLAYER1
  6
CONTINUOUS
 62
     3
 10
667.416712
 20
1945.706048
 11
663.703029
 21
1947.657907
  0
LINE
  8
CSLAYER1
  6
CONTINUOUS
 62
     3
 10
663.703029
 20
1947.657907
 11
659.706890
 21
1949.416690
  0
LINE
  8
CSLAYER1
  6
CONTINUOUS
 62
     3
 10
659.706890
 20
1949.416690
 11
655.458709
 21
1950.969012
  0
LINE
  8
CSLAYER1
  6
CONTINUOUS
 62
     3
 10
655.458709
 20
1950.969012
 11
650.990815
 21
1952.303058
  0
LINE
  8
CSLAYER1
  6
CONTINUOUS
 62
     3
 10
650.990815
 20
1952.303058
 11
646.337213
 21
1953.408675
  0
LINE
  8
CSLAYER1
  6
CONTINUOUS
 62
     3
 10
646.337213
 20
1953.408675
 11
641.533319
 21
1954.277450
  0
LINE
  8
CSLAYER1
  6
CONTINUOUS
 62
     3
 10
641.533319
 20
1954.277450
 11
636.615694
 21
1954.902769
  0
LINE
  8
CSLAYER1
  6
CONTINUOUS
 62
     3
 10
636.615694
 20
1954.902769
 11
631.621764
 21
1955.279875
  0
LINE
  8
CSLAYER1
  6
CONTINUOUS
 62
     3
 10
631.621764
 20
1955.279875
 11
626.589535
 21
1955.405896
  0
LINE
  8
CSLAYER1
  6
CONTINUOUS
 62
     3
 10
626.589535
 20
1955.405896
 11
621.557307
 21
1955.279875
  0
LINE
  8
CSLAYER1
  6
CONTINUOUS
 62
     3
 10
621.557307
 20
1955.279875
 11
616.563377
 21
1954.902769
  0
LINE
  8
CSLAYER1
  6
CONTINUOUS
 62
     3
 10
616.563377
 20
1954.902769
 11
611.645751
 21
1954.277450
  0
LINE
  8
CSLAYER1
  6
CONTINUOUS
 62
     3
 10
611.645751
 20
1954.277450
 11
606.841858
 21
1953.408675
  0
LINE
  8
CSLAYER1
  6
CONTINUOUS
 62
     3
 10
606.841858
 20
1953.408675
 11
602.188256
 21
1952.303058
  0
LINE
  8
CSLAYER1
  6
CONTINUOUS
 62
     3
 10
602.188256
 20
1952.303058
 11
597.720362
 21
1950.969012
  0
LINE
  8
CSLAYER1
  6
CONTINUOUS
 62
     3
 10
597.720362
 20
1950.969012
 11
593.472180
 21
1949.416690
  0
LINE
  8
CSLAYER1
  6
CONTINUOUS
 62
     3
 10
593.472180
 20
1949.416690
 11
589.476041
 21
1947.657907
  0
LINE
  8
CSLAYER1
  6
CONTINUOUS
 62
     3
 10
589.476041
 20
1947.657907
 11
585.762359
 21
1945.706048
  0
LINE
  8
CSLAYER1
  6
CONTINUOUS
 62
     3
 10
585.762359
 20
1945.706048
 11
582.359396
 21
1943.575967
  0
LINE
  8
CSLAYER1
  6
CONTINUOUS
 62
     3
 10
582.359396
 20
1943.575967
 11
579.293051
 21
1941.283876
  0
LINE
  8
CSLAYER1
  6
CONTINUOUS
 62
     3
 10
579.293051
 20
1941.283876
 11
576.586660
 21
1938.847219
  0
LINE
  8
CSLAYER1
  6
CONTINUOUS
 62
     3
 10
576.586660
 20
1938.847219
 11
574.260822
 21
1936.284540
  0
LINE
  8
CSLAYER1
  6
CONTINUOUS
 62
     3
 10
574.260822
 20
1936.284540
 11
572.333237
 21
1933.615344
  0
LINE
  8
CSLAYER1
  6
CONTINUOUS
 62
     3
 10
572.333237
 20
1933.615344
 11
570.818575
 21
1930.859943
  0
LINE
  8
CSLAYER1
  6
CONTINUOUS
 62
     3
 10
570.818575
 20
1930.859943
 11
569.728364
 21
1928.039310
  0
LINE
  8
CSLAYER1
  6
CONTINUOUS
 62
     3
 10
569.728364
 20
1928.039310
 11
569.070900
 21
1925.174909
  0
LINE
  8
CSLAYER1
  6
CONTINUOUS
 62
     3
 10
569.070900
 20
1925.174909
 11
568.851189
 21
1922.288541
  0
LINE
  8
CSLAYER1
  6
CONTINUOUS
 62
     3
 10
568.851189
 20
1922.288541
 11
569.070900
 21
1919.402173
  0
LINE
  8
CSLAYER1
  6
CONTINUOUS
 62
     3
 10
569.070900
 20
1919.402173
 11
569.728364
 21
1916.537773
  0
LINE
  8
CSLAYER1
  6
CONTINUOUS
 62
     3
 10
569.728364
 20
1916.537773
 11
570.818575
 21
1913.717139
  0
LINE
  8
CSLAYER1
  6
CONTINUOUS
 62
     3
 10
570.818575
 20
1913.717139
 11
572.333237
 21
1910.961739
  0
LINE
  8
CSLAYER1
  6
CONTINUOUS
 62
     3
 10
572.333237
 20
1910.961739
 11
574.260822
 21
1908.292542
  0
LINE
  8
CSLAYER1
  6
CONTINUOUS
 62
     3
 10
574.260822
 20
1908.292542
 11
576.586660
 21
1905.729864
  0
LINE
  8
CSLAYER1
  6
CONTINUOUS
 62
     3
 10
576.586660
 20
1905.729864
 11
579.293051
 21
1903.293207
  0
LINE
  8
CSLAYER1
  6
CONTINUOUS
 62
     3
 10
579.293051
 20
1903.293207
 11
582.359396
 21
1901.001116
  0
LINE
  8
CSLAYER1
  6
CONTINUOUS
 62
     3
 10
582.359396
 20
1901.001116
 11
585.762359
 21
1898.871035
  0
LINE
  8
CSLAYER1
  6
CONTINUOUS
 62
     3
 10
585.762359
 20
1898.871035
 11
589.476041
 21
1896.919175
  0
LINE
  8
CSLAYER1
  6
CONTINUOUS
 62
     3
 10
589.476041
 20
1896.919175
 11
593.472180
 21
1895.160392
  0
LINE
  8
CSLAYER1
  6
CONTINUOUS
 62
     3
 10
593.472180
 20
1895.160392
 11
597.720362
 21
1893.608070
  0
LINE
  8
CSLAYER1
  6
CONTINUOUS
 62
     3
 10
597.720362
 20
1893.608070
 11
602.188256
 21
1892.274024
  0
LINE
  8
CSLAYER1
  6
CONTINUOUS
 62
     3
 10
602.188256
 20
1892.274024
 11
606.841858
 21
1891.168407
  0
LINE
  8
CSLAYER1
  6
CONTINUOUS
 62
     3
 10
606.841858
 20
1891.168407
 11
611.645751
 21
1890.299633
  0
LINE
  8
CSLAYER1
  6
CONTINUOUS
 62
     3
 10
611.645751
 20
1890.299633
 11
616.563377
 21
1889.674313
  0
LINE
  8
CSLAYER1
  6
CONTINUOUS
 62
     3
 10
616.563377
 20
1889.674313
 11
621.557307
 21
1889.297208
  0
LINE
  8
CSLAYER1
  6
CONTINUOUS
 62
     3
 10
621.557307
 20
1889.297208
 11
626.589535
 21
1889.171186
  0
LINE
  8
CSLAYER1
  6
CONTINUOUS
 62
     3
 10
626.589535
 20
1889.171186
 11
631.621764
 21
1889.297208
  0
LINE
  8
CSLAYER1
  6
CONTINUOUS
 62
     3
 10
631.621764
 20
1889.297208
 11
636.615694
 21
1889.674313
  0
LINE
  8
CSLAYER1
  6
CONTINUOUS
 62
     3
 10
636.615694
 20
1889.674313
 11
641.533319
 21
1890.299633
  0
LINE
  8
CSLAYER1
  6
CONTINUOUS
 62
     3
 10
641.533319
 20
1890.299633
 11
646.337213
 21
1891.168407
  0
LINE
  8
CSLAYER1
  6
CONTINUOUS
 62
     3
 10
646.337213
 20
1891.168407
 11
650.990815
 21
1892.274024
  0
LINE
  8
CSLAYER1
  6
CONTINUOUS
 62
     3
 10
650.990815
 20
1892.274024
 11
655.458709
 21
1893.608070
  0
LINE
  8
CSLAYER1
  6
CONTINUOUS
 62
     3
 10
655.458709
 20
1893.608070
 11
659.706890
 21
1895.160392
  0
LINE
  8
CSLAYER1
  6
CONTINUOUS
 62
     3
 10
659.706890
 20
1895.160392
 11
663.703029
 21
1896.919175
  0
LINE
  8
CSLAYER1
  6
CONTINUOUS
 62
     3
 10
663.703029
 20
1896.919175
 11
667.416712
 21
1898.871035
  0
LINE
  8
CSLAYER1
  6
CONTINUOUS
 62
     3
 10
667.416712
 20
1898.871035
 11
670.819675
 21
1901.001116
  0
LINE
  8
CSLAYER1
  6
CONTINUOUS
 62
     3
 10
670.819675
 20
1901.001116
 11
673.886020
 21
1903.293207
  0
LINE
  8
CSLAYER1
  6
CONTINUOUS
 62
     3
 10
673.886020
 20
1903.293207
 11
676.592410
 21
1905.729864
  0
LINE
  8
CSLAYER1
  6
CONTINUOUS
 62
     3
 10
676.592410
 20
1905.729864
 11
678.918248
 21
1908.292542
  0
LINE
  8
CSLAYER1
  6
CONTINUOUS
 62
     3
 10
678.918248
 20
1908.292542
 11
680.845834
 21
1910.961739
  0
LINE
  8
CSLAYER1
  6
CONTINUOUS
 62
     3
 10
680.845834
 20
1910.961739
 11
682.360495
 21
1913.717139
  0
LINE
  8
CSLAYER1
  6
CONTINUOUS
 62
     3
 10
682.360495
 20
1913.717139
 11
683.450707
 21
1916.537773
  0
LINE
  8
CSLAYER1
  6
CONTINUOUS
 62
     3
 10
683.450707
 20
1916.537773
 11
684.108170
 21
1919.402173
  0
LINE
  8
CSLAYER1
  6
CONTINUOUS
 62
     3
 10
684.108170
 20
1919.402173
 11
684.327882
 21
1922.288541
  0
LINE
  8
CSLAYER1
  6
CONTINUOUS
 62
     3
 10
690.101717
 20
1922.288541
 11
689.860034
 21
1925.463546
  0
LINE
  8
CSLAYER1
  6
CONTINUOUS
 62
     3
 10
689.860034
 20
1925.463546
 11
689.136824
 21
1928.614386
  0
LINE
  8
CSLAYER1
  6
CONTINUOUS
 62
     3
 10
689.136824
 20
1928.614386
 11
687.937591
 21
1931.717084
  0
LINE
  8
CSLAYER1
  6
CONTINUOUS
 62
     3
 10
687.937591
 20
1931.717084
 11
686.271463
 21
1934.748024
  0
LINE
  8
CSLAYER1
  6
CONTINUOUS
 62
     3
 10
686.271463
 20
1934.748024
 11
684.151120
 21
1937.684140
  0
LINE
  8
CSLAYER1
  6
CONTINUOUS
 62
     3
 10
684.151120
 20
1937.684140
 11
681.592698
 21
1940.503086
  0
LINE
  8
CSLAYER1
  6
CONTINUOUS
 62
     3
 10
681.592698
 20
1940.503086
 11
678.615668
 21
1943.183409
  0
LINE
  8
CSLAYER1
  6
CONTINUOUS
 62
     3
 10
678.615668
 20
1943.183409
 11
675.242689
 21
1945.704709
  0
LINE
  8
CSLAYER1
  6
CONTINUOUS
 62
     3
 10
675.242689
 20
1945.704709
 11
671.499429
 21
1948.047798
  0
LINE
  8
CSLAYER1
  6
CONTINUOUS
 62
     3
 10
671.499429
 20
1948.047798
 11
667.414378
 21
1950.194844
  0
LINE
  8
CSLAYER1
  6
CONTINUOUS
 62
     3
 10
667.414378
 20
1950.194844
 11
663.018626
 21
1952.129505
  0
LINE
  8
CSLAYER1
  6
CONTINUOUS
 62
     3
 10
663.018626
 20
1952.129505
 11
658.345626
 21
1953.837059
  0
LINE
  8
CSLAYER1
  6
CONTINUOUS
 62
     3
 10
658.345626
 20
1953.837059
 11
653.430943
 21
1955.304510
  0
LINE
  8
CSLAYER1
  6
CONTINUOUS
 62
     3
 10
653.430943
 20
1955.304510
 11
648.311981
 21
1956.520689
  0
LINE
  8
CSLAYER1
  6
CONTINUOUS
 62
     3
 10
648.311981
 20
1956.520689
 11
643.027697
 21
1957.476341
  0
LINE
  8
CSLAYER1
  6
CONTINUOUS
 62
     3
 10
643.027697
 20
1957.476341
 11
637.618310
 21
1958.164192
  0
LINE
  8
CSLAYER1
  6
CONTINUOUS
 62
     3
 10
637.618310
 20
1958.164192
 11
632.124987
 21
1958.579008
  0
LINE
  8
CSLAYER1
  6
CONTINUOUS
 62
     3
 10
632.124987
 20
1958.579008
 11
626.589535
 21
1958.717632
  0
LINE
  8
CSLAYER1
  6
CONTINUOUS
 62
     3
 10
626.589535
 20
1958.717632
 11
621.054084
 21
1958.579008
  0
LINE
  8
CSLAYER1
  6
CONTINUOUS
 62
     3
 10
621.054084
 20
1958.579008
 11
615.560761
 21
1958.164192
  0
LINE
  8
CSLAYER1
  6
CONTINUOUS
 62
     3
 10
615.560761
 20
1958.164192
 11
610.151373
 21
1957.476341
  0
LINE
  8
CSLAYER1
  6
CONTINUOUS
 62
     3
 10
610.151373
 20
1957.476341
 11
604.867090
 21
1956.520689
  0
LINE
  8
CSLAYER1
  6
CONTINUOUS
 62
     3
 10
604.867090
 20
1956.520689
 11
599.748128
 21
1955.304510
  0
LINE
  8
CSLAYER1
  6
CONTINUOUS
 62
     3
 10
599.748128
 20
1955.304510
 11
594.833445
 21
1953.837059
  0
LINE
  8
CSLAYER1
  6
CONTINUOUS
 62
     3
 10
594.833445
 20
1953.837059
 11
590.160445
 21
1952.129505
  0
LINE
  8
CSLAYER1
  6
CONTINUOUS
 62
     3
 10
590.160445
 20
1952.129505
 11
585.764692
 21
1950.194844
  0
LINE
  8
CSLAYER1
  6
CONTINUOUS
 62
     3
 10
585.764692
 20
1950.194844
 11
581.679641
 21
1948.047798
  0
LINE
  8
CSLAYER1
  6
CONTINUOUS
 62
     3
 10
581.679641
 20
1948.047798
 11
577.936382
 21
1945.704709
  0
LINE
  8
CSLAYER1
  6
CONTINUOUS
 62
     3
 10
577.936382
 20
1945.704709
 11
574.563402
 21
1943.183409
  0
LINE
  8
CSLAYER1
  6
CONTINUOUS
 62
     3
 10
574.563402
 20
1943.183409
 11
571.586373
 21
1940.503086
  0
LINE
  8
CSLAYER1
  6
CONTINUOUS
 62
     3
 10
571.586373
 20
1940.503086
 11
569.027951
 21
1937.684140
  0
LINE
  8
CSLAYER1
  6
CONTINUOUS
 62
     3
 10
569.027951
 20
1937.684140
 11
566.907607
 21
1934.748024
  0
LINE
  8
CSLAYER1
  6
CONTINUOUS
 62
     3
 10
566.907607
 20
1934.748024
 11
565.241479
 21
1931.717084
  0
LINE
  8
CSLAYER1
  6
CONTINUOUS
 62
     3
 10
565.241479
 20
1931.717084
 11
564.042247
 21
1928.614386
  0
LINE
  8
CSLAYER1
  6
CONTINUOUS
 62
     3
 10
564.042247
 20
1928.614386
 11
563.319037
 21
1925.463546
  0
LINE
  8
CSLAYER1
  6
CONTINUOUS
 62
     3
 10
563.319037
 20
1925.463546
 11
563.077354
 21
1922.288541
  0
LINE
  8
CSLAYER1
  6
CONTINUOUS
 62
     3
 10
563.077354
 20
1922.288541
 11
563.319037
 21
1919.113537
  0
LINE
  8
CSLAYER1
  6
CONTINUOUS
 62
     3
 10
563.319037
 20
1919.113537
 11
564.042247
 21
1915.962696
  0
LINE
  8
CSLAYER1
  6
CONTINUOUS
 62
     3
 10
564.042247
 20
1915.962696
 11
565.241479
 21
1912.859999
  0
LINE
  8
CSLAYER1
  6
CONTINUOUS
 62
     3
 10
565.241479
 20
1912.859999
 11
566.907607
 21
1909.829058
  0
LINE
  8
CSLAYER1
  6
CONTINUOUS
 62
     3
 10
566.907607
 20
1909.829058
 11
569.027951
 21
1906.892942
  0
LINE
  8
CSLAYER1
  6
CONTINUOUS
 62
     3
 10
569.027951
 20
1906.892942
 11
571.586373
 21
1904.073996
  0
LINE
  8
CSLAYER1
  6
CONTINUOUS
 62
     3
 10
571.586373
 20
1904.073996
 11
574.563402
 21
1901.393673
  0
LINE
  8
CSLAYER1
  6
CONTINUOUS
 62
     3
 10
574.563402
 20
1901.393673
 11
577.936382
 21
1898.872373
  0
LINE
  8
CSLAYER1
  6
CONTINUOUS
 62
     3
 10
577.936382
 20
1898.872373
 11
581.679641
 21
1896.529284
  0
LINE
  8
CSLAYER1
  6
CONTINUOUS
 62
     3
 10
581.679641
 20
1896.529284
 11
585.764692
 21
1894.382239
  0
LINE
  8
CSLAYER1
  6
CONTINUOUS
 62
     3
 10
585.764692
 20
1894.382239
 11
590.160445
 21
1892.447577
  0
LINE
  8
CSLAYER1
  6
CONTINUOUS
 62
     3
 10
590.160445
 20
1892.447577
 11
594.833445
 21
1890.740023
  0
LINE
  8
CSLAYER1
  6
CONTINUOUS
 62
     3
 10
594.833445
 20
1890.740023
 11
599.748128
 21
1889.272573
  0
LINE
  8
CSLAYER1
  6
CONTINUOUS
 62
     3
 10
599.748128
 20
1889.272573
 11
599.818624
 21
1889.255824
  0
LINE
  8
CSLAYER1
  6
CONTINUOUS
 62
     3
 10
626.589535
 20
1885.859451
 11
632.124987
 21
1885.998074
  0
LINE
  8
CSLAYER1
  6
CONTINUOUS
 62
     3
 10
632.124987
 20
1885.998074
 11
637.618310
 21
1886.412890
  0
LINE
  8
CSLAYER1
  6
CONTINUOUS
 62
     3
 10
637.618310
 20
1886.412890
 11
643.027697
 21
1887.100742
  0
LINE
  8
CSLAYER1
  6
CONTINUOUS
 62
     3
 10
643.027697
 20
1887.100742
 11
648.311981
 21
1888.056394
  0
LINE
  8
CSLAYER1
  6
CONTINUOUS
 62
     3
 10
648.311981
 20
1888.056394
 11
653.430943
 21
1889.272573
  0
LINE
  8
CSLAYER1
  6
CONTINUOUS
 62
     3
 10
653.430943
 20
1889.272573
 11
658.345626
 21
1890.740023
  0
LINE
  8
CSLAYER1
  6
CONTINUOUS
 62
     3
 10
658.345626
 20
1890.740023
 11
663.018626
 21
1892.447577
  0
LINE
  8
CSLAYER1
  6
CONTINUOUS
 62
     3
 10
663.018626
 20
1892.447577
 11
667.414378
 21
1894.382239
  0
LINE
  8
CSLAYER1
  6
CONTINUOUS
 62
     3
 10
667.414378
 20
1894.382239
 11
671.499429
 21
1896.529284
  0
LINE
  8
CSLAYER1
  6
CONTINUOUS
 62
     3
 10
671.499429
 20
1896.529284
 11
675.242689
 21
1898.872373
  0
LINE
  8
CSLAYER1
  6
CONTINUOUS
 62
     3
 10
675.242689
 20
1898.872373
 11
678.615668
 21
1901.393673
  0
LINE
  8
CSLAYER1
  6
CONTINUOUS
 62
     3
 10
678.615668
 20
1901.393673
 11
681.592698
 21
1904.073996
  0
LINE
  8
CSLAYER1
  6
CONTINUOUS
 62
     3
 10
681.592698
 20
1904.073996
 11
684.151120
 21
1906.892942
  0
LINE
  8
CSLAYER1
  6
CONTINUOUS
 62
     3
 10
684.151120
 20
1906.892942
 11
686.271463
 21
1909.829058
  0
LINE
  8
CSLAYER1
  6
CONTINUOUS
 62
     3
 10
686.271463
 20
1909.829058
 11
687.937591
 21
1912.859999
  0
LINE
  8
CSLAYER1
  6
CONTINUOUS
 62
     3
 10
687.937591
 20
1912.859999
 11
689.136824
 21
1915.962696
  0
LINE
  8
CSLAYER1
  6
CONTINUOUS
 62
     3
 10
689.136824
 20
1915.962696
 11
689.860034
 21
1919.113537
  0
LINE
  8
CSLAYER1
  6
CONTINUOUS
 62
     3
 10
689.860034
 20
1919.113537
 11
690.101717
 21
1922.288541
  0
LINE
  8
CSLAYER1
  6
CONTINUOUS
 62
     3
 10
502.311125
 20
1885.859451
 11
626.589535
 21
1885.859451
  0
LINE
  8
CSLAYER1
  6
CONTINUOUS
 62
     3
 10
502.311125
 20
1889.255824
 11
626.589535
 21
1889.255824
  0
LINE
  8
CSLAYER1
  6
CONTINUOUS
 62
     3
 10
502.311125
 20
1885.859451
 11
502.311125
 21
1889.255824
  0
LINE
  8
CSLAYER1
  6
CONTINUOUS
 62
     3
 10
502.311125
 20
1889.255824
 11
494.486621
 21
1891.671111
  0
LINE
  8
CSLAYER1
  6
CONTINUOUS
 62
     3
 10
494.486621
 20
1891.671111
 11
493.182768
 21
1897.147293
  0
LINE
  8
CSLAYER1
  6
CONTINUOUS
 62
     3
 10
502.311125
 20
1885.859451
 11
489.271209
 21
1886.977241
  0
LINE
  8
CSLAYER1
  6
CONTINUOUS
 62
     3
 10
489.271209
 20
1886.977241
 11
483.534256
 21
1885.151846
  0
LINE
  8
CSLAYER1
  6
CONTINUOUS
 62
     3
 10
483.534256
 20
1885.151846
 11
477.275762
 21
1882.283370
  0
LINE
  8
CSLAYER1
  6
CONTINUOUS
 62
     3
 10
493.182768
 20
1897.147293
 11
486.663503
 21
1902.101934
  0
LINE
  8
CSLAYER1
  6
CONTINUOUS
 62
     3
 10
383.438058
 20
2088.948132
 11
522.689365
 21
2008.551353
  0
LINE
  8
CSLAYER1
  6
CONTINUOUS
 62
     3
 10
383.438058
 20
2167.384015
 11
522.689365
 21
2086.987235
  0
LINE
  8
CSLAYER1
  6
CONTINUOUS
 62
     3
 10
383.438058
 20
2167.384015
 11
383.438058
 21
2069.339162
  0
LINE
  8
CSLAYER1
  6
CONTINUOUS
 62
     3
 10
641.562432
 20
2155.618632
 11
641.562432
 21
2057.573780
  0
LINE
  8
CSLAYER1
  6
CONTINUOUS
 62
     3
 10
383.438058
 20
2167.384015
 11
502.311125
 21
2236.015412
  0
LINE
  8
CSLAYER1
  6
CONTINUOUS
 62
     5
 10
341.449768
 20
2093.581112
 11
376.224105
 21
2073.504140
  0
TEXT
  8
CSLAYER1
 62
     3
 10
754.929012
 20
2128.949903
 40
29.612888
 41
0.852344
  1
ホース長サ２ｍ
 50
0.000000
 51
0.000000
  7
EASYDRAW_FONT
 72
     5
 11
923.198185
 21
2128.949903
  0
TEXT
  8
CSLAYER1
 62
     3
 10
316.104772
 20
1917.999945
 40
33.963734
 41
1.036364
  1
長サ4ｍ
 50
0.000000
 51
0.000000
  7
EASYDRAW_FONT
 72
     5
 11
445.166956
 21
1917.999945
  0
LINE
  8
CSLAYER1
  6
CONTINUOUS
 62
     3
 10
603.158304
 20
2066.210989
 11
859.072266
 21
1918.458994
  0
ARC
  8
CSLAYER1
  6
CONTINUOUS
 62
     3
 10
903.697266
 20
1995.751761
 40
85.000000
 50
240.000000
 51
270.000000
  0
ARC
  8
CSLAYER1
  6
CONTINUOUS
 62
     3
 10
903.697266
 20
1995.751761
 40
89.250000
 50
240.000000
 51
270.000000
  0
TEXT
  8
CSLAYER1
 62
     3
 10
705.758782
 20
1820.064398
 40
33.963734
 41
1.020000
  1
フットスイッチ
 50
0.000000
 51
0.000000
  7
EASYDRAW_FONT
 72
     5
 11
936.712165
 21
1820.064398
  0
TEXT
  8
CSLAYER1
 62
     3
 10
703.927972
 20
1773.689398
 40
33.963734
 41
1.020000
  1
ＵＰ・ＤＯＷＮ
 50
0.000000
 51
0.000000
  7
EASYDRAW_FONT
 72
     5
 11
934.881354
 21
1773.689398
  0
TEXT
  8
CSLAYER1
 62
     3
 10
706.368890
 20
1732.195257
 40
33.963734
 41
1.020000
  1
コード長サ２ｍ
 50
0.000000
 51
0.000000
  7
EASYDRAW_FONT
 72
     5
 11
937.322272
 21
1732.195257
  0
LINE
  8
CSLAYER1
  6
CONTINUOUS
 62
     5
 10
593.773388
 20
1786.944531
 11
698.494063
 21
1815.004351
  0
LINE
  8
CSLAYER1
  6
CONTINUOUS
 62
     5
 10
593.773388
 20
1786.944531
 11
619.754150
 21
1801.944531
  0
LINE
  8
CSLAYER1
  6
CONTINUOUS
 62
     5
 10
593.773388
 20
1786.944531
 11
623.773388
 21
1786.944531
  0
LINE
  8
CSLAYER1
  6
CONTINUOUS
 62
     5
 10
931.681535
 20
1815.004351
 11
698.494063
 21
1815.004351
  0
LINE
  8
CSLAYER1
  6
CONTINUOUS
 62
     3
 10
442.634775
 20
1802.043438
 11
537.733228
 21
1747.138320
  0
LINE
  8
CSLAYER1
  6
CONTINUOUS
 62
     3
 10
537.733228
 20
1747.138320
 11
593.773388
 21
1779.493122
  0
LINE
  8
CSLAYER1
  6
CONTINUOUS
 62
     3
 10
593.773388
 20
1786.944531
 11
593.773388
 21
1779.493122
  0
LINE
  8
CSLAYER1
  6
CONTINUOUS
 62
     5
 10
537.733228
 20
1776.159597
 11
537.733228
 21
1756.550626
  0
LINE
  8
CSLAYER1
  6
CONTINUOUS
 62
     3
 10
442.634775
 20
1809.887026
 11
442.634775
 21
1802.043438
  0
LINE
  8
CSLAYER1
  6
CONTINUOUS
 62
     3
 10
445.691511
 20
1829.692086
 11
498.335298
 21
1860.085991
  0
LINE
  8
CSLAYER1
  6
CONTINUOUS
 62
     3
 10
479.655244
 20
1810.083116
 11
532.299031
 21
1840.477020
  0
LINE
  8
CSLAYER1
  6
CONTINUOUS
 62
     3
 10
537.733228
 20
1776.159597
 11
590.716652
 21
1806.749591
  0
LINE
  8
CSLAYER1
  6
CONTINUOUS
 62
     3
 10
504.109132
 20
1795.964657
 11
556.752919
 21
1826.358561
  0
LINE
  8
CSLAYER1
  6
CONTINUOUS
 62
     3
 10
445.691511
 20
1829.692086
 11
479.655244
 21
1810.083116
  0
LINE
  8
CSLAYER1
  6
CONTINUOUS
 62
     3
 10
498.335298
 20
1860.085991
 11
532.299031
 21
1840.477020
  0
LINE
  8
CSLAYER1
  6
CONTINUOUS
 62
     3
 10
442.634775
 20
1809.887026
 11
537.733228
 21
1754.981908
  0
LINE
  8
CSLAYER1
  6
CONTINUOUS
 62
     3
 10
537.733228
 20
1754.589729
 11
593.773388
 21
1786.944531
  0
LINE
  8
CSLAYER1
  6
CONTINUOUS
 62
     3
 10
486.787628
 20
1805.965232
 11
496.976748
 21
1800.082541
  0
LINE
  8
CSLAYER1
  6
CONTINUOUS
 62
     5
 10
537.733228
 20
1756.550626
 11
590.716652
 21
1787.140620
  0
LINE
  8
CSLAYER1
  6
CONTINUOUS
 62
     5
 10
445.691511
 20
1810.083116
 11
479.655244
 21
1790.474145
  0
LINE
  8
CSLAYER1
  6
CONTINUOUS
 62
     3
 10
590.716652
 20
1806.749591
 11
590.716652
 21
1787.140620
  0
LINE
  8
CSLAYER1
  6
CONTINUOUS
 62
     5
 10
504.109132
 20
1795.964657
 11
504.109132
 21
1775.787965
  0
LINE
  8
CSLAYER1
  6
CONTINUOUS
 62
     5
 10
479.655244
 20
1790.474145
 11
479.655244
 21
1810.083116
  0
LINE
  8
CSLAYER1
  6
CONTINUOUS
 62
     3
 10
532.299031
 20
1840.477020
 11
532.299031
 21
1832.241253
  0
LINE
  8
CSLAYER1
  6
CONTINUOUS
 62
     5
 10
486.787628
 20
1786.356261
 11
496.976748
 21
1780.473570
  0
LINE
  8
CSLAYER1
  6
CONTINUOUS
 62
     3
 10
537.733228
 20
1754.589729
 11
537.733228
 21
1747.138320
  0
LINE
  8
CSLAYER1
  6
CONTINUOUS
 62
     3
 10
590.716652
 20
1788.709338
 11
593.773388
 21
1786.944531
  0
LINE
  8
CSLAYER1
  6
CONTINUOUS
 62
     3
 10
486.787628
 20
1805.965232
 11
539.431415
 21
1836.359136
  0
LINE
  8
CSLAYER1
  6
CONTINUOUS
 62
     3
 10
496.976748
 20
1800.082541
 11
549.620535
 21
1830.476445
  0
LINE
  8
CSLAYER1
  6
CONTINUOUS
 62
     3
 10
549.620535
 20
1830.476445
 11
549.620535
 21
1822.240678
  0
LINE
  8
CSLAYER1
  6
CONTINUOUS
 62
     3
 10
539.431415
 20
1836.359136
 11
549.620535
 21
1830.476445
  0
LINE
  8
CSLAYER1
  6
CONTINUOUS
 62
     3
 10
556.752919
 20
1826.358561
 11
590.716652
 21
1806.749591
  0
LINE
  8
CSLAYER1
  6
CONTINUOUS
 62
     3
 10
504.109132
 20
1795.964657
 11
537.733228
 21
1776.551776
  0
LINE
  8
CSLAYER1
  6
CONTINUOUS
 62
     5
 10
496.976748
 20
1800.082541
 11
496.976748
 21
1780.473570
  0
LINE
  8
CSLAYER1
  6
CONTINUOUS
 62
     5
 10
486.787628
 20
1805.965232
 11
486.787628
 21
1786.356261
  0
LINE
  8
CSLAYER1
  6
CONTINUOUS
 62
     5
 10
496.976748
 20
1780.473570
 11
504.109132
 21
1784.591454
  0
LINE
  8
CSLAYER1
  6
CONTINUOUS
 62
     5
 10
479.655244
 20
1790.474145
 11
486.787628
 21
1794.592029
  0
LINE
  8
CSLAYER1
  6
CONTINUOUS
 62
     5
 10
504.109132
 20
1776.355686
 11
537.733228
 21
1756.942806
  0
LINE
  8
CSLAYER1
  6
CONTINUOUS
 62
     3
 10
445.691511
 20
1829.692086
 11
445.691511
 21
1810.083116
  0
LINE
  8
CSLAYER1
  6
CONTINUOUS
 62
     3
 10
442.634775
 20
1809.887026
 11
445.691511
 21
1811.651833
  0
LINE
  8
CSLAYER1
  6
CONTINUOUS
 62
     5
 10
455.880631
 20
1835.574778
 11
489.844364
 21
1815.965807
  0
LINE
  8
CSLAYER1
  6
CONTINUOUS
 62
     5
 10
466.069751
 20
1841.457469
 11
500.033484
 21
1821.848498
  0
LINE
  8
CSLAYER1
  6
CONTINUOUS
 62
     5
 10
476.258871
 20
1847.340160
 11
510.222604
 21
1827.731189
  0
LINE
  8
CSLAYER1
  6
CONTINUOUS
 62
     5
 10
524.487372
 20
1807.730039
 11
558.451106
 21
1788.121069
  0
LINE
  8
CSLAYER1
  6
CONTINUOUS
 62
     5
 10
514.298252
 20
1801.847348
 11
548.261986
 21
1782.238378
  0
LINE
  8
CSLAYER1
  6
CONTINUOUS
 62
     5
 10
534.676492
 20
1813.612731
 11
568.640226
 21
1794.003760
  0
ARC
  8
CSLAYER1
  6
CONTINUOUS
 62
     3
 10
548.576683
 20
1825.283137
 40
10.105980
 50
-0.219250
 51
120.219250
  0
LINE
  8
CSLAYER1
  6
CONTINUOUS
 62
     3
 10
557.206459
 20
1830.542207
 11
671.352653
 21
1896.444543
  0
LINE
  8
CSLAYER1
  6
CONTINUOUS
 62
     3
 10
554.333104
 20
1833.589428
 11
648.837163
 21
1888.151372
  0
LINE
  8
CSLAYER1
  6
CONTINUOUS
 62
     5
 10
513.986594
 20
1890.061741
 11
480.212758
 21
1955.863798
  0
LINE
  8
CSLAYER1
  6
CONTINUOUS
 62
     5
 10
513.986594
 20
1890.061741
 11
493.846692
 21
1912.296496
  0
LINE
  8
CSLAYER1
  6
CONTINUOUS
 62
     5
 10
513.986594
 20
1890.061741
 11
507.662305
 21
1919.387555
  0
LINE
  8
CSLAYER1
  6
CONTINUOUS
 62
     5
 10
259.094112
 20
1689.783095
 11
977.285893
 21
1689.783095
  0
LINE
  8
CSLAYER1
  6
CONTINUOUS
 62
     5
 10
490.501179
 20
2375.446176
 11
728.146958
 21
2375.446176
  0
LINE
  8
CSLAYER1
  6
CONTINUOUS
 62
     5
 10
728.146958
 20
2375.446176
 11
728.146958
 21
2332.346690
  0
LINE
  8
CSLAYER1
  6
CONTINUOUS
 62
     5
 10
728.146958
 20
2332.346690
 11
490.501179
 21
2332.346690
  0
LINE
  8
CSLAYER1
  6
CONTINUOUS
 62
     5
 10
490.501179
 20
2332.346690
 11
490.501179
 21
2375.446176
  0
INSERT
  8
CSLAYER1
  2
BLKF0000
 10
0.0
 20
0.0
 30
0.0
  0
LINE
  8
CSLAYER1
  6
CONTINUOUS
 62
     5
 10
2731.667423
 20
532.370436
 11
3531.667423
 21
532.370436
  0
LINE
  8
CSLAYER1
  6
CONTINUOUS
 62
     5
 10
2731.667423
 20
172.370436
 11
3531.667423
 21
172.370436
  0
LINE
  8
CSLAYER1
  6
CONTINUOUS
 62
     5
 10
2731.667423
 20
332.370436
 11
3531.667423
 21
332.370436
  0
LINE
  8
CSLAYER1
  6
CONTINUOUS
 62
     5
 10
2731.667423
 20
392.370436
 11
3531.667423
 21
392.370436
  0
LINE
  8
CSLAYER1
  6
CONTINUOUS
 62
     5
 10
2731.667423
 20
452.370436
 11
3531.667423
 21
452.370436
  0
LINE
  8
CSLAYER1
  6
CONTINUOUS
 62
     5
 10
2731.667423
 20
612.370436
 11
3531.667423
 21
612.370436
  0
LINE
  8
CSLAYER1
  6
CONTINUOUS
 62
     5
 10
2731.667423
 20
692.370436
 11
2731.667423
 21
92.370436
  0
LINE
  8
CSLAYER1
  6
CONTINUOUS
 62
     5
 10
2931.667423
 20
692.370436
 11
2931.667423
 21
452.370436
  0
LINE
  8
CSLAYER1
  6
CONTINUOUS
 62
     5
 10
2731.667423
 20
692.370436
 11
3531.667423
 21
692.370436
  0
LINE
  8
CSLAYER1
  6
CONTINUOUS
 62
     5
 10
3231.667423
 20
452.370436
 11
3231.667423
 21
172.370436
  0
TEXT
  8
CSLAYER1
 62
     3
 10
2951.358699
 20
100.933155
 40
59.380363
 41
1.003345
  1
東正車輌株式会社
 50
0.000000
 51
0.000000
  7
EASYDRAW_FONT
 72
     5
 11
3408.131047
 21
100.933155
  0
LINE
  8
CSLAYER1
  6
CONTINUOUS
 62
     5
 10
2981.667423
 20
392.370436
 11
2981.667423
 21
172.370436
  0
TEXT
  8
CSLAYER1
 62
     5
 10
2761.667480
 20
627.370361
 40
50.000000
 41
1.050000
  1
品　名
 50
0.000000
 51
0.000000
  7
EASYDRAW_FONT
 72
     5
 11
2901.667480
 21
627.370361
  0
TEXT
  8
CSLAYER1
 62
     5
 10
2761.667480
 20
547.370361
 40
50.000000
 41
1.050000
  1
型　式
 50
0.000000
 51
0.000000
  7
EASYDRAW_FONT
 72
     5
 11
2901.667480
 21
547.370361
  0
TEXT
  8
CSLAYER1
 62
     5
 10
2736.667480
 20
467.370453
 40
50.000000
 41
1.036364
  1
図面番号
 50
0.000000
 51
0.000000
  7
EASYDRAW_FONT
 72
     5
 11
2926.667480
 21
467.370453
  0
TEXT
  8
CSLAYER1
 62
     5
 10
2761.667480
 20
397.370453
 40
50.000000
 41
0.825000
  1
平成26年01月10日
 50
0.000000
 51
0.000000
  7
EASYDRAW_FONT
 72
     5
 11
3201.667480
 21
397.370453
  0
TEXT
  8
CSLAYER1
 62
     5
 10
3311.667480
 20
397.370453
 40
50.000000
 41
1.050000
  1
Ｂ－４
 50
0.000000
 51
0.000000
  7
EASYDRAW_FONT
 72
     5
 11
3451.667480
 21
397.370453
  0
TEXT
  8
CSLAYER1
 62
     5
 10
2786.667480
 20
337.370453
 40
50.000000
 41
1.050000
  1
検　図
 50
0.000000
 51
0.000000
  7
EASYDRAW_FONT
 72
     5
 11
2926.667480
 21
337.370453
  0
TEXT
  8
CSLAYER1
 62
     5
 10
3036.667480
 20
337.370453
 40
50.000000
 41
1.050000
  1
作　図
 50
0.000000
 51
0.000000
  7
EASYDRAW_FONT
 72
     5
 11
3176.667480
 21
337.370453
  0
TEXT
  8
CSLAYER1
 62
     5
 10
3311.667480
 20
337.370453
 40
50.000000
 41
1.050000
  1
尺　度
 50
0.000000
 51
0.000000
  7
EASYDRAW_FONT
 72
     5
 11
3451.667480
 21
337.370453
  0
TEXT
  8
CSLAYER1
 62
     5
 10
3412.406250
 20
186.855698
 40
50.000000
 41
1.080000
  1
１０
 50
0.000000
 51
0.000000
  7
EASYDRAW_FONT
 72
     5
 11
3502.406250
 21
186.855698
  0
TEXT
  8
CSLAYER1
 62
     5
 10
3392.086670
 20
234.560394
 40
50.000000
 41
1.200000
  1
／
 50
0.000000
 51
0.000000
  7
EASYDRAW_FONT
 72
     5
 11
3432.086670
 21
234.560394
  0
TEXT
  8
CSLAYER1
 62
     5
 10
3361.873779
 20
269.543854
 40
50.000000
 41
1.200000
  1
１
 50
0.000000
 51
0.000000
  7
EASYDRAW_FONT
 72
     5
 11
3401.873779
 21
269.543854
  0
TEXT
  8
CSLAYER1
 62
     3
 10
3071.667480
 20
627.370361
 40
50.000000
 41
0.834783
  1
ゴールドリフター
 50
0.000000
 51
0.000000
  7
EASYDRAW_FONT
 72
     5
 11
3391.667480
 21
627.370361
  0
TEXT
  8
CSLAYER1
 62
     3
 10
2971.667480
 20
547.370361
 40
50.000000
 41
0.821053
  1
GLSE-250-2508
 50
0.000000
 51
0.000000
  7
EASYDRAW_FONT
 72
     5
 11
3491.667480
 21
547.370361
  0
INSERT
  8
CSLAYER1
  2
BLKF0001
 10
0.0
 20
0.0
 30
0.0
  0
LINE
  8
CSLAYER1
  6
CONTINUOUS
 62
     5
 10
401.180870
 20
777.301468
 11
609.598497
 21
777.301468
  0
POINT
  8
CSLAYER1
 62
     5
 10
1370.007323
 20
794.801468
  0
LINE
  8
CSLAYER1
  6
CONTINUOUS
 62
     3
 10
1345.007323
 20
817.301468
 11
1345.007323
 21
777.301468
  0
LINE
  8
CSLAYER1
  6
CONTINUOUS
 62
     3
 10
1345.007323
 20
817.301468
 11
1358.550884
 21
817.301468
  0
LINE
  8
CSLAYER1
  6
CONTINUOUS
 62
     3
 10
1381.463762
 20
817.301468
 11
2148.007323
 21
817.301468
  0
LINE
  8
CSLAYER1
  6
CONTINUOUS
 62
     3
 10
1345.007323
 20
783.301468
 11
1389.007323
 21
783.301468
  0
ARC
  8
CSLAYER1
  6
CONTINUOUS
 62
     3
 10
1370.007323
 20
822.301468
 40
12.500000
 50
203.578178
 51
336.421822
  0
LINE
  8
CSLAYER1
  6
CONTINUOUS
 62
     3
 10
1389.007323
 20
817.301468
 11
1389.007323
 21
783.301468
  0
LINE
  8
CSLAYER1
  6
CENTER
 62
     5
 10
1359.112494
 20
794.801468
 11
1380.227728
 21
794.801468
  0
LINE
  8
CSLAYER1
  6
CENTER
 62
     5
 10
1370.007323
 20
805.771123
 11
1370.007323
 21
783.831813
  0
INSERT
  8
CSLAYER1
  2
BLKF0002
 10
0.0
 20
0.0
 30
0.0
  0
LINE
  8
CSLAYER1
  6
CONTINUOUS
 62
     3
 10
1425.725034
 20
881.050339
 11
1444.654743
 21
869.003573
  0
LINE
  8
CSLAYER1
  6
CONTINUOUS
 62
     3
 10
1507.252759
 20
1034.227961
 11
1531.523761
 21
1018.782024
  0
LINE
  8
CSLAYER1
  6
CONTINUOUS
 62
     3
 10
1474.770808
 20
989.706361
 11
1492.690864
 21
978.302132
  0
LINE
  8
CSLAYER1
  6
CONTINUOUS
 62
     3
 10
1474.464052
 20
991.086905
 11
1492.718453
 21
1019.770992
  0
LINE
  8
CSLAYER1
  6
CONTINUOUS
 62
     3
 10
1492.718453
 20
1019.770992
 11
1507.252759
 21
1034.227961
  0
LINE
  8
CSLAYER1
  6
CONTINUOUS
 62
     3
 10
1474.464052
 20
991.086905
 11
1474.770808
 21
989.706361
  0
LINE
  8
CSLAYER1
  6
CONTINUOUS
 62
     3
 10
1425.641043
 20
908.408571
 11
1476.626837
 21
988.525194
  0
POINT
  8
CSLAYER1
 62
     3
 10
1425.183708
 20
862.429617
  0
LINE
  8
CSLAYER1
  6
CENTER
 62
     6
 10
1419.707905
 20
853.825204
 11
1605.096934
 21
1145.136605
  0
POINT
  8
CSLAYER1
 62
     3
 10
1605.096934
 20
1145.136605
  0
CIRCLE
  8
CSLAYER1
  6
CONTINUOUS
 62
     3
 10
1605.096934
 20
1145.136605
 40
8.000000
  0
LINE
  8
CSLAYER1
  6
CONTINUOUS
 62
     3
 10
1574.592815
 20
1063.677737
 11
1588.632889
 21
1085.739635
  0
LINE
  8
CSLAYER1
  6
CONTINUOUS
 62
     3
 10
1511.471007
 20
1031.543490
 11
1562.979342
 21
1112.481209
  0
CIRCLE
  8
CSLAYER1
  6
CONTINUOUS
 62
     3
 10
1425.183708
 20
862.429617
 40
8.000000
  0
LINE
  8
CSLAYER1
  6
CONTINUOUS
 62
     3
 10
1427.935831
 20
832.074621
 11
1413.763750
 21
817.301468
  0
LINE
  8
CSLAYER1
  6
CONTINUOUS
 62
     3
 10
1686.007188
 20
1108.313964
 11
1675.409067
 21
1090.766035
  0
LINE
  8
CSLAYER1
  6
CONTINUOUS
 62
     3
 10
1409.606523
 20
817.301468
 11
1420.925010
 21
829.099998
  0
LINE
  8
CSLAYER1
  6
CONTINUOUS
 62
     3
 10
1420.925010
 20
829.099998
 11
1426.882740
 21
831.699123
  0
LINE
  8
CSLAYER1
  6
CONTINUOUS
 62
     3
 10
1390.683554
 20
871.968452
 11
1855.563586
 21
1356.565139
  0
LINE
  8
CSLAYER1
  6
CONTINUOUS
 62
     3
 10
1426.882740
 20
831.699123
 11
1675.409067
 21
1090.766035
  0
CIRCLE
  8
CSLAYER1
  6
CONTINUOUS
 62
     3
 10
1629.610032
 20
1065.414538
 40
7.500000
  0
ARC
  8
CSLAYER1
  6
CONTINUOUS
 62
     3
 10
1869.367783
 20
1355.065139
 40
5.000000
 50
-197.457603
 51
17.457603
  0
ARC
  8
CSLAYER1
  6
CONTINUOUS
 62
     3
 10
1869.367783
 20
1355.065139
 40
13.000000
 50
-186.625810
 51
6.625810
  0
POINT
  8
CSLAYER1
 62
     3
 10
1869.367783
 20
1355.065139
  0
POINT
  8
CSLAYER1
 62
     3
 10
1629.610032
 20
1065.414538
  0
LINE
  8
CSLAYER1
  6
CONTINUOUS
 62
     3
 10
1686.007188
 20
1108.313964
 11
1862.537030
 21
1292.330852
  0
LINE
  8
CSLAYER1
  6
CONTINUOUS
 62
     3
 10
1862.537030
 20
1292.330852
 11
1877.989151
 21
1345.335185
  0
POINT
  8
CSLAYER1
 62
     3
 10
1370.007323
 20
794.801468
  0
LINE
  8
CSLAYER1
  6
CONTINUOUS
 62
     3
 10
1411.405438
 20
861.789871
 11
1422.951595
 21
850.713488
  0
LINE
  8
CSLAYER1
  6
CONTINUOUS
 62
     3
 10
1435.635024
 20
887.047091
 11
1447.181181
 21
875.970708
  0
LINE
  8
CSLAYER1
  6
CONTINUOUS
 62
     3
 10
1427.193322
 20
850.801571
 11
1447.269264
 21
871.728982
  0
LINE
  8
CSLAYER1
  6
CONTINUOUS
 62
     3
 10
1411.317355
 20
866.031597
 11
1431.393298
 21
886.959008
  0
ARC
  8
CSLAYER1
  6
CONTINUOUS
 62
     3
 10
1413.482259
 20
863.954775
 40
3.000000
 50
136.189622
 51
226.189622
  0
ARC
  8
CSLAYER1
  6
CONTINUOUS
 62
     3
 10
1433.558202
 20
884.882186
 40
3.000000
 50
46.189622
 51
136.189622
  0
ARC
  8
CSLAYER1
  6
CONTINUOUS
 62
     3
 10
1425.028417
 20
852.878393
 40
3.000000
 50
226.189622
 51
316.189622
  0
ARC
  8
CSLAYER1
  6
CONTINUOUS
 62
     3
 10
1445.104360
 20
873.805804
 40
3.000000
 50
-43.810378
 51
46.189622
  0
LINE
  8
CSLAYER1
  6
CONTINUOUS
 62
     3
 10
1390.683554
 20
871.968452
 11
1363.388283
 21
811.697775
  0
ARC
  8
CSLAYER1
  6
CONTINUOUS
 62
     3
 10
1605.096934
 20
1145.136605
 40
17.000000
 50
42.544562
 51
100.895989
  0
LINE
  8
CSLAYER1
  6
CONTINUOUS
 62
     3
 10
1617.621713
 20
1156.631383
 11
1640.182397
 21
1132.049128
  0
ARC
  8
CSLAYER1
  6
CONTINUOUS
 62
     3
 10
1592.829142
 20
1133.367949
 40
30.000000
 50
43.810378
 51
92.000063
  0
LINE
  8
CSLAYER1
  6
CONTINUOUS
 62
     3
 10
1670.131221
 20
1007.285085
 11
1852.385026
 21
817.301468
  0
ARC
  8
CSLAYER1
  6
CONTINUOUS
 62
     3
 10
1889.212741
 20
794.801468
 40
13.000000
 50
62.435886
 51
118.531765
  0
POINT
  8
CSLAYER1
 62
     3
 10
1889.212741
 20
794.801468
  0
LINE
  8
CSLAYER1
  6
CONTINUOUS
 62
     3
 10
1549.197303
 20
1126.847777
 11
1592.194988
 21
1082.026460
  0
LINE
  8
CSLAYER1
  6
CONTINUOUS
 62
     3
 10
1670.131221
 20
1007.285085
 11
1653.038386
 21
1018.602550
  0
LINE
  8
CSLAYER1
  6
CONTINUOUS
 62
     3
 10
1538.599182
 20
1144.395707
 11
1549.197303
 21
1126.847777
  0
LINE
  8
CSLAYER1
  6
CONTINUOUS
 62
     3
 10
1538.599182
 20
1144.395707
 11
1430.555166
 21
1257.022123
  0
LINE
  8
CSLAYER1
  6
CONTINUOUS
 62
     3
 10
1412.013164
 20
1350.743057
 11
1591.782124
 21
1163.349672
  0
LINE
  8
CSLAYER1
  6
CONTINUOUS
 62
     3
 10
1883.825258
 20
858.920303
 11
1894.701996
 21
817.301468
  0
LINE
  8
CSLAYER1
  6
CONTINUOUS
 62
     3
 10
1614.478187
 20
1154.136166
 11
1637.924486
 21
1129.695454
  0
ARC
  8
CSLAYER1
  6
CONTINUOUS
 62
     3
 10
1629.610032
 20
1065.414538
 40
50.500000
 50
7.129993
 51
28.315266
  0
LINE
  8
CSLAYER1
  6
CONTINUOUS
 62
     3
 10
1679.719521
 20
1071.682644
 11
1883.825258
 21
858.920303
  0
LINE
  8
CSLAYER1
  6
CONTINUOUS
 62
     3
 10
1421.986587
 20
1284.732811
 11
1381.272893
 21
1344.565139
  0
LINE
  8
CSLAYER1
  6
CONTINUOUS
 62
     3
 10
1421.986587
 20
1284.732811
 11
1425.341236
 21
1267.124601
  0
ARC
  8
CSLAYER1
  6
CONTINUOUS
 62
     3
 10
1444.987863
 20
1270.867601
 40
20.000000
 50
190.786510
 51
223.810378
  0
LINE
  8
CSLAYER1
  6
CONTINUOUS
 62
     3
 10
1629.610032
 20
1043.024555
 11
1653.038386
 21
1018.602550
  0
LINE
  8
CSLAYER1
  6
CONTINUOUS
 62
     3
 10
1492.718453
 20
1019.770992
 11
1517.402708
 21
1004.062063
  0
LINE
  8
CSLAYER1
  6
CENTER
 62
     6
 10
1869.367783
 20
1370.126928
 11
1869.367783
 21
1339.934942
  0
LINE
  8
CSLAYER1
  6
CENTER
 62
     6
 10
1854.004196
 20
1355.065139
 11
1885.353703
 21
1355.065139
  0
ARC
  8
CSLAYER1
  6
CONTINUOUS
 62
     3
 10
1869.367783
 20
1355.065139
 40
13.000000
 50
30.558220
 51
60.792798
  0
ARC
  8
CSLAYER1
  6
CONTINUOUS
 62
     3
 10
1869.367783
 20
1355.065139
 40
13.000000
 50
78.150466
 51
117.215867
  0
ARC
  8
CSLAYER1
  6
CONTINUOUS
 62
     3
 10
1869.367783
 20
1355.065139
 40
13.000000
 50
129.904453
 51
154.186413
  0
POINT
  8
CSLAYER1
 62
     4
 10
1370.007323
 20
794.801468
  0
CIRCLE
  8
CSLAYER1
  6
CONTINUOUS
 62
     3
 10
1370.007323
 20
794.801468
 40
9.500000
  0
LINE
  8
CSLAYER1
  6
CONTINUOUS
 62
     3
 10
1379.507323
 20
800.286295
 11
1370.007323
 21
805.771123
  0
LINE
  8
CSLAYER1
  6
CONTINUOUS
 62
     3
 10
1370.007323
 20
805.771123
 11
1360.507323
 21
800.286295
  0
LINE
  8
CSLAYER1
  6
CONTINUOUS
 62
     3
 10
1360.507323
 20
800.286295
 11
1360.507323
 21
789.316640
  0
LINE
  8
CSLAYER1
  6
CONTINUOUS
 62
     3
 10
1360.507323
 20
789.316640
 11
1370.007323
 21
783.831813
  0
LINE
  8
CSLAYER1
  6
CONTINUOUS
 62
     3
 10
1370.007323
 20
783.831813
 11
1379.507323
 21
789.316640
  0
LINE
  8
CSLAYER1
  6
CONTINUOUS
 62
     3
 10
1379.507323
 20
789.316640
 11
1379.507323
 21
800.286295
  0
LINE
  8
CSLAYER1
  6
CENTER
 62
     6
 10
1871.475212
 20
794.801468
 11
1908.471414
 21
794.801468
  0
LINE
  8
CSLAYER1
  6
CENTER
 62
     6
 10
1889.212741
 20
813.294685
 11
1889.212741
 21
778.832470
  0
ARC
  8
CSLAYER1
  6
CONTINUOUS
 62
     3
 10
1889.212741
 20
794.801468
 40
13.000000
 50
-30.596977
 51
29.035047
  0
ARC
  8
CSLAYER1
  6
CONTINUOUS
 62
     3
 10
1889.212741
 20
794.801468
 40
13.000000
 50
239.433195
 51
304.891780
  0
ARC
  8
CSLAYER1
  6
CONTINUOUS
 62
     3
 10
1889.212741
 20
794.801468
 40
13.000000
 50
145.113852
 51
207.530823
  0
LINE
  8
CSLAYER1
  6
CENTER
 62
     5
 10
759.598497
 20
1428.538418
 11
759.598497
 21
777.301468
  0
LINE
  8
CSLAYER1
  6
CENTER
 62
     5
 10
850.598497
 20
1355.065139
 11
668.598497
 21
1355.065139
  0
LINE
  8
CSLAYER1
  6
CONTINUOUS
 62
     2
 10
814.598497
 20
1358.865139
 11
814.598497
 21
1314.565139
  0
LINE
  8
CSLAYER1
  6
CONTINUOUS
 62
     3
 10
815.598497
 20
1346.415139
 11
814.598497
 21
1346.415139
  0
LINE
  8
CSLAYER1
  6
CONTINUOUS
 62
     3
 10
816.598497
 20
1358.865139
 11
816.598497
 21
1347.415139
  0
LINE
  8
CSLAYER1
  6
CONTINUOUS
 62
     3
 10
816.598497
 20
1347.415139
 11
815.598497
 21
1346.415139
  0
LINE
  8
CSLAYER1
  6
CONTINUOUS
 62
     3
 10
815.598497
 20
1358.865139
 11
815.598497
 21
1346.415139
  0
LINE
  8
CSLAYER1
  6
CONTINUOUS
 62
     3
 10
805.598497
 20
1346.415139
 11
713.598497
 21
1346.415139
  0
LINE
  8
CSLAYER1
  6
CONTINUOUS
 62
     3
 10
817.098497
 20
1344.565139
 11
823.098497
 21
1344.565139
  0
INSERT
  8
CSLAYER1
  2
BLKF0003
 10
0.0
 20
0.0
 30
0.0
  0
LINE
  8
CSLAYER1
  6
CONTINUOUS
 62
     3
 10
823.098497
 20
1358.865139
 11
823.098497
 21
1344.315139
  0
LINE
  8
CSLAYER1
  6
CONTINUOUS
 62
     3
 10
817.098497
 20
1358.865139
 11
817.098497
 21
1344.565139
  0
LINE
  8
CSLAYER1
  6
CONTINUOUS
 62
     3
 10
856.598497
 20
1358.865139
 11
856.598497
 21
1356.565139
  0
LINE
  8
CSLAYER1
  6
CONTINUOUS
 62
     3
 10
856.598497
 20
1356.565139
 11
852.098497
 21
1356.565139
  0
LINE
  8
CSLAYER1
  6
CONTINUOUS
 62
     3
 10
852.098497
 20
1358.865139
 11
852.098497
 21
1356.565139
  0
LINE
  8
CSLAYER1
  6
CONTINUOUS
 62
     3
 10
884.598497
 20
1388.865139
 11
634.598497
 21
1388.865139
  0
LINE
  8
CSLAYER1
  6
CONTINUOUS
 62
     3
 10
884.598497
 20
1358.865139
 11
634.598497
 21
1358.865139
  0
LINE
  8
CSLAYER1
  6
CONTINUOUS
 62
     3
 10
805.598497
 20
817.301468
 11
805.598497
 21
1358.865139
  0
LINE
  8
CSLAYER1
  6
CONTINUOUS
 62
     3
 10
817.598497
 20
817.301468
 11
817.598497
 21
1344.565139
  0
LINE
  8
CSLAYER1
  6
CONTINUOUS
 62
     3
 10
814.598497
 20
817.301468
 11
814.598497
 21
1358.865139
  0
LINE
  8
CSLAYER1
  6
CONTINUOUS
 62
     3
 10
826.598497
 20
817.301468
 11
826.598497
 21
1344.095484
  0
LINE
  8
CSLAYER1
  6
CONTINUOUS
 62
     1
 10
837.098497
 20
783.831813
 11
837.098497
 21
805.771123
  0
LINE
  8
CSLAYER1
  6
CONTINUOUS
 62
     1
 10
834.098497
 20
805.551468
 11
837.098497
 21
805.551468
  0
LINE
  8
CSLAYER1
  6
CONTINUOUS
 62
     1
 10
834.098497
 20
784.051468
 11
837.098497
 21
784.051468
  0
LINE
  8
CSLAYER1
  6
CONTINUOUS
 62
     1
 10
834.098497
 20
793.289271
 11
837.098497
 21
796.789271
  0
LINE
  8
CSLAYER1
  6
CONTINUOUS
 62
     1
 10
845.098497
 20
803.801468
 11
845.098497
 21
785.801468
  0
LINE
  8
CSLAYER1
  6
CONTINUOUS
 62
     1
 10
837.098497
 20
800.286295
 11
843.961316
 21
800.286295
  0
LINE
  8
CSLAYER1
  6
CONTINUOUS
 62
     1
 10
837.098497
 20
805.771123
 11
843.961316
 21
805.771123
  0
LINE
  8
CSLAYER1
  6
CONTINUOUS
 62
     1
 10
845.098497
 20
803.801468
 11
843.961316
 21
805.771123
  0
ARC
  8
CSLAYER1
  6
CONTINUOUS
 62
     1
 10
841.318453
 20
803.028709
 40
3.808617
 50
313.940972
 51
354.338367
  0
ARC
  8
CSLAYER1
  6
CONTINUOUS
 62
     1
 10
831.302753
 20
794.801468
 40
13.795744
 50
-23.426598
 51
23.426598
  0
LINE
  8
CSLAYER1
  6
CONTINUOUS
 62
     1
 10
837.098497
 20
789.316640
 11
843.961316
 21
789.316640
  0
LINE
  8
CSLAYER1
  6
CONTINUOUS
 62
     1
 10
837.098497
 20
783.831813
 11
843.961316
 21
783.831813
  0
LINE
  8
CSLAYER1
  6
CONTINUOUS
 62
     1
 10
845.098497
 20
785.801468
 11
843.961316
 21
783.831813
  0
ARC
  8
CSLAYER1
  6
CONTINUOUS
 62
     1
 10
841.318453
 20
786.574226
 40
3.808617
 50
5.661633
 51
46.059028
  0
LINE
  8
CSLAYER1
  6
CONTINUOUS
 62
     3
 10
838.598497
 20
1358.865139
 11
838.598497
 21
1342.065139
  0
LINE
  8
CSLAYER1
  6
CONTINUOUS
 62
     3
 10
830.598497
 20
1344.095484
 11
830.598497
 21
1342.065139
  0
LINE
  8
CSLAYER1
  6
CONTINUOUS
 62
     3
 10
846.598497
 20
1358.865139
 11
846.598497
 21
1342.065139
  0
LINE
  8
CSLAYER1
  6
CONTINUOUS
 62
     3
 10
847.598497
 20
1358.865139
 11
847.598497
 21
1347.065139
  0
LINE
  8
CSLAYER1
  6
CONTINUOUS
 62
     3
 10
849.598497
 20
1358.865139
 11
849.598497
 21
1350.565139
  0
LINE
  8
CSLAYER1
  6
CONTINUOUS
 62
     3
 10
849.098497
 20
1350.065139
 11
847.598497
 21
1350.065139
  0
LINE
  8
CSLAYER1
  6
CONTINUOUS
 62
     3
 10
847.598497
 20
1347.065139
 11
846.598497
 21
1347.065139
  0
LINE
  8
CSLAYER1
  6
CONTINUOUS
 62
     3
 10
849.098497
 20
1350.065139
 11
849.598497
 21
1350.565139
  0
LINE
  8
CSLAYER1
  6
CONTINUOUS
 62
     3
 10
846.598497
 20
1342.065139
 11
830.598497
 21
1342.065139
  0
LINE
  8
CSLAYER1
  6
CENTER
 62
     6
 10
734.598497
 20
1145.136605
 11
814.598497
 21
1145.136605
  0
LINE
  8
CSLAYER1
  6
CENTER
 62
     6
 10
713.598497
 20
1096.957909
 11
805.598497
 21
1096.957909
  0
LINE
  8
CSLAYER1
  6
CENTER
 62
     6
 10
680.098497
 20
1065.414538
 11
839.098497
 21
1065.414538
  0
LINE
  8
CSLAYER1
  6
CENTER
 62
     6
 10
741.098497
 20
862.429617
 11
799.098497
 21
862.429617
  0
LINE
  8
CSLAYER1
  6
CONTINUOUS
 62
     3
 10
734.598497
 20
1162.136605
 11
746.598497
 21
1162.136605
  0
LINE
  8
CSLAYER1
  6
CONTINUOUS
 62
     3
 10
734.598497
 20
1090.746703
 11
746.598497
 21
1090.746703
  0
LINE
  8
CSLAYER1
  6
CONTINUOUS
 62
     3
 10
713.598497
 20
1121.257909
 11
734.598497
 21
1121.257909
  0
LINE
  8
CSLAYER1
  6
CONTINUOUS
 62
     3
 10
713.598497
 20
1072.914538
 11
752.098497
 21
1072.914538
  0
LINE
  8
CSLAYER1
  6
CONTINUOUS
 62
     3
 10
713.598497
 20
1057.914538
 11
752.098497
 21
1057.914538
  0
LINE
  8
CSLAYER1
  6
CONTINUOUS
 62
     3
 10
741.098497
 20
827.186953
 11
747.098497
 21
827.186953
  0
LINE
  8
CSLAYER1
  6
CONTINUOUS
 62
     3
 10
713.598497
 20
845.227825
 11
725.948497
 21
845.227825
  0
LINE
  8
CSLAYER1
  6
CONTINUOUS
 62
     3
 10
741.098497
 20
878.429617
 11
747.098497
 21
878.429617
  0
LINE
  8
CSLAYER1
  6
CONTINUOUS
 62
     3
 10
799.098497
 20
827.186953
 11
799.098497
 21
878.429617
  0
LINE
  8
CSLAYER1
  6
CONTINUOUS
 62
     3
 10
793.098497
 20
827.186953
 11
793.098497
 21
878.429617
  0
LINE
  8
CSLAYER1
  6
CONTINUOUS
 62
     3
 10
747.098497
 20
827.186953
 11
747.098497
 21
878.429617
  0
LINE
  8
CSLAYER1
  6
CONTINUOUS
 62
     3
 10
741.098497
 20
827.186953
 11
741.098497
 21
878.429617
  0
LINE
  8
CSLAYER1
  6
CONTINUOUS
 62
     3
 10
793.098497
 20
878.429617
 11
799.098497
 21
878.429617
  0
LINE
  8
CSLAYER1
  6
CONTINUOUS
 62
     3
 10
793.098497
 20
827.186953
 11
799.098497
 21
827.186953
  0
LINE
  8
CSLAYER1
  6
CONTINUOUS
 62
     3
 10
814.598497
 20
845.227825
 11
817.598497
 21
845.227825
  0
LINE
  8
CSLAYER1
  6
CONTINUOUS
 62
     3
 10
799.098497
 20
845.227825
 11
805.598497
 21
845.227825
  0
LINE
  8
CSLAYER1
  6
CONTINUOUS
 62
     3
 10
747.098497
 20
845.227825
 11
793.098497
 21
845.227825
  0
LINE
  8
CSLAYER1
  6
CONTINUOUS
 62
     3
 10
734.598497
 20
1090.746703
 11
734.598497
 21
1162.136605
  0
LINE
  8
CSLAYER1
  6
CONTINUOUS
 62
     3
 10
746.598497
 20
1090.746703
 11
746.598497
 21
1162.136605
  0
LINE
  8
CSLAYER1
  6
CONTINUOUS
 62
     3
 10
793.598497
 20
1090.746703
 11
793.598497
 21
1162.136605
  0
LINE
  8
CSLAYER1
  6
CONTINUOUS
 62
     3
 10
793.598497
 20
1090.746703
 11
805.598497
 21
1090.746703
  0
LINE
  8
CSLAYER1
  6
CONTINUOUS
 62
     3
 10
746.598497
 20
1121.257909
 11
752.098497
 21
1121.257909
  0
LINE
  8
CSLAYER1
  6
CONTINUOUS
 62
     3
 10
793.598497
 20
1162.136605
 11
805.598497
 21
1162.136605
  0
LINE
  8
CSLAYER1
  6
CONTINUOUS
 62
     3
 10
838.098497
 20
1070.414538
 11
837.598497
 21
1070.414538
  0
LINE
  8
CSLAYER1
  6
CONTINUOUS
 62
     3
 10
826.598497
 20
1056.914538
 11
827.098497
 21
1056.914538
  0
LINE
  8
CSLAYER1
  6
CONTINUOUS
 62
     3
 10
826.598497
 20
1073.914538
 11
827.098497
 21
1073.914538
  0
LINE
  8
CSLAYER1
  6
CONTINUOUS
 62
     3
 10
827.098497
 20
1054.914538
 11
827.098497
 21
1075.914538
  0
LINE
  8
CSLAYER1
  6
CONTINUOUS
 62
     3
 10
839.098497
 20
1069.414538
 11
839.098497
 21
1061.414538
  0
LINE
  8
CSLAYER1
  6
CONTINUOUS
 62
     3
 10
817.598497
 20
1051.414538
 11
814.598497
 21
1051.414538
  0
LINE
  8
CSLAYER1
  6
CONTINUOUS
 62
     3
 10
817.598497
 20
1079.414538
 11
814.598497
 21
1079.414538
  0
LINE
  8
CSLAYER1
  6
CONTINUOUS
 62
     3
 10
829.098497
 20
1054.914538
 11
829.098497
 21
1075.914538
  0
LINE
  8
CSLAYER1
  6
CONTINUOUS
 62
     3
 10
831.598497
 20
1056.214538
 11
831.598497
 21
1074.614538
  0
LINE
  8
CSLAYER1
  6
CONTINUOUS
 62
     3
 10
831.598497
 20
1074.614538
 11
829.098497
 21
1074.614538
  0
LINE
  8
CSLAYER1
  6
CONTINUOUS
 62
     3
 10
829.098497
 20
1075.914538
 11
827.098497
 21
1075.914538
  0
LINE
  8
CSLAYER1
  6
CONTINUOUS
 62
     3
 10
831.598497
 20
1056.214538
 11
829.098497
 21
1056.214538
  0
LINE
  8
CSLAYER1
  6
CONTINUOUS
 62
     3
 10
829.098497
 20
1054.914538
 11
827.098497
 21
1054.914538
  0
LINE
  8
CSLAYER1
  6
CONTINUOUS
 62
     3
 10
837.598497
 20
1056.914538
 11
837.598497
 21
1073.914538
  0
LINE
  8
CSLAYER1
  6
CONTINUOUS
 62
     3
 10
838.098497
 20
1070.414538
 11
839.098497
 21
1069.414538
  0
LINE
  8
CSLAYER1
  6
CONTINUOUS
 62
     3
 10
838.798497
 20
1069.714538
 11
837.598497
 21
1069.714538
  0
LINE
  8
CSLAYER1
  6
CONTINUOUS
 62
     3
 10
838.098497
 20
1070.414538
 11
838.098497
 21
1060.414538
  0
LINE
  8
CSLAYER1
  6
CONTINUOUS
 62
     3
 10
836.839308
 20
1075.229492
 11
832.357686
 21
1075.229492
  0
LINE
  8
CSLAYER1
  6
CONTINUOUS
 62
     3
 10
836.839308
 20
1070.322015
 11
832.357686
 21
1070.322015
  0
LINE
  8
CSLAYER1
  6
CONTINUOUS
 62
     3
 10
837.598497
 20
1073.914538
 11
836.839308
 21
1075.229492
  0
ARC
  8
CSLAYER1
  6
CONTINUOUS
 62
     3
 10
821.357686
 20
1065.414538
 40
16.240811
 50
-17.587954
 51
17.587954
  0
ARC
  8
CSLAYER1
  6
CONTINUOUS
 62
     3
 10
833.257573
 20
1072.775753
 40
4.341619
 50
-34.413868
 51
27.480777
  0
LINE
  8
CSLAYER1
  6
CONTINUOUS
 62
     3
 10
837.598497
 20
1056.914538
 11
836.839308
 21
1055.599583
  0
ARC
  8
CSLAYER1
  6
CONTINUOUS
 62
     3
 10
833.257573
 20
1058.053322
 40
4.341619
 50
-27.480777
 51
34.413868
  0
LINE
  8
CSLAYER1
  6
CONTINUOUS
 62
     3
 10
831.598497
 20
1073.914538
 11
832.357686
 21
1075.229492
  0
ARC
  8
CSLAYER1
  6
CONTINUOUS
 62
     3
 10
847.839308
 20
1065.414538
 40
16.240811
 50
162.412046
 51
197.587954
  0
ARC
  8
CSLAYER1
  6
CONTINUOUS
 62
     3
 10
835.939421
 20
1072.775753
 40
4.341619
 50
152.519223
 51
214.413868
  0
LINE
  8
CSLAYER1
  6
CONTINUOUS
 62
     3
 10
831.598497
 20
1056.914538
 11
832.357686
 21
1055.599583
  0
ARC
  8
CSLAYER1
  6
CONTINUOUS
 62
     3
 10
835.939421
 20
1058.053322
 40
4.341619
 50
145.586132
 51
207.480777
  0
LINE
  8
CSLAYER1
  6
CONTINUOUS
 62
     3
 10
836.839308
 20
1055.599583
 11
832.357686
 21
1055.599583
  0
LINE
  8
CSLAYER1
  6
CONTINUOUS
 62
     3
 10
836.839308
 20
1060.507060
 11
832.357686
 21
1060.507060
  0
LINE
  8
CSLAYER1
  6
CONTINUOUS
 62
     3
 10
838.098497
 20
1060.414538
 11
837.598497
 21
1060.414538
  0
LINE
  8
CSLAYER1
  6
CONTINUOUS
 62
     3
 10
838.098497
 20
1060.414538
 11
839.098497
 21
1061.414538
  0
LINE
  8
CSLAYER1
  6
CONTINUOUS
 62
     3
 10
838.798497
 20
1061.114538
 11
837.598497
 21
1061.114538
  0
LINE
  8
CSLAYER1
  6
CONTINUOUS
 62
     3
 10
829.098497
 20
1063.513090
 11
831.598497
 21
1066.882655
  0
LINE
  8
CSLAYER1
  6
CONTINUOUS
 62
     3
 10
681.098497
 20
1070.414538
 11
681.598497
 21
1070.414538
  0
LINE
  8
CSLAYER1
  6
CONTINUOUS
 62
     3
 10
692.598497
 20
1056.914538
 11
692.098497
 21
1056.914538
  0
LINE
  8
CSLAYER1
  6
CONTINUOUS
 62
     3
 10
692.598497
 20
1073.914538
 11
692.098497
 21
1073.914538
  0
LINE
  8
CSLAYER1
  6
CONTINUOUS
 62
     3
 10
692.098497
 20
1054.914538
 11
692.098497
 21
1075.914538
  0
LINE
  8
CSLAYER1
  6
CONTINUOUS
 62
     3
 10
680.098497
 20
1069.414538
 11
680.098497
 21
1061.414538
  0
LINE
  8
CSLAYER1
  6
CONTINUOUS
 62
     3
 10
701.598497
 20
1051.414538
 11
704.598497
 21
1051.414538
  0
LINE
  8
CSLAYER1
  6
CONTINUOUS
 62
     3
 10
701.598497
 20
1079.414538
 11
704.598497
 21
1079.414538
  0
LINE
  8
CSLAYER1
  6
CONTINUOUS
 62
     3
 10
690.098497
 20
1054.914538
 11
690.098497
 21
1075.914538
  0
LINE
  8
CSLAYER1
  6
CONTINUOUS
 62
     3
 10
687.598497
 20
1056.214538
 11
687.598497
 21
1074.614538
  0
LINE
  8
CSLAYER1
  6
CONTINUOUS
 62
     3
 10
687.598497
 20
1074.614538
 11
690.098497
 21
1074.614538
  0
LINE
  8
CSLAYER1
  6
CONTINUOUS
 62
     3
 10
690.098497
 20
1075.914538
 11
692.098497
 21
1075.914538
  0
LINE
  8
CSLAYER1
  6
CONTINUOUS
 62
     3
 10
687.598497
 20
1056.214538
 11
690.098497
 21
1056.214538
  0
LINE
  8
CSLAYER1
  6
CONTINUOUS
 62
     3
 10
690.098497
 20
1054.914538
 11
692.098497
 21
1054.914538
  0
LINE
  8
CSLAYER1
  6
CONTINUOUS
 62
     3
 10
681.598497
 20
1056.914538
 11
681.598497
 21
1073.914538
  0
LINE
  8
CSLAYER1
  6
CONTINUOUS
 62
     3
 10
681.098497
 20
1070.414538
 11
680.098497
 21
1069.414538
  0
LINE
  8
CSLAYER1
  6
CONTINUOUS
 62
     3
 10
680.398497
 20
1069.714538
 11
681.598497
 21
1069.714538
  0
LINE
  8
CSLAYER1
  6
CONTINUOUS
 62
     3
 10
681.098497
 20
1070.414538
 11
681.098497
 21
1060.414538
  0
LINE
  8
CSLAYER1
  6
CONTINUOUS
 62
     3
 10
682.357686
 20
1075.229492
 11
686.839308
 21
1075.229492
  0
LINE
  8
CSLAYER1
  6
CONTINUOUS
 62
     3
 10
682.357686
 20
1070.322015
 11
686.839308
 21
1070.322015
  0
LINE
  8
CSLAYER1
  6
CONTINUOUS
 62
     3
 10
681.598497
 20
1073.914538
 11
682.357686
 21
1075.229492
  0
ARC
  8
CSLAYER1
  6
CONTINUOUS
 62
     3
 10
697.839308
 20
1065.414538
 40
16.240811
 50
162.412046
 51
197.587954
  0
ARC
  8
CSLAYER1
  6
CONTINUOUS
 62
     3
 10
685.939421
 20
1072.775753
 40
4.341619
 50
152.519223
 51
214.413868
  0
LINE
  8
CSLAYER1
  6
CONTINUOUS
 62
     3
 10
681.598497
 20
1056.914538
 11
682.357686
 21
1055.599583
  0
ARC
  8
CSLAYER1
  6
CONTINUOUS
 62
     3
 10
685.939421
 20
1058.053322
 40
4.341619
 50
145.586132
 51
207.480777
  0
LINE
  8
CSLAYER1
  6
CONTINUOUS
 62
     3
 10
687.598497
 20
1073.914538
 11
686.839308
 21
1075.229492
  0
ARC
  8
CSLAYER1
  6
CONTINUOUS
 62
     3
 10
671.357686
 20
1065.414538
 40
16.240811
 50
-17.587954
 51
17.587954
  0
ARC
  8
CSLAYER1
  6
CONTINUOUS
 62
     3
 10
683.257573
 20
1072.775753
 40
4.341619
 50
-34.413868
 51
27.480777
  0
LINE
  8
CSLAYER1
  6
CONTINUOUS
 62
     3
 10
687.598497
 20
1056.914538
 11
686.839308
 21
1055.599583
  0
ARC
  8
CSLAYER1
  6
CONTINUOUS
 62
     3
 10
683.257573
 20
1058.053322
 40
4.341619
 50
-27.480777
 51
34.413868
  0
LINE
  8
CSLAYER1
  6
CONTINUOUS
 62
     3
 10
682.357686
 20
1055.599583
 11
686.839308
 21
1055.599583
  0
LINE
  8
CSLAYER1
  6
CONTINUOUS
 62
     3
 10
682.357686
 20
1060.507060
 11
686.839308
 21
1060.507060
  0
LINE
  8
CSLAYER1
  6
CONTINUOUS
 62
     3
 10
681.098497
 20
1060.414538
 11
681.598497
 21
1060.414538
  0
LINE
  8
CSLAYER1
  6
CONTINUOUS
 62
     3
 10
681.098497
 20
1060.414538
 11
680.098497
 21
1061.414538
  0
LINE
  8
CSLAYER1
  6
CONTINUOUS
 62
     3
 10
680.398497
 20
1061.114538
 11
681.598497
 21
1061.114538
  0
LINE
  8
CSLAYER1
  6
CONTINUOUS
 62
     3
 10
690.098497
 20
1063.513090
 11
687.598497
 21
1066.882655
  0
LINE
  8
CSLAYER1
  6
CONTINUOUS
 62
     3
 10
692.598497
 20
817.301468
 11
692.598497
 21
1344.095484
  0
LINE
  8
CSLAYER1
  6
CONTINUOUS
 62
     3
 10
701.598497
 20
817.301468
 11
701.598497
 21
1344.565139
  0
LINE
  8
CSLAYER1
  6
CONTINUOUS
 62
     3
 10
704.598497
 20
817.301468
 11
704.598497
 21
1358.865139
  0
LINE
  8
CSLAYER1
  6
CONTINUOUS
 62
     3
 10
713.598497
 20
817.301468
 11
713.598497
 21
1358.865139
  0
LINE
  8
CSLAYER1
  6
CONTINUOUS
 62
     3
 10
704.598497
 20
845.227825
 11
701.598497
 21
845.227825
  0
INSERT
  8
CSLAYER1
  2
BLKF0004
 10
0.0
 20
0.0
 30
0.0
  0
LINE
  8
CSLAYER1
  6
CONTINUOUS
 62
     3
 10
788.098497
 20
1121.257909
 11
793.598497
 21
1121.257909
  0
LINE
  8
CSLAYER1
  6
CONTINUOUS
 62
     3
 10
788.098497
 20
1072.914538
 11
805.598497
 21
1072.914538
  0
LINE
  8
CSLAYER1
  6
CONTINUOUS
 62
     3
 10
788.098497
 20
1057.914538
 11
805.598497
 21
1057.914538
  0
LINE
  8
CSLAYER1
  6
CONTINUOUS
 62
     3
 10
734.248497
 20
845.227825
 11
741.098497
 21
845.227825
  0
LINE
  8
CSLAYER1
  6
CENTER
 62
     6
 10
1433.417019
 20
857.189982
 11
1416.227614
 21
868.129227
  0
LINE
  8
CSLAYER1
  6
CENTER
 62
     6
 10
770.098497
 20
845.227825
 11
770.098497
 21
1158.736605
  0
CIRCLE
  8
CSLAYER1
  6
CONTINUOUS
 62
     3
 10
729.598497
 20
788.951468
 40
4.150000
  0
LINE
  8
CSLAYER1
  6
CONTINUOUS
 62
     3
 10
1205.212667
 20
795.951468
 11
1345.007323
 21
795.951468
  0
LINE
  8
CSLAYER1
  6
CENTER
 62
     5
 10
1205.212667
 20
791.801468
 11
1345.007323
 21
791.801468
  0
LINE
  8
CSLAYER1
  6
CONTINUOUS
 62
     3
 10
1205.212667
 20
787.651468
 11
1345.007323
 21
787.651468
  0
DIMENSION
  8
CSLAYER1
 62
     3
  2
*D0000
 10
2361.716477
 20
1388.865139
 11
2353.716553
 21
1083.083252
 13
2168.007323
 23
777.301468
 14
2187.552282
 24
1388.865139
 50
90.000000
  0
DIMENSION
  8
CSLAYER1
 62
     3
  2
*D0001
 10
1367.552282
 20
1231.140840
 11
1169.223511
 21
1242.885376
 13
1347.707323
 23
847.301468
 14
1367.552282
 24
1368.865139
  0
INSERT
  8
CSLAYER1
  2
EASYDRAWDIM0000
 10
0.0
 20
0.0
 30
0.0
  0
INSERT
  8
CSLAYER1
  2
EASYDRAWDIM0001
 10
0.0
 20
0.0
 30
0.0
  0
INSERT
  8
CSLAYER1
  2
EASYDRAWDIM0002
 10
0.0
 20
0.0
 30
0.0
  0
LINE
  8
CSLAYER1
  6
CONTINUOUS
 62
     6
 10
1484.287566
 20
1006.523102
 11
1254.889071
 21
1149.311961
  0
LINE
  8
CSLAYER1
  6
CONTINUOUS
 62
     6
 10
1484.287566
 20
1006.523102
 11
1455.583182
 21
1015.244246
  0
LINE
  8
CSLAYER1
  6
CONTINUOUS
 62
     6
 10
1484.287566
 20
1006.523102
 11
1463.789413
 21
1028.428026
  0
DIMENSION
  8
CSLAYER1
 62
     3
  2
*D0002
 10
994.692288
 20
783.301468
 11
986.692200
 21
827.521484
 13
907.598497
 23
777.301468
 14
907.598497
 24
783.301468
 50
90.000000
 70
1
  0
DIMENSION
  8
CSLAYER1
 62
     3
  2
*D0003
 10
884.598497
 20
702.469899
 11
759.598450
 21
710.469849
 13
634.598497
 23
779.301468
 14
884.598497
 24
779.301468
 52
270.000000
 70
1
  0
DIMENSION
  8
CSLAYER1
 62
     3
  2
*D0004
 10
909.598497
 20
633.096442
 11
759.598450
 21
641.096436
 13
609.598497
 23
779.301468
 14
909.598497
 24
779.301468
 52
270.000000
 70
1
  0
DIMENSION
  8
CSLAYER1
 62
     3
  2
*D0005
 10
1370.007323
 20
702.469899
 11
1380.099976
 21
686.901733
 13
1345.007323
 23
623.765651
 14
1370.007323
 24
796.801468
  0
LINE
  8
CSLAYER1
  6
CONTINUOUS
 62
     6
 10
884.598497
 20
777.301468
 11
980.506143
 21
694.399731
  0
LINE
  8
CSLAYER1
  6
CONTINUOUS
 62
     6
 10
884.598497
 20
777.301468
 11
911.598972
 21
764.225752
  0
LINE
  8
CSLAYER1
  6
CONTINUOUS
 62
     6
 10
884.598497
 20
777.301468
 11
901.443737
 21
752.477328
  0
LINE
  8
CSLAYER1
  6
CONTINUOUS
 62
     6
 10
1370.007323
 20
777.301468
 11
1266.102807
 21
694.399731
  0
LINE
  8
CSLAYER1
  6
CONTINUOUS
 62
     6
 10
1370.007323
 20
777.301468
 11
1352.198489
 21
753.159276
  0
LINE
  8
CSLAYER1
  6
CONTINUOUS
 62
     6
 10
1370.007323
 20
777.301468
 11
1342.513325
 21
765.298133
  0
LINE
  8
CSLAYER1
  6
CENTER
 62
     6
 10
1590.533870
 20
1145.136605
 11
1619.474756
 21
1145.136605
  0
LINE
  8
CSLAYER1
  6
CENTER
 62
     6
 10
1605.096934
 20
1156.954064
 11
1605.096934
 21
1128.755252
  0
LINE
  8
CSLAYER1
  6
CENTER
 62
     6
 10
1615.046968
 20
1065.414538
 11
1643.987853
 21
1065.414538
  0
LINE
  8
CSLAYER1
  6
CENTER
 62
     6
 10
1629.610032
 20
1077.231996
 11
1629.610032
 21
1049.033185
  0
LINE
  8
CSLAYER1
  6
CONTINUOUS
 62
     3
 10
1345.007323
 20
1971.095342
 11
1345.007323
 21
1805.245342
  0
LINE
  8
CSLAYER1
  6
CENTER
 62
     6
 10
1311.286827
 20
1945.245342
 11
2147.707323
 21
1945.245342
  0
LINE
  8
CSLAYER1
  6
CONTINUOUS
 62
     3
 10
1395.007323
 20
1805.245342
 11
1395.007323
 21
1820.245342
  0
LINE
  8
CSLAYER1
  6
CONTINUOUS
 62
     3
 10
1355.007323
 20
1795.245342
 11
1385.007323
 21
1795.245342
  0
INSERT
  8
CSLAYER1
  2
BLKF0005
 10
0.0
 20
0.0
 30
0.0
  0
ARC
  8
CSLAYER1
  6
CONTINUOUS
 62
     3
 10
1355.007323
 20
1805.245342
 40
10.000000
 50
180.000000
 51
270.000000
  0
ARC
  8
CSLAYER1
  6
CONTINUOUS
 62
     3
 10
1385.007323
 20
1805.245342
 40
10.000000
 50
270.000000
 51
360.000000
  0
LINE
  8
CSLAYER1
  6
CENTER
 62
     5
 10
1120.611164
 20
1975.245342
 11
1348.007323
 21
1975.245342
  0
LINE
  8
CSLAYER1
  6
CONTINUOUS
 62
     3
 10
1120.611164
 20
1979.395342
 11
1347.707323
 21
1979.395342
  0
LINE
  8
CSLAYER1
  6
CONTINUOUS
 62
     3
 10
1120.611164
 20
1971.095342
 11
1347.707323
 21
1971.095342
  0
LINE
  8
CSLAYER1
  6
CONTINUOUS
 62
     3
 10
1345.007323
 20
1979.395342
 11
1345.007323
 21
2085.245342
  0
LINE
  8
CSLAYER1
  6
CONTINUOUS
 62
     3
 10
1395.007323
 20
2085.245342
 11
1395.007323
 21
2070.245342
  0
LINE
  8
CSLAYER1
  6
CONTINUOUS
 62
     3
 10
1355.007323
 20
2095.245342
 11
1385.007323
 21
2095.245342
  0
INSERT
  8
CSLAYER1
  2
BLKF0006
 10
0.0
 20
0.0
 30
0.0
  0
ARC
  8
CSLAYER1
  6
CONTINUOUS
 62
     3
 10
1355.007323
 20
2085.245342
 40
10.000000
 50
90.000000
 51
180.000000
  0
ARC
  8
CSLAYER1
  6
CONTINUOUS
 62
     3
 10
1385.007323
 20
2085.245342
 40
10.000000
 50
0.000000
 51
90.000000
  0
LINE
  8
CSLAYER1
  6
CONTINUOUS
 62
     3
 10
1347.707323
 20
2070.245342
 11
1347.707323
 21
1820.245342
  0
ARC
  8
CSLAYER1
  6
CONTINUOUS
 62
     3
 10
1370.007323
 20
2070.245342
 40
6.500000
 50
0.000000
 51
180.000000
  0
ARC
  8
CSLAYER1
  6
CONTINUOUS
 62
     3
 10
1370.007323
 20
1820.245342
 40
6.500000
 50
180.000000
 51
360.000000
  0
LINE
  8
CSLAYER1
  6
CONTINUOUS
 62
     3
 10
2147.707323
 20
1820.245342
 11
2147.707323
 21
2070.245342
  0
LINE
  8
CSLAYER1
  6
CONTINUOUS
 62
     1
 10
682.098497
 20
783.831813
 11
682.098497
 21
805.771123
  0
LINE
  8
CSLAYER1
  6
CONTINUOUS
 62
     1
 10
685.098497
 20
805.551468
 11
682.098497
 21
805.551468
  0
LINE
  8
CSLAYER1
  6
CONTINUOUS
 62
     1
 10
685.098497
 20
784.051468
 11
682.098497
 21
784.051468
  0
LINE
  8
CSLAYER1
  6
CONTINUOUS
 62
     1
 10
685.098497
 20
793.289271
 11
682.098497
 21
796.789271
  0
LINE
  8
CSLAYER1
  6
CONTINUOUS
 62
     1
 10
674.098497
 20
803.801468
 11
674.098497
 21
785.801468
  0
LINE
  8
CSLAYER1
  6
CONTINUOUS
 62
     1
 10
682.098497
 20
800.286295
 11
675.235678
 21
800.286295
  0
LINE
  8
CSLAYER1
  6
CONTINUOUS
 62
     1
 10
682.098497
 20
805.771123
 11
675.235678
 21
805.771123
  0
LINE
  8
CSLAYER1
  6
CONTINUOUS
 62
     1
 10
674.098497
 20
803.801468
 11
675.235678
 21
805.771123
  0
ARC
  8
CSLAYER1
  6
CONTINUOUS
 62
     1
 10
677.878541
 20
803.028709
 40
3.808617
 50
185.661633
 51
226.059028
  0
ARC
  8
CSLAYER1
  6
CONTINUOUS
 62
     1
 10
687.894241
 20
794.801468
 40
13.795744
 50
156.573402
 51
203.426598
  0
LINE
  8
CSLAYER1
  6
CONTINUOUS
 62
     1
 10
682.098497
 20
789.316640
 11
675.235678
 21
789.316640
  0
LINE
  8
CSLAYER1
  6
CONTINUOUS
 62
     1
 10
682.098497
 20
783.831813
 11
675.235678
 21
783.831813
  0
LINE
  8
CSLAYER1
  6
CONTINUOUS
 62
     1
 10
674.098497
 20
785.801468
 11
675.235678
 21
783.831813
  0
ARC
  8
CSLAYER1
  6
CONTINUOUS
 62
     1
 10
677.878541
 20
786.574226
 40
3.808617
 50
133.940972
 51
174.338367
  0
LINE
  8
CSLAYER1
  6
CONTINUOUS
 62
     2
 10
704.598497
 20
1358.865139
 11
704.598497
 21
1314.565139
  0
LINE
  8
CSLAYER1
  6
CONTINUOUS
 62
     3
 10
703.598497
 20
1346.415139
 11
704.598497
 21
1346.415139
  0
LINE
  8
CSLAYER1
  6
CONTINUOUS
 62
     3
 10
702.598497
 20
1358.865139
 11
702.598497
 21
1347.415139
  0
LINE
  8
CSLAYER1
  6
CONTINUOUS
 62
     3
 10
702.598497
 20
1347.415139
 11
703.598497
 21
1346.415139
  0
LINE
  8
CSLAYER1
  6
CONTINUOUS
 62
     3
 10
703.598497
 20
1358.865139
 11
703.598497
 21
1346.415139
  0
LINE
  8
CSLAYER1
  6
CONTINUOUS
 62
     3
 10
702.098497
 20
1344.565139
 11
696.098497
 21
1344.565139
  0
INSERT
  8
CSLAYER1
  2
BLKF0007
 10
0.0
 20
0.0
 30
0.0
  0
LINE
  8
CSLAYER1
  6
CONTINUOUS
 62
     3
 10
696.098497
 20
1358.865139
 11
696.098497
 21
1344.315139
  0
LINE
  8
CSLAYER1
  6
CONTINUOUS
 62
     3
 10
702.098497
 20
1358.865139
 11
702.098497
 21
1344.565139
  0
LINE
  8
CSLAYER1
  6
CONTINUOUS
 62
     3
 10
662.598497
 20
1358.865139
 11
662.598497
 21
1356.565139
  0
LINE
  8
CSLAYER1
  6
CONTINUOUS
 62
     3
 10
662.598497
 20
1356.565139
 11
667.098497
 21
1356.565139
  0
LINE
  8
CSLAYER1
  6
CONTINUOUS
 62
     3
 10
667.098497
 20
1358.865139
 11
667.098497
 21
1356.565139
  0
LINE
  8
CSLAYER1
  6
CONTINUOUS
 62
     3
 10
680.598497
 20
1358.865139
 11
680.598497
 21
1342.065139
  0
LINE
  8
CSLAYER1
  6
CONTINUOUS
 62
     3
 10
688.598497
 20
1344.095484
 11
688.598497
 21
1342.065139
  0
LINE
  8
CSLAYER1
  6
CONTINUOUS
 62
     3
 10
672.598497
 20
1358.865139
 11
672.598497
 21
1342.065139
  0
LINE
  8
CSLAYER1
  6
CONTINUOUS
 62
     3
 10
671.598497
 20
1358.865139
 11
671.598497
 21
1347.065139
  0
LINE
  8
CSLAYER1
  6
CONTINUOUS
 62
     3
 10
669.598497
 20
1358.865139
 11
669.598497
 21
1350.565139
  0
LINE
  8
CSLAYER1
  6
CONTINUOUS
 62
     3
 10
670.098497
 20
1350.065139
 11
671.598497
 21
1350.065139
  0
LINE
  8
CSLAYER1
  6
CONTINUOUS
 62
     3
 10
671.598497
 20
1347.065139
 11
672.598497
 21
1347.065139
  0
LINE
  8
CSLAYER1
  6
CONTINUOUS
 62
     3
 10
670.098497
 20
1350.065139
 11
669.598497
 21
1350.565139
  0
LINE
  8
CSLAYER1
  6
CONTINUOUS
 62
     3
 10
672.598497
 20
1342.065139
 11
688.598497
 21
1342.065139
  0
TEXT
  8
CSLAYER1
 62
     5
 10
2916.541471
 20
780.908741
 40
31.844261
 41
0.920655
  1
Ｆ.Ｌ
 50
0.000000
 51
0.000000
  7
EASYDRAW_FONT
 72
     5
 11
2994.721712
 21
780.908741
  0
LINE
  8
CSLAYER1
  6
CENTER
 62
     5
 10
2697.019541
 20
777.301468
 11
2697.019541
 21
857.301468
  0
LINE
  8
CSLAYER1
  6
CENTER
 62
     5
 10
2822.019541
 20
768.372107
 11
2822.019541
 21
792.582068
  0
LINE
  8
CSLAYER1
  6
CENTER
 62
     5
 10
2572.019541
 20
768.372107
 11
2572.019541
 21
792.582068
  0
LINE
  8
CSLAYER1
  6
CONTINUOUS
 62
     3
 10
2597.019541
 20
817.301468
 11
2597.019541
 21
777.301468
  0
LINE
  8
CSLAYER1
  6
CONTINUOUS
 62
     3
 10
2797.019541
 20
817.301468
 11
2797.019541
 21
777.301468
  0
LINE
  8
CSLAYER1
  6
CONTINUOUS
 62
     3
 10
2847.019541
 20
777.301468
 11
2847.019541
 21
783.301468
  0
LINE
  8
CSLAYER1
  6
CONTINUOUS
 62
     3
 10
2847.019541
 20
783.301468
 11
2797.019541
 21
783.301468
  0
LINE
  8
CSLAYER1
  6
CONTINUOUS
 62
     3
 10
2547.019541
 20
777.301468
 11
2547.019541
 21
783.301468
  0
LINE
  8
CSLAYER1
  6
CONTINUOUS
 62
     3
 10
2547.019541
 20
783.301468
 11
2597.019541
 21
783.301468
  0
TEXT
  8
CSLAYER1
 62
     7
 10
2639.375244
 20
928.682556
 40
40.000000
 41
0.843750
  1
下降時
 50
0.000000
 51
0.000000
  7
EASYDRAW_FONT
 72
     5
 11
2729.375244
 21
928.682556
  0
LINE
  8
CSLAYER1
  6
CONTINUOUS
 62
     5
 10
2625.768734
 20
975.112707
 11
2748.726744
 21
975.112707
  0
LINE
  8
CSLAYER1
  6
CONTINUOUS
 62
     5
 10
2748.726744
 20
975.112707
 11
2748.726744
 21
922.252254
  0
LINE
  8
CSLAYER1
  6
CONTINUOUS
 62
     5
 10
2748.726744
 20
922.252254
 11
2625.768734
 21
922.252254
  0
LINE
  8
CSLAYER1
  6
CONTINUOUS
 62
     5
 10
2625.768734
 20
922.252254
 11
2625.768734
 21
975.112707
  0
LINE
  8
CSLAYER1
  6
CONTINUOUS
 62
     3
 10
2572.019541
 20
857.301468
 11
2822.019541
 21
857.301468
  0
LINE
  8
CSLAYER1
  6
CONTINUOUS
 62
     3
 10
2572.019541
 20
827.301468
 11
2822.019541
 21
827.301468
  0
LINE
  8
CSLAYER1
  6
CONTINUOUS
 62
     3
 10
2597.019541
 20
817.301468
 11
2797.019541
 21
817.301468
  0
DIMENSION
  8
CSLAYER1
 62
     3
  2
*D0006
 10
2469.567079
 20
857.301468
 11
2459.567139
 21
817.301453
 13
2511.382172
 23
777.301468
 14
2561.382172
 24
857.301468
 50
90.000000
  0
LINE
  8
CSLAYER1
  6
CONTINUOUS
 62
     3
 10
2794.019541
 20
827.301468
 11
2794.019541
 21
825.001468
  0
LINE
  8
CSLAYER1
  6
CONTINUOUS
 62
     3
 10
2794.019541
 20
825.001468
 11
2789.519541
 21
825.001468
  0
LINE
  8
CSLAYER1
  6
CONTINUOUS
 62
     3
 10
2789.519541
 20
827.301468
 11
2789.519541
 21
825.001468
  0
LINE
  8
CSLAYER1
  6
CONTINUOUS
 62
     3
 10
2776.019541
 20
827.301468
 11
2776.019541
 21
817.301468
  0
LINE
  8
CSLAYER1
  6
CONTINUOUS
 62
     3
 10
2784.019541
 20
827.301468
 11
2784.019541
 21
817.301468
  0
LINE
  8
CSLAYER1
  6
CONTINUOUS
 62
     3
 10
2785.019541
 20
827.301468
 11
2785.019541
 21
817.301468
  0
LINE
  8
CSLAYER1
  6
CONTINUOUS
 62
     3
 10
2787.019541
 20
827.301468
 11
2787.019541
 21
819.001468
  0
LINE
  8
CSLAYER1
  6
CONTINUOUS
 62
     3
 10
2786.519541
 20
818.501468
 11
2785.019541
 21
818.501468
  0
LINE
  8
CSLAYER1
  6
CONTINUOUS
 62
     3
 10
2786.519541
 20
818.501468
 11
2787.019541
 21
819.001468
  0
LINE
  8
CSLAYER1
  6
CENTER
 62
     5
 10
2788.019541
 20
823.501468
 11
2606.019541
 21
823.501468
  0
LINE
  8
CSLAYER1
  6
CONTINUOUS
 62
     3
 10
2768.019541
 20
827.301468
 11
2768.019541
 21
817.301468
  0
LINE
  8
CSLAYER1
  6
CONTINUOUS
 62
     3
 10
2743.019541
 20
817.301468
 11
2743.019541
 21
827.301468
  0
LINE
  8
CSLAYER1
  6
CONTINUOUS
 62
     3
 10
2752.019541
 20
817.301468
 11
2752.019541
 21
827.301468
  0
LINE
  8
CSLAYER1
  6
CONTINUOUS
 62
     3
 10
2755.019541
 20
817.301468
 11
2755.019541
 21
827.301468
  0
LINE
  8
CSLAYER1
  6
CONTINUOUS
 62
     3
 10
2764.019541
 20
817.301468
 11
2764.019541
 21
827.301468
  0
LINE
  8
CSLAYER1
  6
CONTINUOUS
 62
     3
 10
2600.019541
 20
827.301468
 11
2600.019541
 21
825.001468
  0
LINE
  8
CSLAYER1
  6
CONTINUOUS
 62
     3
 10
2600.019541
 20
825.001468
 11
2604.519541
 21
825.001468
  0
LINE
  8
CSLAYER1
  6
CONTINUOUS
 62
     3
 10
2604.519541
 20
827.301468
 11
2604.519541
 21
825.001468
  0
LINE
  8
CSLAYER1
  6
CONTINUOUS
 62
     3
 10
2618.019541
 20
827.301468
 11
2618.019541
 21
817.301468
  0
LINE
  8
CSLAYER1
  6
CONTINUOUS
 62
     3
 10
2610.019541
 20
827.301468
 11
2610.019541
 21
817.301468
  0
LINE
  8
CSLAYER1
  6
CONTINUOUS
 62
     3
 10
2609.019541
 20
827.301468
 11
2609.019541
 21
817.301468
  0
LINE
  8
CSLAYER1
  6
CONTINUOUS
 62
     3
 10
2607.019541
 20
827.301468
 11
2607.019541
 21
819.001468
  0
LINE
  8
CSLAYER1
  6
CONTINUOUS
 62
     3
 10
2607.519541
 20
818.501468
 11
2609.019541
 21
818.501468
  0
LINE
  8
CSLAYER1
  6
CONTINUOUS
 62
     3
 10
2607.519541
 20
818.501468
 11
2607.019541
 21
819.001468
  0
LINE
  8
CSLAYER1
  6
CONTINUOUS
 62
     3
 10
2626.019541
 20
827.301468
 11
2626.019541
 21
817.301468
  0
LINE
  8
CSLAYER1
  6
CONTINUOUS
 62
     3
 10
2651.019541
 20
817.301468
 11
2651.019541
 21
827.301468
  0
LINE
  8
CSLAYER1
  6
CONTINUOUS
 62
     3
 10
2642.019541
 20
817.301468
 11
2642.019541
 21
827.301468
  0
LINE
  8
CSLAYER1
  6
CONTINUOUS
 62
     3
 10
2639.019541
 20
817.301468
 11
2639.019541
 21
827.301468
  0
LINE
  8
CSLAYER1
  6
CONTINUOUS
 62
     3
 10
2630.019541
 20
817.301468
 11
2630.019541
 21
827.301468
  0
TEXT
  8
CSLAYER1
 62
     7
 10
710.461975
 20
545.285828
 40
40.000000
 41
0.843750
  1
上昇時
 50
0.000000
 51
0.000000
  7
EASYDRAW_FONT
 72
     5
 11
800.461975
 21
545.285828
  0
LINE
  8
CSLAYER1
  6
CONTINUOUS
 62
     5
 10
696.855531
 20
591.715964
 11
819.813541
 21
591.715964
  0
LINE
  8
CSLAYER1
  6
CONTINUOUS
 62
     5
 10
819.813541
 20
591.715964
 11
819.813541
 21
538.855511
  0
LINE
  8
CSLAYER1
  6
CONTINUOUS
 62
     5
 10
819.813541
 20
538.855511
 11
696.855531
 21
538.855511
  0
LINE
  8
CSLAYER1
  6
CONTINUOUS
 62
     5
 10
696.855531
 20
538.855511
 11
696.855531
 21
591.715964
  0
TEXT
  8
CSLAYER1
 62
     7
 10
1356.302612
 20
2220.017090
 40
40.000000
 41
0.843750
  1
下降時
 50
0.000000
 51
0.000000
  7
EASYDRAW_FONT
 72
     5
 11
1446.302612
 21
2220.017090
  0
LINE
  8
CSLAYER1
  6
CONTINUOUS
 62
     5
 10
1342.696086
 20
2266.447333
 11
1465.654096
 21
2266.447333
  0
LINE
  8
CSLAYER1
  6
CONTINUOUS
 62
     5
 10
1465.654096
 20
2266.447333
 11
1465.654096
 21
2213.586880
  0
LINE
  8
CSLAYER1
  6
CONTINUOUS
 62
     5
 10
1465.654096
 20
2213.586880
 11
1342.696086
 21
2213.586880
  0
LINE
  8
CSLAYER1
  6
CONTINUOUS
 62
     5
 10
1342.696086
 20
2213.586880
 11
1342.696086
 21
2266.447333
  0
INSERT
  8
CSLAYER1
  2
BLKF0008
 10
0.0
 20
0.0
 30
0.0
  0
INSERT
  8
CSLAYER1
  2
BLKF0009
 10
0.0
 20
0.0
 30
0.0
  0
LINE
  8
CSLAYER1
  6
CONTINUOUS
 62
     3
 10
2148.007323
 20
817.301468
 11
2148.007323
 21
777.301468
  0
DIMENSION
  8
CSLAYER1
 62
     3
  2
*D0007
 10
2283.859700
 20
857.301468
 11
2273.859863
 21
817.301453
 13
2147.707323
 23
777.301468
 14
2147.707323
 24
857.301468
 50
90.000000
 70
1
  0
DIMENSION
  8
CSLAYER1
 62
     3
  2
*D0008
 10
2283.859700
 20
857.301468
 11
2273.859863
 21
1123.083252
 13
2283.859700
 23
1388.865139
 14
2283.859700
 24
857.301468
 50
90.000000
 70
1
  0
DIMENSION
  8
CSLAYER1
 62
     3
  2
*D0009
 10
2167.552282
 20
1492.361497
 11
1767.552368
 21
1502.361450
 13
1367.552282
 23
1388.865139
 14
2167.552282
 24
1388.865139
 70
1
  0
DIMENSION
  8
CSLAYER1
 62
     3
  2
*D0010
 10
2148.007323
 20
623.765651
 11
1746.507202
 21
633.765625
 13
1345.007323
 23
777.301468
 14
2148.007323
 24
777.301468
 52
270.000000
 70
1
  0
LINE
  8
CSLAYER1
  6
CONTINUOUS
 62
     3
 10
1347.707323
 20
2070.245342
 11
2147.707323
 21
2070.245342
  0
LINE
  8
CSLAYER1
  6
CONTINUOUS
 62
     3
 10
1347.707323
 20
1820.245342
 11
2147.707323
 21
1820.245342
  0
LINE
  8
CSLAYER1
  6
CONTINUOUS
 62
     3
 10
634.598497
 20
1388.865139
 11
634.598497
 21
1358.865139
  0
LINE
  8
CSLAYER1
  6
CONTINUOUS
 62
     3
 10
884.598497
 20
1388.865139
 11
884.598497
 21
1358.865139
  0
DIMENSION
  8
CSLAYER1
 62
     3
  2
*D0011
 10
884.598497
 20
1448.021472
 11
759.598450
 21
1458.021484
 13
634.598497
 23
1388.865139
 14
884.598497
 24
1388.865139
 70
1
  0
LINE
  8
CSLAYER1
  6
CONTINUOUS
 62
     3
 10
2572.019541
 20
827.301468
 11
2572.019541
 21
857.301468
  0
LINE
  8
CSLAYER1
  6
CONTINUOUS
 62
     3
 10
2822.019541
 20
827.301468
 11
2822.019541
 21
857.301468
  0
INSERT
  8
CSLAYER1
  2
BLKF0010
 10
0.0
 20
0.0
 30
0.0
  0
DIMENSION
  8
CSLAYER1
 62
     3
  2
*D0015
 10
2253.422373
 20
2070.245342
 11
2243.422363
 21
1945.245483
 13
2147.407323
 23
1820.245342
 14
2147.407323
 24
2070.245342
 50
90.000000
 70
1
  0
INSERT
  8
CSLAYER1
  2
BLKF0011
 10
0.0
 20
0.0
 30
0.0
  0
LINE
  8
CSLAYER1
  6
CONTINUOUS
 62
     5
 10
909.598497
 20
777.301468
 11
1345.007323
 21
777.301468
  0
LINE
  8
CSLAYER1
  6
CONTINUOUS
 62
     3
 10
1345.007323
 20
777.301468
 11
2148.007323
 21
777.301468
  0
LINE
  8
CSLAYER1
  6
CONTINUOUS
 62
     5
 10
2148.007323
 20
777.301468
 11
2547.019541
 21
777.301468
  0
LINE
  8
CSLAYER1
  6
CONTINUOUS
 62
     3
 10
2547.019541
 20
777.301468
 11
2847.019541
 21
777.301468
  0
LINE
  8
CSLAYER1
  6
CONTINUOUS
 62
     5
 10
2847.019541
 20
777.301468
 11
3104.658363
 21
777.301468
  0
ENDSEC
  0
EOF
