  0
SECTION
  2
HEADER
  9
$ACADVER
  1
AC1006
  9
$INSBASE
 10
411.268819
 20
2234.770106
 30
0.0
  9
$EXTMIN
 10
411.268819
 20
2234.770106
  9
$EXTMAX
 10
4051.268819
 20
4804.770106
  9
$LIMMIN
 10
411.268819
 20
2234.770106
  9
$LIMMAX
 10
4051.268819
 20
4804.770106
  9
$VIEWCTR
 10
2231.268819
 20
3519.770106
  9
$VIEWSIZE
 40
2570.000000
  9
$SNAPMODE
 70
     0
  9
$SNAPUNIT
 10
1.0
 20
1.0
  9
$SNAPBASE
 10
0.0
 20
0.0
  9
$SNAPANG
 50
0.0
  9
$SNAPSTYLE
 70
     0
  9
$SNAPISOPAIR
 70
     0
  9
$GRIDMODE
 70
     0
  9
$GRIDUNIT
 10
0.0
 20
0.0
  9
$ORTHOMODE
 70
     0
  9
$REGENMODE
 70
     1
  9
$FILLMODE
 70
     1
  9
$QTEXTMODE
 70
     0
  9
$DRAGMODE
 70
     2
  9
$LTSCALE
 40
15.000000
  9
$OSMODE
 70
     0
  9
$ATTMODE
 70
     1
  9
$TEXTSIZE
 40
0.2
  9
$TRACEWID
 40
0.05
  9
$TEXTSTYLE
  7
STANDARD
  9
$CLAYER
  8
CSLAYER1
  9
$CELTYPE
  6
BYLAYER
  9
$CECOLOR
 62
   256
  9
$DIMSCALE
 40
1.0
  9
$DIMASZ
 40
0.18
  9
$DIMEXO
 40
0.0625
  9
$DIMDLI
 40
0.38
  9
$DIMRND
 40
0.0
  9
$DIMDLE
 40
0.0
  9
$DIMEXE
 40
0.18
  9
$DIMTP
 40
0.0
  9
$DIMTM
 40
0.0
  9
$DIMTXT
 40
0.18
  9
$DIMCEN
 40
0.09
  9
$DIMTSZ
 40
0.0
  9
$DIMTOL
 70
     0
  9
$DIMLIM
 70
     0
  9
$DIMTIH
 70
     1
  9
$DIMTOH
 70
     1
  9
$DIMSE1
 70
     0
  9
$DIMSE2
 70
     0
  9
$DIMTAD
 70
     0
  9
$DIMZIN
 70
     0
  9
$DIMBLK
  1

  9
$LUNITS
 70
     2
  9
$LUPREC
 70
     4
  9
$AXISMODE
 70
     0
  9
$AXISUNIT
 10
0.0
 20
0.0
  9
$SKETCHINC
 40
0.1
  9
$FILLETRAD
 40
0.0
  9
$AUNITS
 70
     0
  9
$AUPREC
 70
     0
  9
$MENU
  1
ACAD
  9
$ELEVATION
 40
0.0
  9
$THICKNESS
 40
0.0
  9
$VIEWDIR
 10
0.0
 20
0.0
 30
1.0
  9
$LIMCHECK
 70
     0
  9
$BLIPMODE
 70
     1
  9
$CHAMFERA
 40
0.0
  9
$CHAMFERB
 40
0.0
  9
$FASTZOOM
 70
     1
  9
$SKPOLY
 70
     0
  9
$TDCREATE
 40
2456676.000000
  9
$TDUPDATE
 40
2456676.000000
  9
$TDINDWG
 40
0.0
  9
$TDUSRTIMER
 40
0.0
  9
$USRTIMER
 70
     1
  9
$ANGBASE
 50
0.0
  9
$ANGDIR
 70
     0
  9
$PDMODE
 70
     0
  9
$PDSIZE
 40
0.0
  9
$PLINEWID
 40
0.0
  9
$COORDS
 70
     0
  9
$USERI1
 70
     0
  9
$USERI2
 70
     0
  9
$USERI3
 70
     0
  9
$USERI4
 70
     0
  9
$USERI5
 70
     0
  9
$USERR1
 40
0.0
  9
$USERR2
 40
0.0
  9
$USERR3
 40
0.0
  9
$USERR4
 40
0.0
  9
$USERR5
 40
0.0
  0
ENDSEC
  0
SECTION
  2
TABLES
  0
TABLE
  2
LTYPE
 70
     9
  0
LTYPE
  2
CONTINUOUS
 70
    64
  3
Solid line
 72
    65
 73
     0
 40
0.0
  0
LTYPE
  2
DASHED
 70
    64
  3
__ __ __ __ __ __ __ __ __ __ __ __ __ __ __
 72
    65
 73
     2
 40
0.75
 49
0.5
 49
-0.25
  0
LTYPE
  2
HIDDEN
 70
    64
  3
_ _ _ _ _ _ _ _ _ _ _ _ _ _ _ _ _ _ _ _ _ _ _
 72
    65
 73
     2
 40
0.375
 49
0.25
 49
-0.125
  0
LTYPE
  2
DOT
 70
    64
  3
...............................................
 72
    65
 73
     2
 40
0.25
 49
0.0
 49
-0.25
  0
LTYPE
  2
DASHDOT
 70
    64
  3
__ . __ . __ . __ . __ . __ . __ . __ . __ . __
 72
    65
 73
     4
 40
1.0
 49
0.5
 49
-0.25
 49
0.0
 49
-0.25
  0
LTYPE
  2
DIVIDE
 70
    64
  3
__ . . __ . . __ . . __ . . __ . . __ . . __
 72
    65
 73
     6
 40
1.25
 49
0.5
 49
-0.25
 49
0.0
 49
-0.25
 49
0.0
 49
-0.25
  0
LTYPE
  2
CENTER
 70
    64
  3
____ _ ____ _ ____ _ ____ _ ____ _ ____ _ ____ 
 72
    65
 73
     4
 40
2.0
 49
1.25
 49
-0.25
 49
0.25
 49
-0.25
  0
LTYPE
  2
PHANTOM
 70
    64
  3
______  __  __  ______  __  __  ______  __  __ 
 72
    65
 73
     6
 40
2.5
 49
1.25
 49
-0.25
 49
0.25
 49
-0.25
 49
0.25
 49
-0.25
  0
LTYPE
  2
BORDER
 70
    64
  3
__ __ . __ __ . __ __ . __ __ . __ __ . __ __ .
 72
    65
 73
     6
 40
1.75
 49
0.5
 49
-0.25
 49
0.5
 49
-0.25
 49
0.0
 49
-0.25
  0
ENDTAB
  0
TABLE
  2
LAYER
 70
    16
  0
LAYER
  2
CSLAYER1
 70
    64
 62
     7
  6
CONTINUOUS
  0
LAYER
  2
CSLAYER2
 70
    64
 62
     7
  6
CONTINUOUS
  0
LAYER
  2
CSLAYER3
 70
    64
 62
     7
  6
CONTINUOUS
  0
LAYER
  2
CSLAYER4
 70
    64
 62
     7
  6
CONTINUOUS
  0
LAYER
  2
CSLAYER5
 70
    64
 62
     7
  6
CONTINUOUS
  0
LAYER
  2
CSLAYER6
 70
    64
 62
     7
  6
CONTINUOUS
  0
LAYER
  2
CSLAYER7
 70
    64
 62
     7
  6
CONTINUOUS
  0
LAYER
  2
CSLAYER8
 70
    64
 62
     7
  6
CONTINUOUS
  0
LAYER
  2
CSLAYER9
 70
    64
 62
     7
  6
CONTINUOUS
  0
LAYER
  2
CSLAYER10
 70
    64
 62
     7
  6
CONTINUOUS
  0
LAYER
  2
CSLAYER11
 70
    64
 62
     7
  6
CONTINUOUS
  0
LAYER
  2
CSLAYER12
 70
    64
 62
     7
  6
CONTINUOUS
  0
LAYER
  2
CSLAYER13
 70
    64
 62
     7
  6
CONTINUOUS
  0
LAYER
  2
CSLAYER14
 70
    64
 62
     7
  6
CONTINUOUS
  0
LAYER
  2
CSLAYER15
 70
    64
 62
     7
  6
CONTINUOUS
  0
LAYER
  2
CSLAYER16
 70
    64
 62
     7
  6
CONTINUOUS
  0
ENDTAB
  0
TABLE
  2
STYLE
 70
     1
  0
STYLE
  2
EASYDRAW_FONT
 70
     0
 40
1.0
 41
1.0
 50
0.0
 71
     0
 42
1.0
  3
monotxt
  4
bigfont
  0
ENDTAB
  0
TABLE
  2
VIEW
 70
     0
  0
ENDTAB
  0
ENDSEC
  0
SECTION
  2
BLOCKS
  0
BLOCK
  8
CSLAYER1
  2
*D0000
 70
    65
 10
0.0
 20
0.0
 30
0.0
  0
TEXT
  8
CSLAYER1
 62
     3
 10
2437.044434
 20
1079.131470
 40
40.000000
 41
0.843750
  1
580
 50
90.000000
 51
0.000000
  7
EASYDRAW_FONT
 72
     5
 11
2437.044434
 21
1169.131470
  0
LINE
  8
CSLAYER1
  6
CONTINUOUS
 62
     5
 10
2453.044430
 20
818.349638
 11
2241.335276
 21
818.349638
  0
LINE
  8
CSLAYER1
  6
CONTINUOUS
 62
     5
 10
2453.044430
 20
1429.913309
 11
2260.880234
 21
1429.913309
  0
LINE
  8
CSLAYER1
  6
CONTINUOUS
 62
     5
 10
2445.044430
 20
818.349638
 11
2445.044430
 21
1429.913309
  0
LINE
  8
CSLAYER1
  6
CONTINUOUS
 62
     5
 10
2445.044430
 20
818.349638
 11
2437.279858
 21
847.327413
  0
LINE
  8
CSLAYER1
  6
CONTINUOUS
 62
     5
 10
2445.044430
 20
818.349638
 11
2452.809001
 21
847.327413
  0
LINE
  8
CSLAYER1
  6
CONTINUOUS
 62
     5
 10
2445.044430
 20
1429.913309
 11
2437.279858
 21
1400.935534
  0
LINE
  8
CSLAYER1
  6
CONTINUOUS
 62
     5
 10
2445.044430
 20
1429.913309
 11
2452.809001
 21
1400.935534
  0
ENDBLK
  8
0
  0
BLOCK
  8
CSLAYER1
  2
*D0001
 70
    65
 10
0.0
 20
0.0
 30
0.0
  0
TEXT
  8
CSLAYER1
 62
     3
 10
1057.551514
 20
1283.933594
 40
40.000000
 41
0.769737
  1
テーブルのズレ　ＭＡＸ２０
 50
0.000000
 51
0.000000
  7
EASYDRAW_FONT
 72
     5
 11
1447.551514
 21
1283.933594
  0
LINE
  8
CSLAYER1
  6
CONTINUOUS
 62
     5
 10
1431.035276
 20
898.349638
 11
1431.035276
 21
1280.189010
  0
LINE
  8
CSLAYER1
  6
CONTINUOUS
 62
     5
 10
1450.880234
 20
1399.913309
 11
1450.880234
 21
1264.189010
  0
LINE
  8
CSLAYER1
  6
CONTINUOUS
 62
     5
 10
1431.035276
 20
1272.189010
 11
1450.880234
 21
1272.189010
  0
LINE
  8
CSLAYER1
  6
CONTINUOUS
 62
     5
 10
1044.756759
 20
1272.189010
 11
1431.035276
 21
1272.189010
  0
LINE
  8
CSLAYER1
  6
CONTINUOUS
 62
     5
 10
1431.035276
 20
1272.189010
 11
1402.057501
 21
1279.953581
  0
LINE
  8
CSLAYER1
  6
CONTINUOUS
 62
     5
 10
1431.035276
 20
1272.189010
 11
1402.057501
 21
1264.424439
  0
LINE
  8
CSLAYER1
  6
CONTINUOUS
 62
     5
 10
1450.880234
 20
1272.189010
 11
1490.880234
 21
1272.189010
  0
LINE
  8
CSLAYER1
  6
CONTINUOUS
 62
     5
 10
1450.880234
 20
1272.189010
 11
1479.858009
 21
1279.953581
  0
LINE
  8
CSLAYER1
  6
CONTINUOUS
 62
     5
 10
1450.880234
 20
1272.189010
 11
1479.858009
 21
1264.424439
  0
ENDBLK
  8
0
  0
BLOCK
  8
CSLAYER1
  2
EASYDRAWDIM0000
 70
   64
 10
0.0
 20
0.0
 30
0.0
  0
TEXT
  8
CSLAYER1
 62
     3
 10
1023.810730
 20
687.492981
 40
40.000000
 41
0.771429
  1
2-%%c13（アンカー穴）
 50
0.000000
 51
0.000000
  7
EASYDRAW_FONT
 72
     5
 11
1383.810730
 21
687.492981
  0
LINE
  8
CSLAYER1
  6
CONTINUOUS
 62
     5
 10
1063.834096
 20
735.447901
 11
1349.430759
 21
735.447901
  0
ENDBLK
  8
0
  0
BLOCK
  8
CSLAYER1
  2
EASYDRAWDIM0001
 70
   64
 10
0.0
 20
0.0
 30
0.0
  0
TEXT
  8
CSLAYER1
 62
     3
 10
1122.213379
 20
1198.360107
 40
40.000000
 41
0.787500
  1
油圧シリンダー
 50
0.000000
 51
0.000000
  7
EASYDRAW_FONT
 72
     5
 11
1332.213379
 21
1198.360107
  0
LINE
  8
CSLAYER1
  6
CONTINUOUS
 62
     5
 10
1338.217023
 20
1190.360131
 11
1115.889230
 21
1190.360131
  0
ENDBLK
  8
0
  0
BLOCK
  8
CSLAYER1
  2
EASYDRAWDIM0002
 70
   64
 10
0.0
 20
0.0
 30
0.0
  0
TEXT
  8
CSLAYER1
 62
     3
 10
1087.904053
 20
1026.211792
 40
40.000000
 41
0.803571
  1
高圧ホース
 50
0.000000
 51
0.000000
  7
EASYDRAW_FONT
 72
     5
 11
1237.904053
 21
1026.211792
  0
LINE
  8
CSLAYER1
  6
CONTINUOUS
 62
     5
 10
1353.177445
 20
836.999638
 11
1250.374394
 21
1018.211795
  0
LINE
  8
CSLAYER1
  6
CONTINUOUS
 62
     5
 10
1353.177445
 20
836.999638
 11
1332.125318
 21
858.372704
  0
LINE
  8
CSLAYER1
  6
CONTINUOUS
 62
     5
 10
1353.177445
 20
836.999638
 11
1345.632301
 21
866.035319
  0
LINE
  8
CSLAYER1
  6
CONTINUOUS
 62
     5
 10
1250.374394
 20
1018.211795
 11
1077.841629
 21
1018.211795
  0
ENDBLK
  8
0
  0
BLOCK
  8
CSLAYER1
  2
*D0002
 70
    65
 10
0.0
 20
0.0
 30
0.0
  0
TEXT
  8
CSLAYER1
 62
     3
 10
1070.020264
 20
853.569641
 40
40.000000
 41
1.125000
  1
6
 50
90.000000
 51
0.000000
  7
EASYDRAW_FONT
 72
     5
 11
1070.020264
 21
883.569641
  0
LINE
  8
CSLAYER1
  6
CONTINUOUS
 62
     5
 10
1000.926450
 20
818.349638
 11
1086.020240
 21
818.349638
  0
LINE
  8
CSLAYER1
  6
CONTINUOUS
 62
     5
 10
1000.926450
 20
824.349638
 11
1086.020240
 21
824.349638
  0
LINE
  8
CSLAYER1
  6
CONTINUOUS
 62
     5
 10
1078.020240
 20
818.349638
 11
1078.020240
 21
824.349638
  0
LINE
  8
CSLAYER1
  6
CONTINUOUS
 62
     5
 10
1078.020240
 20
797.685419
 11
1078.020240
 21
818.349638
  0
LINE
  8
CSLAYER1
  6
CONTINUOUS
 62
     5
 10
1078.020240
 20
818.349638
 11
1070.255669
 21
789.371863
  0
LINE
  8
CSLAYER1
  6
CONTINUOUS
 62
     5
 10
1078.020240
 20
818.349638
 11
1085.784812
 21
789.371863
  0
LINE
  8
CSLAYER1
  6
CONTINUOUS
 62
     5
 10
1078.020240
 20
824.349638
 11
1078.020240
 21
888.789758
  0
LINE
  8
CSLAYER1
  6
CONTINUOUS
 62
     5
 10
1078.020240
 20
824.349638
 11
1070.255669
 21
853.327413
  0
LINE
  8
CSLAYER1
  6
CONTINUOUS
 62
     5
 10
1078.020240
 20
824.349638
 11
1085.784812
 21
853.327413
  0
ENDBLK
  8
0
  0
BLOCK
  8
CSLAYER1
  2
*D0003
 70
    65
 10
0.0
 20
0.0
 30
0.0
  0
TEXT
  8
CSLAYER1
 62
     3
 10
797.926453
 20
751.518066
 40
40.000000
 41
0.843750
  1
250
 50
0.000000
 51
0.000000
  7
EASYDRAW_FONT
 72
     5
 11
887.926453
 21
751.518066
  0
LINE
  8
CSLAYER1
  6
CONTINUOUS
 62
     5
 10
717.926450
 20
810.349638
 11
717.926450
 21
735.518069
  0
LINE
  8
CSLAYER1
  6
CONTINUOUS
 62
     5
 10
967.926450
 20
810.349638
 11
967.926450
 21
735.518069
  0
LINE
  8
CSLAYER1
  6
CONTINUOUS
 62
     5
 10
717.926450
 20
743.518069
 11
967.926450
 21
743.518069
  0
LINE
  8
CSLAYER1
  6
CONTINUOUS
 62
     5
 10
717.926450
 20
743.518069
 11
746.904224
 21
751.282640
  0
LINE
  8
CSLAYER1
  6
CONTINUOUS
 62
     5
 10
717.926450
 20
743.518069
 11
746.904224
 21
735.753497
  0
LINE
  8
CSLAYER1
  6
CONTINUOUS
 62
     5
 10
967.926450
 20
743.518069
 11
938.948675
 21
751.282640
  0
LINE
  8
CSLAYER1
  6
CONTINUOUS
 62
     5
 10
967.926450
 20
743.518069
 11
938.948675
 21
735.753497
  0
ENDBLK
  8
0
  0
BLOCK
  8
CSLAYER1
  2
*D0004
 70
    65
 10
0.0
 20
0.0
 30
0.0
  0
TEXT
  8
CSLAYER1
 62
     3
 10
797.926453
 20
682.144653
 40
40.000000
 41
0.843750
  1
300
 50
0.000000
 51
0.000000
  7
EASYDRAW_FONT
 72
     5
 11
887.926453
 21
682.144653
  0
LINE
  8
CSLAYER1
  6
CONTINUOUS
 62
     5
 10
692.926450
 20
810.349638
 11
692.926450
 21
666.144612
  0
LINE
  8
CSLAYER1
  6
CONTINUOUS
 62
     5
 10
992.926450
 20
810.349638
 11
992.926450
 21
666.144612
  0
LINE
  8
CSLAYER1
  6
CONTINUOUS
 62
     5
 10
692.926450
 20
674.144612
 11
992.926450
 21
674.144612
  0
LINE
  8
CSLAYER1
  6
CONTINUOUS
 62
     5
 10
692.926450
 20
674.144612
 11
721.904224
 21
681.909183
  0
LINE
  8
CSLAYER1
  6
CONTINUOUS
 62
     5
 10
692.926450
 20
674.144612
 11
721.904224
 21
666.380040
  0
LINE
  8
CSLAYER1
  6
CONTINUOUS
 62
     5
 10
992.926450
 20
674.144612
 11
963.948675
 21
681.909183
  0
LINE
  8
CSLAYER1
  6
CONTINUOUS
 62
     5
 10
992.926450
 20
674.144612
 11
963.948675
 21
666.380040
  0
ENDBLK
  8
0
  0
BLOCK
  8
CSLAYER1
  2
*D0005
 70
    65
 10
0.0
 20
0.0
 30
0.0
  0
TEXT
  8
CSLAYER1
 62
     3
 10
1433.427979
 20
687.949951
 40
40.000000
 41
0.900000
  1
25
 50
0.000000
 51
0.000000
  7
EASYDRAW_FONT
 72
     5
 11
1493.427979
 21
687.949951
  0
LINE
  8
CSLAYER1
  6
CONTINUOUS
 62
     5
 10
1428.335276
 20
810.349638
 11
1428.335276
 21
654.813821
  0
LINE
  8
CSLAYER1
  6
CONTINUOUS
 62
     5
 10
1453.335276
 20
827.849638
 11
1453.335276
 21
735.518069
  0
LINE
  8
CSLAYER1
  6
CONTINUOUS
 62
     5
 10
1428.335276
 20
743.518069
 11
1453.335276
 21
743.518069
  0
LINE
  8
CSLAYER1
  6
CONTINUOUS
 62
     5
 10
1388.335276
 20
743.518069
 11
1428.335276
 21
743.518069
  0
LINE
  8
CSLAYER1
  6
CONTINUOUS
 62
     5
 10
1428.335276
 20
743.518069
 11
1399.357501
 21
751.282640
  0
LINE
  8
CSLAYER1
  6
CONTINUOUS
 62
     5
 10
1428.335276
 20
743.518069
 11
1399.357501
 21
735.753497
  0
LINE
  8
CSLAYER1
  6
CONTINUOUS
 62
     5
 10
1453.335276
 20
743.518069
 11
1493.335276
 21
743.518069
  0
LINE
  8
CSLAYER1
  6
CONTINUOUS
 62
     5
 10
1453.335276
 20
743.518069
 11
1482.313051
 21
751.282640
  0
LINE
  8
CSLAYER1
  6
CONTINUOUS
 62
     5
 10
1453.335276
 20
743.518069
 11
1482.313051
 21
735.753497
  0
ENDBLK
  8
0
  0
BLOCK
  8
CSLAYER1
  2
*D0006
 70
    65
 10
0.0
 20
0.0
 30
0.0
  0
TEXT
  8
CSLAYER1
 62
     3
 10
2557.512207
 20
828.349609
 40
40.000000
 41
0.900000
  1
80
 50
90.000000
 51
0.000000
  7
EASYDRAW_FONT
 72
     5
 11
2557.512207
 21
888.349609
  0
LINE
  8
CSLAYER1
  6
CONTINUOUS
 62
     5
 10
2621.532645
 20
818.349638
 11
2557.512139
 21
818.349638
  0
LINE
  8
CSLAYER1
  6
CONTINUOUS
 62
     5
 10
2671.532645
 20
898.349638
 11
2557.512139
 21
898.349638
  0
LINE
  8
CSLAYER1
  6
CONTINUOUS
 62
     5
 10
2567.512139
 20
818.349638
 11
2567.512139
 21
898.349638
  0
LINE
  8
CSLAYER1
  6
CONTINUOUS
 62
     5
 10
2567.512139
 20
818.349638
 11
2559.747568
 21
847.327413
  0
LINE
  8
CSLAYER1
  6
CONTINUOUS
 62
     5
 10
2567.512139
 20
818.349638
 11
2575.276711
 21
847.327413
  0
LINE
  8
CSLAYER1
  6
CONTINUOUS
 62
     5
 10
2567.512139
 20
898.349638
 11
2559.747568
 21
869.371863
  0
LINE
  8
CSLAYER1
  6
CONTINUOUS
 62
     5
 10
2567.512139
 20
898.349638
 11
2575.276711
 21
869.371863
  0
ENDBLK
  8
0
  0
BLOCK
  8
CSLAYER1
  2
*D0007
 70
    65
 10
0.0
 20
0.0
 30
0.0
  0
TEXT
  8
CSLAYER1
 62
     3
 10
2357.187744
 20
828.349609
 40
40.000000
 41
0.900000
  1
80
 50
90.000000
 51
0.000000
  7
EASYDRAW_FONT
 72
     5
 11
2357.187744
 21
888.349609
  0
LINE
  8
CSLAYER1
  6
CONTINUOUS
 62
     5
 10
2241.035276
 20
898.349638
 11
2377.187653
 21
898.349638
  0
LINE
  8
CSLAYER1
  6
CONTINUOUS
 62
     5
 10
2367.187653
 20
818.349638
 11
2367.187653
 21
898.349638
  0
LINE
  8
CSLAYER1
  6
CONTINUOUS
 62
     5
 10
2367.187653
 20
818.349638
 11
2359.423081
 21
847.327413
  0
LINE
  8
CSLAYER1
  6
CONTINUOUS
 62
     5
 10
2367.187653
 20
818.349638
 11
2374.952224
 21
847.327413
  0
LINE
  8
CSLAYER1
  6
CONTINUOUS
 62
     5
 10
2367.187653
 20
898.349638
 11
2359.423081
 21
869.371863
  0
LINE
  8
CSLAYER1
  6
CONTINUOUS
 62
     5
 10
2367.187653
 20
898.349638
 11
2374.952224
 21
869.371863
  0
ENDBLK
  8
0
  0
BLOCK
  8
CSLAYER1
  2
*D0008
 70
    65
 10
0.0
 20
0.0
 30
0.0
  0
TEXT
  8
CSLAYER1
 62
     3
 10
2357.187744
 20
1119.131470
 40
40.000000
 41
0.843750
  1
500
 50
90.000000
 51
0.000000
  7
EASYDRAW_FONT
 72
     5
 11
2357.187744
 21
1209.131470
  0
LINE
  8
CSLAYER1
  6
CONTINUOUS
 62
     5
 10
2367.187653
 20
898.349638
 11
2367.187653
 21
1429.913309
  0
LINE
  8
CSLAYER1
  6
CONTINUOUS
 62
     5
 10
2367.187653
 20
898.349638
 11
2359.423081
 21
927.327413
  0
LINE
  8
CSLAYER1
  6
CONTINUOUS
 62
     5
 10
2367.187653
 20
898.349638
 11
2374.952224
 21
927.327413
  0
LINE
  8
CSLAYER1
  6
CONTINUOUS
 62
     5
 10
2367.187653
 20
1429.913309
 11
2359.423081
 21
1400.935534
  0
LINE
  8
CSLAYER1
  6
CONTINUOUS
 62
     5
 10
2367.187653
 20
1429.913309
 11
2374.952224
 21
1400.935534
  0
ENDBLK
  8
0
  0
BLOCK
  8
CSLAYER1
  2
*D0009
 70
    65
 10
0.0
 20
0.0
 30
0.0
  0
TEXT
  8
CSLAYER1
 62
     3
 10
1805.880249
 20
1543.409668
 40
40.000000
 41
0.843750
  1
800
 50
0.000000
 51
0.000000
  7
EASYDRAW_FONT
 72
     5
 11
1895.880249
 21
1543.409668
  0
LINE
  8
CSLAYER1
  6
CONTINUOUS
 62
     5
 10
1450.880234
 20
1439.913309
 11
1450.880234
 21
1543.409667
  0
LINE
  8
CSLAYER1
  6
CONTINUOUS
 62
     5
 10
2250.880234
 20
1439.913309
 11
2250.880234
 21
1543.409667
  0
LINE
  8
CSLAYER1
  6
CONTINUOUS
 62
     5
 10
1450.880234
 20
1533.409667
 11
2250.880234
 21
1533.409667
  0
LINE
  8
CSLAYER1
  6
CONTINUOUS
 62
     5
 10
1450.880234
 20
1533.409667
 11
1479.858009
 21
1541.174238
  0
LINE
  8
CSLAYER1
  6
CONTINUOUS
 62
     5
 10
1450.880234
 20
1533.409667
 11
1479.858009
 21
1525.645095
  0
LINE
  8
CSLAYER1
  6
CONTINUOUS
 62
     5
 10
2250.880234
 20
1533.409667
 11
2221.902459
 21
1541.174238
  0
LINE
  8
CSLAYER1
  6
CONTINUOUS
 62
     5
 10
2250.880234
 20
1533.409667
 11
2221.902459
 21
1525.645095
  0
ENDBLK
  8
0
  0
BLOCK
  8
CSLAYER1
  2
*D0010
 70
    65
 10
0.0
 20
0.0
 30
0.0
  0
TEXT
  8
CSLAYER1
 62
     3
 10
797.926453
 20
1513.535767
 40
40.000000
 41
0.843750
  1
200
 50
0.000000
 51
0.000000
  7
EASYDRAW_FONT
 72
     5
 11
887.926453
 21
1513.535767
  0
LINE
  8
CSLAYER1
  6
CONTINUOUS
 62
     5
 10
742.926450
 20
1439.913309
 11
742.926450
 21
1513.535730
  0
LINE
  8
CSLAYER1
  6
CONTINUOUS
 62
     5
 10
942.926450
 20
1439.913309
 11
942.926450
 21
1513.535730
  0
LINE
  8
CSLAYER1
  6
CONTINUOUS
 62
     5
 10
742.926450
 20
1503.535730
 11
942.926450
 21
1503.535730
  0
LINE
  8
CSLAYER1
  6
CONTINUOUS
 62
     5
 10
742.926450
 20
1503.535730
 11
771.904224
 21
1511.300301
  0
LINE
  8
CSLAYER1
  6
CONTINUOUS
 62
     5
 10
742.926450
 20
1503.535730
 11
771.904224
 21
1495.771158
  0
LINE
  8
CSLAYER1
  6
CONTINUOUS
 62
     5
 10
942.926450
 20
1503.535730
 11
913.948675
 21
1511.300301
  0
LINE
  8
CSLAYER1
  6
CONTINUOUS
 62
     5
 10
942.926450
 20
1503.535730
 11
913.948675
 21
1495.771158
  0
ENDBLK
  8
0
  0
BLOCK
  8
CSLAYER1
  2
*D0011
 70
    65
 10
0.0
 20
0.0
 30
0.0
  0
TEXT
  8
CSLAYER1
 62
     3
 10
1784.835205
 20
674.813843
 40
40.000000
 41
0.843750
  1
803
 50
0.000000
 51
0.000000
  7
EASYDRAW_FONT
 72
     5
 11
1874.835205
 21
674.813843
  0
LINE
  8
CSLAYER1
  6
CONTINUOUS
 62
     5
 10
2231.335276
 20
808.349638
 11
2231.335276
 21
654.813821
  0
LINE
  8
CSLAYER1
  6
CONTINUOUS
 62
     5
 10
1428.335276
 20
664.813821
 11
2231.335276
 21
664.813821
  0
LINE
  8
CSLAYER1
  6
CONTINUOUS
 62
     5
 10
1428.335276
 20
664.813821
 11
1457.313051
 21
672.578393
  0
LINE
  8
CSLAYER1
  6
CONTINUOUS
 62
     5
 10
1428.335276
 20
664.813821
 11
1457.313051
 21
657.049250
  0
LINE
  8
CSLAYER1
  6
CONTINUOUS
 62
     5
 10
2231.335276
 20
664.813821
 11
2202.357501
 21
672.578393
  0
LINE
  8
CSLAYER1
  6
CONTINUOUS
 62
     5
 10
2231.335276
 20
664.813821
 11
2202.357501
 21
657.049250
  0
ENDBLK
  8
0
  0
BLOCK
  8
CSLAYER1
  2
EASYDRAWDIM0003
 70
   64
 10
0.0
 20
0.0
 30
0.0
  0
TEXT
  8
CSLAYER1
 62
     3
 10
1384.067871
 20
1884.193092
 40
33.155758
 41
0.767879
  1
穴ヒﾟッチ
 50
90.000000
 51
0.000000
  7
EASYDRAW_FONT
 72
     5
 11
1384.067871
 21
2003.004662
  0
ENDBLK
  8
0
  0
BLOCK
  8
CSLAYER1
  2
*D0012
 70
    65
 10
0.0
 20
0.0
 30
0.0
  0
TEXT
  8
CSLAYER1
 62
     3
 10
1334.829102
 20
1915.740967
 40
40.000000
 41
0.843750
  1
250
 50
90.000000
 51
0.000000
  7
EASYDRAW_FONT
 72
     5
 11
1334.829102
 21
2005.740967
  0
LINE
  8
CSLAYER1
  6
CONTINUOUS
 62
     5
 10
1432.072474
 20
1861.293512
 11
1333.081215
 21
1861.293512
  0
LINE
  8
CSLAYER1
  6
CONTINUOUS
 62
     5
 10
1432.072474
 20
2111.293512
 11
1333.081215
 21
2111.293512
  0
LINE
  8
CSLAYER1
  6
CONTINUOUS
 62
     5
 10
1343.081215
 20
1861.293512
 11
1343.081215
 21
2111.293512
  0
LINE
  8
CSLAYER1
  6
CONTINUOUS
 62
     5
 10
1343.081215
 20
1861.293512
 11
1335.316644
 21
1890.271286
  0
LINE
  8
CSLAYER1
  6
CONTINUOUS
 62
     5
 10
1343.081215
 20
1861.293512
 11
1350.845787
 21
1890.271286
  0
LINE
  8
CSLAYER1
  6
CONTINUOUS
 62
     5
 10
1343.081215
 20
2111.293512
 11
1335.316644
 21
2082.315737
  0
LINE
  8
CSLAYER1
  6
CONTINUOUS
 62
     5
 10
1343.081215
 20
2111.293512
 11
1350.845787
 21
2082.315737
  0
ENDBLK
  8
0
  0
BLOCK
  8
CSLAYER1
  2
*D0013
 70
    65
 10
0.0
 20
0.0
 30
0.0
  0
TEXT
  8
CSLAYER1
 62
     3
 10
1357.479736
 20
1755.966553
 40
40.000000
 41
0.900000
  1
25
 50
0.000000
 51
0.000000
  7
EASYDRAW_FONT
 72
     5
 11
1417.479736
 21
1755.966553
  0
LINE
  8
CSLAYER1
  6
CONTINUOUS
 62
     5
 10
1428.335276
 20
1836.293512
 11
1428.335276
 21
1695.421879
  0
LINE
  8
CSLAYER1
  6
CONTINUOUS
 62
     5
 10
1453.335276
 20
1840.030710
 11
1453.335276
 21
1762.233447
  0
LINE
  8
CSLAYER1
  6
CONTINUOUS
 62
     5
 10
1428.335276
 20
1772.233447
 11
1453.335276
 21
1772.233447
  0
LINE
  8
CSLAYER1
  6
CONTINUOUS
 62
     5
 10
1428.335276
 20
1772.233447
 11
1457.313051
 21
1779.998018
  0
LINE
  8
CSLAYER1
  6
CONTINUOUS
 62
     5
 10
1428.335276
 20
1772.233447
 11
1457.313051
 21
1764.468876
  0
LINE
  8
CSLAYER1
  6
CONTINUOUS
 62
     5
 10
1453.335276
 20
1772.233447
 11
1424.357501
 21
1779.998018
  0
LINE
  8
CSLAYER1
  6
CONTINUOUS
 62
     5
 10
1453.335276
 20
1772.233447
 11
1424.357501
 21
1764.468876
  0
ENDBLK
  8
0
  0
BLOCK
  8
CSLAYER1
  2
*D0014
 70
    65
 10
0.0
 20
0.0
 30
0.0
  0
TEXT
  8
CSLAYER1
 62
     3
 10
1358.641846
 20
1688.573975
 40
40.000000
 41
0.900000
  1
50
 50
0.000000
 51
0.000000
  7
EASYDRAW_FONT
 72
     5
 11
1418.641846
 21
1688.573975
  0
LINE
  8
CSLAYER1
  6
CONTINUOUS
 62
     5
 10
1478.335276
 20
1836.293512
 11
1478.335276
 21
1695.421879
  0
LINE
  8
CSLAYER1
  6
CONTINUOUS
 62
     5
 10
1428.335276
 20
1705.421879
 11
1478.335276
 21
1705.421879
  0
LINE
  8
CSLAYER1
  6
CONTINUOUS
 62
     5
 10
1428.335276
 20
1705.421879
 11
1457.313051
 21
1713.186451
  0
LINE
  8
CSLAYER1
  6
CONTINUOUS
 62
     5
 10
1428.335276
 20
1705.421879
 11
1457.313051
 21
1697.657308
  0
LINE
  8
CSLAYER1
  6
CONTINUOUS
 62
     5
 10
1478.335276
 20
1705.421879
 11
1449.357501
 21
1713.186451
  0
LINE
  8
CSLAYER1
  6
CONTINUOUS
 62
     5
 10
1478.335276
 20
1705.421879
 11
1449.357501
 21
1697.657308
  0
ENDBLK
  8
0
  0
BLOCK
  8
CSLAYER1
  2
EASYDRAWDIM0004
 70
   64
 10
0.0
 20
0.0
 30
0.0
  0
TEXT
  8
CSLAYER1
 62
     3
 10
1571.557129
 20
1740.917236
 40
40.000000
 41
0.771429
  1
2-%%c13(アンカー穴)
 50
0.000000
 51
0.000000
  7
EASYDRAW_FONT
 72
     5
 11
1931.557129
 21
1740.917236
  0
LINE
  8
CSLAYER1
  6
CONTINUOUS
 62
     5
 10
1457.733876
 20
1857.035671
 11
1567.215843
 21
1730.917147
  0
LINE
  8
CSLAYER1
  6
CONTINUOUS
 62
     5
 10
1457.733876
 20
1857.035671
 11
1482.593536
 21
1840.242895
  0
LINE
  8
CSLAYER1
  6
CONTINUOUS
 62
     5
 10
1457.733876
 20
1857.035671
 11
1470.866585
 21
1830.062870
  0
LINE
  8
CSLAYER1
  6
CONTINUOUS
 62
     5
 10
1567.215843
 20
1730.917147
 11
1941.557096
 21
1730.917147
  0
ENDBLK
  8
0
  0
BLOCK
  8
CSLAYER1
  2
*D0015
 70
    65
 10
0.0
 20
0.0
 30
0.0
  0
TEXT
  8
CSLAYER1
 62
     3
 10
2316.773193
 20
1941.293579
 40
40.000000
 41
0.843750
  1
200
 50
90.000000
 51
0.000000
  7
EASYDRAW_FONT
 72
     5
 11
2316.773193
 21
2031.293579
  0
LINE
  8
CSLAYER1
  6
CONTINUOUS
 62
     5
 10
2241.035276
 20
1886.293512
 11
2336.773097
 21
1886.293512
  0
LINE
  8
CSLAYER1
  6
CONTINUOUS
 62
     5
 10
2241.035276
 20
2086.293512
 11
2336.773097
 21
2086.293512
  0
LINE
  8
CSLAYER1
  6
CONTINUOUS
 62
     5
 10
2326.773097
 20
1886.293512
 11
2326.773097
 21
2086.293512
  0
LINE
  8
CSLAYER1
  6
CONTINUOUS
 62
     5
 10
2326.773097
 20
1886.293512
 11
2319.008526
 21
1915.271286
  0
LINE
  8
CSLAYER1
  6
CONTINUOUS
 62
     5
 10
2326.773097
 20
1886.293512
 11
2334.537669
 21
1915.271286
  0
LINE
  8
CSLAYER1
  6
CONTINUOUS
 62
     5
 10
2326.773097
 20
2086.293512
 11
2319.008526
 21
2057.315737
  0
LINE
  8
CSLAYER1
  6
CONTINUOUS
 62
     5
 10
2326.773097
 20
2086.293512
 11
2334.537669
 21
2057.315737
  0
ENDBLK
  8
0
  0
BLOCK
  8
CSLAYER1
  2
BLKF0000
 70
   64
 10
0.0
 20
0.0
 30
0.0
  0
LINE
  8
CSLAYER1
  6
CONTINUOUS
 62
     5
 10
3462.865187
 20
1503.260823
 11
2582.865187
 21
1503.260823
  0
TEXT
  8
CSLAYER1
 62
     3
 10
3060.248291
 20
1508.911011
 40
40.000000
 41
0.832500
  1
10R4/13
 50
0.000000
 51
0.000000
  7
EASYDRAW_FONT
 72
     5
 11
3282.248291
 21
1508.911011
  0
ENDBLK
  8
0
  0
BLOCK
  8
CSLAYER1
  2
BLKF0001
 70
   64
 10
0.0
 20
0.0
 30
0.0
  0
LINE
  8
CSLAYER1
  6
CONTINUOUS
 62
     3
 10
693.303162
 20
818.349638
 11
992.926450
 21
818.349638
  0
LINE
  8
CSLAYER1
  6
CONTINUOUS
 62
     3
 10
742.926450
 20
858.349638
 11
842.926450
 21
858.349638
  0
LINE
  8
CSLAYER1
  6
CONTINUOUS
 62
     3
 10
692.926450
 20
818.349638
 11
842.926450
 21
818.349638
  0
LINE
  8
CSLAYER1
  6
CONTINUOUS
 62
     3
 10
742.926450
 20
858.349638
 11
742.926450
 21
824.349638
  0
LINE
  8
CSLAYER1
  6
CONTINUOUS
 62
     3
 10
942.926450
 20
858.349638
 11
842.926450
 21
858.349638
  0
LINE
  8
CSLAYER1
  6
CONTINUOUS
 62
     3
 10
992.926450
 20
818.349638
 11
842.926450
 21
818.349638
  0
LINE
  8
CSLAYER1
  6
CONTINUOUS
 62
     3
 10
942.926450
 20
858.349638
 11
942.926450
 21
824.349638
  0
LINE
  8
CSLAYER1
  6
CONTINUOUS
 62
     3
 10
992.926450
 20
818.349638
 11
992.926450
 21
824.349638
  0
LINE
  8
CSLAYER1
  6
CENTER
 62
     5
 10
967.926450
 20
809.420277
 11
967.926450
 21
833.630238
  0
LINE
  8
CSLAYER1
  6
CONTINUOUS
 62
     3
 10
917.426450
 20
824.349638
 11
917.426450
 21
858.349638
  0
LINE
  8
CSLAYER1
  6
CONTINUOUS
 62
     3
 10
992.926450
 20
824.349638
 11
911.426450
 21
824.349638
  0
LINE
  8
CSLAYER1
  6
CONTINUOUS
 62
     3
 10
692.926450
 20
818.349638
 11
692.926450
 21
824.349638
  0
LINE
  8
CSLAYER1
  6
CENTER
 62
     5
 10
717.926450
 20
809.420277
 11
717.926450
 21
833.630238
  0
LINE
  8
CSLAYER1
  6
CONTINUOUS
 62
     3
 10
692.926450
 20
824.349638
 11
774.426450
 21
824.349638
  0
LINE
  8
CSLAYER1
  6
CONTINUOUS
 62
     3
 10
768.426450
 20
824.349638
 11
768.426450
 21
858.349638
  0
LINE
  8
CSLAYER1
  6
CENTER
 62
     5
 10
812.926450
 20
821.660074
 11
812.926450
 21
854.923394
  0
LINE
  8
CSLAYER1
  6
CENTER
 62
     5
 10
795.052504
 20
838.349638
 11
832.049461
 21
838.349638
  0
CIRCLE
  8
CSLAYER1
  6
CONTINUOUS
 62
     3
 10
812.926450
 20
838.349638
 40
12.500000
  0
LINE
  8
CSLAYER1
  6
CENTER
 62
     5
 10
757.426450
 20
835.849638
 11
928.426450
 21
835.849638
  0
LINE
  8
CSLAYER1
  6
CONTINUOUS
 62
     3
 10
774.426450
 20
818.349638
 11
774.426450
 21
858.349638
  0
LINE
  8
CSLAYER1
  6
CONTINUOUS
 62
     3
 10
911.426450
 20
818.349638
 11
911.426450
 21
858.349638
  0
ENDBLK
  8
0
  0
BLOCK
  8
CSLAYER1
  2
BLKF0002
 70
   64
 10
0.0
 20
0.0
 30
0.0
  0
LINE
  8
CSLAYER1
  6
CONTINUOUS
 62
     3
 10
909.426450
 20
1385.143654
 11
909.426450
 21
1399.913309
  0
LINE
  8
CSLAYER1
  6
CONTINUOUS
 62
     3
 10
906.426450
 20
1385.363309
 11
909.426450
 21
1385.363309
  0
LINE
  8
CSLAYER1
  6
CONTINUOUS
 62
     3
 10
906.426450
 20
1394.601113
 11
909.426450
 21
1398.101113
  0
LINE
  8
CSLAYER1
  6
CONTINUOUS
 62
     3
 10
917.426450
 20
1396.113309
 11
917.426450
 21
1399.913309
  0
ARC
  8
CSLAYER1
  6
CONTINUOUS
 62
     3
 10
903.630706
 20
1396.113309
 40
13.795744
 50
0.000000
 51
15.988670
  0
LINE
  8
CSLAYER1
  6
CONTINUOUS
 62
     3
 10
917.426450
 20
1396.113309
 11
917.426450
 21
1387.113309
  0
LINE
  8
CSLAYER1
  6
CONTINUOUS
 62
     3
 10
909.426450
 20
1390.628482
 11
916.289269
 21
1390.628482
  0
LINE
  8
CSLAYER1
  6
CONTINUOUS
 62
     3
 10
909.426450
 20
1385.143654
 11
916.289269
 21
1385.143654
  0
LINE
  8
CSLAYER1
  6
CONTINUOUS
 62
     3
 10
917.426450
 20
1387.113309
 11
916.289269
 21
1385.143654
  0
ARC
  8
CSLAYER1
  6
CONTINUOUS
 62
     3
 10
913.646405
 20
1387.886068
 40
3.808617
 50
5.661633
 51
46.059028
  0
ARC
  8
CSLAYER1
  6
CONTINUOUS
 62
     3
 10
903.630706
 20
1396.113309
 40
13.795744
 50
336.573402
 51
360.000000
  0
ENDBLK
  8
0
  0
BLOCK
  8
CSLAYER1
  2
BLKF0003
 70
   64
 10
0.0
 20
0.0
 30
0.0
  0
LINE
  8
CSLAYER1
  6
CENTER
 62
     5
 10
853.426450
 20
1199.784775
 11
853.426450
 21
876.149579
  0
LINE
  8
CSLAYER1
  6
CONTINUOUS
 62
     3
 10
875.926450
 20
1173.584775
 11
875.926450
 21
1198.784775
  0
LINE
  8
CSLAYER1
  6
CONTINUOUS
 62
     3
 10
830.926450
 20
1173.584775
 11
830.926450
 21
1198.784775
  0
LINE
  8
CSLAYER1
  6
CONTINUOUS
 62
     3
 10
831.926450
 20
1199.784775
 11
874.926450
 21
1199.784775
  0
LINE
  8
CSLAYER1
  6
CONTINUOUS
 62
     3
 10
830.926450
 20
1198.784775
 11
831.926450
 21
1199.784775
  0
LINE
  8
CSLAYER1
  6
CONTINUOUS
 62
     3
 10
874.926450
 20
1199.784775
 11
875.926450
 21
1198.784775
  0
POINT
  8
CSLAYER1
 62
     3
 10
853.426450
 20
1186.184775
  0
LINE
  8
CSLAYER1
  6
CONTINUOUS
 62
     3
 10
876.926450
 20
1194.184775
 11
875.926450
 21
1194.184775
  0
LINE
  8
CSLAYER1
  6
CONTINUOUS
 62
     3
 10
830.926450
 20
1194.184775
 11
829.926450
 21
1194.184775
  0
LINE
  8
CSLAYER1
  6
CENTER
 62
     5
 10
824.426450
 20
903.477787
 11
882.426450
 21
903.477787
  0
LINE
  8
CSLAYER1
  6
CONTINUOUS
 62
     3
 10
876.338928
 20
1064.310141
 11
880.821804
 21
1047.020915
  0
LINE
  8
CSLAYER1
  6
CONTINUOUS
 62
     3
 10
876.338928
 20
1064.310141
 11
876.077028
 21
1065.274586
  0
LINE
  8
CSLAYER1
  6
CONTINUOUS
 62
     3
 10
876.077028
 20
1065.274586
 11
875.642744
 21
1066.224294
  0
LINE
  8
CSLAYER1
  6
CONTINUOUS
 62
     3
 10
875.642744
 20
1066.224294
 11
875.039380
 21
1067.152038
  0
LINE
  8
CSLAYER1
  6
CONTINUOUS
 62
     3
 10
875.039380
 20
1067.152038
 11
874.271529
 21
1068.050757
  0
LINE
  8
CSLAYER1
  6
CONTINUOUS
 62
     3
 10
874.271529
 20
1068.050757
 11
873.345034
 21
1068.913611
  0
LINE
  8
CSLAYER1
  6
CONTINUOUS
 62
     3
 10
873.345034
 20
1068.913611
 11
872.266947
 21
1069.734034
  0
LINE
  8
CSLAYER1
  6
CONTINUOUS
 62
     3
 10
872.266947
 20
1069.734034
 11
871.045472
 21
1070.505782
  0
LINE
  8
CSLAYER1
  6
CONTINUOUS
 62
     3
 10
871.045472
 20
1070.505782
 11
869.689906
 21
1071.222981
  0
LINE
  8
CSLAYER1
  6
CONTINUOUS
 62
     3
 10
869.689906
 20
1071.222981
 11
868.210565
 21
1071.880172
  0
LINE
  8
CSLAYER1
  6
CONTINUOUS
 62
     3
 10
868.210565
 20
1071.880172
 11
866.618708
 21
1072.472355
  0
LINE
  8
CSLAYER1
  6
CONTINUOUS
 62
     3
 10
866.618708
 20
1072.472355
 11
864.926450
 21
1072.995022
  0
LINE
  8
CSLAYER1
  6
CONTINUOUS
 62
     3
 10
864.926450
 20
1072.995022
 11
863.146670
 21
1073.444196
  0
LINE
  8
CSLAYER1
  6
CONTINUOUS
 62
     3
 10
863.146670
 20
1073.444196
 11
861.292913
 21
1073.816457
  0
LINE
  8
CSLAYER1
  6
CONTINUOUS
 62
     3
 10
861.292913
 20
1073.816457
 11
859.379288
 21
1074.108974
  0
LINE
  8
CSLAYER1
  6
CONTINUOUS
 62
     3
 10
859.379288
 20
1074.108974
 11
857.420358
 21
1074.319519
  0
LINE
  8
CSLAYER1
  6
CONTINUOUS
 62
     3
 10
857.420358
 20
1074.319519
 11
855.431032
 21
1074.446490
  0
LINE
  8
CSLAYER1
  6
CONTINUOUS
 62
     3
 10
855.431032
 20
1074.446490
 11
853.426450
 21
1074.488922
  0
LINE
  8
CSLAYER1
  6
CONTINUOUS
 62
     3
 10
830.513972
 20
1064.310141
 11
826.031095
 21
1047.020915
  0
LINE
  8
CSLAYER1
  6
CONTINUOUS
 62
     3
 10
830.513972
 20
1064.310141
 11
830.775871
 21
1065.274586
  0
LINE
  8
CSLAYER1
  6
CONTINUOUS
 62
     3
 10
830.775871
 20
1065.274586
 11
831.210156
 21
1066.224294
  0
LINE
  8
CSLAYER1
  6
CONTINUOUS
 62
     3
 10
831.210156
 20
1066.224294
 11
831.813519
 21
1067.152038
  0
LINE
  8
CSLAYER1
  6
CONTINUOUS
 62
     3
 10
831.813519
 20
1067.152038
 11
832.581371
 21
1068.050757
  0
LINE
  8
CSLAYER1
  6
CONTINUOUS
 62
     3
 10
832.581371
 20
1068.050757
 11
833.507865
 21
1068.913611
  0
LINE
  8
CSLAYER1
  6
CONTINUOUS
 62
     3
 10
833.507865
 20
1068.913611
 11
834.585953
 21
1069.734034
  0
LINE
  8
CSLAYER1
  6
CONTINUOUS
 62
     3
 10
834.585953
 20
1069.734034
 11
835.807427
 21
1070.505782
  0
LINE
  8
CSLAYER1
  6
CONTINUOUS
 62
     3
 10
835.807427
 20
1070.505782
 11
837.162994
 21
1071.222981
  0
LINE
  8
CSLAYER1
  6
CONTINUOUS
 62
     3
 10
837.162994
 20
1071.222981
 11
838.642335
 21
1071.880172
  0
LINE
  8
CSLAYER1
  6
CONTINUOUS
 62
     3
 10
838.642335
 20
1071.880172
 11
840.234192
 21
1072.472355
  0
LINE
  8
CSLAYER1
  6
CONTINUOUS
 62
     3
 10
840.234192
 20
1072.472355
 11
841.926450
 21
1072.995022
  0
LINE
  8
CSLAYER1
  6
CONTINUOUS
 62
     3
 10
841.926450
 20
1072.995022
 11
843.706230
 21
1073.444196
  0
LINE
  8
CSLAYER1
  6
CONTINUOUS
 62
     3
 10
843.706230
 20
1073.444196
 11
845.559986
 21
1073.816457
  0
LINE
  8
CSLAYER1
  6
CONTINUOUS
 62
     3
 10
845.559986
 20
1073.816457
 11
847.473612
 21
1074.108974
  0
LINE
  8
CSLAYER1
  6
CONTINUOUS
 62
     3
 10
847.473612
 20
1074.108974
 11
849.432542
 21
1074.319519
  0
LINE
  8
CSLAYER1
  6
CONTINUOUS
 62
     3
 10
849.432542
 20
1074.319519
 11
851.421868
 21
1074.446490
  0
LINE
  8
CSLAYER1
  6
CONTINUOUS
 62
     3
 10
851.421868
 20
1074.446490
 11
853.426450
 21
1074.488922
  0
LINE
  8
CSLAYER1
  6
CONTINUOUS
 62
     3
 10
871.426450
 20
1070.265074
 11
871.426450
 21
1175.027992
  0
LINE
  8
CSLAYER1
  6
CONTINUOUS
 62
     3
 10
871.426450
 20
1174.519655
 11
871.357954
 21
1175.280226
  0
LINE
  8
CSLAYER1
  6
CONTINUOUS
 62
     3
 10
871.357954
 20
1175.280226
 11
871.152989
 21
1176.035008
  0
LINE
  8
CSLAYER1
  6
CONTINUOUS
 62
     3
 10
871.152989
 20
1176.035008
 11
870.813115
 21
1176.778258
  0
LINE
  8
CSLAYER1
  6
CONTINUOUS
 62
     3
 10
870.813115
 20
1176.778258
 11
870.340917
 21
1177.504319
  0
LINE
  8
CSLAYER1
  6
CONTINUOUS
 62
     3
 10
870.340917
 20
1177.504319
 11
869.739990
 21
1178.207664
  0
LINE
  8
CSLAYER1
  6
CONTINUOUS
 62
     3
 10
869.739990
 20
1178.207664
 11
869.014907
 21
1178.882941
  0
LINE
  8
CSLAYER1
  6
CONTINUOUS
 62
     3
 10
869.014907
 20
1178.882941
 11
868.171186
 21
1179.525011
  0
LINE
  8
CSLAYER1
  6
CONTINUOUS
 62
     3
 10
868.171186
 20
1179.525011
 11
867.215250
 21
1180.128988
  0
LINE
  8
CSLAYER1
  6
CONTINUOUS
 62
     3
 10
867.215250
 20
1180.128988
 11
866.154372
 21
1180.690274
  0
LINE
  8
CSLAYER1
  6
CONTINUOUS
 62
     3
 10
866.154372
 20
1180.690274
 11
864.996627
 21
1181.204598
  0
LINE
  8
CSLAYER1
  6
CONTINUOUS
 62
     3
 10
864.996627
 20
1181.204598
 11
863.750826
 21
1181.668045
  0
LINE
  8
CSLAYER1
  6
CONTINUOUS
 62
     3
 10
863.750826
 20
1181.668045
 11
862.426450
 21
1182.077089
  0
LINE
  8
CSLAYER1
  6
CONTINUOUS
 62
     3
 10
862.426450
 20
1182.077089
 11
861.033578
 21
1182.428616
  0
LINE
  8
CSLAYER1
  6
CONTINUOUS
 62
     3
 10
861.033578
 20
1182.428616
 11
859.582812
 21
1182.719951
  0
LINE
  8
CSLAYER1
  6
CONTINUOUS
 62
     3
 10
859.582812
 20
1182.719951
 11
858.085192
 21
1182.948877
  0
LINE
  8
CSLAYER1
  6
CONTINUOUS
 62
     3
 10
858.085192
 20
1182.948877
 11
856.552117
 21
1183.113652
  0
LINE
  8
CSLAYER1
  6
CONTINUOUS
 62
     3
 10
856.552117
 20
1183.113652
 11
854.995253
 21
1183.213021
  0
LINE
  8
CSLAYER1
  6
CONTINUOUS
 62
     3
 10
854.995253
 20
1183.213021
 11
853.426450
 21
1183.246228
  0
LINE
  8
CSLAYER1
  6
CONTINUOUS
 62
     3
 10
853.426450
 20
1183.246228
 11
851.857646
 21
1183.213021
  0
LINE
  8
CSLAYER1
  6
CONTINUOUS
 62
     3
 10
851.857646
 20
1183.213021
 11
850.300782
 21
1183.113652
  0
LINE
  8
CSLAYER1
  6
CONTINUOUS
 62
     3
 10
850.300782
 20
1183.113652
 11
848.767707
 21
1182.948877
  0
LINE
  8
CSLAYER1
  6
CONTINUOUS
 62
     3
 10
848.767707
 20
1182.948877
 11
847.270087
 21
1182.719951
  0
LINE
  8
CSLAYER1
  6
CONTINUOUS
 62
     3
 10
847.270087
 20
1182.719951
 11
845.819321
 21
1182.428616
  0
LINE
  8
CSLAYER1
  6
CONTINUOUS
 62
     3
 10
845.819321
 20
1182.428616
 11
844.426450
 21
1182.077089
  0
LINE
  8
CSLAYER1
  6
CONTINUOUS
 62
     3
 10
844.426450
 20
1182.077089
 11
843.102074
 21
1181.668045
  0
LINE
  8
CSLAYER1
  6
CONTINUOUS
 62
     3
 10
843.102074
 20
1181.668045
 11
841.856273
 21
1181.204598
  0
LINE
  8
CSLAYER1
  6
CONTINUOUS
 62
     3
 10
841.856273
 20
1181.204598
 11
840.698528
 21
1180.690274
  0
LINE
  8
CSLAYER1
  6
CONTINUOUS
 62
     3
 10
840.698528
 20
1180.690274
 11
839.637650
 21
1180.128988
  0
LINE
  8
CSLAYER1
  6
CONTINUOUS
 62
     3
 10
839.637650
 20
1180.128988
 11
838.681713
 21
1179.525011
  0
LINE
  8
CSLAYER1
  6
CONTINUOUS
 62
     3
 10
838.681713
 20
1179.525011
 11
837.837992
 21
1178.882941
  0
LINE
  8
CSLAYER1
  6
CONTINUOUS
 62
     3
 10
837.837992
 20
1178.882941
 11
837.112910
 21
1178.207664
  0
LINE
  8
CSLAYER1
  6
CONTINUOUS
 62
     3
 10
837.112910
 20
1178.207664
 11
836.511983
 21
1177.504319
  0
LINE
  8
CSLAYER1
  6
CONTINUOUS
 62
     3
 10
836.511983
 20
1177.504319
 11
836.039785
 21
1176.778258
  0
LINE
  8
CSLAYER1
  6
CONTINUOUS
 62
     3
 10
836.039785
 20
1176.778258
 11
835.699910
 21
1176.035008
  0
LINE
  8
CSLAYER1
  6
CONTINUOUS
 62
     3
 10
835.699910
 20
1176.035008
 11
835.494945
 21
1175.280226
  0
LINE
  8
CSLAYER1
  6
CONTINUOUS
 62
     3
 10
835.494945
 20
1175.280226
 11
835.426450
 21
1174.519655
  0
LINE
  8
CSLAYER1
  6
CONTINUOUS
 62
     3
 10
880.926450
 20
1045.858932
 11
880.926450
 21
1015.270036
  0
LINE
  8
CSLAYER1
  6
CONTINUOUS
 62
     3
 10
880.926450
 20
1045.858932
 11
880.821804
 21
1047.020915
  0
LINE
  8
CSLAYER1
  6
CONTINUOUS
 62
     3
 10
880.821804
 20
1047.020915
 11
880.508663
 21
1048.174055
  0
LINE
  8
CSLAYER1
  6
CONTINUOUS
 62
     3
 10
880.508663
 20
1048.174055
 11
879.989410
 21
1049.309575
  0
LINE
  8
CSLAYER1
  6
CONTINUOUS
 62
     3
 10
879.989410
 20
1049.309575
 11
879.267997
 21
1050.418835
  0
LINE
  8
CSLAYER1
  6
CONTINUOUS
 62
     3
 10
879.267997
 20
1050.418835
 11
878.349914
 21
1051.493390
  0
LINE
  8
CSLAYER1
  6
CONTINUOUS
 62
     3
 10
878.349914
 20
1051.493390
 11
877.242148
 21
1052.525064
  0
LINE
  8
CSLAYER1
  6
CONTINUOUS
 62
     3
 10
877.242148
 20
1052.525064
 11
875.953131
 21
1053.506004
  0
LINE
  8
CSLAYER1
  6
CONTINUOUS
 62
     3
 10
875.953131
 20
1053.506004
 11
874.492672
 21
1054.428746
  0
LINE
  8
CSLAYER1
  6
CONTINUOUS
 62
     3
 10
874.492672
 20
1054.428746
 11
872.871886
 21
1055.286266
  0
LINE
  8
CSLAYER1
  6
CONTINUOUS
 62
     3
 10
872.871886
 20
1055.286266
 11
871.103109
 21
1056.072039
  0
LINE
  8
CSLAYER1
  6
CONTINUOUS
 62
     3
 10
871.103109
 20
1056.072039
 11
869.199802
 21
1056.780083
  0
LINE
  8
CSLAYER1
  6
CONTINUOUS
 62
     3
 10
869.199802
 20
1056.780083
 11
867.176450
 21
1057.405011
  0
LINE
  8
CSLAYER1
  6
CONTINUOUS
 62
     3
 10
867.176450
 20
1057.405011
 11
865.048452
 21
1057.942067
  0
LINE
  8
CSLAYER1
  6
CONTINUOUS
 62
     3
 10
865.048452
 20
1057.942067
 11
862.832004
 21
1058.387162
  0
LINE
  8
CSLAYER1
  6
CONTINUOUS
 62
     3
 10
862.832004
 20
1058.387162
 11
860.543973
 21
1058.736910
  0
LINE
  8
CSLAYER1
  6
CONTINUOUS
 62
     3
 10
860.543973
 20
1058.736910
 11
858.201775
 21
1058.988649
  0
LINE
  8
CSLAYER1
  6
CONTINUOUS
 62
     3
 10
858.201775
 20
1058.988649
 11
855.823233
 21
1059.140463
  0
LINE
  8
CSLAYER1
  6
CONTINUOUS
 62
     3
 10
855.823233
 20
1059.140463
 11
853.426450
 21
1059.191196
  0
LINE
  8
CSLAYER1
  6
CONTINUOUS
 62
     3
 10
853.426450
 20
1059.191196
 11
851.029667
 21
1059.140463
  0
LINE
  8
CSLAYER1
  6
CONTINUOUS
 62
     3
 10
851.029667
 20
1059.140463
 11
848.651125
 21
1058.988649
  0
LINE
  8
CSLAYER1
  6
CONTINUOUS
 62
     3
 10
848.651125
 20
1058.988649
 11
846.308926
 21
1058.736910
  0
LINE
  8
CSLAYER1
  6
CONTINUOUS
 62
     3
 10
846.308926
 20
1058.736910
 11
844.020896
 21
1058.387162
  0
LINE
  8
CSLAYER1
  6
CONTINUOUS
 62
     3
 10
844.020896
 20
1058.387162
 11
841.804447
 21
1057.942067
  0
LINE
  8
CSLAYER1
  6
CONTINUOUS
 62
     3
 10
841.804447
 20
1057.942067
 11
839.676450
 21
1057.405011
  0
LINE
  8
CSLAYER1
  6
CONTINUOUS
 62
     3
 10
839.676450
 20
1057.405011
 11
837.653098
 21
1056.780083
  0
LINE
  8
CSLAYER1
  6
CONTINUOUS
 62
     3
 10
837.653098
 20
1056.780083
 11
835.749790
 21
1056.072039
  0
LINE
  8
CSLAYER1
  6
CONTINUOUS
 62
     3
 10
835.749790
 20
1056.072039
 11
833.981013
 21
1055.286266
  0
LINE
  8
CSLAYER1
  6
CONTINUOUS
 62
     3
 10
833.981013
 20
1055.286266
 11
832.360228
 21
1054.428746
  0
LINE
  8
CSLAYER1
  6
CONTINUOUS
 62
     3
 10
832.360228
 20
1054.428746
 11
830.899768
 21
1053.506004
  0
LINE
  8
CSLAYER1
  6
CONTINUOUS
 62
     3
 10
830.899768
 20
1053.506004
 11
829.610751
 21
1052.525064
  0
LINE
  8
CSLAYER1
  6
CONTINUOUS
 62
     3
 10
829.610751
 20
1052.525064
 11
828.502986
 21
1051.493390
  0
LINE
  8
CSLAYER1
  6
CONTINUOUS
 62
     3
 10
828.502986
 20
1051.493390
 11
827.584903
 21
1050.418835
  0
LINE
  8
CSLAYER1
  6
CONTINUOUS
 62
     3
 10
827.584903
 20
1050.418835
 11
826.863489
 21
1049.309575
  0
LINE
  8
CSLAYER1
  6
CONTINUOUS
 62
     3
 10
826.863489
 20
1049.309575
 11
826.344236
 21
1048.174055
  0
LINE
  8
CSLAYER1
  6
CONTINUOUS
 62
     3
 10
826.344236
 20
1048.174055
 11
826.031095
 21
1047.020915
  0
LINE
  8
CSLAYER1
  6
CONTINUOUS
 62
     3
 10
826.031095
 20
1047.020915
 11
825.926450
 21
1045.858932
  0
LINE
  8
CSLAYER1
  6
CONTINUOUS
 62
     3
 10
825.926450
 20
1045.858932
 11
825.926450
 21
1015.270036
  0
LINE
  8
CSLAYER1
  6
CONTINUOUS
 62
     3
 10
877.726450
 20
920.957156
 11
877.726450
 21
1015.270036
  0
LINE
  8
CSLAYER1
  6
CONTINUOUS
 62
     3
 10
880.926450
 20
1015.270036
 11
880.821804
 21
1016.432019
  0
LINE
  8
CSLAYER1
  6
CONTINUOUS
 62
     3
 10
880.821804
 20
1016.432019
 11
880.508663
 21
1017.585159
  0
LINE
  8
CSLAYER1
  6
CONTINUOUS
 62
     3
 10
880.508663
 20
1017.585159
 11
879.989410
 21
1018.720680
  0
LINE
  8
CSLAYER1
  6
CONTINUOUS
 62
     3
 10
879.989410
 20
1018.720680
 11
879.267997
 21
1019.829939
  0
LINE
  8
CSLAYER1
  6
CONTINUOUS
 62
     3
 10
879.267997
 20
1019.829939
 11
878.349914
 21
1020.904494
  0
LINE
  8
CSLAYER1
  6
CONTINUOUS
 62
     3
 10
878.349914
 20
1020.904494
 11
877.242148
 21
1021.936168
  0
LINE
  8
CSLAYER1
  6
CONTINUOUS
 62
     3
 10
877.242148
 20
1021.936168
 11
875.953131
 21
1022.917108
  0
LINE
  8
CSLAYER1
  6
CONTINUOUS
 62
     3
 10
875.953131
 20
1022.917108
 11
874.492672
 21
1023.839850
  0
LINE
  8
CSLAYER1
  6
CONTINUOUS
 62
     3
 10
874.492672
 20
1023.839850
 11
872.871886
 21
1024.697370
  0
LINE
  8
CSLAYER1
  6
CONTINUOUS
 62
     3
 10
872.871886
 20
1024.697370
 11
871.103109
 21
1025.483143
  0
LINE
  8
CSLAYER1
  6
CONTINUOUS
 62
     3
 10
871.103109
 20
1025.483143
 11
869.199802
 21
1026.191187
  0
LINE
  8
CSLAYER1
  6
CONTINUOUS
 62
     3
 10
869.199802
 20
1026.191187
 11
867.176450
 21
1026.816115
  0
LINE
  8
CSLAYER1
  6
CONTINUOUS
 62
     3
 10
867.176450
 20
1026.816115
 11
865.048452
 21
1027.353171
  0
LINE
  8
CSLAYER1
  6
CONTINUOUS
 62
     3
 10
865.048452
 20
1027.353171
 11
862.832004
 21
1027.798266
  0
LINE
  8
CSLAYER1
  6
CONTINUOUS
 62
     3
 10
862.832004
 20
1027.798266
 11
860.543973
 21
1028.148014
  0
LINE
  8
CSLAYER1
  6
CONTINUOUS
 62
     3
 10
860.543973
 20
1028.148014
 11
858.201775
 21
1028.399753
  0
LINE
  8
CSLAYER1
  6
CONTINUOUS
 62
     3
 10
858.201775
 20
1028.399753
 11
855.823233
 21
1028.551567
  0
LINE
  8
CSLAYER1
  6
CONTINUOUS
 62
     3
 10
855.823233
 20
1028.551567
 11
853.426450
 21
1028.602300
  0
LINE
  8
CSLAYER1
  6
CONTINUOUS
 62
     3
 10
853.426450
 20
1028.602300
 11
851.029667
 21
1028.551567
  0
LINE
  8
CSLAYER1
  6
CONTINUOUS
 62
     3
 10
851.029667
 20
1028.551567
 11
848.651125
 21
1028.399753
  0
LINE
  8
CSLAYER1
  6
CONTINUOUS
 62
     3
 10
848.651125
 20
1028.399753
 11
846.308926
 21
1028.148014
  0
LINE
  8
CSLAYER1
  6
CONTINUOUS
 62
     3
 10
846.308926
 20
1028.148014
 11
844.020896
 21
1027.798266
  0
LINE
  8
CSLAYER1
  6
CONTINUOUS
 62
     3
 10
844.020896
 20
1027.798266
 11
841.804447
 21
1027.353171
  0
LINE
  8
CSLAYER1
  6
CONTINUOUS
 62
     3
 10
841.804447
 20
1027.353171
 11
839.676450
 21
1026.816115
  0
LINE
  8
CSLAYER1
  6
CONTINUOUS
 62
     3
 10
839.676450
 20
1026.816115
 11
837.653098
 21
1026.191187
  0
LINE
  8
CSLAYER1
  6
CONTINUOUS
 62
     3
 10
837.653098
 20
1026.191187
 11
835.749790
 21
1025.483143
  0
LINE
  8
CSLAYER1
  6
CONTINUOUS
 62
     3
 10
835.749790
 20
1025.483143
 11
833.981013
 21
1024.697370
  0
LINE
  8
CSLAYER1
  6
CONTINUOUS
 62
     3
 10
833.981013
 20
1024.697370
 11
832.360228
 21
1023.839850
  0
LINE
  8
CSLAYER1
  6
CONTINUOUS
 62
     3
 10
832.360228
 20
1023.839850
 11
830.899768
 21
1022.917108
  0
LINE
  8
CSLAYER1
  6
CONTINUOUS
 62
     3
 10
830.899768
 20
1022.917108
 11
829.610751
 21
1021.936168
  0
LINE
  8
CSLAYER1
  6
CONTINUOUS
 62
     3
 10
829.610751
 20
1021.936168
 11
828.502986
 21
1020.904494
  0
LINE
  8
CSLAYER1
  6
CONTINUOUS
 62
     3
 10
828.502986
 20
1020.904494
 11
827.584903
 21
1019.829939
  0
LINE
  8
CSLAYER1
  6
CONTINUOUS
 62
     3
 10
827.584903
 20
1019.829939
 11
826.863489
 21
1018.720680
  0
LINE
  8
CSLAYER1
  6
CONTINUOUS
 62
     3
 10
826.863489
 20
1018.720680
 11
826.344236
 21
1017.585159
  0
LINE
  8
CSLAYER1
  6
CONTINUOUS
 62
     3
 10
826.344236
 20
1017.585159
 11
826.031095
 21
1016.432019
  0
LINE
  8
CSLAYER1
  6
CONTINUOUS
 62
     3
 10
826.031095
 20
1016.432019
 11
825.926450
 21
1015.270036
  0
LINE
  8
CSLAYER1
  6
CONTINUOUS
 62
     3
 10
825.926450
 20
1015.270036
 11
826.031095
 21
1014.108052
  0
LINE
  8
CSLAYER1
  6
CONTINUOUS
 62
     3
 10
826.031095
 20
1014.108052
 11
826.344236
 21
1012.954912
  0
LINE
  8
CSLAYER1
  6
CONTINUOUS
 62
     3
 10
826.344236
 20
1012.954912
 11
826.863489
 21
1011.819392
  0
LINE
  8
CSLAYER1
  6
CONTINUOUS
 62
     3
 10
826.863489
 20
1011.819392
 11
827.584903
 21
1010.710133
  0
LINE
  8
CSLAYER1
  6
CONTINUOUS
 62
     3
 10
827.584903
 20
1010.710133
 11
828.502986
 21
1009.635577
  0
LINE
  8
CSLAYER1
  6
CONTINUOUS
 62
     3
 10
828.502986
 20
1009.635577
 11
829.126450
 21
1009.054938
  0
LINE
  8
CSLAYER1
  6
CONTINUOUS
 62
     3
 10
877.726450
 20
1009.054938
 11
878.349914
 21
1009.635577
  0
LINE
  8
CSLAYER1
  6
CONTINUOUS
 62
     3
 10
878.349914
 20
1009.635577
 11
879.267997
 21
1010.710133
  0
LINE
  8
CSLAYER1
  6
CONTINUOUS
 62
     3
 10
879.267997
 20
1010.710133
 11
879.989410
 21
1011.819392
  0
LINE
  8
CSLAYER1
  6
CONTINUOUS
 62
     3
 10
879.989410
 20
1011.819392
 11
880.508663
 21
1012.954912
  0
LINE
  8
CSLAYER1
  6
CONTINUOUS
 62
     3
 10
880.508663
 20
1012.954912
 11
880.821804
 21
1014.108052
  0
LINE
  8
CSLAYER1
  6
CONTINUOUS
 62
     3
 10
880.821804
 20
1014.108052
 11
880.926450
 21
1015.270036
  0
LINE
  8
CSLAYER1
  6
CONTINUOUS
 62
     3
 10
877.726450
 20
1015.270036
 11
877.633981
 21
1016.296806
  0
LINE
  8
CSLAYER1
  6
CONTINUOUS
 62
     3
 10
877.633981
 20
1016.296806
 11
877.357278
 21
1017.315763
  0
LINE
  8
CSLAYER1
  6
CONTINUOUS
 62
     3
 10
877.357278
 20
1017.315763
 11
876.898447
 21
1018.319150
  0
LINE
  8
CSLAYER1
  6
CONTINUOUS
 62
     3
 10
876.898447
 20
1018.319150
 11
876.260980
 21
1019.299332
  0
LINE
  8
CSLAYER1
  6
CONTINUOUS
 62
     3
 10
876.260980
 20
1019.299332
 11
875.449729
 21
1020.248848
  0
LINE
  8
CSLAYER1
  6
CONTINUOUS
 62
     3
 10
875.449729
 20
1020.248848
 11
874.470867
 21
1021.160472
  0
LINE
  8
CSLAYER1
  6
CONTINUOUS
 62
     3
 10
874.470867
 20
1021.160472
 11
873.331844
 21
1022.027267
  0
LINE
  8
CSLAYER1
  6
CONTINUOUS
 62
     3
 10
873.331844
 20
1022.027267
 11
872.041330
 21
1022.842635
  0
LINE
  8
CSLAYER1
  6
CONTINUOUS
 62
     3
 10
872.041330
 20
1022.842635
 11
870.609144
 21
1023.600371
  0
LINE
  8
CSLAYER1
  6
CONTINUOUS
 62
     3
 10
870.609144
 20
1023.600371
 11
869.046189
 21
1024.294708
  0
LINE
  8
CSLAYER1
  6
CONTINUOUS
 62
     3
 10
869.046189
 20
1024.294708
 11
867.364357
 21
1024.920362
  0
LINE
  8
CSLAYER1
  6
CONTINUOUS
 62
     3
 10
867.364357
 20
1024.920362
 11
865.576450
 21
1025.472572
  0
LINE
  8
CSLAYER1
  6
CONTINUOUS
 62
     3
 10
865.576450
 20
1025.472572
 11
863.696073
 21
1025.947133
  0
LINE
  8
CSLAYER1
  6
CONTINUOUS
 62
     3
 10
863.696073
 20
1025.947133
 11
861.737539
 21
1026.340436
  0
LINE
  8
CSLAYER1
  6
CONTINUOUS
 62
     3
 10
861.737539
 20
1026.340436
 11
859.715752
 21
1026.649486
  0
LINE
  8
CSLAYER1
  6
CONTINUOUS
 62
     3
 10
859.715752
 20
1026.649486
 11
857.646100
 21
1026.871931
  0
LINE
  8
CSLAYER1
  6
CONTINUOUS
 62
     3
 10
857.646100
 20
1026.871931
 11
855.544334
 21
1027.006080
  0
LINE
  8
CSLAYER1
  6
CONTINUOUS
 62
     3
 10
855.544334
 20
1027.006080
 11
853.426450
 21
1027.050909
  0
LINE
  8
CSLAYER1
  6
CONTINUOUS
 62
     3
 10
853.426450
 20
1027.050909
 11
851.308565
 21
1027.006080
  0
LINE
  8
CSLAYER1
  6
CONTINUOUS
 62
     3
 10
851.308565
 20
1027.006080
 11
849.206799
 21
1026.871931
  0
LINE
  8
CSLAYER1
  6
CONTINUOUS
 62
     3
 10
849.206799
 20
1026.871931
 11
847.137147
 21
1026.649486
  0
LINE
  8
CSLAYER1
  6
CONTINUOUS
 62
     3
 10
847.137147
 20
1026.649486
 11
845.115360
 21
1026.340436
  0
LINE
  8
CSLAYER1
  6
CONTINUOUS
 62
     3
 10
845.115360
 20
1026.340436
 11
843.156826
 21
1025.947133
  0
LINE
  8
CSLAYER1
  6
CONTINUOUS
 62
     3
 10
843.156826
 20
1025.947133
 11
841.276450
 21
1025.472572
  0
LINE
  8
CSLAYER1
  6
CONTINUOUS
 62
     3
 10
841.276450
 20
1025.472572
 11
839.488542
 21
1024.920362
  0
LINE
  8
CSLAYER1
  6
CONTINUOUS
 62
     3
 10
839.488542
 20
1024.920362
 11
837.806711
 21
1024.294708
  0
LINE
  8
CSLAYER1
  6
CONTINUOUS
 62
     3
 10
837.806711
 20
1024.294708
 11
836.243755
 21
1023.600371
  0
LINE
  8
CSLAYER1
  6
CONTINUOUS
 62
     3
 10
836.243755
 20
1023.600371
 11
834.811570
 21
1022.842635
  0
LINE
  8
CSLAYER1
  6
CONTINUOUS
 62
     3
 10
834.811570
 20
1022.842635
 11
833.521055
 21
1022.027267
  0
LINE
  8
CSLAYER1
  6
CONTINUOUS
 62
     3
 10
833.521055
 20
1022.027267
 11
832.382032
 21
1021.160472
  0
LINE
  8
CSLAYER1
  6
CONTINUOUS
 62
     3
 10
832.382032
 20
1021.160472
 11
831.403170
 21
1020.248848
  0
LINE
  8
CSLAYER1
  6
CONTINUOUS
 62
     3
 10
831.403170
 20
1020.248848
 11
830.591919
 21
1019.299332
  0
LINE
  8
CSLAYER1
  6
CONTINUOUS
 62
     3
 10
830.591919
 20
1019.299332
 11
829.954452
 21
1018.319150
  0
LINE
  8
CSLAYER1
  6
CONTINUOUS
 62
     3
 10
829.954452
 20
1018.319150
 11
829.495621
 21
1017.315763
  0
LINE
  8
CSLAYER1
  6
CONTINUOUS
 62
     3
 10
829.495621
 20
1017.315763
 11
829.218919
 21
1016.296806
  0
LINE
  8
CSLAYER1
  6
CONTINUOUS
 62
     3
 10
829.218919
 20
1016.296806
 11
829.126450
 21
1015.270036
  0
LINE
  8
CSLAYER1
  6
CONTINUOUS
 62
     3
 10
829.126450
 20
920.957156
 11
829.126450
 21
1015.270036
  0
LINE
  8
CSLAYER1
  6
CONTINUOUS
 62
     3
 10
835.426450
 20
1070.265074
 11
835.426450
 21
1174.519655
  0
LINE
  8
CSLAYER1
  6
CONTINUOUS
 62
     3
 10
875.926450
 20
890.368260
 11
875.926450
 21
920.957156
  0
LINE
  8
CSLAYER1
  6
CONTINUOUS
 62
     3
 10
875.926450
 20
920.957156
 11
875.840830
 21
921.907870
  0
LINE
  8
CSLAYER1
  6
CONTINUOUS
 62
     3
 10
875.840830
 20
921.907870
 11
875.584624
 21
922.851348
  0
LINE
  8
CSLAYER1
  6
CONTINUOUS
 62
     3
 10
875.584624
 20
922.851348
 11
875.159781
 21
923.780410
  0
LINE
  8
CSLAYER1
  6
CONTINUOUS
 62
     3
 10
875.159781
 20
923.780410
 11
874.569534
 21
924.687986
  0
LINE
  8
CSLAYER1
  6
CONTINUOUS
 62
     3
 10
874.569534
 20
924.687986
 11
873.818375
 21
925.567168
  0
LINE
  8
CSLAYER1
  6
CONTINUOUS
 62
     3
 10
873.818375
 20
925.567168
 11
872.912021
 21
926.411265
  0
LINE
  8
CSLAYER1
  6
CONTINUOUS
 62
     3
 10
872.912021
 20
926.411265
 11
871.857371
 21
927.213852
  0
LINE
  8
CSLAYER1
  6
CONTINUOUS
 62
     3
 10
871.857371
 20
927.213852
 11
870.662450
 21
927.968823
  0
LINE
  8
CSLAYER1
  6
CONTINUOUS
 62
     3
 10
870.662450
 20
927.968823
 11
869.336352
 21
928.670430
  0
LINE
  8
CSLAYER1
  6
CONTINUOUS
 62
     3
 10
869.336352
 20
928.670430
 11
867.889171
 21
929.313335
  0
LINE
  8
CSLAYER1
  6
CONTINUOUS
 62
     3
 10
867.889171
 20
929.313335
 11
866.331920
 21
929.892644
  0
LINE
  8
CSLAYER1
  6
CONTINUOUS
 62
     3
 10
866.331920
 20
929.892644
 11
864.676450
 21
930.403949
  0
LINE
  8
CSLAYER1
  6
CONTINUOUS
 62
     3
 10
864.676450
 20
930.403949
 11
862.935361
 21
930.843358
  0
LINE
  8
CSLAYER1
  6
CONTINUOUS
 62
     3
 10
862.935361
 20
930.843358
 11
861.121903
 21
931.207527
  0
LINE
  8
CSLAYER1
  6
CONTINUOUS
 62
     3
 10
861.121903
 20
931.207527
 11
859.249878
 21
931.493684
  0
LINE
  8
CSLAYER1
  6
CONTINUOUS
 62
     3
 10
859.249878
 20
931.493684
 11
857.333534
 21
931.699652
  0
LINE
  8
CSLAYER1
  6
CONTINUOUS
 62
     3
 10
857.333534
 20
931.699652
 11
855.387454
 21
931.823864
  0
LINE
  8
CSLAYER1
  6
CONTINUOUS
 62
     3
 10
855.387454
 20
931.823864
 11
853.426450
 21
931.865373
  0
LINE
  8
CSLAYER1
  6
CONTINUOUS
 62
     3
 10
853.426450
 20
931.865373
 11
851.465445
 21
931.823864
  0
LINE
  8
CSLAYER1
  6
CONTINUOUS
 62
     3
 10
851.465445
 20
931.823864
 11
849.519366
 21
931.699652
  0
LINE
  8
CSLAYER1
  6
CONTINUOUS
 62
     3
 10
849.519366
 20
931.699652
 11
847.603021
 21
931.493684
  0
LINE
  8
CSLAYER1
  6
CONTINUOUS
 62
     3
 10
847.603021
 20
931.493684
 11
845.730996
 21
931.207527
  0
LINE
  8
CSLAYER1
  6
CONTINUOUS
 62
     3
 10
845.730996
 20
931.207527
 11
843.917539
 21
930.843358
  0
LINE
  8
CSLAYER1
  6
CONTINUOUS
 62
     3
 10
843.917539
 20
930.843358
 11
842.176450
 21
930.403949
  0
LINE
  8
CSLAYER1
  6
CONTINUOUS
 62
     3
 10
842.176450
 20
930.403949
 11
840.520980
 21
929.892644
  0
LINE
  8
CSLAYER1
  6
CONTINUOUS
 62
     3
 10
840.520980
 20
929.892644
 11
838.963728
 21
929.313335
  0
LINE
  8
CSLAYER1
  6
CONTINUOUS
 62
     3
 10
838.963728
 20
929.313335
 11
837.516547
 21
928.670430
  0
LINE
  8
CSLAYER1
  6
CONTINUOUS
 62
     3
 10
837.516547
 20
928.670430
 11
836.190450
 21
927.968823
  0
LINE
  8
CSLAYER1
  6
CONTINUOUS
 62
     3
 10
836.190450
 20
927.968823
 11
834.995529
 21
927.213852
  0
LINE
  8
CSLAYER1
  6
CONTINUOUS
 62
     3
 10
834.995529
 20
927.213852
 11
833.940878
 21
926.411265
  0
LINE
  8
CSLAYER1
  6
CONTINUOUS
 62
     3
 10
833.940878
 20
926.411265
 11
833.034524
 21
925.567168
  0
LINE
  8
CSLAYER1
  6
CONTINUOUS
 62
     3
 10
833.034524
 20
925.567168
 11
832.283366
 21
924.687986
  0
LINE
  8
CSLAYER1
  6
CONTINUOUS
 62
     3
 10
832.283366
 20
924.687986
 11
831.693119
 21
923.780410
  0
LINE
  8
CSLAYER1
  6
CONTINUOUS
 62
     3
 10
831.693119
 20
923.780410
 11
831.268275
 21
922.851348
  0
LINE
  8
CSLAYER1
  6
CONTINUOUS
 62
     3
 10
831.268275
 20
922.851348
 11
831.012069
 21
921.907870
  0
LINE
  8
CSLAYER1
  6
CONTINUOUS
 62
     3
 10
831.012069
 20
921.907870
 11
830.926450
 21
920.957156
  0
LINE
  8
CSLAYER1
  6
CONTINUOUS
 62
     3
 10
877.726450
 20
920.957156
 11
877.633981
 21
921.983927
  0
LINE
  8
CSLAYER1
  6
CONTINUOUS
 62
     3
 10
877.633981
 20
921.983927
 11
877.357278
 21
923.002884
  0
LINE
  8
CSLAYER1
  6
CONTINUOUS
 62
     3
 10
877.357278
 20
923.002884
 11
876.898447
 21
924.006271
  0
LINE
  8
CSLAYER1
  6
CONTINUOUS
 62
     3
 10
876.898447
 20
924.006271
 11
876.260980
 21
924.986452
  0
LINE
  8
CSLAYER1
  6
CONTINUOUS
 62
     3
 10
876.260980
 20
924.986452
 11
875.449729
 21
925.935969
  0
LINE
  8
CSLAYER1
  6
CONTINUOUS
 62
     3
 10
875.449729
 20
925.935969
 11
874.470867
 21
926.847593
  0
LINE
  8
CSLAYER1
  6
CONTINUOUS
 62
     3
 10
874.470867
 20
926.847593
 11
873.331844
 21
927.714388
  0
LINE
  8
CSLAYER1
  6
CONTINUOUS
 62
     3
 10
873.331844
 20
927.714388
 11
872.041330
 21
928.529756
  0
LINE
  8
CSLAYER1
  6
CONTINUOUS
 62
     3
 10
872.041330
 20
928.529756
 11
870.609144
 21
929.287492
  0
LINE
  8
CSLAYER1
  6
CONTINUOUS
 62
     3
 10
870.609144
 20
929.287492
 11
869.046189
 21
929.981829
  0
LINE
  8
CSLAYER1
  6
CONTINUOUS
 62
     3
 10
869.046189
 20
929.981829
 11
867.364357
 21
930.607483
  0
LINE
  8
CSLAYER1
  6
CONTINUOUS
 62
     3
 10
867.364357
 20
930.607483
 11
865.576450
 21
931.159692
  0
LINE
  8
CSLAYER1
  6
CONTINUOUS
 62
     3
 10
865.576450
 20
931.159692
 11
863.696073
 21
931.634254
  0
LINE
  8
CSLAYER1
  6
CONTINUOUS
 62
     3
 10
863.696073
 20
931.634254
 11
861.737539
 21
932.027556
  0
LINE
  8
CSLAYER1
  6
CONTINUOUS
 62
     3
 10
861.737539
 20
932.027556
 11
859.715752
 21
932.336607
  0
LINE
  8
CSLAYER1
  6
CONTINUOUS
 62
     3
 10
859.715752
 20
932.336607
 11
857.646100
 21
932.559052
  0
LINE
  8
CSLAYER1
  6
CONTINUOUS
 62
     3
 10
857.646100
 20
932.559052
 11
855.544334
 21
932.693200
  0
LINE
  8
CSLAYER1
  6
CONTINUOUS
 62
     3
 10
855.544334
 20
932.693200
 11
853.426450
 21
932.738030
  0
LINE
  8
CSLAYER1
  6
CONTINUOUS
 62
     3
 10
853.426450
 20
932.738030
 11
851.308565
 21
932.693200
  0
LINE
  8
CSLAYER1
  6
CONTINUOUS
 62
     3
 10
851.308565
 20
932.693200
 11
849.206799
 21
932.559052
  0
LINE
  8
CSLAYER1
  6
CONTINUOUS
 62
     3
 10
849.206799
 20
932.559052
 11
847.137147
 21
932.336607
  0
LINE
  8
CSLAYER1
  6
CONTINUOUS
 62
     3
 10
847.137147
 20
932.336607
 11
845.115360
 21
932.027556
  0
LINE
  8
CSLAYER1
  6
CONTINUOUS
 62
     3
 10
845.115360
 20
932.027556
 11
843.156826
 21
931.634254
  0
LINE
  8
CSLAYER1
  6
CONTINUOUS
 62
     3
 10
843.156826
 20
931.634254
 11
841.276450
 21
931.159692
  0
LINE
  8
CSLAYER1
  6
CONTINUOUS
 62
     3
 10
841.276450
 20
931.159692
 11
839.488542
 21
930.607483
  0
LINE
  8
CSLAYER1
  6
CONTINUOUS
 62
     3
 10
839.488542
 20
930.607483
 11
837.806711
 21
929.981829
  0
LINE
  8
CSLAYER1
  6
CONTINUOUS
 62
     3
 10
837.806711
 20
929.981829
 11
836.243755
 21
929.287492
  0
LINE
  8
CSLAYER1
  6
CONTINUOUS
 62
     3
 10
836.243755
 20
929.287492
 11
834.811570
 21
928.529756
  0
LINE
  8
CSLAYER1
  6
CONTINUOUS
 62
     3
 10
834.811570
 20
928.529756
 11
833.521055
 21
927.714388
  0
LINE
  8
CSLAYER1
  6
CONTINUOUS
 62
     3
 10
833.521055
 20
927.714388
 11
832.382032
 21
926.847593
  0
LINE
  8
CSLAYER1
  6
CONTINUOUS
 62
     3
 10
832.382032
 20
926.847593
 11
831.403170
 21
925.935969
  0
LINE
  8
CSLAYER1
  6
CONTINUOUS
 62
     3
 10
831.403170
 20
925.935969
 11
830.591919
 21
924.986452
  0
LINE
  8
CSLAYER1
  6
CONTINUOUS
 62
     3
 10
830.591919
 20
924.986452
 11
829.954452
 21
924.006271
  0
LINE
  8
CSLAYER1
  6
CONTINUOUS
 62
     3
 10
829.954452
 20
924.006271
 11
829.495621
 21
923.002884
  0
LINE
  8
CSLAYER1
  6
CONTINUOUS
 62
     3
 10
829.495621
 20
923.002884
 11
829.218919
 21
921.983927
  0
LINE
  8
CSLAYER1
  6
CONTINUOUS
 62
     3
 10
829.218919
 20
921.983927
 11
829.126450
 21
920.957156
  0
LINE
  8
CSLAYER1
  6
CONTINUOUS
 62
     3
 10
829.126450
 20
920.957156
 11
829.218919
 21
919.930385
  0
LINE
  8
CSLAYER1
  6
CONTINUOUS
 62
     3
 10
829.218919
 20
919.930385
 11
829.324210
 21
919.542650
  0
LINE
  8
CSLAYER1
  6
CONTINUOUS
 62
     3
 10
830.426450
 20
917.182289
 11
830.591919
 21
916.927860
  0
LINE
  8
CSLAYER1
  6
CONTINUOUS
 62
     3
 10
830.591919
 20
916.927860
 11
830.926450
 21
916.536314
  0
LINE
  8
CSLAYER1
  6
CONTINUOUS
 62
     3
 10
875.926450
 20
916.536314
 11
876.260980
 21
916.927860
  0
LINE
  8
CSLAYER1
  6
CONTINUOUS
 62
     3
 10
876.260980
 20
916.927860
 11
876.426450
 21
917.182289
  0
LINE
  8
CSLAYER1
  6
CONTINUOUS
 62
     3
 10
877.528689
 20
919.542650
 11
877.633981
 21
919.930385
  0
LINE
  8
CSLAYER1
  6
CONTINUOUS
 62
     3
 10
877.633981
 20
919.930385
 11
877.726450
 21
920.957156
  0
LINE
  8
CSLAYER1
  6
CONTINUOUS
 62
     3
 10
830.926450
 20
890.368260
 11
830.926450
 21
920.957156
  0
LINE
  8
CSLAYER1
  6
CONTINUOUS
 62
     3
 10
875.926450
 20
890.368260
 11
875.840830
 21
891.318974
  0
LINE
  8
CSLAYER1
  6
CONTINUOUS
 62
     3
 10
875.840830
 20
891.318974
 11
875.584624
 21
892.262452
  0
LINE
  8
CSLAYER1
  6
CONTINUOUS
 62
     3
 10
875.584624
 20
892.262452
 11
875.159781
 21
893.191515
  0
LINE
  8
CSLAYER1
  6
CONTINUOUS
 62
     3
 10
875.159781
 20
893.191515
 11
874.569534
 21
894.099090
  0
LINE
  8
CSLAYER1
  6
CONTINUOUS
 62
     3
 10
874.569534
 20
894.099090
 11
873.818375
 21
894.978272
  0
LINE
  8
CSLAYER1
  6
CONTINUOUS
 62
     3
 10
873.818375
 20
894.978272
 11
872.912021
 21
895.822369
  0
LINE
  8
CSLAYER1
  6
CONTINUOUS
 62
     3
 10
872.912021
 20
895.822369
 11
871.857371
 21
896.624956
  0
LINE
  8
CSLAYER1
  6
CONTINUOUS
 62
     3
 10
871.857371
 20
896.624956
 11
870.662450
 21
897.379927
  0
LINE
  8
CSLAYER1
  6
CONTINUOUS
 62
     3
 10
870.662450
 20
897.379927
 11
869.336352
 21
898.081534
  0
LINE
  8
CSLAYER1
  6
CONTINUOUS
 62
     3
 10
869.336352
 20
898.081534
 11
867.889171
 21
898.724439
  0
LINE
  8
CSLAYER1
  6
CONTINUOUS
 62
     3
 10
867.889171
 20
898.724439
 11
866.331920
 21
899.303748
  0
LINE
  8
CSLAYER1
  6
CONTINUOUS
 62
     3
 10
866.331920
 20
899.303748
 11
864.676450
 21
899.815053
  0
LINE
  8
CSLAYER1
  6
CONTINUOUS
 62
     3
 10
864.676450
 20
899.815053
 11
862.935361
 21
900.254462
  0
LINE
  8
CSLAYER1
  6
CONTINUOUS
 62
     3
 10
862.935361
 20
900.254462
 11
861.121903
 21
900.618631
  0
LINE
  8
CSLAYER1
  6
CONTINUOUS
 62
     3
 10
861.121903
 20
900.618631
 11
859.249878
 21
900.904788
  0
LINE
  8
CSLAYER1
  6
CONTINUOUS
 62
     3
 10
859.249878
 20
900.904788
 11
857.333534
 21
901.110756
  0
LINE
  8
CSLAYER1
  6
CONTINUOUS
 62
     3
 10
857.333534
 20
901.110756
 11
855.387454
 21
901.234968
  0
LINE
  8
CSLAYER1
  6
CONTINUOUS
 62
     3
 10
855.387454
 20
901.234968
 11
853.426450
 21
901.276477
  0
LINE
  8
CSLAYER1
  6
CONTINUOUS
 62
     3
 10
853.426450
 20
901.276477
 11
851.465445
 21
901.234968
  0
LINE
  8
CSLAYER1
  6
CONTINUOUS
 62
     3
 10
851.465445
 20
901.234968
 11
849.519366
 21
901.110756
  0
LINE
  8
CSLAYER1
  6
CONTINUOUS
 62
     3
 10
849.519366
 20
901.110756
 11
847.603021
 21
900.904788
  0
LINE
  8
CSLAYER1
  6
CONTINUOUS
 62
     3
 10
847.603021
 20
900.904788
 11
845.730996
 21
900.618631
  0
LINE
  8
CSLAYER1
  6
CONTINUOUS
 62
     3
 10
845.730996
 20
900.618631
 11
843.917539
 21
900.254462
  0
LINE
  8
CSLAYER1
  6
CONTINUOUS
 62
     3
 10
843.917539
 20
900.254462
 11
842.176450
 21
899.815053
  0
LINE
  8
CSLAYER1
  6
CONTINUOUS
 62
     3
 10
842.176450
 20
899.815053
 11
840.520980
 21
899.303748
  0
LINE
  8
CSLAYER1
  6
CONTINUOUS
 62
     3
 10
840.520980
 20
899.303748
 11
838.963728
 21
898.724439
  0
LINE
  8
CSLAYER1
  6
CONTINUOUS
 62
     3
 10
838.963728
 20
898.724439
 11
837.516547
 21
898.081534
  0
LINE
  8
CSLAYER1
  6
CONTINUOUS
 62
     3
 10
837.516547
 20
898.081534
 11
836.190450
 21
897.379927
  0
LINE
  8
CSLAYER1
  6
CONTINUOUS
 62
     3
 10
836.190450
 20
897.379927
 11
834.995529
 21
896.624956
  0
LINE
  8
CSLAYER1
  6
CONTINUOUS
 62
     3
 10
834.995529
 20
896.624956
 11
833.940878
 21
895.822369
  0
LINE
  8
CSLAYER1
  6
CONTINUOUS
 62
     3
 10
833.940878
 20
895.822369
 11
833.034524
 21
894.978272
  0
LINE
  8
CSLAYER1
  6
CONTINUOUS
 62
     3
 10
833.034524
 20
894.978272
 11
832.283366
 21
894.099090
  0
LINE
  8
CSLAYER1
  6
CONTINUOUS
 62
     3
 10
832.283366
 20
894.099090
 11
831.693119
 21
893.191515
  0
LINE
  8
CSLAYER1
  6
CONTINUOUS
 62
     3
 10
831.693119
 20
893.191515
 11
831.268275
 21
892.262452
  0
LINE
  8
CSLAYER1
  6
CONTINUOUS
 62
     3
 10
831.268275
 20
892.262452
 11
831.012069
 21
891.318974
  0
LINE
  8
CSLAYER1
  6
CONTINUOUS
 62
     3
 10
831.012069
 20
891.318974
 11
830.926450
 21
890.368260
  0
LINE
  8
CSLAYER1
  6
CONTINUOUS
 62
     3
 10
830.926450
 20
890.368260
 11
831.012069
 21
889.417547
  0
LINE
  8
CSLAYER1
  6
CONTINUOUS
 62
     3
 10
831.012069
 20
889.417547
 11
831.268275
 21
888.474068
  0
LINE
  8
CSLAYER1
  6
CONTINUOUS
 62
     3
 10
831.268275
 20
888.474068
 11
831.693119
 21
887.545006
  0
LINE
  8
CSLAYER1
  6
CONTINUOUS
 62
     3
 10
831.693119
 20
887.545006
 11
832.283366
 21
886.637431
  0
LINE
  8
CSLAYER1
  6
CONTINUOUS
 62
     3
 10
832.283366
 20
886.637431
 11
832.469771
 21
886.419255
  0
LINE
  8
CSLAYER1
  6
CONTINUOUS
 62
     3
 10
874.383128
 20
886.419255
 11
874.569534
 21
886.637431
  0
LINE
  8
CSLAYER1
  6
CONTINUOUS
 62
     3
 10
874.569534
 20
886.637431
 11
875.159781
 21
887.545006
  0
LINE
  8
CSLAYER1
  6
CONTINUOUS
 62
     3
 10
875.159781
 20
887.545006
 11
875.584624
 21
888.474068
  0
LINE
  8
CSLAYER1
  6
CONTINUOUS
 62
     3
 10
875.584624
 20
888.474068
 11
875.840830
 21
889.417547
  0
LINE
  8
CSLAYER1
  6
CONTINUOUS
 62
     3
 10
875.840830
 20
889.417547
 11
875.926450
 21
890.368260
  0
LINE
  8
CSLAYER1
  6
CENTER
 62
     5
 10
813.426450
 20
857.427893
 11
813.426450
 21
999.519881
  0
LINE
  8
CSLAYER1
  6
CONTINUOUS
 62
     3
 10
820.426450
 20
1012.183689
 11
806.426450
 21
1012.183689
  0
LINE
  8
CSLAYER1
  6
CONTINUOUS
 62
     3
 10
820.426450
 20
1004.383689
 11
806.426450
 21
1004.383689
  0
LINE
  8
CSLAYER1
  6
CONTINUOUS
 62
     3
 10
819.858381
 20
999.183689
 11
806.994518
 21
999.183689
  0
LINE
  8
CSLAYER1
  6
CONTINUOUS
 62
     3
 10
819.426450
 20
997.183689
 11
807.426450
 21
997.183689
  0
LINE
  8
CSLAYER1
  6
CONTINUOUS
 62
     3
 10
819.426450
 20
990.183689
 11
807.426450
 21
990.183689
  0
LINE
  8
CSLAYER1
  6
CONTINUOUS
 62
     3
 10
818.309476
 20
965.183689
 11
808.543424
 21
965.183689
  0
LINE
  8
CSLAYER1
  6
CONTINUOUS
 62
     3
 10
818.926450
 20
987.183689
 11
818.926450
 21
990.183689
  0
LINE
  8
CSLAYER1
  6
CONTINUOUS
 62
     3
 10
821.509353
 20
1005.008903
 11
821.509353
 21
1011.558474
  0
LINE
  8
CSLAYER1
  6
CONTINUOUS
 62
     3
 10
817.467902
 20
1005.008903
 11
817.467902
 21
1011.558474
  0
ARC
  8
CSLAYER1
  6
CONTINUOUS
 62
     3
 10
790.738679
 20
1004.425910
 40
29.587800
 50
345.831727
 51
359.918240
  0
ARC
  8
CSLAYER1
  6
CONTINUOUS
 62
     3
 10
836.114220
 20
1004.425910
 40
29.587800
 50
180.081760
 51
194.168273
  0
LINE
  8
CSLAYER1
  6
CONTINUOUS
 62
     3
 10
817.773764
 20
997.183689
 11
817.773764
 21
999.183689
  0
LINE
  8
CSLAYER1
  6
CONTINUOUS
 62
     3
 10
815.791998
 20
997.183689
 11
815.791998
 21
999.183689
  0
LINE
  8
CSLAYER1
  6
CONTINUOUS
 62
     3
 10
809.079136
 20
997.183689
 11
809.079136
 21
999.183689
  0
LINE
  8
CSLAYER1
  6
CONTINUOUS
 62
     3
 10
811.060901
 20
997.183689
 11
811.060901
 21
999.183689
  0
LINE
  8
CSLAYER1
  6
CONTINUOUS
 62
     3
 10
820.426450
 20
1012.183689
 11
821.509353
 21
1011.558474
  0
ARC
  8
CSLAYER1
  6
CONTINUOUS
 62
     3
 10
819.488628
 20
1008.632060
 40
3.556295
 50
64.625569
 51
124.625569
  0
ARC
  8
CSLAYER1
  6
CONTINUOUS
 62
     3
 10
813.426450
 20
998.808903
 40
13.374785
 50
72.412046
 51
90.000000
  0
LINE
  8
CSLAYER1
  6
CONTINUOUS
 62
     3
 10
820.426450
 20
1004.383689
 11
821.509353
 21
1005.008903
  0
ARC
  8
CSLAYER1
  6
CONTINUOUS
 62
     3
 10
819.488628
 20
1007.935317
 40
3.556295
 50
235.374431
 51
295.374431
  0
ARC
  8
CSLAYER1
  6
CONTINUOUS
 62
     3
 10
813.426450
 20
1017.758474
 40
13.374785
 50
270.000000
 51
287.587954
  0
LINE
  8
CSLAYER1
  6
CONTINUOUS
 62
     3
 10
805.343546
 20
1005.008903
 11
805.343546
 21
1011.558474
  0
LINE
  8
CSLAYER1
  6
CONTINUOUS
 62
     3
 10
809.384998
 20
1005.008903
 11
809.384998
 21
1011.558474
  0
LINE
  8
CSLAYER1
  6
CONTINUOUS
 62
     3
 10
806.426450
 20
1012.183689
 11
805.343546
 21
1011.558474
  0
ARC
  8
CSLAYER1
  6
CONTINUOUS
 62
     3
 10
807.364272
 20
1008.632060
 40
3.556295
 50
55.374431
 51
115.374431
  0
ARC
  8
CSLAYER1
  6
CONTINUOUS
 62
     3
 10
813.426450
 20
998.808903
 40
13.374785
 50
90.000000
 51
107.587954
  0
LINE
  8
CSLAYER1
  6
CONTINUOUS
 62
     3
 10
806.426450
 20
1004.383689
 11
805.343546
 21
1005.008903
  0
ARC
  8
CSLAYER1
  6
CONTINUOUS
 62
     3
 10
807.364272
 20
1007.935317
 40
3.556295
 50
244.625569
 51
304.625569
  0
ARC
  8
CSLAYER1
  6
CONTINUOUS
 62
     3
 10
813.426450
 20
1017.758474
 40
13.374785
 50
252.412046
 51
270.000000
  0
LINE
  8
CSLAYER1
  6
CONTINUOUS
 62
     3
 10
820.354653
 20
990.719587
 11
820.354653
 21
996.447790
  0
LINE
  8
CSLAYER1
  6
CONTINUOUS
 62
     3
 10
816.890551
 20
990.719587
 11
816.890551
 21
996.447790
  0
LINE
  8
CSLAYER1
  6
CONTINUOUS
 62
     3
 10
819.426450
 20
990.183689
 11
820.354653
 21
990.719587
  0
ARC
  8
CSLAYER1
  6
CONTINUOUS
 62
     3
 10
813.426450
 20
1001.647790
 40
11.464102
 50
270.000000
 51
287.821405
  0
ARC
  8
CSLAYER1
  6
CONTINUOUS
 62
     3
 10
818.622602
 20
993.249617
 40
3.066114
 50
236.143645
 51
295.804157
  0
LINE
  8
CSLAYER1
  6
CONTINUOUS
 62
     3
 10
819.426450
 20
996.983689
 11
820.354653
 21
996.447790
  0
ARC
  8
CSLAYER1
  6
CONTINUOUS
 62
     3
 10
813.426450
 20
985.519587
 40
11.464102
 50
72.178595
 51
90.000000
  0
ARC
  8
CSLAYER1
  6
CONTINUOUS
 62
     3
 10
818.622602
 20
993.917760
 40
3.066114
 50
64.195843
 51
123.856355
  0
LINE
  8
CSLAYER1
  6
CONTINUOUS
 62
     3
 10
819.426450
 20
996.983689
 11
807.426450
 21
996.983689
  0
LINE
  8
CSLAYER1
  6
CONTINUOUS
 62
     3
 10
816.890551
 20
996.983689
 11
816.890551
 21
997.183689
  0
LINE
  8
CSLAYER1
  6
CONTINUOUS
 62
     3
 10
807.926450
 20
987.183689
 11
807.926450
 21
990.183689
  0
LINE
  8
CSLAYER1
  6
CONTINUOUS
 62
     3
 10
806.498246
 20
990.719587
 11
806.498246
 21
996.447790
  0
LINE
  8
CSLAYER1
  6
CONTINUOUS
 62
     3
 10
809.962348
 20
990.719587
 11
809.962348
 21
996.447790
  0
LINE
  8
CSLAYER1
  6
CONTINUOUS
 62
     3
 10
807.426450
 20
990.183689
 11
806.498246
 21
990.719587
  0
ARC
  8
CSLAYER1
  6
CONTINUOUS
 62
     3
 10
813.426450
 20
1001.647790
 40
11.464102
 50
252.178595
 51
270.000000
  0
ARC
  8
CSLAYER1
  6
CONTINUOUS
 62
     3
 10
808.230297
 20
993.249617
 40
3.066114
 50
244.195843
 51
303.856355
  0
LINE
  8
CSLAYER1
  6
CONTINUOUS
 62
     3
 10
807.426450
 20
996.983689
 11
806.498246
 21
996.447790
  0
ARC
  8
CSLAYER1
  6
CONTINUOUS
 62
     3
 10
813.426450
 20
985.519587
 40
11.464102
 50
90.000000
 51
107.821405
  0
ARC
  8
CSLAYER1
  6
CONTINUOUS
 62
     3
 10
808.230297
 20
993.917760
 40
3.066114
 50
56.143645
 51
115.804157
  0
LINE
  8
CSLAYER1
  6
CONTINUOUS
 62
     3
 10
809.962348
 20
996.983689
 11
809.962348
 21
997.183689
  0
LINE
  8
CSLAYER1
  6
CONTINUOUS
 62
     3
 10
820.354653
 20
978.183689
 11
820.354653
 21
986.647790
  0
LINE
  8
CSLAYER1
  6
CONTINUOUS
 62
     3
 10
816.890551
 20
978.183689
 11
816.890551
 21
986.647790
  0
LINE
  8
CSLAYER1
  6
CONTINUOUS
 62
     3
 10
819.426450
 20
987.183689
 11
820.354653
 21
986.647790
  0
ARC
  8
CSLAYER1
  6
CONTINUOUS
 62
     3
 10
813.426450
 20
975.719587
 40
11.464102
 50
72.178595
 51
90.000000
  0
ARC
  8
CSLAYER1
  6
CONTINUOUS
 62
     3
 10
818.622602
 20
984.117760
 40
3.066114
 50
64.195843
 51
123.856355
  0
LINE
  8
CSLAYER1
  6
CONTINUOUS
 62
     3
 10
819.426450
 20
987.183689
 11
807.426450
 21
987.183689
  0
LINE
  8
CSLAYER1
  6
CONTINUOUS
 62
     3
 10
806.498246
 20
978.183689
 11
806.498246
 21
986.647790
  0
LINE
  8
CSLAYER1
  6
CONTINUOUS
 62
     3
 10
809.962348
 20
978.183689
 11
809.962348
 21
986.647790
  0
LINE
  8
CSLAYER1
  6
CONTINUOUS
 62
     3
 10
807.426450
 20
987.183689
 11
806.498246
 21
986.647790
  0
ARC
  8
CSLAYER1
  6
CONTINUOUS
 62
     3
 10
813.426450
 20
975.719587
 40
11.464102
 50
90.000000
 51
107.821405
  0
ARC
  8
CSLAYER1
  6
CONTINUOUS
 62
     3
 10
808.230297
 20
984.117760
 40
3.066114
 50
56.143645
 51
115.804157
  0
LINE
  8
CSLAYER1
  6
CONTINUOUS
 62
     3
 10
819.305731
 20
966.097229
 11
820.354653
 21
978.183689
  0
ARC
  8
CSLAYER1
  6
CONTINUOUS
 62
     3
 10
798.248961
 20
978.183689
 40
18.641590
 50
330.443788
 51
360.000000
  0
ARC
  8
CSLAYER1
  6
CONTINUOUS
 62
     3
 10
813.426450
 20
969.623543
 40
1.217263
 50
270.000000
 51
329.421532
  0
ARC
  8
CSLAYER1
  6
CONTINUOUS
 62
     3
 10
835.532141
 20
978.183689
 40
18.641590
 50
180.000000
 51
209.556212
  0
ARC
  8
CSLAYER1
  6
CONTINUOUS
 62
     3
 10
820.354653
 20
969.623543
 40
1.217263
 50
210.578468
 51
227.594217
  0
ARC
  8
CSLAYER1
  6
CONTINUOUS
 62
     3
 10
818.309476
 20
966.183689
 40
1.000000
 50
270.000000
 51
355.040021
  0
LINE
  8
CSLAYER1
  6
CONTINUOUS
 62
     3
 10
807.547168
 20
966.097229
 11
806.498246
 21
978.183689
  0
ARC
  8
CSLAYER1
  6
CONTINUOUS
 62
     3
 10
828.603938
 20
978.183689
 40
18.641590
 50
180.000000
 51
209.556212
  0
ARC
  8
CSLAYER1
  6
CONTINUOUS
 62
     3
 10
813.426450
 20
969.623543
 40
1.217263
 50
210.578468
 51
270.000000
  0
ARC
  8
CSLAYER1
  6
CONTINUOUS
 62
     3
 10
791.320758
 20
978.183689
 40
18.641590
 50
330.443788
 51
360.000000
  0
ARC
  8
CSLAYER1
  6
CONTINUOUS
 62
     3
 10
806.498246
 20
969.623543
 40
1.217263
 50
312.405783
 51
329.421532
  0
ARC
  8
CSLAYER1
  6
CONTINUOUS
 62
     3
 10
808.543424
 20
966.183689
 40
1.000000
 50
184.959979
 51
270.000000
  0
LINE
  8
CSLAYER1
  6
CONTINUOUS
 62
     3
 10
818.309476
 20
1031.883689
 11
808.543424
 21
1031.883689
  0
LINE
  8
CSLAYER1
  6
CENTER
 62
     5
 10
825.926450
 20
1024.883689
 11
820.426450
 21
1024.883689
  0
LINE
  8
CSLAYER1
  6
CONTINUOUS
 62
     3
 10
806.426450
 20
1017.883689
 11
806.426450
 21
1030.383689
  0
LINE
  8
CSLAYER1
  6
CONTINUOUS
 62
     3
 10
820.426450
 20
1031.883689
 11
807.926450
 21
1031.883689
  0
LINE
  8
CSLAYER1
  6
CONTINUOUS
 62
     3
 10
820.426450
 20
1017.883689
 11
806.426450
 21
1017.883689
  0
LINE
  8
CSLAYER1
  6
CONTINUOUS
 62
     3
 10
820.426450
 20
1017.883689
 11
820.426450
 21
1031.881244
  0
LINE
  8
CSLAYER1
  6
CONTINUOUS
 62
     3
 10
818.026450
 20
1012.183689
 11
818.026450
 21
1017.883689
  0
LINE
  8
CSLAYER1
  6
CONTINUOUS
 62
     4
 10
817.426450
 20
1012.183689
 11
817.426450
 21
1016.844458
  0
LINE
  8
CSLAYER1
  6
CONTINUOUS
 62
     4
 10
818.026450
 20
1017.883689
 11
817.426450
 21
1016.844458
  0
LINE
  8
CSLAYER1
  6
CONTINUOUS
 62
     3
 10
808.826450
 20
1012.183689
 11
808.826450
 21
1017.883689
  0
LINE
  8
CSLAYER1
  6
CONTINUOUS
 62
     4
 10
808.826450
 20
1017.883689
 11
809.426450
 21
1016.844458
  0
LINE
  8
CSLAYER1
  6
CONTINUOUS
 62
     4
 10
818.026450
 20
1016.844458
 11
808.826450
 21
1016.844458
  0
LINE
  8
CSLAYER1
  6
CONTINUOUS
 62
     3
 10
825.926450
 20
1020.031903
 11
820.426450
 21
1019.933689
  0
LINE
  8
CSLAYER1
  6
CONTINUOUS
 62
     4
 10
825.926450
 20
1020.732014
 11
820.413952
 21
1020.633577
  0
LINE
  8
CSLAYER1
  6
CONTINUOUS
 62
     3
 10
825.926450
 20
1029.735474
 11
820.426450
 21
1029.833689
  0
LINE
  8
CSLAYER1
  6
CONTINUOUS
 62
     4
 10
825.926450
 20
1029.035363
 11
820.413952
 21
1029.133800
  0
ARC
  8
CSLAYER1
  6
CONTINUOUS
 62
     3
 10
807.926450
 20
1030.383689
 40
1.500000
 50
90.000000
 51
180.000000
  0
LINE
  8
CSLAYER1
  6
CONTINUOUS
 62
     3
 10
831.926450
 20
1172.584775
 11
835.426450
 21
1172.584775
  0
LINE
  8
CSLAYER1
  6
CONTINUOUS
 62
     3
 10
830.926450
 20
1173.584775
 11
831.926450
 21
1172.584775
  0
LINE
  8
CSLAYER1
  6
CONTINUOUS
 62
     3
 10
874.926450
 20
1172.584775
 11
875.926450
 21
1173.584775
  0
LINE
  8
CSLAYER1
  6
CONTINUOUS
 62
     3
 10
876.926450
 20
1178.184775
 11
875.926450
 21
1178.184775
  0
LINE
  8
CSLAYER1
  6
CONTINUOUS
 62
     3
 10
830.926450
 20
1178.184775
 11
829.926450
 21
1178.184775
  0
LINE
  8
CSLAYER1
  6
CONTINUOUS
 62
     3
 10
871.426450
 20
1172.584775
 11
874.926450
 21
1172.584775
  0
LINE
  8
CSLAYER1
  6
CONTINUOUS
 62
     3
 10
809.276450
 20
858.349638
 11
809.276450
 21
965.183689
  0
LINE
  8
CSLAYER1
  6
CONTINUOUS
 62
     3
 10
817.576450
 20
858.349638
 11
817.576450
 21
965.183689
  0
LINE
  8
CSLAYER1
  6
CONTINUOUS
 62
     4
 10
809.426450
 20
1012.183689
 11
809.426450
 21
1016.844458
  0
ENDBLK
  8
0
  0
BLOCK
  8
CSLAYER1
  2
BLKF0004
 70
   64
 10
0.0
 20
0.0
 30
0.0
  0
LINE
  8
CSLAYER1
  6
CENTER
 62
     6
 10
1453.335276
 20
1872.556313
 11
1453.335276
 21
1850.030710
  0
LINE
  8
CSLAYER1
  6
CENTER
 62
     6
 10
1442.072474
 20
1861.293512
 11
1464.598077
 21
1861.293512
  0
ENDBLK
  8
0
  0
BLOCK
  8
CSLAYER1
  2
BLKF0005
 70
   64
 10
0.0
 20
0.0
 30
0.0
  0
LINE
  8
CSLAYER1
  6
CENTER
 62
     6
 10
1453.335276
 20
2100.030710
 11
1453.335276
 21
2122.556313
  0
LINE
  8
CSLAYER1
  6
CENTER
 62
     6
 10
1442.072474
 20
2111.293512
 11
1464.598077
 21
2111.293512
  0
ENDBLK
  8
0
  0
BLOCK
  8
CSLAYER1
  2
BLKF0006
 70
   64
 10
0.0
 20
0.0
 30
0.0
  0
LINE
  8
CSLAYER1
  6
CONTINUOUS
 62
     3
 10
776.426450
 20
1385.143654
 11
776.426450
 21
1399.913309
  0
LINE
  8
CSLAYER1
  6
CONTINUOUS
 62
     3
 10
779.426450
 20
1385.363309
 11
776.426450
 21
1385.363309
  0
LINE
  8
CSLAYER1
  6
CONTINUOUS
 62
     3
 10
779.426450
 20
1394.601113
 11
776.426450
 21
1398.101113
  0
LINE
  8
CSLAYER1
  6
CONTINUOUS
 62
     3
 10
768.426450
 20
1396.113309
 11
768.426450
 21
1399.913309
  0
ARC
  8
CSLAYER1
  6
CONTINUOUS
 62
     3
 10
782.222194
 20
1396.113309
 40
13.795744
 50
164.011330
 51
180.000000
  0
LINE
  8
CSLAYER1
  6
CONTINUOUS
 62
     3
 10
768.426450
 20
1396.113309
 11
768.426450
 21
1387.113309
  0
LINE
  8
CSLAYER1
  6
CONTINUOUS
 62
     3
 10
776.426450
 20
1390.628482
 11
769.563631
 21
1390.628482
  0
LINE
  8
CSLAYER1
  6
CONTINUOUS
 62
     3
 10
776.426450
 20
1385.143654
 11
769.563631
 21
1385.143654
  0
LINE
  8
CSLAYER1
  6
CONTINUOUS
 62
     3
 10
768.426450
 20
1387.113309
 11
769.563631
 21
1385.143654
  0
ARC
  8
CSLAYER1
  6
CONTINUOUS
 62
     3
 10
772.206494
 20
1387.886068
 40
3.808617
 50
133.940972
 51
174.338367
  0
ARC
  8
CSLAYER1
  6
CONTINUOUS
 62
     3
 10
782.222194
 20
1396.113309
 40
13.795744
 50
180.000000
 51
203.426598
  0
ENDBLK
  8
0
  0
BLOCK
  8
CSLAYER1
  2
BLKF0007
 70
   64
 10
0.0
 20
0.0
 30
0.0
  0
LINE
  8
CSLAYER1
  6
CONTINUOUS
 62
     3
 10
2250.880234
 20
1429.913309
 11
2250.880234
 21
1399.913309
  0
LINE
  8
CSLAYER1
  6
CONTINUOUS
 62
     3
 10
2248.580234
 20
1397.613309
 11
2248.580234
 21
1399.913309
  0
POINT
  8
CSLAYER1
 62
     3
 10
1473.180234
 20
1396.113309
  0
POINT
  8
CSLAYER1
 62
     3
 10
1473.180234
 20
1396.113309
  0
LINE
  8
CSLAYER1
  6
CONTINUOUS
 62
     3
 10
1450.880234
 20
1429.913309
 11
1450.880234
 21
1399.913309
  0
LINE
  8
CSLAYER1
  6
CONTINUOUS
 62
     3
 10
1503.180234
 20
1397.613309
 11
2133.180234
 21
1397.613309
  0
LINE
  8
CSLAYER1
  6
CONTINUOUS
 62
     3
 10
1450.880234
 20
1429.913309
 11
2250.880234
 21
1429.913309
  0
LINE
  8
CSLAYER1
  6
CONTINUOUS
 62
     3
 10
1453.180234
 20
1399.913309
 11
1453.180234
 21
1390.613309
  0
LINE
  8
CSLAYER1
  6
CONTINUOUS
 62
     3
 10
1450.880234
 20
1399.913309
 11
1453.180234
 21
1399.913309
  0
LINE
  8
CSLAYER1
  6
CONTINUOUS
 62
     3
 10
1458.180234
 20
1385.613309
 11
1478.180234
 21
1385.613309
  0
ARC
  8
CSLAYER1
  6
CONTINUOUS
 62
     3
 10
1458.180234
 20
1390.613309
 40
5.000000
 50
180.000000
 51
270.000000
  0
LINE
  8
CSLAYER1
  6
CONTINUOUS
 62
     3
 10
1503.180234
 20
1394.613309
 11
1478.180234
 21
1385.613309
  0
LINE
  8
CSLAYER1
  6
CONTINUOUS
 62
     3
 10
1503.180234
 20
1399.913309
 11
1503.180234
 21
1394.613309
  0
LINE
  8
CSLAYER1
  6
CENTER
 62
     5
 10
1462.421866
 20
1396.113309
 11
1484.512366
 21
1396.113309
  0
LINE
  8
CSLAYER1
  6
CENTER
 62
     5
 10
1473.180234
 20
1385.613309
 11
1473.180234
 21
1399.913309
  0
LINE
  8
CSLAYER1
  6
CONTINUOUS
 62
     3
 10
1503.180234
 20
1397.613309
 11
2248.580234
 21
1397.613309
  0
LINE
  8
CSLAYER1
  6
CONTINUOUS
 62
     3
 10
1450.880234
 20
1399.913309
 11
2250.880234
 21
1399.913309
  0
ENDBLK
  8
0
  0
BLOCK
  8
CSLAYER1
  2
BLKF0008
 70
   64
 10
0.0
 20
0.0
 30
0.0
  0
LINE
  8
CSLAYER1
  6
PHANTOM
 62
     6
 10
2231.035276
 20
898.349638
 11
2231.035276
 21
868.349638
  0
LINE
  8
CSLAYER1
  6
PHANTOM
 62
     6
 10
2228.735276
 20
866.049638
 11
2228.735276
 21
868.349638
  0
POINT
  8
CSLAYER1
 62
     6
 10
1453.335276
 20
864.549638
  0
POINT
  8
CSLAYER1
 62
     6
 10
1453.335276
 20
864.549638
  0
LINE
  8
CSLAYER1
  6
PHANTOM
 62
     6
 10
1431.035276
 20
898.349638
 11
1431.035276
 21
868.349638
  0
LINE
  8
CSLAYER1
  6
PHANTOM
 62
     6
 10
1483.335276
 20
866.049638
 11
2113.335276
 21
866.049638
  0
LINE
  8
CSLAYER1
  6
PHANTOM
 62
     6
 10
1431.035276
 20
898.349638
 11
2231.035276
 21
898.349638
  0
LINE
  8
CSLAYER1
  6
PHANTOM
 62
     6
 10
1433.335276
 20
868.349638
 11
1433.335276
 21
859.049638
  0
LINE
  8
CSLAYER1
  6
PHANTOM
 62
     6
 10
1431.035276
 20
868.349638
 11
1433.335276
 21
868.349638
  0
LINE
  8
CSLAYER1
  6
PHANTOM
 62
     6
 10
1438.335276
 20
854.049638
 11
1458.335276
 21
854.049638
  0
ARC
  8
CSLAYER1
  6
PHANTOM
 62
     6
 10
1438.335276
 20
859.049638
 40
5.000000
 50
180.000000
 51
270.000000
  0
LINE
  8
CSLAYER1
  6
PHANTOM
 62
     6
 10
1483.335276
 20
863.049638
 11
1458.335276
 21
854.049638
  0
LINE
  8
CSLAYER1
  6
PHANTOM
 62
     6
 10
1483.335276
 20
868.349638
 11
1483.335276
 21
863.049638
  0
LINE
  8
CSLAYER1
  6
PHANTOM
 62
     6
 10
1442.576907
 20
864.549638
 11
1464.667408
 21
864.549638
  0
LINE
  8
CSLAYER1
  6
PHANTOM
 62
     6
 10
1453.335276
 20
854.049638
 11
1453.335276
 21
868.349638
  0
LINE
  8
CSLAYER1
  6
PHANTOM
 62
     6
 10
1483.335276
 20
866.049638
 11
2228.735276
 21
866.049638
  0
LINE
  8
CSLAYER1
  6
PHANTOM
 62
     6
 10
1431.035276
 20
868.349638
 11
2231.035276
 21
868.349638
  0
ENDBLK
  8
0
  0
BLOCK
  8
CSLAYER1
  2
BLKF0009
 70
   64
 10
0.0
 20
0.0
 30
0.0
  0
INSERT
  8
CSLAYER1
  2
EASYDRAWDIM0003
 10
0.0
 20
0.0
 30
0.0
  0
DIMENSION
  8
CSLAYER1
 62
     3
  2
*D0012
 10
1343.081215
 20
2111.293512
 11
1334.829102
 21
1960.740967
 13
1442.072474
 23
1861.293512
 14
1442.072474
 24
2111.293512
 50
90.000000
 70
1
  0
DIMENSION
  8
CSLAYER1
 62
     3
  2
*D0013
 10
1453.335276
 20
1772.233447
 11
1387.479736
 21
1755.966553
 13
1428.335276
 23
1705.421879
 14
1453.335276
 24
1850.030710
  0
DIMENSION
  8
CSLAYER1
 62
     3
  2
*D0014
 10
1478.335276
 20
1705.421879
 11
1388.641846
 21
1688.573975
 13
1428.335276
 23
1846.293512
 14
1478.335276
 24
1846.293512
 52
270.000000
 70
1
  0
INSERT
  8
CSLAYER1
  2
EASYDRAWDIM0004
 10
0.0
 20
0.0
 30
0.0
  0
LINE
  8
CSLAYER1
  6
CENTER
 62
     5
 10
1442.072474
 20
1861.293512
 11
1464.598077
 21
1861.293512
  0
LINE
  8
CSLAYER1
  6
CENTER
 62
     5
 10
1453.335276
 20
1872.556313
 11
1453.335276
 21
1850.030710
  0
LINE
  8
CSLAYER1
  6
CENTER
 62
     5
 10
1453.335276
 20
2100.030710
 11
1453.335276
 21
2122.556313
  0
LINE
  8
CSLAYER1
  6
CENTER
 62
     5
 10
1442.072474
 20
2111.293512
 11
1464.598077
 21
2111.293512
  0
ENDBLK
  8
0
  0
BLOCK
  8
CSLAYER1
  2
BLKF0010
 70
   64
 10
0.0
 20
0.0
 30
0.0
  0
ARC
  8
CSLAYER1
  6
CONTINUOUS
 62
     5
 10
2878.149578
 20
135.475260
 40
3.549225
 50
6.429109
 51
73.182034
  0
ARC
  8
CSLAYER1
  6
CONTINUOUS
 62
     5
 10
2874.688608
 20
134.316868
 40
6.907754
 50
310.517970
 51
330.092764
  0
ARC
  8
CSLAYER1
  6
CONTINUOUS
 62
     5
 10
2874.627958
 20
134.682385
 40
7.148321
 50
-32.205059
 51
9.585194
  0
ARC
  8
CSLAYER1
  6
CONTINUOUS
 62
     5
 10
2877.920686
 20
131.921387
 40
4.767514
 50
180.000000
 51
218.514150
  0
ARC
  8
CSLAYER1
  6
CONTINUOUS
 62
     5
 10
2876.633965
 20
131.244247
 40
3.348282
 50
222.781148
 51
319.406906
  0
ARC
  8
CSLAYER1
  6
CONTINUOUS
 62
     5
 10
2879.699607
 20
132.334139
 40
6.559434
 50
94.574282
 51
183.607718
  0
LINE
  8
CSLAYER1
  6
CONTINUOUS
 62
     5
 10
2893.143514
 20
127.217307
 11
2892.286477
 21
124.178724
  0
LINE
  8
CSLAYER1
  6
CONTINUOUS
 62
     5
 10
2894.935498
 20
147.084965
 11
2892.831864
 21
149.811898
  0
LINE
  8
CSLAYER1
  6
CONTINUOUS
 62
     5
 10
2892.831864
 20
149.811898
 11
2886.078510
 21
153.569810
  0
LINE
  8
CSLAYER1
  6
CONTINUOUS
 62
     5
 10
2886.078510
 20
153.569810
 11
2879.176482
 21
154.372681
  0
LINE
  8
CSLAYER1
  6
CONTINUOUS
 62
     5
 10
2860.887257
 20
140.994007
 11
2863.033951
 21
145.958238
  0
LINE
  8
CSLAYER1
  6
CONTINUOUS
 62
     5
 10
2862.996954
 20
145.872681
 11
2865.180646
 21
148.507437
  0
LINE
  8
CSLAYER1
  6
CONTINUOUS
 62
     5
 10
2865.180646
 20
148.507437
 11
2868.485068
 21
150.872681
  0
LINE
  8
CSLAYER1
  6
CONTINUOUS
 62
     5
 10
2879.176482
 20
154.372681
 11
2877.658307
 21
153.605836
  0
LINE
  8
CSLAYER1
  6
CONTINUOUS
 62
     5
 10
2877.658307
 20
153.605836
 11
2874.169928
 21
153.605836
  0
LINE
  8
CSLAYER1
  6
CONTINUOUS
 62
     5
 10
2874.169928
 20
153.605836
 11
2870.614466
 21
151.660395
  0
LINE
  8
CSLAYER1
  6
CONTINUOUS
 62
     5
 10
2870.614466
 20
151.660395
 11
2868.485068
 21
150.872681
  0
LINE
  8
CSLAYER1
  6
CONTINUOUS
 62
     5
 10
2860.887257
 20
140.994007
 11
2859.369710
 21
133.445404
  0
LINE
  8
CSLAYER1
  6
CONTINUOUS
 62
     5
 10
2859.369710
 20
133.445404
 11
2859.176482
 21
130.872681
  0
LINE
  8
CSLAYER1
  6
CONTINUOUS
 62
     5
 10
2861.885865
 20
123.032898
 11
2859.176482
 21
129.129009
  0
LINE
  8
CSLAYER1
  6
CONTINUOUS
 62
     5
 10
2859.176482
 20
129.129009
 11
2859.176482
 21
130.872681
  0
LINE
  8
CSLAYER1
  6
CONTINUOUS
 62
     5
 10
2892.286477
 20
124.178724
 11
2890.600690
 21
121.175718
  0
LINE
  8
CSLAYER1
  6
CONTINUOUS
 62
     5
 10
2890.600690
 20
121.175718
 11
2889.176482
 21
119.857007
  0
ARC
  8
CSLAYER1
  6
CONTINUOUS
 62
     5
 10
2876.984538
 20
131.409441
 40
17.266626
 50
208.054813
 51
260.640470
  0
ARC
  8
CSLAYER1
  6
CONTINUOUS
 62
     5
 10
2871.791143
 20
144.151911
 40
29.874611
 50
274.579659
 51
305.587364
  0
ARC
  8
CSLAYER1
  6
CONTINUOUS
 62
     5
 10
2882.763492
 20
138.168188
 40
15.088627
 50
313.467013
 51
331.085078
  0
LINE
  8
CSLAYER1
  6
CONTINUOUS
 62
     5
 10
2897.554824
 20
134.386102
 11
2897.852118
 21
138.168188
  0
LINE
  8
CSLAYER1
  6
CONTINUOUS
 62
     5
 10
2897.852118
 20
138.168188
 11
2896.560121
 21
144.277171
  0
LINE
  8
CSLAYER1
  6
CONTINUOUS
 62
     5
 10
2897.554824
 20
134.386102
 11
2895.971149
 21
130.872681
  0
ARC
  8
CSLAYER1
  6
CONTINUOUS
 62
     5
 10
2882.763492
 20
138.168188
 40
15.088627
 50
23.883193
 51
36.225170
  0
LINE
  8
CSLAYER1
  6
CONTINUOUS
 62
     5
 10
2843.176482
 20
165.872681
 11
2844.176482
 21
166.965325
  0
LINE
  8
CSLAYER1
  6
CONTINUOUS
 62
     5
 10
2843.176482
 20
165.872681
 11
2844.753440
 21
164.427647
  0
LINE
  8
CSLAYER1
  6
CONTINUOUS
 62
     5
 10
2846.292653
 20
162.318356
 11
2846.318921
 21
160.150237
  0
LINE
  8
CSLAYER1
  6
CONTINUOUS
 62
     5
 10
2846.318921
 20
160.150237
 11
2846.526319
 21
159.389778
  0
LINE
  8
CSLAYER1
  6
CONTINUOUS
 62
     5
 10
2846.526319
 20
159.389778
 11
2847.113947
 21
158.663885
  0
LINE
  8
CSLAYER1
  6
CONTINUOUS
 62
     5
 10
2847.113947
 20
158.663885
 11
2847.701574
 21
158.733017
  0
LINE
  8
CSLAYER1
  6
CONTINUOUS
 62
     5
 10
2847.701574
 20
158.733017
 11
2848.323768
 21
158.905849
  0
LINE
  8
CSLAYER1
  6
CONTINUOUS
 62
     5
 10
2848.323768
 20
158.905849
 11
2848.738564
 21
158.733017
  0
LINE
  8
CSLAYER1
  6
CONTINUOUS
 62
     5
 10
2848.738564
 20
158.733017
 11
2849.637289
 21
158.283655
  0
LINE
  8
CSLAYER1
  6
CONTINUOUS
 62
     5
 10
2849.637289
 20
158.283655
 11
2850.413340
 21
157.872681
  0
LINE
  8
CSLAYER1
  6
CONTINUOUS
 62
     5
 10
2850.413340
 20
157.872681
 11
2850.916243
 21
157.903425
  0
LINE
  8
CSLAYER1
  6
CONTINUOUS
 62
     5
 10
2850.916243
 20
157.903425
 11
2853.724115
 21
159.349905
  0
LINE
  8
CSLAYER1
  6
CONTINUOUS
 62
     5
 10
2844.176482
 20
166.965325
 11
2844.509334
 21
168.439032
  0
LINE
  8
CSLAYER1
  6
CONTINUOUS
 62
     5
 10
2844.509334
 20
168.439032
 11
2845.962739
 21
168.589385
  0
LINE
  8
CSLAYER1
  6
CONTINUOUS
 62
     5
 10
2847.456498
 20
171.357843
 11
2849.210671
 21
171.514933
  0
LINE
  8
CSLAYER1
  6
CONTINUOUS
 62
     5
 10
2849.210671
 20
171.514933
 11
2852.745199
 21
172.352747
  0
LINE
  8
CSLAYER1
  6
CONTINUOUS
 62
     5
 10
2852.745199
 20
172.352747
 11
2854.176482
 21
172.684386
  0
LINE
  8
CSLAYER1
  6
CONTINUOUS
 62
     5
 10
2847.456498
 20
171.357843
 11
2845.523607
 21
171.516711
  0
LINE
  8
CSLAYER1
  6
CONTINUOUS
 62
     5
 10
2844.787484
 20
170.648024
 11
2844.881009
 21
170.276862
  0
LINE
  8
CSLAYER1
  6
CONTINUOUS
 62
     5
 10
2844.881009
 20
170.276862
 11
2845.372603
 21
169.739181
  0
LINE
  8
CSLAYER1
  6
CONTINUOUS
 62
     5
 10
2845.372603
 20
169.739181
 11
2846.048545
 21
169.232225
  0
LINE
  8
CSLAYER1
  6
CONTINUOUS
 62
     5
 10
2846.048545
 20
169.232225
 11
2846.171870
 21
169.067792
  0
LINE
  8
CSLAYER1
  6
CONTINUOUS
 62
     5
 10
2844.753440
 20
164.427647
 11
2846.292653
 21
162.318356
  0
ARC
  8
CSLAYER1
  6
CONTINUOUS
 62
     5
 10
2889.163183
 20
-5.785972
 40
180.727463
 50
80.438896
 51
96.353582
  0
ARC
  8
CSLAYER1
  6
CONTINUOUS
 62
     5
 10
2864.264270
 20
139.461928
 40
34.720242
 50
81.866516
 51
106.890578
  0
LINE
  8
CSLAYER1
  6
CONTINUOUS
 62
     5
 10
2923.370744
 20
171.639351
 11
2925.617826
 21
170.617950
  0
LINE
  8
CSLAYER1
  6
CONTINUOUS
 62
     5
 10
2929.192731
 20
169.034778
 11
2925.617826
 21
170.617950
  0
LINE
  8
CSLAYER1
  6
CONTINUOUS
 62
     5
 10
2923.370744
 20
171.639351
 11
2919.176482
 21
172.431922
  0
LINE
  8
CSLAYER1
  6
CONTINUOUS
 62
     5
 10
2929.176482
 20
169.041973
 11
2931.048058
 21
167.473497
  0
LINE
  8
CSLAYER1
  6
CONTINUOUS
 62
     5
 10
2912.419738
 20
170.078824
 11
2913.319013
 21
171.531499
  0
LINE
  8
CSLAYER1
  6
CONTINUOUS
 62
     5
 10
2913.319013
 20
171.531499
 11
2917.994612
 21
170.411989
  0
LINE
  8
CSLAYER1
  6
CONTINUOUS
 62
     5
 10
2917.994612
 20
170.411989
 11
2934.736998
 21
165.872681
  0
LINE
  8
CSLAYER1
  6
CONTINUOUS
 62
     5
 10
2937.676482
 20
165.872681
 11
2931.048058
 21
167.473497
  0
LINE
  8
CSLAYER1
  6
CONTINUOUS
 62
     5
 10
2934.736998
 20
165.872681
 11
2937.676482
 21
165.872681
  0
LINE
  8
CSLAYER1
  6
CONTINUOUS
 62
     5
 10
2879.176482
 20
170.337622
 11
2899.176482
 21
170.872681
  0
LINE
  8
CSLAYER1
  6
CONTINUOUS
 62
     5
 10
2899.176482
 20
170.872681
 11
2912.419738
 21
170.078824
  0
LINE
  8
CSLAYER1
  6
CONTINUOUS
 62
     5
 10
2914.022720
 20
168.018345
 11
2899.176482
 21
169.372681
  0
LINE
  8
CSLAYER1
  6
CONTINUOUS
 62
     5
 10
2899.176482
 20
169.372681
 11
2884.127273
 21
169.781333
  0
LINE
  8
CSLAYER1
  6
CONTINUOUS
 62
     5
 10
2884.176482
 20
169.779996
 11
2879.176482
 21
169.875290
  0
LINE
  8
CSLAYER1
  6
CONTINUOUS
 62
     5
 10
2879.176482
 20
170.337622
 11
2879.176482
 21
169.875290
  0
LINE
  8
CSLAYER1
  6
CONTINUOUS
 62
     5
 10
2936.676482
 20
162.372681
 11
2927.833924
 21
164.683343
  0
LINE
  8
CSLAYER1
  6
CONTINUOUS
 62
     5
 10
2914.022720
 20
168.018345
 11
2924.176482
 21
166.045961
  0
LINE
  8
CSLAYER1
  6
CONTINUOUS
 62
     5
 10
2924.176482
 20
166.045961
 11
2927.833924
 21
164.683343
  0
LINE
  8
CSLAYER1
  6
CONTINUOUS
 62
     5
 10
2936.676482
 20
162.372681
 11
2936.383865
 21
161.533575
  0
LINE
  8
CSLAYER1
  6
CONTINUOUS
 62
     5
 10
2946.176482
 20
156.872681
 11
2945.870455
 21
158.101662
  0
LINE
  8
CSLAYER1
  6
CONTINUOUS
 62
     5
 10
2936.383865
 20
161.533575
 11
2945.870455
 21
158.101662
  0
LINE
  8
CSLAYER1
  6
CONTINUOUS
 62
     5
 10
2882.676482
 20
162.372681
 11
2885.099521
 21
162.372681
  0
LINE
  8
CSLAYER1
  6
CONTINUOUS
 62
     5
 10
2905.176482
 20
162.805176
 11
2905.176482
 21
162.372681
  0
LINE
  8
CSLAYER1
  6
CONTINUOUS
 62
     5
 10
2904.176482
 20
163.339617
 11
2902.465203
 21
163.976796
  0
LINE
  8
CSLAYER1
  6
CONTINUOUS
 62
     5
 10
2902.465203
 20
163.976796
 11
2901.355147
 21
164.027253
  0
LINE
  8
CSLAYER1
  6
CONTINUOUS
 62
     5
 10
2901.355147
 20
164.027253
 11
2900.875805
 21
163.774967
  0
LINE
  8
CSLAYER1
  6
CONTINUOUS
 62
     5
 10
2900.875805
 20
163.774967
 11
2900.774891
 21
163.371310
  0
LINE
  8
CSLAYER1
  6
CONTINUOUS
 62
     5
 10
2900.774891
 20
163.371310
 11
2901.229004
 21
163.068568
  0
LINE
  8
CSLAYER1
  6
CONTINUOUS
 62
     5
 10
2901.229004
 20
163.068568
 11
2902.868860
 21
162.917197
  0
LINE
  8
CSLAYER1
  6
CONTINUOUS
 62
     5
 10
2902.868860
 20
162.917197
 11
2905.176482
 21
162.805176
  0
LINE
  8
CSLAYER1
  6
CONTINUOUS
 62
     5
 10
2946.176482
 20
156.872681
 11
2943.200940
 21
158.059262
  0
LINE
  8
CSLAYER1
  6
CONTINUOUS
 62
     5
 10
2943.200940
 20
158.059262
 11
2933.145250
 21
159.902138
  0
LINE
  8
CSLAYER1
  6
CONTINUOUS
 62
     5
 10
2933.145250
 20
159.902138
 11
2928.119470
 21
161.061933
  0
LINE
  8
CSLAYER1
  6
CONTINUOUS
 62
     5
 10
2905.710703
 20
163.372681
 11
2917.476369
 21
163.372681
  0
LINE
  8
CSLAYER1
  6
CONTINUOUS
 62
     5
 10
2904.176482
 20
163.339617
 11
2904.701142
 21
163.031150
  0
LINE
  8
CSLAYER1
  6
CONTINUOUS
 62
     5
 10
2904.701142
 20
163.031150
 11
2904.997954
 21
162.942106
  0
LINE
  8
CSLAYER1
  6
CONTINUOUS
 62
     5
 10
2904.997954
 20
162.942106
 11
2905.176482
 21
162.967277
  0
LINE
  8
CSLAYER1
  6
CONTINUOUS
 62
     5
 10
2905.176482
 20
162.967277
 11
2905.710703
 21
163.372681
  0
LINE
  8
CSLAYER1
  6
CONTINUOUS
 62
     5
 10
2917.476369
 20
163.372681
 11
2921.926638
 21
162.343855
  0
LINE
  8
CSLAYER1
  6
CONTINUOUS
 62
     5
 10
2921.926638
 20
162.343855
 11
2926.079830
 21
161.178706
  0
LINE
  8
CSLAYER1
  6
CONTINUOUS
 62
     5
 10
2926.079830
 20
161.178706
 11
2928.119470
 21
161.061933
  0
LINE
  8
CSLAYER1
  6
CONTINUOUS
 62
     5
 10
2881.676482
 20
161.372681
 11
2881.676482
 21
160.872681
  0
LINE
  8
CSLAYER1
  6
CONTINUOUS
 62
     5
 10
2879.176482
 20
160.872681
 11
2881.676482
 21
160.872681
  0
ARC
  8
CSLAYER1
  6
CONTINUOUS
 62
     5
 10
2882.676482
 20
161.372681
 40
1.000000
 50
90.000000
 51
180.000000
  0
LINE
  8
CSLAYER1
  6
CONTINUOUS
 62
     5
 10
2885.099521
 20
162.372681
 11
2885.797077
 21
161.800684
  0
LINE
  8
CSLAYER1
  6
CONTINUOUS
 62
     5
 10
2886.399445
 20
161.776724
 11
2887.257042
 21
162.372681
  0
LINE
  8
CSLAYER1
  6
CONTINUOUS
 62
     5
 10
2888.835438
 20
162.372681
 11
2890.502564
 21
161.714605
  0
LINE
  8
CSLAYER1
  6
CONTINUOUS
 62
     5
 10
2890.926273
 20
161.741117
 11
2892.079760
 21
162.372681
  0
LINE
  8
CSLAYER1
  6
CONTINUOUS
 62
     5
 10
2887.257042
 20
162.372681
 11
2888.835438
 21
162.372681
  0
LINE
  8
CSLAYER1
  6
CONTINUOUS
 62
     5
 10
2892.079760
 20
162.372681
 11
2905.176482
 21
162.372681
  0
LINE
  8
CSLAYER1
  6
CONTINUOUS
 62
     5
 10
2857.725466
 20
159.263854
 11
2879.176482
 21
160.872681
  0
LINE
  8
CSLAYER1
  6
CONTINUOUS
 62
     5
 10
2853.724115
 20
159.349905
 11
2857.725466
 21
159.263854
  0
ARC
  8
CSLAYER1
  6
CONTINUOUS
 62
     5
 10
2886.114117
 20
162.187318
 40
0.500000
 50
230.648247
 51
304.796026
  0
ARC
  8
CSLAYER1
  6
CONTINUOUS
 62
     5
 10
2890.686147
 20
162.179682
 40
0.500000
 50
248.459024
 51
298.701829
  0
ARC
  8
CSLAYER1
  6
CONTINUOUS
 62
     5
 10
2845.931870
 20
168.887792
 40
0.300000
 50
-84.093859
 51
36.869898
  0
ARC
  8
CSLAYER1
  6
CONTINUOUS
 62
     5
 10
2845.466266
 20
170.819064
 40
0.700000
 50
85.301319
 51
194.142980
  0
LINE
  8
CSLAYER1
  6
CONTINUOUS
 62
     3
 10
2877.658307
 20
153.605836
 11
2885.768802
 21
153.605836
  0
LINE
  8
CSLAYER1
  6
CONTINUOUS
 62
     3
 10
2871.245790
 20
152.005836
 11
2888.889131
 21
152.005836
  0
LINE
  8
CSLAYER1
  6
CONTINUOUS
 62
     3
 10
2867.832852
 20
150.405836
 11
2891.764496
 21
150.405836
  0
LINE
  8
CSLAYER1
  6
CONTINUOUS
 62
     3
 10
2865.597532
 20
148.805836
 11
2893.607969
 21
148.805836
  0
LINE
  8
CSLAYER1
  6
CONTINUOUS
 62
     3
 10
2864.101876
 20
147.205836
 11
2894.842254
 21
147.205836
  0
LINE
  8
CSLAYER1
  6
CONTINUOUS
 62
     3
 10
2862.881562
 20
145.605836
 11
2895.891631
 21
145.605836
  0
LINE
  8
CSLAYER1
  6
CONTINUOUS
 62
     3
 10
2862.189670
 20
144.005836
 11
2896.617506
 21
144.005836
  0
LINE
  8
CSLAYER1
  6
CONTINUOUS
 62
     3
 10
2861.497778
 20
142.405836
 11
2896.955892
 21
142.405836
  0
LINE
  8
CSLAYER1
  6
CONTINUOUS
 62
     3
 10
2860.849428
 20
140.805836
 11
2897.294278
 21
140.805836
  0
LINE
  8
CSLAYER1
  6
CONTINUOUS
 62
     3
 10
2860.527769
 20
139.205836
 11
2897.632664
 21
139.205836
  0
LINE
  8
CSLAYER1
  6
CONTINUOUS
 62
     3
 10
2860.206110
 20
137.605836
 11
2875.796353
 21
137.605836
  0
LINE
  8
CSLAYER1
  6
CONTINUOUS
 62
     3
 10
2859.884451
 20
136.005836
 11
2874.264092
 21
136.005836
  0
LINE
  8
CSLAYER1
  6
CONTINUOUS
 62
     3
 10
2859.562792
 20
134.405836
 11
2873.475922
 21
134.405836
  0
LINE
  8
CSLAYER1
  6
CONTINUOUS
 62
     3
 10
2859.321674
 20
132.805836
 11
2873.157155
 21
132.805836
  0
LINE
  8
CSLAYER1
  6
CONTINUOUS
 62
     3
 10
2859.201504
 20
131.205836
 11
2873.207176
 21
131.205836
  0
LINE
  8
CSLAYER1
  6
CONTINUOUS
 62
     3
 10
2859.176482
 20
129.605836
 11
2873.753263
 21
129.605836
  0
LINE
  8
CSLAYER1
  6
CONTINUOUS
 62
     3
 10
2859.675670
 20
128.005836
 11
2875.783265
 21
128.005836
  0
LINE
  8
CSLAYER1
  6
CONTINUOUS
 62
     3
 10
2860.386782
 20
126.405836
 11
2892.914637
 21
126.405836
  0
LINE
  8
CSLAYER1
  6
CONTINUOUS
 62
     3
 10
2861.097893
 20
124.805836
 11
2892.463355
 21
124.805836
  0
LINE
  8
CSLAYER1
  6
CONTINUOUS
 62
     3
 10
2861.809004
 20
123.205836
 11
2891.740331
 21
123.205836
  0
LINE
  8
CSLAYER1
  6
CONTINUOUS
 62
     3
 10
2862.770963
 20
121.605836
 11
2890.842144
 21
121.605836
  0
LINE
  8
CSLAYER1
  6
CONTINUOUS
 62
     3
 10
2864.019424
 20
120.005836
 11
2889.337218
 21
120.005836
  0
LINE
  8
CSLAYER1
  6
CONTINUOUS
 62
     3
 10
2865.624844
 20
118.405836
 11
2886.944757
 21
118.405836
  0
LINE
  8
CSLAYER1
  6
CONTINUOUS
 62
     3
 10
2867.771986
 20
116.805836
 11
2883.819634
 21
116.805836
  0
LINE
  8
CSLAYER1
  6
CONTINUOUS
 62
     3
 10
2871.019676
 20
115.205836
 11
2879.181485
 21
115.205836
  0
LINE
  8
CSLAYER1
  6
CONTINUOUS
 62
     3
 10
2880.988177
 20
137.605836
 11
2897.807914
 21
137.605836
  0
LINE
  8
CSLAYER1
  6
CONTINUOUS
 62
     3
 10
2881.658921
 20
136.005836
 11
2897.682144
 21
136.005836
  0
LINE
  8
CSLAYER1
  6
CONTINUOUS
 62
     3
 10
2881.770928
 20
134.405836
 11
2897.556375
 21
134.405836
  0
LINE
  8
CSLAYER1
  6
CONTINUOUS
 62
     3
 10
2881.525571
 20
132.805836
 11
2896.842519
 21
132.805836
  0
LINE
  8
CSLAYER1
  6
CONTINUOUS
 62
     3
 10
2880.873925
 20
131.205836
 11
2896.121319
 21
131.205836
  0
LINE
  8
CSLAYER1
  6
CONTINUOUS
 62
     3
 10
2879.740662
 20
129.605836
 11
2895.187371
 21
129.605836
  0
LINE
  8
CSLAYER1
  6
CONTINUOUS
 62
     3
 10
2877.484665
 20
128.005836
 11
2893.916664
 21
128.005836
  0
TEXT
  8
CSLAYER1
 62
     5
 10
2898.348417
 20
135.617000
 40
4.713448
 41
1.951056
  1
M
 50
0.000000
 51
0.000000
  7
EASYDRAW_FONT
 72
     5
 11
2904.479219
 21
135.617000
  0
TEXT
  8
CSLAYER1
 62
     5
 10
2907.999804
 20
135.558729
 40
4.626621
 41
0.778201
  1
T
 50
0.000000
 51
0.000000
  7
EASYDRAW_FONT
 72
     5
 11
2910.400098
 21
135.558729
  0
TEXT
  8
CSLAYER1
 62
     5
 10
2910.765367
 20
135.593529
 40
4.696183
 41
1.055553
  1
E
 50
0.000000
 51
0.000000
  7
EASYDRAW_FONT
 72
     5
 11
2914.070082
 21
135.593529
  0
TEXT
  8
CSLAYER1
 62
     5
 10
2913.881548
 20
137.209373
 40
0.348283
 41
9.375319
  1
-
 50
0.000000
 51
0.000000
  7
EASYDRAW_FONT
 72
     5
 11
2916.058393
 21
137.209373
  0
TEXT
  8
CSLAYER1
 62
     5
 10
2915.695758
 20
135.562182
 40
4.861659
 41
1.298502
  1
H
 50
0.000000
 51
0.000000
  7
EASYDRAW_FONT
 72
     5
 11
2919.904340
 21
135.562182
  0
TEXT
  8
CSLAYER1
 62
     5
 10
2919.771773
 20
135.592560
 40
4.843139
 41
1.269236
  1
A
 50
0.000000
 51
0.000000
  7
EASYDRAW_FONT
 72
     5
 11
2923.869829
 21
135.592560
  0
TEXT
  8
CSLAYER1
 62
     5
 10
2923.477929
 20
135.551034
 40
4.825362
 41
1.490144
  1
N
 50
0.000000
 51
0.000000
  7
EASYDRAW_FONT
 72
     5
 11
2928.271583
 21
135.551034
  0
TEXT
  8
CSLAYER1
 62
     5
 10
2904.269386
 20
135.528461
 40
4.982325
 41
1.177443
  1
A
 50
0.000000
 51
0.000000
  7
EASYDRAW_FONT
 72
     5
 11
2908.180321
 21
135.528461
  0
TEXT
  8
CSLAYER1
 62
     5
 10
2898.715431
 20
128.533221
 40
4.982325
 41
1.177443
  1
A
 50
0.000000
 51
0.000000
  7
EASYDRAW_FONT
 72
     5
 11
2902.626366
 21
128.533221
  0
TEXT
  8
CSLAYER1
 62
     5
 10
2911.499855
 20
128.561542
 40
4.982325
 41
1.177443
  1
A
 50
0.000000
 51
0.000000
  7
EASYDRAW_FONT
 72
     5
 11
2915.410789
 21
128.561542
  0
TEXT
  8
CSLAYER1
 62
     5
 10
2915.260399
 20
128.618539
 40
4.825362
 41
1.490144
  1
N
 50
0.000000
 51
0.000000
  7
EASYDRAW_FONT
 72
     5
 11
2920.054054
 21
128.618539
  0
TEXT
  8
CSLAYER1
 62
     5
 10
2924.162735
 20
128.626933
 40
4.841775
 41
1.184218
  1
E
 50
0.000000
 51
0.000000
  7
EASYDRAW_FONT
 72
     5
 11
2927.985214
 21
128.626933
  0
TEXT
  8
CSLAYER1
 62
     5
 10
2902.995985
 20
128.531897
 40
4.947865
 41
1.093992
  1
D
 50
0.000000
 51
0.000000
  7
EASYDRAW_FONT
 72
     5
 11
2906.604601
 21
128.531897
  0
TEXT
  8
CSLAYER1
 62
     5
 10
2907.398343
 20
128.526512
 40
4.924210
 41
1.228195
  1
V
 50
0.000000
 51
0.000000
  7
EASYDRAW_FONT
 72
     5
 11
2911.430270
 21
128.526512
  0
TEXT
  8
CSLAYER1
 62
     5
 10
2919.623544
 20
128.547243
 40
5.032894
 41
1.481023
  1
C
 50
0.000000
 51
0.000000
  7
EASYDRAW_FONT
 72
     5
 11
2924.592764
 21
128.547243
  0
LINE
  8
CSLAYER1
  6
CONTINUOUS
 62
     5
 10
2910.253819
 20
139.607653
 11
2909.241757
 21
139.607653
  0
LINE
  8
CSLAYER1
  6
CONTINUOUS
 62
     3
 10
2859.352057
 20
173.832924
 11
2909.149884
 21
173.832924
  0
LINE
  8
CSLAYER1
  6
CONTINUOUS
 62
     3
 10
2852.239693
 20
172.232924
 11
2920.229575
 21
172.232924
  0
LINE
  8
CSLAYER1
  6
CONTINUOUS
 62
     3
 10
2844.791289
 20
170.632924
 11
2890.214599
 21
170.632924
  0
LINE
  8
CSLAYER1
  6
CONTINUOUS
 62
     3
 10
2903.176149
 20
170.632924
 11
2912.762752
 21
170.632924
  0
LINE
  8
CSLAYER1
  6
CONTINUOUS
 62
     3
 10
2917.071886
 20
170.632924
 11
2925.584883
 21
170.632924
  0
LINE
  8
CSLAYER1
  6
CONTINUOUS
 62
     3
 10
2846.194428
 20
169.032924
 11
2902.900897
 21
169.032924
  0
LINE
  8
CSLAYER1
  6
CONTINUOUS
 62
     3
 10
2923.081036
 20
169.032924
 11
2929.187281
 21
169.032924
  0
LINE
  8
CSLAYER1
  6
CONTINUOUS
 62
     3
 10
2844.282094
 20
167.432924
 11
2917.036445
 21
167.432924
  0
LINE
  8
CSLAYER1
  6
CONTINUOUS
 62
     3
 10
2928.982334
 20
167.432924
 11
2931.216056
 21
167.432924
  0
LINE
  8
CSLAYER1
  6
CONTINUOUS
 62
     3
 10
2843.219869
 20
165.832924
 11
2924.748301
 21
165.832924
  0
LINE
  8
CSLAYER1
  6
CONTINUOUS
 62
     3
 10
2844.895536
 20
164.232924
 11
2929.557610
 21
164.232924
  0
LINE
  8
CSLAYER1
  6
CONTINUOUS
 62
     3
 10
2846.063103
 20
162.632924
 11
2905.176482
 21
162.632924
  0
LINE
  8
CSLAYER1
  6
CONTINUOUS
 62
     3
 10
2920.676247
 20
162.632924
 11
2935.680570
 21
162.632924
  0
LINE
  8
CSLAYER1
  6
CONTINUOUS
 62
     3
 10
2846.308227
 20
161.032924
 11
2881.676482
 21
161.032924
  0
LINE
  8
CSLAYER1
  6
CONTINUOUS
 62
     3
 10
2928.245176
 20
161.032924
 11
2937.767779
 21
161.032924
  0
LINE
  8
CSLAYER1
  6
CONTINUOUS
 62
     3
 10
2846.514552
 20
159.432924
 11
2859.979726
 21
159.432924
  0
LINE
  8
CSLAYER1
  6
CONTINUOUS
 62
     3
 10
2935.705525
 20
159.432924
 11
2942.190543
 21
159.432924
  0
LINE
  8
CSLAYER1
  6
CONTINUOUS
 62
     3
 10
2943.768519
 20
157.832924
 11
2945.937373
 21
157.832924
  0
ENDBLK
  8
0
  0
ENDSEC
  0
SECTION
  2
ENTITIES
  0
LINE
  8
CSLAYER1
  6
CONTINUOUS
 62
     3
 10
214.291877
 20
2456.594160
 11
214.291877
 21
108.047230
  0
LINE
  8
CSLAYER1
  6
CONTINUOUS
 62
     3
 10
3536.865187
 20
2456.594160
 11
214.291877
 21
2456.594160
  0
LINE
  8
CSLAYER1
  6
CONTINUOUS
 62
     3
 10
3536.865187
 20
2456.594160
 11
3536.865187
 21
108.047230
  0
LINE
  8
CSLAYER1
  6
CONTINUOUS
 62
     3
 10
3536.865187
 20
108.047230
 11
214.291877
 21
108.047230
  0
LINE
  8
CSLAYER1
  6
CONTINUOUS
 62
     5
 10
164.291877
 20
1268.047230
 11
114.291877
 21
1268.047230
  0
LINE
  8
CSLAYER1
  6
CONTINUOUS
 62
     5
 10
3462.865187
 20
2356.594160
 11
2582.865187
 21
2356.594160
  0
LINE
  8
CSLAYER1
  6
CONTINUOUS
 62
     5
 10
3462.865187
 20
2303.260827
 11
2582.865187
 21
2303.260827
  0
LINE
  8
CSLAYER1
  6
CONTINUOUS
 62
     5
 10
3462.865187
 20
2249.927493
 11
2582.865187
 21
2249.927493
  0
LINE
  8
CSLAYER1
  6
CONTINUOUS
 62
     5
 10
3462.865187
 20
2143.260827
 11
2582.865187
 21
2143.260827
  0
LINE
  8
CSLAYER1
  6
CONTINUOUS
 62
     5
 10
3462.865187
 20
2036.594160
 11
2582.865187
 21
2036.594160
  0
LINE
  8
CSLAYER1
  6
CONTINUOUS
 62
     5
 10
3462.865187
 20
1823.260827
 11
2582.865187
 21
1823.260827
  0
LINE
  8
CSLAYER1
  6
CONTINUOUS
 62
     5
 10
3462.865187
 20
1609.927490
 11
2582.865187
 21
1609.927490
  0
LINE
  8
CSLAYER1
  6
CONTINUOUS
 62
     5
 10
3462.865187
 20
1556.594157
 11
2582.865187
 21
1556.594157
  0
TEXT
  8
CSLAYER1
 62
     3
 10
2596.198242
 20
2363.260742
 40
40.000000
 41
0.838235
  1
仕    様
 50
0.000000
 51
0.000000
  7
EASYDRAW_FONT
 72
     5
 11
2786.198242
 21
2363.260742
  0
TEXT
  8
CSLAYER1
 62
     3
 10
2596.198242
 20
2309.927490
 40
40.000000
 41
0.838235
  1
型    式
 50
0.000000
 51
0.000000
  7
EASYDRAW_FONT
 72
     5
 11
2786.198242
 21
2309.927490
  0
TEXT
  8
CSLAYER1
 62
     3
 10
2961.198242
 20
2309.927490
 40
40.000000
 41
0.817105
  1
GLSE-250-2008
 50
0.000000
 51
0.000000
  7
EASYDRAW_FONT
 72
     5
 11
3375.198242
 21
2309.927490
  0
TEXT
  8
CSLAYER1
 62
     3
 10
2596.198242
 20
2256.594238
 40
40.000000
 41
0.859091
  1
均等荷重
 50
0.000000
 51
0.000000
  7
EASYDRAW_FONT
 72
     5
 11
2722.198242
 21
2256.594238
  0
TEXT
  8
CSLAYER1
 62
     3
 10
3387.531494
 20
2256.594238
 40
40.000000
 41
0.930000
  1
ｋｇ
 50
0.000000
 51
0.000000
  7
EASYDRAW_FONT
 72
     5
 11
3449.531494
 21
2256.594238
  0
TEXT
  8
CSLAYER1
 62
     3
 10
2596.198242
 20
2149.927490
 40
40.000000
 41
0.838235
  1
テーブル高サ
 50
0.000000
 51
0.000000
  7
EASYDRAW_FONT
 72
     5
 11
2786.198242
 21
2149.927490
  0
TEXT
  8
CSLAYER1
 62
     3
 10
3387.531494
 20
2149.927490
 40
40.000000
 41
0.930000
  1
ｍｍ
 50
0.000000
 51
0.000000
  7
EASYDRAW_FONT
 72
     5
 11
3449.531494
 21
2149.927490
  0
TEXT
  8
CSLAYER1
 62
     3
 10
2596.198242
 20
2043.260498
 40
40.000000
 41
0.838235
  1
全    長
 50
0.000000
 51
0.000000
  7
EASYDRAW_FONT
 72
     5
 11
2786.198242
 21
2043.260498
  0
TEXT
  8
CSLAYER1
 62
     3
 10
3121.198242
 20
2043.260498
 40
40.000000
 41
0.881250
  1
803
 50
0.000000
 51
0.000000
  7
EASYDRAW_FONT
 72
     5
 11
3215.198242
 21
2043.260498
  0
TEXT
  8
CSLAYER1
 62
     3
 10
3057.198242
 20
1829.927246
 40
40.000000
 41
0.832500
  1
フットスイッチ
 50
0.000000
 51
0.000000
  7
EASYDRAW_FONT
 72
     5
 11
3279.198242
 21
1829.927246
  0
TEXT
  8
CSLAYER1
 62
     3
 10
2596.198242
 20
1829.927246
 40
40.000000
 41
0.859091
  1
操作方式
 50
0.000000
 51
0.000000
  7
EASYDRAW_FONT
 72
     5
 11
2722.198242
 21
1829.927246
  0
TEXT
  8
CSLAYER1
 62
     3
 10
2596.198242
 20
1563.260620
 40
40.000000
 41
0.832500
  1
自     重
 50
0.000000
 51
0.000000
  7
EASYDRAW_FONT
 72
     5
 11
2818.198242
 21
1563.260620
  0
TEXT
  8
CSLAYER1
 62
     3
 10
3111.864990
 20
1563.260620
 40
40.000000
 41
0.859091
  1
約 57
 50
0.000000
 51
0.000000
  7
EASYDRAW_FONT
 72
     5
 11
3237.864990
 21
1563.260620
  0
TEXT
  8
CSLAYER1
 62
     3
 10
2596.198242
 20
1509.927368
 40
40.000000
 41
0.832500
  1
塗  装  色
 50
0.000000
 51
0.000000
  7
EASYDRAW_FONT
 72
     5
 11
2818.198242
 21
1509.927368
  0
TEXT
  8
CSLAYER1
 62
     3
 10
3121.198242
 20
2256.594238
 40
40.000000
 41
0.881250
  1
250
 50
0.000000
 51
0.000000
  7
EASYDRAW_FONT
 72
     5
 11
3215.198242
 21
2256.594238
  0
TEXT
  8
CSLAYER1
 62
     3
 10
3073.198242
 20
2149.927490
 40
40.000000
 41
0.838235
  1
80～580
 50
0.000000
 51
0.000000
  7
EASYDRAW_FONT
 72
     5
 11
3263.198242
 21
2149.927490
  0
TEXT
  8
CSLAYER1
 62
     3
 10
3387.531494
 20
2043.260498
 40
40.000000
 41
0.930000
  1
ｍｍ
 50
0.000000
 51
0.000000
  7
EASYDRAW_FONT
 72
     5
 11
3449.531494
 21
2043.260498
  0
LINE
  8
CSLAYER1
  6
CONTINUOUS
 62
     5
 10
3462.865187
 20
1983.260827
 11
2582.865187
 21
1983.260827
  0
TEXT
  8
CSLAYER1
 62
     3
 10
2596.198242
 20
1989.927246
 40
40.000000
 41
0.838235
  1
全    幅
 50
0.000000
 51
0.000000
  7
EASYDRAW_FONT
 72
     5
 11
2786.198242
 21
1989.927246
  0
TEXT
  8
CSLAYER1
 62
     3
 10
3121.198242
 20
1989.927246
 40
40.000000
 41
0.881250
  1
300
 50
0.000000
 51
0.000000
  7
EASYDRAW_FONT
 72
     5
 11
3215.198242
 21
1989.927246
  0
TEXT
  8
CSLAYER1
 62
     3
 10
3387.531494
 20
1989.927246
 40
40.000000
 41
0.930000
  1
ｍｍ
 50
0.000000
 51
0.000000
  7
EASYDRAW_FONT
 72
     5
 11
3449.531494
 21
1989.927246
  0
LINE
  8
CSLAYER1
  6
CONTINUOUS
 62
     5
 10
3462.865187
 20
1663.260827
 11
2582.865187
 21
1663.260827
  0
TEXT
  8
CSLAYER1
 62
     3
 10
3024.160645
 20
1615.195557
 40
40.000000
 41
0.825000
  1
油圧ユニット別置型
 50
0.000000
 51
0.000000
  7
EASYDRAW_FONT
 72
     5
 11
3310.160645
 21
1615.195557
  0
LINE
  8
CSLAYER1
  6
CONTINUOUS
 62
     5
 10
3462.865187
 20
1609.927493
 11
2582.865187
 21
1609.927493
  0
TEXT
  8
CSLAYER1
 62
     3
 10
3387.531494
 20
1563.260620
 40
40.000000
 41
0.930000
  1
ｋｇ
 50
0.000000
 51
0.000000
  7
EASYDRAW_FONT
 72
     5
 11
3449.531494
 21
1563.260620
  0
LINE
  8
CSLAYER1
  6
CONTINUOUS
 62
     5
 10
3462.865187
 20
2196.594160
 11
2582.865187
 21
2196.594160
  0
TEXT
  8
CSLAYER1
 62
     3
 10
2596.198242
 20
2203.260986
 40
40.000000
 41
0.838235
  1
テーブル寸法
 50
0.000000
 51
0.000000
  7
EASYDRAW_FONT
 72
     5
 11
2786.198242
 21
2203.260986
  0
TEXT
  8
CSLAYER1
 62
     3
 10
3387.531494
 20
2203.260986
 40
40.000000
 41
0.930000
  1
ｍｍ
 50
0.000000
 51
0.000000
  7
EASYDRAW_FONT
 72
     5
 11
3449.531494
 21
2203.260986
  0
TEXT
  8
CSLAYER1
 62
     3
 10
3025.198242
 20
2203.260986
 40
40.000000
 41
0.825000
  1
800L×200W
 50
0.000000
 51
0.000000
  7
EASYDRAW_FONT
 72
     5
 11
3311.198242
 21
2203.260986
  0
LINE
  8
CSLAYER1
  6
CONTINUOUS
 62
     5
 10
3462.865187
 20
2089.927493
 11
2582.865187
 21
2089.927493
  0
TEXT
  8
CSLAYER1
 62
     3
 10
3387.531494
 20
2096.594238
 40
40.000000
 41
0.930000
  1
ｍｍ
 50
0.000000
 51
0.000000
  7
EASYDRAW_FONT
 72
     5
 11
3449.531494
 21
2096.594238
  0
TEXT
  8
CSLAYER1
 62
     3
 10
3121.198242
 20
2096.594238
 40
40.000000
 41
0.881250
  1
500
 50
0.000000
 51
0.000000
  7
EASYDRAW_FONT
 72
     5
 11
3215.198242
 21
2096.594238
  0
TEXT
  8
CSLAYER1
 62
     3
 10
2598.030762
 20
2096.594238
 40
40.000000
 41
0.846429
  1
ストローク
 50
0.000000
 51
0.000000
  7
EASYDRAW_FONT
 72
     5
 11
2756.030762
 21
2096.594238
  0
LINE
  8
CSLAYER1
  6
CONTINUOUS
 62
     5
 10
3462.865187
 20
1929.927493
 11
2582.865187
 21
1929.927493
  0
TEXT
  8
CSLAYER1
 62
     3
 10
2596.198242
 20
1936.593994
 40
40.000000
 41
0.838235
  1
全    高
 50
0.000000
 51
0.000000
  7
EASYDRAW_FONT
 72
     5
 11
2786.198242
 21
1936.593994
  0
TEXT
  8
CSLAYER1
 62
     3
 10
3121.198242
 20
1936.593994
 40
40.000000
 41
0.881250
  1
 80
 50
0.000000
 51
0.000000
  7
EASYDRAW_FONT
 72
     5
 11
3215.198242
 21
1936.593994
  0
TEXT
  8
CSLAYER1
 62
     3
 10
3387.531494
 20
1936.593994
 40
40.000000
 41
0.930000
  1
ｍｍ
 50
0.000000
 51
0.000000
  7
EASYDRAW_FONT
 72
     5
 11
3449.531494
 21
1936.593994
  0
LINE
  8
CSLAYER1
  6
CONTINUOUS
 62
     5
 10
3462.865187
 20
1876.594160
 11
2582.865187
 21
1876.594160
  0
TEXT
  8
CSLAYER1
 62
     3
 10
2596.198242
 20
1883.260620
 40
40.000000
 41
0.846429
  1
リフト方式
 50
0.000000
 51
0.000000
  7
EASYDRAW_FONT
 72
     5
 11
2754.198242
 21
1883.260620
  0
TEXT
  8
CSLAYER1
 62
     3
 10
3089.198242
 20
1883.260620
 40
40.000000
 41
0.846429
  1
電動油圧式
 50
0.000000
 51
0.000000
  7
EASYDRAW_FONT
 72
     5
 11
3247.198242
 21
1883.260620
  0
LINE
  8
CSLAYER1
  6
CONTINUOUS
 62
     5
 10
3462.865187
 20
1716.594160
 11
2582.865187
 21
1716.594160
  0
TEXT
  8
CSLAYER1
 62
     3
 10
3089.198242
 20
1723.260498
 40
40.000000
 41
0.846429
  1
長さ 4m
 50
0.000000
 51
0.000000
  7
EASYDRAW_FONT
 72
     5
 11
3247.198242
 21
1723.260498
  0
TEXT
  8
CSLAYER1
 62
     3
 10
2596.198242
 20
1723.260498
 40
40.000000
 41
0.846429
  1
電源コード
 50
0.000000
 51
0.000000
  7
EASYDRAW_FONT
 72
     5
 11
2754.198242
 21
1723.260498
  0
TEXT
  8
CSLAYER1
 62
     3
 10
2596.198242
 20
1669.927246
 40
40.000000
 41
0.859091
  1
上昇時間
 50
0.000000
 51
0.000000
  7
EASYDRAW_FONT
 72
     5
 11
2722.198242
 21
1669.927246
  0
TEXT
  8
CSLAYER1
 62
     3
 10
2895.198262
 20
1669.927246
 40
40.000000
 41
0.660484
  1
約10sec/50Hz，8sec/60Hz
 50
0.000000
 51
0.000000
  7
EASYDRAW_FONT
 72
     5
 11
3441.198222
 21
1669.927246
  0
LINE
  8
CSLAYER1
  6
CONTINUOUS
 62
     5
 10
3462.865187
 20
1769.927493
 11
2582.865187
 21
1769.927493
  0
TEXT
  8
CSLAYER1
 62
     3
 10
2596.198242
 20
1776.593994
 40
40.000000
 41
0.859091
  1
モーター
 50
0.000000
 51
0.000000
  7
EASYDRAW_FONT
 72
     5
 11
2722.198242
 21
1776.593994
  0
TEXT
  8
CSLAYER1
 62
     3
 10
2929.198242
 20
1776.593994
 40
40.000000
 41
0.814773
  1
AC200V，三相，0.4kw
 50
0.000000
 51
0.000000
  7
EASYDRAW_FONT
 72
     5
 11
3407.198242
 21
1776.593994
  0
LINE
  8
CSLAYER1
  6
CONTINUOUS
 62
     5
 10
2886.865187
 20
1503.260823
 11
2886.865187
 21
1609.927490
  0
LINE
  8
CSLAYER1
  6
CONTINUOUS
 62
     5
 10
2886.865187
 20
1663.260827
 11
2886.865187
 21
2356.594160
  0
TEXT
  8
CSLAYER1
 62
     7
 10
500.341736
 20
2352.980225
 40
34.000000
 41
0.778846
  1
電動式油圧ユニット
 50
0.000000
 51
0.000000
  7
EASYDRAW_FONT
 72
     5
 11
729.841736
 21
2352.980225
  0
LINE
  8
CSLAYER1
  6
CONTINUOUS
 62
     5
 10
264.291877
 20
2406.594160
 11
982.483658
 21
2406.594160
  0
LINE
  8
CSLAYER1
  6
CONTINUOUS
 62
     5
 10
982.483658
 20
2406.594160
 11
982.483658
 21
1705.459889
  0
LINE
  8
CSLAYER1
  6
CONTINUOUS
 62
     5
 10
264.291877
 20
1705.459889
 11
264.291877
 21
2406.594160
  0
TEXT
  8
CSLAYER1
 62
     3
 10
401.349358
 20
2246.584821
 40
33.963734
 41
1.050000
  1
278
 50
30.000000
 51
0.000000
  7
EASYDRAW_FONT
 72
     5
 11
483.707033
 21
2294.134047
  0
TEXT
  8
CSLAYER1
 62
     3
 10
547.425139
 20
2280.677504
 40
33.963734
 41
1.050000
  1
415
 50
-30.000000
 51
0.000000
  7
EASYDRAW_FONT
 72
     5
 11
629.782814
 21
2233.128278
  0
TEXT
  8
CSLAYER1
 62
     3
 10
337.036951
 20
2114.035979
 40
33.963734
 41
1.050000
  1
275
 50
90.000000
 51
0.000000
  7
EASYDRAW_FONT
 72
     5
 11
337.036951
 21
2209.134431
  0
LINE
  8
CSLAYER1
  6
CONTINUOUS
 62
     5
 10
347.879343
 20
2206.591573
 11
385.239449
 21
2185.021706
  0
LINE
  8
CSLAYER1
  6
CONTINUOUS
 62
     5
 10
388.635823
 20
2230.122338
 11
388.635823
 21
2186.982603
  0
LINE
  8
CSLAYER1
  6
CONTINUOUS
 62
     5
 10
646.760196
 20
2218.356956
 11
646.760196
 21
2175.217220
  0
LINE
  8
CSLAYER1
  6
CONTINUOUS
 62
     5
 10
388.635823
 20
2222.278750
 11
507.508889
 21
2290.910147
  0
LINE
  8
CSLAYER1
  6
CONTINUOUS
 62
     5
 10
388.635823
 20
2222.278750
 11
409.849026
 21
2243.491953
  0
LINE
  8
CSLAYER1
  6
CONTINUOUS
 62
     5
 10
388.635823
 20
2222.278750
 11
417.613598
 21
2230.043321
  0
LINE
  8
CSLAYER1
  6
CONTINUOUS
 62
     5
 10
507.508889
 20
2290.910147
 11
486.295686
 21
2269.696943
  0
LINE
  8
CSLAYER1
  6
CONTINUOUS
 62
     5
 10
507.508889
 20
2290.910147
 11
478.531115
 21
2283.145576
  0
LINE
  8
CSLAYER1
  6
CONTINUOUS
 62
     5
 10
507.508889
 20
2290.910147
 11
646.760196
 21
2210.513368
  0
LINE
  8
CSLAYER1
  6
CONTINUOUS
 62
     5
 10
507.508889
 20
2290.910147
 11
536.486664
 21
2283.145576
  0
LINE
  8
CSLAYER1
  6
CONTINUOUS
 62
     5
 10
507.508889
 20
2290.910147
 11
528.722093
 21
2269.696943
  0
LINE
  8
CSLAYER1
  6
CONTINUOUS
 62
     5
 10
646.760196
 20
2210.513368
 11
617.782421
 21
2218.277939
  0
LINE
  8
CSLAYER1
  6
CONTINUOUS
 62
     5
 10
646.760196
 20
2210.513368
 11
625.546993
 21
2231.726571
  0
LINE
  8
CSLAYER1
  6
CONTINUOUS
 62
     5
 10
507.508889
 20
2298.753735
 11
507.508889
 21
2255.614000
  0
LINE
  8
CSLAYER1
  6
CONTINUOUS
 62
     5
 10
354.672089
 20
2202.669779
 11
354.672089
 21
2104.624926
  0
LINE
  8
CSLAYER1
  6
CONTINUOUS
 62
     5
 10
354.672089
 20
2202.669779
 11
346.907518
 21
2173.692005
  0
LINE
  8
CSLAYER1
  6
CONTINUOUS
 62
     5
 10
354.672089
 20
2202.669779
 11
362.436661
 21
2173.692005
  0
LINE
  8
CSLAYER1
  6
CONTINUOUS
 62
     5
 10
354.672089
 20
2104.624926
 11
346.907518
 21
2133.602701
  0
LINE
  8
CSLAYER1
  6
CONTINUOUS
 62
     5
 10
354.672089
 20
2104.624926
 11
362.436661
 21
2133.602701
  0
TEXT
  8
CSLAYER1
 62
     3
 10
763.274578
 20
2187.168768
 40
33.963734
 41
1.028571
  1
高圧ホース
 50
0.000000
 51
0.000000
  7
EASYDRAW_FONT
 72
     5
 11
926.300495
 21
2187.168768
  0
TEXT
  8
CSLAYER1
 62
     3
 10
318.572155
 20
1977.857000
 40
33.963734
 41
1.028571
  1
電源コード
 50
0.000000
 51
0.000000
  7
EASYDRAW_FONT
 72
     5
 11
481.598072
 21
1977.857000
  0
LINE
  8
CSLAYER1
  6
CONTINUOUS
 62
     5
 10
677.966501
 20
2053.124298
 11
751.351016
 21
2180.230007
  0
LINE
  8
CSLAYER1
  6
CONTINUOUS
 62
     5
 10
677.966501
 20
2053.124298
 11
685.731072
 21
2082.102073
  0
LINE
  8
CSLAYER1
  6
CONTINUOUS
 62
     5
 10
677.966501
 20
2053.124298
 11
699.179705
 21
2074.337502
  0
LINE
  8
CSLAYER1
  6
CONTINUOUS
 62
     5
 10
938.958312
 20
2180.230007
 11
751.351016
 21
2180.230007
  0
LINE
  8
CSLAYER1
  6
CONTINUOUS
 62
     5
 10
320.729415
 20
1971.540592
 11
485.410523
 21
1971.540592
  0
LINE
  8
CSLAYER1
  6
CONTINUOUS
 62
     3
 10
527.887129
 20
2004.619176
 11
562.869775
 21
2024.816416
  0
LINE
  8
CSLAYER1
  6
CONTINUOUS
 62
     3
 10
388.635823
 20
2085.015956
 11
397.126756
 21
2080.113713
  0
LINE
  8
CSLAYER1
  6
CONTINUOUS
 62
     3
 10
527.887129
 20
2102.664029
 11
527.887129
 21
2004.619176
  0
LINE
  8
CSLAYER1
  6
CONTINUOUS
 62
     3
 10
527.887129
 20
2102.664029
 11
646.760196
 21
2171.295426
  0
LINE
  8
CSLAYER1
  6
CONTINUOUS
 62
     3
 10
507.508889
 20
2251.692206
 11
646.760196
 21
2171.295426
  0
LINE
  8
CSLAYER1
  6
CONTINUOUS
 62
     3
 10
527.887129
 20
2024.228147
 11
545.887908
 21
2034.620901
  0
LINE
  8
CSLAYER1
  6
CONTINUOUS
 62
     3
 10
611.410044
 20
2113.268964
 11
646.760196
 21
2092.859544
  0
LINE
  8
CSLAYER1
  6
CONTINUOUS
 62
     3
 10
519.396196
 20
2009.521419
 11
527.887129
 21
2004.619176
  0
LINE
  8
CSLAYER1
  6
CONTINUOUS
 62
     3
 10
609.400089
 20
2114.821591
 11
608.172078
 21
2115.411195
  0
LINE
  8
CSLAYER1
  6
CONTINUOUS
 62
     3
 10
608.172078
 20
2115.411195
 11
606.850019
 21
2115.817228
  0
LINE
  8
CSLAYER1
  6
CONTINUOUS
 62
     3
 10
606.850019
 20
2115.817228
 11
605.443974
 21
2116.036600
  0
LINE
  8
CSLAYER1
  6
CONTINUOUS
 62
     3
 10
605.443974
 20
2116.036600
 11
603.964643
 21
2116.067642
  0
LINE
  8
CSLAYER1
  6
CONTINUOUS
 62
     3
 10
603.964643
 20
2116.067642
 11
602.423286
 21
2115.910118
  0
LINE
  8
CSLAYER1
  6
CONTINUOUS
 62
     3
 10
602.423286
 20
2115.910118
 11
600.831632
 21
2115.565226
  0
LINE
  8
CSLAYER1
  6
CONTINUOUS
 62
     3
 10
600.831632
 20
2115.565226
 11
599.201796
 21
2115.035591
  0
LINE
  8
CSLAYER1
  6
CONTINUOUS
 62
     3
 10
599.201796
 20
2115.035591
 11
597.546181
 21
2114.325244
  0
LINE
  8
CSLAYER1
  6
CONTINUOUS
 62
     3
 10
597.546181
 20
2114.325244
 11
595.877388
 21
2113.439591
  0
LINE
  8
CSLAYER1
  6
CONTINUOUS
 62
     3
 10
595.877388
 20
2113.439591
 11
594.208117
 21
2112.385373
  0
LINE
  8
CSLAYER1
  6
CONTINUOUS
 62
     3
 10
594.208117
 20
2112.385373
 11
592.551072
 21
2111.170612
  0
LINE
  8
CSLAYER1
  6
CONTINUOUS
 62
     3
 10
592.551072
 20
2111.170612
 11
590.918864
 21
2109.804555
  0
LINE
  8
CSLAYER1
  6
CONTINUOUS
 62
     3
 10
590.918864
 20
2109.804555
 11
589.323916
 21
2108.297597
  0
LINE
  8
CSLAYER1
  6
CONTINUOUS
 62
     3
 10
589.323916
 20
2108.297597
 11
587.778366
 21
2106.661206
  0
LINE
  8
CSLAYER1
  6
CONTINUOUS
 62
     3
 10
587.778366
 20
2106.661206
 11
586.293977
 21
2104.907838
  0
LINE
  8
CSLAYER1
  6
CONTINUOUS
 62
     3
 10
586.293977
 20
2104.907838
 11
584.882045
 21
2103.050837
  0
LINE
  8
CSLAYER1
  6
CONTINUOUS
 62
     3
 10
584.882045
 20
2103.050837
 11
583.553317
 21
2101.104334
  0
LINE
  8
CSLAYER1
  6
CONTINUOUS
 62
     3
 10
583.553317
 20
2101.104334
 11
582.317904
 21
2099.083145
  0
LINE
  8
CSLAYER1
  6
CONTINUOUS
 62
     3
 10
582.317904
 20
2099.083145
 11
581.185209
 21
2097.002652
  0
LINE
  8
CSLAYER1
  6
CONTINUOUS
 62
     3
 10
581.185209
 20
2097.002652
 11
580.163853
 21
2094.878688
  0
LINE
  8
CSLAYER1
  6
CONTINUOUS
 62
     3
 10
580.163853
 20
2094.878688
 11
579.261608
 21
2092.727418
  0
LINE
  8
CSLAYER1
  6
CONTINUOUS
 62
     3
 10
579.261608
 20
2092.727418
 11
578.485342
 21
2090.565215
  0
LINE
  8
CSLAYER1
  6
CONTINUOUS
 62
     3
 10
578.485342
 20
2090.565215
 11
577.840961
 21
2088.408535
  0
LINE
  8
CSLAYER1
  6
CONTINUOUS
 62
     3
 10
577.840961
 20
2088.408535
 11
577.333371
 21
2086.273790
  0
LINE
  8
CSLAYER1
  6
CONTINUOUS
 62
     3
 10
577.333371
 20
2086.273790
 11
576.966434
 21
2084.177228
  0
LINE
  8
CSLAYER1
  6
CONTINUOUS
 62
     3
 10
576.966434
 20
2084.177228
 11
576.742943
 21
2082.134805
  0
LINE
  8
CSLAYER1
  6
CONTINUOUS
 62
     3
 10
576.742943
 20
2082.134805
 11
576.664599
 21
2080.162065
  0
LINE
  8
CSLAYER1
  6
CONTINUOUS
 62
     3
 10
576.664599
 20
2080.162065
 11
576.731998
 21
2078.274021
  0
LINE
  8
CSLAYER1
  6
CONTINUOUS
 62
     3
 10
576.731998
 20
2078.274021
 11
576.944627
 21
2076.485043
  0
LINE
  8
CSLAYER1
  6
CONTINUOUS
 62
     3
 10
576.944627
 20
2076.485043
 11
577.300868
 21
2074.808746
  0
LINE
  8
CSLAYER1
  6
CONTINUOUS
 62
     3
 10
577.300868
 20
2074.808746
 11
577.798009
 21
2073.257887
  0
LINE
  8
CSLAYER1
  6
CONTINUOUS
 62
     3
 10
577.798009
 20
2073.257887
 11
578.432268
 21
2071.844270
  0
LINE
  8
CSLAYER1
  6
CONTINUOUS
 62
     3
 10
578.432268
 20
2071.844270
 11
579.198816
 21
2070.578654
  0
LINE
  8
CSLAYER1
  6
CONTINUOUS
 62
     3
 10
579.198816
 20
2070.578654
 11
580.091821
 21
2069.470669
  0
LINE
  8
CSLAYER1
  6
CONTINUOUS
 62
     3
 10
581.104485
 20
2068.528749
 11
582.229103
 21
2067.760062
  0
LINE
  8
CSLAYER1
  6
CONTINUOUS
 62
     3
 10
582.229103
 20
2067.760062
 11
583.457114
 21
2067.170458
  0
LINE
  8
CSLAYER1
  6
CONTINUOUS
 62
     3
 10
583.457114
 20
2067.170458
 11
584.779173
 21
2066.764425
  0
LINE
  8
CSLAYER1
  6
CONTINUOUS
 62
     3
 10
584.779173
 20
2066.764425
 11
586.185218
 21
2066.545053
  0
LINE
  8
CSLAYER1
  6
CONTINUOUS
 62
     3
 10
586.185218
 20
2066.545053
 11
587.664549
 21
2066.514010
  0
LINE
  8
CSLAYER1
  6
CONTINUOUS
 62
     3
 10
587.664549
 20
2066.514010
 11
589.205906
 21
2066.671535
  0
LINE
  8
CSLAYER1
  6
CONTINUOUS
 62
     3
 10
589.205906
 20
2066.671535
 11
590.797560
 21
2067.016427
  0
LINE
  8
CSLAYER1
  6
CONTINUOUS
 62
     3
 10
590.797560
 20
2067.016427
 11
592.427396
 21
2067.546062
  0
LINE
  8
CSLAYER1
  6
CONTINUOUS
 62
     3
 10
592.427396
 20
2067.546062
 11
594.083011
 21
2068.256409
  0
LINE
  8
CSLAYER1
  6
CONTINUOUS
 62
     3
 10
594.083011
 20
2068.256409
 11
595.751804
 21
2069.142062
  0
LINE
  8
CSLAYER1
  6
CONTINUOUS
 62
     3
 10
595.751804
 20
2069.142062
 11
597.421075
 21
2070.196280
  0
LINE
  8
CSLAYER1
  6
CONTINUOUS
 62
     3
 10
597.421075
 20
2070.196280
 11
599.078120
 21
2071.411040
  0
LINE
  8
CSLAYER1
  6
CONTINUOUS
 62
     3
 10
599.078120
 20
2071.411040
 11
600.710328
 21
2072.777098
  0
LINE
  8
CSLAYER1
  6
CONTINUOUS
 62
     3
 10
600.710328
 20
2072.777098
 11
602.305276
 21
2074.284056
  0
LINE
  8
CSLAYER1
  6
CONTINUOUS
 62
     3
 10
602.305276
 20
2074.284056
 11
603.850826
 21
2075.920446
  0
LINE
  8
CSLAYER1
  6
CONTINUOUS
 62
     3
 10
603.850826
 20
2075.920446
 11
605.335215
 21
2077.673814
  0
LINE
  8
CSLAYER1
  6
CONTINUOUS
 62
     3
 10
605.335215
 20
2077.673814
 11
606.747147
 21
2079.530816
  0
LINE
  8
CSLAYER1
  6
CONTINUOUS
 62
     3
 10
606.747147
 20
2079.530816
 11
608.075876
 21
2081.477318
  0
LINE
  8
CSLAYER1
  6
CONTINUOUS
 62
     3
 10
608.075876
 20
2081.477318
 11
609.311288
 21
2083.498508
  0
LINE
  8
CSLAYER1
  6
CONTINUOUS
 62
     3
 10
609.311288
 20
2083.498508
 11
610.443983
 21
2085.579001
  0
LINE
  8
CSLAYER1
  6
CONTINUOUS
 62
     3
 10
610.443983
 20
2085.579001
 11
611.465339
 21
2087.702965
  0
LINE
  8
CSLAYER1
  6
CONTINUOUS
 62
     3
 10
611.465339
 20
2087.702965
 11
612.367584
 21
2089.854234
  0
LINE
  8
CSLAYER1
  6
CONTINUOUS
 62
     3
 10
612.367584
 20
2089.854234
 11
613.143851
 21
2092.016437
  0
LINE
  8
CSLAYER1
  6
CONTINUOUS
 62
     3
 10
613.143851
 20
2092.016437
 11
613.788231
 21
2094.173118
  0
LINE
  8
CSLAYER1
  6
CONTINUOUS
 62
     3
 10
613.788231
 20
2094.173118
 11
614.295821
 21
2096.307863
  0
LINE
  8
CSLAYER1
  6
CONTINUOUS
 62
     3
 10
614.295821
 20
2096.307863
 11
614.662758
 21
2098.404425
  0
LINE
  8
CSLAYER1
  6
CONTINUOUS
 62
     3
 10
614.662758
 20
2098.404425
 11
614.886249
 21
2100.446848
  0
LINE
  8
CSLAYER1
  6
CONTINUOUS
 62
     3
 10
614.886249
 20
2100.446848
 11
614.964593
 21
2102.419588
  0
LINE
  8
CSLAYER1
  6
CONTINUOUS
 62
     3
 10
614.964593
 20
2102.419588
 11
614.897194
 21
2104.307632
  0
LINE
  8
CSLAYER1
  6
CONTINUOUS
 62
     3
 10
614.897194
 20
2104.307632
 11
614.684565
 21
2106.096610
  0
LINE
  8
CSLAYER1
  6
CONTINUOUS
 62
     3
 10
614.684565
 20
2106.096610
 11
614.328325
 21
2107.772907
  0
LINE
  8
CSLAYER1
  6
CONTINUOUS
 62
     3
 10
614.328325
 20
2107.772907
 11
613.831183
 21
2109.323765
  0
LINE
  8
CSLAYER1
  6
CONTINUOUS
 62
     3
 10
613.831183
 20
2109.323765
 11
613.196925
 21
2110.737382
  0
LINE
  8
CSLAYER1
  6
CONTINUOUS
 62
     3
 10
613.196925
 20
2110.737382
 11
612.430376
 21
2112.002999
  0
LINE
  8
CSLAYER1
  6
CONTINUOUS
 62
     3
 10
612.430376
 20
2112.002999
 11
611.537371
 21
2113.110984
  0
LINE
  8
CSLAYER1
  6
CONTINUOUS
 62
     3
 10
611.537371
 20
2113.110984
 11
610.524707
 21
2114.052904
  0
LINE
  8
CSLAYER1
  6
CONTINUOUS
 62
     3
 10
610.524707
 20
2114.052904
 11
609.400089
 21
2114.821591
  0
LINE
  8
CSLAYER1
  6
CONTINUOUS
 62
     3
 10
527.887129
 20
2099.134415
 11
582.229103
 21
2067.760062
  0
LINE
  8
CSLAYER1
  6
CONTINUOUS
 62
     3
 10
579.172367
 20
2132.273575
 11
609.400089
 21
2114.821591
  0
LINE
  8
CSLAYER1
  6
CONTINUOUS
 62
     3
 10
397.126756
 20
2080.113713
 11
414.108623
 21
2089.918198
  0
LINE
  8
CSLAYER1
  6
CONTINUOUS
 62
     3
 10
388.635823
 20
2085.015956
 11
405.617689
 21
2094.820441
  0
LINE
  8
CSLAYER1
  6
CONTINUOUS
 62
     3
 10
600.909156
 20
2100.114863
 11
600.448652
 21
2100.335965
  0
LINE
  8
CSLAYER1
  6
CONTINUOUS
 62
     3
 10
600.448652
 20
2100.335965
 11
599.952880
 21
2100.488227
  0
LINE
  8
CSLAYER1
  6
CONTINUOUS
 62
     3
 10
599.952880
 20
2100.488227
 11
599.425613
 21
2100.570492
  0
LINE
  8
CSLAYER1
  6
CONTINUOUS
 62
     3
 10
599.425613
 20
2100.570492
 11
598.870864
 21
2100.582132
  0
LINE
  8
CSLAYER1
  6
CONTINUOUS
 62
     3
 10
598.870864
 20
2100.582132
 11
598.292855
 21
2100.523061
  0
LINE
  8
CSLAYER1
  6
CONTINUOUS
 62
     3
 10
598.292855
 20
2100.523061
 11
597.695985
 21
2100.393726
  0
LINE
  8
CSLAYER1
  6
CONTINUOUS
 62
     3
 10
597.695985
 20
2100.393726
 11
597.084796
 21
2100.195113
  0
LINE
  8
CSLAYER1
  6
CONTINUOUS
 62
     3
 10
597.084796
 20
2100.195113
 11
596.463941
 21
2099.928733
  0
LINE
  8
CSLAYER1
  6
CONTINUOUS
 62
     3
 10
596.463941
 20
2099.928733
 11
595.838143
 21
2099.596613
  0
LINE
  8
CSLAYER1
  6
CONTINUOUS
 62
     3
 10
595.838143
 20
2099.596613
 11
595.212166
 21
2099.201281
  0
LINE
  8
CSLAYER1
  6
CONTINUOUS
 62
     3
 10
595.212166
 20
2099.201281
 11
594.590775
 21
2098.745746
  0
LINE
  8
CSLAYER1
  6
CONTINUOUS
 62
     3
 10
594.590775
 20
2098.745746
 11
593.978697
 21
2098.233475
  0
LINE
  8
CSLAYER1
  6
CONTINUOUS
 62
     3
 10
593.978697
 20
2098.233475
 11
593.380591
 21
2097.668365
  0
LINE
  8
CSLAYER1
  6
CONTINUOUS
 62
     3
 10
593.380591
 20
2097.668365
 11
592.801010
 21
2097.054719
  0
LINE
  8
CSLAYER1
  6
CONTINUOUS
 62
     3
 10
592.801010
 20
2097.054719
 11
592.244364
 21
2096.397206
  0
LINE
  8
CSLAYER1
  6
CONTINUOUS
 62
     3
 10
592.244364
 20
2096.397206
 11
591.714890
 21
2095.700830
  0
LINE
  8
CSLAYER1
  6
CONTINUOUS
 62
     3
 10
591.714890
 20
2095.700830
 11
591.216616
 21
2094.970892
  0
LINE
  8
CSLAYER1
  6
CONTINUOUS
 62
     3
 10
591.216616
 20
2094.970892
 11
590.753337
 21
2094.212946
  0
LINE
  8
CSLAYER1
  6
CONTINUOUS
 62
     3
 10
590.753337
 20
2094.212946
 11
590.328576
 21
2093.432761
  0
LINE
  8
CSLAYER1
  6
CONTINUOUS
 62
     3
 10
590.328576
 20
2093.432761
 11
589.945567
 21
2092.636275
  0
LINE
  8
CSLAYER1
  6
CONTINUOUS
 62
     3
 10
589.945567
 20
2092.636275
 11
589.607226
 21
2091.829548
  0
LINE
  8
CSLAYER1
  6
CONTINUOUS
 62
     3
 10
589.607226
 20
2091.829548
 11
589.316126
 21
2091.018722
  0
LINE
  8
CSLAYER1
  6
CONTINUOUS
 62
     3
 10
589.316126
 20
2091.018722
 11
589.074483
 21
2090.209967
  0
LINE
  8
CSLAYER1
  6
CONTINUOUS
 62
     3
 10
589.074483
 20
2090.209967
 11
588.884137
 21
2089.409438
  0
LINE
  8
CSLAYER1
  6
CONTINUOUS
 62
     3
 10
588.884137
 20
2089.409438
 11
588.746535
 21
2088.623227
  0
LINE
  8
CSLAYER1
  6
CONTINUOUS
 62
     3
 10
588.746535
 20
2088.623227
 11
588.662726
 21
2087.857318
  0
LINE
  8
CSLAYER1
  6
CONTINUOUS
 62
     3
 10
588.662726
 20
2087.857318
 11
588.633347
 21
2087.117541
  0
LINE
  8
CSLAYER1
  6
CONTINUOUS
 62
     3
 10
588.633347
 20
2087.117541
 11
588.658622
 21
2086.409524
  0
LINE
  8
CSLAYER1
  6
CONTINUOUS
 62
     3
 10
588.658622
 20
2086.409524
 11
588.738358
 21
2085.738658
  0
LINE
  8
CSLAYER1
  6
CONTINUOUS
 62
     3
 10
588.738358
 20
2085.738658
 11
588.871948
 21
2085.110046
  0
LINE
  8
CSLAYER1
  6
CONTINUOUS
 62
     3
 10
588.871948
 20
2085.110046
 11
589.058376
 21
2084.528474
  0
LINE
  8
CSLAYER1
  6
CONTINUOUS
 62
     3
 10
589.058376
 20
2084.528474
 11
589.296223
 21
2083.998368
  0
LINE
  8
CSLAYER1
  6
CONTINUOUS
 62
     3
 10
589.296223
 20
2083.998368
 11
589.583679
 21
2083.523762
  0
LINE
  8
CSLAYER1
  6
CONTINUOUS
 62
     3
 10
589.583679
 20
2083.523762
 11
589.918555
 21
2083.108267
  0
LINE
  8
CSLAYER1
  6
CONTINUOUS
 62
     3
 10
589.918555
 20
2083.108267
 11
590.298305
 21
2082.755047
  0
LINE
  8
CSLAYER1
  6
CONTINUOUS
 62
     3
 10
590.298305
 20
2082.755047
 11
590.720036
 21
2082.466790
  0
LINE
  8
CSLAYER1
  6
CONTINUOUS
 62
     3
 10
590.720036
 20
2082.466790
 11
591.180540
 21
2082.245688
  0
LINE
  8
CSLAYER1
  6
CONTINUOUS
 62
     3
 10
591.180540
 20
2082.245688
 11
591.676312
 21
2082.093426
  0
LINE
  8
CSLAYER1
  6
CONTINUOUS
 62
     3
 10
591.676312
 20
2082.093426
 11
592.203579
 21
2082.011161
  0
LINE
  8
CSLAYER1
  6
CONTINUOUS
 62
     3
 10
592.203579
 20
2082.011161
 11
592.758328
 21
2081.999520
  0
LINE
  8
CSLAYER1
  6
CONTINUOUS
 62
     3
 10
592.758328
 20
2081.999520
 11
593.336337
 21
2082.058592
  0
LINE
  8
CSLAYER1
  6
CONTINUOUS
 62
     3
 10
593.336337
 20
2082.058592
 11
593.933207
 21
2082.187927
  0
LINE
  8
CSLAYER1
  6
CONTINUOUS
 62
     3
 10
593.933207
 20
2082.187927
 11
594.544396
 21
2082.386540
  0
LINE
  8
CSLAYER1
  6
CONTINUOUS
 62
     3
 10
594.544396
 20
2082.386540
 11
595.165252
 21
2082.652920
  0
LINE
  8
CSLAYER1
  6
CONTINUOUS
 62
     3
 10
595.165252
 20
2082.652920
 11
595.791049
 21
2082.985040
  0
LINE
  8
CSLAYER1
  6
CONTINUOUS
 62
     3
 10
595.791049
 20
2082.985040
 11
596.417026
 21
2083.380371
  0
LINE
  8
CSLAYER1
  6
CONTINUOUS
 62
     3
 10
596.417026
 20
2083.380371
 11
597.038418
 21
2083.835907
  0
LINE
  8
CSLAYER1
  6
CONTINUOUS
 62
     3
 10
597.038418
 20
2083.835907
 11
597.650495
 21
2084.348178
  0
LINE
  8
CSLAYER1
  6
CONTINUOUS
 62
     3
 10
597.650495
 20
2084.348178
 11
598.248601
 21
2084.913288
  0
LINE
  8
CSLAYER1
  6
CONTINUOUS
 62
     3
 10
598.248601
 20
2084.913288
 11
598.828182
 21
2085.526934
  0
LINE
  8
CSLAYER1
  6
CONTINUOUS
 62
     3
 10
598.828182
 20
2085.526934
 11
599.384828
 21
2086.184447
  0
LINE
  8
CSLAYER1
  6
CONTINUOUS
 62
     3
 10
599.384828
 20
2086.184447
 11
599.914303
 21
2086.880822
  0
LINE
  8
CSLAYER1
  6
CONTINUOUS
 62
     3
 10
599.914303
 20
2086.880822
 11
600.412576
 21
2087.610761
  0
LINE
  8
CSLAYER1
  6
CONTINUOUS
 62
     3
 10
600.412576
 20
2087.610761
 11
600.875856
 21
2088.368707
  0
LINE
  8
CSLAYER1
  6
CONTINUOUS
 62
     3
 10
600.875856
 20
2088.368707
 11
601.300616
 21
2089.148892
  0
LINE
  8
CSLAYER1
  6
CONTINUOUS
 62
     3
 10
601.300616
 20
2089.148892
 11
601.683625
 21
2089.945378
  0
LINE
  8
CSLAYER1
  6
CONTINUOUS
 62
     3
 10
601.683625
 20
2089.945378
 11
602.021967
 21
2090.752104
  0
LINE
  8
CSLAYER1
  6
CONTINUOUS
 62
     3
 10
602.021967
 20
2090.752104
 11
602.313067
 21
2091.562931
  0
LINE
  8
CSLAYER1
  6
CONTINUOUS
 62
     3
 10
602.313067
 20
2091.562931
 11
602.554709
 21
2092.371686
  0
LINE
  8
CSLAYER1
  6
CONTINUOUS
 62
     3
 10
602.554709
 20
2092.371686
 11
602.745055
 21
2093.172215
  0
LINE
  8
CSLAYER1
  6
CONTINUOUS
 62
     3
 10
602.745055
 20
2093.172215
 11
602.882657
 21
2093.958426
  0
LINE
  8
CSLAYER1
  6
CONTINUOUS
 62
     3
 10
602.882657
 20
2093.958426
 11
602.966466
 21
2094.724334
  0
LINE
  8
CSLAYER1
  6
CONTINUOUS
 62
     3
 10
602.966466
 20
2094.724334
 11
602.995845
 21
2095.464112
  0
LINE
  8
CSLAYER1
  6
CONTINUOUS
 62
     3
 10
602.995845
 20
2095.464112
 11
602.970570
 21
2096.172128
  0
LINE
  8
CSLAYER1
  6
CONTINUOUS
 62
     3
 10
602.970570
 20
2096.172128
 11
602.890835
 21
2096.842995
  0
LINE
  8
CSLAYER1
  6
CONTINUOUS
 62
     3
 10
602.890835
 20
2096.842995
 11
602.757244
 21
2097.471607
  0
LINE
  8
CSLAYER1
  6
CONTINUOUS
 62
     3
 10
602.757244
 20
2097.471607
 11
602.570816
 21
2098.053179
  0
LINE
  8
CSLAYER1
  6
CONTINUOUS
 62
     3
 10
602.570816
 20
2098.053179
 11
602.332969
 21
2098.583285
  0
LINE
  8
CSLAYER1
  6
CONTINUOUS
 62
     3
 10
602.332969
 20
2098.583285
 11
602.045514
 21
2099.057891
  0
LINE
  8
CSLAYER1
  6
CONTINUOUS
 62
     3
 10
602.045514
 20
2099.057891
 11
601.710637
 21
2099.473385
  0
LINE
  8
CSLAYER1
  6
CONTINUOUS
 62
     3
 10
601.710637
 20
2099.473385
 11
601.330888
 21
2099.826606
  0
LINE
  8
CSLAYER1
  6
CONTINUOUS
 62
     3
 10
601.330888
 20
2099.826606
 11
600.909156
 21
2100.114863
  0
LINE
  8
CSLAYER1
  6
CONTINUOUS
 62
     3
 10
590.720036
 20
2138.940625
 11
646.760196
 21
2106.585823
  0
LINE
  8
CSLAYER1
  6
CONTINUOUS
 62
     3
 10
519.396196
 20
2009.521419
 11
527.887129
 21
2014.423662
  0
LINE
  8
CSLAYER1
  6
CONTINUOUS
 62
     3
 10
610.448457
 20
2085.587219
 11
866.395031
 21
1937.816396
  0
LINE
  8
CSLAYER1
  6
CONTINUOUS
 62
     3
 10
527.887129
 20
2049.719809
 11
676.619428
 21
1963.849176
  0
LINE
  8
CSLAYER1
  6
CONTINUOUS
 62
     3
 10
527.887129
 20
2045.013656
 11
654.357155
 21
1971.996152
  0
LINE
  8
CSLAYER1
  6
CONTINUOUS
 62
     3
 10
549.963556
 20
2036.973978
 11
618.056308
 21
2076.287347
  0
LINE
  8
CSLAYER1
  6
CONTINUOUS
 62
     3
 10
566.945423
 20
2027.169493
 11
635.038175
 21
2066.482861
  0
LINE
  8
CSLAYER1
  6
CONTINUOUS
 62
     3
 10
622.306308
 20
2078.741085
 11
646.760196
 21
2092.859544
  0
LINE
  8
CSLAYER1
  6
CONTINUOUS
 62
     3
 10
639.288175
 20
2068.936600
 11
646.760196
 21
2073.250573
  0
LINE
  8
CSLAYER1
  6
CONTINUOUS
 62
     3
 10
689.525646
 20
1937.965335
 11
689.305935
 21
1940.851703
  0
LINE
  8
CSLAYER1
  6
CONTINUOUS
 62
     3
 10
689.305935
 20
1940.851703
 11
688.648471
 21
1943.716104
  0
LINE
  8
CSLAYER1
  6
CONTINUOUS
 62
     3
 10
688.648471
 20
1943.716104
 11
687.558260
 21
1946.536737
  0
LINE
  8
CSLAYER1
  6
CONTINUOUS
 62
     3
 10
687.558260
 20
1946.536737
 11
686.043598
 21
1949.292138
  0
LINE
  8
CSLAYER1
  6
CONTINUOUS
 62
     3
 10
686.043598
 20
1949.292138
 11
684.116013
 21
1951.961334
  0
LINE
  8
CSLAYER1
  6
CONTINUOUS
 62
     3
 10
684.116013
 20
1951.961334
 11
681.790175
 21
1954.524013
  0
LINE
  8
CSLAYER1
  6
CONTINUOUS
 62
     3
 10
681.790175
 20
1954.524013
 11
679.083784
 21
1956.960670
  0
LINE
  8
CSLAYER1
  6
CONTINUOUS
 62
     3
 10
679.083784
 20
1956.960670
 11
676.017439
 21
1959.252761
  0
LINE
  8
CSLAYER1
  6
CONTINUOUS
 62
     3
 10
676.017439
 20
1959.252761
 11
672.614476
 21
1961.382842
  0
LINE
  8
CSLAYER1
  6
CONTINUOUS
 62
     3
 10
672.614476
 20
1961.382842
 11
668.900794
 21
1963.334701
  0
LINE
  8
CSLAYER1
  6
CONTINUOUS
 62
     3
 10
668.900794
 20
1963.334701
 11
664.904655
 21
1965.093484
  0
LINE
  8
CSLAYER1
  6
CONTINUOUS
 62
     3
 10
664.904655
 20
1965.093484
 11
660.656473
 21
1966.645806
  0
LINE
  8
CSLAYER1
  6
CONTINUOUS
 62
     3
 10
660.656473
 20
1966.645806
 11
656.188579
 21
1967.979852
  0
LINE
  8
CSLAYER1
  6
CONTINUOUS
 62
     3
 10
656.188579
 20
1967.979852
 11
651.534977
 21
1969.085469
  0
LINE
  8
CSLAYER1
  6
CONTINUOUS
 62
     3
 10
651.534977
 20
1969.085469
 11
646.731083
 21
1969.954244
  0
LINE
  8
CSLAYER1
  6
CONTINUOUS
 62
     3
 10
646.731083
 20
1969.954244
 11
641.813458
 21
1970.579563
  0
LINE
  8
CSLAYER1
  6
CONTINUOUS
 62
     3
 10
641.813458
 20
1970.579563
 11
636.819528
 21
1970.956669
  0
LINE
  8
CSLAYER1
  6
CONTINUOUS
 62
     3
 10
636.819528
 20
1970.956669
 11
631.787300
 21
1971.082690
  0
LINE
  8
CSLAYER1
  6
CONTINUOUS
 62
     3
 10
631.787300
 20
1971.082690
 11
626.755071
 21
1970.956669
  0
LINE
  8
CSLAYER1
  6
CONTINUOUS
 62
     3
 10
626.755071
 20
1970.956669
 11
621.761141
 21
1970.579563
  0
LINE
  8
CSLAYER1
  6
CONTINUOUS
 62
     3
 10
621.761141
 20
1970.579563
 11
616.843516
 21
1969.954244
  0
LINE
  8
CSLAYER1
  6
CONTINUOUS
 62
     3
 10
616.843516
 20
1969.954244
 11
612.039622
 21
1969.085469
  0
LINE
  8
CSLAYER1
  6
CONTINUOUS
 62
     3
 10
612.039622
 20
1969.085469
 11
607.386020
 21
1967.979852
  0
LINE
  8
CSLAYER1
  6
CONTINUOUS
 62
     3
 10
607.386020
 20
1967.979852
 11
602.918126
 21
1966.645806
  0
LINE
  8
CSLAYER1
  6
CONTINUOUS
 62
     3
 10
602.918126
 20
1966.645806
 11
598.669945
 21
1965.093484
  0
LINE
  8
CSLAYER1
  6
CONTINUOUS
 62
     3
 10
598.669945
 20
1965.093484
 11
594.673806
 21
1963.334701
  0
LINE
  8
CSLAYER1
  6
CONTINUOUS
 62
     3
 10
594.673806
 20
1963.334701
 11
590.960123
 21
1961.382842
  0
LINE
  8
CSLAYER1
  6
CONTINUOUS
 62
     3
 10
590.960123
 20
1961.382842
 11
587.557160
 21
1959.252761
  0
LINE
  8
CSLAYER1
  6
CONTINUOUS
 62
     3
 10
587.557160
 20
1959.252761
 11
584.490815
 21
1956.960670
  0
LINE
  8
CSLAYER1
  6
CONTINUOUS
 62
     3
 10
584.490815
 20
1956.960670
 11
581.784425
 21
1954.524013
  0
LINE
  8
CSLAYER1
  6
CONTINUOUS
 62
     3
 10
581.784425
 20
1954.524013
 11
579.458587
 21
1951.961334
  0
LINE
  8
CSLAYER1
  6
CONTINUOUS
 62
     3
 10
579.458587
 20
1951.961334
 11
577.531001
 21
1949.292138
  0
LINE
  8
CSLAYER1
  6
CONTINUOUS
 62
     3
 10
577.531001
 20
1949.292138
 11
576.016340
 21
1946.536737
  0
LINE
  8
CSLAYER1
  6
CONTINUOUS
 62
     3
 10
576.016340
 20
1946.536737
 11
574.926128
 21
1943.716104
  0
LINE
  8
CSLAYER1
  6
CONTINUOUS
 62
     3
 10
574.926128
 20
1943.716104
 11
574.268665
 21
1940.851703
  0
LINE
  8
CSLAYER1
  6
CONTINUOUS
 62
     3
 10
574.268665
 20
1940.851703
 11
574.048953
 21
1937.965335
  0
LINE
  8
CSLAYER1
  6
CONTINUOUS
 62
     3
 10
574.048953
 20
1937.965335
 11
574.268665
 21
1935.078967
  0
LINE
  8
CSLAYER1
  6
CONTINUOUS
 62
     3
 10
574.268665
 20
1935.078967
 11
574.926128
 21
1932.214567
  0
LINE
  8
CSLAYER1
  6
CONTINUOUS
 62
     3
 10
574.926128
 20
1932.214567
 11
576.016340
 21
1929.393933
  0
LINE
  8
CSLAYER1
  6
CONTINUOUS
 62
     3
 10
576.016340
 20
1929.393933
 11
577.531001
 21
1926.638533
  0
LINE
  8
CSLAYER1
  6
CONTINUOUS
 62
     3
 10
577.531001
 20
1926.638533
 11
579.458587
 21
1923.969336
  0
LINE
  8
CSLAYER1
  6
CONTINUOUS
 62
     3
 10
579.458587
 20
1923.969336
 11
581.784425
 21
1921.406658
  0
LINE
  8
CSLAYER1
  6
CONTINUOUS
 62
     3
 10
581.784425
 20
1921.406658
 11
584.490815
 21
1918.970001
  0
LINE
  8
CSLAYER1
  6
CONTINUOUS
 62
     3
 10
584.490815
 20
1918.970001
 11
587.557160
 21
1916.677910
  0
LINE
  8
CSLAYER1
  6
CONTINUOUS
 62
     3
 10
587.557160
 20
1916.677910
 11
590.960123
 21
1914.547829
  0
LINE
  8
CSLAYER1
  6
CONTINUOUS
 62
     3
 10
590.960123
 20
1914.547829
 11
594.673806
 21
1912.595969
  0
LINE
  8
CSLAYER1
  6
CONTINUOUS
 62
     3
 10
594.673806
 20
1912.595969
 11
598.669945
 21
1910.837186
  0
LINE
  8
CSLAYER1
  6
CONTINUOUS
 62
     3
 10
598.669945
 20
1910.837186
 11
602.918126
 21
1909.284864
  0
LINE
  8
CSLAYER1
  6
CONTINUOUS
 62
     3
 10
602.918126
 20
1909.284864
 11
607.386020
 21
1907.950818
  0
LINE
  8
CSLAYER1
  6
CONTINUOUS
 62
     3
 10
607.386020
 20
1907.950818
 11
612.039622
 21
1906.845201
  0
LINE
  8
CSLAYER1
  6
CONTINUOUS
 62
     3
 10
612.039622
 20
1906.845201
 11
616.843516
 21
1905.976427
  0
LINE
  8
CSLAYER1
  6
CONTINUOUS
 62
     3
 10
616.843516
 20
1905.976427
 11
621.761141
 21
1905.351107
  0
LINE
  8
CSLAYER1
  6
CONTINUOUS
 62
     3
 10
621.761141
 20
1905.351107
 11
626.755071
 21
1904.974002
  0
LINE
  8
CSLAYER1
  6
CONTINUOUS
 62
     3
 10
626.755071
 20
1904.974002
 11
631.787300
 21
1904.847980
  0
LINE
  8
CSLAYER1
  6
CONTINUOUS
 62
     3
 10
631.787300
 20
1904.847980
 11
636.819528
 21
1904.974002
  0
LINE
  8
CSLAYER1
  6
CONTINUOUS
 62
     3
 10
636.819528
 20
1904.974002
 11
641.813458
 21
1905.351107
  0
LINE
  8
CSLAYER1
  6
CONTINUOUS
 62
     3
 10
641.813458
 20
1905.351107
 11
646.731083
 21
1905.976427
  0
LINE
  8
CSLAYER1
  6
CONTINUOUS
 62
     3
 10
646.731083
 20
1905.976427
 11
651.534977
 21
1906.845201
  0
LINE
  8
CSLAYER1
  6
CONTINUOUS
 62
     3
 10
651.534977
 20
1906.845201
 11
656.188579
 21
1907.950818
  0
LINE
  8
CSLAYER1
  6
CONTINUOUS
 62
     3
 10
656.188579
 20
1907.950818
 11
660.656473
 21
1909.284864
  0
LINE
  8
CSLAYER1
  6
CONTINUOUS
 62
     3
 10
660.656473
 20
1909.284864
 11
664.904655
 21
1910.837186
  0
LINE
  8
CSLAYER1
  6
CONTINUOUS
 62
     3
 10
664.904655
 20
1910.837186
 11
668.900794
 21
1912.595969
  0
LINE
  8
CSLAYER1
  6
CONTINUOUS
 62
     3
 10
668.900794
 20
1912.595969
 11
672.614476
 21
1914.547829
  0
LINE
  8
CSLAYER1
  6
CONTINUOUS
 62
     3
 10
672.614476
 20
1914.547829
 11
676.017439
 21
1916.677910
  0
LINE
  8
CSLAYER1
  6
CONTINUOUS
 62
     3
 10
676.017439
 20
1916.677910
 11
679.083784
 21
1918.970001
  0
LINE
  8
CSLAYER1
  6
CONTINUOUS
 62
     3
 10
679.083784
 20
1918.970001
 11
681.790175
 21
1921.406658
  0
LINE
  8
CSLAYER1
  6
CONTINUOUS
 62
     3
 10
681.790175
 20
1921.406658
 11
684.116013
 21
1923.969336
  0
LINE
  8
CSLAYER1
  6
CONTINUOUS
 62
     3
 10
684.116013
 20
1923.969336
 11
686.043598
 21
1926.638533
  0
LINE
  8
CSLAYER1
  6
CONTINUOUS
 62
     3
 10
686.043598
 20
1926.638533
 11
687.558260
 21
1929.393933
  0
LINE
  8
CSLAYER1
  6
CONTINUOUS
 62
     3
 10
687.558260
 20
1929.393933
 11
688.648471
 21
1932.214567
  0
LINE
  8
CSLAYER1
  6
CONTINUOUS
 62
     3
 10
688.648471
 20
1932.214567
 11
689.305935
 21
1935.078967
  0
LINE
  8
CSLAYER1
  6
CONTINUOUS
 62
     3
 10
689.305935
 20
1935.078967
 11
689.525646
 21
1937.965335
  0
LINE
  8
CSLAYER1
  6
CONTINUOUS
 62
     3
 10
695.299481
 20
1937.965335
 11
695.057798
 21
1941.140340
  0
LINE
  8
CSLAYER1
  6
CONTINUOUS
 62
     3
 10
695.057798
 20
1941.140340
 11
694.334588
 21
1944.291180
  0
LINE
  8
CSLAYER1
  6
CONTINUOUS
 62
     3
 10
694.334588
 20
1944.291180
 11
693.135356
 21
1947.393878
  0
LINE
  8
CSLAYER1
  6
CONTINUOUS
 62
     3
 10
693.135356
 20
1947.393878
 11
691.469228
 21
1950.424818
  0
LINE
  8
CSLAYER1
  6
CONTINUOUS
 62
     3
 10
691.469228
 20
1950.424818
 11
689.348884
 21
1953.360934
  0
LINE
  8
CSLAYER1
  6
CONTINUOUS
 62
     3
 10
689.348884
 20
1953.360934
 11
686.790462
 21
1956.179880
  0
LINE
  8
CSLAYER1
  6
CONTINUOUS
 62
     3
 10
686.790462
 20
1956.179880
 11
683.813433
 21
1958.860203
  0
LINE
  8
CSLAYER1
  6
CONTINUOUS
 62
     3
 10
683.813433
 20
1958.860203
 11
680.440453
 21
1961.381503
  0
LINE
  8
CSLAYER1
  6
CONTINUOUS
 62
     3
 10
680.440453
 20
1961.381503
 11
676.697194
 21
1963.724592
  0
LINE
  8
CSLAYER1
  6
CONTINUOUS
 62
     3
 10
676.697194
 20
1963.724592
 11
672.612143
 21
1965.871638
  0
LINE
  8
CSLAYER1
  6
CONTINUOUS
 62
     3
 10
672.612143
 20
1965.871638
 11
668.216390
 21
1967.806299
  0
LINE
  8
CSLAYER1
  6
CONTINUOUS
 62
     3
 10
668.216390
 20
1967.806299
 11
663.543390
 21
1969.513853
  0
LINE
  8
CSLAYER1
  6
CONTINUOUS
 62
     3
 10
663.543390
 20
1969.513853
 11
658.628707
 21
1970.981304
  0
LINE
  8
CSLAYER1
  6
CONTINUOUS
 62
     3
 10
658.628707
 20
1970.981304
 11
653.509745
 21
1972.197483
  0
LINE
  8
CSLAYER1
  6
CONTINUOUS
 62
     3
 10
653.509745
 20
1972.197483
 11
648.225462
 21
1973.153135
  0
LINE
  8
CSLAYER1
  6
CONTINUOUS
 62
     3
 10
648.225462
 20
1973.153135
 11
642.816074
 21
1973.840986
  0
LINE
  8
CSLAYER1
  6
CONTINUOUS
 62
     3
 10
642.816074
 20
1973.840986
 11
637.322751
 21
1974.255802
  0
LINE
  8
CSLAYER1
  6
CONTINUOUS
 62
     3
 10
637.322751
 20
1974.255802
 11
631.787300
 21
1974.394426
  0
LINE
  8
CSLAYER1
  6
CONTINUOUS
 62
     3
 10
631.787300
 20
1974.394426
 11
626.251848
 21
1974.255802
  0
LINE
  8
CSLAYER1
  6
CONTINUOUS
 62
     3
 10
626.251848
 20
1974.255802
 11
620.758525
 21
1973.840986
  0
LINE
  8
CSLAYER1
  6
CONTINUOUS
 62
     3
 10
620.758525
 20
1973.840986
 11
615.349138
 21
1973.153135
  0
LINE
  8
CSLAYER1
  6
CONTINUOUS
 62
     3
 10
615.349138
 20
1973.153135
 11
610.064854
 21
1972.197483
  0
LINE
  8
CSLAYER1
  6
CONTINUOUS
 62
     3
 10
610.064854
 20
1972.197483
 11
604.945892
 21
1970.981304
  0
LINE
  8
CSLAYER1
  6
CONTINUOUS
 62
     3
 10
604.945892
 20
1970.981304
 11
600.031209
 21
1969.513853
  0
LINE
  8
CSLAYER1
  6
CONTINUOUS
 62
     3
 10
600.031209
 20
1969.513853
 11
595.358209
 21
1967.806299
  0
LINE
  8
CSLAYER1
  6
CONTINUOUS
 62
     3
 10
595.358209
 20
1967.806299
 11
590.962457
 21
1965.871638
  0
LINE
  8
CSLAYER1
  6
CONTINUOUS
 62
     3
 10
590.962457
 20
1965.871638
 11
586.877406
 21
1963.724592
  0
LINE
  8
CSLAYER1
  6
CONTINUOUS
 62
     3
 10
586.877406
 20
1963.724592
 11
583.134146
 21
1961.381503
  0
LINE
  8
CSLAYER1
  6
CONTINUOUS
 62
     3
 10
583.134146
 20
1961.381503
 11
579.761167
 21
1958.860203
  0
LINE
  8
CSLAYER1
  6
CONTINUOUS
 62
     3
 10
579.761167
 20
1958.860203
 11
576.784137
 21
1956.179880
  0
LINE
  8
CSLAYER1
  6
CONTINUOUS
 62
     3
 10
576.784137
 20
1956.179880
 11
574.225715
 21
1953.360934
  0
LINE
  8
CSLAYER1
  6
CONTINUOUS
 62
     3
 10
574.225715
 20
1953.360934
 11
572.105372
 21
1950.424818
  0
LINE
  8
CSLAYER1
  6
CONTINUOUS
 62
     3
 10
572.105372
 20
1950.424818
 11
570.439243
 21
1947.393878
  0
LINE
  8
CSLAYER1
  6
CONTINUOUS
 62
     3
 10
570.439243
 20
1947.393878
 11
569.240011
 21
1944.291180
  0
LINE
  8
CSLAYER1
  6
CONTINUOUS
 62
     3
 10
569.240011
 20
1944.291180
 11
568.516801
 21
1941.140340
  0
LINE
  8
CSLAYER1
  6
CONTINUOUS
 62
     3
 10
568.516801
 20
1941.140340
 11
568.275118
 21
1937.965335
  0
LINE
  8
CSLAYER1
  6
CONTINUOUS
 62
     3
 10
568.275118
 20
1937.965335
 11
568.516801
 21
1934.790331
  0
LINE
  8
CSLAYER1
  6
CONTINUOUS
 62
     3
 10
568.516801
 20
1934.790331
 11
569.240011
 21
1931.639490
  0
LINE
  8
CSLAYER1
  6
CONTINUOUS
 62
     3
 10
569.240011
 20
1931.639490
 11
570.439243
 21
1928.536793
  0
LINE
  8
CSLAYER1
  6
CONTINUOUS
 62
     3
 10
570.439243
 20
1928.536793
 11
572.105372
 21
1925.505852
  0
LINE
  8
CSLAYER1
  6
CONTINUOUS
 62
     3
 10
572.105372
 20
1925.505852
 11
574.225715
 21
1922.569736
  0
LINE
  8
CSLAYER1
  6
CONTINUOUS
 62
     3
 10
574.225715
 20
1922.569736
 11
576.784137
 21
1919.750790
  0
LINE
  8
CSLAYER1
  6
CONTINUOUS
 62
     3
 10
576.784137
 20
1919.750790
 11
579.761167
 21
1917.070467
  0
LINE
  8
CSLAYER1
  6
CONTINUOUS
 62
     3
 10
579.761167
 20
1917.070467
 11
583.134146
 21
1914.549167
  0
LINE
  8
CSLAYER1
  6
CONTINUOUS
 62
     3
 10
583.134146
 20
1914.549167
 11
586.877406
 21
1912.206078
  0
LINE
  8
CSLAYER1
  6
CONTINUOUS
 62
     3
 10
586.877406
 20
1912.206078
 11
590.962457
 21
1910.059033
  0
LINE
  8
CSLAYER1
  6
CONTINUOUS
 62
     3
 10
590.962457
 20
1910.059033
 11
595.358209
 21
1908.124371
  0
LINE
  8
CSLAYER1
  6
CONTINUOUS
 62
     3
 10
595.358209
 20
1908.124371
 11
600.031209
 21
1906.416817
  0
LINE
  8
CSLAYER1
  6
CONTINUOUS
 62
     3
 10
600.031209
 20
1906.416817
 11
604.945892
 21
1904.949367
  0
LINE
  8
CSLAYER1
  6
CONTINUOUS
 62
     3
 10
604.945892
 20
1904.949367
 11
605.016389
 21
1904.932618
  0
LINE
  8
CSLAYER1
  6
CONTINUOUS
 62
     3
 10
631.787300
 20
1901.536245
 11
637.322751
 21
1901.674868
  0
LINE
  8
CSLAYER1
  6
CONTINUOUS
 62
     3
 10
637.322751
 20
1901.674868
 11
642.816074
 21
1902.089684
  0
LINE
  8
CSLAYER1
  6
CONTINUOUS
 62
     3
 10
642.816074
 20
1902.089684
 11
648.225462
 21
1902.777536
  0
LINE
  8
CSLAYER1
  6
CONTINUOUS
 62
     3
 10
648.225462
 20
1902.777536
 11
653.509745
 21
1903.733187
  0
LINE
  8
CSLAYER1
  6
CONTINUOUS
 62
     3
 10
653.509745
 20
1903.733187
 11
658.628707
 21
1904.949367
  0
LINE
  8
CSLAYER1
  6
CONTINUOUS
 62
     3
 10
658.628707
 20
1904.949367
 11
663.543390
 21
1906.416817
  0
LINE
  8
CSLAYER1
  6
CONTINUOUS
 62
     3
 10
663.543390
 20
1906.416817
 11
668.216390
 21
1908.124371
  0
LINE
  8
CSLAYER1
  6
CONTINUOUS
 62
     3
 10
668.216390
 20
1908.124371
 11
672.612143
 21
1910.059033
  0
LINE
  8
CSLAYER1
  6
CONTINUOUS
 62
     3
 10
672.612143
 20
1910.059033
 11
676.697194
 21
1912.206078
  0
LINE
  8
CSLAYER1
  6
CONTINUOUS
 62
     3
 10
676.697194
 20
1912.206078
 11
680.440453
 21
1914.549167
  0
LINE
  8
CSLAYER1
  6
CONTINUOUS
 62
     3
 10
680.440453
 20
1914.549167
 11
683.813433
 21
1917.070467
  0
LINE
  8
CSLAYER1
  6
CONTINUOUS
 62
     3
 10
683.813433
 20
1917.070467
 11
686.790462
 21
1919.750790
  0
LINE
  8
CSLAYER1
  6
CONTINUOUS
 62
     3
 10
686.790462
 20
1919.750790
 11
689.348884
 21
1922.569736
  0
LINE
  8
CSLAYER1
  6
CONTINUOUS
 62
     3
 10
689.348884
 20
1922.569736
 11
691.469228
 21
1925.505852
  0
LINE
  8
CSLAYER1
  6
CONTINUOUS
 62
     3
 10
691.469228
 20
1925.505852
 11
693.135356
 21
1928.536793
  0
LINE
  8
CSLAYER1
  6
CONTINUOUS
 62
     3
 10
693.135356
 20
1928.536793
 11
694.334588
 21
1931.639490
  0
LINE
  8
CSLAYER1
  6
CONTINUOUS
 62
     3
 10
694.334588
 20
1931.639490
 11
695.057798
 21
1934.790331
  0
LINE
  8
CSLAYER1
  6
CONTINUOUS
 62
     3
 10
695.057798
 20
1934.790331
 11
695.299481
 21
1937.965335
  0
LINE
  8
CSLAYER1
  6
CONTINUOUS
 62
     3
 10
507.508889
 20
1901.536245
 11
631.787300
 21
1901.536245
  0
LINE
  8
CSLAYER1
  6
CONTINUOUS
 62
     3
 10
507.508889
 20
1904.932618
 11
631.787300
 21
1904.932618
  0
LINE
  8
CSLAYER1
  6
CONTINUOUS
 62
     3
 10
507.508889
 20
1901.536245
 11
507.508889
 21
1904.932618
  0
LINE
  8
CSLAYER1
  6
CONTINUOUS
 62
     3
 10
507.508889
 20
1904.932618
 11
499.684385
 21
1907.347905
  0
LINE
  8
CSLAYER1
  6
CONTINUOUS
 62
     3
 10
499.684385
 20
1907.347905
 11
498.380532
 21
1912.824087
  0
LINE
  8
CSLAYER1
  6
CONTINUOUS
 62
     3
 10
507.508889
 20
1901.536245
 11
494.468973
 21
1902.654034
  0
LINE
  8
CSLAYER1
  6
CONTINUOUS
 62
     3
 10
494.468973
 20
1902.654034
 11
488.732021
 21
1900.828640
  0
LINE
  8
CSLAYER1
  6
CONTINUOUS
 62
     3
 10
488.732021
 20
1900.828640
 11
482.473527
 21
1897.960164
  0
LINE
  8
CSLAYER1
  6
CONTINUOUS
 62
     3
 10
498.380532
 20
1912.824087
 11
491.861268
 21
1917.778728
  0
LINE
  8
CSLAYER1
  6
CONTINUOUS
 62
     3
 10
388.635823
 20
2104.624926
 11
527.887129
 21
2024.228147
  0
LINE
  8
CSLAYER1
  6
CONTINUOUS
 62
     3
 10
388.635823
 20
2183.060809
 11
527.887129
 21
2102.664029
  0
LINE
  8
CSLAYER1
  6
CONTINUOUS
 62
     3
 10
388.635823
 20
2183.060809
 11
388.635823
 21
2085.015956
  0
LINE
  8
CSLAYER1
  6
CONTINUOUS
 62
     3
 10
646.760196
 20
2171.295426
 11
646.760196
 21
2073.250573
  0
LINE
  8
CSLAYER1
  6
CONTINUOUS
 62
     3
 10
388.635823
 20
2183.060809
 11
507.508889
 21
2251.692206
  0
LINE
  8
CSLAYER1
  6
CONTINUOUS
 62
     5
 10
346.647533
 20
2109.257906
 11
381.421869
 21
2089.180934
  0
TEXT
  8
CSLAYER1
 62
     3
 10
760.126827
 20
2144.626417
 40
29.612888
 41
0.852344
  1
ホース長サ２ｍ
 50
0.000000
 51
0.000000
  7
EASYDRAW_FONT
 72
     5
 11
928.396000
 21
2144.626417
  0
TEXT
  8
CSLAYER1
 62
     3
 10
321.302557
 20
1933.676825
 40
33.963734
 41
1.036364
  1
長サ4ｍ
 50
0.000000
 51
0.000000
  7
EASYDRAW_FONT
 72
     5
 11
450.364741
 21
1933.676825
  0
LINE
  8
CSLAYER1
  6
CONTINUOUS
 62
     3
 10
608.356068
 20
2081.887783
 11
864.270031
 21
1934.135788
  0
ARC
  8
CSLAYER1
  6
CONTINUOUS
 62
     3
 10
908.895031
 20
2011.428555
 40
85.000000
 50
240.000000
 51
270.000000
  0
ARC
  8
CSLAYER1
  6
CONTINUOUS
 62
     3
 10
908.895031
 20
2011.428555
 40
89.250000
 50
240.000000
 51
270.000000
  0
TEXT
  8
CSLAYER1
 62
     3
 10
710.956353
 20
1835.741278
 40
33.963734
 41
1.020000
  1
フットスイッチ
 50
0.000000
 51
0.000000
  7
EASYDRAW_FONT
 72
     5
 11
941.909736
 21
1835.741278
  0
TEXT
  8
CSLAYER1
 62
     3
 10
709.125787
 20
1789.366278
 40
33.963734
 41
1.020000
  1
ＵＰ・ＤＯＷＮ
 50
0.000000
 51
0.000000
  7
EASYDRAW_FONT
 72
     5
 11
940.079169
 21
1789.366278
  0
TEXT
  8
CSLAYER1
 62
     3
 10
711.566461
 20
1747.872137
 40
33.963734
 41
1.020000
  1
コード長サ２ｍ
 50
0.000000
 51
0.000000
  7
EASYDRAW_FONT
 72
     5
 11
942.519843
 21
1747.872137
  0
LINE
  8
CSLAYER1
  6
CONTINUOUS
 62
     5
 10
598.971153
 20
1802.621325
 11
703.691827
 21
1830.681145
  0
LINE
  8
CSLAYER1
  6
CONTINUOUS
 62
     5
 10
598.971153
 20
1802.621325
 11
624.951915
 21
1817.621325
  0
LINE
  8
CSLAYER1
  6
CONTINUOUS
 62
     5
 10
598.971153
 20
1802.621325
 11
628.971153
 21
1802.621325
  0
LINE
  8
CSLAYER1
  6
CONTINUOUS
 62
     5
 10
936.879300
 20
1830.681145
 11
703.691827
 21
1830.681145
  0
LINE
  8
CSLAYER1
  6
CONTINUOUS
 62
     3
 10
447.832540
 20
1817.720232
 11
542.930993
 21
1762.815114
  0
LINE
  8
CSLAYER1
  6
CONTINUOUS
 62
     3
 10
542.930993
 20
1762.815114
 11
598.971153
 21
1795.169916
  0
LINE
  8
CSLAYER1
  6
CONTINUOUS
 62
     3
 10
598.971153
 20
1802.621325
 11
598.971153
 21
1795.169916
  0
LINE
  8
CSLAYER1
  6
CONTINUOUS
 62
     5
 10
542.930993
 20
1791.836391
 11
542.930993
 21
1772.227420
  0
LINE
  8
CSLAYER1
  6
CONTINUOUS
 62
     3
 10
447.832540
 20
1825.563820
 11
447.832540
 21
1817.720232
  0
LINE
  8
CSLAYER1
  6
CONTINUOUS
 62
     3
 10
450.889276
 20
1845.368880
 11
503.533062
 21
1875.762785
  0
LINE
  8
CSLAYER1
  6
CONTINUOUS
 62
     3
 10
484.853009
 20
1825.759910
 11
537.496796
 21
1856.153814
  0
LINE
  8
CSLAYER1
  6
CONTINUOUS
 62
     3
 10
542.930993
 20
1791.836391
 11
595.914417
 21
1822.426385
  0
LINE
  8
CSLAYER1
  6
CONTINUOUS
 62
     3
 10
509.306897
 20
1811.641451
 11
561.950683
 21
1842.035355
  0
LINE
  8
CSLAYER1
  6
CONTINUOUS
 62
     3
 10
450.889276
 20
1845.368880
 11
484.853009
 21
1825.759910
  0
LINE
  8
CSLAYER1
  6
CONTINUOUS
 62
     3
 10
503.533062
 20
1875.762785
 11
537.496796
 21
1856.153814
  0
LINE
  8
CSLAYER1
  6
CONTINUOUS
 62
     3
 10
447.832540
 20
1825.563820
 11
542.930993
 21
1770.658702
  0
LINE
  8
CSLAYER1
  6
CONTINUOUS
 62
     3
 10
542.930993
 20
1770.266523
 11
598.971153
 21
1802.621325
  0
LINE
  8
CSLAYER1
  6
CONTINUOUS
 62
     3
 10
491.985393
 20
1821.642026
 11
502.174513
 21
1815.759335
  0
LINE
  8
CSLAYER1
  6
CONTINUOUS
 62
     5
 10
542.930993
 20
1772.227420
 11
595.914417
 21
1802.817414
  0
LINE
  8
CSLAYER1
  6
CONTINUOUS
 62
     5
 10
450.889276
 20
1825.759910
 11
484.853009
 21
1806.150939
  0
LINE
  8
CSLAYER1
  6
CONTINUOUS
 62
     3
 10
595.914417
 20
1822.426385
 11
595.914417
 21
1802.817414
  0
LINE
  8
CSLAYER1
  6
CONTINUOUS
 62
     5
 10
509.306897
 20
1811.641451
 11
509.306897
 21
1791.464759
  0
LINE
  8
CSLAYER1
  6
CONTINUOUS
 62
     5
 10
484.853009
 20
1806.150939
 11
484.853009
 21
1825.759910
  0
LINE
  8
CSLAYER1
  6
CONTINUOUS
 62
     3
 10
537.496796
 20
1856.153814
 11
537.496796
 21
1847.918047
  0
LINE
  8
CSLAYER1
  6
CONTINUOUS
 62
     5
 10
491.985393
 20
1802.033055
 11
502.174513
 21
1796.150364
  0
LINE
  8
CSLAYER1
  6
CONTINUOUS
 62
     3
 10
542.930993
 20
1770.266523
 11
542.930993
 21
1762.815114
  0
LINE
  8
CSLAYER1
  6
CONTINUOUS
 62
     3
 10
595.914417
 20
1804.386132
 11
598.971153
 21
1802.621325
  0
LINE
  8
CSLAYER1
  6
CONTINUOUS
 62
     3
 10
491.985393
 20
1821.642026
 11
544.629180
 21
1852.035930
  0
LINE
  8
CSLAYER1
  6
CONTINUOUS
 62
     3
 10
502.174513
 20
1815.759335
 11
554.818300
 21
1846.153239
  0
LINE
  8
CSLAYER1
  6
CONTINUOUS
 62
     3
 10
554.818300
 20
1846.153239
 11
554.818300
 21
1837.917472
  0
LINE
  8
CSLAYER1
  6
CONTINUOUS
 62
     3
 10
544.629180
 20
1852.035930
 11
554.818300
 21
1846.153239
  0
LINE
  8
CSLAYER1
  6
CONTINUOUS
 62
     3
 10
561.950683
 20
1842.035355
 11
595.914417
 21
1822.426385
  0
LINE
  8
CSLAYER1
  6
CONTINUOUS
 62
     3
 10
509.306897
 20
1811.641451
 11
542.930993
 21
1792.228570
  0
LINE
  8
CSLAYER1
  6
CONTINUOUS
 62
     5
 10
502.174513
 20
1815.759335
 11
502.174513
 21
1796.150364
  0
LINE
  8
CSLAYER1
  6
CONTINUOUS
 62
     5
 10
491.985393
 20
1821.642026
 11
491.985393
 21
1802.033055
  0
LINE
  8
CSLAYER1
  6
CONTINUOUS
 62
     5
 10
502.174513
 20
1796.150364
 11
509.306897
 21
1800.268248
  0
LINE
  8
CSLAYER1
  6
CONTINUOUS
 62
     5
 10
484.853009
 20
1806.150939
 11
491.985393
 21
1810.268823
  0
LINE
  8
CSLAYER1
  6
CONTINUOUS
 62
     5
 10
509.306897
 20
1792.032480
 11
542.930993
 21
1772.619600
  0
LINE
  8
CSLAYER1
  6
CONTINUOUS
 62
     3
 10
450.889276
 20
1845.368880
 11
450.889276
 21
1825.759910
  0
LINE
  8
CSLAYER1
  6
CONTINUOUS
 62
     3
 10
447.832540
 20
1825.563820
 11
450.889276
 21
1827.328627
  0
LINE
  8
CSLAYER1
  6
CONTINUOUS
 62
     5
 10
461.078396
 20
1851.251572
 11
495.042129
 21
1831.642601
  0
LINE
  8
CSLAYER1
  6
CONTINUOUS
 62
     5
 10
471.267516
 20
1857.134263
 11
505.231249
 21
1837.525292
  0
LINE
  8
CSLAYER1
  6
CONTINUOUS
 62
     5
 10
481.456636
 20
1863.016954
 11
515.420369
 21
1843.407983
  0
LINE
  8
CSLAYER1
  6
CONTINUOUS
 62
     5
 10
529.685137
 20
1823.406833
 11
563.648870
 21
1803.797863
  0
LINE
  8
CSLAYER1
  6
CONTINUOUS
 62
     5
 10
519.496017
 20
1817.524142
 11
553.459750
 21
1797.915172
  0
LINE
  8
CSLAYER1
  6
CONTINUOUS
 62
     5
 10
539.874257
 20
1829.289524
 11
573.837990
 21
1809.680554
  0
ARC
  8
CSLAYER1
  6
CONTINUOUS
 62
     3
 10
553.774448
 20
1840.959931
 40
10.105980
 50
-0.219250
 51
120.219250
  0
LINE
  8
CSLAYER1
  6
CONTINUOUS
 62
     3
 10
562.404223
 20
1846.219001
 11
676.550418
 21
1912.121337
  0
LINE
  8
CSLAYER1
  6
CONTINUOUS
 62
     3
 10
559.530868
 20
1849.266222
 11
654.034928
 21
1903.828166
  0
LINE
  8
CSLAYER1
  6
CONTINUOUS
 62
     5
 10
519.184358
 20
1905.738535
 11
485.410523
 21
1971.540592
  0
LINE
  8
CSLAYER1
  6
CONTINUOUS
 62
     5
 10
519.184358
 20
1905.738535
 11
499.044456
 21
1927.973290
  0
LINE
  8
CSLAYER1
  6
CONTINUOUS
 62
     5
 10
519.184358
 20
1905.738535
 11
512.860069
 21
1935.064349
  0
LINE
  8
CSLAYER1
  6
CONTINUOUS
 62
     5
 10
264.291877
 20
1705.459889
 11
982.483658
 21
1705.459889
  0
LINE
  8
CSLAYER1
  6
CONTINUOUS
 62
     5
 10
495.698943
 20
2391.122970
 11
733.344723
 21
2391.122970
  0
LINE
  8
CSLAYER1
  6
CONTINUOUS
 62
     5
 10
733.344723
 20
2391.122970
 11
733.344723
 21
2348.023484
  0
LINE
  8
CSLAYER1
  6
CONTINUOUS
 62
     5
 10
733.344723
 20
2348.023484
 11
495.698943
 21
2348.023484
  0
LINE
  8
CSLAYER1
  6
CONTINUOUS
 62
     5
 10
495.698943
 20
2348.023484
 11
495.698943
 21
2391.122970
  0
INSERT
  8
CSLAYER1
  2
BLKF0000
 10
0.0
 20
0.0
 30
0.0
  0
LINE
  8
CSLAYER1
  6
CONTINUOUS
 62
     5
 10
473.848369
 20
818.349638
 11
692.926450
 21
818.349638
  0
POINT
  8
CSLAYER1
 62
     5
 10
1453.335276
 20
835.849638
  0
LINE
  8
CSLAYER1
  6
CONTINUOUS
 62
     3
 10
1428.335276
 20
858.349638
 11
1428.335276
 21
818.349638
  0
LINE
  8
CSLAYER1
  6
CONTINUOUS
 62
     3
 10
1428.335276
 20
858.349638
 11
1441.878837
 21
858.349638
  0
LINE
  8
CSLAYER1
  6
CONTINUOUS
 62
     3
 10
1464.791715
 20
858.349638
 11
2231.335276
 21
858.349638
  0
LINE
  8
CSLAYER1
  6
CONTINUOUS
 62
     3
 10
1428.335276
 20
824.349638
 11
1472.335276
 21
824.349638
  0
ARC
  8
CSLAYER1
  6
CONTINUOUS
 62
     3
 10
1453.335276
 20
863.349638
 40
12.500000
 50
203.578178
 51
336.421822
  0
LINE
  8
CSLAYER1
  6
CONTINUOUS
 62
     3
 10
1472.335276
 20
858.349638
 11
1472.335276
 21
824.349638
  0
LINE
  8
CSLAYER1
  6
CENTER
 62
     5
 10
1442.440447
 20
835.849638
 11
1463.555681
 21
835.849638
  0
LINE
  8
CSLAYER1
  6
CENTER
 62
     5
 10
1453.335276
 20
846.819293
 11
1453.335276
 21
824.879983
  0
INSERT
  8
CSLAYER1
  2
BLKF0001
 10
0.0
 20
0.0
 30
0.0
  0
LINE
  8
CSLAYER1
  6
CONTINUOUS
 62
     3
 10
1509.052986
 20
922.098509
 11
1527.982696
 21
910.051743
  0
LINE
  8
CSLAYER1
  6
CONTINUOUS
 62
     3
 10
1590.580712
 20
1075.276131
 11
1614.851714
 21
1059.830194
  0
LINE
  8
CSLAYER1
  6
CONTINUOUS
 62
     3
 10
1558.098760
 20
1030.754531
 11
1576.018817
 21
1019.350302
  0
LINE
  8
CSLAYER1
  6
CONTINUOUS
 62
     3
 10
1557.792005
 20
1032.135075
 11
1576.046406
 21
1060.819162
  0
LINE
  8
CSLAYER1
  6
CONTINUOUS
 62
     3
 10
1576.046406
 20
1060.819162
 11
1590.580712
 21
1075.276131
  0
LINE
  8
CSLAYER1
  6
CONTINUOUS
 62
     3
 10
1557.792005
 20
1032.135075
 11
1558.098760
 21
1030.754531
  0
LINE
  8
CSLAYER1
  6
CONTINUOUS
 62
     3
 10
1508.968996
 20
949.456741
 11
1559.954789
 21
1029.573364
  0
POINT
  8
CSLAYER1
 62
     3
 10
1508.511660
 20
903.477787
  0
LINE
  8
CSLAYER1
  6
CENTER
 62
     6
 10
1503.035857
 20
894.873374
 11
1688.424887
 21
1186.184775
  0
POINT
  8
CSLAYER1
 62
     3
 10
1688.424887
 20
1186.184775
  0
CIRCLE
  8
CSLAYER1
  6
CONTINUOUS
 62
     3
 10
1688.424887
 20
1186.184775
 40
8.000000
  0
LINE
  8
CSLAYER1
  6
CONTINUOUS
 62
     3
 10
1657.920767
 20
1104.725907
 11
1671.960842
 21
1126.787805
  0
LINE
  8
CSLAYER1
  6
CONTINUOUS
 62
     3
 10
1594.798960
 20
1072.591660
 11
1646.307295
 21
1153.529379
  0
CIRCLE
  8
CSLAYER1
  6
CONTINUOUS
 62
     3
 10
1508.511660
 20
903.477787
 40
8.000000
  0
LINE
  8
CSLAYER1
  6
CONTINUOUS
 62
     3
 10
1511.263784
 20
873.122791
 11
1497.091703
 21
858.349638
  0
LINE
  8
CSLAYER1
  6
CONTINUOUS
 62
     3
 10
1769.335140
 20
1149.362134
 11
1758.737020
 21
1131.814205
  0
LINE
  8
CSLAYER1
  6
CONTINUOUS
 62
     3
 10
1492.934475
 20
858.349638
 11
1504.252962
 21
870.148168
  0
LINE
  8
CSLAYER1
  6
CONTINUOUS
 62
     3
 10
1504.252962
 20
870.148168
 11
1510.210693
 21
872.747293
  0
LINE
  8
CSLAYER1
  6
CONTINUOUS
 62
     3
 10
1474.011506
 20
913.016622
 11
1938.891539
 21
1397.613309
  0
LINE
  8
CSLAYER1
  6
CONTINUOUS
 62
     3
 10
1510.210693
 20
872.747293
 11
1758.737020
 21
1131.814205
  0
CIRCLE
  8
CSLAYER1
  6
CONTINUOUS
 62
     3
 10
1712.937985
 20
1106.462707
 40
7.500000
  0
ARC
  8
CSLAYER1
  6
CONTINUOUS
 62
     3
 10
1952.695735
 20
1396.113309
 40
5.000000
 50
-197.457603
 51
17.457603
  0
ARC
  8
CSLAYER1
  6
CONTINUOUS
 62
     3
 10
1952.695735
 20
1396.113309
 40
13.000000
 50
-186.625810
 51
6.625810
  0
POINT
  8
CSLAYER1
 62
     3
 10
1952.695735
 20
1396.113309
  0
POINT
  8
CSLAYER1
 62
     3
 10
1712.937985
 20
1106.462707
  0
LINE
  8
CSLAYER1
  6
CONTINUOUS
 62
     3
 10
1769.335140
 20
1149.362134
 11
1945.864983
 21
1333.379022
  0
LINE
  8
CSLAYER1
  6
CONTINUOUS
 62
     3
 10
1945.864983
 20
1333.379022
 11
1961.317103
 21
1386.383355
  0
POINT
  8
CSLAYER1
 62
     3
 10
1453.335276
 20
835.849638
  0
LINE
  8
CSLAYER1
  6
CONTINUOUS
 62
     3
 10
1494.733390
 20
902.838041
 11
1506.279548
 21
891.761658
  0
LINE
  8
CSLAYER1
  6
CONTINUOUS
 62
     3
 10
1518.962976
 20
928.095260
 11
1530.509134
 21
917.018878
  0
LINE
  8
CSLAYER1
  6
CONTINUOUS
 62
     3
 10
1510.521274
 20
891.849741
 11
1530.597217
 21
912.777152
  0
LINE
  8
CSLAYER1
  6
CONTINUOUS
 62
     3
 10
1494.645307
 20
907.079767
 11
1514.721250
 21
928.007178
  0
ARC
  8
CSLAYER1
  6
CONTINUOUS
 62
     3
 10
1496.810212
 20
905.002945
 40
3.000000
 50
136.189622
 51
226.189622
  0
ARC
  8
CSLAYER1
  6
CONTINUOUS
 62
     3
 10
1516.886155
 20
925.930356
 40
3.000000
 50
46.189622
 51
136.189622
  0
ARC
  8
CSLAYER1
  6
CONTINUOUS
 62
     3
 10
1508.356370
 20
893.926563
 40
3.000000
 50
226.189622
 51
316.189622
  0
ARC
  8
CSLAYER1
  6
CONTINUOUS
 62
     3
 10
1528.432312
 20
914.853974
 40
3.000000
 50
-43.810378
 51
46.189622
  0
LINE
  8
CSLAYER1
  6
CONTINUOUS
 62
     3
 10
1474.011506
 20
913.016622
 11
1446.716236
 21
852.745945
  0
ARC
  8
CSLAYER1
  6
CONTINUOUS
 62
     3
 10
1688.424887
 20
1186.184775
 40
17.000000
 50
42.544562
 51
100.895989
  0
LINE
  8
CSLAYER1
  6
CONTINUOUS
 62
     3
 10
1700.949665
 20
1197.679553
 11
1723.510350
 21
1173.097298
  0
ARC
  8
CSLAYER1
  6
CONTINUOUS
 62
     3
 10
1676.157094
 20
1174.416119
 40
30.000000
 50
43.810378
 51
92.000063
  0
LINE
  8
CSLAYER1
  6
CONTINUOUS
 62
     3
 10
1753.459174
 20
1048.333255
 11
1935.712979
 21
858.349638
  0
ARC
  8
CSLAYER1
  6
CONTINUOUS
 62
     3
 10
1972.540694
 20
835.849638
 40
13.000000
 50
62.435886
 51
118.531765
  0
POINT
  8
CSLAYER1
 62
     3
 10
1972.540694
 20
835.849638
  0
LINE
  8
CSLAYER1
  6
CONTINUOUS
 62
     3
 10
1632.525256
 20
1167.895947
 11
1675.522940
 21
1123.074630
  0
LINE
  8
CSLAYER1
  6
CONTINUOUS
 62
     3
 10
1753.459174
 20
1048.333255
 11
1736.366339
 21
1059.650720
  0
LINE
  8
CSLAYER1
  6
CONTINUOUS
 62
     3
 10
1621.927135
 20
1185.443877
 11
1632.525256
 21
1167.895947
  0
LINE
  8
CSLAYER1
  6
CONTINUOUS
 62
     3
 10
1621.927135
 20
1185.443877
 11
1513.883119
 21
1298.070293
  0
LINE
  8
CSLAYER1
  6
CONTINUOUS
 62
     3
 10
1495.341116
 20
1391.791227
 11
1675.110077
 21
1204.397842
  0
LINE
  8
CSLAYER1
  6
CONTINUOUS
 62
     3
 10
1967.153211
 20
899.968473
 11
1978.029948
 21
858.349638
  0
LINE
  8
CSLAYER1
  6
CONTINUOUS
 62
     3
 10
1697.806140
 20
1195.184335
 11
1721.252439
 21
1170.743624
  0
ARC
  8
CSLAYER1
  6
CONTINUOUS
 62
     3
 10
1712.937985
 20
1106.462707
 40
50.500000
 50
7.129993
 51
28.315266
  0
LINE
  8
CSLAYER1
  6
CONTINUOUS
 62
     3
 10
1763.047473
 20
1112.730814
 11
1967.153211
 21
899.968473
  0
LINE
  8
CSLAYER1
  6
CONTINUOUS
 62
     3
 10
1505.314540
 20
1325.780981
 11
1464.600846
 21
1385.613309
  0
LINE
  8
CSLAYER1
  6
CONTINUOUS
 62
     3
 10
1505.314540
 20
1325.780981
 11
1508.669189
 21
1308.172770
  0
ARC
  8
CSLAYER1
  6
CONTINUOUS
 62
     3
 10
1528.315816
 20
1311.915771
 40
20.000000
 50
190.786510
 51
223.810378
  0
LINE
  8
CSLAYER1
  6
CONTINUOUS
 62
     3
 10
1712.937985
 20
1084.072725
 11
1736.366339
 21
1059.650720
  0
LINE
  8
CSLAYER1
  6
CONTINUOUS
 62
     3
 10
1576.046406
 20
1060.819162
 11
1600.730660
 21
1045.110233
  0
LINE
  8
CSLAYER1
  6
CENTER
 62
     6
 10
1952.695735
 20
1411.175098
 11
1952.695735
 21
1380.983112
  0
LINE
  8
CSLAYER1
  6
CENTER
 62
     6
 10
1937.332149
 20
1396.113309
 11
1968.681655
 21
1396.113309
  0
ARC
  8
CSLAYER1
  6
CONTINUOUS
 62
     3
 10
1952.695735
 20
1396.113309
 40
13.000000
 50
30.558220
 51
60.792798
  0
ARC
  8
CSLAYER1
  6
CONTINUOUS
 62
     3
 10
1952.695735
 20
1396.113309
 40
13.000000
 50
78.150466
 51
117.215867
  0
ARC
  8
CSLAYER1
  6
CONTINUOUS
 62
     3
 10
1952.695735
 20
1396.113309
 40
13.000000
 50
129.904453
 51
154.186413
  0
POINT
  8
CSLAYER1
 62
     4
 10
1453.335276
 20
835.849638
  0
CIRCLE
  8
CSLAYER1
  6
CONTINUOUS
 62
     3
 10
1453.335276
 20
835.849638
 40
9.500000
  0
LINE
  8
CSLAYER1
  6
CONTINUOUS
 62
     3
 10
1462.835276
 20
841.334465
 11
1453.335276
 21
846.819293
  0
LINE
  8
CSLAYER1
  6
CONTINUOUS
 62
     3
 10
1453.335276
 20
846.819293
 11
1443.835276
 21
841.334465
  0
LINE
  8
CSLAYER1
  6
CONTINUOUS
 62
     3
 10
1443.835276
 20
841.334465
 11
1443.835276
 21
830.364810
  0
LINE
  8
CSLAYER1
  6
CONTINUOUS
 62
     3
 10
1443.835276
 20
830.364810
 11
1453.335276
 21
824.879983
  0
LINE
  8
CSLAYER1
  6
CONTINUOUS
 62
     3
 10
1453.335276
 20
824.879983
 11
1462.835276
 21
830.364810
  0
LINE
  8
CSLAYER1
  6
CONTINUOUS
 62
     3
 10
1462.835276
 20
830.364810
 11
1462.835276
 21
841.334465
  0
LINE
  8
CSLAYER1
  6
CENTER
 62
     6
 10
1954.803165
 20
835.849638
 11
1991.799367
 21
835.849638
  0
LINE
  8
CSLAYER1
  6
CENTER
 62
     6
 10
1972.540694
 20
854.342855
 11
1972.540694
 21
819.880639
  0
ARC
  8
CSLAYER1
  6
CONTINUOUS
 62
     3
 10
1972.540694
 20
835.849638
 40
13.000000
 50
-30.596977
 51
29.035047
  0
ARC
  8
CSLAYER1
  6
CONTINUOUS
 62
     3
 10
1972.540694
 20
835.849638
 40
13.000000
 50
239.433195
 51
304.891780
  0
ARC
  8
CSLAYER1
  6
CONTINUOUS
 62
     3
 10
1972.540694
 20
835.849638
 40
13.000000
 50
145.113852
 51
207.530823
  0
LINE
  8
CSLAYER1
  6
CENTER
 62
     5
 10
842.926450
 20
1469.586588
 11
842.926450
 21
818.349638
  0
LINE
  8
CSLAYER1
  6
CENTER
 62
     5
 10
933.926450
 20
1396.113309
 11
751.926450
 21
1396.113309
  0
LINE
  8
CSLAYER1
  6
CONTINUOUS
 62
     2
 10
897.926450
 20
1399.913309
 11
897.926450
 21
1355.613309
  0
LINE
  8
CSLAYER1
  6
CONTINUOUS
 62
     3
 10
898.926450
 20
1387.463309
 11
897.926450
 21
1387.463309
  0
LINE
  8
CSLAYER1
  6
CONTINUOUS
 62
     3
 10
899.926450
 20
1399.913309
 11
899.926450
 21
1388.463309
  0
LINE
  8
CSLAYER1
  6
CONTINUOUS
 62
     3
 10
899.926450
 20
1388.463309
 11
898.926450
 21
1387.463309
  0
LINE
  8
CSLAYER1
  6
CONTINUOUS
 62
     3
 10
898.926450
 20
1399.913309
 11
898.926450
 21
1387.463309
  0
LINE
  8
CSLAYER1
  6
CONTINUOUS
 62
     3
 10
888.926450
 20
1387.463309
 11
796.926450
 21
1387.463309
  0
LINE
  8
CSLAYER1
  6
CONTINUOUS
 62
     3
 10
900.426450
 20
1385.613309
 11
906.426450
 21
1385.613309
  0
INSERT
  8
CSLAYER1
  2
BLKF0002
 10
0.0
 20
0.0
 30
0.0
  0
LINE
  8
CSLAYER1
  6
CONTINUOUS
 62
     3
 10
906.426450
 20
1399.913309
 11
906.426450
 21
1385.363309
  0
LINE
  8
CSLAYER1
  6
CONTINUOUS
 62
     3
 10
900.426450
 20
1399.913309
 11
900.426450
 21
1385.613309
  0
LINE
  8
CSLAYER1
  6
CONTINUOUS
 62
     3
 10
939.926450
 20
1399.913309
 11
939.926450
 21
1397.613309
  0
LINE
  8
CSLAYER1
  6
CONTINUOUS
 62
     3
 10
939.926450
 20
1397.613309
 11
935.426450
 21
1397.613309
  0
LINE
  8
CSLAYER1
  6
CONTINUOUS
 62
     3
 10
935.426450
 20
1399.913309
 11
935.426450
 21
1397.613309
  0
LINE
  8
CSLAYER1
  6
CONTINUOUS
 62
     3
 10
942.926450
 20
1429.913309
 11
742.926450
 21
1429.913309
  0
LINE
  8
CSLAYER1
  6
CONTINUOUS
 62
     3
 10
942.926450
 20
1399.913309
 11
742.926450
 21
1399.913309
  0
LINE
  8
CSLAYER1
  6
CONTINUOUS
 62
     3
 10
888.926450
 20
858.349638
 11
888.926450
 21
1399.913309
  0
LINE
  8
CSLAYER1
  6
CONTINUOUS
 62
     3
 10
900.926450
 20
858.349638
 11
900.926450
 21
1385.613309
  0
LINE
  8
CSLAYER1
  6
CONTINUOUS
 62
     3
 10
897.926450
 20
858.349638
 11
897.926450
 21
1399.913309
  0
LINE
  8
CSLAYER1
  6
CONTINUOUS
 62
     3
 10
909.926450
 20
858.349638
 11
909.926450
 21
1385.143654
  0
LINE
  8
CSLAYER1
  6
CONTINUOUS
 62
     1
 10
920.426450
 20
824.879983
 11
920.426450
 21
846.819293
  0
LINE
  8
CSLAYER1
  6
CONTINUOUS
 62
     1
 10
917.426450
 20
846.599638
 11
920.426450
 21
846.599638
  0
LINE
  8
CSLAYER1
  6
CONTINUOUS
 62
     1
 10
917.426450
 20
825.099638
 11
920.426450
 21
825.099638
  0
LINE
  8
CSLAYER1
  6
CONTINUOUS
 62
     1
 10
917.426450
 20
834.337441
 11
920.426450
 21
837.837441
  0
LINE
  8
CSLAYER1
  6
CONTINUOUS
 62
     1
 10
928.426450
 20
844.849638
 11
928.426450
 21
826.849638
  0
LINE
  8
CSLAYER1
  6
CONTINUOUS
 62
     1
 10
920.426450
 20
841.334465
 11
927.289269
 21
841.334465
  0
LINE
  8
CSLAYER1
  6
CONTINUOUS
 62
     1
 10
920.426450
 20
846.819293
 11
927.289269
 21
846.819293
  0
LINE
  8
CSLAYER1
  6
CONTINUOUS
 62
     1
 10
928.426450
 20
844.849638
 11
927.289269
 21
846.819293
  0
ARC
  8
CSLAYER1
  6
CONTINUOUS
 62
     1
 10
924.646405
 20
844.076879
 40
3.808617
 50
313.940972
 51
354.338367
  0
ARC
  8
CSLAYER1
  6
CONTINUOUS
 62
     1
 10
914.630706
 20
835.849638
 40
13.795744
 50
-23.426598
 51
23.426598
  0
LINE
  8
CSLAYER1
  6
CONTINUOUS
 62
     1
 10
920.426450
 20
830.364810
 11
927.289269
 21
830.364810
  0
LINE
  8
CSLAYER1
  6
CONTINUOUS
 62
     1
 10
920.426450
 20
824.879983
 11
927.289269
 21
824.879983
  0
LINE
  8
CSLAYER1
  6
CONTINUOUS
 62
     1
 10
928.426450
 20
826.849638
 11
927.289269
 21
824.879983
  0
ARC
  8
CSLAYER1
  6
CONTINUOUS
 62
     1
 10
924.646405
 20
827.622396
 40
3.808617
 50
5.661633
 51
46.059028
  0
LINE
  8
CSLAYER1
  6
CONTINUOUS
 62
     3
 10
921.926450
 20
1399.913309
 11
921.926450
 21
1383.113309
  0
LINE
  8
CSLAYER1
  6
CONTINUOUS
 62
     3
 10
913.926450
 20
1385.143654
 11
913.926450
 21
1383.113309
  0
LINE
  8
CSLAYER1
  6
CONTINUOUS
 62
     3
 10
929.926450
 20
1399.913309
 11
929.926450
 21
1383.113309
  0
LINE
  8
CSLAYER1
  6
CONTINUOUS
 62
     3
 10
930.926450
 20
1399.913309
 11
930.926450
 21
1388.113309
  0
LINE
  8
CSLAYER1
  6
CONTINUOUS
 62
     3
 10
932.926450
 20
1399.913309
 11
932.926450
 21
1391.613309
  0
LINE
  8
CSLAYER1
  6
CONTINUOUS
 62
     3
 10
932.426450
 20
1391.113309
 11
930.926450
 21
1391.113309
  0
LINE
  8
CSLAYER1
  6
CONTINUOUS
 62
     3
 10
930.926450
 20
1388.113309
 11
929.926450
 21
1388.113309
  0
LINE
  8
CSLAYER1
  6
CONTINUOUS
 62
     3
 10
932.426450
 20
1391.113309
 11
932.926450
 21
1391.613309
  0
LINE
  8
CSLAYER1
  6
CONTINUOUS
 62
     3
 10
929.926450
 20
1383.113309
 11
913.926450
 21
1383.113309
  0
LINE
  8
CSLAYER1
  6
CENTER
 62
     6
 10
817.926450
 20
1186.184775
 11
897.926450
 21
1186.184775
  0
LINE
  8
CSLAYER1
  6
CENTER
 62
     6
 10
796.926450
 20
1138.006079
 11
888.926450
 21
1138.006079
  0
LINE
  8
CSLAYER1
  6
CENTER
 62
     6
 10
763.426450
 20
1106.462707
 11
922.426450
 21
1106.462707
  0
LINE
  8
CSLAYER1
  6
CENTER
 62
     6
 10
824.426450
 20
903.477787
 11
882.426450
 21
903.477787
  0
LINE
  8
CSLAYER1
  6
CONTINUOUS
 62
     3
 10
817.926450
 20
1203.184775
 11
829.926450
 21
1203.184775
  0
LINE
  8
CSLAYER1
  6
CONTINUOUS
 62
     3
 10
817.926450
 20
1131.794873
 11
829.926450
 21
1131.794873
  0
LINE
  8
CSLAYER1
  6
CONTINUOUS
 62
     3
 10
796.926450
 20
1162.306079
 11
817.926450
 21
1162.306079
  0
LINE
  8
CSLAYER1
  6
CONTINUOUS
 62
     3
 10
796.926450
 20
1113.962707
 11
835.426450
 21
1113.962707
  0
LINE
  8
CSLAYER1
  6
CONTINUOUS
 62
     3
 10
796.926450
 20
1098.962707
 11
835.426450
 21
1098.962707
  0
LINE
  8
CSLAYER1
  6
CONTINUOUS
 62
     3
 10
824.426450
 20
868.235123
 11
830.426450
 21
868.235123
  0
LINE
  8
CSLAYER1
  6
CONTINUOUS
 62
     3
 10
796.926450
 20
886.275995
 11
809.276450
 21
886.275995
  0
LINE
  8
CSLAYER1
  6
CONTINUOUS
 62
     3
 10
824.426450
 20
919.477787
 11
830.426450
 21
919.477787
  0
LINE
  8
CSLAYER1
  6
CONTINUOUS
 62
     3
 10
882.426450
 20
868.235123
 11
882.426450
 21
919.477787
  0
LINE
  8
CSLAYER1
  6
CONTINUOUS
 62
     3
 10
876.426450
 20
868.235123
 11
876.426450
 21
919.477787
  0
LINE
  8
CSLAYER1
  6
CONTINUOUS
 62
     3
 10
830.426450
 20
868.235123
 11
830.426450
 21
919.477787
  0
LINE
  8
CSLAYER1
  6
CONTINUOUS
 62
     3
 10
824.426450
 20
868.235123
 11
824.426450
 21
919.477787
  0
LINE
  8
CSLAYER1
  6
CONTINUOUS
 62
     3
 10
876.426450
 20
919.477787
 11
882.426450
 21
919.477787
  0
LINE
  8
CSLAYER1
  6
CONTINUOUS
 62
     3
 10
876.426450
 20
868.235123
 11
882.426450
 21
868.235123
  0
LINE
  8
CSLAYER1
  6
CONTINUOUS
 62
     3
 10
897.926450
 20
886.275995
 11
900.926450
 21
886.275995
  0
LINE
  8
CSLAYER1
  6
CONTINUOUS
 62
     3
 10
882.426450
 20
886.275995
 11
888.926450
 21
886.275995
  0
LINE
  8
CSLAYER1
  6
CONTINUOUS
 62
     3
 10
830.426450
 20
886.275995
 11
876.426450
 21
886.275995
  0
LINE
  8
CSLAYER1
  6
CONTINUOUS
 62
     3
 10
817.926450
 20
1131.794873
 11
817.926450
 21
1203.184775
  0
LINE
  8
CSLAYER1
  6
CONTINUOUS
 62
     3
 10
829.926450
 20
1131.794873
 11
829.926450
 21
1203.184775
  0
LINE
  8
CSLAYER1
  6
CONTINUOUS
 62
     3
 10
876.926450
 20
1131.794873
 11
876.926450
 21
1203.184775
  0
LINE
  8
CSLAYER1
  6
CONTINUOUS
 62
     3
 10
876.926450
 20
1131.794873
 11
888.926450
 21
1131.794873
  0
LINE
  8
CSLAYER1
  6
CONTINUOUS
 62
     3
 10
829.926450
 20
1162.306079
 11
835.426450
 21
1162.306079
  0
LINE
  8
CSLAYER1
  6
CONTINUOUS
 62
     3
 10
876.926450
 20
1203.184775
 11
888.926450
 21
1203.184775
  0
LINE
  8
CSLAYER1
  6
CONTINUOUS
 62
     3
 10
921.426450
 20
1111.462707
 11
920.926450
 21
1111.462707
  0
LINE
  8
CSLAYER1
  6
CONTINUOUS
 62
     3
 10
909.926450
 20
1097.962707
 11
910.426450
 21
1097.962707
  0
LINE
  8
CSLAYER1
  6
CONTINUOUS
 62
     3
 10
909.926450
 20
1114.962707
 11
910.426450
 21
1114.962707
  0
LINE
  8
CSLAYER1
  6
CONTINUOUS
 62
     3
 10
910.426450
 20
1095.962707
 11
910.426450
 21
1116.962707
  0
LINE
  8
CSLAYER1
  6
CONTINUOUS
 62
     3
 10
922.426450
 20
1110.462707
 11
922.426450
 21
1102.462707
  0
LINE
  8
CSLAYER1
  6
CONTINUOUS
 62
     3
 10
900.926450
 20
1092.462707
 11
897.926450
 21
1092.462707
  0
LINE
  8
CSLAYER1
  6
CONTINUOUS
 62
     3
 10
900.926450
 20
1120.462707
 11
897.926450
 21
1120.462707
  0
LINE
  8
CSLAYER1
  6
CONTINUOUS
 62
     3
 10
912.426450
 20
1095.962707
 11
912.426450
 21
1116.962707
  0
LINE
  8
CSLAYER1
  6
CONTINUOUS
 62
     3
 10
914.926450
 20
1097.262707
 11
914.926450
 21
1115.662707
  0
LINE
  8
CSLAYER1
  6
CONTINUOUS
 62
     3
 10
914.926450
 20
1115.662707
 11
912.426450
 21
1115.662707
  0
LINE
  8
CSLAYER1
  6
CONTINUOUS
 62
     3
 10
912.426450
 20
1116.962707
 11
910.426450
 21
1116.962707
  0
LINE
  8
CSLAYER1
  6
CONTINUOUS
 62
     3
 10
914.926450
 20
1097.262707
 11
912.426450
 21
1097.262707
  0
LINE
  8
CSLAYER1
  6
CONTINUOUS
 62
     3
 10
912.426450
 20
1095.962707
 11
910.426450
 21
1095.962707
  0
LINE
  8
CSLAYER1
  6
CONTINUOUS
 62
     3
 10
920.926450
 20
1097.962707
 11
920.926450
 21
1114.962707
  0
LINE
  8
CSLAYER1
  6
CONTINUOUS
 62
     3
 10
921.426450
 20
1111.462707
 11
922.426450
 21
1110.462707
  0
LINE
  8
CSLAYER1
  6
CONTINUOUS
 62
     3
 10
922.126450
 20
1110.762707
 11
920.926450
 21
1110.762707
  0
LINE
  8
CSLAYER1
  6
CONTINUOUS
 62
     3
 10
921.426450
 20
1111.462707
 11
921.426450
 21
1101.462707
  0
LINE
  8
CSLAYER1
  6
CONTINUOUS
 62
     3
 10
920.167260
 20
1116.277662
 11
915.685639
 21
1116.277662
  0
LINE
  8
CSLAYER1
  6
CONTINUOUS
 62
     3
 10
920.167260
 20
1111.370185
 11
915.685639
 21
1111.370185
  0
LINE
  8
CSLAYER1
  6
CONTINUOUS
 62
     3
 10
920.926450
 20
1114.962707
 11
920.167260
 21
1116.277662
  0
ARC
  8
CSLAYER1
  6
CONTINUOUS
 62
     3
 10
904.685639
 20
1106.462707
 40
16.240811
 50
-17.587954
 51
17.587954
  0
ARC
  8
CSLAYER1
  6
CONTINUOUS
 62
     3
 10
916.585525
 20
1113.823923
 40
4.341619
 50
-34.413868
 51
27.480777
  0
LINE
  8
CSLAYER1
  6
CONTINUOUS
 62
     3
 10
920.926450
 20
1097.962707
 11
920.167260
 21
1096.647753
  0
ARC
  8
CSLAYER1
  6
CONTINUOUS
 62
     3
 10
916.585525
 20
1099.101492
 40
4.341619
 50
-27.480777
 51
34.413868
  0
LINE
  8
CSLAYER1
  6
CONTINUOUS
 62
     3
 10
914.926450
 20
1114.962707
 11
915.685639
 21
1116.277662
  0
ARC
  8
CSLAYER1
  6
CONTINUOUS
 62
     3
 10
931.167260
 20
1106.462707
 40
16.240811
 50
162.412046
 51
197.587954
  0
ARC
  8
CSLAYER1
  6
CONTINUOUS
 62
     3
 10
919.267374
 20
1113.823923
 40
4.341619
 50
152.519223
 51
214.413868
  0
LINE
  8
CSLAYER1
  6
CONTINUOUS
 62
     3
 10
914.926450
 20
1097.962707
 11
915.685639
 21
1096.647753
  0
ARC
  8
CSLAYER1
  6
CONTINUOUS
 62
     3
 10
919.267374
 20
1099.101492
 40
4.341619
 50
145.586132
 51
207.480777
  0
LINE
  8
CSLAYER1
  6
CONTINUOUS
 62
     3
 10
920.167260
 20
1096.647753
 11
915.685639
 21
1096.647753
  0
LINE
  8
CSLAYER1
  6
CONTINUOUS
 62
     3
 10
920.167260
 20
1101.555230
 11
915.685639
 21
1101.555230
  0
LINE
  8
CSLAYER1
  6
CONTINUOUS
 62
     3
 10
921.426450
 20
1101.462707
 11
920.926450
 21
1101.462707
  0
LINE
  8
CSLAYER1
  6
CONTINUOUS
 62
     3
 10
921.426450
 20
1101.462707
 11
922.426450
 21
1102.462707
  0
LINE
  8
CSLAYER1
  6
CONTINUOUS
 62
     3
 10
922.126450
 20
1102.162707
 11
920.926450
 21
1102.162707
  0
LINE
  8
CSLAYER1
  6
CONTINUOUS
 62
     3
 10
912.426450
 20
1104.561260
 11
914.926450
 21
1107.930825
  0
LINE
  8
CSLAYER1
  6
CONTINUOUS
 62
     3
 10
764.426450
 20
1111.462707
 11
764.926450
 21
1111.462707
  0
LINE
  8
CSLAYER1
  6
CONTINUOUS
 62
     3
 10
775.926450
 20
1097.962707
 11
775.426450
 21
1097.962707
  0
LINE
  8
CSLAYER1
  6
CONTINUOUS
 62
     3
 10
775.926450
 20
1114.962707
 11
775.426450
 21
1114.962707
  0
LINE
  8
CSLAYER1
  6
CONTINUOUS
 62
     3
 10
775.426450
 20
1095.962707
 11
775.426450
 21
1116.962707
  0
LINE
  8
CSLAYER1
  6
CONTINUOUS
 62
     3
 10
763.426450
 20
1110.462707
 11
763.426450
 21
1102.462707
  0
LINE
  8
CSLAYER1
  6
CONTINUOUS
 62
     3
 10
784.926450
 20
1092.462707
 11
787.926450
 21
1092.462707
  0
LINE
  8
CSLAYER1
  6
CONTINUOUS
 62
     3
 10
784.926450
 20
1120.462707
 11
787.926450
 21
1120.462707
  0
LINE
  8
CSLAYER1
  6
CONTINUOUS
 62
     3
 10
773.426450
 20
1095.962707
 11
773.426450
 21
1116.962707
  0
LINE
  8
CSLAYER1
  6
CONTINUOUS
 62
     3
 10
770.926450
 20
1097.262707
 11
770.926450
 21
1115.662707
  0
LINE
  8
CSLAYER1
  6
CONTINUOUS
 62
     3
 10
770.926450
 20
1115.662707
 11
773.426450
 21
1115.662707
  0
LINE
  8
CSLAYER1
  6
CONTINUOUS
 62
     3
 10
773.426450
 20
1116.962707
 11
775.426450
 21
1116.962707
  0
LINE
  8
CSLAYER1
  6
CONTINUOUS
 62
     3
 10
770.926450
 20
1097.262707
 11
773.426450
 21
1097.262707
  0
LINE
  8
CSLAYER1
  6
CONTINUOUS
 62
     3
 10
773.426450
 20
1095.962707
 11
775.426450
 21
1095.962707
  0
LINE
  8
CSLAYER1
  6
CONTINUOUS
 62
     3
 10
764.926450
 20
1097.962707
 11
764.926450
 21
1114.962707
  0
LINE
  8
CSLAYER1
  6
CONTINUOUS
 62
     3
 10
764.426450
 20
1111.462707
 11
763.426450
 21
1110.462707
  0
LINE
  8
CSLAYER1
  6
CONTINUOUS
 62
     3
 10
763.726450
 20
1110.762707
 11
764.926450
 21
1110.762707
  0
LINE
  8
CSLAYER1
  6
CONTINUOUS
 62
     3
 10
764.426450
 20
1111.462707
 11
764.426450
 21
1101.462707
  0
LINE
  8
CSLAYER1
  6
CONTINUOUS
 62
     3
 10
765.685639
 20
1116.277662
 11
770.167260
 21
1116.277662
  0
LINE
  8
CSLAYER1
  6
CONTINUOUS
 62
     3
 10
765.685639
 20
1111.370185
 11
770.167260
 21
1111.370185
  0
LINE
  8
CSLAYER1
  6
CONTINUOUS
 62
     3
 10
764.926450
 20
1114.962707
 11
765.685639
 21
1116.277662
  0
ARC
  8
CSLAYER1
  6
CONTINUOUS
 62
     3
 10
781.167260
 20
1106.462707
 40
16.240811
 50
162.412046
 51
197.587954
  0
ARC
  8
CSLAYER1
  6
CONTINUOUS
 62
     3
 10
769.267374
 20
1113.823923
 40
4.341619
 50
152.519223
 51
214.413868
  0
LINE
  8
CSLAYER1
  6
CONTINUOUS
 62
     3
 10
764.926450
 20
1097.962707
 11
765.685639
 21
1096.647753
  0
ARC
  8
CSLAYER1
  6
CONTINUOUS
 62
     3
 10
769.267374
 20
1099.101492
 40
4.341619
 50
145.586132
 51
207.480777
  0
LINE
  8
CSLAYER1
  6
CONTINUOUS
 62
     3
 10
770.926450
 20
1114.962707
 11
770.167260
 21
1116.277662
  0
ARC
  8
CSLAYER1
  6
CONTINUOUS
 62
     3
 10
754.685639
 20
1106.462707
 40
16.240811
 50
-17.587954
 51
17.587954
  0
ARC
  8
CSLAYER1
  6
CONTINUOUS
 62
     3
 10
766.585525
 20
1113.823923
 40
4.341619
 50
-34.413868
 51
27.480777
  0
LINE
  8
CSLAYER1
  6
CONTINUOUS
 62
     3
 10
770.926450
 20
1097.962707
 11
770.167260
 21
1096.647753
  0
ARC
  8
CSLAYER1
  6
CONTINUOUS
 62
     3
 10
766.585525
 20
1099.101492
 40
4.341619
 50
-27.480777
 51
34.413868
  0
LINE
  8
CSLAYER1
  6
CONTINUOUS
 62
     3
 10
765.685639
 20
1096.647753
 11
770.167260
 21
1096.647753
  0
LINE
  8
CSLAYER1
  6
CONTINUOUS
 62
     3
 10
765.685639
 20
1101.555230
 11
770.167260
 21
1101.555230
  0
LINE
  8
CSLAYER1
  6
CONTINUOUS
 62
     3
 10
764.426450
 20
1101.462707
 11
764.926450
 21
1101.462707
  0
LINE
  8
CSLAYER1
  6
CONTINUOUS
 62
     3
 10
764.426450
 20
1101.462707
 11
763.426450
 21
1102.462707
  0
LINE
  8
CSLAYER1
  6
CONTINUOUS
 62
     3
 10
763.726450
 20
1102.162707
 11
764.926450
 21
1102.162707
  0
LINE
  8
CSLAYER1
  6
CONTINUOUS
 62
     3
 10
773.426450
 20
1104.561260
 11
770.926450
 21
1107.930825
  0
LINE
  8
CSLAYER1
  6
CONTINUOUS
 62
     3
 10
775.926450
 20
858.349638
 11
775.926450
 21
1385.143654
  0
LINE
  8
CSLAYER1
  6
CONTINUOUS
 62
     3
 10
784.926450
 20
858.349638
 11
784.926450
 21
1385.613309
  0
LINE
  8
CSLAYER1
  6
CONTINUOUS
 62
     3
 10
787.926450
 20
858.349638
 11
787.926450
 21
1399.913309
  0
LINE
  8
CSLAYER1
  6
CONTINUOUS
 62
     3
 10
796.926450
 20
858.349638
 11
796.926450
 21
1399.913309
  0
LINE
  8
CSLAYER1
  6
CONTINUOUS
 62
     3
 10
787.926450
 20
886.275995
 11
784.926450
 21
886.275995
  0
INSERT
  8
CSLAYER1
  2
BLKF0003
 10
0.0
 20
0.0
 30
0.0
  0
LINE
  8
CSLAYER1
  6
CONTINUOUS
 62
     3
 10
871.426450
 20
1162.306079
 11
876.926450
 21
1162.306079
  0
LINE
  8
CSLAYER1
  6
CONTINUOUS
 62
     3
 10
871.426450
 20
1113.962707
 11
888.926450
 21
1113.962707
  0
LINE
  8
CSLAYER1
  6
CONTINUOUS
 62
     3
 10
871.426450
 20
1098.962707
 11
888.926450
 21
1098.962707
  0
LINE
  8
CSLAYER1
  6
CONTINUOUS
 62
     3
 10
817.576450
 20
886.275995
 11
824.426450
 21
886.275995
  0
LINE
  8
CSLAYER1
  6
CENTER
 62
     6
 10
1516.744972
 20
898.238152
 11
1499.555567
 21
909.177397
  0
LINE
  8
CSLAYER1
  6
CENTER
 62
     6
 10
853.426450
 20
886.275995
 11
853.426450
 21
1199.784775
  0
CIRCLE
  8
CSLAYER1
  6
CONTINUOUS
 62
     3
 10
812.926450
 20
829.999638
 40
4.150000
  0
LINE
  8
CSLAYER1
  6
CONTINUOUS
 62
     3
 10
1288.540620
 20
836.999638
 11
1428.335276
 21
836.999638
  0
LINE
  8
CSLAYER1
  6
CENTER
 62
     5
 10
1288.540620
 20
832.849638
 11
1428.335276
 21
832.849638
  0
LINE
  8
CSLAYER1
  6
CONTINUOUS
 62
     3
 10
1288.540620
 20
828.699638
 11
1428.335276
 21
828.699638
  0
DIMENSION
  8
CSLAYER1
 62
     3
  2
*D0000
 10
2445.044430
 20
1429.913309
 11
2437.044434
 21
1124.131470
 13
2251.335276
 23
818.349638
 14
2270.880234
 24
1429.913309
 50
90.000000
  0
DIMENSION
  8
CSLAYER1
 62
     3
  2
*D0001
 10
1450.880234
 20
1272.189010
 11
1252.551514
 21
1283.933594
 13
1431.035276
 23
888.349638
 14
1450.880234
 24
1409.913309
  0
INSERT
  8
CSLAYER1
  2
EASYDRAWDIM0000
 10
0.0
 20
0.0
 30
0.0
  0
INSERT
  8
CSLAYER1
  2
EASYDRAWDIM0001
 10
0.0
 20
0.0
 30
0.0
  0
INSERT
  8
CSLAYER1
  2
EASYDRAWDIM0002
 10
0.0
 20
0.0
 30
0.0
  0
LINE
  8
CSLAYER1
  6
CONTINUOUS
 62
     6
 10
1567.615519
 20
1047.571272
 11
1338.217023
 21
1190.360131
  0
LINE
  8
CSLAYER1
  6
CONTINUOUS
 62
     6
 10
1567.615519
 20
1047.571272
 11
1538.911135
 21
1056.292416
  0
LINE
  8
CSLAYER1
  6
CONTINUOUS
 62
     6
 10
1567.615519
 20
1047.571272
 11
1547.117366
 21
1069.476196
  0
DIMENSION
  8
CSLAYER1
 62
     3
  2
*D0002
 10
1078.020240
 20
824.349638
 11
1070.020264
 21
868.569641
 13
990.926450
 23
818.349638
 14
990.926450
 24
824.349638
 50
90.000000
 70
1
  0
DIMENSION
  8
CSLAYER1
 62
     3
  2
*D0003
 10
967.926450
 20
743.518069
 11
842.926453
 21
751.518066
 13
717.926450
 23
820.349638
 14
967.926450
 24
820.349638
 52
270.000000
 70
1
  0
DIMENSION
  8
CSLAYER1
 62
     3
  2
*D0004
 10
992.926450
 20
674.144612
 11
842.926453
 21
682.144653
 13
692.926450
 23
820.349638
 14
992.926450
 24
820.349638
 52
270.000000
 70
1
  0
DIMENSION
  8
CSLAYER1
 62
     3
  2
*D0005
 10
1453.335276
 20
743.518069
 11
1463.427979
 21
727.949951
 13
1428.335276
 23
664.813821
 14
1453.335276
 24
837.849638
  0
LINE
  8
CSLAYER1
  6
CONTINUOUS
 62
     6
 10
967.926450
 20
818.349638
 11
1063.834096
 21
735.447901
  0
LINE
  8
CSLAYER1
  6
CONTINUOUS
 62
     6
 10
967.926450
 20
818.349638
 11
994.926925
 21
805.273922
  0
LINE
  8
CSLAYER1
  6
CONTINUOUS
 62
     6
 10
967.926450
 20
818.349638
 11
984.771689
 21
793.525498
  0
LINE
  8
CSLAYER1
  6
CONTINUOUS
 62
     6
 10
1453.335276
 20
818.349638
 11
1349.430759
 21
735.447901
  0
LINE
  8
CSLAYER1
  6
CONTINUOUS
 62
     6
 10
1453.335276
 20
818.349638
 11
1435.526442
 21
794.207446
  0
LINE
  8
CSLAYER1
  6
CONTINUOUS
 62
     6
 10
1453.335276
 20
818.349638
 11
1425.841277
 21
806.346303
  0
LINE
  8
CSLAYER1
  6
CENTER
 62
     6
 10
1673.861823
 20
1186.184775
 11
1702.802708
 21
1186.184775
  0
LINE
  8
CSLAYER1
  6
CENTER
 62
     6
 10
1688.424887
 20
1198.002234
 11
1688.424887
 21
1169.803422
  0
LINE
  8
CSLAYER1
  6
CENTER
 62
     6
 10
1698.374920
 20
1106.462707
 11
1727.315806
 21
1106.462707
  0
LINE
  8
CSLAYER1
  6
CENTER
 62
     6
 10
1712.937985
 20
1118.280166
 11
1712.937985
 21
1090.081355
  0
LINE
  8
CSLAYER1
  6
CONTINUOUS
 62
     3
 10
1428.335276
 20
2012.143512
 11
1428.335276
 21
1846.293512
  0
LINE
  8
CSLAYER1
  6
CENTER
 62
     6
 10
1394.614779
 20
1986.293512
 11
2231.035276
 21
1986.293512
  0
LINE
  8
CSLAYER1
  6
CONTINUOUS
 62
     3
 10
1478.335276
 20
1846.293512
 11
1478.335276
 21
1886.293512
  0
LINE
  8
CSLAYER1
  6
CONTINUOUS
 62
     3
 10
1438.335276
 20
1836.293512
 11
1468.335276
 21
1836.293512
  0
INSERT
  8
CSLAYER1
  2
BLKF0004
 10
0.0
 20
0.0
 30
0.0
  0
ARC
  8
CSLAYER1
  6
CONTINUOUS
 62
     3
 10
1438.335276
 20
1846.293512
 40
10.000000
 50
180.000000
 51
270.000000
  0
ARC
  8
CSLAYER1
  6
CONTINUOUS
 62
     3
 10
1468.335276
 20
1846.293512
 40
10.000000
 50
270.000000
 51
360.000000
  0
LINE
  8
CSLAYER1
  6
CENTER
 62
     5
 10
1203.939116
 20
2016.293512
 11
1431.335276
 21
2016.293512
  0
LINE
  8
CSLAYER1
  6
CONTINUOUS
 62
     3
 10
1203.939116
 20
2020.443512
 11
1431.035276
 21
2020.443512
  0
LINE
  8
CSLAYER1
  6
CONTINUOUS
 62
     3
 10
1203.939116
 20
2012.143512
 11
1431.035276
 21
2012.143512
  0
LINE
  8
CSLAYER1
  6
CONTINUOUS
 62
     3
 10
1428.335276
 20
2020.443512
 11
1428.335276
 21
2126.293512
  0
LINE
  8
CSLAYER1
  6
CONTINUOUS
 62
     3
 10
1478.335276
 20
2126.293512
 11
1478.335276
 21
2086.293512
  0
LINE
  8
CSLAYER1
  6
CONTINUOUS
 62
     3
 10
1438.335276
 20
2136.293512
 11
1468.335276
 21
2136.293512
  0
INSERT
  8
CSLAYER1
  2
BLKF0005
 10
0.0
 20
0.0
 30
0.0
  0
ARC
  8
CSLAYER1
  6
CONTINUOUS
 62
     3
 10
1438.335276
 20
2126.293512
 40
10.000000
 50
90.000000
 51
180.000000
  0
ARC
  8
CSLAYER1
  6
CONTINUOUS
 62
     3
 10
1468.335276
 20
2126.293512
 40
10.000000
 50
0.000000
 51
90.000000
  0
LINE
  8
CSLAYER1
  6
CONTINUOUS
 62
     3
 10
1431.035276
 20
2086.293512
 11
1431.035276
 21
1886.293512
  0
LINE
  8
CSLAYER1
  6
CONTINUOUS
 62
     3
 10
1431.035276
 20
2086.293512
 11
2231.035276
 21
2086.293512
  0
LINE
  8
CSLAYER1
  6
CONTINUOUS
 62
     3
 10
1431.035276
 20
1886.293512
 11
2231.035276
 21
1886.293512
  0
CIRCLE
  8
CSLAYER1
  6
CONTINUOUS
 62
     3
 10
1453.335276
 20
2111.293512
 40
6.500000
  0
CIRCLE
  8
CSLAYER1
  6
CONTINUOUS
 62
     3
 10
1453.335276
 20
1861.293512
 40
6.500000
  0
LINE
  8
CSLAYER1
  6
CONTINUOUS
 62
     3
 10
2231.035276
 20
1886.293512
 11
2231.035276
 21
2086.293512
  0
LINE
  8
CSLAYER1
  6
CONTINUOUS
 62
     1
 10
765.426450
 20
824.879983
 11
765.426450
 21
846.819293
  0
LINE
  8
CSLAYER1
  6
CONTINUOUS
 62
     1
 10
768.426450
 20
846.599638
 11
765.426450
 21
846.599638
  0
LINE
  8
CSLAYER1
  6
CONTINUOUS
 62
     1
 10
768.426450
 20
825.099638
 11
765.426450
 21
825.099638
  0
LINE
  8
CSLAYER1
  6
CONTINUOUS
 62
     1
 10
768.426450
 20
834.337441
 11
765.426450
 21
837.837441
  0
LINE
  8
CSLAYER1
  6
CONTINUOUS
 62
     1
 10
757.426450
 20
844.849638
 11
757.426450
 21
826.849638
  0
LINE
  8
CSLAYER1
  6
CONTINUOUS
 62
     1
 10
765.426450
 20
841.334465
 11
758.563631
 21
841.334465
  0
LINE
  8
CSLAYER1
  6
CONTINUOUS
 62
     1
 10
765.426450
 20
846.819293
 11
758.563631
 21
846.819293
  0
LINE
  8
CSLAYER1
  6
CONTINUOUS
 62
     1
 10
757.426450
 20
844.849638
 11
758.563631
 21
846.819293
  0
ARC
  8
CSLAYER1
  6
CONTINUOUS
 62
     1
 10
761.206494
 20
844.076879
 40
3.808617
 50
185.661633
 51
226.059028
  0
ARC
  8
CSLAYER1
  6
CONTINUOUS
 62
     1
 10
771.222194
 20
835.849638
 40
13.795744
 50
156.573402
 51
203.426598
  0
LINE
  8
CSLAYER1
  6
CONTINUOUS
 62
     1
 10
765.426450
 20
830.364810
 11
758.563631
 21
830.364810
  0
LINE
  8
CSLAYER1
  6
CONTINUOUS
 62
     1
 10
765.426450
 20
824.879983
 11
758.563631
 21
824.879983
  0
LINE
  8
CSLAYER1
  6
CONTINUOUS
 62
     1
 10
757.426450
 20
826.849638
 11
758.563631
 21
824.879983
  0
ARC
  8
CSLAYER1
  6
CONTINUOUS
 62
     1
 10
761.206494
 20
827.622396
 40
3.808617
 50
133.940972
 51
174.338367
  0
LINE
  8
CSLAYER1
  6
CONTINUOUS
 62
     3
 10
942.926450
 20
1429.913309
 11
942.926450
 21
1399.913309
  0
LINE
  8
CSLAYER1
  6
CONTINUOUS
 62
     2
 10
787.926450
 20
1399.913309
 11
787.926450
 21
1355.613309
  0
LINE
  8
CSLAYER1
  6
CONTINUOUS
 62
     3
 10
786.926450
 20
1387.463309
 11
787.926450
 21
1387.463309
  0
LINE
  8
CSLAYER1
  6
CONTINUOUS
 62
     3
 10
785.926450
 20
1399.913309
 11
785.926450
 21
1388.463309
  0
LINE
  8
CSLAYER1
  6
CONTINUOUS
 62
     3
 10
785.926450
 20
1388.463309
 11
786.926450
 21
1387.463309
  0
LINE
  8
CSLAYER1
  6
CONTINUOUS
 62
     3
 10
786.926450
 20
1399.913309
 11
786.926450
 21
1387.463309
  0
LINE
  8
CSLAYER1
  6
CONTINUOUS
 62
     3
 10
785.426450
 20
1385.613309
 11
779.426450
 21
1385.613309
  0
INSERT
  8
CSLAYER1
  2
BLKF0006
 10
0.0
 20
0.0
 30
0.0
  0
LINE
  8
CSLAYER1
  6
CONTINUOUS
 62
     3
 10
779.426450
 20
1399.913309
 11
779.426450
 21
1385.363309
  0
LINE
  8
CSLAYER1
  6
CONTINUOUS
 62
     3
 10
785.426450
 20
1399.913309
 11
785.426450
 21
1385.613309
  0
LINE
  8
CSLAYER1
  6
CONTINUOUS
 62
     3
 10
745.926450
 20
1399.913309
 11
745.926450
 21
1397.613309
  0
LINE
  8
CSLAYER1
  6
CONTINUOUS
 62
     3
 10
745.926450
 20
1397.613309
 11
750.426450
 21
1397.613309
  0
LINE
  8
CSLAYER1
  6
CONTINUOUS
 62
     3
 10
750.426450
 20
1399.913309
 11
750.426450
 21
1397.613309
  0
LINE
  8
CSLAYER1
  6
CONTINUOUS
 62
     3
 10
763.926450
 20
1399.913309
 11
763.926450
 21
1383.113309
  0
LINE
  8
CSLAYER1
  6
CONTINUOUS
 62
     3
 10
771.926450
 20
1385.143654
 11
771.926450
 21
1383.113309
  0
LINE
  8
CSLAYER1
  6
CONTINUOUS
 62
     3
 10
755.926450
 20
1399.913309
 11
755.926450
 21
1383.113309
  0
LINE
  8
CSLAYER1
  6
CONTINUOUS
 62
     3
 10
754.926450
 20
1399.913309
 11
754.926450
 21
1388.113309
  0
LINE
  8
CSLAYER1
  6
CONTINUOUS
 62
     3
 10
752.926450
 20
1399.913309
 11
752.926450
 21
1391.613309
  0
LINE
  8
CSLAYER1
  6
CONTINUOUS
 62
     3
 10
753.426450
 20
1391.113309
 11
754.926450
 21
1391.113309
  0
LINE
  8
CSLAYER1
  6
CONTINUOUS
 62
     3
 10
754.926450
 20
1388.113309
 11
755.926450
 21
1388.113309
  0
LINE
  8
CSLAYER1
  6
CONTINUOUS
 62
     3
 10
753.426450
 20
1391.113309
 11
752.926450
 21
1391.613309
  0
LINE
  8
CSLAYER1
  6
CONTINUOUS
 62
     3
 10
755.926450
 20
1383.113309
 11
771.926450
 21
1383.113309
  0
LINE
  8
CSLAYER1
  6
CONTINUOUS
 62
     3
 10
742.926450
 20
1429.913309
 11
742.926450
 21
1399.913309
  0
TEXT
  8
CSLAYER1
 62
     5
 10
3001.054411
 20
821.956898
 40
31.844261
 41
0.920655
  1
Ｆ.Ｌ
 50
0.000000
 51
0.000000
  7
EASYDRAW_FONT
 72
     5
 11
3079.234652
 21
821.956898
  0
LINE
  8
CSLAYER1
  6
CENTER
 62
     5
 10
2781.532645
 20
818.349638
 11
2781.532645
 21
898.349638
  0
LINE
  8
CSLAYER1
  6
CENTER
 62
     5
 10
2906.532645
 20
809.420277
 11
2906.532645
 21
833.630238
  0
LINE
  8
CSLAYER1
  6
CENTER
 62
     5
 10
2656.532645
 20
809.420277
 11
2656.532645
 21
833.630238
  0
LINE
  8
CSLAYER1
  6
CONTINUOUS
 62
     3
 10
2681.532645
 20
858.349638
 11
2681.532645
 21
818.349638
  0
LINE
  8
CSLAYER1
  6
CONTINUOUS
 62
     3
 10
2881.532645
 20
858.349638
 11
2881.532645
 21
818.349638
  0
LINE
  8
CSLAYER1
  6
CONTINUOUS
 62
     3
 10
2931.532645
 20
818.349638
 11
2931.532645
 21
824.349638
  0
LINE
  8
CSLAYER1
  6
CONTINUOUS
 62
     3
 10
2931.532645
 20
824.349638
 11
2881.532645
 21
824.349638
  0
LINE
  8
CSLAYER1
  6
CONTINUOUS
 62
     3
 10
2631.532645
 20
818.349638
 11
2631.532645
 21
824.349638
  0
LINE
  8
CSLAYER1
  6
CONTINUOUS
 62
     3
 10
2631.532645
 20
824.349638
 11
2681.532645
 21
824.349638
  0
TEXT
  8
CSLAYER1
 62
     7
 10
2725.199707
 20
963.344727
 40
40.000000
 41
0.843750
  1
下降時
 50
0.000000
 51
0.000000
  7
EASYDRAW_FONT
 72
     5
 11
2815.199707
 21
963.344727
  0
LINE
  8
CSLAYER1
  6
CONTINUOUS
 62
     5
 10
2711.593105
 20
1009.774898
 11
2834.551115
 21
1009.774898
  0
LINE
  8
CSLAYER1
  6
CONTINUOUS
 62
     5
 10
2834.551115
 20
1009.774898
 11
2834.551115
 21
956.914445
  0
LINE
  8
CSLAYER1
  6
CONTINUOUS
 62
     5
 10
2834.551115
 20
956.914445
 11
2711.593105
 21
956.914445
  0
LINE
  8
CSLAYER1
  6
CONTINUOUS
 62
     5
 10
2711.593105
 20
956.914445
 11
2711.593105
 21
1009.774898
  0
LINE
  8
CSLAYER1
  6
CONTINUOUS
 62
     3
 10
2681.532645
 20
868.349638
 11
2681.532645
 21
898.349638
  0
LINE
  8
CSLAYER1
  6
CONTINUOUS
 62
     3
 10
2881.532645
 20
868.349638
 11
2881.532645
 21
898.349638
  0
LINE
  8
CSLAYER1
  6
CONTINUOUS
 62
     3
 10
2681.532645
 20
898.349638
 11
2881.532645
 21
898.349638
  0
LINE
  8
CSLAYER1
  6
CONTINUOUS
 62
     3
 10
2681.532645
 20
868.349638
 11
2881.532645
 21
868.349638
  0
LINE
  8
CSLAYER1
  6
CONTINUOUS
 62
     3
 10
2681.532645
 20
858.349638
 11
2881.532645
 21
858.349638
  0
DIMENSION
  8
CSLAYER1
 62
     3
  2
*D0006
 10
2567.512139
 20
898.349638
 11
2557.512207
 21
858.349609
 13
2631.532645
 23
818.349638
 14
2681.532645
 24
898.349638
 50
90.000000
  0
LINE
  8
CSLAYER1
  6
CONTINUOUS
 62
     3
 10
2878.532645
 20
868.349638
 11
2878.532645
 21
866.049638
  0
LINE
  8
CSLAYER1
  6
CONTINUOUS
 62
     3
 10
2878.532645
 20
866.049638
 11
2874.032645
 21
866.049638
  0
LINE
  8
CSLAYER1
  6
CONTINUOUS
 62
     3
 10
2874.032645
 20
868.349638
 11
2874.032645
 21
866.049638
  0
LINE
  8
CSLAYER1
  6
CONTINUOUS
 62
     3
 10
2860.532645
 20
868.349638
 11
2860.532645
 21
858.349638
  0
LINE
  8
CSLAYER1
  6
CONTINUOUS
 62
     3
 10
2868.532645
 20
868.349638
 11
2868.532645
 21
858.349638
  0
LINE
  8
CSLAYER1
  6
CONTINUOUS
 62
     3
 10
2869.532645
 20
868.349638
 11
2869.532645
 21
858.349638
  0
LINE
  8
CSLAYER1
  6
CONTINUOUS
 62
     3
 10
2871.532645
 20
868.349638
 11
2871.532645
 21
860.049638
  0
LINE
  8
CSLAYER1
  6
CONTINUOUS
 62
     3
 10
2871.032645
 20
859.549638
 11
2869.532645
 21
859.549638
  0
LINE
  8
CSLAYER1
  6
CONTINUOUS
 62
     3
 10
2871.032645
 20
859.549638
 11
2871.532645
 21
860.049638
  0
LINE
  8
CSLAYER1
  6
CENTER
 62
     5
 10
2872.532645
 20
864.549638
 11
2690.532645
 21
864.549638
  0
LINE
  8
CSLAYER1
  6
CONTINUOUS
 62
     3
 10
2852.532645
 20
868.349638
 11
2852.532645
 21
858.349638
  0
LINE
  8
CSLAYER1
  6
CONTINUOUS
 62
     3
 10
2827.532645
 20
858.349638
 11
2827.532645
 21
868.349638
  0
LINE
  8
CSLAYER1
  6
CONTINUOUS
 62
     3
 10
2836.532645
 20
858.349638
 11
2836.532645
 21
868.349638
  0
LINE
  8
CSLAYER1
  6
CONTINUOUS
 62
     3
 10
2839.532645
 20
858.349638
 11
2839.532645
 21
868.349638
  0
LINE
  8
CSLAYER1
  6
CONTINUOUS
 62
     3
 10
2848.532645
 20
858.349638
 11
2848.532645
 21
868.349638
  0
LINE
  8
CSLAYER1
  6
CONTINUOUS
 62
     3
 10
2684.532645
 20
868.349638
 11
2684.532645
 21
866.049638
  0
LINE
  8
CSLAYER1
  6
CONTINUOUS
 62
     3
 10
2684.532645
 20
866.049638
 11
2689.032645
 21
866.049638
  0
LINE
  8
CSLAYER1
  6
CONTINUOUS
 62
     3
 10
2689.032645
 20
868.349638
 11
2689.032645
 21
866.049638
  0
LINE
  8
CSLAYER1
  6
CONTINUOUS
 62
     3
 10
2702.532645
 20
868.349638
 11
2702.532645
 21
858.349638
  0
LINE
  8
CSLAYER1
  6
CONTINUOUS
 62
     3
 10
2694.532645
 20
868.349638
 11
2694.532645
 21
858.349638
  0
LINE
  8
CSLAYER1
  6
CONTINUOUS
 62
     3
 10
2693.532645
 20
868.349638
 11
2693.532645
 21
858.349638
  0
LINE
  8
CSLAYER1
  6
CONTINUOUS
 62
     3
 10
2691.532645
 20
868.349638
 11
2691.532645
 21
860.049638
  0
LINE
  8
CSLAYER1
  6
CONTINUOUS
 62
     3
 10
2692.032645
 20
859.549638
 11
2693.532645
 21
859.549638
  0
LINE
  8
CSLAYER1
  6
CONTINUOUS
 62
     3
 10
2692.032645
 20
859.549638
 11
2691.532645
 21
860.049638
  0
LINE
  8
CSLAYER1
  6
CONTINUOUS
 62
     3
 10
2710.532645
 20
868.349638
 11
2710.532645
 21
858.349638
  0
LINE
  8
CSLAYER1
  6
CONTINUOUS
 62
     3
 10
2735.532645
 20
858.349638
 11
2735.532645
 21
868.349638
  0
LINE
  8
CSLAYER1
  6
CONTINUOUS
 62
     3
 10
2726.532645
 20
858.349638
 11
2726.532645
 21
868.349638
  0
LINE
  8
CSLAYER1
  6
CONTINUOUS
 62
     3
 10
2723.532645
 20
858.349638
 11
2723.532645
 21
868.349638
  0
LINE
  8
CSLAYER1
  6
CONTINUOUS
 62
     3
 10
2714.532645
 20
858.349638
 11
2714.532645
 21
868.349638
  0
TEXT
  8
CSLAYER1
 62
     7
 10
793.789978
 20
586.334045
 40
40.000000
 41
0.843750
  1
上昇時
 50
0.000000
 51
0.000000
  7
EASYDRAW_FONT
 72
     5
 11
883.789978
 21
586.334045
  0
LINE
  8
CSLAYER1
  6
CONTINUOUS
 62
     5
 10
780.183484
 20
632.764134
 11
903.141494
 21
632.764134
  0
LINE
  8
CSLAYER1
  6
CONTINUOUS
 62
     5
 10
903.141494
 20
632.764134
 11
903.141494
 21
579.903681
  0
LINE
  8
CSLAYER1
  6
CONTINUOUS
 62
     5
 10
903.141494
 20
579.903681
 11
780.183484
 21
579.903681
  0
LINE
  8
CSLAYER1
  6
CONTINUOUS
 62
     5
 10
780.183484
 20
579.903681
 11
780.183484
 21
632.764134
  0
TEXT
  8
CSLAYER1
 62
     7
 10
1439.630615
 20
2261.065430
 40
40.000000
 41
0.843750
  1
下降時
 50
0.000000
 51
0.000000
  7
EASYDRAW_FONT
 72
     5
 11
1529.630615
 21
2261.065430
  0
LINE
  8
CSLAYER1
  6
CONTINUOUS
 62
     5
 10
1426.024038
 20
2307.495503
 11
1548.982048
 21
2307.495503
  0
LINE
  8
CSLAYER1
  6
CONTINUOUS
 62
     5
 10
1548.982048
 20
2307.495503
 11
1548.982048
 21
2254.635050
  0
LINE
  8
CSLAYER1
  6
CONTINUOUS
 62
     5
 10
1548.982048
 20
2254.635050
 11
1426.024038
 21
2254.635050
  0
LINE
  8
CSLAYER1
  6
CONTINUOUS
 62
     5
 10
1426.024038
 20
2254.635050
 11
1426.024038
 21
2307.495503
  0
INSERT
  8
CSLAYER1
  2
BLKF0007
 10
0.0
 20
0.0
 30
0.0
  0
INSERT
  8
CSLAYER1
  2
BLKF0008
 10
0.0
 20
0.0
 30
0.0
  0
LINE
  8
CSLAYER1
  6
CONTINUOUS
 62
     3
 10
2231.335276
 20
858.349638
 11
2231.335276
 21
818.349638
  0
DIMENSION
  8
CSLAYER1
 62
     3
  2
*D0007
 10
2367.187653
 20
898.349638
 11
2357.187744
 21
858.349609
 13
2231.035276
 23
818.349638
 14
2231.035276
 24
898.349638
 50
90.000000
 70
1
  0
DIMENSION
  8
CSLAYER1
 62
     3
  2
*D0008
 10
2367.187653
 20
898.349638
 11
2357.187744
 21
1164.131470
 13
2367.187653
 23
1429.913309
 14
2367.187653
 24
898.349638
 50
90.000000
 70
1
  0
DIMENSION
  8
CSLAYER1
 62
     3
  2
*D0009
 10
2250.880234
 20
1533.409667
 11
1850.880249
 21
1543.409668
 13
1450.880234
 23
1429.913309
 14
2250.880234
 24
1429.913309
 70
1
  0
DIMENSION
  8
CSLAYER1
 62
     3
  2
*D0010
 10
942.926450
 20
1503.535730
 11
842.926453
 21
1513.535767
 13
742.926450
 23
1429.913309
 14
942.926450
 24
1429.913309
 70
1
  0
DIMENSION
  8
CSLAYER1
 62
     3
  2
*D0011
 10
2231.335276
 20
664.813821
 11
1829.835205
 21
674.813843
 13
1428.335276
 23
818.349638
 14
2231.335276
 24
818.349638
 52
270.000000
 70
1
  0
INSERT
  8
CSLAYER1
  2
BLKF0009
 10
0.0
 20
0.0
 30
0.0
  0
DIMENSION
  8
CSLAYER1
 62
     3
  2
*D0015
 10
2326.773097
 20
2086.293512
 11
2316.773193
 21
1986.293579
 13
2231.035276
 23
1886.293512
 14
2231.035276
 24
2086.293512
 50
90.000000
 70
1
  0
LINE
  8
CSLAYER1
  6
CONTINUOUS
 62
     5
 10
2736.865187
 20
548.047230
 11
3536.865187
 21
548.047230
  0
LINE
  8
CSLAYER1
  6
CONTINUOUS
 62
     5
 10
2736.865187
 20
188.047230
 11
3536.865187
 21
188.047230
  0
LINE
  8
CSLAYER1
  6
CONTINUOUS
 62
     5
 10
2736.865187
 20
348.047230
 11
3536.865187
 21
348.047230
  0
LINE
  8
CSLAYER1
  6
CONTINUOUS
 62
     5
 10
2736.865187
 20
408.047230
 11
3536.865187
 21
408.047230
  0
LINE
  8
CSLAYER1
  6
CONTINUOUS
 62
     5
 10
2736.865187
 20
468.047230
 11
3536.865187
 21
468.047230
  0
LINE
  8
CSLAYER1
  6
CONTINUOUS
 62
     5
 10
2736.865187
 20
628.047230
 11
3536.865187
 21
628.047230
  0
LINE
  8
CSLAYER1
  6
CONTINUOUS
 62
     5
 10
2736.865187
 20
708.047230
 11
2736.865187
 21
108.047230
  0
LINE
  8
CSLAYER1
  6
CONTINUOUS
 62
     5
 10
2936.865187
 20
708.047230
 11
2936.865187
 21
468.047230
  0
LINE
  8
CSLAYER1
  6
CONTINUOUS
 62
     5
 10
2736.865187
 20
708.047230
 11
3536.865187
 21
708.047230
  0
LINE
  8
CSLAYER1
  6
CONTINUOUS
 62
     5
 10
3236.865187
 20
468.047230
 11
3236.865187
 21
188.047230
  0
TEXT
  8
CSLAYER1
 62
     3
 10
2956.556453
 20
116.609943
 40
59.380363
 41
1.003345
  1
東正車輌株式会社
 50
0.000000
 51
0.000000
  7
EASYDRAW_FONT
 72
     5
 11
3413.328801
 21
116.609943
  0
LINE
  8
CSLAYER1
  6
CONTINUOUS
 62
     5
 10
2986.865187
 20
408.047230
 11
2986.865187
 21
188.047230
  0
TEXT
  8
CSLAYER1
 62
     5
 10
2766.865234
 20
643.047180
 40
50.000000
 41
1.050000
  1
品　名
 50
0.000000
 51
0.000000
  7
EASYDRAW_FONT
 72
     5
 11
2906.865234
 21
643.047180
  0
TEXT
  8
CSLAYER1
 62
     5
 10
2766.865234
 20
563.047180
 40
50.000000
 41
1.050000
  1
型　式
 50
0.000000
 51
0.000000
  7
EASYDRAW_FONT
 72
     5
 11
2906.865234
 21
563.047180
  0
TEXT
  8
CSLAYER1
 62
     5
 10
2741.865234
 20
483.047241
 40
50.000000
 41
1.036364
  1
図面番号
 50
0.000000
 51
0.000000
  7
EASYDRAW_FONT
 72
     5
 11
2931.865234
 21
483.047241
  0
TEXT
  8
CSLAYER1
 62
     5
 10
2766.865234
 20
413.047241
 40
50.000000
 41
0.825000
  1
平成26年01月10日
 50
0.000000
 51
0.000000
  7
EASYDRAW_FONT
 72
     5
 11
3206.865234
 21
413.047241
  0
TEXT
  8
CSLAYER1
 62
     5
 10
3316.865234
 20
413.047241
 40
50.000000
 41
1.050000
  1
Ｂ－４
 50
0.000000
 51
0.000000
  7
EASYDRAW_FONT
 72
     5
 11
3456.865234
 21
413.047241
  0
TEXT
  8
CSLAYER1
 62
     5
 10
2791.865234
 20
353.047241
 40
50.000000
 41
1.050000
  1
検　図
 50
0.000000
 51
0.000000
  7
EASYDRAW_FONT
 72
     5
 11
2931.865234
 21
353.047241
  0
TEXT
  8
CSLAYER1
 62
     5
 10
3041.865234
 20
353.047241
 40
50.000000
 41
1.050000
  1
作　図
 50
0.000000
 51
0.000000
  7
EASYDRAW_FONT
 72
     5
 11
3181.865234
 21
353.047241
  0
TEXT
  8
CSLAYER1
 62
     5
 10
3316.865234
 20
353.047241
 40
50.000000
 41
1.050000
  1
尺　度
 50
0.000000
 51
0.000000
  7
EASYDRAW_FONT
 72
     5
 11
3456.865234
 21
353.047241
  0
TEXT
  8
CSLAYER1
 62
     5
 10
3417.604004
 20
202.532486
 40
50.000000
 41
1.080000
  1
１０
 50
0.000000
 51
0.000000
  7
EASYDRAW_FONT
 72
     5
 11
3507.604004
 21
202.532486
  0
TEXT
  8
CSLAYER1
 62
     5
 10
3397.284424
 20
250.237183
 40
50.000000
 41
1.200000
  1
／
 50
0.000000
 51
0.000000
  7
EASYDRAW_FONT
 72
     5
 11
3437.284424
 21
250.237183
  0
TEXT
  8
CSLAYER1
 62
     5
 10
3367.071533
 20
285.220642
 40
50.000000
 41
1.200000
  1
１
 50
0.000000
 51
0.000000
  7
EASYDRAW_FONT
 72
     5
 11
3407.071533
 21
285.220642
  0
TEXT
  8
CSLAYER1
 62
     3
 10
3076.865234
 20
643.047180
 40
50.000000
 41
0.834783
  1
ゴールドリフター
 50
0.000000
 51
0.000000
  7
EASYDRAW_FONT
 72
     5
 11
3396.865234
 21
643.047180
  0
TEXT
  8
CSLAYER1
 62
     3
 10
2976.865234
 20
563.047180
 40
50.000000
 41
0.821053
  1
GLSE-250-2008
 50
0.000000
 51
0.000000
  7
EASYDRAW_FONT
 72
     5
 11
3496.865234
 21
563.047180
  0
INSERT
  8
CSLAYER1
  2
BLKF0010
 10
0.0
 20
0.0
 30
0.0
  0
LINE
  8
CSLAYER1
  6
CONTINUOUS
 62
     3
 10
2631.532645
 20
818.349638
 11
2931.532645
 21
818.349638
  0
LINE
  8
CSLAYER1
  6
CONTINUOUS
 62
     5
 10
2931.532645
 20
818.349638
 11
3189.171467
 21
818.349638
  0
LINE
  8
CSLAYER1
  6
CONTINUOUS
 62
     5
 10
2231.335276
 20
818.349638
 11
2631.532645
 21
818.349638
  0
LINE
  8
CSLAYER1
  6
CONTINUOUS
 62
     3
 10
1428.335276
 20
818.349638
 11
2231.335276
 21
818.349638
  0
LINE
  8
CSLAYER1
  6
CONTINUOUS
 62
     5
 10
992.926450
 20
818.349638
 11
1428.335276
 21
818.349638
  0
ENDSEC
  0
EOF
