  0
SECTION
  2
HEADER
  9
$ACADVER
  1
AC1006
  9
$INSBASE
 10
0.000000
 20
0.000000
 30
0.0
  9
$EXTMIN
 10
0.000000
 20
0.000000
  9
$EXTMAX
 10
3640.000000
 20
2570.000000
  9
$LIMMIN
 10
0.000000
 20
0.000000
  9
$LIMMAX
 10
3640.000000
 20
2570.000000
  9
$VIEWCTR
 10
1820.000000
 20
1285.000000
  9
$VIEWSIZE
 40
2570.000000
  9
$SNAPMODE
 70
     0
  9
$SNAPUNIT
 10
1.0
 20
1.0
  9
$SNAPBASE
 10
0.0
 20
0.0
  9
$SNAPANG
 50
0.0
  9
$SNAPSTYLE
 70
     0
  9
$SNAPISOPAIR
 70
     0
  9
$GRIDMODE
 70
     0
  9
$GRIDUNIT
 10
0.0
 20
0.0
  9
$ORTHOMODE
 70
     0
  9
$REGENMODE
 70
     1
  9
$FILLMODE
 70
     1
  9
$QTEXTMODE
 70
     0
  9
$DRAGMODE
 70
     2
  9
$LTSCALE
 40
15.000000
  9
$OSMODE
 70
     0
  9
$ATTMODE
 70
     1
  9
$TEXTSIZE
 40
0.2
  9
$TRACEWID
 40
0.05
  9
$TEXTSTYLE
  7
STANDARD
  9
$CLAYER
  8
CSLAYER1
  9
$CELTYPE
  6
BYLAYER
  9
$CECOLOR
 62
   256
  9
$DIMSCALE
 40
1.0
  9
$DIMASZ
 40
0.18
  9
$DIMEXO
 40
0.0625
  9
$DIMDLI
 40
0.38
  9
$DIMRND
 40
0.0
  9
$DIMDLE
 40
0.0
  9
$DIMEXE
 40
0.18
  9
$DIMTP
 40
0.0
  9
$DIMTM
 40
0.0
  9
$DIMTXT
 40
0.18
  9
$DIMCEN
 40
0.09
  9
$DIMTSZ
 40
0.0
  9
$DIMTOL
 70
     0
  9
$DIMLIM
 70
     0
  9
$DIMTIH
 70
     1
  9
$DIMTOH
 70
     1
  9
$DIMSE1
 70
     0
  9
$DIMSE2
 70
     0
  9
$DIMTAD
 70
     0
  9
$DIMZIN
 70
     0
  9
$DIMBLK
  1

  9
$LUNITS
 70
     2
  9
$LUPREC
 70
     4
  9
$AXISMODE
 70
     0
  9
$AXISUNIT
 10
0.0
 20
0.0
  9
$SKETCHINC
 40
0.1
  9
$FILLETRAD
 40
0.0
  9
$AUNITS
 70
     0
  9
$AUPREC
 70
     0
  9
$MENU
  1
ACAD
  9
$ELEVATION
 40
0.0
  9
$THICKNESS
 40
0.0
  9
$VIEWDIR
 10
0.0
 20
0.0
 30
1.0
  9
$LIMCHECK
 70
     0
  9
$BLIPMODE
 70
     1
  9
$CHAMFERA
 40
0.0
  9
$CHAMFERB
 40
0.0
  9
$FASTZOOM
 70
     1
  9
$SKPOLY
 70
     0
  9
$TDCREATE
 40
2456676.000000
  9
$TDUPDATE
 40
2456676.000000
  9
$TDINDWG
 40
0.0
  9
$TDUSRTIMER
 40
0.0
  9
$USRTIMER
 70
     1
  9
$ANGBASE
 50
0.0
  9
$ANGDIR
 70
     0
  9
$PDMODE
 70
     0
  9
$PDSIZE
 40
0.0
  9
$PLINEWID
 40
0.0
  9
$COORDS
 70
     0
  9
$USERI1
 70
     0
  9
$USERI2
 70
     0
  9
$USERI3
 70
     0
  9
$USERI4
 70
     0
  9
$USERI5
 70
     0
  9
$USERR1
 40
0.0
  9
$USERR2
 40
0.0
  9
$USERR3
 40
0.0
  9
$USERR4
 40
0.0
  9
$USERR5
 40
0.0
  0
ENDSEC
  0
SECTION
  2
TABLES
  0
TABLE
  2
LTYPE
 70
     9
  0
LTYPE
  2
CONTINUOUS
 70
    64
  3
Solid line
 72
    65
 73
     0
 40
0.0
  0
LTYPE
  2
DASHED
 70
    64
  3
__ __ __ __ __ __ __ __ __ __ __ __ __ __ __
 72
    65
 73
     2
 40
0.75
 49
0.5
 49
-0.25
  0
LTYPE
  2
HIDDEN
 70
    64
  3
_ _ _ _ _ _ _ _ _ _ _ _ _ _ _ _ _ _ _ _ _ _ _
 72
    65
 73
     2
 40
0.375
 49
0.25
 49
-0.125
  0
LTYPE
  2
DOT
 70
    64
  3
...............................................
 72
    65
 73
     2
 40
0.25
 49
0.0
 49
-0.25
  0
LTYPE
  2
DASHDOT
 70
    64
  3
__ . __ . __ . __ . __ . __ . __ . __ . __ . __
 72
    65
 73
     4
 40
1.0
 49
0.5
 49
-0.25
 49
0.0
 49
-0.25
  0
LTYPE
  2
DIVIDE
 70
    64
  3
__ . . __ . . __ . . __ . . __ . . __ . . __
 72
    65
 73
     6
 40
1.25
 49
0.5
 49
-0.25
 49
0.0
 49
-0.25
 49
0.0
 49
-0.25
  0
LTYPE
  2
CENTER
 70
    64
  3
____ _ ____ _ ____ _ ____ _ ____ _ ____ _ ____ 
 72
    65
 73
     4
 40
2.0
 49
1.25
 49
-0.25
 49
0.25
 49
-0.25
  0
LTYPE
  2
PHANTOM
 70
    64
  3
______  __  __  ______  __  __  ______  __  __ 
 72
    65
 73
     6
 40
2.5
 49
1.25
 49
-0.25
 49
0.25
 49
-0.25
 49
0.25
 49
-0.25
  0
LTYPE
  2
BORDER
 70
    64
  3
__ __ . __ __ . __ __ . __ __ . __ __ . __ __ .
 72
    65
 73
     6
 40
1.75
 49
0.5
 49
-0.25
 49
0.5
 49
-0.25
 49
0.0
 49
-0.25
  0
ENDTAB
  0
TABLE
  2
LAYER
 70
    16
  0
LAYER
  2
CSLAYER1
 70
    64
 62
     7
  6
CONTINUOUS
  0
LAYER
  2
CSLAYER2
 70
    64
 62
     7
  6
CONTINUOUS
  0
LAYER
  2
CSLAYER3
 70
    64
 62
     7
  6
CONTINUOUS
  0
LAYER
  2
CSLAYER4
 70
    64
 62
     7
  6
CONTINUOUS
  0
LAYER
  2
CSLAYER5
 70
    64
 62
     7
  6
CONTINUOUS
  0
LAYER
  2
CSLAYER6
 70
    64
 62
     7
  6
CONTINUOUS
  0
LAYER
  2
CSLAYER7
 70
    64
 62
     7
  6
CONTINUOUS
  0
LAYER
  2
CSLAYER8
 70
    64
 62
     7
  6
CONTINUOUS
  0
LAYER
  2
CSLAYER9
 70
    64
 62
     7
  6
CONTINUOUS
  0
LAYER
  2
CSLAYER10
 70
    64
 62
     7
  6
CONTINUOUS
  0
LAYER
  2
CSLAYER11
 70
    64
 62
     7
  6
CONTINUOUS
  0
LAYER
  2
CSLAYER12
 70
    64
 62
     7
  6
CONTINUOUS
  0
LAYER
  2
CSLAYER13
 70
    64
 62
     7
  6
CONTINUOUS
  0
LAYER
  2
CSLAYER14
 70
    64
 62
     7
  6
CONTINUOUS
  0
LAYER
  2
CSLAYER15
 70
    64
 62
     7
  6
CONTINUOUS
  0
LAYER
  2
CSLAYER16
 70
    64
 62
     7
  6
CONTINUOUS
  0
ENDTAB
  0
TABLE
  2
STYLE
 70
     1
  0
STYLE
  2
EASYDRAW_FONT
 70
     0
 40
1.0
 41
1.0
 50
0.0
 71
     0
 42
1.0
  3
monotxt
  4
bigfont
  0
ENDTAB
  0
TABLE
  2
VIEW
 70
     0
  0
ENDTAB
  0
ENDSEC
  0
SECTION
  2
BLOCKS
  0
BLOCK
  8
CSLAYER1
  2
*D0000
 70
    65
 10
0.0
 20
0.0
 30
0.0
  0
TEXT
  8
CSLAYER1
 62
     3
 10
2401.969727
 20
736.938965
 40
40.000000
 41
0.900000
  1
65
 50
90.000000
 51
0.000000
  7
EASYDRAW_FONT
 72
     5
 11
2401.969727
 21
796.938965
  0
LINE
  8
CSLAYER1
  6
CONTINUOUS
 62
     5
 10
2319.213347
 20
734.438980
 11
2523.111876
 21
734.438980
  0
LINE
  8
CSLAYER1
  6
CONTINUOUS
 62
     5
 10
2318.913347
 20
799.438980
 11
2421.969802
 21
799.438980
  0
LINE
  8
CSLAYER1
  6
CONTINUOUS
 62
     5
 10
2411.969802
 20
734.438980
 11
2411.969802
 21
799.438980
  0
LINE
  8
CSLAYER1
  6
CONTINUOUS
 62
     5
 10
2411.969802
 20
734.438980
 11
2404.205230
 21
763.416754
  0
LINE
  8
CSLAYER1
  6
CONTINUOUS
 62
     5
 10
2411.969802
 20
734.438980
 11
2419.734373
 21
763.416754
  0
LINE
  8
CSLAYER1
  6
CONTINUOUS
 62
     5
 10
2411.969802
 20
799.438980
 11
2404.205230
 21
770.461205
  0
LINE
  8
CSLAYER1
  6
CONTINUOUS
 62
     5
 10
2411.969802
 20
799.438980
 11
2419.734373
 21
770.461205
  0
ENDBLK
  8
0
  0
BLOCK
  8
CSLAYER1
  2
*D0001
 70
    65
 10
0.0
 20
0.0
 30
0.0
  0
TEXT
  8
CSLAYER1
 62
     3
 10
2401.969727
 20
1080.085938
 40
40.000000
 41
0.843750
  1
635
 50
90.000000
 51
0.000000
  7
EASYDRAW_FONT
 72
     5
 11
2401.969727
 21
1170.085938
  0
LINE
  8
CSLAYER1
  6
CONTINUOUS
 62
     5
 10
2340.322373
 20
1450.732390
 11
2523.111876
 21
1450.732390
  0
LINE
  8
CSLAYER1
  6
CONTINUOUS
 62
     5
 10
2411.969802
 20
799.438980
 11
2411.969802
 21
1450.732390
  0
LINE
  8
CSLAYER1
  6
CONTINUOUS
 62
     5
 10
2411.969802
 20
799.438980
 11
2404.205230
 21
828.416754
  0
LINE
  8
CSLAYER1
  6
CONTINUOUS
 62
     5
 10
2411.969802
 20
799.438980
 11
2419.734373
 21
828.416754
  0
LINE
  8
CSLAYER1
  6
CONTINUOUS
 62
     5
 10
2411.969802
 20
1450.732390
 11
2404.205230
 21
1421.754615
  0
LINE
  8
CSLAYER1
  6
CONTINUOUS
 62
     5
 10
2411.969802
 20
1450.732390
 11
2419.734373
 21
1421.754615
  0
ENDBLK
  8
0
  0
BLOCK
  8
CSLAYER1
  2
*D0002
 70
    65
 10
0.0
 20
0.0
 30
0.0
  0
TEXT
  8
CSLAYER1
 62
     3
 10
2503.111816
 20
1047.585938
 40
40.000000
 41
0.843750
  1
700
 50
90.000000
 51
0.000000
  7
EASYDRAW_FONT
 72
     5
 11
2503.111816
 21
1137.585938
  0
LINE
  8
CSLAYER1
  6
CONTINUOUS
 62
     5
 10
2513.111876
 20
734.438980
 11
2513.111876
 21
1450.732390
  0
LINE
  8
CSLAYER1
  6
CONTINUOUS
 62
     5
 10
2513.111876
 20
734.438980
 11
2505.347304
 21
763.416754
  0
LINE
  8
CSLAYER1
  6
CONTINUOUS
 62
     5
 10
2513.111876
 20
734.438980
 11
2520.876447
 21
763.416754
  0
LINE
  8
CSLAYER1
  6
CONTINUOUS
 62
     5
 10
2513.111876
 20
1450.732390
 11
2505.347304
 21
1421.754615
  0
LINE
  8
CSLAYER1
  6
CONTINUOUS
 62
     5
 10
2513.111876
 20
1450.732390
 11
2520.876447
 21
1421.754615
  0
ENDBLK
  8
0
  0
BLOCK
  8
CSLAYER1
  2
*D0003
 70
    65
 10
0.0
 20
0.0
 30
0.0
  0
TEXT
  8
CSLAYER1
 62
     3
 10
1835.322388
 20
1559.220947
 40
40.000000
 41
0.843750
  1
900
 50
0.000000
 51
0.000000
  7
EASYDRAW_FONT
 72
     5
 11
1925.322388
 21
1559.220947
  0
LINE
  8
CSLAYER1
  6
CONTINUOUS
 62
     5
 10
1430.322373
 20
1460.732390
 11
1430.322373
 21
1559.220853
  0
LINE
  8
CSLAYER1
  6
CONTINUOUS
 62
     5
 10
2330.322373
 20
1460.732390
 11
2330.322373
 21
1559.220853
  0
LINE
  8
CSLAYER1
  6
CONTINUOUS
 62
     5
 10
1430.322373
 20
1549.220853
 11
2330.322373
 21
1549.220853
  0
LINE
  8
CSLAYER1
  6
CONTINUOUS
 62
     5
 10
1430.322373
 20
1549.220853
 11
1459.300147
 21
1556.985424
  0
LINE
  8
CSLAYER1
  6
CONTINUOUS
 62
     5
 10
1430.322373
 20
1549.220853
 11
1459.300147
 21
1541.456282
  0
LINE
  8
CSLAYER1
  6
CONTINUOUS
 62
     5
 10
2330.322373
 20
1549.220853
 11
2301.344598
 21
1556.985424
  0
LINE
  8
CSLAYER1
  6
CONTINUOUS
 62
     5
 10
2330.322373
 20
1549.220853
 11
2301.344598
 21
1541.456282
  0
ENDBLK
  8
0
  0
BLOCK
  8
CSLAYER1
  2
*D0004
 70
    65
 10
0.0
 20
0.0
 30
0.0
  0
TEXT
  8
CSLAYER1
 62
     3
 10
1312.707275
 20
1896.246582
 40
40.000000
 41
0.843750
  1
250
 50
90.000000
 51
0.000000
  7
EASYDRAW_FONT
 72
     5
 11
1312.707275
 21
1986.246582
  0
LINE
  8
CSLAYER1
  6
CONTINUOUS
 62
     5
 10
1409.950545
 20
1841.799232
 11
1310.959286
 21
1841.799232
  0
LINE
  8
CSLAYER1
  6
CONTINUOUS
 62
     5
 10
1409.950545
 20
2091.799232
 11
1310.959286
 21
2091.799232
  0
LINE
  8
CSLAYER1
  6
CONTINUOUS
 62
     5
 10
1320.959286
 20
1841.799232
 11
1320.959286
 21
2091.799232
  0
LINE
  8
CSLAYER1
  6
CONTINUOUS
 62
     5
 10
1320.959286
 20
1841.799232
 11
1313.194715
 21
1870.777006
  0
LINE
  8
CSLAYER1
  6
CONTINUOUS
 62
     5
 10
1320.959286
 20
1841.799232
 11
1328.723858
 21
1870.777006
  0
LINE
  8
CSLAYER1
  6
CONTINUOUS
 62
     5
 10
1320.959286
 20
2091.799232
 11
1313.194715
 21
2062.821457
  0
LINE
  8
CSLAYER1
  6
CONTINUOUS
 62
     5
 10
1320.959286
 20
2091.799232
 11
1328.723858
 21
2062.821457
  0
ENDBLK
  8
0
  0
BLOCK
  8
CSLAYER1
  2
*D0005
 70
    65
 10
0.0
 20
0.0
 30
0.0
  0
TEXT
  8
CSLAYER1
 62
     3
 10
1335.357788
 20
1736.472168
 40
40.000000
 41
0.900000
  1
25
 50
0.000000
 51
0.000000
  7
EASYDRAW_FONT
 72
     5
 11
1395.357788
 21
1736.472168
  0
LINE
  8
CSLAYER1
  6
CONTINUOUS
 62
     5
 10
1406.213347
 20
1816.799232
 11
1406.213347
 21
1675.927599
  0
LINE
  8
CSLAYER1
  6
CONTINUOUS
 62
     5
 10
1431.213347
 20
1820.536430
 11
1431.213347
 21
1742.739167
  0
LINE
  8
CSLAYER1
  6
CONTINUOUS
 62
     5
 10
1406.213347
 20
1752.739167
 11
1431.213347
 21
1752.739167
  0
LINE
  8
CSLAYER1
  6
CONTINUOUS
 62
     5
 10
1406.213347
 20
1752.739167
 11
1435.191122
 21
1760.503738
  0
LINE
  8
CSLAYER1
  6
CONTINUOUS
 62
     5
 10
1406.213347
 20
1752.739167
 11
1435.191122
 21
1744.974596
  0
LINE
  8
CSLAYER1
  6
CONTINUOUS
 62
     5
 10
1431.213347
 20
1752.739167
 11
1402.235572
 21
1760.503738
  0
LINE
  8
CSLAYER1
  6
CONTINUOUS
 62
     5
 10
1431.213347
 20
1752.739167
 11
1402.235572
 21
1744.974596
  0
ENDBLK
  8
0
  0
BLOCK
  8
CSLAYER1
  2
*D0006
 70
    65
 10
0.0
 20
0.0
 30
0.0
  0
TEXT
  8
CSLAYER1
 62
     3
 10
1336.519897
 20
1669.079590
 40
40.000000
 41
0.900000
  1
50
 50
0.000000
 51
0.000000
  7
EASYDRAW_FONT
 72
     5
 11
1396.519897
 21
1669.079590
  0
LINE
  8
CSLAYER1
  6
CONTINUOUS
 62
     5
 10
1456.213347
 20
1816.799232
 11
1456.213347
 21
1675.927599
  0
LINE
  8
CSLAYER1
  6
CONTINUOUS
 62
     5
 10
1406.213347
 20
1685.927599
 11
1456.213347
 21
1685.927599
  0
LINE
  8
CSLAYER1
  6
CONTINUOUS
 62
     5
 10
1406.213347
 20
1685.927599
 11
1435.191122
 21
1693.692171
  0
LINE
  8
CSLAYER1
  6
CONTINUOUS
 62
     5
 10
1406.213347
 20
1685.927599
 11
1435.191122
 21
1678.163028
  0
LINE
  8
CSLAYER1
  6
CONTINUOUS
 62
     5
 10
1456.213347
 20
1685.927599
 11
1427.235572
 21
1693.692171
  0
LINE
  8
CSLAYER1
  6
CONTINUOUS
 62
     5
 10
1456.213347
 20
1685.927599
 11
1427.235572
 21
1678.163028
  0
ENDBLK
  8
0
  0
BLOCK
  8
CSLAYER1
  2
EASYDRAWDIM0000
 70
   64
 10
0.0
 20
0.0
 30
0.0
  0
TEXT
  8
CSLAYER1
 62
     3
 10
1549.435181
 20
1721.422852
 40
40.000000
 41
0.771429
  1
2-%%c13(アンカー穴)
 50
0.000000
 51
0.000000
  7
EASYDRAW_FONT
 72
     5
 11
1909.435181
 21
1721.422852
  0
LINE
  8
CSLAYER1
  6
CONTINUOUS
 62
     5
 10
1435.611947
 20
1837.541391
 11
1545.093914
 21
1711.422867
  0
LINE
  8
CSLAYER1
  6
CONTINUOUS
 62
     5
 10
1435.611947
 20
1837.541391
 11
1460.471607
 21
1820.748615
  0
LINE
  8
CSLAYER1
  6
CONTINUOUS
 62
     5
 10
1435.611947
 20
1837.541391
 11
1448.744656
 21
1810.568590
  0
LINE
  8
CSLAYER1
  6
CONTINUOUS
 62
     5
 10
1545.093914
 20
1711.422867
 11
1919.435167
 21
1711.422867
  0
ENDBLK
  8
0
  0
BLOCK
  8
CSLAYER1
  2
EASYDRAWDIM0001
 70
   64
 10
0.0
 20
0.0
 30
0.0
  0
TEXT
  8
CSLAYER1
 62
     3
 10
1128.225586
 20
882.766602
 40
40.000000
 41
0.803571
  1
高圧ホース
 50
0.000000
 51
0.000000
  7
EASYDRAW_FONT
 72
     5
 11
1278.225586
 21
882.766602
  0
LINE
  8
CSLAYER1
  6
CONTINUOUS
 62
     5
 10
1344.771152
 20
753.935233
 11
1278.225483
 21
872.766785
  0
LINE
  8
CSLAYER1
  6
CONTINUOUS
 62
     5
 10
1344.771152
 20
753.935233
 11
1323.837879
 21
775.424720
  0
LINE
  8
CSLAYER1
  6
CONTINUOUS
 62
     5
 10
1344.771152
 20
753.935233
 11
1337.387149
 21
783.012312
  0
LINE
  8
CSLAYER1
  6
CONTINUOUS
 62
     5
 10
1278.225483
 20
872.766785
 11
1118.225483
 21
872.766785
  0
ENDBLK
  8
0
  0
BLOCK
  8
CSLAYER1
  2
*D0007
 70
    65
 10
0.0
 20
0.0
 30
0.0
  0
TEXT
  8
CSLAYER1
 62
     3
 10
950.397644
 20
752.253418
 40
40.000000
 41
1.125000
  1
6
 50
90.000000
 51
0.000000
  7
EASYDRAW_FONT
 72
     5
 11
950.397644
 21
782.253418
  0
LINE
  8
CSLAYER1
  6
CONTINUOUS
 62
     5
 10
903.898859
 20
734.438980
 11
970.397530
 21
734.438980
  0
LINE
  8
CSLAYER1
  6
CONTINUOUS
 62
     5
 10
903.898859
 20
740.438980
 11
970.397530
 21
740.438980
  0
LINE
  8
CSLAYER1
  6
CONTINUOUS
 62
     5
 10
960.397530
 20
734.438980
 11
960.397530
 21
684.438980
  0
LINE
  8
CSLAYER1
  6
CONTINUOUS
 62
     5
 10
960.397530
 20
734.438980
 11
952.632958
 21
705.461205
  0
LINE
  8
CSLAYER1
  6
CONTINUOUS
 62
     5
 10
960.397530
 20
734.438980
 11
968.162101
 21
705.461205
  0
LINE
  8
CSLAYER1
  6
CONTINUOUS
 62
     5
 10
960.397530
 20
740.438980
 11
960.397530
 21
794.067841
  0
LINE
  8
CSLAYER1
  6
CONTINUOUS
 62
     5
 10
960.397530
 20
740.438980
 11
952.632958
 21
769.416754
  0
LINE
  8
CSLAYER1
  6
CONTINUOUS
 62
     5
 10
960.397530
 20
740.438980
 11
968.162101
 21
769.416754
  0
LINE
  8
CSLAYER1
  6
CONTINUOUS
 62
     5
 10
960.397530
 20
734.438980
 11
960.397530
 21
740.438980
  0
ENDBLK
  8
0
  0
BLOCK
  8
CSLAYER1
  2
*D0008
 70
    65
 10
0.0
 20
0.0
 30
0.0
  0
TEXT
  8
CSLAYER1
 62
     3
 10
1812.713379
 20
574.803955
 40
40.000000
 41
0.843750
  1
903
 50
0.000000
 51
0.000000
  7
EASYDRAW_FONT
 72
     5
 11
1902.713379
 21
574.803955
  0
LINE
  8
CSLAYER1
  6
CONTINUOUS
 62
     5
 10
1406.213347
 20
724.438980
 11
1406.213347
 21
554.804004
  0
LINE
  8
CSLAYER1
  6
CONTINUOUS
 62
     5
 10
2309.213347
 20
724.438980
 11
2309.213347
 21
554.804004
  0
LINE
  8
CSLAYER1
  6
CONTINUOUS
 62
     5
 10
1406.213347
 20
564.804004
 11
2309.213347
 21
564.804004
  0
LINE
  8
CSLAYER1
  6
CONTINUOUS
 62
     5
 10
1406.213347
 20
564.804004
 11
1435.191122
 21
572.568576
  0
LINE
  8
CSLAYER1
  6
CONTINUOUS
 62
     5
 10
1406.213347
 20
564.804004
 11
1435.191122
 21
557.039433
  0
LINE
  8
CSLAYER1
  6
CONTINUOUS
 62
     5
 10
2309.213347
 20
564.804004
 11
2280.235572
 21
572.568576
  0
LINE
  8
CSLAYER1
  6
CONTINUOUS
 62
     5
 10
2309.213347
 20
564.804004
 11
2280.235572
 21
557.039433
  0
ENDBLK
  8
0
  0
BLOCK
  8
CSLAYER1
  2
EASYDRAWDIM0002
 70
   64
 10
0.0
 20
0.0
 30
0.0
  0
TEXT
  8
CSLAYER1
 62
     3
 10
1361.945923
 20
1864.698708
 40
33.155758
 41
0.767879
  1
穴ヒﾟッチ
 50
90.000000
 51
0.000000
  7
EASYDRAW_FONT
 72
     5
 11
1361.945923
 21
1983.510277
  0
ENDBLK
  8
0
  0
BLOCK
  8
CSLAYER1
  2
*D0009
 70
    65
 10
0.0
 20
0.0
 30
0.0
  0
TEXT
  8
CSLAYER1
 62
     3
 10
2403.228271
 20
1921.799316
 40
40.000000
 41
0.843750
  1
300
 50
90.000000
 51
0.000000
  7
EASYDRAW_FONT
 72
     5
 11
2403.228271
 21
2011.799316
  0
LINE
  8
CSLAYER1
  6
CONTINUOUS
 62
     5
 10
2318.913347
 20
1816.799232
 11
2423.228259
 21
1816.799232
  0
LINE
  8
CSLAYER1
  6
CONTINUOUS
 62
     5
 10
2318.913347
 20
2116.799232
 11
2423.228259
 21
2116.799232
  0
LINE
  8
CSLAYER1
  6
CONTINUOUS
 62
     5
 10
2413.228259
 20
1816.799232
 11
2413.228259
 21
2116.799232
  0
LINE
  8
CSLAYER1
  6
CONTINUOUS
 62
     5
 10
2413.228259
 20
1816.799232
 11
2405.463687
 21
1845.777006
  0
LINE
  8
CSLAYER1
  6
CONTINUOUS
 62
     5
 10
2413.228259
 20
1816.799232
 11
2420.992830
 21
1845.777006
  0
LINE
  8
CSLAYER1
  6
CONTINUOUS
 62
     5
 10
2413.228259
 20
2116.799232
 11
2405.463687
 21
2087.821457
  0
LINE
  8
CSLAYER1
  6
CONTINUOUS
 62
     5
 10
2413.228259
 20
2116.799232
 11
2420.992830
 21
2087.821457
  0
ENDBLK
  8
0
  0
BLOCK
  8
CSLAYER1
  2
*D0010
 70
    65
 10
0.0
 20
0.0
 30
0.0
  0
TEXT
  8
CSLAYER1
 62
     3
 10
1247.204834
 20
1228.336914
 40
40.000000
 41
0.803571
  1
MAX21
 50
0.000000
 51
0.000000
  7
EASYDRAW_FONT
 72
     5
 11
1397.204834
 21
1228.336914
  0
LINE
  8
CSLAYER1
  6
CONTINUOUS
 62
     5
 10
1408.913347
 20
809.438980
 11
1408.913347
 21
1216.113851
  0
LINE
  8
CSLAYER1
  6
CONTINUOUS
 62
     5
 10
1430.322373
 20
1440.732390
 11
1430.322373
 21
1196.113851
  0
LINE
  8
CSLAYER1
  6
CONTINUOUS
 62
     5
 10
1408.913347
 20
1206.113851
 11
1349.950058
 21
1206.113851
  0
LINE
  8
CSLAYER1
  6
CONTINUOUS
 62
     5
 10
1408.913347
 20
1206.113851
 11
1379.935572
 21
1213.878423
  0
LINE
  8
CSLAYER1
  6
CONTINUOUS
 62
     5
 10
1408.913347
 20
1206.113851
 11
1379.935572
 21
1198.349280
  0
LINE
  8
CSLAYER1
  6
CONTINUOUS
 62
     5
 10
1430.322373
 20
1206.113851
 11
1480.322373
 21
1206.113851
  0
LINE
  8
CSLAYER1
  6
CONTINUOUS
 62
     5
 10
1430.322373
 20
1206.113851
 11
1459.300147
 21
1213.878423
  0
LINE
  8
CSLAYER1
  6
CONTINUOUS
 62
     5
 10
1430.322373
 20
1206.113851
 11
1459.300147
 21
1198.349280
  0
LINE
  8
CSLAYER1
  6
CONTINUOUS
 62
     5
 10
1408.913347
 20
1206.113851
 11
1430.322373
 21
1206.113851
  0
ENDBLK
  8
0
  0
BLOCK
  8
CSLAYER1
  2
EASYDRAWDIM0003
 70
   64
 10
0.0
 20
0.0
 30
0.0
  0
TEXT
  8
CSLAYER1
 62
     3
 10
1162.576050
 20
1089.581543
 40
40.000000
 41
0.787500
  1
油圧シリンダー
 50
0.000000
 51
0.000000
  7
EASYDRAW_FONT
 72
     5
 11
1372.576050
 21
1089.581543
  0
LINE
  8
CSLAYER1
  6
CONTINUOUS
 62
     5
 10
1519.482905
 20
932.368308
 11
1373.540852
 21
1079.581413
  0
LINE
  8
CSLAYER1
  6
CONTINUOUS
 62
     5
 10
1519.482905
 20
932.368308
 11
1493.567423
 21
947.480813
  0
LINE
  8
CSLAYER1
  6
CONTINUOUS
 62
     5
 10
1519.482905
 20
932.368308
 11
1504.595691
 21
958.413862
  0
LINE
  8
CSLAYER1
  6
CONTINUOUS
 62
     5
 10
1373.540852
 20
1079.581413
 11
1152.576110
 21
1079.581413
  0
ENDBLK
  8
0
  0
BLOCK
  8
CSLAYER1
  2
*D0011
 70
    65
 10
0.0
 20
0.0
 30
0.0
  0
TEXT
  8
CSLAYER1
 62
     3
 10
698.898865
 20
659.830078
 40
40.000000
 41
0.843750
  1
250
 50
0.000000
 51
0.000000
  7
EASYDRAW_FONT
 72
     5
 11
788.898865
 21
659.830078
  0
LINE
  8
CSLAYER1
  6
CONTINUOUS
 62
     5
 10
618.898859
 20
724.438980
 11
618.898859
 21
639.830095
  0
LINE
  8
CSLAYER1
  6
CONTINUOUS
 62
     5
 10
868.898859
 20
724.438980
 11
868.898859
 21
639.830095
  0
LINE
  8
CSLAYER1
  6
CONTINUOUS
 62
     5
 10
618.898859
 20
649.830095
 11
868.898859
 21
649.830095
  0
LINE
  8
CSLAYER1
  6
CONTINUOUS
 62
     5
 10
618.898859
 20
649.830095
 11
647.876634
 21
657.594666
  0
LINE
  8
CSLAYER1
  6
CONTINUOUS
 62
     5
 10
618.898859
 20
649.830095
 11
647.876634
 21
642.065523
  0
LINE
  8
CSLAYER1
  6
CONTINUOUS
 62
     5
 10
868.898859
 20
649.830095
 11
839.921084
 21
657.594666
  0
LINE
  8
CSLAYER1
  6
CONTINUOUS
 62
     5
 10
868.898859
 20
649.830095
 11
839.921084
 21
642.065523
  0
ENDBLK
  8
0
  0
BLOCK
  8
CSLAYER1
  2
EASYDRAWDIM0004
 70
   64
 10
0.0
 20
0.0
 30
0.0
  0
LINE
  8
CSLAYER1
  6
CONTINUOUS
 62
     5
 10
1250.403168
 20
645.537243
 11
1180.403168
 21
645.537243
  0
ENDBLK
  8
0
  0
BLOCK
  8
CSLAYER1
  2
EASYDRAWDIM0005
 70
   64
 10
0.0
 20
0.0
 30
0.0
  0
TEXT
  8
CSLAYER1
 62
     3
 10
924.783386
 20
597.582275
 40
40.000000
 41
0.771429
  1
2-%%c13（アンカー穴）
 50
0.000000
 51
0.000000
  7
EASYDRAW_FONT
 72
     5
 11
1284.783386
 21
597.582275
  0
LINE
  8
CSLAYER1
  6
CONTINUOUS
 62
     5
 10
964.806505
 20
645.537243
 11
1250.403168
 21
645.537243
  0
ENDBLK
  8
0
  0
BLOCK
  8
CSLAYER1
  2
*D0012
 70
    65
 10
0.0
 20
0.0
 30
0.0
  0
TEXT
  8
CSLAYER1
 62
     3
 10
698.898865
 20
595.512939
 40
40.000000
 41
0.843750
  1
300
 50
0.000000
 51
0.000000
  7
EASYDRAW_FONT
 72
     5
 11
788.898865
 21
595.512939
  0
LINE
  8
CSLAYER1
  6
CONTINUOUS
 62
     5
 10
593.898859
 20
724.438980
 11
593.898859
 21
575.512862
  0
LINE
  8
CSLAYER1
  6
CONTINUOUS
 62
     5
 10
893.898859
 20
730.438980
 11
893.898859
 21
575.512862
  0
LINE
  8
CSLAYER1
  6
CONTINUOUS
 62
     5
 10
593.898859
 20
585.512862
 11
893.898859
 21
585.512862
  0
LINE
  8
CSLAYER1
  6
CONTINUOUS
 62
     5
 10
593.898859
 20
585.512862
 11
622.876634
 21
593.277433
  0
LINE
  8
CSLAYER1
  6
CONTINUOUS
 62
     5
 10
593.898859
 20
585.512862
 11
622.876634
 21
577.748291
  0
LINE
  8
CSLAYER1
  6
CONTINUOUS
 62
     5
 10
893.898859
 20
585.512862
 11
864.921084
 21
593.277433
  0
LINE
  8
CSLAYER1
  6
CONTINUOUS
 62
     5
 10
893.898859
 20
585.512862
 11
864.921084
 21
577.748291
  0
ENDBLK
  8
0
  0
BLOCK
  8
CSLAYER1
  2
EASYDRAWDIM0006
 70
   64
 10
0.0
 20
0.0
 30
0.0
  0
LINE
  8
CSLAYER1
  6
CONTINUOUS
 62
     6
 10
1431.213347
 20
734.438980
 11
1250.403168
 21
645.537243
  0
LINE
  8
CSLAYER1
  6
CONTINUOUS
 62
     6
 10
1431.213347
 20
734.438980
 11
1408.634925
 21
714.685122
  0
LINE
  8
CSLAYER1
  6
CONTINUOUS
 62
     6
 10
1431.213347
 20
734.438980
 11
1401.782931
 21
728.620848
  0
ENDBLK
  8
0
  0
BLOCK
  8
CSLAYER1
  2
*D0013
 70
    65
 10
0.0
 20
0.0
 30
0.0
  0
TEXT
  8
CSLAYER1
 62
     3
 10
1422.711304
 20
611.159912
 40
40.000000
 41
0.900000
  1
25
 50
0.000000
 51
0.000000
  7
EASYDRAW_FONT
 72
     5
 11
1482.711304
 21
611.159912
  0
LINE
  8
CSLAYER1
  6
CONTINUOUS
 62
     5
 10
1406.213347
 20
724.438980
 11
1406.213347
 21
660.092112
  0
LINE
  8
CSLAYER1
  6
CONTINUOUS
 62
     5
 10
1431.213347
 20
727.508349
 11
1431.213347
 21
660.092112
  0
LINE
  8
CSLAYER1
  6
CONTINUOUS
 62
     5
 10
1406.213347
 20
670.092112
 11
1431.213347
 21
670.092112
  0
LINE
  8
CSLAYER1
  6
CONTINUOUS
 62
     5
 10
1356.213347
 20
670.092112
 11
1406.213347
 21
670.092112
  0
LINE
  8
CSLAYER1
  6
CONTINUOUS
 62
     5
 10
1406.213347
 20
670.092112
 11
1377.235572
 21
677.856683
  0
LINE
  8
CSLAYER1
  6
CONTINUOUS
 62
     5
 10
1406.213347
 20
670.092112
 11
1377.235572
 21
662.327540
  0
LINE
  8
CSLAYER1
  6
CONTINUOUS
 62
     5
 10
1431.213347
 20
670.092112
 11
1481.213347
 21
670.092112
  0
LINE
  8
CSLAYER1
  6
CONTINUOUS
 62
     5
 10
1431.213347
 20
670.092112
 11
1460.191122
 21
677.856683
  0
LINE
  8
CSLAYER1
  6
CONTINUOUS
 62
     5
 10
1431.213347
 20
670.092112
 11
1460.191122
 21
662.327540
  0
ENDBLK
  8
0
  0
BLOCK
  8
CSLAYER1
  2
*D0014
 70
    65
 10
0.0
 20
0.0
 30
0.0
  0
TEXT
  8
CSLAYER1
 62
     3
 10
698.898865
 20
1513.181763
 40
40.000000
 41
0.843750
  1
300
 50
0.000000
 51
0.000000
  7
EASYDRAW_FONT
 72
     5
 11
788.898865
 21
1513.181763
  0
LINE
  8
CSLAYER1
  6
CONTINUOUS
 62
     5
 10
593.898859
 20
1460.732390
 11
593.898859
 21
1513.181635
  0
LINE
  8
CSLAYER1
  6
CONTINUOUS
 62
     5
 10
893.898859
 20
1460.732390
 11
893.898859
 21
1513.181635
  0
LINE
  8
CSLAYER1
  6
CONTINUOUS
 62
     5
 10
593.898859
 20
1503.181635
 11
893.898859
 21
1503.181635
  0
LINE
  8
CSLAYER1
  6
CONTINUOUS
 62
     5
 10
593.898859
 20
1503.181635
 11
622.876634
 21
1510.946206
  0
LINE
  8
CSLAYER1
  6
CONTINUOUS
 62
     5
 10
593.898859
 20
1503.181635
 11
622.876634
 21
1495.417064
  0
LINE
  8
CSLAYER1
  6
CONTINUOUS
 62
     5
 10
893.898859
 20
1503.181635
 11
864.921084
 21
1510.946206
  0
LINE
  8
CSLAYER1
  6
CONTINUOUS
 62
     5
 10
893.898859
 20
1503.181635
 11
864.921084
 21
1495.417064
  0
ENDBLK
  8
0
  0
BLOCK
  8
CSLAYER1
  2
*D0015
 70
    65
 10
0.0
 20
0.0
 30
0.0
  0
TEXT
  8
CSLAYER1
 62
     3
 10
2606.929688
 20
736.839111
 40
40.000000
 41
0.900000
  1
65
 50
90.000000
 51
0.000000
  7
EASYDRAW_FONT
 72
     5
 11
2606.929688
 21
796.839111
  0
LINE
  8
CSLAYER1
  6
CONTINUOUS
 62
     5
 10
2640.651896
 20
734.438980
 11
2606.929860
 21
734.438980
  0
LINE
  8
CSLAYER1
  6
CONTINUOUS
 62
     5
 10
2691.193049
 20
799.238980
 11
2606.929860
 21
799.238980
  0
LINE
  8
CSLAYER1
  6
CONTINUOUS
 62
     5
 10
2616.929860
 20
734.438980
 11
2616.929860
 21
799.238980
  0
LINE
  8
CSLAYER1
  6
CONTINUOUS
 62
     5
 10
2616.929860
 20
684.438980
 11
2616.929860
 21
734.438980
  0
LINE
  8
CSLAYER1
  6
CONTINUOUS
 62
     5
 10
2616.929860
 20
734.438980
 11
2609.165289
 21
705.461205
  0
LINE
  8
CSLAYER1
  6
CONTINUOUS
 62
     5
 10
2616.929860
 20
734.438980
 11
2624.694432
 21
705.461205
  0
LINE
  8
CSLAYER1
  6
CONTINUOUS
 62
     5
 10
2616.929860
 20
799.238980
 11
2616.929860
 21
849.238980
  0
LINE
  8
CSLAYER1
  6
CONTINUOUS
 62
     5
 10
2616.929860
 20
799.238980
 11
2609.165289
 21
828.216754
  0
LINE
  8
CSLAYER1
  6
CONTINUOUS
 62
     5
 10
2616.929860
 20
799.238980
 11
2624.694432
 21
828.216754
  0
ENDBLK
  8
0
  0
BLOCK
  8
CSLAYER1
  2
BLKF0000
 70
   64
 10
0.0
 20
0.0
 30
0.0
  0
ARC
  8
CSLAYER1
  6
CONTINUOUS
 62
     5
 10
2866.026344
 20
123.867662
 40
3.549225
 50
6.429109
 51
73.182034
  0
ARC
  8
CSLAYER1
  6
CONTINUOUS
 62
     5
 10
2862.565374
 20
122.709269
 40
6.907754
 50
310.517970
 51
330.092764
  0
ARC
  8
CSLAYER1
  6
CONTINUOUS
 62
     5
 10
2862.504724
 20
123.074787
 40
7.148321
 50
-32.205059
 51
9.585194
  0
ARC
  8
CSLAYER1
  6
CONTINUOUS
 62
     5
 10
2865.797452
 20
120.313789
 40
4.767514
 50
180.000000
 51
218.514150
  0
ARC
  8
CSLAYER1
  6
CONTINUOUS
 62
     5
 10
2864.510732
 20
119.636649
 40
3.348282
 50
222.781148
 51
319.406906
  0
ARC
  8
CSLAYER1
  6
CONTINUOUS
 62
     5
 10
2867.576373
 20
120.726541
 40
6.559434
 50
94.574282
 51
183.607718
  0
LINE
  8
CSLAYER1
  6
CONTINUOUS
 62
     5
 10
2881.020280
 20
115.609709
 11
2880.163244
 21
112.571126
  0
LINE
  8
CSLAYER1
  6
CONTINUOUS
 62
     5
 10
2882.812265
 20
135.477366
 11
2880.708630
 21
138.204300
  0
LINE
  8
CSLAYER1
  6
CONTINUOUS
 62
     5
 10
2880.708630
 20
138.204300
 11
2873.955276
 21
141.962212
  0
LINE
  8
CSLAYER1
  6
CONTINUOUS
 62
     5
 10
2873.955276
 20
141.962212
 11
2867.053249
 21
142.765083
  0
LINE
  8
CSLAYER1
  6
CONTINUOUS
 62
     5
 10
2848.764023
 20
129.386409
 11
2850.910718
 21
134.350640
  0
LINE
  8
CSLAYER1
  6
CONTINUOUS
 62
     5
 10
2850.873720
 20
134.265083
 11
2853.057412
 21
136.899839
  0
LINE
  8
CSLAYER1
  6
CONTINUOUS
 62
     5
 10
2853.057412
 20
136.899839
 11
2856.361834
 21
139.265083
  0
LINE
  8
CSLAYER1
  6
CONTINUOUS
 62
     5
 10
2867.053249
 20
142.765083
 11
2865.535073
 21
141.998238
  0
LINE
  8
CSLAYER1
  6
CONTINUOUS
 62
     5
 10
2865.535073
 20
141.998238
 11
2862.046695
 21
141.998238
  0
LINE
  8
CSLAYER1
  6
CONTINUOUS
 62
     5
 10
2862.046695
 20
141.998238
 11
2858.491232
 21
140.052796
  0
LINE
  8
CSLAYER1
  6
CONTINUOUS
 62
     5
 10
2858.491232
 20
140.052796
 11
2856.361834
 21
139.265083
  0
LINE
  8
CSLAYER1
  6
CONTINUOUS
 62
     5
 10
2848.764023
 20
129.386409
 11
2847.246476
 21
121.837806
  0
LINE
  8
CSLAYER1
  6
CONTINUOUS
 62
     5
 10
2847.246476
 20
121.837806
 11
2847.053249
 21
119.265083
  0
LINE
  8
CSLAYER1
  6
CONTINUOUS
 62
     5
 10
2849.762631
 20
111.425300
 11
2847.053249
 21
117.521411
  0
LINE
  8
CSLAYER1
  6
CONTINUOUS
 62
     5
 10
2847.053249
 20
117.521411
 11
2847.053249
 21
119.265083
  0
LINE
  8
CSLAYER1
  6
CONTINUOUS
 62
     5
 10
2880.163244
 20
112.571126
 11
2878.477456
 21
109.568120
  0
LINE
  8
CSLAYER1
  6
CONTINUOUS
 62
     5
 10
2878.477456
 20
109.568120
 11
2877.053249
 21
108.249409
  0
ARC
  8
CSLAYER1
  6
CONTINUOUS
 62
     5
 10
2864.861304
 20
119.801843
 40
17.266626
 50
208.054813
 51
260.640470
  0
ARC
  8
CSLAYER1
  6
CONTINUOUS
 62
     5
 10
2859.667909
 20
132.544312
 40
29.874611
 50
274.579659
 51
305.587364
  0
ARC
  8
CSLAYER1
  6
CONTINUOUS
 62
     5
 10
2870.640258
 20
126.560590
 40
15.088627
 50
313.467013
 51
331.085078
  0
LINE
  8
CSLAYER1
  6
CONTINUOUS
 62
     5
 10
2885.431590
 20
122.778503
 11
2885.728884
 21
126.560590
  0
LINE
  8
CSLAYER1
  6
CONTINUOUS
 62
     5
 10
2885.728884
 20
126.560590
 11
2884.436887
 21
132.669573
  0
LINE
  8
CSLAYER1
  6
CONTINUOUS
 62
     5
 10
2885.431590
 20
122.778503
 11
2883.847915
 21
119.265083
  0
ARC
  8
CSLAYER1
  6
CONTINUOUS
 62
     5
 10
2870.640258
 20
126.560590
 40
15.088627
 50
23.883193
 51
36.225170
  0
LINE
  8
CSLAYER1
  6
CONTINUOUS
 62
     5
 10
2831.053249
 20
154.265083
 11
2832.053249
 21
155.357727
  0
LINE
  8
CSLAYER1
  6
CONTINUOUS
 62
     5
 10
2831.053249
 20
154.265083
 11
2832.630207
 21
152.820049
  0
LINE
  8
CSLAYER1
  6
CONTINUOUS
 62
     5
 10
2834.169419
 20
150.710758
 11
2834.195687
 21
148.542639
  0
LINE
  8
CSLAYER1
  6
CONTINUOUS
 62
     5
 10
2834.195687
 20
148.542639
 11
2834.403085
 21
147.782180
  0
LINE
  8
CSLAYER1
  6
CONTINUOUS
 62
     5
 10
2834.403085
 20
147.782180
 11
2834.990713
 21
147.056287
  0
LINE
  8
CSLAYER1
  6
CONTINUOUS
 62
     5
 10
2834.990713
 20
147.056287
 11
2835.578341
 21
147.125419
  0
LINE
  8
CSLAYER1
  6
CONTINUOUS
 62
     5
 10
2835.578341
 20
147.125419
 11
2836.200535
 21
147.298251
  0
LINE
  8
CSLAYER1
  6
CONTINUOUS
 62
     5
 10
2836.200535
 20
147.298251
 11
2836.615331
 21
147.125419
  0
LINE
  8
CSLAYER1
  6
CONTINUOUS
 62
     5
 10
2836.615331
 20
147.125419
 11
2837.514055
 21
146.676057
  0
LINE
  8
CSLAYER1
  6
CONTINUOUS
 62
     5
 10
2837.514055
 20
146.676057
 11
2838.290107
 21
146.265083
  0
LINE
  8
CSLAYER1
  6
CONTINUOUS
 62
     5
 10
2838.290107
 20
146.265083
 11
2838.793010
 21
146.295827
  0
LINE
  8
CSLAYER1
  6
CONTINUOUS
 62
     5
 10
2838.793010
 20
146.295827
 11
2841.600881
 21
147.742307
  0
LINE
  8
CSLAYER1
  6
CONTINUOUS
 62
     5
 10
2832.053249
 20
155.357727
 11
2832.386100
 21
156.831434
  0
LINE
  8
CSLAYER1
  6
CONTINUOUS
 62
     5
 10
2832.386100
 20
156.831434
 11
2833.839506
 21
156.981786
  0
LINE
  8
CSLAYER1
  6
CONTINUOUS
 62
     5
 10
2835.333264
 20
159.750245
 11
2837.087437
 21
159.907335
  0
LINE
  8
CSLAYER1
  6
CONTINUOUS
 62
     5
 10
2837.087437
 20
159.907335
 11
2840.621965
 21
160.745149
  0
LINE
  8
CSLAYER1
  6
CONTINUOUS
 62
     5
 10
2840.621965
 20
160.745149
 11
2842.053249
 21
161.076788
  0
LINE
  8
CSLAYER1
  6
CONTINUOUS
 62
     5
 10
2835.333264
 20
159.750245
 11
2833.400373
 21
159.909113
  0
LINE
  8
CSLAYER1
  6
CONTINUOUS
 62
     5
 10
2832.664250
 20
159.040426
 11
2832.757775
 21
158.669264
  0
LINE
  8
CSLAYER1
  6
CONTINUOUS
 62
     5
 10
2832.757775
 20
158.669264
 11
2833.249369
 21
158.131583
  0
LINE
  8
CSLAYER1
  6
CONTINUOUS
 62
     5
 10
2833.249369
 20
158.131583
 11
2833.925311
 21
157.624627
  0
LINE
  8
CSLAYER1
  6
CONTINUOUS
 62
     5
 10
2833.925311
 20
157.624627
 11
2834.048636
 21
157.460194
  0
LINE
  8
CSLAYER1
  6
CONTINUOUS
 62
     5
 10
2832.630207
 20
152.820049
 11
2834.169419
 21
150.710758
  0
ARC
  8
CSLAYER1
  6
CONTINUOUS
 62
     5
 10
2877.039949
 20
-17.393570
 40
180.727463
 50
80.438896
 51
96.353582
  0
ARC
  8
CSLAYER1
  6
CONTINUOUS
 62
     5
 10
2852.141036
 20
127.854330
 40
34.720242
 50
81.866516
 51
106.890578
  0
LINE
  8
CSLAYER1
  6
CONTINUOUS
 62
     5
 10
2911.247510
 20
160.031753
 11
2913.494593
 21
159.010352
  0
LINE
  8
CSLAYER1
  6
CONTINUOUS
 62
     5
 10
2917.069497
 20
157.427180
 11
2913.494593
 21
159.010352
  0
LINE
  8
CSLAYER1
  6
CONTINUOUS
 62
     5
 10
2911.247510
 20
160.031753
 11
2907.053249
 21
160.824324
  0
LINE
  8
CSLAYER1
  6
CONTINUOUS
 62
     5
 10
2917.053249
 20
157.434375
 11
2918.924824
 21
155.865899
  0
LINE
  8
CSLAYER1
  6
CONTINUOUS
 62
     5
 10
2900.296505
 20
158.471226
 11
2901.195779
 21
159.923901
  0
LINE
  8
CSLAYER1
  6
CONTINUOUS
 62
     5
 10
2901.195779
 20
159.923901
 11
2905.871378
 21
158.804391
  0
LINE
  8
CSLAYER1
  6
CONTINUOUS
 62
     5
 10
2905.871378
 20
158.804391
 11
2922.613764
 21
154.265083
  0
LINE
  8
CSLAYER1
  6
CONTINUOUS
 62
     5
 10
2925.553249
 20
154.265083
 11
2918.924824
 21
155.865899
  0
LINE
  8
CSLAYER1
  6
CONTINUOUS
 62
     5
 10
2922.613764
 20
154.265083
 11
2925.553249
 21
154.265083
  0
LINE
  8
CSLAYER1
  6
CONTINUOUS
 62
     5
 10
2867.053249
 20
158.730024
 11
2887.053249
 21
159.265083
  0
LINE
  8
CSLAYER1
  6
CONTINUOUS
 62
     5
 10
2887.053249
 20
159.265083
 11
2900.296505
 21
158.471226
  0
LINE
  8
CSLAYER1
  6
CONTINUOUS
 62
     5
 10
2901.899486
 20
156.410746
 11
2887.053249
 21
157.765083
  0
LINE
  8
CSLAYER1
  6
CONTINUOUS
 62
     5
 10
2887.053249
 20
157.765083
 11
2872.004039
 21
158.173735
  0
LINE
  8
CSLAYER1
  6
CONTINUOUS
 62
     5
 10
2872.053249
 20
158.172398
 11
2867.053249
 21
158.267692
  0
LINE
  8
CSLAYER1
  6
CONTINUOUS
 62
     5
 10
2867.053249
 20
158.730024
 11
2867.053249
 21
158.267692
  0
LINE
  8
CSLAYER1
  6
CONTINUOUS
 62
     5
 10
2924.553249
 20
150.765083
 11
2915.710690
 21
153.075745
  0
LINE
  8
CSLAYER1
  6
CONTINUOUS
 62
     5
 10
2901.899486
 20
156.410746
 11
2912.053249
 21
154.438363
  0
LINE
  8
CSLAYER1
  6
CONTINUOUS
 62
     5
 10
2912.053249
 20
154.438363
 11
2915.710690
 21
153.075745
  0
LINE
  8
CSLAYER1
  6
CONTINUOUS
 62
     5
 10
2924.553249
 20
150.765083
 11
2924.260631
 21
149.925977
  0
LINE
  8
CSLAYER1
  6
CONTINUOUS
 62
     5
 10
2934.053249
 20
145.265083
 11
2933.747221
 21
146.494064
  0
LINE
  8
CSLAYER1
  6
CONTINUOUS
 62
     5
 10
2924.260631
 20
149.925977
 11
2933.747221
 21
146.494064
  0
LINE
  8
CSLAYER1
  6
CONTINUOUS
 62
     5
 10
2870.553249
 20
150.765083
 11
2872.976287
 21
150.765083
  0
LINE
  8
CSLAYER1
  6
CONTINUOUS
 62
     5
 10
2893.053249
 20
151.197578
 11
2893.053249
 21
150.765083
  0
LINE
  8
CSLAYER1
  6
CONTINUOUS
 62
     5
 10
2892.053249
 20
151.732019
 11
2890.341969
 21
152.369197
  0
LINE
  8
CSLAYER1
  6
CONTINUOUS
 62
     5
 10
2890.341969
 20
152.369197
 11
2889.231913
 21
152.419655
  0
LINE
  8
CSLAYER1
  6
CONTINUOUS
 62
     5
 10
2889.231913
 20
152.419655
 11
2888.752571
 21
152.167369
  0
LINE
  8
CSLAYER1
  6
CONTINUOUS
 62
     5
 10
2888.752571
 20
152.167369
 11
2888.651657
 21
151.763712
  0
LINE
  8
CSLAYER1
  6
CONTINUOUS
 62
     5
 10
2888.651657
 20
151.763712
 11
2889.105771
 21
151.460970
  0
LINE
  8
CSLAYER1
  6
CONTINUOUS
 62
     5
 10
2889.105771
 20
151.460970
 11
2890.745626
 21
151.309599
  0
LINE
  8
CSLAYER1
  6
CONTINUOUS
 62
     5
 10
2890.745626
 20
151.309599
 11
2893.053249
 21
151.197578
  0
LINE
  8
CSLAYER1
  6
CONTINUOUS
 62
     5
 10
2934.053249
 20
145.265083
 11
2931.077706
 21
146.451664
  0
LINE
  8
CSLAYER1
  6
CONTINUOUS
 62
     5
 10
2931.077706
 20
146.451664
 11
2921.022016
 21
148.294539
  0
LINE
  8
CSLAYER1
  6
CONTINUOUS
 62
     5
 10
2921.022016
 20
148.294539
 11
2915.996236
 21
149.454335
  0
LINE
  8
CSLAYER1
  6
CONTINUOUS
 62
     5
 10
2893.587470
 20
151.765083
 11
2905.353136
 21
151.765083
  0
LINE
  8
CSLAYER1
  6
CONTINUOUS
 62
     5
 10
2892.053249
 20
151.732019
 11
2892.577908
 21
151.423552
  0
LINE
  8
CSLAYER1
  6
CONTINUOUS
 62
     5
 10
2892.577908
 20
151.423552
 11
2892.874720
 21
151.334508
  0
LINE
  8
CSLAYER1
  6
CONTINUOUS
 62
     5
 10
2892.874720
 20
151.334508
 11
2893.053249
 21
151.359679
  0
LINE
  8
CSLAYER1
  6
CONTINUOUS
 62
     5
 10
2893.053249
 20
151.359679
 11
2893.587470
 21
151.765083
  0
LINE
  8
CSLAYER1
  6
CONTINUOUS
 62
     5
 10
2905.353136
 20
151.765083
 11
2909.803405
 21
150.736257
  0
LINE
  8
CSLAYER1
  6
CONTINUOUS
 62
     5
 10
2909.803405
 20
150.736257
 11
2913.956596
 21
149.571108
  0
LINE
  8
CSLAYER1
  6
CONTINUOUS
 62
     5
 10
2913.956596
 20
149.571108
 11
2915.996236
 21
149.454335
  0
LINE
  8
CSLAYER1
  6
CONTINUOUS
 62
     5
 10
2869.553249
 20
149.765083
 11
2869.553249
 21
149.265083
  0
LINE
  8
CSLAYER1
  6
CONTINUOUS
 62
     5
 10
2867.053249
 20
149.265083
 11
2869.553249
 21
149.265083
  0
ARC
  8
CSLAYER1
  6
CONTINUOUS
 62
     5
 10
2870.553249
 20
149.765083
 40
1.000000
 50
90.000000
 51
180.000000
  0
LINE
  8
CSLAYER1
  6
CONTINUOUS
 62
     5
 10
2872.976287
 20
150.765083
 11
2873.673843
 21
150.193086
  0
LINE
  8
CSLAYER1
  6
CONTINUOUS
 62
     5
 10
2874.276212
 20
150.169125
 11
2875.133808
 21
150.765083
  0
LINE
  8
CSLAYER1
  6
CONTINUOUS
 62
     5
 10
2876.712204
 20
150.765083
 11
2878.379330
 21
150.107007
  0
LINE
  8
CSLAYER1
  6
CONTINUOUS
 62
     5
 10
2878.803039
 20
150.133519
 11
2879.956526
 21
150.765083
  0
LINE
  8
CSLAYER1
  6
CONTINUOUS
 62
     5
 10
2875.133808
 20
150.765083
 11
2876.712204
 21
150.765083
  0
LINE
  8
CSLAYER1
  6
CONTINUOUS
 62
     5
 10
2879.956526
 20
150.765083
 11
2893.053249
 21
150.765083
  0
LINE
  8
CSLAYER1
  6
CONTINUOUS
 62
     5
 10
2845.602232
 20
147.656256
 11
2867.053249
 21
149.265083
  0
LINE
  8
CSLAYER1
  6
CONTINUOUS
 62
     5
 10
2841.600881
 20
147.742307
 11
2845.602232
 21
147.656256
  0
ARC
  8
CSLAYER1
  6
CONTINUOUS
 62
     5
 10
2873.990883
 20
150.579720
 40
0.500000
 50
230.648247
 51
304.796026
  0
ARC
  8
CSLAYER1
  6
CONTINUOUS
 62
     5
 10
2878.562913
 20
150.572084
 40
0.500000
 50
248.459024
 51
298.701829
  0
ARC
  8
CSLAYER1
  6
CONTINUOUS
 62
     5
 10
2833.808636
 20
157.280194
 40
0.300000
 50
-84.093859
 51
36.869898
  0
ARC
  8
CSLAYER1
  6
CONTINUOUS
 62
     5
 10
2833.343032
 20
159.211465
 40
0.700000
 50
85.301319
 51
194.142980
  0
LINE
  8
CSLAYER1
  6
CONTINUOUS
 62
     3
 10
2865.535073
 20
141.998238
 11
2873.645569
 21
141.998238
  0
LINE
  8
CSLAYER1
  6
CONTINUOUS
 62
     3
 10
2859.122557
 20
140.398238
 11
2876.765897
 21
140.398238
  0
LINE
  8
CSLAYER1
  6
CONTINUOUS
 62
     3
 10
2855.709618
 20
138.798238
 11
2879.641262
 21
138.798238
  0
LINE
  8
CSLAYER1
  6
CONTINUOUS
 62
     3
 10
2853.474298
 20
137.198238
 11
2881.484735
 21
137.198238
  0
LINE
  8
CSLAYER1
  6
CONTINUOUS
 62
     3
 10
2851.978642
 20
135.598238
 11
2882.719021
 21
135.598238
  0
LINE
  8
CSLAYER1
  6
CONTINUOUS
 62
     3
 10
2850.758328
 20
133.998238
 11
2883.768397
 21
133.998238
  0
LINE
  8
CSLAYER1
  6
CONTINUOUS
 62
     3
 10
2850.066436
 20
132.398238
 11
2884.494272
 21
132.398238
  0
LINE
  8
CSLAYER1
  6
CONTINUOUS
 62
     3
 10
2849.374544
 20
130.798238
 11
2884.832658
 21
130.798238
  0
LINE
  8
CSLAYER1
  6
CONTINUOUS
 62
     3
 10
2848.726194
 20
129.198238
 11
2885.171044
 21
129.198238
  0
LINE
  8
CSLAYER1
  6
CONTINUOUS
 62
     3
 10
2848.404535
 20
127.598238
 11
2885.509431
 21
127.598238
  0
LINE
  8
CSLAYER1
  6
CONTINUOUS
 62
     3
 10
2848.082876
 20
125.998238
 11
2863.673119
 21
125.998238
  0
LINE
  8
CSLAYER1
  6
CONTINUOUS
 62
     3
 10
2847.761217
 20
124.398238
 11
2862.140858
 21
124.398238
  0
LINE
  8
CSLAYER1
  6
CONTINUOUS
 62
     3
 10
2847.439558
 20
122.798238
 11
2861.352689
 21
122.798238
  0
LINE
  8
CSLAYER1
  6
CONTINUOUS
 62
     3
 10
2847.198441
 20
121.198238
 11
2861.033921
 21
121.198238
  0
LINE
  8
CSLAYER1
  6
CONTINUOUS
 62
     3
 10
2847.078271
 20
119.598238
 11
2861.083942
 21
119.598238
  0
LINE
  8
CSLAYER1
  6
CONTINUOUS
 62
     3
 10
2847.053249
 20
117.998238
 11
2861.630029
 21
117.998238
  0
LINE
  8
CSLAYER1
  6
CONTINUOUS
 62
     3
 10
2847.552437
 20
116.398238
 11
2863.660032
 21
116.398238
  0
LINE
  8
CSLAYER1
  6
CONTINUOUS
 62
     3
 10
2848.263548
 20
114.798238
 11
2880.791403
 21
114.798238
  0
LINE
  8
CSLAYER1
  6
CONTINUOUS
 62
     3
 10
2848.974659
 20
113.198238
 11
2880.340121
 21
113.198238
  0
LINE
  8
CSLAYER1
  6
CONTINUOUS
 62
     3
 10
2849.685770
 20
111.598238
 11
2879.617097
 21
111.598238
  0
LINE
  8
CSLAYER1
  6
CONTINUOUS
 62
     3
 10
2850.647729
 20
109.998238
 11
2878.718910
 21
109.998238
  0
LINE
  8
CSLAYER1
  6
CONTINUOUS
 62
     3
 10
2851.896190
 20
108.398238
 11
2877.213984
 21
108.398238
  0
LINE
  8
CSLAYER1
  6
CONTINUOUS
 62
     3
 10
2853.501610
 20
106.798238
 11
2874.821524
 21
106.798238
  0
LINE
  8
CSLAYER1
  6
CONTINUOUS
 62
     3
 10
2855.648752
 20
105.198238
 11
2871.696400
 21
105.198238
  0
LINE
  8
CSLAYER1
  6
CONTINUOUS
 62
     3
 10
2858.896442
 20
103.598238
 11
2867.058251
 21
103.598238
  0
LINE
  8
CSLAYER1
  6
CONTINUOUS
 62
     3
 10
2868.864943
 20
125.998238
 11
2885.684680
 21
125.998238
  0
LINE
  8
CSLAYER1
  6
CONTINUOUS
 62
     3
 10
2869.535687
 20
124.398238
 11
2885.558911
 21
124.398238
  0
LINE
  8
CSLAYER1
  6
CONTINUOUS
 62
     3
 10
2869.647694
 20
122.798238
 11
2885.433141
 21
122.798238
  0
LINE
  8
CSLAYER1
  6
CONTINUOUS
 62
     3
 10
2869.402337
 20
121.198238
 11
2884.719285
 21
121.198238
  0
LINE
  8
CSLAYER1
  6
CONTINUOUS
 62
     3
 10
2868.750691
 20
119.598238
 11
2883.998085
 21
119.598238
  0
LINE
  8
CSLAYER1
  6
CONTINUOUS
 62
     3
 10
2867.617428
 20
117.998238
 11
2883.064137
 21
117.998238
  0
LINE
  8
CSLAYER1
  6
CONTINUOUS
 62
     3
 10
2865.361432
 20
116.398238
 11
2881.793430
 21
116.398238
  0
TEXT
  8
CSLAYER1
 62
     5
 10
2886.225126
 20
124.009411
 40
4.713448
 41
1.951056
  1
M
 50
0.000000
 51
0.000000
  7
EASYDRAW_FONT
 72
     5
 11
2892.355928
 21
124.009411
  0
TEXT
  8
CSLAYER1
 62
     5
 10
2895.876513
 20
123.951140
 40
4.626621
 41
0.778201
  1
T
 50
0.000000
 51
0.000000
  7
EASYDRAW_FONT
 72
     5
 11
2898.276807
 21
123.951140
  0
TEXT
  8
CSLAYER1
 62
     5
 10
2898.642076
 20
123.985939
 40
4.696183
 41
1.055553
  1
E
 50
0.000000
 51
0.000000
  7
EASYDRAW_FONT
 72
     5
 11
2901.946791
 21
123.985939
  0
TEXT
  8
CSLAYER1
 62
     5
 10
2901.758257
 20
125.601783
 40
0.348283
 41
9.375319
  1
-
 50
0.000000
 51
0.000000
  7
EASYDRAW_FONT
 72
     5
 11
2903.935102
 21
125.601783
  0
TEXT
  8
CSLAYER1
 62
     5
 10
2903.572467
 20
123.954592
 40
4.861659
 41
1.298502
  1
H
 50
0.000000
 51
0.000000
  7
EASYDRAW_FONT
 72
     5
 11
2907.781049
 21
123.954592
  0
TEXT
  8
CSLAYER1
 62
     5
 10
2907.648482
 20
123.984971
 40
4.843139
 41
1.269236
  1
A
 50
0.000000
 51
0.000000
  7
EASYDRAW_FONT
 72
     5
 11
2911.746538
 21
123.984971
  0
TEXT
  8
CSLAYER1
 62
     5
 10
2911.354638
 20
123.943444
 40
4.825362
 41
1.490144
  1
N
 50
0.000000
 51
0.000000
  7
EASYDRAW_FONT
 72
     5
 11
2916.148292
 21
123.943444
  0
TEXT
  8
CSLAYER1
 62
     5
 10
2892.146095
 20
123.920871
 40
4.982325
 41
1.177443
  1
A
 50
0.000000
 51
0.000000
  7
EASYDRAW_FONT
 72
     5
 11
2896.057030
 21
123.920871
  0
TEXT
  8
CSLAYER1
 62
     5
 10
2886.592140
 20
116.925632
 40
4.982325
 41
1.177443
  1
A
 50
0.000000
 51
0.000000
  7
EASYDRAW_FONT
 72
     5
 11
2890.503075
 21
116.925632
  0
TEXT
  8
CSLAYER1
 62
     5
 10
2899.376564
 20
116.953952
 40
4.982325
 41
1.177443
  1
A
 50
0.000000
 51
0.000000
  7
EASYDRAW_FONT
 72
     5
 11
2903.287498
 21
116.953952
  0
TEXT
  8
CSLAYER1
 62
     5
 10
2903.137108
 20
117.010949
 40
4.825362
 41
1.490144
  1
N
 50
0.000000
 51
0.000000
  7
EASYDRAW_FONT
 72
     5
 11
2907.930763
 21
117.010949
  0
TEXT
  8
CSLAYER1
 62
     5
 10
2912.039444
 20
117.019344
 40
4.841775
 41
1.184218
  1
E
 50
0.000000
 51
0.000000
  7
EASYDRAW_FONT
 72
     5
 11
2915.861923
 21
117.019344
  0
TEXT
  8
CSLAYER1
 62
     5
 10
2890.872694
 20
116.924307
 40
4.947865
 41
1.093992
  1
D
 50
0.000000
 51
0.000000
  7
EASYDRAW_FONT
 72
     5
 11
2894.481310
 21
116.924307
  0
TEXT
  8
CSLAYER1
 62
     5
 10
2895.275052
 20
116.918922
 40
4.924210
 41
1.228195
  1
V
 50
0.000000
 51
0.000000
  7
EASYDRAW_FONT
 72
     5
 11
2899.306979
 21
116.918922
  0
TEXT
  8
CSLAYER1
 62
     5
 10
2907.500253
 20
116.939654
 40
5.032894
 41
1.481023
  1
C
 50
0.000000
 51
0.000000
  7
EASYDRAW_FONT
 72
     5
 11
2912.469473
 21
116.939654
  0
LINE
  8
CSLAYER1
  6
CONTINUOUS
 62
     5
 10
2898.130585
 20
128.000055
 11
2897.118524
 21
128.000055
  0
LINE
  8
CSLAYER1
  6
CONTINUOUS
 62
     3
 10
2847.228824
 20
162.225326
 11
2897.026650
 21
162.225326
  0
LINE
  8
CSLAYER1
  6
CONTINUOUS
 62
     3
 10
2840.116460
 20
160.625326
 11
2908.106341
 21
160.625326
  0
LINE
  8
CSLAYER1
  6
CONTINUOUS
 62
     3
 10
2832.668055
 20
159.025326
 11
2878.091365
 21
159.025326
  0
LINE
  8
CSLAYER1
  6
CONTINUOUS
 62
     3
 10
2891.052915
 20
159.025326
 11
2900.639519
 21
159.025326
  0
LINE
  8
CSLAYER1
  6
CONTINUOUS
 62
     3
 10
2904.948652
 20
159.025326
 11
2913.461649
 21
159.025326
  0
LINE
  8
CSLAYER1
  6
CONTINUOUS
 62
     3
 10
2834.071194
 20
157.425326
 11
2890.777664
 21
157.425326
  0
LINE
  8
CSLAYER1
  6
CONTINUOUS
 62
     3
 10
2910.957802
 20
157.425326
 11
2917.064047
 21
157.425326
  0
LINE
  8
CSLAYER1
  6
CONTINUOUS
 62
     3
 10
2832.158861
 20
155.825326
 11
2904.913211
 21
155.825326
  0
LINE
  8
CSLAYER1
  6
CONTINUOUS
 62
     3
 10
2916.859100
 20
155.825326
 11
2919.092822
 21
155.825326
  0
LINE
  8
CSLAYER1
  6
CONTINUOUS
 62
     3
 10
2831.096635
 20
154.225326
 11
2912.625068
 21
154.225326
  0
LINE
  8
CSLAYER1
  6
CONTINUOUS
 62
     3
 10
2832.772302
 20
152.625326
 11
2917.434376
 21
152.625326
  0
LINE
  8
CSLAYER1
  6
CONTINUOUS
 62
     3
 10
2833.939870
 20
151.025326
 11
2893.053249
 21
151.025326
  0
LINE
  8
CSLAYER1
  6
CONTINUOUS
 62
     3
 10
2908.553014
 20
151.025326
 11
2923.557337
 21
151.025326
  0
LINE
  8
CSLAYER1
  6
CONTINUOUS
 62
     3
 10
2834.184993
 20
149.425326
 11
2869.553249
 21
149.425326
  0
LINE
  8
CSLAYER1
  6
CONTINUOUS
 62
     3
 10
2916.121942
 20
149.425326
 11
2925.644545
 21
149.425326
  0
LINE
  8
CSLAYER1
  6
CONTINUOUS
 62
     3
 10
2834.391318
 20
147.825326
 11
2847.856492
 21
147.825326
  0
LINE
  8
CSLAYER1
  6
CONTINUOUS
 62
     3
 10
2923.582291
 20
147.825326
 11
2930.067310
 21
147.825326
  0
LINE
  8
CSLAYER1
  6
CONTINUOUS
 62
     3
 10
2931.645285
 20
146.225326
 11
2933.814139
 21
146.225326
  0
ENDBLK
  8
0
  0
BLOCK
  8
CSLAYER1
  2
BLKF0001
 70
   64
 10
0.0
 20
0.0
 30
0.0
  0
TEXT
  8
CSLAYER1
 62
     7
 10
529.874268
 20
2331.911621
 40
40.000000
 41
0.778846
  1
電動式油圧ユニット
 50
0.000000
 51
0.000000
  7
EASYDRAW_FONT
 72
     5
 11
799.874268
 21
2331.911621
  0
LINE
  8
CSLAYER1
  6
CONTINUOUS
 62
     5
 10
252.168643
 20
2394.986562
 11
1097.100150
 21
2394.986562
  0
LINE
  8
CSLAYER1
  6
CONTINUOUS
 62
     5
 10
1097.100150
 20
2394.986562
 11
1097.100150
 21
1570.122714
  0
LINE
  8
CSLAYER1
  6
CONTINUOUS
 62
     5
 10
252.168643
 20
1570.122714
 11
252.168643
 21
2394.986562
  0
TEXT
  8
CSLAYER1
 62
     3
 10
413.412813
 20
2206.740530
 40
39.957333
 41
1.050000
  1
278
 50
30.000000
 51
0.000000
  7
EASYDRAW_FONT
 72
     5
 11
510.304195
 21
2262.680796
  0
TEXT
  8
CSLAYER1
 62
     3
 10
585.266636
 20
2246.849741
 40
39.957333
 41
1.050000
  1
415
 50
-30.000000
 51
0.000000
  7
EASYDRAW_FONT
 72
     5
 11
682.158018
 21
2190.909475
  0
TEXT
  8
CSLAYER1
 62
     3
 10
337.751158
 20
2050.800945
 40
39.957333
 41
1.050000
  1
275
 50
90.000000
 51
0.000000
  7
EASYDRAW_FONT
 72
     5
 11
337.751158
 21
2162.681477
  0
LINE
  8
CSLAYER1
  6
CONTINUOUS
 62
     5
 10
350.506838
 20
2159.689401
 11
394.459905
 21
2134.313086
  0
LINE
  8
CSLAYER1
  6
CONTINUOUS
 62
     5
 10
398.455638
 20
2187.372654
 11
398.455638
 21
2136.620024
  0
LINE
  8
CSLAYER1
  6
CONTINUOUS
 62
     5
 10
702.131372
 20
2173.531028
 11
702.131372
 21
2122.778398
  0
LINE
  8
CSLAYER1
  6
CONTINUOUS
 62
     5
 10
398.455638
 20
2178.144903
 11
538.306305
 21
2258.887723
  0
LINE
  8
CSLAYER1
  6
CONTINUOUS
 62
     5
 10
398.455638
 20
2178.144903
 11
419.668842
 21
2199.358106
  0
LINE
  8
CSLAYER1
  6
CONTINUOUS
 62
     5
 10
398.455638
 20
2178.144903
 11
427.433413
 21
2185.909474
  0
LINE
  8
CSLAYER1
  6
CONTINUOUS
 62
     5
 10
538.306305
 20
2258.887723
 11
517.093102
 21
2237.674520
  0
LINE
  8
CSLAYER1
  6
CONTINUOUS
 62
     5
 10
538.306305
 20
2258.887723
 11
509.328530
 21
2251.123152
  0
LINE
  8
CSLAYER1
  6
CONTINUOUS
 62
     5
 10
538.306305
 20
2258.887723
 11
702.131372
 21
2164.303277
  0
LINE
  8
CSLAYER1
  6
CONTINUOUS
 62
     5
 10
538.306305
 20
2258.887723
 11
567.284080
 21
2251.123152
  0
LINE
  8
CSLAYER1
  6
CONTINUOUS
 62
     5
 10
538.306305
 20
2258.887723
 11
559.519508
 21
2237.674520
  0
LINE
  8
CSLAYER1
  6
CONTINUOUS
 62
     5
 10
702.131372
 20
2164.303277
 11
673.153597
 21
2172.067848
  0
LINE
  8
CSLAYER1
  6
CONTINUOUS
 62
     5
 10
702.131372
 20
2164.303277
 11
680.918168
 21
2185.516480
  0
LINE
  8
CSLAYER1
  6
CONTINUOUS
 62
     5
 10
538.306305
 20
2268.115474
 11
538.306305
 21
2217.362844
  0
LINE
  8
CSLAYER1
  6
CONTINUOUS
 62
     5
 10
358.498305
 20
2155.075526
 11
358.498305
 21
2039.728640
  0
LINE
  8
CSLAYER1
  6
CONTINUOUS
 62
     5
 10
358.498305
 20
2155.075526
 11
350.733734
 21
2126.097751
  0
LINE
  8
CSLAYER1
  6
CONTINUOUS
 62
     5
 10
358.498305
 20
2155.075526
 11
366.262876
 21
2126.097751
  0
LINE
  8
CSLAYER1
  6
CONTINUOUS
 62
     5
 10
358.498305
 20
2039.728640
 11
350.733734
 21
2068.706415
  0
LINE
  8
CSLAYER1
  6
CONTINUOUS
 62
     5
 10
358.498305
 20
2039.728640
 11
366.262876
 21
2068.706415
  0
TEXT
  8
CSLAYER1
 62
     3
 10
839.207138
 20
2136.839693
 40
39.957333
 41
1.028571
  1
高圧ホース
 50
0.000000
 51
0.000000
  7
EASYDRAW_FONT
 72
     5
 11
1031.002335
 21
2136.839693
  0
TEXT
  8
CSLAYER1
 62
     3
 10
316.027725
 20
1890.589571
 40
39.957333
 41
1.028571
  1
電源コード
 50
0.000000
 51
0.000000
  7
EASYDRAW_FONT
 72
     5
 11
507.822922
 21
1890.589571
  0
LINE
  8
CSLAYER1
  6
CONTINUOUS
 62
     5
 10
738.844672
 20
1979.139666
 11
825.179395
 21
2128.675793
  0
LINE
  8
CSLAYER1
  6
CONTINUOUS
 62
     5
 10
738.844672
 20
1979.139666
 11
746.609243
 21
2008.117440
  0
LINE
  8
CSLAYER1
  6
CONTINUOUS
 62
     5
 10
738.844672
 20
1979.139666
 11
760.057875
 21
2000.352869
  0
LINE
  8
CSLAYER1
  6
CONTINUOUS
 62
     5
 10
1045.893860
 20
2128.675793
 11
825.179395
 21
2128.675793
  0
LINE
  8
CSLAYER1
  6
CONTINUOUS
 62
     5
 10
318.565747
 20
1883.158835
 11
512.308227
 21
1883.158835
  0
LINE
  8
CSLAYER1
  6
CONTINUOUS
 62
     3
 10
562.280705
 20
1922.074817
 11
603.436758
 21
1945.836275
  0
LINE
  8
CSLAYER1
  6
CONTINUOUS
 62
     3
 10
398.455638
 20
2016.659263
 11
408.444972
 21
2010.891919
  0
LINE
  8
CSLAYER1
  6
CONTINUOUS
 62
     3
 10
562.280705
 20
2037.421702
 11
562.280705
 21
1922.074817
  0
LINE
  8
CSLAYER1
  6
CONTINUOUS
 62
     3
 10
562.280705
 20
2037.421702
 11
702.131372
 21
2118.164522
  0
LINE
  8
CSLAYER1
  6
CONTINUOUS
 62
     3
 10
538.306305
 20
2212.748969
 11
702.131372
 21
2118.164522
  0
LINE
  8
CSLAYER1
  6
CONTINUOUS
 62
     3
 10
562.280705
 20
1945.144194
 11
583.458092
 21
1957.370964
  0
LINE
  8
CSLAYER1
  6
CONTINUOUS
 62
     3
 10
660.542957
 20
2049.898096
 11
702.131372
 21
2025.887014
  0
LINE
  8
CSLAYER1
  6
CONTINUOUS
 62
     3
 10
552.291372
 20
1927.842161
 11
562.280705
 21
1922.074817
  0
LINE
  8
CSLAYER1
  6
CONTINUOUS
 62
     3
 10
658.178305
 20
2051.724716
 11
656.733586
 21
2052.418368
  0
LINE
  8
CSLAYER1
  6
CONTINUOUS
 62
     3
 10
656.733586
 20
2052.418368
 11
655.178222
 21
2052.896054
  0
LINE
  8
CSLAYER1
  6
CONTINUOUS
 62
     3
 10
655.178222
 20
2052.896054
 11
653.524051
 21
2053.154139
  0
LINE
  8
CSLAYER1
  6
CONTINUOUS
 62
     3
 10
653.524051
 20
2053.154139
 11
651.783662
 21
2053.190659
  0
LINE
  8
CSLAYER1
  6
CONTINUOUS
 62
     3
 10
651.783662
 20
2053.190659
 11
649.970301
 21
2053.005336
  0
LINE
  8
CSLAYER1
  6
CONTINUOUS
 62
     3
 10
649.970301
 20
2053.005336
 11
648.097767
 21
2052.599581
  0
LINE
  8
CSLAYER1
  6
CONTINUOUS
 62
     3
 10
648.097767
 20
2052.599581
 11
646.180313
 21
2051.976481
  0
LINE
  8
CSLAYER1
  6
CONTINUOUS
 62
     3
 10
646.180313
 20
2051.976481
 11
644.232531
 21
2051.140778
  0
LINE
  8
CSLAYER1
  6
CONTINUOUS
 62
     3
 10
644.232531
 20
2051.140778
 11
642.269244
 21
2050.098834
  0
LINE
  8
CSLAYER1
  6
CONTINUOUS
 62
     3
 10
642.269244
 20
2050.098834
 11
640.305396
 21
2048.858577
  0
LINE
  8
CSLAYER1
  6
CONTINUOUS
 62
     3
 10
640.305396
 20
2048.858577
 11
638.355931
 21
2047.429447
  0
LINE
  8
CSLAYER1
  6
CONTINUOUS
 62
     3
 10
638.355931
 20
2047.429447
 11
636.435687
 21
2045.822321
  0
LINE
  8
CSLAYER1
  6
CONTINUOUS
 62
     3
 10
636.435687
 20
2045.822321
 11
634.559278
 21
2044.049428
  0
LINE
  8
CSLAYER1
  6
CONTINUOUS
 62
     3
 10
634.559278
 20
2044.049428
 11
632.740984
 21
2042.124264
  0
LINE
  8
CSLAYER1
  6
CONTINUOUS
 62
     3
 10
632.740984
 20
2042.124264
 11
630.994643
 21
2040.061478
  0
LINE
  8
CSLAYER1
  6
CONTINUOUS
 62
     3
 10
630.994643
 20
2040.061478
 11
629.333547
 21
2037.876770
  0
LINE
  8
CSLAYER1
  6
CONTINUOUS
 62
     3
 10
629.333547
 20
2037.876770
 11
627.770337
 21
2035.586767
  0
LINE
  8
CSLAYER1
  6
CONTINUOUS
 62
     3
 10
627.770337
 20
2035.586767
 11
626.316910
 21
2033.208898
  0
LINE
  8
CSLAYER1
  6
CONTINUOUS
 62
     3
 10
626.316910
 20
2033.208898
 11
624.984328
 21
2030.761258
  0
LINE
  8
CSLAYER1
  6
CONTINUOUS
 62
     3
 10
624.984328
 20
2030.761258
 11
623.782733
 21
2028.262477
  0
LINE
  8
CSLAYER1
  6
CONTINUOUS
 62
     3
 10
623.782733
 20
2028.262477
 11
622.721268
 21
2025.731572
  0
LINE
  8
CSLAYER1
  6
CONTINUOUS
 62
     3
 10
622.721268
 20
2025.731572
 11
621.808013
 21
2023.187804
  0
LINE
  8
CSLAYER1
  6
CONTINUOUS
 62
     3
 10
621.808013
 20
2023.187804
 11
621.049919
 21
2020.650532
  0
LINE
  8
CSLAYER1
  6
CONTINUOUS
 62
     3
 10
621.049919
 20
2020.650532
 11
620.452754
 21
2018.139068
  0
LINE
  8
CSLAYER1
  6
CONTINUOUS
 62
     3
 10
620.452754
 20
2018.139068
 11
620.021064
 21
2015.672524
  0
LINE
  8
CSLAYER1
  6
CONTINUOUS
 62
     3
 10
620.021064
 20
2015.672524
 11
619.758133
 21
2013.269674
  0
LINE
  8
CSLAYER1
  6
CONTINUOUS
 62
     3
 10
619.758133
 20
2013.269674
 11
619.665963
 21
2010.948803
  0
LINE
  8
CSLAYER1
  6
CONTINUOUS
 62
     3
 10
619.665963
 20
2010.948803
 11
619.745256
 21
2008.727575
  0
LINE
  8
CSLAYER1
  6
CONTINUOUS
 62
     3
 10
619.745256
 20
2008.727575
 11
619.995408
 21
2006.622895
  0
LINE
  8
CSLAYER1
  6
CONTINUOUS
 62
     3
 10
619.995408
 20
2006.622895
 11
620.414515
 21
2004.650781
  0
LINE
  8
CSLAYER1
  6
CONTINUOUS
 62
     3
 10
620.414515
 20
2004.650781
 11
620.999387
 21
2002.826241
  0
LINE
  8
CSLAYER1
  6
CONTINUOUS
 62
     3
 10
620.999387
 20
2002.826241
 11
621.745573
 21
2001.163162
  0
LINE
  8
CSLAYER1
  6
CONTINUOUS
 62
     3
 10
621.745573
 20
2001.163162
 11
622.647395
 21
1999.674201
  0
LINE
  8
CSLAYER1
  6
CONTINUOUS
 62
     3
 10
622.647395
 20
1999.674201
 11
623.697989
 21
1998.370690
  0
LINE
  8
CSLAYER1
  6
CONTINUOUS
 62
     3
 10
624.889359
 20
1997.262549
 11
626.212438
 21
1996.358211
  0
LINE
  8
CSLAYER1
  6
CONTINUOUS
 62
     3
 10
626.212438
 20
1996.358211
 11
627.657157
 21
1995.664560
  0
LINE
  8
CSLAYER1
  6
CONTINUOUS
 62
     3
 10
627.657157
 20
1995.664560
 11
629.212521
 21
1995.186874
  0
LINE
  8
CSLAYER1
  6
CONTINUOUS
 62
     3
 10
629.212521
 20
1995.186874
 11
630.866692
 21
1994.928788
  0
LINE
  8
CSLAYER1
  6
CONTINUOUS
 62
     3
 10
630.866692
 20
1994.928788
 11
632.607081
 21
1994.892268
  0
LINE
  8
CSLAYER1
  6
CONTINUOUS
 62
     3
 10
632.607081
 20
1994.892268
 11
634.420442
 21
1995.077591
  0
LINE
  8
CSLAYER1
  6
CONTINUOUS
 62
     3
 10
634.420442
 20
1995.077591
 11
636.292976
 21
1995.483347
  0
LINE
  8
CSLAYER1
  6
CONTINUOUS
 62
     3
 10
636.292976
 20
1995.483347
 11
638.210430
 21
1996.106447
  0
LINE
  8
CSLAYER1
  6
CONTINUOUS
 62
     3
 10
638.210430
 20
1996.106447
 11
640.158213
 21
1996.942149
  0
LINE
  8
CSLAYER1
  6
CONTINUOUS
 62
     3
 10
640.158213
 20
1996.942149
 11
642.121499
 21
1997.984093
  0
LINE
  8
CSLAYER1
  6
CONTINUOUS
 62
     3
 10
642.121499
 20
1997.984093
 11
644.085347
 21
1999.224350
  0
LINE
  8
CSLAYER1
  6
CONTINUOUS
 62
     3
 10
644.085347
 20
1999.224350
 11
646.034812
 21
2000.653480
  0
LINE
  8
CSLAYER1
  6
CONTINUOUS
 62
     3
 10
646.034812
 20
2000.653480
 11
647.955056
 21
2002.260607
  0
LINE
  8
CSLAYER1
  6
CONTINUOUS
 62
     3
 10
647.955056
 20
2002.260607
 11
649.831465
 21
2004.033499
  0
LINE
  8
CSLAYER1
  6
CONTINUOUS
 62
     3
 10
649.831465
 20
2004.033499
 11
651.649759
 21
2005.958664
  0
LINE
  8
CSLAYER1
  6
CONTINUOUS
 62
     3
 10
651.649759
 20
2005.958664
 11
653.396100
 21
2008.021449
  0
LINE
  8
CSLAYER1
  6
CONTINUOUS
 62
     3
 10
653.396100
 20
2008.021449
 11
655.057196
 21
2010.206157
  0
LINE
  8
CSLAYER1
  6
CONTINUOUS
 62
     3
 10
655.057196
 20
2010.206157
 11
656.620406
 21
2012.496160
  0
LINE
  8
CSLAYER1
  6
CONTINUOUS
 62
     3
 10
656.620406
 20
2012.496160
 11
658.073833
 21
2014.874030
  0
LINE
  8
CSLAYER1
  6
CONTINUOUS
 62
     3
 10
658.073833
 20
2014.874030
 11
659.406415
 21
2017.321669
  0
LINE
  8
CSLAYER1
  6
CONTINUOUS
 62
     3
 10
659.406415
 20
2017.321669
 11
660.608011
 21
2019.820450
  0
LINE
  8
CSLAYER1
  6
CONTINUOUS
 62
     3
 10
660.608011
 20
2019.820450
 11
661.669475
 21
2022.351355
  0
LINE
  8
CSLAYER1
  6
CONTINUOUS
 62
     3
 10
661.669475
 20
2022.351355
 11
662.582730
 21
2024.895124
  0
LINE
  8
CSLAYER1
  6
CONTINUOUS
 62
     3
 10
662.582730
 20
2024.895124
 11
663.340824
 21
2027.432395
  0
LINE
  8
CSLAYER1
  6
CONTINUOUS
 62
     3
 10
663.340824
 20
2027.432395
 11
663.937989
 21
2029.943859
  0
LINE
  8
CSLAYER1
  6
CONTINUOUS
 62
     3
 10
663.937989
 20
2029.943859
 11
664.369680
 21
2032.410403
  0
LINE
  8
CSLAYER1
  6
CONTINUOUS
 62
     3
 10
664.369680
 20
2032.410403
 11
664.632610
 21
2034.813253
  0
LINE
  8
CSLAYER1
  6
CONTINUOUS
 62
     3
 10
664.632610
 20
2034.813253
 11
664.724780
 21
2037.134124
  0
LINE
  8
CSLAYER1
  6
CONTINUOUS
 62
     3
 10
664.724780
 20
2037.134124
 11
664.645487
 21
2039.355352
  0
LINE
  8
CSLAYER1
  6
CONTINUOUS
 62
     3
 10
664.645487
 20
2039.355352
 11
664.395335
 21
2041.460032
  0
LINE
  8
CSLAYER1
  6
CONTINUOUS
 62
     3
 10
664.395335
 20
2041.460032
 11
663.976229
 21
2043.432147
  0
LINE
  8
CSLAYER1
  6
CONTINUOUS
 62
     3
 10
663.976229
 20
2043.432147
 11
663.391356
 21
2045.256686
  0
LINE
  8
CSLAYER1
  6
CONTINUOUS
 62
     3
 10
663.391356
 20
2045.256686
 11
662.645170
 21
2046.919765
  0
LINE
  8
CSLAYER1
  6
CONTINUOUS
 62
     3
 10
662.645170
 20
2046.919765
 11
661.743348
 21
2048.408726
  0
LINE
  8
CSLAYER1
  6
CONTINUOUS
 62
     3
 10
661.743348
 20
2048.408726
 11
660.692754
 21
2049.712237
  0
LINE
  8
CSLAYER1
  6
CONTINUOUS
 62
     3
 10
660.692754
 20
2049.712237
 11
659.501384
 21
2050.820378
  0
LINE
  8
CSLAYER1
  6
CONTINUOUS
 62
     3
 10
659.501384
 20
2050.820378
 11
658.178305
 21
2051.724716
  0
LINE
  8
CSLAYER1
  6
CONTINUOUS
 62
     3
 10
562.280705
 20
2033.269214
 11
626.212438
 21
1996.358211
  0
LINE
  8
CSLAYER1
  6
CONTINUOUS
 62
     3
 10
622.616278
 20
2072.256462
 11
658.178305
 21
2051.724716
  0
LINE
  8
CSLAYER1
  6
CONTINUOUS
 62
     3
 10
408.444972
 20
2010.891919
 11
428.423638
 21
2022.426607
  0
LINE
  8
CSLAYER1
  6
CONTINUOUS
 62
     3
 10
398.455638
 20
2016.659263
 11
418.434305
 21
2028.193951
  0
LINE
  8
CSLAYER1
  6
CONTINUOUS
 62
     3
 10
648.188972
 20
2034.422683
 11
647.647202
 21
2034.682803
  0
LINE
  8
CSLAYER1
  6
CONTINUOUS
 62
     3
 10
647.647202
 20
2034.682803
 11
647.063941
 21
2034.861935
  0
LINE
  8
CSLAYER1
  6
CONTINUOUS
 62
     3
 10
647.063941
 20
2034.861935
 11
646.443627
 21
2034.958717
  0
LINE
  8
CSLAYER1
  6
CONTINUOUS
 62
     3
 10
646.443627
 20
2034.958717
 11
645.790981
 21
2034.972412
  0
LINE
  8
CSLAYER1
  6
CONTINUOUS
 62
     3
 10
645.790981
 20
2034.972412
 11
645.110970
 21
2034.902916
  0
LINE
  8
CSLAYER1
  6
CONTINUOUS
 62
     3
 10
645.110970
 20
2034.902916
 11
644.408770
 21
2034.750757
  0
LINE
  8
CSLAYER1
  6
CONTINUOUS
 62
     3
 10
644.408770
 20
2034.750757
 11
643.689725
 21
2034.517095
  0
LINE
  8
CSLAYER1
  6
CONTINUOUS
 62
     3
 10
643.689725
 20
2034.517095
 11
642.959306
 21
2034.203707
  0
LINE
  8
CSLAYER1
  6
CONTINUOUS
 62
     3
 10
642.959306
 20
2034.203707
 11
642.223074
 21
2033.812977
  0
LINE
  8
CSLAYER1
  6
CONTINUOUS
 62
     3
 10
642.223074
 20
2033.812977
 11
641.486631
 21
2033.347881
  0
LINE
  8
CSLAYER1
  6
CONTINUOUS
 62
     3
 10
641.486631
 20
2033.347881
 11
640.755582
 21
2032.811957
  0
LINE
  8
CSLAYER1
  6
CONTINUOUS
 62
     3
 10
640.755582
 20
2032.811957
 11
640.035490
 21
2032.209285
  0
LINE
  8
CSLAYER1
  6
CONTINUOUS
 62
     3
 10
640.035490
 20
2032.209285
 11
639.331836
 21
2031.544450
  0
LINE
  8
CSLAYER1
  6
CONTINUOUS
 62
     3
 10
639.331836
 20
2031.544450
 11
638.649976
 21
2030.822514
  0
LINE
  8
CSLAYER1
  6
CONTINUOUS
 62
     3
 10
638.649976
 20
2030.822514
 11
637.995098
 21
2030.048969
  0
LINE
  8
CSLAYER1
  6
CONTINUOUS
 62
     3
 10
637.995098
 20
2030.048969
 11
637.372187
 21
2029.229703
  0
LINE
  8
CSLAYER1
  6
CONTINUOUS
 62
     3
 10
637.372187
 20
2029.229703
 11
636.785984
 21
2028.370952
  0
LINE
  8
CSLAYER1
  6
CONTINUOUS
 62
     3
 10
636.785984
 20
2028.370952
 11
636.240949
 21
2027.479251
  0
LINE
  8
CSLAYER1
  6
CONTINUOUS
 62
     3
 10
636.240949
 20
2027.479251
 11
635.741230
 21
2026.561387
  0
LINE
  8
CSLAYER1
  6
CONTINUOUS
 62
     3
 10
635.741230
 20
2026.561387
 11
635.290632
 21
2025.624344
  0
LINE
  8
CSLAYER1
  6
CONTINUOUS
 62
     3
 10
635.290632
 20
2025.624344
 11
634.892583
 21
2024.675254
  0
LINE
  8
CSLAYER1
  6
CONTINUOUS
 62
     3
 10
634.892583
 20
2024.675254
 11
634.550112
 21
2023.721341
  0
LINE
  8
CSLAYER1
  6
CONTINUOUS
 62
     3
 10
634.550112
 20
2023.721341
 11
634.265827
 21
2022.769864
  0
LINE
  8
CSLAYER1
  6
CONTINUOUS
 62
     3
 10
634.265827
 20
2022.769864
 11
634.041890
 21
2021.828065
  0
LINE
  8
CSLAYER1
  6
CONTINUOUS
 62
     3
 10
634.041890
 20
2021.828065
 11
633.880006
 21
2020.903111
  0
LINE
  8
CSLAYER1
  6
CONTINUOUS
 62
     3
 10
633.880006
 20
2020.903111
 11
633.781407
 21
2020.002042
  0
LINE
  8
CSLAYER1
  6
CONTINUOUS
 62
     3
 10
633.781407
 20
2020.002042
 11
633.746844
 21
2019.131716
  0
LINE
  8
CSLAYER1
  6
CONTINUOUS
 62
     3
 10
633.746844
 20
2019.131716
 11
633.776578
 21
2018.298755
  0
LINE
  8
CSLAYER1
  6
CONTINUOUS
 62
     3
 10
633.776578
 20
2018.298755
 11
633.870385
 21
2017.509500
  0
LINE
  8
CSLAYER1
  6
CONTINUOUS
 62
     3
 10
633.870385
 20
2017.509500
 11
634.027550
 21
2016.769957
  0
LINE
  8
CSLAYER1
  6
CONTINUOUS
 62
     3
 10
634.027550
 20
2016.769957
 11
634.246877
 21
2016.085755
  0
LINE
  8
CSLAYER1
  6
CONTINUOUS
 62
     3
 10
634.246877
 20
2016.085755
 11
634.526697
 21
2015.462101
  0
LINE
  8
CSLAYER1
  6
CONTINUOUS
 62
     3
 10
634.526697
 20
2015.462101
 11
634.864881
 21
2014.903740
  0
LINE
  8
CSLAYER1
  6
CONTINUOUS
 62
     3
 10
634.864881
 20
2014.903740
 11
635.258853
 21
2014.414923
  0
LINE
  8
CSLAYER1
  6
CONTINUOUS
 62
     3
 10
635.258853
 20
2014.414923
 11
635.705617
 21
2013.999370
  0
LINE
  8
CSLAYER1
  6
CONTINUOUS
 62
     3
 10
635.705617
 20
2013.999370
 11
636.201772
 21
2013.660244
  0
LINE
  8
CSLAYER1
  6
CONTINUOUS
 62
     3
 10
636.201772
 20
2013.660244
 11
636.743541
 21
2013.400125
  0
LINE
  8
CSLAYER1
  6
CONTINUOUS
 62
     3
 10
636.743541
 20
2013.400125
 11
637.326803
 21
2013.220992
  0
LINE
  8
CSLAYER1
  6
CONTINUOUS
 62
     3
 10
637.326803
 20
2013.220992
 11
637.947117
 21
2013.124210
  0
LINE
  8
CSLAYER1
  6
CONTINUOUS
 62
     3
 10
637.947117
 20
2013.124210
 11
638.599763
 21
2013.110515
  0
LINE
  8
CSLAYER1
  6
CONTINUOUS
 62
     3
 10
638.599763
 20
2013.110515
 11
639.279773
 21
2013.180011
  0
LINE
  8
CSLAYER1
  6
CONTINUOUS
 62
     3
 10
639.279773
 20
2013.180011
 11
639.981973
 21
2013.332170
  0
LINE
  8
CSLAYER1
  6
CONTINUOUS
 62
     3
 10
639.981973
 20
2013.332170
 11
640.701019
 21
2013.565832
  0
LINE
  8
CSLAYER1
  6
CONTINUOUS
 62
     3
 10
640.701019
 20
2013.565832
 11
641.431437
 21
2013.879221
  0
LINE
  8
CSLAYER1
  6
CONTINUOUS
 62
     3
 10
641.431437
 20
2013.879221
 11
642.167669
 21
2014.269950
  0
LINE
  8
CSLAYER1
  6
CONTINUOUS
 62
     3
 10
642.167669
 20
2014.269950
 11
642.904112
 21
2014.735046
  0
LINE
  8
CSLAYER1
  6
CONTINUOUS
 62
     3
 10
642.904112
 20
2014.735046
 11
643.635162
 21
2015.270970
  0
LINE
  8
CSLAYER1
  6
CONTINUOUS
 62
     3
 10
643.635162
 20
2015.270970
 11
644.355253
 21
2015.873642
  0
LINE
  8
CSLAYER1
  6
CONTINUOUS
 62
     3
 10
644.355253
 20
2015.873642
 11
645.058907
 21
2016.538477
  0
LINE
  8
CSLAYER1
  6
CONTINUOUS
 62
     3
 10
645.058907
 20
2016.538477
 11
645.740767
 21
2017.260414
  0
LINE
  8
CSLAYER1
  6
CONTINUOUS
 62
     3
 10
645.740767
 20
2017.260414
 11
646.395645
 21
2018.033958
  0
LINE
  8
CSLAYER1
  6
CONTINUOUS
 62
     3
 10
646.395645
 20
2018.033958
 11
647.018556
 21
2018.853224
  0
LINE
  8
CSLAYER1
  6
CONTINUOUS
 62
     3
 10
647.018556
 20
2018.853224
 11
647.604760
 21
2019.711975
  0
LINE
  8
CSLAYER1
  6
CONTINUOUS
 62
     3
 10
647.604760
 20
2019.711975
 11
648.149795
 21
2020.603676
  0
LINE
  8
CSLAYER1
  6
CONTINUOUS
 62
     3
 10
648.149795
 20
2020.603676
 11
648.649513
 21
2021.521541
  0
LINE
  8
CSLAYER1
  6
CONTINUOUS
 62
     3
 10
648.649513
 20
2021.521541
 11
649.100111
 21
2022.458583
  0
LINE
  8
CSLAYER1
  6
CONTINUOUS
 62
     3
 10
649.100111
 20
2022.458583
 11
649.498160
 21
2023.407673
  0
LINE
  8
CSLAYER1
  6
CONTINUOUS
 62
     3
 10
649.498160
 20
2023.407673
 11
649.840631
 21
2024.361586
  0
LINE
  8
CSLAYER1
  6
CONTINUOUS
 62
     3
 10
649.840631
 20
2024.361586
 11
650.124916
 21
2025.313063
  0
LINE
  8
CSLAYER1
  6
CONTINUOUS
 62
     3
 10
650.124916
 20
2025.313063
 11
650.348853
 21
2026.254862
  0
LINE
  8
CSLAYER1
  6
CONTINUOUS
 62
     3
 10
650.348853
 20
2026.254862
 11
650.510737
 21
2027.179816
  0
LINE
  8
CSLAYER1
  6
CONTINUOUS
 62
     3
 10
650.510737
 20
2027.179816
 11
650.609336
 21
2028.080885
  0
LINE
  8
CSLAYER1
  6
CONTINUOUS
 62
     3
 10
650.609336
 20
2028.080885
 11
650.643900
 21
2028.951211
  0
LINE
  8
CSLAYER1
  6
CONTINUOUS
 62
     3
 10
650.643900
 20
2028.951211
 11
650.614165
 21
2029.784172
  0
LINE
  8
CSLAYER1
  6
CONTINUOUS
 62
     3
 10
650.614165
 20
2029.784172
 11
650.520358
 21
2030.573427
  0
LINE
  8
CSLAYER1
  6
CONTINUOUS
 62
     3
 10
650.520358
 20
2030.573427
 11
650.363193
 21
2031.312970
  0
LINE
  8
CSLAYER1
  6
CONTINUOUS
 62
     3
 10
650.363193
 20
2031.312970
 11
650.143866
 21
2031.997172
  0
LINE
  8
CSLAYER1
  6
CONTINUOUS
 62
     3
 10
650.143866
 20
2031.997172
 11
649.864046
 21
2032.620826
  0
LINE
  8
CSLAYER1
  6
CONTINUOUS
 62
     3
 10
649.864046
 20
2032.620826
 11
649.525863
 21
2033.179187
  0
LINE
  8
CSLAYER1
  6
CONTINUOUS
 62
     3
 10
649.525863
 20
2033.179187
 11
649.131890
 21
2033.668004
  0
LINE
  8
CSLAYER1
  6
CONTINUOUS
 62
     3
 10
649.131890
 20
2033.668004
 11
648.685126
 21
2034.083557
  0
LINE
  8
CSLAYER1
  6
CONTINUOUS
 62
     3
 10
648.685126
 20
2034.083557
 11
648.188972
 21
2034.422683
  0
LINE
  8
CSLAYER1
  6
CONTINUOUS
 62
     3
 10
636.201772
 20
2080.100050
 11
702.131372
 21
2042.035578
  0
LINE
  8
CSLAYER1
  6
CONTINUOUS
 62
     3
 10
552.291372
 20
1927.842161
 11
562.280705
 21
1933.609505
  0
LINE
  8
CSLAYER1
  6
CONTINUOUS
 62
     3
 10
659.411679
 20
2017.331337
 11
960.525295
 21
1843.483310
  0
LINE
  8
CSLAYER1
  6
CONTINUOUS
 62
     3
 10
562.280705
 20
1975.134384
 11
737.259879
 21
1874.110111
  0
LINE
  8
CSLAYER1
  6
CONTINUOUS
 62
     3
 10
562.280705
 20
1969.597733
 11
711.068970
 21
1883.694788
  0
LINE
  8
CSLAYER1
  6
CONTINUOUS
 62
     3
 10
588.252972
 20
1960.139289
 11
668.362092
 21
2006.390311
  0
LINE
  8
CSLAYER1
  6
CONTINUOUS
 62
     3
 10
608.231638
 20
1948.604600
 11
688.340758
 21
1994.855622
  0
LINE
  8
CSLAYER1
  6
CONTINUOUS
 62
     3
 10
673.362092
 20
2009.277062
 11
702.131372
 21
2025.887014
  0
LINE
  8
CSLAYER1
  6
CONTINUOUS
 62
     3
 10
693.340758
 20
1997.742374
 11
702.131372
 21
2002.817637
  0
LINE
  8
CSLAYER1
  6
CONTINUOUS
 62
     3
 10
752.443666
 20
1843.658533
 11
752.185182
 21
1847.054259
  0
LINE
  8
CSLAYER1
  6
CONTINUOUS
 62
     3
 10
752.185182
 20
1847.054259
 11
751.411695
 21
1850.424143
  0
LINE
  8
CSLAYER1
  6
CONTINUOUS
 62
     3
 10
751.411695
 20
1850.424143
 11
750.129094
 21
1853.742535
  0
LINE
  8
CSLAYER1
  6
CONTINUOUS
 62
     3
 10
750.129094
 20
1853.742535
 11
748.347139
 21
1856.984183
  0
LINE
  8
CSLAYER1
  6
CONTINUOUS
 62
     3
 10
748.347139
 20
1856.984183
 11
746.079391
 21
1860.124414
  0
LINE
  8
CSLAYER1
  6
CONTINUOUS
 62
     3
 10
746.079391
 20
1860.124414
 11
743.343111
 21
1863.139330
  0
LINE
  8
CSLAYER1
  6
CONTINUOUS
 62
     3
 10
743.343111
 20
1863.139330
 11
740.159123
 21
1866.005985
  0
LINE
  8
CSLAYER1
  6
CONTINUOUS
 62
     3
 10
740.159123
 20
1866.005985
 11
736.551658
 21
1868.702563
  0
LINE
  8
CSLAYER1
  6
CONTINUOUS
 62
     3
 10
736.551658
 20
1868.702563
 11
732.548172
 21
1871.208540
  0
LINE
  8
CSLAYER1
  6
CONTINUOUS
 62
     3
 10
732.548172
 20
1871.208540
 11
728.179133
 21
1873.504845
  0
LINE
  8
CSLAYER1
  6
CONTINUOUS
 62
     3
 10
728.179133
 20
1873.504845
 11
723.477794
 21
1875.574002
  0
LINE
  8
CSLAYER1
  6
CONTINUOUS
 62
     3
 10
723.477794
 20
1875.574002
 11
718.479933
 21
1877.400263
  0
LINE
  8
CSLAYER1
  6
CONTINUOUS
 62
     3
 10
718.479933
 20
1877.400263
 11
713.223587
 21
1878.969729
  0
LINE
  8
CSLAYER1
  6
CONTINUOUS
 62
     3
 10
713.223587
 20
1878.969729
 11
707.748761
 21
1880.270455
  0
LINE
  8
CSLAYER1
  6
CONTINUOUS
 62
     3
 10
707.748761
 20
1880.270455
 11
702.097121
 21
1881.292543
  0
LINE
  8
CSLAYER1
  6
CONTINUOUS
 62
     3
 10
702.097121
 20
1881.292543
 11
696.311680
 21
1882.028213
  0
LINE
  8
CSLAYER1
  6
CONTINUOUS
 62
     3
 10
696.311680
 20
1882.028213
 11
690.436468
 21
1882.471866
  0
LINE
  8
CSLAYER1
  6
CONTINUOUS
 62
     3
 10
690.436468
 20
1882.471866
 11
684.516199
 21
1882.620127
  0
LINE
  8
CSLAYER1
  6
CONTINUOUS
 62
     3
 10
684.516199
 20
1882.620127
 11
678.595931
 21
1882.471866
  0
LINE
  8
CSLAYER1
  6
CONTINUOUS
 62
     3
 10
678.595931
 20
1882.471866
 11
672.720719
 21
1882.028213
  0
LINE
  8
CSLAYER1
  6
CONTINUOUS
 62
     3
 10
672.720719
 20
1882.028213
 11
666.935277
 21
1881.292543
  0
LINE
  8
CSLAYER1
  6
CONTINUOUS
 62
     3
 10
666.935277
 20
1881.292543
 11
661.283638
 21
1880.270455
  0
LINE
  8
CSLAYER1
  6
CONTINUOUS
 62
     3
 10
661.283638
 20
1880.270455
 11
655.808812
 21
1878.969729
  0
LINE
  8
CSLAYER1
  6
CONTINUOUS
 62
     3
 10
655.808812
 20
1878.969729
 11
650.552466
 21
1877.400263
  0
LINE
  8
CSLAYER1
  6
CONTINUOUS
 62
     3
 10
650.552466
 20
1877.400263
 11
645.554605
 21
1875.574002
  0
LINE
  8
CSLAYER1
  6
CONTINUOUS
 62
     3
 10
645.554605
 20
1875.574002
 11
640.853265
 21
1873.504845
  0
LINE
  8
CSLAYER1
  6
CONTINUOUS
 62
     3
 10
640.853265
 20
1873.504845
 11
636.484227
 21
1871.208540
  0
LINE
  8
CSLAYER1
  6
CONTINUOUS
 62
     3
 10
636.484227
 20
1871.208540
 11
632.480741
 21
1868.702563
  0
LINE
  8
CSLAYER1
  6
CONTINUOUS
 62
     3
 10
632.480741
 20
1868.702563
 11
628.873276
 21
1866.005985
  0
LINE
  8
CSLAYER1
  6
CONTINUOUS
 62
     3
 10
628.873276
 20
1866.005985
 11
625.689288
 21
1863.139330
  0
LINE
  8
CSLAYER1
  6
CONTINUOUS
 62
     3
 10
625.689288
 20
1863.139330
 11
622.953007
 21
1860.124414
  0
LINE
  8
CSLAYER1
  6
CONTINUOUS
 62
     3
 10
622.953007
 20
1860.124414
 11
620.685260
 21
1856.984183
  0
LINE
  8
CSLAYER1
  6
CONTINUOUS
 62
     3
 10
620.685260
 20
1856.984183
 11
618.903305
 21
1853.742535
  0
LINE
  8
CSLAYER1
  6
CONTINUOUS
 62
     3
 10
618.903305
 20
1853.742535
 11
617.620704
 21
1850.424143
  0
LINE
  8
CSLAYER1
  6
CONTINUOUS
 62
     3
 10
617.620704
 20
1850.424143
 11
616.847217
 21
1847.054259
  0
LINE
  8
CSLAYER1
  6
CONTINUOUS
 62
     3
 10
616.847217
 20
1847.054259
 11
616.588733
 21
1843.658533
  0
LINE
  8
CSLAYER1
  6
CONTINUOUS
 62
     3
 10
616.588733
 20
1843.658533
 11
616.847217
 21
1840.262806
  0
LINE
  8
CSLAYER1
  6
CONTINUOUS
 62
     3
 10
616.847217
 20
1840.262806
 11
617.620704
 21
1836.892923
  0
LINE
  8
CSLAYER1
  6
CONTINUOUS
 62
     3
 10
617.620704
 20
1836.892923
 11
618.903305
 21
1833.574530
  0
LINE
  8
CSLAYER1
  6
CONTINUOUS
 62
     3
 10
618.903305
 20
1833.574530
 11
620.685260
 21
1830.332883
  0
LINE
  8
CSLAYER1
  6
CONTINUOUS
 62
     3
 10
620.685260
 20
1830.332883
 11
622.953007
 21
1827.192651
  0
LINE
  8
CSLAYER1
  6
CONTINUOUS
 62
     3
 10
622.953007
 20
1827.192651
 11
625.689288
 21
1824.177736
  0
LINE
  8
CSLAYER1
  6
CONTINUOUS
 62
     3
 10
625.689288
 20
1824.177736
 11
628.873276
 21
1821.311080
  0
LINE
  8
CSLAYER1
  6
CONTINUOUS
 62
     3
 10
628.873276
 20
1821.311080
 11
632.480741
 21
1818.614503
  0
LINE
  8
CSLAYER1
  6
CONTINUOUS
 62
     3
 10
632.480741
 20
1818.614503
 11
636.484227
 21
1816.108525
  0
LINE
  8
CSLAYER1
  6
CONTINUOUS
 62
     3
 10
636.484227
 20
1816.108525
 11
640.853265
 21
1813.812220
  0
LINE
  8
CSLAYER1
  6
CONTINUOUS
 62
     3
 10
640.853265
 20
1813.812220
 11
645.554605
 21
1811.743063
  0
LINE
  8
CSLAYER1
  6
CONTINUOUS
 62
     3
 10
645.554605
 20
1811.743063
 11
650.552466
 21
1809.916802
  0
LINE
  8
CSLAYER1
  6
CONTINUOUS
 62
     3
 10
650.552466
 20
1809.916802
 11
655.808812
 21
1808.347336
  0
LINE
  8
CSLAYER1
  6
CONTINUOUS
 62
     3
 10
655.808812
 20
1808.347336
 11
661.283638
 21
1807.046610
  0
LINE
  8
CSLAYER1
  6
CONTINUOUS
 62
     3
 10
661.283638
 20
1807.046610
 11
666.935277
 21
1806.024523
  0
LINE
  8
CSLAYER1
  6
CONTINUOUS
 62
     3
 10
666.935277
 20
1806.024523
 11
672.720719
 21
1805.288853
  0
LINE
  8
CSLAYER1
  6
CONTINUOUS
 62
     3
 10
672.720719
 20
1805.288853
 11
678.595931
 21
1804.845199
  0
LINE
  8
CSLAYER1
  6
CONTINUOUS
 62
     3
 10
678.595931
 20
1804.845199
 11
684.516199
 21
1804.696938
  0
LINE
  8
CSLAYER1
  6
CONTINUOUS
 62
     3
 10
684.516199
 20
1804.696938
 11
690.436468
 21
1804.845199
  0
LINE
  8
CSLAYER1
  6
CONTINUOUS
 62
     3
 10
690.436468
 20
1804.845199
 11
696.311680
 21
1805.288853
  0
LINE
  8
CSLAYER1
  6
CONTINUOUS
 62
     3
 10
696.311680
 20
1805.288853
 11
702.097121
 21
1806.024523
  0
LINE
  8
CSLAYER1
  6
CONTINUOUS
 62
     3
 10
702.097121
 20
1806.024523
 11
707.748761
 21
1807.046610
  0
LINE
  8
CSLAYER1
  6
CONTINUOUS
 62
     3
 10
707.748761
 20
1807.046610
 11
713.223587
 21
1808.347336
  0
LINE
  8
CSLAYER1
  6
CONTINUOUS
 62
     3
 10
713.223587
 20
1808.347336
 11
718.479933
 21
1809.916802
  0
LINE
  8
CSLAYER1
  6
CONTINUOUS
 62
     3
 10
718.479933
 20
1809.916802
 11
723.477794
 21
1811.743063
  0
LINE
  8
CSLAYER1
  6
CONTINUOUS
 62
     3
 10
723.477794
 20
1811.743063
 11
728.179133
 21
1813.812220
  0
LINE
  8
CSLAYER1
  6
CONTINUOUS
 62
     3
 10
728.179133
 20
1813.812220
 11
732.548172
 21
1816.108525
  0
LINE
  8
CSLAYER1
  6
CONTINUOUS
 62
     3
 10
732.548172
 20
1816.108525
 11
736.551658
 21
1818.614503
  0
LINE
  8
CSLAYER1
  6
CONTINUOUS
 62
     3
 10
736.551658
 20
1818.614503
 11
740.159123
 21
1821.311080
  0
LINE
  8
CSLAYER1
  6
CONTINUOUS
 62
     3
 10
740.159123
 20
1821.311080
 11
743.343111
 21
1824.177736
  0
LINE
  8
CSLAYER1
  6
CONTINUOUS
 62
     3
 10
743.343111
 20
1824.177736
 11
746.079391
 21
1827.192651
  0
LINE
  8
CSLAYER1
  6
CONTINUOUS
 62
     3
 10
746.079391
 20
1827.192651
 11
748.347139
 21
1830.332883
  0
LINE
  8
CSLAYER1
  6
CONTINUOUS
 62
     3
 10
748.347139
 20
1830.332883
 11
750.129094
 21
1833.574530
  0
LINE
  8
CSLAYER1
  6
CONTINUOUS
 62
     3
 10
750.129094
 20
1833.574530
 11
751.411695
 21
1836.892923
  0
LINE
  8
CSLAYER1
  6
CONTINUOUS
 62
     3
 10
751.411695
 20
1836.892923
 11
752.185182
 21
1840.262806
  0
LINE
  8
CSLAYER1
  6
CONTINUOUS
 62
     3
 10
752.185182
 20
1840.262806
 11
752.443666
 21
1843.658533
  0
LINE
  8
CSLAYER1
  6
CONTINUOUS
 62
     3
 10
759.236413
 20
1843.658533
 11
758.952080
 21
1847.393832
  0
LINE
  8
CSLAYER1
  6
CONTINUOUS
 62
     3
 10
758.952080
 20
1847.393832
 11
758.101245
 21
1851.100703
  0
LINE
  8
CSLAYER1
  6
CONTINUOUS
 62
     3
 10
758.101245
 20
1851.100703
 11
756.690383
 21
1854.750936
  0
LINE
  8
CSLAYER1
  6
CONTINUOUS
 62
     3
 10
756.690383
 20
1854.750936
 11
754.730233
 21
1858.316748
  0
LINE
  8
CSLAYER1
  6
CONTINUOUS
 62
     3
 10
754.730233
 20
1858.316748
 11
752.235711
 21
1861.771002
  0
LINE
  8
CSLAYER1
  6
CONTINUOUS
 62
     3
 10
752.235711
 20
1861.771002
 11
749.225802
 21
1865.087410
  0
LINE
  8
CSLAYER1
  6
CONTINUOUS
 62
     3
 10
749.225802
 20
1865.087410
 11
745.723415
 21
1868.240730
  0
LINE
  8
CSLAYER1
  6
CONTINUOUS
 62
     3
 10
745.723415
 20
1868.240730
 11
741.755204
 21
1871.206966
  0
LINE
  8
CSLAYER1
  6
CONTINUOUS
 62
     3
 10
741.755204
 20
1871.206966
 11
737.351369
 21
1873.963541
  0
LINE
  8
CSLAYER1
  6
CONTINUOUS
 62
     3
 10
737.351369
 20
1873.963541
 11
732.545427
 21
1876.489477
  0
LINE
  8
CSLAYER1
  6
CONTINUOUS
 62
     3
 10
732.545427
 20
1876.489477
 11
727.373953
 21
1878.765549
  0
LINE
  8
CSLAYER1
  6
CONTINUOUS
 62
     3
 10
727.373953
 20
1878.765549
 11
721.876306
 21
1880.774436
  0
LINE
  8
CSLAYER1
  6
CONTINUOUS
 62
     3
 10
721.876306
 20
1880.774436
 11
716.094326
 21
1882.500849
  0
LINE
  8
CSLAYER1
  6
CONTINUOUS
 62
     3
 10
716.094326
 20
1882.500849
 11
710.072017
 21
1883.931648
  0
LINE
  8
CSLAYER1
  6
CONTINUOUS
 62
     3
 10
710.072017
 20
1883.931648
 11
703.855214
 21
1885.055944
  0
LINE
  8
CSLAYER1
  6
CONTINUOUS
 62
     3
 10
703.855214
 20
1885.055944
 11
697.491228
 21
1885.865181
  0
LINE
  8
CSLAYER1
  6
CONTINUOUS
 62
     3
 10
697.491228
 20
1885.865181
 11
691.028495
 21
1886.353200
  0
LINE
  8
CSLAYER1
  6
CONTINUOUS
 62
     3
 10
691.028495
 20
1886.353200
 11
684.516199
 21
1886.516286
  0
LINE
  8
CSLAYER1
  6
CONTINUOUS
 62
     3
 10
684.516199
 20
1886.516286
 11
678.003904
 21
1886.353200
  0
LINE
  8
CSLAYER1
  6
CONTINUOUS
 62
     3
 10
678.003904
 20
1886.353200
 11
671.541171
 21
1885.865181
  0
LINE
  8
CSLAYER1
  6
CONTINUOUS
 62
     3
 10
671.541171
 20
1885.865181
 11
665.177185
 21
1885.055944
  0
LINE
  8
CSLAYER1
  6
CONTINUOUS
 62
     3
 10
665.177185
 20
1885.055944
 11
658.960381
 21
1883.931648
  0
LINE
  8
CSLAYER1
  6
CONTINUOUS
 62
     3
 10
658.960381
 20
1883.931648
 11
652.938073
 21
1882.500849
  0
LINE
  8
CSLAYER1
  6
CONTINUOUS
 62
     3
 10
652.938073
 20
1882.500849
 11
647.156093
 21
1880.774436
  0
LINE
  8
CSLAYER1
  6
CONTINUOUS
 62
     3
 10
647.156093
 20
1880.774436
 11
641.658446
 21
1878.765549
  0
LINE
  8
CSLAYER1
  6
CONTINUOUS
 62
     3
 10
641.658446
 20
1878.765549
 11
636.486972
 21
1876.489477
  0
LINE
  8
CSLAYER1
  6
CONTINUOUS
 62
     3
 10
636.486972
 20
1876.489477
 11
631.681030
 21
1873.963541
  0
LINE
  8
CSLAYER1
  6
CONTINUOUS
 62
     3
 10
631.681030
 20
1873.963541
 11
627.277195
 21
1871.206966
  0
LINE
  8
CSLAYER1
  6
CONTINUOUS
 62
     3
 10
627.277195
 20
1871.206966
 11
623.308984
 21
1868.240730
  0
LINE
  8
CSLAYER1
  6
CONTINUOUS
 62
     3
 10
623.308984
 20
1868.240730
 11
619.806596
 21
1865.087410
  0
LINE
  8
CSLAYER1
  6
CONTINUOUS
 62
     3
 10
619.806596
 20
1865.087410
 11
616.796688
 21
1861.771002
  0
LINE
  8
CSLAYER1
  6
CONTINUOUS
 62
     3
 10
616.796688
 20
1861.771002
 11
614.302166
 21
1858.316748
  0
LINE
  8
CSLAYER1
  6
CONTINUOUS
 62
     3
 10
614.302166
 20
1858.316748
 11
612.342016
 21
1854.750936
  0
LINE
  8
CSLAYER1
  6
CONTINUOUS
 62
     3
 10
612.342016
 20
1854.750936
 11
610.931154
 21
1851.100703
  0
LINE
  8
CSLAYER1
  6
CONTINUOUS
 62
     3
 10
610.931154
 20
1851.100703
 11
610.080319
 21
1847.393832
  0
LINE
  8
CSLAYER1
  6
CONTINUOUS
 62
     3
 10
610.080319
 20
1847.393832
 11
609.795986
 21
1843.658533
  0
LINE
  8
CSLAYER1
  6
CONTINUOUS
 62
     3
 10
609.795986
 20
1843.658533
 11
610.080319
 21
1839.923233
  0
LINE
  8
CSLAYER1
  6
CONTINUOUS
 62
     3
 10
610.080319
 20
1839.923233
 11
610.931154
 21
1836.216362
  0
LINE
  8
CSLAYER1
  6
CONTINUOUS
 62
     3
 10
610.931154
 20
1836.216362
 11
612.342016
 21
1832.566130
  0
LINE
  8
CSLAYER1
  6
CONTINUOUS
 62
     3
 10
612.342016
 20
1832.566130
 11
614.302166
 21
1829.000318
  0
LINE
  8
CSLAYER1
  6
CONTINUOUS
 62
     3
 10
614.302166
 20
1829.000318
 11
616.796688
 21
1825.546063
  0
LINE
  8
CSLAYER1
  6
CONTINUOUS
 62
     3
 10
616.796688
 20
1825.546063
 11
619.806596
 21
1822.229656
  0
LINE
  8
CSLAYER1
  6
CONTINUOUS
 62
     3
 10
619.806596
 20
1822.229656
 11
623.308984
 21
1819.076335
  0
LINE
  8
CSLAYER1
  6
CONTINUOUS
 62
     3
 10
623.308984
 20
1819.076335
 11
627.277195
 21
1816.110100
  0
LINE
  8
CSLAYER1
  6
CONTINUOUS
 62
     3
 10
627.277195
 20
1816.110100
 11
631.681030
 21
1813.353524
  0
LINE
  8
CSLAYER1
  6
CONTINUOUS
 62
     3
 10
631.681030
 20
1813.353524
 11
636.486972
 21
1810.827589
  0
LINE
  8
CSLAYER1
  6
CONTINUOUS
 62
     3
 10
636.486972
 20
1810.827589
 11
641.658446
 21
1808.551516
  0
LINE
  8
CSLAYER1
  6
CONTINUOUS
 62
     3
 10
641.658446
 20
1808.551516
 11
647.156093
 21
1806.542629
  0
LINE
  8
CSLAYER1
  6
CONTINUOUS
 62
     3
 10
647.156093
 20
1806.542629
 11
652.938073
 21
1804.816217
  0
LINE
  8
CSLAYER1
  6
CONTINUOUS
 62
     3
 10
652.938073
 20
1804.816217
 11
653.021010
 21
1804.796512
  0
LINE
  8
CSLAYER1
  6
CONTINUOUS
 62
     3
 10
684.516199
 20
1800.800779
 11
691.028495
 21
1800.963866
  0
LINE
  8
CSLAYER1
  6
CONTINUOUS
 62
     3
 10
691.028495
 20
1800.963866
 11
697.491228
 21
1801.451885
  0
LINE
  8
CSLAYER1
  6
CONTINUOUS
 62
     3
 10
697.491228
 20
1801.451885
 11
703.855214
 21
1802.261122
  0
LINE
  8
CSLAYER1
  6
CONTINUOUS
 62
     3
 10
703.855214
 20
1802.261122
 11
710.072017
 21
1803.385418
  0
LINE
  8
CSLAYER1
  6
CONTINUOUS
 62
     3
 10
710.072017
 20
1803.385418
 11
716.094326
 21
1804.816217
  0
LINE
  8
CSLAYER1
  6
CONTINUOUS
 62
     3
 10
716.094326
 20
1804.816217
 11
721.876306
 21
1806.542629
  0
LINE
  8
CSLAYER1
  6
CONTINUOUS
 62
     3
 10
721.876306
 20
1806.542629
 11
727.373953
 21
1808.551516
  0
LINE
  8
CSLAYER1
  6
CONTINUOUS
 62
     3
 10
727.373953
 20
1808.551516
 11
732.545427
 21
1810.827589
  0
LINE
  8
CSLAYER1
  6
CONTINUOUS
 62
     3
 10
732.545427
 20
1810.827589
 11
737.351369
 21
1813.353524
  0
LINE
  8
CSLAYER1
  6
CONTINUOUS
 62
     3
 10
737.351369
 20
1813.353524
 11
741.755204
 21
1816.110100
  0
LINE
  8
CSLAYER1
  6
CONTINUOUS
 62
     3
 10
741.755204
 20
1816.110100
 11
745.723415
 21
1819.076335
  0
LINE
  8
CSLAYER1
  6
CONTINUOUS
 62
     3
 10
745.723415
 20
1819.076335
 11
749.225802
 21
1822.229656
  0
LINE
  8
CSLAYER1
  6
CONTINUOUS
 62
     3
 10
749.225802
 20
1822.229656
 11
752.235711
 21
1825.546063
  0
LINE
  8
CSLAYER1
  6
CONTINUOUS
 62
     3
 10
752.235711
 20
1825.546063
 11
754.730233
 21
1829.000318
  0
LINE
  8
CSLAYER1
  6
CONTINUOUS
 62
     3
 10
754.730233
 20
1829.000318
 11
756.690383
 21
1832.566130
  0
LINE
  8
CSLAYER1
  6
CONTINUOUS
 62
     3
 10
756.690383
 20
1832.566130
 11
758.101245
 21
1836.216362
  0
LINE
  8
CSLAYER1
  6
CONTINUOUS
 62
     3
 10
758.101245
 20
1836.216362
 11
758.952080
 21
1839.923233
  0
LINE
  8
CSLAYER1
  6
CONTINUOUS
 62
     3
 10
758.952080
 20
1839.923233
 11
759.236413
 21
1843.658533
  0
LINE
  8
CSLAYER1
  6
CONTINUOUS
 62
     3
 10
538.306305
 20
1800.800779
 11
684.516199
 21
1800.800779
  0
LINE
  8
CSLAYER1
  6
CONTINUOUS
 62
     3
 10
538.306305
 20
1804.796512
 11
684.516199
 21
1804.796512
  0
LINE
  8
CSLAYER1
  6
CONTINUOUS
 62
     3
 10
538.306305
 20
1800.800779
 11
538.306305
 21
1804.796512
  0
LINE
  8
CSLAYER1
  6
CONTINUOUS
 62
     3
 10
538.306305
 20
1804.796512
 11
529.101006
 21
1807.638026
  0
LINE
  8
CSLAYER1
  6
CONTINUOUS
 62
     3
 10
529.101006
 20
1807.638026
 11
527.567061
 21
1814.080594
  0
LINE
  8
CSLAYER1
  6
CONTINUOUS
 62
     3
 10
538.306305
 20
1800.800779
 11
522.965227
 21
1802.115826
  0
LINE
  8
CSLAYER1
  6
CONTINUOUS
 62
     3
 10
522.965227
 20
1802.115826
 11
516.215871
 21
1799.968304
  0
LINE
  8
CSLAYER1
  6
CONTINUOUS
 62
     3
 10
516.215871
 20
1799.968304
 11
508.852937
 21
1796.593626
  0
LINE
  8
CSLAYER1
  6
CONTINUOUS
 62
     3
 10
527.567061
 20
1814.080594
 11
519.897338
 21
1819.909583
  0
LINE
  8
CSLAYER1
  6
CONTINUOUS
 62
     3
 10
398.455638
 20
2039.728640
 11
562.280705
 21
1945.144194
  0
LINE
  8
CSLAYER1
  6
CONTINUOUS
 62
     3
 10
398.455638
 20
2132.006149
 11
562.280705
 21
2037.421702
  0
LINE
  8
CSLAYER1
  6
CONTINUOUS
 62
     3
 10
398.455638
 20
2132.006149
 11
398.455638
 21
2016.659263
  0
LINE
  8
CSLAYER1
  6
CONTINUOUS
 62
     3
 10
702.131372
 20
2118.164522
 11
702.131372
 21
2002.817637
  0
LINE
  8
CSLAYER1
  6
CONTINUOUS
 62
     3
 10
398.455638
 20
2132.006149
 11
538.306305
 21
2212.748969
  0
LINE
  8
CSLAYER1
  6
CONTINUOUS
 62
     5
 10
349.057650
 20
2045.179205
 11
389.968634
 21
2021.559237
  0
TEXT
  8
CSLAYER1
 62
     3
 10
835.503976
 20
2086.789639
 40
34.838692
 41
0.852344
  1
ホース長サ２ｍ
 50
0.000000
 51
0.000000
  7
EASYDRAW_FONT
 72
     5
 11
1033.467703
 21
2086.789639
  0
TEXT
  8
CSLAYER1
 62
     3
 10
319.239790
 20
1838.613008
 40
39.957333
 41
1.036364
  1
長サ4ｍ
 50
0.000000
 51
0.000000
  7
EASYDRAW_FONT
 72
     5
 11
471.077654
 21
1838.613008
  0
LINE
  8
CSLAYER1
  6
CONTINUOUS
 62
     3
 10
656.950045
 20
2012.979059
 11
958.025295
 21
1839.153183
  0
ARC
  8
CSLAYER1
  6
CONTINUOUS
 62
     3
 10
1010.525295
 20
1930.085850
 40
100.000000
 50
240.000000
 51
270.000000
  0
ARC
  8
CSLAYER1
  6
CONTINUOUS
 62
     3
 10
1010.525295
 20
1930.085850
 40
105.000000
 50
240.000000
 51
270.000000
  0
TEXT
  8
CSLAYER1
 62
     3
 10
777.656300
 20
1723.394747
 40
39.957333
 41
1.020000
  1
フットスイッチ
 50
0.000000
 51
0.000000
  7
EASYDRAW_FONT
 72
     5
 11
1049.366161
 21
1723.394747
  0
TEXT
  8
CSLAYER1
 62
     3
 10
775.502735
 20
1668.836153
 40
39.957333
 41
1.020000
  1
ＵＰ・ＤＯＷＮ
 50
0.000000
 51
0.000000
  7
EASYDRAW_FONT
 72
     5
 11
1047.212597
 21
1668.836153
  0
TEXT
  8
CSLAYER1
 62
     3
 10
778.374073
 20
1620.019747
 40
39.957333
 41
1.020000
  1
コード長サ２ｍ
 50
0.000000
 51
0.000000
  7
EASYDRAW_FONT
 72
     5
 11
1050.083935
 21
1620.019747
  0
LINE
  8
CSLAYER1
  6
CONTINUOUS
 62
     5
 10
645.908968
 20
1684.430285
 11
769.109761
 21
1717.441838
  0
LINE
  8
CSLAYER1
  6
CONTINUOUS
 62
     5
 10
645.908968
 20
1684.430285
 11
671.889730
 21
1699.430285
  0
LINE
  8
CSLAYER1
  6
CONTINUOUS
 62
     5
 10
645.908968
 20
1684.430285
 11
675.908968
 21
1684.430285
  0
LINE
  8
CSLAYER1
  6
CONTINUOUS
 62
     5
 10
1043.447964
 20
1717.441838
 11
769.109761
 21
1717.441838
  0
LINE
  8
CSLAYER1
  6
CONTINUOUS
 62
     3
 10
468.098834
 20
1702.193705
 11
579.979368
 21
1637.599449
  0
LINE
  8
CSLAYER1
  6
CONTINUOUS
 62
     3
 10
579.979368
 20
1637.599449
 11
645.908968
 21
1675.663922
  0
LINE
  8
CSLAYER1
  6
CONTINUOUS
 62
     3
 10
645.908968
 20
1684.430285
 11
645.908968
 21
1675.663922
  0
LINE
  8
CSLAYER1
  6
CONTINUOUS
 62
     5
 10
579.979368
 20
1671.742127
 11
579.979368
 21
1648.672750
  0
LINE
  8
CSLAYER1
  6
CONTINUOUS
 62
     3
 10
468.098834
 20
1711.421456
 11
468.098834
 21
1702.193705
  0
LINE
  8
CSLAYER1
  6
CONTINUOUS
 62
     3
 10
471.694994
 20
1734.721527
 11
533.628861
 21
1770.479062
  0
LINE
  8
CSLAYER1
  6
CONTINUOUS
 62
     3
 10
511.652328
 20
1711.652150
 11
573.586194
 21
1747.409684
  0
LINE
  8
CSLAYER1
  6
CONTINUOUS
 62
     3
 10
579.979368
 20
1671.742127
 11
642.312808
 21
1707.730356
  0
LINE
  8
CSLAYER1
  6
CONTINUOUS
 62
     3
 10
540.421608
 20
1695.042198
 11
602.355474
 21
1730.799733
  0
LINE
  8
CSLAYER1
  6
CONTINUOUS
 62
     3
 10
471.694994
 20
1734.721527
 11
511.652328
 21
1711.652150
  0
LINE
  8
CSLAYER1
  6
CONTINUOUS
 62
     3
 10
533.628861
 20
1770.479062
 11
573.586194
 21
1747.409684
  0
LINE
  8
CSLAYER1
  6
CONTINUOUS
 62
     3
 10
468.098834
 20
1711.421456
 11
579.979368
 21
1646.827200
  0
LINE
  8
CSLAYER1
  6
CONTINUOUS
 62
     3
 10
579.979368
 20
1646.365813
 11
645.908968
 21
1684.430285
  0
LINE
  8
CSLAYER1
  6
CONTINUOUS
 62
     3
 10
520.043368
 20
1706.807581
 11
532.030568
 21
1699.886768
  0
LINE
  8
CSLAYER1
  6
CONTINUOUS
 62
     5
 10
579.979368
 20
1648.672750
 11
642.312808
 21
1684.660979
  0
LINE
  8
CSLAYER1
  6
CONTINUOUS
 62
     5
 10
471.694994
 20
1711.652150
 11
511.652328
 21
1688.582773
  0
LINE
  8
CSLAYER1
  6
CONTINUOUS
 62
     3
 10
642.312808
 20
1707.730356
 11
642.312808
 21
1684.660979
  0
LINE
  8
CSLAYER1
  6
CONTINUOUS
 62
     5
 10
540.421608
 20
1695.042198
 11
540.421608
 21
1671.304913
  0
LINE
  8
CSLAYER1
  6
CONTINUOUS
 62
     5
 10
511.652328
 20
1688.582773
 11
511.652328
 21
1711.652150
  0
LINE
  8
CSLAYER1
  6
CONTINUOUS
 62
     3
 10
573.586194
 20
1747.409684
 11
573.586194
 21
1737.720546
  0
LINE
  8
CSLAYER1
  6
CONTINUOUS
 62
     5
 10
520.043368
 20
1683.738204
 11
532.030568
 21
1676.817390
  0
LINE
  8
CSLAYER1
  6
CONTINUOUS
 62
     3
 10
579.979368
 20
1646.365813
 11
579.979368
 21
1637.599449
  0
LINE
  8
CSLAYER1
  6
CONTINUOUS
 62
     3
 10
642.312808
 20
1686.506529
 11
645.908968
 21
1684.430285
  0
LINE
  8
CSLAYER1
  6
CONTINUOUS
 62
     3
 10
520.043368
 20
1706.807581
 11
581.977234
 21
1742.565115
  0
LINE
  8
CSLAYER1
  6
CONTINUOUS
 62
     3
 10
532.030568
 20
1699.886768
 11
593.964434
 21
1735.644302
  0
LINE
  8
CSLAYER1
  6
CONTINUOUS
 62
     3
 10
593.964434
 20
1735.644302
 11
593.964434
 21
1725.955164
  0
LINE
  8
CSLAYER1
  6
CONTINUOUS
 62
     3
 10
581.977234
 20
1742.565115
 11
593.964434
 21
1735.644302
  0
LINE
  8
CSLAYER1
  6
CONTINUOUS
 62
     3
 10
602.355474
 20
1730.799733
 11
642.312808
 21
1707.730356
  0
LINE
  8
CSLAYER1
  6
CONTINUOUS
 62
     3
 10
540.421608
 20
1695.042198
 11
579.979368
 21
1672.203515
  0
LINE
  8
CSLAYER1
  6
CONTINUOUS
 62
     5
 10
532.030568
 20
1699.886768
 11
532.030568
 21
1676.817390
  0
LINE
  8
CSLAYER1
  6
CONTINUOUS
 62
     5
 10
520.043368
 20
1706.807581
 11
520.043368
 21
1683.738204
  0
LINE
  8
CSLAYER1
  6
CONTINUOUS
 62
     5
 10
532.030568
 20
1676.817390
 11
540.421608
 21
1681.661960
  0
LINE
  8
CSLAYER1
  6
CONTINUOUS
 62
     5
 10
511.652328
 20
1688.582773
 11
520.043368
 21
1693.427342
  0
LINE
  8
CSLAYER1
  6
CONTINUOUS
 62
     5
 10
540.421608
 20
1671.972821
 11
579.979368
 21
1649.134138
  0
LINE
  8
CSLAYER1
  6
CONTINUOUS
 62
     3
 10
471.694994
 20
1734.721527
 11
471.694994
 21
1711.652150
  0
LINE
  8
CSLAYER1
  6
CONTINUOUS
 62
     3
 10
468.098834
 20
1711.421456
 11
471.694994
 21
1713.497700
  0
LINE
  8
CSLAYER1
  6
CONTINUOUS
 62
     5
 10
483.682194
 20
1741.642340
 11
523.639528
 21
1718.572963
  0
LINE
  8
CSLAYER1
  6
CONTINUOUS
 62
     5
 10
495.669394
 20
1748.563153
 11
535.626728
 21
1725.493776
  0
LINE
  8
CSLAYER1
  6
CONTINUOUS
 62
     5
 10
507.656594
 20
1755.483966
 11
547.613928
 21
1732.414589
  0
LINE
  8
CSLAYER1
  6
CONTINUOUS
 62
     5
 10
564.396008
 20
1708.883825
 11
604.353341
 21
1685.814447
  0
LINE
  8
CSLAYER1
  6
CONTINUOUS
 62
     5
 10
552.408808
 20
1701.963011
 11
592.366141
 21
1678.893634
  0
LINE
  8
CSLAYER1
  6
CONTINUOUS
 62
     5
 10
576.383208
 20
1715.804638
 11
616.340541
 21
1692.735261
  0
ARC
  8
CSLAYER1
  6
CONTINUOUS
 62
     3
 10
592.736374
 20
1729.534528
 40
11.889388
 50
-0.219250
 51
120.219250
  0
LINE
  8
CSLAYER1
  6
CONTINUOUS
 62
     3
 10
602.889051
 20
1735.721669
 11
737.178691
 21
1813.253829
  0
LINE
  8
CSLAYER1
  6
CONTINUOUS
 62
     3
 10
599.508633
 20
1739.306634
 11
710.689880
 21
1803.497157
  0
LINE
  8
CSLAYER1
  6
CONTINUOUS
 62
     5
 10
552.042151
 20
1805.744650
 11
512.308227
 21
1883.158835
  0
LINE
  8
CSLAYER1
  6
CONTINUOUS
 62
     5
 10
552.042151
 20
1805.744650
 11
531.902249
 21
1827.979405
  0
LINE
  8
CSLAYER1
  6
CONTINUOUS
 62
     5
 10
552.042151
 20
1805.744650
 11
545.717862
 21
1835.070464
  0
LINE
  8
CSLAYER1
  6
CONTINUOUS
 62
     5
 10
252.168643
 20
1570.122714
 11
1097.100150
 21
1570.122714
  0
LINE
  8
CSLAYER1
  6
CONTINUOUS
 62
     5
 10
524.412251
 20
2376.785162
 11
803.995520
 21
2376.785162
  0
LINE
  8
CSLAYER1
  6
CONTINUOUS
 62
     5
 10
803.995520
 20
2376.785162
 11
803.995520
 21
2326.079884
  0
LINE
  8
CSLAYER1
  6
CONTINUOUS
 62
     5
 10
803.995520
 20
2326.079884
 11
524.412251
 21
2326.079884
  0
LINE
  8
CSLAYER1
  6
CONTINUOUS
 62
     5
 10
524.412251
 20
2326.079884
 11
524.412251
 21
2376.785162
  0
ENDBLK
  8
0
  0
BLOCK
  8
CSLAYER1
  2
BLKF0002
 70
   64
 10
0.0
 20
0.0
 30
0.0
  0
LINE
  8
CSLAYER1
  6
CONTINUOUS
 62
     5
 10
3450.741954
 20
1491.653225
 11
2581.937043
 21
1491.653225
  0
TEXT
  8
CSLAYER1
 62
     3
 10
3048.125244
 20
1497.303345
 40
40.000000
 41
0.832500
  1
10R4/13
 50
0.000000
 51
0.000000
  7
EASYDRAW_FONT
 72
     5
 11
3270.125244
 21
1497.303345
  0
ENDBLK
  8
0
  0
BLOCK
  8
CSLAYER1
  2
BLKF0003
 70
   64
 10
0.0
 20
0.0
 30
0.0
  0
ARC
  8
CSLAYER1
  6
CONTINUOUS
 62
     3
 10
1452.622373
 20
1430.932390
 40
9.500000
 50
-190.922071
 51
10.922071
  0
LINE
  8
CSLAYER1
  6
CONTINUOUS
 62
     3
 10
1443.122373
 20
1432.732390
 11
1443.122373
 21
1425.447562
  0
LINE
  8
CSLAYER1
  6
CONTINUOUS
 62
     3
 10
1443.122373
 20
1425.447562
 11
1452.622373
 21
1419.962735
  0
LINE
  8
CSLAYER1
  6
CONTINUOUS
 62
     3
 10
1452.622373
 20
1419.962735
 11
1462.122373
 21
1425.447562
  0
LINE
  8
CSLAYER1
  6
CONTINUOUS
 62
     3
 10
1462.122373
 20
1425.447562
 11
1462.122373
 21
1432.732390
  0
POINT
  8
CSLAYER1
 62
     3
 10
1452.622373
 20
1430.932390
  0
LINE
  8
CSLAYER1
  6
CONTINUOUS
 62
     3
 10
1430.322373
 20
1450.732390
 11
1430.322373
 21
1432.732390
  0
LINE
  8
CSLAYER1
  6
CONTINUOUS
 62
     3
 10
2330.322373
 20
1450.732390
 11
2330.322373
 21
1432.732390
  0
LINE
  8
CSLAYER1
  6
CONTINUOUS
 62
     3
 10
1482.622373
 20
1418.432390
 11
2312.622373
 21
1418.432390
  0
LINE
  8
CSLAYER1
  6
CONTINUOUS
 62
     3
 10
1430.322373
 20
1450.732390
 11
2330.322373
 21
1450.732390
  0
LINE
  8
CSLAYER1
  6
CONTINUOUS
 62
     3
 10
1430.322373
 20
1432.732390
 11
2330.322373
 21
1432.732390
  0
LINE
  8
CSLAYER1
  6
CONTINUOUS
 62
     3
 10
1432.622373
 20
1432.732390
 11
1432.622373
 21
1425.432390
  0
LINE
  8
CSLAYER1
  6
CONTINUOUS
 62
     3
 10
1430.322373
 20
1432.732390
 11
1432.622373
 21
1432.732390
  0
LINE
  8
CSLAYER1
  6
CONTINUOUS
 62
     3
 10
1437.622373
 20
1420.432390
 11
1451.808906
 21
1420.432390
  0
ARC
  8
CSLAYER1
  6
CONTINUOUS
 62
     3
 10
1437.622373
 20
1425.432390
 40
5.000000
 50
180.000000
 51
270.000000
  0
LINE
  8
CSLAYER1
  6
CONTINUOUS
 62
     3
 10
2312.622373
 20
1432.732390
 11
2312.622373
 21
1418.432390
  0
LINE
  8
CSLAYER1
  6
CONTINUOUS
 62
     3
 10
1482.622373
 20
1429.432390
 11
1457.622373
 21
1420.432390
  0
LINE
  8
CSLAYER1
  6
CONTINUOUS
 62
     3
 10
1482.622373
 20
1432.732390
 11
1482.622373
 21
1418.432390
  0
ARC
  8
CSLAYER1
  6
DASHED
 62
     5
 10
1943.291660
 20
1430.932390
 40
13.000000
 50
-74.057631
 51
254.057631
  0
POINT
  8
CSLAYER1
 62
     4
 10
1943.291660
 20
1430.932390
  0
POINT
  8
CSLAYER1
 62
     7
 10
1452.622373
 20
1430.932390
  0
ARC
  8
CSLAYER1
  6
CONTINUOUS
 62
     4
 10
1943.291660
 20
1430.932390
 40
13.000000
 50
254.057631
 51
285.942369
  0
LINE
  8
CSLAYER1
  6
CONTINUOUS
 62
     3
 10
1453.435839
 20
1420.432390
 11
1457.622373
 21
1420.432390
  0
LINE
  8
CSLAYER1
  6
CENTER
 62
     5
 10
1452.622373
 20
1441.532463
 11
1452.622373
 21
1418.879755
  0
LINE
  8
CSLAYER1
  6
CENTER
 62
     5
 10
1441.642476
 20
1430.932390
 11
1463.867775
 21
1430.932390
  0
LINE
  8
CSLAYER1
  6
CENTER
 62
     5
 10
1943.291660
 20
1447.206214
 11
1943.291660
 21
1413.688668
  0
LINE
  8
CSLAYER1
  6
CENTER
 62
     5
 10
1927.372004
 20
1430.932390
 11
1959.442749
 21
1430.932390
  0
ENDBLK
  8
0
  0
BLOCK
  8
CSLAYER1
  2
BLKF0004
 70
   64
 10
0.0
 20
0.0
 30
0.0
  0
LINE
  8
CSLAYER1
  6
CONTINUOUS
 62
     3
 10
1450.213347
 20
740.438980
 11
1450.213347
 21
774.438980
  0
LINE
  8
CSLAYER1
  6
CONTINUOUS
 62
     3
 10
1406.213347
 20
740.438980
 11
1456.213347
 21
740.438980
  0
LINE
  8
CSLAYER1
  6
CONTINUOUS
 62
     3
 10
1456.213347
 20
734.438980
 11
1456.213347
 21
740.438980
  0
ENDBLK
  8
0
  0
BLOCK
  8
CSLAYER1
  2
BLKF0005
 70
   64
 10
0.0
 20
0.0
 30
0.0
  0
TEXT
  8
CSLAYER1
 62
     7
 10
1188.354980
 20
1269.719238
 40
40.000000
 41
0.787500
  1
テーブルのズレ
 50
0.000000
 51
0.000000
  7
EASYDRAW_FONT
 72
     5
 11
1398.354980
 21
1269.719238
  0
DIMENSION
  8
CSLAYER1
 62
     3
  2
*D0010
 10
1430.322373
 20
1206.113851
 11
1322.204834
 21
1228.336914
 13
1408.913347
 23
799.438980
 14
1430.322373
 24
1450.732390
  0
INSERT
  8
CSLAYER1
  2
EASYDRAWDIM0003
 10
0.0
 20
0.0
 30
0.0
  0
ENDBLK
  8
0
  0
BLOCK
  8
CSLAYER1
  2
BLKF0006
 70
   64
 10
0.0
 20
0.0
 30
0.0
  0
DIMENSION
  8
CSLAYER1
 62
     3
  2
*D0011
 10
868.898859
 20
649.830095
 11
743.898865
 21
659.830078
 13
618.898859
 23
734.438980
 14
868.898859
 24
734.438980
 52
270.000000
 70
1
  0
INSERT
  8
CSLAYER1
  2
EASYDRAWDIM0004
 10
0.0
 20
0.0
 30
0.0
  0
INSERT
  8
CSLAYER1
  2
EASYDRAWDIM0005
 10
0.0
 20
0.0
 30
0.0
  0
TEXT
  8
CSLAYER1
 62
     7
 10
694.762390
 20
515.396973
 40
40.000000
 41
0.843750
  1
上昇時
 50
0.000000
 51
0.000000
  7
EASYDRAW_FONT
 72
     5
 11
784.762390
 21
515.396973
  0
LINE
  8
CSLAYER1
  6
CONTINUOUS
 62
     5
 10
681.155893
 20
561.827041
 11
804.113903
 21
561.827041
  0
LINE
  8
CSLAYER1
  6
CONTINUOUS
 62
     5
 10
804.113903
 20
561.827041
 11
804.113903
 21
508.966588
  0
LINE
  8
CSLAYER1
  6
CONTINUOUS
 62
     5
 10
804.113903
 20
508.966588
 11
681.155893
 21
508.966588
  0
LINE
  8
CSLAYER1
  6
CONTINUOUS
 62
     5
 10
681.155893
 20
508.966588
 11
681.155893
 21
561.827041
  0
LINE
  8
CSLAYER1
  6
CONTINUOUS
 62
     6
 10
868.898859
 20
728.438980
 11
964.806505
 21
645.537243
  0
LINE
  8
CSLAYER1
  6
CONTINUOUS
 62
     6
 10
868.898859
 20
728.438980
 11
895.899334
 21
715.363264
  0
LINE
  8
CSLAYER1
  6
CONTINUOUS
 62
     6
 10
868.898859
 20
728.438980
 11
885.744098
 21
703.614840
  0
DIMENSION
  8
CSLAYER1
 62
     3
  2
*D0012
 10
893.898859
 20
585.512862
 11
743.898865
 21
595.512939
 13
593.898859
 23
734.438980
 14
893.898859
 24
740.438980
 52
270.000000
  0
ENDBLK
  8
0
  0
ENDSEC
  0
SECTION
  2
ENTITIES
  0
LINE
  8
CSLAYER1
  6
CONTINUOUS
 62
     3
 10
202.168643
 20
2444.986562
 11
202.168643
 21
96.439631
  0
LINE
  8
CSLAYER1
  6
CONTINUOUS
 62
     3
 10
3524.741954
 20
2444.986562
 11
202.168643
 21
2444.986562
  0
LINE
  8
CSLAYER1
  6
CONTINUOUS
 62
     3
 10
3524.741954
 20
2444.986562
 11
3524.741954
 21
96.439631
  0
LINE
  8
CSLAYER1
  6
CONTINUOUS
 62
     3
 10
3524.741954
 20
96.439631
 11
202.168643
 21
96.439631
  0
LINE
  8
CSLAYER1
  6
CONTINUOUS
 62
     5
 10
152.168643
 20
1256.439631
 11
102.168643
 21
1256.439631
  0
LINE
  8
CSLAYER1
  6
CONTINUOUS
 62
     5
 10
2724.741954
 20
536.439631
 11
3524.741954
 21
536.439631
  0
LINE
  8
CSLAYER1
  6
CONTINUOUS
 62
     5
 10
2724.741954
 20
176.439631
 11
3524.741954
 21
176.439631
  0
LINE
  8
CSLAYER1
  6
CONTINUOUS
 62
     5
 10
2724.741954
 20
336.439631
 11
3524.741954
 21
336.439631
  0
LINE
  8
CSLAYER1
  6
CONTINUOUS
 62
     5
 10
2724.741954
 20
396.439631
 11
3524.741954
 21
396.439631
  0
LINE
  8
CSLAYER1
  6
CONTINUOUS
 62
     5
 10
2724.741954
 20
456.439631
 11
3524.741954
 21
456.439631
  0
LINE
  8
CSLAYER1
  6
CONTINUOUS
 62
     5
 10
2724.741954
 20
616.439631
 11
3524.741954
 21
616.439631
  0
LINE
  8
CSLAYER1
  6
CONTINUOUS
 62
     5
 10
2724.741954
 20
696.439631
 11
2724.741954
 21
96.439631
  0
LINE
  8
CSLAYER1
  6
CONTINUOUS
 62
     5
 10
2924.741954
 20
696.439631
 11
2924.741954
 21
456.439631
  0
LINE
  8
CSLAYER1
  6
CONTINUOUS
 62
     5
 10
2724.741954
 20
696.439631
 11
3524.741954
 21
696.439631
  0
LINE
  8
CSLAYER1
  6
CONTINUOUS
 62
     5
 10
3224.741954
 20
456.439631
 11
3224.741954
 21
176.439631
  0
TEXT
  8
CSLAYER1
 62
     3
 10
2944.433162
 20
105.002354
 40
59.380363
 41
1.003345
  1
東正車輌株式会社
 50
0.000000
 51
0.000000
  7
EASYDRAW_FONT
 72
     5
 11
3401.205510
 21
105.002354
  0
LINE
  8
CSLAYER1
  6
CONTINUOUS
 62
     5
 10
2974.741954
 20
396.439631
 11
2974.741954
 21
176.439631
  0
TEXT
  8
CSLAYER1
 62
     5
 10
2754.741943
 20
631.439636
 40
50.000000
 41
1.050000
  1
品　名
 50
0.000000
 51
0.000000
  7
EASYDRAW_FONT
 72
     5
 11
2894.741943
 21
631.439636
  0
TEXT
  8
CSLAYER1
 62
     5
 10
2754.741943
 20
551.439636
 40
50.000000
 41
1.050000
  1
型　式
 50
0.000000
 51
0.000000
  7
EASYDRAW_FONT
 72
     5
 11
2894.741943
 21
551.439636
  0
TEXT
  8
CSLAYER1
 62
     5
 10
2729.741943
 20
471.439636
 40
50.000000
 41
1.036364
  1
図面番号
 50
0.000000
 51
0.000000
  7
EASYDRAW_FONT
 72
     5
 11
2919.741943
 21
471.439636
  0
TEXT
  8
CSLAYER1
 62
     5
 10
2754.741943
 20
401.439636
 40
50.000000
 41
0.825000
  1
平成26年01月10日
 50
0.000000
 51
0.000000
  7
EASYDRAW_FONT
 72
     5
 11
3194.741943
 21
401.439636
  0
TEXT
  8
CSLAYER1
 62
     5
 10
3304.741943
 20
401.439636
 40
50.000000
 41
1.050000
  1
Ｂ－４
 50
0.000000
 51
0.000000
  7
EASYDRAW_FONT
 72
     5
 11
3444.741943
 21
401.439636
  0
TEXT
  8
CSLAYER1
 62
     5
 10
2779.741943
 20
341.439636
 40
50.000000
 41
1.050000
  1
検　図
 50
0.000000
 51
0.000000
  7
EASYDRAW_FONT
 72
     5
 11
2919.741943
 21
341.439636
  0
TEXT
  8
CSLAYER1
 62
     5
 10
3029.741943
 20
341.439636
 40
50.000000
 41
1.050000
  1
作　図
 50
0.000000
 51
0.000000
  7
EASYDRAW_FONT
 72
     5
 11
3169.741943
 21
341.439636
  0
TEXT
  8
CSLAYER1
 62
     5
 10
3304.741943
 20
341.439636
 40
50.000000
 41
1.050000
  1
尺　度
 50
0.000000
 51
0.000000
  7
EASYDRAW_FONT
 72
     5
 11
3444.741943
 21
341.439636
  0
TEXT
  8
CSLAYER1
 62
     5
 10
3405.480713
 20
190.924896
 40
50.000000
 41
1.080000
  1
１０
 50
0.000000
 51
0.000000
  7
EASYDRAW_FONT
 72
     5
 11
3495.480713
 21
190.924896
  0
TEXT
  8
CSLAYER1
 62
     5
 10
3385.161133
 20
238.629608
 40
50.000000
 41
1.200000
  1
／
 50
0.000000
 51
0.000000
  7
EASYDRAW_FONT
 72
     5
 11
3425.161133
 21
238.629608
  0
TEXT
  8
CSLAYER1
 62
     5
 10
3354.948242
 20
273.613037
 40
50.000000
 41
1.200000
  1
１
 50
0.000000
 51
0.000000
  7
EASYDRAW_FONT
 72
     5
 11
3394.948242
 21
273.613037
  0
TEXT
  8
CSLAYER1
 62
     3
 10
3064.741943
 20
631.439636
 40
50.000000
 41
0.834783
  1
ゴールドリフター
 50
0.000000
 51
0.000000
  7
EASYDRAW_FONT
 72
     5
 11
3384.741943
 21
631.439636
  0
TEXT
  8
CSLAYER1
 62
     3
 10
2964.741943
 20
551.439636
 40
50.000000
 41
0.821053
  1
GLSE-150-3009
 50
0.000000
 51
0.000000
  7
EASYDRAW_FONT
 72
     5
 11
3484.741943
 21
551.439636
  0
INSERT
  8
CSLAYER1
  2
BLKF0000
 10
0.0
 20
0.0
 30
0.0
  0
LINE
  8
CSLAYER1
  6
CONTINUOUS
 62
     5
 10
3450.741954
 20
2344.986562
 11
2570.741954
 21
2344.986562
  0
LINE
  8
CSLAYER1
  6
CONTINUOUS
 62
     5
 10
3450.741954
 20
2291.653228
 11
2570.741954
 21
2291.653228
  0
LINE
  8
CSLAYER1
  6
CONTINUOUS
 62
     5
 10
3450.741954
 20
2238.319895
 11
2570.741954
 21
2238.319895
  0
LINE
  8
CSLAYER1
  6
CONTINUOUS
 62
     5
 10
3450.741954
 20
2131.653228
 11
2570.741954
 21
2131.653228
  0
LINE
  8
CSLAYER1
  6
CONTINUOUS
 62
     5
 10
3450.741954
 20
2024.986562
 11
2570.741954
 21
2024.986562
  0
LINE
  8
CSLAYER1
  6
CONTINUOUS
 62
     5
 10
3450.741954
 20
1811.653228
 11
2570.741954
 21
1811.653228
  0
LINE
  8
CSLAYER1
  6
CONTINUOUS
 62
     5
 10
3450.741954
 20
1598.319892
 11
2570.741954
 21
1598.319892
  0
LINE
  8
CSLAYER1
  6
CONTINUOUS
 62
     5
 10
3450.741954
 20
1544.986558
 11
2570.741954
 21
1544.986558
  0
TEXT
  8
CSLAYER1
 62
     3
 10
2584.074951
 20
2351.653076
 40
40.000000
 41
0.838235
  1
仕    様
 50
0.000000
 51
0.000000
  7
EASYDRAW_FONT
 72
     5
 11
2774.074951
 21
2351.653076
  0
TEXT
  8
CSLAYER1
 62
     3
 10
2584.074951
 20
2298.319824
 40
40.000000
 41
0.838235
  1
型    式
 50
0.000000
 51
0.000000
  7
EASYDRAW_FONT
 72
     5
 11
2774.074951
 21
2298.319824
  0
TEXT
  8
CSLAYER1
 62
     3
 10
2949.075195
 20
2298.319824
 40
40.000000
 41
0.817105
  1
GLSE-150-3009
 50
0.000000
 51
0.000000
  7
EASYDRAW_FONT
 72
     5
 11
3363.075195
 21
2298.319824
  0
TEXT
  8
CSLAYER1
 62
     3
 10
2584.074951
 20
2244.986572
 40
40.000000
 41
0.859091
  1
均等荷重
 50
0.000000
 51
0.000000
  7
EASYDRAW_FONT
 72
     5
 11
2710.074951
 21
2244.986572
  0
TEXT
  8
CSLAYER1
 62
     3
 10
3375.408447
 20
2244.986572
 40
40.000000
 41
0.930000
  1
ｋｇ
 50
0.000000
 51
0.000000
  7
EASYDRAW_FONT
 72
     5
 11
3437.408447
 21
2244.986572
  0
TEXT
  8
CSLAYER1
 62
     3
 10
2584.074951
 20
2138.319824
 40
40.000000
 41
0.838235
  1
テーブル高サ
 50
0.000000
 51
0.000000
  7
EASYDRAW_FONT
 72
     5
 11
2774.074951
 21
2138.319824
  0
TEXT
  8
CSLAYER1
 62
     3
 10
3375.408447
 20
2138.319824
 40
40.000000
 41
0.930000
  1
ｍｍ
 50
0.000000
 51
0.000000
  7
EASYDRAW_FONT
 72
     5
 11
3437.408447
 21
2138.319824
  0
TEXT
  8
CSLAYER1
 62
     3
 10
2584.074951
 20
2031.653076
 40
40.000000
 41
0.838235
  1
全    長
 50
0.000000
 51
0.000000
  7
EASYDRAW_FONT
 72
     5
 11
2774.074951
 21
2031.653076
  0
TEXT
  8
CSLAYER1
 62
     3
 10
3109.075195
 20
2031.653076
 40
40.000000
 41
0.881250
  1
903
 50
0.000000
 51
0.000000
  7
EASYDRAW_FONT
 72
     5
 11
3203.075195
 21
2031.653076
  0
TEXT
  8
CSLAYER1
 62
     3
 10
3045.075195
 20
1818.319580
 40
40.000000
 41
0.832500
  1
フットスイッチ
 50
0.000000
 51
0.000000
  7
EASYDRAW_FONT
 72
     5
 11
3267.075195
 21
1818.319580
  0
TEXT
  8
CSLAYER1
 62
     3
 10
2584.074951
 20
1818.319580
 40
40.000000
 41
0.859091
  1
操作方式
 50
0.000000
 51
0.000000
  7
EASYDRAW_FONT
 72
     5
 11
2710.074951
 21
1818.319580
  0
TEXT
  8
CSLAYER1
 62
     3
 10
2584.074951
 20
1551.652954
 40
40.000000
 41
0.832500
  1
自     重
 50
0.000000
 51
0.000000
  7
EASYDRAW_FONT
 72
     5
 11
2806.074951
 21
1551.652954
  0
TEXT
  8
CSLAYER1
 62
     3
 10
3099.741943
 20
1551.652954
 40
40.000000
 41
0.859091
  1
約 64
 50
0.000000
 51
0.000000
  7
EASYDRAW_FONT
 72
     5
 11
3225.741943
 21
1551.652954
  0
TEXT
  8
CSLAYER1
 62
     3
 10
2584.074951
 20
1498.319702
 40
40.000000
 41
0.832500
  1
塗  装  色
 50
0.000000
 51
0.000000
  7
EASYDRAW_FONT
 72
     5
 11
2806.074951
 21
1498.319702
  0
TEXT
  8
CSLAYER1
 62
     3
 10
3109.075195
 20
2244.986572
 40
40.000000
 41
0.881250
  1
150
 50
0.000000
 51
0.000000
  7
EASYDRAW_FONT
 72
     5
 11
3203.075195
 21
2244.986572
  0
TEXT
  8
CSLAYER1
 62
     3
 10
3061.075195
 20
2138.319824
 40
40.000000
 41
0.838235
  1
65～700
 50
0.000000
 51
0.000000
  7
EASYDRAW_FONT
 72
     5
 11
3251.075195
 21
2138.319824
  0
TEXT
  8
CSLAYER1
 62
     3
 10
3375.408447
 20
2031.653076
 40
40.000000
 41
0.930000
  1
ｍｍ
 50
0.000000
 51
0.000000
  7
EASYDRAW_FONT
 72
     5
 11
3437.408447
 21
2031.653076
  0
LINE
  8
CSLAYER1
  6
CONTINUOUS
 62
     5
 10
3450.741954
 20
1971.653228
 11
2570.741954
 21
1971.653228
  0
TEXT
  8
CSLAYER1
 62
     3
 10
2584.074951
 20
1978.319580
 40
40.000000
 41
0.838235
  1
全    幅
 50
0.000000
 51
0.000000
  7
EASYDRAW_FONT
 72
     5
 11
2774.074951
 21
1978.319580
  0
TEXT
  8
CSLAYER1
 62
     3
 10
3109.075195
 20
1978.319580
 40
40.000000
 41
0.881250
  1
300
 50
0.000000
 51
0.000000
  7
EASYDRAW_FONT
 72
     5
 11
3203.075195
 21
1978.319580
  0
TEXT
  8
CSLAYER1
 62
     3
 10
3375.408447
 20
1978.319580
 40
40.000000
 41
0.930000
  1
ｍｍ
 50
0.000000
 51
0.000000
  7
EASYDRAW_FONT
 72
     5
 11
3437.408447
 21
1978.319580
  0
LINE
  8
CSLAYER1
  6
CONTINUOUS
 62
     5
 10
3450.741954
 20
1651.653228
 11
2570.741954
 21
1651.653228
  0
TEXT
  8
CSLAYER1
 62
     3
 10
3012.037598
 20
1603.587891
 40
40.000000
 41
0.825000
  1
油圧ユニット別置型
 50
0.000000
 51
0.000000
  7
EASYDRAW_FONT
 72
     5
 11
3298.037598
 21
1603.587891
  0
LINE
  8
CSLAYER1
  6
CONTINUOUS
 62
     5
 10
3450.741954
 20
1598.319895
 11
2570.741954
 21
1598.319895
  0
TEXT
  8
CSLAYER1
 62
     3
 10
3375.408447
 20
1551.652954
 40
40.000000
 41
0.930000
  1
ｋｇ
 50
0.000000
 51
0.000000
  7
EASYDRAW_FONT
 72
     5
 11
3437.408447
 21
1551.652954
  0
LINE
  8
CSLAYER1
  6
CONTINUOUS
 62
     5
 10
3450.741954
 20
2184.986562
 11
2570.741954
 21
2184.986562
  0
TEXT
  8
CSLAYER1
 62
     3
 10
2584.074951
 20
2191.653320
 40
40.000000
 41
0.838235
  1
テーブル寸法
 50
0.000000
 51
0.000000
  7
EASYDRAW_FONT
 72
     5
 11
2774.074951
 21
2191.653320
  0
TEXT
  8
CSLAYER1
 62
     3
 10
3375.408447
 20
2191.653320
 40
40.000000
 41
0.930000
  1
ｍｍ
 50
0.000000
 51
0.000000
  7
EASYDRAW_FONT
 72
     5
 11
3437.408447
 21
2191.653320
  0
TEXT
  8
CSLAYER1
 62
     3
 10
3013.075195
 20
2191.653320
 40
40.000000
 41
0.825000
  1
900L×300W
 50
0.000000
 51
0.000000
  7
EASYDRAW_FONT
 72
     5
 11
3299.075195
 21
2191.653320
  0
LINE
  8
CSLAYER1
  6
CONTINUOUS
 62
     5
 10
3450.741954
 20
2078.319895
 11
2570.741954
 21
2078.319895
  0
TEXT
  8
CSLAYER1
 62
     3
 10
3375.408447
 20
2084.986572
 40
40.000000
 41
0.930000
  1
ｍｍ
 50
0.000000
 51
0.000000
  7
EASYDRAW_FONT
 72
     5
 11
3437.408447
 21
2084.986572
  0
TEXT
  8
CSLAYER1
 62
     3
 10
3109.075195
 20
2084.986572
 40
40.000000
 41
0.881250
  1
635
 50
0.000000
 51
0.000000
  7
EASYDRAW_FONT
 72
     5
 11
3203.075195
 21
2084.986572
  0
TEXT
  8
CSLAYER1
 62
     3
 10
2585.907471
 20
2084.986572
 40
40.000000
 41
0.846429
  1
ストローク
 50
0.000000
 51
0.000000
  7
EASYDRAW_FONT
 72
     5
 11
2743.907471
 21
2084.986572
  0
LINE
  8
CSLAYER1
  6
CONTINUOUS
 62
     5
 10
3450.741954
 20
1918.319895
 11
2570.741954
 21
1918.319895
  0
TEXT
  8
CSLAYER1
 62
     3
 10
2584.074951
 20
1924.986328
 40
40.000000
 41
0.838235
  1
全    高
 50
0.000000
 51
0.000000
  7
EASYDRAW_FONT
 72
     5
 11
2774.074951
 21
1924.986328
  0
TEXT
  8
CSLAYER1
 62
     3
 10
3109.075195
 20
1924.986328
 40
40.000000
 41
0.881250
  1
 65
 50
0.000000
 51
0.000000
  7
EASYDRAW_FONT
 72
     5
 11
3203.075195
 21
1924.986328
  0
TEXT
  8
CSLAYER1
 62
     3
 10
3375.408447
 20
1924.986328
 40
40.000000
 41
0.930000
  1
ｍｍ
 50
0.000000
 51
0.000000
  7
EASYDRAW_FONT
 72
     5
 11
3437.408447
 21
1924.986328
  0
LINE
  8
CSLAYER1
  6
CONTINUOUS
 62
     5
 10
3450.741954
 20
1864.986562
 11
2570.741954
 21
1864.986562
  0
TEXT
  8
CSLAYER1
 62
     3
 10
2584.074951
 20
1871.652954
 40
40.000000
 41
0.846429
  1
リフト方式
 50
0.000000
 51
0.000000
  7
EASYDRAW_FONT
 72
     5
 11
2742.074951
 21
1871.652954
  0
TEXT
  8
CSLAYER1
 62
     3
 10
3077.075195
 20
1871.652954
 40
40.000000
 41
0.846429
  1
電動油圧式
 50
0.000000
 51
0.000000
  7
EASYDRAW_FONT
 72
     5
 11
3235.075195
 21
1871.652954
  0
LINE
  8
CSLAYER1
  6
CONTINUOUS
 62
     5
 10
3450.741954
 20
1704.986562
 11
2570.741954
 21
1704.986562
  0
TEXT
  8
CSLAYER1
 62
     3
 10
3077.075195
 20
1711.652832
 40
40.000000
 41
0.846429
  1
長さ 4m
 50
0.000000
 51
0.000000
  7
EASYDRAW_FONT
 72
     5
 11
3235.075195
 21
1711.652832
  0
TEXT
  8
CSLAYER1
 62
     3
 10
2584.074951
 20
1711.652832
 40
40.000000
 41
0.846429
  1
電源コード
 50
0.000000
 51
0.000000
  7
EASYDRAW_FONT
 72
     5
 11
2742.074951
 21
1711.652832
  0
TEXT
  8
CSLAYER1
 62
     3
 10
2584.074951
 20
1658.319580
 40
40.000000
 41
0.859091
  1
上昇時間
 50
0.000000
 51
0.000000
  7
EASYDRAW_FONT
 72
     5
 11
2710.074951
 21
1658.319580
  0
TEXT
  8
CSLAYER1
 62
     3
 10
2896.075214
 20
1658.319580
 40
40.000000
 41
0.661017
  1
約8sec/50Hz，6sec/60Hz
 50
0.000000
 51
0.000000
  7
EASYDRAW_FONT
 72
     5
 11
3416.075176
 21
1658.319580
  0
LINE
  8
CSLAYER1
  6
CONTINUOUS
 62
     5
 10
3450.741954
 20
1758.319895
 11
2570.741954
 21
1758.319895
  0
TEXT
  8
CSLAYER1
 62
     3
 10
2584.074951
 20
1764.986328
 40
40.000000
 41
0.859091
  1
モーター
 50
0.000000
 51
0.000000
  7
EASYDRAW_FONT
 72
     5
 11
2710.074951
 21
1764.986328
  0
TEXT
  8
CSLAYER1
 62
     3
 10
2917.075195
 20
1764.986328
 40
40.000000
 41
0.814773
  1
AC200V，三相，0.4kw
 50
0.000000
 51
0.000000
  7
EASYDRAW_FONT
 72
     5
 11
3395.075195
 21
1764.986328
  0
LINE
  8
CSLAYER1
  6
CONTINUOUS
 62
     5
 10
2874.741954
 20
1491.653225
 11
2874.741954
 21
1598.319892
  0
LINE
  8
CSLAYER1
  6
CONTINUOUS
 62
     5
 10
2874.741954
 20
1651.653228
 11
2874.741954
 21
2344.986562
  0
INSERT
  8
CSLAYER1
  2
BLKF0001
 10
0.0
 20
0.0
 30
0.0
  0
INSERT
  8
CSLAYER1
  2
BLKF0002
 10
0.0
 20
0.0
 30
0.0
  0
LINE
  8
CSLAYER1
  6
CONTINUOUS
 62
     5
 10
406.386388
 20
734.438980
 11
593.898859
 21
734.438980
  0
LINE
  8
CSLAYER1
  6
DASHED
 62
     4
 10
1408.913347
 20
2066.799232
 11
2308.913347
 21
2066.799232
  0
LINE
  8
CSLAYER1
  6
CONTINUOUS
 62
     4
 10
1408.913347
 20
2116.799232
 11
1408.913347
 21
1816.799232
  0
LINE
  8
CSLAYER1
  6
CONTINUOUS
 62
     4
 10
2308.913347
 20
2116.799232
 11
2308.913347
 21
1816.799232
  0
LINE
  8
CSLAYER1
  6
CENTER
 62
     5
 10
1152.717493
 20
1996.799232
 11
1408.913347
 21
1996.799232
  0
LINE
  8
CSLAYER1
  6
CENTER
 62
     5
 10
1405.213347
 20
1966.799232
 11
2309.213347
 21
1966.799232
  0
ARC
  8
CSLAYER1
  6
CONTINUOUS
 62
     4
 10
1446.213347
 20
2106.799232
 40
10.000000
 50
0.000000
 51
90.000000
  0
LINE
  8
CSLAYER1
  6
CONTINUOUS
 62
     3
 10
1416.213347
 20
2116.799232
 11
1446.213347
 21
2116.799232
  0
ARC
  8
CSLAYER1
  6
CONTINUOUS
 62
     3
 10
1416.213347
 20
2106.799232
 40
10.000000
 50
136.886394
 51
180.000000
  0
LINE
  8
CSLAYER1
  6
CONTINUOUS
 62
     3
 10
1406.213347
 20
1992.649232
 11
1406.213347
 21
1826.799232
  0
LINE
  8
CSLAYER1
  6
DASHED
 62
     4
 10
1456.213347
 20
2106.799232
 11
1456.213347
 21
2066.799232
  0
LINE
  8
CSLAYER1
  6
CONTINUOUS
 62
     4
 10
1539.125612
 20
947.134172
 11
1532.335154
 21
951.658395
  0
LINE
  8
CSLAYER1
  6
CENTER
 62
     5
 10
1431.213347
 20
2080.536430
 11
1431.213347
 21
2103.062033
  0
LINE
  8
CSLAYER1
  6
CENTER
 62
     5
 10
1419.950545
 20
2091.799232
 11
1442.476148
 21
2091.799232
  0
ARC
  8
CSLAYER1
  6
CONTINUOUS
 62
     3
 10
1431.213347
 20
2091.799232
 40
6.500000
 50
158.664788
 51
204.921188
  0
LINE
  8
CSLAYER1
  6
CENTER
 62
     5
 10
743.898859
 20
1450.732390
 11
743.898859
 21
734.438980
  0
LINE
  8
CSLAYER1
  6
CONTINUOUS
 62
     3
 10
643.898859
 20
774.438980
 11
843.898859
 21
774.438980
  0
LINE
  8
CSLAYER1
  6
CONTINUOUS
 62
     3
 10
643.898859
 20
774.438980
 11
643.898859
 21
740.438980
  0
LINE
  8
CSLAYER1
  6
CONTINUOUS
 62
     3
 10
843.898859
 20
774.438980
 11
843.898859
 21
740.438980
  0
LINE
  8
CSLAYER1
  6
CONTINUOUS
 62
     3
 10
893.898859
 20
734.438980
 11
893.898859
 21
740.438980
  0
LINE
  8
CSLAYER1
  6
CENTER
 62
     5
 10
868.898859
 20
725.509619
 11
868.898859
 21
749.719580
  0
LINE
  8
CSLAYER1
  6
CONTINUOUS
 62
     3
 10
818.398859
 20
734.438980
 11
818.398859
 21
774.438980
  0
LINE
  8
CSLAYER1
  6
CONTINUOUS
 62
     3
 10
893.898859
 20
740.438980
 11
818.398859
 21
740.438980
  0
LINE
  8
CSLAYER1
  6
CONTINUOUS
 62
     3
 10
821.398859
 20
762.908635
 11
821.398859
 21
740.969325
  0
LINE
  8
CSLAYER1
  6
CONTINUOUS
 62
     3
 10
818.398859
 20
741.188980
 11
821.398859
 21
741.188980
  0
LINE
  8
CSLAYER1
  6
CONTINUOUS
 62
     3
 10
818.398859
 20
762.688980
 11
821.398859
 21
762.688980
  0
LINE
  8
CSLAYER1
  6
CONTINUOUS
 62
     3
 10
818.398859
 20
753.451176
 11
821.398859
 21
749.951176
  0
LINE
  8
CSLAYER1
  6
CONTINUOUS
 62
     3
 10
829.398859
 20
742.938980
 11
829.398859
 21
760.938980
  0
LINE
  8
CSLAYER1
  6
CONTINUOUS
 62
     3
 10
821.398859
 20
746.454152
 11
828.261678
 21
746.454152
  0
LINE
  8
CSLAYER1
  6
CONTINUOUS
 62
     3
 10
821.398859
 20
740.969325
 11
828.261678
 21
740.969325
  0
LINE
  8
CSLAYER1
  6
CONTINUOUS
 62
     3
 10
829.398859
 20
742.938980
 11
828.261678
 21
740.969325
  0
ARC
  8
CSLAYER1
  6
CONTINUOUS
 62
     3
 10
825.618814
 20
743.711738
 40
3.808617
 50
5.661633
 51
46.059028
  0
ARC
  8
CSLAYER1
  6
CONTINUOUS
 62
     3
 10
815.603115
 20
751.938980
 40
13.795744
 50
-23.426598
 51
23.426598
  0
LINE
  8
CSLAYER1
  6
CONTINUOUS
 62
     3
 10
821.398859
 20
757.423807
 11
828.261678
 21
757.423807
  0
LINE
  8
CSLAYER1
  6
CONTINUOUS
 62
     3
 10
821.398859
 20
762.908635
 11
828.261678
 21
762.908635
  0
LINE
  8
CSLAYER1
  6
CONTINUOUS
 62
     3
 10
829.398859
 20
760.938980
 11
828.261678
 21
762.908635
  0
ARC
  8
CSLAYER1
  6
CONTINUOUS
 62
     3
 10
825.618814
 20
760.166221
 40
3.808617
 50
313.940972
 51
354.338367
  0
LINE
  8
CSLAYER1
  6
CENTER
 62
     5
 10
818.398859
 20
751.938980
 11
829.398859
 21
751.938980
  0
LINE
  8
CSLAYER1
  6
CONTINUOUS
 62
     3
 10
593.898859
 20
734.438980
 11
593.898859
 21
740.438980
  0
LINE
  8
CSLAYER1
  6
CENTER
 62
     5
 10
618.898859
 20
725.509619
 11
618.898859
 21
749.719580
  0
LINE
  8
CSLAYER1
  6
CONTINUOUS
 62
     3
 10
593.898859
 20
740.438980
 11
669.398859
 21
740.438980
  0
LINE
  8
CSLAYER1
  6
CONTINUOUS
 62
     3
 10
666.398859
 20
762.908635
 11
666.398859
 21
740.969325
  0
LINE
  8
CSLAYER1
  6
CONTINUOUS
 62
     3
 10
669.398859
 20
741.188980
 11
666.398859
 21
741.188980
  0
LINE
  8
CSLAYER1
  6
CONTINUOUS
 62
     3
 10
669.398859
 20
762.688980
 11
666.398859
 21
762.688980
  0
LINE
  8
CSLAYER1
  6
CONTINUOUS
 62
     3
 10
669.398859
 20
753.451176
 11
666.398859
 21
749.951176
  0
LINE
  8
CSLAYER1
  6
CONTINUOUS
 62
     3
 10
658.398859
 20
742.938980
 11
658.398859
 21
760.938980
  0
LINE
  8
CSLAYER1
  6
CONTINUOUS
 62
     3
 10
666.398859
 20
746.454152
 11
659.536040
 21
746.454152
  0
LINE
  8
CSLAYER1
  6
CONTINUOUS
 62
     3
 10
666.398859
 20
740.969325
 11
659.536040
 21
740.969325
  0
LINE
  8
CSLAYER1
  6
CONTINUOUS
 62
     3
 10
658.398859
 20
742.938980
 11
659.536040
 21
740.969325
  0
ARC
  8
CSLAYER1
  6
CONTINUOUS
 62
     3
 10
662.178903
 20
743.711738
 40
3.808617
 50
133.940972
 51
174.338367
  0
ARC
  8
CSLAYER1
  6
CONTINUOUS
 62
     3
 10
672.194603
 20
751.938980
 40
13.795744
 50
156.573402
 51
203.426598
  0
LINE
  8
CSLAYER1
  6
CONTINUOUS
 62
     3
 10
666.398859
 20
757.423807
 11
659.536040
 21
757.423807
  0
LINE
  8
CSLAYER1
  6
CONTINUOUS
 62
     3
 10
666.398859
 20
762.908635
 11
659.536040
 21
762.908635
  0
LINE
  8
CSLAYER1
  6
CONTINUOUS
 62
     3
 10
658.398859
 20
760.938980
 11
659.536040
 21
762.908635
  0
ARC
  8
CSLAYER1
  6
CONTINUOUS
 62
     3
 10
662.178903
 20
760.166221
 40
3.808617
 50
185.661633
 51
226.059028
  0
LINE
  8
CSLAYER1
  6
CENTER
 62
     5
 10
669.398859
 20
751.938980
 11
658.398859
 21
751.938980
  0
LINE
  8
CSLAYER1
  6
CONTINUOUS
 62
     3
 10
669.398859
 20
734.438980
 11
669.398859
 21
774.438980
  0
LINE
  8
CSLAYER1
  6
CENTER
 62
     5
 10
713.898859
 20
737.749416
 11
713.898859
 21
771.012735
  0
LINE
  8
CSLAYER1
  6
CENTER
 62
     5
 10
696.024913
 20
754.438980
 11
733.021870
 21
754.438980
  0
CIRCLE
  8
CSLAYER1
  6
CONTINUOUS
 62
     3
 10
713.898859
 20
754.438980
 40
12.500000
  0
LINE
  8
CSLAYER1
  6
CONTINUOUS
 62
     3
 10
893.898859
 20
1450.732390
 11
593.898859
 21
1450.732390
  0
LINE
  8
CSLAYER1
  6
CONTINUOUS
 62
     3
 10
789.898859
 20
774.438980
 11
789.898859
 21
1432.732390
  0
LINE
  8
CSLAYER1
  6
CONTINUOUS
 62
     3
 10
798.898859
 20
774.438980
 11
798.898859
 21
1432.732390
  0
LINE
  8
CSLAYER1
  6
CONTINUOUS
 62
     3
 10
801.898859
 20
774.438980
 11
801.898859
 21
1420.432390
  0
LINE
  8
CSLAYER1
  6
CONTINUOUS
 62
     3
 10
810.898859
 20
774.438980
 11
810.898859
 21
1419.962735
  0
LINE
  8
CSLAYER1
  6
CONTINUOUS
 62
     3
 10
893.898859
 20
1432.732390
 11
593.898859
 21
1432.732390
  0
LINE
  8
CSLAYER1
  6
CONTINUOUS
 62
     3
 10
799.898859
 20
1422.282390
 11
798.898859
 21
1422.282390
  0
LINE
  8
CSLAYER1
  6
CONTINUOUS
 62
     3
 10
800.898859
 20
1432.732390
 11
800.898859
 21
1423.282390
  0
LINE
  8
CSLAYER1
  6
CONTINUOUS
 62
     3
 10
800.898859
 20
1423.282390
 11
799.898859
 21
1422.282390
  0
LINE
  8
CSLAYER1
  6
CONTINUOUS
 62
     3
 10
799.898859
 20
1432.732390
 11
799.898859
 21
1422.282390
  0
LINE
  8
CSLAYER1
  6
CONTINUOUS
 62
     3
 10
801.398859
 20
1420.432390
 11
807.398859
 21
1420.432390
  0
LINE
  8
CSLAYER1
  6
CONTINUOUS
 62
     3
 10
807.398859
 20
1432.732390
 11
807.398859
 21
1420.432390
  0
LINE
  8
CSLAYER1
  6
CONTINUOUS
 62
     3
 10
801.398859
 20
1432.732390
 11
801.398859
 21
1420.432390
  0
LINE
  8
CSLAYER1
  6
CONTINUOUS
 62
     3
 10
789.898859
 20
1422.282390
 11
697.898859
 21
1422.282390
  0
LINE
  8
CSLAYER1
  6
CENTER
 62
     5
 10
669.398859
 20
1430.932390
 11
818.398859
 21
1430.932390
  0
LINE
  8
CSLAYER1
  6
CONTINUOUS
 62
     3
 10
810.398859
 20
1419.962735
 11
810.398859
 21
1432.732390
  0
LINE
  8
CSLAYER1
  6
CONTINUOUS
 62
     3
 10
807.398859
 20
1420.182390
 11
810.398859
 21
1420.182390
  0
LINE
  8
CSLAYER1
  6
CONTINUOUS
 62
     3
 10
807.398859
 20
1429.420193
 11
810.237884
 21
1432.732390
  0
LINE
  8
CSLAYER1
  6
CONTINUOUS
 62
     3
 10
818.398859
 20
1432.732390
 11
818.398859
 21
1421.932390
  0
ARC
  8
CSLAYER1
  6
CONTINUOUS
 62
     3
 10
804.603115
 20
1430.932390
 40
13.795744
 50
-23.426598
 51
7.497043
  0
LINE
  8
CSLAYER1
  6
CONTINUOUS
 62
     3
 10
810.398859
 20
1425.447562
 11
817.261678
 21
1425.447562
  0
LINE
  8
CSLAYER1
  6
CONTINUOUS
 62
     3
 10
810.398859
 20
1419.962735
 11
817.261678
 21
1419.962735
  0
LINE
  8
CSLAYER1
  6
CONTINUOUS
 62
     3
 10
818.398859
 20
1421.932390
 11
817.261678
 21
1419.962735
  0
ARC
  8
CSLAYER1
  6
CONTINUOUS
 62
     3
 10
814.618814
 20
1422.705149
 40
3.808617
 50
5.661633
 51
46.059028
  0
LINE
  8
CSLAYER1
  6
CENTER
 62
     5
 10
688.898859
 20
1137.055360
 11
798.898859
 21
1137.055360
  0
LINE
  8
CSLAYER1
  6
CENTER
 62
     5
 10
664.398859
 20
1082.805743
 11
823.398859
 21
1082.805743
  0
LINE
  8
CSLAYER1
  6
CONTINUOUS
 62
     3
 10
822.398859
 20
1077.805743
 11
821.898859
 21
1077.805743
  0
LINE
  8
CSLAYER1
  6
CONTINUOUS
 62
     3
 10
811.398859
 20
1093.305743
 11
811.398859
 21
1072.305743
  0
LINE
  8
CSLAYER1
  6
CONTINUOUS
 62
     3
 10
823.398859
 20
1078.805743
 11
823.398859
 21
1086.805743
  0
LINE
  8
CSLAYER1
  6
CONTINUOUS
 62
     3
 10
801.898859
 20
1096.805743
 11
798.898859
 21
1096.805743
  0
LINE
  8
CSLAYER1
  6
CONTINUOUS
 62
     3
 10
801.898859
 20
1068.805743
 11
798.898859
 21
1068.805743
  0
LINE
  8
CSLAYER1
  6
CONTINUOUS
 62
     3
 10
813.398859
 20
1093.305743
 11
813.398859
 21
1072.305743
  0
LINE
  8
CSLAYER1
  6
CONTINUOUS
 62
     3
 10
815.898859
 20
1092.005743
 11
815.898859
 21
1073.605743
  0
LINE
  8
CSLAYER1
  6
CONTINUOUS
 62
     3
 10
815.898859
 20
1073.605743
 11
813.398859
 21
1073.605743
  0
LINE
  8
CSLAYER1
  6
CONTINUOUS
 62
     3
 10
813.398859
 20
1072.305743
 11
811.398859
 21
1072.305743
  0
LINE
  8
CSLAYER1
  6
CONTINUOUS
 62
     3
 10
815.898859
 20
1092.005743
 11
813.398859
 21
1092.005743
  0
LINE
  8
CSLAYER1
  6
CONTINUOUS
 62
     3
 10
813.398859
 20
1093.305743
 11
811.398859
 21
1093.305743
  0
LINE
  8
CSLAYER1
  6
CONTINUOUS
 62
     3
 10
821.898859
 20
1091.305743
 11
821.898859
 21
1074.305743
  0
LINE
  8
CSLAYER1
  6
CONTINUOUS
 62
     3
 10
822.398859
 20
1077.805743
 11
823.398859
 21
1078.805743
  0
LINE
  8
CSLAYER1
  6
CONTINUOUS
 62
     3
 10
823.098859
 20
1078.505743
 11
821.898859
 21
1078.505743
  0
LINE
  8
CSLAYER1
  6
CONTINUOUS
 62
     3
 10
822.398859
 20
1077.805743
 11
822.398859
 21
1087.805743
  0
LINE
  8
CSLAYER1
  6
CONTINUOUS
 62
     3
 10
821.139669
 20
1072.990788
 11
816.658048
 21
1072.990788
  0
LINE
  8
CSLAYER1
  6
CONTINUOUS
 62
     3
 10
821.139669
 20
1077.898265
 11
816.658048
 21
1077.898265
  0
LINE
  8
CSLAYER1
  6
CONTINUOUS
 62
     3
 10
821.898859
 20
1074.305743
 11
821.139669
 21
1072.990788
  0
ARC
  8
CSLAYER1
  6
CONTINUOUS
 62
     3
 10
805.658048
 20
1082.805743
 40
16.240811
 50
-17.587954
 51
17.587954
  0
ARC
  8
CSLAYER1
  6
CONTINUOUS
 62
     3
 10
817.557935
 20
1075.444527
 40
4.341619
 50
-27.480777
 51
34.413868
  0
LINE
  8
CSLAYER1
  6
CONTINUOUS
 62
     3
 10
821.898859
 20
1091.305743
 11
821.139669
 21
1092.620697
  0
ARC
  8
CSLAYER1
  6
CONTINUOUS
 62
     3
 10
817.557935
 20
1090.166958
 40
4.341619
 50
-34.413868
 51
27.480777
  0
LINE
  8
CSLAYER1
  6
CONTINUOUS
 62
     3
 10
815.898859
 20
1074.305743
 11
816.658048
 21
1072.990788
  0
ARC
  8
CSLAYER1
  6
CONTINUOUS
 62
     3
 10
832.139669
 20
1082.805743
 40
16.240811
 50
162.412046
 51
197.587954
  0
ARC
  8
CSLAYER1
  6
CONTINUOUS
 62
     3
 10
820.239783
 20
1075.444527
 40
4.341619
 50
145.586132
 51
207.480777
  0
LINE
  8
CSLAYER1
  6
CONTINUOUS
 62
     3
 10
815.898859
 20
1091.305743
 11
816.658048
 21
1092.620697
  0
ARC
  8
CSLAYER1
  6
CONTINUOUS
 62
     3
 10
820.239783
 20
1090.166958
 40
4.341619
 50
152.519223
 51
214.413868
  0
LINE
  8
CSLAYER1
  6
CONTINUOUS
 62
     3
 10
821.139669
 20
1092.620697
 11
816.658048
 21
1092.620697
  0
LINE
  8
CSLAYER1
  6
CONTINUOUS
 62
     3
 10
821.139669
 20
1087.713220
 11
816.658048
 21
1087.713220
  0
LINE
  8
CSLAYER1
  6
CONTINUOUS
 62
     3
 10
822.398859
 20
1087.805743
 11
821.898859
 21
1087.805743
  0
LINE
  8
CSLAYER1
  6
CONTINUOUS
 62
     3
 10
822.398859
 20
1087.805743
 11
823.398859
 21
1086.805743
  0
LINE
  8
CSLAYER1
  6
CONTINUOUS
 62
     3
 10
823.098859
 20
1087.105743
 11
821.898859
 21
1087.105743
  0
LINE
  8
CSLAYER1
  6
CONTINUOUS
 62
     3
 10
813.398859
 20
1084.707190
 11
815.898859
 21
1081.337625
  0
LINE
  8
CSLAYER1
  6
CONTINUOUS
 62
     3
 10
810.898859
 20
1075.305743
 11
811.398859
 21
1075.305743
  0
LINE
  8
CSLAYER1
  6
CONTINUOUS
 62
     3
 10
810.898859
 20
1090.305743
 11
811.398859
 21
1090.305743
  0
LINE
  8
CSLAYER1
  6
CENTER
 62
     5
 10
754.398859
 20
1137.055360
 11
754.398859
 21
807.973537
  0
LINE
  8
CSLAYER1
  6
CONTINUOUS
 62
     3
 10
783.398859
 20
786.519297
 11
783.398859
 21
840.062777
  0
LINE
  8
CSLAYER1
  6
CONTINUOUS
 62
     3
 10
777.398859
 20
786.519297
 11
777.398859
 21
840.062777
  0
LINE
  8
CSLAYER1
  6
CONTINUOUS
 62
     3
 10
725.398859
 20
786.519297
 11
725.398859
 21
840.062777
  0
LINE
  8
CSLAYER1
  6
CONTINUOUS
 62
     3
 10
731.398859
 20
786.519297
 11
731.398859
 21
840.062777
  0
LINE
  8
CSLAYER1
  6
CONTINUOUS
 62
     3
 10
776.898859
 20
1124.455360
 11
776.898859
 21
1149.655360
  0
LINE
  8
CSLAYER1
  6
CONTINUOUS
 62
     3
 10
731.898859
 20
1124.455360
 11
731.898859
 21
1149.655360
  0
LINE
  8
CSLAYER1
  6
CONTINUOUS
 62
     3
 10
732.898859
 20
1150.655360
 11
775.898859
 21
1150.655360
  0
LINE
  8
CSLAYER1
  6
CONTINUOUS
 62
     3
 10
731.898859
 20
1149.655360
 11
732.898859
 21
1150.655360
  0
LINE
  8
CSLAYER1
  6
CONTINUOUS
 62
     3
 10
775.898859
 20
1150.655360
 11
776.898859
 21
1149.655360
  0
POINT
  8
CSLAYER1
 62
     3
 10
754.398859
 20
1137.055360
  0
LINE
  8
CSLAYER1
  6
CONTINUOUS
 62
     3
 10
777.898859
 20
1145.055360
 11
776.898859
 21
1145.055360
  0
LINE
  8
CSLAYER1
  6
CONTINUOUS
 62
     3
 10
731.898859
 20
1145.055360
 11
730.898859
 21
1145.055360
  0
LINE
  8
CSLAYER1
  6
CONTINUOUS
 62
     3
 10
772.398859
 20
959.981442
 11
772.398859
 21
1125.390240
  0
LINE
  8
CSLAYER1
  6
CONTINUOUS
 62
     3
 10
772.398859
 20
1125.390240
 11
772.330363
 21
1126.150811
  0
LINE
  8
CSLAYER1
  6
CONTINUOUS
 62
     3
 10
772.330363
 20
1126.150811
 11
772.125398
 21
1126.905593
  0
LINE
  8
CSLAYER1
  6
CONTINUOUS
 62
     3
 10
772.125398
 20
1126.905593
 11
771.785524
 21
1127.648843
  0
LINE
  8
CSLAYER1
  6
CONTINUOUS
 62
     3
 10
771.785524
 20
1127.648843
 11
771.313326
 21
1128.374904
  0
LINE
  8
CSLAYER1
  6
CONTINUOUS
 62
     3
 10
771.313326
 20
1128.374904
 11
770.712399
 21
1129.078249
  0
LINE
  8
CSLAYER1
  6
CONTINUOUS
 62
     3
 10
770.712399
 20
1129.078249
 11
769.987316
 21
1129.753527
  0
LINE
  8
CSLAYER1
  6
CONTINUOUS
 62
     3
 10
769.987316
 20
1129.753527
 11
769.143596
 21
1130.395597
  0
LINE
  8
CSLAYER1
  6
CONTINUOUS
 62
     3
 10
769.143596
 20
1130.395597
 11
768.187659
 21
1130.999573
  0
LINE
  8
CSLAYER1
  6
CONTINUOUS
 62
     3
 10
768.187659
 20
1130.999573
 11
767.126781
 21
1131.560859
  0
LINE
  8
CSLAYER1
  6
CONTINUOUS
 62
     3
 10
767.126781
 20
1131.560859
 11
765.969036
 21
1132.075183
  0
LINE
  8
CSLAYER1
  6
CONTINUOUS
 62
     3
 10
765.969036
 20
1132.075183
 11
764.723235
 21
1132.538630
  0
LINE
  8
CSLAYER1
  6
CONTINUOUS
 62
     3
 10
764.723235
 20
1132.538630
 11
763.398859
 21
1132.947674
  0
LINE
  8
CSLAYER1
  6
CONTINUOUS
 62
     3
 10
763.398859
 20
1132.947674
 11
762.005987
 21
1133.299201
  0
LINE
  8
CSLAYER1
  6
CONTINUOUS
 62
     3
 10
762.005987
 20
1133.299201
 11
760.555221
 21
1133.590536
  0
LINE
  8
CSLAYER1
  6
CONTINUOUS
 62
     3
 10
760.555221
 20
1133.590536
 11
759.057602
 21
1133.819462
  0
LINE
  8
CSLAYER1
  6
CONTINUOUS
 62
     3
 10
759.057602
 20
1133.819462
 11
757.524526
 21
1133.984237
  0
LINE
  8
CSLAYER1
  6
CONTINUOUS
 62
     3
 10
757.524526
 20
1133.984237
 11
755.967662
 21
1134.083606
  0
LINE
  8
CSLAYER1
  6
CONTINUOUS
 62
     3
 10
755.967662
 20
1134.083606
 11
754.398859
 21
1134.116813
  0
LINE
  8
CSLAYER1
  6
CONTINUOUS
 62
     3
 10
754.398859
 20
1134.116813
 11
752.830055
 21
1134.083606
  0
LINE
  8
CSLAYER1
  6
CONTINUOUS
 62
     3
 10
752.830055
 20
1134.083606
 11
751.273192
 21
1133.984237
  0
LINE
  8
CSLAYER1
  6
CONTINUOUS
 62
     3
 10
751.273192
 20
1133.984237
 11
749.740116
 21
1133.819462
  0
LINE
  8
CSLAYER1
  6
CONTINUOUS
 62
     3
 10
749.740116
 20
1133.819462
 11
748.242496
 21
1133.590536
  0
LINE
  8
CSLAYER1
  6
CONTINUOUS
 62
     3
 10
748.242496
 20
1133.590536
 11
746.791730
 21
1133.299201
  0
LINE
  8
CSLAYER1
  6
CONTINUOUS
 62
     3
 10
746.791730
 20
1133.299201
 11
745.398859
 21
1132.947674
  0
LINE
  8
CSLAYER1
  6
CONTINUOUS
 62
     3
 10
745.398859
 20
1132.947674
 11
744.074483
 21
1132.538630
  0
LINE
  8
CSLAYER1
  6
CONTINUOUS
 62
     3
 10
744.074483
 20
1132.538630
 11
742.828682
 21
1132.075183
  0
LINE
  8
CSLAYER1
  6
CONTINUOUS
 62
     3
 10
742.828682
 20
1132.075183
 11
741.670937
 21
1131.560859
  0
LINE
  8
CSLAYER1
  6
CONTINUOUS
 62
     3
 10
741.670937
 20
1131.560859
 11
740.610059
 21
1130.999573
  0
LINE
  8
CSLAYER1
  6
CONTINUOUS
 62
     3
 10
740.610059
 20
1130.999573
 11
739.654122
 21
1130.395597
  0
LINE
  8
CSLAYER1
  6
CONTINUOUS
 62
     3
 10
739.654122
 20
1130.395597
 11
738.810401
 21
1129.753527
  0
LINE
  8
CSLAYER1
  6
CONTINUOUS
 62
     3
 10
738.810401
 20
1129.753527
 11
738.085319
 21
1129.078249
  0
LINE
  8
CSLAYER1
  6
CONTINUOUS
 62
     3
 10
738.085319
 20
1129.078249
 11
737.484392
 21
1128.374904
  0
LINE
  8
CSLAYER1
  6
CONTINUOUS
 62
     3
 10
737.484392
 20
1128.374904
 11
737.012194
 21
1127.648843
  0
LINE
  8
CSLAYER1
  6
CONTINUOUS
 62
     3
 10
737.012194
 20
1127.648843
 11
736.672319
 21
1126.905593
  0
LINE
  8
CSLAYER1
  6
CONTINUOUS
 62
     3
 10
736.672319
 20
1126.905593
 11
736.467354
 21
1126.150811
  0
LINE
  8
CSLAYER1
  6
CONTINUOUS
 62
     3
 10
736.467354
 20
1126.150811
 11
736.398859
 21
1125.390240
  0
LINE
  8
CSLAYER1
  6
CONTINUOUS
 62
     3
 10
736.398859
 20
960.020583
 11
736.398859
 21
1125.390240
  0
LINE
  8
CSLAYER1
  6
CENTER
 62
     5
 10
714.398859
 20
774.438980
 11
714.398859
 21
909.437616
  0
LINE
  8
CSLAYER1
  6
CONTINUOUS
 62
     3
 10
721.398859
 20
903.737616
 11
707.398859
 21
903.737616
  0
LINE
  8
CSLAYER1
  6
CONTINUOUS
 62
     3
 10
721.398859
 20
895.937616
 11
707.398859
 21
895.937616
  0
LINE
  8
CSLAYER1
  6
CONTINUOUS
 62
     3
 10
720.830791
 20
890.737616
 11
707.966927
 21
890.737616
  0
LINE
  8
CSLAYER1
  6
CONTINUOUS
 62
     3
 10
720.398859
 20
888.737616
 11
708.398859
 21
888.737616
  0
LINE
  8
CSLAYER1
  6
CONTINUOUS
 62
     3
 10
720.398859
 20
881.737616
 11
708.398859
 21
881.737616
  0
LINE
  8
CSLAYER1
  6
CONTINUOUS
 62
     3
 10
719.281885
 20
856.737616
 11
709.515833
 21
856.737616
  0
LINE
  8
CSLAYER1
  6
CONTINUOUS
 62
     3
 10
719.898859
 20
878.737616
 11
719.898859
 21
881.737616
  0
LINE
  8
CSLAYER1
  6
CONTINUOUS
 62
     3
 10
722.481763
 20
896.562830
 11
722.481763
 21
903.112401
  0
LINE
  8
CSLAYER1
  6
CONTINUOUS
 62
     3
 10
718.440311
 20
896.562830
 11
718.440311
 21
903.112401
  0
ARC
  8
CSLAYER1
  6
CONTINUOUS
 62
     3
 10
691.711088
 20
895.979837
 40
29.587800
 50
345.831727
 51
359.918240
  0
ARC
  8
CSLAYER1
  6
CONTINUOUS
 62
     3
 10
737.086629
 20
895.979837
 40
29.587800
 50
180.081760
 51
194.168273
  0
LINE
  8
CSLAYER1
  6
CONTINUOUS
 62
     3
 10
718.746173
 20
888.737616
 11
718.746173
 21
890.737616
  0
LINE
  8
CSLAYER1
  6
CONTINUOUS
 62
     3
 10
716.764407
 20
888.737616
 11
716.764407
 21
890.737616
  0
LINE
  8
CSLAYER1
  6
CONTINUOUS
 62
     3
 10
710.051545
 20
888.737616
 11
710.051545
 21
890.737616
  0
LINE
  8
CSLAYER1
  6
CONTINUOUS
 62
     3
 10
712.033310
 20
888.737616
 11
712.033310
 21
890.737616
  0
LINE
  8
CSLAYER1
  6
CONTINUOUS
 62
     3
 10
721.398859
 20
903.737616
 11
722.481763
 21
903.112401
  0
ARC
  8
CSLAYER1
  6
CONTINUOUS
 62
     3
 10
720.461037
 20
900.185987
 40
3.556295
 50
64.625569
 51
124.625569
  0
ARC
  8
CSLAYER1
  6
CONTINUOUS
 62
     3
 10
714.398859
 20
890.362830
 40
13.374785
 50
72.412046
 51
107.587954
  0
LINE
  8
CSLAYER1
  6
CONTINUOUS
 62
     3
 10
721.398859
 20
895.937616
 11
722.481763
 21
896.562830
  0
ARC
  8
CSLAYER1
  6
CONTINUOUS
 62
     3
 10
720.461037
 20
899.489245
 40
3.556295
 50
235.374431
 51
295.374431
  0
ARC
  8
CSLAYER1
  6
CONTINUOUS
 62
     3
 10
714.398859
 20
909.312401
 40
13.374785
 50
252.412046
 51
287.587954
  0
LINE
  8
CSLAYER1
  6
CONTINUOUS
 62
     3
 10
706.315955
 20
896.562830
 11
706.315955
 21
903.112401
  0
LINE
  8
CSLAYER1
  6
CONTINUOUS
 62
     3
 10
710.357407
 20
896.562830
 11
710.357407
 21
903.112401
  0
LINE
  8
CSLAYER1
  6
CONTINUOUS
 62
     3
 10
707.398859
 20
903.737616
 11
706.315955
 21
903.112401
  0
ARC
  8
CSLAYER1
  6
CONTINUOUS
 62
     3
 10
708.336681
 20
900.185987
 40
3.556295
 50
55.374431
 51
115.374431
  0
LINE
  8
CSLAYER1
  6
CONTINUOUS
 62
     3
 10
707.398859
 20
895.937616
 11
706.315955
 21
896.562830
  0
ARC
  8
CSLAYER1
  6
CONTINUOUS
 62
     3
 10
708.336681
 20
899.489245
 40
3.556295
 50
244.625569
 51
304.625569
  0
LINE
  8
CSLAYER1
  6
CONTINUOUS
 62
     3
 10
721.327062
 20
882.273514
 11
721.327062
 21
888.001717
  0
LINE
  8
CSLAYER1
  6
CONTINUOUS
 62
     3
 10
717.862960
 20
882.273514
 11
717.862960
 21
888.001717
  0
LINE
  8
CSLAYER1
  6
CONTINUOUS
 62
     3
 10
720.398859
 20
881.737616
 11
721.327062
 21
882.273514
  0
ARC
  8
CSLAYER1
  6
CONTINUOUS
 62
     3
 10
714.398859
 20
893.201717
 40
11.464102
 50
252.178595
 51
287.821405
  0
ARC
  8
CSLAYER1
  6
CONTINUOUS
 62
     3
 10
719.595011
 20
884.803544
 40
3.066114
 50
236.143645
 51
295.804157
  0
LINE
  8
CSLAYER1
  6
CONTINUOUS
 62
     3
 10
720.398859
 20
888.537616
 11
721.327062
 21
888.001717
  0
ARC
  8
CSLAYER1
  6
CONTINUOUS
 62
     3
 10
714.398859
 20
877.073514
 40
11.464102
 50
72.178595
 51
107.821405
  0
ARC
  8
CSLAYER1
  6
CONTINUOUS
 62
     3
 10
719.595011
 20
885.471687
 40
3.066114
 50
64.195843
 51
123.856355
  0
LINE
  8
CSLAYER1
  6
CONTINUOUS
 62
     3
 10
720.398859
 20
888.537616
 11
708.398859
 21
888.537616
  0
LINE
  8
CSLAYER1
  6
CONTINUOUS
 62
     3
 10
717.862960
 20
888.537616
 11
717.862960
 21
888.737616
  0
LINE
  8
CSLAYER1
  6
CONTINUOUS
 62
     3
 10
708.898859
 20
878.737616
 11
708.898859
 21
881.737616
  0
LINE
  8
CSLAYER1
  6
CONTINUOUS
 62
     3
 10
707.470656
 20
882.273514
 11
707.470656
 21
888.001717
  0
LINE
  8
CSLAYER1
  6
CONTINUOUS
 62
     3
 10
710.934757
 20
882.273514
 11
710.934757
 21
888.001717
  0
LINE
  8
CSLAYER1
  6
CONTINUOUS
 62
     3
 10
708.398859
 20
881.737616
 11
707.470656
 21
882.273514
  0
ARC
  8
CSLAYER1
  6
CONTINUOUS
 62
     3
 10
709.202706
 20
884.803544
 40
3.066114
 50
244.195843
 51
303.856355
  0
LINE
  8
CSLAYER1
  6
CONTINUOUS
 62
     3
 10
708.398859
 20
888.537616
 11
707.470656
 21
888.001717
  0
ARC
  8
CSLAYER1
  6
CONTINUOUS
 62
     3
 10
709.202706
 20
885.471687
 40
3.066114
 50
56.143645
 51
115.804157
  0
LINE
  8
CSLAYER1
  6
CONTINUOUS
 62
     3
 10
710.934757
 20
888.537616
 11
710.934757
 21
888.737616
  0
LINE
  8
CSLAYER1
  6
CONTINUOUS
 62
     3
 10
721.327062
 20
869.737616
 11
721.327062
 21
878.201717
  0
LINE
  8
CSLAYER1
  6
CONTINUOUS
 62
     3
 10
717.862960
 20
869.737616
 11
717.862960
 21
878.201717
  0
LINE
  8
CSLAYER1
  6
CONTINUOUS
 62
     3
 10
720.398859
 20
878.737616
 11
721.327062
 21
878.201717
  0
ARC
  8
CSLAYER1
  6
CONTINUOUS
 62
     3
 10
714.398859
 20
867.273514
 40
11.464102
 50
72.178595
 51
107.821405
  0
ARC
  8
CSLAYER1
  6
CONTINUOUS
 62
     3
 10
719.595011
 20
875.671687
 40
3.066114
 50
64.195843
 51
123.856355
  0
LINE
  8
CSLAYER1
  6
CONTINUOUS
 62
     3
 10
720.398859
 20
878.737616
 11
708.398859
 21
878.737616
  0
LINE
  8
CSLAYER1
  6
CONTINUOUS
 62
     3
 10
707.470656
 20
869.737616
 11
707.470656
 21
878.201717
  0
LINE
  8
CSLAYER1
  6
CONTINUOUS
 62
     3
 10
710.934757
 20
869.737616
 11
710.934757
 21
878.201717
  0
LINE
  8
CSLAYER1
  6
CONTINUOUS
 62
     3
 10
708.398859
 20
878.737616
 11
707.470656
 21
878.201717
  0
ARC
  8
CSLAYER1
  6
CONTINUOUS
 62
     3
 10
709.202706
 20
875.671687
 40
3.066114
 50
56.143645
 51
115.804157
  0
LINE
  8
CSLAYER1
  6
CONTINUOUS
 62
     3
 10
720.278140
 20
857.651156
 11
721.327062
 21
869.737616
  0
ARC
  8
CSLAYER1
  6
CONTINUOUS
 62
     3
 10
699.221370
 20
869.737616
 40
18.641590
 50
330.443788
 51
360.000000
  0
ARC
  8
CSLAYER1
  6
CONTINUOUS
 62
     3
 10
714.398859
 20
861.177470
 40
1.217263
 50
210.578468
 51
329.421532
  0
ARC
  8
CSLAYER1
  6
CONTINUOUS
 62
     3
 10
736.504550
 20
869.737616
 40
18.641590
 50
180.000000
 51
209.556212
  0
ARC
  8
CSLAYER1
  6
CONTINUOUS
 62
     3
 10
721.327062
 20
861.177470
 40
1.217263
 50
210.578468
 51
227.594217
  0
ARC
  8
CSLAYER1
  6
CONTINUOUS
 62
     3
 10
719.281885
 20
857.737616
 40
1.000000
 50
270.000000
 51
355.040021
  0
LINE
  8
CSLAYER1
  6
CONTINUOUS
 62
     3
 10
708.519577
 20
857.651156
 11
707.470656
 21
869.737616
  0
ARC
  8
CSLAYER1
  6
CONTINUOUS
 62
     3
 10
729.576347
 20
869.737616
 40
18.641590
 50
180.000000
 51
209.556212
  0
ARC
  8
CSLAYER1
  6
CONTINUOUS
 62
     3
 10
692.293167
 20
869.737616
 40
18.641590
 50
330.443788
 51
360.000000
  0
ARC
  8
CSLAYER1
  6
CONTINUOUS
 62
     3
 10
707.470656
 20
861.177470
 40
1.217263
 50
312.405783
 51
329.421532
  0
ARC
  8
CSLAYER1
  6
CONTINUOUS
 62
     3
 10
709.515833
 20
857.737616
 40
1.000000
 50
184.959979
 51
270.000000
  0
LINE
  8
CSLAYER1
  6
CONTINUOUS
 62
     3
 10
721.398859
 20
923.437616
 11
708.898859
 21
923.437616
  0
LINE
  8
CSLAYER1
  6
CENTER
 62
     5
 10
726.898859
 20
916.437616
 11
721.398859
 21
916.437616
  0
LINE
  8
CSLAYER1
  6
CONTINUOUS
 62
     3
 10
707.398859
 20
909.437616
 11
707.398859
 21
921.937616
  0
LINE
  8
CSLAYER1
  6
CONTINUOUS
 62
     3
 10
721.398859
 20
909.437616
 11
707.398859
 21
909.437616
  0
LINE
  8
CSLAYER1
  6
CONTINUOUS
 62
     3
 10
721.398859
 20
909.437616
 11
721.398859
 21
923.435171
  0
LINE
  8
CSLAYER1
  6
CONTINUOUS
 62
     3
 10
718.998859
 20
903.737616
 11
718.998859
 21
909.437616
  0
LINE
  8
CSLAYER1
  6
CONTINUOUS
 62
     5
 10
718.398859
 20
903.737616
 11
718.398859
 21
908.398385
  0
LINE
  8
CSLAYER1
  6
CONTINUOUS
 62
     5
 10
718.998859
 20
909.437616
 11
718.398859
 21
908.398385
  0
LINE
  8
CSLAYER1
  6
CONTINUOUS
 62
     3
 10
709.798859
 20
903.737616
 11
709.798859
 21
909.437616
  0
LINE
  8
CSLAYER1
  6
CONTINUOUS
 62
     5
 10
709.798859
 20
909.437616
 11
710.398859
 21
908.398385
  0
LINE
  8
CSLAYER1
  6
CONTINUOUS
 62
     5
 10
718.398859
 20
908.398385
 11
710.398859
 21
908.398385
  0
LINE
  8
CSLAYER1
  6
CONTINUOUS
 62
     3
 10
726.898859
 20
911.585830
 11
721.398859
 21
911.487616
  0
LINE
  8
CSLAYER1
  6
CONTINUOUS
 62
     5
 10
726.898859
 20
912.285942
 11
721.386361
 21
912.187504
  0
LINE
  8
CSLAYER1
  6
CONTINUOUS
 62
     3
 10
726.898859
 20
921.289401
 11
721.398859
 21
921.387616
  0
LINE
  8
CSLAYER1
  6
CONTINUOUS
 62
     5
 10
726.898859
 20
920.589290
 11
721.386361
 21
920.687727
  0
ARC
  8
CSLAYER1
  6
CONTINUOUS
 62
     3
 10
708.898859
 20
921.937616
 40
1.500000
 50
90.000000
 51
180.000000
  0
LINE
  8
CSLAYER1
  6
CONTINUOUS
 62
     3
 10
732.898859
 20
1123.455360
 11
736.398859
 21
1123.455360
  0
LINE
  8
CSLAYER1
  6
CONTINUOUS
 62
     3
 10
731.898859
 20
1124.455360
 11
732.898859
 21
1123.455360
  0
LINE
  8
CSLAYER1
  6
CONTINUOUS
 62
     3
 10
775.898859
 20
1123.455360
 11
776.898859
 21
1124.455360
  0
LINE
  8
CSLAYER1
  6
CONTINUOUS
 62
     3
 10
777.898859
 20
1129.055360
 11
776.898859
 21
1129.055360
  0
LINE
  8
CSLAYER1
  6
CONTINUOUS
 62
     3
 10
731.898859
 20
1129.055360
 11
730.898859
 21
1129.055360
  0
LINE
  8
CSLAYER1
  6
CONTINUOUS
 62
     3
 10
718.898859
 20
1154.055360
 11
730.898859
 21
1154.055360
  0
LINE
  8
CSLAYER1
  6
CONTINUOUS
 62
     3
 10
718.898859
 20
1082.299199
 11
730.898859
 21
1082.299199
  0
LINE
  8
CSLAYER1
  6
CONTINUOUS
 62
     3
 10
777.898859
 20
1082.299199
 11
777.898859
 21
1154.055360
  0
LINE
  8
CSLAYER1
  6
CONTINUOUS
 62
     3
 10
730.898859
 20
1082.299199
 11
730.898859
 21
1154.055360
  0
LINE
  8
CSLAYER1
  6
CONTINUOUS
 62
     3
 10
718.898859
 20
1082.299199
 11
718.898859
 21
1154.055360
  0
LINE
  8
CSLAYER1
  6
CONTINUOUS
 62
     3
 10
777.898859
 20
1082.299199
 11
789.898859
 21
1082.299199
  0
LINE
  8
CSLAYER1
  6
CONTINUOUS
 62
     3
 10
777.898859
 20
1154.055360
 11
789.898859
 21
1154.055360
  0
LINE
  8
CSLAYER1
  6
CONTINUOUS
 62
     3
 10
697.898859
 20
1145.055360
 11
718.898859
 21
1145.055360
  0
LINE
  8
CSLAYER1
  6
CONTINUOUS
 62
     3
 10
697.898859
 20
1129.055360
 11
718.898859
 21
1129.055360
  0
LINE
  8
CSLAYER1
  6
CONTINUOUS
 62
     3
 10
789.898859
 20
1228.012409
 11
697.898859
 21
1228.012409
  0
LINE
  8
CSLAYER1
  6
CONTINUOUS
 62
     3
 10
665.398859
 20
1077.805743
 11
665.898859
 21
1077.805743
  0
LINE
  8
CSLAYER1
  6
CONTINUOUS
 62
     3
 10
676.398859
 20
1093.305743
 11
676.398859
 21
1072.305743
  0
LINE
  8
CSLAYER1
  6
CONTINUOUS
 62
     3
 10
664.398859
 20
1078.805743
 11
664.398859
 21
1086.805743
  0
LINE
  8
CSLAYER1
  6
CONTINUOUS
 62
     3
 10
685.898859
 20
1096.805743
 11
688.898859
 21
1096.805743
  0
LINE
  8
CSLAYER1
  6
CONTINUOUS
 62
     3
 10
685.898859
 20
774.438980
 11
685.898859
 21
1420.432390
  0
LINE
  8
CSLAYER1
  6
CONTINUOUS
 62
     3
 10
688.898859
 20
774.438980
 11
688.898859
 21
1432.732390
  0
LINE
  8
CSLAYER1
  6
CONTINUOUS
 62
     3
 10
685.898859
 20
1068.805743
 11
688.898859
 21
1068.805743
  0
LINE
  8
CSLAYER1
  6
CONTINUOUS
 62
     3
 10
674.398859
 20
1093.305743
 11
674.398859
 21
1072.305743
  0
LINE
  8
CSLAYER1
  6
CONTINUOUS
 62
     3
 10
671.898859
 20
1092.005743
 11
671.898859
 21
1073.605743
  0
LINE
  8
CSLAYER1
  6
CONTINUOUS
 62
     3
 10
671.898859
 20
1073.605743
 11
674.398859
 21
1073.605743
  0
LINE
  8
CSLAYER1
  6
CONTINUOUS
 62
     3
 10
674.398859
 20
1072.305743
 11
676.398859
 21
1072.305743
  0
LINE
  8
CSLAYER1
  6
CONTINUOUS
 62
     3
 10
671.898859
 20
1092.005743
 11
674.398859
 21
1092.005743
  0
LINE
  8
CSLAYER1
  6
CONTINUOUS
 62
     3
 10
674.398859
 20
1093.305743
 11
676.398859
 21
1093.305743
  0
LINE
  8
CSLAYER1
  6
CONTINUOUS
 62
     3
 10
665.898859
 20
1091.305743
 11
665.898859
 21
1074.305743
  0
LINE
  8
CSLAYER1
  6
CONTINUOUS
 62
     3
 10
665.398859
 20
1077.805743
 11
664.398859
 21
1078.805743
  0
LINE
  8
CSLAYER1
  6
CONTINUOUS
 62
     3
 10
664.698859
 20
1078.505743
 11
665.898859
 21
1078.505743
  0
LINE
  8
CSLAYER1
  6
CONTINUOUS
 62
     3
 10
665.398859
 20
1077.805743
 11
665.398859
 21
1087.805743
  0
LINE
  8
CSLAYER1
  6
CONTINUOUS
 62
     3
 10
666.658048
 20
1072.990788
 11
671.139669
 21
1072.990788
  0
LINE
  8
CSLAYER1
  6
CONTINUOUS
 62
     3
 10
666.658048
 20
1077.898265
 11
671.139669
 21
1077.898265
  0
LINE
  8
CSLAYER1
  6
CONTINUOUS
 62
     3
 10
665.898859
 20
1074.305743
 11
666.658048
 21
1072.990788
  0
ARC
  8
CSLAYER1
  6
CONTINUOUS
 62
     3
 10
682.139669
 20
1082.805743
 40
16.240811
 50
162.412046
 51
197.587954
  0
ARC
  8
CSLAYER1
  6
CONTINUOUS
 62
     3
 10
670.239783
 20
1075.444527
 40
4.341619
 50
145.586132
 51
207.480777
  0
LINE
  8
CSLAYER1
  6
CONTINUOUS
 62
     3
 10
665.898859
 20
1091.305743
 11
666.658048
 21
1092.620697
  0
ARC
  8
CSLAYER1
  6
CONTINUOUS
 62
     3
 10
670.239783
 20
1090.166958
 40
4.341619
 50
152.519223
 51
214.413868
  0
LINE
  8
CSLAYER1
  6
CONTINUOUS
 62
     3
 10
671.898859
 20
1074.305743
 11
671.139669
 21
1072.990788
  0
ARC
  8
CSLAYER1
  6
CONTINUOUS
 62
     3
 10
655.658048
 20
1082.805743
 40
16.240811
 50
-17.587954
 51
17.587954
  0
ARC
  8
CSLAYER1
  6
CONTINUOUS
 62
     3
 10
667.557935
 20
1075.444527
 40
4.341619
 50
-27.480777
 51
34.413868
  0
LINE
  8
CSLAYER1
  6
CONTINUOUS
 62
     3
 10
671.898859
 20
1091.305743
 11
671.139669
 21
1092.620697
  0
ARC
  8
CSLAYER1
  6
CONTINUOUS
 62
     3
 10
667.557935
 20
1090.166958
 40
4.341619
 50
-34.413868
 51
27.480777
  0
LINE
  8
CSLAYER1
  6
CONTINUOUS
 62
     3
 10
666.658048
 20
1092.620697
 11
671.139669
 21
1092.620697
  0
LINE
  8
CSLAYER1
  6
CONTINUOUS
 62
     3
 10
666.658048
 20
1087.713220
 11
671.139669
 21
1087.713220
  0
LINE
  8
CSLAYER1
  6
CONTINUOUS
 62
     3
 10
665.398859
 20
1087.805743
 11
665.898859
 21
1087.805743
  0
LINE
  8
CSLAYER1
  6
CONTINUOUS
 62
     3
 10
665.398859
 20
1087.805743
 11
664.398859
 21
1086.805743
  0
LINE
  8
CSLAYER1
  6
CONTINUOUS
 62
     3
 10
664.698859
 20
1087.105743
 11
665.898859
 21
1087.105743
  0
LINE
  8
CSLAYER1
  6
CONTINUOUS
 62
     3
 10
674.398859
 20
1084.707190
 11
671.898859
 21
1081.337625
  0
LINE
  8
CSLAYER1
  6
CONTINUOUS
 62
     3
 10
676.898859
 20
1075.305743
 11
676.398859
 21
1075.305743
  0
LINE
  8
CSLAYER1
  6
CONTINUOUS
 62
     3
 10
676.898859
 20
1090.305743
 11
676.398859
 21
1090.305743
  0
LINE
  8
CSLAYER1
  6
CONTINUOUS
 62
     3
 10
687.898859
 20
1422.282390
 11
688.898859
 21
1422.282390
  0
LINE
  8
CSLAYER1
  6
CONTINUOUS
 62
     3
 10
686.898859
 20
1432.732390
 11
686.898859
 21
1423.282390
  0
LINE
  8
CSLAYER1
  6
CONTINUOUS
 62
     3
 10
686.898859
 20
1423.282390
 11
687.898859
 21
1422.282390
  0
LINE
  8
CSLAYER1
  6
CONTINUOUS
 62
     3
 10
687.898859
 20
1432.732390
 11
687.898859
 21
1422.282390
  0
LINE
  8
CSLAYER1
  6
CONTINUOUS
 62
     3
 10
686.398859
 20
1420.432390
 11
680.398859
 21
1420.432390
  0
LINE
  8
CSLAYER1
  6
CONTINUOUS
 62
     3
 10
680.398859
 20
1432.732390
 11
680.398859
 21
1420.182390
  0
LINE
  8
CSLAYER1
  6
CONTINUOUS
 62
     3
 10
686.398859
 20
1432.732390
 11
686.398859
 21
1420.432390
  0
LINE
  8
CSLAYER1
  6
CONTINUOUS
 62
     3
 10
677.398859
 20
1419.962735
 11
677.398859
 21
1432.732390
  0
LINE
  8
CSLAYER1
  6
CONTINUOUS
 62
     3
 10
680.398859
 20
1420.182390
 11
677.398859
 21
1420.182390
  0
LINE
  8
CSLAYER1
  6
CONTINUOUS
 62
     3
 10
680.398859
 20
1429.420193
 11
677.559833
 21
1432.732390
  0
LINE
  8
CSLAYER1
  6
CONTINUOUS
 62
     3
 10
669.398859
 20
1432.732390
 11
669.398859
 21
1421.932390
  0
ARC
  8
CSLAYER1
  6
CONTINUOUS
 62
     3
 10
683.194603
 20
1430.932390
 40
13.795744
 50
172.502957
 51
203.426598
  0
LINE
  8
CSLAYER1
  6
CONTINUOUS
 62
     3
 10
677.398859
 20
1425.447562
 11
670.536040
 21
1425.447562
  0
LINE
  8
CSLAYER1
  6
CONTINUOUS
 62
     3
 10
677.398859
 20
1419.962735
 11
670.536040
 21
1419.962735
  0
LINE
  8
CSLAYER1
  6
CONTINUOUS
 62
     3
 10
669.398859
 20
1421.932390
 11
670.536040
 21
1419.962735
  0
ARC
  8
CSLAYER1
  6
CONTINUOUS
 62
     3
 10
673.178903
 20
1422.705149
 40
3.808617
 50
133.940972
 51
174.338367
  0
LINE
  8
CSLAYER1
  6
CONTINUOUS
 62
     3
 10
697.898859
 20
774.438980
 11
697.898859
 21
1432.732390
  0
LINE
  8
CSLAYER1
  6
CONTINUOUS
 62
     3
 10
676.898859
 20
774.438980
 11
676.898859
 21
1419.962735
  0
LINE
  8
CSLAYER1
  6
CONTINUOUS
 62
     3
 10
658.898859
 20
1418.432390
 11
658.898859
 21
1432.732390
  0
LINE
  8
CSLAYER1
  6
CONTINUOUS
 62
     3
 10
663.398859
 20
1418.432390
 11
663.398859
 21
1432.732390
  0
LINE
  8
CSLAYER1
  6
CONTINUOUS
 62
     3
 10
658.898859
 20
1418.432390
 11
663.398859
 21
1418.432390
  0
LINE
  8
CSLAYER1
  6
CONTINUOUS
 62
     3
 10
828.898859
 20
1418.432390
 11
828.898859
 21
1432.732390
  0
LINE
  8
CSLAYER1
  6
CONTINUOUS
 62
     3
 10
824.398859
 20
1418.432390
 11
824.398859
 21
1432.732390
  0
LINE
  8
CSLAYER1
  6
CONTINUOUS
 62
     3
 10
828.898859
 20
1418.432390
 11
824.398859
 21
1418.432390
  0
LINE
  8
CSLAYER1
  6
CONTINUOUS
 62
     3
 10
772.398859
 20
1123.455360
 11
775.898859
 21
1123.455360
  0
LINE
  8
CSLAYER1
  6
CONTINUOUS
 62
     3
 10
697.898859
 20
1108.774922
 11
718.898859
 21
1108.774922
  0
LINE
  8
CSLAYER1
  6
CONTINUOUS
 62
     3
 10
697.898859
 20
1060.174922
 11
736.398859
 21
1060.174922
  0
LINE
  8
CSLAYER1
  6
CONTINUOUS
 62
     3
 10
697.898859
 20
1367.295876
 11
789.898859
 21
1367.295876
  0
LINE
  8
CSLAYER1
  6
CONTINUOUS
 62
     3
 10
730.898859
 20
1108.774922
 11
736.398859
 21
1108.774922
  0
LINE
  8
CSLAYER1
  6
CONTINUOUS
 62
     3
 10
772.398859
 20
1108.774922
 11
777.898859
 21
1108.774922
  0
LINE
  8
CSLAYER1
  6
CONTINUOUS
 62
     3
 10
772.398859
 20
1060.174922
 11
789.898859
 21
1060.174922
  0
LINE
  8
CSLAYER1
  6
CENTER
 62
     5
 10
725.398859
 20
824.062777
 11
783.398859
 21
824.062777
  0
LINE
  8
CSLAYER1
  6
CONTINUOUS
 62
     3
 10
777.311337
 20
954.026509
 11
781.794213
 21
936.737283
  0
LINE
  8
CSLAYER1
  6
CONTINUOUS
 62
     3
 10
777.311337
 20
954.026509
 11
777.049437
 21
954.990954
  0
LINE
  8
CSLAYER1
  6
CONTINUOUS
 62
     3
 10
777.049437
 20
954.990954
 11
776.615153
 21
955.940662
  0
LINE
  8
CSLAYER1
  6
CONTINUOUS
 62
     3
 10
776.615153
 20
955.940662
 11
776.011789
 21
956.868406
  0
LINE
  8
CSLAYER1
  6
CONTINUOUS
 62
     3
 10
776.011789
 20
956.868406
 11
775.243938
 21
957.767125
  0
LINE
  8
CSLAYER1
  6
CONTINUOUS
 62
     3
 10
775.243938
 20
957.767125
 11
774.317443
 21
958.629979
  0
LINE
  8
CSLAYER1
  6
CONTINUOUS
 62
     3
 10
774.317443
 20
958.629979
 11
773.239356
 21
959.450402
  0
LINE
  8
CSLAYER1
  6
CONTINUOUS
 62
     3
 10
773.239356
 20
959.450402
 11
772.017881
 21
960.222150
  0
LINE
  8
CSLAYER1
  6
CONTINUOUS
 62
     3
 10
772.017881
 20
960.222150
 11
770.662315
 21
960.939349
  0
LINE
  8
CSLAYER1
  6
CONTINUOUS
 62
     3
 10
770.662315
 20
960.939349
 11
769.182974
 21
961.596540
  0
LINE
  8
CSLAYER1
  6
CONTINUOUS
 62
     3
 10
769.182974
 20
961.596540
 11
767.591117
 21
962.188723
  0
LINE
  8
CSLAYER1
  6
CONTINUOUS
 62
     3
 10
767.591117
 20
962.188723
 11
765.898859
 21
962.711390
  0
LINE
  8
CSLAYER1
  6
CONTINUOUS
 62
     3
 10
765.898859
 20
962.711390
 11
764.119079
 21
963.160564
  0
LINE
  8
CSLAYER1
  6
CONTINUOUS
 62
     3
 10
764.119079
 20
963.160564
 11
762.265322
 21
963.532825
  0
LINE
  8
CSLAYER1
  6
CONTINUOUS
 62
     3
 10
762.265322
 20
963.532825
 11
760.351697
 21
963.825342
  0
LINE
  8
CSLAYER1
  6
CONTINUOUS
 62
     3
 10
760.351697
 20
963.825342
 11
758.392767
 21
964.035887
  0
LINE
  8
CSLAYER1
  6
CONTINUOUS
 62
     3
 10
758.392767
 20
964.035887
 11
756.403441
 21
964.162859
  0
LINE
  8
CSLAYER1
  6
CONTINUOUS
 62
     3
 10
756.403441
 20
964.162859
 11
754.398859
 21
964.205290
  0
LINE
  8
CSLAYER1
  6
CONTINUOUS
 62
     3
 10
731.486381
 20
954.026509
 11
727.003505
 21
936.737283
  0
LINE
  8
CSLAYER1
  6
CONTINUOUS
 62
     3
 10
731.486381
 20
954.026509
 11
731.748280
 21
954.990954
  0
LINE
  8
CSLAYER1
  6
CONTINUOUS
 62
     3
 10
731.748280
 20
954.990954
 11
732.182565
 21
955.940662
  0
LINE
  8
CSLAYER1
  6
CONTINUOUS
 62
     3
 10
732.182565
 20
955.940662
 11
732.785928
 21
956.868406
  0
LINE
  8
CSLAYER1
  6
CONTINUOUS
 62
     3
 10
732.785928
 20
956.868406
 11
733.553780
 21
957.767125
  0
LINE
  8
CSLAYER1
  6
CONTINUOUS
 62
     3
 10
733.553780
 20
957.767125
 11
734.480274
 21
958.629979
  0
LINE
  8
CSLAYER1
  6
CONTINUOUS
 62
     3
 10
734.480274
 20
958.629979
 11
735.558362
 21
959.450402
  0
LINE
  8
CSLAYER1
  6
CONTINUOUS
 62
     3
 10
735.558362
 20
959.450402
 11
736.779837
 21
960.222150
  0
LINE
  8
CSLAYER1
  6
CONTINUOUS
 62
     3
 10
736.779837
 20
960.222150
 11
738.135403
 21
960.939349
  0
LINE
  8
CSLAYER1
  6
CONTINUOUS
 62
     3
 10
738.135403
 20
960.939349
 11
739.614744
 21
961.596540
  0
LINE
  8
CSLAYER1
  6
CONTINUOUS
 62
     3
 10
739.614744
 20
961.596540
 11
741.206601
 21
962.188723
  0
LINE
  8
CSLAYER1
  6
CONTINUOUS
 62
     3
 10
741.206601
 20
962.188723
 11
742.898859
 21
962.711390
  0
LINE
  8
CSLAYER1
  6
CONTINUOUS
 62
     3
 10
742.898859
 20
962.711390
 11
744.678639
 21
963.160564
  0
LINE
  8
CSLAYER1
  6
CONTINUOUS
 62
     3
 10
744.678639
 20
963.160564
 11
746.532395
 21
963.532825
  0
LINE
  8
CSLAYER1
  6
CONTINUOUS
 62
     3
 10
746.532395
 20
963.532825
 11
748.446021
 21
963.825342
  0
LINE
  8
CSLAYER1
  6
CONTINUOUS
 62
     3
 10
748.446021
 20
963.825342
 11
750.404951
 21
964.035887
  0
LINE
  8
CSLAYER1
  6
CONTINUOUS
 62
     3
 10
750.404951
 20
964.035887
 11
752.394277
 21
964.162859
  0
LINE
  8
CSLAYER1
  6
CONTINUOUS
 62
     3
 10
752.394277
 20
964.162859
 11
754.398859
 21
964.205290
  0
LINE
  8
CSLAYER1
  6
CONTINUOUS
 62
     3
 10
781.898859
 20
935.575300
 11
781.898859
 21
904.986404
  0
LINE
  8
CSLAYER1
  6
CONTINUOUS
 62
     3
 10
781.898859
 20
935.575300
 11
781.794213
 21
936.737283
  0
LINE
  8
CSLAYER1
  6
CONTINUOUS
 62
     3
 10
781.794213
 20
936.737283
 11
781.481072
 21
937.890423
  0
LINE
  8
CSLAYER1
  6
CONTINUOUS
 62
     3
 10
781.481072
 20
937.890423
 11
780.961819
 21
939.025944
  0
LINE
  8
CSLAYER1
  6
CONTINUOUS
 62
     3
 10
780.961819
 20
939.025944
 11
780.240406
 21
940.135203
  0
LINE
  8
CSLAYER1
  6
CONTINUOUS
 62
     3
 10
780.240406
 20
940.135203
 11
779.322323
 21
941.209758
  0
LINE
  8
CSLAYER1
  6
CONTINUOUS
 62
     3
 10
779.322323
 20
941.209758
 11
778.214557
 21
942.241432
  0
LINE
  8
CSLAYER1
  6
CONTINUOUS
 62
     3
 10
778.214557
 20
942.241432
 11
776.925540
 21
943.222372
  0
LINE
  8
CSLAYER1
  6
CONTINUOUS
 62
     3
 10
776.925540
 20
943.222372
 11
775.465081
 21
944.145114
  0
LINE
  8
CSLAYER1
  6
CONTINUOUS
 62
     3
 10
775.465081
 20
944.145114
 11
773.844295
 21
945.002634
  0
LINE
  8
CSLAYER1
  6
CONTINUOUS
 62
     3
 10
773.844295
 20
945.002634
 11
772.075518
 21
945.788407
  0
LINE
  8
CSLAYER1
  6
CONTINUOUS
 62
     3
 10
772.075518
 20
945.788407
 11
770.172211
 21
946.496451
  0
LINE
  8
CSLAYER1
  6
CONTINUOUS
 62
     3
 10
770.172211
 20
946.496451
 11
768.148859
 21
947.121379
  0
LINE
  8
CSLAYER1
  6
CONTINUOUS
 62
     3
 10
768.148859
 20
947.121379
 11
766.020861
 21
947.658435
  0
LINE
  8
CSLAYER1
  6
CONTINUOUS
 62
     3
 10
766.020861
 20
947.658435
 11
763.804413
 21
948.103530
  0
LINE
  8
CSLAYER1
  6
CONTINUOUS
 62
     3
 10
763.804413
 20
948.103530
 11
761.516382
 21
948.453278
  0
LINE
  8
CSLAYER1
  6
CONTINUOUS
 62
     3
 10
761.516382
 20
948.453278
 11
759.174184
 21
948.705017
  0
LINE
  8
CSLAYER1
  6
CONTINUOUS
 62
     3
 10
759.174184
 20
948.705017
 11
756.795642
 21
948.856831
  0
LINE
  8
CSLAYER1
  6
CONTINUOUS
 62
     3
 10
756.795642
 20
948.856831
 11
754.398859
 21
948.907564
  0
LINE
  8
CSLAYER1
  6
CONTINUOUS
 62
     3
 10
754.398859
 20
948.907564
 11
752.002076
 21
948.856831
  0
LINE
  8
CSLAYER1
  6
CONTINUOUS
 62
     3
 10
752.002076
 20
948.856831
 11
749.623534
 21
948.705017
  0
LINE
  8
CSLAYER1
  6
CONTINUOUS
 62
     3
 10
749.623534
 20
948.705017
 11
747.281335
 21
948.453278
  0
LINE
  8
CSLAYER1
  6
CONTINUOUS
 62
     3
 10
747.281335
 20
948.453278
 11
744.993305
 21
948.103530
  0
LINE
  8
CSLAYER1
  6
CONTINUOUS
 62
     3
 10
744.993305
 20
948.103530
 11
742.776857
 21
947.658435
  0
LINE
  8
CSLAYER1
  6
CONTINUOUS
 62
     3
 10
742.776857
 20
947.658435
 11
740.648859
 21
947.121379
  0
LINE
  8
CSLAYER1
  6
CONTINUOUS
 62
     3
 10
740.648859
 20
947.121379
 11
738.625507
 21
946.496451
  0
LINE
  8
CSLAYER1
  6
CONTINUOUS
 62
     3
 10
738.625507
 20
946.496451
 11
736.722199
 21
945.788407
  0
LINE
  8
CSLAYER1
  6
CONTINUOUS
 62
     3
 10
736.722199
 20
945.788407
 11
734.953422
 21
945.002634
  0
LINE
  8
CSLAYER1
  6
CONTINUOUS
 62
     3
 10
734.953422
 20
945.002634
 11
733.332637
 21
944.145114
  0
LINE
  8
CSLAYER1
  6
CONTINUOUS
 62
     3
 10
733.332637
 20
944.145114
 11
731.872178
 21
943.222372
  0
LINE
  8
CSLAYER1
  6
CONTINUOUS
 62
     3
 10
731.872178
 20
943.222372
 11
730.583160
 21
942.241432
  0
LINE
  8
CSLAYER1
  6
CONTINUOUS
 62
     3
 10
730.583160
 20
942.241432
 11
729.475395
 21
941.209758
  0
LINE
  8
CSLAYER1
  6
CONTINUOUS
 62
     3
 10
729.475395
 20
941.209758
 11
728.557312
 21
940.135203
  0
LINE
  8
CSLAYER1
  6
CONTINUOUS
 62
     3
 10
728.557312
 20
940.135203
 11
727.835899
 21
939.025944
  0
LINE
  8
CSLAYER1
  6
CONTINUOUS
 62
     3
 10
727.835899
 20
939.025944
 11
727.316646
 21
937.890423
  0
LINE
  8
CSLAYER1
  6
CONTINUOUS
 62
     3
 10
727.316646
 20
937.890423
 11
727.003505
 21
936.737283
  0
LINE
  8
CSLAYER1
  6
CONTINUOUS
 62
     3
 10
727.003505
 20
936.737283
 11
726.898859
 21
935.575300
  0
LINE
  8
CSLAYER1
  6
CONTINUOUS
 62
     3
 10
726.898859
 20
935.575300
 11
726.898859
 21
904.986404
  0
LINE
  8
CSLAYER1
  6
CONTINUOUS
 62
     3
 10
778.698859
 20
842.168587
 11
778.698859
 21
904.986404
  0
LINE
  8
CSLAYER1
  6
CONTINUOUS
 62
     3
 10
781.898859
 20
904.986404
 11
781.794213
 21
906.148387
  0
LINE
  8
CSLAYER1
  6
CONTINUOUS
 62
     3
 10
781.794213
 20
906.148387
 11
781.481072
 21
907.301527
  0
LINE
  8
CSLAYER1
  6
CONTINUOUS
 62
     3
 10
781.481072
 20
907.301527
 11
780.961819
 21
908.437048
  0
LINE
  8
CSLAYER1
  6
CONTINUOUS
 62
     3
 10
780.961819
 20
908.437048
 11
780.240406
 21
909.546307
  0
LINE
  8
CSLAYER1
  6
CONTINUOUS
 62
     3
 10
780.240406
 20
909.546307
 11
779.322323
 21
910.620862
  0
LINE
  8
CSLAYER1
  6
CONTINUOUS
 62
     3
 10
779.322323
 20
910.620862
 11
778.214557
 21
911.652536
  0
LINE
  8
CSLAYER1
  6
CONTINUOUS
 62
     3
 10
778.214557
 20
911.652536
 11
776.925540
 21
912.633476
  0
LINE
  8
CSLAYER1
  6
CONTINUOUS
 62
     3
 10
776.925540
 20
912.633476
 11
775.465081
 21
913.556218
  0
LINE
  8
CSLAYER1
  6
CONTINUOUS
 62
     3
 10
775.465081
 20
913.556218
 11
773.844295
 21
914.413738
  0
LINE
  8
CSLAYER1
  6
CONTINUOUS
 62
     3
 10
773.844295
 20
914.413738
 11
772.075518
 21
915.199511
  0
LINE
  8
CSLAYER1
  6
CONTINUOUS
 62
     3
 10
772.075518
 20
915.199511
 11
770.172211
 21
915.907555
  0
LINE
  8
CSLAYER1
  6
CONTINUOUS
 62
     3
 10
770.172211
 20
915.907555
 11
768.148859
 21
916.532483
  0
LINE
  8
CSLAYER1
  6
CONTINUOUS
 62
     3
 10
768.148859
 20
916.532483
 11
766.020861
 21
917.069539
  0
LINE
  8
CSLAYER1
  6
CONTINUOUS
 62
     3
 10
766.020861
 20
917.069539
 11
763.804413
 21
917.514634
  0
LINE
  8
CSLAYER1
  6
CONTINUOUS
 62
     3
 10
763.804413
 20
917.514634
 11
761.516382
 21
917.864382
  0
LINE
  8
CSLAYER1
  6
CONTINUOUS
 62
     3
 10
761.516382
 20
917.864382
 11
759.174184
 21
918.116121
  0
LINE
  8
CSLAYER1
  6
CONTINUOUS
 62
     3
 10
759.174184
 20
918.116121
 11
756.795642
 21
918.267935
  0
LINE
  8
CSLAYER1
  6
CONTINUOUS
 62
     3
 10
756.795642
 20
918.267935
 11
754.398859
 21
918.318668
  0
LINE
  8
CSLAYER1
  6
CONTINUOUS
 62
     3
 10
754.398859
 20
918.318668
 11
752.002076
 21
918.267935
  0
LINE
  8
CSLAYER1
  6
CONTINUOUS
 62
     3
 10
752.002076
 20
918.267935
 11
749.623534
 21
918.116121
  0
LINE
  8
CSLAYER1
  6
CONTINUOUS
 62
     3
 10
749.623534
 20
918.116121
 11
747.281335
 21
917.864382
  0
LINE
  8
CSLAYER1
  6
CONTINUOUS
 62
     3
 10
747.281335
 20
917.864382
 11
744.993305
 21
917.514634
  0
LINE
  8
CSLAYER1
  6
CONTINUOUS
 62
     3
 10
744.993305
 20
917.514634
 11
742.776857
 21
917.069539
  0
LINE
  8
CSLAYER1
  6
CONTINUOUS
 62
     3
 10
742.776857
 20
917.069539
 11
740.648859
 21
916.532483
  0
LINE
  8
CSLAYER1
  6
CONTINUOUS
 62
     3
 10
740.648859
 20
916.532483
 11
738.625507
 21
915.907555
  0
LINE
  8
CSLAYER1
  6
CONTINUOUS
 62
     3
 10
738.625507
 20
915.907555
 11
736.722199
 21
915.199511
  0
LINE
  8
CSLAYER1
  6
CONTINUOUS
 62
     3
 10
736.722199
 20
915.199511
 11
734.953422
 21
914.413738
  0
LINE
  8
CSLAYER1
  6
CONTINUOUS
 62
     3
 10
734.953422
 20
914.413738
 11
733.332637
 21
913.556218
  0
LINE
  8
CSLAYER1
  6
CONTINUOUS
 62
     3
 10
733.332637
 20
913.556218
 11
731.872178
 21
912.633476
  0
LINE
  8
CSLAYER1
  6
CONTINUOUS
 62
     3
 10
731.872178
 20
912.633476
 11
730.583160
 21
911.652536
  0
LINE
  8
CSLAYER1
  6
CONTINUOUS
 62
     3
 10
730.583160
 20
911.652536
 11
729.475395
 21
910.620862
  0
LINE
  8
CSLAYER1
  6
CONTINUOUS
 62
     3
 10
729.475395
 20
910.620862
 11
728.557312
 21
909.546307
  0
LINE
  8
CSLAYER1
  6
CONTINUOUS
 62
     3
 10
728.557312
 20
909.546307
 11
727.835899
 21
908.437048
  0
LINE
  8
CSLAYER1
  6
CONTINUOUS
 62
     3
 10
727.835899
 20
908.437048
 11
727.316646
 21
907.301527
  0
LINE
  8
CSLAYER1
  6
CONTINUOUS
 62
     3
 10
727.316646
 20
907.301527
 11
727.003505
 21
906.148387
  0
LINE
  8
CSLAYER1
  6
CONTINUOUS
 62
     3
 10
727.003505
 20
906.148387
 11
726.898859
 21
904.986404
  0
LINE
  8
CSLAYER1
  6
CONTINUOUS
 62
     3
 10
726.898859
 20
904.986404
 11
727.003505
 21
903.824420
  0
LINE
  8
CSLAYER1
  6
CONTINUOUS
 62
     3
 10
727.003505
 20
903.824420
 11
727.316646
 21
902.671280
  0
LINE
  8
CSLAYER1
  6
CONTINUOUS
 62
     3
 10
727.316646
 20
902.671280
 11
727.835899
 21
901.535760
  0
LINE
  8
CSLAYER1
  6
CONTINUOUS
 62
     3
 10
727.835899
 20
901.535760
 11
728.557312
 21
900.426501
  0
LINE
  8
CSLAYER1
  6
CONTINUOUS
 62
     3
 10
728.557312
 20
900.426501
 11
729.475395
 21
899.351945
  0
LINE
  8
CSLAYER1
  6
CONTINUOUS
 62
     3
 10
729.475395
 20
899.351945
 11
730.098859
 21
898.771306
  0
LINE
  8
CSLAYER1
  6
CONTINUOUS
 62
     3
 10
778.698859
 20
898.771306
 11
779.322323
 21
899.351945
  0
LINE
  8
CSLAYER1
  6
CONTINUOUS
 62
     3
 10
779.322323
 20
899.351945
 11
780.240406
 21
900.426501
  0
LINE
  8
CSLAYER1
  6
CONTINUOUS
 62
     3
 10
780.240406
 20
900.426501
 11
780.961819
 21
901.535760
  0
LINE
  8
CSLAYER1
  6
CONTINUOUS
 62
     3
 10
780.961819
 20
901.535760
 11
781.481072
 21
902.671280
  0
LINE
  8
CSLAYER1
  6
CONTINUOUS
 62
     3
 10
781.481072
 20
902.671280
 11
781.794213
 21
903.824420
  0
LINE
  8
CSLAYER1
  6
CONTINUOUS
 62
     3
 10
781.794213
 20
903.824420
 11
781.898859
 21
904.986404
  0
LINE
  8
CSLAYER1
  6
CONTINUOUS
 62
     3
 10
778.698859
 20
904.986404
 11
778.606390
 21
906.013175
  0
LINE
  8
CSLAYER1
  6
CONTINUOUS
 62
     3
 10
778.606390
 20
906.013175
 11
778.329687
 21
907.032131
  0
LINE
  8
CSLAYER1
  6
CONTINUOUS
 62
     3
 10
778.329687
 20
907.032131
 11
777.870856
 21
908.035518
  0
LINE
  8
CSLAYER1
  6
CONTINUOUS
 62
     3
 10
777.870856
 20
908.035518
 11
777.233389
 21
909.015700
  0
LINE
  8
CSLAYER1
  6
CONTINUOUS
 62
     3
 10
777.233389
 20
909.015700
 11
776.422138
 21
909.965216
  0
LINE
  8
CSLAYER1
  6
CONTINUOUS
 62
     3
 10
776.422138
 20
909.965216
 11
775.443276
 21
910.876841
  0
LINE
  8
CSLAYER1
  6
CONTINUOUS
 62
     3
 10
775.443276
 20
910.876841
 11
774.304253
 21
911.743635
  0
LINE
  8
CSLAYER1
  6
CONTINUOUS
 62
     3
 10
774.304253
 20
911.743635
 11
773.013739
 21
912.559003
  0
LINE
  8
CSLAYER1
  6
CONTINUOUS
 62
     3
 10
773.013739
 20
912.559003
 11
771.581554
 21
913.316739
  0
LINE
  8
CSLAYER1
  6
CONTINUOUS
 62
     3
 10
771.581554
 20
913.316739
 11
770.018598
 21
914.011077
  0
LINE
  8
CSLAYER1
  6
CONTINUOUS
 62
     3
 10
770.018598
 20
914.011077
 11
768.336766
 21
914.636731
  0
LINE
  8
CSLAYER1
  6
CONTINUOUS
 62
     3
 10
768.336766
 20
914.636731
 11
766.548859
 21
915.188940
  0
LINE
  8
CSLAYER1
  6
CONTINUOUS
 62
     3
 10
766.548859
 20
915.188940
 11
764.668483
 21
915.663501
  0
LINE
  8
CSLAYER1
  6
CONTINUOUS
 62
     3
 10
764.668483
 20
915.663501
 11
762.709948
 21
916.056804
  0
LINE
  8
CSLAYER1
  6
CONTINUOUS
 62
     3
 10
762.709948
 20
916.056804
 11
760.688162
 21
916.365854
  0
LINE
  8
CSLAYER1
  6
CONTINUOUS
 62
     3
 10
760.688162
 20
916.365854
 11
758.618509
 21
916.588300
  0
LINE
  8
CSLAYER1
  6
CONTINUOUS
 62
     3
 10
758.618509
 20
916.588300
 11
756.516743
 21
916.722448
  0
LINE
  8
CSLAYER1
  6
CONTINUOUS
 62
     3
 10
756.516743
 20
916.722448
 11
754.398859
 21
916.767277
  0
LINE
  8
CSLAYER1
  6
CONTINUOUS
 62
     3
 10
754.398859
 20
916.767277
 11
752.280974
 21
916.722448
  0
LINE
  8
CSLAYER1
  6
CONTINUOUS
 62
     3
 10
752.280974
 20
916.722448
 11
750.179208
 21
916.588300
  0
LINE
  8
CSLAYER1
  6
CONTINUOUS
 62
     3
 10
750.179208
 20
916.588300
 11
748.109556
 21
916.365854
  0
LINE
  8
CSLAYER1
  6
CONTINUOUS
 62
     3
 10
748.109556
 20
916.365854
 11
746.087769
 21
916.056804
  0
LINE
  8
CSLAYER1
  6
CONTINUOUS
 62
     3
 10
746.087769
 20
916.056804
 11
744.129235
 21
915.663501
  0
LINE
  8
CSLAYER1
  6
CONTINUOUS
 62
     3
 10
744.129235
 20
915.663501
 11
742.248859
 21
915.188940
  0
LINE
  8
CSLAYER1
  6
CONTINUOUS
 62
     3
 10
742.248859
 20
915.188940
 11
740.460951
 21
914.636731
  0
LINE
  8
CSLAYER1
  6
CONTINUOUS
 62
     3
 10
740.460951
 20
914.636731
 11
738.779120
 21
914.011077
  0
LINE
  8
CSLAYER1
  6
CONTINUOUS
 62
     3
 10
738.779120
 20
914.011077
 11
737.216164
 21
913.316739
  0
LINE
  8
CSLAYER1
  6
CONTINUOUS
 62
     3
 10
737.216164
 20
913.316739
 11
735.783979
 21
912.559003
  0
LINE
  8
CSLAYER1
  6
CONTINUOUS
 62
     3
 10
735.783979
 20
912.559003
 11
734.493464
 21
911.743635
  0
LINE
  8
CSLAYER1
  6
CONTINUOUS
 62
     3
 10
734.493464
 20
911.743635
 11
733.354441
 21
910.876841
  0
LINE
  8
CSLAYER1
  6
CONTINUOUS
 62
     3
 10
733.354441
 20
910.876841
 11
732.375580
 21
909.965216
  0
LINE
  8
CSLAYER1
  6
CONTINUOUS
 62
     3
 10
732.375580
 20
909.965216
 11
731.564328
 21
909.015700
  0
LINE
  8
CSLAYER1
  6
CONTINUOUS
 62
     3
 10
731.564328
 20
909.015700
 11
730.926861
 21
908.035518
  0
LINE
  8
CSLAYER1
  6
CONTINUOUS
 62
     3
 10
730.926861
 20
908.035518
 11
730.468030
 21
907.032131
  0
LINE
  8
CSLAYER1
  6
CONTINUOUS
 62
     3
 10
730.468030
 20
907.032131
 11
730.191328
 21
906.013175
  0
LINE
  8
CSLAYER1
  6
CONTINUOUS
 62
     3
 10
730.191328
 20
906.013175
 11
730.098859
 21
904.986404
  0
LINE
  8
CSLAYER1
  6
CONTINUOUS
 62
     3
 10
730.098859
 20
842.168587
 11
730.098859
 21
904.986404
  0
LINE
  8
CSLAYER1
  6
CONTINUOUS
 62
     3
 10
776.898859
 20
811.579691
 11
776.898859
 21
842.168587
  0
LINE
  8
CSLAYER1
  6
CONTINUOUS
 62
     3
 10
776.898859
 20
842.168587
 11
776.813239
 21
843.119301
  0
LINE
  8
CSLAYER1
  6
CONTINUOUS
 62
     3
 10
776.813239
 20
843.119301
 11
776.557033
 21
844.062779
  0
LINE
  8
CSLAYER1
  6
CONTINUOUS
 62
     3
 10
776.557033
 20
844.062779
 11
776.132190
 21
844.991841
  0
LINE
  8
CSLAYER1
  6
CONTINUOUS
 62
     3
 10
776.132190
 20
844.991841
 11
775.541943
 21
845.899417
  0
LINE
  8
CSLAYER1
  6
CONTINUOUS
 62
     3
 10
775.541943
 20
845.899417
 11
774.790784
 21
846.778599
  0
LINE
  8
CSLAYER1
  6
CONTINUOUS
 62
     3
 10
774.790784
 20
846.778599
 11
773.884430
 21
847.622695
  0
LINE
  8
CSLAYER1
  6
CONTINUOUS
 62
     3
 10
773.884430
 20
847.622695
 11
772.829780
 21
848.425283
  0
LINE
  8
CSLAYER1
  6
CONTINUOUS
 62
     3
 10
772.829780
 20
848.425283
 11
771.634859
 21
849.180253
  0
LINE
  8
CSLAYER1
  6
CONTINUOUS
 62
     3
 10
771.634859
 20
849.180253
 11
770.308761
 21
849.881861
  0
LINE
  8
CSLAYER1
  6
CONTINUOUS
 62
     3
 10
770.308761
 20
849.881861
 11
768.861580
 21
850.524766
  0
LINE
  8
CSLAYER1
  6
CONTINUOUS
 62
     3
 10
768.861580
 20
850.524766
 11
767.304329
 21
851.104075
  0
LINE
  8
CSLAYER1
  6
CONTINUOUS
 62
     3
 10
767.304329
 20
851.104075
 11
765.648859
 21
851.615380
  0
LINE
  8
CSLAYER1
  6
CONTINUOUS
 62
     3
 10
765.648859
 20
851.615380
 11
763.907770
 21
852.054789
  0
LINE
  8
CSLAYER1
  6
CONTINUOUS
 62
     3
 10
763.907770
 20
852.054789
 11
762.094312
 21
852.418958
  0
LINE
  8
CSLAYER1
  6
CONTINUOUS
 62
     3
 10
762.094312
 20
852.418958
 11
760.222287
 21
852.705115
  0
LINE
  8
CSLAYER1
  6
CONTINUOUS
 62
     3
 10
760.222287
 20
852.705115
 11
758.305943
 21
852.911083
  0
LINE
  8
CSLAYER1
  6
CONTINUOUS
 62
     3
 10
758.305943
 20
852.911083
 11
756.359863
 21
853.035294
  0
LINE
  8
CSLAYER1
  6
CONTINUOUS
 62
     3
 10
756.359863
 20
853.035294
 11
754.398859
 21
853.076804
  0
LINE
  8
CSLAYER1
  6
CONTINUOUS
 62
     3
 10
754.398859
 20
853.076804
 11
752.437855
 21
853.035294
  0
LINE
  8
CSLAYER1
  6
CONTINUOUS
 62
     3
 10
752.437855
 20
853.035294
 11
750.491775
 21
852.911083
  0
LINE
  8
CSLAYER1
  6
CONTINUOUS
 62
     3
 10
750.491775
 20
852.911083
 11
748.575430
 21
852.705115
  0
LINE
  8
CSLAYER1
  6
CONTINUOUS
 62
     3
 10
748.575430
 20
852.705115
 11
746.703406
 21
852.418958
  0
LINE
  8
CSLAYER1
  6
CONTINUOUS
 62
     3
 10
746.703406
 20
852.418958
 11
744.889948
 21
852.054789
  0
LINE
  8
CSLAYER1
  6
CONTINUOUS
 62
     3
 10
744.889948
 20
852.054789
 11
743.148859
 21
851.615380
  0
LINE
  8
CSLAYER1
  6
CONTINUOUS
 62
     3
 10
743.148859
 20
851.615380
 11
741.493389
 21
851.104075
  0
LINE
  8
CSLAYER1
  6
CONTINUOUS
 62
     3
 10
741.493389
 20
851.104075
 11
739.936138
 21
850.524766
  0
LINE
  8
CSLAYER1
  6
CONTINUOUS
 62
     3
 10
739.936138
 20
850.524766
 11
738.488956
 21
849.881861
  0
LINE
  8
CSLAYER1
  6
CONTINUOUS
 62
     3
 10
738.488956
 20
849.881861
 11
737.162859
 21
849.180253
  0
LINE
  8
CSLAYER1
  6
CONTINUOUS
 62
     3
 10
737.162859
 20
849.180253
 11
735.967938
 21
848.425283
  0
LINE
  8
CSLAYER1
  6
CONTINUOUS
 62
     3
 10
735.967938
 20
848.425283
 11
734.913287
 21
847.622695
  0
LINE
  8
CSLAYER1
  6
CONTINUOUS
 62
     3
 10
734.913287
 20
847.622695
 11
734.006934
 21
846.778599
  0
LINE
  8
CSLAYER1
  6
CONTINUOUS
 62
     3
 10
734.006934
 20
846.778599
 11
733.255775
 21
845.899417
  0
LINE
  8
CSLAYER1
  6
CONTINUOUS
 62
     3
 10
733.255775
 20
845.899417
 11
732.665528
 21
844.991841
  0
LINE
  8
CSLAYER1
  6
CONTINUOUS
 62
     3
 10
732.665528
 20
844.991841
 11
732.240684
 21
844.062779
  0
LINE
  8
CSLAYER1
  6
CONTINUOUS
 62
     3
 10
732.240684
 20
844.062779
 11
731.984478
 21
843.119301
  0
LINE
  8
CSLAYER1
  6
CONTINUOUS
 62
     3
 10
731.984478
 20
843.119301
 11
731.898859
 21
842.168587
  0
LINE
  8
CSLAYER1
  6
CONTINUOUS
 62
     3
 10
731.898859
 20
842.168587
 11
731.984478
 21
841.217873
  0
LINE
  8
CSLAYER1
  6
CONTINUOUS
 62
     3
 10
778.698859
 20
842.168587
 11
778.606390
 21
843.195358
  0
LINE
  8
CSLAYER1
  6
CONTINUOUS
 62
     3
 10
778.606390
 20
843.195358
 11
778.329687
 21
844.214314
  0
LINE
  8
CSLAYER1
  6
CONTINUOUS
 62
     3
 10
778.329687
 20
844.214314
 11
777.870856
 21
845.217702
  0
LINE
  8
CSLAYER1
  6
CONTINUOUS
 62
     3
 10
777.870856
 20
845.217702
 11
777.233389
 21
846.197883
  0
LINE
  8
CSLAYER1
  6
CONTINUOUS
 62
     3
 10
777.233389
 20
846.197883
 11
776.422138
 21
847.147399
  0
LINE
  8
CSLAYER1
  6
CONTINUOUS
 62
     3
 10
776.422138
 20
847.147399
 11
775.443276
 21
848.059024
  0
LINE
  8
CSLAYER1
  6
CONTINUOUS
 62
     3
 10
775.443276
 20
848.059024
 11
774.304253
 21
848.925819
  0
LINE
  8
CSLAYER1
  6
CONTINUOUS
 62
     3
 10
774.304253
 20
848.925819
 11
773.013739
 21
849.741187
  0
LINE
  8
CSLAYER1
  6
CONTINUOUS
 62
     3
 10
773.013739
 20
849.741187
 11
771.581554
 21
850.498923
  0
LINE
  8
CSLAYER1
  6
CONTINUOUS
 62
     3
 10
771.581554
 20
850.498923
 11
770.018598
 21
851.193260
  0
LINE
  8
CSLAYER1
  6
CONTINUOUS
 62
     3
 10
770.018598
 20
851.193260
 11
768.336766
 21
851.818914
  0
LINE
  8
CSLAYER1
  6
CONTINUOUS
 62
     3
 10
768.336766
 20
851.818914
 11
766.548859
 21
852.371123
  0
LINE
  8
CSLAYER1
  6
CONTINUOUS
 62
     3
 10
766.548859
 20
852.371123
 11
764.668483
 21
852.845685
  0
LINE
  8
CSLAYER1
  6
CONTINUOUS
 62
     3
 10
764.668483
 20
852.845685
 11
762.709948
 21
853.238987
  0
LINE
  8
CSLAYER1
  6
CONTINUOUS
 62
     3
 10
762.709948
 20
853.238987
 11
760.688162
 21
853.548037
  0
LINE
  8
CSLAYER1
  6
CONTINUOUS
 62
     3
 10
760.688162
 20
853.548037
 11
758.618509
 21
853.770483
  0
LINE
  8
CSLAYER1
  6
CONTINUOUS
 62
     3
 10
758.618509
 20
853.770483
 11
756.516743
 21
853.904631
  0
LINE
  8
CSLAYER1
  6
CONTINUOUS
 62
     3
 10
756.516743
 20
853.904631
 11
754.398859
 21
853.949461
  0
LINE
  8
CSLAYER1
  6
CONTINUOUS
 62
     3
 10
754.398859
 20
853.949461
 11
752.280974
 21
853.904631
  0
LINE
  8
CSLAYER1
  6
CONTINUOUS
 62
     3
 10
752.280974
 20
853.904631
 11
750.179208
 21
853.770483
  0
LINE
  8
CSLAYER1
  6
CONTINUOUS
 62
     3
 10
750.179208
 20
853.770483
 11
748.109556
 21
853.548037
  0
LINE
  8
CSLAYER1
  6
CONTINUOUS
 62
     3
 10
748.109556
 20
853.548037
 11
746.087769
 21
853.238987
  0
LINE
  8
CSLAYER1
  6
CONTINUOUS
 62
     3
 10
746.087769
 20
853.238987
 11
744.129235
 21
852.845685
  0
LINE
  8
CSLAYER1
  6
CONTINUOUS
 62
     3
 10
744.129235
 20
852.845685
 11
742.248859
 21
852.371123
  0
LINE
  8
CSLAYER1
  6
CONTINUOUS
 62
     3
 10
742.248859
 20
852.371123
 11
740.460951
 21
851.818914
  0
LINE
  8
CSLAYER1
  6
CONTINUOUS
 62
     3
 10
740.460951
 20
851.818914
 11
738.779120
 21
851.193260
  0
LINE
  8
CSLAYER1
  6
CONTINUOUS
 62
     3
 10
738.779120
 20
851.193260
 11
737.216164
 21
850.498923
  0
LINE
  8
CSLAYER1
  6
CONTINUOUS
 62
     3
 10
737.216164
 20
850.498923
 11
735.783979
 21
849.741187
  0
LINE
  8
CSLAYER1
  6
CONTINUOUS
 62
     3
 10
735.783979
 20
849.741187
 11
734.493464
 21
848.925819
  0
LINE
  8
CSLAYER1
  6
CONTINUOUS
 62
     3
 10
734.493464
 20
848.925819
 11
733.354441
 21
848.059024
  0
LINE
  8
CSLAYER1
  6
CONTINUOUS
 62
     3
 10
733.354441
 20
848.059024
 11
732.375580
 21
847.147399
  0
LINE
  8
CSLAYER1
  6
CONTINUOUS
 62
     3
 10
732.375580
 20
847.147399
 11
731.564328
 21
846.197883
  0
LINE
  8
CSLAYER1
  6
CONTINUOUS
 62
     3
 10
731.564328
 20
846.197883
 11
730.926861
 21
845.217702
  0
LINE
  8
CSLAYER1
  6
CONTINUOUS
 62
     3
 10
730.926861
 20
845.217702
 11
730.468030
 21
844.214314
  0
LINE
  8
CSLAYER1
  6
CONTINUOUS
 62
     3
 10
730.468030
 20
844.214314
 11
730.191328
 21
843.195358
  0
LINE
  8
CSLAYER1
  6
CONTINUOUS
 62
     3
 10
730.191328
 20
843.195358
 11
730.098859
 21
842.168587
  0
LINE
  8
CSLAYER1
  6
CONTINUOUS
 62
     3
 10
730.098859
 20
842.168587
 11
730.191328
 21
841.141816
  0
LINE
  8
CSLAYER1
  6
CONTINUOUS
 62
     3
 10
730.191328
 20
841.141816
 11
730.484346
 21
840.062777
  0
LINE
  8
CSLAYER1
  6
CONTINUOUS
 62
     3
 10
731.398859
 20
838.393720
 11
731.898859
 21
837.747745
  0
LINE
  8
CSLAYER1
  6
CONTINUOUS
 62
     3
 10
778.313371
 20
840.062777
 11
778.606390
 21
841.141816
  0
LINE
  8
CSLAYER1
  6
CONTINUOUS
 62
     3
 10
778.606390
 20
841.141816
 11
778.698859
 21
842.168587
  0
LINE
  8
CSLAYER1
  6
CONTINUOUS
 62
     3
 10
731.898859
 20
811.579691
 11
731.898859
 21
842.168587
  0
LINE
  8
CSLAYER1
  6
CONTINUOUS
 62
     3
 10
776.898859
 20
811.579691
 11
776.813239
 21
812.530405
  0
LINE
  8
CSLAYER1
  6
CONTINUOUS
 62
     3
 10
776.813239
 20
812.530405
 11
776.557033
 21
813.473883
  0
LINE
  8
CSLAYER1
  6
CONTINUOUS
 62
     3
 10
776.557033
 20
813.473883
 11
776.132190
 21
814.402945
  0
LINE
  8
CSLAYER1
  6
CONTINUOUS
 62
     3
 10
776.132190
 20
814.402945
 11
775.541943
 21
815.310521
  0
LINE
  8
CSLAYER1
  6
CONTINUOUS
 62
     3
 10
775.541943
 20
815.310521
 11
774.790784
 21
816.189703
  0
LINE
  8
CSLAYER1
  6
CONTINUOUS
 62
     3
 10
774.790784
 20
816.189703
 11
773.884430
 21
817.033799
  0
LINE
  8
CSLAYER1
  6
CONTINUOUS
 62
     3
 10
773.884430
 20
817.033799
 11
772.829780
 21
817.836387
  0
LINE
  8
CSLAYER1
  6
CONTINUOUS
 62
     3
 10
772.829780
 20
817.836387
 11
771.634859
 21
818.591358
  0
LINE
  8
CSLAYER1
  6
CONTINUOUS
 62
     3
 10
771.634859
 20
818.591358
 11
770.308761
 21
819.292965
  0
LINE
  8
CSLAYER1
  6
CONTINUOUS
 62
     3
 10
770.308761
 20
819.292965
 11
768.861580
 21
819.935870
  0
LINE
  8
CSLAYER1
  6
CONTINUOUS
 62
     3
 10
768.861580
 20
819.935870
 11
767.304329
 21
820.515179
  0
LINE
  8
CSLAYER1
  6
CONTINUOUS
 62
     3
 10
767.304329
 20
820.515179
 11
765.648859
 21
821.026484
  0
LINE
  8
CSLAYER1
  6
CONTINUOUS
 62
     3
 10
765.648859
 20
821.026484
 11
763.907770
 21
821.465893
  0
LINE
  8
CSLAYER1
  6
CONTINUOUS
 62
     3
 10
763.907770
 20
821.465893
 11
762.094312
 21
821.830062
  0
LINE
  8
CSLAYER1
  6
CONTINUOUS
 62
     3
 10
762.094312
 20
821.830062
 11
760.222287
 21
822.116219
  0
LINE
  8
CSLAYER1
  6
CONTINUOUS
 62
     3
 10
760.222287
 20
822.116219
 11
758.305943
 21
822.322187
  0
LINE
  8
CSLAYER1
  6
CONTINUOUS
 62
     3
 10
758.305943
 20
822.322187
 11
756.359863
 21
822.446399
  0
LINE
  8
CSLAYER1
  6
CONTINUOUS
 62
     3
 10
756.359863
 20
822.446399
 11
754.398859
 21
822.487908
  0
LINE
  8
CSLAYER1
  6
CONTINUOUS
 62
     3
 10
754.398859
 20
822.487908
 11
752.437855
 21
822.446399
  0
LINE
  8
CSLAYER1
  6
CONTINUOUS
 62
     3
 10
752.437855
 20
822.446399
 11
750.491775
 21
822.322187
  0
LINE
  8
CSLAYER1
  6
CONTINUOUS
 62
     3
 10
750.491775
 20
822.322187
 11
748.575430
 21
822.116219
  0
LINE
  8
CSLAYER1
  6
CONTINUOUS
 62
     3
 10
748.575430
 20
822.116219
 11
746.703406
 21
821.830062
  0
LINE
  8
CSLAYER1
  6
CONTINUOUS
 62
     3
 10
746.703406
 20
821.830062
 11
744.889948
 21
821.465893
  0
LINE
  8
CSLAYER1
  6
CONTINUOUS
 62
     3
 10
744.889948
 20
821.465893
 11
743.148859
 21
821.026484
  0
LINE
  8
CSLAYER1
  6
CONTINUOUS
 62
     3
 10
743.148859
 20
821.026484
 11
741.493389
 21
820.515179
  0
LINE
  8
CSLAYER1
  6
CONTINUOUS
 62
     3
 10
741.493389
 20
820.515179
 11
739.936138
 21
819.935870
  0
LINE
  8
CSLAYER1
  6
CONTINUOUS
 62
     3
 10
739.936138
 20
819.935870
 11
738.488956
 21
819.292965
  0
LINE
  8
CSLAYER1
  6
CONTINUOUS
 62
     3
 10
738.488956
 20
819.292965
 11
737.162859
 21
818.591358
  0
LINE
  8
CSLAYER1
  6
CONTINUOUS
 62
     3
 10
737.162859
 20
818.591358
 11
735.967938
 21
817.836387
  0
LINE
  8
CSLAYER1
  6
CONTINUOUS
 62
     3
 10
735.967938
 20
817.836387
 11
734.913287
 21
817.033799
  0
LINE
  8
CSLAYER1
  6
CONTINUOUS
 62
     3
 10
734.913287
 20
817.033799
 11
734.006934
 21
816.189703
  0
LINE
  8
CSLAYER1
  6
CONTINUOUS
 62
     3
 10
734.006934
 20
816.189703
 11
733.255775
 21
815.310521
  0
LINE
  8
CSLAYER1
  6
CONTINUOUS
 62
     3
 10
733.255775
 20
815.310521
 11
732.665528
 21
814.402945
  0
LINE
  8
CSLAYER1
  6
CONTINUOUS
 62
     3
 10
732.665528
 20
814.402945
 11
732.240684
 21
813.473883
  0
LINE
  8
CSLAYER1
  6
CONTINUOUS
 62
     3
 10
732.240684
 20
813.473883
 11
731.984478
 21
812.530405
  0
LINE
  8
CSLAYER1
  6
CONTINUOUS
 62
     3
 10
731.984478
 20
812.530405
 11
731.898859
 21
811.579691
  0
LINE
  8
CSLAYER1
  6
CONTINUOUS
 62
     3
 10
731.898859
 20
811.579691
 11
731.984478
 21
810.628977
  0
LINE
  8
CSLAYER1
  6
CONTINUOUS
 62
     3
 10
731.984478
 20
810.628977
 11
732.240684
 21
809.685499
  0
LINE
  8
CSLAYER1
  6
CONTINUOUS
 62
     3
 10
732.240684
 20
809.685499
 11
732.665528
 21
808.756437
  0
LINE
  8
CSLAYER1
  6
CONTINUOUS
 62
     3
 10
732.665528
 20
808.756437
 11
733.255775
 21
807.848861
  0
LINE
  8
CSLAYER1
  6
CONTINUOUS
 62
     3
 10
733.255775
 20
807.848861
 11
734.006934
 21
806.969680
  0
LINE
  8
CSLAYER1
  6
CONTINUOUS
 62
     3
 10
734.006934
 20
806.969680
 11
734.895353
 21
806.142285
  0
LINE
  8
CSLAYER1
  6
CONTINUOUS
 62
     3
 10
773.902365
 20
806.142285
 11
774.790784
 21
806.969680
  0
LINE
  8
CSLAYER1
  6
CONTINUOUS
 62
     3
 10
774.790784
 20
806.969680
 11
775.541943
 21
807.848861
  0
LINE
  8
CSLAYER1
  6
CONTINUOUS
 62
     3
 10
775.541943
 20
807.848861
 11
776.132190
 21
808.756437
  0
LINE
  8
CSLAYER1
  6
CONTINUOUS
 62
     3
 10
776.132190
 20
808.756437
 11
776.557033
 21
809.685499
  0
LINE
  8
CSLAYER1
  6
CONTINUOUS
 62
     3
 10
776.557033
 20
809.685499
 11
776.813239
 21
810.628977
  0
LINE
  8
CSLAYER1
  6
CONTINUOUS
 62
     3
 10
776.813239
 20
810.628977
 11
776.898859
 21
811.579691
  0
LINE
  8
CSLAYER1
  6
CENTER
 62
     5
 10
720.350864
 20
814.648295
 11
731.398859
 21
814.648295
  0
LINE
  8
CSLAYER1
  6
CONTINUOUS
 62
     3
 10
725.398859
 20
840.062777
 11
731.398859
 21
840.062777
  0
LINE
  8
CSLAYER1
  6
CONTINUOUS
 62
     3
 10
725.398859
 20
786.519297
 11
731.398859
 21
786.519297
  0
LINE
  8
CSLAYER1
  6
CONTINUOUS
 62
     3
 10
685.898859
 20
805.982048
 11
688.898859
 21
805.982048
  0
LINE
  8
CSLAYER1
  6
CONTINUOUS
 62
     3
 10
777.398859
 20
838.393720
 11
776.898859
 21
837.747745
  0
LINE
  8
CSLAYER1
  6
CONTINUOUS
 62
     3
 10
777.398859
 20
840.062777
 11
783.398859
 21
840.062777
  0
LINE
  8
CSLAYER1
  6
CONTINUOUS
 62
     3
 10
777.398859
 20
786.519297
 11
783.398859
 21
786.519297
  0
LINE
  8
CSLAYER1
  6
CONTINUOUS
 62
     3
 10
697.898859
 20
805.982048
 11
710.248859
 21
805.982048
  0
LINE
  8
CSLAYER1
  6
CONTINUOUS
 62
     3
 10
731.398859
 20
805.982048
 11
777.398859
 21
805.982048
  0
LINE
  8
CSLAYER1
  6
CONTINUOUS
 62
     3
 10
798.898859
 20
805.982048
 11
801.898859
 21
805.982048
  0
LINE
  8
CSLAYER1
  6
CONTINUOUS
 62
     3
 10
783.398859
 20
805.982048
 11
789.898859
 21
805.982048
  0
LINE
  8
CSLAYER1
  6
CONTINUOUS
 62
     3
 10
697.898859
 20
975.973639
 11
736.398859
 21
975.973639
  0
LINE
  8
CSLAYER1
  6
CONTINUOUS
 62
     3
 10
697.898859
 20
973.965216
 11
736.398859
 21
973.965216
  0
LINE
  8
CSLAYER1
  6
CONTINUOUS
 62
     3
 10
772.398859
 20
975.973639
 11
789.898859
 21
975.973639
  0
LINE
  8
CSLAYER1
  6
CONTINUOUS
 62
     3
 10
772.398859
 20
973.965216
 11
789.898859
 21
973.965216
  0
LINE
  8
CSLAYER1
  6
CONTINUOUS
 62
     3
 10
710.248859
 20
774.438980
 11
710.248859
 21
856.737616
  0
LINE
  8
CSLAYER1
  6
CONTINUOUS
 62
     3
 10
718.548859
 20
774.438980
 11
718.548859
 21
856.737616
  0
LINE
  8
CSLAYER1
  6
CONTINUOUS
 62
     3
 10
718.548859
 20
805.982048
 11
725.398859
 21
805.982048
  0
LINE
  8
CSLAYER1
  6
CENTER
 62
     5
 10
1480.367775
 20
824.062777
 11
1688.902791
 21
1137.055360
  0
ARC
  8
CSLAYER1
  6
CONTINUOUS
 62
     3
 10
1688.902791
 20
1137.055360
 40
8.000000
 50
32.176883
 51
250.071831
  0
POINT
  8
CSLAYER1
 62
     3
 10
1688.902791
 20
1137.055360
  0
LINE
  8
CSLAYER1
  6
CONTINUOUS
 62
     3
 10
1551.330447
 20
963.035074
 11
1652.840730
 21
1115.393014
  0
CIRCLE
  8
CSLAYER1
  6
CONTINUOUS
 62
     4
 10
1697.957016
 20
1082.805743
 40
8.500000
  0
LINE
  8
CSLAYER1
  6
CONTINUOUS
 62
     4
 10
1697.934294
 20
1092.620671
 11
1689.445678
 21
1087.693529
  0
LINE
  8
CSLAYER1
  6
CONTINUOUS
 62
     4
 10
1689.445678
 20
1087.693529
 11
1689.468400
 21
1077.878601
  0
LINE
  8
CSLAYER1
  6
CONTINUOUS
 62
     4
 10
1689.468400
 20
1077.878601
 11
1697.979738
 21
1072.990814
  0
LINE
  8
CSLAYER1
  6
CONTINUOUS
 62
     4
 10
1697.979738
 20
1072.990814
 11
1706.468354
 21
1077.917956
  0
LINE
  8
CSLAYER1
  6
CONTINUOUS
 62
     4
 10
1706.468354
 20
1077.917956
 11
1706.445633
 21
1087.732884
  0
LINE
  8
CSLAYER1
  6
CONTINUOUS
 62
     4
 10
1706.445633
 20
1087.732884
 11
1697.934294
 21
1092.620671
  0
CIRCLE
  8
CSLAYER1
  6
CONTINUOUS
 62
     5
 10
1697.957016
 20
1082.805743
 40
5.000000
  0
CIRCLE
  8
CSLAYER1
  6
CONTINUOUS
 62
     4
 10
1697.957016
 20
1082.805743
 40
4.300000
  0
POINT
  8
CSLAYER1
 62
     4
 10
1697.957016
 20
1082.805743
  0
LINE
  8
CSLAYER1
  6
CONTINUOUS
 62
     4
 10
1750.454878
 20
1130.397491
 11
1741.405530
 21
1112.002946
  0
LINE
  8
CSLAYER1
  6
CONTINUOUS
 62
     4
 10
1750.454878
 20
1130.397491
 11
1941.882688
 21
1367.843050
  0
LINE
  8
CSLAYER1
  6
CONTINUOUS
 62
     4
 10
1941.882688
 20
1367.843050
 11
1952.007984
 21
1418.432390
  0
LINE
  8
CSLAYER1
  6
CONTINUOUS
 62
     4
 10
1445.174962
 20
830.598520
 11
1919.084647
 21
1418.432390
  0
LINE
  8
CSLAYER1
  6
CONTINUOUS
 62
     4
 10
1484.703975
 20
793.592343
 11
1741.405530
 21
1112.002946
  0
LINE
  8
CSLAYER1
  6
CONTINUOUS
 62
     4
 10
1445.174962
 20
830.598520
 11
1423.624905
 21
769.505926
  0
LINE
  8
CSLAYER1
  6
CONTINUOUS
 62
     4
 10
1466.051335
 20
774.438980
 11
1478.991907
 21
790.490363
  0
LINE
  8
CSLAYER1
  6
CONTINUOUS
 62
     4
 10
1478.991907
 20
790.490363
 11
1484.703975
 21
793.592343
  0
POINT
  8
CSLAYER1
 62
     4
 10
1431.213347
 20
751.938980
  0
LINE
  8
CSLAYER1
  6
CONTINUOUS
 62
     4
 10
1485.331607
 20
794.370853
 11
1485.720862
 21
794.057037
  0
CIRCLE
  8
CSLAYER1
  6
CONTINUOUS
 62
     4
 10
1480.367775
 20
824.062777
 40
8.000000
  0
LINE
  8
CSLAYER1
  6
CONTINUOUS
 62
     4
 10
1490.409889
 20
836.518938
 11
1497.805735
 21
830.556432
  0
ARC
  8
CSLAYER1
  6
CONTINUOUS
 62
     4
 10
1480.367775
 20
824.062777
 40
16.000000
 50
51.124357
 51
102.499524
  0
POINT
  8
CSLAYER1
 62
     4
 10
1480.367775
 20
824.062777
  0
LINE
  8
CSLAYER1
  6
CONTINUOUS
 62
     4
 10
1485.720862
 20
794.057037
 11
1469.904850
 21
774.438980
  0
POINT
  8
CSLAYER1
 62
     7
 10
1688.902791
 20
1137.055360
  0
LINE
  8
CSLAYER1
  6
CONTINUOUS
 62
     7
 10
1733.327657
 20
1021.406087
 11
1932.431707
 21
774.438980
  0
CIRCLE
  8
CSLAYER1
  6
DASHED
 62
     5
 10
1964.700686
 20
751.938980
 40
13.000000
  0
POINT
  8
CSLAYER1
 62
     7
 10
1964.700686
 20
751.938980
  0
POINT
  8
CSLAYER1
 62
     7
 10
1697.957016
 20
1082.805743
  0
LINE
  8
CSLAYER1
  6
CONTINUOUS
 62
     7
 10
1963.291714
 20
815.028319
 11
1971.415542
 21
774.438980
  0
LINE
  8
CSLAYER1
  6
CONTINUOUS
 62
     7
 10
1471.259173
 20
1425.341638
 11
1697.957016
 21
1144.147404
  0
LINE
  8
CSLAYER1
  6
CONTINUOUS
 62
     7
 10
1476.663222
 20
1363.462034
 11
1443.679858
 21
1420.432390
  0
ARC
  8
CSLAYER1
  6
CONTINUOUS
 62
     7
 10
1468.008994
 20
1358.451612
 40
10.000000
 50
2.933531
 51
30.068979
  0
LINE
  8
CSLAYER1
  6
CONTINUOUS
 62
     7
 10
1477.995889
 20
1358.963386
 11
1478.970631
 21
1339.942011
  0
ARC
  8
CSLAYER1
  6
CONTINUOUS
 62
     7
 10
1488.957527
 20
1340.453785
 40
10.000000
 50
182.933531
 51
218.875643
  0
LINE
  8
CSLAYER1
  6
CONTINUOUS
 62
     7
 10
1654.508503
 20
1112.002946
 11
1663.275382
 21
1101.128577
  0
LINE
  8
CSLAYER1
  6
CONTINUOUS
 62
     7
 10
1733.327657
 20
1021.406087
 11
1717.271719
 21
1034.151942
  0
LINE
  8
CSLAYER1
  6
CONTINUOUS
 62
     7
 10
1645.459154
 20
1130.397491
 11
1654.508503
 21
1112.002946
  0
LINE
  8
CSLAYER1
  6
CONTINUOUS
 62
     7
 10
1645.459154
 20
1130.397491
 11
1481.172427
 21
1334.177464
  0
CIRCLE
  8
CSLAYER1
  6
CONTINUOUS
 62
     7
 10
1697.957016
 20
1082.805743
 40
7.500000
  0
ARC
  8
CSLAYER1
  6
CONTINUOUS
 62
     7
 10
1688.902791
 20
1137.055360
 40
17.000000
 50
42.335098
 51
86.307189
  0
POINT
  8
CSLAYER1
 62
     5
 10
1688.902791
 20
1137.055360
  0
CIRCLE
  8
CSLAYER1
  6
CONTINUOUS
 62
     2
 10
1480.367775
 20
824.062777
 40
8.250000
  0
LINE
  8
CSLAYER1
  6
CONTINUOUS
 62
     4
 10
1547.169418
 20
965.807408
 11
1551.730163
 21
962.768758
  0
LINE
  8
CSLAYER1
  6
CONTINUOUS
 62
     4
 10
1513.761016
 20
921.976726
 11
1517.067647
 21
919.773645
  0
LINE
  8
CSLAYER1
  6
CONTINUOUS
 62
     4
 10
1513.483278
 20
923.363399
 11
1532.335154
 21
951.658395
  0
LINE
  8
CSLAYER1
  6
CONTINUOUS
 62
     4
 10
1532.335154
 20
951.658395
 11
1547.169418
 21
965.807408
  0
LINE
  8
CSLAYER1
  6
CONTINUOUS
 62
     2
 10
1537.468774
 20
942.229930
 11
1547.615519
 21
957.459295
  0
LINE
  8
CSLAYER1
  6
CONTINUOUS
 62
     4
 10
1513.483278
 20
923.363399
 11
1513.761016
 21
921.976726
  0
LINE
  8
CSLAYER1
  6
CONTINUOUS
 62
     4
 10
1504.791138
 20
904.545959
 11
1515.591869
 21
920.756899
  0
POINT
  8
CSLAYER1
 62
     5
 10
1480.367775
 20
824.062777
  0
CIRCLE
  8
CSLAYER1
  6
CONTINUOUS
 62
     3
 10
1431.213347
 20
751.938980
 40
9.500000
  0
LINE
  8
CSLAYER1
  6
CONTINUOUS
 62
     3
 10
1440.713347
 20
757.423807
 11
1431.213347
 21
762.908635
  0
LINE
  8
CSLAYER1
  6
CONTINUOUS
 62
     3
 10
1431.213347
 20
762.908635
 11
1421.713347
 21
757.423807
  0
LINE
  8
CSLAYER1
  6
CONTINUOUS
 62
     3
 10
1421.713347
 20
757.423807
 11
1421.713347
 21
746.454152
  0
LINE
  8
CSLAYER1
  6
CONTINUOUS
 62
     3
 10
1421.713347
 20
746.454152
 11
1431.213347
 21
740.969325
  0
LINE
  8
CSLAYER1
  6
CONTINUOUS
 62
     3
 10
1431.213347
 20
740.969325
 11
1440.713347
 21
746.454152
  0
LINE
  8
CSLAYER1
  6
CONTINUOUS
 62
     3
 10
1440.713347
 20
746.454152
 11
1440.713347
 21
757.423807
  0
POINT
  8
CSLAYER1
 62
     3
 10
1431.213347
 20
751.938980
  0
LINE
  8
CSLAYER1
  6
CONTINUOUS
 62
     3
 10
1406.213347
 20
774.438980
 11
1406.213347
 21
734.438980
  0
LINE
  8
CSLAYER1
  6
CONTINUOUS
 62
     3
 10
2309.213347
 20
774.438980
 11
2309.213347
 21
734.438980
  0
LINE
  8
CSLAYER1
  6
CONTINUOUS
 62
     3
 10
1406.213347
 20
774.438980
 11
1419.756908
 21
774.438980
  0
LINE
  8
CSLAYER1
  6
CONTINUOUS
 62
     3
 10
1442.669786
 20
774.438980
 11
2309.213347
 21
774.438980
  0
ARC
  8
CSLAYER1
  6
CONTINUOUS
 62
     3
 10
1431.213347
 20
779.438980
 40
12.500000
 50
203.578178
 51
336.421822
  0
LINE
  8
CSLAYER1
  6
CONTINUOUS
 62
     7
 10
1732.638650
 20
1101.128577
 11
1963.291714
 21
815.028319
  0
LINE
  8
CSLAYER1
  6
CONTINUOUS
 62
     7
 10
1697.957016
 20
1058.109749
 11
1717.271719
 21
1034.151942
  0
LINE
  8
CSLAYER1
  6
CONTINUOUS
 62
     4
 10
1466.242974
 20
826.458609
 11
1484.444307
 21
849.035400
  0
ARC
  8
CSLAYER1
  6
CONTINUOUS
 62
     4
 10
1468.578504
 20
824.575713
 40
3.000000
 50
141.124357
 51
231.124357
  0
LINE
  8
CSLAYER1
  6
CONTINUOUS
 62
     4
 10
1466.695608
 20
822.240183
 11
1479.151768
 21
812.198068
  0
ARC
  8
CSLAYER1
  6
CONTINUOUS
 62
     4
 10
1481.034665
 20
814.533598
 40
3.000000
 50
231.124357
 51
321.124357
  0
LINE
  8
CSLAYER1
  6
CONTINUOUS
 62
     4
 10
1483.370195
 20
812.650702
 11
1501.571528
 21
835.227493
  0
ARC
  8
CSLAYER1
  6
CONTINUOUS
 62
     4
 10
1499.235998
 20
837.110389
 40
3.000000
 50
-38.875643
 51
51.124357
  0
LINE
  8
CSLAYER1
  6
CONTINUOUS
 62
     4
 10
1488.662734
 20
849.488034
 11
1501.118894
 21
839.445919
  0
ARC
  8
CSLAYER1
  6
CONTINUOUS
 62
     4
 10
1486.779837
 20
847.152504
 40
3.000000
 50
51.124357
 51
141.124357
  0
CIRCLE
  8
CSLAYER1
  6
CONTINUOUS
 62
     3
 10
713.898859
 20
746.088980
 40
4.150000
  0
LINE
  8
CSLAYER1
  6
CENTER
 62
     5
 10
1431.213347
 20
786.650860
 11
1431.213347
 21
737.508349
  0
LINE
  8
CSLAYER1
  6
CENTER
 62
     5
 10
1418.653156
 20
751.938980
 11
1444.259543
 21
751.938980
  0
LINE
  8
CSLAYER1
  6
CENTER
 62
     5
 10
1470.488889
 20
824.062777
 11
1490.688554
 21
824.062777
  0
LINE
  8
CSLAYER1
  6
CENTER
 62
     5
 10
1480.367775
 20
834.280781
 11
1480.367775
 21
814.208963
  0
LINE
  8
CSLAYER1
  6
CENTER
 62
     5
 10
1964.700686
 20
767.791574
 11
1964.700686
 21
735.862622
  0
LINE
  8
CSLAYER1
  6
CENTER
 62
     5
 10
1949.183751
 20
751.938980
 11
1980.954639
 21
751.938980
  0
LINE
  8
CSLAYER1
  6
CENTER
 62
     5
 10
1687.253765
 20
1082.805743
 11
1708.770427
 21
1082.805743
  0
LINE
  8
CSLAYER1
  6
CENTER
 62
     5
 10
1697.957016
 20
1093.117567
 11
1697.957016
 21
1071.600905
  0
LINE
  8
CSLAYER1
  6
CENTER
 62
     5
 10
1679.401698
 20
1137.055360
 11
1696.609889
 21
1137.055360
  0
LINE
  8
CSLAYER1
  6
CENTER
 62
     5
 10
1688.902791
 20
1146.810860
 11
1688.902791
 21
1127.855644
  0
LINE
  8
CSLAYER1
  6
CONTINUOUS
 62
     5
 10
710.398859
 20
903.737616
 11
710.398859
 21
908.398385
  0
LINE
  8
CSLAYER1
  6
CONTINUOUS
 62
     3
 10
1152.717493
 20
2000.949232
 11
1408.913347
 21
2000.949232
  0
LINE
  8
CSLAYER1
  6
CONTINUOUS
 62
     3
 10
1152.717493
 20
1992.649232
 11
1408.913347
 21
1992.649232
  0
LINE
  8
CSLAYER1
  6
CONTINUOUS
 62
     3
 10
1406.213347
 20
2000.949232
 11
1406.213347
 21
2106.799232
  0
LINE
  8
CSLAYER1
  6
CENTER
 62
     5
 10
1149.830906
 20
750.510464
 11
1406.213347
 21
750.510464
  0
LINE
  8
CSLAYER1
  6
CONTINUOUS
 62
     3
 10
1149.830906
 20
754.660464
 11
1406.213347
 21
754.660464
  0
LINE
  8
CSLAYER1
  6
CONTINUOUS
 62
     3
 10
1149.830906
 20
746.360464
 11
1406.213347
 21
746.360464
  0
INSERT
  8
CSLAYER1
  2
BLKF0003
 10
0.0
 20
0.0
 30
0.0
  0
ARC
  8
CSLAYER1
  6
PHANTOM
 62
     5
 10
1431.213347
 20
779.638980
 40
9.500000
 50
-190.922071
 51
10.922071
  0
LINE
  8
CSLAYER1
  6
PHANTOM
 62
     5
 10
1421.713347
 20
781.438980
 11
1421.713347
 21
774.154152
  0
LINE
  8
CSLAYER1
  6
PHANTOM
 62
     5
 10
1421.713347
 20
774.154152
 11
1431.213347
 21
768.669325
  0
LINE
  8
CSLAYER1
  6
PHANTOM
 62
     5
 10
1431.213347
 20
768.669325
 11
1440.713347
 21
774.154152
  0
LINE
  8
CSLAYER1
  6
PHANTOM
 62
     5
 10
1440.713347
 20
774.154152
 11
1440.713347
 21
781.438980
  0
POINT
  8
CSLAYER1
 62
     5
 10
1431.213347
 20
779.638980
  0
LINE
  8
CSLAYER1
  6
PHANTOM
 62
     5
 10
1408.913347
 20
799.438980
 11
1408.913347
 21
781.438980
  0
LINE
  8
CSLAYER1
  6
PHANTOM
 62
     5
 10
2308.913347
 20
799.438980
 11
2308.913347
 21
781.438980
  0
LINE
  8
CSLAYER1
  6
PHANTOM
 62
     5
 10
1408.913347
 20
799.438980
 11
2308.913347
 21
799.438980
  0
LINE
  8
CSLAYER1
  6
PHANTOM
 62
     5
 10
1408.913347
 20
781.438980
 11
2308.913347
 21
781.438980
  0
LINE
  8
CSLAYER1
  6
PHANTOM
 62
     5
 10
1411.213347
 20
781.438980
 11
1411.213347
 21
774.438980
  0
LINE
  8
CSLAYER1
  6
PHANTOM
 62
     5
 10
1424.130974
 20
769.138980
 11
1430.399880
 21
769.138980
  0
LINE
  8
CSLAYER1
  6
PHANTOM
 62
     5
 10
2291.213347
 20
781.438980
 11
2291.213347
 21
774.438980
  0
LINE
  8
CSLAYER1
  6
PHANTOM
 62
     5
 10
1461.213347
 20
778.138980
 11
1450.935569
 21
774.438980
  0
LINE
  8
CSLAYER1
  6
PHANTOM
 62
     5
 10
1461.213347
 20
781.438980
 11
1461.213347
 21
774.438980
  0
LINE
  8
CSLAYER1
  6
PHANTOM
 62
     5
 10
1432.026813
 20
769.138980
 11
1436.213347
 21
769.138980
  0
LINE
  8
CSLAYER1
  6
PHANTOM
 62
     5
 10
1431.213347
 20
790.239053
 11
1431.213347
 21
767.586345
  0
LINE
  8
CSLAYER1
  6
PHANTOM
 62
     5
 10
1419.026544
 20
779.638980
 11
1442.458749
 21
779.638980
  0
LINE
  8
CSLAYER1
  6
PHANTOM
 62
     5
 10
1439.925666
 20
770.475414
 11
1436.213347
 21
769.138980
  0
DIMENSION
  8
CSLAYER1
 62
     3
  2
*D0000
 10
2411.969802
 20
799.438980
 11
2401.969727
 21
766.938965
 13
2513.111876
 23
734.438980
 14
2308.913347
 24
799.438980
 50
90.000000
  0
DIMENSION
  8
CSLAYER1
 62
     3
  2
*D0001
 10
2411.969802
 20
1450.732390
 11
2401.969727
 21
1125.085938
 13
2290.827728
 23
799.438980
 14
2290.827728
 24
1450.732390
 50
90.000000
 70
1
  0
DIMENSION
  8
CSLAYER1
 62
     3
  2
*D0002
 10
2513.111876
 20
734.438980
 11
2503.111816
 21
1092.585938
 13
2513.111876
 23
1450.732390
 14
2513.111876
 24
734.438980
 50
90.000000
 70
1
  0
DIMENSION
  8
CSLAYER1
 62
     3
  2
*D0003
 10
2330.322373
 20
1549.220853
 11
1880.322388
 21
1559.220947
 13
1430.322373
 23
1450.732390
 14
2330.322373
 24
1450.732390
 70
1
  0
DIMENSION
  8
CSLAYER1
 62
     3
  2
*D0004
 10
1320.959286
 20
2091.799232
 11
1312.707275
 21
1941.246582
 13
1419.950545
 23
1841.799232
 14
1419.950545
 24
2091.799232
 50
90.000000
 70
1
  0
DIMENSION
  8
CSLAYER1
 62
     3
  2
*D0005
 10
1431.213347
 20
1752.739167
 11
1365.357788
 21
1736.472168
 13
1406.213347
 23
1685.927599
 14
1431.213347
 24
1830.536430
  0
DIMENSION
  8
CSLAYER1
 62
     3
  2
*D0006
 10
1456.213347
 20
1685.927599
 11
1366.519897
 21
1669.079590
 13
1406.213347
 23
1826.799232
 14
1456.213347
 24
1826.799232
 52
270.000000
 70
1
  0
INSERT
  8
CSLAYER1
  2
EASYDRAWDIM0000
 10
0.0
 20
0.0
 30
0.0
  0
INSERT
  8
CSLAYER1
  2
EASYDRAWDIM0001
 10
0.0
 20
0.0
 30
0.0
  0
DIMENSION
  8
CSLAYER1
 62
     3
  2
*D0007
 10
960.397530
 20
740.438980
 11
950.397644
 21
767.253418
 13
893.898859
 23
734.438980
 14
893.898859
 24
740.438980
 50
90.000000
 70
1
  0
DIMENSION
  8
CSLAYER1
 62
     3
  2
*D0008
 10
2309.213347
 20
564.804004
 11
1857.713379
 21
574.803955
 13
1406.213347
 23
734.438980
 14
2309.213347
 24
734.438980
 52
270.000000
 70
1
  0
INSERT
  8
CSLAYER1
  2
EASYDRAWDIM0002
 10
0.0
 20
0.0
 30
0.0
  0
LINE
  8
CSLAYER1
  6
CONTINUOUS
 62
     4
 10
1408.913347
 20
2116.799232
 11
2308.913347
 21
2116.799232
  0
ARC
  8
CSLAYER1
  6
CONTINUOUS
 62
     3
 10
1431.213347
 20
2091.799232
 40
6.500000
 50
65.224333
 51
120.576653
  0
ARC
  8
CSLAYER1
  6
CONTINUOUS
 62
     3
 10
1431.213347
 20
2091.799232
 40
6.500000
 50
-29.249163
 51
22.624606
  0
ARC
  8
CSLAYER1
  6
CONTINUOUS
 62
     3
 10
1431.213347
 20
2091.799232
 40
6.500000
 50
243.232757
 51
294.045087
  0
LINE
  8
CSLAYER1
  6
DASHED
 62
     4
 10
1408.913347
 20
1866.799232
 11
2308.913347
 21
1866.799232
  0
ARC
  8
CSLAYER1
  6
CONTINUOUS
 62
     4
 10
1446.213347
 20
1826.799232
 40
10.000000
 50
270.000000
 51
360.000000
  0
LINE
  8
CSLAYER1
  6
CONTINUOUS
 62
     3
 10
1416.213347
 20
1816.799232
 11
1446.213347
 21
1816.799232
  0
ARC
  8
CSLAYER1
  6
CONTINUOUS
 62
     3
 10
1416.213347
 20
1826.799232
 40
10.000000
 50
180.000000
 51
223.113606
  0
LINE
  8
CSLAYER1
  6
DASHED
 62
     4
 10
1456.213347
 20
1826.799232
 11
1456.213347
 21
1866.799232
  0
LINE
  8
CSLAYER1
  6
CENTER
 62
     5
 10
1431.213347
 20
1853.062033
 11
1431.213347
 21
1830.536430
  0
LINE
  8
CSLAYER1
  6
CENTER
 62
     5
 10
1419.950545
 20
1841.799232
 11
1442.476148
 21
1841.799232
  0
ARC
  8
CSLAYER1
  6
CONTINUOUS
 62
     3
 10
1431.213347
 20
1841.799232
 40
6.500000
 50
155.078812
 51
201.335212
  0
LINE
  8
CSLAYER1
  6
CONTINUOUS
 62
     4
 10
1408.913347
 20
1816.799232
 11
2308.913347
 21
1816.799232
  0
ARC
  8
CSLAYER1
  6
CONTINUOUS
 62
     3
 10
1431.213347
 20
1841.799232
 40
6.500000
 50
239.423347
 51
294.775667
  0
ARC
  8
CSLAYER1
  6
CONTINUOUS
 62
     3
 10
1431.213347
 20
1841.799232
 40
6.500000
 50
-22.624606
 51
29.249163
  0
ARC
  8
CSLAYER1
  6
CONTINUOUS
 62
     3
 10
1431.213347
 20
1841.799232
 40
6.500000
 50
65.954913
 51
116.767243
  0
DIMENSION
  8
CSLAYER1
 62
     3
  2
*D0009
 10
2413.228259
 20
2116.799232
 11
2403.228271
 21
1966.799316
 13
2308.913347
 23
1816.799232
 14
2308.913347
 24
2116.799232
 50
90.000000
 70
1
  0
LINE
  8
CSLAYER1
  6
CONTINUOUS
 62
     3
 10
593.898859
 20
1450.732390
 11
593.898859
 21
1432.732390
  0
LINE
  8
CSLAYER1
  6
CONTINUOUS
 62
     3
 10
893.898859
 20
1450.732390
 11
893.898859
 21
1432.732390
  0
INSERT
  8
CSLAYER1
  2
BLKF0004
 10
0.0
 20
0.0
 30
0.0
  0
INSERT
  8
CSLAYER1
  2
BLKF0005
 10
0.0
 20
0.0
 30
0.0
  0
TEXT
  8
CSLAYER1
 62
     7
 10
1413.033813
 20
2187.998535
 40
40.000000
 41
0.843750
  1
下降時
 50
0.000000
 51
0.000000
  7
EASYDRAW_FONT
 72
     5
 11
1503.033813
 21
2187.998535
  0
LINE
  8
CSLAYER1
  6
CONTINUOUS
 62
     5
 10
1399.427363
 20
2234.428984
 11
1522.385373
 21
2234.428984
  0
LINE
  8
CSLAYER1
  6
CONTINUOUS
 62
     5
 10
1522.385373
 20
2234.428984
 11
1522.385373
 21
2181.568531
  0
LINE
  8
CSLAYER1
  6
CONTINUOUS
 62
     5
 10
1522.385373
 20
2181.568531
 11
1399.427363
 21
2181.568531
  0
LINE
  8
CSLAYER1
  6
CONTINUOUS
 62
     5
 10
1399.427363
 20
2181.568531
 11
1399.427363
 21
2234.428984
  0
INSERT
  8
CSLAYER1
  2
BLKF0006
 10
0.0
 20
0.0
 30
0.0
  0
INSERT
  8
CSLAYER1
  2
EASYDRAWDIM0006
 10
0.0
 20
0.0
 30
0.0
  0
DIMENSION
  8
CSLAYER1
 62
     3
  2
*D0013
 10
1431.213347
 20
670.092112
 11
1452.711304
 21
651.159912
 13
1406.213347
 23
734.438980
 14
1431.213347
 24
737.508349
 52
270.000000
  0
DIMENSION
  8
CSLAYER1
 62
     3
  2
*D0014
 10
893.898859
 20
1503.181635
 11
743.898865
 21
1513.181763
 13
593.898859
 23
1450.732390
 14
893.898859
 24
1450.732390
 70
1
  0
LINE
  8
CSLAYER1
  6
CENTER
 62
     5
 10
2786.135667
 20
779.438980
 11
2935.135667
 21
779.438980
  0
LINE
  8
CSLAYER1
  6
CONTINUOUS
 62
     3
 10
3010.635667
 20
799.238980
 11
2710.635667
 21
799.238980
  0
LINE
  8
CSLAYER1
  6
CONTINUOUS
 62
     3
 10
3010.635667
 20
781.238980
 11
2710.635667
 21
781.238980
  0
LINE
  8
CSLAYER1
  6
CONTINUOUS
 62
     3
 10
2917.635667
 20
781.238980
 11
2917.635667
 21
774.438980
  0
LINE
  8
CSLAYER1
  6
CONTINUOUS
 62
     3
 10
2916.635667
 20
781.238980
 11
2916.635667
 21
774.438980
  0
LINE
  8
CSLAYER1
  6
CONTINUOUS
 62
     3
 10
2924.135667
 20
781.238980
 11
2924.135667
 21
774.438980
  0
LINE
  8
CSLAYER1
  6
CONTINUOUS
 62
     3
 10
2918.135667
 20
781.238980
 11
2918.135667
 21
774.438980
  0
LINE
  8
CSLAYER1
  6
CONTINUOUS
 62
     3
 10
2927.135667
 20
774.438980
 11
2927.135667
 21
781.238980
  0
LINE
  8
CSLAYER1
  6
CONTINUOUS
 62
     3
 10
2924.135667
 20
777.926783
 11
2926.974692
 21
781.238980
  0
LINE
  8
CSLAYER1
  6
CONTINUOUS
 62
     3
 10
2935.135667
 20
781.238980
 11
2935.135667
 21
774.438980
  0
ARC
  8
CSLAYER1
  6
CONTINUOUS
 62
     3
 10
2921.339922
 20
779.438980
 40
13.795744
 50
-21.249544
 51
7.497043
  0
LINE
  8
CSLAYER1
  6
CONTINUOUS
 62
     3
 10
2803.635667
 20
781.238980
 11
2803.635667
 21
774.438980
  0
LINE
  8
CSLAYER1
  6
CONTINUOUS
 62
     3
 10
2804.635667
 20
781.238980
 11
2804.635667
 21
774.438980
  0
LINE
  8
CSLAYER1
  6
CONTINUOUS
 62
     3
 10
2797.135667
 20
781.238980
 11
2797.135667
 21
774.438980
  0
LINE
  8
CSLAYER1
  6
CONTINUOUS
 62
     3
 10
2803.135667
 20
781.238980
 11
2803.135667
 21
774.438980
  0
LINE
  8
CSLAYER1
  6
CONTINUOUS
 62
     3
 10
2794.135667
 20
774.438980
 11
2794.135667
 21
781.238980
  0
LINE
  8
CSLAYER1
  6
CONTINUOUS
 62
     3
 10
2797.135667
 20
777.926783
 11
2794.296641
 21
781.238980
  0
LINE
  8
CSLAYER1
  6
CONTINUOUS
 62
     3
 10
2786.135667
 20
781.238980
 11
2786.135667
 21
774.438980
  0
ARC
  8
CSLAYER1
  6
CONTINUOUS
 62
     3
 10
2799.931411
 20
779.438980
 40
13.795744
 50
172.502957
 51
201.249544
  0
LINE
  8
CSLAYER1
  6
CONTINUOUS
 62
     3
 10
2775.635667
 20
774.438980
 11
2775.635667
 21
781.238980
  0
LINE
  8
CSLAYER1
  6
CONTINUOUS
 62
     3
 10
2780.135667
 20
774.438980
 11
2780.135667
 21
781.238980
  0
LINE
  8
CSLAYER1
  6
CONTINUOUS
 62
     3
 10
2945.635667
 20
774.438980
 11
2945.635667
 21
781.238980
  0
LINE
  8
CSLAYER1
  6
CONTINUOUS
 62
     3
 10
2941.135667
 20
774.438980
 11
2941.135667
 21
781.238980
  0
LINE
  8
CSLAYER1
  6
CONTINUOUS
 62
     3
 10
3010.635667
 20
781.238980
 11
3010.635667
 21
799.238980
  0
LINE
  8
CSLAYER1
  6
CONTINUOUS
 62
     3
 10
2710.635667
 20
781.238980
 11
2710.635667
 21
799.238980
  0
TEXT
  8
CSLAYER1
 62
     5
 10
3099.381071
 20
741.958973
 40
31.844261
 41
0.920655
  1
Ｆ.Ｌ
 50
0.000000
 51
0.000000
  7
EASYDRAW_FONT
 72
     5
 11
3177.561312
 21
741.958973
  0
LINE
  8
CSLAYER1
  6
CONTINUOUS
 62
     3
 10
2710.635667
 20
734.438980
 11
3010.635667
 21
734.438980
  0
LINE
  8
CSLAYER1
  6
CENTER
 62
     5
 10
2985.635667
 20
725.509619
 11
2985.635667
 21
749.719580
  0
LINE
  8
CSLAYER1
  6
CENTER
 62
     5
 10
2735.635667
 20
725.509619
 11
2735.635667
 21
749.719580
  0
LINE
  8
CSLAYER1
  6
CONTINUOUS
 62
     3
 10
2760.635667
 20
774.438980
 11
2960.635667
 21
774.438980
  0
LINE
  8
CSLAYER1
  6
CONTINUOUS
 62
     3
 10
2760.635667
 20
774.438980
 11
2760.635667
 21
740.438980
  0
LINE
  8
CSLAYER1
  6
CONTINUOUS
 62
     3
 10
2960.635667
 20
774.438980
 11
2960.635667
 21
740.438980
  0
LINE
  8
CSLAYER1
  6
CONTINUOUS
 62
     3
 10
3010.635667
 20
734.438980
 11
3010.635667
 21
740.438980
  0
LINE
  8
CSLAYER1
  6
CONTINUOUS
 62
     3
 10
3010.635667
 20
740.438980
 11
2960.635667
 21
740.438980
  0
LINE
  8
CSLAYER1
  6
CONTINUOUS
 62
     3
 10
2710.635667
 20
734.438980
 11
2710.635667
 21
740.438980
  0
LINE
  8
CSLAYER1
  6
CONTINUOUS
 62
     3
 10
2710.635667
 20
740.438980
 11
2760.635667
 21
740.438980
  0
POINT
  8
CSLAYER1
 62
     3
 10
2860.635667
 20
799.238980
  0
POINT
  8
CSLAYER1
 62
     3
 10
2860.635667
 20
774.438980
  0
LINE
  8
CSLAYER1
  6
CENTER
 62
     5
 10
2860.635667
 20
799.238980
 11
2860.635667
 21
734.438980
  0
TEXT
  8
CSLAYER1
 62
     7
 10
2807.626709
 20
870.225830
 40
40.000000
 41
0.843750
  1
下降時
 50
0.000000
 51
0.000000
  7
EASYDRAW_FONT
 72
     5
 11
2897.626709
 21
870.225830
  0
LINE
  8
CSLAYER1
  6
CONTINUOUS
 62
     5
 10
2794.020398
 20
916.656044
 11
2916.978408
 21
916.656044
  0
LINE
  8
CSLAYER1
  6
CONTINUOUS
 62
     5
 10
2916.978408
 20
916.656044
 11
2916.978408
 21
863.795591
  0
LINE
  8
CSLAYER1
  6
CONTINUOUS
 62
     5
 10
2916.978408
 20
863.795591
 11
2794.020398
 21
863.795591
  0
LINE
  8
CSLAYER1
  6
CONTINUOUS
 62
     5
 10
2794.020398
 20
863.795591
 11
2794.020398
 21
916.656044
  0
DIMENSION
  8
CSLAYER1
 62
     3
  2
*D0015
 10
2616.929860
 20
799.238980
 11
2606.929688
 21
766.839111
 13
2650.651896
 23
734.438980
 14
2701.193049
 24
799.238980
 50
90.000000
  0
LINE
  8
CSLAYER1
  6
CONTINUOUS
 62
     5
 10
3219.979485
 20
734.438980
 11
3010.635667
 21
734.438980
  0
LINE
  8
CSLAYER1
  6
CONTINUOUS
 62
     3
 10
2760.635667
 20
747.608474
 11
2760.635667
 21
734.438980
  0
LINE
  8
CSLAYER1
  6
CONTINUOUS
 62
     3
 10
2960.635667
 20
741.430589
 11
2960.635667
 21
734.438980
  0
LINE
  8
CSLAYER1
  6
CONTINUOUS
 62
     3
 10
593.898859
 20
734.438980
 11
893.898859
 21
734.438980
  0
LINE
  8
CSLAYER1
  6
CONTINUOUS
 62
     5
 10
893.898859
 20
734.438980
 11
1406.213347
 21
734.438980
  0
LINE
  8
CSLAYER1
  6
CONTINUOUS
 62
     3
 10
1406.213347
 20
734.438980
 11
2309.213347
 21
734.438980
  0
LINE
  8
CSLAYER1
  6
CONTINUOUS
 62
     5
 10
2309.213347
 20
734.438980
 11
2710.635667
 21
734.438980
  0
ENDSEC
  0
EOF
