  0
SECTION
  2
HEADER
  9
$ACADVER
  1
AC1006
  9
$INSBASE
 10
0.000000
 20
0.000000
 30
0.0
  9
$EXTMIN
 10
0.000000
 20
0.000000
  9
$EXTMAX
 10
3640.000000
 20
2570.000000
  9
$LIMMIN
 10
0.000000
 20
0.000000
  9
$LIMMAX
 10
3640.000000
 20
2570.000000
  9
$VIEWCTR
 10
1820.000000
 20
1285.000000
  9
$VIEWSIZE
 40
2570.000000
  9
$SNAPMODE
 70
     0
  9
$SNAPUNIT
 10
1.0
 20
1.0
  9
$SNAPBASE
 10
0.0
 20
0.0
  9
$SNAPANG
 50
0.0
  9
$SNAPSTYLE
 70
     0
  9
$SNAPISOPAIR
 70
     0
  9
$GRIDMODE
 70
     0
  9
$GRIDUNIT
 10
0.0
 20
0.0
  9
$ORTHOMODE
 70
     0
  9
$REGENMODE
 70
     1
  9
$FILLMODE
 70
     1
  9
$QTEXTMODE
 70
     0
  9
$DRAGMODE
 70
     2
  9
$LTSCALE
 40
15.000000
  9
$OSMODE
 70
     0
  9
$ATTMODE
 70
     1
  9
$TEXTSIZE
 40
0.2
  9
$TRACEWID
 40
0.05
  9
$TEXTSTYLE
  7
STANDARD
  9
$CLAYER
  8
CSLAYER1
  9
$CELTYPE
  6
BYLAYER
  9
$CECOLOR
 62
   256
  9
$DIMSCALE
 40
1.0
  9
$DIMASZ
 40
0.18
  9
$DIMEXO
 40
0.0625
  9
$DIMDLI
 40
0.38
  9
$DIMRND
 40
0.0
  9
$DIMDLE
 40
0.0
  9
$DIMEXE
 40
0.18
  9
$DIMTP
 40
0.0
  9
$DIMTM
 40
0.0
  9
$DIMTXT
 40
0.18
  9
$DIMCEN
 40
0.09
  9
$DIMTSZ
 40
0.0
  9
$DIMTOL
 70
     0
  9
$DIMLIM
 70
     0
  9
$DIMTIH
 70
     1
  9
$DIMTOH
 70
     1
  9
$DIMSE1
 70
     0
  9
$DIMSE2
 70
     0
  9
$DIMTAD
 70
     0
  9
$DIMZIN
 70
     0
  9
$DIMBLK
  1

  9
$LUNITS
 70
     2
  9
$LUPREC
 70
     4
  9
$AXISMODE
 70
     0
  9
$AXISUNIT
 10
0.0
 20
0.0
  9
$SKETCHINC
 40
0.1
  9
$FILLETRAD
 40
0.0
  9
$AUNITS
 70
     0
  9
$AUPREC
 70
     0
  9
$MENU
  1
ACAD
  9
$ELEVATION
 40
0.0
  9
$THICKNESS
 40
0.0
  9
$VIEWDIR
 10
0.0
 20
0.0
 30
1.0
  9
$LIMCHECK
 70
     0
  9
$BLIPMODE
 70
     1
  9
$CHAMFERA
 40
0.0
  9
$CHAMFERB
 40
0.0
  9
$FASTZOOM
 70
     1
  9
$SKPOLY
 70
     0
  9
$TDCREATE
 40
2456676.000000
  9
$TDUPDATE
 40
2456676.000000
  9
$TDINDWG
 40
0.0
  9
$TDUSRTIMER
 40
0.0
  9
$USRTIMER
 70
     1
  9
$ANGBASE
 50
0.0
  9
$ANGDIR
 70
     0
  9
$PDMODE
 70
     0
  9
$PDSIZE
 40
0.0
  9
$PLINEWID
 40
0.0
  9
$COORDS
 70
     0
  9
$USERI1
 70
     0
  9
$USERI2
 70
     0
  9
$USERI3
 70
     0
  9
$USERI4
 70
     0
  9
$USERI5
 70
     0
  9
$USERR1
 40
0.0
  9
$USERR2
 40
0.0
  9
$USERR3
 40
0.0
  9
$USERR4
 40
0.0
  9
$USERR5
 40
0.0
  0
ENDSEC
  0
SECTION
  2
TABLES
  0
TABLE
  2
LTYPE
 70
     9
  0
LTYPE
  2
CONTINUOUS
 70
    64
  3
Solid line
 72
    65
 73
     0
 40
0.0
  0
LTYPE
  2
DASHED
 70
    64
  3
__ __ __ __ __ __ __ __ __ __ __ __ __ __ __
 72
    65
 73
     2
 40
0.75
 49
0.5
 49
-0.25
  0
LTYPE
  2
HIDDEN
 70
    64
  3
_ _ _ _ _ _ _ _ _ _ _ _ _ _ _ _ _ _ _ _ _ _ _
 72
    65
 73
     2
 40
0.375
 49
0.25
 49
-0.125
  0
LTYPE
  2
DOT
 70
    64
  3
...............................................
 72
    65
 73
     2
 40
0.25
 49
0.0
 49
-0.25
  0
LTYPE
  2
DASHDOT
 70
    64
  3
__ . __ . __ . __ . __ . __ . __ . __ . __ . __
 72
    65
 73
     4
 40
1.0
 49
0.5
 49
-0.25
 49
0.0
 49
-0.25
  0
LTYPE
  2
DIVIDE
 70
    64
  3
__ . . __ . . __ . . __ . . __ . . __ . . __
 72
    65
 73
     6
 40
1.25
 49
0.5
 49
-0.25
 49
0.0
 49
-0.25
 49
0.0
 49
-0.25
  0
LTYPE
  2
CENTER
 70
    64
  3
____ _ ____ _ ____ _ ____ _ ____ _ ____ _ ____ 
 72
    65
 73
     4
 40
2.0
 49
1.25
 49
-0.25
 49
0.25
 49
-0.25
  0
LTYPE
  2
PHANTOM
 70
    64
  3
______  __  __  ______  __  __  ______  __  __ 
 72
    65
 73
     6
 40
2.5
 49
1.25
 49
-0.25
 49
0.25
 49
-0.25
 49
0.25
 49
-0.25
  0
LTYPE
  2
BORDER
 70
    64
  3
__ __ . __ __ . __ __ . __ __ . __ __ . __ __ .
 72
    65
 73
     6
 40
1.75
 49
0.5
 49
-0.25
 49
0.5
 49
-0.25
 49
0.0
 49
-0.25
  0
ENDTAB
  0
TABLE
  2
LAYER
 70
    16
  0
LAYER
  2
CSLAYER1
 70
    64
 62
     7
  6
CONTINUOUS
  0
LAYER
  2
CSLAYER2
 70
    64
 62
     7
  6
CONTINUOUS
  0
LAYER
  2
CSLAYER3
 70
    64
 62
     7
  6
CONTINUOUS
  0
LAYER
  2
CSLAYER4
 70
    64
 62
     7
  6
CONTINUOUS
  0
LAYER
  2
CSLAYER5
 70
    64
 62
     7
  6
CONTINUOUS
  0
LAYER
  2
CSLAYER6
 70
    64
 62
     7
  6
CONTINUOUS
  0
LAYER
  2
CSLAYER7
 70
    64
 62
     7
  6
CONTINUOUS
  0
LAYER
  2
CSLAYER8
 70
    64
 62
     7
  6
CONTINUOUS
  0
LAYER
  2
CSLAYER9
 70
    64
 62
     7
  6
CONTINUOUS
  0
LAYER
  2
CSLAYER10
 70
    64
 62
     7
  6
CONTINUOUS
  0
LAYER
  2
CSLAYER11
 70
    64
 62
     7
  6
CONTINUOUS
  0
LAYER
  2
CSLAYER12
 70
    64
 62
     7
  6
CONTINUOUS
  0
LAYER
  2
CSLAYER13
 70
    64
 62
     7
  6
CONTINUOUS
  0
LAYER
  2
CSLAYER14
 70
    64
 62
     7
  6
CONTINUOUS
  0
LAYER
  2
CSLAYER15
 70
    64
 62
     7
  6
CONTINUOUS
  0
LAYER
  2
CSLAYER16
 70
    64
 62
     7
  6
CONTINUOUS
  0
ENDTAB
  0
TABLE
  2
STYLE
 70
     1
  0
STYLE
  2
EASYDRAW_FONT
 70
     0
 40
1.0
 41
1.0
 50
0.0
 71
     0
 42
1.0
  3
monotxt
  4
bigfont
  0
ENDTAB
  0
TABLE
  2
VIEW
 70
     0
  0
ENDTAB
  0
ENDSEC
  0
SECTION
  2
BLOCKS
  0
BLOCK
  8
CSLAYER1
  2
*D0000
 70
    65
 10
0.0
 20
0.0
 30
0.0
  0
TEXT
  8
CSLAYER1
 62
     3
 10
1370.921021
 20
1791.222168
 40
40.000000
 41
0.843750
  1
250
 50
90.000000
 51
0.000000
  7
EASYDRAW_FONT
 72
     5
 11
1370.921021
 21
1881.222168
  0
LINE
  8
CSLAYER1
  6
CONTINUOUS
 62
     5
 10
1468.164277
 20
1736.774990
 11
1369.173018
 21
1736.774990
  0
LINE
  8
CSLAYER1
  6
CONTINUOUS
 62
     5
 10
1468.164277
 20
1986.774990
 11
1369.173018
 21
1986.774990
  0
LINE
  8
CSLAYER1
  6
CONTINUOUS
 62
     5
 10
1379.173018
 20
1736.774990
 11
1379.173018
 21
1986.774990
  0
LINE
  8
CSLAYER1
  6
CONTINUOUS
 62
     5
 10
1379.173018
 20
1736.774990
 11
1371.408446
 21
1765.752765
  0
LINE
  8
CSLAYER1
  6
CONTINUOUS
 62
     5
 10
1379.173018
 20
1736.774990
 11
1386.937589
 21
1765.752765
  0
LINE
  8
CSLAYER1
  6
CONTINUOUS
 62
     5
 10
1379.173018
 20
1986.774990
 11
1371.408446
 21
1957.797215
  0
LINE
  8
CSLAYER1
  6
CONTINUOUS
 62
     5
 10
1379.173018
 20
1986.774990
 11
1386.937589
 21
1957.797215
  0
ENDBLK
  8
0
  0
BLOCK
  8
CSLAYER1
  2
*D0001
 70
    65
 10
0.0
 20
0.0
 30
0.0
  0
TEXT
  8
CSLAYER1
 62
     3
 10
1393.571655
 20
1631.447754
 40
40.000000
 41
0.900000
  1
25
 50
0.000000
 51
0.000000
  7
EASYDRAW_FONT
 72
     5
 11
1453.571655
 21
1631.447754
  0
LINE
  8
CSLAYER1
  6
CONTINUOUS
 62
     5
 10
1464.427078
 20
1711.774990
 11
1464.427078
 21
1570.903358
  0
LINE
  8
CSLAYER1
  6
CONTINUOUS
 62
     5
 10
1489.427078
 20
1715.512188
 11
1489.427078
 21
1637.714925
  0
LINE
  8
CSLAYER1
  6
CONTINUOUS
 62
     5
 10
1464.427078
 20
1647.714925
 11
1489.427078
 21
1647.714925
  0
LINE
  8
CSLAYER1
  6
CONTINUOUS
 62
     5
 10
1464.427078
 20
1647.714925
 11
1493.404853
 21
1655.479496
  0
LINE
  8
CSLAYER1
  6
CONTINUOUS
 62
     5
 10
1464.427078
 20
1647.714925
 11
1493.404853
 21
1639.950354
  0
LINE
  8
CSLAYER1
  6
CONTINUOUS
 62
     5
 10
1489.427078
 20
1647.714925
 11
1460.449304
 21
1655.479496
  0
LINE
  8
CSLAYER1
  6
CONTINUOUS
 62
     5
 10
1489.427078
 20
1647.714925
 11
1460.449304
 21
1639.950354
  0
ENDBLK
  8
0
  0
BLOCK
  8
CSLAYER1
  2
*D0002
 70
    65
 10
0.0
 20
0.0
 30
0.0
  0
TEXT
  8
CSLAYER1
 62
     3
 10
1394.733521
 20
1564.055176
 40
40.000000
 41
0.900000
  1
50
 50
0.000000
 51
0.000000
  7
EASYDRAW_FONT
 72
     5
 11
1454.733521
 21
1564.055176
  0
LINE
  8
CSLAYER1
  6
CONTINUOUS
 62
     5
 10
1514.427078
 20
1711.774990
 11
1514.427078
 21
1570.903358
  0
LINE
  8
CSLAYER1
  6
CONTINUOUS
 62
     5
 10
1464.427078
 20
1580.903358
 11
1514.427078
 21
1580.903358
  0
LINE
  8
CSLAYER1
  6
CONTINUOUS
 62
     5
 10
1464.427078
 20
1580.903358
 11
1493.404853
 21
1588.667929
  0
LINE
  8
CSLAYER1
  6
CONTINUOUS
 62
     5
 10
1464.427078
 20
1580.903358
 11
1493.404853
 21
1573.138786
  0
LINE
  8
CSLAYER1
  6
CONTINUOUS
 62
     5
 10
1514.427078
 20
1580.903358
 11
1485.449304
 21
1588.667929
  0
LINE
  8
CSLAYER1
  6
CONTINUOUS
 62
     5
 10
1514.427078
 20
1580.903358
 11
1485.449304
 21
1573.138786
  0
ENDBLK
  8
0
  0
BLOCK
  8
CSLAYER1
  2
EASYDRAWDIM0000
 70
   64
 10
0.0
 20
0.0
 30
0.0
  0
TEXT
  8
CSLAYER1
 62
     3
 10
1607.649048
 20
1616.398438
 40
40.000000
 41
0.771429
  1
2-%%c13(アンカー穴)
 50
0.000000
 51
0.000000
  7
EASYDRAW_FONT
 72
     5
 11
1967.649048
 21
1616.398438
  0
LINE
  8
CSLAYER1
  6
CONTINUOUS
 62
     5
 10
1493.825679
 20
1732.517149
 11
1603.307646
 21
1606.398626
  0
LINE
  8
CSLAYER1
  6
CONTINUOUS
 62
     5
 10
1493.825679
 20
1732.517149
 11
1518.685338
 21
1715.724373
  0
LINE
  8
CSLAYER1
  6
CONTINUOUS
 62
     5
 10
1493.825679
 20
1732.517149
 11
1506.958387
 21
1705.544348
  0
LINE
  8
CSLAYER1
  6
CONTINUOUS
 62
     5
 10
1603.307646
 20
1606.398626
 11
1977.648899
 21
1606.398626
  0
ENDBLK
  8
0
  0
BLOCK
  8
CSLAYER1
  2
*D0003
 70
    65
 10
0.0
 20
0.0
 30
0.0
  0
TEXT
  8
CSLAYER1
 62
     3
 10
2252.029541
 20
802.237244
 40
40.000000
 41
0.900000
  1
65
 50
90.000000
 51
0.000000
  7
EASYDRAW_FONT
 72
     5
 11
2252.029541
 21
862.237244
  0
LINE
  8
CSLAYER1
  6
CONTINUOUS
 62
     5
 10
2177.427078
 20
799.837161
 11
2363.285057
 21
799.837161
  0
LINE
  8
CSLAYER1
  6
CONTINUOUS
 62
     5
 10
2177.127078
 20
864.637161
 11
2272.029453
 21
864.637161
  0
LINE
  8
CSLAYER1
  6
CONTINUOUS
 62
     5
 10
2262.029453
 20
799.837161
 11
2262.029453
 21
864.637161
  0
LINE
  8
CSLAYER1
  6
CONTINUOUS
 62
     5
 10
2262.029453
 20
799.837161
 11
2254.264882
 21
828.814936
  0
LINE
  8
CSLAYER1
  6
CONTINUOUS
 62
     5
 10
2262.029453
 20
799.837161
 11
2269.794025
 21
828.814936
  0
LINE
  8
CSLAYER1
  6
CONTINUOUS
 62
     5
 10
2262.029453
 20
864.637161
 11
2254.264882
 21
835.659387
  0
LINE
  8
CSLAYER1
  6
CONTINUOUS
 62
     5
 10
2262.029453
 20
864.637161
 11
2269.794025
 21
835.659387
  0
ENDBLK
  8
0
  0
BLOCK
  8
CSLAYER1
  2
*D0004
 70
    65
 10
0.0
 20
0.0
 30
0.0
  0
TEXT
  8
CSLAYER1
 62
     3
 10
2252.029541
 20
1077.226318
 40
40.000000
 41
0.843750
  1
505
 50
90.000000
 51
0.000000
  7
EASYDRAW_FONT
 72
     5
 11
2252.029541
 21
1167.226318
  0
LINE
  8
CSLAYER1
  6
CONTINUOUS
 62
     5
 10
2199.404383
 20
1379.815272
 11
2363.285057
 21
1379.815272
  0
LINE
  8
CSLAYER1
  6
CONTINUOUS
 62
     5
 10
2262.029453
 20
864.637161
 11
2262.029453
 21
1379.815272
  0
LINE
  8
CSLAYER1
  6
CONTINUOUS
 62
     5
 10
2262.029453
 20
864.637161
 11
2254.264882
 21
893.614936
  0
LINE
  8
CSLAYER1
  6
CONTINUOUS
 62
     5
 10
2262.029453
 20
864.637161
 11
2269.794025
 21
893.614936
  0
LINE
  8
CSLAYER1
  6
CONTINUOUS
 62
     5
 10
2262.029453
 20
1379.815272
 11
2254.264882
 21
1350.837497
  0
LINE
  8
CSLAYER1
  6
CONTINUOUS
 62
     5
 10
2262.029453
 20
1379.815272
 11
2269.794025
 21
1350.837497
  0
ENDBLK
  8
0
  0
BLOCK
  8
CSLAYER1
  2
*D0005
 70
    65
 10
0.0
 20
0.0
 30
0.0
  0
TEXT
  8
CSLAYER1
 62
     3
 10
2343.285156
 20
1044.826172
 40
40.000000
 41
0.843750
  1
570
 50
90.000000
 51
0.000000
  7
EASYDRAW_FONT
 72
     5
 11
2343.285156
 21
1134.826172
  0
LINE
  8
CSLAYER1
  6
CONTINUOUS
 62
     5
 10
2353.285057
 20
799.837161
 11
2353.285057
 21
1379.815272
  0
LINE
  8
CSLAYER1
  6
CONTINUOUS
 62
     5
 10
2353.285057
 20
799.837161
 11
2345.520485
 21
828.814936
  0
LINE
  8
CSLAYER1
  6
CONTINUOUS
 62
     5
 10
2353.285057
 20
799.837161
 11
2361.049628
 21
828.814936
  0
LINE
  8
CSLAYER1
  6
CONTINUOUS
 62
     5
 10
2353.285057
 20
1379.815272
 11
2345.520485
 21
1350.837497
  0
LINE
  8
CSLAYER1
  6
CONTINUOUS
 62
     5
 10
2353.285057
 20
1379.815272
 11
2361.049628
 21
1350.837497
  0
ENDBLK
  8
0
  0
BLOCK
  8
CSLAYER1
  2
*D0006
 70
    65
 10
0.0
 20
0.0
 30
0.0
  0
TEXT
  8
CSLAYER1
 62
     3
 10
1794.404419
 20
1465.056763
 40
40.000000
 41
0.843750
  1
700
 50
0.000000
 51
0.000000
  7
EASYDRAW_FONT
 72
     5
 11
1884.404419
 21
1465.056763
  0
LINE
  8
CSLAYER1
  6
CONTINUOUS
 62
     5
 10
1489.404383
 20
1389.815272
 11
1489.404383
 21
1465.056986
  0
LINE
  8
CSLAYER1
  6
CONTINUOUS
 62
     5
 10
2189.404383
 20
1389.815272
 11
2189.404383
 21
1465.056986
  0
LINE
  8
CSLAYER1
  6
CONTINUOUS
 62
     5
 10
1489.404383
 20
1455.056986
 11
2189.404383
 21
1455.056986
  0
LINE
  8
CSLAYER1
  6
CONTINUOUS
 62
     5
 10
1489.404383
 20
1455.056986
 11
1518.382158
 21
1462.821558
  0
LINE
  8
CSLAYER1
  6
CONTINUOUS
 62
     5
 10
1489.404383
 20
1455.056986
 11
1518.382158
 21
1447.292415
  0
LINE
  8
CSLAYER1
  6
CONTINUOUS
 62
     5
 10
2189.404383
 20
1455.056986
 11
2160.426608
 21
1462.821558
  0
LINE
  8
CSLAYER1
  6
CONTINUOUS
 62
     5
 10
2189.404383
 20
1455.056986
 11
2160.426608
 21
1447.292415
  0
ENDBLK
  8
0
  0
BLOCK
  8
CSLAYER1
  2
*D0007
 70
    65
 10
0.0
 20
0.0
 30
0.0
  0
TEXT
  8
CSLAYER1
 62
     3
 10
1770.927124
 20
626.276855
 40
40.000000
 41
0.843750
  1
703
 50
0.000000
 51
0.000000
  7
EASYDRAW_FONT
 72
     5
 11
1860.927124
 21
626.276855
  0
LINE
  8
CSLAYER1
  6
CONTINUOUS
 62
     5
 10
1464.427078
 20
789.837161
 11
1464.427078
 21
606.276818
  0
LINE
  8
CSLAYER1
  6
CONTINUOUS
 62
     5
 10
2167.427078
 20
789.837161
 11
2167.427078
 21
606.276818
  0
LINE
  8
CSLAYER1
  6
CONTINUOUS
 62
     5
 10
1464.427078
 20
616.276818
 11
2167.427078
 21
616.276818
  0
LINE
  8
CSLAYER1
  6
CONTINUOUS
 62
     5
 10
1464.427078
 20
616.276818
 11
1493.404853
 21
624.041389
  0
LINE
  8
CSLAYER1
  6
CONTINUOUS
 62
     5
 10
1464.427078
 20
616.276818
 11
1493.404853
 21
608.512247
  0
LINE
  8
CSLAYER1
  6
CONTINUOUS
 62
     5
 10
2167.427078
 20
616.276818
 11
2138.449304
 21
624.041389
  0
LINE
  8
CSLAYER1
  6
CONTINUOUS
 62
     5
 10
2167.427078
 20
616.276818
 11
2138.449304
 21
608.512247
  0
ENDBLK
  8
0
  0
BLOCK
  8
CSLAYER1
  2
*D0008
 70
    65
 10
0.0
 20
0.0
 30
0.0
  0
TEXT
  8
CSLAYER1
 62
     3
 10
1060.585327
 20
807.886658
 40
40.000000
 41
1.125000
  1
6
 50
90.000000
 51
0.000000
  7
EASYDRAW_FONT
 72
     5
 11
1060.585327
 21
837.886658
  0
LINE
  8
CSLAYER1
  6
CONTINUOUS
 62
     5
 10
1014.198768
 20
799.837161
 11
1080.585365
 21
799.837161
  0
LINE
  8
CSLAYER1
  6
CONTINUOUS
 62
     5
 10
1014.198768
 20
805.837161
 11
1080.585365
 21
805.837161
  0
LINE
  8
CSLAYER1
  6
CONTINUOUS
 62
     5
 10
1070.585365
 20
799.837161
 11
1070.585365
 21
749.837161
  0
LINE
  8
CSLAYER1
  6
CONTINUOUS
 62
     5
 10
1070.585365
 20
799.837161
 11
1062.820793
 21
770.859387
  0
LINE
  8
CSLAYER1
  6
CONTINUOUS
 62
     5
 10
1070.585365
 20
799.837161
 11
1078.349936
 21
770.859387
  0
LINE
  8
CSLAYER1
  6
CONTINUOUS
 62
     5
 10
1070.585365
 20
805.837161
 11
1070.585365
 21
839.936124
  0
LINE
  8
CSLAYER1
  6
CONTINUOUS
 62
     5
 10
1070.585365
 20
805.837161
 11
1062.820793
 21
834.814936
  0
LINE
  8
CSLAYER1
  6
CONTINUOUS
 62
     5
 10
1070.585365
 20
805.837161
 11
1078.349936
 21
834.814936
  0
LINE
  8
CSLAYER1
  6
CONTINUOUS
 62
     5
 10
1070.585365
 20
799.837161
 11
1070.585365
 21
805.837161
  0
ENDBLK
  8
0
  0
BLOCK
  8
CSLAYER1
  2
EASYDRAWDIM0001
 70
   64
 10
0.0
 20
0.0
 30
0.0
  0
TEXT
  8
CSLAYER1
 62
     3
 10
1172.229858
 20
954.377441
 40
40.000000
 41
0.803571
  1
高圧ホース
 50
0.000000
 51
0.000000
  7
EASYDRAW_FONT
 72
     5
 11
1322.229858
 21
954.377441
  0
LINE
  8
CSLAYER1
  6
CONTINUOUS
 62
     5
 10
1388.775343
 20
825.545754
 11
1322.229674
 21
944.377305
  0
LINE
  8
CSLAYER1
  6
CONTINUOUS
 62
     5
 10
1388.775343
 20
825.545754
 11
1367.842070
 21
847.035241
  0
LINE
  8
CSLAYER1
  6
CONTINUOUS
 62
     5
 10
1388.775343
 20
825.545754
 11
1381.391340
 21
854.622832
  0
LINE
  8
CSLAYER1
  6
CONTINUOUS
 62
     5
 10
1322.229674
 20
944.377305
 11
1162.229674
 21
944.377305
  0
ENDBLK
  8
0
  0
BLOCK
  8
CSLAYER1
  2
EASYDRAWDIM0002
 70
   64
 10
0.0
 20
0.0
 30
0.0
  0
TEXT
  8
CSLAYER1
 62
     3
 10
1420.159790
 20
1759.674782
 40
33.155758
 41
0.767879
  1
穴ヒﾟッチ
 50
90.000000
 51
0.000000
  7
EASYDRAW_FONT
 72
     5
 11
1420.159790
 21
1878.486351
  0
ENDBLK
  8
0
  0
BLOCK
  8
CSLAYER1
  2
*D0009
 70
    65
 10
0.0
 20
0.0
 30
0.0
  0
TEXT
  8
CSLAYER1
 62
     3
 10
2250.722168
 20
1816.774902
 40
40.000000
 41
0.843750
  1
300
 50
90.000000
 51
0.000000
  7
EASYDRAW_FONT
 72
     5
 11
2250.722168
 21
1906.774902
  0
LINE
  8
CSLAYER1
  6
CONTINUOUS
 62
     5
 10
2177.127078
 20
1711.774990
 11
2270.722068
 21
1711.774990
  0
LINE
  8
CSLAYER1
  6
CONTINUOUS
 62
     5
 10
2177.127078
 20
2011.774990
 11
2270.722068
 21
2011.774990
  0
LINE
  8
CSLAYER1
  6
CONTINUOUS
 62
     5
 10
2260.722068
 20
1711.774990
 11
2260.722068
 21
2011.774990
  0
LINE
  8
CSLAYER1
  6
CONTINUOUS
 62
     5
 10
2260.722068
 20
1711.774990
 11
2252.957497
 21
1740.752765
  0
LINE
  8
CSLAYER1
  6
CONTINUOUS
 62
     5
 10
2260.722068
 20
1711.774990
 11
2268.486640
 21
1740.752765
  0
LINE
  8
CSLAYER1
  6
CONTINUOUS
 62
     5
 10
2260.722068
 20
2011.774990
 11
2252.957497
 21
1982.797215
  0
LINE
  8
CSLAYER1
  6
CONTINUOUS
 62
     5
 10
2260.722068
 20
2011.774990
 11
2268.486640
 21
1982.797215
  0
ENDBLK
  8
0
  0
BLOCK
  8
CSLAYER1
  2
*D0010
 70
    65
 10
0.0
 20
0.0
 30
0.0
  0
TEXT
  8
CSLAYER1
 62
     3
 10
1306.437134
 20
1250.010132
 40
40.000000
 41
0.803571
  1
MAX22
 50
0.000000
 51
0.000000
  7
EASYDRAW_FONT
 72
     5
 11
1456.437134
 21
1250.010132
  0
LINE
  8
CSLAYER1
  6
CONTINUOUS
 62
     5
 10
1467.127078
 20
874.637161
 11
1467.127078
 21
1242.294407
  0
LINE
  8
CSLAYER1
  6
CONTINUOUS
 62
     5
 10
1489.404383
 20
1369.815272
 11
1489.404383
 21
1222.294407
  0
LINE
  8
CSLAYER1
  6
CONTINUOUS
 62
     5
 10
1467.127078
 20
1232.294407
 11
1378.010549
 21
1232.294407
  0
LINE
  8
CSLAYER1
  6
CONTINUOUS
 62
     5
 10
1467.127078
 20
1232.294407
 11
1438.149304
 21
1240.058978
  0
LINE
  8
CSLAYER1
  6
CONTINUOUS
 62
     5
 10
1467.127078
 20
1232.294407
 11
1438.149304
 21
1224.529835
  0
LINE
  8
CSLAYER1
  6
CONTINUOUS
 62
     5
 10
1489.404383
 20
1232.294407
 11
1539.404383
 21
1232.294407
  0
LINE
  8
CSLAYER1
  6
CONTINUOUS
 62
     5
 10
1489.404383
 20
1232.294407
 11
1518.382158
 21
1240.058978
  0
LINE
  8
CSLAYER1
  6
CONTINUOUS
 62
     5
 10
1489.404383
 20
1232.294407
 11
1518.382158
 21
1224.529835
  0
LINE
  8
CSLAYER1
  6
CONTINUOUS
 62
     5
 10
1467.127078
 20
1232.294407
 11
1489.404383
 21
1232.294407
  0
ENDBLK
  8
0
  0
BLOCK
  8
CSLAYER1
  2
EASYDRAWDIM0003
 70
   64
 10
0.0
 20
0.0
 30
0.0
  0
TEXT
  8
CSLAYER1
 62
     3
 10
1208.223022
 20
1125.390625
 40
40.000000
 41
0.787500
  1
油圧シリンダー
 50
0.000000
 51
0.000000
  7
EASYDRAW_FONT
 72
     5
 11
1418.223022
 21
1125.390625
  0
LINE
  8
CSLAYER1
  6
CONTINUOUS
 62
     5
 10
1419.187769
 20
1115.390670
 11
1198.223027
 21
1115.390670
  0
ENDBLK
  8
0
  0
BLOCK
  8
CSLAYER1
  2
*D0011
 70
    65
 10
0.0
 20
0.0
 30
0.0
  0
TEXT
  8
CSLAYER1
 62
     3
 10
809.198792
 20
725.228271
 40
40.000000
 41
0.843750
  1
250
 50
0.000000
 51
0.000000
  7
EASYDRAW_FONT
 72
     5
 11
899.198792
 21
725.228271
  0
LINE
  8
CSLAYER1
  6
CONTINUOUS
 62
     5
 10
729.198768
 20
789.837161
 11
729.198768
 21
705.228276
  0
LINE
  8
CSLAYER1
  6
CONTINUOUS
 62
     5
 10
979.198768
 20
789.837161
 11
979.198768
 21
705.228276
  0
LINE
  8
CSLAYER1
  6
CONTINUOUS
 62
     5
 10
729.198768
 20
715.228276
 11
979.198768
 21
715.228276
  0
LINE
  8
CSLAYER1
  6
CONTINUOUS
 62
     5
 10
729.198768
 20
715.228276
 11
758.176543
 21
722.992848
  0
LINE
  8
CSLAYER1
  6
CONTINUOUS
 62
     5
 10
729.198768
 20
715.228276
 11
758.176543
 21
707.463705
  0
LINE
  8
CSLAYER1
  6
CONTINUOUS
 62
     5
 10
979.198768
 20
715.228276
 11
950.220993
 21
722.992848
  0
LINE
  8
CSLAYER1
  6
CONTINUOUS
 62
     5
 10
979.198768
 20
715.228276
 11
950.220993
 21
707.463705
  0
ENDBLK
  8
0
  0
BLOCK
  8
CSLAYER1
  2
EASYDRAWDIM0004
 70
   64
 10
0.0
 20
0.0
 30
0.0
  0
LINE
  8
CSLAYER1
  6
CONTINUOUS
 62
     5
 10
1360.703077
 20
710.935425
 11
1290.703077
 21
710.935425
  0
ENDBLK
  8
0
  0
BLOCK
  8
CSLAYER1
  2
EASYDRAWDIM0005
 70
   64
 10
0.0
 20
0.0
 30
0.0
  0
TEXT
  8
CSLAYER1
 62
     3
 10
1035.083374
 20
662.980469
 40
40.000000
 41
0.771429
  1
2-%%c13（アンカー穴）
 50
0.000000
 51
0.000000
  7
EASYDRAW_FONT
 72
     5
 11
1395.083374
 21
662.980469
  0
LINE
  8
CSLAYER1
  6
CONTINUOUS
 62
     5
 10
1075.106414
 20
710.935425
 11
1360.703077
 21
710.935425
  0
ENDBLK
  8
0
  0
BLOCK
  8
CSLAYER1
  2
EASYDRAWDIM0006
 70
   64
 10
0.0
 20
0.0
 30
0.0
  0
LINE
  8
CSLAYER1
  6
CONTINUOUS
 62
     6
 10
1489.427078
 20
799.837161
 11
1360.703077
 21
710.935425
  0
LINE
  8
CSLAYER1
  6
CONTINUOUS
 62
     6
 10
1489.427078
 20
799.837161
 11
1469.995625
 21
776.980683
  0
LINE
  8
CSLAYER1
  6
CONTINUOUS
 62
     6
 10
1489.427078
 20
799.837161
 11
1461.170707
 21
789.758597
  0
LINE
  8
CSLAYER1
  6
CONTINUOUS
 62
     6
 10
1360.703077
 20
710.935425
 11
1306.286334
 21
710.935425
  0
ENDBLK
  8
0
  0
BLOCK
  8
CSLAYER1
  2
*D0012
 70
    65
 10
0.0
 20
0.0
 30
0.0
  0
TEXT
  8
CSLAYER1
 62
     3
 10
1475.518433
 20
660.784241
 40
40.000000
 41
0.900000
  1
25
 50
0.000000
 51
0.000000
  7
EASYDRAW_FONT
 72
     5
 11
1535.518433
 21
660.784241
  0
LINE
  8
CSLAYER1
  6
CONTINUOUS
 62
     5
 10
1464.427078
 20
789.837161
 11
1464.427078
 21
720.058977
  0
LINE
  8
CSLAYER1
  6
CONTINUOUS
 62
     5
 10
1489.427078
 20
789.837161
 11
1489.427078
 21
720.058977
  0
LINE
  8
CSLAYER1
  6
CONTINUOUS
 62
     5
 10
1464.427078
 20
730.058977
 11
1489.427078
 21
730.058977
  0
LINE
  8
CSLAYER1
  6
CONTINUOUS
 62
     5
 10
1414.427078
 20
730.058977
 11
1464.427078
 21
730.058977
  0
LINE
  8
CSLAYER1
  6
CONTINUOUS
 62
     5
 10
1464.427078
 20
730.058977
 11
1435.449304
 21
737.823548
  0
LINE
  8
CSLAYER1
  6
CONTINUOUS
 62
     5
 10
1464.427078
 20
730.058977
 11
1435.449304
 21
722.294406
  0
LINE
  8
CSLAYER1
  6
CONTINUOUS
 62
     5
 10
1489.427078
 20
730.058977
 11
1539.427078
 21
730.058977
  0
LINE
  8
CSLAYER1
  6
CONTINUOUS
 62
     5
 10
1489.427078
 20
730.058977
 11
1518.404853
 21
737.823548
  0
LINE
  8
CSLAYER1
  6
CONTINUOUS
 62
     5
 10
1489.427078
 20
730.058977
 11
1518.404853
 21
722.294406
  0
ENDBLK
  8
0
  0
BLOCK
  8
CSLAYER1
  2
*D0013
 70
    65
 10
0.0
 20
0.0
 30
0.0
  0
TEXT
  8
CSLAYER1
 62
     3
 10
809.198792
 20
660.911011
 40
40.000000
 41
0.843750
  1
300
 50
0.000000
 51
0.000000
  7
EASYDRAW_FONT
 72
     5
 11
899.198792
 21
660.911011
  0
LINE
  8
CSLAYER1
  6
CONTINUOUS
 62
     5
 10
704.198768
 20
789.837161
 11
704.198768
 21
640.911044
  0
LINE
  8
CSLAYER1
  6
CONTINUOUS
 62
     5
 10
1004.198768
 20
795.837161
 11
1004.198768
 21
640.911044
  0
LINE
  8
CSLAYER1
  6
CONTINUOUS
 62
     5
 10
704.198768
 20
650.911044
 11
1004.198768
 21
650.911044
  0
LINE
  8
CSLAYER1
  6
CONTINUOUS
 62
     5
 10
704.198768
 20
650.911044
 11
733.176543
 21
658.675615
  0
LINE
  8
CSLAYER1
  6
CONTINUOUS
 62
     5
 10
704.198768
 20
650.911044
 11
733.176543
 21
643.146472
  0
LINE
  8
CSLAYER1
  6
CONTINUOUS
 62
     5
 10
1004.198768
 20
650.911044
 11
975.220993
 21
658.675615
  0
LINE
  8
CSLAYER1
  6
CONTINUOUS
 62
     5
 10
1004.198768
 20
650.911044
 11
975.220993
 21
643.146472
  0
ENDBLK
  8
0
  0
BLOCK
  8
CSLAYER1
  2
*D0014
 70
    65
 10
0.0
 20
0.0
 30
0.0
  0
TEXT
  8
CSLAYER1
 62
     3
 10
809.198792
 20
1464.604126
 40
40.000000
 41
0.843750
  1
300
 50
0.000000
 51
0.000000
  7
EASYDRAW_FONT
 72
     5
 11
899.198792
 21
1464.604126
  0
LINE
  8
CSLAYER1
  6
CONTINUOUS
 62
     5
 10
704.198768
 20
1389.815272
 11
704.198768
 21
1464.604182
  0
LINE
  8
CSLAYER1
  6
CONTINUOUS
 62
     5
 10
1004.198768
 20
1389.815272
 11
1004.198768
 21
1464.604182
  0
LINE
  8
CSLAYER1
  6
CONTINUOUS
 62
     5
 10
704.198768
 20
1454.604182
 11
1004.198768
 21
1454.604182
  0
LINE
  8
CSLAYER1
  6
CONTINUOUS
 62
     5
 10
704.198768
 20
1454.604182
 11
733.176543
 21
1462.368754
  0
LINE
  8
CSLAYER1
  6
CONTINUOUS
 62
     5
 10
704.198768
 20
1454.604182
 11
733.176543
 21
1446.839611
  0
LINE
  8
CSLAYER1
  6
CONTINUOUS
 62
     5
 10
1004.198768
 20
1454.604182
 11
975.220993
 21
1462.368754
  0
LINE
  8
CSLAYER1
  6
CONTINUOUS
 62
     5
 10
1004.198768
 20
1454.604182
 11
975.220993
 21
1446.839611
  0
ENDBLK
  8
0
  0
BLOCK
  8
CSLAYER1
  2
*D0015
 70
    65
 10
0.0
 20
0.0
 30
0.0
  0
TEXT
  8
CSLAYER1
 62
     3
 10
2472.233154
 20
802.237122
 40
40.000000
 41
0.900000
  1
65
 50
90.000000
 51
0.000000
  7
EASYDRAW_FONT
 72
     5
 11
2472.233154
 21
862.237122
  0
LINE
  8
CSLAYER1
  6
CONTINUOUS
 62
     5
 10
2505.955539
 20
799.837161
 11
2472.233503
 21
799.837161
  0
LINE
  8
CSLAYER1
  6
CONTINUOUS
 62
     5
 10
2556.496692
 20
864.637161
 11
2472.233503
 21
864.637161
  0
LINE
  8
CSLAYER1
  6
CONTINUOUS
 62
     5
 10
2482.233503
 20
799.837161
 11
2482.233503
 21
864.637161
  0
LINE
  8
CSLAYER1
  6
CONTINUOUS
 62
     5
 10
2482.233503
 20
749.837161
 11
2482.233503
 21
799.837161
  0
LINE
  8
CSLAYER1
  6
CONTINUOUS
 62
     5
 10
2482.233503
 20
799.837161
 11
2474.468932
 21
770.859387
  0
LINE
  8
CSLAYER1
  6
CONTINUOUS
 62
     5
 10
2482.233503
 20
799.837161
 11
2489.998075
 21
770.859387
  0
LINE
  8
CSLAYER1
  6
CONTINUOUS
 62
     5
 10
2482.233503
 20
864.637161
 11
2482.233503
 21
914.637161
  0
LINE
  8
CSLAYER1
  6
CONTINUOUS
 62
     5
 10
2482.233503
 20
864.637161
 11
2474.468932
 21
893.614936
  0
LINE
  8
CSLAYER1
  6
CONTINUOUS
 62
     5
 10
2482.233503
 20
864.637161
 11
2489.998075
 21
893.614936
  0
ENDBLK
  8
0
  0
BLOCK
  8
CSLAYER1
  2
BLKF0000
 70
   64
 10
0.0
 20
0.0
 30
0.0
  0
ARC
  8
CSLAYER1
  6
CONTINUOUS
 62
     5
 10
2880.302729
 20
123.065540
 40
3.549225
 50
6.429109
 51
73.182034
  0
ARC
  8
CSLAYER1
  6
CONTINUOUS
 62
     5
 10
2876.841759
 20
121.907147
 40
6.907754
 50
310.517970
 51
330.092764
  0
ARC
  8
CSLAYER1
  6
CONTINUOUS
 62
     5
 10
2876.781109
 20
122.272665
 40
7.148321
 50
-32.205059
 51
9.585194
  0
ARC
  8
CSLAYER1
  6
CONTINUOUS
 62
     5
 10
2880.073837
 20
119.511667
 40
4.767514
 50
180.000000
 51
218.514150
  0
ARC
  8
CSLAYER1
  6
CONTINUOUS
 62
     5
 10
2878.787116
 20
118.834526
 40
3.348282
 50
222.781148
 51
319.406906
  0
ARC
  8
CSLAYER1
  6
CONTINUOUS
 62
     5
 10
2881.852758
 20
119.924419
 40
6.559434
 50
94.574282
 51
183.607718
  0
LINE
  8
CSLAYER1
  6
CONTINUOUS
 62
     5
 10
2895.296664
 20
114.807587
 11
2894.439628
 21
111.769004
  0
LINE
  8
CSLAYER1
  6
CONTINUOUS
 62
     5
 10
2897.088649
 20
134.675244
 11
2894.985015
 21
137.402177
  0
LINE
  8
CSLAYER1
  6
CONTINUOUS
 62
     5
 10
2894.985015
 20
137.402177
 11
2888.231661
 21
141.160090
  0
LINE
  8
CSLAYER1
  6
CONTINUOUS
 62
     5
 10
2888.231661
 20
141.160090
 11
2881.329633
 21
141.962960
  0
LINE
  8
CSLAYER1
  6
CONTINUOUS
 62
     5
 10
2863.040408
 20
128.584287
 11
2865.187102
 21
133.548517
  0
LINE
  8
CSLAYER1
  6
CONTINUOUS
 62
     5
 10
2865.150105
 20
133.462960
 11
2867.333797
 21
136.097717
  0
LINE
  8
CSLAYER1
  6
CONTINUOUS
 62
     5
 10
2867.333797
 20
136.097717
 11
2870.638219
 21
138.462960
  0
LINE
  8
CSLAYER1
  6
CONTINUOUS
 62
     5
 10
2881.329633
 20
141.962960
 11
2879.811458
 21
141.196116
  0
LINE
  8
CSLAYER1
  6
CONTINUOUS
 62
     5
 10
2879.811458
 20
141.196116
 11
2876.323079
 21
141.196116
  0
LINE
  8
CSLAYER1
  6
CONTINUOUS
 62
     5
 10
2876.323079
 20
141.196116
 11
2872.767617
 21
139.250674
  0
LINE
  8
CSLAYER1
  6
CONTINUOUS
 62
     5
 10
2872.767617
 20
139.250674
 11
2870.638219
 21
138.462960
  0
LINE
  8
CSLAYER1
  6
CONTINUOUS
 62
     5
 10
2863.040408
 20
128.584287
 11
2861.522861
 21
121.035684
  0
LINE
  8
CSLAYER1
  6
CONTINUOUS
 62
     5
 10
2861.522861
 20
121.035684
 11
2861.329633
 21
118.462960
  0
LINE
  8
CSLAYER1
  6
CONTINUOUS
 62
     5
 10
2864.039016
 20
110.623178
 11
2861.329633
 21
116.719289
  0
LINE
  8
CSLAYER1
  6
CONTINUOUS
 62
     5
 10
2861.329633
 20
116.719289
 11
2861.329633
 21
118.462960
  0
LINE
  8
CSLAYER1
  6
CONTINUOUS
 62
     5
 10
2894.439628
 20
111.769004
 11
2892.753841
 21
108.765997
  0
LINE
  8
CSLAYER1
  6
CONTINUOUS
 62
     5
 10
2892.753841
 20
108.765997
 11
2891.329633
 21
107.447287
  0
ARC
  8
CSLAYER1
  6
CONTINUOUS
 62
     5
 10
2879.137689
 20
118.999721
 40
17.266626
 50
208.054813
 51
260.640470
  0
ARC
  8
CSLAYER1
  6
CONTINUOUS
 62
     5
 10
2873.944293
 20
131.742190
 40
29.874611
 50
274.579659
 51
305.587364
  0
ARC
  8
CSLAYER1
  6
CONTINUOUS
 62
     5
 10
2884.916642
 20
125.758468
 40
15.088627
 50
313.467013
 51
331.085078
  0
LINE
  8
CSLAYER1
  6
CONTINUOUS
 62
     5
 10
2899.707975
 20
121.976381
 11
2900.005269
 21
125.758468
  0
LINE
  8
CSLAYER1
  6
CONTINUOUS
 62
     5
 10
2900.005269
 20
125.758468
 11
2898.713272
 21
131.867451
  0
LINE
  8
CSLAYER1
  6
CONTINUOUS
 62
     5
 10
2899.707975
 20
121.976381
 11
2898.124300
 21
118.462960
  0
ARC
  8
CSLAYER1
  6
CONTINUOUS
 62
     5
 10
2884.916642
 20
125.758468
 40
15.088627
 50
23.883193
 51
36.225170
  0
LINE
  8
CSLAYER1
  6
CONTINUOUS
 62
     5
 10
2845.329633
 20
153.462960
 11
2846.329633
 21
154.555605
  0
LINE
  8
CSLAYER1
  6
CONTINUOUS
 62
     5
 10
2845.329633
 20
153.462960
 11
2846.906591
 21
152.017927
  0
LINE
  8
CSLAYER1
  6
CONTINUOUS
 62
     5
 10
2848.445804
 20
149.908636
 11
2848.472072
 21
147.740517
  0
LINE
  8
CSLAYER1
  6
CONTINUOUS
 62
     5
 10
2848.472072
 20
147.740517
 11
2848.679470
 21
146.980057
  0
LINE
  8
CSLAYER1
  6
CONTINUOUS
 62
     5
 10
2848.679470
 20
146.980057
 11
2849.267098
 21
146.254164
  0
LINE
  8
CSLAYER1
  6
CONTINUOUS
 62
     5
 10
2849.267098
 20
146.254164
 11
2849.854725
 21
146.323297
  0
LINE
  8
CSLAYER1
  6
CONTINUOUS
 62
     5
 10
2849.854725
 20
146.323297
 11
2850.476919
 21
146.496129
  0
LINE
  8
CSLAYER1
  6
CONTINUOUS
 62
     5
 10
2850.476919
 20
146.496129
 11
2850.891715
 21
146.323297
  0
LINE
  8
CSLAYER1
  6
CONTINUOUS
 62
     5
 10
2850.891715
 20
146.323297
 11
2851.790440
 21
145.873935
  0
LINE
  8
CSLAYER1
  6
CONTINUOUS
 62
     5
 10
2851.790440
 20
145.873935
 11
2852.566491
 21
145.462960
  0
LINE
  8
CSLAYER1
  6
CONTINUOUS
 62
     5
 10
2852.566491
 20
145.462960
 11
2853.069394
 21
145.493705
  0
LINE
  8
CSLAYER1
  6
CONTINUOUS
 62
     5
 10
2853.069394
 20
145.493705
 11
2855.877266
 21
146.940184
  0
LINE
  8
CSLAYER1
  6
CONTINUOUS
 62
     5
 10
2846.329633
 20
154.555605
 11
2846.662485
 21
156.029312
  0
LINE
  8
CSLAYER1
  6
CONTINUOUS
 62
     5
 10
2846.662485
 20
156.029312
 11
2848.115890
 21
156.179664
  0
LINE
  8
CSLAYER1
  6
CONTINUOUS
 62
     5
 10
2849.609649
 20
158.948123
 11
2851.363822
 21
159.105213
  0
LINE
  8
CSLAYER1
  6
CONTINUOUS
 62
     5
 10
2851.363822
 20
159.105213
 11
2854.898349
 21
159.943027
  0
LINE
  8
CSLAYER1
  6
CONTINUOUS
 62
     5
 10
2854.898349
 20
159.943027
 11
2856.329633
 21
160.274666
  0
LINE
  8
CSLAYER1
  6
CONTINUOUS
 62
     5
 10
2849.609649
 20
158.948123
 11
2847.676758
 21
159.106991
  0
LINE
  8
CSLAYER1
  6
CONTINUOUS
 62
     5
 10
2846.940635
 20
158.238303
 11
2847.034160
 21
157.867142
  0
LINE
  8
CSLAYER1
  6
CONTINUOUS
 62
     5
 10
2847.034160
 20
157.867142
 11
2847.525754
 21
157.329461
  0
LINE
  8
CSLAYER1
  6
CONTINUOUS
 62
     5
 10
2847.525754
 20
157.329461
 11
2848.201696
 21
156.822505
  0
LINE
  8
CSLAYER1
  6
CONTINUOUS
 62
     5
 10
2848.201696
 20
156.822505
 11
2848.325021
 21
156.658072
  0
LINE
  8
CSLAYER1
  6
CONTINUOUS
 62
     5
 10
2846.906591
 20
152.017927
 11
2848.445804
 21
149.908636
  0
ARC
  8
CSLAYER1
  6
CONTINUOUS
 62
     5
 10
2891.316334
 20
-18.195693
 40
180.727463
 50
80.438896
 51
96.353582
  0
ARC
  8
CSLAYER1
  6
CONTINUOUS
 62
     5
 10
2866.417421
 20
127.052208
 40
34.720242
 50
81.866516
 51
106.890578
  0
LINE
  8
CSLAYER1
  6
CONTINUOUS
 62
     5
 10
2925.523895
 20
159.229630
 11
2927.770977
 21
158.208229
  0
LINE
  8
CSLAYER1
  6
CONTINUOUS
 62
     5
 10
2931.345882
 20
156.625057
 11
2927.770977
 21
158.208229
  0
LINE
  8
CSLAYER1
  6
CONTINUOUS
 62
     5
 10
2925.523895
 20
159.229630
 11
2921.329633
 21
160.022202
  0
LINE
  8
CSLAYER1
  6
CONTINUOUS
 62
     5
 10
2931.329633
 20
156.632253
 11
2933.201209
 21
155.063776
  0
LINE
  8
CSLAYER1
  6
CONTINUOUS
 62
     5
 10
2914.572889
 20
157.669104
 11
2915.472164
 21
159.121779
  0
LINE
  8
CSLAYER1
  6
CONTINUOUS
 62
     5
 10
2915.472164
 20
159.121779
 11
2920.147763
 21
158.002269
  0
LINE
  8
CSLAYER1
  6
CONTINUOUS
 62
     5
 10
2920.147763
 20
158.002269
 11
2936.890149
 21
153.462960
  0
LINE
  8
CSLAYER1
  6
CONTINUOUS
 62
     5
 10
2939.829633
 20
153.462960
 11
2933.201209
 21
155.063776
  0
LINE
  8
CSLAYER1
  6
CONTINUOUS
 62
     5
 10
2936.890149
 20
153.462960
 11
2939.829633
 21
153.462960
  0
LINE
  8
CSLAYER1
  6
CONTINUOUS
 62
     5
 10
2881.329633
 20
157.927901
 11
2901.329633
 21
158.462960
  0
LINE
  8
CSLAYER1
  6
CONTINUOUS
 62
     5
 10
2901.329633
 20
158.462960
 11
2914.572889
 21
157.669104
  0
LINE
  8
CSLAYER1
  6
CONTINUOUS
 62
     5
 10
2916.175870
 20
155.608624
 11
2901.329633
 21
156.962960
  0
LINE
  8
CSLAYER1
  6
CONTINUOUS
 62
     5
 10
2901.329633
 20
156.962960
 11
2886.280424
 21
157.371612
  0
LINE
  8
CSLAYER1
  6
CONTINUOUS
 62
     5
 10
2886.329633
 20
157.370276
 11
2881.329633
 21
157.465570
  0
LINE
  8
CSLAYER1
  6
CONTINUOUS
 62
     5
 10
2881.329633
 20
157.927901
 11
2881.329633
 21
157.465570
  0
LINE
  8
CSLAYER1
  6
CONTINUOUS
 62
     5
 10
2938.829633
 20
149.962960
 11
2929.987075
 21
152.273622
  0
LINE
  8
CSLAYER1
  6
CONTINUOUS
 62
     5
 10
2916.175870
 20
155.608624
 11
2926.329633
 21
153.636241
  0
LINE
  8
CSLAYER1
  6
CONTINUOUS
 62
     5
 10
2926.329633
 20
153.636241
 11
2929.987075
 21
152.273622
  0
LINE
  8
CSLAYER1
  6
CONTINUOUS
 62
     5
 10
2938.829633
 20
149.962960
 11
2938.537016
 21
149.123855
  0
LINE
  8
CSLAYER1
  6
CONTINUOUS
 62
     5
 10
2948.329633
 20
144.462960
 11
2948.023606
 21
145.691941
  0
LINE
  8
CSLAYER1
  6
CONTINUOUS
 62
     5
 10
2938.537016
 20
149.123855
 11
2948.023606
 21
145.691941
  0
LINE
  8
CSLAYER1
  6
CONTINUOUS
 62
     5
 10
2884.829633
 20
149.962960
 11
2887.252671
 21
149.962960
  0
LINE
  8
CSLAYER1
  6
CONTINUOUS
 62
     5
 10
2907.329633
 20
150.395456
 11
2907.329633
 21
149.962960
  0
LINE
  8
CSLAYER1
  6
CONTINUOUS
 62
     5
 10
2906.329633
 20
150.929897
 11
2904.618354
 21
151.567075
  0
LINE
  8
CSLAYER1
  6
CONTINUOUS
 62
     5
 10
2904.618354
 20
151.567075
 11
2903.508298
 21
151.617532
  0
LINE
  8
CSLAYER1
  6
CONTINUOUS
 62
     5
 10
2903.508298
 20
151.617532
 11
2903.028956
 21
151.365247
  0
LINE
  8
CSLAYER1
  6
CONTINUOUS
 62
     5
 10
2903.028956
 20
151.365247
 11
2902.928042
 21
150.961590
  0
LINE
  8
CSLAYER1
  6
CONTINUOUS
 62
     5
 10
2902.928042
 20
150.961590
 11
2903.382155
 21
150.658847
  0
LINE
  8
CSLAYER1
  6
CONTINUOUS
 62
     5
 10
2903.382155
 20
150.658847
 11
2905.022011
 21
150.507476
  0
LINE
  8
CSLAYER1
  6
CONTINUOUS
 62
     5
 10
2905.022011
 20
150.507476
 11
2907.329633
 21
150.395456
  0
LINE
  8
CSLAYER1
  6
CONTINUOUS
 62
     5
 10
2948.329633
 20
144.462960
 11
2945.354091
 21
145.649542
  0
LINE
  8
CSLAYER1
  6
CONTINUOUS
 62
     5
 10
2945.354091
 20
145.649542
 11
2935.298401
 21
147.492417
  0
LINE
  8
CSLAYER1
  6
CONTINUOUS
 62
     5
 10
2935.298401
 20
147.492417
 11
2930.272621
 21
148.652213
  0
LINE
  8
CSLAYER1
  6
CONTINUOUS
 62
     5
 10
2907.863854
 20
150.962960
 11
2919.629520
 21
150.962960
  0
LINE
  8
CSLAYER1
  6
CONTINUOUS
 62
     5
 10
2906.329633
 20
150.929897
 11
2906.854293
 21
150.621429
  0
LINE
  8
CSLAYER1
  6
CONTINUOUS
 62
     5
 10
2906.854293
 20
150.621429
 11
2907.151105
 21
150.532386
  0
LINE
  8
CSLAYER1
  6
CONTINUOUS
 62
     5
 10
2907.151105
 20
150.532386
 11
2907.329633
 21
150.557556
  0
LINE
  8
CSLAYER1
  6
CONTINUOUS
 62
     5
 10
2907.329633
 20
150.557556
 11
2907.863854
 21
150.962960
  0
LINE
  8
CSLAYER1
  6
CONTINUOUS
 62
     5
 10
2919.629520
 20
150.962960
 11
2924.079789
 21
149.934135
  0
LINE
  8
CSLAYER1
  6
CONTINUOUS
 62
     5
 10
2924.079789
 20
149.934135
 11
2928.232981
 21
148.768986
  0
LINE
  8
CSLAYER1
  6
CONTINUOUS
 62
     5
 10
2928.232981
 20
148.768986
 11
2930.272621
 21
148.652213
  0
LINE
  8
CSLAYER1
  6
CONTINUOUS
 62
     5
 10
2883.829633
 20
148.962960
 11
2883.829633
 21
148.462960
  0
LINE
  8
CSLAYER1
  6
CONTINUOUS
 62
     5
 10
2881.329633
 20
148.462960
 11
2883.829633
 21
148.462960
  0
ARC
  8
CSLAYER1
  6
CONTINUOUS
 62
     5
 10
2884.829633
 20
148.962960
 40
1.000000
 50
90.000000
 51
180.000000
  0
LINE
  8
CSLAYER1
  6
CONTINUOUS
 62
     5
 10
2887.252671
 20
149.962960
 11
2887.950228
 21
149.390964
  0
LINE
  8
CSLAYER1
  6
CONTINUOUS
 62
     5
 10
2888.552596
 20
149.367003
 11
2889.410193
 21
149.962960
  0
LINE
  8
CSLAYER1
  6
CONTINUOUS
 62
     5
 10
2890.988589
 20
149.962960
 11
2892.655715
 21
149.304884
  0
LINE
  8
CSLAYER1
  6
CONTINUOUS
 62
     5
 10
2893.079424
 20
149.331397
 11
2894.232911
 21
149.962960
  0
LINE
  8
CSLAYER1
  6
CONTINUOUS
 62
     5
 10
2889.410193
 20
149.962960
 11
2890.988589
 21
149.962960
  0
LINE
  8
CSLAYER1
  6
CONTINUOUS
 62
     5
 10
2894.232911
 20
149.962960
 11
2907.329633
 21
149.962960
  0
LINE
  8
CSLAYER1
  6
CONTINUOUS
 62
     5
 10
2859.878616
 20
146.854134
 11
2881.329633
 21
148.462960
  0
LINE
  8
CSLAYER1
  6
CONTINUOUS
 62
     5
 10
2855.877266
 20
146.940184
 11
2859.878616
 21
146.854134
  0
ARC
  8
CSLAYER1
  6
CONTINUOUS
 62
     5
 10
2888.267268
 20
149.777598
 40
0.500000
 50
230.648247
 51
304.796026
  0
ARC
  8
CSLAYER1
  6
CONTINUOUS
 62
     5
 10
2892.839298
 20
149.769962
 40
0.500000
 50
248.459024
 51
298.701829
  0
ARC
  8
CSLAYER1
  6
CONTINUOUS
 62
     5
 10
2848.085021
 20
156.478072
 40
0.300000
 50
-84.093859
 51
36.869898
  0
ARC
  8
CSLAYER1
  6
CONTINUOUS
 62
     5
 10
2847.619417
 20
158.409343
 40
0.700000
 50
85.301319
 51
194.142980
  0
LINE
  8
CSLAYER1
  6
CONTINUOUS
 62
     3
 10
2879.811458
 20
141.196116
 11
2887.921953
 21
141.196116
  0
LINE
  8
CSLAYER1
  6
CONTINUOUS
 62
     3
 10
2873.398941
 20
139.596116
 11
2891.042282
 21
139.596116
  0
LINE
  8
CSLAYER1
  6
CONTINUOUS
 62
     3
 10
2869.986002
 20
137.996116
 11
2893.917647
 21
137.996116
  0
LINE
  8
CSLAYER1
  6
CONTINUOUS
 62
     3
 10
2867.750683
 20
136.396116
 11
2895.761120
 21
136.396116
  0
LINE
  8
CSLAYER1
  6
CONTINUOUS
 62
     3
 10
2866.255027
 20
134.796116
 11
2896.995405
 21
134.796116
  0
LINE
  8
CSLAYER1
  6
CONTINUOUS
 62
     3
 10
2865.034713
 20
133.196116
 11
2898.044782
 21
133.196116
  0
LINE
  8
CSLAYER1
  6
CONTINUOUS
 62
     3
 10
2864.342821
 20
131.596116
 11
2898.770657
 21
131.596116
  0
LINE
  8
CSLAYER1
  6
CONTINUOUS
 62
     3
 10
2863.650929
 20
129.996116
 11
2899.109043
 21
129.996116
  0
LINE
  8
CSLAYER1
  6
CONTINUOUS
 62
     3
 10
2863.002579
 20
128.396116
 11
2899.447429
 21
128.396116
  0
LINE
  8
CSLAYER1
  6
CONTINUOUS
 62
     3
 10
2862.680920
 20
126.796116
 11
2899.785815
 21
126.796116
  0
LINE
  8
CSLAYER1
  6
CONTINUOUS
 62
     3
 10
2862.359261
 20
125.196116
 11
2877.949504
 21
125.196116
  0
LINE
  8
CSLAYER1
  6
CONTINUOUS
 62
     3
 10
2862.037602
 20
123.596116
 11
2876.417243
 21
123.596116
  0
LINE
  8
CSLAYER1
  6
CONTINUOUS
 62
     3
 10
2861.715943
 20
121.996116
 11
2875.629073
 21
121.996116
  0
LINE
  8
CSLAYER1
  6
CONTINUOUS
 62
     3
 10
2861.474825
 20
120.396116
 11
2875.310306
 21
120.396116
  0
LINE
  8
CSLAYER1
  6
CONTINUOUS
 62
     3
 10
2861.354655
 20
118.796116
 11
2875.360327
 21
118.796116
  0
LINE
  8
CSLAYER1
  6
CONTINUOUS
 62
     3
 10
2861.329633
 20
117.196116
 11
2875.906414
 21
117.196116
  0
LINE
  8
CSLAYER1
  6
CONTINUOUS
 62
     3
 10
2861.828821
 20
115.596116
 11
2877.936416
 21
115.596116
  0
LINE
  8
CSLAYER1
  6
CONTINUOUS
 62
     3
 10
2862.539932
 20
113.996116
 11
2895.067788
 21
113.996116
  0
LINE
  8
CSLAYER1
  6
CONTINUOUS
 62
     3
 10
2863.251044
 20
112.396116
 11
2894.616506
 21
112.396116
  0
LINE
  8
CSLAYER1
  6
CONTINUOUS
 62
     3
 10
2863.962155
 20
110.796116
 11
2893.893482
 21
110.796116
  0
LINE
  8
CSLAYER1
  6
CONTINUOUS
 62
     3
 10
2864.924114
 20
109.196116
 11
2892.995295
 21
109.196116
  0
LINE
  8
CSLAYER1
  6
CONTINUOUS
 62
     3
 10
2866.172575
 20
107.596116
 11
2891.490369
 21
107.596116
  0
LINE
  8
CSLAYER1
  6
CONTINUOUS
 62
     3
 10
2867.777995
 20
105.996116
 11
2889.097908
 21
105.996116
  0
LINE
  8
CSLAYER1
  6
CONTINUOUS
 62
     3
 10
2869.925137
 20
104.396116
 11
2885.972785
 21
104.396116
  0
LINE
  8
CSLAYER1
  6
CONTINUOUS
 62
     3
 10
2873.172827
 20
102.796116
 11
2881.334636
 21
102.796116
  0
LINE
  8
CSLAYER1
  6
CONTINUOUS
 62
     3
 10
2883.141328
 20
125.196116
 11
2899.961065
 21
125.196116
  0
LINE
  8
CSLAYER1
  6
CONTINUOUS
 62
     3
 10
2883.812072
 20
123.596116
 11
2899.835295
 21
123.596116
  0
LINE
  8
CSLAYER1
  6
CONTINUOUS
 62
     3
 10
2883.924079
 20
121.996116
 11
2899.709526
 21
121.996116
  0
LINE
  8
CSLAYER1
  6
CONTINUOUS
 62
     3
 10
2883.678722
 20
120.396116
 11
2898.995670
 21
120.396116
  0
LINE
  8
CSLAYER1
  6
CONTINUOUS
 62
     3
 10
2883.027076
 20
118.796116
 11
2898.274470
 21
118.796116
  0
LINE
  8
CSLAYER1
  6
CONTINUOUS
 62
     3
 10
2881.893813
 20
117.196116
 11
2897.340522
 21
117.196116
  0
LINE
  8
CSLAYER1
  6
CONTINUOUS
 62
     3
 10
2879.637816
 20
115.596116
 11
2896.069815
 21
115.596116
  0
TEXT
  8
CSLAYER1
 62
     5
 10
2900.501493
 20
123.207287
 40
4.713448
 41
1.951056
  1
M
 50
0.000000
 51
0.000000
  7
EASYDRAW_FONT
 72
     5
 11
2906.632296
 21
123.207287
  0
TEXT
  8
CSLAYER1
 62
     5
 10
2910.152881
 20
123.149016
 40
4.626621
 41
0.778201
  1
T
 50
0.000000
 51
0.000000
  7
EASYDRAW_FONT
 72
     5
 11
2912.553174
 21
123.149016
  0
TEXT
  8
CSLAYER1
 62
     5
 10
2912.918443
 20
123.183815
 40
4.696183
 41
1.055553
  1
E
 50
0.000000
 51
0.000000
  7
EASYDRAW_FONT
 72
     5
 11
2916.223158
 21
123.183815
  0
TEXT
  8
CSLAYER1
 62
     5
 10
2916.034624
 20
124.799659
 40
0.348283
 41
9.375319
  1
-
 50
0.000000
 51
0.000000
  7
EASYDRAW_FONT
 72
     5
 11
2918.211469
 21
124.799659
  0
TEXT
  8
CSLAYER1
 62
     5
 10
2917.848834
 20
123.152468
 40
4.861659
 41
1.298502
  1
H
 50
0.000000
 51
0.000000
  7
EASYDRAW_FONT
 72
     5
 11
2922.057416
 21
123.152468
  0
TEXT
  8
CSLAYER1
 62
     5
 10
2921.924849
 20
123.182847
 40
4.843139
 41
1.269236
  1
A
 50
0.000000
 51
0.000000
  7
EASYDRAW_FONT
 72
     5
 11
2926.022905
 21
123.182847
  0
TEXT
  8
CSLAYER1
 62
     5
 10
2925.631005
 20
123.141320
 40
4.825362
 41
1.490144
  1
N
 50
0.000000
 51
0.000000
  7
EASYDRAW_FONT
 72
     5
 11
2930.424659
 21
123.141320
  0
TEXT
  8
CSLAYER1
 62
     5
 10
2906.422462
 20
123.118747
 40
4.982325
 41
1.177443
  1
A
 50
0.000000
 51
0.000000
  7
EASYDRAW_FONT
 72
     5
 11
2910.333397
 21
123.118747
  0
TEXT
  8
CSLAYER1
 62
     5
 10
2900.868507
 20
116.123507
 40
4.982325
 41
1.177443
  1
A
 50
0.000000
 51
0.000000
  7
EASYDRAW_FONT
 72
     5
 11
2904.779442
 21
116.123507
  0
TEXT
  8
CSLAYER1
 62
     5
 10
2913.652931
 20
116.151828
 40
4.982325
 41
1.177443
  1
A
 50
0.000000
 51
0.000000
  7
EASYDRAW_FONT
 72
     5
 11
2917.563866
 21
116.151828
  0
TEXT
  8
CSLAYER1
 62
     5
 10
2917.413476
 20
116.208825
 40
4.825362
 41
1.490144
  1
N
 50
0.000000
 51
0.000000
  7
EASYDRAW_FONT
 72
     5
 11
2922.207130
 21
116.208825
  0
TEXT
  8
CSLAYER1
 62
     5
 10
2926.315812
 20
116.217220
 40
4.841775
 41
1.184218
  1
E
 50
0.000000
 51
0.000000
  7
EASYDRAW_FONT
 72
     5
 11
2930.138290
 21
116.217220
  0
TEXT
  8
CSLAYER1
 62
     5
 10
2905.149061
 20
116.122183
 40
4.947865
 41
1.093992
  1
D
 50
0.000000
 51
0.000000
  7
EASYDRAW_FONT
 72
     5
 11
2908.757677
 21
116.122183
  0
TEXT
  8
CSLAYER1
 62
     5
 10
2909.551419
 20
116.116798
 40
4.924210
 41
1.228195
  1
V
 50
0.000000
 51
0.000000
  7
EASYDRAW_FONT
 72
     5
 11
2913.583346
 21
116.116798
  0
TEXT
  8
CSLAYER1
 62
     5
 10
2921.776620
 20
116.137530
 40
5.032894
 41
1.481023
  1
C
 50
0.000000
 51
0.000000
  7
EASYDRAW_FONT
 72
     5
 11
2926.745841
 21
116.137530
  0
LINE
  8
CSLAYER1
  6
CONTINUOUS
 62
     5
 10
2912.406970
 20
127.197932
 11
2911.394908
 21
127.197932
  0
LINE
  8
CSLAYER1
  6
CONTINUOUS
 62
     3
 10
2861.505208
 20
161.423203
 11
2911.303035
 21
161.423203
  0
LINE
  8
CSLAYER1
  6
CONTINUOUS
 62
     3
 10
2854.392844
 20
159.823203
 11
2922.382726
 21
159.823203
  0
LINE
  8
CSLAYER1
  6
CONTINUOUS
 62
     3
 10
2846.944440
 20
158.223203
 11
2892.367750
 21
158.223203
  0
LINE
  8
CSLAYER1
  6
CONTINUOUS
 62
     3
 10
2905.329300
 20
158.223203
 11
2914.915903
 21
158.223203
  0
LINE
  8
CSLAYER1
  6
CONTINUOUS
 62
     3
 10
2919.225037
 20
158.223203
 11
2927.738034
 21
158.223203
  0
LINE
  8
CSLAYER1
  6
CONTINUOUS
 62
     3
 10
2848.347579
 20
156.623203
 11
2905.054048
 21
156.623203
  0
LINE
  8
CSLAYER1
  6
CONTINUOUS
 62
     3
 10
2925.234186
 20
156.623203
 11
2931.340432
 21
156.623203
  0
LINE
  8
CSLAYER1
  6
CONTINUOUS
 62
     3
 10
2846.435245
 20
155.023203
 11
2919.189596
 21
155.023203
  0
LINE
  8
CSLAYER1
  6
CONTINUOUS
 62
     3
 10
2931.135485
 20
155.023203
 11
2933.369207
 21
155.023203
  0
LINE
  8
CSLAYER1
  6
CONTINUOUS
 62
     3
 10
2845.373020
 20
153.423203
 11
2926.901452
 21
153.423203
  0
LINE
  8
CSLAYER1
  6
CONTINUOUS
 62
     3
 10
2847.048687
 20
151.823203
 11
2931.710761
 21
151.823203
  0
LINE
  8
CSLAYER1
  6
CONTINUOUS
 62
     3
 10
2848.216254
 20
150.223203
 11
2907.329633
 21
150.223203
  0
LINE
  8
CSLAYER1
  6
CONTINUOUS
 62
     3
 10
2922.829398
 20
150.223203
 11
2937.833721
 21
150.223203
  0
LINE
  8
CSLAYER1
  6
CONTINUOUS
 62
     3
 10
2848.461378
 20
148.623203
 11
2883.829633
 21
148.623203
  0
LINE
  8
CSLAYER1
  6
CONTINUOUS
 62
     3
 10
2930.398327
 20
148.623203
 11
2939.920930
 21
148.623203
  0
LINE
  8
CSLAYER1
  6
CONTINUOUS
 62
     3
 10
2848.667703
 20
147.023203
 11
2862.132876
 21
147.023203
  0
LINE
  8
CSLAYER1
  6
CONTINUOUS
 62
     3
 10
2937.858676
 20
147.023203
 11
2944.343694
 21
147.023203
  0
LINE
  8
CSLAYER1
  6
CONTINUOUS
 62
     3
 10
2945.921670
 20
145.423203
 11
2948.090524
 21
145.423203
  0
ENDBLK
  8
0
  0
BLOCK
  8
CSLAYER1
  2
BLKF0001
 70
   64
 10
0.0
 20
0.0
 30
0.0
  0
CIRCLE
  8
CSLAYER1
  6
CONTINUOUS
 62
     3
 10
1679.979163
 20
1080.614398
 40
8.500000
  0
LINE
  8
CSLAYER1
  6
CONTINUOUS
 62
     3
 10
1684.886640
 20
1089.114398
 11
1675.071686
 21
1089.114398
  0
LINE
  8
CSLAYER1
  6
CONTINUOUS
 62
     3
 10
1675.071686
 20
1089.114398
 11
1670.164208
 21
1080.614398
  0
LINE
  8
CSLAYER1
  6
CONTINUOUS
 62
     3
 10
1670.164208
 20
1080.614398
 11
1675.071686
 21
1072.114398
  0
LINE
  8
CSLAYER1
  6
CONTINUOUS
 62
     3
 10
1675.071686
 20
1072.114398
 11
1684.886640
 21
1072.114398
  0
LINE
  8
CSLAYER1
  6
CONTINUOUS
 62
     3
 10
1684.886640
 20
1072.114398
 11
1689.794117
 21
1080.614398
  0
LINE
  8
CSLAYER1
  6
CONTINUOUS
 62
     3
 10
1689.794117
 20
1080.614398
 11
1684.886640
 21
1089.114398
  0
CIRCLE
  8
CSLAYER1
  6
CONTINUOUS
 62
     4
 10
1679.979163
 20
1080.614398
 40
5.000000
  0
CIRCLE
  8
CSLAYER1
  6
CONTINUOUS
 62
     3
 10
1679.979163
 20
1080.614398
 40
4.300000
  0
POINT
  8
CSLAYER1
 62
     3
 10
1679.979163
 20
1080.614398
  0
ENDBLK
  8
0
  0
BLOCK
  8
CSLAYER1
  2
BLKF0002
 70
   64
 10
0.0
 20
0.0
 30
0.0
  0
POINT
  8
CSLAYER1
 62
     3
 10
1489.427078
 20
817.337161
  0
CIRCLE
  8
CSLAYER1
  6
CONTINUOUS
 62
     3
 10
1489.427078
 20
817.337161
 40
9.500000
  0
LINE
  8
CSLAYER1
  6
CONTINUOUS
 62
     3
 10
1498.927078
 20
822.821989
 11
1489.427078
 21
828.306816
  0
LINE
  8
CSLAYER1
  6
CONTINUOUS
 62
     3
 10
1489.427078
 20
828.306816
 11
1479.927078
 21
822.821989
  0
LINE
  8
CSLAYER1
  6
CONTINUOUS
 62
     3
 10
1479.927078
 20
822.821989
 11
1479.927078
 21
811.852334
  0
LINE
  8
CSLAYER1
  6
CONTINUOUS
 62
     3
 10
1479.927078
 20
811.852334
 11
1489.427078
 21
806.367506
  0
LINE
  8
CSLAYER1
  6
CONTINUOUS
 62
     3
 10
1489.427078
 20
806.367506
 11
1498.927078
 21
811.852334
  0
LINE
  8
CSLAYER1
  6
CONTINUOUS
 62
     3
 10
1498.927078
 20
811.852334
 11
1498.927078
 21
822.821989
  0
POINT
  8
CSLAYER1
 62
     3
 10
1489.427078
 20
817.337161
  0
ENDBLK
  8
0
  0
BLOCK
  8
CSLAYER1
  2
BLKF0003
 70
   64
 10
0.0
 20
0.0
 30
0.0
  0
LINE
  8
CSLAYER1
  6
CONTINUOUS
 62
     3
 10
1508.427078
 20
805.837161
 11
1508.427078
 21
839.837161
  0
LINE
  8
CSLAYER1
  6
CONTINUOUS
 62
     3
 10
1464.427078
 20
805.837161
 11
1514.427078
 21
805.837161
  0
LINE
  8
CSLAYER1
  6
CONTINUOUS
 62
     3
 10
1514.427078
 20
799.837161
 11
1514.427078
 21
805.837161
  0
ENDBLK
  8
0
  0
BLOCK
  8
CSLAYER1
  2
BLKF0004
 70
   64
 10
0.0
 20
0.0
 30
0.0
  0
TEXT
  8
CSLAYER1
 62
     7
 10
1253.931274
 20
1297.527466
 40
40.000000
 41
0.787500
  1
テーブルのズレ
 50
0.000000
 51
0.000000
  7
EASYDRAW_FONT
 72
     5
 11
1463.931274
 21
1297.527466
  0
DIMENSION
  8
CSLAYER1
 62
     3
  2
*D0010
 10
1489.404383
 20
1232.294407
 11
1381.437134
 21
1250.010132
 13
1467.127078
 23
864.637161
 14
1489.404383
 24
1379.815272
  0
INSERT
  8
CSLAYER1
  2
EASYDRAWDIM0003
 10
0.0
 20
0.0
 30
0.0
  0
LINE
  8
CSLAYER1
  6
CONTINUOUS
 62
     5
 10
1576.339345
 20
1023.268915
 11
1419.187769
 21
1115.390670
  0
LINE
  8
CSLAYER1
  6
CONTINUOUS
 62
     5
 10
1576.339345
 20
1023.268915
 11
1547.413522
 21
1031.224844
  0
LINE
  8
CSLAYER1
  6
CONTINUOUS
 62
     5
 10
1576.339345
 20
1023.268915
 11
1555.266812
 21
1044.621863
  0
ENDBLK
  8
0
  0
BLOCK
  8
CSLAYER1
  2
BLKF0005
 70
   64
 10
0.0
 20
0.0
 30
0.0
  0
TEXT
  8
CSLAYER1
 62
     7
 10
544.150574
 20
2331.109375
 40
40.000000
 41
0.778846
  1
電動式油圧ユニット
 50
0.000000
 51
0.000000
  7
EASYDRAW_FONT
 72
     5
 11
814.150574
 21
2331.109375
  0
LINE
  8
CSLAYER1
  6
CONTINUOUS
 62
     5
 10
266.445028
 20
2394.184439
 11
1111.376535
 21
2394.184439
  0
LINE
  8
CSLAYER1
  6
CONTINUOUS
 62
     5
 10
1111.376535
 20
2394.184439
 11
1111.376535
 21
1569.320592
  0
LINE
  8
CSLAYER1
  6
CONTINUOUS
 62
     5
 10
266.445028
 20
1569.320592
 11
266.445028
 21
2394.184439
  0
TEXT
  8
CSLAYER1
 62
     3
 10
427.689119
 20
2205.938284
 40
39.957333
 41
1.050000
  1
278
 50
30.000000
 51
0.000000
  7
EASYDRAW_FONT
 72
     5
 11
524.580502
 21
2261.878549
  0
TEXT
  8
CSLAYER1
 62
     3
 10
599.543186
 20
2246.047495
 40
39.957333
 41
1.050000
  1
415
 50
-30.000000
 51
0.000000
  7
EASYDRAW_FONT
 72
     5
 11
696.434568
 21
2190.107229
  0
TEXT
  8
CSLAYER1
 62
     3
 10
352.027464
 20
2049.998699
 40
39.957333
 41
1.050000
  1
275
 50
90.000000
 51
0.000000
  7
EASYDRAW_FONT
 72
     5
 11
352.027464
 21
2161.879230
  0
LINE
  8
CSLAYER1
  6
CONTINUOUS
 62
     5
 10
364.783223
 20
2158.887279
 11
408.736290
 21
2133.510964
  0
LINE
  8
CSLAYER1
  6
CONTINUOUS
 62
     5
 10
412.732023
 20
2186.570532
 11
412.732023
 21
2135.817902
  0
LINE
  8
CSLAYER1
  6
CONTINUOUS
 62
     5
 10
716.407756
 20
2172.728905
 11
716.407756
 21
2121.976275
  0
LINE
  8
CSLAYER1
  6
CONTINUOUS
 62
     5
 10
412.732023
 20
2177.342781
 11
552.582690
 21
2258.085601
  0
LINE
  8
CSLAYER1
  6
CONTINUOUS
 62
     5
 10
412.732023
 20
2177.342781
 11
433.945226
 21
2198.555984
  0
LINE
  8
CSLAYER1
  6
CONTINUOUS
 62
     5
 10
412.732023
 20
2177.342781
 11
441.709798
 21
2185.107352
  0
LINE
  8
CSLAYER1
  6
CONTINUOUS
 62
     5
 10
552.582690
 20
2258.085601
 11
531.369486
 21
2236.872397
  0
LINE
  8
CSLAYER1
  6
CONTINUOUS
 62
     5
 10
552.582690
 20
2258.085601
 11
523.604915
 21
2250.321029
  0
LINE
  8
CSLAYER1
  6
CONTINUOUS
 62
     5
 10
552.582690
 20
2258.085601
 11
716.407756
 21
2163.501154
  0
LINE
  8
CSLAYER1
  6
CONTINUOUS
 62
     5
 10
552.582690
 20
2258.085601
 11
581.560464
 21
2250.321029
  0
LINE
  8
CSLAYER1
  6
CONTINUOUS
 62
     5
 10
552.582690
 20
2258.085601
 11
573.795893
 21
2236.872397
  0
LINE
  8
CSLAYER1
  6
CONTINUOUS
 62
     5
 10
716.407756
 20
2163.501154
 11
687.429982
 21
2171.265726
  0
LINE
  8
CSLAYER1
  6
CONTINUOUS
 62
     5
 10
716.407756
 20
2163.501154
 11
695.194553
 21
2184.714358
  0
LINE
  8
CSLAYER1
  6
CONTINUOUS
 62
     5
 10
552.582690
 20
2267.313352
 11
552.582690
 21
2216.560722
  0
LINE
  8
CSLAYER1
  6
CONTINUOUS
 62
     5
 10
372.774690
 20
2154.273403
 11
372.774690
 21
2038.926518
  0
LINE
  8
CSLAYER1
  6
CONTINUOUS
 62
     5
 10
372.774690
 20
2154.273403
 11
365.010118
 21
2125.295629
  0
LINE
  8
CSLAYER1
  6
CONTINUOUS
 62
     5
 10
372.774690
 20
2154.273403
 11
380.539261
 21
2125.295629
  0
LINE
  8
CSLAYER1
  6
CONTINUOUS
 62
     5
 10
372.774690
 20
2038.926518
 11
365.010118
 21
2067.904293
  0
LINE
  8
CSLAYER1
  6
CONTINUOUS
 62
     5
 10
372.774690
 20
2038.926518
 11
380.539261
 21
2067.904293
  0
TEXT
  8
CSLAYER1
 62
     3
 10
853.483444
 20
2136.037447
 40
39.957333
 41
1.028571
  1
高圧ホース
 50
0.000000
 51
0.000000
  7
EASYDRAW_FONT
 72
     5
 11
1045.278641
 21
2136.037447
  0
TEXT
  8
CSLAYER1
 62
     3
 10
330.304276
 20
1889.787447
 40
39.957333
 41
1.028571
  1
電源コード
 50
0.000000
 51
0.000000
  7
EASYDRAW_FONT
 72
     5
 11
522.099472
 21
1889.787447
  0
LINE
  8
CSLAYER1
  6
CONTINUOUS
 62
     5
 10
753.121056
 20
1978.337543
 11
839.455780
 21
2127.873671
  0
LINE
  8
CSLAYER1
  6
CONTINUOUS
 62
     5
 10
753.121056
 20
1978.337543
 11
760.885628
 21
2007.315318
  0
LINE
  8
CSLAYER1
  6
CONTINUOUS
 62
     5
 10
753.121056
 20
1978.337543
 11
774.334260
 21
1999.550747
  0
LINE
  8
CSLAYER1
  6
CONTINUOUS
 62
     5
 10
1060.170245
 20
2127.873671
 11
839.455780
 21
2127.873671
  0
LINE
  8
CSLAYER1
  6
CONTINUOUS
 62
     5
 10
332.842132
 20
1882.356712
 11
526.584611
 21
1882.356712
  0
LINE
  8
CSLAYER1
  6
CONTINUOUS
 62
     3
 10
576.557090
 20
1921.272694
 11
617.713143
 21
1945.034153
  0
LINE
  8
CSLAYER1
  6
CONTINUOUS
 62
     3
 10
412.732023
 20
2015.857141
 11
422.721356
 21
2010.089796
  0
LINE
  8
CSLAYER1
  6
CONTINUOUS
 62
     3
 10
576.557090
 20
2036.619580
 11
576.557090
 21
1921.272694
  0
LINE
  8
CSLAYER1
  6
CONTINUOUS
 62
     3
 10
576.557090
 20
2036.619580
 11
716.407756
 21
2117.362400
  0
LINE
  8
CSLAYER1
  6
CONTINUOUS
 62
     3
 10
552.582690
 20
2211.946846
 11
716.407756
 21
2117.362400
  0
LINE
  8
CSLAYER1
  6
CONTINUOUS
 62
     3
 10
576.557090
 20
1944.342071
 11
597.734476
 21
1956.568841
  0
LINE
  8
CSLAYER1
  6
CONTINUOUS
 62
     3
 10
674.819342
 20
2049.095974
 11
716.407756
 21
2025.084891
  0
LINE
  8
CSLAYER1
  6
CONTINUOUS
 62
     3
 10
566.567756
 20
1927.040039
 11
576.557090
 21
1921.272694
  0
LINE
  8
CSLAYER1
  6
CONTINUOUS
 62
     3
 10
672.454690
 20
2050.922594
 11
671.009971
 21
2051.616245
  0
LINE
  8
CSLAYER1
  6
CONTINUOUS
 62
     3
 10
671.009971
 20
2051.616245
 11
669.454607
 21
2052.093931
  0
LINE
  8
CSLAYER1
  6
CONTINUOUS
 62
     3
 10
669.454607
 20
2052.093931
 11
667.800436
 21
2052.352016
  0
LINE
  8
CSLAYER1
  6
CONTINUOUS
 62
     3
 10
667.800436
 20
2052.352016
 11
666.060047
 21
2052.388536
  0
LINE
  8
CSLAYER1
  6
CONTINUOUS
 62
     3
 10
666.060047
 20
2052.388536
 11
664.246685
 21
2052.203214
  0
LINE
  8
CSLAYER1
  6
CONTINUOUS
 62
     3
 10
664.246685
 20
2052.203214
 11
662.374152
 21
2051.797458
  0
LINE
  8
CSLAYER1
  6
CONTINUOUS
 62
     3
 10
662.374152
 20
2051.797458
 11
660.456698
 21
2051.174358
  0
LINE
  8
CSLAYER1
  6
CONTINUOUS
 62
     3
 10
660.456698
 20
2051.174358
 11
658.508915
 21
2050.338656
  0
LINE
  8
CSLAYER1
  6
CONTINUOUS
 62
     3
 10
658.508915
 20
2050.338656
 11
656.545629
 21
2049.296712
  0
LINE
  8
CSLAYER1
  6
CONTINUOUS
 62
     3
 10
656.545629
 20
2049.296712
 11
654.581781
 21
2048.056455
  0
LINE
  8
CSLAYER1
  6
CONTINUOUS
 62
     3
 10
654.581781
 20
2048.056455
 11
652.632316
 21
2046.627325
  0
LINE
  8
CSLAYER1
  6
CONTINUOUS
 62
     3
 10
652.632316
 20
2046.627325
 11
650.712072
 21
2045.020198
  0
LINE
  8
CSLAYER1
  6
CONTINUOUS
 62
     3
 10
650.712072
 20
2045.020198
 11
648.835663
 21
2043.247306
  0
LINE
  8
CSLAYER1
  6
CONTINUOUS
 62
     3
 10
648.835663
 20
2043.247306
 11
647.017368
 21
2041.322141
  0
LINE
  8
CSLAYER1
  6
CONTINUOUS
 62
     3
 10
647.017368
 20
2041.322141
 11
645.271028
 21
2039.259355
  0
LINE
  8
CSLAYER1
  6
CONTINUOUS
 62
     3
 10
645.271028
 20
2039.259355
 11
643.609932
 21
2037.074648
  0
LINE
  8
CSLAYER1
  6
CONTINUOUS
 62
     3
 10
643.609932
 20
2037.074648
 11
642.046722
 21
2034.784645
  0
LINE
  8
CSLAYER1
  6
CONTINUOUS
 62
     3
 10
642.046722
 20
2034.784645
 11
640.593295
 21
2032.406775
  0
LINE
  8
CSLAYER1
  6
CONTINUOUS
 62
     3
 10
640.593295
 20
2032.406775
 11
639.260713
 21
2029.959136
  0
LINE
  8
CSLAYER1
  6
CONTINUOUS
 62
     3
 10
639.260713
 20
2029.959136
 11
638.059117
 21
2027.460355
  0
LINE
  8
CSLAYER1
  6
CONTINUOUS
 62
     3
 10
638.059117
 20
2027.460355
 11
636.997653
 21
2024.929449
  0
LINE
  8
CSLAYER1
  6
CONTINUOUS
 62
     3
 10
636.997653
 20
2024.929449
 11
636.084398
 21
2022.385681
  0
LINE
  8
CSLAYER1
  6
CONTINUOUS
 62
     3
 10
636.084398
 20
2022.385681
 11
635.326304
 21
2019.848410
  0
LINE
  8
CSLAYER1
  6
CONTINUOUS
 62
     3
 10
635.326304
 20
2019.848410
 11
634.729139
 21
2017.336946
  0
LINE
  8
CSLAYER1
  6
CONTINUOUS
 62
     3
 10
634.729139
 20
2017.336946
 11
634.297448
 21
2014.870402
  0
LINE
  8
CSLAYER1
  6
CONTINUOUS
 62
     3
 10
634.297448
 20
2014.870402
 11
634.034518
 21
2012.467551
  0
LINE
  8
CSLAYER1
  6
CONTINUOUS
 62
     3
 10
634.034518
 20
2012.467551
 11
633.942348
 21
2010.146680
  0
LINE
  8
CSLAYER1
  6
CONTINUOUS
 62
     3
 10
633.942348
 20
2010.146680
 11
634.021641
 21
2007.925452
  0
LINE
  8
CSLAYER1
  6
CONTINUOUS
 62
     3
 10
634.021641
 20
2007.925452
 11
634.271793
 21
2005.820772
  0
LINE
  8
CSLAYER1
  6
CONTINUOUS
 62
     3
 10
634.271793
 20
2005.820772
 11
634.690899
 21
2003.848658
  0
LINE
  8
CSLAYER1
  6
CONTINUOUS
 62
     3
 10
634.690899
 20
2003.848658
 11
635.275772
 21
2002.024119
  0
LINE
  8
CSLAYER1
  6
CONTINUOUS
 62
     3
 10
635.275772
 20
2002.024119
 11
636.021958
 21
2000.361040
  0
LINE
  8
CSLAYER1
  6
CONTINUOUS
 62
     3
 10
636.021958
 20
2000.361040
 11
636.923780
 21
1998.872079
  0
LINE
  8
CSLAYER1
  6
CONTINUOUS
 62
     3
 10
636.923780
 20
1998.872079
 11
637.974374
 21
1997.568568
  0
LINE
  8
CSLAYER1
  6
CONTINUOUS
 62
     3
 10
639.165744
 20
1996.460426
 11
640.488823
 21
1995.556089
  0
LINE
  8
CSLAYER1
  6
CONTINUOUS
 62
     3
 10
640.488823
 20
1995.556089
 11
641.933542
 21
1994.862437
  0
LINE
  8
CSLAYER1
  6
CONTINUOUS
 62
     3
 10
641.933542
 20
1994.862437
 11
643.488906
 21
1994.384751
  0
LINE
  8
CSLAYER1
  6
CONTINUOUS
 62
     3
 10
643.488906
 20
1994.384751
 11
645.143076
 21
1994.126666
  0
LINE
  8
CSLAYER1
  6
CONTINUOUS
 62
     3
 10
645.143076
 20
1994.126666
 11
646.883465
 21
1994.090146
  0
LINE
  8
CSLAYER1
  6
CONTINUOUS
 62
     3
 10
646.883465
 20
1994.090146
 11
648.696827
 21
1994.275469
  0
LINE
  8
CSLAYER1
  6
CONTINUOUS
 62
     3
 10
648.696827
 20
1994.275469
 11
650.569361
 21
1994.681224
  0
LINE
  8
CSLAYER1
  6
CONTINUOUS
 62
     3
 10
650.569361
 20
1994.681224
 11
652.486815
 21
1995.304324
  0
LINE
  8
CSLAYER1
  6
CONTINUOUS
 62
     3
 10
652.486815
 20
1995.304324
 11
654.434597
 21
1996.140026
  0
LINE
  8
CSLAYER1
  6
CONTINUOUS
 62
     3
 10
654.434597
 20
1996.140026
 11
656.397883
 21
1997.181971
  0
LINE
  8
CSLAYER1
  6
CONTINUOUS
 62
     3
 10
656.397883
 20
1997.181971
 11
658.361732
 21
1998.422228
  0
LINE
  8
CSLAYER1
  6
CONTINUOUS
 62
     3
 10
658.361732
 20
1998.422228
 11
660.311196
 21
1999.851358
  0
LINE
  8
CSLAYER1
  6
CONTINUOUS
 62
     3
 10
660.311196
 20
1999.851358
 11
662.231441
 21
2001.458484
  0
LINE
  8
CSLAYER1
  6
CONTINUOUS
 62
     3
 10
662.231441
 20
2001.458484
 11
664.107850
 21
2003.231376
  0
LINE
  8
CSLAYER1
  6
CONTINUOUS
 62
     3
 10
664.107850
 20
2003.231376
 11
665.926144
 21
2005.156541
  0
LINE
  8
CSLAYER1
  6
CONTINUOUS
 62
     3
 10
665.926144
 20
2005.156541
 11
667.672485
 21
2007.219327
  0
LINE
  8
CSLAYER1
  6
CONTINUOUS
 62
     3
 10
667.672485
 20
2007.219327
 11
669.333581
 21
2009.404035
  0
LINE
  8
CSLAYER1
  6
CONTINUOUS
 62
     3
 10
669.333581
 20
2009.404035
 11
670.896791
 21
2011.694038
  0
LINE
  8
CSLAYER1
  6
CONTINUOUS
 62
     3
 10
670.896791
 20
2011.694038
 11
672.350218
 21
2014.071907
  0
LINE
  8
CSLAYER1
  6
CONTINUOUS
 62
     3
 10
672.350218
 20
2014.071907
 11
673.682800
 21
2016.519547
  0
LINE
  8
CSLAYER1
  6
CONTINUOUS
 62
     3
 10
673.682800
 20
2016.519547
 11
674.884395
 21
2019.018328
  0
LINE
  8
CSLAYER1
  6
CONTINUOUS
 62
     3
 10
674.884395
 20
2019.018328
 11
675.945860
 21
2021.549233
  0
LINE
  8
CSLAYER1
  6
CONTINUOUS
 62
     3
 10
675.945860
 20
2021.549233
 11
676.859114
 21
2024.093001
  0
LINE
  8
CSLAYER1
  6
CONTINUOUS
 62
     3
 10
676.859114
 20
2024.093001
 11
677.617209
 21
2026.630273
  0
LINE
  8
CSLAYER1
  6
CONTINUOUS
 62
     3
 10
677.617209
 20
2026.630273
 11
678.214374
 21
2029.141737
  0
LINE
  8
CSLAYER1
  6
CONTINUOUS
 62
     3
 10
678.214374
 20
2029.141737
 11
678.646064
 21
2031.608280
  0
LINE
  8
CSLAYER1
  6
CONTINUOUS
 62
     3
 10
678.646064
 20
2031.608280
 11
678.908995
 21
2034.011131
  0
LINE
  8
CSLAYER1
  6
CONTINUOUS
 62
     3
 10
678.908995
 20
2034.011131
 11
679.001165
 21
2036.332002
  0
LINE
  8
CSLAYER1
  6
CONTINUOUS
 62
     3
 10
679.001165
 20
2036.332002
 11
678.921872
 21
2038.553230
  0
LINE
  8
CSLAYER1
  6
CONTINUOUS
 62
     3
 10
678.921872
 20
2038.553230
 11
678.671720
 21
2040.657910
  0
LINE
  8
CSLAYER1
  6
CONTINUOUS
 62
     3
 10
678.671720
 20
2040.657910
 11
678.252613
 21
2042.630024
  0
LINE
  8
CSLAYER1
  6
CONTINUOUS
 62
     3
 10
678.252613
 20
2042.630024
 11
677.667741
 21
2044.454564
  0
LINE
  8
CSLAYER1
  6
CONTINUOUS
 62
     3
 10
677.667741
 20
2044.454564
 11
676.921554
 21
2046.117642
  0
LINE
  8
CSLAYER1
  6
CONTINUOUS
 62
     3
 10
676.921554
 20
2046.117642
 11
676.019733
 21
2047.606603
  0
LINE
  8
CSLAYER1
  6
CONTINUOUS
 62
     3
 10
676.019733
 20
2047.606603
 11
674.969139
 21
2048.910115
  0
LINE
  8
CSLAYER1
  6
CONTINUOUS
 62
     3
 10
674.969139
 20
2048.910115
 11
673.777769
 21
2050.018256
  0
LINE
  8
CSLAYER1
  6
CONTINUOUS
 62
     3
 10
673.777769
 20
2050.018256
 11
672.454690
 21
2050.922594
  0
LINE
  8
CSLAYER1
  6
CONTINUOUS
 62
     3
 10
576.557090
 20
2032.467092
 11
640.488823
 21
1995.556089
  0
LINE
  8
CSLAYER1
  6
CONTINUOUS
 62
     3
 10
636.892663
 20
2071.454340
 11
672.454690
 21
2050.922594
  0
LINE
  8
CSLAYER1
  6
CONTINUOUS
 62
     3
 10
422.721356
 20
2010.089796
 11
442.700023
 21
2021.624485
  0
LINE
  8
CSLAYER1
  6
CONTINUOUS
 62
     3
 10
412.732023
 20
2015.857141
 11
432.710690
 21
2027.391829
  0
LINE
  8
CSLAYER1
  6
CONTINUOUS
 62
     3
 10
662.465356
 20
2033.620561
 11
661.923587
 21
2033.880680
  0
LINE
  8
CSLAYER1
  6
CONTINUOUS
 62
     3
 10
661.923587
 20
2033.880680
 11
661.340325
 21
2034.059812
  0
LINE
  8
CSLAYER1
  6
CONTINUOUS
 62
     3
 10
661.340325
 20
2034.059812
 11
660.720011
 21
2034.156594
  0
LINE
  8
CSLAYER1
  6
CONTINUOUS
 62
     3
 10
660.720011
 20
2034.156594
 11
660.067365
 21
2034.170289
  0
LINE
  8
CSLAYER1
  6
CONTINUOUS
 62
     3
 10
660.067365
 20
2034.170289
 11
659.387355
 21
2034.100793
  0
LINE
  8
CSLAYER1
  6
CONTINUOUS
 62
     3
 10
659.387355
 20
2034.100793
 11
658.685155
 21
2033.948635
  0
LINE
  8
CSLAYER1
  6
CONTINUOUS
 62
     3
 10
658.685155
 20
2033.948635
 11
657.966109
 21
2033.714973
  0
LINE
  8
CSLAYER1
  6
CONTINUOUS
 62
     3
 10
657.966109
 20
2033.714973
 11
657.235691
 21
2033.401584
  0
LINE
  8
CSLAYER1
  6
CONTINUOUS
 62
     3
 10
657.235691
 20
2033.401584
 11
656.499459
 21
2033.010855
  0
LINE
  8
CSLAYER1
  6
CONTINUOUS
 62
     3
 10
656.499459
 20
2033.010855
 11
655.763015
 21
2032.545759
  0
LINE
  8
CSLAYER1
  6
CONTINUOUS
 62
     3
 10
655.763015
 20
2032.545759
 11
655.031966
 21
2032.009835
  0
LINE
  8
CSLAYER1
  6
CONTINUOUS
 62
     3
 10
655.031966
 20
2032.009835
 11
654.311875
 21
2031.407163
  0
LINE
  8
CSLAYER1
  6
CONTINUOUS
 62
     3
 10
654.311875
 20
2031.407163
 11
653.608221
 21
2030.742328
  0
LINE
  8
CSLAYER1
  6
CONTINUOUS
 62
     3
 10
653.608221
 20
2030.742328
 11
652.926361
 21
2030.020391
  0
LINE
  8
CSLAYER1
  6
CONTINUOUS
 62
     3
 10
652.926361
 20
2030.020391
 11
652.271483
 21
2029.246847
  0
LINE
  8
CSLAYER1
  6
CONTINUOUS
 62
     3
 10
652.271483
 20
2029.246847
 11
651.648572
 21
2028.427581
  0
LINE
  8
CSLAYER1
  6
CONTINUOUS
 62
     3
 10
651.648572
 20
2028.427581
 11
651.062368
 21
2027.568830
  0
LINE
  8
CSLAYER1
  6
CONTINUOUS
 62
     3
 10
651.062368
 20
2027.568830
 11
650.517333
 21
2026.677129
  0
LINE
  8
CSLAYER1
  6
CONTINUOUS
 62
     3
 10
650.517333
 20
2026.677129
 11
650.017615
 21
2025.759264
  0
LINE
  8
CSLAYER1
  6
CONTINUOUS
 62
     3
 10
650.017615
 20
2025.759264
 11
649.567017
 21
2024.822221
  0
LINE
  8
CSLAYER1
  6
CONTINUOUS
 62
     3
 10
649.567017
 20
2024.822221
 11
649.168968
 21
2023.873132
  0
LINE
  8
CSLAYER1
  6
CONTINUOUS
 62
     3
 10
649.168968
 20
2023.873132
 11
648.826497
 21
2022.919219
  0
LINE
  8
CSLAYER1
  6
CONTINUOUS
 62
     3
 10
648.826497
 20
2022.919219
 11
648.542212
 21
2021.967742
  0
LINE
  8
CSLAYER1
  6
CONTINUOUS
 62
     3
 10
648.542212
 20
2021.967742
 11
648.318275
 21
2021.025943
  0
LINE
  8
CSLAYER1
  6
CONTINUOUS
 62
     3
 10
648.318275
 20
2021.025943
 11
648.156391
 21
2020.100989
  0
LINE
  8
CSLAYER1
  6
CONTINUOUS
 62
     3
 10
648.156391
 20
2020.100989
 11
648.057792
 21
2019.199920
  0
LINE
  8
CSLAYER1
  6
CONTINUOUS
 62
     3
 10
648.057792
 20
2019.199920
 11
648.023228
 21
2018.329593
  0
LINE
  8
CSLAYER1
  6
CONTINUOUS
 62
     3
 10
648.023228
 20
2018.329593
 11
648.052963
 21
2017.496633
  0
LINE
  8
CSLAYER1
  6
CONTINUOUS
 62
     3
 10
648.052963
 20
2017.496633
 11
648.146770
 21
2016.707378
  0
LINE
  8
CSLAYER1
  6
CONTINUOUS
 62
     3
 10
648.146770
 20
2016.707378
 11
648.303935
 21
2015.967835
  0
LINE
  8
CSLAYER1
  6
CONTINUOUS
 62
     3
 10
648.303935
 20
2015.967835
 11
648.523262
 21
2015.283633
  0
LINE
  8
CSLAYER1
  6
CONTINUOUS
 62
     3
 10
648.523262
 20
2015.283633
 11
648.803082
 21
2014.659978
  0
LINE
  8
CSLAYER1
  6
CONTINUOUS
 62
     3
 10
648.803082
 20
2014.659978
 11
649.141265
 21
2014.101618
  0
LINE
  8
CSLAYER1
  6
CONTINUOUS
 62
     3
 10
649.141265
 20
2014.101618
 11
649.535238
 21
2013.612801
  0
LINE
  8
CSLAYER1
  6
CONTINUOUS
 62
     3
 10
649.535238
 20
2013.612801
 11
649.982002
 21
2013.197248
  0
LINE
  8
CSLAYER1
  6
CONTINUOUS
 62
     3
 10
649.982002
 20
2013.197248
 11
650.478156
 21
2012.858122
  0
LINE
  8
CSLAYER1
  6
CONTINUOUS
 62
     3
 10
650.478156
 20
2012.858122
 11
651.019926
 21
2012.598002
  0
LINE
  8
CSLAYER1
  6
CONTINUOUS
 62
     3
 10
651.019926
 20
2012.598002
 11
651.603187
 21
2012.418870
  0
LINE
  8
CSLAYER1
  6
CONTINUOUS
 62
     3
 10
651.603187
 20
2012.418870
 11
652.223501
 21
2012.322088
  0
LINE
  8
CSLAYER1
  6
CONTINUOUS
 62
     3
 10
652.223501
 20
2012.322088
 11
652.876147
 21
2012.308393
  0
LINE
  8
CSLAYER1
  6
CONTINUOUS
 62
     3
 10
652.876147
 20
2012.308393
 11
653.556158
 21
2012.377889
  0
LINE
  8
CSLAYER1
  6
CONTINUOUS
 62
     3
 10
653.556158
 20
2012.377889
 11
654.258358
 21
2012.530047
  0
LINE
  8
CSLAYER1
  6
CONTINUOUS
 62
     3
 10
654.258358
 20
2012.530047
 11
654.977403
 21
2012.763710
  0
LINE
  8
CSLAYER1
  6
CONTINUOUS
 62
     3
 10
654.977403
 20
2012.763710
 11
655.707822
 21
2013.077098
  0
LINE
  8
CSLAYER1
  6
CONTINUOUS
 62
     3
 10
655.707822
 20
2013.077098
 11
656.444054
 21
2013.467827
  0
LINE
  8
CSLAYER1
  6
CONTINUOUS
 62
     3
 10
656.444054
 20
2013.467827
 11
657.180497
 21
2013.932924
  0
LINE
  8
CSLAYER1
  6
CONTINUOUS
 62
     3
 10
657.180497
 20
2013.932924
 11
657.911546
 21
2014.468847
  0
LINE
  8
CSLAYER1
  6
CONTINUOUS
 62
     3
 10
657.911546
 20
2014.468847
 11
658.631638
 21
2015.071520
  0
LINE
  8
CSLAYER1
  6
CONTINUOUS
 62
     3
 10
658.631638
 20
2015.071520
 11
659.335291
 21
2015.736354
  0
LINE
  8
CSLAYER1
  6
CONTINUOUS
 62
     3
 10
659.335291
 20
2015.736354
 11
660.017152
 21
2016.458291
  0
LINE
  8
CSLAYER1
  6
CONTINUOUS
 62
     3
 10
660.017152
 20
2016.458291
 11
660.672029
 21
2017.231836
  0
LINE
  8
CSLAYER1
  6
CONTINUOUS
 62
     3
 10
660.672029
 20
2017.231836
 11
661.294941
 21
2018.051101
  0
LINE
  8
CSLAYER1
  6
CONTINUOUS
 62
     3
 10
661.294941
 20
2018.051101
 11
661.881144
 21
2018.909852
  0
LINE
  8
CSLAYER1
  6
CONTINUOUS
 62
     3
 10
661.881144
 20
2018.909852
 11
662.426179
 21
2019.801554
  0
LINE
  8
CSLAYER1
  6
CONTINUOUS
 62
     3
 10
662.426179
 20
2019.801554
 11
662.925898
 21
2020.719418
  0
LINE
  8
CSLAYER1
  6
CONTINUOUS
 62
     3
 10
662.925898
 20
2020.719418
 11
663.376496
 21
2021.656461
  0
LINE
  8
CSLAYER1
  6
CONTINUOUS
 62
     3
 10
663.376496
 20
2021.656461
 11
663.774545
 21
2022.605551
  0
LINE
  8
CSLAYER1
  6
CONTINUOUS
 62
     3
 10
663.774545
 20
2022.605551
 11
664.117016
 21
2023.559464
  0
LINE
  8
CSLAYER1
  6
CONTINUOUS
 62
     3
 10
664.117016
 20
2023.559464
 11
664.401301
 21
2024.510940
  0
LINE
  8
CSLAYER1
  6
CONTINUOUS
 62
     3
 10
664.401301
 20
2024.510940
 11
664.625238
 21
2025.452740
  0
LINE
  8
CSLAYER1
  6
CONTINUOUS
 62
     3
 10
664.625238
 20
2025.452740
 11
664.787122
 21
2026.377693
  0
LINE
  8
CSLAYER1
  6
CONTINUOUS
 62
     3
 10
664.787122
 20
2026.377693
 11
664.885721
 21
2027.278762
  0
LINE
  8
CSLAYER1
  6
CONTINUOUS
 62
     3
 10
664.885721
 20
2027.278762
 11
664.920284
 21
2028.149089
  0
LINE
  8
CSLAYER1
  6
CONTINUOUS
 62
     3
 10
664.920284
 20
2028.149089
 11
664.890550
 21
2028.982050
  0
LINE
  8
CSLAYER1
  6
CONTINUOUS
 62
     3
 10
664.890550
 20
2028.982050
 11
664.796743
 21
2029.771305
  0
LINE
  8
CSLAYER1
  6
CONTINUOUS
 62
     3
 10
664.796743
 20
2029.771305
 11
664.639578
 21
2030.510847
  0
LINE
  8
CSLAYER1
  6
CONTINUOUS
 62
     3
 10
664.639578
 20
2030.510847
 11
664.420251
 21
2031.195050
  0
LINE
  8
CSLAYER1
  6
CONTINUOUS
 62
     3
 10
664.420251
 20
2031.195050
 11
664.140431
 21
2031.818704
  0
LINE
  8
CSLAYER1
  6
CONTINUOUS
 62
     3
 10
664.140431
 20
2031.818704
 11
663.802247
 21
2032.377065
  0
LINE
  8
CSLAYER1
  6
CONTINUOUS
 62
     3
 10
663.802247
 20
2032.377065
 11
663.408275
 21
2032.865881
  0
LINE
  8
CSLAYER1
  6
CONTINUOUS
 62
     3
 10
663.408275
 20
2032.865881
 11
662.961511
 21
2033.281434
  0
LINE
  8
CSLAYER1
  6
CONTINUOUS
 62
     3
 10
662.961511
 20
2033.281434
 11
662.465356
 21
2033.620561
  0
LINE
  8
CSLAYER1
  6
CONTINUOUS
 62
     3
 10
650.478156
 20
2079.297928
 11
716.407756
 21
2041.233455
  0
LINE
  8
CSLAYER1
  6
CONTINUOUS
 62
     3
 10
566.567756
 20
1927.040039
 11
576.557090
 21
1932.807383
  0
LINE
  8
CSLAYER1
  6
CONTINUOUS
 62
     3
 10
673.688063
 20
2016.529215
 11
974.801679
 21
1842.681187
  0
LINE
  8
CSLAYER1
  6
CONTINUOUS
 62
     3
 10
576.557090
 20
1974.332262
 11
751.536264
 21
1873.307988
  0
LINE
  8
CSLAYER1
  6
CONTINUOUS
 62
     3
 10
576.557090
 20
1968.795611
 11
725.345355
 21
1882.892666
  0
LINE
  8
CSLAYER1
  6
CONTINUOUS
 62
     3
 10
602.529356
 20
1959.337167
 11
682.638476
 21
2005.588189
  0
LINE
  8
CSLAYER1
  6
CONTINUOUS
 62
     3
 10
622.508023
 20
1947.802478
 11
702.617143
 21
1994.053500
  0
LINE
  8
CSLAYER1
  6
CONTINUOUS
 62
     3
 10
687.638476
 20
2008.474940
 11
716.407756
 21
2025.084891
  0
LINE
  8
CSLAYER1
  6
CONTINUOUS
 62
     3
 10
707.617143
 20
1996.940251
 11
716.407756
 21
2002.015514
  0
LINE
  8
CSLAYER1
  6
CONTINUOUS
 62
     3
 10
766.720051
 20
1842.856410
 11
766.461566
 21
1846.252137
  0
LINE
  8
CSLAYER1
  6
CONTINUOUS
 62
     3
 10
766.461566
 20
1846.252137
 11
765.688080
 21
1849.622020
  0
LINE
  8
CSLAYER1
  6
CONTINUOUS
 62
     3
 10
765.688080
 20
1849.622020
 11
764.405478
 21
1852.940413
  0
LINE
  8
CSLAYER1
  6
CONTINUOUS
 62
     3
 10
764.405478
 20
1852.940413
 11
762.623523
 21
1856.182060
  0
LINE
  8
CSLAYER1
  6
CONTINUOUS
 62
     3
 10
762.623523
 20
1856.182060
 11
760.355776
 21
1859.322292
  0
LINE
  8
CSLAYER1
  6
CONTINUOUS
 62
     3
 10
760.355776
 20
1859.322292
 11
757.619496
 21
1862.337207
  0
LINE
  8
CSLAYER1
  6
CONTINUOUS
 62
     3
 10
757.619496
 20
1862.337207
 11
754.435507
 21
1865.203863
  0
LINE
  8
CSLAYER1
  6
CONTINUOUS
 62
     3
 10
754.435507
 20
1865.203863
 11
750.828042
 21
1867.900440
  0
LINE
  8
CSLAYER1
  6
CONTINUOUS
 62
     3
 10
750.828042
 20
1867.900440
 11
746.824556
 21
1870.406418
  0
LINE
  8
CSLAYER1
  6
CONTINUOUS
 62
     3
 10
746.824556
 20
1870.406418
 11
742.455518
 21
1872.702723
  0
LINE
  8
CSLAYER1
  6
CONTINUOUS
 62
     3
 10
742.455518
 20
1872.702723
 11
737.754178
 21
1874.771880
  0
LINE
  8
CSLAYER1
  6
CONTINUOUS
 62
     3
 10
737.754178
 20
1874.771880
 11
732.756317
 21
1876.598141
  0
LINE
  8
CSLAYER1
  6
CONTINUOUS
 62
     3
 10
732.756317
 20
1876.598141
 11
727.499972
 21
1878.167607
  0
LINE
  8
CSLAYER1
  6
CONTINUOUS
 62
     3
 10
727.499972
 20
1878.167607
 11
722.025146
 21
1879.468333
  0
LINE
  8
CSLAYER1
  6
CONTINUOUS
 62
     3
 10
722.025146
 20
1879.468333
 11
716.373506
 21
1880.490420
  0
LINE
  8
CSLAYER1
  6
CONTINUOUS
 62
     3
 10
716.373506
 20
1880.490420
 11
710.588065
 21
1881.226090
  0
LINE
  8
CSLAYER1
  6
CONTINUOUS
 62
     3
 10
710.588065
 20
1881.226090
 11
704.712853
 21
1881.669744
  0
LINE
  8
CSLAYER1
  6
CONTINUOUS
 62
     3
 10
704.712853
 20
1881.669744
 11
698.792584
 21
1881.818005
  0
LINE
  8
CSLAYER1
  6
CONTINUOUS
 62
     3
 10
698.792584
 20
1881.818005
 11
692.872315
 21
1881.669744
  0
LINE
  8
CSLAYER1
  6
CONTINUOUS
 62
     3
 10
692.872315
 20
1881.669744
 11
686.997103
 21
1881.226090
  0
LINE
  8
CSLAYER1
  6
CONTINUOUS
 62
     3
 10
686.997103
 20
1881.226090
 11
681.211662
 21
1880.490420
  0
LINE
  8
CSLAYER1
  6
CONTINUOUS
 62
     3
 10
681.211662
 20
1880.490420
 11
675.560022
 21
1879.468333
  0
LINE
  8
CSLAYER1
  6
CONTINUOUS
 62
     3
 10
675.560022
 20
1879.468333
 11
670.085196
 21
1878.167607
  0
LINE
  8
CSLAYER1
  6
CONTINUOUS
 62
     3
 10
670.085196
 20
1878.167607
 11
664.828851
 21
1876.598141
  0
LINE
  8
CSLAYER1
  6
CONTINUOUS
 62
     3
 10
664.828851
 20
1876.598141
 11
659.830990
 21
1874.771880
  0
LINE
  8
CSLAYER1
  6
CONTINUOUS
 62
     3
 10
659.830990
 20
1874.771880
 11
655.129650
 21
1872.702723
  0
LINE
  8
CSLAYER1
  6
CONTINUOUS
 62
     3
 10
655.129650
 20
1872.702723
 11
650.760612
 21
1870.406418
  0
LINE
  8
CSLAYER1
  6
CONTINUOUS
 62
     3
 10
650.760612
 20
1870.406418
 11
646.757126
 21
1867.900440
  0
LINE
  8
CSLAYER1
  6
CONTINUOUS
 62
     3
 10
646.757126
 20
1867.900440
 11
643.149661
 21
1865.203863
  0
LINE
  8
CSLAYER1
  6
CONTINUOUS
 62
     3
 10
643.149661
 20
1865.203863
 11
639.965672
 21
1862.337207
  0
LINE
  8
CSLAYER1
  6
CONTINUOUS
 62
     3
 10
639.965672
 20
1862.337207
 11
637.229392
 21
1859.322292
  0
LINE
  8
CSLAYER1
  6
CONTINUOUS
 62
     3
 10
637.229392
 20
1859.322292
 11
634.961645
 21
1856.182060
  0
LINE
  8
CSLAYER1
  6
CONTINUOUS
 62
     3
 10
634.961645
 20
1856.182060
 11
633.179690
 21
1852.940413
  0
LINE
  8
CSLAYER1
  6
CONTINUOUS
 62
     3
 10
633.179690
 20
1852.940413
 11
631.897088
 21
1849.622020
  0
LINE
  8
CSLAYER1
  6
CONTINUOUS
 62
     3
 10
631.897088
 20
1849.622020
 11
631.123602
 21
1846.252137
  0
LINE
  8
CSLAYER1
  6
CONTINUOUS
 62
     3
 10
631.123602
 20
1846.252137
 11
630.865117
 21
1842.856410
  0
LINE
  8
CSLAYER1
  6
CONTINUOUS
 62
     3
 10
630.865117
 20
1842.856410
 11
631.123602
 21
1839.460684
  0
LINE
  8
CSLAYER1
  6
CONTINUOUS
 62
     3
 10
631.123602
 20
1839.460684
 11
631.897088
 21
1836.090801
  0
LINE
  8
CSLAYER1
  6
CONTINUOUS
 62
     3
 10
631.897088
 20
1836.090801
 11
633.179690
 21
1832.772408
  0
LINE
  8
CSLAYER1
  6
CONTINUOUS
 62
     3
 10
633.179690
 20
1832.772408
 11
634.961645
 21
1829.530760
  0
LINE
  8
CSLAYER1
  6
CONTINUOUS
 62
     3
 10
634.961645
 20
1829.530760
 11
637.229392
 21
1826.390529
  0
LINE
  8
CSLAYER1
  6
CONTINUOUS
 62
     3
 10
637.229392
 20
1826.390529
 11
639.965672
 21
1823.375613
  0
LINE
  8
CSLAYER1
  6
CONTINUOUS
 62
     3
 10
639.965672
 20
1823.375613
 11
643.149661
 21
1820.508958
  0
LINE
  8
CSLAYER1
  6
CONTINUOUS
 62
     3
 10
643.149661
 20
1820.508958
 11
646.757126
 21
1817.812380
  0
LINE
  8
CSLAYER1
  6
CONTINUOUS
 62
     3
 10
646.757126
 20
1817.812380
 11
650.760612
 21
1815.306403
  0
LINE
  8
CSLAYER1
  6
CONTINUOUS
 62
     3
 10
650.760612
 20
1815.306403
 11
655.129650
 21
1813.010098
  0
LINE
  8
CSLAYER1
  6
CONTINUOUS
 62
     3
 10
655.129650
 20
1813.010098
 11
659.830990
 21
1810.940941
  0
LINE
  8
CSLAYER1
  6
CONTINUOUS
 62
     3
 10
659.830990
 20
1810.940941
 11
664.828851
 21
1809.114680
  0
LINE
  8
CSLAYER1
  6
CONTINUOUS
 62
     3
 10
664.828851
 20
1809.114680
 11
670.085196
 21
1807.545214
  0
LINE
  8
CSLAYER1
  6
CONTINUOUS
 62
     3
 10
670.085196
 20
1807.545214
 11
675.560022
 21
1806.244488
  0
LINE
  8
CSLAYER1
  6
CONTINUOUS
 62
     3
 10
675.560022
 20
1806.244488
 11
681.211662
 21
1805.222400
  0
LINE
  8
CSLAYER1
  6
CONTINUOUS
 62
     3
 10
681.211662
 20
1805.222400
 11
686.997103
 21
1804.486730
  0
LINE
  8
CSLAYER1
  6
CONTINUOUS
 62
     3
 10
686.997103
 20
1804.486730
 11
692.872315
 21
1804.043077
  0
LINE
  8
CSLAYER1
  6
CONTINUOUS
 62
     3
 10
692.872315
 20
1804.043077
 11
698.792584
 21
1803.894816
  0
LINE
  8
CSLAYER1
  6
CONTINUOUS
 62
     3
 10
698.792584
 20
1803.894816
 11
704.712853
 21
1804.043077
  0
LINE
  8
CSLAYER1
  6
CONTINUOUS
 62
     3
 10
704.712853
 20
1804.043077
 11
710.588065
 21
1804.486730
  0
LINE
  8
CSLAYER1
  6
CONTINUOUS
 62
     3
 10
710.588065
 20
1804.486730
 11
716.373506
 21
1805.222400
  0
LINE
  8
CSLAYER1
  6
CONTINUOUS
 62
     3
 10
716.373506
 20
1805.222400
 11
722.025146
 21
1806.244488
  0
LINE
  8
CSLAYER1
  6
CONTINUOUS
 62
     3
 10
722.025146
 20
1806.244488
 11
727.499972
 21
1807.545214
  0
LINE
  8
CSLAYER1
  6
CONTINUOUS
 62
     3
 10
727.499972
 20
1807.545214
 11
732.756317
 21
1809.114680
  0
LINE
  8
CSLAYER1
  6
CONTINUOUS
 62
     3
 10
732.756317
 20
1809.114680
 11
737.754178
 21
1810.940941
  0
LINE
  8
CSLAYER1
  6
CONTINUOUS
 62
     3
 10
737.754178
 20
1810.940941
 11
742.455518
 21
1813.010098
  0
LINE
  8
CSLAYER1
  6
CONTINUOUS
 62
     3
 10
742.455518
 20
1813.010098
 11
746.824556
 21
1815.306403
  0
LINE
  8
CSLAYER1
  6
CONTINUOUS
 62
     3
 10
746.824556
 20
1815.306403
 11
750.828042
 21
1817.812380
  0
LINE
  8
CSLAYER1
  6
CONTINUOUS
 62
     3
 10
750.828042
 20
1817.812380
 11
754.435507
 21
1820.508958
  0
LINE
  8
CSLAYER1
  6
CONTINUOUS
 62
     3
 10
754.435507
 20
1820.508958
 11
757.619496
 21
1823.375613
  0
LINE
  8
CSLAYER1
  6
CONTINUOUS
 62
     3
 10
757.619496
 20
1823.375613
 11
760.355776
 21
1826.390529
  0
LINE
  8
CSLAYER1
  6
CONTINUOUS
 62
     3
 10
760.355776
 20
1826.390529
 11
762.623523
 21
1829.530760
  0
LINE
  8
CSLAYER1
  6
CONTINUOUS
 62
     3
 10
762.623523
 20
1829.530760
 11
764.405478
 21
1832.772408
  0
LINE
  8
CSLAYER1
  6
CONTINUOUS
 62
     3
 10
764.405478
 20
1832.772408
 11
765.688080
 21
1836.090801
  0
LINE
  8
CSLAYER1
  6
CONTINUOUS
 62
     3
 10
765.688080
 20
1836.090801
 11
766.461566
 21
1839.460684
  0
LINE
  8
CSLAYER1
  6
CONTINUOUS
 62
     3
 10
766.461566
 20
1839.460684
 11
766.720051
 21
1842.856410
  0
LINE
  8
CSLAYER1
  6
CONTINUOUS
 62
     3
 10
773.512797
 20
1842.856410
 11
773.228464
 21
1846.591710
  0
LINE
  8
CSLAYER1
  6
CONTINUOUS
 62
     3
 10
773.228464
 20
1846.591710
 11
772.377629
 21
1850.298581
  0
LINE
  8
CSLAYER1
  6
CONTINUOUS
 62
     3
 10
772.377629
 20
1850.298581
 11
770.966768
 21
1853.948813
  0
LINE
  8
CSLAYER1
  6
CONTINUOUS
 62
     3
 10
770.966768
 20
1853.948813
 11
769.006617
 21
1857.514625
  0
LINE
  8
CSLAYER1
  6
CONTINUOUS
 62
     3
 10
769.006617
 20
1857.514625
 11
766.512095
 21
1860.968880
  0
LINE
  8
CSLAYER1
  6
CONTINUOUS
 62
     3
 10
766.512095
 20
1860.968880
 11
763.502187
 21
1864.285287
  0
LINE
  8
CSLAYER1
  6
CONTINUOUS
 62
     3
 10
763.502187
 20
1864.285287
 11
759.999800
 21
1867.438608
  0
LINE
  8
CSLAYER1
  6
CONTINUOUS
 62
     3
 10
759.999800
 20
1867.438608
 11
756.031588
 21
1870.404843
  0
LINE
  8
CSLAYER1
  6
CONTINUOUS
 62
     3
 10
756.031588
 20
1870.404843
 11
751.627754
 21
1873.161419
  0
LINE
  8
CSLAYER1
  6
CONTINUOUS
 62
     3
 10
751.627754
 20
1873.161419
 11
746.821811
 21
1875.687354
  0
LINE
  8
CSLAYER1
  6
CONTINUOUS
 62
     3
 10
746.821811
 20
1875.687354
 11
741.650338
 21
1877.963427
  0
LINE
  8
CSLAYER1
  6
CONTINUOUS
 62
     3
 10
741.650338
 20
1877.963427
 11
736.152691
 21
1879.972314
  0
LINE
  8
CSLAYER1
  6
CONTINUOUS
 62
     3
 10
736.152691
 20
1879.972314
 11
730.370711
 21
1881.698726
  0
LINE
  8
CSLAYER1
  6
CONTINUOUS
 62
     3
 10
730.370711
 20
1881.698726
 11
724.348402
 21
1883.129525
  0
LINE
  8
CSLAYER1
  6
CONTINUOUS
 62
     3
 10
724.348402
 20
1883.129525
 11
718.131598
 21
1884.253821
  0
LINE
  8
CSLAYER1
  6
CONTINUOUS
 62
     3
 10
718.131598
 20
1884.253821
 11
711.767613
 21
1885.063058
  0
LINE
  8
CSLAYER1
  6
CONTINUOUS
 62
     3
 10
711.767613
 20
1885.063058
 11
705.304880
 21
1885.551077
  0
LINE
  8
CSLAYER1
  6
CONTINUOUS
 62
     3
 10
705.304880
 20
1885.551077
 11
698.792584
 21
1885.714164
  0
LINE
  8
CSLAYER1
  6
CONTINUOUS
 62
     3
 10
698.792584
 20
1885.714164
 11
692.280288
 21
1885.551077
  0
LINE
  8
CSLAYER1
  6
CONTINUOUS
 62
     3
 10
692.280288
 20
1885.551077
 11
685.817555
 21
1885.063058
  0
LINE
  8
CSLAYER1
  6
CONTINUOUS
 62
     3
 10
685.817555
 20
1885.063058
 11
679.453570
 21
1884.253821
  0
LINE
  8
CSLAYER1
  6
CONTINUOUS
 62
     3
 10
679.453570
 20
1884.253821
 11
673.236766
 21
1883.129525
  0
LINE
  8
CSLAYER1
  6
CONTINUOUS
 62
     3
 10
673.236766
 20
1883.129525
 11
667.214457
 21
1881.698726
  0
LINE
  8
CSLAYER1
  6
CONTINUOUS
 62
     3
 10
667.214457
 20
1881.698726
 11
661.432477
 21
1879.972314
  0
LINE
  8
CSLAYER1
  6
CONTINUOUS
 62
     3
 10
661.432477
 20
1879.972314
 11
655.934830
 21
1877.963427
  0
LINE
  8
CSLAYER1
  6
CONTINUOUS
 62
     3
 10
655.934830
 20
1877.963427
 11
650.763357
 21
1875.687354
  0
LINE
  8
CSLAYER1
  6
CONTINUOUS
 62
     3
 10
650.763357
 20
1875.687354
 11
645.957415
 21
1873.161419
  0
LINE
  8
CSLAYER1
  6
CONTINUOUS
 62
     3
 10
645.957415
 20
1873.161419
 11
641.553580
 21
1870.404843
  0
LINE
  8
CSLAYER1
  6
CONTINUOUS
 62
     3
 10
641.553580
 20
1870.404843
 11
637.585369
 21
1867.438608
  0
LINE
  8
CSLAYER1
  6
CONTINUOUS
 62
     3
 10
637.585369
 20
1867.438608
 11
634.082981
 21
1864.285287
  0
LINE
  8
CSLAYER1
  6
CONTINUOUS
 62
     3
 10
634.082981
 20
1864.285287
 11
631.073073
 21
1860.968880
  0
LINE
  8
CSLAYER1
  6
CONTINUOUS
 62
     3
 10
631.073073
 20
1860.968880
 11
628.578551
 21
1857.514625
  0
LINE
  8
CSLAYER1
  6
CONTINUOUS
 62
     3
 10
628.578551
 20
1857.514625
 11
626.618400
 21
1853.948813
  0
LINE
  8
CSLAYER1
  6
CONTINUOUS
 62
     3
 10
626.618400
 20
1853.948813
 11
625.207539
 21
1850.298581
  0
LINE
  8
CSLAYER1
  6
CONTINUOUS
 62
     3
 10
625.207539
 20
1850.298581
 11
624.356704
 21
1846.591710
  0
LINE
  8
CSLAYER1
  6
CONTINUOUS
 62
     3
 10
624.356704
 20
1846.591710
 11
624.072371
 21
1842.856410
  0
LINE
  8
CSLAYER1
  6
CONTINUOUS
 62
     3
 10
624.072371
 20
1842.856410
 11
624.356704
 21
1839.121111
  0
LINE
  8
CSLAYER1
  6
CONTINUOUS
 62
     3
 10
624.356704
 20
1839.121111
 11
625.207539
 21
1835.414240
  0
LINE
  8
CSLAYER1
  6
CONTINUOUS
 62
     3
 10
625.207539
 20
1835.414240
 11
626.618400
 21
1831.764007
  0
LINE
  8
CSLAYER1
  6
CONTINUOUS
 62
     3
 10
626.618400
 20
1831.764007
 11
628.578551
 21
1828.198195
  0
LINE
  8
CSLAYER1
  6
CONTINUOUS
 62
     3
 10
628.578551
 20
1828.198195
 11
631.073073
 21
1824.743941
  0
LINE
  8
CSLAYER1
  6
CONTINUOUS
 62
     3
 10
631.073073
 20
1824.743941
 11
634.082981
 21
1821.427534
  0
LINE
  8
CSLAYER1
  6
CONTINUOUS
 62
     3
 10
634.082981
 20
1821.427534
 11
637.585369
 21
1818.274213
  0
LINE
  8
CSLAYER1
  6
CONTINUOUS
 62
     3
 10
637.585369
 20
1818.274213
 11
641.553580
 21
1815.307977
  0
LINE
  8
CSLAYER1
  6
CONTINUOUS
 62
     3
 10
641.553580
 20
1815.307977
 11
645.957415
 21
1812.551402
  0
LINE
  8
CSLAYER1
  6
CONTINUOUS
 62
     3
 10
645.957415
 20
1812.551402
 11
650.763357
 21
1810.025466
  0
LINE
  8
CSLAYER1
  6
CONTINUOUS
 62
     3
 10
650.763357
 20
1810.025466
 11
655.934830
 21
1807.749394
  0
LINE
  8
CSLAYER1
  6
CONTINUOUS
 62
     3
 10
655.934830
 20
1807.749394
 11
661.432477
 21
1805.740507
  0
LINE
  8
CSLAYER1
  6
CONTINUOUS
 62
     3
 10
661.432477
 20
1805.740507
 11
667.214457
 21
1804.014094
  0
LINE
  8
CSLAYER1
  6
CONTINUOUS
 62
     3
 10
667.214457
 20
1804.014094
 11
667.297395
 21
1803.994390
  0
LINE
  8
CSLAYER1
  6
CONTINUOUS
 62
     3
 10
698.792584
 20
1799.998657
 11
705.304880
 21
1800.161743
  0
LINE
  8
CSLAYER1
  6
CONTINUOUS
 62
     3
 10
705.304880
 20
1800.161743
 11
711.767613
 21
1800.649762
  0
LINE
  8
CSLAYER1
  6
CONTINUOUS
 62
     3
 10
711.767613
 20
1800.649762
 11
718.131598
 21
1801.458999
  0
LINE
  8
CSLAYER1
  6
CONTINUOUS
 62
     3
 10
718.131598
 20
1801.458999
 11
724.348402
 21
1802.583295
  0
LINE
  8
CSLAYER1
  6
CONTINUOUS
 62
     3
 10
724.348402
 20
1802.583295
 11
730.370711
 21
1804.014094
  0
LINE
  8
CSLAYER1
  6
CONTINUOUS
 62
     3
 10
730.370711
 20
1804.014094
 11
736.152691
 21
1805.740507
  0
LINE
  8
CSLAYER1
  6
CONTINUOUS
 62
     3
 10
736.152691
 20
1805.740507
 11
741.650338
 21
1807.749394
  0
LINE
  8
CSLAYER1
  6
CONTINUOUS
 62
     3
 10
741.650338
 20
1807.749394
 11
746.821811
 21
1810.025466
  0
LINE
  8
CSLAYER1
  6
CONTINUOUS
 62
     3
 10
746.821811
 20
1810.025466
 11
751.627754
 21
1812.551402
  0
LINE
  8
CSLAYER1
  6
CONTINUOUS
 62
     3
 10
751.627754
 20
1812.551402
 11
756.031588
 21
1815.307977
  0
LINE
  8
CSLAYER1
  6
CONTINUOUS
 62
     3
 10
756.031588
 20
1815.307977
 11
759.999800
 21
1818.274213
  0
LINE
  8
CSLAYER1
  6
CONTINUOUS
 62
     3
 10
759.999800
 20
1818.274213
 11
763.502187
 21
1821.427534
  0
LINE
  8
CSLAYER1
  6
CONTINUOUS
 62
     3
 10
763.502187
 20
1821.427534
 11
766.512095
 21
1824.743941
  0
LINE
  8
CSLAYER1
  6
CONTINUOUS
 62
     3
 10
766.512095
 20
1824.743941
 11
769.006617
 21
1828.198195
  0
LINE
  8
CSLAYER1
  6
CONTINUOUS
 62
     3
 10
769.006617
 20
1828.198195
 11
770.966768
 21
1831.764007
  0
LINE
  8
CSLAYER1
  6
CONTINUOUS
 62
     3
 10
770.966768
 20
1831.764007
 11
772.377629
 21
1835.414240
  0
LINE
  8
CSLAYER1
  6
CONTINUOUS
 62
     3
 10
772.377629
 20
1835.414240
 11
773.228464
 21
1839.121111
  0
LINE
  8
CSLAYER1
  6
CONTINUOUS
 62
     3
 10
773.228464
 20
1839.121111
 11
773.512797
 21
1842.856410
  0
LINE
  8
CSLAYER1
  6
CONTINUOUS
 62
     3
 10
552.582690
 20
1799.998657
 11
698.792584
 21
1799.998657
  0
LINE
  8
CSLAYER1
  6
CONTINUOUS
 62
     3
 10
552.582690
 20
1803.994390
 11
698.792584
 21
1803.994390
  0
LINE
  8
CSLAYER1
  6
CONTINUOUS
 62
     3
 10
552.582690
 20
1799.998657
 11
552.582690
 21
1803.994390
  0
LINE
  8
CSLAYER1
  6
CONTINUOUS
 62
     3
 10
552.582690
 20
1803.994390
 11
543.377390
 21
1806.835904
  0
LINE
  8
CSLAYER1
  6
CONTINUOUS
 62
     3
 10
543.377390
 20
1806.835904
 11
541.843446
 21
1813.278471
  0
LINE
  8
CSLAYER1
  6
CONTINUOUS
 62
     3
 10
552.582690
 20
1799.998657
 11
537.241612
 21
1801.313704
  0
LINE
  8
CSLAYER1
  6
CONTINUOUS
 62
     3
 10
537.241612
 20
1801.313704
 11
530.492256
 21
1799.166181
  0
LINE
  8
CSLAYER1
  6
CONTINUOUS
 62
     3
 10
530.492256
 20
1799.166181
 11
523.129322
 21
1795.791503
  0
LINE
  8
CSLAYER1
  6
CONTINUOUS
 62
     3
 10
541.843446
 20
1813.278471
 11
534.173723
 21
1819.107461
  0
LINE
  8
CSLAYER1
  6
CONTINUOUS
 62
     3
 10
412.732023
 20
2038.926518
 11
576.557090
 21
1944.342071
  0
LINE
  8
CSLAYER1
  6
CONTINUOUS
 62
     3
 10
412.732023
 20
2131.204026
 11
576.557090
 21
2036.619580
  0
LINE
  8
CSLAYER1
  6
CONTINUOUS
 62
     3
 10
412.732023
 20
2131.204026
 11
412.732023
 21
2015.857141
  0
LINE
  8
CSLAYER1
  6
CONTINUOUS
 62
     3
 10
716.407756
 20
2117.362400
 11
716.407756
 21
2002.015514
  0
LINE
  8
CSLAYER1
  6
CONTINUOUS
 62
     3
 10
412.732023
 20
2131.204026
 11
552.582690
 21
2211.946846
  0
LINE
  8
CSLAYER1
  6
CONTINUOUS
 62
     5
 10
363.334035
 20
2044.377082
 11
404.245019
 21
2020.757115
  0
TEXT
  8
CSLAYER1
 62
     3
 10
849.780282
 20
2085.987392
 40
34.838692
 41
0.852344
  1
ホース長サ２ｍ
 50
0.000000
 51
0.000000
  7
EASYDRAW_FONT
 72
     5
 11
1047.744009
 21
2085.987392
  0
TEXT
  8
CSLAYER1
 62
     3
 10
333.516340
 20
1837.810884
 40
39.957333
 41
1.036364
  1
長サ4ｍ
 50
0.000000
 51
0.000000
  7
EASYDRAW_FONT
 72
     5
 11
485.354204
 21
1837.810884
  0
LINE
  8
CSLAYER1
  6
CONTINUOUS
 62
     3
 10
671.226429
 20
2012.176937
 11
972.301679
 21
1838.351060
  0
ARC
  8
CSLAYER1
  6
CONTINUOUS
 62
     3
 10
1024.801679
 20
1929.283728
 40
100.000000
 50
240.000000
 51
270.000000
  0
ARC
  8
CSLAYER1
  6
CONTINUOUS
 62
     3
 10
1024.801679
 20
1929.283728
 40
105.000000
 50
240.000000
 51
270.000000
  0
TEXT
  8
CSLAYER1
 62
     3
 10
791.932850
 20
1722.592623
 40
39.957333
 41
1.020000
  1
フットスイッチ
 50
0.000000
 51
0.000000
  7
EASYDRAW_FONT
 72
     5
 11
1063.642712
 21
1722.592623
  0
TEXT
  8
CSLAYER1
 62
     3
 10
789.779041
 20
1668.034029
 40
39.957333
 41
1.020000
  1
ＵＰ・ＤＯＷＮ
 50
0.000000
 51
0.000000
  7
EASYDRAW_FONT
 72
     5
 11
1061.488903
 21
1668.034029
  0
TEXT
  8
CSLAYER1
 62
     3
 10
792.650623
 20
1619.217623
 40
39.957333
 41
1.020000
  1
コード長サ２ｍ
 50
0.000000
 51
0.000000
  7
EASYDRAW_FONT
 72
     5
 11
1064.360485
 21
1619.217623
  0
LINE
  8
CSLAYER1
  6
CONTINUOUS
 62
     5
 10
660.185352
 20
1683.628163
 11
783.386146
 21
1716.639716
  0
LINE
  8
CSLAYER1
  6
CONTINUOUS
 62
     5
 10
660.185352
 20
1683.628163
 11
686.166115
 21
1698.628163
  0
LINE
  8
CSLAYER1
  6
CONTINUOUS
 62
     5
 10
660.185352
 20
1683.628163
 11
690.185352
 21
1683.628163
  0
LINE
  8
CSLAYER1
  6
CONTINUOUS
 62
     5
 10
1057.724349
 20
1716.639716
 11
783.386146
 21
1716.639716
  0
LINE
  8
CSLAYER1
  6
CONTINUOUS
 62
     3
 10
482.375219
 20
1701.391583
 11
594.255752
 21
1636.797327
  0
LINE
  8
CSLAYER1
  6
CONTINUOUS
 62
     3
 10
594.255752
 20
1636.797327
 11
660.185352
 21
1674.861799
  0
LINE
  8
CSLAYER1
  6
CONTINUOUS
 62
     3
 10
660.185352
 20
1683.628163
 11
660.185352
 21
1674.861799
  0
LINE
  8
CSLAYER1
  6
CONTINUOUS
 62
     5
 10
594.255752
 20
1670.940005
 11
594.255752
 21
1647.870628
  0
LINE
  8
CSLAYER1
  6
CONTINUOUS
 62
     3
 10
482.375219
 20
1710.619334
 11
482.375219
 21
1701.391583
  0
LINE
  8
CSLAYER1
  6
CONTINUOUS
 62
     3
 10
485.971379
 20
1733.919405
 11
547.905246
 21
1769.676939
  0
LINE
  8
CSLAYER1
  6
CONTINUOUS
 62
     3
 10
525.928712
 20
1710.850028
 11
587.862579
 21
1746.607562
  0
LINE
  8
CSLAYER1
  6
CONTINUOUS
 62
     3
 10
594.255752
 20
1670.940005
 11
656.589192
 21
1706.928233
  0
LINE
  8
CSLAYER1
  6
CONTINUOUS
 62
     3
 10
554.697992
 20
1694.240076
 11
616.631859
 21
1729.997611
  0
LINE
  8
CSLAYER1
  6
CONTINUOUS
 62
     3
 10
485.971379
 20
1733.919405
 11
525.928712
 21
1710.850028
  0
LINE
  8
CSLAYER1
  6
CONTINUOUS
 62
     3
 10
547.905246
 20
1769.676939
 11
587.862579
 21
1746.607562
  0
LINE
  8
CSLAYER1
  6
CONTINUOUS
 62
     3
 10
482.375219
 20
1710.619334
 11
594.255752
 21
1646.025078
  0
LINE
  8
CSLAYER1
  6
CONTINUOUS
 62
     3
 10
594.255752
 20
1645.563690
 11
660.185352
 21
1683.628163
  0
LINE
  8
CSLAYER1
  6
CONTINUOUS
 62
     3
 10
534.319752
 20
1706.005458
 11
546.306952
 21
1699.084645
  0
LINE
  8
CSLAYER1
  6
CONTINUOUS
 62
     5
 10
594.255752
 20
1647.870628
 11
656.589192
 21
1683.858856
  0
LINE
  8
CSLAYER1
  6
CONTINUOUS
 62
     5
 10
485.971379
 20
1710.850028
 11
525.928712
 21
1687.780650
  0
LINE
  8
CSLAYER1
  6
CONTINUOUS
 62
     3
 10
656.589192
 20
1706.928233
 11
656.589192
 21
1683.858856
  0
LINE
  8
CSLAYER1
  6
CONTINUOUS
 62
     5
 10
554.697992
 20
1694.240076
 11
554.697992
 21
1670.502791
  0
LINE
  8
CSLAYER1
  6
CONTINUOUS
 62
     5
 10
525.928712
 20
1687.780650
 11
525.928712
 21
1710.850028
  0
LINE
  8
CSLAYER1
  6
CONTINUOUS
 62
     3
 10
587.862579
 20
1746.607562
 11
587.862579
 21
1736.918424
  0
LINE
  8
CSLAYER1
  6
CONTINUOUS
 62
     5
 10
534.319752
 20
1682.936081
 11
546.306952
 21
1676.015268
  0
LINE
  8
CSLAYER1
  6
CONTINUOUS
 62
     3
 10
594.255752
 20
1645.563690
 11
594.255752
 21
1636.797327
  0
LINE
  8
CSLAYER1
  6
CONTINUOUS
 62
     3
 10
656.589192
 20
1685.704406
 11
660.185352
 21
1683.628163
  0
LINE
  8
CSLAYER1
  6
CONTINUOUS
 62
     3
 10
534.319752
 20
1706.005458
 11
596.253619
 21
1741.762993
  0
LINE
  8
CSLAYER1
  6
CONTINUOUS
 62
     3
 10
546.306952
 20
1699.084645
 11
608.240819
 21
1734.842180
  0
LINE
  8
CSLAYER1
  6
CONTINUOUS
 62
     3
 10
608.240819
 20
1734.842180
 11
608.240819
 21
1725.153041
  0
LINE
  8
CSLAYER1
  6
CONTINUOUS
 62
     3
 10
596.253619
 20
1741.762993
 11
608.240819
 21
1734.842180
  0
LINE
  8
CSLAYER1
  6
CONTINUOUS
 62
     3
 10
616.631859
 20
1729.997611
 11
656.589192
 21
1706.928233
  0
LINE
  8
CSLAYER1
  6
CONTINUOUS
 62
     3
 10
554.697992
 20
1694.240076
 11
594.255752
 21
1671.401393
  0
LINE
  8
CSLAYER1
  6
CONTINUOUS
 62
     5
 10
546.306952
 20
1699.084645
 11
546.306952
 21
1676.015268
  0
LINE
  8
CSLAYER1
  6
CONTINUOUS
 62
     5
 10
534.319752
 20
1706.005458
 11
534.319752
 21
1682.936081
  0
LINE
  8
CSLAYER1
  6
CONTINUOUS
 62
     5
 10
546.306952
 20
1676.015268
 11
554.697992
 21
1680.859837
  0
LINE
  8
CSLAYER1
  6
CONTINUOUS
 62
     5
 10
525.928712
 20
1687.780650
 11
534.319752
 21
1692.625220
  0
LINE
  8
CSLAYER1
  6
CONTINUOUS
 62
     5
 10
554.697992
 20
1671.170699
 11
594.255752
 21
1648.332015
  0
LINE
  8
CSLAYER1
  6
CONTINUOUS
 62
     3
 10
485.971379
 20
1733.919405
 11
485.971379
 21
1710.850028
  0
LINE
  8
CSLAYER1
  6
CONTINUOUS
 62
     3
 10
482.375219
 20
1710.619334
 11
485.971379
 21
1712.695578
  0
LINE
  8
CSLAYER1
  6
CONTINUOUS
 62
     5
 10
497.958579
 20
1740.840218
 11
537.915912
 21
1717.770841
  0
LINE
  8
CSLAYER1
  6
CONTINUOUS
 62
     5
 10
509.945779
 20
1747.761031
 11
549.903112
 21
1724.691654
  0
LINE
  8
CSLAYER1
  6
CONTINUOUS
 62
     5
 10
521.932979
 20
1754.681844
 11
561.890312
 21
1731.612467
  0
LINE
  8
CSLAYER1
  6
CONTINUOUS
 62
     5
 10
578.672392
 20
1708.081702
 11
618.629726
 21
1685.012325
  0
LINE
  8
CSLAYER1
  6
CONTINUOUS
 62
     5
 10
566.685192
 20
1701.160889
 11
606.642526
 21
1678.091512
  0
LINE
  8
CSLAYER1
  6
CONTINUOUS
 62
     5
 10
590.659592
 20
1715.002515
 11
630.616926
 21
1691.933138
  0
ARC
  8
CSLAYER1
  6
CONTINUOUS
 62
     3
 10
607.012758
 20
1728.732406
 40
11.889388
 50
-0.219250
 51
120.219250
  0
LINE
  8
CSLAYER1
  6
CONTINUOUS
 62
     3
 10
617.165435
 20
1734.919546
 11
751.455076
 21
1812.451707
  0
LINE
  8
CSLAYER1
  6
CONTINUOUS
 62
     3
 10
613.785018
 20
1738.504512
 11
724.966264
 21
1802.695035
  0
LINE
  8
CSLAYER1
  6
CONTINUOUS
 62
     5
 10
566.318535
 20
1804.942528
 11
526.584611
 21
1882.356712
  0
LINE
  8
CSLAYER1
  6
CONTINUOUS
 62
     5
 10
566.318535
 20
1804.942528
 11
546.178634
 21
1827.177283
  0
LINE
  8
CSLAYER1
  6
CONTINUOUS
 62
     5
 10
566.318535
 20
1804.942528
 11
559.994246
 21
1834.268342
  0
LINE
  8
CSLAYER1
  6
CONTINUOUS
 62
     5
 10
266.445028
 20
1569.320592
 11
1111.376535
 21
1569.320592
  0
LINE
  8
CSLAYER1
  6
CONTINUOUS
 62
     5
 10
538.688635
 20
2375.983040
 11
818.271905
 21
2375.983040
  0
LINE
  8
CSLAYER1
  6
CONTINUOUS
 62
     5
 10
818.271905
 20
2375.983040
 11
818.271905
 21
2325.277762
  0
LINE
  8
CSLAYER1
  6
CONTINUOUS
 62
     5
 10
818.271905
 20
2325.277762
 11
538.688635
 21
2325.277762
  0
LINE
  8
CSLAYER1
  6
CONTINUOUS
 62
     5
 10
538.688635
 20
2325.277762
 11
538.688635
 21
2375.983040
  0
ENDBLK
  8
0
  0
BLOCK
  8
CSLAYER1
  2
BLKF0006
 70
   64
 10
0.0
 20
0.0
 30
0.0
  0
DIMENSION
  8
CSLAYER1
 62
     3
  2
*D0011
 10
979.198768
 20
715.228276
 11
854.198792
 21
725.228271
 13
729.198768
 23
799.837161
 14
979.198768
 24
799.837161
 52
270.000000
 70
1
  0
INSERT
  8
CSLAYER1
  2
EASYDRAWDIM0004
 10
0.0
 20
0.0
 30
0.0
  0
INSERT
  8
CSLAYER1
  2
EASYDRAWDIM0005
 10
0.0
 20
0.0
 30
0.0
  0
TEXT
  8
CSLAYER1
 62
     7
 10
805.062317
 20
580.795105
 40
40.000000
 41
0.843750
  1
上昇時
 50
0.000000
 51
0.000000
  7
EASYDRAW_FONT
 72
     5
 11
895.062317
 21
580.795105
  0
LINE
  8
CSLAYER1
  6
CONTINUOUS
 62
     5
 10
791.455802
 20
627.225223
 11
914.413812
 21
627.225223
  0
LINE
  8
CSLAYER1
  6
CONTINUOUS
 62
     5
 10
914.413812
 20
627.225223
 11
914.413812
 21
574.364770
  0
LINE
  8
CSLAYER1
  6
CONTINUOUS
 62
     5
 10
914.413812
 20
574.364770
 11
791.455802
 21
574.364770
  0
LINE
  8
CSLAYER1
  6
CONTINUOUS
 62
     5
 10
791.455802
 20
574.364770
 11
791.455802
 21
627.225223
  0
LINE
  8
CSLAYER1
  6
CONTINUOUS
 62
     6
 10
979.198768
 20
793.837161
 11
1075.106414
 21
710.935425
  0
LINE
  8
CSLAYER1
  6
CONTINUOUS
 62
     6
 10
979.198768
 20
793.837161
 11
1006.199243
 21
780.761446
  0
LINE
  8
CSLAYER1
  6
CONTINUOUS
 62
     6
 10
979.198768
 20
793.837161
 11
996.044007
 21
769.013022
  0
INSERT
  8
CSLAYER1
  2
EASYDRAWDIM0006
 10
0.0
 20
0.0
 30
0.0
  0
DIMENSION
  8
CSLAYER1
 62
     3
  2
*D0012
 10
1489.427078
 20
730.058977
 11
1505.518433
 21
700.784241
 13
1464.427078
 23
799.837161
 14
1489.427078
 24
799.837161
 52
270.000000
 70
1
  0
DIMENSION
  8
CSLAYER1
 62
     3
  2
*D0013
 10
1004.198768
 20
650.911044
 11
854.198792
 21
660.911011
 13
704.198768
 23
799.837161
 14
1004.198768
 24
805.837161
 52
270.000000
  0
ENDBLK
  8
0
  0
BLOCK
  8
CSLAYER1
  2
BLKF0007
 70
   64
 10
0.0
 20
0.0
 30
0.0
  0
LINE
  8
CSLAYER1
  6
CONTINUOUS
 62
     5
 10
3465.018338
 20
1490.851103
 11
2596.213428
 21
1490.851103
  0
TEXT
  8
CSLAYER1
 62
     3
 10
3062.401611
 20
1496.501221
 40
40.000000
 41
0.832500
  1
10R4/13
 50
0.000000
 51
0.000000
  7
EASYDRAW_FONT
 72
     5
 11
3284.401611
 21
1496.501221
  0
ENDBLK
  8
0
  0
ENDSEC
  0
SECTION
  2
ENTITIES
  0
LINE
  8
CSLAYER1
  6
CONTINUOUS
 62
     3
 10
216.445028
 20
2444.184439
 11
216.445028
 21
95.637509
  0
LINE
  8
CSLAYER1
  6
CONTINUOUS
 62
     3
 10
3539.018338
 20
2444.184439
 11
216.445028
 21
2444.184439
  0
LINE
  8
CSLAYER1
  6
CONTINUOUS
 62
     3
 10
3539.018338
 20
2444.184439
 11
3539.018338
 21
95.637509
  0
LINE
  8
CSLAYER1
  6
CONTINUOUS
 62
     3
 10
3539.018338
 20
95.637509
 11
216.445028
 21
95.637509
  0
LINE
  8
CSLAYER1
  6
CONTINUOUS
 62
     5
 10
166.445028
 20
1255.637509
 11
116.445028
 21
1255.637509
  0
LINE
  8
CSLAYER1
  6
CONTINUOUS
 62
     5
 10
2739.018338
 20
535.637509
 11
3539.018338
 21
535.637509
  0
LINE
  8
CSLAYER1
  6
CONTINUOUS
 62
     5
 10
2739.018338
 20
175.637509
 11
3539.018338
 21
175.637509
  0
LINE
  8
CSLAYER1
  6
CONTINUOUS
 62
     5
 10
2739.018338
 20
335.637509
 11
3539.018338
 21
335.637509
  0
LINE
  8
CSLAYER1
  6
CONTINUOUS
 62
     5
 10
2739.018338
 20
395.637509
 11
3539.018338
 21
395.637509
  0
LINE
  8
CSLAYER1
  6
CONTINUOUS
 62
     5
 10
2739.018338
 20
455.637509
 11
3539.018338
 21
455.637509
  0
LINE
  8
CSLAYER1
  6
CONTINUOUS
 62
     5
 10
2739.018338
 20
615.637509
 11
3539.018338
 21
615.637509
  0
LINE
  8
CSLAYER1
  6
CONTINUOUS
 62
     5
 10
2739.018338
 20
695.637509
 11
2739.018338
 21
95.637509
  0
LINE
  8
CSLAYER1
  6
CONTINUOUS
 62
     5
 10
2939.018338
 20
695.637509
 11
2939.018338
 21
455.637509
  0
LINE
  8
CSLAYER1
  6
CONTINUOUS
 62
     5
 10
2739.018338
 20
695.637509
 11
3539.018338
 21
695.637509
  0
LINE
  8
CSLAYER1
  6
CONTINUOUS
 62
     5
 10
3239.018338
 20
455.637509
 11
3239.018338
 21
175.637509
  0
TEXT
  8
CSLAYER1
 62
     3
 10
2958.709529
 20
104.200230
 40
59.380363
 41
1.003345
  1
東正車輌株式会社
 50
0.000000
 51
0.000000
  7
EASYDRAW_FONT
 72
     5
 11
3415.481877
 21
104.200230
  0
LINE
  8
CSLAYER1
  6
CONTINUOUS
 62
     5
 10
2989.018338
 20
395.637509
 11
2989.018338
 21
175.637509
  0
TEXT
  8
CSLAYER1
 62
     5
 10
2769.018311
 20
630.637451
 40
50.000000
 41
1.050000
  1
品　名
 50
0.000000
 51
0.000000
  7
EASYDRAW_FONT
 72
     5
 11
2909.018311
 21
630.637451
  0
TEXT
  8
CSLAYER1
 62
     5
 10
2769.018311
 20
550.637451
 40
50.000000
 41
1.050000
  1
型　式
 50
0.000000
 51
0.000000
  7
EASYDRAW_FONT
 72
     5
 11
2909.018311
 21
550.637451
  0
TEXT
  8
CSLAYER1
 62
     5
 10
2744.018311
 20
470.637512
 40
50.000000
 41
1.036364
  1
図面番号
 50
0.000000
 51
0.000000
  7
EASYDRAW_FONT
 72
     5
 11
2934.018311
 21
470.637512
  0
TEXT
  8
CSLAYER1
 62
     5
 10
2769.018311
 20
400.637512
 40
50.000000
 41
0.825000
  1
平成26年01月10日
 50
0.000000
 51
0.000000
  7
EASYDRAW_FONT
 72
     5
 11
3209.018311
 21
400.637512
  0
TEXT
  8
CSLAYER1
 62
     5
 10
3319.018311
 20
400.637512
 40
50.000000
 41
1.050000
  1
Ｂ－４
 50
0.000000
 51
0.000000
  7
EASYDRAW_FONT
 72
     5
 11
3459.018311
 21
400.637512
  0
TEXT
  8
CSLAYER1
 62
     5
 10
2794.018311
 20
340.637512
 40
50.000000
 41
1.050000
  1
検　図
 50
0.000000
 51
0.000000
  7
EASYDRAW_FONT
 72
     5
 11
2934.018311
 21
340.637512
  0
TEXT
  8
CSLAYER1
 62
     5
 10
3044.018311
 20
340.637512
 40
50.000000
 41
1.050000
  1
作　図
 50
0.000000
 51
0.000000
  7
EASYDRAW_FONT
 72
     5
 11
3184.018311
 21
340.637512
  0
TEXT
  8
CSLAYER1
 62
     5
 10
3319.018311
 20
340.637512
 40
50.000000
 41
1.050000
  1
尺　度
 50
0.000000
 51
0.000000
  7
EASYDRAW_FONT
 72
     5
 11
3459.018311
 21
340.637512
  0
TEXT
  8
CSLAYER1
 62
     5
 10
3419.757080
 20
190.122787
 40
50.000000
 41
1.080000
  1
１０
 50
0.000000
 51
0.000000
  7
EASYDRAW_FONT
 72
     5
 11
3509.757080
 21
190.122787
  0
TEXT
  8
CSLAYER1
 62
     5
 10
3399.437500
 20
237.827484
 40
50.000000
 41
1.200000
  1
／
 50
0.000000
 51
0.000000
  7
EASYDRAW_FONT
 72
     5
 11
3439.437500
 21
237.827484
  0
TEXT
  8
CSLAYER1
 62
     5
 10
3369.224609
 20
272.810913
 40
50.000000
 41
1.200000
  1
１
 50
0.000000
 51
0.000000
  7
EASYDRAW_FONT
 72
     5
 11
3409.224609
 21
272.810913
  0
TEXT
  8
CSLAYER1
 62
     3
 10
3079.018311
 20
630.637451
 40
50.000000
 41
0.834783
  1
ゴールドリフター
 50
0.000000
 51
0.000000
  7
EASYDRAW_FONT
 72
     5
 11
3399.018311
 21
630.637451
  0
TEXT
  8
CSLAYER1
 62
     3
 10
2979.018311
 20
550.637451
 40
50.000000
 41
0.821053
  1
GLSE-150-3007
 50
0.000000
 51
0.000000
  7
EASYDRAW_FONT
 72
     5
 11
3499.018311
 21
550.637451
  0
INSERT
  8
CSLAYER1
  2
BLKF0000
 10
0.0
 20
0.0
 30
0.0
  0
LINE
  8
CSLAYER1
  6
CONTINUOUS
 62
     3
 10
1464.427078
 20
799.837161
 11
1464.427078
 21
839.837161
  0
LINE
  8
CSLAYER1
  6
CENTER
 62
     5
 10
1463.427078
 20
1861.774990
 11
2183.647695
 21
1861.774990
  0
LINE
  8
CSLAYER1
  6
DASHED
 62
     4
 10
1467.127078
 20
1961.774990
 11
2167.127078
 21
1961.774990
  0
LINE
  8
CSLAYER1
  6
CONTINUOUS
 62
     3
 10
1464.427078
 20
1721.774990
 11
1464.427078
 21
1887.624990
  0
LINE
  8
CSLAYER1
  6
CONTINUOUS
 62
     4
 10
1467.127078
 20
2011.774990
 11
1467.127078
 21
1711.774990
  0
LINE
  8
CSLAYER1
  6
CONTINUOUS
 62
     4
 10
2167.127078
 20
2011.774990
 11
2167.127078
 21
1711.774990
  0
INSERT
  8
CSLAYER1
  2
BLKF0001
 10
0.0
 20
0.0
 30
0.0
  0
LINE
  8
CSLAYER1
  6
CENTER
 62
     5
 10
1534.765819
 20
891.918651
 11
1668.459647
 21
1132.347373
  0
LINE
  8
CSLAYER1
  6
CENTER
 62
     5
 10
854.198768
 20
1379.815272
 11
854.198768
 21
799.837161
  0
LINE
  8
CSLAYER1
  6
CENTER
 62
     5
 10
979.198768
 20
790.907800
 11
979.198768
 21
815.117761
  0
LINE
  8
CSLAYER1
  6
CENTER
 62
     5
 10
729.198768
 20
790.907800
 11
729.198768
 21
815.117761
  0
LINE
  8
CSLAYER1
  6
CENTER
 62
     5
 10
824.198768
 20
803.147598
 11
824.198768
 21
836.410917
  0
LINE
  8
CSLAYER1
  6
CENTER
 62
     5
 10
806.324822
 20
819.837161
 11
843.321779
 21
819.837161
  0
LINE
  8
CSLAYER1
  6
CENTER
 62
     5
 10
779.698768
 20
1360.015272
 11
928.698768
 21
1360.015272
  0
LINE
  8
CSLAYER1
  6
CENTER
 62
     5
 10
774.698768
 20
1080.614398
 11
933.698768
 21
1080.614398
  0
ARC
  8
CSLAYER1
  6
CONTINUOUS
 62
     3
 10
1511.704383
 20
1360.015272
 40
9.500000
 50
-190.922071
 51
10.922071
  0
LINE
  8
CSLAYER1
  6
CONTINUOUS
 62
     3
 10
1502.204383
 20
1361.815272
 11
1502.204383
 21
1354.530444
  0
LINE
  8
CSLAYER1
  6
CONTINUOUS
 62
     3
 10
1502.204383
 20
1354.530444
 11
1511.704383
 21
1349.045617
  0
LINE
  8
CSLAYER1
  6
CONTINUOUS
 62
     3
 10
1511.704383
 20
1349.045617
 11
1521.204383
 21
1354.530444
  0
LINE
  8
CSLAYER1
  6
CONTINUOUS
 62
     3
 10
1521.204383
 20
1354.530444
 11
1521.204383
 21
1361.815272
  0
POINT
  8
CSLAYER1
 62
     3
 10
1511.704383
 20
1360.015272
  0
LINE
  8
CSLAYER1
  6
CONTINUOUS
 62
     3
 10
1489.404383
 20
1379.815272
 11
1489.404383
 21
1361.815272
  0
LINE
  8
CSLAYER1
  6
CONTINUOUS
 62
     3
 10
2189.404383
 20
1379.815272
 11
2189.404383
 21
1361.815272
  0
LINE
  8
CSLAYER1
  6
CONTINUOUS
 62
     3
 10
1541.704383
 20
1347.515272
 11
2171.704383
 21
1347.515272
  0
LINE
  8
CSLAYER1
  6
CONTINUOUS
 62
     3
 10
1489.404383
 20
1379.815272
 11
2189.404383
 21
1379.815272
  0
LINE
  8
CSLAYER1
  6
CONTINUOUS
 62
     3
 10
1491.704383
 20
1361.815272
 11
1491.704383
 21
1354.515272
  0
LINE
  8
CSLAYER1
  6
CONTINUOUS
 62
     3
 10
1489.404383
 20
1361.815272
 11
2189.404383
 21
1361.815272
  0
LINE
  8
CSLAYER1
  6
CONTINUOUS
 62
     3
 10
1496.704383
 20
1349.515272
 11
1510.890916
 21
1349.515272
  0
ARC
  8
CSLAYER1
  6
CONTINUOUS
 62
     3
 10
1496.704383
 20
1354.515272
 40
5.000000
 50
180.000000
 51
270.000000
  0
LINE
  8
CSLAYER1
  6
CONTINUOUS
 62
     3
 10
2171.704383
 20
1361.815272
 11
2171.704383
 21
1347.515272
  0
LINE
  8
CSLAYER1
  6
CONTINUOUS
 62
     3
 10
1541.704383
 20
1358.515272
 11
1516.704383
 21
1349.515272
  0
LINE
  8
CSLAYER1
  6
CONTINUOUS
 62
     3
 10
1541.704383
 20
1361.815272
 11
1541.704383
 21
1347.515272
  0
LINE
  8
CSLAYER1
  6
CONTINUOUS
 62
     4
 10
1729.932072
 20
1130.870809
 11
1721.851167
 21
1112.030719
  0
LINE
  8
CSLAYER1
  6
CONTINUOUS
 62
     4
 10
1521.759619
 20
839.837161
 11
1535.137014
 21
858.320106
  0
LINE
  8
CSLAYER1
  6
CONTINUOUS
 62
     4
 10
1535.137014
 20
858.320106
 11
1540.680108
 21
861.714824
  0
LINE
  8
CSLAYER1
  6
CONTINUOUS
 62
     4
 10
1499.280839
 20
896.616121
 11
1825.627980
 21
1347.515272
  0
LINE
  8
CSLAYER1
  6
CONTINUOUS
 62
     4
 10
1540.680108
 20
861.714824
 11
1721.851167
 21
1112.030719
  0
ARC
  8
CSLAYER1
  6
DASHED
 62
     5
 10
1848.253943
 20
1360.015272
 40
13.000000
 50
-74.057631
 51
254.057631
  0
POINT
  8
CSLAYER1
 62
     4
 10
1848.253943
 20
1360.015272
  0
POINT
  8
CSLAYER1
 62
     4
 10
1679.979163
 20
1080.614398
  0
LINE
  8
CSLAYER1
  6
CONTINUOUS
 62
     4
 10
1729.932072
 20
1130.870809
 11
1850.126464
 21
1296.937988
  0
LINE
  8
CSLAYER1
  6
CONTINUOUS
 62
     4
 10
1850.126464
 20
1296.937988
 11
1857.539386
 21
1347.515272
  0
LINE
  8
CSLAYER1
  6
CONTINUOUS
 62
     4
 10
1521.206882
 20
889.387797
 11
1534.168223
 21
880.006771
  0
LINE
  8
CSLAYER1
  6
CONTINUOUS
 62
     4
 10
1541.727876
 20
917.740730
 11
1554.689216
 21
908.359704
  0
LINE
  8
CSLAYER1
  6
CONTINUOUS
 62
     4
 10
1538.357416
 20
880.678080
 11
1555.360525
 21
904.170511
  0
LINE
  8
CSLAYER1
  6
CONTINUOUS
 62
     4
 10
1520.535573
 20
893.576991
 11
1537.538682
 21
917.069421
  0
ARC
  8
CSLAYER1
  6
CONTINUOUS
 62
     4
 10
1522.965824
 20
891.818048
 40
3.000000
 50
144.104120
 51
234.104120
  0
ARC
  8
CSLAYER1
  6
CONTINUOUS
 62
     4
 10
1539.968933
 20
915.310479
 40
3.000000
 50
54.104120
 51
144.104120
  0
ARC
  8
CSLAYER1
  6
CONTINUOUS
 62
     4
 10
1535.927165
 20
882.437023
 40
3.000000
 50
234.104120
 51
324.104120
  0
ARC
  8
CSLAYER1
  6
CONTINUOUS
 62
     4
 10
1552.930274
 20
905.929453
 40
3.000000
 50
-35.895880
 51
54.104120
  0
LINE
  8
CSLAYER1
  6
CONTINUOUS
 62
     4
 10
1499.280839
 20
896.616121
 11
1481.210631
 21
835.416971
  0
POINT
  8
CSLAYER1
 62
     7
 10
1668.459647
 20
1132.347373
  0
LINE
  8
CSLAYER1
  6
CONTINUOUS
 62
     7
 10
1712.110229
 20
1017.459076
 11
1840.667587
 21
839.837161
  0
CIRCLE
  8
CSLAYER1
  6
DASHED
 62
     5
 10
1870.531247
 20
817.337161
 40
13.000000
  0
POINT
  8
CSLAYER1
 62
     7
 10
1870.531247
 20
817.337161
  0
POINT
  8
CSLAYER1
 62
     7
 10
1679.979163
 20
1080.614398
  0
LINE
  8
CSLAYER1
  6
CONTINUOUS
 62
     7
 10
1872.403769
 20
880.414445
 11
1878.351028
 21
839.837161
  0
LINE
  8
CSLAYER1
  6
CONTINUOUS
 62
     7
 10
1529.538727
 20
1354.135636
 11
1679.979163
 21
1146.278859
  0
LINE
  8
CSLAYER1
  6
CONTINUOUS
 62
     7
 10
1532.205400
 20
1291.386418
 11
1502.473167
 21
1349.515272
  0
ARC
  8
CSLAYER1
  6
CONTINUOUS
 62
     7
 10
1523.302415
 20
1286.832644
 40
10.000000
 50
-0.046232
 51
27.089216
  0
LINE
  8
CSLAYER1
  6
CONTINUOUS
 62
     7
 10
1533.302412
 20
1286.824575
 11
1533.287043
 21
1267.778248
  0
ARC
  8
CSLAYER1
  6
CONTINUOUS
 62
     7
 10
1543.287040
 20
1267.770179
 40
10.000000
 50
179.953768
 51
215.895880
  0
LINE
  8
CSLAYER1
  6
CONTINUOUS
 62
     7
 10
1638.107159
 20
1112.030719
 11
1646.649278
 21
1100.228457
  0
LINE
  8
CSLAYER1
  6
CONTINUOUS
 62
     7
 10
1712.110229
 20
1017.459076
 11
1696.738569
 21
1031.022339
  0
LINE
  8
CSLAYER1
  6
CONTINUOUS
 62
     7
 10
1630.026254
 20
1130.870809
 11
1638.107159
 21
1112.030719
  0
LINE
  8
CSLAYER1
  6
CONTINUOUS
 62
     7
 10
1630.026254
 20
1130.870809
 11
1535.186202
 21
1261.907038
  0
POINT
  8
CSLAYER1
 62
     7
 10
1511.704383
 20
1360.015272
  0
CIRCLE
  8
CSLAYER1
  6
CONTINUOUS
 62
     7
 10
1679.979163
 20
1080.614398
 40
7.500000
  0
POINT
  8
CSLAYER1
 62
     5
 10
1668.459647
 20
1132.347373
  0
LINE
  8
CSLAYER1
  6
CONTINUOUS
 62
     4
 10
1554.937492
 20
903.586025
 11
1535.573207
 21
914.353813
  0
LINE
  8
CSLAYER1
  6
CONTINUOUS
 62
     4
 10
1589.991856
 20
1038.561363
 11
1598.565809
 21
1033.793693
  0
LINE
  8
CSLAYER1
  6
CONTINUOUS
 62
     4
 10
1560.203920
 20
992.194037
 11
1566.088797
 21
988.921667
  0
LINE
  8
CSLAYER1
  6
CONTINUOUS
 62
     4
 10
1559.815934
 20
993.553988
 11
1576.339345
 21
1023.268915
  0
LINE
  8
CSLAYER1
  6
CONTINUOUS
 62
     4
 10
1576.339345
 20
1023.268915
 11
1589.991856
 21
1038.561363
  0
LINE
  8
CSLAYER1
  6
CONTINUOUS
 62
     4
 10
1559.815934
 20
993.553988
 11
1560.203920
 21
992.194037
  0
LINE
  8
CSLAYER1
  6
CONTINUOUS
 62
     4
 10
1543.701983
 20
957.990816
 11
1562.126651
 21
991.124875
  0
POINT
  8
CSLAYER1
 62
     5
 10
1534.765819
 20
891.918651
  0
LINE
  8
CSLAYER1
  6
CONTINUOUS
 62
     4
 10
1541.266422
 20
862.524908
 11
1541.671464
 21
862.231751
  0
CIRCLE
  8
CSLAYER1
  6
CONTINUOUS
 62
     4
 10
1534.765819
 20
891.918651
 40
8.000000
  0
LINE
  8
CSLAYER1
  6
CONTINUOUS
 62
     4
 10
1544.146845
 20
904.879992
 11
1551.842641
 21
899.310008
  0
ARC
  8
CSLAYER1
  6
CONTINUOUS
 62
     4
 10
1534.765819
 20
891.918651
 40
16.000000
 50
54.104120
 51
105.479287
  0
POINT
  8
CSLAYER1
 62
     2
 10
1534.765819
 20
891.918651
  0
LINE
  8
CSLAYER1
  6
CONTINUOUS
 62
     4
 10
1541.671464
 20
862.231751
 11
1525.462939
 21
839.837161
  0
LINE
  8
CSLAYER1
  6
CENTER
 62
     5
 10
1472.369530
 20
819.837161
 11
1324.632422
 21
819.837161
  0
LINE
  8
CSLAYER1
  6
CONTINUOUS
 62
     1
 10
1464.427078
 20
837.837161
 11
1464.427078
 21
799.837161
  0
LINE
  8
CSLAYER1
  6
CONTINUOUS
 62
     4
 10
1464.427078
 20
839.837161
 11
1464.427078
 21
799.837161
  0
LINE
  8
CSLAYER1
  6
CONTINUOUS
 62
     4
 10
1464.427078
 20
839.837161
 11
1477.970639
 21
839.837161
  0
LINE
  8
CSLAYER1
  6
CONTINUOUS
 62
     3
 10
2167.427078
 20
839.837161
 11
2167.427078
 21
799.837161
  0
LINE
  8
CSLAYER1
  6
CONTINUOUS
 62
     3
 10
1464.427078
 20
839.837161
 11
1477.970639
 21
839.837161
  0
LINE
  8
CSLAYER1
  6
CONTINUOUS
 62
     4
 10
1500.883518
 20
839.837161
 11
1517.427078
 21
839.837161
  0
LINE
  8
CSLAYER1
  6
CONTINUOUS
 62
     5
 10
478.941970
 20
799.837161
 11
704.198768
 21
799.837161
  0
LINE
  8
CSLAYER1
  6
CONTINUOUS
 62
     3
 10
1512.517850
 20
1349.515272
 11
1516.704383
 21
1349.515272
  0
ARC
  8
CSLAYER1
  6
CONTINUOUS
 62
     4
 10
1848.253943
 20
1360.015272
 40
13.000000
 50
254.057631
 51
285.942369
  0
ARC
  8
CSLAYER1
  6
CONTINUOUS
 62
     4
 10
1668.459647
 20
1132.347373
 40
8.000000
 50
45.741168
 51
242.467072
  0
POINT
  8
CSLAYER1
 62
     4
 10
1668.459647
 20
1132.347373
  0
LINE
  8
CSLAYER1
  6
CONTINUOUS
 62
     4
 10
1594.361698
 20
1036.131449
 11
1637.436296
 21
1113.594790
  0
LINE
  8
CSLAYER1
  6
CONTINUOUS
 62
     7
 10
1679.979163
 20
1054.178056
 11
1696.738569
 21
1031.022339
  0
LINE
  8
CSLAYER1
  6
CONTINUOUS
 62
     7
 10
1713.309048
 20
1100.228457
 11
1872.403769
 21
880.414445
  0
LINE
  8
CSLAYER1
  6
CONTINUOUS
 62
     4
 10
1576.339345
 20
1023.268915
 11
1586.755986
 21
1017.476593
  0
ARC
  8
CSLAYER1
  6
CONTINUOUS
 62
     3
 10
1489.427078
 20
844.837161
 40
12.500000
 50
203.578178
 51
336.421822
  0
LINE
  8
CSLAYER1
  6
CONTINUOUS
 62
     3
 10
1500.883518
 20
839.837161
 11
2167.427078
 21
839.837161
  0
INSERT
  8
CSLAYER1
  2
BLKF0002
 10
0.0
 20
0.0
 30
0.0
  0
LINE
  8
CSLAYER1
  6
CENTER
 62
     5
 10
1499.015502
 20
1360.015272
 11
1524.749797
 21
1360.015272
  0
LINE
  8
CSLAYER1
  6
CENTER
 62
     5
 10
1511.704383
 20
1370.860060
 11
1511.704383
 21
1345.125765
  0
LINE
  8
CSLAYER1
  6
CENTER
 62
     5
 10
1848.253943
 20
1376.054613
 11
1848.253943
 21
1341.106294
  0
LINE
  8
CSLAYER1
  6
CENTER
 62
     5
 10
1831.909304
 20
1360.015272
 11
1865.530472
 21
1360.015272
  0
LINE
  8
CSLAYER1
  6
CENTER
 62
     5
 10
1666.519977
 20
1080.614398
 11
1693.076829
 21
1080.614398
  0
LINE
  8
CSLAYER1
  6
CENTER
 62
     5
 10
1679.979163
 20
1091.601836
 11
1679.979163
 21
1068.570230
  0
LINE
  8
CSLAYER1
  6
CENTER
 62
     5
 10
1668.459647
 20
1141.425311
 11
1668.459647
 21
1123.273751
  0
LINE
  8
CSLAYER1
  6
CENTER
 62
     5
 10
1658.601998
 20
1132.347373
 11
1675.675248
 21
1132.347373
  0
LINE
  8
CSLAYER1
  6
CENTER
 62
     5
 10
1853.644802
 20
817.337161
 11
1887.570140
 21
817.337161
  0
LINE
  8
CSLAYER1
  6
CENTER
 62
     5
 10
1870.531247
 20
833.652285
 11
1870.531247
 21
800.623088
  0
LINE
  8
CSLAYER1
  6
CENTER
 62
     5
 10
1534.765819
 20
902.019646
 11
1534.765819
 21
881.338203
  0
LINE
  8
CSLAYER1
  6
CENTER
 62
     5
 10
1523.474487
 20
891.918651
 11
1544.930101
 21
891.918651
  0
LINE
  8
CSLAYER1
  6
CENTER
 62
     5
 10
1476.927418
 20
817.337161
 11
1502.018873
 21
817.337161
  0
LINE
  8
CSLAYER1
  6
CENTER
 62
     5
 10
1489.427078
 20
832.337161
 11
1489.427078
 21
796.793739
  0
LINE
  8
CSLAYER1
  6
PHANTOM
 62
     5
 10
1739.427078
 20
862.337161
 11
1739.427078
 21
857.837161
  0
LINE
  8
CSLAYER1
  6
PHANTOM
 62
     5
 10
1664.427078
 20
862.337161
 11
1664.427078
 21
857.837161
  0
POINT
  8
CSLAYER1
 62
     5
 10
1489.427078
 20
844.837161
  0
LINE
  8
CSLAYER1
  6
PHANTOM
 62
     5
 10
1467.127078
 20
864.637161
 11
1467.127078
 21
846.637161
  0
LINE
  8
CSLAYER1
  6
PHANTOM
 62
     5
 10
2167.127078
 20
864.637161
 11
2167.127078
 21
846.637161
  0
LINE
  8
CSLAYER1
  6
PHANTOM
 62
     5
 10
1467.127078
 20
864.637161
 11
2167.127078
 21
864.637161
  0
LINE
  8
CSLAYER1
  6
PHANTOM
 62
     5
 10
2167.127078
 20
846.637161
 11
1467.127078
 21
846.637161
  0
LINE
  8
CSLAYER1
  6
PHANTOM
 62
     5
 10
1469.427078
 20
846.637161
 11
1469.427078
 21
839.337161
  0
LINE
  8
CSLAYER1
  6
PHANTOM
 62
     5
 10
2149.427078
 20
846.637161
 11
2149.427078
 21
839.837161
  0
LINE
  8
CSLAYER1
  6
PHANTOM
 62
     5
 10
1519.427078
 20
843.337161
 11
1509.704856
 21
839.837161
  0
LINE
  8
CSLAYER1
  6
PHANTOM
 62
     5
 10
1519.427078
 20
846.637161
 11
1519.427078
 21
839.837161
  0
LINE
  8
CSLAYER1
  6
CENTER
 62
     5
 10
1489.427078
 20
854.566557
 11
1489.427078
 21
835.812042
  0
LINE
  8
CSLAYER1
  6
CENTER
 62
     5
 10
1476.747090
 20
844.837161
 11
1500.616472
 21
844.837161
  0
LINE
  8
CSLAYER1
  6
DASHED
 62
     4
 10
1514.427078
 20
2001.774990
 11
1514.427078
 21
1961.774990
  0
LINE
  8
CSLAYER1
  6
CONTINUOUS
 62
     3
 10
1474.427078
 20
2011.774990
 11
1504.427078
 21
2011.774990
  0
ARC
  8
CSLAYER1
  6
CONTINUOUS
 62
     3
 10
1474.427078
 20
2001.774990
 40
10.000000
 50
136.886394
 51
180.000000
  0
ARC
  8
CSLAYER1
  6
CONTINUOUS
 62
     4
 10
1504.427078
 20
2001.774990
 40
10.000000
 50
0.000000
 51
90.000000
  0
LINE
  8
CSLAYER1
  6
CENTER
 62
     5
 10
1489.427078
 20
1975.512188
 11
1489.427078
 21
1998.037791
  0
LINE
  8
CSLAYER1
  6
CENTER
 62
     5
 10
1478.164277
 20
1986.774990
 11
1500.689880
 21
1986.774990
  0
ARC
  8
CSLAYER1
  6
CONTINUOUS
 62
     3
 10
1489.427078
 20
1986.774990
 40
6.500000
 50
156.768748
 51
203.654607
  0
LINE
  8
CSLAYER1
  6
CONTINUOUS
 62
     3
 10
754.198768
 20
839.837161
 11
954.198768
 21
839.837161
  0
LINE
  8
CSLAYER1
  6
CONTINUOUS
 62
     3
 10
754.198768
 20
839.837161
 11
754.198768
 21
805.837161
  0
LINE
  8
CSLAYER1
  6
CONTINUOUS
 62
     3
 10
954.198768
 20
839.837161
 11
954.198768
 21
805.837161
  0
LINE
  8
CSLAYER1
  6
CONTINUOUS
 62
     3
 10
1004.198768
 20
799.837161
 11
1004.198768
 21
805.837161
  0
LINE
  8
CSLAYER1
  6
CONTINUOUS
 62
     3
 10
928.698768
 20
799.837161
 11
928.698768
 21
839.837161
  0
LINE
  8
CSLAYER1
  6
CONTINUOUS
 62
     3
 10
1004.198768
 20
805.837161
 11
928.698768
 21
805.837161
  0
LINE
  8
CSLAYER1
  6
CONTINUOUS
 62
     3
 10
931.698768
 20
828.306816
 11
931.698768
 21
806.367506
  0
LINE
  8
CSLAYER1
  6
CONTINUOUS
 62
     3
 10
928.698768
 20
806.587161
 11
931.698768
 21
806.587161
  0
LINE
  8
CSLAYER1
  6
CONTINUOUS
 62
     3
 10
928.698768
 20
828.087161
 11
931.698768
 21
828.087161
  0
LINE
  8
CSLAYER1
  6
CONTINUOUS
 62
     3
 10
928.698768
 20
818.849358
 11
931.698768
 21
815.349358
  0
LINE
  8
CSLAYER1
  6
CONTINUOUS
 62
     3
 10
939.698768
 20
808.337161
 11
939.698768
 21
826.337161
  0
LINE
  8
CSLAYER1
  6
CONTINUOUS
 62
     3
 10
931.698768
 20
811.852334
 11
938.561587
 21
811.852334
  0
LINE
  8
CSLAYER1
  6
CONTINUOUS
 62
     3
 10
931.698768
 20
806.367506
 11
938.561587
 21
806.367506
  0
LINE
  8
CSLAYER1
  6
CONTINUOUS
 62
     3
 10
939.698768
 20
808.337161
 11
938.561587
 21
806.367506
  0
ARC
  8
CSLAYER1
  6
CONTINUOUS
 62
     3
 10
935.918723
 20
809.109920
 40
3.808617
 50
5.661633
 51
46.059028
  0
ARC
  8
CSLAYER1
  6
CONTINUOUS
 62
     3
 10
925.903024
 20
817.337161
 40
13.795744
 50
-23.426598
 51
23.426598
  0
LINE
  8
CSLAYER1
  6
CONTINUOUS
 62
     3
 10
931.698768
 20
822.821989
 11
938.561587
 21
822.821989
  0
LINE
  8
CSLAYER1
  6
CONTINUOUS
 62
     3
 10
931.698768
 20
828.306816
 11
938.561587
 21
828.306816
  0
LINE
  8
CSLAYER1
  6
CONTINUOUS
 62
     3
 10
939.698768
 20
826.337161
 11
938.561587
 21
828.306816
  0
ARC
  8
CSLAYER1
  6
CONTINUOUS
 62
     3
 10
935.918723
 20
825.564403
 40
3.808617
 50
313.940972
 51
354.338367
  0
LINE
  8
CSLAYER1
  6
CENTER
 62
     5
 10
928.698768
 20
817.337161
 11
939.698768
 21
817.337161
  0
LINE
  8
CSLAYER1
  6
CONTINUOUS
 62
     3
 10
704.198768
 20
799.837161
 11
704.198768
 21
805.837161
  0
LINE
  8
CSLAYER1
  6
CONTINUOUS
 62
     3
 10
704.198768
 20
805.837161
 11
779.698768
 21
805.837161
  0
LINE
  8
CSLAYER1
  6
CONTINUOUS
 62
     3
 10
776.698768
 20
828.306816
 11
776.698768
 21
806.367506
  0
LINE
  8
CSLAYER1
  6
CONTINUOUS
 62
     3
 10
779.698768
 20
806.587161
 11
776.698768
 21
806.587161
  0
LINE
  8
CSLAYER1
  6
CONTINUOUS
 62
     3
 10
779.698768
 20
828.087161
 11
776.698768
 21
828.087161
  0
LINE
  8
CSLAYER1
  6
CONTINUOUS
 62
     3
 10
779.698768
 20
818.849358
 11
776.698768
 21
815.349358
  0
LINE
  8
CSLAYER1
  6
CONTINUOUS
 62
     3
 10
768.698768
 20
808.337161
 11
768.698768
 21
826.337161
  0
LINE
  8
CSLAYER1
  6
CONTINUOUS
 62
     3
 10
776.698768
 20
811.852334
 11
769.835949
 21
811.852334
  0
LINE
  8
CSLAYER1
  6
CONTINUOUS
 62
     3
 10
776.698768
 20
806.367506
 11
769.835949
 21
806.367506
  0
LINE
  8
CSLAYER1
  6
CONTINUOUS
 62
     3
 10
768.698768
 20
808.337161
 11
769.835949
 21
806.367506
  0
ARC
  8
CSLAYER1
  6
CONTINUOUS
 62
     3
 10
772.478812
 20
809.109920
 40
3.808617
 50
133.940972
 51
174.338367
  0
ARC
  8
CSLAYER1
  6
CONTINUOUS
 62
     3
 10
782.494512
 20
817.337161
 40
13.795744
 50
156.573402
 51
203.426598
  0
LINE
  8
CSLAYER1
  6
CONTINUOUS
 62
     3
 10
776.698768
 20
822.821989
 11
769.835949
 21
822.821989
  0
LINE
  8
CSLAYER1
  6
CONTINUOUS
 62
     3
 10
776.698768
 20
828.306816
 11
769.835949
 21
828.306816
  0
LINE
  8
CSLAYER1
  6
CONTINUOUS
 62
     3
 10
768.698768
 20
826.337161
 11
769.835949
 21
828.306816
  0
ARC
  8
CSLAYER1
  6
CONTINUOUS
 62
     3
 10
772.478812
 20
825.564403
 40
3.808617
 50
185.661633
 51
226.059028
  0
LINE
  8
CSLAYER1
  6
CENTER
 62
     5
 10
779.698768
 20
817.337161
 11
768.698768
 21
817.337161
  0
LINE
  8
CSLAYER1
  6
CONTINUOUS
 62
     3
 10
779.698768
 20
799.837161
 11
779.698768
 21
839.837161
  0
CIRCLE
  8
CSLAYER1
  6
CONTINUOUS
 62
     3
 10
824.198768
 20
819.837161
 40
12.500000
  0
LINE
  8
CSLAYER1
  6
CONTINUOUS
 62
     3
 10
1004.198768
 20
1379.815272
 11
704.198768
 21
1379.815272
  0
LINE
  8
CSLAYER1
  6
CONTINUOUS
 62
     3
 10
900.198768
 20
839.837161
 11
900.198768
 21
1361.815272
  0
LINE
  8
CSLAYER1
  6
CONTINUOUS
 62
     3
 10
909.198768
 20
839.837161
 11
909.198768
 21
1361.815272
  0
LINE
  8
CSLAYER1
  6
CONTINUOUS
 62
     3
 10
912.198768
 20
839.837161
 11
912.198768
 21
1349.515272
  0
LINE
  8
CSLAYER1
  6
CONTINUOUS
 62
     3
 10
921.198768
 20
839.837161
 11
921.198768
 21
1349.045617
  0
LINE
  8
CSLAYER1
  6
CONTINUOUS
 62
     3
 10
1004.198768
 20
1361.815272
 11
704.198768
 21
1361.815272
  0
LINE
  8
CSLAYER1
  6
CONTINUOUS
 62
     3
 10
910.198768
 20
1351.365272
 11
909.198768
 21
1351.365272
  0
LINE
  8
CSLAYER1
  6
CONTINUOUS
 62
     3
 10
911.198768
 20
1361.815272
 11
911.198768
 21
1352.365272
  0
LINE
  8
CSLAYER1
  6
CONTINUOUS
 62
     3
 10
911.198768
 20
1352.365272
 11
910.198768
 21
1351.365272
  0
LINE
  8
CSLAYER1
  6
CONTINUOUS
 62
     3
 10
910.198768
 20
1361.815272
 11
910.198768
 21
1351.365272
  0
LINE
  8
CSLAYER1
  6
CONTINUOUS
 62
     3
 10
911.698768
 20
1349.515272
 11
917.698768
 21
1349.515272
  0
LINE
  8
CSLAYER1
  6
CONTINUOUS
 62
     3
 10
917.698768
 20
1361.815272
 11
917.698768
 21
1349.515272
  0
LINE
  8
CSLAYER1
  6
CONTINUOUS
 62
     3
 10
911.698768
 20
1361.815272
 11
911.698768
 21
1349.515272
  0
LINE
  8
CSLAYER1
  6
CONTINUOUS
 62
     3
 10
900.198768
 20
1351.365272
 11
808.198768
 21
1351.365272
  0
LINE
  8
CSLAYER1
  6
CONTINUOUS
 62
     3
 10
920.698768
 20
1349.045617
 11
920.698768
 21
1361.815272
  0
LINE
  8
CSLAYER1
  6
CONTINUOUS
 62
     3
 10
917.698768
 20
1349.265272
 11
920.698768
 21
1349.265272
  0
LINE
  8
CSLAYER1
  6
CONTINUOUS
 62
     3
 10
917.698768
 20
1358.503075
 11
920.537794
 21
1361.815272
  0
LINE
  8
CSLAYER1
  6
CONTINUOUS
 62
     3
 10
928.698768
 20
1361.815272
 11
928.698768
 21
1351.015272
  0
ARC
  8
CSLAYER1
  6
CONTINUOUS
 62
     3
 10
914.903024
 20
1360.015272
 40
13.795744
 50
-23.426598
 51
7.497043
  0
LINE
  8
CSLAYER1
  6
CONTINUOUS
 62
     3
 10
920.698768
 20
1354.530444
 11
927.561587
 21
1354.530444
  0
LINE
  8
CSLAYER1
  6
CONTINUOUS
 62
     3
 10
920.698768
 20
1349.045617
 11
927.561587
 21
1349.045617
  0
LINE
  8
CSLAYER1
  6
CONTINUOUS
 62
     3
 10
928.698768
 20
1351.015272
 11
927.561587
 21
1349.045617
  0
ARC
  8
CSLAYER1
  6
CONTINUOUS
 62
     3
 10
924.918723
 20
1351.788030
 40
3.808617
 50
5.661633
 51
46.059028
  0
LINE
  8
CSLAYER1
  6
CENTER
 62
     5
 10
799.198768
 20
1132.347373
 11
909.198768
 21
1132.347373
  0
LINE
  8
CSLAYER1
  6
CONTINUOUS
 62
     3
 10
808.198768
 20
1105.300686
 11
829.198768
 21
1105.300686
  0
LINE
  8
CSLAYER1
  6
CONTINUOUS
 62
     3
 10
808.198768
 20
1056.700686
 11
846.698768
 21
1056.700686
  0
LINE
  8
CSLAYER1
  6
CONTINUOUS
 62
     3
 10
932.698768
 20
1075.614398
 11
932.198768
 21
1075.614398
  0
LINE
  8
CSLAYER1
  6
CONTINUOUS
 62
     3
 10
921.698768
 20
1091.114398
 11
921.698768
 21
1070.114398
  0
LINE
  8
CSLAYER1
  6
CONTINUOUS
 62
     3
 10
933.698768
 20
1076.614398
 11
933.698768
 21
1084.614398
  0
LINE
  8
CSLAYER1
  6
CONTINUOUS
 62
     3
 10
912.198768
 20
1094.614398
 11
909.198768
 21
1094.614398
  0
LINE
  8
CSLAYER1
  6
CONTINUOUS
 62
     3
 10
912.198768
 20
1066.614398
 11
909.198768
 21
1066.614398
  0
LINE
  8
CSLAYER1
  6
CONTINUOUS
 62
     3
 10
923.698768
 20
1091.114398
 11
923.698768
 21
1070.114398
  0
LINE
  8
CSLAYER1
  6
CONTINUOUS
 62
     3
 10
926.198768
 20
1089.814398
 11
926.198768
 21
1071.414398
  0
LINE
  8
CSLAYER1
  6
CONTINUOUS
 62
     3
 10
926.198768
 20
1071.414398
 11
923.698768
 21
1071.414398
  0
LINE
  8
CSLAYER1
  6
CONTINUOUS
 62
     3
 10
923.698768
 20
1070.114398
 11
921.698768
 21
1070.114398
  0
LINE
  8
CSLAYER1
  6
CONTINUOUS
 62
     3
 10
926.198768
 20
1089.814398
 11
923.698768
 21
1089.814398
  0
LINE
  8
CSLAYER1
  6
CONTINUOUS
 62
     3
 10
923.698768
 20
1091.114398
 11
921.698768
 21
1091.114398
  0
LINE
  8
CSLAYER1
  6
CONTINUOUS
 62
     3
 10
932.198768
 20
1089.114398
 11
932.198768
 21
1072.114398
  0
LINE
  8
CSLAYER1
  6
CONTINUOUS
 62
     3
 10
932.698768
 20
1075.614398
 11
933.698768
 21
1076.614398
  0
LINE
  8
CSLAYER1
  6
CONTINUOUS
 62
     3
 10
933.398768
 20
1076.314398
 11
932.198768
 21
1076.314398
  0
LINE
  8
CSLAYER1
  6
CONTINUOUS
 62
     3
 10
932.698768
 20
1075.614398
 11
932.698768
 21
1085.614398
  0
LINE
  8
CSLAYER1
  6
CONTINUOUS
 62
     3
 10
931.439579
 20
1070.799443
 11
926.957957
 21
1070.799443
  0
LINE
  8
CSLAYER1
  6
CONTINUOUS
 62
     3
 10
931.439579
 20
1075.706920
 11
926.957957
 21
1075.706920
  0
LINE
  8
CSLAYER1
  6
CONTINUOUS
 62
     3
 10
932.198768
 20
1072.114398
 11
931.439579
 21
1070.799443
  0
ARC
  8
CSLAYER1
  6
CONTINUOUS
 62
     3
 10
915.957957
 20
1080.614398
 40
16.240811
 50
-17.587954
 51
17.587954
  0
ARC
  8
CSLAYER1
  6
CONTINUOUS
 62
     3
 10
927.857844
 20
1073.253182
 40
4.341619
 50
-27.480777
 51
34.413868
  0
LINE
  8
CSLAYER1
  6
CONTINUOUS
 62
     3
 10
932.198768
 20
1089.114398
 11
931.439579
 21
1090.429352
  0
ARC
  8
CSLAYER1
  6
CONTINUOUS
 62
     3
 10
927.857844
 20
1087.975613
 40
4.341619
 50
-34.413868
 51
27.480777
  0
LINE
  8
CSLAYER1
  6
CONTINUOUS
 62
     3
 10
926.198768
 20
1072.114398
 11
926.957957
 21
1070.799443
  0
ARC
  8
CSLAYER1
  6
CONTINUOUS
 62
     3
 10
942.439579
 20
1080.614398
 40
16.240811
 50
162.412046
 51
197.587954
  0
ARC
  8
CSLAYER1
  6
CONTINUOUS
 62
     3
 10
930.539692
 20
1073.253182
 40
4.341619
 50
145.586132
 51
207.480777
  0
LINE
  8
CSLAYER1
  6
CONTINUOUS
 62
     3
 10
926.198768
 20
1089.114398
 11
926.957957
 21
1090.429352
  0
ARC
  8
CSLAYER1
  6
CONTINUOUS
 62
     3
 10
930.539692
 20
1087.975613
 40
4.341619
 50
152.519223
 51
214.413868
  0
LINE
  8
CSLAYER1
  6
CONTINUOUS
 62
     3
 10
931.439579
 20
1090.429352
 11
926.957957
 21
1090.429352
  0
LINE
  8
CSLAYER1
  6
CONTINUOUS
 62
     3
 10
931.439579
 20
1085.521875
 11
926.957957
 21
1085.521875
  0
LINE
  8
CSLAYER1
  6
CONTINUOUS
 62
     3
 10
932.698768
 20
1085.614398
 11
932.198768
 21
1085.614398
  0
LINE
  8
CSLAYER1
  6
CONTINUOUS
 62
     3
 10
932.698768
 20
1085.614398
 11
933.698768
 21
1084.614398
  0
LINE
  8
CSLAYER1
  6
CONTINUOUS
 62
     3
 10
933.398768
 20
1084.914398
 11
932.198768
 21
1084.914398
  0
LINE
  8
CSLAYER1
  6
CONTINUOUS
 62
     3
 10
923.698768
 20
1082.515845
 11
926.198768
 21
1079.146280
  0
LINE
  8
CSLAYER1
  6
CONTINUOUS
 62
     3
 10
921.198768
 20
1073.114398
 11
921.698768
 21
1073.114398
  0
LINE
  8
CSLAYER1
  6
CONTINUOUS
 62
     3
 10
921.198768
 20
1088.114398
 11
921.698768
 21
1088.114398
  0
LINE
  8
CSLAYER1
  6
CENTER
 62
     5
 10
864.698768
 20
1145.947373
 11
864.698768
 21
873.371719
  0
LINE
  8
CSLAYER1
  6
CONTINUOUS
 62
     3
 10
893.698768
 20
853.119623
 11
893.698768
 21
907.983514
  0
LINE
  8
CSLAYER1
  6
CONTINUOUS
 62
     3
 10
887.698768
 20
853.119623
 11
887.698768
 21
907.983514
  0
LINE
  8
CSLAYER1
  6
CONTINUOUS
 62
     3
 10
835.698768
 20
853.119623
 11
835.698768
 21
907.983514
  0
LINE
  8
CSLAYER1
  6
CONTINUOUS
 62
     3
 10
841.698768
 20
853.119623
 11
841.698768
 21
907.983514
  0
LINE
  8
CSLAYER1
  6
CONTINUOUS
 62
     3
 10
887.198768
 20
1119.747373
 11
887.198768
 21
1144.947373
  0
LINE
  8
CSLAYER1
  6
CONTINUOUS
 62
     3
 10
842.198768
 20
1119.747373
 11
842.198768
 21
1144.947373
  0
LINE
  8
CSLAYER1
  6
CONTINUOUS
 62
     3
 10
843.198768
 20
1145.947373
 11
886.198768
 21
1145.947373
  0
LINE
  8
CSLAYER1
  6
CONTINUOUS
 62
     3
 10
842.198768
 20
1144.947373
 11
843.198768
 21
1145.947373
  0
LINE
  8
CSLAYER1
  6
CONTINUOUS
 62
     3
 10
886.198768
 20
1145.947373
 11
887.198768
 21
1144.947373
  0
POINT
  8
CSLAYER1
 62
     3
 10
864.698768
 20
1132.347373
  0
LINE
  8
CSLAYER1
  6
CONTINUOUS
 62
     3
 10
888.198768
 20
1140.347373
 11
887.198768
 21
1140.347373
  0
LINE
  8
CSLAYER1
  6
CONTINUOUS
 62
     3
 10
842.198768
 20
1140.347373
 11
841.198768
 21
1140.347373
  0
LINE
  8
CSLAYER1
  6
CENTER
 62
     5
 10
835.698768
 20
891.918651
 11
893.698768
 21
891.918651
  0
LINE
  8
CSLAYER1
  6
CONTINUOUS
 62
     3
 10
796.198768
 20
873.371719
 11
799.198768
 21
873.371719
  0
LINE
  8
CSLAYER1
  6
CONTINUOUS
 62
     3
 10
835.698768
 20
853.119623
 11
841.698768
 21
853.119623
  0
LINE
  8
CSLAYER1
  6
CONTINUOUS
 62
     3
 10
835.698768
 20
907.983514
 11
841.698768
 21
907.983514
  0
LINE
  8
CSLAYER1
  6
CONTINUOUS
 62
     3
 10
887.698768
 20
907.983514
 11
893.698768
 21
907.983514
  0
LINE
  8
CSLAYER1
  6
CONTINUOUS
 62
     3
 10
887.698768
 20
853.119623
 11
893.698768
 21
853.119623
  0
LINE
  8
CSLAYER1
  6
CONTINUOUS
 62
     3
 10
841.698768
 20
873.371719
 11
887.698768
 21
873.371719
  0
LINE
  8
CSLAYER1
  6
CONTINUOUS
 62
     3
 10
893.698768
 20
873.371719
 11
900.198768
 21
873.371719
  0
LINE
  8
CSLAYER1
  6
CONTINUOUS
 62
     3
 10
909.198768
 20
873.371719
 11
912.198768
 21
873.371719
  0
LINE
  8
CSLAYER1
  6
CONTINUOUS
 62
     3
 10
887.611246
 20
1028.355602
 11
892.094122
 21
1011.066376
  0
LINE
  8
CSLAYER1
  6
CONTINUOUS
 62
     3
 10
887.611246
 20
1028.355602
 11
887.349346
 21
1029.320047
  0
LINE
  8
CSLAYER1
  6
CONTINUOUS
 62
     3
 10
887.349346
 20
1029.320047
 11
886.915062
 21
1030.269755
  0
LINE
  8
CSLAYER1
  6
CONTINUOUS
 62
     3
 10
886.915062
 20
1030.269755
 11
886.311698
 21
1031.197499
  0
LINE
  8
CSLAYER1
  6
CONTINUOUS
 62
     3
 10
886.311698
 20
1031.197499
 11
885.543847
 21
1032.096218
  0
LINE
  8
CSLAYER1
  6
CONTINUOUS
 62
     3
 10
885.543847
 20
1032.096218
 11
884.617352
 21
1032.959072
  0
LINE
  8
CSLAYER1
  6
CONTINUOUS
 62
     3
 10
884.617352
 20
1032.959072
 11
883.539265
 21
1033.779495
  0
LINE
  8
CSLAYER1
  6
CONTINUOUS
 62
     3
 10
883.539265
 20
1033.779495
 11
882.317790
 21
1034.551243
  0
LINE
  8
CSLAYER1
  6
CONTINUOUS
 62
     3
 10
882.317790
 20
1034.551243
 11
880.962224
 21
1035.268441
  0
LINE
  8
CSLAYER1
  6
CONTINUOUS
 62
     3
 10
880.962224
 20
1035.268441
 11
879.482883
 21
1035.925633
  0
LINE
  8
CSLAYER1
  6
CONTINUOUS
 62
     3
 10
879.482883
 20
1035.925633
 11
877.891026
 21
1036.517816
  0
LINE
  8
CSLAYER1
  6
CONTINUOUS
 62
     3
 10
877.891026
 20
1036.517816
 11
876.198768
 21
1037.040483
  0
LINE
  8
CSLAYER1
  6
CONTINUOUS
 62
     3
 10
876.198768
 20
1037.040483
 11
874.418988
 21
1037.489656
  0
LINE
  8
CSLAYER1
  6
CONTINUOUS
 62
     3
 10
874.418988
 20
1037.489656
 11
872.565231
 21
1037.861918
  0
LINE
  8
CSLAYER1
  6
CONTINUOUS
 62
     3
 10
872.565231
 20
1037.861918
 11
870.651606
 21
1038.154435
  0
LINE
  8
CSLAYER1
  6
CONTINUOUS
 62
     3
 10
870.651606
 20
1038.154435
 11
868.692676
 21
1038.364980
  0
LINE
  8
CSLAYER1
  6
CONTINUOUS
 62
     3
 10
868.692676
 20
1038.364980
 11
866.703350
 21
1038.491951
  0
LINE
  8
CSLAYER1
  6
CONTINUOUS
 62
     3
 10
866.703350
 20
1038.491951
 11
864.698768
 21
1038.534383
  0
LINE
  8
CSLAYER1
  6
CONTINUOUS
 62
     3
 10
841.786290
 20
1028.355602
 11
837.303414
 21
1011.066376
  0
LINE
  8
CSLAYER1
  6
CONTINUOUS
 62
     3
 10
841.786290
 20
1028.355602
 11
842.048190
 21
1029.320047
  0
LINE
  8
CSLAYER1
  6
CONTINUOUS
 62
     3
 10
842.048190
 20
1029.320047
 11
842.482474
 21
1030.269755
  0
LINE
  8
CSLAYER1
  6
CONTINUOUS
 62
     3
 10
842.482474
 20
1030.269755
 11
843.085838
 21
1031.197499
  0
LINE
  8
CSLAYER1
  6
CONTINUOUS
 62
     3
 10
843.085838
 20
1031.197499
 11
843.853689
 21
1032.096218
  0
LINE
  8
CSLAYER1
  6
CONTINUOUS
 62
     3
 10
843.853689
 20
1032.096218
 11
844.780184
 21
1032.959072
  0
LINE
  8
CSLAYER1
  6
CONTINUOUS
 62
     3
 10
844.780184
 20
1032.959072
 11
845.858271
 21
1033.779495
  0
LINE
  8
CSLAYER1
  6
CONTINUOUS
 62
     3
 10
845.858271
 20
1033.779495
 11
847.079746
 21
1034.551243
  0
LINE
  8
CSLAYER1
  6
CONTINUOUS
 62
     3
 10
847.079746
 20
1034.551243
 11
848.435312
 21
1035.268441
  0
LINE
  8
CSLAYER1
  6
CONTINUOUS
 62
     3
 10
848.435312
 20
1035.268441
 11
849.914653
 21
1035.925633
  0
LINE
  8
CSLAYER1
  6
CONTINUOUS
 62
     3
 10
849.914653
 20
1035.925633
 11
851.506510
 21
1036.517816
  0
LINE
  8
CSLAYER1
  6
CONTINUOUS
 62
     3
 10
851.506510
 20
1036.517816
 11
853.198768
 21
1037.040483
  0
LINE
  8
CSLAYER1
  6
CONTINUOUS
 62
     3
 10
853.198768
 20
1037.040483
 11
854.978548
 21
1037.489656
  0
LINE
  8
CSLAYER1
  6
CONTINUOUS
 62
     3
 10
854.978548
 20
1037.489656
 11
856.832305
 21
1037.861918
  0
LINE
  8
CSLAYER1
  6
CONTINUOUS
 62
     3
 10
856.832305
 20
1037.861918
 11
858.745930
 21
1038.154435
  0
LINE
  8
CSLAYER1
  6
CONTINUOUS
 62
     3
 10
858.745930
 20
1038.154435
 11
860.704860
 21
1038.364980
  0
LINE
  8
CSLAYER1
  6
CONTINUOUS
 62
     3
 10
860.704860
 20
1038.364980
 11
862.694186
 21
1038.491951
  0
LINE
  8
CSLAYER1
  6
CONTINUOUS
 62
     3
 10
862.694186
 20
1038.491951
 11
864.698768
 21
1038.534383
  0
LINE
  8
CSLAYER1
  6
CONTINUOUS
 62
     3
 10
882.698768
 20
1034.310535
 11
882.698768
 21
1120.682253
  0
LINE
  8
CSLAYER1
  6
CONTINUOUS
 62
     3
 10
882.698768
 20
1120.682253
 11
882.630272
 21
1121.442824
  0
LINE
  8
CSLAYER1
  6
CONTINUOUS
 62
     3
 10
882.630272
 20
1121.442824
 11
882.425307
 21
1122.197606
  0
LINE
  8
CSLAYER1
  6
CONTINUOUS
 62
     3
 10
882.425307
 20
1122.197606
 11
882.085433
 21
1122.940856
  0
LINE
  8
CSLAYER1
  6
CONTINUOUS
 62
     3
 10
882.085433
 20
1122.940856
 11
881.613235
 21
1123.666917
  0
LINE
  8
CSLAYER1
  6
CONTINUOUS
 62
     3
 10
881.613235
 20
1123.666917
 11
881.012308
 21
1124.370262
  0
LINE
  8
CSLAYER1
  6
CONTINUOUS
 62
     3
 10
881.012308
 20
1124.370262
 11
880.287225
 21
1125.045539
  0
LINE
  8
CSLAYER1
  6
CONTINUOUS
 62
     3
 10
880.287225
 20
1125.045539
 11
879.443505
 21
1125.687610
  0
LINE
  8
CSLAYER1
  6
CONTINUOUS
 62
     3
 10
879.443505
 20
1125.687610
 11
878.487568
 21
1126.291586
  0
LINE
  8
CSLAYER1
  6
CONTINUOUS
 62
     3
 10
878.487568
 20
1126.291586
 11
877.426690
 21
1126.852872
  0
LINE
  8
CSLAYER1
  6
CONTINUOUS
 62
     3
 10
877.426690
 20
1126.852872
 11
876.268945
 21
1127.367196
  0
LINE
  8
CSLAYER1
  6
CONTINUOUS
 62
     3
 10
876.268945
 20
1127.367196
 11
875.023144
 21
1127.830643
  0
LINE
  8
CSLAYER1
  6
CONTINUOUS
 62
     3
 10
875.023144
 20
1127.830643
 11
873.698768
 21
1128.239687
  0
LINE
  8
CSLAYER1
  6
CONTINUOUS
 62
     3
 10
873.698768
 20
1128.239687
 11
872.305897
 21
1128.591214
  0
LINE
  8
CSLAYER1
  6
CONTINUOUS
 62
     3
 10
872.305897
 20
1128.591214
 11
870.855130
 21
1128.882549
  0
LINE
  8
CSLAYER1
  6
CONTINUOUS
 62
     3
 10
870.855130
 20
1128.882549
 11
869.357511
 21
1129.111475
  0
LINE
  8
CSLAYER1
  6
CONTINUOUS
 62
     3
 10
869.357511
 20
1129.111475
 11
867.824435
 21
1129.276250
  0
LINE
  8
CSLAYER1
  6
CONTINUOUS
 62
     3
 10
867.824435
 20
1129.276250
 11
866.267571
 21
1129.375619
  0
LINE
  8
CSLAYER1
  6
CONTINUOUS
 62
     3
 10
866.267571
 20
1129.375619
 11
864.698768
 21
1129.408826
  0
LINE
  8
CSLAYER1
  6
CONTINUOUS
 62
     3
 10
864.698768
 20
1129.408826
 11
863.129965
 21
1129.375619
  0
LINE
  8
CSLAYER1
  6
CONTINUOUS
 62
     3
 10
863.129965
 20
1129.375619
 11
861.573101
 21
1129.276250
  0
LINE
  8
CSLAYER1
  6
CONTINUOUS
 62
     3
 10
861.573101
 20
1129.276250
 11
860.040025
 21
1129.111475
  0
LINE
  8
CSLAYER1
  6
CONTINUOUS
 62
     3
 10
860.040025
 20
1129.111475
 11
858.542405
 21
1128.882549
  0
LINE
  8
CSLAYER1
  6
CONTINUOUS
 62
     3
 10
858.542405
 20
1128.882549
 11
857.091639
 21
1128.591214
  0
LINE
  8
CSLAYER1
  6
CONTINUOUS
 62
     3
 10
857.091639
 20
1128.591214
 11
855.698768
 21
1128.239687
  0
LINE
  8
CSLAYER1
  6
CONTINUOUS
 62
     3
 10
855.698768
 20
1128.239687
 11
854.374392
 21
1127.830643
  0
LINE
  8
CSLAYER1
  6
CONTINUOUS
 62
     3
 10
854.374392
 20
1127.830643
 11
853.128591
 21
1127.367196
  0
LINE
  8
CSLAYER1
  6
CONTINUOUS
 62
     3
 10
853.128591
 20
1127.367196
 11
851.970846
 21
1126.852872
  0
LINE
  8
CSLAYER1
  6
CONTINUOUS
 62
     3
 10
851.970846
 20
1126.852872
 11
850.909968
 21
1126.291586
  0
LINE
  8
CSLAYER1
  6
CONTINUOUS
 62
     3
 10
850.909968
 20
1126.291586
 11
849.954031
 21
1125.687610
  0
LINE
  8
CSLAYER1
  6
CONTINUOUS
 62
     3
 10
849.954031
 20
1125.687610
 11
849.110311
 21
1125.045539
  0
LINE
  8
CSLAYER1
  6
CONTINUOUS
 62
     3
 10
849.110311
 20
1125.045539
 11
848.385228
 21
1124.370262
  0
LINE
  8
CSLAYER1
  6
CONTINUOUS
 62
     3
 10
848.385228
 20
1124.370262
 11
847.784301
 21
1123.666917
  0
LINE
  8
CSLAYER1
  6
CONTINUOUS
 62
     3
 10
847.784301
 20
1123.666917
 11
847.312103
 21
1122.940856
  0
LINE
  8
CSLAYER1
  6
CONTINUOUS
 62
     3
 10
847.312103
 20
1122.940856
 11
846.972228
 21
1122.197606
  0
LINE
  8
CSLAYER1
  6
CONTINUOUS
 62
     3
 10
846.972228
 20
1122.197606
 11
846.767263
 21
1121.442824
  0
LINE
  8
CSLAYER1
  6
CONTINUOUS
 62
     3
 10
846.767263
 20
1121.442824
 11
846.698768
 21
1120.682253
  0
LINE
  8
CSLAYER1
  6
CONTINUOUS
 62
     3
 10
892.198768
 20
1009.904392
 11
892.198768
 21
979.315497
  0
LINE
  8
CSLAYER1
  6
CONTINUOUS
 62
     3
 10
892.198768
 20
1009.904392
 11
892.094122
 21
1011.066376
  0
LINE
  8
CSLAYER1
  6
CONTINUOUS
 62
     3
 10
892.094122
 20
1011.066376
 11
891.780981
 21
1012.219516
  0
LINE
  8
CSLAYER1
  6
CONTINUOUS
 62
     3
 10
891.780981
 20
1012.219516
 11
891.261728
 21
1013.355036
  0
LINE
  8
CSLAYER1
  6
CONTINUOUS
 62
     3
 10
891.261728
 20
1013.355036
 11
890.540315
 21
1014.464295
  0
LINE
  8
CSLAYER1
  6
CONTINUOUS
 62
     3
 10
890.540315
 20
1014.464295
 11
889.622232
 21
1015.538851
  0
LINE
  8
CSLAYER1
  6
CONTINUOUS
 62
     3
 10
889.622232
 20
1015.538851
 11
888.514466
 21
1016.570525
  0
LINE
  8
CSLAYER1
  6
CONTINUOUS
 62
     3
 10
888.514466
 20
1016.570525
 11
887.225449
 21
1017.551465
  0
LINE
  8
CSLAYER1
  6
CONTINUOUS
 62
     3
 10
887.225449
 20
1017.551465
 11
885.764990
 21
1018.474207
  0
LINE
  8
CSLAYER1
  6
CONTINUOUS
 62
     3
 10
885.764990
 20
1018.474207
 11
884.144204
 21
1019.331727
  0
LINE
  8
CSLAYER1
  6
CONTINUOUS
 62
     3
 10
884.144204
 20
1019.331727
 11
882.375427
 21
1020.117500
  0
LINE
  8
CSLAYER1
  6
CONTINUOUS
 62
     3
 10
882.375427
 20
1020.117500
 11
880.472120
 21
1020.825544
  0
LINE
  8
CSLAYER1
  6
CONTINUOUS
 62
     3
 10
880.472120
 20
1020.825544
 11
878.448768
 21
1021.450472
  0
LINE
  8
CSLAYER1
  6
CONTINUOUS
 62
     3
 10
878.448768
 20
1021.450472
 11
876.320770
 21
1021.987528
  0
LINE
  8
CSLAYER1
  6
CONTINUOUS
 62
     3
 10
876.320770
 20
1021.987528
 11
874.104322
 21
1022.432623
  0
LINE
  8
CSLAYER1
  6
CONTINUOUS
 62
     3
 10
874.104322
 20
1022.432623
 11
871.816292
 21
1022.782371
  0
LINE
  8
CSLAYER1
  6
CONTINUOUS
 62
     3
 10
871.816292
 20
1022.782371
 11
869.474093
 21
1023.034110
  0
LINE
  8
CSLAYER1
  6
CONTINUOUS
 62
     3
 10
869.474093
 20
1023.034110
 11
867.095551
 21
1023.185924
  0
LINE
  8
CSLAYER1
  6
CONTINUOUS
 62
     3
 10
867.095551
 20
1023.185924
 11
864.698768
 21
1023.236657
  0
LINE
  8
CSLAYER1
  6
CONTINUOUS
 62
     3
 10
864.698768
 20
1023.236657
 11
862.301985
 21
1023.185924
  0
LINE
  8
CSLAYER1
  6
CONTINUOUS
 62
     3
 10
862.301985
 20
1023.185924
 11
859.923443
 21
1023.034110
  0
LINE
  8
CSLAYER1
  6
CONTINUOUS
 62
     3
 10
859.923443
 20
1023.034110
 11
857.581244
 21
1022.782371
  0
LINE
  8
CSLAYER1
  6
CONTINUOUS
 62
     3
 10
857.581244
 20
1022.782371
 11
855.293214
 21
1022.432623
  0
LINE
  8
CSLAYER1
  6
CONTINUOUS
 62
     3
 10
855.293214
 20
1022.432623
 11
853.076766
 21
1021.987528
  0
LINE
  8
CSLAYER1
  6
CONTINUOUS
 62
     3
 10
853.076766
 20
1021.987528
 11
850.948768
 21
1021.450472
  0
LINE
  8
CSLAYER1
  6
CONTINUOUS
 62
     3
 10
850.948768
 20
1021.450472
 11
848.925416
 21
1020.825544
  0
LINE
  8
CSLAYER1
  6
CONTINUOUS
 62
     3
 10
848.925416
 20
1020.825544
 11
847.022109
 21
1020.117500
  0
LINE
  8
CSLAYER1
  6
CONTINUOUS
 62
     3
 10
847.022109
 20
1020.117500
 11
845.253331
 21
1019.331727
  0
LINE
  8
CSLAYER1
  6
CONTINUOUS
 62
     3
 10
845.253331
 20
1019.331727
 11
843.632546
 21
1018.474207
  0
LINE
  8
CSLAYER1
  6
CONTINUOUS
 62
     3
 10
843.632546
 20
1018.474207
 11
842.172087
 21
1017.551465
  0
LINE
  8
CSLAYER1
  6
CONTINUOUS
 62
     3
 10
842.172087
 20
1017.551465
 11
840.883069
 21
1016.570525
  0
LINE
  8
CSLAYER1
  6
CONTINUOUS
 62
     3
 10
840.883069
 20
1016.570525
 11
839.775304
 21
1015.538851
  0
LINE
  8
CSLAYER1
  6
CONTINUOUS
 62
     3
 10
839.775304
 20
1015.538851
 11
838.857221
 21
1014.464295
  0
LINE
  8
CSLAYER1
  6
CONTINUOUS
 62
     3
 10
838.857221
 20
1014.464295
 11
838.135808
 21
1013.355036
  0
LINE
  8
CSLAYER1
  6
CONTINUOUS
 62
     3
 10
838.135808
 20
1013.355036
 11
837.616555
 21
1012.219516
  0
LINE
  8
CSLAYER1
  6
CONTINUOUS
 62
     3
 10
837.616555
 20
1012.219516
 11
837.303414
 21
1011.066376
  0
LINE
  8
CSLAYER1
  6
CONTINUOUS
 62
     3
 10
837.303414
 20
1011.066376
 11
837.198768
 21
1009.904392
  0
LINE
  8
CSLAYER1
  6
CONTINUOUS
 62
     3
 10
837.198768
 20
1009.904392
 11
837.198768
 21
979.315497
  0
LINE
  8
CSLAYER1
  6
CONTINUOUS
 62
     3
 10
888.998768
 20
909.398020
 11
888.998768
 21
979.315497
  0
LINE
  8
CSLAYER1
  6
CONTINUOUS
 62
     3
 10
892.198768
 20
979.315497
 11
892.094122
 21
980.477480
  0
LINE
  8
CSLAYER1
  6
CONTINUOUS
 62
     3
 10
892.094122
 20
980.477480
 11
891.780981
 21
981.630620
  0
LINE
  8
CSLAYER1
  6
CONTINUOUS
 62
     3
 10
891.780981
 20
981.630620
 11
891.261728
 21
982.766141
  0
LINE
  8
CSLAYER1
  6
CONTINUOUS
 62
     3
 10
891.261728
 20
982.766141
 11
890.540315
 21
983.875400
  0
LINE
  8
CSLAYER1
  6
CONTINUOUS
 62
     3
 10
890.540315
 20
983.875400
 11
889.622232
 21
984.949955
  0
LINE
  8
CSLAYER1
  6
CONTINUOUS
 62
     3
 10
889.622232
 20
984.949955
 11
888.514466
 21
985.981629
  0
LINE
  8
CSLAYER1
  6
CONTINUOUS
 62
     3
 10
888.514466
 20
985.981629
 11
887.225449
 21
986.962569
  0
LINE
  8
CSLAYER1
  6
CONTINUOUS
 62
     3
 10
887.225449
 20
986.962569
 11
885.764990
 21
987.885311
  0
LINE
  8
CSLAYER1
  6
CONTINUOUS
 62
     3
 10
885.764990
 20
987.885311
 11
884.144204
 21
988.742831
  0
LINE
  8
CSLAYER1
  6
CONTINUOUS
 62
     3
 10
884.144204
 20
988.742831
 11
882.375427
 21
989.528604
  0
LINE
  8
CSLAYER1
  6
CONTINUOUS
 62
     3
 10
882.375427
 20
989.528604
 11
880.472120
 21
990.236648
  0
LINE
  8
CSLAYER1
  6
CONTINUOUS
 62
     3
 10
880.472120
 20
990.236648
 11
878.448768
 21
990.861576
  0
LINE
  8
CSLAYER1
  6
CONTINUOUS
 62
     3
 10
878.448768
 20
990.861576
 11
876.320770
 21
991.398632
  0
LINE
  8
CSLAYER1
  6
CONTINUOUS
 62
     3
 10
876.320770
 20
991.398632
 11
874.104322
 21
991.843727
  0
LINE
  8
CSLAYER1
  6
CONTINUOUS
 62
     3
 10
874.104322
 20
991.843727
 11
871.816292
 21
992.193475
  0
LINE
  8
CSLAYER1
  6
CONTINUOUS
 62
     3
 10
871.816292
 20
992.193475
 11
869.474093
 21
992.445214
  0
LINE
  8
CSLAYER1
  6
CONTINUOUS
 62
     3
 10
869.474093
 20
992.445214
 11
867.095551
 21
992.597028
  0
LINE
  8
CSLAYER1
  6
CONTINUOUS
 62
     3
 10
867.095551
 20
992.597028
 11
864.698768
 21
992.647761
  0
LINE
  8
CSLAYER1
  6
CONTINUOUS
 62
     3
 10
864.698768
 20
992.647761
 11
862.301985
 21
992.597028
  0
LINE
  8
CSLAYER1
  6
CONTINUOUS
 62
     3
 10
862.301985
 20
992.597028
 11
859.923443
 21
992.445214
  0
LINE
  8
CSLAYER1
  6
CONTINUOUS
 62
     3
 10
859.923443
 20
992.445214
 11
857.581244
 21
992.193475
  0
LINE
  8
CSLAYER1
  6
CONTINUOUS
 62
     3
 10
857.581244
 20
992.193475
 11
855.293214
 21
991.843727
  0
LINE
  8
CSLAYER1
  6
CONTINUOUS
 62
     3
 10
855.293214
 20
991.843727
 11
853.076766
 21
991.398632
  0
LINE
  8
CSLAYER1
  6
CONTINUOUS
 62
     3
 10
853.076766
 20
991.398632
 11
850.948768
 21
990.861576
  0
LINE
  8
CSLAYER1
  6
CONTINUOUS
 62
     3
 10
850.948768
 20
990.861576
 11
848.925416
 21
990.236648
  0
LINE
  8
CSLAYER1
  6
CONTINUOUS
 62
     3
 10
848.925416
 20
990.236648
 11
847.022109
 21
989.528604
  0
LINE
  8
CSLAYER1
  6
CONTINUOUS
 62
     3
 10
847.022109
 20
989.528604
 11
845.253331
 21
988.742831
  0
LINE
  8
CSLAYER1
  6
CONTINUOUS
 62
     3
 10
845.253331
 20
988.742831
 11
843.632546
 21
987.885311
  0
LINE
  8
CSLAYER1
  6
CONTINUOUS
 62
     3
 10
843.632546
 20
987.885311
 11
842.172087
 21
986.962569
  0
LINE
  8
CSLAYER1
  6
CONTINUOUS
 62
     3
 10
842.172087
 20
986.962569
 11
840.883069
 21
985.981629
  0
LINE
  8
CSLAYER1
  6
CONTINUOUS
 62
     3
 10
840.883069
 20
985.981629
 11
839.775304
 21
984.949955
  0
LINE
  8
CSLAYER1
  6
CONTINUOUS
 62
     3
 10
839.775304
 20
984.949955
 11
838.857221
 21
983.875400
  0
LINE
  8
CSLAYER1
  6
CONTINUOUS
 62
     3
 10
838.857221
 20
983.875400
 11
838.135808
 21
982.766141
  0
LINE
  8
CSLAYER1
  6
CONTINUOUS
 62
     3
 10
838.135808
 20
982.766141
 11
837.616555
 21
981.630620
  0
LINE
  8
CSLAYER1
  6
CONTINUOUS
 62
     3
 10
837.616555
 20
981.630620
 11
837.303414
 21
980.477480
  0
LINE
  8
CSLAYER1
  6
CONTINUOUS
 62
     3
 10
837.303414
 20
980.477480
 11
837.198768
 21
979.315497
  0
LINE
  8
CSLAYER1
  6
CONTINUOUS
 62
     3
 10
837.198768
 20
979.315497
 11
837.303414
 21
978.153513
  0
LINE
  8
CSLAYER1
  6
CONTINUOUS
 62
     3
 10
837.303414
 20
978.153513
 11
837.616555
 21
977.000373
  0
LINE
  8
CSLAYER1
  6
CONTINUOUS
 62
     3
 10
837.616555
 20
977.000373
 11
838.135808
 21
975.864853
  0
LINE
  8
CSLAYER1
  6
CONTINUOUS
 62
     3
 10
838.135808
 20
975.864853
 11
838.857221
 21
974.755593
  0
LINE
  8
CSLAYER1
  6
CONTINUOUS
 62
     3
 10
838.857221
 20
974.755593
 11
839.775304
 21
973.681038
  0
LINE
  8
CSLAYER1
  6
CONTINUOUS
 62
     3
 10
839.775304
 20
973.681038
 11
840.398768
 21
973.100399
  0
LINE
  8
CSLAYER1
  6
CONTINUOUS
 62
     3
 10
888.998768
 20
973.100399
 11
889.622232
 21
973.681038
  0
LINE
  8
CSLAYER1
  6
CONTINUOUS
 62
     3
 10
889.622232
 20
973.681038
 11
890.540315
 21
974.755593
  0
LINE
  8
CSLAYER1
  6
CONTINUOUS
 62
     3
 10
890.540315
 20
974.755593
 11
891.261728
 21
975.864853
  0
LINE
  8
CSLAYER1
  6
CONTINUOUS
 62
     3
 10
891.261728
 20
975.864853
 11
891.780981
 21
977.000373
  0
LINE
  8
CSLAYER1
  6
CONTINUOUS
 62
     3
 10
891.780981
 20
977.000373
 11
892.094122
 21
978.153513
  0
LINE
  8
CSLAYER1
  6
CONTINUOUS
 62
     3
 10
892.094122
 20
978.153513
 11
892.198768
 21
979.315497
  0
LINE
  8
CSLAYER1
  6
CONTINUOUS
 62
     3
 10
888.998768
 20
979.315497
 11
888.906299
 21
980.342267
  0
LINE
  8
CSLAYER1
  6
CONTINUOUS
 62
     3
 10
888.906299
 20
980.342267
 11
888.629596
 21
981.361224
  0
LINE
  8
CSLAYER1
  6
CONTINUOUS
 62
     3
 10
888.629596
 20
981.361224
 11
888.170765
 21
982.364611
  0
LINE
  8
CSLAYER1
  6
CONTINUOUS
 62
     3
 10
888.170765
 20
982.364611
 11
887.533299
 21
983.344793
  0
LINE
  8
CSLAYER1
  6
CONTINUOUS
 62
     3
 10
887.533299
 20
983.344793
 11
886.722047
 21
984.294309
  0
LINE
  8
CSLAYER1
  6
CONTINUOUS
 62
     3
 10
886.722047
 20
984.294309
 11
885.743185
 21
985.205933
  0
LINE
  8
CSLAYER1
  6
CONTINUOUS
 62
     3
 10
885.743185
 20
985.205933
 11
884.604163
 21
986.072728
  0
LINE
  8
CSLAYER1
  6
CONTINUOUS
 62
     3
 10
884.604163
 20
986.072728
 11
883.313648
 21
986.888096
  0
LINE
  8
CSLAYER1
  6
CONTINUOUS
 62
     3
 10
883.313648
 20
986.888096
 11
881.881463
 21
987.645832
  0
LINE
  8
CSLAYER1
  6
CONTINUOUS
 62
     3
 10
881.881463
 20
987.645832
 11
880.318507
 21
988.340169
  0
LINE
  8
CSLAYER1
  6
CONTINUOUS
 62
     3
 10
880.318507
 20
988.340169
 11
878.636675
 21
988.965823
  0
LINE
  8
CSLAYER1
  6
CONTINUOUS
 62
     3
 10
878.636675
 20
988.965823
 11
876.848768
 21
989.518032
  0
LINE
  8
CSLAYER1
  6
CONTINUOUS
 62
     3
 10
876.848768
 20
989.518032
 11
874.968392
 21
989.992594
  0
LINE
  8
CSLAYER1
  6
CONTINUOUS
 62
     3
 10
874.968392
 20
989.992594
 11
873.009857
 21
990.385897
  0
LINE
  8
CSLAYER1
  6
CONTINUOUS
 62
     3
 10
873.009857
 20
990.385897
 11
870.988071
 21
990.694947
  0
LINE
  8
CSLAYER1
  6
CONTINUOUS
 62
     3
 10
870.988071
 20
990.694947
 11
868.918419
 21
990.917392
  0
LINE
  8
CSLAYER1
  6
CONTINUOUS
 62
     3
 10
868.918419
 20
990.917392
 11
866.816652
 21
991.051541
  0
LINE
  8
CSLAYER1
  6
CONTINUOUS
 62
     3
 10
866.816652
 20
991.051541
 11
864.698768
 21
991.096370
  0
LINE
  8
CSLAYER1
  6
CONTINUOUS
 62
     3
 10
864.698768
 20
991.096370
 11
862.580883
 21
991.051541
  0
LINE
  8
CSLAYER1
  6
CONTINUOUS
 62
     3
 10
862.580883
 20
991.051541
 11
860.479117
 21
990.917392
  0
LINE
  8
CSLAYER1
  6
CONTINUOUS
 62
     3
 10
860.479117
 20
990.917392
 11
858.409465
 21
990.694947
  0
LINE
  8
CSLAYER1
  6
CONTINUOUS
 62
     3
 10
858.409465
 20
990.694947
 11
856.387678
 21
990.385897
  0
LINE
  8
CSLAYER1
  6
CONTINUOUS
 62
     3
 10
856.387678
 20
990.385897
 11
854.429144
 21
989.992594
  0
LINE
  8
CSLAYER1
  6
CONTINUOUS
 62
     3
 10
854.429144
 20
989.992594
 11
852.548768
 21
989.518032
  0
LINE
  8
CSLAYER1
  6
CONTINUOUS
 62
     3
 10
852.548768
 20
989.518032
 11
850.760860
 21
988.965823
  0
LINE
  8
CSLAYER1
  6
CONTINUOUS
 62
     3
 10
850.760860
 20
988.965823
 11
849.079029
 21
988.340169
  0
LINE
  8
CSLAYER1
  6
CONTINUOUS
 62
     3
 10
849.079029
 20
988.340169
 11
847.516073
 21
987.645832
  0
LINE
  8
CSLAYER1
  6
CONTINUOUS
 62
     3
 10
847.516073
 20
987.645832
 11
846.083888
 21
986.888096
  0
LINE
  8
CSLAYER1
  6
CONTINUOUS
 62
     3
 10
846.083888
 20
986.888096
 11
844.793373
 21
986.072728
  0
LINE
  8
CSLAYER1
  6
CONTINUOUS
 62
     3
 10
844.793373
 20
986.072728
 11
843.654351
 21
985.205933
  0
LINE
  8
CSLAYER1
  6
CONTINUOUS
 62
     3
 10
843.654351
 20
985.205933
 11
842.675489
 21
984.294309
  0
LINE
  8
CSLAYER1
  6
CONTINUOUS
 62
     3
 10
842.675489
 20
984.294309
 11
841.864237
 21
983.344793
  0
LINE
  8
CSLAYER1
  6
CONTINUOUS
 62
     3
 10
841.864237
 20
983.344793
 11
841.226770
 21
982.364611
  0
LINE
  8
CSLAYER1
  6
CONTINUOUS
 62
     3
 10
841.226770
 20
982.364611
 11
840.767939
 21
981.361224
  0
LINE
  8
CSLAYER1
  6
CONTINUOUS
 62
     3
 10
840.767939
 20
981.361224
 11
840.491237
 21
980.342267
  0
LINE
  8
CSLAYER1
  6
CONTINUOUS
 62
     3
 10
840.491237
 20
980.342267
 11
840.398768
 21
979.315497
  0
LINE
  8
CSLAYER1
  6
CONTINUOUS
 62
     3
 10
840.398768
 20
909.398020
 11
840.398768
 21
979.315497
  0
LINE
  8
CSLAYER1
  6
CONTINUOUS
 62
     3
 10
846.698768
 20
1034.310535
 11
846.698768
 21
1120.682253
  0
LINE
  8
CSLAYER1
  6
CONTINUOUS
 62
     3
 10
887.198768
 20
878.809124
 11
887.198768
 21
909.398020
  0
LINE
  8
CSLAYER1
  6
CONTINUOUS
 62
     3
 10
887.198768
 20
909.398020
 11
887.113149
 21
910.348734
  0
LINE
  8
CSLAYER1
  6
CONTINUOUS
 62
     3
 10
887.113149
 20
910.348734
 11
886.856942
 21
911.292212
  0
LINE
  8
CSLAYER1
  6
CONTINUOUS
 62
     3
 10
886.856942
 20
911.292212
 11
886.432099
 21
912.221274
  0
LINE
  8
CSLAYER1
  6
CONTINUOUS
 62
     3
 10
886.432099
 20
912.221274
 11
885.841852
 21
913.128850
  0
LINE
  8
CSLAYER1
  6
CONTINUOUS
 62
     3
 10
885.841852
 20
913.128850
 11
885.090693
 21
914.008032
  0
LINE
  8
CSLAYER1
  6
CONTINUOUS
 62
     3
 10
885.090693
 20
914.008032
 11
884.184339
 21
914.852128
  0
LINE
  8
CSLAYER1
  6
CONTINUOUS
 62
     3
 10
884.184339
 20
914.852128
 11
883.129689
 21
915.654716
  0
LINE
  8
CSLAYER1
  6
CONTINUOUS
 62
     3
 10
883.129689
 20
915.654716
 11
881.934768
 21
916.409687
  0
LINE
  8
CSLAYER1
  6
CONTINUOUS
 62
     3
 10
881.934768
 20
916.409687
 11
880.608670
 21
917.111294
  0
LINE
  8
CSLAYER1
  6
CONTINUOUS
 62
     3
 10
880.608670
 20
917.111294
 11
879.161489
 21
917.754199
  0
LINE
  8
CSLAYER1
  6
CONTINUOUS
 62
     3
 10
879.161489
 20
917.754199
 11
877.604238
 21
918.333508
  0
LINE
  8
CSLAYER1
  6
CONTINUOUS
 62
     3
 10
877.604238
 20
918.333508
 11
875.948768
 21
918.844813
  0
LINE
  8
CSLAYER1
  6
CONTINUOUS
 62
     3
 10
875.948768
 20
918.844813
 11
874.207679
 21
919.284222
  0
LINE
  8
CSLAYER1
  6
CONTINUOUS
 62
     3
 10
874.207679
 20
919.284222
 11
872.394221
 21
919.648391
  0
LINE
  8
CSLAYER1
  6
CONTINUOUS
 62
     3
 10
872.394221
 20
919.648391
 11
870.522196
 21
919.934548
  0
LINE
  8
CSLAYER1
  6
CONTINUOUS
 62
     3
 10
870.522196
 20
919.934548
 11
868.605852
 21
920.140516
  0
LINE
  8
CSLAYER1
  6
CONTINUOUS
 62
     3
 10
868.605852
 20
920.140516
 11
866.659772
 21
920.264728
  0
LINE
  8
CSLAYER1
  6
CONTINUOUS
 62
     3
 10
866.659772
 20
920.264728
 11
864.698768
 21
920.306237
  0
LINE
  8
CSLAYER1
  6
CONTINUOUS
 62
     3
 10
864.698768
 20
920.306237
 11
862.737764
 21
920.264728
  0
LINE
  8
CSLAYER1
  6
CONTINUOUS
 62
     3
 10
862.737764
 20
920.264728
 11
860.791684
 21
920.140516
  0
LINE
  8
CSLAYER1
  6
CONTINUOUS
 62
     3
 10
860.791684
 20
920.140516
 11
858.875339
 21
919.934548
  0
LINE
  8
CSLAYER1
  6
CONTINUOUS
 62
     3
 10
858.875339
 20
919.934548
 11
857.003315
 21
919.648391
  0
LINE
  8
CSLAYER1
  6
CONTINUOUS
 62
     3
 10
857.003315
 20
919.648391
 11
855.189857
 21
919.284222
  0
LINE
  8
CSLAYER1
  6
CONTINUOUS
 62
     3
 10
855.189857
 20
919.284222
 11
853.448768
 21
918.844813
  0
LINE
  8
CSLAYER1
  6
CONTINUOUS
 62
     3
 10
853.448768
 20
918.844813
 11
851.793298
 21
918.333508
  0
LINE
  8
CSLAYER1
  6
CONTINUOUS
 62
     3
 10
851.793298
 20
918.333508
 11
850.236047
 21
917.754199
  0
LINE
  8
CSLAYER1
  6
CONTINUOUS
 62
     3
 10
850.236047
 20
917.754199
 11
848.788865
 21
917.111294
  0
LINE
  8
CSLAYER1
  6
CONTINUOUS
 62
     3
 10
848.788865
 20
917.111294
 11
847.462768
 21
916.409687
  0
LINE
  8
CSLAYER1
  6
CONTINUOUS
 62
     3
 10
847.462768
 20
916.409687
 11
846.267847
 21
915.654716
  0
LINE
  8
CSLAYER1
  6
CONTINUOUS
 62
     3
 10
846.267847
 20
915.654716
 11
845.213196
 21
914.852128
  0
LINE
  8
CSLAYER1
  6
CONTINUOUS
 62
     3
 10
845.213196
 20
914.852128
 11
844.306843
 21
914.008032
  0
LINE
  8
CSLAYER1
  6
CONTINUOUS
 62
     3
 10
844.306843
 20
914.008032
 11
843.555684
 21
913.128850
  0
LINE
  8
CSLAYER1
  6
CONTINUOUS
 62
     3
 10
843.555684
 20
913.128850
 11
842.965437
 21
912.221274
  0
LINE
  8
CSLAYER1
  6
CONTINUOUS
 62
     3
 10
842.965437
 20
912.221274
 11
842.540593
 21
911.292212
  0
LINE
  8
CSLAYER1
  6
CONTINUOUS
 62
     3
 10
842.540593
 20
911.292212
 11
842.284387
 21
910.348734
  0
LINE
  8
CSLAYER1
  6
CONTINUOUS
 62
     3
 10
842.284387
 20
910.348734
 11
842.198768
 21
909.398020
  0
LINE
  8
CSLAYER1
  6
CONTINUOUS
 62
     3
 10
888.998768
 20
909.398020
 11
888.906299
 21
910.424791
  0
LINE
  8
CSLAYER1
  6
CONTINUOUS
 62
     3
 10
888.906299
 20
910.424791
 11
888.629596
 21
911.443747
  0
LINE
  8
CSLAYER1
  6
CONTINUOUS
 62
     3
 10
888.629596
 20
911.443747
 11
888.170765
 21
912.447135
  0
LINE
  8
CSLAYER1
  6
CONTINUOUS
 62
     3
 10
888.170765
 20
912.447135
 11
887.533299
 21
913.427316
  0
LINE
  8
CSLAYER1
  6
CONTINUOUS
 62
     3
 10
887.533299
 20
913.427316
 11
886.722047
 21
914.376833
  0
LINE
  8
CSLAYER1
  6
CONTINUOUS
 62
     3
 10
886.722047
 20
914.376833
 11
885.743185
 21
915.288457
  0
LINE
  8
CSLAYER1
  6
CONTINUOUS
 62
     3
 10
885.743185
 20
915.288457
 11
884.604163
 21
916.155252
  0
LINE
  8
CSLAYER1
  6
CONTINUOUS
 62
     3
 10
884.604163
 20
916.155252
 11
883.313648
 21
916.970620
  0
LINE
  8
CSLAYER1
  6
CONTINUOUS
 62
     3
 10
883.313648
 20
916.970620
 11
881.881463
 21
917.728356
  0
LINE
  8
CSLAYER1
  6
CONTINUOUS
 62
     3
 10
881.881463
 20
917.728356
 11
880.318507
 21
918.422693
  0
LINE
  8
CSLAYER1
  6
CONTINUOUS
 62
     3
 10
880.318507
 20
918.422693
 11
878.636675
 21
919.048347
  0
LINE
  8
CSLAYER1
  6
CONTINUOUS
 62
     3
 10
878.636675
 20
919.048347
 11
876.848768
 21
919.600556
  0
LINE
  8
CSLAYER1
  6
CONTINUOUS
 62
     3
 10
876.848768
 20
919.600556
 11
874.968392
 21
920.075118
  0
LINE
  8
CSLAYER1
  6
CONTINUOUS
 62
     3
 10
874.968392
 20
920.075118
 11
873.009857
 21
920.468420
  0
LINE
  8
CSLAYER1
  6
CONTINUOUS
 62
     3
 10
873.009857
 20
920.468420
 11
870.988071
 21
920.777470
  0
LINE
  8
CSLAYER1
  6
CONTINUOUS
 62
     3
 10
870.988071
 20
920.777470
 11
868.918419
 21
920.999916
  0
LINE
  8
CSLAYER1
  6
CONTINUOUS
 62
     3
 10
868.918419
 20
920.999916
 11
866.816652
 21
921.134064
  0
LINE
  8
CSLAYER1
  6
CONTINUOUS
 62
     3
 10
866.816652
 20
921.134064
 11
864.698768
 21
921.178894
  0
LINE
  8
CSLAYER1
  6
CONTINUOUS
 62
     3
 10
864.698768
 20
921.178894
 11
862.580883
 21
921.134064
  0
LINE
  8
CSLAYER1
  6
CONTINUOUS
 62
     3
 10
862.580883
 20
921.134064
 11
860.479117
 21
920.999916
  0
LINE
  8
CSLAYER1
  6
CONTINUOUS
 62
     3
 10
860.479117
 20
920.999916
 11
858.409465
 21
920.777470
  0
LINE
  8
CSLAYER1
  6
CONTINUOUS
 62
     3
 10
858.409465
 20
920.777470
 11
856.387678
 21
920.468420
  0
LINE
  8
CSLAYER1
  6
CONTINUOUS
 62
     3
 10
856.387678
 20
920.468420
 11
854.429144
 21
920.075118
  0
LINE
  8
CSLAYER1
  6
CONTINUOUS
 62
     3
 10
854.429144
 20
920.075118
 11
852.548768
 21
919.600556
  0
LINE
  8
CSLAYER1
  6
CONTINUOUS
 62
     3
 10
852.548768
 20
919.600556
 11
850.760860
 21
919.048347
  0
LINE
  8
CSLAYER1
  6
CONTINUOUS
 62
     3
 10
850.760860
 20
919.048347
 11
849.079029
 21
918.422693
  0
LINE
  8
CSLAYER1
  6
CONTINUOUS
 62
     3
 10
849.079029
 20
918.422693
 11
847.516073
 21
917.728356
  0
LINE
  8
CSLAYER1
  6
CONTINUOUS
 62
     3
 10
847.516073
 20
917.728356
 11
846.083888
 21
916.970620
  0
LINE
  8
CSLAYER1
  6
CONTINUOUS
 62
     3
 10
846.083888
 20
916.970620
 11
844.793373
 21
916.155252
  0
LINE
  8
CSLAYER1
  6
CONTINUOUS
 62
     3
 10
844.793373
 20
916.155252
 11
843.654351
 21
915.288457
  0
LINE
  8
CSLAYER1
  6
CONTINUOUS
 62
     3
 10
843.654351
 20
915.288457
 11
842.675489
 21
914.376833
  0
LINE
  8
CSLAYER1
  6
CONTINUOUS
 62
     3
 10
842.675489
 20
914.376833
 11
841.864237
 21
913.427316
  0
LINE
  8
CSLAYER1
  6
CONTINUOUS
 62
     3
 10
841.864237
 20
913.427316
 11
841.226770
 21
912.447135
  0
LINE
  8
CSLAYER1
  6
CONTINUOUS
 62
     3
 10
841.226770
 20
912.447135
 11
840.767939
 21
911.443747
  0
LINE
  8
CSLAYER1
  6
CONTINUOUS
 62
     3
 10
840.767939
 20
911.443747
 11
840.491237
 21
910.424791
  0
LINE
  8
CSLAYER1
  6
CONTINUOUS
 62
     3
 10
840.491237
 20
910.424791
 11
840.398768
 21
909.398020
  0
LINE
  8
CSLAYER1
  6
CONTINUOUS
 62
     3
 10
840.398768
 20
909.398020
 11
840.491237
 21
908.371249
  0
LINE
  8
CSLAYER1
  6
CONTINUOUS
 62
     3
 10
840.491237
 20
908.371249
 11
840.596528
 21
907.983514
  0
LINE
  8
CSLAYER1
  6
CONTINUOUS
 62
     3
 10
841.698768
 20
905.623153
 11
842.198768
 21
904.977178
  0
LINE
  8
CSLAYER1
  6
CONTINUOUS
 62
     3
 10
887.198768
 20
904.977178
 11
887.698768
 21
905.623153
  0
LINE
  8
CSLAYER1
  6
CONTINUOUS
 62
     3
 10
888.801008
 20
907.983514
 11
888.906299
 21
908.371249
  0
LINE
  8
CSLAYER1
  6
CONTINUOUS
 62
     3
 10
888.906299
 20
908.371249
 11
888.998768
 21
909.398020
  0
LINE
  8
CSLAYER1
  6
CONTINUOUS
 62
     3
 10
842.198768
 20
878.809124
 11
842.198768
 21
909.398020
  0
LINE
  8
CSLAYER1
  6
CONTINUOUS
 62
     3
 10
887.198768
 20
878.809124
 11
887.113149
 21
879.759838
  0
LINE
  8
CSLAYER1
  6
CONTINUOUS
 62
     3
 10
887.113149
 20
879.759838
 11
886.856942
 21
880.703316
  0
LINE
  8
CSLAYER1
  6
CONTINUOUS
 62
     3
 10
886.856942
 20
880.703316
 11
886.432099
 21
881.632378
  0
LINE
  8
CSLAYER1
  6
CONTINUOUS
 62
     3
 10
886.432099
 20
881.632378
 11
885.841852
 21
882.539954
  0
LINE
  8
CSLAYER1
  6
CONTINUOUS
 62
     3
 10
885.841852
 20
882.539954
 11
885.090693
 21
883.419136
  0
LINE
  8
CSLAYER1
  6
CONTINUOUS
 62
     3
 10
885.090693
 20
883.419136
 11
884.184339
 21
884.263232
  0
LINE
  8
CSLAYER1
  6
CONTINUOUS
 62
     3
 10
884.184339
 20
884.263232
 11
883.129689
 21
885.065820
  0
LINE
  8
CSLAYER1
  6
CONTINUOUS
 62
     3
 10
883.129689
 20
885.065820
 11
881.934768
 21
885.820791
  0
LINE
  8
CSLAYER1
  6
CONTINUOUS
 62
     3
 10
881.934768
 20
885.820791
 11
880.608670
 21
886.522398
  0
LINE
  8
CSLAYER1
  6
CONTINUOUS
 62
     3
 10
880.608670
 20
886.522398
 11
879.161489
 21
887.165303
  0
LINE
  8
CSLAYER1
  6
CONTINUOUS
 62
     3
 10
879.161489
 20
887.165303
 11
877.604238
 21
887.744612
  0
LINE
  8
CSLAYER1
  6
CONTINUOUS
 62
     3
 10
877.604238
 20
887.744612
 11
875.948768
 21
888.255917
  0
LINE
  8
CSLAYER1
  6
CONTINUOUS
 62
     3
 10
875.948768
 20
888.255917
 11
874.207679
 21
888.695326
  0
LINE
  8
CSLAYER1
  6
CONTINUOUS
 62
     3
 10
874.207679
 20
888.695326
 11
872.394221
 21
889.059495
  0
LINE
  8
CSLAYER1
  6
CONTINUOUS
 62
     3
 10
872.394221
 20
889.059495
 11
870.522196
 21
889.345652
  0
LINE
  8
CSLAYER1
  6
CONTINUOUS
 62
     3
 10
870.522196
 20
889.345652
 11
868.605852
 21
889.551620
  0
LINE
  8
CSLAYER1
  6
CONTINUOUS
 62
     3
 10
868.605852
 20
889.551620
 11
866.659772
 21
889.675832
  0
LINE
  8
CSLAYER1
  6
CONTINUOUS
 62
     3
 10
866.659772
 20
889.675832
 11
864.698768
 21
889.717341
  0
LINE
  8
CSLAYER1
  6
CONTINUOUS
 62
     3
 10
864.698768
 20
889.717341
 11
862.737764
 21
889.675832
  0
LINE
  8
CSLAYER1
  6
CONTINUOUS
 62
     3
 10
862.737764
 20
889.675832
 11
860.791684
 21
889.551620
  0
LINE
  8
CSLAYER1
  6
CONTINUOUS
 62
     3
 10
860.791684
 20
889.551620
 11
858.875339
 21
889.345652
  0
LINE
  8
CSLAYER1
  6
CONTINUOUS
 62
     3
 10
858.875339
 20
889.345652
 11
857.003315
 21
889.059495
  0
LINE
  8
CSLAYER1
  6
CONTINUOUS
 62
     3
 10
857.003315
 20
889.059495
 11
855.189857
 21
888.695326
  0
LINE
  8
CSLAYER1
  6
CONTINUOUS
 62
     3
 10
855.189857
 20
888.695326
 11
853.448768
 21
888.255917
  0
LINE
  8
CSLAYER1
  6
CONTINUOUS
 62
     3
 10
853.448768
 20
888.255917
 11
851.793298
 21
887.744612
  0
LINE
  8
CSLAYER1
  6
CONTINUOUS
 62
     3
 10
851.793298
 20
887.744612
 11
850.236047
 21
887.165303
  0
LINE
  8
CSLAYER1
  6
CONTINUOUS
 62
     3
 10
850.236047
 20
887.165303
 11
848.788865
 21
886.522398
  0
LINE
  8
CSLAYER1
  6
CONTINUOUS
 62
     3
 10
848.788865
 20
886.522398
 11
847.462768
 21
885.820791
  0
LINE
  8
CSLAYER1
  6
CONTINUOUS
 62
     3
 10
847.462768
 20
885.820791
 11
846.267847
 21
885.065820
  0
LINE
  8
CSLAYER1
  6
CONTINUOUS
 62
     3
 10
846.267847
 20
885.065820
 11
845.213196
 21
884.263232
  0
LINE
  8
CSLAYER1
  6
CONTINUOUS
 62
     3
 10
845.213196
 20
884.263232
 11
844.306843
 21
883.419136
  0
LINE
  8
CSLAYER1
  6
CONTINUOUS
 62
     3
 10
844.306843
 20
883.419136
 11
843.555684
 21
882.539954
  0
LINE
  8
CSLAYER1
  6
CONTINUOUS
 62
     3
 10
843.555684
 20
882.539954
 11
842.965437
 21
881.632378
  0
LINE
  8
CSLAYER1
  6
CONTINUOUS
 62
     3
 10
842.965437
 20
881.632378
 11
842.540593
 21
880.703316
  0
LINE
  8
CSLAYER1
  6
CONTINUOUS
 62
     3
 10
842.540593
 20
880.703316
 11
842.284387
 21
879.759838
  0
LINE
  8
CSLAYER1
  6
CONTINUOUS
 62
     3
 10
842.284387
 20
879.759838
 11
842.198768
 21
878.809124
  0
LINE
  8
CSLAYER1
  6
CONTINUOUS
 62
     3
 10
842.198768
 20
878.809124
 11
842.284387
 21
877.858410
  0
LINE
  8
CSLAYER1
  6
CONTINUOUS
 62
     3
 10
842.284387
 20
877.858410
 11
842.540593
 21
876.914932
  0
LINE
  8
CSLAYER1
  6
CONTINUOUS
 62
     3
 10
842.540593
 20
876.914932
 11
842.965437
 21
875.985870
  0
LINE
  8
CSLAYER1
  6
CONTINUOUS
 62
     3
 10
842.965437
 20
875.985870
 11
843.555684
 21
875.078294
  0
LINE
  8
CSLAYER1
  6
CONTINUOUS
 62
     3
 10
843.555684
 20
875.078294
 11
844.306843
 21
874.199113
  0
LINE
  8
CSLAYER1
  6
CONTINUOUS
 62
     3
 10
844.306843
 20
874.199113
 11
845.195262
 21
873.371719
  0
LINE
  8
CSLAYER1
  6
CONTINUOUS
 62
     3
 10
884.202274
 20
873.371719
 11
885.090693
 21
874.199113
  0
LINE
  8
CSLAYER1
  6
CONTINUOUS
 62
     3
 10
885.090693
 20
874.199113
 11
885.841852
 21
875.078294
  0
LINE
  8
CSLAYER1
  6
CONTINUOUS
 62
     3
 10
885.841852
 20
875.078294
 11
886.432099
 21
875.985870
  0
LINE
  8
CSLAYER1
  6
CONTINUOUS
 62
     3
 10
886.432099
 20
875.985870
 11
886.856942
 21
876.914932
  0
LINE
  8
CSLAYER1
  6
CONTINUOUS
 62
     3
 10
886.856942
 20
876.914932
 11
887.113149
 21
877.858410
  0
LINE
  8
CSLAYER1
  6
CONTINUOUS
 62
     3
 10
887.113149
 20
877.858410
 11
887.198768
 21
878.809124
  0
LINE
  8
CSLAYER1
  6
CENTER
 62
     5
 10
824.698768
 20
839.837161
 11
824.698768
 21
981.929150
  0
LINE
  8
CSLAYER1
  6
CONTINUOUS
 62
     3
 10
831.698768
 20
976.229150
 11
817.698768
 21
976.229150
  0
LINE
  8
CSLAYER1
  6
CONTINUOUS
 62
     3
 10
831.698768
 20
968.429150
 11
817.698768
 21
968.429150
  0
LINE
  8
CSLAYER1
  6
CONTINUOUS
 62
     3
 10
831.130700
 20
963.229150
 11
818.266836
 21
963.229150
  0
LINE
  8
CSLAYER1
  6
CONTINUOUS
 62
     3
 10
830.698768
 20
961.229150
 11
818.698768
 21
961.229150
  0
LINE
  8
CSLAYER1
  6
CONTINUOUS
 62
     3
 10
830.698768
 20
954.229150
 11
818.698768
 21
954.229150
  0
LINE
  8
CSLAYER1
  6
CONTINUOUS
 62
     3
 10
829.581794
 20
929.229150
 11
819.815742
 21
929.229150
  0
LINE
  8
CSLAYER1
  6
CONTINUOUS
 62
     3
 10
830.198768
 20
951.229150
 11
830.198768
 21
954.229150
  0
LINE
  8
CSLAYER1
  6
CONTINUOUS
 62
     3
 10
832.781672
 20
969.054364
 11
832.781672
 21
975.603935
  0
LINE
  8
CSLAYER1
  6
CONTINUOUS
 62
     3
 10
828.740220
 20
969.054364
 11
828.740220
 21
975.603935
  0
ARC
  8
CSLAYER1
  6
CONTINUOUS
 62
     3
 10
802.010998
 20
968.471371
 40
29.587800
 50
345.831727
 51
359.918240
  0
ARC
  8
CSLAYER1
  6
CONTINUOUS
 62
     3
 10
847.386538
 20
968.471371
 40
29.587800
 50
180.081760
 51
194.168273
  0
LINE
  8
CSLAYER1
  6
CONTINUOUS
 62
     3
 10
829.046082
 20
961.229150
 11
829.046082
 21
963.229150
  0
LINE
  8
CSLAYER1
  6
CONTINUOUS
 62
     3
 10
827.064317
 20
961.229150
 11
827.064317
 21
963.229150
  0
LINE
  8
CSLAYER1
  6
CONTINUOUS
 62
     3
 10
820.351454
 20
961.229150
 11
820.351454
 21
963.229150
  0
LINE
  8
CSLAYER1
  6
CONTINUOUS
 62
     3
 10
822.333219
 20
961.229150
 11
822.333219
 21
963.229150
  0
LINE
  8
CSLAYER1
  6
CONTINUOUS
 62
     3
 10
831.698768
 20
976.229150
 11
832.781672
 21
975.603935
  0
ARC
  8
CSLAYER1
  6
CONTINUOUS
 62
     3
 10
830.760946
 20
972.677521
 40
3.556295
 50
64.625569
 51
124.625569
  0
ARC
  8
CSLAYER1
  6
CONTINUOUS
 62
     3
 10
824.698768
 20
962.854364
 40
13.374785
 50
72.412046
 51
107.587954
  0
LINE
  8
CSLAYER1
  6
CONTINUOUS
 62
     3
 10
831.698768
 20
968.429150
 11
832.781672
 21
969.054364
  0
ARC
  8
CSLAYER1
  6
CONTINUOUS
 62
     3
 10
830.760946
 20
971.980778
 40
3.556295
 50
235.374431
 51
295.374431
  0
ARC
  8
CSLAYER1
  6
CONTINUOUS
 62
     3
 10
824.698768
 20
981.803935
 40
13.374785
 50
252.412046
 51
287.587954
  0
LINE
  8
CSLAYER1
  6
CONTINUOUS
 62
     3
 10
816.615864
 20
969.054364
 11
816.615864
 21
975.603935
  0
LINE
  8
CSLAYER1
  6
CONTINUOUS
 62
     3
 10
820.657316
 20
969.054364
 11
820.657316
 21
975.603935
  0
LINE
  8
CSLAYER1
  6
CONTINUOUS
 62
     3
 10
817.698768
 20
976.229150
 11
816.615864
 21
975.603935
  0
ARC
  8
CSLAYER1
  6
CONTINUOUS
 62
     3
 10
818.636590
 20
972.677521
 40
3.556295
 50
55.374431
 51
115.374431
  0
LINE
  8
CSLAYER1
  6
CONTINUOUS
 62
     3
 10
817.698768
 20
968.429150
 11
816.615864
 21
969.054364
  0
ARC
  8
CSLAYER1
  6
CONTINUOUS
 62
     3
 10
818.636590
 20
971.980778
 40
3.556295
 50
244.625569
 51
304.625569
  0
LINE
  8
CSLAYER1
  6
CONTINUOUS
 62
     3
 10
831.626971
 20
954.765048
 11
831.626971
 21
960.493251
  0
LINE
  8
CSLAYER1
  6
CONTINUOUS
 62
     3
 10
828.162870
 20
954.765048
 11
828.162870
 21
960.493251
  0
LINE
  8
CSLAYER1
  6
CONTINUOUS
 62
     3
 10
830.698768
 20
954.229150
 11
831.626971
 21
954.765048
  0
ARC
  8
CSLAYER1
  6
CONTINUOUS
 62
     3
 10
824.698768
 20
965.693251
 40
11.464102
 50
252.178595
 51
287.821405
  0
ARC
  8
CSLAYER1
  6
CONTINUOUS
 62
     3
 10
829.894920
 20
957.295078
 40
3.066114
 50
236.143645
 51
295.804157
  0
LINE
  8
CSLAYER1
  6
CONTINUOUS
 62
     3
 10
830.698768
 20
961.029150
 11
831.626971
 21
960.493251
  0
ARC
  8
CSLAYER1
  6
CONTINUOUS
 62
     3
 10
824.698768
 20
949.565048
 40
11.464102
 50
72.178595
 51
107.821405
  0
ARC
  8
CSLAYER1
  6
CONTINUOUS
 62
     3
 10
829.894920
 20
957.963221
 40
3.066114
 50
64.195843
 51
123.856355
  0
LINE
  8
CSLAYER1
  6
CONTINUOUS
 62
     3
 10
830.698768
 20
961.029150
 11
818.698768
 21
961.029150
  0
LINE
  8
CSLAYER1
  6
CONTINUOUS
 62
     3
 10
828.162870
 20
961.029150
 11
828.162870
 21
961.229150
  0
LINE
  8
CSLAYER1
  6
CONTINUOUS
 62
     3
 10
819.198768
 20
951.229150
 11
819.198768
 21
954.229150
  0
LINE
  8
CSLAYER1
  6
CONTINUOUS
 62
     3
 10
817.770565
 20
954.765048
 11
817.770565
 21
960.493251
  0
LINE
  8
CSLAYER1
  6
CONTINUOUS
 62
     3
 10
821.234666
 20
954.765048
 11
821.234666
 21
960.493251
  0
LINE
  8
CSLAYER1
  6
CONTINUOUS
 62
     3
 10
818.698768
 20
954.229150
 11
817.770565
 21
954.765048
  0
ARC
  8
CSLAYER1
  6
CONTINUOUS
 62
     3
 10
819.502615
 20
957.295078
 40
3.066114
 50
244.195843
 51
303.856355
  0
LINE
  8
CSLAYER1
  6
CONTINUOUS
 62
     3
 10
818.698768
 20
961.029150
 11
817.770565
 21
960.493251
  0
ARC
  8
CSLAYER1
  6
CONTINUOUS
 62
     3
 10
819.502615
 20
957.963221
 40
3.066114
 50
56.143645
 51
115.804157
  0
LINE
  8
CSLAYER1
  6
CONTINUOUS
 62
     3
 10
821.234666
 20
961.029150
 11
821.234666
 21
961.229150
  0
LINE
  8
CSLAYER1
  6
CONTINUOUS
 62
     3
 10
831.626971
 20
942.229150
 11
831.626971
 21
950.693251
  0
LINE
  8
CSLAYER1
  6
CONTINUOUS
 62
     3
 10
828.162870
 20
942.229150
 11
828.162870
 21
950.693251
  0
LINE
  8
CSLAYER1
  6
CONTINUOUS
 62
     3
 10
830.698768
 20
951.229150
 11
831.626971
 21
950.693251
  0
ARC
  8
CSLAYER1
  6
CONTINUOUS
 62
     3
 10
824.698768
 20
939.765048
 40
11.464102
 50
72.178595
 51
107.821405
  0
ARC
  8
CSLAYER1
  6
CONTINUOUS
 62
     3
 10
829.894920
 20
948.163221
 40
3.066114
 50
64.195843
 51
123.856355
  0
LINE
  8
CSLAYER1
  6
CONTINUOUS
 62
     3
 10
830.698768
 20
951.229150
 11
818.698768
 21
951.229150
  0
LINE
  8
CSLAYER1
  6
CONTINUOUS
 62
     3
 10
817.770565
 20
942.229150
 11
817.770565
 21
950.693251
  0
LINE
  8
CSLAYER1
  6
CONTINUOUS
 62
     3
 10
821.234666
 20
942.229150
 11
821.234666
 21
950.693251
  0
LINE
  8
CSLAYER1
  6
CONTINUOUS
 62
     3
 10
818.698768
 20
951.229150
 11
817.770565
 21
950.693251
  0
ARC
  8
CSLAYER1
  6
CONTINUOUS
 62
     3
 10
819.502615
 20
948.163221
 40
3.066114
 50
56.143645
 51
115.804157
  0
LINE
  8
CSLAYER1
  6
CONTINUOUS
 62
     3
 10
830.578049
 20
930.142690
 11
831.626971
 21
942.229150
  0
ARC
  8
CSLAYER1
  6
CONTINUOUS
 62
     3
 10
809.521280
 20
942.229150
 40
18.641590
 50
330.443788
 51
360.000000
  0
ARC
  8
CSLAYER1
  6
CONTINUOUS
 62
     3
 10
824.698768
 20
933.669004
 40
1.217263
 50
210.578468
 51
329.421532
  0
ARC
  8
CSLAYER1
  6
CONTINUOUS
 62
     3
 10
846.804459
 20
942.229150
 40
18.641590
 50
180.000000
 51
209.556212
  0
ARC
  8
CSLAYER1
  6
CONTINUOUS
 62
     3
 10
831.626971
 20
933.669004
 40
1.217263
 50
210.578468
 51
227.594217
  0
ARC
  8
CSLAYER1
  6
CONTINUOUS
 62
     3
 10
829.581794
 20
930.229150
 40
1.000000
 50
270.000000
 51
355.040021
  0
LINE
  8
CSLAYER1
  6
CONTINUOUS
 62
     3
 10
818.819486
 20
930.142690
 11
817.770565
 21
942.229150
  0
ARC
  8
CSLAYER1
  6
CONTINUOUS
 62
     3
 10
839.876256
 20
942.229150
 40
18.641590
 50
180.000000
 51
209.556212
  0
ARC
  8
CSLAYER1
  6
CONTINUOUS
 62
     3
 10
802.593076
 20
942.229150
 40
18.641590
 50
330.443788
 51
360.000000
  0
ARC
  8
CSLAYER1
  6
CONTINUOUS
 62
     3
 10
817.770565
 20
933.669004
 40
1.217263
 50
312.405783
 51
329.421532
  0
ARC
  8
CSLAYER1
  6
CONTINUOUS
 62
     3
 10
819.815742
 20
930.229150
 40
1.000000
 50
184.959979
 51
270.000000
  0
LINE
  8
CSLAYER1
  6
CONTINUOUS
 62
     3
 10
831.698768
 20
995.929150
 11
819.198768
 21
995.929150
  0
LINE
  8
CSLAYER1
  6
CENTER
 62
     5
 10
837.198768
 20
988.929150
 11
831.698768
 21
988.929150
  0
LINE
  8
CSLAYER1
  6
CONTINUOUS
 62
     3
 10
817.698768
 20
981.929150
 11
817.698768
 21
994.429150
  0
LINE
  8
CSLAYER1
  6
CONTINUOUS
 62
     3
 10
831.698768
 20
981.929150
 11
817.698768
 21
981.929150
  0
LINE
  8
CSLAYER1
  6
CONTINUOUS
 62
     3
 10
831.698768
 20
981.929150
 11
831.698768
 21
995.926705
  0
LINE
  8
CSLAYER1
  6
CONTINUOUS
 62
     3
 10
829.298768
 20
976.229150
 11
829.298768
 21
981.929150
  0
LINE
  8
CSLAYER1
  6
CONTINUOUS
 62
     5
 10
828.698768
 20
976.229150
 11
828.698768
 21
980.889919
  0
LINE
  8
CSLAYER1
  6
CONTINUOUS
 62
     5
 10
829.298768
 20
981.929150
 11
828.698768
 21
980.889919
  0
LINE
  8
CSLAYER1
  6
CONTINUOUS
 62
     3
 10
820.098768
 20
976.229150
 11
820.098768
 21
981.929150
  0
LINE
  8
CSLAYER1
  6
CONTINUOUS
 62
     5
 10
820.098768
 20
981.929150
 11
820.698768
 21
980.889919
  0
LINE
  8
CSLAYER1
  6
CONTINUOUS
 62
     5
 10
829.298768
 20
980.889919
 11
820.098768
 21
980.889919
  0
LINE
  8
CSLAYER1
  6
CONTINUOUS
 62
     3
 10
837.198768
 20
984.077364
 11
831.698768
 21
983.979150
  0
LINE
  8
CSLAYER1
  6
CONTINUOUS
 62
     5
 10
837.198768
 20
984.777475
 11
831.686270
 21
984.679038
  0
LINE
  8
CSLAYER1
  6
CONTINUOUS
 62
     3
 10
837.198768
 20
993.780935
 11
831.698768
 21
993.879150
  0
LINE
  8
CSLAYER1
  6
CONTINUOUS
 62
     5
 10
837.198768
 20
993.080824
 11
831.686270
 21
993.179261
  0
ARC
  8
CSLAYER1
  6
CONTINUOUS
 62
     3
 10
819.198768
 20
994.429150
 40
1.500000
 50
90.000000
 51
180.000000
  0
LINE
  8
CSLAYER1
  6
CONTINUOUS
 62
     3
 10
843.198768
 20
1118.747373
 11
846.698768
 21
1118.747373
  0
LINE
  8
CSLAYER1
  6
CONTINUOUS
 62
     3
 10
842.198768
 20
1119.747373
 11
843.198768
 21
1118.747373
  0
LINE
  8
CSLAYER1
  6
CONTINUOUS
 62
     3
 10
886.198768
 20
1118.747373
 11
887.198768
 21
1119.747373
  0
LINE
  8
CSLAYER1
  6
CONTINUOUS
 62
     3
 10
888.198768
 20
1124.347373
 11
887.198768
 21
1124.347373
  0
LINE
  8
CSLAYER1
  6
CONTINUOUS
 62
     3
 10
842.198768
 20
1124.347373
 11
841.198768
 21
1124.347373
  0
LINE
  8
CSLAYER1
  6
CONTINUOUS
 62
     3
 10
829.198768
 20
1149.347373
 11
841.198768
 21
1149.347373
  0
LINE
  8
CSLAYER1
  6
CONTINUOUS
 62
     3
 10
829.198768
 20
1077.591212
 11
841.198768
 21
1077.591212
  0
LINE
  8
CSLAYER1
  6
CONTINUOUS
 62
     3
 10
888.198768
 20
1077.591212
 11
888.198768
 21
1149.347373
  0
LINE
  8
CSLAYER1
  6
CONTINUOUS
 62
     3
 10
841.198768
 20
1077.591212
 11
841.198768
 21
1149.347373
  0
LINE
  8
CSLAYER1
  6
CONTINUOUS
 62
     3
 10
829.198768
 20
1077.591212
 11
829.198768
 21
1149.347373
  0
LINE
  8
CSLAYER1
  6
CONTINUOUS
 62
     3
 10
888.198768
 20
1077.591212
 11
900.198768
 21
1077.591212
  0
LINE
  8
CSLAYER1
  6
CONTINUOUS
 62
     3
 10
882.698768
 20
1056.700686
 11
900.198768
 21
1056.700686
  0
LINE
  8
CSLAYER1
  6
CONTINUOUS
 62
     3
 10
841.198768
 20
1105.300686
 11
846.698768
 21
1105.300686
  0
LINE
  8
CSLAYER1
  6
CONTINUOUS
 62
     3
 10
882.698768
 20
1105.300686
 11
888.198768
 21
1105.300686
  0
LINE
  8
CSLAYER1
  6
CONTINUOUS
 62
     3
 10
888.198768
 20
1149.347373
 11
900.198768
 21
1149.347373
  0
LINE
  8
CSLAYER1
  6
CONTINUOUS
 62
     3
 10
808.198768
 20
1140.347373
 11
829.198768
 21
1140.347373
  0
LINE
  8
CSLAYER1
  6
CONTINUOUS
 62
     3
 10
808.198768
 20
1124.347373
 11
829.198768
 21
1124.347373
  0
LINE
  8
CSLAYER1
  6
CONTINUOUS
 62
     3
 10
900.198768
 20
1293.410590
 11
808.198768
 21
1293.410590
  0
LINE
  8
CSLAYER1
  6
CONTINUOUS
 62
     3
 10
775.698768
 20
1075.614398
 11
776.198768
 21
1075.614398
  0
LINE
  8
CSLAYER1
  6
CONTINUOUS
 62
     3
 10
786.698768
 20
1091.114398
 11
786.698768
 21
1070.114398
  0
LINE
  8
CSLAYER1
  6
CONTINUOUS
 62
     3
 10
774.698768
 20
1076.614398
 11
774.698768
 21
1084.614398
  0
LINE
  8
CSLAYER1
  6
CONTINUOUS
 62
     3
 10
796.198768
 20
1094.614398
 11
799.198768
 21
1094.614398
  0
LINE
  8
CSLAYER1
  6
CONTINUOUS
 62
     3
 10
796.198768
 20
839.837161
 11
796.198768
 21
1349.515272
  0
LINE
  8
CSLAYER1
  6
CONTINUOUS
 62
     3
 10
799.198768
 20
839.837161
 11
799.198768
 21
1361.815272
  0
LINE
  8
CSLAYER1
  6
CONTINUOUS
 62
     3
 10
796.198768
 20
1066.614398
 11
799.198768
 21
1066.614398
  0
LINE
  8
CSLAYER1
  6
CONTINUOUS
 62
     3
 10
784.698768
 20
1091.114398
 11
784.698768
 21
1070.114398
  0
LINE
  8
CSLAYER1
  6
CONTINUOUS
 62
     3
 10
782.198768
 20
1089.814398
 11
782.198768
 21
1071.414398
  0
LINE
  8
CSLAYER1
  6
CONTINUOUS
 62
     3
 10
782.198768
 20
1071.414398
 11
784.698768
 21
1071.414398
  0
LINE
  8
CSLAYER1
  6
CONTINUOUS
 62
     3
 10
784.698768
 20
1070.114398
 11
786.698768
 21
1070.114398
  0
LINE
  8
CSLAYER1
  6
CONTINUOUS
 62
     3
 10
782.198768
 20
1089.814398
 11
784.698768
 21
1089.814398
  0
LINE
  8
CSLAYER1
  6
CONTINUOUS
 62
     3
 10
784.698768
 20
1091.114398
 11
786.698768
 21
1091.114398
  0
LINE
  8
CSLAYER1
  6
CONTINUOUS
 62
     3
 10
776.198768
 20
1089.114398
 11
776.198768
 21
1072.114398
  0
LINE
  8
CSLAYER1
  6
CONTINUOUS
 62
     3
 10
775.698768
 20
1075.614398
 11
774.698768
 21
1076.614398
  0
LINE
  8
CSLAYER1
  6
CONTINUOUS
 62
     3
 10
774.998768
 20
1076.314398
 11
776.198768
 21
1076.314398
  0
LINE
  8
CSLAYER1
  6
CONTINUOUS
 62
     3
 10
775.698768
 20
1075.614398
 11
775.698768
 21
1085.614398
  0
LINE
  8
CSLAYER1
  6
CONTINUOUS
 62
     3
 10
776.957957
 20
1070.799443
 11
781.439579
 21
1070.799443
  0
LINE
  8
CSLAYER1
  6
CONTINUOUS
 62
     3
 10
776.957957
 20
1075.706920
 11
781.439579
 21
1075.706920
  0
LINE
  8
CSLAYER1
  6
CONTINUOUS
 62
     3
 10
776.198768
 20
1072.114398
 11
776.957957
 21
1070.799443
  0
ARC
  8
CSLAYER1
  6
CONTINUOUS
 62
     3
 10
792.439579
 20
1080.614398
 40
16.240811
 50
162.412046
 51
197.587954
  0
ARC
  8
CSLAYER1
  6
CONTINUOUS
 62
     3
 10
780.539692
 20
1073.253182
 40
4.341619
 50
145.586132
 51
207.480777
  0
LINE
  8
CSLAYER1
  6
CONTINUOUS
 62
     3
 10
776.198768
 20
1089.114398
 11
776.957957
 21
1090.429352
  0
ARC
  8
CSLAYER1
  6
CONTINUOUS
 62
     3
 10
780.539692
 20
1087.975613
 40
4.341619
 50
152.519223
 51
214.413868
  0
LINE
  8
CSLAYER1
  6
CONTINUOUS
 62
     3
 10
782.198768
 20
1072.114398
 11
781.439579
 21
1070.799443
  0
ARC
  8
CSLAYER1
  6
CONTINUOUS
 62
     3
 10
765.957957
 20
1080.614398
 40
16.240811
 50
-17.587954
 51
17.587954
  0
ARC
  8
CSLAYER1
  6
CONTINUOUS
 62
     3
 10
777.857844
 20
1073.253182
 40
4.341619
 50
-27.480777
 51
34.413868
  0
LINE
  8
CSLAYER1
  6
CONTINUOUS
 62
     3
 10
782.198768
 20
1089.114398
 11
781.439579
 21
1090.429352
  0
ARC
  8
CSLAYER1
  6
CONTINUOUS
 62
     3
 10
777.857844
 20
1087.975613
 40
4.341619
 50
-34.413868
 51
27.480777
  0
LINE
  8
CSLAYER1
  6
CONTINUOUS
 62
     3
 10
776.957957
 20
1090.429352
 11
781.439579
 21
1090.429352
  0
LINE
  8
CSLAYER1
  6
CONTINUOUS
 62
     3
 10
776.957957
 20
1085.521875
 11
781.439579
 21
1085.521875
  0
LINE
  8
CSLAYER1
  6
CONTINUOUS
 62
     3
 10
775.698768
 20
1085.614398
 11
776.198768
 21
1085.614398
  0
LINE
  8
CSLAYER1
  6
CONTINUOUS
 62
     3
 10
775.698768
 20
1085.614398
 11
774.698768
 21
1084.614398
  0
LINE
  8
CSLAYER1
  6
CONTINUOUS
 62
     3
 10
774.998768
 20
1084.914398
 11
776.198768
 21
1084.914398
  0
LINE
  8
CSLAYER1
  6
CONTINUOUS
 62
     3
 10
784.698768
 20
1082.515845
 11
782.198768
 21
1079.146280
  0
LINE
  8
CSLAYER1
  6
CONTINUOUS
 62
     3
 10
787.198768
 20
1073.114398
 11
786.698768
 21
1073.114398
  0
LINE
  8
CSLAYER1
  6
CONTINUOUS
 62
     3
 10
787.198768
 20
1088.114398
 11
786.698768
 21
1088.114398
  0
LINE
  8
CSLAYER1
  6
CONTINUOUS
 62
     3
 10
798.198768
 20
1351.365272
 11
799.198768
 21
1351.365272
  0
LINE
  8
CSLAYER1
  6
CONTINUOUS
 62
     3
 10
797.198768
 20
1361.815272
 11
797.198768
 21
1352.365272
  0
LINE
  8
CSLAYER1
  6
CONTINUOUS
 62
     3
 10
797.198768
 20
1352.365272
 11
798.198768
 21
1351.365272
  0
LINE
  8
CSLAYER1
  6
CONTINUOUS
 62
     3
 10
798.198768
 20
1361.815272
 11
798.198768
 21
1351.365272
  0
LINE
  8
CSLAYER1
  6
CONTINUOUS
 62
     3
 10
796.698768
 20
1349.515272
 11
790.698768
 21
1349.515272
  0
LINE
  8
CSLAYER1
  6
CONTINUOUS
 62
     3
 10
790.698768
 20
1361.815272
 11
790.698768
 21
1349.515272
  0
LINE
  8
CSLAYER1
  6
CONTINUOUS
 62
     3
 10
796.698768
 20
1361.815272
 11
796.698768
 21
1349.515272
  0
LINE
  8
CSLAYER1
  6
CONTINUOUS
 62
     3
 10
787.698768
 20
1349.045617
 11
787.698768
 21
1361.815272
  0
LINE
  8
CSLAYER1
  6
CONTINUOUS
 62
     3
 10
790.698768
 20
1349.265272
 11
787.698768
 21
1349.265272
  0
LINE
  8
CSLAYER1
  6
CONTINUOUS
 62
     3
 10
790.698768
 20
1358.503075
 11
787.859742
 21
1361.815272
  0
LINE
  8
CSLAYER1
  6
CONTINUOUS
 62
     3
 10
779.698768
 20
1361.815272
 11
779.698768
 21
1351.015272
  0
ARC
  8
CSLAYER1
  6
CONTINUOUS
 62
     3
 10
793.494512
 20
1360.015272
 40
13.795744
 50
172.502957
 51
203.426598
  0
LINE
  8
CSLAYER1
  6
CONTINUOUS
 62
     3
 10
787.698768
 20
1354.530444
 11
780.835949
 21
1354.530444
  0
LINE
  8
CSLAYER1
  6
CONTINUOUS
 62
     3
 10
787.698768
 20
1349.045617
 11
780.835949
 21
1349.045617
  0
LINE
  8
CSLAYER1
  6
CONTINUOUS
 62
     3
 10
779.698768
 20
1351.015272
 11
780.835949
 21
1349.045617
  0
ARC
  8
CSLAYER1
  6
CONTINUOUS
 62
     3
 10
783.478812
 20
1351.788030
 40
3.808617
 50
133.940972
 51
174.338367
  0
LINE
  8
CSLAYER1
  6
CONTINUOUS
 62
     3
 10
808.198768
 20
839.837161
 11
808.198768
 21
1361.815272
  0
LINE
  8
CSLAYER1
  6
CONTINUOUS
 62
     3
 10
787.198768
 20
839.837161
 11
787.198768
 21
1349.045617
  0
LINE
  8
CSLAYER1
  6
CONTINUOUS
 62
     3
 10
808.198768
 20
873.371719
 11
820.548768
 21
873.371719
  0
LINE
  8
CSLAYER1
  6
CONTINUOUS
 62
     3
 10
769.198768
 20
1347.515272
 11
769.198768
 21
1361.815272
  0
LINE
  8
CSLAYER1
  6
CONTINUOUS
 62
     3
 10
773.698768
 20
1347.515272
 11
773.698768
 21
1361.815272
  0
LINE
  8
CSLAYER1
  6
CONTINUOUS
 62
     3
 10
769.198768
 20
1347.515272
 11
773.698768
 21
1347.515272
  0
LINE
  8
CSLAYER1
  6
CONTINUOUS
 62
     3
 10
939.198768
 20
1347.515272
 11
939.198768
 21
1361.815272
  0
LINE
  8
CSLAYER1
  6
CONTINUOUS
 62
     3
 10
934.698768
 20
1347.515272
 11
934.698768
 21
1361.815272
  0
LINE
  8
CSLAYER1
  6
CONTINUOUS
 62
     3
 10
939.198768
 20
1347.515272
 11
934.698768
 21
1347.515272
  0
LINE
  8
CSLAYER1
  6
CONTINUOUS
 62
     3
 10
808.198768
 20
1048.434815
 11
846.698768
 21
1048.434815
  0
LINE
  8
CSLAYER1
  6
CONTINUOUS
 62
     3
 10
808.198768
 20
1050.311020
 11
846.698768
 21
1050.311020
  0
LINE
  8
CSLAYER1
  6
CONTINUOUS
 62
     3
 10
882.698768
 20
1050.311020
 11
900.198768
 21
1050.311020
  0
LINE
  8
CSLAYER1
  6
CONTINUOUS
 62
     3
 10
882.698768
 20
1048.434815
 11
900.198768
 21
1048.434815
  0
LINE
  8
CSLAYER1
  6
CONTINUOUS
 62
     3
 10
882.698768
 20
1118.747373
 11
886.198768
 21
1118.747373
  0
LINE
  8
CSLAYER1
  6
CONTINUOUS
 62
     3
 10
820.548768
 20
839.837161
 11
820.548768
 21
929.229150
  0
LINE
  8
CSLAYER1
  6
CONTINUOUS
 62
     3
 10
828.848768
 20
839.837161
 11
828.848768
 21
929.229150
  0
LINE
  8
CSLAYER1
  6
CONTINUOUS
 62
     3
 10
828.848768
 20
873.371719
 11
835.698768
 21
873.371719
  0
CIRCLE
  8
CSLAYER1
  6
CONTINUOUS
 62
     3
 10
824.198768
 20
811.487161
 40
4.150000
  0
LINE
  8
CSLAYER1
  6
CENTER
 62
     5
 10
1239.730919
 20
1891.774990
 11
1467.127078
 21
1891.774990
  0
LINE
  8
CSLAYER1
  6
CONTINUOUS
 62
     3
 10
1464.427078
 20
1936.274990
 11
1467.127078
 21
1936.274990
  0
LINE
  8
CSLAYER1
  6
CONTINUOUS
 62
     5
 10
820.698768
 20
976.229150
 11
820.698768
 21
980.889919
  0
LINE
  8
CSLAYER1
  6
CONTINUOUS
 62
     3
 10
1239.730919
 20
1895.924990
 11
1467.127078
 21
1895.924990
  0
LINE
  8
CSLAYER1
  6
CONTINUOUS
 62
     3
 10
1239.730919
 20
1887.624990
 11
1467.127078
 21
1887.624990
  0
LINE
  8
CSLAYER1
  6
CONTINUOUS
 62
     3
 10
1464.427078
 20
1895.924990
 11
1464.427078
 21
2001.774990
  0
DIMENSION
  8
CSLAYER1
 62
     3
  2
*D0000
 10
1379.173018
 20
1986.774990
 11
1370.921021
 21
1836.222168
 13
1478.164277
 23
1736.774990
 14
1478.164277
 24
1986.774990
 50
90.000000
 70
1
  0
DIMENSION
  8
CSLAYER1
 62
     3
  2
*D0001
 10
1489.427078
 20
1647.714925
 11
1423.571655
 21
1631.447754
 13
1464.427078
 23
1580.903358
 14
1489.427078
 24
1725.512188
  0
DIMENSION
  8
CSLAYER1
 62
     3
  2
*D0002
 10
1514.427078
 20
1580.903358
 11
1424.733521
 21
1564.055176
 13
1464.427078
 23
1721.774990
 14
1514.427078
 24
1721.774990
 52
270.000000
 70
1
  0
INSERT
  8
CSLAYER1
  2
EASYDRAWDIM0000
 10
0.0
 20
0.0
 30
0.0
  0
DIMENSION
  8
CSLAYER1
 62
     3
  2
*D0003
 10
2262.029453
 20
864.637161
 11
2252.029541
 21
832.237244
 13
2353.285057
 23
799.837161
 14
2167.127078
 24
864.637161
 50
90.000000
  0
DIMENSION
  8
CSLAYER1
 62
     3
  2
*D0004
 10
2262.029453
 20
1379.815272
 11
2252.029541
 21
1122.226318
 13
2150.773850
 23
864.637161
 14
2150.773850
 24
1379.815272
 50
90.000000
 70
1
  0
DIMENSION
  8
CSLAYER1
 62
     3
  2
*D0005
 10
2353.285057
 20
799.837161
 11
2343.285156
 21
1089.826172
 13
2353.285057
 23
1379.815272
 14
2353.285057
 24
799.837161
 50
90.000000
 70
1
  0
DIMENSION
  8
CSLAYER1
 62
     3
  2
*D0006
 10
2189.404383
 20
1455.056986
 11
1839.404419
 21
1465.056763
 13
1489.404383
 23
1379.815272
 14
2189.404383
 24
1379.815272
 70
1
  0
DIMENSION
  8
CSLAYER1
 62
     3
  2
*D0007
 10
2167.427078
 20
616.276818
 11
1815.927124
 21
626.276855
 13
1464.427078
 23
799.837161
 14
2167.427078
 24
799.837161
 52
270.000000
 70
1
  0
DIMENSION
  8
CSLAYER1
 62
     3
  2
*D0008
 10
1070.585365
 20
805.837161
 11
1060.585327
 21
822.886658
 13
1004.198768
 23
799.837161
 14
1004.198768
 24
805.837161
 50
90.000000
 70
1
  0
LINE
  8
CSLAYER1
  6
CONTINUOUS
 62
     3
 10
1324.632422
 20
823.987161
 11
1464.427078
 21
823.987161
  0
LINE
  8
CSLAYER1
  6
CONTINUOUS
 62
     3
 10
1324.632422
 20
815.687161
 11
1464.427078
 21
815.687161
  0
INSERT
  8
CSLAYER1
  2
EASYDRAWDIM0001
 10
0.0
 20
0.0
 30
0.0
  0
INSERT
  8
CSLAYER1
  2
EASYDRAWDIM0002
 10
0.0
 20
0.0
 30
0.0
  0
LINE
  8
CSLAYER1
  6
CONTINUOUS
 62
     4
 10
1467.127078
 20
2011.774990
 11
2167.127078
 21
2011.774990
  0
ARC
  8
CSLAYER1
  6
CONTINUOUS
 62
     3
 10
1489.427078
 20
1986.774990
 40
6.500000
 50
72.116486
 51
113.266608
  0
ARC
  8
CSLAYER1
  6
CONTINUOUS
 62
     3
 10
1489.427078
 20
1986.774990
 40
6.500000
 50
-22.741190
 51
20.013871
  0
ARC
  8
CSLAYER1
  6
CONTINUOUS
 62
     3
 10
1489.427078
 20
1986.774990
 40
6.500000
 50
247.107161
 51
292.756988
  0
LINE
  8
CSLAYER1
  6
DASHED
 62
     4
 10
1467.127078
 20
1761.774990
 11
2167.127078
 21
1761.774990
  0
LINE
  8
CSLAYER1
  6
DASHED
 62
     4
 10
1514.427078
 20
1721.774990
 11
1514.427078
 21
1761.774990
  0
LINE
  8
CSLAYER1
  6
CONTINUOUS
 62
     3
 10
1474.427078
 20
1711.774990
 11
1504.427078
 21
1711.774990
  0
ARC
  8
CSLAYER1
  6
CONTINUOUS
 62
     3
 10
1474.427078
 20
1721.774990
 40
10.000000
 50
180.000000
 51
223.113606
  0
ARC
  8
CSLAYER1
  6
CONTINUOUS
 62
     4
 10
1504.427078
 20
1721.774990
 40
10.000000
 50
270.000000
 51
360.000000
  0
LINE
  8
CSLAYER1
  6
CENTER
 62
     5
 10
1489.427078
 20
1748.037791
 11
1489.427078
 21
1725.512188
  0
LINE
  8
CSLAYER1
  6
CENTER
 62
     5
 10
1478.164277
 20
1736.774990
 11
1500.689880
 21
1736.774990
  0
ARC
  8
CSLAYER1
  6
CONTINUOUS
 62
     3
 10
1489.427078
 20
1736.774990
 40
6.500000
 50
156.345393
 51
203.231252
  0
LINE
  8
CSLAYER1
  6
CONTINUOUS
 62
     3
 10
1464.427078
 20
1787.274990
 11
1467.127078
 21
1787.274990
  0
LINE
  8
CSLAYER1
  6
CONTINUOUS
 62
     4
 10
1467.127078
 20
1711.774990
 11
2167.127078
 21
1711.774990
  0
ARC
  8
CSLAYER1
  6
CONTINUOUS
 62
     3
 10
1489.427078
 20
1736.774990
 40
6.500000
 50
246.733392
 51
287.883514
  0
ARC
  8
CSLAYER1
  6
CONTINUOUS
 62
     3
 10
1489.427078
 20
1736.774990
 40
6.500000
 50
-20.013871
 51
22.741190
  0
ARC
  8
CSLAYER1
  6
CONTINUOUS
 62
     3
 10
1489.427078
 20
1736.774990
 40
6.500000
 50
67.243012
 51
112.892839
  0
DIMENSION
  8
CSLAYER1
 62
     3
  2
*D0009
 10
2260.722068
 20
2011.774990
 11
2250.722168
 21
1861.774902
 13
2167.127078
 23
1711.774990
 14
2167.127078
 24
2011.774990
 50
90.000000
 70
1
  0
LINE
  8
CSLAYER1
  6
CONTINUOUS
 62
     3
 10
1004.198768
 20
1361.815272
 11
1004.198768
 21
1379.815272
  0
LINE
  8
CSLAYER1
  6
CONTINUOUS
 62
     3
 10
704.198768
 20
1361.815272
 11
704.198768
 21
1379.815272
  0
INSERT
  8
CSLAYER1
  2
BLKF0003
 10
0.0
 20
0.0
 30
0.0
  0
INSERT
  8
CSLAYER1
  2
BLKF0004
 10
0.0
 20
0.0
 30
0.0
  0
TEXT
  8
CSLAYER1
 62
     7
 10
1471.247681
 20
2082.974609
 40
40.000000
 41
0.843750
  1
下降時
 50
0.000000
 51
0.000000
  7
EASYDRAW_FONT
 72
     5
 11
1561.247681
 21
2082.974609
  0
LINE
  8
CSLAYER1
  6
CONTINUOUS
 62
     5
 10
1457.641094
 20
2129.404742
 11
1580.599104
 21
2129.404742
  0
LINE
  8
CSLAYER1
  6
CONTINUOUS
 62
     5
 10
1580.599104
 20
2129.404742
 11
1580.599104
 21
2076.544289
  0
LINE
  8
CSLAYER1
  6
CONTINUOUS
 62
     5
 10
1580.599104
 20
2076.544289
 11
1457.641094
 21
2076.544289
  0
LINE
  8
CSLAYER1
  6
CONTINUOUS
 62
     5
 10
1457.641094
 20
2076.544289
 11
1457.641094
 21
2129.404742
  0
LINE
  8
CSLAYER1
  6
CONTINUOUS
 62
     5
 10
3465.018338
 20
2344.184439
 11
2585.018338
 21
2344.184439
  0
LINE
  8
CSLAYER1
  6
CONTINUOUS
 62
     5
 10
3465.018338
 20
2290.851106
 11
2585.018338
 21
2290.851106
  0
LINE
  8
CSLAYER1
  6
CONTINUOUS
 62
     5
 10
3465.018338
 20
2237.517773
 11
2585.018338
 21
2237.517773
  0
LINE
  8
CSLAYER1
  6
CONTINUOUS
 62
     5
 10
3465.018338
 20
2130.851106
 11
2585.018338
 21
2130.851106
  0
LINE
  8
CSLAYER1
  6
CONTINUOUS
 62
     5
 10
3465.018338
 20
2024.184439
 11
2585.018338
 21
2024.184439
  0
LINE
  8
CSLAYER1
  6
CONTINUOUS
 62
     5
 10
3465.018338
 20
1810.851106
 11
2585.018338
 21
1810.851106
  0
LINE
  8
CSLAYER1
  6
CONTINUOUS
 62
     5
 10
3465.018338
 20
1597.517769
 11
2585.018338
 21
1597.517769
  0
LINE
  8
CSLAYER1
  6
CONTINUOUS
 62
     5
 10
3465.018338
 20
1544.184436
 11
2585.018338
 21
1544.184436
  0
TEXT
  8
CSLAYER1
 62
     3
 10
2598.351563
 20
2350.851074
 40
40.000000
 41
0.838235
  1
仕    様
 50
0.000000
 51
0.000000
  7
EASYDRAW_FONT
 72
     5
 11
2788.351563
 21
2350.851074
  0
TEXT
  8
CSLAYER1
 62
     3
 10
2598.351563
 20
2297.517822
 40
40.000000
 41
0.838235
  1
型    式
 50
0.000000
 51
0.000000
  7
EASYDRAW_FONT
 72
     5
 11
2788.351563
 21
2297.517822
  0
TEXT
  8
CSLAYER1
 62
     3
 10
2963.351563
 20
2297.517822
 40
40.000000
 41
0.817105
  1
GLSE-150-3007
 50
0.000000
 51
0.000000
  7
EASYDRAW_FONT
 72
     5
 11
3377.351563
 21
2297.517822
  0
TEXT
  8
CSLAYER1
 62
     3
 10
2598.351563
 20
2244.184570
 40
40.000000
 41
0.859091
  1
均等荷重
 50
0.000000
 51
0.000000
  7
EASYDRAW_FONT
 72
     5
 11
2724.351563
 21
2244.184570
  0
TEXT
  8
CSLAYER1
 62
     3
 10
3389.684814
 20
2244.184570
 40
40.000000
 41
0.930000
  1
ｋｇ
 50
0.000000
 51
0.000000
  7
EASYDRAW_FONT
 72
     5
 11
3451.684814
 21
2244.184570
  0
TEXT
  8
CSLAYER1
 62
     3
 10
2598.351563
 20
2137.517822
 40
40.000000
 41
0.838235
  1
テーブル高サ
 50
0.000000
 51
0.000000
  7
EASYDRAW_FONT
 72
     5
 11
2788.351563
 21
2137.517822
  0
TEXT
  8
CSLAYER1
 62
     3
 10
3389.684814
 20
2137.517822
 40
40.000000
 41
0.930000
  1
ｍｍ
 50
0.000000
 51
0.000000
  7
EASYDRAW_FONT
 72
     5
 11
3451.684814
 21
2137.517822
  0
TEXT
  8
CSLAYER1
 62
     3
 10
2598.351563
 20
2030.850830
 40
40.000000
 41
0.838235
  1
全    長
 50
0.000000
 51
0.000000
  7
EASYDRAW_FONT
 72
     5
 11
2788.351563
 21
2030.850830
  0
TEXT
  8
CSLAYER1
 62
     3
 10
3123.351563
 20
2030.850830
 40
40.000000
 41
0.881250
  1
703
 50
0.000000
 51
0.000000
  7
EASYDRAW_FONT
 72
     5
 11
3217.351563
 21
2030.850830
  0
TEXT
  8
CSLAYER1
 62
     3
 10
3059.351563
 20
1817.517456
 40
40.000000
 41
0.832500
  1
フットスイッチ
 50
0.000000
 51
0.000000
  7
EASYDRAW_FONT
 72
     5
 11
3281.351563
 21
1817.517456
  0
TEXT
  8
CSLAYER1
 62
     3
 10
2598.351563
 20
1817.517456
 40
40.000000
 41
0.859091
  1
操作方式
 50
0.000000
 51
0.000000
  7
EASYDRAW_FONT
 72
     5
 11
2724.351563
 21
1817.517456
  0
TEXT
  8
CSLAYER1
 62
     3
 10
2598.351563
 20
1550.850830
 40
40.000000
 41
0.832500
  1
自     重
 50
0.000000
 51
0.000000
  7
EASYDRAW_FONT
 72
     5
 11
2820.351563
 21
1550.850830
  0
TEXT
  8
CSLAYER1
 62
     3
 10
3114.018311
 20
1550.850830
 40
40.000000
 41
0.859091
  1
約 58
 50
0.000000
 51
0.000000
  7
EASYDRAW_FONT
 72
     5
 11
3240.018311
 21
1550.850830
  0
TEXT
  8
CSLAYER1
 62
     3
 10
2598.351563
 20
1497.517578
 40
40.000000
 41
0.832500
  1
塗  装  色
 50
0.000000
 51
0.000000
  7
EASYDRAW_FONT
 72
     5
 11
2820.351563
 21
1497.517578
  0
TEXT
  8
CSLAYER1
 62
     3
 10
3123.351563
 20
2244.184570
 40
40.000000
 41
0.881250
  1
150
 50
0.000000
 51
0.000000
  7
EASYDRAW_FONT
 72
     5
 11
3217.351563
 21
2244.184570
  0
TEXT
  8
CSLAYER1
 62
     3
 10
3075.351563
 20
2137.517822
 40
40.000000
 41
0.838235
  1
65～570
 50
0.000000
 51
0.000000
  7
EASYDRAW_FONT
 72
     5
 11
3265.351563
 21
2137.517822
  0
TEXT
  8
CSLAYER1
 62
     3
 10
3389.684814
 20
2030.850830
 40
40.000000
 41
0.930000
  1
ｍｍ
 50
0.000000
 51
0.000000
  7
EASYDRAW_FONT
 72
     5
 11
3451.684814
 21
2030.850830
  0
LINE
  8
CSLAYER1
  6
CONTINUOUS
 62
     5
 10
3465.018338
 20
1970.851106
 11
2585.018338
 21
1970.851106
  0
TEXT
  8
CSLAYER1
 62
     3
 10
2598.351563
 20
1977.517456
 40
40.000000
 41
0.838235
  1
全    幅
 50
0.000000
 51
0.000000
  7
EASYDRAW_FONT
 72
     5
 11
2788.351563
 21
1977.517456
  0
TEXT
  8
CSLAYER1
 62
     3
 10
3123.351563
 20
1977.517456
 40
40.000000
 41
0.881250
  1
300
 50
0.000000
 51
0.000000
  7
EASYDRAW_FONT
 72
     5
 11
3217.351563
 21
1977.517456
  0
TEXT
  8
CSLAYER1
 62
     3
 10
3389.684814
 20
1977.517456
 40
40.000000
 41
0.930000
  1
ｍｍ
 50
0.000000
 51
0.000000
  7
EASYDRAW_FONT
 72
     5
 11
3451.684814
 21
1977.517456
  0
LINE
  8
CSLAYER1
  6
CONTINUOUS
 62
     5
 10
3465.018338
 20
1650.851106
 11
2585.018338
 21
1650.851106
  0
TEXT
  8
CSLAYER1
 62
     3
 10
3026.313965
 20
1602.785767
 40
40.000000
 41
0.825000
  1
油圧ユニット別置型
 50
0.000000
 51
0.000000
  7
EASYDRAW_FONT
 72
     5
 11
3312.313965
 21
1602.785767
  0
LINE
  8
CSLAYER1
  6
CONTINUOUS
 62
     5
 10
3465.018338
 20
1597.517773
 11
2585.018338
 21
1597.517773
  0
TEXT
  8
CSLAYER1
 62
     3
 10
3389.684814
 20
1550.850830
 40
40.000000
 41
0.930000
  1
ｋｇ
 50
0.000000
 51
0.000000
  7
EASYDRAW_FONT
 72
     5
 11
3451.684814
 21
1550.850830
  0
LINE
  8
CSLAYER1
  6
CONTINUOUS
 62
     5
 10
3465.018338
 20
2184.184439
 11
2585.018338
 21
2184.184439
  0
TEXT
  8
CSLAYER1
 62
     3
 10
2598.351563
 20
2190.851318
 40
40.000000
 41
0.838235
  1
テーブル寸法
 50
0.000000
 51
0.000000
  7
EASYDRAW_FONT
 72
     5
 11
2788.351563
 21
2190.851318
  0
TEXT
  8
CSLAYER1
 62
     3
 10
3389.684814
 20
2190.851318
 40
40.000000
 41
0.930000
  1
ｍｍ
 50
0.000000
 51
0.000000
  7
EASYDRAW_FONT
 72
     5
 11
3451.684814
 21
2190.851318
  0
TEXT
  8
CSLAYER1
 62
     3
 10
3027.351563
 20
2190.851318
 40
40.000000
 41
0.825000
  1
700L×300W
 50
0.000000
 51
0.000000
  7
EASYDRAW_FONT
 72
     5
 11
3313.351563
 21
2190.851318
  0
LINE
  8
CSLAYER1
  6
CONTINUOUS
 62
     5
 10
3465.018338
 20
2077.517773
 11
2585.018338
 21
2077.517773
  0
TEXT
  8
CSLAYER1
 62
     3
 10
3389.684814
 20
2084.184570
 40
40.000000
 41
0.930000
  1
ｍｍ
 50
0.000000
 51
0.000000
  7
EASYDRAW_FONT
 72
     5
 11
3451.684814
 21
2084.184570
  0
TEXT
  8
CSLAYER1
 62
     3
 10
3123.351563
 20
2084.184570
 40
40.000000
 41
0.881250
  1
505
 50
0.000000
 51
0.000000
  7
EASYDRAW_FONT
 72
     5
 11
3217.351563
 21
2084.184570
  0
TEXT
  8
CSLAYER1
 62
     3
 10
2600.184082
 20
2084.184570
 40
40.000000
 41
0.846429
  1
ストローク
 50
0.000000
 51
0.000000
  7
EASYDRAW_FONT
 72
     5
 11
2758.184082
 21
2084.184570
  0
LINE
  8
CSLAYER1
  6
CONTINUOUS
 62
     5
 10
3465.018338
 20
1917.517773
 11
2585.018338
 21
1917.517773
  0
TEXT
  8
CSLAYER1
 62
     3
 10
2598.351563
 20
1924.184204
 40
40.000000
 41
0.838235
  1
全    高
 50
0.000000
 51
0.000000
  7
EASYDRAW_FONT
 72
     5
 11
2788.351563
 21
1924.184204
  0
TEXT
  8
CSLAYER1
 62
     3
 10
3123.351563
 20
1924.184204
 40
40.000000
 41
0.881250
  1
 65
 50
0.000000
 51
0.000000
  7
EASYDRAW_FONT
 72
     5
 11
3217.351563
 21
1924.184204
  0
TEXT
  8
CSLAYER1
 62
     3
 10
3389.684814
 20
1924.184204
 40
40.000000
 41
0.930000
  1
ｍｍ
 50
0.000000
 51
0.000000
  7
EASYDRAW_FONT
 72
     5
 11
3451.684814
 21
1924.184204
  0
LINE
  8
CSLAYER1
  6
CONTINUOUS
 62
     5
 10
3465.018338
 20
1864.184439
 11
2585.018338
 21
1864.184439
  0
TEXT
  8
CSLAYER1
 62
     3
 10
2598.351563
 20
1870.850830
 40
40.000000
 41
0.846429
  1
リフト方式
 50
0.000000
 51
0.000000
  7
EASYDRAW_FONT
 72
     5
 11
2756.351563
 21
1870.850830
  0
TEXT
  8
CSLAYER1
 62
     3
 10
3091.351563
 20
1870.850830
 40
40.000000
 41
0.846429
  1
電動油圧式
 50
0.000000
 51
0.000000
  7
EASYDRAW_FONT
 72
     5
 11
3249.351563
 21
1870.850830
  0
LINE
  8
CSLAYER1
  6
CONTINUOUS
 62
     5
 10
3465.018338
 20
1704.184439
 11
2585.018338
 21
1704.184439
  0
TEXT
  8
CSLAYER1
 62
     3
 10
3091.351563
 20
1710.850708
 40
40.000000
 41
0.846429
  1
長さ 4m
 50
0.000000
 51
0.000000
  7
EASYDRAW_FONT
 72
     5
 11
3249.351563
 21
1710.850708
  0
TEXT
  8
CSLAYER1
 62
     3
 10
2598.351563
 20
1710.850708
 40
40.000000
 41
0.846429
  1
電源コード
 50
0.000000
 51
0.000000
  7
EASYDRAW_FONT
 72
     5
 11
2756.351563
 21
1710.850708
  0
TEXT
  8
CSLAYER1
 62
     3
 10
2598.351563
 20
1657.517456
 40
40.000000
 41
0.859091
  1
上昇時間
 50
0.000000
 51
0.000000
  7
EASYDRAW_FONT
 72
     5
 11
2724.351563
 21
1657.517456
  0
TEXT
  8
CSLAYER1
 62
     3
 10
2910.351582
 20
1657.517456
 40
40.000000
 41
0.661017
  1
約8sec/50Hz，6sec/60Hz
 50
0.000000
 51
0.000000
  7
EASYDRAW_FONT
 72
     5
 11
3430.351543
 21
1657.517456
  0
LINE
  8
CSLAYER1
  6
CONTINUOUS
 62
     5
 10
3465.018338
 20
1757.517773
 11
2585.018338
 21
1757.517773
  0
TEXT
  8
CSLAYER1
 62
     3
 10
2598.351563
 20
1764.184204
 40
40.000000
 41
0.859091
  1
モーター
 50
0.000000
 51
0.000000
  7
EASYDRAW_FONT
 72
     5
 11
2724.351563
 21
1764.184204
  0
TEXT
  8
CSLAYER1
 62
     3
 10
2931.351563
 20
1764.184204
 40
40.000000
 41
0.814773
  1
AC200V，三相，0.4kw
 50
0.000000
 51
0.000000
  7
EASYDRAW_FONT
 72
     5
 11
3409.351563
 21
1764.184204
  0
LINE
  8
CSLAYER1
  6
CONTINUOUS
 62
     5
 10
2889.018338
 20
1490.851103
 11
2889.018338
 21
1597.517769
  0
LINE
  8
CSLAYER1
  6
CONTINUOUS
 62
     5
 10
2889.018338
 20
1650.851106
 11
2889.018338
 21
2344.184439
  0
INSERT
  8
CSLAYER1
  2
BLKF0005
 10
0.0
 20
0.0
 30
0.0
  0
INSERT
  8
CSLAYER1
  2
BLKF0006
 10
0.0
 20
0.0
 30
0.0
  0
DIMENSION
  8
CSLAYER1
 62
     3
  2
*D0014
 10
1004.198768
 20
1454.604182
 11
854.198792
 21
1464.604126
 13
704.198768
 23
1379.815272
 14
1004.198768
 24
1379.815272
 70
1
  0
LINE
  8
CSLAYER1
  6
CENTER
 62
     5
 10
2646.600355
 20
844.837161
 11
2795.600355
 21
844.837161
  0
LINE
  8
CSLAYER1
  6
CONTINUOUS
 62
     3
 10
2871.100355
 20
864.637161
 11
2571.100355
 21
864.637161
  0
LINE
  8
CSLAYER1
  6
CONTINUOUS
 62
     3
 10
2871.100355
 20
846.637161
 11
2571.100355
 21
846.637161
  0
LINE
  8
CSLAYER1
  6
CONTINUOUS
 62
     3
 10
2778.100355
 20
846.637161
 11
2778.100355
 21
839.837161
  0
LINE
  8
CSLAYER1
  6
CONTINUOUS
 62
     3
 10
2777.100355
 20
846.637161
 11
2777.100355
 21
839.837161
  0
LINE
  8
CSLAYER1
  6
CONTINUOUS
 62
     3
 10
2784.600355
 20
846.637161
 11
2784.600355
 21
839.837161
  0
LINE
  8
CSLAYER1
  6
CONTINUOUS
 62
     3
 10
2778.600355
 20
846.637161
 11
2778.600355
 21
839.837161
  0
LINE
  8
CSLAYER1
  6
CONTINUOUS
 62
     3
 10
2787.600355
 20
839.837161
 11
2787.600355
 21
846.637161
  0
LINE
  8
CSLAYER1
  6
CONTINUOUS
 62
     3
 10
2784.600355
 20
843.324965
 11
2787.439381
 21
846.637161
  0
LINE
  8
CSLAYER1
  6
CONTINUOUS
 62
     3
 10
2795.600355
 20
846.637161
 11
2795.600355
 21
839.837161
  0
ARC
  8
CSLAYER1
  6
CONTINUOUS
 62
     3
 10
2781.804611
 20
844.837161
 40
13.795744
 50
-21.249544
 51
7.497043
  0
LINE
  8
CSLAYER1
  6
CONTINUOUS
 62
     3
 10
2664.100355
 20
846.637161
 11
2664.100355
 21
839.837161
  0
LINE
  8
CSLAYER1
  6
CONTINUOUS
 62
     3
 10
2665.100355
 20
846.637161
 11
2665.100355
 21
839.837161
  0
LINE
  8
CSLAYER1
  6
CONTINUOUS
 62
     3
 10
2657.600355
 20
846.637161
 11
2657.600355
 21
839.837161
  0
LINE
  8
CSLAYER1
  6
CONTINUOUS
 62
     3
 10
2663.600355
 20
846.637161
 11
2663.600355
 21
839.837161
  0
LINE
  8
CSLAYER1
  6
CONTINUOUS
 62
     3
 10
2654.600355
 20
839.837161
 11
2654.600355
 21
846.637161
  0
LINE
  8
CSLAYER1
  6
CONTINUOUS
 62
     3
 10
2657.600355
 20
843.324965
 11
2654.761329
 21
846.637161
  0
LINE
  8
CSLAYER1
  6
CONTINUOUS
 62
     3
 10
2646.600355
 20
846.637161
 11
2646.600355
 21
839.837161
  0
ARC
  8
CSLAYER1
  6
CONTINUOUS
 62
     3
 10
2660.396099
 20
844.837161
 40
13.795744
 50
172.502957
 51
201.249544
  0
LINE
  8
CSLAYER1
  6
CONTINUOUS
 62
     3
 10
2636.100355
 20
839.837161
 11
2636.100355
 21
846.637161
  0
LINE
  8
CSLAYER1
  6
CONTINUOUS
 62
     3
 10
2640.600355
 20
839.837161
 11
2640.600355
 21
846.637161
  0
LINE
  8
CSLAYER1
  6
CONTINUOUS
 62
     3
 10
2806.100355
 20
839.837161
 11
2806.100355
 21
846.637161
  0
LINE
  8
CSLAYER1
  6
CONTINUOUS
 62
     3
 10
2801.600355
 20
839.837161
 11
2801.600355
 21
846.637161
  0
LINE
  8
CSLAYER1
  6
CONTINUOUS
 62
     3
 10
2871.100355
 20
846.637161
 11
2871.100355
 21
864.637161
  0
LINE
  8
CSLAYER1
  6
CONTINUOUS
 62
     3
 10
2571.100355
 20
846.637161
 11
2571.100355
 21
864.637161
  0
TEXT
  8
CSLAYER1
 62
     5
 10
2959.845671
 20
807.357044
 40
31.844261
 41
0.920655
  1
Ｆ.Ｌ
 50
0.000000
 51
0.000000
  7
EASYDRAW_FONT
 72
     5
 11
3038.025911
 21
807.357044
  0
LINE
  8
CSLAYER1
  6
CONTINUOUS
 62
     3
 10
2571.100355
 20
799.837161
 11
2871.100355
 21
799.837161
  0
LINE
  8
CSLAYER1
  6
CENTER
 62
     5
 10
2846.100355
 20
790.907800
 11
2846.100355
 21
815.117761
  0
LINE
  8
CSLAYER1
  6
CENTER
 62
     5
 10
2596.100355
 20
790.907800
 11
2596.100355
 21
815.117761
  0
LINE
  8
CSLAYER1
  6
CONTINUOUS
 62
     3
 10
2621.100355
 20
839.837161
 11
2821.100355
 21
839.837161
  0
LINE
  8
CSLAYER1
  6
CONTINUOUS
 62
     3
 10
2621.100355
 20
839.837161
 11
2621.100355
 21
805.837161
  0
LINE
  8
CSLAYER1
  6
CONTINUOUS
 62
     3
 10
2821.100355
 20
839.837161
 11
2821.100355
 21
805.837161
  0
LINE
  8
CSLAYER1
  6
CONTINUOUS
 62
     3
 10
2871.100355
 20
799.837161
 11
2871.100355
 21
805.837161
  0
LINE
  8
CSLAYER1
  6
CONTINUOUS
 62
     3
 10
2871.100355
 20
805.837161
 11
2821.100355
 21
805.837161
  0
LINE
  8
CSLAYER1
  6
CONTINUOUS
 62
     3
 10
2571.100355
 20
799.837161
 11
2571.100355
 21
805.837161
  0
LINE
  8
CSLAYER1
  6
CONTINUOUS
 62
     3
 10
2571.100355
 20
805.837161
 11
2621.100355
 21
805.837161
  0
POINT
  8
CSLAYER1
 62
     3
 10
2721.100355
 20
864.637161
  0
POINT
  8
CSLAYER1
 62
     3
 10
2721.100355
 20
839.837161
  0
LINE
  8
CSLAYER1
  6
CENTER
 62
     5
 10
2721.100355
 20
864.637161
 11
2721.100355
 21
799.837161
  0
TEXT
  8
CSLAYER1
 62
     7
 10
2673.462158
 20
944.466492
 40
40.000000
 41
0.843750
  1
下降時
 50
0.000000
 51
0.000000
  7
EASYDRAW_FONT
 72
     5
 11
2763.462158
 21
944.466492
  0
LINE
  8
CSLAYER1
  6
CONTINUOUS
 62
     5
 10
2659.855700
 20
990.896632
 11
2782.813710
 21
990.896632
  0
LINE
  8
CSLAYER1
  6
CONTINUOUS
 62
     5
 10
2782.813710
 20
990.896632
 11
2782.813710
 21
938.036180
  0
LINE
  8
CSLAYER1
  6
CONTINUOUS
 62
     5
 10
2782.813710
 20
938.036180
 11
2659.855700
 21
938.036180
  0
LINE
  8
CSLAYER1
  6
CONTINUOUS
 62
     5
 10
2659.855700
 20
938.036180
 11
2659.855700
 21
990.896632
  0
DIMENSION
  8
CSLAYER1
 62
     3
  2
*D0015
 10
2482.233503
 20
864.637161
 11
2472.233154
 21
832.237122
 13
2515.955539
 23
799.837161
 14
2566.496692
 24
864.637161
 50
90.000000
  0
LINE
  8
CSLAYER1
  6
CONTINUOUS
 62
     5
 10
3080.444174
 20
799.837161
 11
2871.100355
 21
799.837161
  0
LINE
  8
CSLAYER1
  6
CONTINUOUS
 62
     3
 10
2621.100355
 20
807.485556
 11
2621.100355
 21
799.837161
  0
LINE
  8
CSLAYER1
  6
CONTINUOUS
 62
     3
 10
2821.100355
 20
815.036304
 11
2821.100355
 21
799.837161
  0
INSERT
  8
CSLAYER1
  2
BLKF0007
 10
0.0
 20
0.0
 30
0.0
  0
LINE
  8
CSLAYER1
  6
CONTINUOUS
 62
     3
 10
704.198768
 20
799.837161
 11
1004.198768
 21
799.837161
  0
LINE
  8
CSLAYER1
  6
CONTINUOUS
 62
     5
 10
1004.198768
 20
799.837161
 11
1464.427078
 21
799.837161
  0
LINE
  8
CSLAYER1
  6
CONTINUOUS
 62
     3
 10
1464.427078
 20
799.837161
 11
2167.427078
 21
799.837161
  0
LINE
  8
CSLAYER1
  6
CONTINUOUS
 62
     5
 10
2167.427078
 20
799.837161
 11
2571.100355
 21
799.837161
  0
ENDSEC
  0
EOF
