  0
SECTION
  2
HEADER
  9
$ACADVER
  1
AC1006
  9
$INSBASE
 10
0.000000
 20
0.000000
 30
0.0
  9
$EXTMIN
 10
0.000000
 20
0.000000
  9
$EXTMAX
 10
3640.000000
 20
2570.000000
  9
$LIMMIN
 10
0.000000
 20
0.000000
  9
$LIMMAX
 10
3640.000000
 20
2570.000000
  9
$VIEWCTR
 10
1820.000000
 20
1285.000000
  9
$VIEWSIZE
 40
2570.000000
  9
$SNAPMODE
 70
     0
  9
$SNAPUNIT
 10
1.0
 20
1.0
  9
$SNAPBASE
 10
0.0
 20
0.0
  9
$SNAPANG
 50
0.0
  9
$SNAPSTYLE
 70
     0
  9
$SNAPISOPAIR
 70
     0
  9
$GRIDMODE
 70
     0
  9
$GRIDUNIT
 10
0.0
 20
0.0
  9
$ORTHOMODE
 70
     0
  9
$REGENMODE
 70
     1
  9
$FILLMODE
 70
     1
  9
$QTEXTMODE
 70
     0
  9
$DRAGMODE
 70
     2
  9
$LTSCALE
 40
15.000000
  9
$OSMODE
 70
     0
  9
$ATTMODE
 70
     1
  9
$TEXTSIZE
 40
0.2
  9
$TRACEWID
 40
0.05
  9
$TEXTSTYLE
  7
STANDARD
  9
$CLAYER
  8
CSLAYER1
  9
$CELTYPE
  6
BYLAYER
  9
$CECOLOR
 62
   256
  9
$DIMSCALE
 40
1.0
  9
$DIMASZ
 40
0.18
  9
$DIMEXO
 40
0.0625
  9
$DIMDLI
 40
0.38
  9
$DIMRND
 40
0.0
  9
$DIMDLE
 40
0.0
  9
$DIMEXE
 40
0.18
  9
$DIMTP
 40
0.0
  9
$DIMTM
 40
0.0
  9
$DIMTXT
 40
0.18
  9
$DIMCEN
 40
0.09
  9
$DIMTSZ
 40
0.0
  9
$DIMTOL
 70
     0
  9
$DIMLIM
 70
     0
  9
$DIMTIH
 70
     1
  9
$DIMTOH
 70
     1
  9
$DIMSE1
 70
     0
  9
$DIMSE2
 70
     0
  9
$DIMTAD
 70
     0
  9
$DIMZIN
 70
     0
  9
$DIMBLK
  1

  9
$LUNITS
 70
     2
  9
$LUPREC
 70
     4
  9
$AXISMODE
 70
     0
  9
$AXISUNIT
 10
0.0
 20
0.0
  9
$SKETCHINC
 40
0.1
  9
$FILLETRAD
 40
0.0
  9
$AUNITS
 70
     0
  9
$AUPREC
 70
     0
  9
$MENU
  1
ACAD
  9
$ELEVATION
 40
0.0
  9
$THICKNESS
 40
0.0
  9
$VIEWDIR
 10
0.0
 20
0.0
 30
1.0
  9
$LIMCHECK
 70
     0
  9
$BLIPMODE
 70
     1
  9
$CHAMFERA
 40
0.0
  9
$CHAMFERB
 40
0.0
  9
$FASTZOOM
 70
     1
  9
$SKPOLY
 70
     0
  9
$TDCREATE
 40
2456676.000000
  9
$TDUPDATE
 40
2456676.000000
  9
$TDINDWG
 40
0.0
  9
$TDUSRTIMER
 40
0.0
  9
$USRTIMER
 70
     1
  9
$ANGBASE
 50
0.0
  9
$ANGDIR
 70
     0
  9
$PDMODE
 70
     0
  9
$PDSIZE
 40
0.0
  9
$PLINEWID
 40
0.0
  9
$COORDS
 70
     0
  9
$USERI1
 70
     0
  9
$USERI2
 70
     0
  9
$USERI3
 70
     0
  9
$USERI4
 70
     0
  9
$USERI5
 70
     0
  9
$USERR1
 40
0.0
  9
$USERR2
 40
0.0
  9
$USERR3
 40
0.0
  9
$USERR4
 40
0.0
  9
$USERR5
 40
0.0
  0
ENDSEC
  0
SECTION
  2
TABLES
  0
TABLE
  2
LTYPE
 70
     9
  0
LTYPE
  2
CONTINUOUS
 70
    64
  3
Solid line
 72
    65
 73
     0
 40
0.0
  0
LTYPE
  2
DASHED
 70
    64
  3
__ __ __ __ __ __ __ __ __ __ __ __ __ __ __
 72
    65
 73
     2
 40
0.75
 49
0.5
 49
-0.25
  0
LTYPE
  2
HIDDEN
 70
    64
  3
_ _ _ _ _ _ _ _ _ _ _ _ _ _ _ _ _ _ _ _ _ _ _
 72
    65
 73
     2
 40
0.375
 49
0.25
 49
-0.125
  0
LTYPE
  2
DOT
 70
    64
  3
...............................................
 72
    65
 73
     2
 40
0.25
 49
0.0
 49
-0.25
  0
LTYPE
  2
DASHDOT
 70
    64
  3
__ . __ . __ . __ . __ . __ . __ . __ . __ . __
 72
    65
 73
     4
 40
1.0
 49
0.5
 49
-0.25
 49
0.0
 49
-0.25
  0
LTYPE
  2
DIVIDE
 70
    64
  3
__ . . __ . . __ . . __ . . __ . . __ . . __
 72
    65
 73
     6
 40
1.25
 49
0.5
 49
-0.25
 49
0.0
 49
-0.25
 49
0.0
 49
-0.25
  0
LTYPE
  2
CENTER
 70
    64
  3
____ _ ____ _ ____ _ ____ _ ____ _ ____ _ ____ 
 72
    65
 73
     4
 40
2.0
 49
1.25
 49
-0.25
 49
0.25
 49
-0.25
  0
LTYPE
  2
PHANTOM
 70
    64
  3
______  __  __  ______  __  __  ______  __  __ 
 72
    65
 73
     6
 40
2.5
 49
1.25
 49
-0.25
 49
0.25
 49
-0.25
 49
0.25
 49
-0.25
  0
LTYPE
  2
BORDER
 70
    64
  3
__ __ . __ __ . __ __ . __ __ . __ __ . __ __ .
 72
    65
 73
     6
 40
1.75
 49
0.5
 49
-0.25
 49
0.5
 49
-0.25
 49
0.0
 49
-0.25
  0
ENDTAB
  0
TABLE
  2
LAYER
 70
    16
  0
LAYER
  2
CSLAYER1
 70
    64
 62
     7
  6
CONTINUOUS
  0
LAYER
  2
CSLAYER2
 70
    64
 62
     7
  6
CONTINUOUS
  0
LAYER
  2
CSLAYER3
 70
    64
 62
     7
  6
CONTINUOUS
  0
LAYER
  2
CSLAYER4
 70
    64
 62
     7
  6
CONTINUOUS
  0
LAYER
  2
CSLAYER5
 70
    64
 62
     7
  6
CONTINUOUS
  0
LAYER
  2
CSLAYER6
 70
    64
 62
     7
  6
CONTINUOUS
  0
LAYER
  2
CSLAYER7
 70
    64
 62
     7
  6
CONTINUOUS
  0
LAYER
  2
CSLAYER8
 70
    64
 62
     7
  6
CONTINUOUS
  0
LAYER
  2
CSLAYER9
 70
    64
 62
     7
  6
CONTINUOUS
  0
LAYER
  2
CSLAYER10
 70
    64
 62
     7
  6
CONTINUOUS
  0
LAYER
  2
CSLAYER11
 70
    64
 62
     7
  6
CONTINUOUS
  0
LAYER
  2
CSLAYER12
 70
    64
 62
     7
  6
CONTINUOUS
  0
LAYER
  2
CSLAYER13
 70
    64
 62
     7
  6
CONTINUOUS
  0
LAYER
  2
CSLAYER14
 70
    64
 62
     7
  6
CONTINUOUS
  0
LAYER
  2
CSLAYER15
 70
    64
 62
     7
  6
CONTINUOUS
  0
LAYER
  2
CSLAYER16
 70
    64
 62
     7
  6
CONTINUOUS
  0
ENDTAB
  0
TABLE
  2
STYLE
 70
     1
  0
STYLE
  2
EASYDRAW_FONT
 70
     0
 40
1.0
 41
1.0
 50
0.0
 71
     0
 42
1.0
  3
monotxt
  4
bigfont
  0
ENDTAB
  0
TABLE
  2
VIEW
 70
     0
  0
ENDTAB
  0
ENDSEC
  0
SECTION
  2
BLOCKS
  0
BLOCK
  8
CSLAYER1
  2
*D0000
 70
    65
 10
0.0
 20
0.0
 30
0.0
  0
TEXT
  8
CSLAYER1
 62
     3
 10
2399.919922
 20
754.992126
 40
40.000000
 41
0.900000
  1
65
 50
90.000000
 51
0.000000
  7
EASYDRAW_FONT
 72
     5
 11
2399.919922
 21
814.992126
  0
LINE
  8
CSLAYER1
  6
CONTINUOUS
 62
     5
 10
2317.163651
 20
752.492170
 11
2521.062180
 21
752.492170
  0
LINE
  8
CSLAYER1
  6
CONTINUOUS
 62
     5
 10
2316.863651
 20
817.492170
 11
2419.920106
 21
817.492170
  0
LINE
  8
CSLAYER1
  6
CONTINUOUS
 62
     5
 10
2409.920106
 20
752.492170
 11
2409.920106
 21
817.492170
  0
LINE
  8
CSLAYER1
  6
CONTINUOUS
 62
     5
 10
2409.920106
 20
752.492170
 11
2402.155535
 21
781.469944
  0
LINE
  8
CSLAYER1
  6
CONTINUOUS
 62
     5
 10
2409.920106
 20
752.492170
 11
2417.684678
 21
781.469944
  0
LINE
  8
CSLAYER1
  6
CONTINUOUS
 62
     5
 10
2409.920106
 20
817.492170
 11
2402.155535
 21
788.514395
  0
LINE
  8
CSLAYER1
  6
CONTINUOUS
 62
     5
 10
2409.920106
 20
817.492170
 11
2417.684678
 21
788.514395
  0
ENDBLK
  8
0
  0
BLOCK
  8
CSLAYER1
  2
*D0001
 70
    65
 10
0.0
 20
0.0
 30
0.0
  0
TEXT
  8
CSLAYER1
 62
     3
 10
2399.919922
 20
1098.138916
 40
40.000000
 41
0.843750
  1
635
 50
90.000000
 51
0.000000
  7
EASYDRAW_FONT
 72
     5
 11
2399.919922
 21
1188.138916
  0
LINE
  8
CSLAYER1
  6
CONTINUOUS
 62
     5
 10
2338.272677
 20
1468.785580
 11
2521.062180
 21
1468.785580
  0
LINE
  8
CSLAYER1
  6
CONTINUOUS
 62
     5
 10
2409.920106
 20
817.492170
 11
2409.920106
 21
1468.785580
  0
LINE
  8
CSLAYER1
  6
CONTINUOUS
 62
     5
 10
2409.920106
 20
817.492170
 11
2402.155535
 21
846.469944
  0
LINE
  8
CSLAYER1
  6
CONTINUOUS
 62
     5
 10
2409.920106
 20
817.492170
 11
2417.684678
 21
846.469944
  0
LINE
  8
CSLAYER1
  6
CONTINUOUS
 62
     5
 10
2409.920106
 20
1468.785580
 11
2402.155535
 21
1439.807805
  0
LINE
  8
CSLAYER1
  6
CONTINUOUS
 62
     5
 10
2409.920106
 20
1468.785580
 11
2417.684678
 21
1439.807805
  0
ENDBLK
  8
0
  0
BLOCK
  8
CSLAYER1
  2
*D0002
 70
    65
 10
0.0
 20
0.0
 30
0.0
  0
TEXT
  8
CSLAYER1
 62
     3
 10
2501.062012
 20
1065.638794
 40
40.000000
 41
0.843750
  1
700
 50
90.000000
 51
0.000000
  7
EASYDRAW_FONT
 72
     5
 11
2501.062012
 21
1155.638794
  0
LINE
  8
CSLAYER1
  6
CONTINUOUS
 62
     5
 10
2511.062180
 20
752.492170
 11
2511.062180
 21
1468.785580
  0
LINE
  8
CSLAYER1
  6
CONTINUOUS
 62
     5
 10
2511.062180
 20
752.492170
 11
2503.297609
 21
781.469944
  0
LINE
  8
CSLAYER1
  6
CONTINUOUS
 62
     5
 10
2511.062180
 20
752.492170
 11
2518.826751
 21
781.469944
  0
LINE
  8
CSLAYER1
  6
CONTINUOUS
 62
     5
 10
2511.062180
 20
1468.785580
 11
2503.297609
 21
1439.807805
  0
LINE
  8
CSLAYER1
  6
CONTINUOUS
 62
     5
 10
2511.062180
 20
1468.785580
 11
2518.826751
 21
1439.807805
  0
ENDBLK
  8
0
  0
BLOCK
  8
CSLAYER1
  2
*D0003
 70
    65
 10
0.0
 20
0.0
 30
0.0
  0
TEXT
  8
CSLAYER1
 62
     3
 10
1833.272461
 20
1573.786377
 40
40.000000
 41
0.843750
  1
900
 50
0.000000
 51
0.000000
  7
EASYDRAW_FONT
 72
     5
 11
1923.272461
 21
1573.786377
  0
LINE
  8
CSLAYER1
  6
CONTINUOUS
 62
     5
 10
1428.272677
 20
1478.785580
 11
1428.272677
 21
1573.786449
  0
LINE
  8
CSLAYER1
  6
CONTINUOUS
 62
     5
 10
2328.272677
 20
1478.785580
 11
2328.272677
 21
1573.786449
  0
LINE
  8
CSLAYER1
  6
CONTINUOUS
 62
     5
 10
1428.272677
 20
1563.786449
 11
2328.272677
 21
1563.786449
  0
LINE
  8
CSLAYER1
  6
CONTINUOUS
 62
     5
 10
1428.272677
 20
1563.786449
 11
1457.250452
 21
1571.551020
  0
LINE
  8
CSLAYER1
  6
CONTINUOUS
 62
     5
 10
1428.272677
 20
1563.786449
 11
1457.250452
 21
1556.021878
  0
LINE
  8
CSLAYER1
  6
CONTINUOUS
 62
     5
 10
2328.272677
 20
1563.786449
 11
2299.294902
 21
1571.551020
  0
LINE
  8
CSLAYER1
  6
CONTINUOUS
 62
     5
 10
2328.272677
 20
1563.786449
 11
2299.294902
 21
1556.021878
  0
ENDBLK
  8
0
  0
BLOCK
  8
CSLAYER1
  2
EASYDRAWDIM0000
 70
   64
 10
0.0
 20
0.0
 30
0.0
  0
TEXT
  8
CSLAYER1
 62
     3
 10
1126.175781
 20
900.820007
 40
40.000000
 41
0.803571
  1
高圧ホース
 50
0.000000
 51
0.000000
  7
EASYDRAW_FONT
 72
     5
 11
1276.175781
 21
900.820007
  0
LINE
  8
CSLAYER1
  6
CONTINUOUS
 62
     5
 10
1342.721457
 20
771.988423
 11
1276.175788
 21
890.819975
  0
LINE
  8
CSLAYER1
  6
CONTINUOUS
 62
     5
 10
1342.721457
 20
771.988423
 11
1321.788183
 21
793.477910
  0
LINE
  8
CSLAYER1
  6
CONTINUOUS
 62
     5
 10
1342.721457
 20
771.988423
 11
1335.337454
 21
801.065502
  0
LINE
  8
CSLAYER1
  6
CONTINUOUS
 62
     5
 10
1276.175788
 20
890.819975
 11
1116.175788
 21
890.819975
  0
ENDBLK
  8
0
  0
BLOCK
  8
CSLAYER1
  2
*D0004
 70
    65
 10
0.0
 20
0.0
 30
0.0
  0
TEXT
  8
CSLAYER1
 62
     3
 10
948.347900
 20
770.306580
 40
40.000000
 41
1.125000
  1
6
 50
90.000000
 51
0.000000
  7
EASYDRAW_FONT
 72
     5
 11
948.347900
 21
800.306580
  0
LINE
  8
CSLAYER1
  6
CONTINUOUS
 62
     5
 10
901.849163
 20
752.492170
 11
968.347834
 21
752.492170
  0
LINE
  8
CSLAYER1
  6
CONTINUOUS
 62
     5
 10
901.849163
 20
758.492170
 11
968.347834
 21
758.492170
  0
LINE
  8
CSLAYER1
  6
CONTINUOUS
 62
     5
 10
958.347834
 20
752.492170
 11
958.347834
 21
702.492170
  0
LINE
  8
CSLAYER1
  6
CONTINUOUS
 62
     5
 10
958.347834
 20
752.492170
 11
950.583263
 21
723.514395
  0
LINE
  8
CSLAYER1
  6
CONTINUOUS
 62
     5
 10
958.347834
 20
752.492170
 11
966.112406
 21
723.514395
  0
LINE
  8
CSLAYER1
  6
CONTINUOUS
 62
     5
 10
958.347834
 20
758.492170
 11
958.347834
 21
812.121031
  0
LINE
  8
CSLAYER1
  6
CONTINUOUS
 62
     5
 10
958.347834
 20
758.492170
 11
950.583263
 21
787.469944
  0
LINE
  8
CSLAYER1
  6
CONTINUOUS
 62
     5
 10
958.347834
 20
758.492170
 11
966.112406
 21
787.469944
  0
LINE
  8
CSLAYER1
  6
CONTINUOUS
 62
     5
 10
958.347834
 20
752.492170
 11
958.347834
 21
758.492170
  0
ENDBLK
  8
0
  0
BLOCK
  8
CSLAYER1
  2
*D0005
 70
    65
 10
0.0
 20
0.0
 30
0.0
  0
TEXT
  8
CSLAYER1
 62
     3
 10
1810.663574
 20
609.795349
 40
40.000000
 41
0.843750
  1
903
 50
0.000000
 51
0.000000
  7
EASYDRAW_FONT
 72
     5
 11
1900.663574
 21
609.795349
  0
LINE
  8
CSLAYER1
  6
CONTINUOUS
 62
     5
 10
1404.163651
 20
742.492170
 11
1404.163651
 21
589.795290
  0
LINE
  8
CSLAYER1
  6
CONTINUOUS
 62
     5
 10
2307.163651
 20
742.492170
 11
2307.163651
 21
589.795290
  0
LINE
  8
CSLAYER1
  6
CONTINUOUS
 62
     5
 10
1404.163651
 20
599.795290
 11
2307.163651
 21
599.795290
  0
LINE
  8
CSLAYER1
  6
CONTINUOUS
 62
     5
 10
1404.163651
 20
599.795290
 11
1433.141426
 21
607.559861
  0
LINE
  8
CSLAYER1
  6
CONTINUOUS
 62
     5
 10
1404.163651
 20
599.795290
 11
1433.141426
 21
592.030718
  0
LINE
  8
CSLAYER1
  6
CONTINUOUS
 62
     5
 10
2307.163651
 20
599.795290
 11
2278.185876
 21
607.559861
  0
LINE
  8
CSLAYER1
  6
CONTINUOUS
 62
     5
 10
2307.163651
 20
599.795290
 11
2278.185876
 21
592.030718
  0
ENDBLK
  8
0
  0
BLOCK
  8
CSLAYER1
  2
*D0006
 70
    65
 10
0.0
 20
0.0
 30
0.0
  0
TEXT
  8
CSLAYER1
 62
     3
 10
2402.878662
 20
1942.587524
 40
40.000000
 41
0.843750
  1
250
 50
90.000000
 51
0.000000
  7
EASYDRAW_FONT
 72
     5
 11
2402.878662
 21
2032.587524
  0
LINE
  8
CSLAYER1
  6
CONTINUOUS
 62
     5
 10
2316.863651
 20
1862.587395
 11
2422.878701
 21
1862.587395
  0
LINE
  8
CSLAYER1
  6
CONTINUOUS
 62
     5
 10
2316.863651
 20
2112.587395
 11
2422.878701
 21
2112.587395
  0
LINE
  8
CSLAYER1
  6
CONTINUOUS
 62
     5
 10
2412.878701
 20
1862.587395
 11
2412.878701
 21
2112.587395
  0
LINE
  8
CSLAYER1
  6
CONTINUOUS
 62
     5
 10
2412.878701
 20
1862.587395
 11
2405.114130
 21
1891.565170
  0
LINE
  8
CSLAYER1
  6
CONTINUOUS
 62
     5
 10
2412.878701
 20
1862.587395
 11
2420.643273
 21
1891.565170
  0
LINE
  8
CSLAYER1
  6
CONTINUOUS
 62
     5
 10
2412.878701
 20
2112.587395
 11
2405.114130
 21
2083.609620
  0
LINE
  8
CSLAYER1
  6
CONTINUOUS
 62
     5
 10
2412.878701
 20
2112.587395
 11
2420.643273
 21
2083.609620
  0
ENDBLK
  8
0
  0
BLOCK
  8
CSLAYER1
  2
*D0007
 70
    65
 10
0.0
 20
0.0
 30
0.0
  0
TEXT
  8
CSLAYER1
 62
     3
 10
1245.154907
 20
1246.390015
 40
40.000000
 41
0.803571
  1
MAX21
 50
0.000000
 51
0.000000
  7
EASYDRAW_FONT
 72
     5
 11
1395.154907
 21
1246.390015
  0
LINE
  8
CSLAYER1
  6
CONTINUOUS
 62
     5
 10
1406.863651
 20
827.492170
 11
1406.863651
 21
1234.167041
  0
LINE
  8
CSLAYER1
  6
CONTINUOUS
 62
     5
 10
1428.272677
 20
1458.785580
 11
1428.272677
 21
1214.167041
  0
LINE
  8
CSLAYER1
  6
CONTINUOUS
 62
     5
 10
1406.863651
 20
1224.167041
 11
1347.900363
 21
1224.167041
  0
LINE
  8
CSLAYER1
  6
CONTINUOUS
 62
     5
 10
1406.863651
 20
1224.167041
 11
1377.885876
 21
1231.931613
  0
LINE
  8
CSLAYER1
  6
CONTINUOUS
 62
     5
 10
1406.863651
 20
1224.167041
 11
1377.885876
 21
1216.402470
  0
LINE
  8
CSLAYER1
  6
CONTINUOUS
 62
     5
 10
1428.272677
 20
1224.167041
 11
1478.272677
 21
1224.167041
  0
LINE
  8
CSLAYER1
  6
CONTINUOUS
 62
     5
 10
1428.272677
 20
1224.167041
 11
1457.250452
 21
1231.931613
  0
LINE
  8
CSLAYER1
  6
CONTINUOUS
 62
     5
 10
1428.272677
 20
1224.167041
 11
1457.250452
 21
1216.402470
  0
LINE
  8
CSLAYER1
  6
CONTINUOUS
 62
     5
 10
1406.863651
 20
1224.167041
 11
1428.272677
 21
1224.167041
  0
ENDBLK
  8
0
  0
BLOCK
  8
CSLAYER1
  2
EASYDRAWDIM0001
 70
   64
 10
0.0
 20
0.0
 30
0.0
  0
TEXT
  8
CSLAYER1
 62
     3
 10
1160.526245
 20
1107.634644
 40
40.000000
 41
0.787500
  1
油圧シリンダー
 50
0.000000
 51
0.000000
  7
EASYDRAW_FONT
 72
     5
 11
1370.526245
 21
1107.634644
  0
LINE
  8
CSLAYER1
  6
CONTINUOUS
 62
     5
 10
1517.433209
 20
950.421498
 11
1371.491156
 21
1097.634603
  0
LINE
  8
CSLAYER1
  6
CONTINUOUS
 62
     5
 10
1517.433209
 20
950.421498
 11
1491.517727
 21
965.534003
  0
LINE
  8
CSLAYER1
  6
CONTINUOUS
 62
     5
 10
1517.433209
 20
950.421498
 11
1502.545996
 21
976.467052
  0
LINE
  8
CSLAYER1
  6
CONTINUOUS
 62
     5
 10
1371.491156
 20
1097.634603
 11
1150.526414
 21
1097.634603
  0
ENDBLK
  8
0
  0
BLOCK
  8
CSLAYER1
  2
*D0008
 70
    65
 10
0.0
 20
0.0
 30
0.0
  0
TEXT
  8
CSLAYER1
 62
     3
 10
696.849365
 20
1520.798706
 40
40.000000
 41
0.843750
  1
250
 50
0.000000
 51
0.000000
  7
EASYDRAW_FONT
 72
     5
 11
786.849365
 21
1520.798706
  0
LINE
  8
CSLAYER1
  6
CONTINUOUS
 62
     5
 10
616.849163
 20
1478.785580
 11
616.849163
 21
1520.798762
  0
LINE
  8
CSLAYER1
  6
CONTINUOUS
 62
     5
 10
866.849163
 20
1478.785580
 11
866.849163
 21
1520.798762
  0
LINE
  8
CSLAYER1
  6
CONTINUOUS
 62
     5
 10
616.849163
 20
1510.798762
 11
866.849163
 21
1510.798762
  0
LINE
  8
CSLAYER1
  6
CONTINUOUS
 62
     5
 10
616.849163
 20
1510.798762
 11
645.826938
 21
1518.563333
  0
LINE
  8
CSLAYER1
  6
CONTINUOUS
 62
     5
 10
616.849163
 20
1510.798762
 11
645.826938
 21
1503.034191
  0
LINE
  8
CSLAYER1
  6
CONTINUOUS
 62
     5
 10
866.849163
 20
1510.798762
 11
837.871388
 21
1518.563333
  0
LINE
  8
CSLAYER1
  6
CONTINUOUS
 62
     5
 10
866.849163
 20
1510.798762
 11
837.871388
 21
1503.034191
  0
ENDBLK
  8
0
  0
BLOCK
  8
CSLAYER1
  2
*D0009
 70
    65
 10
0.0
 20
0.0
 30
0.0
  0
TEXT
  8
CSLAYER1
 62
     3
 10
696.849121
 20
677.883362
 40
40.000000
 41
0.843750
  1
250
 50
0.000000
 51
0.000000
  7
EASYDRAW_FONT
 72
     5
 11
786.849121
 21
677.883362
  0
LINE
  8
CSLAYER1
  6
CONTINUOUS
 62
     5
 10
616.849163
 20
742.492170
 11
616.849163
 21
657.883284
  0
LINE
  8
CSLAYER1
  6
CONTINUOUS
 62
     5
 10
866.849163
 20
742.492170
 11
866.849163
 21
657.883284
  0
LINE
  8
CSLAYER1
  6
CONTINUOUS
 62
     5
 10
616.849163
 20
667.883284
 11
866.849163
 21
667.883284
  0
LINE
  8
CSLAYER1
  6
CONTINUOUS
 62
     5
 10
616.849163
 20
667.883284
 11
645.826938
 21
675.647856
  0
LINE
  8
CSLAYER1
  6
CONTINUOUS
 62
     5
 10
616.849163
 20
667.883284
 11
645.826938
 21
660.118713
  0
LINE
  8
CSLAYER1
  6
CONTINUOUS
 62
     5
 10
866.849163
 20
667.883284
 11
837.871388
 21
675.647856
  0
LINE
  8
CSLAYER1
  6
CONTINUOUS
 62
     5
 10
866.849163
 20
667.883284
 11
837.871388
 21
660.118713
  0
ENDBLK
  8
0
  0
BLOCK
  8
CSLAYER1
  2
EASYDRAWDIM0002
 70
   64
 10
0.0
 20
0.0
 30
0.0
  0
LINE
  8
CSLAYER1
  6
CONTINUOUS
 62
     5
 10
962.756809
 20
663.590433
 11
1248.353473
 21
663.590433
  0
ENDBLK
  8
0
  0
BLOCK
  8
CSLAYER1
  2
EASYDRAWDIM0003
 70
   64
 10
0.0
 20
0.0
 30
0.0
  0
TEXT
  8
CSLAYER1
 62
     3
 10
922.733643
 20
615.635437
 40
40.000000
 41
0.771429
  1
2-%%c13（アンカー穴）
 50
0.000000
 51
0.000000
  7
EASYDRAW_FONT
 72
     5
 11
1282.733643
 21
615.635437
  0
ENDBLK
  8
0
  0
BLOCK
  8
CSLAYER1
  2
*D0010
 70
    65
 10
0.0
 20
0.0
 30
0.0
  0
TEXT
  8
CSLAYER1
 62
     3
 10
696.849121
 20
613.566101
 40
40.000000
 41
0.843750
  1
300
 50
0.000000
 51
0.000000
  7
EASYDRAW_FONT
 72
     5
 11
786.849121
 21
613.566101
  0
LINE
  8
CSLAYER1
  6
CONTINUOUS
 62
     5
 10
591.849163
 20
742.492170
 11
591.849163
 21
593.566052
  0
LINE
  8
CSLAYER1
  6
CONTINUOUS
 62
     5
 10
891.849163
 20
748.492170
 11
891.849163
 21
593.566052
  0
LINE
  8
CSLAYER1
  6
CONTINUOUS
 62
     5
 10
591.849163
 20
603.566052
 11
891.849163
 21
603.566052
  0
LINE
  8
CSLAYER1
  6
CONTINUOUS
 62
     5
 10
591.849163
 20
603.566052
 11
620.826938
 21
611.330623
  0
LINE
  8
CSLAYER1
  6
CONTINUOUS
 62
     5
 10
591.849163
 20
603.566052
 11
620.826938
 21
595.801481
  0
LINE
  8
CSLAYER1
  6
CONTINUOUS
 62
     5
 10
891.849163
 20
603.566052
 11
862.871388
 21
611.330623
  0
LINE
  8
CSLAYER1
  6
CONTINUOUS
 62
     5
 10
891.849163
 20
603.566052
 11
862.871388
 21
595.801481
  0
ENDBLK
  8
0
  0
BLOCK
  8
CSLAYER1
  2
*D0011
 70
    65
 10
0.0
 20
0.0
 30
0.0
  0
TEXT
  8
CSLAYER1
 62
     3
 10
1420.661499
 20
629.213196
 40
40.000000
 41
0.900000
  1
25
 50
0.000000
 51
0.000000
  7
EASYDRAW_FONT
 72
     5
 11
1480.661499
 21
629.213196
  0
LINE
  8
CSLAYER1
  6
CONTINUOUS
 62
     5
 10
1429.163651
 20
745.561539
 11
1429.163651
 21
678.145302
  0
LINE
  8
CSLAYER1
  6
CONTINUOUS
 62
     5
 10
1404.163651
 20
688.145302
 11
1429.163651
 21
688.145302
  0
LINE
  8
CSLAYER1
  6
CONTINUOUS
 62
     5
 10
1354.163651
 20
688.145302
 11
1404.163651
 21
688.145302
  0
LINE
  8
CSLAYER1
  6
CONTINUOUS
 62
     5
 10
1404.163651
 20
688.145302
 11
1375.185876
 21
695.909873
  0
LINE
  8
CSLAYER1
  6
CONTINUOUS
 62
     5
 10
1404.163651
 20
688.145302
 11
1375.185876
 21
680.380730
  0
LINE
  8
CSLAYER1
  6
CONTINUOUS
 62
     5
 10
1429.163651
 20
688.145302
 11
1479.163651
 21
688.145302
  0
LINE
  8
CSLAYER1
  6
CONTINUOUS
 62
     5
 10
1429.163651
 20
688.145302
 11
1458.141426
 21
695.909873
  0
LINE
  8
CSLAYER1
  6
CONTINUOUS
 62
     5
 10
1429.163651
 20
688.145302
 11
1458.141426
 21
680.380730
  0
ENDBLK
  8
0
  0
BLOCK
  8
CSLAYER1
  2
EASYDRAWDIM0004
 70
   64
 10
0.0
 20
0.0
 30
0.0
  0
LINE
  8
CSLAYER1
  6
CONTINUOUS
 62
     6
 10
1429.163651
 20
752.492170
 11
1248.353473
 21
663.590433
  0
LINE
  8
CSLAYER1
  6
CONTINUOUS
 62
     6
 10
1429.163651
 20
752.492170
 11
1406.585230
 21
732.738312
  0
LINE
  8
CSLAYER1
  6
CONTINUOUS
 62
     6
 10
1429.163651
 20
752.492170
 11
1399.733236
 21
746.674038
  0
ENDBLK
  8
0
  0
BLOCK
  8
CSLAYER1
  2
*D0012
 70
    65
 10
0.0
 20
0.0
 30
0.0
  0
TEXT
  8
CSLAYER1
 62
     3
 10
1310.657349
 20
1917.034790
 40
40.000000
 41
0.843750
  1
250
 50
90.000000
 51
0.000000
  7
EASYDRAW_FONT
 72
     5
 11
1310.657349
 21
2007.034790
  0
LINE
  8
CSLAYER1
  6
CONTINUOUS
 62
     5
 10
1407.900850
 20
1862.587395
 11
1308.909591
 21
1862.587395
  0
LINE
  8
CSLAYER1
  6
CONTINUOUS
 62
     5
 10
1407.900850
 20
2112.587395
 11
1308.909591
 21
2112.587395
  0
LINE
  8
CSLAYER1
  6
CONTINUOUS
 62
     5
 10
1318.909591
 20
1862.587395
 11
1318.909591
 21
2112.587395
  0
LINE
  8
CSLAYER1
  6
CONTINUOUS
 62
     5
 10
1318.909591
 20
1862.587395
 11
1311.145019
 21
1891.565170
  0
LINE
  8
CSLAYER1
  6
CONTINUOUS
 62
     5
 10
1318.909591
 20
1862.587395
 11
1326.674162
 21
1891.565170
  0
LINE
  8
CSLAYER1
  6
CONTINUOUS
 62
     5
 10
1318.909591
 20
2112.587395
 11
1311.145019
 21
2083.609620
  0
LINE
  8
CSLAYER1
  6
CONTINUOUS
 62
     5
 10
1318.909591
 20
2112.587395
 11
1326.674162
 21
2083.609620
  0
ENDBLK
  8
0
  0
BLOCK
  8
CSLAYER1
  2
*D0013
 70
    65
 10
0.0
 20
0.0
 30
0.0
  0
TEXT
  8
CSLAYER1
 62
     3
 10
1333.307983
 20
1757.260376
 40
40.000000
 41
0.900000
  1
25
 50
0.000000
 51
0.000000
  7
EASYDRAW_FONT
 72
     5
 11
1393.307983
 21
1757.260376
  0
LINE
  8
CSLAYER1
  6
CONTINUOUS
 62
     5
 10
1404.163651
 20
1837.587395
 11
1404.163651
 21
1696.715763
  0
LINE
  8
CSLAYER1
  6
CONTINUOUS
 62
     5
 10
1429.163651
 20
1841.324594
 11
1429.163651
 21
1763.527330
  0
LINE
  8
CSLAYER1
  6
CONTINUOUS
 62
     5
 10
1404.163651
 20
1773.527330
 11
1429.163651
 21
1773.527330
  0
LINE
  8
CSLAYER1
  6
CONTINUOUS
 62
     5
 10
1404.163651
 20
1773.527330
 11
1433.141426
 21
1781.291902
  0
LINE
  8
CSLAYER1
  6
CONTINUOUS
 62
     5
 10
1404.163651
 20
1773.527330
 11
1433.141426
 21
1765.762759
  0
LINE
  8
CSLAYER1
  6
CONTINUOUS
 62
     5
 10
1429.163651
 20
1773.527330
 11
1400.185876
 21
1781.291902
  0
LINE
  8
CSLAYER1
  6
CONTINUOUS
 62
     5
 10
1429.163651
 20
1773.527330
 11
1400.185876
 21
1765.762759
  0
ENDBLK
  8
0
  0
BLOCK
  8
CSLAYER1
  2
*D0014
 70
    65
 10
0.0
 20
0.0
 30
0.0
  0
TEXT
  8
CSLAYER1
 62
     3
 10
1334.470093
 20
1689.867798
 40
40.000000
 41
0.900000
  1
50
 50
0.000000
 51
0.000000
  7
EASYDRAW_FONT
 72
     5
 11
1394.470093
 21
1689.867798
  0
LINE
  8
CSLAYER1
  6
CONTINUOUS
 62
     5
 10
1454.163651
 20
1837.587395
 11
1454.163651
 21
1696.715763
  0
LINE
  8
CSLAYER1
  6
CONTINUOUS
 62
     5
 10
1404.163651
 20
1706.715763
 11
1454.163651
 21
1706.715763
  0
LINE
  8
CSLAYER1
  6
CONTINUOUS
 62
     5
 10
1404.163651
 20
1706.715763
 11
1433.141426
 21
1714.480334
  0
LINE
  8
CSLAYER1
  6
CONTINUOUS
 62
     5
 10
1404.163651
 20
1706.715763
 11
1433.141426
 21
1698.951191
  0
LINE
  8
CSLAYER1
  6
CONTINUOUS
 62
     5
 10
1454.163651
 20
1706.715763
 11
1425.185876
 21
1714.480334
  0
LINE
  8
CSLAYER1
  6
CONTINUOUS
 62
     5
 10
1454.163651
 20
1706.715763
 11
1425.185876
 21
1698.951191
  0
ENDBLK
  8
0
  0
BLOCK
  8
CSLAYER1
  2
EASYDRAWDIM0005
 70
   64
 10
0.0
 20
0.0
 30
0.0
  0
TEXT
  8
CSLAYER1
 62
     3
 10
1547.385376
 20
1742.211060
 40
40.000000
 41
0.771429
  1
2-%%c13(アンカー穴)
 50
0.000000
 51
0.000000
  7
EASYDRAW_FONT
 72
     5
 11
1907.385376
 21
1742.211060
  0
LINE
  8
CSLAYER1
  6
CONTINUOUS
 62
     5
 10
1433.562251
 20
1858.329554
 11
1543.044218
 21
1732.211031
  0
LINE
  8
CSLAYER1
  6
CONTINUOUS
 62
     5
 10
1433.562251
 20
1858.329554
 11
1458.421911
 21
1841.536778
  0
LINE
  8
CSLAYER1
  6
CONTINUOUS
 62
     5
 10
1433.562251
 20
1858.329554
 11
1446.694960
 21
1831.356754
  0
LINE
  8
CSLAYER1
  6
CONTINUOUS
 62
     5
 10
1543.044218
 20
1732.211031
 11
1917.385471
 21
1732.211031
  0
ENDBLK
  8
0
  0
BLOCK
  8
CSLAYER1
  2
EASYDRAWDIM0006
 70
   64
 10
0.0
 20
0.0
 30
0.0
  0
TEXT
  8
CSLAYER1
 62
     3
 10
1359.896118
 20
1885.486916
 40
33.155758
 41
0.767879
  1
穴ヒﾟッチ
 50
90.000000
 51
0.000000
  7
EASYDRAW_FONT
 72
     5
 11
1359.896118
 21
2004.298485
  0
ENDBLK
  8
0
  0
BLOCK
  8
CSLAYER1
  2
*D0015
 70
    65
 10
0.0
 20
0.0
 30
0.0
  0
TEXT
  8
CSLAYER1
 62
     3
 10
2627.524902
 20
754.892151
 40
40.000000
 41
0.900000
  1
65
 50
90.000000
 51
0.000000
  7
EASYDRAW_FONT
 72
     5
 11
2627.524902
 21
814.892151
  0
LINE
  8
CSLAYER1
  6
CONTINUOUS
 62
     5
 10
2661.247112
 20
752.492170
 11
2627.525077
 21
752.492170
  0
LINE
  8
CSLAYER1
  6
CONTINUOUS
 62
     5
 10
2711.788265
 20
817.292170
 11
2627.525077
 21
817.292170
  0
LINE
  8
CSLAYER1
  6
CONTINUOUS
 62
     5
 10
2637.525077
 20
752.492170
 11
2637.525077
 21
817.292170
  0
LINE
  8
CSLAYER1
  6
CONTINUOUS
 62
     5
 10
2637.525077
 20
702.492170
 11
2637.525077
 21
752.492170
  0
LINE
  8
CSLAYER1
  6
CONTINUOUS
 62
     5
 10
2637.525077
 20
752.492170
 11
2629.760505
 21
723.514395
  0
LINE
  8
CSLAYER1
  6
CONTINUOUS
 62
     5
 10
2637.525077
 20
752.492170
 11
2645.289648
 21
723.514395
  0
LINE
  8
CSLAYER1
  6
CONTINUOUS
 62
     5
 10
2637.525077
 20
817.292170
 11
2637.525077
 21
867.292170
  0
LINE
  8
CSLAYER1
  6
CONTINUOUS
 62
     5
 10
2637.525077
 20
817.292170
 11
2629.760505
 21
846.269944
  0
LINE
  8
CSLAYER1
  6
CONTINUOUS
 62
     5
 10
2637.525077
 20
817.292170
 11
2645.289648
 21
846.269944
  0
ENDBLK
  8
0
  0
BLOCK
  8
CSLAYER1
  2
BLKF0000
 70
   64
 10
0.0
 20
0.0
 30
0.0
  0
ARC
  8
CSLAYER1
  6
CONTINUOUS
 62
     5
 10
2885.944764
 20
138.783938
 40
3.549225
 50
6.429109
 51
73.182034
  0
ARC
  8
CSLAYER1
  6
CONTINUOUS
 62
     5
 10
2882.483794
 20
137.625545
 40
6.907754
 50
310.517970
 51
330.092764
  0
ARC
  8
CSLAYER1
  6
CONTINUOUS
 62
     5
 10
2882.423144
 20
137.991063
 40
7.148321
 50
-32.205059
 51
9.585194
  0
ARC
  8
CSLAYER1
  6
CONTINUOUS
 62
     5
 10
2885.715872
 20
135.230064
 40
4.767514
 50
180.000000
 51
218.514150
  0
ARC
  8
CSLAYER1
  6
CONTINUOUS
 62
     5
 10
2884.429152
 20
134.552924
 40
3.348282
 50
222.781148
 51
319.406906
  0
ARC
  8
CSLAYER1
  6
CONTINUOUS
 62
     5
 10
2887.494793
 20
135.642816
 40
6.559434
 50
94.574282
 51
183.607718
  0
LINE
  8
CSLAYER1
  6
CONTINUOUS
 62
     5
 10
2900.938700
 20
130.525984
 11
2900.081664
 21
127.487401
  0
LINE
  8
CSLAYER1
  6
CONTINUOUS
 62
     5
 10
2902.730685
 20
150.393642
 11
2900.627050
 21
153.120575
  0
LINE
  8
CSLAYER1
  6
CONTINUOUS
 62
     5
 10
2900.627050
 20
153.120575
 11
2893.873696
 21
156.878487
  0
LINE
  8
CSLAYER1
  6
CONTINUOUS
 62
     5
 10
2893.873696
 20
156.878487
 11
2886.971669
 21
157.681358
  0
LINE
  8
CSLAYER1
  6
CONTINUOUS
 62
     5
 10
2868.682443
 20
144.302684
 11
2870.829138
 21
149.266915
  0
LINE
  8
CSLAYER1
  6
CONTINUOUS
 62
     5
 10
2870.792140
 20
149.181358
 11
2872.975832
 21
151.816114
  0
LINE
  8
CSLAYER1
  6
CONTINUOUS
 62
     5
 10
2872.975832
 20
151.816114
 11
2876.280254
 21
154.181358
  0
LINE
  8
CSLAYER1
  6
CONTINUOUS
 62
     5
 10
2886.971669
 20
157.681358
 11
2885.453493
 21
156.914513
  0
LINE
  8
CSLAYER1
  6
CONTINUOUS
 62
     5
 10
2885.453493
 20
156.914513
 11
2881.965115
 21
156.914513
  0
LINE
  8
CSLAYER1
  6
CONTINUOUS
 62
     5
 10
2881.965115
 20
156.914513
 11
2878.409652
 21
154.969072
  0
LINE
  8
CSLAYER1
  6
CONTINUOUS
 62
     5
 10
2878.409652
 20
154.969072
 11
2876.280254
 21
154.181358
  0
LINE
  8
CSLAYER1
  6
CONTINUOUS
 62
     5
 10
2868.682443
 20
144.302684
 11
2867.164896
 21
136.754081
  0
LINE
  8
CSLAYER1
  6
CONTINUOUS
 62
     5
 10
2867.164896
 20
136.754081
 11
2866.971669
 21
134.181358
  0
LINE
  8
CSLAYER1
  6
CONTINUOUS
 62
     5
 10
2869.681051
 20
126.341575
 11
2866.971669
 21
132.437686
  0
LINE
  8
CSLAYER1
  6
CONTINUOUS
 62
     5
 10
2866.971669
 20
132.437686
 11
2866.971669
 21
134.181358
  0
LINE
  8
CSLAYER1
  6
CONTINUOUS
 62
     5
 10
2900.081664
 20
127.487401
 11
2898.395876
 21
124.484395
  0
LINE
  8
CSLAYER1
  6
CONTINUOUS
 62
     5
 10
2898.395876
 20
124.484395
 11
2896.971669
 21
123.165684
  0
ARC
  8
CSLAYER1
  6
CONTINUOUS
 62
     5
 10
2884.779724
 20
134.718118
 40
17.266626
 50
208.054813
 51
260.640470
  0
ARC
  8
CSLAYER1
  6
CONTINUOUS
 62
     5
 10
2879.586329
 20
147.460588
 40
29.874611
 50
274.579659
 51
305.587364
  0
ARC
  8
CSLAYER1
  6
CONTINUOUS
 62
     5
 10
2890.558678
 20
141.476865
 40
15.088627
 50
313.467013
 51
331.085078
  0
LINE
  8
CSLAYER1
  6
CONTINUOUS
 62
     5
 10
2905.350010
 20
137.694779
 11
2905.647304
 21
141.476865
  0
LINE
  8
CSLAYER1
  6
CONTINUOUS
 62
     5
 10
2905.647304
 20
141.476865
 11
2904.355307
 21
147.585848
  0
LINE
  8
CSLAYER1
  6
CONTINUOUS
 62
     5
 10
2905.350010
 20
137.694779
 11
2903.766335
 21
134.181358
  0
ARC
  8
CSLAYER1
  6
CONTINUOUS
 62
     5
 10
2890.558678
 20
141.476865
 40
15.088627
 50
23.883193
 51
36.225170
  0
LINE
  8
CSLAYER1
  6
CONTINUOUS
 62
     5
 10
2850.971669
 20
169.181358
 11
2851.971669
 21
170.274002
  0
LINE
  8
CSLAYER1
  6
CONTINUOUS
 62
     5
 10
2850.971669
 20
169.181358
 11
2852.548627
 21
167.736325
  0
LINE
  8
CSLAYER1
  6
CONTINUOUS
 62
     5
 10
2854.087839
 20
165.627033
 11
2854.114107
 21
163.458914
  0
LINE
  8
CSLAYER1
  6
CONTINUOUS
 62
     5
 10
2854.114107
 20
163.458914
 11
2854.321505
 21
162.698455
  0
LINE
  8
CSLAYER1
  6
CONTINUOUS
 62
     5
 10
2854.321505
 20
162.698455
 11
2854.909133
 21
161.972562
  0
LINE
  8
CSLAYER1
  6
CONTINUOUS
 62
     5
 10
2854.909133
 20
161.972562
 11
2855.496761
 21
162.041694
  0
LINE
  8
CSLAYER1
  6
CONTINUOUS
 62
     5
 10
2855.496761
 20
162.041694
 11
2856.118955
 21
162.214526
  0
LINE
  8
CSLAYER1
  6
CONTINUOUS
 62
     5
 10
2856.118955
 20
162.214526
 11
2856.533751
 21
162.041694
  0
LINE
  8
CSLAYER1
  6
CONTINUOUS
 62
     5
 10
2856.533751
 20
162.041694
 11
2857.432475
 21
161.592332
  0
LINE
  8
CSLAYER1
  6
CONTINUOUS
 62
     5
 10
2857.432475
 20
161.592332
 11
2858.208527
 21
161.181358
  0
LINE
  8
CSLAYER1
  6
CONTINUOUS
 62
     5
 10
2858.208527
 20
161.181358
 11
2858.711430
 21
161.212102
  0
LINE
  8
CSLAYER1
  6
CONTINUOUS
 62
     5
 10
2858.711430
 20
161.212102
 11
2861.519301
 21
162.658582
  0
LINE
  8
CSLAYER1
  6
CONTINUOUS
 62
     5
 10
2851.971669
 20
170.274002
 11
2852.304520
 21
171.747709
  0
LINE
  8
CSLAYER1
  6
CONTINUOUS
 62
     5
 10
2852.304520
 20
171.747709
 11
2853.757926
 21
171.898062
  0
LINE
  8
CSLAYER1
  6
CONTINUOUS
 62
     5
 10
2855.251684
 20
174.666520
 11
2857.005857
 21
174.823610
  0
LINE
  8
CSLAYER1
  6
CONTINUOUS
 62
     5
 10
2857.005857
 20
174.823610
 11
2860.540385
 21
175.661424
  0
LINE
  8
CSLAYER1
  6
CONTINUOUS
 62
     5
 10
2860.540385
 20
175.661424
 11
2861.971669
 21
175.993063
  0
LINE
  8
CSLAYER1
  6
CONTINUOUS
 62
     5
 10
2855.251684
 20
174.666520
 11
2853.318793
 21
174.825388
  0
LINE
  8
CSLAYER1
  6
CONTINUOUS
 62
     5
 10
2852.582670
 20
173.956701
 11
2852.676195
 21
173.585539
  0
LINE
  8
CSLAYER1
  6
CONTINUOUS
 62
     5
 10
2852.676195
 20
173.585539
 11
2853.167789
 21
173.047858
  0
LINE
  8
CSLAYER1
  6
CONTINUOUS
 62
     5
 10
2853.167789
 20
173.047858
 11
2853.843731
 21
172.540902
  0
LINE
  8
CSLAYER1
  6
CONTINUOUS
 62
     5
 10
2853.843731
 20
172.540902
 11
2853.967056
 21
172.376469
  0
LINE
  8
CSLAYER1
  6
CONTINUOUS
 62
     5
 10
2852.548627
 20
167.736325
 11
2854.087839
 21
165.627033
  0
ARC
  8
CSLAYER1
  6
CONTINUOUS
 62
     5
 10
2896.958369
 20
-2.477295
 40
180.727463
 50
80.438896
 51
96.353582
  0
ARC
  8
CSLAYER1
  6
CONTINUOUS
 62
     5
 10
2872.059456
 20
142.770605
 40
34.720242
 50
81.866516
 51
106.890578
  0
LINE
  8
CSLAYER1
  6
CONTINUOUS
 62
     5
 10
2931.165930
 20
174.948028
 11
2933.413013
 21
173.926627
  0
LINE
  8
CSLAYER1
  6
CONTINUOUS
 62
     5
 10
2936.987917
 20
172.343455
 11
2933.413013
 21
173.926627
  0
LINE
  8
CSLAYER1
  6
CONTINUOUS
 62
     5
 10
2931.165930
 20
174.948028
 11
2926.971669
 21
175.740599
  0
LINE
  8
CSLAYER1
  6
CONTINUOUS
 62
     5
 10
2936.971669
 20
172.350650
 11
2938.843244
 21
170.782174
  0
LINE
  8
CSLAYER1
  6
CONTINUOUS
 62
     5
 10
2920.214925
 20
173.387501
 11
2921.114199
 21
174.840176
  0
LINE
  8
CSLAYER1
  6
CONTINUOUS
 62
     5
 10
2921.114199
 20
174.840176
 11
2925.789798
 21
173.720667
  0
LINE
  8
CSLAYER1
  6
CONTINUOUS
 62
     5
 10
2925.789798
 20
173.720667
 11
2942.532184
 21
169.181358
  0
LINE
  8
CSLAYER1
  6
CONTINUOUS
 62
     5
 10
2945.471669
 20
169.181358
 11
2938.843244
 21
170.782174
  0
LINE
  8
CSLAYER1
  6
CONTINUOUS
 62
     5
 10
2942.532184
 20
169.181358
 11
2945.471669
 21
169.181358
  0
LINE
  8
CSLAYER1
  6
CONTINUOUS
 62
     5
 10
2886.971669
 20
173.646299
 11
2906.971669
 21
174.181358
  0
LINE
  8
CSLAYER1
  6
CONTINUOUS
 62
     5
 10
2906.971669
 20
174.181358
 11
2920.214925
 21
173.387501
  0
LINE
  8
CSLAYER1
  6
CONTINUOUS
 62
     5
 10
2921.817906
 20
171.327022
 11
2906.971669
 21
172.681358
  0
LINE
  8
CSLAYER1
  6
CONTINUOUS
 62
     5
 10
2906.971669
 20
172.681358
 11
2891.922459
 21
173.090010
  0
LINE
  8
CSLAYER1
  6
CONTINUOUS
 62
     5
 10
2891.971669
 20
173.088673
 11
2886.971669
 21
173.183967
  0
LINE
  8
CSLAYER1
  6
CONTINUOUS
 62
     5
 10
2886.971669
 20
173.646299
 11
2886.971669
 21
173.183967
  0
LINE
  8
CSLAYER1
  6
CONTINUOUS
 62
     5
 10
2944.471669
 20
165.681358
 11
2935.629110
 21
167.992020
  0
LINE
  8
CSLAYER1
  6
CONTINUOUS
 62
     5
 10
2921.817906
 20
171.327022
 11
2931.971669
 21
169.354638
  0
LINE
  8
CSLAYER1
  6
CONTINUOUS
 62
     5
 10
2931.971669
 20
169.354638
 11
2935.629110
 21
167.992020
  0
LINE
  8
CSLAYER1
  6
CONTINUOUS
 62
     5
 10
2944.471669
 20
165.681358
 11
2944.179051
 21
164.842252
  0
LINE
  8
CSLAYER1
  6
CONTINUOUS
 62
     5
 10
2953.971669
 20
160.181358
 11
2953.665641
 21
161.410339
  0
LINE
  8
CSLAYER1
  6
CONTINUOUS
 62
     5
 10
2944.179051
 20
164.842252
 11
2953.665641
 21
161.410339
  0
LINE
  8
CSLAYER1
  6
CONTINUOUS
 62
     5
 10
2890.471669
 20
165.681358
 11
2892.894707
 21
165.681358
  0
LINE
  8
CSLAYER1
  6
CONTINUOUS
 62
     5
 10
2912.971669
 20
166.113853
 11
2912.971669
 21
165.681358
  0
LINE
  8
CSLAYER1
  6
CONTINUOUS
 62
     5
 10
2911.971669
 20
166.648294
 11
2910.260389
 21
167.285473
  0
LINE
  8
CSLAYER1
  6
CONTINUOUS
 62
     5
 10
2910.260389
 20
167.285473
 11
2909.150333
 21
167.335930
  0
LINE
  8
CSLAYER1
  6
CONTINUOUS
 62
     5
 10
2909.150333
 20
167.335930
 11
2908.670991
 21
167.083644
  0
LINE
  8
CSLAYER1
  6
CONTINUOUS
 62
     5
 10
2908.670991
 20
167.083644
 11
2908.570077
 21
166.679987
  0
LINE
  8
CSLAYER1
  6
CONTINUOUS
 62
     5
 10
2908.570077
 20
166.679987
 11
2909.024191
 21
166.377245
  0
LINE
  8
CSLAYER1
  6
CONTINUOUS
 62
     5
 10
2909.024191
 20
166.377245
 11
2910.664046
 21
166.225874
  0
LINE
  8
CSLAYER1
  6
CONTINUOUS
 62
     5
 10
2910.664046
 20
166.225874
 11
2912.971669
 21
166.113853
  0
LINE
  8
CSLAYER1
  6
CONTINUOUS
 62
     5
 10
2953.971669
 20
160.181358
 11
2950.996126
 21
161.367939
  0
LINE
  8
CSLAYER1
  6
CONTINUOUS
 62
     5
 10
2950.996126
 20
161.367939
 11
2940.940436
 21
163.210815
  0
LINE
  8
CSLAYER1
  6
CONTINUOUS
 62
     5
 10
2940.940436
 20
163.210815
 11
2935.914656
 21
164.370610
  0
LINE
  8
CSLAYER1
  6
CONTINUOUS
 62
     5
 10
2913.505890
 20
166.681358
 11
2925.271556
 21
166.681358
  0
LINE
  8
CSLAYER1
  6
CONTINUOUS
 62
     5
 10
2911.971669
 20
166.648294
 11
2912.496328
 21
166.339827
  0
LINE
  8
CSLAYER1
  6
CONTINUOUS
 62
     5
 10
2912.496328
 20
166.339827
 11
2912.793140
 21
166.250783
  0
LINE
  8
CSLAYER1
  6
CONTINUOUS
 62
     5
 10
2912.793140
 20
166.250783
 11
2912.971669
 21
166.275954
  0
LINE
  8
CSLAYER1
  6
CONTINUOUS
 62
     5
 10
2912.971669
 20
166.275954
 11
2913.505890
 21
166.681358
  0
LINE
  8
CSLAYER1
  6
CONTINUOUS
 62
     5
 10
2925.271556
 20
166.681358
 11
2929.721825
 21
165.652532
  0
LINE
  8
CSLAYER1
  6
CONTINUOUS
 62
     5
 10
2929.721825
 20
165.652532
 11
2933.875016
 21
164.487383
  0
LINE
  8
CSLAYER1
  6
CONTINUOUS
 62
     5
 10
2933.875016
 20
164.487383
 11
2935.914656
 21
164.370610
  0
LINE
  8
CSLAYER1
  6
CONTINUOUS
 62
     5
 10
2889.471669
 20
164.681358
 11
2889.471669
 21
164.181358
  0
LINE
  8
CSLAYER1
  6
CONTINUOUS
 62
     5
 10
2886.971669
 20
164.181358
 11
2889.471669
 21
164.181358
  0
ARC
  8
CSLAYER1
  6
CONTINUOUS
 62
     5
 10
2890.471669
 20
164.681358
 40
1.000000
 50
90.000000
 51
180.000000
  0
LINE
  8
CSLAYER1
  6
CONTINUOUS
 62
     5
 10
2892.894707
 20
165.681358
 11
2893.592264
 21
165.109361
  0
LINE
  8
CSLAYER1
  6
CONTINUOUS
 62
     5
 10
2894.194632
 20
165.085401
 11
2895.052228
 21
165.681358
  0
LINE
  8
CSLAYER1
  6
CONTINUOUS
 62
     5
 10
2896.630624
 20
165.681358
 11
2898.297750
 21
165.023282
  0
LINE
  8
CSLAYER1
  6
CONTINUOUS
 62
     5
 10
2898.721459
 20
165.049794
 11
2899.874946
 21
165.681358
  0
LINE
  8
CSLAYER1
  6
CONTINUOUS
 62
     5
 10
2895.052228
 20
165.681358
 11
2896.630624
 21
165.681358
  0
LINE
  8
CSLAYER1
  6
CONTINUOUS
 62
     5
 10
2899.874946
 20
165.681358
 11
2912.971669
 21
165.681358
  0
LINE
  8
CSLAYER1
  6
CONTINUOUS
 62
     5
 10
2865.520652
 20
162.572531
 11
2886.971669
 21
164.181358
  0
LINE
  8
CSLAYER1
  6
CONTINUOUS
 62
     5
 10
2861.519301
 20
162.658582
 11
2865.520652
 21
162.572531
  0
ARC
  8
CSLAYER1
  6
CONTINUOUS
 62
     5
 10
2893.909303
 20
165.495995
 40
0.500000
 50
230.648247
 51
304.796026
  0
ARC
  8
CSLAYER1
  6
CONTINUOUS
 62
     5
 10
2898.481333
 20
165.488359
 40
0.500000
 50
248.459024
 51
298.701829
  0
ARC
  8
CSLAYER1
  6
CONTINUOUS
 62
     5
 10
2853.727056
 20
172.196469
 40
0.300000
 50
-84.093859
 51
36.869898
  0
ARC
  8
CSLAYER1
  6
CONTINUOUS
 62
     5
 10
2853.261452
 20
174.127741
 40
0.700000
 50
85.301319
 51
194.142980
  0
LINE
  8
CSLAYER1
  6
CONTINUOUS
 62
     3
 10
2885.453493
 20
156.914513
 11
2893.563989
 21
156.914513
  0
LINE
  8
CSLAYER1
  6
CONTINUOUS
 62
     3
 10
2879.040977
 20
155.314513
 11
2896.684317
 21
155.314513
  0
LINE
  8
CSLAYER1
  6
CONTINUOUS
 62
     3
 10
2875.628038
 20
153.714513
 11
2899.559682
 21
153.714513
  0
LINE
  8
CSLAYER1
  6
CONTINUOUS
 62
     3
 10
2873.392718
 20
152.114513
 11
2901.403155
 21
152.114513
  0
LINE
  8
CSLAYER1
  6
CONTINUOUS
 62
     3
 10
2871.897062
 20
150.514513
 11
2902.637441
 21
150.514513
  0
LINE
  8
CSLAYER1
  6
CONTINUOUS
 62
     3
 10
2870.676748
 20
148.914513
 11
2903.686817
 21
148.914513
  0
LINE
  8
CSLAYER1
  6
CONTINUOUS
 62
     3
 10
2869.984856
 20
147.314513
 11
2904.412692
 21
147.314513
  0
LINE
  8
CSLAYER1
  6
CONTINUOUS
 62
     3
 10
2869.292964
 20
145.714513
 11
2904.751078
 21
145.714513
  0
LINE
  8
CSLAYER1
  6
CONTINUOUS
 62
     3
 10
2868.644614
 20
144.114513
 11
2905.089464
 21
144.114513
  0
LINE
  8
CSLAYER1
  6
CONTINUOUS
 62
     3
 10
2868.322955
 20
142.514513
 11
2905.427851
 21
142.514513
  0
LINE
  8
CSLAYER1
  6
CONTINUOUS
 62
     3
 10
2868.001296
 20
140.914513
 11
2883.591539
 21
140.914513
  0
LINE
  8
CSLAYER1
  6
CONTINUOUS
 62
     3
 10
2867.679637
 20
139.314513
 11
2882.059278
 21
139.314513
  0
LINE
  8
CSLAYER1
  6
CONTINUOUS
 62
     3
 10
2867.357979
 20
137.714513
 11
2881.271109
 21
137.714513
  0
LINE
  8
CSLAYER1
  6
CONTINUOUS
 62
     3
 10
2867.116861
 20
136.114513
 11
2880.952341
 21
136.114513
  0
LINE
  8
CSLAYER1
  6
CONTINUOUS
 62
     3
 10
2866.996691
 20
134.514513
 11
2881.002362
 21
134.514513
  0
LINE
  8
CSLAYER1
  6
CONTINUOUS
 62
     3
 10
2866.971669
 20
132.914513
 11
2881.548449
 21
132.914513
  0
LINE
  8
CSLAYER1
  6
CONTINUOUS
 62
     3
 10
2867.470857
 20
131.314513
 11
2883.578452
 21
131.314513
  0
LINE
  8
CSLAYER1
  6
CONTINUOUS
 62
     3
 10
2868.181968
 20
129.714513
 11
2900.709823
 21
129.714513
  0
LINE
  8
CSLAYER1
  6
CONTINUOUS
 62
     3
 10
2868.893079
 20
128.114513
 11
2900.258541
 21
128.114513
  0
LINE
  8
CSLAYER1
  6
CONTINUOUS
 62
     3
 10
2869.604190
 20
126.514513
 11
2899.535517
 21
126.514513
  0
LINE
  8
CSLAYER1
  6
CONTINUOUS
 62
     3
 10
2870.566149
 20
124.914513
 11
2898.637330
 21
124.914513
  0
LINE
  8
CSLAYER1
  6
CONTINUOUS
 62
     3
 10
2871.814610
 20
123.314513
 11
2897.132404
 21
123.314513
  0
LINE
  8
CSLAYER1
  6
CONTINUOUS
 62
     3
 10
2873.420030
 20
121.714513
 11
2894.739944
 21
121.714513
  0
LINE
  8
CSLAYER1
  6
CONTINUOUS
 62
     3
 10
2875.567172
 20
120.114513
 11
2891.614820
 21
120.114513
  0
LINE
  8
CSLAYER1
  6
CONTINUOUS
 62
     3
 10
2878.814862
 20
118.514513
 11
2886.976672
 21
118.514513
  0
LINE
  8
CSLAYER1
  6
CONTINUOUS
 62
     3
 10
2888.783363
 20
140.914513
 11
2905.603100
 21
140.914513
  0
LINE
  8
CSLAYER1
  6
CONTINUOUS
 62
     3
 10
2889.454107
 20
139.314513
 11
2905.477331
 21
139.314513
  0
LINE
  8
CSLAYER1
  6
CONTINUOUS
 62
     3
 10
2889.566114
 20
137.714513
 11
2905.351561
 21
137.714513
  0
LINE
  8
CSLAYER1
  6
CONTINUOUS
 62
     3
 10
2889.320757
 20
136.114513
 11
2904.637705
 21
136.114513
  0
LINE
  8
CSLAYER1
  6
CONTINUOUS
 62
     3
 10
2888.669111
 20
134.514513
 11
2903.916505
 21
134.514513
  0
LINE
  8
CSLAYER1
  6
CONTINUOUS
 62
     3
 10
2887.535848
 20
132.914513
 11
2902.982557
 21
132.914513
  0
LINE
  8
CSLAYER1
  6
CONTINUOUS
 62
     3
 10
2885.279852
 20
131.314513
 11
2901.711850
 21
131.314513
  0
TEXT
  8
CSLAYER1
 62
     5
 10
2906.143339
 20
138.925686
 40
4.713448
 41
1.951056
  1
M
 50
0.000000
 51
0.000000
  7
EASYDRAW_FONT
 72
     5
 11
2912.274141
 21
138.925686
  0
TEXT
  8
CSLAYER1
 62
     5
 10
2915.794726
 20
138.867415
 40
4.626621
 41
0.778201
  1
T
 50
0.000000
 51
0.000000
  7
EASYDRAW_FONT
 72
     5
 11
2918.195020
 21
138.867415
  0
TEXT
  8
CSLAYER1
 62
     5
 10
2918.560289
 20
138.902214
 40
4.696183
 41
1.055553
  1
E
 50
0.000000
 51
0.000000
  7
EASYDRAW_FONT
 72
     5
 11
2921.865004
 21
138.902214
  0
TEXT
  8
CSLAYER1
 62
     5
 10
2921.676470
 20
140.518058
 40
0.348283
 41
9.375319
  1
-
 50
0.000000
 51
0.000000
  7
EASYDRAW_FONT
 72
     5
 11
2923.853315
 21
140.518058
  0
TEXT
  8
CSLAYER1
 62
     5
 10
2923.490680
 20
138.870867
 40
4.861659
 41
1.298502
  1
H
 50
0.000000
 51
0.000000
  7
EASYDRAW_FONT
 72
     5
 11
2927.699262
 21
138.870867
  0
TEXT
  8
CSLAYER1
 62
     5
 10
2927.566694
 20
138.901246
 40
4.843139
 41
1.269236
  1
A
 50
0.000000
 51
0.000000
  7
EASYDRAW_FONT
 72
     5
 11
2931.664751
 21
138.901246
  0
TEXT
  8
CSLAYER1
 62
     5
 10
2931.272851
 20
138.859719
 40
4.825362
 41
1.490144
  1
N
 50
0.000000
 51
0.000000
  7
EASYDRAW_FONT
 72
     5
 11
2936.066505
 21
138.859719
  0
TEXT
  8
CSLAYER1
 62
     5
 10
2912.064308
 20
138.837146
 40
4.982325
 41
1.177443
  1
A
 50
0.000000
 51
0.000000
  7
EASYDRAW_FONT
 72
     5
 11
2915.975243
 21
138.837146
  0
TEXT
  8
CSLAYER1
 62
     5
 10
2906.510353
 20
131.841907
 40
4.982325
 41
1.177443
  1
A
 50
0.000000
 51
0.000000
  7
EASYDRAW_FONT
 72
     5
 11
2910.421288
 21
131.841907
  0
TEXT
  8
CSLAYER1
 62
     5
 10
2919.294777
 20
131.870227
 40
4.982325
 41
1.177443
  1
A
 50
0.000000
 51
0.000000
  7
EASYDRAW_FONT
 72
     5
 11
2923.205711
 21
131.870227
  0
TEXT
  8
CSLAYER1
 62
     5
 10
2923.055321
 20
131.927224
 40
4.825362
 41
1.490144
  1
N
 50
0.000000
 51
0.000000
  7
EASYDRAW_FONT
 72
     5
 11
2927.848976
 21
131.927224
  0
TEXT
  8
CSLAYER1
 62
     5
 10
2931.957657
 20
131.935619
 40
4.841775
 41
1.184218
  1
E
 50
0.000000
 51
0.000000
  7
EASYDRAW_FONT
 72
     5
 11
2935.780136
 21
131.935619
  0
TEXT
  8
CSLAYER1
 62
     5
 10
2910.790907
 20
131.840582
 40
4.947865
 41
1.093992
  1
D
 50
0.000000
 51
0.000000
  7
EASYDRAW_FONT
 72
     5
 11
2914.399523
 21
131.840582
  0
TEXT
  8
CSLAYER1
 62
     5
 10
2915.193265
 20
131.835197
 40
4.924210
 41
1.228195
  1
V
 50
0.000000
 51
0.000000
  7
EASYDRAW_FONT
 72
     5
 11
2919.225192
 21
131.835197
  0
TEXT
  8
CSLAYER1
 62
     5
 10
2927.418466
 20
131.855929
 40
5.032894
 41
1.481023
  1
C
 50
0.000000
 51
0.000000
  7
EASYDRAW_FONT
 72
     5
 11
2932.387686
 21
131.855929
  0
LINE
  8
CSLAYER1
  6
CONTINUOUS
 62
     5
 10
2918.049006
 20
142.916330
 11
2917.036944
 21
142.916330
  0
LINE
  8
CSLAYER1
  6
CONTINUOUS
 62
     3
 10
2867.147244
 20
177.141601
 11
2916.945070
 21
177.141601
  0
LINE
  8
CSLAYER1
  6
CONTINUOUS
 62
     3
 10
2860.034880
 20
175.541601
 11
2928.024761
 21
175.541601
  0
LINE
  8
CSLAYER1
  6
CONTINUOUS
 62
     3
 10
2852.586475
 20
173.941601
 11
2898.009785
 21
173.941601
  0
LINE
  8
CSLAYER1
  6
CONTINUOUS
 62
     3
 10
2910.971335
 20
173.941601
 11
2920.557939
 21
173.941601
  0
LINE
  8
CSLAYER1
  6
CONTINUOUS
 62
     3
 10
2924.867072
 20
173.941601
 11
2933.380069
 21
173.941601
  0
LINE
  8
CSLAYER1
  6
CONTINUOUS
 62
     3
 10
2853.989614
 20
172.341601
 11
2910.696084
 21
172.341601
  0
LINE
  8
CSLAYER1
  6
CONTINUOUS
 62
     3
 10
2930.876222
 20
172.341601
 11
2936.982467
 21
172.341601
  0
LINE
  8
CSLAYER1
  6
CONTINUOUS
 62
     3
 10
2852.077281
 20
170.741601
 11
2924.831631
 21
170.741601
  0
LINE
  8
CSLAYER1
  6
CONTINUOUS
 62
     3
 10
2936.777521
 20
170.741601
 11
2939.011242
 21
170.741601
  0
LINE
  8
CSLAYER1
  6
CONTINUOUS
 62
     3
 10
2851.015055
 20
169.141601
 11
2932.543488
 21
169.141601
  0
LINE
  8
CSLAYER1
  6
CONTINUOUS
 62
     3
 10
2852.690722
 20
167.541601
 11
2937.352796
 21
167.541601
  0
LINE
  8
CSLAYER1
  6
CONTINUOUS
 62
     3
 10
2853.858290
 20
165.941601
 11
2912.971669
 21
165.941601
  0
LINE
  8
CSLAYER1
  6
CONTINUOUS
 62
     3
 10
2928.471434
 20
165.941601
 11
2943.475757
 21
165.941601
  0
LINE
  8
CSLAYER1
  6
CONTINUOUS
 62
     3
 10
2854.103413
 20
164.341601
 11
2889.471669
 21
164.341601
  0
LINE
  8
CSLAYER1
  6
CONTINUOUS
 62
     3
 10
2936.040362
 20
164.341601
 11
2945.562965
 21
164.341601
  0
LINE
  8
CSLAYER1
  6
CONTINUOUS
 62
     3
 10
2854.309738
 20
162.741601
 11
2867.774912
 21
162.741601
  0
LINE
  8
CSLAYER1
  6
CONTINUOUS
 62
     3
 10
2943.500711
 20
162.741601
 11
2949.985730
 21
162.741601
  0
LINE
  8
CSLAYER1
  6
CONTINUOUS
 62
     3
 10
2951.563705
 20
161.141601
 11
2953.732559
 21
161.141601
  0
ENDBLK
  8
0
  0
BLOCK
  8
CSLAYER1
  2
BLKF0001
 70
   64
 10
0.0
 20
0.0
 30
0.0
  0
TEXT
  8
CSLAYER1
 62
     7
 10
549.792725
 20
2346.827637
 40
40.000000
 41
0.778846
  1
電動式油圧ユニット
 50
0.000000
 51
0.000000
  7
EASYDRAW_FONT
 72
     5
 11
819.792725
 21
2346.827637
  0
LINE
  8
CSLAYER1
  6
CONTINUOUS
 62
     5
 10
272.087063
 20
2409.902837
 11
1117.018570
 21
2409.902837
  0
LINE
  8
CSLAYER1
  6
CONTINUOUS
 62
     5
 10
1117.018570
 20
2409.902837
 11
1117.018570
 21
1585.038989
  0
LINE
  8
CSLAYER1
  6
CONTINUOUS
 62
     5
 10
272.087063
 20
1585.038989
 11
272.087063
 21
2409.902837
  0
TEXT
  8
CSLAYER1
 62
     3
 10
433.331270
 20
2221.656546
 40
39.957333
 41
1.050000
  1
278
 50
30.000000
 51
0.000000
  7
EASYDRAW_FONT
 72
     5
 11
530.222652
 21
2277.596811
  0
TEXT
  8
CSLAYER1
 62
     3
 10
605.185093
 20
2261.765757
 40
39.957333
 41
1.050000
  1
415
 50
-30.000000
 51
0.000000
  7
EASYDRAW_FONT
 72
     5
 11
702.076475
 21
2205.825491
  0
TEXT
  8
CSLAYER1
 62
     3
 10
357.669615
 20
2065.716961
 40
39.957333
 41
1.050000
  1
275
 50
90.000000
 51
0.000000
  7
EASYDRAW_FONT
 72
     5
 11
357.669615
 21
2177.597492
  0
LINE
  8
CSLAYER1
  6
CONTINUOUS
 62
     5
 10
370.425258
 20
2174.605676
 11
414.378325
 21
2149.229362
  0
LINE
  8
CSLAYER1
  6
CONTINUOUS
 62
     5
 10
418.374058
 20
2202.288929
 11
418.374058
 21
2151.536299
  0
LINE
  8
CSLAYER1
  6
CONTINUOUS
 62
     5
 10
722.049792
 20
2188.447303
 11
722.049792
 21
2137.694673
  0
LINE
  8
CSLAYER1
  6
CONTINUOUS
 62
     5
 10
418.374058
 20
2193.061178
 11
558.224725
 21
2273.803998
  0
LINE
  8
CSLAYER1
  6
CONTINUOUS
 62
     5
 10
418.374058
 20
2193.061178
 11
439.587262
 21
2214.274382
  0
LINE
  8
CSLAYER1
  6
CONTINUOUS
 62
     5
 10
418.374058
 20
2193.061178
 11
447.351833
 21
2200.825749
  0
LINE
  8
CSLAYER1
  6
CONTINUOUS
 62
     5
 10
558.224725
 20
2273.803998
 11
537.011522
 21
2252.590795
  0
LINE
  8
CSLAYER1
  6
CONTINUOUS
 62
     5
 10
558.224725
 20
2273.803998
 11
529.246950
 21
2266.039427
  0
LINE
  8
CSLAYER1
  6
CONTINUOUS
 62
     5
 10
558.224725
 20
2273.803998
 11
722.049792
 21
2179.219552
  0
LINE
  8
CSLAYER1
  6
CONTINUOUS
 62
     5
 10
558.224725
 20
2273.803998
 11
587.202500
 21
2266.039427
  0
LINE
  8
CSLAYER1
  6
CONTINUOUS
 62
     5
 10
558.224725
 20
2273.803998
 11
579.437928
 21
2252.590795
  0
LINE
  8
CSLAYER1
  6
CONTINUOUS
 62
     5
 10
722.049792
 20
2179.219552
 11
693.072017
 21
2186.984123
  0
LINE
  8
CSLAYER1
  6
CONTINUOUS
 62
     5
 10
722.049792
 20
2179.219552
 11
700.836588
 21
2200.432755
  0
LINE
  8
CSLAYER1
  6
CONTINUOUS
 62
     5
 10
558.224725
 20
2283.031749
 11
558.224725
 21
2232.279119
  0
LINE
  8
CSLAYER1
  6
CONTINUOUS
 62
     5
 10
378.416725
 20
2169.991801
 11
378.416725
 21
2054.644915
  0
LINE
  8
CSLAYER1
  6
CONTINUOUS
 62
     5
 10
378.416725
 20
2169.991801
 11
370.652154
 21
2141.014026
  0
LINE
  8
CSLAYER1
  6
CONTINUOUS
 62
     5
 10
378.416725
 20
2169.991801
 11
386.181296
 21
2141.014026
  0
LINE
  8
CSLAYER1
  6
CONTINUOUS
 62
     5
 10
378.416725
 20
2054.644915
 11
370.652154
 21
2083.622690
  0
LINE
  8
CSLAYER1
  6
CONTINUOUS
 62
     5
 10
378.416725
 20
2054.644915
 11
386.181296
 21
2083.622690
  0
TEXT
  8
CSLAYER1
 62
     3
 10
859.125595
 20
2151.755709
 40
39.957333
 41
1.028571
  1
高圧ホース
 50
0.000000
 51
0.000000
  7
EASYDRAW_FONT
 72
     5
 11
1050.920792
 21
2151.755709
  0
TEXT
  8
CSLAYER1
 62
     3
 10
335.946182
 20
1905.505831
 40
39.957333
 41
1.028571
  1
電源コード
 50
0.000000
 51
0.000000
  7
EASYDRAW_FONT
 72
     5
 11
527.741379
 21
1905.505831
  0
LINE
  8
CSLAYER1
  6
CONTINUOUS
 62
     5
 10
758.763092
 20
1994.055941
 11
845.097815
 21
2143.592068
  0
LINE
  8
CSLAYER1
  6
CONTINUOUS
 62
     5
 10
758.763092
 20
1994.055941
 11
766.527663
 21
2023.033716
  0
LINE
  8
CSLAYER1
  6
CONTINUOUS
 62
     5
 10
758.763092
 20
1994.055941
 11
779.976295
 21
2015.269144
  0
LINE
  8
CSLAYER1
  6
CONTINUOUS
 62
     5
 10
1065.812281
 20
2143.592068
 11
845.097815
 21
2143.592068
  0
LINE
  8
CSLAYER1
  6
CONTINUOUS
 62
     5
 10
338.484167
 20
1898.075110
 11
532.226647
 21
1898.075110
  0
LINE
  8
CSLAYER1
  6
CONTINUOUS
 62
     3
 10
582.199125
 20
1936.991092
 11
623.355178
 21
1960.752550
  0
LINE
  8
CSLAYER1
  6
CONTINUOUS
 62
     3
 10
418.374058
 20
2031.575538
 11
428.363392
 21
2025.808194
  0
LINE
  8
CSLAYER1
  6
CONTINUOUS
 62
     3
 10
582.199125
 20
2052.337977
 11
582.199125
 21
1936.991092
  0
LINE
  8
CSLAYER1
  6
CONTINUOUS
 62
     3
 10
582.199125
 20
2052.337977
 11
722.049792
 21
2133.080798
  0
LINE
  8
CSLAYER1
  6
CONTINUOUS
 62
     3
 10
558.224725
 20
2227.665244
 11
722.049792
 21
2133.080798
  0
LINE
  8
CSLAYER1
  6
CONTINUOUS
 62
     3
 10
582.199125
 20
1960.060469
 11
603.376512
 21
1972.287239
  0
LINE
  8
CSLAYER1
  6
CONTINUOUS
 62
     3
 10
680.461377
 20
2064.814371
 11
722.049792
 21
2040.803289
  0
LINE
  8
CSLAYER1
  6
CONTINUOUS
 62
     3
 10
572.209792
 20
1942.758436
 11
582.199125
 21
1936.991092
  0
LINE
  8
CSLAYER1
  6
CONTINUOUS
 62
     3
 10
678.096725
 20
2066.640991
 11
676.652006
 21
2067.334643
  0
LINE
  8
CSLAYER1
  6
CONTINUOUS
 62
     3
 10
676.652006
 20
2067.334643
 11
675.096642
 21
2067.812329
  0
LINE
  8
CSLAYER1
  6
CONTINUOUS
 62
     3
 10
675.096642
 20
2067.812329
 11
673.442472
 21
2068.070414
  0
LINE
  8
CSLAYER1
  6
CONTINUOUS
 62
     3
 10
673.442472
 20
2068.070414
 11
671.702083
 21
2068.106934
  0
LINE
  8
CSLAYER1
  6
CONTINUOUS
 62
     3
 10
671.702083
 20
2068.106934
 11
669.888721
 21
2067.921611
  0
LINE
  8
CSLAYER1
  6
CONTINUOUS
 62
     3
 10
669.888721
 20
2067.921611
 11
668.016187
 21
2067.515856
  0
LINE
  8
CSLAYER1
  6
CONTINUOUS
 62
     3
 10
668.016187
 20
2067.515856
 11
666.098733
 21
2066.892756
  0
LINE
  8
CSLAYER1
  6
CONTINUOUS
 62
     3
 10
666.098733
 20
2066.892756
 11
664.150951
 21
2066.057053
  0
LINE
  8
CSLAYER1
  6
CONTINUOUS
 62
     3
 10
664.150951
 20
2066.057053
 11
662.187664
 21
2065.015109
  0
LINE
  8
CSLAYER1
  6
CONTINUOUS
 62
     3
 10
662.187664
 20
2065.015109
 11
660.223816
 21
2063.774852
  0
LINE
  8
CSLAYER1
  6
CONTINUOUS
 62
     3
 10
660.223816
 20
2063.774852
 11
658.274351
 21
2062.345722
  0
LINE
  8
CSLAYER1
  6
CONTINUOUS
 62
     3
 10
658.274351
 20
2062.345722
 11
656.354107
 21
2060.738596
  0
LINE
  8
CSLAYER1
  6
CONTINUOUS
 62
     3
 10
656.354107
 20
2060.738596
 11
654.477698
 21
2058.965704
  0
LINE
  8
CSLAYER1
  6
CONTINUOUS
 62
     3
 10
654.477698
 20
2058.965704
 11
652.659404
 21
2057.040539
  0
LINE
  8
CSLAYER1
  6
CONTINUOUS
 62
     3
 10
652.659404
 20
2057.040539
 11
650.913063
 21
2054.977753
  0
LINE
  8
CSLAYER1
  6
CONTINUOUS
 62
     3
 10
650.913063
 20
2054.977753
 11
649.251967
 21
2052.793045
  0
LINE
  8
CSLAYER1
  6
CONTINUOUS
 62
     3
 10
649.251967
 20
2052.793045
 11
647.688757
 21
2050.503042
  0
LINE
  8
CSLAYER1
  6
CONTINUOUS
 62
     3
 10
647.688757
 20
2050.503042
 11
646.235330
 21
2048.125173
  0
LINE
  8
CSLAYER1
  6
CONTINUOUS
 62
     3
 10
646.235330
 20
2048.125173
 11
644.902748
 21
2045.677533
  0
LINE
  8
CSLAYER1
  6
CONTINUOUS
 62
     3
 10
644.902748
 20
2045.677533
 11
643.701153
 21
2043.178752
  0
LINE
  8
CSLAYER1
  6
CONTINUOUS
 62
     3
 10
643.701153
 20
2043.178752
 11
642.639688
 21
2040.647847
  0
LINE
  8
CSLAYER1
  6
CONTINUOUS
 62
     3
 10
642.639688
 20
2040.647847
 11
641.726434
 21
2038.104079
  0
LINE
  8
CSLAYER1
  6
CONTINUOUS
 62
     3
 10
641.726434
 20
2038.104079
 11
640.968339
 21
2035.566807
  0
LINE
  8
CSLAYER1
  6
CONTINUOUS
 62
     3
 10
640.968339
 20
2035.566807
 11
640.371174
 21
2033.055343
  0
LINE
  8
CSLAYER1
  6
CONTINUOUS
 62
     3
 10
640.371174
 20
2033.055343
 11
639.939484
 21
2030.588800
  0
LINE
  8
CSLAYER1
  6
CONTINUOUS
 62
     3
 10
639.939484
 20
2030.588800
 11
639.676553
 21
2028.185949
  0
LINE
  8
CSLAYER1
  6
CONTINUOUS
 62
     3
 10
639.676553
 20
2028.185949
 11
639.584383
 21
2025.865078
  0
LINE
  8
CSLAYER1
  6
CONTINUOUS
 62
     3
 10
639.584383
 20
2025.865078
 11
639.663676
 21
2023.643850
  0
LINE
  8
CSLAYER1
  6
CONTINUOUS
 62
     3
 10
639.663676
 20
2023.643850
 11
639.913828
 21
2021.539170
  0
LINE
  8
CSLAYER1
  6
CONTINUOUS
 62
     3
 10
639.913828
 20
2021.539170
 11
640.332935
 21
2019.567056
  0
LINE
  8
CSLAYER1
  6
CONTINUOUS
 62
     3
 10
640.332935
 20
2019.567056
 11
640.917807
 21
2017.742516
  0
LINE
  8
CSLAYER1
  6
CONTINUOUS
 62
     3
 10
640.917807
 20
2017.742516
 11
641.663993
 21
2016.079438
  0
LINE
  8
CSLAYER1
  6
CONTINUOUS
 62
     3
 10
641.663993
 20
2016.079438
 11
642.565815
 21
2014.590477
  0
LINE
  8
CSLAYER1
  6
CONTINUOUS
 62
     3
 10
642.565815
 20
2014.590477
 11
643.616409
 21
2013.286965
  0
LINE
  8
CSLAYER1
  6
CONTINUOUS
 62
     3
 10
644.807779
 20
2012.178824
 11
646.130858
 21
2011.274486
  0
LINE
  8
CSLAYER1
  6
CONTINUOUS
 62
     3
 10
646.130858
 20
2011.274486
 11
647.575577
 21
2010.580835
  0
LINE
  8
CSLAYER1
  6
CONTINUOUS
 62
     3
 10
647.575577
 20
2010.580835
 11
649.130941
 21
2010.103149
  0
LINE
  8
CSLAYER1
  6
CONTINUOUS
 62
     3
 10
649.130941
 20
2010.103149
 11
650.785112
 21
2009.845064
  0
LINE
  8
CSLAYER1
  6
CONTINUOUS
 62
     3
 10
650.785112
 20
2009.845064
 11
652.525501
 21
2009.808543
  0
LINE
  8
CSLAYER1
  6
CONTINUOUS
 62
     3
 10
652.525501
 20
2009.808543
 11
654.338862
 21
2009.993866
  0
LINE
  8
CSLAYER1
  6
CONTINUOUS
 62
     3
 10
654.338862
 20
2009.993866
 11
656.211396
 21
2010.399622
  0
LINE
  8
CSLAYER1
  6
CONTINUOUS
 62
     3
 10
656.211396
 20
2010.399622
 11
658.128850
 21
2011.022722
  0
LINE
  8
CSLAYER1
  6
CONTINUOUS
 62
     3
 10
658.128850
 20
2011.022722
 11
660.076633
 21
2011.858424
  0
LINE
  8
CSLAYER1
  6
CONTINUOUS
 62
     3
 10
660.076633
 20
2011.858424
 11
662.039919
 21
2012.900368
  0
LINE
  8
CSLAYER1
  6
CONTINUOUS
 62
     3
 10
662.039919
 20
2012.900368
 11
664.003767
 21
2014.140625
  0
LINE
  8
CSLAYER1
  6
CONTINUOUS
 62
     3
 10
664.003767
 20
2014.140625
 11
665.953232
 21
2015.569755
  0
LINE
  8
CSLAYER1
  6
CONTINUOUS
 62
     3
 10
665.953232
 20
2015.569755
 11
667.873476
 21
2017.176882
  0
LINE
  8
CSLAYER1
  6
CONTINUOUS
 62
     3
 10
667.873476
 20
2017.176882
 11
669.749885
 21
2018.949774
  0
LINE
  8
CSLAYER1
  6
CONTINUOUS
 62
     3
 10
669.749885
 20
2018.949774
 11
671.568179
 21
2020.874939
  0
LINE
  8
CSLAYER1
  6
CONTINUOUS
 62
     3
 10
671.568179
 20
2020.874939
 11
673.314520
 21
2022.937725
  0
LINE
  8
CSLAYER1
  6
CONTINUOUS
 62
     3
 10
673.314520
 20
2022.937725
 11
674.975616
 21
2025.122432
  0
LINE
  8
CSLAYER1
  6
CONTINUOUS
 62
     3
 10
674.975616
 20
2025.122432
 11
676.538826
 21
2027.412435
  0
LINE
  8
CSLAYER1
  6
CONTINUOUS
 62
     3
 10
676.538826
 20
2027.412435
 11
677.992253
 21
2029.790305
  0
LINE
  8
CSLAYER1
  6
CONTINUOUS
 62
     3
 10
677.992253
 20
2029.790305
 11
679.324835
 21
2032.237944
  0
LINE
  8
CSLAYER1
  6
CONTINUOUS
 62
     3
 10
679.324835
 20
2032.237944
 11
680.526431
 21
2034.736725
  0
LINE
  8
CSLAYER1
  6
CONTINUOUS
 62
     3
 10
680.526431
 20
2034.736725
 11
681.587895
 21
2037.267631
  0
LINE
  8
CSLAYER1
  6
CONTINUOUS
 62
     3
 10
681.587895
 20
2037.267631
 11
682.501150
 21
2039.811399
  0
LINE
  8
CSLAYER1
  6
CONTINUOUS
 62
     3
 10
682.501150
 20
2039.811399
 11
683.259244
 21
2042.348670
  0
LINE
  8
CSLAYER1
  6
CONTINUOUS
 62
     3
 10
683.259244
 20
2042.348670
 11
683.856409
 21
2044.860134
  0
LINE
  8
CSLAYER1
  6
CONTINUOUS
 62
     3
 10
683.856409
 20
2044.860134
 11
684.288100
 21
2047.326678
  0
LINE
  8
CSLAYER1
  6
CONTINUOUS
 62
     3
 10
684.288100
 20
2047.326678
 11
684.551030
 21
2049.729529
  0
LINE
  8
CSLAYER1
  6
CONTINUOUS
 62
     3
 10
684.551030
 20
2049.729529
 11
684.643200
 21
2052.050400
  0
LINE
  8
CSLAYER1
  6
CONTINUOUS
 62
     3
 10
684.643200
 20
2052.050400
 11
684.563907
 21
2054.271628
  0
LINE
  8
CSLAYER1
  6
CONTINUOUS
 62
     3
 10
684.563907
 20
2054.271628
 11
684.313755
 21
2056.376308
  0
LINE
  8
CSLAYER1
  6
CONTINUOUS
 62
     3
 10
684.313755
 20
2056.376308
 11
683.894649
 21
2058.348422
  0
LINE
  8
CSLAYER1
  6
CONTINUOUS
 62
     3
 10
683.894649
 20
2058.348422
 11
683.309776
 21
2060.172961
  0
LINE
  8
CSLAYER1
  6
CONTINUOUS
 62
     3
 10
683.309776
 20
2060.172961
 11
682.563590
 21
2061.836040
  0
LINE
  8
CSLAYER1
  6
CONTINUOUS
 62
     3
 10
682.563590
 20
2061.836040
 11
681.661768
 21
2063.325001
  0
LINE
  8
CSLAYER1
  6
CONTINUOUS
 62
     3
 10
681.661768
 20
2063.325001
 11
680.611174
 21
2064.628512
  0
LINE
  8
CSLAYER1
  6
CONTINUOUS
 62
     3
 10
680.611174
 20
2064.628512
 11
679.419804
 21
2065.736654
  0
LINE
  8
CSLAYER1
  6
CONTINUOUS
 62
     3
 10
679.419804
 20
2065.736654
 11
678.096725
 21
2066.640991
  0
LINE
  8
CSLAYER1
  6
CONTINUOUS
 62
     3
 10
582.199125
 20
2048.185490
 11
646.130858
 21
2011.274486
  0
LINE
  8
CSLAYER1
  6
CONTINUOUS
 62
     3
 10
642.534698
 20
2087.172737
 11
678.096725
 21
2066.640991
  0
LINE
  8
CSLAYER1
  6
CONTINUOUS
 62
     3
 10
428.363392
 20
2025.808194
 11
448.342058
 21
2037.342882
  0
LINE
  8
CSLAYER1
  6
CONTINUOUS
 62
     3
 10
418.374058
 20
2031.575538
 11
438.352725
 21
2043.110227
  0
LINE
  8
CSLAYER1
  6
CONTINUOUS
 62
     3
 10
668.107392
 20
2049.338958
 11
667.565622
 21
2049.599078
  0
LINE
  8
CSLAYER1
  6
CONTINUOUS
 62
     3
 10
667.565622
 20
2049.599078
 11
666.982361
 21
2049.778210
  0
LINE
  8
CSLAYER1
  6
CONTINUOUS
 62
     3
 10
666.982361
 20
2049.778210
 11
666.362047
 21
2049.874992
  0
LINE
  8
CSLAYER1
  6
CONTINUOUS
 62
     3
 10
666.362047
 20
2049.874992
 11
665.709401
 21
2049.888687
  0
LINE
  8
CSLAYER1
  6
CONTINUOUS
 62
     3
 10
665.709401
 20
2049.888687
 11
665.029390
 21
2049.819191
  0
LINE
  8
CSLAYER1
  6
CONTINUOUS
 62
     3
 10
665.029390
 20
2049.819191
 11
664.327190
 21
2049.667033
  0
LINE
  8
CSLAYER1
  6
CONTINUOUS
 62
     3
 10
664.327190
 20
2049.667033
 11
663.608145
 21
2049.433370
  0
LINE
  8
CSLAYER1
  6
CONTINUOUS
 62
     3
 10
663.608145
 20
2049.433370
 11
662.877726
 21
2049.119982
  0
LINE
  8
CSLAYER1
  6
CONTINUOUS
 62
     3
 10
662.877726
 20
2049.119982
 11
662.141494
 21
2048.729253
  0
LINE
  8
CSLAYER1
  6
CONTINUOUS
 62
     3
 10
662.141494
 20
2048.729253
 11
661.405051
 21
2048.264156
  0
LINE
  8
CSLAYER1
  6
CONTINUOUS
 62
     3
 10
661.405051
 20
2048.264156
 11
660.674002
 21
2047.728233
  0
LINE
  8
CSLAYER1
  6
CONTINUOUS
 62
     3
 10
660.674002
 20
2047.728233
 11
659.953910
 21
2047.125560
  0
LINE
  8
CSLAYER1
  6
CONTINUOUS
 62
     3
 10
659.953910
 20
2047.125560
 11
659.250257
 21
2046.460726
  0
LINE
  8
CSLAYER1
  6
CONTINUOUS
 62
     3
 10
659.250257
 20
2046.460726
 11
658.568396
 21
2045.738789
  0
LINE
  8
CSLAYER1
  6
CONTINUOUS
 62
     3
 10
658.568396
 20
2045.738789
 11
657.913519
 21
2044.965244
  0
LINE
  8
CSLAYER1
  6
CONTINUOUS
 62
     3
 10
657.913519
 20
2044.965244
 11
657.290607
 21
2044.145979
  0
LINE
  8
CSLAYER1
  6
CONTINUOUS
 62
     3
 10
657.290607
 20
2044.145979
 11
656.704404
 21
2043.287228
  0
LINE
  8
CSLAYER1
  6
CONTINUOUS
 62
     3
 10
656.704404
 20
2043.287228
 11
656.159369
 21
2042.395526
  0
LINE
  8
CSLAYER1
  6
CONTINUOUS
 62
     3
 10
656.159369
 20
2042.395526
 11
655.659650
 21
2041.477662
  0
LINE
  8
CSLAYER1
  6
CONTINUOUS
 62
     3
 10
655.659650
 20
2041.477662
 11
655.209052
 21
2040.540619
  0
LINE
  8
CSLAYER1
  6
CONTINUOUS
 62
     3
 10
655.209052
 20
2040.540619
 11
654.811003
 21
2039.591529
  0
LINE
  8
CSLAYER1
  6
CONTINUOUS
 62
     3
 10
654.811003
 20
2039.591529
 11
654.468532
 21
2038.637616
  0
LINE
  8
CSLAYER1
  6
CONTINUOUS
 62
     3
 10
654.468532
 20
2038.637616
 11
654.184247
 21
2037.686139
  0
LINE
  8
CSLAYER1
  6
CONTINUOUS
 62
     3
 10
654.184247
 20
2037.686139
 11
653.960310
 21
2036.744340
  0
LINE
  8
CSLAYER1
  6
CONTINUOUS
 62
     3
 10
653.960310
 20
2036.744340
 11
653.798426
 21
2035.819387
  0
LINE
  8
CSLAYER1
  6
CONTINUOUS
 62
     3
 10
653.798426
 20
2035.819387
 11
653.699827
 21
2034.918317
  0
LINE
  8
CSLAYER1
  6
CONTINUOUS
 62
     3
 10
653.699827
 20
2034.918317
 11
653.665264
 21
2034.047991
  0
LINE
  8
CSLAYER1
  6
CONTINUOUS
 62
     3
 10
653.665264
 20
2034.047991
 11
653.694998
 21
2033.215030
  0
LINE
  8
CSLAYER1
  6
CONTINUOUS
 62
     3
 10
653.694998
 20
2033.215030
 11
653.788805
 21
2032.425775
  0
LINE
  8
CSLAYER1
  6
CONTINUOUS
 62
     3
 10
653.788805
 20
2032.425775
 11
653.945970
 21
2031.686233
  0
LINE
  8
CSLAYER1
  6
CONTINUOUS
 62
     3
 10
653.945970
 20
2031.686233
 11
654.165297
 21
2031.002030
  0
LINE
  8
CSLAYER1
  6
CONTINUOUS
 62
     3
 10
654.165297
 20
2031.002030
 11
654.445117
 21
2030.378376
  0
LINE
  8
CSLAYER1
  6
CONTINUOUS
 62
     3
 10
654.445117
 20
2030.378376
 11
654.783301
 21
2029.820015
  0
LINE
  8
CSLAYER1
  6
CONTINUOUS
 62
     3
 10
654.783301
 20
2029.820015
 11
655.177273
 21
2029.331199
  0
LINE
  8
CSLAYER1
  6
CONTINUOUS
 62
     3
 10
655.177273
 20
2029.331199
 11
655.624037
 21
2028.915646
  0
LINE
  8
CSLAYER1
  6
CONTINUOUS
 62
     3
 10
655.624037
 20
2028.915646
 11
656.120192
 21
2028.576519
  0
LINE
  8
CSLAYER1
  6
CONTINUOUS
 62
     3
 10
656.120192
 20
2028.576519
 11
656.661961
 21
2028.316400
  0
LINE
  8
CSLAYER1
  6
CONTINUOUS
 62
     3
 10
656.661961
 20
2028.316400
 11
657.245223
 21
2028.137267
  0
LINE
  8
CSLAYER1
  6
CONTINUOUS
 62
     3
 10
657.245223
 20
2028.137267
 11
657.865537
 21
2028.040486
  0
LINE
  8
CSLAYER1
  6
CONTINUOUS
 62
     3
 10
657.865537
 20
2028.040486
 11
658.518183
 21
2028.026790
  0
LINE
  8
CSLAYER1
  6
CONTINUOUS
 62
     3
 10
658.518183
 20
2028.026790
 11
659.198193
 21
2028.096287
  0
LINE
  8
CSLAYER1
  6
CONTINUOUS
 62
     3
 10
659.198193
 20
2028.096287
 11
659.900393
 21
2028.248445
  0
LINE
  8
CSLAYER1
  6
CONTINUOUS
 62
     3
 10
659.900393
 20
2028.248445
 11
660.619439
 21
2028.482107
  0
LINE
  8
CSLAYER1
  6
CONTINUOUS
 62
     3
 10
660.619439
 20
2028.482107
 11
661.349857
 21
2028.795496
  0
LINE
  8
CSLAYER1
  6
CONTINUOUS
 62
     3
 10
661.349857
 20
2028.795496
 11
662.086089
 21
2029.186225
  0
LINE
  8
CSLAYER1
  6
CONTINUOUS
 62
     3
 10
662.086089
 20
2029.186225
 11
662.822532
 21
2029.651321
  0
LINE
  8
CSLAYER1
  6
CONTINUOUS
 62
     3
 10
662.822532
 20
2029.651321
 11
663.553582
 21
2030.187245
  0
LINE
  8
CSLAYER1
  6
CONTINUOUS
 62
     3
 10
663.553582
 20
2030.187245
 11
664.273673
 21
2030.789917
  0
LINE
  8
CSLAYER1
  6
CONTINUOUS
 62
     3
 10
664.273673
 20
2030.789917
 11
664.977327
 21
2031.454752
  0
LINE
  8
CSLAYER1
  6
CONTINUOUS
 62
     3
 10
664.977327
 20
2031.454752
 11
665.659187
 21
2032.176689
  0
LINE
  8
CSLAYER1
  6
CONTINUOUS
 62
     3
 10
665.659187
 20
2032.176689
 11
666.314065
 21
2032.950233
  0
LINE
  8
CSLAYER1
  6
CONTINUOUS
 62
     3
 10
666.314065
 20
2032.950233
 11
666.936976
 21
2033.769499
  0
LINE
  8
CSLAYER1
  6
CONTINUOUS
 62
     3
 10
666.936976
 20
2033.769499
 11
667.523180
 21
2034.628250
  0
LINE
  8
CSLAYER1
  6
CONTINUOUS
 62
     3
 10
667.523180
 20
2034.628250
 11
668.068215
 21
2035.519951
  0
LINE
  8
CSLAYER1
  6
CONTINUOUS
 62
     3
 10
668.068215
 20
2035.519951
 11
668.567933
 21
2036.437816
  0
LINE
  8
CSLAYER1
  6
CONTINUOUS
 62
     3
 10
668.567933
 20
2036.437816
 11
669.018531
 21
2037.374859
  0
LINE
  8
CSLAYER1
  6
CONTINUOUS
 62
     3
 10
669.018531
 20
2037.374859
 11
669.416580
 21
2038.323948
  0
LINE
  8
CSLAYER1
  6
CONTINUOUS
 62
     3
 10
669.416580
 20
2038.323948
 11
669.759051
 21
2039.277861
  0
LINE
  8
CSLAYER1
  6
CONTINUOUS
 62
     3
 10
669.759051
 20
2039.277861
 11
670.043336
 21
2040.229338
  0
LINE
  8
CSLAYER1
  6
CONTINUOUS
 62
     3
 10
670.043336
 20
2040.229338
 11
670.267273
 21
2041.171137
  0
LINE
  8
CSLAYER1
  6
CONTINUOUS
 62
     3
 10
670.267273
 20
2041.171137
 11
670.429157
 21
2042.096091
  0
LINE
  8
CSLAYER1
  6
CONTINUOUS
 62
     3
 10
670.429157
 20
2042.096091
 11
670.527756
 21
2042.997160
  0
LINE
  8
CSLAYER1
  6
CONTINUOUS
 62
     3
 10
670.527756
 20
2042.997160
 11
670.562320
 21
2043.867487
  0
LINE
  8
CSLAYER1
  6
CONTINUOUS
 62
     3
 10
670.562320
 20
2043.867487
 11
670.532585
 21
2044.700447
  0
LINE
  8
CSLAYER1
  6
CONTINUOUS
 62
     3
 10
670.532585
 20
2044.700447
 11
670.438778
 21
2045.489702
  0
LINE
  8
CSLAYER1
  6
CONTINUOUS
 62
     3
 10
670.438778
 20
2045.489702
 11
670.281613
 21
2046.229245
  0
LINE
  8
CSLAYER1
  6
CONTINUOUS
 62
     3
 10
670.281613
 20
2046.229245
 11
670.062286
 21
2046.913447
  0
LINE
  8
CSLAYER1
  6
CONTINUOUS
 62
     3
 10
670.062286
 20
2046.913447
 11
669.782466
 21
2047.537102
  0
LINE
  8
CSLAYER1
  6
CONTINUOUS
 62
     3
 10
669.782466
 20
2047.537102
 11
669.444283
 21
2048.095462
  0
LINE
  8
CSLAYER1
  6
CONTINUOUS
 62
     3
 10
669.444283
 20
2048.095462
 11
669.050310
 21
2048.584279
  0
LINE
  8
CSLAYER1
  6
CONTINUOUS
 62
     3
 10
669.050310
 20
2048.584279
 11
668.603546
 21
2048.999832
  0
LINE
  8
CSLAYER1
  6
CONTINUOUS
 62
     3
 10
668.603546
 20
2048.999832
 11
668.107392
 21
2049.338958
  0
LINE
  8
CSLAYER1
  6
CONTINUOUS
 62
     3
 10
656.120192
 20
2095.016325
 11
722.049792
 21
2056.951853
  0
LINE
  8
CSLAYER1
  6
CONTINUOUS
 62
     3
 10
572.209792
 20
1942.758436
 11
582.199125
 21
1948.525780
  0
LINE
  8
CSLAYER1
  6
CONTINUOUS
 62
     3
 10
679.330099
 20
2032.247612
 11
980.443715
 21
1858.399585
  0
LINE
  8
CSLAYER1
  6
CONTINUOUS
 62
     3
 10
582.199125
 20
1990.050659
 11
757.178299
 21
1889.026386
  0
LINE
  8
CSLAYER1
  6
CONTINUOUS
 62
     3
 10
582.199125
 20
1984.514009
 11
730.987390
 21
1898.611063
  0
LINE
  8
CSLAYER1
  6
CONTINUOUS
 62
     3
 10
608.171392
 20
1975.055564
 11
688.280512
 21
2021.306586
  0
LINE
  8
CSLAYER1
  6
CONTINUOUS
 62
     3
 10
628.150058
 20
1963.520875
 11
708.259178
 21
2009.771897
  0
LINE
  8
CSLAYER1
  6
CONTINUOUS
 62
     3
 10
693.280512
 20
2024.193337
 11
722.049792
 21
2040.803289
  0
LINE
  8
CSLAYER1
  6
CONTINUOUS
 62
     3
 10
713.259178
 20
2012.658649
 11
722.049792
 21
2017.733912
  0
LINE
  8
CSLAYER1
  6
CONTINUOUS
 62
     3
 10
772.362086
 20
1858.574808
 11
772.103602
 21
1861.970535
  0
LINE
  8
CSLAYER1
  6
CONTINUOUS
 62
     3
 10
772.103602
 20
1861.970535
 11
771.330115
 21
1865.340418
  0
LINE
  8
CSLAYER1
  6
CONTINUOUS
 62
     3
 10
771.330115
 20
1865.340418
 11
770.047514
 21
1868.658810
  0
LINE
  8
CSLAYER1
  6
CONTINUOUS
 62
     3
 10
770.047514
 20
1868.658810
 11
768.265559
 21
1871.900458
  0
LINE
  8
CSLAYER1
  6
CONTINUOUS
 62
     3
 10
768.265559
 20
1871.900458
 11
765.997811
 21
1875.040689
  0
LINE
  8
CSLAYER1
  6
CONTINUOUS
 62
     3
 10
765.997811
 20
1875.040689
 11
763.261531
 21
1878.055605
  0
LINE
  8
CSLAYER1
  6
CONTINUOUS
 62
     3
 10
763.261531
 20
1878.055605
 11
760.077543
 21
1880.922260
  0
LINE
  8
CSLAYER1
  6
CONTINUOUS
 62
     3
 10
760.077543
 20
1880.922260
 11
756.470078
 21
1883.618838
  0
LINE
  8
CSLAYER1
  6
CONTINUOUS
 62
     3
 10
756.470078
 20
1883.618838
 11
752.466592
 21
1886.124815
  0
LINE
  8
CSLAYER1
  6
CONTINUOUS
 62
     3
 10
752.466592
 20
1886.124815
 11
748.097553
 21
1888.421121
  0
LINE
  8
CSLAYER1
  6
CONTINUOUS
 62
     3
 10
748.097553
 20
1888.421121
 11
743.396214
 21
1890.490277
  0
LINE
  8
CSLAYER1
  6
CONTINUOUS
 62
     3
 10
743.396214
 20
1890.490277
 11
738.398353
 21
1892.316538
  0
LINE
  8
CSLAYER1
  6
CONTINUOUS
 62
     3
 10
738.398353
 20
1892.316538
 11
733.142007
 21
1893.886004
  0
LINE
  8
CSLAYER1
  6
CONTINUOUS
 62
     3
 10
733.142007
 20
1893.886004
 11
727.667181
 21
1895.186730
  0
LINE
  8
CSLAYER1
  6
CONTINUOUS
 62
     3
 10
727.667181
 20
1895.186730
 11
722.015541
 21
1896.208818
  0
LINE
  8
CSLAYER1
  6
CONTINUOUS
 62
     3
 10
722.015541
 20
1896.208818
 11
716.230100
 21
1896.944488
  0
LINE
  8
CSLAYER1
  6
CONTINUOUS
 62
     3
 10
716.230100
 20
1896.944488
 11
710.354888
 21
1897.388141
  0
LINE
  8
CSLAYER1
  6
CONTINUOUS
 62
     3
 10
710.354888
 20
1897.388141
 11
704.434619
 21
1897.536402
  0
LINE
  8
CSLAYER1
  6
CONTINUOUS
 62
     3
 10
704.434619
 20
1897.536402
 11
698.514351
 21
1897.388141
  0
LINE
  8
CSLAYER1
  6
CONTINUOUS
 62
     3
 10
698.514351
 20
1897.388141
 11
692.639139
 21
1896.944488
  0
LINE
  8
CSLAYER1
  6
CONTINUOUS
 62
     3
 10
692.639139
 20
1896.944488
 11
686.853697
 21
1896.208818
  0
LINE
  8
CSLAYER1
  6
CONTINUOUS
 62
     3
 10
686.853697
 20
1896.208818
 11
681.202058
 21
1895.186730
  0
LINE
  8
CSLAYER1
  6
CONTINUOUS
 62
     3
 10
681.202058
 20
1895.186730
 11
675.727232
 21
1893.886004
  0
LINE
  8
CSLAYER1
  6
CONTINUOUS
 62
     3
 10
675.727232
 20
1893.886004
 11
670.470886
 21
1892.316538
  0
LINE
  8
CSLAYER1
  6
CONTINUOUS
 62
     3
 10
670.470886
 20
1892.316538
 11
665.473025
 21
1890.490277
  0
LINE
  8
CSLAYER1
  6
CONTINUOUS
 62
     3
 10
665.473025
 20
1890.490277
 11
660.771686
 21
1888.421121
  0
LINE
  8
CSLAYER1
  6
CONTINUOUS
 62
     3
 10
660.771686
 20
1888.421121
 11
656.402647
 21
1886.124815
  0
LINE
  8
CSLAYER1
  6
CONTINUOUS
 62
     3
 10
656.402647
 20
1886.124815
 11
652.399161
 21
1883.618838
  0
LINE
  8
CSLAYER1
  6
CONTINUOUS
 62
     3
 10
652.399161
 20
1883.618838
 11
648.791696
 21
1880.922260
  0
LINE
  8
CSLAYER1
  6
CONTINUOUS
 62
     3
 10
648.791696
 20
1880.922260
 11
645.607708
 21
1878.055605
  0
LINE
  8
CSLAYER1
  6
CONTINUOUS
 62
     3
 10
645.607708
 20
1878.055605
 11
642.871427
 21
1875.040689
  0
LINE
  8
CSLAYER1
  6
CONTINUOUS
 62
     3
 10
642.871427
 20
1875.040689
 11
640.603680
 21
1871.900458
  0
LINE
  8
CSLAYER1
  6
CONTINUOUS
 62
     3
 10
640.603680
 20
1871.900458
 11
638.821725
 21
1868.658810
  0
LINE
  8
CSLAYER1
  6
CONTINUOUS
 62
     3
 10
638.821725
 20
1868.658810
 11
637.539124
 21
1865.340418
  0
LINE
  8
CSLAYER1
  6
CONTINUOUS
 62
     3
 10
637.539124
 20
1865.340418
 11
636.765637
 21
1861.970535
  0
LINE
  8
CSLAYER1
  6
CONTINUOUS
 62
     3
 10
636.765637
 20
1861.970535
 11
636.507153
 21
1858.574808
  0
LINE
  8
CSLAYER1
  6
CONTINUOUS
 62
     3
 10
636.507153
 20
1858.574808
 11
636.765637
 21
1855.179081
  0
LINE
  8
CSLAYER1
  6
CONTINUOUS
 62
     3
 10
636.765637
 20
1855.179081
 11
637.539124
 21
1851.809198
  0
LINE
  8
CSLAYER1
  6
CONTINUOUS
 62
     3
 10
637.539124
 20
1851.809198
 11
638.821725
 21
1848.490805
  0
LINE
  8
CSLAYER1
  6
CONTINUOUS
 62
     3
 10
638.821725
 20
1848.490805
 11
640.603680
 21
1845.249158
  0
LINE
  8
CSLAYER1
  6
CONTINUOUS
 62
     3
 10
640.603680
 20
1845.249158
 11
642.871427
 21
1842.108927
  0
LINE
  8
CSLAYER1
  6
CONTINUOUS
 62
     3
 10
642.871427
 20
1842.108927
 11
645.607708
 21
1839.094011
  0
LINE
  8
CSLAYER1
  6
CONTINUOUS
 62
     3
 10
645.607708
 20
1839.094011
 11
648.791696
 21
1836.227355
  0
LINE
  8
CSLAYER1
  6
CONTINUOUS
 62
     3
 10
648.791696
 20
1836.227355
 11
652.399161
 21
1833.530778
  0
LINE
  8
CSLAYER1
  6
CONTINUOUS
 62
     3
 10
652.399161
 20
1833.530778
 11
656.402647
 21
1831.024800
  0
LINE
  8
CSLAYER1
  6
CONTINUOUS
 62
     3
 10
656.402647
 20
1831.024800
 11
660.771686
 21
1828.728495
  0
LINE
  8
CSLAYER1
  6
CONTINUOUS
 62
     3
 10
660.771686
 20
1828.728495
 11
665.473025
 21
1826.659338
  0
LINE
  8
CSLAYER1
  6
CONTINUOUS
 62
     3
 10
665.473025
 20
1826.659338
 11
670.470886
 21
1824.833077
  0
LINE
  8
CSLAYER1
  6
CONTINUOUS
 62
     3
 10
670.470886
 20
1824.833077
 11
675.727232
 21
1823.263612
  0
LINE
  8
CSLAYER1
  6
CONTINUOUS
 62
     3
 10
675.727232
 20
1823.263612
 11
681.202058
 21
1821.962885
  0
LINE
  8
CSLAYER1
  6
CONTINUOUS
 62
     3
 10
681.202058
 20
1821.962885
 11
686.853697
 21
1820.940798
  0
LINE
  8
CSLAYER1
  6
CONTINUOUS
 62
     3
 10
686.853697
 20
1820.940798
 11
692.639139
 21
1820.205128
  0
LINE
  8
CSLAYER1
  6
CONTINUOUS
 62
     3
 10
692.639139
 20
1820.205128
 11
698.514351
 21
1819.761474
  0
LINE
  8
CSLAYER1
  6
CONTINUOUS
 62
     3
 10
698.514351
 20
1819.761474
 11
704.434619
 21
1819.613214
  0
LINE
  8
CSLAYER1
  6
CONTINUOUS
 62
     3
 10
704.434619
 20
1819.613214
 11
710.354888
 21
1819.761474
  0
LINE
  8
CSLAYER1
  6
CONTINUOUS
 62
     3
 10
710.354888
 20
1819.761474
 11
716.230100
 21
1820.205128
  0
LINE
  8
CSLAYER1
  6
CONTINUOUS
 62
     3
 10
716.230100
 20
1820.205128
 11
722.015541
 21
1820.940798
  0
LINE
  8
CSLAYER1
  6
CONTINUOUS
 62
     3
 10
722.015541
 20
1820.940798
 11
727.667181
 21
1821.962885
  0
LINE
  8
CSLAYER1
  6
CONTINUOUS
 62
     3
 10
727.667181
 20
1821.962885
 11
733.142007
 21
1823.263612
  0
LINE
  8
CSLAYER1
  6
CONTINUOUS
 62
     3
 10
733.142007
 20
1823.263612
 11
738.398353
 21
1824.833077
  0
LINE
  8
CSLAYER1
  6
CONTINUOUS
 62
     3
 10
738.398353
 20
1824.833077
 11
743.396214
 21
1826.659338
  0
LINE
  8
CSLAYER1
  6
CONTINUOUS
 62
     3
 10
743.396214
 20
1826.659338
 11
748.097553
 21
1828.728495
  0
LINE
  8
CSLAYER1
  6
CONTINUOUS
 62
     3
 10
748.097553
 20
1828.728495
 11
752.466592
 21
1831.024800
  0
LINE
  8
CSLAYER1
  6
CONTINUOUS
 62
     3
 10
752.466592
 20
1831.024800
 11
756.470078
 21
1833.530778
  0
LINE
  8
CSLAYER1
  6
CONTINUOUS
 62
     3
 10
756.470078
 20
1833.530778
 11
760.077543
 21
1836.227355
  0
LINE
  8
CSLAYER1
  6
CONTINUOUS
 62
     3
 10
760.077543
 20
1836.227355
 11
763.261531
 21
1839.094011
  0
LINE
  8
CSLAYER1
  6
CONTINUOUS
 62
     3
 10
763.261531
 20
1839.094011
 11
765.997811
 21
1842.108927
  0
LINE
  8
CSLAYER1
  6
CONTINUOUS
 62
     3
 10
765.997811
 20
1842.108927
 11
768.265559
 21
1845.249158
  0
LINE
  8
CSLAYER1
  6
CONTINUOUS
 62
     3
 10
768.265559
 20
1845.249158
 11
770.047514
 21
1848.490805
  0
LINE
  8
CSLAYER1
  6
CONTINUOUS
 62
     3
 10
770.047514
 20
1848.490805
 11
771.330115
 21
1851.809198
  0
LINE
  8
CSLAYER1
  6
CONTINUOUS
 62
     3
 10
771.330115
 20
1851.809198
 11
772.103602
 21
1855.179081
  0
LINE
  8
CSLAYER1
  6
CONTINUOUS
 62
     3
 10
772.103602
 20
1855.179081
 11
772.362086
 21
1858.574808
  0
LINE
  8
CSLAYER1
  6
CONTINUOUS
 62
     3
 10
779.154833
 20
1858.574808
 11
778.870500
 21
1862.310107
  0
LINE
  8
CSLAYER1
  6
CONTINUOUS
 62
     3
 10
778.870500
 20
1862.310107
 11
778.019665
 21
1866.016979
  0
LINE
  8
CSLAYER1
  6
CONTINUOUS
 62
     3
 10
778.019665
 20
1866.016979
 11
776.608803
 21
1869.667211
  0
LINE
  8
CSLAYER1
  6
CONTINUOUS
 62
     3
 10
776.608803
 20
1869.667211
 11
774.648653
 21
1873.233023
  0
LINE
  8
CSLAYER1
  6
CONTINUOUS
 62
     3
 10
774.648653
 20
1873.233023
 11
772.154131
 21
1876.687277
  0
LINE
  8
CSLAYER1
  6
CONTINUOUS
 62
     3
 10
772.154131
 20
1876.687277
 11
769.144222
 21
1880.003685
  0
LINE
  8
CSLAYER1
  6
CONTINUOUS
 62
     3
 10
769.144222
 20
1880.003685
 11
765.641835
 21
1883.157005
  0
LINE
  8
CSLAYER1
  6
CONTINUOUS
 62
     3
 10
765.641835
 20
1883.157005
 11
761.673624
 21
1886.123241
  0
LINE
  8
CSLAYER1
  6
CONTINUOUS
 62
     3
 10
761.673624
 20
1886.123241
 11
757.269789
 21
1888.879816
  0
LINE
  8
CSLAYER1
  6
CONTINUOUS
 62
     3
 10
757.269789
 20
1888.879816
 11
752.463847
 21
1891.405752
  0
LINE
  8
CSLAYER1
  6
CONTINUOUS
 62
     3
 10
752.463847
 20
1891.405752
 11
747.292373
 21
1893.681824
  0
LINE
  8
CSLAYER1
  6
CONTINUOUS
 62
     3
 10
747.292373
 20
1893.681824
 11
741.794726
 21
1895.690711
  0
LINE
  8
CSLAYER1
  6
CONTINUOUS
 62
     3
 10
741.794726
 20
1895.690711
 11
736.012746
 21
1897.417124
  0
LINE
  8
CSLAYER1
  6
CONTINUOUS
 62
     3
 10
736.012746
 20
1897.417124
 11
729.990438
 21
1898.847923
  0
LINE
  8
CSLAYER1
  6
CONTINUOUS
 62
     3
 10
729.990438
 20
1898.847923
 11
723.773634
 21
1899.972219
  0
LINE
  8
CSLAYER1
  6
CONTINUOUS
 62
     3
 10
723.773634
 20
1899.972219
 11
717.409648
 21
1900.781456
  0
LINE
  8
CSLAYER1
  6
CONTINUOUS
 62
     3
 10
717.409648
 20
1900.781456
 11
710.946915
 21
1901.269475
  0
LINE
  8
CSLAYER1
  6
CONTINUOUS
 62
     3
 10
710.946915
 20
1901.269475
 11
704.434619
 21
1901.432562
  0
LINE
  8
CSLAYER1
  6
CONTINUOUS
 62
     3
 10
704.434619
 20
1901.432562
 11
697.922324
 21
1901.269475
  0
LINE
  8
CSLAYER1
  6
CONTINUOUS
 62
     3
 10
697.922324
 20
1901.269475
 11
691.459591
 21
1900.781456
  0
LINE
  8
CSLAYER1
  6
CONTINUOUS
 62
     3
 10
691.459591
 20
1900.781456
 11
685.095605
 21
1899.972219
  0
LINE
  8
CSLAYER1
  6
CONTINUOUS
 62
     3
 10
685.095605
 20
1899.972219
 11
678.878801
 21
1898.847923
  0
LINE
  8
CSLAYER1
  6
CONTINUOUS
 62
     3
 10
678.878801
 20
1898.847923
 11
672.856493
 21
1897.417124
  0
LINE
  8
CSLAYER1
  6
CONTINUOUS
 62
     3
 10
672.856493
 20
1897.417124
 11
667.074513
 21
1895.690711
  0
LINE
  8
CSLAYER1
  6
CONTINUOUS
 62
     3
 10
667.074513
 20
1895.690711
 11
661.576866
 21
1893.681824
  0
LINE
  8
CSLAYER1
  6
CONTINUOUS
 62
     3
 10
661.576866
 20
1893.681824
 11
656.405392
 21
1891.405752
  0
LINE
  8
CSLAYER1
  6
CONTINUOUS
 62
     3
 10
656.405392
 20
1891.405752
 11
651.599450
 21
1888.879816
  0
LINE
  8
CSLAYER1
  6
CONTINUOUS
 62
     3
 10
651.599450
 20
1888.879816
 11
647.195615
 21
1886.123241
  0
LINE
  8
CSLAYER1
  6
CONTINUOUS
 62
     3
 10
647.195615
 20
1886.123241
 11
643.227404
 21
1883.157005
  0
LINE
  8
CSLAYER1
  6
CONTINUOUS
 62
     3
 10
643.227404
 20
1883.157005
 11
639.725017
 21
1880.003685
  0
LINE
  8
CSLAYER1
  6
CONTINUOUS
 62
     3
 10
639.725017
 20
1880.003685
 11
636.715108
 21
1876.687277
  0
LINE
  8
CSLAYER1
  6
CONTINUOUS
 62
     3
 10
636.715108
 20
1876.687277
 11
634.220586
 21
1873.233023
  0
LINE
  8
CSLAYER1
  6
CONTINUOUS
 62
     3
 10
634.220586
 20
1873.233023
 11
632.260436
 21
1869.667211
  0
LINE
  8
CSLAYER1
  6
CONTINUOUS
 62
     3
 10
632.260436
 20
1869.667211
 11
630.849574
 21
1866.016979
  0
LINE
  8
CSLAYER1
  6
CONTINUOUS
 62
     3
 10
630.849574
 20
1866.016979
 11
629.998739
 21
1862.310107
  0
LINE
  8
CSLAYER1
  6
CONTINUOUS
 62
     3
 10
629.998739
 20
1862.310107
 11
629.714406
 21
1858.574808
  0
LINE
  8
CSLAYER1
  6
CONTINUOUS
 62
     3
 10
629.714406
 20
1858.574808
 11
629.998739
 21
1854.839508
  0
LINE
  8
CSLAYER1
  6
CONTINUOUS
 62
     3
 10
629.998739
 20
1854.839508
 11
630.849574
 21
1851.132637
  0
LINE
  8
CSLAYER1
  6
CONTINUOUS
 62
     3
 10
630.849574
 20
1851.132637
 11
632.260436
 21
1847.482405
  0
LINE
  8
CSLAYER1
  6
CONTINUOUS
 62
     3
 10
632.260436
 20
1847.482405
 11
634.220586
 21
1843.916593
  0
LINE
  8
CSLAYER1
  6
CONTINUOUS
 62
     3
 10
634.220586
 20
1843.916593
 11
636.715108
 21
1840.462338
  0
LINE
  8
CSLAYER1
  6
CONTINUOUS
 62
     3
 10
636.715108
 20
1840.462338
 11
639.725017
 21
1837.145931
  0
LINE
  8
CSLAYER1
  6
CONTINUOUS
 62
     3
 10
639.725017
 20
1837.145931
 11
643.227404
 21
1833.992610
  0
LINE
  8
CSLAYER1
  6
CONTINUOUS
 62
     3
 10
643.227404
 20
1833.992610
 11
647.195615
 21
1831.026375
  0
LINE
  8
CSLAYER1
  6
CONTINUOUS
 62
     3
 10
647.195615
 20
1831.026375
 11
651.599450
 21
1828.269800
  0
LINE
  8
CSLAYER1
  6
CONTINUOUS
 62
     3
 10
651.599450
 20
1828.269800
 11
656.405392
 21
1825.743864
  0
LINE
  8
CSLAYER1
  6
CONTINUOUS
 62
     3
 10
656.405392
 20
1825.743864
 11
661.576866
 21
1823.467791
  0
LINE
  8
CSLAYER1
  6
CONTINUOUS
 62
     3
 10
661.576866
 20
1823.467791
 11
667.074513
 21
1821.458904
  0
LINE
  8
CSLAYER1
  6
CONTINUOUS
 62
     3
 10
667.074513
 20
1821.458904
 11
672.856493
 21
1819.732492
  0
LINE
  8
CSLAYER1
  6
CONTINUOUS
 62
     3
 10
672.856493
 20
1819.732492
 11
672.939430
 21
1819.712787
  0
LINE
  8
CSLAYER1
  6
CONTINUOUS
 62
     3
 10
704.434619
 20
1815.717054
 11
710.946915
 21
1815.880141
  0
LINE
  8
CSLAYER1
  6
CONTINUOUS
 62
     3
 10
710.946915
 20
1815.880141
 11
717.409648
 21
1816.368160
  0
LINE
  8
CSLAYER1
  6
CONTINUOUS
 62
     3
 10
717.409648
 20
1816.368160
 11
723.773634
 21
1817.177397
  0
LINE
  8
CSLAYER1
  6
CONTINUOUS
 62
     3
 10
723.773634
 20
1817.177397
 11
729.990438
 21
1818.301693
  0
LINE
  8
CSLAYER1
  6
CONTINUOUS
 62
     3
 10
729.990438
 20
1818.301693
 11
736.012746
 21
1819.732492
  0
LINE
  8
CSLAYER1
  6
CONTINUOUS
 62
     3
 10
736.012746
 20
1819.732492
 11
741.794726
 21
1821.458904
  0
LINE
  8
CSLAYER1
  6
CONTINUOUS
 62
     3
 10
741.794726
 20
1821.458904
 11
747.292373
 21
1823.467791
  0
LINE
  8
CSLAYER1
  6
CONTINUOUS
 62
     3
 10
747.292373
 20
1823.467791
 11
752.463847
 21
1825.743864
  0
LINE
  8
CSLAYER1
  6
CONTINUOUS
 62
     3
 10
752.463847
 20
1825.743864
 11
757.269789
 21
1828.269800
  0
LINE
  8
CSLAYER1
  6
CONTINUOUS
 62
     3
 10
757.269789
 20
1828.269800
 11
761.673624
 21
1831.026375
  0
LINE
  8
CSLAYER1
  6
CONTINUOUS
 62
     3
 10
761.673624
 20
1831.026375
 11
765.641835
 21
1833.992610
  0
LINE
  8
CSLAYER1
  6
CONTINUOUS
 62
     3
 10
765.641835
 20
1833.992610
 11
769.144222
 21
1837.145931
  0
LINE
  8
CSLAYER1
  6
CONTINUOUS
 62
     3
 10
769.144222
 20
1837.145931
 11
772.154131
 21
1840.462338
  0
LINE
  8
CSLAYER1
  6
CONTINUOUS
 62
     3
 10
772.154131
 20
1840.462338
 11
774.648653
 21
1843.916593
  0
LINE
  8
CSLAYER1
  6
CONTINUOUS
 62
     3
 10
774.648653
 20
1843.916593
 11
776.608803
 21
1847.482405
  0
LINE
  8
CSLAYER1
  6
CONTINUOUS
 62
     3
 10
776.608803
 20
1847.482405
 11
778.019665
 21
1851.132637
  0
LINE
  8
CSLAYER1
  6
CONTINUOUS
 62
     3
 10
778.019665
 20
1851.132637
 11
778.870500
 21
1854.839508
  0
LINE
  8
CSLAYER1
  6
CONTINUOUS
 62
     3
 10
778.870500
 20
1854.839508
 11
779.154833
 21
1858.574808
  0
LINE
  8
CSLAYER1
  6
CONTINUOUS
 62
     3
 10
558.224725
 20
1815.717054
 11
704.434619
 21
1815.717054
  0
LINE
  8
CSLAYER1
  6
CONTINUOUS
 62
     3
 10
558.224725
 20
1819.712787
 11
704.434619
 21
1819.712787
  0
LINE
  8
CSLAYER1
  6
CONTINUOUS
 62
     3
 10
558.224725
 20
1815.717054
 11
558.224725
 21
1819.712787
  0
LINE
  8
CSLAYER1
  6
CONTINUOUS
 62
     3
 10
558.224725
 20
1819.712787
 11
549.019426
 21
1822.554302
  0
LINE
  8
CSLAYER1
  6
CONTINUOUS
 62
     3
 10
549.019426
 20
1822.554302
 11
547.485481
 21
1828.996869
  0
LINE
  8
CSLAYER1
  6
CONTINUOUS
 62
     3
 10
558.224725
 20
1815.717054
 11
542.883647
 21
1817.032101
  0
LINE
  8
CSLAYER1
  6
CONTINUOUS
 62
     3
 10
542.883647
 20
1817.032101
 11
536.134291
 21
1814.884579
  0
LINE
  8
CSLAYER1
  6
CONTINUOUS
 62
     3
 10
536.134291
 20
1814.884579
 11
528.771357
 21
1811.509901
  0
LINE
  8
CSLAYER1
  6
CONTINUOUS
 62
     3
 10
547.485481
 20
1828.996869
 11
539.815758
 21
1834.825858
  0
LINE
  8
CSLAYER1
  6
CONTINUOUS
 62
     3
 10
418.374058
 20
2054.644915
 11
582.199125
 21
1960.060469
  0
LINE
  8
CSLAYER1
  6
CONTINUOUS
 62
     3
 10
418.374058
 20
2146.922424
 11
582.199125
 21
2052.337977
  0
LINE
  8
CSLAYER1
  6
CONTINUOUS
 62
     3
 10
418.374058
 20
2146.922424
 11
418.374058
 21
2031.575538
  0
LINE
  8
CSLAYER1
  6
CONTINUOUS
 62
     3
 10
722.049792
 20
2133.080798
 11
722.049792
 21
2017.733912
  0
LINE
  8
CSLAYER1
  6
CONTINUOUS
 62
     3
 10
418.374058
 20
2146.922424
 11
558.224725
 21
2227.665244
  0
LINE
  8
CSLAYER1
  6
CONTINUOUS
 62
     5
 10
368.976070
 20
2060.095480
 11
409.887054
 21
2036.475512
  0
TEXT
  8
CSLAYER1
 62
     3
 10
855.422433
 20
2101.705654
 40
34.838692
 41
0.852344
  1
ホース長サ２ｍ
 50
0.000000
 51
0.000000
  7
EASYDRAW_FONT
 72
     5
 11
1053.386160
 21
2101.705654
  0
TEXT
  8
CSLAYER1
 62
     3
 10
339.158491
 20
1853.529268
 40
39.957333
 41
1.036364
  1
長サ4ｍ
 50
0.000000
 51
0.000000
  7
EASYDRAW_FONT
 72
     5
 11
490.996355
 21
1853.529268
  0
LINE
  8
CSLAYER1
  6
CONTINUOUS
 62
     3
 10
676.868465
 20
2027.895334
 11
977.943715
 21
1854.069458
  0
ARC
  8
CSLAYER1
  6
CONTINUOUS
 62
     3
 10
1030.443715
 20
1945.002125
 40
100.000000
 50
240.000000
 51
270.000000
  0
ARC
  8
CSLAYER1
  6
CONTINUOUS
 62
     3
 10
1030.443715
 20
1945.002125
 40
105.000000
 50
240.000000
 51
270.000000
  0
TEXT
  8
CSLAYER1
 62
     3
 10
797.575001
 20
1738.311007
 40
39.957333
 41
1.020000
  1
フットスイッチ
 50
0.000000
 51
0.000000
  7
EASYDRAW_FONT
 72
     5
 11
1069.284863
 21
1738.311007
  0
TEXT
  8
CSLAYER1
 62
     3
 10
795.421192
 20
1683.752413
 40
39.957333
 41
1.020000
  1
ＵＰ・ＤＯＷＮ
 50
0.000000
 51
0.000000
  7
EASYDRAW_FONT
 72
     5
 11
1067.131054
 21
1683.752413
  0
TEXT
  8
CSLAYER1
 62
     3
 10
798.292774
 20
1634.936007
 40
39.957333
 41
1.020000
  1
コード長サ２ｍ
 50
0.000000
 51
0.000000
  7
EASYDRAW_FONT
 72
     5
 11
1070.002636
 21
1634.936007
  0
LINE
  8
CSLAYER1
  6
CONTINUOUS
 62
     5
 10
665.827388
 20
1699.346560
 11
789.028181
 21
1732.358113
  0
LINE
  8
CSLAYER1
  6
CONTINUOUS
 62
     5
 10
665.827388
 20
1699.346560
 11
691.808150
 21
1714.346560
  0
LINE
  8
CSLAYER1
  6
CONTINUOUS
 62
     5
 10
665.827388
 20
1699.346560
 11
695.827388
 21
1699.346560
  0
LINE
  8
CSLAYER1
  6
CONTINUOUS
 62
     5
 10
1063.366384
 20
1732.358113
 11
789.028181
 21
1732.358113
  0
LINE
  8
CSLAYER1
  6
CONTINUOUS
 62
     3
 10
488.017254
 20
1717.109980
 11
599.897788
 21
1652.515724
  0
LINE
  8
CSLAYER1
  6
CONTINUOUS
 62
     3
 10
599.897788
 20
1652.515724
 11
665.827388
 21
1690.580197
  0
LINE
  8
CSLAYER1
  6
CONTINUOUS
 62
     3
 10
665.827388
 20
1699.346560
 11
665.827388
 21
1690.580197
  0
LINE
  8
CSLAYER1
  6
CONTINUOUS
 62
     5
 10
599.897788
 20
1686.658403
 11
599.897788
 21
1663.589025
  0
LINE
  8
CSLAYER1
  6
CONTINUOUS
 62
     3
 10
488.017254
 20
1726.337731
 11
488.017254
 21
1717.109980
  0
LINE
  8
CSLAYER1
  6
CONTINUOUS
 62
     3
 10
491.613414
 20
1749.637802
 11
553.547281
 21
1785.395337
  0
LINE
  8
CSLAYER1
  6
CONTINUOUS
 62
     3
 10
531.570748
 20
1726.568425
 11
593.504614
 21
1762.325960
  0
LINE
  8
CSLAYER1
  6
CONTINUOUS
 62
     3
 10
599.897788
 20
1686.658403
 11
662.231228
 21
1722.646631
  0
LINE
  8
CSLAYER1
  6
CONTINUOUS
 62
     3
 10
560.340028
 20
1709.958474
 11
622.273894
 21
1745.716008
  0
LINE
  8
CSLAYER1
  6
CONTINUOUS
 62
     3
 10
491.613414
 20
1749.637802
 11
531.570748
 21
1726.568425
  0
LINE
  8
CSLAYER1
  6
CONTINUOUS
 62
     3
 10
553.547281
 20
1785.395337
 11
593.504614
 21
1762.325960
  0
LINE
  8
CSLAYER1
  6
CONTINUOUS
 62
     3
 10
488.017254
 20
1726.337731
 11
599.897788
 21
1661.743475
  0
LINE
  8
CSLAYER1
  6
CONTINUOUS
 62
     3
 10
599.897788
 20
1661.282088
 11
665.827388
 21
1699.346560
  0
LINE
  8
CSLAYER1
  6
CONTINUOUS
 62
     3
 10
539.961788
 20
1721.723856
 11
551.948988
 21
1714.803043
  0
LINE
  8
CSLAYER1
  6
CONTINUOUS
 62
     5
 10
599.897788
 20
1663.589025
 11
662.231228
 21
1699.577254
  0
LINE
  8
CSLAYER1
  6
CONTINUOUS
 62
     5
 10
491.613414
 20
1726.568425
 11
531.570748
 21
1703.499048
  0
LINE
  8
CSLAYER1
  6
CONTINUOUS
 62
     3
 10
662.231228
 20
1722.646631
 11
662.231228
 21
1699.577254
  0
LINE
  8
CSLAYER1
  6
CONTINUOUS
 62
     5
 10
560.340028
 20
1709.958474
 11
560.340028
 21
1686.221188
  0
LINE
  8
CSLAYER1
  6
CONTINUOUS
 62
     5
 10
531.570748
 20
1703.499048
 11
531.570748
 21
1726.568425
  0
LINE
  8
CSLAYER1
  6
CONTINUOUS
 62
     3
 10
593.504614
 20
1762.325960
 11
593.504614
 21
1752.636821
  0
LINE
  8
CSLAYER1
  6
CONTINUOUS
 62
     5
 10
539.961788
 20
1698.654479
 11
551.948988
 21
1691.733666
  0
LINE
  8
CSLAYER1
  6
CONTINUOUS
 62
     3
 10
599.897788
 20
1661.282088
 11
599.897788
 21
1652.515724
  0
LINE
  8
CSLAYER1
  6
CONTINUOUS
 62
     3
 10
662.231228
 20
1701.422804
 11
665.827388
 21
1699.346560
  0
LINE
  8
CSLAYER1
  6
CONTINUOUS
 62
     3
 10
539.961788
 20
1721.723856
 11
601.895654
 21
1757.481390
  0
LINE
  8
CSLAYER1
  6
CONTINUOUS
 62
     3
 10
551.948988
 20
1714.803043
 11
613.882854
 21
1750.560577
  0
LINE
  8
CSLAYER1
  6
CONTINUOUS
 62
     3
 10
613.882854
 20
1750.560577
 11
613.882854
 21
1740.871439
  0
LINE
  8
CSLAYER1
  6
CONTINUOUS
 62
     3
 10
601.895654
 20
1757.481390
 11
613.882854
 21
1750.560577
  0
LINE
  8
CSLAYER1
  6
CONTINUOUS
 62
     3
 10
622.273894
 20
1745.716008
 11
662.231228
 21
1722.646631
  0
LINE
  8
CSLAYER1
  6
CONTINUOUS
 62
     3
 10
560.340028
 20
1709.958474
 11
599.897788
 21
1687.119790
  0
LINE
  8
CSLAYER1
  6
CONTINUOUS
 62
     5
 10
551.948988
 20
1714.803043
 11
551.948988
 21
1691.733666
  0
LINE
  8
CSLAYER1
  6
CONTINUOUS
 62
     5
 10
539.961788
 20
1721.723856
 11
539.961788
 21
1698.654479
  0
LINE
  8
CSLAYER1
  6
CONTINUOUS
 62
     5
 10
551.948988
 20
1691.733666
 11
560.340028
 21
1696.578235
  0
LINE
  8
CSLAYER1
  6
CONTINUOUS
 62
     5
 10
531.570748
 20
1703.499048
 11
539.961788
 21
1708.343617
  0
LINE
  8
CSLAYER1
  6
CONTINUOUS
 62
     5
 10
560.340028
 20
1686.889096
 11
599.897788
 21
1664.050413
  0
LINE
  8
CSLAYER1
  6
CONTINUOUS
 62
     3
 10
491.613414
 20
1749.637802
 11
491.613414
 21
1726.568425
  0
LINE
  8
CSLAYER1
  6
CONTINUOUS
 62
     3
 10
488.017254
 20
1726.337731
 11
491.613414
 21
1728.413975
  0
LINE
  8
CSLAYER1
  6
CONTINUOUS
 62
     5
 10
503.600614
 20
1756.558615
 11
543.557948
 21
1733.489238
  0
LINE
  8
CSLAYER1
  6
CONTINUOUS
 62
     5
 10
515.587814
 20
1763.479429
 11
555.545148
 21
1740.410051
  0
LINE
  8
CSLAYER1
  6
CONTINUOUS
 62
     5
 10
527.575014
 20
1770.400242
 11
567.532348
 21
1747.330864
  0
LINE
  8
CSLAYER1
  6
CONTINUOUS
 62
     5
 10
584.314428
 20
1723.800100
 11
624.271761
 21
1700.730723
  0
LINE
  8
CSLAYER1
  6
CONTINUOUS
 62
     5
 10
572.327228
 20
1716.879287
 11
612.284561
 21
1693.809909
  0
LINE
  8
CSLAYER1
  6
CONTINUOUS
 62
     5
 10
596.301628
 20
1730.720913
 11
636.258961
 21
1707.651536
  0
ARC
  8
CSLAYER1
  6
CONTINUOUS
 62
     3
 10
612.654794
 20
1744.450803
 40
11.889388
 50
-0.219250
 51
120.219250
  0
LINE
  8
CSLAYER1
  6
CONTINUOUS
 62
     3
 10
622.807471
 20
1750.637944
 11
757.097111
 21
1828.170104
  0
LINE
  8
CSLAYER1
  6
CONTINUOUS
 62
     3
 10
619.427053
 20
1754.222909
 11
730.608300
 21
1818.413432
  0
LINE
  8
CSLAYER1
  6
CONTINUOUS
 62
     5
 10
571.960571
 20
1820.660925
 11
532.226647
 21
1898.075110
  0
LINE
  8
CSLAYER1
  6
CONTINUOUS
 62
     5
 10
571.960571
 20
1820.660925
 11
551.820669
 21
1842.895681
  0
LINE
  8
CSLAYER1
  6
CONTINUOUS
 62
     5
 10
571.960571
 20
1820.660925
 11
565.636282
 21
1849.986739
  0
LINE
  8
CSLAYER1
  6
CONTINUOUS
 62
     5
 10
272.087063
 20
1585.038989
 11
1117.018570
 21
1585.038989
  0
LINE
  8
CSLAYER1
  6
CONTINUOUS
 62
     5
 10
544.330671
 20
2391.701438
 11
823.913940
 21
2391.701438
  0
LINE
  8
CSLAYER1
  6
CONTINUOUS
 62
     5
 10
823.913940
 20
2391.701438
 11
823.913940
 21
2340.996159
  0
LINE
  8
CSLAYER1
  6
CONTINUOUS
 62
     5
 10
823.913940
 20
2340.996159
 11
544.330671
 21
2340.996159
  0
LINE
  8
CSLAYER1
  6
CONTINUOUS
 62
     5
 10
544.330671
 20
2340.996159
 11
544.330671
 21
2391.701438
  0
ENDBLK
  8
0
  0
BLOCK
  8
CSLAYER1
  2
BLKF0002
 70
   64
 10
0.0
 20
0.0
 30
0.0
  0
LINE
  8
CSLAYER1
  6
CONTINUOUS
 62
     5
 10
3470.660374
 20
1506.569500
 11
2601.855464
 21
1506.569500
  0
TEXT
  8
CSLAYER1
 62
     3
 10
3068.043457
 20
1512.219604
 40
40.000000
 41
0.832500
  1
10R4/13
 50
0.000000
 51
0.000000
  7
EASYDRAW_FONT
 72
     5
 11
3290.043457
 21
1512.219604
  0
ENDBLK
  8
0
  0
BLOCK
  8
CSLAYER1
  2
BLKF0003
 70
   64
 10
0.0
 20
0.0
 30
0.0
  0
ARC
  8
CSLAYER1
  6
CONTINUOUS
 62
     3
 10
1450.572677
 20
1448.985580
 40
9.500000
 50
-190.922071
 51
10.922071
  0
LINE
  8
CSLAYER1
  6
CONTINUOUS
 62
     3
 10
1441.072677
 20
1450.785580
 11
1441.072677
 21
1443.500752
  0
LINE
  8
CSLAYER1
  6
CONTINUOUS
 62
     3
 10
1441.072677
 20
1443.500752
 11
1450.572677
 21
1438.015925
  0
LINE
  8
CSLAYER1
  6
CONTINUOUS
 62
     3
 10
1450.572677
 20
1438.015925
 11
1460.072677
 21
1443.500752
  0
LINE
  8
CSLAYER1
  6
CONTINUOUS
 62
     3
 10
1460.072677
 20
1443.500752
 11
1460.072677
 21
1450.785580
  0
POINT
  8
CSLAYER1
 62
     3
 10
1450.572677
 20
1448.985580
  0
LINE
  8
CSLAYER1
  6
CONTINUOUS
 62
     3
 10
1428.272677
 20
1468.785580
 11
1428.272677
 21
1450.785580
  0
LINE
  8
CSLAYER1
  6
CONTINUOUS
 62
     3
 10
2328.272677
 20
1468.785580
 11
2328.272677
 21
1450.785580
  0
LINE
  8
CSLAYER1
  6
CONTINUOUS
 62
     3
 10
1480.572677
 20
1436.485580
 11
2310.572677
 21
1436.485580
  0
LINE
  8
CSLAYER1
  6
CONTINUOUS
 62
     3
 10
1428.272677
 20
1468.785580
 11
2328.272677
 21
1468.785580
  0
LINE
  8
CSLAYER1
  6
CONTINUOUS
 62
     3
 10
1428.272677
 20
1450.785580
 11
2328.272677
 21
1450.785580
  0
LINE
  8
CSLAYER1
  6
CONTINUOUS
 62
     3
 10
1430.572677
 20
1450.785580
 11
1430.572677
 21
1443.485580
  0
LINE
  8
CSLAYER1
  6
CONTINUOUS
 62
     3
 10
1428.272677
 20
1450.785580
 11
1430.572677
 21
1450.785580
  0
LINE
  8
CSLAYER1
  6
CONTINUOUS
 62
     3
 10
1435.572677
 20
1438.485580
 11
1449.759210
 21
1438.485580
  0
ARC
  8
CSLAYER1
  6
CONTINUOUS
 62
     3
 10
1435.572677
 20
1443.485580
 40
5.000000
 50
180.000000
 51
270.000000
  0
LINE
  8
CSLAYER1
  6
CONTINUOUS
 62
     3
 10
2310.572677
 20
1450.785580
 11
2310.572677
 21
1436.485580
  0
LINE
  8
CSLAYER1
  6
CONTINUOUS
 62
     3
 10
1480.572677
 20
1447.485580
 11
1455.572677
 21
1438.485580
  0
LINE
  8
CSLAYER1
  6
CONTINUOUS
 62
     3
 10
1480.572677
 20
1450.785580
 11
1480.572677
 21
1436.485580
  0
ARC
  8
CSLAYER1
  6
DASHED
 62
     5
 10
1941.241964
 20
1448.985580
 40
13.000000
 50
-74.057631
 51
254.057631
  0
POINT
  8
CSLAYER1
 62
     4
 10
1941.241964
 20
1448.985580
  0
POINT
  8
CSLAYER1
 62
     7
 10
1450.572677
 20
1448.985580
  0
ARC
  8
CSLAYER1
  6
CONTINUOUS
 62
     4
 10
1941.241964
 20
1448.985580
 40
13.000000
 50
254.057631
 51
285.942369
  0
LINE
  8
CSLAYER1
  6
CONTINUOUS
 62
     3
 10
1451.386144
 20
1438.485580
 11
1455.572677
 21
1438.485580
  0
LINE
  8
CSLAYER1
  6
CENTER
 62
     5
 10
1450.572677
 20
1459.585653
 11
1450.572677
 21
1436.932945
  0
LINE
  8
CSLAYER1
  6
CENTER
 62
     5
 10
1439.592781
 20
1448.985580
 11
1461.818079
 21
1448.985580
  0
LINE
  8
CSLAYER1
  6
CENTER
 62
     5
 10
1941.241964
 20
1465.259404
 11
1941.241964
 21
1431.741858
  0
LINE
  8
CSLAYER1
  6
CENTER
 62
     5
 10
1925.322308
 20
1448.985580
 11
1957.393053
 21
1448.985580
  0
ENDBLK
  8
0
  0
BLOCK
  8
CSLAYER1
  2
BLKF0004
 70
   64
 10
0.0
 20
0.0
 30
0.0
  0
LINE
  8
CSLAYER1
  6
CONTINUOUS
 62
     3
 10
1448.163651
 20
758.492170
 11
1448.163651
 21
792.492170
  0
LINE
  8
CSLAYER1
  6
CONTINUOUS
 62
     3
 10
1404.163651
 20
758.492170
 11
1454.163651
 21
758.492170
  0
LINE
  8
CSLAYER1
  6
CONTINUOUS
 62
     3
 10
1454.163651
 20
752.492170
 11
1454.163651
 21
758.492170
  0
ENDBLK
  8
0
  0
BLOCK
  8
CSLAYER1
  2
BLKF0005
 70
   64
 10
0.0
 20
0.0
 30
0.0
  0
TEXT
  8
CSLAYER1
 62
     7
 10
1186.305176
 20
1287.772339
 40
40.000000
 41
0.787500
  1
テーブルのズレ
 50
0.000000
 51
0.000000
  7
EASYDRAW_FONT
 72
     5
 11
1396.305176
 21
1287.772339
  0
DIMENSION
  8
CSLAYER1
 62
     3
  2
*D0007
 10
1428.272677
 20
1224.167041
 11
1320.154907
 21
1246.390015
 13
1406.863651
 23
817.492170
 14
1428.272677
 24
1468.785580
  0
INSERT
  8
CSLAYER1
  2
EASYDRAWDIM0001
 10
0.0
 20
0.0
 30
0.0
  0
ENDBLK
  8
0
  0
BLOCK
  8
CSLAYER1
  2
BLKF0006
 70
   64
 10
0.0
 20
0.0
 30
0.0
  0
DIMENSION
  8
CSLAYER1
 62
     3
  2
*D0009
 10
866.849163
 20
667.883284
 11
741.849121
 21
677.883362
 13
616.849163
 23
752.492170
 14
866.849163
 24
752.492170
 52
270.000000
 70
1
  0
INSERT
  8
CSLAYER1
  2
EASYDRAWDIM0002
 10
0.0
 20
0.0
 30
0.0
  0
INSERT
  8
CSLAYER1
  2
EASYDRAWDIM0003
 10
0.0
 20
0.0
 30
0.0
  0
TEXT
  8
CSLAYER1
 62
     7
 10
692.712891
 20
533.450134
 40
40.000000
 41
0.843750
  1
上昇時
 50
0.000000
 51
0.000000
  7
EASYDRAW_FONT
 72
     5
 11
782.712891
 21
533.450134
  0
LINE
  8
CSLAYER1
  6
CONTINUOUS
 62
     5
 10
679.106197
 20
579.880231
 11
802.064207
 21
579.880231
  0
LINE
  8
CSLAYER1
  6
CONTINUOUS
 62
     5
 10
802.064207
 20
579.880231
 11
802.064207
 21
527.019778
  0
LINE
  8
CSLAYER1
  6
CONTINUOUS
 62
     5
 10
802.064207
 20
527.019778
 11
679.106197
 21
527.019778
  0
LINE
  8
CSLAYER1
  6
CONTINUOUS
 62
     5
 10
679.106197
 20
527.019778
 11
679.106197
 21
579.880231
  0
LINE
  8
CSLAYER1
  6
CONTINUOUS
 62
     6
 10
866.849163
 20
746.492170
 11
962.756809
 21
663.590433
  0
LINE
  8
CSLAYER1
  6
CONTINUOUS
 62
     6
 10
866.849163
 20
746.492170
 11
893.849638
 21
733.416454
  0
LINE
  8
CSLAYER1
  6
CONTINUOUS
 62
     6
 10
866.849163
 20
746.492170
 11
883.694403
 21
721.668030
  0
DIMENSION
  8
CSLAYER1
 62
     3
  2
*D0010
 10
891.849163
 20
603.566052
 11
741.849121
 21
613.566101
 13
591.849163
 23
752.492170
 14
891.849163
 24
758.492170
 52
270.000000
  0
ENDBLK
  8
0
  0
BLOCK
  8
CSLAYER1
  2
BLKF0007
 70
   64
 10
0.0
 20
0.0
 30
0.0
  0
DIMENSION
  8
CSLAYER1
 62
     3
  2
*D0012
 10
1318.909591
 20
2112.587395
 11
1310.657349
 21
1962.034790
 13
1417.900850
 23
1862.587395
 14
1417.900850
 24
2112.587395
 50
90.000000
 70
1
  0
DIMENSION
  8
CSLAYER1
 62
     3
  2
*D0013
 10
1429.163651
 20
1773.527330
 11
1363.307983
 21
1757.260376
 13
1404.163651
 23
1706.715763
 14
1429.163651
 24
1851.324594
  0
DIMENSION
  8
CSLAYER1
 62
     3
  2
*D0014
 10
1454.163651
 20
1706.715763
 11
1364.470093
 21
1689.867798
 13
1404.163651
 23
1847.587395
 14
1454.163651
 24
1847.587395
 52
270.000000
 70
1
  0
INSERT
  8
CSLAYER1
  2
EASYDRAWDIM0005
 10
0.0
 20
0.0
 30
0.0
  0
LINE
  8
CSLAYER1
  6
CENTER
 62
     5
 10
1429.163651
 20
1873.850196
 11
1429.163651
 21
1851.324594
  0
LINE
  8
CSLAYER1
  6
CENTER
 62
     5
 10
1429.163651
 20
2101.324594
 11
1429.163651
 21
2123.850196
  0
INSERT
  8
CSLAYER1
  2
EASYDRAWDIM0006
 10
0.0
 20
0.0
 30
0.0
  0
ENDBLK
  8
0
  0
ENDSEC
  0
SECTION
  2
ENTITIES
  0
LINE
  8
CSLAYER1
  6
CONTINUOUS
 62
     3
 10
222.087063
 20
2459.902837
 11
222.087063
 21
111.355907
  0
LINE
  8
CSLAYER1
  6
CONTINUOUS
 62
     3
 10
3544.660374
 20
2459.902837
 11
222.087063
 21
2459.902837
  0
LINE
  8
CSLAYER1
  6
CONTINUOUS
 62
     3
 10
3544.660374
 20
2459.902837
 11
3544.660374
 21
111.355907
  0
LINE
  8
CSLAYER1
  6
CONTINUOUS
 62
     3
 10
3544.660374
 20
111.355907
 11
222.087063
 21
111.355907
  0
LINE
  8
CSLAYER1
  6
CONTINUOUS
 62
     5
 10
172.087063
 20
1271.355907
 11
122.087063
 21
1271.355907
  0
LINE
  8
CSLAYER1
  6
CONTINUOUS
 62
     5
 10
2744.660374
 20
551.355907
 11
3544.660374
 21
551.355907
  0
LINE
  8
CSLAYER1
  6
CONTINUOUS
 62
     5
 10
2744.660374
 20
191.355907
 11
3544.660374
 21
191.355907
  0
LINE
  8
CSLAYER1
  6
CONTINUOUS
 62
     5
 10
2744.660374
 20
351.355907
 11
3544.660374
 21
351.355907
  0
LINE
  8
CSLAYER1
  6
CONTINUOUS
 62
     5
 10
2744.660374
 20
411.355907
 11
3544.660374
 21
411.355907
  0
LINE
  8
CSLAYER1
  6
CONTINUOUS
 62
     5
 10
2744.660374
 20
471.355907
 11
3544.660374
 21
471.355907
  0
LINE
  8
CSLAYER1
  6
CONTINUOUS
 62
     5
 10
2744.660374
 20
631.355907
 11
3544.660374
 21
631.355907
  0
LINE
  8
CSLAYER1
  6
CONTINUOUS
 62
     5
 10
2744.660374
 20
711.355907
 11
2744.660374
 21
111.355907
  0
LINE
  8
CSLAYER1
  6
CONTINUOUS
 62
     5
 10
2944.660374
 20
711.355907
 11
2944.660374
 21
471.355907
  0
LINE
  8
CSLAYER1
  6
CONTINUOUS
 62
     5
 10
2744.660374
 20
711.355907
 11
3544.660374
 21
711.355907
  0
LINE
  8
CSLAYER1
  6
CONTINUOUS
 62
     5
 10
3244.660374
 20
471.355907
 11
3244.660374
 21
191.355907
  0
TEXT
  8
CSLAYER1
 62
     3
 10
2964.351375
 20
119.918629
 40
59.380363
 41
1.003345
  1
東正車輌株式会社
 50
0.000000
 51
0.000000
  7
EASYDRAW_FONT
 72
     5
 11
3421.123723
 21
119.918629
  0
LINE
  8
CSLAYER1
  6
CONTINUOUS
 62
     5
 10
2994.660374
 20
411.355907
 11
2994.660374
 21
191.355907
  0
TEXT
  8
CSLAYER1
 62
     5
 10
2774.660156
 20
646.355896
 40
50.000000
 41
1.050000
  1
品　名
 50
0.000000
 51
0.000000
  7
EASYDRAW_FONT
 72
     5
 11
2914.660156
 21
646.355896
  0
TEXT
  8
CSLAYER1
 62
     5
 10
2774.660156
 20
566.355896
 40
50.000000
 41
1.050000
  1
型　式
 50
0.000000
 51
0.000000
  7
EASYDRAW_FONT
 72
     5
 11
2914.660156
 21
566.355896
  0
TEXT
  8
CSLAYER1
 62
     5
 10
2749.660156
 20
486.355927
 40
50.000000
 41
1.036364
  1
図面番号
 50
0.000000
 51
0.000000
  7
EASYDRAW_FONT
 72
     5
 11
2939.660156
 21
486.355927
  0
TEXT
  8
CSLAYER1
 62
     5
 10
2774.660156
 20
416.355927
 40
50.000000
 41
0.825000
  1
平成26年01月10日
 50
0.000000
 51
0.000000
  7
EASYDRAW_FONT
 72
     5
 11
3214.660156
 21
416.355927
  0
TEXT
  8
CSLAYER1
 62
     5
 10
3324.660156
 20
416.355927
 40
50.000000
 41
1.050000
  1
Ｂ－４
 50
0.000000
 51
0.000000
  7
EASYDRAW_FONT
 72
     5
 11
3464.660156
 21
416.355927
  0
TEXT
  8
CSLAYER1
 62
     5
 10
2799.660156
 20
356.355927
 40
50.000000
 41
1.050000
  1
検　図
 50
0.000000
 51
0.000000
  7
EASYDRAW_FONT
 72
     5
 11
2939.660156
 21
356.355927
  0
TEXT
  8
CSLAYER1
 62
     5
 10
3049.660156
 20
356.355927
 40
50.000000
 41
1.050000
  1
作　図
 50
0.000000
 51
0.000000
  7
EASYDRAW_FONT
 72
     5
 11
3189.660156
 21
356.355927
  0
TEXT
  8
CSLAYER1
 62
     5
 10
3324.660156
 20
356.355927
 40
50.000000
 41
1.050000
  1
尺　度
 50
0.000000
 51
0.000000
  7
EASYDRAW_FONT
 72
     5
 11
3464.660156
 21
356.355927
  0
TEXT
  8
CSLAYER1
 62
     5
 10
3425.398926
 20
205.841171
 40
50.000000
 41
1.080000
  1
１０
 50
0.000000
 51
0.000000
  7
EASYDRAW_FONT
 72
     5
 11
3515.398926
 21
205.841171
  0
TEXT
  8
CSLAYER1
 62
     5
 10
3405.079346
 20
253.545868
 40
50.000000
 41
1.200000
  1
／
 50
0.000000
 51
0.000000
  7
EASYDRAW_FONT
 72
     5
 11
3445.079346
 21
253.545868
  0
TEXT
  8
CSLAYER1
 62
     5
 10
3374.866455
 20
288.529327
 40
50.000000
 41
1.200000
  1
１
 50
0.000000
 51
0.000000
  7
EASYDRAW_FONT
 72
     5
 11
3414.866455
 21
288.529327
  0
TEXT
  8
CSLAYER1
 62
     3
 10
3084.660156
 20
646.355896
 40
50.000000
 41
0.834783
  1
ゴールドリフター
 50
0.000000
 51
0.000000
  7
EASYDRAW_FONT
 72
     5
 11
3404.660156
 21
646.355896
  0
TEXT
  8
CSLAYER1
 62
     3
 10
2984.660156
 20
566.355896
 40
50.000000
 41
0.821053
  1
GLSE-150-2509
 50
0.000000
 51
0.000000
  7
EASYDRAW_FONT
 72
     5
 11
3504.660156
 21
566.355896
  0
INSERT
  8
CSLAYER1
  2
BLKF0000
 10
0.0
 20
0.0
 30
0.0
  0
LINE
  8
CSLAYER1
  6
CONTINUOUS
 62
     5
 10
3470.660374
 20
2359.902837
 11
2590.660374
 21
2359.902837
  0
LINE
  8
CSLAYER1
  6
CONTINUOUS
 62
     5
 10
3470.660374
 20
2306.569504
 11
2590.660374
 21
2306.569504
  0
LINE
  8
CSLAYER1
  6
CONTINUOUS
 62
     5
 10
3470.660374
 20
2253.236170
 11
2590.660374
 21
2253.236170
  0
LINE
  8
CSLAYER1
  6
CONTINUOUS
 62
     5
 10
3470.660374
 20
2146.569504
 11
2590.660374
 21
2146.569504
  0
LINE
  8
CSLAYER1
  6
CONTINUOUS
 62
     5
 10
3470.660374
 20
2039.902837
 11
2590.660374
 21
2039.902837
  0
LINE
  8
CSLAYER1
  6
CONTINUOUS
 62
     5
 10
3470.660374
 20
1826.569504
 11
2590.660374
 21
1826.569504
  0
LINE
  8
CSLAYER1
  6
CONTINUOUS
 62
     5
 10
3470.660374
 20
1613.236167
 11
2590.660374
 21
1613.236167
  0
LINE
  8
CSLAYER1
  6
CONTINUOUS
 62
     5
 10
3470.660374
 20
1559.902834
 11
2590.660374
 21
1559.902834
  0
TEXT
  8
CSLAYER1
 62
     3
 10
2603.993408
 20
2366.569336
 40
40.000000
 41
0.838235
  1
仕    様
 50
0.000000
 51
0.000000
  7
EASYDRAW_FONT
 72
     5
 11
2793.993408
 21
2366.569336
  0
TEXT
  8
CSLAYER1
 62
     3
 10
2603.993408
 20
2313.236084
 40
40.000000
 41
0.838235
  1
型    式
 50
0.000000
 51
0.000000
  7
EASYDRAW_FONT
 72
     5
 11
2793.993408
 21
2313.236084
  0
TEXT
  8
CSLAYER1
 62
     3
 10
2968.993408
 20
2313.236084
 40
40.000000
 41
0.817105
  1
GLSE-150-2509
 50
0.000000
 51
0.000000
  7
EASYDRAW_FONT
 72
     5
 11
3382.993408
 21
2313.236084
  0
TEXT
  8
CSLAYER1
 62
     3
 10
2603.993408
 20
2259.902832
 40
40.000000
 41
0.859091
  1
均等荷重
 50
0.000000
 51
0.000000
  7
EASYDRAW_FONT
 72
     5
 11
2729.993408
 21
2259.902832
  0
TEXT
  8
CSLAYER1
 62
     3
 10
3395.326660
 20
2259.902832
 40
40.000000
 41
0.930000
  1
ｋｇ
 50
0.000000
 51
0.000000
  7
EASYDRAW_FONT
 72
     5
 11
3457.326660
 21
2259.902832
  0
TEXT
  8
CSLAYER1
 62
     3
 10
2603.993408
 20
2153.236084
 40
40.000000
 41
0.838235
  1
テーブル高サ
 50
0.000000
 51
0.000000
  7
EASYDRAW_FONT
 72
     5
 11
2793.993408
 21
2153.236084
  0
TEXT
  8
CSLAYER1
 62
     3
 10
3395.326660
 20
2153.236084
 40
40.000000
 41
0.930000
  1
ｍｍ
 50
0.000000
 51
0.000000
  7
EASYDRAW_FONT
 72
     5
 11
3457.326660
 21
2153.236084
  0
TEXT
  8
CSLAYER1
 62
     3
 10
2603.993408
 20
2046.569336
 40
40.000000
 41
0.838235
  1
全    長
 50
0.000000
 51
0.000000
  7
EASYDRAW_FONT
 72
     5
 11
2793.993408
 21
2046.569336
  0
TEXT
  8
CSLAYER1
 62
     3
 10
3128.993408
 20
2046.569336
 40
40.000000
 41
0.881250
  1
903
 50
0.000000
 51
0.000000
  7
EASYDRAW_FONT
 72
     5
 11
3222.993408
 21
2046.569336
  0
TEXT
  8
CSLAYER1
 62
     3
 10
3064.993408
 20
1833.235840
 40
40.000000
 41
0.832500
  1
フットスイッチ
 50
0.000000
 51
0.000000
  7
EASYDRAW_FONT
 72
     5
 11
3286.993408
 21
1833.235840
  0
TEXT
  8
CSLAYER1
 62
     3
 10
2603.993408
 20
1833.235840
 40
40.000000
 41
0.859091
  1
操作方式
 50
0.000000
 51
0.000000
  7
EASYDRAW_FONT
 72
     5
 11
2729.993408
 21
1833.235840
  0
TEXT
  8
CSLAYER1
 62
     3
 10
2603.993408
 20
1566.569214
 40
40.000000
 41
0.832500
  1
自     重
 50
0.000000
 51
0.000000
  7
EASYDRAW_FONT
 72
     5
 11
2825.993408
 21
1566.569214
  0
TEXT
  8
CSLAYER1
 62
     3
 10
3119.660156
 20
1566.569214
 40
40.000000
 41
0.859091
  1
約 62
 50
0.000000
 51
0.000000
  7
EASYDRAW_FONT
 72
     5
 11
3245.660156
 21
1566.569214
  0
TEXT
  8
CSLAYER1
 62
     3
 10
2603.993408
 20
1513.235962
 40
40.000000
 41
0.832500
  1
塗  装  色
 50
0.000000
 51
0.000000
  7
EASYDRAW_FONT
 72
     5
 11
2825.993408
 21
1513.235962
  0
TEXT
  8
CSLAYER1
 62
     3
 10
3128.993408
 20
2259.902832
 40
40.000000
 41
0.881250
  1
150
 50
0.000000
 51
0.000000
  7
EASYDRAW_FONT
 72
     5
 11
3222.993408
 21
2259.902832
  0
TEXT
  8
CSLAYER1
 62
     3
 10
3080.993408
 20
2153.236084
 40
40.000000
 41
0.838235
  1
65～700
 50
0.000000
 51
0.000000
  7
EASYDRAW_FONT
 72
     5
 11
3270.993408
 21
2153.236084
  0
TEXT
  8
CSLAYER1
 62
     3
 10
3395.326660
 20
2046.569336
 40
40.000000
 41
0.930000
  1
ｍｍ
 50
0.000000
 51
0.000000
  7
EASYDRAW_FONT
 72
     5
 11
3457.326660
 21
2046.569336
  0
LINE
  8
CSLAYER1
  6
CONTINUOUS
 62
     5
 10
3470.660374
 20
1986.569504
 11
2590.660374
 21
1986.569504
  0
TEXT
  8
CSLAYER1
 62
     3
 10
2603.993408
 20
1993.235718
 40
40.000000
 41
0.838235
  1
全    幅
 50
0.000000
 51
0.000000
  7
EASYDRAW_FONT
 72
     5
 11
2793.993408
 21
1993.235718
  0
TEXT
  8
CSLAYER1
 62
     3
 10
3128.993408
 20
1993.235718
 40
40.000000
 41
0.881250
  1
300
 50
0.000000
 51
0.000000
  7
EASYDRAW_FONT
 72
     5
 11
3222.993408
 21
1993.235718
  0
TEXT
  8
CSLAYER1
 62
     3
 10
3395.326660
 20
1993.235718
 40
40.000000
 41
0.930000
  1
ｍｍ
 50
0.000000
 51
0.000000
  7
EASYDRAW_FONT
 72
     5
 11
3457.326660
 21
1993.235718
  0
LINE
  8
CSLAYER1
  6
CONTINUOUS
 62
     5
 10
3470.660374
 20
1666.569504
 11
2590.660374
 21
1666.569504
  0
TEXT
  8
CSLAYER1
 62
     3
 10
3031.955811
 20
1618.504150
 40
40.000000
 41
0.825000
  1
油圧ユニット別置型
 50
0.000000
 51
0.000000
  7
EASYDRAW_FONT
 72
     5
 11
3317.955811
 21
1618.504150
  0
TEXT
  8
CSLAYER1
 62
     3
 10
3395.326660
 20
1566.569214
 40
40.000000
 41
0.930000
  1
ｋｇ
 50
0.000000
 51
0.000000
  7
EASYDRAW_FONT
 72
     5
 11
3457.326660
 21
1566.569214
  0
LINE
  8
CSLAYER1
  6
CONTINUOUS
 62
     5
 10
3470.660374
 20
2199.902837
 11
2590.660374
 21
2199.902837
  0
TEXT
  8
CSLAYER1
 62
     3
 10
2603.993408
 20
2206.569580
 40
40.000000
 41
0.838235
  1
テーブル寸法
 50
0.000000
 51
0.000000
  7
EASYDRAW_FONT
 72
     5
 11
2793.993408
 21
2206.569580
  0
TEXT
  8
CSLAYER1
 62
     3
 10
3395.326660
 20
2206.569580
 40
40.000000
 41
0.930000
  1
ｍｍ
 50
0.000000
 51
0.000000
  7
EASYDRAW_FONT
 72
     5
 11
3457.326660
 21
2206.569580
  0
TEXT
  8
CSLAYER1
 62
     3
 10
3032.993408
 20
2206.569580
 40
40.000000
 41
0.825000
  1
900L×250W
 50
0.000000
 51
0.000000
  7
EASYDRAW_FONT
 72
     5
 11
3318.993408
 21
2206.569580
  0
LINE
  8
CSLAYER1
  6
CONTINUOUS
 62
     5
 10
3470.660374
 20
2093.236170
 11
2590.660374
 21
2093.236170
  0
TEXT
  8
CSLAYER1
 62
     3
 10
3395.326660
 20
2099.902832
 40
40.000000
 41
0.930000
  1
ｍｍ
 50
0.000000
 51
0.000000
  7
EASYDRAW_FONT
 72
     5
 11
3457.326660
 21
2099.902832
  0
TEXT
  8
CSLAYER1
 62
     3
 10
3128.993408
 20
2099.902832
 40
40.000000
 41
0.881250
  1
635
 50
0.000000
 51
0.000000
  7
EASYDRAW_FONT
 72
     5
 11
3222.993408
 21
2099.902832
  0
TEXT
  8
CSLAYER1
 62
     3
 10
2605.825928
 20
2099.902832
 40
40.000000
 41
0.846429
  1
ストローク
 50
0.000000
 51
0.000000
  7
EASYDRAW_FONT
 72
     5
 11
2763.825928
 21
2099.902832
  0
LINE
  8
CSLAYER1
  6
CONTINUOUS
 62
     5
 10
3470.660374
 20
1933.236170
 11
2590.660374
 21
1933.236170
  0
TEXT
  8
CSLAYER1
 62
     3
 10
2603.993408
 20
1939.902588
 40
40.000000
 41
0.838235
  1
全    高
 50
0.000000
 51
0.000000
  7
EASYDRAW_FONT
 72
     5
 11
2793.993408
 21
1939.902588
  0
TEXT
  8
CSLAYER1
 62
     3
 10
3128.993408
 20
1939.902588
 40
40.000000
 41
0.881250
  1
 65
 50
0.000000
 51
0.000000
  7
EASYDRAW_FONT
 72
     5
 11
3222.993408
 21
1939.902588
  0
TEXT
  8
CSLAYER1
 62
     3
 10
3395.326660
 20
1939.902588
 40
40.000000
 41
0.930000
  1
ｍｍ
 50
0.000000
 51
0.000000
  7
EASYDRAW_FONT
 72
     5
 11
3457.326660
 21
1939.902588
  0
LINE
  8
CSLAYER1
  6
CONTINUOUS
 62
     5
 10
3470.660374
 20
1879.902837
 11
2590.660374
 21
1879.902837
  0
TEXT
  8
CSLAYER1
 62
     3
 10
2603.993408
 20
1886.569214
 40
40.000000
 41
0.846429
  1
リフト方式
 50
0.000000
 51
0.000000
  7
EASYDRAW_FONT
 72
     5
 11
2761.993408
 21
1886.569214
  0
TEXT
  8
CSLAYER1
 62
     3
 10
3096.993408
 20
1886.569214
 40
40.000000
 41
0.846429
  1
電動油圧式
 50
0.000000
 51
0.000000
  7
EASYDRAW_FONT
 72
     5
 11
3254.993408
 21
1886.569214
  0
LINE
  8
CSLAYER1
  6
CONTINUOUS
 62
     5
 10
3470.660374
 20
1719.902837
 11
2590.660374
 21
1719.902837
  0
TEXT
  8
CSLAYER1
 62
     3
 10
3096.993408
 20
1726.569092
 40
40.000000
 41
0.846429
  1
長さ 4m
 50
0.000000
 51
0.000000
  7
EASYDRAW_FONT
 72
     5
 11
3254.993408
 21
1726.569092
  0
TEXT
  8
CSLAYER1
 62
     3
 10
2603.993408
 20
1726.569092
 40
40.000000
 41
0.846429
  1
電源コード
 50
0.000000
 51
0.000000
  7
EASYDRAW_FONT
 72
     5
 11
2761.993408
 21
1726.569092
  0
TEXT
  8
CSLAYER1
 62
     3
 10
2603.993408
 20
1673.235840
 40
40.000000
 41
0.859091
  1
上昇時間
 50
0.000000
 51
0.000000
  7
EASYDRAW_FONT
 72
     5
 11
2729.993408
 21
1673.235840
  0
TEXT
  8
CSLAYER1
 62
     3
 10
2915.993427
 20
1673.235840
 40
40.000000
 41
0.661017
  1
約8sec/50Hz，6sec/60Hz
 50
0.000000
 51
0.000000
  7
EASYDRAW_FONT
 72
     5
 11
3435.993389
 21
1673.235840
  0
LINE
  8
CSLAYER1
  6
CONTINUOUS
 62
     5
 10
3470.660374
 20
1773.236170
 11
2590.660374
 21
1773.236170
  0
TEXT
  8
CSLAYER1
 62
     3
 10
2603.993408
 20
1779.902588
 40
40.000000
 41
0.859091
  1
モーター
 50
0.000000
 51
0.000000
  7
EASYDRAW_FONT
 72
     5
 11
2729.993408
 21
1779.902588
  0
TEXT
  8
CSLAYER1
 62
     3
 10
2936.993408
 20
1779.902588
 40
40.000000
 41
0.814773
  1
AC200V，三相，0.4kw
 50
0.000000
 51
0.000000
  7
EASYDRAW_FONT
 72
     5
 11
3414.993408
 21
1779.902588
  0
LINE
  8
CSLAYER1
  6
CONTINUOUS
 62
     5
 10
2894.660374
 20
1506.569500
 11
2894.660374
 21
1613.236167
  0
LINE
  8
CSLAYER1
  6
CONTINUOUS
 62
     5
 10
2894.660374
 20
1666.569504
 11
2894.660374
 21
2359.902837
  0
INSERT
  8
CSLAYER1
  2
BLKF0001
 10
0.0
 20
0.0
 30
0.0
  0
INSERT
  8
CSLAYER1
  2
BLKF0002
 10
0.0
 20
0.0
 30
0.0
  0
LINE
  8
CSLAYER1
  6
CONTINUOUS
 62
     3
 10
1404.163651
 20
1847.587395
 11
1404.163651
 21
2013.437395
  0
LINE
  8
CSLAYER1
  6
CONTINUOUS
 62
     3
 10
1454.163651
 20
1847.587395
 11
1454.163651
 21
1862.587395
  0
LINE
  8
CSLAYER1
  6
CONTINUOUS
 62
     4
 10
1406.863651
 20
2112.587395
 11
1406.863651
 21
1862.587395
  0
LINE
  8
CSLAYER1
  6
CONTINUOUS
 62
     4
 10
2306.863651
 20
2112.587395
 11
2306.863651
 21
1862.587395
  0
LINE
  8
CSLAYER1
  6
CONTINUOUS
 62
     3
 10
1414.163651
 20
1837.587395
 11
1444.163651
 21
1837.587395
  0
ARC
  8
CSLAYER1
  6
CONTINUOUS
 62
     3
 10
1414.163651
 20
1847.587395
 40
10.000000
 50
180.000000
 51
270.000000
  0
ARC
  8
CSLAYER1
  6
CONTINUOUS
 62
     3
 10
1444.163651
 20
1847.587395
 40
10.000000
 50
270.000000
 51
360.000000
  0
LINE
  8
CSLAYER1
  6
CENTER
 62
     5
 10
1150.667797
 20
2017.587395
 11
1406.863651
 21
2017.587395
  0
LINE
  8
CSLAYER1
  6
CENTER
 62
     5
 10
1403.163651
 20
1987.587395
 11
2307.163651
 21
1987.587395
  0
ARC
  8
CSLAYER1
  6
CONTINUOUS
 62
     3
 10
1444.163651
 20
2127.587395
 40
10.000000
 50
0.000000
 51
90.000000
  0
LINE
  8
CSLAYER1
  6
CONTINUOUS
 62
     3
 10
1414.163651
 20
2137.587395
 11
1444.163651
 21
2137.587395
  0
ARC
  8
CSLAYER1
  6
CONTINUOUS
 62
     3
 10
1414.163651
 20
2127.587395
 40
10.000000
 50
90.000000
 51
180.000000
  0
LINE
  8
CSLAYER1
  6
CONTINUOUS
 62
     3
 10
1454.163651
 20
2127.587395
 11
1454.163651
 21
2112.587395
  0
LINE
  8
CSLAYER1
  6
CONTINUOUS
 62
     4
 10
1537.075916
 20
965.187361
 11
1530.285458
 21
969.711585
  0
LINE
  8
CSLAYER1
  6
CENTER
 62
     5
 10
1417.900850
 20
2112.587395
 11
1440.426453
 21
2112.587395
  0
ARC
  8
CSLAYER1
  6
CONTINUOUS
 62
     3
 10
1429.163651
 20
2112.587395
 40
6.500000
 50
0.000000
 51
180.000000
  0
LINE
  8
CSLAYER1
  6
CENTER
 62
     5
 10
1417.900850
 20
1862.587395
 11
1440.426453
 21
1862.587395
  0
ARC
  8
CSLAYER1
  6
CONTINUOUS
 62
     3
 10
1429.163651
 20
1862.587395
 40
6.500000
 50
180.000000
 51
360.000000
  0
LINE
  8
CSLAYER1
  6
CENTER
 62
     5
 10
741.849163
 20
1468.785580
 11
741.849163
 21
752.492170
  0
LINE
  8
CSLAYER1
  6
CONTINUOUS
 62
     3
 10
641.849163
 20
792.492170
 11
841.849163
 21
792.492170
  0
LINE
  8
CSLAYER1
  6
CONTINUOUS
 62
     3
 10
641.849163
 20
792.492170
 11
641.849163
 21
758.492170
  0
LINE
  8
CSLAYER1
  6
CONTINUOUS
 62
     3
 10
841.849163
 20
792.492170
 11
841.849163
 21
758.492170
  0
LINE
  8
CSLAYER1
  6
CONTINUOUS
 62
     3
 10
891.849163
 20
752.492170
 11
891.849163
 21
758.492170
  0
LINE
  8
CSLAYER1
  6
CENTER
 62
     5
 10
866.849163
 20
743.562809
 11
866.849163
 21
767.772770
  0
LINE
  8
CSLAYER1
  6
CONTINUOUS
 62
     3
 10
816.349163
 20
752.492170
 11
816.349163
 21
792.492170
  0
LINE
  8
CSLAYER1
  6
CONTINUOUS
 62
     3
 10
891.849163
 20
758.492170
 11
816.349163
 21
758.492170
  0
LINE
  8
CSLAYER1
  6
CONTINUOUS
 62
     3
 10
819.349163
 20
780.961825
 11
819.349163
 21
759.022514
  0
LINE
  8
CSLAYER1
  6
CONTINUOUS
 62
     3
 10
816.349163
 20
759.242170
 11
819.349163
 21
759.242170
  0
LINE
  8
CSLAYER1
  6
CONTINUOUS
 62
     3
 10
816.349163
 20
780.742170
 11
819.349163
 21
780.742170
  0
LINE
  8
CSLAYER1
  6
CONTINUOUS
 62
     3
 10
816.349163
 20
771.504366
 11
819.349163
 21
768.004366
  0
LINE
  8
CSLAYER1
  6
CONTINUOUS
 62
     3
 10
827.349163
 20
760.992170
 11
827.349163
 21
778.992170
  0
LINE
  8
CSLAYER1
  6
CONTINUOUS
 62
     3
 10
819.349163
 20
764.507342
 11
826.211982
 21
764.507342
  0
LINE
  8
CSLAYER1
  6
CONTINUOUS
 62
     3
 10
819.349163
 20
759.022514
 11
826.211982
 21
759.022514
  0
LINE
  8
CSLAYER1
  6
CONTINUOUS
 62
     3
 10
827.349163
 20
760.992170
 11
826.211982
 21
759.022514
  0
ARC
  8
CSLAYER1
  6
CONTINUOUS
 62
     3
 10
823.569119
 20
761.764928
 40
3.808617
 50
5.661633
 51
46.059028
  0
ARC
  8
CSLAYER1
  6
CONTINUOUS
 62
     3
 10
813.553419
 20
769.992170
 40
13.795744
 50
-23.426598
 51
23.426598
  0
LINE
  8
CSLAYER1
  6
CONTINUOUS
 62
     3
 10
819.349163
 20
775.476997
 11
826.211982
 21
775.476997
  0
LINE
  8
CSLAYER1
  6
CONTINUOUS
 62
     3
 10
819.349163
 20
780.961825
 11
826.211982
 21
780.961825
  0
LINE
  8
CSLAYER1
  6
CONTINUOUS
 62
     3
 10
827.349163
 20
778.992170
 11
826.211982
 21
780.961825
  0
ARC
  8
CSLAYER1
  6
CONTINUOUS
 62
     3
 10
823.569119
 20
778.219411
 40
3.808617
 50
313.940972
 51
354.338367
  0
LINE
  8
CSLAYER1
  6
CENTER
 62
     5
 10
816.349163
 20
769.992170
 11
827.349163
 21
769.992170
  0
LINE
  8
CSLAYER1
  6
CONTINUOUS
 62
     3
 10
591.849163
 20
752.492170
 11
591.849163
 21
758.492170
  0
LINE
  8
CSLAYER1
  6
CENTER
 62
     5
 10
616.849163
 20
743.562809
 11
616.849163
 21
767.772770
  0
LINE
  8
CSLAYER1
  6
CONTINUOUS
 62
     3
 10
591.849163
 20
758.492170
 11
667.349163
 21
758.492170
  0
LINE
  8
CSLAYER1
  6
CONTINUOUS
 62
     3
 10
664.349163
 20
780.961825
 11
664.349163
 21
759.022514
  0
LINE
  8
CSLAYER1
  6
CONTINUOUS
 62
     3
 10
667.349163
 20
759.242170
 11
664.349163
 21
759.242170
  0
LINE
  8
CSLAYER1
  6
CONTINUOUS
 62
     3
 10
667.349163
 20
780.742170
 11
664.349163
 21
780.742170
  0
LINE
  8
CSLAYER1
  6
CONTINUOUS
 62
     3
 10
667.349163
 20
771.504366
 11
664.349163
 21
768.004366
  0
LINE
  8
CSLAYER1
  6
CONTINUOUS
 62
     3
 10
656.349163
 20
760.992170
 11
656.349163
 21
778.992170
  0
LINE
  8
CSLAYER1
  6
CONTINUOUS
 62
     3
 10
664.349163
 20
764.507342
 11
657.486344
 21
764.507342
  0
LINE
  8
CSLAYER1
  6
CONTINUOUS
 62
     3
 10
664.349163
 20
759.022514
 11
657.486344
 21
759.022514
  0
LINE
  8
CSLAYER1
  6
CONTINUOUS
 62
     3
 10
656.349163
 20
760.992170
 11
657.486344
 21
759.022514
  0
ARC
  8
CSLAYER1
  6
CONTINUOUS
 62
     3
 10
660.129208
 20
761.764928
 40
3.808617
 50
133.940972
 51
174.338367
  0
ARC
  8
CSLAYER1
  6
CONTINUOUS
 62
     3
 10
670.144907
 20
769.992170
 40
13.795744
 50
156.573402
 51
203.426598
  0
LINE
  8
CSLAYER1
  6
CONTINUOUS
 62
     3
 10
664.349163
 20
775.476997
 11
657.486344
 21
775.476997
  0
LINE
  8
CSLAYER1
  6
CONTINUOUS
 62
     3
 10
664.349163
 20
780.961825
 11
657.486344
 21
780.961825
  0
LINE
  8
CSLAYER1
  6
CONTINUOUS
 62
     3
 10
656.349163
 20
778.992170
 11
657.486344
 21
780.961825
  0
ARC
  8
CSLAYER1
  6
CONTINUOUS
 62
     3
 10
660.129208
 20
778.219411
 40
3.808617
 50
185.661633
 51
226.059028
  0
LINE
  8
CSLAYER1
  6
CENTER
 62
     5
 10
667.349163
 20
769.992170
 11
656.349163
 21
769.992170
  0
LINE
  8
CSLAYER1
  6
CONTINUOUS
 62
     3
 10
667.349163
 20
752.492170
 11
667.349163
 21
792.492170
  0
LINE
  8
CSLAYER1
  6
CENTER
 62
     5
 10
711.849163
 20
755.802606
 11
711.849163
 21
789.065925
  0
LINE
  8
CSLAYER1
  6
CENTER
 62
     5
 10
693.975217
 20
772.492170
 11
730.972174
 21
772.492170
  0
CIRCLE
  8
CSLAYER1
  6
CONTINUOUS
 62
     3
 10
711.849163
 20
772.492170
 40
12.500000
  0
LINE
  8
CSLAYER1
  6
CONTINUOUS
 62
     3
 10
866.849163
 20
1468.785580
 11
616.849163
 21
1468.785580
  0
LINE
  8
CSLAYER1
  6
CONTINUOUS
 62
     3
 10
787.849163
 20
792.492170
 11
787.849163
 21
1450.785580
  0
LINE
  8
CSLAYER1
  6
CONTINUOUS
 62
     3
 10
796.849163
 20
792.492170
 11
796.849163
 21
1450.785580
  0
LINE
  8
CSLAYER1
  6
CONTINUOUS
 62
     3
 10
799.849163
 20
792.492170
 11
799.849163
 21
1438.485580
  0
LINE
  8
CSLAYER1
  6
CONTINUOUS
 62
     3
 10
808.849163
 20
792.492170
 11
808.849163
 21
1438.015925
  0
LINE
  8
CSLAYER1
  6
CONTINUOUS
 62
     3
 10
866.849163
 20
1450.785580
 11
616.849163
 21
1450.785580
  0
LINE
  8
CSLAYER1
  6
CONTINUOUS
 62
     3
 10
797.849163
 20
1440.335580
 11
796.849163
 21
1440.335580
  0
LINE
  8
CSLAYER1
  6
CONTINUOUS
 62
     3
 10
798.849163
 20
1450.785580
 11
798.849163
 21
1441.335580
  0
LINE
  8
CSLAYER1
  6
CONTINUOUS
 62
     3
 10
798.849163
 20
1441.335580
 11
797.849163
 21
1440.335580
  0
LINE
  8
CSLAYER1
  6
CONTINUOUS
 62
     3
 10
797.849163
 20
1450.785580
 11
797.849163
 21
1440.335580
  0
LINE
  8
CSLAYER1
  6
CONTINUOUS
 62
     3
 10
799.349163
 20
1438.485580
 11
805.349163
 21
1438.485580
  0
LINE
  8
CSLAYER1
  6
CONTINUOUS
 62
     3
 10
805.349163
 20
1450.785580
 11
805.349163
 21
1438.485580
  0
LINE
  8
CSLAYER1
  6
CONTINUOUS
 62
     3
 10
799.349163
 20
1450.785580
 11
799.349163
 21
1438.485580
  0
LINE
  8
CSLAYER1
  6
CONTINUOUS
 62
     3
 10
787.849163
 20
1440.335580
 11
695.849163
 21
1440.335580
  0
LINE
  8
CSLAYER1
  6
CENTER
 62
     5
 10
667.349163
 20
1448.985580
 11
816.349163
 21
1448.985580
  0
LINE
  8
CSLAYER1
  6
CONTINUOUS
 62
     3
 10
808.349163
 20
1438.015925
 11
808.349163
 21
1450.785580
  0
LINE
  8
CSLAYER1
  6
CONTINUOUS
 62
     3
 10
805.349163
 20
1438.235580
 11
808.349163
 21
1438.235580
  0
LINE
  8
CSLAYER1
  6
CONTINUOUS
 62
     3
 10
805.349163
 20
1447.473383
 11
808.188189
 21
1450.785580
  0
LINE
  8
CSLAYER1
  6
CONTINUOUS
 62
     3
 10
816.349163
 20
1450.785580
 11
816.349163
 21
1439.985580
  0
ARC
  8
CSLAYER1
  6
CONTINUOUS
 62
     3
 10
802.553419
 20
1448.985580
 40
13.795744
 50
-23.426598
 51
7.497043
  0
LINE
  8
CSLAYER1
  6
CONTINUOUS
 62
     3
 10
808.349163
 20
1443.500752
 11
815.211982
 21
1443.500752
  0
LINE
  8
CSLAYER1
  6
CONTINUOUS
 62
     3
 10
808.349163
 20
1438.015925
 11
815.211982
 21
1438.015925
  0
LINE
  8
CSLAYER1
  6
CONTINUOUS
 62
     3
 10
816.349163
 20
1439.985580
 11
815.211982
 21
1438.015925
  0
ARC
  8
CSLAYER1
  6
CONTINUOUS
 62
     3
 10
812.569119
 20
1440.758339
 40
3.808617
 50
5.661633
 51
46.059028
  0
LINE
  8
CSLAYER1
  6
CENTER
 62
     5
 10
686.849163
 20
1155.108550
 11
796.849163
 21
1155.108550
  0
LINE
  8
CSLAYER1
  6
CENTER
 62
     5
 10
662.349163
 20
1100.858932
 11
821.349163
 21
1100.858932
  0
LINE
  8
CSLAYER1
  6
CONTINUOUS
 62
     3
 10
820.349163
 20
1095.858932
 11
819.849163
 21
1095.858932
  0
LINE
  8
CSLAYER1
  6
CONTINUOUS
 62
     3
 10
809.349163
 20
1111.358932
 11
809.349163
 21
1090.358932
  0
LINE
  8
CSLAYER1
  6
CONTINUOUS
 62
     3
 10
821.349163
 20
1096.858932
 11
821.349163
 21
1104.858932
  0
LINE
  8
CSLAYER1
  6
CONTINUOUS
 62
     3
 10
799.849163
 20
1114.858932
 11
796.849163
 21
1114.858932
  0
LINE
  8
CSLAYER1
  6
CONTINUOUS
 62
     3
 10
799.849163
 20
1086.858932
 11
796.849163
 21
1086.858932
  0
LINE
  8
CSLAYER1
  6
CONTINUOUS
 62
     3
 10
811.349163
 20
1111.358932
 11
811.349163
 21
1090.358932
  0
LINE
  8
CSLAYER1
  6
CONTINUOUS
 62
     3
 10
813.849163
 20
1110.058932
 11
813.849163
 21
1091.658932
  0
LINE
  8
CSLAYER1
  6
CONTINUOUS
 62
     3
 10
813.849163
 20
1091.658932
 11
811.349163
 21
1091.658932
  0
LINE
  8
CSLAYER1
  6
CONTINUOUS
 62
     3
 10
811.349163
 20
1090.358932
 11
809.349163
 21
1090.358932
  0
LINE
  8
CSLAYER1
  6
CONTINUOUS
 62
     3
 10
813.849163
 20
1110.058932
 11
811.349163
 21
1110.058932
  0
LINE
  8
CSLAYER1
  6
CONTINUOUS
 62
     3
 10
811.349163
 20
1111.358932
 11
809.349163
 21
1111.358932
  0
LINE
  8
CSLAYER1
  6
CONTINUOUS
 62
     3
 10
819.849163
 20
1109.358932
 11
819.849163
 21
1092.358932
  0
LINE
  8
CSLAYER1
  6
CONTINUOUS
 62
     3
 10
820.349163
 20
1095.858932
 11
821.349163
 21
1096.858932
  0
LINE
  8
CSLAYER1
  6
CONTINUOUS
 62
     3
 10
821.049163
 20
1096.558932
 11
819.849163
 21
1096.558932
  0
LINE
  8
CSLAYER1
  6
CONTINUOUS
 62
     3
 10
820.349163
 20
1095.858932
 11
820.349163
 21
1105.858932
  0
LINE
  8
CSLAYER1
  6
CONTINUOUS
 62
     3
 10
819.089974
 20
1091.043978
 11
814.608353
 21
1091.043978
  0
LINE
  8
CSLAYER1
  6
CONTINUOUS
 62
     3
 10
819.089974
 20
1095.951455
 11
814.608353
 21
1095.951455
  0
LINE
  8
CSLAYER1
  6
CONTINUOUS
 62
     3
 10
819.849163
 20
1092.358932
 11
819.089974
 21
1091.043978
  0
ARC
  8
CSLAYER1
  6
CONTINUOUS
 62
     3
 10
803.608353
 20
1100.858932
 40
16.240811
 50
-17.587954
 51
17.587954
  0
ARC
  8
CSLAYER1
  6
CONTINUOUS
 62
     3
 10
815.508239
 20
1093.497717
 40
4.341619
 50
-27.480777
 51
34.413868
  0
LINE
  8
CSLAYER1
  6
CONTINUOUS
 62
     3
 10
819.849163
 20
1109.358932
 11
819.089974
 21
1110.673887
  0
ARC
  8
CSLAYER1
  6
CONTINUOUS
 62
     3
 10
815.508239
 20
1108.220148
 40
4.341619
 50
-34.413868
 51
27.480777
  0
LINE
  8
CSLAYER1
  6
CONTINUOUS
 62
     3
 10
813.849163
 20
1092.358932
 11
814.608353
 21
1091.043978
  0
ARC
  8
CSLAYER1
  6
CONTINUOUS
 62
     3
 10
830.089974
 20
1100.858932
 40
16.240811
 50
162.412046
 51
197.587954
  0
ARC
  8
CSLAYER1
  6
CONTINUOUS
 62
     3
 10
818.190087
 20
1093.497717
 40
4.341619
 50
145.586132
 51
207.480777
  0
LINE
  8
CSLAYER1
  6
CONTINUOUS
 62
     3
 10
813.849163
 20
1109.358932
 11
814.608353
 21
1110.673887
  0
ARC
  8
CSLAYER1
  6
CONTINUOUS
 62
     3
 10
818.190087
 20
1108.220148
 40
4.341619
 50
152.519223
 51
214.413868
  0
LINE
  8
CSLAYER1
  6
CONTINUOUS
 62
     3
 10
819.089974
 20
1110.673887
 11
814.608353
 21
1110.673887
  0
LINE
  8
CSLAYER1
  6
CONTINUOUS
 62
     3
 10
819.089974
 20
1105.766410
 11
814.608353
 21
1105.766410
  0
LINE
  8
CSLAYER1
  6
CONTINUOUS
 62
     3
 10
820.349163
 20
1105.858932
 11
819.849163
 21
1105.858932
  0
LINE
  8
CSLAYER1
  6
CONTINUOUS
 62
     3
 10
820.349163
 20
1105.858932
 11
821.349163
 21
1104.858932
  0
LINE
  8
CSLAYER1
  6
CONTINUOUS
 62
     3
 10
821.049163
 20
1105.158932
 11
819.849163
 21
1105.158932
  0
LINE
  8
CSLAYER1
  6
CONTINUOUS
 62
     3
 10
811.349163
 20
1102.760380
 11
813.849163
 21
1099.390815
  0
LINE
  8
CSLAYER1
  6
CONTINUOUS
 62
     3
 10
808.849163
 20
1093.358932
 11
809.349163
 21
1093.358932
  0
LINE
  8
CSLAYER1
  6
CONTINUOUS
 62
     3
 10
808.849163
 20
1108.358932
 11
809.349163
 21
1108.358932
  0
LINE
  8
CSLAYER1
  6
CENTER
 62
     5
 10
752.349163
 20
1155.108550
 11
752.349163
 21
826.026727
  0
LINE
  8
CSLAYER1
  6
CONTINUOUS
 62
     3
 10
781.349163
 20
804.572487
 11
781.349163
 21
858.115967
  0
LINE
  8
CSLAYER1
  6
CONTINUOUS
 62
     3
 10
775.349163
 20
804.572487
 11
775.349163
 21
858.115967
  0
LINE
  8
CSLAYER1
  6
CONTINUOUS
 62
     3
 10
723.349163
 20
804.572487
 11
723.349163
 21
858.115967
  0
LINE
  8
CSLAYER1
  6
CONTINUOUS
 62
     3
 10
729.349163
 20
804.572487
 11
729.349163
 21
858.115967
  0
LINE
  8
CSLAYER1
  6
CONTINUOUS
 62
     3
 10
774.849163
 20
1142.508550
 11
774.849163
 21
1167.708550
  0
LINE
  8
CSLAYER1
  6
CONTINUOUS
 62
     3
 10
729.849163
 20
1142.508550
 11
729.849163
 21
1167.708550
  0
LINE
  8
CSLAYER1
  6
CONTINUOUS
 62
     3
 10
730.849163
 20
1168.708550
 11
773.849163
 21
1168.708550
  0
LINE
  8
CSLAYER1
  6
CONTINUOUS
 62
     3
 10
729.849163
 20
1167.708550
 11
730.849163
 21
1168.708550
  0
LINE
  8
CSLAYER1
  6
CONTINUOUS
 62
     3
 10
773.849163
 20
1168.708550
 11
774.849163
 21
1167.708550
  0
POINT
  8
CSLAYER1
 62
     3
 10
752.349163
 20
1155.108550
  0
LINE
  8
CSLAYER1
  6
CONTINUOUS
 62
     3
 10
775.849163
 20
1163.108550
 11
774.849163
 21
1163.108550
  0
LINE
  8
CSLAYER1
  6
CONTINUOUS
 62
     3
 10
729.849163
 20
1163.108550
 11
728.849163
 21
1163.108550
  0
LINE
  8
CSLAYER1
  6
CONTINUOUS
 62
     3
 10
770.349163
 20
978.034632
 11
770.349163
 21
1143.443430
  0
LINE
  8
CSLAYER1
  6
CONTINUOUS
 62
     3
 10
770.349163
 20
1143.443430
 11
770.280668
 21
1144.204001
  0
LINE
  8
CSLAYER1
  6
CONTINUOUS
 62
     3
 10
770.280668
 20
1144.204001
 11
770.075703
 21
1144.958783
  0
LINE
  8
CSLAYER1
  6
CONTINUOUS
 62
     3
 10
770.075703
 20
1144.958783
 11
769.735828
 21
1145.702033
  0
LINE
  8
CSLAYER1
  6
CONTINUOUS
 62
     3
 10
769.735828
 20
1145.702033
 11
769.263630
 21
1146.428094
  0
LINE
  8
CSLAYER1
  6
CONTINUOUS
 62
     3
 10
769.263630
 20
1146.428094
 11
768.662703
 21
1147.131439
  0
LINE
  8
CSLAYER1
  6
CONTINUOUS
 62
     3
 10
768.662703
 20
1147.131439
 11
767.937620
 21
1147.806716
  0
LINE
  8
CSLAYER1
  6
CONTINUOUS
 62
     3
 10
767.937620
 20
1147.806716
 11
767.093900
 21
1148.448787
  0
LINE
  8
CSLAYER1
  6
CONTINUOUS
 62
     3
 10
767.093900
 20
1148.448787
 11
766.137963
 21
1149.052763
  0
LINE
  8
CSLAYER1
  6
CONTINUOUS
 62
     3
 10
766.137963
 20
1149.052763
 11
765.077085
 21
1149.614049
  0
LINE
  8
CSLAYER1
  6
CONTINUOUS
 62
     3
 10
765.077085
 20
1149.614049
 11
763.919340
 21
1150.128373
  0
LINE
  8
CSLAYER1
  6
CONTINUOUS
 62
     3
 10
763.919340
 20
1150.128373
 11
762.673539
 21
1150.591820
  0
LINE
  8
CSLAYER1
  6
CONTINUOUS
 62
     3
 10
762.673539
 20
1150.591820
 11
761.349163
 21
1151.000864
  0
LINE
  8
CSLAYER1
  6
CONTINUOUS
 62
     3
 10
761.349163
 20
1151.000864
 11
759.956292
 21
1151.352391
  0
LINE
  8
CSLAYER1
  6
CONTINUOUS
 62
     3
 10
759.956292
 20
1151.352391
 11
758.505526
 21
1151.643726
  0
LINE
  8
CSLAYER1
  6
CONTINUOUS
 62
     3
 10
758.505526
 20
1151.643726
 11
757.007906
 21
1151.872652
  0
LINE
  8
CSLAYER1
  6
CONTINUOUS
 62
     3
 10
757.007906
 20
1151.872652
 11
755.474830
 21
1152.037427
  0
LINE
  8
CSLAYER1
  6
CONTINUOUS
 62
     3
 10
755.474830
 20
1152.037427
 11
753.917967
 21
1152.136796
  0
LINE
  8
CSLAYER1
  6
CONTINUOUS
 62
     3
 10
753.917967
 20
1152.136796
 11
752.349163
 21
1152.170003
  0
LINE
  8
CSLAYER1
  6
CONTINUOUS
 62
     3
 10
752.349163
 20
1152.170003
 11
750.780360
 21
1152.136796
  0
LINE
  8
CSLAYER1
  6
CONTINUOUS
 62
     3
 10
750.780360
 20
1152.136796
 11
749.223496
 21
1152.037427
  0
LINE
  8
CSLAYER1
  6
CONTINUOUS
 62
     3
 10
749.223496
 20
1152.037427
 11
747.690420
 21
1151.872652
  0
LINE
  8
CSLAYER1
  6
CONTINUOUS
 62
     3
 10
747.690420
 20
1151.872652
 11
746.192801
 21
1151.643726
  0
LINE
  8
CSLAYER1
  6
CONTINUOUS
 62
     3
 10
746.192801
 20
1151.643726
 11
744.742034
 21
1151.352391
  0
LINE
  8
CSLAYER1
  6
CONTINUOUS
 62
     3
 10
744.742034
 20
1151.352391
 11
743.349163
 21
1151.000864
  0
LINE
  8
CSLAYER1
  6
CONTINUOUS
 62
     3
 10
743.349163
 20
1151.000864
 11
742.024787
 21
1150.591820
  0
LINE
  8
CSLAYER1
  6
CONTINUOUS
 62
     3
 10
742.024787
 20
1150.591820
 11
740.778986
 21
1150.128373
  0
LINE
  8
CSLAYER1
  6
CONTINUOUS
 62
     3
 10
740.778986
 20
1150.128373
 11
739.621241
 21
1149.614049
  0
LINE
  8
CSLAYER1
  6
CONTINUOUS
 62
     3
 10
739.621241
 20
1149.614049
 11
738.560363
 21
1149.052763
  0
LINE
  8
CSLAYER1
  6
CONTINUOUS
 62
     3
 10
738.560363
 20
1149.052763
 11
737.604426
 21
1148.448787
  0
LINE
  8
CSLAYER1
  6
CONTINUOUS
 62
     3
 10
737.604426
 20
1148.448787
 11
736.760706
 21
1147.806716
  0
LINE
  8
CSLAYER1
  6
CONTINUOUS
 62
     3
 10
736.760706
 20
1147.806716
 11
736.035623
 21
1147.131439
  0
LINE
  8
CSLAYER1
  6
CONTINUOUS
 62
     3
 10
736.035623
 20
1147.131439
 11
735.434696
 21
1146.428094
  0
LINE
  8
CSLAYER1
  6
CONTINUOUS
 62
     3
 10
735.434696
 20
1146.428094
 11
734.962498
 21
1145.702033
  0
LINE
  8
CSLAYER1
  6
CONTINUOUS
 62
     3
 10
734.962498
 20
1145.702033
 11
734.622624
 21
1144.958783
  0
LINE
  8
CSLAYER1
  6
CONTINUOUS
 62
     3
 10
734.622624
 20
1144.958783
 11
734.417659
 21
1144.204001
  0
LINE
  8
CSLAYER1
  6
CONTINUOUS
 62
     3
 10
734.417659
 20
1144.204001
 11
734.349163
 21
1143.443430
  0
LINE
  8
CSLAYER1
  6
CONTINUOUS
 62
     3
 10
734.349163
 20
978.073773
 11
734.349163
 21
1143.443430
  0
LINE
  8
CSLAYER1
  6
CENTER
 62
     5
 10
712.349163
 20
792.492170
 11
712.349163
 21
927.490806
  0
LINE
  8
CSLAYER1
  6
CONTINUOUS
 62
     3
 10
719.349163
 20
921.790806
 11
705.349163
 21
921.790806
  0
LINE
  8
CSLAYER1
  6
CONTINUOUS
 62
     3
 10
719.349163
 20
913.990806
 11
705.349163
 21
913.990806
  0
LINE
  8
CSLAYER1
  6
CONTINUOUS
 62
     3
 10
718.781095
 20
908.790806
 11
705.917231
 21
908.790806
  0
LINE
  8
CSLAYER1
  6
CONTINUOUS
 62
     3
 10
718.349163
 20
906.790806
 11
706.349163
 21
906.790806
  0
LINE
  8
CSLAYER1
  6
CONTINUOUS
 62
     3
 10
718.349163
 20
899.790806
 11
706.349163
 21
899.790806
  0
LINE
  8
CSLAYER1
  6
CONTINUOUS
 62
     3
 10
717.232189
 20
874.790806
 11
707.466137
 21
874.790806
  0
LINE
  8
CSLAYER1
  6
CONTINUOUS
 62
     3
 10
717.849163
 20
896.790806
 11
717.849163
 21
899.790806
  0
LINE
  8
CSLAYER1
  6
CONTINUOUS
 62
     3
 10
720.432067
 20
914.616020
 11
720.432067
 21
921.165591
  0
LINE
  8
CSLAYER1
  6
CONTINUOUS
 62
     3
 10
716.390615
 20
914.616020
 11
716.390615
 21
921.165591
  0
ARC
  8
CSLAYER1
  6
CONTINUOUS
 62
     3
 10
689.661393
 20
914.033027
 40
29.587800
 50
345.831727
 51
359.918240
  0
ARC
  8
CSLAYER1
  6
CONTINUOUS
 62
     3
 10
735.036933
 20
914.033027
 40
29.587800
 50
180.081760
 51
194.168273
  0
LINE
  8
CSLAYER1
  6
CONTINUOUS
 62
     3
 10
716.696477
 20
906.790806
 11
716.696477
 21
908.790806
  0
LINE
  8
CSLAYER1
  6
CONTINUOUS
 62
     3
 10
714.714712
 20
906.790806
 11
714.714712
 21
908.790806
  0
LINE
  8
CSLAYER1
  6
CONTINUOUS
 62
     3
 10
708.001849
 20
906.790806
 11
708.001849
 21
908.790806
  0
LINE
  8
CSLAYER1
  6
CONTINUOUS
 62
     3
 10
709.983615
 20
906.790806
 11
709.983615
 21
908.790806
  0
LINE
  8
CSLAYER1
  6
CONTINUOUS
 62
     3
 10
719.349163
 20
921.790806
 11
720.432067
 21
921.165591
  0
ARC
  8
CSLAYER1
  6
CONTINUOUS
 62
     3
 10
718.411341
 20
918.239177
 40
3.556295
 50
64.625569
 51
124.625569
  0
ARC
  8
CSLAYER1
  6
CONTINUOUS
 62
     3
 10
712.349163
 20
908.416020
 40
13.374785
 50
72.412046
 51
107.587954
  0
LINE
  8
CSLAYER1
  6
CONTINUOUS
 62
     3
 10
719.349163
 20
913.990806
 11
720.432067
 21
914.616020
  0
ARC
  8
CSLAYER1
  6
CONTINUOUS
 62
     3
 10
718.411341
 20
917.542435
 40
3.556295
 50
235.374431
 51
295.374431
  0
ARC
  8
CSLAYER1
  6
CONTINUOUS
 62
     3
 10
712.349163
 20
927.365591
 40
13.374785
 50
252.412046
 51
287.587954
  0
LINE
  8
CSLAYER1
  6
CONTINUOUS
 62
     3
 10
704.266259
 20
914.616020
 11
704.266259
 21
921.165591
  0
LINE
  8
CSLAYER1
  6
CONTINUOUS
 62
     3
 10
708.307711
 20
914.616020
 11
708.307711
 21
921.165591
  0
LINE
  8
CSLAYER1
  6
CONTINUOUS
 62
     3
 10
705.349163
 20
921.790806
 11
704.266259
 21
921.165591
  0
ARC
  8
CSLAYER1
  6
CONTINUOUS
 62
     3
 10
706.286985
 20
918.239177
 40
3.556295
 50
55.374431
 51
115.374431
  0
LINE
  8
CSLAYER1
  6
CONTINUOUS
 62
     3
 10
705.349163
 20
913.990806
 11
704.266259
 21
914.616020
  0
ARC
  8
CSLAYER1
  6
CONTINUOUS
 62
     3
 10
706.286985
 20
917.542435
 40
3.556295
 50
244.625569
 51
304.625569
  0
LINE
  8
CSLAYER1
  6
CONTINUOUS
 62
     3
 10
719.277366
 20
900.326704
 11
719.277366
 21
906.054907
  0
LINE
  8
CSLAYER1
  6
CONTINUOUS
 62
     3
 10
715.813265
 20
900.326704
 11
715.813265
 21
906.054907
  0
LINE
  8
CSLAYER1
  6
CONTINUOUS
 62
     3
 10
718.349163
 20
899.790806
 11
719.277366
 21
900.326704
  0
ARC
  8
CSLAYER1
  6
CONTINUOUS
 62
     3
 10
712.349163
 20
911.254907
 40
11.464102
 50
252.178595
 51
287.821405
  0
ARC
  8
CSLAYER1
  6
CONTINUOUS
 62
     3
 10
717.545316
 20
902.856734
 40
3.066114
 50
236.143645
 51
295.804157
  0
LINE
  8
CSLAYER1
  6
CONTINUOUS
 62
     3
 10
718.349163
 20
906.590806
 11
719.277366
 21
906.054907
  0
ARC
  8
CSLAYER1
  6
CONTINUOUS
 62
     3
 10
712.349163
 20
895.126704
 40
11.464102
 50
72.178595
 51
107.821405
  0
ARC
  8
CSLAYER1
  6
CONTINUOUS
 62
     3
 10
717.545316
 20
903.524877
 40
3.066114
 50
64.195843
 51
123.856355
  0
LINE
  8
CSLAYER1
  6
CONTINUOUS
 62
     3
 10
718.349163
 20
906.590806
 11
706.349163
 21
906.590806
  0
LINE
  8
CSLAYER1
  6
CONTINUOUS
 62
     3
 10
715.813265
 20
906.590806
 11
715.813265
 21
906.790806
  0
LINE
  8
CSLAYER1
  6
CONTINUOUS
 62
     3
 10
706.849163
 20
896.790806
 11
706.849163
 21
899.790806
  0
LINE
  8
CSLAYER1
  6
CONTINUOUS
 62
     3
 10
705.420960
 20
900.326704
 11
705.420960
 21
906.054907
  0
LINE
  8
CSLAYER1
  6
CONTINUOUS
 62
     3
 10
708.885062
 20
900.326704
 11
708.885062
 21
906.054907
  0
LINE
  8
CSLAYER1
  6
CONTINUOUS
 62
     3
 10
706.349163
 20
899.790806
 11
705.420960
 21
900.326704
  0
ARC
  8
CSLAYER1
  6
CONTINUOUS
 62
     3
 10
707.153011
 20
902.856734
 40
3.066114
 50
244.195843
 51
303.856355
  0
LINE
  8
CSLAYER1
  6
CONTINUOUS
 62
     3
 10
706.349163
 20
906.590806
 11
705.420960
 21
906.054907
  0
ARC
  8
CSLAYER1
  6
CONTINUOUS
 62
     3
 10
707.153011
 20
903.524877
 40
3.066114
 50
56.143645
 51
115.804157
  0
LINE
  8
CSLAYER1
  6
CONTINUOUS
 62
     3
 10
708.885062
 20
906.590806
 11
708.885062
 21
906.790806
  0
LINE
  8
CSLAYER1
  6
CONTINUOUS
 62
     3
 10
719.277366
 20
887.790806
 11
719.277366
 21
896.254907
  0
LINE
  8
CSLAYER1
  6
CONTINUOUS
 62
     3
 10
715.813265
 20
887.790806
 11
715.813265
 21
896.254907
  0
LINE
  8
CSLAYER1
  6
CONTINUOUS
 62
     3
 10
718.349163
 20
896.790806
 11
719.277366
 21
896.254907
  0
ARC
  8
CSLAYER1
  6
CONTINUOUS
 62
     3
 10
712.349163
 20
885.326704
 40
11.464102
 50
72.178595
 51
107.821405
  0
ARC
  8
CSLAYER1
  6
CONTINUOUS
 62
     3
 10
717.545316
 20
893.724877
 40
3.066114
 50
64.195843
 51
123.856355
  0
LINE
  8
CSLAYER1
  6
CONTINUOUS
 62
     3
 10
718.349163
 20
896.790806
 11
706.349163
 21
896.790806
  0
LINE
  8
CSLAYER1
  6
CONTINUOUS
 62
     3
 10
705.420960
 20
887.790806
 11
705.420960
 21
896.254907
  0
LINE
  8
CSLAYER1
  6
CONTINUOUS
 62
     3
 10
708.885062
 20
887.790806
 11
708.885062
 21
896.254907
  0
LINE
  8
CSLAYER1
  6
CONTINUOUS
 62
     3
 10
706.349163
 20
896.790806
 11
705.420960
 21
896.254907
  0
ARC
  8
CSLAYER1
  6
CONTINUOUS
 62
     3
 10
707.153011
 20
893.724877
 40
3.066114
 50
56.143645
 51
115.804157
  0
LINE
  8
CSLAYER1
  6
CONTINUOUS
 62
     3
 10
718.228445
 20
875.704346
 11
719.277366
 21
887.790806
  0
ARC
  8
CSLAYER1
  6
CONTINUOUS
 62
     3
 10
697.171675
 20
887.790806
 40
18.641590
 50
330.443788
 51
360.000000
  0
ARC
  8
CSLAYER1
  6
CONTINUOUS
 62
     3
 10
712.349163
 20
879.230660
 40
1.217263
 50
210.578468
 51
329.421532
  0
ARC
  8
CSLAYER1
  6
CONTINUOUS
 62
     3
 10
734.454855
 20
887.790806
 40
18.641590
 50
180.000000
 51
209.556212
  0
ARC
  8
CSLAYER1
  6
CONTINUOUS
 62
     3
 10
719.277366
 20
879.230660
 40
1.217263
 50
210.578468
 51
227.594217
  0
ARC
  8
CSLAYER1
  6
CONTINUOUS
 62
     3
 10
717.232189
 20
875.790806
 40
1.000000
 50
270.000000
 51
355.040021
  0
LINE
  8
CSLAYER1
  6
CONTINUOUS
 62
     3
 10
706.469882
 20
875.704346
 11
705.420960
 21
887.790806
  0
ARC
  8
CSLAYER1
  6
CONTINUOUS
 62
     3
 10
727.526652
 20
887.790806
 40
18.641590
 50
180.000000
 51
209.556212
  0
ARC
  8
CSLAYER1
  6
CONTINUOUS
 62
     3
 10
690.243472
 20
887.790806
 40
18.641590
 50
330.443788
 51
360.000000
  0
ARC
  8
CSLAYER1
  6
CONTINUOUS
 62
     3
 10
705.420960
 20
879.230660
 40
1.217263
 50
312.405783
 51
329.421532
  0
ARC
  8
CSLAYER1
  6
CONTINUOUS
 62
     3
 10
707.466137
 20
875.790806
 40
1.000000
 50
184.959979
 51
270.000000
  0
LINE
  8
CSLAYER1
  6
CONTINUOUS
 62
     3
 10
719.349163
 20
941.490806
 11
706.849163
 21
941.490806
  0
LINE
  8
CSLAYER1
  6
CENTER
 62
     5
 10
724.849163
 20
934.490806
 11
719.349163
 21
934.490806
  0
LINE
  8
CSLAYER1
  6
CONTINUOUS
 62
     3
 10
705.349163
 20
927.490806
 11
705.349163
 21
939.990806
  0
LINE
  8
CSLAYER1
  6
CONTINUOUS
 62
     3
 10
719.349163
 20
927.490806
 11
705.349163
 21
927.490806
  0
LINE
  8
CSLAYER1
  6
CONTINUOUS
 62
     3
 10
719.349163
 20
927.490806
 11
719.349163
 21
941.488361
  0
LINE
  8
CSLAYER1
  6
CONTINUOUS
 62
     3
 10
716.949163
 20
921.790806
 11
716.949163
 21
927.490806
  0
LINE
  8
CSLAYER1
  6
CONTINUOUS
 62
     5
 10
716.349163
 20
921.790806
 11
716.349163
 21
926.451575
  0
LINE
  8
CSLAYER1
  6
CONTINUOUS
 62
     5
 10
716.949163
 20
927.490806
 11
716.349163
 21
926.451575
  0
LINE
  8
CSLAYER1
  6
CONTINUOUS
 62
     3
 10
707.749163
 20
921.790806
 11
707.749163
 21
927.490806
  0
LINE
  8
CSLAYER1
  6
CONTINUOUS
 62
     5
 10
707.749163
 20
927.490806
 11
708.349163
 21
926.451575
  0
LINE
  8
CSLAYER1
  6
CONTINUOUS
 62
     5
 10
716.349163
 20
926.451575
 11
708.349163
 21
926.451575
  0
LINE
  8
CSLAYER1
  6
CONTINUOUS
 62
     3
 10
724.849163
 20
929.639020
 11
719.349163
 21
929.540806
  0
LINE
  8
CSLAYER1
  6
CONTINUOUS
 62
     5
 10
724.849163
 20
930.339132
 11
719.336665
 21
930.240694
  0
LINE
  8
CSLAYER1
  6
CONTINUOUS
 62
     3
 10
724.849163
 20
939.342591
 11
719.349163
 21
939.440806
  0
LINE
  8
CSLAYER1
  6
CONTINUOUS
 62
     5
 10
724.849163
 20
938.642480
 11
719.336665
 21
938.740917
  0
ARC
  8
CSLAYER1
  6
CONTINUOUS
 62
     3
 10
706.849163
 20
939.990806
 40
1.500000
 50
90.000000
 51
180.000000
  0
LINE
  8
CSLAYER1
  6
CONTINUOUS
 62
     3
 10
730.849163
 20
1141.508550
 11
734.349163
 21
1141.508550
  0
LINE
  8
CSLAYER1
  6
CONTINUOUS
 62
     3
 10
729.849163
 20
1142.508550
 11
730.849163
 21
1141.508550
  0
LINE
  8
CSLAYER1
  6
CONTINUOUS
 62
     3
 10
773.849163
 20
1141.508550
 11
774.849163
 21
1142.508550
  0
LINE
  8
CSLAYER1
  6
CONTINUOUS
 62
     3
 10
775.849163
 20
1147.108550
 11
774.849163
 21
1147.108550
  0
LINE
  8
CSLAYER1
  6
CONTINUOUS
 62
     3
 10
729.849163
 20
1147.108550
 11
728.849163
 21
1147.108550
  0
LINE
  8
CSLAYER1
  6
CONTINUOUS
 62
     3
 10
716.849163
 20
1172.108550
 11
728.849163
 21
1172.108550
  0
LINE
  8
CSLAYER1
  6
CONTINUOUS
 62
     3
 10
716.849163
 20
1100.352389
 11
728.849163
 21
1100.352389
  0
LINE
  8
CSLAYER1
  6
CONTINUOUS
 62
     3
 10
775.849163
 20
1100.352389
 11
775.849163
 21
1172.108550
  0
LINE
  8
CSLAYER1
  6
CONTINUOUS
 62
     3
 10
728.849163
 20
1100.352389
 11
728.849163
 21
1172.108550
  0
LINE
  8
CSLAYER1
  6
CONTINUOUS
 62
     3
 10
716.849163
 20
1100.352389
 11
716.849163
 21
1172.108550
  0
LINE
  8
CSLAYER1
  6
CONTINUOUS
 62
     3
 10
775.849163
 20
1100.352389
 11
787.849163
 21
1100.352389
  0
LINE
  8
CSLAYER1
  6
CONTINUOUS
 62
     3
 10
775.849163
 20
1172.108550
 11
787.849163
 21
1172.108550
  0
LINE
  8
CSLAYER1
  6
CONTINUOUS
 62
     3
 10
695.849163
 20
1163.108550
 11
716.849163
 21
1163.108550
  0
LINE
  8
CSLAYER1
  6
CONTINUOUS
 62
     3
 10
695.849163
 20
1147.108550
 11
716.849163
 21
1147.108550
  0
LINE
  8
CSLAYER1
  6
CONTINUOUS
 62
     3
 10
787.849163
 20
1246.065599
 11
695.849163
 21
1246.065599
  0
LINE
  8
CSLAYER1
  6
CONTINUOUS
 62
     3
 10
663.349163
 20
1095.858932
 11
663.849163
 21
1095.858932
  0
LINE
  8
CSLAYER1
  6
CONTINUOUS
 62
     3
 10
674.349163
 20
1111.358932
 11
674.349163
 21
1090.358932
  0
LINE
  8
CSLAYER1
  6
CONTINUOUS
 62
     3
 10
662.349163
 20
1096.858932
 11
662.349163
 21
1104.858932
  0
LINE
  8
CSLAYER1
  6
CONTINUOUS
 62
     3
 10
683.849163
 20
1114.858932
 11
686.849163
 21
1114.858932
  0
LINE
  8
CSLAYER1
  6
CONTINUOUS
 62
     3
 10
683.849163
 20
792.492170
 11
683.849163
 21
1438.485580
  0
LINE
  8
CSLAYER1
  6
CONTINUOUS
 62
     3
 10
686.849163
 20
792.492170
 11
686.849163
 21
1450.785580
  0
LINE
  8
CSLAYER1
  6
CONTINUOUS
 62
     3
 10
683.849163
 20
1086.858932
 11
686.849163
 21
1086.858932
  0
LINE
  8
CSLAYER1
  6
CONTINUOUS
 62
     3
 10
672.349163
 20
1111.358932
 11
672.349163
 21
1090.358932
  0
LINE
  8
CSLAYER1
  6
CONTINUOUS
 62
     3
 10
669.849163
 20
1110.058932
 11
669.849163
 21
1091.658932
  0
LINE
  8
CSLAYER1
  6
CONTINUOUS
 62
     3
 10
669.849163
 20
1091.658932
 11
672.349163
 21
1091.658932
  0
LINE
  8
CSLAYER1
  6
CONTINUOUS
 62
     3
 10
672.349163
 20
1090.358932
 11
674.349163
 21
1090.358932
  0
LINE
  8
CSLAYER1
  6
CONTINUOUS
 62
     3
 10
669.849163
 20
1110.058932
 11
672.349163
 21
1110.058932
  0
LINE
  8
CSLAYER1
  6
CONTINUOUS
 62
     3
 10
672.349163
 20
1111.358932
 11
674.349163
 21
1111.358932
  0
LINE
  8
CSLAYER1
  6
CONTINUOUS
 62
     3
 10
663.849163
 20
1109.358932
 11
663.849163
 21
1092.358932
  0
LINE
  8
CSLAYER1
  6
CONTINUOUS
 62
     3
 10
663.349163
 20
1095.858932
 11
662.349163
 21
1096.858932
  0
LINE
  8
CSLAYER1
  6
CONTINUOUS
 62
     3
 10
662.649163
 20
1096.558932
 11
663.849163
 21
1096.558932
  0
LINE
  8
CSLAYER1
  6
CONTINUOUS
 62
     3
 10
663.349163
 20
1095.858932
 11
663.349163
 21
1105.858932
  0
LINE
  8
CSLAYER1
  6
CONTINUOUS
 62
     3
 10
664.608353
 20
1091.043978
 11
669.089974
 21
1091.043978
  0
LINE
  8
CSLAYER1
  6
CONTINUOUS
 62
     3
 10
664.608353
 20
1095.951455
 11
669.089974
 21
1095.951455
  0
LINE
  8
CSLAYER1
  6
CONTINUOUS
 62
     3
 10
663.849163
 20
1092.358932
 11
664.608353
 21
1091.043978
  0
ARC
  8
CSLAYER1
  6
CONTINUOUS
 62
     3
 10
680.089974
 20
1100.858932
 40
16.240811
 50
162.412046
 51
197.587954
  0
ARC
  8
CSLAYER1
  6
CONTINUOUS
 62
     3
 10
668.190087
 20
1093.497717
 40
4.341619
 50
145.586132
 51
207.480777
  0
LINE
  8
CSLAYER1
  6
CONTINUOUS
 62
     3
 10
663.849163
 20
1109.358932
 11
664.608353
 21
1110.673887
  0
ARC
  8
CSLAYER1
  6
CONTINUOUS
 62
     3
 10
668.190087
 20
1108.220148
 40
4.341619
 50
152.519223
 51
214.413868
  0
LINE
  8
CSLAYER1
  6
CONTINUOUS
 62
     3
 10
669.849163
 20
1092.358932
 11
669.089974
 21
1091.043978
  0
ARC
  8
CSLAYER1
  6
CONTINUOUS
 62
     3
 10
653.608353
 20
1100.858932
 40
16.240811
 50
-17.587954
 51
17.587954
  0
ARC
  8
CSLAYER1
  6
CONTINUOUS
 62
     3
 10
665.508239
 20
1093.497717
 40
4.341619
 50
-27.480777
 51
34.413868
  0
LINE
  8
CSLAYER1
  6
CONTINUOUS
 62
     3
 10
669.849163
 20
1109.358932
 11
669.089974
 21
1110.673887
  0
ARC
  8
CSLAYER1
  6
CONTINUOUS
 62
     3
 10
665.508239
 20
1108.220148
 40
4.341619
 50
-34.413868
 51
27.480777
  0
LINE
  8
CSLAYER1
  6
CONTINUOUS
 62
     3
 10
664.608353
 20
1110.673887
 11
669.089974
 21
1110.673887
  0
LINE
  8
CSLAYER1
  6
CONTINUOUS
 62
     3
 10
664.608353
 20
1105.766410
 11
669.089974
 21
1105.766410
  0
LINE
  8
CSLAYER1
  6
CONTINUOUS
 62
     3
 10
663.349163
 20
1105.858932
 11
663.849163
 21
1105.858932
  0
LINE
  8
CSLAYER1
  6
CONTINUOUS
 62
     3
 10
663.349163
 20
1105.858932
 11
662.349163
 21
1104.858932
  0
LINE
  8
CSLAYER1
  6
CONTINUOUS
 62
     3
 10
662.649163
 20
1105.158932
 11
663.849163
 21
1105.158932
  0
LINE
  8
CSLAYER1
  6
CONTINUOUS
 62
     3
 10
672.349163
 20
1102.760380
 11
669.849163
 21
1099.390815
  0
LINE
  8
CSLAYER1
  6
CONTINUOUS
 62
     3
 10
674.849163
 20
1093.358932
 11
674.349163
 21
1093.358932
  0
LINE
  8
CSLAYER1
  6
CONTINUOUS
 62
     3
 10
674.849163
 20
1108.358932
 11
674.349163
 21
1108.358932
  0
LINE
  8
CSLAYER1
  6
CONTINUOUS
 62
     3
 10
685.849163
 20
1440.335580
 11
686.849163
 21
1440.335580
  0
LINE
  8
CSLAYER1
  6
CONTINUOUS
 62
     3
 10
684.849163
 20
1450.785580
 11
684.849163
 21
1441.335580
  0
LINE
  8
CSLAYER1
  6
CONTINUOUS
 62
     3
 10
684.849163
 20
1441.335580
 11
685.849163
 21
1440.335580
  0
LINE
  8
CSLAYER1
  6
CONTINUOUS
 62
     3
 10
685.849163
 20
1450.785580
 11
685.849163
 21
1440.335580
  0
LINE
  8
CSLAYER1
  6
CONTINUOUS
 62
     3
 10
684.349163
 20
1438.485580
 11
678.349163
 21
1438.485580
  0
LINE
  8
CSLAYER1
  6
CONTINUOUS
 62
     3
 10
678.349163
 20
1450.785580
 11
678.349163
 21
1438.235580
  0
LINE
  8
CSLAYER1
  6
CONTINUOUS
 62
     3
 10
684.349163
 20
1450.785580
 11
684.349163
 21
1438.485580
  0
LINE
  8
CSLAYER1
  6
CONTINUOUS
 62
     3
 10
675.349163
 20
1438.015925
 11
675.349163
 21
1450.785580
  0
LINE
  8
CSLAYER1
  6
CONTINUOUS
 62
     3
 10
678.349163
 20
1438.235580
 11
675.349163
 21
1438.235580
  0
LINE
  8
CSLAYER1
  6
CONTINUOUS
 62
     3
 10
678.349163
 20
1447.473383
 11
675.510138
 21
1450.785580
  0
LINE
  8
CSLAYER1
  6
CONTINUOUS
 62
     3
 10
667.349163
 20
1450.785580
 11
667.349163
 21
1439.985580
  0
ARC
  8
CSLAYER1
  6
CONTINUOUS
 62
     3
 10
681.144907
 20
1448.985580
 40
13.795744
 50
172.502957
 51
203.426598
  0
LINE
  8
CSLAYER1
  6
CONTINUOUS
 62
     3
 10
675.349163
 20
1443.500752
 11
668.486344
 21
1443.500752
  0
LINE
  8
CSLAYER1
  6
CONTINUOUS
 62
     3
 10
675.349163
 20
1438.015925
 11
668.486344
 21
1438.015925
  0
LINE
  8
CSLAYER1
  6
CONTINUOUS
 62
     3
 10
667.349163
 20
1439.985580
 11
668.486344
 21
1438.015925
  0
ARC
  8
CSLAYER1
  6
CONTINUOUS
 62
     3
 10
671.129208
 20
1440.758339
 40
3.808617
 50
133.940972
 51
174.338367
  0
LINE
  8
CSLAYER1
  6
CONTINUOUS
 62
     3
 10
695.849163
 20
792.492170
 11
695.849163
 21
1450.785580
  0
LINE
  8
CSLAYER1
  6
CONTINUOUS
 62
     3
 10
674.849163
 20
792.492170
 11
674.849163
 21
1438.015925
  0
LINE
  8
CSLAYER1
  6
CONTINUOUS
 62
     3
 10
656.849163
 20
1436.485580
 11
656.849163
 21
1450.785580
  0
LINE
  8
CSLAYER1
  6
CONTINUOUS
 62
     3
 10
661.349163
 20
1436.485580
 11
661.349163
 21
1450.785580
  0
LINE
  8
CSLAYER1
  6
CONTINUOUS
 62
     3
 10
656.849163
 20
1436.485580
 11
661.349163
 21
1436.485580
  0
LINE
  8
CSLAYER1
  6
CONTINUOUS
 62
     3
 10
826.849163
 20
1436.485580
 11
826.849163
 21
1450.785580
  0
LINE
  8
CSLAYER1
  6
CONTINUOUS
 62
     3
 10
822.349163
 20
1436.485580
 11
822.349163
 21
1450.785580
  0
LINE
  8
CSLAYER1
  6
CONTINUOUS
 62
     3
 10
826.849163
 20
1436.485580
 11
822.349163
 21
1436.485580
  0
LINE
  8
CSLAYER1
  6
CONTINUOUS
 62
     3
 10
770.349163
 20
1141.508550
 11
773.849163
 21
1141.508550
  0
LINE
  8
CSLAYER1
  6
CONTINUOUS
 62
     3
 10
695.849163
 20
1126.828112
 11
716.849163
 21
1126.828112
  0
LINE
  8
CSLAYER1
  6
CONTINUOUS
 62
     3
 10
695.849163
 20
1078.228112
 11
734.349163
 21
1078.228112
  0
LINE
  8
CSLAYER1
  6
CONTINUOUS
 62
     3
 10
695.849163
 20
1385.349065
 11
787.849163
 21
1385.349065
  0
LINE
  8
CSLAYER1
  6
CONTINUOUS
 62
     3
 10
728.849163
 20
1126.828112
 11
734.349163
 21
1126.828112
  0
LINE
  8
CSLAYER1
  6
CONTINUOUS
 62
     3
 10
770.349163
 20
1126.828112
 11
775.849163
 21
1126.828112
  0
LINE
  8
CSLAYER1
  6
CONTINUOUS
 62
     3
 10
770.349163
 20
1078.228112
 11
787.849163
 21
1078.228112
  0
LINE
  8
CSLAYER1
  6
CENTER
 62
     5
 10
723.349163
 20
842.115967
 11
781.349163
 21
842.115967
  0
LINE
  8
CSLAYER1
  6
CONTINUOUS
 62
     3
 10
775.261641
 20
972.079699
 11
779.744517
 21
954.790473
  0
LINE
  8
CSLAYER1
  6
CONTINUOUS
 62
     3
 10
775.261641
 20
972.079699
 11
774.999741
 21
973.044144
  0
LINE
  8
CSLAYER1
  6
CONTINUOUS
 62
     3
 10
774.999741
 20
973.044144
 11
774.565457
 21
973.993852
  0
LINE
  8
CSLAYER1
  6
CONTINUOUS
 62
     3
 10
774.565457
 20
973.993852
 11
773.962093
 21
974.921596
  0
LINE
  8
CSLAYER1
  6
CONTINUOUS
 62
     3
 10
773.962093
 20
974.921596
 11
773.194242
 21
975.820315
  0
LINE
  8
CSLAYER1
  6
CONTINUOUS
 62
     3
 10
773.194242
 20
975.820315
 11
772.267747
 21
976.683169
  0
LINE
  8
CSLAYER1
  6
CONTINUOUS
 62
     3
 10
772.267747
 20
976.683169
 11
771.189660
 21
977.503592
  0
LINE
  8
CSLAYER1
  6
CONTINUOUS
 62
     3
 10
771.189660
 20
977.503592
 11
769.968185
 21
978.275340
  0
LINE
  8
CSLAYER1
  6
CONTINUOUS
 62
     3
 10
769.968185
 20
978.275340
 11
768.612619
 21
978.992539
  0
LINE
  8
CSLAYER1
  6
CONTINUOUS
 62
     3
 10
768.612619
 20
978.992539
 11
767.133278
 21
979.649730
  0
LINE
  8
CSLAYER1
  6
CONTINUOUS
 62
     3
 10
767.133278
 20
979.649730
 11
765.541421
 21
980.241913
  0
LINE
  8
CSLAYER1
  6
CONTINUOUS
 62
     3
 10
765.541421
 20
980.241913
 11
763.849163
 21
980.764580
  0
LINE
  8
CSLAYER1
  6
CONTINUOUS
 62
     3
 10
763.849163
 20
980.764580
 11
762.069383
 21
981.213754
  0
LINE
  8
CSLAYER1
  6
CONTINUOUS
 62
     3
 10
762.069383
 20
981.213754
 11
760.215626
 21
981.586015
  0
LINE
  8
CSLAYER1
  6
CONTINUOUS
 62
     3
 10
760.215626
 20
981.586015
 11
758.302001
 21
981.878532
  0
LINE
  8
CSLAYER1
  6
CONTINUOUS
 62
     3
 10
758.302001
 20
981.878532
 11
756.343071
 21
982.089077
  0
LINE
  8
CSLAYER1
  6
CONTINUOUS
 62
     3
 10
756.343071
 20
982.089077
 11
754.353745
 21
982.216048
  0
LINE
  8
CSLAYER1
  6
CONTINUOUS
 62
     3
 10
754.353745
 20
982.216048
 11
752.349163
 21
982.258480
  0
LINE
  8
CSLAYER1
  6
CONTINUOUS
 62
     3
 10
729.436685
 20
972.079699
 11
724.953809
 21
954.790473
  0
LINE
  8
CSLAYER1
  6
CONTINUOUS
 62
     3
 10
729.436685
 20
972.079699
 11
729.698585
 21
973.044144
  0
LINE
  8
CSLAYER1
  6
CONTINUOUS
 62
     3
 10
729.698585
 20
973.044144
 11
730.132869
 21
973.993852
  0
LINE
  8
CSLAYER1
  6
CONTINUOUS
 62
     3
 10
730.132869
 20
973.993852
 11
730.736233
 21
974.921596
  0
LINE
  8
CSLAYER1
  6
CONTINUOUS
 62
     3
 10
730.736233
 20
974.921596
 11
731.504084
 21
975.820315
  0
LINE
  8
CSLAYER1
  6
CONTINUOUS
 62
     3
 10
731.504084
 20
975.820315
 11
732.430579
 21
976.683169
  0
LINE
  8
CSLAYER1
  6
CONTINUOUS
 62
     3
 10
732.430579
 20
976.683169
 11
733.508666
 21
977.503592
  0
LINE
  8
CSLAYER1
  6
CONTINUOUS
 62
     3
 10
733.508666
 20
977.503592
 11
734.730141
 21
978.275340
  0
LINE
  8
CSLAYER1
  6
CONTINUOUS
 62
     3
 10
734.730141
 20
978.275340
 11
736.085707
 21
978.992539
  0
LINE
  8
CSLAYER1
  6
CONTINUOUS
 62
     3
 10
736.085707
 20
978.992539
 11
737.565048
 21
979.649730
  0
LINE
  8
CSLAYER1
  6
CONTINUOUS
 62
     3
 10
737.565048
 20
979.649730
 11
739.156905
 21
980.241913
  0
LINE
  8
CSLAYER1
  6
CONTINUOUS
 62
     3
 10
739.156905
 20
980.241913
 11
740.849163
 21
980.764580
  0
LINE
  8
CSLAYER1
  6
CONTINUOUS
 62
     3
 10
740.849163
 20
980.764580
 11
742.628943
 21
981.213754
  0
LINE
  8
CSLAYER1
  6
CONTINUOUS
 62
     3
 10
742.628943
 20
981.213754
 11
744.482700
 21
981.586015
  0
LINE
  8
CSLAYER1
  6
CONTINUOUS
 62
     3
 10
744.482700
 20
981.586015
 11
746.396325
 21
981.878532
  0
LINE
  8
CSLAYER1
  6
CONTINUOUS
 62
     3
 10
746.396325
 20
981.878532
 11
748.355255
 21
982.089077
  0
LINE
  8
CSLAYER1
  6
CONTINUOUS
 62
     3
 10
748.355255
 20
982.089077
 11
750.344581
 21
982.216048
  0
LINE
  8
CSLAYER1
  6
CONTINUOUS
 62
     3
 10
750.344581
 20
982.216048
 11
752.349163
 21
982.258480
  0
LINE
  8
CSLAYER1
  6
CONTINUOUS
 62
     3
 10
779.849163
 20
953.628490
 11
779.849163
 21
923.039594
  0
LINE
  8
CSLAYER1
  6
CONTINUOUS
 62
     3
 10
779.849163
 20
953.628490
 11
779.744517
 21
954.790473
  0
LINE
  8
CSLAYER1
  6
CONTINUOUS
 62
     3
 10
779.744517
 20
954.790473
 11
779.431376
 21
955.943613
  0
LINE
  8
CSLAYER1
  6
CONTINUOUS
 62
     3
 10
779.431376
 20
955.943613
 11
778.912123
 21
957.079134
  0
LINE
  8
CSLAYER1
  6
CONTINUOUS
 62
     3
 10
778.912123
 20
957.079134
 11
778.190710
 21
958.188393
  0
LINE
  8
CSLAYER1
  6
CONTINUOUS
 62
     3
 10
778.190710
 20
958.188393
 11
777.272627
 21
959.262948
  0
LINE
  8
CSLAYER1
  6
CONTINUOUS
 62
     3
 10
777.272627
 20
959.262948
 11
776.164862
 21
960.294622
  0
LINE
  8
CSLAYER1
  6
CONTINUOUS
 62
     3
 10
776.164862
 20
960.294622
 11
774.875844
 21
961.275562
  0
LINE
  8
CSLAYER1
  6
CONTINUOUS
 62
     3
 10
774.875844
 20
961.275562
 11
773.415385
 21
962.198304
  0
LINE
  8
CSLAYER1
  6
CONTINUOUS
 62
     3
 10
773.415385
 20
962.198304
 11
771.794600
 21
963.055824
  0
LINE
  8
CSLAYER1
  6
CONTINUOUS
 62
     3
 10
771.794600
 20
963.055824
 11
770.025822
 21
963.841597
  0
LINE
  8
CSLAYER1
  6
CONTINUOUS
 62
     3
 10
770.025822
 20
963.841597
 11
768.122515
 21
964.549641
  0
LINE
  8
CSLAYER1
  6
CONTINUOUS
 62
     3
 10
768.122515
 20
964.549641
 11
766.099163
 21
965.174569
  0
LINE
  8
CSLAYER1
  6
CONTINUOUS
 62
     3
 10
766.099163
 20
965.174569
 11
763.971165
 21
965.711625
  0
LINE
  8
CSLAYER1
  6
CONTINUOUS
 62
     3
 10
763.971165
 20
965.711625
 11
761.754717
 21
966.156720
  0
LINE
  8
CSLAYER1
  6
CONTINUOUS
 62
     3
 10
761.754717
 20
966.156720
 11
759.466687
 21
966.506468
  0
LINE
  8
CSLAYER1
  6
CONTINUOUS
 62
     3
 10
759.466687
 20
966.506468
 11
757.124488
 21
966.758207
  0
LINE
  8
CSLAYER1
  6
CONTINUOUS
 62
     3
 10
757.124488
 20
966.758207
 11
754.745946
 21
966.910021
  0
LINE
  8
CSLAYER1
  6
CONTINUOUS
 62
     3
 10
754.745946
 20
966.910021
 11
752.349163
 21
966.960754
  0
LINE
  8
CSLAYER1
  6
CONTINUOUS
 62
     3
 10
752.349163
 20
966.960754
 11
749.952380
 21
966.910021
  0
LINE
  8
CSLAYER1
  6
CONTINUOUS
 62
     3
 10
749.952380
 20
966.910021
 11
747.573838
 21
966.758207
  0
LINE
  8
CSLAYER1
  6
CONTINUOUS
 62
     3
 10
747.573838
 20
966.758207
 11
745.231639
 21
966.506468
  0
LINE
  8
CSLAYER1
  6
CONTINUOUS
 62
     3
 10
745.231639
 20
966.506468
 11
742.943609
 21
966.156720
  0
LINE
  8
CSLAYER1
  6
CONTINUOUS
 62
     3
 10
742.943609
 20
966.156720
 11
740.727161
 21
965.711625
  0
LINE
  8
CSLAYER1
  6
CONTINUOUS
 62
     3
 10
740.727161
 20
965.711625
 11
738.599163
 21
965.174569
  0
LINE
  8
CSLAYER1
  6
CONTINUOUS
 62
     3
 10
738.599163
 20
965.174569
 11
736.575811
 21
964.549641
  0
LINE
  8
CSLAYER1
  6
CONTINUOUS
 62
     3
 10
736.575811
 20
964.549641
 11
734.672504
 21
963.841597
  0
LINE
  8
CSLAYER1
  6
CONTINUOUS
 62
     3
 10
734.672504
 20
963.841597
 11
732.903727
 21
963.055824
  0
LINE
  8
CSLAYER1
  6
CONTINUOUS
 62
     3
 10
732.903727
 20
963.055824
 11
731.282941
 21
962.198304
  0
LINE
  8
CSLAYER1
  6
CONTINUOUS
 62
     3
 10
731.282941
 20
962.198304
 11
729.822482
 21
961.275562
  0
LINE
  8
CSLAYER1
  6
CONTINUOUS
 62
     3
 10
729.822482
 20
961.275562
 11
728.533465
 21
960.294622
  0
LINE
  8
CSLAYER1
  6
CONTINUOUS
 62
     3
 10
728.533465
 20
960.294622
 11
727.425699
 21
959.262948
  0
LINE
  8
CSLAYER1
  6
CONTINUOUS
 62
     3
 10
727.425699
 20
959.262948
 11
726.507616
 21
958.188393
  0
LINE
  8
CSLAYER1
  6
CONTINUOUS
 62
     3
 10
726.507616
 20
958.188393
 11
725.786203
 21
957.079134
  0
LINE
  8
CSLAYER1
  6
CONTINUOUS
 62
     3
 10
725.786203
 20
957.079134
 11
725.266950
 21
955.943613
  0
LINE
  8
CSLAYER1
  6
CONTINUOUS
 62
     3
 10
725.266950
 20
955.943613
 11
724.953809
 21
954.790473
  0
LINE
  8
CSLAYER1
  6
CONTINUOUS
 62
     3
 10
724.953809
 20
954.790473
 11
724.849163
 21
953.628490
  0
LINE
  8
CSLAYER1
  6
CONTINUOUS
 62
     3
 10
724.849163
 20
953.628490
 11
724.849163
 21
923.039594
  0
LINE
  8
CSLAYER1
  6
CONTINUOUS
 62
     3
 10
776.649163
 20
860.221777
 11
776.649163
 21
923.039594
  0
LINE
  8
CSLAYER1
  6
CONTINUOUS
 62
     3
 10
779.849163
 20
923.039594
 11
779.744517
 21
924.201577
  0
LINE
  8
CSLAYER1
  6
CONTINUOUS
 62
     3
 10
779.744517
 20
924.201577
 11
779.431376
 21
925.354717
  0
LINE
  8
CSLAYER1
  6
CONTINUOUS
 62
     3
 10
779.431376
 20
925.354717
 11
778.912123
 21
926.490238
  0
LINE
  8
CSLAYER1
  6
CONTINUOUS
 62
     3
 10
778.912123
 20
926.490238
 11
778.190710
 21
927.599497
  0
LINE
  8
CSLAYER1
  6
CONTINUOUS
 62
     3
 10
778.190710
 20
927.599497
 11
777.272627
 21
928.674052
  0
LINE
  8
CSLAYER1
  6
CONTINUOUS
 62
     3
 10
777.272627
 20
928.674052
 11
776.164862
 21
929.705726
  0
LINE
  8
CSLAYER1
  6
CONTINUOUS
 62
     3
 10
776.164862
 20
929.705726
 11
774.875844
 21
930.686666
  0
LINE
  8
CSLAYER1
  6
CONTINUOUS
 62
     3
 10
774.875844
 20
930.686666
 11
773.415385
 21
931.609408
  0
LINE
  8
CSLAYER1
  6
CONTINUOUS
 62
     3
 10
773.415385
 20
931.609408
 11
771.794600
 21
932.466928
  0
LINE
  8
CSLAYER1
  6
CONTINUOUS
 62
     3
 10
771.794600
 20
932.466928
 11
770.025822
 21
933.252701
  0
LINE
  8
CSLAYER1
  6
CONTINUOUS
 62
     3
 10
770.025822
 20
933.252701
 11
768.122515
 21
933.960745
  0
LINE
  8
CSLAYER1
  6
CONTINUOUS
 62
     3
 10
768.122515
 20
933.960745
 11
766.099163
 21
934.585673
  0
LINE
  8
CSLAYER1
  6
CONTINUOUS
 62
     3
 10
766.099163
 20
934.585673
 11
763.971165
 21
935.122729
  0
LINE
  8
CSLAYER1
  6
CONTINUOUS
 62
     3
 10
763.971165
 20
935.122729
 11
761.754717
 21
935.567824
  0
LINE
  8
CSLAYER1
  6
CONTINUOUS
 62
     3
 10
761.754717
 20
935.567824
 11
759.466687
 21
935.917572
  0
LINE
  8
CSLAYER1
  6
CONTINUOUS
 62
     3
 10
759.466687
 20
935.917572
 11
757.124488
 21
936.169311
  0
LINE
  8
CSLAYER1
  6
CONTINUOUS
 62
     3
 10
757.124488
 20
936.169311
 11
754.745946
 21
936.321125
  0
LINE
  8
CSLAYER1
  6
CONTINUOUS
 62
     3
 10
754.745946
 20
936.321125
 11
752.349163
 21
936.371858
  0
LINE
  8
CSLAYER1
  6
CONTINUOUS
 62
     3
 10
752.349163
 20
936.371858
 11
749.952380
 21
936.321125
  0
LINE
  8
CSLAYER1
  6
CONTINUOUS
 62
     3
 10
749.952380
 20
936.321125
 11
747.573838
 21
936.169311
  0
LINE
  8
CSLAYER1
  6
CONTINUOUS
 62
     3
 10
747.573838
 20
936.169311
 11
745.231639
 21
935.917572
  0
LINE
  8
CSLAYER1
  6
CONTINUOUS
 62
     3
 10
745.231639
 20
935.917572
 11
742.943609
 21
935.567824
  0
LINE
  8
CSLAYER1
  6
CONTINUOUS
 62
     3
 10
742.943609
 20
935.567824
 11
740.727161
 21
935.122729
  0
LINE
  8
CSLAYER1
  6
CONTINUOUS
 62
     3
 10
740.727161
 20
935.122729
 11
738.599163
 21
934.585673
  0
LINE
  8
CSLAYER1
  6
CONTINUOUS
 62
     3
 10
738.599163
 20
934.585673
 11
736.575811
 21
933.960745
  0
LINE
  8
CSLAYER1
  6
CONTINUOUS
 62
     3
 10
736.575811
 20
933.960745
 11
734.672504
 21
933.252701
  0
LINE
  8
CSLAYER1
  6
CONTINUOUS
 62
     3
 10
734.672504
 20
933.252701
 11
732.903727
 21
932.466928
  0
LINE
  8
CSLAYER1
  6
CONTINUOUS
 62
     3
 10
732.903727
 20
932.466928
 11
731.282941
 21
931.609408
  0
LINE
  8
CSLAYER1
  6
CONTINUOUS
 62
     3
 10
731.282941
 20
931.609408
 11
729.822482
 21
930.686666
  0
LINE
  8
CSLAYER1
  6
CONTINUOUS
 62
     3
 10
729.822482
 20
930.686666
 11
728.533465
 21
929.705726
  0
LINE
  8
CSLAYER1
  6
CONTINUOUS
 62
     3
 10
728.533465
 20
929.705726
 11
727.425699
 21
928.674052
  0
LINE
  8
CSLAYER1
  6
CONTINUOUS
 62
     3
 10
727.425699
 20
928.674052
 11
726.507616
 21
927.599497
  0
LINE
  8
CSLAYER1
  6
CONTINUOUS
 62
     3
 10
726.507616
 20
927.599497
 11
725.786203
 21
926.490238
  0
LINE
  8
CSLAYER1
  6
CONTINUOUS
 62
     3
 10
725.786203
 20
926.490238
 11
725.266950
 21
925.354717
  0
LINE
  8
CSLAYER1
  6
CONTINUOUS
 62
     3
 10
725.266950
 20
925.354717
 11
724.953809
 21
924.201577
  0
LINE
  8
CSLAYER1
  6
CONTINUOUS
 62
     3
 10
724.953809
 20
924.201577
 11
724.849163
 21
923.039594
  0
LINE
  8
CSLAYER1
  6
CONTINUOUS
 62
     3
 10
724.849163
 20
923.039594
 11
724.953809
 21
921.877610
  0
LINE
  8
CSLAYER1
  6
CONTINUOUS
 62
     3
 10
724.953809
 20
921.877610
 11
725.266950
 21
920.724470
  0
LINE
  8
CSLAYER1
  6
CONTINUOUS
 62
     3
 10
725.266950
 20
920.724470
 11
725.786203
 21
919.588950
  0
LINE
  8
CSLAYER1
  6
CONTINUOUS
 62
     3
 10
725.786203
 20
919.588950
 11
726.507616
 21
918.479691
  0
LINE
  8
CSLAYER1
  6
CONTINUOUS
 62
     3
 10
726.507616
 20
918.479691
 11
727.425699
 21
917.405135
  0
LINE
  8
CSLAYER1
  6
CONTINUOUS
 62
     3
 10
727.425699
 20
917.405135
 11
728.049163
 21
916.824496
  0
LINE
  8
CSLAYER1
  6
CONTINUOUS
 62
     3
 10
776.649163
 20
916.824496
 11
777.272627
 21
917.405135
  0
LINE
  8
CSLAYER1
  6
CONTINUOUS
 62
     3
 10
777.272627
 20
917.405135
 11
778.190710
 21
918.479691
  0
LINE
  8
CSLAYER1
  6
CONTINUOUS
 62
     3
 10
778.190710
 20
918.479691
 11
778.912123
 21
919.588950
  0
LINE
  8
CSLAYER1
  6
CONTINUOUS
 62
     3
 10
778.912123
 20
919.588950
 11
779.431376
 21
920.724470
  0
LINE
  8
CSLAYER1
  6
CONTINUOUS
 62
     3
 10
779.431376
 20
920.724470
 11
779.744517
 21
921.877610
  0
LINE
  8
CSLAYER1
  6
CONTINUOUS
 62
     3
 10
779.744517
 20
921.877610
 11
779.849163
 21
923.039594
  0
LINE
  8
CSLAYER1
  6
CONTINUOUS
 62
     3
 10
776.649163
 20
923.039594
 11
776.556694
 21
924.066364
  0
LINE
  8
CSLAYER1
  6
CONTINUOUS
 62
     3
 10
776.556694
 20
924.066364
 11
776.279992
 21
925.085321
  0
LINE
  8
CSLAYER1
  6
CONTINUOUS
 62
     3
 10
776.279992
 20
925.085321
 11
775.821161
 21
926.088708
  0
LINE
  8
CSLAYER1
  6
CONTINUOUS
 62
     3
 10
775.821161
 20
926.088708
 11
775.183694
 21
927.068890
  0
LINE
  8
CSLAYER1
  6
CONTINUOUS
 62
     3
 10
775.183694
 20
927.068890
 11
774.372442
 21
928.018406
  0
LINE
  8
CSLAYER1
  6
CONTINUOUS
 62
     3
 10
774.372442
 20
928.018406
 11
773.393580
 21
928.930031
  0
LINE
  8
CSLAYER1
  6
CONTINUOUS
 62
     3
 10
773.393580
 20
928.930031
 11
772.254558
 21
929.796825
  0
LINE
  8
CSLAYER1
  6
CONTINUOUS
 62
     3
 10
772.254558
 20
929.796825
 11
770.964043
 21
930.612193
  0
LINE
  8
CSLAYER1
  6
CONTINUOUS
 62
     3
 10
770.964043
 20
930.612193
 11
769.531858
 21
931.369929
  0
LINE
  8
CSLAYER1
  6
CONTINUOUS
 62
     3
 10
769.531858
 20
931.369929
 11
767.968902
 21
932.064267
  0
LINE
  8
CSLAYER1
  6
CONTINUOUS
 62
     3
 10
767.968902
 20
932.064267
 11
766.287071
 21
932.689920
  0
LINE
  8
CSLAYER1
  6
CONTINUOUS
 62
     3
 10
766.287071
 20
932.689920
 11
764.499163
 21
933.242130
  0
LINE
  8
CSLAYER1
  6
CONTINUOUS
 62
     3
 10
764.499163
 20
933.242130
 11
762.618787
 21
933.716691
  0
LINE
  8
CSLAYER1
  6
CONTINUOUS
 62
     3
 10
762.618787
 20
933.716691
 11
760.660253
 21
934.109994
  0
LINE
  8
CSLAYER1
  6
CONTINUOUS
 62
     3
 10
760.660253
 20
934.109994
 11
758.638466
 21
934.419044
  0
LINE
  8
CSLAYER1
  6
CONTINUOUS
 62
     3
 10
758.638466
 20
934.419044
 11
756.568814
 21
934.641489
  0
LINE
  8
CSLAYER1
  6
CONTINUOUS
 62
     3
 10
756.568814
 20
934.641489
 11
754.467048
 21
934.775638
  0
LINE
  8
CSLAYER1
  6
CONTINUOUS
 62
     3
 10
754.467048
 20
934.775638
 11
752.349163
 21
934.820467
  0
LINE
  8
CSLAYER1
  6
CONTINUOUS
 62
     3
 10
752.349163
 20
934.820467
 11
750.231279
 21
934.775638
  0
LINE
  8
CSLAYER1
  6
CONTINUOUS
 62
     3
 10
750.231279
 20
934.775638
 11
748.129512
 21
934.641489
  0
LINE
  8
CSLAYER1
  6
CONTINUOUS
 62
     3
 10
748.129512
 20
934.641489
 11
746.059860
 21
934.419044
  0
LINE
  8
CSLAYER1
  6
CONTINUOUS
 62
     3
 10
746.059860
 20
934.419044
 11
744.038074
 21
934.109994
  0
LINE
  8
CSLAYER1
  6
CONTINUOUS
 62
     3
 10
744.038074
 20
934.109994
 11
742.079539
 21
933.716691
  0
LINE
  8
CSLAYER1
  6
CONTINUOUS
 62
     3
 10
742.079539
 20
933.716691
 11
740.199163
 21
933.242130
  0
LINE
  8
CSLAYER1
  6
CONTINUOUS
 62
     3
 10
740.199163
 20
933.242130
 11
738.411256
 21
932.689920
  0
LINE
  8
CSLAYER1
  6
CONTINUOUS
 62
     3
 10
738.411256
 20
932.689920
 11
736.729424
 21
932.064267
  0
LINE
  8
CSLAYER1
  6
CONTINUOUS
 62
     3
 10
736.729424
 20
932.064267
 11
735.166468
 21
931.369929
  0
LINE
  8
CSLAYER1
  6
CONTINUOUS
 62
     3
 10
735.166468
 20
931.369929
 11
733.734283
 21
930.612193
  0
LINE
  8
CSLAYER1
  6
CONTINUOUS
 62
     3
 10
733.734283
 20
930.612193
 11
732.443768
 21
929.796825
  0
LINE
  8
CSLAYER1
  6
CONTINUOUS
 62
     3
 10
732.443768
 20
929.796825
 11
731.304746
 21
928.930031
  0
LINE
  8
CSLAYER1
  6
CONTINUOUS
 62
     3
 10
731.304746
 20
928.930031
 11
730.325884
 21
928.018406
  0
LINE
  8
CSLAYER1
  6
CONTINUOUS
 62
     3
 10
730.325884
 20
928.018406
 11
729.514632
 21
927.068890
  0
LINE
  8
CSLAYER1
  6
CONTINUOUS
 62
     3
 10
729.514632
 20
927.068890
 11
728.877166
 21
926.088708
  0
LINE
  8
CSLAYER1
  6
CONTINUOUS
 62
     3
 10
728.877166
 20
926.088708
 11
728.418335
 21
925.085321
  0
LINE
  8
CSLAYER1
  6
CONTINUOUS
 62
     3
 10
728.418335
 20
925.085321
 11
728.141632
 21
924.066364
  0
LINE
  8
CSLAYER1
  6
CONTINUOUS
 62
     3
 10
728.141632
 20
924.066364
 11
728.049163
 21
923.039594
  0
LINE
  8
CSLAYER1
  6
CONTINUOUS
 62
     3
 10
728.049163
 20
860.221777
 11
728.049163
 21
923.039594
  0
LINE
  8
CSLAYER1
  6
CONTINUOUS
 62
     3
 10
774.849163
 20
829.632881
 11
774.849163
 21
860.221777
  0
LINE
  8
CSLAYER1
  6
CONTINUOUS
 62
     3
 10
774.849163
 20
860.221777
 11
774.763544
 21
861.172491
  0
LINE
  8
CSLAYER1
  6
CONTINUOUS
 62
     3
 10
774.763544
 20
861.172491
 11
774.507338
 21
862.115969
  0
LINE
  8
CSLAYER1
  6
CONTINUOUS
 62
     3
 10
774.507338
 20
862.115969
 11
774.082494
 21
863.045031
  0
LINE
  8
CSLAYER1
  6
CONTINUOUS
 62
     3
 10
774.082494
 20
863.045031
 11
773.492247
 21
863.952607
  0
LINE
  8
CSLAYER1
  6
CONTINUOUS
 62
     3
 10
773.492247
 20
863.952607
 11
772.741088
 21
864.831789
  0
LINE
  8
CSLAYER1
  6
CONTINUOUS
 62
     3
 10
772.741088
 20
864.831789
 11
771.834735
 21
865.675885
  0
LINE
  8
CSLAYER1
  6
CONTINUOUS
 62
     3
 10
771.834735
 20
865.675885
 11
770.780084
 21
866.478473
  0
LINE
  8
CSLAYER1
  6
CONTINUOUS
 62
     3
 10
770.780084
 20
866.478473
 11
769.585163
 21
867.233443
  0
LINE
  8
CSLAYER1
  6
CONTINUOUS
 62
     3
 10
769.585163
 20
867.233443
 11
768.259066
 21
867.935051
  0
LINE
  8
CSLAYER1
  6
CONTINUOUS
 62
     3
 10
768.259066
 20
867.935051
 11
766.811884
 21
868.577956
  0
LINE
  8
CSLAYER1
  6
CONTINUOUS
 62
     3
 10
766.811884
 20
868.577956
 11
765.254633
 21
869.157265
  0
LINE
  8
CSLAYER1
  6
CONTINUOUS
 62
     3
 10
765.254633
 20
869.157265
 11
763.599163
 21
869.668570
  0
LINE
  8
CSLAYER1
  6
CONTINUOUS
 62
     3
 10
763.599163
 20
869.668570
 11
761.858074
 21
870.107979
  0
LINE
  8
CSLAYER1
  6
CONTINUOUS
 62
     3
 10
761.858074
 20
870.107979
 11
760.044616
 21
870.472148
  0
LINE
  8
CSLAYER1
  6
CONTINUOUS
 62
     3
 10
760.044616
 20
870.472148
 11
758.172592
 21
870.758305
  0
LINE
  8
CSLAYER1
  6
CONTINUOUS
 62
     3
 10
758.172592
 20
870.758305
 11
756.256247
 21
870.964273
  0
LINE
  8
CSLAYER1
  6
CONTINUOUS
 62
     3
 10
756.256247
 20
870.964273
 11
754.310167
 21
871.088484
  0
LINE
  8
CSLAYER1
  6
CONTINUOUS
 62
     3
 10
754.310167
 20
871.088484
 11
752.349163
 21
871.129993
  0
LINE
  8
CSLAYER1
  6
CONTINUOUS
 62
     3
 10
752.349163
 20
871.129993
 11
750.388159
 21
871.088484
  0
LINE
  8
CSLAYER1
  6
CONTINUOUS
 62
     3
 10
750.388159
 20
871.088484
 11
748.442079
 21
870.964273
  0
LINE
  8
CSLAYER1
  6
CONTINUOUS
 62
     3
 10
748.442079
 20
870.964273
 11
746.525735
 21
870.758305
  0
LINE
  8
CSLAYER1
  6
CONTINUOUS
 62
     3
 10
746.525735
 20
870.758305
 11
744.653710
 21
870.472148
  0
LINE
  8
CSLAYER1
  6
CONTINUOUS
 62
     3
 10
744.653710
 20
870.472148
 11
742.840252
 21
870.107979
  0
LINE
  8
CSLAYER1
  6
CONTINUOUS
 62
     3
 10
742.840252
 20
870.107979
 11
741.099163
 21
869.668570
  0
LINE
  8
CSLAYER1
  6
CONTINUOUS
 62
     3
 10
741.099163
 20
869.668570
 11
739.443693
 21
869.157265
  0
LINE
  8
CSLAYER1
  6
CONTINUOUS
 62
     3
 10
739.443693
 20
869.157265
 11
737.886442
 21
868.577956
  0
LINE
  8
CSLAYER1
  6
CONTINUOUS
 62
     3
 10
737.886442
 20
868.577956
 11
736.439261
 21
867.935051
  0
LINE
  8
CSLAYER1
  6
CONTINUOUS
 62
     3
 10
736.439261
 20
867.935051
 11
735.113163
 21
867.233443
  0
LINE
  8
CSLAYER1
  6
CONTINUOUS
 62
     3
 10
735.113163
 20
867.233443
 11
733.918242
 21
866.478473
  0
LINE
  8
CSLAYER1
  6
CONTINUOUS
 62
     3
 10
733.918242
 20
866.478473
 11
732.863592
 21
865.675885
  0
LINE
  8
CSLAYER1
  6
CONTINUOUS
 62
     3
 10
732.863592
 20
865.675885
 11
731.957238
 21
864.831789
  0
LINE
  8
CSLAYER1
  6
CONTINUOUS
 62
     3
 10
731.957238
 20
864.831789
 11
731.206079
 21
863.952607
  0
LINE
  8
CSLAYER1
  6
CONTINUOUS
 62
     3
 10
731.206079
 20
863.952607
 11
730.615832
 21
863.045031
  0
LINE
  8
CSLAYER1
  6
CONTINUOUS
 62
     3
 10
730.615832
 20
863.045031
 11
730.190989
 21
862.115969
  0
LINE
  8
CSLAYER1
  6
CONTINUOUS
 62
     3
 10
730.190989
 20
862.115969
 11
729.934782
 21
861.172491
  0
LINE
  8
CSLAYER1
  6
CONTINUOUS
 62
     3
 10
729.934782
 20
861.172491
 11
729.849163
 21
860.221777
  0
LINE
  8
CSLAYER1
  6
CONTINUOUS
 62
     3
 10
729.849163
 20
860.221777
 11
729.934782
 21
859.271063
  0
LINE
  8
CSLAYER1
  6
CONTINUOUS
 62
     3
 10
776.649163
 20
860.221777
 11
776.556694
 21
861.248548
  0
LINE
  8
CSLAYER1
  6
CONTINUOUS
 62
     3
 10
776.556694
 20
861.248548
 11
776.279992
 21
862.267504
  0
LINE
  8
CSLAYER1
  6
CONTINUOUS
 62
     3
 10
776.279992
 20
862.267504
 11
775.821161
 21
863.270892
  0
LINE
  8
CSLAYER1
  6
CONTINUOUS
 62
     3
 10
775.821161
 20
863.270892
 11
775.183694
 21
864.251073
  0
LINE
  8
CSLAYER1
  6
CONTINUOUS
 62
     3
 10
775.183694
 20
864.251073
 11
774.372442
 21
865.200589
  0
LINE
  8
CSLAYER1
  6
CONTINUOUS
 62
     3
 10
774.372442
 20
865.200589
 11
773.393580
 21
866.112214
  0
LINE
  8
CSLAYER1
  6
CONTINUOUS
 62
     3
 10
773.393580
 20
866.112214
 11
772.254558
 21
866.979009
  0
LINE
  8
CSLAYER1
  6
CONTINUOUS
 62
     3
 10
772.254558
 20
866.979009
 11
770.964043
 21
867.794377
  0
LINE
  8
CSLAYER1
  6
CONTINUOUS
 62
     3
 10
770.964043
 20
867.794377
 11
769.531858
 21
868.552113
  0
LINE
  8
CSLAYER1
  6
CONTINUOUS
 62
     3
 10
769.531858
 20
868.552113
 11
767.968902
 21
869.246450
  0
LINE
  8
CSLAYER1
  6
CONTINUOUS
 62
     3
 10
767.968902
 20
869.246450
 11
766.287071
 21
869.872104
  0
LINE
  8
CSLAYER1
  6
CONTINUOUS
 62
     3
 10
766.287071
 20
869.872104
 11
764.499163
 21
870.424313
  0
LINE
  8
CSLAYER1
  6
CONTINUOUS
 62
     3
 10
764.499163
 20
870.424313
 11
762.618787
 21
870.898875
  0
LINE
  8
CSLAYER1
  6
CONTINUOUS
 62
     3
 10
762.618787
 20
870.898875
 11
760.660253
 21
871.292177
  0
LINE
  8
CSLAYER1
  6
CONTINUOUS
 62
     3
 10
760.660253
 20
871.292177
 11
758.638466
 21
871.601227
  0
LINE
  8
CSLAYER1
  6
CONTINUOUS
 62
     3
 10
758.638466
 20
871.601227
 11
756.568814
 21
871.823673
  0
LINE
  8
CSLAYER1
  6
CONTINUOUS
 62
     3
 10
756.568814
 20
871.823673
 11
754.467048
 21
871.957821
  0
LINE
  8
CSLAYER1
  6
CONTINUOUS
 62
     3
 10
754.467048
 20
871.957821
 11
752.349163
 21
872.002651
  0
LINE
  8
CSLAYER1
  6
CONTINUOUS
 62
     3
 10
752.349163
 20
872.002651
 11
750.231279
 21
871.957821
  0
LINE
  8
CSLAYER1
  6
CONTINUOUS
 62
     3
 10
750.231279
 20
871.957821
 11
748.129512
 21
871.823673
  0
LINE
  8
CSLAYER1
  6
CONTINUOUS
 62
     3
 10
748.129512
 20
871.823673
 11
746.059860
 21
871.601227
  0
LINE
  8
CSLAYER1
  6
CONTINUOUS
 62
     3
 10
746.059860
 20
871.601227
 11
744.038074
 21
871.292177
  0
LINE
  8
CSLAYER1
  6
CONTINUOUS
 62
     3
 10
744.038074
 20
871.292177
 11
742.079539
 21
870.898875
  0
LINE
  8
CSLAYER1
  6
CONTINUOUS
 62
     3
 10
742.079539
 20
870.898875
 11
740.199163
 21
870.424313
  0
LINE
  8
CSLAYER1
  6
CONTINUOUS
 62
     3
 10
740.199163
 20
870.424313
 11
738.411256
 21
869.872104
  0
LINE
  8
CSLAYER1
  6
CONTINUOUS
 62
     3
 10
738.411256
 20
869.872104
 11
736.729424
 21
869.246450
  0
LINE
  8
CSLAYER1
  6
CONTINUOUS
 62
     3
 10
736.729424
 20
869.246450
 11
735.166468
 21
868.552113
  0
LINE
  8
CSLAYER1
  6
CONTINUOUS
 62
     3
 10
735.166468
 20
868.552113
 11
733.734283
 21
867.794377
  0
LINE
  8
CSLAYER1
  6
CONTINUOUS
 62
     3
 10
733.734283
 20
867.794377
 11
732.443768
 21
866.979009
  0
LINE
  8
CSLAYER1
  6
CONTINUOUS
 62
     3
 10
732.443768
 20
866.979009
 11
731.304746
 21
866.112214
  0
LINE
  8
CSLAYER1
  6
CONTINUOUS
 62
     3
 10
731.304746
 20
866.112214
 11
730.325884
 21
865.200589
  0
LINE
  8
CSLAYER1
  6
CONTINUOUS
 62
     3
 10
730.325884
 20
865.200589
 11
729.514632
 21
864.251073
  0
LINE
  8
CSLAYER1
  6
CONTINUOUS
 62
     3
 10
729.514632
 20
864.251073
 11
728.877166
 21
863.270892
  0
LINE
  8
CSLAYER1
  6
CONTINUOUS
 62
     3
 10
728.877166
 20
863.270892
 11
728.418335
 21
862.267504
  0
LINE
  8
CSLAYER1
  6
CONTINUOUS
 62
     3
 10
728.418335
 20
862.267504
 11
728.141632
 21
861.248548
  0
LINE
  8
CSLAYER1
  6
CONTINUOUS
 62
     3
 10
728.141632
 20
861.248548
 11
728.049163
 21
860.221777
  0
LINE
  8
CSLAYER1
  6
CONTINUOUS
 62
     3
 10
728.049163
 20
860.221777
 11
728.141632
 21
859.195006
  0
LINE
  8
CSLAYER1
  6
CONTINUOUS
 62
     3
 10
728.141632
 20
859.195006
 11
728.434650
 21
858.115967
  0
LINE
  8
CSLAYER1
  6
CONTINUOUS
 62
     3
 10
729.349163
 20
856.446910
 11
729.849163
 21
855.800935
  0
LINE
  8
CSLAYER1
  6
CONTINUOUS
 62
     3
 10
776.263676
 20
858.115967
 11
776.556694
 21
859.195006
  0
LINE
  8
CSLAYER1
  6
CONTINUOUS
 62
     3
 10
776.556694
 20
859.195006
 11
776.649163
 21
860.221777
  0
LINE
  8
CSLAYER1
  6
CONTINUOUS
 62
     3
 10
729.849163
 20
829.632881
 11
729.849163
 21
860.221777
  0
LINE
  8
CSLAYER1
  6
CONTINUOUS
 62
     3
 10
774.849163
 20
829.632881
 11
774.763544
 21
830.583595
  0
LINE
  8
CSLAYER1
  6
CONTINUOUS
 62
     3
 10
774.763544
 20
830.583595
 11
774.507338
 21
831.527073
  0
LINE
  8
CSLAYER1
  6
CONTINUOUS
 62
     3
 10
774.507338
 20
831.527073
 11
774.082494
 21
832.456135
  0
LINE
  8
CSLAYER1
  6
CONTINUOUS
 62
     3
 10
774.082494
 20
832.456135
 11
773.492247
 21
833.363711
  0
LINE
  8
CSLAYER1
  6
CONTINUOUS
 62
     3
 10
773.492247
 20
833.363711
 11
772.741088
 21
834.242893
  0
LINE
  8
CSLAYER1
  6
CONTINUOUS
 62
     3
 10
772.741088
 20
834.242893
 11
771.834735
 21
835.086989
  0
LINE
  8
CSLAYER1
  6
CONTINUOUS
 62
     3
 10
771.834735
 20
835.086989
 11
770.780084
 21
835.889577
  0
LINE
  8
CSLAYER1
  6
CONTINUOUS
 62
     3
 10
770.780084
 20
835.889577
 11
769.585163
 21
836.644547
  0
LINE
  8
CSLAYER1
  6
CONTINUOUS
 62
     3
 10
769.585163
 20
836.644547
 11
768.259066
 21
837.346155
  0
LINE
  8
CSLAYER1
  6
CONTINUOUS
 62
     3
 10
768.259066
 20
837.346155
 11
766.811884
 21
837.989060
  0
LINE
  8
CSLAYER1
  6
CONTINUOUS
 62
     3
 10
766.811884
 20
837.989060
 11
765.254633
 21
838.568369
  0
LINE
  8
CSLAYER1
  6
CONTINUOUS
 62
     3
 10
765.254633
 20
838.568369
 11
763.599163
 21
839.079674
  0
LINE
  8
CSLAYER1
  6
CONTINUOUS
 62
     3
 10
763.599163
 20
839.079674
 11
761.858074
 21
839.519083
  0
LINE
  8
CSLAYER1
  6
CONTINUOUS
 62
     3
 10
761.858074
 20
839.519083
 11
760.044616
 21
839.883252
  0
LINE
  8
CSLAYER1
  6
CONTINUOUS
 62
     3
 10
760.044616
 20
839.883252
 11
758.172592
 21
840.169409
  0
LINE
  8
CSLAYER1
  6
CONTINUOUS
 62
     3
 10
758.172592
 20
840.169409
 11
756.256247
 21
840.375377
  0
LINE
  8
CSLAYER1
  6
CONTINUOUS
 62
     3
 10
756.256247
 20
840.375377
 11
754.310167
 21
840.499588
  0
LINE
  8
CSLAYER1
  6
CONTINUOUS
 62
     3
 10
754.310167
 20
840.499588
 11
752.349163
 21
840.541098
  0
LINE
  8
CSLAYER1
  6
CONTINUOUS
 62
     3
 10
752.349163
 20
840.541098
 11
750.388159
 21
840.499588
  0
LINE
  8
CSLAYER1
  6
CONTINUOUS
 62
     3
 10
750.388159
 20
840.499588
 11
748.442079
 21
840.375377
  0
LINE
  8
CSLAYER1
  6
CONTINUOUS
 62
     3
 10
748.442079
 20
840.375377
 11
746.525735
 21
840.169409
  0
LINE
  8
CSLAYER1
  6
CONTINUOUS
 62
     3
 10
746.525735
 20
840.169409
 11
744.653710
 21
839.883252
  0
LINE
  8
CSLAYER1
  6
CONTINUOUS
 62
     3
 10
744.653710
 20
839.883252
 11
742.840252
 21
839.519083
  0
LINE
  8
CSLAYER1
  6
CONTINUOUS
 62
     3
 10
742.840252
 20
839.519083
 11
741.099163
 21
839.079674
  0
LINE
  8
CSLAYER1
  6
CONTINUOUS
 62
     3
 10
741.099163
 20
839.079674
 11
739.443693
 21
838.568369
  0
LINE
  8
CSLAYER1
  6
CONTINUOUS
 62
     3
 10
739.443693
 20
838.568369
 11
737.886442
 21
837.989060
  0
LINE
  8
CSLAYER1
  6
CONTINUOUS
 62
     3
 10
737.886442
 20
837.989060
 11
736.439261
 21
837.346155
  0
LINE
  8
CSLAYER1
  6
CONTINUOUS
 62
     3
 10
736.439261
 20
837.346155
 11
735.113163
 21
836.644547
  0
LINE
  8
CSLAYER1
  6
CONTINUOUS
 62
     3
 10
735.113163
 20
836.644547
 11
733.918242
 21
835.889577
  0
LINE
  8
CSLAYER1
  6
CONTINUOUS
 62
     3
 10
733.918242
 20
835.889577
 11
732.863592
 21
835.086989
  0
LINE
  8
CSLAYER1
  6
CONTINUOUS
 62
     3
 10
732.863592
 20
835.086989
 11
731.957238
 21
834.242893
  0
LINE
  8
CSLAYER1
  6
CONTINUOUS
 62
     3
 10
731.957238
 20
834.242893
 11
731.206079
 21
833.363711
  0
LINE
  8
CSLAYER1
  6
CONTINUOUS
 62
     3
 10
731.206079
 20
833.363711
 11
730.615832
 21
832.456135
  0
LINE
  8
CSLAYER1
  6
CONTINUOUS
 62
     3
 10
730.615832
 20
832.456135
 11
730.190989
 21
831.527073
  0
LINE
  8
CSLAYER1
  6
CONTINUOUS
 62
     3
 10
730.190989
 20
831.527073
 11
729.934782
 21
830.583595
  0
LINE
  8
CSLAYER1
  6
CONTINUOUS
 62
     3
 10
729.934782
 20
830.583595
 11
729.849163
 21
829.632881
  0
LINE
  8
CSLAYER1
  6
CONTINUOUS
 62
     3
 10
729.849163
 20
829.632881
 11
729.934782
 21
828.682167
  0
LINE
  8
CSLAYER1
  6
CONTINUOUS
 62
     3
 10
729.934782
 20
828.682167
 11
730.190989
 21
827.738689
  0
LINE
  8
CSLAYER1
  6
CONTINUOUS
 62
     3
 10
730.190989
 20
827.738689
 11
730.615832
 21
826.809627
  0
LINE
  8
CSLAYER1
  6
CONTINUOUS
 62
     3
 10
730.615832
 20
826.809627
 11
731.206079
 21
825.902051
  0
LINE
  8
CSLAYER1
  6
CONTINUOUS
 62
     3
 10
731.206079
 20
825.902051
 11
731.957238
 21
825.022870
  0
LINE
  8
CSLAYER1
  6
CONTINUOUS
 62
     3
 10
731.957238
 20
825.022870
 11
732.845657
 21
824.195475
  0
LINE
  8
CSLAYER1
  6
CONTINUOUS
 62
     3
 10
771.852669
 20
824.195475
 11
772.741088
 21
825.022870
  0
LINE
  8
CSLAYER1
  6
CONTINUOUS
 62
     3
 10
772.741088
 20
825.022870
 11
773.492247
 21
825.902051
  0
LINE
  8
CSLAYER1
  6
CONTINUOUS
 62
     3
 10
773.492247
 20
825.902051
 11
774.082494
 21
826.809627
  0
LINE
  8
CSLAYER1
  6
CONTINUOUS
 62
     3
 10
774.082494
 20
826.809627
 11
774.507338
 21
827.738689
  0
LINE
  8
CSLAYER1
  6
CONTINUOUS
 62
     3
 10
774.507338
 20
827.738689
 11
774.763544
 21
828.682167
  0
LINE
  8
CSLAYER1
  6
CONTINUOUS
 62
     3
 10
774.763544
 20
828.682167
 11
774.849163
 21
829.632881
  0
LINE
  8
CSLAYER1
  6
CENTER
 62
     5
 10
718.301169
 20
832.701485
 11
729.349163
 21
832.701485
  0
LINE
  8
CSLAYER1
  6
CONTINUOUS
 62
     3
 10
723.349163
 20
858.115967
 11
729.349163
 21
858.115967
  0
LINE
  8
CSLAYER1
  6
CONTINUOUS
 62
     3
 10
723.349163
 20
804.572487
 11
729.349163
 21
804.572487
  0
LINE
  8
CSLAYER1
  6
CONTINUOUS
 62
     3
 10
683.849163
 20
824.035238
 11
686.849163
 21
824.035238
  0
LINE
  8
CSLAYER1
  6
CONTINUOUS
 62
     3
 10
775.349163
 20
856.446910
 11
774.849163
 21
855.800935
  0
LINE
  8
CSLAYER1
  6
CONTINUOUS
 62
     3
 10
775.349163
 20
858.115967
 11
781.349163
 21
858.115967
  0
LINE
  8
CSLAYER1
  6
CONTINUOUS
 62
     3
 10
775.349163
 20
804.572487
 11
781.349163
 21
804.572487
  0
LINE
  8
CSLAYER1
  6
CONTINUOUS
 62
     3
 10
695.849163
 20
824.035238
 11
708.199163
 21
824.035238
  0
LINE
  8
CSLAYER1
  6
CONTINUOUS
 62
     3
 10
729.349163
 20
824.035238
 11
775.349163
 21
824.035238
  0
LINE
  8
CSLAYER1
  6
CONTINUOUS
 62
     3
 10
796.849163
 20
824.035238
 11
799.849163
 21
824.035238
  0
LINE
  8
CSLAYER1
  6
CONTINUOUS
 62
     3
 10
781.349163
 20
824.035238
 11
787.849163
 21
824.035238
  0
LINE
  8
CSLAYER1
  6
CONTINUOUS
 62
     3
 10
695.849163
 20
994.026829
 11
734.349163
 21
994.026829
  0
LINE
  8
CSLAYER1
  6
CONTINUOUS
 62
     3
 10
695.849163
 20
992.018406
 11
734.349163
 21
992.018406
  0
LINE
  8
CSLAYER1
  6
CONTINUOUS
 62
     3
 10
770.349163
 20
994.026829
 11
787.849163
 21
994.026829
  0
LINE
  8
CSLAYER1
  6
CONTINUOUS
 62
     3
 10
770.349163
 20
992.018406
 11
787.849163
 21
992.018406
  0
LINE
  8
CSLAYER1
  6
CONTINUOUS
 62
     3
 10
708.199163
 20
792.492170
 11
708.199163
 21
874.790806
  0
LINE
  8
CSLAYER1
  6
CONTINUOUS
 62
     3
 10
716.499163
 20
792.492170
 11
716.499163
 21
874.790806
  0
LINE
  8
CSLAYER1
  6
CONTINUOUS
 62
     3
 10
716.499163
 20
824.035238
 11
723.349163
 21
824.035238
  0
LINE
  8
CSLAYER1
  6
CENTER
 62
     5
 10
1478.318079
 20
842.115967
 11
1686.853096
 21
1155.108550
  0
ARC
  8
CSLAYER1
  6
CONTINUOUS
 62
     3
 10
1686.853096
 20
1155.108550
 40
8.000000
 50
32.176883
 51
250.071831
  0
POINT
  8
CSLAYER1
 62
     3
 10
1686.853096
 20
1155.108550
  0
LINE
  8
CSLAYER1
  6
CONTINUOUS
 62
     3
 10
1549.280752
 20
981.088264
 11
1650.791035
 21
1133.446204
  0
CIRCLE
  8
CSLAYER1
  6
CONTINUOUS
 62
     4
 10
1695.907321
 20
1100.858932
 40
8.500000
  0
LINE
  8
CSLAYER1
  6
CONTINUOUS
 62
     4
 10
1695.884599
 20
1110.673861
 11
1687.395983
 21
1105.746719
  0
LINE
  8
CSLAYER1
  6
CONTINUOUS
 62
     4
 10
1687.395983
 20
1105.746719
 11
1687.418704
 21
1095.931791
  0
LINE
  8
CSLAYER1
  6
CONTINUOUS
 62
     4
 10
1687.418704
 20
1095.931791
 11
1695.930042
 21
1091.044004
  0
LINE
  8
CSLAYER1
  6
CONTINUOUS
 62
     4
 10
1695.930042
 20
1091.044004
 11
1704.418659
 21
1095.971146
  0
LINE
  8
CSLAYER1
  6
CONTINUOUS
 62
     4
 10
1704.418659
 20
1095.971146
 11
1704.395937
 21
1105.786074
  0
LINE
  8
CSLAYER1
  6
CONTINUOUS
 62
     4
 10
1704.395937
 20
1105.786074
 11
1695.884599
 21
1110.673861
  0
CIRCLE
  8
CSLAYER1
  6
CONTINUOUS
 62
     5
 10
1695.907321
 20
1100.858932
 40
5.000000
  0
CIRCLE
  8
CSLAYER1
  6
CONTINUOUS
 62
     4
 10
1695.907321
 20
1100.858932
 40
4.300000
  0
POINT
  8
CSLAYER1
 62
     4
 10
1695.907321
 20
1100.858932
  0
LINE
  8
CSLAYER1
  6
CONTINUOUS
 62
     4
 10
1748.405182
 20
1148.450681
 11
1739.355834
 21
1130.056135
  0
LINE
  8
CSLAYER1
  6
CONTINUOUS
 62
     4
 10
1748.405182
 20
1148.450681
 11
1939.832992
 21
1385.896240
  0
LINE
  8
CSLAYER1
  6
CONTINUOUS
 62
     4
 10
1939.832992
 20
1385.896240
 11
1949.958289
 21
1436.485580
  0
LINE
  8
CSLAYER1
  6
CONTINUOUS
 62
     4
 10
1443.125266
 20
848.651710
 11
1917.034952
 21
1436.485580
  0
LINE
  8
CSLAYER1
  6
CONTINUOUS
 62
     4
 10
1482.654279
 20
811.645533
 11
1739.355834
 21
1130.056135
  0
LINE
  8
CSLAYER1
  6
CONTINUOUS
 62
     4
 10
1443.125266
 20
848.651710
 11
1421.575210
 21
787.559116
  0
LINE
  8
CSLAYER1
  6
CONTINUOUS
 62
     4
 10
1464.001640
 20
792.492170
 11
1476.942211
 21
808.543553
  0
LINE
  8
CSLAYER1
  6
CONTINUOUS
 62
     4
 10
1476.942211
 20
808.543553
 11
1482.654279
 21
811.645533
  0
POINT
  8
CSLAYER1
 62
     4
 10
1429.163651
 20
769.992170
  0
LINE
  8
CSLAYER1
  6
CONTINUOUS
 62
     4
 10
1483.281912
 20
812.424043
 11
1483.671167
 21
812.110227
  0
CIRCLE
  8
CSLAYER1
  6
CONTINUOUS
 62
     4
 10
1478.318079
 20
842.115967
 40
8.000000
  0
LINE
  8
CSLAYER1
  6
CONTINUOUS
 62
     4
 10
1488.360194
 20
854.572128
 11
1495.756039
 21
848.609622
  0
ARC
  8
CSLAYER1
  6
CONTINUOUS
 62
     4
 10
1478.318079
 20
842.115967
 40
16.000000
 50
51.124357
 51
102.499524
  0
POINT
  8
CSLAYER1
 62
     4
 10
1478.318079
 20
842.115967
  0
LINE
  8
CSLAYER1
  6
CONTINUOUS
 62
     4
 10
1483.671167
 20
812.110227
 11
1467.855155
 21
792.492170
  0
POINT
  8
CSLAYER1
 62
     7
 10
1686.853096
 20
1155.108550
  0
LINE
  8
CSLAYER1
  6
CONTINUOUS
 62
     7
 10
1731.277962
 20
1039.459277
 11
1930.382011
 21
792.492170
  0
CIRCLE
  8
CSLAYER1
  6
DASHED
 62
     5
 10
1962.650990
 20
769.992170
 40
13.000000
  0
POINT
  8
CSLAYER1
 62
     7
 10
1962.650990
 20
769.992170
  0
POINT
  8
CSLAYER1
 62
     7
 10
1695.907321
 20
1100.858932
  0
LINE
  8
CSLAYER1
  6
CONTINUOUS
 62
     7
 10
1961.242018
 20
833.081509
 11
1969.365846
 21
792.492170
  0
LINE
  8
CSLAYER1
  6
CONTINUOUS
 62
     7
 10
1469.209477
 20
1443.394828
 11
1695.907321
 21
1162.200594
  0
LINE
  8
CSLAYER1
  6
CONTINUOUS
 62
     7
 10
1474.613526
 20
1381.515224
 11
1441.630162
 21
1438.485580
  0
ARC
  8
CSLAYER1
  6
CONTINUOUS
 62
     7
 10
1465.959298
 20
1376.504802
 40
10.000000
 50
2.933531
 51
30.068979
  0
LINE
  8
CSLAYER1
  6
CONTINUOUS
 62
     7
 10
1475.946194
 20
1377.016576
 11
1476.920936
 21
1357.995201
  0
ARC
  8
CSLAYER1
  6
CONTINUOUS
 62
     7
 10
1486.907832
 20
1358.506975
 40
10.000000
 50
182.933531
 51
218.875643
  0
LINE
  8
CSLAYER1
  6
CONTINUOUS
 62
     7
 10
1652.458807
 20
1130.056135
 11
1661.225687
 21
1119.181767
  0
LINE
  8
CSLAYER1
  6
CONTINUOUS
 62
     7
 10
1731.277962
 20
1039.459277
 11
1715.222023
 21
1052.205132
  0
LINE
  8
CSLAYER1
  6
CONTINUOUS
 62
     7
 10
1643.409459
 20
1148.450681
 11
1652.458807
 21
1130.056135
  0
LINE
  8
CSLAYER1
  6
CONTINUOUS
 62
     7
 10
1643.409459
 20
1148.450681
 11
1479.122731
 21
1352.230654
  0
CIRCLE
  8
CSLAYER1
  6
CONTINUOUS
 62
     7
 10
1695.907321
 20
1100.858932
 40
7.500000
  0
ARC
  8
CSLAYER1
  6
CONTINUOUS
 62
     7
 10
1686.853096
 20
1155.108550
 40
17.000000
 50
42.335098
 51
86.307189
  0
POINT
  8
CSLAYER1
 62
     5
 10
1686.853096
 20
1155.108550
  0
CIRCLE
  8
CSLAYER1
  6
CONTINUOUS
 62
     2
 10
1478.318079
 20
842.115967
 40
8.250000
  0
LINE
  8
CSLAYER1
  6
CONTINUOUS
 62
     4
 10
1545.119723
 20
983.860598
 11
1549.680467
 21
980.821948
  0
LINE
  8
CSLAYER1
  6
CONTINUOUS
 62
     4
 10
1511.711321
 20
940.029916
 11
1515.017951
 21
937.826835
  0
LINE
  8
CSLAYER1
  6
CONTINUOUS
 62
     4
 10
1511.433582
 20
941.416589
 11
1530.285458
 21
969.711585
  0
LINE
  8
CSLAYER1
  6
CONTINUOUS
 62
     4
 10
1530.285458
 20
969.711585
 11
1545.119723
 21
983.860598
  0
LINE
  8
CSLAYER1
  6
CONTINUOUS
 62
     2
 10
1535.419078
 20
960.283120
 11
1545.565823
 21
975.512485
  0
LINE
  8
CSLAYER1
  6
CONTINUOUS
 62
     4
 10
1511.433582
 20
941.416589
 11
1511.711321
 21
940.029916
  0
LINE
  8
CSLAYER1
  6
CONTINUOUS
 62
     4
 10
1502.741443
 20
922.599149
 11
1513.542174
 21
938.810089
  0
POINT
  8
CSLAYER1
 62
     5
 10
1478.318079
 20
842.115967
  0
CIRCLE
  8
CSLAYER1
  6
CONTINUOUS
 62
     3
 10
1429.163651
 20
769.992170
 40
9.500000
  0
LINE
  8
CSLAYER1
  6
CONTINUOUS
 62
     3
 10
1438.663651
 20
775.476997
 11
1429.163651
 21
780.961825
  0
LINE
  8
CSLAYER1
  6
CONTINUOUS
 62
     3
 10
1429.163651
 20
780.961825
 11
1419.663651
 21
775.476997
  0
LINE
  8
CSLAYER1
  6
CONTINUOUS
 62
     3
 10
1419.663651
 20
775.476997
 11
1419.663651
 21
764.507342
  0
LINE
  8
CSLAYER1
  6
CONTINUOUS
 62
     3
 10
1419.663651
 20
764.507342
 11
1429.163651
 21
759.022514
  0
LINE
  8
CSLAYER1
  6
CONTINUOUS
 62
     3
 10
1429.163651
 20
759.022514
 11
1438.663651
 21
764.507342
  0
LINE
  8
CSLAYER1
  6
CONTINUOUS
 62
     3
 10
1438.663651
 20
764.507342
 11
1438.663651
 21
775.476997
  0
POINT
  8
CSLAYER1
 62
     3
 10
1429.163651
 20
769.992170
  0
LINE
  8
CSLAYER1
  6
CONTINUOUS
 62
     3
 10
1404.163651
 20
792.492170
 11
1404.163651
 21
752.492170
  0
LINE
  8
CSLAYER1
  6
CONTINUOUS
 62
     3
 10
2307.163651
 20
792.492170
 11
2307.163651
 21
752.492170
  0
LINE
  8
CSLAYER1
  6
CONTINUOUS
 62
     3
 10
1404.163651
 20
792.492170
 11
1417.707212
 21
792.492170
  0
LINE
  8
CSLAYER1
  6
CONTINUOUS
 62
     3
 10
1440.620090
 20
792.492170
 11
2307.163651
 21
792.492170
  0
ARC
  8
CSLAYER1
  6
CONTINUOUS
 62
     3
 10
1429.163651
 20
797.492170
 40
12.500000
 50
203.578178
 51
336.421822
  0
LINE
  8
CSLAYER1
  6
CONTINUOUS
 62
     7
 10
1730.588955
 20
1119.181767
 11
1961.242018
 21
833.081509
  0
LINE
  8
CSLAYER1
  6
CONTINUOUS
 62
     7
 10
1695.907321
 20
1076.162939
 11
1715.222023
 21
1052.205132
  0
LINE
  8
CSLAYER1
  6
CONTINUOUS
 62
     4
 10
1464.193279
 20
844.511799
 11
1482.394611
 21
867.088590
  0
ARC
  8
CSLAYER1
  6
CONTINUOUS
 62
     4
 10
1466.528809
 20
842.628903
 40
3.000000
 50
141.124357
 51
231.124357
  0
LINE
  8
CSLAYER1
  6
CONTINUOUS
 62
     4
 10
1464.645912
 20
840.293373
 11
1477.102073
 21
830.251258
  0
ARC
  8
CSLAYER1
  6
CONTINUOUS
 62
     4
 10
1478.984969
 20
832.586788
 40
3.000000
 50
231.124357
 51
321.124357
  0
LINE
  8
CSLAYER1
  6
CONTINUOUS
 62
     4
 10
1481.320499
 20
830.703892
 11
1499.521832
 21
853.280682
  0
ARC
  8
CSLAYER1
  6
CONTINUOUS
 62
     4
 10
1497.186302
 20
855.163579
 40
3.000000
 50
-38.875643
 51
51.124357
  0
LINE
  8
CSLAYER1
  6
CONTINUOUS
 62
     4
 10
1486.613038
 20
867.541224
 11
1499.069198
 21
857.499109
  0
ARC
  8
CSLAYER1
  6
CONTINUOUS
 62
     4
 10
1484.730141
 20
865.205694
 40
3.000000
 50
51.124357
 51
141.124357
  0
CIRCLE
  8
CSLAYER1
  6
CONTINUOUS
 62
     3
 10
711.849163
 20
764.142170
 40
4.150000
  0
LINE
  8
CSLAYER1
  6
CENTER
 62
     5
 10
1429.163651
 20
804.704050
 11
1429.163651
 21
755.561539
  0
LINE
  8
CSLAYER1
  6
CENTER
 62
     5
 10
1416.603460
 20
769.992170
 11
1442.209848
 21
769.992170
  0
LINE
  8
CSLAYER1
  6
CENTER
 62
     5
 10
1468.439194
 20
842.115967
 11
1488.638858
 21
842.115967
  0
LINE
  8
CSLAYER1
  6
CENTER
 62
     5
 10
1478.318079
 20
852.333971
 11
1478.318079
 21
832.262153
  0
LINE
  8
CSLAYER1
  6
CENTER
 62
     5
 10
1962.650990
 20
785.844764
 11
1962.650990
 21
753.915812
  0
LINE
  8
CSLAYER1
  6
CENTER
 62
     5
 10
1947.134055
 20
769.992170
 11
1978.904943
 21
769.992170
  0
LINE
  8
CSLAYER1
  6
CENTER
 62
     5
 10
1685.204070
 20
1100.858932
 11
1706.720732
 21
1100.858932
  0
LINE
  8
CSLAYER1
  6
CENTER
 62
     5
 10
1695.907321
 20
1111.170757
 11
1695.907321
 21
1089.654095
  0
LINE
  8
CSLAYER1
  6
CENTER
 62
     5
 10
1677.352002
 20
1155.108550
 11
1694.560193
 21
1155.108550
  0
LINE
  8
CSLAYER1
  6
CENTER
 62
     5
 10
1686.853096
 20
1164.864050
 11
1686.853096
 21
1145.908834
  0
LINE
  8
CSLAYER1
  6
CONTINUOUS
 62
     5
 10
708.349163
 20
921.790806
 11
708.349163
 21
926.451575
  0
LINE
  8
CSLAYER1
  6
CONTINUOUS
 62
     3
 10
1150.667797
 20
2021.737395
 11
1406.863651
 21
2021.737395
  0
LINE
  8
CSLAYER1
  6
CONTINUOUS
 62
     3
 10
1150.667797
 20
2013.437395
 11
1406.863651
 21
2013.437395
  0
LINE
  8
CSLAYER1
  6
CONTINUOUS
 62
     3
 10
1404.163651
 20
2021.737395
 11
1404.163651
 21
2127.587395
  0
LINE
  8
CSLAYER1
  6
CENTER
 62
     5
 10
1147.781210
 20
768.563654
 11
1404.163651
 21
768.563654
  0
LINE
  8
CSLAYER1
  6
CONTINUOUS
 62
     3
 10
1147.781210
 20
772.713654
 11
1404.163651
 21
772.713654
  0
LINE
  8
CSLAYER1
  6
CONTINUOUS
 62
     3
 10
1147.781210
 20
764.413654
 11
1404.163651
 21
764.413654
  0
INSERT
  8
CSLAYER1
  2
BLKF0003
 10
0.0
 20
0.0
 30
0.0
  0
ARC
  8
CSLAYER1
  6
PHANTOM
 62
     5
 10
1429.163651
 20
797.692170
 40
9.500000
 50
-190.922071
 51
10.922071
  0
LINE
  8
CSLAYER1
  6
PHANTOM
 62
     5
 10
1419.663651
 20
799.492170
 11
1419.663651
 21
792.207342
  0
LINE
  8
CSLAYER1
  6
PHANTOM
 62
     5
 10
1419.663651
 20
792.207342
 11
1429.163651
 21
786.722514
  0
LINE
  8
CSLAYER1
  6
PHANTOM
 62
     5
 10
1429.163651
 20
786.722514
 11
1438.663651
 21
792.207342
  0
LINE
  8
CSLAYER1
  6
PHANTOM
 62
     5
 10
1438.663651
 20
792.207342
 11
1438.663651
 21
799.492170
  0
POINT
  8
CSLAYER1
 62
     5
 10
1429.163651
 20
797.692170
  0
LINE
  8
CSLAYER1
  6
PHANTOM
 62
     5
 10
1406.863651
 20
817.492170
 11
1406.863651
 21
799.492170
  0
LINE
  8
CSLAYER1
  6
PHANTOM
 62
     5
 10
2306.863651
 20
817.492170
 11
2306.863651
 21
799.492170
  0
LINE
  8
CSLAYER1
  6
PHANTOM
 62
     5
 10
1406.863651
 20
817.492170
 11
2306.863651
 21
817.492170
  0
LINE
  8
CSLAYER1
  6
PHANTOM
 62
     5
 10
1406.863651
 20
799.492170
 11
2306.863651
 21
799.492170
  0
LINE
  8
CSLAYER1
  6
PHANTOM
 62
     5
 10
1409.163651
 20
799.492170
 11
1409.163651
 21
792.492170
  0
LINE
  8
CSLAYER1
  6
PHANTOM
 62
     5
 10
1422.081279
 20
787.192170
 11
1428.350185
 21
787.192170
  0
LINE
  8
CSLAYER1
  6
PHANTOM
 62
     5
 10
2289.163651
 20
799.492170
 11
2289.163651
 21
792.492170
  0
LINE
  8
CSLAYER1
  6
PHANTOM
 62
     5
 10
1459.163651
 20
796.192170
 11
1448.885873
 21
792.492170
  0
LINE
  8
CSLAYER1
  6
PHANTOM
 62
     5
 10
1459.163651
 20
799.492170
 11
1459.163651
 21
792.492170
  0
LINE
  8
CSLAYER1
  6
PHANTOM
 62
     5
 10
1429.977118
 20
787.192170
 11
1434.163651
 21
787.192170
  0
LINE
  8
CSLAYER1
  6
PHANTOM
 62
     5
 10
1429.163651
 20
808.292243
 11
1429.163651
 21
785.639535
  0
LINE
  8
CSLAYER1
  6
PHANTOM
 62
     5
 10
1416.976848
 20
797.692170
 11
1440.409053
 21
797.692170
  0
LINE
  8
CSLAYER1
  6
PHANTOM
 62
     5
 10
1437.875970
 20
788.528604
 11
1434.163651
 21
787.192170
  0
DIMENSION
  8
CSLAYER1
 62
     3
  2
*D0000
 10
2409.920106
 20
817.492170
 11
2399.919922
 21
784.992126
 13
2511.062180
 23
752.492170
 14
2306.863651
 24
817.492170
 50
90.000000
  0
DIMENSION
  8
CSLAYER1
 62
     3
  2
*D0001
 10
2409.920106
 20
1468.785580
 11
2399.919922
 21
1143.138916
 13
2288.778032
 23
817.492170
 14
2288.778032
 24
1468.785580
 50
90.000000
 70
1
  0
DIMENSION
  8
CSLAYER1
 62
     3
  2
*D0002
 10
2511.062180
 20
752.492170
 11
2501.062012
 21
1110.638794
 13
2511.062180
 23
1468.785580
 14
2511.062180
 24
752.492170
 50
90.000000
 70
1
  0
DIMENSION
  8
CSLAYER1
 62
     3
  2
*D0003
 10
2328.272677
 20
1563.786449
 11
1878.272461
 21
1573.786377
 13
1428.272677
 23
1468.785580
 14
2328.272677
 24
1468.785580
 70
1
  0
INSERT
  8
CSLAYER1
  2
EASYDRAWDIM0000
 10
0.0
 20
0.0
 30
0.0
  0
DIMENSION
  8
CSLAYER1
 62
     3
  2
*D0004
 10
958.347834
 20
758.492170
 11
948.347900
 21
785.306580
 13
891.849163
 23
752.492170
 14
891.849163
 24
758.492170
 50
90.000000
 70
1
  0
DIMENSION
  8
CSLAYER1
 62
     3
  2
*D0005
 10
2307.163651
 20
599.795290
 11
1855.663574
 21
609.795349
 13
1404.163651
 23
752.492170
 14
2307.163651
 24
752.492170
 52
270.000000
 70
1
  0
LINE
  8
CSLAYER1
  6
CONTINUOUS
 62
     4
 10
1406.863651
 20
2112.587395
 11
2306.863651
 21
2112.587395
  0
LINE
  8
CSLAYER1
  6
CONTINUOUS
 62
     4
 10
1406.863651
 20
1862.587395
 11
2306.863651
 21
1862.587395
  0
DIMENSION
  8
CSLAYER1
 62
     3
  2
*D0006
 10
2412.878701
 20
2112.587395
 11
2402.878662
 21
1987.587524
 13
2306.863651
 23
1862.587395
 14
2306.863651
 24
2112.587395
 50
90.000000
 70
1
  0
LINE
  8
CSLAYER1
  6
CONTINUOUS
 62
     3
 10
616.849163
 20
1468.785580
 11
616.849163
 21
1450.785580
  0
LINE
  8
CSLAYER1
  6
CONTINUOUS
 62
     3
 10
866.849163
 20
1468.785580
 11
866.849163
 21
1450.785580
  0
INSERT
  8
CSLAYER1
  2
BLKF0004
 10
0.0
 20
0.0
 30
0.0
  0
INSERT
  8
CSLAYER1
  2
BLKF0005
 10
0.0
 20
0.0
 30
0.0
  0
TEXT
  8
CSLAYER1
 62
     7
 10
1410.984009
 20
2208.786621
 40
40.000000
 41
0.843750
  1
下降時
 50
0.000000
 51
0.000000
  7
EASYDRAW_FONT
 72
     5
 11
1500.984009
 21
2208.786621
  0
LINE
  8
CSLAYER1
  6
CONTINUOUS
 62
     5
 10
1397.377667
 20
2255.217147
 11
1520.335677
 21
2255.217147
  0
LINE
  8
CSLAYER1
  6
CONTINUOUS
 62
     5
 10
1520.335677
 20
2255.217147
 11
1520.335677
 21
2202.356694
  0
LINE
  8
CSLAYER1
  6
CONTINUOUS
 62
     5
 10
1520.335677
 20
2202.356694
 11
1397.377667
 21
2202.356694
  0
LINE
  8
CSLAYER1
  6
CONTINUOUS
 62
     5
 10
1397.377667
 20
2202.356694
 11
1397.377667
 21
2255.217147
  0
DIMENSION
  8
CSLAYER1
 62
     3
  2
*D0008
 10
866.849163
 20
1510.798762
 11
741.849365
 21
1520.798706
 13
616.849163
 23
1468.785580
 14
866.849163
 24
1468.785580
 70
1
  0
INSERT
  8
CSLAYER1
  2
BLKF0006
 10
0.0
 20
0.0
 30
0.0
  0
DIMENSION
  8
CSLAYER1
 62
     3
  2
*D0011
 10
1429.163651
 20
688.145302
 11
1450.661499
 21
669.213196
 13
1404.163651
 23
755.561539
 14
1429.163651
 24
755.561539
 52
270.000000
 70
1
  0
LINE
  8
CSLAYER1
  6
CONTINUOUS
 62
     3
 10
1429.163651
 20
752.492170
 11
1429.163651
 21
755.561539
  0
INSERT
  8
CSLAYER1
  2
EASYDRAWDIM0004
 10
0.0
 20
0.0
 30
0.0
  0
INSERT
  8
CSLAYER1
  2
BLKF0007
 10
0.0
 20
0.0
 30
0.0
  0
LINE
  8
CSLAYER1
  6
CENTER
 62
     5
 10
2983.494603
 20
743.562809
 11
2983.494603
 21
767.772770
  0
LINE
  8
CSLAYER1
  6
CENTER
 62
     5
 10
2733.494603
 20
743.562809
 11
2733.494603
 21
767.772770
  0
LINE
  8
CSLAYER1
  6
CONTINUOUS
 62
     3
 10
2758.494603
 20
792.492170
 11
2958.494603
 21
792.492170
  0
LINE
  8
CSLAYER1
  6
CONTINUOUS
 62
     3
 10
2758.494603
 20
792.492170
 11
2758.494603
 21
752.492170
  0
LINE
  8
CSLAYER1
  6
CONTINUOUS
 62
     3
 10
2958.494603
 20
792.492170
 11
2958.494603
 21
752.492170
  0
LINE
  8
CSLAYER1
  6
CONTINUOUS
 62
     3
 10
3008.494603
 20
752.492170
 11
3008.494603
 21
758.492170
  0
LINE
  8
CSLAYER1
  6
CONTINUOUS
 62
     3
 10
3008.494603
 20
758.492170
 11
2958.494603
 21
758.492170
  0
LINE
  8
CSLAYER1
  6
CONTINUOUS
 62
     3
 10
2708.494603
 20
752.492170
 11
2708.494603
 21
758.492170
  0
LINE
  8
CSLAYER1
  6
CONTINUOUS
 62
     3
 10
2708.494603
 20
758.492170
 11
2758.494603
 21
758.492170
  0
POINT
  8
CSLAYER1
 62
     3
 10
2858.494603
 20
817.292170
  0
POINT
  8
CSLAYER1
 62
     3
 10
2858.494603
 20
792.492170
  0
LINE
  8
CSLAYER1
  6
CENTER
 62
     5
 10
2858.494603
 20
817.292170
 11
2858.494603
 21
752.492170
  0
LINE
  8
CSLAYER1
  6
CENTER
 62
     5
 10
2783.622381
 20
797.492170
 11
2932.622381
 21
797.492170
  0
LINE
  8
CSLAYER1
  6
CONTINUOUS
 62
     3
 10
2983.122381
 20
817.292170
 11
2733.122381
 21
817.292170
  0
LINE
  8
CSLAYER1
  6
CONTINUOUS
 62
     3
 10
2983.122381
 20
799.292170
 11
2733.122381
 21
799.292170
  0
LINE
  8
CSLAYER1
  6
CONTINUOUS
 62
     3
 10
2915.122381
 20
799.292170
 11
2915.122381
 21
792.492170
  0
LINE
  8
CSLAYER1
  6
CONTINUOUS
 62
     3
 10
2914.122381
 20
799.292170
 11
2914.122381
 21
792.492170
  0
LINE
  8
CSLAYER1
  6
CONTINUOUS
 62
     3
 10
2921.622381
 20
799.292170
 11
2921.622381
 21
792.492170
  0
LINE
  8
CSLAYER1
  6
CONTINUOUS
 62
     3
 10
2915.622381
 20
799.292170
 11
2915.622381
 21
792.492170
  0
LINE
  8
CSLAYER1
  6
CONTINUOUS
 62
     3
 10
2924.622381
 20
792.492170
 11
2924.622381
 21
799.292170
  0
LINE
  8
CSLAYER1
  6
CONTINUOUS
 62
     3
 10
2921.622381
 20
795.979973
 11
2924.461406
 21
799.292170
  0
LINE
  8
CSLAYER1
  6
CONTINUOUS
 62
     3
 10
2932.622381
 20
799.292170
 11
2932.622381
 21
792.492170
  0
ARC
  8
CSLAYER1
  6
CONTINUOUS
 62
     3
 10
2918.826636
 20
797.492170
 40
13.795744
 50
-21.249544
 51
7.497043
  0
LINE
  8
CSLAYER1
  6
CONTINUOUS
 62
     3
 10
2801.122381
 20
799.292170
 11
2801.122381
 21
792.492170
  0
LINE
  8
CSLAYER1
  6
CONTINUOUS
 62
     3
 10
2802.122381
 20
799.292170
 11
2802.122381
 21
792.492170
  0
LINE
  8
CSLAYER1
  6
CONTINUOUS
 62
     3
 10
2794.622381
 20
799.292170
 11
2794.622381
 21
792.492170
  0
LINE
  8
CSLAYER1
  6
CONTINUOUS
 62
     3
 10
2800.622381
 20
799.292170
 11
2800.622381
 21
792.492170
  0
LINE
  8
CSLAYER1
  6
CONTINUOUS
 62
     3
 10
2791.622381
 20
792.492170
 11
2791.622381
 21
799.292170
  0
LINE
  8
CSLAYER1
  6
CONTINUOUS
 62
     3
 10
2794.622381
 20
795.979973
 11
2791.783355
 21
799.292170
  0
LINE
  8
CSLAYER1
  6
CONTINUOUS
 62
     3
 10
2783.622381
 20
799.292170
 11
2783.622381
 21
792.492170
  0
ARC
  8
CSLAYER1
  6
CONTINUOUS
 62
     3
 10
2797.418125
 20
797.492170
 40
13.795744
 50
172.502957
 51
201.249544
  0
LINE
  8
CSLAYER1
  6
CONTINUOUS
 62
     3
 10
2773.122381
 20
792.492170
 11
2773.122381
 21
799.292170
  0
LINE
  8
CSLAYER1
  6
CONTINUOUS
 62
     3
 10
2777.622381
 20
792.492170
 11
2777.622381
 21
799.292170
  0
LINE
  8
CSLAYER1
  6
CONTINUOUS
 62
     3
 10
2943.122381
 20
792.492170
 11
2943.122381
 21
799.292170
  0
LINE
  8
CSLAYER1
  6
CONTINUOUS
 62
     3
 10
2938.622381
 20
792.492170
 11
2938.622381
 21
799.292170
  0
LINE
  8
CSLAYER1
  6
CONTINUOUS
 62
     3
 10
2733.122381
 20
817.292170
 11
2733.122381
 21
799.292170
  0
LINE
  8
CSLAYER1
  6
CONTINUOUS
 62
     3
 10
2983.122381
 20
817.292170
 11
2983.122381
 21
799.292170
  0
TEXT
  8
CSLAYER1
 62
     7
 10
2797.635742
 20
891.196716
 40
40.000000
 41
0.843750
  1
下降時
 50
0.000000
 51
0.000000
  7
EASYDRAW_FONT
 72
     5
 11
2887.635742
 21
891.196716
  0
LINE
  8
CSLAYER1
  6
CONTINUOUS
 62
     5
 10
348.735180
 20
752.492170
 11
591.849163
 21
752.492170
  0
LINE
  8
CSLAYER1
  6
CONTINUOUS
 62
     5
 10
2784.029285
 20
937.626857
 11
2906.987295
 21
937.626857
  0
LINE
  8
CSLAYER1
  6
CONTINUOUS
 62
     5
 10
2906.987295
 20
937.626857
 11
2906.987295
 21
884.766404
  0
LINE
  8
CSLAYER1
  6
CONTINUOUS
 62
     5
 10
2906.987295
 20
884.766404
 11
2784.029285
 21
884.766404
  0
LINE
  8
CSLAYER1
  6
CONTINUOUS
 62
     5
 10
2784.029285
 20
884.766404
 11
2784.029285
 21
937.626857
  0
TEXT
  8
CSLAYER1
 62
     5
 10
3097.239958
 20
760.012135
 40
31.844261
 41
0.920655
  1
Ｆ.Ｌ
 50
0.000000
 51
0.000000
  7
EASYDRAW_FONT
 72
     5
 11
3175.420198
 21
760.012135
  0
DIMENSION
  8
CSLAYER1
 62
     3
  2
*D0015
 10
2637.525077
 20
817.292170
 11
2627.524902
 21
784.892151
 13
2671.247112
 23
752.492170
 14
2721.788265
 24
817.292170
 50
90.000000
  0
LINE
  8
CSLAYER1
  6
CONTINUOUS
 62
     3
 10
591.849163
 20
752.492170
 11
891.849163
 21
752.492170
  0
LINE
  8
CSLAYER1
  6
CONTINUOUS
 62
     5
 10
891.849163
 20
752.492170
 11
1404.163651
 21
752.492170
  0
LINE
  8
CSLAYER1
  6
CONTINUOUS
 62
     3
 10
1404.163651
 20
752.492170
 11
2307.163651
 21
752.492170
  0
LINE
  8
CSLAYER1
  6
CONTINUOUS
 62
     5
 10
2307.163651
 20
752.492170
 11
2708.494603
 21
752.492170
  0
LINE
  8
CSLAYER1
  6
CONTINUOUS
 62
     3
 10
2708.494603
 20
752.492170
 11
3008.494603
 21
752.492170
  0
LINE
  8
CSLAYER1
  6
CONTINUOUS
 62
     5
 10
3008.494603
 20
752.492170
 11
3217.838422
 21
752.492170
  0
ENDSEC
  0
EOF
