  0
SECTION
  2
HEADER
  9
$ACADVER
  1
AC1006
  9
$INSBASE
 10
0.000000
 20
0.000000
 30
0.0
  9
$EXTMIN
 10
0.000000
 20
0.000000
  9
$EXTMAX
 10
3640.000000
 20
2570.000000
  9
$LIMMIN
 10
0.000000
 20
0.000000
  9
$LIMMAX
 10
3640.000000
 20
2570.000000
  9
$VIEWCTR
 10
1820.000000
 20
1285.000000
  9
$VIEWSIZE
 40
2570.000000
  9
$SNAPMODE
 70
     0
  9
$SNAPUNIT
 10
1.0
 20
1.0
  9
$SNAPBASE
 10
0.0
 20
0.0
  9
$SNAPANG
 50
0.0
  9
$SNAPSTYLE
 70
     0
  9
$SNAPISOPAIR
 70
     0
  9
$GRIDMODE
 70
     0
  9
$GRIDUNIT
 10
0.0
 20
0.0
  9
$ORTHOMODE
 70
     0
  9
$REGENMODE
 70
     1
  9
$FILLMODE
 70
     1
  9
$QTEXTMODE
 70
     0
  9
$DRAGMODE
 70
     2
  9
$LTSCALE
 40
15.000000
  9
$OSMODE
 70
     0
  9
$ATTMODE
 70
     1
  9
$TEXTSIZE
 40
0.2
  9
$TRACEWID
 40
0.05
  9
$TEXTSTYLE
  7
STANDARD
  9
$CLAYER
  8
CSLAYER1
  9
$CELTYPE
  6
BYLAYER
  9
$CECOLOR
 62
   256
  9
$DIMSCALE
 40
1.0
  9
$DIMASZ
 40
0.18
  9
$DIMEXO
 40
0.0625
  9
$DIMDLI
 40
0.38
  9
$DIMRND
 40
0.0
  9
$DIMDLE
 40
0.0
  9
$DIMEXE
 40
0.18
  9
$DIMTP
 40
0.0
  9
$DIMTM
 40
0.0
  9
$DIMTXT
 40
0.18
  9
$DIMCEN
 40
0.09
  9
$DIMTSZ
 40
0.0
  9
$DIMTOL
 70
     0
  9
$DIMLIM
 70
     0
  9
$DIMTIH
 70
     1
  9
$DIMTOH
 70
     1
  9
$DIMSE1
 70
     0
  9
$DIMSE2
 70
     0
  9
$DIMTAD
 70
     0
  9
$DIMZIN
 70
     0
  9
$DIMBLK
  1

  9
$LUNITS
 70
     2
  9
$LUPREC
 70
     4
  9
$AXISMODE
 70
     0
  9
$AXISUNIT
 10
0.0
 20
0.0
  9
$SKETCHINC
 40
0.1
  9
$FILLETRAD
 40
0.0
  9
$AUNITS
 70
     0
  9
$AUPREC
 70
     0
  9
$MENU
  1
ACAD
  9
$ELEVATION
 40
0.0
  9
$THICKNESS
 40
0.0
  9
$VIEWDIR
 10
0.0
 20
0.0
 30
1.0
  9
$LIMCHECK
 70
     0
  9
$BLIPMODE
 70
     1
  9
$CHAMFERA
 40
0.0
  9
$CHAMFERB
 40
0.0
  9
$FASTZOOM
 70
     1
  9
$SKPOLY
 70
     0
  9
$TDCREATE
 40
2456676.000000
  9
$TDUPDATE
 40
2456676.000000
  9
$TDINDWG
 40
0.0
  9
$TDUSRTIMER
 40
0.0
  9
$USRTIMER
 70
     1
  9
$ANGBASE
 50
0.0
  9
$ANGDIR
 70
     0
  9
$PDMODE
 70
     0
  9
$PDSIZE
 40
0.0
  9
$PLINEWID
 40
0.0
  9
$COORDS
 70
     0
  9
$USERI1
 70
     0
  9
$USERI2
 70
     0
  9
$USERI3
 70
     0
  9
$USERI4
 70
     0
  9
$USERI5
 70
     0
  9
$USERR1
 40
0.0
  9
$USERR2
 40
0.0
  9
$USERR3
 40
0.0
  9
$USERR4
 40
0.0
  9
$USERR5
 40
0.0
  0
ENDSEC
  0
SECTION
  2
TABLES
  0
TABLE
  2
LTYPE
 70
     9
  0
LTYPE
  2
CONTINUOUS
 70
    64
  3
Solid line
 72
    65
 73
     0
 40
0.0
  0
LTYPE
  2
DASHED
 70
    64
  3
__ __ __ __ __ __ __ __ __ __ __ __ __ __ __
 72
    65
 73
     2
 40
0.75
 49
0.5
 49
-0.25
  0
LTYPE
  2
HIDDEN
 70
    64
  3
_ _ _ _ _ _ _ _ _ _ _ _ _ _ _ _ _ _ _ _ _ _ _
 72
    65
 73
     2
 40
0.375
 49
0.25
 49
-0.125
  0
LTYPE
  2
DOT
 70
    64
  3
...............................................
 72
    65
 73
     2
 40
0.25
 49
0.0
 49
-0.25
  0
LTYPE
  2
DASHDOT
 70
    64
  3
__ . __ . __ . __ . __ . __ . __ . __ . __ . __
 72
    65
 73
     4
 40
1.0
 49
0.5
 49
-0.25
 49
0.0
 49
-0.25
  0
LTYPE
  2
DIVIDE
 70
    64
  3
__ . . __ . . __ . . __ . . __ . . __ . . __
 72
    65
 73
     6
 40
1.25
 49
0.5
 49
-0.25
 49
0.0
 49
-0.25
 49
0.0
 49
-0.25
  0
LTYPE
  2
CENTER
 70
    64
  3
____ _ ____ _ ____ _ ____ _ ____ _ ____ _ ____ 
 72
    65
 73
     4
 40
2.0
 49
1.25
 49
-0.25
 49
0.25
 49
-0.25
  0
LTYPE
  2
PHANTOM
 70
    64
  3
______  __  __  ______  __  __  ______  __  __ 
 72
    65
 73
     6
 40
2.5
 49
1.25
 49
-0.25
 49
0.25
 49
-0.25
 49
0.25
 49
-0.25
  0
LTYPE
  2
BORDER
 70
    64
  3
__ __ . __ __ . __ __ . __ __ . __ __ . __ __ .
 72
    65
 73
     6
 40
1.75
 49
0.5
 49
-0.25
 49
0.5
 49
-0.25
 49
0.0
 49
-0.25
  0
ENDTAB
  0
TABLE
  2
LAYER
 70
    16
  0
LAYER
  2
CSLAYER1
 70
    64
 62
     7
  6
CONTINUOUS
  0
LAYER
  2
CSLAYER2
 70
    64
 62
     7
  6
CONTINUOUS
  0
LAYER
  2
CSLAYER3
 70
    64
 62
     7
  6
CONTINUOUS
  0
LAYER
  2
CSLAYER4
 70
    64
 62
     7
  6
CONTINUOUS
  0
LAYER
  2
CSLAYER5
 70
    64
 62
     7
  6
CONTINUOUS
  0
LAYER
  2
CSLAYER6
 70
    64
 62
     7
  6
CONTINUOUS
  0
LAYER
  2
CSLAYER7
 70
    64
 62
     7
  6
CONTINUOUS
  0
LAYER
  2
CSLAYER8
 70
    64
 62
     7
  6
CONTINUOUS
  0
LAYER
  2
CSLAYER9
 70
    64
 62
     7
  6
CONTINUOUS
  0
LAYER
  2
CSLAYER10
 70
    64
 62
     7
  6
CONTINUOUS
  0
LAYER
  2
CSLAYER11
 70
    64
 62
     7
  6
CONTINUOUS
  0
LAYER
  2
CSLAYER12
 70
    64
 62
     7
  6
CONTINUOUS
  0
LAYER
  2
CSLAYER13
 70
    64
 62
     7
  6
CONTINUOUS
  0
LAYER
  2
CSLAYER14
 70
    64
 62
     7
  6
CONTINUOUS
  0
LAYER
  2
CSLAYER15
 70
    64
 62
     7
  6
CONTINUOUS
  0
LAYER
  2
CSLAYER16
 70
    64
 62
     7
  6
CONTINUOUS
  0
ENDTAB
  0
TABLE
  2
STYLE
 70
     1
  0
STYLE
  2
EASYDRAW_FONT
 70
     0
 40
1.0
 41
1.0
 50
0.0
 71
     0
 42
1.0
  3
monotxt
  4
bigfont
  0
ENDTAB
  0
TABLE
  2
VIEW
 70
     0
  0
ENDTAB
  0
ENDSEC
  0
SECTION
  2
BLOCKS
  0
BLOCK
  8
CSLAYER1
  2
*D0000
 70
    65
 10
0.0
 20
0.0
 30
0.0
  0
TEXT
  8
CSLAYER1
 62
     3
 10
1460.310669
 20
1755.580322
 40
40.000000
 41
0.843750
  1
250
 50
90.000000
 51
0.000000
  7
EASYDRAW_FONT
 72
     5
 11
1460.310669
 21
1845.580322
  0
LINE
  8
CSLAYER1
  6
CONTINUOUS
 62
     5
 10
1557.554047
 20
1701.132918
 11
1458.562788
 21
1701.132918
  0
LINE
  8
CSLAYER1
  6
CONTINUOUS
 62
     5
 10
1557.554047
 20
1951.132918
 11
1458.562788
 21
1951.132918
  0
LINE
  8
CSLAYER1
  6
CONTINUOUS
 62
     5
 10
1468.562788
 20
1701.132918
 11
1468.562788
 21
1951.132918
  0
LINE
  8
CSLAYER1
  6
CONTINUOUS
 62
     5
 10
1468.562788
 20
1701.132918
 11
1460.798217
 21
1730.110692
  0
LINE
  8
CSLAYER1
  6
CONTINUOUS
 62
     5
 10
1468.562788
 20
1701.132918
 11
1476.327360
 21
1730.110692
  0
LINE
  8
CSLAYER1
  6
CONTINUOUS
 62
     5
 10
1468.562788
 20
1951.132918
 11
1460.798217
 21
1922.155143
  0
LINE
  8
CSLAYER1
  6
CONTINUOUS
 62
     5
 10
1468.562788
 20
1951.132918
 11
1476.327360
 21
1922.155143
  0
ENDBLK
  8
0
  0
BLOCK
  8
CSLAYER1
  2
*D0001
 70
    65
 10
0.0
 20
0.0
 30
0.0
  0
TEXT
  8
CSLAYER1
 62
     3
 10
1482.961304
 20
1595.805420
 40
40.000000
 41
0.900000
  1
25
 50
0.000000
 51
0.000000
  7
EASYDRAW_FONT
 72
     5
 11
1542.961304
 21
1595.805420
  0
LINE
  8
CSLAYER1
  6
CONTINUOUS
 62
     5
 10
1553.816849
 20
1676.132918
 11
1553.816849
 21
1535.261285
  0
LINE
  8
CSLAYER1
  6
CONTINUOUS
 62
     5
 10
1578.816849
 20
1679.870116
 11
1578.816849
 21
1602.072853
  0
LINE
  8
CSLAYER1
  6
CONTINUOUS
 62
     5
 10
1553.816849
 20
1612.072853
 11
1578.816849
 21
1612.072853
  0
LINE
  8
CSLAYER1
  6
CONTINUOUS
 62
     5
 10
1553.816849
 20
1612.072853
 11
1582.794624
 21
1619.837424
  0
LINE
  8
CSLAYER1
  6
CONTINUOUS
 62
     5
 10
1553.816849
 20
1612.072853
 11
1582.794624
 21
1604.308282
  0
LINE
  8
CSLAYER1
  6
CONTINUOUS
 62
     5
 10
1578.816849
 20
1612.072853
 11
1549.839074
 21
1619.837424
  0
LINE
  8
CSLAYER1
  6
CONTINUOUS
 62
     5
 10
1578.816849
 20
1612.072853
 11
1549.839074
 21
1604.308282
  0
ENDBLK
  8
0
  0
BLOCK
  8
CSLAYER1
  2
*D0002
 70
    65
 10
0.0
 20
0.0
 30
0.0
  0
TEXT
  8
CSLAYER1
 62
     3
 10
1484.123169
 20
1528.412842
 40
40.000000
 41
0.900000
  1
50
 50
0.000000
 51
0.000000
  7
EASYDRAW_FONT
 72
     5
 11
1544.123169
 21
1528.412842
  0
LINE
  8
CSLAYER1
  6
CONTINUOUS
 62
     5
 10
1603.816849
 20
1676.132918
 11
1603.816849
 21
1535.261285
  0
LINE
  8
CSLAYER1
  6
CONTINUOUS
 62
     5
 10
1553.816849
 20
1545.261285
 11
1603.816849
 21
1545.261285
  0
LINE
  8
CSLAYER1
  6
CONTINUOUS
 62
     5
 10
1553.816849
 20
1545.261285
 11
1582.794624
 21
1553.025857
  0
LINE
  8
CSLAYER1
  6
CONTINUOUS
 62
     5
 10
1553.816849
 20
1545.261285
 11
1582.794624
 21
1537.496714
  0
LINE
  8
CSLAYER1
  6
CONTINUOUS
 62
     5
 10
1603.816849
 20
1545.261285
 11
1574.839074
 21
1553.025857
  0
LINE
  8
CSLAYER1
  6
CONTINUOUS
 62
     5
 10
1603.816849
 20
1545.261285
 11
1574.839074
 21
1537.496714
  0
ENDBLK
  8
0
  0
BLOCK
  8
CSLAYER1
  2
EASYDRAWDIM0000
 70
   64
 10
0.0
 20
0.0
 30
0.0
  0
TEXT
  8
CSLAYER1
 62
     3
 10
1697.038696
 20
1580.756592
 40
40.000000
 41
0.771429
  1
2-%%c13(アンカー穴)
 50
0.000000
 51
0.000000
  7
EASYDRAW_FONT
 72
     5
 11
2057.038696
 21
1580.756592
  0
LINE
  8
CSLAYER1
  6
CONTINUOUS
 62
     5
 10
1583.215449
 20
1696.875077
 11
1692.697416
 21
1570.756553
  0
LINE
  8
CSLAYER1
  6
CONTINUOUS
 62
     5
 10
1583.215449
 20
1696.875077
 11
1608.075109
 21
1680.082301
  0
LINE
  8
CSLAYER1
  6
CONTINUOUS
 62
     5
 10
1583.215449
 20
1696.875077
 11
1596.348158
 21
1669.902276
  0
LINE
  8
CSLAYER1
  6
CONTINUOUS
 62
     5
 10
1692.697416
 20
1570.756553
 11
2067.038669
 21
1570.756553
  0
ENDBLK
  8
0
  0
BLOCK
  8
CSLAYER1
  2
*D0003
 70
    65
 10
0.0
 20
0.0
 30
0.0
  0
TEXT
  8
CSLAYER1
 62
     3
 10
2341.419434
 20
799.083374
 40
40.000000
 41
0.900000
  1
65
 50
90.000000
 51
0.000000
  7
EASYDRAW_FONT
 72
     5
 11
2341.419434
 21
859.083374
  0
LINE
  8
CSLAYER1
  6
CONTINUOUS
 62
     5
 10
2266.816849
 20
796.683447
 11
2452.674827
 21
796.683447
  0
LINE
  8
CSLAYER1
  6
CONTINUOUS
 62
     5
 10
2266.516849
 20
861.483447
 11
2361.419224
 21
861.483447
  0
LINE
  8
CSLAYER1
  6
CONTINUOUS
 62
     5
 10
2351.419224
 20
796.683447
 11
2351.419224
 21
861.483447
  0
LINE
  8
CSLAYER1
  6
CONTINUOUS
 62
     5
 10
2351.419224
 20
796.683447
 11
2343.654652
 21
825.661222
  0
LINE
  8
CSLAYER1
  6
CONTINUOUS
 62
     5
 10
2351.419224
 20
796.683447
 11
2359.183795
 21
825.661222
  0
LINE
  8
CSLAYER1
  6
CONTINUOUS
 62
     5
 10
2351.419224
 20
861.483447
 11
2343.654652
 21
832.505673
  0
LINE
  8
CSLAYER1
  6
CONTINUOUS
 62
     5
 10
2351.419224
 20
861.483447
 11
2359.183795
 21
832.505673
  0
ENDBLK
  8
0
  0
BLOCK
  8
CSLAYER1
  2
*D0004
 70
    65
 10
0.0
 20
0.0
 30
0.0
  0
TEXT
  8
CSLAYER1
 62
     3
 10
2341.419434
 20
1074.072632
 40
40.000000
 41
0.843750
  1
505
 50
90.000000
 51
0.000000
  7
EASYDRAW_FONT
 72
     5
 11
2341.419434
 21
1164.072632
  0
LINE
  8
CSLAYER1
  6
CONTINUOUS
 62
     5
 10
2288.794154
 20
1376.661558
 11
2452.674827
 21
1376.661558
  0
LINE
  8
CSLAYER1
  6
CONTINUOUS
 62
     5
 10
2351.419224
 20
861.483447
 11
2351.419224
 21
1376.661558
  0
LINE
  8
CSLAYER1
  6
CONTINUOUS
 62
     5
 10
2351.419224
 20
861.483447
 11
2343.654652
 21
890.461222
  0
LINE
  8
CSLAYER1
  6
CONTINUOUS
 62
     5
 10
2351.419224
 20
861.483447
 11
2359.183795
 21
890.461222
  0
LINE
  8
CSLAYER1
  6
CONTINUOUS
 62
     5
 10
2351.419224
 20
1376.661558
 11
2343.654652
 21
1347.683783
  0
LINE
  8
CSLAYER1
  6
CONTINUOUS
 62
     5
 10
2351.419224
 20
1376.661558
 11
2359.183795
 21
1347.683783
  0
ENDBLK
  8
0
  0
BLOCK
  8
CSLAYER1
  2
*D0005
 70
    65
 10
0.0
 20
0.0
 30
0.0
  0
TEXT
  8
CSLAYER1
 62
     3
 10
2432.675049
 20
1041.672485
 40
40.000000
 41
0.843750
  1
570
 50
90.000000
 51
0.000000
  7
EASYDRAW_FONT
 72
     5
 11
2432.675049
 21
1131.672485
  0
LINE
  8
CSLAYER1
  6
CONTINUOUS
 62
     5
 10
2442.674827
 20
796.683447
 11
2442.674827
 21
1376.661558
  0
LINE
  8
CSLAYER1
  6
CONTINUOUS
 62
     5
 10
2442.674827
 20
796.683447
 11
2434.910256
 21
825.661222
  0
LINE
  8
CSLAYER1
  6
CONTINUOUS
 62
     5
 10
2442.674827
 20
796.683447
 11
2450.439399
 21
825.661222
  0
LINE
  8
CSLAYER1
  6
CONTINUOUS
 62
     5
 10
2442.674827
 20
1376.661558
 11
2434.910256
 21
1347.683783
  0
LINE
  8
CSLAYER1
  6
CONTINUOUS
 62
     5
 10
2442.674827
 20
1376.661558
 11
2450.439399
 21
1347.683783
  0
ENDBLK
  8
0
  0
BLOCK
  8
CSLAYER1
  2
*D0006
 70
    65
 10
0.0
 20
0.0
 30
0.0
  0
TEXT
  8
CSLAYER1
 62
     3
 10
1883.794067
 20
1461.903076
 40
40.000000
 41
0.843750
  1
700
 50
0.000000
 51
0.000000
  7
EASYDRAW_FONT
 72
     5
 11
1973.794067
 21
1461.903076
  0
LINE
  8
CSLAYER1
  6
CONTINUOUS
 62
     5
 10
1578.794154
 20
1386.661558
 11
1578.794154
 21
1461.903272
  0
LINE
  8
CSLAYER1
  6
CONTINUOUS
 62
     5
 10
2278.794154
 20
1386.661558
 11
2278.794154
 21
1461.903272
  0
LINE
  8
CSLAYER1
  6
CONTINUOUS
 62
     5
 10
1578.794154
 20
1451.903272
 11
2278.794154
 21
1451.903272
  0
LINE
  8
CSLAYER1
  6
CONTINUOUS
 62
     5
 10
1578.794154
 20
1451.903272
 11
1607.771928
 21
1459.667844
  0
LINE
  8
CSLAYER1
  6
CONTINUOUS
 62
     5
 10
1578.794154
 20
1451.903272
 11
1607.771928
 21
1444.138701
  0
LINE
  8
CSLAYER1
  6
CONTINUOUS
 62
     5
 10
2278.794154
 20
1451.903272
 11
2249.816379
 21
1459.667844
  0
LINE
  8
CSLAYER1
  6
CONTINUOUS
 62
     5
 10
2278.794154
 20
1451.903272
 11
2249.816379
 21
1444.138701
  0
ENDBLK
  8
0
  0
BLOCK
  8
CSLAYER1
  2
*D0007
 70
    65
 10
0.0
 20
0.0
 30
0.0
  0
TEXT
  8
CSLAYER1
 62
     3
 10
1860.316772
 20
627.661621
 40
40.000000
 41
0.843750
  1
703
 50
0.000000
 51
0.000000
  7
EASYDRAW_FONT
 72
     5
 11
1950.316772
 21
627.661621
  0
LINE
  8
CSLAYER1
  6
CONTINUOUS
 62
     5
 10
1553.816849
 20
786.683447
 11
1553.816849
 21
607.661492
  0
LINE
  8
CSLAYER1
  6
CONTINUOUS
 62
     5
 10
2256.816849
 20
786.683447
 11
2256.816849
 21
607.661492
  0
LINE
  8
CSLAYER1
  6
CONTINUOUS
 62
     5
 10
1553.816849
 20
617.661492
 11
2256.816849
 21
617.661492
  0
LINE
  8
CSLAYER1
  6
CONTINUOUS
 62
     5
 10
1553.816849
 20
617.661492
 11
1582.794624
 21
625.426064
  0
LINE
  8
CSLAYER1
  6
CONTINUOUS
 62
     5
 10
1553.816849
 20
617.661492
 11
1582.794624
 21
609.896921
  0
LINE
  8
CSLAYER1
  6
CONTINUOUS
 62
     5
 10
2256.816849
 20
617.661492
 11
2227.839074
 21
625.426064
  0
LINE
  8
CSLAYER1
  6
CONTINUOUS
 62
     5
 10
2256.816849
 20
617.661492
 11
2227.839074
 21
609.896921
  0
ENDBLK
  8
0
  0
BLOCK
  8
CSLAYER1
  2
*D0008
 70
    65
 10
0.0
 20
0.0
 30
0.0
  0
TEXT
  8
CSLAYER1
 62
     3
 10
1149.974976
 20
804.733032
 40
40.000000
 41
1.125000
  1
6
 50
90.000000
 51
0.000000
  7
EASYDRAW_FONT
 72
     5
 11
1149.974976
 21
834.733032
  0
LINE
  8
CSLAYER1
  6
CONTINUOUS
 62
     5
 10
1103.588538
 20
796.683447
 11
1169.975135
 21
796.683447
  0
LINE
  8
CSLAYER1
  6
CONTINUOUS
 62
     5
 10
1103.588538
 20
802.683447
 11
1169.975135
 21
802.683447
  0
LINE
  8
CSLAYER1
  6
CONTINUOUS
 62
     5
 10
1159.975135
 20
796.683447
 11
1159.975135
 21
746.683447
  0
LINE
  8
CSLAYER1
  6
CONTINUOUS
 62
     5
 10
1159.975135
 20
796.683447
 11
1152.210564
 21
767.705673
  0
LINE
  8
CSLAYER1
  6
CONTINUOUS
 62
     5
 10
1159.975135
 20
796.683447
 11
1167.739707
 21
767.705673
  0
LINE
  8
CSLAYER1
  6
CONTINUOUS
 62
     5
 10
1159.975135
 20
802.683447
 11
1159.975135
 21
836.782410
  0
LINE
  8
CSLAYER1
  6
CONTINUOUS
 62
     5
 10
1159.975135
 20
802.683447
 11
1152.210564
 21
831.661222
  0
LINE
  8
CSLAYER1
  6
CONTINUOUS
 62
     5
 10
1159.975135
 20
802.683447
 11
1167.739707
 21
831.661222
  0
LINE
  8
CSLAYER1
  6
CONTINUOUS
 62
     5
 10
1159.975135
 20
796.683447
 11
1159.975135
 21
802.683447
  0
ENDBLK
  8
0
  0
BLOCK
  8
CSLAYER1
  2
EASYDRAWDIM0001
 70
   64
 10
0.0
 20
0.0
 30
0.0
  0
TEXT
  8
CSLAYER1
 62
     3
 10
1261.619507
 20
951.223511
 40
40.000000
 41
0.803571
  1
高圧ホース
 50
0.000000
 51
0.000000
  7
EASYDRAW_FONT
 72
     5
 11
1411.619507
 21
951.223511
  0
LINE
  8
CSLAYER1
  6
CONTINUOUS
 62
     5
 10
1478.165114
 20
822.392040
 11
1411.619445
 21
941.223591
  0
LINE
  8
CSLAYER1
  6
CONTINUOUS
 62
     5
 10
1478.165114
 20
822.392040
 11
1457.231840
 21
843.881527
  0
LINE
  8
CSLAYER1
  6
CONTINUOUS
 62
     5
 10
1478.165114
 20
822.392040
 11
1470.781111
 21
851.469118
  0
LINE
  8
CSLAYER1
  6
CONTINUOUS
 62
     5
 10
1411.619445
 20
941.223591
 11
1251.619445
 21
941.223591
  0
ENDBLK
  8
0
  0
BLOCK
  8
CSLAYER1
  2
EASYDRAWDIM0002
 70
   64
 10
0.0
 20
0.0
 30
0.0
  0
TEXT
  8
CSLAYER1
 62
     3
 10
1509.549438
 20
1724.032448
 40
33.155758
 41
0.767879
  1
穴ヒﾟッチ
 50
90.000000
 51
0.000000
  7
EASYDRAW_FONT
 72
     5
 11
1509.549438
 21
1842.844017
  0
ENDBLK
  8
0
  0
BLOCK
  8
CSLAYER1
  2
*D0009
 70
    65
 10
0.0
 20
0.0
 30
0.0
  0
TEXT
  8
CSLAYER1
 62
     3
 10
2334.965332
 20
1781.133057
 40
40.000000
 41
0.843750
  1
250
 50
90.000000
 51
0.000000
  7
EASYDRAW_FONT
 72
     5
 11
2334.965332
 21
1871.133057
  0
LINE
  8
CSLAYER1
  6
CONTINUOUS
 62
     5
 10
2266.516849
 20
1701.132918
 11
2354.965108
 21
1701.132918
  0
LINE
  8
CSLAYER1
  6
CONTINUOUS
 62
     5
 10
2266.516849
 20
1951.132918
 11
2354.965108
 21
1951.132918
  0
LINE
  8
CSLAYER1
  6
CONTINUOUS
 62
     5
 10
2344.965108
 20
1701.132918
 11
2344.965108
 21
1951.132918
  0
LINE
  8
CSLAYER1
  6
CONTINUOUS
 62
     5
 10
2344.965108
 20
1701.132918
 11
2337.200537
 21
1730.110692
  0
LINE
  8
CSLAYER1
  6
CONTINUOUS
 62
     5
 10
2344.965108
 20
1701.132918
 11
2352.729680
 21
1730.110692
  0
LINE
  8
CSLAYER1
  6
CONTINUOUS
 62
     5
 10
2344.965108
 20
1951.132918
 11
2337.200537
 21
1922.155143
  0
LINE
  8
CSLAYER1
  6
CONTINUOUS
 62
     5
 10
2344.965108
 20
1951.132918
 11
2352.729680
 21
1922.155143
  0
ENDBLK
  8
0
  0
BLOCK
  8
CSLAYER1
  2
*D0010
 70
    65
 10
0.0
 20
0.0
 30
0.0
  0
TEXT
  8
CSLAYER1
 62
     3
 10
1395.826782
 20
1246.856201
 40
40.000000
 41
0.803571
  1
MAX22
 50
0.000000
 51
0.000000
  7
EASYDRAW_FONT
 72
     5
 11
1545.826782
 21
1246.856201
  0
LINE
  8
CSLAYER1
  6
CONTINUOUS
 62
     5
 10
1556.516849
 20
871.483447
 11
1556.516849
 21
1239.140693
  0
LINE
  8
CSLAYER1
  6
CONTINUOUS
 62
     5
 10
1578.794154
 20
1366.661558
 11
1578.794154
 21
1219.140693
  0
LINE
  8
CSLAYER1
  6
CONTINUOUS
 62
     5
 10
1556.516849
 20
1229.140693
 11
1467.400320
 21
1229.140693
  0
LINE
  8
CSLAYER1
  6
CONTINUOUS
 62
     5
 10
1556.516849
 20
1229.140693
 11
1527.539074
 21
1236.905264
  0
LINE
  8
CSLAYER1
  6
CONTINUOUS
 62
     5
 10
1556.516849
 20
1229.140693
 11
1527.539074
 21
1221.376121
  0
LINE
  8
CSLAYER1
  6
CONTINUOUS
 62
     5
 10
1578.794154
 20
1229.140693
 11
1628.794154
 21
1229.140693
  0
LINE
  8
CSLAYER1
  6
CONTINUOUS
 62
     5
 10
1578.794154
 20
1229.140693
 11
1607.771928
 21
1236.905264
  0
LINE
  8
CSLAYER1
  6
CONTINUOUS
 62
     5
 10
1578.794154
 20
1229.140693
 11
1607.771928
 21
1221.376121
  0
LINE
  8
CSLAYER1
  6
CONTINUOUS
 62
     5
 10
1556.516849
 20
1229.140693
 11
1578.794154
 21
1229.140693
  0
ENDBLK
  8
0
  0
BLOCK
  8
CSLAYER1
  2
EASYDRAWDIM0003
 70
   64
 10
0.0
 20
0.0
 30
0.0
  0
TEXT
  8
CSLAYER1
 62
     3
 10
1297.612671
 20
1122.236938
 40
40.000000
 41
0.787500
  1
油圧シリンダー
 50
0.000000
 51
0.000000
  7
EASYDRAW_FONT
 72
     5
 11
1507.612671
 21
1122.236938
  0
LINE
  8
CSLAYER1
  6
CONTINUOUS
 62
     5
 10
1508.577540
 20
1112.236956
 11
1287.612798
 21
1112.236956
  0
ENDBLK
  8
0
  0
BLOCK
  8
CSLAYER1
  2
*D0011
 70
    65
 10
0.0
 20
0.0
 30
0.0
  0
TEXT
  8
CSLAYER1
 62
     3
 10
898.588562
 20
722.074585
 40
40.000000
 41
0.843750
  1
250
 50
0.000000
 51
0.000000
  7
EASYDRAW_FONT
 72
     5
 11
988.588562
 21
722.074585
  0
LINE
  8
CSLAYER1
  6
CONTINUOUS
 62
     5
 10
818.588538
 20
786.683447
 11
818.588538
 21
702.074562
  0
LINE
  8
CSLAYER1
  6
CONTINUOUS
 62
     5
 10
1068.588538
 20
786.683447
 11
1068.588538
 21
702.074562
  0
LINE
  8
CSLAYER1
  6
CONTINUOUS
 62
     5
 10
818.588538
 20
712.074562
 11
1068.588538
 21
712.074562
  0
LINE
  8
CSLAYER1
  6
CONTINUOUS
 62
     5
 10
818.588538
 20
712.074562
 11
847.566313
 21
719.839134
  0
LINE
  8
CSLAYER1
  6
CONTINUOUS
 62
     5
 10
818.588538
 20
712.074562
 11
847.566313
 21
704.309991
  0
LINE
  8
CSLAYER1
  6
CONTINUOUS
 62
     5
 10
1068.588538
 20
712.074562
 11
1039.610764
 21
719.839134
  0
LINE
  8
CSLAYER1
  6
CONTINUOUS
 62
     5
 10
1068.588538
 20
712.074562
 11
1039.610764
 21
704.309991
  0
ENDBLK
  8
0
  0
BLOCK
  8
CSLAYER1
  2
*D0012
 70
    65
 10
0.0
 20
0.0
 30
0.0
  0
TEXT
  8
CSLAYER1
 62
     3
 10
898.588562
 20
657.757324
 40
40.000000
 41
0.843750
  1
300
 50
0.000000
 51
0.000000
  7
EASYDRAW_FONT
 72
     5
 11
988.588562
 21
657.757324
  0
LINE
  8
CSLAYER1
  6
CONTINUOUS
 62
     5
 10
793.588538
 20
786.683447
 11
793.588538
 21
637.757330
  0
LINE
  8
CSLAYER1
  6
CONTINUOUS
 62
     5
 10
1093.588538
 20
792.683447
 11
1093.588538
 21
637.757330
  0
LINE
  8
CSLAYER1
  6
CONTINUOUS
 62
     5
 10
793.588538
 20
647.757330
 11
1093.588538
 21
647.757330
  0
LINE
  8
CSLAYER1
  6
CONTINUOUS
 62
     5
 10
793.588538
 20
647.757330
 11
822.566313
 21
655.521901
  0
LINE
  8
CSLAYER1
  6
CONTINUOUS
 62
     5
 10
793.588538
 20
647.757330
 11
822.566313
 21
639.992758
  0
LINE
  8
CSLAYER1
  6
CONTINUOUS
 62
     5
 10
1093.588538
 20
647.757330
 11
1064.610764
 21
655.521901
  0
LINE
  8
CSLAYER1
  6
CONTINUOUS
 62
     5
 10
1093.588538
 20
647.757330
 11
1064.610764
 21
639.992758
  0
ENDBLK
  8
0
  0
BLOCK
  8
CSLAYER1
  2
EASYDRAWDIM0004
 70
   64
 10
0.0
 20
0.0
 30
0.0
  0
LINE
  8
CSLAYER1
  6
CONTINUOUS
 62
     5
 10
1450.092848
 20
707.781711
 11
1380.092848
 21
707.781711
  0
ENDBLK
  8
0
  0
BLOCK
  8
CSLAYER1
  2
EASYDRAWDIM0005
 70
   64
 10
0.0
 20
0.0
 30
0.0
  0
LINE
  8
CSLAYER1
  6
CONTINUOUS
 62
     6
 10
1578.816849
 20
796.683447
 11
1450.092848
 21
707.781711
  0
LINE
  8
CSLAYER1
  6
CONTINUOUS
 62
     6
 10
1578.816849
 20
796.683447
 11
1559.385395
 21
773.826969
  0
LINE
  8
CSLAYER1
  6
CONTINUOUS
 62
     6
 10
1578.816849
 20
796.683447
 11
1550.560477
 21
786.604883
  0
LINE
  8
CSLAYER1
  6
CONTINUOUS
 62
     6
 10
1450.092848
 20
707.781711
 11
1395.676105
 21
707.781711
  0
ENDBLK
  8
0
  0
BLOCK
  8
CSLAYER1
  2
EASYDRAWDIM0006
 70
   64
 10
0.0
 20
0.0
 30
0.0
  0
TEXT
  8
CSLAYER1
 62
     3
 10
1124.473022
 20
659.826782
 40
40.000000
 41
0.771429
  1
2-%%c13（アンカー穴）
 50
0.000000
 51
0.000000
  7
EASYDRAW_FONT
 72
     5
 11
1484.473022
 21
659.826782
  0
LINE
  8
CSLAYER1
  6
CONTINUOUS
 62
     5
 10
1164.496185
 20
707.781711
 11
1450.092848
 21
707.781711
  0
ENDBLK
  8
0
  0
BLOCK
  8
CSLAYER1
  2
*D0013
 70
    65
 10
0.0
 20
0.0
 30
0.0
  0
TEXT
  8
CSLAYER1
 62
     3
 10
1564.908081
 20
657.630554
 40
40.000000
 41
0.900000
  1
25
 50
0.000000
 51
0.000000
  7
EASYDRAW_FONT
 72
     5
 11
1624.908081
 21
657.630554
  0
LINE
  8
CSLAYER1
  6
CONTINUOUS
 62
     5
 10
1553.816849
 20
786.683447
 11
1553.816849
 21
716.905263
  0
LINE
  8
CSLAYER1
  6
CONTINUOUS
 62
     5
 10
1578.816849
 20
786.683447
 11
1578.816849
 21
716.905263
  0
LINE
  8
CSLAYER1
  6
CONTINUOUS
 62
     5
 10
1553.816849
 20
726.905263
 11
1578.816849
 21
726.905263
  0
LINE
  8
CSLAYER1
  6
CONTINUOUS
 62
     5
 10
1503.816849
 20
726.905263
 11
1553.816849
 21
726.905263
  0
LINE
  8
CSLAYER1
  6
CONTINUOUS
 62
     5
 10
1553.816849
 20
726.905263
 11
1524.839074
 21
734.669834
  0
LINE
  8
CSLAYER1
  6
CONTINUOUS
 62
     5
 10
1553.816849
 20
726.905263
 11
1524.839074
 21
719.140692
  0
LINE
  8
CSLAYER1
  6
CONTINUOUS
 62
     5
 10
1578.816849
 20
726.905263
 11
1628.816849
 21
726.905263
  0
LINE
  8
CSLAYER1
  6
CONTINUOUS
 62
     5
 10
1578.816849
 20
726.905263
 11
1607.794624
 21
734.669834
  0
LINE
  8
CSLAYER1
  6
CONTINUOUS
 62
     5
 10
1578.816849
 20
726.905263
 11
1607.794624
 21
719.140692
  0
ENDBLK
  8
0
  0
BLOCK
  8
CSLAYER1
  2
*D0014
 70
    65
 10
0.0
 20
0.0
 30
0.0
  0
TEXT
  8
CSLAYER1
 62
     3
 10
898.588562
 20
1445.817871
 40
40.000000
 41
0.843750
  1
250
 50
0.000000
 51
0.000000
  7
EASYDRAW_FONT
 72
     5
 11
988.588562
 21
1445.817871
  0
LINE
  8
CSLAYER1
  6
CONTINUOUS
 62
     5
 10
818.588538
 20
1386.661558
 11
818.588538
 21
1445.817891
  0
LINE
  8
CSLAYER1
  6
CONTINUOUS
 62
     5
 10
1068.588538
 20
1386.661558
 11
1068.588538
 21
1445.817891
  0
LINE
  8
CSLAYER1
  6
CONTINUOUS
 62
     5
 10
818.588538
 20
1435.817891
 11
1068.588538
 21
1435.817891
  0
LINE
  8
CSLAYER1
  6
CONTINUOUS
 62
     5
 10
818.588538
 20
1435.817891
 11
847.566313
 21
1443.582462
  0
LINE
  8
CSLAYER1
  6
CONTINUOUS
 62
     5
 10
818.588538
 20
1435.817891
 11
847.566313
 21
1428.053319
  0
LINE
  8
CSLAYER1
  6
CONTINUOUS
 62
     5
 10
1068.588538
 20
1435.817891
 11
1039.610764
 21
1443.582462
  0
LINE
  8
CSLAYER1
  6
CONTINUOUS
 62
     5
 10
1068.588538
 20
1435.817891
 11
1039.610764
 21
1428.053319
  0
ENDBLK
  8
0
  0
BLOCK
  8
CSLAYER1
  2
*D0015
 70
    65
 10
0.0
 20
0.0
 30
0.0
  0
TEXT
  8
CSLAYER1
 62
     3
 10
2567.969482
 20
799.083435
 40
40.000000
 41
0.900000
  1
65
 50
90.000000
 51
0.000000
  7
EASYDRAW_FONT
 72
     5
 11
2567.969482
 21
859.083435
  0
LINE
  8
CSLAYER1
  6
CONTINUOUS
 62
     5
 10
2601.691536
 20
796.683447
 11
2567.969500
 21
796.683447
  0
LINE
  8
CSLAYER1
  6
CONTINUOUS
 62
     5
 10
2652.232689
 20
861.483447
 11
2567.969500
 21
861.483447
  0
LINE
  8
CSLAYER1
  6
CONTINUOUS
 62
     5
 10
2577.969500
 20
796.683447
 11
2577.969500
 21
861.483447
  0
LINE
  8
CSLAYER1
  6
CONTINUOUS
 62
     5
 10
2577.969500
 20
746.683447
 11
2577.969500
 21
796.683447
  0
LINE
  8
CSLAYER1
  6
CONTINUOUS
 62
     5
 10
2577.969500
 20
796.683447
 11
2570.204929
 21
767.705673
  0
LINE
  8
CSLAYER1
  6
CONTINUOUS
 62
     5
 10
2577.969500
 20
796.683447
 11
2585.734072
 21
767.705673
  0
LINE
  8
CSLAYER1
  6
CONTINUOUS
 62
     5
 10
2577.969500
 20
861.483447
 11
2577.969500
 21
911.483447
  0
LINE
  8
CSLAYER1
  6
CONTINUOUS
 62
     5
 10
2577.969500
 20
861.483447
 11
2570.204929
 21
890.461222
  0
LINE
  8
CSLAYER1
  6
CONTINUOUS
 62
     5
 10
2577.969500
 20
861.483447
 11
2585.734072
 21
890.461222
  0
ENDBLK
  8
0
  0
BLOCK
  8
CSLAYER1
  2
BLKF0000
 70
   64
 10
0.0
 20
0.0
 30
0.0
  0
ARC
  8
CSLAYER1
  6
CONTINUOUS
 62
     5
 10
2879.788704
 20
125.699049
 40
3.549225
 50
6.429109
 51
73.182034
  0
ARC
  8
CSLAYER1
  6
CONTINUOUS
 62
     5
 10
2876.327733
 20
124.540656
 40
6.907754
 50
310.517970
 51
330.092764
  0
ARC
  8
CSLAYER1
  6
CONTINUOUS
 62
     5
 10
2876.267084
 20
124.906174
 40
7.148321
 50
-32.205059
 51
9.585194
  0
ARC
  8
CSLAYER1
  6
CONTINUOUS
 62
     5
 10
2879.559812
 20
122.145176
 40
4.767514
 50
180.000000
 51
218.514150
  0
ARC
  8
CSLAYER1
  6
CONTINUOUS
 62
     5
 10
2878.273091
 20
121.468035
 40
3.348282
 50
222.781148
 51
319.406906
  0
ARC
  8
CSLAYER1
  6
CONTINUOUS
 62
     5
 10
2881.338733
 20
122.557928
 40
6.559434
 50
94.574282
 51
183.607718
  0
LINE
  8
CSLAYER1
  6
CONTINUOUS
 62
     5
 10
2894.782639
 20
117.441096
 11
2893.925603
 21
114.402513
  0
LINE
  8
CSLAYER1
  6
CONTINUOUS
 62
     5
 10
2896.574624
 20
137.308753
 11
2894.470989
 21
140.035686
  0
LINE
  8
CSLAYER1
  6
CONTINUOUS
 62
     5
 10
2894.470989
 20
140.035686
 11
2887.717635
 21
143.793598
  0
LINE
  8
CSLAYER1
  6
CONTINUOUS
 62
     5
 10
2887.717635
 20
143.793598
 11
2880.815608
 21
144.596469
  0
LINE
  8
CSLAYER1
  6
CONTINUOUS
 62
     5
 10
2862.526383
 20
131.217796
 11
2864.673077
 21
136.182026
  0
LINE
  8
CSLAYER1
  6
CONTINUOUS
 62
     5
 10
2864.636079
 20
136.096469
 11
2866.819771
 21
138.731226
  0
LINE
  8
CSLAYER1
  6
CONTINUOUS
 62
     5
 10
2866.819771
 20
138.731226
 11
2870.124193
 21
141.096469
  0
LINE
  8
CSLAYER1
  6
CONTINUOUS
 62
     5
 10
2880.815608
 20
144.596469
 11
2879.297432
 21
143.829625
  0
LINE
  8
CSLAYER1
  6
CONTINUOUS
 62
     5
 10
2879.297432
 20
143.829625
 11
2875.809054
 21
143.829625
  0
LINE
  8
CSLAYER1
  6
CONTINUOUS
 62
     5
 10
2875.809054
 20
143.829625
 11
2872.253591
 21
141.884183
  0
LINE
  8
CSLAYER1
  6
CONTINUOUS
 62
     5
 10
2872.253591
 20
141.884183
 11
2870.124193
 21
141.096469
  0
LINE
  8
CSLAYER1
  6
CONTINUOUS
 62
     5
 10
2862.526383
 20
131.217796
 11
2861.008835
 21
123.669193
  0
LINE
  8
CSLAYER1
  6
CONTINUOUS
 62
     5
 10
2861.008835
 20
123.669193
 11
2860.815608
 21
121.096469
  0
LINE
  8
CSLAYER1
  6
CONTINUOUS
 62
     5
 10
2863.524991
 20
113.256687
 11
2860.815608
 21
119.352798
  0
LINE
  8
CSLAYER1
  6
CONTINUOUS
 62
     5
 10
2860.815608
 20
119.352798
 11
2860.815608
 21
121.096469
  0
LINE
  8
CSLAYER1
  6
CONTINUOUS
 62
     5
 10
2893.925603
 20
114.402513
 11
2892.239816
 21
111.399506
  0
LINE
  8
CSLAYER1
  6
CONTINUOUS
 62
     5
 10
2892.239816
 20
111.399506
 11
2890.815608
 21
110.080796
  0
ARC
  8
CSLAYER1
  6
CONTINUOUS
 62
     5
 10
2878.623663
 20
121.633230
 40
17.266626
 50
208.054813
 51
260.640470
  0
ARC
  8
CSLAYER1
  6
CONTINUOUS
 62
     5
 10
2873.430268
 20
134.375699
 40
29.874611
 50
274.579659
 51
305.587364
  0
ARC
  8
CSLAYER1
  6
CONTINUOUS
 62
     5
 10
2884.402617
 20
128.391977
 40
15.088627
 50
313.467013
 51
331.085078
  0
LINE
  8
CSLAYER1
  6
CONTINUOUS
 62
     5
 10
2899.193949
 20
124.609890
 11
2899.491243
 21
128.391977
  0
LINE
  8
CSLAYER1
  6
CONTINUOUS
 62
     5
 10
2899.491243
 20
128.391977
 11
2898.199246
 21
134.500960
  0
LINE
  8
CSLAYER1
  6
CONTINUOUS
 62
     5
 10
2899.193949
 20
124.609890
 11
2897.610275
 21
121.096469
  0
ARC
  8
CSLAYER1
  6
CONTINUOUS
 62
     5
 10
2884.402617
 20
128.391977
 40
15.088627
 50
23.883193
 51
36.225170
  0
LINE
  8
CSLAYER1
  6
CONTINUOUS
 62
     5
 10
2844.815608
 20
156.096469
 11
2845.815608
 21
157.189114
  0
LINE
  8
CSLAYER1
  6
CONTINUOUS
 62
     5
 10
2844.815608
 20
156.096469
 11
2846.392566
 21
154.651436
  0
LINE
  8
CSLAYER1
  6
CONTINUOUS
 62
     5
 10
2847.931778
 20
152.542145
 11
2847.958047
 21
150.374026
  0
LINE
  8
CSLAYER1
  6
CONTINUOUS
 62
     5
 10
2847.958047
 20
150.374026
 11
2848.165445
 21
149.613566
  0
LINE
  8
CSLAYER1
  6
CONTINUOUS
 62
     5
 10
2848.165445
 20
149.613566
 11
2848.753072
 21
148.887673
  0
LINE
  8
CSLAYER1
  6
CONTINUOUS
 62
     5
 10
2848.753072
 20
148.887673
 11
2849.340700
 21
148.956806
  0
LINE
  8
CSLAYER1
  6
CONTINUOUS
 62
     5
 10
2849.340700
 20
148.956806
 11
2849.962894
 21
149.129638
  0
LINE
  8
CSLAYER1
  6
CONTINUOUS
 62
     5
 10
2849.962894
 20
149.129638
 11
2850.377690
 21
148.956806
  0
LINE
  8
CSLAYER1
  6
CONTINUOUS
 62
     5
 10
2850.377690
 20
148.956806
 11
2851.276414
 21
148.507444
  0
LINE
  8
CSLAYER1
  6
CONTINUOUS
 62
     5
 10
2851.276414
 20
148.507444
 11
2852.052466
 21
148.096469
  0
LINE
  8
CSLAYER1
  6
CONTINUOUS
 62
     5
 10
2852.052466
 20
148.096469
 11
2852.555369
 21
148.127214
  0
LINE
  8
CSLAYER1
  6
CONTINUOUS
 62
     5
 10
2852.555369
 20
148.127214
 11
2855.363241
 21
149.573693
  0
LINE
  8
CSLAYER1
  6
CONTINUOUS
 62
     5
 10
2845.815608
 20
157.189114
 11
2846.148460
 21
158.662821
  0
LINE
  8
CSLAYER1
  6
CONTINUOUS
 62
     5
 10
2846.148460
 20
158.662821
 11
2847.601865
 21
158.813173
  0
LINE
  8
CSLAYER1
  6
CONTINUOUS
 62
     5
 10
2849.095623
 20
161.581632
 11
2850.849796
 21
161.738722
  0
LINE
  8
CSLAYER1
  6
CONTINUOUS
 62
     5
 10
2850.849796
 20
161.738722
 11
2854.384324
 21
162.576536
  0
LINE
  8
CSLAYER1
  6
CONTINUOUS
 62
     5
 10
2854.384324
 20
162.576536
 11
2855.815608
 21
162.908175
  0
LINE
  8
CSLAYER1
  6
CONTINUOUS
 62
     5
 10
2849.095623
 20
161.581632
 11
2847.162732
 21
161.740500
  0
LINE
  8
CSLAYER1
  6
CONTINUOUS
 62
     5
 10
2846.426609
 20
160.871812
 11
2846.520135
 21
160.500651
  0
LINE
  8
CSLAYER1
  6
CONTINUOUS
 62
     5
 10
2846.520135
 20
160.500651
 11
2847.011729
 21
159.962970
  0
LINE
  8
CSLAYER1
  6
CONTINUOUS
 62
     5
 10
2847.011729
 20
159.962970
 11
2847.687670
 21
159.456014
  0
LINE
  8
CSLAYER1
  6
CONTINUOUS
 62
     5
 10
2847.687670
 20
159.456014
 11
2847.810995
 21
159.291581
  0
LINE
  8
CSLAYER1
  6
CONTINUOUS
 62
     5
 10
2846.392566
 20
154.651436
 11
2847.931778
 21
152.542145
  0
ARC
  8
CSLAYER1
  6
CONTINUOUS
 62
     5
 10
2890.802308
 20
-15.562184
 40
180.727463
 50
80.438896
 51
96.353582
  0
ARC
  8
CSLAYER1
  6
CONTINUOUS
 62
     5
 10
2865.903395
 20
129.685717
 40
34.720242
 50
81.866516
 51
106.890578
  0
LINE
  8
CSLAYER1
  6
CONTINUOUS
 62
     5
 10
2925.009869
 20
161.863139
 11
2927.256952
 21
160.841738
  0
LINE
  8
CSLAYER1
  6
CONTINUOUS
 62
     5
 10
2930.831856
 20
159.258566
 11
2927.256952
 21
160.841738
  0
LINE
  8
CSLAYER1
  6
CONTINUOUS
 62
     5
 10
2925.009869
 20
161.863139
 11
2920.815608
 21
162.655711
  0
LINE
  8
CSLAYER1
  6
CONTINUOUS
 62
     5
 10
2930.815608
 20
159.265762
 11
2932.687183
 21
157.697285
  0
LINE
  8
CSLAYER1
  6
CONTINUOUS
 62
     5
 10
2914.058864
 20
160.302613
 11
2914.958139
 21
161.755288
  0
LINE
  8
CSLAYER1
  6
CONTINUOUS
 62
     5
 10
2914.958139
 20
161.755288
 11
2919.633737
 21
160.635778
  0
LINE
  8
CSLAYER1
  6
CONTINUOUS
 62
     5
 10
2919.633737
 20
160.635778
 11
2936.376123
 21
156.096469
  0
LINE
  8
CSLAYER1
  6
CONTINUOUS
 62
     5
 10
2939.315608
 20
156.096469
 11
2932.687183
 21
157.697285
  0
LINE
  8
CSLAYER1
  6
CONTINUOUS
 62
     5
 10
2936.376123
 20
156.096469
 11
2939.315608
 21
156.096469
  0
LINE
  8
CSLAYER1
  6
CONTINUOUS
 62
     5
 10
2880.815608
 20
160.561410
 11
2900.815608
 21
161.096469
  0
LINE
  8
CSLAYER1
  6
CONTINUOUS
 62
     5
 10
2900.815608
 20
161.096469
 11
2914.058864
 21
160.302613
  0
LINE
  8
CSLAYER1
  6
CONTINUOUS
 62
     5
 10
2915.661845
 20
158.242133
 11
2900.815608
 21
159.596469
  0
LINE
  8
CSLAYER1
  6
CONTINUOUS
 62
     5
 10
2900.815608
 20
159.596469
 11
2885.766398
 21
160.005121
  0
LINE
  8
CSLAYER1
  6
CONTINUOUS
 62
     5
 10
2885.815608
 20
160.003785
 11
2880.815608
 21
160.099079
  0
LINE
  8
CSLAYER1
  6
CONTINUOUS
 62
     5
 10
2880.815608
 20
160.561410
 11
2880.815608
 21
160.099079
  0
LINE
  8
CSLAYER1
  6
CONTINUOUS
 62
     5
 10
2938.315608
 20
152.596469
 11
2929.473049
 21
154.907131
  0
LINE
  8
CSLAYER1
  6
CONTINUOUS
 62
     5
 10
2915.661845
 20
158.242133
 11
2925.815608
 21
156.269750
  0
LINE
  8
CSLAYER1
  6
CONTINUOUS
 62
     5
 10
2925.815608
 20
156.269750
 11
2929.473049
 21
154.907131
  0
LINE
  8
CSLAYER1
  6
CONTINUOUS
 62
     5
 10
2938.315608
 20
152.596469
 11
2938.022991
 21
151.757364
  0
LINE
  8
CSLAYER1
  6
CONTINUOUS
 62
     5
 10
2947.815608
 20
147.096469
 11
2947.509581
 21
148.325450
  0
LINE
  8
CSLAYER1
  6
CONTINUOUS
 62
     5
 10
2938.022991
 20
151.757364
 11
2947.509581
 21
148.325450
  0
LINE
  8
CSLAYER1
  6
CONTINUOUS
 62
     5
 10
2884.315608
 20
152.596469
 11
2886.738646
 21
152.596469
  0
LINE
  8
CSLAYER1
  6
CONTINUOUS
 62
     5
 10
2906.815608
 20
153.028965
 11
2906.815608
 21
152.596469
  0
LINE
  8
CSLAYER1
  6
CONTINUOUS
 62
     5
 10
2905.815608
 20
153.563406
 11
2904.104329
 21
154.200584
  0
LINE
  8
CSLAYER1
  6
CONTINUOUS
 62
     5
 10
2904.104329
 20
154.200584
 11
2902.994273
 21
154.251041
  0
LINE
  8
CSLAYER1
  6
CONTINUOUS
 62
     5
 10
2902.994273
 20
154.251041
 11
2902.514930
 21
153.998756
  0
LINE
  8
CSLAYER1
  6
CONTINUOUS
 62
     5
 10
2902.514930
 20
153.998756
 11
2902.414016
 21
153.595099
  0
LINE
  8
CSLAYER1
  6
CONTINUOUS
 62
     5
 10
2902.414016
 20
153.595099
 11
2902.868130
 21
153.292356
  0
LINE
  8
CSLAYER1
  6
CONTINUOUS
 62
     5
 10
2902.868130
 20
153.292356
 11
2904.507985
 21
153.140985
  0
LINE
  8
CSLAYER1
  6
CONTINUOUS
 62
     5
 10
2904.507985
 20
153.140985
 11
2906.815608
 21
153.028965
  0
LINE
  8
CSLAYER1
  6
CONTINUOUS
 62
     5
 10
2947.815608
 20
147.096469
 11
2944.840065
 21
148.283051
  0
LINE
  8
CSLAYER1
  6
CONTINUOUS
 62
     5
 10
2944.840065
 20
148.283051
 11
2934.784376
 21
150.125926
  0
LINE
  8
CSLAYER1
  6
CONTINUOUS
 62
     5
 10
2934.784376
 20
150.125926
 11
2929.758596
 21
151.285722
  0
LINE
  8
CSLAYER1
  6
CONTINUOUS
 62
     5
 10
2907.349829
 20
153.596469
 11
2919.115495
 21
153.596469
  0
LINE
  8
CSLAYER1
  6
CONTINUOUS
 62
     5
 10
2905.815608
 20
153.563406
 11
2906.340268
 21
153.254938
  0
LINE
  8
CSLAYER1
  6
CONTINUOUS
 62
     5
 10
2906.340268
 20
153.254938
 11
2906.637080
 21
153.165895
  0
LINE
  8
CSLAYER1
  6
CONTINUOUS
 62
     5
 10
2906.637080
 20
153.165895
 11
2906.815608
 21
153.191065
  0
LINE
  8
CSLAYER1
  6
CONTINUOUS
 62
     5
 10
2906.815608
 20
153.191065
 11
2907.349829
 21
153.596469
  0
LINE
  8
CSLAYER1
  6
CONTINUOUS
 62
     5
 10
2919.115495
 20
153.596469
 11
2923.565764
 21
152.567644
  0
LINE
  8
CSLAYER1
  6
CONTINUOUS
 62
     5
 10
2923.565764
 20
152.567644
 11
2927.718955
 21
151.402495
  0
LINE
  8
CSLAYER1
  6
CONTINUOUS
 62
     5
 10
2927.718955
 20
151.402495
 11
2929.758596
 21
151.285722
  0
LINE
  8
CSLAYER1
  6
CONTINUOUS
 62
     5
 10
2883.315608
 20
151.596469
 11
2883.315608
 21
151.096469
  0
LINE
  8
CSLAYER1
  6
CONTINUOUS
 62
     5
 10
2880.815608
 20
151.096469
 11
2883.315608
 21
151.096469
  0
ARC
  8
CSLAYER1
  6
CONTINUOUS
 62
     5
 10
2884.315608
 20
151.596469
 40
1.000000
 50
90.000000
 51
180.000000
  0
LINE
  8
CSLAYER1
  6
CONTINUOUS
 62
     5
 10
2886.738646
 20
152.596469
 11
2887.436203
 21
152.024473
  0
LINE
  8
CSLAYER1
  6
CONTINUOUS
 62
     5
 10
2888.038571
 20
152.000512
 11
2888.896167
 21
152.596469
  0
LINE
  8
CSLAYER1
  6
CONTINUOUS
 62
     5
 10
2890.474564
 20
152.596469
 11
2892.141689
 21
151.938393
  0
LINE
  8
CSLAYER1
  6
CONTINUOUS
 62
     5
 10
2892.565398
 20
151.964906
 11
2893.718885
 21
152.596469
  0
LINE
  8
CSLAYER1
  6
CONTINUOUS
 62
     5
 10
2888.896167
 20
152.596469
 11
2890.474564
 21
152.596469
  0
LINE
  8
CSLAYER1
  6
CONTINUOUS
 62
     5
 10
2893.718885
 20
152.596469
 11
2906.815608
 21
152.596469
  0
LINE
  8
CSLAYER1
  6
CONTINUOUS
 62
     5
 10
2859.364591
 20
149.487643
 11
2880.815608
 21
151.096469
  0
LINE
  8
CSLAYER1
  6
CONTINUOUS
 62
     5
 10
2855.363241
 20
149.573693
 11
2859.364591
 21
149.487643
  0
ARC
  8
CSLAYER1
  6
CONTINUOUS
 62
     5
 10
2887.753242
 20
152.411107
 40
0.500000
 50
230.648247
 51
304.796026
  0
ARC
  8
CSLAYER1
  6
CONTINUOUS
 62
     5
 10
2892.325272
 20
152.403471
 40
0.500000
 50
248.459024
 51
298.701829
  0
ARC
  8
CSLAYER1
  6
CONTINUOUS
 62
     5
 10
2847.570995
 20
159.111581
 40
0.300000
 50
-84.093859
 51
36.869898
  0
ARC
  8
CSLAYER1
  6
CONTINUOUS
 62
     5
 10
2847.105391
 20
161.042852
 40
0.700000
 50
85.301319
 51
194.142980
  0
LINE
  8
CSLAYER1
  6
CONTINUOUS
 62
     3
 10
2879.297432
 20
143.829625
 11
2887.407928
 21
143.829625
  0
LINE
  8
CSLAYER1
  6
CONTINUOUS
 62
     3
 10
2872.884916
 20
142.229625
 11
2890.528257
 21
142.229625
  0
LINE
  8
CSLAYER1
  6
CONTINUOUS
 62
     3
 10
2869.471977
 20
140.629625
 11
2893.403621
 21
140.629625
  0
LINE
  8
CSLAYER1
  6
CONTINUOUS
 62
     3
 10
2867.236657
 20
139.029625
 11
2895.247094
 21
139.029625
  0
LINE
  8
CSLAYER1
  6
CONTINUOUS
 62
     3
 10
2865.741002
 20
137.429625
 11
2896.481380
 21
137.429625
  0
LINE
  8
CSLAYER1
  6
CONTINUOUS
 62
     3
 10
2864.520687
 20
135.829625
 11
2897.530756
 21
135.829625
  0
LINE
  8
CSLAYER1
  6
CONTINUOUS
 62
     3
 10
2863.828795
 20
134.229625
 11
2898.256631
 21
134.229625
  0
LINE
  8
CSLAYER1
  6
CONTINUOUS
 62
     3
 10
2863.136903
 20
132.629625
 11
2898.595017
 21
132.629625
  0
LINE
  8
CSLAYER1
  6
CONTINUOUS
 62
     3
 10
2862.488553
 20
131.029625
 11
2898.933404
 21
131.029625
  0
LINE
  8
CSLAYER1
  6
CONTINUOUS
 62
     3
 10
2862.166894
 20
129.429625
 11
2899.271790
 21
129.429625
  0
LINE
  8
CSLAYER1
  6
CONTINUOUS
 62
     3
 10
2861.845235
 20
127.829625
 11
2877.435478
 21
127.829625
  0
LINE
  8
CSLAYER1
  6
CONTINUOUS
 62
     3
 10
2861.523577
 20
126.229625
 11
2875.903218
 21
126.229625
  0
LINE
  8
CSLAYER1
  6
CONTINUOUS
 62
     3
 10
2861.201918
 20
124.629625
 11
2875.115048
 21
124.629625
  0
LINE
  8
CSLAYER1
  6
CONTINUOUS
 62
     3
 10
2860.960800
 20
123.029625
 11
2874.796280
 21
123.029625
  0
LINE
  8
CSLAYER1
  6
CONTINUOUS
 62
     3
 10
2860.840630
 20
121.429625
 11
2874.846301
 21
121.429625
  0
LINE
  8
CSLAYER1
  6
CONTINUOUS
 62
     3
 10
2860.815608
 20
119.829625
 11
2875.392388
 21
119.829625
  0
LINE
  8
CSLAYER1
  6
CONTINUOUS
 62
     3
 10
2861.314796
 20
118.229625
 11
2877.422391
 21
118.229625
  0
LINE
  8
CSLAYER1
  6
CONTINUOUS
 62
     3
 10
2862.025907
 20
116.629625
 11
2894.553763
 21
116.629625
  0
LINE
  8
CSLAYER1
  6
CONTINUOUS
 62
     3
 10
2862.737018
 20
115.029625
 11
2894.102481
 21
115.029625
  0
LINE
  8
CSLAYER1
  6
CONTINUOUS
 62
     3
 10
2863.448129
 20
113.429625
 11
2893.379456
 21
113.429625
  0
LINE
  8
CSLAYER1
  6
CONTINUOUS
 62
     3
 10
2864.410088
 20
111.829625
 11
2892.481270
 21
111.829625
  0
LINE
  8
CSLAYER1
  6
CONTINUOUS
 62
     3
 10
2865.658549
 20
110.229625
 11
2890.976343
 21
110.229625
  0
LINE
  8
CSLAYER1
  6
CONTINUOUS
 62
     3
 10
2867.263969
 20
108.629625
 11
2888.583883
 21
108.629625
  0
LINE
  8
CSLAYER1
  6
CONTINUOUS
 62
     3
 10
2869.411111
 20
107.029625
 11
2885.458759
 21
107.029625
  0
LINE
  8
CSLAYER1
  6
CONTINUOUS
 62
     3
 10
2872.658802
 20
105.429625
 11
2880.820611
 21
105.429625
  0
LINE
  8
CSLAYER1
  6
CONTINUOUS
 62
     3
 10
2882.627302
 20
127.829625
 11
2899.447039
 21
127.829625
  0
LINE
  8
CSLAYER1
  6
CONTINUOUS
 62
     3
 10
2883.298046
 20
126.229625
 11
2899.321270
 21
126.229625
  0
LINE
  8
CSLAYER1
  6
CONTINUOUS
 62
     3
 10
2883.410053
 20
124.629625
 11
2899.195500
 21
124.629625
  0
LINE
  8
CSLAYER1
  6
CONTINUOUS
 62
     3
 10
2883.164696
 20
123.029625
 11
2898.481645
 21
123.029625
  0
LINE
  8
CSLAYER1
  6
CONTINUOUS
 62
     3
 10
2882.513050
 20
121.429625
 11
2897.760445
 21
121.429625
  0
LINE
  8
CSLAYER1
  6
CONTINUOUS
 62
     3
 10
2881.379787
 20
119.829625
 11
2896.826496
 21
119.829625
  0
LINE
  8
CSLAYER1
  6
CONTINUOUS
 62
     3
 10
2879.123791
 20
118.229625
 11
2895.555789
 21
118.229625
  0
TEXT
  8
CSLAYER1
 62
     5
 10
2899.987333
 20
125.840801
 40
4.713448
 41
1.951056
  1
M
 50
0.000000
 51
0.000000
  7
EASYDRAW_FONT
 72
     5
 11
2906.118135
 21
125.840801
  0
TEXT
  8
CSLAYER1
 62
     5
 10
2909.638721
 20
125.782530
 40
4.626621
 41
0.778201
  1
T
 50
0.000000
 51
0.000000
  7
EASYDRAW_FONT
 72
     5
 11
2912.039014
 21
125.782530
  0
TEXT
  8
CSLAYER1
 62
     5
 10
2912.404283
 20
125.817329
 40
4.696183
 41
1.055553
  1
E
 50
0.000000
 51
0.000000
  7
EASYDRAW_FONT
 72
     5
 11
2915.708998
 21
125.817329
  0
TEXT
  8
CSLAYER1
 62
     5
 10
2915.520464
 20
127.433173
 40
0.348283
 41
9.375319
  1
-
 50
0.000000
 51
0.000000
  7
EASYDRAW_FONT
 72
     5
 11
2917.697309
 21
127.433173
  0
TEXT
  8
CSLAYER1
 62
     5
 10
2917.334674
 20
125.785983
 40
4.861659
 41
1.298502
  1
H
 50
0.000000
 51
0.000000
  7
EASYDRAW_FONT
 72
     5
 11
2921.543256
 21
125.785983
  0
TEXT
  8
CSLAYER1
 62
     5
 10
2921.410689
 20
125.816361
 40
4.843139
 41
1.269236
  1
A
 50
0.000000
 51
0.000000
  7
EASYDRAW_FONT
 72
     5
 11
2925.508745
 21
125.816361
  0
TEXT
  8
CSLAYER1
 62
     5
 10
2925.116845
 20
125.774834
 40
4.825362
 41
1.490144
  1
N
 50
0.000000
 51
0.000000
  7
EASYDRAW_FONT
 72
     5
 11
2929.910499
 21
125.774834
  0
TEXT
  8
CSLAYER1
 62
     5
 10
2905.908302
 20
125.752261
 40
4.982325
 41
1.177443
  1
A
 50
0.000000
 51
0.000000
  7
EASYDRAW_FONT
 72
     5
 11
2909.819237
 21
125.752261
  0
TEXT
  8
CSLAYER1
 62
     5
 10
2900.354347
 20
118.757022
 40
4.982325
 41
1.177443
  1
A
 50
0.000000
 51
0.000000
  7
EASYDRAW_FONT
 72
     5
 11
2904.265282
 21
118.757022
  0
TEXT
  8
CSLAYER1
 62
     5
 10
2913.138771
 20
118.785342
 40
4.982325
 41
1.177443
  1
A
 50
0.000000
 51
0.000000
  7
EASYDRAW_FONT
 72
     5
 11
2917.049706
 21
118.785342
  0
TEXT
  8
CSLAYER1
 62
     5
 10
2916.899315
 20
118.842339
 40
4.825362
 41
1.490144
  1
N
 50
0.000000
 51
0.000000
  7
EASYDRAW_FONT
 72
     5
 11
2921.692970
 21
118.842339
  0
TEXT
  8
CSLAYER1
 62
     5
 10
2925.801651
 20
118.850734
 40
4.841775
 41
1.184218
  1
E
 50
0.000000
 51
0.000000
  7
EASYDRAW_FONT
 72
     5
 11
2929.624130
 21
118.850734
  0
TEXT
  8
CSLAYER1
 62
     5
 10
2904.634901
 20
118.755697
 40
4.947865
 41
1.093992
  1
D
 50
0.000000
 51
0.000000
  7
EASYDRAW_FONT
 72
     5
 11
2908.243517
 21
118.755697
  0
TEXT
  8
CSLAYER1
 62
     5
 10
2909.037259
 20
118.750313
 40
4.924210
 41
1.228195
  1
V
 50
0.000000
 51
0.000000
  7
EASYDRAW_FONT
 72
     5
 11
2913.069186
 21
118.750313
  0
TEXT
  8
CSLAYER1
 62
     5
 10
2921.262460
 20
118.771044
 40
5.032894
 41
1.481023
  1
C
 50
0.000000
 51
0.000000
  7
EASYDRAW_FONT
 72
     5
 11
2926.231680
 21
118.771044
  0
LINE
  8
CSLAYER1
  6
CONTINUOUS
 62
     5
 10
2911.892945
 20
129.831441
 11
2910.880883
 21
129.831441
  0
LINE
  8
CSLAYER1
  6
CONTINUOUS
 62
     3
 10
2860.991183
 20
164.056712
 11
2910.789009
 21
164.056712
  0
LINE
  8
CSLAYER1
  6
CONTINUOUS
 62
     3
 10
2853.878819
 20
162.456712
 11
2921.868700
 21
162.456712
  0
LINE
  8
CSLAYER1
  6
CONTINUOUS
 62
     3
 10
2846.430414
 20
160.856712
 11
2891.853724
 21
160.856712
  0
LINE
  8
CSLAYER1
  6
CONTINUOUS
 62
     3
 10
2904.815274
 20
160.856712
 11
2914.401878
 21
160.856712
  0
LINE
  8
CSLAYER1
  6
CONTINUOUS
 62
     3
 10
2918.711011
 20
160.856712
 11
2927.224008
 21
160.856712
  0
LINE
  8
CSLAYER1
  6
CONTINUOUS
 62
     3
 10
2847.833553
 20
159.256712
 11
2904.540023
 21
159.256712
  0
LINE
  8
CSLAYER1
  6
CONTINUOUS
 62
     3
 10
2924.720161
 20
159.256712
 11
2930.826406
 21
159.256712
  0
LINE
  8
CSLAYER1
  6
CONTINUOUS
 62
     3
 10
2845.921220
 20
157.656712
 11
2918.675571
 21
157.656712
  0
LINE
  8
CSLAYER1
  6
CONTINUOUS
 62
     3
 10
2930.621460
 20
157.656712
 11
2932.855181
 21
157.656712
  0
LINE
  8
CSLAYER1
  6
CONTINUOUS
 62
     3
 10
2844.858994
 20
156.056712
 11
2926.387427
 21
156.056712
  0
LINE
  8
CSLAYER1
  6
CONTINUOUS
 62
     3
 10
2846.534661
 20
154.456712
 11
2931.196735
 21
154.456712
  0
LINE
  8
CSLAYER1
  6
CONTINUOUS
 62
     3
 10
2847.702229
 20
152.856712
 11
2906.815608
 21
152.856712
  0
LINE
  8
CSLAYER1
  6
CONTINUOUS
 62
     3
 10
2922.315373
 20
152.856712
 11
2937.319696
 21
152.856712
  0
LINE
  8
CSLAYER1
  6
CONTINUOUS
 62
     3
 10
2847.947352
 20
151.256712
 11
2883.315608
 21
151.256712
  0
LINE
  8
CSLAYER1
  6
CONTINUOUS
 62
     3
 10
2929.884302
 20
151.256712
 11
2939.406904
 21
151.256712
  0
LINE
  8
CSLAYER1
  6
CONTINUOUS
 62
     3
 10
2848.153677
 20
149.656712
 11
2861.618851
 21
149.656712
  0
LINE
  8
CSLAYER1
  6
CONTINUOUS
 62
     3
 10
2937.344650
 20
149.656712
 11
2943.829669
 21
149.656712
  0
LINE
  8
CSLAYER1
  6
CONTINUOUS
 62
     3
 10
2945.407645
 20
148.056712
 11
2947.576499
 21
148.056712
  0
ENDBLK
  8
0
  0
BLOCK
  8
CSLAYER1
  2
BLKF0001
 70
   64
 10
0.0
 20
0.0
 30
0.0
  0
CIRCLE
  8
CSLAYER1
  6
CONTINUOUS
 62
     3
 10
1769.368933
 20
1077.460683
 40
8.500000
  0
LINE
  8
CSLAYER1
  6
CONTINUOUS
 62
     3
 10
1774.276411
 20
1085.960683
 11
1764.461456
 21
1085.960683
  0
LINE
  8
CSLAYER1
  6
CONTINUOUS
 62
     3
 10
1764.461456
 20
1085.960683
 11
1759.553979
 21
1077.460683
  0
LINE
  8
CSLAYER1
  6
CONTINUOUS
 62
     3
 10
1759.553979
 20
1077.460683
 11
1764.461456
 21
1068.960683
  0
LINE
  8
CSLAYER1
  6
CONTINUOUS
 62
     3
 10
1764.461456
 20
1068.960683
 11
1774.276411
 21
1068.960683
  0
LINE
  8
CSLAYER1
  6
CONTINUOUS
 62
     3
 10
1774.276411
 20
1068.960683
 11
1779.183888
 21
1077.460683
  0
LINE
  8
CSLAYER1
  6
CONTINUOUS
 62
     3
 10
1779.183888
 20
1077.460683
 11
1774.276411
 21
1085.960683
  0
CIRCLE
  8
CSLAYER1
  6
CONTINUOUS
 62
     4
 10
1769.368933
 20
1077.460683
 40
5.000000
  0
CIRCLE
  8
CSLAYER1
  6
CONTINUOUS
 62
     3
 10
1769.368933
 20
1077.460683
 40
4.300000
  0
POINT
  8
CSLAYER1
 62
     3
 10
1769.368933
 20
1077.460683
  0
ENDBLK
  8
0
  0
BLOCK
  8
CSLAYER1
  2
BLKF0002
 70
   64
 10
0.0
 20
0.0
 30
0.0
  0
POINT
  8
CSLAYER1
 62
     3
 10
1578.816849
 20
814.183447
  0
CIRCLE
  8
CSLAYER1
  6
CONTINUOUS
 62
     3
 10
1578.816849
 20
814.183447
 40
9.500000
  0
LINE
  8
CSLAYER1
  6
CONTINUOUS
 62
     3
 10
1588.316849
 20
819.668275
 11
1578.816849
 21
825.153102
  0
LINE
  8
CSLAYER1
  6
CONTINUOUS
 62
     3
 10
1578.816849
 20
825.153102
 11
1569.316849
 21
819.668275
  0
LINE
  8
CSLAYER1
  6
CONTINUOUS
 62
     3
 10
1569.316849
 20
819.668275
 11
1569.316849
 21
808.698620
  0
LINE
  8
CSLAYER1
  6
CONTINUOUS
 62
     3
 10
1569.316849
 20
808.698620
 11
1578.816849
 21
803.213792
  0
LINE
  8
CSLAYER1
  6
CONTINUOUS
 62
     3
 10
1578.816849
 20
803.213792
 11
1588.316849
 21
808.698620
  0
LINE
  8
CSLAYER1
  6
CONTINUOUS
 62
     3
 10
1588.316849
 20
808.698620
 11
1588.316849
 21
819.668275
  0
POINT
  8
CSLAYER1
 62
     3
 10
1578.816849
 20
814.183447
  0
ENDBLK
  8
0
  0
BLOCK
  8
CSLAYER1
  2
BLKF0003
 70
   64
 10
0.0
 20
0.0
 30
0.0
  0
LINE
  8
CSLAYER1
  6
CONTINUOUS
 62
     3
 10
1597.816849
 20
802.683447
 11
1597.816849
 21
836.683447
  0
LINE
  8
CSLAYER1
  6
CONTINUOUS
 62
     3
 10
1553.816849
 20
802.683447
 11
1603.816849
 21
802.683447
  0
LINE
  8
CSLAYER1
  6
CONTINUOUS
 62
     3
 10
1603.816849
 20
796.683447
 11
1603.816849
 21
802.683447
  0
ENDBLK
  8
0
  0
BLOCK
  8
CSLAYER1
  2
BLKF0004
 70
   64
 10
0.0
 20
0.0
 30
0.0
  0
TEXT
  8
CSLAYER1
 62
     7
 10
1343.320923
 20
1294.373535
 40
40.000000
 41
0.787500
  1
テーブルのズレ
 50
0.000000
 51
0.000000
  7
EASYDRAW_FONT
 72
     5
 11
1553.320923
 21
1294.373535
  0
DIMENSION
  8
CSLAYER1
 62
     3
  2
*D0010
 10
1578.794154
 20
1229.140693
 11
1470.826782
 21
1246.856201
 13
1556.516849
 23
861.483447
 14
1578.794154
 24
1376.661558
  0
INSERT
  8
CSLAYER1
  2
EASYDRAWDIM0003
 10
0.0
 20
0.0
 30
0.0
  0
LINE
  8
CSLAYER1
  6
CONTINUOUS
 62
     5
 10
1665.729115
 20
1020.115201
 11
1508.577540
 21
1112.236956
  0
LINE
  8
CSLAYER1
  6
CONTINUOUS
 62
     5
 10
1665.729115
 20
1020.115201
 11
1636.803293
 21
1028.071130
  0
LINE
  8
CSLAYER1
  6
CONTINUOUS
 62
     5
 10
1665.729115
 20
1020.115201
 11
1644.656583
 21
1041.468149
  0
ENDBLK
  8
0
  0
BLOCK
  8
CSLAYER1
  2
BLKF0005
 70
   64
 10
0.0
 20
0.0
 30
0.0
  0
TEXT
  8
CSLAYER1
 62
     7
 10
543.636780
 20
2333.742920
 40
40.000000
 41
0.778846
  1
電動式油圧ユニット
 50
0.000000
 51
0.000000
  7
EASYDRAW_FONT
 72
     5
 11
813.636780
 21
2333.742920
  0
LINE
  8
CSLAYER1
  6
CONTINUOUS
 62
     5
 10
265.931002
 20
2396.817948
 11
1110.862509
 21
2396.817948
  0
LINE
  8
CSLAYER1
  6
CONTINUOUS
 62
     5
 10
1110.862509
 20
2396.817948
 11
1110.862509
 21
1571.954101
  0
LINE
  8
CSLAYER1
  6
CONTINUOUS
 62
     5
 10
265.931002
 20
1571.954101
 11
265.931002
 21
2396.817948
  0
TEXT
  8
CSLAYER1
 62
     3
 10
427.175051
 20
2208.571829
 40
39.957333
 41
1.050000
  1
278
 50
30.000000
 51
0.000000
  7
EASYDRAW_FONT
 72
     5
 11
524.066433
 21
2264.512094
  0
TEXT
  8
CSLAYER1
 62
     3
 10
599.028904
 20
2248.681040
 40
39.957333
 41
1.050000
  1
415
 50
-30.000000
 51
0.000000
  7
EASYDRAW_FONT
 72
     5
 11
695.920286
 21
2192.740774
  0
TEXT
  8
CSLAYER1
 62
     3
 10
351.513395
 20
2052.632244
 40
39.957333
 41
1.050000
  1
275
 50
90.000000
 51
0.000000
  7
EASYDRAW_FONT
 72
     5
 11
351.513395
 21
2164.512775
  0
LINE
  8
CSLAYER1
  6
CONTINUOUS
 62
     5
 10
364.269197
 20
2161.520788
 11
408.222264
 21
2136.144473
  0
LINE
  8
CSLAYER1
  6
CONTINUOUS
 62
     5
 10
412.217997
 20
2189.204041
 11
412.217997
 21
2138.451411
  0
LINE
  8
CSLAYER1
  6
CONTINUOUS
 62
     5
 10
715.893731
 20
2175.362414
 11
715.893731
 21
2124.609784
  0
LINE
  8
CSLAYER1
  6
CONTINUOUS
 62
     5
 10
412.217997
 20
2179.976290
 11
552.068664
 21
2260.719110
  0
LINE
  8
CSLAYER1
  6
CONTINUOUS
 62
     5
 10
412.217997
 20
2179.976290
 11
433.431201
 21
2201.189493
  0
LINE
  8
CSLAYER1
  6
CONTINUOUS
 62
     5
 10
412.217997
 20
2179.976290
 11
441.195772
 21
2187.740861
  0
LINE
  8
CSLAYER1
  6
CONTINUOUS
 62
     5
 10
552.068664
 20
2260.719110
 11
530.855461
 21
2239.505906
  0
LINE
  8
CSLAYER1
  6
CONTINUOUS
 62
     5
 10
552.068664
 20
2260.719110
 11
523.090889
 21
2252.954538
  0
LINE
  8
CSLAYER1
  6
CONTINUOUS
 62
     5
 10
552.068664
 20
2260.719110
 11
715.893731
 21
2166.134663
  0
LINE
  8
CSLAYER1
  6
CONTINUOUS
 62
     5
 10
552.068664
 20
2260.719110
 11
581.046439
 21
2252.954538
  0
LINE
  8
CSLAYER1
  6
CONTINUOUS
 62
     5
 10
552.068664
 20
2260.719110
 11
573.281868
 21
2239.505906
  0
LINE
  8
CSLAYER1
  6
CONTINUOUS
 62
     5
 10
715.893731
 20
2166.134663
 11
686.915956
 21
2173.899235
  0
LINE
  8
CSLAYER1
  6
CONTINUOUS
 62
     5
 10
715.893731
 20
2166.134663
 11
694.680527
 21
2187.347867
  0
LINE
  8
CSLAYER1
  6
CONTINUOUS
 62
     5
 10
552.068664
 20
2269.946861
 11
552.068664
 21
2219.194231
  0
LINE
  8
CSLAYER1
  6
CONTINUOUS
 62
     5
 10
372.260664
 20
2156.906912
 11
372.260664
 21
2041.560027
  0
LINE
  8
CSLAYER1
  6
CONTINUOUS
 62
     5
 10
372.260664
 20
2156.906912
 11
364.496093
 21
2127.929138
  0
LINE
  8
CSLAYER1
  6
CONTINUOUS
 62
     5
 10
372.260664
 20
2156.906912
 11
380.025235
 21
2127.929138
  0
LINE
  8
CSLAYER1
  6
CONTINUOUS
 62
     5
 10
372.260664
 20
2041.560027
 11
364.496093
 21
2070.537802
  0
LINE
  8
CSLAYER1
  6
CONTINUOUS
 62
     5
 10
372.260664
 20
2041.560027
 11
380.025235
 21
2070.537802
  0
TEXT
  8
CSLAYER1
 62
     3
 10
852.969406
 20
2138.670992
 40
39.957333
 41
1.028571
  1
高圧ホース
 50
0.000000
 51
0.000000
  7
EASYDRAW_FONT
 72
     5
 11
1044.764603
 21
2138.670992
  0
TEXT
  8
CSLAYER1
 62
     3
 10
329.789963
 20
1892.420992
 40
39.957333
 41
1.028571
  1
電源コード
 50
0.000000
 51
0.000000
  7
EASYDRAW_FONT
 72
     5
 11
521.585159
 21
1892.420992
  0
LINE
  8
CSLAYER1
  6
CONTINUOUS
 62
     5
 10
752.607031
 20
1980.971052
 11
838.941754
 21
2130.507180
  0
LINE
  8
CSLAYER1
  6
CONTINUOUS
 62
     5
 10
752.607031
 20
1980.971052
 11
760.371602
 21
2009.948827
  0
LINE
  8
CSLAYER1
  6
CONTINUOUS
 62
     5
 10
752.607031
 20
1980.971052
 11
773.820234
 21
2002.184256
  0
LINE
  8
CSLAYER1
  6
CONTINUOUS
 62
     5
 10
1059.656220
 20
2130.507180
 11
838.941754
 21
2130.507180
  0
LINE
  8
CSLAYER1
  6
CONTINUOUS
 62
     5
 10
332.328106
 20
1884.990221
 11
526.070586
 21
1884.990221
  0
LINE
  8
CSLAYER1
  6
CONTINUOUS
 62
     3
 10
576.043064
 20
1923.906203
 11
617.199117
 21
1947.667662
  0
LINE
  8
CSLAYER1
  6
CONTINUOUS
 62
     3
 10
412.217997
 20
2018.490650
 11
422.207331
 21
2012.723305
  0
LINE
  8
CSLAYER1
  6
CONTINUOUS
 62
     3
 10
576.043064
 20
2039.253089
 11
576.043064
 21
1923.906203
  0
LINE
  8
CSLAYER1
  6
CONTINUOUS
 62
     3
 10
576.043064
 20
2039.253089
 11
715.893731
 21
2119.995909
  0
LINE
  8
CSLAYER1
  6
CONTINUOUS
 62
     3
 10
552.068664
 20
2214.580355
 11
715.893731
 21
2119.995909
  0
LINE
  8
CSLAYER1
  6
CONTINUOUS
 62
     3
 10
576.043064
 20
1946.975580
 11
597.220451
 21
1959.202350
  0
LINE
  8
CSLAYER1
  6
CONTINUOUS
 62
     3
 10
674.305316
 20
2051.729483
 11
715.893731
 21
2027.718400
  0
LINE
  8
CSLAYER1
  6
CONTINUOUS
 62
     3
 10
566.053731
 20
1929.673548
 11
576.043064
 21
1923.906203
  0
LINE
  8
CSLAYER1
  6
CONTINUOUS
 62
     3
 10
671.940664
 20
2053.556103
 11
670.495945
 21
2054.249754
  0
LINE
  8
CSLAYER1
  6
CONTINUOUS
 62
     3
 10
670.495945
 20
2054.249754
 11
668.940582
 21
2054.727440
  0
LINE
  8
CSLAYER1
  6
CONTINUOUS
 62
     3
 10
668.940582
 20
2054.727440
 11
667.286411
 21
2054.985525
  0
LINE
  8
CSLAYER1
  6
CONTINUOUS
 62
     3
 10
667.286411
 20
2054.985525
 11
665.546022
 21
2055.022045
  0
LINE
  8
CSLAYER1
  6
CONTINUOUS
 62
     3
 10
665.546022
 20
2055.022045
 11
663.732660
 21
2054.836723
  0
LINE
  8
CSLAYER1
  6
CONTINUOUS
 62
     3
 10
663.732660
 20
2054.836723
 11
661.860126
 21
2054.430967
  0
LINE
  8
CSLAYER1
  6
CONTINUOUS
 62
     3
 10
661.860126
 20
2054.430967
 11
659.942672
 21
2053.807867
  0
LINE
  8
CSLAYER1
  6
CONTINUOUS
 62
     3
 10
659.942672
 20
2053.807867
 11
657.994890
 21
2052.972165
  0
LINE
  8
CSLAYER1
  6
CONTINUOUS
 62
     3
 10
657.994890
 20
2052.972165
 11
656.031604
 21
2051.930221
  0
LINE
  8
CSLAYER1
  6
CONTINUOUS
 62
     3
 10
656.031604
 20
2051.930221
 11
654.067755
 21
2050.689964
  0
LINE
  8
CSLAYER1
  6
CONTINUOUS
 62
     3
 10
654.067755
 20
2050.689964
 11
652.118291
 21
2049.260834
  0
LINE
  8
CSLAYER1
  6
CONTINUOUS
 62
     3
 10
652.118291
 20
2049.260834
 11
650.198047
 21
2047.653707
  0
LINE
  8
CSLAYER1
  6
CONTINUOUS
 62
     3
 10
650.198047
 20
2047.653707
 11
648.321637
 21
2045.880815
  0
LINE
  8
CSLAYER1
  6
CONTINUOUS
 62
     3
 10
648.321637
 20
2045.880815
 11
646.503343
 21
2043.955650
  0
LINE
  8
CSLAYER1
  6
CONTINUOUS
 62
     3
 10
646.503343
 20
2043.955650
 11
644.757002
 21
2041.892864
  0
LINE
  8
CSLAYER1
  6
CONTINUOUS
 62
     3
 10
644.757002
 20
2041.892864
 11
643.095906
 21
2039.708157
  0
LINE
  8
CSLAYER1
  6
CONTINUOUS
 62
     3
 10
643.095906
 20
2039.708157
 11
641.532696
 21
2037.418154
  0
LINE
  8
CSLAYER1
  6
CONTINUOUS
 62
     3
 10
641.532696
 20
2037.418154
 11
640.079269
 21
2035.040284
  0
LINE
  8
CSLAYER1
  6
CONTINUOUS
 62
     3
 10
640.079269
 20
2035.040284
 11
638.746687
 21
2032.592645
  0
LINE
  8
CSLAYER1
  6
CONTINUOUS
 62
     3
 10
638.746687
 20
2032.592645
 11
637.545092
 21
2030.093864
  0
LINE
  8
CSLAYER1
  6
CONTINUOUS
 62
     3
 10
637.545092
 20
2030.093864
 11
636.483627
 21
2027.562958
  0
LINE
  8
CSLAYER1
  6
CONTINUOUS
 62
     3
 10
636.483627
 20
2027.562958
 11
635.570373
 21
2025.019190
  0
LINE
  8
CSLAYER1
  6
CONTINUOUS
 62
     3
 10
635.570373
 20
2025.019190
 11
634.812278
 21
2022.481919
  0
LINE
  8
CSLAYER1
  6
CONTINUOUS
 62
     3
 10
634.812278
 20
2022.481919
 11
634.215113
 21
2019.970455
  0
LINE
  8
CSLAYER1
  6
CONTINUOUS
 62
     3
 10
634.215113
 20
2019.970455
 11
633.783423
 21
2017.503911
  0
LINE
  8
CSLAYER1
  6
CONTINUOUS
 62
     3
 10
633.783423
 20
2017.503911
 11
633.520492
 21
2015.101060
  0
LINE
  8
CSLAYER1
  6
CONTINUOUS
 62
     3
 10
633.520492
 20
2015.101060
 11
633.428323
 21
2012.780189
  0
LINE
  8
CSLAYER1
  6
CONTINUOUS
 62
     3
 10
633.428323
 20
2012.780189
 11
633.507615
 21
2010.558961
  0
LINE
  8
CSLAYER1
  6
CONTINUOUS
 62
     3
 10
633.507615
 20
2010.558961
 11
633.757767
 21
2008.454281
  0
LINE
  8
CSLAYER1
  6
CONTINUOUS
 62
     3
 10
633.757767
 20
2008.454281
 11
634.176874
 21
2006.482167
  0
LINE
  8
CSLAYER1
  6
CONTINUOUS
 62
     3
 10
634.176874
 20
2006.482167
 11
634.761746
 21
2004.657628
  0
LINE
  8
CSLAYER1
  6
CONTINUOUS
 62
     3
 10
634.761746
 20
2004.657628
 11
635.507933
 21
2002.994549
  0
LINE
  8
CSLAYER1
  6
CONTINUOUS
 62
     3
 10
635.507933
 20
2002.994549
 11
636.409754
 21
2001.505588
  0
LINE
  8
CSLAYER1
  6
CONTINUOUS
 62
     3
 10
636.409754
 20
2001.505588
 11
637.460348
 21
2000.202077
  0
LINE
  8
CSLAYER1
  6
CONTINUOUS
 62
     3
 10
638.651718
 20
1999.093935
 11
639.974797
 21
1998.189598
  0
LINE
  8
CSLAYER1
  6
CONTINUOUS
 62
     3
 10
639.974797
 20
1998.189598
 11
641.419516
 21
1997.495946
  0
LINE
  8
CSLAYER1
  6
CONTINUOUS
 62
     3
 10
641.419516
 20
1997.495946
 11
642.974880
 21
1997.018260
  0
LINE
  8
CSLAYER1
  6
CONTINUOUS
 62
     3
 10
642.974880
 20
1997.018260
 11
644.629051
 21
1996.760175
  0
LINE
  8
CSLAYER1
  6
CONTINUOUS
 62
     3
 10
644.629051
 20
1996.760175
 11
646.369440
 21
1996.723655
  0
LINE
  8
CSLAYER1
  6
CONTINUOUS
 62
     3
 10
646.369440
 20
1996.723655
 11
648.182802
 21
1996.908978
  0
LINE
  8
CSLAYER1
  6
CONTINUOUS
 62
     3
 10
648.182802
 20
1996.908978
 11
650.055335
 21
1997.314733
  0
LINE
  8
CSLAYER1
  6
CONTINUOUS
 62
     3
 10
650.055335
 20
1997.314733
 11
651.972790
 21
1997.937833
  0
LINE
  8
CSLAYER1
  6
CONTINUOUS
 62
     3
 10
651.972790
 20
1997.937833
 11
653.920572
 21
1998.773535
  0
LINE
  8
CSLAYER1
  6
CONTINUOUS
 62
     3
 10
653.920572
 20
1998.773535
 11
655.883858
 21
1999.815480
  0
LINE
  8
CSLAYER1
  6
CONTINUOUS
 62
     3
 10
655.883858
 20
1999.815480
 11
657.847706
 21
2001.055737
  0
LINE
  8
CSLAYER1
  6
CONTINUOUS
 62
     3
 10
657.847706
 20
2001.055737
 11
659.797171
 21
2002.484867
  0
LINE
  8
CSLAYER1
  6
CONTINUOUS
 62
     3
 10
659.797171
 20
2002.484867
 11
661.717415
 21
2004.091993
  0
LINE
  8
CSLAYER1
  6
CONTINUOUS
 62
     3
 10
661.717415
 20
2004.091993
 11
663.593824
 21
2005.864885
  0
LINE
  8
CSLAYER1
  6
CONTINUOUS
 62
     3
 10
663.593824
 20
2005.864885
 11
665.412119
 21
2007.790050
  0
LINE
  8
CSLAYER1
  6
CONTINUOUS
 62
     3
 10
665.412119
 20
2007.790050
 11
667.158459
 21
2009.852836
  0
LINE
  8
CSLAYER1
  6
CONTINUOUS
 62
     3
 10
667.158459
 20
2009.852836
 11
668.819555
 21
2012.037544
  0
LINE
  8
CSLAYER1
  6
CONTINUOUS
 62
     3
 10
668.819555
 20
2012.037544
 11
670.382765
 21
2014.327547
  0
LINE
  8
CSLAYER1
  6
CONTINUOUS
 62
     3
 10
670.382765
 20
2014.327547
 11
671.836192
 21
2016.705416
  0
LINE
  8
CSLAYER1
  6
CONTINUOUS
 62
     3
 10
671.836192
 20
2016.705416
 11
673.168774
 21
2019.153056
  0
LINE
  8
CSLAYER1
  6
CONTINUOUS
 62
     3
 10
673.168774
 20
2019.153056
 11
674.370370
 21
2021.651837
  0
LINE
  8
CSLAYER1
  6
CONTINUOUS
 62
     3
 10
674.370370
 20
2021.651837
 11
675.431834
 21
2024.182742
  0
LINE
  8
CSLAYER1
  6
CONTINUOUS
 62
     3
 10
675.431834
 20
2024.182742
 11
676.345089
 21
2026.726510
  0
LINE
  8
CSLAYER1
  6
CONTINUOUS
 62
     3
 10
676.345089
 20
2026.726510
 11
677.103183
 21
2029.263782
  0
LINE
  8
CSLAYER1
  6
CONTINUOUS
 62
     3
 10
677.103183
 20
2029.263782
 11
677.700348
 21
2031.775246
  0
LINE
  8
CSLAYER1
  6
CONTINUOUS
 62
     3
 10
677.700348
 20
2031.775246
 11
678.132039
 21
2034.241789
  0
LINE
  8
CSLAYER1
  6
CONTINUOUS
 62
     3
 10
678.132039
 20
2034.241789
 11
678.394969
 21
2036.644640
  0
LINE
  8
CSLAYER1
  6
CONTINUOUS
 62
     3
 10
678.394969
 20
2036.644640
 11
678.487139
 21
2038.965511
  0
LINE
  8
CSLAYER1
  6
CONTINUOUS
 62
     3
 10
678.487139
 20
2038.965511
 11
678.407846
 21
2041.186739
  0
LINE
  8
CSLAYER1
  6
CONTINUOUS
 62
     3
 10
678.407846
 20
2041.186739
 11
678.157695
 21
2043.291419
  0
LINE
  8
CSLAYER1
  6
CONTINUOUS
 62
     3
 10
678.157695
 20
2043.291419
 11
677.738588
 21
2045.263533
  0
LINE
  8
CSLAYER1
  6
CONTINUOUS
 62
     3
 10
677.738588
 20
2045.263533
 11
677.153715
 21
2047.088073
  0
LINE
  8
CSLAYER1
  6
CONTINUOUS
 62
     3
 10
677.153715
 20
2047.088073
 11
676.407529
 21
2048.751151
  0
LINE
  8
CSLAYER1
  6
CONTINUOUS
 62
     3
 10
676.407529
 20
2048.751151
 11
675.505707
 21
2050.240112
  0
LINE
  8
CSLAYER1
  6
CONTINUOUS
 62
     3
 10
675.505707
 20
2050.240112
 11
674.455113
 21
2051.543624
  0
LINE
  8
CSLAYER1
  6
CONTINUOUS
 62
     3
 10
674.455113
 20
2051.543624
 11
673.263743
 21
2052.651765
  0
LINE
  8
CSLAYER1
  6
CONTINUOUS
 62
     3
 10
673.263743
 20
2052.651765
 11
671.940664
 21
2053.556103
  0
LINE
  8
CSLAYER1
  6
CONTINUOUS
 62
     3
 10
576.043064
 20
2035.100601
 11
639.974797
 21
1998.189598
  0
LINE
  8
CSLAYER1
  6
CONTINUOUS
 62
     3
 10
636.378637
 20
2074.087849
 11
671.940664
 21
2053.556103
  0
LINE
  8
CSLAYER1
  6
CONTINUOUS
 62
     3
 10
422.207331
 20
2012.723305
 11
442.185997
 21
2024.257994
  0
LINE
  8
CSLAYER1
  6
CONTINUOUS
 62
     3
 10
412.217997
 20
2018.490650
 11
432.196664
 21
2030.025338
  0
LINE
  8
CSLAYER1
  6
CONTINUOUS
 62
     3
 10
661.951331
 20
2036.254070
 11
661.409561
 21
2036.514189
  0
LINE
  8
CSLAYER1
  6
CONTINUOUS
 62
     3
 10
661.409561
 20
2036.514189
 11
660.826300
 21
2036.693321
  0
LINE
  8
CSLAYER1
  6
CONTINUOUS
 62
     3
 10
660.826300
 20
2036.693321
 11
660.205986
 21
2036.790103
  0
LINE
  8
CSLAYER1
  6
CONTINUOUS
 62
     3
 10
660.205986
 20
2036.790103
 11
659.553340
 21
2036.803798
  0
LINE
  8
CSLAYER1
  6
CONTINUOUS
 62
     3
 10
659.553340
 20
2036.803798
 11
658.873329
 21
2036.734302
  0
LINE
  8
CSLAYER1
  6
CONTINUOUS
 62
     3
 10
658.873329
 20
2036.734302
 11
658.171129
 21
2036.582144
  0
LINE
  8
CSLAYER1
  6
CONTINUOUS
 62
     3
 10
658.171129
 20
2036.582144
 11
657.452084
 21
2036.348482
  0
LINE
  8
CSLAYER1
  6
CONTINUOUS
 62
     3
 10
657.452084
 20
2036.348482
 11
656.721665
 21
2036.035093
  0
LINE
  8
CSLAYER1
  6
CONTINUOUS
 62
     3
 10
656.721665
 20
2036.035093
 11
655.985433
 21
2035.644364
  0
LINE
  8
CSLAYER1
  6
CONTINUOUS
 62
     3
 10
655.985433
 20
2035.644364
 11
655.248990
 21
2035.179268
  0
LINE
  8
CSLAYER1
  6
CONTINUOUS
 62
     3
 10
655.248990
 20
2035.179268
 11
654.517941
 21
2034.643344
  0
LINE
  8
CSLAYER1
  6
CONTINUOUS
 62
     3
 10
654.517941
 20
2034.643344
 11
653.797849
 21
2034.040672
  0
LINE
  8
CSLAYER1
  6
CONTINUOUS
 62
     3
 10
653.797849
 20
2034.040672
 11
653.094196
 21
2033.375837
  0
LINE
  8
CSLAYER1
  6
CONTINUOUS
 62
     3
 10
653.094196
 20
2033.375837
 11
652.412335
 21
2032.653900
  0
LINE
  8
CSLAYER1
  6
CONTINUOUS
 62
     3
 10
652.412335
 20
2032.653900
 11
651.757458
 21
2031.880356
  0
LINE
  8
CSLAYER1
  6
CONTINUOUS
 62
     3
 10
651.757458
 20
2031.880356
 11
651.134547
 21
2031.061090
  0
LINE
  8
CSLAYER1
  6
CONTINUOUS
 62
     3
 10
651.134547
 20
2031.061090
 11
650.548343
 21
2030.202339
  0
LINE
  8
CSLAYER1
  6
CONTINUOUS
 62
     3
 10
650.548343
 20
2030.202339
 11
650.003308
 21
2029.310638
  0
LINE
  8
CSLAYER1
  6
CONTINUOUS
 62
     3
 10
650.003308
 20
2029.310638
 11
649.503589
 21
2028.392773
  0
LINE
  8
CSLAYER1
  6
CONTINUOUS
 62
     3
 10
649.503589
 20
2028.392773
 11
649.052991
 21
2027.455730
  0
LINE
  8
CSLAYER1
  6
CONTINUOUS
 62
     3
 10
649.052991
 20
2027.455730
 11
648.654942
 21
2026.506641
  0
LINE
  8
CSLAYER1
  6
CONTINUOUS
 62
     3
 10
648.654942
 20
2026.506641
 11
648.312471
 21
2025.552728
  0
LINE
  8
CSLAYER1
  6
CONTINUOUS
 62
     3
 10
648.312471
 20
2025.552728
 11
648.028186
 21
2024.601251
  0
LINE
  8
CSLAYER1
  6
CONTINUOUS
 62
     3
 10
648.028186
 20
2024.601251
 11
647.804249
 21
2023.659452
  0
LINE
  8
CSLAYER1
  6
CONTINUOUS
 62
     3
 10
647.804249
 20
2023.659452
 11
647.642365
 21
2022.734498
  0
LINE
  8
CSLAYER1
  6
CONTINUOUS
 62
     3
 10
647.642365
 20
2022.734498
 11
647.543766
 21
2021.833429
  0
LINE
  8
CSLAYER1
  6
CONTINUOUS
 62
     3
 10
647.543766
 20
2021.833429
 11
647.509203
 21
2020.963102
  0
LINE
  8
CSLAYER1
  6
CONTINUOUS
 62
     3
 10
647.509203
 20
2020.963102
 11
647.538937
 21
2020.130142
  0
LINE
  8
CSLAYER1
  6
CONTINUOUS
 62
     3
 10
647.538937
 20
2020.130142
 11
647.632744
 21
2019.340887
  0
LINE
  8
CSLAYER1
  6
CONTINUOUS
 62
     3
 10
647.632744
 20
2019.340887
 11
647.789909
 21
2018.601344
  0
LINE
  8
CSLAYER1
  6
CONTINUOUS
 62
     3
 10
647.789909
 20
2018.601344
 11
648.009237
 21
2017.917142
  0
LINE
  8
CSLAYER1
  6
CONTINUOUS
 62
     3
 10
648.009237
 20
2017.917142
 11
648.289056
 21
2017.293487
  0
LINE
  8
CSLAYER1
  6
CONTINUOUS
 62
     3
 10
648.289056
 20
2017.293487
 11
648.627240
 21
2016.735127
  0
LINE
  8
CSLAYER1
  6
CONTINUOUS
 62
     3
 10
648.627240
 20
2016.735127
 11
649.021212
 21
2016.246310
  0
LINE
  8
CSLAYER1
  6
CONTINUOUS
 62
     3
 10
649.021212
 20
2016.246310
 11
649.467976
 21
2015.830757
  0
LINE
  8
CSLAYER1
  6
CONTINUOUS
 62
     3
 10
649.467976
 20
2015.830757
 11
649.964131
 21
2015.491631
  0
LINE
  8
CSLAYER1
  6
CONTINUOUS
 62
     3
 10
649.964131
 20
2015.491631
 11
650.505900
 21
2015.231511
  0
LINE
  8
CSLAYER1
  6
CONTINUOUS
 62
     3
 10
650.505900
 20
2015.231511
 11
651.089162
 21
2015.052379
  0
LINE
  8
CSLAYER1
  6
CONTINUOUS
 62
     3
 10
651.089162
 20
2015.052379
 11
651.709476
 21
2014.955597
  0
LINE
  8
CSLAYER1
  6
CONTINUOUS
 62
     3
 10
651.709476
 20
2014.955597
 11
652.362122
 21
2014.941902
  0
LINE
  8
CSLAYER1
  6
CONTINUOUS
 62
     3
 10
652.362122
 20
2014.941902
 11
653.042132
 21
2015.011398
  0
LINE
  8
CSLAYER1
  6
CONTINUOUS
 62
     3
 10
653.042132
 20
2015.011398
 11
653.744332
 21
2015.163556
  0
LINE
  8
CSLAYER1
  6
CONTINUOUS
 62
     3
 10
653.744332
 20
2015.163556
 11
654.463378
 21
2015.397219
  0
LINE
  8
CSLAYER1
  6
CONTINUOUS
 62
     3
 10
654.463378
 20
2015.397219
 11
655.193796
 21
2015.710607
  0
LINE
  8
CSLAYER1
  6
CONTINUOUS
 62
     3
 10
655.193796
 20
2015.710607
 11
655.930028
 21
2016.101336
  0
LINE
  8
CSLAYER1
  6
CONTINUOUS
 62
     3
 10
655.930028
 20
2016.101336
 11
656.666472
 21
2016.566433
  0
LINE
  8
CSLAYER1
  6
CONTINUOUS
 62
     3
 10
656.666472
 20
2016.566433
 11
657.397521
 21
2017.102356
  0
LINE
  8
CSLAYER1
  6
CONTINUOUS
 62
     3
 10
657.397521
 20
2017.102356
 11
658.117612
 21
2017.705029
  0
LINE
  8
CSLAYER1
  6
CONTINUOUS
 62
     3
 10
658.117612
 20
2017.705029
 11
658.821266
 21
2018.369863
  0
LINE
  8
CSLAYER1
  6
CONTINUOUS
 62
     3
 10
658.821266
 20
2018.369863
 11
659.503126
 21
2019.091800
  0
LINE
  8
CSLAYER1
  6
CONTINUOUS
 62
     3
 10
659.503126
 20
2019.091800
 11
660.158004
 21
2019.865345
  0
LINE
  8
CSLAYER1
  6
CONTINUOUS
 62
     3
 10
660.158004
 20
2019.865345
 11
660.780915
 21
2020.684610
  0
LINE
  8
CSLAYER1
  6
CONTINUOUS
 62
     3
 10
660.780915
 20
2020.684610
 11
661.367119
 21
2021.543361
  0
LINE
  8
CSLAYER1
  6
CONTINUOUS
 62
     3
 10
661.367119
 20
2021.543361
 11
661.912154
 21
2022.435063
  0
LINE
  8
CSLAYER1
  6
CONTINUOUS
 62
     3
 10
661.912154
 20
2022.435063
 11
662.411872
 21
2023.352927
  0
LINE
  8
CSLAYER1
  6
CONTINUOUS
 62
     3
 10
662.411872
 20
2023.352927
 11
662.862470
 21
2024.289970
  0
LINE
  8
CSLAYER1
  6
CONTINUOUS
 62
     3
 10
662.862470
 20
2024.289970
 11
663.260520
 21
2025.239060
  0
LINE
  8
CSLAYER1
  6
CONTINUOUS
 62
     3
 10
663.260520
 20
2025.239060
 11
663.602990
 21
2026.192973
  0
LINE
  8
CSLAYER1
  6
CONTINUOUS
 62
     3
 10
663.602990
 20
2026.192973
 11
663.887276
 21
2027.144449
  0
LINE
  8
CSLAYER1
  6
CONTINUOUS
 62
     3
 10
663.887276
 20
2027.144449
 11
664.111212
 21
2028.086249
  0
LINE
  8
CSLAYER1
  6
CONTINUOUS
 62
     3
 10
664.111212
 20
2028.086249
 11
664.273096
 21
2029.011202
  0
LINE
  8
CSLAYER1
  6
CONTINUOUS
 62
     3
 10
664.273096
 20
2029.011202
 11
664.371695
 21
2029.912271
  0
LINE
  8
CSLAYER1
  6
CONTINUOUS
 62
     3
 10
664.371695
 20
2029.912271
 11
664.406259
 21
2030.782598
  0
LINE
  8
CSLAYER1
  6
CONTINUOUS
 62
     3
 10
664.406259
 20
2030.782598
 11
664.376524
 21
2031.615559
  0
LINE
  8
CSLAYER1
  6
CONTINUOUS
 62
     3
 10
664.376524
 20
2031.615559
 11
664.282717
 21
2032.404814
  0
LINE
  8
CSLAYER1
  6
CONTINUOUS
 62
     3
 10
664.282717
 20
2032.404814
 11
664.125552
 21
2033.144356
  0
LINE
  8
CSLAYER1
  6
CONTINUOUS
 62
     3
 10
664.125552
 20
2033.144356
 11
663.906225
 21
2033.828559
  0
LINE
  8
CSLAYER1
  6
CONTINUOUS
 62
     3
 10
663.906225
 20
2033.828559
 11
663.626405
 21
2034.452213
  0
LINE
  8
CSLAYER1
  6
CONTINUOUS
 62
     3
 10
663.626405
 20
2034.452213
 11
663.288222
 21
2035.010574
  0
LINE
  8
CSLAYER1
  6
CONTINUOUS
 62
     3
 10
663.288222
 20
2035.010574
 11
662.894249
 21
2035.499390
  0
LINE
  8
CSLAYER1
  6
CONTINUOUS
 62
     3
 10
662.894249
 20
2035.499390
 11
662.447485
 21
2035.914943
  0
LINE
  8
CSLAYER1
  6
CONTINUOUS
 62
     3
 10
662.447485
 20
2035.914943
 11
661.951331
 21
2036.254070
  0
LINE
  8
CSLAYER1
  6
CONTINUOUS
 62
     3
 10
649.964131
 20
2081.931437
 11
715.893731
 21
2043.866964
  0
LINE
  8
CSLAYER1
  6
CONTINUOUS
 62
     3
 10
566.053731
 20
1929.673548
 11
576.043064
 21
1935.440892
  0
LINE
  8
CSLAYER1
  6
CONTINUOUS
 62
     3
 10
673.174038
 20
2019.162724
 11
974.287654
 21
1845.314696
  0
LINE
  8
CSLAYER1
  6
CONTINUOUS
 62
     3
 10
576.043064
 20
1976.965771
 11
751.022239
 21
1875.941497
  0
LINE
  8
CSLAYER1
  6
CONTINUOUS
 62
     3
 10
576.043064
 20
1971.429120
 11
724.831330
 21
1885.526175
  0
LINE
  8
CSLAYER1
  6
CONTINUOUS
 62
     3
 10
602.015331
 20
1961.970676
 11
682.124451
 21
2008.221698
  0
LINE
  8
CSLAYER1
  6
CONTINUOUS
 62
     3
 10
621.993997
 20
1950.435987
 11
702.103117
 21
1996.687009
  0
LINE
  8
CSLAYER1
  6
CONTINUOUS
 62
     3
 10
687.124451
 20
2011.108449
 11
715.893731
 21
2027.718400
  0
LINE
  8
CSLAYER1
  6
CONTINUOUS
 62
     3
 10
707.103117
 20
1999.573760
 11
715.893731
 21
2004.649023
  0
LINE
  8
CSLAYER1
  6
CONTINUOUS
 62
     3
 10
766.206025
 20
1845.489919
 11
765.947541
 21
1848.885646
  0
LINE
  8
CSLAYER1
  6
CONTINUOUS
 62
     3
 10
765.947541
 20
1848.885646
 11
765.174054
 21
1852.255529
  0
LINE
  8
CSLAYER1
  6
CONTINUOUS
 62
     3
 10
765.174054
 20
1852.255529
 11
763.891453
 21
1855.573922
  0
LINE
  8
CSLAYER1
  6
CONTINUOUS
 62
     3
 10
763.891453
 20
1855.573922
 11
762.109498
 21
1858.815569
  0
LINE
  8
CSLAYER1
  6
CONTINUOUS
 62
     3
 10
762.109498
 20
1858.815569
 11
759.841751
 21
1861.955801
  0
LINE
  8
CSLAYER1
  6
CONTINUOUS
 62
     3
 10
759.841751
 20
1861.955801
 11
757.105470
 21
1864.970716
  0
LINE
  8
CSLAYER1
  6
CONTINUOUS
 62
     3
 10
757.105470
 20
1864.970716
 11
753.921482
 21
1867.837372
  0
LINE
  8
CSLAYER1
  6
CONTINUOUS
 62
     3
 10
753.921482
 20
1867.837372
 11
750.314017
 21
1870.533949
  0
LINE
  8
CSLAYER1
  6
CONTINUOUS
 62
     3
 10
750.314017
 20
1870.533949
 11
746.310531
 21
1873.039927
  0
LINE
  8
CSLAYER1
  6
CONTINUOUS
 62
     3
 10
746.310531
 20
1873.039927
 11
741.941493
 21
1875.336232
  0
LINE
  8
CSLAYER1
  6
CONTINUOUS
 62
     3
 10
741.941493
 20
1875.336232
 11
737.240153
 21
1877.405389
  0
LINE
  8
CSLAYER1
  6
CONTINUOUS
 62
     3
 10
737.240153
 20
1877.405389
 11
732.242292
 21
1879.231650
  0
LINE
  8
CSLAYER1
  6
CONTINUOUS
 62
     3
 10
732.242292
 20
1879.231650
 11
726.985946
 21
1880.801116
  0
LINE
  8
CSLAYER1
  6
CONTINUOUS
 62
     3
 10
726.985946
 20
1880.801116
 11
721.511120
 21
1882.101842
  0
LINE
  8
CSLAYER1
  6
CONTINUOUS
 62
     3
 10
721.511120
 20
1882.101842
 11
715.859481
 21
1883.123929
  0
LINE
  8
CSLAYER1
  6
CONTINUOUS
 62
     3
 10
715.859481
 20
1883.123929
 11
710.074039
 21
1883.859599
  0
LINE
  8
CSLAYER1
  6
CONTINUOUS
 62
     3
 10
710.074039
 20
1883.859599
 11
704.198827
 21
1884.303253
  0
LINE
  8
CSLAYER1
  6
CONTINUOUS
 62
     3
 10
704.198827
 20
1884.303253
 11
698.278559
 21
1884.451514
  0
LINE
  8
CSLAYER1
  6
CONTINUOUS
 62
     3
 10
698.278559
 20
1884.451514
 11
692.358290
 21
1884.303253
  0
LINE
  8
CSLAYER1
  6
CONTINUOUS
 62
     3
 10
692.358290
 20
1884.303253
 11
686.483078
 21
1883.859599
  0
LINE
  8
CSLAYER1
  6
CONTINUOUS
 62
     3
 10
686.483078
 20
1883.859599
 11
680.697637
 21
1883.123929
  0
LINE
  8
CSLAYER1
  6
CONTINUOUS
 62
     3
 10
680.697637
 20
1883.123929
 11
675.045997
 21
1882.101842
  0
LINE
  8
CSLAYER1
  6
CONTINUOUS
 62
     3
 10
675.045997
 20
1882.101842
 11
669.571171
 21
1880.801116
  0
LINE
  8
CSLAYER1
  6
CONTINUOUS
 62
     3
 10
669.571171
 20
1880.801116
 11
664.314825
 21
1879.231650
  0
LINE
  8
CSLAYER1
  6
CONTINUOUS
 62
     3
 10
664.314825
 20
1879.231650
 11
659.316964
 21
1877.405389
  0
LINE
  8
CSLAYER1
  6
CONTINUOUS
 62
     3
 10
659.316964
 20
1877.405389
 11
654.615625
 21
1875.336232
  0
LINE
  8
CSLAYER1
  6
CONTINUOUS
 62
     3
 10
654.615625
 20
1875.336232
 11
650.246586
 21
1873.039927
  0
LINE
  8
CSLAYER1
  6
CONTINUOUS
 62
     3
 10
650.246586
 20
1873.039927
 11
646.243100
 21
1870.533949
  0
LINE
  8
CSLAYER1
  6
CONTINUOUS
 62
     3
 10
646.243100
 20
1870.533949
 11
642.635635
 21
1867.837372
  0
LINE
  8
CSLAYER1
  6
CONTINUOUS
 62
     3
 10
642.635635
 20
1867.837372
 11
639.451647
 21
1864.970716
  0
LINE
  8
CSLAYER1
  6
CONTINUOUS
 62
     3
 10
639.451647
 20
1864.970716
 11
636.715367
 21
1861.955801
  0
LINE
  8
CSLAYER1
  6
CONTINUOUS
 62
     3
 10
636.715367
 20
1861.955801
 11
634.447619
 21
1858.815569
  0
LINE
  8
CSLAYER1
  6
CONTINUOUS
 62
     3
 10
634.447619
 20
1858.815569
 11
632.665664
 21
1855.573922
  0
LINE
  8
CSLAYER1
  6
CONTINUOUS
 62
     3
 10
632.665664
 20
1855.573922
 11
631.383063
 21
1852.255529
  0
LINE
  8
CSLAYER1
  6
CONTINUOUS
 62
     3
 10
631.383063
 20
1852.255529
 11
630.609576
 21
1848.885646
  0
LINE
  8
CSLAYER1
  6
CONTINUOUS
 62
     3
 10
630.609576
 20
1848.885646
 11
630.351092
 21
1845.489919
  0
LINE
  8
CSLAYER1
  6
CONTINUOUS
 62
     3
 10
630.351092
 20
1845.489919
 11
630.609576
 21
1842.094193
  0
LINE
  8
CSLAYER1
  6
CONTINUOUS
 62
     3
 10
630.609576
 20
1842.094193
 11
631.383063
 21
1838.724310
  0
LINE
  8
CSLAYER1
  6
CONTINUOUS
 62
     3
 10
631.383063
 20
1838.724310
 11
632.665664
 21
1835.405917
  0
LINE
  8
CSLAYER1
  6
CONTINUOUS
 62
     3
 10
632.665664
 20
1835.405917
 11
634.447619
 21
1832.164269
  0
LINE
  8
CSLAYER1
  6
CONTINUOUS
 62
     3
 10
634.447619
 20
1832.164269
 11
636.715367
 21
1829.024038
  0
LINE
  8
CSLAYER1
  6
CONTINUOUS
 62
     3
 10
636.715367
 20
1829.024038
 11
639.451647
 21
1826.009122
  0
LINE
  8
CSLAYER1
  6
CONTINUOUS
 62
     3
 10
639.451647
 20
1826.009122
 11
642.635635
 21
1823.142467
  0
LINE
  8
CSLAYER1
  6
CONTINUOUS
 62
     3
 10
642.635635
 20
1823.142467
 11
646.243100
 21
1820.445889
  0
LINE
  8
CSLAYER1
  6
CONTINUOUS
 62
     3
 10
646.243100
 20
1820.445889
 11
650.246586
 21
1817.939912
  0
LINE
  8
CSLAYER1
  6
CONTINUOUS
 62
     3
 10
650.246586
 20
1817.939912
 11
654.615625
 21
1815.643607
  0
LINE
  8
CSLAYER1
  6
CONTINUOUS
 62
     3
 10
654.615625
 20
1815.643607
 11
659.316964
 21
1813.574450
  0
LINE
  8
CSLAYER1
  6
CONTINUOUS
 62
     3
 10
659.316964
 20
1813.574450
 11
664.314825
 21
1811.748189
  0
LINE
  8
CSLAYER1
  6
CONTINUOUS
 62
     3
 10
664.314825
 20
1811.748189
 11
669.571171
 21
1810.178723
  0
LINE
  8
CSLAYER1
  6
CONTINUOUS
 62
     3
 10
669.571171
 20
1810.178723
 11
675.045997
 21
1808.877997
  0
LINE
  8
CSLAYER1
  6
CONTINUOUS
 62
     3
 10
675.045997
 20
1808.877997
 11
680.697637
 21
1807.855909
  0
LINE
  8
CSLAYER1
  6
CONTINUOUS
 62
     3
 10
680.697637
 20
1807.855909
 11
686.483078
 21
1807.120239
  0
LINE
  8
CSLAYER1
  6
CONTINUOUS
 62
     3
 10
686.483078
 20
1807.120239
 11
692.358290
 21
1806.676586
  0
LINE
  8
CSLAYER1
  6
CONTINUOUS
 62
     3
 10
692.358290
 20
1806.676586
 11
698.278559
 21
1806.528325
  0
LINE
  8
CSLAYER1
  6
CONTINUOUS
 62
     3
 10
698.278559
 20
1806.528325
 11
704.198827
 21
1806.676586
  0
LINE
  8
CSLAYER1
  6
CONTINUOUS
 62
     3
 10
704.198827
 20
1806.676586
 11
710.074039
 21
1807.120239
  0
LINE
  8
CSLAYER1
  6
CONTINUOUS
 62
     3
 10
710.074039
 20
1807.120239
 11
715.859481
 21
1807.855909
  0
LINE
  8
CSLAYER1
  6
CONTINUOUS
 62
     3
 10
715.859481
 20
1807.855909
 11
721.511120
 21
1808.877997
  0
LINE
  8
CSLAYER1
  6
CONTINUOUS
 62
     3
 10
721.511120
 20
1808.877997
 11
726.985946
 21
1810.178723
  0
LINE
  8
CSLAYER1
  6
CONTINUOUS
 62
     3
 10
726.985946
 20
1810.178723
 11
732.242292
 21
1811.748189
  0
LINE
  8
CSLAYER1
  6
CONTINUOUS
 62
     3
 10
732.242292
 20
1811.748189
 11
737.240153
 21
1813.574450
  0
LINE
  8
CSLAYER1
  6
CONTINUOUS
 62
     3
 10
737.240153
 20
1813.574450
 11
741.941493
 21
1815.643607
  0
LINE
  8
CSLAYER1
  6
CONTINUOUS
 62
     3
 10
741.941493
 20
1815.643607
 11
746.310531
 21
1817.939912
  0
LINE
  8
CSLAYER1
  6
CONTINUOUS
 62
     3
 10
746.310531
 20
1817.939912
 11
750.314017
 21
1820.445889
  0
LINE
  8
CSLAYER1
  6
CONTINUOUS
 62
     3
 10
750.314017
 20
1820.445889
 11
753.921482
 21
1823.142467
  0
LINE
  8
CSLAYER1
  6
CONTINUOUS
 62
     3
 10
753.921482
 20
1823.142467
 11
757.105470
 21
1826.009122
  0
LINE
  8
CSLAYER1
  6
CONTINUOUS
 62
     3
 10
757.105470
 20
1826.009122
 11
759.841751
 21
1829.024038
  0
LINE
  8
CSLAYER1
  6
CONTINUOUS
 62
     3
 10
759.841751
 20
1829.024038
 11
762.109498
 21
1832.164269
  0
LINE
  8
CSLAYER1
  6
CONTINUOUS
 62
     3
 10
762.109498
 20
1832.164269
 11
763.891453
 21
1835.405917
  0
LINE
  8
CSLAYER1
  6
CONTINUOUS
 62
     3
 10
763.891453
 20
1835.405917
 11
765.174054
 21
1838.724310
  0
LINE
  8
CSLAYER1
  6
CONTINUOUS
 62
     3
 10
765.174054
 20
1838.724310
 11
765.947541
 21
1842.094193
  0
LINE
  8
CSLAYER1
  6
CONTINUOUS
 62
     3
 10
765.947541
 20
1842.094193
 11
766.206025
 21
1845.489919
  0
LINE
  8
CSLAYER1
  6
CONTINUOUS
 62
     3
 10
772.998772
 20
1845.489919
 11
772.714439
 21
1849.225219
  0
LINE
  8
CSLAYER1
  6
CONTINUOUS
 62
     3
 10
772.714439
 20
1849.225219
 11
771.863604
 21
1852.932090
  0
LINE
  8
CSLAYER1
  6
CONTINUOUS
 62
     3
 10
771.863604
 20
1852.932090
 11
770.452742
 21
1856.582322
  0
LINE
  8
CSLAYER1
  6
CONTINUOUS
 62
     3
 10
770.452742
 20
1856.582322
 11
768.492592
 21
1860.148134
  0
LINE
  8
CSLAYER1
  6
CONTINUOUS
 62
     3
 10
768.492592
 20
1860.148134
 11
765.998070
 21
1863.602389
  0
LINE
  8
CSLAYER1
  6
CONTINUOUS
 62
     3
 10
765.998070
 20
1863.602389
 11
762.988162
 21
1866.918796
  0
LINE
  8
CSLAYER1
  6
CONTINUOUS
 62
     3
 10
762.988162
 20
1866.918796
 11
759.485774
 21
1870.072117
  0
LINE
  8
CSLAYER1
  6
CONTINUOUS
 62
     3
 10
759.485774
 20
1870.072117
 11
755.517563
 21
1873.038352
  0
LINE
  8
CSLAYER1
  6
CONTINUOUS
 62
     3
 10
755.517563
 20
1873.038352
 11
751.113728
 21
1875.794928
  0
LINE
  8
CSLAYER1
  6
CONTINUOUS
 62
     3
 10
751.113728
 20
1875.794928
 11
746.307786
 21
1878.320863
  0
LINE
  8
CSLAYER1
  6
CONTINUOUS
 62
     3
 10
746.307786
 20
1878.320863
 11
741.136312
 21
1880.596936
  0
LINE
  8
CSLAYER1
  6
CONTINUOUS
 62
     3
 10
741.136312
 20
1880.596936
 11
735.638665
 21
1882.605823
  0
LINE
  8
CSLAYER1
  6
CONTINUOUS
 62
     3
 10
735.638665
 20
1882.605823
 11
729.856685
 21
1884.332235
  0
LINE
  8
CSLAYER1
  6
CONTINUOUS
 62
     3
 10
729.856685
 20
1884.332235
 11
723.834377
 21
1885.763034
  0
LINE
  8
CSLAYER1
  6
CONTINUOUS
 62
     3
 10
723.834377
 20
1885.763034
 11
717.617573
 21
1886.887330
  0
LINE
  8
CSLAYER1
  6
CONTINUOUS
 62
     3
 10
717.617573
 20
1886.887330
 11
711.253587
 21
1887.696567
  0
LINE
  8
CSLAYER1
  6
CONTINUOUS
 62
     3
 10
711.253587
 20
1887.696567
 11
704.790854
 21
1888.184586
  0
LINE
  8
CSLAYER1
  6
CONTINUOUS
 62
     3
 10
704.790854
 20
1888.184586
 11
698.278559
 21
1888.347673
  0
LINE
  8
CSLAYER1
  6
CONTINUOUS
 62
     3
 10
698.278559
 20
1888.347673
 11
691.766263
 21
1888.184586
  0
LINE
  8
CSLAYER1
  6
CONTINUOUS
 62
     3
 10
691.766263
 20
1888.184586
 11
685.303530
 21
1887.696567
  0
LINE
  8
CSLAYER1
  6
CONTINUOUS
 62
     3
 10
685.303530
 20
1887.696567
 11
678.939544
 21
1886.887330
  0
LINE
  8
CSLAYER1
  6
CONTINUOUS
 62
     3
 10
678.939544
 20
1886.887330
 11
672.722741
 21
1885.763034
  0
LINE
  8
CSLAYER1
  6
CONTINUOUS
 62
     3
 10
672.722741
 20
1885.763034
 11
666.700432
 21
1884.332235
  0
LINE
  8
CSLAYER1
  6
CONTINUOUS
 62
     3
 10
666.700432
 20
1884.332235
 11
660.918452
 21
1882.605823
  0
LINE
  8
CSLAYER1
  6
CONTINUOUS
 62
     3
 10
660.918452
 20
1882.605823
 11
655.420805
 21
1880.596936
  0
LINE
  8
CSLAYER1
  6
CONTINUOUS
 62
     3
 10
655.420805
 20
1880.596936
 11
650.249331
 21
1878.320863
  0
LINE
  8
CSLAYER1
  6
CONTINUOUS
 62
     3
 10
650.249331
 20
1878.320863
 11
645.443389
 21
1875.794928
  0
LINE
  8
CSLAYER1
  6
CONTINUOUS
 62
     3
 10
645.443389
 20
1875.794928
 11
641.039554
 21
1873.038352
  0
LINE
  8
CSLAYER1
  6
CONTINUOUS
 62
     3
 10
641.039554
 20
1873.038352
 11
637.071343
 21
1870.072117
  0
LINE
  8
CSLAYER1
  6
CONTINUOUS
 62
     3
 10
637.071343
 20
1870.072117
 11
633.568956
 21
1866.918796
  0
LINE
  8
CSLAYER1
  6
CONTINUOUS
 62
     3
 10
633.568956
 20
1866.918796
 11
630.559047
 21
1863.602389
  0
LINE
  8
CSLAYER1
  6
CONTINUOUS
 62
     3
 10
630.559047
 20
1863.602389
 11
628.064525
 21
1860.148134
  0
LINE
  8
CSLAYER1
  6
CONTINUOUS
 62
     3
 10
628.064525
 20
1860.148134
 11
626.104375
 21
1856.582322
  0
LINE
  8
CSLAYER1
  6
CONTINUOUS
 62
     3
 10
626.104375
 20
1856.582322
 11
624.693513
 21
1852.932090
  0
LINE
  8
CSLAYER1
  6
CONTINUOUS
 62
     3
 10
624.693513
 20
1852.932090
 11
623.842678
 21
1849.225219
  0
LINE
  8
CSLAYER1
  6
CONTINUOUS
 62
     3
 10
623.842678
 20
1849.225219
 11
623.558345
 21
1845.489919
  0
LINE
  8
CSLAYER1
  6
CONTINUOUS
 62
     3
 10
623.558345
 20
1845.489919
 11
623.842678
 21
1841.754620
  0
LINE
  8
CSLAYER1
  6
CONTINUOUS
 62
     3
 10
623.842678
 20
1841.754620
 11
624.693513
 21
1838.047749
  0
LINE
  8
CSLAYER1
  6
CONTINUOUS
 62
     3
 10
624.693513
 20
1838.047749
 11
626.104375
 21
1834.397516
  0
LINE
  8
CSLAYER1
  6
CONTINUOUS
 62
     3
 10
626.104375
 20
1834.397516
 11
628.064525
 21
1830.831704
  0
LINE
  8
CSLAYER1
  6
CONTINUOUS
 62
     3
 10
628.064525
 20
1830.831704
 11
630.559047
 21
1827.377450
  0
LINE
  8
CSLAYER1
  6
CONTINUOUS
 62
     3
 10
630.559047
 20
1827.377450
 11
633.568956
 21
1824.061043
  0
LINE
  8
CSLAYER1
  6
CONTINUOUS
 62
     3
 10
633.568956
 20
1824.061043
 11
637.071343
 21
1820.907722
  0
LINE
  8
CSLAYER1
  6
CONTINUOUS
 62
     3
 10
637.071343
 20
1820.907722
 11
641.039554
 21
1817.941486
  0
LINE
  8
CSLAYER1
  6
CONTINUOUS
 62
     3
 10
641.039554
 20
1817.941486
 11
645.443389
 21
1815.184911
  0
LINE
  8
CSLAYER1
  6
CONTINUOUS
 62
     3
 10
645.443389
 20
1815.184911
 11
650.249331
 21
1812.658975
  0
LINE
  8
CSLAYER1
  6
CONTINUOUS
 62
     3
 10
650.249331
 20
1812.658975
 11
655.420805
 21
1810.382903
  0
LINE
  8
CSLAYER1
  6
CONTINUOUS
 62
     3
 10
655.420805
 20
1810.382903
 11
660.918452
 21
1808.374016
  0
LINE
  8
CSLAYER1
  6
CONTINUOUS
 62
     3
 10
660.918452
 20
1808.374016
 11
666.700432
 21
1806.647603
  0
LINE
  8
CSLAYER1
  6
CONTINUOUS
 62
     3
 10
666.700432
 20
1806.647603
 11
666.783369
 21
1806.627899
  0
LINE
  8
CSLAYER1
  6
CONTINUOUS
 62
     3
 10
698.278559
 20
1802.632166
 11
704.790854
 21
1802.795252
  0
LINE
  8
CSLAYER1
  6
CONTINUOUS
 62
     3
 10
704.790854
 20
1802.795252
 11
711.253587
 21
1803.283271
  0
LINE
  8
CSLAYER1
  6
CONTINUOUS
 62
     3
 10
711.253587
 20
1803.283271
 11
717.617573
 21
1804.092508
  0
LINE
  8
CSLAYER1
  6
CONTINUOUS
 62
     3
 10
717.617573
 20
1804.092508
 11
723.834377
 21
1805.216804
  0
LINE
  8
CSLAYER1
  6
CONTINUOUS
 62
     3
 10
723.834377
 20
1805.216804
 11
729.856685
 21
1806.647603
  0
LINE
  8
CSLAYER1
  6
CONTINUOUS
 62
     3
 10
729.856685
 20
1806.647603
 11
735.638665
 21
1808.374016
  0
LINE
  8
CSLAYER1
  6
CONTINUOUS
 62
     3
 10
735.638665
 20
1808.374016
 11
741.136312
 21
1810.382903
  0
LINE
  8
CSLAYER1
  6
CONTINUOUS
 62
     3
 10
741.136312
 20
1810.382903
 11
746.307786
 21
1812.658975
  0
LINE
  8
CSLAYER1
  6
CONTINUOUS
 62
     3
 10
746.307786
 20
1812.658975
 11
751.113728
 21
1815.184911
  0
LINE
  8
CSLAYER1
  6
CONTINUOUS
 62
     3
 10
751.113728
 20
1815.184911
 11
755.517563
 21
1817.941486
  0
LINE
  8
CSLAYER1
  6
CONTINUOUS
 62
     3
 10
755.517563
 20
1817.941486
 11
759.485774
 21
1820.907722
  0
LINE
  8
CSLAYER1
  6
CONTINUOUS
 62
     3
 10
759.485774
 20
1820.907722
 11
762.988162
 21
1824.061043
  0
LINE
  8
CSLAYER1
  6
CONTINUOUS
 62
     3
 10
762.988162
 20
1824.061043
 11
765.998070
 21
1827.377450
  0
LINE
  8
CSLAYER1
  6
CONTINUOUS
 62
     3
 10
765.998070
 20
1827.377450
 11
768.492592
 21
1830.831704
  0
LINE
  8
CSLAYER1
  6
CONTINUOUS
 62
     3
 10
768.492592
 20
1830.831704
 11
770.452742
 21
1834.397516
  0
LINE
  8
CSLAYER1
  6
CONTINUOUS
 62
     3
 10
770.452742
 20
1834.397516
 11
771.863604
 21
1838.047749
  0
LINE
  8
CSLAYER1
  6
CONTINUOUS
 62
     3
 10
771.863604
 20
1838.047749
 11
772.714439
 21
1841.754620
  0
LINE
  8
CSLAYER1
  6
CONTINUOUS
 62
     3
 10
772.714439
 20
1841.754620
 11
772.998772
 21
1845.489919
  0
LINE
  8
CSLAYER1
  6
CONTINUOUS
 62
     3
 10
552.068664
 20
1802.632166
 11
698.278559
 21
1802.632166
  0
LINE
  8
CSLAYER1
  6
CONTINUOUS
 62
     3
 10
552.068664
 20
1806.627899
 11
698.278559
 21
1806.627899
  0
LINE
  8
CSLAYER1
  6
CONTINUOUS
 62
     3
 10
552.068664
 20
1802.632166
 11
552.068664
 21
1806.627899
  0
LINE
  8
CSLAYER1
  6
CONTINUOUS
 62
     3
 10
552.068664
 20
1806.627899
 11
542.863365
 21
1809.469413
  0
LINE
  8
CSLAYER1
  6
CONTINUOUS
 62
     3
 10
542.863365
 20
1809.469413
 11
541.329420
 21
1815.911980
  0
LINE
  8
CSLAYER1
  6
CONTINUOUS
 62
     3
 10
552.068664
 20
1802.632166
 11
536.727587
 21
1803.947213
  0
LINE
  8
CSLAYER1
  6
CONTINUOUS
 62
     3
 10
536.727587
 20
1803.947213
 11
529.978230
 21
1801.799690
  0
LINE
  8
CSLAYER1
  6
CONTINUOUS
 62
     3
 10
529.978230
 20
1801.799690
 11
522.615296
 21
1798.425012
  0
LINE
  8
CSLAYER1
  6
CONTINUOUS
 62
     3
 10
541.329420
 20
1815.911980
 11
533.659697
 21
1821.740970
  0
LINE
  8
CSLAYER1
  6
CONTINUOUS
 62
     3
 10
412.217997
 20
2041.560027
 11
576.043064
 21
1946.975580
  0
LINE
  8
CSLAYER1
  6
CONTINUOUS
 62
     3
 10
412.217997
 20
2133.837535
 11
576.043064
 21
2039.253089
  0
LINE
  8
CSLAYER1
  6
CONTINUOUS
 62
     3
 10
412.217997
 20
2133.837535
 11
412.217997
 21
2018.490650
  0
LINE
  8
CSLAYER1
  6
CONTINUOUS
 62
     3
 10
715.893731
 20
2119.995909
 11
715.893731
 21
2004.649023
  0
LINE
  8
CSLAYER1
  6
CONTINUOUS
 62
     3
 10
412.217997
 20
2133.837535
 11
552.068664
 21
2214.580355
  0
LINE
  8
CSLAYER1
  6
CONTINUOUS
 62
     5
 10
362.820009
 20
2047.010591
 11
403.730993
 21
2023.390624
  0
TEXT
  8
CSLAYER1
 62
     3
 10
849.266244
 20
2088.620937
 40
34.838692
 41
0.852344
  1
ホース長サ２ｍ
 50
0.000000
 51
0.000000
  7
EASYDRAW_FONT
 72
     5
 11
1047.229971
 21
2088.620937
  0
TEXT
  8
CSLAYER1
 62
     3
 10
333.002028
 20
1840.444429
 40
39.957333
 41
1.036364
  1
長サ4ｍ
 50
0.000000
 51
0.000000
  7
EASYDRAW_FONT
 72
     5
 11
484.839891
 21
1840.444429
  0
LINE
  8
CSLAYER1
  6
CONTINUOUS
 62
     3
 10
670.712404
 20
2014.810446
 11
971.787654
 21
1840.984569
  0
ARC
  8
CSLAYER1
  6
CONTINUOUS
 62
     3
 10
1024.287654
 20
1931.917237
 40
100.000000
 50
240.000000
 51
270.000000
  0
ARC
  8
CSLAYER1
  6
CONTINUOUS
 62
     3
 10
1024.287654
 20
1931.917237
 40
105.000000
 50
240.000000
 51
270.000000
  0
TEXT
  8
CSLAYER1
 62
     3
 10
791.418812
 20
1725.226168
 40
39.957333
 41
1.020000
  1
フットスイッチ
 50
0.000000
 51
0.000000
  7
EASYDRAW_FONT
 72
     5
 11
1063.128674
 21
1725.226168
  0
TEXT
  8
CSLAYER1
 62
     3
 10
789.265003
 20
1670.667574
 40
39.957333
 41
1.020000
  1
ＵＰ・ＤＯＷＮ
 50
0.000000
 51
0.000000
  7
EASYDRAW_FONT
 72
     5
 11
1060.974865
 21
1670.667574
  0
TEXT
  8
CSLAYER1
 62
     3
 10
792.136585
 20
1621.851168
 40
39.957333
 41
1.020000
  1
コード長サ２ｍ
 50
0.000000
 51
0.000000
  7
EASYDRAW_FONT
 72
     5
 11
1063.846447
 21
1621.851168
  0
LINE
  8
CSLAYER1
  6
CONTINUOUS
 62
     5
 10
659.671327
 20
1686.261672
 11
782.872120
 21
1719.273225
  0
LINE
  8
CSLAYER1
  6
CONTINUOUS
 62
     5
 10
659.671327
 20
1686.261672
 11
685.652089
 21
1701.261672
  0
LINE
  8
CSLAYER1
  6
CONTINUOUS
 62
     5
 10
659.671327
 20
1686.261672
 11
689.671327
 21
1686.261672
  0
LINE
  8
CSLAYER1
  6
CONTINUOUS
 62
     5
 10
1057.210323
 20
1719.273225
 11
782.872120
 21
1719.273225
  0
LINE
  8
CSLAYER1
  6
CONTINUOUS
 62
     3
 10
481.861194
 20
1704.025092
 11
593.741727
 21
1639.430836
  0
LINE
  8
CSLAYER1
  6
CONTINUOUS
 62
     3
 10
593.741727
 20
1639.430836
 11
659.671327
 21
1677.495308
  0
LINE
  8
CSLAYER1
  6
CONTINUOUS
 62
     3
 10
659.671327
 20
1686.261672
 11
659.671327
 21
1677.495308
  0
LINE
  8
CSLAYER1
  6
CONTINUOUS
 62
     5
 10
593.741727
 20
1673.573514
 11
593.741727
 21
1650.504137
  0
LINE
  8
CSLAYER1
  6
CONTINUOUS
 62
     3
 10
481.861194
 20
1713.252843
 11
481.861194
 21
1704.025092
  0
LINE
  8
CSLAYER1
  6
CONTINUOUS
 62
     3
 10
485.457354
 20
1736.552914
 11
547.391220
 21
1772.310448
  0
LINE
  8
CSLAYER1
  6
CONTINUOUS
 62
     3
 10
525.414687
 20
1713.483537
 11
587.348554
 21
1749.241071
  0
LINE
  8
CSLAYER1
  6
CONTINUOUS
 62
     3
 10
593.741727
 20
1673.573514
 11
656.075167
 21
1709.561742
  0
LINE
  8
CSLAYER1
  6
CONTINUOUS
 62
     3
 10
554.183967
 20
1696.873585
 11
616.117834
 21
1732.631120
  0
LINE
  8
CSLAYER1
  6
CONTINUOUS
 62
     3
 10
485.457354
 20
1736.552914
 11
525.414687
 21
1713.483537
  0
LINE
  8
CSLAYER1
  6
CONTINUOUS
 62
     3
 10
547.391220
 20
1772.310448
 11
587.348554
 21
1749.241071
  0
LINE
  8
CSLAYER1
  6
CONTINUOUS
 62
     3
 10
481.861194
 20
1713.252843
 11
593.741727
 21
1648.658587
  0
LINE
  8
CSLAYER1
  6
CONTINUOUS
 62
     3
 10
593.741727
 20
1648.197199
 11
659.671327
 21
1686.261672
  0
LINE
  8
CSLAYER1
  6
CONTINUOUS
 62
     3
 10
533.805727
 20
1708.638967
 11
545.792927
 21
1701.718154
  0
LINE
  8
CSLAYER1
  6
CONTINUOUS
 62
     5
 10
593.741727
 20
1650.504137
 11
656.075167
 21
1686.492365
  0
LINE
  8
CSLAYER1
  6
CONTINUOUS
 62
     5
 10
485.457354
 20
1713.483537
 11
525.414687
 21
1690.414159
  0
LINE
  8
CSLAYER1
  6
CONTINUOUS
 62
     3
 10
656.075167
 20
1709.561742
 11
656.075167
 21
1686.492365
  0
LINE
  8
CSLAYER1
  6
CONTINUOUS
 62
     5
 10
554.183967
 20
1696.873585
 11
554.183967
 21
1673.136300
  0
LINE
  8
CSLAYER1
  6
CONTINUOUS
 62
     5
 10
525.414687
 20
1690.414159
 11
525.414687
 21
1713.483537
  0
LINE
  8
CSLAYER1
  6
CONTINUOUS
 62
     3
 10
587.348554
 20
1749.241071
 11
587.348554
 21
1739.551933
  0
LINE
  8
CSLAYER1
  6
CONTINUOUS
 62
     5
 10
533.805727
 20
1685.569590
 11
545.792927
 21
1678.648777
  0
LINE
  8
CSLAYER1
  6
CONTINUOUS
 62
     3
 10
593.741727
 20
1648.197199
 11
593.741727
 21
1639.430836
  0
LINE
  8
CSLAYER1
  6
CONTINUOUS
 62
     3
 10
656.075167
 20
1688.337915
 11
659.671327
 21
1686.261672
  0
LINE
  8
CSLAYER1
  6
CONTINUOUS
 62
     3
 10
533.805727
 20
1708.638967
 11
595.739594
 21
1744.396502
  0
LINE
  8
CSLAYER1
  6
CONTINUOUS
 62
     3
 10
545.792927
 20
1701.718154
 11
607.726794
 21
1737.475689
  0
LINE
  8
CSLAYER1
  6
CONTINUOUS
 62
     3
 10
607.726794
 20
1737.475689
 11
607.726794
 21
1727.786550
  0
LINE
  8
CSLAYER1
  6
CONTINUOUS
 62
     3
 10
595.739594
 20
1744.396502
 11
607.726794
 21
1737.475689
  0
LINE
  8
CSLAYER1
  6
CONTINUOUS
 62
     3
 10
616.117834
 20
1732.631120
 11
656.075167
 21
1709.561742
  0
LINE
  8
CSLAYER1
  6
CONTINUOUS
 62
     3
 10
554.183967
 20
1696.873585
 11
593.741727
 21
1674.034902
  0
LINE
  8
CSLAYER1
  6
CONTINUOUS
 62
     5
 10
545.792927
 20
1701.718154
 11
545.792927
 21
1678.648777
  0
LINE
  8
CSLAYER1
  6
CONTINUOUS
 62
     5
 10
533.805727
 20
1708.638967
 11
533.805727
 21
1685.569590
  0
LINE
  8
CSLAYER1
  6
CONTINUOUS
 62
     5
 10
545.792927
 20
1678.648777
 11
554.183967
 21
1683.493346
  0
LINE
  8
CSLAYER1
  6
CONTINUOUS
 62
     5
 10
525.414687
 20
1690.414159
 11
533.805727
 21
1695.258729
  0
LINE
  8
CSLAYER1
  6
CONTINUOUS
 62
     5
 10
554.183967
 20
1673.804208
 11
593.741727
 21
1650.965524
  0
LINE
  8
CSLAYER1
  6
CONTINUOUS
 62
     3
 10
485.457354
 20
1736.552914
 11
485.457354
 21
1713.483537
  0
LINE
  8
CSLAYER1
  6
CONTINUOUS
 62
     3
 10
481.861194
 20
1713.252843
 11
485.457354
 21
1715.329087
  0
LINE
  8
CSLAYER1
  6
CONTINUOUS
 62
     5
 10
497.444554
 20
1743.473727
 11
537.401887
 21
1720.404350
  0
LINE
  8
CSLAYER1
  6
CONTINUOUS
 62
     5
 10
509.431754
 20
1750.394540
 11
549.389087
 21
1727.325163
  0
LINE
  8
CSLAYER1
  6
CONTINUOUS
 62
     5
 10
521.418954
 20
1757.315353
 11
561.376287
 21
1734.245976
  0
LINE
  8
CSLAYER1
  6
CONTINUOUS
 62
     5
 10
578.158367
 20
1710.715211
 11
618.115700
 21
1687.645834
  0
LINE
  8
CSLAYER1
  6
CONTINUOUS
 62
     5
 10
566.171167
 20
1703.794398
 11
606.128500
 21
1680.725021
  0
LINE
  8
CSLAYER1
  6
CONTINUOUS
 62
     5
 10
590.145567
 20
1717.636024
 11
630.102900
 21
1694.566647
  0
ARC
  8
CSLAYER1
  6
CONTINUOUS
 62
     3
 10
606.498733
 20
1731.365915
 40
11.889388
 50
-0.219250
 51
120.219250
  0
LINE
  8
CSLAYER1
  6
CONTINUOUS
 62
     3
 10
616.651410
 20
1737.553055
 11
750.941050
 21
1815.085216
  0
LINE
  8
CSLAYER1
  6
CONTINUOUS
 62
     3
 10
613.270992
 20
1741.138021
 11
724.452239
 21
1805.328544
  0
LINE
  8
CSLAYER1
  6
CONTINUOUS
 62
     5
 10
565.804510
 20
1807.576037
 11
526.070586
 21
1884.990221
  0
LINE
  8
CSLAYER1
  6
CONTINUOUS
 62
     5
 10
565.804510
 20
1807.576037
 11
545.664608
 21
1829.810792
  0
LINE
  8
CSLAYER1
  6
CONTINUOUS
 62
     5
 10
565.804510
 20
1807.576037
 11
559.480221
 21
1836.901851
  0
LINE
  8
CSLAYER1
  6
CONTINUOUS
 62
     5
 10
265.931002
 20
1571.954101
 11
1110.862509
 21
1571.954101
  0
LINE
  8
CSLAYER1
  6
CONTINUOUS
 62
     5
 10
538.174610
 20
2378.616549
 11
817.757880
 21
2378.616549
  0
LINE
  8
CSLAYER1
  6
CONTINUOUS
 62
     5
 10
817.757880
 20
2378.616549
 11
817.757880
 21
2327.911271
  0
LINE
  8
CSLAYER1
  6
CONTINUOUS
 62
     5
 10
817.757880
 20
2327.911271
 11
538.174610
 21
2327.911271
  0
LINE
  8
CSLAYER1
  6
CONTINUOUS
 62
     5
 10
538.174610
 20
2327.911271
 11
538.174610
 21
2378.616549
  0
ENDBLK
  8
0
  0
BLOCK
  8
CSLAYER1
  2
BLKF0006
 70
   64
 10
0.0
 20
0.0
 30
0.0
  0
LINE
  8
CSLAYER1
  6
CONTINUOUS
 62
     5
 10
3464.504313
 20
1493.484612
 11
2595.699403
 21
1493.484612
  0
TEXT
  8
CSLAYER1
 62
     3
 10
3061.887451
 20
1499.134766
 40
40.000000
 41
0.832500
  1
10R4/13
 50
0.000000
 51
0.000000
  7
EASYDRAW_FONT
 72
     5
 11
3283.887451
 21
1499.134766
  0
ENDBLK
  8
0
  0
ENDSEC
  0
SECTION
  2
ENTITIES
  0
LINE
  8
CSLAYER1
  6
CONTINUOUS
 62
     3
 10
215.931002
 20
2446.817948
 11
215.931002
 21
98.271018
  0
LINE
  8
CSLAYER1
  6
CONTINUOUS
 62
     3
 10
3538.504313
 20
2446.817948
 11
215.931002
 21
2446.817948
  0
LINE
  8
CSLAYER1
  6
CONTINUOUS
 62
     3
 10
3538.504313
 20
2446.817948
 11
3538.504313
 21
98.271018
  0
LINE
  8
CSLAYER1
  6
CONTINUOUS
 62
     3
 10
3538.504313
 20
98.271018
 11
215.931002
 21
98.271018
  0
LINE
  8
CSLAYER1
  6
CONTINUOUS
 62
     5
 10
165.931002
 20
1258.271018
 11
115.931002
 21
1258.271018
  0
LINE
  8
CSLAYER1
  6
CONTINUOUS
 62
     5
 10
2738.504313
 20
538.271018
 11
3538.504313
 21
538.271018
  0
LINE
  8
CSLAYER1
  6
CONTINUOUS
 62
     5
 10
2738.504313
 20
178.271018
 11
3538.504313
 21
178.271018
  0
LINE
  8
CSLAYER1
  6
CONTINUOUS
 62
     5
 10
2738.504313
 20
338.271018
 11
3538.504313
 21
338.271018
  0
LINE
  8
CSLAYER1
  6
CONTINUOUS
 62
     5
 10
2738.504313
 20
398.271018
 11
3538.504313
 21
398.271018
  0
LINE
  8
CSLAYER1
  6
CONTINUOUS
 62
     5
 10
2738.504313
 20
458.271018
 11
3538.504313
 21
458.271018
  0
LINE
  8
CSLAYER1
  6
CONTINUOUS
 62
     5
 10
2738.504313
 20
618.271018
 11
3538.504313
 21
618.271018
  0
LINE
  8
CSLAYER1
  6
CONTINUOUS
 62
     5
 10
2738.504313
 20
698.271018
 11
2738.504313
 21
98.271018
  0
LINE
  8
CSLAYER1
  6
CONTINUOUS
 62
     5
 10
2938.504313
 20
698.271018
 11
2938.504313
 21
458.271018
  0
LINE
  8
CSLAYER1
  6
CONTINUOUS
 62
     5
 10
2738.504313
 20
698.271018
 11
3538.504313
 21
698.271018
  0
LINE
  8
CSLAYER1
  6
CONTINUOUS
 62
     5
 10
3238.504313
 20
458.271018
 11
3238.504313
 21
178.271018
  0
TEXT
  8
CSLAYER1
 62
     3
 10
2958.195369
 20
106.833744
 40
59.380363
 41
1.003345
  1
東正車輌株式会社
 50
0.000000
 51
0.000000
  7
EASYDRAW_FONT
 72
     5
 11
3414.967717
 21
106.833744
  0
LINE
  8
CSLAYER1
  6
CONTINUOUS
 62
     5
 10
2988.504313
 20
398.271018
 11
2988.504313
 21
178.271018
  0
TEXT
  8
CSLAYER1
 62
     5
 10
2768.504150
 20
633.270996
 40
50.000000
 41
1.050000
  1
品　名
 50
0.000000
 51
0.000000
  7
EASYDRAW_FONT
 72
     5
 11
2908.504150
 21
633.270996
  0
TEXT
  8
CSLAYER1
 62
     5
 10
2768.504150
 20
553.270996
 40
50.000000
 41
1.050000
  1
型　式
 50
0.000000
 51
0.000000
  7
EASYDRAW_FONT
 72
     5
 11
2908.504150
 21
553.270996
  0
TEXT
  8
CSLAYER1
 62
     5
 10
2743.504150
 20
473.271027
 40
50.000000
 41
1.036364
  1
図面番号
 50
0.000000
 51
0.000000
  7
EASYDRAW_FONT
 72
     5
 11
2933.504150
 21
473.271027
  0
TEXT
  8
CSLAYER1
 62
     5
 10
2768.504150
 20
403.271027
 40
50.000000
 41
0.825000
  1
平成26年01月10日
 50
0.000000
 51
0.000000
  7
EASYDRAW_FONT
 72
     5
 11
3208.504150
 21
403.271027
  0
TEXT
  8
CSLAYER1
 62
     5
 10
3318.504150
 20
403.271027
 40
50.000000
 41
1.050000
  1
Ｂ－４
 50
0.000000
 51
0.000000
  7
EASYDRAW_FONT
 72
     5
 11
3458.504150
 21
403.271027
  0
TEXT
  8
CSLAYER1
 62
     5
 10
2793.504150
 20
343.271027
 40
50.000000
 41
1.050000
  1
検　図
 50
0.000000
 51
0.000000
  7
EASYDRAW_FONT
 72
     5
 11
2933.504150
 21
343.271027
  0
TEXT
  8
CSLAYER1
 62
     5
 10
3043.504150
 20
343.271027
 40
50.000000
 41
1.050000
  1
作　図
 50
0.000000
 51
0.000000
  7
EASYDRAW_FONT
 72
     5
 11
3183.504150
 21
343.271027
  0
TEXT
  8
CSLAYER1
 62
     5
 10
3318.504150
 20
343.271027
 40
50.000000
 41
1.050000
  1
尺　度
 50
0.000000
 51
0.000000
  7
EASYDRAW_FONT
 72
     5
 11
3458.504150
 21
343.271027
  0
TEXT
  8
CSLAYER1
 62
     5
 10
3419.242920
 20
192.756287
 40
50.000000
 41
1.080000
  1
１０
 50
0.000000
 51
0.000000
  7
EASYDRAW_FONT
 72
     5
 11
3509.242920
 21
192.756287
  0
TEXT
  8
CSLAYER1
 62
     5
 10
3398.923340
 20
240.460968
 40
50.000000
 41
1.200000
  1
／
 50
0.000000
 51
0.000000
  7
EASYDRAW_FONT
 72
     5
 11
3438.923340
 21
240.460968
  0
TEXT
  8
CSLAYER1
 62
     5
 10
3368.710449
 20
275.444427
 40
50.000000
 41
1.200000
  1
１
 50
0.000000
 51
0.000000
  7
EASYDRAW_FONT
 72
     5
 11
3408.710449
 21
275.444427
  0
TEXT
  8
CSLAYER1
 62
     3
 10
3078.504150
 20
633.270996
 40
50.000000
 41
0.834783
  1
ゴールドリフター
 50
0.000000
 51
0.000000
  7
EASYDRAW_FONT
 72
     5
 11
3398.504150
 21
633.270996
  0
TEXT
  8
CSLAYER1
 62
     3
 10
2978.504150
 20
553.270996
 40
50.000000
 41
0.821053
  1
GLSE-150-2507
 50
0.000000
 51
0.000000
  7
EASYDRAW_FONT
 72
     5
 11
3498.504150
 21
553.270996
  0
INSERT
  8
CSLAYER1
  2
BLKF0000
 10
0.0
 20
0.0
 30
0.0
  0
LINE
  8
CSLAYER1
  6
CENTER
 62
     5
 10
1552.816849
 20
1826.132918
 11
2273.037466
 21
1826.132918
  0
LINE
  8
CSLAYER1
  6
CONTINUOUS
 62
     3
 10
1553.816849
 20
1686.132918
 11
1553.816849
 21
1851.982918
  0
LINE
  8
CSLAYER1
  6
CONTINUOUS
 62
     3
 10
1603.816849
 20
1686.132918
 11
1603.816849
 21
1701.132918
  0
LINE
  8
CSLAYER1
  6
CONTINUOUS
 62
     4
 10
1556.516849
 20
1951.132918
 11
1556.516849
 21
1701.132918
  0
LINE
  8
CSLAYER1
  6
CONTINUOUS
 62
     4
 10
2256.516849
 20
1951.132918
 11
2256.516849
 21
1701.132918
  0
LINE
  8
CSLAYER1
  6
CONTINUOUS
 62
     3
 10
1563.816849
 20
1676.132918
 11
1593.816849
 21
1676.132918
  0
ARC
  8
CSLAYER1
  6
CONTINUOUS
 62
     3
 10
1563.816849
 20
1686.132918
 40
10.000000
 50
180.000000
 51
270.000000
  0
ARC
  8
CSLAYER1
  6
CONTINUOUS
 62
     3
 10
1593.816849
 20
1686.132918
 40
10.000000
 50
270.000000
 51
360.000000
  0
INSERT
  8
CSLAYER1
  2
BLKF0001
 10
0.0
 20
0.0
 30
0.0
  0
LINE
  8
CSLAYER1
  6
CENTER
 62
     5
 10
1624.155590
 20
888.764937
 11
1757.849417
 21
1129.193659
  0
LINE
  8
CSLAYER1
  6
CENTER
 62
     5
 10
943.588538
 20
1376.661558
 11
943.588538
 21
796.683447
  0
LINE
  8
CSLAYER1
  6
CENTER
 62
     5
 10
1068.588538
 20
787.754086
 11
1068.588538
 21
811.964047
  0
LINE
  8
CSLAYER1
  6
CENTER
 62
     5
 10
818.588538
 20
787.754086
 11
818.588538
 21
811.964047
  0
LINE
  8
CSLAYER1
  6
CENTER
 62
     5
 10
913.588538
 20
799.993884
 11
913.588538
 21
833.257203
  0
LINE
  8
CSLAYER1
  6
CENTER
 62
     5
 10
895.714592
 20
816.683447
 11
932.711549
 21
816.683447
  0
LINE
  8
CSLAYER1
  6
CENTER
 62
     5
 10
869.088538
 20
1356.861558
 11
1018.088538
 21
1356.861558
  0
LINE
  8
CSLAYER1
  6
CENTER
 62
     5
 10
864.088538
 20
1077.460683
 11
1023.088538
 21
1077.460683
  0
ARC
  8
CSLAYER1
  6
CONTINUOUS
 62
     3
 10
1601.094154
 20
1356.861558
 40
9.500000
 50
-190.922071
 51
10.922071
  0
LINE
  8
CSLAYER1
  6
CONTINUOUS
 62
     3
 10
1591.594154
 20
1358.661558
 11
1591.594154
 21
1351.376730
  0
LINE
  8
CSLAYER1
  6
CONTINUOUS
 62
     3
 10
1591.594154
 20
1351.376730
 11
1601.094154
 21
1345.891902
  0
LINE
  8
CSLAYER1
  6
CONTINUOUS
 62
     3
 10
1601.094154
 20
1345.891902
 11
1610.594154
 21
1351.376730
  0
LINE
  8
CSLAYER1
  6
CONTINUOUS
 62
     3
 10
1610.594154
 20
1351.376730
 11
1610.594154
 21
1358.661558
  0
POINT
  8
CSLAYER1
 62
     3
 10
1601.094154
 20
1356.861558
  0
LINE
  8
CSLAYER1
  6
CONTINUOUS
 62
     3
 10
1578.794154
 20
1376.661558
 11
1578.794154
 21
1358.661558
  0
LINE
  8
CSLAYER1
  6
CONTINUOUS
 62
     3
 10
2278.794154
 20
1376.661558
 11
2278.794154
 21
1358.661558
  0
LINE
  8
CSLAYER1
  6
CONTINUOUS
 62
     3
 10
1631.094154
 20
1344.361558
 11
2261.094154
 21
1344.361558
  0
LINE
  8
CSLAYER1
  6
CONTINUOUS
 62
     3
 10
1578.794154
 20
1376.661558
 11
2278.794154
 21
1376.661558
  0
LINE
  8
CSLAYER1
  6
CONTINUOUS
 62
     3
 10
1581.094154
 20
1358.661558
 11
1581.094154
 21
1351.361558
  0
LINE
  8
CSLAYER1
  6
CONTINUOUS
 62
     3
 10
1578.794154
 20
1358.661558
 11
2278.794154
 21
1358.661558
  0
LINE
  8
CSLAYER1
  6
CONTINUOUS
 62
     3
 10
1586.094154
 20
1346.361558
 11
1600.280687
 21
1346.361558
  0
ARC
  8
CSLAYER1
  6
CONTINUOUS
 62
     3
 10
1586.094154
 20
1351.361558
 40
5.000000
 50
180.000000
 51
270.000000
  0
LINE
  8
CSLAYER1
  6
CONTINUOUS
 62
     3
 10
2261.094154
 20
1358.661558
 11
2261.094154
 21
1344.361558
  0
LINE
  8
CSLAYER1
  6
CONTINUOUS
 62
     3
 10
1631.094154
 20
1355.361558
 11
1606.094154
 21
1346.361558
  0
LINE
  8
CSLAYER1
  6
CONTINUOUS
 62
     3
 10
1631.094154
 20
1358.661558
 11
1631.094154
 21
1344.361558
  0
LINE
  8
CSLAYER1
  6
CONTINUOUS
 62
     4
 10
1819.321843
 20
1127.717095
 11
1811.240938
 21
1108.877005
  0
LINE
  8
CSLAYER1
  6
CONTINUOUS
 62
     4
 10
1611.149389
 20
836.683447
 11
1624.526785
 21
855.166392
  0
LINE
  8
CSLAYER1
  6
CONTINUOUS
 62
     4
 10
1624.526785
 20
855.166392
 11
1630.069879
 21
858.561110
  0
LINE
  8
CSLAYER1
  6
CONTINUOUS
 62
     4
 10
1588.670610
 20
893.462407
 11
1915.017750
 21
1344.361558
  0
LINE
  8
CSLAYER1
  6
CONTINUOUS
 62
     4
 10
1630.069879
 20
858.561110
 11
1811.240938
 21
1108.877005
  0
ARC
  8
CSLAYER1
  6
DASHED
 62
     5
 10
1937.643713
 20
1356.861558
 40
13.000000
 50
-74.057631
 51
254.057631
  0
POINT
  8
CSLAYER1
 62
     4
 10
1937.643713
 20
1356.861558
  0
POINT
  8
CSLAYER1
 62
     4
 10
1769.368933
 20
1077.460683
  0
LINE
  8
CSLAYER1
  6
CONTINUOUS
 62
     4
 10
1819.321843
 20
1127.717095
 11
1939.516234
 21
1293.784274
  0
LINE
  8
CSLAYER1
  6
CONTINUOUS
 62
     4
 10
1939.516234
 20
1293.784274
 11
1946.929157
 21
1344.361558
  0
LINE
  8
CSLAYER1
  6
CONTINUOUS
 62
     4
 10
1610.596652
 20
886.234083
 11
1623.557993
 21
876.853057
  0
LINE
  8
CSLAYER1
  6
CONTINUOUS
 62
     4
 10
1631.117646
 20
914.587016
 11
1644.078987
 21
905.205990
  0
LINE
  8
CSLAYER1
  6
CONTINUOUS
 62
     4
 10
1627.747187
 20
877.524366
 11
1644.750296
 21
901.016797
  0
LINE
  8
CSLAYER1
  6
CONTINUOUS
 62
     4
 10
1609.925343
 20
890.423277
 11
1626.928452
 21
913.915707
  0
ARC
  8
CSLAYER1
  6
CONTINUOUS
 62
     4
 10
1612.355595
 20
888.664334
 40
3.000000
 50
144.104120
 51
234.104120
  0
ARC
  8
CSLAYER1
  6
CONTINUOUS
 62
     4
 10
1629.358704
 20
912.156765
 40
3.000000
 50
54.104120
 51
144.104120
  0
ARC
  8
CSLAYER1
  6
CONTINUOUS
 62
     4
 10
1625.316935
 20
879.283309
 40
3.000000
 50
234.104120
 51
324.104120
  0
ARC
  8
CSLAYER1
  6
CONTINUOUS
 62
     4
 10
1642.320045
 20
902.775739
 40
3.000000
 50
-35.895880
 51
54.104120
  0
LINE
  8
CSLAYER1
  6
CONTINUOUS
 62
     4
 10
1588.670610
 20
893.462407
 11
1570.600402
 21
832.263257
  0
POINT
  8
CSLAYER1
 62
     7
 10
1757.849417
 20
1129.193659
  0
LINE
  8
CSLAYER1
  6
CONTINUOUS
 62
     7
 10
1801.499999
 20
1014.305362
 11
1930.057358
 21
836.683447
  0
CIRCLE
  8
CSLAYER1
  6
DASHED
 62
     5
 10
1959.921018
 20
814.183447
 40
13.000000
  0
POINT
  8
CSLAYER1
 62
     7
 10
1959.921018
 20
814.183447
  0
POINT
  8
CSLAYER1
 62
     7
 10
1769.368933
 20
1077.460683
  0
LINE
  8
CSLAYER1
  6
CONTINUOUS
 62
     7
 10
1961.793539
 20
877.260731
 11
1967.740799
 21
836.683447
  0
LINE
  8
CSLAYER1
  6
CONTINUOUS
 62
     7
 10
1618.928498
 20
1350.981922
 11
1769.368933
 21
1143.125145
  0
LINE
  8
CSLAYER1
  6
CONTINUOUS
 62
     7
 10
1621.595171
 20
1288.232704
 11
1591.862938
 21
1346.361558
  0
ARC
  8
CSLAYER1
  6
CONTINUOUS
 62
     7
 10
1612.692186
 20
1283.678930
 40
10.000000
 50
-0.046232
 51
27.089216
  0
LINE
  8
CSLAYER1
  6
CONTINUOUS
 62
     7
 10
1622.692182
 20
1283.670861
 11
1622.676814
 21
1264.624534
  0
ARC
  8
CSLAYER1
  6
CONTINUOUS
 62
     7
 10
1632.676811
 20
1264.616465
 40
10.000000
 50
179.953768
 51
215.895880
  0
LINE
  8
CSLAYER1
  6
CONTINUOUS
 62
     7
 10
1727.496929
 20
1108.877005
 11
1736.039048
 21
1097.074743
  0
LINE
  8
CSLAYER1
  6
CONTINUOUS
 62
     7
 10
1801.499999
 20
1014.305362
 11
1786.128340
 21
1027.868625
  0
LINE
  8
CSLAYER1
  6
CONTINUOUS
 62
     7
 10
1719.416024
 20
1127.717095
 11
1727.496929
 21
1108.877005
  0
LINE
  8
CSLAYER1
  6
CONTINUOUS
 62
     7
 10
1719.416024
 20
1127.717095
 11
1624.575973
 21
1258.753324
  0
POINT
  8
CSLAYER1
 62
     7
 10
1601.094154
 20
1356.861558
  0
CIRCLE
  8
CSLAYER1
  6
CONTINUOUS
 62
     7
 10
1769.368933
 20
1077.460683
 40
7.500000
  0
POINT
  8
CSLAYER1
 62
     5
 10
1757.849417
 20
1129.193659
  0
LINE
  8
CSLAYER1
  6
CONTINUOUS
 62
     4
 10
1644.327263
 20
900.432311
 11
1624.962977
 21
911.200099
  0
LINE
  8
CSLAYER1
  6
CONTINUOUS
 62
     4
 10
1679.381626
 20
1035.407649
 11
1687.955580
 21
1030.639979
  0
LINE
  8
CSLAYER1
  6
CONTINUOUS
 62
     4
 10
1649.593691
 20
989.040323
 11
1655.478567
 21
985.767953
  0
LINE
  8
CSLAYER1
  6
CONTINUOUS
 62
     4
 10
1649.205705
 20
990.400274
 11
1665.729115
 21
1020.115201
  0
LINE
  8
CSLAYER1
  6
CONTINUOUS
 62
     4
 10
1665.729115
 20
1020.115201
 11
1679.381626
 21
1035.407649
  0
LINE
  8
CSLAYER1
  6
CONTINUOUS
 62
     4
 10
1649.205705
 20
990.400274
 11
1649.593691
 21
989.040323
  0
LINE
  8
CSLAYER1
  6
CONTINUOUS
 62
     4
 10
1633.091754
 20
954.837101
 11
1651.516421
 21
987.971161
  0
POINT
  8
CSLAYER1
 62
     5
 10
1624.155590
 20
888.764937
  0
LINE
  8
CSLAYER1
  6
CONTINUOUS
 62
     4
 10
1630.656193
 20
859.371194
 11
1631.061235
 21
859.078036
  0
CIRCLE
  8
CSLAYER1
  6
CONTINUOUS
 62
     4
 10
1624.155590
 20
888.764937
 40
8.000000
  0
LINE
  8
CSLAYER1
  6
CONTINUOUS
 62
     4
 10
1633.536615
 20
901.726278
 11
1641.232411
 21
896.156294
  0
ARC
  8
CSLAYER1
  6
CONTINUOUS
 62
     4
 10
1624.155590
 20
888.764937
 40
16.000000
 50
54.104120
 51
105.479287
  0
POINT
  8
CSLAYER1
 62
     2
 10
1624.155590
 20
888.764937
  0
LINE
  8
CSLAYER1
  6
CONTINUOUS
 62
     4
 10
1631.061235
 20
859.078036
 11
1614.852710
 21
836.683447
  0
LINE
  8
CSLAYER1
  6
CENTER
 62
     5
 10
1561.759301
 20
816.683447
 11
1414.022193
 21
816.683447
  0
LINE
  8
CSLAYER1
  6
CONTINUOUS
 62
     3
 10
1553.816849
 20
836.683447
 11
1553.816849
 21
796.683447
  0
LINE
  8
CSLAYER1
  6
CONTINUOUS
 62
     4
 10
1553.816849
 20
836.683447
 11
1567.360410
 21
836.683447
  0
LINE
  8
CSLAYER1
  6
CONTINUOUS
 62
     3
 10
2256.816849
 20
836.683447
 11
2256.816849
 21
796.683447
  0
LINE
  8
CSLAYER1
  6
CONTINUOUS
 62
     3
 10
1553.816849
 20
836.683447
 11
1567.360410
 21
836.683447
  0
LINE
  8
CSLAYER1
  6
CONTINUOUS
 62
     4
 10
1590.273288
 20
836.683447
 11
1606.816849
 21
836.683447
  0
LINE
  8
CSLAYER1
  6
CONTINUOUS
 62
     5
 10
491.784885
 20
796.683447
 11
793.588538
 21
796.683447
  0
LINE
  8
CSLAYER1
  6
CONTINUOUS
 62
     3
 10
1601.907620
 20
1346.361558
 11
1606.094154
 21
1346.361558
  0
ARC
  8
CSLAYER1
  6
CONTINUOUS
 62
     4
 10
1937.643713
 20
1356.861558
 40
13.000000
 50
254.057631
 51
285.942369
  0
ARC
  8
CSLAYER1
  6
CONTINUOUS
 62
     4
 10
1757.849417
 20
1129.193659
 40
8.000000
 50
45.741168
 51
242.467072
  0
POINT
  8
CSLAYER1
 62
     4
 10
1757.849417
 20
1129.193659
  0
LINE
  8
CSLAYER1
  6
CONTINUOUS
 62
     4
 10
1683.751469
 20
1032.977735
 11
1726.826067
 21
1110.441076
  0
LINE
  8
CSLAYER1
  6
CONTINUOUS
 62
     7
 10
1769.368933
 20
1051.024342
 11
1786.128340
 21
1027.868625
  0
LINE
  8
CSLAYER1
  6
CONTINUOUS
 62
     7
 10
1802.698818
 20
1097.074743
 11
1961.793539
 21
877.260731
  0
LINE
  8
CSLAYER1
  6
CONTINUOUS
 62
     4
 10
1665.729115
 20
1020.115201
 11
1676.145757
 21
1014.322879
  0
ARC
  8
CSLAYER1
  6
CONTINUOUS
 62
     3
 10
1578.816849
 20
841.683447
 40
12.500000
 50
203.578178
 51
336.421822
  0
LINE
  8
CSLAYER1
  6
CONTINUOUS
 62
     3
 10
1590.273288
 20
836.683447
 11
2256.816849
 21
836.683447
  0
INSERT
  8
CSLAYER1
  2
BLKF0002
 10
0.0
 20
0.0
 30
0.0
  0
LINE
  8
CSLAYER1
  6
CENTER
 62
     5
 10
1588.405273
 20
1356.861558
 11
1614.139567
 21
1356.861558
  0
LINE
  8
CSLAYER1
  6
CENTER
 62
     5
 10
1601.094154
 20
1367.706346
 11
1601.094154
 21
1341.972051
  0
LINE
  8
CSLAYER1
  6
CENTER
 62
     5
 10
1937.643713
 20
1372.900899
 11
1937.643713
 21
1337.952580
  0
LINE
  8
CSLAYER1
  6
CENTER
 62
     5
 10
1921.299075
 20
1356.861558
 11
1954.920243
 21
1356.861558
  0
LINE
  8
CSLAYER1
  6
CENTER
 62
     5
 10
1755.909747
 20
1077.460683
 11
1782.466599
 21
1077.460683
  0
LINE
  8
CSLAYER1
  6
CENTER
 62
     5
 10
1769.368933
 20
1088.448122
 11
1769.368933
 21
1065.416516
  0
LINE
  8
CSLAYER1
  6
CENTER
 62
     5
 10
1757.849417
 20
1138.271597
 11
1757.849417
 21
1120.120037
  0
LINE
  8
CSLAYER1
  6
CENTER
 62
     5
 10
1747.991769
 20
1129.193659
 11
1765.065018
 21
1129.193659
  0
LINE
  8
CSLAYER1
  6
CENTER
 62
     5
 10
1943.034573
 20
814.183447
 11
1976.959911
 21
814.183447
  0
LINE
  8
CSLAYER1
  6
CENTER
 62
     5
 10
1959.921018
 20
830.498571
 11
1959.921018
 21
797.469374
  0
LINE
  8
CSLAYER1
  6
CENTER
 62
     5
 10
1624.155590
 20
898.865932
 11
1624.155590
 21
878.184489
  0
LINE
  8
CSLAYER1
  6
CENTER
 62
     5
 10
1612.864258
 20
888.764937
 11
1634.319872
 21
888.764937
  0
LINE
  8
CSLAYER1
  6
CENTER
 62
     5
 10
1566.317188
 20
814.183447
 11
1591.408644
 21
814.183447
  0
LINE
  8
CSLAYER1
  6
CENTER
 62
     5
 10
1578.816849
 20
829.183447
 11
1578.816849
 21
793.640025
  0
LINE
  8
CSLAYER1
  6
PHANTOM
 62
     5
 10
1828.816849
 20
859.183447
 11
1828.816849
 21
854.683447
  0
LINE
  8
CSLAYER1
  6
PHANTOM
 62
     5
 10
1753.816849
 20
859.183447
 11
1753.816849
 21
854.683447
  0
POINT
  8
CSLAYER1
 62
     5
 10
1578.816849
 20
841.683447
  0
LINE
  8
CSLAYER1
  6
PHANTOM
 62
     5
 10
1556.516849
 20
861.483447
 11
1556.516849
 21
843.483447
  0
LINE
  8
CSLAYER1
  6
PHANTOM
 62
     5
 10
2256.516849
 20
861.483447
 11
2256.516849
 21
843.483447
  0
LINE
  8
CSLAYER1
  6
PHANTOM
 62
     5
 10
1556.516849
 20
861.483447
 11
2256.516849
 21
861.483447
  0
LINE
  8
CSLAYER1
  6
PHANTOM
 62
     5
 10
2256.516849
 20
843.483447
 11
1556.516849
 21
843.483447
  0
LINE
  8
CSLAYER1
  6
PHANTOM
 62
     5
 10
1558.816849
 20
843.483447
 11
1558.816849
 21
836.183447
  0
LINE
  8
CSLAYER1
  6
PHANTOM
 62
     5
 10
2238.816849
 20
843.483447
 11
2238.816849
 21
836.683447
  0
LINE
  8
CSLAYER1
  6
PHANTOM
 62
     5
 10
1608.816849
 20
840.183447
 11
1599.094627
 21
836.683447
  0
LINE
  8
CSLAYER1
  6
PHANTOM
 62
     5
 10
1608.816849
 20
843.483447
 11
1608.816849
 21
836.683447
  0
LINE
  8
CSLAYER1
  6
CENTER
 62
     5
 10
1578.816849
 20
851.412843
 11
1578.816849
 21
832.658328
  0
LINE
  8
CSLAYER1
  6
CENTER
 62
     5
 10
1566.136860
 20
841.683447
 11
1590.006243
 21
841.683447
  0
LINE
  8
CSLAYER1
  6
CENTER
 62
     5
 10
1578.816849
 20
1712.395719
 11
1578.816849
 21
1689.870116
  0
LINE
  8
CSLAYER1
  6
CENTER
 62
     5
 10
1567.554047
 20
1701.132918
 11
1590.079650
 21
1701.132918
  0
ARC
  8
CSLAYER1
  6
CONTINUOUS
 62
     3
 10
1578.816849
 20
1701.132918
 40
6.500000
 50
180.000000
 51
360.000000
  0
LINE
  8
CSLAYER1
  6
CONTINUOUS
 62
     3
 10
1603.816849
 20
1966.132918
 11
1603.816849
 21
1951.132918
  0
LINE
  8
CSLAYER1
  6
CONTINUOUS
 62
     3
 10
1563.816849
 20
1976.132918
 11
1593.816849
 21
1976.132918
  0
ARC
  8
CSLAYER1
  6
CONTINUOUS
 62
     3
 10
1563.816849
 20
1966.132918
 40
10.000000
 50
90.000000
 51
180.000000
  0
ARC
  8
CSLAYER1
  6
CONTINUOUS
 62
     3
 10
1593.816849
 20
1966.132918
 40
10.000000
 50
0.000000
 51
90.000000
  0
LINE
  8
CSLAYER1
  6
CENTER
 62
     5
 10
1578.816849
 20
1939.870116
 11
1578.816849
 21
1962.395719
  0
LINE
  8
CSLAYER1
  6
CENTER
 62
     5
 10
1567.554047
 20
1951.132918
 11
1590.079650
 21
1951.132918
  0
ARC
  8
CSLAYER1
  6
CONTINUOUS
 62
     3
 10
1578.816849
 20
1951.132918
 40
6.500000
 50
0.000000
 51
180.000000
  0
LINE
  8
CSLAYER1
  6
CONTINUOUS
 62
     3
 10
843.588538
 20
836.683447
 11
1043.588538
 21
836.683447
  0
LINE
  8
CSLAYER1
  6
CONTINUOUS
 62
     3
 10
843.588538
 20
836.683447
 11
843.588538
 21
802.683447
  0
LINE
  8
CSLAYER1
  6
CONTINUOUS
 62
     3
 10
1043.588538
 20
836.683447
 11
1043.588538
 21
802.683447
  0
LINE
  8
CSLAYER1
  6
CONTINUOUS
 62
     3
 10
1093.588538
 20
796.683447
 11
1093.588538
 21
802.683447
  0
LINE
  8
CSLAYER1
  6
CONTINUOUS
 62
     3
 10
1018.088538
 20
796.683447
 11
1018.088538
 21
836.683447
  0
LINE
  8
CSLAYER1
  6
CONTINUOUS
 62
     3
 10
1093.588538
 20
802.683447
 11
1018.088538
 21
802.683447
  0
LINE
  8
CSLAYER1
  6
CONTINUOUS
 62
     3
 10
1021.088538
 20
825.153102
 11
1021.088538
 21
803.213792
  0
LINE
  8
CSLAYER1
  6
CONTINUOUS
 62
     3
 10
1018.088538
 20
803.433447
 11
1021.088538
 21
803.433447
  0
LINE
  8
CSLAYER1
  6
CONTINUOUS
 62
     3
 10
1018.088538
 20
824.933447
 11
1021.088538
 21
824.933447
  0
LINE
  8
CSLAYER1
  6
CONTINUOUS
 62
     3
 10
1018.088538
 20
815.695644
 11
1021.088538
 21
812.195644
  0
LINE
  8
CSLAYER1
  6
CONTINUOUS
 62
     3
 10
1029.088538
 20
805.183447
 11
1029.088538
 21
823.183447
  0
LINE
  8
CSLAYER1
  6
CONTINUOUS
 62
     3
 10
1021.088538
 20
808.698620
 11
1027.951357
 21
808.698620
  0
LINE
  8
CSLAYER1
  6
CONTINUOUS
 62
     3
 10
1021.088538
 20
803.213792
 11
1027.951357
 21
803.213792
  0
LINE
  8
CSLAYER1
  6
CONTINUOUS
 62
     3
 10
1029.088538
 20
805.183447
 11
1027.951357
 21
803.213792
  0
ARC
  8
CSLAYER1
  6
CONTINUOUS
 62
     3
 10
1025.308494
 20
805.956206
 40
3.808617
 50
5.661633
 51
46.059028
  0
ARC
  8
CSLAYER1
  6
CONTINUOUS
 62
     3
 10
1015.292794
 20
814.183447
 40
13.795744
 50
-23.426598
 51
23.426598
  0
LINE
  8
CSLAYER1
  6
CONTINUOUS
 62
     3
 10
1021.088538
 20
819.668275
 11
1027.951357
 21
819.668275
  0
LINE
  8
CSLAYER1
  6
CONTINUOUS
 62
     3
 10
1021.088538
 20
825.153102
 11
1027.951357
 21
825.153102
  0
LINE
  8
CSLAYER1
  6
CONTINUOUS
 62
     3
 10
1029.088538
 20
823.183447
 11
1027.951357
 21
825.153102
  0
ARC
  8
CSLAYER1
  6
CONTINUOUS
 62
     3
 10
1025.308494
 20
822.410689
 40
3.808617
 50
313.940972
 51
354.338367
  0
LINE
  8
CSLAYER1
  6
CENTER
 62
     5
 10
1018.088538
 20
814.183447
 11
1029.088538
 21
814.183447
  0
LINE
  8
CSLAYER1
  6
CONTINUOUS
 62
     3
 10
793.588538
 20
796.683447
 11
793.588538
 21
802.683447
  0
LINE
  8
CSLAYER1
  6
CONTINUOUS
 62
     3
 10
793.588538
 20
802.683447
 11
869.088538
 21
802.683447
  0
LINE
  8
CSLAYER1
  6
CONTINUOUS
 62
     3
 10
866.088538
 20
825.153102
 11
866.088538
 21
803.213792
  0
LINE
  8
CSLAYER1
  6
CONTINUOUS
 62
     3
 10
869.088538
 20
803.433447
 11
866.088538
 21
803.433447
  0
LINE
  8
CSLAYER1
  6
CONTINUOUS
 62
     3
 10
869.088538
 20
824.933447
 11
866.088538
 21
824.933447
  0
LINE
  8
CSLAYER1
  6
CONTINUOUS
 62
     3
 10
869.088538
 20
815.695644
 11
866.088538
 21
812.195644
  0
LINE
  8
CSLAYER1
  6
CONTINUOUS
 62
     3
 10
858.088538
 20
805.183447
 11
858.088538
 21
823.183447
  0
LINE
  8
CSLAYER1
  6
CONTINUOUS
 62
     3
 10
866.088538
 20
808.698620
 11
859.225719
 21
808.698620
  0
LINE
  8
CSLAYER1
  6
CONTINUOUS
 62
     3
 10
866.088538
 20
803.213792
 11
859.225719
 21
803.213792
  0
LINE
  8
CSLAYER1
  6
CONTINUOUS
 62
     3
 10
858.088538
 20
805.183447
 11
859.225719
 21
803.213792
  0
ARC
  8
CSLAYER1
  6
CONTINUOUS
 62
     3
 10
861.868583
 20
805.956206
 40
3.808617
 50
133.940972
 51
174.338367
  0
ARC
  8
CSLAYER1
  6
CONTINUOUS
 62
     3
 10
871.884283
 20
814.183447
 40
13.795744
 50
156.573402
 51
203.426598
  0
LINE
  8
CSLAYER1
  6
CONTINUOUS
 62
     3
 10
866.088538
 20
819.668275
 11
859.225719
 21
819.668275
  0
LINE
  8
CSLAYER1
  6
CONTINUOUS
 62
     3
 10
866.088538
 20
825.153102
 11
859.225719
 21
825.153102
  0
LINE
  8
CSLAYER1
  6
CONTINUOUS
 62
     3
 10
858.088538
 20
823.183447
 11
859.225719
 21
825.153102
  0
ARC
  8
CSLAYER1
  6
CONTINUOUS
 62
     3
 10
861.868583
 20
822.410689
 40
3.808617
 50
185.661633
 51
226.059028
  0
LINE
  8
CSLAYER1
  6
CENTER
 62
     5
 10
869.088538
 20
814.183447
 11
858.088538
 21
814.183447
  0
LINE
  8
CSLAYER1
  6
CONTINUOUS
 62
     3
 10
869.088538
 20
796.683447
 11
869.088538
 21
836.683447
  0
CIRCLE
  8
CSLAYER1
  6
CONTINUOUS
 62
     3
 10
913.588538
 20
816.683447
 40
12.500000
  0
LINE
  8
CSLAYER1
  6
CONTINUOUS
 62
     3
 10
1068.588538
 20
1376.661558
 11
818.588538
 21
1376.661558
  0
LINE
  8
CSLAYER1
  6
CONTINUOUS
 62
     3
 10
989.588538
 20
836.683447
 11
989.588538
 21
1358.661558
  0
LINE
  8
CSLAYER1
  6
CONTINUOUS
 62
     3
 10
998.588538
 20
836.683447
 11
998.588538
 21
1358.661558
  0
LINE
  8
CSLAYER1
  6
CONTINUOUS
 62
     3
 10
1001.588538
 20
836.683447
 11
1001.588538
 21
1346.361558
  0
LINE
  8
CSLAYER1
  6
CONTINUOUS
 62
     3
 10
1010.588538
 20
836.683447
 11
1010.588538
 21
1345.891902
  0
LINE
  8
CSLAYER1
  6
CONTINUOUS
 62
     3
 10
1068.588538
 20
1358.661558
 11
818.588538
 21
1358.661558
  0
LINE
  8
CSLAYER1
  6
CONTINUOUS
 62
     3
 10
999.588538
 20
1348.211558
 11
998.588538
 21
1348.211558
  0
LINE
  8
CSLAYER1
  6
CONTINUOUS
 62
     3
 10
1000.588538
 20
1358.661558
 11
1000.588538
 21
1349.211558
  0
LINE
  8
CSLAYER1
  6
CONTINUOUS
 62
     3
 10
1000.588538
 20
1349.211558
 11
999.588538
 21
1348.211558
  0
LINE
  8
CSLAYER1
  6
CONTINUOUS
 62
     3
 10
999.588538
 20
1358.661558
 11
999.588538
 21
1348.211558
  0
LINE
  8
CSLAYER1
  6
CONTINUOUS
 62
     3
 10
1001.088538
 20
1346.361558
 11
1007.088538
 21
1346.361558
  0
LINE
  8
CSLAYER1
  6
CONTINUOUS
 62
     3
 10
1007.088538
 20
1358.661558
 11
1007.088538
 21
1346.361558
  0
LINE
  8
CSLAYER1
  6
CONTINUOUS
 62
     3
 10
1001.088538
 20
1358.661558
 11
1001.088538
 21
1346.361558
  0
LINE
  8
CSLAYER1
  6
CONTINUOUS
 62
     3
 10
989.588538
 20
1348.211558
 11
897.588538
 21
1348.211558
  0
LINE
  8
CSLAYER1
  6
CONTINUOUS
 62
     3
 10
1010.088538
 20
1345.891902
 11
1010.088538
 21
1358.661558
  0
LINE
  8
CSLAYER1
  6
CONTINUOUS
 62
     3
 10
1007.088538
 20
1346.111558
 11
1010.088538
 21
1346.111558
  0
LINE
  8
CSLAYER1
  6
CONTINUOUS
 62
     3
 10
1007.088538
 20
1355.349361
 11
1009.927564
 21
1358.661558
  0
LINE
  8
CSLAYER1
  6
CONTINUOUS
 62
     3
 10
1018.088538
 20
1358.661558
 11
1018.088538
 21
1347.861558
  0
ARC
  8
CSLAYER1
  6
CONTINUOUS
 62
     3
 10
1004.292794
 20
1356.861558
 40
13.795744
 50
-23.426598
 51
7.497043
  0
LINE
  8
CSLAYER1
  6
CONTINUOUS
 62
     3
 10
1010.088538
 20
1351.376730
 11
1016.951357
 21
1351.376730
  0
LINE
  8
CSLAYER1
  6
CONTINUOUS
 62
     3
 10
1010.088538
 20
1345.891902
 11
1016.951357
 21
1345.891902
  0
LINE
  8
CSLAYER1
  6
CONTINUOUS
 62
     3
 10
1018.088538
 20
1347.861558
 11
1016.951357
 21
1345.891902
  0
ARC
  8
CSLAYER1
  6
CONTINUOUS
 62
     3
 10
1014.308494
 20
1348.634316
 40
3.808617
 50
5.661633
 51
46.059028
  0
LINE
  8
CSLAYER1
  6
CENTER
 62
     5
 10
888.588538
 20
1129.193659
 11
998.588538
 21
1129.193659
  0
LINE
  8
CSLAYER1
  6
CONTINUOUS
 62
     3
 10
897.588538
 20
1102.146972
 11
918.588538
 21
1102.146972
  0
LINE
  8
CSLAYER1
  6
CONTINUOUS
 62
     3
 10
897.588538
 20
1053.546972
 11
936.088538
 21
1053.546972
  0
LINE
  8
CSLAYER1
  6
CONTINUOUS
 62
     3
 10
1022.088538
 20
1072.460683
 11
1021.588538
 21
1072.460683
  0
LINE
  8
CSLAYER1
  6
CONTINUOUS
 62
     3
 10
1011.088538
 20
1087.960683
 11
1011.088538
 21
1066.960683
  0
LINE
  8
CSLAYER1
  6
CONTINUOUS
 62
     3
 10
1023.088538
 20
1073.460683
 11
1023.088538
 21
1081.460683
  0
LINE
  8
CSLAYER1
  6
CONTINUOUS
 62
     3
 10
1001.588538
 20
1091.460683
 11
998.588538
 21
1091.460683
  0
LINE
  8
CSLAYER1
  6
CONTINUOUS
 62
     3
 10
1001.588538
 20
1063.460683
 11
998.588538
 21
1063.460683
  0
LINE
  8
CSLAYER1
  6
CONTINUOUS
 62
     3
 10
1013.088538
 20
1087.960683
 11
1013.088538
 21
1066.960683
  0
LINE
  8
CSLAYER1
  6
CONTINUOUS
 62
     3
 10
1015.588538
 20
1086.660683
 11
1015.588538
 21
1068.260683
  0
LINE
  8
CSLAYER1
  6
CONTINUOUS
 62
     3
 10
1015.588538
 20
1068.260683
 11
1013.088538
 21
1068.260683
  0
LINE
  8
CSLAYER1
  6
CONTINUOUS
 62
     3
 10
1013.088538
 20
1066.960683
 11
1011.088538
 21
1066.960683
  0
LINE
  8
CSLAYER1
  6
CONTINUOUS
 62
     3
 10
1015.588538
 20
1086.660683
 11
1013.088538
 21
1086.660683
  0
LINE
  8
CSLAYER1
  6
CONTINUOUS
 62
     3
 10
1013.088538
 20
1087.960683
 11
1011.088538
 21
1087.960683
  0
LINE
  8
CSLAYER1
  6
CONTINUOUS
 62
     3
 10
1021.588538
 20
1085.960683
 11
1021.588538
 21
1068.960683
  0
LINE
  8
CSLAYER1
  6
CONTINUOUS
 62
     3
 10
1022.088538
 20
1072.460683
 11
1023.088538
 21
1073.460683
  0
LINE
  8
CSLAYER1
  6
CONTINUOUS
 62
     3
 10
1022.788538
 20
1073.160683
 11
1021.588538
 21
1073.160683
  0
LINE
  8
CSLAYER1
  6
CONTINUOUS
 62
     3
 10
1022.088538
 20
1072.460683
 11
1022.088538
 21
1082.460683
  0
LINE
  8
CSLAYER1
  6
CONTINUOUS
 62
     3
 10
1020.829349
 20
1067.645729
 11
1016.347728
 21
1067.645729
  0
LINE
  8
CSLAYER1
  6
CONTINUOUS
 62
     3
 10
1020.829349
 20
1072.553206
 11
1016.347728
 21
1072.553206
  0
LINE
  8
CSLAYER1
  6
CONTINUOUS
 62
     3
 10
1021.588538
 20
1068.960683
 11
1020.829349
 21
1067.645729
  0
ARC
  8
CSLAYER1
  6
CONTINUOUS
 62
     3
 10
1005.347728
 20
1077.460683
 40
16.240811
 50
-17.587954
 51
17.587954
  0
ARC
  8
CSLAYER1
  6
CONTINUOUS
 62
     3
 10
1017.247614
 20
1070.099468
 40
4.341619
 50
-27.480777
 51
34.413868
  0
LINE
  8
CSLAYER1
  6
CONTINUOUS
 62
     3
 10
1021.588538
 20
1085.960683
 11
1020.829349
 21
1087.275638
  0
ARC
  8
CSLAYER1
  6
CONTINUOUS
 62
     3
 10
1017.247614
 20
1084.821899
 40
4.341619
 50
-34.413868
 51
27.480777
  0
LINE
  8
CSLAYER1
  6
CONTINUOUS
 62
     3
 10
1015.588538
 20
1068.960683
 11
1016.347728
 21
1067.645729
  0
ARC
  8
CSLAYER1
  6
CONTINUOUS
 62
     3
 10
1031.829349
 20
1077.460683
 40
16.240811
 50
162.412046
 51
197.587954
  0
ARC
  8
CSLAYER1
  6
CONTINUOUS
 62
     3
 10
1019.929463
 20
1070.099468
 40
4.341619
 50
145.586132
 51
207.480777
  0
LINE
  8
CSLAYER1
  6
CONTINUOUS
 62
     3
 10
1015.588538
 20
1085.960683
 11
1016.347728
 21
1087.275638
  0
ARC
  8
CSLAYER1
  6
CONTINUOUS
 62
     3
 10
1019.929463
 20
1084.821899
 40
4.341619
 50
152.519223
 51
214.413868
  0
LINE
  8
CSLAYER1
  6
CONTINUOUS
 62
     3
 10
1020.829349
 20
1087.275638
 11
1016.347728
 21
1087.275638
  0
LINE
  8
CSLAYER1
  6
CONTINUOUS
 62
     3
 10
1020.829349
 20
1082.368161
 11
1016.347728
 21
1082.368161
  0
LINE
  8
CSLAYER1
  6
CONTINUOUS
 62
     3
 10
1022.088538
 20
1082.460683
 11
1021.588538
 21
1082.460683
  0
LINE
  8
CSLAYER1
  6
CONTINUOUS
 62
     3
 10
1022.088538
 20
1082.460683
 11
1023.088538
 21
1081.460683
  0
LINE
  8
CSLAYER1
  6
CONTINUOUS
 62
     3
 10
1022.788538
 20
1081.760683
 11
1021.588538
 21
1081.760683
  0
LINE
  8
CSLAYER1
  6
CONTINUOUS
 62
     3
 10
1013.088538
 20
1079.362131
 11
1015.588538
 21
1075.992566
  0
LINE
  8
CSLAYER1
  6
CONTINUOUS
 62
     3
 10
1010.588538
 20
1069.960683
 11
1011.088538
 21
1069.960683
  0
LINE
  8
CSLAYER1
  6
CONTINUOUS
 62
     3
 10
1010.588538
 20
1084.960683
 11
1011.088538
 21
1084.960683
  0
LINE
  8
CSLAYER1
  6
CENTER
 62
     5
 10
954.088538
 20
1142.793659
 11
954.088538
 21
870.218004
  0
LINE
  8
CSLAYER1
  6
CONTINUOUS
 62
     3
 10
983.088538
 20
849.965909
 11
983.088538
 21
904.829800
  0
LINE
  8
CSLAYER1
  6
CONTINUOUS
 62
     3
 10
977.088538
 20
849.965909
 11
977.088538
 21
904.829800
  0
LINE
  8
CSLAYER1
  6
CONTINUOUS
 62
     3
 10
925.088538
 20
849.965909
 11
925.088538
 21
904.829800
  0
LINE
  8
CSLAYER1
  6
CONTINUOUS
 62
     3
 10
931.088538
 20
849.965909
 11
931.088538
 21
904.829800
  0
LINE
  8
CSLAYER1
  6
CONTINUOUS
 62
     3
 10
976.588538
 20
1116.593659
 11
976.588538
 21
1141.793659
  0
LINE
  8
CSLAYER1
  6
CONTINUOUS
 62
     3
 10
931.588538
 20
1116.593659
 11
931.588538
 21
1141.793659
  0
LINE
  8
CSLAYER1
  6
CONTINUOUS
 62
     3
 10
932.588538
 20
1142.793659
 11
975.588538
 21
1142.793659
  0
LINE
  8
CSLAYER1
  6
CONTINUOUS
 62
     3
 10
931.588538
 20
1141.793659
 11
932.588538
 21
1142.793659
  0
LINE
  8
CSLAYER1
  6
CONTINUOUS
 62
     3
 10
975.588538
 20
1142.793659
 11
976.588538
 21
1141.793659
  0
POINT
  8
CSLAYER1
 62
     3
 10
954.088538
 20
1129.193659
  0
LINE
  8
CSLAYER1
  6
CONTINUOUS
 62
     3
 10
977.588538
 20
1137.193659
 11
976.588538
 21
1137.193659
  0
LINE
  8
CSLAYER1
  6
CONTINUOUS
 62
     3
 10
931.588538
 20
1137.193659
 11
930.588538
 21
1137.193659
  0
LINE
  8
CSLAYER1
  6
CENTER
 62
     5
 10
925.088538
 20
888.764937
 11
983.088538
 21
888.764937
  0
LINE
  8
CSLAYER1
  6
CONTINUOUS
 62
     3
 10
885.588538
 20
870.218004
 11
888.588538
 21
870.218004
  0
LINE
  8
CSLAYER1
  6
CONTINUOUS
 62
     3
 10
925.088538
 20
849.965909
 11
931.088538
 21
849.965909
  0
LINE
  8
CSLAYER1
  6
CONTINUOUS
 62
     3
 10
925.088538
 20
904.829800
 11
931.088538
 21
904.829800
  0
LINE
  8
CSLAYER1
  6
CONTINUOUS
 62
     3
 10
977.088538
 20
904.829800
 11
983.088538
 21
904.829800
  0
LINE
  8
CSLAYER1
  6
CONTINUOUS
 62
     3
 10
977.088538
 20
849.965909
 11
983.088538
 21
849.965909
  0
LINE
  8
CSLAYER1
  6
CONTINUOUS
 62
     3
 10
931.088538
 20
870.218004
 11
977.088538
 21
870.218004
  0
LINE
  8
CSLAYER1
  6
CONTINUOUS
 62
     3
 10
983.088538
 20
870.218004
 11
989.588538
 21
870.218004
  0
LINE
  8
CSLAYER1
  6
CONTINUOUS
 62
     3
 10
998.588538
 20
870.218004
 11
1001.588538
 21
870.218004
  0
LINE
  8
CSLAYER1
  6
CONTINUOUS
 62
     3
 10
977.001016
 20
1025.201888
 11
981.483893
 21
1007.912662
  0
LINE
  8
CSLAYER1
  6
CONTINUOUS
 62
     3
 10
977.001016
 20
1025.201888
 11
976.739117
 21
1026.166333
  0
LINE
  8
CSLAYER1
  6
CONTINUOUS
 62
     3
 10
976.739117
 20
1026.166333
 11
976.304832
 21
1027.116041
  0
LINE
  8
CSLAYER1
  6
CONTINUOUS
 62
     3
 10
976.304832
 20
1027.116041
 11
975.701469
 21
1028.043785
  0
LINE
  8
CSLAYER1
  6
CONTINUOUS
 62
     3
 10
975.701469
 20
1028.043785
 11
974.933618
 21
1028.942504
  0
LINE
  8
CSLAYER1
  6
CONTINUOUS
 62
     3
 10
974.933618
 20
1028.942504
 11
974.007123
 21
1029.805358
  0
LINE
  8
CSLAYER1
  6
CONTINUOUS
 62
     3
 10
974.007123
 20
1029.805358
 11
972.929035
 21
1030.625781
  0
LINE
  8
CSLAYER1
  6
CONTINUOUS
 62
     3
 10
972.929035
 20
1030.625781
 11
971.707561
 21
1031.397529
  0
LINE
  8
CSLAYER1
  6
CONTINUOUS
 62
     3
 10
971.707561
 20
1031.397529
 11
970.351994
 21
1032.114727
  0
LINE
  8
CSLAYER1
  6
CONTINUOUS
 62
     3
 10
970.351994
 20
1032.114727
 11
968.872653
 21
1032.771919
  0
LINE
  8
CSLAYER1
  6
CONTINUOUS
 62
     3
 10
968.872653
 20
1032.771919
 11
967.280796
 21
1033.364102
  0
LINE
  8
CSLAYER1
  6
CONTINUOUS
 62
     3
 10
967.280796
 20
1033.364102
 11
965.588538
 21
1033.886769
  0
LINE
  8
CSLAYER1
  6
CONTINUOUS
 62
     3
 10
965.588538
 20
1033.886769
 11
963.808758
 21
1034.335942
  0
LINE
  8
CSLAYER1
  6
CONTINUOUS
 62
     3
 10
963.808758
 20
1034.335942
 11
961.955002
 21
1034.708204
  0
LINE
  8
CSLAYER1
  6
CONTINUOUS
 62
     3
 10
961.955002
 20
1034.708204
 11
960.041376
 21
1035.000721
  0
LINE
  8
CSLAYER1
  6
CONTINUOUS
 62
     3
 10
960.041376
 20
1035.000721
 11
958.082446
 21
1035.211266
  0
LINE
  8
CSLAYER1
  6
CONTINUOUS
 62
     3
 10
958.082446
 20
1035.211266
 11
956.093120
 21
1035.338237
  0
LINE
  8
CSLAYER1
  6
CONTINUOUS
 62
     3
 10
956.093120
 20
1035.338237
 11
954.088538
 21
1035.380669
  0
LINE
  8
CSLAYER1
  6
CONTINUOUS
 62
     3
 10
931.176060
 20
1025.201888
 11
926.693184
 21
1007.912662
  0
LINE
  8
CSLAYER1
  6
CONTINUOUS
 62
     3
 10
931.176060
 20
1025.201888
 11
931.437960
 21
1026.166333
  0
LINE
  8
CSLAYER1
  6
CONTINUOUS
 62
     3
 10
931.437960
 20
1026.166333
 11
931.872244
 21
1027.116041
  0
LINE
  8
CSLAYER1
  6
CONTINUOUS
 62
     3
 10
931.872244
 20
1027.116041
 11
932.475608
 21
1028.043785
  0
LINE
  8
CSLAYER1
  6
CONTINUOUS
 62
     3
 10
932.475608
 20
1028.043785
 11
933.243459
 21
1028.942504
  0
LINE
  8
CSLAYER1
  6
CONTINUOUS
 62
     3
 10
933.243459
 20
1028.942504
 11
934.169954
 21
1029.805358
  0
LINE
  8
CSLAYER1
  6
CONTINUOUS
 62
     3
 10
934.169954
 20
1029.805358
 11
935.248041
 21
1030.625781
  0
LINE
  8
CSLAYER1
  6
CONTINUOUS
 62
     3
 10
935.248041
 20
1030.625781
 11
936.469516
 21
1031.397529
  0
LINE
  8
CSLAYER1
  6
CONTINUOUS
 62
     3
 10
936.469516
 20
1031.397529
 11
937.825082
 21
1032.114727
  0
LINE
  8
CSLAYER1
  6
CONTINUOUS
 62
     3
 10
937.825082
 20
1032.114727
 11
939.304423
 21
1032.771919
  0
LINE
  8
CSLAYER1
  6
CONTINUOUS
 62
     3
 10
939.304423
 20
1032.771919
 11
940.896280
 21
1033.364102
  0
LINE
  8
CSLAYER1
  6
CONTINUOUS
 62
     3
 10
940.896280
 20
1033.364102
 11
942.588538
 21
1033.886769
  0
LINE
  8
CSLAYER1
  6
CONTINUOUS
 62
     3
 10
942.588538
 20
1033.886769
 11
944.368318
 21
1034.335942
  0
LINE
  8
CSLAYER1
  6
CONTINUOUS
 62
     3
 10
944.368318
 20
1034.335942
 11
946.222075
 21
1034.708204
  0
LINE
  8
CSLAYER1
  6
CONTINUOUS
 62
     3
 10
946.222075
 20
1034.708204
 11
948.135700
 21
1035.000721
  0
LINE
  8
CSLAYER1
  6
CONTINUOUS
 62
     3
 10
948.135700
 20
1035.000721
 11
950.094630
 21
1035.211266
  0
LINE
  8
CSLAYER1
  6
CONTINUOUS
 62
     3
 10
950.094630
 20
1035.211266
 11
952.083956
 21
1035.338237
  0
LINE
  8
CSLAYER1
  6
CONTINUOUS
 62
     3
 10
952.083956
 20
1035.338237
 11
954.088538
 21
1035.380669
  0
LINE
  8
CSLAYER1
  6
CONTINUOUS
 62
     3
 10
972.088538
 20
1031.156821
 11
972.088538
 21
1117.528539
  0
LINE
  8
CSLAYER1
  6
CONTINUOUS
 62
     3
 10
972.088538
 20
1117.528539
 11
972.020043
 21
1118.289110
  0
LINE
  8
CSLAYER1
  6
CONTINUOUS
 62
     3
 10
972.020043
 20
1118.289110
 11
971.815078
 21
1119.043892
  0
LINE
  8
CSLAYER1
  6
CONTINUOUS
 62
     3
 10
971.815078
 20
1119.043892
 11
971.475203
 21
1119.787142
  0
LINE
  8
CSLAYER1
  6
CONTINUOUS
 62
     3
 10
971.475203
 20
1119.787142
 11
971.003006
 21
1120.513203
  0
LINE
  8
CSLAYER1
  6
CONTINUOUS
 62
     3
 10
971.003006
 20
1120.513203
 11
970.402079
 21
1121.216548
  0
LINE
  8
CSLAYER1
  6
CONTINUOUS
 62
     3
 10
970.402079
 20
1121.216548
 11
969.676996
 21
1121.891825
  0
LINE
  8
CSLAYER1
  6
CONTINUOUS
 62
     3
 10
969.676996
 20
1121.891825
 11
968.833275
 21
1122.533896
  0
LINE
  8
CSLAYER1
  6
CONTINUOUS
 62
     3
 10
968.833275
 20
1122.533896
 11
967.877338
 21
1123.137872
  0
LINE
  8
CSLAYER1
  6
CONTINUOUS
 62
     3
 10
967.877338
 20
1123.137872
 11
966.816460
 21
1123.699158
  0
LINE
  8
CSLAYER1
  6
CONTINUOUS
 62
     3
 10
966.816460
 20
1123.699158
 11
965.658715
 21
1124.213482
  0
LINE
  8
CSLAYER1
  6
CONTINUOUS
 62
     3
 10
965.658715
 20
1124.213482
 11
964.412914
 21
1124.676929
  0
LINE
  8
CSLAYER1
  6
CONTINUOUS
 62
     3
 10
964.412914
 20
1124.676929
 11
963.088538
 21
1125.085973
  0
LINE
  8
CSLAYER1
  6
CONTINUOUS
 62
     3
 10
963.088538
 20
1125.085973
 11
961.695667
 21
1125.437500
  0
LINE
  8
CSLAYER1
  6
CONTINUOUS
 62
     3
 10
961.695667
 20
1125.437500
 11
960.244901
 21
1125.728835
  0
LINE
  8
CSLAYER1
  6
CONTINUOUS
 62
     3
 10
960.244901
 20
1125.728835
 11
958.747281
 21
1125.957761
  0
LINE
  8
CSLAYER1
  6
CONTINUOUS
 62
     3
 10
958.747281
 20
1125.957761
 11
957.214206
 21
1126.122536
  0
LINE
  8
CSLAYER1
  6
CONTINUOUS
 62
     3
 10
957.214206
 20
1126.122536
 11
955.657342
 21
1126.221905
  0
LINE
  8
CSLAYER1
  6
CONTINUOUS
 62
     3
 10
955.657342
 20
1126.221905
 11
954.088538
 21
1126.255112
  0
LINE
  8
CSLAYER1
  6
CONTINUOUS
 62
     3
 10
954.088538
 20
1126.255112
 11
952.519735
 21
1126.221905
  0
LINE
  8
CSLAYER1
  6
CONTINUOUS
 62
     3
 10
952.519735
 20
1126.221905
 11
950.962871
 21
1126.122536
  0
LINE
  8
CSLAYER1
  6
CONTINUOUS
 62
     3
 10
950.962871
 20
1126.122536
 11
949.429796
 21
1125.957761
  0
LINE
  8
CSLAYER1
  6
CONTINUOUS
 62
     3
 10
949.429796
 20
1125.957761
 11
947.932176
 21
1125.728835
  0
LINE
  8
CSLAYER1
  6
CONTINUOUS
 62
     3
 10
947.932176
 20
1125.728835
 11
946.481410
 21
1125.437500
  0
LINE
  8
CSLAYER1
  6
CONTINUOUS
 62
     3
 10
946.481410
 20
1125.437500
 11
945.088538
 21
1125.085973
  0
LINE
  8
CSLAYER1
  6
CONTINUOUS
 62
     3
 10
945.088538
 20
1125.085973
 11
943.764163
 21
1124.676929
  0
LINE
  8
CSLAYER1
  6
CONTINUOUS
 62
     3
 10
943.764163
 20
1124.676929
 11
942.518361
 21
1124.213482
  0
LINE
  8
CSLAYER1
  6
CONTINUOUS
 62
     3
 10
942.518361
 20
1124.213482
 11
941.360616
 21
1123.699158
  0
LINE
  8
CSLAYER1
  6
CONTINUOUS
 62
     3
 10
941.360616
 20
1123.699158
 11
940.299738
 21
1123.137872
  0
LINE
  8
CSLAYER1
  6
CONTINUOUS
 62
     3
 10
940.299738
 20
1123.137872
 11
939.343802
 21
1122.533896
  0
LINE
  8
CSLAYER1
  6
CONTINUOUS
 62
     3
 10
939.343802
 20
1122.533896
 11
938.500081
 21
1121.891825
  0
LINE
  8
CSLAYER1
  6
CONTINUOUS
 62
     3
 10
938.500081
 20
1121.891825
 11
937.774998
 21
1121.216548
  0
LINE
  8
CSLAYER1
  6
CONTINUOUS
 62
     3
 10
937.774998
 20
1121.216548
 11
937.174071
 21
1120.513203
  0
LINE
  8
CSLAYER1
  6
CONTINUOUS
 62
     3
 10
937.174071
 20
1120.513203
 11
936.701874
 21
1119.787142
  0
LINE
  8
CSLAYER1
  6
CONTINUOUS
 62
     3
 10
936.701874
 20
1119.787142
 11
936.361999
 21
1119.043892
  0
LINE
  8
CSLAYER1
  6
CONTINUOUS
 62
     3
 10
936.361999
 20
1119.043892
 11
936.157034
 21
1118.289110
  0
LINE
  8
CSLAYER1
  6
CONTINUOUS
 62
     3
 10
936.157034
 20
1118.289110
 11
936.088538
 21
1117.528539
  0
LINE
  8
CSLAYER1
  6
CONTINUOUS
 62
     3
 10
981.588538
 20
1006.750678
 11
981.588538
 21
976.161782
  0
LINE
  8
CSLAYER1
  6
CONTINUOUS
 62
     3
 10
981.588538
 20
1006.750678
 11
981.483893
 21
1007.912662
  0
LINE
  8
CSLAYER1
  6
CONTINUOUS
 62
     3
 10
981.483893
 20
1007.912662
 11
981.170752
 21
1009.065802
  0
LINE
  8
CSLAYER1
  6
CONTINUOUS
 62
     3
 10
981.170752
 20
1009.065802
 11
980.651499
 21
1010.201322
  0
LINE
  8
CSLAYER1
  6
CONTINUOUS
 62
     3
 10
980.651499
 20
1010.201322
 11
979.930085
 21
1011.310581
  0
LINE
  8
CSLAYER1
  6
CONTINUOUS
 62
     3
 10
979.930085
 20
1011.310581
 11
979.012003
 21
1012.385137
  0
LINE
  8
CSLAYER1
  6
CONTINUOUS
 62
     3
 10
979.012003
 20
1012.385137
 11
977.904237
 21
1013.416811
  0
LINE
  8
CSLAYER1
  6
CONTINUOUS
 62
     3
 10
977.904237
 20
1013.416811
 11
976.615220
 21
1014.397751
  0
LINE
  8
CSLAYER1
  6
CONTINUOUS
 62
     3
 10
976.615220
 20
1014.397751
 11
975.154761
 21
1015.320493
  0
LINE
  8
CSLAYER1
  6
CONTINUOUS
 62
     3
 10
975.154761
 20
1015.320493
 11
973.533975
 21
1016.178013
  0
LINE
  8
CSLAYER1
  6
CONTINUOUS
 62
     3
 10
973.533975
 20
1016.178013
 11
971.765198
 21
1016.963786
  0
LINE
  8
CSLAYER1
  6
CONTINUOUS
 62
     3
 10
971.765198
 20
1016.963786
 11
969.861890
 21
1017.671830
  0
LINE
  8
CSLAYER1
  6
CONTINUOUS
 62
     3
 10
969.861890
 20
1017.671830
 11
967.838538
 21
1018.296758
  0
LINE
  8
CSLAYER1
  6
CONTINUOUS
 62
     3
 10
967.838538
 20
1018.296758
 11
965.710541
 21
1018.833814
  0
LINE
  8
CSLAYER1
  6
CONTINUOUS
 62
     3
 10
965.710541
 20
1018.833814
 11
963.494092
 21
1019.278909
  0
LINE
  8
CSLAYER1
  6
CONTINUOUS
 62
     3
 10
963.494092
 20
1019.278909
 11
961.206062
 21
1019.628657
  0
LINE
  8
CSLAYER1
  6
CONTINUOUS
 62
     3
 10
961.206062
 20
1019.628657
 11
958.863863
 21
1019.880396
  0
LINE
  8
CSLAYER1
  6
CONTINUOUS
 62
     3
 10
958.863863
 20
1019.880396
 11
956.485321
 21
1020.032210
  0
LINE
  8
CSLAYER1
  6
CONTINUOUS
 62
     3
 10
956.485321
 20
1020.032210
 11
954.088538
 21
1020.082943
  0
LINE
  8
CSLAYER1
  6
CONTINUOUS
 62
     3
 10
954.088538
 20
1020.082943
 11
951.691755
 21
1020.032210
  0
LINE
  8
CSLAYER1
  6
CONTINUOUS
 62
     3
 10
951.691755
 20
1020.032210
 11
949.313214
 21
1019.880396
  0
LINE
  8
CSLAYER1
  6
CONTINUOUS
 62
     3
 10
949.313214
 20
1019.880396
 11
946.971015
 21
1019.628657
  0
LINE
  8
CSLAYER1
  6
CONTINUOUS
 62
     3
 10
946.971015
 20
1019.628657
 11
944.682984
 21
1019.278909
  0
LINE
  8
CSLAYER1
  6
CONTINUOUS
 62
     3
 10
944.682984
 20
1019.278909
 11
942.466536
 21
1018.833814
  0
LINE
  8
CSLAYER1
  6
CONTINUOUS
 62
     3
 10
942.466536
 20
1018.833814
 11
940.338538
 21
1018.296758
  0
LINE
  8
CSLAYER1
  6
CONTINUOUS
 62
     3
 10
940.338538
 20
1018.296758
 11
938.315186
 21
1017.671830
  0
LINE
  8
CSLAYER1
  6
CONTINUOUS
 62
     3
 10
938.315186
 20
1017.671830
 11
936.411879
 21
1016.963786
  0
LINE
  8
CSLAYER1
  6
CONTINUOUS
 62
     3
 10
936.411879
 20
1016.963786
 11
934.643102
 21
1016.178013
  0
LINE
  8
CSLAYER1
  6
CONTINUOUS
 62
     3
 10
934.643102
 20
1016.178013
 11
933.022316
 21
1015.320493
  0
LINE
  8
CSLAYER1
  6
CONTINUOUS
 62
     3
 10
933.022316
 20
1015.320493
 11
931.561857
 21
1014.397751
  0
LINE
  8
CSLAYER1
  6
CONTINUOUS
 62
     3
 10
931.561857
 20
1014.397751
 11
930.272840
 21
1013.416811
  0
LINE
  8
CSLAYER1
  6
CONTINUOUS
 62
     3
 10
930.272840
 20
1013.416811
 11
929.165074
 21
1012.385137
  0
LINE
  8
CSLAYER1
  6
CONTINUOUS
 62
     3
 10
929.165074
 20
1012.385137
 11
928.246991
 21
1011.310581
  0
LINE
  8
CSLAYER1
  6
CONTINUOUS
 62
     3
 10
928.246991
 20
1011.310581
 11
927.525578
 21
1010.201322
  0
LINE
  8
CSLAYER1
  6
CONTINUOUS
 62
     3
 10
927.525578
 20
1010.201322
 11
927.006325
 21
1009.065802
  0
LINE
  8
CSLAYER1
  6
CONTINUOUS
 62
     3
 10
927.006325
 20
1009.065802
 11
926.693184
 21
1007.912662
  0
LINE
  8
CSLAYER1
  6
CONTINUOUS
 62
     3
 10
926.693184
 20
1007.912662
 11
926.588538
 21
1006.750678
  0
LINE
  8
CSLAYER1
  6
CONTINUOUS
 62
     3
 10
926.588538
 20
1006.750678
 11
926.588538
 21
976.161782
  0
LINE
  8
CSLAYER1
  6
CONTINUOUS
 62
     3
 10
978.388538
 20
906.244306
 11
978.388538
 21
976.161782
  0
LINE
  8
CSLAYER1
  6
CONTINUOUS
 62
     3
 10
981.588538
 20
976.161782
 11
981.483893
 21
977.323766
  0
LINE
  8
CSLAYER1
  6
CONTINUOUS
 62
     3
 10
981.483893
 20
977.323766
 11
981.170752
 21
978.476906
  0
LINE
  8
CSLAYER1
  6
CONTINUOUS
 62
     3
 10
981.170752
 20
978.476906
 11
980.651499
 21
979.612426
  0
LINE
  8
CSLAYER1
  6
CONTINUOUS
 62
     3
 10
980.651499
 20
979.612426
 11
979.930085
 21
980.721686
  0
LINE
  8
CSLAYER1
  6
CONTINUOUS
 62
     3
 10
979.930085
 20
980.721686
 11
979.012003
 21
981.796241
  0
LINE
  8
CSLAYER1
  6
CONTINUOUS
 62
     3
 10
979.012003
 20
981.796241
 11
977.904237
 21
982.827915
  0
LINE
  8
CSLAYER1
  6
CONTINUOUS
 62
     3
 10
977.904237
 20
982.827915
 11
976.615220
 21
983.808855
  0
LINE
  8
CSLAYER1
  6
CONTINUOUS
 62
     3
 10
976.615220
 20
983.808855
 11
975.154761
 21
984.731597
  0
LINE
  8
CSLAYER1
  6
CONTINUOUS
 62
     3
 10
975.154761
 20
984.731597
 11
973.533975
 21
985.589117
  0
LINE
  8
CSLAYER1
  6
CONTINUOUS
 62
     3
 10
973.533975
 20
985.589117
 11
971.765198
 21
986.374890
  0
LINE
  8
CSLAYER1
  6
CONTINUOUS
 62
     3
 10
971.765198
 20
986.374890
 11
969.861890
 21
987.082934
  0
LINE
  8
CSLAYER1
  6
CONTINUOUS
 62
     3
 10
969.861890
 20
987.082934
 11
967.838538
 21
987.707862
  0
LINE
  8
CSLAYER1
  6
CONTINUOUS
 62
     3
 10
967.838538
 20
987.707862
 11
965.710541
 21
988.244918
  0
LINE
  8
CSLAYER1
  6
CONTINUOUS
 62
     3
 10
965.710541
 20
988.244918
 11
963.494092
 21
988.690013
  0
LINE
  8
CSLAYER1
  6
CONTINUOUS
 62
     3
 10
963.494092
 20
988.690013
 11
961.206062
 21
989.039761
  0
LINE
  8
CSLAYER1
  6
CONTINUOUS
 62
     3
 10
961.206062
 20
989.039761
 11
958.863863
 21
989.291500
  0
LINE
  8
CSLAYER1
  6
CONTINUOUS
 62
     3
 10
958.863863
 20
989.291500
 11
956.485321
 21
989.443314
  0
LINE
  8
CSLAYER1
  6
CONTINUOUS
 62
     3
 10
956.485321
 20
989.443314
 11
954.088538
 21
989.494047
  0
LINE
  8
CSLAYER1
  6
CONTINUOUS
 62
     3
 10
954.088538
 20
989.494047
 11
951.691755
 21
989.443314
  0
LINE
  8
CSLAYER1
  6
CONTINUOUS
 62
     3
 10
951.691755
 20
989.443314
 11
949.313214
 21
989.291500
  0
LINE
  8
CSLAYER1
  6
CONTINUOUS
 62
     3
 10
949.313214
 20
989.291500
 11
946.971015
 21
989.039761
  0
LINE
  8
CSLAYER1
  6
CONTINUOUS
 62
     3
 10
946.971015
 20
989.039761
 11
944.682984
 21
988.690013
  0
LINE
  8
CSLAYER1
  6
CONTINUOUS
 62
     3
 10
944.682984
 20
988.690013
 11
942.466536
 21
988.244918
  0
LINE
  8
CSLAYER1
  6
CONTINUOUS
 62
     3
 10
942.466536
 20
988.244918
 11
940.338538
 21
987.707862
  0
LINE
  8
CSLAYER1
  6
CONTINUOUS
 62
     3
 10
940.338538
 20
987.707862
 11
938.315186
 21
987.082934
  0
LINE
  8
CSLAYER1
  6
CONTINUOUS
 62
     3
 10
938.315186
 20
987.082934
 11
936.411879
 21
986.374890
  0
LINE
  8
CSLAYER1
  6
CONTINUOUS
 62
     3
 10
936.411879
 20
986.374890
 11
934.643102
 21
985.589117
  0
LINE
  8
CSLAYER1
  6
CONTINUOUS
 62
     3
 10
934.643102
 20
985.589117
 11
933.022316
 21
984.731597
  0
LINE
  8
CSLAYER1
  6
CONTINUOUS
 62
     3
 10
933.022316
 20
984.731597
 11
931.561857
 21
983.808855
  0
LINE
  8
CSLAYER1
  6
CONTINUOUS
 62
     3
 10
931.561857
 20
983.808855
 11
930.272840
 21
982.827915
  0
LINE
  8
CSLAYER1
  6
CONTINUOUS
 62
     3
 10
930.272840
 20
982.827915
 11
929.165074
 21
981.796241
  0
LINE
  8
CSLAYER1
  6
CONTINUOUS
 62
     3
 10
929.165074
 20
981.796241
 11
928.246991
 21
980.721686
  0
LINE
  8
CSLAYER1
  6
CONTINUOUS
 62
     3
 10
928.246991
 20
980.721686
 11
927.525578
 21
979.612426
  0
LINE
  8
CSLAYER1
  6
CONTINUOUS
 62
     3
 10
927.525578
 20
979.612426
 11
927.006325
 21
978.476906
  0
LINE
  8
CSLAYER1
  6
CONTINUOUS
 62
     3
 10
927.006325
 20
978.476906
 11
926.693184
 21
977.323766
  0
LINE
  8
CSLAYER1
  6
CONTINUOUS
 62
     3
 10
926.693184
 20
977.323766
 11
926.588538
 21
976.161782
  0
LINE
  8
CSLAYER1
  6
CONTINUOUS
 62
     3
 10
926.588538
 20
976.161782
 11
926.693184
 21
974.999799
  0
LINE
  8
CSLAYER1
  6
CONTINUOUS
 62
     3
 10
926.693184
 20
974.999799
 11
927.006325
 21
973.846659
  0
LINE
  8
CSLAYER1
  6
CONTINUOUS
 62
     3
 10
927.006325
 20
973.846659
 11
927.525578
 21
972.711139
  0
LINE
  8
CSLAYER1
  6
CONTINUOUS
 62
     3
 10
927.525578
 20
972.711139
 11
928.246991
 21
971.601879
  0
LINE
  8
CSLAYER1
  6
CONTINUOUS
 62
     3
 10
928.246991
 20
971.601879
 11
929.165074
 21
970.527324
  0
LINE
  8
CSLAYER1
  6
CONTINUOUS
 62
     3
 10
929.165074
 20
970.527324
 11
929.788538
 21
969.946685
  0
LINE
  8
CSLAYER1
  6
CONTINUOUS
 62
     3
 10
978.388538
 20
969.946685
 11
979.012003
 21
970.527324
  0
LINE
  8
CSLAYER1
  6
CONTINUOUS
 62
     3
 10
979.012003
 20
970.527324
 11
979.930085
 21
971.601879
  0
LINE
  8
CSLAYER1
  6
CONTINUOUS
 62
     3
 10
979.930085
 20
971.601879
 11
980.651499
 21
972.711139
  0
LINE
  8
CSLAYER1
  6
CONTINUOUS
 62
     3
 10
980.651499
 20
972.711139
 11
981.170752
 21
973.846659
  0
LINE
  8
CSLAYER1
  6
CONTINUOUS
 62
     3
 10
981.170752
 20
973.846659
 11
981.483893
 21
974.999799
  0
LINE
  8
CSLAYER1
  6
CONTINUOUS
 62
     3
 10
981.483893
 20
974.999799
 11
981.588538
 21
976.161782
  0
LINE
  8
CSLAYER1
  6
CONTINUOUS
 62
     3
 10
978.388538
 20
976.161782
 11
978.296070
 21
977.188553
  0
LINE
  8
CSLAYER1
  6
CONTINUOUS
 62
     3
 10
978.296070
 20
977.188553
 11
978.019367
 21
978.207510
  0
LINE
  8
CSLAYER1
  6
CONTINUOUS
 62
     3
 10
978.019367
 20
978.207510
 11
977.560536
 21
979.210897
  0
LINE
  8
CSLAYER1
  6
CONTINUOUS
 62
     3
 10
977.560536
 20
979.210897
 11
976.923069
 21
980.191079
  0
LINE
  8
CSLAYER1
  6
CONTINUOUS
 62
     3
 10
976.923069
 20
980.191079
 11
976.111818
 21
981.140595
  0
LINE
  8
CSLAYER1
  6
CONTINUOUS
 62
     3
 10
976.111818
 20
981.140595
 11
975.132956
 21
982.052219
  0
LINE
  8
CSLAYER1
  6
CONTINUOUS
 62
     3
 10
975.132956
 20
982.052219
 11
973.993933
 21
982.919014
  0
LINE
  8
CSLAYER1
  6
CONTINUOUS
 62
     3
 10
973.993933
 20
982.919014
 11
972.703418
 21
983.734382
  0
LINE
  8
CSLAYER1
  6
CONTINUOUS
 62
     3
 10
972.703418
 20
983.734382
 11
971.271233
 21
984.492118
  0
LINE
  8
CSLAYER1
  6
CONTINUOUS
 62
     3
 10
971.271233
 20
984.492118
 11
969.708277
 21
985.186455
  0
LINE
  8
CSLAYER1
  6
CONTINUOUS
 62
     3
 10
969.708277
 20
985.186455
 11
968.026446
 21
985.812109
  0
LINE
  8
CSLAYER1
  6
CONTINUOUS
 62
     3
 10
968.026446
 20
985.812109
 11
966.238538
 21
986.364318
  0
LINE
  8
CSLAYER1
  6
CONTINUOUS
 62
     3
 10
966.238538
 20
986.364318
 11
964.358162
 21
986.838880
  0
LINE
  8
CSLAYER1
  6
CONTINUOUS
 62
     3
 10
964.358162
 20
986.838880
 11
962.399628
 21
987.232183
  0
LINE
  8
CSLAYER1
  6
CONTINUOUS
 62
     3
 10
962.399628
 20
987.232183
 11
960.377841
 21
987.541233
  0
LINE
  8
CSLAYER1
  6
CONTINUOUS
 62
     3
 10
960.377841
 20
987.541233
 11
958.308189
 21
987.763678
  0
LINE
  8
CSLAYER1
  6
CONTINUOUS
 62
     3
 10
958.308189
 20
987.763678
 11
956.206423
 21
987.897826
  0
LINE
  8
CSLAYER1
  6
CONTINUOUS
 62
     3
 10
956.206423
 20
987.897826
 11
954.088538
 21
987.942656
  0
LINE
  8
CSLAYER1
  6
CONTINUOUS
 62
     3
 10
954.088538
 20
987.942656
 11
951.970654
 21
987.897826
  0
LINE
  8
CSLAYER1
  6
CONTINUOUS
 62
     3
 10
951.970654
 20
987.897826
 11
949.868888
 21
987.763678
  0
LINE
  8
CSLAYER1
  6
CONTINUOUS
 62
     3
 10
949.868888
 20
987.763678
 11
947.799236
 21
987.541233
  0
LINE
  8
CSLAYER1
  6
CONTINUOUS
 62
     3
 10
947.799236
 20
987.541233
 11
945.777449
 21
987.232183
  0
LINE
  8
CSLAYER1
  6
CONTINUOUS
 62
     3
 10
945.777449
 20
987.232183
 11
943.818915
 21
986.838880
  0
LINE
  8
CSLAYER1
  6
CONTINUOUS
 62
     3
 10
943.818915
 20
986.838880
 11
941.938538
 21
986.364318
  0
LINE
  8
CSLAYER1
  6
CONTINUOUS
 62
     3
 10
941.938538
 20
986.364318
 11
940.150631
 21
985.812109
  0
LINE
  8
CSLAYER1
  6
CONTINUOUS
 62
     3
 10
940.150631
 20
985.812109
 11
938.468799
 21
985.186455
  0
LINE
  8
CSLAYER1
  6
CONTINUOUS
 62
     3
 10
938.468799
 20
985.186455
 11
936.905844
 21
984.492118
  0
LINE
  8
CSLAYER1
  6
CONTINUOUS
 62
     3
 10
936.905844
 20
984.492118
 11
935.473658
 21
983.734382
  0
LINE
  8
CSLAYER1
  6
CONTINUOUS
 62
     3
 10
935.473658
 20
983.734382
 11
934.183144
 21
982.919014
  0
LINE
  8
CSLAYER1
  6
CONTINUOUS
 62
     3
 10
934.183144
 20
982.919014
 11
933.044121
 21
982.052219
  0
LINE
  8
CSLAYER1
  6
CONTINUOUS
 62
     3
 10
933.044121
 20
982.052219
 11
932.065259
 21
981.140595
  0
LINE
  8
CSLAYER1
  6
CONTINUOUS
 62
     3
 10
932.065259
 20
981.140595
 11
931.254008
 21
980.191079
  0
LINE
  8
CSLAYER1
  6
CONTINUOUS
 62
     3
 10
931.254008
 20
980.191079
 11
930.616541
 21
979.210897
  0
LINE
  8
CSLAYER1
  6
CONTINUOUS
 62
     3
 10
930.616541
 20
979.210897
 11
930.157710
 21
978.207510
  0
LINE
  8
CSLAYER1
  6
CONTINUOUS
 62
     3
 10
930.157710
 20
978.207510
 11
929.881007
 21
977.188553
  0
LINE
  8
CSLAYER1
  6
CONTINUOUS
 62
     3
 10
929.881007
 20
977.188553
 11
929.788538
 21
976.161782
  0
LINE
  8
CSLAYER1
  6
CONTINUOUS
 62
     3
 10
929.788538
 20
906.244306
 11
929.788538
 21
976.161782
  0
LINE
  8
CSLAYER1
  6
CONTINUOUS
 62
     3
 10
936.088538
 20
1031.156821
 11
936.088538
 21
1117.528539
  0
LINE
  8
CSLAYER1
  6
CONTINUOUS
 62
     3
 10
976.588538
 20
875.655410
 11
976.588538
 21
906.244306
  0
LINE
  8
CSLAYER1
  6
CONTINUOUS
 62
     3
 10
976.588538
 20
906.244306
 11
976.502919
 21
907.195020
  0
LINE
  8
CSLAYER1
  6
CONTINUOUS
 62
     3
 10
976.502919
 20
907.195020
 11
976.246713
 21
908.138498
  0
LINE
  8
CSLAYER1
  6
CONTINUOUS
 62
     3
 10
976.246713
 20
908.138498
 11
975.821869
 21
909.067560
  0
LINE
  8
CSLAYER1
  6
CONTINUOUS
 62
     3
 10
975.821869
 20
909.067560
 11
975.231622
 21
909.975136
  0
LINE
  8
CSLAYER1
  6
CONTINUOUS
 62
     3
 10
975.231622
 20
909.975136
 11
974.480464
 21
910.854318
  0
LINE
  8
CSLAYER1
  6
CONTINUOUS
 62
     3
 10
974.480464
 20
910.854318
 11
973.574110
 21
911.698414
  0
LINE
  8
CSLAYER1
  6
CONTINUOUS
 62
     3
 10
973.574110
 20
911.698414
 11
972.519459
 21
912.501002
  0
LINE
  8
CSLAYER1
  6
CONTINUOUS
 62
     3
 10
972.519459
 20
912.501002
 11
971.324538
 21
913.255972
  0
LINE
  8
CSLAYER1
  6
CONTINUOUS
 62
     3
 10
971.324538
 20
913.255972
 11
969.998441
 21
913.957580
  0
LINE
  8
CSLAYER1
  6
CONTINUOUS
 62
     3
 10
969.998441
 20
913.957580
 11
968.551260
 21
914.600485
  0
LINE
  8
CSLAYER1
  6
CONTINUOUS
 62
     3
 10
968.551260
 20
914.600485
 11
966.994008
 21
915.179794
  0
LINE
  8
CSLAYER1
  6
CONTINUOUS
 62
     3
 10
966.994008
 20
915.179794
 11
965.338538
 21
915.691099
  0
LINE
  8
CSLAYER1
  6
CONTINUOUS
 62
     3
 10
965.338538
 20
915.691099
 11
963.597449
 21
916.130508
  0
LINE
  8
CSLAYER1
  6
CONTINUOUS
 62
     3
 10
963.597449
 20
916.130508
 11
961.783992
 21
916.494677
  0
LINE
  8
CSLAYER1
  6
CONTINUOUS
 62
     3
 10
961.783992
 20
916.494677
 11
959.911967
 21
916.780834
  0
LINE
  8
CSLAYER1
  6
CONTINUOUS
 62
     3
 10
959.911967
 20
916.780834
 11
957.995622
 21
916.986802
  0
LINE
  8
CSLAYER1
  6
CONTINUOUS
 62
     3
 10
957.995622
 20
916.986802
 11
956.049543
 21
917.111013
  0
LINE
  8
CSLAYER1
  6
CONTINUOUS
 62
     3
 10
956.049543
 20
917.111013
 11
954.088538
 21
917.152523
  0
LINE
  8
CSLAYER1
  6
CONTINUOUS
 62
     3
 10
954.088538
 20
917.152523
 11
952.127534
 21
917.111013
  0
LINE
  8
CSLAYER1
  6
CONTINUOUS
 62
     3
 10
952.127534
 20
917.111013
 11
950.181454
 21
916.986802
  0
LINE
  8
CSLAYER1
  6
CONTINUOUS
 62
     3
 10
950.181454
 20
916.986802
 11
948.265110
 21
916.780834
  0
LINE
  8
CSLAYER1
  6
CONTINUOUS
 62
     3
 10
948.265110
 20
916.780834
 11
946.393085
 21
916.494677
  0
LINE
  8
CSLAYER1
  6
CONTINUOUS
 62
     3
 10
946.393085
 20
916.494677
 11
944.579628
 21
916.130508
  0
LINE
  8
CSLAYER1
  6
CONTINUOUS
 62
     3
 10
944.579628
 20
916.130508
 11
942.838538
 21
915.691099
  0
LINE
  8
CSLAYER1
  6
CONTINUOUS
 62
     3
 10
942.838538
 20
915.691099
 11
941.183069
 21
915.179794
  0
LINE
  8
CSLAYER1
  6
CONTINUOUS
 62
     3
 10
941.183069
 20
915.179794
 11
939.625817
 21
914.600485
  0
LINE
  8
CSLAYER1
  6
CONTINUOUS
 62
     3
 10
939.625817
 20
914.600485
 11
938.178636
 21
913.957580
  0
LINE
  8
CSLAYER1
  6
CONTINUOUS
 62
     3
 10
938.178636
 20
913.957580
 11
936.852538
 21
913.255972
  0
LINE
  8
CSLAYER1
  6
CONTINUOUS
 62
     3
 10
936.852538
 20
913.255972
 11
935.657617
 21
912.501002
  0
LINE
  8
CSLAYER1
  6
CONTINUOUS
 62
     3
 10
935.657617
 20
912.501002
 11
934.602967
 21
911.698414
  0
LINE
  8
CSLAYER1
  6
CONTINUOUS
 62
     3
 10
934.602967
 20
911.698414
 11
933.696613
 21
910.854318
  0
LINE
  8
CSLAYER1
  6
CONTINUOUS
 62
     3
 10
933.696613
 20
910.854318
 11
932.945454
 21
909.975136
  0
LINE
  8
CSLAYER1
  6
CONTINUOUS
 62
     3
 10
932.945454
 20
909.975136
 11
932.355207
 21
909.067560
  0
LINE
  8
CSLAYER1
  6
CONTINUOUS
 62
     3
 10
932.355207
 20
909.067560
 11
931.930364
 21
908.138498
  0
LINE
  8
CSLAYER1
  6
CONTINUOUS
 62
     3
 10
931.930364
 20
908.138498
 11
931.674158
 21
907.195020
  0
LINE
  8
CSLAYER1
  6
CONTINUOUS
 62
     3
 10
931.674158
 20
907.195020
 11
931.588538
 21
906.244306
  0
LINE
  8
CSLAYER1
  6
CONTINUOUS
 62
     3
 10
978.388538
 20
906.244306
 11
978.296070
 21
907.271077
  0
LINE
  8
CSLAYER1
  6
CONTINUOUS
 62
     3
 10
978.296070
 20
907.271077
 11
978.019367
 21
908.290033
  0
LINE
  8
CSLAYER1
  6
CONTINUOUS
 62
     3
 10
978.019367
 20
908.290033
 11
977.560536
 21
909.293421
  0
LINE
  8
CSLAYER1
  6
CONTINUOUS
 62
     3
 10
977.560536
 20
909.293421
 11
976.923069
 21
910.273602
  0
LINE
  8
CSLAYER1
  6
CONTINUOUS
 62
     3
 10
976.923069
 20
910.273602
 11
976.111818
 21
911.223118
  0
LINE
  8
CSLAYER1
  6
CONTINUOUS
 62
     3
 10
976.111818
 20
911.223118
 11
975.132956
 21
912.134743
  0
LINE
  8
CSLAYER1
  6
CONTINUOUS
 62
     3
 10
975.132956
 20
912.134743
 11
973.993933
 21
913.001538
  0
LINE
  8
CSLAYER1
  6
CONTINUOUS
 62
     3
 10
973.993933
 20
913.001538
 11
972.703418
 21
913.816906
  0
LINE
  8
CSLAYER1
  6
CONTINUOUS
 62
     3
 10
972.703418
 20
913.816906
 11
971.271233
 21
914.574642
  0
LINE
  8
CSLAYER1
  6
CONTINUOUS
 62
     3
 10
971.271233
 20
914.574642
 11
969.708277
 21
915.268979
  0
LINE
  8
CSLAYER1
  6
CONTINUOUS
 62
     3
 10
969.708277
 20
915.268979
 11
968.026446
 21
915.894633
  0
LINE
  8
CSLAYER1
  6
CONTINUOUS
 62
     3
 10
968.026446
 20
915.894633
 11
966.238538
 21
916.446842
  0
LINE
  8
CSLAYER1
  6
CONTINUOUS
 62
     3
 10
966.238538
 20
916.446842
 11
964.358162
 21
916.921404
  0
LINE
  8
CSLAYER1
  6
CONTINUOUS
 62
     3
 10
964.358162
 20
916.921404
 11
962.399628
 21
917.314706
  0
LINE
  8
CSLAYER1
  6
CONTINUOUS
 62
     3
 10
962.399628
 20
917.314706
 11
960.377841
 21
917.623756
  0
LINE
  8
CSLAYER1
  6
CONTINUOUS
 62
     3
 10
960.377841
 20
917.623756
 11
958.308189
 21
917.846202
  0
LINE
  8
CSLAYER1
  6
CONTINUOUS
 62
     3
 10
958.308189
 20
917.846202
 11
956.206423
 21
917.980350
  0
LINE
  8
CSLAYER1
  6
CONTINUOUS
 62
     3
 10
956.206423
 20
917.980350
 11
954.088538
 21
918.025180
  0
LINE
  8
CSLAYER1
  6
CONTINUOUS
 62
     3
 10
954.088538
 20
918.025180
 11
951.970654
 21
917.980350
  0
LINE
  8
CSLAYER1
  6
CONTINUOUS
 62
     3
 10
951.970654
 20
917.980350
 11
949.868888
 21
917.846202
  0
LINE
  8
CSLAYER1
  6
CONTINUOUS
 62
     3
 10
949.868888
 20
917.846202
 11
947.799236
 21
917.623756
  0
LINE
  8
CSLAYER1
  6
CONTINUOUS
 62
     3
 10
947.799236
 20
917.623756
 11
945.777449
 21
917.314706
  0
LINE
  8
CSLAYER1
  6
CONTINUOUS
 62
     3
 10
945.777449
 20
917.314706
 11
943.818915
 21
916.921404
  0
LINE
  8
CSLAYER1
  6
CONTINUOUS
 62
     3
 10
943.818915
 20
916.921404
 11
941.938538
 21
916.446842
  0
LINE
  8
CSLAYER1
  6
CONTINUOUS
 62
     3
 10
941.938538
 20
916.446842
 11
940.150631
 21
915.894633
  0
LINE
  8
CSLAYER1
  6
CONTINUOUS
 62
     3
 10
940.150631
 20
915.894633
 11
938.468799
 21
915.268979
  0
LINE
  8
CSLAYER1
  6
CONTINUOUS
 62
     3
 10
938.468799
 20
915.268979
 11
936.905844
 21
914.574642
  0
LINE
  8
CSLAYER1
  6
CONTINUOUS
 62
     3
 10
936.905844
 20
914.574642
 11
935.473658
 21
913.816906
  0
LINE
  8
CSLAYER1
  6
CONTINUOUS
 62
     3
 10
935.473658
 20
913.816906
 11
934.183144
 21
913.001538
  0
LINE
  8
CSLAYER1
  6
CONTINUOUS
 62
     3
 10
934.183144
 20
913.001538
 11
933.044121
 21
912.134743
  0
LINE
  8
CSLAYER1
  6
CONTINUOUS
 62
     3
 10
933.044121
 20
912.134743
 11
932.065259
 21
911.223118
  0
LINE
  8
CSLAYER1
  6
CONTINUOUS
 62
     3
 10
932.065259
 20
911.223118
 11
931.254008
 21
910.273602
  0
LINE
  8
CSLAYER1
  6
CONTINUOUS
 62
     3
 10
931.254008
 20
910.273602
 11
930.616541
 21
909.293421
  0
LINE
  8
CSLAYER1
  6
CONTINUOUS
 62
     3
 10
930.616541
 20
909.293421
 11
930.157710
 21
908.290033
  0
LINE
  8
CSLAYER1
  6
CONTINUOUS
 62
     3
 10
930.157710
 20
908.290033
 11
929.881007
 21
907.271077
  0
LINE
  8
CSLAYER1
  6
CONTINUOUS
 62
     3
 10
929.881007
 20
907.271077
 11
929.788538
 21
906.244306
  0
LINE
  8
CSLAYER1
  6
CONTINUOUS
 62
     3
 10
929.788538
 20
906.244306
 11
929.881007
 21
905.217535
  0
LINE
  8
CSLAYER1
  6
CONTINUOUS
 62
     3
 10
929.881007
 20
905.217535
 11
929.986299
 21
904.829800
  0
LINE
  8
CSLAYER1
  6
CONTINUOUS
 62
     3
 10
931.088538
 20
902.469439
 11
931.588538
 21
901.823464
  0
LINE
  8
CSLAYER1
  6
CONTINUOUS
 62
     3
 10
976.588538
 20
901.823464
 11
977.088538
 21
902.469439
  0
LINE
  8
CSLAYER1
  6
CONTINUOUS
 62
     3
 10
978.190778
 20
904.829800
 11
978.296070
 21
905.217535
  0
LINE
  8
CSLAYER1
  6
CONTINUOUS
 62
     3
 10
978.296070
 20
905.217535
 11
978.388538
 21
906.244306
  0
LINE
  8
CSLAYER1
  6
CONTINUOUS
 62
     3
 10
931.588538
 20
875.655410
 11
931.588538
 21
906.244306
  0
LINE
  8
CSLAYER1
  6
CONTINUOUS
 62
     3
 10
976.588538
 20
875.655410
 11
976.502919
 21
876.606124
  0
LINE
  8
CSLAYER1
  6
CONTINUOUS
 62
     3
 10
976.502919
 20
876.606124
 11
976.246713
 21
877.549602
  0
LINE
  8
CSLAYER1
  6
CONTINUOUS
 62
     3
 10
976.246713
 20
877.549602
 11
975.821869
 21
878.478664
  0
LINE
  8
CSLAYER1
  6
CONTINUOUS
 62
     3
 10
975.821869
 20
878.478664
 11
975.231622
 21
879.386240
  0
LINE
  8
CSLAYER1
  6
CONTINUOUS
 62
     3
 10
975.231622
 20
879.386240
 11
974.480464
 21
880.265422
  0
LINE
  8
CSLAYER1
  6
CONTINUOUS
 62
     3
 10
974.480464
 20
880.265422
 11
973.574110
 21
881.109518
  0
LINE
  8
CSLAYER1
  6
CONTINUOUS
 62
     3
 10
973.574110
 20
881.109518
 11
972.519459
 21
881.912106
  0
LINE
  8
CSLAYER1
  6
CONTINUOUS
 62
     3
 10
972.519459
 20
881.912106
 11
971.324538
 21
882.667077
  0
LINE
  8
CSLAYER1
  6
CONTINUOUS
 62
     3
 10
971.324538
 20
882.667077
 11
969.998441
 21
883.368684
  0
LINE
  8
CSLAYER1
  6
CONTINUOUS
 62
     3
 10
969.998441
 20
883.368684
 11
968.551260
 21
884.011589
  0
LINE
  8
CSLAYER1
  6
CONTINUOUS
 62
     3
 10
968.551260
 20
884.011589
 11
966.994008
 21
884.590898
  0
LINE
  8
CSLAYER1
  6
CONTINUOUS
 62
     3
 10
966.994008
 20
884.590898
 11
965.338538
 21
885.102203
  0
LINE
  8
CSLAYER1
  6
CONTINUOUS
 62
     3
 10
965.338538
 20
885.102203
 11
963.597449
 21
885.541612
  0
LINE
  8
CSLAYER1
  6
CONTINUOUS
 62
     3
 10
963.597449
 20
885.541612
 11
961.783992
 21
885.905781
  0
LINE
  8
CSLAYER1
  6
CONTINUOUS
 62
     3
 10
961.783992
 20
885.905781
 11
959.911967
 21
886.191938
  0
LINE
  8
CSLAYER1
  6
CONTINUOUS
 62
     3
 10
959.911967
 20
886.191938
 11
957.995622
 21
886.397906
  0
LINE
  8
CSLAYER1
  6
CONTINUOUS
 62
     3
 10
957.995622
 20
886.397906
 11
956.049543
 21
886.522118
  0
LINE
  8
CSLAYER1
  6
CONTINUOUS
 62
     3
 10
956.049543
 20
886.522118
 11
954.088538
 21
886.563627
  0
LINE
  8
CSLAYER1
  6
CONTINUOUS
 62
     3
 10
954.088538
 20
886.563627
 11
952.127534
 21
886.522118
  0
LINE
  8
CSLAYER1
  6
CONTINUOUS
 62
     3
 10
952.127534
 20
886.522118
 11
950.181454
 21
886.397906
  0
LINE
  8
CSLAYER1
  6
CONTINUOUS
 62
     3
 10
950.181454
 20
886.397906
 11
948.265110
 21
886.191938
  0
LINE
  8
CSLAYER1
  6
CONTINUOUS
 62
     3
 10
948.265110
 20
886.191938
 11
946.393085
 21
885.905781
  0
LINE
  8
CSLAYER1
  6
CONTINUOUS
 62
     3
 10
946.393085
 20
885.905781
 11
944.579628
 21
885.541612
  0
LINE
  8
CSLAYER1
  6
CONTINUOUS
 62
     3
 10
944.579628
 20
885.541612
 11
942.838538
 21
885.102203
  0
LINE
  8
CSLAYER1
  6
CONTINUOUS
 62
     3
 10
942.838538
 20
885.102203
 11
941.183069
 21
884.590898
  0
LINE
  8
CSLAYER1
  6
CONTINUOUS
 62
     3
 10
941.183069
 20
884.590898
 11
939.625817
 21
884.011589
  0
LINE
  8
CSLAYER1
  6
CONTINUOUS
 62
     3
 10
939.625817
 20
884.011589
 11
938.178636
 21
883.368684
  0
LINE
  8
CSLAYER1
  6
CONTINUOUS
 62
     3
 10
938.178636
 20
883.368684
 11
936.852538
 21
882.667077
  0
LINE
  8
CSLAYER1
  6
CONTINUOUS
 62
     3
 10
936.852538
 20
882.667077
 11
935.657617
 21
881.912106
  0
LINE
  8
CSLAYER1
  6
CONTINUOUS
 62
     3
 10
935.657617
 20
881.912106
 11
934.602967
 21
881.109518
  0
LINE
  8
CSLAYER1
  6
CONTINUOUS
 62
     3
 10
934.602967
 20
881.109518
 11
933.696613
 21
880.265422
  0
LINE
  8
CSLAYER1
  6
CONTINUOUS
 62
     3
 10
933.696613
 20
880.265422
 11
932.945454
 21
879.386240
  0
LINE
  8
CSLAYER1
  6
CONTINUOUS
 62
     3
 10
932.945454
 20
879.386240
 11
932.355207
 21
878.478664
  0
LINE
  8
CSLAYER1
  6
CONTINUOUS
 62
     3
 10
932.355207
 20
878.478664
 11
931.930364
 21
877.549602
  0
LINE
  8
CSLAYER1
  6
CONTINUOUS
 62
     3
 10
931.930364
 20
877.549602
 11
931.674158
 21
876.606124
  0
LINE
  8
CSLAYER1
  6
CONTINUOUS
 62
     3
 10
931.674158
 20
876.606124
 11
931.588538
 21
875.655410
  0
LINE
  8
CSLAYER1
  6
CONTINUOUS
 62
     3
 10
931.588538
 20
875.655410
 11
931.674158
 21
874.704696
  0
LINE
  8
CSLAYER1
  6
CONTINUOUS
 62
     3
 10
931.674158
 20
874.704696
 11
931.930364
 21
873.761218
  0
LINE
  8
CSLAYER1
  6
CONTINUOUS
 62
     3
 10
931.930364
 20
873.761218
 11
932.355207
 21
872.832156
  0
LINE
  8
CSLAYER1
  6
CONTINUOUS
 62
     3
 10
932.355207
 20
872.832156
 11
932.945454
 21
871.924580
  0
LINE
  8
CSLAYER1
  6
CONTINUOUS
 62
     3
 10
932.945454
 20
871.924580
 11
933.696613
 21
871.045399
  0
LINE
  8
CSLAYER1
  6
CONTINUOUS
 62
     3
 10
933.696613
 20
871.045399
 11
934.585032
 21
870.218004
  0
LINE
  8
CSLAYER1
  6
CONTINUOUS
 62
     3
 10
973.592044
 20
870.218004
 11
974.480464
 21
871.045399
  0
LINE
  8
CSLAYER1
  6
CONTINUOUS
 62
     3
 10
974.480464
 20
871.045399
 11
975.231622
 21
871.924580
  0
LINE
  8
CSLAYER1
  6
CONTINUOUS
 62
     3
 10
975.231622
 20
871.924580
 11
975.821869
 21
872.832156
  0
LINE
  8
CSLAYER1
  6
CONTINUOUS
 62
     3
 10
975.821869
 20
872.832156
 11
976.246713
 21
873.761218
  0
LINE
  8
CSLAYER1
  6
CONTINUOUS
 62
     3
 10
976.246713
 20
873.761218
 11
976.502919
 21
874.704696
  0
LINE
  8
CSLAYER1
  6
CONTINUOUS
 62
     3
 10
976.502919
 20
874.704696
 11
976.588538
 21
875.655410
  0
LINE
  8
CSLAYER1
  6
CENTER
 62
     5
 10
914.088538
 20
836.683447
 11
914.088538
 21
978.775435
  0
LINE
  8
CSLAYER1
  6
CONTINUOUS
 62
     3
 10
921.088538
 20
973.075435
 11
907.088538
 21
973.075435
  0
LINE
  8
CSLAYER1
  6
CONTINUOUS
 62
     3
 10
921.088538
 20
965.275435
 11
907.088538
 21
965.275435
  0
LINE
  8
CSLAYER1
  6
CONTINUOUS
 62
     3
 10
920.520470
 20
960.075435
 11
907.656607
 21
960.075435
  0
LINE
  8
CSLAYER1
  6
CONTINUOUS
 62
     3
 10
920.088538
 20
958.075435
 11
908.088538
 21
958.075435
  0
LINE
  8
CSLAYER1
  6
CONTINUOUS
 62
     3
 10
920.088538
 20
951.075435
 11
908.088538
 21
951.075435
  0
LINE
  8
CSLAYER1
  6
CONTINUOUS
 62
     3
 10
918.971565
 20
926.075435
 11
909.205512
 21
926.075435
  0
LINE
  8
CSLAYER1
  6
CONTINUOUS
 62
     3
 10
919.588538
 20
948.075435
 11
919.588538
 21
951.075435
  0
LINE
  8
CSLAYER1
  6
CONTINUOUS
 62
     3
 10
922.171442
 20
965.900650
 11
922.171442
 21
972.450221
  0
LINE
  8
CSLAYER1
  6
CONTINUOUS
 62
     3
 10
918.129990
 20
965.900650
 11
918.129990
 21
972.450221
  0
ARC
  8
CSLAYER1
  6
CONTINUOUS
 62
     3
 10
891.400768
 20
965.317657
 40
29.587800
 50
345.831727
 51
359.918240
  0
ARC
  8
CSLAYER1
  6
CONTINUOUS
 62
     3
 10
936.776309
 20
965.317657
 40
29.587800
 50
180.081760
 51
194.168273
  0
LINE
  8
CSLAYER1
  6
CONTINUOUS
 62
     3
 10
918.435852
 20
958.075435
 11
918.435852
 21
960.075435
  0
LINE
  8
CSLAYER1
  6
CONTINUOUS
 62
     3
 10
916.454087
 20
958.075435
 11
916.454087
 21
960.075435
  0
LINE
  8
CSLAYER1
  6
CONTINUOUS
 62
     3
 10
909.741224
 20
958.075435
 11
909.741224
 21
960.075435
  0
LINE
  8
CSLAYER1
  6
CONTINUOUS
 62
     3
 10
911.722990
 20
958.075435
 11
911.722990
 21
960.075435
  0
LINE
  8
CSLAYER1
  6
CONTINUOUS
 62
     3
 10
921.088538
 20
973.075435
 11
922.171442
 21
972.450221
  0
ARC
  8
CSLAYER1
  6
CONTINUOUS
 62
     3
 10
920.150716
 20
969.523807
 40
3.556295
 50
64.625569
 51
124.625569
  0
ARC
  8
CSLAYER1
  6
CONTINUOUS
 62
     3
 10
914.088538
 20
959.700650
 40
13.374785
 50
72.412046
 51
107.587954
  0
LINE
  8
CSLAYER1
  6
CONTINUOUS
 62
     3
 10
921.088538
 20
965.275435
 11
922.171442
 21
965.900650
  0
ARC
  8
CSLAYER1
  6
CONTINUOUS
 62
     3
 10
920.150716
 20
968.827064
 40
3.556295
 50
235.374431
 51
295.374431
  0
ARC
  8
CSLAYER1
  6
CONTINUOUS
 62
     3
 10
914.088538
 20
978.650221
 40
13.374785
 50
252.412046
 51
287.587954
  0
LINE
  8
CSLAYER1
  6
CONTINUOUS
 62
     3
 10
906.005635
 20
965.900650
 11
906.005635
 21
972.450221
  0
LINE
  8
CSLAYER1
  6
CONTINUOUS
 62
     3
 10
910.047087
 20
965.900650
 11
910.047087
 21
972.450221
  0
LINE
  8
CSLAYER1
  6
CONTINUOUS
 62
     3
 10
907.088538
 20
973.075435
 11
906.005635
 21
972.450221
  0
ARC
  8
CSLAYER1
  6
CONTINUOUS
 62
     3
 10
908.026361
 20
969.523807
 40
3.556295
 50
55.374431
 51
115.374431
  0
LINE
  8
CSLAYER1
  6
CONTINUOUS
 62
     3
 10
907.088538
 20
965.275435
 11
906.005635
 21
965.900650
  0
ARC
  8
CSLAYER1
  6
CONTINUOUS
 62
     3
 10
908.026361
 20
968.827064
 40
3.556295
 50
244.625569
 51
304.625569
  0
LINE
  8
CSLAYER1
  6
CONTINUOUS
 62
     3
 10
921.016742
 20
951.611334
 11
921.016742
 21
957.339537
  0
LINE
  8
CSLAYER1
  6
CONTINUOUS
 62
     3
 10
917.552640
 20
951.611334
 11
917.552640
 21
957.339537
  0
LINE
  8
CSLAYER1
  6
CONTINUOUS
 62
     3
 10
920.088538
 20
951.075435
 11
921.016742
 21
951.611334
  0
ARC
  8
CSLAYER1
  6
CONTINUOUS
 62
     3
 10
914.088538
 20
962.539537
 40
11.464102
 50
252.178595
 51
287.821405
  0
ARC
  8
CSLAYER1
  6
CONTINUOUS
 62
     3
 10
919.284691
 20
954.141364
 40
3.066114
 50
236.143645
 51
295.804157
  0
LINE
  8
CSLAYER1
  6
CONTINUOUS
 62
     3
 10
920.088538
 20
957.875435
 11
921.016742
 21
957.339537
  0
ARC
  8
CSLAYER1
  6
CONTINUOUS
 62
     3
 10
914.088538
 20
946.411334
 40
11.464102
 50
72.178595
 51
107.821405
  0
ARC
  8
CSLAYER1
  6
CONTINUOUS
 62
     3
 10
919.284691
 20
954.809507
 40
3.066114
 50
64.195843
 51
123.856355
  0
LINE
  8
CSLAYER1
  6
CONTINUOUS
 62
     3
 10
920.088538
 20
957.875435
 11
908.088538
 21
957.875435
  0
LINE
  8
CSLAYER1
  6
CONTINUOUS
 62
     3
 10
917.552640
 20
957.875435
 11
917.552640
 21
958.075435
  0
LINE
  8
CSLAYER1
  6
CONTINUOUS
 62
     3
 10
908.588538
 20
948.075435
 11
908.588538
 21
951.075435
  0
LINE
  8
CSLAYER1
  6
CONTINUOUS
 62
     3
 10
907.160335
 20
951.611334
 11
907.160335
 21
957.339537
  0
LINE
  8
CSLAYER1
  6
CONTINUOUS
 62
     3
 10
910.624437
 20
951.611334
 11
910.624437
 21
957.339537
  0
LINE
  8
CSLAYER1
  6
CONTINUOUS
 62
     3
 10
908.088538
 20
951.075435
 11
907.160335
 21
951.611334
  0
ARC
  8
CSLAYER1
  6
CONTINUOUS
 62
     3
 10
908.892386
 20
954.141364
 40
3.066114
 50
244.195843
 51
303.856355
  0
LINE
  8
CSLAYER1
  6
CONTINUOUS
 62
     3
 10
908.088538
 20
957.875435
 11
907.160335
 21
957.339537
  0
ARC
  8
CSLAYER1
  6
CONTINUOUS
 62
     3
 10
908.892386
 20
954.809507
 40
3.066114
 50
56.143645
 51
115.804157
  0
LINE
  8
CSLAYER1
  6
CONTINUOUS
 62
     3
 10
910.624437
 20
957.875435
 11
910.624437
 21
958.075435
  0
LINE
  8
CSLAYER1
  6
CONTINUOUS
 62
     3
 10
921.016742
 20
939.075435
 11
921.016742
 21
947.539537
  0
LINE
  8
CSLAYER1
  6
CONTINUOUS
 62
     3
 10
917.552640
 20
939.075435
 11
917.552640
 21
947.539537
  0
LINE
  8
CSLAYER1
  6
CONTINUOUS
 62
     3
 10
920.088538
 20
948.075435
 11
921.016742
 21
947.539537
  0
ARC
  8
CSLAYER1
  6
CONTINUOUS
 62
     3
 10
914.088538
 20
936.611334
 40
11.464102
 50
72.178595
 51
107.821405
  0
ARC
  8
CSLAYER1
  6
CONTINUOUS
 62
     3
 10
919.284691
 20
945.009507
 40
3.066114
 50
64.195843
 51
123.856355
  0
LINE
  8
CSLAYER1
  6
CONTINUOUS
 62
     3
 10
920.088538
 20
948.075435
 11
908.088538
 21
948.075435
  0
LINE
  8
CSLAYER1
  6
CONTINUOUS
 62
     3
 10
907.160335
 20
939.075435
 11
907.160335
 21
947.539537
  0
LINE
  8
CSLAYER1
  6
CONTINUOUS
 62
     3
 10
910.624437
 20
939.075435
 11
910.624437
 21
947.539537
  0
LINE
  8
CSLAYER1
  6
CONTINUOUS
 62
     3
 10
908.088538
 20
948.075435
 11
907.160335
 21
947.539537
  0
ARC
  8
CSLAYER1
  6
CONTINUOUS
 62
     3
 10
908.892386
 20
945.009507
 40
3.066114
 50
56.143645
 51
115.804157
  0
LINE
  8
CSLAYER1
  6
CONTINUOUS
 62
     3
 10
919.967820
 20
926.988976
 11
921.016742
 21
939.075435
  0
ARC
  8
CSLAYER1
  6
CONTINUOUS
 62
     3
 10
898.911050
 20
939.075435
 40
18.641590
 50
330.443788
 51
360.000000
  0
ARC
  8
CSLAYER1
  6
CONTINUOUS
 62
     3
 10
914.088538
 20
930.515289
 40
1.217263
 50
210.578468
 51
329.421532
  0
ARC
  8
CSLAYER1
  6
CONTINUOUS
 62
     3
 10
936.194230
 20
939.075435
 40
18.641590
 50
180.000000
 51
209.556212
  0
ARC
  8
CSLAYER1
  6
CONTINUOUS
 62
     3
 10
921.016742
 20
930.515289
 40
1.217263
 50
210.578468
 51
227.594217
  0
ARC
  8
CSLAYER1
  6
CONTINUOUS
 62
     3
 10
918.971565
 20
927.075435
 40
1.000000
 50
270.000000
 51
355.040021
  0
LINE
  8
CSLAYER1
  6
CONTINUOUS
 62
     3
 10
908.209257
 20
926.988976
 11
907.160335
 21
939.075435
  0
ARC
  8
CSLAYER1
  6
CONTINUOUS
 62
     3
 10
929.266027
 20
939.075435
 40
18.641590
 50
180.000000
 51
209.556212
  0
ARC
  8
CSLAYER1
  6
CONTINUOUS
 62
     3
 10
891.982847
 20
939.075435
 40
18.641590
 50
330.443788
 51
360.000000
  0
ARC
  8
CSLAYER1
  6
CONTINUOUS
 62
     3
 10
907.160335
 20
930.515289
 40
1.217263
 50
312.405783
 51
329.421532
  0
ARC
  8
CSLAYER1
  6
CONTINUOUS
 62
     3
 10
909.205512
 20
927.075435
 40
1.000000
 50
184.959979
 51
270.000000
  0
LINE
  8
CSLAYER1
  6
CONTINUOUS
 62
     3
 10
921.088538
 20
992.775435
 11
908.588538
 21
992.775435
  0
LINE
  8
CSLAYER1
  6
CENTER
 62
     5
 10
926.588538
 20
985.775435
 11
921.088538
 21
985.775435
  0
LINE
  8
CSLAYER1
  6
CONTINUOUS
 62
     3
 10
907.088538
 20
978.775435
 11
907.088538
 21
991.275435
  0
LINE
  8
CSLAYER1
  6
CONTINUOUS
 62
     3
 10
921.088538
 20
978.775435
 11
907.088538
 21
978.775435
  0
LINE
  8
CSLAYER1
  6
CONTINUOUS
 62
     3
 10
921.088538
 20
978.775435
 11
921.088538
 21
992.772991
  0
LINE
  8
CSLAYER1
  6
CONTINUOUS
 62
     3
 10
918.688538
 20
973.075435
 11
918.688538
 21
978.775435
  0
LINE
  8
CSLAYER1
  6
CONTINUOUS
 62
     5
 10
918.088538
 20
973.075435
 11
918.088538
 21
977.736205
  0
LINE
  8
CSLAYER1
  6
CONTINUOUS
 62
     5
 10
918.688538
 20
978.775435
 11
918.088538
 21
977.736205
  0
LINE
  8
CSLAYER1
  6
CONTINUOUS
 62
     3
 10
909.488538
 20
973.075435
 11
909.488538
 21
978.775435
  0
LINE
  8
CSLAYER1
  6
CONTINUOUS
 62
     5
 10
909.488538
 20
978.775435
 11
910.088538
 21
977.736205
  0
LINE
  8
CSLAYER1
  6
CONTINUOUS
 62
     5
 10
918.688538
 20
977.736205
 11
909.488538
 21
977.736205
  0
LINE
  8
CSLAYER1
  6
CONTINUOUS
 62
     3
 10
926.588538
 20
980.923650
 11
921.088538
 21
980.825435
  0
LINE
  8
CSLAYER1
  6
CONTINUOUS
 62
     5
 10
926.588538
 20
981.623761
 11
921.076040
 21
981.525324
  0
LINE
  8
CSLAYER1
  6
CONTINUOUS
 62
     3
 10
926.588538
 20
990.627221
 11
921.088538
 21
990.725435
  0
LINE
  8
CSLAYER1
  6
CONTINUOUS
 62
     5
 10
926.588538
 20
989.927110
 11
921.076040
 21
990.025547
  0
ARC
  8
CSLAYER1
  6
CONTINUOUS
 62
     3
 10
908.588538
 20
991.275435
 40
1.500000
 50
90.000000
 51
180.000000
  0
LINE
  8
CSLAYER1
  6
CONTINUOUS
 62
     3
 10
932.588538
 20
1115.593659
 11
936.088538
 21
1115.593659
  0
LINE
  8
CSLAYER1
  6
CONTINUOUS
 62
     3
 10
931.588538
 20
1116.593659
 11
932.588538
 21
1115.593659
  0
LINE
  8
CSLAYER1
  6
CONTINUOUS
 62
     3
 10
975.588538
 20
1115.593659
 11
976.588538
 21
1116.593659
  0
LINE
  8
CSLAYER1
  6
CONTINUOUS
 62
     3
 10
977.588538
 20
1121.193659
 11
976.588538
 21
1121.193659
  0
LINE
  8
CSLAYER1
  6
CONTINUOUS
 62
     3
 10
931.588538
 20
1121.193659
 11
930.588538
 21
1121.193659
  0
LINE
  8
CSLAYER1
  6
CONTINUOUS
 62
     3
 10
918.588538
 20
1146.193659
 11
930.588538
 21
1146.193659
  0
LINE
  8
CSLAYER1
  6
CONTINUOUS
 62
     3
 10
918.588538
 20
1074.437497
 11
930.588538
 21
1074.437497
  0
LINE
  8
CSLAYER1
  6
CONTINUOUS
 62
     3
 10
977.588538
 20
1074.437497
 11
977.588538
 21
1146.193659
  0
LINE
  8
CSLAYER1
  6
CONTINUOUS
 62
     3
 10
930.588538
 20
1074.437497
 11
930.588538
 21
1146.193659
  0
LINE
  8
CSLAYER1
  6
CONTINUOUS
 62
     3
 10
918.588538
 20
1074.437497
 11
918.588538
 21
1146.193659
  0
LINE
  8
CSLAYER1
  6
CONTINUOUS
 62
     3
 10
977.588538
 20
1074.437497
 11
989.588538
 21
1074.437497
  0
LINE
  8
CSLAYER1
  6
CONTINUOUS
 62
     3
 10
972.088538
 20
1053.546972
 11
989.588538
 21
1053.546972
  0
LINE
  8
CSLAYER1
  6
CONTINUOUS
 62
     3
 10
930.588538
 20
1102.146972
 11
936.088538
 21
1102.146972
  0
LINE
  8
CSLAYER1
  6
CONTINUOUS
 62
     3
 10
972.088538
 20
1102.146972
 11
977.588538
 21
1102.146972
  0
LINE
  8
CSLAYER1
  6
CONTINUOUS
 62
     3
 10
977.588538
 20
1146.193659
 11
989.588538
 21
1146.193659
  0
LINE
  8
CSLAYER1
  6
CONTINUOUS
 62
     3
 10
897.588538
 20
1137.193659
 11
918.588538
 21
1137.193659
  0
LINE
  8
CSLAYER1
  6
CONTINUOUS
 62
     3
 10
897.588538
 20
1121.193659
 11
918.588538
 21
1121.193659
  0
LINE
  8
CSLAYER1
  6
CONTINUOUS
 62
     3
 10
989.588538
 20
1290.256876
 11
897.588538
 21
1290.256876
  0
LINE
  8
CSLAYER1
  6
CONTINUOUS
 62
     3
 10
865.088538
 20
1072.460683
 11
865.588538
 21
1072.460683
  0
LINE
  8
CSLAYER1
  6
CONTINUOUS
 62
     3
 10
876.088538
 20
1087.960683
 11
876.088538
 21
1066.960683
  0
LINE
  8
CSLAYER1
  6
CONTINUOUS
 62
     3
 10
864.088538
 20
1073.460683
 11
864.088538
 21
1081.460683
  0
LINE
  8
CSLAYER1
  6
CONTINUOUS
 62
     3
 10
885.588538
 20
1091.460683
 11
888.588538
 21
1091.460683
  0
LINE
  8
CSLAYER1
  6
CONTINUOUS
 62
     3
 10
885.588538
 20
836.683447
 11
885.588538
 21
1346.361558
  0
LINE
  8
CSLAYER1
  6
CONTINUOUS
 62
     3
 10
888.588538
 20
836.683447
 11
888.588538
 21
1358.661558
  0
LINE
  8
CSLAYER1
  6
CONTINUOUS
 62
     3
 10
885.588538
 20
1063.460683
 11
888.588538
 21
1063.460683
  0
LINE
  8
CSLAYER1
  6
CONTINUOUS
 62
     3
 10
874.088538
 20
1087.960683
 11
874.088538
 21
1066.960683
  0
LINE
  8
CSLAYER1
  6
CONTINUOUS
 62
     3
 10
871.588538
 20
1086.660683
 11
871.588538
 21
1068.260683
  0
LINE
  8
CSLAYER1
  6
CONTINUOUS
 62
     3
 10
871.588538
 20
1068.260683
 11
874.088538
 21
1068.260683
  0
LINE
  8
CSLAYER1
  6
CONTINUOUS
 62
     3
 10
874.088538
 20
1066.960683
 11
876.088538
 21
1066.960683
  0
LINE
  8
CSLAYER1
  6
CONTINUOUS
 62
     3
 10
871.588538
 20
1086.660683
 11
874.088538
 21
1086.660683
  0
LINE
  8
CSLAYER1
  6
CONTINUOUS
 62
     3
 10
874.088538
 20
1087.960683
 11
876.088538
 21
1087.960683
  0
LINE
  8
CSLAYER1
  6
CONTINUOUS
 62
     3
 10
865.588538
 20
1085.960683
 11
865.588538
 21
1068.960683
  0
LINE
  8
CSLAYER1
  6
CONTINUOUS
 62
     3
 10
865.088538
 20
1072.460683
 11
864.088538
 21
1073.460683
  0
LINE
  8
CSLAYER1
  6
CONTINUOUS
 62
     3
 10
864.388538
 20
1073.160683
 11
865.588538
 21
1073.160683
  0
LINE
  8
CSLAYER1
  6
CONTINUOUS
 62
     3
 10
865.088538
 20
1072.460683
 11
865.088538
 21
1082.460683
  0
LINE
  8
CSLAYER1
  6
CONTINUOUS
 62
     3
 10
866.347728
 20
1067.645729
 11
870.829349
 21
1067.645729
  0
LINE
  8
CSLAYER1
  6
CONTINUOUS
 62
     3
 10
866.347728
 20
1072.553206
 11
870.829349
 21
1072.553206
  0
LINE
  8
CSLAYER1
  6
CONTINUOUS
 62
     3
 10
865.588538
 20
1068.960683
 11
866.347728
 21
1067.645729
  0
ARC
  8
CSLAYER1
  6
CONTINUOUS
 62
     3
 10
881.829349
 20
1077.460683
 40
16.240811
 50
162.412046
 51
197.587954
  0
ARC
  8
CSLAYER1
  6
CONTINUOUS
 62
     3
 10
869.929463
 20
1070.099468
 40
4.341619
 50
145.586132
 51
207.480777
  0
LINE
  8
CSLAYER1
  6
CONTINUOUS
 62
     3
 10
865.588538
 20
1085.960683
 11
866.347728
 21
1087.275638
  0
ARC
  8
CSLAYER1
  6
CONTINUOUS
 62
     3
 10
869.929463
 20
1084.821899
 40
4.341619
 50
152.519223
 51
214.413868
  0
LINE
  8
CSLAYER1
  6
CONTINUOUS
 62
     3
 10
871.588538
 20
1068.960683
 11
870.829349
 21
1067.645729
  0
ARC
  8
CSLAYER1
  6
CONTINUOUS
 62
     3
 10
855.347728
 20
1077.460683
 40
16.240811
 50
-17.587954
 51
17.587954
  0
ARC
  8
CSLAYER1
  6
CONTINUOUS
 62
     3
 10
867.247614
 20
1070.099468
 40
4.341619
 50
-27.480777
 51
34.413868
  0
LINE
  8
CSLAYER1
  6
CONTINUOUS
 62
     3
 10
871.588538
 20
1085.960683
 11
870.829349
 21
1087.275638
  0
ARC
  8
CSLAYER1
  6
CONTINUOUS
 62
     3
 10
867.247614
 20
1084.821899
 40
4.341619
 50
-34.413868
 51
27.480777
  0
LINE
  8
CSLAYER1
  6
CONTINUOUS
 62
     3
 10
866.347728
 20
1087.275638
 11
870.829349
 21
1087.275638
  0
LINE
  8
CSLAYER1
  6
CONTINUOUS
 62
     3
 10
866.347728
 20
1082.368161
 11
870.829349
 21
1082.368161
  0
LINE
  8
CSLAYER1
  6
CONTINUOUS
 62
     3
 10
865.088538
 20
1082.460683
 11
865.588538
 21
1082.460683
  0
LINE
  8
CSLAYER1
  6
CONTINUOUS
 62
     3
 10
865.088538
 20
1082.460683
 11
864.088538
 21
1081.460683
  0
LINE
  8
CSLAYER1
  6
CONTINUOUS
 62
     3
 10
864.388538
 20
1081.760683
 11
865.588538
 21
1081.760683
  0
LINE
  8
CSLAYER1
  6
CONTINUOUS
 62
     3
 10
874.088538
 20
1079.362131
 11
871.588538
 21
1075.992566
  0
LINE
  8
CSLAYER1
  6
CONTINUOUS
 62
     3
 10
876.588538
 20
1069.960683
 11
876.088538
 21
1069.960683
  0
LINE
  8
CSLAYER1
  6
CONTINUOUS
 62
     3
 10
876.588538
 20
1084.960683
 11
876.088538
 21
1084.960683
  0
LINE
  8
CSLAYER1
  6
CONTINUOUS
 62
     3
 10
887.588538
 20
1348.211558
 11
888.588538
 21
1348.211558
  0
LINE
  8
CSLAYER1
  6
CONTINUOUS
 62
     3
 10
886.588538
 20
1358.661558
 11
886.588538
 21
1349.211558
  0
LINE
  8
CSLAYER1
  6
CONTINUOUS
 62
     3
 10
886.588538
 20
1349.211558
 11
887.588538
 21
1348.211558
  0
LINE
  8
CSLAYER1
  6
CONTINUOUS
 62
     3
 10
887.588538
 20
1358.661558
 11
887.588538
 21
1348.211558
  0
LINE
  8
CSLAYER1
  6
CONTINUOUS
 62
     3
 10
886.088538
 20
1346.361558
 11
880.088538
 21
1346.361558
  0
LINE
  8
CSLAYER1
  6
CONTINUOUS
 62
     3
 10
880.088538
 20
1358.661558
 11
880.088538
 21
1346.361558
  0
LINE
  8
CSLAYER1
  6
CONTINUOUS
 62
     3
 10
886.088538
 20
1358.661558
 11
886.088538
 21
1346.361558
  0
LINE
  8
CSLAYER1
  6
CONTINUOUS
 62
     3
 10
877.088538
 20
1345.891902
 11
877.088538
 21
1358.661558
  0
LINE
  8
CSLAYER1
  6
CONTINUOUS
 62
     3
 10
880.088538
 20
1346.111558
 11
877.088538
 21
1346.111558
  0
LINE
  8
CSLAYER1
  6
CONTINUOUS
 62
     3
 10
880.088538
 20
1355.349361
 11
877.249513
 21
1358.661558
  0
LINE
  8
CSLAYER1
  6
CONTINUOUS
 62
     3
 10
869.088538
 20
1358.661558
 11
869.088538
 21
1347.861558
  0
ARC
  8
CSLAYER1
  6
CONTINUOUS
 62
     3
 10
882.884283
 20
1356.861558
 40
13.795744
 50
172.502957
 51
203.426598
  0
LINE
  8
CSLAYER1
  6
CONTINUOUS
 62
     3
 10
877.088538
 20
1351.376730
 11
870.225719
 21
1351.376730
  0
LINE
  8
CSLAYER1
  6
CONTINUOUS
 62
     3
 10
877.088538
 20
1345.891902
 11
870.225719
 21
1345.891902
  0
LINE
  8
CSLAYER1
  6
CONTINUOUS
 62
     3
 10
869.088538
 20
1347.861558
 11
870.225719
 21
1345.891902
  0
ARC
  8
CSLAYER1
  6
CONTINUOUS
 62
     3
 10
872.868583
 20
1348.634316
 40
3.808617
 50
133.940972
 51
174.338367
  0
LINE
  8
CSLAYER1
  6
CONTINUOUS
 62
     3
 10
897.588538
 20
836.683447
 11
897.588538
 21
1358.661558
  0
LINE
  8
CSLAYER1
  6
CONTINUOUS
 62
     3
 10
876.588538
 20
836.683447
 11
876.588538
 21
1345.891902
  0
LINE
  8
CSLAYER1
  6
CONTINUOUS
 62
     3
 10
897.588538
 20
870.218004
 11
909.938538
 21
870.218004
  0
LINE
  8
CSLAYER1
  6
CONTINUOUS
 62
     3
 10
858.588538
 20
1344.361558
 11
858.588538
 21
1358.661558
  0
LINE
  8
CSLAYER1
  6
CONTINUOUS
 62
     3
 10
863.088538
 20
1344.361558
 11
863.088538
 21
1358.661558
  0
LINE
  8
CSLAYER1
  6
CONTINUOUS
 62
     3
 10
858.588538
 20
1344.361558
 11
863.088538
 21
1344.361558
  0
LINE
  8
CSLAYER1
  6
CONTINUOUS
 62
     3
 10
1028.588538
 20
1344.361558
 11
1028.588538
 21
1358.661558
  0
LINE
  8
CSLAYER1
  6
CONTINUOUS
 62
     3
 10
1024.088538
 20
1344.361558
 11
1024.088538
 21
1358.661558
  0
LINE
  8
CSLAYER1
  6
CONTINUOUS
 62
     3
 10
1028.588538
 20
1344.361558
 11
1024.088538
 21
1344.361558
  0
LINE
  8
CSLAYER1
  6
CONTINUOUS
 62
     3
 10
897.588538
 20
1045.281101
 11
936.088538
 21
1045.281101
  0
LINE
  8
CSLAYER1
  6
CONTINUOUS
 62
     3
 10
897.588538
 20
1047.157306
 11
936.088538
 21
1047.157306
  0
LINE
  8
CSLAYER1
  6
CONTINUOUS
 62
     3
 10
972.088538
 20
1047.157306
 11
989.588538
 21
1047.157306
  0
LINE
  8
CSLAYER1
  6
CONTINUOUS
 62
     3
 10
972.088538
 20
1045.281101
 11
989.588538
 21
1045.281101
  0
LINE
  8
CSLAYER1
  6
CONTINUOUS
 62
     3
 10
972.088538
 20
1115.593659
 11
975.588538
 21
1115.593659
  0
LINE
  8
CSLAYER1
  6
CONTINUOUS
 62
     3
 10
909.938538
 20
836.683447
 11
909.938538
 21
926.075435
  0
LINE
  8
CSLAYER1
  6
CONTINUOUS
 62
     3
 10
918.238538
 20
836.683447
 11
918.238538
 21
926.075435
  0
LINE
  8
CSLAYER1
  6
CONTINUOUS
 62
     3
 10
918.238538
 20
870.218004
 11
925.088538
 21
870.218004
  0
CIRCLE
  8
CSLAYER1
  6
CONTINUOUS
 62
     3
 10
913.588538
 20
808.333447
 40
4.150000
  0
LINE
  8
CSLAYER1
  6
CENTER
 62
     5
 10
1329.120690
 20
1856.132918
 11
1556.516849
 21
1856.132918
  0
LINE
  8
CSLAYER1
  6
CONTINUOUS
 62
     3
 10
1553.816849
 20
1751.632918
 11
1556.516849
 21
1751.632918
  0
LINE
  8
CSLAYER1
  6
CONTINUOUS
 62
     3
 10
1553.816849
 20
1900.632918
 11
1556.516849
 21
1900.632918
  0
LINE
  8
CSLAYER1
  6
CONTINUOUS
 62
     5
 10
910.088538
 20
973.075435
 11
910.088538
 21
977.736205
  0
LINE
  8
CSLAYER1
  6
CONTINUOUS
 62
     3
 10
1329.120690
 20
1860.282918
 11
1556.516849
 21
1860.282918
  0
LINE
  8
CSLAYER1
  6
CONTINUOUS
 62
     3
 10
1329.120690
 20
1851.982918
 11
1556.516849
 21
1851.982918
  0
LINE
  8
CSLAYER1
  6
CONTINUOUS
 62
     3
 10
1553.816849
 20
1860.282918
 11
1553.816849
 21
1966.132918
  0
DIMENSION
  8
CSLAYER1
 62
     3
  2
*D0000
 10
1468.562788
 20
1951.132918
 11
1460.310669
 21
1800.580322
 13
1567.554047
 23
1701.132918
 14
1567.554047
 24
1951.132918
 50
90.000000
 70
1
  0
DIMENSION
  8
CSLAYER1
 62
     3
  2
*D0001
 10
1578.816849
 20
1612.072853
 11
1512.961304
 21
1595.805420
 13
1553.816849
 23
1545.261285
 14
1578.816849
 24
1689.870116
  0
DIMENSION
  8
CSLAYER1
 62
     3
  2
*D0002
 10
1603.816849
 20
1545.261285
 11
1514.123169
 21
1528.412842
 13
1553.816849
 23
1686.132918
 14
1603.816849
 24
1686.132918
 52
270.000000
 70
1
  0
INSERT
  8
CSLAYER1
  2
EASYDRAWDIM0000
 10
0.0
 20
0.0
 30
0.0
  0
DIMENSION
  8
CSLAYER1
 62
     3
  2
*D0003
 10
2351.419224
 20
861.483447
 11
2341.419434
 21
829.083374
 13
2442.674827
 23
796.683447
 14
2256.516849
 24
861.483447
 50
90.000000
  0
DIMENSION
  8
CSLAYER1
 62
     3
  2
*D0004
 10
2351.419224
 20
1376.661558
 11
2341.419434
 21
1119.072632
 13
2240.163620
 23
861.483447
 14
2240.163620
 24
1376.661558
 50
90.000000
 70
1
  0
DIMENSION
  8
CSLAYER1
 62
     3
  2
*D0005
 10
2442.674827
 20
796.683447
 11
2432.675049
 21
1086.672485
 13
2442.674827
 23
1376.661558
 14
2442.674827
 24
796.683447
 50
90.000000
 70
1
  0
DIMENSION
  8
CSLAYER1
 62
     3
  2
*D0006
 10
2278.794154
 20
1451.903272
 11
1928.794067
 21
1461.903076
 13
1578.794154
 23
1376.661558
 14
2278.794154
 24
1376.661558
 70
1
  0
DIMENSION
  8
CSLAYER1
 62
     3
  2
*D0007
 10
2256.816849
 20
617.661492
 11
1905.316772
 21
627.661621
 13
1553.816849
 23
796.683447
 14
2256.816849
 24
796.683447
 52
270.000000
 70
1
  0
DIMENSION
  8
CSLAYER1
 62
     3
  2
*D0008
 10
1159.975135
 20
802.683447
 11
1149.974976
 21
819.733032
 13
1093.588538
 23
796.683447
 14
1093.588538
 24
802.683447
 50
90.000000
 70
1
  0
LINE
  8
CSLAYER1
  6
CONTINUOUS
 62
     3
 10
1414.022193
 20
820.833447
 11
1553.816849
 21
820.833447
  0
LINE
  8
CSLAYER1
  6
CONTINUOUS
 62
     3
 10
1414.022193
 20
812.533447
 11
1553.816849
 21
812.533447
  0
INSERT
  8
CSLAYER1
  2
EASYDRAWDIM0001
 10
0.0
 20
0.0
 30
0.0
  0
LINE
  8
CSLAYER1
  6
CONTINUOUS
 62
     4
 10
1556.516849
 20
1951.132918
 11
2256.516849
 21
1951.132918
  0
LINE
  8
CSLAYER1
  6
CONTINUOUS
 62
     4
 10
1556.516849
 20
1701.132918
 11
2256.516849
 21
1701.132918
  0
INSERT
  8
CSLAYER1
  2
EASYDRAWDIM0002
 10
0.0
 20
0.0
 30
0.0
  0
DIMENSION
  8
CSLAYER1
 62
     3
  2
*D0009
 10
2344.965108
 20
1951.132918
 11
2334.965332
 21
1826.133057
 13
2256.516849
 23
1701.132918
 14
2256.516849
 24
1951.132918
 50
90.000000
 70
1
  0
LINE
  8
CSLAYER1
  6
CONTINUOUS
 62
     3
 10
818.588538
 20
1376.661558
 11
818.588538
 21
1358.661558
  0
LINE
  8
CSLAYER1
  6
CONTINUOUS
 62
     3
 10
1068.588538
 20
1376.661558
 11
1068.588538
 21
1358.661558
  0
INSERT
  8
CSLAYER1
  2
BLKF0003
 10
0.0
 20
0.0
 30
0.0
  0
INSERT
  8
CSLAYER1
  2
BLKF0004
 10
0.0
 20
0.0
 30
0.0
  0
TEXT
  8
CSLAYER1
 62
     7
 10
1560.637329
 20
2047.332275
 40
40.000000
 41
0.843750
  1
下降時
 50
0.000000
 51
0.000000
  7
EASYDRAW_FONT
 72
     5
 11
1650.637329
 21
2047.332275
  0
LINE
  8
CSLAYER1
  6
CONTINUOUS
 62
     5
 10
1547.030865
 20
2093.762670
 11
1669.988875
 21
2093.762670
  0
LINE
  8
CSLAYER1
  6
CONTINUOUS
 62
     5
 10
1669.988875
 20
2093.762670
 11
1669.988875
 21
2040.902217
  0
LINE
  8
CSLAYER1
  6
CONTINUOUS
 62
     5
 10
1669.988875
 20
2040.902217
 11
1547.030865
 21
2040.902217
  0
LINE
  8
CSLAYER1
  6
CONTINUOUS
 62
     5
 10
1547.030865
 20
2040.902217
 11
1547.030865
 21
2093.762670
  0
LINE
  8
CSLAYER1
  6
CONTINUOUS
 62
     5
 10
3464.504313
 20
2346.817948
 11
2584.504313
 21
2346.817948
  0
LINE
  8
CSLAYER1
  6
CONTINUOUS
 62
     5
 10
3464.504313
 20
2293.484615
 11
2584.504313
 21
2293.484615
  0
LINE
  8
CSLAYER1
  6
CONTINUOUS
 62
     5
 10
3464.504313
 20
2240.151282
 11
2584.504313
 21
2240.151282
  0
LINE
  8
CSLAYER1
  6
CONTINUOUS
 62
     5
 10
3464.504313
 20
2133.484615
 11
2584.504313
 21
2133.484615
  0
LINE
  8
CSLAYER1
  6
CONTINUOUS
 62
     5
 10
3464.504313
 20
2026.817948
 11
2584.504313
 21
2026.817948
  0
LINE
  8
CSLAYER1
  6
CONTINUOUS
 62
     5
 10
3464.504313
 20
1813.484615
 11
2584.504313
 21
1813.484615
  0
LINE
  8
CSLAYER1
  6
CONTINUOUS
 62
     5
 10
3464.504313
 20
1600.151278
 11
2584.504313
 21
1600.151278
  0
LINE
  8
CSLAYER1
  6
CONTINUOUS
 62
     5
 10
3464.504313
 20
1546.817945
 11
2584.504313
 21
1546.817945
  0
TEXT
  8
CSLAYER1
 62
     3
 10
2597.837402
 20
2353.484375
 40
40.000000
 41
0.838235
  1
仕    様
 50
0.000000
 51
0.000000
  7
EASYDRAW_FONT
 72
     5
 11
2787.837402
 21
2353.484375
  0
TEXT
  8
CSLAYER1
 62
     3
 10
2597.837402
 20
2300.151123
 40
40.000000
 41
0.838235
  1
型    式
 50
0.000000
 51
0.000000
  7
EASYDRAW_FONT
 72
     5
 11
2787.837402
 21
2300.151123
  0
TEXT
  8
CSLAYER1
 62
     3
 10
2962.837402
 20
2300.151123
 40
40.000000
 41
0.817105
  1
GLSE-150-2507
 50
0.000000
 51
0.000000
  7
EASYDRAW_FONT
 72
     5
 11
3376.837402
 21
2300.151123
  0
TEXT
  8
CSLAYER1
 62
     3
 10
2597.837402
 20
2246.817871
 40
40.000000
 41
0.859091
  1
均等荷重
 50
0.000000
 51
0.000000
  7
EASYDRAW_FONT
 72
     5
 11
2723.837402
 21
2246.817871
  0
TEXT
  8
CSLAYER1
 62
     3
 10
3389.170654
 20
2246.817871
 40
40.000000
 41
0.930000
  1
ｋｇ
 50
0.000000
 51
0.000000
  7
EASYDRAW_FONT
 72
     5
 11
3451.170654
 21
2246.817871
  0
TEXT
  8
CSLAYER1
 62
     3
 10
2597.837402
 20
2140.151123
 40
40.000000
 41
0.838235
  1
テーブル高サ
 50
0.000000
 51
0.000000
  7
EASYDRAW_FONT
 72
     5
 11
2787.837402
 21
2140.151123
  0
TEXT
  8
CSLAYER1
 62
     3
 10
3389.170654
 20
2140.151123
 40
40.000000
 41
0.930000
  1
ｍｍ
 50
0.000000
 51
0.000000
  7
EASYDRAW_FONT
 72
     5
 11
3451.170654
 21
2140.151123
  0
TEXT
  8
CSLAYER1
 62
     3
 10
2597.837402
 20
2033.484375
 40
40.000000
 41
0.838235
  1
全    長
 50
0.000000
 51
0.000000
  7
EASYDRAW_FONT
 72
     5
 11
2787.837402
 21
2033.484375
  0
TEXT
  8
CSLAYER1
 62
     3
 10
3122.837402
 20
2033.484375
 40
40.000000
 41
0.881250
  1
703
 50
0.000000
 51
0.000000
  7
EASYDRAW_FONT
 72
     5
 11
3216.837402
 21
2033.484375
  0
TEXT
  8
CSLAYER1
 62
     3
 10
3058.837402
 20
1820.151001
 40
40.000000
 41
0.832500
  1
フットスイッチ
 50
0.000000
 51
0.000000
  7
EASYDRAW_FONT
 72
     5
 11
3280.837402
 21
1820.151001
  0
TEXT
  8
CSLAYER1
 62
     3
 10
2597.837402
 20
1820.151001
 40
40.000000
 41
0.859091
  1
操作方式
 50
0.000000
 51
0.000000
  7
EASYDRAW_FONT
 72
     5
 11
2723.837402
 21
1820.151001
  0
TEXT
  8
CSLAYER1
 62
     3
 10
2597.837402
 20
1553.484375
 40
40.000000
 41
0.832500
  1
自     重
 50
0.000000
 51
0.000000
  7
EASYDRAW_FONT
 72
     5
 11
2819.837402
 21
1553.484375
  0
TEXT
  8
CSLAYER1
 62
     3
 10
3113.504150
 20
1553.484375
 40
40.000000
 41
0.859091
  1
約 56
 50
0.000000
 51
0.000000
  7
EASYDRAW_FONT
 72
     5
 11
3239.504150
 21
1553.484375
  0
TEXT
  8
CSLAYER1
 62
     3
 10
2597.837402
 20
1500.151123
 40
40.000000
 41
0.832500
  1
塗  装  色
 50
0.000000
 51
0.000000
  7
EASYDRAW_FONT
 72
     5
 11
2819.837402
 21
1500.151123
  0
TEXT
  8
CSLAYER1
 62
     3
 10
3122.837402
 20
2246.817871
 40
40.000000
 41
0.881250
  1
150
 50
0.000000
 51
0.000000
  7
EASYDRAW_FONT
 72
     5
 11
3216.837402
 21
2246.817871
  0
TEXT
  8
CSLAYER1
 62
     3
 10
3074.837402
 20
2140.151123
 40
40.000000
 41
0.838235
  1
65～570
 50
0.000000
 51
0.000000
  7
EASYDRAW_FONT
 72
     5
 11
3264.837402
 21
2140.151123
  0
TEXT
  8
CSLAYER1
 62
     3
 10
3389.170654
 20
2033.484375
 40
40.000000
 41
0.930000
  1
ｍｍ
 50
0.000000
 51
0.000000
  7
EASYDRAW_FONT
 72
     5
 11
3451.170654
 21
2033.484375
  0
LINE
  8
CSLAYER1
  6
CONTINUOUS
 62
     5
 10
3464.504313
 20
1973.484615
 11
2584.504313
 21
1973.484615
  0
TEXT
  8
CSLAYER1
 62
     3
 10
2597.837402
 20
1980.151001
 40
40.000000
 41
0.838235
  1
全    幅
 50
0.000000
 51
0.000000
  7
EASYDRAW_FONT
 72
     5
 11
2787.837402
 21
1980.151001
  0
TEXT
  8
CSLAYER1
 62
     3
 10
3122.837402
 20
1980.151001
 40
40.000000
 41
0.881250
  1
300
 50
0.000000
 51
0.000000
  7
EASYDRAW_FONT
 72
     5
 11
3216.837402
 21
1980.151001
  0
TEXT
  8
CSLAYER1
 62
     3
 10
3389.170654
 20
1980.151001
 40
40.000000
 41
0.930000
  1
ｍｍ
 50
0.000000
 51
0.000000
  7
EASYDRAW_FONT
 72
     5
 11
3451.170654
 21
1980.151001
  0
LINE
  8
CSLAYER1
  6
CONTINUOUS
 62
     5
 10
3464.504313
 20
1653.484615
 11
2584.504313
 21
1653.484615
  0
TEXT
  8
CSLAYER1
 62
     3
 10
3025.799805
 20
1605.419312
 40
40.000000
 41
0.825000
  1
油圧ユニット別置型
 50
0.000000
 51
0.000000
  7
EASYDRAW_FONT
 72
     5
 11
3311.799805
 21
1605.419312
  0
LINE
  8
CSLAYER1
  6
CONTINUOUS
 62
     5
 10
3464.504313
 20
1600.151282
 11
2584.504313
 21
1600.151282
  0
TEXT
  8
CSLAYER1
 62
     3
 10
3389.170654
 20
1553.484375
 40
40.000000
 41
0.930000
  1
ｋｇ
 50
0.000000
 51
0.000000
  7
EASYDRAW_FONT
 72
     5
 11
3451.170654
 21
1553.484375
  0
LINE
  8
CSLAYER1
  6
CONTINUOUS
 62
     5
 10
3464.504313
 20
2186.817948
 11
2584.504313
 21
2186.817948
  0
TEXT
  8
CSLAYER1
 62
     3
 10
2597.837402
 20
2193.484619
 40
40.000000
 41
0.838235
  1
テーブル寸法
 50
0.000000
 51
0.000000
  7
EASYDRAW_FONT
 72
     5
 11
2787.837402
 21
2193.484619
  0
TEXT
  8
CSLAYER1
 62
     3
 10
3389.170654
 20
2193.484619
 40
40.000000
 41
0.930000
  1
ｍｍ
 50
0.000000
 51
0.000000
  7
EASYDRAW_FONT
 72
     5
 11
3451.170654
 21
2193.484619
  0
TEXT
  8
CSLAYER1
 62
     3
 10
3026.837402
 20
2193.484619
 40
40.000000
 41
0.825000
  1
700L×250W
 50
0.000000
 51
0.000000
  7
EASYDRAW_FONT
 72
     5
 11
3312.837402
 21
2193.484619
  0
LINE
  8
CSLAYER1
  6
CONTINUOUS
 62
     5
 10
3464.504313
 20
2080.151282
 11
2584.504313
 21
2080.151282
  0
TEXT
  8
CSLAYER1
 62
     3
 10
3389.170654
 20
2086.817871
 40
40.000000
 41
0.930000
  1
ｍｍ
 50
0.000000
 51
0.000000
  7
EASYDRAW_FONT
 72
     5
 11
3451.170654
 21
2086.817871
  0
TEXT
  8
CSLAYER1
 62
     3
 10
3122.837402
 20
2086.817871
 40
40.000000
 41
0.881250
  1
505
 50
0.000000
 51
0.000000
  7
EASYDRAW_FONT
 72
     5
 11
3216.837402
 21
2086.817871
  0
TEXT
  8
CSLAYER1
 62
     3
 10
2599.669922
 20
2086.817871
 40
40.000000
 41
0.846429
  1
ストローク
 50
0.000000
 51
0.000000
  7
EASYDRAW_FONT
 72
     5
 11
2757.669922
 21
2086.817871
  0
LINE
  8
CSLAYER1
  6
CONTINUOUS
 62
     5
 10
3464.504313
 20
1920.151282
 11
2584.504313
 21
1920.151282
  0
TEXT
  8
CSLAYER1
 62
     3
 10
2597.837402
 20
1926.817749
 40
40.000000
 41
0.838235
  1
全    高
 50
0.000000
 51
0.000000
  7
EASYDRAW_FONT
 72
     5
 11
2787.837402
 21
1926.817749
  0
TEXT
  8
CSLAYER1
 62
     3
 10
3122.837402
 20
1926.817749
 40
40.000000
 41
0.881250
  1
 65
 50
0.000000
 51
0.000000
  7
EASYDRAW_FONT
 72
     5
 11
3216.837402
 21
1926.817749
  0
TEXT
  8
CSLAYER1
 62
     3
 10
3389.170654
 20
1926.817749
 40
40.000000
 41
0.930000
  1
ｍｍ
 50
0.000000
 51
0.000000
  7
EASYDRAW_FONT
 72
     5
 11
3451.170654
 21
1926.817749
  0
LINE
  8
CSLAYER1
  6
CONTINUOUS
 62
     5
 10
3464.504313
 20
1866.817948
 11
2584.504313
 21
1866.817948
  0
TEXT
  8
CSLAYER1
 62
     3
 10
2597.837402
 20
1873.484375
 40
40.000000
 41
0.846429
  1
リフト方式
 50
0.000000
 51
0.000000
  7
EASYDRAW_FONT
 72
     5
 11
2755.837402
 21
1873.484375
  0
TEXT
  8
CSLAYER1
 62
     3
 10
3090.837402
 20
1873.484375
 40
40.000000
 41
0.846429
  1
電動油圧式
 50
0.000000
 51
0.000000
  7
EASYDRAW_FONT
 72
     5
 11
3248.837402
 21
1873.484375
  0
LINE
  8
CSLAYER1
  6
CONTINUOUS
 62
     5
 10
3464.504313
 20
1706.817948
 11
2584.504313
 21
1706.817948
  0
TEXT
  8
CSLAYER1
 62
     3
 10
3090.837402
 20
1713.484253
 40
40.000000
 41
0.846429
  1
長さ 4m
 50
0.000000
 51
0.000000
  7
EASYDRAW_FONT
 72
     5
 11
3248.837402
 21
1713.484253
  0
TEXT
  8
CSLAYER1
 62
     3
 10
2597.837402
 20
1713.484253
 40
40.000000
 41
0.846429
  1
電源コード
 50
0.000000
 51
0.000000
  7
EASYDRAW_FONT
 72
     5
 11
2755.837402
 21
1713.484253
  0
TEXT
  8
CSLAYER1
 62
     3
 10
2597.837402
 20
1660.151001
 40
40.000000
 41
0.859091
  1
上昇時間
 50
0.000000
 51
0.000000
  7
EASYDRAW_FONT
 72
     5
 11
2723.837402
 21
1660.151001
  0
TEXT
  8
CSLAYER1
 62
     3
 10
2909.837421
 20
1660.151001
 40
40.000000
 41
0.661017
  1
約8sec/50Hz，6sec/60Hz
 50
0.000000
 51
0.000000
  7
EASYDRAW_FONT
 72
     5
 11
3429.837383
 21
1660.151001
  0
LINE
  8
CSLAYER1
  6
CONTINUOUS
 62
     5
 10
3464.504313
 20
1760.151282
 11
2584.504313
 21
1760.151282
  0
TEXT
  8
CSLAYER1
 62
     3
 10
2597.837402
 20
1766.817749
 40
40.000000
 41
0.859091
  1
モーター
 50
0.000000
 51
0.000000
  7
EASYDRAW_FONT
 72
     5
 11
2723.837402
 21
1766.817749
  0
TEXT
  8
CSLAYER1
 62
     3
 10
2930.837402
 20
1766.817749
 40
40.000000
 41
0.814773
  1
AC200V，三相，0.4kw
 50
0.000000
 51
0.000000
  7
EASYDRAW_FONT
 72
     5
 11
3408.837402
 21
1766.817749
  0
LINE
  8
CSLAYER1
  6
CONTINUOUS
 62
     5
 10
2888.504313
 20
1493.484612
 11
2888.504313
 21
1600.151278
  0
LINE
  8
CSLAYER1
  6
CONTINUOUS
 62
     5
 10
2888.504313
 20
1653.484615
 11
2888.504313
 21
2346.817948
  0
INSERT
  8
CSLAYER1
  2
BLKF0005
 10
0.0
 20
0.0
 30
0.0
  0
LINE
  8
CSLAYER1
  6
CONTINUOUS
 62
     3
 10
1093.588538
 20
796.683447
 11
1093.588538
 21
802.683447
  0
LINE
  8
CSLAYER1
  6
CONTINUOUS
 62
     3
 10
1018.088538
 20
803.433447
 11
1021.088538
 21
803.433447
  0
LINE
  8
CSLAYER1
  6
CONTINUOUS
 62
     3
 10
1021.088538
 20
803.213792
 11
1027.951357
 21
803.213792
  0
LINE
  8
CSLAYER1
  6
CONTINUOUS
 62
     3
 10
793.588538
 20
796.683447
 11
793.588538
 21
802.683447
  0
DIMENSION
  8
CSLAYER1
 62
     3
  2
*D0011
 10
1068.588538
 20
712.074562
 11
943.588562
 21
722.074585
 13
818.588538
 23
796.683447
 14
1068.588538
 24
796.683447
 52
270.000000
 70
1
  0
DIMENSION
  8
CSLAYER1
 62
     3
  2
*D0012
 10
1093.588538
 20
647.757330
 11
943.588562
 21
657.757324
 13
793.588538
 23
796.683447
 14
1093.588538
 24
802.683447
 52
270.000000
  0
INSERT
  8
CSLAYER1
  2
EASYDRAWDIM0004
 10
0.0
 20
0.0
 30
0.0
  0
INSERT
  8
CSLAYER1
  2
EASYDRAWDIM0005
 10
0.0
 20
0.0
 30
0.0
  0
INSERT
  8
CSLAYER1
  2
EASYDRAWDIM0006
 10
0.0
 20
0.0
 30
0.0
  0
TEXT
  8
CSLAYER1
 62
     7
 10
894.452332
 20
577.641418
 40
40.000000
 41
0.843750
  1
上昇時
 50
0.000000
 51
0.000000
  7
EASYDRAW_FONT
 72
     5
 11
984.452332
 21
577.641418
  0
LINE
  8
CSLAYER1
  6
CONTINUOUS
 62
     5
 10
880.845573
 20
624.071509
 11
1003.803582
 21
624.071509
  0
LINE
  8
CSLAYER1
  6
CONTINUOUS
 62
     5
 10
1003.803582
 20
624.071509
 11
1003.803582
 21
571.211056
  0
LINE
  8
CSLAYER1
  6
CONTINUOUS
 62
     5
 10
1003.803582
 20
571.211056
 11
880.845573
 21
571.211056
  0
LINE
  8
CSLAYER1
  6
CONTINUOUS
 62
     5
 10
880.845573
 20
571.211056
 11
880.845573
 21
624.071509
  0
LINE
  8
CSLAYER1
  6
CONTINUOUS
 62
     6
 10
1068.588538
 20
790.683447
 11
1164.496185
 21
707.781711
  0
LINE
  8
CSLAYER1
  6
CONTINUOUS
 62
     6
 10
1068.588538
 20
790.683447
 11
1095.589014
 21
777.607732
  0
LINE
  8
CSLAYER1
  6
CONTINUOUS
 62
     6
 10
1068.588538
 20
790.683447
 11
1085.433778
 21
765.859308
  0
DIMENSION
  8
CSLAYER1
 62
     3
  2
*D0013
 10
1578.816849
 20
726.905263
 11
1594.908081
 21
697.630554
 13
1553.816849
 23
796.683447
 14
1578.816849
 24
796.683447
 52
270.000000
 70
1
  0
DIMENSION
  8
CSLAYER1
 62
     3
  2
*D0014
 10
1068.588538
 20
1435.817891
 11
943.588562
 21
1445.817871
 13
818.588538
 23
1376.661558
 14
1068.588538
 24
1376.661558
 70
1
  0
TEXT
  8
CSLAYER1
 62
     5
 10
3035.410368
 20
804.203358
 40
31.844261
 41
0.920655
  1
Ｆ.Ｌ
 50
0.000000
 51
0.000000
  7
EASYDRAW_FONT
 72
     5
 11
3113.590609
 21
804.203358
  0
LINE
  8
CSLAYER1
  6
CONTINUOUS
 62
     3
 10
2646.665001
 20
796.683447
 11
2946.665001
 21
796.683447
  0
LINE
  8
CSLAYER1
  6
CENTER
 62
     5
 10
2921.665001
 20
787.754086
 11
2921.665001
 21
811.964047
  0
LINE
  8
CSLAYER1
  6
CENTER
 62
     5
 10
2671.665001
 20
787.754086
 11
2671.665001
 21
811.964047
  0
LINE
  8
CSLAYER1
  6
CONTINUOUS
 62
     3
 10
2696.665001
 20
836.683447
 11
2896.665001
 21
836.683447
  0
LINE
  8
CSLAYER1
  6
CONTINUOUS
 62
     3
 10
2696.665001
 20
836.683447
 11
2696.665001
 21
802.683447
  0
LINE
  8
CSLAYER1
  6
CONTINUOUS
 62
     3
 10
2896.665001
 20
836.683447
 11
2896.665001
 21
802.683447
  0
LINE
  8
CSLAYER1
  6
CONTINUOUS
 62
     3
 10
2946.665001
 20
796.683447
 11
2946.665001
 21
802.683447
  0
LINE
  8
CSLAYER1
  6
CONTINUOUS
 62
     3
 10
2946.665001
 20
802.683447
 11
2896.665001
 21
802.683447
  0
LINE
  8
CSLAYER1
  6
CONTINUOUS
 62
     3
 10
2646.665001
 20
796.683447
 11
2646.665001
 21
802.683447
  0
LINE
  8
CSLAYER1
  6
CONTINUOUS
 62
     3
 10
2646.665001
 20
802.683447
 11
2696.665001
 21
802.683447
  0
POINT
  8
CSLAYER1
 62
     3
 10
2796.665001
 20
861.483447
  0
POINT
  8
CSLAYER1
 62
     3
 10
2796.665001
 20
836.683447
  0
LINE
  8
CSLAYER1
  6
CENTER
 62
     5
 10
2796.665001
 20
861.483447
 11
2796.665001
 21
796.683447
  0
TEXT
  8
CSLAYER1
 62
     7
 10
2742.318115
 20
909.554077
 40
40.000000
 41
0.843750
  1
下降時
 50
0.000000
 51
0.000000
  7
EASYDRAW_FONT
 72
     5
 11
2832.318115
 21
909.554077
  0
LINE
  8
CSLAYER1
  6
CONTINUOUS
 62
     5
 10
2728.711373
 20
955.984178
 11
2851.669382
 21
955.984178
  0
LINE
  8
CSLAYER1
  6
CONTINUOUS
 62
     5
 10
2851.669382
 20
955.984178
 11
2851.669382
 21
903.123725
  0
LINE
  8
CSLAYER1
  6
CONTINUOUS
 62
     5
 10
2851.669382
 20
903.123725
 11
2728.711373
 21
903.123725
  0
LINE
  8
CSLAYER1
  6
CONTINUOUS
 62
     5
 10
2728.711373
 20
903.123725
 11
2728.711373
 21
955.984178
  0
DIMENSION
  8
CSLAYER1
 62
     3
  2
*D0015
 10
2577.969500
 20
861.483447
 11
2567.969482
 21
829.083435
 13
2611.691536
 23
796.683447
 14
2662.232689
 24
861.483447
 50
90.000000
  0
LINE
  8
CSLAYER1
  6
CONTINUOUS
 62
     5
 10
3156.008820
 20
796.683447
 11
2946.665001
 21
796.683447
  0
LINE
  8
CSLAYER1
  6
CENTER
 62
     5
 10
2721.792779
 20
841.683447
 11
2870.792779
 21
841.683447
  0
LINE
  8
CSLAYER1
  6
CONTINUOUS
 62
     3
 10
2921.292779
 20
861.483447
 11
2671.292779
 21
861.483447
  0
LINE
  8
CSLAYER1
  6
CONTINUOUS
 62
     3
 10
2921.292779
 20
843.483447
 11
2671.292779
 21
843.483447
  0
LINE
  8
CSLAYER1
  6
CONTINUOUS
 62
     3
 10
2853.292779
 20
843.483447
 11
2853.292779
 21
836.683447
  0
LINE
  8
CSLAYER1
  6
CONTINUOUS
 62
     3
 10
2852.292779
 20
843.483447
 11
2852.292779
 21
836.683447
  0
LINE
  8
CSLAYER1
  6
CONTINUOUS
 62
     3
 10
2859.792779
 20
843.483447
 11
2859.792779
 21
836.683447
  0
LINE
  8
CSLAYER1
  6
CONTINUOUS
 62
     3
 10
2853.792779
 20
843.483447
 11
2853.792779
 21
836.683447
  0
LINE
  8
CSLAYER1
  6
CONTINUOUS
 62
     3
 10
2862.792779
 20
836.683447
 11
2862.792779
 21
843.483447
  0
LINE
  8
CSLAYER1
  6
CONTINUOUS
 62
     3
 10
2859.792779
 20
840.171251
 11
2862.631804
 21
843.483447
  0
LINE
  8
CSLAYER1
  6
CONTINUOUS
 62
     3
 10
2870.792779
 20
843.483447
 11
2870.792779
 21
836.683447
  0
ARC
  8
CSLAYER1
  6
CONTINUOUS
 62
     3
 10
2856.997034
 20
841.683447
 40
13.795744
 50
-21.249544
 51
7.497043
  0
LINE
  8
CSLAYER1
  6
CONTINUOUS
 62
     3
 10
2739.292779
 20
843.483447
 11
2739.292779
 21
836.683447
  0
LINE
  8
CSLAYER1
  6
CONTINUOUS
 62
     3
 10
2740.292779
 20
843.483447
 11
2740.292779
 21
836.683447
  0
LINE
  8
CSLAYER1
  6
CONTINUOUS
 62
     3
 10
2732.792779
 20
843.483447
 11
2732.792779
 21
836.683447
  0
LINE
  8
CSLAYER1
  6
CONTINUOUS
 62
     3
 10
2738.792779
 20
843.483447
 11
2738.792779
 21
836.683447
  0
LINE
  8
CSLAYER1
  6
CONTINUOUS
 62
     3
 10
2729.792779
 20
836.683447
 11
2729.792779
 21
843.483447
  0
LINE
  8
CSLAYER1
  6
CONTINUOUS
 62
     3
 10
2732.792779
 20
840.171251
 11
2729.953753
 21
843.483447
  0
LINE
  8
CSLAYER1
  6
CONTINUOUS
 62
     3
 10
2721.792779
 20
843.483447
 11
2721.792779
 21
836.683447
  0
ARC
  8
CSLAYER1
  6
CONTINUOUS
 62
     3
 10
2735.588523
 20
841.683447
 40
13.795744
 50
172.502957
 51
201.249544
  0
LINE
  8
CSLAYER1
  6
CONTINUOUS
 62
     3
 10
2711.292779
 20
836.683447
 11
2711.292779
 21
843.483447
  0
LINE
  8
CSLAYER1
  6
CONTINUOUS
 62
     3
 10
2715.792779
 20
836.683447
 11
2715.792779
 21
843.483447
  0
LINE
  8
CSLAYER1
  6
CONTINUOUS
 62
     3
 10
2881.292779
 20
836.683447
 11
2881.292779
 21
843.483447
  0
LINE
  8
CSLAYER1
  6
CONTINUOUS
 62
     3
 10
2876.792779
 20
836.683447
 11
2876.792779
 21
843.483447
  0
LINE
  8
CSLAYER1
  6
CONTINUOUS
 62
     3
 10
2671.292779
 20
861.483447
 11
2671.292779
 21
843.483447
  0
LINE
  8
CSLAYER1
  6
CONTINUOUS
 62
     3
 10
2921.292779
 20
861.483447
 11
2921.292779
 21
843.483447
  0
LINE
  8
CSLAYER1
  6
CONTINUOUS
 62
     3
 10
2696.665001
 20
802.683447
 11
2696.665001
 21
796.683447
  0
LINE
  8
CSLAYER1
  6
CONTINUOUS
 62
     3
 10
2896.665001
 20
796.683447
 11
2896.665001
 21
802.683447
  0
INSERT
  8
CSLAYER1
  2
BLKF0006
 10
0.0
 20
0.0
 30
0.0
  0
LINE
  8
CSLAYER1
  6
CONTINUOUS
 62
     3
 10
793.588538
 20
796.683447
 11
1093.588538
 21
796.683447
  0
LINE
  8
CSLAYER1
  6
CONTINUOUS
 62
     5
 10
1093.588538
 20
796.683447
 11
1553.816849
 21
796.683447
  0
LINE
  8
CSLAYER1
  6
CONTINUOUS
 62
     3
 10
1553.816849
 20
796.683447
 11
2256.816849
 21
796.683447
  0
LINE
  8
CSLAYER1
  6
CONTINUOUS
 62
     5
 10
2256.816849
 20
796.683447
 11
2646.665001
 21
796.683447
  0
ENDSEC
  0
EOF
