  0
SECTION
  2
HEADER
  9
$ACADVER
  1
AC1006
  9
$INSBASE
 10
0.000000
 20
0.000000
 30
0.0
  9
$EXTMIN
 10
0.000000
 20
0.000000
  9
$EXTMAX
 10
3640.000000
 20
2570.000000
  9
$LIMMIN
 10
0.000000
 20
0.000000
  9
$LIMMAX
 10
3640.000000
 20
2570.000000
  9
$VIEWCTR
 10
1820.000000
 20
1285.000000
  9
$VIEWSIZE
 40
2570.000000
  9
$SNAPMODE
 70
     0
  9
$SNAPUNIT
 10
1.0
 20
1.0
  9
$SNAPBASE
 10
0.0
 20
0.0
  9
$SNAPANG
 50
0.0
  9
$SNAPSTYLE
 70
     0
  9
$SNAPISOPAIR
 70
     0
  9
$GRIDMODE
 70
     0
  9
$GRIDUNIT
 10
0.0
 20
0.0
  9
$ORTHOMODE
 70
     0
  9
$REGENMODE
 70
     1
  9
$FILLMODE
 70
     1
  9
$QTEXTMODE
 70
     0
  9
$DRAGMODE
 70
     2
  9
$LTSCALE
 40
15.000000
  9
$OSMODE
 70
     0
  9
$ATTMODE
 70
     1
  9
$TEXTSIZE
 40
0.2
  9
$TRACEWID
 40
0.05
  9
$TEXTSTYLE
  7
STANDARD
  9
$CLAYER
  8
CSLAYER1
  9
$CELTYPE
  6
BYLAYER
  9
$CECOLOR
 62
   256
  9
$DIMSCALE
 40
1.0
  9
$DIMASZ
 40
0.18
  9
$DIMEXO
 40
0.0625
  9
$DIMDLI
 40
0.38
  9
$DIMRND
 40
0.0
  9
$DIMDLE
 40
0.0
  9
$DIMEXE
 40
0.18
  9
$DIMTP
 40
0.0
  9
$DIMTM
 40
0.0
  9
$DIMTXT
 40
0.18
  9
$DIMCEN
 40
0.09
  9
$DIMTSZ
 40
0.0
  9
$DIMTOL
 70
     0
  9
$DIMLIM
 70
     0
  9
$DIMTIH
 70
     1
  9
$DIMTOH
 70
     1
  9
$DIMSE1
 70
     0
  9
$DIMSE2
 70
     0
  9
$DIMTAD
 70
     0
  9
$DIMZIN
 70
     0
  9
$DIMBLK
  1

  9
$LUNITS
 70
     2
  9
$LUPREC
 70
     4
  9
$AXISMODE
 70
     0
  9
$AXISUNIT
 10
0.0
 20
0.0
  9
$SKETCHINC
 40
0.1
  9
$FILLETRAD
 40
0.0
  9
$AUNITS
 70
     0
  9
$AUPREC
 70
     0
  9
$MENU
  1
ACAD
  9
$ELEVATION
 40
0.0
  9
$THICKNESS
 40
0.0
  9
$VIEWDIR
 10
0.0
 20
0.0
 30
1.0
  9
$LIMCHECK
 70
     0
  9
$BLIPMODE
 70
     1
  9
$CHAMFERA
 40
0.0
  9
$CHAMFERB
 40
0.0
  9
$FASTZOOM
 70
     1
  9
$SKPOLY
 70
     0
  9
$TDCREATE
 40
2456676.000000
  9
$TDUPDATE
 40
2456676.000000
  9
$TDINDWG
 40
0.0
  9
$TDUSRTIMER
 40
0.0
  9
$USRTIMER
 70
     1
  9
$ANGBASE
 50
0.0
  9
$ANGDIR
 70
     0
  9
$PDMODE
 70
     0
  9
$PDSIZE
 40
0.0
  9
$PLINEWID
 40
0.0
  9
$COORDS
 70
     0
  9
$USERI1
 70
     0
  9
$USERI2
 70
     0
  9
$USERI3
 70
     0
  9
$USERI4
 70
     0
  9
$USERI5
 70
     0
  9
$USERR1
 40
0.0
  9
$USERR2
 40
0.0
  9
$USERR3
 40
0.0
  9
$USERR4
 40
0.0
  9
$USERR5
 40
0.0
  0
ENDSEC
  0
SECTION
  2
TABLES
  0
TABLE
  2
LTYPE
 70
     9
  0
LTYPE
  2
CONTINUOUS
 70
    64
  3
Solid line
 72
    65
 73
     0
 40
0.0
  0
LTYPE
  2
DASHED
 70
    64
  3
__ __ __ __ __ __ __ __ __ __ __ __ __ __ __
 72
    65
 73
     2
 40
0.75
 49
0.5
 49
-0.25
  0
LTYPE
  2
HIDDEN
 70
    64
  3
_ _ _ _ _ _ _ _ _ _ _ _ _ _ _ _ _ _ _ _ _ _ _
 72
    65
 73
     2
 40
0.375
 49
0.25
 49
-0.125
  0
LTYPE
  2
DOT
 70
    64
  3
...............................................
 72
    65
 73
     2
 40
0.25
 49
0.0
 49
-0.25
  0
LTYPE
  2
DASHDOT
 70
    64
  3
__ . __ . __ . __ . __ . __ . __ . __ . __ . __
 72
    65
 73
     4
 40
1.0
 49
0.5
 49
-0.25
 49
0.0
 49
-0.25
  0
LTYPE
  2
DIVIDE
 70
    64
  3
__ . . __ . . __ . . __ . . __ . . __ . . __
 72
    65
 73
     6
 40
1.25
 49
0.5
 49
-0.25
 49
0.0
 49
-0.25
 49
0.0
 49
-0.25
  0
LTYPE
  2
CENTER
 70
    64
  3
____ _ ____ _ ____ _ ____ _ ____ _ ____ _ ____ 
 72
    65
 73
     4
 40
2.0
 49
1.25
 49
-0.25
 49
0.25
 49
-0.25
  0
LTYPE
  2
PHANTOM
 70
    64
  3
______  __  __  ______  __  __  ______  __  __ 
 72
    65
 73
     6
 40
2.5
 49
1.25
 49
-0.25
 49
0.25
 49
-0.25
 49
0.25
 49
-0.25
  0
LTYPE
  2
BORDER
 70
    64
  3
__ __ . __ __ . __ __ . __ __ . __ __ . __ __ .
 72
    65
 73
     6
 40
1.75
 49
0.5
 49
-0.25
 49
0.5
 49
-0.25
 49
0.0
 49
-0.25
  0
ENDTAB
  0
TABLE
  2
LAYER
 70
    16
  0
LAYER
  2
CSLAYER1
 70
    64
 62
     7
  6
CONTINUOUS
  0
LAYER
  2
CSLAYER2
 70
    64
 62
     7
  6
CONTINUOUS
  0
LAYER
  2
CSLAYER3
 70
    64
 62
     7
  6
CONTINUOUS
  0
LAYER
  2
CSLAYER4
 70
    64
 62
     7
  6
CONTINUOUS
  0
LAYER
  2
CSLAYER5
 70
    64
 62
     7
  6
CONTINUOUS
  0
LAYER
  2
CSLAYER6
 70
    64
 62
     7
  6
CONTINUOUS
  0
LAYER
  2
CSLAYER7
 70
    64
 62
     7
  6
CONTINUOUS
  0
LAYER
  2
CSLAYER8
 70
    64
 62
     7
  6
CONTINUOUS
  0
LAYER
  2
CSLAYER9
 70
    64
 62
     7
  6
CONTINUOUS
  0
LAYER
  2
CSLAYER10
 70
    64
 62
     7
  6
CONTINUOUS
  0
LAYER
  2
CSLAYER11
 70
    64
 62
     7
  6
CONTINUOUS
  0
LAYER
  2
CSLAYER12
 70
    64
 62
     7
  6
CONTINUOUS
  0
LAYER
  2
CSLAYER13
 70
    64
 62
     7
  6
CONTINUOUS
  0
LAYER
  2
CSLAYER14
 70
    64
 62
     7
  6
CONTINUOUS
  0
LAYER
  2
CSLAYER15
 70
    64
 62
     7
  6
CONTINUOUS
  0
LAYER
  2
CSLAYER16
 70
    64
 62
     7
  6
CONTINUOUS
  0
ENDTAB
  0
TABLE
  2
STYLE
 70
     1
  0
STYLE
  2
EASYDRAW_FONT
 70
     0
 40
1.0
 41
1.0
 50
0.0
 71
     0
 42
1.0
  3
monotxt
  4
bigfont
  0
ENDTAB
  0
TABLE
  2
VIEW
 70
     0
  0
ENDTAB
  0
ENDSEC
  0
SECTION
  2
BLOCKS
  0
BLOCK
  8
CSLAYER1
  2
*D0000
 70
    65
 10
0.0
 20
0.0
 30
0.0
  0
TEXT
  8
CSLAYER1
 62
     3
 10
2435.453125
 20
792.902100
 40
40.000000
 41
0.900000
  1
65
 50
90.000000
 51
0.000000
  7
EASYDRAW_FONT
 72
     5
 11
2435.453125
 21
852.902100
  0
LINE
  8
CSLAYER1
  6
CONTINUOUS
 62
     5
 10
2352.696523
 20
790.402217
 11
2556.595052
 21
790.402217
  0
LINE
  8
CSLAYER1
  6
CONTINUOUS
 62
     5
 10
2352.396523
 20
855.402217
 11
2455.452978
 21
855.402217
  0
LINE
  8
CSLAYER1
  6
CONTINUOUS
 62
     5
 10
2445.452978
 20
790.402217
 11
2445.452978
 21
855.402217
  0
LINE
  8
CSLAYER1
  6
CONTINUOUS
 62
     5
 10
2445.452978
 20
790.402217
 11
2437.688407
 21
819.379992
  0
LINE
  8
CSLAYER1
  6
CONTINUOUS
 62
     5
 10
2445.452978
 20
790.402217
 11
2453.217549
 21
819.379992
  0
LINE
  8
CSLAYER1
  6
CONTINUOUS
 62
     5
 10
2445.452978
 20
855.402217
 11
2437.688407
 21
826.424442
  0
LINE
  8
CSLAYER1
  6
CONTINUOUS
 62
     5
 10
2445.452978
 20
855.402217
 11
2453.217549
 21
826.424442
  0
ENDBLK
  8
0
  0
BLOCK
  8
CSLAYER1
  2
*D0001
 70
    65
 10
0.0
 20
0.0
 30
0.0
  0
TEXT
  8
CSLAYER1
 62
     3
 10
2435.453125
 20
1136.048950
 40
40.000000
 41
0.843750
  1
635
 50
90.000000
 51
0.000000
  7
EASYDRAW_FONT
 72
     5
 11
2435.453125
 21
1226.048950
  0
LINE
  8
CSLAYER1
  6
CONTINUOUS
 62
     5
 10
2373.805549
 20
1506.695627
 11
2556.595052
 21
1506.695627
  0
LINE
  8
CSLAYER1
  6
CONTINUOUS
 62
     5
 10
2445.452978
 20
855.402217
 11
2445.452978
 21
1506.695627
  0
LINE
  8
CSLAYER1
  6
CONTINUOUS
 62
     5
 10
2445.452978
 20
855.402217
 11
2437.688407
 21
884.379992
  0
LINE
  8
CSLAYER1
  6
CONTINUOUS
 62
     5
 10
2445.452978
 20
855.402217
 11
2453.217549
 21
884.379992
  0
LINE
  8
CSLAYER1
  6
CONTINUOUS
 62
     5
 10
2445.452978
 20
1506.695627
 11
2437.688407
 21
1477.717853
  0
LINE
  8
CSLAYER1
  6
CONTINUOUS
 62
     5
 10
2445.452978
 20
1506.695627
 11
2453.217549
 21
1477.717853
  0
ENDBLK
  8
0
  0
BLOCK
  8
CSLAYER1
  2
*D0002
 70
    65
 10
0.0
 20
0.0
 30
0.0
  0
TEXT
  8
CSLAYER1
 62
     3
 10
2536.595215
 20
1103.548828
 40
40.000000
 41
0.843750
  1
700
 50
90.000000
 51
0.000000
  7
EASYDRAW_FONT
 72
     5
 11
2536.595215
 21
1193.548828
  0
LINE
  8
CSLAYER1
  6
CONTINUOUS
 62
     5
 10
2546.595052
 20
790.402217
 11
2546.595052
 21
1506.695627
  0
LINE
  8
CSLAYER1
  6
CONTINUOUS
 62
     5
 10
2546.595052
 20
790.402217
 11
2538.830481
 21
819.379992
  0
LINE
  8
CSLAYER1
  6
CONTINUOUS
 62
     5
 10
2546.595052
 20
790.402217
 11
2554.359623
 21
819.379992
  0
LINE
  8
CSLAYER1
  6
CONTINUOUS
 62
     5
 10
2546.595052
 20
1506.695627
 11
2538.830481
 21
1477.717853
  0
LINE
  8
CSLAYER1
  6
CONTINUOUS
 62
     5
 10
2546.595052
 20
1506.695627
 11
2554.359623
 21
1477.717853
  0
ENDBLK
  8
0
  0
BLOCK
  8
CSLAYER1
  2
*D0003
 70
    65
 10
0.0
 20
0.0
 30
0.0
  0
TEXT
  8
CSLAYER1
 62
     3
 10
1868.805664
 20
1608.941162
 40
40.000000
 41
0.843750
  1
900
 50
0.000000
 51
0.000000
  7
EASYDRAW_FONT
 72
     5
 11
1958.805664
 21
1608.941162
  0
LINE
  8
CSLAYER1
  6
CONTINUOUS
 62
     5
 10
1463.805549
 20
1516.695627
 11
1463.805549
 21
1608.941163
  0
LINE
  8
CSLAYER1
  6
CONTINUOUS
 62
     5
 10
2363.805549
 20
1516.695627
 11
2363.805549
 21
1608.941163
  0
LINE
  8
CSLAYER1
  6
CONTINUOUS
 62
     5
 10
1463.805549
 20
1598.941163
 11
2363.805549
 21
1598.941163
  0
LINE
  8
CSLAYER1
  6
CONTINUOUS
 62
     5
 10
1463.805549
 20
1598.941163
 11
1492.783324
 21
1606.705734
  0
LINE
  8
CSLAYER1
  6
CONTINUOUS
 62
     5
 10
1463.805549
 20
1598.941163
 11
1492.783324
 21
1591.176592
  0
LINE
  8
CSLAYER1
  6
CONTINUOUS
 62
     5
 10
2363.805549
 20
1598.941163
 11
2334.827774
 21
1606.705734
  0
LINE
  8
CSLAYER1
  6
CONTINUOUS
 62
     5
 10
2363.805549
 20
1598.941163
 11
2334.827774
 21
1591.176592
  0
ENDBLK
  8
0
  0
BLOCK
  8
CSLAYER1
  2
EASYDRAWDIM0000
 70
   64
 10
0.0
 20
0.0
 30
0.0
  0
TEXT
  8
CSLAYER1
 62
     3
 10
1161.708740
 20
938.729980
 40
40.000000
 41
0.803571
  1
高圧ホース
 50
0.000000
 51
0.000000
  7
EASYDRAW_FONT
 72
     5
 11
1311.708740
 21
938.729980
  0
LINE
  8
CSLAYER1
  6
CONTINUOUS
 62
     5
 10
1378.254329
 20
809.898470
 11
1311.708660
 21
928.730022
  0
LINE
  8
CSLAYER1
  6
CONTINUOUS
 62
     5
 10
1378.254329
 20
809.898470
 11
1357.321055
 21
831.387958
  0
LINE
  8
CSLAYER1
  6
CONTINUOUS
 62
     5
 10
1378.254329
 20
809.898470
 11
1370.870326
 21
838.975549
  0
LINE
  8
CSLAYER1
  6
CONTINUOUS
 62
     5
 10
1311.708660
 20
928.730022
 11
1151.708660
 21
928.730022
  0
ENDBLK
  8
0
  0
BLOCK
  8
CSLAYER1
  2
*D0004
 70
    65
 10
0.0
 20
0.0
 30
0.0
  0
TEXT
  8
CSLAYER1
 62
     3
 10
983.880554
 20
808.216553
 40
40.000000
 41
1.125000
  1
6
 50
90.000000
 51
0.000000
  7
EASYDRAW_FONT
 72
     5
 11
983.880554
 21
838.216553
  0
LINE
  8
CSLAYER1
  6
CONTINUOUS
 62
     5
 10
937.382035
 20
790.402217
 11
1003.880706
 21
790.402217
  0
LINE
  8
CSLAYER1
  6
CONTINUOUS
 62
     5
 10
937.382035
 20
796.402217
 11
1003.880706
 21
796.402217
  0
LINE
  8
CSLAYER1
  6
CONTINUOUS
 62
     5
 10
993.880706
 20
790.402217
 11
993.880706
 21
740.402217
  0
LINE
  8
CSLAYER1
  6
CONTINUOUS
 62
     5
 10
993.880706
 20
790.402217
 11
986.116135
 21
761.424442
  0
LINE
  8
CSLAYER1
  6
CONTINUOUS
 62
     5
 10
993.880706
 20
790.402217
 11
1001.645277
 21
761.424442
  0
LINE
  8
CSLAYER1
  6
CONTINUOUS
 62
     5
 10
993.880706
 20
796.402217
 11
993.880706
 21
850.031079
  0
LINE
  8
CSLAYER1
  6
CONTINUOUS
 62
     5
 10
993.880706
 20
796.402217
 11
986.116135
 21
825.379992
  0
LINE
  8
CSLAYER1
  6
CONTINUOUS
 62
     5
 10
993.880706
 20
796.402217
 11
1001.645277
 21
825.379992
  0
LINE
  8
CSLAYER1
  6
CONTINUOUS
 62
     5
 10
993.880706
 20
790.402217
 11
993.880706
 21
796.402217
  0
ENDBLK
  8
0
  0
BLOCK
  8
CSLAYER1
  2
*D0005
 70
    65
 10
0.0
 20
0.0
 30
0.0
  0
TEXT
  8
CSLAYER1
 62
     3
 10
1846.196533
 20
628.452148
 40
40.000000
 41
0.843750
  1
903
 50
0.000000
 51
0.000000
  7
EASYDRAW_FONT
 72
     5
 11
1936.196533
 21
628.452148
  0
LINE
  8
CSLAYER1
  6
CONTINUOUS
 62
     5
 10
1439.696523
 20
780.402217
 11
1439.696523
 21
608.452086
  0
LINE
  8
CSLAYER1
  6
CONTINUOUS
 62
     5
 10
2342.696523
 20
780.402217
 11
2342.696523
 21
608.452086
  0
LINE
  8
CSLAYER1
  6
CONTINUOUS
 62
     5
 10
1439.696523
 20
618.452086
 11
2342.696523
 21
618.452086
  0
LINE
  8
CSLAYER1
  6
CONTINUOUS
 62
     5
 10
1439.696523
 20
618.452086
 11
1468.674298
 21
626.216657
  0
LINE
  8
CSLAYER1
  6
CONTINUOUS
 62
     5
 10
1439.696523
 20
618.452086
 11
1468.674298
 21
610.687514
  0
LINE
  8
CSLAYER1
  6
CONTINUOUS
 62
     5
 10
2342.696523
 20
618.452086
 11
2313.718748
 21
626.216657
  0
LINE
  8
CSLAYER1
  6
CONTINUOUS
 62
     5
 10
2342.696523
 20
618.452086
 11
2313.718748
 21
610.687514
  0
ENDBLK
  8
0
  0
BLOCK
  8
CSLAYER1
  2
*D0006
 70
    65
 10
0.0
 20
0.0
 30
0.0
  0
TEXT
  8
CSLAYER1
 62
     3
 10
2436.484619
 20
1953.149048
 40
40.000000
 41
0.843750
  1
200
 50
90.000000
 51
0.000000
  7
EASYDRAW_FONT
 72
     5
 11
2436.484619
 21
2043.149048
  0
LINE
  8
CSLAYER1
  6
CONTINUOUS
 62
     5
 10
2352.396523
 20
1898.148841
 11
2456.484493
 21
1898.148841
  0
LINE
  8
CSLAYER1
  6
CONTINUOUS
 62
     5
 10
2352.396523
 20
2098.148841
 11
2456.484493
 21
2098.148841
  0
LINE
  8
CSLAYER1
  6
CONTINUOUS
 62
     5
 10
2446.484493
 20
1898.148841
 11
2446.484493
 21
2098.148841
  0
LINE
  8
CSLAYER1
  6
CONTINUOUS
 62
     5
 10
2446.484493
 20
1898.148841
 11
2438.719922
 21
1927.126616
  0
LINE
  8
CSLAYER1
  6
CONTINUOUS
 62
     5
 10
2446.484493
 20
1898.148841
 11
2454.249065
 21
1927.126616
  0
LINE
  8
CSLAYER1
  6
CONTINUOUS
 62
     5
 10
2446.484493
 20
2098.148841
 11
2438.719922
 21
2069.171067
  0
LINE
  8
CSLAYER1
  6
CONTINUOUS
 62
     5
 10
2446.484493
 20
2098.148841
 11
2454.249065
 21
2069.171067
  0
ENDBLK
  8
0
  0
BLOCK
  8
CSLAYER1
  2
*D0007
 70
    65
 10
0.0
 20
0.0
 30
0.0
  0
TEXT
  8
CSLAYER1
 62
     3
 10
1280.687744
 20
1284.300171
 40
40.000000
 41
0.803571
  1
MAX21
 50
0.000000
 51
0.000000
  7
EASYDRAW_FONT
 72
     5
 11
1430.687744
 21
1284.300171
  0
LINE
  8
CSLAYER1
  6
CONTINUOUS
 62
     5
 10
1442.396523
 20
865.402217
 11
1442.396523
 21
1272.077089
  0
LINE
  8
CSLAYER1
  6
CONTINUOUS
 62
     5
 10
1463.805549
 20
1496.695627
 11
1463.805549
 21
1252.077089
  0
LINE
  8
CSLAYER1
  6
CONTINUOUS
 62
     5
 10
1442.396523
 20
1262.077089
 11
1383.433235
 21
1262.077089
  0
LINE
  8
CSLAYER1
  6
CONTINUOUS
 62
     5
 10
1442.396523
 20
1262.077089
 11
1413.418748
 21
1269.841660
  0
LINE
  8
CSLAYER1
  6
CONTINUOUS
 62
     5
 10
1442.396523
 20
1262.077089
 11
1413.418748
 21
1254.312518
  0
LINE
  8
CSLAYER1
  6
CONTINUOUS
 62
     5
 10
1463.805549
 20
1262.077089
 11
1513.805549
 21
1262.077089
  0
LINE
  8
CSLAYER1
  6
CONTINUOUS
 62
     5
 10
1463.805549
 20
1262.077089
 11
1492.783324
 21
1269.841660
  0
LINE
  8
CSLAYER1
  6
CONTINUOUS
 62
     5
 10
1463.805549
 20
1262.077089
 11
1492.783324
 21
1254.312518
  0
LINE
  8
CSLAYER1
  6
CONTINUOUS
 62
     5
 10
1442.396523
 20
1262.077089
 11
1463.805549
 21
1262.077089
  0
ENDBLK
  8
0
  0
BLOCK
  8
CSLAYER1
  2
EASYDRAWDIM0001
 70
   64
 10
0.0
 20
0.0
 30
0.0
  0
TEXT
  8
CSLAYER1
 62
     3
 10
1196.059326
 20
1145.544678
 40
40.000000
 41
0.787500
  1
油圧シリンダー
 50
0.000000
 51
0.000000
  7
EASYDRAW_FONT
 72
     5
 11
1406.059326
 21
1145.544678
  0
LINE
  8
CSLAYER1
  6
CONTINUOUS
 62
     5
 10
1552.966081
 20
988.331546
 11
1407.024028
 21
1135.544651
  0
LINE
  8
CSLAYER1
  6
CONTINUOUS
 62
     5
 10
1552.966081
 20
988.331546
 11
1527.050599
 21
1003.444050
  0
LINE
  8
CSLAYER1
  6
CONTINUOUS
 62
     5
 10
1552.966081
 20
988.331546
 11
1538.078868
 21
1014.377099
  0
LINE
  8
CSLAYER1
  6
CONTINUOUS
 62
     5
 10
1407.024028
 20
1135.544651
 11
1186.059286
 21
1135.544651
  0
ENDBLK
  8
0
  0
BLOCK
  8
CSLAYER1
  2
EASYDRAWDIM0002
 70
   64
 10
0.0
 20
0.0
 30
0.0
  0
TEXT
  8
CSLAYER1
 62
     3
 10
958.266541
 20
653.545532
 40
40.000000
 41
0.771429
  1
2-%%c13（アンカー穴）
 50
0.000000
 51
0.000000
  7
EASYDRAW_FONT
 72
     5
 11
1318.266541
 21
653.545532
  0
LINE
  8
CSLAYER1
  6
CONTINUOUS
 62
     5
 10
998.289681
 20
701.500480
 11
1283.886345
 21
701.500480
  0
ENDBLK
  8
0
  0
BLOCK
  8
CSLAYER1
  2
*D0008
 70
    65
 10
0.0
 20
0.0
 30
0.0
  0
TEXT
  8
CSLAYER1
 62
     3
 10
732.382019
 20
715.793335
 40
40.000000
 41
0.843750
  1
250
 50
0.000000
 51
0.000000
  7
EASYDRAW_FONT
 72
     5
 11
822.382019
 21
715.793335
  0
LINE
  8
CSLAYER1
  6
CONTINUOUS
 62
     5
 10
652.382035
 20
780.402217
 11
652.382035
 21
695.793332
  0
LINE
  8
CSLAYER1
  6
CONTINUOUS
 62
     5
 10
902.382035
 20
780.402217
 11
902.382035
 21
695.793332
  0
LINE
  8
CSLAYER1
  6
CONTINUOUS
 62
     5
 10
652.382035
 20
705.793332
 11
902.382035
 21
705.793332
  0
LINE
  8
CSLAYER1
  6
CONTINUOUS
 62
     5
 10
652.382035
 20
705.793332
 11
681.359810
 21
713.557903
  0
LINE
  8
CSLAYER1
  6
CONTINUOUS
 62
     5
 10
652.382035
 20
705.793332
 11
681.359810
 21
698.028761
  0
LINE
  8
CSLAYER1
  6
CONTINUOUS
 62
     5
 10
902.382035
 20
705.793332
 11
873.404260
 21
713.557903
  0
LINE
  8
CSLAYER1
  6
CONTINUOUS
 62
     5
 10
902.382035
 20
705.793332
 11
873.404260
 21
698.028761
  0
ENDBLK
  8
0
  0
BLOCK
  8
CSLAYER1
  2
*D0009
 70
    65
 10
0.0
 20
0.0
 30
0.0
  0
TEXT
  8
CSLAYER1
 62
     3
 10
732.382019
 20
651.476135
 40
40.000000
 41
0.843750
  1
300
 50
0.000000
 51
0.000000
  7
EASYDRAW_FONT
 72
     5
 11
822.382019
 21
651.476135
  0
LINE
  8
CSLAYER1
  6
CONTINUOUS
 62
     5
 10
627.382035
 20
780.402217
 11
627.382035
 21
631.476100
  0
LINE
  8
CSLAYER1
  6
CONTINUOUS
 62
     5
 10
927.382035
 20
786.402217
 11
927.382035
 21
631.476100
  0
LINE
  8
CSLAYER1
  6
CONTINUOUS
 62
     5
 10
627.382035
 20
641.476100
 11
927.382035
 21
641.476100
  0
LINE
  8
CSLAYER1
  6
CONTINUOUS
 62
     5
 10
627.382035
 20
641.476100
 11
656.359810
 21
649.240671
  0
LINE
  8
CSLAYER1
  6
CONTINUOUS
 62
     5
 10
627.382035
 20
641.476100
 11
656.359810
 21
633.711528
  0
LINE
  8
CSLAYER1
  6
CONTINUOUS
 62
     5
 10
927.382035
 20
641.476100
 11
898.404260
 21
649.240671
  0
LINE
  8
CSLAYER1
  6
CONTINUOUS
 62
     5
 10
927.382035
 20
641.476100
 11
898.404260
 21
633.711528
  0
ENDBLK
  8
0
  0
BLOCK
  8
CSLAYER1
  2
*D0010
 70
    65
 10
0.0
 20
0.0
 30
0.0
  0
TEXT
  8
CSLAYER1
 62
     3
 10
732.382019
 20
1561.545654
 40
40.000000
 41
0.843750
  1
200
 50
0.000000
 51
0.000000
  7
EASYDRAW_FONT
 72
     5
 11
822.382019
 21
1561.545654
  0
LINE
  8
CSLAYER1
  6
CONTINUOUS
 62
     5
 10
677.382035
 20
1516.695627
 11
677.382035
 21
1561.545593
  0
LINE
  8
CSLAYER1
  6
CONTINUOUS
 62
     5
 10
877.382035
 20
1516.695627
 11
877.382035
 21
1561.545593
  0
LINE
  8
CSLAYER1
  6
CONTINUOUS
 62
     5
 10
677.382035
 20
1551.545593
 11
877.382035
 21
1551.545593
  0
LINE
  8
CSLAYER1
  6
CONTINUOUS
 62
     5
 10
677.382035
 20
1551.545593
 11
706.359810
 21
1559.310165
  0
LINE
  8
CSLAYER1
  6
CONTINUOUS
 62
     5
 10
677.382035
 20
1551.545593
 11
706.359810
 21
1543.781022
  0
LINE
  8
CSLAYER1
  6
CONTINUOUS
 62
     5
 10
877.382035
 20
1551.545593
 11
848.404260
 21
1559.310165
  0
LINE
  8
CSLAYER1
  6
CONTINUOUS
 62
     5
 10
877.382035
 20
1551.545593
 11
848.404260
 21
1543.781022
  0
ENDBLK
  8
0
  0
BLOCK
  8
CSLAYER1
  2
*D0011
 70
    65
 10
0.0
 20
0.0
 30
0.0
  0
TEXT
  8
CSLAYER1
 62
     3
 10
1450.316650
 20
657.738037
 40
40.000000
 41
0.900000
  1
25
 50
0.000000
 51
0.000000
  7
EASYDRAW_FONT
 72
     5
 11
1510.316650
 21
657.738037
  0
LINE
  8
CSLAYER1
  6
CONTINUOUS
 62
     5
 10
1439.696523
 20
745.522722
 11
1439.696523
 21
713.942723
  0
LINE
  8
CSLAYER1
  6
CONTINUOUS
 62
     5
 10
1464.696523
 20
783.471586
 11
1464.696523
 21
713.942723
  0
LINE
  8
CSLAYER1
  6
CONTINUOUS
 62
     5
 10
1439.696523
 20
723.942723
 11
1464.696523
 21
723.942723
  0
LINE
  8
CSLAYER1
  6
CONTINUOUS
 62
     5
 10
1389.696523
 20
723.942723
 11
1439.696523
 21
723.942723
  0
LINE
  8
CSLAYER1
  6
CONTINUOUS
 62
     5
 10
1439.696523
 20
723.942723
 11
1410.718748
 21
731.707294
  0
LINE
  8
CSLAYER1
  6
CONTINUOUS
 62
     5
 10
1439.696523
 20
723.942723
 11
1410.718748
 21
716.178151
  0
LINE
  8
CSLAYER1
  6
CONTINUOUS
 62
     5
 10
1464.696523
 20
723.942723
 11
1514.696523
 21
723.942723
  0
LINE
  8
CSLAYER1
  6
CONTINUOUS
 62
     5
 10
1464.696523
 20
723.942723
 11
1493.674298
 21
731.707294
  0
LINE
  8
CSLAYER1
  6
CONTINUOUS
 62
     5
 10
1464.696523
 20
723.942723
 11
1493.674298
 21
716.178151
  0
ENDBLK
  8
0
  0
BLOCK
  8
CSLAYER1
  2
EASYDRAWDIM0003
 70
   64
 10
0.0
 20
0.0
 30
0.0
  0
LINE
  8
CSLAYER1
  6
CONTINUOUS
 62
     6
 10
1464.696523
 20
790.402217
 11
1283.886345
 21
701.500480
  0
LINE
  8
CSLAYER1
  6
CONTINUOUS
 62
     6
 10
1464.696523
 20
790.402217
 11
1442.118102
 21
770.648360
  0
LINE
  8
CSLAYER1
  6
CONTINUOUS
 62
     6
 10
1464.696523
 20
790.402217
 11
1435.266108
 21
784.584085
  0
LINE
  8
CSLAYER1
  6
CONTINUOUS
 62
     6
 10
1283.886345
 20
701.500480
 11
1238.624143
 21
701.500480
  0
ENDBLK
  8
0
  0
BLOCK
  8
CSLAYER1
  2
EASYDRAWDIM0004
 70
   64
 10
0.0
 20
0.0
 30
0.0
  0
TEXT
  8
CSLAYER1
 62
     3
 10
1395.429199
 20
1896.048439
 40
33.155758
 41
0.767879
  1
穴ヒﾟッチ
 50
90.000000
 51
0.000000
  7
EASYDRAW_FONT
 72
     5
 11
1395.429199
 21
2014.860008
  0
ENDBLK
  8
0
  0
BLOCK
  8
CSLAYER1
  2
*D0012
 70
    65
 10
0.0
 20
0.0
 30
0.0
  0
TEXT
  8
CSLAYER1
 62
     3
 10
1346.190430
 20
1927.596313
 40
40.000000
 41
0.843750
  1
250
 50
90.000000
 51
0.000000
  7
EASYDRAW_FONT
 72
     5
 11
1346.190430
 21
2017.596313
  0
LINE
  8
CSLAYER1
  6
CONTINUOUS
 62
     5
 10
1443.433722
 20
1873.148841
 11
1344.442462
 21
1873.148841
  0
LINE
  8
CSLAYER1
  6
CONTINUOUS
 62
     5
 10
1443.433722
 20
2123.148841
 11
1344.442462
 21
2123.148841
  0
LINE
  8
CSLAYER1
  6
CONTINUOUS
 62
     5
 10
1354.442462
 20
1873.148841
 11
1354.442462
 21
2123.148841
  0
LINE
  8
CSLAYER1
  6
CONTINUOUS
 62
     5
 10
1354.442462
 20
1873.148841
 11
1346.677891
 21
1902.126616
  0
LINE
  8
CSLAYER1
  6
CONTINUOUS
 62
     5
 10
1354.442462
 20
1873.148841
 11
1362.207034
 21
1902.126616
  0
LINE
  8
CSLAYER1
  6
CONTINUOUS
 62
     5
 10
1354.442462
 20
2123.148841
 11
1346.677891
 21
2094.171067
  0
LINE
  8
CSLAYER1
  6
CONTINUOUS
 62
     5
 10
1354.442462
 20
2123.148841
 11
1362.207034
 21
2094.171067
  0
ENDBLK
  8
0
  0
BLOCK
  8
CSLAYER1
  2
*D0013
 70
    65
 10
0.0
 20
0.0
 30
0.0
  0
TEXT
  8
CSLAYER1
 62
     3
 10
1368.841064
 20
1767.821899
 40
40.000000
 41
0.900000
  1
25
 50
0.000000
 51
0.000000
  7
EASYDRAW_FONT
 72
     5
 11
1428.841064
 21
1767.821899
  0
LINE
  8
CSLAYER1
  6
CONTINUOUS
 62
     5
 10
1439.696523
 20
1848.148841
 11
1439.696523
 21
1707.277209
  0
LINE
  8
CSLAYER1
  6
CONTINUOUS
 62
     5
 10
1464.696523
 20
1851.886040
 11
1464.696523
 21
1774.088777
  0
LINE
  8
CSLAYER1
  6
CONTINUOUS
 62
     5
 10
1439.696523
 20
1784.088777
 11
1464.696523
 21
1784.088777
  0
LINE
  8
CSLAYER1
  6
CONTINUOUS
 62
     5
 10
1439.696523
 20
1784.088777
 11
1468.674298
 21
1791.853348
  0
LINE
  8
CSLAYER1
  6
CONTINUOUS
 62
     5
 10
1439.696523
 20
1784.088777
 11
1468.674298
 21
1776.324205
  0
LINE
  8
CSLAYER1
  6
CONTINUOUS
 62
     5
 10
1464.696523
 20
1784.088777
 11
1435.718748
 21
1791.853348
  0
LINE
  8
CSLAYER1
  6
CONTINUOUS
 62
     5
 10
1464.696523
 20
1784.088777
 11
1435.718748
 21
1776.324205
  0
ENDBLK
  8
0
  0
BLOCK
  8
CSLAYER1
  2
*D0014
 70
    65
 10
0.0
 20
0.0
 30
0.0
  0
TEXT
  8
CSLAYER1
 62
     3
 10
1370.002930
 20
1700.429321
 40
40.000000
 41
0.900000
  1
50
 50
0.000000
 51
0.000000
  7
EASYDRAW_FONT
 72
     5
 11
1430.002930
 21
1700.429321
  0
LINE
  8
CSLAYER1
  6
CONTINUOUS
 62
     5
 10
1489.696523
 20
1848.148841
 11
1489.696523
 21
1707.277209
  0
LINE
  8
CSLAYER1
  6
CONTINUOUS
 62
     5
 10
1439.696523
 20
1717.277209
 11
1489.696523
 21
1717.277209
  0
LINE
  8
CSLAYER1
  6
CONTINUOUS
 62
     5
 10
1439.696523
 20
1717.277209
 11
1468.674298
 21
1725.041780
  0
LINE
  8
CSLAYER1
  6
CONTINUOUS
 62
     5
 10
1439.696523
 20
1717.277209
 11
1468.674298
 21
1709.512638
  0
LINE
  8
CSLAYER1
  6
CONTINUOUS
 62
     5
 10
1489.696523
 20
1717.277209
 11
1460.718748
 21
1725.041780
  0
LINE
  8
CSLAYER1
  6
CONTINUOUS
 62
     5
 10
1489.696523
 20
1717.277209
 11
1460.718748
 21
1709.512638
  0
ENDBLK
  8
0
  0
BLOCK
  8
CSLAYER1
  2
EASYDRAWDIM0005
 70
   64
 10
0.0
 20
0.0
 30
0.0
  0
TEXT
  8
CSLAYER1
 62
     3
 10
1582.918457
 20
1752.772583
 40
40.000000
 41
0.771429
  1
2-%%c13(アンカー穴)
 50
0.000000
 51
0.000000
  7
EASYDRAW_FONT
 72
     5
 11
1942.918457
 21
1752.772583
  0
LINE
  8
CSLAYER1
  6
CONTINUOUS
 62
     5
 10
1469.095123
 20
1868.891000
 11
1578.577090
 21
1742.772477
  0
LINE
  8
CSLAYER1
  6
CONTINUOUS
 62
     5
 10
1469.095123
 20
1868.891000
 11
1493.954783
 21
1852.098224
  0
LINE
  8
CSLAYER1
  6
CONTINUOUS
 62
     5
 10
1469.095123
 20
1868.891000
 11
1482.227832
 21
1841.918200
  0
LINE
  8
CSLAYER1
  6
CONTINUOUS
 62
     5
 10
1578.577090
 20
1742.772477
 11
1952.918343
 21
1742.772477
  0
ENDBLK
  8
0
  0
BLOCK
  8
CSLAYER1
  2
*D0015
 70
    65
 10
0.0
 20
0.0
 30
0.0
  0
TEXT
  8
CSLAYER1
 62
     3
 10
2623.820068
 20
792.802185
 40
40.000000
 41
0.900000
  1
65
 50
90.000000
 51
0.000000
  7
EASYDRAW_FONT
 72
     5
 11
2623.820068
 21
852.802185
  0
LINE
  8
CSLAYER1
  6
CONTINUOUS
 62
     5
 10
2701.918317
 20
790.402217
 11
2623.819967
 21
790.402217
  0
LINE
  8
CSLAYER1
  6
CONTINUOUS
 62
     5
 10
2752.459471
 20
855.202217
 11
2623.819967
 21
855.202217
  0
LINE
  8
CSLAYER1
  6
CONTINUOUS
 62
     5
 10
2633.819967
 20
790.402217
 11
2633.819967
 21
855.202217
  0
LINE
  8
CSLAYER1
  6
CONTINUOUS
 62
     5
 10
2633.819967
 20
740.402217
 11
2633.819967
 21
790.402217
  0
LINE
  8
CSLAYER1
  6
CONTINUOUS
 62
     5
 10
2633.819967
 20
790.402217
 11
2626.055396
 21
761.424442
  0
LINE
  8
CSLAYER1
  6
CONTINUOUS
 62
     5
 10
2633.819967
 20
790.402217
 11
2641.584539
 21
761.424442
  0
LINE
  8
CSLAYER1
  6
CONTINUOUS
 62
     5
 10
2633.819967
 20
855.202217
 11
2633.819967
 21
905.202217
  0
LINE
  8
CSLAYER1
  6
CONTINUOUS
 62
     5
 10
2633.819967
 20
855.202217
 11
2626.055396
 21
884.179992
  0
LINE
  8
CSLAYER1
  6
CONTINUOUS
 62
     5
 10
2633.819967
 20
855.202217
 11
2641.584539
 21
884.179992
  0
ENDBLK
  8
0
  0
BLOCK
  8
CSLAYER1
  2
BLKF0000
 70
   64
 10
0.0
 20
0.0
 30
0.0
  0
ARC
  8
CSLAYER1
  6
CONTINUOUS
 62
     5
 10
2866.144977
 20
163.570689
 40
3.549225
 50
6.429109
 51
73.182034
  0
ARC
  8
CSLAYER1
  6
CONTINUOUS
 62
     5
 10
2862.684007
 20
162.412296
 40
6.907754
 50
310.517970
 51
330.092764
  0
ARC
  8
CSLAYER1
  6
CONTINUOUS
 62
     5
 10
2862.623357
 20
162.777814
 40
7.148321
 50
-32.205059
 51
9.585194
  0
ARC
  8
CSLAYER1
  6
CONTINUOUS
 62
     5
 10
2865.916085
 20
160.016815
 40
4.767514
 50
180.000000
 51
218.514150
  0
ARC
  8
CSLAYER1
  6
CONTINUOUS
 62
     5
 10
2864.629364
 20
159.339675
 40
3.348282
 50
222.781148
 51
319.406906
  0
ARC
  8
CSLAYER1
  6
CONTINUOUS
 62
     5
 10
2867.695006
 20
160.429568
 40
6.559434
 50
94.574282
 51
183.607718
  0
LINE
  8
CSLAYER1
  6
CONTINUOUS
 62
     5
 10
2881.138912
 20
155.312735
 11
2880.281876
 21
152.274152
  0
LINE
  8
CSLAYER1
  6
CONTINUOUS
 62
     5
 10
2882.930897
 20
175.180393
 11
2880.827263
 21
177.907326
  0
LINE
  8
CSLAYER1
  6
CONTINUOUS
 62
     5
 10
2880.827263
 20
177.907326
 11
2874.073909
 21
181.665238
  0
LINE
  8
CSLAYER1
  6
CONTINUOUS
 62
     5
 10
2874.073909
 20
181.665238
 11
2867.171881
 21
182.468109
  0
LINE
  8
CSLAYER1
  6
CONTINUOUS
 62
     5
 10
2848.882656
 20
169.089435
 11
2851.029350
 21
174.053666
  0
LINE
  8
CSLAYER1
  6
CONTINUOUS
 62
     5
 10
2850.992353
 20
173.968109
 11
2853.176045
 21
176.602865
  0
LINE
  8
CSLAYER1
  6
CONTINUOUS
 62
     5
 10
2853.176045
 20
176.602865
 11
2856.480467
 21
178.968109
  0
LINE
  8
CSLAYER1
  6
CONTINUOUS
 62
     5
 10
2867.171881
 20
182.468109
 11
2865.653706
 21
181.701264
  0
LINE
  8
CSLAYER1
  6
CONTINUOUS
 62
     5
 10
2865.653706
 20
181.701264
 11
2862.165327
 21
181.701264
  0
LINE
  8
CSLAYER1
  6
CONTINUOUS
 62
     5
 10
2862.165327
 20
181.701264
 11
2858.609865
 21
179.755823
  0
LINE
  8
CSLAYER1
  6
CONTINUOUS
 62
     5
 10
2858.609865
 20
179.755823
 11
2856.480467
 21
178.968109
  0
LINE
  8
CSLAYER1
  6
CONTINUOUS
 62
     5
 10
2848.882656
 20
169.089435
 11
2847.365109
 21
161.540832
  0
LINE
  8
CSLAYER1
  6
CONTINUOUS
 62
     5
 10
2847.365109
 20
161.540832
 11
2847.171881
 21
158.968109
  0
LINE
  8
CSLAYER1
  6
CONTINUOUS
 62
     5
 10
2849.881264
 20
151.128326
 11
2847.171881
 21
157.224438
  0
LINE
  8
CSLAYER1
  6
CONTINUOUS
 62
     5
 10
2847.171881
 20
157.224438
 11
2847.171881
 21
158.968109
  0
LINE
  8
CSLAYER1
  6
CONTINUOUS
 62
     5
 10
2880.281876
 20
152.274152
 11
2878.596089
 21
149.271146
  0
LINE
  8
CSLAYER1
  6
CONTINUOUS
 62
     5
 10
2878.596089
 20
149.271146
 11
2877.171881
 21
147.952435
  0
ARC
  8
CSLAYER1
  6
CONTINUOUS
 62
     5
 10
2864.979937
 20
159.504869
 40
17.266626
 50
208.054813
 51
260.640470
  0
ARC
  8
CSLAYER1
  6
CONTINUOUS
 62
     5
 10
2859.786541
 20
172.247339
 40
29.874611
 50
274.579659
 51
305.587364
  0
ARC
  8
CSLAYER1
  6
CONTINUOUS
 62
     5
 10
2870.758890
 20
166.263616
 40
15.088627
 50
313.467013
 51
331.085078
  0
LINE
  8
CSLAYER1
  6
CONTINUOUS
 62
     5
 10
2885.550223
 20
162.481530
 11
2885.847517
 21
166.263616
  0
LINE
  8
CSLAYER1
  6
CONTINUOUS
 62
     5
 10
2885.847517
 20
166.263616
 11
2884.555520
 21
172.372599
  0
LINE
  8
CSLAYER1
  6
CONTINUOUS
 62
     5
 10
2885.550223
 20
162.481530
 11
2883.966548
 21
158.968109
  0
ARC
  8
CSLAYER1
  6
CONTINUOUS
 62
     5
 10
2870.758890
 20
166.263616
 40
15.088627
 50
23.883193
 51
36.225170
  0
LINE
  8
CSLAYER1
  6
CONTINUOUS
 62
     5
 10
2831.171881
 20
193.968109
 11
2832.171881
 21
195.060753
  0
LINE
  8
CSLAYER1
  6
CONTINUOUS
 62
     5
 10
2831.171881
 20
193.968109
 11
2832.748839
 21
192.523076
  0
LINE
  8
CSLAYER1
  6
CONTINUOUS
 62
     5
 10
2834.288052
 20
190.413784
 11
2834.314320
 21
188.245665
  0
LINE
  8
CSLAYER1
  6
CONTINUOUS
 62
     5
 10
2834.314320
 20
188.245665
 11
2834.521718
 21
187.485206
  0
LINE
  8
CSLAYER1
  6
CONTINUOUS
 62
     5
 10
2834.521718
 20
187.485206
 11
2835.109346
 21
186.759313
  0
LINE
  8
CSLAYER1
  6
CONTINUOUS
 62
     5
 10
2835.109346
 20
186.759313
 11
2835.696973
 21
186.828446
  0
LINE
  8
CSLAYER1
  6
CONTINUOUS
 62
     5
 10
2835.696973
 20
186.828446
 11
2836.319167
 21
187.001277
  0
LINE
  8
CSLAYER1
  6
CONTINUOUS
 62
     5
 10
2836.319167
 20
187.001277
 11
2836.733963
 21
186.828446
  0
LINE
  8
CSLAYER1
  6
CONTINUOUS
 62
     5
 10
2836.733963
 20
186.828446
 11
2837.632688
 21
186.379083
  0
LINE
  8
CSLAYER1
  6
CONTINUOUS
 62
     5
 10
2837.632688
 20
186.379083
 11
2838.408739
 21
185.968109
  0
LINE
  8
CSLAYER1
  6
CONTINUOUS
 62
     5
 10
2838.408739
 20
185.968109
 11
2838.911642
 21
185.998854
  0
LINE
  8
CSLAYER1
  6
CONTINUOUS
 62
     5
 10
2838.911642
 20
185.998854
 11
2841.719514
 21
187.445333
  0
LINE
  8
CSLAYER1
  6
CONTINUOUS
 62
     5
 10
2832.171881
 20
195.060753
 11
2832.504733
 21
196.534460
  0
LINE
  8
CSLAYER1
  6
CONTINUOUS
 62
     5
 10
2832.504733
 20
196.534460
 11
2833.958138
 21
196.684813
  0
LINE
  8
CSLAYER1
  6
CONTINUOUS
 62
     5
 10
2835.451897
 20
199.453271
 11
2837.206070
 21
199.610361
  0
LINE
  8
CSLAYER1
  6
CONTINUOUS
 62
     5
 10
2837.206070
 20
199.610361
 11
2840.740597
 21
200.448175
  0
LINE
  8
CSLAYER1
  6
CONTINUOUS
 62
     5
 10
2840.740597
 20
200.448175
 11
2842.171881
 21
200.779814
  0
LINE
  8
CSLAYER1
  6
CONTINUOUS
 62
     5
 10
2835.451897
 20
199.453271
 11
2833.519006
 21
199.612139
  0
LINE
  8
CSLAYER1
  6
CONTINUOUS
 62
     5
 10
2832.782883
 20
198.743452
 11
2832.876408
 21
198.372291
  0
LINE
  8
CSLAYER1
  6
CONTINUOUS
 62
     5
 10
2832.876408
 20
198.372291
 11
2833.368002
 21
197.834610
  0
LINE
  8
CSLAYER1
  6
CONTINUOUS
 62
     5
 10
2833.368002
 20
197.834610
 11
2834.043944
 21
197.327653
  0
LINE
  8
CSLAYER1
  6
CONTINUOUS
 62
     5
 10
2834.043944
 20
197.327653
 11
2834.167269
 21
197.163220
  0
LINE
  8
CSLAYER1
  6
CONTINUOUS
 62
     5
 10
2832.748839
 20
192.523076
 11
2834.288052
 21
190.413784
  0
ARC
  8
CSLAYER1
  6
CONTINUOUS
 62
     5
 10
2877.158582
 20
22.309456
 40
180.727463
 50
80.438896
 51
96.353582
  0
ARC
  8
CSLAYER1
  6
CONTINUOUS
 62
     5
 10
2852.259669
 20
167.557356
 40
34.720242
 50
81.866516
 51
106.890578
  0
LINE
  8
CSLAYER1
  6
CONTINUOUS
 62
     5
 10
2911.366143
 20
199.734779
 11
2913.613225
 21
198.713378
  0
LINE
  8
CSLAYER1
  6
CONTINUOUS
 62
     5
 10
2917.188130
 20
197.130206
 11
2913.613225
 21
198.713378
  0
LINE
  8
CSLAYER1
  6
CONTINUOUS
 62
     5
 10
2911.366143
 20
199.734779
 11
2907.171881
 21
200.527350
  0
LINE
  8
CSLAYER1
  6
CONTINUOUS
 62
     5
 10
2917.171881
 20
197.137402
 11
2919.043457
 21
195.568925
  0
LINE
  8
CSLAYER1
  6
CONTINUOUS
 62
     5
 10
2900.415137
 20
198.174252
 11
2901.314412
 21
199.626927
  0
LINE
  8
CSLAYER1
  6
CONTINUOUS
 62
     5
 10
2901.314412
 20
199.626927
 11
2905.990011
 21
198.507418
  0
LINE
  8
CSLAYER1
  6
CONTINUOUS
 62
     5
 10
2905.990011
 20
198.507418
 11
2922.732397
 21
193.968109
  0
LINE
  8
CSLAYER1
  6
CONTINUOUS
 62
     5
 10
2925.671881
 20
193.968109
 11
2919.043457
 21
195.568925
  0
LINE
  8
CSLAYER1
  6
CONTINUOUS
 62
     5
 10
2922.732397
 20
193.968109
 11
2925.671881
 21
193.968109
  0
LINE
  8
CSLAYER1
  6
CONTINUOUS
 62
     5
 10
2867.171881
 20
198.433050
 11
2887.171881
 21
198.968109
  0
LINE
  8
CSLAYER1
  6
CONTINUOUS
 62
     5
 10
2887.171881
 20
198.968109
 11
2900.415137
 21
198.174252
  0
LINE
  8
CSLAYER1
  6
CONTINUOUS
 62
     5
 10
2902.018118
 20
196.113773
 11
2887.171881
 21
197.468109
  0
LINE
  8
CSLAYER1
  6
CONTINUOUS
 62
     5
 10
2887.171881
 20
197.468109
 11
2872.122672
 21
197.876761
  0
LINE
  8
CSLAYER1
  6
CONTINUOUS
 62
     5
 10
2872.171881
 20
197.875425
 11
2867.171881
 21
197.970718
  0
LINE
  8
CSLAYER1
  6
CONTINUOUS
 62
     5
 10
2867.171881
 20
198.433050
 11
2867.171881
 21
197.970718
  0
LINE
  8
CSLAYER1
  6
CONTINUOUS
 62
     5
 10
2924.671881
 20
190.468109
 11
2915.829323
 21
192.778771
  0
LINE
  8
CSLAYER1
  6
CONTINUOUS
 62
     5
 10
2902.018118
 20
196.113773
 11
2912.171881
 21
194.141389
  0
LINE
  8
CSLAYER1
  6
CONTINUOUS
 62
     5
 10
2912.171881
 20
194.141389
 11
2915.829323
 21
192.778771
  0
LINE
  8
CSLAYER1
  6
CONTINUOUS
 62
     5
 10
2924.671881
 20
190.468109
 11
2924.379264
 21
189.629003
  0
LINE
  8
CSLAYER1
  6
CONTINUOUS
 62
     5
 10
2934.171881
 20
184.968109
 11
2933.865854
 21
186.197090
  0
LINE
  8
CSLAYER1
  6
CONTINUOUS
 62
     5
 10
2924.379264
 20
189.629003
 11
2933.865854
 21
186.197090
  0
LINE
  8
CSLAYER1
  6
CONTINUOUS
 62
     5
 10
2870.671881
 20
190.468109
 11
2873.094919
 21
190.468109
  0
LINE
  8
CSLAYER1
  6
CONTINUOUS
 62
     5
 10
2893.171881
 20
190.900604
 11
2893.171881
 21
190.468109
  0
LINE
  8
CSLAYER1
  6
CONTINUOUS
 62
     5
 10
2892.171881
 20
191.435045
 11
2890.460602
 21
192.072224
  0
LINE
  8
CSLAYER1
  6
CONTINUOUS
 62
     5
 10
2890.460602
 20
192.072224
 11
2889.350546
 21
192.122681
  0
LINE
  8
CSLAYER1
  6
CONTINUOUS
 62
     5
 10
2889.350546
 20
192.122681
 11
2888.871204
 21
191.870395
  0
LINE
  8
CSLAYER1
  6
CONTINUOUS
 62
     5
 10
2888.871204
 20
191.870395
 11
2888.770289
 21
191.466739
  0
LINE
  8
CSLAYER1
  6
CONTINUOUS
 62
     5
 10
2888.770289
 20
191.466739
 11
2889.224403
 21
191.163996
  0
LINE
  8
CSLAYER1
  6
CONTINUOUS
 62
     5
 10
2889.224403
 20
191.163996
 11
2890.864259
 21
191.012625
  0
LINE
  8
CSLAYER1
  6
CONTINUOUS
 62
     5
 10
2890.864259
 20
191.012625
 11
2893.171881
 21
190.900604
  0
LINE
  8
CSLAYER1
  6
CONTINUOUS
 62
     5
 10
2934.171881
 20
184.968109
 11
2931.196339
 21
186.154690
  0
LINE
  8
CSLAYER1
  6
CONTINUOUS
 62
     5
 10
2931.196339
 20
186.154690
 11
2921.140649
 21
187.997566
  0
LINE
  8
CSLAYER1
  6
CONTINUOUS
 62
     5
 10
2921.140649
 20
187.997566
 11
2916.114869
 21
189.157361
  0
LINE
  8
CSLAYER1
  6
CONTINUOUS
 62
     5
 10
2893.706102
 20
191.468109
 11
2905.471768
 21
191.468109
  0
LINE
  8
CSLAYER1
  6
CONTINUOUS
 62
     5
 10
2892.171881
 20
191.435045
 11
2892.696541
 21
191.126578
  0
LINE
  8
CSLAYER1
  6
CONTINUOUS
 62
     5
 10
2892.696541
 20
191.126578
 11
2892.993353
 21
191.037534
  0
LINE
  8
CSLAYER1
  6
CONTINUOUS
 62
     5
 10
2892.993353
 20
191.037534
 11
2893.171881
 21
191.062705
  0
LINE
  8
CSLAYER1
  6
CONTINUOUS
 62
     5
 10
2893.171881
 20
191.062705
 11
2893.706102
 21
191.468109
  0
LINE
  8
CSLAYER1
  6
CONTINUOUS
 62
     5
 10
2905.471768
 20
191.468109
 11
2909.922037
 21
190.439283
  0
LINE
  8
CSLAYER1
  6
CONTINUOUS
 62
     5
 10
2909.922037
 20
190.439283
 11
2914.075229
 21
189.274134
  0
LINE
  8
CSLAYER1
  6
CONTINUOUS
 62
     5
 10
2914.075229
 20
189.274134
 11
2916.114869
 21
189.157361
  0
LINE
  8
CSLAYER1
  6
CONTINUOUS
 62
     5
 10
2869.671881
 20
189.468109
 11
2869.671881
 21
188.968109
  0
LINE
  8
CSLAYER1
  6
CONTINUOUS
 62
     5
 10
2867.171881
 20
188.968109
 11
2869.671881
 21
188.968109
  0
ARC
  8
CSLAYER1
  6
CONTINUOUS
 62
     5
 10
2870.671881
 20
189.468109
 40
1.000000
 50
90.000000
 51
180.000000
  0
LINE
  8
CSLAYER1
  6
CONTINUOUS
 62
     5
 10
2873.094919
 20
190.468109
 11
2873.792476
 21
189.896112
  0
LINE
  8
CSLAYER1
  6
CONTINUOUS
 62
     5
 10
2874.394844
 20
189.872152
 11
2875.252441
 21
190.468109
  0
LINE
  8
CSLAYER1
  6
CONTINUOUS
 62
     5
 10
2876.830837
 20
190.468109
 11
2878.497962
 21
189.810033
  0
LINE
  8
CSLAYER1
  6
CONTINUOUS
 62
     5
 10
2878.921672
 20
189.836545
 11
2880.075159
 21
190.468109
  0
LINE
  8
CSLAYER1
  6
CONTINUOUS
 62
     5
 10
2875.252441
 20
190.468109
 11
2876.830837
 21
190.468109
  0
LINE
  8
CSLAYER1
  6
CONTINUOUS
 62
     5
 10
2880.075159
 20
190.468109
 11
2893.171881
 21
190.468109
  0
LINE
  8
CSLAYER1
  6
CONTINUOUS
 62
     5
 10
2845.720864
 20
187.359282
 11
2867.171881
 21
188.968109
  0
LINE
  8
CSLAYER1
  6
CONTINUOUS
 62
     5
 10
2841.719514
 20
187.445333
 11
2845.720864
 21
187.359282
  0
ARC
  8
CSLAYER1
  6
CONTINUOUS
 62
     5
 10
2874.109516
 20
190.282746
 40
0.500000
 50
230.648247
 51
304.796026
  0
ARC
  8
CSLAYER1
  6
CONTINUOUS
 62
     5
 10
2878.681546
 20
190.275111
 40
0.500000
 50
248.459024
 51
298.701829
  0
ARC
  8
CSLAYER1
  6
CONTINUOUS
 62
     5
 10
2833.927269
 20
196.983220
 40
0.300000
 50
-84.093859
 51
36.869898
  0
ARC
  8
CSLAYER1
  6
CONTINUOUS
 62
     5
 10
2833.461665
 20
198.914492
 40
0.700000
 50
85.301319
 51
194.142980
  0
LINE
  8
CSLAYER1
  6
CONTINUOUS
 62
     3
 10
2865.653706
 20
181.701264
 11
2873.764201
 21
181.701264
  0
LINE
  8
CSLAYER1
  6
CONTINUOUS
 62
     3
 10
2859.241189
 20
180.101264
 11
2876.884530
 21
180.101264
  0
LINE
  8
CSLAYER1
  6
CONTINUOUS
 62
     3
 10
2855.828250
 20
178.501264
 11
2879.759895
 21
178.501264
  0
LINE
  8
CSLAYER1
  6
CONTINUOUS
 62
     3
 10
2853.592931
 20
176.901264
 11
2881.603368
 21
176.901264
  0
LINE
  8
CSLAYER1
  6
CONTINUOUS
 62
     3
 10
2852.097275
 20
175.301264
 11
2882.837653
 21
175.301264
  0
LINE
  8
CSLAYER1
  6
CONTINUOUS
 62
     3
 10
2850.876961
 20
173.701264
 11
2883.887030
 21
173.701264
  0
LINE
  8
CSLAYER1
  6
CONTINUOUS
 62
     3
 10
2850.185069
 20
172.101264
 11
2884.612905
 21
172.101264
  0
LINE
  8
CSLAYER1
  6
CONTINUOUS
 62
     3
 10
2849.493177
 20
170.501264
 11
2884.951291
 21
170.501264
  0
LINE
  8
CSLAYER1
  6
CONTINUOUS
 62
     3
 10
2848.844827
 20
168.901264
 11
2885.289677
 21
168.901264
  0
LINE
  8
CSLAYER1
  6
CONTINUOUS
 62
     3
 10
2848.523168
 20
167.301264
 11
2885.628063
 21
167.301264
  0
LINE
  8
CSLAYER1
  6
CONTINUOUS
 62
     3
 10
2848.201509
 20
165.701264
 11
2863.791752
 21
165.701264
  0
LINE
  8
CSLAYER1
  6
CONTINUOUS
 62
     3
 10
2847.879850
 20
164.101264
 11
2862.259491
 21
164.101264
  0
LINE
  8
CSLAYER1
  6
CONTINUOUS
 62
     3
 10
2847.558191
 20
162.501264
 11
2861.471321
 21
162.501264
  0
LINE
  8
CSLAYER1
  6
CONTINUOUS
 62
     3
 10
2847.317073
 20
160.901264
 11
2861.152554
 21
160.901264
  0
LINE
  8
CSLAYER1
  6
CONTINUOUS
 62
     3
 10
2847.196903
 20
159.301264
 11
2861.202575
 21
159.301264
  0
LINE
  8
CSLAYER1
  6
CONTINUOUS
 62
     3
 10
2847.171881
 20
157.701264
 11
2861.748662
 21
157.701264
  0
LINE
  8
CSLAYER1
  6
CONTINUOUS
 62
     3
 10
2847.671069
 20
156.101264
 11
2863.778664
 21
156.101264
  0
LINE
  8
CSLAYER1
  6
CONTINUOUS
 62
     3
 10
2848.382180
 20
154.501264
 11
2880.910036
 21
154.501264
  0
LINE
  8
CSLAYER1
  6
CONTINUOUS
 62
     3
 10
2849.093292
 20
152.901264
 11
2880.458754
 21
152.901264
  0
LINE
  8
CSLAYER1
  6
CONTINUOUS
 62
     3
 10
2849.804403
 20
151.301264
 11
2879.735730
 21
151.301264
  0
LINE
  8
CSLAYER1
  6
CONTINUOUS
 62
     3
 10
2850.766362
 20
149.701264
 11
2878.837543
 21
149.701264
  0
LINE
  8
CSLAYER1
  6
CONTINUOUS
 62
     3
 10
2852.014823
 20
148.101264
 11
2877.332617
 21
148.101264
  0
LINE
  8
CSLAYER1
  6
CONTINUOUS
 62
     3
 10
2853.620243
 20
146.501264
 11
2874.940156
 21
146.501264
  0
LINE
  8
CSLAYER1
  6
CONTINUOUS
 62
     3
 10
2855.767385
 20
144.901264
 11
2871.815033
 21
144.901264
  0
LINE
  8
CSLAYER1
  6
CONTINUOUS
 62
     3
 10
2859.015075
 20
143.301264
 11
2867.176884
 21
143.301264
  0
LINE
  8
CSLAYER1
  6
CONTINUOUS
 62
     3
 10
2868.983576
 20
165.701264
 11
2885.803313
 21
165.701264
  0
LINE
  8
CSLAYER1
  6
CONTINUOUS
 62
     3
 10
2869.654320
 20
164.101264
 11
2885.677543
 21
164.101264
  0
LINE
  8
CSLAYER1
  6
CONTINUOUS
 62
     3
 10
2869.766327
 20
162.501264
 11
2885.551774
 21
162.501264
  0
LINE
  8
CSLAYER1
  6
CONTINUOUS
 62
     3
 10
2869.520970
 20
160.901264
 11
2884.837918
 21
160.901264
  0
LINE
  8
CSLAYER1
  6
CONTINUOUS
 62
     3
 10
2868.869324
 20
159.301264
 11
2884.116718
 21
159.301264
  0
LINE
  8
CSLAYER1
  6
CONTINUOUS
 62
     3
 10
2867.736061
 20
157.701264
 11
2883.182770
 21
157.701264
  0
LINE
  8
CSLAYER1
  6
CONTINUOUS
 62
     3
 10
2865.480064
 20
156.101264
 11
2881.912063
 21
156.101264
  0
TEXT
  8
CSLAYER1
 62
     5
 10
2886.343534
 20
163.712429
 40
4.713448
 41
1.951056
  1
M
 50
0.000000
 51
0.000000
  7
EASYDRAW_FONT
 72
     5
 11
2892.474337
 21
163.712429
  0
TEXT
  8
CSLAYER1
 62
     5
 10
2895.994922
 20
163.654158
 40
4.626621
 41
0.778201
  1
T
 50
0.000000
 51
0.000000
  7
EASYDRAW_FONT
 72
     5
 11
2898.395215
 21
163.654158
  0
TEXT
  8
CSLAYER1
 62
     5
 10
2898.760484
 20
163.688957
 40
4.696183
 41
1.055553
  1
E
 50
0.000000
 51
0.000000
  7
EASYDRAW_FONT
 72
     5
 11
2902.065199
 21
163.688957
  0
TEXT
  8
CSLAYER1
 62
     5
 10
2901.876665
 20
165.304801
 40
0.348283
 41
9.375319
  1
-
 50
0.000000
 51
0.000000
  7
EASYDRAW_FONT
 72
     5
 11
2904.053510
 21
165.304801
  0
TEXT
  8
CSLAYER1
 62
     5
 10
2903.690875
 20
163.657610
 40
4.861659
 41
1.298502
  1
H
 50
0.000000
 51
0.000000
  7
EASYDRAW_FONT
 72
     5
 11
2907.899457
 21
163.657610
  0
TEXT
  8
CSLAYER1
 62
     5
 10
2907.766890
 20
163.687989
 40
4.843139
 41
1.269236
  1
A
 50
0.000000
 51
0.000000
  7
EASYDRAW_FONT
 72
     5
 11
2911.864946
 21
163.687989
  0
TEXT
  8
CSLAYER1
 62
     5
 10
2911.473046
 20
163.646462
 40
4.825362
 41
1.490144
  1
N
 50
0.000000
 51
0.000000
  7
EASYDRAW_FONT
 72
     5
 11
2916.266700
 21
163.646462
  0
TEXT
  8
CSLAYER1
 62
     5
 10
2892.264503
 20
163.623889
 40
4.982325
 41
1.177443
  1
A
 50
0.000000
 51
0.000000
  7
EASYDRAW_FONT
 72
     5
 11
2896.175438
 21
163.623889
  0
TEXT
  8
CSLAYER1
 62
     5
 10
2886.710548
 20
156.628650
 40
4.982325
 41
1.177443
  1
A
 50
0.000000
 51
0.000000
  7
EASYDRAW_FONT
 72
     5
 11
2890.621483
 21
156.628650
  0
TEXT
  8
CSLAYER1
 62
     5
 10
2899.494972
 20
156.656970
 40
4.982325
 41
1.177443
  1
A
 50
0.000000
 51
0.000000
  7
EASYDRAW_FONT
 72
     5
 11
2903.405907
 21
156.656970
  0
TEXT
  8
CSLAYER1
 62
     5
 10
2903.255517
 20
156.713967
 40
4.825362
 41
1.490144
  1
N
 50
0.000000
 51
0.000000
  7
EASYDRAW_FONT
 72
     5
 11
2908.049171
 21
156.713967
  0
TEXT
  8
CSLAYER1
 62
     5
 10
2912.157853
 20
156.722362
 40
4.841775
 41
1.184218
  1
E
 50
0.000000
 51
0.000000
  7
EASYDRAW_FONT
 72
     5
 11
2915.980331
 21
156.722362
  0
TEXT
  8
CSLAYER1
 62
     5
 10
2890.991102
 20
156.627325
 40
4.947865
 41
1.093992
  1
D
 50
0.000000
 51
0.000000
  7
EASYDRAW_FONT
 72
     5
 11
2894.599718
 21
156.627325
  0
TEXT
  8
CSLAYER1
 62
     5
 10
2895.393460
 20
156.621940
 40
4.924210
 41
1.228195
  1
V
 50
0.000000
 51
0.000000
  7
EASYDRAW_FONT
 72
     5
 11
2899.425387
 21
156.621940
  0
TEXT
  8
CSLAYER1
 62
     5
 10
2907.618661
 20
156.642672
 40
5.032894
 41
1.481023
  1
C
 50
0.000000
 51
0.000000
  7
EASYDRAW_FONT
 72
     5
 11
2912.587882
 21
156.642672
  0
LINE
  8
CSLAYER1
  6
CONTINUOUS
 62
     5
 10
2898.249218
 20
167.703081
 11
2897.237156
 21
167.703081
  0
LINE
  8
CSLAYER1
  6
CONTINUOUS
 62
     3
 10
2847.347456
 20
201.928352
 11
2897.145282
 21
201.928352
  0
LINE
  8
CSLAYER1
  6
CONTINUOUS
 62
     3
 10
2840.235092
 20
200.328352
 11
2908.224974
 21
200.328352
  0
LINE
  8
CSLAYER1
  6
CONTINUOUS
 62
     3
 10
2832.786688
 20
198.728352
 11
2878.209998
 21
198.728352
  0
LINE
  8
CSLAYER1
  6
CONTINUOUS
 62
     3
 10
2891.171548
 20
198.728352
 11
2900.758151
 21
198.728352
  0
LINE
  8
CSLAYER1
  6
CONTINUOUS
 62
     3
 10
2905.067285
 20
198.728352
 11
2913.580282
 21
198.728352
  0
LINE
  8
CSLAYER1
  6
CONTINUOUS
 62
     3
 10
2834.189827
 20
197.128352
 11
2890.896296
 21
197.128352
  0
LINE
  8
CSLAYER1
  6
CONTINUOUS
 62
     3
 10
2911.076434
 20
197.128352
 11
2917.182680
 21
197.128352
  0
LINE
  8
CSLAYER1
  6
CONTINUOUS
 62
     3
 10
2832.277493
 20
195.528352
 11
2905.031844
 21
195.528352
  0
LINE
  8
CSLAYER1
  6
CONTINUOUS
 62
     3
 10
2916.977733
 20
195.528352
 11
2919.211455
 21
195.528352
  0
LINE
  8
CSLAYER1
  6
CONTINUOUS
 62
     3
 10
2831.215268
 20
193.928352
 11
2912.743700
 21
193.928352
  0
LINE
  8
CSLAYER1
  6
CONTINUOUS
 62
     3
 10
2832.890935
 20
192.328352
 11
2917.553009
 21
192.328352
  0
LINE
  8
CSLAYER1
  6
CONTINUOUS
 62
     3
 10
2834.058502
 20
190.728352
 11
2893.171881
 21
190.728352
  0
LINE
  8
CSLAYER1
  6
CONTINUOUS
 62
     3
 10
2908.671646
 20
190.728352
 11
2923.675969
 21
190.728352
  0
LINE
  8
CSLAYER1
  6
CONTINUOUS
 62
     3
 10
2834.303626
 20
189.128352
 11
2869.671881
 21
189.128352
  0
LINE
  8
CSLAYER1
  6
CONTINUOUS
 62
     3
 10
2916.240575
 20
189.128352
 11
2925.763178
 21
189.128352
  0
LINE
  8
CSLAYER1
  6
CONTINUOUS
 62
     3
 10
2834.509951
 20
187.528352
 11
2847.975124
 21
187.528352
  0
LINE
  8
CSLAYER1
  6
CONTINUOUS
 62
     3
 10
2923.700924
 20
187.528352
 11
2930.185942
 21
187.528352
  0
LINE
  8
CSLAYER1
  6
CONTINUOUS
 62
     3
 10
2931.763918
 20
185.928352
 11
2933.932772
 21
185.928352
  0
ENDBLK
  8
0
  0
BLOCK
  8
CSLAYER1
  2
BLKF0001
 70
   64
 10
0.0
 20
0.0
 30
0.0
  0
ARC
  8
CSLAYER1
  6
CONTINUOUS
 62
     3
 10
1486.105549
 20
1486.895627
 40
9.500000
 50
-190.922071
 51
10.922071
  0
LINE
  8
CSLAYER1
  6
CONTINUOUS
 62
     3
 10
1476.605549
 20
1488.695627
 11
1476.605549
 21
1481.410800
  0
LINE
  8
CSLAYER1
  6
CONTINUOUS
 62
     3
 10
1476.605549
 20
1481.410800
 11
1486.105549
 21
1475.925972
  0
LINE
  8
CSLAYER1
  6
CONTINUOUS
 62
     3
 10
1486.105549
 20
1475.925972
 11
1495.605549
 21
1481.410800
  0
LINE
  8
CSLAYER1
  6
CONTINUOUS
 62
     3
 10
1495.605549
 20
1481.410800
 11
1495.605549
 21
1488.695627
  0
POINT
  8
CSLAYER1
 62
     3
 10
1486.105549
 20
1486.895627
  0
LINE
  8
CSLAYER1
  6
CONTINUOUS
 62
     3
 10
1463.805549
 20
1506.695627
 11
1463.805549
 21
1488.695627
  0
LINE
  8
CSLAYER1
  6
CONTINUOUS
 62
     3
 10
2363.805549
 20
1506.695627
 11
2363.805549
 21
1488.695627
  0
LINE
  8
CSLAYER1
  6
CONTINUOUS
 62
     3
 10
1516.105549
 20
1474.395627
 11
2346.105549
 21
1474.395627
  0
LINE
  8
CSLAYER1
  6
CONTINUOUS
 62
     3
 10
1463.805549
 20
1506.695627
 11
2363.805549
 21
1506.695627
  0
LINE
  8
CSLAYER1
  6
CONTINUOUS
 62
     3
 10
1463.805549
 20
1488.695627
 11
2363.805549
 21
1488.695627
  0
LINE
  8
CSLAYER1
  6
CONTINUOUS
 62
     3
 10
1466.105549
 20
1488.695627
 11
1466.105549
 21
1481.395627
  0
LINE
  8
CSLAYER1
  6
CONTINUOUS
 62
     3
 10
1463.805549
 20
1488.695627
 11
1466.105549
 21
1488.695627
  0
LINE
  8
CSLAYER1
  6
CONTINUOUS
 62
     3
 10
1471.105549
 20
1476.395627
 11
1485.292082
 21
1476.395627
  0
ARC
  8
CSLAYER1
  6
CONTINUOUS
 62
     3
 10
1471.105549
 20
1481.395627
 40
5.000000
 50
180.000000
 51
270.000000
  0
LINE
  8
CSLAYER1
  6
CONTINUOUS
 62
     3
 10
2346.105549
 20
1488.695627
 11
2346.105549
 21
1474.395627
  0
LINE
  8
CSLAYER1
  6
CONTINUOUS
 62
     3
 10
1516.105549
 20
1485.395627
 11
1491.105549
 21
1476.395627
  0
LINE
  8
CSLAYER1
  6
CONTINUOUS
 62
     3
 10
1516.105549
 20
1488.695627
 11
1516.105549
 21
1474.395627
  0
ARC
  8
CSLAYER1
  6
DASHED
 62
     5
 10
1976.774836
 20
1486.895627
 40
13.000000
 50
-74.057631
 51
254.057631
  0
POINT
  8
CSLAYER1
 62
     4
 10
1976.774836
 20
1486.895627
  0
POINT
  8
CSLAYER1
 62
     7
 10
1486.105549
 20
1486.895627
  0
ARC
  8
CSLAYER1
  6
CONTINUOUS
 62
     4
 10
1976.774836
 20
1486.895627
 40
13.000000
 50
254.057631
 51
285.942369
  0
LINE
  8
CSLAYER1
  6
CONTINUOUS
 62
     3
 10
1486.919015
 20
1476.395627
 11
1491.105549
 21
1476.395627
  0
LINE
  8
CSLAYER1
  6
CENTER
 62
     5
 10
1486.105549
 20
1497.495700
 11
1486.105549
 21
1474.842992
  0
LINE
  8
CSLAYER1
  6
CENTER
 62
     5
 10
1475.125653
 20
1486.895627
 11
1497.350951
 21
1486.895627
  0
LINE
  8
CSLAYER1
  6
CENTER
 62
     5
 10
1976.774836
 20
1503.169451
 11
1976.774836
 21
1469.651906
  0
LINE
  8
CSLAYER1
  6
CENTER
 62
     5
 10
1960.855180
 20
1486.895627
 11
1992.925925
 21
1486.895627
  0
ENDBLK
  8
0
  0
BLOCK
  8
CSLAYER1
  2
BLKF0002
 70
   64
 10
0.0
 20
0.0
 30
0.0
  0
LINE
  8
CSLAYER1
  6
CONTINUOUS
 62
     3
 10
1483.696523
 20
796.402217
 11
1483.696523
 21
830.402217
  0
LINE
  8
CSLAYER1
  6
CONTINUOUS
 62
     3
 10
1489.696523
 20
790.402217
 11
1489.696523
 21
796.402217
  0
ENDBLK
  8
0
  0
BLOCK
  8
CSLAYER1
  2
BLKF0003
 70
   64
 10
0.0
 20
0.0
 30
0.0
  0
TEXT
  8
CSLAYER1
 62
     7
 10
1221.838135
 20
1325.682495
 40
40.000000
 41
0.787500
  1
テーブルのズレ
 50
0.000000
 51
0.000000
  7
EASYDRAW_FONT
 72
     5
 11
1431.838135
 21
1325.682495
  0
DIMENSION
  8
CSLAYER1
 62
     3
  2
*D0007
 10
1463.805549
 20
1262.077089
 11
1355.687744
 21
1284.300171
 13
1442.396523
 23
855.402217
 14
1463.805549
 24
1506.695627
  0
INSERT
  8
CSLAYER1
  2
EASYDRAWDIM0001
 10
0.0
 20
0.0
 30
0.0
  0
ENDBLK
  8
0
  0
BLOCK
  8
CSLAYER1
  2
BLKF0004
 70
   64
 10
0.0
 20
0.0
 30
0.0
  0
TEXT
  8
CSLAYER1
 62
     7
 10
529.992981
 20
2371.614502
 40
40.000000
 41
0.778846
  1
電動式油圧ユニット
 50
0.000000
 51
0.000000
  7
EASYDRAW_FONT
 72
     5
 11
799.992981
 21
2371.614502
  0
LINE
  8
CSLAYER1
  6
CONTINUOUS
 62
     5
 10
252.287276
 20
2434.689588
 11
1097.218783
 21
2434.689588
  0
LINE
  8
CSLAYER1
  6
CONTINUOUS
 62
     5
 10
1097.218783
 20
2434.689588
 11
1097.218783
 21
1609.825740
  0
LINE
  8
CSLAYER1
  6
CONTINUOUS
 62
     5
 10
252.287276
 20
1609.825740
 11
252.287276
 21
2434.689588
  0
TEXT
  8
CSLAYER1
 62
     3
 10
413.531527
 20
2246.443411
 40
39.957333
 41
1.050000
  1
278
 50
30.000000
 51
0.000000
  7
EASYDRAW_FONT
 72
     5
 11
510.422909
 21
2302.383676
  0
TEXT
  8
CSLAYER1
 62
     3
 10
585.385349
 20
2286.552622
 40
39.957333
 41
1.050000
  1
415
 50
-30.000000
 51
0.000000
  7
EASYDRAW_FONT
 72
     5
 11
682.276732
 21
2230.612356
  0
TEXT
  8
CSLAYER1
 62
     3
 10
337.869871
 20
2090.503826
 40
39.957333
 41
1.050000
  1
275
 50
90.000000
 51
0.000000
  7
EASYDRAW_FONT
 72
     5
 11
337.869871
 21
2202.384357
  0
LINE
  8
CSLAYER1
  6
CONTINUOUS
 62
     5
 10
350.625471
 20
2199.392427
 11
394.578538
 21
2174.016113
  0
LINE
  8
CSLAYER1
  6
CONTINUOUS
 62
     5
 10
398.574271
 20
2227.075680
 11
398.574271
 21
2176.323050
  0
LINE
  8
CSLAYER1
  6
CONTINUOUS
 62
     5
 10
702.250004
 20
2213.234054
 11
702.250004
 21
2162.481424
  0
LINE
  8
CSLAYER1
  6
CONTINUOUS
 62
     5
 10
398.574271
 20
2217.847929
 11
538.424938
 21
2298.590749
  0
LINE
  8
CSLAYER1
  6
CONTINUOUS
 62
     5
 10
398.574271
 20
2217.847929
 11
419.787474
 21
2239.061133
  0
LINE
  8
CSLAYER1
  6
CONTINUOUS
 62
     5
 10
398.574271
 20
2217.847929
 11
427.552046
 21
2225.612501
  0
LINE
  8
CSLAYER1
  6
CONTINUOUS
 62
     5
 10
538.424938
 20
2298.590749
 11
517.211734
 21
2277.377546
  0
LINE
  8
CSLAYER1
  6
CONTINUOUS
 62
     5
 10
538.424938
 20
2298.590749
 11
509.447163
 21
2290.826178
  0
LINE
  8
CSLAYER1
  6
CONTINUOUS
 62
     5
 10
538.424938
 20
2298.590749
 11
702.250004
 21
2204.006303
  0
LINE
  8
CSLAYER1
  6
CONTINUOUS
 62
     5
 10
538.424938
 20
2298.590749
 11
567.402712
 21
2290.826178
  0
LINE
  8
CSLAYER1
  6
CONTINUOUS
 62
     5
 10
538.424938
 20
2298.590749
 11
559.638141
 21
2277.377546
  0
LINE
  8
CSLAYER1
  6
CONTINUOUS
 62
     5
 10
702.250004
 20
2204.006303
 11
673.272229
 21
2211.770874
  0
LINE
  8
CSLAYER1
  6
CONTINUOUS
 62
     5
 10
702.250004
 20
2204.006303
 11
681.036801
 21
2225.219506
  0
LINE
  8
CSLAYER1
  6
CONTINUOUS
 62
     5
 10
538.424938
 20
2307.818500
 11
538.424938
 21
2257.065870
  0
LINE
  8
CSLAYER1
  6
CONTINUOUS
 62
     5
 10
358.616938
 20
2194.778552
 11
358.616938
 21
2079.431666
  0
LINE
  8
CSLAYER1
  6
CONTINUOUS
 62
     5
 10
358.616938
 20
2194.778552
 11
350.852366
 21
2165.800777
  0
LINE
  8
CSLAYER1
  6
CONTINUOUS
 62
     5
 10
358.616938
 20
2194.778552
 11
366.381509
 21
2165.800777
  0
LINE
  8
CSLAYER1
  6
CONTINUOUS
 62
     5
 10
358.616938
 20
2079.431666
 11
350.852366
 21
2108.409441
  0
LINE
  8
CSLAYER1
  6
CONTINUOUS
 62
     5
 10
358.616938
 20
2079.431666
 11
366.381509
 21
2108.409441
  0
TEXT
  8
CSLAYER1
 62
     3
 10
839.325607
 20
2176.542574
 40
39.957333
 41
1.028571
  1
高圧ホース
 50
0.000000
 51
0.000000
  7
EASYDRAW_FONT
 72
     5
 11
1031.120804
 21
2176.542574
  0
TEXT
  8
CSLAYER1
 62
     3
 10
316.146439
 20
1930.292696
 40
39.957333
 41
1.028571
  1
電源コード
 50
0.000000
 51
0.000000
  7
EASYDRAW_FONT
 72
     5
 11
507.941635
 21
1930.292696
  0
LINE
  8
CSLAYER1
  6
CONTINUOUS
 62
     5
 10
738.963304
 20
2018.842692
 11
825.298028
 21
2168.378819
  0
LINE
  8
CSLAYER1
  6
CONTINUOUS
 62
     5
 10
738.963304
 20
2018.842692
 11
746.727876
 21
2047.820467
  0
LINE
  8
CSLAYER1
  6
CONTINUOUS
 62
     5
 10
738.963304
 20
2018.842692
 11
760.176508
 21
2040.055895
  0
LINE
  8
CSLAYER1
  6
CONTINUOUS
 62
     5
 10
1046.012493
 20
2168.378819
 11
825.298028
 21
2168.378819
  0
LINE
  8
CSLAYER1
  6
CONTINUOUS
 62
     5
 10
318.684380
 20
1922.861861
 11
512.426859
 21
1922.861861
  0
LINE
  8
CSLAYER1
  6
CONTINUOUS
 62
     3
 10
562.399338
 20
1961.777843
 11
603.555391
 21
1985.539301
  0
LINE
  8
CSLAYER1
  6
CONTINUOUS
 62
     3
 10
398.574271
 20
2056.362289
 11
408.563604
 21
2050.594945
  0
LINE
  8
CSLAYER1
  6
CONTINUOUS
 62
     3
 10
562.399338
 20
2077.124729
 11
562.399338
 21
1961.777843
  0
LINE
  8
CSLAYER1
  6
CONTINUOUS
 62
     3
 10
562.399338
 20
2077.124729
 11
702.250004
 21
2157.867549
  0
LINE
  8
CSLAYER1
  6
CONTINUOUS
 62
     3
 10
538.424938
 20
2252.451995
 11
702.250004
 21
2157.867549
  0
LINE
  8
CSLAYER1
  6
CONTINUOUS
 62
     3
 10
562.399338
 20
1984.847220
 11
583.576724
 21
1997.073990
  0
LINE
  8
CSLAYER1
  6
CONTINUOUS
 62
     3
 10
660.661590
 20
2089.601122
 11
702.250004
 21
2065.590040
  0
LINE
  8
CSLAYER1
  6
CONTINUOUS
 62
     3
 10
552.410004
 20
1967.545187
 11
562.399338
 21
1961.777843
  0
LINE
  8
CSLAYER1
  6
CONTINUOUS
 62
     3
 10
658.296938
 20
2091.427742
 11
656.852219
 21
2092.121394
  0
LINE
  8
CSLAYER1
  6
CONTINUOUS
 62
     3
 10
656.852219
 20
2092.121394
 11
655.296855
 21
2092.599080
  0
LINE
  8
CSLAYER1
  6
CONTINUOUS
 62
     3
 10
655.296855
 20
2092.599080
 11
653.642684
 21
2092.857165
  0
LINE
  8
CSLAYER1
  6
CONTINUOUS
 62
     3
 10
653.642684
 20
2092.857165
 11
651.902295
 21
2092.893685
  0
LINE
  8
CSLAYER1
  6
CONTINUOUS
 62
     3
 10
651.902295
 20
2092.893685
 11
650.088933
 21
2092.708362
  0
LINE
  8
CSLAYER1
  6
CONTINUOUS
 62
     3
 10
650.088933
 20
2092.708362
 11
648.216400
 21
2092.302607
  0
LINE
  8
CSLAYER1
  6
CONTINUOUS
 62
     3
 10
648.216400
 20
2092.302607
 11
646.298946
 21
2091.679507
  0
LINE
  8
CSLAYER1
  6
CONTINUOUS
 62
     3
 10
646.298946
 20
2091.679507
 11
644.351163
 21
2090.843805
  0
LINE
  8
CSLAYER1
  6
CONTINUOUS
 62
     3
 10
644.351163
 20
2090.843805
 11
642.387877
 21
2089.801860
  0
LINE
  8
CSLAYER1
  6
CONTINUOUS
 62
     3
 10
642.387877
 20
2089.801860
 11
640.424029
 21
2088.561603
  0
LINE
  8
CSLAYER1
  6
CONTINUOUS
 62
     3
 10
640.424029
 20
2088.561603
 11
638.474564
 21
2087.132473
  0
LINE
  8
CSLAYER1
  6
CONTINUOUS
 62
     3
 10
638.474564
 20
2087.132473
 11
636.554320
 21
2085.525347
  0
LINE
  8
CSLAYER1
  6
CONTINUOUS
 62
     3
 10
636.554320
 20
2085.525347
 11
634.677911
 21
2083.752455
  0
LINE
  8
CSLAYER1
  6
CONTINUOUS
 62
     3
 10
634.677911
 20
2083.752455
 11
632.859616
 21
2081.827290
  0
LINE
  8
CSLAYER1
  6
CONTINUOUS
 62
     3
 10
632.859616
 20
2081.827290
 11
631.113276
 21
2079.764504
  0
LINE
  8
CSLAYER1
  6
CONTINUOUS
 62
     3
 10
631.113276
 20
2079.764504
 11
629.452180
 21
2077.579796
  0
LINE
  8
CSLAYER1
  6
CONTINUOUS
 62
     3
 10
629.452180
 20
2077.579796
 11
627.888970
 21
2075.289793
  0
LINE
  8
CSLAYER1
  6
CONTINUOUS
 62
     3
 10
627.888970
 20
2075.289793
 11
626.435543
 21
2072.911924
  0
LINE
  8
CSLAYER1
  6
CONTINUOUS
 62
     3
 10
626.435543
 20
2072.911924
 11
625.102961
 21
2070.464284
  0
LINE
  8
CSLAYER1
  6
CONTINUOUS
 62
     3
 10
625.102961
 20
2070.464284
 11
623.901365
 21
2067.965503
  0
LINE
  8
CSLAYER1
  6
CONTINUOUS
 62
     3
 10
623.901365
 20
2067.965503
 11
622.839901
 21
2065.434598
  0
LINE
  8
CSLAYER1
  6
CONTINUOUS
 62
     3
 10
622.839901
 20
2065.434598
 11
621.926646
 21
2062.890830
  0
LINE
  8
CSLAYER1
  6
CONTINUOUS
 62
     3
 10
621.926646
 20
2062.890830
 11
621.168552
 21
2060.353558
  0
LINE
  8
CSLAYER1
  6
CONTINUOUS
 62
     3
 10
621.168552
 20
2060.353558
 11
620.571387
 21
2057.842094
  0
LINE
  8
CSLAYER1
  6
CONTINUOUS
 62
     3
 10
620.571387
 20
2057.842094
 11
620.139696
 21
2055.375551
  0
LINE
  8
CSLAYER1
  6
CONTINUOUS
 62
     3
 10
620.139696
 20
2055.375551
 11
619.876766
 21
2052.972700
  0
LINE
  8
CSLAYER1
  6
CONTINUOUS
 62
     3
 10
619.876766
 20
2052.972700
 11
619.784596
 21
2050.651829
  0
LINE
  8
CSLAYER1
  6
CONTINUOUS
 62
     3
 10
619.784596
 20
2050.651829
 11
619.863889
 21
2048.430601
  0
LINE
  8
CSLAYER1
  6
CONTINUOUS
 62
     3
 10
619.863889
 20
2048.430601
 11
620.114040
 21
2046.325921
  0
LINE
  8
CSLAYER1
  6
CONTINUOUS
 62
     3
 10
620.114040
 20
2046.325921
 11
620.533147
 21
2044.353807
  0
LINE
  8
CSLAYER1
  6
CONTINUOUS
 62
     3
 10
620.533147
 20
2044.353807
 11
621.118020
 21
2042.529267
  0
LINE
  8
CSLAYER1
  6
CONTINUOUS
 62
     3
 10
621.118020
 20
2042.529267
 11
621.864206
 21
2040.866189
  0
LINE
  8
CSLAYER1
  6
CONTINUOUS
 62
     3
 10
621.864206
 20
2040.866189
 11
622.766028
 21
2039.377228
  0
LINE
  8
CSLAYER1
  6
CONTINUOUS
 62
     3
 10
622.766028
 20
2039.377228
 11
623.816622
 21
2038.073716
  0
LINE
  8
CSLAYER1
  6
CONTINUOUS
 62
     3
 10
625.007992
 20
2036.965575
 11
626.331071
 21
2036.061237
  0
LINE
  8
CSLAYER1
  6
CONTINUOUS
 62
     3
 10
626.331071
 20
2036.061237
 11
627.775790
 21
2035.367586
  0
LINE
  8
CSLAYER1
  6
CONTINUOUS
 62
     3
 10
627.775790
 20
2035.367586
 11
629.331154
 21
2034.889900
  0
LINE
  8
CSLAYER1
  6
CONTINUOUS
 62
     3
 10
629.331154
 20
2034.889900
 11
630.985324
 21
2034.631815
  0
LINE
  8
CSLAYER1
  6
CONTINUOUS
 62
     3
 10
630.985324
 20
2034.631815
 11
632.725713
 21
2034.595295
  0
LINE
  8
CSLAYER1
  6
CONTINUOUS
 62
     3
 10
632.725713
 20
2034.595295
 11
634.539075
 21
2034.780617
  0
LINE
  8
CSLAYER1
  6
CONTINUOUS
 62
     3
 10
634.539075
 20
2034.780617
 11
636.411609
 21
2035.186373
  0
LINE
  8
CSLAYER1
  6
CONTINUOUS
 62
     3
 10
636.411609
 20
2035.186373
 11
638.329063
 21
2035.809473
  0
LINE
  8
CSLAYER1
  6
CONTINUOUS
 62
     3
 10
638.329063
 20
2035.809473
 11
640.276845
 21
2036.645175
  0
LINE
  8
CSLAYER1
  6
CONTINUOUS
 62
     3
 10
640.276845
 20
2036.645175
 11
642.240131
 21
2037.687119
  0
LINE
  8
CSLAYER1
  6
CONTINUOUS
 62
     3
 10
642.240131
 20
2037.687119
 11
644.203980
 21
2038.927376
  0
LINE
  8
CSLAYER1
  6
CONTINUOUS
 62
     3
 10
644.203980
 20
2038.927376
 11
646.153444
 21
2040.356506
  0
LINE
  8
CSLAYER1
  6
CONTINUOUS
 62
     3
 10
646.153444
 20
2040.356506
 11
648.073689
 21
2041.963633
  0
LINE
  8
CSLAYER1
  6
CONTINUOUS
 62
     3
 10
648.073689
 20
2041.963633
 11
649.950098
 21
2043.736525
  0
LINE
  8
CSLAYER1
  6
CONTINUOUS
 62
     3
 10
649.950098
 20
2043.736525
 11
651.768392
 21
2045.661690
  0
LINE
  8
CSLAYER1
  6
CONTINUOUS
 62
     3
 10
651.768392
 20
2045.661690
 11
653.514733
 21
2047.724476
  0
LINE
  8
CSLAYER1
  6
CONTINUOUS
 62
     3
 10
653.514733
 20
2047.724476
 11
655.175829
 21
2049.909183
  0
LINE
  8
CSLAYER1
  6
CONTINUOUS
 62
     3
 10
655.175829
 20
2049.909183
 11
656.739039
 21
2052.199186
  0
LINE
  8
CSLAYER1
  6
CONTINUOUS
 62
     3
 10
656.739039
 20
2052.199186
 11
658.192466
 21
2054.577056
  0
LINE
  8
CSLAYER1
  6
CONTINUOUS
 62
     3
 10
658.192466
 20
2054.577056
 11
659.525048
 21
2057.024695
  0
LINE
  8
CSLAYER1
  6
CONTINUOUS
 62
     3
 10
659.525048
 20
2057.024695
 11
660.726643
 21
2059.523476
  0
LINE
  8
CSLAYER1
  6
CONTINUOUS
 62
     3
 10
660.726643
 20
2059.523476
 11
661.788108
 21
2062.054382
  0
LINE
  8
CSLAYER1
  6
CONTINUOUS
 62
     3
 10
661.788108
 20
2062.054382
 11
662.701362
 21
2064.598150
  0
LINE
  8
CSLAYER1
  6
CONTINUOUS
 62
     3
 10
662.701362
 20
2064.598150
 11
663.459457
 21
2067.135421
  0
LINE
  8
CSLAYER1
  6
CONTINUOUS
 62
     3
 10
663.459457
 20
2067.135421
 11
664.056622
 21
2069.646885
  0
LINE
  8
CSLAYER1
  6
CONTINUOUS
 62
     3
 10
664.056622
 20
2069.646885
 11
664.488312
 21
2072.113429
  0
LINE
  8
CSLAYER1
  6
CONTINUOUS
 62
     3
 10
664.488312
 20
2072.113429
 11
664.751243
 21
2074.516280
  0
LINE
  8
CSLAYER1
  6
CONTINUOUS
 62
     3
 10
664.751243
 20
2074.516280
 11
664.843413
 21
2076.837151
  0
LINE
  8
CSLAYER1
  6
CONTINUOUS
 62
     3
 10
664.843413
 20
2076.837151
 11
664.764120
 21
2079.058379
  0
LINE
  8
CSLAYER1
  6
CONTINUOUS
 62
     3
 10
664.764120
 20
2079.058379
 11
664.513968
 21
2081.163059
  0
LINE
  8
CSLAYER1
  6
CONTINUOUS
 62
     3
 10
664.513968
 20
2081.163059
 11
664.094861
 21
2083.135173
  0
LINE
  8
CSLAYER1
  6
CONTINUOUS
 62
     3
 10
664.094861
 20
2083.135173
 11
663.509989
 21
2084.959712
  0
LINE
  8
CSLAYER1
  6
CONTINUOUS
 62
     3
 10
663.509989
 20
2084.959712
 11
662.763802
 21
2086.622791
  0
LINE
  8
CSLAYER1
  6
CONTINUOUS
 62
     3
 10
662.763802
 20
2086.622791
 11
661.861981
 21
2088.111752
  0
LINE
  8
CSLAYER1
  6
CONTINUOUS
 62
     3
 10
661.861981
 20
2088.111752
 11
660.811387
 21
2089.415263
  0
LINE
  8
CSLAYER1
  6
CONTINUOUS
 62
     3
 10
660.811387
 20
2089.415263
 11
659.620017
 21
2090.523405
  0
LINE
  8
CSLAYER1
  6
CONTINUOUS
 62
     3
 10
659.620017
 20
2090.523405
 11
658.296938
 21
2091.427742
  0
LINE
  8
CSLAYER1
  6
CONTINUOUS
 62
     3
 10
562.399338
 20
2072.972241
 11
626.331071
 21
2036.061237
  0
LINE
  8
CSLAYER1
  6
CONTINUOUS
 62
     3
 10
622.734911
 20
2111.959488
 11
658.296938
 21
2091.427742
  0
LINE
  8
CSLAYER1
  6
CONTINUOUS
 62
     3
 10
408.563604
 20
2050.594945
 11
428.542271
 21
2062.129633
  0
LINE
  8
CSLAYER1
  6
CONTINUOUS
 62
     3
 10
398.574271
 20
2056.362289
 11
418.552938
 21
2067.896978
  0
LINE
  8
CSLAYER1
  6
CONTINUOUS
 62
     3
 10
648.307604
 20
2074.125710
 11
647.765835
 21
2074.385829
  0
LINE
  8
CSLAYER1
  6
CONTINUOUS
 62
     3
 10
647.765835
 20
2074.385829
 11
647.182573
 21
2074.564961
  0
LINE
  8
CSLAYER1
  6
CONTINUOUS
 62
     3
 10
647.182573
 20
2074.564961
 11
646.562259
 21
2074.661743
  0
LINE
  8
CSLAYER1
  6
CONTINUOUS
 62
     3
 10
646.562259
 20
2074.661743
 11
645.909613
 21
2074.675438
  0
LINE
  8
CSLAYER1
  6
CONTINUOUS
 62
     3
 10
645.909613
 20
2074.675438
 11
645.229603
 21
2074.605942
  0
LINE
  8
CSLAYER1
  6
CONTINUOUS
 62
     3
 10
645.229603
 20
2074.605942
 11
644.527403
 21
2074.453784
  0
LINE
  8
CSLAYER1
  6
CONTINUOUS
 62
     3
 10
644.527403
 20
2074.453784
 11
643.808357
 21
2074.220121
  0
LINE
  8
CSLAYER1
  6
CONTINUOUS
 62
     3
 10
643.808357
 20
2074.220121
 11
643.077939
 21
2073.906733
  0
LINE
  8
CSLAYER1
  6
CONTINUOUS
 62
     3
 10
643.077939
 20
2073.906733
 11
642.341707
 21
2073.516004
  0
LINE
  8
CSLAYER1
  6
CONTINUOUS
 62
     3
 10
642.341707
 20
2073.516004
 11
641.605263
 21
2073.050907
  0
LINE
  8
CSLAYER1
  6
CONTINUOUS
 62
     3
 10
641.605263
 20
2073.050907
 11
640.874214
 21
2072.514984
  0
LINE
  8
CSLAYER1
  6
CONTINUOUS
 62
     3
 10
640.874214
 20
2072.514984
 11
640.154123
 21
2071.912311
  0
LINE
  8
CSLAYER1
  6
CONTINUOUS
 62
     3
 10
640.154123
 20
2071.912311
 11
639.450469
 21
2071.247477
  0
LINE
  8
CSLAYER1
  6
CONTINUOUS
 62
     3
 10
639.450469
 20
2071.247477
 11
638.768609
 21
2070.525540
  0
LINE
  8
CSLAYER1
  6
CONTINUOUS
 62
     3
 10
638.768609
 20
2070.525540
 11
638.113731
 21
2069.751995
  0
LINE
  8
CSLAYER1
  6
CONTINUOUS
 62
     3
 10
638.113731
 20
2069.751995
 11
637.490820
 21
2068.932730
  0
LINE
  8
CSLAYER1
  6
CONTINUOUS
 62
     3
 10
637.490820
 20
2068.932730
 11
636.904616
 21
2068.073979
  0
LINE
  8
CSLAYER1
  6
CONTINUOUS
 62
     3
 10
636.904616
 20
2068.073979
 11
636.359581
 21
2067.182278
  0
LINE
  8
CSLAYER1
  6
CONTINUOUS
 62
     3
 10
636.359581
 20
2067.182278
 11
635.859863
 21
2066.264413
  0
LINE
  8
CSLAYER1
  6
CONTINUOUS
 62
     3
 10
635.859863
 20
2066.264413
 11
635.409265
 21
2065.327370
  0
LINE
  8
CSLAYER1
  6
CONTINUOUS
 62
     3
 10
635.409265
 20
2065.327370
 11
635.011215
 21
2064.378280
  0
LINE
  8
CSLAYER1
  6
CONTINUOUS
 62
     3
 10
635.011215
 20
2064.378280
 11
634.668745
 21
2063.424367
  0
LINE
  8
CSLAYER1
  6
CONTINUOUS
 62
     3
 10
634.668745
 20
2063.424367
 11
634.384460
 21
2062.472891
  0
LINE
  8
CSLAYER1
  6
CONTINUOUS
 62
     3
 10
634.384460
 20
2062.472891
 11
634.160523
 21
2061.531091
  0
LINE
  8
CSLAYER1
  6
CONTINUOUS
 62
     3
 10
634.160523
 20
2061.531091
 11
633.998639
 21
2060.606138
  0
LINE
  8
CSLAYER1
  6
CONTINUOUS
 62
     3
 10
633.998639
 20
2060.606138
 11
633.900040
 21
2059.705069
  0
LINE
  8
CSLAYER1
  6
CONTINUOUS
 62
     3
 10
633.900040
 20
2059.705069
 11
633.865476
 21
2058.834742
  0
LINE
  8
CSLAYER1
  6
CONTINUOUS
 62
     3
 10
633.865476
 20
2058.834742
 11
633.895211
 21
2058.001781
  0
LINE
  8
CSLAYER1
  6
CONTINUOUS
 62
     3
 10
633.895211
 20
2058.001781
 11
633.989018
 21
2057.212526
  0
LINE
  8
CSLAYER1
  6
CONTINUOUS
 62
     3
 10
633.989018
 20
2057.212526
 11
634.146183
 21
2056.472984
  0
LINE
  8
CSLAYER1
  6
CONTINUOUS
 62
     3
 10
634.146183
 20
2056.472984
 11
634.365510
 21
2055.788781
  0
LINE
  8
CSLAYER1
  6
CONTINUOUS
 62
     3
 10
634.365510
 20
2055.788781
 11
634.645330
 21
2055.165127
  0
LINE
  8
CSLAYER1
  6
CONTINUOUS
 62
     3
 10
634.645330
 20
2055.165127
 11
634.983513
 21
2054.606766
  0
LINE
  8
CSLAYER1
  6
CONTINUOUS
 62
     3
 10
634.983513
 20
2054.606766
 11
635.377486
 21
2054.117950
  0
LINE
  8
CSLAYER1
  6
CONTINUOUS
 62
     3
 10
635.377486
 20
2054.117950
 11
635.824250
 21
2053.702397
  0
LINE
  8
CSLAYER1
  6
CONTINUOUS
 62
     3
 10
635.824250
 20
2053.702397
 11
636.320404
 21
2053.363270
  0
LINE
  8
CSLAYER1
  6
CONTINUOUS
 62
     3
 10
636.320404
 20
2053.363270
 11
636.862174
 21
2053.103151
  0
LINE
  8
CSLAYER1
  6
CONTINUOUS
 62
     3
 10
636.862174
 20
2053.103151
 11
637.445435
 21
2052.924019
  0
LINE
  8
CSLAYER1
  6
CONTINUOUS
 62
     3
 10
637.445435
 20
2052.924019
 11
638.065749
 21
2052.827237
  0
LINE
  8
CSLAYER1
  6
CONTINUOUS
 62
     3
 10
638.065749
 20
2052.827237
 11
638.718395
 21
2052.813542
  0
LINE
  8
CSLAYER1
  6
CONTINUOUS
 62
     3
 10
638.718395
 20
2052.813542
 11
639.398406
 21
2052.883038
  0
LINE
  8
CSLAYER1
  6
CONTINUOUS
 62
     3
 10
639.398406
 20
2052.883038
 11
640.100606
 21
2053.035196
  0
LINE
  8
CSLAYER1
  6
CONTINUOUS
 62
     3
 10
640.100606
 20
2053.035196
 11
640.819651
 21
2053.268858
  0
LINE
  8
CSLAYER1
  6
CONTINUOUS
 62
     3
 10
640.819651
 20
2053.268858
 11
641.550070
 21
2053.582247
  0
LINE
  8
CSLAYER1
  6
CONTINUOUS
 62
     3
 10
641.550070
 20
2053.582247
 11
642.286302
 21
2053.972976
  0
LINE
  8
CSLAYER1
  6
CONTINUOUS
 62
     3
 10
642.286302
 20
2053.972976
 11
643.022745
 21
2054.438072
  0
LINE
  8
CSLAYER1
  6
CONTINUOUS
 62
     3
 10
643.022745
 20
2054.438072
 11
643.753794
 21
2054.973996
  0
LINE
  8
CSLAYER1
  6
CONTINUOUS
 62
     3
 10
643.753794
 20
2054.973996
 11
644.473886
 21
2055.576668
  0
LINE
  8
CSLAYER1
  6
CONTINUOUS
 62
     3
 10
644.473886
 20
2055.576668
 11
645.177539
 21
2056.241503
  0
LINE
  8
CSLAYER1
  6
CONTINUOUS
 62
     3
 10
645.177539
 20
2056.241503
 11
645.859400
 21
2056.963440
  0
LINE
  8
CSLAYER1
  6
CONTINUOUS
 62
     3
 10
645.859400
 20
2056.963440
 11
646.514277
 21
2057.736984
  0
LINE
  8
CSLAYER1
  6
CONTINUOUS
 62
     3
 10
646.514277
 20
2057.736984
 11
647.137189
 21
2058.556250
  0
LINE
  8
CSLAYER1
  6
CONTINUOUS
 62
     3
 10
647.137189
 20
2058.556250
 11
647.723392
 21
2059.415001
  0
LINE
  8
CSLAYER1
  6
CONTINUOUS
 62
     3
 10
647.723392
 20
2059.415001
 11
648.268427
 21
2060.306702
  0
LINE
  8
CSLAYER1
  6
CONTINUOUS
 62
     3
 10
648.268427
 20
2060.306702
 11
648.768146
 21
2061.224567
  0
LINE
  8
CSLAYER1
  6
CONTINUOUS
 62
     3
 10
648.768146
 20
2061.224567
 11
649.218744
 21
2062.161610
  0
LINE
  8
CSLAYER1
  6
CONTINUOUS
 62
     3
 10
649.218744
 20
2062.161610
 11
649.616793
 21
2063.110699
  0
LINE
  8
CSLAYER1
  6
CONTINUOUS
 62
     3
 10
649.616793
 20
2063.110699
 11
649.959264
 21
2064.064612
  0
LINE
  8
CSLAYER1
  6
CONTINUOUS
 62
     3
 10
649.959264
 20
2064.064612
 11
650.243549
 21
2065.016089
  0
LINE
  8
CSLAYER1
  6
CONTINUOUS
 62
     3
 10
650.243549
 20
2065.016089
 11
650.467486
 21
2065.957888
  0
LINE
  8
CSLAYER1
  6
CONTINUOUS
 62
     3
 10
650.467486
 20
2065.957888
 11
650.629370
 21
2066.882842
  0
LINE
  8
CSLAYER1
  6
CONTINUOUS
 62
     3
 10
650.629370
 20
2066.882842
 11
650.727969
 21
2067.783911
  0
LINE
  8
CSLAYER1
  6
CONTINUOUS
 62
     3
 10
650.727969
 20
2067.783911
 11
650.762532
 21
2068.654238
  0
LINE
  8
CSLAYER1
  6
CONTINUOUS
 62
     3
 10
650.762532
 20
2068.654238
 11
650.732798
 21
2069.487198
  0
LINE
  8
CSLAYER1
  6
CONTINUOUS
 62
     3
 10
650.732798
 20
2069.487198
 11
650.638991
 21
2070.276453
  0
LINE
  8
CSLAYER1
  6
CONTINUOUS
 62
     3
 10
650.638991
 20
2070.276453
 11
650.481826
 21
2071.015996
  0
LINE
  8
CSLAYER1
  6
CONTINUOUS
 62
     3
 10
650.481826
 20
2071.015996
 11
650.262499
 21
2071.700198
  0
LINE
  8
CSLAYER1
  6
CONTINUOUS
 62
     3
 10
650.262499
 20
2071.700198
 11
649.982679
 21
2072.323853
  0
LINE
  8
CSLAYER1
  6
CONTINUOUS
 62
     3
 10
649.982679
 20
2072.323853
 11
649.644495
 21
2072.882213
  0
LINE
  8
CSLAYER1
  6
CONTINUOUS
 62
     3
 10
649.644495
 20
2072.882213
 11
649.250523
 21
2073.371030
  0
LINE
  8
CSLAYER1
  6
CONTINUOUS
 62
     3
 10
649.250523
 20
2073.371030
 11
648.803759
 21
2073.786583
  0
LINE
  8
CSLAYER1
  6
CONTINUOUS
 62
     3
 10
648.803759
 20
2073.786583
 11
648.307604
 21
2074.125710
  0
LINE
  8
CSLAYER1
  6
CONTINUOUS
 62
     3
 10
636.320404
 20
2119.803076
 11
702.250004
 21
2081.738604
  0
LINE
  8
CSLAYER1
  6
CONTINUOUS
 62
     3
 10
552.410004
 20
1967.545187
 11
562.399338
 21
1973.312531
  0
LINE
  8
CSLAYER1
  6
CONTINUOUS
 62
     3
 10
659.530311
 20
2057.034363
 11
960.643927
 21
1883.186336
  0
LINE
  8
CSLAYER1
  6
CONTINUOUS
 62
     3
 10
562.399338
 20
2014.837410
 11
737.378512
 21
1913.813137
  0
LINE
  8
CSLAYER1
  6
CONTINUOUS
 62
     3
 10
562.399338
 20
2009.300760
 11
711.187603
 21
1923.397815
  0
LINE
  8
CSLAYER1
  6
CONTINUOUS
 62
     3
 10
588.371604
 20
1999.842315
 11
668.480724
 21
2046.093337
  0
LINE
  8
CSLAYER1
  6
CONTINUOUS
 62
     3
 10
608.350271
 20
1988.307626
 11
688.459391
 21
2034.558648
  0
LINE
  8
CSLAYER1
  6
CONTINUOUS
 62
     3
 10
673.480724
 20
2048.980088
 11
702.250004
 21
2065.590040
  0
LINE
  8
CSLAYER1
  6
CONTINUOUS
 62
     3
 10
693.459391
 20
2037.445400
 11
702.250004
 21
2042.520663
  0
LINE
  8
CSLAYER1
  6
CONTINUOUS
 62
     3
 10
752.562299
 20
1883.361559
 11
752.303814
 21
1886.757286
  0
LINE
  8
CSLAYER1
  6
CONTINUOUS
 62
     3
 10
752.303814
 20
1886.757286
 11
751.530328
 21
1890.127169
  0
LINE
  8
CSLAYER1
  6
CONTINUOUS
 62
     3
 10
751.530328
 20
1890.127169
 11
750.247726
 21
1893.445562
  0
LINE
  8
CSLAYER1
  6
CONTINUOUS
 62
     3
 10
750.247726
 20
1893.445562
 11
748.465771
 21
1896.687209
  0
LINE
  8
CSLAYER1
  6
CONTINUOUS
 62
     3
 10
748.465771
 20
1896.687209
 11
746.198024
 21
1899.827440
  0
LINE
  8
CSLAYER1
  6
CONTINUOUS
 62
     3
 10
746.198024
 20
1899.827440
 11
743.461744
 21
1902.842356
  0
LINE
  8
CSLAYER1
  6
CONTINUOUS
 62
     3
 10
743.461744
 20
1902.842356
 11
740.277755
 21
1905.709011
  0
LINE
  8
CSLAYER1
  6
CONTINUOUS
 62
     3
 10
740.277755
 20
1905.709011
 11
736.670290
 21
1908.405589
  0
LINE
  8
CSLAYER1
  6
CONTINUOUS
 62
     3
 10
736.670290
 20
1908.405589
 11
732.666804
 21
1910.911566
  0
LINE
  8
CSLAYER1
  6
CONTINUOUS
 62
     3
 10
732.666804
 20
1910.911566
 11
728.297766
 21
1913.207872
  0
LINE
  8
CSLAYER1
  6
CONTINUOUS
 62
     3
 10
728.297766
 20
1913.207872
 11
723.596426
 21
1915.277028
  0
LINE
  8
CSLAYER1
  6
CONTINUOUS
 62
     3
 10
723.596426
 20
1915.277028
 11
718.598565
 21
1917.103289
  0
LINE
  8
CSLAYER1
  6
CONTINUOUS
 62
     3
 10
718.598565
 20
1917.103289
 11
713.342220
 21
1918.672755
  0
LINE
  8
CSLAYER1
  6
CONTINUOUS
 62
     3
 10
713.342220
 20
1918.672755
 11
707.867394
 21
1919.973482
  0
LINE
  8
CSLAYER1
  6
CONTINUOUS
 62
     3
 10
707.867394
 20
1919.973482
 11
702.215754
 21
1920.995569
  0
LINE
  8
CSLAYER1
  6
CONTINUOUS
 62
     3
 10
702.215754
 20
1920.995569
 11
696.430313
 21
1921.731239
  0
LINE
  8
CSLAYER1
  6
CONTINUOUS
 62
     3
 10
696.430313
 20
1921.731239
 11
690.555101
 21
1922.174893
  0
LINE
  8
CSLAYER1
  6
CONTINUOUS
 62
     3
 10
690.555101
 20
1922.174893
 11
684.634832
 21
1922.323153
  0
LINE
  8
CSLAYER1
  6
CONTINUOUS
 62
     3
 10
684.634832
 20
1922.323153
 11
678.714563
 21
1922.174893
  0
LINE
  8
CSLAYER1
  6
CONTINUOUS
 62
     3
 10
678.714563
 20
1922.174893
 11
672.839351
 21
1921.731239
  0
LINE
  8
CSLAYER1
  6
CONTINUOUS
 62
     3
 10
672.839351
 20
1921.731239
 11
667.053910
 21
1920.995569
  0
LINE
  8
CSLAYER1
  6
CONTINUOUS
 62
     3
 10
667.053910
 20
1920.995569
 11
661.402270
 21
1919.973482
  0
LINE
  8
CSLAYER1
  6
CONTINUOUS
 62
     3
 10
661.402270
 20
1919.973482
 11
655.927444
 21
1918.672755
  0
LINE
  8
CSLAYER1
  6
CONTINUOUS
 62
     3
 10
655.927444
 20
1918.672755
 11
650.671099
 21
1917.103289
  0
LINE
  8
CSLAYER1
  6
CONTINUOUS
 62
     3
 10
650.671099
 20
1917.103289
 11
645.673238
 21
1915.277028
  0
LINE
  8
CSLAYER1
  6
CONTINUOUS
 62
     3
 10
645.673238
 20
1915.277028
 11
640.971898
 21
1913.207872
  0
LINE
  8
CSLAYER1
  6
CONTINUOUS
 62
     3
 10
640.971898
 20
1913.207872
 11
636.602860
 21
1910.911566
  0
LINE
  8
CSLAYER1
  6
CONTINUOUS
 62
     3
 10
636.602860
 20
1910.911566
 11
632.599374
 21
1908.405589
  0
LINE
  8
CSLAYER1
  6
CONTINUOUS
 62
     3
 10
632.599374
 20
1908.405589
 11
628.991909
 21
1905.709011
  0
LINE
  8
CSLAYER1
  6
CONTINUOUS
 62
     3
 10
628.991909
 20
1905.709011
 11
625.807920
 21
1902.842356
  0
LINE
  8
CSLAYER1
  6
CONTINUOUS
 62
     3
 10
625.807920
 20
1902.842356
 11
623.071640
 21
1899.827440
  0
LINE
  8
CSLAYER1
  6
CONTINUOUS
 62
     3
 10
623.071640
 20
1899.827440
 11
620.803893
 21
1896.687209
  0
LINE
  8
CSLAYER1
  6
CONTINUOUS
 62
     3
 10
620.803893
 20
1896.687209
 11
619.021938
 21
1893.445562
  0
LINE
  8
CSLAYER1
  6
CONTINUOUS
 62
     3
 10
619.021938
 20
1893.445562
 11
617.739336
 21
1890.127169
  0
LINE
  8
CSLAYER1
  6
CONTINUOUS
 62
     3
 10
617.739336
 20
1890.127169
 11
616.965850
 21
1886.757286
  0
LINE
  8
CSLAYER1
  6
CONTINUOUS
 62
     3
 10
616.965850
 20
1886.757286
 11
616.707365
 21
1883.361559
  0
LINE
  8
CSLAYER1
  6
CONTINUOUS
 62
     3
 10
616.707365
 20
1883.361559
 11
616.965850
 21
1879.965832
  0
LINE
  8
CSLAYER1
  6
CONTINUOUS
 62
     3
 10
616.965850
 20
1879.965832
 11
617.739336
 21
1876.595949
  0
LINE
  8
CSLAYER1
  6
CONTINUOUS
 62
     3
 10
617.739336
 20
1876.595949
 11
619.021938
 21
1873.277556
  0
LINE
  8
CSLAYER1
  6
CONTINUOUS
 62
     3
 10
619.021938
 20
1873.277556
 11
620.803893
 21
1870.035909
  0
LINE
  8
CSLAYER1
  6
CONTINUOUS
 62
     3
 10
620.803893
 20
1870.035909
 11
623.071640
 21
1866.895678
  0
LINE
  8
CSLAYER1
  6
CONTINUOUS
 62
     3
 10
623.071640
 20
1866.895678
 11
625.807920
 21
1863.880762
  0
LINE
  8
CSLAYER1
  6
CONTINUOUS
 62
     3
 10
625.807920
 20
1863.880762
 11
628.991909
 21
1861.014107
  0
LINE
  8
CSLAYER1
  6
CONTINUOUS
 62
     3
 10
628.991909
 20
1861.014107
 11
632.599374
 21
1858.317529
  0
LINE
  8
CSLAYER1
  6
CONTINUOUS
 62
     3
 10
632.599374
 20
1858.317529
 11
636.602860
 21
1855.811551
  0
LINE
  8
CSLAYER1
  6
CONTINUOUS
 62
     3
 10
636.602860
 20
1855.811551
 11
640.971898
 21
1853.515246
  0
LINE
  8
CSLAYER1
  6
CONTINUOUS
 62
     3
 10
640.971898
 20
1853.515246
 11
645.673238
 21
1851.446089
  0
LINE
  8
CSLAYER1
  6
CONTINUOUS
 62
     3
 10
645.673238
 20
1851.446089
 11
650.671099
 21
1849.619828
  0
LINE
  8
CSLAYER1
  6
CONTINUOUS
 62
     3
 10
650.671099
 20
1849.619828
 11
655.927444
 21
1848.050363
  0
LINE
  8
CSLAYER1
  6
CONTINUOUS
 62
     3
 10
655.927444
 20
1848.050363
 11
661.402270
 21
1846.749636
  0
LINE
  8
CSLAYER1
  6
CONTINUOUS
 62
     3
 10
661.402270
 20
1846.749636
 11
667.053910
 21
1845.727549
  0
LINE
  8
CSLAYER1
  6
CONTINUOUS
 62
     3
 10
667.053910
 20
1845.727549
 11
672.839351
 21
1844.991879
  0
LINE
  8
CSLAYER1
  6
CONTINUOUS
 62
     3
 10
672.839351
 20
1844.991879
 11
678.714563
 21
1844.548225
  0
LINE
  8
CSLAYER1
  6
CONTINUOUS
 62
     3
 10
678.714563
 20
1844.548225
 11
684.634832
 21
1844.399965
  0
LINE
  8
CSLAYER1
  6
CONTINUOUS
 62
     3
 10
684.634832
 20
1844.399965
 11
690.555101
 21
1844.548225
  0
LINE
  8
CSLAYER1
  6
CONTINUOUS
 62
     3
 10
690.555101
 20
1844.548225
 11
696.430313
 21
1844.991879
  0
LINE
  8
CSLAYER1
  6
CONTINUOUS
 62
     3
 10
696.430313
 20
1844.991879
 11
702.215754
 21
1845.727549
  0
LINE
  8
CSLAYER1
  6
CONTINUOUS
 62
     3
 10
702.215754
 20
1845.727549
 11
707.867394
 21
1846.749636
  0
LINE
  8
CSLAYER1
  6
CONTINUOUS
 62
     3
 10
707.867394
 20
1846.749636
 11
713.342220
 21
1848.050363
  0
LINE
  8
CSLAYER1
  6
CONTINUOUS
 62
     3
 10
713.342220
 20
1848.050363
 11
718.598565
 21
1849.619828
  0
LINE
  8
CSLAYER1
  6
CONTINUOUS
 62
     3
 10
718.598565
 20
1849.619828
 11
723.596426
 21
1851.446089
  0
LINE
  8
CSLAYER1
  6
CONTINUOUS
 62
     3
 10
723.596426
 20
1851.446089
 11
728.297766
 21
1853.515246
  0
LINE
  8
CSLAYER1
  6
CONTINUOUS
 62
     3
 10
728.297766
 20
1853.515246
 11
732.666804
 21
1855.811551
  0
LINE
  8
CSLAYER1
  6
CONTINUOUS
 62
     3
 10
732.666804
 20
1855.811551
 11
736.670290
 21
1858.317529
  0
LINE
  8
CSLAYER1
  6
CONTINUOUS
 62
     3
 10
736.670290
 20
1858.317529
 11
740.277755
 21
1861.014107
  0
LINE
  8
CSLAYER1
  6
CONTINUOUS
 62
     3
 10
740.277755
 20
1861.014107
 11
743.461744
 21
1863.880762
  0
LINE
  8
CSLAYER1
  6
CONTINUOUS
 62
     3
 10
743.461744
 20
1863.880762
 11
746.198024
 21
1866.895678
  0
LINE
  8
CSLAYER1
  6
CONTINUOUS
 62
     3
 10
746.198024
 20
1866.895678
 11
748.465771
 21
1870.035909
  0
LINE
  8
CSLAYER1
  6
CONTINUOUS
 62
     3
 10
748.465771
 20
1870.035909
 11
750.247726
 21
1873.277556
  0
LINE
  8
CSLAYER1
  6
CONTINUOUS
 62
     3
 10
750.247726
 20
1873.277556
 11
751.530328
 21
1876.595949
  0
LINE
  8
CSLAYER1
  6
CONTINUOUS
 62
     3
 10
751.530328
 20
1876.595949
 11
752.303814
 21
1879.965832
  0
LINE
  8
CSLAYER1
  6
CONTINUOUS
 62
     3
 10
752.303814
 20
1879.965832
 11
752.562299
 21
1883.361559
  0
LINE
  8
CSLAYER1
  6
CONTINUOUS
 62
     3
 10
759.355045
 20
1883.361559
 11
759.070712
 21
1887.096858
  0
LINE
  8
CSLAYER1
  6
CONTINUOUS
 62
     3
 10
759.070712
 20
1887.096858
 11
758.219877
 21
1890.803730
  0
LINE
  8
CSLAYER1
  6
CONTINUOUS
 62
     3
 10
758.219877
 20
1890.803730
 11
756.809016
 21
1894.453962
  0
LINE
  8
CSLAYER1
  6
CONTINUOUS
 62
     3
 10
756.809016
 20
1894.453962
 11
754.848865
 21
1898.019774
  0
LINE
  8
CSLAYER1
  6
CONTINUOUS
 62
     3
 10
754.848865
 20
1898.019774
 11
752.354343
 21
1901.474028
  0
LINE
  8
CSLAYER1
  6
CONTINUOUS
 62
     3
 10
752.354343
 20
1901.474028
 11
749.344435
 21
1904.790436
  0
LINE
  8
CSLAYER1
  6
CONTINUOUS
 62
     3
 10
749.344435
 20
1904.790436
 11
745.842048
 21
1907.943757
  0
LINE
  8
CSLAYER1
  6
CONTINUOUS
 62
     3
 10
745.842048
 20
1907.943757
 11
741.873836
 21
1910.909992
  0
LINE
  8
CSLAYER1
  6
CONTINUOUS
 62
     3
 10
741.873836
 20
1910.909992
 11
737.470002
 21
1913.666567
  0
LINE
  8
CSLAYER1
  6
CONTINUOUS
 62
     3
 10
737.470002
 20
1913.666567
 11
732.664059
 21
1916.192503
  0
LINE
  8
CSLAYER1
  6
CONTINUOUS
 62
     3
 10
732.664059
 20
1916.192503
 11
727.492586
 21
1918.468575
  0
LINE
  8
CSLAYER1
  6
CONTINUOUS
 62
     3
 10
727.492586
 20
1918.468575
 11
721.994939
 21
1920.477462
  0
LINE
  8
CSLAYER1
  6
CONTINUOUS
 62
     3
 10
721.994939
 20
1920.477462
 11
716.212959
 21
1922.203875
  0
LINE
  8
CSLAYER1
  6
CONTINUOUS
 62
     3
 10
716.212959
 20
1922.203875
 11
710.190650
 21
1923.634674
  0
LINE
  8
CSLAYER1
  6
CONTINUOUS
 62
     3
 10
710.190650
 20
1923.634674
 11
703.973846
 21
1924.758970
  0
LINE
  8
CSLAYER1
  6
CONTINUOUS
 62
     3
 10
703.973846
 20
1924.758970
 11
697.609861
 21
1925.568207
  0
LINE
  8
CSLAYER1
  6
CONTINUOUS
 62
     3
 10
697.609861
 20
1925.568207
 11
691.147128
 21
1926.056226
  0
LINE
  8
CSLAYER1
  6
CONTINUOUS
 62
     3
 10
691.147128
 20
1926.056226
 11
684.634832
 21
1926.219313
  0
LINE
  8
CSLAYER1
  6
CONTINUOUS
 62
     3
 10
684.634832
 20
1926.219313
 11
678.122536
 21
1926.056226
  0
LINE
  8
CSLAYER1
  6
CONTINUOUS
 62
     3
 10
678.122536
 20
1926.056226
 11
671.659803
 21
1925.568207
  0
LINE
  8
CSLAYER1
  6
CONTINUOUS
 62
     3
 10
671.659803
 20
1925.568207
 11
665.295818
 21
1924.758970
  0
LINE
  8
CSLAYER1
  6
CONTINUOUS
 62
     3
 10
665.295818
 20
1924.758970
 11
659.079014
 21
1923.634674
  0
LINE
  8
CSLAYER1
  6
CONTINUOUS
 62
     3
 10
659.079014
 20
1923.634674
 11
653.056705
 21
1922.203875
  0
LINE
  8
CSLAYER1
  6
CONTINUOUS
 62
     3
 10
653.056705
 20
1922.203875
 11
647.274725
 21
1920.477462
  0
LINE
  8
CSLAYER1
  6
CONTINUOUS
 62
     3
 10
647.274725
 20
1920.477462
 11
641.777078
 21
1918.468575
  0
LINE
  8
CSLAYER1
  6
CONTINUOUS
 62
     3
 10
641.777078
 20
1918.468575
 11
636.605605
 21
1916.192503
  0
LINE
  8
CSLAYER1
  6
CONTINUOUS
 62
     3
 10
636.605605
 20
1916.192503
 11
631.799663
 21
1913.666567
  0
LINE
  8
CSLAYER1
  6
CONTINUOUS
 62
     3
 10
631.799663
 20
1913.666567
 11
627.395828
 21
1910.909992
  0
LINE
  8
CSLAYER1
  6
CONTINUOUS
 62
     3
 10
627.395828
 20
1910.909992
 11
623.427617
 21
1907.943757
  0
LINE
  8
CSLAYER1
  6
CONTINUOUS
 62
     3
 10
623.427617
 20
1907.943757
 11
619.925229
 21
1904.790436
  0
LINE
  8
CSLAYER1
  6
CONTINUOUS
 62
     3
 10
619.925229
 20
1904.790436
 11
616.915321
 21
1901.474028
  0
LINE
  8
CSLAYER1
  6
CONTINUOUS
 62
     3
 10
616.915321
 20
1901.474028
 11
614.420799
 21
1898.019774
  0
LINE
  8
CSLAYER1
  6
CONTINUOUS
 62
     3
 10
614.420799
 20
1898.019774
 11
612.460648
 21
1894.453962
  0
LINE
  8
CSLAYER1
  6
CONTINUOUS
 62
     3
 10
612.460648
 20
1894.453962
 11
611.049787
 21
1890.803730
  0
LINE
  8
CSLAYER1
  6
CONTINUOUS
 62
     3
 10
611.049787
 20
1890.803730
 11
610.198952
 21
1887.096858
  0
LINE
  8
CSLAYER1
  6
CONTINUOUS
 62
     3
 10
610.198952
 20
1887.096858
 11
609.914619
 21
1883.361559
  0
LINE
  8
CSLAYER1
  6
CONTINUOUS
 62
     3
 10
609.914619
 20
1883.361559
 11
610.198952
 21
1879.626260
  0
LINE
  8
CSLAYER1
  6
CONTINUOUS
 62
     3
 10
610.198952
 20
1879.626260
 11
611.049787
 21
1875.919388
  0
LINE
  8
CSLAYER1
  6
CONTINUOUS
 62
     3
 10
611.049787
 20
1875.919388
 11
612.460648
 21
1872.269156
  0
LINE
  8
CSLAYER1
  6
CONTINUOUS
 62
     3
 10
612.460648
 20
1872.269156
 11
614.420799
 21
1868.703344
  0
LINE
  8
CSLAYER1
  6
CONTINUOUS
 62
     3
 10
614.420799
 20
1868.703344
 11
616.915321
 21
1865.249090
  0
LINE
  8
CSLAYER1
  6
CONTINUOUS
 62
     3
 10
616.915321
 20
1865.249090
 11
619.925229
 21
1861.932682
  0
LINE
  8
CSLAYER1
  6
CONTINUOUS
 62
     3
 10
619.925229
 20
1861.932682
 11
623.427617
 21
1858.779361
  0
LINE
  8
CSLAYER1
  6
CONTINUOUS
 62
     3
 10
623.427617
 20
1858.779361
 11
627.395828
 21
1855.813126
  0
LINE
  8
CSLAYER1
  6
CONTINUOUS
 62
     3
 10
627.395828
 20
1855.813126
 11
631.799663
 21
1853.056551
  0
LINE
  8
CSLAYER1
  6
CONTINUOUS
 62
     3
 10
631.799663
 20
1853.056551
 11
636.605605
 21
1850.530615
  0
LINE
  8
CSLAYER1
  6
CONTINUOUS
 62
     3
 10
636.605605
 20
1850.530615
 11
641.777078
 21
1848.254542
  0
LINE
  8
CSLAYER1
  6
CONTINUOUS
 62
     3
 10
641.777078
 20
1848.254542
 11
647.274725
 21
1846.245655
  0
LINE
  8
CSLAYER1
  6
CONTINUOUS
 62
     3
 10
647.274725
 20
1846.245655
 11
653.056705
 21
1844.519243
  0
LINE
  8
CSLAYER1
  6
CONTINUOUS
 62
     3
 10
653.056705
 20
1844.519243
 11
653.139642
 21
1844.499539
  0
LINE
  8
CSLAYER1
  6
CONTINUOUS
 62
     3
 10
684.634832
 20
1840.503805
 11
691.147128
 21
1840.666892
  0
LINE
  8
CSLAYER1
  6
CONTINUOUS
 62
     3
 10
691.147128
 20
1840.666892
 11
697.609861
 21
1841.154911
  0
LINE
  8
CSLAYER1
  6
CONTINUOUS
 62
     3
 10
697.609861
 20
1841.154911
 11
703.973846
 21
1841.964148
  0
LINE
  8
CSLAYER1
  6
CONTINUOUS
 62
     3
 10
703.973846
 20
1841.964148
 11
710.190650
 21
1843.088444
  0
LINE
  8
CSLAYER1
  6
CONTINUOUS
 62
     3
 10
710.190650
 20
1843.088444
 11
716.212959
 21
1844.519243
  0
LINE
  8
CSLAYER1
  6
CONTINUOUS
 62
     3
 10
716.212959
 20
1844.519243
 11
721.994939
 21
1846.245655
  0
LINE
  8
CSLAYER1
  6
CONTINUOUS
 62
     3
 10
721.994939
 20
1846.245655
 11
727.492586
 21
1848.254542
  0
LINE
  8
CSLAYER1
  6
CONTINUOUS
 62
     3
 10
727.492586
 20
1848.254542
 11
732.664059
 21
1850.530615
  0
LINE
  8
CSLAYER1
  6
CONTINUOUS
 62
     3
 10
732.664059
 20
1850.530615
 11
737.470002
 21
1853.056551
  0
LINE
  8
CSLAYER1
  6
CONTINUOUS
 62
     3
 10
737.470002
 20
1853.056551
 11
741.873836
 21
1855.813126
  0
LINE
  8
CSLAYER1
  6
CONTINUOUS
 62
     3
 10
741.873836
 20
1855.813126
 11
745.842048
 21
1858.779361
  0
LINE
  8
CSLAYER1
  6
CONTINUOUS
 62
     3
 10
745.842048
 20
1858.779361
 11
749.344435
 21
1861.932682
  0
LINE
  8
CSLAYER1
  6
CONTINUOUS
 62
     3
 10
749.344435
 20
1861.932682
 11
752.354343
 21
1865.249090
  0
LINE
  8
CSLAYER1
  6
CONTINUOUS
 62
     3
 10
752.354343
 20
1865.249090
 11
754.848865
 21
1868.703344
  0
LINE
  8
CSLAYER1
  6
CONTINUOUS
 62
     3
 10
754.848865
 20
1868.703344
 11
756.809016
 21
1872.269156
  0
LINE
  8
CSLAYER1
  6
CONTINUOUS
 62
     3
 10
756.809016
 20
1872.269156
 11
758.219877
 21
1875.919388
  0
LINE
  8
CSLAYER1
  6
CONTINUOUS
 62
     3
 10
758.219877
 20
1875.919388
 11
759.070712
 21
1879.626260
  0
LINE
  8
CSLAYER1
  6
CONTINUOUS
 62
     3
 10
759.070712
 20
1879.626260
 11
759.355045
 21
1883.361559
  0
LINE
  8
CSLAYER1
  6
CONTINUOUS
 62
     3
 10
538.424938
 20
1840.503805
 11
684.634832
 21
1840.503805
  0
LINE
  8
CSLAYER1
  6
CONTINUOUS
 62
     3
 10
538.424938
 20
1844.499539
 11
684.634832
 21
1844.499539
  0
LINE
  8
CSLAYER1
  6
CONTINUOUS
 62
     3
 10
538.424938
 20
1840.503805
 11
538.424938
 21
1844.499539
  0
LINE
  8
CSLAYER1
  6
CONTINUOUS
 62
     3
 10
538.424938
 20
1844.499539
 11
529.219638
 21
1847.341053
  0
LINE
  8
CSLAYER1
  6
CONTINUOUS
 62
     3
 10
529.219638
 20
1847.341053
 11
527.685694
 21
1853.783620
  0
LINE
  8
CSLAYER1
  6
CONTINUOUS
 62
     3
 10
538.424938
 20
1840.503805
 11
523.083860
 21
1841.818852
  0
LINE
  8
CSLAYER1
  6
CONTINUOUS
 62
     3
 10
523.083860
 20
1841.818852
 11
516.334504
 21
1839.671330
  0
LINE
  8
CSLAYER1
  6
CONTINUOUS
 62
     3
 10
516.334504
 20
1839.671330
 11
508.971570
 21
1836.296652
  0
LINE
  8
CSLAYER1
  6
CONTINUOUS
 62
     3
 10
527.685694
 20
1853.783620
 11
520.015971
 21
1859.612609
  0
LINE
  8
CSLAYER1
  6
CONTINUOUS
 62
     3
 10
398.574271
 20
2079.431666
 11
562.399338
 21
1984.847220
  0
LINE
  8
CSLAYER1
  6
CONTINUOUS
 62
     3
 10
398.574271
 20
2171.709175
 11
562.399338
 21
2077.124729
  0
LINE
  8
CSLAYER1
  6
CONTINUOUS
 62
     3
 10
398.574271
 20
2171.709175
 11
398.574271
 21
2056.362289
  0
LINE
  8
CSLAYER1
  6
CONTINUOUS
 62
     3
 10
702.250004
 20
2157.867549
 11
702.250004
 21
2042.520663
  0
LINE
  8
CSLAYER1
  6
CONTINUOUS
 62
     3
 10
398.574271
 20
2171.709175
 11
538.424938
 21
2252.451995
  0
LINE
  8
CSLAYER1
  6
CONTINUOUS
 62
     5
 10
349.176283
 20
2084.882231
 11
390.087267
 21
2061.262263
  0
TEXT
  8
CSLAYER1
 62
     3
 10
835.622446
 20
2126.492519
 40
34.838692
 41
0.852344
  1
ホース長サ２ｍ
 50
0.000000
 51
0.000000
  7
EASYDRAW_FONT
 72
     5
 11
1033.586173
 21
2126.492519
  0
TEXT
  8
CSLAYER1
 62
     3
 10
319.358503
 20
1878.316133
 40
39.957333
 41
1.036364
  1
長サ4ｍ
 50
0.000000
 51
0.000000
  7
EASYDRAW_FONT
 72
     5
 11
471.196367
 21
1878.316133
  0
LINE
  8
CSLAYER1
  6
CONTINUOUS
 62
     3
 10
657.068677
 20
2052.682085
 11
958.143927
 21
1878.856209
  0
ARC
  8
CSLAYER1
  6
CONTINUOUS
 62
     3
 10
1010.643927
 20
1969.788876
 40
100.000000
 50
240.000000
 51
270.000000
  0
ARC
  8
CSLAYER1
  6
CONTINUOUS
 62
     3
 10
1010.643927
 20
1969.788876
 40
105.000000
 50
240.000000
 51
270.000000
  0
TEXT
  8
CSLAYER1
 62
     3
 10
777.775013
 20
1763.097872
 40
39.957333
 41
1.020000
  1
フットスイッチ
 50
0.000000
 51
0.000000
  7
EASYDRAW_FONT
 72
     5
 11
1049.484875
 21
1763.097872
  0
TEXT
  8
CSLAYER1
 62
     3
 10
775.621449
 20
1708.539278
 40
39.957333
 41
1.020000
  1
ＵＰ・ＤＯＷＮ
 50
0.000000
 51
0.000000
  7
EASYDRAW_FONT
 72
     5
 11
1047.331310
 21
1708.539278
  0
TEXT
  8
CSLAYER1
 62
     3
 10
778.492786
 20
1659.722872
 40
39.957333
 41
1.020000
  1
コード長サ２ｍ
 50
0.000000
 51
0.000000
  7
EASYDRAW_FONT
 72
     5
 11
1050.202648
 21
1659.722872
  0
LINE
  8
CSLAYER1
  6
CONTINUOUS
 62
     5
 10
646.027600
 20
1724.133311
 11
769.228394
 21
1757.144864
  0
LINE
  8
CSLAYER1
  6
CONTINUOUS
 62
     5
 10
646.027600
 20
1724.133311
 11
672.008363
 21
1739.133311
  0
LINE
  8
CSLAYER1
  6
CONTINUOUS
 62
     5
 10
646.027600
 20
1724.133311
 11
676.027600
 21
1724.133311
  0
LINE
  8
CSLAYER1
  6
CONTINUOUS
 62
     5
 10
1043.566597
 20
1757.144864
 11
769.228394
 21
1757.144864
  0
LINE
  8
CSLAYER1
  6
CONTINUOUS
 62
     3
 10
468.217467
 20
1741.896731
 11
580.098000
 21
1677.302475
  0
LINE
  8
CSLAYER1
  6
CONTINUOUS
 62
     3
 10
580.098000
 20
1677.302475
 11
646.027600
 21
1715.366948
  0
LINE
  8
CSLAYER1
  6
CONTINUOUS
 62
     3
 10
646.027600
 20
1724.133311
 11
646.027600
 21
1715.366948
  0
LINE
  8
CSLAYER1
  6
CONTINUOUS
 62
     5
 10
580.098000
 20
1711.445154
 11
580.098000
 21
1688.375776
  0
LINE
  8
CSLAYER1
  6
CONTINUOUS
 62
     3
 10
468.217467
 20
1751.124482
 11
468.217467
 21
1741.896731
  0
LINE
  8
CSLAYER1
  6
CONTINUOUS
 62
     3
 10
471.813627
 20
1774.424553
 11
533.747494
 21
1810.182088
  0
LINE
  8
CSLAYER1
  6
CONTINUOUS
 62
     3
 10
511.770960
 20
1751.355176
 11
573.704827
 21
1787.112711
  0
LINE
  8
CSLAYER1
  6
CONTINUOUS
 62
     3
 10
580.098000
 20
1711.445154
 11
642.431440
 21
1747.433382
  0
LINE
  8
CSLAYER1
  6
CONTINUOUS
 62
     3
 10
540.540240
 20
1734.745225
 11
602.474107
 21
1770.502759
  0
LINE
  8
CSLAYER1
  6
CONTINUOUS
 62
     3
 10
471.813627
 20
1774.424553
 11
511.770960
 21
1751.355176
  0
LINE
  8
CSLAYER1
  6
CONTINUOUS
 62
     3
 10
533.747494
 20
1810.182088
 11
573.704827
 21
1787.112711
  0
LINE
  8
CSLAYER1
  6
CONTINUOUS
 62
     3
 10
468.217467
 20
1751.124482
 11
580.098000
 21
1686.530226
  0
LINE
  8
CSLAYER1
  6
CONTINUOUS
 62
     3
 10
580.098000
 20
1686.068839
 11
646.027600
 21
1724.133311
  0
LINE
  8
CSLAYER1
  6
CONTINUOUS
 62
     3
 10
520.162000
 20
1746.510607
 11
532.149200
 21
1739.589794
  0
LINE
  8
CSLAYER1
  6
CONTINUOUS
 62
     5
 10
580.098000
 20
1688.375776
 11
642.431440
 21
1724.364005
  0
LINE
  8
CSLAYER1
  6
CONTINUOUS
 62
     5
 10
471.813627
 20
1751.355176
 11
511.770960
 21
1728.285799
  0
LINE
  8
CSLAYER1
  6
CONTINUOUS
 62
     3
 10
642.431440
 20
1747.433382
 11
642.431440
 21
1724.364005
  0
LINE
  8
CSLAYER1
  6
CONTINUOUS
 62
     5
 10
540.540240
 20
1734.745225
 11
540.540240
 21
1711.007939
  0
LINE
  8
CSLAYER1
  6
CONTINUOUS
 62
     5
 10
511.770960
 20
1728.285799
 11
511.770960
 21
1751.355176
  0
LINE
  8
CSLAYER1
  6
CONTINUOUS
 62
     3
 10
573.704827
 20
1787.112711
 11
573.704827
 21
1777.423572
  0
LINE
  8
CSLAYER1
  6
CONTINUOUS
 62
     5
 10
520.162000
 20
1723.441230
 11
532.149200
 21
1716.520417
  0
LINE
  8
CSLAYER1
  6
CONTINUOUS
 62
     3
 10
580.098000
 20
1686.068839
 11
580.098000
 21
1677.302475
  0
LINE
  8
CSLAYER1
  6
CONTINUOUS
 62
     3
 10
642.431440
 20
1726.209555
 11
646.027600
 21
1724.133311
  0
LINE
  8
CSLAYER1
  6
CONTINUOUS
 62
     3
 10
520.162000
 20
1746.510607
 11
582.095867
 21
1782.268142
  0
LINE
  8
CSLAYER1
  6
CONTINUOUS
 62
     3
 10
532.149200
 20
1739.589794
 11
594.083067
 21
1775.347328
  0
LINE
  8
CSLAYER1
  6
CONTINUOUS
 62
     3
 10
594.083067
 20
1775.347328
 11
594.083067
 21
1765.658190
  0
LINE
  8
CSLAYER1
  6
CONTINUOUS
 62
     3
 10
582.095867
 20
1782.268142
 11
594.083067
 21
1775.347328
  0
LINE
  8
CSLAYER1
  6
CONTINUOUS
 62
     3
 10
602.474107
 20
1770.502759
 11
642.431440
 21
1747.433382
  0
LINE
  8
CSLAYER1
  6
CONTINUOUS
 62
     3
 10
540.540240
 20
1734.745225
 11
580.098000
 21
1711.906541
  0
LINE
  8
CSLAYER1
  6
CONTINUOUS
 62
     5
 10
532.149200
 20
1739.589794
 11
532.149200
 21
1716.520417
  0
LINE
  8
CSLAYER1
  6
CONTINUOUS
 62
     5
 10
520.162000
 20
1746.510607
 11
520.162000
 21
1723.441230
  0
LINE
  8
CSLAYER1
  6
CONTINUOUS
 62
     5
 10
532.149200
 20
1716.520417
 11
540.540240
 21
1721.364986
  0
LINE
  8
CSLAYER1
  6
CONTINUOUS
 62
     5
 10
511.770960
 20
1728.285799
 11
520.162000
 21
1733.130368
  0
LINE
  8
CSLAYER1
  6
CONTINUOUS
 62
     5
 10
540.540240
 20
1711.675847
 11
580.098000
 21
1688.837164
  0
LINE
  8
CSLAYER1
  6
CONTINUOUS
 62
     3
 10
471.813627
 20
1774.424553
 11
471.813627
 21
1751.355176
  0
LINE
  8
CSLAYER1
  6
CONTINUOUS
 62
     3
 10
468.217467
 20
1751.124482
 11
471.813627
 21
1753.200726
  0
LINE
  8
CSLAYER1
  6
CONTINUOUS
 62
     5
 10
483.800827
 20
1781.345366
 11
523.758160
 21
1758.275989
  0
LINE
  8
CSLAYER1
  6
CONTINUOUS
 62
     5
 10
495.788027
 20
1788.266180
 11
535.745360
 21
1765.196802
  0
LINE
  8
CSLAYER1
  6
CONTINUOUS
 62
     5
 10
507.775227
 20
1795.186993
 11
547.732560
 21
1772.117616
  0
LINE
  8
CSLAYER1
  6
CONTINUOUS
 62
     5
 10
564.514640
 20
1748.586851
 11
604.471974
 21
1725.517474
  0
LINE
  8
CSLAYER1
  6
CONTINUOUS
 62
     5
 10
552.527440
 20
1741.666038
 11
592.484774
 21
1718.596661
  0
LINE
  8
CSLAYER1
  6
CONTINUOUS
 62
     5
 10
576.501840
 20
1755.507664
 11
616.459174
 21
1732.438287
  0
ARC
  8
CSLAYER1
  6
CONTINUOUS
 62
     3
 10
592.855006
 20
1769.237555
 40
11.889388
 50
-0.219250
 51
120.219250
  0
LINE
  8
CSLAYER1
  6
CONTINUOUS
 62
     3
 10
603.007683
 20
1775.424695
 11
737.297324
 21
1852.956855
  0
LINE
  8
CSLAYER1
  6
CONTINUOUS
 62
     3
 10
599.627266
 20
1779.009661
 11
710.808512
 21
1843.200183
  0
LINE
  8
CSLAYER1
  6
CONTINUOUS
 62
     5
 10
552.160783
 20
1845.447676
 11
512.426859
 21
1922.861861
  0
LINE
  8
CSLAYER1
  6
CONTINUOUS
 62
     5
 10
552.160783
 20
1845.447676
 11
532.020882
 21
1867.682432
  0
LINE
  8
CSLAYER1
  6
CONTINUOUS
 62
     5
 10
552.160783
 20
1845.447676
 11
545.836494
 21
1874.773490
  0
LINE
  8
CSLAYER1
  6
CONTINUOUS
 62
     5
 10
252.287276
 20
1609.825740
 11
1097.218783
 21
1609.825740
  0
LINE
  8
CSLAYER1
  6
CONTINUOUS
 62
     5
 10
524.530883
 20
2416.488189
 11
804.114153
 21
2416.488189
  0
LINE
  8
CSLAYER1
  6
CONTINUOUS
 62
     5
 10
804.114153
 20
2416.488189
 11
804.114153
 21
2365.782910
  0
LINE
  8
CSLAYER1
  6
CONTINUOUS
 62
     5
 10
804.114153
 20
2365.782910
 11
524.530883
 21
2365.782910
  0
LINE
  8
CSLAYER1
  6
CONTINUOUS
 62
     5
 10
524.530883
 20
2365.782910
 11
524.530883
 21
2416.488189
  0
ENDBLK
  8
0
  0
BLOCK
  8
CSLAYER1
  2
BLKF0005
 70
   64
 10
0.0
 20
0.0
 30
0.0
  0
INSERT
  8
CSLAYER1
  2
EASYDRAWDIM0002
 10
0.0
 20
0.0
 30
0.0
  0
TEXT
  8
CSLAYER1
 62
     7
 10
728.245544
 20
552.386597
 40
40.000000
 41
0.843750
  1
上昇時
 50
0.000000
 51
0.000000
  7
EASYDRAW_FONT
 72
     5
 11
818.245544
 21
552.386597
  0
LINE
  8
CSLAYER1
  6
CONTINUOUS
 62
     5
 10
714.639069
 20
598.816713
 11
837.597079
 21
598.816713
  0
LINE
  8
CSLAYER1
  6
CONTINUOUS
 62
     5
 10
837.597079
 20
598.816713
 11
837.597079
 21
545.956260
  0
LINE
  8
CSLAYER1
  6
CONTINUOUS
 62
     5
 10
837.597079
 20
545.956260
 11
714.639069
 21
545.956260
  0
LINE
  8
CSLAYER1
  6
CONTINUOUS
 62
     5
 10
714.639069
 20
545.956260
 11
714.639069
 21
598.816713
  0
LINE
  8
CSLAYER1
  6
CONTINUOUS
 62
     6
 10
902.382035
 20
784.402217
 11
998.289681
 21
701.500480
  0
LINE
  8
CSLAYER1
  6
CONTINUOUS
 62
     6
 10
902.382035
 20
784.402217
 11
929.382510
 21
771.326501
  0
LINE
  8
CSLAYER1
  6
CONTINUOUS
 62
     6
 10
902.382035
 20
784.402217
 11
919.227275
 21
759.578078
  0
ENDBLK
  8
0
  0
BLOCK
  8
CSLAYER1
  2
BLKF0006
 70
   64
 10
0.0
 20
0.0
 30
0.0
  0
INSERT
  8
CSLAYER1
  2
EASYDRAWDIM0004
 10
0.0
 20
0.0
 30
0.0
  0
DIMENSION
  8
CSLAYER1
 62
     3
  2
*D0012
 10
1354.442462
 20
2123.148841
 11
1346.190430
 21
1972.596313
 13
1453.433722
 23
1873.148841
 14
1453.433722
 24
2123.148841
 50
90.000000
 70
1
  0
DIMENSION
  8
CSLAYER1
 62
     3
  2
*D0013
 10
1464.696523
 20
1784.088777
 11
1398.841064
 21
1767.821899
 13
1439.696523
 23
1717.277209
 14
1464.696523
 24
1861.886040
  0
DIMENSION
  8
CSLAYER1
 62
     3
  2
*D0014
 10
1489.696523
 20
1717.277209
 11
1400.002930
 21
1700.429321
 13
1439.696523
 23
1858.148841
 14
1489.696523
 24
1858.148841
 52
270.000000
 70
1
  0
INSERT
  8
CSLAYER1
  2
EASYDRAWDIM0005
 10
0.0
 20
0.0
 30
0.0
  0
LINE
  8
CSLAYER1
  6
CENTER
 62
     5
 10
1453.433722
 20
1873.148841
 11
1475.959325
 21
1873.148841
  0
LINE
  8
CSLAYER1
  6
CENTER
 62
     5
 10
1464.696523
 20
1884.411643
 11
1464.696523
 21
1861.886040
  0
LINE
  8
CSLAYER1
  6
CENTER
 62
     5
 10
1464.696523
 20
2111.886040
 11
1464.696523
 21
2134.411643
  0
LINE
  8
CSLAYER1
  6
CENTER
 62
     5
 10
1453.433722
 20
2123.148841
 11
1475.959325
 21
2123.148841
  0
ENDBLK
  8
0
  0
BLOCK
  8
CSLAYER1
  2
BLKF0007
 70
   64
 10
0.0
 20
0.0
 30
0.0
  0
LINE
  8
CSLAYER1
  6
CONTINUOUS
 62
     5
 10
3450.860586
 20
1531.356251
 11
2582.055676
 21
1531.356251
  0
TEXT
  8
CSLAYER1
 62
     3
 10
3048.243896
 20
1537.006348
 40
40.000000
 41
0.832500
  1
10R4/13
 50
0.000000
 51
0.000000
  7
EASYDRAW_FONT
 72
     5
 11
3270.243896
 21
1537.006348
  0
ENDBLK
  8
0
  0
ENDSEC
  0
SECTION
  2
ENTITIES
  0
LINE
  8
CSLAYER1
  6
CONTINUOUS
 62
     3
 10
202.287276
 20
2484.689588
 11
202.287276
 21
136.142658
  0
LINE
  8
CSLAYER1
  6
CONTINUOUS
 62
     3
 10
3524.860586
 20
2484.689588
 11
202.287276
 21
2484.689588
  0
LINE
  8
CSLAYER1
  6
CONTINUOUS
 62
     3
 10
3524.860586
 20
2484.689588
 11
3524.860586
 21
136.142658
  0
LINE
  8
CSLAYER1
  6
CONTINUOUS
 62
     3
 10
3524.860586
 20
136.142658
 11
202.287276
 21
136.142658
  0
LINE
  8
CSLAYER1
  6
CONTINUOUS
 62
     5
 10
152.287276
 20
1296.142658
 11
102.287276
 21
1296.142658
  0
LINE
  8
CSLAYER1
  6
CONTINUOUS
 62
     5
 10
2724.860586
 20
576.142658
 11
3524.860586
 21
576.142658
  0
LINE
  8
CSLAYER1
  6
CONTINUOUS
 62
     5
 10
2724.860586
 20
216.142658
 11
3524.860586
 21
216.142658
  0
LINE
  8
CSLAYER1
  6
CONTINUOUS
 62
     5
 10
2724.860586
 20
376.142658
 11
3524.860586
 21
376.142658
  0
LINE
  8
CSLAYER1
  6
CONTINUOUS
 62
     5
 10
2724.860586
 20
436.142658
 11
3524.860586
 21
436.142658
  0
LINE
  8
CSLAYER1
  6
CONTINUOUS
 62
     5
 10
2724.860586
 20
496.142658
 11
3524.860586
 21
496.142658
  0
LINE
  8
CSLAYER1
  6
CONTINUOUS
 62
     5
 10
2724.860586
 20
656.142658
 11
3524.860586
 21
656.142658
  0
LINE
  8
CSLAYER1
  6
CONTINUOUS
 62
     5
 10
2724.860586
 20
736.142658
 11
2724.860586
 21
136.142658
  0
LINE
  8
CSLAYER1
  6
CONTINUOUS
 62
     5
 10
2924.860586
 20
736.142658
 11
2924.860586
 21
496.142658
  0
LINE
  8
CSLAYER1
  6
CONTINUOUS
 62
     5
 10
2724.860586
 20
736.142658
 11
3524.860586
 21
736.142658
  0
LINE
  8
CSLAYER1
  6
CONTINUOUS
 62
     5
 10
3224.860586
 20
496.142658
 11
3224.860586
 21
216.142658
  0
TEXT
  8
CSLAYER1
 62
     3
 10
2944.551570
 20
144.705387
 40
59.380363
 41
1.003345
  1
東正車輌株式会社
 50
0.000000
 51
0.000000
  7
EASYDRAW_FONT
 72
     5
 11
3401.323918
 21
144.705387
  0
LINE
  8
CSLAYER1
  6
CONTINUOUS
 62
     5
 10
2974.860586
 20
436.142658
 11
2974.860586
 21
216.142658
  0
TEXT
  8
CSLAYER1
 62
     5
 10
2754.860352
 20
671.142639
 40
50.000000
 41
1.050000
  1
品　名
 50
0.000000
 51
0.000000
  7
EASYDRAW_FONT
 72
     5
 11
2894.860352
 21
671.142639
  0
TEXT
  8
CSLAYER1
 62
     5
 10
2754.860352
 20
591.142639
 40
50.000000
 41
1.050000
  1
型　式
 50
0.000000
 51
0.000000
  7
EASYDRAW_FONT
 72
     5
 11
2894.860352
 21
591.142639
  0
TEXT
  8
CSLAYER1
 62
     5
 10
2729.860352
 20
511.142639
 40
50.000000
 41
1.036364
  1
図面番号
 50
0.000000
 51
0.000000
  7
EASYDRAW_FONT
 72
     5
 11
2919.860352
 21
511.142639
  0
TEXT
  8
CSLAYER1
 62
     5
 10
2754.860352
 20
441.142639
 40
50.000000
 41
0.825000
  1
平成26年01月10日
 50
0.000000
 51
0.000000
  7
EASYDRAW_FONT
 72
     5
 11
3194.860352
 21
441.142639
  0
TEXT
  8
CSLAYER1
 62
     5
 10
3304.860352
 20
441.142639
 40
50.000000
 41
1.050000
  1
Ｂ－４
 50
0.000000
 51
0.000000
  7
EASYDRAW_FONT
 72
     5
 11
3444.860352
 21
441.142639
  0
TEXT
  8
CSLAYER1
 62
     5
 10
2779.860352
 20
381.142639
 40
50.000000
 41
1.050000
  1
検　図
 50
0.000000
 51
0.000000
  7
EASYDRAW_FONT
 72
     5
 11
2919.860352
 21
381.142639
  0
TEXT
  8
CSLAYER1
 62
     5
 10
3029.860352
 20
381.142639
 40
50.000000
 41
1.050000
  1
作　図
 50
0.000000
 51
0.000000
  7
EASYDRAW_FONT
 72
     5
 11
3169.860352
 21
381.142639
  0
TEXT
  8
CSLAYER1
 62
     5
 10
3304.860352
 20
381.142639
 40
50.000000
 41
1.050000
  1
尺　度
 50
0.000000
 51
0.000000
  7
EASYDRAW_FONT
 72
     5
 11
3444.860352
 21
381.142639
  0
TEXT
  8
CSLAYER1
 62
     5
 10
3405.599121
 20
230.627930
 40
50.000000
 41
1.080000
  1
１０
 50
0.000000
 51
0.000000
  7
EASYDRAW_FONT
 72
     5
 11
3495.599121
 21
230.627930
  0
TEXT
  8
CSLAYER1
 62
     5
 10
3385.279541
 20
278.332611
 40
50.000000
 41
1.200000
  1
／
 50
0.000000
 51
0.000000
  7
EASYDRAW_FONT
 72
     5
 11
3425.279541
 21
278.332611
  0
TEXT
  8
CSLAYER1
 62
     5
 10
3355.066650
 20
313.316040
 40
50.000000
 41
1.200000
  1
１
 50
0.000000
 51
0.000000
  7
EASYDRAW_FONT
 72
     5
 11
3395.066650
 21
313.316040
  0
TEXT
  8
CSLAYER1
 62
     3
 10
3064.860352
 20
671.142639
 40
50.000000
 41
0.834783
  1
ゴールドリフター
 50
0.000000
 51
0.000000
  7
EASYDRAW_FONT
 72
     5
 11
3384.860352
 21
671.142639
  0
TEXT
  8
CSLAYER1
 62
     3
 10
2964.860352
 20
591.142639
 40
50.000000
 41
0.821053
  1
GLSE-150-2009
 50
0.000000
 51
0.000000
  7
EASYDRAW_FONT
 72
     5
 11
3484.860352
 21
591.142639
  0
INSERT
  8
CSLAYER1
  2
BLKF0000
 10
0.0
 20
0.0
 30
0.0
  0
LINE
  8
CSLAYER1
  6
CONTINUOUS
 62
     5
 10
405.719010
 20
790.402217
 11
627.382035
 21
790.402217
  0
LINE
  8
CSLAYER1
  6
CONTINUOUS
 62
     4
 10
1442.396523
 20
2098.148841
 11
2342.396523
 21
2098.148841
  0
LINE
  8
CSLAYER1
  6
CONTINUOUS
 62
     3
 10
1439.696523
 20
1858.148841
 11
1439.696523
 21
2023.998841
  0
LINE
  8
CSLAYER1
  6
CONTINUOUS
 62
     3
 10
1489.696523
 20
1858.148841
 11
1489.696523
 21
1898.148841
  0
LINE
  8
CSLAYER1
  6
CONTINUOUS
 62
     4
 10
1442.396523
 20
2098.148841
 11
1442.396523
 21
1898.148841
  0
LINE
  8
CSLAYER1
  6
CONTINUOUS
 62
     4
 10
2342.396523
 20
2098.148841
 11
2342.396523
 21
1898.148841
  0
LINE
  8
CSLAYER1
  6
CONTINUOUS
 62
     3
 10
1449.696523
 20
1848.148841
 11
1479.696523
 21
1848.148841
  0
ARC
  8
CSLAYER1
  6
CONTINUOUS
 62
     3
 10
1449.696523
 20
1858.148841
 40
10.000000
 50
180.000000
 51
270.000000
  0
ARC
  8
CSLAYER1
  6
CONTINUOUS
 62
     3
 10
1479.696523
 20
1858.148841
 40
10.000000
 50
270.000000
 51
360.000000
  0
LINE
  8
CSLAYER1
  6
CENTER
 62
     5
 10
1186.200669
 20
2028.148841
 11
1442.396523
 21
2028.148841
  0
LINE
  8
CSLAYER1
  6
CENTER
 62
     5
 10
1438.696523
 20
1998.148841
 11
2342.696523
 21
1998.148841
  0
ARC
  8
CSLAYER1
  6
CONTINUOUS
 62
     3
 10
1479.696523
 20
2138.148841
 40
10.000000
 50
0.000000
 51
90.000000
  0
LINE
  8
CSLAYER1
  6
CONTINUOUS
 62
     3
 10
1449.696523
 20
2148.148841
 11
1479.696523
 21
2148.148841
  0
ARC
  8
CSLAYER1
  6
CONTINUOUS
 62
     3
 10
1449.696523
 20
2138.148841
 40
10.000000
 50
90.000000
 51
180.000000
  0
LINE
  8
CSLAYER1
  6
CONTINUOUS
 62
     3
 10
1489.696523
 20
2138.148841
 11
1489.696523
 21
2098.148841
  0
LINE
  8
CSLAYER1
  6
CONTINUOUS
 62
     4
 10
1572.608788
 20
1003.097409
 11
1565.818330
 21
1007.621632
  0
CIRCLE
  8
CSLAYER1
  6
CONTINUOUS
 62
     3
 10
1464.696523
 20
2123.148841
 40
6.500000
  0
CIRCLE
  8
CSLAYER1
  6
CONTINUOUS
 62
     3
 10
1464.696523
 20
1873.148841
 40
6.500000
  0
LINE
  8
CSLAYER1
  6
CENTER
 62
     5
 10
777.382035
 20
1506.695627
 11
777.382035
 21
790.402217
  0
LINE
  8
CSLAYER1
  6
CONTINUOUS
 62
     3
 10
677.382035
 20
830.402217
 11
877.382035
 21
830.402217
  0
LINE
  8
CSLAYER1
  6
CONTINUOUS
 62
     3
 10
677.382035
 20
830.402217
 11
677.382035
 21
796.402217
  0
LINE
  8
CSLAYER1
  6
CONTINUOUS
 62
     3
 10
877.382035
 20
830.402217
 11
877.382035
 21
796.402217
  0
LINE
  8
CSLAYER1
  6
CONTINUOUS
 62
     3
 10
927.382035
 20
790.402217
 11
927.382035
 21
796.402217
  0
LINE
  8
CSLAYER1
  6
CENTER
 62
     5
 10
902.382035
 20
781.472856
 11
902.382035
 21
805.682817
  0
LINE
  8
CSLAYER1
  6
CONTINUOUS
 62
     3
 10
851.882035
 20
790.402217
 11
851.882035
 21
830.402217
  0
LINE
  8
CSLAYER1
  6
CONTINUOUS
 62
     3
 10
927.382035
 20
796.402217
 11
851.882035
 21
796.402217
  0
LINE
  8
CSLAYER1
  6
CONTINUOUS
 62
     3
 10
854.882035
 20
818.871872
 11
854.882035
 21
796.932562
  0
LINE
  8
CSLAYER1
  6
CONTINUOUS
 62
     3
 10
851.882035
 20
797.152217
 11
854.882035
 21
797.152217
  0
LINE
  8
CSLAYER1
  6
CONTINUOUS
 62
     3
 10
851.882035
 20
818.652217
 11
854.882035
 21
818.652217
  0
LINE
  8
CSLAYER1
  6
CONTINUOUS
 62
     3
 10
851.882035
 20
809.414414
 11
854.882035
 21
805.914414
  0
LINE
  8
CSLAYER1
  6
CONTINUOUS
 62
     3
 10
862.882035
 20
798.902217
 11
862.882035
 21
816.902217
  0
LINE
  8
CSLAYER1
  6
CONTINUOUS
 62
     3
 10
854.882035
 20
802.417390
 11
861.744854
 21
802.417390
  0
LINE
  8
CSLAYER1
  6
CONTINUOUS
 62
     3
 10
854.882035
 20
796.932562
 11
861.744854
 21
796.932562
  0
LINE
  8
CSLAYER1
  6
CONTINUOUS
 62
     3
 10
862.882035
 20
798.902217
 11
861.744854
 21
796.932562
  0
ARC
  8
CSLAYER1
  6
CONTINUOUS
 62
     3
 10
859.101991
 20
799.674976
 40
3.808617
 50
5.661633
 51
46.059028
  0
ARC
  8
CSLAYER1
  6
CONTINUOUS
 62
     3
 10
849.086291
 20
807.902217
 40
13.795744
 50
-23.426598
 51
23.426598
  0
LINE
  8
CSLAYER1
  6
CONTINUOUS
 62
     3
 10
854.882035
 20
813.387045
 11
861.744854
 21
813.387045
  0
LINE
  8
CSLAYER1
  6
CONTINUOUS
 62
     3
 10
854.882035
 20
818.871872
 11
861.744854
 21
818.871872
  0
LINE
  8
CSLAYER1
  6
CONTINUOUS
 62
     3
 10
862.882035
 20
816.902217
 11
861.744854
 21
818.871872
  0
ARC
  8
CSLAYER1
  6
CONTINUOUS
 62
     3
 10
859.101991
 20
816.129458
 40
3.808617
 50
313.940972
 51
354.338367
  0
LINE
  8
CSLAYER1
  6
CENTER
 62
     5
 10
851.882035
 20
807.902217
 11
862.882035
 21
807.902217
  0
LINE
  8
CSLAYER1
  6
CONTINUOUS
 62
     3
 10
627.382035
 20
790.402217
 11
627.382035
 21
796.402217
  0
LINE
  8
CSLAYER1
  6
CENTER
 62
     5
 10
652.382035
 20
781.472856
 11
652.382035
 21
805.682817
  0
LINE
  8
CSLAYER1
  6
CONTINUOUS
 62
     3
 10
627.382035
 20
796.402217
 11
702.882035
 21
796.402217
  0
LINE
  8
CSLAYER1
  6
CONTINUOUS
 62
     3
 10
699.882035
 20
818.871872
 11
699.882035
 21
796.932562
  0
LINE
  8
CSLAYER1
  6
CONTINUOUS
 62
     3
 10
702.882035
 20
797.152217
 11
699.882035
 21
797.152217
  0
LINE
  8
CSLAYER1
  6
CONTINUOUS
 62
     3
 10
702.882035
 20
818.652217
 11
699.882035
 21
818.652217
  0
LINE
  8
CSLAYER1
  6
CONTINUOUS
 62
     3
 10
702.882035
 20
809.414414
 11
699.882035
 21
805.914414
  0
LINE
  8
CSLAYER1
  6
CONTINUOUS
 62
     3
 10
691.882035
 20
798.902217
 11
691.882035
 21
816.902217
  0
LINE
  8
CSLAYER1
  6
CONTINUOUS
 62
     3
 10
699.882035
 20
802.417390
 11
693.019216
 21
802.417390
  0
LINE
  8
CSLAYER1
  6
CONTINUOUS
 62
     3
 10
699.882035
 20
796.932562
 11
693.019216
 21
796.932562
  0
LINE
  8
CSLAYER1
  6
CONTINUOUS
 62
     3
 10
691.882035
 20
798.902217
 11
693.019216
 21
796.932562
  0
ARC
  8
CSLAYER1
  6
CONTINUOUS
 62
     3
 10
695.662080
 20
799.674976
 40
3.808617
 50
133.940972
 51
174.338367
  0
ARC
  8
CSLAYER1
  6
CONTINUOUS
 62
     3
 10
705.677779
 20
807.902217
 40
13.795744
 50
156.573402
 51
203.426598
  0
LINE
  8
CSLAYER1
  6
CONTINUOUS
 62
     3
 10
699.882035
 20
813.387045
 11
693.019216
 21
813.387045
  0
LINE
  8
CSLAYER1
  6
CONTINUOUS
 62
     3
 10
699.882035
 20
818.871872
 11
693.019216
 21
818.871872
  0
LINE
  8
CSLAYER1
  6
CONTINUOUS
 62
     3
 10
691.882035
 20
816.902217
 11
693.019216
 21
818.871872
  0
ARC
  8
CSLAYER1
  6
CONTINUOUS
 62
     3
 10
695.662080
 20
816.129458
 40
3.808617
 50
185.661633
 51
226.059028
  0
LINE
  8
CSLAYER1
  6
CENTER
 62
     5
 10
702.882035
 20
807.902217
 11
691.882035
 21
807.902217
  0
LINE
  8
CSLAYER1
  6
CONTINUOUS
 62
     3
 10
702.882035
 20
790.402217
 11
702.882035
 21
830.402217
  0
LINE
  8
CSLAYER1
  6
CENTER
 62
     5
 10
747.382035
 20
793.712654
 11
747.382035
 21
826.975973
  0
LINE
  8
CSLAYER1
  6
CENTER
 62
     5
 10
729.508089
 20
810.402217
 11
766.505046
 21
810.402217
  0
CIRCLE
  8
CSLAYER1
  6
CONTINUOUS
 62
     3
 10
747.382035
 20
810.402217
 40
12.500000
  0
LINE
  8
CSLAYER1
  6
CONTINUOUS
 62
     3
 10
877.382035
 20
1506.695627
 11
677.382035
 21
1506.695627
  0
LINE
  8
CSLAYER1
  6
CONTINUOUS
 62
     3
 10
823.382035
 20
830.402217
 11
823.382035
 21
1488.695627
  0
LINE
  8
CSLAYER1
  6
CONTINUOUS
 62
     3
 10
832.382035
 20
830.402217
 11
832.382035
 21
1488.695627
  0
LINE
  8
CSLAYER1
  6
CONTINUOUS
 62
     3
 10
835.382035
 20
830.402217
 11
835.382035
 21
1476.395627
  0
LINE
  8
CSLAYER1
  6
CONTINUOUS
 62
     3
 10
844.382035
 20
830.402217
 11
844.382035
 21
1475.925972
  0
LINE
  8
CSLAYER1
  6
CONTINUOUS
 62
     3
 10
877.382035
 20
1488.695627
 11
677.382035
 21
1488.695627
  0
LINE
  8
CSLAYER1
  6
CONTINUOUS
 62
     3
 10
877.382035
 20
1488.695627
 11
877.382035
 21
1506.695627
  0
LINE
  8
CSLAYER1
  6
CONTINUOUS
 62
     3
 10
833.382035
 20
1478.245627
 11
832.382035
 21
1478.245627
  0
LINE
  8
CSLAYER1
  6
CONTINUOUS
 62
     3
 10
834.382035
 20
1488.695627
 11
834.382035
 21
1479.245627
  0
LINE
  8
CSLAYER1
  6
CONTINUOUS
 62
     3
 10
834.382035
 20
1479.245627
 11
833.382035
 21
1478.245627
  0
LINE
  8
CSLAYER1
  6
CONTINUOUS
 62
     3
 10
833.382035
 20
1488.695627
 11
833.382035
 21
1478.245627
  0
LINE
  8
CSLAYER1
  6
CONTINUOUS
 62
     3
 10
834.882035
 20
1476.395627
 11
840.882035
 21
1476.395627
  0
LINE
  8
CSLAYER1
  6
CONTINUOUS
 62
     3
 10
840.882035
 20
1488.695627
 11
840.882035
 21
1476.395627
  0
LINE
  8
CSLAYER1
  6
CONTINUOUS
 62
     3
 10
834.882035
 20
1488.695627
 11
834.882035
 21
1476.395627
  0
LINE
  8
CSLAYER1
  6
CONTINUOUS
 62
     3
 10
823.382035
 20
1478.245627
 11
731.382035
 21
1478.245627
  0
LINE
  8
CSLAYER1
  6
CENTER
 62
     5
 10
702.882035
 20
1486.895627
 11
851.882035
 21
1486.895627
  0
LINE
  8
CSLAYER1
  6
CONTINUOUS
 62
     3
 10
843.882035
 20
1475.925972
 11
843.882035
 21
1488.695627
  0
LINE
  8
CSLAYER1
  6
CONTINUOUS
 62
     3
 10
840.882035
 20
1476.145627
 11
843.882035
 21
1476.145627
  0
LINE
  8
CSLAYER1
  6
CONTINUOUS
 62
     3
 10
840.882035
 20
1485.383431
 11
843.721061
 21
1488.695627
  0
LINE
  8
CSLAYER1
  6
CONTINUOUS
 62
     3
 10
851.882035
 20
1488.695627
 11
851.882035
 21
1477.895627
  0
ARC
  8
CSLAYER1
  6
CONTINUOUS
 62
     3
 10
838.086291
 20
1486.895627
 40
13.795744
 50
-23.426598
 51
7.497043
  0
LINE
  8
CSLAYER1
  6
CONTINUOUS
 62
     3
 10
843.882035
 20
1481.410800
 11
850.744854
 21
1481.410800
  0
LINE
  8
CSLAYER1
  6
CONTINUOUS
 62
     3
 10
843.882035
 20
1475.925972
 11
850.744854
 21
1475.925972
  0
LINE
  8
CSLAYER1
  6
CONTINUOUS
 62
     3
 10
851.882035
 20
1477.895627
 11
850.744854
 21
1475.925972
  0
ARC
  8
CSLAYER1
  6
CONTINUOUS
 62
     3
 10
848.101991
 20
1478.668386
 40
3.808617
 50
5.661633
 51
46.059028
  0
LINE
  8
CSLAYER1
  6
CENTER
 62
     5
 10
722.382035
 20
1193.018598
 11
832.382035
 21
1193.018598
  0
LINE
  8
CSLAYER1
  6
CENTER
 62
     5
 10
697.882035
 20
1138.768980
 11
856.882035
 21
1138.768980
  0
LINE
  8
CSLAYER1
  6
CONTINUOUS
 62
     3
 10
855.882035
 20
1133.768980
 11
855.382035
 21
1133.768980
  0
LINE
  8
CSLAYER1
  6
CONTINUOUS
 62
     3
 10
844.882035
 20
1149.268980
 11
844.882035
 21
1128.268980
  0
LINE
  8
CSLAYER1
  6
CONTINUOUS
 62
     3
 10
856.882035
 20
1134.768980
 11
856.882035
 21
1142.768980
  0
LINE
  8
CSLAYER1
  6
CONTINUOUS
 62
     3
 10
835.382035
 20
1152.768980
 11
832.382035
 21
1152.768980
  0
LINE
  8
CSLAYER1
  6
CONTINUOUS
 62
     3
 10
835.382035
 20
1124.768980
 11
832.382035
 21
1124.768980
  0
LINE
  8
CSLAYER1
  6
CONTINUOUS
 62
     3
 10
846.882035
 20
1149.268980
 11
846.882035
 21
1128.268980
  0
LINE
  8
CSLAYER1
  6
CONTINUOUS
 62
     3
 10
849.382035
 20
1147.968980
 11
849.382035
 21
1129.568980
  0
LINE
  8
CSLAYER1
  6
CONTINUOUS
 62
     3
 10
849.382035
 20
1129.568980
 11
846.882035
 21
1129.568980
  0
LINE
  8
CSLAYER1
  6
CONTINUOUS
 62
     3
 10
846.882035
 20
1128.268980
 11
844.882035
 21
1128.268980
  0
LINE
  8
CSLAYER1
  6
CONTINUOUS
 62
     3
 10
849.382035
 20
1147.968980
 11
846.882035
 21
1147.968980
  0
LINE
  8
CSLAYER1
  6
CONTINUOUS
 62
     3
 10
846.882035
 20
1149.268980
 11
844.882035
 21
1149.268980
  0
LINE
  8
CSLAYER1
  6
CONTINUOUS
 62
     3
 10
855.382035
 20
1147.268980
 11
855.382035
 21
1130.268980
  0
LINE
  8
CSLAYER1
  6
CONTINUOUS
 62
     3
 10
855.882035
 20
1133.768980
 11
856.882035
 21
1134.768980
  0
LINE
  8
CSLAYER1
  6
CONTINUOUS
 62
     3
 10
856.582035
 20
1134.468980
 11
855.382035
 21
1134.468980
  0
LINE
  8
CSLAYER1
  6
CONTINUOUS
 62
     3
 10
855.882035
 20
1133.768980
 11
855.882035
 21
1143.768980
  0
LINE
  8
CSLAYER1
  6
CONTINUOUS
 62
     3
 10
854.622846
 20
1128.954025
 11
850.141224
 21
1128.954025
  0
LINE
  8
CSLAYER1
  6
CONTINUOUS
 62
     3
 10
854.622846
 20
1133.861503
 11
850.141224
 21
1133.861503
  0
LINE
  8
CSLAYER1
  6
CONTINUOUS
 62
     3
 10
855.382035
 20
1130.268980
 11
854.622846
 21
1128.954025
  0
ARC
  8
CSLAYER1
  6
CONTINUOUS
 62
     3
 10
839.141224
 20
1138.768980
 40
16.240811
 50
-17.587954
 51
17.587954
  0
ARC
  8
CSLAYER1
  6
CONTINUOUS
 62
     3
 10
851.041111
 20
1131.407764
 40
4.341619
 50
-27.480777
 51
34.413868
  0
LINE
  8
CSLAYER1
  6
CONTINUOUS
 62
     3
 10
855.382035
 20
1147.268980
 11
854.622846
 21
1148.583935
  0
ARC
  8
CSLAYER1
  6
CONTINUOUS
 62
     3
 10
851.041111
 20
1146.130196
 40
4.341619
 50
-34.413868
 51
27.480777
  0
LINE
  8
CSLAYER1
  6
CONTINUOUS
 62
     3
 10
849.382035
 20
1130.268980
 11
850.141224
 21
1128.954025
  0
ARC
  8
CSLAYER1
  6
CONTINUOUS
 62
     3
 10
865.622846
 20
1138.768980
 40
16.240811
 50
162.412046
 51
197.587954
  0
ARC
  8
CSLAYER1
  6
CONTINUOUS
 62
     3
 10
853.722959
 20
1131.407764
 40
4.341619
 50
145.586132
 51
207.480777
  0
LINE
  8
CSLAYER1
  6
CONTINUOUS
 62
     3
 10
849.382035
 20
1147.268980
 11
850.141224
 21
1148.583935
  0
ARC
  8
CSLAYER1
  6
CONTINUOUS
 62
     3
 10
853.722959
 20
1146.130196
 40
4.341619
 50
152.519223
 51
214.413868
  0
LINE
  8
CSLAYER1
  6
CONTINUOUS
 62
     3
 10
854.622846
 20
1148.583935
 11
850.141224
 21
1148.583935
  0
LINE
  8
CSLAYER1
  6
CONTINUOUS
 62
     3
 10
854.622846
 20
1143.676457
 11
850.141224
 21
1143.676457
  0
LINE
  8
CSLAYER1
  6
CONTINUOUS
 62
     3
 10
855.882035
 20
1143.768980
 11
855.382035
 21
1143.768980
  0
LINE
  8
CSLAYER1
  6
CONTINUOUS
 62
     3
 10
855.882035
 20
1143.768980
 11
856.882035
 21
1142.768980
  0
LINE
  8
CSLAYER1
  6
CONTINUOUS
 62
     3
 10
856.582035
 20
1143.068980
 11
855.382035
 21
1143.068980
  0
LINE
  8
CSLAYER1
  6
CONTINUOUS
 62
     3
 10
846.882035
 20
1140.670428
 11
849.382035
 21
1137.300862
  0
LINE
  8
CSLAYER1
  6
CONTINUOUS
 62
     3
 10
844.382035
 20
1131.268980
 11
844.882035
 21
1131.268980
  0
LINE
  8
CSLAYER1
  6
CONTINUOUS
 62
     3
 10
844.382035
 20
1146.268980
 11
844.882035
 21
1146.268980
  0
LINE
  8
CSLAYER1
  6
CENTER
 62
     5
 10
787.882035
 20
1193.018598
 11
787.882035
 21
863.936774
  0
LINE
  8
CSLAYER1
  6
CONTINUOUS
 62
     3
 10
816.882035
 20
842.482535
 11
816.882035
 21
896.026015
  0
LINE
  8
CSLAYER1
  6
CONTINUOUS
 62
     3
 10
810.882035
 20
842.482535
 11
810.882035
 21
896.026015
  0
LINE
  8
CSLAYER1
  6
CONTINUOUS
 62
     3
 10
758.882035
 20
842.482535
 11
758.882035
 21
896.026015
  0
LINE
  8
CSLAYER1
  6
CONTINUOUS
 62
     3
 10
764.882035
 20
842.482535
 11
764.882035
 21
896.026015
  0
LINE
  8
CSLAYER1
  6
CONTINUOUS
 62
     3
 10
810.382035
 20
1180.418598
 11
810.382035
 21
1205.618598
  0
LINE
  8
CSLAYER1
  6
CONTINUOUS
 62
     3
 10
765.382035
 20
1180.418598
 11
765.382035
 21
1205.618598
  0
LINE
  8
CSLAYER1
  6
CONTINUOUS
 62
     3
 10
766.382035
 20
1206.618598
 11
809.382035
 21
1206.618598
  0
LINE
  8
CSLAYER1
  6
CONTINUOUS
 62
     3
 10
765.382035
 20
1205.618598
 11
766.382035
 21
1206.618598
  0
LINE
  8
CSLAYER1
  6
CONTINUOUS
 62
     3
 10
809.382035
 20
1206.618598
 11
810.382035
 21
1205.618598
  0
POINT
  8
CSLAYER1
 62
     3
 10
787.882035
 20
1193.018598
  0
LINE
  8
CSLAYER1
  6
CONTINUOUS
 62
     3
 10
811.382035
 20
1201.018598
 11
810.382035
 21
1201.018598
  0
LINE
  8
CSLAYER1
  6
CONTINUOUS
 62
     3
 10
765.382035
 20
1201.018598
 11
764.382035
 21
1201.018598
  0
LINE
  8
CSLAYER1
  6
CONTINUOUS
 62
     3
 10
805.882035
 20
1015.944679
 11
805.882035
 21
1181.353477
  0
LINE
  8
CSLAYER1
  6
CONTINUOUS
 62
     3
 10
805.882035
 20
1181.353477
 11
805.813540
 21
1182.114048
  0
LINE
  8
CSLAYER1
  6
CONTINUOUS
 62
     3
 10
805.813540
 20
1182.114048
 11
805.608575
 21
1182.868831
  0
LINE
  8
CSLAYER1
  6
CONTINUOUS
 62
     3
 10
805.608575
 20
1182.868831
 11
805.268700
 21
1183.612081
  0
LINE
  8
CSLAYER1
  6
CONTINUOUS
 62
     3
 10
805.268700
 20
1183.612081
 11
804.796502
 21
1184.338141
  0
LINE
  8
CSLAYER1
  6
CONTINUOUS
 62
     3
 10
804.796502
 20
1184.338141
 11
804.195575
 21
1185.041487
  0
LINE
  8
CSLAYER1
  6
CONTINUOUS
 62
     3
 10
804.195575
 20
1185.041487
 11
803.470492
 21
1185.716764
  0
LINE
  8
CSLAYER1
  6
CONTINUOUS
 62
     3
 10
803.470492
 20
1185.716764
 11
802.626772
 21
1186.358834
  0
LINE
  8
CSLAYER1
  6
CONTINUOUS
 62
     3
 10
802.626772
 20
1186.358834
 11
801.670835
 21
1186.962811
  0
LINE
  8
CSLAYER1
  6
CONTINUOUS
 62
     3
 10
801.670835
 20
1186.962811
 11
800.609957
 21
1187.524096
  0
LINE
  8
CSLAYER1
  6
CONTINUOUS
 62
     3
 10
800.609957
 20
1187.524096
 11
799.452212
 21
1188.038420
  0
LINE
  8
CSLAYER1
  6
CONTINUOUS
 62
     3
 10
799.452212
 20
1188.038420
 11
798.206411
 21
1188.501868
  0
LINE
  8
CSLAYER1
  6
CONTINUOUS
 62
     3
 10
798.206411
 20
1188.501868
 11
796.882035
 21
1188.910911
  0
LINE
  8
CSLAYER1
  6
CONTINUOUS
 62
     3
 10
796.882035
 20
1188.910911
 11
795.489164
 21
1189.262439
  0
LINE
  8
CSLAYER1
  6
CONTINUOUS
 62
     3
 10
795.489164
 20
1189.262439
 11
794.038398
 21
1189.553774
  0
LINE
  8
CSLAYER1
  6
CONTINUOUS
 62
     3
 10
794.038398
 20
1189.553774
 11
792.540778
 21
1189.782700
  0
LINE
  8
CSLAYER1
  6
CONTINUOUS
 62
     3
 10
792.540778
 20
1189.782700
 11
791.007702
 21
1189.947474
  0
LINE
  8
CSLAYER1
  6
CONTINUOUS
 62
     3
 10
791.007702
 20
1189.947474
 11
789.450838
 21
1190.046843
  0
LINE
  8
CSLAYER1
  6
CONTINUOUS
 62
     3
 10
789.450838
 20
1190.046843
 11
787.882035
 21
1190.080051
  0
LINE
  8
CSLAYER1
  6
CONTINUOUS
 62
     3
 10
787.882035
 20
1190.080051
 11
786.313232
 21
1190.046843
  0
LINE
  8
CSLAYER1
  6
CONTINUOUS
 62
     3
 10
786.313232
 20
1190.046843
 11
784.756368
 21
1189.947474
  0
LINE
  8
CSLAYER1
  6
CONTINUOUS
 62
     3
 10
784.756368
 20
1189.947474
 11
783.223292
 21
1189.782700
  0
LINE
  8
CSLAYER1
  6
CONTINUOUS
 62
     3
 10
783.223292
 20
1189.782700
 11
781.725672
 21
1189.553774
  0
LINE
  8
CSLAYER1
  6
CONTINUOUS
 62
     3
 10
781.725672
 20
1189.553774
 11
780.274906
 21
1189.262439
  0
LINE
  8
CSLAYER1
  6
CONTINUOUS
 62
     3
 10
780.274906
 20
1189.262439
 11
778.882035
 21
1188.910911
  0
LINE
  8
CSLAYER1
  6
CONTINUOUS
 62
     3
 10
778.882035
 20
1188.910911
 11
777.557659
 21
1188.501868
  0
LINE
  8
CSLAYER1
  6
CONTINUOUS
 62
     3
 10
777.557659
 20
1188.501868
 11
776.311858
 21
1188.038420
  0
LINE
  8
CSLAYER1
  6
CONTINUOUS
 62
     3
 10
776.311858
 20
1188.038420
 11
775.154113
 21
1187.524096
  0
LINE
  8
CSLAYER1
  6
CONTINUOUS
 62
     3
 10
775.154113
 20
1187.524096
 11
774.093235
 21
1186.962811
  0
LINE
  8
CSLAYER1
  6
CONTINUOUS
 62
     3
 10
774.093235
 20
1186.962811
 11
773.137298
 21
1186.358834
  0
LINE
  8
CSLAYER1
  6
CONTINUOUS
 62
     3
 10
773.137298
 20
1186.358834
 11
772.293578
 21
1185.716764
  0
LINE
  8
CSLAYER1
  6
CONTINUOUS
 62
     3
 10
772.293578
 20
1185.716764
 11
771.568495
 21
1185.041487
  0
LINE
  8
CSLAYER1
  6
CONTINUOUS
 62
     3
 10
771.568495
 20
1185.041487
 11
770.967568
 21
1184.338141
  0
LINE
  8
CSLAYER1
  6
CONTINUOUS
 62
     3
 10
770.967568
 20
1184.338141
 11
770.495370
 21
1183.612081
  0
LINE
  8
CSLAYER1
  6
CONTINUOUS
 62
     3
 10
770.495370
 20
1183.612081
 11
770.155496
 21
1182.868831
  0
LINE
  8
CSLAYER1
  6
CONTINUOUS
 62
     3
 10
770.155496
 20
1182.868831
 11
769.950531
 21
1182.114048
  0
LINE
  8
CSLAYER1
  6
CONTINUOUS
 62
     3
 10
769.950531
 20
1182.114048
 11
769.882035
 21
1181.353477
  0
LINE
  8
CSLAYER1
  6
CONTINUOUS
 62
     3
 10
769.882035
 20
1015.983821
 11
769.882035
 21
1181.353477
  0
LINE
  8
CSLAYER1
  6
CENTER
 62
     5
 10
747.882035
 20
830.402217
 11
747.882035
 21
965.400853
  0
LINE
  8
CSLAYER1
  6
CONTINUOUS
 62
     3
 10
754.882035
 20
959.700853
 11
740.882035
 21
959.700853
  0
LINE
  8
CSLAYER1
  6
CONTINUOUS
 62
     3
 10
754.882035
 20
951.900853
 11
740.882035
 21
951.900853
  0
LINE
  8
CSLAYER1
  6
CONTINUOUS
 62
     3
 10
754.313967
 20
946.700853
 11
741.450103
 21
946.700853
  0
LINE
  8
CSLAYER1
  6
CONTINUOUS
 62
     3
 10
753.882035
 20
944.700853
 11
741.882035
 21
944.700853
  0
LINE
  8
CSLAYER1
  6
CONTINUOUS
 62
     3
 10
753.882035
 20
937.700853
 11
741.882035
 21
937.700853
  0
LINE
  8
CSLAYER1
  6
CONTINUOUS
 62
     3
 10
752.765061
 20
912.700853
 11
742.999009
 21
912.700853
  0
LINE
  8
CSLAYER1
  6
CONTINUOUS
 62
     3
 10
753.382035
 20
934.700853
 11
753.382035
 21
937.700853
  0
LINE
  8
CSLAYER1
  6
CONTINUOUS
 62
     3
 10
755.964939
 20
952.526068
 11
755.964939
 21
959.075638
  0
LINE
  8
CSLAYER1
  6
CONTINUOUS
 62
     3
 10
751.923487
 20
952.526068
 11
751.923487
 21
959.075638
  0
ARC
  8
CSLAYER1
  6
CONTINUOUS
 62
     3
 10
725.194265
 20
951.943074
 40
29.587800
 50
345.831727
 51
359.918240
  0
ARC
  8
CSLAYER1
  6
CONTINUOUS
 62
     3
 10
770.569805
 20
951.943074
 40
29.587800
 50
180.081760
 51
194.168273
  0
LINE
  8
CSLAYER1
  6
CONTINUOUS
 62
     3
 10
752.229349
 20
944.700853
 11
752.229349
 21
946.700853
  0
LINE
  8
CSLAYER1
  6
CONTINUOUS
 62
     3
 10
750.247584
 20
944.700853
 11
750.247584
 21
946.700853
  0
LINE
  8
CSLAYER1
  6
CONTINUOUS
 62
     3
 10
743.534721
 20
944.700853
 11
743.534721
 21
946.700853
  0
LINE
  8
CSLAYER1
  6
CONTINUOUS
 62
     3
 10
745.516486
 20
944.700853
 11
745.516486
 21
946.700853
  0
LINE
  8
CSLAYER1
  6
CONTINUOUS
 62
     3
 10
754.882035
 20
959.700853
 11
755.964939
 21
959.075638
  0
ARC
  8
CSLAYER1
  6
CONTINUOUS
 62
     3
 10
753.944213
 20
956.149224
 40
3.556295
 50
64.625569
 51
124.625569
  0
ARC
  8
CSLAYER1
  6
CONTINUOUS
 62
     3
 10
747.882035
 20
946.326068
 40
13.374785
 50
72.412046
 51
107.587954
  0
LINE
  8
CSLAYER1
  6
CONTINUOUS
 62
     3
 10
754.882035
 20
951.900853
 11
755.964939
 21
952.526068
  0
ARC
  8
CSLAYER1
  6
CONTINUOUS
 62
     3
 10
753.944213
 20
955.452482
 40
3.556295
 50
235.374431
 51
295.374431
  0
ARC
  8
CSLAYER1
  6
CONTINUOUS
 62
     3
 10
747.882035
 20
965.275638
 40
13.374785
 50
252.412046
 51
287.587954
  0
LINE
  8
CSLAYER1
  6
CONTINUOUS
 62
     3
 10
739.799131
 20
952.526068
 11
739.799131
 21
959.075638
  0
LINE
  8
CSLAYER1
  6
CONTINUOUS
 62
     3
 10
743.840583
 20
952.526068
 11
743.840583
 21
959.075638
  0
LINE
  8
CSLAYER1
  6
CONTINUOUS
 62
     3
 10
740.882035
 20
959.700853
 11
739.799131
 21
959.075638
  0
ARC
  8
CSLAYER1
  6
CONTINUOUS
 62
     3
 10
741.819857
 20
956.149224
 40
3.556295
 50
55.374431
 51
115.374431
  0
LINE
  8
CSLAYER1
  6
CONTINUOUS
 62
     3
 10
740.882035
 20
951.900853
 11
739.799131
 21
952.526068
  0
ARC
  8
CSLAYER1
  6
CONTINUOUS
 62
     3
 10
741.819857
 20
955.452482
 40
3.556295
 50
244.625569
 51
304.625569
  0
LINE
  8
CSLAYER1
  6
CONTINUOUS
 62
     3
 10
754.810238
 20
938.236752
 11
754.810238
 21
943.964955
  0
LINE
  8
CSLAYER1
  6
CONTINUOUS
 62
     3
 10
751.346137
 20
938.236752
 11
751.346137
 21
943.964955
  0
LINE
  8
CSLAYER1
  6
CONTINUOUS
 62
     3
 10
753.882035
 20
937.700853
 11
754.810238
 21
938.236752
  0
ARC
  8
CSLAYER1
  6
CONTINUOUS
 62
     3
 10
747.882035
 20
949.164955
 40
11.464102
 50
252.178595
 51
287.821405
  0
ARC
  8
CSLAYER1
  6
CONTINUOUS
 62
     3
 10
753.078188
 20
940.766782
 40
3.066114
 50
236.143645
 51
295.804157
  0
LINE
  8
CSLAYER1
  6
CONTINUOUS
 62
     3
 10
753.882035
 20
944.500853
 11
754.810238
 21
943.964955
  0
ARC
  8
CSLAYER1
  6
CONTINUOUS
 62
     3
 10
747.882035
 20
933.036752
 40
11.464102
 50
72.178595
 51
107.821405
  0
ARC
  8
CSLAYER1
  6
CONTINUOUS
 62
     3
 10
753.078188
 20
941.434925
 40
3.066114
 50
64.195843
 51
123.856355
  0
LINE
  8
CSLAYER1
  6
CONTINUOUS
 62
     3
 10
753.882035
 20
944.500853
 11
741.882035
 21
944.500853
  0
LINE
  8
CSLAYER1
  6
CONTINUOUS
 62
     3
 10
751.346137
 20
944.500853
 11
751.346137
 21
944.700853
  0
LINE
  8
CSLAYER1
  6
CONTINUOUS
 62
     3
 10
742.382035
 20
934.700853
 11
742.382035
 21
937.700853
  0
LINE
  8
CSLAYER1
  6
CONTINUOUS
 62
     3
 10
740.953832
 20
938.236752
 11
740.953832
 21
943.964955
  0
LINE
  8
CSLAYER1
  6
CONTINUOUS
 62
     3
 10
744.417933
 20
938.236752
 11
744.417933
 21
943.964955
  0
LINE
  8
CSLAYER1
  6
CONTINUOUS
 62
     3
 10
741.882035
 20
937.700853
 11
740.953832
 21
938.236752
  0
ARC
  8
CSLAYER1
  6
CONTINUOUS
 62
     3
 10
742.685883
 20
940.766782
 40
3.066114
 50
244.195843
 51
303.856355
  0
LINE
  8
CSLAYER1
  6
CONTINUOUS
 62
     3
 10
741.882035
 20
944.500853
 11
740.953832
 21
943.964955
  0
ARC
  8
CSLAYER1
  6
CONTINUOUS
 62
     3
 10
742.685883
 20
941.434925
 40
3.066114
 50
56.143645
 51
115.804157
  0
LINE
  8
CSLAYER1
  6
CONTINUOUS
 62
     3
 10
744.417933
 20
944.500853
 11
744.417933
 21
944.700853
  0
LINE
  8
CSLAYER1
  6
CONTINUOUS
 62
     3
 10
754.810238
 20
925.700853
 11
754.810238
 21
934.164955
  0
LINE
  8
CSLAYER1
  6
CONTINUOUS
 62
     3
 10
751.346137
 20
925.700853
 11
751.346137
 21
934.164955
  0
LINE
  8
CSLAYER1
  6
CONTINUOUS
 62
     3
 10
753.882035
 20
934.700853
 11
754.810238
 21
934.164955
  0
ARC
  8
CSLAYER1
  6
CONTINUOUS
 62
     3
 10
747.882035
 20
923.236752
 40
11.464102
 50
72.178595
 51
107.821405
  0
ARC
  8
CSLAYER1
  6
CONTINUOUS
 62
     3
 10
753.078188
 20
931.634925
 40
3.066114
 50
64.195843
 51
123.856355
  0
LINE
  8
CSLAYER1
  6
CONTINUOUS
 62
     3
 10
753.882035
 20
934.700853
 11
741.882035
 21
934.700853
  0
LINE
  8
CSLAYER1
  6
CONTINUOUS
 62
     3
 10
740.953832
 20
925.700853
 11
740.953832
 21
934.164955
  0
LINE
  8
CSLAYER1
  6
CONTINUOUS
 62
     3
 10
744.417933
 20
925.700853
 11
744.417933
 21
934.164955
  0
LINE
  8
CSLAYER1
  6
CONTINUOUS
 62
     3
 10
741.882035
 20
934.700853
 11
740.953832
 21
934.164955
  0
ARC
  8
CSLAYER1
  6
CONTINUOUS
 62
     3
 10
742.685883
 20
931.634925
 40
3.066114
 50
56.143645
 51
115.804157
  0
LINE
  8
CSLAYER1
  6
CONTINUOUS
 62
     3
 10
753.761317
 20
913.614393
 11
754.810238
 21
925.700853
  0
ARC
  8
CSLAYER1
  6
CONTINUOUS
 62
     3
 10
732.704547
 20
925.700853
 40
18.641590
 50
330.443788
 51
360.000000
  0
ARC
  8
CSLAYER1
  6
CONTINUOUS
 62
     3
 10
747.882035
 20
917.140707
 40
1.217263
 50
210.578468
 51
329.421532
  0
ARC
  8
CSLAYER1
  6
CONTINUOUS
 62
     3
 10
769.987727
 20
925.700853
 40
18.641590
 50
180.000000
 51
209.556212
  0
ARC
  8
CSLAYER1
  6
CONTINUOUS
 62
     3
 10
754.810238
 20
917.140707
 40
1.217263
 50
210.578468
 51
227.594217
  0
ARC
  8
CSLAYER1
  6
CONTINUOUS
 62
     3
 10
752.765061
 20
913.700853
 40
1.000000
 50
270.000000
 51
355.040021
  0
LINE
  8
CSLAYER1
  6
CONTINUOUS
 62
     3
 10
742.002754
 20
913.614393
 11
740.953832
 21
925.700853
  0
ARC
  8
CSLAYER1
  6
CONTINUOUS
 62
     3
 10
763.059523
 20
925.700853
 40
18.641590
 50
180.000000
 51
209.556212
  0
ARC
  8
CSLAYER1
  6
CONTINUOUS
 62
     3
 10
725.776343
 20
925.700853
 40
18.641590
 50
330.443788
 51
360.000000
  0
ARC
  8
CSLAYER1
  6
CONTINUOUS
 62
     3
 10
740.953832
 20
917.140707
 40
1.217263
 50
312.405783
 51
329.421532
  0
ARC
  8
CSLAYER1
  6
CONTINUOUS
 62
     3
 10
742.999009
 20
913.700853
 40
1.000000
 50
184.959979
 51
270.000000
  0
LINE
  8
CSLAYER1
  6
CONTINUOUS
 62
     3
 10
754.882035
 20
979.400853
 11
742.382035
 21
979.400853
  0
LINE
  8
CSLAYER1
  6
CENTER
 62
     5
 10
760.382035
 20
972.400853
 11
754.882035
 21
972.400853
  0
LINE
  8
CSLAYER1
  6
CONTINUOUS
 62
     3
 10
740.882035
 20
965.400853
 11
740.882035
 21
977.900853
  0
LINE
  8
CSLAYER1
  6
CONTINUOUS
 62
     3
 10
754.882035
 20
965.400853
 11
740.882035
 21
965.400853
  0
LINE
  8
CSLAYER1
  6
CONTINUOUS
 62
     3
 10
754.882035
 20
965.400853
 11
754.882035
 21
979.398408
  0
LINE
  8
CSLAYER1
  6
CONTINUOUS
 62
     3
 10
752.482035
 20
959.700853
 11
752.482035
 21
965.400853
  0
LINE
  8
CSLAYER1
  6
CONTINUOUS
 62
     5
 10
751.882035
 20
959.700853
 11
751.882035
 21
964.361623
  0
LINE
  8
CSLAYER1
  6
CONTINUOUS
 62
     5
 10
752.482035
 20
965.400853
 11
751.882035
 21
964.361623
  0
LINE
  8
CSLAYER1
  6
CONTINUOUS
 62
     3
 10
743.282035
 20
959.700853
 11
743.282035
 21
965.400853
  0
LINE
  8
CSLAYER1
  6
CONTINUOUS
 62
     5
 10
743.282035
 20
965.400853
 11
743.882035
 21
964.361623
  0
LINE
  8
CSLAYER1
  6
CONTINUOUS
 62
     5
 10
751.882035
 20
964.361623
 11
743.882035
 21
964.361623
  0
LINE
  8
CSLAYER1
  6
CONTINUOUS
 62
     3
 10
760.382035
 20
967.549067
 11
754.882035
 21
967.450853
  0
LINE
  8
CSLAYER1
  6
CONTINUOUS
 62
     5
 10
760.382035
 20
968.249179
 11
754.869537
 21
968.150742
  0
LINE
  8
CSLAYER1
  6
CONTINUOUS
 62
     3
 10
760.382035
 20
977.252639
 11
754.882035
 21
977.350853
  0
LINE
  8
CSLAYER1
  6
CONTINUOUS
 62
     5
 10
760.382035
 20
976.552527
 11
754.869537
 21
976.650965
  0
ARC
  8
CSLAYER1
  6
CONTINUOUS
 62
     3
 10
742.382035
 20
977.900853
 40
1.500000
 50
90.000000
 51
180.000000
  0
LINE
  8
CSLAYER1
  6
CONTINUOUS
 62
     3
 10
766.382035
 20
1179.418598
 11
769.882035
 21
1179.418598
  0
LINE
  8
CSLAYER1
  6
CONTINUOUS
 62
     3
 10
765.382035
 20
1180.418598
 11
766.382035
 21
1179.418598
  0
LINE
  8
CSLAYER1
  6
CONTINUOUS
 62
     3
 10
809.382035
 20
1179.418598
 11
810.382035
 21
1180.418598
  0
LINE
  8
CSLAYER1
  6
CONTINUOUS
 62
     3
 10
811.382035
 20
1185.018598
 11
810.382035
 21
1185.018598
  0
LINE
  8
CSLAYER1
  6
CONTINUOUS
 62
     3
 10
765.382035
 20
1185.018598
 11
764.382035
 21
1185.018598
  0
LINE
  8
CSLAYER1
  6
CONTINUOUS
 62
     3
 10
752.382035
 20
1210.018598
 11
764.382035
 21
1210.018598
  0
LINE
  8
CSLAYER1
  6
CONTINUOUS
 62
     3
 10
752.382035
 20
1138.262436
 11
764.382035
 21
1138.262436
  0
LINE
  8
CSLAYER1
  6
CONTINUOUS
 62
     3
 10
811.382035
 20
1138.262436
 11
811.382035
 21
1210.018598
  0
LINE
  8
CSLAYER1
  6
CONTINUOUS
 62
     3
 10
764.382035
 20
1138.262436
 11
764.382035
 21
1210.018598
  0
LINE
  8
CSLAYER1
  6
CONTINUOUS
 62
     3
 10
752.382035
 20
1138.262436
 11
752.382035
 21
1210.018598
  0
LINE
  8
CSLAYER1
  6
CONTINUOUS
 62
     3
 10
811.382035
 20
1138.262436
 11
823.382035
 21
1138.262436
  0
LINE
  8
CSLAYER1
  6
CONTINUOUS
 62
     3
 10
811.382035
 20
1210.018598
 11
823.382035
 21
1210.018598
  0
LINE
  8
CSLAYER1
  6
CONTINUOUS
 62
     3
 10
731.382035
 20
1201.018598
 11
752.382035
 21
1201.018598
  0
LINE
  8
CSLAYER1
  6
CONTINUOUS
 62
     3
 10
731.382035
 20
1185.018598
 11
752.382035
 21
1185.018598
  0
LINE
  8
CSLAYER1
  6
CONTINUOUS
 62
     3
 10
823.382035
 20
1283.975646
 11
731.382035
 21
1283.975646
  0
LINE
  8
CSLAYER1
  6
CONTINUOUS
 62
     3
 10
698.882035
 20
1133.768980
 11
699.382035
 21
1133.768980
  0
LINE
  8
CSLAYER1
  6
CONTINUOUS
 62
     3
 10
709.882035
 20
1149.268980
 11
709.882035
 21
1128.268980
  0
LINE
  8
CSLAYER1
  6
CONTINUOUS
 62
     3
 10
697.882035
 20
1134.768980
 11
697.882035
 21
1142.768980
  0
LINE
  8
CSLAYER1
  6
CONTINUOUS
 62
     3
 10
719.382035
 20
1152.768980
 11
722.382035
 21
1152.768980
  0
LINE
  8
CSLAYER1
  6
CONTINUOUS
 62
     3
 10
719.382035
 20
830.402217
 11
719.382035
 21
1476.395627
  0
LINE
  8
CSLAYER1
  6
CONTINUOUS
 62
     3
 10
722.382035
 20
830.402217
 11
722.382035
 21
1488.695627
  0
LINE
  8
CSLAYER1
  6
CONTINUOUS
 62
     3
 10
719.382035
 20
1124.768980
 11
722.382035
 21
1124.768980
  0
LINE
  8
CSLAYER1
  6
CONTINUOUS
 62
     3
 10
707.882035
 20
1149.268980
 11
707.882035
 21
1128.268980
  0
LINE
  8
CSLAYER1
  6
CONTINUOUS
 62
     3
 10
705.382035
 20
1147.968980
 11
705.382035
 21
1129.568980
  0
LINE
  8
CSLAYER1
  6
CONTINUOUS
 62
     3
 10
705.382035
 20
1129.568980
 11
707.882035
 21
1129.568980
  0
LINE
  8
CSLAYER1
  6
CONTINUOUS
 62
     3
 10
707.882035
 20
1128.268980
 11
709.882035
 21
1128.268980
  0
LINE
  8
CSLAYER1
  6
CONTINUOUS
 62
     3
 10
705.382035
 20
1147.968980
 11
707.882035
 21
1147.968980
  0
LINE
  8
CSLAYER1
  6
CONTINUOUS
 62
     3
 10
707.882035
 20
1149.268980
 11
709.882035
 21
1149.268980
  0
LINE
  8
CSLAYER1
  6
CONTINUOUS
 62
     3
 10
699.382035
 20
1147.268980
 11
699.382035
 21
1130.268980
  0
LINE
  8
CSLAYER1
  6
CONTINUOUS
 62
     3
 10
698.882035
 20
1133.768980
 11
697.882035
 21
1134.768980
  0
LINE
  8
CSLAYER1
  6
CONTINUOUS
 62
     3
 10
698.182035
 20
1134.468980
 11
699.382035
 21
1134.468980
  0
LINE
  8
CSLAYER1
  6
CONTINUOUS
 62
     3
 10
698.882035
 20
1133.768980
 11
698.882035
 21
1143.768980
  0
LINE
  8
CSLAYER1
  6
CONTINUOUS
 62
     3
 10
700.141224
 20
1128.954025
 11
704.622846
 21
1128.954025
  0
LINE
  8
CSLAYER1
  6
CONTINUOUS
 62
     3
 10
700.141224
 20
1133.861503
 11
704.622846
 21
1133.861503
  0
LINE
  8
CSLAYER1
  6
CONTINUOUS
 62
     3
 10
699.382035
 20
1130.268980
 11
700.141224
 21
1128.954025
  0
ARC
  8
CSLAYER1
  6
CONTINUOUS
 62
     3
 10
715.622846
 20
1138.768980
 40
16.240811
 50
162.412046
 51
197.587954
  0
ARC
  8
CSLAYER1
  6
CONTINUOUS
 62
     3
 10
703.722959
 20
1131.407764
 40
4.341619
 50
145.586132
 51
207.480777
  0
LINE
  8
CSLAYER1
  6
CONTINUOUS
 62
     3
 10
699.382035
 20
1147.268980
 11
700.141224
 21
1148.583935
  0
ARC
  8
CSLAYER1
  6
CONTINUOUS
 62
     3
 10
703.722959
 20
1146.130196
 40
4.341619
 50
152.519223
 51
214.413868
  0
LINE
  8
CSLAYER1
  6
CONTINUOUS
 62
     3
 10
705.382035
 20
1130.268980
 11
704.622846
 21
1128.954025
  0
ARC
  8
CSLAYER1
  6
CONTINUOUS
 62
     3
 10
689.141224
 20
1138.768980
 40
16.240811
 50
-17.587954
 51
17.587954
  0
ARC
  8
CSLAYER1
  6
CONTINUOUS
 62
     3
 10
701.041111
 20
1131.407764
 40
4.341619
 50
-27.480777
 51
34.413868
  0
LINE
  8
CSLAYER1
  6
CONTINUOUS
 62
     3
 10
705.382035
 20
1147.268980
 11
704.622846
 21
1148.583935
  0
ARC
  8
CSLAYER1
  6
CONTINUOUS
 62
     3
 10
701.041111
 20
1146.130196
 40
4.341619
 50
-34.413868
 51
27.480777
  0
LINE
  8
CSLAYER1
  6
CONTINUOUS
 62
     3
 10
700.141224
 20
1148.583935
 11
704.622846
 21
1148.583935
  0
LINE
  8
CSLAYER1
  6
CONTINUOUS
 62
     3
 10
700.141224
 20
1143.676457
 11
704.622846
 21
1143.676457
  0
LINE
  8
CSLAYER1
  6
CONTINUOUS
 62
     3
 10
698.882035
 20
1143.768980
 11
699.382035
 21
1143.768980
  0
LINE
  8
CSLAYER1
  6
CONTINUOUS
 62
     3
 10
698.882035
 20
1143.768980
 11
697.882035
 21
1142.768980
  0
LINE
  8
CSLAYER1
  6
CONTINUOUS
 62
     3
 10
698.182035
 20
1143.068980
 11
699.382035
 21
1143.068980
  0
LINE
  8
CSLAYER1
  6
CONTINUOUS
 62
     3
 10
707.882035
 20
1140.670428
 11
705.382035
 21
1137.300862
  0
LINE
  8
CSLAYER1
  6
CONTINUOUS
 62
     3
 10
710.382035
 20
1131.268980
 11
709.882035
 21
1131.268980
  0
LINE
  8
CSLAYER1
  6
CONTINUOUS
 62
     3
 10
710.382035
 20
1146.268980
 11
709.882035
 21
1146.268980
  0
LINE
  8
CSLAYER1
  6
CONTINUOUS
 62
     3
 10
677.382035
 20
1488.695627
 11
677.382035
 21
1506.695627
  0
LINE
  8
CSLAYER1
  6
CONTINUOUS
 62
     3
 10
721.382035
 20
1478.245627
 11
722.382035
 21
1478.245627
  0
LINE
  8
CSLAYER1
  6
CONTINUOUS
 62
     3
 10
720.382035
 20
1488.695627
 11
720.382035
 21
1479.245627
  0
LINE
  8
CSLAYER1
  6
CONTINUOUS
 62
     3
 10
720.382035
 20
1479.245627
 11
721.382035
 21
1478.245627
  0
LINE
  8
CSLAYER1
  6
CONTINUOUS
 62
     3
 10
721.382035
 20
1488.695627
 11
721.382035
 21
1478.245627
  0
LINE
  8
CSLAYER1
  6
CONTINUOUS
 62
     3
 10
719.882035
 20
1476.395627
 11
713.882035
 21
1476.395627
  0
LINE
  8
CSLAYER1
  6
CONTINUOUS
 62
     3
 10
713.882035
 20
1488.695627
 11
713.882035
 21
1476.145627
  0
LINE
  8
CSLAYER1
  6
CONTINUOUS
 62
     3
 10
719.882035
 20
1488.695627
 11
719.882035
 21
1476.395627
  0
LINE
  8
CSLAYER1
  6
CONTINUOUS
 62
     3
 10
710.882035
 20
1475.925972
 11
710.882035
 21
1488.695627
  0
LINE
  8
CSLAYER1
  6
CONTINUOUS
 62
     3
 10
713.882035
 20
1476.145627
 11
710.882035
 21
1476.145627
  0
LINE
  8
CSLAYER1
  6
CONTINUOUS
 62
     3
 10
713.882035
 20
1485.383431
 11
711.043009
 21
1488.695627
  0
LINE
  8
CSLAYER1
  6
CONTINUOUS
 62
     3
 10
702.882035
 20
1488.695627
 11
702.882035
 21
1477.895627
  0
ARC
  8
CSLAYER1
  6
CONTINUOUS
 62
     3
 10
716.677779
 20
1486.895627
 40
13.795744
 50
172.502957
 51
203.426598
  0
LINE
  8
CSLAYER1
  6
CONTINUOUS
 62
     3
 10
710.882035
 20
1481.410800
 11
704.019216
 21
1481.410800
  0
LINE
  8
CSLAYER1
  6
CONTINUOUS
 62
     3
 10
710.882035
 20
1475.925972
 11
704.019216
 21
1475.925972
  0
LINE
  8
CSLAYER1
  6
CONTINUOUS
 62
     3
 10
702.882035
 20
1477.895627
 11
704.019216
 21
1475.925972
  0
ARC
  8
CSLAYER1
  6
CONTINUOUS
 62
     3
 10
706.662080
 20
1478.668386
 40
3.808617
 50
133.940972
 51
174.338367
  0
LINE
  8
CSLAYER1
  6
CONTINUOUS
 62
     3
 10
731.382035
 20
830.402217
 11
731.382035
 21
1488.695627
  0
LINE
  8
CSLAYER1
  6
CONTINUOUS
 62
     3
 10
710.382035
 20
830.402217
 11
710.382035
 21
1475.925972
  0
LINE
  8
CSLAYER1
  6
CONTINUOUS
 62
     3
 10
692.382035
 20
1474.395627
 11
692.382035
 21
1488.695627
  0
LINE
  8
CSLAYER1
  6
CONTINUOUS
 62
     3
 10
696.882035
 20
1474.395627
 11
696.882035
 21
1488.695627
  0
LINE
  8
CSLAYER1
  6
CONTINUOUS
 62
     3
 10
692.382035
 20
1474.395627
 11
696.882035
 21
1474.395627
  0
LINE
  8
CSLAYER1
  6
CONTINUOUS
 62
     3
 10
862.382035
 20
1474.395627
 11
862.382035
 21
1488.695627
  0
LINE
  8
CSLAYER1
  6
CONTINUOUS
 62
     3
 10
857.882035
 20
1474.395627
 11
857.882035
 21
1488.695627
  0
LINE
  8
CSLAYER1
  6
CONTINUOUS
 62
     3
 10
862.382035
 20
1474.395627
 11
857.882035
 21
1474.395627
  0
LINE
  8
CSLAYER1
  6
CONTINUOUS
 62
     3
 10
805.882035
 20
1179.418598
 11
809.382035
 21
1179.418598
  0
LINE
  8
CSLAYER1
  6
CONTINUOUS
 62
     3
 10
731.382035
 20
1164.738160
 11
752.382035
 21
1164.738160
  0
LINE
  8
CSLAYER1
  6
CONTINUOUS
 62
     3
 10
731.382035
 20
1116.138160
 11
769.882035
 21
1116.138160
  0
LINE
  8
CSLAYER1
  6
CONTINUOUS
 62
     3
 10
731.382035
 20
1423.259113
 11
823.382035
 21
1423.259113
  0
LINE
  8
CSLAYER1
  6
CONTINUOUS
 62
     3
 10
764.382035
 20
1164.738160
 11
769.882035
 21
1164.738160
  0
LINE
  8
CSLAYER1
  6
CONTINUOUS
 62
     3
 10
805.882035
 20
1164.738160
 11
811.382035
 21
1164.738160
  0
LINE
  8
CSLAYER1
  6
CONTINUOUS
 62
     3
 10
805.882035
 20
1116.138160
 11
823.382035
 21
1116.138160
  0
LINE
  8
CSLAYER1
  6
CENTER
 62
     5
 10
758.882035
 20
880.026015
 11
816.882035
 21
880.026015
  0
LINE
  8
CSLAYER1
  6
CONTINUOUS
 62
     3
 10
810.794513
 20
1009.989747
 11
815.277389
 21
992.700521
  0
LINE
  8
CSLAYER1
  6
CONTINUOUS
 62
     3
 10
810.794513
 20
1009.989747
 11
810.532613
 21
1010.954191
  0
LINE
  8
CSLAYER1
  6
CONTINUOUS
 62
     3
 10
810.532613
 20
1010.954191
 11
810.098329
 21
1011.903899
  0
LINE
  8
CSLAYER1
  6
CONTINUOUS
 62
     3
 10
810.098329
 20
1011.903899
 11
809.494965
 21
1012.831643
  0
LINE
  8
CSLAYER1
  6
CONTINUOUS
 62
     3
 10
809.494965
 20
1012.831643
 11
808.727114
 21
1013.730362
  0
LINE
  8
CSLAYER1
  6
CONTINUOUS
 62
     3
 10
808.727114
 20
1013.730362
 11
807.800619
 21
1014.593217
  0
LINE
  8
CSLAYER1
  6
CONTINUOUS
 62
     3
 10
807.800619
 20
1014.593217
 11
806.722532
 21
1015.413640
  0
LINE
  8
CSLAYER1
  6
CONTINUOUS
 62
     3
 10
806.722532
 20
1015.413640
 11
805.501057
 21
1016.185387
  0
LINE
  8
CSLAYER1
  6
CONTINUOUS
 62
     3
 10
805.501057
 20
1016.185387
 11
804.145491
 21
1016.902586
  0
LINE
  8
CSLAYER1
  6
CONTINUOUS
 62
     3
 10
804.145491
 20
1016.902586
 11
802.666150
 21
1017.559778
  0
LINE
  8
CSLAYER1
  6
CONTINUOUS
 62
     3
 10
802.666150
 20
1017.559778
 11
801.074293
 21
1018.151960
  0
LINE
  8
CSLAYER1
  6
CONTINUOUS
 62
     3
 10
801.074293
 20
1018.151960
 11
799.382035
 21
1018.674627
  0
LINE
  8
CSLAYER1
  6
CONTINUOUS
 62
     3
 10
799.382035
 20
1018.674627
 11
797.602255
 21
1019.123801
  0
LINE
  8
CSLAYER1
  6
CONTINUOUS
 62
     3
 10
797.602255
 20
1019.123801
 11
795.748498
 21
1019.496063
  0
LINE
  8
CSLAYER1
  6
CONTINUOUS
 62
     3
 10
795.748498
 20
1019.496063
 11
793.834873
 21
1019.788579
  0
LINE
  8
CSLAYER1
  6
CONTINUOUS
 62
     3
 10
793.834873
 20
1019.788579
 11
791.875943
 21
1019.999124
  0
LINE
  8
CSLAYER1
  6
CONTINUOUS
 62
     3
 10
791.875943
 20
1019.999124
 11
789.886617
 21
1020.126096
  0
LINE
  8
CSLAYER1
  6
CONTINUOUS
 62
     3
 10
789.886617
 20
1020.126096
 11
787.882035
 21
1020.168527
  0
LINE
  8
CSLAYER1
  6
CONTINUOUS
 62
     3
 10
764.969557
 20
1009.989747
 11
760.486681
 21
992.700521
  0
LINE
  8
CSLAYER1
  6
CONTINUOUS
 62
     3
 10
764.969557
 20
1009.989747
 11
765.231457
 21
1010.954191
  0
LINE
  8
CSLAYER1
  6
CONTINUOUS
 62
     3
 10
765.231457
 20
1010.954191
 11
765.665741
 21
1011.903899
  0
LINE
  8
CSLAYER1
  6
CONTINUOUS
 62
     3
 10
765.665741
 20
1011.903899
 11
766.269105
 21
1012.831643
  0
LINE
  8
CSLAYER1
  6
CONTINUOUS
 62
     3
 10
766.269105
 20
1012.831643
 11
767.036956
 21
1013.730362
  0
LINE
  8
CSLAYER1
  6
CONTINUOUS
 62
     3
 10
767.036956
 20
1013.730362
 11
767.963451
 21
1014.593217
  0
LINE
  8
CSLAYER1
  6
CONTINUOUS
 62
     3
 10
767.963451
 20
1014.593217
 11
769.041538
 21
1015.413640
  0
LINE
  8
CSLAYER1
  6
CONTINUOUS
 62
     3
 10
769.041538
 20
1015.413640
 11
770.263013
 21
1016.185387
  0
LINE
  8
CSLAYER1
  6
CONTINUOUS
 62
     3
 10
770.263013
 20
1016.185387
 11
771.618579
 21
1016.902586
  0
LINE
  8
CSLAYER1
  6
CONTINUOUS
 62
     3
 10
771.618579
 20
1016.902586
 11
773.097920
 21
1017.559778
  0
LINE
  8
CSLAYER1
  6
CONTINUOUS
 62
     3
 10
773.097920
 20
1017.559778
 11
774.689777
 21
1018.151960
  0
LINE
  8
CSLAYER1
  6
CONTINUOUS
 62
     3
 10
774.689777
 20
1018.151960
 11
776.382035
 21
1018.674627
  0
LINE
  8
CSLAYER1
  6
CONTINUOUS
 62
     3
 10
776.382035
 20
1018.674627
 11
778.161815
 21
1019.123801
  0
LINE
  8
CSLAYER1
  6
CONTINUOUS
 62
     3
 10
778.161815
 20
1019.123801
 11
780.015572
 21
1019.496063
  0
LINE
  8
CSLAYER1
  6
CONTINUOUS
 62
     3
 10
780.015572
 20
1019.496063
 11
781.929197
 21
1019.788579
  0
LINE
  8
CSLAYER1
  6
CONTINUOUS
 62
     3
 10
781.929197
 20
1019.788579
 11
783.888127
 21
1019.999124
  0
LINE
  8
CSLAYER1
  6
CONTINUOUS
 62
     3
 10
783.888127
 20
1019.999124
 11
785.877453
 21
1020.126096
  0
LINE
  8
CSLAYER1
  6
CONTINUOUS
 62
     3
 10
785.877453
 20
1020.126096
 11
787.882035
 21
1020.168527
  0
LINE
  8
CSLAYER1
  6
CONTINUOUS
 62
     3
 10
815.382035
 20
991.538537
 11
815.382035
 21
960.949641
  0
LINE
  8
CSLAYER1
  6
CONTINUOUS
 62
     3
 10
815.382035
 20
991.538537
 11
815.277389
 21
992.700521
  0
LINE
  8
CSLAYER1
  6
CONTINUOUS
 62
     3
 10
815.277389
 20
992.700521
 11
814.964248
 21
993.853661
  0
LINE
  8
CSLAYER1
  6
CONTINUOUS
 62
     3
 10
814.964248
 20
993.853661
 11
814.444995
 21
994.989181
  0
LINE
  8
CSLAYER1
  6
CONTINUOUS
 62
     3
 10
814.444995
 20
994.989181
 11
813.723582
 21
996.098440
  0
LINE
  8
CSLAYER1
  6
CONTINUOUS
 62
     3
 10
813.723582
 20
996.098440
 11
812.805499
 21
997.172996
  0
LINE
  8
CSLAYER1
  6
CONTINUOUS
 62
     3
 10
812.805499
 20
997.172996
 11
811.697734
 21
998.204669
  0
LINE
  8
CSLAYER1
  6
CONTINUOUS
 62
     3
 10
811.697734
 20
998.204669
 11
810.408716
 21
999.185610
  0
LINE
  8
CSLAYER1
  6
CONTINUOUS
 62
     3
 10
810.408716
 20
999.185610
 11
808.948257
 21
1000.108352
  0
LINE
  8
CSLAYER1
  6
CONTINUOUS
 62
     3
 10
808.948257
 20
1000.108352
 11
807.327472
 21
1000.965872
  0
LINE
  8
CSLAYER1
  6
CONTINUOUS
 62
     3
 10
807.327472
 20
1000.965872
 11
805.558694
 21
1001.751644
  0
LINE
  8
CSLAYER1
  6
CONTINUOUS
 62
     3
 10
805.558694
 20
1001.751644
 11
803.655387
 21
1002.459689
  0
LINE
  8
CSLAYER1
  6
CONTINUOUS
 62
     3
 10
803.655387
 20
1002.459689
 11
801.632035
 21
1003.084617
  0
LINE
  8
CSLAYER1
  6
CONTINUOUS
 62
     3
 10
801.632035
 20
1003.084617
 11
799.504037
 21
1003.621672
  0
LINE
  8
CSLAYER1
  6
CONTINUOUS
 62
     3
 10
799.504037
 20
1003.621672
 11
797.287589
 21
1004.066768
  0
LINE
  8
CSLAYER1
  6
CONTINUOUS
 62
     3
 10
797.287589
 20
1004.066768
 11
794.999559
 21
1004.416516
  0
LINE
  8
CSLAYER1
  6
CONTINUOUS
 62
     3
 10
794.999559
 20
1004.416516
 11
792.657360
 21
1004.668255
  0
LINE
  8
CSLAYER1
  6
CONTINUOUS
 62
     3
 10
792.657360
 20
1004.668255
 11
790.278818
 21
1004.820068
  0
LINE
  8
CSLAYER1
  6
CONTINUOUS
 62
     3
 10
790.278818
 20
1004.820068
 11
787.882035
 21
1004.870802
  0
LINE
  8
CSLAYER1
  6
CONTINUOUS
 62
     3
 10
787.882035
 20
1004.870802
 11
785.485252
 21
1004.820068
  0
LINE
  8
CSLAYER1
  6
CONTINUOUS
 62
     3
 10
785.485252
 20
1004.820068
 11
783.106710
 21
1004.668255
  0
LINE
  8
CSLAYER1
  6
CONTINUOUS
 62
     3
 10
783.106710
 20
1004.668255
 11
780.764511
 21
1004.416516
  0
LINE
  8
CSLAYER1
  6
CONTINUOUS
 62
     3
 10
780.764511
 20
1004.416516
 11
778.476481
 21
1004.066768
  0
LINE
  8
CSLAYER1
  6
CONTINUOUS
 62
     3
 10
778.476481
 20
1004.066768
 11
776.260033
 21
1003.621672
  0
LINE
  8
CSLAYER1
  6
CONTINUOUS
 62
     3
 10
776.260033
 20
1003.621672
 11
774.132035
 21
1003.084617
  0
LINE
  8
CSLAYER1
  6
CONTINUOUS
 62
     3
 10
774.132035
 20
1003.084617
 11
772.108683
 21
1002.459689
  0
LINE
  8
CSLAYER1
  6
CONTINUOUS
 62
     3
 10
772.108683
 20
1002.459689
 11
770.205376
 21
1001.751644
  0
LINE
  8
CSLAYER1
  6
CONTINUOUS
 62
     3
 10
770.205376
 20
1001.751644
 11
768.436599
 21
1000.965872
  0
LINE
  8
CSLAYER1
  6
CONTINUOUS
 62
     3
 10
768.436599
 20
1000.965872
 11
766.815813
 21
1000.108352
  0
LINE
  8
CSLAYER1
  6
CONTINUOUS
 62
     3
 10
766.815813
 20
1000.108352
 11
765.355354
 21
999.185610
  0
LINE
  8
CSLAYER1
  6
CONTINUOUS
 62
     3
 10
765.355354
 20
999.185610
 11
764.066336
 21
998.204669
  0
LINE
  8
CSLAYER1
  6
CONTINUOUS
 62
     3
 10
764.066336
 20
998.204669
 11
762.958571
 21
997.172996
  0
LINE
  8
CSLAYER1
  6
CONTINUOUS
 62
     3
 10
762.958571
 20
997.172996
 11
762.040488
 21
996.098440
  0
LINE
  8
CSLAYER1
  6
CONTINUOUS
 62
     3
 10
762.040488
 20
996.098440
 11
761.319075
 21
994.989181
  0
LINE
  8
CSLAYER1
  6
CONTINUOUS
 62
     3
 10
761.319075
 20
994.989181
 11
760.799822
 21
993.853661
  0
LINE
  8
CSLAYER1
  6
CONTINUOUS
 62
     3
 10
760.799822
 20
993.853661
 11
760.486681
 21
992.700521
  0
LINE
  8
CSLAYER1
  6
CONTINUOUS
 62
     3
 10
760.486681
 20
992.700521
 11
760.382035
 21
991.538537
  0
LINE
  8
CSLAYER1
  6
CONTINUOUS
 62
     3
 10
760.382035
 20
991.538537
 11
760.382035
 21
960.949641
  0
LINE
  8
CSLAYER1
  6
CONTINUOUS
 62
     3
 10
812.182035
 20
898.131825
 11
812.182035
 21
960.949641
  0
LINE
  8
CSLAYER1
  6
CONTINUOUS
 62
     3
 10
815.382035
 20
960.949641
 11
815.277389
 21
962.111625
  0
LINE
  8
CSLAYER1
  6
CONTINUOUS
 62
     3
 10
815.277389
 20
962.111625
 11
814.964248
 21
963.264765
  0
LINE
  8
CSLAYER1
  6
CONTINUOUS
 62
     3
 10
814.964248
 20
963.264765
 11
814.444995
 21
964.400285
  0
LINE
  8
CSLAYER1
  6
CONTINUOUS
 62
     3
 10
814.444995
 20
964.400285
 11
813.723582
 21
965.509544
  0
LINE
  8
CSLAYER1
  6
CONTINUOUS
 62
     3
 10
813.723582
 20
965.509544
 11
812.805499
 21
966.584100
  0
LINE
  8
CSLAYER1
  6
CONTINUOUS
 62
     3
 10
812.805499
 20
966.584100
 11
811.697734
 21
967.615773
  0
LINE
  8
CSLAYER1
  6
CONTINUOUS
 62
     3
 10
811.697734
 20
967.615773
 11
810.408716
 21
968.596714
  0
LINE
  8
CSLAYER1
  6
CONTINUOUS
 62
     3
 10
810.408716
 20
968.596714
 11
808.948257
 21
969.519456
  0
LINE
  8
CSLAYER1
  6
CONTINUOUS
 62
     3
 10
808.948257
 20
969.519456
 11
807.327472
 21
970.376976
  0
LINE
  8
CSLAYER1
  6
CONTINUOUS
 62
     3
 10
807.327472
 20
970.376976
 11
805.558694
 21
971.162748
  0
LINE
  8
CSLAYER1
  6
CONTINUOUS
 62
     3
 10
805.558694
 20
971.162748
 11
803.655387
 21
971.870793
  0
LINE
  8
CSLAYER1
  6
CONTINUOUS
 62
     3
 10
803.655387
 20
971.870793
 11
801.632035
 21
972.495721
  0
LINE
  8
CSLAYER1
  6
CONTINUOUS
 62
     3
 10
801.632035
 20
972.495721
 11
799.504037
 21
973.032776
  0
LINE
  8
CSLAYER1
  6
CONTINUOUS
 62
     3
 10
799.504037
 20
973.032776
 11
797.287589
 21
973.477872
  0
LINE
  8
CSLAYER1
  6
CONTINUOUS
 62
     3
 10
797.287589
 20
973.477872
 11
794.999559
 21
973.827620
  0
LINE
  8
CSLAYER1
  6
CONTINUOUS
 62
     3
 10
794.999559
 20
973.827620
 11
792.657360
 21
974.079359
  0
LINE
  8
CSLAYER1
  6
CONTINUOUS
 62
     3
 10
792.657360
 20
974.079359
 11
790.278818
 21
974.231172
  0
LINE
  8
CSLAYER1
  6
CONTINUOUS
 62
     3
 10
790.278818
 20
974.231172
 11
787.882035
 21
974.281906
  0
LINE
  8
CSLAYER1
  6
CONTINUOUS
 62
     3
 10
787.882035
 20
974.281906
 11
785.485252
 21
974.231172
  0
LINE
  8
CSLAYER1
  6
CONTINUOUS
 62
     3
 10
785.485252
 20
974.231172
 11
783.106710
 21
974.079359
  0
LINE
  8
CSLAYER1
  6
CONTINUOUS
 62
     3
 10
783.106710
 20
974.079359
 11
780.764511
 21
973.827620
  0
LINE
  8
CSLAYER1
  6
CONTINUOUS
 62
     3
 10
780.764511
 20
973.827620
 11
778.476481
 21
973.477872
  0
LINE
  8
CSLAYER1
  6
CONTINUOUS
 62
     3
 10
778.476481
 20
973.477872
 11
776.260033
 21
973.032776
  0
LINE
  8
CSLAYER1
  6
CONTINUOUS
 62
     3
 10
776.260033
 20
973.032776
 11
774.132035
 21
972.495721
  0
LINE
  8
CSLAYER1
  6
CONTINUOUS
 62
     3
 10
774.132035
 20
972.495721
 11
772.108683
 21
971.870793
  0
LINE
  8
CSLAYER1
  6
CONTINUOUS
 62
     3
 10
772.108683
 20
971.870793
 11
770.205376
 21
971.162748
  0
LINE
  8
CSLAYER1
  6
CONTINUOUS
 62
     3
 10
770.205376
 20
971.162748
 11
768.436599
 21
970.376976
  0
LINE
  8
CSLAYER1
  6
CONTINUOUS
 62
     3
 10
768.436599
 20
970.376976
 11
766.815813
 21
969.519456
  0
LINE
  8
CSLAYER1
  6
CONTINUOUS
 62
     3
 10
766.815813
 20
969.519456
 11
765.355354
 21
968.596714
  0
LINE
  8
CSLAYER1
  6
CONTINUOUS
 62
     3
 10
765.355354
 20
968.596714
 11
764.066336
 21
967.615773
  0
LINE
  8
CSLAYER1
  6
CONTINUOUS
 62
     3
 10
764.066336
 20
967.615773
 11
762.958571
 21
966.584100
  0
LINE
  8
CSLAYER1
  6
CONTINUOUS
 62
     3
 10
762.958571
 20
966.584100
 11
762.040488
 21
965.509544
  0
LINE
  8
CSLAYER1
  6
CONTINUOUS
 62
     3
 10
762.040488
 20
965.509544
 11
761.319075
 21
964.400285
  0
LINE
  8
CSLAYER1
  6
CONTINUOUS
 62
     3
 10
761.319075
 20
964.400285
 11
760.799822
 21
963.264765
  0
LINE
  8
CSLAYER1
  6
CONTINUOUS
 62
     3
 10
760.799822
 20
963.264765
 11
760.486681
 21
962.111625
  0
LINE
  8
CSLAYER1
  6
CONTINUOUS
 62
     3
 10
760.486681
 20
962.111625
 11
760.382035
 21
960.949641
  0
LINE
  8
CSLAYER1
  6
CONTINUOUS
 62
     3
 10
760.382035
 20
960.949641
 11
760.486681
 21
959.787658
  0
LINE
  8
CSLAYER1
  6
CONTINUOUS
 62
     3
 10
760.486681
 20
959.787658
 11
760.799822
 21
958.634518
  0
LINE
  8
CSLAYER1
  6
CONTINUOUS
 62
     3
 10
760.799822
 20
958.634518
 11
761.319075
 21
957.498997
  0
LINE
  8
CSLAYER1
  6
CONTINUOUS
 62
     3
 10
761.319075
 20
957.498997
 11
762.040488
 21
956.389738
  0
LINE
  8
CSLAYER1
  6
CONTINUOUS
 62
     3
 10
762.040488
 20
956.389738
 11
762.958571
 21
955.315183
  0
LINE
  8
CSLAYER1
  6
CONTINUOUS
 62
     3
 10
762.958571
 20
955.315183
 11
763.582035
 21
954.734544
  0
LINE
  8
CSLAYER1
  6
CONTINUOUS
 62
     3
 10
812.182035
 20
954.734544
 11
812.805499
 21
955.315183
  0
LINE
  8
CSLAYER1
  6
CONTINUOUS
 62
     3
 10
812.805499
 20
955.315183
 11
813.723582
 21
956.389738
  0
LINE
  8
CSLAYER1
  6
CONTINUOUS
 62
     3
 10
813.723582
 20
956.389738
 11
814.444995
 21
957.498997
  0
LINE
  8
CSLAYER1
  6
CONTINUOUS
 62
     3
 10
814.444995
 20
957.498997
 11
814.964248
 21
958.634518
  0
LINE
  8
CSLAYER1
  6
CONTINUOUS
 62
     3
 10
814.964248
 20
958.634518
 11
815.277389
 21
959.787658
  0
LINE
  8
CSLAYER1
  6
CONTINUOUS
 62
     3
 10
815.277389
 20
959.787658
 11
815.382035
 21
960.949641
  0
LINE
  8
CSLAYER1
  6
CONTINUOUS
 62
     3
 10
812.182035
 20
960.949641
 11
812.089566
 21
961.976412
  0
LINE
  8
CSLAYER1
  6
CONTINUOUS
 62
     3
 10
812.089566
 20
961.976412
 11
811.812863
 21
962.995368
  0
LINE
  8
CSLAYER1
  6
CONTINUOUS
 62
     3
 10
811.812863
 20
962.995368
 11
811.354033
 21
963.998756
  0
LINE
  8
CSLAYER1
  6
CONTINUOUS
 62
     3
 10
811.354033
 20
963.998756
 11
810.716566
 21
964.978937
  0
LINE
  8
CSLAYER1
  6
CONTINUOUS
 62
     3
 10
810.716566
 20
964.978937
 11
809.905314
 21
965.928454
  0
LINE
  8
CSLAYER1
  6
CONTINUOUS
 62
     3
 10
809.905314
 20
965.928454
 11
808.926452
 21
966.840078
  0
LINE
  8
CSLAYER1
  6
CONTINUOUS
 62
     3
 10
808.926452
 20
966.840078
 11
807.787430
 21
967.706873
  0
LINE
  8
CSLAYER1
  6
CONTINUOUS
 62
     3
 10
807.787430
 20
967.706873
 11
806.496915
 21
968.522241
  0
LINE
  8
CSLAYER1
  6
CONTINUOUS
 62
     3
 10
806.496915
 20
968.522241
 11
805.064730
 21
969.279977
  0
LINE
  8
CSLAYER1
  6
CONTINUOUS
 62
     3
 10
805.064730
 20
969.279977
 11
803.501774
 21
969.974314
  0
LINE
  8
CSLAYER1
  6
CONTINUOUS
 62
     3
 10
803.501774
 20
969.974314
 11
801.819942
 21
970.599968
  0
LINE
  8
CSLAYER1
  6
CONTINUOUS
 62
     3
 10
801.819942
 20
970.599968
 11
800.032035
 21
971.152177
  0
LINE
  8
CSLAYER1
  6
CONTINUOUS
 62
     3
 10
800.032035
 20
971.152177
 11
798.151659
 21
971.626739
  0
LINE
  8
CSLAYER1
  6
CONTINUOUS
 62
     3
 10
798.151659
 20
971.626739
 11
796.193125
 21
972.020041
  0
LINE
  8
CSLAYER1
  6
CONTINUOUS
 62
     3
 10
796.193125
 20
972.020041
 11
794.171338
 21
972.329091
  0
LINE
  8
CSLAYER1
  6
CONTINUOUS
 62
     3
 10
794.171338
 20
972.329091
 11
792.101686
 21
972.551537
  0
LINE
  8
CSLAYER1
  6
CONTINUOUS
 62
     3
 10
792.101686
 20
972.551537
 11
789.999920
 21
972.685685
  0
LINE
  8
CSLAYER1
  6
CONTINUOUS
 62
     3
 10
789.999920
 20
972.685685
 11
787.882035
 21
972.730515
  0
LINE
  8
CSLAYER1
  6
CONTINUOUS
 62
     3
 10
787.882035
 20
972.730515
 11
785.764151
 21
972.685685
  0
LINE
  8
CSLAYER1
  6
CONTINUOUS
 62
     3
 10
785.764151
 20
972.685685
 11
783.662384
 21
972.551537
  0
LINE
  8
CSLAYER1
  6
CONTINUOUS
 62
     3
 10
783.662384
 20
972.551537
 11
781.592732
 21
972.329091
  0
LINE
  8
CSLAYER1
  6
CONTINUOUS
 62
     3
 10
781.592732
 20
972.329091
 11
779.570946
 21
972.020041
  0
LINE
  8
CSLAYER1
  6
CONTINUOUS
 62
     3
 10
779.570946
 20
972.020041
 11
777.612411
 21
971.626739
  0
LINE
  8
CSLAYER1
  6
CONTINUOUS
 62
     3
 10
777.612411
 20
971.626739
 11
775.732035
 21
971.152177
  0
LINE
  8
CSLAYER1
  6
CONTINUOUS
 62
     3
 10
775.732035
 20
971.152177
 11
773.944128
 21
970.599968
  0
LINE
  8
CSLAYER1
  6
CONTINUOUS
 62
     3
 10
773.944128
 20
970.599968
 11
772.262296
 21
969.974314
  0
LINE
  8
CSLAYER1
  6
CONTINUOUS
 62
     3
 10
772.262296
 20
969.974314
 11
770.699340
 21
969.279977
  0
LINE
  8
CSLAYER1
  6
CONTINUOUS
 62
     3
 10
770.699340
 20
969.279977
 11
769.267155
 21
968.522241
  0
LINE
  8
CSLAYER1
  6
CONTINUOUS
 62
     3
 10
769.267155
 20
968.522241
 11
767.976640
 21
967.706873
  0
LINE
  8
CSLAYER1
  6
CONTINUOUS
 62
     3
 10
767.976640
 20
967.706873
 11
766.837618
 21
966.840078
  0
LINE
  8
CSLAYER1
  6
CONTINUOUS
 62
     3
 10
766.837618
 20
966.840078
 11
765.858756
 21
965.928454
  0
LINE
  8
CSLAYER1
  6
CONTINUOUS
 62
     3
 10
765.858756
 20
965.928454
 11
765.047504
 21
964.978937
  0
LINE
  8
CSLAYER1
  6
CONTINUOUS
 62
     3
 10
765.047504
 20
964.978937
 11
764.410037
 21
963.998756
  0
LINE
  8
CSLAYER1
  6
CONTINUOUS
 62
     3
 10
764.410037
 20
963.998756
 11
763.951207
 21
962.995368
  0
LINE
  8
CSLAYER1
  6
CONTINUOUS
 62
     3
 10
763.951207
 20
962.995368
 11
763.674504
 21
961.976412
  0
LINE
  8
CSLAYER1
  6
CONTINUOUS
 62
     3
 10
763.674504
 20
961.976412
 11
763.582035
 21
960.949641
  0
LINE
  8
CSLAYER1
  6
CONTINUOUS
 62
     3
 10
763.582035
 20
898.131825
 11
763.582035
 21
960.949641
  0
LINE
  8
CSLAYER1
  6
CONTINUOUS
 62
     3
 10
810.382035
 20
867.542929
 11
810.382035
 21
898.131825
  0
LINE
  8
CSLAYER1
  6
CONTINUOUS
 62
     3
 10
810.382035
 20
898.131825
 11
810.296416
 21
899.082538
  0
LINE
  8
CSLAYER1
  6
CONTINUOUS
 62
     3
 10
810.296416
 20
899.082538
 11
810.040210
 21
900.026016
  0
LINE
  8
CSLAYER1
  6
CONTINUOUS
 62
     3
 10
810.040210
 20
900.026016
 11
809.615366
 21
900.955079
  0
LINE
  8
CSLAYER1
  6
CONTINUOUS
 62
     3
 10
809.615366
 20
900.955079
 11
809.025119
 21
901.862654
  0
LINE
  8
CSLAYER1
  6
CONTINUOUS
 62
     3
 10
809.025119
 20
901.862654
 11
808.273960
 21
902.741836
  0
LINE
  8
CSLAYER1
  6
CONTINUOUS
 62
     3
 10
808.273960
 20
902.741836
 11
807.367607
 21
903.585933
  0
LINE
  8
CSLAYER1
  6
CONTINUOUS
 62
     3
 10
807.367607
 20
903.585933
 11
806.312956
 21
904.388520
  0
LINE
  8
CSLAYER1
  6
CONTINUOUS
 62
     3
 10
806.312956
 20
904.388520
 11
805.118035
 21
905.143491
  0
LINE
  8
CSLAYER1
  6
CONTINUOUS
 62
     3
 10
805.118035
 20
905.143491
 11
803.791938
 21
905.845098
  0
LINE
  8
CSLAYER1
  6
CONTINUOUS
 62
     3
 10
803.791938
 20
905.845098
 11
802.344756
 21
906.488003
  0
LINE
  8
CSLAYER1
  6
CONTINUOUS
 62
     3
 10
802.344756
 20
906.488003
 11
800.787505
 21
907.067312
  0
LINE
  8
CSLAYER1
  6
CONTINUOUS
 62
     3
 10
800.787505
 20
907.067312
 11
799.132035
 21
907.578617
  0
LINE
  8
CSLAYER1
  6
CONTINUOUS
 62
     3
 10
799.132035
 20
907.578617
 11
797.390946
 21
908.018026
  0
LINE
  8
CSLAYER1
  6
CONTINUOUS
 62
     3
 10
797.390946
 20
908.018026
 11
795.577488
 21
908.382195
  0
LINE
  8
CSLAYER1
  6
CONTINUOUS
 62
     3
 10
795.577488
 20
908.382195
 11
793.705464
 21
908.668353
  0
LINE
  8
CSLAYER1
  6
CONTINUOUS
 62
     3
 10
793.705464
 20
908.668353
 11
791.789119
 21
908.874321
  0
LINE
  8
CSLAYER1
  6
CONTINUOUS
 62
     3
 10
791.789119
 20
908.874321
 11
789.843039
 21
908.998532
  0
LINE
  8
CSLAYER1
  6
CONTINUOUS
 62
     3
 10
789.843039
 20
908.998532
 11
787.882035
 21
909.040041
  0
LINE
  8
CSLAYER1
  6
CONTINUOUS
 62
     3
 10
787.882035
 20
909.040041
 11
785.921031
 21
908.998532
  0
LINE
  8
CSLAYER1
  6
CONTINUOUS
 62
     3
 10
785.921031
 20
908.998532
 11
783.974951
 21
908.874321
  0
LINE
  8
CSLAYER1
  6
CONTINUOUS
 62
     3
 10
783.974951
 20
908.874321
 11
782.058607
 21
908.668353
  0
LINE
  8
CSLAYER1
  6
CONTINUOUS
 62
     3
 10
782.058607
 20
908.668353
 11
780.186582
 21
908.382195
  0
LINE
  8
CSLAYER1
  6
CONTINUOUS
 62
     3
 10
780.186582
 20
908.382195
 11
778.373124
 21
908.018026
  0
LINE
  8
CSLAYER1
  6
CONTINUOUS
 62
     3
 10
778.373124
 20
908.018026
 11
776.632035
 21
907.578617
  0
LINE
  8
CSLAYER1
  6
CONTINUOUS
 62
     3
 10
776.632035
 20
907.578617
 11
774.976565
 21
907.067312
  0
LINE
  8
CSLAYER1
  6
CONTINUOUS
 62
     3
 10
774.976565
 20
907.067312
 11
773.419314
 21
906.488003
  0
LINE
  8
CSLAYER1
  6
CONTINUOUS
 62
     3
 10
773.419314
 20
906.488003
 11
771.972133
 21
905.845098
  0
LINE
  8
CSLAYER1
  6
CONTINUOUS
 62
     3
 10
771.972133
 20
905.845098
 11
770.646035
 21
905.143491
  0
LINE
  8
CSLAYER1
  6
CONTINUOUS
 62
     3
 10
770.646035
 20
905.143491
 11
769.451114
 21
904.388520
  0
LINE
  8
CSLAYER1
  6
CONTINUOUS
 62
     3
 10
769.451114
 20
904.388520
 11
768.396463
 21
903.585933
  0
LINE
  8
CSLAYER1
  6
CONTINUOUS
 62
     3
 10
768.396463
 20
903.585933
 11
767.490110
 21
902.741836
  0
LINE
  8
CSLAYER1
  6
CONTINUOUS
 62
     3
 10
767.490110
 20
902.741836
 11
766.738951
 21
901.862654
  0
LINE
  8
CSLAYER1
  6
CONTINUOUS
 62
     3
 10
766.738951
 20
901.862654
 11
766.148704
 21
900.955079
  0
LINE
  8
CSLAYER1
  6
CONTINUOUS
 62
     3
 10
766.148704
 20
900.955079
 11
765.723861
 21
900.026016
  0
LINE
  8
CSLAYER1
  6
CONTINUOUS
 62
     3
 10
765.723861
 20
900.026016
 11
765.467654
 21
899.082538
  0
LINE
  8
CSLAYER1
  6
CONTINUOUS
 62
     3
 10
765.467654
 20
899.082538
 11
765.382035
 21
898.131825
  0
LINE
  8
CSLAYER1
  6
CONTINUOUS
 62
     3
 10
765.382035
 20
898.131825
 11
765.467654
 21
897.181111
  0
LINE
  8
CSLAYER1
  6
CONTINUOUS
 62
     3
 10
812.182035
 20
898.131825
 11
812.089566
 21
899.158595
  0
LINE
  8
CSLAYER1
  6
CONTINUOUS
 62
     3
 10
812.089566
 20
899.158595
 11
811.812863
 21
900.177552
  0
LINE
  8
CSLAYER1
  6
CONTINUOUS
 62
     3
 10
811.812863
 20
900.177552
 11
811.354033
 21
901.180939
  0
LINE
  8
CSLAYER1
  6
CONTINUOUS
 62
     3
 10
811.354033
 20
901.180939
 11
810.716566
 21
902.161121
  0
LINE
  8
CSLAYER1
  6
CONTINUOUS
 62
     3
 10
810.716566
 20
902.161121
 11
809.905314
 21
903.110637
  0
LINE
  8
CSLAYER1
  6
CONTINUOUS
 62
     3
 10
809.905314
 20
903.110637
 11
808.926452
 21
904.022261
  0
LINE
  8
CSLAYER1
  6
CONTINUOUS
 62
     3
 10
808.926452
 20
904.022261
 11
807.787430
 21
904.889056
  0
LINE
  8
CSLAYER1
  6
CONTINUOUS
 62
     3
 10
807.787430
 20
904.889056
 11
806.496915
 21
905.704424
  0
LINE
  8
CSLAYER1
  6
CONTINUOUS
 62
     3
 10
806.496915
 20
905.704424
 11
805.064730
 21
906.462160
  0
LINE
  8
CSLAYER1
  6
CONTINUOUS
 62
     3
 10
805.064730
 20
906.462160
 11
803.501774
 21
907.156497
  0
LINE
  8
CSLAYER1
  6
CONTINUOUS
 62
     3
 10
803.501774
 20
907.156497
 11
801.819942
 21
907.782151
  0
LINE
  8
CSLAYER1
  6
CONTINUOUS
 62
     3
 10
801.819942
 20
907.782151
 11
800.032035
 21
908.334361
  0
LINE
  8
CSLAYER1
  6
CONTINUOUS
 62
     3
 10
800.032035
 20
908.334361
 11
798.151659
 21
908.808922
  0
LINE
  8
CSLAYER1
  6
CONTINUOUS
 62
     3
 10
798.151659
 20
908.808922
 11
796.193125
 21
909.202225
  0
LINE
  8
CSLAYER1
  6
CONTINUOUS
 62
     3
 10
796.193125
 20
909.202225
 11
794.171338
 21
909.511275
  0
LINE
  8
CSLAYER1
  6
CONTINUOUS
 62
     3
 10
794.171338
 20
909.511275
 11
792.101686
 21
909.733720
  0
LINE
  8
CSLAYER1
  6
CONTINUOUS
 62
     3
 10
792.101686
 20
909.733720
 11
789.999920
 21
909.867869
  0
LINE
  8
CSLAYER1
  6
CONTINUOUS
 62
     3
 10
789.999920
 20
909.867869
 11
787.882035
 21
909.912698
  0
LINE
  8
CSLAYER1
  6
CONTINUOUS
 62
     3
 10
787.882035
 20
909.912698
 11
785.764151
 21
909.867869
  0
LINE
  8
CSLAYER1
  6
CONTINUOUS
 62
     3
 10
785.764151
 20
909.867869
 11
783.662384
 21
909.733720
  0
LINE
  8
CSLAYER1
  6
CONTINUOUS
 62
     3
 10
783.662384
 20
909.733720
 11
781.592732
 21
909.511275
  0
LINE
  8
CSLAYER1
  6
CONTINUOUS
 62
     3
 10
781.592732
 20
909.511275
 11
779.570946
 21
909.202225
  0
LINE
  8
CSLAYER1
  6
CONTINUOUS
 62
     3
 10
779.570946
 20
909.202225
 11
777.612411
 21
908.808922
  0
LINE
  8
CSLAYER1
  6
CONTINUOUS
 62
     3
 10
777.612411
 20
908.808922
 11
775.732035
 21
908.334361
  0
LINE
  8
CSLAYER1
  6
CONTINUOUS
 62
     3
 10
775.732035
 20
908.334361
 11
773.944128
 21
907.782151
  0
LINE
  8
CSLAYER1
  6
CONTINUOUS
 62
     3
 10
773.944128
 20
907.782151
 11
772.262296
 21
907.156497
  0
LINE
  8
CSLAYER1
  6
CONTINUOUS
 62
     3
 10
772.262296
 20
907.156497
 11
770.699340
 21
906.462160
  0
LINE
  8
CSLAYER1
  6
CONTINUOUS
 62
     3
 10
770.699340
 20
906.462160
 11
769.267155
 21
905.704424
  0
LINE
  8
CSLAYER1
  6
CONTINUOUS
 62
     3
 10
769.267155
 20
905.704424
 11
767.976640
 21
904.889056
  0
LINE
  8
CSLAYER1
  6
CONTINUOUS
 62
     3
 10
767.976640
 20
904.889056
 11
766.837618
 21
904.022261
  0
LINE
  8
CSLAYER1
  6
CONTINUOUS
 62
     3
 10
766.837618
 20
904.022261
 11
765.858756
 21
903.110637
  0
LINE
  8
CSLAYER1
  6
CONTINUOUS
 62
     3
 10
765.858756
 20
903.110637
 11
765.047504
 21
902.161121
  0
LINE
  8
CSLAYER1
  6
CONTINUOUS
 62
     3
 10
765.047504
 20
902.161121
 11
764.410037
 21
901.180939
  0
LINE
  8
CSLAYER1
  6
CONTINUOUS
 62
     3
 10
764.410037
 20
901.180939
 11
763.951207
 21
900.177552
  0
LINE
  8
CSLAYER1
  6
CONTINUOUS
 62
     3
 10
763.951207
 20
900.177552
 11
763.674504
 21
899.158595
  0
LINE
  8
CSLAYER1
  6
CONTINUOUS
 62
     3
 10
763.674504
 20
899.158595
 11
763.582035
 21
898.131825
  0
LINE
  8
CSLAYER1
  6
CONTINUOUS
 62
     3
 10
763.582035
 20
898.131825
 11
763.674504
 21
897.105054
  0
LINE
  8
CSLAYER1
  6
CONTINUOUS
 62
     3
 10
763.674504
 20
897.105054
 11
763.967522
 21
896.026015
  0
LINE
  8
CSLAYER1
  6
CONTINUOUS
 62
     3
 10
764.882035
 20
894.356957
 11
765.382035
 21
893.710982
  0
LINE
  8
CSLAYER1
  6
CONTINUOUS
 62
     3
 10
811.796548
 20
896.026015
 11
812.089566
 21
897.105054
  0
LINE
  8
CSLAYER1
  6
CONTINUOUS
 62
     3
 10
812.089566
 20
897.105054
 11
812.182035
 21
898.131825
  0
LINE
  8
CSLAYER1
  6
CONTINUOUS
 62
     3
 10
765.382035
 20
867.542929
 11
765.382035
 21
898.131825
  0
LINE
  8
CSLAYER1
  6
CONTINUOUS
 62
     3
 10
810.382035
 20
867.542929
 11
810.296416
 21
868.493642
  0
LINE
  8
CSLAYER1
  6
CONTINUOUS
 62
     3
 10
810.296416
 20
868.493642
 11
810.040210
 21
869.437121
  0
LINE
  8
CSLAYER1
  6
CONTINUOUS
 62
     3
 10
810.040210
 20
869.437121
 11
809.615366
 21
870.366183
  0
LINE
  8
CSLAYER1
  6
CONTINUOUS
 62
     3
 10
809.615366
 20
870.366183
 11
809.025119
 21
871.273758
  0
LINE
  8
CSLAYER1
  6
CONTINUOUS
 62
     3
 10
809.025119
 20
871.273758
 11
808.273960
 21
872.152940
  0
LINE
  8
CSLAYER1
  6
CONTINUOUS
 62
     3
 10
808.273960
 20
872.152940
 11
807.367607
 21
872.997037
  0
LINE
  8
CSLAYER1
  6
CONTINUOUS
 62
     3
 10
807.367607
 20
872.997037
 11
806.312956
 21
873.799625
  0
LINE
  8
CSLAYER1
  6
CONTINUOUS
 62
     3
 10
806.312956
 20
873.799625
 11
805.118035
 21
874.554595
  0
LINE
  8
CSLAYER1
  6
CONTINUOUS
 62
     3
 10
805.118035
 20
874.554595
 11
803.791938
 21
875.256202
  0
LINE
  8
CSLAYER1
  6
CONTINUOUS
 62
     3
 10
803.791938
 20
875.256202
 11
802.344756
 21
875.899107
  0
LINE
  8
CSLAYER1
  6
CONTINUOUS
 62
     3
 10
802.344756
 20
875.899107
 11
800.787505
 21
876.478416
  0
LINE
  8
CSLAYER1
  6
CONTINUOUS
 62
     3
 10
800.787505
 20
876.478416
 11
799.132035
 21
876.989721
  0
LINE
  8
CSLAYER1
  6
CONTINUOUS
 62
     3
 10
799.132035
 20
876.989721
 11
797.390946
 21
877.429130
  0
LINE
  8
CSLAYER1
  6
CONTINUOUS
 62
     3
 10
797.390946
 20
877.429130
 11
795.577488
 21
877.793299
  0
LINE
  8
CSLAYER1
  6
CONTINUOUS
 62
     3
 10
795.577488
 20
877.793299
 11
793.705464
 21
878.079457
  0
LINE
  8
CSLAYER1
  6
CONTINUOUS
 62
     3
 10
793.705464
 20
878.079457
 11
791.789119
 21
878.285425
  0
LINE
  8
CSLAYER1
  6
CONTINUOUS
 62
     3
 10
791.789119
 20
878.285425
 11
789.843039
 21
878.409636
  0
LINE
  8
CSLAYER1
  6
CONTINUOUS
 62
     3
 10
789.843039
 20
878.409636
 11
787.882035
 21
878.451145
  0
LINE
  8
CSLAYER1
  6
CONTINUOUS
 62
     3
 10
787.882035
 20
878.451145
 11
785.921031
 21
878.409636
  0
LINE
  8
CSLAYER1
  6
CONTINUOUS
 62
     3
 10
785.921031
 20
878.409636
 11
783.974951
 21
878.285425
  0
LINE
  8
CSLAYER1
  6
CONTINUOUS
 62
     3
 10
783.974951
 20
878.285425
 11
782.058607
 21
878.079457
  0
LINE
  8
CSLAYER1
  6
CONTINUOUS
 62
     3
 10
782.058607
 20
878.079457
 11
780.186582
 21
877.793299
  0
LINE
  8
CSLAYER1
  6
CONTINUOUS
 62
     3
 10
780.186582
 20
877.793299
 11
778.373124
 21
877.429130
  0
LINE
  8
CSLAYER1
  6
CONTINUOUS
 62
     3
 10
778.373124
 20
877.429130
 11
776.632035
 21
876.989721
  0
LINE
  8
CSLAYER1
  6
CONTINUOUS
 62
     3
 10
776.632035
 20
876.989721
 11
774.976565
 21
876.478416
  0
LINE
  8
CSLAYER1
  6
CONTINUOUS
 62
     3
 10
774.976565
 20
876.478416
 11
773.419314
 21
875.899107
  0
LINE
  8
CSLAYER1
  6
CONTINUOUS
 62
     3
 10
773.419314
 20
875.899107
 11
771.972133
 21
875.256202
  0
LINE
  8
CSLAYER1
  6
CONTINUOUS
 62
     3
 10
771.972133
 20
875.256202
 11
770.646035
 21
874.554595
  0
LINE
  8
CSLAYER1
  6
CONTINUOUS
 62
     3
 10
770.646035
 20
874.554595
 11
769.451114
 21
873.799625
  0
LINE
  8
CSLAYER1
  6
CONTINUOUS
 62
     3
 10
769.451114
 20
873.799625
 11
768.396463
 21
872.997037
  0
LINE
  8
CSLAYER1
  6
CONTINUOUS
 62
     3
 10
768.396463
 20
872.997037
 11
767.490110
 21
872.152940
  0
LINE
  8
CSLAYER1
  6
CONTINUOUS
 62
     3
 10
767.490110
 20
872.152940
 11
766.738951
 21
871.273758
  0
LINE
  8
CSLAYER1
  6
CONTINUOUS
 62
     3
 10
766.738951
 20
871.273758
 11
766.148704
 21
870.366183
  0
LINE
  8
CSLAYER1
  6
CONTINUOUS
 62
     3
 10
766.148704
 20
870.366183
 11
765.723861
 21
869.437121
  0
LINE
  8
CSLAYER1
  6
CONTINUOUS
 62
     3
 10
765.723861
 20
869.437121
 11
765.467654
 21
868.493642
  0
LINE
  8
CSLAYER1
  6
CONTINUOUS
 62
     3
 10
765.467654
 20
868.493642
 11
765.382035
 21
867.542929
  0
LINE
  8
CSLAYER1
  6
CONTINUOUS
 62
     3
 10
765.382035
 20
867.542929
 11
765.467654
 21
866.592215
  0
LINE
  8
CSLAYER1
  6
CONTINUOUS
 62
     3
 10
765.467654
 20
866.592215
 11
765.723861
 21
865.648737
  0
LINE
  8
CSLAYER1
  6
CONTINUOUS
 62
     3
 10
765.723861
 20
865.648737
 11
766.148704
 21
864.719674
  0
LINE
  8
CSLAYER1
  6
CONTINUOUS
 62
     3
 10
766.148704
 20
864.719674
 11
766.738951
 21
863.812099
  0
LINE
  8
CSLAYER1
  6
CONTINUOUS
 62
     3
 10
766.738951
 20
863.812099
 11
767.490110
 21
862.932917
  0
LINE
  8
CSLAYER1
  6
CONTINUOUS
 62
     3
 10
767.490110
 20
862.932917
 11
768.378529
 21
862.105523
  0
LINE
  8
CSLAYER1
  6
CONTINUOUS
 62
     3
 10
807.385541
 20
862.105523
 11
808.273960
 21
862.932917
  0
LINE
  8
CSLAYER1
  6
CONTINUOUS
 62
     3
 10
808.273960
 20
862.932917
 11
809.025119
 21
863.812099
  0
LINE
  8
CSLAYER1
  6
CONTINUOUS
 62
     3
 10
809.025119
 20
863.812099
 11
809.615366
 21
864.719674
  0
LINE
  8
CSLAYER1
  6
CONTINUOUS
 62
     3
 10
809.615366
 20
864.719674
 11
810.040210
 21
865.648737
  0
LINE
  8
CSLAYER1
  6
CONTINUOUS
 62
     3
 10
810.040210
 20
865.648737
 11
810.296416
 21
866.592215
  0
LINE
  8
CSLAYER1
  6
CONTINUOUS
 62
     3
 10
810.296416
 20
866.592215
 11
810.382035
 21
867.542929
  0
LINE
  8
CSLAYER1
  6
CENTER
 62
     5
 10
753.834041
 20
870.611532
 11
764.882035
 21
870.611532
  0
LINE
  8
CSLAYER1
  6
CONTINUOUS
 62
     3
 10
758.882035
 20
896.026015
 11
764.882035
 21
896.026015
  0
LINE
  8
CSLAYER1
  6
CONTINUOUS
 62
     3
 10
758.882035
 20
842.482535
 11
764.882035
 21
842.482535
  0
LINE
  8
CSLAYER1
  6
CONTINUOUS
 62
     3
 10
719.382035
 20
861.945286
 11
722.382035
 21
861.945286
  0
LINE
  8
CSLAYER1
  6
CONTINUOUS
 62
     3
 10
810.882035
 20
894.356957
 11
810.382035
 21
893.710982
  0
LINE
  8
CSLAYER1
  6
CONTINUOUS
 62
     3
 10
810.882035
 20
896.026015
 11
816.882035
 21
896.026015
  0
LINE
  8
CSLAYER1
  6
CONTINUOUS
 62
     3
 10
810.882035
 20
842.482535
 11
816.882035
 21
842.482535
  0
LINE
  8
CSLAYER1
  6
CONTINUOUS
 62
     3
 10
731.382035
 20
861.945286
 11
743.732035
 21
861.945286
  0
LINE
  8
CSLAYER1
  6
CONTINUOUS
 62
     3
 10
764.882035
 20
861.945286
 11
810.882035
 21
861.945286
  0
LINE
  8
CSLAYER1
  6
CONTINUOUS
 62
     3
 10
832.382035
 20
861.945286
 11
835.382035
 21
861.945286
  0
LINE
  8
CSLAYER1
  6
CONTINUOUS
 62
     3
 10
816.882035
 20
861.945286
 11
823.382035
 21
861.945286
  0
LINE
  8
CSLAYER1
  6
CONTINUOUS
 62
     3
 10
731.382035
 20
1031.936877
 11
769.882035
 21
1031.936877
  0
LINE
  8
CSLAYER1
  6
CONTINUOUS
 62
     3
 10
731.382035
 20
1029.928454
 11
769.882035
 21
1029.928454
  0
LINE
  8
CSLAYER1
  6
CONTINUOUS
 62
     3
 10
805.882035
 20
1031.936877
 11
823.382035
 21
1031.936877
  0
LINE
  8
CSLAYER1
  6
CONTINUOUS
 62
     3
 10
805.882035
 20
1029.928454
 11
823.382035
 21
1029.928454
  0
LINE
  8
CSLAYER1
  6
CONTINUOUS
 62
     3
 10
743.732035
 20
830.402217
 11
743.732035
 21
912.700853
  0
LINE
  8
CSLAYER1
  6
CONTINUOUS
 62
     3
 10
752.032035
 20
830.402217
 11
752.032035
 21
912.700853
  0
LINE
  8
CSLAYER1
  6
CONTINUOUS
 62
     3
 10
752.032035
 20
861.945286
 11
758.882035
 21
861.945286
  0
LINE
  8
CSLAYER1
  6
CENTER
 62
     5
 10
1513.850951
 20
880.026015
 11
1722.385968
 21
1193.018598
  0
ARC
  8
CSLAYER1
  6
CONTINUOUS
 62
     3
 10
1722.385968
 20
1193.018598
 40
8.000000
 50
32.176883
 51
250.071831
  0
POINT
  8
CSLAYER1
 62
     3
 10
1722.385968
 20
1193.018598
  0
LINE
  8
CSLAYER1
  6
CONTINUOUS
 62
     3
 10
1584.813623
 20
1018.998311
 11
1686.323907
 21
1171.356252
  0
CIRCLE
  8
CSLAYER1
  6
CONTINUOUS
 62
     4
 10
1731.440193
 20
1138.768980
 40
8.500000
  0
LINE
  8
CSLAYER1
  6
CONTINUOUS
 62
     4
 10
1731.417471
 20
1148.583908
 11
1722.928854
 21
1143.656766
  0
LINE
  8
CSLAYER1
  6
CONTINUOUS
 62
     4
 10
1722.928854
 20
1143.656766
 11
1722.951576
 21
1133.841838
  0
LINE
  8
CSLAYER1
  6
CONTINUOUS
 62
     4
 10
1722.951576
 20
1133.841838
 11
1731.462914
 21
1128.954052
  0
LINE
  8
CSLAYER1
  6
CONTINUOUS
 62
     4
 10
1731.462914
 20
1128.954052
 11
1739.951531
 21
1133.881194
  0
LINE
  8
CSLAYER1
  6
CONTINUOUS
 62
     4
 10
1739.951531
 20
1133.881194
 11
1739.928809
 21
1143.696122
  0
LINE
  8
CSLAYER1
  6
CONTINUOUS
 62
     4
 10
1739.928809
 20
1143.696122
 11
1731.417471
 21
1148.583908
  0
CIRCLE
  8
CSLAYER1
  6
CONTINUOUS
 62
     5
 10
1731.440193
 20
1138.768980
 40
5.000000
  0
CIRCLE
  8
CSLAYER1
  6
CONTINUOUS
 62
     4
 10
1731.440193
 20
1138.768980
 40
4.300000
  0
POINT
  8
CSLAYER1
 62
     4
 10
1731.440193
 20
1138.768980
  0
LINE
  8
CSLAYER1
  6
CONTINUOUS
 62
     4
 10
1783.938054
 20
1186.360728
 11
1774.888706
 21
1167.966183
  0
LINE
  8
CSLAYER1
  6
CONTINUOUS
 62
     4
 10
1783.938054
 20
1186.360728
 11
1975.365864
 21
1423.806288
  0
LINE
  8
CSLAYER1
  6
CONTINUOUS
 62
     4
 10
1975.365864
 20
1423.806288
 11
1985.491161
 21
1474.395627
  0
LINE
  8
CSLAYER1
  6
CONTINUOUS
 62
     4
 10
1478.658138
 20
886.561758
 11
1952.567824
 21
1474.395627
  0
LINE
  8
CSLAYER1
  6
CONTINUOUS
 62
     4
 10
1518.187151
 20
849.555581
 11
1774.888706
 21
1167.966183
  0
LINE
  8
CSLAYER1
  6
CONTINUOUS
 62
     4
 10
1478.658138
 20
886.561758
 11
1457.108082
 21
825.469163
  0
LINE
  8
CSLAYER1
  6
CONTINUOUS
 62
     4
 10
1499.534512
 20
830.402217
 11
1512.475083
 21
846.453601
  0
LINE
  8
CSLAYER1
  6
CONTINUOUS
 62
     4
 10
1512.475083
 20
846.453601
 11
1518.187151
 21
849.555581
  0
POINT
  8
CSLAYER1
 62
     4
 10
1464.696523
 20
807.902217
  0
LINE
  8
CSLAYER1
  6
CONTINUOUS
 62
     4
 10
1518.814784
 20
850.334091
 11
1519.204039
 21
850.020275
  0
CIRCLE
  8
CSLAYER1
  6
CONTINUOUS
 62
     4
 10
1513.850951
 20
880.026015
 40
8.000000
  0
LINE
  8
CSLAYER1
  6
CONTINUOUS
 62
     4
 10
1523.893066
 20
892.482175
 11
1531.288911
 21
886.519670
  0
ARC
  8
CSLAYER1
  6
CONTINUOUS
 62
     4
 10
1513.850951
 20
880.026015
 40
16.000000
 50
51.124357
 51
102.499524
  0
POINT
  8
CSLAYER1
 62
     4
 10
1513.850951
 20
880.026015
  0
LINE
  8
CSLAYER1
  6
CONTINUOUS
 62
     4
 10
1519.204039
 20
850.020275
 11
1503.388027
 21
830.402217
  0
POINT
  8
CSLAYER1
 62
     7
 10
1722.385968
 20
1193.018598
  0
LINE
  8
CSLAYER1
  6
CONTINUOUS
 62
     7
 10
1766.810834
 20
1077.369324
 11
1965.914883
 21
830.402217
  0
CIRCLE
  8
CSLAYER1
  6
DASHED
 62
     5
 10
1998.183862
 20
807.902217
 40
13.000000
  0
POINT
  8
CSLAYER1
 62
     7
 10
1998.183862
 20
807.902217
  0
POINT
  8
CSLAYER1
 62
     7
 10
1731.440193
 20
1138.768980
  0
LINE
  8
CSLAYER1
  6
CONTINUOUS
 62
     7
 10
1996.774890
 20
870.991557
 11
2004.898718
 21
830.402217
  0
LINE
  8
CSLAYER1
  6
CONTINUOUS
 62
     7
 10
1504.742349
 20
1481.304875
 11
1731.440193
 21
1200.110642
  0
LINE
  8
CSLAYER1
  6
CONTINUOUS
 62
     7
 10
1510.146398
 20
1419.425272
 11
1477.163034
 21
1476.395627
  0
ARC
  8
CSLAYER1
  6
CONTINUOUS
 62
     7
 10
1501.492170
 20
1414.414849
 40
10.000000
 50
2.933531
 51
30.068979
  0
LINE
  8
CSLAYER1
  6
CONTINUOUS
 62
     7
 10
1511.479066
 20
1414.926623
 11
1512.453808
 21
1395.905249
  0
ARC
  8
CSLAYER1
  6
CONTINUOUS
 62
     7
 10
1522.440704
 20
1396.417023
 40
10.000000
 50
182.933531
 51
218.875643
  0
LINE
  8
CSLAYER1
  6
CONTINUOUS
 62
     7
 10
1687.991679
 20
1167.966183
 11
1696.758558
 21
1157.091814
  0
LINE
  8
CSLAYER1
  6
CONTINUOUS
 62
     7
 10
1766.810834
 20
1077.369324
 11
1750.754895
 21
1090.115180
  0
LINE
  8
CSLAYER1
  6
CONTINUOUS
 62
     7
 10
1678.942331
 20
1186.360728
 11
1687.991679
 21
1167.966183
  0
LINE
  8
CSLAYER1
  6
CONTINUOUS
 62
     7
 10
1678.942331
 20
1186.360728
 11
1514.655603
 21
1390.140701
  0
CIRCLE
  8
CSLAYER1
  6
CONTINUOUS
 62
     7
 10
1731.440193
 20
1138.768980
 40
7.500000
  0
ARC
  8
CSLAYER1
  6
CONTINUOUS
 62
     7
 10
1722.385968
 20
1193.018598
 40
17.000000
 50
42.335098
 51
86.307189
  0
POINT
  8
CSLAYER1
 62
     5
 10
1722.385968
 20
1193.018598
  0
CIRCLE
  8
CSLAYER1
  6
CONTINUOUS
 62
     2
 10
1513.850951
 20
880.026015
 40
8.250000
  0
LINE
  8
CSLAYER1
  6
CONTINUOUS
 62
     4
 10
1580.652595
 20
1021.770646
 11
1585.213339
 21
1018.731996
  0
LINE
  8
CSLAYER1
  6
CONTINUOUS
 62
     4
 10
1547.244193
 20
977.939964
 11
1550.550823
 21
975.736882
  0
LINE
  8
CSLAYER1
  6
CONTINUOUS
 62
     4
 10
1546.966454
 20
979.326637
 11
1565.818330
 21
1007.621632
  0
LINE
  8
CSLAYER1
  6
CONTINUOUS
 62
     4
 10
1565.818330
 20
1007.621632
 11
1580.652595
 21
1021.770646
  0
LINE
  8
CSLAYER1
  6
CONTINUOUS
 62
     2
 10
1570.951950
 20
998.193167
 11
1581.098695
 21
1013.422533
  0
LINE
  8
CSLAYER1
  6
CONTINUOUS
 62
     4
 10
1546.966454
 20
979.326637
 11
1547.244193
 21
977.939964
  0
LINE
  8
CSLAYER1
  6
CONTINUOUS
 62
     4
 10
1538.274315
 20
960.509197
 11
1549.075045
 21
976.720137
  0
POINT
  8
CSLAYER1
 62
     5
 10
1513.850951
 20
880.026015
  0
CIRCLE
  8
CSLAYER1
  6
CONTINUOUS
 62
     3
 10
1464.696523
 20
807.902217
 40
9.500000
  0
LINE
  8
CSLAYER1
  6
CONTINUOUS
 62
     3
 10
1474.196523
 20
813.387045
 11
1464.696523
 21
818.871872
  0
LINE
  8
CSLAYER1
  6
CONTINUOUS
 62
     3
 10
1464.696523
 20
818.871872
 11
1455.196523
 21
813.387045
  0
LINE
  8
CSLAYER1
  6
CONTINUOUS
 62
     3
 10
1455.196523
 20
813.387045
 11
1455.196523
 21
802.417390
  0
LINE
  8
CSLAYER1
  6
CONTINUOUS
 62
     3
 10
1455.196523
 20
802.417390
 11
1464.696523
 21
796.932562
  0
LINE
  8
CSLAYER1
  6
CONTINUOUS
 62
     3
 10
1464.696523
 20
796.932562
 11
1474.196523
 21
802.417390
  0
LINE
  8
CSLAYER1
  6
CONTINUOUS
 62
     3
 10
1474.196523
 20
802.417390
 11
1474.196523
 21
813.387045
  0
POINT
  8
CSLAYER1
 62
     3
 10
1464.696523
 20
807.902217
  0
LINE
  8
CSLAYER1
  6
CONTINUOUS
 62
     3
 10
1439.696523
 20
830.402217
 11
1439.696523
 21
790.402217
  0
LINE
  8
CSLAYER1
  6
CONTINUOUS
 62
     3
 10
2342.696523
 20
830.402217
 11
2342.696523
 21
790.402217
  0
LINE
  8
CSLAYER1
  6
CONTINUOUS
 62
     3
 10
1439.696523
 20
830.402217
 11
1453.240084
 21
830.402217
  0
LINE
  8
CSLAYER1
  6
CONTINUOUS
 62
     3
 10
1476.152962
 20
830.402217
 11
2342.696523
 21
830.402217
  0
LINE
  8
CSLAYER1
  6
CONTINUOUS
 62
     3
 10
1439.696523
 20
796.402217
 11
1489.696523
 21
796.402217
  0
ARC
  8
CSLAYER1
  6
CONTINUOUS
 62
     3
 10
1464.696523
 20
835.402217
 40
12.500000
 50
203.578178
 51
336.421822
  0
LINE
  8
CSLAYER1
  6
CONTINUOUS
 62
     7
 10
1766.121827
 20
1157.091814
 11
1996.774890
 21
870.991557
  0
LINE
  8
CSLAYER1
  6
CONTINUOUS
 62
     7
 10
1731.440193
 20
1114.072986
 11
1750.754895
 21
1090.115180
  0
LINE
  8
CSLAYER1
  6
CONTINUOUS
 62
     4
 10
1499.726151
 20
882.421847
 11
1517.927483
 21
904.998638
  0
ARC
  8
CSLAYER1
  6
CONTINUOUS
 62
     4
 10
1502.061681
 20
880.538950
 40
3.000000
 50
141.124357
 51
231.124357
  0
LINE
  8
CSLAYER1
  6
CONTINUOUS
 62
     4
 10
1500.178784
 20
878.203420
 11
1512.634945
 21
868.161306
  0
ARC
  8
CSLAYER1
  6
CONTINUOUS
 62
     4
 10
1514.517841
 20
870.496836
 40
3.000000
 50
231.124357
 51
321.124357
  0
LINE
  8
CSLAYER1
  6
CONTINUOUS
 62
     4
 10
1516.853371
 20
868.613939
 11
1535.054704
 21
891.190730
  0
ARC
  8
CSLAYER1
  6
CONTINUOUS
 62
     4
 10
1532.719174
 20
893.073626
 40
3.000000
 50
-38.875643
 51
51.124357
  0
LINE
  8
CSLAYER1
  6
CONTINUOUS
 62
     4
 10
1522.145910
 20
905.451271
 11
1534.602070
 21
895.409157
  0
ARC
  8
CSLAYER1
  6
CONTINUOUS
 62
     4
 10
1520.263013
 20
903.115741
 40
3.000000
 50
51.124357
 51
141.124357
  0
LINE
  8
CSLAYER1
  6
CONTINUOUS
 62
     4
 10
1442.396523
 20
1898.148841
 11
2342.396523
 21
1898.148841
  0
CIRCLE
  8
CSLAYER1
  6
CONTINUOUS
 62
     3
 10
747.382035
 20
802.052217
 40
4.150000
  0
LINE
  8
CSLAYER1
  6
CENTER
 62
     5
 10
1464.696523
 20
842.614098
 11
1464.696523
 21
793.471586
  0
LINE
  8
CSLAYER1
  6
CENTER
 62
     5
 10
1452.136332
 20
807.902217
 11
1477.742720
 21
807.902217
  0
LINE
  8
CSLAYER1
  6
CENTER
 62
     5
 10
1503.972066
 20
880.026015
 11
1524.171730
 21
880.026015
  0
LINE
  8
CSLAYER1
  6
CENTER
 62
     5
 10
1513.850951
 20
890.244019
 11
1513.850951
 21
870.172200
  0
LINE
  8
CSLAYER1
  6
CENTER
 62
     5
 10
1998.183862
 20
823.754812
 11
1998.183862
 21
791.825860
  0
LINE
  8
CSLAYER1
  6
CENTER
 62
     5
 10
1982.666927
 20
807.902217
 11
2014.437815
 21
807.902217
  0
LINE
  8
CSLAYER1
  6
CENTER
 62
     5
 10
1720.736942
 20
1138.768980
 11
1742.253604
 21
1138.768980
  0
LINE
  8
CSLAYER1
  6
CENTER
 62
     5
 10
1731.440193
 20
1149.080805
 11
1731.440193
 21
1127.564143
  0
LINE
  8
CSLAYER1
  6
CENTER
 62
     5
 10
1712.884874
 20
1193.018598
 11
1730.093065
 21
1193.018598
  0
LINE
  8
CSLAYER1
  6
CENTER
 62
     5
 10
1722.385968
 20
1202.774097
 11
1722.385968
 21
1183.818882
  0
LINE
  8
CSLAYER1
  6
CONTINUOUS
 62
     5
 10
743.882035
 20
959.700853
 11
743.882035
 21
964.361623
  0
LINE
  8
CSLAYER1
  6
CONTINUOUS
 62
     3
 10
1186.200669
 20
2032.298841
 11
1442.396523
 21
2032.298841
  0
LINE
  8
CSLAYER1
  6
CONTINUOUS
 62
     3
 10
1186.200669
 20
2023.998841
 11
1442.396523
 21
2023.998841
  0
LINE
  8
CSLAYER1
  6
CONTINUOUS
 62
     3
 10
1439.696523
 20
2032.298841
 11
1439.696523
 21
2138.148841
  0
LINE
  8
CSLAYER1
  6
CENTER
 62
     5
 10
1183.314082
 20
806.473701
 11
1439.696523
 21
806.473701
  0
LINE
  8
CSLAYER1
  6
CONTINUOUS
 62
     3
 10
1183.314082
 20
810.623701
 11
1439.696523
 21
810.623701
  0
LINE
  8
CSLAYER1
  6
CONTINUOUS
 62
     3
 10
1183.314082
 20
802.323701
 11
1439.696523
 21
802.323701
  0
INSERT
  8
CSLAYER1
  2
BLKF0001
 10
0.0
 20
0.0
 30
0.0
  0
ARC
  8
CSLAYER1
  6
PHANTOM
 62
     5
 10
1464.696523
 20
835.602217
 40
9.500000
 50
-190.922071
 51
10.922071
  0
LINE
  8
CSLAYER1
  6
PHANTOM
 62
     5
 10
1455.196523
 20
837.402217
 11
1455.196523
 21
830.117390
  0
LINE
  8
CSLAYER1
  6
PHANTOM
 62
     5
 10
1455.196523
 20
830.117390
 11
1464.696523
 21
824.632562
  0
LINE
  8
CSLAYER1
  6
PHANTOM
 62
     5
 10
1464.696523
 20
824.632562
 11
1474.196523
 21
830.117390
  0
LINE
  8
CSLAYER1
  6
PHANTOM
 62
     5
 10
1474.196523
 20
830.117390
 11
1474.196523
 21
837.402217
  0
POINT
  8
CSLAYER1
 62
     5
 10
1464.696523
 20
835.602217
  0
LINE
  8
CSLAYER1
  6
PHANTOM
 62
     5
 10
1442.396523
 20
855.402217
 11
1442.396523
 21
837.402217
  0
LINE
  8
CSLAYER1
  6
PHANTOM
 62
     5
 10
2342.396523
 20
855.402217
 11
2342.396523
 21
837.402217
  0
LINE
  8
CSLAYER1
  6
PHANTOM
 62
     5
 10
1442.396523
 20
855.402217
 11
2342.396523
 21
855.402217
  0
LINE
  8
CSLAYER1
  6
PHANTOM
 62
     5
 10
1442.396523
 20
837.402217
 11
2342.396523
 21
837.402217
  0
LINE
  8
CSLAYER1
  6
PHANTOM
 62
     5
 10
1444.696523
 20
837.402217
 11
1444.696523
 21
830.402217
  0
LINE
  8
CSLAYER1
  6
PHANTOM
 62
     5
 10
1457.614151
 20
825.102217
 11
1463.883057
 21
825.102217
  0
LINE
  8
CSLAYER1
  6
PHANTOM
 62
     5
 10
2324.696523
 20
837.402217
 11
2324.696523
 21
830.402217
  0
LINE
  8
CSLAYER1
  6
PHANTOM
 62
     5
 10
1494.696523
 20
834.102217
 11
1484.418745
 21
830.402217
  0
LINE
  8
CSLAYER1
  6
PHANTOM
 62
     5
 10
1494.696523
 20
837.402217
 11
1494.696523
 21
830.402217
  0
LINE
  8
CSLAYER1
  6
PHANTOM
 62
     5
 10
1465.509990
 20
825.102217
 11
1469.696523
 21
825.102217
  0
LINE
  8
CSLAYER1
  6
PHANTOM
 62
     5
 10
1464.696523
 20
846.202290
 11
1464.696523
 21
823.549582
  0
LINE
  8
CSLAYER1
  6
PHANTOM
 62
     5
 10
1452.509720
 20
835.602217
 11
1475.941925
 21
835.602217
  0
LINE
  8
CSLAYER1
  6
PHANTOM
 62
     5
 10
1473.408842
 20
826.438652
 11
1469.696523
 21
825.102217
  0
DIMENSION
  8
CSLAYER1
 62
     3
  2
*D0000
 10
2445.452978
 20
855.402217
 11
2435.453125
 21
822.902100
 13
2546.595052
 23
790.402217
 14
2342.396523
 24
855.402217
 50
90.000000
  0
DIMENSION
  8
CSLAYER1
 62
     3
  2
*D0001
 10
2445.452978
 20
1506.695627
 11
2435.453125
 21
1181.048950
 13
2324.310904
 23
855.402217
 14
2324.310904
 24
1506.695627
 50
90.000000
 70
1
  0
DIMENSION
  8
CSLAYER1
 62
     3
  2
*D0002
 10
2546.595052
 20
790.402217
 11
2536.595215
 21
1148.548828
 13
2546.595052
 23
1506.695627
 14
2546.595052
 24
790.402217
 50
90.000000
 70
1
  0
DIMENSION
  8
CSLAYER1
 62
     3
  2
*D0003
 10
2363.805549
 20
1598.941163
 11
1913.805664
 21
1608.941162
 13
1463.805549
 23
1506.695627
 14
2363.805549
 24
1506.695627
 70
1
  0
INSERT
  8
CSLAYER1
  2
EASYDRAWDIM0000
 10
0.0
 20
0.0
 30
0.0
  0
DIMENSION
  8
CSLAYER1
 62
     3
  2
*D0004
 10
993.880706
 20
796.402217
 11
983.880554
 21
823.216553
 13
927.382035
 23
790.402217
 14
927.382035
 24
796.402217
 50
90.000000
 70
1
  0
DIMENSION
  8
CSLAYER1
 62
     3
  2
*D0005
 10
2342.696523
 20
618.452086
 11
1891.196533
 21
628.452148
 13
1439.696523
 23
790.402217
 14
2342.696523
 24
790.402217
 52
270.000000
 70
1
  0
DIMENSION
  8
CSLAYER1
 62
     3
  2
*D0006
 10
2446.484493
 20
2098.148841
 11
2436.484619
 21
1998.149048
 13
2342.396523
 23
1898.148841
 14
2342.396523
 24
2098.148841
 50
90.000000
 70
1
  0
INSERT
  8
CSLAYER1
  2
BLKF0002
 10
0.0
 20
0.0
 30
0.0
  0
INSERT
  8
CSLAYER1
  2
BLKF0003
 10
0.0
 20
0.0
 30
0.0
  0
TEXT
  8
CSLAYER1
 62
     7
 10
1446.516846
 20
2219.348145
 40
40.000000
 41
0.843750
  1
下降時
 50
0.000000
 51
0.000000
  7
EASYDRAW_FONT
 72
     5
 11
1536.516846
 21
2219.348145
  0
LINE
  8
CSLAYER1
  6
CONTINUOUS
 62
     5
 10
1432.910539
 20
2265.778593
 11
1555.868549
 21
2265.778593
  0
LINE
  8
CSLAYER1
  6
CONTINUOUS
 62
     5
 10
1555.868549
 20
2265.778593
 11
1555.868549
 21
2212.918140
  0
LINE
  8
CSLAYER1
  6
CONTINUOUS
 62
     5
 10
1555.868549
 20
2212.918140
 11
1432.910539
 21
2212.918140
  0
LINE
  8
CSLAYER1
  6
CONTINUOUS
 62
     5
 10
1432.910539
 20
2212.918140
 11
1432.910539
 21
2265.778593
  0
LINE
  8
CSLAYER1
  6
CONTINUOUS
 62
     5
 10
3450.860586
 20
2384.689588
 11
2570.860586
 21
2384.689588
  0
LINE
  8
CSLAYER1
  6
CONTINUOUS
 62
     5
 10
3450.860586
 20
2331.356255
 11
2570.860586
 21
2331.356255
  0
LINE
  8
CSLAYER1
  6
CONTINUOUS
 62
     5
 10
3450.860586
 20
2278.022921
 11
2570.860586
 21
2278.022921
  0
LINE
  8
CSLAYER1
  6
CONTINUOUS
 62
     5
 10
3450.860586
 20
2171.356255
 11
2570.860586
 21
2171.356255
  0
LINE
  8
CSLAYER1
  6
CONTINUOUS
 62
     5
 10
3450.860586
 20
2064.689588
 11
2570.860586
 21
2064.689588
  0
LINE
  8
CSLAYER1
  6
CONTINUOUS
 62
     5
 10
3450.860586
 20
1851.356255
 11
2570.860586
 21
1851.356255
  0
LINE
  8
CSLAYER1
  6
CONTINUOUS
 62
     5
 10
3450.860586
 20
1638.022918
 11
2570.860586
 21
1638.022918
  0
LINE
  8
CSLAYER1
  6
CONTINUOUS
 62
     5
 10
3450.860586
 20
1584.689585
 11
2570.860586
 21
1584.689585
  0
TEXT
  8
CSLAYER1
 62
     3
 10
2584.193848
 20
2391.356201
 40
40.000000
 41
0.838235
  1
仕    様
 50
0.000000
 51
0.000000
  7
EASYDRAW_FONT
 72
     5
 11
2774.193848
 21
2391.356201
  0
TEXT
  8
CSLAYER1
 62
     3
 10
2584.193848
 20
2338.022949
 40
40.000000
 41
0.838235
  1
型    式
 50
0.000000
 51
0.000000
  7
EASYDRAW_FONT
 72
     5
 11
2774.193848
 21
2338.022949
  0
TEXT
  8
CSLAYER1
 62
     3
 10
2949.193848
 20
2338.022949
 40
40.000000
 41
0.817105
  1
GLSE-150-2009
 50
0.000000
 51
0.000000
  7
EASYDRAW_FONT
 72
     5
 11
3363.193848
 21
2338.022949
  0
TEXT
  8
CSLAYER1
 62
     3
 10
2584.193848
 20
2284.689697
 40
40.000000
 41
0.859091
  1
均等荷重
 50
0.000000
 51
0.000000
  7
EASYDRAW_FONT
 72
     5
 11
2710.193848
 21
2284.689697
  0
TEXT
  8
CSLAYER1
 62
     3
 10
3375.526855
 20
2284.689697
 40
40.000000
 41
0.930000
  1
ｋｇ
 50
0.000000
 51
0.000000
  7
EASYDRAW_FONT
 72
     5
 11
3437.526855
 21
2284.689697
  0
TEXT
  8
CSLAYER1
 62
     3
 10
2584.193848
 20
2178.022949
 40
40.000000
 41
0.838235
  1
テーブル高サ
 50
0.000000
 51
0.000000
  7
EASYDRAW_FONT
 72
     5
 11
2774.193848
 21
2178.022949
  0
TEXT
  8
CSLAYER1
 62
     3
 10
3375.526855
 20
2178.022949
 40
40.000000
 41
0.930000
  1
ｍｍ
 50
0.000000
 51
0.000000
  7
EASYDRAW_FONT
 72
     5
 11
3437.526855
 21
2178.022949
  0
TEXT
  8
CSLAYER1
 62
     3
 10
2584.193848
 20
2071.355957
 40
40.000000
 41
0.838235
  1
全    長
 50
0.000000
 51
0.000000
  7
EASYDRAW_FONT
 72
     5
 11
2774.193848
 21
2071.355957
  0
TEXT
  8
CSLAYER1
 62
     3
 10
3109.193848
 20
2071.355957
 40
40.000000
 41
0.881250
  1
903
 50
0.000000
 51
0.000000
  7
EASYDRAW_FONT
 72
     5
 11
3203.193848
 21
2071.355957
  0
TEXT
  8
CSLAYER1
 62
     3
 10
3045.193848
 20
1858.022583
 40
40.000000
 41
0.832500
  1
フットスイッチ
 50
0.000000
 51
0.000000
  7
EASYDRAW_FONT
 72
     5
 11
3267.193848
 21
1858.022583
  0
TEXT
  8
CSLAYER1
 62
     3
 10
2584.193848
 20
1858.022583
 40
40.000000
 41
0.859091
  1
操作方式
 50
0.000000
 51
0.000000
  7
EASYDRAW_FONT
 72
     5
 11
2710.193848
 21
1858.022583
  0
TEXT
  8
CSLAYER1
 62
     3
 10
2584.193848
 20
1591.355957
 40
40.000000
 41
0.832500
  1
自     重
 50
0.000000
 51
0.000000
  7
EASYDRAW_FONT
 72
     5
 11
2806.193848
 21
1591.355957
  0
TEXT
  8
CSLAYER1
 62
     3
 10
3099.860596
 20
1591.355957
 40
40.000000
 41
0.859091
  1
約 60
 50
0.000000
 51
0.000000
  7
EASYDRAW_FONT
 72
     5
 11
3225.860596
 21
1591.355957
  0
TEXT
  8
CSLAYER1
 62
     3
 10
2584.193848
 20
1538.022705
 40
40.000000
 41
0.832500
  1
塗  装  色
 50
0.000000
 51
0.000000
  7
EASYDRAW_FONT
 72
     5
 11
2806.193848
 21
1538.022705
  0
TEXT
  8
CSLAYER1
 62
     3
 10
3109.193848
 20
2284.689697
 40
40.000000
 41
0.881250
  1
150
 50
0.000000
 51
0.000000
  7
EASYDRAW_FONT
 72
     5
 11
3203.193848
 21
2284.689697
  0
TEXT
  8
CSLAYER1
 62
     3
 10
3061.193848
 20
2178.022949
 40
40.000000
 41
0.838235
  1
65～700
 50
0.000000
 51
0.000000
  7
EASYDRAW_FONT
 72
     5
 11
3251.193848
 21
2178.022949
  0
TEXT
  8
CSLAYER1
 62
     3
 10
3375.526855
 20
2071.355957
 40
40.000000
 41
0.930000
  1
ｍｍ
 50
0.000000
 51
0.000000
  7
EASYDRAW_FONT
 72
     5
 11
3437.526855
 21
2071.355957
  0
LINE
  8
CSLAYER1
  6
CONTINUOUS
 62
     5
 10
3450.860586
 20
2011.356255
 11
2570.860586
 21
2011.356255
  0
TEXT
  8
CSLAYER1
 62
     3
 10
2584.193848
 20
2018.022583
 40
40.000000
 41
0.838235
  1
全    幅
 50
0.000000
 51
0.000000
  7
EASYDRAW_FONT
 72
     5
 11
2774.193848
 21
2018.022583
  0
TEXT
  8
CSLAYER1
 62
     3
 10
3109.193848
 20
2018.022583
 40
40.000000
 41
0.881250
  1
300
 50
0.000000
 51
0.000000
  7
EASYDRAW_FONT
 72
     5
 11
3203.193848
 21
2018.022583
  0
TEXT
  8
CSLAYER1
 62
     3
 10
3375.526855
 20
2018.022583
 40
40.000000
 41
0.930000
  1
ｍｍ
 50
0.000000
 51
0.000000
  7
EASYDRAW_FONT
 72
     5
 11
3437.526855
 21
2018.022583
  0
LINE
  8
CSLAYER1
  6
CONTINUOUS
 62
     5
 10
3450.860586
 20
1691.356255
 11
2570.860586
 21
1691.356255
  0
TEXT
  8
CSLAYER1
 62
     3
 10
3012.156250
 20
1643.290894
 40
40.000000
 41
0.825000
  1
油圧ユニット別置型
 50
0.000000
 51
0.000000
  7
EASYDRAW_FONT
 72
     5
 11
3298.156250
 21
1643.290894
  0
LINE
  8
CSLAYER1
  6
CONTINUOUS
 62
     5
 10
3450.860586
 20
1638.022921
 11
2570.860586
 21
1638.022921
  0
TEXT
  8
CSLAYER1
 62
     3
 10
3375.526855
 20
1591.355957
 40
40.000000
 41
0.930000
  1
ｋｇ
 50
0.000000
 51
0.000000
  7
EASYDRAW_FONT
 72
     5
 11
3437.526855
 21
1591.355957
  0
LINE
  8
CSLAYER1
  6
CONTINUOUS
 62
     5
 10
3450.860586
 20
2224.689588
 11
2570.860586
 21
2224.689588
  0
TEXT
  8
CSLAYER1
 62
     3
 10
2584.193848
 20
2231.356445
 40
40.000000
 41
0.838235
  1
テーブル寸法
 50
0.000000
 51
0.000000
  7
EASYDRAW_FONT
 72
     5
 11
2774.193848
 21
2231.356445
  0
TEXT
  8
CSLAYER1
 62
     3
 10
3375.526855
 20
2231.356445
 40
40.000000
 41
0.930000
  1
ｍｍ
 50
0.000000
 51
0.000000
  7
EASYDRAW_FONT
 72
     5
 11
3437.526855
 21
2231.356445
  0
TEXT
  8
CSLAYER1
 62
     3
 10
3013.193848
 20
2231.356445
 40
40.000000
 41
0.825000
  1
900L×200W
 50
0.000000
 51
0.000000
  7
EASYDRAW_FONT
 72
     5
 11
3299.193848
 21
2231.356445
  0
LINE
  8
CSLAYER1
  6
CONTINUOUS
 62
     5
 10
3450.860586
 20
2118.022921
 11
2570.860586
 21
2118.022921
  0
TEXT
  8
CSLAYER1
 62
     3
 10
3375.526855
 20
2124.689697
 40
40.000000
 41
0.930000
  1
ｍｍ
 50
0.000000
 51
0.000000
  7
EASYDRAW_FONT
 72
     5
 11
3437.526855
 21
2124.689697
  0
TEXT
  8
CSLAYER1
 62
     3
 10
3109.193848
 20
2124.689697
 40
40.000000
 41
0.881250
  1
635
 50
0.000000
 51
0.000000
  7
EASYDRAW_FONT
 72
     5
 11
3203.193848
 21
2124.689697
  0
TEXT
  8
CSLAYER1
 62
     3
 10
2586.026367
 20
2124.689697
 40
40.000000
 41
0.846429
  1
ストローク
 50
0.000000
 51
0.000000
  7
EASYDRAW_FONT
 72
     5
 11
2744.026367
 21
2124.689697
  0
LINE
  8
CSLAYER1
  6
CONTINUOUS
 62
     5
 10
3450.860586
 20
1958.022921
 11
2570.860586
 21
1958.022921
  0
TEXT
  8
CSLAYER1
 62
     3
 10
2584.193848
 20
1964.689331
 40
40.000000
 41
0.838235
  1
全    高
 50
0.000000
 51
0.000000
  7
EASYDRAW_FONT
 72
     5
 11
2774.193848
 21
1964.689331
  0
TEXT
  8
CSLAYER1
 62
     3
 10
3109.193848
 20
1964.689331
 40
40.000000
 41
0.881250
  1
 65
 50
0.000000
 51
0.000000
  7
EASYDRAW_FONT
 72
     5
 11
3203.193848
 21
1964.689331
  0
TEXT
  8
CSLAYER1
 62
     3
 10
3375.526855
 20
1964.689331
 40
40.000000
 41
0.930000
  1
ｍｍ
 50
0.000000
 51
0.000000
  7
EASYDRAW_FONT
 72
     5
 11
3437.526855
 21
1964.689331
  0
LINE
  8
CSLAYER1
  6
CONTINUOUS
 62
     5
 10
3450.860586
 20
1904.689588
 11
2570.860586
 21
1904.689588
  0
TEXT
  8
CSLAYER1
 62
     3
 10
2584.193848
 20
1911.355957
 40
40.000000
 41
0.846429
  1
リフト方式
 50
0.000000
 51
0.000000
  7
EASYDRAW_FONT
 72
     5
 11
2742.193848
 21
1911.355957
  0
TEXT
  8
CSLAYER1
 62
     3
 10
3077.193848
 20
1911.355957
 40
40.000000
 41
0.846429
  1
電動油圧式
 50
0.000000
 51
0.000000
  7
EASYDRAW_FONT
 72
     5
 11
3235.193848
 21
1911.355957
  0
LINE
  8
CSLAYER1
  6
CONTINUOUS
 62
     5
 10
3450.860586
 20
1744.689588
 11
2570.860586
 21
1744.689588
  0
TEXT
  8
CSLAYER1
 62
     3
 10
3077.193848
 20
1751.355835
 40
40.000000
 41
0.846429
  1
長さ 4m
 50
0.000000
 51
0.000000
  7
EASYDRAW_FONT
 72
     5
 11
3235.193848
 21
1751.355835
  0
TEXT
  8
CSLAYER1
 62
     3
 10
2584.193848
 20
1751.355835
 40
40.000000
 41
0.846429
  1
電源コード
 50
0.000000
 51
0.000000
  7
EASYDRAW_FONT
 72
     5
 11
2742.193848
 21
1751.355835
  0
TEXT
  8
CSLAYER1
 62
     3
 10
2584.193848
 20
1698.022583
 40
40.000000
 41
0.859091
  1
上昇時間
 50
0.000000
 51
0.000000
  7
EASYDRAW_FONT
 72
     5
 11
2710.193848
 21
1698.022583
  0
TEXT
  8
CSLAYER1
 62
     3
 10
2896.193867
 20
1698.022583
 40
40.000000
 41
0.661017
  1
約8sec/50Hz，6sec/60Hz
 50
0.000000
 51
0.000000
  7
EASYDRAW_FONT
 72
     5
 11
3416.193829
 21
1698.022583
  0
LINE
  8
CSLAYER1
  6
CONTINUOUS
 62
     5
 10
3450.860586
 20
1798.022921
 11
2570.860586
 21
1798.022921
  0
TEXT
  8
CSLAYER1
 62
     3
 10
2584.193848
 20
1804.689331
 40
40.000000
 41
0.859091
  1
モーター
 50
0.000000
 51
0.000000
  7
EASYDRAW_FONT
 72
     5
 11
2710.193848
 21
1804.689331
  0
TEXT
  8
CSLAYER1
 62
     3
 10
2917.193848
 20
1804.689331
 40
40.000000
 41
0.814773
  1
AC200V，三相，0.4kw
 50
0.000000
 51
0.000000
  7
EASYDRAW_FONT
 72
     5
 11
3395.193848
 21
1804.689331
  0
LINE
  8
CSLAYER1
  6
CONTINUOUS
 62
     5
 10
2874.860586
 20
1531.356251
 11
2874.860586
 21
1638.022918
  0
LINE
  8
CSLAYER1
  6
CONTINUOUS
 62
     5
 10
2874.860586
 20
1691.356255
 11
2874.860586
 21
2384.689588
  0
INSERT
  8
CSLAYER1
  2
BLKF0004
 10
0.0
 20
0.0
 30
0.0
  0
INSERT
  8
CSLAYER1
  2
BLKF0005
 10
0.0
 20
0.0
 30
0.0
  0
DIMENSION
  8
CSLAYER1
 62
     3
  2
*D0008
 10
902.382035
 20
705.793332
 11
777.382019
 21
715.793335
 13
652.382035
 23
790.402217
 14
902.382035
 24
790.402217
 52
270.000000
 70
1
  0
DIMENSION
  8
CSLAYER1
 62
     3
  2
*D0009
 10
927.382035
 20
641.476100
 11
777.382019
 21
651.476135
 13
627.382035
 23
790.402217
 14
927.382035
 24
796.402217
 52
270.000000
  0
DIMENSION
  8
CSLAYER1
 62
     3
  2
*D0010
 10
877.382035
 20
1551.545593
 11
777.382019
 21
1561.545654
 13
677.382035
 23
1506.695627
 14
877.382035
 24
1506.695627
 70
1
  0
DIMENSION
  8
CSLAYER1
 62
     3
  2
*D0011
 10
1464.696523
 20
723.942723
 11
1480.316650
 21
697.738037
 13
1439.696523
 23
755.522722
 14
1464.696523
 24
793.471586
 52
270.000000
  0
LINE
  8
CSLAYER1
  6
CENTER
 62
     5
 10
1464.696523
 20
790.402217
 11
1464.696523
 21
793.471586
  0
INSERT
  8
CSLAYER1
  2
EASYDRAWDIM0003
 10
0.0
 20
0.0
 30
0.0
  0
INSERT
  8
CSLAYER1
  2
BLKF0006
 10
0.0
 20
0.0
 30
0.0
  0
TEXT
  8
CSLAYER1
 62
     5
 10
3101.205046
 20
797.922108
 40
31.844261
 41
0.920655
  1
Ｆ.Ｌ
 50
0.000000
 51
0.000000
  7
EASYDRAW_FONT
 72
     5
 11
3179.385286
 21
797.922108
  0
LINE
  8
CSLAYER1
  6
CONTINUOUS
 62
     3
 10
2712.459471
 20
790.402217
 11
3012.459471
 21
790.402217
  0
LINE
  8
CSLAYER1
  6
CENTER
 62
     5
 10
2987.459471
 20
781.472856
 11
2987.459471
 21
805.682817
  0
LINE
  8
CSLAYER1
  6
CENTER
 62
     5
 10
2737.459471
 20
781.472856
 11
2737.459471
 21
805.682817
  0
LINE
  8
CSLAYER1
  6
CONTINUOUS
 62
     3
 10
2762.459471
 20
830.402217
 11
2962.459471
 21
830.402217
  0
LINE
  8
CSLAYER1
  6
CONTINUOUS
 62
     3
 10
2762.459471
 20
830.402217
 11
2762.459471
 21
796.402217
  0
LINE
  8
CSLAYER1
  6
CONTINUOUS
 62
     3
 10
2962.459471
 20
830.402217
 11
2962.459471
 21
796.402217
  0
LINE
  8
CSLAYER1
  6
CONTINUOUS
 62
     3
 10
3012.459471
 20
790.402217
 11
3012.459471
 21
796.402217
  0
LINE
  8
CSLAYER1
  6
CONTINUOUS
 62
     3
 10
3012.459471
 20
796.402217
 11
2962.459471
 21
796.402217
  0
LINE
  8
CSLAYER1
  6
CONTINUOUS
 62
     3
 10
2712.459471
 20
790.402217
 11
2712.459471
 21
796.402217
  0
LINE
  8
CSLAYER1
  6
CONTINUOUS
 62
     3
 10
2712.459471
 20
796.402217
 11
2762.459471
 21
796.402217
  0
POINT
  8
CSLAYER1
 62
     3
 10
2862.459471
 20
855.202217
  0
POINT
  8
CSLAYER1
 62
     3
 10
2862.459471
 20
830.402217
  0
LINE
  8
CSLAYER1
  6
CENTER
 62
     5
 10
2787.959471
 20
835.402217
 11
2936.959471
 21
835.402217
  0
LINE
  8
CSLAYER1
  6
CONTINUOUS
 62
     3
 10
2962.459471
 20
855.202217
 11
2762.459471
 21
855.202217
  0
LINE
  8
CSLAYER1
  6
CONTINUOUS
 62
     3
 10
2962.459471
 20
837.202217
 11
2762.459471
 21
837.202217
  0
LINE
  8
CSLAYER1
  6
CONTINUOUS
 62
     3
 10
2962.459471
 20
837.202217
 11
2962.459471
 21
855.202217
  0
LINE
  8
CSLAYER1
  6
CONTINUOUS
 62
     3
 10
2919.459471
 20
837.202217
 11
2919.459471
 21
830.402217
  0
LINE
  8
CSLAYER1
  6
CONTINUOUS
 62
     3
 10
2918.459471
 20
837.202217
 11
2918.459471
 21
830.402217
  0
LINE
  8
CSLAYER1
  6
CONTINUOUS
 62
     3
 10
2925.959471
 20
837.202217
 11
2925.959471
 21
830.402217
  0
LINE
  8
CSLAYER1
  6
CONTINUOUS
 62
     3
 10
2919.959471
 20
837.202217
 11
2919.959471
 21
830.402217
  0
LINE
  8
CSLAYER1
  6
CONTINUOUS
 62
     3
 10
2928.959471
 20
830.402217
 11
2928.959471
 21
837.202217
  0
LINE
  8
CSLAYER1
  6
CONTINUOUS
 62
     3
 10
2925.959471
 20
833.890020
 11
2928.798496
 21
837.202217
  0
LINE
  8
CSLAYER1
  6
CONTINUOUS
 62
     3
 10
2936.959471
 20
837.202217
 11
2936.959471
 21
830.402217
  0
ARC
  8
CSLAYER1
  6
CONTINUOUS
 62
     3
 10
2923.163727
 20
835.402217
 40
13.795744
 50
-21.249544
 51
7.497043
  0
LINE
  8
CSLAYER1
  6
CONTINUOUS
 62
     3
 10
2762.459471
 20
837.202217
 11
2762.459471
 21
855.202217
  0
LINE
  8
CSLAYER1
  6
CONTINUOUS
 62
     3
 10
2805.459471
 20
837.202217
 11
2805.459471
 21
830.402217
  0
LINE
  8
CSLAYER1
  6
CONTINUOUS
 62
     3
 10
2806.459471
 20
837.202217
 11
2806.459471
 21
830.402217
  0
LINE
  8
CSLAYER1
  6
CONTINUOUS
 62
     3
 10
2798.959471
 20
837.202217
 11
2798.959471
 21
830.402217
  0
LINE
  8
CSLAYER1
  6
CONTINUOUS
 62
     3
 10
2804.959471
 20
837.202217
 11
2804.959471
 21
830.402217
  0
LINE
  8
CSLAYER1
  6
CONTINUOUS
 62
     3
 10
2795.959471
 20
830.402217
 11
2795.959471
 21
837.202217
  0
LINE
  8
CSLAYER1
  6
CONTINUOUS
 62
     3
 10
2798.959471
 20
833.890020
 11
2796.120445
 21
837.202217
  0
LINE
  8
CSLAYER1
  6
CONTINUOUS
 62
     3
 10
2787.959471
 20
837.202217
 11
2787.959471
 21
830.402217
  0
ARC
  8
CSLAYER1
  6
CONTINUOUS
 62
     3
 10
2801.755215
 20
835.402217
 40
13.795744
 50
172.502957
 51
201.249544
  0
LINE
  8
CSLAYER1
  6
CONTINUOUS
 62
     3
 10
2777.459471
 20
830.402217
 11
2777.459471
 21
837.202217
  0
LINE
  8
CSLAYER1
  6
CONTINUOUS
 62
     3
 10
2781.959471
 20
830.402217
 11
2781.959471
 21
837.202217
  0
LINE
  8
CSLAYER1
  6
CONTINUOUS
 62
     3
 10
2947.459471
 20
830.402217
 11
2947.459471
 21
837.202217
  0
LINE
  8
CSLAYER1
  6
CONTINUOUS
 62
     3
 10
2942.959471
 20
830.402217
 11
2942.959471
 21
837.202217
  0
LINE
  8
CSLAYER1
  6
CENTER
 62
     5
 10
2862.459471
 20
855.202217
 11
2862.459471
 21
790.402217
  0
TEXT
  8
CSLAYER1
 62
     7
 10
2803.855225
 20
912.236938
 40
40.000000
 41
0.843750
  1
下降時
 50
0.000000
 51
0.000000
  7
EASYDRAW_FONT
 72
     5
 11
2893.855225
 21
912.236938
  0
LINE
  8
CSLAYER1
  6
CONTINUOUS
 62
     5
 10
2790.248659
 20
958.667074
 11
2913.206669
 21
958.667074
  0
LINE
  8
CSLAYER1
  6
CONTINUOUS
 62
     5
 10
2913.206669
 20
958.667074
 11
2913.206669
 21
905.806621
  0
LINE
  8
CSLAYER1
  6
CONTINUOUS
 62
     5
 10
2913.206669
 20
905.806621
 11
2790.248659
 21
905.806621
  0
LINE
  8
CSLAYER1
  6
CONTINUOUS
 62
     5
 10
2790.248659
 20
905.806621
 11
2790.248659
 21
958.667074
  0
DIMENSION
  8
CSLAYER1
 62
     3
  2
*D0015
 10
2633.819967
 20
855.202217
 11
2623.820068
 21
822.802185
 13
2711.918317
 23
790.402217
 14
2762.459471
 24
855.202217
 50
90.000000
  0
LINE
  8
CSLAYER1
  6
CONTINUOUS
 62
     5
 10
3221.803290
 20
790.402217
 11
3012.459471
 21
790.402217
  0
LINE
  8
CSLAYER1
  6
CONTINUOUS
 62
     3
 10
2762.459471
 20
796.402217
 11
2762.459471
 21
790.402217
  0
LINE
  8
CSLAYER1
  6
CONTINUOUS
 62
     3
 10
2962.459471
 20
796.402217
 11
2962.459471
 21
790.402217
  0
INSERT
  8
CSLAYER1
  2
BLKF0007
 10
0.0
 20
0.0
 30
0.0
  0
LINE
  8
CSLAYER1
  6
CONTINUOUS
 62
     3
 10
627.382035
 20
790.402217
 11
927.382035
 21
790.402217
  0
LINE
  8
CSLAYER1
  6
CONTINUOUS
 62
     5
 10
927.382035
 20
790.402217
 11
1439.696523
 21
790.402217
  0
LINE
  8
CSLAYER1
  6
CONTINUOUS
 62
     3
 10
1439.696523
 20
790.402217
 11
2342.696523
 21
790.402217
  0
LINE
  8
CSLAYER1
  6
CONTINUOUS
 62
     5
 10
2342.696523
 20
790.402217
 11
2712.459471
 21
790.402217
  0
ENDSEC
  0
EOF
