  0
SECTION
  2
HEADER
  9
$ACADVER
  1
AC1006
  9
$INSBASE
 10
0.000000
 20
0.000000
 30
0.0
  9
$EXTMIN
 10
0.000000
 20
0.000000
  9
$EXTMAX
 10
3640.000000
 20
2570.000000
  9
$LIMMIN
 10
0.000000
 20
0.000000
  9
$LIMMAX
 10
3640.000000
 20
2570.000000
  9
$VIEWCTR
 10
1820.000000
 20
1285.000000
  9
$VIEWSIZE
 40
2570.000000
  9
$SNAPMODE
 70
     0
  9
$SNAPUNIT
 10
1.0
 20
1.0
  9
$SNAPBASE
 10
0.0
 20
0.0
  9
$SNAPANG
 50
0.0
  9
$SNAPSTYLE
 70
     0
  9
$SNAPISOPAIR
 70
     0
  9
$GRIDMODE
 70
     0
  9
$GRIDUNIT
 10
0.0
 20
0.0
  9
$ORTHOMODE
 70
     0
  9
$REGENMODE
 70
     1
  9
$FILLMODE
 70
     1
  9
$QTEXTMODE
 70
     0
  9
$DRAGMODE
 70
     2
  9
$LTSCALE
 40
15.000000
  9
$OSMODE
 70
     0
  9
$ATTMODE
 70
     1
  9
$TEXTSIZE
 40
0.2
  9
$TRACEWID
 40
0.05
  9
$TEXTSTYLE
  7
STANDARD
  9
$CLAYER
  8
CSLAYER1
  9
$CELTYPE
  6
BYLAYER
  9
$CECOLOR
 62
   256
  9
$DIMSCALE
 40
1.0
  9
$DIMASZ
 40
0.18
  9
$DIMEXO
 40
0.0625
  9
$DIMDLI
 40
0.38
  9
$DIMRND
 40
0.0
  9
$DIMDLE
 40
0.0
  9
$DIMEXE
 40
0.18
  9
$DIMTP
 40
0.0
  9
$DIMTM
 40
0.0
  9
$DIMTXT
 40
0.18
  9
$DIMCEN
 40
0.09
  9
$DIMTSZ
 40
0.0
  9
$DIMTOL
 70
     0
  9
$DIMLIM
 70
     0
  9
$DIMTIH
 70
     1
  9
$DIMTOH
 70
     1
  9
$DIMSE1
 70
     0
  9
$DIMSE2
 70
     0
  9
$DIMTAD
 70
     0
  9
$DIMZIN
 70
     0
  9
$DIMBLK
  1

  9
$LUNITS
 70
     2
  9
$LUPREC
 70
     4
  9
$AXISMODE
 70
     0
  9
$AXISUNIT
 10
0.0
 20
0.0
  9
$SKETCHINC
 40
0.1
  9
$FILLETRAD
 40
0.0
  9
$AUNITS
 70
     0
  9
$AUPREC
 70
     0
  9
$MENU
  1
ACAD
  9
$ELEVATION
 40
0.0
  9
$THICKNESS
 40
0.0
  9
$VIEWDIR
 10
0.0
 20
0.0
 30
1.0
  9
$LIMCHECK
 70
     0
  9
$BLIPMODE
 70
     1
  9
$CHAMFERA
 40
0.0
  9
$CHAMFERB
 40
0.0
  9
$FASTZOOM
 70
     1
  9
$SKPOLY
 70
     0
  9
$TDCREATE
 40
2456676.000000
  9
$TDUPDATE
 40
2456676.000000
  9
$TDINDWG
 40
0.0
  9
$TDUSRTIMER
 40
0.0
  9
$USRTIMER
 70
     1
  9
$ANGBASE
 50
0.0
  9
$ANGDIR
 70
     0
  9
$PDMODE
 70
     0
  9
$PDSIZE
 40
0.0
  9
$PLINEWID
 40
0.0
  9
$COORDS
 70
     0
  9
$USERI1
 70
     0
  9
$USERI2
 70
     0
  9
$USERI3
 70
     0
  9
$USERI4
 70
     0
  9
$USERI5
 70
     0
  9
$USERR1
 40
0.0
  9
$USERR2
 40
0.0
  9
$USERR3
 40
0.0
  9
$USERR4
 40
0.0
  9
$USERR5
 40
0.0
  0
ENDSEC
  0
SECTION
  2
TABLES
  0
TABLE
  2
LTYPE
 70
     9
  0
LTYPE
  2
CONTINUOUS
 70
    64
  3
Solid line
 72
    65
 73
     0
 40
0.0
  0
LTYPE
  2
DASHED
 70
    64
  3
__ __ __ __ __ __ __ __ __ __ __ __ __ __ __
 72
    65
 73
     2
 40
0.75
 49
0.5
 49
-0.25
  0
LTYPE
  2
HIDDEN
 70
    64
  3
_ _ _ _ _ _ _ _ _ _ _ _ _ _ _ _ _ _ _ _ _ _ _
 72
    65
 73
     2
 40
0.375
 49
0.25
 49
-0.125
  0
LTYPE
  2
DOT
 70
    64
  3
...............................................
 72
    65
 73
     2
 40
0.25
 49
0.0
 49
-0.25
  0
LTYPE
  2
DASHDOT
 70
    64
  3
__ . __ . __ . __ . __ . __ . __ . __ . __ . __
 72
    65
 73
     4
 40
1.0
 49
0.5
 49
-0.25
 49
0.0
 49
-0.25
  0
LTYPE
  2
DIVIDE
 70
    64
  3
__ . . __ . . __ . . __ . . __ . . __ . . __
 72
    65
 73
     6
 40
1.25
 49
0.5
 49
-0.25
 49
0.0
 49
-0.25
 49
0.0
 49
-0.25
  0
LTYPE
  2
CENTER
 70
    64
  3
____ _ ____ _ ____ _ ____ _ ____ _ ____ _ ____ 
 72
    65
 73
     4
 40
2.0
 49
1.25
 49
-0.25
 49
0.25
 49
-0.25
  0
LTYPE
  2
PHANTOM
 70
    64
  3
______  __  __  ______  __  __  ______  __  __ 
 72
    65
 73
     6
 40
2.5
 49
1.25
 49
-0.25
 49
0.25
 49
-0.25
 49
0.25
 49
-0.25
  0
LTYPE
  2
BORDER
 70
    64
  3
__ __ . __ __ . __ __ . __ __ . __ __ . __ __ .
 72
    65
 73
     6
 40
1.75
 49
0.5
 49
-0.25
 49
0.5
 49
-0.25
 49
0.0
 49
-0.25
  0
ENDTAB
  0
TABLE
  2
LAYER
 70
    16
  0
LAYER
  2
CSLAYER1
 70
    64
 62
     7
  6
CONTINUOUS
  0
LAYER
  2
CSLAYER2
 70
    64
 62
     7
  6
CONTINUOUS
  0
LAYER
  2
CSLAYER3
 70
    64
 62
     7
  6
CONTINUOUS
  0
LAYER
  2
CSLAYER4
 70
    64
 62
     7
  6
CONTINUOUS
  0
LAYER
  2
CSLAYER5
 70
    64
 62
     7
  6
CONTINUOUS
  0
LAYER
  2
CSLAYER6
 70
    64
 62
     7
  6
CONTINUOUS
  0
LAYER
  2
CSLAYER7
 70
    64
 62
     7
  6
CONTINUOUS
  0
LAYER
  2
CSLAYER8
 70
    64
 62
     7
  6
CONTINUOUS
  0
LAYER
  2
CSLAYER9
 70
    64
 62
     7
  6
CONTINUOUS
  0
LAYER
  2
CSLAYER10
 70
    64
 62
     7
  6
CONTINUOUS
  0
LAYER
  2
CSLAYER11
 70
    64
 62
     7
  6
CONTINUOUS
  0
LAYER
  2
CSLAYER12
 70
    64
 62
     7
  6
CONTINUOUS
  0
LAYER
  2
CSLAYER13
 70
    64
 62
     7
  6
CONTINUOUS
  0
LAYER
  2
CSLAYER14
 70
    64
 62
     7
  6
CONTINUOUS
  0
LAYER
  2
CSLAYER15
 70
    64
 62
     7
  6
CONTINUOUS
  0
LAYER
  2
CSLAYER16
 70
    64
 62
     7
  6
CONTINUOUS
  0
ENDTAB
  0
TABLE
  2
STYLE
 70
     1
  0
STYLE
  2
EASYDRAW_FONT
 70
     0
 40
1.0
 41
1.0
 50
0.0
 71
     0
 42
1.0
  3
monotxt
  4
bigfont
  0
ENDTAB
  0
TABLE
  2
VIEW
 70
     0
  0
ENDTAB
  0
ENDSEC
  0
SECTION
  2
BLOCKS
  0
BLOCK
  8
CSLAYER1
  2
*D0000
 70
    65
 10
0.0
 20
0.0
 30
0.0
  0
TEXT
  8
CSLAYER1
 62
     3
 10
1381.911743
 20
1928.021606
 40
40.000000
 41
0.843750
  1
250
 50
90.000000
 51
0.000000
  7
EASYDRAW_FONT
 72
     5
 11
1381.911743
 21
2018.021606
  0
LINE
  8
CSLAYER1
  6
CONTINUOUS
 62
     5
 10
1479.155136
 20
1873.574129
 11
1380.163877
 21
1873.574129
  0
LINE
  8
CSLAYER1
  6
CONTINUOUS
 62
     5
 10
1479.155136
 20
2123.574129
 11
1380.163877
 21
2123.574129
  0
LINE
  8
CSLAYER1
  6
CONTINUOUS
 62
     5
 10
1390.163877
 20
1873.574129
 11
1390.163877
 21
2123.574129
  0
LINE
  8
CSLAYER1
  6
CONTINUOUS
 62
     5
 10
1390.163877
 20
1873.574129
 11
1382.399306
 21
1902.551904
  0
LINE
  8
CSLAYER1
  6
CONTINUOUS
 62
     5
 10
1390.163877
 20
1873.574129
 11
1397.928448
 21
1902.551904
  0
LINE
  8
CSLAYER1
  6
CONTINUOUS
 62
     5
 10
1390.163877
 20
2123.574129
 11
1382.399306
 21
2094.596354
  0
LINE
  8
CSLAYER1
  6
CONTINUOUS
 62
     5
 10
1390.163877
 20
2123.574129
 11
1397.928448
 21
2094.596354
  0
ENDBLK
  8
0
  0
BLOCK
  8
CSLAYER1
  2
*D0001
 70
    65
 10
0.0
 20
0.0
 30
0.0
  0
TEXT
  8
CSLAYER1
 62
     3
 10
1404.562378
 20
1768.246704
 40
40.000000
 41
0.900000
  1
25
 50
0.000000
 51
0.000000
  7
EASYDRAW_FONT
 72
     5
 11
1464.562378
 21
1768.246704
  0
LINE
  8
CSLAYER1
  6
CONTINUOUS
 62
     5
 10
1475.417937
 20
1848.574129
 11
1475.417937
 21
1707.702497
  0
LINE
  8
CSLAYER1
  6
CONTINUOUS
 62
     5
 10
1500.417937
 20
1852.311328
 11
1500.417937
 21
1774.514064
  0
LINE
  8
CSLAYER1
  6
CONTINUOUS
 62
     5
 10
1475.417937
 20
1784.514064
 11
1500.417937
 21
1784.514064
  0
LINE
  8
CSLAYER1
  6
CONTINUOUS
 62
     5
 10
1475.417937
 20
1784.514064
 11
1504.395712
 21
1792.278636
  0
LINE
  8
CSLAYER1
  6
CONTINUOUS
 62
     5
 10
1475.417937
 20
1784.514064
 11
1504.395712
 21
1776.749493
  0
LINE
  8
CSLAYER1
  6
CONTINUOUS
 62
     5
 10
1500.417937
 20
1784.514064
 11
1471.440163
 21
1792.278636
  0
LINE
  8
CSLAYER1
  6
CONTINUOUS
 62
     5
 10
1500.417937
 20
1784.514064
 11
1471.440163
 21
1776.749493
  0
ENDBLK
  8
0
  0
BLOCK
  8
CSLAYER1
  2
*D0002
 70
    65
 10
0.0
 20
0.0
 30
0.0
  0
TEXT
  8
CSLAYER1
 62
     3
 10
1405.724243
 20
1700.854126
 40
40.000000
 41
0.900000
  1
50
 50
0.000000
 51
0.000000
  7
EASYDRAW_FONT
 72
     5
 11
1465.724243
 21
1700.854126
  0
LINE
  8
CSLAYER1
  6
CONTINUOUS
 62
     5
 10
1525.417937
 20
1848.574129
 11
1525.417937
 21
1707.702497
  0
LINE
  8
CSLAYER1
  6
CONTINUOUS
 62
     5
 10
1475.417937
 20
1717.702497
 11
1525.417937
 21
1717.702497
  0
LINE
  8
CSLAYER1
  6
CONTINUOUS
 62
     5
 10
1475.417937
 20
1717.702497
 11
1504.395712
 21
1725.467068
  0
LINE
  8
CSLAYER1
  6
CONTINUOUS
 62
     5
 10
1475.417937
 20
1717.702497
 11
1504.395712
 21
1709.937925
  0
LINE
  8
CSLAYER1
  6
CONTINUOUS
 62
     5
 10
1525.417937
 20
1717.702497
 11
1496.440163
 21
1725.467068
  0
LINE
  8
CSLAYER1
  6
CONTINUOUS
 62
     5
 10
1525.417937
 20
1717.702497
 11
1496.440163
 21
1709.937925
  0
ENDBLK
  8
0
  0
BLOCK
  8
CSLAYER1
  2
*D0003
 70
    65
 10
0.0
 20
0.0
 30
0.0
  0
TEXT
  8
CSLAYER1
 62
     3
 10
2258.465332
 20
1953.573853
 40
40.000000
 41
0.843750
  1
200
 50
90.000000
 51
0.000000
  7
EASYDRAW_FONT
 72
     5
 11
2258.465332
 21
2043.573853
  0
LINE
  8
CSLAYER1
  6
CONTINUOUS
 62
     5
 10
2188.117937
 20
1898.574129
 11
2278.465570
 21
1898.574129
  0
LINE
  8
CSLAYER1
  6
CONTINUOUS
 62
     5
 10
2188.117937
 20
2098.574129
 11
2278.465570
 21
2098.574129
  0
LINE
  8
CSLAYER1
  6
CONTINUOUS
 62
     5
 10
2268.465570
 20
1898.574129
 11
2268.465570
 21
2098.574129
  0
LINE
  8
CSLAYER1
  6
CONTINUOUS
 62
     5
 10
2268.465570
 20
1898.574129
 11
2260.700999
 21
1927.551904
  0
LINE
  8
CSLAYER1
  6
CONTINUOUS
 62
     5
 10
2268.465570
 20
1898.574129
 11
2276.230141
 21
1927.551904
  0
LINE
  8
CSLAYER1
  6
CONTINUOUS
 62
     5
 10
2268.465570
 20
2098.574129
 11
2260.700999
 21
2069.596354
  0
LINE
  8
CSLAYER1
  6
CONTINUOUS
 62
     5
 10
2268.465570
 20
2098.574129
 11
2276.230141
 21
2069.596354
  0
ENDBLK
  8
0
  0
BLOCK
  8
CSLAYER1
  2
EASYDRAWDIM0000
 70
   64
 10
0.0
 20
0.0
 30
0.0
  0
TEXT
  8
CSLAYER1
 62
     3
 10
1618.639771
 20
1753.197876
 40
40.000000
 41
0.771429
  1
2-%%c13(アンカー穴)
 50
0.000000
 51
0.000000
  7
EASYDRAW_FONT
 72
     5
 11
1978.639771
 21
1753.197876
  0
LINE
  8
CSLAYER1
  6
CONTINUOUS
 62
     5
 10
1504.816538
 20
1869.316288
 11
1614.298505
 21
1743.197765
  0
LINE
  8
CSLAYER1
  6
CONTINUOUS
 62
     5
 10
1504.816538
 20
1869.316288
 11
1529.676197
 21
1852.523512
  0
LINE
  8
CSLAYER1
  6
CONTINUOUS
 62
     5
 10
1504.816538
 20
1869.316288
 11
1517.949246
 21
1842.343488
  0
LINE
  8
CSLAYER1
  6
CONTINUOUS
 62
     5
 10
1614.298505
 20
1743.197765
 11
1988.639758
 21
1743.197765
  0
ENDBLK
  8
0
  0
BLOCK
  8
CSLAYER1
  2
*D0004
 70
    65
 10
0.0
 20
0.0
 30
0.0
  0
TEXT
  8
CSLAYER1
 62
     3
 10
2263.020020
 20
797.347229
 40
40.000000
 41
0.900000
  1
65
 50
90.000000
 51
0.000000
  7
EASYDRAW_FONT
 72
     5
 11
2263.020020
 21
857.347229
  0
LINE
  8
CSLAYER1
  6
CONTINUOUS
 62
     5
 10
2188.417937
 20
794.947168
 11
2374.275916
 21
794.947168
  0
LINE
  8
CSLAYER1
  6
CONTINUOUS
 62
     5
 10
2188.117937
 20
859.747168
 11
2283.020312
 21
859.747168
  0
LINE
  8
CSLAYER1
  6
CONTINUOUS
 62
     5
 10
2273.020312
 20
794.947168
 11
2273.020312
 21
859.747168
  0
LINE
  8
CSLAYER1
  6
CONTINUOUS
 62
     5
 10
2273.020312
 20
794.947168
 11
2265.255741
 21
823.924943
  0
LINE
  8
CSLAYER1
  6
CONTINUOUS
 62
     5
 10
2273.020312
 20
794.947168
 11
2280.784884
 21
823.924943
  0
LINE
  8
CSLAYER1
  6
CONTINUOUS
 62
     5
 10
2273.020312
 20
859.747168
 11
2265.255741
 21
830.769394
  0
LINE
  8
CSLAYER1
  6
CONTINUOUS
 62
     5
 10
2273.020312
 20
859.747168
 11
2280.784884
 21
830.769394
  0
ENDBLK
  8
0
  0
BLOCK
  8
CSLAYER1
  2
*D0005
 70
    65
 10
0.0
 20
0.0
 30
0.0
  0
TEXT
  8
CSLAYER1
 62
     3
 10
2263.020020
 20
1072.336304
 40
40.000000
 41
0.843750
  1
505
 50
90.000000
 51
0.000000
  7
EASYDRAW_FONT
 72
     5
 11
2263.020020
 21
1162.336304
  0
LINE
  8
CSLAYER1
  6
CONTINUOUS
 62
     5
 10
2210.395242
 20
1374.925279
 11
2374.275916
 21
1374.925279
  0
LINE
  8
CSLAYER1
  6
CONTINUOUS
 62
     5
 10
2273.020312
 20
859.747168
 11
2273.020312
 21
1374.925279
  0
LINE
  8
CSLAYER1
  6
CONTINUOUS
 62
     5
 10
2273.020312
 20
859.747168
 11
2265.255741
 21
888.724943
  0
LINE
  8
CSLAYER1
  6
CONTINUOUS
 62
     5
 10
2273.020312
 20
859.747168
 11
2280.784884
 21
888.724943
  0
LINE
  8
CSLAYER1
  6
CONTINUOUS
 62
     5
 10
2273.020312
 20
1374.925279
 11
2265.255741
 21
1345.947504
  0
LINE
  8
CSLAYER1
  6
CONTINUOUS
 62
     5
 10
2273.020312
 20
1374.925279
 11
2280.784884
 21
1345.947504
  0
ENDBLK
  8
0
  0
BLOCK
  8
CSLAYER1
  2
*D0006
 70
    65
 10
0.0
 20
0.0
 30
0.0
  0
TEXT
  8
CSLAYER1
 62
     3
 10
2354.275635
 20
1039.936157
 40
40.000000
 41
0.843750
  1
570
 50
90.000000
 51
0.000000
  7
EASYDRAW_FONT
 72
     5
 11
2354.275635
 21
1129.936157
  0
LINE
  8
CSLAYER1
  6
CONTINUOUS
 62
     5
 10
2364.275916
 20
794.947168
 11
2364.275916
 21
1374.925279
  0
LINE
  8
CSLAYER1
  6
CONTINUOUS
 62
     5
 10
2364.275916
 20
794.947168
 11
2356.511344
 21
823.924943
  0
LINE
  8
CSLAYER1
  6
CONTINUOUS
 62
     5
 10
2364.275916
 20
794.947168
 11
2372.040487
 21
823.924943
  0
LINE
  8
CSLAYER1
  6
CONTINUOUS
 62
     5
 10
2364.275916
 20
1374.925279
 11
2356.511344
 21
1345.947504
  0
LINE
  8
CSLAYER1
  6
CONTINUOUS
 62
     5
 10
2364.275916
 20
1374.925279
 11
2372.040487
 21
1345.947504
  0
ENDBLK
  8
0
  0
BLOCK
  8
CSLAYER1
  2
*D0007
 70
    65
 10
0.0
 20
0.0
 30
0.0
  0
TEXT
  8
CSLAYER1
 62
     3
 10
1805.395142
 20
1460.166870
 40
40.000000
 41
0.843750
  1
700
 50
0.000000
 51
0.000000
  7
EASYDRAW_FONT
 72
     5
 11
1895.395142
 21
1460.166870
  0
LINE
  8
CSLAYER1
  6
CONTINUOUS
 62
     5
 10
1500.395242
 20
1384.925279
 11
1500.395242
 21
1460.166994
  0
LINE
  8
CSLAYER1
  6
CONTINUOUS
 62
     5
 10
2200.395242
 20
1384.925279
 11
2200.395242
 21
1460.166994
  0
LINE
  8
CSLAYER1
  6
CONTINUOUS
 62
     5
 10
1500.395242
 20
1450.166994
 11
2200.395242
 21
1450.166994
  0
LINE
  8
CSLAYER1
  6
CONTINUOUS
 62
     5
 10
1500.395242
 20
1450.166994
 11
1529.373017
 21
1457.931565
  0
LINE
  8
CSLAYER1
  6
CONTINUOUS
 62
     5
 10
1500.395242
 20
1450.166994
 11
1529.373017
 21
1442.402422
  0
LINE
  8
CSLAYER1
  6
CONTINUOUS
 62
     5
 10
2200.395242
 20
1450.166994
 11
2171.417467
 21
1457.931565
  0
LINE
  8
CSLAYER1
  6
CONTINUOUS
 62
     5
 10
2200.395242
 20
1450.166994
 11
2171.417467
 21
1442.402422
  0
ENDBLK
  8
0
  0
BLOCK
  8
CSLAYER1
  2
*D0008
 70
    65
 10
0.0
 20
0.0
 30
0.0
  0
TEXT
  8
CSLAYER1
 62
     3
 10
1781.917847
 20
619.958801
 40
40.000000
 41
0.843750
  1
703
 50
0.000000
 51
0.000000
  7
EASYDRAW_FONT
 72
     5
 11
1871.917847
 21
619.958801
  0
LINE
  8
CSLAYER1
  6
CONTINUOUS
 62
     5
 10
1475.417937
 20
784.947168
 11
1475.417937
 21
599.958723
  0
LINE
  8
CSLAYER1
  6
CONTINUOUS
 62
     5
 10
2178.417937
 20
784.947168
 11
2178.417937
 21
599.958723
  0
LINE
  8
CSLAYER1
  6
CONTINUOUS
 62
     5
 10
1475.417937
 20
609.958723
 11
2178.417937
 21
609.958723
  0
LINE
  8
CSLAYER1
  6
CONTINUOUS
 62
     5
 10
1475.417937
 20
609.958723
 11
1504.395712
 21
617.723294
  0
LINE
  8
CSLAYER1
  6
CONTINUOUS
 62
     5
 10
1475.417937
 20
609.958723
 11
1504.395712
 21
602.194151
  0
LINE
  8
CSLAYER1
  6
CONTINUOUS
 62
     5
 10
2178.417937
 20
609.958723
 11
2149.440163
 21
617.723294
  0
LINE
  8
CSLAYER1
  6
CONTINUOUS
 62
     5
 10
2178.417937
 20
609.958723
 11
2149.440163
 21
602.194151
  0
ENDBLK
  8
0
  0
BLOCK
  8
CSLAYER1
  2
*D0009
 70
    65
 10
0.0
 20
0.0
 30
0.0
  0
TEXT
  8
CSLAYER1
 62
     3
 10
1071.576050
 20
802.996643
 40
40.000000
 41
1.125000
  1
6
 50
90.000000
 51
0.000000
  7
EASYDRAW_FONT
 72
     5
 11
1071.576050
 21
832.996643
  0
LINE
  8
CSLAYER1
  6
CONTINUOUS
 62
     5
 10
1025.189627
 20
794.947168
 11
1091.576224
 21
794.947168
  0
LINE
  8
CSLAYER1
  6
CONTINUOUS
 62
     5
 10
1025.189627
 20
800.947168
 11
1091.576224
 21
800.947168
  0
LINE
  8
CSLAYER1
  6
CONTINUOUS
 62
     5
 10
1081.576224
 20
794.947168
 11
1081.576224
 21
744.947168
  0
LINE
  8
CSLAYER1
  6
CONTINUOUS
 62
     5
 10
1081.576224
 20
794.947168
 11
1073.811652
 21
765.969394
  0
LINE
  8
CSLAYER1
  6
CONTINUOUS
 62
     5
 10
1081.576224
 20
794.947168
 11
1089.340795
 21
765.969394
  0
LINE
  8
CSLAYER1
  6
CONTINUOUS
 62
     5
 10
1081.576224
 20
800.947168
 11
1081.576224
 21
835.046131
  0
LINE
  8
CSLAYER1
  6
CONTINUOUS
 62
     5
 10
1081.576224
 20
800.947168
 11
1073.811652
 21
829.924943
  0
LINE
  8
CSLAYER1
  6
CONTINUOUS
 62
     5
 10
1081.576224
 20
800.947168
 11
1089.340795
 21
829.924943
  0
LINE
  8
CSLAYER1
  6
CONTINUOUS
 62
     5
 10
1081.576224
 20
794.947168
 11
1081.576224
 21
800.947168
  0
ENDBLK
  8
0
  0
BLOCK
  8
CSLAYER1
  2
EASYDRAWDIM0001
 70
   64
 10
0.0
 20
0.0
 30
0.0
  0
TEXT
  8
CSLAYER1
 62
     3
 10
1183.220581
 20
949.487366
 40
40.000000
 41
0.803571
  1
高圧ホース
 50
0.000000
 51
0.000000
  7
EASYDRAW_FONT
 72
     5
 11
1333.220581
 21
949.487366
  0
LINE
  8
CSLAYER1
  6
CONTINUOUS
 62
     5
 10
1399.766202
 20
820.655761
 11
1333.220534
 21
939.487313
  0
LINE
  8
CSLAYER1
  6
CONTINUOUS
 62
     5
 10
1399.766202
 20
820.655761
 11
1378.832929
 21
842.145248
  0
LINE
  8
CSLAYER1
  6
CONTINUOUS
 62
     5
 10
1399.766202
 20
820.655761
 11
1392.382199
 21
849.732840
  0
LINE
  8
CSLAYER1
  6
CONTINUOUS
 62
     5
 10
1333.220534
 20
939.487313
 11
1173.220534
 21
939.487313
  0
ENDBLK
  8
0
  0
BLOCK
  8
CSLAYER1
  2
EASYDRAWDIM0002
 70
   64
 10
0.0
 20
0.0
 30
0.0
  0
TEXT
  8
CSLAYER1
 62
     3
 10
1431.150513
 20
1896.473732
 40
33.155758
 41
0.767879
  1
穴ヒﾟッチ
 50
90.000000
 51
0.000000
  7
EASYDRAW_FONT
 72
     5
 11
1431.150513
 21
2015.285301
  0
ENDBLK
  8
0
  0
BLOCK
  8
CSLAYER1
  2
*D0010
 70
    65
 10
0.0
 20
0.0
 30
0.0
  0
TEXT
  8
CSLAYER1
 62
     3
 10
1317.427856
 20
1245.120239
 40
40.000000
 41
0.803571
  1
MAX22
 50
0.000000
 51
0.000000
  7
EASYDRAW_FONT
 72
     5
 11
1467.427856
 21
1245.120239
  0
LINE
  8
CSLAYER1
  6
CONTINUOUS
 62
     5
 10
1478.117937
 20
869.747168
 11
1478.117937
 21
1237.404414
  0
LINE
  8
CSLAYER1
  6
CONTINUOUS
 62
     5
 10
1500.395242
 20
1364.925279
 11
1500.395242
 21
1217.404414
  0
LINE
  8
CSLAYER1
  6
CONTINUOUS
 62
     5
 10
1478.117937
 20
1227.404414
 11
1389.001408
 21
1227.404414
  0
LINE
  8
CSLAYER1
  6
CONTINUOUS
 62
     5
 10
1478.117937
 20
1227.404414
 11
1449.140163
 21
1235.168985
  0
LINE
  8
CSLAYER1
  6
CONTINUOUS
 62
     5
 10
1478.117937
 20
1227.404414
 11
1449.140163
 21
1219.639842
  0
LINE
  8
CSLAYER1
  6
CONTINUOUS
 62
     5
 10
1500.395242
 20
1227.404414
 11
1550.395242
 21
1227.404414
  0
LINE
  8
CSLAYER1
  6
CONTINUOUS
 62
     5
 10
1500.395242
 20
1227.404414
 11
1529.373017
 21
1235.168985
  0
LINE
  8
CSLAYER1
  6
CONTINUOUS
 62
     5
 10
1500.395242
 20
1227.404414
 11
1529.373017
 21
1219.639842
  0
LINE
  8
CSLAYER1
  6
CONTINUOUS
 62
     5
 10
1478.117937
 20
1227.404414
 11
1500.395242
 21
1227.404414
  0
ENDBLK
  8
0
  0
BLOCK
  8
CSLAYER1
  2
EASYDRAWDIM0003
 70
   64
 10
0.0
 20
0.0
 30
0.0
  0
TEXT
  8
CSLAYER1
 62
     3
 10
1219.213745
 20
1120.500610
 40
40.000000
 41
0.787500
  1
油圧シリンダー
 50
0.000000
 51
0.000000
  7
EASYDRAW_FONT
 72
     5
 11
1429.213745
 21
1120.500610
  0
LINE
  8
CSLAYER1
  6
CONTINUOUS
 62
     5
 10
1430.178628
 20
1110.500677
 11
1209.213886
 21
1110.500677
  0
ENDBLK
  8
0
  0
BLOCK
  8
CSLAYER1
  2
*D0011
 70
    65
 10
0.0
 20
0.0
 30
0.0
  0
TEXT
  8
CSLAYER1
 62
     3
 10
820.189636
 20
720.338257
 40
40.000000
 41
0.843750
  1
250
 50
0.000000
 51
0.000000
  7
EASYDRAW_FONT
 72
     5
 11
910.189636
 21
720.338257
  0
LINE
  8
CSLAYER1
  6
CONTINUOUS
 62
     5
 10
740.189627
 20
784.947168
 11
740.189627
 21
700.338283
  0
LINE
  8
CSLAYER1
  6
CONTINUOUS
 62
     5
 10
990.189627
 20
784.947168
 11
990.189627
 21
700.338283
  0
LINE
  8
CSLAYER1
  6
CONTINUOUS
 62
     5
 10
740.189627
 20
710.338283
 11
990.189627
 21
710.338283
  0
LINE
  8
CSLAYER1
  6
CONTINUOUS
 62
     5
 10
740.189627
 20
710.338283
 11
769.167402
 21
718.102855
  0
LINE
  8
CSLAYER1
  6
CONTINUOUS
 62
     5
 10
740.189627
 20
710.338283
 11
769.167402
 21
702.573712
  0
LINE
  8
CSLAYER1
  6
CONTINUOUS
 62
     5
 10
990.189627
 20
710.338283
 11
961.211852
 21
718.102855
  0
LINE
  8
CSLAYER1
  6
CONTINUOUS
 62
     5
 10
990.189627
 20
710.338283
 11
961.211852
 21
702.573712
  0
ENDBLK
  8
0
  0
BLOCK
  8
CSLAYER1
  2
*D0012
 70
    65
 10
0.0
 20
0.0
 30
0.0
  0
TEXT
  8
CSLAYER1
 62
     3
 10
820.189636
 20
656.021057
 40
40.000000
 41
0.843750
  1
300
 50
0.000000
 51
0.000000
  7
EASYDRAW_FONT
 72
     5
 11
910.189636
 21
656.021057
  0
LINE
  8
CSLAYER1
  6
CONTINUOUS
 62
     5
 10
715.189627
 20
784.947168
 11
715.189627
 21
636.021051
  0
LINE
  8
CSLAYER1
  6
CONTINUOUS
 62
     5
 10
1015.189627
 20
790.947168
 11
1015.189627
 21
636.021051
  0
LINE
  8
CSLAYER1
  6
CONTINUOUS
 62
     5
 10
715.189627
 20
646.021051
 11
1015.189627
 21
646.021051
  0
LINE
  8
CSLAYER1
  6
CONTINUOUS
 62
     5
 10
715.189627
 20
646.021051
 11
744.167402
 21
653.785622
  0
LINE
  8
CSLAYER1
  6
CONTINUOUS
 62
     5
 10
715.189627
 20
646.021051
 11
744.167402
 21
638.256480
  0
LINE
  8
CSLAYER1
  6
CONTINUOUS
 62
     5
 10
1015.189627
 20
646.021051
 11
986.211852
 21
653.785622
  0
LINE
  8
CSLAYER1
  6
CONTINUOUS
 62
     5
 10
1015.189627
 20
646.021051
 11
986.211852
 21
638.256480
  0
ENDBLK
  8
0
  0
BLOCK
  8
CSLAYER1
  2
*D0013
 70
    65
 10
0.0
 20
0.0
 30
0.0
  0
TEXT
  8
CSLAYER1
 62
     3
 10
820.189636
 20
1458.547729
 40
40.000000
 41
0.843750
  1
200
 50
0.000000
 51
0.000000
  7
EASYDRAW_FONT
 72
     5
 11
910.189636
 21
1458.547729
  0
LINE
  8
CSLAYER1
  6
CONTINUOUS
 62
     5
 10
765.189627
 20
1384.925279
 11
765.189627
 21
1458.547699
  0
LINE
  8
CSLAYER1
  6
CONTINUOUS
 62
     5
 10
965.189627
 20
1384.925279
 11
965.189627
 21
1458.547699
  0
LINE
  8
CSLAYER1
  6
CONTINUOUS
 62
     5
 10
765.189627
 20
1448.547699
 11
965.189627
 21
1448.547699
  0
LINE
  8
CSLAYER1
  6
CONTINUOUS
 62
     5
 10
765.189627
 20
1448.547699
 11
794.167402
 21
1456.312271
  0
LINE
  8
CSLAYER1
  6
CONTINUOUS
 62
     5
 10
765.189627
 20
1448.547699
 11
794.167402
 21
1440.783128
  0
LINE
  8
CSLAYER1
  6
CONTINUOUS
 62
     5
 10
965.189627
 20
1448.547699
 11
936.211852
 21
1456.312271
  0
LINE
  8
CSLAYER1
  6
CONTINUOUS
 62
     5
 10
965.189627
 20
1448.547699
 11
936.211852
 21
1440.783128
  0
ENDBLK
  8
0
  0
BLOCK
  8
CSLAYER1
  2
*D0014
 70
    65
 10
0.0
 20
0.0
 30
0.0
  0
TEXT
  8
CSLAYER1
 62
     3
 10
1486.509155
 20
655.894226
 40
40.000000
 41
0.900000
  1
25
 50
0.000000
 51
0.000000
  7
EASYDRAW_FONT
 72
     5
 11
1546.509155
 21
655.894226
  0
LINE
  8
CSLAYER1
  6
CONTINUOUS
 62
     5
 10
1475.417937
 20
784.947168
 11
1475.417937
 21
715.168984
  0
LINE
  8
CSLAYER1
  6
CONTINUOUS
 62
     5
 10
1500.417937
 20
784.947168
 11
1500.417937
 21
715.168984
  0
LINE
  8
CSLAYER1
  6
CONTINUOUS
 62
     5
 10
1475.417937
 20
725.168984
 11
1500.417937
 21
725.168984
  0
LINE
  8
CSLAYER1
  6
CONTINUOUS
 62
     5
 10
1425.417937
 20
725.168984
 11
1475.417937
 21
725.168984
  0
LINE
  8
CSLAYER1
  6
CONTINUOUS
 62
     5
 10
1475.417937
 20
725.168984
 11
1446.440163
 21
732.933555
  0
LINE
  8
CSLAYER1
  6
CONTINUOUS
 62
     5
 10
1475.417937
 20
725.168984
 11
1446.440163
 21
717.404413
  0
LINE
  8
CSLAYER1
  6
CONTINUOUS
 62
     5
 10
1500.417937
 20
725.168984
 11
1550.417937
 21
725.168984
  0
LINE
  8
CSLAYER1
  6
CONTINUOUS
 62
     5
 10
1500.417937
 20
725.168984
 11
1529.395712
 21
732.933555
  0
LINE
  8
CSLAYER1
  6
CONTINUOUS
 62
     5
 10
1500.417937
 20
725.168984
 11
1529.395712
 21
717.404413
  0
ENDBLK
  8
0
  0
BLOCK
  8
CSLAYER1
  2
EASYDRAWDIM0004
 70
   64
 10
0.0
 20
0.0
 30
0.0
  0
LINE
  8
CSLAYER1
  6
CONTINUOUS
 62
     5
 10
1371.693937
 20
706.045432
 11
1301.693937
 21
706.045432
  0
ENDBLK
  8
0
  0
BLOCK
  8
CSLAYER1
  2
EASYDRAWDIM0005
 70
   64
 10
0.0
 20
0.0
 30
0.0
  0
LINE
  8
CSLAYER1
  6
CONTINUOUS
 62
     6
 10
1500.417937
 20
794.947168
 11
1371.693937
 21
706.045432
  0
LINE
  8
CSLAYER1
  6
CONTINUOUS
 62
     6
 10
1500.417937
 20
794.947168
 11
1480.986484
 21
772.090690
  0
LINE
  8
CSLAYER1
  6
CONTINUOUS
 62
     6
 10
1500.417937
 20
794.947168
 11
1472.161566
 21
784.868604
  0
LINE
  8
CSLAYER1
  6
CONTINUOUS
 62
     6
 10
1371.693937
 20
706.045432
 11
1317.277193
 21
706.045432
  0
ENDBLK
  8
0
  0
BLOCK
  8
CSLAYER1
  2
EASYDRAWDIM0006
 70
   64
 10
0.0
 20
0.0
 30
0.0
  0
TEXT
  8
CSLAYER1
 62
     3
 10
1046.074097
 20
658.090454
 40
40.000000
 41
0.771429
  1
2-%%c13（アンカー穴）
 50
0.000000
 51
0.000000
  7
EASYDRAW_FONT
 72
     5
 11
1406.074097
 21
658.090454
  0
LINE
  8
CSLAYER1
  6
CONTINUOUS
 62
     5
 10
1086.097273
 20
706.045432
 11
1371.693937
 21
706.045432
  0
ENDBLK
  8
0
  0
BLOCK
  8
CSLAYER1
  2
*D0015
 70
    65
 10
0.0
 20
0.0
 30
0.0
  0
TEXT
  8
CSLAYER1
 62
     3
 10
2494.031006
 20
797.347107
 40
40.000000
 41
0.900000
  1
65
 50
90.000000
 51
0.000000
  7
EASYDRAW_FONT
 72
     5
 11
2494.031006
 21
857.347107
  0
LINE
  8
CSLAYER1
  6
CONTINUOUS
 62
     5
 10
2527.753163
 20
794.947168
 11
2494.031127
 21
794.947168
  0
LINE
  8
CSLAYER1
  6
CONTINUOUS
 62
     5
 10
2578.294316
 20
859.747168
 11
2494.031127
 21
859.747168
  0
LINE
  8
CSLAYER1
  6
CONTINUOUS
 62
     5
 10
2504.031127
 20
794.947168
 11
2504.031127
 21
859.747168
  0
LINE
  8
CSLAYER1
  6
CONTINUOUS
 62
     5
 10
2504.031127
 20
744.947168
 11
2504.031127
 21
794.947168
  0
LINE
  8
CSLAYER1
  6
CONTINUOUS
 62
     5
 10
2504.031127
 20
794.947168
 11
2496.266556
 21
765.969394
  0
LINE
  8
CSLAYER1
  6
CONTINUOUS
 62
     5
 10
2504.031127
 20
794.947168
 11
2511.795698
 21
765.969394
  0
LINE
  8
CSLAYER1
  6
CONTINUOUS
 62
     5
 10
2504.031127
 20
859.747168
 11
2504.031127
 21
909.747168
  0
LINE
  8
CSLAYER1
  6
CONTINUOUS
 62
     5
 10
2504.031127
 20
859.747168
 11
2496.266556
 21
888.724943
  0
LINE
  8
CSLAYER1
  6
CONTINUOUS
 62
     5
 10
2504.031127
 20
859.747168
 11
2511.795698
 21
888.724943
  0
ENDBLK
  8
0
  0
BLOCK
  8
CSLAYER1
  2
BLKF0000
 70
   64
 10
0.0
 20
0.0
 30
0.0
  0
ARC
  8
CSLAYER1
  6
CONTINUOUS
 62
     5
 10
2855.946058
 20
136.286412
 40
3.549225
 50
6.429109
 51
73.182034
  0
ARC
  8
CSLAYER1
  6
CONTINUOUS
 62
     5
 10
2852.485088
 20
135.128019
 40
6.907754
 50
310.517970
 51
330.092764
  0
ARC
  8
CSLAYER1
  6
CONTINUOUS
 62
     5
 10
2852.424438
 20
135.493537
 40
7.148321
 50
-32.205059
 51
9.585194
  0
ARC
  8
CSLAYER1
  6
CONTINUOUS
 62
     5
 10
2855.717166
 20
132.732539
 40
4.767514
 50
180.000000
 51
218.514150
  0
ARC
  8
CSLAYER1
  6
CONTINUOUS
 62
     5
 10
2854.430446
 20
132.055398
 40
3.348282
 50
222.781148
 51
319.406906
  0
ARC
  8
CSLAYER1
  6
CONTINUOUS
 62
     5
 10
2857.496087
 20
133.145291
 40
6.559434
 50
94.574282
 51
183.607718
  0
LINE
  8
CSLAYER1
  6
CONTINUOUS
 62
     5
 10
2870.939994
 20
128.028459
 11
2870.082958
 21
124.989876
  0
LINE
  8
CSLAYER1
  6
CONTINUOUS
 62
     5
 10
2872.731979
 20
147.896116
 11
2870.628344
 21
150.623050
  0
LINE
  8
CSLAYER1
  6
CONTINUOUS
 62
     5
 10
2870.628344
 20
150.623050
 11
2863.874990
 21
154.380962
  0
LINE
  8
CSLAYER1
  6
CONTINUOUS
 62
     5
 10
2863.874990
 20
154.380962
 11
2856.972963
 21
155.183832
  0
LINE
  8
CSLAYER1
  6
CONTINUOUS
 62
     5
 10
2838.683737
 20
141.805159
 11
2840.830432
 21
146.769389
  0
LINE
  8
CSLAYER1
  6
CONTINUOUS
 62
     5
 10
2840.793434
 20
146.683832
 11
2842.977126
 21
149.318589
  0
LINE
  8
CSLAYER1
  6
CONTINUOUS
 62
     5
 10
2842.977126
 20
149.318589
 11
2846.281548
 21
151.683832
  0
LINE
  8
CSLAYER1
  6
CONTINUOUS
 62
     5
 10
2856.972963
 20
155.183832
 11
2855.454787
 21
154.416988
  0
LINE
  8
CSLAYER1
  6
CONTINUOUS
 62
     5
 10
2855.454787
 20
154.416988
 11
2851.966409
 21
154.416988
  0
LINE
  8
CSLAYER1
  6
CONTINUOUS
 62
     5
 10
2851.966409
 20
154.416988
 11
2848.410946
 21
152.471546
  0
LINE
  8
CSLAYER1
  6
CONTINUOUS
 62
     5
 10
2848.410946
 20
152.471546
 11
2846.281548
 21
151.683832
  0
LINE
  8
CSLAYER1
  6
CONTINUOUS
 62
     5
 10
2838.683737
 20
141.805159
 11
2837.166190
 21
134.256556
  0
LINE
  8
CSLAYER1
  6
CONTINUOUS
 62
     5
 10
2837.166190
 20
134.256556
 11
2836.972963
 21
131.683832
  0
LINE
  8
CSLAYER1
  6
CONTINUOUS
 62
     5
 10
2839.682345
 20
123.844050
 11
2836.972963
 21
129.940161
  0
LINE
  8
CSLAYER1
  6
CONTINUOUS
 62
     5
 10
2836.972963
 20
129.940161
 11
2836.972963
 21
131.683832
  0
LINE
  8
CSLAYER1
  6
CONTINUOUS
 62
     5
 10
2870.082958
 20
124.989876
 11
2868.397170
 21
121.986870
  0
LINE
  8
CSLAYER1
  6
CONTINUOUS
 62
     5
 10
2868.397170
 20
121.986870
 11
2866.972963
 21
120.668159
  0
ARC
  8
CSLAYER1
  6
CONTINUOUS
 62
     5
 10
2854.781018
 20
132.220593
 40
17.266626
 50
208.054813
 51
260.640470
  0
ARC
  8
CSLAYER1
  6
CONTINUOUS
 62
     5
 10
2849.587623
 20
144.963062
 40
29.874611
 50
274.579659
 51
305.587364
  0
ARC
  8
CSLAYER1
  6
CONTINUOUS
 62
     5
 10
2860.559972
 20
138.979340
 40
15.088627
 50
313.467013
 51
331.085078
  0
LINE
  8
CSLAYER1
  6
CONTINUOUS
 62
     5
 10
2875.351304
 20
135.197253
 11
2875.648598
 21
138.979340
  0
LINE
  8
CSLAYER1
  6
CONTINUOUS
 62
     5
 10
2875.648598
 20
138.979340
 11
2874.356601
 21
145.088323
  0
LINE
  8
CSLAYER1
  6
CONTINUOUS
 62
     5
 10
2875.351304
 20
135.197253
 11
2873.767629
 21
131.683832
  0
ARC
  8
CSLAYER1
  6
CONTINUOUS
 62
     5
 10
2860.559972
 20
138.979340
 40
15.088627
 50
23.883193
 51
36.225170
  0
LINE
  8
CSLAYER1
  6
CONTINUOUS
 62
     5
 10
2820.972963
 20
166.683832
 11
2821.972963
 21
167.776477
  0
LINE
  8
CSLAYER1
  6
CONTINUOUS
 62
     5
 10
2820.972963
 20
166.683832
 11
2822.549921
 21
165.238799
  0
LINE
  8
CSLAYER1
  6
CONTINUOUS
 62
     5
 10
2824.089133
 20
163.129508
 11
2824.115401
 21
160.961389
  0
LINE
  8
CSLAYER1
  6
CONTINUOUS
 62
     5
 10
2824.115401
 20
160.961389
 11
2824.322799
 21
160.200929
  0
LINE
  8
CSLAYER1
  6
CONTINUOUS
 62
     5
 10
2824.322799
 20
160.200929
 11
2824.910427
 21
159.475036
  0
LINE
  8
CSLAYER1
  6
CONTINUOUS
 62
     5
 10
2824.910427
 20
159.475036
 11
2825.498055
 21
159.544169
  0
LINE
  8
CSLAYER1
  6
CONTINUOUS
 62
     5
 10
2825.498055
 20
159.544169
 11
2826.120249
 21
159.717001
  0
LINE
  8
CSLAYER1
  6
CONTINUOUS
 62
     5
 10
2826.120249
 20
159.717001
 11
2826.535045
 21
159.544169
  0
LINE
  8
CSLAYER1
  6
CONTINUOUS
 62
     5
 10
2826.535045
 20
159.544169
 11
2827.433769
 21
159.094807
  0
LINE
  8
CSLAYER1
  6
CONTINUOUS
 62
     5
 10
2827.433769
 20
159.094807
 11
2828.209821
 21
158.683832
  0
LINE
  8
CSLAYER1
  6
CONTINUOUS
 62
     5
 10
2828.209821
 20
158.683832
 11
2828.712724
 21
158.714577
  0
LINE
  8
CSLAYER1
  6
CONTINUOUS
 62
     5
 10
2828.712724
 20
158.714577
 11
2831.520595
 21
160.161057
  0
LINE
  8
CSLAYER1
  6
CONTINUOUS
 62
     5
 10
2821.972963
 20
167.776477
 11
2822.305814
 21
169.250184
  0
LINE
  8
CSLAYER1
  6
CONTINUOUS
 62
     5
 10
2822.305814
 20
169.250184
 11
2823.759220
 21
169.400536
  0
LINE
  8
CSLAYER1
  6
CONTINUOUS
 62
     5
 10
2825.252978
 20
172.168995
 11
2827.007151
 21
172.326085
  0
LINE
  8
CSLAYER1
  6
CONTINUOUS
 62
     5
 10
2827.007151
 20
172.326085
 11
2830.541679
 21
173.163899
  0
LINE
  8
CSLAYER1
  6
CONTINUOUS
 62
     5
 10
2830.541679
 20
173.163899
 11
2831.972963
 21
173.495538
  0
LINE
  8
CSLAYER1
  6
CONTINUOUS
 62
     5
 10
2825.252978
 20
172.168995
 11
2823.320087
 21
172.327863
  0
LINE
  8
CSLAYER1
  6
CONTINUOUS
 62
     5
 10
2822.583964
 20
171.459175
 11
2822.677489
 21
171.088014
  0
LINE
  8
CSLAYER1
  6
CONTINUOUS
 62
     5
 10
2822.677489
 20
171.088014
 11
2823.169083
 21
170.550333
  0
LINE
  8
CSLAYER1
  6
CONTINUOUS
 62
     5
 10
2823.169083
 20
170.550333
 11
2823.845025
 21
170.043377
  0
LINE
  8
CSLAYER1
  6
CONTINUOUS
 62
     5
 10
2823.845025
 20
170.043377
 11
2823.968350
 21
169.878944
  0
LINE
  8
CSLAYER1
  6
CONTINUOUS
 62
     5
 10
2822.549921
 20
165.238799
 11
2824.089133
 21
163.129508
  0
ARC
  8
CSLAYER1
  6
CONTINUOUS
 62
     5
 10
2866.959663
 20
-4.974820
 40
180.727463
 50
80.438896
 51
96.353582
  0
ARC
  8
CSLAYER1
  6
CONTINUOUS
 62
     5
 10
2842.060750
 20
140.273080
 40
34.720242
 50
81.866516
 51
106.890578
  0
LINE
  8
CSLAYER1
  6
CONTINUOUS
 62
     5
 10
2901.167224
 20
172.450503
 11
2903.414307
 21
171.429101
  0
LINE
  8
CSLAYER1
  6
CONTINUOUS
 62
     5
 10
2906.989211
 20
169.845929
 11
2903.414307
 21
171.429101
  0
LINE
  8
CSLAYER1
  6
CONTINUOUS
 62
     5
 10
2901.167224
 20
172.450503
 11
2896.972963
 21
173.243074
  0
LINE
  8
CSLAYER1
  6
CONTINUOUS
 62
     5
 10
2906.972963
 20
169.853125
 11
2908.844538
 21
168.284648
  0
LINE
  8
CSLAYER1
  6
CONTINUOUS
 62
     5
 10
2890.216219
 20
170.889976
 11
2891.115493
 21
172.342651
  0
LINE
  8
CSLAYER1
  6
CONTINUOUS
 62
     5
 10
2891.115493
 20
172.342651
 11
2895.791092
 21
171.223141
  0
LINE
  8
CSLAYER1
  6
CONTINUOUS
 62
     5
 10
2895.791092
 20
171.223141
 11
2912.533478
 21
166.683832
  0
LINE
  8
CSLAYER1
  6
CONTINUOUS
 62
     5
 10
2915.472963
 20
166.683832
 11
2908.844538
 21
168.284648
  0
LINE
  8
CSLAYER1
  6
CONTINUOUS
 62
     5
 10
2912.533478
 20
166.683832
 11
2915.472963
 21
166.683832
  0
LINE
  8
CSLAYER1
  6
CONTINUOUS
 62
     5
 10
2856.972963
 20
171.148773
 11
2876.972963
 21
171.683832
  0
LINE
  8
CSLAYER1
  6
CONTINUOUS
 62
     5
 10
2876.972963
 20
171.683832
 11
2890.216219
 21
170.889976
  0
LINE
  8
CSLAYER1
  6
CONTINUOUS
 62
     5
 10
2891.819200
 20
168.829496
 11
2876.972963
 21
170.183832
  0
LINE
  8
CSLAYER1
  6
CONTINUOUS
 62
     5
 10
2876.972963
 20
170.183832
 11
2861.923753
 21
170.592484
  0
LINE
  8
CSLAYER1
  6
CONTINUOUS
 62
     5
 10
2861.972963
 20
170.591148
 11
2856.972963
 21
170.686442
  0
LINE
  8
CSLAYER1
  6
CONTINUOUS
 62
     5
 10
2856.972963
 20
171.148773
 11
2856.972963
 21
170.686442
  0
LINE
  8
CSLAYER1
  6
CONTINUOUS
 62
     5
 10
2914.472963
 20
163.183832
 11
2905.630404
 21
165.494495
  0
LINE
  8
CSLAYER1
  6
CONTINUOUS
 62
     5
 10
2891.819200
 20
168.829496
 11
2901.972963
 21
166.857113
  0
LINE
  8
CSLAYER1
  6
CONTINUOUS
 62
     5
 10
2901.972963
 20
166.857113
 11
2905.630404
 21
165.494495
  0
LINE
  8
CSLAYER1
  6
CONTINUOUS
 62
     5
 10
2914.472963
 20
163.183832
 11
2914.180345
 21
162.344727
  0
LINE
  8
CSLAYER1
  6
CONTINUOUS
 62
     5
 10
2923.972963
 20
157.683832
 11
2923.666935
 21
158.912813
  0
LINE
  8
CSLAYER1
  6
CONTINUOUS
 62
     5
 10
2914.180345
 20
162.344727
 11
2923.666935
 21
158.912813
  0
LINE
  8
CSLAYER1
  6
CONTINUOUS
 62
     5
 10
2860.472963
 20
163.183832
 11
2862.896001
 21
163.183832
  0
LINE
  8
CSLAYER1
  6
CONTINUOUS
 62
     5
 10
2882.972963
 20
163.616328
 11
2882.972963
 21
163.183832
  0
LINE
  8
CSLAYER1
  6
CONTINUOUS
 62
     5
 10
2881.972963
 20
164.150769
 11
2880.261683
 21
164.787947
  0
LINE
  8
CSLAYER1
  6
CONTINUOUS
 62
     5
 10
2880.261683
 20
164.787947
 11
2879.151627
 21
164.838404
  0
LINE
  8
CSLAYER1
  6
CONTINUOUS
 62
     5
 10
2879.151627
 20
164.838404
 11
2878.672285
 21
164.586119
  0
LINE
  8
CSLAYER1
  6
CONTINUOUS
 62
     5
 10
2878.672285
 20
164.586119
 11
2878.571371
 21
164.182462
  0
LINE
  8
CSLAYER1
  6
CONTINUOUS
 62
     5
 10
2878.571371
 20
164.182462
 11
2879.025485
 21
163.879720
  0
LINE
  8
CSLAYER1
  6
CONTINUOUS
 62
     5
 10
2879.025485
 20
163.879720
 11
2880.665340
 21
163.728348
  0
LINE
  8
CSLAYER1
  6
CONTINUOUS
 62
     5
 10
2880.665340
 20
163.728348
 11
2882.972963
 21
163.616328
  0
LINE
  8
CSLAYER1
  6
CONTINUOUS
 62
     5
 10
2923.972963
 20
157.683832
 11
2920.997420
 21
158.870414
  0
LINE
  8
CSLAYER1
  6
CONTINUOUS
 62
     5
 10
2920.997420
 20
158.870414
 11
2910.941730
 21
160.713289
  0
LINE
  8
CSLAYER1
  6
CONTINUOUS
 62
     5
 10
2910.941730
 20
160.713289
 11
2905.915950
 21
161.873085
  0
LINE
  8
CSLAYER1
  6
CONTINUOUS
 62
     5
 10
2883.507184
 20
164.183832
 11
2895.272850
 21
164.183832
  0
LINE
  8
CSLAYER1
  6
CONTINUOUS
 62
     5
 10
2881.972963
 20
164.150769
 11
2882.497622
 21
163.842302
  0
LINE
  8
CSLAYER1
  6
CONTINUOUS
 62
     5
 10
2882.497622
 20
163.842302
 11
2882.794434
 21
163.753258
  0
LINE
  8
CSLAYER1
  6
CONTINUOUS
 62
     5
 10
2882.794434
 20
163.753258
 11
2882.972963
 21
163.778428
  0
LINE
  8
CSLAYER1
  6
CONTINUOUS
 62
     5
 10
2882.972963
 20
163.778428
 11
2883.507184
 21
164.183832
  0
LINE
  8
CSLAYER1
  6
CONTINUOUS
 62
     5
 10
2895.272850
 20
164.183832
 11
2899.723119
 21
163.155007
  0
LINE
  8
CSLAYER1
  6
CONTINUOUS
 62
     5
 10
2899.723119
 20
163.155007
 11
2903.876310
 21
161.989858
  0
LINE
  8
CSLAYER1
  6
CONTINUOUS
 62
     5
 10
2903.876310
 20
161.989858
 11
2905.915950
 21
161.873085
  0
LINE
  8
CSLAYER1
  6
CONTINUOUS
 62
     5
 10
2859.472963
 20
162.183832
 11
2859.472963
 21
161.683832
  0
LINE
  8
CSLAYER1
  6
CONTINUOUS
 62
     5
 10
2856.972963
 20
161.683832
 11
2859.472963
 21
161.683832
  0
ARC
  8
CSLAYER1
  6
CONTINUOUS
 62
     5
 10
2860.472963
 20
162.183832
 40
1.000000
 50
90.000000
 51
180.000000
  0
LINE
  8
CSLAYER1
  6
CONTINUOUS
 62
     5
 10
2862.896001
 20
163.183832
 11
2863.593558
 21
162.611836
  0
LINE
  8
CSLAYER1
  6
CONTINUOUS
 62
     5
 10
2864.195926
 20
162.587875
 11
2865.053522
 21
163.183832
  0
LINE
  8
CSLAYER1
  6
CONTINUOUS
 62
     5
 10
2866.631918
 20
163.183832
 11
2868.299044
 21
162.525757
  0
LINE
  8
CSLAYER1
  6
CONTINUOUS
 62
     5
 10
2868.722753
 20
162.552269
 11
2869.876240
 21
163.183832
  0
LINE
  8
CSLAYER1
  6
CONTINUOUS
 62
     5
 10
2865.053522
 20
163.183832
 11
2866.631918
 21
163.183832
  0
LINE
  8
CSLAYER1
  6
CONTINUOUS
 62
     5
 10
2869.876240
 20
163.183832
 11
2882.972963
 21
163.183832
  0
LINE
  8
CSLAYER1
  6
CONTINUOUS
 62
     5
 10
2835.521946
 20
160.075006
 11
2856.972963
 21
161.683832
  0
LINE
  8
CSLAYER1
  6
CONTINUOUS
 62
     5
 10
2831.520595
 20
160.161057
 11
2835.521946
 21
160.075006
  0
ARC
  8
CSLAYER1
  6
CONTINUOUS
 62
     5
 10
2863.910597
 20
162.998470
 40
0.500000
 50
230.648247
 51
304.796026
  0
ARC
  8
CSLAYER1
  6
CONTINUOUS
 62
     5
 10
2868.482627
 20
162.990834
 40
0.500000
 50
248.459024
 51
298.701829
  0
ARC
  8
CSLAYER1
  6
CONTINUOUS
 62
     5
 10
2823.728350
 20
169.698944
 40
0.300000
 50
-84.093859
 51
36.869898
  0
ARC
  8
CSLAYER1
  6
CONTINUOUS
 62
     5
 10
2823.262746
 20
171.630215
 40
0.700000
 50
85.301319
 51
194.142980
  0
LINE
  8
CSLAYER1
  6
CONTINUOUS
 62
     3
 10
2855.454787
 20
154.416988
 11
2863.565283
 21
154.416988
  0
LINE
  8
CSLAYER1
  6
CONTINUOUS
 62
     3
 10
2849.042271
 20
152.816988
 11
2866.685611
 21
152.816988
  0
LINE
  8
CSLAYER1
  6
CONTINUOUS
 62
     3
 10
2845.629332
 20
151.216988
 11
2869.560976
 21
151.216988
  0
LINE
  8
CSLAYER1
  6
CONTINUOUS
 62
     3
 10
2843.394012
 20
149.616988
 11
2871.404449
 21
149.616988
  0
LINE
  8
CSLAYER1
  6
CONTINUOUS
 62
     3
 10
2841.898356
 20
148.016988
 11
2872.638735
 21
148.016988
  0
LINE
  8
CSLAYER1
  6
CONTINUOUS
 62
     3
 10
2840.678042
 20
146.416988
 11
2873.688111
 21
146.416988
  0
LINE
  8
CSLAYER1
  6
CONTINUOUS
 62
     3
 10
2839.986150
 20
144.816988
 11
2874.413986
 21
144.816988
  0
LINE
  8
CSLAYER1
  6
CONTINUOUS
 62
     3
 10
2839.294258
 20
143.216988
 11
2874.752372
 21
143.216988
  0
LINE
  8
CSLAYER1
  6
CONTINUOUS
 62
     3
 10
2838.645908
 20
141.616988
 11
2875.090758
 21
141.616988
  0
LINE
  8
CSLAYER1
  6
CONTINUOUS
 62
     3
 10
2838.324249
 20
140.016988
 11
2875.429145
 21
140.016988
  0
LINE
  8
CSLAYER1
  6
CONTINUOUS
 62
     3
 10
2838.002590
 20
138.416988
 11
2853.592833
 21
138.416988
  0
LINE
  8
CSLAYER1
  6
CONTINUOUS
 62
     3
 10
2837.680931
 20
136.816988
 11
2852.060572
 21
136.816988
  0
LINE
  8
CSLAYER1
  6
CONTINUOUS
 62
     3
 10
2837.359273
 20
135.216988
 11
2851.272403
 21
135.216988
  0
LINE
  8
CSLAYER1
  6
CONTINUOUS
 62
     3
 10
2837.118155
 20
133.616988
 11
2850.953635
 21
133.616988
  0
LINE
  8
CSLAYER1
  6
CONTINUOUS
 62
     3
 10
2836.997985
 20
132.016988
 11
2851.003656
 21
132.016988
  0
LINE
  8
CSLAYER1
  6
CONTINUOUS
 62
     3
 10
2836.972963
 20
130.416988
 11
2851.549743
 21
130.416988
  0
LINE
  8
CSLAYER1
  6
CONTINUOUS
 62
     3
 10
2837.472151
 20
128.816988
 11
2853.579746
 21
128.816988
  0
LINE
  8
CSLAYER1
  6
CONTINUOUS
 62
     3
 10
2838.183262
 20
127.216988
 11
2870.711117
 21
127.216988
  0
LINE
  8
CSLAYER1
  6
CONTINUOUS
 62
     3
 10
2838.894373
 20
125.616988
 11
2870.259835
 21
125.616988
  0
LINE
  8
CSLAYER1
  6
CONTINUOUS
 62
     3
 10
2839.605484
 20
124.016988
 11
2869.536811
 21
124.016988
  0
LINE
  8
CSLAYER1
  6
CONTINUOUS
 62
     3
 10
2840.567443
 20
122.416988
 11
2868.638624
 21
122.416988
  0
LINE
  8
CSLAYER1
  6
CONTINUOUS
 62
     3
 10
2841.815904
 20
120.816988
 11
2867.133698
 21
120.816988
  0
LINE
  8
CSLAYER1
  6
CONTINUOUS
 62
     3
 10
2843.421324
 20
119.216988
 11
2864.741238
 21
119.216988
  0
LINE
  8
CSLAYER1
  6
CONTINUOUS
 62
     3
 10
2845.568466
 20
117.616988
 11
2861.616114
 21
117.616988
  0
LINE
  8
CSLAYER1
  6
CONTINUOUS
 62
     3
 10
2848.816156
 20
116.016988
 11
2856.977966
 21
116.016988
  0
LINE
  8
CSLAYER1
  6
CONTINUOUS
 62
     3
 10
2858.784657
 20
138.416988
 11
2875.604394
 21
138.416988
  0
LINE
  8
CSLAYER1
  6
CONTINUOUS
 62
     3
 10
2859.455401
 20
136.816988
 11
2875.478625
 21
136.816988
  0
LINE
  8
CSLAYER1
  6
CONTINUOUS
 62
     3
 10
2859.567408
 20
135.216988
 11
2875.352855
 21
135.216988
  0
LINE
  8
CSLAYER1
  6
CONTINUOUS
 62
     3
 10
2859.322051
 20
133.616988
 11
2874.638999
 21
133.616988
  0
LINE
  8
CSLAYER1
  6
CONTINUOUS
 62
     3
 10
2858.670405
 20
132.016988
 11
2873.917799
 21
132.016988
  0
LINE
  8
CSLAYER1
  6
CONTINUOUS
 62
     3
 10
2857.537142
 20
130.416988
 11
2872.983851
 21
130.416988
  0
LINE
  8
CSLAYER1
  6
CONTINUOUS
 62
     3
 10
2855.281146
 20
128.816988
 11
2871.713144
 21
128.816988
  0
TEXT
  8
CSLAYER1
 62
     5
 10
2876.144804
 20
136.428158
 40
4.713448
 41
1.951056
  1
M
 50
0.000000
 51
0.000000
  7
EASYDRAW_FONT
 72
     5
 11
2882.275606
 21
136.428158
  0
TEXT
  8
CSLAYER1
 62
     5
 10
2885.796191
 20
136.369887
 40
4.626621
 41
0.778201
  1
T
 50
0.000000
 51
0.000000
  7
EASYDRAW_FONT
 72
     5
 11
2888.196485
 21
136.369887
  0
TEXT
  8
CSLAYER1
 62
     5
 10
2888.561754
 20
136.404686
 40
4.696183
 41
1.055553
  1
E
 50
0.000000
 51
0.000000
  7
EASYDRAW_FONT
 72
     5
 11
2891.866469
 21
136.404686
  0
TEXT
  8
CSLAYER1
 62
     5
 10
2891.677935
 20
138.020530
 40
0.348283
 41
9.375319
  1
-
 50
0.000000
 51
0.000000
  7
EASYDRAW_FONT
 72
     5
 11
2893.854780
 21
138.020530
  0
TEXT
  8
CSLAYER1
 62
     5
 10
2893.492144
 20
136.373339
 40
4.861659
 41
1.298502
  1
H
 50
0.000000
 51
0.000000
  7
EASYDRAW_FONT
 72
     5
 11
2897.700727
 21
136.373339
  0
TEXT
  8
CSLAYER1
 62
     5
 10
2897.568159
 20
136.403718
 40
4.843139
 41
1.269236
  1
A
 50
0.000000
 51
0.000000
  7
EASYDRAW_FONT
 72
     5
 11
2901.666216
 21
136.403718
  0
TEXT
  8
CSLAYER1
 62
     5
 10
2901.274315
 20
136.362191
 40
4.825362
 41
1.490144
  1
N
 50
0.000000
 51
0.000000
  7
EASYDRAW_FONT
 72
     5
 11
2906.067970
 21
136.362191
  0
TEXT
  8
CSLAYER1
 62
     5
 10
2882.065773
 20
136.339618
 40
4.982325
 41
1.177443
  1
A
 50
0.000000
 51
0.000000
  7
EASYDRAW_FONT
 72
     5
 11
2885.976707
 21
136.339618
  0
TEXT
  8
CSLAYER1
 62
     5
 10
2876.511818
 20
129.344378
 40
4.982325
 41
1.177443
  1
A
 50
0.000000
 51
0.000000
  7
EASYDRAW_FONT
 72
     5
 11
2880.422752
 21
129.344378
  0
TEXT
  8
CSLAYER1
 62
     5
 10
2889.296242
 20
129.372699
 40
4.982325
 41
1.177443
  1
A
 50
0.000000
 51
0.000000
  7
EASYDRAW_FONT
 72
     5
 11
2893.207176
 21
129.372699
  0
TEXT
  8
CSLAYER1
 62
     5
 10
2893.056786
 20
129.429696
 40
4.825362
 41
1.490144
  1
N
 50
0.000000
 51
0.000000
  7
EASYDRAW_FONT
 72
     5
 11
2897.850441
 21
129.429696
  0
TEXT
  8
CSLAYER1
 62
     5
 10
2901.959122
 20
129.438091
 40
4.841775
 41
1.184218
  1
E
 50
0.000000
 51
0.000000
  7
EASYDRAW_FONT
 72
     5
 11
2905.781601
 21
129.438091
  0
TEXT
  8
CSLAYER1
 62
     5
 10
2880.792372
 20
129.343054
 40
4.947865
 41
1.093992
  1
D
 50
0.000000
 51
0.000000
  7
EASYDRAW_FONT
 72
     5
 11
2884.400988
 21
129.343054
  0
TEXT
  8
CSLAYER1
 62
     5
 10
2885.194730
 20
129.337669
 40
4.924210
 41
1.228195
  1
V
 50
0.000000
 51
0.000000
  7
EASYDRAW_FONT
 72
     5
 11
2889.226657
 21
129.337669
  0
TEXT
  8
CSLAYER1
 62
     5
 10
2897.419931
 20
129.358401
 40
5.032894
 41
1.481023
  1
C
 50
0.000000
 51
0.000000
  7
EASYDRAW_FONT
 72
     5
 11
2902.389151
 21
129.358401
  0
LINE
  8
CSLAYER1
  6
CONTINUOUS
 62
     5
 10
2888.050300
 20
140.418804
 11
2887.038238
 21
140.418804
  0
LINE
  8
CSLAYER1
  6
CONTINUOUS
 62
     3
 10
2837.148538
 20
174.644076
 11
2886.946364
 21
174.644076
  0
LINE
  8
CSLAYER1
  6
CONTINUOUS
 62
     3
 10
2830.036174
 20
173.044076
 11
2898.026055
 21
173.044076
  0
LINE
  8
CSLAYER1
  6
CONTINUOUS
 62
     3
 10
2822.587769
 20
171.444076
 11
2868.011079
 21
171.444076
  0
LINE
  8
CSLAYER1
  6
CONTINUOUS
 62
     3
 10
2880.972629
 20
171.444076
 11
2890.559233
 21
171.444076
  0
LINE
  8
CSLAYER1
  6
CONTINUOUS
 62
     3
 10
2894.868366
 20
171.444076
 11
2903.381363
 21
171.444076
  0
LINE
  8
CSLAYER1
  6
CONTINUOUS
 62
     3
 10
2823.990908
 20
169.844076
 11
2880.697378
 21
169.844076
  0
LINE
  8
CSLAYER1
  6
CONTINUOUS
 62
     3
 10
2900.877516
 20
169.844076
 11
2906.983761
 21
169.844076
  0
LINE
  8
CSLAYER1
  6
CONTINUOUS
 62
     3
 10
2822.078575
 20
168.244076
 11
2894.832925
 21
168.244076
  0
LINE
  8
CSLAYER1
  6
CONTINUOUS
 62
     3
 10
2906.778815
 20
168.244076
 11
2909.012536
 21
168.244076
  0
LINE
  8
CSLAYER1
  6
CONTINUOUS
 62
     3
 10
2821.016349
 20
166.644076
 11
2902.544782
 21
166.644076
  0
LINE
  8
CSLAYER1
  6
CONTINUOUS
 62
     3
 10
2822.692016
 20
165.044076
 11
2907.354090
 21
165.044076
  0
LINE
  8
CSLAYER1
  6
CONTINUOUS
 62
     3
 10
2823.859584
 20
163.444076
 11
2882.972963
 21
163.444076
  0
LINE
  8
CSLAYER1
  6
CONTINUOUS
 62
     3
 10
2898.472728
 20
163.444076
 11
2913.477051
 21
163.444076
  0
LINE
  8
CSLAYER1
  6
CONTINUOUS
 62
     3
 10
2824.104707
 20
161.844076
 11
2859.472963
 21
161.844076
  0
LINE
  8
CSLAYER1
  6
CONTINUOUS
 62
     3
 10
2906.041656
 20
161.844076
 11
2915.564259
 21
161.844076
  0
LINE
  8
CSLAYER1
  6
CONTINUOUS
 62
     3
 10
2824.311032
 20
160.244076
 11
2837.776206
 21
160.244076
  0
LINE
  8
CSLAYER1
  6
CONTINUOUS
 62
     3
 10
2913.502005
 20
160.244076
 11
2919.987024
 21
160.244076
  0
LINE
  8
CSLAYER1
  6
CONTINUOUS
 62
     3
 10
2921.564999
 20
158.644076
 11
2923.733853
 21
158.644076
  0
ENDBLK
  8
0
  0
BLOCK
  8
CSLAYER1
  2
BLKF0001
 70
   64
 10
0.0
 20
0.0
 30
0.0
  0
CIRCLE
  8
CSLAYER1
  6
CONTINUOUS
 62
     3
 10
1690.970022
 20
1075.724405
 40
8.500000
  0
LINE
  8
CSLAYER1
  6
CONTINUOUS
 62
     3
 10
1695.877499
 20
1084.224405
 11
1686.062545
 21
1084.224405
  0
LINE
  8
CSLAYER1
  6
CONTINUOUS
 62
     3
 10
1686.062545
 20
1084.224405
 11
1681.155067
 21
1075.724405
  0
LINE
  8
CSLAYER1
  6
CONTINUOUS
 62
     3
 10
1681.155067
 20
1075.724405
 11
1686.062545
 21
1067.224405
  0
LINE
  8
CSLAYER1
  6
CONTINUOUS
 62
     3
 10
1686.062545
 20
1067.224405
 11
1695.877499
 21
1067.224405
  0
LINE
  8
CSLAYER1
  6
CONTINUOUS
 62
     3
 10
1695.877499
 20
1067.224405
 11
1700.784977
 21
1075.724405
  0
LINE
  8
CSLAYER1
  6
CONTINUOUS
 62
     3
 10
1700.784977
 20
1075.724405
 11
1695.877499
 21
1084.224405
  0
CIRCLE
  8
CSLAYER1
  6
CONTINUOUS
 62
     4
 10
1690.970022
 20
1075.724405
 40
5.000000
  0
CIRCLE
  8
CSLAYER1
  6
CONTINUOUS
 62
     3
 10
1690.970022
 20
1075.724405
 40
4.300000
  0
POINT
  8
CSLAYER1
 62
     3
 10
1690.970022
 20
1075.724405
  0
ENDBLK
  8
0
  0
BLOCK
  8
CSLAYER1
  2
BLKF0002
 70
   64
 10
0.0
 20
0.0
 30
0.0
  0
POINT
  8
CSLAYER1
 62
     3
 10
1500.417937
 20
812.447168
  0
CIRCLE
  8
CSLAYER1
  6
CONTINUOUS
 62
     3
 10
1500.417937
 20
812.447168
 40
9.500000
  0
LINE
  8
CSLAYER1
  6
CONTINUOUS
 62
     3
 10
1509.917937
 20
817.931996
 11
1500.417937
 21
823.416824
  0
LINE
  8
CSLAYER1
  6
CONTINUOUS
 62
     3
 10
1500.417937
 20
823.416824
 11
1490.917937
 21
817.931996
  0
LINE
  8
CSLAYER1
  6
CONTINUOUS
 62
     3
 10
1490.917937
 20
817.931996
 11
1490.917937
 21
806.962341
  0
LINE
  8
CSLAYER1
  6
CONTINUOUS
 62
     3
 10
1490.917937
 20
806.962341
 11
1500.417937
 21
801.477513
  0
LINE
  8
CSLAYER1
  6
CONTINUOUS
 62
     3
 10
1500.417937
 20
801.477513
 11
1509.917937
 21
806.962341
  0
LINE
  8
CSLAYER1
  6
CONTINUOUS
 62
     3
 10
1509.917937
 20
806.962341
 11
1509.917937
 21
817.931996
  0
POINT
  8
CSLAYER1
 62
     3
 10
1500.417937
 20
812.447168
  0
ENDBLK
  8
0
  0
BLOCK
  8
CSLAYER1
  2
BLKF0003
 70
   64
 10
0.0
 20
0.0
 30
0.0
  0
LINE
  8
CSLAYER1
  6
CONTINUOUS
 62
     3
 10
1519.417937
 20
800.947168
 11
1519.417937
 21
834.947168
  0
LINE
  8
CSLAYER1
  6
CONTINUOUS
 62
     3
 10
1475.417937
 20
800.947168
 11
1525.417937
 21
800.947168
  0
LINE
  8
CSLAYER1
  6
CONTINUOUS
 62
     3
 10
1525.417937
 20
794.947168
 11
1525.417937
 21
800.947168
  0
ENDBLK
  8
0
  0
BLOCK
  8
CSLAYER1
  2
BLKF0004
 70
   64
 10
0.0
 20
0.0
 30
0.0
  0
TEXT
  8
CSLAYER1
 62
     7
 10
519.793884
 20
2344.330322
 40
40.000000
 41
0.778846
  1
電動式油圧ユニット
 50
0.000000
 51
0.000000
  7
EASYDRAW_FONT
 72
     5
 11
789.793884
 21
2344.330322
  0
LINE
  8
CSLAYER1
  6
CONTINUOUS
 62
     5
 10
242.088357
 20
2407.405312
 11
1087.019864
 21
2407.405312
  0
LINE
  8
CSLAYER1
  6
CONTINUOUS
 62
     5
 10
1087.019864
 20
2407.405312
 11
1087.019864
 21
1582.541464
  0
LINE
  8
CSLAYER1
  6
CONTINUOUS
 62
     5
 10
242.088357
 20
1582.541464
 11
242.088357
 21
2407.405312
  0
TEXT
  8
CSLAYER1
 62
     3
 10
403.332430
 20
2219.159231
 40
39.957333
 41
1.050000
  1
278
 50
30.000000
 51
0.000000
  7
EASYDRAW_FONT
 72
     5
 11
500.223812
 21
2275.099497
  0
TEXT
  8
CSLAYER1
 62
     3
 10
575.186497
 20
2259.268442
 40
39.957333
 41
1.050000
  1
415
 50
-30.000000
 51
0.000000
  7
EASYDRAW_FONT
 72
     5
 11
672.077879
 21
2203.328176
  0
TEXT
  8
CSLAYER1
 62
     3
 10
327.670774
 20
2063.219646
 40
39.957333
 41
1.050000
  1
275
 50
90.000000
 51
0.000000
  7
EASYDRAW_FONT
 72
     5
 11
327.670774
 21
2175.100178
  0
LINE
  8
CSLAYER1
  6
CONTINUOUS
 62
     5
 10
340.426552
 20
2172.108151
 11
384.379619
 21
2146.731836
  0
LINE
  8
CSLAYER1
  6
CONTINUOUS
 62
     5
 10
388.375352
 20
2199.791404
 11
388.375352
 21
2149.038774
  0
LINE
  8
CSLAYER1
  6
CONTINUOUS
 62
     5
 10
692.051086
 20
2185.949777
 11
692.051086
 21
2135.197148
  0
LINE
  8
CSLAYER1
  6
CONTINUOUS
 62
     5
 10
388.375352
 20
2190.563653
 11
528.226019
 21
2271.306473
  0
LINE
  8
CSLAYER1
  6
CONTINUOUS
 62
     5
 10
388.375352
 20
2190.563653
 11
409.588556
 21
2211.776856
  0
LINE
  8
CSLAYER1
  6
CONTINUOUS
 62
     5
 10
388.375352
 20
2190.563653
 11
417.353127
 21
2198.328224
  0
LINE
  8
CSLAYER1
  6
CONTINUOUS
 62
     5
 10
528.226019
 20
2271.306473
 11
507.012816
 21
2250.093269
  0
LINE
  8
CSLAYER1
  6
CONTINUOUS
 62
     5
 10
528.226019
 20
2271.306473
 11
499.248244
 21
2263.541901
  0
LINE
  8
CSLAYER1
  6
CONTINUOUS
 62
     5
 10
528.226019
 20
2271.306473
 11
692.051086
 21
2176.722026
  0
LINE
  8
CSLAYER1
  6
CONTINUOUS
 62
     5
 10
528.226019
 20
2271.306473
 11
557.203794
 21
2263.541901
  0
LINE
  8
CSLAYER1
  6
CONTINUOUS
 62
     5
 10
528.226019
 20
2271.306473
 11
549.439222
 21
2250.093269
  0
LINE
  8
CSLAYER1
  6
CONTINUOUS
 62
     5
 10
692.051086
 20
2176.722026
 11
663.073311
 21
2184.486598
  0
LINE
  8
CSLAYER1
  6
CONTINUOUS
 62
     5
 10
692.051086
 20
2176.722026
 11
670.837882
 21
2197.935230
  0
LINE
  8
CSLAYER1
  6
CONTINUOUS
 62
     5
 10
528.226019
 20
2280.534224
 11
528.226019
 21
2229.781594
  0
LINE
  8
CSLAYER1
  6
CONTINUOUS
 62
     5
 10
348.418019
 20
2167.494276
 11
348.418019
 21
2052.147390
  0
LINE
  8
CSLAYER1
  6
CONTINUOUS
 62
     5
 10
348.418019
 20
2167.494276
 11
340.653448
 21
2138.516501
  0
LINE
  8
CSLAYER1
  6
CONTINUOUS
 62
     5
 10
348.418019
 20
2167.494276
 11
356.182590
 21
2138.516501
  0
LINE
  8
CSLAYER1
  6
CONTINUOUS
 62
     5
 10
348.418019
 20
2052.147390
 11
340.653448
 21
2081.125165
  0
LINE
  8
CSLAYER1
  6
CONTINUOUS
 62
     5
 10
348.418019
 20
2052.147390
 11
356.182590
 21
2081.125165
  0
TEXT
  8
CSLAYER1
 62
     3
 10
829.126755
 20
2149.258394
 40
39.957333
 41
1.028571
  1
高圧ホース
 50
0.000000
 51
0.000000
  7
EASYDRAW_FONT
 72
     5
 11
1020.921951
 21
2149.258394
  0
TEXT
  8
CSLAYER1
 62
     3
 10
305.947586
 20
1903.008394
 40
39.957333
 41
1.028571
  1
電源コード
 50
0.000000
 51
0.000000
  7
EASYDRAW_FONT
 72
     5
 11
497.742783
 21
1903.008394
  0
LINE
  8
CSLAYER1
  6
CONTINUOUS
 62
     5
 10
728.764386
 20
1991.558415
 11
815.099109
 21
2141.094543
  0
LINE
  8
CSLAYER1
  6
CONTINUOUS
 62
     5
 10
728.764386
 20
1991.558415
 11
736.528957
 21
2020.536190
  0
LINE
  8
CSLAYER1
  6
CONTINUOUS
 62
     5
 10
728.764386
 20
1991.558415
 11
749.977589
 21
2012.771619
  0
LINE
  8
CSLAYER1
  6
CONTINUOUS
 62
     5
 10
1035.813575
 20
2141.094543
 11
815.099109
 21
2141.094543
  0
LINE
  8
CSLAYER1
  6
CONTINUOUS
 62
     5
 10
308.485461
 20
1895.577584
 11
502.227941
 21
1895.577584
  0
LINE
  8
CSLAYER1
  6
CONTINUOUS
 62
     3
 10
552.200419
 20
1934.493566
 11
593.356472
 21
1958.255025
  0
LINE
  8
CSLAYER1
  6
CONTINUOUS
 62
     3
 10
388.375352
 20
2029.078013
 11
398.364686
 21
2023.310668
  0
LINE
  8
CSLAYER1
  6
CONTINUOUS
 62
     3
 10
552.200419
 20
2049.840452
 11
552.200419
 21
1934.493566
  0
LINE
  8
CSLAYER1
  6
CONTINUOUS
 62
     3
 10
552.200419
 20
2049.840452
 11
692.051086
 21
2130.583272
  0
LINE
  8
CSLAYER1
  6
CONTINUOUS
 62
     3
 10
528.226019
 20
2225.167719
 11
692.051086
 21
2130.583272
  0
LINE
  8
CSLAYER1
  6
CONTINUOUS
 62
     3
 10
552.200419
 20
1957.562944
 11
573.377806
 21
1969.789713
  0
LINE
  8
CSLAYER1
  6
CONTINUOUS
 62
     3
 10
650.462671
 20
2062.316846
 11
692.051086
 21
2038.305764
  0
LINE
  8
CSLAYER1
  6
CONTINUOUS
 62
     3
 10
542.211086
 20
1940.260911
 11
552.200419
 21
1934.493566
  0
LINE
  8
CSLAYER1
  6
CONTINUOUS
 62
     3
 10
648.098019
 20
2064.143466
 11
646.653300
 21
2064.837117
  0
LINE
  8
CSLAYER1
  6
CONTINUOUS
 62
     3
 10
646.653300
 20
2064.837117
 11
645.097936
 21
2065.314803
  0
LINE
  8
CSLAYER1
  6
CONTINUOUS
 62
     3
 10
645.097936
 20
2065.314803
 11
643.443766
 21
2065.572889
  0
LINE
  8
CSLAYER1
  6
CONTINUOUS
 62
     3
 10
643.443766
 20
2065.572889
 11
641.703377
 21
2065.609409
  0
LINE
  8
CSLAYER1
  6
CONTINUOUS
 62
     3
 10
641.703377
 20
2065.609409
 11
639.890015
 21
2065.424086
  0
LINE
  8
CSLAYER1
  6
CONTINUOUS
 62
     3
 10
639.890015
 20
2065.424086
 11
638.017481
 21
2065.018330
  0
LINE
  8
CSLAYER1
  6
CONTINUOUS
 62
     3
 10
638.017481
 20
2065.018330
 11
636.100027
 21
2064.395230
  0
LINE
  8
CSLAYER1
  6
CONTINUOUS
 62
     3
 10
636.100027
 20
2064.395230
 11
634.152245
 21
2063.559528
  0
LINE
  8
CSLAYER1
  6
CONTINUOUS
 62
     3
 10
634.152245
 20
2063.559528
 11
632.188958
 21
2062.517584
  0
LINE
  8
CSLAYER1
  6
CONTINUOUS
 62
     3
 10
632.188958
 20
2062.517584
 11
630.225110
 21
2061.277327
  0
LINE
  8
CSLAYER1
  6
CONTINUOUS
 62
     3
 10
630.225110
 20
2061.277327
 11
628.275646
 21
2059.848197
  0
LINE
  8
CSLAYER1
  6
CONTINUOUS
 62
     3
 10
628.275646
 20
2059.848197
 11
626.355401
 21
2058.241070
  0
LINE
  8
CSLAYER1
  6
CONTINUOUS
 62
     3
 10
626.355401
 20
2058.241070
 11
624.478992
 21
2056.468178
  0
LINE
  8
CSLAYER1
  6
CONTINUOUS
 62
     3
 10
624.478992
 20
2056.468178
 11
622.660698
 21
2054.543013
  0
LINE
  8
CSLAYER1
  6
CONTINUOUS
 62
     3
 10
622.660698
 20
2054.543013
 11
620.914357
 21
2052.480228
  0
LINE
  8
CSLAYER1
  6
CONTINUOUS
 62
     3
 10
620.914357
 20
2052.480228
 11
619.253261
 21
2050.295520
  0
LINE
  8
CSLAYER1
  6
CONTINUOUS
 62
     3
 10
619.253261
 20
2050.295520
 11
617.690051
 21
2048.005517
  0
LINE
  8
CSLAYER1
  6
CONTINUOUS
 62
     3
 10
617.690051
 20
2048.005517
 11
616.236624
 21
2045.627647
  0
LINE
  8
CSLAYER1
  6
CONTINUOUS
 62
     3
 10
616.236624
 20
2045.627647
 11
614.904042
 21
2043.180008
  0
LINE
  8
CSLAYER1
  6
CONTINUOUS
 62
     3
 10
614.904042
 20
2043.180008
 11
613.702447
 21
2040.681227
  0
LINE
  8
CSLAYER1
  6
CONTINUOUS
 62
     3
 10
613.702447
 20
2040.681227
 11
612.640982
 21
2038.150322
  0
LINE
  8
CSLAYER1
  6
CONTINUOUS
 62
     3
 10
612.640982
 20
2038.150322
 11
611.727728
 21
2035.606553
  0
LINE
  8
CSLAYER1
  6
CONTINUOUS
 62
     3
 10
611.727728
 20
2035.606553
 11
610.969633
 21
2033.069282
  0
LINE
  8
CSLAYER1
  6
CONTINUOUS
 62
     3
 10
610.969633
 20
2033.069282
 11
610.372468
 21
2030.557818
  0
LINE
  8
CSLAYER1
  6
CONTINUOUS
 62
     3
 10
610.372468
 20
2030.557818
 11
609.940778
 21
2028.091274
  0
LINE
  8
CSLAYER1
  6
CONTINUOUS
 62
     3
 10
609.940778
 20
2028.091274
 11
609.677847
 21
2025.688423
  0
LINE
  8
CSLAYER1
  6
CONTINUOUS
 62
     3
 10
609.677847
 20
2025.688423
 11
609.585677
 21
2023.367552
  0
LINE
  8
CSLAYER1
  6
CONTINUOUS
 62
     3
 10
609.585677
 20
2023.367552
 11
609.664970
 21
2021.146325
  0
LINE
  8
CSLAYER1
  6
CONTINUOUS
 62
     3
 10
609.664970
 20
2021.146325
 11
609.915122
 21
2019.041645
  0
LINE
  8
CSLAYER1
  6
CONTINUOUS
 62
     3
 10
609.915122
 20
2019.041645
 11
610.334229
 21
2017.069530
  0
LINE
  8
CSLAYER1
  6
CONTINUOUS
 62
     3
 10
610.334229
 20
2017.069530
 11
610.919101
 21
2015.244991
  0
LINE
  8
CSLAYER1
  6
CONTINUOUS
 62
     3
 10
610.919101
 20
2015.244991
 11
611.665288
 21
2013.581912
  0
LINE
  8
CSLAYER1
  6
CONTINUOUS
 62
     3
 10
611.665288
 20
2013.581912
 11
612.567109
 21
2012.092951
  0
LINE
  8
CSLAYER1
  6
CONTINUOUS
 62
     3
 10
612.567109
 20
2012.092951
 11
613.617703
 21
2010.789440
  0
LINE
  8
CSLAYER1
  6
CONTINUOUS
 62
     3
 10
614.809073
 20
2009.681298
 11
616.132152
 21
2008.776961
  0
LINE
  8
CSLAYER1
  6
CONTINUOUS
 62
     3
 10
616.132152
 20
2008.776961
 11
617.576871
 21
2008.083309
  0
LINE
  8
CSLAYER1
  6
CONTINUOUS
 62
     3
 10
617.576871
 20
2008.083309
 11
619.132235
 21
2007.605623
  0
LINE
  8
CSLAYER1
  6
CONTINUOUS
 62
     3
 10
619.132235
 20
2007.605623
 11
620.786406
 21
2007.347538
  0
LINE
  8
CSLAYER1
  6
CONTINUOUS
 62
     3
 10
620.786406
 20
2007.347538
 11
622.526795
 21
2007.311018
  0
LINE
  8
CSLAYER1
  6
CONTINUOUS
 62
     3
 10
622.526795
 20
2007.311018
 11
624.340156
 21
2007.496341
  0
LINE
  8
CSLAYER1
  6
CONTINUOUS
 62
     3
 10
624.340156
 20
2007.496341
 11
626.212690
 21
2007.902096
  0
LINE
  8
CSLAYER1
  6
CONTINUOUS
 62
     3
 10
626.212690
 20
2007.902096
 11
628.130144
 21
2008.525196
  0
LINE
  8
CSLAYER1
  6
CONTINUOUS
 62
     3
 10
628.130144
 20
2008.525196
 11
630.077927
 21
2009.360899
  0
LINE
  8
CSLAYER1
  6
CONTINUOUS
 62
     3
 10
630.077927
 20
2009.360899
 11
632.041213
 21
2010.402843
  0
LINE
  8
CSLAYER1
  6
CONTINUOUS
 62
     3
 10
632.041213
 20
2010.402843
 11
634.005061
 21
2011.643100
  0
LINE
  8
CSLAYER1
  6
CONTINUOUS
 62
     3
 10
634.005061
 20
2011.643100
 11
635.954526
 21
2013.072230
  0
LINE
  8
CSLAYER1
  6
CONTINUOUS
 62
     3
 10
635.954526
 20
2013.072230
 11
637.874770
 21
2014.679356
  0
LINE
  8
CSLAYER1
  6
CONTINUOUS
 62
     3
 10
637.874770
 20
2014.679356
 11
639.751179
 21
2016.452249
  0
LINE
  8
CSLAYER1
  6
CONTINUOUS
 62
     3
 10
639.751179
 20
2016.452249
 11
641.569473
 21
2018.377413
  0
LINE
  8
CSLAYER1
  6
CONTINUOUS
 62
     3
 10
641.569473
 20
2018.377413
 11
643.315814
 21
2020.440199
  0
LINE
  8
CSLAYER1
  6
CONTINUOUS
 62
     3
 10
643.315814
 20
2020.440199
 11
644.976910
 21
2022.624907
  0
LINE
  8
CSLAYER1
  6
CONTINUOUS
 62
     3
 10
644.976910
 20
2022.624907
 11
646.540120
 21
2024.914910
  0
LINE
  8
CSLAYER1
  6
CONTINUOUS
 62
     3
 10
646.540120
 20
2024.914910
 11
647.993547
 21
2027.292779
  0
LINE
  8
CSLAYER1
  6
CONTINUOUS
 62
     3
 10
647.993547
 20
2027.292779
 11
649.326129
 21
2029.740419
  0
LINE
  8
CSLAYER1
  6
CONTINUOUS
 62
     3
 10
649.326129
 20
2029.740419
 11
650.527725
 21
2032.239200
  0
LINE
  8
CSLAYER1
  6
CONTINUOUS
 62
     3
 10
650.527725
 20
2032.239200
 11
651.589189
 21
2034.770105
  0
LINE
  8
CSLAYER1
  6
CONTINUOUS
 62
     3
 10
651.589189
 20
2034.770105
 11
652.502444
 21
2037.313873
  0
LINE
  8
CSLAYER1
  6
CONTINUOUS
 62
     3
 10
652.502444
 20
2037.313873
 11
653.260538
 21
2039.851145
  0
LINE
  8
CSLAYER1
  6
CONTINUOUS
 62
     3
 10
653.260538
 20
2039.851145
 11
653.857703
 21
2042.362609
  0
LINE
  8
CSLAYER1
  6
CONTINUOUS
 62
     3
 10
653.857703
 20
2042.362609
 11
654.289394
 21
2044.829152
  0
LINE
  8
CSLAYER1
  6
CONTINUOUS
 62
     3
 10
654.289394
 20
2044.829152
 11
654.552324
 21
2047.232003
  0
LINE
  8
CSLAYER1
  6
CONTINUOUS
 62
     3
 10
654.552324
 20
2047.232003
 11
654.644494
 21
2049.552874
  0
LINE
  8
CSLAYER1
  6
CONTINUOUS
 62
     3
 10
654.644494
 20
2049.552874
 11
654.565201
 21
2051.774102
  0
LINE
  8
CSLAYER1
  6
CONTINUOUS
 62
     3
 10
654.565201
 20
2051.774102
 11
654.315049
 21
2053.878782
  0
LINE
  8
CSLAYER1
  6
CONTINUOUS
 62
     3
 10
654.315049
 20
2053.878782
 11
653.895943
 21
2055.850896
  0
LINE
  8
CSLAYER1
  6
CONTINUOUS
 62
     3
 10
653.895943
 20
2055.850896
 11
653.311070
 21
2057.675436
  0
LINE
  8
CSLAYER1
  6
CONTINUOUS
 62
     3
 10
653.311070
 20
2057.675436
 11
652.564884
 21
2059.338514
  0
LINE
  8
CSLAYER1
  6
CONTINUOUS
 62
     3
 10
652.564884
 20
2059.338514
 11
651.663062
 21
2060.827476
  0
LINE
  8
CSLAYER1
  6
CONTINUOUS
 62
     3
 10
651.663062
 20
2060.827476
 11
650.612468
 21
2062.130987
  0
LINE
  8
CSLAYER1
  6
CONTINUOUS
 62
     3
 10
650.612468
 20
2062.130987
 11
649.421098
 21
2063.239128
  0
LINE
  8
CSLAYER1
  6
CONTINUOUS
 62
     3
 10
649.421098
 20
2063.239128
 11
648.098019
 21
2064.143466
  0
LINE
  8
CSLAYER1
  6
CONTINUOUS
 62
     3
 10
552.200419
 20
2045.687964
 11
616.132152
 21
2008.776961
  0
LINE
  8
CSLAYER1
  6
CONTINUOUS
 62
     3
 10
612.535992
 20
2084.675212
 11
648.098019
 21
2064.143466
  0
LINE
  8
CSLAYER1
  6
CONTINUOUS
 62
     3
 10
398.364686
 20
2023.310668
 11
418.343352
 21
2034.845357
  0
LINE
  8
CSLAYER1
  6
CONTINUOUS
 62
     3
 10
388.375352
 20
2029.078013
 11
408.354019
 21
2040.612701
  0
LINE
  8
CSLAYER1
  6
CONTINUOUS
 62
     3
 10
638.108686
 20
2046.841433
 11
637.566916
 21
2047.101552
  0
LINE
  8
CSLAYER1
  6
CONTINUOUS
 62
     3
 10
637.566916
 20
2047.101552
 11
636.983655
 21
2047.280685
  0
LINE
  8
CSLAYER1
  6
CONTINUOUS
 62
     3
 10
636.983655
 20
2047.280685
 11
636.363341
 21
2047.377467
  0
LINE
  8
CSLAYER1
  6
CONTINUOUS
 62
     3
 10
636.363341
 20
2047.377467
 11
635.710695
 21
2047.391162
  0
LINE
  8
CSLAYER1
  6
CONTINUOUS
 62
     3
 10
635.710695
 20
2047.391162
 11
635.030684
 21
2047.321666
  0
LINE
  8
CSLAYER1
  6
CONTINUOUS
 62
     3
 10
635.030684
 20
2047.321666
 11
634.328484
 21
2047.169507
  0
LINE
  8
CSLAYER1
  6
CONTINUOUS
 62
     3
 10
634.328484
 20
2047.169507
 11
633.609439
 21
2046.935845
  0
LINE
  8
CSLAYER1
  6
CONTINUOUS
 62
     3
 10
633.609439
 20
2046.935845
 11
632.879020
 21
2046.622456
  0
LINE
  8
CSLAYER1
  6
CONTINUOUS
 62
     3
 10
632.879020
 20
2046.622456
 11
632.142788
 21
2046.231727
  0
LINE
  8
CSLAYER1
  6
CONTINUOUS
 62
     3
 10
632.142788
 20
2046.231727
 11
631.406345
 21
2045.766631
  0
LINE
  8
CSLAYER1
  6
CONTINUOUS
 62
     3
 10
631.406345
 20
2045.766631
 11
630.675296
 21
2045.230707
  0
LINE
  8
CSLAYER1
  6
CONTINUOUS
 62
     3
 10
630.675296
 20
2045.230707
 11
629.955204
 21
2044.628035
  0
LINE
  8
CSLAYER1
  6
CONTINUOUS
 62
     3
 10
629.955204
 20
2044.628035
 11
629.251551
 21
2043.963200
  0
LINE
  8
CSLAYER1
  6
CONTINUOUS
 62
     3
 10
629.251551
 20
2043.963200
 11
628.569690
 21
2043.241263
  0
LINE
  8
CSLAYER1
  6
CONTINUOUS
 62
     3
 10
628.569690
 20
2043.241263
 11
627.914813
 21
2042.467719
  0
LINE
  8
CSLAYER1
  6
CONTINUOUS
 62
     3
 10
627.914813
 20
2042.467719
 11
627.291901
 21
2041.648453
  0
LINE
  8
CSLAYER1
  6
CONTINUOUS
 62
     3
 10
627.291901
 20
2041.648453
 11
626.705698
 21
2040.789702
  0
LINE
  8
CSLAYER1
  6
CONTINUOUS
 62
     3
 10
626.705698
 20
2040.789702
 11
626.160663
 21
2039.898001
  0
LINE
  8
CSLAYER1
  6
CONTINUOUS
 62
     3
 10
626.160663
 20
2039.898001
 11
625.660944
 21
2038.980136
  0
LINE
  8
CSLAYER1
  6
CONTINUOUS
 62
     3
 10
625.660944
 20
2038.980136
 11
625.210346
 21
2038.043094
  0
LINE
  8
CSLAYER1
  6
CONTINUOUS
 62
     3
 10
625.210346
 20
2038.043094
 11
624.812297
 21
2037.094004
  0
LINE
  8
CSLAYER1
  6
CONTINUOUS
 62
     3
 10
624.812297
 20
2037.094004
 11
624.469826
 21
2036.140091
  0
LINE
  8
CSLAYER1
  6
CONTINUOUS
 62
     3
 10
624.469826
 20
2036.140091
 11
624.185541
 21
2035.188614
  0
LINE
  8
CSLAYER1
  6
CONTINUOUS
 62
     3
 10
624.185541
 20
2035.188614
 11
623.961604
 21
2034.246815
  0
LINE
  8
CSLAYER1
  6
CONTINUOUS
 62
     3
 10
623.961604
 20
2034.246815
 11
623.799720
 21
2033.321861
  0
LINE
  8
CSLAYER1
  6
CONTINUOUS
 62
     3
 10
623.799720
 20
2033.321861
 11
623.701121
 21
2032.420792
  0
LINE
  8
CSLAYER1
  6
CONTINUOUS
 62
     3
 10
623.701121
 20
2032.420792
 11
623.666558
 21
2031.550466
  0
LINE
  8
CSLAYER1
  6
CONTINUOUS
 62
     3
 10
623.666558
 20
2031.550466
 11
623.696292
 21
2030.717505
  0
LINE
  8
CSLAYER1
  6
CONTINUOUS
 62
     3
 10
623.696292
 20
2030.717505
 11
623.790099
 21
2029.928250
  0
LINE
  8
CSLAYER1
  6
CONTINUOUS
 62
     3
 10
623.790099
 20
2029.928250
 11
623.947264
 21
2029.188707
  0
LINE
  8
CSLAYER1
  6
CONTINUOUS
 62
     3
 10
623.947264
 20
2029.188707
 11
624.166591
 21
2028.504505
  0
LINE
  8
CSLAYER1
  6
CONTINUOUS
 62
     3
 10
624.166591
 20
2028.504505
 11
624.446411
 21
2027.880850
  0
LINE
  8
CSLAYER1
  6
CONTINUOUS
 62
     3
 10
624.446411
 20
2027.880850
 11
624.784595
 21
2027.322490
  0
LINE
  8
CSLAYER1
  6
CONTINUOUS
 62
     3
 10
624.784595
 20
2027.322490
 11
625.178567
 21
2026.833673
  0
LINE
  8
CSLAYER1
  6
CONTINUOUS
 62
     3
 10
625.178567
 20
2026.833673
 11
625.625331
 21
2026.418120
  0
LINE
  8
CSLAYER1
  6
CONTINUOUS
 62
     3
 10
625.625331
 20
2026.418120
 11
626.121486
 21
2026.078994
  0
LINE
  8
CSLAYER1
  6
CONTINUOUS
 62
     3
 10
626.121486
 20
2026.078994
 11
626.663255
 21
2025.818874
  0
LINE
  8
CSLAYER1
  6
CONTINUOUS
 62
     3
 10
626.663255
 20
2025.818874
 11
627.246517
 21
2025.639742
  0
LINE
  8
CSLAYER1
  6
CONTINUOUS
 62
     3
 10
627.246517
 20
2025.639742
 11
627.866831
 21
2025.542960
  0
LINE
  8
CSLAYER1
  6
CONTINUOUS
 62
     3
 10
627.866831
 20
2025.542960
 11
628.519477
 21
2025.529265
  0
LINE
  8
CSLAYER1
  6
CONTINUOUS
 62
     3
 10
628.519477
 20
2025.529265
 11
629.199487
 21
2025.598761
  0
LINE
  8
CSLAYER1
  6
CONTINUOUS
 62
     3
 10
629.199487
 20
2025.598761
 11
629.901687
 21
2025.750920
  0
LINE
  8
CSLAYER1
  6
CONTINUOUS
 62
     3
 10
629.901687
 20
2025.750920
 11
630.620733
 21
2025.984582
  0
LINE
  8
CSLAYER1
  6
CONTINUOUS
 62
     3
 10
630.620733
 20
2025.984582
 11
631.351151
 21
2026.297970
  0
LINE
  8
CSLAYER1
  6
CONTINUOUS
 62
     3
 10
631.351151
 20
2026.297970
 11
632.087383
 21
2026.688700
  0
LINE
  8
CSLAYER1
  6
CONTINUOUS
 62
     3
 10
632.087383
 20
2026.688700
 11
632.823826
 21
2027.153796
  0
LINE
  8
CSLAYER1
  6
CONTINUOUS
 62
     3
 10
632.823826
 20
2027.153796
 11
633.554876
 21
2027.689720
  0
LINE
  8
CSLAYER1
  6
CONTINUOUS
 62
     3
 10
633.554876
 20
2027.689720
 11
634.274967
 21
2028.292392
  0
LINE
  8
CSLAYER1
  6
CONTINUOUS
 62
     3
 10
634.274967
 20
2028.292392
 11
634.978621
 21
2028.957227
  0
LINE
  8
CSLAYER1
  6
CONTINUOUS
 62
     3
 10
634.978621
 20
2028.957227
 11
635.660481
 21
2029.679163
  0
LINE
  8
CSLAYER1
  6
CONTINUOUS
 62
     3
 10
635.660481
 20
2029.679163
 11
636.315359
 21
2030.452708
  0
LINE
  8
CSLAYER1
  6
CONTINUOUS
 62
     3
 10
636.315359
 20
2030.452708
 11
636.938270
 21
2031.271973
  0
LINE
  8
CSLAYER1
  6
CONTINUOUS
 62
     3
 10
636.938270
 20
2031.271973
 11
637.524474
 21
2032.130725
  0
LINE
  8
CSLAYER1
  6
CONTINUOUS
 62
     3
 10
637.524474
 20
2032.130725
 11
638.069509
 21
2033.022426
  0
LINE
  8
CSLAYER1
  6
CONTINUOUS
 62
     3
 10
638.069509
 20
2033.022426
 11
638.569227
 21
2033.940290
  0
LINE
  8
CSLAYER1
  6
CONTINUOUS
 62
     3
 10
638.569227
 20
2033.940290
 11
639.019825
 21
2034.877333
  0
LINE
  8
CSLAYER1
  6
CONTINUOUS
 62
     3
 10
639.019825
 20
2034.877333
 11
639.417874
 21
2035.826423
  0
LINE
  8
CSLAYER1
  6
CONTINUOUS
 62
     3
 10
639.417874
 20
2035.826423
 11
639.760345
 21
2036.780336
  0
LINE
  8
CSLAYER1
  6
CONTINUOUS
 62
     3
 10
639.760345
 20
2036.780336
 11
640.044630
 21
2037.731813
  0
LINE
  8
CSLAYER1
  6
CONTINUOUS
 62
     3
 10
640.044630
 20
2037.731813
 11
640.268567
 21
2038.673612
  0
LINE
  8
CSLAYER1
  6
CONTINUOUS
 62
     3
 10
640.268567
 20
2038.673612
 11
640.430451
 21
2039.598566
  0
LINE
  8
CSLAYER1
  6
CONTINUOUS
 62
     3
 10
640.430451
 20
2039.598566
 11
640.529050
 21
2040.499635
  0
LINE
  8
CSLAYER1
  6
CONTINUOUS
 62
     3
 10
640.529050
 20
2040.499635
 11
640.563614
 21
2041.369961
  0
LINE
  8
CSLAYER1
  6
CONTINUOUS
 62
     3
 10
640.563614
 20
2041.369961
 11
640.533879
 21
2042.202922
  0
LINE
  8
CSLAYER1
  6
CONTINUOUS
 62
     3
 10
640.533879
 20
2042.202922
 11
640.440072
 21
2042.992177
  0
LINE
  8
CSLAYER1
  6
CONTINUOUS
 62
     3
 10
640.440072
 20
2042.992177
 11
640.282907
 21
2043.731720
  0
LINE
  8
CSLAYER1
  6
CONTINUOUS
 62
     3
 10
640.282907
 20
2043.731720
 11
640.063580
 21
2044.415922
  0
LINE
  8
CSLAYER1
  6
CONTINUOUS
 62
     3
 10
640.063580
 20
2044.415922
 11
639.783760
 21
2045.039576
  0
LINE
  8
CSLAYER1
  6
CONTINUOUS
 62
     3
 10
639.783760
 20
2045.039576
 11
639.445577
 21
2045.597937
  0
LINE
  8
CSLAYER1
  6
CONTINUOUS
 62
     3
 10
639.445577
 20
2045.597937
 11
639.051604
 21
2046.086753
  0
LINE
  8
CSLAYER1
  6
CONTINUOUS
 62
     3
 10
639.051604
 20
2046.086753
 11
638.604840
 21
2046.502306
  0
LINE
  8
CSLAYER1
  6
CONTINUOUS
 62
     3
 10
638.604840
 20
2046.502306
 11
638.108686
 21
2046.841433
  0
LINE
  8
CSLAYER1
  6
CONTINUOUS
 62
     3
 10
626.121486
 20
2092.518800
 11
692.051086
 21
2054.454328
  0
LINE
  8
CSLAYER1
  6
CONTINUOUS
 62
     3
 10
542.211086
 20
1940.260911
 11
552.200419
 21
1946.028255
  0
LINE
  8
CSLAYER1
  6
CONTINUOUS
 62
     3
 10
649.331393
 20
2029.750087
 11
950.445009
 21
1855.902059
  0
LINE
  8
CSLAYER1
  6
CONTINUOUS
 62
     3
 10
552.200419
 20
1987.553134
 11
727.179593
 21
1886.528860
  0
LINE
  8
CSLAYER1
  6
CONTINUOUS
 62
     3
 10
552.200419
 20
1982.016483
 11
700.988684
 21
1896.113538
  0
LINE
  8
CSLAYER1
  6
CONTINUOUS
 62
     3
 10
578.172686
 20
1972.558039
 11
658.281806
 21
2018.809061
  0
LINE
  8
CSLAYER1
  6
CONTINUOUS
 62
     3
 10
598.151352
 20
1961.023350
 11
678.260472
 21
2007.274372
  0
LINE
  8
CSLAYER1
  6
CONTINUOUS
 62
     3
 10
663.281806
 20
2021.695812
 11
692.051086
 21
2038.305764
  0
LINE
  8
CSLAYER1
  6
CONTINUOUS
 62
     3
 10
683.260472
 20
2010.161123
 11
692.051086
 21
2015.236386
  0
LINE
  8
CSLAYER1
  6
CONTINUOUS
 62
     3
 10
742.363380
 20
1856.077282
 11
742.104896
 21
1859.473009
  0
LINE
  8
CSLAYER1
  6
CONTINUOUS
 62
     3
 10
742.104896
 20
1859.473009
 11
741.331409
 21
1862.842892
  0
LINE
  8
CSLAYER1
  6
CONTINUOUS
 62
     3
 10
741.331409
 20
1862.842892
 11
740.048808
 21
1866.161285
  0
LINE
  8
CSLAYER1
  6
CONTINUOUS
 62
     3
 10
740.048808
 20
1866.161285
 11
738.266853
 21
1869.402933
  0
LINE
  8
CSLAYER1
  6
CONTINUOUS
 62
     3
 10
738.266853
 20
1869.402933
 11
735.999105
 21
1872.543164
  0
LINE
  8
CSLAYER1
  6
CONTINUOUS
 62
     3
 10
735.999105
 20
1872.543164
 11
733.262825
 21
1875.558080
  0
LINE
  8
CSLAYER1
  6
CONTINUOUS
 62
     3
 10
733.262825
 20
1875.558080
 11
730.078837
 21
1878.424735
  0
LINE
  8
CSLAYER1
  6
CONTINUOUS
 62
     3
 10
730.078837
 20
1878.424735
 11
726.471372
 21
1881.121313
  0
LINE
  8
CSLAYER1
  6
CONTINUOUS
 62
     3
 10
726.471372
 20
1881.121313
 11
722.467886
 21
1883.627290
  0
LINE
  8
CSLAYER1
  6
CONTINUOUS
 62
     3
 10
722.467886
 20
1883.627290
 11
718.098847
 21
1885.923595
  0
LINE
  8
CSLAYER1
  6
CONTINUOUS
 62
     3
 10
718.098847
 20
1885.923595
 11
713.397508
 21
1887.992752
  0
LINE
  8
CSLAYER1
  6
CONTINUOUS
 62
     3
 10
713.397508
 20
1887.992752
 11
708.399647
 21
1889.819013
  0
LINE
  8
CSLAYER1
  6
CONTINUOUS
 62
     3
 10
708.399647
 20
1889.819013
 11
703.143301
 21
1891.388479
  0
LINE
  8
CSLAYER1
  6
CONTINUOUS
 62
     3
 10
703.143301
 20
1891.388479
 11
697.668475
 21
1892.689205
  0
LINE
  8
CSLAYER1
  6
CONTINUOUS
 62
     3
 10
697.668475
 20
1892.689205
 11
692.016836
 21
1893.711293
  0
LINE
  8
CSLAYER1
  6
CONTINUOUS
 62
     3
 10
692.016836
 20
1893.711293
 11
686.231394
 21
1894.446963
  0
LINE
  8
CSLAYER1
  6
CONTINUOUS
 62
     3
 10
686.231394
 20
1894.446963
 11
680.356182
 21
1894.890616
  0
LINE
  8
CSLAYER1
  6
CONTINUOUS
 62
     3
 10
680.356182
 20
1894.890616
 11
674.435913
 21
1895.038877
  0
LINE
  8
CSLAYER1
  6
CONTINUOUS
 62
     3
 10
674.435913
 20
1895.038877
 11
668.515645
 21
1894.890616
  0
LINE
  8
CSLAYER1
  6
CONTINUOUS
 62
     3
 10
668.515645
 20
1894.890616
 11
662.640433
 21
1894.446963
  0
LINE
  8
CSLAYER1
  6
CONTINUOUS
 62
     3
 10
662.640433
 20
1894.446963
 11
656.854991
 21
1893.711293
  0
LINE
  8
CSLAYER1
  6
CONTINUOUS
 62
     3
 10
656.854991
 20
1893.711293
 11
651.203352
 21
1892.689205
  0
LINE
  8
CSLAYER1
  6
CONTINUOUS
 62
     3
 10
651.203352
 20
1892.689205
 11
645.728526
 21
1891.388479
  0
LINE
  8
CSLAYER1
  6
CONTINUOUS
 62
     3
 10
645.728526
 20
1891.388479
 11
640.472180
 21
1889.819013
  0
LINE
  8
CSLAYER1
  6
CONTINUOUS
 62
     3
 10
640.472180
 20
1889.819013
 11
635.474319
 21
1887.992752
  0
LINE
  8
CSLAYER1
  6
CONTINUOUS
 62
     3
 10
635.474319
 20
1887.992752
 11
630.772980
 21
1885.923595
  0
LINE
  8
CSLAYER1
  6
CONTINUOUS
 62
     3
 10
630.772980
 20
1885.923595
 11
626.403941
 21
1883.627290
  0
LINE
  8
CSLAYER1
  6
CONTINUOUS
 62
     3
 10
626.403941
 20
1883.627290
 11
622.400455
 21
1881.121313
  0
LINE
  8
CSLAYER1
  6
CONTINUOUS
 62
     3
 10
622.400455
 20
1881.121313
 11
618.792990
 21
1878.424735
  0
LINE
  8
CSLAYER1
  6
CONTINUOUS
 62
     3
 10
618.792990
 20
1878.424735
 11
615.609002
 21
1875.558080
  0
LINE
  8
CSLAYER1
  6
CONTINUOUS
 62
     3
 10
615.609002
 20
1875.558080
 11
612.872721
 21
1872.543164
  0
LINE
  8
CSLAYER1
  6
CONTINUOUS
 62
     3
 10
612.872721
 20
1872.543164
 11
610.604974
 21
1869.402933
  0
LINE
  8
CSLAYER1
  6
CONTINUOUS
 62
     3
 10
610.604974
 20
1869.402933
 11
608.823019
 21
1866.161285
  0
LINE
  8
CSLAYER1
  6
CONTINUOUS
 62
     3
 10
608.823019
 20
1866.161285
 11
607.540418
 21
1862.842892
  0
LINE
  8
CSLAYER1
  6
CONTINUOUS
 62
     3
 10
607.540418
 20
1862.842892
 11
606.766931
 21
1859.473009
  0
LINE
  8
CSLAYER1
  6
CONTINUOUS
 62
     3
 10
606.766931
 20
1859.473009
 11
606.508447
 21
1856.077282
  0
LINE
  8
CSLAYER1
  6
CONTINUOUS
 62
     3
 10
606.508447
 20
1856.077282
 11
606.766931
 21
1852.681556
  0
LINE
  8
CSLAYER1
  6
CONTINUOUS
 62
     3
 10
606.766931
 20
1852.681556
 11
607.540418
 21
1849.311673
  0
LINE
  8
CSLAYER1
  6
CONTINUOUS
 62
     3
 10
607.540418
 20
1849.311673
 11
608.823019
 21
1845.993280
  0
LINE
  8
CSLAYER1
  6
CONTINUOUS
 62
     3
 10
608.823019
 20
1845.993280
 11
610.604974
 21
1842.751632
  0
LINE
  8
CSLAYER1
  6
CONTINUOUS
 62
     3
 10
610.604974
 20
1842.751632
 11
612.872721
 21
1839.611401
  0
LINE
  8
CSLAYER1
  6
CONTINUOUS
 62
     3
 10
612.872721
 20
1839.611401
 11
615.609002
 21
1836.596485
  0
LINE
  8
CSLAYER1
  6
CONTINUOUS
 62
     3
 10
615.609002
 20
1836.596485
 11
618.792990
 21
1833.729830
  0
LINE
  8
CSLAYER1
  6
CONTINUOUS
 62
     3
 10
618.792990
 20
1833.729830
 11
622.400455
 21
1831.033252
  0
LINE
  8
CSLAYER1
  6
CONTINUOUS
 62
     3
 10
622.400455
 20
1831.033252
 11
626.403941
 21
1828.527275
  0
LINE
  8
CSLAYER1
  6
CONTINUOUS
 62
     3
 10
626.403941
 20
1828.527275
 11
630.772980
 21
1826.230970
  0
LINE
  8
CSLAYER1
  6
CONTINUOUS
 62
     3
 10
630.772980
 20
1826.230970
 11
635.474319
 21
1824.161813
  0
LINE
  8
CSLAYER1
  6
CONTINUOUS
 62
     3
 10
635.474319
 20
1824.161813
 11
640.472180
 21
1822.335552
  0
LINE
  8
CSLAYER1
  6
CONTINUOUS
 62
     3
 10
640.472180
 20
1822.335552
 11
645.728526
 21
1820.766086
  0
LINE
  8
CSLAYER1
  6
CONTINUOUS
 62
     3
 10
645.728526
 20
1820.766086
 11
651.203352
 21
1819.465360
  0
LINE
  8
CSLAYER1
  6
CONTINUOUS
 62
     3
 10
651.203352
 20
1819.465360
 11
656.854991
 21
1818.443272
  0
LINE
  8
CSLAYER1
  6
CONTINUOUS
 62
     3
 10
656.854991
 20
1818.443272
 11
662.640433
 21
1817.707602
  0
LINE
  8
CSLAYER1
  6
CONTINUOUS
 62
     3
 10
662.640433
 20
1817.707602
 11
668.515645
 21
1817.263949
  0
LINE
  8
CSLAYER1
  6
CONTINUOUS
 62
     3
 10
668.515645
 20
1817.263949
 11
674.435913
 21
1817.115688
  0
LINE
  8
CSLAYER1
  6
CONTINUOUS
 62
     3
 10
674.435913
 20
1817.115688
 11
680.356182
 21
1817.263949
  0
LINE
  8
CSLAYER1
  6
CONTINUOUS
 62
     3
 10
680.356182
 20
1817.263949
 11
686.231394
 21
1817.707602
  0
LINE
  8
CSLAYER1
  6
CONTINUOUS
 62
     3
 10
686.231394
 20
1817.707602
 11
692.016836
 21
1818.443272
  0
LINE
  8
CSLAYER1
  6
CONTINUOUS
 62
     3
 10
692.016836
 20
1818.443272
 11
697.668475
 21
1819.465360
  0
LINE
  8
CSLAYER1
  6
CONTINUOUS
 62
     3
 10
697.668475
 20
1819.465360
 11
703.143301
 21
1820.766086
  0
LINE
  8
CSLAYER1
  6
CONTINUOUS
 62
     3
 10
703.143301
 20
1820.766086
 11
708.399647
 21
1822.335552
  0
LINE
  8
CSLAYER1
  6
CONTINUOUS
 62
     3
 10
708.399647
 20
1822.335552
 11
713.397508
 21
1824.161813
  0
LINE
  8
CSLAYER1
  6
CONTINUOUS
 62
     3
 10
713.397508
 20
1824.161813
 11
718.098847
 21
1826.230970
  0
LINE
  8
CSLAYER1
  6
CONTINUOUS
 62
     3
 10
718.098847
 20
1826.230970
 11
722.467886
 21
1828.527275
  0
LINE
  8
CSLAYER1
  6
CONTINUOUS
 62
     3
 10
722.467886
 20
1828.527275
 11
726.471372
 21
1831.033252
  0
LINE
  8
CSLAYER1
  6
CONTINUOUS
 62
     3
 10
726.471372
 20
1831.033252
 11
730.078837
 21
1833.729830
  0
LINE
  8
CSLAYER1
  6
CONTINUOUS
 62
     3
 10
730.078837
 20
1833.729830
 11
733.262825
 21
1836.596485
  0
LINE
  8
CSLAYER1
  6
CONTINUOUS
 62
     3
 10
733.262825
 20
1836.596485
 11
735.999105
 21
1839.611401
  0
LINE
  8
CSLAYER1
  6
CONTINUOUS
 62
     3
 10
735.999105
 20
1839.611401
 11
738.266853
 21
1842.751632
  0
LINE
  8
CSLAYER1
  6
CONTINUOUS
 62
     3
 10
738.266853
 20
1842.751632
 11
740.048808
 21
1845.993280
  0
LINE
  8
CSLAYER1
  6
CONTINUOUS
 62
     3
 10
740.048808
 20
1845.993280
 11
741.331409
 21
1849.311673
  0
LINE
  8
CSLAYER1
  6
CONTINUOUS
 62
     3
 10
741.331409
 20
1849.311673
 11
742.104896
 21
1852.681556
  0
LINE
  8
CSLAYER1
  6
CONTINUOUS
 62
     3
 10
742.104896
 20
1852.681556
 11
742.363380
 21
1856.077282
  0
LINE
  8
CSLAYER1
  6
CONTINUOUS
 62
     3
 10
749.156127
 20
1856.077282
 11
748.871794
 21
1859.812582
  0
LINE
  8
CSLAYER1
  6
CONTINUOUS
 62
     3
 10
748.871794
 20
1859.812582
 11
748.020959
 21
1863.519453
  0
LINE
  8
CSLAYER1
  6
CONTINUOUS
 62
     3
 10
748.020959
 20
1863.519453
 11
746.610097
 21
1867.169685
  0
LINE
  8
CSLAYER1
  6
CONTINUOUS
 62
     3
 10
746.610097
 20
1867.169685
 11
744.649947
 21
1870.735498
  0
LINE
  8
CSLAYER1
  6
CONTINUOUS
 62
     3
 10
744.649947
 20
1870.735498
 11
742.155425
 21
1874.189752
  0
LINE
  8
CSLAYER1
  6
CONTINUOUS
 62
     3
 10
742.155425
 20
1874.189752
 11
739.145516
 21
1877.506159
  0
LINE
  8
CSLAYER1
  6
CONTINUOUS
 62
     3
 10
739.145516
 20
1877.506159
 11
735.643129
 21
1880.659480
  0
LINE
  8
CSLAYER1
  6
CONTINUOUS
 62
     3
 10
735.643129
 20
1880.659480
 11
731.674918
 21
1883.625716
  0
LINE
  8
CSLAYER1
  6
CONTINUOUS
 62
     3
 10
731.674918
 20
1883.625716
 11
727.271083
 21
1886.382291
  0
LINE
  8
CSLAYER1
  6
CONTINUOUS
 62
     3
 10
727.271083
 20
1886.382291
 11
722.465141
 21
1888.908227
  0
LINE
  8
CSLAYER1
  6
CONTINUOUS
 62
     3
 10
722.465141
 20
1888.908227
 11
717.293667
 21
1891.184299
  0
LINE
  8
CSLAYER1
  6
CONTINUOUS
 62
     3
 10
717.293667
 20
1891.184299
 11
711.796020
 21
1893.193186
  0
LINE
  8
CSLAYER1
  6
CONTINUOUS
 62
     3
 10
711.796020
 20
1893.193186
 11
706.014040
 21
1894.919598
  0
LINE
  8
CSLAYER1
  6
CONTINUOUS
 62
     3
 10
706.014040
 20
1894.919598
 11
699.991732
 21
1896.350397
  0
LINE
  8
CSLAYER1
  6
CONTINUOUS
 62
     3
 10
699.991732
 20
1896.350397
 11
693.774928
 21
1897.474694
  0
LINE
  8
CSLAYER1
  6
CONTINUOUS
 62
     3
 10
693.774928
 20
1897.474694
 11
687.410942
 21
1898.283931
  0
LINE
  8
CSLAYER1
  6
CONTINUOUS
 62
     3
 10
687.410942
 20
1898.283931
 11
680.948209
 21
1898.771949
  0
LINE
  8
CSLAYER1
  6
CONTINUOUS
 62
     3
 10
680.948209
 20
1898.771949
 11
674.435913
 21
1898.935036
  0
LINE
  8
CSLAYER1
  6
CONTINUOUS
 62
     3
 10
674.435913
 20
1898.935036
 11
667.923618
 21
1898.771949
  0
LINE
  8
CSLAYER1
  6
CONTINUOUS
 62
     3
 10
667.923618
 20
1898.771949
 11
661.460885
 21
1898.283931
  0
LINE
  8
CSLAYER1
  6
CONTINUOUS
 62
     3
 10
661.460885
 20
1898.283931
 11
655.096899
 21
1897.474694
  0
LINE
  8
CSLAYER1
  6
CONTINUOUS
 62
     3
 10
655.096899
 20
1897.474694
 11
648.880095
 21
1896.350397
  0
LINE
  8
CSLAYER1
  6
CONTINUOUS
 62
     3
 10
648.880095
 20
1896.350397
 11
642.857787
 21
1894.919598
  0
LINE
  8
CSLAYER1
  6
CONTINUOUS
 62
     3
 10
642.857787
 20
1894.919598
 11
637.075807
 21
1893.193186
  0
LINE
  8
CSLAYER1
  6
CONTINUOUS
 62
     3
 10
637.075807
 20
1893.193186
 11
631.578160
 21
1891.184299
  0
LINE
  8
CSLAYER1
  6
CONTINUOUS
 62
     3
 10
631.578160
 20
1891.184299
 11
626.406686
 21
1888.908227
  0
LINE
  8
CSLAYER1
  6
CONTINUOUS
 62
     3
 10
626.406686
 20
1888.908227
 11
621.600744
 21
1886.382291
  0
LINE
  8
CSLAYER1
  6
CONTINUOUS
 62
     3
 10
621.600744
 20
1886.382291
 11
617.196909
 21
1883.625716
  0
LINE
  8
CSLAYER1
  6
CONTINUOUS
 62
     3
 10
617.196909
 20
1883.625716
 11
613.228698
 21
1880.659480
  0
LINE
  8
CSLAYER1
  6
CONTINUOUS
 62
     3
 10
613.228698
 20
1880.659480
 11
609.726311
 21
1877.506159
  0
LINE
  8
CSLAYER1
  6
CONTINUOUS
 62
     3
 10
609.726311
 20
1877.506159
 11
606.716402
 21
1874.189752
  0
LINE
  8
CSLAYER1
  6
CONTINUOUS
 62
     3
 10
606.716402
 20
1874.189752
 11
604.221880
 21
1870.735498
  0
LINE
  8
CSLAYER1
  6
CONTINUOUS
 62
     3
 10
604.221880
 20
1870.735498
 11
602.261730
 21
1867.169685
  0
LINE
  8
CSLAYER1
  6
CONTINUOUS
 62
     3
 10
602.261730
 20
1867.169685
 11
600.850868
 21
1863.519453
  0
LINE
  8
CSLAYER1
  6
CONTINUOUS
 62
     3
 10
600.850868
 20
1863.519453
 11
600.000033
 21
1859.812582
  0
LINE
  8
CSLAYER1
  6
CONTINUOUS
 62
     3
 10
600.000033
 20
1859.812582
 11
599.715700
 21
1856.077282
  0
LINE
  8
CSLAYER1
  6
CONTINUOUS
 62
     3
 10
599.715700
 20
1856.077282
 11
600.000033
 21
1852.341983
  0
LINE
  8
CSLAYER1
  6
CONTINUOUS
 62
     3
 10
600.000033
 20
1852.341983
 11
600.850868
 21
1848.635112
  0
LINE
  8
CSLAYER1
  6
CONTINUOUS
 62
     3
 10
600.850868
 20
1848.635112
 11
602.261730
 21
1844.984880
  0
LINE
  8
CSLAYER1
  6
CONTINUOUS
 62
     3
 10
602.261730
 20
1844.984880
 11
604.221880
 21
1841.419067
  0
LINE
  8
CSLAYER1
  6
CONTINUOUS
 62
     3
 10
604.221880
 20
1841.419067
 11
606.716402
 21
1837.964813
  0
LINE
  8
CSLAYER1
  6
CONTINUOUS
 62
     3
 10
606.716402
 20
1837.964813
 11
609.726311
 21
1834.648406
  0
LINE
  8
CSLAYER1
  6
CONTINUOUS
 62
     3
 10
609.726311
 20
1834.648406
 11
613.228698
 21
1831.495085
  0
LINE
  8
CSLAYER1
  6
CONTINUOUS
 62
     3
 10
613.228698
 20
1831.495085
 11
617.196909
 21
1828.528849
  0
LINE
  8
CSLAYER1
  6
CONTINUOUS
 62
     3
 10
617.196909
 20
1828.528849
 11
621.600744
 21
1825.772274
  0
LINE
  8
CSLAYER1
  6
CONTINUOUS
 62
     3
 10
621.600744
 20
1825.772274
 11
626.406686
 21
1823.246338
  0
LINE
  8
CSLAYER1
  6
CONTINUOUS
 62
     3
 10
626.406686
 20
1823.246338
 11
631.578160
 21
1820.970266
  0
LINE
  8
CSLAYER1
  6
CONTINUOUS
 62
     3
 10
631.578160
 20
1820.970266
 11
637.075807
 21
1818.961379
  0
LINE
  8
CSLAYER1
  6
CONTINUOUS
 62
     3
 10
637.075807
 20
1818.961379
 11
642.857787
 21
1817.234967
  0
LINE
  8
CSLAYER1
  6
CONTINUOUS
 62
     3
 10
642.857787
 20
1817.234967
 11
642.940724
 21
1817.215262
  0
LINE
  8
CSLAYER1
  6
CONTINUOUS
 62
     3
 10
674.435913
 20
1813.219529
 11
680.948209
 21
1813.382615
  0
LINE
  8
CSLAYER1
  6
CONTINUOUS
 62
     3
 10
680.948209
 20
1813.382615
 11
687.410942
 21
1813.870634
  0
LINE
  8
CSLAYER1
  6
CONTINUOUS
 62
     3
 10
687.410942
 20
1813.870634
 11
693.774928
 21
1814.679871
  0
LINE
  8
CSLAYER1
  6
CONTINUOUS
 62
     3
 10
693.774928
 20
1814.679871
 11
699.991732
 21
1815.804168
  0
LINE
  8
CSLAYER1
  6
CONTINUOUS
 62
     3
 10
699.991732
 20
1815.804168
 11
706.014040
 21
1817.234967
  0
LINE
  8
CSLAYER1
  6
CONTINUOUS
 62
     3
 10
706.014040
 20
1817.234967
 11
711.796020
 21
1818.961379
  0
LINE
  8
CSLAYER1
  6
CONTINUOUS
 62
     3
 10
711.796020
 20
1818.961379
 11
717.293667
 21
1820.970266
  0
LINE
  8
CSLAYER1
  6
CONTINUOUS
 62
     3
 10
717.293667
 20
1820.970266
 11
722.465141
 21
1823.246338
  0
LINE
  8
CSLAYER1
  6
CONTINUOUS
 62
     3
 10
722.465141
 20
1823.246338
 11
727.271083
 21
1825.772274
  0
LINE
  8
CSLAYER1
  6
CONTINUOUS
 62
     3
 10
727.271083
 20
1825.772274
 11
731.674918
 21
1828.528849
  0
LINE
  8
CSLAYER1
  6
CONTINUOUS
 62
     3
 10
731.674918
 20
1828.528849
 11
735.643129
 21
1831.495085
  0
LINE
  8
CSLAYER1
  6
CONTINUOUS
 62
     3
 10
735.643129
 20
1831.495085
 11
739.145516
 21
1834.648406
  0
LINE
  8
CSLAYER1
  6
CONTINUOUS
 62
     3
 10
739.145516
 20
1834.648406
 11
742.155425
 21
1837.964813
  0
LINE
  8
CSLAYER1
  6
CONTINUOUS
 62
     3
 10
742.155425
 20
1837.964813
 11
744.649947
 21
1841.419067
  0
LINE
  8
CSLAYER1
  6
CONTINUOUS
 62
     3
 10
744.649947
 20
1841.419067
 11
746.610097
 21
1844.984880
  0
LINE
  8
CSLAYER1
  6
CONTINUOUS
 62
     3
 10
746.610097
 20
1844.984880
 11
748.020959
 21
1848.635112
  0
LINE
  8
CSLAYER1
  6
CONTINUOUS
 62
     3
 10
748.020959
 20
1848.635112
 11
748.871794
 21
1852.341983
  0
LINE
  8
CSLAYER1
  6
CONTINUOUS
 62
     3
 10
748.871794
 20
1852.341983
 11
749.156127
 21
1856.077282
  0
LINE
  8
CSLAYER1
  6
CONTINUOUS
 62
     3
 10
528.226019
 20
1813.219529
 11
674.435913
 21
1813.219529
  0
LINE
  8
CSLAYER1
  6
CONTINUOUS
 62
     3
 10
528.226019
 20
1817.215262
 11
674.435913
 21
1817.215262
  0
LINE
  8
CSLAYER1
  6
CONTINUOUS
 62
     3
 10
528.226019
 20
1813.219529
 11
528.226019
 21
1817.215262
  0
LINE
  8
CSLAYER1
  6
CONTINUOUS
 62
     3
 10
528.226019
 20
1817.215262
 11
519.020720
 21
1820.056776
  0
LINE
  8
CSLAYER1
  6
CONTINUOUS
 62
     3
 10
519.020720
 20
1820.056776
 11
517.486775
 21
1826.499343
  0
LINE
  8
CSLAYER1
  6
CONTINUOUS
 62
     3
 10
528.226019
 20
1813.219529
 11
512.884941
 21
1814.534576
  0
LINE
  8
CSLAYER1
  6
CONTINUOUS
 62
     3
 10
512.884941
 20
1814.534576
 11
506.135585
 21
1812.387053
  0
LINE
  8
CSLAYER1
  6
CONTINUOUS
 62
     3
 10
506.135585
 20
1812.387053
 11
498.772651
 21
1809.012375
  0
LINE
  8
CSLAYER1
  6
CONTINUOUS
 62
     3
 10
517.486775
 20
1826.499343
 11
509.817052
 21
1832.328333
  0
LINE
  8
CSLAYER1
  6
CONTINUOUS
 62
     3
 10
388.375352
 20
2052.147390
 11
552.200419
 21
1957.562944
  0
LINE
  8
CSLAYER1
  6
CONTINUOUS
 62
     3
 10
388.375352
 20
2144.424898
 11
552.200419
 21
2049.840452
  0
LINE
  8
CSLAYER1
  6
CONTINUOUS
 62
     3
 10
388.375352
 20
2144.424898
 11
388.375352
 21
2029.078013
  0
LINE
  8
CSLAYER1
  6
CONTINUOUS
 62
     3
 10
692.051086
 20
2130.583272
 11
692.051086
 21
2015.236386
  0
LINE
  8
CSLAYER1
  6
CONTINUOUS
 62
     3
 10
388.375352
 20
2144.424898
 11
528.226019
 21
2225.167719
  0
LINE
  8
CSLAYER1
  6
CONTINUOUS
 62
     5
 10
338.977364
 20
2057.597954
 11
379.888348
 21
2033.977987
  0
TEXT
  8
CSLAYER1
 62
     3
 10
825.423593
 20
2099.208340
 40
34.838692
 41
0.852344
  1
ホース長サ２ｍ
 50
0.000000
 51
0.000000
  7
EASYDRAW_FONT
 72
     5
 11
1023.387320
 21
2099.208340
  0
TEXT
  8
CSLAYER1
 62
     3
 10
309.159651
 20
1851.031832
 40
39.957333
 41
1.036364
  1
長サ4ｍ
 50
0.000000
 51
0.000000
  7
EASYDRAW_FONT
 72
     5
 11
460.997515
 21
1851.031832
  0
LINE
  8
CSLAYER1
  6
CONTINUOUS
 62
     3
 10
646.869759
 20
2025.397809
 11
947.945009
 21
1851.571932
  0
ARC
  8
CSLAYER1
  6
CONTINUOUS
 62
     3
 10
1000.445009
 20
1942.504600
 40
100.000000
 50
240.000000
 51
270.000000
  0
ARC
  8
CSLAYER1
  6
CONTINUOUS
 62
     3
 10
1000.445009
 20
1942.504600
 40
105.000000
 50
240.000000
 51
270.000000
  0
TEXT
  8
CSLAYER1
 62
     3
 10
767.576160
 20
1735.813570
 40
39.957333
 41
1.020000
  1
フットスイッチ
 50
0.000000
 51
0.000000
  7
EASYDRAW_FONT
 72
     5
 11
1039.286022
 21
1735.813570
  0
TEXT
  8
CSLAYER1
 62
     3
 10
765.422352
 20
1681.254976
 40
39.957333
 41
1.020000
  1
ＵＰ・ＤＯＷＮ
 50
0.000000
 51
0.000000
  7
EASYDRAW_FONT
 72
     5
 11
1037.132214
 21
1681.254976
  0
TEXT
  8
CSLAYER1
 62
     3
 10
768.293934
 20
1632.438570
 40
39.957333
 41
1.020000
  1
コード長サ２ｍ
 50
0.000000
 51
0.000000
  7
EASYDRAW_FONT
 72
     5
 11
1040.003796
 21
1632.438570
  0
LINE
  8
CSLAYER1
  6
CONTINUOUS
 62
     5
 10
635.828682
 20
1696.849035
 11
759.029475
 21
1729.860588
  0
LINE
  8
CSLAYER1
  6
CONTINUOUS
 62
     5
 10
635.828682
 20
1696.849035
 11
661.809444
 21
1711.849035
  0
LINE
  8
CSLAYER1
  6
CONTINUOUS
 62
     5
 10
635.828682
 20
1696.849035
 11
665.828682
 21
1696.849035
  0
LINE
  8
CSLAYER1
  6
CONTINUOUS
 62
     5
 10
1033.367678
 20
1729.860588
 11
759.029475
 21
1729.860588
  0
LINE
  8
CSLAYER1
  6
CONTINUOUS
 62
     3
 10
458.018548
 20
1714.612455
 11
569.899082
 21
1650.018199
  0
LINE
  8
CSLAYER1
  6
CONTINUOUS
 62
     3
 10
569.899082
 20
1650.018199
 11
635.828682
 21
1688.082671
  0
LINE
  8
CSLAYER1
  6
CONTINUOUS
 62
     3
 10
635.828682
 20
1696.849035
 11
635.828682
 21
1688.082671
  0
LINE
  8
CSLAYER1
  6
CONTINUOUS
 62
     5
 10
569.899082
 20
1684.160877
 11
569.899082
 21
1661.091500
  0
LINE
  8
CSLAYER1
  6
CONTINUOUS
 62
     3
 10
458.018548
 20
1723.840206
 11
458.018548
 21
1714.612455
  0
LINE
  8
CSLAYER1
  6
CONTINUOUS
 62
     3
 10
461.614708
 20
1747.140277
 11
523.548575
 21
1782.897811
  0
LINE
  8
CSLAYER1
  6
CONTINUOUS
 62
     3
 10
501.572042
 20
1724.070900
 11
563.505908
 21
1759.828434
  0
LINE
  8
CSLAYER1
  6
CONTINUOUS
 62
     3
 10
569.899082
 20
1684.160877
 11
632.232522
 21
1720.149106
  0
LINE
  8
CSLAYER1
  6
CONTINUOUS
 62
     3
 10
530.341322
 20
1707.460948
 11
592.275188
 21
1743.218483
  0
LINE
  8
CSLAYER1
  6
CONTINUOUS
 62
     3
 10
461.614708
 20
1747.140277
 11
501.572042
 21
1724.070900
  0
LINE
  8
CSLAYER1
  6
CONTINUOUS
 62
     3
 10
523.548575
 20
1782.897811
 11
563.505908
 21
1759.828434
  0
LINE
  8
CSLAYER1
  6
CONTINUOUS
 62
     3
 10
458.018548
 20
1723.840206
 11
569.899082
 21
1659.245950
  0
LINE
  8
CSLAYER1
  6
CONTINUOUS
 62
     3
 10
569.899082
 20
1658.784562
 11
635.828682
 21
1696.849035
  0
LINE
  8
CSLAYER1
  6
CONTINUOUS
 62
     3
 10
509.963082
 20
1719.226331
 11
521.950282
 21
1712.305517
  0
LINE
  8
CSLAYER1
  6
CONTINUOUS
 62
     5
 10
569.899082
 20
1661.091500
 11
632.232522
 21
1697.079728
  0
LINE
  8
CSLAYER1
  6
CONTINUOUS
 62
     5
 10
461.614708
 20
1724.070900
 11
501.572042
 21
1701.001523
  0
LINE
  8
CSLAYER1
  6
CONTINUOUS
 62
     3
 10
632.232522
 20
1720.149106
 11
632.232522
 21
1697.079728
  0
LINE
  8
CSLAYER1
  6
CONTINUOUS
 62
     5
 10
530.341322
 20
1707.460948
 11
530.341322
 21
1683.723663
  0
LINE
  8
CSLAYER1
  6
CONTINUOUS
 62
     5
 10
501.572042
 20
1701.001523
 11
501.572042
 21
1724.070900
  0
LINE
  8
CSLAYER1
  6
CONTINUOUS
 62
     3
 10
563.505908
 20
1759.828434
 11
563.505908
 21
1750.139296
  0
LINE
  8
CSLAYER1
  6
CONTINUOUS
 62
     5
 10
509.963082
 20
1696.156953
 11
521.950282
 21
1689.236140
  0
LINE
  8
CSLAYER1
  6
CONTINUOUS
 62
     3
 10
569.899082
 20
1658.784562
 11
569.899082
 21
1650.018199
  0
LINE
  8
CSLAYER1
  6
CONTINUOUS
 62
     3
 10
632.232522
 20
1698.925279
 11
635.828682
 21
1696.849035
  0
LINE
  8
CSLAYER1
  6
CONTINUOUS
 62
     3
 10
509.963082
 20
1719.226331
 11
571.896948
 21
1754.983865
  0
LINE
  8
CSLAYER1
  6
CONTINUOUS
 62
     3
 10
521.950282
 20
1712.305517
 11
583.884148
 21
1748.063052
  0
LINE
  8
CSLAYER1
  6
CONTINUOUS
 62
     3
 10
583.884148
 20
1748.063052
 11
583.884148
 21
1738.373914
  0
LINE
  8
CSLAYER1
  6
CONTINUOUS
 62
     3
 10
571.896948
 20
1754.983865
 11
583.884148
 21
1748.063052
  0
LINE
  8
CSLAYER1
  6
CONTINUOUS
 62
     3
 10
592.275188
 20
1743.218483
 11
632.232522
 21
1720.149106
  0
LINE
  8
CSLAYER1
  6
CONTINUOUS
 62
     3
 10
530.341322
 20
1707.460948
 11
569.899082
 21
1684.622265
  0
LINE
  8
CSLAYER1
  6
CONTINUOUS
 62
     5
 10
521.950282
 20
1712.305517
 11
521.950282
 21
1689.236140
  0
LINE
  8
CSLAYER1
  6
CONTINUOUS
 62
     5
 10
509.963082
 20
1719.226331
 11
509.963082
 21
1696.156953
  0
LINE
  8
CSLAYER1
  6
CONTINUOUS
 62
     5
 10
521.950282
 20
1689.236140
 11
530.341322
 21
1694.080709
  0
LINE
  8
CSLAYER1
  6
CONTINUOUS
 62
     5
 10
501.572042
 20
1701.001523
 11
509.963082
 21
1705.846092
  0
LINE
  8
CSLAYER1
  6
CONTINUOUS
 62
     5
 10
530.341322
 20
1684.391571
 11
569.899082
 21
1661.552888
  0
LINE
  8
CSLAYER1
  6
CONTINUOUS
 62
     3
 10
461.614708
 20
1747.140277
 11
461.614708
 21
1724.070900
  0
LINE
  8
CSLAYER1
  6
CONTINUOUS
 62
     3
 10
458.018548
 20
1723.840206
 11
461.614708
 21
1725.916450
  0
LINE
  8
CSLAYER1
  6
CONTINUOUS
 62
     5
 10
473.601908
 20
1754.061090
 11
513.559242
 21
1730.991713
  0
LINE
  8
CSLAYER1
  6
CONTINUOUS
 62
     5
 10
485.589108
 20
1760.981903
 11
525.546442
 21
1737.912526
  0
LINE
  8
CSLAYER1
  6
CONTINUOUS
 62
     5
 10
497.576308
 20
1767.902716
 11
537.533642
 21
1744.833339
  0
LINE
  8
CSLAYER1
  6
CONTINUOUS
 62
     5
 10
554.315722
 20
1721.302574
 11
594.273055
 21
1698.233197
  0
LINE
  8
CSLAYER1
  6
CONTINUOUS
 62
     5
 10
542.328522
 20
1714.381761
 11
582.285855
 21
1691.312384
  0
LINE
  8
CSLAYER1
  6
CONTINUOUS
 62
     5
 10
566.302922
 20
1728.223388
 11
606.260255
 21
1705.154010
  0
ARC
  8
CSLAYER1
  6
CONTINUOUS
 62
     3
 10
582.656088
 20
1741.953278
 40
11.889388
 50
-0.219250
 51
120.219250
  0
LINE
  8
CSLAYER1
  6
CONTINUOUS
 62
     3
 10
592.808765
 20
1748.140419
 11
727.098405
 21
1825.672579
  0
LINE
  8
CSLAYER1
  6
CONTINUOUS
 62
     3
 10
589.428347
 20
1751.725384
 11
700.609594
 21
1815.915907
  0
LINE
  8
CSLAYER1
  6
CONTINUOUS
 62
     5
 10
541.961865
 20
1818.163400
 11
502.227941
 21
1895.577584
  0
LINE
  8
CSLAYER1
  6
CONTINUOUS
 62
     5
 10
541.961865
 20
1818.163400
 11
521.821963
 21
1840.398155
  0
LINE
  8
CSLAYER1
  6
CONTINUOUS
 62
     5
 10
541.961865
 20
1818.163400
 11
535.637576
 21
1847.489214
  0
LINE
  8
CSLAYER1
  6
CONTINUOUS
 62
     5
 10
242.088357
 20
1582.541464
 11
1087.019864
 21
1582.541464
  0
LINE
  8
CSLAYER1
  6
CONTINUOUS
 62
     5
 10
514.331965
 20
2389.203912
 11
793.915234
 21
2389.203912
  0
LINE
  8
CSLAYER1
  6
CONTINUOUS
 62
     5
 10
793.915234
 20
2389.203912
 11
793.915234
 21
2338.498634
  0
LINE
  8
CSLAYER1
  6
CONTINUOUS
 62
     5
 10
793.915234
 20
2338.498634
 11
514.331965
 21
2338.498634
  0
LINE
  8
CSLAYER1
  6
CONTINUOUS
 62
     5
 10
514.331965
 20
2338.498634
 11
514.331965
 21
2389.203912
  0
ENDBLK
  8
0
  0
BLOCK
  8
CSLAYER1
  2
BLKF0005
 70
   64
 10
0.0
 20
0.0
 30
0.0
  0
LINE
  8
CSLAYER1
  6
CENTER
 62
     5
 10
790.689627
 20
1355.125279
 11
939.689627
 21
1355.125279
  0
LINE
  8
CSLAYER1
  6
CONTINUOUS
 62
     3
 10
965.189627
 20
1374.925279
 11
765.189627
 21
1374.925279
  0
LINE
  8
CSLAYER1
  6
CONTINUOUS
 62
     3
 10
965.189627
 20
1356.925279
 11
765.189627
 21
1356.925279
  0
LINE
  8
CSLAYER1
  6
CONTINUOUS
 62
     3
 10
965.189627
 20
1356.925279
 11
965.189627
 21
1374.925279
  0
LINE
  8
CSLAYER1
  6
CONTINUOUS
 62
     3
 10
921.189627
 20
1346.475279
 11
920.189627
 21
1346.475279
  0
LINE
  8
CSLAYER1
  6
CONTINUOUS
 62
     3
 10
922.189627
 20
1356.925279
 11
922.189627
 21
1347.475279
  0
LINE
  8
CSLAYER1
  6
CONTINUOUS
 62
     3
 10
922.189627
 20
1347.475279
 11
921.189627
 21
1346.475279
  0
LINE
  8
CSLAYER1
  6
CONTINUOUS
 62
     3
 10
921.189627
 20
1356.925279
 11
921.189627
 21
1346.475279
  0
LINE
  8
CSLAYER1
  6
CONTINUOUS
 62
     3
 10
922.689627
 20
1344.625279
 11
928.689627
 21
1344.625279
  0
LINE
  8
CSLAYER1
  6
CONTINUOUS
 62
     3
 10
928.689627
 20
1356.925279
 11
928.689627
 21
1344.625279
  0
LINE
  8
CSLAYER1
  6
CONTINUOUS
 62
     3
 10
922.689627
 20
1356.925279
 11
922.689627
 21
1344.625279
  0
LINE
  8
CSLAYER1
  6
CONTINUOUS
 62
     3
 10
911.189627
 20
1346.475279
 11
819.189627
 21
1346.475279
  0
LINE
  8
CSLAYER1
  6
CONTINUOUS
 62
     3
 10
931.689627
 20
1344.155624
 11
931.689627
 21
1356.925279
  0
LINE
  8
CSLAYER1
  6
CONTINUOUS
 62
     3
 10
928.689627
 20
1344.375279
 11
931.689627
 21
1344.375279
  0
LINE
  8
CSLAYER1
  6
CONTINUOUS
 62
     3
 10
928.689627
 20
1353.613082
 11
931.528653
 21
1356.925279
  0
LINE
  8
CSLAYER1
  6
CONTINUOUS
 62
     3
 10
939.689627
 20
1356.925279
 11
939.689627
 21
1346.125279
  0
ARC
  8
CSLAYER1
  6
CONTINUOUS
 62
     3
 10
925.893883
 20
1355.125279
 40
13.795744
 50
-23.426598
 51
7.497043
  0
LINE
  8
CSLAYER1
  6
CONTINUOUS
 62
     3
 10
931.689627
 20
1349.640451
 11
938.552446
 21
1349.640451
  0
LINE
  8
CSLAYER1
  6
CONTINUOUS
 62
     3
 10
931.689627
 20
1344.155624
 11
938.552446
 21
1344.155624
  0
LINE
  8
CSLAYER1
  6
CONTINUOUS
 62
     3
 10
939.689627
 20
1346.125279
 11
938.552446
 21
1344.155624
  0
ARC
  8
CSLAYER1
  6
CONTINUOUS
 62
     3
 10
935.909583
 20
1346.898037
 40
3.808617
 50
5.661633
 51
46.059028
  0
LINE
  8
CSLAYER1
  6
CONTINUOUS
 62
     3
 10
765.189627
 20
1356.925279
 11
765.189627
 21
1374.925279
  0
LINE
  8
CSLAYER1
  6
CONTINUOUS
 62
     3
 10
809.189627
 20
1346.475279
 11
810.189627
 21
1346.475279
  0
LINE
  8
CSLAYER1
  6
CONTINUOUS
 62
     3
 10
808.189627
 20
1356.925279
 11
808.189627
 21
1347.475279
  0
LINE
  8
CSLAYER1
  6
CONTINUOUS
 62
     3
 10
808.189627
 20
1347.475279
 11
809.189627
 21
1346.475279
  0
LINE
  8
CSLAYER1
  6
CONTINUOUS
 62
     3
 10
809.189627
 20
1356.925279
 11
809.189627
 21
1346.475279
  0
LINE
  8
CSLAYER1
  6
CONTINUOUS
 62
     3
 10
807.689627
 20
1344.625279
 11
801.689627
 21
1344.625279
  0
LINE
  8
CSLAYER1
  6
CONTINUOUS
 62
     3
 10
801.689627
 20
1356.925279
 11
801.689627
 21
1344.625279
  0
LINE
  8
CSLAYER1
  6
CONTINUOUS
 62
     3
 10
807.689627
 20
1356.925279
 11
807.689627
 21
1344.625279
  0
LINE
  8
CSLAYER1
  6
CONTINUOUS
 62
     3
 10
798.689627
 20
1344.155624
 11
798.689627
 21
1356.925279
  0
LINE
  8
CSLAYER1
  6
CONTINUOUS
 62
     3
 10
801.689627
 20
1344.375279
 11
798.689627
 21
1344.375279
  0
LINE
  8
CSLAYER1
  6
CONTINUOUS
 62
     3
 10
801.689627
 20
1353.613082
 11
798.850601
 21
1356.925279
  0
LINE
  8
CSLAYER1
  6
CONTINUOUS
 62
     3
 10
790.689627
 20
1356.925279
 11
790.689627
 21
1346.125279
  0
ARC
  8
CSLAYER1
  6
CONTINUOUS
 62
     3
 10
804.485371
 20
1355.125279
 40
13.795744
 50
172.502957
 51
203.426598
  0
LINE
  8
CSLAYER1
  6
CONTINUOUS
 62
     3
 10
798.689627
 20
1349.640451
 11
791.826808
 21
1349.640451
  0
LINE
  8
CSLAYER1
  6
CONTINUOUS
 62
     3
 10
798.689627
 20
1344.155624
 11
791.826808
 21
1344.155624
  0
LINE
  8
CSLAYER1
  6
CONTINUOUS
 62
     3
 10
790.689627
 20
1346.125279
 11
791.826808
 21
1344.155624
  0
ARC
  8
CSLAYER1
  6
CONTINUOUS
 62
     3
 10
794.469671
 20
1346.898037
 40
3.808617
 50
133.940972
 51
174.338367
  0
LINE
  8
CSLAYER1
  6
CONTINUOUS
 62
     3
 10
780.189627
 20
1342.625279
 11
780.189627
 21
1356.925279
  0
LINE
  8
CSLAYER1
  6
CONTINUOUS
 62
     3
 10
784.689627
 20
1342.625279
 11
784.689627
 21
1356.925279
  0
LINE
  8
CSLAYER1
  6
CONTINUOUS
 62
     3
 10
780.189627
 20
1342.625279
 11
784.689627
 21
1342.625279
  0
LINE
  8
CSLAYER1
  6
CONTINUOUS
 62
     3
 10
950.189627
 20
1342.625279
 11
950.189627
 21
1356.925279
  0
LINE
  8
CSLAYER1
  6
CONTINUOUS
 62
     3
 10
945.689627
 20
1342.625279
 11
945.689627
 21
1356.925279
  0
LINE
  8
CSLAYER1
  6
CONTINUOUS
 62
     3
 10
950.189627
 20
1342.625279
 11
945.689627
 21
1342.625279
  0
ENDBLK
  8
0
  0
BLOCK
  8
CSLAYER1
  2
BLKF0006
 70
   64
 10
0.0
 20
0.0
 30
0.0
  0
LINE
  8
CSLAYER1
  6
CONTINUOUS
 62
     5
 10
3440.661668
 20
1504.071975
 11
2571.856758
 21
1504.071975
  0
TEXT
  8
CSLAYER1
 62
     3
 10
3038.044678
 20
1509.722046
 40
40.000000
 41
0.832500
  1
10R4/13
 50
0.000000
 51
0.000000
  7
EASYDRAW_FONT
 72
     5
 11
3260.044678
 21
1509.722046
  0
ENDBLK
  8
0
  0
ENDSEC
  0
SECTION
  2
ENTITIES
  0
LINE
  8
CSLAYER1
  6
CONTINUOUS
 62
     3
 10
192.088357
 20
2457.405312
 11
192.088357
 21
108.858381
  0
LINE
  8
CSLAYER1
  6
CONTINUOUS
 62
     3
 10
3514.661668
 20
2457.405312
 11
192.088357
 21
2457.405312
  0
LINE
  8
CSLAYER1
  6
CONTINUOUS
 62
     3
 10
3514.661668
 20
2457.405312
 11
3514.661668
 21
108.858381
  0
LINE
  8
CSLAYER1
  6
CONTINUOUS
 62
     3
 10
3514.661668
 20
108.858381
 11
192.088357
 21
108.858381
  0
LINE
  8
CSLAYER1
  6
CONTINUOUS
 62
     5
 10
142.088357
 20
1268.858381
 11
92.088357
 21
1268.858381
  0
LINE
  8
CSLAYER1
  6
CONTINUOUS
 62
     5
 10
2714.661668
 20
548.858381
 11
3514.661668
 21
548.858381
  0
LINE
  8
CSLAYER1
  6
CONTINUOUS
 62
     5
 10
2714.661668
 20
188.858381
 11
3514.661668
 21
188.858381
  0
LINE
  8
CSLAYER1
  6
CONTINUOUS
 62
     5
 10
2714.661668
 20
348.858381
 11
3514.661668
 21
348.858381
  0
LINE
  8
CSLAYER1
  6
CONTINUOUS
 62
     5
 10
2714.661668
 20
408.858381
 11
3514.661668
 21
408.858381
  0
LINE
  8
CSLAYER1
  6
CONTINUOUS
 62
     5
 10
2714.661668
 20
468.858381
 11
3514.661668
 21
468.858381
  0
LINE
  8
CSLAYER1
  6
CONTINUOUS
 62
     5
 10
2714.661668
 20
628.858381
 11
3514.661668
 21
628.858381
  0
LINE
  8
CSLAYER1
  6
CONTINUOUS
 62
     5
 10
2714.661668
 20
708.858381
 11
2714.661668
 21
108.858381
  0
LINE
  8
CSLAYER1
  6
CONTINUOUS
 62
     5
 10
2914.661668
 20
708.858381
 11
2914.661668
 21
468.858381
  0
LINE
  8
CSLAYER1
  6
CONTINUOUS
 62
     5
 10
2714.661668
 20
708.858381
 11
3514.661668
 21
708.858381
  0
LINE
  8
CSLAYER1
  6
CONTINUOUS
 62
     5
 10
3214.661668
 20
468.858381
 11
3214.661668
 21
188.858381
  0
TEXT
  8
CSLAYER1
 62
     3
 10
2934.352840
 20
117.421101
 40
59.380363
 41
1.003345
  1
東正車輌株式会社
 50
0.000000
 51
0.000000
  7
EASYDRAW_FONT
 72
     5
 11
3391.125187
 21
117.421101
  0
LINE
  8
CSLAYER1
  6
CONTINUOUS
 62
     5
 10
2964.661668
 20
408.858381
 11
2964.661668
 21
188.858381
  0
TEXT
  8
CSLAYER1
 62
     5
 10
2744.661621
 20
643.858337
 40
50.000000
 41
1.050000
  1
品　名
 50
0.000000
 51
0.000000
  7
EASYDRAW_FONT
 72
     5
 11
2884.661621
 21
643.858337
  0
TEXT
  8
CSLAYER1
 62
     5
 10
2744.661621
 20
563.858337
 40
50.000000
 41
1.050000
  1
型　式
 50
0.000000
 51
0.000000
  7
EASYDRAW_FONT
 72
     5
 11
2884.661621
 21
563.858337
  0
TEXT
  8
CSLAYER1
 62
     5
 10
2719.661621
 20
483.858398
 40
50.000000
 41
1.036364
  1
図面番号
 50
0.000000
 51
0.000000
  7
EASYDRAW_FONT
 72
     5
 11
2909.661621
 21
483.858398
  0
TEXT
  8
CSLAYER1
 62
     5
 10
2744.661621
 20
413.858398
 40
50.000000
 41
0.825000
  1
平成26年01月10日
 50
0.000000
 51
0.000000
  7
EASYDRAW_FONT
 72
     5
 11
3184.661621
 21
413.858398
  0
TEXT
  8
CSLAYER1
 62
     5
 10
3294.661621
 20
413.858398
 40
50.000000
 41
1.050000
  1
Ｂ－４
 50
0.000000
 51
0.000000
  7
EASYDRAW_FONT
 72
     5
 11
3434.661621
 21
413.858398
  0
TEXT
  8
CSLAYER1
 62
     5
 10
2769.661621
 20
353.858398
 40
50.000000
 41
1.050000
  1
検　図
 50
0.000000
 51
0.000000
  7
EASYDRAW_FONT
 72
     5
 11
2909.661621
 21
353.858398
  0
TEXT
  8
CSLAYER1
 62
     5
 10
3019.661621
 20
353.858398
 40
50.000000
 41
1.050000
  1
作　図
 50
0.000000
 51
0.000000
  7
EASYDRAW_FONT
 72
     5
 11
3159.661621
 21
353.858398
  0
TEXT
  8
CSLAYER1
 62
     5
 10
3294.661621
 20
353.858398
 40
50.000000
 41
1.050000
  1
尺　度
 50
0.000000
 51
0.000000
  7
EASYDRAW_FONT
 72
     5
 11
3434.661621
 21
353.858398
  0
TEXT
  8
CSLAYER1
 62
     5
 10
3395.400391
 20
203.343643
 40
50.000000
 41
1.080000
  1
１０
 50
0.000000
 51
0.000000
  7
EASYDRAW_FONT
 72
     5
 11
3485.400391
 21
203.343643
  0
TEXT
  8
CSLAYER1
 62
     5
 10
3375.080811
 20
251.048340
 40
50.000000
 41
1.200000
  1
／
 50
0.000000
 51
0.000000
  7
EASYDRAW_FONT
 72
     5
 11
3415.080811
 21
251.048340
  0
TEXT
  8
CSLAYER1
 62
     5
 10
3344.867920
 20
286.031799
 40
50.000000
 41
1.200000
  1
１
 50
0.000000
 51
0.000000
  7
EASYDRAW_FONT
 72
     5
 11
3384.867920
 21
286.031799
  0
TEXT
  8
CSLAYER1
 62
     3
 10
3054.661621
 20
643.858337
 40
50.000000
 41
0.834783
  1
ゴールドリフター
 50
0.000000
 51
0.000000
  7
EASYDRAW_FONT
 72
     5
 11
3374.661621
 21
643.858337
  0
TEXT
  8
CSLAYER1
 62
     3
 10
2954.661621
 20
563.858337
 40
50.000000
 41
0.821053
  1
GLSE-150-2007
 50
0.000000
 51
0.000000
  7
EASYDRAW_FONT
 72
     5
 11
3474.661621
 21
563.858337
  0
INSERT
  8
CSLAYER1
  2
BLKF0000
 10
0.0
 20
0.0
 30
0.0
  0
LINE
  8
CSLAYER1
  6
CENTER
 62
     5
 10
1474.417937
 20
1998.574129
 11
2194.638554
 21
1998.574129
  0
LINE
  8
CSLAYER1
  6
CONTINUOUS
 62
     4
 10
1478.117937
 20
2098.574129
 11
2178.117937
 21
2098.574129
  0
LINE
  8
CSLAYER1
  6
CONTINUOUS
 62
     3
 10
1475.417937
 20
1858.574129
 11
1475.417937
 21
2024.424129
  0
LINE
  8
CSLAYER1
  6
CONTINUOUS
 62
     3
 10
1525.417937
 20
1858.574129
 11
1525.417937
 21
1898.574129
  0
LINE
  8
CSLAYER1
  6
CONTINUOUS
 62
     4
 10
1478.117937
 20
2098.574129
 11
1478.117937
 21
1898.574129
  0
LINE
  8
CSLAYER1
  6
CONTINUOUS
 62
     4
 10
2178.117937
 20
2098.574129
 11
2178.117937
 21
1898.574129
  0
LINE
  8
CSLAYER1
  6
CONTINUOUS
 62
     3
 10
1485.417937
 20
1848.574129
 11
1515.417937
 21
1848.574129
  0
ARC
  8
CSLAYER1
  6
CONTINUOUS
 62
     3
 10
1485.417937
 20
1858.574129
 40
10.000000
 50
180.000000
 51
270.000000
  0
ARC
  8
CSLAYER1
  6
CONTINUOUS
 62
     3
 10
1515.417937
 20
1858.574129
 40
10.000000
 50
270.000000
 51
360.000000
  0
INSERT
  8
CSLAYER1
  2
BLKF0001
 10
0.0
 20
0.0
 30
0.0
  0
LINE
  8
CSLAYER1
  6
CENTER
 62
     5
 10
1545.756678
 20
887.028658
 11
1679.450506
 21
1127.457380
  0
LINE
  8
CSLAYER1
  6
CENTER
 62
     5
 10
865.189627
 20
1374.925279
 11
865.189627
 21
794.947168
  0
LINE
  8
CSLAYER1
  6
CENTER
 62
     5
 10
990.189627
 20
786.017807
 11
990.189627
 21
810.227769
  0
LINE
  8
CSLAYER1
  6
CENTER
 62
     5
 10
740.189627
 20
786.017807
 11
740.189627
 21
810.227769
  0
LINE
  8
CSLAYER1
  6
CENTER
 62
     5
 10
835.189627
 20
798.257605
 11
835.189627
 21
831.520924
  0
LINE
  8
CSLAYER1
  6
CENTER
 62
     5
 10
817.315681
 20
814.947168
 11
854.312638
 21
814.947168
  0
LINE
  8
CSLAYER1
  6
CENTER
 62
     5
 10
785.689627
 20
1075.724405
 11
944.689627
 21
1075.724405
  0
ARC
  8
CSLAYER1
  6
CONTINUOUS
 62
     3
 10
1522.695242
 20
1355.125279
 40
9.500000
 50
-190.922071
 51
10.922071
  0
LINE
  8
CSLAYER1
  6
CONTINUOUS
 62
     3
 10
1513.195242
 20
1356.925279
 11
1513.195242
 21
1349.640451
  0
LINE
  8
CSLAYER1
  6
CONTINUOUS
 62
     3
 10
1513.195242
 20
1349.640451
 11
1522.695242
 21
1344.155624
  0
LINE
  8
CSLAYER1
  6
CONTINUOUS
 62
     3
 10
1522.695242
 20
1344.155624
 11
1532.195242
 21
1349.640451
  0
LINE
  8
CSLAYER1
  6
CONTINUOUS
 62
     3
 10
1532.195242
 20
1349.640451
 11
1532.195242
 21
1356.925279
  0
POINT
  8
CSLAYER1
 62
     3
 10
1522.695242
 20
1355.125279
  0
LINE
  8
CSLAYER1
  6
CONTINUOUS
 62
     3
 10
1500.395242
 20
1374.925279
 11
1500.395242
 21
1356.925279
  0
LINE
  8
CSLAYER1
  6
CONTINUOUS
 62
     3
 10
2200.395242
 20
1374.925279
 11
2200.395242
 21
1356.925279
  0
LINE
  8
CSLAYER1
  6
CONTINUOUS
 62
     3
 10
1552.695242
 20
1342.625279
 11
2182.695242
 21
1342.625279
  0
LINE
  8
CSLAYER1
  6
CONTINUOUS
 62
     3
 10
1500.395242
 20
1374.925279
 11
2200.395242
 21
1374.925279
  0
LINE
  8
CSLAYER1
  6
CONTINUOUS
 62
     3
 10
1502.695242
 20
1356.925279
 11
1502.695242
 21
1349.625279
  0
LINE
  8
CSLAYER1
  6
CONTINUOUS
 62
     3
 10
1500.395242
 20
1356.925279
 11
2200.395242
 21
1356.925279
  0
LINE
  8
CSLAYER1
  6
CONTINUOUS
 62
     3
 10
1507.695242
 20
1344.625279
 11
1521.881776
 21
1344.625279
  0
ARC
  8
CSLAYER1
  6
CONTINUOUS
 62
     3
 10
1507.695242
 20
1349.625279
 40
5.000000
 50
180.000000
 51
270.000000
  0
LINE
  8
CSLAYER1
  6
CONTINUOUS
 62
     3
 10
2182.695242
 20
1356.925279
 11
2182.695242
 21
1342.625279
  0
LINE
  8
CSLAYER1
  6
CONTINUOUS
 62
     3
 10
1552.695242
 20
1353.625279
 11
1527.695242
 21
1344.625279
  0
LINE
  8
CSLAYER1
  6
CONTINUOUS
 62
     3
 10
1552.695242
 20
1356.925279
 11
1552.695242
 21
1342.625279
  0
LINE
  8
CSLAYER1
  6
CONTINUOUS
 62
     4
 10
1740.922931
 20
1125.980816
 11
1732.842026
 21
1107.140726
  0
LINE
  8
CSLAYER1
  6
CONTINUOUS
 62
     4
 10
1532.750478
 20
834.947168
 11
1546.127873
 21
853.430113
  0
LINE
  8
CSLAYER1
  6
CONTINUOUS
 62
     4
 10
1546.127873
 20
853.430113
 11
1551.670967
 21
856.824831
  0
LINE
  8
CSLAYER1
  6
CONTINUOUS
 62
     4
 10
1510.271698
 20
891.726128
 11
1836.618839
 21
1342.625279
  0
LINE
  8
CSLAYER1
  6
CONTINUOUS
 62
     4
 10
1551.670967
 20
856.824831
 11
1732.842026
 21
1107.140726
  0
ARC
  8
CSLAYER1
  6
DASHED
 62
     5
 10
1859.244802
 20
1355.125279
 40
13.000000
 50
-74.057631
 51
254.057631
  0
POINT
  8
CSLAYER1
 62
     4
 10
1859.244802
 20
1355.125279
  0
POINT
  8
CSLAYER1
 62
     4
 10
1690.970022
 20
1075.724405
  0
LINE
  8
CSLAYER1
  6
CONTINUOUS
 62
     4
 10
1740.922931
 20
1125.980816
 11
1861.117323
 21
1292.047995
  0
LINE
  8
CSLAYER1
  6
CONTINUOUS
 62
     4
 10
1861.117323
 20
1292.047995
 11
1868.530245
 21
1342.625279
  0
LINE
  8
CSLAYER1
  6
CONTINUOUS
 62
     4
 10
1532.197741
 20
884.497804
 11
1545.159082
 21
875.116778
  0
LINE
  8
CSLAYER1
  6
CONTINUOUS
 62
     4
 10
1552.718735
 20
912.850737
 11
1565.680075
 21
903.469712
  0
LINE
  8
CSLAYER1
  6
CONTINUOUS
 62
     4
 10
1549.348275
 20
875.788088
 11
1566.351385
 21
899.280518
  0
LINE
  8
CSLAYER1
  6
CONTINUOUS
 62
     4
 10
1531.526432
 20
888.686998
 11
1548.529541
 21
912.179428
  0
ARC
  8
CSLAYER1
  6
CONTINUOUS
 62
     4
 10
1533.956683
 20
886.928056
 40
3.000000
 50
144.104120
 51
234.104120
  0
ARC
  8
CSLAYER1
  6
CONTINUOUS
 62
     4
 10
1550.959792
 20
910.420486
 40
3.000000
 50
54.104120
 51
144.104120
  0
ARC
  8
CSLAYER1
  6
CONTINUOUS
 62
     4
 10
1546.918024
 20
877.547030
 40
3.000000
 50
234.104120
 51
324.104120
  0
ARC
  8
CSLAYER1
  6
CONTINUOUS
 62
     4
 10
1563.921133
 20
901.039460
 40
3.000000
 50
-35.895880
 51
54.104120
  0
LINE
  8
CSLAYER1
  6
CONTINUOUS
 62
     4
 10
1510.271698
 20
891.726128
 11
1492.201490
 21
830.526978
  0
POINT
  8
CSLAYER1
 62
     7
 10
1679.450506
 20
1127.457380
  0
LINE
  8
CSLAYER1
  6
CONTINUOUS
 62
     7
 10
1723.101088
 20
1012.569083
 11
1851.658446
 21
834.947168
  0
CIRCLE
  8
CSLAYER1
  6
DASHED
 62
     5
 10
1881.522106
 20
812.447168
 40
13.000000
  0
POINT
  8
CSLAYER1
 62
     7
 10
1881.522106
 20
812.447168
  0
POINT
  8
CSLAYER1
 62
     7
 10
1690.970022
 20
1075.724405
  0
LINE
  8
CSLAYER1
  6
CONTINUOUS
 62
     7
 10
1883.394628
 20
875.524452
 11
1889.341887
 21
834.947168
  0
LINE
  8
CSLAYER1
  6
CONTINUOUS
 62
     7
 10
1540.529586
 20
1349.245643
 11
1690.970022
 21
1141.388866
  0
LINE
  8
CSLAYER1
  6
CONTINUOUS
 62
     7
 10
1543.196259
 20
1286.496425
 11
1513.464026
 21
1344.625279
  0
ARC
  8
CSLAYER1
  6
CONTINUOUS
 62
     7
 10
1534.293274
 20
1281.942651
 40
10.000000
 50
-0.046232
 51
27.089216
  0
LINE
  8
CSLAYER1
  6
CONTINUOUS
 62
     7
 10
1544.293271
 20
1281.934582
 11
1544.277902
 21
1262.888255
  0
ARC
  8
CSLAYER1
  6
CONTINUOUS
 62
     7
 10
1554.277899
 20
1262.880186
 40
10.000000
 50
179.953768
 51
215.895880
  0
LINE
  8
CSLAYER1
  6
CONTINUOUS
 62
     7
 10
1649.098018
 20
1107.140726
 11
1657.640137
 21
1095.338465
  0
LINE
  8
CSLAYER1
  6
CONTINUOUS
 62
     7
 10
1723.101088
 20
1012.569083
 11
1707.729428
 21
1026.132346
  0
LINE
  8
CSLAYER1
  6
CONTINUOUS
 62
     7
 10
1641.017113
 20
1125.980816
 11
1649.098018
 21
1107.140726
  0
LINE
  8
CSLAYER1
  6
CONTINUOUS
 62
     7
 10
1641.017113
 20
1125.980816
 11
1546.177061
 21
1257.017045
  0
POINT
  8
CSLAYER1
 62
     7
 10
1522.695242
 20
1355.125279
  0
CIRCLE
  8
CSLAYER1
  6
CONTINUOUS
 62
     7
 10
1690.970022
 20
1075.724405
 40
7.500000
  0
POINT
  8
CSLAYER1
 62
     5
 10
1679.450506
 20
1127.457380
  0
LINE
  8
CSLAYER1
  6
CONTINUOUS
 62
     4
 10
1565.928351
 20
898.696032
 11
1546.564066
 21
909.463820
  0
LINE
  8
CSLAYER1
  6
CONTINUOUS
 62
     4
 10
1600.982715
 20
1033.671370
 11
1609.556668
 21
1028.903700
  0
LINE
  8
CSLAYER1
  6
CONTINUOUS
 62
     4
 10
1571.194779
 20
987.304044
 11
1577.079656
 21
984.031674
  0
LINE
  8
CSLAYER1
  6
CONTINUOUS
 62
     4
 10
1570.806794
 20
988.663995
 11
1587.330204
 21
1018.378923
  0
LINE
  8
CSLAYER1
  6
CONTINUOUS
 62
     4
 10
1587.330204
 20
1018.378923
 11
1600.982715
 21
1033.671370
  0
LINE
  8
CSLAYER1
  6
CONTINUOUS
 62
     4
 10
1570.806794
 20
988.663995
 11
1571.194779
 21
987.304044
  0
LINE
  8
CSLAYER1
  6
CONTINUOUS
 62
     4
 10
1554.692843
 20
953.100823
 11
1573.117510
 21
986.234882
  0
POINT
  8
CSLAYER1
 62
     5
 10
1545.756678
 20
887.028658
  0
LINE
  8
CSLAYER1
  6
CONTINUOUS
 62
     4
 10
1552.257282
 20
857.634915
 11
1552.662323
 21
857.341758
  0
CIRCLE
  8
CSLAYER1
  6
CONTINUOUS
 62
     4
 10
1545.756678
 20
887.028658
 40
8.000000
  0
LINE
  8
CSLAYER1
  6
CONTINUOUS
 62
     4
 10
1555.137704
 20
899.989999
 11
1562.833500
 21
894.420015
  0
ARC
  8
CSLAYER1
  6
CONTINUOUS
 62
     4
 10
1545.756678
 20
887.028658
 40
16.000000
 50
54.104120
 51
105.479287
  0
POINT
  8
CSLAYER1
 62
     2
 10
1545.756678
 20
887.028658
  0
LINE
  8
CSLAYER1
  6
CONTINUOUS
 62
     4
 10
1552.662323
 20
857.341758
 11
1536.453799
 21
834.947168
  0
LINE
  8
CSLAYER1
  6
CENTER
 62
     5
 10
1483.360389
 20
814.947168
 11
1335.623281
 21
814.947168
  0
LINE
  8
CSLAYER1
  6
CONTINUOUS
 62
     3
 10
1475.417937
 20
834.947168
 11
1475.417937
 21
794.947168
  0
LINE
  8
CSLAYER1
  6
CONTINUOUS
 62
     4
 10
1475.417937
 20
834.947168
 11
1488.961498
 21
834.947168
  0
LINE
  8
CSLAYER1
  6
CONTINUOUS
 62
     3
 10
2178.417937
 20
834.947168
 11
2178.417937
 21
794.947168
  0
LINE
  8
CSLAYER1
  6
CONTINUOUS
 62
     3
 10
1475.417937
 20
834.947168
 11
1488.961498
 21
834.947168
  0
LINE
  8
CSLAYER1
  6
CONTINUOUS
 62
     4
 10
1511.874377
 20
834.947168
 11
1528.417937
 21
834.947168
  0
LINE
  8
CSLAYER1
  6
CONTINUOUS
 62
     5
 10
413.385974
 20
794.947168
 11
715.189627
 21
794.947168
  0
LINE
  8
CSLAYER1
  6
CONTINUOUS
 62
     3
 10
1523.508709
 20
1344.625279
 11
1527.695242
 21
1344.625279
  0
ARC
  8
CSLAYER1
  6
CONTINUOUS
 62
     4
 10
1859.244802
 20
1355.125279
 40
13.000000
 50
254.057631
 51
285.942369
  0
ARC
  8
CSLAYER1
  6
CONTINUOUS
 62
     4
 10
1679.450506
 20
1127.457380
 40
8.000000
 50
45.741168
 51
242.467072
  0
POINT
  8
CSLAYER1
 62
     4
 10
1679.450506
 20
1127.457380
  0
LINE
  8
CSLAYER1
  6
CONTINUOUS
 62
     4
 10
1605.352557
 20
1031.241456
 11
1648.427155
 21
1108.704797
  0
LINE
  8
CSLAYER1
  6
CONTINUOUS
 62
     7
 10
1690.970022
 20
1049.288063
 11
1707.729428
 21
1026.132346
  0
LINE
  8
CSLAYER1
  6
CONTINUOUS
 62
     7
 10
1724.299907
 20
1095.338465
 11
1883.394628
 21
875.524452
  0
LINE
  8
CSLAYER1
  6
CONTINUOUS
 62
     4
 10
1587.330204
 20
1018.378923
 11
1597.746845
 21
1012.586600
  0
ARC
  8
CSLAYER1
  6
CONTINUOUS
 62
     3
 10
1500.417937
 20
839.947168
 40
12.500000
 50
203.578178
 51
336.421822
  0
LINE
  8
CSLAYER1
  6
CONTINUOUS
 62
     3
 10
1511.874377
 20
834.947168
 11
2178.417937
 21
834.947168
  0
INSERT
  8
CSLAYER1
  2
BLKF0002
 10
0.0
 20
0.0
 30
0.0
  0
LINE
  8
CSLAYER1
  6
CENTER
 62
     5
 10
1510.006361
 20
1355.125279
 11
1535.740656
 21
1355.125279
  0
LINE
  8
CSLAYER1
  6
CENTER
 62
     5
 10
1522.695242
 20
1365.970067
 11
1522.695242
 21
1340.235772
  0
LINE
  8
CSLAYER1
  6
CENTER
 62
     5
 10
1859.244802
 20
1371.164620
 11
1859.244802
 21
1336.216301
  0
LINE
  8
CSLAYER1
  6
CENTER
 62
     5
 10
1842.900163
 20
1355.125279
 11
1876.521331
 21
1355.125279
  0
LINE
  8
CSLAYER1
  6
CENTER
 62
     5
 10
1677.510836
 20
1075.724405
 11
1704.067688
 21
1075.724405
  0
LINE
  8
CSLAYER1
  6
CENTER
 62
     5
 10
1690.970022
 20
1086.711843
 11
1690.970022
 21
1063.680237
  0
LINE
  8
CSLAYER1
  6
CENTER
 62
     5
 10
1679.450506
 20
1136.535318
 11
1679.450506
 21
1118.383758
  0
LINE
  8
CSLAYER1
  6
CENTER
 62
     5
 10
1669.592857
 20
1127.457380
 11
1686.666107
 21
1127.457380
  0
LINE
  8
CSLAYER1
  6
CENTER
 62
     5
 10
1864.635661
 20
812.447168
 11
1898.560999
 21
812.447168
  0
LINE
  8
CSLAYER1
  6
CENTER
 62
     5
 10
1881.522106
 20
828.762292
 11
1881.522106
 21
795.733095
  0
LINE
  8
CSLAYER1
  6
CENTER
 62
     5
 10
1545.756678
 20
897.129653
 11
1545.756678
 21
876.448211
  0
LINE
  8
CSLAYER1
  6
CENTER
 62
     5
 10
1534.465346
 20
887.028658
 11
1555.920960
 21
887.028658
  0
LINE
  8
CSLAYER1
  6
CENTER
 62
     5
 10
1487.918277
 20
812.447168
 11
1513.009732
 21
812.447168
  0
LINE
  8
CSLAYER1
  6
CENTER
 62
     5
 10
1500.417937
 20
827.447168
 11
1500.417937
 21
791.903746
  0
LINE
  8
CSLAYER1
  6
PHANTOM
 62
     5
 10
1750.417937
 20
857.447168
 11
1750.417937
 21
852.947168
  0
LINE
  8
CSLAYER1
  6
PHANTOM
 62
     5
 10
1675.417937
 20
857.447168
 11
1675.417937
 21
852.947168
  0
POINT
  8
CSLAYER1
 62
     5
 10
1500.417937
 20
839.947168
  0
LINE
  8
CSLAYER1
  6
PHANTOM
 62
     5
 10
1478.117937
 20
859.747168
 11
1478.117937
 21
841.747168
  0
LINE
  8
CSLAYER1
  6
PHANTOM
 62
     5
 10
2178.117937
 20
859.747168
 11
2178.117937
 21
841.747168
  0
LINE
  8
CSLAYER1
  6
PHANTOM
 62
     5
 10
1478.117937
 20
859.747168
 11
2178.117937
 21
859.747168
  0
LINE
  8
CSLAYER1
  6
PHANTOM
 62
     5
 10
2178.117937
 20
841.747168
 11
1478.117937
 21
841.747168
  0
LINE
  8
CSLAYER1
  6
PHANTOM
 62
     5
 10
1480.417937
 20
841.747168
 11
1480.417937
 21
834.447168
  0
LINE
  8
CSLAYER1
  6
PHANTOM
 62
     5
 10
2160.417937
 20
841.747168
 11
2160.417937
 21
834.947168
  0
LINE
  8
CSLAYER1
  6
PHANTOM
 62
     5
 10
1530.417937
 20
838.447168
 11
1520.695715
 21
834.947168
  0
LINE
  8
CSLAYER1
  6
PHANTOM
 62
     5
 10
1530.417937
 20
841.747168
 11
1530.417937
 21
834.947168
  0
LINE
  8
CSLAYER1
  6
CENTER
 62
     5
 10
1500.417937
 20
849.676565
 11
1500.417937
 21
830.922050
  0
LINE
  8
CSLAYER1
  6
CENTER
 62
     5
 10
1487.737949
 20
839.947168
 11
1511.607331
 21
839.947168
  0
LINE
  8
CSLAYER1
  6
CENTER
 62
     5
 10
1500.417937
 20
1884.836930
 11
1500.417937
 21
1862.311328
  0
LINE
  8
CSLAYER1
  6
CENTER
 62
     5
 10
1489.155136
 20
1873.574129
 11
1511.680739
 21
1873.574129
  0
CIRCLE
  8
CSLAYER1
  6
CONTINUOUS
 62
     3
 10
1500.417937
 20
1873.574129
 40
6.500000
  0
LINE
  8
CSLAYER1
  6
CONTINUOUS
 62
     4
 10
1478.117937
 20
1898.574129
 11
2178.117937
 21
1898.574129
  0
LINE
  8
CSLAYER1
  6
CONTINUOUS
 62
     3
 10
1525.417937
 20
2138.574129
 11
1525.417937
 21
2098.574129
  0
LINE
  8
CSLAYER1
  6
CONTINUOUS
 62
     3
 10
1485.417937
 20
2148.574129
 11
1515.417937
 21
2148.574129
  0
ARC
  8
CSLAYER1
  6
CONTINUOUS
 62
     3
 10
1485.417937
 20
2138.574129
 40
10.000000
 50
90.000000
 51
180.000000
  0
ARC
  8
CSLAYER1
  6
CONTINUOUS
 62
     3
 10
1515.417937
 20
2138.574129
 40
10.000000
 50
0.000000
 51
90.000000
  0
LINE
  8
CSLAYER1
  6
CENTER
 62
     5
 10
1500.417937
 20
2112.311328
 11
1500.417937
 21
2134.836930
  0
LINE
  8
CSLAYER1
  6
CENTER
 62
     5
 10
1489.155136
 20
2123.574129
 11
1511.680739
 21
2123.574129
  0
CIRCLE
  8
CSLAYER1
  6
CONTINUOUS
 62
     3
 10
1500.417937
 20
2123.574129
 40
6.500000
  0
LINE
  8
CSLAYER1
  6
CONTINUOUS
 62
     3
 10
765.189627
 20
834.947168
 11
965.189627
 21
834.947168
  0
LINE
  8
CSLAYER1
  6
CONTINUOUS
 62
     3
 10
765.189627
 20
834.947168
 11
765.189627
 21
800.947168
  0
LINE
  8
CSLAYER1
  6
CONTINUOUS
 62
     3
 10
965.189627
 20
834.947168
 11
965.189627
 21
800.947168
  0
LINE
  8
CSLAYER1
  6
CONTINUOUS
 62
     3
 10
1015.189627
 20
794.947168
 11
1015.189627
 21
800.947168
  0
LINE
  8
CSLAYER1
  6
CONTINUOUS
 62
     3
 10
939.689627
 20
794.947168
 11
939.689627
 21
834.947168
  0
LINE
  8
CSLAYER1
  6
CONTINUOUS
 62
     3
 10
1015.189627
 20
800.947168
 11
939.689627
 21
800.947168
  0
LINE
  8
CSLAYER1
  6
CONTINUOUS
 62
     3
 10
942.689627
 20
823.416824
 11
942.689627
 21
801.477513
  0
LINE
  8
CSLAYER1
  6
CONTINUOUS
 62
     3
 10
939.689627
 20
801.697168
 11
942.689627
 21
801.697168
  0
LINE
  8
CSLAYER1
  6
CONTINUOUS
 62
     3
 10
939.689627
 20
823.197168
 11
942.689627
 21
823.197168
  0
LINE
  8
CSLAYER1
  6
CONTINUOUS
 62
     3
 10
939.689627
 20
813.959365
 11
942.689627
 21
810.459365
  0
LINE
  8
CSLAYER1
  6
CONTINUOUS
 62
     3
 10
950.689627
 20
803.447168
 11
950.689627
 21
821.447168
  0
LINE
  8
CSLAYER1
  6
CONTINUOUS
 62
     3
 10
942.689627
 20
806.962341
 11
949.552446
 21
806.962341
  0
LINE
  8
CSLAYER1
  6
CONTINUOUS
 62
     3
 10
942.689627
 20
801.477513
 11
949.552446
 21
801.477513
  0
LINE
  8
CSLAYER1
  6
CONTINUOUS
 62
     3
 10
950.689627
 20
803.447168
 11
949.552446
 21
801.477513
  0
ARC
  8
CSLAYER1
  6
CONTINUOUS
 62
     3
 10
946.909583
 20
804.219927
 40
3.808617
 50
5.661633
 51
46.059028
  0
ARC
  8
CSLAYER1
  6
CONTINUOUS
 62
     3
 10
936.893883
 20
812.447168
 40
13.795744
 50
-23.426598
 51
23.426598
  0
LINE
  8
CSLAYER1
  6
CONTINUOUS
 62
     3
 10
942.689627
 20
817.931996
 11
949.552446
 21
817.931996
  0
LINE
  8
CSLAYER1
  6
CONTINUOUS
 62
     3
 10
942.689627
 20
823.416824
 11
949.552446
 21
823.416824
  0
LINE
  8
CSLAYER1
  6
CONTINUOUS
 62
     3
 10
950.689627
 20
821.447168
 11
949.552446
 21
823.416824
  0
ARC
  8
CSLAYER1
  6
CONTINUOUS
 62
     3
 10
946.909583
 20
820.674410
 40
3.808617
 50
313.940972
 51
354.338367
  0
LINE
  8
CSLAYER1
  6
CENTER
 62
     5
 10
939.689627
 20
812.447168
 11
950.689627
 21
812.447168
  0
LINE
  8
CSLAYER1
  6
CONTINUOUS
 62
     3
 10
715.189627
 20
794.947168
 11
715.189627
 21
800.947168
  0
LINE
  8
CSLAYER1
  6
CONTINUOUS
 62
     3
 10
715.189627
 20
800.947168
 11
790.689627
 21
800.947168
  0
LINE
  8
CSLAYER1
  6
CONTINUOUS
 62
     3
 10
787.689627
 20
823.416824
 11
787.689627
 21
801.477513
  0
LINE
  8
CSLAYER1
  6
CONTINUOUS
 62
     3
 10
790.689627
 20
801.697168
 11
787.689627
 21
801.697168
  0
LINE
  8
CSLAYER1
  6
CONTINUOUS
 62
     3
 10
790.689627
 20
823.197168
 11
787.689627
 21
823.197168
  0
LINE
  8
CSLAYER1
  6
CONTINUOUS
 62
     3
 10
790.689627
 20
813.959365
 11
787.689627
 21
810.459365
  0
LINE
  8
CSLAYER1
  6
CONTINUOUS
 62
     3
 10
779.689627
 20
803.447168
 11
779.689627
 21
821.447168
  0
LINE
  8
CSLAYER1
  6
CONTINUOUS
 62
     3
 10
787.689627
 20
806.962341
 11
780.826808
 21
806.962341
  0
LINE
  8
CSLAYER1
  6
CONTINUOUS
 62
     3
 10
787.689627
 20
801.477513
 11
780.826808
 21
801.477513
  0
LINE
  8
CSLAYER1
  6
CONTINUOUS
 62
     3
 10
779.689627
 20
803.447168
 11
780.826808
 21
801.477513
  0
ARC
  8
CSLAYER1
  6
CONTINUOUS
 62
     3
 10
783.469671
 20
804.219927
 40
3.808617
 50
133.940972
 51
174.338367
  0
ARC
  8
CSLAYER1
  6
CONTINUOUS
 62
     3
 10
793.485371
 20
812.447168
 40
13.795744
 50
156.573402
 51
203.426598
  0
LINE
  8
CSLAYER1
  6
CONTINUOUS
 62
     3
 10
787.689627
 20
817.931996
 11
780.826808
 21
817.931996
  0
LINE
  8
CSLAYER1
  6
CONTINUOUS
 62
     3
 10
787.689627
 20
823.416824
 11
780.826808
 21
823.416824
  0
LINE
  8
CSLAYER1
  6
CONTINUOUS
 62
     3
 10
779.689627
 20
821.447168
 11
780.826808
 21
823.416824
  0
ARC
  8
CSLAYER1
  6
CONTINUOUS
 62
     3
 10
783.469671
 20
820.674410
 40
3.808617
 50
185.661633
 51
226.059028
  0
LINE
  8
CSLAYER1
  6
CENTER
 62
     5
 10
790.689627
 20
812.447168
 11
779.689627
 21
812.447168
  0
LINE
  8
CSLAYER1
  6
CONTINUOUS
 62
     3
 10
790.689627
 20
794.947168
 11
790.689627
 21
834.947168
  0
CIRCLE
  8
CSLAYER1
  6
CONTINUOUS
 62
     3
 10
835.189627
 20
814.947168
 40
12.500000
  0
LINE
  8
CSLAYER1
  6
CONTINUOUS
 62
     3
 10
911.189627
 20
834.947168
 11
911.189627
 21
1356.925279
  0
LINE
  8
CSLAYER1
  6
CONTINUOUS
 62
     3
 10
920.189627
 20
834.947168
 11
920.189627
 21
1356.925279
  0
LINE
  8
CSLAYER1
  6
CONTINUOUS
 62
     3
 10
923.189627
 20
834.947168
 11
923.189627
 21
1344.625279
  0
LINE
  8
CSLAYER1
  6
CONTINUOUS
 62
     3
 10
932.189627
 20
834.947168
 11
932.189627
 21
1344.155624
  0
LINE
  8
CSLAYER1
  6
CENTER
 62
     5
 10
810.189627
 20
1127.457380
 11
920.189627
 21
1127.457380
  0
LINE
  8
CSLAYER1
  6
CONTINUOUS
 62
     3
 10
819.189627
 20
1100.410693
 11
840.189627
 21
1100.410693
  0
LINE
  8
CSLAYER1
  6
CONTINUOUS
 62
     3
 10
819.189627
 20
1051.810693
 11
857.689627
 21
1051.810693
  0
LINE
  8
CSLAYER1
  6
CONTINUOUS
 62
     3
 10
943.689627
 20
1070.724405
 11
943.189627
 21
1070.724405
  0
LINE
  8
CSLAYER1
  6
CONTINUOUS
 62
     3
 10
932.689627
 20
1086.224405
 11
932.689627
 21
1065.224405
  0
LINE
  8
CSLAYER1
  6
CONTINUOUS
 62
     3
 10
944.689627
 20
1071.724405
 11
944.689627
 21
1079.724405
  0
LINE
  8
CSLAYER1
  6
CONTINUOUS
 62
     3
 10
923.189627
 20
1089.724405
 11
920.189627
 21
1089.724405
  0
LINE
  8
CSLAYER1
  6
CONTINUOUS
 62
     3
 10
923.189627
 20
1061.724405
 11
920.189627
 21
1061.724405
  0
LINE
  8
CSLAYER1
  6
CONTINUOUS
 62
     3
 10
934.689627
 20
1086.224405
 11
934.689627
 21
1065.224405
  0
LINE
  8
CSLAYER1
  6
CONTINUOUS
 62
     3
 10
937.189627
 20
1084.924405
 11
937.189627
 21
1066.524405
  0
LINE
  8
CSLAYER1
  6
CONTINUOUS
 62
     3
 10
937.189627
 20
1066.524405
 11
934.689627
 21
1066.524405
  0
LINE
  8
CSLAYER1
  6
CONTINUOUS
 62
     3
 10
934.689627
 20
1065.224405
 11
932.689627
 21
1065.224405
  0
LINE
  8
CSLAYER1
  6
CONTINUOUS
 62
     3
 10
937.189627
 20
1084.924405
 11
934.689627
 21
1084.924405
  0
LINE
  8
CSLAYER1
  6
CONTINUOUS
 62
     3
 10
934.689627
 20
1086.224405
 11
932.689627
 21
1086.224405
  0
LINE
  8
CSLAYER1
  6
CONTINUOUS
 62
     3
 10
943.189627
 20
1084.224405
 11
943.189627
 21
1067.224405
  0
LINE
  8
CSLAYER1
  6
CONTINUOUS
 62
     3
 10
943.689627
 20
1070.724405
 11
944.689627
 21
1071.724405
  0
LINE
  8
CSLAYER1
  6
CONTINUOUS
 62
     3
 10
944.389627
 20
1071.424405
 11
943.189627
 21
1071.424405
  0
LINE
  8
CSLAYER1
  6
CONTINUOUS
 62
     3
 10
943.689627
 20
1070.724405
 11
943.689627
 21
1080.724405
  0
LINE
  8
CSLAYER1
  6
CONTINUOUS
 62
     3
 10
942.430438
 20
1065.909450
 11
937.948816
 21
1065.909450
  0
LINE
  8
CSLAYER1
  6
CONTINUOUS
 62
     3
 10
942.430438
 20
1070.816927
 11
937.948816
 21
1070.816927
  0
LINE
  8
CSLAYER1
  6
CONTINUOUS
 62
     3
 10
943.189627
 20
1067.224405
 11
942.430438
 21
1065.909450
  0
ARC
  8
CSLAYER1
  6
CONTINUOUS
 62
     3
 10
926.948816
 20
1075.724405
 40
16.240811
 50
-17.587954
 51
17.587954
  0
ARC
  8
CSLAYER1
  6
CONTINUOUS
 62
     3
 10
938.848703
 20
1068.363189
 40
4.341619
 50
-27.480777
 51
34.413868
  0
LINE
  8
CSLAYER1
  6
CONTINUOUS
 62
     3
 10
943.189627
 20
1084.224405
 11
942.430438
 21
1085.539359
  0
ARC
  8
CSLAYER1
  6
CONTINUOUS
 62
     3
 10
938.848703
 20
1083.085621
 40
4.341619
 50
-34.413868
 51
27.480777
  0
LINE
  8
CSLAYER1
  6
CONTINUOUS
 62
     3
 10
937.189627
 20
1067.224405
 11
937.948816
 21
1065.909450
  0
ARC
  8
CSLAYER1
  6
CONTINUOUS
 62
     3
 10
953.430438
 20
1075.724405
 40
16.240811
 50
162.412046
 51
197.587954
  0
ARC
  8
CSLAYER1
  6
CONTINUOUS
 62
     3
 10
941.530551
 20
1068.363189
 40
4.341619
 50
145.586132
 51
207.480777
  0
LINE
  8
CSLAYER1
  6
CONTINUOUS
 62
     3
 10
937.189627
 20
1084.224405
 11
937.948816
 21
1085.539359
  0
ARC
  8
CSLAYER1
  6
CONTINUOUS
 62
     3
 10
941.530551
 20
1083.085621
 40
4.341619
 50
152.519223
 51
214.413868
  0
LINE
  8
CSLAYER1
  6
CONTINUOUS
 62
     3
 10
942.430438
 20
1085.539359
 11
937.948816
 21
1085.539359
  0
LINE
  8
CSLAYER1
  6
CONTINUOUS
 62
     3
 10
942.430438
 20
1080.631882
 11
937.948816
 21
1080.631882
  0
LINE
  8
CSLAYER1
  6
CONTINUOUS
 62
     3
 10
943.689627
 20
1080.724405
 11
943.189627
 21
1080.724405
  0
LINE
  8
CSLAYER1
  6
CONTINUOUS
 62
     3
 10
943.689627
 20
1080.724405
 11
944.689627
 21
1079.724405
  0
LINE
  8
CSLAYER1
  6
CONTINUOUS
 62
     3
 10
944.389627
 20
1080.024405
 11
943.189627
 21
1080.024405
  0
LINE
  8
CSLAYER1
  6
CONTINUOUS
 62
     3
 10
934.689627
 20
1077.625852
 11
937.189627
 21
1074.256287
  0
LINE
  8
CSLAYER1
  6
CONTINUOUS
 62
     3
 10
932.189627
 20
1068.224405
 11
932.689627
 21
1068.224405
  0
LINE
  8
CSLAYER1
  6
CONTINUOUS
 62
     3
 10
932.189627
 20
1083.224405
 11
932.689627
 21
1083.224405
  0
LINE
  8
CSLAYER1
  6
CENTER
 62
     5
 10
875.689627
 20
1141.057380
 11
875.689627
 21
868.481726
  0
LINE
  8
CSLAYER1
  6
CONTINUOUS
 62
     3
 10
904.689627
 20
848.229631
 11
904.689627
 21
903.093521
  0
LINE
  8
CSLAYER1
  6
CONTINUOUS
 62
     3
 10
898.689627
 20
848.229631
 11
898.689627
 21
903.093521
  0
LINE
  8
CSLAYER1
  6
CONTINUOUS
 62
     3
 10
846.689627
 20
848.229631
 11
846.689627
 21
903.093521
  0
LINE
  8
CSLAYER1
  6
CONTINUOUS
 62
     3
 10
852.689627
 20
848.229631
 11
852.689627
 21
903.093521
  0
LINE
  8
CSLAYER1
  6
CONTINUOUS
 62
     3
 10
898.189627
 20
1114.857380
 11
898.189627
 21
1140.057380
  0
LINE
  8
CSLAYER1
  6
CONTINUOUS
 62
     3
 10
853.189627
 20
1114.857380
 11
853.189627
 21
1140.057380
  0
LINE
  8
CSLAYER1
  6
CONTINUOUS
 62
     3
 10
854.189627
 20
1141.057380
 11
897.189627
 21
1141.057380
  0
LINE
  8
CSLAYER1
  6
CONTINUOUS
 62
     3
 10
853.189627
 20
1140.057380
 11
854.189627
 21
1141.057380
  0
LINE
  8
CSLAYER1
  6
CONTINUOUS
 62
     3
 10
897.189627
 20
1141.057380
 11
898.189627
 21
1140.057380
  0
POINT
  8
CSLAYER1
 62
     3
 10
875.689627
 20
1127.457380
  0
LINE
  8
CSLAYER1
  6
CONTINUOUS
 62
     3
 10
899.189627
 20
1135.457380
 11
898.189627
 21
1135.457380
  0
LINE
  8
CSLAYER1
  6
CONTINUOUS
 62
     3
 10
853.189627
 20
1135.457380
 11
852.189627
 21
1135.457380
  0
LINE
  8
CSLAYER1
  6
CENTER
 62
     5
 10
846.689627
 20
887.028658
 11
904.689627
 21
887.028658
  0
LINE
  8
CSLAYER1
  6
CONTINUOUS
 62
     3
 10
807.189627
 20
868.481726
 11
810.189627
 21
868.481726
  0
LINE
  8
CSLAYER1
  6
CONTINUOUS
 62
     3
 10
846.689627
 20
848.229631
 11
852.689627
 21
848.229631
  0
LINE
  8
CSLAYER1
  6
CONTINUOUS
 62
     3
 10
846.689627
 20
903.093521
 11
852.689627
 21
903.093521
  0
LINE
  8
CSLAYER1
  6
CONTINUOUS
 62
     3
 10
898.689627
 20
903.093521
 11
904.689627
 21
903.093521
  0
LINE
  8
CSLAYER1
  6
CONTINUOUS
 62
     3
 10
898.689627
 20
848.229631
 11
904.689627
 21
848.229631
  0
LINE
  8
CSLAYER1
  6
CONTINUOUS
 62
     3
 10
852.689627
 20
868.481726
 11
898.689627
 21
868.481726
  0
LINE
  8
CSLAYER1
  6
CONTINUOUS
 62
     3
 10
904.689627
 20
868.481726
 11
911.189627
 21
868.481726
  0
LINE
  8
CSLAYER1
  6
CONTINUOUS
 62
     3
 10
920.189627
 20
868.481726
 11
923.189627
 21
868.481726
  0
LINE
  8
CSLAYER1
  6
CONTINUOUS
 62
     3
 10
898.602105
 20
1023.465609
 11
903.084981
 21
1006.176383
  0
LINE
  8
CSLAYER1
  6
CONTINUOUS
 62
     3
 10
898.602105
 20
1023.465609
 11
898.340205
 21
1024.430054
  0
LINE
  8
CSLAYER1
  6
CONTINUOUS
 62
     3
 10
898.340205
 20
1024.430054
 11
897.905921
 21
1025.379762
  0
LINE
  8
CSLAYER1
  6
CONTINUOUS
 62
     3
 10
897.905921
 20
1025.379762
 11
897.302557
 21
1026.307506
  0
LINE
  8
CSLAYER1
  6
CONTINUOUS
 62
     3
 10
897.302557
 20
1026.307506
 11
896.534706
 21
1027.206225
  0
LINE
  8
CSLAYER1
  6
CONTINUOUS
 62
     3
 10
896.534706
 20
1027.206225
 11
895.608211
 21
1028.069079
  0
LINE
  8
CSLAYER1
  6
CONTINUOUS
 62
     3
 10
895.608211
 20
1028.069079
 11
894.530124
 21
1028.889502
  0
LINE
  8
CSLAYER1
  6
CONTINUOUS
 62
     3
 10
894.530124
 20
1028.889502
 11
893.308649
 21
1029.661250
  0
LINE
  8
CSLAYER1
  6
CONTINUOUS
 62
     3
 10
893.308649
 20
1029.661250
 11
891.953083
 21
1030.378449
  0
LINE
  8
CSLAYER1
  6
CONTINUOUS
 62
     3
 10
891.953083
 20
1030.378449
 11
890.473742
 21
1031.035640
  0
LINE
  8
CSLAYER1
  6
CONTINUOUS
 62
     3
 10
890.473742
 20
1031.035640
 11
888.881885
 21
1031.627823
  0
LINE
  8
CSLAYER1
  6
CONTINUOUS
 62
     3
 10
888.881885
 20
1031.627823
 11
887.189627
 21
1032.150490
  0
LINE
  8
CSLAYER1
  6
CONTINUOUS
 62
     3
 10
887.189627
 20
1032.150490
 11
885.409847
 21
1032.599664
  0
LINE
  8
CSLAYER1
  6
CONTINUOUS
 62
     3
 10
885.409847
 20
1032.599664
 11
883.556090
 21
1032.971925
  0
LINE
  8
CSLAYER1
  6
CONTINUOUS
 62
     3
 10
883.556090
 20
1032.971925
 11
881.642465
 21
1033.264442
  0
LINE
  8
CSLAYER1
  6
CONTINUOUS
 62
     3
 10
881.642465
 20
1033.264442
 11
879.683535
 21
1033.474987
  0
LINE
  8
CSLAYER1
  6
CONTINUOUS
 62
     3
 10
879.683535
 20
1033.474987
 11
877.694209
 21
1033.601958
  0
LINE
  8
CSLAYER1
  6
CONTINUOUS
 62
     3
 10
877.694209
 20
1033.601958
 11
875.689627
 21
1033.644390
  0
LINE
  8
CSLAYER1
  6
CONTINUOUS
 62
     3
 10
852.777149
 20
1023.465609
 11
848.294273
 21
1006.176383
  0
LINE
  8
CSLAYER1
  6
CONTINUOUS
 62
     3
 10
852.777149
 20
1023.465609
 11
853.039049
 21
1024.430054
  0
LINE
  8
CSLAYER1
  6
CONTINUOUS
 62
     3
 10
853.039049
 20
1024.430054
 11
853.473333
 21
1025.379762
  0
LINE
  8
CSLAYER1
  6
CONTINUOUS
 62
     3
 10
853.473333
 20
1025.379762
 11
854.076697
 21
1026.307506
  0
LINE
  8
CSLAYER1
  6
CONTINUOUS
 62
     3
 10
854.076697
 20
1026.307506
 11
854.844548
 21
1027.206225
  0
LINE
  8
CSLAYER1
  6
CONTINUOUS
 62
     3
 10
854.844548
 20
1027.206225
 11
855.771043
 21
1028.069079
  0
LINE
  8
CSLAYER1
  6
CONTINUOUS
 62
     3
 10
855.771043
 20
1028.069079
 11
856.849130
 21
1028.889502
  0
LINE
  8
CSLAYER1
  6
CONTINUOUS
 62
     3
 10
856.849130
 20
1028.889502
 11
858.070605
 21
1029.661250
  0
LINE
  8
CSLAYER1
  6
CONTINUOUS
 62
     3
 10
858.070605
 20
1029.661250
 11
859.426171
 21
1030.378449
  0
LINE
  8
CSLAYER1
  6
CONTINUOUS
 62
     3
 10
859.426171
 20
1030.378449
 11
860.905512
 21
1031.035640
  0
LINE
  8
CSLAYER1
  6
CONTINUOUS
 62
     3
 10
860.905512
 20
1031.035640
 11
862.497369
 21
1031.627823
  0
LINE
  8
CSLAYER1
  6
CONTINUOUS
 62
     3
 10
862.497369
 20
1031.627823
 11
864.189627
 21
1032.150490
  0
LINE
  8
CSLAYER1
  6
CONTINUOUS
 62
     3
 10
864.189627
 20
1032.150490
 11
865.969407
 21
1032.599664
  0
LINE
  8
CSLAYER1
  6
CONTINUOUS
 62
     3
 10
865.969407
 20
1032.599664
 11
867.823164
 21
1032.971925
  0
LINE
  8
CSLAYER1
  6
CONTINUOUS
 62
     3
 10
867.823164
 20
1032.971925
 11
869.736789
 21
1033.264442
  0
LINE
  8
CSLAYER1
  6
CONTINUOUS
 62
     3
 10
869.736789
 20
1033.264442
 11
871.695719
 21
1033.474987
  0
LINE
  8
CSLAYER1
  6
CONTINUOUS
 62
     3
 10
871.695719
 20
1033.474987
 11
873.685045
 21
1033.601958
  0
LINE
  8
CSLAYER1
  6
CONTINUOUS
 62
     3
 10
873.685045
 20
1033.601958
 11
875.689627
 21
1033.644390
  0
LINE
  8
CSLAYER1
  6
CONTINUOUS
 62
     3
 10
893.689627
 20
1029.420542
 11
893.689627
 21
1115.792260
  0
LINE
  8
CSLAYER1
  6
CONTINUOUS
 62
     3
 10
893.689627
 20
1115.792260
 11
893.621132
 21
1116.552831
  0
LINE
  8
CSLAYER1
  6
CONTINUOUS
 62
     3
 10
893.621132
 20
1116.552831
 11
893.416167
 21
1117.307613
  0
LINE
  8
CSLAYER1
  6
CONTINUOUS
 62
     3
 10
893.416167
 20
1117.307613
 11
893.076292
 21
1118.050863
  0
LINE
  8
CSLAYER1
  6
CONTINUOUS
 62
     3
 10
893.076292
 20
1118.050863
 11
892.604094
 21
1118.776924
  0
LINE
  8
CSLAYER1
  6
CONTINUOUS
 62
     3
 10
892.604094
 20
1118.776924
 11
892.003167
 21
1119.480269
  0
LINE
  8
CSLAYER1
  6
CONTINUOUS
 62
     3
 10
892.003167
 20
1119.480269
 11
891.278084
 21
1120.155547
  0
LINE
  8
CSLAYER1
  6
CONTINUOUS
 62
     3
 10
891.278084
 20
1120.155547
 11
890.434364
 21
1120.797617
  0
LINE
  8
CSLAYER1
  6
CONTINUOUS
 62
     3
 10
890.434364
 20
1120.797617
 11
889.478427
 21
1121.401593
  0
LINE
  8
CSLAYER1
  6
CONTINUOUS
 62
     3
 10
889.478427
 20
1121.401593
 11
888.417549
 21
1121.962879
  0
LINE
  8
CSLAYER1
  6
CONTINUOUS
 62
     3
 10
888.417549
 20
1121.962879
 11
887.259804
 21
1122.477203
  0
LINE
  8
CSLAYER1
  6
CONTINUOUS
 62
     3
 10
887.259804
 20
1122.477203
 11
886.014003
 21
1122.940650
  0
LINE
  8
CSLAYER1
  6
CONTINUOUS
 62
     3
 10
886.014003
 20
1122.940650
 11
884.689627
 21
1123.349694
  0
LINE
  8
CSLAYER1
  6
CONTINUOUS
 62
     3
 10
884.689627
 20
1123.349694
 11
883.296756
 21
1123.701221
  0
LINE
  8
CSLAYER1
  6
CONTINUOUS
 62
     3
 10
883.296756
 20
1123.701221
 11
881.845990
 21
1123.992556
  0
LINE
  8
CSLAYER1
  6
CONTINUOUS
 62
     3
 10
881.845990
 20
1123.992556
 11
880.348370
 21
1124.221482
  0
LINE
  8
CSLAYER1
  6
CONTINUOUS
 62
     3
 10
880.348370
 20
1124.221482
 11
878.815294
 21
1124.386257
  0
LINE
  8
CSLAYER1
  6
CONTINUOUS
 62
     3
 10
878.815294
 20
1124.386257
 11
877.258430
 21
1124.485626
  0
LINE
  8
CSLAYER1
  6
CONTINUOUS
 62
     3
 10
877.258430
 20
1124.485626
 11
875.689627
 21
1124.518833
  0
LINE
  8
CSLAYER1
  6
CONTINUOUS
 62
     3
 10
875.689627
 20
1124.518833
 11
874.120824
 21
1124.485626
  0
LINE
  8
CSLAYER1
  6
CONTINUOUS
 62
     3
 10
874.120824
 20
1124.485626
 11
872.563960
 21
1124.386257
  0
LINE
  8
CSLAYER1
  6
CONTINUOUS
 62
     3
 10
872.563960
 20
1124.386257
 11
871.030884
 21
1124.221482
  0
LINE
  8
CSLAYER1
  6
CONTINUOUS
 62
     3
 10
871.030884
 20
1124.221482
 11
869.533264
 21
1123.992556
  0
LINE
  8
CSLAYER1
  6
CONTINUOUS
 62
     3
 10
869.533264
 20
1123.992556
 11
868.082498
 21
1123.701221
  0
LINE
  8
CSLAYER1
  6
CONTINUOUS
 62
     3
 10
868.082498
 20
1123.701221
 11
866.689627
 21
1123.349694
  0
LINE
  8
CSLAYER1
  6
CONTINUOUS
 62
     3
 10
866.689627
 20
1123.349694
 11
865.365251
 21
1122.940650
  0
LINE
  8
CSLAYER1
  6
CONTINUOUS
 62
     3
 10
865.365251
 20
1122.940650
 11
864.119450
 21
1122.477203
  0
LINE
  8
CSLAYER1
  6
CONTINUOUS
 62
     3
 10
864.119450
 20
1122.477203
 11
862.961705
 21
1121.962879
  0
LINE
  8
CSLAYER1
  6
CONTINUOUS
 62
     3
 10
862.961705
 20
1121.962879
 11
861.900827
 21
1121.401593
  0
LINE
  8
CSLAYER1
  6
CONTINUOUS
 62
     3
 10
861.900827
 20
1121.401593
 11
860.944890
 21
1120.797617
  0
LINE
  8
CSLAYER1
  6
CONTINUOUS
 62
     3
 10
860.944890
 20
1120.797617
 11
860.101170
 21
1120.155547
  0
LINE
  8
CSLAYER1
  6
CONTINUOUS
 62
     3
 10
860.101170
 20
1120.155547
 11
859.376087
 21
1119.480269
  0
LINE
  8
CSLAYER1
  6
CONTINUOUS
 62
     3
 10
859.376087
 20
1119.480269
 11
858.775160
 21
1118.776924
  0
LINE
  8
CSLAYER1
  6
CONTINUOUS
 62
     3
 10
858.775160
 20
1118.776924
 11
858.302962
 21
1118.050863
  0
LINE
  8
CSLAYER1
  6
CONTINUOUS
 62
     3
 10
858.302962
 20
1118.050863
 11
857.963087
 21
1117.307613
  0
LINE
  8
CSLAYER1
  6
CONTINUOUS
 62
     3
 10
857.963087
 20
1117.307613
 11
857.758122
 21
1116.552831
  0
LINE
  8
CSLAYER1
  6
CONTINUOUS
 62
     3
 10
857.758122
 20
1116.552831
 11
857.689627
 21
1115.792260
  0
LINE
  8
CSLAYER1
  6
CONTINUOUS
 62
     3
 10
903.189627
 20
1005.014400
 11
903.189627
 21
974.425504
  0
LINE
  8
CSLAYER1
  6
CONTINUOUS
 62
     3
 10
903.189627
 20
1005.014400
 11
903.084981
 21
1006.176383
  0
LINE
  8
CSLAYER1
  6
CONTINUOUS
 62
     3
 10
903.084981
 20
1006.176383
 11
902.771840
 21
1007.329523
  0
LINE
  8
CSLAYER1
  6
CONTINUOUS
 62
     3
 10
902.771840
 20
1007.329523
 11
902.252587
 21
1008.465044
  0
LINE
  8
CSLAYER1
  6
CONTINUOUS
 62
     3
 10
902.252587
 20
1008.465044
 11
901.531174
 21
1009.574303
  0
LINE
  8
CSLAYER1
  6
CONTINUOUS
 62
     3
 10
901.531174
 20
1009.574303
 11
900.613091
 21
1010.648858
  0
LINE
  8
CSLAYER1
  6
CONTINUOUS
 62
     3
 10
900.613091
 20
1010.648858
 11
899.505326
 21
1011.680532
  0
LINE
  8
CSLAYER1
  6
CONTINUOUS
 62
     3
 10
899.505326
 20
1011.680532
 11
898.216308
 21
1012.661472
  0
LINE
  8
CSLAYER1
  6
CONTINUOUS
 62
     3
 10
898.216308
 20
1012.661472
 11
896.755849
 21
1013.584214
  0
LINE
  8
CSLAYER1
  6
CONTINUOUS
 62
     3
 10
896.755849
 20
1013.584214
 11
895.135063
 21
1014.441734
  0
LINE
  8
CSLAYER1
  6
CONTINUOUS
 62
     3
 10
895.135063
 20
1014.441734
 11
893.366286
 21
1015.227507
  0
LINE
  8
CSLAYER1
  6
CONTINUOUS
 62
     3
 10
893.366286
 20
1015.227507
 11
891.462979
 21
1015.935551
  0
LINE
  8
CSLAYER1
  6
CONTINUOUS
 62
     3
 10
891.462979
 20
1015.935551
 11
889.439627
 21
1016.560479
  0
LINE
  8
CSLAYER1
  6
CONTINUOUS
 62
     3
 10
889.439627
 20
1016.560479
 11
887.311629
 21
1017.097535
  0
LINE
  8
CSLAYER1
  6
CONTINUOUS
 62
     3
 10
887.311629
 20
1017.097535
 11
885.095181
 21
1017.542630
  0
LINE
  8
CSLAYER1
  6
CONTINUOUS
 62
     3
 10
885.095181
 20
1017.542630
 11
882.807151
 21
1017.892378
  0
LINE
  8
CSLAYER1
  6
CONTINUOUS
 62
     3
 10
882.807151
 20
1017.892378
 11
880.464952
 21
1018.144117
  0
LINE
  8
CSLAYER1
  6
CONTINUOUS
 62
     3
 10
880.464952
 20
1018.144117
 11
878.086410
 21
1018.295931
  0
LINE
  8
CSLAYER1
  6
CONTINUOUS
 62
     3
 10
878.086410
 20
1018.295931
 11
875.689627
 21
1018.346664
  0
LINE
  8
CSLAYER1
  6
CONTINUOUS
 62
     3
 10
875.689627
 20
1018.346664
 11
873.292844
 21
1018.295931
  0
LINE
  8
CSLAYER1
  6
CONTINUOUS
 62
     3
 10
873.292844
 20
1018.295931
 11
870.914302
 21
1018.144117
  0
LINE
  8
CSLAYER1
  6
CONTINUOUS
 62
     3
 10
870.914302
 20
1018.144117
 11
868.572103
 21
1017.892378
  0
LINE
  8
CSLAYER1
  6
CONTINUOUS
 62
     3
 10
868.572103
 20
1017.892378
 11
866.284073
 21
1017.542630
  0
LINE
  8
CSLAYER1
  6
CONTINUOUS
 62
     3
 10
866.284073
 20
1017.542630
 11
864.067625
 21
1017.097535
  0
LINE
  8
CSLAYER1
  6
CONTINUOUS
 62
     3
 10
864.067625
 20
1017.097535
 11
861.939627
 21
1016.560479
  0
LINE
  8
CSLAYER1
  6
CONTINUOUS
 62
     3
 10
861.939627
 20
1016.560479
 11
859.916275
 21
1015.935551
  0
LINE
  8
CSLAYER1
  6
CONTINUOUS
 62
     3
 10
859.916275
 20
1015.935551
 11
858.012968
 21
1015.227507
  0
LINE
  8
CSLAYER1
  6
CONTINUOUS
 62
     3
 10
858.012968
 20
1015.227507
 11
856.244190
 21
1014.441734
  0
LINE
  8
CSLAYER1
  6
CONTINUOUS
 62
     3
 10
856.244190
 20
1014.441734
 11
854.623405
 21
1013.584214
  0
LINE
  8
CSLAYER1
  6
CONTINUOUS
 62
     3
 10
854.623405
 20
1013.584214
 11
853.162946
 21
1012.661472
  0
LINE
  8
CSLAYER1
  6
CONTINUOUS
 62
     3
 10
853.162946
 20
1012.661472
 11
851.873928
 21
1011.680532
  0
LINE
  8
CSLAYER1
  6
CONTINUOUS
 62
     3
 10
851.873928
 20
1011.680532
 11
850.766163
 21
1010.648858
  0
LINE
  8
CSLAYER1
  6
CONTINUOUS
 62
     3
 10
850.766163
 20
1010.648858
 11
849.848080
 21
1009.574303
  0
LINE
  8
CSLAYER1
  6
CONTINUOUS
 62
     3
 10
849.848080
 20
1009.574303
 11
849.126667
 21
1008.465044
  0
LINE
  8
CSLAYER1
  6
CONTINUOUS
 62
     3
 10
849.126667
 20
1008.465044
 11
848.607414
 21
1007.329523
  0
LINE
  8
CSLAYER1
  6
CONTINUOUS
 62
     3
 10
848.607414
 20
1007.329523
 11
848.294273
 21
1006.176383
  0
LINE
  8
CSLAYER1
  6
CONTINUOUS
 62
     3
 10
848.294273
 20
1006.176383
 11
848.189627
 21
1005.014400
  0
LINE
  8
CSLAYER1
  6
CONTINUOUS
 62
     3
 10
848.189627
 20
1005.014400
 11
848.189627
 21
974.425504
  0
LINE
  8
CSLAYER1
  6
CONTINUOUS
 62
     3
 10
899.989627
 20
904.508027
 11
899.989627
 21
974.425504
  0
LINE
  8
CSLAYER1
  6
CONTINUOUS
 62
     3
 10
903.189627
 20
974.425504
 11
903.084981
 21
975.587487
  0
LINE
  8
CSLAYER1
  6
CONTINUOUS
 62
     3
 10
903.084981
 20
975.587487
 11
902.771840
 21
976.740627
  0
LINE
  8
CSLAYER1
  6
CONTINUOUS
 62
     3
 10
902.771840
 20
976.740627
 11
902.252587
 21
977.876148
  0
LINE
  8
CSLAYER1
  6
CONTINUOUS
 62
     3
 10
902.252587
 20
977.876148
 11
901.531174
 21
978.985407
  0
LINE
  8
CSLAYER1
  6
CONTINUOUS
 62
     3
 10
901.531174
 20
978.985407
 11
900.613091
 21
980.059962
  0
LINE
  8
CSLAYER1
  6
CONTINUOUS
 62
     3
 10
900.613091
 20
980.059962
 11
899.505326
 21
981.091636
  0
LINE
  8
CSLAYER1
  6
CONTINUOUS
 62
     3
 10
899.505326
 20
981.091636
 11
898.216308
 21
982.072576
  0
LINE
  8
CSLAYER1
  6
CONTINUOUS
 62
     3
 10
898.216308
 20
982.072576
 11
896.755849
 21
982.995318
  0
LINE
  8
CSLAYER1
  6
CONTINUOUS
 62
     3
 10
896.755849
 20
982.995318
 11
895.135063
 21
983.852838
  0
LINE
  8
CSLAYER1
  6
CONTINUOUS
 62
     3
 10
895.135063
 20
983.852838
 11
893.366286
 21
984.638611
  0
LINE
  8
CSLAYER1
  6
CONTINUOUS
 62
     3
 10
893.366286
 20
984.638611
 11
891.462979
 21
985.346655
  0
LINE
  8
CSLAYER1
  6
CONTINUOUS
 62
     3
 10
891.462979
 20
985.346655
 11
889.439627
 21
985.971583
  0
LINE
  8
CSLAYER1
  6
CONTINUOUS
 62
     3
 10
889.439627
 20
985.971583
 11
887.311629
 21
986.508639
  0
LINE
  8
CSLAYER1
  6
CONTINUOUS
 62
     3
 10
887.311629
 20
986.508639
 11
885.095181
 21
986.953734
  0
LINE
  8
CSLAYER1
  6
CONTINUOUS
 62
     3
 10
885.095181
 20
986.953734
 11
882.807151
 21
987.303482
  0
LINE
  8
CSLAYER1
  6
CONTINUOUS
 62
     3
 10
882.807151
 20
987.303482
 11
880.464952
 21
987.555221
  0
LINE
  8
CSLAYER1
  6
CONTINUOUS
 62
     3
 10
880.464952
 20
987.555221
 11
878.086410
 21
987.707035
  0
LINE
  8
CSLAYER1
  6
CONTINUOUS
 62
     3
 10
878.086410
 20
987.707035
 11
875.689627
 21
987.757768
  0
LINE
  8
CSLAYER1
  6
CONTINUOUS
 62
     3
 10
875.689627
 20
987.757768
 11
873.292844
 21
987.707035
  0
LINE
  8
CSLAYER1
  6
CONTINUOUS
 62
     3
 10
873.292844
 20
987.707035
 11
870.914302
 21
987.555221
  0
LINE
  8
CSLAYER1
  6
CONTINUOUS
 62
     3
 10
870.914302
 20
987.555221
 11
868.572103
 21
987.303482
  0
LINE
  8
CSLAYER1
  6
CONTINUOUS
 62
     3
 10
868.572103
 20
987.303482
 11
866.284073
 21
986.953734
  0
LINE
  8
CSLAYER1
  6
CONTINUOUS
 62
     3
 10
866.284073
 20
986.953734
 11
864.067625
 21
986.508639
  0
LINE
  8
CSLAYER1
  6
CONTINUOUS
 62
     3
 10
864.067625
 20
986.508639
 11
861.939627
 21
985.971583
  0
LINE
  8
CSLAYER1
  6
CONTINUOUS
 62
     3
 10
861.939627
 20
985.971583
 11
859.916275
 21
985.346655
  0
LINE
  8
CSLAYER1
  6
CONTINUOUS
 62
     3
 10
859.916275
 20
985.346655
 11
858.012968
 21
984.638611
  0
LINE
  8
CSLAYER1
  6
CONTINUOUS
 62
     3
 10
858.012968
 20
984.638611
 11
856.244190
 21
983.852838
  0
LINE
  8
CSLAYER1
  6
CONTINUOUS
 62
     3
 10
856.244190
 20
983.852838
 11
854.623405
 21
982.995318
  0
LINE
  8
CSLAYER1
  6
CONTINUOUS
 62
     3
 10
854.623405
 20
982.995318
 11
853.162946
 21
982.072576
  0
LINE
  8
CSLAYER1
  6
CONTINUOUS
 62
     3
 10
853.162946
 20
982.072576
 11
851.873928
 21
981.091636
  0
LINE
  8
CSLAYER1
  6
CONTINUOUS
 62
     3
 10
851.873928
 20
981.091636
 11
850.766163
 21
980.059962
  0
LINE
  8
CSLAYER1
  6
CONTINUOUS
 62
     3
 10
850.766163
 20
980.059962
 11
849.848080
 21
978.985407
  0
LINE
  8
CSLAYER1
  6
CONTINUOUS
 62
     3
 10
849.848080
 20
978.985407
 11
849.126667
 21
977.876148
  0
LINE
  8
CSLAYER1
  6
CONTINUOUS
 62
     3
 10
849.126667
 20
977.876148
 11
848.607414
 21
976.740627
  0
LINE
  8
CSLAYER1
  6
CONTINUOUS
 62
     3
 10
848.607414
 20
976.740627
 11
848.294273
 21
975.587487
  0
LINE
  8
CSLAYER1
  6
CONTINUOUS
 62
     3
 10
848.294273
 20
975.587487
 11
848.189627
 21
974.425504
  0
LINE
  8
CSLAYER1
  6
CONTINUOUS
 62
     3
 10
848.189627
 20
974.425504
 11
848.294273
 21
973.263520
  0
LINE
  8
CSLAYER1
  6
CONTINUOUS
 62
     3
 10
848.294273
 20
973.263520
 11
848.607414
 21
972.110380
  0
LINE
  8
CSLAYER1
  6
CONTINUOUS
 62
     3
 10
848.607414
 20
972.110380
 11
849.126667
 21
970.974860
  0
LINE
  8
CSLAYER1
  6
CONTINUOUS
 62
     3
 10
849.126667
 20
970.974860
 11
849.848080
 21
969.865601
  0
LINE
  8
CSLAYER1
  6
CONTINUOUS
 62
     3
 10
849.848080
 20
969.865601
 11
850.766163
 21
968.791045
  0
LINE
  8
CSLAYER1
  6
CONTINUOUS
 62
     3
 10
850.766163
 20
968.791045
 11
851.389627
 21
968.210406
  0
LINE
  8
CSLAYER1
  6
CONTINUOUS
 62
     3
 10
899.989627
 20
968.210406
 11
900.613091
 21
968.791045
  0
LINE
  8
CSLAYER1
  6
CONTINUOUS
 62
     3
 10
900.613091
 20
968.791045
 11
901.531174
 21
969.865601
  0
LINE
  8
CSLAYER1
  6
CONTINUOUS
 62
     3
 10
901.531174
 20
969.865601
 11
902.252587
 21
970.974860
  0
LINE
  8
CSLAYER1
  6
CONTINUOUS
 62
     3
 10
902.252587
 20
970.974860
 11
902.771840
 21
972.110380
  0
LINE
  8
CSLAYER1
  6
CONTINUOUS
 62
     3
 10
902.771840
 20
972.110380
 11
903.084981
 21
973.263520
  0
LINE
  8
CSLAYER1
  6
CONTINUOUS
 62
     3
 10
903.084981
 20
973.263520
 11
903.189627
 21
974.425504
  0
LINE
  8
CSLAYER1
  6
CONTINUOUS
 62
     3
 10
899.989627
 20
974.425504
 11
899.897158
 21
975.452274
  0
LINE
  8
CSLAYER1
  6
CONTINUOUS
 62
     3
 10
899.897158
 20
975.452274
 11
899.620455
 21
976.471231
  0
LINE
  8
CSLAYER1
  6
CONTINUOUS
 62
     3
 10
899.620455
 20
976.471231
 11
899.161625
 21
977.474618
  0
LINE
  8
CSLAYER1
  6
CONTINUOUS
 62
     3
 10
899.161625
 20
977.474618
 11
898.524158
 21
978.454800
  0
LINE
  8
CSLAYER1
  6
CONTINUOUS
 62
     3
 10
898.524158
 20
978.454800
 11
897.712906
 21
979.404316
  0
LINE
  8
CSLAYER1
  6
CONTINUOUS
 62
     3
 10
897.712906
 20
979.404316
 11
896.734044
 21
980.315941
  0
LINE
  8
CSLAYER1
  6
CONTINUOUS
 62
     3
 10
896.734044
 20
980.315941
 11
895.595022
 21
981.182735
  0
LINE
  8
CSLAYER1
  6
CONTINUOUS
 62
     3
 10
895.595022
 20
981.182735
 11
894.304507
 21
981.998103
  0
LINE
  8
CSLAYER1
  6
CONTINUOUS
 62
     3
 10
894.304507
 20
981.998103
 11
892.872322
 21
982.755839
  0
LINE
  8
CSLAYER1
  6
CONTINUOUS
 62
     3
 10
892.872322
 20
982.755839
 11
891.309366
 21
983.450177
  0
LINE
  8
CSLAYER1
  6
CONTINUOUS
 62
     3
 10
891.309366
 20
983.450177
 11
889.627534
 21
984.075830
  0
LINE
  8
CSLAYER1
  6
CONTINUOUS
 62
     3
 10
889.627534
 20
984.075830
 11
887.839627
 21
984.628040
  0
LINE
  8
CSLAYER1
  6
CONTINUOUS
 62
     3
 10
887.839627
 20
984.628040
 11
885.959251
 21
985.102601
  0
LINE
  8
CSLAYER1
  6
CONTINUOUS
 62
     3
 10
885.959251
 20
985.102601
 11
884.000716
 21
985.495904
  0
LINE
  8
CSLAYER1
  6
CONTINUOUS
 62
     3
 10
884.000716
 20
985.495904
 11
881.978930
 21
985.804954
  0
LINE
  8
CSLAYER1
  6
CONTINUOUS
 62
     3
 10
881.978930
 20
985.804954
 11
879.909278
 21
986.027399
  0
LINE
  8
CSLAYER1
  6
CONTINUOUS
 62
     3
 10
879.909278
 20
986.027399
 11
877.807512
 21
986.161548
  0
LINE
  8
CSLAYER1
  6
CONTINUOUS
 62
     3
 10
877.807512
 20
986.161548
 11
875.689627
 21
986.206377
  0
LINE
  8
CSLAYER1
  6
CONTINUOUS
 62
     3
 10
875.689627
 20
986.206377
 11
873.571742
 21
986.161548
  0
LINE
  8
CSLAYER1
  6
CONTINUOUS
 62
     3
 10
873.571742
 20
986.161548
 11
871.469976
 21
986.027399
  0
LINE
  8
CSLAYER1
  6
CONTINUOUS
 62
     3
 10
871.469976
 20
986.027399
 11
869.400324
 21
985.804954
  0
LINE
  8
CSLAYER1
  6
CONTINUOUS
 62
     3
 10
869.400324
 20
985.804954
 11
867.378537
 21
985.495904
  0
LINE
  8
CSLAYER1
  6
CONTINUOUS
 62
     3
 10
867.378537
 20
985.495904
 11
865.420003
 21
985.102601
  0
LINE
  8
CSLAYER1
  6
CONTINUOUS
 62
     3
 10
865.420003
 20
985.102601
 11
863.539627
 21
984.628040
  0
LINE
  8
CSLAYER1
  6
CONTINUOUS
 62
     3
 10
863.539627
 20
984.628040
 11
861.751720
 21
984.075830
  0
LINE
  8
CSLAYER1
  6
CONTINUOUS
 62
     3
 10
861.751720
 20
984.075830
 11
860.069888
 21
983.450177
  0
LINE
  8
CSLAYER1
  6
CONTINUOUS
 62
     3
 10
860.069888
 20
983.450177
 11
858.506932
 21
982.755839
  0
LINE
  8
CSLAYER1
  6
CONTINUOUS
 62
     3
 10
858.506932
 20
982.755839
 11
857.074747
 21
981.998103
  0
LINE
  8
CSLAYER1
  6
CONTINUOUS
 62
     3
 10
857.074747
 20
981.998103
 11
855.784232
 21
981.182735
  0
LINE
  8
CSLAYER1
  6
CONTINUOUS
 62
     3
 10
855.784232
 20
981.182735
 11
854.645210
 21
980.315941
  0
LINE
  8
CSLAYER1
  6
CONTINUOUS
 62
     3
 10
854.645210
 20
980.315941
 11
853.666348
 21
979.404316
  0
LINE
  8
CSLAYER1
  6
CONTINUOUS
 62
     3
 10
853.666348
 20
979.404316
 11
852.855096
 21
978.454800
  0
LINE
  8
CSLAYER1
  6
CONTINUOUS
 62
     3
 10
852.855096
 20
978.454800
 11
852.217629
 21
977.474618
  0
LINE
  8
CSLAYER1
  6
CONTINUOUS
 62
     3
 10
852.217629
 20
977.474618
 11
851.758799
 21
976.471231
  0
LINE
  8
CSLAYER1
  6
CONTINUOUS
 62
     3
 10
851.758799
 20
976.471231
 11
851.482096
 21
975.452274
  0
LINE
  8
CSLAYER1
  6
CONTINUOUS
 62
     3
 10
851.482096
 20
975.452274
 11
851.389627
 21
974.425504
  0
LINE
  8
CSLAYER1
  6
CONTINUOUS
 62
     3
 10
851.389627
 20
904.508027
 11
851.389627
 21
974.425504
  0
LINE
  8
CSLAYER1
  6
CONTINUOUS
 62
     3
 10
857.689627
 20
1029.420542
 11
857.689627
 21
1115.792260
  0
LINE
  8
CSLAYER1
  6
CONTINUOUS
 62
     3
 10
898.189627
 20
873.919131
 11
898.189627
 21
904.508027
  0
LINE
  8
CSLAYER1
  6
CONTINUOUS
 62
     3
 10
898.189627
 20
904.508027
 11
898.104008
 21
905.458741
  0
LINE
  8
CSLAYER1
  6
CONTINUOUS
 62
     3
 10
898.104008
 20
905.458741
 11
897.847801
 21
906.402219
  0
LINE
  8
CSLAYER1
  6
CONTINUOUS
 62
     3
 10
897.847801
 20
906.402219
 11
897.422958
 21
907.331281
  0
LINE
  8
CSLAYER1
  6
CONTINUOUS
 62
     3
 10
897.422958
 20
907.331281
 11
896.832711
 21
908.238857
  0
LINE
  8
CSLAYER1
  6
CONTINUOUS
 62
     3
 10
896.832711
 20
908.238857
 11
896.081552
 21
909.118039
  0
LINE
  8
CSLAYER1
  6
CONTINUOUS
 62
     3
 10
896.081552
 20
909.118039
 11
895.175199
 21
909.962135
  0
LINE
  8
CSLAYER1
  6
CONTINUOUS
 62
     3
 10
895.175199
 20
909.962135
 11
894.120548
 21
910.764723
  0
LINE
  8
CSLAYER1
  6
CONTINUOUS
 62
     3
 10
894.120548
 20
910.764723
 11
892.925627
 21
911.519694
  0
LINE
  8
CSLAYER1
  6
CONTINUOUS
 62
     3
 10
892.925627
 20
911.519694
 11
891.599530
 21
912.221301
  0
LINE
  8
CSLAYER1
  6
CONTINUOUS
 62
     3
 10
891.599530
 20
912.221301
 11
890.152348
 21
912.864206
  0
LINE
  8
CSLAYER1
  6
CONTINUOUS
 62
     3
 10
890.152348
 20
912.864206
 11
888.595097
 21
913.443515
  0
LINE
  8
CSLAYER1
  6
CONTINUOUS
 62
     3
 10
888.595097
 20
913.443515
 11
886.939627
 21
913.954820
  0
LINE
  8
CSLAYER1
  6
CONTINUOUS
 62
     3
 10
886.939627
 20
913.954820
 11
885.198538
 21
914.394229
  0
LINE
  8
CSLAYER1
  6
CONTINUOUS
 62
     3
 10
885.198538
 20
914.394229
 11
883.385080
 21
914.758398
  0
LINE
  8
CSLAYER1
  6
CONTINUOUS
 62
     3
 10
883.385080
 20
914.758398
 11
881.513055
 21
915.044555
  0
LINE
  8
CSLAYER1
  6
CONTINUOUS
 62
     3
 10
881.513055
 20
915.044555
 11
879.596711
 21
915.250523
  0
LINE
  8
CSLAYER1
  6
CONTINUOUS
 62
     3
 10
879.596711
 20
915.250523
 11
877.650631
 21
915.374735
  0
LINE
  8
CSLAYER1
  6
CONTINUOUS
 62
     3
 10
877.650631
 20
915.374735
 11
875.689627
 21
915.416244
  0
LINE
  8
CSLAYER1
  6
CONTINUOUS
 62
     3
 10
875.689627
 20
915.416244
 11
873.728623
 21
915.374735
  0
LINE
  8
CSLAYER1
  6
CONTINUOUS
 62
     3
 10
873.728623
 20
915.374735
 11
871.782543
 21
915.250523
  0
LINE
  8
CSLAYER1
  6
CONTINUOUS
 62
     3
 10
871.782543
 20
915.250523
 11
869.866198
 21
915.044555
  0
LINE
  8
CSLAYER1
  6
CONTINUOUS
 62
     3
 10
869.866198
 20
915.044555
 11
867.994174
 21
914.758398
  0
LINE
  8
CSLAYER1
  6
CONTINUOUS
 62
     3
 10
867.994174
 20
914.758398
 11
866.180716
 21
914.394229
  0
LINE
  8
CSLAYER1
  6
CONTINUOUS
 62
     3
 10
866.180716
 20
914.394229
 11
864.439627
 21
913.954820
  0
LINE
  8
CSLAYER1
  6
CONTINUOUS
 62
     3
 10
864.439627
 20
913.954820
 11
862.784157
 21
913.443515
  0
LINE
  8
CSLAYER1
  6
CONTINUOUS
 62
     3
 10
862.784157
 20
913.443515
 11
861.226906
 21
912.864206
  0
LINE
  8
CSLAYER1
  6
CONTINUOUS
 62
     3
 10
861.226906
 20
912.864206
 11
859.779724
 21
912.221301
  0
LINE
  8
CSLAYER1
  6
CONTINUOUS
 62
     3
 10
859.779724
 20
912.221301
 11
858.453627
 21
911.519694
  0
LINE
  8
CSLAYER1
  6
CONTINUOUS
 62
     3
 10
858.453627
 20
911.519694
 11
857.258706
 21
910.764723
  0
LINE
  8
CSLAYER1
  6
CONTINUOUS
 62
     3
 10
857.258706
 20
910.764723
 11
856.204055
 21
909.962135
  0
LINE
  8
CSLAYER1
  6
CONTINUOUS
 62
     3
 10
856.204055
 20
909.962135
 11
855.297702
 21
909.118039
  0
LINE
  8
CSLAYER1
  6
CONTINUOUS
 62
     3
 10
855.297702
 20
909.118039
 11
854.546543
 21
908.238857
  0
LINE
  8
CSLAYER1
  6
CONTINUOUS
 62
     3
 10
854.546543
 20
908.238857
 11
853.956296
 21
907.331281
  0
LINE
  8
CSLAYER1
  6
CONTINUOUS
 62
     3
 10
853.956296
 20
907.331281
 11
853.531453
 21
906.402219
  0
LINE
  8
CSLAYER1
  6
CONTINUOUS
 62
     3
 10
853.531453
 20
906.402219
 11
853.275246
 21
905.458741
  0
LINE
  8
CSLAYER1
  6
CONTINUOUS
 62
     3
 10
853.275246
 20
905.458741
 11
853.189627
 21
904.508027
  0
LINE
  8
CSLAYER1
  6
CONTINUOUS
 62
     3
 10
899.989627
 20
904.508027
 11
899.897158
 21
905.534798
  0
LINE
  8
CSLAYER1
  6
CONTINUOUS
 62
     3
 10
899.897158
 20
905.534798
 11
899.620455
 21
906.553755
  0
LINE
  8
CSLAYER1
  6
CONTINUOUS
 62
     3
 10
899.620455
 20
906.553755
 11
899.161625
 21
907.557142
  0
LINE
  8
CSLAYER1
  6
CONTINUOUS
 62
     3
 10
899.161625
 20
907.557142
 11
898.524158
 21
908.537323
  0
LINE
  8
CSLAYER1
  6
CONTINUOUS
 62
     3
 10
898.524158
 20
908.537323
 11
897.712906
 21
909.486840
  0
LINE
  8
CSLAYER1
  6
CONTINUOUS
 62
     3
 10
897.712906
 20
909.486840
 11
896.734044
 21
910.398464
  0
LINE
  8
CSLAYER1
  6
CONTINUOUS
 62
     3
 10
896.734044
 20
910.398464
 11
895.595022
 21
911.265259
  0
LINE
  8
CSLAYER1
  6
CONTINUOUS
 62
     3
 10
895.595022
 20
911.265259
 11
894.304507
 21
912.080627
  0
LINE
  8
CSLAYER1
  6
CONTINUOUS
 62
     3
 10
894.304507
 20
912.080627
 11
892.872322
 21
912.838363
  0
LINE
  8
CSLAYER1
  6
CONTINUOUS
 62
     3
 10
892.872322
 20
912.838363
 11
891.309366
 21
913.532700
  0
LINE
  8
CSLAYER1
  6
CONTINUOUS
 62
     3
 10
891.309366
 20
913.532700
 11
889.627534
 21
914.158354
  0
LINE
  8
CSLAYER1
  6
CONTINUOUS
 62
     3
 10
889.627534
 20
914.158354
 11
887.839627
 21
914.710563
  0
LINE
  8
CSLAYER1
  6
CONTINUOUS
 62
     3
 10
887.839627
 20
914.710563
 11
885.959251
 21
915.185125
  0
LINE
  8
CSLAYER1
  6
CONTINUOUS
 62
     3
 10
885.959251
 20
915.185125
 11
884.000716
 21
915.578427
  0
LINE
  8
CSLAYER1
  6
CONTINUOUS
 62
     3
 10
884.000716
 20
915.578427
 11
881.978930
 21
915.887477
  0
LINE
  8
CSLAYER1
  6
CONTINUOUS
 62
     3
 10
881.978930
 20
915.887477
 11
879.909278
 21
916.109923
  0
LINE
  8
CSLAYER1
  6
CONTINUOUS
 62
     3
 10
879.909278
 20
916.109923
 11
877.807512
 21
916.244071
  0
LINE
  8
CSLAYER1
  6
CONTINUOUS
 62
     3
 10
877.807512
 20
916.244071
 11
875.689627
 21
916.288901
  0
LINE
  8
CSLAYER1
  6
CONTINUOUS
 62
     3
 10
875.689627
 20
916.288901
 11
873.571742
 21
916.244071
  0
LINE
  8
CSLAYER1
  6
CONTINUOUS
 62
     3
 10
873.571742
 20
916.244071
 11
871.469976
 21
916.109923
  0
LINE
  8
CSLAYER1
  6
CONTINUOUS
 62
     3
 10
871.469976
 20
916.109923
 11
869.400324
 21
915.887477
  0
LINE
  8
CSLAYER1
  6
CONTINUOUS
 62
     3
 10
869.400324
 20
915.887477
 11
867.378537
 21
915.578427
  0
LINE
  8
CSLAYER1
  6
CONTINUOUS
 62
     3
 10
867.378537
 20
915.578427
 11
865.420003
 21
915.185125
  0
LINE
  8
CSLAYER1
  6
CONTINUOUS
 62
     3
 10
865.420003
 20
915.185125
 11
863.539627
 21
914.710563
  0
LINE
  8
CSLAYER1
  6
CONTINUOUS
 62
     3
 10
863.539627
 20
914.710563
 11
861.751720
 21
914.158354
  0
LINE
  8
CSLAYER1
  6
CONTINUOUS
 62
     3
 10
861.751720
 20
914.158354
 11
860.069888
 21
913.532700
  0
LINE
  8
CSLAYER1
  6
CONTINUOUS
 62
     3
 10
860.069888
 20
913.532700
 11
858.506932
 21
912.838363
  0
LINE
  8
CSLAYER1
  6
CONTINUOUS
 62
     3
 10
858.506932
 20
912.838363
 11
857.074747
 21
912.080627
  0
LINE
  8
CSLAYER1
  6
CONTINUOUS
 62
     3
 10
857.074747
 20
912.080627
 11
855.784232
 21
911.265259
  0
LINE
  8
CSLAYER1
  6
CONTINUOUS
 62
     3
 10
855.784232
 20
911.265259
 11
854.645210
 21
910.398464
  0
LINE
  8
CSLAYER1
  6
CONTINUOUS
 62
     3
 10
854.645210
 20
910.398464
 11
853.666348
 21
909.486840
  0
LINE
  8
CSLAYER1
  6
CONTINUOUS
 62
     3
 10
853.666348
 20
909.486840
 11
852.855096
 21
908.537323
  0
LINE
  8
CSLAYER1
  6
CONTINUOUS
 62
     3
 10
852.855096
 20
908.537323
 11
852.217629
 21
907.557142
  0
LINE
  8
CSLAYER1
  6
CONTINUOUS
 62
     3
 10
852.217629
 20
907.557142
 11
851.758799
 21
906.553755
  0
LINE
  8
CSLAYER1
  6
CONTINUOUS
 62
     3
 10
851.758799
 20
906.553755
 11
851.482096
 21
905.534798
  0
LINE
  8
CSLAYER1
  6
CONTINUOUS
 62
     3
 10
851.482096
 20
905.534798
 11
851.389627
 21
904.508027
  0
LINE
  8
CSLAYER1
  6
CONTINUOUS
 62
     3
 10
851.389627
 20
904.508027
 11
851.482096
 21
903.481256
  0
LINE
  8
CSLAYER1
  6
CONTINUOUS
 62
     3
 10
851.482096
 20
903.481256
 11
851.587387
 21
903.093521
  0
LINE
  8
CSLAYER1
  6
CONTINUOUS
 62
     3
 10
852.689627
 20
900.733160
 11
853.189627
 21
900.087185
  0
LINE
  8
CSLAYER1
  6
CONTINUOUS
 62
     3
 10
898.189627
 20
900.087185
 11
898.689627
 21
900.733160
  0
LINE
  8
CSLAYER1
  6
CONTINUOUS
 62
     3
 10
899.791867
 20
903.093521
 11
899.897158
 21
903.481256
  0
LINE
  8
CSLAYER1
  6
CONTINUOUS
 62
     3
 10
899.897158
 20
903.481256
 11
899.989627
 21
904.508027
  0
LINE
  8
CSLAYER1
  6
CONTINUOUS
 62
     3
 10
853.189627
 20
873.919131
 11
853.189627
 21
904.508027
  0
LINE
  8
CSLAYER1
  6
CONTINUOUS
 62
     3
 10
898.189627
 20
873.919131
 11
898.104008
 21
874.869845
  0
LINE
  8
CSLAYER1
  6
CONTINUOUS
 62
     3
 10
898.104008
 20
874.869845
 11
897.847801
 21
875.813323
  0
LINE
  8
CSLAYER1
  6
CONTINUOUS
 62
     3
 10
897.847801
 20
875.813323
 11
897.422958
 21
876.742385
  0
LINE
  8
CSLAYER1
  6
CONTINUOUS
 62
     3
 10
897.422958
 20
876.742385
 11
896.832711
 21
877.649961
  0
LINE
  8
CSLAYER1
  6
CONTINUOUS
 62
     3
 10
896.832711
 20
877.649961
 11
896.081552
 21
878.529143
  0
LINE
  8
CSLAYER1
  6
CONTINUOUS
 62
     3
 10
896.081552
 20
878.529143
 11
895.175199
 21
879.373240
  0
LINE
  8
CSLAYER1
  6
CONTINUOUS
 62
     3
 10
895.175199
 20
879.373240
 11
894.120548
 21
880.175827
  0
LINE
  8
CSLAYER1
  6
CONTINUOUS
 62
     3
 10
894.120548
 20
880.175827
 11
892.925627
 21
880.930798
  0
LINE
  8
CSLAYER1
  6
CONTINUOUS
 62
     3
 10
892.925627
 20
880.930798
 11
891.599530
 21
881.632405
  0
LINE
  8
CSLAYER1
  6
CONTINUOUS
 62
     3
 10
891.599530
 20
881.632405
 11
890.152348
 21
882.275310
  0
LINE
  8
CSLAYER1
  6
CONTINUOUS
 62
     3
 10
890.152348
 20
882.275310
 11
888.595097
 21
882.854619
  0
LINE
  8
CSLAYER1
  6
CONTINUOUS
 62
     3
 10
888.595097
 20
882.854619
 11
886.939627
 21
883.365924
  0
LINE
  8
CSLAYER1
  6
CONTINUOUS
 62
     3
 10
886.939627
 20
883.365924
 11
885.198538
 21
883.805333
  0
LINE
  8
CSLAYER1
  6
CONTINUOUS
 62
     3
 10
885.198538
 20
883.805333
 11
883.385080
 21
884.169502
  0
LINE
  8
CSLAYER1
  6
CONTINUOUS
 62
     3
 10
883.385080
 20
884.169502
 11
881.513055
 21
884.455659
  0
LINE
  8
CSLAYER1
  6
CONTINUOUS
 62
     3
 10
881.513055
 20
884.455659
 11
879.596711
 21
884.661627
  0
LINE
  8
CSLAYER1
  6
CONTINUOUS
 62
     3
 10
879.596711
 20
884.661627
 11
877.650631
 21
884.785839
  0
LINE
  8
CSLAYER1
  6
CONTINUOUS
 62
     3
 10
877.650631
 20
884.785839
 11
875.689627
 21
884.827348
  0
LINE
  8
CSLAYER1
  6
CONTINUOUS
 62
     3
 10
875.689627
 20
884.827348
 11
873.728623
 21
884.785839
  0
LINE
  8
CSLAYER1
  6
CONTINUOUS
 62
     3
 10
873.728623
 20
884.785839
 11
871.782543
 21
884.661627
  0
LINE
  8
CSLAYER1
  6
CONTINUOUS
 62
     3
 10
871.782543
 20
884.661627
 11
869.866198
 21
884.455659
  0
LINE
  8
CSLAYER1
  6
CONTINUOUS
 62
     3
 10
869.866198
 20
884.455659
 11
867.994174
 21
884.169502
  0
LINE
  8
CSLAYER1
  6
CONTINUOUS
 62
     3
 10
867.994174
 20
884.169502
 11
866.180716
 21
883.805333
  0
LINE
  8
CSLAYER1
  6
CONTINUOUS
 62
     3
 10
866.180716
 20
883.805333
 11
864.439627
 21
883.365924
  0
LINE
  8
CSLAYER1
  6
CONTINUOUS
 62
     3
 10
864.439627
 20
883.365924
 11
862.784157
 21
882.854619
  0
LINE
  8
CSLAYER1
  6
CONTINUOUS
 62
     3
 10
862.784157
 20
882.854619
 11
861.226906
 21
882.275310
  0
LINE
  8
CSLAYER1
  6
CONTINUOUS
 62
     3
 10
861.226906
 20
882.275310
 11
859.779724
 21
881.632405
  0
LINE
  8
CSLAYER1
  6
CONTINUOUS
 62
     3
 10
859.779724
 20
881.632405
 11
858.453627
 21
880.930798
  0
LINE
  8
CSLAYER1
  6
CONTINUOUS
 62
     3
 10
858.453627
 20
880.930798
 11
857.258706
 21
880.175827
  0
LINE
  8
CSLAYER1
  6
CONTINUOUS
 62
     3
 10
857.258706
 20
880.175827
 11
856.204055
 21
879.373240
  0
LINE
  8
CSLAYER1
  6
CONTINUOUS
 62
     3
 10
856.204055
 20
879.373240
 11
855.297702
 21
878.529143
  0
LINE
  8
CSLAYER1
  6
CONTINUOUS
 62
     3
 10
855.297702
 20
878.529143
 11
854.546543
 21
877.649961
  0
LINE
  8
CSLAYER1
  6
CONTINUOUS
 62
     3
 10
854.546543
 20
877.649961
 11
853.956296
 21
876.742385
  0
LINE
  8
CSLAYER1
  6
CONTINUOUS
 62
     3
 10
853.956296
 20
876.742385
 11
853.531453
 21
875.813323
  0
LINE
  8
CSLAYER1
  6
CONTINUOUS
 62
     3
 10
853.531453
 20
875.813323
 11
853.275246
 21
874.869845
  0
LINE
  8
CSLAYER1
  6
CONTINUOUS
 62
     3
 10
853.275246
 20
874.869845
 11
853.189627
 21
873.919131
  0
LINE
  8
CSLAYER1
  6
CONTINUOUS
 62
     3
 10
853.189627
 20
873.919131
 11
853.275246
 21
872.968418
  0
LINE
  8
CSLAYER1
  6
CONTINUOUS
 62
     3
 10
853.275246
 20
872.968418
 11
853.531453
 21
872.024939
  0
LINE
  8
CSLAYER1
  6
CONTINUOUS
 62
     3
 10
853.531453
 20
872.024939
 11
853.956296
 21
871.095877
  0
LINE
  8
CSLAYER1
  6
CONTINUOUS
 62
     3
 10
853.956296
 20
871.095877
 11
854.546543
 21
870.188302
  0
LINE
  8
CSLAYER1
  6
CONTINUOUS
 62
     3
 10
854.546543
 20
870.188302
 11
855.297702
 21
869.309120
  0
LINE
  8
CSLAYER1
  6
CONTINUOUS
 62
     3
 10
855.297702
 20
869.309120
 11
856.186121
 21
868.481726
  0
LINE
  8
CSLAYER1
  6
CONTINUOUS
 62
     3
 10
895.193133
 20
868.481726
 11
896.081552
 21
869.309120
  0
LINE
  8
CSLAYER1
  6
CONTINUOUS
 62
     3
 10
896.081552
 20
869.309120
 11
896.832711
 21
870.188302
  0
LINE
  8
CSLAYER1
  6
CONTINUOUS
 62
     3
 10
896.832711
 20
870.188302
 11
897.422958
 21
871.095877
  0
LINE
  8
CSLAYER1
  6
CONTINUOUS
 62
     3
 10
897.422958
 20
871.095877
 11
897.847801
 21
872.024939
  0
LINE
  8
CSLAYER1
  6
CONTINUOUS
 62
     3
 10
897.847801
 20
872.024939
 11
898.104008
 21
872.968418
  0
LINE
  8
CSLAYER1
  6
CONTINUOUS
 62
     3
 10
898.104008
 20
872.968418
 11
898.189627
 21
873.919131
  0
LINE
  8
CSLAYER1
  6
CENTER
 62
     5
 10
835.689627
 20
834.947168
 11
835.689627
 21
977.039157
  0
LINE
  8
CSLAYER1
  6
CONTINUOUS
 62
     3
 10
842.689627
 20
971.339157
 11
828.689627
 21
971.339157
  0
LINE
  8
CSLAYER1
  6
CONTINUOUS
 62
     3
 10
842.689627
 20
963.539157
 11
828.689627
 21
963.539157
  0
LINE
  8
CSLAYER1
  6
CONTINUOUS
 62
     3
 10
842.121559
 20
958.339157
 11
829.257695
 21
958.339157
  0
LINE
  8
CSLAYER1
  6
CONTINUOUS
 62
     3
 10
841.689627
 20
956.339157
 11
829.689627
 21
956.339157
  0
LINE
  8
CSLAYER1
  6
CONTINUOUS
 62
     3
 10
841.689627
 20
949.339157
 11
829.689627
 21
949.339157
  0
LINE
  8
CSLAYER1
  6
CONTINUOUS
 62
     3
 10
840.572653
 20
924.339157
 11
830.806601
 21
924.339157
  0
LINE
  8
CSLAYER1
  6
CONTINUOUS
 62
     3
 10
841.189627
 20
946.339157
 11
841.189627
 21
949.339157
  0
LINE
  8
CSLAYER1
  6
CONTINUOUS
 62
     3
 10
843.772531
 20
964.164371
 11
843.772531
 21
970.713942
  0
LINE
  8
CSLAYER1
  6
CONTINUOUS
 62
     3
 10
839.731079
 20
964.164371
 11
839.731079
 21
970.713942
  0
ARC
  8
CSLAYER1
  6
CONTINUOUS
 62
     3
 10
813.001857
 20
963.581378
 40
29.587800
 50
345.831727
 51
359.918240
  0
ARC
  8
CSLAYER1
  6
CONTINUOUS
 62
     3
 10
858.377397
 20
963.581378
 40
29.587800
 50
180.081760
 51
194.168273
  0
LINE
  8
CSLAYER1
  6
CONTINUOUS
 62
     3
 10
840.036941
 20
956.339157
 11
840.036941
 21
958.339157
  0
LINE
  8
CSLAYER1
  6
CONTINUOUS
 62
     3
 10
838.055176
 20
956.339157
 11
838.055176
 21
958.339157
  0
LINE
  8
CSLAYER1
  6
CONTINUOUS
 62
     3
 10
831.342313
 20
956.339157
 11
831.342313
 21
958.339157
  0
LINE
  8
CSLAYER1
  6
CONTINUOUS
 62
     3
 10
833.324078
 20
956.339157
 11
833.324078
 21
958.339157
  0
LINE
  8
CSLAYER1
  6
CONTINUOUS
 62
     3
 10
842.689627
 20
971.339157
 11
843.772531
 21
970.713942
  0
ARC
  8
CSLAYER1
  6
CONTINUOUS
 62
     3
 10
841.751805
 20
967.787528
 40
3.556295
 50
64.625569
 51
124.625569
  0
ARC
  8
CSLAYER1
  6
CONTINUOUS
 62
     3
 10
835.689627
 20
957.964371
 40
13.374785
 50
72.412046
 51
107.587954
  0
LINE
  8
CSLAYER1
  6
CONTINUOUS
 62
     3
 10
842.689627
 20
963.539157
 11
843.772531
 21
964.164371
  0
ARC
  8
CSLAYER1
  6
CONTINUOUS
 62
     3
 10
841.751805
 20
967.090786
 40
3.556295
 50
235.374431
 51
295.374431
  0
ARC
  8
CSLAYER1
  6
CONTINUOUS
 62
     3
 10
835.689627
 20
976.913942
 40
13.374785
 50
252.412046
 51
287.587954
  0
LINE
  8
CSLAYER1
  6
CONTINUOUS
 62
     3
 10
827.606723
 20
964.164371
 11
827.606723
 21
970.713942
  0
LINE
  8
CSLAYER1
  6
CONTINUOUS
 62
     3
 10
831.648175
 20
964.164371
 11
831.648175
 21
970.713942
  0
LINE
  8
CSLAYER1
  6
CONTINUOUS
 62
     3
 10
828.689627
 20
971.339157
 11
827.606723
 21
970.713942
  0
ARC
  8
CSLAYER1
  6
CONTINUOUS
 62
     3
 10
829.627449
 20
967.787528
 40
3.556295
 50
55.374431
 51
115.374431
  0
LINE
  8
CSLAYER1
  6
CONTINUOUS
 62
     3
 10
828.689627
 20
963.539157
 11
827.606723
 21
964.164371
  0
ARC
  8
CSLAYER1
  6
CONTINUOUS
 62
     3
 10
829.627449
 20
967.090786
 40
3.556295
 50
244.625569
 51
304.625569
  0
LINE
  8
CSLAYER1
  6
CONTINUOUS
 62
     3
 10
842.617830
 20
949.875055
 11
842.617830
 21
955.603258
  0
LINE
  8
CSLAYER1
  6
CONTINUOUS
 62
     3
 10
839.153729
 20
949.875055
 11
839.153729
 21
955.603258
  0
LINE
  8
CSLAYER1
  6
CONTINUOUS
 62
     3
 10
841.689627
 20
949.339157
 11
842.617830
 21
949.875055
  0
ARC
  8
CSLAYER1
  6
CONTINUOUS
 62
     3
 10
835.689627
 20
960.803258
 40
11.464102
 50
252.178595
 51
287.821405
  0
ARC
  8
CSLAYER1
  6
CONTINUOUS
 62
     3
 10
840.885779
 20
952.405085
 40
3.066114
 50
236.143645
 51
295.804157
  0
LINE
  8
CSLAYER1
  6
CONTINUOUS
 62
     3
 10
841.689627
 20
956.139157
 11
842.617830
 21
955.603258
  0
ARC
  8
CSLAYER1
  6
CONTINUOUS
 62
     3
 10
835.689627
 20
944.675055
 40
11.464102
 50
72.178595
 51
107.821405
  0
ARC
  8
CSLAYER1
  6
CONTINUOUS
 62
     3
 10
840.885779
 20
953.073228
 40
3.066114
 50
64.195843
 51
123.856355
  0
LINE
  8
CSLAYER1
  6
CONTINUOUS
 62
     3
 10
841.689627
 20
956.139157
 11
829.689627
 21
956.139157
  0
LINE
  8
CSLAYER1
  6
CONTINUOUS
 62
     3
 10
839.153729
 20
956.139157
 11
839.153729
 21
956.339157
  0
LINE
  8
CSLAYER1
  6
CONTINUOUS
 62
     3
 10
830.189627
 20
946.339157
 11
830.189627
 21
949.339157
  0
LINE
  8
CSLAYER1
  6
CONTINUOUS
 62
     3
 10
828.761424
 20
949.875055
 11
828.761424
 21
955.603258
  0
LINE
  8
CSLAYER1
  6
CONTINUOUS
 62
     3
 10
832.225525
 20
949.875055
 11
832.225525
 21
955.603258
  0
LINE
  8
CSLAYER1
  6
CONTINUOUS
 62
     3
 10
829.689627
 20
949.339157
 11
828.761424
 21
949.875055
  0
ARC
  8
CSLAYER1
  6
CONTINUOUS
 62
     3
 10
830.493475
 20
952.405085
 40
3.066114
 50
244.195843
 51
303.856355
  0
LINE
  8
CSLAYER1
  6
CONTINUOUS
 62
     3
 10
829.689627
 20
956.139157
 11
828.761424
 21
955.603258
  0
ARC
  8
CSLAYER1
  6
CONTINUOUS
 62
     3
 10
830.493475
 20
953.073228
 40
3.066114
 50
56.143645
 51
115.804157
  0
LINE
  8
CSLAYER1
  6
CONTINUOUS
 62
     3
 10
832.225525
 20
956.139157
 11
832.225525
 21
956.339157
  0
LINE
  8
CSLAYER1
  6
CONTINUOUS
 62
     3
 10
842.617830
 20
937.339157
 11
842.617830
 21
945.803258
  0
LINE
  8
CSLAYER1
  6
CONTINUOUS
 62
     3
 10
839.153729
 20
937.339157
 11
839.153729
 21
945.803258
  0
LINE
  8
CSLAYER1
  6
CONTINUOUS
 62
     3
 10
841.689627
 20
946.339157
 11
842.617830
 21
945.803258
  0
ARC
  8
CSLAYER1
  6
CONTINUOUS
 62
     3
 10
835.689627
 20
934.875055
 40
11.464102
 50
72.178595
 51
107.821405
  0
ARC
  8
CSLAYER1
  6
CONTINUOUS
 62
     3
 10
840.885779
 20
943.273228
 40
3.066114
 50
64.195843
 51
123.856355
  0
LINE
  8
CSLAYER1
  6
CONTINUOUS
 62
     3
 10
841.689627
 20
946.339157
 11
829.689627
 21
946.339157
  0
LINE
  8
CSLAYER1
  6
CONTINUOUS
 62
     3
 10
828.761424
 20
937.339157
 11
828.761424
 21
945.803258
  0
LINE
  8
CSLAYER1
  6
CONTINUOUS
 62
     3
 10
832.225525
 20
937.339157
 11
832.225525
 21
945.803258
  0
LINE
  8
CSLAYER1
  6
CONTINUOUS
 62
     3
 10
829.689627
 20
946.339157
 11
828.761424
 21
945.803258
  0
ARC
  8
CSLAYER1
  6
CONTINUOUS
 62
     3
 10
830.493475
 20
943.273228
 40
3.066114
 50
56.143645
 51
115.804157
  0
LINE
  8
CSLAYER1
  6
CONTINUOUS
 62
     3
 10
841.568908
 20
925.252697
 11
842.617830
 21
937.339157
  0
ARC
  8
CSLAYER1
  6
CONTINUOUS
 62
     3
 10
820.512139
 20
937.339157
 40
18.641590
 50
330.443788
 51
360.000000
  0
ARC
  8
CSLAYER1
  6
CONTINUOUS
 62
     3
 10
835.689627
 20
928.779011
 40
1.217263
 50
210.578468
 51
329.421532
  0
ARC
  8
CSLAYER1
  6
CONTINUOUS
 62
     3
 10
857.795319
 20
937.339157
 40
18.641590
 50
180.000000
 51
209.556212
  0
ARC
  8
CSLAYER1
  6
CONTINUOUS
 62
     3
 10
842.617830
 20
928.779011
 40
1.217263
 50
210.578468
 51
227.594217
  0
ARC
  8
CSLAYER1
  6
CONTINUOUS
 62
     3
 10
840.572653
 20
925.339157
 40
1.000000
 50
270.000000
 51
355.040021
  0
LINE
  8
CSLAYER1
  6
CONTINUOUS
 62
     3
 10
829.810346
 20
925.252697
 11
828.761424
 21
937.339157
  0
ARC
  8
CSLAYER1
  6
CONTINUOUS
 62
     3
 10
850.867115
 20
937.339157
 40
18.641590
 50
180.000000
 51
209.556212
  0
ARC
  8
CSLAYER1
  6
CONTINUOUS
 62
     3
 10
813.583935
 20
937.339157
 40
18.641590
 50
330.443788
 51
360.000000
  0
ARC
  8
CSLAYER1
  6
CONTINUOUS
 62
     3
 10
828.761424
 20
928.779011
 40
1.217263
 50
312.405783
 51
329.421532
  0
ARC
  8
CSLAYER1
  6
CONTINUOUS
 62
     3
 10
830.806601
 20
925.339157
 40
1.000000
 50
184.959979
 51
270.000000
  0
LINE
  8
CSLAYER1
  6
CONTINUOUS
 62
     3
 10
842.689627
 20
991.039157
 11
830.189627
 21
991.039157
  0
LINE
  8
CSLAYER1
  6
CENTER
 62
     5
 10
848.189627
 20
984.039157
 11
842.689627
 21
984.039157
  0
LINE
  8
CSLAYER1
  6
CONTINUOUS
 62
     3
 10
828.689627
 20
977.039157
 11
828.689627
 21
989.539157
  0
LINE
  8
CSLAYER1
  6
CONTINUOUS
 62
     3
 10
842.689627
 20
977.039157
 11
828.689627
 21
977.039157
  0
LINE
  8
CSLAYER1
  6
CONTINUOUS
 62
     3
 10
842.689627
 20
977.039157
 11
842.689627
 21
991.036712
  0
LINE
  8
CSLAYER1
  6
CONTINUOUS
 62
     3
 10
840.289627
 20
971.339157
 11
840.289627
 21
977.039157
  0
LINE
  8
CSLAYER1
  6
CONTINUOUS
 62
     5
 10
839.689627
 20
971.339157
 11
839.689627
 21
975.999926
  0
LINE
  8
CSLAYER1
  6
CONTINUOUS
 62
     5
 10
840.289627
 20
977.039157
 11
839.689627
 21
975.999926
  0
LINE
  8
CSLAYER1
  6
CONTINUOUS
 62
     3
 10
831.089627
 20
971.339157
 11
831.089627
 21
977.039157
  0
LINE
  8
CSLAYER1
  6
CONTINUOUS
 62
     5
 10
831.089627
 20
977.039157
 11
831.689627
 21
975.999926
  0
LINE
  8
CSLAYER1
  6
CONTINUOUS
 62
     5
 10
840.289627
 20
975.999926
 11
831.089627
 21
975.999926
  0
LINE
  8
CSLAYER1
  6
CONTINUOUS
 62
     3
 10
848.189627
 20
979.187371
 11
842.689627
 21
979.089157
  0
LINE
  8
CSLAYER1
  6
CONTINUOUS
 62
     5
 10
848.189627
 20
979.887483
 11
842.677129
 21
979.789045
  0
LINE
  8
CSLAYER1
  6
CONTINUOUS
 62
     3
 10
848.189627
 20
988.890942
 11
842.689627
 21
988.989157
  0
LINE
  8
CSLAYER1
  6
CONTINUOUS
 62
     5
 10
848.189627
 20
988.190831
 11
842.677129
 21
988.289268
  0
ARC
  8
CSLAYER1
  6
CONTINUOUS
 62
     3
 10
830.189627
 20
989.539157
 40
1.500000
 50
90.000000
 51
180.000000
  0
LINE
  8
CSLAYER1
  6
CONTINUOUS
 62
     3
 10
854.189627
 20
1113.857380
 11
857.689627
 21
1113.857380
  0
LINE
  8
CSLAYER1
  6
CONTINUOUS
 62
     3
 10
853.189627
 20
1114.857380
 11
854.189627
 21
1113.857380
  0
LINE
  8
CSLAYER1
  6
CONTINUOUS
 62
     3
 10
897.189627
 20
1113.857380
 11
898.189627
 21
1114.857380
  0
LINE
  8
CSLAYER1
  6
CONTINUOUS
 62
     3
 10
899.189627
 20
1119.457380
 11
898.189627
 21
1119.457380
  0
LINE
  8
CSLAYER1
  6
CONTINUOUS
 62
     3
 10
853.189627
 20
1119.457380
 11
852.189627
 21
1119.457380
  0
LINE
  8
CSLAYER1
  6
CONTINUOUS
 62
     3
 10
840.189627
 20
1144.457380
 11
852.189627
 21
1144.457380
  0
LINE
  8
CSLAYER1
  6
CONTINUOUS
 62
     3
 10
840.189627
 20
1072.701219
 11
852.189627
 21
1072.701219
  0
LINE
  8
CSLAYER1
  6
CONTINUOUS
 62
     3
 10
899.189627
 20
1072.701219
 11
899.189627
 21
1144.457380
  0
LINE
  8
CSLAYER1
  6
CONTINUOUS
 62
     3
 10
852.189627
 20
1072.701219
 11
852.189627
 21
1144.457380
  0
LINE
  8
CSLAYER1
  6
CONTINUOUS
 62
     3
 10
840.189627
 20
1072.701219
 11
840.189627
 21
1144.457380
  0
LINE
  8
CSLAYER1
  6
CONTINUOUS
 62
     3
 10
899.189627
 20
1072.701219
 11
911.189627
 21
1072.701219
  0
LINE
  8
CSLAYER1
  6
CONTINUOUS
 62
     3
 10
893.689627
 20
1051.810693
 11
911.189627
 21
1051.810693
  0
LINE
  8
CSLAYER1
  6
CONTINUOUS
 62
     3
 10
852.189627
 20
1100.410693
 11
857.689627
 21
1100.410693
  0
LINE
  8
CSLAYER1
  6
CONTINUOUS
 62
     3
 10
893.689627
 20
1100.410693
 11
899.189627
 21
1100.410693
  0
LINE
  8
CSLAYER1
  6
CONTINUOUS
 62
     3
 10
899.189627
 20
1144.457380
 11
911.189627
 21
1144.457380
  0
LINE
  8
CSLAYER1
  6
CONTINUOUS
 62
     3
 10
819.189627
 20
1135.457380
 11
840.189627
 21
1135.457380
  0
LINE
  8
CSLAYER1
  6
CONTINUOUS
 62
     3
 10
819.189627
 20
1119.457380
 11
840.189627
 21
1119.457380
  0
LINE
  8
CSLAYER1
  6
CONTINUOUS
 62
     3
 10
911.189627
 20
1288.520597
 11
819.189627
 21
1288.520597
  0
LINE
  8
CSLAYER1
  6
CONTINUOUS
 62
     3
 10
786.689627
 20
1070.724405
 11
787.189627
 21
1070.724405
  0
LINE
  8
CSLAYER1
  6
CONTINUOUS
 62
     3
 10
797.689627
 20
1086.224405
 11
797.689627
 21
1065.224405
  0
LINE
  8
CSLAYER1
  6
CONTINUOUS
 62
     3
 10
785.689627
 20
1071.724405
 11
785.689627
 21
1079.724405
  0
LINE
  8
CSLAYER1
  6
CONTINUOUS
 62
     3
 10
807.189627
 20
1089.724405
 11
810.189627
 21
1089.724405
  0
LINE
  8
CSLAYER1
  6
CONTINUOUS
 62
     3
 10
807.189627
 20
834.947168
 11
807.189627
 21
1344.625279
  0
LINE
  8
CSLAYER1
  6
CONTINUOUS
 62
     3
 10
810.189627
 20
834.947168
 11
810.189627
 21
1356.925279
  0
LINE
  8
CSLAYER1
  6
CONTINUOUS
 62
     3
 10
807.189627
 20
1061.724405
 11
810.189627
 21
1061.724405
  0
LINE
  8
CSLAYER1
  6
CONTINUOUS
 62
     3
 10
795.689627
 20
1086.224405
 11
795.689627
 21
1065.224405
  0
LINE
  8
CSLAYER1
  6
CONTINUOUS
 62
     3
 10
793.189627
 20
1084.924405
 11
793.189627
 21
1066.524405
  0
LINE
  8
CSLAYER1
  6
CONTINUOUS
 62
     3
 10
793.189627
 20
1066.524405
 11
795.689627
 21
1066.524405
  0
LINE
  8
CSLAYER1
  6
CONTINUOUS
 62
     3
 10
795.689627
 20
1065.224405
 11
797.689627
 21
1065.224405
  0
LINE
  8
CSLAYER1
  6
CONTINUOUS
 62
     3
 10
793.189627
 20
1084.924405
 11
795.689627
 21
1084.924405
  0
LINE
  8
CSLAYER1
  6
CONTINUOUS
 62
     3
 10
795.689627
 20
1086.224405
 11
797.689627
 21
1086.224405
  0
LINE
  8
CSLAYER1
  6
CONTINUOUS
 62
     3
 10
787.189627
 20
1084.224405
 11
787.189627
 21
1067.224405
  0
LINE
  8
CSLAYER1
  6
CONTINUOUS
 62
     3
 10
786.689627
 20
1070.724405
 11
785.689627
 21
1071.724405
  0
LINE
  8
CSLAYER1
  6
CONTINUOUS
 62
     3
 10
785.989627
 20
1071.424405
 11
787.189627
 21
1071.424405
  0
LINE
  8
CSLAYER1
  6
CONTINUOUS
 62
     3
 10
786.689627
 20
1070.724405
 11
786.689627
 21
1080.724405
  0
LINE
  8
CSLAYER1
  6
CONTINUOUS
 62
     3
 10
787.948816
 20
1065.909450
 11
792.430438
 21
1065.909450
  0
LINE
  8
CSLAYER1
  6
CONTINUOUS
 62
     3
 10
787.948816
 20
1070.816927
 11
792.430438
 21
1070.816927
  0
LINE
  8
CSLAYER1
  6
CONTINUOUS
 62
     3
 10
787.189627
 20
1067.224405
 11
787.948816
 21
1065.909450
  0
ARC
  8
CSLAYER1
  6
CONTINUOUS
 62
     3
 10
803.430438
 20
1075.724405
 40
16.240811
 50
162.412046
 51
197.587954
  0
ARC
  8
CSLAYER1
  6
CONTINUOUS
 62
     3
 10
791.530551
 20
1068.363189
 40
4.341619
 50
145.586132
 51
207.480777
  0
LINE
  8
CSLAYER1
  6
CONTINUOUS
 62
     3
 10
787.189627
 20
1084.224405
 11
787.948816
 21
1085.539359
  0
ARC
  8
CSLAYER1
  6
CONTINUOUS
 62
     3
 10
791.530551
 20
1083.085621
 40
4.341619
 50
152.519223
 51
214.413868
  0
LINE
  8
CSLAYER1
  6
CONTINUOUS
 62
     3
 10
793.189627
 20
1067.224405
 11
792.430438
 21
1065.909450
  0
ARC
  8
CSLAYER1
  6
CONTINUOUS
 62
     3
 10
776.948816
 20
1075.724405
 40
16.240811
 50
-17.587954
 51
17.587954
  0
ARC
  8
CSLAYER1
  6
CONTINUOUS
 62
     3
 10
788.848703
 20
1068.363189
 40
4.341619
 50
-27.480777
 51
34.413868
  0
LINE
  8
CSLAYER1
  6
CONTINUOUS
 62
     3
 10
793.189627
 20
1084.224405
 11
792.430438
 21
1085.539359
  0
ARC
  8
CSLAYER1
  6
CONTINUOUS
 62
     3
 10
788.848703
 20
1083.085621
 40
4.341619
 50
-34.413868
 51
27.480777
  0
LINE
  8
CSLAYER1
  6
CONTINUOUS
 62
     3
 10
787.948816
 20
1085.539359
 11
792.430438
 21
1085.539359
  0
LINE
  8
CSLAYER1
  6
CONTINUOUS
 62
     3
 10
787.948816
 20
1080.631882
 11
792.430438
 21
1080.631882
  0
LINE
  8
CSLAYER1
  6
CONTINUOUS
 62
     3
 10
786.689627
 20
1080.724405
 11
787.189627
 21
1080.724405
  0
LINE
  8
CSLAYER1
  6
CONTINUOUS
 62
     3
 10
786.689627
 20
1080.724405
 11
785.689627
 21
1079.724405
  0
LINE
  8
CSLAYER1
  6
CONTINUOUS
 62
     3
 10
785.989627
 20
1080.024405
 11
787.189627
 21
1080.024405
  0
LINE
  8
CSLAYER1
  6
CONTINUOUS
 62
     3
 10
795.689627
 20
1077.625852
 11
793.189627
 21
1074.256287
  0
LINE
  8
CSLAYER1
  6
CONTINUOUS
 62
     3
 10
798.189627
 20
1068.224405
 11
797.689627
 21
1068.224405
  0
LINE
  8
CSLAYER1
  6
CONTINUOUS
 62
     3
 10
798.189627
 20
1083.224405
 11
797.689627
 21
1083.224405
  0
LINE
  8
CSLAYER1
  6
CONTINUOUS
 62
     3
 10
819.189627
 20
834.947168
 11
819.189627
 21
1356.925279
  0
LINE
  8
CSLAYER1
  6
CONTINUOUS
 62
     3
 10
798.189627
 20
834.947168
 11
798.189627
 21
1344.155624
  0
LINE
  8
CSLAYER1
  6
CONTINUOUS
 62
     3
 10
819.189627
 20
868.481726
 11
831.539627
 21
868.481726
  0
LINE
  8
CSLAYER1
  6
CONTINUOUS
 62
     3
 10
819.189627
 20
1043.544822
 11
857.689627
 21
1043.544822
  0
LINE
  8
CSLAYER1
  6
CONTINUOUS
 62
     3
 10
819.189627
 20
1045.421027
 11
857.689627
 21
1045.421027
  0
LINE
  8
CSLAYER1
  6
CONTINUOUS
 62
     3
 10
893.689627
 20
1045.421027
 11
911.189627
 21
1045.421027
  0
LINE
  8
CSLAYER1
  6
CONTINUOUS
 62
     3
 10
893.689627
 20
1043.544822
 11
911.189627
 21
1043.544822
  0
LINE
  8
CSLAYER1
  6
CONTINUOUS
 62
     3
 10
893.689627
 20
1113.857380
 11
897.189627
 21
1113.857380
  0
LINE
  8
CSLAYER1
  6
CONTINUOUS
 62
     3
 10
831.539627
 20
834.947168
 11
831.539627
 21
924.339157
  0
LINE
  8
CSLAYER1
  6
CONTINUOUS
 62
     3
 10
839.839627
 20
834.947168
 11
839.839627
 21
924.339157
  0
LINE
  8
CSLAYER1
  6
CONTINUOUS
 62
     3
 10
839.839627
 20
868.481726
 11
846.689627
 21
868.481726
  0
CIRCLE
  8
CSLAYER1
  6
CONTINUOUS
 62
     3
 10
835.189627
 20
806.597168
 40
4.150000
  0
LINE
  8
CSLAYER1
  6
CENTER
 62
     5
 10
1250.721778
 20
2028.574129
 11
1478.117937
 21
2028.574129
  0
LINE
  8
CSLAYER1
  6
CONTINUOUS
 62
     3
 10
1475.417937
 20
1924.074129
 11
1478.117937
 21
1924.074129
  0
LINE
  8
CSLAYER1
  6
CONTINUOUS
 62
     3
 10
1475.417937
 20
2073.074129
 11
1478.117937
 21
2073.074129
  0
LINE
  8
CSLAYER1
  6
CONTINUOUS
 62
     5
 10
831.689627
 20
971.339157
 11
831.689627
 21
975.999926
  0
LINE
  8
CSLAYER1
  6
CONTINUOUS
 62
     3
 10
1250.721778
 20
2032.724129
 11
1478.117937
 21
2032.724129
  0
LINE
  8
CSLAYER1
  6
CONTINUOUS
 62
     3
 10
1250.721778
 20
2024.424129
 11
1478.117937
 21
2024.424129
  0
LINE
  8
CSLAYER1
  6
CONTINUOUS
 62
     3
 10
1475.417937
 20
2032.724129
 11
1475.417937
 21
2138.574129
  0
DIMENSION
  8
CSLAYER1
 62
     3
  2
*D0000
 10
1390.163877
 20
2123.574129
 11
1381.911743
 21
1973.021606
 13
1489.155136
 23
1873.574129
 14
1489.155136
 24
2123.574129
 50
90.000000
 70
1
  0
DIMENSION
  8
CSLAYER1
 62
     3
  2
*D0001
 10
1500.417937
 20
1784.514064
 11
1434.562378
 21
1768.246704
 13
1475.417937
 23
1717.702497
 14
1500.417937
 24
1862.311328
  0
DIMENSION
  8
CSLAYER1
 62
     3
  2
*D0002
 10
1525.417937
 20
1717.702497
 11
1435.724243
 21
1700.854126
 13
1475.417937
 23
1858.574129
 14
1525.417937
 24
1858.574129
 52
270.000000
 70
1
  0
DIMENSION
  8
CSLAYER1
 62
     3
  2
*D0003
 10
2268.465570
 20
2098.574129
 11
2258.465332
 21
1998.573853
 13
2178.117937
 23
1898.574129
 14
2178.117937
 24
2098.574129
 50
90.000000
 70
1
  0
INSERT
  8
CSLAYER1
  2
EASYDRAWDIM0000
 10
0.0
 20
0.0
 30
0.0
  0
DIMENSION
  8
CSLAYER1
 62
     3
  2
*D0004
 10
2273.020312
 20
859.747168
 11
2263.020020
 21
827.347229
 13
2364.275916
 23
794.947168
 14
2178.117937
 24
859.747168
 50
90.000000
  0
DIMENSION
  8
CSLAYER1
 62
     3
  2
*D0005
 10
2273.020312
 20
1374.925279
 11
2263.020020
 21
1117.336304
 13
2161.764709
 23
859.747168
 14
2161.764709
 24
1374.925279
 50
90.000000
 70
1
  0
DIMENSION
  8
CSLAYER1
 62
     3
  2
*D0006
 10
2364.275916
 20
794.947168
 11
2354.275635
 21
1084.936157
 13
2364.275916
 23
1374.925279
 14
2364.275916
 24
794.947168
 50
90.000000
 70
1
  0
DIMENSION
  8
CSLAYER1
 62
     3
  2
*D0007
 10
2200.395242
 20
1450.166994
 11
1850.395142
 21
1460.166870
 13
1500.395242
 23
1374.925279
 14
2200.395242
 24
1374.925279
 70
1
  0
DIMENSION
  8
CSLAYER1
 62
     3
  2
*D0008
 10
2178.417937
 20
609.958723
 11
1826.917847
 21
619.958801
 13
1475.417937
 23
794.947168
 14
2178.417937
 24
794.947168
 52
270.000000
 70
1
  0
DIMENSION
  8
CSLAYER1
 62
     3
  2
*D0009
 10
1081.576224
 20
800.947168
 11
1071.576050
 21
817.996643
 13
1015.189627
 23
794.947168
 14
1015.189627
 24
800.947168
 50
90.000000
 70
1
  0
LINE
  8
CSLAYER1
  6
CONTINUOUS
 62
     3
 10
1335.623281
 20
819.097168
 11
1475.417937
 21
819.097168
  0
LINE
  8
CSLAYER1
  6
CONTINUOUS
 62
     3
 10
1335.623281
 20
810.797168
 11
1475.417937
 21
810.797168
  0
INSERT
  8
CSLAYER1
  2
EASYDRAWDIM0001
 10
0.0
 20
0.0
 30
0.0
  0
INSERT
  8
CSLAYER1
  2
EASYDRAWDIM0002
 10
0.0
 20
0.0
 30
0.0
  0
INSERT
  8
CSLAYER1
  2
BLKF0003
 10
0.0
 20
0.0
 30
0.0
  0
TEXT
  8
CSLAYER1
 62
     7
 10
1264.921997
 20
1292.637573
 40
40.000000
 41
0.787500
  1
テーブルのズレ
 50
0.000000
 51
0.000000
  7
EASYDRAW_FONT
 72
     5
 11
1474.921997
 21
1292.637573
  0
DIMENSION
  8
CSLAYER1
 62
     3
  2
*D0010
 10
1500.395242
 20
1227.404414
 11
1392.427856
 21
1245.120239
 13
1478.117937
 23
859.747168
 14
1500.395242
 24
1374.925279
  0
INSERT
  8
CSLAYER1
  2
EASYDRAWDIM0003
 10
0.0
 20
0.0
 30
0.0
  0
LINE
  8
CSLAYER1
  6
CONTINUOUS
 62
     5
 10
1587.330204
 20
1018.378923
 11
1430.178628
 21
1110.500677
  0
LINE
  8
CSLAYER1
  6
CONTINUOUS
 62
     5
 10
1587.330204
 20
1018.378923
 11
1558.404382
 21
1026.334852
  0
LINE
  8
CSLAYER1
  6
CONTINUOUS
 62
     5
 10
1587.330204
 20
1018.378923
 11
1566.257671
 21
1039.731870
  0
TEXT
  8
CSLAYER1
 62
     7
 10
1482.238403
 20
2219.773438
 40
40.000000
 41
0.843750
  1
下降時
 50
0.000000
 51
0.000000
  7
EASYDRAW_FONT
 72
     5
 11
1572.238403
 21
2219.773438
  0
LINE
  8
CSLAYER1
  6
CONTINUOUS
 62
     5
 10
1468.631953
 20
2266.203881
 11
1591.589963
 21
2266.203881
  0
LINE
  8
CSLAYER1
  6
CONTINUOUS
 62
     5
 10
1591.589963
 20
2266.203881
 11
1591.589963
 21
2213.343428
  0
LINE
  8
CSLAYER1
  6
CONTINUOUS
 62
     5
 10
1591.589963
 20
2213.343428
 11
1468.631953
 21
2213.343428
  0
LINE
  8
CSLAYER1
  6
CONTINUOUS
 62
     5
 10
1468.631953
 20
2213.343428
 11
1468.631953
 21
2266.203881
  0
LINE
  8
CSLAYER1
  6
CONTINUOUS
 62
     5
 10
3440.661668
 20
2357.405312
 11
2560.661668
 21
2357.405312
  0
LINE
  8
CSLAYER1
  6
CONTINUOUS
 62
     5
 10
3440.661668
 20
2304.071978
 11
2560.661668
 21
2304.071978
  0
LINE
  8
CSLAYER1
  6
CONTINUOUS
 62
     5
 10
3440.661668
 20
2250.738645
 11
2560.661668
 21
2250.738645
  0
LINE
  8
CSLAYER1
  6
CONTINUOUS
 62
     5
 10
3440.661668
 20
2144.071978
 11
2560.661668
 21
2144.071978
  0
LINE
  8
CSLAYER1
  6
CONTINUOUS
 62
     5
 10
3440.661668
 20
2037.405312
 11
2560.661668
 21
2037.405312
  0
LINE
  8
CSLAYER1
  6
CONTINUOUS
 62
     5
 10
3440.661668
 20
1824.071978
 11
2560.661668
 21
1824.071978
  0
LINE
  8
CSLAYER1
  6
CONTINUOUS
 62
     5
 10
3440.661668
 20
1610.738642
 11
2560.661668
 21
1610.738642
  0
LINE
  8
CSLAYER1
  6
CONTINUOUS
 62
     5
 10
3440.661668
 20
1557.405308
 11
2560.661668
 21
1557.405308
  0
TEXT
  8
CSLAYER1
 62
     3
 10
2573.994629
 20
2364.072021
 40
40.000000
 41
0.838235
  1
仕    様
 50
0.000000
 51
0.000000
  7
EASYDRAW_FONT
 72
     5
 11
2763.994629
 21
2364.072021
  0
TEXT
  8
CSLAYER1
 62
     3
 10
2573.994629
 20
2310.738770
 40
40.000000
 41
0.838235
  1
型    式
 50
0.000000
 51
0.000000
  7
EASYDRAW_FONT
 72
     5
 11
2763.994629
 21
2310.738770
  0
TEXT
  8
CSLAYER1
 62
     3
 10
2938.994629
 20
2310.738770
 40
40.000000
 41
0.817105
  1
GLSE-150-2007
 50
0.000000
 51
0.000000
  7
EASYDRAW_FONT
 72
     5
 11
3352.994629
 21
2310.738770
  0
TEXT
  8
CSLAYER1
 62
     3
 10
2573.994629
 20
2257.405518
 40
40.000000
 41
0.859091
  1
均等荷重
 50
0.000000
 51
0.000000
  7
EASYDRAW_FONT
 72
     5
 11
2699.994629
 21
2257.405518
  0
TEXT
  8
CSLAYER1
 62
     3
 10
3365.327881
 20
2257.405518
 40
40.000000
 41
0.930000
  1
ｋｇ
 50
0.000000
 51
0.000000
  7
EASYDRAW_FONT
 72
     5
 11
3427.327881
 21
2257.405518
  0
TEXT
  8
CSLAYER1
 62
     3
 10
2573.994629
 20
2150.738770
 40
40.000000
 41
0.838235
  1
テーブル高サ
 50
0.000000
 51
0.000000
  7
EASYDRAW_FONT
 72
     5
 11
2763.994629
 21
2150.738770
  0
TEXT
  8
CSLAYER1
 62
     3
 10
3365.327881
 20
2150.738770
 40
40.000000
 41
0.930000
  1
ｍｍ
 50
0.000000
 51
0.000000
  7
EASYDRAW_FONT
 72
     5
 11
3427.327881
 21
2150.738770
  0
TEXT
  8
CSLAYER1
 62
     3
 10
2573.994629
 20
2044.071777
 40
40.000000
 41
0.838235
  1
全    長
 50
0.000000
 51
0.000000
  7
EASYDRAW_FONT
 72
     5
 11
2763.994629
 21
2044.071777
  0
TEXT
  8
CSLAYER1
 62
     3
 10
3098.994629
 20
2044.071777
 40
40.000000
 41
0.881250
  1
703
 50
0.000000
 51
0.000000
  7
EASYDRAW_FONT
 72
     5
 11
3192.994629
 21
2044.071777
  0
TEXT
  8
CSLAYER1
 62
     3
 10
3034.994629
 20
1830.738281
 40
40.000000
 41
0.832500
  1
フットスイッチ
 50
0.000000
 51
0.000000
  7
EASYDRAW_FONT
 72
     5
 11
3256.994629
 21
1830.738281
  0
TEXT
  8
CSLAYER1
 62
     3
 10
2573.994629
 20
1830.738281
 40
40.000000
 41
0.859091
  1
操作方式
 50
0.000000
 51
0.000000
  7
EASYDRAW_FONT
 72
     5
 11
2699.994629
 21
1830.738281
  0
TEXT
  8
CSLAYER1
 62
     3
 10
2573.994629
 20
1564.071655
 40
40.000000
 41
0.832500
  1
自     重
 50
0.000000
 51
0.000000
  7
EASYDRAW_FONT
 72
     5
 11
2795.994629
 21
1564.071655
  0
TEXT
  8
CSLAYER1
 62
     3
 10
3089.661377
 20
1564.071655
 40
40.000000
 41
0.859091
  1
約 54
 50
0.000000
 51
0.000000
  7
EASYDRAW_FONT
 72
     5
 11
3215.661377
 21
1564.071655
  0
TEXT
  8
CSLAYER1
 62
     3
 10
2573.994629
 20
1510.738403
 40
40.000000
 41
0.832500
  1
塗  装  色
 50
0.000000
 51
0.000000
  7
EASYDRAW_FONT
 72
     5
 11
2795.994629
 21
1510.738403
  0
TEXT
  8
CSLAYER1
 62
     3
 10
3098.994629
 20
2257.405518
 40
40.000000
 41
0.881250
  1
150
 50
0.000000
 51
0.000000
  7
EASYDRAW_FONT
 72
     5
 11
3192.994629
 21
2257.405518
  0
TEXT
  8
CSLAYER1
 62
     3
 10
3050.994629
 20
2150.738770
 40
40.000000
 41
0.838235
  1
65～570
 50
0.000000
 51
0.000000
  7
EASYDRAW_FONT
 72
     5
 11
3240.994629
 21
2150.738770
  0
TEXT
  8
CSLAYER1
 62
     3
 10
3365.327881
 20
2044.071777
 40
40.000000
 41
0.930000
  1
ｍｍ
 50
0.000000
 51
0.000000
  7
EASYDRAW_FONT
 72
     5
 11
3427.327881
 21
2044.071777
  0
LINE
  8
CSLAYER1
  6
CONTINUOUS
 62
     5
 10
3440.661668
 20
1984.071978
 11
2560.661668
 21
1984.071978
  0
TEXT
  8
CSLAYER1
 62
     3
 10
2573.994629
 20
1990.738281
 40
40.000000
 41
0.838235
  1
全    幅
 50
0.000000
 51
0.000000
  7
EASYDRAW_FONT
 72
     5
 11
2763.994629
 21
1990.738281
  0
TEXT
  8
CSLAYER1
 62
     3
 10
3098.994629
 20
1990.738281
 40
40.000000
 41
0.881250
  1
300
 50
0.000000
 51
0.000000
  7
EASYDRAW_FONT
 72
     5
 11
3192.994629
 21
1990.738281
  0
TEXT
  8
CSLAYER1
 62
     3
 10
3365.327881
 20
1990.738281
 40
40.000000
 41
0.930000
  1
ｍｍ
 50
0.000000
 51
0.000000
  7
EASYDRAW_FONT
 72
     5
 11
3427.327881
 21
1990.738281
  0
LINE
  8
CSLAYER1
  6
CONTINUOUS
 62
     5
 10
3440.661668
 20
1664.071978
 11
2560.661668
 21
1664.071978
  0
TEXT
  8
CSLAYER1
 62
     3
 10
3001.957031
 20
1616.006592
 40
40.000000
 41
0.825000
  1
油圧ユニット別置型
 50
0.000000
 51
0.000000
  7
EASYDRAW_FONT
 72
     5
 11
3287.957031
 21
1616.006592
  0
LINE
  8
CSLAYER1
  6
CONTINUOUS
 62
     5
 10
3440.661668
 20
1610.738645
 11
2560.661668
 21
1610.738645
  0
TEXT
  8
CSLAYER1
 62
     3
 10
3365.327881
 20
1564.071655
 40
40.000000
 41
0.930000
  1
ｋｇ
 50
0.000000
 51
0.000000
  7
EASYDRAW_FONT
 72
     5
 11
3427.327881
 21
1564.071655
  0
LINE
  8
CSLAYER1
  6
CONTINUOUS
 62
     5
 10
3440.661668
 20
2197.405312
 11
2560.661668
 21
2197.405312
  0
TEXT
  8
CSLAYER1
 62
     3
 10
2573.994629
 20
2204.072266
 40
40.000000
 41
0.838235
  1
テーブル寸法
 50
0.000000
 51
0.000000
  7
EASYDRAW_FONT
 72
     5
 11
2763.994629
 21
2204.072266
  0
TEXT
  8
CSLAYER1
 62
     3
 10
3365.327881
 20
2204.072266
 40
40.000000
 41
0.930000
  1
ｍｍ
 50
0.000000
 51
0.000000
  7
EASYDRAW_FONT
 72
     5
 11
3427.327881
 21
2204.072266
  0
TEXT
  8
CSLAYER1
 62
     3
 10
3002.994629
 20
2204.072266
 40
40.000000
 41
0.825000
  1
700L×200W
 50
0.000000
 51
0.000000
  7
EASYDRAW_FONT
 72
     5
 11
3288.994629
 21
2204.072266
  0
LINE
  8
CSLAYER1
  6
CONTINUOUS
 62
     5
 10
3440.661668
 20
2090.738645
 11
2560.661668
 21
2090.738645
  0
TEXT
  8
CSLAYER1
 62
     3
 10
3365.327881
 20
2097.405518
 40
40.000000
 41
0.930000
  1
ｍｍ
 50
0.000000
 51
0.000000
  7
EASYDRAW_FONT
 72
     5
 11
3427.327881
 21
2097.405518
  0
TEXT
  8
CSLAYER1
 62
     3
 10
3098.994629
 20
2097.405518
 40
40.000000
 41
0.881250
  1
505
 50
0.000000
 51
0.000000
  7
EASYDRAW_FONT
 72
     5
 11
3192.994629
 21
2097.405518
  0
TEXT
  8
CSLAYER1
 62
     3
 10
2575.827148
 20
2097.405518
 40
40.000000
 41
0.846429
  1
ストローク
 50
0.000000
 51
0.000000
  7
EASYDRAW_FONT
 72
     5
 11
2733.827148
 21
2097.405518
  0
LINE
  8
CSLAYER1
  6
CONTINUOUS
 62
     5
 10
3440.661668
 20
1930.738645
 11
2560.661668
 21
1930.738645
  0
TEXT
  8
CSLAYER1
 62
     3
 10
2573.994629
 20
1937.405029
 40
40.000000
 41
0.838235
  1
全    高
 50
0.000000
 51
0.000000
  7
EASYDRAW_FONT
 72
     5
 11
2763.994629
 21
1937.405029
  0
TEXT
  8
CSLAYER1
 62
     3
 10
3098.994629
 20
1937.405029
 40
40.000000
 41
0.881250
  1
 65
 50
0.000000
 51
0.000000
  7
EASYDRAW_FONT
 72
     5
 11
3192.994629
 21
1937.405029
  0
TEXT
  8
CSLAYER1
 62
     3
 10
3365.327881
 20
1937.405029
 40
40.000000
 41
0.930000
  1
ｍｍ
 50
0.000000
 51
0.000000
  7
EASYDRAW_FONT
 72
     5
 11
3427.327881
 21
1937.405029
  0
LINE
  8
CSLAYER1
  6
CONTINUOUS
 62
     5
 10
3440.661668
 20
1877.405312
 11
2560.661668
 21
1877.405312
  0
TEXT
  8
CSLAYER1
 62
     3
 10
2573.994629
 20
1884.071655
 40
40.000000
 41
0.846429
  1
リフト方式
 50
0.000000
 51
0.000000
  7
EASYDRAW_FONT
 72
     5
 11
2731.994629
 21
1884.071655
  0
TEXT
  8
CSLAYER1
 62
     3
 10
3066.994629
 20
1884.071655
 40
40.000000
 41
0.846429
  1
電動油圧式
 50
0.000000
 51
0.000000
  7
EASYDRAW_FONT
 72
     5
 11
3224.994629
 21
1884.071655
  0
LINE
  8
CSLAYER1
  6
CONTINUOUS
 62
     5
 10
3440.661668
 20
1717.405312
 11
2560.661668
 21
1717.405312
  0
TEXT
  8
CSLAYER1
 62
     3
 10
3066.994629
 20
1724.071533
 40
40.000000
 41
0.846429
  1
長さ ４ｍ
 50
0.000000
 51
0.000000
  7
EASYDRAW_FONT
 72
     5
 11
3224.994629
 21
1724.071533
  0
TEXT
  8
CSLAYER1
 62
     3
 10
2573.994629
 20
1724.071533
 40
40.000000
 41
0.846429
  1
電源コード
 50
0.000000
 51
0.000000
  7
EASYDRAW_FONT
 72
     5
 11
2731.994629
 21
1724.071533
  0
TEXT
  8
CSLAYER1
 62
     3
 10
2573.994629
 20
1670.738281
 40
40.000000
 41
0.859091
  1
上昇時間
 50
0.000000
 51
0.000000
  7
EASYDRAW_FONT
 72
     5
 11
2699.994629
 21
1670.738281
  0
TEXT
  8
CSLAYER1
 62
     3
 10
2885.994648
 20
1670.738281
 40
40.000000
 41
0.661017
  1
約8sec/50Hz，6sec/60Hz
 50
0.000000
 51
0.000000
  7
EASYDRAW_FONT
 72
     5
 11
3405.994610
 21
1670.738281
  0
LINE
  8
CSLAYER1
  6
CONTINUOUS
 62
     5
 10
3440.661668
 20
1770.738645
 11
2560.661668
 21
1770.738645
  0
TEXT
  8
CSLAYER1
 62
     3
 10
2573.994629
 20
1777.405029
 40
40.000000
 41
0.859091
  1
モーター
 50
0.000000
 51
0.000000
  7
EASYDRAW_FONT
 72
     5
 11
2699.994629
 21
1777.405029
  0
TEXT
  8
CSLAYER1
 62
     3
 10
2906.994629
 20
1777.405029
 40
40.000000
 41
0.814773
  1
AC200V，三相，0.4kw
 50
0.000000
 51
0.000000
  7
EASYDRAW_FONT
 72
     5
 11
3384.994629
 21
1777.405029
  0
LINE
  8
CSLAYER1
  6
CONTINUOUS
 62
     5
 10
2864.661668
 20
1504.071975
 11
2864.661668
 21
1610.738642
  0
LINE
  8
CSLAYER1
  6
CONTINUOUS
 62
     5
 10
2864.661668
 20
1664.071978
 11
2864.661668
 21
2357.405312
  0
INSERT
  8
CSLAYER1
  2
BLKF0004
 10
0.0
 20
0.0
 30
0.0
  0
INSERT
  8
CSLAYER1
  2
BLKF0005
 10
0.0
 20
0.0
 30
0.0
  0
DIMENSION
  8
CSLAYER1
 62
     3
  2
*D0011
 10
990.189627
 20
710.338283
 11
865.189636
 21
720.338257
 13
740.189627
 23
794.947168
 14
990.189627
 24
794.947168
 52
270.000000
 70
1
  0
DIMENSION
  8
CSLAYER1
 62
     3
  2
*D0012
 10
1015.189627
 20
646.021051
 11
865.189636
 21
656.021057
 13
715.189627
 23
794.947168
 14
1015.189627
 24
800.947168
 52
270.000000
  0
DIMENSION
  8
CSLAYER1
 62
     3
  2
*D0013
 10
965.189627
 20
1448.547699
 11
865.189636
 21
1458.547729
 13
765.189627
 23
1374.925279
 14
965.189627
 24
1374.925279
 70
1
  0
LINE
  8
CSLAYER1
  6
CENTER
 62
     5
 10
865.189627
 20
1374.925279
 11
865.189627
 21
1405.710101
  0
DIMENSION
  8
CSLAYER1
 62
     3
  2
*D0014
 10
1500.417937
 20
725.168984
 11
1516.509155
 21
695.894226
 13
1475.417937
 23
794.947168
 14
1500.417937
 24
794.947168
 52
270.000000
 70
1
  0
INSERT
  8
CSLAYER1
  2
EASYDRAWDIM0004
 10
0.0
 20
0.0
 30
0.0
  0
INSERT
  8
CSLAYER1
  2
EASYDRAWDIM0005
 10
0.0
 20
0.0
 30
0.0
  0
INSERT
  8
CSLAYER1
  2
EASYDRAWDIM0006
 10
0.0
 20
0.0
 30
0.0
  0
TEXT
  8
CSLAYER1
 62
     7
 10
816.053162
 20
575.905090
 40
40.000000
 41
0.843750
  1
上昇時
 50
0.000000
 51
0.000000
  7
EASYDRAW_FONT
 72
     5
 11
906.053162
 21
575.905090
  0
LINE
  8
CSLAYER1
  6
CONTINUOUS
 62
     5
 10
802.446661
 20
622.335230
 11
925.404671
 21
622.335230
  0
LINE
  8
CSLAYER1
  6
CONTINUOUS
 62
     5
 10
925.404671
 20
622.335230
 11
925.404671
 21
569.474777
  0
LINE
  8
CSLAYER1
  6
CONTINUOUS
 62
     5
 10
925.404671
 20
569.474777
 11
802.446661
 21
569.474777
  0
LINE
  8
CSLAYER1
  6
CONTINUOUS
 62
     5
 10
802.446661
 20
569.474777
 11
802.446661
 21
622.335230
  0
LINE
  8
CSLAYER1
  6
CONTINUOUS
 62
     6
 10
990.189627
 20
788.947168
 11
1086.097273
 21
706.045432
  0
LINE
  8
CSLAYER1
  6
CONTINUOUS
 62
     6
 10
990.189627
 20
788.947168
 11
1017.190102
 21
775.871453
  0
LINE
  8
CSLAYER1
  6
CONTINUOUS
 62
     6
 10
990.189627
 20
788.947168
 11
1007.034867
 21
764.123029
  0
TEXT
  8
CSLAYER1
 62
     5
 10
2927.039762
 20
802.467030
 40
31.844261
 41
0.920655
  1
Ｆ.Ｌ
 50
0.000000
 51
0.000000
  7
EASYDRAW_FONT
 72
     5
 11
3005.220003
 21
802.467030
  0
LINE
  8
CSLAYER1
  6
CONTINUOUS
 62
     3
 10
2538.294316
 20
794.947168
 11
2838.294316
 21
794.947168
  0
LINE
  8
CSLAYER1
  6
CENTER
 62
     5
 10
2813.294316
 20
786.017807
 11
2813.294316
 21
810.227769
  0
LINE
  8
CSLAYER1
  6
CENTER
 62
     5
 10
2563.294316
 20
786.017807
 11
2563.294316
 21
810.227769
  0
LINE
  8
CSLAYER1
  6
CONTINUOUS
 62
     3
 10
2588.294316
 20
834.947168
 11
2788.294316
 21
834.947168
  0
LINE
  8
CSLAYER1
  6
CONTINUOUS
 62
     3
 10
2588.294316
 20
834.947168
 11
2588.294316
 21
800.947168
  0
LINE
  8
CSLAYER1
  6
CONTINUOUS
 62
     3
 10
2788.294316
 20
834.947168
 11
2788.294316
 21
800.947168
  0
LINE
  8
CSLAYER1
  6
CONTINUOUS
 62
     3
 10
2838.294316
 20
794.947168
 11
2838.294316
 21
800.947168
  0
LINE
  8
CSLAYER1
  6
CONTINUOUS
 62
     3
 10
2838.294316
 20
800.947168
 11
2788.294316
 21
800.947168
  0
LINE
  8
CSLAYER1
  6
CONTINUOUS
 62
     3
 10
2538.294316
 20
794.947168
 11
2538.294316
 21
800.947168
  0
POINT
  8
CSLAYER1
 62
     3
 10
2688.294316
 20
859.747168
  0
POINT
  8
CSLAYER1
 62
     3
 10
2688.294316
 20
834.947168
  0
LINE
  8
CSLAYER1
  6
CENTER
 62
     5
 10
2613.794316
 20
839.947168
 11
2762.794316
 21
839.947168
  0
LINE
  8
CSLAYER1
  6
CONTINUOUS
 62
     3
 10
2788.294316
 20
859.747168
 11
2588.294316
 21
859.747168
  0
LINE
  8
CSLAYER1
  6
CONTINUOUS
 62
     3
 10
2788.294316
 20
841.747168
 11
2588.294316
 21
841.747168
  0
LINE
  8
CSLAYER1
  6
CONTINUOUS
 62
     3
 10
2788.294316
 20
841.747168
 11
2788.294316
 21
859.747168
  0
LINE
  8
CSLAYER1
  6
CONTINUOUS
 62
     3
 10
2745.294316
 20
841.747168
 11
2745.294316
 21
834.947168
  0
LINE
  8
CSLAYER1
  6
CONTINUOUS
 62
     3
 10
2744.294316
 20
841.747168
 11
2744.294316
 21
834.947168
  0
LINE
  8
CSLAYER1
  6
CONTINUOUS
 62
     3
 10
2751.794316
 20
841.747168
 11
2751.794316
 21
834.947168
  0
LINE
  8
CSLAYER1
  6
CONTINUOUS
 62
     3
 10
2745.794316
 20
841.747168
 11
2745.794316
 21
834.947168
  0
LINE
  8
CSLAYER1
  6
CONTINUOUS
 62
     3
 10
2754.794316
 20
834.947168
 11
2754.794316
 21
841.747168
  0
LINE
  8
CSLAYER1
  6
CONTINUOUS
 62
     3
 10
2751.794316
 20
838.434972
 11
2754.633342
 21
841.747168
  0
LINE
  8
CSLAYER1
  6
CONTINUOUS
 62
     3
 10
2762.794316
 20
841.747168
 11
2762.794316
 21
834.947168
  0
ARC
  8
CSLAYER1
  6
CONTINUOUS
 62
     3
 10
2748.998572
 20
839.947168
 40
13.795744
 50
-21.249544
 51
7.497043
  0
LINE
  8
CSLAYER1
  6
CONTINUOUS
 62
     3
 10
2588.294316
 20
841.747168
 11
2588.294316
 21
859.747168
  0
LINE
  8
CSLAYER1
  6
CONTINUOUS
 62
     3
 10
2631.294316
 20
841.747168
 11
2631.294316
 21
834.947168
  0
LINE
  8
CSLAYER1
  6
CONTINUOUS
 62
     3
 10
2632.294316
 20
841.747168
 11
2632.294316
 21
834.947168
  0
LINE
  8
CSLAYER1
  6
CONTINUOUS
 62
     3
 10
2624.794316
 20
841.747168
 11
2624.794316
 21
834.947168
  0
LINE
  8
CSLAYER1
  6
CONTINUOUS
 62
     3
 10
2630.794316
 20
841.747168
 11
2630.794316
 21
834.947168
  0
LINE
  8
CSLAYER1
  6
CONTINUOUS
 62
     3
 10
2621.794316
 20
834.947168
 11
2621.794316
 21
841.747168
  0
LINE
  8
CSLAYER1
  6
CONTINUOUS
 62
     3
 10
2624.794316
 20
838.434972
 11
2621.955290
 21
841.747168
  0
LINE
  8
CSLAYER1
  6
CONTINUOUS
 62
     3
 10
2613.794316
 20
841.747168
 11
2613.794316
 21
834.947168
  0
ARC
  8
CSLAYER1
  6
CONTINUOUS
 62
     3
 10
2627.590060
 20
839.947168
 40
13.795744
 50
172.502957
 51
201.249544
  0
LINE
  8
CSLAYER1
  6
CONTINUOUS
 62
     3
 10
2603.294316
 20
834.947168
 11
2603.294316
 21
841.747168
  0
LINE
  8
CSLAYER1
  6
CONTINUOUS
 62
     3
 10
2607.794316
 20
834.947168
 11
2607.794316
 21
841.747168
  0
LINE
  8
CSLAYER1
  6
CONTINUOUS
 62
     3
 10
2773.294316
 20
834.947168
 11
2773.294316
 21
841.747168
  0
LINE
  8
CSLAYER1
  6
CONTINUOUS
 62
     3
 10
2768.794316
 20
834.947168
 11
2768.794316
 21
841.747168
  0
LINE
  8
CSLAYER1
  6
CENTER
 62
     5
 10
2688.294316
 20
859.747168
 11
2688.294316
 21
794.947168
  0
TEXT
  8
CSLAYER1
 62
     7
 10
2627.563721
 20
928.855469
 40
40.000000
 41
0.843750
  1
下降時
 50
0.000000
 51
0.000000
  7
EASYDRAW_FONT
 72
     5
 11
2717.563721
 21
928.855469
  0
LINE
  8
CSLAYER1
  6
CONTINUOUS
 62
     5
 10
2613.957061
 20
975.285645
 11
2736.915071
 21
975.285645
  0
LINE
  8
CSLAYER1
  6
CONTINUOUS
 62
     5
 10
2736.915071
 20
975.285645
 11
2736.915071
 21
922.425192
  0
LINE
  8
CSLAYER1
  6
CONTINUOUS
 62
     5
 10
2736.915071
 20
922.425192
 11
2613.957061
 21
922.425192
  0
LINE
  8
CSLAYER1
  6
CONTINUOUS
 62
     5
 10
2613.957061
 20
922.425192
 11
2613.957061
 21
975.285645
  0
DIMENSION
  8
CSLAYER1
 62
     3
  2
*D0015
 10
2504.031127
 20
859.747168
 11
2494.031006
 21
827.347107
 13
2537.753163
 23
794.947168
 14
2588.294316
 24
859.747168
 50
90.000000
  0
LINE
  8
CSLAYER1
  6
CONTINUOUS
 62
     5
 10
3047.638135
 20
794.947168
 11
2838.294316
 21
794.947168
  0
LINE
  8
CSLAYER1
  6
CONTINUOUS
 62
     3
 10
2788.294316
 20
800.947168
 11
2788.294316
 21
794.947168
  0
LINE
  8
CSLAYER1
  6
CONTINUOUS
 62
     3
 10
2588.294316
 20
800.947168
 11
2538.294316
 21
800.947168
  0
LINE
  8
CSLAYER1
  6
CONTINUOUS
 62
     3
 10
2588.294316
 20
794.947168
 11
2588.294316
 21
800.947168
  0
INSERT
  8
CSLAYER1
  2
BLKF0006
 10
0.0
 20
0.0
 30
0.0
  0
LINE
  8
CSLAYER1
  6
CONTINUOUS
 62
     5
 10
2178.417937
 20
794.947168
 11
2538.294316
 21
794.947168
  0
LINE
  8
CSLAYER1
  6
CONTINUOUS
 62
     3
 10
1475.417937
 20
794.947168
 11
2178.417937
 21
794.947168
  0
LINE
  8
CSLAYER1
  6
CONTINUOUS
 62
     5
 10
1015.189627
 20
794.947168
 11
1475.417937
 21
794.947168
  0
LINE
  8
CSLAYER1
  6
CONTINUOUS
 62
     3
 10
715.189627
 20
794.947168
 11
1015.189627
 21
794.947168
  0
ENDSEC
  0
EOF
