  0
SECTION
  2
HEADER
  9
$ACADVER
  1
AC1012
  9
$DWGCODEPAGE
  3
ansi_932
  9
$INSBASE
 10
0.0
 20
0.0
 30
0.0
  9
$EXTMIN
 10
0.0
 20
0.0
 30
0.0
  9
$EXTMAX
 10
3640.0
 20
2570.0
 30
0.0
  9
$LIMMIN
 10
0.0
 20
0.0
  9
$LIMMAX
 10
3640.0
 20
2570.0
  9
$ORTHOMODE
 70
     0
  9
$REGENMODE
 70
     1
  9
$FILLMODE
 70
     1
  9
$QTEXTMODE
 70
     0
  9
$MIRRTEXT
 70
     1
  9
$DRAGMODE
 70
     2
  9
$LTSCALE
 40
1.0
  9
$OSMODE
 70
    37
  9
$ATTMODE
 70
     1
  9
$TEXTSIZE
 40
2.5
  9
$TRACEWID
 40
1.0
  9
$TEXTSTYLE
  7
ED_VECTOR
  9
$CLAYER
  8
0
  9
$CELTYPE
  6
BYLAYER
  9
$CECOLOR
 62
   256
  9
$CELTSCALE
 40
1.0
  9
$DELOBJ
 70
     1
  9
$DISPSILH
 70
     0
  9
$DIMSCALE
 40
1.0
  9
$DIMASZ
 40
30.0
  9
$DIMEXO
 40
10.0
  9
$DIMDLI
 40
0.1
  9
$DIMRND
 40
0.0
  9
$DIMDLE
 40
40.0
  9
$DIMEXE
 40
10.0
  9
$DIMTP
 40
0.0
  9
$DIMTM
 40
0.0
  9
$DIMTXT
 40
30.0
  9
$DIMCEN
 40
2.5
  9
$DIMTSZ
 40
0.0
  9
$DIMTOL
 70
     0
  9
$DIMLIM
 70
     0
  9
$DIMTIH
 70
     0
  9
$DIMTOH
 70
     0
  9
$DIMSE1
 70
     0
  9
$DIMSE2
 70
     0
  9
$DIMTAD
 70
     1
  9
$DIMZIN
 70
     8
  9
$DIMBLK
  1

  9
$DIMASO
 70
     1
  9
$DIMSHO
 70
     1
  9
$DIMPOST
  1

  9
$DIMAPOST
  1

  9
$DIMALT
 70
     0
  9
$DIMALTD
 70
     3
  9
$DIMALTF
 40
0.03937
  9
$DIMLFAC
 40
1.0
  9
$DIMTOFL
 70
     1
  9
$DIMTVP
 40
0.0
  9
$DIMTIX
 70
     0
  9
$DIMSOXD
 70
     0
  9
$DIMSAH
 70
     1
  9
$DIMBLK1
  1
EDTIP_ARROW_S
  9
$DIMBLK2
  1
EDTIP_ARROW_E
  9
$DIMSTYLE
  2
EDDIMINFO
  9
$DIMCLRD
 70
     5
  9
$DIMCLRE
 70
     5
  9
$DIMCLRT
 70
     4
  9
$DIMTFAC
 40
1.0
  9
$DIMGAP
 40
10.0
  9
$DIMJUST
 70
     0
  9
$DIMSD1
 70
     0
  9
$DIMSD2
 70
     0
  9
$DIMTOLJ
 70
     0
  9
$DIMTZIN
 70
     8
  9
$DIMALTZ
 70
     0
  9
$DIMALTTZ
 70
     0
  9
$DIMFIT
 70
     3
  9
$DIMUPT
 70
     0
  9
$DIMUNIT
 70
     2
  9
$DIMDEC
 70
     0
  9
$DIMTDEC
 70
     2
  9
$DIMALTU
 70
     2
  9
$DIMALTTD
 70
     3
  9
$DIMTXSTY
  7
ED_VECTOR
  9
$DIMAUNIT
 70
     0
  9
$LUNITS
 70
     2
  9
$LUPREC
 70
     4
  9
$SKETCHINC
 40
1.0
  9
$FILLETRAD
 40
10.0
  9
$AUNITS
 70
     0
  9
$AUPREC
 70
     0
  9
$MENU
  1
.
  9
$ELEVATION
 40
0.0
  9
$PELEVATION
 40
0.0
  9
$THICKNESS
 40
0.0
  9
$LIMCHECK
 70
     0
  9
$CHAMFERA
 40
0.0
  9
$CHAMFERB
 40
0.0
  9
$CHAMFERC
 40
0.0
  9
$CHAMFERD
 40
0.0
  9
$SKPOLY
 70
     0
  9
$TDCREATE
 40
2458877.664122755
  9
$TDUPDATE
 40
2458877.664124445
  9
$TDINDWG
 40
0.0000000116
  9
$TDUSRTIMER
 40
0.0000000116
  9
$USRTIMER
 70
     1
  9
$ANGBASE
 50
0.0
  9
$ANGDIR
 70
     0
  9
$PDMODE
 70
     0
  9
$PDSIZE
 40
0.0
  9
$PLINEWID
 40
0.0
  9
$COORDS
 70
     1
  9
$SPLFRAME
 70
     0
  9
$SPLINETYPE
 70
     6
  9
$SPLINESEGS
 70
     8
  9
$ATTDIA
 70
     0
  9
$ATTREQ
 70
     1
  9
$HANDLING
 70
     1
  9
$HANDSEED
  5
826
  9
$SURFTAB1
 70
     6
  9
$SURFTAB2
 70
     6
  9
$SURFTYPE
 70
     6
  9
$SURFU
 70
     6
  9
$SURFV
 70
     6
  9
$UCSNAME
  2

  9
$UCSORG
 10
0.0
 20
0.0
 30
0.0
  9
$UCSXDIR
 10
1.0
 20
0.0
 30
0.0
  9
$UCSYDIR
 10
0.0
 20
1.0
 30
0.0
  9
$PUCSNAME
  2

  9
$PUCSORG
 10
0.0
 20
0.0
 30
0.0
  9
$PUCSXDIR
 10
1.0
 20
0.0
 30
0.0
  9
$PUCSYDIR
 10
0.0
 20
1.0
 30
0.0
  9
$USERI1
 70
     0
  9
$USERI2
 70
     0
  9
$USERI3
 70
     0
  9
$USERI4
 70
     0
  9
$USERI5
 70
     0
  9
$USERR1
 40
0.0
  9
$USERR2
 40
0.0
  9
$USERR3
 40
0.0
  9
$USERR4
 40
0.0
  9
$USERR5
 40
0.0
  9
$WORLDVIEW
 70
     1
  9
$SHADEDGE
 70
     3
  9
$SHADEDIF
 70
    70
  9
$TILEMODE
 70
     1
  9
$MAXACTVP
 70
    64
  9
$PINSBASE
 10
0.0
 20
0.0
 30
0.0
  9
$PLIMCHECK
 70
     0
  9
$PEXTMIN
 10
1.000000E+20
 20
1.000000E+20
 30
1.000000E+20
  9
$PEXTMAX
 10
-1.000000E+20
 20
-1.000000E+20
 30
-1.000000E+20
  9
$PLIMMIN
 10
0.0
 20
0.0
  9
$PLIMMAX
 10
420.0
 20
297.0
  9
$UNITMODE
 70
     0
  9
$VISRETAIN
 70
     1
  9
$PLINEGEN
 70
     0
  9
$PSLTSCALE
 70
     1
  9
$TREEDEPTH
 70
  3020
  9
$PICKSTYLE
 70
     1
  9
$CMLSTYLE
  2
STANDARD
  9
$CMLJUST
 70
     0
  9
$CMLSCALE
 40
20.0
  9
$SAVEIMAGES
 70
     1
  0
ENDSEC
  0
SECTION
  2
CLASSES
  0
CLASS
  1
ACDBDICTIONARYWDFLT
  2
AcDbDictionaryWithDefault
  3
ObjectDBX Classes
 90
    32768
280
     0
281
     0
  0
CLASS
  1
VISUALSTYLE
  2
AcDbVisualStyle
  3
ObjectDBX Classes
 90
     4095
280
     0
281
     0
  0
CLASS
  1
MATERIAL
  2
AcDbMaterial
  3
ObjectDBX Classes
 90
     1153
280
     0
281
     0
  0
CLASS
  1
SCALE
  2
AcDbScale
  3
ObjectDBX Classes
 90
     1153
280
     0
281
     0
  0
CLASS
  1
TABLESTYLE
  2
AcDbTableStyle
  3
ObjectDBX Classes
 90
     4095
280
     0
281
     0
  0
CLASS
  1
MLEADERSTYLE
  2
AcDbMLeaderStyle
  3
ACDB_MLEADERSTYLE_CLASS
 90
     4095
280
     0
281
     0
  0
CLASS
  1
SUN
  2
AcDbSun
  3
SCENEOE
 90
     1153
280
     0
281
     0
  0
CLASS
  1
DICTIONARYVAR
  2
AcDbDictionaryVar
  3
ObjectDBX Classes
 90
        0
280
     0
281
     0
  0
CLASS
  1
XRECORD
  2
AcDbXrecord
  3
ObjectDBX Classes
 90
    32768
280
     0
281
     0
  0
CLASS
  1
LWPOLYLINE
  2
AcDbPolyline
  3
ObjectDBX Classes
 90
    32768
280
     0
281
     1
  0
CLASS
  1
HATCH
  2
AcDbHatch
  3
ObjectDBX Classes
 90
    32768
280
     0
281
     1
  0
CLASS
  1
ACDBPLACEHOLDER
  2
AcDbPlaceHolder
  3
ObjectDBX Classes
 90
        0
280
     0
281
     0
  0
CLASS
  1
LAYOUT
  2
AcDbLayout
  3
ObjectDBX Classes
 90
        0
280
     0
281
     0
  0
ENDSEC
  0
SECTION
  2
TABLES
  0
TABLE
  2
VPORT
  5
8
330
0
100
AcDbSymbolTable
 70
     1
  0
VPORT
  5
29
330
8
100
AcDbSymbolTableRecord
100
AcDbViewportTableRecord
  2
*ACTIVE
 70
     0
 10
0.0
 20
0.0
 11
1.0
 21
1.0
 12
1820.0
 22
1285.0
 13
0.0
 23
0.0
 14
10.0
 24
10.0
 15
10.0
 25
10.0
 16
0.0
 26
0.0
 36
1.0
 17
0.0
 27
0.0
 37
0.0
 40
2570.0
 41
1.416342
 42
50.0
 43
0.0
 44
0.0
 50
0.0
 51
0.0
 71
     0
 72
   100
 73
     1
 74
     3
 75
     0
 76
     0
 77
     0
 78
     0
  0
ENDTAB
  0
TABLE
  2
LTYPE
  5
5
330
0
100
AcDbSymbolTable
 70
     5
  0
LTYPE
  5
14
330
5
100
AcDbSymbolTableRecord
100
AcDbLinetypeTableRecord
  2
BYBLOCK
 70
     0
  3

 72
    65
 73
     0
 40
0.0
  0
LTYPE
  5
15
330
5
100
AcDbSymbolTableRecord
100
AcDbLinetypeTableRecord
  2
BYLAYER
 70
     0
  3

 72
    65
 73
     0
 40
0.0
  0
LTYPE
  5
16
330
5
100
AcDbSymbolTableRecord
100
AcDbLinetypeTableRecord
  2
CONTINUOUS
 70
     0
  3
--------------------
 72
    65
 73
     0
 40
0.0
  0
LTYPE
  5
6E
330
5
100
AcDbSymbolTableRecord
100
AcDbLinetypeTableRecord
  2
DASHED
 70
     0
  3
- - - - - - - - - - -
 72
    65
 73
     2
 40
19.1
 49
12.7
 74
     0
 49
-6.4
 74
     0
  0
LTYPE
  5
6F
330
5
100
AcDbSymbolTableRecord
100
AcDbLinetypeTableRecord
  2
CENTER
 70
     0
  3
- ･ - ･ - ･ - ･ - ･ - ･ - ･ - ･ - ･ - ･ -
 72
    65
 73
     4
 40
51.0
 49
31.8
 74
     0
 49
-6.4
 74
     0
 49
6.4
 74
     0
 49
-6.4
 74
     0
  0
LTYPE
  5
70
330
5
100
AcDbSymbolTableRecord
100
AcDbLinetypeTableRecord
  2
PHANTOM
 70
     0
  3
- ･ ･ - ･ ･ - ･ ･ - ･ ･ - ･ ･ - ･ ･ - ･ ･ - 
 72
    65
 73
     6
 40
63.8
 49
31.8
 74
     0
 49
-6.4
 74
     0
 49
6.4
 74
     0
 49
-6.4
 74
     0
 49
6.4
 74
     0
 49
-6.4
 74
     0
  0
LTYPE
  5
71
330
5
100
AcDbSymbolTableRecord
100
AcDbLinetypeTableRecord
  2
DOT
 70
     0
  3
・・・・・・・・・・・・・・・
 72
    65
 73
     2
 40
6.5
 49
0.1
 74
     0
 49
-6.4
 74
     0
  0
ENDTAB
  0
TABLE
  2
LAYER
  5
2
330
0
100
AcDbSymbolTable
 70
    65
  0
LAYER
  5
10
330
2
100
AcDbSymbolTableRecord
100
AcDbLayerTableRecord
  2
0
 70
     0
 62
     7
  6
CONTINUOUS
  0
LAYER
  5
72
330
2
100
AcDbSymbolTableRecord
100
AcDbLayerTableRecord
  2
LAYER002
 70
     0
 62
     7
  6
CONTINUOUS
  0
LAYER
  5
73
330
2
100
AcDbSymbolTableRecord
100
AcDbLayerTableRecord
  2
LAYER003
 70
     0
 62
     7
  6
CONTINUOUS
  0
LAYER
  5
74
330
2
100
AcDbSymbolTableRecord
100
AcDbLayerTableRecord
  2
LAYER004
 70
     0
 62
     7
  6
CONTINUOUS
  0
LAYER
  5
75
330
2
100
AcDbSymbolTableRecord
100
AcDbLayerTableRecord
  2
LAYER005
 70
     0
 62
     7
  6
CONTINUOUS
  0
LAYER
  5
76
330
2
100
AcDbSymbolTableRecord
100
AcDbLayerTableRecord
  2
LAYER006
 70
     0
 62
     7
  6
CONTINUOUS
  0
LAYER
  5
77
330
2
100
AcDbSymbolTableRecord
100
AcDbLayerTableRecord
  2
LAYER007
 70
     0
 62
     7
  6
CONTINUOUS
  0
LAYER
  5
78
330
2
100
AcDbSymbolTableRecord
100
AcDbLayerTableRecord
  2
LAYER008
 70
     0
 62
     7
  6
CONTINUOUS
  0
LAYER
  5
79
330
2
100
AcDbSymbolTableRecord
100
AcDbLayerTableRecord
  2
LAYER009
 70
     0
 62
     7
  6
CONTINUOUS
  0
LAYER
  5
7A
330
2
100
AcDbSymbolTableRecord
100
AcDbLayerTableRecord
  2
LAYER010
 70
     0
 62
     7
  6
CONTINUOUS
  0
LAYER
  5
7B
330
2
100
AcDbSymbolTableRecord
100
AcDbLayerTableRecord
  2
LAYER011
 70
     0
 62
     7
  6
CONTINUOUS
  0
LAYER
  5
7C
330
2
100
AcDbSymbolTableRecord
100
AcDbLayerTableRecord
  2
LAYER012
 70
     0
 62
     7
  6
CONTINUOUS
  0
LAYER
  5
7D
330
2
100
AcDbSymbolTableRecord
100
AcDbLayerTableRecord
  2
LAYER013
 70
     0
 62
     7
  6
CONTINUOUS
  0
LAYER
  5
7E
330
2
100
AcDbSymbolTableRecord
100
AcDbLayerTableRecord
  2
LAYER014
 70
     0
 62
     7
  6
CONTINUOUS
  0
LAYER
  5
7F
330
2
100
AcDbSymbolTableRecord
100
AcDbLayerTableRecord
  2
LAYER015
 70
     0
 62
     7
  6
CONTINUOUS
  0
LAYER
  5
80
330
2
100
AcDbSymbolTableRecord
100
AcDbLayerTableRecord
  2
LAYER016
 70
     0
 62
     7
  6
CONTINUOUS
  0
LAYER
  5
81
330
2
100
AcDbSymbolTableRecord
100
AcDbLayerTableRecord
  2
LAYER017
 70
     0
 62
     7
  6
CONTINUOUS
  0
LAYER
  5
82
330
2
100
AcDbSymbolTableRecord
100
AcDbLayerTableRecord
  2
LAYER018
 70
     0
 62
     7
  6
CONTINUOUS
  0
LAYER
  5
83
330
2
100
AcDbSymbolTableRecord
100
AcDbLayerTableRecord
  2
LAYER019
 70
     0
 62
     7
  6
CONTINUOUS
  0
LAYER
  5
84
330
2
100
AcDbSymbolTableRecord
100
AcDbLayerTableRecord
  2
LAYER020
 70
     0
 62
     7
  6
CONTINUOUS
  0
LAYER
  5
85
330
2
100
AcDbSymbolTableRecord
100
AcDbLayerTableRecord
  2
LAYER021
 70
     0
 62
     7
  6
CONTINUOUS
  0
LAYER
  5
86
330
2
100
AcDbSymbolTableRecord
100
AcDbLayerTableRecord
  2
LAYER022
 70
     0
 62
     7
  6
CONTINUOUS
  0
LAYER
  5
87
330
2
100
AcDbSymbolTableRecord
100
AcDbLayerTableRecord
  2
LAYER023
 70
     0
 62
     7
  6
CONTINUOUS
  0
LAYER
  5
88
330
2
100
AcDbSymbolTableRecord
100
AcDbLayerTableRecord
  2
LAYER024
 70
     0
 62
     7
  6
CONTINUOUS
  0
LAYER
  5
89
330
2
100
AcDbSymbolTableRecord
100
AcDbLayerTableRecord
  2
LAYER025
 70
     0
 62
     7
  6
CONTINUOUS
  0
LAYER
  5
8A
330
2
100
AcDbSymbolTableRecord
100
AcDbLayerTableRecord
  2
LAYER026
 70
     0
 62
     7
  6
CONTINUOUS
  0
LAYER
  5
8B
330
2
100
AcDbSymbolTableRecord
100
AcDbLayerTableRecord
  2
LAYER027
 70
     0
 62
     7
  6
CONTINUOUS
  0
LAYER
  5
8C
330
2
100
AcDbSymbolTableRecord
100
AcDbLayerTableRecord
  2
LAYER028
 70
     0
 62
     7
  6
CONTINUOUS
  0
LAYER
  5
8D
330
2
100
AcDbSymbolTableRecord
100
AcDbLayerTableRecord
  2
LAYER029
 70
     0
 62
     7
  6
CONTINUOUS
  0
LAYER
  5
8E
330
2
100
AcDbSymbolTableRecord
100
AcDbLayerTableRecord
  2
LAYER030
 70
     0
 62
     7
  6
CONTINUOUS
  0
LAYER
  5
8F
330
2
100
AcDbSymbolTableRecord
100
AcDbLayerTableRecord
  2
LAYER031
 70
     0
 62
     7
  6
CONTINUOUS
  0
LAYER
  5
90
330
2
100
AcDbSymbolTableRecord
100
AcDbLayerTableRecord
  2
LAYER032
 70
     0
 62
     7
  6
CONTINUOUS
  0
LAYER
  5
91
330
2
100
AcDbSymbolTableRecord
100
AcDbLayerTableRecord
  2
LAYER033
 70
     0
 62
     7
  6
CONTINUOUS
  0
LAYER
  5
92
330
2
100
AcDbSymbolTableRecord
100
AcDbLayerTableRecord
  2
LAYER034
 70
     0
 62
     7
  6
CONTINUOUS
  0
LAYER
  5
93
330
2
100
AcDbSymbolTableRecord
100
AcDbLayerTableRecord
  2
LAYER035
 70
     0
 62
     7
  6
CONTINUOUS
  0
LAYER
  5
94
330
2
100
AcDbSymbolTableRecord
100
AcDbLayerTableRecord
  2
LAYER036
 70
     0
 62
     7
  6
CONTINUOUS
  0
LAYER
  5
95
330
2
100
AcDbSymbolTableRecord
100
AcDbLayerTableRecord
  2
LAYER037
 70
     0
 62
     7
  6
CONTINUOUS
  0
LAYER
  5
96
330
2
100
AcDbSymbolTableRecord
100
AcDbLayerTableRecord
  2
LAYER038
 70
     0
 62
     7
  6
CONTINUOUS
  0
LAYER
  5
97
330
2
100
AcDbSymbolTableRecord
100
AcDbLayerTableRecord
  2
LAYER039
 70
     0
 62
     7
  6
CONTINUOUS
  0
LAYER
  5
98
330
2
100
AcDbSymbolTableRecord
100
AcDbLayerTableRecord
  2
LAYER040
 70
     0
 62
     7
  6
CONTINUOUS
  0
LAYER
  5
99
330
2
100
AcDbSymbolTableRecord
100
AcDbLayerTableRecord
  2
LAYER041
 70
     0
 62
     7
  6
CONTINUOUS
  0
LAYER
  5
9A
330
2
100
AcDbSymbolTableRecord
100
AcDbLayerTableRecord
  2
LAYER042
 70
     0
 62
     7
  6
CONTINUOUS
  0
LAYER
  5
9B
330
2
100
AcDbSymbolTableRecord
100
AcDbLayerTableRecord
  2
LAYER043
 70
     0
 62
     7
  6
CONTINUOUS
  0
LAYER
  5
9C
330
2
100
AcDbSymbolTableRecord
100
AcDbLayerTableRecord
  2
LAYER044
 70
     0
 62
     7
  6
CONTINUOUS
  0
LAYER
  5
9D
330
2
100
AcDbSymbolTableRecord
100
AcDbLayerTableRecord
  2
LAYER045
 70
     0
 62
     7
  6
CONTINUOUS
  0
LAYER
  5
9E
330
2
100
AcDbSymbolTableRecord
100
AcDbLayerTableRecord
  2
LAYER046
 70
     0
 62
     7
  6
CONTINUOUS
  0
LAYER
  5
9F
330
2
100
AcDbSymbolTableRecord
100
AcDbLayerTableRecord
  2
LAYER047
 70
     0
 62
     7
  6
CONTINUOUS
  0
LAYER
  5
A0
330
2
100
AcDbSymbolTableRecord
100
AcDbLayerTableRecord
  2
LAYER048
 70
     0
 62
     7
  6
CONTINUOUS
  0
LAYER
  5
A1
330
2
100
AcDbSymbolTableRecord
100
AcDbLayerTableRecord
  2
LAYER049
 70
     0
 62
     7
  6
CONTINUOUS
  0
LAYER
  5
A2
330
2
100
AcDbSymbolTableRecord
100
AcDbLayerTableRecord
  2
LAYER050
 70
     0
 62
     7
  6
CONTINUOUS
  0
LAYER
  5
A3
330
2
100
AcDbSymbolTableRecord
100
AcDbLayerTableRecord
  2
LAYER051
 70
     0
 62
     7
  6
CONTINUOUS
  0
LAYER
  5
A4
330
2
100
AcDbSymbolTableRecord
100
AcDbLayerTableRecord
  2
LAYER052
 70
     0
 62
     7
  6
CONTINUOUS
  0
LAYER
  5
A5
330
2
100
AcDbSymbolTableRecord
100
AcDbLayerTableRecord
  2
LAYER053
 70
     0
 62
     7
  6
CONTINUOUS
  0
LAYER
  5
A6
330
2
100
AcDbSymbolTableRecord
100
AcDbLayerTableRecord
  2
LAYER054
 70
     0
 62
     7
  6
CONTINUOUS
  0
LAYER
  5
A7
330
2
100
AcDbSymbolTableRecord
100
AcDbLayerTableRecord
  2
LAYER055
 70
     0
 62
     7
  6
CONTINUOUS
  0
LAYER
  5
A8
330
2
100
AcDbSymbolTableRecord
100
AcDbLayerTableRecord
  2
LAYER056
 70
     0
 62
     7
  6
CONTINUOUS
  0
LAYER
  5
A9
330
2
100
AcDbSymbolTableRecord
100
AcDbLayerTableRecord
  2
LAYER057
 70
     0
 62
     7
  6
CONTINUOUS
  0
LAYER
  5
AA
330
2
100
AcDbSymbolTableRecord
100
AcDbLayerTableRecord
  2
LAYER058
 70
     0
 62
     7
  6
CONTINUOUS
  0
LAYER
  5
AB
330
2
100
AcDbSymbolTableRecord
100
AcDbLayerTableRecord
  2
LAYER059
 70
     0
 62
     7
  6
CONTINUOUS
  0
LAYER
  5
AC
330
2
100
AcDbSymbolTableRecord
100
AcDbLayerTableRecord
  2
LAYER060
 70
     0
 62
     7
  6
CONTINUOUS
  0
LAYER
  5
AD
330
2
100
AcDbSymbolTableRecord
100
AcDbLayerTableRecord
  2
LAYER061
 70
     0
 62
     7
  6
CONTINUOUS
  0
LAYER
  5
AE
330
2
100
AcDbSymbolTableRecord
100
AcDbLayerTableRecord
  2
LAYER062
 70
     0
 62
     7
  6
CONTINUOUS
  0
LAYER
  5
AF
330
2
100
AcDbSymbolTableRecord
100
AcDbLayerTableRecord
  2
LAYER063
 70
     0
 62
     7
  6
CONTINUOUS
  0
LAYER
  5
B0
330
2
100
AcDbSymbolTableRecord
100
AcDbLayerTableRecord
  2
LAYER064
 70
     0
 62
     7
  6
CONTINUOUS
  0
LAYER
  5
ED
330
2
100
AcDbSymbolTableRecord
100
AcDbLayerTableRecord
  2
LAYER065
 70
     0
 62
     7
  6
CONTINUOUS
  0
ENDTAB
  0
TABLE
  2
STYLE
  5
3
330
0
100
AcDbSymbolTable
 70
     2
  0
STYLE
  5
11
330
3
100
AcDbSymbolTableRecord
100
AcDbTextStyleTableRecord
  2
STANDARD
 70
     0
 40
0.0
 41
1.0
 50
0.0
 71
     0
 42
2.5
  3
txt
  4

  0
STYLE
  5
B1
330
3
100
AcDbSymbolTableRecord
100
AcDbTextStyleTableRecord
  2
ED_VECTOR
 70
     0
 40
0.0
 41
1.0
 50
0.0
 71
     0
 42
2.5
  3
MONOTXT.SHX
  4
BIGFONT.SHX
  0
ENDTAB
  0
TABLE
  2
VIEW
  5
6
330
0
100
AcDbSymbolTable
 70
     0
  0
ENDTAB
  0
TABLE
  2
UCS
  5
7
330
0
100
AcDbSymbolTable
 70
     0
  0
ENDTAB
  0
TABLE
  2
APPID
  5
9
330
0
100
AcDbSymbolTable
 70
     2
  0
APPID
  5
12
330
9
100
AcDbSymbolTableRecord
100
AcDbRegAppTableRecord
  2
ACAD
 70
     0
  0
APPID
  5
825
330
9
100
AcDbSymbolTableRecord
100
AcDbRegAppTableRecord
  2
ACAD_MLEADERVER
 70
     0
  0
ENDTAB
  0
TABLE
  2
DIMSTYLE
  5
A
330
0
100
AcDbSymbolTable
 70
     2
  0
DIMSTYLE
105
27
330
A
100
AcDbSymbolTableRecord
100
AcDbDimStyleTableRecord
  2
ISO-25
 70
     0
  3

  4

  5

  6

  7

 40
1.0
 41
2.5
 42
0.625
 43
3.75
 44
1.25
 45
0.0
 46
0.0
 47
0.0
 48
0.0
140
2.5
141
2.5
142
0.0
143
0.03937
144
1.0
145
0.0
146
1.0
147
0.625
 71
     0
 72
     0
 73
     0
 74
     0
 75
     0
 76
     0
 77
     1
 78
     8
170
     0
171
     3
172
     1
173
     0
174
     0
175
     0
176
     0
177
     0
178
     0
270
     2
271
     2
272
     2
273
     2
274
     3
340
11
275
     0
280
     0
281
     0
282
     0
283
     0
284
     8
285
     0
286
     0
287
     3
288
     0
  0
DIMSTYLE
105
EC
102
{ACAD_REACTORS
330
26D
330
277
330
283
330
28D
330
297
330
2A0
330
2B3
330
35F
330
369
330
373
330
387
102
}
330
A
100
AcDbSymbolTableRecord
100
AcDbDimStyleTableRecord
  2
EDDIMINFO
 70
     0
  3

  4

  5

  6
EDTIP_ARROW_S
  7
EDTIP_ARROW_E
 40
1.0
 41
30.0
 42
10.0
 43
0.1
 44
10.0
 45
0.0
 46
40.0
 47
0.0
 48
0.0
140
30.0
141
2.5
142
0.0
143
0.03937
144
1.0
145
0.0
146
1.0
147
10.0
 71
     0
 72
     0
 73
     0
 74
     0
 75
     0
 76
     0
 77
     1
 78
     8
170
     0
171
     3
172
     1
173
     1
174
     0
175
     0
176
     5
177
     5
178
     4
270
     2
271
     0
272
     2
273
     2
274
     3
340
B1
275
     0
280
     0
281
     0
282
     0
283
     0
284
     8
285
     0
286
     0
287
     3
288
     0
  0
ENDTAB
  0
TABLE
  2
BLOCK_RECORD
  5
1
330
0
100
AcDbSymbolTable
 70
    37
  0
BLOCK_RECORD
  5
1F
330
1
100
AcDbSymbolTableRecord
100
AcDbBlockTableRecord
  2
*MODEL_SPACE
  0
BLOCK_RECORD
  5
1B
330
1
100
AcDbSymbolTableRecord
100
AcDbBlockTableRecord
  2
*PAPER_SPACE
  0
BLOCK_RECORD
  5
B2
330
1
100
AcDbSymbolTableRecord
100
AcDbBlockTableRecord
  2
EDTIP_ARROW_S
  0
BLOCK_RECORD
  5
B8
330
1
100
AcDbSymbolTableRecord
100
AcDbBlockTableRecord
  2
EDTIP_ARROW_E
  0
BLOCK_RECORD
  5
BE
330
1
100
AcDbSymbolTableRecord
100
AcDbBlockTableRecord
  2
EDTIP_BLACKDOT_S
  0
BLOCK_RECORD
  5
C4
330
1
100
AcDbSymbolTableRecord
100
AcDbBlockTableRecord
  2
EDTIP_BLACKDOT_E
  0
BLOCK_RECORD
  5
CA
330
1
100
AcDbSymbolTableRecord
100
AcDbBlockTableRecord
  2
EDTIP_ARCHITECT_S
  0
BLOCK_RECORD
  5
D0
330
1
100
AcDbSymbolTableRecord
100
AcDbBlockTableRecord
  2
EDTIP_ARCHITECT_E
  0
BLOCK_RECORD
  5
D6
330
1
100
AcDbSymbolTableRecord
100
AcDbBlockTableRecord
  2
EDTIP_CIVIL_S
  0
BLOCK_RECORD
  5
DC
330
1
100
AcDbSymbolTableRecord
100
AcDbBlockTableRecord
  2
EDTIP_CIVIL_E
  0
BLOCK_RECORD
  5
E2
330
1
100
AcDbSymbolTableRecord
100
AcDbBlockTableRecord
  2
EDTIP_WHITEDOT_S
  0
BLOCK_RECORD
  5
E7
330
1
100
AcDbSymbolTableRecord
100
AcDbBlockTableRecord
  2
EDTIP_WHITEDOT_E
  0
BLOCK_RECORD
  5
10B
330
1
100
AcDbSymbolTableRecord
100
AcDbBlockTableRecord
  2
BLKF014
  0
BLOCK_RECORD
  5
1E8
330
1
100
AcDbSymbolTableRecord
100
AcDbBlockTableRecord
  2
EDDIM015
  0
BLOCK_RECORD
  5
1ED
330
1
100
AcDbSymbolTableRecord
100
AcDbBlockTableRecord
  2
EDDIM016
  0
BLOCK_RECORD
  5
1F2
330
1
100
AcDbSymbolTableRecord
100
AcDbBlockTableRecord
  2
EDDIM017
  0
BLOCK_RECORD
  5
1F7
330
1
100
AcDbSymbolTableRecord
100
AcDbBlockTableRecord
  2
EDDIM018
  0
BLOCK_RECORD
  5
1FC
330
1
100
AcDbSymbolTableRecord
100
AcDbBlockTableRecord
  2
EDDIM019
  0
BLOCK_RECORD
  5
201
330
1
100
AcDbSymbolTableRecord
100
AcDbBlockTableRecord
  2
EDDIM020
  0
BLOCK_RECORD
  5
206
330
1
100
AcDbSymbolTableRecord
100
AcDbBlockTableRecord
  2
EDDIM021
  0
BLOCK_RECORD
  5
20B
330
1
100
AcDbSymbolTableRecord
100
AcDbBlockTableRecord
  2
EDDIM022
  0
BLOCK_RECORD
  5
210
330
1
100
AcDbSymbolTableRecord
100
AcDbBlockTableRecord
  2
EDDIM023
  0
BLOCK_RECORD
  5
215
330
1
100
AcDbSymbolTableRecord
100
AcDbBlockTableRecord
  2
EDDIM024
  0
BLOCK_RECORD
  5
21A
330
1
100
AcDbSymbolTableRecord
100
AcDbBlockTableRecord
  2
EDDIM025
  0
BLOCK_RECORD
  5
21F
330
1
100
AcDbSymbolTableRecord
100
AcDbBlockTableRecord
  2
EDDIM026
  0
BLOCK_RECORD
  5
224
330
1
100
AcDbSymbolTableRecord
100
AcDbBlockTableRecord
  2
EDDIM027
  0
BLOCK_RECORD
  5
26E
330
1
100
AcDbSymbolTableRecord
100
AcDbBlockTableRecord
  2
*D25
  0
BLOCK_RECORD
  5
278
330
1
100
AcDbSymbolTableRecord
100
AcDbBlockTableRecord
  2
*D26
  0
BLOCK_RECORD
  5
284
330
1
100
AcDbSymbolTableRecord
100
AcDbBlockTableRecord
  2
*D27
  0
BLOCK_RECORD
  5
28E
330
1
100
AcDbSymbolTableRecord
100
AcDbBlockTableRecord
  2
*D28
  0
BLOCK_RECORD
  5
298
330
1
100
AcDbSymbolTableRecord
100
AcDbBlockTableRecord
  2
*D29
  0
BLOCK_RECORD
  5
2A1
330
1
100
AcDbSymbolTableRecord
100
AcDbBlockTableRecord
  2
*D30
  0
BLOCK_RECORD
  5
2B4
330
1
100
AcDbSymbolTableRecord
100
AcDbBlockTableRecord
  2
*D31
  0
BLOCK_RECORD
  5
2BD
330
1
100
AcDbSymbolTableRecord
100
AcDbBlockTableRecord
  2
BLKF035
  0
BLOCK_RECORD
  5
360
330
1
100
AcDbSymbolTableRecord
100
AcDbBlockTableRecord
  2
*D33
  0
BLOCK_RECORD
  5
36A
330
1
100
AcDbSymbolTableRecord
100
AcDbBlockTableRecord
  2
*D34
  0
BLOCK_RECORD
  5
374
330
1
100
AcDbSymbolTableRecord
100
AcDbBlockTableRecord
  2
*D35
  0
BLOCK_RECORD
  5
37D
330
1
100
AcDbSymbolTableRecord
100
AcDbBlockTableRecord
  2
EDDIM039
  0
BLOCK_RECORD
  5
388
330
1
100
AcDbSymbolTableRecord
100
AcDbBlockTableRecord
  2
*D37
  0
ENDTAB
  0
ENDSEC
  0
SECTION
  2
BLOCKS
  0
BLOCK
  5
20
330
1F
100
AcDbEntity
  8
0
100
AcDbBlockBegin
  2
*MODEL_SPACE
 70
     0
 10
0.0
 20
0.0
 30
0.0
  3
*MODEL_SPACE
  1

  0
ENDBLK
  5
21
330
1F
100
AcDbEntity
  8
0
100
AcDbBlockEnd
  0
BLOCK
  5
1C
330
1B
100
AcDbEntity
 67
     1
  8
0
100
AcDbBlockBegin
  2
*PAPER_SPACE
 70
     0
 10
0.0
 20
0.0
 30
0.0
  3
*PAPER_SPACE
  1

  0
ENDBLK
  5
1D
330
1B
100
AcDbEntity
 67
     1
  8
0
100
AcDbBlockEnd
  0
BLOCK
  5
B3
330
B2
100
AcDbEntity
  8
0
100
AcDbBlockBegin
  2
EDTIP_ARROW_S
 70
     0
 10
0.0
 20
0.0
 30
0.0
  3
EDTIP_ARROW_S
  1

  0
LINE
  5
B5
330
B2
100
AcDbEntity
  8
0
  6
CONTINUOUS
 62
     0
100
AcDbLine
 10
0.0
 20
0.0
 30
0.0
 11
-1.0
 21
0.0
 31
0.0
  0
LINE
  5
B6
330
B2
100
AcDbEntity
  8
0
  6
CONTINUOUS
 62
     0
100
AcDbLine
 10
0.0
 20
0.0
 30
0.0
 11
-0.965926
 21
0.258819
 31
0.0
  0
LINE
  5
B7
330
B2
100
AcDbEntity
  8
0
  6
CONTINUOUS
 62
     0
100
AcDbLine
 10
0.0
 20
0.0
 30
0.0
 11
-0.965926
 21
-0.258819
 31
0.0
  0
ENDBLK
  5
B4
330
B2
100
AcDbEntity
  8
0
100
AcDbBlockEnd
  0
BLOCK
  5
B9
330
B8
100
AcDbEntity
  8
0
100
AcDbBlockBegin
  2
EDTIP_ARROW_E
 70
     0
 10
0.0
 20
0.0
 30
0.0
  3
EDTIP_ARROW_E
  1

  0
LINE
  5
BB
330
B8
100
AcDbEntity
  8
0
  6
CONTINUOUS
 62
     0
100
AcDbLine
 10
0.0
 20
0.0
 30
0.0
 11
-1.0
 21
0.0
 31
0.0
  0
LINE
  5
BC
330
B8
100
AcDbEntity
  8
0
  6
CONTINUOUS
 62
     0
100
AcDbLine
 10
0.0
 20
0.0
 30
0.0
 11
-0.965926
 21
-0.258819
 31
0.0
  0
LINE
  5
BD
330
B8
100
AcDbEntity
  8
0
  6
CONTINUOUS
 62
     0
100
AcDbLine
 10
0.0
 20
0.0
 30
0.0
 11
-0.965926
 21
0.258819
 31
0.0
  0
ENDBLK
  5
BA
330
B8
100
AcDbEntity
  8
0
100
AcDbBlockEnd
  0
BLOCK
  5
BF
330
BE
100
AcDbEntity
  8
0
100
AcDbBlockBegin
  2
EDTIP_BLACKDOT_S
 70
     0
 10
0.0
 20
0.0
 30
0.0
  3
EDTIP_BLACKDOT_S
  1

  0
LINE
  5
C1
330
BE
100
AcDbEntity
  8
0
  6
CONTINUOUS
 62
     0
100
AcDbLine
 10
0.0
 20
0.0
 30
0.0
 11
-1.0
 21
0.0
 31
0.0
  0
CIRCLE
  5
C2
330
BE
100
AcDbEntity
  8
0
  6
CONTINUOUS
 62
     0
100
AcDbCircle
 10
0.0
 20
0.0
 30
0.0
 40
0.5
  0
CIRCLE
  5
C3
330
BE
100
AcDbEntity
  8
0
  6
CONTINUOUS
 62
     0
100
AcDbCircle
 10
0.0
 20
0.0
 30
0.0
 40
0.25
  0
ENDBLK
  5
C0
330
BE
100
AcDbEntity
  8
0
100
AcDbBlockEnd
  0
BLOCK
  5
C5
330
C4
100
AcDbEntity
  8
0
100
AcDbBlockBegin
  2
EDTIP_BLACKDOT_E
 70
     0
 10
0.0
 20
0.0
 30
0.0
  3
EDTIP_BLACKDOT_E
  1

  0
LINE
  5
C7
330
C4
100
AcDbEntity
  8
0
  6
CONTINUOUS
 62
     0
100
AcDbLine
 10
0.0
 20
0.0
 30
0.0
 11
-1.0
 21
0.0
 31
0.0
  0
CIRCLE
  5
C8
330
C4
100
AcDbEntity
  8
0
  6
CONTINUOUS
 62
     0
100
AcDbCircle
 10
0.0
 20
0.0
 30
0.0
 40
0.5
  0
CIRCLE
  5
C9
330
C4
100
AcDbEntity
  8
0
  6
CONTINUOUS
 62
     0
100
AcDbCircle
 10
0.0
 20
0.0
 30
0.0
 40
0.25
  0
ENDBLK
  5
C6
330
C4
100
AcDbEntity
  8
0
100
AcDbBlockEnd
  0
BLOCK
  5
CB
330
CA
100
AcDbEntity
  8
0
100
AcDbBlockBegin
  2
EDTIP_ARCHITECT_S
 70
     0
 10
0.0
 20
0.0
 30
0.0
  3
EDTIP_ARCHITECT_S
  1

  0
LINE
  5
CD
330
CA
100
AcDbEntity
  8
0
  6
CONTINUOUS
 62
     0
100
AcDbLine
 10
0.0
 20
0.0
 30
0.0
 11
-1.0
 21
0.0
 31
0.0
  0
LINE
  5
CE
330
CA
100
AcDbEntity
  8
0
  6
CONTINUOUS
 62
     0
100
AcDbLine
 10
0.0
 20
0.0
 30
0.0
 11
-0.707107
 21
-0.707107
 31
0.0
  0
LINE
  5
CF
330
CA
100
AcDbEntity
  8
0
  6
CONTINUOUS
 62
     0
100
AcDbLine
 10
0.0
 20
0.0
 30
0.0
 11
0.707107
 21
0.707107
 31
0.0
  0
ENDBLK
  5
CC
330
CA
100
AcDbEntity
  8
0
100
AcDbBlockEnd
  0
BLOCK
  5
D1
330
D0
100
AcDbEntity
  8
0
100
AcDbBlockBegin
  2
EDTIP_ARCHITECT_E
 70
     0
 10
0.0
 20
0.0
 30
0.0
  3
EDTIP_ARCHITECT_E
  1

  0
LINE
  5
D3
330
D0
100
AcDbEntity
  8
0
  6
CONTINUOUS
 62
     0
100
AcDbLine
 10
0.0
 20
0.0
 30
0.0
 11
-1.0
 21
0.0
 31
0.0
  0
LINE
  5
D4
330
D0
100
AcDbEntity
  8
0
  6
CONTINUOUS
 62
     0
100
AcDbLine
 10
0.0
 20
0.0
 30
0.0
 11
-0.707107
 21
-0.707107
 31
0.0
  0
LINE
  5
D5
330
D0
100
AcDbEntity
  8
0
  6
CONTINUOUS
 62
     0
100
AcDbLine
 10
0.0
 20
0.0
 30
0.0
 11
0.707107
 21
0.707107
 31
0.0
  0
ENDBLK
  5
D2
330
D0
100
AcDbEntity
  8
0
100
AcDbBlockEnd
  0
BLOCK
  5
D7
330
D6
100
AcDbEntity
  8
0
100
AcDbBlockBegin
  2
EDTIP_CIVIL_S
 70
     0
 10
0.0
 20
0.0
 30
0.0
  3
EDTIP_CIVIL_S
  1

  0
LINE
  5
D9
330
D6
100
AcDbEntity
  8
0
  6
CONTINUOUS
 62
     0
100
AcDbLine
 10
0.0
 20
0.0
 30
0.0
 11
-1.0
 21
0.0
 31
0.0
  0
LINE
  5
DA
330
D6
100
AcDbEntity
  8
0
  6
CONTINUOUS
 62
     0
100
AcDbLine
 10
0.0
 20
-0.008333
 30
0.0
 11
-1.0
 21
-0.008333
 31
0.0
  0
LINE
  5
DB
330
D6
100
AcDbEntity
  8
0
  6
CONTINUOUS
 62
     0
100
AcDbLine
 10
0.0
 20
-0.016667
 30
0.0
 11
-1.0
 21
-0.016667
 31
0.0
  0
ENDBLK
  5
D8
330
D6
100
AcDbEntity
  8
0
100
AcDbBlockEnd
  0
BLOCK
  5
DD
330
DC
100
AcDbEntity
  8
0
100
AcDbBlockBegin
  2
EDTIP_CIVIL_E
 70
     0
 10
0.0
 20
0.0
 30
0.0
  3
EDTIP_CIVIL_E
  1

  0
LINE
  5
DF
330
DC
100
AcDbEntity
  8
0
  6
CONTINUOUS
 62
     0
100
AcDbLine
 10
0.0
 20
0.0
 30
0.0
 11
-1.0
 21
0.0
 31
0.0
  0
LINE
  5
E0
330
DC
100
AcDbEntity
  8
0
  6
CONTINUOUS
 62
     0
100
AcDbLine
 10
0.0
 20
0.008333
 30
0.0
 11
-1.0
 21
0.008333
 31
0.0
  0
LINE
  5
E1
330
DC
100
AcDbEntity
  8
0
  6
CONTINUOUS
 62
     0
100
AcDbLine
 10
0.0
 20
0.016667
 30
0.0
 11
-1.0
 21
0.016667
 31
0.0
  0
ENDBLK
  5
DE
330
DC
100
AcDbEntity
  8
0
100
AcDbBlockEnd
  0
BLOCK
  5
E3
330
E2
100
AcDbEntity
  8
0
100
AcDbBlockBegin
  2
EDTIP_WHITEDOT_S
 70
     0
 10
0.0
 20
0.0
 30
0.0
  3
EDTIP_WHITEDOT_S
  1

  0
LINE
  5
E5
330
E2
100
AcDbEntity
  8
0
  6
CONTINUOUS
 62
     0
100
AcDbLine
 10
0.0
 20
0.0
 30
0.0
 11
-1.0
 21
0.0
 31
0.0
  0
CIRCLE
  5
E6
330
E2
100
AcDbEntity
  8
0
  6
CONTINUOUS
 62
     0
100
AcDbCircle
 10
0.0
 20
0.0
 30
0.0
 40
0.5
  0
ENDBLK
  5
E4
330
E2
100
AcDbEntity
  8
0
100
AcDbBlockEnd
  0
BLOCK
  5
E8
330
E7
100
AcDbEntity
  8
0
100
AcDbBlockBegin
  2
EDTIP_WHITEDOT_E
 70
     0
 10
0.0
 20
0.0
 30
0.0
  3
EDTIP_WHITEDOT_E
  1

  0
LINE
  5
EA
330
E7
100
AcDbEntity
  8
0
  6
CONTINUOUS
 62
     0
100
AcDbLine
 10
0.0
 20
0.0
 30
0.0
 11
-1.0
 21
0.0
 31
0.0
  0
CIRCLE
  5
EB
330
E7
100
AcDbEntity
  8
0
  6
CONTINUOUS
 62
     0
100
AcDbCircle
 10
0.0
 20
0.0
 30
0.0
 40
0.5
  0
ENDBLK
  5
E9
330
E7
100
AcDbEntity
  8
0
100
AcDbBlockEnd
  0
BLOCK
  5
10C
330
10B
100
AcDbEntity
  8
0
100
AcDbBlockBegin
  2
BLKF014
 70
     0
 10
0.0
 20
0.0
 30
0.0
  3
BLKF014
  1

  0
ARC
  5
10F
330
10B
100
AcDbEntity
  8
0
  6
CONTINUOUS
 62
     5
100
AcDbCircle
 10
2830.108592
 20
148.870953
 30
0.0
 40
3.549224681232935
100
AcDbArc
 50
6.429109
 51
73.182034
  0
ARC
  5
110
330
10B
100
AcDbEntity
  8
0
  6
CONTINUOUS
 62
     5
100
AcDbCircle
 10
2826.647621
 20
147.71256
 30
0.0
 40
6.90775391640079
100
AcDbArc
 50
310.51797
 51
330.092764
  0
ARC
  5
111
330
10B
100
AcDbEntity
  8
0
  6
CONTINUOUS
 62
     5
100
AcDbCircle
 10
2826.586972
 20
148.078078
 30
0.0
 40
7.148321241986046
100
AcDbArc
 50
327.794941
 51
9.585194
  0
ARC
  5
112
330
10B
100
AcDbEntity
  8
0
  6
CONTINUOUS
 62
     5
100
AcDbCircle
 10
2829.8797
 20
145.31708
 30
0.0
 40
4.767514462094933
100
AcDbArc
 50
180.0
 51
218.51415
  0
ARC
  5
113
330
10B
100
AcDbEntity
  8
0
  6
CONTINUOUS
 62
     5
100
AcDbCircle
 10
2828.592979
 20
144.639939
 30
0.0
 40
3.348282029286163
100
AcDbArc
 50
222.781148
 51
319.406906
  0
ARC
  5
114
330
10B
100
AcDbEntity
  8
0
  6
CONTINUOUS
 62
     5
100
AcDbCircle
 10
2831.658621
 20
145.729832
 30
0.0
 40
6.559434466070106
100
AcDbArc
 50
94.574282
 51
183.607718
  0
LINE
  5
115
330
10B
100
AcDbEntity
  8
0
  6
CONTINUOUS
 62
     5
100
AcDbLine
 10
2845.102527
 20
140.613
 30
0.0
 11
2844.245491
 21
137.574417
 31
0.0
  0
LINE
  5
116
330
10B
100
AcDbEntity
  8
0
  6
CONTINUOUS
 62
     5
100
AcDbLine
 10
2846.894512
 20
160.480657
 30
0.0
 11
2844.790878
 21
163.207591
 31
0.0
  0
LINE
  5
117
330
10B
100
AcDbEntity
  8
0
  6
CONTINUOUS
 62
     5
100
AcDbLine
 10
2844.790878
 20
163.207591
 30
0.0
 11
2838.037523
 21
166.965503
 31
0.0
  0
LINE
  5
118
330
10B
100
AcDbEntity
  8
0
  6
CONTINUOUS
 62
     5
100
AcDbLine
 10
2838.037523
 20
166.965503
 30
0.0
 11
2831.135496
 21
167.768373
 31
0.0
  0
LINE
  5
119
330
10B
100
AcDbEntity
  8
0
  6
CONTINUOUS
 62
     5
100
AcDbLine
 10
2812.846271
 20
154.3897
 30
0.0
 11
2814.992965
 21
159.35393
 31
0.0
  0
LINE
  5
11A
330
10B
100
AcDbEntity
  8
0
  6
CONTINUOUS
 62
     5
100
AcDbLine
 10
2814.955967
 20
159.268373
 30
0.0
 11
2817.139659
 21
161.90313
 31
0.0
  0
LINE
  5
11B
330
10B
100
AcDbEntity
  8
0
  6
CONTINUOUS
 62
     5
100
AcDbLine
 10
2817.139659
 20
161.90313
 30
0.0
 11
2820.444082
 21
164.268373
 31
0.0
  0
LINE
  5
11C
330
10B
100
AcDbEntity
  8
0
  6
CONTINUOUS
 62
     5
100
AcDbLine
 10
2831.135496
 20
167.768373
 30
0.0
 11
2829.61732
 21
167.001529
 31
0.0
  0
LINE
  5
11D
330
10B
100
AcDbEntity
  8
0
  6
CONTINUOUS
 62
     5
100
AcDbLine
 10
2829.61732
 20
167.001529
 30
0.0
 11
2826.128942
 21
167.001529
 31
0.0
  0
LINE
  5
11E
330
10B
100
AcDbEntity
  8
0
  6
CONTINUOUS
 62
     5
100
AcDbLine
 10
2826.128942
 20
167.001529
 30
0.0
 11
2822.573479
 21
165.056087
 31
0.0
  0
LINE
  5
11F
330
10B
100
AcDbEntity
  8
0
  6
CONTINUOUS
 62
     5
100
AcDbLine
 10
2822.573479
 20
165.056087
 30
0.0
 11
2820.444082
 21
164.268373
 31
0.0
  0
LINE
  5
120
330
10B
100
AcDbEntity
  8
0
  6
CONTINUOUS
 62
     5
100
AcDbLine
 10
2812.846271
 20
154.3897
 30
0.0
 11
2811.328724
 21
146.841097
 31
0.0
  0
LINE
  5
121
330
10B
100
AcDbEntity
  8
0
  6
CONTINUOUS
 62
     5
100
AcDbLine
 10
2811.328724
 20
146.841097
 30
0.0
 11
2811.135496
 21
144.268373
 31
0.0
  0
LINE
  5
122
330
10B
100
AcDbEntity
  8
0
  6
CONTINUOUS
 62
     5
100
AcDbLine
 10
2813.844879
 20
136.428591
 30
0.0
 11
2811.135496
 21
142.524702
 31
0.0
  0
LINE
  5
123
330
10B
100
AcDbEntity
  8
0
  6
CONTINUOUS
 62
     5
100
AcDbLine
 10
2811.135496
 20
142.524702
 30
0.0
 11
2811.135496
 21
144.268373
 31
0.0
  0
LINE
  5
124
330
10B
100
AcDbEntity
  8
0
  6
CONTINUOUS
 62
     5
100
AcDbLine
 10
2844.245491
 20
137.574417
 30
0.0
 11
2842.559704
 21
134.571411
 31
0.0
  0
LINE
  5
125
330
10B
100
AcDbEntity
  8
0
  6
CONTINUOUS
 62
     5
100
AcDbLine
 10
2842.559704
 20
134.571411
 30
0.0
 11
2841.135496
 21
133.2527
 31
0.0
  0
ARC
  5
126
330
10B
100
AcDbEntity
  8
0
  6
CONTINUOUS
 62
     5
100
AcDbCircle
 10
2828.943551
 20
144.805134
 30
0.0
 40
17.2666264049271
100
AcDbArc
 50
208.054813
 51
260.64047
  0
ARC
  5
127
330
10B
100
AcDbEntity
  8
0
  6
CONTINUOUS
 62
     5
100
AcDbCircle
 10
2823.750156
 20
157.547603
 30
0.0
 40
29.87461092848634
100
AcDbArc
 50
274.579659
 51
305.587364
  0
ARC
  5
128
330
10B
100
AcDbEntity
  8
0
  6
CONTINUOUS
 62
     5
100
AcDbCircle
 10
2834.722505
 20
151.563881
 30
0.0
 40
15.08862654287332
100
AcDbArc
 50
313.467013
 51
331.085078
  0
LINE
  5
129
330
10B
100
AcDbEntity
  8
0
  6
CONTINUOUS
 62
     5
100
AcDbLine
 10
2849.513837
 20
147.781794
 30
0.0
 11
2849.811132
 21
151.563881
 31
0.0
  0
LINE
  5
12A
330
10B
100
AcDbEntity
  8
0
  6
CONTINUOUS
 62
     5
100
AcDbLine
 10
2849.811132
 20
151.563881
 30
0.0
 11
2848.519134
 21
157.672864
 31
0.0
  0
LINE
  5
12B
330
10B
100
AcDbEntity
  8
0
  6
CONTINUOUS
 62
     5
100
AcDbLine
 10
2849.513837
 20
147.781794
 30
0.0
 11
2847.930163
 21
144.268373
 31
0.0
  0
ARC
  5
12C
330
10B
100
AcDbEntity
  8
0
  6
CONTINUOUS
 62
     5
100
AcDbCircle
 10
2834.722505
 20
151.563881
 30
0.0
 40
15.08862654287332
100
AcDbArc
 50
23.883193
 51
36.22517
  0
LINE
  5
12D
330
10B
100
AcDbEntity
  8
0
  6
CONTINUOUS
 62
     5
100
AcDbLine
 10
2795.135496
 20
179.268373
 30
0.0
 11
2796.135496
 21
180.361018
 31
0.0
  0
LINE
  5
12E
330
10B
100
AcDbEntity
  8
0
  6
CONTINUOUS
 62
     5
100
AcDbLine
 10
2795.135496
 20
179.268373
 30
0.0
 11
2796.712454
 21
177.82334
 31
0.0
  0
LINE
  5
12F
330
10B
100
AcDbEntity
  8
0
  6
CONTINUOUS
 62
     5
100
AcDbLine
 10
2798.251667
 20
175.714049
 30
0.0
 11
2798.277935
 21
173.54593
 31
0.0
  0
LINE
  5
130
330
10B
100
AcDbEntity
  8
0
  6
CONTINUOUS
 62
     5
100
AcDbLine
 10
2798.277935
 20
173.54593
 30
0.0
 11
2798.485333
 21
172.78547
 31
0.0
  0
LINE
  5
131
330
10B
100
AcDbEntity
  8
0
  6
CONTINUOUS
 62
     5
100
AcDbLine
 10
2798.485333
 20
172.78547
 30
0.0
 11
2799.07296
 21
172.059577
 31
0.0
  0
LINE
  5
132
330
10B
100
AcDbEntity
  8
0
  6
CONTINUOUS
 62
     5
100
AcDbLine
 10
2799.07296
 20
172.059577
 30
0.0
 11
2799.660588
 21
172.12871
 31
0.0
  0
LINE
  5
133
330
10B
100
AcDbEntity
  8
0
  6
CONTINUOUS
 62
     5
100
AcDbLine
 10
2799.660588
 20
172.12871
 30
0.0
 11
2800.282782
 21
172.301542
 31
0.0
  0
LINE
  5
134
330
10B
100
AcDbEntity
  8
0
  6
CONTINUOUS
 62
     5
100
AcDbLine
 10
2800.282782
 20
172.301542
 30
0.0
 11
2800.697578
 21
172.12871
 31
0.0
  0
LINE
  5
135
330
10B
100
AcDbEntity
  8
0
  6
CONTINUOUS
 62
     5
100
AcDbLine
 10
2800.697578
 20
172.12871
 30
0.0
 11
2801.596303
 21
171.679348
 31
0.0
  0
LINE
  5
136
330
10B
100
AcDbEntity
  8
0
  6
CONTINUOUS
 62
     5
100
AcDbLine
 10
2801.596303
 20
171.679348
 30
0.0
 11
2802.372354
 21
171.268373
 31
0.0
  0
LINE
  5
137
330
10B
100
AcDbEntity
  8
0
  6
CONTINUOUS
 62
     5
100
AcDbLine
 10
2802.372354
 20
171.268373
 30
0.0
 11
2802.875257
 21
171.299118
 31
0.0
  0
LINE
  5
138
330
10B
100
AcDbEntity
  8
0
  6
CONTINUOUS
 62
     5
100
AcDbLine
 10
2802.875257
 20
171.299118
 30
0.0
 11
2805.683129
 21
172.745598
 31
0.0
  0
LINE
  5
139
330
10B
100
AcDbEntity
  8
0
  6
CONTINUOUS
 62
     5
100
AcDbLine
 10
2796.135496
 20
180.361018
 30
0.0
 11
2796.468348
 21
181.834725
 31
0.0
  0
LINE
  5
13A
330
10B
100
AcDbEntity
  8
0
  6
CONTINUOUS
 62
     5
100
AcDbLine
 10
2796.468348
 20
181.834725
 30
0.0
 11
2797.921753
 21
181.985077
 31
0.0
  0
LINE
  5
13B
330
10B
100
AcDbEntity
  8
0
  6
CONTINUOUS
 62
     5
100
AcDbLine
 10
2799.415512
 20
184.753536
 30
0.0
 11
2801.169684
 21
184.910626
 31
0.0
  0
LINE
  5
13C
330
10B
100
AcDbEntity
  8
0
  6
CONTINUOUS
 62
     5
100
AcDbLine
 10
2801.169684
 20
184.910626
 30
0.0
 11
2804.704212
 21
185.74844
 31
0.0
  0
LINE
  5
13D
330
10B
100
AcDbEntity
  8
0
  6
CONTINUOUS
 62
     5
100
AcDbLine
 10
2804.704212
 20
185.74844
 30
0.0
 11
2806.135496
 21
186.080079
 31
0.0
  0
LINE
  5
13E
330
10B
100
AcDbEntity
  8
0
  6
CONTINUOUS
 62
     5
100
AcDbLine
 10
2799.415512
 20
184.753536
 30
0.0
 11
2797.48262
 21
184.912404
 31
0.0
  0
LINE
  5
13F
330
10B
100
AcDbEntity
  8
0
  6
CONTINUOUS
 62
     5
100
AcDbLine
 10
2796.746497
 20
184.043717
 30
0.0
 11
2796.840023
 21
183.672555
 31
0.0
  0
LINE
  5
140
330
10B
100
AcDbEntity
  8
0
  6
CONTINUOUS
 62
     5
100
AcDbLine
 10
2796.840023
 20
183.672555
 30
0.0
 11
2797.331617
 21
183.134874
 31
0.0
  0
LINE
  5
141
330
10B
100
AcDbEntity
  8
0
  6
CONTINUOUS
 62
     5
100
AcDbLine
 10
2797.331617
 20
183.134874
 30
0.0
 11
2798.007558
 21
182.627918
 31
0.0
  0
LINE
  5
142
330
10B
100
AcDbEntity
  8
0
  6
CONTINUOUS
 62
     5
100
AcDbLine
 10
2798.007558
 20
182.627918
 30
0.0
 11
2798.130883
 21
182.463485
 31
0.0
  0
LINE
  5
143
330
10B
100
AcDbEntity
  8
0
  6
CONTINUOUS
 62
     5
100
AcDbLine
 10
2796.712454
 20
177.82334
 30
0.0
 11
2798.251667
 21
175.714049
 31
0.0
  0
ARC
  5
144
330
10B
100
AcDbEntity
  8
0
  6
CONTINUOUS
 62
     5
100
AcDbCircle
 10
2841.122197
 20
7.609721
 30
0.0
 40
180.7274633591883
100
AcDbArc
 50
80.438896
 51
96.353582
  0
ARC
  5
145
330
10B
100
AcDbEntity
  8
0
  6
CONTINUOUS
 62
     5
100
AcDbCircle
 10
2816.223283
 20
152.857621
 30
0.0
 40
34.72024168784506
100
AcDbArc
 50
81.866516
 51
106.890578
  0
LINE
  5
146
330
10B
100
AcDbEntity
  8
0
  6
CONTINUOUS
 62
     5
100
AcDbLine
 10
2875.329757
 20
185.035044
 30
0.0
 11
2877.57684
 21
184.013642
 31
0.0
  0
LINE
  5
147
330
10B
100
AcDbEntity
  8
0
  6
CONTINUOUS
 62
     5
100
AcDbLine
 10
2881.151744
 20
182.430471
 30
0.0
 11
2877.57684
 21
184.013642
 31
0.0
  0
LINE
  5
148
330
10B
100
AcDbEntity
  8
0
  6
CONTINUOUS
 62
     5
100
AcDbLine
 10
2875.329757
 20
185.035044
 30
0.0
 11
2871.135496
 21
185.827615
 31
0.0
  0
LINE
  5
149
330
10B
100
AcDbEntity
  8
0
  6
CONTINUOUS
 62
     5
100
AcDbLine
 10
2881.135496
 20
182.437666
 30
0.0
 11
2883.007071
 21
180.869189
 31
0.0
  0
LINE
  5
14A
330
10B
100
AcDbEntity
  8
0
  6
CONTINUOUS
 62
     5
100
AcDbLine
 10
2864.378752
 20
183.474517
 30
0.0
 11
2865.278027
 21
184.927192
 31
0.0
  0
LINE
  5
14B
330
10B
100
AcDbEntity
  8
0
  6
CONTINUOUS
 62
     5
100
AcDbLine
 10
2865.278027
 20
184.927192
 30
0.0
 11
2869.953625
 21
183.807682
 31
0.0
  0
LINE
  5
14C
330
10B
100
AcDbEntity
  8
0
  6
CONTINUOUS
 62
     5
100
AcDbLine
 10
2869.953625
 20
183.807682
 30
0.0
 11
2886.696011
 21
179.268373
 31
0.0
  0
LINE
  5
14D
330
10B
100
AcDbEntity
  8
0
  6
CONTINUOUS
 62
     5
100
AcDbLine
 10
2889.635496
 20
179.268373
 30
0.0
 11
2883.007071
 21
180.869189
 31
0.0
  0
LINE
  5
14E
330
10B
100
AcDbEntity
  8
0
  6
CONTINUOUS
 62
     5
100
AcDbLine
 10
2886.696011
 20
179.268373
 30
0.0
 11
2889.635496
 21
179.268373
 31
0.0
  0
LINE
  5
14F
330
10B
100
AcDbEntity
  8
0
  6
CONTINUOUS
 62
     5
100
AcDbLine
 10
2831.135496
 20
183.733315
 30
0.0
 11
2851.135496
 21
184.268373
 31
0.0
  0
LINE
  5
150
330
10B
100
AcDbEntity
  8
0
  6
CONTINUOUS
 62
     5
100
AcDbLine
 10
2851.135496
 20
184.268373
 30
0.0
 11
2864.378752
 21
183.474517
 31
0.0
  0
LINE
  5
151
330
10B
100
AcDbEntity
  8
0
  6
CONTINUOUS
 62
     5
100
AcDbLine
 10
2865.981733
 20
181.414037
 30
0.0
 11
2851.135496
 21
182.768373
 31
0.0
  0
LINE
  5
152
330
10B
100
AcDbEntity
  8
0
  6
CONTINUOUS
 62
     5
100
AcDbLine
 10
2851.135496
 20
182.768373
 30
0.0
 11
2836.086286
 21
183.177025
 31
0.0
  0
LINE
  5
153
330
10B
100
AcDbEntity
  8
0
  6
CONTINUOUS
 62
     5
100
AcDbLine
 10
2836.135496
 20
183.175689
 30
0.0
 11
2831.135496
 21
183.270983
 31
0.0
  0
LINE
  5
154
330
10B
100
AcDbEntity
  8
0
  6
CONTINUOUS
 62
     5
100
AcDbLine
 10
2831.135496
 20
183.733315
 30
0.0
 11
2831.135496
 21
183.270983
 31
0.0
  0
LINE
  5
155
330
10B
100
AcDbEntity
  8
0
  6
CONTINUOUS
 62
     5
100
AcDbLine
 10
2888.635496
 20
175.768373
 30
0.0
 11
2879.792937
 21
178.079036
 31
0.0
  0
LINE
  5
156
330
10B
100
AcDbEntity
  8
0
  6
CONTINUOUS
 62
     5
100
AcDbLine
 10
2865.981733
 20
181.414037
 30
0.0
 11
2876.135496
 21
179.441654
 31
0.0
  0
LINE
  5
157
330
10B
100
AcDbEntity
  8
0
  6
CONTINUOUS
 62
     5
100
AcDbLine
 10
2876.135496
 20
179.441654
 30
0.0
 11
2879.792937
 21
178.079036
 31
0.0
  0
LINE
  5
158
330
10B
100
AcDbEntity
  8
0
  6
CONTINUOUS
 62
     5
100
AcDbLine
 10
2888.635496
 20
175.768373
 30
0.0
 11
2888.342879
 21
174.929268
 31
0.0
  0
LINE
  5
159
330
10B
100
AcDbEntity
  8
0
  6
CONTINUOUS
 62
     5
100
AcDbLine
 10
2898.135496
 20
170.268373
 30
0.0
 11
2897.829469
 21
171.497354
 31
0.0
  0
LINE
  5
15A
330
10B
100
AcDbEntity
  8
0
  6
CONTINUOUS
 62
     5
100
AcDbLine
 10
2888.342879
 20
174.929268
 30
0.0
 11
2897.829469
 21
171.497354
 31
0.0
  0
LINE
  5
15B
330
10B
100
AcDbEntity
  8
0
  6
CONTINUOUS
 62
     5
100
AcDbLine
 10
2834.635496
 20
175.768373
 30
0.0
 11
2837.058534
 21
175.768373
 31
0.0
  0
LINE
  5
15C
330
10B
100
AcDbEntity
  8
0
  6
CONTINUOUS
 62
     5
100
AcDbLine
 10
2857.135496
 20
176.200869
 30
0.0
 11
2857.135496
 21
175.768373
 31
0.0
  0
LINE
  5
15D
330
10B
100
AcDbEntity
  8
0
  6
CONTINUOUS
 62
     5
100
AcDbLine
 10
2856.135496
 20
176.73531
 30
0.0
 11
2854.424217
 21
177.372488
 31
0.0
  0
LINE
  5
15E
330
10B
100
AcDbEntity
  8
0
  6
CONTINUOUS
 62
     5
100
AcDbLine
 10
2854.424217
 20
177.372488
 30
0.0
 11
2853.314161
 21
177.422945
 31
0.0
  0
LINE
  5
15F
330
10B
100
AcDbEntity
  8
0
  6
CONTINUOUS
 62
     5
100
AcDbLine
 10
2853.314161
 20
177.422945
 30
0.0
 11
2852.834818
 21
177.17066
 31
0.0
  0
LINE
  5
160
330
10B
100
AcDbEntity
  8
0
  6
CONTINUOUS
 62
     5
100
AcDbLine
 10
2852.834818
 20
177.17066
 30
0.0
 11
2852.733904
 21
176.767003
 31
0.0
  0
LINE
  5
161
330
10B
100
AcDbEntity
  8
0
  6
CONTINUOUS
 62
     5
100
AcDbLine
 10
2852.733904
 20
176.767003
 30
0.0
 11
2853.188018
 21
176.464261
 31
0.0
  0
LINE
  5
162
330
10B
100
AcDbEntity
  8
0
  6
CONTINUOUS
 62
     5
100
AcDbLine
 10
2853.188018
 20
176.464261
 30
0.0
 11
2854.827873
 21
176.312889
 31
0.0
  0
LINE
  5
163
330
10B
100
AcDbEntity
  8
0
  6
CONTINUOUS
 62
     5
100
AcDbLine
 10
2854.827873
 20
176.312889
 30
0.0
 11
2857.135496
 21
176.200869
 31
0.0
  0
LINE
  5
164
330
10B
100
AcDbEntity
  8
0
  6
CONTINUOUS
 62
     5
100
AcDbLine
 10
2898.135496
 20
170.268373
 30
0.0
 11
2895.159953
 21
171.454955
 31
0.0
  0
LINE
  5
165
330
10B
100
AcDbEntity
  8
0
  6
CONTINUOUS
 62
     5
100
AcDbLine
 10
2895.159953
 20
171.454955
 30
0.0
 11
2885.104264
 21
173.29783
 31
0.0
  0
LINE
  5
166
330
10B
100
AcDbEntity
  8
0
  6
CONTINUOUS
 62
     5
100
AcDbLine
 10
2885.104264
 20
173.29783
 30
0.0
 11
2880.078484
 21
174.457626
 31
0.0
  0
LINE
  5
167
330
10B
100
AcDbEntity
  8
0
  6
CONTINUOUS
 62
     5
100
AcDbLine
 10
2857.669717
 20
176.768373
 30
0.0
 11
2869.435383
 21
176.768373
 31
0.0
  0
LINE
  5
168
330
10B
100
AcDbEntity
  8
0
  6
CONTINUOUS
 62
     5
100
AcDbLine
 10
2856.135496
 20
176.73531
 30
0.0
 11
2856.660156
 21
176.426843
 31
0.0
  0
LINE
  5
169
330
10B
100
AcDbEntity
  8
0
  6
CONTINUOUS
 62
     5
100
AcDbLine
 10
2856.660156
 20
176.426843
 30
0.0
 11
2856.956968
 21
176.337799
 31
0.0
  0
LINE
  5
16A
330
10B
100
AcDbEntity
  8
0
  6
CONTINUOUS
 62
     5
100
AcDbLine
 10
2856.956968
 20
176.337799
 30
0.0
 11
2857.135496
 21
176.362969
 31
0.0
  0
LINE
  5
16B
330
10B
100
AcDbEntity
  8
0
  6
CONTINUOUS
 62
     5
100
AcDbLine
 10
2857.135496
 20
176.362969
 30
0.0
 11
2857.669717
 21
176.768373
 31
0.0
  0
LINE
  5
16C
330
10B
100
AcDbEntity
  8
0
  6
CONTINUOUS
 62
     5
100
AcDbLine
 10
2869.435383
 20
176.768373
 30
0.0
 11
2873.885652
 21
175.739548
 31
0.0
  0
LINE
  5
16D
330
10B
100
AcDbEntity
  8
0
  6
CONTINUOUS
 62
     5
100
AcDbLine
 10
2873.885652
 20
175.739548
 30
0.0
 11
2878.038843
 21
174.574399
 31
0.0
  0
LINE
  5
16E
330
10B
100
AcDbEntity
  8
0
  6
CONTINUOUS
 62
     5
100
AcDbLine
 10
2878.038843
 20
174.574399
 30
0.0
 11
2880.078484
 21
174.457626
 31
0.0
  0
LINE
  5
16F
330
10B
100
AcDbEntity
  8
0
  6
CONTINUOUS
 62
     5
100
AcDbLine
 10
2833.635496
 20
174.768373
 30
0.0
 11
2833.635496
 21
174.268373
 31
0.0
  0
LINE
  5
170
330
10B
100
AcDbEntity
  8
0
  6
CONTINUOUS
 62
     5
100
AcDbLine
 10
2831.135496
 20
174.268373
 30
0.0
 11
2833.635496
 21
174.268373
 31
0.0
  0
ARC
  5
171
330
10B
100
AcDbEntity
  8
0
  6
CONTINUOUS
 62
     5
100
AcDbCircle
 10
2834.635496
 20
174.768373
 30
0.0
 40
1.0
100
AcDbArc
 50
90.0
 51
180.0
  0
LINE
  5
172
330
10B
100
AcDbEntity
  8
0
  6
CONTINUOUS
 62
     5
100
AcDbLine
 10
2837.058534
 20
175.768373
 30
0.0
 11
2837.756091
 21
175.196377
 31
0.0
  0
LINE
  5
173
330
10B
100
AcDbEntity
  8
0
  6
CONTINUOUS
 62
     5
100
AcDbLine
 10
2838.358459
 20
175.172416
 30
0.0
 11
2839.216056
 21
175.768373
 31
0.0
  0
LINE
  5
174
330
10B
100
AcDbEntity
  8
0
  6
CONTINUOUS
 62
     5
100
AcDbLine
 10
2840.794452
 20
175.768373
 30
0.0
 11
2842.461577
 21
175.110298
 31
0.0
  0
LINE
  5
175
330
10B
100
AcDbEntity
  8
0
  6
CONTINUOUS
 62
     5
100
AcDbLine
 10
2842.885286
 20
175.13681
 30
0.0
 11
2844.038773
 21
175.768373
 31
0.0
  0
LINE
  5
176
330
10B
100
AcDbEntity
  8
0
  6
CONTINUOUS
 62
     5
100
AcDbLine
 10
2839.216056
 20
175.768373
 30
0.0
 11
2840.794452
 21
175.768373
 31
0.0
  0
LINE
  5
177
330
10B
100
AcDbEntity
  8
0
  6
CONTINUOUS
 62
     5
100
AcDbLine
 10
2844.038773
 20
175.768373
 30
0.0
 11
2857.135496
 21
175.768373
 31
0.0
  0
LINE
  5
178
330
10B
100
AcDbEntity
  8
0
  6
CONTINUOUS
 62
     5
100
AcDbLine
 10
2809.684479
 20
172.659547
 30
0.0
 11
2831.135496
 21
174.268373
 31
0.0
  0
LINE
  5
179
330
10B
100
AcDbEntity
  8
0
  6
CONTINUOUS
 62
     5
100
AcDbLine
 10
2805.683129
 20
172.745598
 30
0.0
 11
2809.684479
 21
172.659547
 31
0.0
  0
ARC
  5
17A
330
10B
100
AcDbEntity
  8
0
  6
CONTINUOUS
 62
     5
100
AcDbCircle
 10
2838.073131
 20
175.583011
 30
0.0
 40
0.5
100
AcDbArc
 50
230.648247
 51
304.796026
  0
ARC
  5
17B
330
10B
100
AcDbEntity
  8
0
  6
CONTINUOUS
 62
     5
100
AcDbCircle
 10
2842.64516
 20
175.575375
 30
0.0
 40
0.5
100
AcDbArc
 50
248.459024
 51
298.701829
  0
ARC
  5
17C
330
10B
100
AcDbEntity
  8
0
  6
CONTINUOUS
 62
     5
100
AcDbCircle
 10
2797.890883
 20
182.283485
 30
0.0
 40
0.3
100
AcDbArc
 50
275.906141
 51
36.869898
  0
ARC
  5
17D
330
10B
100
AcDbEntity
  8
0
  6
CONTINUOUS
 62
     5
100
AcDbCircle
 10
2797.42528
 20
184.214756
 30
0.0
 40
0.7
100
AcDbArc
 50
85.301319
 51
194.14298
  0
LINE
  5
17E
330
10B
100
AcDbEntity
  8
0
  6
CONTINUOUS
 62
     3
100
AcDbLine
 10
2829.61732
 20
167.001529
 30
0.0
 11
2837.727816
 21
167.001529
 31
0.0
  0
LINE
  5
17F
330
10B
100
AcDbEntity
  8
0
  6
CONTINUOUS
 62
     3
100
AcDbLine
 10
2823.204804
 20
165.401529
 30
0.0
 11
2840.848145
 21
165.401529
 31
0.0
  0
LINE
  5
180
330
10B
100
AcDbEntity
  8
0
  6
CONTINUOUS
 62
     3
100
AcDbLine
 10
2819.791865
 20
163.801529
 30
0.0
 11
2843.723509
 21
163.801529
 31
0.0
  0
LINE
  5
181
330
10B
100
AcDbEntity
  8
0
  6
CONTINUOUS
 62
     3
100
AcDbLine
 10
2817.556545
 20
162.201529
 30
0.0
 11
2845.566982
 21
162.201529
 31
0.0
  0
LINE
  5
182
330
10B
100
AcDbEntity
  8
0
  6
CONTINUOUS
 62
     3
100
AcDbLine
 10
2816.06089
 20
160.601529
 30
0.0
 11
2846.801268
 21
160.601529
 31
0.0
  0
LINE
  5
183
330
10B
100
AcDbEntity
  8
0
  6
CONTINUOUS
 62
     3
100
AcDbLine
 10
2814.840575
 20
159.001529
 30
0.0
 11
2847.850644
 21
159.001529
 31
0.0
  0
LINE
  5
184
330
10B
100
AcDbEntity
  8
0
  6
CONTINUOUS
 62
     3
100
AcDbLine
 10
2814.148683
 20
157.401529
 30
0.0
 11
2848.576519
 21
157.401529
 31
0.0
  0
LINE
  5
185
330
10B
100
AcDbEntity
  8
0
  6
CONTINUOUS
 62
     3
100
AcDbLine
 10
2813.456791
 20
155.801529
 30
0.0
 11
2848.914905
 21
155.801529
 31
0.0
  0
LINE
  5
186
330
10B
100
AcDbEntity
  8
0
  6
CONTINUOUS
 62
     3
100
AcDbLine
 10
2812.808441
 20
154.201529
 30
0.0
 11
2849.253292
 21
154.201529
 31
0.0
  0
LINE
  5
187
330
10B
100
AcDbEntity
  8
0
  6
CONTINUOUS
 62
     3
100
AcDbLine
 10
2812.486783
 20
152.601529
 30
0.0
 11
2849.591678
 21
152.601529
 31
0.0
  0
LINE
  5
188
330
10B
100
AcDbEntity
  8
0
  6
CONTINUOUS
 62
     3
100
AcDbLine
 10
2812.165124
 20
151.001529
 30
0.0
 11
2827.755367
 21
151.001529
 31
0.0
  0
LINE
  5
189
330
10B
100
AcDbEntity
  8
0
  6
CONTINUOUS
 62
     3
100
AcDbLine
 10
2811.843465
 20
149.401529
 30
0.0
 11
2826.223106
 21
149.401529
 31
0.0
  0
LINE
  5
18A
330
10B
100
AcDbEntity
  8
0
  6
CONTINUOUS
 62
     3
100
AcDbLine
 10
2811.521806
 20
147.801529
 30
0.0
 11
2825.434936
 21
147.801529
 31
0.0
  0
LINE
  5
18B
330
10B
100
AcDbEntity
  8
0
  6
CONTINUOUS
 62
     3
100
AcDbLine
 10
2811.280688
 20
146.201529
 30
0.0
 11
2825.116168
 21
146.201529
 31
0.0
  0
LINE
  5
18C
330
10B
100
AcDbEntity
  8
0
  6
CONTINUOUS
 62
     3
100
AcDbLine
 10
2811.160518
 20
144.601529
 30
0.0
 11
2825.166189
 21
144.601529
 31
0.0
  0
LINE
  5
18D
330
10B
100
AcDbEntity
  8
0
  6
CONTINUOUS
 62
     3
100
AcDbLine
 10
2811.135496
 20
143.001529
 30
0.0
 11
2825.712276
 21
143.001529
 31
0.0
  0
LINE
  5
18E
330
10B
100
AcDbEntity
  8
0
  6
CONTINUOUS
 62
     3
100
AcDbLine
 10
2811.634684
 20
141.401529
 30
0.0
 11
2827.742279
 21
141.401529
 31
0.0
  0
LINE
  5
18F
330
10B
100
AcDbEntity
  8
0
  6
CONTINUOUS
 62
     3
100
AcDbLine
 10
2812.345795
 20
139.801529
 30
0.0
 11
2844.873651
 21
139.801529
 31
0.0
  0
LINE
  5
190
330
10B
100
AcDbEntity
  8
0
  6
CONTINUOUS
 62
     3
100
AcDbLine
 10
2813.056906
 20
138.201529
 30
0.0
 11
2844.422369
 21
138.201529
 31
0.0
  0
LINE
  5
191
330
10B
100
AcDbEntity
  8
0
  6
CONTINUOUS
 62
     3
100
AcDbLine
 10
2813.768017
 20
136.601529
 30
0.0
 11
2843.699344
 21
136.601529
 31
0.0
  0
LINE
  5
192
330
10B
100
AcDbEntity
  8
0
  6
CONTINUOUS
 62
     3
100
AcDbLine
 10
2814.729976
 20
135.001529
 30
0.0
 11
2842.801158
 21
135.001529
 31
0.0
  0
LINE
  5
193
330
10B
100
AcDbEntity
  8
0
  6
CONTINUOUS
 62
     3
100
AcDbLine
 10
2815.978437
 20
133.401529
 30
0.0
 11
2841.296232
 21
133.401529
 31
0.0
  0
LINE
  5
194
330
10B
100
AcDbEntity
  8
0
  6
CONTINUOUS
 62
     3
100
AcDbLine
 10
2817.583857
 20
131.801529
 30
0.0
 11
2838.903771
 21
131.801529
 31
0.0
  0
LINE
  5
195
330
10B
100
AcDbEntity
  8
0
  6
CONTINUOUS
 62
     3
100
AcDbLine
 10
2819.731
 20
130.201529
 30
0.0
 11
2835.778647
 21
130.201529
 31
0.0
  0
LINE
  5
196
330
10B
100
AcDbEntity
  8
0
  6
CONTINUOUS
 62
     3
100
AcDbLine
 10
2822.97869
 20
128.601529
 30
0.0
 11
2831.140499
 21
128.601529
 31
0.0
  0
LINE
  5
197
330
10B
100
AcDbEntity
  8
0
  6
CONTINUOUS
 62
     3
100
AcDbLine
 10
2832.94719
 20
151.001529
 30
0.0
 11
2849.766927
 21
151.001529
 31
0.0
  0
LINE
  5
198
330
10B
100
AcDbEntity
  8
0
  6
CONTINUOUS
 62
     3
100
AcDbLine
 10
2833.617934
 20
149.401529
 30
0.0
 11
2849.641158
 21
149.401529
 31
0.0
  0
LINE
  5
199
330
10B
100
AcDbEntity
  8
0
  6
CONTINUOUS
 62
     3
100
AcDbLine
 10
2833.729941
 20
147.801529
 30
0.0
 11
2849.515388
 21
147.801529
 31
0.0
  0
LINE
  5
19A
330
10B
100
AcDbEntity
  8
0
  6
CONTINUOUS
 62
     3
100
AcDbLine
 10
2833.484584
 20
146.201529
 30
0.0
 11
2848.801533
 21
146.201529
 31
0.0
  0
LINE
  5
19B
330
10B
100
AcDbEntity
  8
0
  6
CONTINUOUS
 62
     3
100
AcDbLine
 10
2832.832939
 20
144.601529
 30
0.0
 11
2848.080333
 21
144.601529
 31
0.0
  0
LINE
  5
19C
330
10B
100
AcDbEntity
  8
0
  6
CONTINUOUS
 62
     3
100
AcDbLine
 10
2831.699675
 20
143.001529
 30
0.0
 11
2847.146385
 21
143.001529
 31
0.0
  0
LINE
  5
19D
330
10B
100
AcDbEntity
  8
0
  6
CONTINUOUS
 62
     3
100
AcDbLine
 10
2829.443679
 20
141.401529
 30
0.0
 11
2845.875678
 21
141.401529
 31
0.0
  0
TEXT
  5
19E
330
10B
100
AcDbEntity
  8
0
  6
CONTINUOUS
 62
     5
100
AcDbText
 10
2850.307158
 20
149.012707
 30
0.0
 40
4.713448
  1
M
 41
1.300704
  7
ED_VECTOR
100
AcDbText
  0
TEXT
  5
19F
330
10B
100
AcDbEntity
  8
0
  6
CONTINUOUS
 62
     5
100
AcDbText
 10
2859.958545
 20
148.954436
 30
0.0
 40
4.626621
  1
T
 41
0.518801
  7
ED_VECTOR
100
AcDbText
  0
TEXT
  5
1A0
330
10B
100
AcDbEntity
  8
0
  6
CONTINUOUS
 62
     5
100
AcDbText
 10
2862.724108
 20
148.989235
 30
0.0
 40
4.696183
  1
E
 41
0.703702
  7
ED_VECTOR
100
AcDbText
  0
TEXT
  5
1A1
330
10B
100
AcDbEntity
  8
0
  6
CONTINUOUS
 62
     5
100
AcDbText
 10
2865.840288
 20
150.605079
 30
0.0
 40
0.348283
  1
-
 41
6.250213
  7
ED_VECTOR
100
AcDbText
  0
TEXT
  5
1A2
330
10B
100
AcDbEntity
  8
0
  6
CONTINUOUS
 62
     5
100
AcDbText
 10
2867.654498
 20
148.957888
 30
0.0
 40
4.861659
  1
H
 41
0.865668
  7
ED_VECTOR
100
AcDbText
  0
TEXT
  5
1A3
330
10B
100
AcDbEntity
  8
0
  6
CONTINUOUS
 62
     5
100
AcDbText
 10
2871.730513
 20
148.988266
 30
0.0
 40
4.843139
  1
A
 41
0.846157
  7
ED_VECTOR
100
AcDbText
  0
TEXT
  5
1A4
330
10B
100
AcDbEntity
  8
0
  6
CONTINUOUS
 62
     5
100
AcDbText
 10
2875.436669
 20
148.94674
 30
0.0
 40
4.825362
  1
N
 41
0.993429
  7
ED_VECTOR
100
AcDbText
  0
TEXT
  5
1A5
330
10B
100
AcDbEntity
  8
0
  6
CONTINUOUS
 62
     5
100
AcDbText
 10
2856.228127
 20
148.924167
 30
0.0
 40
4.982325
  1
A
 41
0.784962
  7
ED_VECTOR
100
AcDbText
  0
TEXT
  5
1A6
330
10B
100
AcDbEntity
  8
0
  6
CONTINUOUS
 62
     5
100
AcDbText
 10
2850.674171
 20
141.928927
 30
0.0
 40
4.982325
  1
A
 41
0.784962
  7
ED_VECTOR
100
AcDbText
  0
TEXT
  5
1A7
330
10B
100
AcDbEntity
  8
0
  6
CONTINUOUS
 62
     5
100
AcDbText
 10
2863.458595
 20
141.957248
 30
0.0
 40
4.982325
  1
A
 41
0.784962
  7
ED_VECTOR
100
AcDbText
  0
TEXT
  5
1A8
330
10B
100
AcDbEntity
  8
0
  6
CONTINUOUS
 62
     5
100
AcDbText
 10
2867.21914
 20
142.014245
 30
0.0
 40
4.825362
  1
N
 41
0.993429
  7
ED_VECTOR
100
AcDbText
  0
TEXT
  5
1A9
330
10B
100
AcDbEntity
  8
0
  6
CONTINUOUS
 62
     5
100
AcDbText
 10
2876.121476
 20
142.02264
 30
0.0
 40
4.841775
  1
E
 41
0.789479
  7
ED_VECTOR
100
AcDbText
  0
TEXT
  5
1AA
330
10B
100
AcDbEntity
  8
0
  6
CONTINUOUS
 62
     5
100
AcDbText
 10
2854.954725
 20
141.927603
 30
0.0
 40
4.947865
  1
D
 41
0.729328
  7
ED_VECTOR
100
AcDbText
  0
TEXT
  5
1AB
330
10B
100
AcDbEntity
  8
0
  6
CONTINUOUS
 62
     5
100
AcDbText
 10
2859.357083
 20
141.922218
 30
0.0
 40
4.92421
  1
V
 41
0.818797
  7
ED_VECTOR
100
AcDbText
  0
TEXT
  5
1AC
330
10B
100
AcDbEntity
  8
0
  6
CONTINUOUS
 62
     5
100
AcDbText
 10
2871.582284
 20
141.94295
 30
0.0
 40
5.032894
  1
C
 41
0.987349
  7
ED_VECTOR
100
AcDbText
  0
LINE
  5
1AD
330
10B
100
AcDbEntity
  8
0
  6
CONTINUOUS
 62
     5
100
AcDbLine
 10
2862.212833
 20
153.003346
 30
0.0
 11
2861.200771
 21
153.003346
 31
0.0
  0
LINE
  5
1AE
330
10B
100
AcDbEntity
  8
0
  6
CONTINUOUS
 62
     3
100
AcDbLine
 10
2811.311071
 20
187.228617
 30
0.0
 11
2861.108897
 21
187.228617
 31
0.0
  0
LINE
  5
1AF
330
10B
100
AcDbEntity
  8
0
  6
CONTINUOUS
 62
     3
100
AcDbLine
 10
2804.198707
 20
185.628617
 30
0.0
 11
2872.188589
 21
185.628617
 31
0.0
  0
LINE
  5
1B0
330
10B
100
AcDbEntity
  8
0
  6
CONTINUOUS
 62
     3
100
AcDbLine
 10
2796.750302
 20
184.028617
 30
0.0
 11
2842.173613
 21
184.028617
 31
0.0
  0
LINE
  5
1B1
330
10B
100
AcDbEntity
  8
0
  6
CONTINUOUS
 62
     3
100
AcDbLine
 10
2855.135162
 20
184.028617
 30
0.0
 11
2864.721766
 21
184.028617
 31
0.0
  0
LINE
  5
1B2
330
10B
100
AcDbEntity
  8
0
  6
CONTINUOUS
 62
     3
100
AcDbLine
 10
2869.030899
 20
184.028617
 30
0.0
 11
2877.543897
 21
184.028617
 31
0.0
  0
LINE
  5
1B3
330
10B
100
AcDbEntity
  8
0
  6
CONTINUOUS
 62
     3
100
AcDbLine
 10
2798.153441
 20
182.428617
 30
0.0
 11
2854.859911
 21
182.428617
 31
0.0
  0
LINE
  5
1B4
330
10B
100
AcDbEntity
  8
0
  6
CONTINUOUS
 62
     3
100
AcDbLine
 10
2875.040049
 20
182.428617
 30
0.0
 11
2881.146294
 21
182.428617
 31
0.0
  0
LINE
  5
1B5
330
10B
100
AcDbEntity
  8
0
  6
CONTINUOUS
 62
     3
100
AcDbLine
 10
2796.241108
 20
180.828617
 30
0.0
 11
2868.995459
 21
180.828617
 31
0.0
  0
LINE
  5
1B6
330
10B
100
AcDbEntity
  8
0
  6
CONTINUOUS
 62
     3
100
AcDbLine
 10
2880.941348
 20
180.828617
 30
0.0
 11
2883.175069
 21
180.828617
 31
0.0
  0
LINE
  5
1B7
330
10B
100
AcDbEntity
  8
0
  6
CONTINUOUS
 62
     3
100
AcDbLine
 10
2795.178882
 20
179.228617
 30
0.0
 11
2876.707315
 21
179.228617
 31
0.0
  0
LINE
  5
1B8
330
10B
100
AcDbEntity
  8
0
  6
CONTINUOUS
 62
     3
100
AcDbLine
 10
2796.854549
 20
177.628617
 30
0.0
 11
2881.516624
 21
177.628617
 31
0.0
  0
LINE
  5
1B9
330
10B
100
AcDbEntity
  8
0
  6
CONTINUOUS
 62
     3
100
AcDbLine
 10
2798.022117
 20
176.028617
 30
0.0
 11
2857.135496
 21
176.028617
 31
0.0
  0
LINE
  5
1BA
330
10B
100
AcDbEntity
  8
0
  6
CONTINUOUS
 62
     3
100
AcDbLine
 10
2872.635261
 20
176.028617
 30
0.0
 11
2887.639584
 21
176.028617
 31
0.0
  0
LINE
  5
1BB
330
10B
100
AcDbEntity
  8
0
  6
CONTINUOUS
 62
     3
100
AcDbLine
 10
2798.26724
 20
174.428617
 30
0.0
 11
2833.635496
 21
174.428617
 31
0.0
  0
LINE
  5
1BC
330
10B
100
AcDbEntity
  8
0
  6
CONTINUOUS
 62
     3
100
AcDbLine
 10
2880.20419
 20
174.428617
 30
0.0
 11
2889.726793
 21
174.428617
 31
0.0
  0
LINE
  5
1BD
330
10B
100
AcDbEntity
  8
0
  6
CONTINUOUS
 62
     3
100
AcDbLine
 10
2798.473566
 20
172.828617
 30
0.0
 11
2811.938739
 21
172.828617
 31
0.0
  0
LINE
  5
1BE
330
10B
100
AcDbEntity
  8
0
  6
CONTINUOUS
 62
     3
100
AcDbLine
 10
2887.664538
 20
172.828617
 30
0.0
 11
2894.149557
 21
172.828617
 31
0.0
  0
LINE
  5
1BF
330
10B
100
AcDbEntity
  8
0
  6
CONTINUOUS
 62
     3
100
AcDbLine
 10
2895.727533
 20
171.228617
 30
0.0
 11
2897.896387
 21
171.228617
 31
0.0
  0
ENDBLK
  5
10D
330
10B
100
AcDbEntity
  8
0
100
AcDbBlockEnd
  0
BLOCK
  5
1E9
330
1E8
100
AcDbEntity
  8
0
100
AcDbBlockBegin
  2
EDDIM015
 70
     0
 10
0.0
 20
0.0
 30
0.0
  3
EDDIM015
  1

  0
TEXT
  5
1EC
330
1E8
100
AcDbEntity
  8
0
  6
CONTINUOUS
 62
     3
100
AcDbText
 10
3022.912598
 20
2221.119141
 30
0.0
 40
35.0
  1
GLSB-100-3007
 41
0.857143
  7
ED_VECTOR
100
AcDbText
  0
ENDBLK
  5
1EA
330
1E8
100
AcDbEntity
  8
0
100
AcDbBlockEnd
  0
BLOCK
  5
1EE
330
1ED
100
AcDbEntity
  8
0
100
AcDbBlockBegin
  2
EDDIM016
 70
     0
 10
0.0
 20
0.0
 30
0.0
  3
EDDIM016
  1

  0
TEXT
  5
1F1
330
1ED
100
AcDbEntity
  8
0
  6
CONTINUOUS
 62
     3
100
AcDbText
 10
2993.198975
 20
2080.548828
 30
0.0
 40
35.0
  1
700
 41
0.857143
  7
ED_VECTOR
100
AcDbText
  0
ENDBLK
  5
1EF
330
1ED
100
AcDbEntity
  8
0
100
AcDbBlockEnd
  0
BLOCK
  5
1F3
330
1F2
100
AcDbEntity
  8
0
100
AcDbBlockBegin
  2
EDDIM017
 70
     0
 10
0.0
 20
0.0
 30
0.0
  3
EDDIM017
  1

  0
TEXT
  5
1F6
330
1F2
100
AcDbEntity
  8
0
  6
CONTINUOUS
 62
     3
100
AcDbText
 10
3233.19751
 20
2077.120117
 30
0.0
 40
35.0
  1
300
 41
0.857143
  7
ED_VECTOR
100
AcDbText
  0
ENDBLK
  5
1F4
330
1F2
100
AcDbEntity
  8
0
100
AcDbBlockEnd
  0
BLOCK
  5
1F8
330
1F7
100
AcDbEntity
  8
0
100
AcDbBlockBegin
  2
EDDIM018
 70
     0
 10
0.0
 20
0.0
 30
0.0
  3
EDDIM018
  1

  0
TEXT
  5
1FB
330
1F7
100
AcDbEntity
  8
0
  6
CONTINUOUS
 62
     3
100
AcDbText
 10
3157.197998
 20
2077.120117
 30
0.0
 40
35.0
  1
x
 41
0.857143
  7
ED_VECTOR
100
AcDbText
  0
ENDBLK
  5
1F9
330
1F7
100
AcDbEntity
  8
0
100
AcDbBlockEnd
  0
BLOCK
  5
1FD
330
1FC
100
AcDbEntity
  8
0
100
AcDbBlockBegin
  2
EDDIM019
 70
     0
 10
0.0
 20
0.0
 30
0.0
  3
EDDIM019
  1

  0
TEXT
  5
200
330
1FC
100
AcDbEntity
  8
0
  6
CONTINUOUS
 62
     3
100
AcDbText
 10
3123.140869
 20
2147.662598
 30
0.0
 40
35.0
  1
100
 41
0.857143
  7
ED_VECTOR
100
AcDbText
  0
ENDBLK
  5
1FE
330
1FC
100
AcDbEntity
  8
0
100
AcDbBlockEnd
  0
BLOCK
  5
202
330
201
100
AcDbEntity
  8
0
100
AcDbBlockBegin
  2
EDDIM020
 70
     0
 10
0.0
 20
0.0
 30
0.0
  3
EDDIM020
  1

  0
TEXT
  5
205
330
201
100
AcDbEntity
  8
0
  6
CONTINUOUS
 62
     3
100
AcDbText
 10
3022.570312
 20
2007.77771
 30
0.0
 40
35.0
  1
80
 41
0.857143
  7
ED_VECTOR
100
AcDbText
  0
ENDBLK
  5
203
330
201
100
AcDbEntity
  8
0
100
AcDbBlockEnd
  0
BLOCK
  5
207
330
206
100
AcDbEntity
  8
0
100
AcDbBlockBegin
  2
EDDIM021
 70
     0
 10
0.0
 20
0.0
 30
0.0
  3
EDDIM021
  1

  0
TEXT
  5
20A
330
206
100
AcDbEntity
  8
0
  6
CONTINUOUS
 62
     3
100
AcDbText
 10
3231.483154
 20
2009.149292
 30
0.0
 40
35.0
  1
580
 41
0.857143
  7
ED_VECTOR
100
AcDbText
  0
ENDBLK
  5
208
330
206
100
AcDbEntity
  8
0
100
AcDbBlockEnd
  0
BLOCK
  5
20C
330
20B
100
AcDbEntity
  8
0
100
AcDbBlockBegin
  2
EDDIM022
 70
     0
 10
0.0
 20
0.0
 30
0.0
  3
EDDIM022
  1

  0
TEXT
  5
20F
330
20B
100
AcDbEntity
  8
0
  6
CONTINUOUS
 62
     3
100
AcDbText
 10
3122.046875
 20
1937.832886
 30
0.0
 40
35.0
  1
500
 41
0.857143
  7
ED_VECTOR
100
AcDbText
  0
ENDBLK
  5
20D
330
20B
100
AcDbEntity
  8
0
100
AcDbBlockEnd
  0
BLOCK
  5
211
330
210
100
AcDbEntity
  8
0
100
AcDbBlockBegin
  2
EDDIM023
 70
     0
 10
0.0
 20
0.0
 30
0.0
  3
EDDIM023
  1

  0
TEXT
  5
214
330
210
100
AcDbEntity
  8
0
  6
CONTINUOUS
 62
     3
100
AcDbText
 10
3122.003662
 20
1870.792847
 30
0.0
 40
35.0
  1
700
 41
0.857143
  7
ED_VECTOR
100
AcDbText
  0
ENDBLK
  5
212
330
210
100
AcDbEntity
  8
0
100
AcDbBlockEnd
  0
BLOCK
  5
216
330
215
100
AcDbEntity
  8
0
100
AcDbBlockBegin
  2
EDDIM024
 70
     0
 10
0.0
 20
0.0
 30
0.0
  3
EDDIM024
  1

  0
TEXT
  5
219
330
215
100
AcDbEntity
  8
0
  6
CONTINUOUS
 62
     3
100
AcDbText
 10
3119.907471
 20
1798.359253
 30
0.0
 40
35.0
  1
300
 41
0.857143
  7
ED_VECTOR
100
AcDbText
  0
ENDBLK
  5
217
330
215
100
AcDbEntity
  8
0
100
AcDbBlockEnd
  0
BLOCK
  5
21B
330
21A
100
AcDbEntity
  8
0
100
AcDbBlockBegin
  2
EDDIM025
 70
     0
 10
0.0
 20
0.0
 30
0.0
  3
EDDIM025
  1

  0
TEXT
  5
21E
330
21A
100
AcDbEntity
  8
0
  6
CONTINUOUS
 62
     3
100
AcDbText
 10
3118.151855
 20
1728.142456
 30
0.0
 40
35.0
  1
80
 41
0.857143
  7
ED_VECTOR
100
AcDbText
  0
ENDBLK
  5
21C
330
21A
100
AcDbEntity
  8
0
100
AcDbBlockEnd
  0
BLOCK
  5
220
330
21F
100
AcDbEntity
  8
0
100
AcDbBlockBegin
  2
EDDIM026
 70
     0
 10
0.0
 20
0.0
 30
0.0
  3
EDDIM026
  1

  0
TEXT
  5
223
330
21F
100
AcDbEntity
  8
0
  6
CONTINUOUS
 62
     3
100
AcDbText
 10
3043.702148
 20
1170.371216
 30
0.0
 40
35.0
  1
３０　回／時
 41
0.857143
  7
ED_VECTOR
100
AcDbText
  0
ENDBLK
  5
221
330
21F
100
AcDbEntity
  8
0
100
AcDbBlockEnd
  0
BLOCK
  5
225
330
224
100
AcDbEntity
  8
0
100
AcDbBlockBegin
  2
EDDIM027
 70
     0
 10
0.0
 20
0.0
 30
0.0
  3
EDDIM027
  1

  0
TEXT
  5
228
330
224
100
AcDbEntity
  8
0
  6
CONTINUOUS
 62
     3
100
AcDbText
 10
3042.629639
 20
1101.723511
 30
0.0
 40
35.0
  1
約　２２　㎏
 41
0.857143
  7
ED_VECTOR
100
AcDbText
  0
ENDBLK
  5
226
330
224
100
AcDbEntity
  8
0
100
AcDbBlockEnd
  0
BLOCK
  5
26F
330
26E
100
AcDbEntity
  8
0
100
AcDbBlockBegin
  2
*D25
 70
     1
 10
0.0
 20
0.0
 30
0.0
  3
*D25
  1

  0
TEXT
  5
271
330
26E
100
AcDbEntity
  8
0
  6
CONTINUOUS
 62
     3
100
AcDbText
 10
1574.479614
 20
1230.493286
 30
0.0
 40
30.0
  1
700
 41
0.8
  7
ED_VECTOR
100
AcDbText
  0
LINE
  5
272
330
26E
100
AcDbEntity
  8
0
  6
CONTINUOUS
 62
     6
100
AcDbLine
 10
1261.479733
 20
1136.69307
 30
0.0
 11
1261.479733
 21
1239.49307
 31
0.0
  0
LINE
  5
273
330
26E
100
AcDbEntity
  8
0
  6
CONTINUOUS
 62
     6
100
AcDbLine
 10
1961.479733
 20
1136.69307
 30
0.0
 11
1961.479733
 21
1239.49307
 31
0.0
  0
LINE
  5
274
330
26E
100
AcDbEntity
  8
0
  6
CONTINUOUS
 62
     6
100
AcDbLine
 10
1261.479733
 20
1229.49307
 30
0.0
 11
1961.479733
 21
1229.49307
 31
0.0
  0
INSERT
  5
275
330
26E
100
AcDbEntity
  8
0
  6
CONTINUOUS
 62
     6
100
AcDbBlockReference
  2
EDTIP_ARROW_S
 10
1261.479733
 20
1229.49307
 30
0.0
 41
30.0
 42
30.0
 50
180.0
  0
INSERT
  5
276
330
26E
100
AcDbEntity
  8
0
  6
CONTINUOUS
 62
     6
100
AcDbBlockReference
  2
EDTIP_ARROW_E
 10
1961.479733
 20
1229.49307
 30
0.0
 41
30.0
 42
30.0
  0
ENDBLK
  5
270
330
26E
100
AcDbEntity
  8
0
100
AcDbBlockEnd
  0
BLOCK
  5
279
330
278
100
AcDbEntity
  8
0
100
AcDbBlockBegin
  2
*D26
 70
     1
 10
0.0
 20
0.0
 30
0.0
  3
*D26
  1

  0
TEXT
  5
27B
330
278
100
AcDbEntity
  8
0
  6
CONTINUOUS
 62
     3
100
AcDbText
 10
1119.425293
 20
981.807739
 30
0.0
 40
30.0
  1
23.1
 41
0.8
  7
ED_VECTOR
100
AcDbText
  0
LINE
  5
27C
330
278
100
AcDbEntity
  8
0
  6
CONTINUOUS
 62
     6
100
AcDbLine
 10
1238.425336
 20
626.69307
 30
0.0
 11
1238.425336
 21
990.807801
 31
0.0
  0
LINE
  5
27D
330
278
100
AcDbEntity
  8
0
  6
CONTINUOUS
 62
     6
100
AcDbLine
 10
1261.479733
 20
1089.49307
 30
0.0
 11
1261.479733
 21
970.807801
 31
0.0
  0
LINE
  5
27E
330
278
100
AcDbEntity
  8
0
  6
CONTINUOUS
 62
     6
100
AcDbLine
 10
1238.425336
 20
980.807801
 30
0.0
 11
1261.479733
 21
980.807801
 31
0.0
  0
LINE
  5
27F
330
278
100
AcDbEntity
  8
0
  6
CONTINUOUS
 62
     6
100
AcDbLine
 10
1119.425336
 20
980.807801
 30
0.0
 11
1238.425336
 21
980.807801
 31
0.0
  0
INSERT
  5
280
330
278
100
AcDbEntity
  8
0
  6
CONTINUOUS
 62
     6
100
AcDbBlockReference
  2
EDTIP_ARROW_E
 10
1238.425336
 20
980.807801
 30
0.0
 41
30.0
 42
30.0
  0
LINE
  5
281
330
278
100
AcDbEntity
  8
0
  6
CONTINUOUS
 62
     6
100
AcDbLine
 10
1261.479733
 20
980.807801
 30
0.0
 11
1311.479733
 21
980.807801
 31
0.0
  0
INSERT
  5
282
330
278
100
AcDbEntity
  8
0
  6
CONTINUOUS
 62
     6
100
AcDbBlockReference
  2
EDTIP_ARROW_S
 10
1261.479733
 20
980.807801
 30
0.0
 41
30.0
 42
30.0
 50
180.0
  0
ENDBLK
  5
27A
330
278
100
AcDbEntity
  8
0
100
AcDbBlockEnd
  0
BLOCK
  5
285
330
284
100
AcDbEntity
  8
0
100
AcDbBlockBegin
  2
*D27
 70
     1
 10
0.0
 20
0.0
 30
0.0
  3
*D27
  1

  0
TEXT
  5
287
330
284
100
AcDbEntity
  8
0
  6
CONTINUOUS
 62
     3
100
AcDbText
 10
1551.650024
 20
420.493164
 30
0.0
 40
30.0
  1
700
 41
0.8
  7
ED_VECTOR
100
AcDbText
  0
LINE
  5
288
330
284
100
AcDbEntity
  8
0
  6
CONTINUOUS
 62
     6
100
AcDbLine
 10
1238.650179
 20
529.49307
 30
0.0
 11
1238.650179
 21
409.49307
 31
0.0
  0
LINE
  5
289
330
284
100
AcDbEntity
  8
0
  6
CONTINUOUS
 62
     6
100
AcDbLine
 10
1938.650179
 20
529.49307
 30
0.0
 11
1938.650179
 21
409.49307
 31
0.0
  0
LINE
  5
28A
330
284
100
AcDbEntity
  8
0
  6
CONTINUOUS
 62
     6
100
AcDbLine
 10
1238.650179
 20
419.49307
 30
0.0
 11
1938.650179
 21
419.49307
 31
0.0
  0
INSERT
  5
28B
330
284
100
AcDbEntity
  8
0
  6
CONTINUOUS
 62
     6
100
AcDbBlockReference
  2
EDTIP_ARROW_S
 10
1238.650179
 20
419.49307
 30
0.0
 41
30.0
 42
30.0
 50
180.0
  0
INSERT
  5
28C
330
284
100
AcDbEntity
  8
0
  6
CONTINUOUS
 62
     6
100
AcDbBlockReference
  2
EDTIP_ARROW_E
 10
1938.650179
 20
419.49307
 30
0.0
 41
30.0
 42
30.0
  0
ENDBLK
  5
286
330
284
100
AcDbEntity
  8
0
100
AcDbBlockEnd
  0
BLOCK
  5
28F
330
28E
100
AcDbEntity
  8
0
100
AcDbBlockBegin
  2
*D28
 70
     1
 10
0.0
 20
0.0
 30
0.0
  3
*D28
  1

  0
TEXT
  5
291
330
28E
100
AcDbEntity
  8
0
  6
CONTINUOUS
 62
     3
100
AcDbText
 10
2094.336426
 20
555.12262
 30
0.0
 40
30.0
  1
80
 50
90.0
 41
0.8
  7
ED_VECTOR
100
AcDbText
  0
LINE
  5
292
330
28E
100
AcDbEntity
  8
0
  6
CONTINUOUS
 62
     6
100
AcDbLine
 10
1948.650179
 20
539.49307
 30
0.0
 11
2105.336236
 21
539.49307
 31
0.0
  0
LINE
  5
293
330
28E
100
AcDbEntity
  8
0
  6
CONTINUOUS
 62
     6
100
AcDbLine
 10
1945.625336
 20
619.49307
 30
0.0
 11
2105.336236
 21
619.49307
 31
0.0
  0
LINE
  5
294
330
28E
100
AcDbEntity
  8
0
  6
CONTINUOUS
 62
     6
100
AcDbLine
 10
2095.336236
 20
539.49307
 30
0.0
 11
2095.336236
 21
619.49307
 31
0.0
  0
LINE
  5
295
330
28E
100
AcDbEntity
  8
0
  6
CONTINUOUS
 62
     6
100
AcDbLine
 10
2095.336236
 20
491.550715
 30
0.0
 11
2095.336236
 21
539.49307
 31
0.0
  0
INSERT
  5
296
330
28E
100
AcDbEntity
  8
0
  6
CONTINUOUS
 62
     6
100
AcDbBlockReference
  2
EDTIP_ARROW_E
 10
2095.336236
 20
539.49307
 30
0.0
 41
30.0
 42
30.0
 50
90.0
  0
ENDBLK
  5
290
330
28E
100
AcDbEntity
  8
0
100
AcDbBlockEnd
  0
BLOCK
  5
299
330
298
100
AcDbEntity
  8
0
100
AcDbBlockBegin
  2
*D29
 70
     1
 10
0.0
 20
0.0
 30
0.0
  3
*D29
  1

  0
TEXT
  5
29B
330
298
100
AcDbEntity
  8
0
  6
CONTINUOUS
 62
     4
100
AcDbText
 10
2094.336426
 20
837.493042
 30
0.0
 40
30.0
  1
500
 50
90.0
 41
0.8
  7
ED_VECTOR
100
AcDbText
  0
LINE
  5
29C
330
298
100
AcDbEntity
  8
0
  6
CONTINUOUS
 62
     6
100
AcDbLine
 10
1968.679733
 20
1129.49307
 30
0.0
 11
2105.336236
 21
1129.49307
 31
0.0
  0
LINE
  5
29D
330
298
100
AcDbEntity
  8
0
  6
CONTINUOUS
 62
     6
100
AcDbLine
 10
2095.336236
 20
619.49307
 30
0.0
 11
2095.336236
 21
1129.49307
 31
0.0
  0
INSERT
  5
29E
330
298
100
AcDbEntity
  8
0
  6
CONTINUOUS
 62
     6
100
AcDbBlockReference
  2
EDTIP_ARROW_S
 10
2095.336236
 20
619.49307
 30
0.0
 41
30.0
 42
30.0
 50
270.0
  0
INSERT
  5
29F
330
298
100
AcDbEntity
  8
0
  6
CONTINUOUS
 62
     6
100
AcDbBlockReference
  2
EDTIP_ARROW_E
 10
2095.336236
 20
1129.49307
 30
0.0
 41
30.0
 42
30.0
 50
90.0
  0
ENDBLK
  5
29A
330
298
100
AcDbEntity
  8
0
100
AcDbBlockEnd
  0
BLOCK
  5
2A2
330
2A1
100
AcDbEntity
  8
0
100
AcDbBlockBegin
  2
*D30
 70
     1
 10
0.0
 20
0.0
 30
0.0
  3
*D30
  1

  0
TEXT
  5
2A4
330
2A1
100
AcDbEntity
  8
0
  6
CONTINUOUS
 62
     4
100
AcDbText
 10
2174.336426
 20
797.493042
 30
0.0
 40
30.0
  1
580
 50
90.0
 41
0.8
  7
ED_VECTOR
100
AcDbText
  0
LINE
  5
2A5
330
2A1
100
AcDbEntity
  8
0
  6
CONTINUOUS
 62
     6
100
AcDbLine
 10
1948.650179
 20
539.49307
 30
0.0
 11
2185.336236
 21
539.49307
 31
0.0
  0
LINE
  5
2A6
330
2A1
100
AcDbEntity
  8
0
  6
CONTINUOUS
 62
     6
100
AcDbLine
 10
1968.679733
 20
1129.49307
 30
0.0
 11
2185.336236
 21
1129.49307
 31
0.0
  0
LINE
  5
2A7
330
2A1
100
AcDbEntity
  8
0
  6
CONTINUOUS
 62
     6
100
AcDbLine
 10
2175.336236
 20
539.49307
 30
0.0
 11
2175.336236
 21
1129.49307
 31
0.0
  0
INSERT
  5
2A8
330
2A1
100
AcDbEntity
  8
0
  6
CONTINUOUS
 62
     6
100
AcDbBlockReference
  2
EDTIP_ARROW_S
 10
2175.336236
 20
539.49307
 30
0.0
 41
30.0
 42
30.0
 50
270.0
  0
INSERT
  5
2A9
330
2A1
100
AcDbEntity
  8
0
  6
CONTINUOUS
 62
     6
100
AcDbBlockReference
  2
EDTIP_ARROW_E
 10
2175.336236
 20
1129.49307
 30
0.0
 41
30.0
 42
30.0
 50
90.0
  0
ENDBLK
  5
2A3
330
2A1
100
AcDbEntity
  8
0
100
AcDbBlockEnd
  0
BLOCK
  5
2B5
330
2B4
100
AcDbEntity
  8
0
100
AcDbBlockBegin
  2
*D31
 70
     1
 10
0.0
 20
0.0
 30
0.0
  3
*D31
  1

  0
TEXT
  5
2B7
330
2B4
100
AcDbEntity
  8
0
  6
CONTINUOUS
 62
     3
100
AcDbText
 10
681.869202
 20
1239.493164
 30
0.0
 40
30.0
  1
300
 41
0.8
  7
ED_VECTOR
100
AcDbText
  0
LINE
  5
2B8
330
2B4
100
AcDbEntity
  8
0
  6
CONTINUOUS
 62
     5
100
AcDbLine
 10
567.869202
 20
1139.49307
 30
0.0
 11
567.869202
 21
1239.49307
 31
0.0
  0
LINE
  5
2B9
330
2B4
100
AcDbEntity
  8
0
  6
CONTINUOUS
 62
     5
100
AcDbLine
 10
867.869202
 20
1139.49307
 30
0.0
 11
867.869202
 21
1239.49307
 31
0.0
  0
LINE
  5
2BA
330
2B4
100
AcDbEntity
  8
0
  6
CONTINUOUS
 62
     5
100
AcDbLine
 10
567.869202
 20
1229.49307
 30
0.0
 11
867.869202
 21
1229.49307
 31
0.0
  0
INSERT
  5
2BB
330
2B4
100
AcDbEntity
  8
0
  6
CONTINUOUS
 62
     5
100
AcDbBlockReference
  2
EDTIP_ARROW_S
 10
567.869202
 20
1229.49307
 30
0.0
 41
30.0
 42
30.0
 50
180.0
  0
INSERT
  5
2BC
330
2B4
100
AcDbEntity
  8
0
  6
CONTINUOUS
 62
     5
100
AcDbBlockReference
  2
EDTIP_ARROW_E
 10
867.869202
 20
1229.49307
 30
0.0
 41
30.0
 42
30.0
  0
ENDBLK
  5
2B6
330
2B4
100
AcDbEntity
  8
0
100
AcDbBlockEnd
  0
BLOCK
  5
2BE
330
2BD
100
AcDbEntity
  8
0
100
AcDbBlockBegin
  2
BLKF035
 70
     0
 10
0.0
 20
0.0
 30
0.0
  3
BLKF035
  1

  0
LINE
  5
2C1
330
2BD
100
AcDbEntity
  8
0
  6
CONTINUOUS
 62
     3
100
AcDbLine
 10
2255.795366
 20
1473.154309
 30
0.0
 11
2298.295366
 21
1399.54215
 31
0.0
  0
LINE
  5
2C2
330
2BD
100
AcDbEntity
  8
0
  6
CENTER
 62
     5
100
AcDbLine
 10
2288.157389
 20
1562.101643
 30
0.0
 11
2317.332208
 21
1511.569373
 31
0.0
  0
LINE
  5
2C3
330
2BD
100
AcDbEntity
  8
0
  6
CONTINUOUS
 62
     2
100
AcDbLine
 10
2304.725802
 20
1501.404309
 30
0.0
 11
2347.225802
 21
1427.79215
 31
0.0
  0
LINE
  5
2C4
330
2BD
100
AcDbEntity
  8
0
  6
CONTINUOUS
 62
     3
100
AcDbLine
 10
2260.125493
 20
1475.654309
 30
0.0
 11
2299.096636
 21
1498.154309
 31
0.0
  0
LINE
  5
2C5
330
2BD
100
AcDbEntity
  8
0
  6
CONTINUOUS
 62
     3
100
AcDbLine
 10
2301.71043
 20
1398.627087
 30
0.0
 11
2362.332208
 21
1433.627087
 31
0.0
  0
LINE
  5
2C6
330
2BD
100
AcDbEntity
  8
0
  6
CONTINUOUS
 62
     3
100
AcDbLine
 10
2259.21043
 20
1472.239246
 30
0.0
 11
2297.71043
 21
1405.55529
 31
0.0
  0
LINE
  5
2C7
330
2BD
100
AcDbEntity
  8
0
  6
CONTINUOUS
 62
     3
100
AcDbLine
 10
2302.5117
 20
1497.239246
 30
0.0
 11
2341.0117
 21
1430.55529
 31
0.0
  0
ARC
  5
2C8
330
2BD
100
AcDbEntity
  8
0
  6
CONTINUOUS
 62
     3
100
AcDbCircle
 10
2292.326974
 20
1464.879709
 30
0.0
 40
59.56818181817744
100
AcDbArc
 50
275.185163
 51
324.814837
  0
ARC
  5
2C9
330
2BD
100
AcDbEntity
  8
0
  6
CONTINUOUS
 62
     3
100
AcDbCircle
 10
2261.375493
 20
1473.489246
 30
0.0
 40
2.5
100
AcDbArc
 50
120.0
 51
210.0
  0
ARC
  5
2CA
330
2BD
100
AcDbEntity
  8
0
  6
CONTINUOUS
 62
     3
100
AcDbCircle
 10
2300.346636
 20
1495.989246
 30
0.0
 40
2.5
100
AcDbArc
 50
30.0
 51
120.0
  0
ARC
  5
2CB
330
2BD
100
AcDbEntity
  8
0
  6
CONTINUOUS
 62
     3
100
AcDbCircle
 10
2257.96043
 20
1474.404309
 30
0.0
 40
2.5
100
AcDbArc
 50
120.0
 51
210.0
  0
ARC
  5
2CC
330
2BD
100
AcDbEntity
  8
0
  6
CONTINUOUS
 62
     3
100
AcDbCircle
 10
2300.46043
 20
1400.79215
 30
0.0
 40
2.5
100
AcDbArc
 50
210.0
 51
300.0
  0
ARC
  5
2CD
330
2BD
100
AcDbEntity
  8
0
  6
CONTINUOUS
 62
     2
100
AcDbCircle
 10
2349.390865
 20
1429.04215
 30
0.0
 40
2.5
100
AcDbArc
 50
210.0
 51
300.0
  0
ARC
  5
2CE
330
2BD
100
AcDbEntity
  8
0
  6
CONTINUOUS
 62
     2
100
AcDbCircle
 10
2306.890865
 20
1502.654309
 30
0.0
 40
2.5
100
AcDbArc
 50
120.0
 51
210.0
  0
LINE
  5
2CF
330
2BD
100
AcDbEntity
  8
0
  6
CONTINUOUS
 62
     3
100
AcDbLine
 10
2377.953986
 20
1546.569373
 30
0.0
 11
2256.71043
 21
1476.569373
 31
0.0
  0
LINE
  5
2D0
330
2BD
100
AcDbEntity
  8
0
  6
CONTINUOUS
 62
     3
100
AcDbLine
 10
2381.36905
 20
1545.654309
 30
0.0
 11
2423.86905
 21
1472.04215
 31
0.0
  0
LINE
  5
2D1
330
2BD
100
AcDbEntity
  8
0
  6
CONTINUOUS
 62
     2
100
AcDbLine
 10
2332.438614
 20
1517.404309
 30
0.0
 11
2374.938614
 21
1443.79215
 31
0.0
  0
LINE
  5
2D2
330
2BD
100
AcDbEntity
  8
0
  6
CONTINUOUS
 62
     3
100
AcDbLine
 10
2422.953986
 20
1468.627087
 30
0.0
 11
2362.332208
 21
1433.627087
 31
0.0
  0
ARC
  5
2D3
330
2BD
100
AcDbEntity
  8
0
  6
CONTINUOUS
 62
     3
100
AcDbCircle
 10
2379.203986
 20
1544.404309
 30
0.0
 40
2.5
100
AcDbArc
 50
30.0
 51
120.0
  0
ARC
  5
2D4
330
2BD
100
AcDbEntity
  8
0
  6
CONTINUOUS
 62
     3
100
AcDbCircle
 10
2421.703986
 20
1470.79215
 30
0.0
 40
2.5
100
AcDbArc
 50
300.0
 51
30.0
  0
ARC
  5
2D5
330
2BD
100
AcDbEntity
  8
0
  6
CONTINUOUS
 62
     2
100
AcDbCircle
 10
2372.773551
 20
1442.54215
 30
0.0
 40
2.5
100
AcDbArc
 50
300.0
 51
30.0
  0
ARC
  5
2D6
330
2BD
100
AcDbEntity
  8
0
  6
CONTINUOUS
 62
     2
100
AcDbCircle
 10
2330.273551
 20
1516.154309
 30
0.0
 40
2.5
100
AcDbArc
 50
30.0
 51
120.0
  0
LINE
  5
2D7
330
2BD
100
AcDbEntity
  8
0
  6
CONTINUOUS
 62
     3
100
AcDbLine
 10
2377.038923
 20
1543.154309
 30
0.0
 11
2338.06778
 21
1520.654309
 31
0.0
  0
LINE
  5
2D8
330
2BD
100
AcDbEntity
  8
0
  6
CONTINUOUS
 62
     3
100
AcDbLine
 10
2380.453986
 20
1542.239246
 30
0.0
 11
2418.953986
 21
1475.55529
 31
0.0
  0
LINE
  5
2D9
330
2BD
100
AcDbEntity
  8
0
  6
CONTINUOUS
 62
     3
100
AcDbLine
 10
2337.152716
 20
1517.239246
 30
0.0
 11
2375.652716
 21
1450.55529
 31
0.0
  0
ARC
  5
2DA
330
2BD
100
AcDbEntity
  8
0
  6
CONTINUOUS
 62
     3
100
AcDbCircle
 10
2370.26926
 20
1509.879709
 30
0.0
 40
59.56818181817744
100
AcDbArc
 50
275.185163
 51
324.814837
  0
ARC
  5
2DB
330
2BD
100
AcDbEntity
  8
0
  6
CONTINUOUS
 62
     3
100
AcDbCircle
 10
2378.288923
 20
1540.989246
 30
0.0
 40
2.5
100
AcDbArc
 50
30.0
 51
120.0
  0
ARC
  5
2DC
330
2BD
100
AcDbEntity
  8
0
  6
CONTINUOUS
 62
     3
100
AcDbCircle
 10
2339.31778
 20
1518.489246
 30
0.0
 40
2.5
100
AcDbArc
 50
120.0
 51
210.0
  0
LINE
  5
2DD
330
2BD
100
AcDbEntity
  8
0
  6
CONTINUOUS
 62
     3
100
AcDbLine
 10
2321.260411
 20
1520.765525
 30
0.0
 11
2324.260411
 21
1515.569373
 31
0.0
  0
LINE
  5
2DE
330
2BD
100
AcDbEntity
  8
0
  6
CONTINUOUS
 62
     3
100
AcDbLine
 10
2307.404005
 20
1512.765525
 30
0.0
 11
2310.404005
 21
1507.569373
 31
0.0
  0
ARC
  5
2DF
330
2BD
100
AcDbEntity
  8
0
  6
CONTINUOUS
 62
     3
100
AcDbCircle
 10
2308.27003
 20
1513.265525
 30
0.0
 40
1.0
100
AcDbArc
 50
120.0
 51
210.0
  0
ARC
  5
2E0
330
2BD
100
AcDbEntity
  8
0
  6
CONTINUOUS
 62
     3
100
AcDbCircle
 10
2320.394386
 20
1520.265525
 30
0.0
 40
1.0
100
AcDbArc
 50
30.0
 51
120.0
  0
LINE
  5
2E1
330
2BD
100
AcDbEntity
  8
0
  6
CONTINUOUS
 62
     3
100
AcDbLine
 10
2319.894386
 20
1521.131551
 30
0.0
 11
2307.77003
 21
1514.131551
 31
0.0
  0
LINE
  5
2E2
330
2BD
100
AcDbEntity
  8
0
  6
CONTINUOUS
 62
     2
100
AcDbLine
 10
2316.545542
 20
1488.6066
 30
0.0
 11
2311.978042
 21
1496.517742
 31
0.0
  0
LINE
  5
2E3
330
2BD
100
AcDbEntity
  8
0
  6
CONTINUOUS
 62
     2
100
AcDbLine
 10
2337.005392
 20
1500.4191
 30
0.0
 11
2332.437892
 21
1508.330242
 31
0.0
  0
LINE
  5
2E4
330
2BD
100
AcDbEntity
  8
0
  6
CONTINUOUS
 62
     2
100
AcDbLine
 10
2312.439234
 20
1498.238934
 30
0.0
 11
2330.7167
 21
1508.791434
 31
0.0
  0
LINE
  5
2E5
330
2BD
100
AcDbEntity
  8
0
  6
CONTINUOUS
 62
     2
100
AcDbLine
 10
2318.266734
 20
1488.145408
 30
0.0
 11
2336.5442
 21
1498.697908
 31
0.0
  0
LINE
  5
2E6
330
2BD
100
AcDbEntity
  8
0
  6
CONTINUOUS
 62
     2
100
AcDbLine
 10
2335.053604
 20
1500.019696
 30
0.0
 11
2331.037354
 21
1506.976045
 31
0.0
  0
LINE
  5
2E7
330
2BD
100
AcDbEntity
  8
0
  6
CONTINUOUS
 62
     2
100
AcDbLine
 10
2332.325624
 20
1498.444696
 30
0.0
 11
2331.853124
 21
1499.26309
 31
0.0
  0
LINE
  5
2E8
330
2BD
100
AcDbEntity
  8
0
  6
CONTINUOUS
 62
     2
100
AcDbLine
 10
2324.823679
 20
1494.113446
 30
0.0
 11
2324.351179
 21
1494.93184
 31
0.0
  0
LINE
  5
2E9
330
2BD
100
AcDbEntity
  8
0
  6
CONTINUOUS
 62
     2
100
AcDbLine
 10
2320.868108
 20
1491.829696
 30
0.0
 11
2318.348108
 21
1496.194464
 31
0.0
  0
LINE
  5
2EA
330
2BD
100
AcDbEntity
  8
0
  6
CONTINUOUS
 62
     2
100
AcDbLine
 10
2322.374151
 20
1491.426153
 30
0.0
 11
2324.420136
 21
1492.607403
 31
0.0
  0
LINE
  5
2EB
330
2BD
100
AcDbEntity
  8
0
  6
CONTINUOUS
 62
     2
100
AcDbLine
 10
2318.751651
 20
1497.700507
 30
0.0
 11
2320.797636
 21
1498.881757
 31
0.0
  0
LINE
  5
2EC
330
2BD
100
AcDbEntity
  8
0
  6
CONTINUOUS
 62
     2
100
AcDbLine
 10
2328.712917
 20
1506.907088
 30
0.0
 11
2329.531311
 21
1507.379588
 31
0.0
  0
LINE
  5
2ED
330
2BD
100
AcDbEntity
  8
0
  6
CONTINUOUS
 62
     2
100
AcDbLine
 10
2324.697073
 20
1496.222734
 30
0.0
 11
2330.56223
 21
1499.608984
 31
0.0
  0
LINE
  5
2EE
330
2BD
100
AcDbEntity
  8
0
  6
CONTINUOUS
 62
     2
100
AcDbLine
 10
2324.303323
 20
1496.904729
 30
0.0
 11
2330.16848
 21
1500.290979
 31
0.0
  0
ARC
  5
2EF
330
2BD
100
AcDbEntity
  8
0
  6
CONTINUOUS
 62
     2
100
AcDbCircle
 10
2321.822901
 20
1492.380946
 30
0.0
 40
1.1025
100
AcDbArc
 50
210.0
 51
300.0
  0
ARC
  5
2F0
330
2BD
100
AcDbEntity
  8
0
  6
CONTINUOUS
 62
     2
100
AcDbCircle
 10
2319.302901
 20
1496.745714
 30
0.0
 40
1.1025
100
AcDbArc
 50
120.0
 51
210.0
  0
ARC
  5
2F1
330
2BD
100
AcDbEntity
  8
0
  6
CONTINUOUS
 62
     2
100
AcDbCircle
 10
2321.348886
 20
1497.926964
 30
0.0
 40
1.1025
100
AcDbArc
 50
30.0
 51
120.0
  0
ARC
  5
2F2
330
2BD
100
AcDbEntity
  8
0
  6
CONTINUOUS
 62
     2
100
AcDbCircle
 10
2323.868886
 20
1493.562196
 30
0.0
 40
1.1025
100
AcDbArc
 50
300.0
 51
30.0
  0
ARC
  5
2F3
330
2BD
100
AcDbEntity
  8
0
  6
CONTINUOUS
 62
     2
100
AcDbCircle
 10
2329.264167
 20
1505.952295
 30
0.0
 40
1.1025
100
AcDbArc
 50
120.0
 51
210.0
  0
ARC
  5
2F4
330
2BD
100
AcDbEntity
  8
0
  6
CONTINUOUS
 62
     2
100
AcDbCircle
 10
2330.082561
 20
1506.424795
 30
0.0
 40
1.1025
100
AcDbArc
 50
30.0
 51
120.0
  0
ARC
  5
2F5
330
2BD
100
AcDbEntity
  8
0
  6
CONTINUOUS
 62
     2
100
AcDbCircle
 10
2334.098811
 20
1499.468446
 30
0.0
 40
1.1025
100
AcDbArc
 50
300.0
 51
30.0
  0
ARC
  5
2F6
330
2BD
100
AcDbEntity
  8
0
  6
CONTINUOUS
 62
     2
100
AcDbCircle
 10
2333.280417
 20
1498.995946
 30
0.0
 40
1.1025
100
AcDbArc
 50
210.0
 51
300.0
  0
LINE
  5
2F7
330
2BD
100
AcDbEntity
  8
0
  6
CONTINUOUS
 62
     2
100
AcDbLine
 10
2323.012429
 20
1497.250623
 30
0.0
 11
2322.303679
 21
1498.478214
 31
0.0
  0
LINE
  5
2F8
330
2BD
100
AcDbEntity
  8
0
  6
CONTINUOUS
 62
     2
100
AcDbLine
 10
2330.514374
 20
1501.581873
 30
0.0
 11
2328.309374
 21
1505.401045
 31
0.0
  0
ARC
  5
2F9
330
2BD
100
AcDbEntity
  8
0
  6
CONTINUOUS
 62
     2
100
AcDbCircle
 10
2325.169573
 20
1495.40434
 30
0.0
 40
0.9450000000000001
100
AcDbArc
 50
120.0
 51
210.0
  0
ARC
  5
2FA
330
2BD
100
AcDbEntity
  8
0
  6
CONTINUOUS
 62
     2
100
AcDbCircle
 10
2323.830823
 20
1497.723123
 30
0.0
 40
0.9450000000000001
100
AcDbArc
 50
210.0
 51
300.0
  0
ARC
  5
2FB
330
2BD
100
AcDbEntity
  8
0
  6
CONTINUOUS
 62
     2
100
AcDbCircle
 10
2329.69598
 20
1501.109373
 30
0.0
 40
0.9450000000000001
100
AcDbArc
 50
300.0
 51
30.0
  0
ARC
  5
2FC
330
2BD
100
AcDbEntity
  8
0
  6
CONTINUOUS
 62
     2
100
AcDbCircle
 10
2317.636734
 20
1489.2366
 30
0.0
 40
1.26
100
AcDbArc
 50
210.0
 51
300.0
  0
ARC
  5
2FD
330
2BD
100
AcDbEntity
  8
0
  6
CONTINUOUS
 62
     2
100
AcDbCircle
 10
2313.069234
 20
1497.147742
 30
0.0
 40
1.26
100
AcDbArc
 50
120.0
 51
210.0
  0
ARC
  5
2FE
330
2BD
100
AcDbEntity
  8
0
  6
CONTINUOUS
 62
     2
100
AcDbCircle
 10
2331.3467
 20
1507.700242
 30
0.0
 40
1.26
100
AcDbArc
 50
30.0
 51
120.0
  0
ARC
  5
2FF
330
2BD
100
AcDbEntity
  8
0
  6
CONTINUOUS
 62
     2
100
AcDbCircle
 10
2335.9142
 20
1499.7891
 30
0.0
 40
1.26
100
AcDbArc
 50
300.0
 51
30.0
  0
ARC
  5
300
330
2BD
100
AcDbEntity
  8
0
  6
CONTINUOUS
 62
     2
100
AcDbCircle
 10
2331.03473
 20
1498.79059
 30
0.0
 40
0.9450000000000001
100
AcDbArc
 50
30.0
 51
120.0
  0
LINE
  5
301
330
2BD
100
AcDbEntity
  8
0
  6
CONTINUOUS
 62
     2
100
AcDbLine
 10
2333.831667
 20
1498.041153
 30
0.0
 11
2334.650061
 21
1498.513653
 31
0.0
  0
CIRCLE
  5
302
330
2BD
100
AcDbEntity
  8
0
  6
CONTINUOUS
 62
     2
100
AcDbCircle
 10
2361.450497
 20
1451.388213
 30
0.0
 40
1.5
  0
CIRCLE
  5
303
330
2BD
100
AcDbEntity
  8
0
  6
CONTINUOUS
 62
     2
100
AcDbCircle
 10
2361.450497
 20
1451.388213
 30
0.0
 40
1.0
  0
POINT
  5
304
330
2BD
100
AcDbEntity
  8
0
  6
CONTINUOUS
 62
     2
100
AcDbPoint
 10
2361.450497
 20
1451.388213
 30
0.0
  0
CIRCLE
  5
305
330
2BD
100
AcDbEntity
  8
0
  6
CONTINUOUS
 62
     2
100
AcDbCircle
 10
2356.450497
 20
1460.048467
 30
0.0
 40
1.5
  0
CIRCLE
  5
306
330
2BD
100
AcDbEntity
  8
0
  6
CONTINUOUS
 62
     2
100
AcDbCircle
 10
2356.450497
 20
1460.048467
 30
0.0
 40
1.0
  0
POINT
  5
307
330
2BD
100
AcDbEntity
  8
0
  6
CONTINUOUS
 62
     2
100
AcDbPoint
 10
2356.450497
 20
1460.048467
 30
0.0
  0
CIRCLE
  5
308
330
2BD
100
AcDbEntity
  8
0
  6
CONTINUOUS
 62
     2
100
AcDbCircle
 10
2351.450497
 20
1468.708722
 30
0.0
 40
1.5
  0
CIRCLE
  5
309
330
2BD
100
AcDbEntity
  8
0
  6
CONTINUOUS
 62
     2
100
AcDbCircle
 10
2351.450497
 20
1468.708722
 30
0.0
 40
1.0
  0
POINT
  5
30A
330
2BD
100
AcDbEntity
  8
0
  6
CONTINUOUS
 62
     2
100
AcDbPoint
 10
2351.450497
 20
1468.708722
 30
0.0
  0
TEXT
  5
30B
330
2BD
100
AcDbEntity
  8
0
  6
CONTINUOUS
 62
     2
100
AcDbText
 10
2350.033452
 20
1442.691199
 30
0.0
 40
3.646549
  1
3
 50
30.0
 41
1.113868
  7
ED_VECTOR
100
AcDbText
  0
TEXT
  5
30C
330
2BD
100
AcDbEntity
  8
0
  6
CONTINUOUS
 62
     2
100
AcDbText
 10
2345.033452
 20
1451.351355
 30
0.0
 40
3.646549
  1
2
 50
30.0
 41
1.113868
  7
ED_VECTOR
100
AcDbText
  0
TEXT
  5
30D
330
2BD
100
AcDbEntity
  8
0
  6
CONTINUOUS
 62
     2
100
AcDbText
 10
2340.033452
 20
1460.011511
 30
0.0
 40
3.646549
  1
1
 50
30.0
 41
1.113868
  7
ED_VECTOR
100
AcDbText
  0
CIRCLE
  5
30E
330
2BD
100
AcDbEntity
  8
0
  6
CONTINUOUS
 62
     2
100
AcDbCircle
 10
2291.280938
 20
1456.691497
 30
0.0
 40
2.5
  0
CIRCLE
  5
30F
330
2BD
100
AcDbEntity
  8
0
  6
CONTINUOUS
 62
     2
100
AcDbCircle
 10
2282.620684
 20
1451.691497
 30
0.0
 40
2.5
  0
CIRCLE
  5
310
330
2BD
100
AcDbEntity
  8
0
  6
CONTINUOUS
 62
     2
100
AcDbCircle
 10
2287.620684
 20
1443.031242
 30
0.0
 40
2.5
  0
CIRCLE
  5
311
330
2BD
100
AcDbEntity
  8
0
  6
CONTINUOUS
 62
     2
100
AcDbCircle
 10
2296.280938
 20
1448.031242
 30
0.0
 40
2.5
  0
CIRCLE
  5
312
330
2BD
100
AcDbEntity
  8
0
  6
CONTINUOUS
 62
     2
100
AcDbCircle
 10
2301.280938
 20
1439.370988
 30
0.0
 40
2.5
  0
CIRCLE
  5
313
330
2BD
100
AcDbEntity
  8
0
  6
CONTINUOUS
 62
     2
100
AcDbCircle
 10
2292.620684
 20
1434.370988
 30
0.0
 40
2.5
  0
CIRCLE
  5
314
330
2BD
100
AcDbEntity
  8
0
  6
CONTINUOUS
 62
     2
100
AcDbCircle
 10
2297.620684
 20
1425.710734
 30
0.0
 40
2.5
  0
CIRCLE
  5
315
330
2BD
100
AcDbEntity
  8
0
  6
CONTINUOUS
 62
     2
100
AcDbCircle
 10
2306.280938
 20
1430.710734
 30
0.0
 40
2.5
  0
CIRCLE
  5
316
330
2BD
100
AcDbEntity
  8
0
  6
CONTINUOUS
 62
     2
100
AcDbCircle
 10
2311.280938
 20
1422.05048
 30
0.0
 40
2.5
  0
CIRCLE
  5
317
330
2BD
100
AcDbEntity
  8
0
  6
CONTINUOUS
 62
     2
100
AcDbCircle
 10
2302.620684
 20
1417.05048
 30
0.0
 40
2.5
  0
CIRCLE
  5
318
330
2BD
100
AcDbEntity
  8
0
  6
CONTINUOUS
 62
     2
100
AcDbCircle
 10
2299.941192
 20
1461.691497
 30
0.0
 40
2.5
  0
CIRCLE
  5
319
330
2BD
100
AcDbEntity
  8
0
  6
CONTINUOUS
 62
     2
100
AcDbCircle
 10
2308.601446
 20
1466.691497
 30
0.0
 40
2.5
  0
CIRCLE
  5
31A
330
2BD
100
AcDbEntity
  8
0
  6
CONTINUOUS
 62
     2
100
AcDbCircle
 10
2313.601446
 20
1458.031242
 30
0.0
 40
2.5
  0
CIRCLE
  5
31B
330
2BD
100
AcDbEntity
  8
0
  6
CONTINUOUS
 62
     2
100
AcDbCircle
 10
2304.941192
 20
1453.031242
 30
0.0
 40
2.5
  0
CIRCLE
  5
31C
330
2BD
100
AcDbEntity
  8
0
  6
CONTINUOUS
 62
     2
100
AcDbCircle
 10
2309.941192
 20
1444.370988
 30
0.0
 40
2.5
  0
CIRCLE
  5
31D
330
2BD
100
AcDbEntity
  8
0
  6
CONTINUOUS
 62
     2
100
AcDbCircle
 10
2318.601446
 20
1449.370988
 30
0.0
 40
2.5
  0
CIRCLE
  5
31E
330
2BD
100
AcDbEntity
  8
0
  6
CONTINUOUS
 62
     2
100
AcDbCircle
 10
2323.601446
 20
1440.710734
 30
0.0
 40
2.5
  0
CIRCLE
  5
31F
330
2BD
100
AcDbEntity
  8
0
  6
CONTINUOUS
 62
     2
100
AcDbCircle
 10
2314.941192
 20
1435.710734
 30
0.0
 40
2.5
  0
CIRCLE
  5
320
330
2BD
100
AcDbEntity
  8
0
  6
CONTINUOUS
 62
     2
100
AcDbCircle
 10
2319.941192
 20
1427.05048
 30
0.0
 40
2.5
  0
CIRCLE
  5
321
330
2BD
100
AcDbEntity
  8
0
  6
CONTINUOUS
 62
     2
100
AcDbCircle
 10
2328.601446
 20
1432.05048
 30
0.0
 40
2.5
  0
CIRCLE
  5
322
330
2BD
100
AcDbEntity
  8
0
  6
CONTINUOUS
 62
     2
100
AcDbCircle
 10
2377.883478
 20
1506.691497
 30
0.0
 40
2.5
  0
CIRCLE
  5
323
330
2BD
100
AcDbEntity
  8
0
  6
CONTINUOUS
 62
     2
100
AcDbCircle
 10
2386.543732
 20
1511.691497
 30
0.0
 40
2.5
  0
CIRCLE
  5
324
330
2BD
100
AcDbEntity
  8
0
  6
CONTINUOUS
 62
     2
100
AcDbCircle
 10
2391.543732
 20
1503.031242
 30
0.0
 40
2.5
  0
CIRCLE
  5
325
330
2BD
100
AcDbEntity
  8
0
  6
CONTINUOUS
 62
     2
100
AcDbCircle
 10
2382.883478
 20
1498.031242
 30
0.0
 40
2.5
  0
CIRCLE
  5
326
330
2BD
100
AcDbEntity
  8
0
  6
CONTINUOUS
 62
     2
100
AcDbCircle
 10
2387.883478
 20
1489.370988
 30
0.0
 40
2.5
  0
CIRCLE
  5
327
330
2BD
100
AcDbEntity
  8
0
  6
CONTINUOUS
 62
     2
100
AcDbCircle
 10
2396.543732
 20
1494.370988
 30
0.0
 40
2.5
  0
CIRCLE
  5
328
330
2BD
100
AcDbEntity
  8
0
  6
CONTINUOUS
 62
     2
100
AcDbCircle
 10
2401.543732
 20
1485.710734
 30
0.0
 40
2.5
  0
CIRCLE
  5
329
330
2BD
100
AcDbEntity
  8
0
  6
CONTINUOUS
 62
     2
100
AcDbCircle
 10
2392.883478
 20
1480.710734
 30
0.0
 40
2.5
  0
CIRCLE
  5
32A
330
2BD
100
AcDbEntity
  8
0
  6
CONTINUOUS
 62
     2
100
AcDbCircle
 10
2397.883478
 20
1472.05048
 30
0.0
 40
2.5
  0
CIRCLE
  5
32B
330
2BD
100
AcDbEntity
  8
0
  6
CONTINUOUS
 62
     2
100
AcDbCircle
 10
2406.543732
 20
1477.05048
 30
0.0
 40
2.5
  0
CIRCLE
  5
32C
330
2BD
100
AcDbEntity
  8
0
  6
CONTINUOUS
 62
     2
100
AcDbCircle
 10
2369.223224
 20
1501.691497
 30
0.0
 40
2.5
  0
CIRCLE
  5
32D
330
2BD
100
AcDbEntity
  8
0
  6
CONTINUOUS
 62
     2
100
AcDbCircle
 10
2360.56297
 20
1496.691497
 30
0.0
 40
2.5
  0
CIRCLE
  5
32E
330
2BD
100
AcDbEntity
  8
0
  6
CONTINUOUS
 62
     2
100
AcDbCircle
 10
2365.56297
 20
1488.031242
 30
0.0
 40
2.5
  0
CIRCLE
  5
32F
330
2BD
100
AcDbEntity
  8
0
  6
CONTINUOUS
 62
     2
100
AcDbCircle
 10
2374.223224
 20
1493.031242
 30
0.0
 40
2.5
  0
CIRCLE
  5
330
330
2BD
100
AcDbEntity
  8
0
  6
CONTINUOUS
 62
     2
100
AcDbCircle
 10
2379.223224
 20
1484.370988
 30
0.0
 40
2.5
  0
CIRCLE
  5
331
330
2BD
100
AcDbEntity
  8
0
  6
CONTINUOUS
 62
     2
100
AcDbCircle
 10
2370.56297
 20
1479.370988
 30
0.0
 40
2.5
  0
CIRCLE
  5
332
330
2BD
100
AcDbEntity
  8
0
  6
CONTINUOUS
 62
     2
100
AcDbCircle
 10
2375.56297
 20
1470.710734
 30
0.0
 40
2.5
  0
CIRCLE
  5
333
330
2BD
100
AcDbEntity
  8
0
  6
CONTINUOUS
 62
     2
100
AcDbCircle
 10
2384.223224
 20
1475.710734
 30
0.0
 40
2.5
  0
CIRCLE
  5
334
330
2BD
100
AcDbEntity
  8
0
  6
CONTINUOUS
 62
     2
100
AcDbCircle
 10
2389.223224
 20
1467.05048
 30
0.0
 40
2.5
  0
CIRCLE
  5
335
330
2BD
100
AcDbEntity
  8
0
  6
CONTINUOUS
 62
     2
100
AcDbCircle
 10
2380.56297
 20
1462.05048
 30
0.0
 40
2.5
  0
LINE
  5
336
330
2BD
100
AcDbEntity
  8
0
  6
CONTINUOUS
 62
     2
100
AcDbLine
 10
2345.397907
 20
1517.958157
 30
0.0
 11
2375.708796
 21
1535.458157
 31
0.0
  0
LINE
  5
337
330
2BD
100
AcDbEntity
  8
0
  6
CONTINUOUS
 62
     2
100
AcDbLine
 10
2353.397907
 20
1504.101751
 30
0.0
 11
2383.708796
 21
1521.601751
 31
0.0
  0
LINE
  5
338
330
2BD
100
AcDbEntity
  8
0
  6
CONTINUOUS
 62
     2
100
AcDbLine
 10
2344.848869
 20
1515.909119
 30
0.0
 11
2351.348869
 21
1504.650789
 31
0.0
  0
LINE
  5
339
330
2BD
100
AcDbEntity
  8
0
  6
CONTINUOUS
 62
     2
100
AcDbLine
 10
2345.897907
 20
1517.092132
 30
0.0
 11
2376.208796
 21
1534.592132
 31
0.0
  0
LINE
  5
33A
330
2BD
100
AcDbEntity
  8
0
  6
CONTINUOUS
 62
     2
100
AcDbLine
 10
2352.897907
 20
1504.967776
 30
0.0
 11
2383.208796
 21
1522.467776
 31
0.0
  0
LINE
  5
33B
330
2BD
100
AcDbEntity
  8
0
  6
CONTINUOUS
 62
     2
100
AcDbLine
 10
2345.714894
 20
1516.409119
 30
0.0
 11
2352.214894
 21
1505.150789
 31
0.0
  0
LINE
  5
33C
330
2BD
100
AcDbEntity
  8
0
  6
CONTINUOUS
 62
     2
100
AcDbLine
 10
2377.757834
 20
1534.909119
 30
0.0
 11
2384.257834
 21
1523.650789
 31
0.0
  0
LINE
  5
33D
330
2BD
100
AcDbEntity
  8
0
  6
CONTINUOUS
 62
     2
100
AcDbLine
 10
2376.891808
 20
1534.409119
 30
0.0
 11
2383.391808
 21
1523.150789
 31
0.0
  0
ARC
  5
33E
330
2BD
100
AcDbEntity
  8
0
  6
CONTINUOUS
 62
     2
100
AcDbCircle
 10
2346.147907
 20
1516.659119
 30
0.0
 40
0.5
100
AcDbArc
 50
120.0
 51
210.0
  0
ARC
  5
33F
330
2BD
100
AcDbEntity
  8
0
  6
CONTINUOUS
 62
     2
100
AcDbCircle
 10
2352.647907
 20
1505.400789
 30
0.0
 40
0.5
100
AcDbArc
 50
210.0
 51
300.0
  0
ARC
  5
340
330
2BD
100
AcDbEntity
  8
0
  6
CONTINUOUS
 62
     2
100
AcDbCircle
 10
2376.458796
 20
1534.159119
 30
0.0
 40
0.5
100
AcDbArc
 50
30.0
 51
120.0
  0
ARC
  5
341
330
2BD
100
AcDbEntity
  8
0
  6
CONTINUOUS
 62
     2
100
AcDbCircle
 10
2382.958796
 20
1522.900789
 30
0.0
 40
0.5
100
AcDbArc
 50
300.0
 51
30.0
  0
ARC
  5
342
330
2BD
100
AcDbEntity
  8
0
  6
CONTINUOUS
 62
     2
100
AcDbCircle
 10
2346.147907
 20
1516.659119
 30
0.0
 40
1.5
100
AcDbArc
 50
120.0
 51
210.0
  0
ARC
  5
343
330
2BD
100
AcDbEntity
  8
0
  6
CONTINUOUS
 62
     2
100
AcDbCircle
 10
2352.647907
 20
1505.400789
 30
0.0
 40
1.5
100
AcDbArc
 50
210.0
 51
300.0
  0
ARC
  5
344
330
2BD
100
AcDbEntity
  8
0
  6
CONTINUOUS
 62
     2
100
AcDbCircle
 10
2376.458796
 20
1534.159119
 30
0.0
 40
1.5
100
AcDbArc
 50
30.0
 51
120.0
  0
ARC
  5
345
330
2BD
100
AcDbEntity
  8
0
  6
CONTINUOUS
 62
     2
100
AcDbCircle
 10
2382.958796
 20
1522.900789
 30
0.0
 40
1.5
100
AcDbArc
 50
300.0
 51
30.0
  0
LINE
  5
346
330
2BD
100
AcDbEntity
  8
0
  6
CONTINUOUS
 62
     2
100
AcDbLine
 10
2355.259123
 20
1517.87803
 30
0.0
 11
2370.84758
 21
1526.87803
 31
0.0
  0
LINE
  5
347
330
2BD
100
AcDbEntity
  8
0
  6
CONTINUOUS
 62
     2
100
AcDbLine
 10
2361.514315
 20
1525.043718
 30
0.0
 11
2370.84758
 21
1526.87803
 31
0.0
  0
LINE
  5
348
330
2BD
100
AcDbEntity
  8
0
  6
CONTINUOUS
 62
     2
100
AcDbLine
 10
2361.514315
 20
1525.043718
 30
0.0
 11
2355.259123
 21
1517.87803
 31
0.0
  0
TEXT
  5
349
330
2BD
100
AcDbEntity
  8
0
  6
CONTINUOUS
 62
     2
100
AcDbText
 10
2359.423384
 20
1510.705112
 30
0.0
 40
7.066058
  1
UP
 50
30.0
 41
1.166654
  7
ED_VECTOR
100
AcDbText
  0
LINE
  5
34A
330
2BD
100
AcDbEntity
  8
0
  6
CONTINUOUS
 62
     2
100
AcDbLine
 10
2297.766509
 20
1490.458157
 30
0.0
 11
2267.45562
 21
1472.958157
 31
0.0
  0
LINE
  5
34B
330
2BD
100
AcDbEntity
  8
0
  6
CONTINUOUS
 62
     2
100
AcDbLine
 10
2305.766509
 20
1476.601751
 30
0.0
 11
2275.45562
 21
1459.101751
 31
0.0
  0
LINE
  5
34C
330
2BD
100
AcDbEntity
  8
0
  6
CONTINUOUS
 62
     2
100
AcDbLine
 10
2299.815548
 20
1489.909119
 30
0.0
 11
2306.315548
 21
1478.650789
 31
0.0
  0
LINE
  5
34D
330
2BD
100
AcDbEntity
  8
0
  6
CONTINUOUS
 62
     2
100
AcDbLine
 10
2298.266509
 20
1489.592132
 30
0.0
 11
2267.95562
 21
1472.092132
 31
0.0
  0
LINE
  5
34E
330
2BD
100
AcDbEntity
  8
0
  6
CONTINUOUS
 62
     2
100
AcDbLine
 10
2305.266509
 20
1477.467776
 30
0.0
 11
2274.95562
 21
1459.967776
 31
0.0
  0
LINE
  5
34F
330
2BD
100
AcDbEntity
  8
0
  6
CONTINUOUS
 62
     2
100
AcDbLine
 10
2298.949522
 20
1489.409119
 30
0.0
 11
2305.449522
 21
1478.150789
 31
0.0
  0
LINE
  5
350
330
2BD
100
AcDbEntity
  8
0
  6
CONTINUOUS
 62
     2
100
AcDbLine
 10
2266.906582
 20
1470.909119
 30
0.0
 11
2273.406582
 21
1459.650789
 31
0.0
  0
LINE
  5
351
330
2BD
100
AcDbEntity
  8
0
  6
CONTINUOUS
 62
     2
100
AcDbLine
 10
2267.772608
 20
1471.409119
 30
0.0
 11
2274.272608
 21
1460.150789
 31
0.0
  0
ARC
  5
352
330
2BD
100
AcDbEntity
  8
0
  6
CONTINUOUS
 62
     2
100
AcDbCircle
 10
2298.516509
 20
1489.159119
 30
0.0
 40
0.5
100
AcDbArc
 50
30.0
 51
120.0
  0
ARC
  5
353
330
2BD
100
AcDbEntity
  8
0
  6
CONTINUOUS
 62
     2
100
AcDbCircle
 10
2305.016509
 20
1477.900789
 30
0.0
 40
0.5
100
AcDbArc
 50
300.0
 51
30.0
  0
ARC
  5
354
330
2BD
100
AcDbEntity
  8
0
  6
CONTINUOUS
 62
     2
100
AcDbCircle
 10
2268.20562
 20
1471.659119
 30
0.0
 40
0.5
100
AcDbArc
 50
120.0
 51
210.0
  0
ARC
  5
355
330
2BD
100
AcDbEntity
  8
0
  6
CONTINUOUS
 62
     2
100
AcDbCircle
 10
2274.70562
 20
1460.400789
 30
0.0
 40
0.5
100
AcDbArc
 50
210.0
 51
300.0
  0
ARC
  5
356
330
2BD
100
AcDbEntity
  8
0
  6
CONTINUOUS
 62
     2
100
AcDbCircle
 10
2298.516509
 20
1489.159119
 30
0.0
 40
1.5
100
AcDbArc
 50
30.0
 51
120.0
  0
ARC
  5
357
330
2BD
100
AcDbEntity
  8
0
  6
CONTINUOUS
 62
     2
100
AcDbCircle
 10
2305.016509
 20
1477.900789
 30
0.0
 40
1.5
100
AcDbArc
 50
300.0
 51
30.0
  0
ARC
  5
358
330
2BD
100
AcDbEntity
  8
0
  6
CONTINUOUS
 62
     2
100
AcDbCircle
 10
2268.20562
 20
1471.659119
 30
0.0
 40
1.5
100
AcDbArc
 50
120.0
 51
210.0
  0
ARC
  5
359
330
2BD
100
AcDbEntity
  8
0
  6
CONTINUOUS
 62
     2
100
AcDbCircle
 10
2274.70562
 20
1460.400789
 30
0.0
 40
1.5
100
AcDbArc
 50
210.0
 51
300.0
  0
LINE
  5
35A
330
2BD
100
AcDbEntity
  8
0
  6
CONTINUOUS
 62
     2
100
AcDbLine
 10
2295.641759
 20
1477.138333
 30
0.0
 11
2280.053301
 21
1468.138333
 31
0.0
  0
LINE
  5
35B
330
2BD
100
AcDbEntity
  8
0
  6
CONTINUOUS
 62
     2
100
AcDbLine
 10
2289.386566
 20
1469.972645
 30
0.0
 11
2280.053301
 21
1468.138333
 31
0.0
  0
LINE
  5
35C
330
2BD
100
AcDbEntity
  8
0
  6
CONTINUOUS
 62
     2
100
AcDbLine
 10
2289.386566
 20
1469.972645
 30
0.0
 11
2295.641759
 21
1477.138333
 31
0.0
  0
TEXT
  5
35D
330
2BD
100
AcDbEntity
  8
0
  6
CONTINUOUS
 62
     2
100
AcDbText
 10
2274.313824
 20
1466.683844
 30
0.0
 40
6.383575
  1
DOWN
 50
30.0
 41
0.969444
  7
ED_VECTOR
100
AcDbText
  0
ENDBLK
  5
2BF
330
2BD
100
AcDbEntity
  8
0
100
AcDbBlockEnd
  0
BLOCK
  5
361
330
360
100
AcDbEntity
  8
0
100
AcDbBlockBegin
  2
*D33
 70
     1
 10
0.0
 20
0.0
 30
0.0
  3
*D33
  1

  0
TEXT
  5
363
330
360
100
AcDbEntity
  8
0
  6
CONTINUOUS
 62
     3
100
AcDbText
 10
1136.650146
 20
1644.970947
 30
0.0
 40
32.0
  1
200
 50
90.0
 41
0.78125
  7
ED_VECTOR
100
AcDbText
  0
LINE
  5
364
330
360
100
AcDbEntity
  8
0
  6
CONTINUOUS
 62
     5
100
AcDbLine
 10
1228.650179
 20
1582.470953
 30
0.0
 11
1128.650179
 21
1582.470953
 31
0.0
  0
LINE
  5
365
330
360
100
AcDbEntity
  8
0
  6
CONTINUOUS
 62
     5
100
AcDbLine
 10
1228.650179
 20
1782.470953
 30
0.0
 11
1128.650179
 21
1782.470953
 31
0.0
  0
LINE
  5
366
330
360
100
AcDbEntity
  8
0
  6
CONTINUOUS
 62
     5
100
AcDbLine
 10
1138.650179
 20
1582.470953
 30
0.0
 11
1138.650179
 21
1782.470953
 31
0.0
  0
INSERT
  5
367
330
360
100
AcDbEntity
  8
0
  6
CONTINUOUS
 62
     5
100
AcDbBlockReference
  2
EDTIP_ARROW_S
 10
1138.650179
 20
1582.470953
 30
0.0
 41
30.0
 42
30.0
 50
270.0
  0
INSERT
  5
368
330
360
100
AcDbEntity
  8
0
  6
CONTINUOUS
 62
     5
100
AcDbBlockReference
  2
EDTIP_ARROW_E
 10
1138.650179
 20
1782.470953
 30
0.0
 41
30.0
 42
30.0
 50
90.0
  0
ENDBLK
  5
362
330
360
100
AcDbEntity
  8
0
100
AcDbBlockEnd
  0
BLOCK
  5
36B
330
36A
100
AcDbEntity
  8
0
100
AcDbBlockBegin
  2
*D34
 70
     1
 10
0.0
 20
0.0
 30
0.0
  3
*D34
  1

  0
TEXT
  5
36D
330
36A
100
AcDbEntity
  8
0
  6
CONTINUOUS
 62
     3
100
AcDbText
 10
1057.650269
 20
1645.471069
 30
0.0
 40
30.0
  1
250
 50
90.0
 41
0.8
  7
ED_VECTOR
100
AcDbText
  0
LINE
  5
36E
330
36A
100
AcDbEntity
  8
0
  6
CONTINUOUS
 62
     6
100
AcDbLine
 10
1234.956253
 20
1557.470953
 30
0.0
 11
1048.650179
 21
1557.470953
 31
0.0
  0
LINE
  5
36F
330
36A
100
AcDbEntity
  8
0
  6
CONTINUOUS
 62
     6
100
AcDbLine
 10
1234.956253
 20
1807.470953
 30
0.0
 11
1048.650179
 21
1807.470953
 31
0.0
  0
LINE
  5
370
330
36A
100
AcDbEntity
  8
0
  6
CONTINUOUS
 62
     6
100
AcDbLine
 10
1058.650179
 20
1557.470953
 30
0.0
 11
1058.650179
 21
1807.470953
 31
0.0
  0
INSERT
  5
371
330
36A
100
AcDbEntity
  8
0
  6
CONTINUOUS
 62
     6
100
AcDbBlockReference
  2
EDTIP_ARROW_S
 10
1058.650179
 20
1557.470953
 30
0.0
 41
30.0
 42
30.0
 50
270.0
  0
INSERT
  5
372
330
36A
100
AcDbEntity
  8
0
  6
CONTINUOUS
 62
     6
100
AcDbBlockReference
  2
EDTIP_ARROW_E
 10
1058.650179
 20
1807.470953
 30
0.0
 41
30.0
 42
30.0
 50
90.0
  0
ENDBLK
  5
36C
330
36A
100
AcDbEntity
  8
0
100
AcDbBlockEnd
  0
BLOCK
  5
375
330
374
100
AcDbEntity
  8
0
100
AcDbBlockBegin
  2
*D35
 70
     1
 10
0.0
 20
0.0
 30
0.0
  3
*D35
  1

  0
TEXT
  5
377
330
374
100
AcDbEntity
  8
0
  6
CONTINUOUS
 62
     3
100
AcDbText
 10
977.650391
 20
1645.471069
 30
0.0
 40
30.0
  1
300
 50
90.0
 41
0.8
  7
ED_VECTOR
100
AcDbText
  0
LINE
  5
378
330
374
100
AcDbEntity
  8
0
  6
CONTINUOUS
 62
     6
100
AcDbLine
 10
1233.650179
 20
1532.470953
 30
0.0
 11
968.650179
 21
1532.470953
 31
0.0
  0
LINE
  5
379
330
374
100
AcDbEntity
  8
0
  6
CONTINUOUS
 62
     6
100
AcDbLine
 10
1233.650179
 20
1832.470953
 30
0.0
 11
968.650179
 21
1832.470953
 31
0.0
  0
LINE
  5
37A
330
374
100
AcDbEntity
  8
0
  6
CONTINUOUS
 62
     6
100
AcDbLine
 10
978.650179
 20
1532.470953
 30
0.0
 11
978.650179
 21
1832.470953
 31
0.0
  0
INSERT
  5
37B
330
374
100
AcDbEntity
  8
0
  6
CONTINUOUS
 62
     6
100
AcDbBlockReference
  2
EDTIP_ARROW_S
 10
978.650179
 20
1532.470953
 30
0.0
 41
30.0
 42
30.0
 50
270.0
  0
INSERT
  5
37C
330
374
100
AcDbEntity
  8
0
  6
CONTINUOUS
 62
     6
100
AcDbBlockReference
  2
EDTIP_ARROW_E
 10
978.650179
 20
1832.470953
 30
0.0
 41
30.0
 42
30.0
 50
90.0
  0
ENDBLK
  5
376
330
374
100
AcDbEntity
  8
0
100
AcDbBlockEnd
  0
BLOCK
  5
37E
330
37D
100
AcDbEntity
  8
0
100
AcDbBlockBegin
  2
EDDIM039
 70
     0
 10
0.0
 20
0.0
 30
0.0
  3
EDDIM039
  1

  0
TEXT
  5
381
330
37D
100
AcDbEntity
  8
0
  6
CONTINUOUS
 62
     3
100
AcDbText
 10
1076.96167
 20
1945.538452
 30
0.0
 40
30.0
  1
アンカーピッチ
 41
0.8
  7
ED_VECTOR
100
AcDbText
  0
LINE
  5
382
330
37D
100
AcDbEntity
  8
0
  6
CONTINUOUS
 62
     6
100
AcDbLine
 10
1058.650179
 20
1944.53841
 30
0.0
 11
1260.961413
 21
1944.53841
 31
0.0
  0
ENDBLK
  5
37F
330
37D
100
AcDbEntity
  8
0
100
AcDbBlockEnd
  0
BLOCK
  5
389
330
388
100
AcDbEntity
  8
0
100
AcDbBlockBegin
  2
*D37
 70
     1
 10
0.0
 20
0.0
 30
0.0
  3
*D37
  1

  0
TEXT
  5
38B
330
388
100
AcDbEntity
  8
0
  6
CONTINUOUS
 62
     3
100
AcDbText
 10
1169.650269
 20
1413.470825
 30
0.0
 40
30.0
  1
19
 41
0.8
  7
ED_VECTOR
100
AcDbText
  0
LINE
  5
38C
330
388
100
AcDbEntity
  8
0
  6
CONTINUOUS
 62
     6
100
AcDbLine
 10
1238.650179
 20
1527.470953
 30
0.0
 11
1238.650179
 21
1402.470953
 31
0.0
  0
LINE
  5
38D
330
388
100
AcDbEntity
  8
0
  6
CONTINUOUS
 62
     6
100
AcDbLine
 10
1257.650179
 20
1535.009429
 30
0.0
 11
1257.650179
 21
1402.470953
 31
0.0
  0
LINE
  5
38E
330
388
100
AcDbEntity
  8
0
  6
CONTINUOUS
 62
     6
100
AcDbLine
 10
1238.650179
 20
1412.470953
 30
0.0
 11
1257.650179
 21
1412.470953
 31
0.0
  0
LINE
  5
38F
330
388
100
AcDbEntity
  8
0
  6
CONTINUOUS
 62
     6
100
AcDbLine
 10
1169.650179
 20
1412.470953
 30
0.0
 11
1238.650179
 21
1412.470953
 31
0.0
  0
INSERT
  5
390
330
388
100
AcDbEntity
  8
0
  6
CONTINUOUS
 62
     6
100
AcDbBlockReference
  2
EDTIP_ARROW_E
 10
1238.650179
 20
1412.470953
 30
0.0
 41
30.0
 42
30.0
  0
LINE
  5
391
330
388
100
AcDbEntity
  8
0
  6
CONTINUOUS
 62
     6
100
AcDbLine
 10
1257.650179
 20
1412.470953
 30
0.0
 11
1307.650179
 21
1412.470953
 31
0.0
  0
INSERT
  5
392
330
388
100
AcDbEntity
  8
0
  6
CONTINUOUS
 62
     6
100
AcDbBlockReference
  2
EDTIP_ARROW_S
 10
1257.650179
 20
1412.470953
 30
0.0
 41
30.0
 42
30.0
 50
180.0
  0
ENDBLK
  5
38A
330
388
100
AcDbEntity
  8
0
100
AcDbBlockEnd
  0
ENDSEC
  0
SECTION
  2
ENTITIES
  0
LINE
  5
EE
330
1F
100
AcDbEntity
  8
0
  6
CONTINUOUS
 62
     3
100
AcDbLine
 10
208.824201
 20
2417.442922
 30
0.0
 11
3488.824201
 21
2417.442922
 31
0.0
  0
LINE
  5
EF
330
1F
100
AcDbEntity
  8
0
  6
CONTINUOUS
 62
     3
100
AcDbLine
 10
3488.824201
 20
2417.442922
 30
0.0
 11
3488.824201
 21
121.442922
 31
0.0
  0
LINE
  5
F0
330
1F
100
AcDbEntity
  8
0
  6
CONTINUOUS
 62
     3
100
AcDbLine
 10
208.824201
 20
121.442922
 30
0.0
 11
208.824201
 21
2417.442922
 31
0.0
  0
LINE
  5
F1
330
1F
100
AcDbEntity
  8
0
  6
CONTINUOUS
 62
     3
100
AcDbLine
 10
3488.824201
 20
121.442922
 30
0.0
 11
208.824201
 21
121.442922
 31
0.0
  0
LINE
  5
F2
330
1F
100
AcDbEntity
  8
0
  6
CONTINUOUS
 62
     5
100
AcDbLine
 10
2688.824201
 20
561.442922
 30
0.0
 11
3488.824201
 21
561.442922
 31
0.0
  0
LINE
  5
F3
330
1F
100
AcDbEntity
  8
0
  6
CONTINUOUS
 62
     5
100
AcDbLine
 10
2688.824201
 20
201.442922
 30
0.0
 11
3488.824201
 21
201.442922
 31
0.0
  0
LINE
  5
F4
330
1F
100
AcDbEntity
  8
0
  6
CONTINUOUS
 62
     5
100
AcDbLine
 10
2688.824201
 20
361.442922
 30
0.0
 11
3488.824201
 21
361.442922
 31
0.0
  0
LINE
  5
F5
330
1F
100
AcDbEntity
  8
0
  6
CONTINUOUS
 62
     5
100
AcDbLine
 10
2688.824201
 20
421.442922
 30
0.0
 11
3488.824201
 21
421.442922
 31
0.0
  0
LINE
  5
F6
330
1F
100
AcDbEntity
  8
0
  6
CONTINUOUS
 62
     5
100
AcDbLine
 10
2688.824201
 20
481.442922
 30
0.0
 11
3488.824201
 21
481.442922
 31
0.0
  0
LINE
  5
F7
330
1F
100
AcDbEntity
  8
0
  6
CONTINUOUS
 62
     5
100
AcDbLine
 10
2688.824201
 20
641.442922
 30
0.0
 11
3488.824201
 21
641.442922
 31
0.0
  0
LINE
  5
F8
330
1F
100
AcDbEntity
  8
0
  6
CONTINUOUS
 62
     5
100
AcDbLine
 10
2688.824201
 20
721.442922
 30
0.0
 11
2688.824201
 21
121.442922
 31
0.0
  0
LINE
  5
F9
330
1F
100
AcDbEntity
  8
0
  6
CONTINUOUS
 62
     5
100
AcDbLine
 10
2888.824201
 20
721.442922
 30
0.0
 11
2888.824201
 21
481.442922
 31
0.0
  0
LINE
  5
FA
330
1F
100
AcDbEntity
  8
0
  6
CONTINUOUS
 62
     5
100
AcDbLine
 10
2688.824201
 20
721.442922
 30
0.0
 11
3488.824201
 21
721.442922
 31
0.0
  0
LINE
  5
FB
330
1F
100
AcDbEntity
  8
0
  6
CONTINUOUS
 62
     5
100
AcDbLine
 10
3188.824201
 20
481.442922
 30
0.0
 11
3188.824201
 21
201.442922
 31
0.0
  0
TEXT
  5
FC
330
1F
100
AcDbEntity
  8
0
  6
CONTINUOUS
 62
     3
100
AcDbText
 10
2908.515193
 20
130.00565
 30
0.0
 40
59.380363
  1
東正車輌株式会社
 41
0.788955
  7
ED_VECTOR
100
AcDbText
  0
LINE
  5
FD
330
1F
100
AcDbEntity
  8
0
  6
CONTINUOUS
 62
     5
100
AcDbLine
 10
2938.824201
 20
421.442922
 30
0.0
 11
2938.824201
 21
201.442922
 31
0.0
  0
TEXT
  5
FE
330
1F
100
AcDbEntity
  8
0
  6
CONTINUOUS
 62
     5
100
AcDbText
 10
2718.823975
 20
656.442871
 30
0.0
 40
50.0
  1
品　名
 41
0.8
  7
ED_VECTOR
100
AcDbText
  0
TEXT
  5
FF
330
1F
100
AcDbEntity
  8
0
  6
CONTINUOUS
 62
     5
100
AcDbText
 10
2718.823975
 20
576.442871
 30
0.0
 40
50.0
  1
型　式
 41
0.8
  7
ED_VECTOR
100
AcDbText
  0
TEXT
  5
100
330
1F
100
AcDbEntity
  8
0
  6
CONTINUOUS
 62
     5
100
AcDbText
 10
2693.823975
 20
496.442932
 30
0.0
 40
50.0
  1
図面番号
 41
0.8
  7
ED_VECTOR
100
AcDbText
  0
TEXT
  5
101
330
1F
100
AcDbEntity
  8
0
  6
CONTINUOUS
 62
     5
100
AcDbText
 10
3268.823975
 20
426.442932
 30
0.0
 40
50.0
  1
Ｂ－４
 41
0.8
  7
ED_VECTOR
100
AcDbText
  0
TEXT
  5
102
330
1F
100
AcDbEntity
  8
0
  6
CONTINUOUS
 62
     5
100
AcDbText
 10
2743.823975
 20
366.442932
 30
0.0
 40
50.0
  1
検　図
 41
0.8
  7
ED_VECTOR
100
AcDbText
  0
TEXT
  5
103
330
1F
100
AcDbEntity
  8
0
  6
CONTINUOUS
 62
     5
100
AcDbText
 10
2993.823975
 20
366.442932
 30
0.0
 40
50.0
  1
作　図
 41
0.8
  7
ED_VECTOR
100
AcDbText
  0
TEXT
  5
104
330
1F
100
AcDbEntity
  8
0
  6
CONTINUOUS
 62
     5
100
AcDbText
 10
3268.823975
 20
366.442932
 30
0.0
 40
50.0
  1
尺　度
 41
0.8
  7
ED_VECTOR
100
AcDbText
  0
TEXT
  5
105
330
1F
100
AcDbEntity
  8
0
  6
CONTINUOUS
 62
     5
100
AcDbText
 10
3369.562744
 20
215.928192
 30
0.0
 40
50.0
  1
１０
 41
0.8
  7
ED_VECTOR
100
AcDbText
  0
TEXT
  5
106
330
1F
100
AcDbEntity
  8
0
  6
CONTINUOUS
 62
     5
100
AcDbText
 10
3349.243164
 20
263.632874
 30
0.0
 40
50.0
  1
／
 41
0.8
  7
ED_VECTOR
100
AcDbText
  0
TEXT
  5
107
330
1F
100
AcDbEntity
  8
0
  6
CONTINUOUS
 62
     5
100
AcDbText
 10
3319.030273
 20
298.616333
 30
0.0
 40
50.0
  1
１
 41
0.8
  7
ED_VECTOR
100
AcDbText
  0
TEXT
  5
108
330
1F
100
AcDbEntity
  8
0
  6
CONTINUOUS
 62
     3
100
AcDbText
 10
3028.823975
 20
656.442871
 30
0.0
 40
50.0
  1
ゴールドリフター
 41
0.8
  7
ED_VECTOR
100
AcDbText
  0
TEXT
  5
109
330
1F
100
AcDbEntity
  8
0
  6
CONTINUOUS
 62
     3
100
AcDbText
 10
2928.823975
 20
576.442871
 30
0.0
 40
50.0
  1
GLSB-100-3007
 41
0.8
  7
ED_VECTOR
100
AcDbText
  0
TEXT
  5
10A
330
1F
100
AcDbEntity
  8
0
  6
CONTINUOUS
 62
     3
100
AcDbText
 10
3168.823975
 20
496.442932
 30
0.0
 40
50.0
  1
　
 41
0.8
  7
ED_VECTOR
100
AcDbText
  0
INSERT
  5
10E
330
1F
100
AcDbEntity
  8
0
100
AcDbBlockReference
  2
BLKF014
 10
0.0
 20
0.0
 30
0.0
  0
TEXT
  5
1C0
330
1F
100
AcDbEntity
  8
0
  6
CONTINUOUS
 62
     3
100
AcDbText
 10
1068.868408
 20
1015.299194
 30
0.0
 40
30.0
  1
テーブルのズレ
 41
0.8
  7
ED_VECTOR
100
AcDbText
  0
LINE
  5
1C1
330
1F
100
AcDbEntity
  8
0
  6
CONTINUOUS
 62
     6
100
AcDbLine
 10
2670.60673
 20
2291.596194
 30
0.0
 11
2870.60673
 21
2291.596194
 31
0.0
  0
LINE
  5
1C2
330
1F
100
AcDbEntity
  8
0
  6
CONTINUOUS
 62
     6
100
AcDbLine
 10
2670.60673
 20
2281.596194
 30
0.0
 11
2870.60673
 21
2281.596194
 31
0.0
  0
LINE
  5
1C3
330
1F
100
AcDbEntity
  8
0
  6
CONTINUOUS
 62
     6
100
AcDbLine
 10
2670.60673
 20
2211.596194
 30
0.0
 11
3470.60673
 21
2211.596194
 31
0.0
  0
LINE
  5
1C4
330
1F
100
AcDbEntity
  8
0
  6
CONTINUOUS
 62
     6
100
AcDbLine
 10
2670.60673
 20
2141.596194
 30
0.0
 11
3470.60673
 21
2141.596194
 31
0.0
  0
LINE
  5
1C5
330
1F
100
AcDbEntity
  8
0
  6
CONTINUOUS
 62
     6
100
AcDbLine
 10
2670.60673
 20
2071.596194
 30
0.0
 11
3470.60673
 21
2071.596194
 31
0.0
  0
LINE
  5
1C6
330
1F
100
AcDbEntity
  8
0
  6
CONTINUOUS
 62
     6
100
AcDbLine
 10
2670.60673
 20
2001.596194
 30
0.0
 11
3470.60673
 21
2001.596194
 31
0.0
  0
LINE
  5
1C7
330
1F
100
AcDbEntity
  8
0
  6
CONTINUOUS
 62
     6
100
AcDbLine
 10
2670.60673
 20
1931.596194
 30
0.0
 11
3470.60673
 21
1931.596194
 31
0.0
  0
LINE
  5
1C8
330
1F
100
AcDbEntity
  8
0
  6
CONTINUOUS
 62
     6
100
AcDbLine
 10
2670.60673
 20
1861.596194
 30
0.0
 11
3470.60673
 21
1861.596194
 31
0.0
  0
LINE
  5
1C9
330
1F
100
AcDbEntity
  8
0
  6
CONTINUOUS
 62
     6
100
AcDbLine
 10
2670.60673
 20
1791.596194
 30
0.0
 11
3470.60673
 21
1791.596194
 31
0.0
  0
LINE
  5
1CA
330
1F
100
AcDbEntity
  8
0
  6
CONTINUOUS
 62
     6
100
AcDbLine
 10
2670.60673
 20
1721.596194
 30
0.0
 11
3470.60673
 21
1721.596194
 31
0.0
  0
LINE
  5
1CB
330
1F
100
AcDbEntity
  8
0
  6
CONTINUOUS
 62
     6
100
AcDbLine
 10
2670.60673
 20
1651.596194
 30
0.0
 11
3470.60673
 21
1651.596194
 31
0.0
  0
LINE
  5
1CC
330
1F
100
AcDbEntity
  8
0
  6
CONTINUOUS
 62
     6
100
AcDbLine
 10
2670.60673
 20
1581.596194
 30
0.0
 11
3470.60673
 21
1581.596194
 31
0.0
  0
LINE
  5
1CD
330
1F
100
AcDbEntity
  8
0
  6
CONTINUOUS
 62
     6
100
AcDbLine
 10
2670.60673
 20
1511.596194
 30
0.0
 11
3470.60673
 21
1511.596194
 31
0.0
  0
LINE
  5
1CE
330
1F
100
AcDbEntity
  8
0
  6
CONTINUOUS
 62
     6
100
AcDbLine
 10
2670.60673
 20
1441.596194
 30
0.0
 11
3470.60673
 21
1441.596194
 31
0.0
  0
LINE
  5
1CF
330
1F
100
AcDbEntity
  8
0
  6
CONTINUOUS
 62
     6
100
AcDbLine
 10
2670.60673
 20
1371.596194
 30
0.0
 11
3470.60673
 21
1371.596194
 31
0.0
  0
TEXT
  5
1D0
330
1F
100
AcDbEntity
  8
0
  6
CONTINUOUS
 62
     3
100
AcDbText
 10
2692.980713
 20
2301.596191
 30
0.0
 40
40.0
  1
仕　　　様
 41
0.75
  7
ED_VECTOR
100
AcDbText
  0
TEXT
  5
1D1
330
1F
100
AcDbEntity
  8
0
  6
CONTINUOUS
 62
     3
100
AcDbText
 10
2692.980713
 20
2221.596191
 30
0.0
 40
40.0
  1
型　　　式
 41
0.75
  7
ED_VECTOR
100
AcDbText
  0
TEXT
  5
1D2
330
1F
100
AcDbEntity
  8
0
  6
CONTINUOUS
 62
     3
100
AcDbText
 10
2689.856445
 20
2151.596191
 30
0.0
 40
40.0
  1
均等荷重
 41
0.75
  7
ED_VECTOR
100
AcDbText
  0
TEXT
  5
1D3
330
1F
100
AcDbEntity
  8
0
  6
CONTINUOUS
 62
     3
100
AcDbText
 10
2692.980713
 20
2081.596191
 30
0.0
 40
40.0
  1
テーブル寸法
 41
0.75
  7
ED_VECTOR
100
AcDbText
  0
TEXT
  5
1D4
330
1F
100
AcDbEntity
  8
0
  6
CONTINUOUS
 62
     3
100
AcDbText
 10
2692.980713
 20
2011.596069
 30
0.0
 40
40.0
  1
テーブル高さ
 41
0.75
  7
ED_VECTOR
100
AcDbText
  0
TEXT
  5
1D5
330
1F
100
AcDbEntity
  8
0
  6
CONTINUOUS
 62
     3
100
AcDbText
 10
2689.856445
 20
1941.596069
 30
0.0
 40
40.0
  1
ストローク
 41
0.75
  7
ED_VECTOR
100
AcDbText
  0
TEXT
  5
1D6
330
1F
100
AcDbEntity
  8
0
  6
CONTINUOUS
 62
     3
100
AcDbText
 10
2686.732178
 20
1871.596069
 30
0.0
 40
40.0
  1
全　　　長
 41
0.75
  7
ED_VECTOR
100
AcDbText
  0
TEXT
  5
1D7
330
1F
100
AcDbEntity
  8
0
  6
CONTINUOUS
 62
     3
100
AcDbText
 10
2686.732178
 20
1801.596069
 30
0.0
 40
40.0
  1
全　　　巾
 41
0.75
  7
ED_VECTOR
100
AcDbText
  0
TEXT
  5
1D8
330
1F
100
AcDbEntity
  8
0
  6
CONTINUOUS
 62
     3
100
AcDbText
 10
2686.732178
 20
1731.596069
 30
0.0
 40
40.0
  1
全　　　高
 41
0.75
  7
ED_VECTOR
100
AcDbText
  0
TEXT
  5
1D9
330
1F
100
AcDbEntity
  8
0
  6
CONTINUOUS
 62
     3
100
AcDbText
 10
2686.732178
 20
1661.596069
 30
0.0
 40
40.0
  1
リフト方式
 41
0.75
  7
ED_VECTOR
100
AcDbText
  0
TEXT
  5
1DA
330
1F
100
AcDbEntity
  8
0
  6
CONTINUOUS
 62
     3
100
AcDbText
 10
2686.732178
 20
1171.596069
 30
0.0
 40
40.0
  1
最大使用頻度
 41
0.75
  7
ED_VECTOR
100
AcDbText
  0
TEXT
  5
1DB
330
1F
100
AcDbEntity
  8
0
  6
CONTINUOUS
 62
     3
100
AcDbText
 10
2680.483887
 20
1101.596069
 30
0.0
 40
40.0
  1
自　　　重
 41
0.75
  7
ED_VECTOR
100
AcDbText
  0
TEXT
  5
1DC
330
1F
100
AcDbEntity
  8
0
  6
CONTINUOUS
 62
     3
100
AcDbText
 10
2680.483887
 20
1031.596069
 30
0.0
 40
40.0
  1
塗　装　色
 41
0.75
  7
ED_VECTOR
100
AcDbText
  0
TEXT
  5
1DD
330
1F
100
AcDbEntity
  8
0
  6
CONTINUOUS
 62
     3
100
AcDbText
 10
3260.60376
 20
2148.772461
 30
0.0
 40
40.0
  1
   　Ｋｇ
 41
0.75
  7
ED_VECTOR
100
AcDbText
  0
TEXT
  5
1DE
330
1F
100
AcDbEntity
  8
0
  6
CONTINUOUS
 62
     3
100
AcDbText
 10
3117.870117
 20
2101.596191
 30
0.0
 40
40.0
  1
Ｌ
 41
0.75
  7
ED_VECTOR
100
AcDbText
  0
TEXT
  5
1DF
330
1F
100
AcDbEntity
  8
0
  6
CONTINUOUS
 62
     3
100
AcDbText
 10
3342.778809
 20
2101.264648
 30
0.0
 40
40.0
  1
Ｗ
 41
0.75
  7
ED_VECTOR
100
AcDbText
  0
TEXT
  5
1E0
330
1F
100
AcDbEntity
  8
0
  6
CONTINUOUS
 62
     3
100
AcDbText
 10
2958.789062
 20
1661.596069
 30
0.0
 40
40.0
  1
電動ボールネジ方式
 41
0.75
  7
ED_VECTOR
100
AcDbText
  0
TEXT
  5
1E1
330
1F
100
AcDbEntity
  8
0
  6
CONTINUOUS
 62
     3
100
AcDbText
 10
3386.745117
 20
2081.596191
 30
0.0
 40
40.0
  1
ｍｍ
 41
0.75
  7
ED_VECTOR
100
AcDbText
  0
TEXT
  5
1E2
330
1F
100
AcDbEntity
  8
0
  6
CONTINUOUS
 62
     3
100
AcDbText
 10
3384.108887
 20
2011.596069
 30
0.0
 40
40.0
  1
ｍｍ
 41
0.75
  7
ED_VECTOR
100
AcDbText
  0
TEXT
  5
1E3
330
1F
100
AcDbEntity
  8
0
  6
CONTINUOUS
 62
     3
100
AcDbText
 10
3384.108887
 20
1941.596069
 30
0.0
 40
40.0
  1
ｍｍ
 41
0.75
  7
ED_VECTOR
100
AcDbText
  0
TEXT
  5
1E4
330
1F
100
AcDbEntity
  8
0
  6
CONTINUOUS
 62
     3
100
AcDbText
 10
3381.473145
 20
1871.596069
 30
0.0
 40
40.0
  1
ｍｍ
 41
0.75
  7
ED_VECTOR
100
AcDbText
  0
TEXT
  5
1E5
330
1F
100
AcDbEntity
  8
0
  6
CONTINUOUS
 62
     3
100
AcDbText
 10
3381.473145
 20
1801.596069
 30
0.0
 40
40.0
  1
ｍｍ
 41
0.75
  7
ED_VECTOR
100
AcDbText
  0
TEXT
  5
1E6
330
1F
100
AcDbEntity
  8
0
  6
CONTINUOUS
 62
     3
100
AcDbText
 10
3381.473145
 20
1731.596069
 30
0.0
 40
40.0
  1
ｍｍ
 41
0.75
  7
ED_VECTOR
100
AcDbText
  0
TEXT
  5
1E7
330
1F
100
AcDbEntity
  8
0
  6
CONTINUOUS
 62
     3
100
AcDbText
 10
3132.052246
 20
1997.903198
 30
0.0
 40
50.0
  1
～
 41
0.8
  7
ED_VECTOR
100
AcDbText
  0
INSERT
  5
1EB
330
1F
100
AcDbEntity
  8
0
100
AcDbBlockReference
  2
EDDIM015
 10
0.0
 20
0.0
 30
0.0
  0
INSERT
  5
1F0
330
1F
100
AcDbEntity
  8
0
100
AcDbBlockReference
  2
EDDIM016
 10
0.0
 20
0.0
 30
0.0
  0
INSERT
  5
1F5
330
1F
100
AcDbEntity
  8
0
100
AcDbBlockReference
  2
EDDIM017
 10
0.0
 20
0.0
 30
0.0
  0
INSERT
  5
1FA
330
1F
100
AcDbEntity
  8
0
100
AcDbBlockReference
  2
EDDIM018
 10
0.0
 20
0.0
 30
0.0
  0
INSERT
  5
1FF
330
1F
100
AcDbEntity
  8
0
100
AcDbBlockReference
  2
EDDIM019
 10
0.0
 20
0.0
 30
0.0
  0
INSERT
  5
204
330
1F
100
AcDbEntity
  8
0
100
AcDbBlockReference
  2
EDDIM020
 10
0.0
 20
0.0
 30
0.0
  0
INSERT
  5
209
330
1F
100
AcDbEntity
  8
0
100
AcDbBlockReference
  2
EDDIM021
 10
0.0
 20
0.0
 30
0.0
  0
INSERT
  5
20E
330
1F
100
AcDbEntity
  8
0
100
AcDbBlockReference
  2
EDDIM022
 10
0.0
 20
0.0
 30
0.0
  0
INSERT
  5
213
330
1F
100
AcDbEntity
  8
0
100
AcDbBlockReference
  2
EDDIM023
 10
0.0
 20
0.0
 30
0.0
  0
INSERT
  5
218
330
1F
100
AcDbEntity
  8
0
100
AcDbBlockReference
  2
EDDIM024
 10
0.0
 20
0.0
 30
0.0
  0
INSERT
  5
21D
330
1F
100
AcDbEntity
  8
0
100
AcDbBlockReference
  2
EDDIM025
 10
0.0
 20
0.0
 30
0.0
  0
INSERT
  5
222
330
1F
100
AcDbEntity
  8
0
100
AcDbBlockReference
  2
EDDIM026
 10
0.0
 20
0.0
 30
0.0
  0
INSERT
  5
227
330
1F
100
AcDbEntity
  8
0
100
AcDbBlockReference
  2
EDDIM027
 10
0.0
 20
0.0
 30
0.0
  0
LINE
  5
229
330
1F
100
AcDbEntity
  8
0
  6
CONTINUOUS
 62
     6
100
AcDbLine
 10
2670.60673
 20
1301.596194
 30
0.0
 11
3470.60673
 21
1301.596194
 31
0.0
  0
LINE
  5
22A
330
1F
100
AcDbEntity
  8
0
  6
CONTINUOUS
 62
     6
100
AcDbLine
 10
2670.60673
 20
1231.596194
 30
0.0
 11
3470.60673
 21
1231.596194
 31
0.0
  0
LINE
  5
22B
330
1F
100
AcDbEntity
  8
0
  6
CONTINUOUS
 62
     6
100
AcDbLine
 10
2670.60673
 20
1161.596194
 30
0.0
 11
3470.60673
 21
1161.596194
 31
0.0
  0
LINE
  5
22C
330
1F
100
AcDbEntity
  8
0
  6
CONTINUOUS
 62
     6
100
AcDbLine
 10
2670.60673
 20
1091.596194
 30
0.0
 11
3470.60673
 21
1091.596194
 31
0.0
  0
TEXT
  5
22D
330
1F
100
AcDbEntity
  8
0
  6
CONTINUOUS
 62
     3
100
AcDbText
 10
2686.732178
 20
1591.596069
 30
0.0
 40
40.0
  1
操作方式
 41
0.75
  7
ED_VECTOR
100
AcDbText
  0
TEXT
  5
22E
330
1F
100
AcDbEntity
  8
0
  6
CONTINUOUS
 62
     3
100
AcDbText
 10
2686.732178
 20
1451.596069
 30
0.0
 40
40.0
  1
モーター
 41
0.75
  7
ED_VECTOR
100
AcDbText
  0
TEXT
  5
22F
330
1F
100
AcDbEntity
  8
0
  6
CONTINUOUS
 62
     3
100
AcDbText
 10
2958.789062
 20
1451.596069
 30
0.0
 40
40.0
  1
ＤＣ９０Ｖ、７０Ｗ
 41
0.75
  7
ED_VECTOR
100
AcDbText
  0
TEXT
  5
230
330
1F
100
AcDbEntity
  8
0
  6
CONTINUOUS
 62
     3
100
AcDbText
 10
2686.732178
 20
1381.596069
 30
0.0
 40
40.0
  1
電　　源
 41
0.75
  7
ED_VECTOR
100
AcDbText
  0
TEXT
  5
231
330
1F
100
AcDbEntity
  8
0
  6
CONTINUOUS
 62
     3
100
AcDbText
 10
2958.789062
 20
1381.596069
 30
0.0
 40
40.0
  1
ＡＣ１００Ｖ、５０／６０ＨＺ
 41
0.75
  7
ED_VECTOR
100
AcDbText
  0
TEXT
  5
232
330
1F
100
AcDbEntity
  8
0
  6
CONTINUOUS
 62
     3
100
AcDbText
 10
2686.732178
 20
1311.596069
 30
0.0
 40
40.0
  1
上昇時間
 41
0.75
  7
ED_VECTOR
100
AcDbText
  0
TEXT
  5
233
330
1F
100
AcDbEntity
  8
0
  6
CONTINUOUS
 62
     3
100
AcDbText
 10
3044.774902
 20
1312.750122
 30
0.0
 40
40.0
  1
約　１２　秒
 41
0.75
  7
ED_VECTOR
100
AcDbText
  0
TEXT
  5
234
330
1F
100
AcDbEntity
  8
0
  6
CONTINUOUS
 62
     3
100
AcDbText
 10
2686.732178
 20
1241.596069
 30
0.0
 40
40.0
  1
下降時間
 41
0.75
  7
ED_VECTOR
100
AcDbText
  0
TEXT
  5
235
330
1F
100
AcDbEntity
  8
0
  6
CONTINUOUS
 62
     3
100
AcDbText
 10
3042.629639
 20
1241.957153
 30
0.0
 40
40.0
  1
約　１２　秒
 41
0.75
  7
ED_VECTOR
100
AcDbText
  0
TEXT
  5
236
330
1F
100
AcDbEntity
  8
0
  6
CONTINUOUS
 62
     3
100
AcDbText
 10
3043.944092
 20
1035.679932
 30
0.0
 40
40.0
  1
１０Ｒ４／１３
 41
0.75
  7
ED_VECTOR
100
AcDbText
  0
LINE
  5
237
330
1F
100
AcDbEntity
  8
0
  6
CONTINUOUS
 62
     6
100
AcDbLine
 10
2670.60673
 20
1021.596194
 30
0.0
 11
3470.60673
 21
1021.596194
 31
0.0
  0
LINE
  5
238
330
1F
100
AcDbEntity
  8
0
  6
CENTER
 62
     6
100
AcDbLine
 10
1951.236156
 20
1682.470953
 30
0.0
 11
1220.964739
 21
1682.470953
 31
0.0
  0
LINE
  5
239
330
1F
100
AcDbEntity
  8
0
  6
DASHED
 62
     3
100
AcDbLine
 10
1938.650179
 20
1582.470953
 30
0.0
 11
1238.650179
 21
1582.470953
 31
0.0
  0
LINE
  5
23A
330
1F
100
AcDbEntity
  8
0
  6
DASHED
 62
     3
100
AcDbLine
 10
1238.650179
 20
1782.470953
 30
0.0
 11
1938.650179
 21
1782.470953
 31
0.0
  0
LINE
  5
23B
330
1F
100
AcDbEntity
  8
0
  6
CONTINUOUS
 62
     8
100
AcDbLine
 10
1271.650179
 20
1832.470953
 30
0.0
 11
1243.650179
 21
1832.470953
 31
0.0
  0
LINE
  5
23C
330
1F
100
AcDbEntity
  8
0
  6
CENTER
 62
     6
100
AcDbLine
 10
1244.956253
 20
1807.470953
 30
0.0
 11
1269.38267
 21
1807.470953
 31
0.0
  0
LINE
  5
23D
330
1F
100
AcDbEntity
  8
0
  6
CENTER
 62
     6
100
AcDbLine
 10
1257.650179
 20
1794.385582
 30
0.0
 11
1257.650179
 21
1819.932476
 31
0.0
  0
LINE
  5
23E
330
1F
100
AcDbEntity
  8
0
  6
DASHED
 62
     3
100
AcDbLine
 10
1243.650179
 20
1832.470953
 30
0.0
 11
1238.650179
 21
1827.470953
 31
0.0
  0
LINE
  5
23F
330
1F
100
AcDbEntity
  8
0
  6
DASHED
 62
     3
100
AcDbLine
 10
1271.650179
 20
1832.470953
 30
0.0
 11
1276.650179
 21
1827.470953
 31
0.0
  0
LINE
  5
240
330
1F
100
AcDbEntity
  8
0
  6
CONTINUOUS
 62
     8
100
AcDbLine
 10
1271.650179
 20
1532.470953
 30
0.0
 11
1243.650179
 21
1532.470953
 31
0.0
  0
LINE
  5
241
330
1F
100
AcDbEntity
  8
0
  6
CENTER
 62
     6
100
AcDbLine
 10
1244.956253
 20
1557.470953
 30
0.0
 11
1269.38267
 21
1557.470953
 31
0.0
  0
LINE
  5
242
330
1F
100
AcDbEntity
  8
0
  6
CENTER
 62
     6
100
AcDbLine
 10
1257.650179
 20
1570.556324
 30
0.0
 11
1257.650179
 21
1545.009429
 31
0.0
  0
LINE
  5
243
330
1F
100
AcDbEntity
  8
0
  6
DASHED
 62
     3
100
AcDbLine
 10
1243.650179
 20
1532.470953
 30
0.0
 11
1238.650179
 21
1537.470953
 31
0.0
  0
LINE
  5
244
330
1F
100
AcDbEntity
  8
0
  6
DASHED
 62
     3
100
AcDbLine
 10
1271.650179
 20
1532.470953
 30
0.0
 11
1276.650179
 21
1537.470953
 31
0.0
  0
LINE
  5
245
330
1F
100
AcDbEntity
  8
0
  6
CONTINUOUS
 62
     3
100
AcDbLine
 10
1238.650179
 20
1532.470953
 30
0.0
 11
1238.650179
 21
1832.470953
 31
0.0
  0
LINE
  5
246
330
1F
100
AcDbEntity
  8
0
  6
CONTINUOUS
 62
     3
100
AcDbLine
 10
1938.650179
 20
1532.470953
 30
0.0
 11
1938.650179
 21
1832.470953
 31
0.0
  0
LINE
  5
247
330
1F
100
AcDbEntity
  8
0
  6
CENTER
 62
     6
100
AcDbLine
 10
717.869202
 20
1149.49307
 30
0.0
 11
717.869202
 21
519.49307
 31
0.0
  0
LINE
  5
248
330
1F
100
AcDbEntity
  8
0
  6
CONTINUOUS
 62
     3
100
AcDbLine
 10
567.869202
 20
1126.69307
 30
0.0
 11
567.869202
 21
1099.49307
 31
0.0
  0
LINE
  5
249
330
1F
100
AcDbEntity
  8
0
  6
CONTINUOUS
 62
     3
100
AcDbLine
 10
567.869202
 20
1099.49307
 30
0.0
 11
867.869202
 21
1099.49307
 31
0.0
  0
ARC
  5
24A
330
1F
100
AcDbEntity
  8
0
  6
CONTINUOUS
 62
     3
100
AcDbCircle
 10
570.669202
 20
1126.69307
 30
0.0
 40
2.8
100
AcDbArc
 50
90.0
 51
180.0
  0
LINE
  5
24B
330
1F
100
AcDbEntity
  8
0
  6
CONTINUOUS
 62
     3
100
AcDbLine
 10
865.069202
 20
1129.49307
 30
0.0
 11
570.669202
 21
1129.49307
 31
0.0
  0
ARC
  5
24C
330
1F
100
AcDbEntity
  8
0
  6
CONTINUOUS
 62
     3
100
AcDbCircle
 10
865.069202
 20
1126.69307
 30
0.0
 40
2.8
100
AcDbArc
 50
0.0
 51
90.0
  0
LINE
  5
24D
330
1F
100
AcDbEntity
  8
0
  6
CONTINUOUS
 62
     3
100
AcDbLine
 10
867.869202
 20
1126.69307
 30
0.0
 11
867.869202
 21
1099.49307
 31
0.0
  0
LINE
  5
24E
330
1F
100
AcDbEntity
  8
0
  6
CONTINUOUS
 62
     6
100
AcDbLine
 10
2197.329249
 20
1357.970953
 30
0.0
 11
1658.737221
 21
1357.970953
 31
0.0
  0
ARC
  5
24F
330
1F
100
AcDbEntity
  8
0
  6
CONTINUOUS
 62
     3
100
AcDbCircle
 10
2106.36683
 20
1731.970953
 30
0.0
 40
30.0
100
AcDbArc
 50
180.0
 51
300.0
  0
ARC
  5
250
330
1F
100
AcDbEntity
  8
0
  6
CONTINUOUS
 62
     3
100
AcDbCircle
 10
2106.36683
 20
1731.970953
 30
0.0
 40
37.0
100
AcDbArc
 50
180.0
 51
300.0
  0
LINE
  5
251
330
1F
100
AcDbEntity
  8
0
  6
CONTINUOUS
 62
     3
100
AcDbLine
 10
2251.480057
 20
1773.028194
 30
0.0
 11
2124.86683
 21
1699.928013
 31
0.0
  0
LINE
  5
252
330
1F
100
AcDbEntity
  8
0
  6
CONTINUOUS
 62
     3
100
AcDbLine
 10
2247.980057
 20
1779.090371
 30
0.0
 11
2121.36683
 21
1705.990191
 31
0.0
  0
ARC
  5
253
330
1F
100
AcDbEntity
  8
0
  6
CONTINUOUS
 62
     3
100
AcDbCircle
 10
2106.36683
 20
1731.970953
 30
0.0
 40
30.0
100
AcDbArc
 50
330.650201
 51
180.0
  0
ARC
  5
254
330
1F
100
AcDbEntity
  8
0
  6
CONTINUOUS
 62
     3
100
AcDbCircle
 10
2106.36683
 20
1731.970953
 30
0.0
 40
37.0
100
AcDbArc
 50
345.857154
 51
180.0
  0
LINE
  5
255
330
1F
100
AcDbEntity
  8
0
  6
CONTINUOUS
 62
     3
100
AcDbLine
 10
2248.230057
 20
1778.657359
 30
0.0
 11
2251.230057
 21
1773.461206
 31
0.0
  0
LINE
  5
256
330
1F
100
AcDbEntity
  8
0
  6
CONTINUOUS
 62
     3
100
AcDbLine
 10
2262.050565
 20
1794.719537
 30
0.0
 11
2272.050565
 21
1777.399028
 31
0.0
  0
LINE
  5
257
330
1F
100
AcDbEntity
  8
0
  6
CONTINUOUS
 62
     3
100
AcDbLine
 10
2262.050565
 20
1794.719537
 30
0.0
 11
2250.792235
 21
1788.219537
 31
0.0
  0
LINE
  5
258
330
1F
100
AcDbEntity
  8
0
  6
CONTINUOUS
 62
     3
100
AcDbLine
 10
2272.050565
 20
1777.399028
 30
0.0
 11
2260.792235
 21
1770.899028
 31
0.0
  0
ARC
  5
259
330
1F
100
AcDbEntity
  8
0
  6
CONTINUOUS
 62
     3
100
AcDbCircle
 10
2254.292235
 20
1782.157359
 30
0.0
 40
7.000000000000001
100
AcDbArc
 50
120.0
 51
210.0
  0
ARC
  5
25A
330
1F
100
AcDbEntity
  8
0
  6
CONTINUOUS
 62
     3
100
AcDbCircle
 10
2257.292235
 20
1776.961206
 30
0.0
 40
7.000000000000001
100
AcDbArc
 50
210.0
 51
300.0
  0
LINE
  5
25B
330
1F
100
AcDbEntity
  8
0
  6
CONTINUOUS
 62
     3
100
AcDbLine
 10
2273.210819
 20
1795.38941
 30
0.0
 11
2264.550565
 21
1790.38941
 31
0.0
  0
LINE
  5
25C
330
1F
100
AcDbEntity
  8
0
  6
CONTINUOUS
 62
     3
100
AcDbLine
 10
2278.210819
 20
1786.729155
 30
0.0
 11
2269.550565
 21
1781.729155
 31
0.0
  0
LINE
  5
25D
330
1F
100
AcDbEntity
  8
0
  6
CONTINUOUS
 62
     3
100
AcDbLine
 10
2243.488196
 20
1646.470953
 30
0.0
 11
2316.863297
 21
1519.381551
 31
0.0
  0
LINE
  5
25E
330
1F
100
AcDbEntity
  8
0
  6
CONTINUOUS
 62
     3
100
AcDbLine
 10
2237.426019
 20
1642.970953
 30
0.0
 11
2310.801119
 21
1515.881551
 31
0.0
  0
LINE
  5
25F
330
1F
100
AcDbEntity
  8
0
  6
CONTINUOUS
 62
     3
100
AcDbLine
 10
1959.150179
 20
1701.970953
 30
0.0
 11
2076.690122
 21
1701.970953
 31
0.0
  0
LINE
  5
260
330
1F
100
AcDbEntity
  8
0
  6
CONTINUOUS
 62
     3
100
AcDbLine
 10
1959.150179
 20
1694.970953
 30
0.0
 11
2086.452287
 21
1694.970953
 31
0.0
  0
LINE
  5
261
330
1F
100
AcDbEntity
  8
0
  6
CONTINUOUS
 62
     3
100
AcDbLine
 10
1959.150179
 20
1669.970953
 30
0.0
 11
2183.502937
 21
1669.970953
 31
0.0
  0
LINE
  5
262
330
1F
100
AcDbEntity
  8
0
  6
CONTINUOUS
 62
     3
100
AcDbLine
 10
1959.150179
 20
1662.970953
 30
0.0
 11
2172.796046
 21
1662.970953
 31
0.0
  0
LINE
  5
263
330
1F
100
AcDbEntity
  8
0
  6
CONTINUOUS
 62
     6
100
AcDbLine
 10
2252.815707
 20
1789.387789
 30
0.0
 11
2129.858512
 21
1993.343829
 31
0.0
  0
INSERT
  5
264
330
1F
100
AcDbEntity
  8
0
  6
CONTINUOUS
 62
     6
100
AcDbBlockReference
  2
EDTIP_ARROW_S
 10
2252.815707
 20
1789.387789
 30
0.0
 41
30.0
 42
30.0
 50
301.084147
  0
TEXT
  5
265
330
1F
100
AcDbEntity
  8
0
  6
CONTINUOUS
 62
     3
100
AcDbText
 10
2163.804443
 20
2004.69458
 30
0.0
 40
30.0
  1
電源コード　３ｍ
 41
0.8
  7
ED_VECTOR
100
AcDbText
  0
ARC
  5
266
330
1F
100
AcDbEntity
  8
0
  6
CONTINUOUS
 62
     3
100
AcDbCircle
 10
2202.785003
 20
1622.970953
 30
0.0
 40
47.0
100
AcDbArc
 50
30.0
 51
350.864906
  0
ARC
  5
267
330
1F
100
AcDbEntity
  8
0
  6
CONTINUOUS
 62
     3
100
AcDbCircle
 10
2202.785003
 20
1622.970953
 30
0.0
 40
40.0
100
AcDbArc
 50
30.0
 51
0.922892
  0
LINE
  5
268
330
1F
100
AcDbEntity
  8
0
  6
CONTINUOUS
 62
     6
100
AcDbLine
 10
2129.858512
 20
1993.343829
 30
0.0
 11
2424.845765
 21
1993.343829
 31
0.0
  0
LINE
  5
269
330
1F
100
AcDbEntity
  8
0
  6
CONTINUOUS
 62
     6
100
AcDbLine
 10
2277.954441
 20
1439.273667
 30
0.0
 11
2197.329249
 21
1357.970953
 31
0.0
  0
INSERT
  5
26A
330
1F
100
AcDbEntity
  8
0
  6
CONTINUOUS
 62
     6
100
AcDbBlockReference
  2
EDTIP_ARROW_S
 10
2277.954441
 20
1439.273667
 30
0.0
 41
30.0
 42
30.0
 50
45.23973
  0
TEXT
  5
26B
330
1F
100
AcDbEntity
  8
0
  6
CONTINUOUS
 62
     3
100
AcDbText
 10
1700.633179
 20
1370.198975
 30
0.0
 40
30.0
  1
フットスイッチ（ＵＰ・ＤＯＷＮ）
 41
0.8
  7
ED_VECTOR
100
AcDbText
  0
TEXT
  5
26C
330
1F
100
AcDbEntity
  8
0
  6
CONTINUOUS
 62
     3
100
AcDbText
 10
1813.807739
 20
1314.354492
 30
0.0
 40
30.0
  1
コード長サ ２ｍ
 41
0.8
  7
ED_VECTOR
100
AcDbText
  0
DIMENSION
  5
26D
330
1F
100
AcDbEntity
  8
0
100
AcDbDimension
  2
*D25
 10
1961.479733
 20
1229.49307
 30
0.0
 11
1611.479614
 21
1230.493286
 31
0.0
 70
    33
  3
EDDIMINFO
100
AcDbAlignedDimension
 13
1261.479733
 23
1135.69307
 33
0.0
 14
1961.479733
 24
1135.69307
 34
0.0
1001
ACAD
1000
DSTYLE
1002
{
1070
     7
1000
EDTIP_ARROW_E
1070
     6
1000
EDTIP_ARROW_S
1070
   173
1070
     1
1002
}
  0
DIMENSION
  5
277
330
1F
100
AcDbEntity
  8
0
100
AcDbDimension
  2
*D26
 10
1261.479733
 20
980.807801
 30
0.0
 11
1168.925293
 21
981.807739
 31
0.0
 70
    32
  3
EDDIMINFO
100
AcDbAlignedDimension
 13
1238.425336
 23
625.69307
 33
0.0
 14
1261.479733
 24
1090.49307
 34
0.0
 50
180.0
100
AcDbRotatedDimension
  0
DIMENSION
  5
283
330
1F
100
AcDbEntity
  8
0
100
AcDbDimension
  2
*D27
 10
1938.650179
 20
419.49307
 30
0.0
 11
1588.650024
 21
420.493164
 31
0.0
 70
    33
  3
EDDIMINFO
100
AcDbAlignedDimension
 13
1238.650179
 23
530.49307
 33
0.0
 14
1938.650179
 24
530.49307
 34
0.0
1001
ACAD
1000
DSTYLE
1002
{
1070
     7
1000
EDTIP_ARROW_E
1070
     6
1000
EDTIP_ARROW_S
1070
   173
1070
     1
1002
}
  0
DIMENSION
  5
28D
330
1F
100
AcDbEntity
  8
0
100
AcDbDimension
  2
*D28
 10
2095.336236
 20
619.49307
 30
0.0
 11
2094.336426
 21
579.62262
 31
0.0
 70
    32
  3
EDDIMINFO
100
AcDbAlignedDimension
 13
1947.650179
 23
539.49307
 33
0.0
 14
1944.625336
 24
619.49307
 34
0.0
 50
270.0
100
AcDbRotatedDimension
  0
DIMENSION
  5
297
330
1F
100
AcDbEntity
  8
0
100
AcDbDimension
  2
*D29
 10
2095.336236
 20
1129.49307
 30
0.0
 11
2094.336426
 21
874.493042
 31
0.0
 70
    33
  3
EDDIMINFO
100
AcDbAlignedDimension
 13
1967.679733
 23
619.49307
 33
0.0
 14
1967.679733
 24
1129.49307
 34
0.0
1001
ACAD
1000
DSTYLE
1002
{
1070
     7
1000
EDTIP_ARROW_E
1070
     6
1000
EDTIP_ARROW_S
1070
   173
1070
     1
1002
}
  0
DIMENSION
  5
2A0
330
1F
100
AcDbEntity
  8
0
100
AcDbDimension
  2
*D30
 10
2175.336236
 20
1129.49307
 30
0.0
 11
2174.336426
 21
834.493042
 31
0.0
 70
    32
  3
EDDIMINFO
100
AcDbAlignedDimension
 13
1947.650179
 23
539.49307
 33
0.0
 14
1967.679733
 24
1129.49307
 34
0.0
 50
270.0
100
AcDbRotatedDimension
1001
ACAD
1000
DSTYLE
1002
{
1070
     7
1000
EDTIP_ARROW_E
1070
     6
1000
EDTIP_ARROW_S
1070
   173
1070
     1
1002
}
  0
TEXT
  5
2AA
330
1F
100
AcDbEntity
  8
0
  6
CONTINUOUS
 62
     3
100
AcDbText
 10
2206.915283
 20
1952.063721
 30
0.0
 40
30.0
  1
ＡＣ１００ｖ
 41
0.8
  7
ED_VECTOR
100
AcDbText
  0
LINE
  5
2AB
330
1F
100
AcDbEntity
  8
0
  6
CONTINUOUS
 62
     6
100
AcDbLine
 10
567.869202
 20
539.49307
 30
0.0
 11
457.501192
 21
539.49307
 31
0.0
  0
LINE
  5
2AC
330
1F
100
AcDbEntity
  8
0
  6
CONTINUOUS
 62
     6
100
AcDbLine
 10
867.869202
 20
539.49307
 30
0.0
 11
1238.650179
 21
539.49307
 31
0.0
  0
LINE
  5
2AD
330
1F
100
AcDbEntity
  8
0
  6
CONTINUOUS
 62
     6
100
AcDbLine
 10
1938.650179
 20
539.49307
 30
0.0
 11
2499.235332
 21
539.49307
 31
0.0
  0
TEXT
  5
2AE
330
1F
100
AcDbEntity
  8
0
  6
CONTINUOUS
 62
     3
100
AcDbText
 10
2419.861572
 20
549.058472
 30
0.0
 40
40.0
  1
Ｆ．Ｌ
 41
0.75
  7
ED_VECTOR
100
AcDbText
  0
LINE
  5
2AF
330
1F
100
AcDbEntity
  8
0
  6
DASHED
 62
     3
100
AcDbLine
 10
1276.650179
 20
1782.470953
 30
0.0
 11
1276.650179
 21
1827.470953
 31
0.0
  0
LINE
  5
2B0
330
1F
100
AcDbEntity
  8
0
  6
DASHED
 62
     3
100
AcDbLine
 10
1276.650179
 20
1582.470953
 30
0.0
 11
1276.650179
 21
1537.470953
 31
0.0
  0
LINE
  5
2B1
330
1F
100
AcDbEntity
  8
0
  6
CONTINUOUS
 62
     3
100
AcDbLine
 10
1938.650179
 20
1832.470953
 30
0.0
 11
1238.650179
 21
1832.470953
 31
0.0
  0
LINE
  5
2B2
330
1F
100
AcDbEntity
  8
0
  6
CONTINUOUS
 62
     3
100
AcDbLine
 10
1938.650179
 20
1532.470953
 30
0.0
 11
1238.650179
 21
1532.470953
 31
0.0
  0
DIMENSION
  5
2B3
330
1F
100
AcDbEntity
  8
0
100
AcDbDimension
  2
*D31
 10
867.869202
 20
1229.49307
 30
0.0
 11
717.869202
 21
1239.493164
 31
0.0
 70
    33
  3
EDDIMINFO
100
AcDbAlignedDimension
 13
567.869202
 23
1138.49307
 33
0.0
 14
867.869202
 24
1138.49307
 34
0.0
1001
ACAD
1000
DSTYLE
1002
{
1070
     7
1000
EDTIP_ARROW_E
1070
     6
1000
EDTIP_ARROW_S
1070
   173
1070
     1
1002
}
  0
INSERT
  5
2C0
330
1F
100
AcDbEntity
  8
0
100
AcDbBlockReference
  2
BLKF035
 10
0.0
 20
0.0
 30
0.0
  0
LINE
  5
35E
330
1F
100
AcDbEntity
  8
0
  6
CONTINUOUS
 62
     6
100
AcDbLine
 10
1058.650179
 20
1807.470953
 30
0.0
 11
1058.650179
 21
1944.53841
 31
0.0
  0
DIMENSION
  5
35F
330
1F
100
AcDbEntity
  8
0
100
AcDbDimension
  2
*D33
 10
1138.650179
 20
1782.470953
 30
0.0
 11
1136.650146
 21
1682.470947
 31
0.0
 70
    33
  3
EDDIMINFO
100
AcDbAlignedDimension
 13
1229.650179
 23
1582.470953
 33
0.0
 14
1229.650179
 24
1782.470953
 34
0.0
1001
ACAD
1000
DSTYLE
1002
{
1070
     7
1000
EDTIP_ARROW_E
1070
     6
1000
EDTIP_ARROW_S
1070
   173
1070
     1
1002
}
  0
DIMENSION
  5
369
330
1F
100
AcDbEntity
  8
0
100
AcDbDimension
  2
*D34
 10
1058.650179
 20
1807.470953
 30
0.0
 11
1057.650269
 21
1682.471069
 31
0.0
 70
    33
  3
EDDIMINFO
100
AcDbAlignedDimension
 13
1235.956253
 23
1557.470953
 33
0.0
 14
1235.956253
 24
1807.470953
 34
0.0
1001
ACAD
1000
DSTYLE
1002
{
1070
     7
1000
EDTIP_ARROW_E
1070
     6
1000
EDTIP_ARROW_S
1070
   173
1070
     1
1002
}
  0
DIMENSION
  5
373
330
1F
100
AcDbEntity
  8
0
100
AcDbDimension
  2
*D35
 10
978.650179
 20
1832.470953
 30
0.0
 11
977.650391
 21
1682.471069
 31
0.0
 70
    33
  3
EDDIMINFO
100
AcDbAlignedDimension
 13
1234.650179
 23
1532.470953
 33
0.0
 14
1234.650179
 24
1832.470953
 34
0.0
1001
ACAD
1000
DSTYLE
1002
{
1070
     7
1000
EDTIP_ARROW_E
1070
     6
1000
EDTIP_ARROW_S
1070
   173
1070
     1
1002
}
  0
INSERT
  5
380
330
1F
100
AcDbEntity
  8
0
100
AcDbBlockReference
  2
EDDIM039
 10
0.0
 20
0.0
 30
0.0
  0
LINE
  5
383
330
1F
100
AcDbEntity
  8
0
  6
CONTINUOUS
 62
     5
100
AcDbLine
 10
1487.580071
 20
1412.470953
 30
0.0
 11
1345.696137
 21
1412.470953
 31
0.0
  0
TEXT
  5
384
330
1F
100
AcDbEntity
  8
0
  6
CONTINUOUS
 62
     3
100
AcDbText
 10
1353.362183
 20
1416.420776
 30
0.0
 40
30.0
  1
2-φ13
 41
0.833333
  7
ED_VECTOR
100
AcDbText
  0
LINE
  5
385
330
1F
100
AcDbEntity
  8
0
  6
CONTINUOUS
 62
     5
100
AcDbLine
 10
1261.023824
 20
1551.915008
 30
0.0
 11
1345.696137
 21
1412.470953
 31
0.0
  0
INSERT
  5
386
330
1F
100
AcDbEntity
  8
0
  6
CONTINUOUS
 62
     5
100
AcDbBlockReference
  2
EDTIP_ARROW_S
 10
1261.023824
 20
1551.915008
 30
0.0
 41
30.0
 42
30.0
 50
121.266689
  0
DIMENSION
  5
387
330
1F
100
AcDbEntity
  8
0
100
AcDbDimension
  2
*D37
 10
1257.650179
 20
1412.470953
 30
0.0
 11
1194.150269
 21
1413.470825
 31
0.0
 70
    32
  3
EDDIMINFO
100
AcDbAlignedDimension
 13
1238.650179
 23
1528.470953
 33
0.0
 14
1257.650179
 24
1536.009429
 34
0.0
 50
180.0
100
AcDbRotatedDimension
  0
LINE
  5
393
330
1F
100
AcDbEntity
  8
0
  6
CONTINUOUS
 62
     3
100
AcDbLine
 10
1959.150179
 20
1705.470953
 30
0.0
 11
1959.150179
 21
1691.720953
 31
0.0
  0
LINE
  5
394
330
1F
100
AcDbEntity
  8
0
  6
CONTINUOUS
 62
     3
100
AcDbLine
 10
1953.650179
 20
1705.470953
 30
0.0
 11
1959.150179
 21
1705.470953
 31
0.0
  0
LINE
  5
395
330
1F
100
AcDbEntity
  8
0
  6
CONTINUOUS
 62
     3
100
AcDbLine
 10
1947.150179
 20
1706.470953
 30
0.0
 11
1952.650179
 21
1706.470953
 31
0.0
  0
LINE
  5
396
330
1F
100
AcDbEntity
  8
0
  6
CONTINUOUS
 62
     3
100
AcDbLine
 10
1940.150179
 20
1707.970953
 30
0.0
 11
1945.650179
 21
1707.970953
 31
0.0
  0
LINE
  5
397
330
1F
100
AcDbEntity
  8
0
  6
CONTINUOUS
 62
     3
100
AcDbLine
 10
1940.150179
 20
1707.970953
 30
0.0
 11
1940.150179
 21
1688.720953
 31
0.0
  0
LINE
  5
398
330
1F
100
AcDbEntity
  8
0
  6
CONTINUOUS
 62
     3
100
AcDbLine
 10
1945.650179
 20
1707.970953
 30
0.0
 11
1945.650179
 21
1688.720953
 31
0.0
  0
LINE
  5
399
330
1F
100
AcDbEntity
  8
0
  6
CONTINUOUS
 62
     3
100
AcDbLine
 10
1947.150179
 20
1706.470953
 30
0.0
 11
1947.150179
 21
1690.220953
 31
0.0
  0
LINE
  5
39A
330
1F
100
AcDbEntity
  8
0
  6
CONTINUOUS
 62
     3
100
AcDbLine
 10
1952.650179
 20
1706.470953
 30
0.0
 11
1952.650179
 21
1690.220953
 31
0.0
  0
LINE
  5
39B
330
1F
100
AcDbEntity
  8
0
  6
CONTINUOUS
 62
     3
100
AcDbLine
 10
1953.650179
 20
1705.470953
 30
0.0
 11
1953.650179
 21
1691.720953
 31
0.0
  0
LINE
  5
39C
330
1F
100
AcDbEntity
  8
0
  6
CENTER
 62
     6
100
AcDbLine
 10
1928.346574
 20
1698.470953
 30
0.0
 11
1991.585356
 21
1698.470953
 31
0.0
  0
LINE
  5
39D
330
1F
100
AcDbEntity
  8
0
  6
CENTER
 62
     6
100
AcDbLine
 10
1928.346574
 20
1666.470953
 30
0.0
 11
1991.585356
 21
1666.470953
 31
0.0
  0
ARC
  5
39E
330
1F
100
AcDbEntity
  8
0
  6
CONTINUOUS
 62
     3
100
AcDbCircle
 10
1956.400179
 20
1691.720953
 30
0.0
 40
2.75
100
AcDbArc
 50
180.0
 51
0.0
  0
ARC
  5
39F
330
1F
100
AcDbEntity
  8
0
  6
CONTINUOUS
 62
     3
100
AcDbCircle
 10
1949.900179
 20
1690.220953
 30
0.0
 40
2.75
100
AcDbArc
 50
180.0
 51
0.0
  0
ARC
  5
3A0
330
1F
100
AcDbEntity
  8
0
  6
CONTINUOUS
 62
     3
100
AcDbCircle
 10
1942.900179
 20
1688.720953
 30
0.0
 40
2.75
100
AcDbArc
 50
180.0
 51
0.0
  0
LINE
  5
3A1
330
1F
100
AcDbEntity
  8
0
  6
CONTINUOUS
 62
     3
100
AcDbLine
 10
1959.150179
 20
1673.470953
 30
0.0
 11
1959.150179
 21
1659.720953
 31
0.0
  0
LINE
  5
3A2
330
1F
100
AcDbEntity
  8
0
  6
CONTINUOUS
 62
     3
100
AcDbLine
 10
1953.650179
 20
1673.470953
 30
0.0
 11
1959.150179
 21
1673.470953
 31
0.0
  0
LINE
  5
3A3
330
1F
100
AcDbEntity
  8
0
  6
CONTINUOUS
 62
     3
100
AcDbLine
 10
1947.150179
 20
1674.470953
 30
0.0
 11
1952.650179
 21
1674.470953
 31
0.0
  0
LINE
  5
3A4
330
1F
100
AcDbEntity
  8
0
  6
CONTINUOUS
 62
     3
100
AcDbLine
 10
1940.150179
 20
1675.970953
 30
0.0
 11
1945.650179
 21
1675.970953
 31
0.0
  0
LINE
  5
3A5
330
1F
100
AcDbEntity
  8
0
  6
CONTINUOUS
 62
     3
100
AcDbLine
 10
1940.150179
 20
1675.970953
 30
0.0
 11
1940.150179
 21
1656.720953
 31
0.0
  0
LINE
  5
3A6
330
1F
100
AcDbEntity
  8
0
  6
CONTINUOUS
 62
     3
100
AcDbLine
 10
1945.650179
 20
1675.970953
 30
0.0
 11
1945.650179
 21
1656.720953
 31
0.0
  0
LINE
  5
3A7
330
1F
100
AcDbEntity
  8
0
  6
CONTINUOUS
 62
     3
100
AcDbLine
 10
1947.150179
 20
1674.470953
 30
0.0
 11
1947.150179
 21
1658.220953
 31
0.0
  0
LINE
  5
3A8
330
1F
100
AcDbEntity
  8
0
  6
CONTINUOUS
 62
     3
100
AcDbLine
 10
1952.650179
 20
1674.470953
 30
0.0
 11
1952.650179
 21
1658.220953
 31
0.0
  0
LINE
  5
3A9
330
1F
100
AcDbEntity
  8
0
  6
CONTINUOUS
 62
     3
100
AcDbLine
 10
1953.650179
 20
1673.470953
 30
0.0
 11
1953.650179
 21
1659.720953
 31
0.0
  0
ARC
  5
3AA
330
1F
100
AcDbEntity
  8
0
  6
CONTINUOUS
 62
     3
100
AcDbCircle
 10
1956.400179
 20
1659.720953
 30
0.0
 40
2.75
100
AcDbArc
 50
180.0
 51
0.0
  0
ARC
  5
3AB
330
1F
100
AcDbEntity
  8
0
  6
CONTINUOUS
 62
     3
100
AcDbCircle
 10
1949.900179
 20
1658.220953
 30
0.0
 40
2.75
100
AcDbArc
 50
180.0
 51
0.0
  0
ARC
  5
3AC
330
1F
100
AcDbEntity
  8
0
  6
CONTINUOUS
 62
     3
100
AcDbCircle
 10
1942.900179
 20
1656.720953
 30
0.0
 40
2.75
100
AcDbArc
 50
180.0
 51
0.0
  0
CIRCLE
  5
3AD
330
1F
100
AcDbEntity
  8
0
  6
DASHED
 62
     3
100
AcDbCircle
 10
1257.650179
 20
1557.470953
 30
0.0
 40
6.5
  0
CIRCLE
  5
3AE
330
1F
100
AcDbEntity
  8
0
  6
DASHED
 62
     3
100
AcDbCircle
 10
1257.650179
 20
1807.470953
 30
0.0
 40
6.5
  0
LINE
  5
3AF
330
1F
100
AcDbEntity
  8
0
  6
CONTINUOUS
 62
     3
100
AcDbLine
 10
567.869202
 20
539.49307
 30
0.0
 11
567.869202
 21
543.99307
 31
0.0
  0
LINE
  5
3B0
330
1F
100
AcDbEntity
  8
0
  6
CONTINUOUS
 62
     3
100
AcDbLine
 10
617.869202
 20
543.99307
 30
0.0
 11
617.869202
 21
569.49307
 31
0.0
  0
LINE
  5
3B1
330
1F
100
AcDbEntity
  8
0
  6
DASHED
 62
     3
100
AcDbLine
 10
617.869202
 20
543.99307
 30
0.0
 11
617.869202
 21
539.49307
 31
0.0
  0
LINE
  5
3B2
330
1F
100
AcDbEntity
  8
0
  6
CENTER
 62
     6
100
AcDbLine
 10
592.869202
 20
553.272187
 30
0.0
 11
592.869202
 21
529.779922
 31
0.0
  0
LINE
  5
3B3
330
1F
100
AcDbEntity
  8
0
  6
CONTINUOUS
 62
     3
100
AcDbLine
 10
567.869202
 20
539.49307
 30
0.0
 11
867.869202
 21
539.49307
 31
0.0
  0
LINE
  5
3B4
330
1F
100
AcDbEntity
  8
0
  6
CONTINUOUS
 62
     3
100
AcDbLine
 10
567.869202
 20
543.99307
 30
0.0
 11
643.869202
 21
543.99307
 31
0.0
  0
LINE
  5
3B5
330
1F
100
AcDbEntity
  8
0
  6
CONTINUOUS
 62
     3
100
AcDbLine
 10
643.869202
 20
539.49307
 30
0.0
 11
643.869202
 21
569.49307
 31
0.0
  0
LINE
  5
3B6
330
1F
100
AcDbEntity
  8
0
  6
CONTINUOUS
 62
     3
100
AcDbLine
 10
649.869202
 20
539.49307
 30
0.0
 11
649.869202
 21
569.49307
 31
0.0
  0
LINE
  5
3B7
330
1F
100
AcDbEntity
  8
0
  6
CONTINUOUS
 62
     3
100
AcDbLine
 10
652.869202
 20
569.49307
 30
0.0
 11
652.869202
 21
1071.73137
 31
0.0
  0
LINE
  5
3B8
330
1F
100
AcDbEntity
  8
0
  6
CONTINUOUS
 62
     3
100
AcDbLine
 10
661.869202
 20
569.49307
 30
0.0
 11
661.869202
 21
1071.73137
 31
0.0
  0
LINE
  5
3B9
330
1F
100
AcDbEntity
  8
0
  6
CONTINUOUS
 62
     3
100
AcDbLine
 10
648.869202
 20
1099.49307
 30
0.0
 11
648.869202
 21
569.49307
 31
0.0
  0
LINE
  5
3BA
330
1F
100
AcDbEntity
  8
0
  6
CONTINUOUS
 62
     3
100
AcDbLine
 10
639.869202
 20
569.49307
 30
0.0
 11
639.869202
 21
1099.49307
 31
0.0
  0
LINE
  5
3BB
330
1F
100
AcDbEntity
  8
0
  6
CONTINUOUS
 62
     3
100
AcDbLine
 10
617.869202
 20
569.49307
 30
0.0
 11
817.869202
 21
569.49307
 31
0.0
  0
LINE
  5
3BC
330
1F
100
AcDbEntity
  8
0
  6
CONTINUOUS
 62
     3
100
AcDbLine
 10
867.869202
 20
543.99307
 30
0.0
 11
791.869202
 21
543.99307
 31
0.0
  0
LINE
  5
3BD
330
1F
100
AcDbEntity
  8
0
  6
CONTINUOUS
 62
     3
100
AcDbLine
 10
867.869202
 20
539.49307
 30
0.0
 11
867.869202
 21
543.99307
 31
0.0
  0
LINE
  5
3BE
330
1F
100
AcDbEntity
  8
0
  6
CENTER
 62
     6
100
AcDbLine
 10
842.869202
 20
553.272187
 30
0.0
 11
842.869202
 21
529.779922
 31
0.0
  0
LINE
  5
3BF
330
1F
100
AcDbEntity
  8
0
  6
CONTINUOUS
 62
     3
100
AcDbLine
 10
779.369202
 20
1085.19307
 30
0.0
 11
779.369202
 21
1099.49307
 31
0.0
  0
LINE
  5
3C0
330
1F
100
AcDbEntity
  8
0
  6
CONTINUOUS
 62
     3
100
AcDbLine
 10
785.369202
 20
1099.49307
 30
0.0
 11
785.369202
 21
1085.19307
 31
0.0
  0
LINE
  5
3C1
330
1F
100
AcDbEntity
  8
0
  6
CONTINUOUS
 62
     3
100
AcDbLine
 10
785.369202
 20
1085.19307
 30
0.0
 11
779.369202
 21
1085.19307
 31
0.0
  0
LINE
  5
3C2
330
1F
100
AcDbEntity
  8
0
  6
CENTER
 62
     6
100
AcDbLine
 10
792.20184
 20
1097.19307
 30
0.0
 11
717.869202
 21
1097.19307
 31
0.0
  0
LINE
  5
3C3
330
1F
100
AcDbEntity
  8
0
  6
CENTER
 62
     6
100
AcDbLine
 10
639.869202
 20
1097.19307
 30
0.0
 11
717.869202
 21
1097.19307
 31
0.0
  0
LINE
  5
3C4
330
1F
100
AcDbEntity
  8
0
  6
CONTINUOUS
 62
     3
100
AcDbLine
 10
650.369202
 20
1099.49307
 30
0.0
 11
650.369202
 21
1085.19307
 31
0.0
  0
LINE
  5
3C5
330
1F
100
AcDbEntity
  8
0
  6
CONTINUOUS
 62
     3
100
AcDbLine
 10
656.369202
 20
1085.19307
 30
0.0
 11
656.369202
 21
1099.49307
 31
0.0
  0
LINE
  5
3C6
330
1F
100
AcDbEntity
  8
0
  6
CONTINUOUS
 62
     3
100
AcDbLine
 10
650.369202
 20
1085.19307
 30
0.0
 11
656.369202
 21
1085.19307
 31
0.0
  0
LINE
  5
3C7
330
1F
100
AcDbEntity
  8
0
  6
CENTER
 62
     6
100
AcDbLine
 10
624.14235
 20
818.096303
 30
0.0
 11
689.195986
 21
818.096303
 31
0.0
  0
LINE
  5
3C8
330
1F
100
AcDbEntity
  8
0
  6
CONTINUOUS
 62
     3
100
AcDbLine
 10
649.069202
 20
804.496303
 30
0.0
 11
652.869202
 21
804.496303
 31
0.0
  0
LINE
  5
3C9
330
1F
100
AcDbEntity
  8
0
  6
CONTINUOUS
 62
     3
100
AcDbLine
 10
649.069202
 20
831.696303
 30
0.0
 11
649.069202
 21
804.496303
 31
0.0
  0
LINE
  5
3CA
330
1F
100
AcDbEntity
  8
0
  6
CONTINUOUS
 62
     3
100
AcDbLine
 10
652.869202
 20
831.696303
 30
0.0
 11
649.069202
 21
831.696303
 31
0.0
  0
LINE
  5
3CB
330
1F
100
AcDbEntity
  8
0
  6
CONTINUOUS
 62
     3
100
AcDbLine
 10
652.869202
 20
830.596303
 30
0.0
 11
661.869202
 21
830.596303
 31
0.0
  0
LINE
  5
3CC
330
1F
100
AcDbEntity
  8
0
  6
CONTINUOUS
 62
     3
100
AcDbLine
 10
685.869202
 20
824.096303
 30
0.0
 11
679.869202
 21
824.096303
 31
0.0
  0
LINE
  5
3CD
330
1F
100
AcDbEntity
  8
0
  6
CONTINUOUS
 62
     3
100
AcDbLine
 10
661.869202
 20
805.596303
 30
0.0
 11
652.869202
 21
805.596303
 31
0.0
  0
LINE
  5
3CE
330
1F
100
AcDbEntity
  8
0
  6
CONTINUOUS
 62
     3
100
AcDbLine
 10
670.869202
 20
789.122923
 30
0.0
 11
670.869202
 21
856.739865
 31
0.0
  0
LINE
  5
3CF
330
1F
100
AcDbEntity
  8
0
  6
CONTINUOUS
 62
     3
100
AcDbLine
 10
679.869202
 20
787.011229
 30
0.0
 11
679.869202
 21
856.739865
 31
0.0
  0
LINE
  5
3D0
330
1F
100
AcDbEntity
  8
0
  6
CONTINUOUS
 62
     3
100
AcDbLine
 10
685.869202
 20
812.096303
 30
0.0
 11
679.869202
 21
812.096303
 31
0.0
  0
LINE
  5
3D1
330
1F
100
AcDbEntity
  8
0
  6
CONTINUOUS
 62
     3
100
AcDbLine
 10
685.869202
 20
812.096303
 30
0.0
 11
685.869202
 21
824.096303
 31
0.0
  0
LINE
  5
3D2
330
1F
100
AcDbEntity
  8
0
  6
CONTINUOUS
 62
     3
100
AcDbLine
 10
668.869202
 20
838.987072
 30
0.0
 11
668.869202
 21
848.987072
 31
0.0
  0
LINE
  5
3D3
330
1F
100
AcDbEntity
  8
0
  6
CONTINUOUS
 62
     3
100
AcDbLine
 10
668.869202
 20
848.987072
 30
0.0
 11
670.869202
 21
848.987072
 31
0.0
  0
LINE
  5
3D4
330
1F
100
AcDbEntity
  8
0
  6
CONTINUOUS
 62
     3
100
AcDbLine
 10
681.869202
 20
848.987072
 30
0.0
 11
681.869202
 21
838.987072
 31
0.0
  0
LINE
  5
3D5
330
1F
100
AcDbEntity
  8
0
  6
CONTINUOUS
 62
     3
100
AcDbLine
 10
681.869202
 20
838.987072
 30
0.0
 11
679.869202
 21
838.987072
 31
0.0
  0
LINE
  5
3D6
330
1F
100
AcDbEntity
  8
0
  6
CONTINUOUS
 62
     3
100
AcDbLine
 10
639.869202
 20
807.596303
 30
0.0
 11
629.869202
 21
807.596303
 31
0.0
  0
LINE
  5
3D7
330
1F
100
AcDbEntity
  8
0
  6
CONTINUOUS
 62
     3
100
AcDbLine
 10
628.369202
 20
812.096303
 30
0.0
 11
628.369202
 21
824.096303
 31
0.0
  0
LINE
  5
3D8
330
1F
100
AcDbEntity
  8
0
  6
CONTINUOUS
 62
     3
100
AcDbLine
 10
629.869202
 20
828.596303
 30
0.0
 11
629.869202
 21
807.596303
 31
0.0
  0
LINE
  5
3D9
330
1F
100
AcDbEntity
  8
0
  6
CONTINUOUS
 62
     3
100
AcDbLine
 10
636.869202
 20
828.596303
 30
0.0
 11
636.869202
 21
807.596303
 31
0.0
  0
LINE
  5
3DA
330
1F
100
AcDbEntity
  8
0
  6
CONTINUOUS
 62
     3
100
AcDbLine
 10
639.869202
 20
828.596303
 30
0.0
 11
629.869202
 21
828.596303
 31
0.0
  0
LINE
  5
3DB
330
1F
100
AcDbEntity
  8
0
  6
CONTINUOUS
 62
     3
100
AcDbLine
 10
628.369202
 20
812.096303
 30
0.0
 11
636.869202
 21
812.096303
 31
0.0
  0
LINE
  5
3DC
330
1F
100
AcDbEntity
  8
0
  6
CONTINUOUS
 62
     3
100
AcDbLine
 10
628.369202
 20
824.096303
 30
0.0
 11
636.869202
 21
824.096303
 31
0.0
  0
LINE
  5
3DD
330
1F
100
AcDbEntity
  8
0
  6
CONTINUOUS
 62
     3
100
AcDbLine
 10
636.869202
 20
816.427384
 30
0.0
 11
639.869202
 21
818.810363
 31
0.0
  0
LINE
  5
3DE
330
1F
100
AcDbEntity
  8
0
  6
CONTINUOUS
 62
     3
100
AcDbLine
 10
636.869202
 20
817.704472
 30
0.0
 11
639.869202
 21
820.087451
 31
0.0
  0
LINE
  5
3DF
330
1F
100
AcDbEntity
  8
0
  6
CENTER
 62
     6
100
AcDbLine
 10
685.10289
 20
843.987072
 30
0.0
 11
666.435832
 21
843.987072
 31
0.0
  0
LINE
  5
3E0
330
1F
100
AcDbEntity
  8
0
  6
CONTINUOUS
 62
     3
100
AcDbLine
 10
679.869202
 20
856.739865
 30
0.0
 11
670.869202
 21
856.739865
 31
0.0
  0
LINE
  5
3E1
330
1F
100
AcDbEntity
  8
0
  6
CONTINUOUS
 62
     8
100
AcDbLine
 10
648.869202
 20
787.011229
 30
0.0
 11
652.869202
 21
787.011229
 31
0.0
  0
LINE
  5
3E2
330
1F
100
AcDbEntity
  8
0
  6
CONTINUOUS
 62
     8
100
AcDbLine
 10
648.869202
 20
781.582202
 30
0.0
 11
652.869202
 21
781.582202
 31
0.0
  0
LINE
  5
3E3
330
1F
100
AcDbEntity
  8
0
  6
CONTINUOUS
 62
     8
100
AcDbLine
 10
648.869202
 20
751.27451
 30
0.0
 11
652.869202
 21
751.27451
 31
0.0
  0
LINE
  5
3E4
330
1F
100
AcDbEntity
  8
0
  6
CONTINUOUS
 62
     3
100
AcDbLine
 10
679.869202
 20
848.987072
 30
0.0
 11
681.869202
 21
848.987072
 31
0.0
  0
LINE
  5
3E5
330
1F
100
AcDbEntity
  8
0
  6
CONTINUOUS
 62
     3
100
AcDbLine
 10
670.869202
 20
838.987072
 30
0.0
 11
668.869202
 21
838.987072
 31
0.0
  0
LINE
  5
3E6
330
1F
100
AcDbEntity
  8
0
  6
CENTER
 62
     6
100
AcDbLine
 10
633.869202
 20
556.49307
 30
0.0
 11
717.869202
 21
556.49307
 31
0.0
  0
LINE
  5
3E7
330
1F
100
AcDbEntity
  8
0
  6
CENTER
 62
     6
100
AcDbLine
 10
811.432793
 20
818.096303
 30
0.0
 11
746.542418
 21
818.096303
 31
0.0
  0
LINE
  5
3E8
330
1F
100
AcDbEntity
  8
0
  6
CONTINUOUS
 62
     3
100
AcDbLine
 10
786.669202
 20
804.496303
 30
0.0
 11
782.869202
 21
804.496303
 31
0.0
  0
LINE
  5
3E9
330
1F
100
AcDbEntity
  8
0
  6
CONTINUOUS
 62
     8
100
AcDbLine
 10
786.669202
 20
831.696303
 30
0.0
 11
786.669202
 21
804.496303
 31
0.0
  0
LINE
  5
3EA
330
1F
100
AcDbEntity
  8
0
  6
CONTINUOUS
 62
     3
100
AcDbLine
 10
782.869202
 20
831.696303
 30
0.0
 11
786.669202
 21
831.696303
 31
0.0
  0
LINE
  5
3EB
330
1F
100
AcDbEntity
  8
0
  6
CONTINUOUS
 62
     3
100
AcDbLine
 10
765.069202
 20
805.596303
 30
0.0
 11
773.869202
 21
805.596303
 31
0.0
  0
LINE
  5
3EC
330
1F
100
AcDbEntity
  8
0
  6
CONTINUOUS
 62
     3
100
AcDbLine
 10
749.869202
 20
824.096303
 30
0.0
 11
755.869202
 21
824.096303
 31
0.0
  0
LINE
  5
3ED
330
1F
100
AcDbEntity
  8
0
  6
CONTINUOUS
 62
     3
100
AcDbLine
 10
773.869202
 20
830.596303
 30
0.0
 11
765.069202
 21
830.596303
 31
0.0
  0
LINE
  5
3EE
330
1F
100
AcDbEntity
  8
0
  6
CONTINUOUS
 62
     3
100
AcDbLine
 10
765.069202
 20
830.596303
 30
0.0
 11
765.069202
 21
805.596303
 31
0.0
  0
LINE
  5
3EF
330
1F
100
AcDbEntity
  8
0
  6
CONTINUOUS
 62
     3
100
AcDbLine
 10
764.869202
 20
789.122923
 30
0.0
 11
764.869202
 21
856.739865
 31
0.0
  0
LINE
  5
3F0
330
1F
100
AcDbEntity
  8
0
  6
CONTINUOUS
 62
     3
100
AcDbLine
 10
755.869202
 20
787.011229
 30
0.0
 11
755.869202
 21
856.739865
 31
0.0
  0
LINE
  5
3F1
330
1F
100
AcDbEntity
  8
0
  6
CONTINUOUS
 62
     3
100
AcDbLine
 10
749.869202
 20
812.096303
 30
0.0
 11
755.869202
 21
812.096303
 31
0.0
  0
LINE
  5
3F2
330
1F
100
AcDbEntity
  8
0
  6
CONTINUOUS
 62
     3
100
AcDbLine
 10
749.869202
 20
812.096303
 30
0.0
 11
749.869202
 21
824.096303
 31
0.0
  0
LINE
  5
3F3
330
1F
100
AcDbEntity
  8
0
  6
CONTINUOUS
 62
     3
100
AcDbLine
 10
766.869202
 20
838.987072
 30
0.0
 11
766.869202
 21
848.987072
 31
0.0
  0
LINE
  5
3F4
330
1F
100
AcDbEntity
  8
0
  6
CONTINUOUS
 62
     3
100
AcDbLine
 10
766.869202
 20
848.987072
 30
0.0
 11
764.869202
 21
848.987072
 31
0.0
  0
LINE
  5
3F5
330
1F
100
AcDbEntity
  8
0
  6
CONTINUOUS
 62
     3
100
AcDbLine
 10
753.869202
 20
848.987072
 30
0.0
 11
753.869202
 21
838.987072
 31
0.0
  0
LINE
  5
3F6
330
1F
100
AcDbEntity
  8
0
  6
CONTINUOUS
 62
     3
100
AcDbLine
 10
753.869202
 20
838.987072
 30
0.0
 11
755.869202
 21
838.987072
 31
0.0
  0
LINE
  5
3F7
330
1F
100
AcDbEntity
  8
0
  6
CONTINUOUS
 62
     3
100
AcDbLine
 10
795.869202
 20
807.596303
 30
0.0
 11
805.869202
 21
807.596303
 31
0.0
  0
LINE
  5
3F8
330
1F
100
AcDbEntity
  8
0
  6
CONTINUOUS
 62
     3
100
AcDbLine
 10
807.369202
 20
812.096303
 30
0.0
 11
807.369202
 21
824.096303
 31
0.0
  0
LINE
  5
3F9
330
1F
100
AcDbEntity
  8
0
  6
CONTINUOUS
 62
     3
100
AcDbLine
 10
805.869202
 20
828.596303
 30
0.0
 11
805.869202
 21
807.596303
 31
0.0
  0
LINE
  5
3FA
330
1F
100
AcDbEntity
  8
0
  6
CONTINUOUS
 62
     3
100
AcDbLine
 10
798.869202
 20
828.596303
 30
0.0
 11
798.869202
 21
807.596303
 31
0.0
  0
LINE
  5
3FB
330
1F
100
AcDbEntity
  8
0
  6
CONTINUOUS
 62
     3
100
AcDbLine
 10
795.869202
 20
828.596303
 30
0.0
 11
805.869202
 21
828.596303
 31
0.0
  0
LINE
  5
3FC
330
1F
100
AcDbEntity
  8
0
  6
CONTINUOUS
 62
     3
100
AcDbLine
 10
807.369202
 20
812.096303
 30
0.0
 11
798.869202
 21
812.096303
 31
0.0
  0
LINE
  5
3FD
330
1F
100
AcDbEntity
  8
0
  6
CONTINUOUS
 62
     3
100
AcDbLine
 10
807.369202
 20
824.096303
 30
0.0
 11
798.869202
 21
824.096303
 31
0.0
  0
LINE
  5
3FE
330
1F
100
AcDbEntity
  8
0
  6
CONTINUOUS
 62
     3
100
AcDbLine
 10
798.869202
 20
819.765222
 30
0.0
 11
795.869202
 21
817.382244
 31
0.0
  0
LINE
  5
3FF
330
1F
100
AcDbEntity
  8
0
  6
CONTINUOUS
 62
     3
100
AcDbLine
 10
798.869202
 20
818.488134
 30
0.0
 11
795.869202
 21
816.105155
 31
0.0
  0
LINE
  5
400
330
1F
100
AcDbEntity
  8
0
  6
CENTER
 62
     6
100
AcDbLine
 10
751.119202
 20
843.987072
 30
0.0
 11
769.619202
 21
843.987072
 31
0.0
  0
LINE
  5
401
330
1F
100
AcDbEntity
  8
0
  6
CONTINUOUS
 62
     3
100
AcDbLine
 10
755.869202
 20
856.739865
 30
0.0
 11
764.869202
 21
856.739865
 31
0.0
  0
LINE
  5
402
330
1F
100
AcDbEntity
  8
0
  6
CONTINUOUS
 62
     3
100
AcDbLine
 10
786.869202
 20
787.011229
 30
0.0
 11
782.869202
 21
787.011229
 31
0.0
  0
LINE
  5
403
330
1F
100
AcDbEntity
  8
0
  6
CONTINUOUS
 62
     3
100
AcDbLine
 10
786.869202
 20
781.582202
 30
0.0
 11
782.869202
 21
781.582202
 31
0.0
  0
LINE
  5
404
330
1F
100
AcDbEntity
  8
0
  6
CONTINUOUS
 62
     3
100
AcDbLine
 10
786.869202
 20
751.27451
 30
0.0
 11
782.869202
 21
751.27451
 31
0.0
  0
LINE
  5
405
330
1F
100
AcDbEntity
  8
0
  6
CONTINUOUS
 62
     3
100
AcDbLine
 10
755.869202
 20
848.987072
 30
0.0
 11
753.869202
 21
848.987072
 31
0.0
  0
LINE
  5
406
330
1F
100
AcDbEntity
  8
0
  6
CONTINUOUS
 62
     3
100
AcDbLine
 10
764.869202
 20
838.987072
 30
0.0
 11
766.869202
 21
838.987072
 31
0.0
  0
LINE
  5
407
330
1F
100
AcDbEntity
  8
0
  6
CONTINUOUS
 62
     3
100
AcDbLine
 10
795.869202
 20
569.49307
 30
0.0
 11
795.869202
 21
1099.49307
 31
0.0
  0
LINE
  5
408
330
1F
100
AcDbEntity
  8
0
  6
CONTINUOUS
 62
     3
100
AcDbLine
 10
786.869202
 20
1099.49307
 30
0.0
 11
786.869202
 21
569.49307
 31
0.0
  0
LINE
  5
409
330
1F
100
AcDbEntity
  8
0
  6
CONTINUOUS
 62
     3
100
AcDbLine
 10
782.869202
 20
569.49307
 30
0.0
 11
782.869202
 21
1071.73137
 31
0.0
  0
LINE
  5
40A
330
1F
100
AcDbEntity
  8
0
  6
CONTINUOUS
 62
     3
100
AcDbLine
 10
773.869202
 20
569.49307
 30
0.0
 11
773.869202
 21
1071.73137
 31
0.0
  0
LINE
  5
40B
330
1F
100
AcDbEntity
  8
0
  6
CONTINUOUS
 62
     3
100
AcDbLine
 10
643.869202
 20
545.99307
 30
0.0
 11
633.869202
 21
545.99307
 31
0.0
  0
LINE
  5
40C
330
1F
100
AcDbEntity
  8
0
  6
CONTINUOUS
 62
     3
100
AcDbLine
 10
640.869202
 20
545.99307
 30
0.0
 11
640.869202
 21
566.99307
 31
0.0
  0
LINE
  5
40D
330
1F
100
AcDbEntity
  8
0
  6
CONTINUOUS
 62
     3
100
AcDbLine
 10
633.869202
 20
545.99307
 30
0.0
 11
633.869202
 21
566.99307
 31
0.0
  0
LINE
  5
40E
330
1F
100
AcDbEntity
  8
0
  6
CONTINUOUS
 62
     3
100
AcDbLine
 10
643.869202
 20
566.99307
 30
0.0
 11
633.869202
 21
566.99307
 31
0.0
  0
LINE
  5
40F
330
1F
100
AcDbEntity
  8
0
  6
CONTINUOUS
 62
     3
100
AcDbLine
 10
640.869202
 20
554.824151
 30
0.0
 11
643.869202
 21
557.20713
 31
0.0
  0
LINE
  5
410
330
1F
100
AcDbEntity
  8
0
  6
CONTINUOUS
 62
     3
100
AcDbLine
 10
640.869202
 20
556.101239
 30
0.0
 11
643.869202
 21
558.484218
 31
0.0
  0
LINE
  5
411
330
1F
100
AcDbEntity
  8
0
  6
CONTINUOUS
 62
     3
100
AcDbLine
 10
633.869202
 20
550.49307
 30
0.0
 11
640.869202
 21
550.49307
 31
0.0
  0
LINE
  5
412
330
1F
100
AcDbEntity
  8
0
  6
CONTINUOUS
 62
     3
100
AcDbLine
 10
633.869202
 20
562.49307
 30
0.0
 11
640.869202
 21
562.49307
 31
0.0
  0
LINE
  5
413
330
1F
100
AcDbEntity
  8
0
  6
CONTINUOUS
 62
     3
100
AcDbLine
 10
666.369202
 20
1086.69307
 30
0.0
 11
666.369202
 21
1099.49307
 31
0.0
  0
LINE
  5
414
330
1F
100
AcDbEntity
  8
0
  6
CONTINUOUS
 62
     3
100
AcDbLine
 10
659.369202
 20
1086.69307
 30
0.0
 11
659.369202
 21
1099.49307
 31
0.0
  0
LINE
  5
415
330
1F
100
AcDbEntity
  8
0
  6
CONTINUOUS
 62
     3
100
AcDbLine
 10
656.369202
 20
1086.69307
 30
0.0
 11
666.369202
 21
1086.69307
 31
0.0
  0
LINE
  5
416
330
1F
100
AcDbEntity
  8
0
  6
CONTINUOUS
 62
     3
100
AcDbLine
 10
659.369202
 20
1098.861989
 30
0.0
 11
656.369202
 21
1096.47901
 31
0.0
  0
LINE
  5
417
330
1F
100
AcDbEntity
  8
0
  6
CONTINUOUS
 62
     3
100
AcDbLine
 10
659.369202
 20
1097.584901
 30
0.0
 11
656.369202
 21
1095.201922
 31
0.0
  0
LINE
  5
418
330
1F
100
AcDbEntity
  8
0
  6
CONTINUOUS
 62
     3
100
AcDbLine
 10
666.369202
 20
1091.19307
 30
0.0
 11
659.369202
 21
1091.19307
 31
0.0
  0
LINE
  5
419
330
1F
100
AcDbEntity
  8
0
  6
CONTINUOUS
 62
     3
100
AcDbLine
 10
648.869202
 20
1071.73137
 30
0.0
 11
786.869202
 21
1071.73137
 31
0.0
  0
LINE
  5
41A
330
1F
100
AcDbEntity
  8
0
  6
CONTINUOUS
 62
     3
100
AcDbLine
 10
666.369202
 20
1089.277928
 30
0.0
 11
769.369202
 21
1089.277928
 31
0.0
  0
LINE
  5
41B
330
1F
100
AcDbEntity
  8
0
  6
CONTINUOUS
 62
     3
100
AcDbLine
 10
666.369202
 20
1092.89728
 30
0.0
 11
769.369202
 21
1092.89728
 31
0.0
  0
LINE
  5
41C
330
1F
100
AcDbEntity
  8
0
  6
CONTINUOUS
 62
     3
100
AcDbLine
 10
769.369202
 20
1086.69307
 30
0.0
 11
769.369202
 21
1099.49307
 31
0.0
  0
LINE
  5
41D
330
1F
100
AcDbEntity
  8
0
  6
CONTINUOUS
 62
     3
100
AcDbLine
 10
776.369202
 20
1086.69307
 30
0.0
 11
776.369202
 21
1099.49307
 31
0.0
  0
LINE
  5
41E
330
1F
100
AcDbEntity
  8
0
  6
CONTINUOUS
 62
     3
100
AcDbLine
 10
779.369202
 20
1086.69307
 30
0.0
 11
769.369202
 21
1086.69307
 31
0.0
  0
LINE
  5
41F
330
1F
100
AcDbEntity
  8
0
  6
CONTINUOUS
 62
     3
100
AcDbLine
 10
776.369202
 20
1095.524151
 30
0.0
 11
779.369202
 21
1097.90713
 31
0.0
  0
LINE
  5
420
330
1F
100
AcDbEntity
  8
0
  6
CONTINUOUS
 62
     3
100
AcDbLine
 10
776.369202
 20
1096.801239
 30
0.0
 11
779.369202
 21
1099.184218
 31
0.0
  0
LINE
  5
421
330
1F
100
AcDbEntity
  8
0
  6
CONTINUOUS
 62
     3
100
AcDbLine
 10
769.369202
 20
1091.19307
 30
0.0
 11
776.369202
 21
1091.19307
 31
0.0
  0
LINE
  5
422
330
1F
100
AcDbEntity
  8
0
  6
CONTINUOUS
 62
     3
100
AcDbLine
 10
817.869202
 20
543.99307
 30
0.0
 11
817.869202
 21
569.49307
 31
0.0
  0
LINE
  5
423
330
1F
100
AcDbEntity
  8
0
  6
DASHED
 62
     3
100
AcDbLine
 10
817.869202
 20
543.99307
 30
0.0
 11
817.869202
 21
539.49307
 31
0.0
  0
LINE
  5
424
330
1F
100
AcDbEntity
  8
0
  6
CONTINUOUS
 62
     3
100
AcDbLine
 10
791.869202
 20
539.49307
 30
0.0
 11
791.869202
 21
569.49307
 31
0.0
  0
LINE
  5
425
330
1F
100
AcDbEntity
  8
0
  6
CONTINUOUS
 62
     3
100
AcDbLine
 10
785.869202
 20
539.49307
 30
0.0
 11
785.869202
 21
569.49307
 31
0.0
  0
LINE
  5
426
330
1F
100
AcDbEntity
  8
0
  6
CONTINUOUS
 62
     3
100
AcDbLine
 10
791.869202
 20
545.99307
 30
0.0
 11
801.869202
 21
545.99307
 31
0.0
  0
LINE
  5
427
330
1F
100
AcDbEntity
  8
0
  6
CONTINUOUS
 62
     3
100
AcDbLine
 10
794.869202
 20
545.99307
 30
0.0
 11
794.869202
 21
566.99307
 31
0.0
  0
LINE
  5
428
330
1F
100
AcDbEntity
  8
0
  6
CONTINUOUS
 62
     3
100
AcDbLine
 10
801.869202
 20
545.99307
 30
0.0
 11
801.869202
 21
566.99307
 31
0.0
  0
LINE
  5
429
330
1F
100
AcDbEntity
  8
0
  6
CONTINUOUS
 62
     3
100
AcDbLine
 10
791.869202
 20
566.99307
 30
0.0
 11
801.869202
 21
566.99307
 31
0.0
  0
LINE
  5
42A
330
1F
100
AcDbEntity
  8
0
  6
CONTINUOUS
 62
     3
100
AcDbLine
 10
794.869202
 20
558.161989
 30
0.0
 11
791.869202
 21
555.77901
 31
0.0
  0
LINE
  5
42B
330
1F
100
AcDbEntity
  8
0
  6
CONTINUOUS
 62
     3
100
AcDbLine
 10
794.869202
 20
556.884901
 30
0.0
 11
791.869202
 21
554.501922
 31
0.0
  0
LINE
  5
42C
330
1F
100
AcDbEntity
  8
0
  6
CONTINUOUS
 62
     3
100
AcDbLine
 10
801.869202
 20
550.49307
 30
0.0
 11
794.869202
 21
550.49307
 31
0.0
  0
LINE
  5
42D
330
1F
100
AcDbEntity
  8
0
  6
CONTINUOUS
 62
     3
100
AcDbLine
 10
801.869202
 20
562.49307
 30
0.0
 11
794.869202
 21
562.49307
 31
0.0
  0
LINE
  5
42E
330
1F
100
AcDbEntity
  8
0
  6
CENTER
 62
     6
100
AcDbLine
 10
801.869202
 20
556.49307
 30
0.0
 11
717.869202
 21
556.49307
 31
0.0
  0
LINE
  5
42F
330
1F
100
AcDbEntity
  8
0
  6
CENTER
 62
     6
100
AcDbLine
 10
652.869202
 20
758.895581
 30
0.0
 11
782.869202
 21
758.895581
 31
0.0
  0
LINE
  5
430
330
1F
100
AcDbEntity
  8
0
  6
CONTINUOUS
 62
     3
100
AcDbLine
 10
749.369202
 20
615.63276
 30
0.0
 11
749.249335
 21
617.005463
 31
0.0
  0
LINE
  5
431
330
1F
100
AcDbEntity
  8
0
  6
CONTINUOUS
 62
     3
100
AcDbLine
 10
749.249335
 20
617.005463
 30
0.0
 11
748.890646
 21
618.367719
 31
0.0
  0
LINE
  5
432
330
1F
100
AcDbEntity
  8
0
  6
CONTINUOUS
 62
     3
100
AcDbLine
 10
748.890646
 20
618.367719
 30
0.0
 11
748.295866
 21
619.70916
 31
0.0
  0
LINE
  5
433
330
1F
100
AcDbEntity
  8
0
  6
CONTINUOUS
 62
     3
100
AcDbLine
 10
748.295866
 20
619.70916
 30
0.0
 11
747.46952
 21
621.019577
 31
0.0
  0
LINE
  5
434
330
1F
100
AcDbEntity
  8
0
  6
CONTINUOUS
 62
     3
100
AcDbLine
 10
747.46952
 20
621.019577
 30
0.0
 11
746.417897
 21
622.288998
 31
0.0
  0
LINE
  5
435
330
1F
100
AcDbEntity
  8
0
  6
CONTINUOUS
 62
     3
100
AcDbLine
 10
746.417897
 20
622.288998
 30
0.0
 11
745.149002
 21
623.50776
 31
0.0
  0
LINE
  5
436
330
1F
100
AcDbEntity
  8
0
  6
CONTINUOUS
 62
     3
100
AcDbLine
 10
745.149002
 20
623.50776
 30
0.0
 11
743.672491
 21
624.666589
 31
0.0
  0
LINE
  5
437
330
1F
100
AcDbEntity
  8
0
  6
CONTINUOUS
 62
     3
100
AcDbLine
 10
743.672491
 20
624.666589
 30
0.0
 11
741.999602
 21
625.756665
 31
0.0
  0
LINE
  5
438
330
1F
100
AcDbEntity
  8
0
  6
CONTINUOUS
 62
     3
100
AcDbLine
 10
741.999602
 20
625.756665
 30
0.0
 11
740.143066
 21
626.769692
 31
0.0
  0
LINE
  5
439
330
1F
100
AcDbEntity
  8
0
  6
CONTINUOUS
 62
     3
100
AcDbLine
 10
740.143066
 20
626.769692
 30
0.0
 11
738.117012
 21
627.69796
 31
0.0
  0
LINE
  5
43A
330
1F
100
AcDbEntity
  8
0
  6
CONTINUOUS
 62
     3
100
AcDbLine
 10
738.117012
 20
627.69796
 30
0.0
 11
735.93686
 21
628.534405
 31
0.0
  0
LINE
  5
43B
330
1F
100
AcDbEntity
  8
0
  6
CONTINUOUS
 62
     3
100
AcDbLine
 10
735.93686
 20
628.534405
 30
0.0
 11
733.619202
 21
629.27266
 31
0.0
  0
LINE
  5
43C
330
1F
100
AcDbEntity
  8
0
  6
CONTINUOUS
 62
     3
100
AcDbLine
 10
733.619202
 20
629.27266
 30
0.0
 11
731.181677
 21
629.907108
 31
0.0
  0
LINE
  5
43D
330
1F
100
AcDbEntity
  8
0
  6
CONTINUOUS
 62
     3
100
AcDbLine
 10
731.181677
 20
629.907108
 30
0.0
 11
728.642837
 21
630.432919
 31
0.0
  0
LINE
  5
43E
330
1F
100
AcDbEntity
  8
0
  6
CONTINUOUS
 62
     3
100
AcDbLine
 10
728.642837
 20
630.432919
 30
0.0
 11
726.022002
 21
630.846092
 31
0.0
  0
LINE
  5
43F
330
1F
100
AcDbEntity
  8
0
  6
CONTINUOUS
 62
     3
100
AcDbLine
 10
726.022002
 20
630.846092
 30
0.0
 11
723.33912
 21
631.143482
 31
0.0
  0
LINE
  5
440
330
1F
100
AcDbEntity
  8
0
  6
CONTINUOUS
 62
     3
100
AcDbLine
 10
723.33912
 20
631.143482
 30
0.0
 11
720.614608
 21
631.322826
 31
0.0
  0
LINE
  5
441
330
1F
100
AcDbEntity
  8
0
  6
CONTINUOUS
 62
     3
100
AcDbLine
 10
720.614608
 20
631.322826
 30
0.0
 11
717.869202
 21
631.38276
 31
0.0
  0
LINE
  5
442
330
1F
100
AcDbEntity
  8
0
  6
CONTINUOUS
 62
     3
100
AcDbLine
 10
717.869202
 20
631.38276
 30
0.0
 11
715.123796
 21
631.322826
 31
0.0
  0
LINE
  5
443
330
1F
100
AcDbEntity
  8
0
  6
CONTINUOUS
 62
     3
100
AcDbLine
 10
715.123796
 20
631.322826
 30
0.0
 11
712.399284
 21
631.143482
 31
0.0
  0
LINE
  5
444
330
1F
100
AcDbEntity
  8
0
  6
CONTINUOUS
 62
     3
100
AcDbLine
 10
712.399284
 20
631.143482
 30
0.0
 11
709.716402
 21
630.846092
 31
0.0
  0
LINE
  5
445
330
1F
100
AcDbEntity
  8
0
  6
CONTINUOUS
 62
     3
100
AcDbLine
 10
709.716402
 20
630.846092
 30
0.0
 11
707.095568
 21
630.432919
 31
0.0
  0
LINE
  5
446
330
1F
100
AcDbEntity
  8
0
  6
CONTINUOUS
 62
     3
100
AcDbLine
 10
707.095568
 20
630.432919
 30
0.0
 11
704.556727
 21
629.907108
 31
0.0
  0
LINE
  5
447
330
1F
100
AcDbEntity
  8
0
  6
CONTINUOUS
 62
     3
100
AcDbLine
 10
704.556727
 20
629.907108
 30
0.0
 11
702.119202
 21
629.27266
 31
0.0
  0
LINE
  5
448
330
1F
100
AcDbEntity
  8
0
  6
CONTINUOUS
 62
     3
100
AcDbLine
 10
702.119202
 20
629.27266
 30
0.0
 11
699.801544
 21
628.534405
 31
0.0
  0
LINE
  5
449
330
1F
100
AcDbEntity
  8
0
  6
CONTINUOUS
 62
     3
100
AcDbLine
 10
699.801544
 20
628.534405
 30
0.0
 11
697.621392
 21
627.69796
 31
0.0
  0
LINE
  5
44A
330
1F
100
AcDbEntity
  8
0
  6
CONTINUOUS
 62
     3
100
AcDbLine
 10
697.621392
 20
627.69796
 30
0.0
 11
695.595338
 21
626.769692
 31
0.0
  0
LINE
  5
44B
330
1F
100
AcDbEntity
  8
0
  6
CONTINUOUS
 62
     3
100
AcDbLine
 10
695.595338
 20
626.769692
 30
0.0
 11
693.738802
 21
625.756665
 31
0.0
  0
LINE
  5
44C
330
1F
100
AcDbEntity
  8
0
  6
CONTINUOUS
 62
     3
100
AcDbLine
 10
693.738802
 20
625.756665
 30
0.0
 11
692.065913
 21
624.666589
 31
0.0
  0
LINE
  5
44D
330
1F
100
AcDbEntity
  8
0
  6
CONTINUOUS
 62
     3
100
AcDbLine
 10
692.065913
 20
624.666589
 30
0.0
 11
690.589402
 21
623.50776
 31
0.0
  0
LINE
  5
44E
330
1F
100
AcDbEntity
  8
0
  6
CONTINUOUS
 62
     3
100
AcDbLine
 10
690.589402
 20
623.50776
 30
0.0
 11
689.320507
 21
622.288998
 31
0.0
  0
LINE
  5
44F
330
1F
100
AcDbEntity
  8
0
  6
CONTINUOUS
 62
     3
100
AcDbLine
 10
689.320507
 20
622.288998
 30
0.0
 11
688.268884
 21
621.019577
 31
0.0
  0
LINE
  5
450
330
1F
100
AcDbEntity
  8
0
  6
CONTINUOUS
 62
     3
100
AcDbLine
 10
688.268884
 20
621.019577
 30
0.0
 11
687.442538
 21
619.70916
 31
0.0
  0
LINE
  5
451
330
1F
100
AcDbEntity
  8
0
  6
CONTINUOUS
 62
     3
100
AcDbLine
 10
687.442538
 20
619.70916
 30
0.0
 11
686.847758
 21
618.367719
 31
0.0
  0
LINE
  5
452
330
1F
100
AcDbEntity
  8
0
  6
CONTINUOUS
 62
     3
100
AcDbLine
 10
686.847758
 20
618.367719
 30
0.0
 11
686.489069
 21
617.005463
 31
0.0
  0
LINE
  5
453
330
1F
100
AcDbEntity
  8
0
  6
CONTINUOUS
 62
     3
100
AcDbLine
 10
686.489069
 20
617.005463
 30
0.0
 11
686.369202
 21
615.63276
 31
0.0
  0
LINE
  5
454
330
1F
100
AcDbEntity
  8
0
  6
CONTINUOUS
 62
     3
100
AcDbLine
 10
686.369202
 20
615.63276
 30
0.0
 11
686.489069
 21
614.260057
 31
0.0
  0
LINE
  5
455
330
1F
100
AcDbEntity
  8
0
  6
CONTINUOUS
 62
     3
100
AcDbLine
 10
686.489069
 20
614.260057
 30
0.0
 11
686.847758
 21
612.897801
 31
0.0
  0
LINE
  5
456
330
1F
100
AcDbEntity
  8
0
  6
CONTINUOUS
 62
     3
100
AcDbLine
 10
686.847758
 20
612.897801
 30
0.0
 11
687.442538
 21
611.55636
 31
0.0
  0
LINE
  5
457
330
1F
100
AcDbEntity
  8
0
  6
CONTINUOUS
 62
     3
100
AcDbLine
 10
687.442538
 20
611.55636
 30
0.0
 11
688.268884
 21
610.245943
 31
0.0
  0
LINE
  5
458
330
1F
100
AcDbEntity
  8
0
  6
CONTINUOUS
 62
     3
100
AcDbLine
 10
688.268884
 20
610.245943
 30
0.0
 11
689.320507
 21
608.976522
 31
0.0
  0
LINE
  5
459
330
1F
100
AcDbEntity
  8
0
  6
CONTINUOUS
 62
     3
100
AcDbLine
 10
689.320507
 20
608.976522
 30
0.0
 11
690.589402
 21
607.75776
 31
0.0
  0
LINE
  5
45A
330
1F
100
AcDbEntity
  8
0
  6
CONTINUOUS
 62
     3
100
AcDbLine
 10
690.589402
 20
607.75776
 30
0.0
 11
692.065913
 21
606.598931
 31
0.0
  0
LINE
  5
45B
330
1F
100
AcDbEntity
  8
0
  6
CONTINUOUS
 62
     3
100
AcDbLine
 10
692.065913
 20
606.598931
 30
0.0
 11
693.738802
 21
605.508855
 31
0.0
  0
LINE
  5
45C
330
1F
100
AcDbEntity
  8
0
  6
CONTINUOUS
 62
     3
100
AcDbLine
 10
693.738802
 20
605.508855
 30
0.0
 11
695.595338
 21
604.495828
 31
0.0
  0
LINE
  5
45D
330
1F
100
AcDbEntity
  8
0
  6
CONTINUOUS
 62
     3
100
AcDbLine
 10
740.143066
 20
604.495828
 30
0.0
 11
741.999602
 21
605.508855
 31
0.0
  0
LINE
  5
45E
330
1F
100
AcDbEntity
  8
0
  6
CONTINUOUS
 62
     3
100
AcDbLine
 10
741.999602
 20
605.508855
 30
0.0
 11
743.672491
 21
606.598931
 31
0.0
  0
LINE
  5
45F
330
1F
100
AcDbEntity
  8
0
  6
CONTINUOUS
 62
     3
100
AcDbLine
 10
743.672491
 20
606.598931
 30
0.0
 11
745.149002
 21
607.75776
 31
0.0
  0
LINE
  5
460
330
1F
100
AcDbEntity
  8
0
  6
CONTINUOUS
 62
     3
100
AcDbLine
 10
745.149002
 20
607.75776
 30
0.0
 11
746.417897
 21
608.976522
 31
0.0
  0
LINE
  5
461
330
1F
100
AcDbEntity
  8
0
  6
CONTINUOUS
 62
     3
100
AcDbLine
 10
746.417897
 20
608.976522
 30
0.0
 11
747.46952
 21
610.245943
 31
0.0
  0
LINE
  5
462
330
1F
100
AcDbEntity
  8
0
  6
CONTINUOUS
 62
     3
100
AcDbLine
 10
747.46952
 20
610.245943
 30
0.0
 11
748.295866
 21
611.55636
 31
0.0
  0
LINE
  5
463
330
1F
100
AcDbEntity
  8
0
  6
CONTINUOUS
 62
     3
100
AcDbLine
 10
748.295866
 20
611.55636
 30
0.0
 11
748.890646
 21
612.897801
 31
0.0
  0
LINE
  5
464
330
1F
100
AcDbEntity
  8
0
  6
CONTINUOUS
 62
     3
100
AcDbLine
 10
748.890646
 20
612.897801
 30
0.0
 11
749.249335
 21
614.260057
 31
0.0
  0
LINE
  5
465
330
1F
100
AcDbEntity
  8
0
  6
CONTINUOUS
 62
     3
100
AcDbLine
 10
749.249335
 20
614.260057
 30
0.0
 11
749.369202
 21
615.63276
 31
0.0
  0
LINE
  5
466
330
1F
100
AcDbEntity
  8
0
  6
CONTINUOUS
 62
     3
100
AcDbLine
 10
749.369202
 20
642.63061
 30
0.0
 11
749.249335
 21
644.003313
 31
0.0
  0
LINE
  5
467
330
1F
100
AcDbEntity
  8
0
  6
CONTINUOUS
 62
     3
100
AcDbLine
 10
749.249335
 20
644.003313
 30
0.0
 11
748.890646
 21
645.365569
 31
0.0
  0
LINE
  5
468
330
1F
100
AcDbEntity
  8
0
  6
CONTINUOUS
 62
     3
100
AcDbLine
 10
748.890646
 20
645.365569
 30
0.0
 11
748.295866
 21
646.70701
 31
0.0
  0
LINE
  5
469
330
1F
100
AcDbEntity
  8
0
  6
CONTINUOUS
 62
     3
100
AcDbLine
 10
748.295866
 20
646.70701
 30
0.0
 11
747.46952
 21
648.017427
 31
0.0
  0
LINE
  5
46A
330
1F
100
AcDbEntity
  8
0
  6
CONTINUOUS
 62
     3
100
AcDbLine
 10
747.46952
 20
648.017427
 30
0.0
 11
746.417897
 21
649.286847
 31
0.0
  0
LINE
  5
46B
330
1F
100
AcDbEntity
  8
0
  6
CONTINUOUS
 62
     3
100
AcDbLine
 10
746.417897
 20
649.286847
 30
0.0
 11
745.149002
 21
650.50561
 31
0.0
  0
LINE
  5
46C
330
1F
100
AcDbEntity
  8
0
  6
CONTINUOUS
 62
     3
100
AcDbLine
 10
745.149002
 20
650.50561
 30
0.0
 11
743.672491
 21
651.664439
 31
0.0
  0
LINE
  5
46D
330
1F
100
AcDbEntity
  8
0
  6
CONTINUOUS
 62
     3
100
AcDbLine
 10
743.672491
 20
651.664439
 30
0.0
 11
741.999602
 21
652.754515
 31
0.0
  0
LINE
  5
46E
330
1F
100
AcDbEntity
  8
0
  6
CONTINUOUS
 62
     3
100
AcDbLine
 10
741.999602
 20
652.754515
 30
0.0
 11
740.143066
 21
653.767542
 31
0.0
  0
LINE
  5
46F
330
1F
100
AcDbEntity
  8
0
  6
CONTINUOUS
 62
     3
100
AcDbLine
 10
740.143066
 20
653.767542
 30
0.0
 11
738.117012
 21
654.69581
 31
0.0
  0
LINE
  5
470
330
1F
100
AcDbEntity
  8
0
  6
CONTINUOUS
 62
     3
100
AcDbLine
 10
738.117012
 20
654.69581
 30
0.0
 11
735.93686
 21
655.532254
 31
0.0
  0
LINE
  5
471
330
1F
100
AcDbEntity
  8
0
  6
CONTINUOUS
 62
     3
100
AcDbLine
 10
735.93686
 20
655.532254
 30
0.0
 11
733.619202
 21
656.27051
 31
0.0
  0
LINE
  5
472
330
1F
100
AcDbEntity
  8
0
  6
CONTINUOUS
 62
     3
100
AcDbLine
 10
733.619202
 20
656.27051
 30
0.0
 11
731.181677
 21
656.904957
 31
0.0
  0
LINE
  5
473
330
1F
100
AcDbEntity
  8
0
  6
CONTINUOUS
 62
     3
100
AcDbLine
 10
731.181677
 20
656.904957
 30
0.0
 11
728.642837
 21
657.430769
 31
0.0
  0
LINE
  5
474
330
1F
100
AcDbEntity
  8
0
  6
CONTINUOUS
 62
     3
100
AcDbLine
 10
728.642837
 20
657.430769
 30
0.0
 11
726.022002
 21
657.843942
 31
0.0
  0
LINE
  5
475
330
1F
100
AcDbEntity
  8
0
  6
CONTINUOUS
 62
     3
100
AcDbLine
 10
726.022002
 20
657.843942
 30
0.0
 11
723.33912
 21
658.141332
 31
0.0
  0
LINE
  5
476
330
1F
100
AcDbEntity
  8
0
  6
CONTINUOUS
 62
     3
100
AcDbLine
 10
723.33912
 20
658.141332
 30
0.0
 11
720.614608
 21
658.320676
 31
0.0
  0
LINE
  5
477
330
1F
100
AcDbEntity
  8
0
  6
CONTINUOUS
 62
     3
100
AcDbLine
 10
720.614608
 20
658.320676
 30
0.0
 11
717.869202
 21
658.38061
 31
0.0
  0
LINE
  5
478
330
1F
100
AcDbEntity
  8
0
  6
CONTINUOUS
 62
     3
100
AcDbLine
 10
717.869202
 20
658.38061
 30
0.0
 11
715.123796
 21
658.320676
 31
0.0
  0
LINE
  5
479
330
1F
100
AcDbEntity
  8
0
  6
CONTINUOUS
 62
     3
100
AcDbLine
 10
715.123796
 20
658.320676
 30
0.0
 11
712.399284
 21
658.141332
 31
0.0
  0
LINE
  5
47A
330
1F
100
AcDbEntity
  8
0
  6
CONTINUOUS
 62
     3
100
AcDbLine
 10
712.399284
 20
658.141332
 30
0.0
 11
709.716402
 21
657.843942
 31
0.0
  0
LINE
  5
47B
330
1F
100
AcDbEntity
  8
0
  6
CONTINUOUS
 62
     3
100
AcDbLine
 10
709.716402
 20
657.843942
 30
0.0
 11
707.095568
 21
657.430769
 31
0.0
  0
LINE
  5
47C
330
1F
100
AcDbEntity
  8
0
  6
CONTINUOUS
 62
     3
100
AcDbLine
 10
707.095568
 20
657.430769
 30
0.0
 11
704.556727
 21
656.904957
 31
0.0
  0
LINE
  5
47D
330
1F
100
AcDbEntity
  8
0
  6
CONTINUOUS
 62
     3
100
AcDbLine
 10
704.556727
 20
656.904957
 30
0.0
 11
702.119202
 21
656.27051
 31
0.0
  0
LINE
  5
47E
330
1F
100
AcDbEntity
  8
0
  6
CONTINUOUS
 62
     3
100
AcDbLine
 10
702.119202
 20
656.27051
 30
0.0
 11
699.801544
 21
655.532254
 31
0.0
  0
LINE
  5
47F
330
1F
100
AcDbEntity
  8
0
  6
CONTINUOUS
 62
     3
100
AcDbLine
 10
699.801544
 20
655.532254
 30
0.0
 11
697.621392
 21
654.69581
 31
0.0
  0
LINE
  5
480
330
1F
100
AcDbEntity
  8
0
  6
CONTINUOUS
 62
     3
100
AcDbLine
 10
697.621392
 20
654.69581
 30
0.0
 11
695.595338
 21
653.767542
 31
0.0
  0
LINE
  5
481
330
1F
100
AcDbEntity
  8
0
  6
CONTINUOUS
 62
     3
100
AcDbLine
 10
695.595338
 20
653.767542
 30
0.0
 11
693.738802
 21
652.754515
 31
0.0
  0
LINE
  5
482
330
1F
100
AcDbEntity
  8
0
  6
CONTINUOUS
 62
     3
100
AcDbLine
 10
693.738802
 20
652.754515
 30
0.0
 11
692.065913
 21
651.664439
 31
0.0
  0
LINE
  5
483
330
1F
100
AcDbEntity
  8
0
  6
CONTINUOUS
 62
     3
100
AcDbLine
 10
692.065913
 20
651.664439
 30
0.0
 11
690.589402
 21
650.50561
 31
0.0
  0
LINE
  5
484
330
1F
100
AcDbEntity
  8
0
  6
CONTINUOUS
 62
     3
100
AcDbLine
 10
690.589402
 20
650.50561
 30
0.0
 11
689.320507
 21
649.286847
 31
0.0
  0
LINE
  5
485
330
1F
100
AcDbEntity
  8
0
  6
CONTINUOUS
 62
     3
100
AcDbLine
 10
689.320507
 20
649.286847
 30
0.0
 11
688.268884
 21
648.017427
 31
0.0
  0
LINE
  5
486
330
1F
100
AcDbEntity
  8
0
  6
CONTINUOUS
 62
     3
100
AcDbLine
 10
688.268884
 20
648.017427
 30
0.0
 11
687.442538
 21
646.70701
 31
0.0
  0
LINE
  5
487
330
1F
100
AcDbEntity
  8
0
  6
CONTINUOUS
 62
     3
100
AcDbLine
 10
687.442538
 20
646.70701
 30
0.0
 11
686.847758
 21
645.365569
 31
0.0
  0
LINE
  5
488
330
1F
100
AcDbEntity
  8
0
  6
CONTINUOUS
 62
     3
100
AcDbLine
 10
686.847758
 20
645.365569
 30
0.0
 11
686.489069
 21
644.003313
 31
0.0
  0
LINE
  5
489
330
1F
100
AcDbEntity
  8
0
  6
CONTINUOUS
 62
     3
100
AcDbLine
 10
686.489069
 20
644.003313
 30
0.0
 11
686.369202
 21
642.63061
 31
0.0
  0
LINE
  5
48A
330
1F
100
AcDbEntity
  8
0
  6
CONTINUOUS
 62
     3
100
AcDbLine
 10
749.369202
 20
682.691948
 30
0.0
 11
749.249335
 21
684.064651
 31
0.0
  0
LINE
  5
48B
330
1F
100
AcDbEntity
  8
0
  6
CONTINUOUS
 62
     3
100
AcDbLine
 10
749.249335
 20
684.064651
 30
0.0
 11
748.890646
 21
685.426907
 31
0.0
  0
LINE
  5
48C
330
1F
100
AcDbEntity
  8
0
  6
CONTINUOUS
 62
     3
100
AcDbLine
 10
748.890646
 20
685.426907
 30
0.0
 11
748.295866
 21
686.768348
 31
0.0
  0
LINE
  5
48D
330
1F
100
AcDbEntity
  8
0
  6
CONTINUOUS
 62
     3
100
AcDbLine
 10
748.295866
 20
686.768348
 30
0.0
 11
747.46952
 21
688.078766
 31
0.0
  0
LINE
  5
48E
330
1F
100
AcDbEntity
  8
0
  6
CONTINUOUS
 62
     3
100
AcDbLine
 10
747.46952
 20
688.078766
 30
0.0
 11
746.417897
 21
689.348186
 31
0.0
  0
LINE
  5
48F
330
1F
100
AcDbEntity
  8
0
  6
CONTINUOUS
 62
     3
100
AcDbLine
 10
746.417897
 20
689.348186
 30
0.0
 11
745.149002
 21
690.566948
 31
0.0
  0
LINE
  5
490
330
1F
100
AcDbEntity
  8
0
  6
CONTINUOUS
 62
     3
100
AcDbLine
 10
745.149002
 20
690.566948
 30
0.0
 11
743.672491
 21
691.725777
 31
0.0
  0
LINE
  5
491
330
1F
100
AcDbEntity
  8
0
  6
CONTINUOUS
 62
     3
100
AcDbLine
 10
743.672491
 20
691.725777
 30
0.0
 11
741.999602
 21
692.815853
 31
0.0
  0
LINE
  5
492
330
1F
100
AcDbEntity
  8
0
  6
CONTINUOUS
 62
     3
100
AcDbLine
 10
741.999602
 20
692.815853
 30
0.0
 11
740.143066
 21
693.82888
 31
0.0
  0
LINE
  5
493
330
1F
100
AcDbEntity
  8
0
  6
CONTINUOUS
 62
     3
100
AcDbLine
 10
740.143066
 20
693.82888
 30
0.0
 11
738.117012
 21
694.757148
 31
0.0
  0
LINE
  5
494
330
1F
100
AcDbEntity
  8
0
  6
CONTINUOUS
 62
     3
100
AcDbLine
 10
738.117012
 20
694.757148
 30
0.0
 11
735.93686
 21
695.593593
 31
0.0
  0
LINE
  5
495
330
1F
100
AcDbEntity
  8
0
  6
CONTINUOUS
 62
     3
100
AcDbLine
 10
735.93686
 20
695.593593
 30
0.0
 11
733.619202
 21
696.331848
 31
0.0
  0
LINE
  5
496
330
1F
100
AcDbEntity
  8
0
  6
CONTINUOUS
 62
     3
100
AcDbLine
 10
733.619202
 20
696.331848
 30
0.0
 11
731.181677
 21
696.966296
 31
0.0
  0
LINE
  5
497
330
1F
100
AcDbEntity
  8
0
  6
CONTINUOUS
 62
     3
100
AcDbLine
 10
731.181677
 20
696.966296
 30
0.0
 11
728.642837
 21
697.492107
 31
0.0
  0
LINE
  5
498
330
1F
100
AcDbEntity
  8
0
  6
CONTINUOUS
 62
     3
100
AcDbLine
 10
728.642837
 20
697.492107
 30
0.0
 11
726.022002
 21
697.90528
 31
0.0
  0
LINE
  5
499
330
1F
100
AcDbEntity
  8
0
  6
CONTINUOUS
 62
     3
100
AcDbLine
 10
726.022002
 20
697.90528
 30
0.0
 11
723.33912
 21
698.20267
 31
0.0
  0
LINE
  5
49A
330
1F
100
AcDbEntity
  8
0
  6
CONTINUOUS
 62
     3
100
AcDbLine
 10
723.33912
 20
698.20267
 30
0.0
 11
720.614608
 21
698.382015
 31
0.0
  0
LINE
  5
49B
330
1F
100
AcDbEntity
  8
0
  6
CONTINUOUS
 62
     3
100
AcDbLine
 10
720.614608
 20
698.382015
 30
0.0
 11
717.869202
 21
698.441948
 31
0.0
  0
LINE
  5
49C
330
1F
100
AcDbEntity
  8
0
  6
CONTINUOUS
 62
     3
100
AcDbLine
 10
717.869202
 20
698.441948
 30
0.0
 11
715.123796
 21
698.382015
 31
0.0
  0
LINE
  5
49D
330
1F
100
AcDbEntity
  8
0
  6
CONTINUOUS
 62
     3
100
AcDbLine
 10
715.123796
 20
698.382015
 30
0.0
 11
712.399284
 21
698.20267
 31
0.0
  0
LINE
  5
49E
330
1F
100
AcDbEntity
  8
0
  6
CONTINUOUS
 62
     3
100
AcDbLine
 10
712.399284
 20
698.20267
 30
0.0
 11
709.716402
 21
697.90528
 31
0.0
  0
LINE
  5
49F
330
1F
100
AcDbEntity
  8
0
  6
CONTINUOUS
 62
     3
100
AcDbLine
 10
709.716402
 20
697.90528
 30
0.0
 11
707.095568
 21
697.492107
 31
0.0
  0
LINE
  5
4A0
330
1F
100
AcDbEntity
  8
0
  6
CONTINUOUS
 62
     3
100
AcDbLine
 10
707.095568
 20
697.492107
 30
0.0
 11
704.556727
 21
696.966296
 31
0.0
  0
LINE
  5
4A1
330
1F
100
AcDbEntity
  8
0
  6
CONTINUOUS
 62
     3
100
AcDbLine
 10
704.556727
 20
696.966296
 30
0.0
 11
702.119202
 21
696.331848
 31
0.0
  0
LINE
  5
4A2
330
1F
100
AcDbEntity
  8
0
  6
CONTINUOUS
 62
     3
100
AcDbLine
 10
702.119202
 20
696.331848
 30
0.0
 11
699.801544
 21
695.593593
 31
0.0
  0
LINE
  5
4A3
330
1F
100
AcDbEntity
  8
0
  6
CONTINUOUS
 62
     3
100
AcDbLine
 10
699.801544
 20
695.593593
 30
0.0
 11
697.621392
 21
694.757148
 31
0.0
  0
LINE
  5
4A4
330
1F
100
AcDbEntity
  8
0
  6
CONTINUOUS
 62
     3
100
AcDbLine
 10
697.621392
 20
694.757148
 30
0.0
 11
695.595338
 21
693.82888
 31
0.0
  0
LINE
  5
4A5
330
1F
100
AcDbEntity
  8
0
  6
CONTINUOUS
 62
     3
100
AcDbLine
 10
695.595338
 20
693.82888
 30
0.0
 11
693.738802
 21
692.815853
 31
0.0
  0
LINE
  5
4A6
330
1F
100
AcDbEntity
  8
0
  6
CONTINUOUS
 62
     3
100
AcDbLine
 10
693.738802
 20
692.815853
 30
0.0
 11
692.065913
 21
691.725777
 31
0.0
  0
LINE
  5
4A7
330
1F
100
AcDbEntity
  8
0
  6
CONTINUOUS
 62
     3
100
AcDbLine
 10
692.065913
 20
691.725777
 30
0.0
 11
690.589402
 21
690.566948
 31
0.0
  0
LINE
  5
4A8
330
1F
100
AcDbEntity
  8
0
  6
CONTINUOUS
 62
     3
100
AcDbLine
 10
690.589402
 20
690.566948
 30
0.0
 11
689.320507
 21
689.348186
 31
0.0
  0
LINE
  5
4A9
330
1F
100
AcDbEntity
  8
0
  6
CONTINUOUS
 62
     3
100
AcDbLine
 10
689.320507
 20
689.348186
 30
0.0
 11
688.268884
 21
688.078766
 31
0.0
  0
LINE
  5
4AA
330
1F
100
AcDbEntity
  8
0
  6
CONTINUOUS
 62
     3
100
AcDbLine
 10
688.268884
 20
688.078766
 30
0.0
 11
687.442538
 21
686.768348
 31
0.0
  0
LINE
  5
4AB
330
1F
100
AcDbEntity
  8
0
  6
CONTINUOUS
 62
     3
100
AcDbLine
 10
687.442538
 20
686.768348
 30
0.0
 11
686.847758
 21
685.426907
 31
0.0
  0
LINE
  5
4AC
330
1F
100
AcDbEntity
  8
0
  6
CONTINUOUS
 62
     3
100
AcDbLine
 10
686.847758
 20
685.426907
 30
0.0
 11
686.489069
 21
684.064651
 31
0.0
  0
LINE
  5
4AD
330
1F
100
AcDbEntity
  8
0
  6
CONTINUOUS
 62
     3
100
AcDbLine
 10
686.489069
 20
684.064651
 30
0.0
 11
686.369202
 21
682.691948
 31
0.0
  0
LINE
  5
4AE
330
1F
100
AcDbEntity
  8
0
  6
CONTINUOUS
 62
     3
100
AcDbLine
 10
749.369202
 20
713.608851
 30
0.0
 11
749.249335
 21
714.981554
 31
0.0
  0
LINE
  5
4AF
330
1F
100
AcDbEntity
  8
0
  6
CONTINUOUS
 62
     3
100
AcDbLine
 10
749.249335
 20
714.981554
 30
0.0
 11
748.890646
 21
716.34381
 31
0.0
  0
LINE
  5
4B0
330
1F
100
AcDbEntity
  8
0
  6
CONTINUOUS
 62
     3
100
AcDbLine
 10
748.890646
 20
716.34381
 30
0.0
 11
748.295866
 21
717.685251
 31
0.0
  0
LINE
  5
4B1
330
1F
100
AcDbEntity
  8
0
  6
CONTINUOUS
 62
     3
100
AcDbLine
 10
748.295866
 20
717.685251
 30
0.0
 11
747.46952
 21
718.995668
 31
0.0
  0
LINE
  5
4B2
330
1F
100
AcDbEntity
  8
0
  6
CONTINUOUS
 62
     3
100
AcDbLine
 10
747.46952
 20
718.995668
 30
0.0
 11
746.417897
 21
720.265088
 31
0.0
  0
LINE
  5
4B3
330
1F
100
AcDbEntity
  8
0
  6
CONTINUOUS
 62
     3
100
AcDbLine
 10
746.417897
 20
720.265088
 30
0.0
 11
745.149002
 21
721.483851
 31
0.0
  0
LINE
  5
4B4
330
1F
100
AcDbEntity
  8
0
  6
CONTINUOUS
 62
     3
100
AcDbLine
 10
745.149002
 20
721.483851
 30
0.0
 11
743.672491
 21
722.64268
 31
0.0
  0
LINE
  5
4B5
330
1F
100
AcDbEntity
  8
0
  6
CONTINUOUS
 62
     3
100
AcDbLine
 10
743.672491
 20
722.64268
 30
0.0
 11
741.999602
 21
723.732756
 31
0.0
  0
LINE
  5
4B6
330
1F
100
AcDbEntity
  8
0
  6
CONTINUOUS
 62
     3
100
AcDbLine
 10
741.999602
 20
723.732756
 30
0.0
 11
740.143066
 21
724.745783
 31
0.0
  0
LINE
  5
4B7
330
1F
100
AcDbEntity
  8
0
  6
CONTINUOUS
 62
     3
100
AcDbLine
 10
740.143066
 20
724.745783
 30
0.0
 11
738.117012
 21
725.674051
 31
0.0
  0
LINE
  5
4B8
330
1F
100
AcDbEntity
  8
0
  6
CONTINUOUS
 62
     3
100
AcDbLine
 10
738.117012
 20
725.674051
 30
0.0
 11
735.93686
 21
726.510496
 31
0.0
  0
LINE
  5
4B9
330
1F
100
AcDbEntity
  8
0
  6
CONTINUOUS
 62
     3
100
AcDbLine
 10
735.93686
 20
726.510496
 30
0.0
 11
733.619202
 21
727.248751
 31
0.0
  0
LINE
  5
4BA
330
1F
100
AcDbEntity
  8
0
  6
CONTINUOUS
 62
     3
100
AcDbLine
 10
733.619202
 20
727.248751
 30
0.0
 11
731.181677
 21
727.883198
 31
0.0
  0
LINE
  5
4BB
330
1F
100
AcDbEntity
  8
0
  6
CONTINUOUS
 62
     3
100
AcDbLine
 10
731.181677
 20
727.883198
 30
0.0
 11
728.642837
 21
728.40901
 31
0.0
  0
LINE
  5
4BC
330
1F
100
AcDbEntity
  8
0
  6
CONTINUOUS
 62
     3
100
AcDbLine
 10
728.642837
 20
728.40901
 30
0.0
 11
726.022002
 21
728.822183
 31
0.0
  0
LINE
  5
4BD
330
1F
100
AcDbEntity
  8
0
  6
CONTINUOUS
 62
     3
100
AcDbLine
 10
726.022002
 20
728.822183
 30
0.0
 11
723.33912
 21
729.119573
 31
0.0
  0
LINE
  5
4BE
330
1F
100
AcDbEntity
  8
0
  6
CONTINUOUS
 62
     3
100
AcDbLine
 10
723.33912
 20
729.119573
 30
0.0
 11
720.614608
 21
729.298917
 31
0.0
  0
LINE
  5
4BF
330
1F
100
AcDbEntity
  8
0
  6
CONTINUOUS
 62
     3
100
AcDbLine
 10
720.614608
 20
729.298917
 30
0.0
 11
717.869202
 21
729.358851
 31
0.0
  0
LINE
  5
4C0
330
1F
100
AcDbEntity
  8
0
  6
CONTINUOUS
 62
     3
100
AcDbLine
 10
717.869202
 20
729.358851
 30
0.0
 11
715.123796
 21
729.298917
 31
0.0
  0
LINE
  5
4C1
330
1F
100
AcDbEntity
  8
0
  6
CONTINUOUS
 62
     3
100
AcDbLine
 10
715.123796
 20
729.298917
 30
0.0
 11
712.399284
 21
729.119573
 31
0.0
  0
LINE
  5
4C2
330
1F
100
AcDbEntity
  8
0
  6
CONTINUOUS
 62
     3
100
AcDbLine
 10
712.399284
 20
729.119573
 30
0.0
 11
709.716402
 21
728.822183
 31
0.0
  0
LINE
  5
4C3
330
1F
100
AcDbEntity
  8
0
  6
CONTINUOUS
 62
     3
100
AcDbLine
 10
709.716402
 20
728.822183
 30
0.0
 11
707.095568
 21
728.40901
 31
0.0
  0
LINE
  5
4C4
330
1F
100
AcDbEntity
  8
0
  6
CONTINUOUS
 62
     3
100
AcDbLine
 10
707.095568
 20
728.40901
 30
0.0
 11
704.556727
 21
727.883198
 31
0.0
  0
LINE
  5
4C5
330
1F
100
AcDbEntity
  8
0
  6
CONTINUOUS
 62
     3
100
AcDbLine
 10
704.556727
 20
727.883198
 30
0.0
 11
702.119202
 21
727.248751
 31
0.0
  0
LINE
  5
4C6
330
1F
100
AcDbEntity
  8
0
  6
CONTINUOUS
 62
     3
100
AcDbLine
 10
702.119202
 20
727.248751
 30
0.0
 11
699.801544
 21
726.510496
 31
0.0
  0
LINE
  5
4C7
330
1F
100
AcDbEntity
  8
0
  6
CONTINUOUS
 62
     3
100
AcDbLine
 10
699.801544
 20
726.510496
 30
0.0
 11
697.621392
 21
725.674051
 31
0.0
  0
LINE
  5
4C8
330
1F
100
AcDbEntity
  8
0
  6
CONTINUOUS
 62
     3
100
AcDbLine
 10
697.621392
 20
725.674051
 30
0.0
 11
695.595338
 21
724.745783
 31
0.0
  0
LINE
  5
4C9
330
1F
100
AcDbEntity
  8
0
  6
CONTINUOUS
 62
     3
100
AcDbLine
 10
695.595338
 20
724.745783
 30
0.0
 11
693.738802
 21
723.732756
 31
0.0
  0
LINE
  5
4CA
330
1F
100
AcDbEntity
  8
0
  6
CONTINUOUS
 62
     3
100
AcDbLine
 10
693.738802
 20
723.732756
 30
0.0
 11
692.065913
 21
722.64268
 31
0.0
  0
LINE
  5
4CB
330
1F
100
AcDbEntity
  8
0
  6
CONTINUOUS
 62
     3
100
AcDbLine
 10
692.065913
 20
722.64268
 30
0.0
 11
690.589402
 21
721.483851
 31
0.0
  0
LINE
  5
4CC
330
1F
100
AcDbEntity
  8
0
  6
CONTINUOUS
 62
     3
100
AcDbLine
 10
690.589402
 20
721.483851
 30
0.0
 11
689.320507
 21
720.265088
 31
0.0
  0
LINE
  5
4CD
330
1F
100
AcDbEntity
  8
0
  6
CONTINUOUS
 62
     3
100
AcDbLine
 10
689.320507
 20
720.265088
 30
0.0
 11
688.268884
 21
718.995668
 31
0.0
  0
LINE
  5
4CE
330
1F
100
AcDbEntity
  8
0
  6
CONTINUOUS
 62
     3
100
AcDbLine
 10
688.268884
 20
718.995668
 30
0.0
 11
687.442538
 21
717.685251
 31
0.0
  0
LINE
  5
4CF
330
1F
100
AcDbEntity
  8
0
  6
CONTINUOUS
 62
     3
100
AcDbLine
 10
687.442538
 20
717.685251
 30
0.0
 11
686.847758
 21
716.34381
 31
0.0
  0
LINE
  5
4D0
330
1F
100
AcDbEntity
  8
0
  6
CONTINUOUS
 62
     3
100
AcDbLine
 10
686.847758
 20
716.34381
 30
0.0
 11
686.489069
 21
714.981554
 31
0.0
  0
LINE
  5
4D1
330
1F
100
AcDbEntity
  8
0
  6
CONTINUOUS
 62
     3
100
AcDbLine
 10
686.489069
 20
714.981554
 30
0.0
 11
686.369202
 21
713.608851
 31
0.0
  0
LINE
  5
4D2
330
1F
100
AcDbEntity
  8
0
  6
CONTINUOUS
 62
     3
100
AcDbLine
 10
749.369202
 20
746.703
 30
0.0
 11
749.249335
 21
748.075703
 31
0.0
  0
LINE
  5
4D3
330
1F
100
AcDbEntity
  8
0
  6
CONTINUOUS
 62
     3
100
AcDbLine
 10
749.249335
 20
748.075703
 30
0.0
 11
748.890646
 21
749.437959
 31
0.0
  0
LINE
  5
4D4
330
1F
100
AcDbEntity
  8
0
  6
CONTINUOUS
 62
     3
100
AcDbLine
 10
748.890646
 20
749.437959
 30
0.0
 11
748.295866
 21
750.7794
 31
0.0
  0
LINE
  5
4D5
330
1F
100
AcDbEntity
  8
0
  6
CONTINUOUS
 62
     3
100
AcDbLine
 10
748.295866
 20
750.7794
 30
0.0
 11
747.46952
 21
752.089817
 31
0.0
  0
LINE
  5
4D6
330
1F
100
AcDbEntity
  8
0
  6
CONTINUOUS
 62
     3
100
AcDbLine
 10
747.46952
 20
752.089817
 30
0.0
 11
746.417897
 21
753.359238
 31
0.0
  0
LINE
  5
4D7
330
1F
100
AcDbEntity
  8
0
  6
CONTINUOUS
 62
     3
100
AcDbLine
 10
746.417897
 20
753.359238
 30
0.0
 11
745.149002
 21
754.578
 31
0.0
  0
LINE
  5
4D8
330
1F
100
AcDbEntity
  8
0
  6
CONTINUOUS
 62
     3
100
AcDbLine
 10
745.149002
 20
754.578
 30
0.0
 11
743.672491
 21
755.736829
 31
0.0
  0
LINE
  5
4D9
330
1F
100
AcDbEntity
  8
0
  6
CONTINUOUS
 62
     3
100
AcDbLine
 10
743.672491
 20
755.736829
 30
0.0
 11
741.999602
 21
756.826905
 31
0.0
  0
LINE
  5
4DA
330
1F
100
AcDbEntity
  8
0
  6
CONTINUOUS
 62
     3
100
AcDbLine
 10
741.999602
 20
756.826905
 30
0.0
 11
740.143066
 21
757.839932
 31
0.0
  0
LINE
  5
4DB
330
1F
100
AcDbEntity
  8
0
  6
CONTINUOUS
 62
     3
100
AcDbLine
 10
740.143066
 20
757.839932
 30
0.0
 11
738.117012
 21
758.7682
 31
0.0
  0
LINE
  5
4DC
330
1F
100
AcDbEntity
  8
0
  6
CONTINUOUS
 62
     3
100
AcDbLine
 10
738.117012
 20
758.7682
 30
0.0
 11
735.93686
 21
759.604645
 31
0.0
  0
LINE
  5
4DD
330
1F
100
AcDbEntity
  8
0
  6
CONTINUOUS
 62
     3
100
AcDbLine
 10
735.93686
 20
759.604645
 30
0.0
 11
733.619202
 21
760.3429
 31
0.0
  0
LINE
  5
4DE
330
1F
100
AcDbEntity
  8
0
  6
CONTINUOUS
 62
     3
100
AcDbLine
 10
733.619202
 20
760.3429
 30
0.0
 11
731.181677
 21
760.977348
 31
0.0
  0
LINE
  5
4DF
330
1F
100
AcDbEntity
  8
0
  6
CONTINUOUS
 62
     3
100
AcDbLine
 10
731.181677
 20
760.977348
 30
0.0
 11
728.642837
 21
761.503159
 31
0.0
  0
LINE
  5
4E0
330
1F
100
AcDbEntity
  8
0
  6
CONTINUOUS
 62
     3
100
AcDbLine
 10
728.642837
 20
761.503159
 30
0.0
 11
726.022002
 21
761.916332
 31
0.0
  0
LINE
  5
4E1
330
1F
100
AcDbEntity
  8
0
  6
CONTINUOUS
 62
     3
100
AcDbLine
 10
726.022002
 20
761.916332
 30
0.0
 11
723.33912
 21
762.213722
 31
0.0
  0
LINE
  5
4E2
330
1F
100
AcDbEntity
  8
0
  6
CONTINUOUS
 62
     3
100
AcDbLine
 10
723.33912
 20
762.213722
 30
0.0
 11
720.614608
 21
762.393066
 31
0.0
  0
LINE
  5
4E3
330
1F
100
AcDbEntity
  8
0
  6
CONTINUOUS
 62
     3
100
AcDbLine
 10
720.614608
 20
762.393066
 30
0.0
 11
717.869202
 21
762.453
 31
0.0
  0
LINE
  5
4E4
330
1F
100
AcDbEntity
  8
0
  6
CONTINUOUS
 62
     3
100
AcDbLine
 10
717.869202
 20
762.453
 30
0.0
 11
715.123796
 21
762.393066
 31
0.0
  0
LINE
  5
4E5
330
1F
100
AcDbEntity
  8
0
  6
CONTINUOUS
 62
     3
100
AcDbLine
 10
715.123796
 20
762.393066
 30
0.0
 11
712.399284
 21
762.213722
 31
0.0
  0
LINE
  5
4E6
330
1F
100
AcDbEntity
  8
0
  6
CONTINUOUS
 62
     3
100
AcDbLine
 10
712.399284
 20
762.213722
 30
0.0
 11
709.716402
 21
761.916332
 31
0.0
  0
LINE
  5
4E7
330
1F
100
AcDbEntity
  8
0
  6
CONTINUOUS
 62
     3
100
AcDbLine
 10
709.716402
 20
761.916332
 30
0.0
 11
707.095568
 21
761.503159
 31
0.0
  0
LINE
  5
4E8
330
1F
100
AcDbEntity
  8
0
  6
CONTINUOUS
 62
     3
100
AcDbLine
 10
707.095568
 20
761.503159
 30
0.0
 11
704.556727
 21
760.977348
 31
0.0
  0
LINE
  5
4E9
330
1F
100
AcDbEntity
  8
0
  6
CONTINUOUS
 62
     3
100
AcDbLine
 10
704.556727
 20
760.977348
 30
0.0
 11
702.119202
 21
760.3429
 31
0.0
  0
LINE
  5
4EA
330
1F
100
AcDbEntity
  8
0
  6
CONTINUOUS
 62
     3
100
AcDbLine
 10
702.119202
 20
760.3429
 30
0.0
 11
699.801544
 21
759.604645
 31
0.0
  0
LINE
  5
4EB
330
1F
100
AcDbEntity
  8
0
  6
CONTINUOUS
 62
     3
100
AcDbLine
 10
699.801544
 20
759.604645
 30
0.0
 11
697.621392
 21
758.7682
 31
0.0
  0
LINE
  5
4EC
330
1F
100
AcDbEntity
  8
0
  6
CONTINUOUS
 62
     3
100
AcDbLine
 10
697.621392
 20
758.7682
 30
0.0
 11
695.595338
 21
757.839932
 31
0.0
  0
LINE
  5
4ED
330
1F
100
AcDbEntity
  8
0
  6
CONTINUOUS
 62
     3
100
AcDbLine
 10
695.595338
 20
757.839932
 30
0.0
 11
693.738802
 21
756.826905
 31
0.0
  0
LINE
  5
4EE
330
1F
100
AcDbEntity
  8
0
  6
CONTINUOUS
 62
     3
100
AcDbLine
 10
693.738802
 20
756.826905
 30
0.0
 11
692.065913
 21
755.736829
 31
0.0
  0
LINE
  5
4EF
330
1F
100
AcDbEntity
  8
0
  6
CONTINUOUS
 62
     3
100
AcDbLine
 10
692.065913
 20
755.736829
 30
0.0
 11
690.589402
 21
754.578
 31
0.0
  0
LINE
  5
4F0
330
1F
100
AcDbEntity
  8
0
  6
CONTINUOUS
 62
     3
100
AcDbLine
 10
690.589402
 20
754.578
 30
0.0
 11
689.320507
 21
753.359238
 31
0.0
  0
LINE
  5
4F1
330
1F
100
AcDbEntity
  8
0
  6
CONTINUOUS
 62
     3
100
AcDbLine
 10
689.320507
 20
753.359238
 30
0.0
 11
688.268884
 21
752.089817
 31
0.0
  0
LINE
  5
4F2
330
1F
100
AcDbEntity
  8
0
  6
CONTINUOUS
 62
     3
100
AcDbLine
 10
688.268884
 20
752.089817
 30
0.0
 11
687.442538
 21
750.7794
 31
0.0
  0
LINE
  5
4F3
330
1F
100
AcDbEntity
  8
0
  6
CONTINUOUS
 62
     3
100
AcDbLine
 10
687.442538
 20
750.7794
 30
0.0
 11
686.847758
 21
749.437959
 31
0.0
  0
LINE
  5
4F4
330
1F
100
AcDbEntity
  8
0
  6
CONTINUOUS
 62
     3
100
AcDbLine
 10
686.847758
 20
749.437959
 30
0.0
 11
686.489069
 21
748.075703
 31
0.0
  0
LINE
  5
4F5
330
1F
100
AcDbEntity
  8
0
  6
CONTINUOUS
 62
     3
100
AcDbLine
 10
686.489069
 20
748.075703
 30
0.0
 11
686.369202
 21
746.703
 31
0.0
  0
LINE
  5
4F6
330
1F
100
AcDbEntity
  8
0
  6
CONTINUOUS
 62
     3
100
AcDbLine
 10
747.869202
 20
665.273975
 30
0.0
 11
747.755043
 21
666.581311
 31
0.0
  0
LINE
  5
4F7
330
1F
100
AcDbEntity
  8
0
  6
CONTINUOUS
 62
     3
100
AcDbLine
 10
747.755043
 20
666.581311
 30
0.0
 11
747.413435
 21
667.878698
 31
0.0
  0
LINE
  5
4F8
330
1F
100
AcDbEntity
  8
0
  6
CONTINUOUS
 62
     3
100
AcDbLine
 10
747.413435
 20
667.878698
 30
0.0
 11
746.846977
 21
669.156261
 31
0.0
  0
LINE
  5
4F9
330
1F
100
AcDbEntity
  8
0
  6
CONTINUOUS
 62
     3
100
AcDbLine
 10
746.846977
 20
669.156261
 30
0.0
 11
746.059981
 21
670.404277
 31
0.0
  0
LINE
  5
4FA
330
1F
100
AcDbEntity
  8
0
  6
CONTINUOUS
 62
     3
100
AcDbLine
 10
746.059981
 20
670.404277
 30
0.0
 11
745.058436
 21
671.613249
 31
0.0
  0
LINE
  5
4FB
330
1F
100
AcDbEntity
  8
0
  6
CONTINUOUS
 62
     3
100
AcDbLine
 10
745.058436
 20
671.613249
 30
0.0
 11
743.849964
 21
672.773975
 31
0.0
  0
LINE
  5
4FC
330
1F
100
AcDbEntity
  8
0
  6
CONTINUOUS
 62
     3
100
AcDbLine
 10
743.849964
 20
672.773975
 30
0.0
 11
742.443763
 21
673.877622
 31
0.0
  0
LINE
  5
4FD
330
1F
100
AcDbEntity
  8
0
  6
CONTINUOUS
 62
     3
100
AcDbLine
 10
742.443763
 20
673.877622
 30
0.0
 11
740.850535
 21
674.915789
 31
0.0
  0
LINE
  5
4FE
330
1F
100
AcDbEntity
  8
0
  6
CONTINUOUS
 62
     3
100
AcDbLine
 10
740.850535
 20
674.915789
 30
0.0
 11
739.082405
 21
675.880577
 31
0.0
  0
LINE
  5
4FF
330
1F
100
AcDbEntity
  8
0
  6
CONTINUOUS
 62
     3
100
AcDbLine
 10
739.082405
 20
675.880577
 30
0.0
 11
737.15283
 21
676.764642
 31
0.0
  0
LINE
  5
500
330
1F
100
AcDbEntity
  8
0
  6
CONTINUOUS
 62
     3
100
AcDbLine
 10
737.15283
 20
676.764642
 30
0.0
 11
735.076495
 21
677.561256
 31
0.0
  0
LINE
  5
501
330
1F
100
AcDbEntity
  8
0
  6
CONTINUOUS
 62
     3
100
AcDbLine
 10
735.076495
 20
677.561256
 30
0.0
 11
732.869202
 21
678.264356
 31
0.0
  0
LINE
  5
502
330
1F
100
AcDbEntity
  8
0
  6
CONTINUOUS
 62
     3
100
AcDbLine
 10
732.869202
 20
678.264356
 30
0.0
 11
730.54775
 21
678.868592
 31
0.0
  0
LINE
  5
503
330
1F
100
AcDbEntity
  8
0
  6
CONTINUOUS
 62
     3
100
AcDbLine
 10
730.54775
 20
678.868592
 30
0.0
 11
728.129806
 21
679.369364
 31
0.0
  0
LINE
  5
504
330
1F
100
AcDbEntity
  8
0
  6
CONTINUOUS
 62
     3
100
AcDbLine
 10
728.129806
 20
679.369364
 30
0.0
 11
725.633773
 21
679.762862
 31
0.0
  0
LINE
  5
505
330
1F
100
AcDbEntity
  8
0
  6
CONTINUOUS
 62
     3
100
AcDbLine
 10
725.633773
 20
679.762862
 30
0.0
 11
723.078647
 21
680.046091
 31
0.0
  0
LINE
  5
506
330
1F
100
AcDbEntity
  8
0
  6
CONTINUOUS
 62
     3
100
AcDbLine
 10
723.078647
 20
680.046091
 30
0.0
 11
720.483874
 21
680.216895
 31
0.0
  0
LINE
  5
507
330
1F
100
AcDbEntity
  8
0
  6
CONTINUOUS
 62
     3
100
AcDbLine
 10
720.483874
 20
680.216895
 30
0.0
 11
717.869202
 21
680.273975
 31
0.0
  0
LINE
  5
508
330
1F
100
AcDbEntity
  8
0
  6
CONTINUOUS
 62
     3
100
AcDbLine
 10
717.869202
 20
680.273975
 30
0.0
 11
715.25453
 21
680.216895
 31
0.0
  0
LINE
  5
509
330
1F
100
AcDbEntity
  8
0
  6
CONTINUOUS
 62
     3
100
AcDbLine
 10
715.25453
 20
680.216895
 30
0.0
 11
712.659757
 21
680.046091
 31
0.0
  0
LINE
  5
50A
330
1F
100
AcDbEntity
  8
0
  6
CONTINUOUS
 62
     3
100
AcDbLine
 10
712.659757
 20
680.046091
 30
0.0
 11
710.104631
 21
679.762862
 31
0.0
  0
LINE
  5
50B
330
1F
100
AcDbEntity
  8
0
  6
CONTINUOUS
 62
     3
100
AcDbLine
 10
710.104631
 20
679.762862
 30
0.0
 11
707.608598
 21
679.369364
 31
0.0
  0
LINE
  5
50C
330
1F
100
AcDbEntity
  8
0
  6
CONTINUOUS
 62
     3
100
AcDbLine
 10
707.608598
 20
679.369364
 30
0.0
 11
705.190654
 21
678.868592
 31
0.0
  0
LINE
  5
50D
330
1F
100
AcDbEntity
  8
0
  6
CONTINUOUS
 62
     3
100
AcDbLine
 10
705.190654
 20
678.868592
 30
0.0
 11
702.869202
 21
678.264356
 31
0.0
  0
LINE
  5
50E
330
1F
100
AcDbEntity
  8
0
  6
CONTINUOUS
 62
     3
100
AcDbLine
 10
702.869202
 20
678.264356
 30
0.0
 11
700.661909
 21
677.561256
 31
0.0
  0
LINE
  5
50F
330
1F
100
AcDbEntity
  8
0
  6
CONTINUOUS
 62
     3
100
AcDbLine
 10
700.661909
 20
677.561256
 30
0.0
 11
698.585574
 21
676.764642
 31
0.0
  0
LINE
  5
510
330
1F
100
AcDbEntity
  8
0
  6
CONTINUOUS
 62
     3
100
AcDbLine
 10
698.585574
 20
676.764642
 30
0.0
 11
696.655999
 21
675.880577
 31
0.0
  0
LINE
  5
511
330
1F
100
AcDbEntity
  8
0
  6
CONTINUOUS
 62
     3
100
AcDbLine
 10
696.655999
 20
675.880577
 30
0.0
 11
694.887869
 21
674.915789
 31
0.0
  0
LINE
  5
512
330
1F
100
AcDbEntity
  8
0
  6
CONTINUOUS
 62
     3
100
AcDbLine
 10
694.887869
 20
674.915789
 30
0.0
 11
693.294641
 21
673.877622
 31
0.0
  0
LINE
  5
513
330
1F
100
AcDbEntity
  8
0
  6
CONTINUOUS
 62
     3
100
AcDbLine
 10
693.294641
 20
673.877622
 30
0.0
 11
691.88844
 21
672.773975
 31
0.0
  0
LINE
  5
514
330
1F
100
AcDbEntity
  8
0
  6
CONTINUOUS
 62
     3
100
AcDbLine
 10
691.88844
 20
672.773975
 30
0.0
 11
690.679968
 21
671.613249
 31
0.0
  0
LINE
  5
515
330
1F
100
AcDbEntity
  8
0
  6
CONTINUOUS
 62
     3
100
AcDbLine
 10
690.679968
 20
671.613249
 30
0.0
 11
689.678423
 21
670.404277
 31
0.0
  0
LINE
  5
516
330
1F
100
AcDbEntity
  8
0
  6
CONTINUOUS
 62
     3
100
AcDbLine
 10
689.678423
 20
670.404277
 30
0.0
 11
688.891427
 21
669.156261
 31
0.0
  0
LINE
  5
517
330
1F
100
AcDbEntity
  8
0
  6
CONTINUOUS
 62
     3
100
AcDbLine
 10
688.891427
 20
669.156261
 30
0.0
 11
688.324969
 21
667.878698
 31
0.0
  0
LINE
  5
518
330
1F
100
AcDbEntity
  8
0
  6
CONTINUOUS
 62
     3
100
AcDbLine
 10
688.324969
 20
667.878698
 30
0.0
 11
687.983361
 21
666.581311
 31
0.0
  0
LINE
  5
519
330
1F
100
AcDbEntity
  8
0
  6
CONTINUOUS
 62
     3
100
AcDbLine
 10
687.983361
 20
666.581311
 30
0.0
 11
687.869202
 21
665.273975
 31
0.0
  0
LINE
  5
51A
330
1F
100
AcDbEntity
  8
0
  6
CONTINUOUS
 62
     3
100
AcDbLine
 10
749.369202
 20
642.63061
 30
0.0
 11
749.369202
 21
615.63276
 31
0.0
  0
LINE
  5
51B
330
1F
100
AcDbEntity
  8
0
  6
CONTINUOUS
 62
     3
100
AcDbLine
 10
686.369202
 20
642.63061
 30
0.0
 11
686.369202
 21
615.63276
 31
0.0
  0
LINE
  5
51C
330
1F
100
AcDbEntity
  8
0
  6
CONTINUOUS
 62
     3
100
AcDbLine
 10
747.869202
 20
665.273975
 30
0.0
 11
747.869202
 21
647.383612
 31
0.0
  0
LINE
  5
51D
330
1F
100
AcDbEntity
  8
0
  6
CONTINUOUS
 62
     3
100
AcDbLine
 10
687.869202
 20
665.273975
 30
0.0
 11
687.869202
 21
647.383612
 31
0.0
  0
LINE
  5
51E
330
1F
100
AcDbEntity
  8
0
  6
CONTINUOUS
 62
     3
100
AcDbLine
 10
749.369202
 20
665.273975
 30
0.0
 11
749.249335
 21
666.646678
 31
0.0
  0
LINE
  5
51F
330
1F
100
AcDbEntity
  8
0
  6
CONTINUOUS
 62
     3
100
AcDbLine
 10
749.249335
 20
666.646678
 30
0.0
 11
748.890646
 21
668.008934
 31
0.0
  0
LINE
  5
520
330
1F
100
AcDbEntity
  8
0
  6
CONTINUOUS
 62
     3
100
AcDbLine
 10
748.890646
 20
668.008934
 30
0.0
 11
748.295866
 21
669.350375
 31
0.0
  0
LINE
  5
521
330
1F
100
AcDbEntity
  8
0
  6
CONTINUOUS
 62
     3
100
AcDbLine
 10
748.295866
 20
669.350375
 30
0.0
 11
747.46952
 21
670.660792
 31
0.0
  0
LINE
  5
522
330
1F
100
AcDbEntity
  8
0
  6
CONTINUOUS
 62
     3
100
AcDbLine
 10
747.46952
 20
670.660792
 30
0.0
 11
746.417897
 21
671.930213
 31
0.0
  0
LINE
  5
523
330
1F
100
AcDbEntity
  8
0
  6
CONTINUOUS
 62
     3
100
AcDbLine
 10
746.417897
 20
671.930213
 30
0.0
 11
745.149002
 21
673.148975
 31
0.0
  0
LINE
  5
524
330
1F
100
AcDbEntity
  8
0
  6
CONTINUOUS
 62
     3
100
AcDbLine
 10
745.149002
 20
673.148975
 30
0.0
 11
743.672491
 21
674.307804
 31
0.0
  0
LINE
  5
525
330
1F
100
AcDbEntity
  8
0
  6
CONTINUOUS
 62
     3
100
AcDbLine
 10
743.672491
 20
674.307804
 30
0.0
 11
741.999602
 21
675.39788
 31
0.0
  0
LINE
  5
526
330
1F
100
AcDbEntity
  8
0
  6
CONTINUOUS
 62
     3
100
AcDbLine
 10
741.999602
 20
675.39788
 30
0.0
 11
740.143066
 21
676.410907
 31
0.0
  0
LINE
  5
527
330
1F
100
AcDbEntity
  8
0
  6
CONTINUOUS
 62
     3
100
AcDbLine
 10
740.143066
 20
676.410907
 30
0.0
 11
738.117012
 21
677.339175
 31
0.0
  0
LINE
  5
528
330
1F
100
AcDbEntity
  8
0
  6
CONTINUOUS
 62
     3
100
AcDbLine
 10
738.117012
 20
677.339175
 30
0.0
 11
735.93686
 21
678.17562
 31
0.0
  0
LINE
  5
529
330
1F
100
AcDbEntity
  8
0
  6
CONTINUOUS
 62
     3
100
AcDbLine
 10
735.93686
 20
678.17562
 30
0.0
 11
733.619202
 21
678.913875
 31
0.0
  0
LINE
  5
52A
330
1F
100
AcDbEntity
  8
0
  6
CONTINUOUS
 62
     3
100
AcDbLine
 10
733.619202
 20
678.913875
 30
0.0
 11
731.181677
 21
679.548323
 31
0.0
  0
LINE
  5
52B
330
1F
100
AcDbEntity
  8
0
  6
CONTINUOUS
 62
     3
100
AcDbLine
 10
731.181677
 20
679.548323
 30
0.0
 11
728.642837
 21
680.074134
 31
0.0
  0
LINE
  5
52C
330
1F
100
AcDbEntity
  8
0
  6
CONTINUOUS
 62
     3
100
AcDbLine
 10
728.642837
 20
680.074134
 30
0.0
 11
726.022002
 21
680.487307
 31
0.0
  0
LINE
  5
52D
330
1F
100
AcDbEntity
  8
0
  6
CONTINUOUS
 62
     3
100
AcDbLine
 10
726.022002
 20
680.487307
 30
0.0
 11
723.33912
 21
680.784697
 31
0.0
  0
LINE
  5
52E
330
1F
100
AcDbEntity
  8
0
  6
CONTINUOUS
 62
     3
100
AcDbLine
 10
723.33912
 20
680.784697
 30
0.0
 11
720.614608
 21
680.964042
 31
0.0
  0
LINE
  5
52F
330
1F
100
AcDbEntity
  8
0
  6
CONTINUOUS
 62
     3
100
AcDbLine
 10
720.614608
 20
680.964042
 30
0.0
 11
717.869202
 21
681.023975
 31
0.0
  0
LINE
  5
530
330
1F
100
AcDbEntity
  8
0
  6
CONTINUOUS
 62
     3
100
AcDbLine
 10
717.869202
 20
681.023975
 30
0.0
 11
715.123796
 21
680.964042
 31
0.0
  0
LINE
  5
531
330
1F
100
AcDbEntity
  8
0
  6
CONTINUOUS
 62
     3
100
AcDbLine
 10
715.123796
 20
680.964042
 30
0.0
 11
712.399284
 21
680.784697
 31
0.0
  0
LINE
  5
532
330
1F
100
AcDbEntity
  8
0
  6
CONTINUOUS
 62
     3
100
AcDbLine
 10
712.399284
 20
680.784697
 30
0.0
 11
709.716402
 21
680.487307
 31
0.0
  0
LINE
  5
533
330
1F
100
AcDbEntity
  8
0
  6
CONTINUOUS
 62
     3
100
AcDbLine
 10
709.716402
 20
680.487307
 30
0.0
 11
707.095568
 21
680.074134
 31
0.0
  0
LINE
  5
534
330
1F
100
AcDbEntity
  8
0
  6
CONTINUOUS
 62
     3
100
AcDbLine
 10
707.095568
 20
680.074134
 30
0.0
 11
704.556727
 21
679.548323
 31
0.0
  0
LINE
  5
535
330
1F
100
AcDbEntity
  8
0
  6
CONTINUOUS
 62
     3
100
AcDbLine
 10
704.556727
 20
679.548323
 30
0.0
 11
702.119202
 21
678.913875
 31
0.0
  0
LINE
  5
536
330
1F
100
AcDbEntity
  8
0
  6
CONTINUOUS
 62
     3
100
AcDbLine
 10
702.119202
 20
678.913875
 30
0.0
 11
699.801544
 21
678.17562
 31
0.0
  0
LINE
  5
537
330
1F
100
AcDbEntity
  8
0
  6
CONTINUOUS
 62
     3
100
AcDbLine
 10
699.801544
 20
678.17562
 30
0.0
 11
697.621392
 21
677.339175
 31
0.0
  0
LINE
  5
538
330
1F
100
AcDbEntity
  8
0
  6
CONTINUOUS
 62
     3
100
AcDbLine
 10
697.621392
 20
677.339175
 30
0.0
 11
695.595338
 21
676.410907
 31
0.0
  0
LINE
  5
539
330
1F
100
AcDbEntity
  8
0
  6
CONTINUOUS
 62
     3
100
AcDbLine
 10
695.595338
 20
676.410907
 30
0.0
 11
693.738802
 21
675.39788
 31
0.0
  0
LINE
  5
53A
330
1F
100
AcDbEntity
  8
0
  6
CONTINUOUS
 62
     3
100
AcDbLine
 10
693.738802
 20
675.39788
 30
0.0
 11
692.065913
 21
674.307804
 31
0.0
  0
LINE
  5
53B
330
1F
100
AcDbEntity
  8
0
  6
CONTINUOUS
 62
     3
100
AcDbLine
 10
692.065913
 20
674.307804
 30
0.0
 11
690.589402
 21
673.148975
 31
0.0
  0
LINE
  5
53C
330
1F
100
AcDbEntity
  8
0
  6
CONTINUOUS
 62
     3
100
AcDbLine
 10
690.589402
 20
673.148975
 30
0.0
 11
689.320507
 21
671.930213
 31
0.0
  0
LINE
  5
53D
330
1F
100
AcDbEntity
  8
0
  6
CONTINUOUS
 62
     3
100
AcDbLine
 10
689.320507
 20
671.930213
 30
0.0
 11
688.268884
 21
670.660792
 31
0.0
  0
LINE
  5
53E
330
1F
100
AcDbEntity
  8
0
  6
CONTINUOUS
 62
     3
100
AcDbLine
 10
688.268884
 20
670.660792
 30
0.0
 11
687.442538
 21
669.350375
 31
0.0
  0
LINE
  5
53F
330
1F
100
AcDbEntity
  8
0
  6
CONTINUOUS
 62
     3
100
AcDbLine
 10
687.442538
 20
669.350375
 30
0.0
 11
686.847758
 21
668.008934
 31
0.0
  0
LINE
  5
540
330
1F
100
AcDbEntity
  8
0
  6
CONTINUOUS
 62
     3
100
AcDbLine
 10
686.847758
 20
668.008934
 30
0.0
 11
686.489069
 21
666.646678
 31
0.0
  0
LINE
  5
541
330
1F
100
AcDbEntity
  8
0
  6
CONTINUOUS
 62
     3
100
AcDbLine
 10
686.489069
 20
666.646678
 30
0.0
 11
686.369202
 21
665.273975
 31
0.0
  0
LINE
  5
542
330
1F
100
AcDbEntity
  8
0
  6
CONTINUOUS
 62
     3
100
AcDbLine
 10
749.369202
 20
746.703
 30
0.0
 11
749.369202
 21
665.273975
 31
0.0
  0
LINE
  5
543
330
1F
100
AcDbEntity
  8
0
  6
CONTINUOUS
 62
     3
100
AcDbLine
 10
686.369202
 20
746.703
 30
0.0
 11
686.369202
 21
665.273975
 31
0.0
  0
LINE
  5
544
330
1F
100
AcDbEntity
  8
0
  6
CONTINUOUS
 62
     3
100
AcDbLine
 10
739.869202
 20
592.989517
 30
0.0
 11
739.785485
 21
593.94823
 31
0.0
  0
LINE
  5
545
330
1F
100
AcDbEntity
  8
0
  6
CONTINUOUS
 62
     3
100
AcDbLine
 10
739.785485
 20
593.94823
 30
0.0
 11
739.534973
 21
594.899647
 31
0.0
  0
LINE
  5
546
330
1F
100
AcDbEntity
  8
0
  6
CONTINUOUS
 62
     3
100
AcDbLine
 10
739.534973
 20
594.899647
 30
0.0
 11
739.11957
 21
595.836526
 31
0.0
  0
LINE
  5
547
330
1F
100
AcDbEntity
  8
0
  6
CONTINUOUS
 62
     3
100
AcDbLine
 10
739.11957
 20
595.836526
 30
0.0
 11
738.54244
 21
596.751738
 31
0.0
  0
LINE
  5
548
330
1F
100
AcDbEntity
  8
0
  6
CONTINUOUS
 62
     3
100
AcDbLine
 10
738.54244
 20
596.751738
 30
0.0
 11
737.807973
 21
597.638317
 31
0.0
  0
LINE
  5
549
330
1F
100
AcDbEntity
  8
0
  6
CONTINUOUS
 62
     3
100
AcDbLine
 10
737.807973
 20
597.638317
 30
0.0
 11
736.921761
 21
598.489517
 31
0.0
  0
LINE
  5
54A
330
1F
100
AcDbEntity
  8
0
  6
CONTINUOUS
 62
     3
100
AcDbLine
 10
736.921761
 20
598.489517
 30
0.0
 11
735.890547
 21
599.298857
 31
0.0
  0
LINE
  5
54B
330
1F
100
AcDbEntity
  8
0
  6
CONTINUOUS
 62
     3
100
AcDbLine
 10
735.890547
 20
599.298857
 30
0.0
 11
734.72218
 21
600.06018
 31
0.0
  0
LINE
  5
54C
330
1F
100
AcDbEntity
  8
0
  6
CONTINUOUS
 62
     3
100
AcDbLine
 10
734.72218
 20
600.06018
 30
0.0
 11
733.425551
 21
600.767691
 31
0.0
  0
LINE
  5
54D
330
1F
100
AcDbEntity
  8
0
  6
CONTINUOUS
 62
     3
100
AcDbLine
 10
733.425551
 20
600.767691
 30
0.0
 11
732.010529
 21
601.416005
 31
0.0
  0
LINE
  5
54E
330
1F
100
AcDbEntity
  8
0
  6
CONTINUOUS
 62
     3
100
AcDbLine
 10
732.010529
 20
601.416005
 30
0.0
 11
730.487884
 21
602.000189
 31
0.0
  0
LINE
  5
54F
330
1F
100
AcDbEntity
  8
0
  6
CONTINUOUS
 62
     3
100
AcDbLine
 10
730.487884
 20
602.000189
 30
0.0
 11
728.869202
 21
602.515796
 31
0.0
  0
LINE
  5
550
330
1F
100
AcDbEntity
  8
0
  6
CONTINUOUS
 62
     3
100
AcDbLine
 10
728.869202
 20
602.515796
 30
0.0
 11
727.166804
 21
602.958902
 31
0.0
  0
LINE
  5
551
330
1F
100
AcDbEntity
  8
0
  6
CONTINUOUS
 62
     3
100
AcDbLine
 10
727.166804
 20
602.958902
 30
0.0
 11
725.393645
 21
603.326135
 31
0.0
  0
LINE
  5
552
330
1F
100
AcDbEntity
  8
0
  6
CONTINUOUS
 62
     3
100
AcDbLine
 10
725.393645
 20
603.326135
 30
0.0
 11
723.563221
 21
603.614701
 31
0.0
  0
LINE
  5
553
330
1F
100
AcDbEntity
  8
0
  6
CONTINUOUS
 62
     3
100
AcDbLine
 10
723.563221
 20
603.614701
 30
0.0
 11
721.689462
 21
603.822402
 31
0.0
  0
LINE
  5
554
330
1F
100
AcDbEntity
  8
0
  6
CONTINUOUS
 62
     3
100
AcDbLine
 10
721.689462
 20
603.822402
 30
0.0
 11
719.786628
 21
603.947658
 31
0.0
  0
LINE
  5
555
330
1F
100
AcDbEntity
  8
0
  6
CONTINUOUS
 62
     3
100
AcDbLine
 10
719.786628
 20
603.947658
 30
0.0
 11
717.869202
 21
603.989517
 31
0.0
  0
LINE
  5
556
330
1F
100
AcDbEntity
  8
0
  6
CONTINUOUS
 62
     3
100
AcDbLine
 10
717.869202
 20
603.989517
 30
0.0
 11
715.951776
 21
603.947658
 31
0.0
  0
LINE
  5
557
330
1F
100
AcDbEntity
  8
0
  6
CONTINUOUS
 62
     3
100
AcDbLine
 10
715.951776
 20
603.947658
 30
0.0
 11
714.048942
 21
603.822402
 31
0.0
  0
LINE
  5
558
330
1F
100
AcDbEntity
  8
0
  6
CONTINUOUS
 62
     3
100
AcDbLine
 10
714.048942
 20
603.822402
 30
0.0
 11
712.175183
 21
603.614701
 31
0.0
  0
LINE
  5
559
330
1F
100
AcDbEntity
  8
0
  6
CONTINUOUS
 62
     3
100
AcDbLine
 10
712.175183
 20
603.614701
 30
0.0
 11
710.344759
 21
603.326135
 31
0.0
  0
LINE
  5
55A
330
1F
100
AcDbEntity
  8
0
  6
CONTINUOUS
 62
     3
100
AcDbLine
 10
710.344759
 20
603.326135
 30
0.0
 11
708.5716
 21
602.958902
 31
0.0
  0
LINE
  5
55B
330
1F
100
AcDbEntity
  8
0
  6
CONTINUOUS
 62
     3
100
AcDbLine
 10
708.5716
 20
602.958902
 30
0.0
 11
706.869202
 21
602.515796
 31
0.0
  0
LINE
  5
55C
330
1F
100
AcDbEntity
  8
0
  6
CONTINUOUS
 62
     3
100
AcDbLine
 10
706.869202
 20
602.515796
 30
0.0
 11
705.25052
 21
602.000189
 31
0.0
  0
LINE
  5
55D
330
1F
100
AcDbEntity
  8
0
  6
CONTINUOUS
 62
     3
100
AcDbLine
 10
705.25052
 20
602.000189
 30
0.0
 11
703.727875
 21
601.416005
 31
0.0
  0
LINE
  5
55E
330
1F
100
AcDbEntity
  8
0
  6
CONTINUOUS
 62
     3
100
AcDbLine
 10
703.727875
 20
601.416005
 30
0.0
 11
702.312853
 21
600.767691
 31
0.0
  0
LINE
  5
55F
330
1F
100
AcDbEntity
  8
0
  6
CONTINUOUS
 62
     3
100
AcDbLine
 10
702.312853
 20
600.767691
 30
0.0
 11
701.016224
 21
600.06018
 31
0.0
  0
LINE
  5
560
330
1F
100
AcDbEntity
  8
0
  6
CONTINUOUS
 62
     3
100
AcDbLine
 10
701.016224
 20
600.06018
 30
0.0
 11
699.847857
 21
599.298857
 31
0.0
  0
LINE
  5
561
330
1F
100
AcDbEntity
  8
0
  6
CONTINUOUS
 62
     3
100
AcDbLine
 10
699.847857
 20
599.298857
 30
0.0
 11
698.816643
 21
598.489517
 31
0.0
  0
LINE
  5
562
330
1F
100
AcDbEntity
  8
0
  6
CONTINUOUS
 62
     3
100
AcDbLine
 10
698.816643
 20
598.489517
 30
0.0
 11
697.930431
 21
597.638317
 31
0.0
  0
LINE
  5
563
330
1F
100
AcDbEntity
  8
0
  6
CONTINUOUS
 62
     3
100
AcDbLine
 10
697.930431
 20
597.638317
 30
0.0
 11
697.195964
 21
596.751738
 31
0.0
  0
LINE
  5
564
330
1F
100
AcDbEntity
  8
0
  6
CONTINUOUS
 62
     3
100
AcDbLine
 10
697.195964
 20
596.751738
 30
0.0
 11
696.618834
 21
595.836526
 31
0.0
  0
LINE
  5
565
330
1F
100
AcDbEntity
  8
0
  6
CONTINUOUS
 62
     3
100
AcDbLine
 10
696.618834
 20
595.836526
 30
0.0
 11
696.203431
 21
594.899647
 31
0.0
  0
LINE
  5
566
330
1F
100
AcDbEntity
  8
0
  6
CONTINUOUS
 62
     3
100
AcDbLine
 10
696.203431
 20
594.899647
 30
0.0
 11
695.952919
 21
593.94823
 31
0.0
  0
LINE
  5
567
330
1F
100
AcDbEntity
  8
0
  6
CONTINUOUS
 62
     3
100
AcDbLine
 10
695.952919
 20
593.94823
 30
0.0
 11
695.869202
 21
592.989517
 31
0.0
  0
LINE
  5
568
330
1F
100
AcDbEntity
  8
0
  6
CONTINUOUS
 62
     3
100
AcDbLine
 10
695.869202
 20
592.989517
 30
0.0
 11
695.952919
 21
592.030803
 31
0.0
  0
LINE
  5
569
330
1F
100
AcDbEntity
  8
0
  6
CONTINUOUS
 62
     3
100
AcDbLine
 10
695.952919
 20
592.030803
 30
0.0
 11
696.203431
 21
591.079387
 31
0.0
  0
LINE
  5
56A
330
1F
100
AcDbEntity
  8
0
  6
CONTINUOUS
 62
     3
100
AcDbLine
 10
696.203431
 20
591.079387
 30
0.0
 11
696.618834
 21
590.142507
 31
0.0
  0
LINE
  5
56B
330
1F
100
AcDbEntity
  8
0
  6
CONTINUOUS
 62
     3
100
AcDbLine
 10
696.618834
 20
590.142507
 30
0.0
 11
697.195964
 21
589.227295
 31
0.0
  0
LINE
  5
56C
330
1F
100
AcDbEntity
  8
0
  6
CONTINUOUS
 62
     3
100
AcDbLine
 10
697.195964
 20
589.227295
 30
0.0
 11
697.930431
 21
588.340716
 31
0.0
  0
LINE
  5
56D
330
1F
100
AcDbEntity
  8
0
  6
CONTINUOUS
 62
     3
100
AcDbLine
 10
697.930431
 20
588.340716
 30
0.0
 11
698.816643
 21
587.489517
 31
0.0
  0
LINE
  5
56E
330
1F
100
AcDbEntity
  8
0
  6
CONTINUOUS
 62
     3
100
AcDbLine
 10
698.816643
 20
587.489517
 30
0.0
 11
699.847857
 21
586.680176
 31
0.0
  0
LINE
  5
56F
330
1F
100
AcDbEntity
  8
0
  6
CONTINUOUS
 62
     3
100
AcDbLine
 10
699.847857
 20
586.680176
 30
0.0
 11
701.016224
 21
585.918853
 31
0.0
  0
LINE
  5
570
330
1F
100
AcDbEntity
  8
0
  6
CONTINUOUS
 62
     3
100
AcDbLine
 10
701.016224
 20
585.918853
 30
0.0
 11
702.312853
 21
585.211342
 31
0.0
  0
LINE
  5
571
330
1F
100
AcDbEntity
  8
0
  6
CONTINUOUS
 62
     3
100
AcDbLine
 10
702.312853
 20
585.211342
 30
0.0
 11
703.727875
 21
584.563028
 31
0.0
  0
LINE
  5
572
330
1F
100
AcDbEntity
  8
0
  6
CONTINUOUS
 62
     3
100
AcDbLine
 10
703.727875
 20
584.563028
 30
0.0
 11
705.25052
 21
583.978844
 31
0.0
  0
LINE
  5
573
330
1F
100
AcDbEntity
  8
0
  6
CONTINUOUS
 62
     3
100
AcDbLine
 10
705.25052
 20
583.978844
 30
0.0
 11
706.869202
 21
583.463237
 31
0.0
  0
LINE
  5
574
330
1F
100
AcDbEntity
  8
0
  6
CONTINUOUS
 62
     3
100
AcDbLine
 10
706.869202
 20
583.463237
 30
0.0
 11
708.5716
 21
583.020131
 31
0.0
  0
LINE
  5
575
330
1F
100
AcDbEntity
  8
0
  6
CONTINUOUS
 62
     3
100
AcDbLine
 10
708.5716
 20
583.020131
 30
0.0
 11
710.344759
 21
582.652898
 31
0.0
  0
LINE
  5
576
330
1F
100
AcDbEntity
  8
0
  6
CONTINUOUS
 62
     3
100
AcDbLine
 10
725.393645
 20
582.652898
 30
0.0
 11
727.166804
 21
583.020131
 31
0.0
  0
LINE
  5
577
330
1F
100
AcDbEntity
  8
0
  6
CONTINUOUS
 62
     3
100
AcDbLine
 10
727.166804
 20
583.020131
 30
0.0
 11
728.869202
 21
583.463237
 31
0.0
  0
LINE
  5
578
330
1F
100
AcDbEntity
  8
0
  6
CONTINUOUS
 62
     3
100
AcDbLine
 10
728.869202
 20
583.463237
 30
0.0
 11
730.487884
 21
583.978844
 31
0.0
  0
LINE
  5
579
330
1F
100
AcDbEntity
  8
0
  6
CONTINUOUS
 62
     3
100
AcDbLine
 10
730.487884
 20
583.978844
 30
0.0
 11
732.010529
 21
584.563028
 31
0.0
  0
LINE
  5
57A
330
1F
100
AcDbEntity
  8
0
  6
CONTINUOUS
 62
     3
100
AcDbLine
 10
732.010529
 20
584.563028
 30
0.0
 11
733.425551
 21
585.211342
 31
0.0
  0
LINE
  5
57B
330
1F
100
AcDbEntity
  8
0
  6
CONTINUOUS
 62
     3
100
AcDbLine
 10
733.425551
 20
585.211342
 30
0.0
 11
734.72218
 21
585.918853
 31
0.0
  0
LINE
  5
57C
330
1F
100
AcDbEntity
  8
0
  6
CONTINUOUS
 62
     3
100
AcDbLine
 10
734.72218
 20
585.918853
 30
0.0
 11
735.890547
 21
586.680176
 31
0.0
  0
LINE
  5
57D
330
1F
100
AcDbEntity
  8
0
  6
CONTINUOUS
 62
     3
100
AcDbLine
 10
735.890547
 20
586.680176
 30
0.0
 11
736.921761
 21
587.489517
 31
0.0
  0
LINE
  5
57E
330
1F
100
AcDbEntity
  8
0
  6
CONTINUOUS
 62
     3
100
AcDbLine
 10
736.921761
 20
587.489517
 30
0.0
 11
737.807973
 21
588.340716
 31
0.0
  0
LINE
  5
57F
330
1F
100
AcDbEntity
  8
0
  6
CONTINUOUS
 62
     3
100
AcDbLine
 10
737.807973
 20
588.340716
 30
0.0
 11
738.54244
 21
589.227295
 31
0.0
  0
LINE
  5
580
330
1F
100
AcDbEntity
  8
0
  6
CONTINUOUS
 62
     3
100
AcDbLine
 10
738.54244
 20
589.227295
 30
0.0
 11
739.11957
 21
590.142507
 31
0.0
  0
LINE
  5
581
330
1F
100
AcDbEntity
  8
0
  6
CONTINUOUS
 62
     3
100
AcDbLine
 10
739.11957
 20
590.142507
 30
0.0
 11
739.534973
 21
591.079387
 31
0.0
  0
LINE
  5
582
330
1F
100
AcDbEntity
  8
0
  6
CONTINUOUS
 62
     3
100
AcDbLine
 10
739.534973
 20
591.079387
 30
0.0
 11
739.785485
 21
592.030803
 31
0.0
  0
LINE
  5
583
330
1F
100
AcDbEntity
  8
0
  6
CONTINUOUS
 62
     3
100
AcDbLine
 10
739.785485
 20
592.030803
 30
0.0
 11
739.869202
 21
592.989517
 31
0.0
  0
LINE
  5
584
330
1F
100
AcDbEntity
  8
0
  6
CONTINUOUS
 62
     3
100
AcDbLine
 10
739.869202
 20
615.63276
 30
0.0
 11
739.785485
 21
616.591473
 31
0.0
  0
LINE
  5
585
330
1F
100
AcDbEntity
  8
0
  6
CONTINUOUS
 62
     3
100
AcDbLine
 10
739.785485
 20
616.591473
 30
0.0
 11
739.534973
 21
617.54289
 31
0.0
  0
LINE
  5
586
330
1F
100
AcDbEntity
  8
0
  6
CONTINUOUS
 62
     3
100
AcDbLine
 10
739.534973
 20
617.54289
 30
0.0
 11
739.11957
 21
618.479769
 31
0.0
  0
LINE
  5
587
330
1F
100
AcDbEntity
  8
0
  6
CONTINUOUS
 62
     3
100
AcDbLine
 10
739.11957
 20
618.479769
 30
0.0
 11
738.54244
 21
619.394982
 31
0.0
  0
LINE
  5
588
330
1F
100
AcDbEntity
  8
0
  6
CONTINUOUS
 62
     3
100
AcDbLine
 10
738.54244
 20
619.394982
 30
0.0
 11
737.807973
 21
620.281561
 31
0.0
  0
LINE
  5
589
330
1F
100
AcDbEntity
  8
0
  6
CONTINUOUS
 62
     3
100
AcDbLine
 10
737.807973
 20
620.281561
 30
0.0
 11
736.921761
 21
621.13276
 31
0.0
  0
LINE
  5
58A
330
1F
100
AcDbEntity
  8
0
  6
CONTINUOUS
 62
     3
100
AcDbLine
 10
736.921761
 20
621.13276
 30
0.0
 11
735.890547
 21
621.942101
 31
0.0
  0
LINE
  5
58B
330
1F
100
AcDbEntity
  8
0
  6
CONTINUOUS
 62
     3
100
AcDbLine
 10
735.890547
 20
621.942101
 30
0.0
 11
734.72218
 21
622.703424
 31
0.0
  0
LINE
  5
58C
330
1F
100
AcDbEntity
  8
0
  6
CONTINUOUS
 62
     3
100
AcDbLine
 10
734.72218
 20
622.703424
 30
0.0
 11
733.425551
 21
623.410935
 31
0.0
  0
LINE
  5
58D
330
1F
100
AcDbEntity
  8
0
  6
CONTINUOUS
 62
     3
100
AcDbLine
 10
733.425551
 20
623.410935
 30
0.0
 11
732.010529
 21
624.059249
 31
0.0
  0
LINE
  5
58E
330
1F
100
AcDbEntity
  8
0
  6
CONTINUOUS
 62
     3
100
AcDbLine
 10
732.010529
 20
624.059249
 30
0.0
 11
730.487884
 21
624.643432
 31
0.0
  0
LINE
  5
58F
330
1F
100
AcDbEntity
  8
0
  6
CONTINUOUS
 62
     3
100
AcDbLine
 10
730.487884
 20
624.643432
 30
0.0
 11
728.869202
 21
625.159039
 31
0.0
  0
LINE
  5
590
330
1F
100
AcDbEntity
  8
0
  6
CONTINUOUS
 62
     3
100
AcDbLine
 10
728.869202
 20
625.159039
 30
0.0
 11
727.166804
 21
625.602146
 31
0.0
  0
LINE
  5
591
330
1F
100
AcDbEntity
  8
0
  6
CONTINUOUS
 62
     3
100
AcDbLine
 10
727.166804
 20
625.602146
 30
0.0
 11
725.393645
 21
625.969379
 31
0.0
  0
LINE
  5
592
330
1F
100
AcDbEntity
  8
0
  6
CONTINUOUS
 62
     3
100
AcDbLine
 10
725.393645
 20
625.969379
 30
0.0
 11
723.563221
 21
626.257944
 31
0.0
  0
LINE
  5
593
330
1F
100
AcDbEntity
  8
0
  6
CONTINUOUS
 62
     3
100
AcDbLine
 10
723.563221
 20
626.257944
 30
0.0
 11
721.689462
 21
626.465645
 31
0.0
  0
LINE
  5
594
330
1F
100
AcDbEntity
  8
0
  6
CONTINUOUS
 62
     3
100
AcDbLine
 10
721.689462
 20
626.465645
 30
0.0
 11
719.786628
 21
626.590902
 31
0.0
  0
LINE
  5
595
330
1F
100
AcDbEntity
  8
0
  6
CONTINUOUS
 62
     3
100
AcDbLine
 10
719.786628
 20
626.590902
 30
0.0
 11
717.869202
 21
626.63276
 31
0.0
  0
LINE
  5
596
330
1F
100
AcDbEntity
  8
0
  6
CONTINUOUS
 62
     3
100
AcDbLine
 10
717.869202
 20
626.63276
 30
0.0
 11
715.951776
 21
626.590902
 31
0.0
  0
LINE
  5
597
330
1F
100
AcDbEntity
  8
0
  6
CONTINUOUS
 62
     3
100
AcDbLine
 10
715.951776
 20
626.590902
 30
0.0
 11
714.048942
 21
626.465645
 31
0.0
  0
LINE
  5
598
330
1F
100
AcDbEntity
  8
0
  6
CONTINUOUS
 62
     3
100
AcDbLine
 10
714.048942
 20
626.465645
 30
0.0
 11
712.175183
 21
626.257944
 31
0.0
  0
LINE
  5
599
330
1F
100
AcDbEntity
  8
0
  6
CONTINUOUS
 62
     3
100
AcDbLine
 10
712.175183
 20
626.257944
 30
0.0
 11
710.344759
 21
625.969379
 31
0.0
  0
LINE
  5
59A
330
1F
100
AcDbEntity
  8
0
  6
CONTINUOUS
 62
     3
100
AcDbLine
 10
710.344759
 20
625.969379
 30
0.0
 11
708.5716
 21
625.602146
 31
0.0
  0
LINE
  5
59B
330
1F
100
AcDbEntity
  8
0
  6
CONTINUOUS
 62
     3
100
AcDbLine
 10
708.5716
 20
625.602146
 30
0.0
 11
706.869202
 21
625.159039
 31
0.0
  0
LINE
  5
59C
330
1F
100
AcDbEntity
  8
0
  6
CONTINUOUS
 62
     3
100
AcDbLine
 10
706.869202
 20
625.159039
 30
0.0
 11
705.25052
 21
624.643432
 31
0.0
  0
LINE
  5
59D
330
1F
100
AcDbEntity
  8
0
  6
CONTINUOUS
 62
     3
100
AcDbLine
 10
705.25052
 20
624.643432
 30
0.0
 11
703.727875
 21
624.059249
 31
0.0
  0
LINE
  5
59E
330
1F
100
AcDbEntity
  8
0
  6
CONTINUOUS
 62
     3
100
AcDbLine
 10
703.727875
 20
624.059249
 30
0.0
 11
702.312853
 21
623.410935
 31
0.0
  0
LINE
  5
59F
330
1F
100
AcDbEntity
  8
0
  6
CONTINUOUS
 62
     3
100
AcDbLine
 10
702.312853
 20
623.410935
 30
0.0
 11
701.016224
 21
622.703424
 31
0.0
  0
LINE
  5
5A0
330
1F
100
AcDbEntity
  8
0
  6
CONTINUOUS
 62
     3
100
AcDbLine
 10
701.016224
 20
622.703424
 30
0.0
 11
699.847857
 21
621.942101
 31
0.0
  0
LINE
  5
5A1
330
1F
100
AcDbEntity
  8
0
  6
CONTINUOUS
 62
     3
100
AcDbLine
 10
699.847857
 20
621.942101
 30
0.0
 11
698.816643
 21
621.13276
 31
0.0
  0
LINE
  5
5A2
330
1F
100
AcDbEntity
  8
0
  6
CONTINUOUS
 62
     3
100
AcDbLine
 10
698.816643
 20
621.13276
 30
0.0
 11
697.930431
 21
620.281561
 31
0.0
  0
LINE
  5
5A3
330
1F
100
AcDbEntity
  8
0
  6
CONTINUOUS
 62
     3
100
AcDbLine
 10
697.930431
 20
620.281561
 30
0.0
 11
697.195964
 21
619.394982
 31
0.0
  0
LINE
  5
5A4
330
1F
100
AcDbEntity
  8
0
  6
CONTINUOUS
 62
     3
100
AcDbLine
 10
697.195964
 20
619.394982
 30
0.0
 11
696.618834
 21
618.479769
 31
0.0
  0
LINE
  5
5A5
330
1F
100
AcDbEntity
  8
0
  6
CONTINUOUS
 62
     3
100
AcDbLine
 10
696.618834
 20
618.479769
 30
0.0
 11
696.203431
 21
617.54289
 31
0.0
  0
LINE
  5
5A6
330
1F
100
AcDbEntity
  8
0
  6
CONTINUOUS
 62
     3
100
AcDbLine
 10
696.203431
 20
617.54289
 30
0.0
 11
695.952919
 21
616.591473
 31
0.0
  0
LINE
  5
5A7
330
1F
100
AcDbEntity
  8
0
  6
CONTINUOUS
 62
     3
100
AcDbLine
 10
695.952919
 20
616.591473
 30
0.0
 11
695.869202
 21
615.63276
 31
0.0
  0
LINE
  5
5A8
330
1F
100
AcDbEntity
  8
0
  6
CONTINUOUS
 62
     3
100
AcDbLine
 10
722.869202
 20
582.974165
 30
0.0
 11
722.850176
 21
583.192054
 31
0.0
  0
LINE
  5
5A9
330
1F
100
AcDbEntity
  8
0
  6
CONTINUOUS
 62
     3
100
AcDbLine
 10
722.850176
 20
583.192054
 30
0.0
 11
722.793241
 21
583.408285
 31
0.0
  0
LINE
  5
5AA
330
1F
100
AcDbEntity
  8
0
  6
CONTINUOUS
 62
     3
100
AcDbLine
 10
722.793241
 20
583.408285
 30
0.0
 11
722.698831
 21
583.621212
 31
0.0
  0
LINE
  5
5AB
330
1F
100
AcDbEntity
  8
0
  6
CONTINUOUS
 62
     3
100
AcDbLine
 10
722.698831
 20
583.621212
 30
0.0
 11
722.567665
 21
583.829215
 31
0.0
  0
LINE
  5
5AC
330
1F
100
AcDbEntity
  8
0
  6
CONTINUOUS
 62
     3
100
AcDbLine
 10
722.567665
 20
583.829215
 30
0.0
 11
722.400741
 21
584.03071
 31
0.0
  0
LINE
  5
5AD
330
1F
100
AcDbEntity
  8
0
  6
CONTINUOUS
 62
     3
100
AcDbLine
 10
722.400741
 20
584.03071
 30
0.0
 11
722.199329
 21
584.224165
 31
0.0
  0
LINE
  5
5AE
330
1F
100
AcDbEntity
  8
0
  6
CONTINUOUS
 62
     3
100
AcDbLine
 10
722.199329
 20
584.224165
 30
0.0
 11
721.964962
 21
584.408106
 31
0.0
  0
LINE
  5
5AF
330
1F
100
AcDbEntity
  8
0
  6
CONTINUOUS
 62
     3
100
AcDbLine
 10
721.964962
 20
584.408106
 30
0.0
 11
721.699424
 21
584.581134
 31
0.0
  0
LINE
  5
5B0
330
1F
100
AcDbEntity
  8
0
  6
CONTINUOUS
 62
     3
100
AcDbLine
 10
721.699424
 20
584.581134
 30
0.0
 11
721.404736
 21
584.741932
 31
0.0
  0
LINE
  5
5B1
330
1F
100
AcDbEntity
  8
0
  6
CONTINUOUS
 62
     3
100
AcDbLine
 10
721.404736
 20
584.741932
 30
0.0
 11
721.08314
 21
584.889276
 31
0.0
  0
LINE
  5
5B2
330
1F
100
AcDbEntity
  8
0
  6
CONTINUOUS
 62
     3
100
AcDbLine
 10
721.08314
 20
584.889276
 30
0.0
 11
720.737084
 21
585.022045
 31
0.0
  0
LINE
  5
5B3
330
1F
100
AcDbEntity
  8
0
  6
CONTINUOUS
 62
     3
100
AcDbLine
 10
720.737084
 20
585.022045
 30
0.0
 11
720.369202
 21
585.139228
 31
0.0
  0
LINE
  5
5B4
330
1F
100
AcDbEntity
  8
0
  6
CONTINUOUS
 62
     3
100
AcDbLine
 10
720.369202
 20
585.139228
 30
0.0
 11
719.982293
 21
585.239934
 31
0.0
  0
LINE
  5
5B5
330
1F
100
AcDbEntity
  8
0
  6
CONTINUOUS
 62
     3
100
AcDbLine
 10
719.982293
 20
585.239934
 30
0.0
 11
719.579303
 21
585.323396
 31
0.0
  0
LINE
  5
5B6
330
1F
100
AcDbEntity
  8
0
  6
CONTINUOUS
 62
     3
100
AcDbLine
 10
719.579303
 20
585.323396
 30
0.0
 11
719.163297
 21
585.388979
 31
0.0
  0
LINE
  5
5B7
330
1F
100
AcDbEntity
  8
0
  6
CONTINUOUS
 62
     3
100
AcDbLine
 10
719.163297
 20
585.388979
 30
0.0
 11
718.737443
 21
585.436184
 31
0.0
  0
LINE
  5
5B8
330
1F
100
AcDbEntity
  8
0
  6
CONTINUOUS
 62
     3
100
AcDbLine
 10
718.737443
 20
585.436184
 30
0.0
 11
718.304981
 21
585.464651
 31
0.0
  0
LINE
  5
5B9
330
1F
100
AcDbEntity
  8
0
  6
CONTINUOUS
 62
     3
100
AcDbLine
 10
718.304981
 20
585.464651
 30
0.0
 11
717.869202
 21
585.474165
 31
0.0
  0
LINE
  5
5BA
330
1F
100
AcDbEntity
  8
0
  6
CONTINUOUS
 62
     3
100
AcDbLine
 10
717.869202
 20
585.474165
 30
0.0
 11
717.433423
 21
585.464651
 31
0.0
  0
LINE
  5
5BB
330
1F
100
AcDbEntity
  8
0
  6
CONTINUOUS
 62
     3
100
AcDbLine
 10
717.433423
 20
585.464651
 30
0.0
 11
717.000961
 21
585.436184
 31
0.0
  0
LINE
  5
5BC
330
1F
100
AcDbEntity
  8
0
  6
CONTINUOUS
 62
     3
100
AcDbLine
 10
717.000961
 20
585.436184
 30
0.0
 11
716.575107
 21
585.388979
 31
0.0
  0
LINE
  5
5BD
330
1F
100
AcDbEntity
  8
0
  6
CONTINUOUS
 62
     3
100
AcDbLine
 10
716.575107
 20
585.388979
 30
0.0
 11
716.159101
 21
585.323396
 31
0.0
  0
LINE
  5
5BE
330
1F
100
AcDbEntity
  8
0
  6
CONTINUOUS
 62
     3
100
AcDbLine
 10
716.159101
 20
585.323396
 30
0.0
 11
715.756111
 21
585.239934
 31
0.0
  0
LINE
  5
5BF
330
1F
100
AcDbEntity
  8
0
  6
CONTINUOUS
 62
     3
100
AcDbLine
 10
715.756111
 20
585.239934
 30
0.0
 11
715.369202
 21
585.139228
 31
0.0
  0
LINE
  5
5C0
330
1F
100
AcDbEntity
  8
0
  6
CONTINUOUS
 62
     3
100
AcDbLine
 10
715.369202
 20
585.139228
 30
0.0
 11
715.00132
 21
585.022045
 31
0.0
  0
LINE
  5
5C1
330
1F
100
AcDbEntity
  8
0
  6
CONTINUOUS
 62
     3
100
AcDbLine
 10
715.00132
 20
585.022045
 30
0.0
 11
714.655264
 21
584.889276
 31
0.0
  0
LINE
  5
5C2
330
1F
100
AcDbEntity
  8
0
  6
CONTINUOUS
 62
     3
100
AcDbLine
 10
714.655264
 20
584.889276
 30
0.0
 11
714.333668
 21
584.741932
 31
0.0
  0
LINE
  5
5C3
330
1F
100
AcDbEntity
  8
0
  6
CONTINUOUS
 62
     3
100
AcDbLine
 10
714.333668
 20
584.741932
 30
0.0
 11
714.03898
 21
584.581134
 31
0.0
  0
LINE
  5
5C4
330
1F
100
AcDbEntity
  8
0
  6
CONTINUOUS
 62
     3
100
AcDbLine
 10
714.03898
 20
584.581134
 30
0.0
 11
713.773442
 21
584.408106
 31
0.0
  0
LINE
  5
5C5
330
1F
100
AcDbEntity
  8
0
  6
CONTINUOUS
 62
     3
100
AcDbLine
 10
713.773442
 20
584.408106
 30
0.0
 11
713.539075
 21
584.224165
 31
0.0
  0
LINE
  5
5C6
330
1F
100
AcDbEntity
  8
0
  6
CONTINUOUS
 62
     3
100
AcDbLine
 10
713.539075
 20
584.224165
 30
0.0
 11
713.337663
 21
584.03071
 31
0.0
  0
LINE
  5
5C7
330
1F
100
AcDbEntity
  8
0
  6
CONTINUOUS
 62
     3
100
AcDbLine
 10
713.337663
 20
584.03071
 30
0.0
 11
713.170739
 21
583.829215
 31
0.0
  0
LINE
  5
5C8
330
1F
100
AcDbEntity
  8
0
  6
CONTINUOUS
 62
     3
100
AcDbLine
 10
713.170739
 20
583.829215
 30
0.0
 11
713.039573
 21
583.621212
 31
0.0
  0
LINE
  5
5C9
330
1F
100
AcDbEntity
  8
0
  6
CONTINUOUS
 62
     3
100
AcDbLine
 10
713.039573
 20
583.621212
 30
0.0
 11
712.945163
 21
583.408285
 31
0.0
  0
LINE
  5
5CA
330
1F
100
AcDbEntity
  8
0
  6
CONTINUOUS
 62
     3
100
AcDbLine
 10
712.945163
 20
583.408285
 30
0.0
 11
712.888229
 21
583.192054
 31
0.0
  0
LINE
  5
5CB
330
1F
100
AcDbEntity
  8
0
  6
CONTINUOUS
 62
     3
100
AcDbLine
 10
712.888229
 20
583.192054
 30
0.0
 11
712.869202
 21
582.974165
 31
0.0
  0
LINE
  5
5CC
330
1F
100
AcDbEntity
  8
0
  6
CONTINUOUS
 62
     3
100
AcDbLine
 10
712.869202
 20
582.974165
 30
0.0
 11
712.888229
 21
582.756275
 31
0.0
  0
LINE
  5
5CD
330
1F
100
AcDbEntity
  8
0
  6
CONTINUOUS
 62
     3
100
AcDbLine
 10
712.888229
 20
582.756275
 30
0.0
 11
712.945163
 21
582.540044
 31
0.0
  0
LINE
  5
5CE
330
1F
100
AcDbEntity
  8
0
  6
CONTINUOUS
 62
     3
100
AcDbLine
 10
712.945163
 20
582.540044
 30
0.0
 11
713.039573
 21
582.327117
 31
0.0
  0
LINE
  5
5CF
330
1F
100
AcDbEntity
  8
0
  6
CONTINUOUS
 62
     3
100
AcDbLine
 10
713.039573
 20
582.327117
 30
0.0
 11
713.170739
 21
582.119114
 31
0.0
  0
LINE
  5
5D0
330
1F
100
AcDbEntity
  8
0
  6
CONTINUOUS
 62
     3
100
AcDbLine
 10
713.170739
 20
582.119114
 30
0.0
 11
713.337663
 21
581.917619
 31
0.0
  0
LINE
  5
5D1
330
1F
100
AcDbEntity
  8
0
  6
CONTINUOUS
 62
     3
100
AcDbLine
 10
713.337663
 20
581.917619
 30
0.0
 11
713.539075
 21
581.724165
 31
0.0
  0
LINE
  5
5D2
330
1F
100
AcDbEntity
  8
0
  6
CONTINUOUS
 62
     3
100
AcDbLine
 10
713.539075
 20
581.724165
 30
0.0
 11
713.773442
 21
581.540223
 31
0.0
  0
LINE
  5
5D3
330
1F
100
AcDbEntity
  8
0
  6
CONTINUOUS
 62
     3
100
AcDbLine
 10
713.773442
 20
581.540223
 30
0.0
 11
714.03898
 21
581.367196
 31
0.0
  0
LINE
  5
5D4
330
1F
100
AcDbEntity
  8
0
  6
CONTINUOUS
 62
     3
100
AcDbLine
 10
714.03898
 20
581.367196
 30
0.0
 11
714.333668
 21
581.206398
 31
0.0
  0
LINE
  5
5D5
330
1F
100
AcDbEntity
  8
0
  6
CONTINUOUS
 62
     3
100
AcDbLine
 10
714.333668
 20
581.206398
 30
0.0
 11
714.655264
 21
581.059053
 31
0.0
  0
LINE
  5
5D6
330
1F
100
AcDbEntity
  8
0
  6
CONTINUOUS
 62
     3
100
AcDbLine
 10
714.655264
 20
581.059053
 30
0.0
 11
715.00132
 21
580.926284
 31
0.0
  0
LINE
  5
5D7
330
1F
100
AcDbEntity
  8
0
  6
CONTINUOUS
 62
     3
100
AcDbLine
 10
715.00132
 20
580.926284
 30
0.0
 11
715.369202
 21
580.809101
 31
0.0
  0
LINE
  5
5D8
330
1F
100
AcDbEntity
  8
0
  6
CONTINUOUS
 62
     3
100
AcDbLine
 10
715.369202
 20
580.809101
 30
0.0
 11
715.756111
 21
580.708395
 31
0.0
  0
LINE
  5
5D9
330
1F
100
AcDbEntity
  8
0
  6
CONTINUOUS
 62
     3
100
AcDbLine
 10
715.756111
 20
580.708395
 30
0.0
 11
716.159101
 21
580.624933
 31
0.0
  0
LINE
  5
5DA
330
1F
100
AcDbEntity
  8
0
  6
CONTINUOUS
 62
     3
100
AcDbLine
 10
716.159101
 20
580.624933
 30
0.0
 11
716.575107
 21
580.55935
 31
0.0
  0
LINE
  5
5DB
330
1F
100
AcDbEntity
  8
0
  6
CONTINUOUS
 62
     3
100
AcDbLine
 10
716.575107
 20
580.55935
 30
0.0
 11
717.000961
 21
580.512145
 31
0.0
  0
LINE
  5
5DC
330
1F
100
AcDbEntity
  8
0
  6
CONTINUOUS
 62
     3
100
AcDbLine
 10
717.000961
 20
580.512145
 30
0.0
 11
717.433423
 21
580.483678
 31
0.0
  0
LINE
  5
5DD
330
1F
100
AcDbEntity
  8
0
  6
CONTINUOUS
 62
     3
100
AcDbLine
 10
717.433423
 20
580.483678
 30
0.0
 11
717.869202
 21
580.474165
 31
0.0
  0
LINE
  5
5DE
330
1F
100
AcDbEntity
  8
0
  6
CONTINUOUS
 62
     3
100
AcDbLine
 10
717.869202
 20
580.474165
 30
0.0
 11
718.304981
 21
580.483678
 31
0.0
  0
LINE
  5
5DF
330
1F
100
AcDbEntity
  8
0
  6
CONTINUOUS
 62
     3
100
AcDbLine
 10
718.304981
 20
580.483678
 30
0.0
 11
718.737443
 21
580.512145
 31
0.0
  0
LINE
  5
5E0
330
1F
100
AcDbEntity
  8
0
  6
CONTINUOUS
 62
     3
100
AcDbLine
 10
718.737443
 20
580.512145
 30
0.0
 11
719.163297
 21
580.55935
 31
0.0
  0
LINE
  5
5E1
330
1F
100
AcDbEntity
  8
0
  6
CONTINUOUS
 62
     3
100
AcDbLine
 10
719.163297
 20
580.55935
 30
0.0
 11
719.579303
 21
580.624933
 31
0.0
  0
LINE
  5
5E2
330
1F
100
AcDbEntity
  8
0
  6
CONTINUOUS
 62
     3
100
AcDbLine
 10
719.579303
 20
580.624933
 30
0.0
 11
719.982293
 21
580.708395
 31
0.0
  0
LINE
  5
5E3
330
1F
100
AcDbEntity
  8
0
  6
CONTINUOUS
 62
     3
100
AcDbLine
 10
719.982293
 20
580.708395
 30
0.0
 11
720.369202
 21
580.809101
 31
0.0
  0
LINE
  5
5E4
330
1F
100
AcDbEntity
  8
0
  6
CONTINUOUS
 62
     3
100
AcDbLine
 10
720.369202
 20
580.809101
 30
0.0
 11
720.737084
 21
580.926284
 31
0.0
  0
LINE
  5
5E5
330
1F
100
AcDbEntity
  8
0
  6
CONTINUOUS
 62
     3
100
AcDbLine
 10
720.737084
 20
580.926284
 30
0.0
 11
721.08314
 21
581.059053
 31
0.0
  0
LINE
  5
5E6
330
1F
100
AcDbEntity
  8
0
  6
CONTINUOUS
 62
     3
100
AcDbLine
 10
721.08314
 20
581.059053
 30
0.0
 11
721.404736
 21
581.206398
 31
0.0
  0
LINE
  5
5E7
330
1F
100
AcDbEntity
  8
0
  6
CONTINUOUS
 62
     3
100
AcDbLine
 10
721.404736
 20
581.206398
 30
0.0
 11
721.699424
 21
581.367196
 31
0.0
  0
LINE
  5
5E8
330
1F
100
AcDbEntity
  8
0
  6
CONTINUOUS
 62
     3
100
AcDbLine
 10
721.699424
 20
581.367196
 30
0.0
 11
721.964962
 21
581.540223
 31
0.0
  0
LINE
  5
5E9
330
1F
100
AcDbEntity
  8
0
  6
CONTINUOUS
 62
     3
100
AcDbLine
 10
721.964962
 20
581.540223
 30
0.0
 11
722.199329
 21
581.724165
 31
0.0
  0
LINE
  5
5EA
330
1F
100
AcDbEntity
  8
0
  6
CONTINUOUS
 62
     3
100
AcDbLine
 10
722.199329
 20
581.724165
 30
0.0
 11
722.400741
 21
581.917619
 31
0.0
  0
LINE
  5
5EB
330
1F
100
AcDbEntity
  8
0
  6
CONTINUOUS
 62
     3
100
AcDbLine
 10
722.400741
 20
581.917619
 30
0.0
 11
722.567665
 21
582.119114
 31
0.0
  0
LINE
  5
5EC
330
1F
100
AcDbEntity
  8
0
  6
CONTINUOUS
 62
     3
100
AcDbLine
 10
722.567665
 20
582.119114
 30
0.0
 11
722.698831
 21
582.327117
 31
0.0
  0
LINE
  5
5ED
330
1F
100
AcDbEntity
  8
0
  6
CONTINUOUS
 62
     3
100
AcDbLine
 10
722.698831
 20
582.327117
 30
0.0
 11
722.793241
 21
582.540044
 31
0.0
  0
LINE
  5
5EE
330
1F
100
AcDbEntity
  8
0
  6
CONTINUOUS
 62
     3
100
AcDbLine
 10
722.793241
 20
582.540044
 30
0.0
 11
722.850176
 21
582.756275
 31
0.0
  0
LINE
  5
5EF
330
1F
100
AcDbEntity
  8
0
  6
CONTINUOUS
 62
     3
100
AcDbLine
 10
722.850176
 20
582.756275
 30
0.0
 11
722.869202
 21
582.974165
 31
0.0
  0
LINE
  5
5F0
330
1F
100
AcDbEntity
  8
0
  6
CONTINUOUS
 62
     3
100
AcDbLine
 10
722.869202
 20
585.15142
 30
0.0
 11
722.850176
 21
585.369309
 31
0.0
  0
LINE
  5
5F1
330
1F
100
AcDbEntity
  8
0
  6
CONTINUOUS
 62
     3
100
AcDbLine
 10
722.850176
 20
585.369309
 30
0.0
 11
722.793241
 21
585.58554
 31
0.0
  0
LINE
  5
5F2
330
1F
100
AcDbEntity
  8
0
  6
CONTINUOUS
 62
     3
100
AcDbLine
 10
722.793241
 20
585.58554
 30
0.0
 11
722.698831
 21
585.798468
 31
0.0
  0
LINE
  5
5F3
330
1F
100
AcDbEntity
  8
0
  6
CONTINUOUS
 62
     3
100
AcDbLine
 10
722.698831
 20
585.798468
 30
0.0
 11
722.567665
 21
586.00647
 31
0.0
  0
LINE
  5
5F4
330
1F
100
AcDbEntity
  8
0
  6
CONTINUOUS
 62
     3
100
AcDbLine
 10
722.567665
 20
586.00647
 30
0.0
 11
722.400741
 21
586.207966
 31
0.0
  0
LINE
  5
5F5
330
1F
100
AcDbEntity
  8
0
  6
CONTINUOUS
 62
     3
100
AcDbLine
 10
722.400741
 20
586.207966
 30
0.0
 11
722.199329
 21
586.40142
 31
0.0
  0
LINE
  5
5F6
330
1F
100
AcDbEntity
  8
0
  6
CONTINUOUS
 62
     3
100
AcDbLine
 10
722.199329
 20
586.40142
 30
0.0
 11
721.964962
 21
586.585361
 31
0.0
  0
LINE
  5
5F7
330
1F
100
AcDbEntity
  8
0
  6
CONTINUOUS
 62
     3
100
AcDbLine
 10
721.964962
 20
586.585361
 30
0.0
 11
721.699424
 21
586.758389
 31
0.0
  0
LINE
  5
5F8
330
1F
100
AcDbEntity
  8
0
  6
CONTINUOUS
 62
     3
100
AcDbLine
 10
721.699424
 20
586.758389
 30
0.0
 11
721.404736
 21
586.919187
 31
0.0
  0
LINE
  5
5F9
330
1F
100
AcDbEntity
  8
0
  6
CONTINUOUS
 62
     3
100
AcDbLine
 10
721.404736
 20
586.919187
 30
0.0
 11
721.08314
 21
587.066531
 31
0.0
  0
LINE
  5
5FA
330
1F
100
AcDbEntity
  8
0
  6
CONTINUOUS
 62
     3
100
AcDbLine
 10
721.08314
 20
587.066531
 30
0.0
 11
720.737084
 21
587.1993
 31
0.0
  0
LINE
  5
5FB
330
1F
100
AcDbEntity
  8
0
  6
CONTINUOUS
 62
     3
100
AcDbLine
 10
720.737084
 20
587.1993
 30
0.0
 11
720.369202
 21
587.316483
 31
0.0
  0
LINE
  5
5FC
330
1F
100
AcDbEntity
  8
0
  6
CONTINUOUS
 62
     3
100
AcDbLine
 10
720.369202
 20
587.316483
 30
0.0
 11
719.982293
 21
587.417189
 31
0.0
  0
LINE
  5
5FD
330
1F
100
AcDbEntity
  8
0
  6
CONTINUOUS
 62
     3
100
AcDbLine
 10
719.982293
 20
587.417189
 30
0.0
 11
719.579303
 21
587.500651
 31
0.0
  0
LINE
  5
5FE
330
1F
100
AcDbEntity
  8
0
  6
CONTINUOUS
 62
     3
100
AcDbLine
 10
719.579303
 20
587.500651
 30
0.0
 11
719.163297
 21
587.566235
 31
0.0
  0
LINE
  5
5FF
330
1F
100
AcDbEntity
  8
0
  6
CONTINUOUS
 62
     3
100
AcDbLine
 10
719.163297
 20
587.566235
 30
0.0
 11
718.737443
 21
587.613439
 31
0.0
  0
LINE
  5
600
330
1F
100
AcDbEntity
  8
0
  6
CONTINUOUS
 62
     3
100
AcDbLine
 10
718.737443
 20
587.613439
 30
0.0
 11
718.304981
 21
587.641907
 31
0.0
  0
LINE
  5
601
330
1F
100
AcDbEntity
  8
0
  6
CONTINUOUS
 62
     3
100
AcDbLine
 10
718.304981
 20
587.641907
 30
0.0
 11
717.869202
 21
587.65142
 31
0.0
  0
LINE
  5
602
330
1F
100
AcDbEntity
  8
0
  6
CONTINUOUS
 62
     3
100
AcDbLine
 10
717.869202
 20
587.65142
 30
0.0
 11
717.433423
 21
587.641907
 31
0.0
  0
LINE
  5
603
330
1F
100
AcDbEntity
  8
0
  6
CONTINUOUS
 62
     3
100
AcDbLine
 10
717.433423
 20
587.641907
 30
0.0
 11
717.000961
 21
587.613439
 31
0.0
  0
LINE
  5
604
330
1F
100
AcDbEntity
  8
0
  6
CONTINUOUS
 62
     3
100
AcDbLine
 10
717.000961
 20
587.613439
 30
0.0
 11
716.575107
 21
587.566235
 31
0.0
  0
LINE
  5
605
330
1F
100
AcDbEntity
  8
0
  6
CONTINUOUS
 62
     3
100
AcDbLine
 10
716.575107
 20
587.566235
 30
0.0
 11
716.159101
 21
587.500651
 31
0.0
  0
LINE
  5
606
330
1F
100
AcDbEntity
  8
0
  6
CONTINUOUS
 62
     3
100
AcDbLine
 10
716.159101
 20
587.500651
 30
0.0
 11
715.756111
 21
587.417189
 31
0.0
  0
LINE
  5
607
330
1F
100
AcDbEntity
  8
0
  6
CONTINUOUS
 62
     3
100
AcDbLine
 10
715.756111
 20
587.417189
 30
0.0
 11
715.369202
 21
587.316483
 31
0.0
  0
LINE
  5
608
330
1F
100
AcDbEntity
  8
0
  6
CONTINUOUS
 62
     3
100
AcDbLine
 10
715.369202
 20
587.316483
 30
0.0
 11
715.00132
 21
587.1993
 31
0.0
  0
LINE
  5
609
330
1F
100
AcDbEntity
  8
0
  6
CONTINUOUS
 62
     3
100
AcDbLine
 10
715.00132
 20
587.1993
 30
0.0
 11
714.655264
 21
587.066531
 31
0.0
  0
LINE
  5
60A
330
1F
100
AcDbEntity
  8
0
  6
CONTINUOUS
 62
     3
100
AcDbLine
 10
714.655264
 20
587.066531
 30
0.0
 11
714.333668
 21
586.919187
 31
0.0
  0
LINE
  5
60B
330
1F
100
AcDbEntity
  8
0
  6
CONTINUOUS
 62
     3
100
AcDbLine
 10
714.333668
 20
586.919187
 30
0.0
 11
714.03898
 21
586.758389
 31
0.0
  0
LINE
  5
60C
330
1F
100
AcDbEntity
  8
0
  6
CONTINUOUS
 62
     3
100
AcDbLine
 10
714.03898
 20
586.758389
 30
0.0
 11
713.773442
 21
586.585361
 31
0.0
  0
LINE
  5
60D
330
1F
100
AcDbEntity
  8
0
  6
CONTINUOUS
 62
     3
100
AcDbLine
 10
713.773442
 20
586.585361
 30
0.0
 11
713.539075
 21
586.40142
 31
0.0
  0
LINE
  5
60E
330
1F
100
AcDbEntity
  8
0
  6
CONTINUOUS
 62
     3
100
AcDbLine
 10
713.539075
 20
586.40142
 30
0.0
 11
713.337663
 21
586.207966
 31
0.0
  0
LINE
  5
60F
330
1F
100
AcDbEntity
  8
0
  6
CONTINUOUS
 62
     3
100
AcDbLine
 10
713.337663
 20
586.207966
 30
0.0
 11
713.170739
 21
586.00647
 31
0.0
  0
LINE
  5
610
330
1F
100
AcDbEntity
  8
0
  6
CONTINUOUS
 62
     3
100
AcDbLine
 10
713.170739
 20
586.00647
 30
0.0
 11
713.039573
 21
585.798468
 31
0.0
  0
LINE
  5
611
330
1F
100
AcDbEntity
  8
0
  6
CONTINUOUS
 62
     3
100
AcDbLine
 10
713.039573
 20
585.798468
 30
0.0
 11
712.945163
 21
585.58554
 31
0.0
  0
LINE
  5
612
330
1F
100
AcDbEntity
  8
0
  6
CONTINUOUS
 62
     3
100
AcDbLine
 10
712.945163
 20
585.58554
 30
0.0
 11
712.888229
 21
585.369309
 31
0.0
  0
LINE
  5
613
330
1F
100
AcDbEntity
  8
0
  6
CONTINUOUS
 62
     3
100
AcDbLine
 10
712.888229
 20
585.369309
 30
0.0
 11
712.869202
 21
585.15142
 31
0.0
  0
LINE
  5
614
330
1F
100
AcDbEntity
  8
0
  6
CONTINUOUS
 62
     3
100
AcDbLine
 10
726.869202
 20
585.15142
 30
0.0
 11
726.834954
 21
585.543621
 31
0.0
  0
LINE
  5
615
330
1F
100
AcDbEntity
  8
0
  6
CONTINUOUS
 62
     3
100
AcDbLine
 10
726.834954
 20
585.543621
 30
0.0
 11
726.732472
 21
585.932837
 31
0.0
  0
LINE
  5
616
330
1F
100
AcDbEntity
  8
0
  6
CONTINUOUS
 62
     3
100
AcDbLine
 10
726.732472
 20
585.932837
 30
0.0
 11
726.562534
 21
586.316106
 31
0.0
  0
LINE
  5
617
330
1F
100
AcDbEntity
  8
0
  6
CONTINUOUS
 62
     3
100
AcDbLine
 10
726.562534
 20
586.316106
 30
0.0
 11
726.326436
 21
586.690511
 31
0.0
  0
LINE
  5
618
330
1F
100
AcDbEntity
  8
0
  6
CONTINUOUS
 62
     3
100
AcDbLine
 10
726.326436
 20
586.690511
 30
0.0
 11
726.025972
 21
587.053202
 31
0.0
  0
LINE
  5
619
330
1F
100
AcDbEntity
  8
0
  6
CONTINUOUS
 62
     3
100
AcDbLine
 10
726.025972
 20
587.053202
 30
0.0
 11
725.663431
 21
587.40142
 31
0.0
  0
LINE
  5
61A
330
1F
100
AcDbEntity
  8
0
  6
CONTINUOUS
 62
     3
100
AcDbLine
 10
725.663431
 20
587.40142
 30
0.0
 11
725.24157
 21
587.732514
 31
0.0
  0
LINE
  5
61B
330
1F
100
AcDbEntity
  8
0
  6
CONTINUOUS
 62
     3
100
AcDbLine
 10
725.24157
 20
587.732514
 30
0.0
 11
724.763602
 21
588.043964
 31
0.0
  0
LINE
  5
61C
330
1F
100
AcDbEntity
  8
0
  6
CONTINUOUS
 62
     3
100
AcDbLine
 10
724.763602
 20
588.043964
 30
0.0
 11
724.233163
 21
588.3334
 31
0.0
  0
LINE
  5
61D
330
1F
100
AcDbEntity
  8
0
  6
CONTINUOUS
 62
     3
100
AcDbLine
 10
724.233163
 20
588.3334
 30
0.0
 11
723.654291
 21
588.59862
 31
0.0
  0
LINE
  5
61E
330
1F
100
AcDbEntity
  8
0
  6
CONTINUOUS
 62
     3
100
AcDbLine
 10
723.654291
 20
588.59862
 30
0.0
 11
723.03139
 21
588.837604
 31
0.0
  0
LINE
  5
61F
330
1F
100
AcDbEntity
  8
0
  6
CONTINUOUS
 62
     3
100
AcDbLine
 10
723.03139
 20
588.837604
 30
0.0
 11
722.369202
 21
589.048534
 31
0.0
  0
LINE
  5
620
330
1F
100
AcDbEntity
  8
0
  6
CONTINUOUS
 62
     3
100
AcDbLine
 10
722.369202
 20
589.048534
 30
0.0
 11
721.672766
 21
589.229805
 31
0.0
  0
LINE
  5
621
330
1F
100
AcDbEntity
  8
0
  6
CONTINUOUS
 62
     3
100
AcDbLine
 10
721.672766
 20
589.229805
 30
0.0
 11
720.947383
 21
589.380037
 31
0.0
  0
LINE
  5
622
330
1F
100
AcDbEntity
  8
0
  6
CONTINUOUS
 62
     3
100
AcDbLine
 10
720.947383
 20
589.380037
 30
0.0
 11
720.198573
 21
589.498086
 31
0.0
  0
LINE
  5
623
330
1F
100
AcDbEntity
  8
0
  6
CONTINUOUS
 62
     3
100
AcDbLine
 10
720.198573
 20
589.498086
 30
0.0
 11
719.432036
 21
589.583055
 31
0.0
  0
LINE
  5
624
330
1F
100
AcDbEntity
  8
0
  6
CONTINUOUS
 62
     3
100
AcDbLine
 10
719.432036
 20
589.583055
 30
0.0
 11
718.653604
 21
589.634296
 31
0.0
  0
LINE
  5
625
330
1F
100
AcDbEntity
  8
0
  6
CONTINUOUS
 62
     3
100
AcDbLine
 10
718.653604
 20
589.634296
 30
0.0
 11
717.869202
 21
589.65142
 31
0.0
  0
LINE
  5
626
330
1F
100
AcDbEntity
  8
0
  6
CONTINUOUS
 62
     3
100
AcDbLine
 10
717.869202
 20
589.65142
 30
0.0
 11
717.0848
 21
589.634296
 31
0.0
  0
LINE
  5
627
330
1F
100
AcDbEntity
  8
0
  6
CONTINUOUS
 62
     3
100
AcDbLine
 10
717.0848
 20
589.634296
 30
0.0
 11
716.306368
 21
589.583055
 31
0.0
  0
LINE
  5
628
330
1F
100
AcDbEntity
  8
0
  6
CONTINUOUS
 62
     3
100
AcDbLine
 10
716.306368
 20
589.583055
 30
0.0
 11
715.539831
 21
589.498086
 31
0.0
  0
LINE
  5
629
330
1F
100
AcDbEntity
  8
0
  6
CONTINUOUS
 62
     3
100
AcDbLine
 10
715.539831
 20
589.498086
 30
0.0
 11
714.791021
 21
589.380037
 31
0.0
  0
LINE
  5
62A
330
1F
100
AcDbEntity
  8
0
  6
CONTINUOUS
 62
     3
100
AcDbLine
 10
714.791021
 20
589.380037
 30
0.0
 11
714.065638
 21
589.229805
 31
0.0
  0
LINE
  5
62B
330
1F
100
AcDbEntity
  8
0
  6
CONTINUOUS
 62
     3
100
AcDbLine
 10
714.065638
 20
589.229805
 30
0.0
 11
713.369202
 21
589.048534
 31
0.0
  0
LINE
  5
62C
330
1F
100
AcDbEntity
  8
0
  6
CONTINUOUS
 62
     3
100
AcDbLine
 10
713.369202
 20
589.048534
 30
0.0
 11
712.707014
 21
588.837604
 31
0.0
  0
LINE
  5
62D
330
1F
100
AcDbEntity
  8
0
  6
CONTINUOUS
 62
     3
100
AcDbLine
 10
712.707014
 20
588.837604
 30
0.0
 11
712.084114
 21
588.59862
 31
0.0
  0
LINE
  5
62E
330
1F
100
AcDbEntity
  8
0
  6
CONTINUOUS
 62
     3
100
AcDbLine
 10
712.084114
 20
588.59862
 30
0.0
 11
711.505241
 21
588.3334
 31
0.0
  0
LINE
  5
62F
330
1F
100
AcDbEntity
  8
0
  6
CONTINUOUS
 62
     3
100
AcDbLine
 10
711.505241
 20
588.3334
 30
0.0
 11
710.974802
 21
588.043964
 31
0.0
  0
LINE
  5
630
330
1F
100
AcDbEntity
  8
0
  6
CONTINUOUS
 62
     3
100
AcDbLine
 10
710.974802
 20
588.043964
 30
0.0
 11
710.496834
 21
587.732514
 31
0.0
  0
LINE
  5
631
330
1F
100
AcDbEntity
  8
0
  6
CONTINUOUS
 62
     3
100
AcDbLine
 10
710.496834
 20
587.732514
 30
0.0
 11
710.074973
 21
587.40142
 31
0.0
  0
LINE
  5
632
330
1F
100
AcDbEntity
  8
0
  6
CONTINUOUS
 62
     3
100
AcDbLine
 10
710.074973
 20
587.40142
 30
0.0
 11
709.712432
 21
587.053202
 31
0.0
  0
LINE
  5
633
330
1F
100
AcDbEntity
  8
0
  6
CONTINUOUS
 62
     3
100
AcDbLine
 10
709.712432
 20
587.053202
 30
0.0
 11
709.411968
 21
586.690511
 31
0.0
  0
LINE
  5
634
330
1F
100
AcDbEntity
  8
0
  6
CONTINUOUS
 62
     3
100
AcDbLine
 10
709.411968
 20
586.690511
 30
0.0
 11
709.17587
 21
586.316106
 31
0.0
  0
LINE
  5
635
330
1F
100
AcDbEntity
  8
0
  6
CONTINUOUS
 62
     3
100
AcDbLine
 10
709.17587
 20
586.316106
 30
0.0
 11
709.005932
 21
585.932837
 31
0.0
  0
LINE
  5
636
330
1F
100
AcDbEntity
  8
0
  6
CONTINUOUS
 62
     3
100
AcDbLine
 10
709.005932
 20
585.932837
 30
0.0
 11
708.90345
 21
585.543621
 31
0.0
  0
LINE
  5
637
330
1F
100
AcDbEntity
  8
0
  6
CONTINUOUS
 62
     3
100
AcDbLine
 10
708.90345
 20
585.543621
 30
0.0
 11
708.869202
 21
585.15142
 31
0.0
  0
LINE
  5
638
330
1F
100
AcDbEntity
  8
0
  6
CONTINUOUS
 62
     3
100
AcDbLine
 10
708.869202
 20
585.15142
 30
0.0
 11
708.90345
 21
584.759219
 31
0.0
  0
LINE
  5
639
330
1F
100
AcDbEntity
  8
0
  6
CONTINUOUS
 62
     3
100
AcDbLine
 10
708.90345
 20
584.759219
 30
0.0
 11
709.005932
 21
584.370003
 31
0.0
  0
LINE
  5
63A
330
1F
100
AcDbEntity
  8
0
  6
CONTINUOUS
 62
     3
100
AcDbLine
 10
709.005932
 20
584.370003
 30
0.0
 11
709.17587
 21
583.986734
 31
0.0
  0
LINE
  5
63B
330
1F
100
AcDbEntity
  8
0
  6
CONTINUOUS
 62
     3
100
AcDbLine
 10
709.17587
 20
583.986734
 30
0.0
 11
709.411968
 21
583.612329
 31
0.0
  0
LINE
  5
63C
330
1F
100
AcDbEntity
  8
0
  6
CONTINUOUS
 62
     3
100
AcDbLine
 10
709.411968
 20
583.612329
 30
0.0
 11
709.712432
 21
583.249638
 31
0.0
  0
LINE
  5
63D
330
1F
100
AcDbEntity
  8
0
  6
CONTINUOUS
 62
     3
100
AcDbLine
 10
709.712432
 20
583.249638
 30
0.0
 11
710.074973
 21
582.90142
 31
0.0
  0
LINE
  5
63E
330
1F
100
AcDbEntity
  8
0
  6
CONTINUOUS
 62
     3
100
AcDbLine
 10
710.074973
 20
582.90142
 30
0.0
 11
710.496834
 21
582.570326
 31
0.0
  0
LINE
  5
63F
330
1F
100
AcDbEntity
  8
0
  6
CONTINUOUS
 62
     3
100
AcDbLine
 10
710.496834
 20
582.570326
 30
0.0
 11
710.974802
 21
582.258876
 31
0.0
  0
LINE
  5
640
330
1F
100
AcDbEntity
  8
0
  6
CONTINUOUS
 62
     3
100
AcDbLine
 10
710.974802
 20
582.258876
 30
0.0
 11
711.505241
 21
581.969439
 31
0.0
  0
LINE
  5
641
330
1F
100
AcDbEntity
  8
0
  6
CONTINUOUS
 62
     3
100
AcDbLine
 10
711.505241
 20
581.969439
 30
0.0
 11
712.084114
 21
581.70422
 31
0.0
  0
LINE
  5
642
330
1F
100
AcDbEntity
  8
0
  6
CONTINUOUS
 62
     3
100
AcDbLine
 10
712.084114
 20
581.70422
 30
0.0
 11
712.707014
 21
581.465236
 31
0.0
  0
LINE
  5
643
330
1F
100
AcDbEntity
  8
0
  6
CONTINUOUS
 62
     3
100
AcDbLine
 10
712.707014
 20
581.465236
 30
0.0
 11
713.369202
 21
581.254306
 31
0.0
  0
LINE
  5
644
330
1F
100
AcDbEntity
  8
0
  6
CONTINUOUS
 62
     3
100
AcDbLine
 10
713.369202
 20
581.254306
 30
0.0
 11
714.065638
 21
581.073035
 31
0.0
  0
LINE
  5
645
330
1F
100
AcDbEntity
  8
0
  6
CONTINUOUS
 62
     3
100
AcDbLine
 10
714.065638
 20
581.073035
 30
0.0
 11
714.791021
 21
580.922803
 31
0.0
  0
LINE
  5
646
330
1F
100
AcDbEntity
  8
0
  6
CONTINUOUS
 62
     3
100
AcDbLine
 10
714.791021
 20
580.922803
 30
0.0
 11
715.229027
 21
580.853752
 31
0.0
  0
LINE
  5
647
330
1F
100
AcDbEntity
  8
0
  6
CONTINUOUS
 62
     3
100
AcDbLine
 10
720.509377
 20
580.853752
 30
0.0
 11
720.947383
 21
580.922803
 31
0.0
  0
LINE
  5
648
330
1F
100
AcDbEntity
  8
0
  6
CONTINUOUS
 62
     3
100
AcDbLine
 10
720.947383
 20
580.922803
 30
0.0
 11
721.672766
 21
581.073035
 31
0.0
  0
LINE
  5
649
330
1F
100
AcDbEntity
  8
0
  6
CONTINUOUS
 62
     3
100
AcDbLine
 10
721.672766
 20
581.073035
 30
0.0
 11
722.369202
 21
581.254306
 31
0.0
  0
LINE
  5
64A
330
1F
100
AcDbEntity
  8
0
  6
CONTINUOUS
 62
     3
100
AcDbLine
 10
722.369202
 20
581.254306
 30
0.0
 11
723.03139
 21
581.465236
 31
0.0
  0
LINE
  5
64B
330
1F
100
AcDbEntity
  8
0
  6
CONTINUOUS
 62
     3
100
AcDbLine
 10
723.03139
 20
581.465236
 30
0.0
 11
723.654291
 21
581.70422
 31
0.0
  0
LINE
  5
64C
330
1F
100
AcDbEntity
  8
0
  6
CONTINUOUS
 62
     3
100
AcDbLine
 10
723.654291
 20
581.70422
 30
0.0
 11
724.233163
 21
581.969439
 31
0.0
  0
LINE
  5
64D
330
1F
100
AcDbEntity
  8
0
  6
CONTINUOUS
 62
     3
100
AcDbLine
 10
724.233163
 20
581.969439
 30
0.0
 11
724.763602
 21
582.258876
 31
0.0
  0
LINE
  5
64E
330
1F
100
AcDbEntity
  8
0
  6
CONTINUOUS
 62
     3
100
AcDbLine
 10
724.763602
 20
582.258876
 30
0.0
 11
725.24157
 21
582.570326
 31
0.0
  0
LINE
  5
64F
330
1F
100
AcDbEntity
  8
0
  6
CONTINUOUS
 62
     3
100
AcDbLine
 10
725.24157
 20
582.570326
 30
0.0
 11
725.663431
 21
582.90142
 31
0.0
  0
LINE
  5
650
330
1F
100
AcDbEntity
  8
0
  6
CONTINUOUS
 62
     3
100
AcDbLine
 10
725.663431
 20
582.90142
 30
0.0
 11
726.025972
 21
583.249638
 31
0.0
  0
LINE
  5
651
330
1F
100
AcDbEntity
  8
0
  6
CONTINUOUS
 62
     3
100
AcDbLine
 10
726.025972
 20
583.249638
 30
0.0
 11
726.326436
 21
583.612329
 31
0.0
  0
LINE
  5
652
330
1F
100
AcDbEntity
  8
0
  6
CONTINUOUS
 62
     3
100
AcDbLine
 10
726.326436
 20
583.612329
 30
0.0
 11
726.562534
 21
583.986734
 31
0.0
  0
LINE
  5
653
330
1F
100
AcDbEntity
  8
0
  6
CONTINUOUS
 62
     3
100
AcDbLine
 10
726.562534
 20
583.986734
 30
0.0
 11
726.732472
 21
584.370003
 31
0.0
  0
LINE
  5
654
330
1F
100
AcDbEntity
  8
0
  6
CONTINUOUS
 62
     3
100
AcDbLine
 10
726.732472
 20
584.370003
 30
0.0
 11
726.834954
 21
584.759219
 31
0.0
  0
LINE
  5
655
330
1F
100
AcDbEntity
  8
0
  6
CONTINUOUS
 62
     3
100
AcDbLine
 10
726.834954
 20
584.759219
 30
0.0
 11
726.869202
 21
585.15142
 31
0.0
  0
LINE
  5
656
330
1F
100
AcDbEntity
  8
0
  6
CONTINUOUS
 62
     3
100
AcDbLine
 10
726.869202
 20
588.634997
 30
0.0
 11
726.834954
 21
589.027198
 31
0.0
  0
LINE
  5
657
330
1F
100
AcDbEntity
  8
0
  6
CONTINUOUS
 62
     3
100
AcDbLine
 10
726.834954
 20
589.027198
 30
0.0
 11
726.732472
 21
589.416414
 31
0.0
  0
LINE
  5
658
330
1F
100
AcDbEntity
  8
0
  6
CONTINUOUS
 62
     3
100
AcDbLine
 10
726.732472
 20
589.416414
 30
0.0
 11
726.562534
 21
589.799683
 31
0.0
  0
LINE
  5
659
330
1F
100
AcDbEntity
  8
0
  6
CONTINUOUS
 62
     3
100
AcDbLine
 10
726.562534
 20
589.799683
 30
0.0
 11
726.326436
 21
590.174088
 31
0.0
  0
LINE
  5
65A
330
1F
100
AcDbEntity
  8
0
  6
CONTINUOUS
 62
     3
100
AcDbLine
 10
726.326436
 20
590.174088
 30
0.0
 11
726.025972
 21
590.536779
 31
0.0
  0
LINE
  5
65B
330
1F
100
AcDbEntity
  8
0
  6
CONTINUOUS
 62
     3
100
AcDbLine
 10
726.025972
 20
590.536779
 30
0.0
 11
725.663431
 21
590.884997
 31
0.0
  0
LINE
  5
65C
330
1F
100
AcDbEntity
  8
0
  6
CONTINUOUS
 62
     3
100
AcDbLine
 10
725.663431
 20
590.884997
 30
0.0
 11
725.24157
 21
591.216091
 31
0.0
  0
LINE
  5
65D
330
1F
100
AcDbEntity
  8
0
  6
CONTINUOUS
 62
     3
100
AcDbLine
 10
725.24157
 20
591.216091
 30
0.0
 11
724.763602
 21
591.527541
 31
0.0
  0
LINE
  5
65E
330
1F
100
AcDbEntity
  8
0
  6
CONTINUOUS
 62
     3
100
AcDbLine
 10
724.763602
 20
591.527541
 30
0.0
 11
724.233163
 21
591.816978
 31
0.0
  0
LINE
  5
65F
330
1F
100
AcDbEntity
  8
0
  6
CONTINUOUS
 62
     3
100
AcDbLine
 10
724.233163
 20
591.816978
 30
0.0
 11
723.654291
 21
592.082197
 31
0.0
  0
LINE
  5
660
330
1F
100
AcDbEntity
  8
0
  6
CONTINUOUS
 62
     3
100
AcDbLine
 10
723.654291
 20
592.082197
 30
0.0
 11
723.03139
 21
592.321181
 31
0.0
  0
LINE
  5
661
330
1F
100
AcDbEntity
  8
0
  6
CONTINUOUS
 62
     3
100
AcDbLine
 10
723.03139
 20
592.321181
 30
0.0
 11
722.369202
 21
592.532111
 31
0.0
  0
LINE
  5
662
330
1F
100
AcDbEntity
  8
0
  6
CONTINUOUS
 62
     3
100
AcDbLine
 10
722.369202
 20
592.532111
 30
0.0
 11
721.672766
 21
592.713382
 31
0.0
  0
LINE
  5
663
330
1F
100
AcDbEntity
  8
0
  6
CONTINUOUS
 62
     3
100
AcDbLine
 10
721.672766
 20
592.713382
 30
0.0
 11
720.947383
 21
592.863614
 31
0.0
  0
LINE
  5
664
330
1F
100
AcDbEntity
  8
0
  6
CONTINUOUS
 62
     3
100
AcDbLine
 10
720.947383
 20
592.863614
 30
0.0
 11
720.198573
 21
592.981663
 31
0.0
  0
LINE
  5
665
330
1F
100
AcDbEntity
  8
0
  6
CONTINUOUS
 62
     3
100
AcDbLine
 10
720.198573
 20
592.981663
 30
0.0
 11
719.432036
 21
593.066632
 31
0.0
  0
LINE
  5
666
330
1F
100
AcDbEntity
  8
0
  6
CONTINUOUS
 62
     3
100
AcDbLine
 10
719.432036
 20
593.066632
 30
0.0
 11
718.653604
 21
593.117873
 31
0.0
  0
LINE
  5
667
330
1F
100
AcDbEntity
  8
0
  6
CONTINUOUS
 62
     3
100
AcDbLine
 10
718.653604
 20
593.117873
 30
0.0
 11
717.869202
 21
593.134997
 31
0.0
  0
LINE
  5
668
330
1F
100
AcDbEntity
  8
0
  6
CONTINUOUS
 62
     3
100
AcDbLine
 10
717.869202
 20
593.134997
 30
0.0
 11
717.0848
 21
593.117873
 31
0.0
  0
LINE
  5
669
330
1F
100
AcDbEntity
  8
0
  6
CONTINUOUS
 62
     3
100
AcDbLine
 10
717.0848
 20
593.117873
 30
0.0
 11
716.306368
 21
593.066632
 31
0.0
  0
LINE
  5
66A
330
1F
100
AcDbEntity
  8
0
  6
CONTINUOUS
 62
     3
100
AcDbLine
 10
716.306368
 20
593.066632
 30
0.0
 11
715.539831
 21
592.981663
 31
0.0
  0
LINE
  5
66B
330
1F
100
AcDbEntity
  8
0
  6
CONTINUOUS
 62
     3
100
AcDbLine
 10
715.539831
 20
592.981663
 30
0.0
 11
714.791021
 21
592.863614
 31
0.0
  0
LINE
  5
66C
330
1F
100
AcDbEntity
  8
0
  6
CONTINUOUS
 62
     3
100
AcDbLine
 10
714.791021
 20
592.863614
 30
0.0
 11
714.065638
 21
592.713382
 31
0.0
  0
LINE
  5
66D
330
1F
100
AcDbEntity
  8
0
  6
CONTINUOUS
 62
     3
100
AcDbLine
 10
714.065638
 20
592.713382
 30
0.0
 11
713.369202
 21
592.532111
 31
0.0
  0
LINE
  5
66E
330
1F
100
AcDbEntity
  8
0
  6
CONTINUOUS
 62
     3
100
AcDbLine
 10
713.369202
 20
592.532111
 30
0.0
 11
712.707014
 21
592.321181
 31
0.0
  0
LINE
  5
66F
330
1F
100
AcDbEntity
  8
0
  6
CONTINUOUS
 62
     3
100
AcDbLine
 10
712.707014
 20
592.321181
 30
0.0
 11
712.084114
 21
592.082197
 31
0.0
  0
LINE
  5
670
330
1F
100
AcDbEntity
  8
0
  6
CONTINUOUS
 62
     3
100
AcDbLine
 10
712.084114
 20
592.082197
 30
0.0
 11
711.505241
 21
591.816978
 31
0.0
  0
LINE
  5
671
330
1F
100
AcDbEntity
  8
0
  6
CONTINUOUS
 62
     3
100
AcDbLine
 10
711.505241
 20
591.816978
 30
0.0
 11
710.974802
 21
591.527541
 31
0.0
  0
LINE
  5
672
330
1F
100
AcDbEntity
  8
0
  6
CONTINUOUS
 62
     3
100
AcDbLine
 10
710.974802
 20
591.527541
 30
0.0
 11
710.496834
 21
591.216091
 31
0.0
  0
LINE
  5
673
330
1F
100
AcDbEntity
  8
0
  6
CONTINUOUS
 62
     3
100
AcDbLine
 10
710.496834
 20
591.216091
 30
0.0
 11
710.074973
 21
590.884997
 31
0.0
  0
LINE
  5
674
330
1F
100
AcDbEntity
  8
0
  6
CONTINUOUS
 62
     3
100
AcDbLine
 10
710.074973
 20
590.884997
 30
0.0
 11
709.712432
 21
590.536779
 31
0.0
  0
LINE
  5
675
330
1F
100
AcDbEntity
  8
0
  6
CONTINUOUS
 62
     3
100
AcDbLine
 10
709.712432
 20
590.536779
 30
0.0
 11
709.411968
 21
590.174088
 31
0.0
  0
LINE
  5
676
330
1F
100
AcDbEntity
  8
0
  6
CONTINUOUS
 62
     3
100
AcDbLine
 10
709.411968
 20
590.174088
 30
0.0
 11
709.17587
 21
589.799683
 31
0.0
  0
LINE
  5
677
330
1F
100
AcDbEntity
  8
0
  6
CONTINUOUS
 62
     3
100
AcDbLine
 10
709.17587
 20
589.799683
 30
0.0
 11
709.005932
 21
589.416414
 31
0.0
  0
LINE
  5
678
330
1F
100
AcDbEntity
  8
0
  6
CONTINUOUS
 62
     3
100
AcDbLine
 10
709.005932
 20
589.416414
 30
0.0
 11
708.90345
 21
589.027198
 31
0.0
  0
LINE
  5
679
330
1F
100
AcDbEntity
  8
0
  6
CONTINUOUS
 62
     3
100
AcDbLine
 10
708.90345
 20
589.027198
 30
0.0
 11
708.869202
 21
588.634997
 31
0.0
  0
LINE
  5
67A
330
1F
100
AcDbEntity
  8
0
  6
CONTINUOUS
 62
     3
100
AcDbLine
 10
739.869202
 20
615.63276
 30
0.0
 11
739.869202
 21
592.989517
 31
0.0
  0
LINE
  5
67B
330
1F
100
AcDbEntity
  8
0
  6
CONTINUOUS
 62
     3
100
AcDbLine
 10
695.869202
 20
615.63276
 30
0.0
 11
695.869202
 21
592.989517
 31
0.0
  0
LINE
  5
67C
330
1F
100
AcDbEntity
  8
0
  6
CONTINUOUS
 62
     3
100
AcDbLine
 10
726.869202
 20
588.634997
 30
0.0
 11
726.869202
 21
585.15142
 31
0.0
  0
LINE
  5
67D
330
1F
100
AcDbEntity
  8
0
  6
CONTINUOUS
 62
     3
100
AcDbLine
 10
708.869202
 20
588.634997
 30
0.0
 11
708.869202
 21
585.15142
 31
0.0
  0
LINE
  5
67E
330
1F
100
AcDbEntity
  8
0
  6
CONTINUOUS
 62
     3
100
AcDbLine
 10
722.869202
 20
585.15142
 30
0.0
 11
722.869202
 21
582.974165
 31
0.0
  0
LINE
  5
67F
330
1F
100
AcDbEntity
  8
0
  6
CONTINUOUS
 62
     3
100
AcDbLine
 10
712.869202
 20
585.15142
 30
0.0
 11
712.869202
 21
582.974165
 31
0.0
  0
LINE
  5
680
330
1F
100
AcDbEntity
  8
0
  6
CONTINUOUS
 62
     3
100
AcDbLine
 10
748.295866
 20
661.197575
 30
0.0
 11
748.890646
 21
662.539016
 31
0.0
  0
LINE
  5
681
330
1F
100
AcDbEntity
  8
0
  6
CONTINUOUS
 62
     3
100
AcDbLine
 10
748.890646
 20
662.539016
 30
0.0
 11
749.249335
 21
663.901272
 31
0.0
  0
LINE
  5
682
330
1F
100
AcDbEntity
  8
0
  6
CONTINUOUS
 62
     3
100
AcDbLine
 10
749.249335
 20
663.901272
 30
0.0
 11
749.369202
 21
665.273975
 31
0.0
  0
LINE
  5
683
330
1F
100
AcDbEntity
  8
0
  6
CONTINUOUS
 62
     3
100
AcDbLine
 10
687.442538
 20
661.197575
 30
0.0
 11
686.847758
 21
662.539016
 31
0.0
  0
LINE
  5
684
330
1F
100
AcDbEntity
  8
0
  6
CONTINUOUS
 62
     3
100
AcDbLine
 10
686.847758
 20
662.539016
 30
0.0
 11
686.489069
 21
663.901272
 31
0.0
  0
LINE
  5
685
330
1F
100
AcDbEntity
  8
0
  6
CONTINUOUS
 62
     3
100
AcDbLine
 10
686.489069
 20
663.901272
 30
0.0
 11
686.369202
 21
665.273975
 31
0.0
  0
LINE
  5
686
330
1F
100
AcDbEntity
  8
0
  6
CONTINUOUS
 62
     3
100
AcDbLine
 10
717.869202
 20
762.675536
 30
0.0
 11
750.369202
 21
762.675536
 31
0.0
  0
LINE
  5
687
330
1F
100
AcDbEntity
  8
0
  6
CONTINUOUS
 62
     8
100
AcDbLine
 10
749.369202
 20
730.730464
 30
0.0
 11
750.369202
 21
730.730464
 31
0.0
  0
LINE
  5
688
330
1F
100
AcDbEntity
  8
0
  6
CONTINUOUS
 62
     3
100
AcDbLine
 10
673.869202
 20
787.060698
 30
0.0
 11
761.869202
 21
787.060698
 31
0.0
  0
LINE
  5
689
330
1F
100
AcDbEntity
  8
0
  6
CONTINUOUS
 62
     3
100
AcDbLine
 10
750.369202
 20
787.060698
 30
0.0
 11
750.369202
 21
730.730464
 31
0.0
  0
LINE
  5
68A
330
1F
100
AcDbEntity
  8
0
  6
CONTINUOUS
 62
     3
100
AcDbLine
 10
750.369202
 20
781.895581
 30
0.0
 11
760.369202
 21
771.895581
 31
0.0
  0
LINE
  5
68B
330
1F
100
AcDbEntity
  8
0
  6
CONTINUOUS
 62
     3
100
AcDbLine
 10
761.869202
 20
717.050262
 30
0.0
 11
761.869202
 21
789.122923
 31
0.0
  0
LINE
  5
68C
330
1F
100
AcDbEntity
  8
0
  6
CONTINUOUS
 62
     3
100
AcDbLine
 10
750.369202
 20
735.895581
 30
0.0
 11
760.369202
 21
745.895581
 31
0.0
  0
LINE
  5
68D
330
1F
100
AcDbEntity
  8
0
  6
CONTINUOUS
 62
     3
100
AcDbLine
 10
760.369202
 20
771.895581
 30
0.0
 11
760.369202
 21
745.895581
 31
0.0
  0
LINE
  5
68E
330
1F
100
AcDbEntity
  8
0
  6
CONTINUOUS
 62
     3
100
AcDbLine
 10
761.869202
 20
789.122923
 30
0.0
 11
773.869202
 21
789.122923
 31
0.0
  0
LINE
  5
68F
330
1F
100
AcDbEntity
  8
0
  6
CONTINUOUS
 62
     3
100
AcDbLine
 10
761.869202
 20
717.050262
 30
0.0
 11
773.869202
 21
717.050262
 31
0.0
  0
LINE
  5
690
330
1F
100
AcDbEntity
  8
0
  6
CONTINUOUS
 62
     3
100
AcDbLine
 10
731.469202
 20
988.812828
 30
0.0
 11
731.41745
 21
989.405487
 31
0.0
  0
LINE
  5
691
330
1F
100
AcDbEntity
  8
0
  6
CONTINUOUS
 62
     3
100
AcDbLine
 10
731.41745
 20
989.405487
 30
0.0
 11
731.262587
 21
989.993636
 31
0.0
  0
LINE
  5
692
330
1F
100
AcDbEntity
  8
0
  6
CONTINUOUS
 62
     3
100
AcDbLine
 10
731.262587
 20
989.993636
 30
0.0
 11
731.005793
 21
990.572798
 31
0.0
  0
LINE
  5
693
330
1F
100
AcDbEntity
  8
0
  6
CONTINUOUS
 62
     3
100
AcDbLine
 10
731.005793
 20
990.572798
 30
0.0
 11
730.649022
 21
991.138565
 31
0.0
  0
LINE
  5
694
330
1F
100
AcDbEntity
  8
0
  6
CONTINUOUS
 62
     3
100
AcDbLine
 10
730.649022
 20
991.138565
 30
0.0
 11
730.194988
 21
991.686632
 31
0.0
  0
LINE
  5
695
330
1F
100
AcDbEntity
  8
0
  6
CONTINUOUS
 62
     3
100
AcDbLine
 10
730.194988
 20
991.686632
 30
0.0
 11
729.647148
 21
992.212828
 31
0.0
  0
LINE
  5
696
330
1F
100
AcDbEntity
  8
0
  6
CONTINUOUS
 62
     3
100
AcDbLine
 10
729.647148
 20
992.212828
 30
0.0
 11
729.00967
 21
992.713148
 31
0.0
  0
LINE
  5
697
330
1F
100
AcDbEntity
  8
0
  6
CONTINUOUS
 62
     3
100
AcDbLine
 10
729.00967
 20
992.713148
 30
0.0
 11
728.287406
 21
993.183784
 31
0.0
  0
LINE
  5
698
330
1F
100
AcDbEntity
  8
0
  6
CONTINUOUS
 62
     3
100
AcDbLine
 10
728.287406
 20
993.183784
 30
0.0
 11
727.485854
 21
993.621154
 31
0.0
  0
LINE
  5
699
330
1F
100
AcDbEntity
  8
0
  6
CONTINUOUS
 62
     3
100
AcDbLine
 10
727.485854
 20
993.621154
 30
0.0
 11
726.611114
 21
994.021931
 31
0.0
  0
LINE
  5
69A
330
1F
100
AcDbEntity
  8
0
  6
CONTINUOUS
 62
     3
100
AcDbLine
 10
726.611114
 20
994.021931
 30
0.0
 11
725.669842
 21
994.383062
 31
0.0
  0
LINE
  5
69B
330
1F
100
AcDbEntity
  8
0
  6
CONTINUOUS
 62
     3
100
AcDbLine
 10
725.669842
 20
994.383062
 30
0.0
 11
724.669202
 21
994.701801
 31
0.0
  0
LINE
  5
69C
330
1F
100
AcDbEntity
  8
0
  6
CONTINUOUS
 62
     3
100
AcDbLine
 10
724.669202
 20
994.701801
 30
0.0
 11
723.61681
 21
994.975721
 31
0.0
  0
LINE
  5
69D
330
1F
100
AcDbEntity
  8
0
  6
CONTINUOUS
 62
     3
100
AcDbLine
 10
723.61681
 20
994.975721
 30
0.0
 11
722.520676
 21
995.202738
 31
0.0
  0
LINE
  5
69E
330
1F
100
AcDbEntity
  8
0
  6
CONTINUOUS
 62
     3
100
AcDbLine
 10
722.520676
 20
995.202738
 30
0.0
 11
721.389141
 21
995.381124
 31
0.0
  0
LINE
  5
69F
330
1F
100
AcDbEntity
  8
0
  6
CONTINUOUS
 62
     3
100
AcDbLine
 10
721.389141
 20
995.381124
 30
0.0
 11
720.230817
 21
995.509521
 31
0.0
  0
LINE
  5
6A0
330
1F
100
AcDbEntity
  8
0
  6
CONTINUOUS
 62
     3
100
AcDbLine
 10
720.230817
 20
995.509521
 30
0.0
 11
719.05452
 21
995.586952
 31
0.0
  0
LINE
  5
6A1
330
1F
100
AcDbEntity
  8
0
  6
CONTINUOUS
 62
     3
100
AcDbLine
 10
719.05452
 20
995.586952
 30
0.0
 11
717.869202
 21
995.612828
 31
0.0
  0
LINE
  5
6A2
330
1F
100
AcDbEntity
  8
0
  6
CONTINUOUS
 62
     3
100
AcDbLine
 10
717.869202
 20
995.612828
 30
0.0
 11
716.683884
 21
995.586952
 31
0.0
  0
LINE
  5
6A3
330
1F
100
AcDbEntity
  8
0
  6
CONTINUOUS
 62
     3
100
AcDbLine
 10
716.683884
 20
995.586952
 30
0.0
 11
715.507587
 21
995.509521
 31
0.0
  0
LINE
  5
6A4
330
1F
100
AcDbEntity
  8
0
  6
CONTINUOUS
 62
     3
100
AcDbLine
 10
715.507587
 20
995.509521
 30
0.0
 11
714.349263
 21
995.381124
 31
0.0
  0
LINE
  5
6A5
330
1F
100
AcDbEntity
  8
0
  6
CONTINUOUS
 62
     3
100
AcDbLine
 10
714.349263
 20
995.381124
 30
0.0
 11
713.217728
 21
995.202738
 31
0.0
  0
LINE
  5
6A6
330
1F
100
AcDbEntity
  8
0
  6
CONTINUOUS
 62
     3
100
AcDbLine
 10
713.217728
 20
995.202738
 30
0.0
 11
712.121594
 21
994.975721
 31
0.0
  0
LINE
  5
6A7
330
1F
100
AcDbEntity
  8
0
  6
CONTINUOUS
 62
     3
100
AcDbLine
 10
712.121594
 20
994.975721
 30
0.0
 11
711.069202
 21
994.701801
 31
0.0
  0
LINE
  5
6A8
330
1F
100
AcDbEntity
  8
0
  6
CONTINUOUS
 62
     3
100
AcDbLine
 10
711.069202
 20
994.701801
 30
0.0
 11
710.068562
 21
994.383062
 31
0.0
  0
LINE
  5
6A9
330
1F
100
AcDbEntity
  8
0
  6
CONTINUOUS
 62
     3
100
AcDbLine
 10
710.068562
 20
994.383062
 30
0.0
 11
709.127291
 21
994.021931
 31
0.0
  0
LINE
  5
6AA
330
1F
100
AcDbEntity
  8
0
  6
CONTINUOUS
 62
     3
100
AcDbLine
 10
709.127291
 20
994.021931
 30
0.0
 11
708.25255
 21
993.621154
 31
0.0
  0
LINE
  5
6AB
330
1F
100
AcDbEntity
  8
0
  6
CONTINUOUS
 62
     3
100
AcDbLine
 10
708.25255
 20
993.621154
 30
0.0
 11
707.450998
 21
993.183784
 31
0.0
  0
LINE
  5
6AC
330
1F
100
AcDbEntity
  8
0
  6
CONTINUOUS
 62
     3
100
AcDbLine
 10
707.450998
 20
993.183784
 30
0.0
 11
706.728734
 21
992.713148
 31
0.0
  0
LINE
  5
6AD
330
1F
100
AcDbEntity
  8
0
  6
CONTINUOUS
 62
     3
100
AcDbLine
 10
706.728734
 20
992.713148
 30
0.0
 11
706.091257
 21
992.212828
 31
0.0
  0
LINE
  5
6AE
330
1F
100
AcDbEntity
  8
0
  6
CONTINUOUS
 62
     3
100
AcDbLine
 10
706.091257
 20
992.212828
 30
0.0
 11
705.543416
 21
991.686632
 31
0.0
  0
LINE
  5
6AF
330
1F
100
AcDbEntity
  8
0
  6
CONTINUOUS
 62
     3
100
AcDbLine
 10
705.543416
 20
991.686632
 30
0.0
 11
705.089382
 21
991.138565
 31
0.0
  0
LINE
  5
6B0
330
1F
100
AcDbEntity
  8
0
  6
CONTINUOUS
 62
     3
100
AcDbLine
 10
705.089382
 20
991.138565
 30
0.0
 11
704.732611
 21
990.572798
 31
0.0
  0
LINE
  5
6B1
330
1F
100
AcDbEntity
  8
0
  6
CONTINUOUS
 62
     3
100
AcDbLine
 10
704.732611
 20
990.572798
 30
0.0
 11
704.475817
 21
989.993636
 31
0.0
  0
LINE
  5
6B2
330
1F
100
AcDbEntity
  8
0
  6
CONTINUOUS
 62
     3
100
AcDbLine
 10
704.475817
 20
989.993636
 30
0.0
 11
704.320954
 21
989.405487
 31
0.0
  0
LINE
  5
6B3
330
1F
100
AcDbEntity
  8
0
  6
CONTINUOUS
 62
     3
100
AcDbLine
 10
704.320954
 20
989.405487
 30
0.0
 11
704.269202
 21
988.812828
 31
0.0
  0
LINE
  5
6B4
330
1F
100
AcDbEntity
  8
0
  6
CONTINUOUS
 62
     3
100
AcDbLine
 10
739.219202
 20
906.948354
 30
0.0
 11
739.137959
 21
907.878742
 31
0.0
  0
LINE
  5
6B5
330
1F
100
AcDbEntity
  8
0
  6
CONTINUOUS
 62
     3
100
AcDbLine
 10
739.137959
 20
907.878742
 30
0.0
 11
738.894848
 21
908.802048
 31
0.0
  0
LINE
  5
6B6
330
1F
100
AcDbEntity
  8
0
  6
CONTINUOUS
 62
     3
100
AcDbLine
 10
738.894848
 20
908.802048
 30
0.0
 11
738.491718
 21
909.711247
 31
0.0
  0
LINE
  5
6B7
330
1F
100
AcDbEntity
  8
0
  6
CONTINUOUS
 62
     3
100
AcDbLine
 10
738.491718
 20
909.711247
 30
0.0
 11
737.931639
 21
910.599419
 31
0.0
  0
LINE
  5
6B8
330
1F
100
AcDbEntity
  8
0
  6
CONTINUOUS
 62
     3
100
AcDbLine
 10
737.931639
 20
910.599419
 30
0.0
 11
737.218873
 21
911.459804
 31
0.0
  0
LINE
  5
6B9
330
1F
100
AcDbEntity
  8
0
  6
CONTINUOUS
 62
     3
100
AcDbLine
 10
737.218873
 20
911.459804
 30
0.0
 11
736.358844
 21
912.285854
 31
0.0
  0
LINE
  5
6BA
330
1F
100
AcDbEntity
  8
0
  6
CONTINUOUS
 62
     3
100
AcDbLine
 10
736.358844
 20
912.285854
 30
0.0
 11
735.358098
 21
913.071282
 31
0.0
  0
LINE
  5
6BB
330
1F
100
AcDbEntity
  8
0
  6
CONTINUOUS
 62
     3
100
AcDbLine
 10
735.358098
 20
913.071282
 30
0.0
 11
734.224251
 21
913.810112
 31
0.0
  0
LINE
  5
6BC
330
1F
100
AcDbEntity
  8
0
  6
CONTINUOUS
 62
     3
100
AcDbLine
 10
734.224251
 20
913.810112
 30
0.0
 11
732.965932
 21
914.496719
 31
0.0
  0
LINE
  5
6BD
330
1F
100
AcDbEntity
  8
0
  6
CONTINUOUS
 62
     3
100
AcDbLine
 10
732.965932
 20
914.496719
 30
0.0
 11
731.592717
 21
915.125878
 31
0.0
  0
LINE
  5
6BE
330
1F
100
AcDbEntity
  8
0
  6
CONTINUOUS
 62
     3
100
AcDbLine
 10
731.592717
 20
915.125878
 30
0.0
 11
730.115059
 21
915.692802
 31
0.0
  0
LINE
  5
6BF
330
1F
100
AcDbEntity
  8
0
  6
CONTINUOUS
 62
     3
100
AcDbLine
 10
730.115059
 20
915.692802
 30
0.0
 11
728.544202
 21
916.193175
 31
0.0
  0
LINE
  5
6C0
330
1F
100
AcDbEntity
  8
0
  6
CONTINUOUS
 62
     3
100
AcDbLine
 10
728.544202
 20
916.193175
 30
0.0
 11
726.892102
 21
916.62319
 31
0.0
  0
LINE
  5
6C1
330
1F
100
AcDbEntity
  8
0
  6
CONTINUOUS
 62
     3
100
AcDbLine
 10
726.892102
 20
916.62319
 30
0.0
 11
725.171332
 21
916.979573
 31
0.0
  0
LINE
  5
6C2
330
1F
100
AcDbEntity
  8
0
  6
CONTINUOUS
 62
     3
100
AcDbLine
 10
725.171332
 20
916.979573
 30
0.0
 11
723.394989
 21
917.259612
 31
0.0
  0
LINE
  5
6C3
330
1F
100
AcDbEntity
  8
0
  6
CONTINUOUS
 62
     3
100
AcDbLine
 10
723.394989
 20
917.259612
 30
0.0
 11
721.576591
 21
917.461177
 31
0.0
  0
LINE
  5
6C4
330
1F
100
AcDbEntity
  8
0
  6
CONTINUOUS
 62
     3
100
AcDbLine
 10
721.576591
 20
917.461177
 30
0.0
 11
719.729977
 21
917.582732
 31
0.0
  0
LINE
  5
6C5
330
1F
100
AcDbEntity
  8
0
  6
CONTINUOUS
 62
     3
100
AcDbLine
 10
719.729977
 20
917.582732
 30
0.0
 11
717.869202
 21
917.623354
 31
0.0
  0
LINE
  5
6C6
330
1F
100
AcDbEntity
  8
0
  6
CONTINUOUS
 62
     3
100
AcDbLine
 10
717.869202
 20
917.623354
 30
0.0
 11
716.008427
 21
917.582732
 31
0.0
  0
LINE
  5
6C7
330
1F
100
AcDbEntity
  8
0
  6
CONTINUOUS
 62
     3
100
AcDbLine
 10
716.008427
 20
917.582732
 30
0.0
 11
714.161813
 21
917.461177
 31
0.0
  0
LINE
  5
6C8
330
1F
100
AcDbEntity
  8
0
  6
CONTINUOUS
 62
     3
100
AcDbLine
 10
714.161813
 20
917.461177
 30
0.0
 11
712.343415
 21
917.259612
 31
0.0
  0
LINE
  5
6C9
330
1F
100
AcDbEntity
  8
0
  6
CONTINUOUS
 62
     3
100
AcDbLine
 10
712.343415
 20
917.259612
 30
0.0
 11
710.567072
 21
916.979573
 31
0.0
  0
LINE
  5
6CA
330
1F
100
AcDbEntity
  8
0
  6
CONTINUOUS
 62
     3
100
AcDbLine
 10
710.567072
 20
916.979573
 30
0.0
 11
708.846302
 21
916.62319
 31
0.0
  0
LINE
  5
6CB
330
1F
100
AcDbEntity
  8
0
  6
CONTINUOUS
 62
     3
100
AcDbLine
 10
708.846302
 20
916.62319
 30
0.0
 11
707.194202
 21
916.193175
 31
0.0
  0
LINE
  5
6CC
330
1F
100
AcDbEntity
  8
0
  6
CONTINUOUS
 62
     3
100
AcDbLine
 10
707.194202
 20
916.193175
 30
0.0
 11
705.623345
 21
915.692802
 31
0.0
  0
LINE
  5
6CD
330
1F
100
AcDbEntity
  8
0
  6
CONTINUOUS
 62
     3
100
AcDbLine
 10
705.623345
 20
915.692802
 30
0.0
 11
704.145687
 21
915.125878
 31
0.0
  0
LINE
  5
6CE
330
1F
100
AcDbEntity
  8
0
  6
CONTINUOUS
 62
     3
100
AcDbLine
 10
704.145687
 20
915.125878
 30
0.0
 11
702.772472
 21
914.496719
 31
0.0
  0
LINE
  5
6CF
330
1F
100
AcDbEntity
  8
0
  6
CONTINUOUS
 62
     3
100
AcDbLine
 10
702.772472
 20
914.496719
 30
0.0
 11
701.514153
 21
913.810112
 31
0.0
  0
LINE
  5
6D0
330
1F
100
AcDbEntity
  8
0
  6
CONTINUOUS
 62
     3
100
AcDbLine
 10
701.514153
 20
913.810112
 30
0.0
 11
700.380306
 21
913.071282
 31
0.0
  0
LINE
  5
6D1
330
1F
100
AcDbEntity
  8
0
  6
CONTINUOUS
 62
     3
100
AcDbLine
 10
700.380306
 20
913.071282
 30
0.0
 11
699.37956
 21
912.285854
 31
0.0
  0
LINE
  5
6D2
330
1F
100
AcDbEntity
  8
0
  6
CONTINUOUS
 62
     3
100
AcDbLine
 10
699.37956
 20
912.285854
 30
0.0
 11
698.519531
 21
911.459804
 31
0.0
  0
LINE
  5
6D3
330
1F
100
AcDbEntity
  8
0
  6
CONTINUOUS
 62
     3
100
AcDbLine
 10
698.519531
 20
911.459804
 30
0.0
 11
697.806765
 21
910.599419
 31
0.0
  0
LINE
  5
6D4
330
1F
100
AcDbEntity
  8
0
  6
CONTINUOUS
 62
     3
100
AcDbLine
 10
697.806765
 20
910.599419
 30
0.0
 11
697.246686
 21
909.711247
 31
0.0
  0
LINE
  5
6D5
330
1F
100
AcDbEntity
  8
0
  6
CONTINUOUS
 62
     3
100
AcDbLine
 10
697.246686
 20
909.711247
 30
0.0
 11
696.843556
 21
908.802048
 31
0.0
  0
LINE
  5
6D6
330
1F
100
AcDbEntity
  8
0
  6
CONTINUOUS
 62
     3
100
AcDbLine
 10
696.843556
 20
908.802048
 30
0.0
 11
696.600445
 21
907.878742
 31
0.0
  0
LINE
  5
6D7
330
1F
100
AcDbEntity
  8
0
  6
CONTINUOUS
 62
     3
100
AcDbLine
 10
696.600445
 20
907.878742
 30
0.0
 11
696.519202
 21
906.948354
 31
0.0
  0
LINE
  5
6D8
330
1F
100
AcDbEntity
  8
0
  6
CONTINUOUS
 62
     3
100
AcDbLine
 10
739.219202
 20
906.948354
 30
0.0
 11
739.219202
 21
787.060698
 31
0.0
  0
LINE
  5
6D9
330
1F
100
AcDbEntity
  8
0
  6
CONTINUOUS
 62
     3
100
AcDbLine
 10
696.519202
 20
906.948354
 30
0.0
 11
696.519202
 21
787.060698
 31
0.0
  0
LINE
  5
6DA
330
1F
100
AcDbEntity
  8
0
  6
CONTINUOUS
 62
     3
100
AcDbLine
 10
731.469202
 20
988.812828
 30
0.0
 11
731.469202
 21
915.173267
 31
0.0
  0
LINE
  5
6DB
330
1F
100
AcDbEntity
  8
0
  6
CONTINUOUS
 62
     3
100
AcDbLine
 10
704.269202
 20
988.812828
 30
0.0
 11
704.269202
 21
915.173267
 31
0.0
  0
LINE
  5
6DC
330
1F
100
AcDbEntity
  8
0
  6
CONTINUOUS
 62
     3
100
AcDbLine
 10
731.469202
 20
985.014832
 30
0.0
 11
731.869202
 21
985.014832
 31
0.0
  0
LINE
  5
6DD
330
1F
100
AcDbEntity
  8
0
  6
CONTINUOUS
 62
     3
100
AcDbLine
 10
731.869202
 20
1016.995987
 30
0.0
 11
731.869202
 21
985.014832
 31
0.0
  0
LINE
  5
6DE
330
1F
100
AcDbEntity
  8
0
  6
CONTINUOUS
 62
     3
100
AcDbLine
 10
685.369202
 20
787.060698
 30
0.0
 11
685.369202
 21
730.730464
 31
0.0
  0
LINE
  5
6DF
330
1F
100
AcDbEntity
  8
0
  6
CONTINUOUS
 62
     3
100
AcDbLine
 10
685.369202
 20
781.895581
 30
0.0
 11
675.369202
 21
771.895581
 31
0.0
  0
LINE
  5
6E0
330
1F
100
AcDbEntity
  8
0
  6
CONTINUOUS
 62
     3
100
AcDbLine
 10
675.369202
 20
745.895581
 30
0.0
 11
675.369202
 21
771.895581
 31
0.0
  0
LINE
  5
6E1
330
1F
100
AcDbEntity
  8
0
  6
CONTINUOUS
 62
     3
100
AcDbLine
 10
685.369202
 20
735.895581
 30
0.0
 11
675.369202
 21
745.895581
 31
0.0
  0
LINE
  5
6E2
330
1F
100
AcDbEntity
  8
0
  6
CONTINUOUS
 62
     3
100
AcDbLine
 10
686.369202
 20
730.730464
 30
0.0
 11
685.369202
 21
730.730464
 31
0.0
  0
LINE
  5
6E3
330
1F
100
AcDbEntity
  8
0
  6
CONTINUOUS
 62
     3
100
AcDbLine
 10
717.869202
 20
762.675536
 30
0.0
 11
685.369202
 21
762.675536
 31
0.0
  0
LINE
  5
6E4
330
1F
100
AcDbEntity
  8
0
  6
CONTINUOUS
 62
     3
100
AcDbLine
 10
673.869202
 20
717.050262
 30
0.0
 11
673.869202
 21
789.122923
 31
0.0
  0
LINE
  5
6E5
330
1F
100
AcDbEntity
  8
0
  6
CONTINUOUS
 62
     3
100
AcDbLine
 10
673.869202
 20
789.122923
 30
0.0
 11
661.869202
 21
789.122923
 31
0.0
  0
LINE
  5
6E6
330
1F
100
AcDbEntity
  8
0
  6
CONTINUOUS
 62
     8
100
AcDbLine
 10
673.869202
 20
717.050262
 30
0.0
 11
661.869202
 21
717.050262
 31
0.0
  0
LINE
  5
6E7
330
1F
100
AcDbEntity
  8
0
  6
CONTINUOUS
 62
     3
100
AcDbLine
 10
765.869202
 20
961.926361
 30
0.0
 11
773.869202
 21
961.926361
 31
0.0
  0
LINE
  5
6E8
330
1F
100
AcDbEntity
  8
0
  6
CONTINUOUS
 62
     3
100
AcDbLine
 10
765.869202
 20
926.926361
 30
0.0
 11
773.869202
 21
926.926361
 31
0.0
  0
LINE
  5
6E9
330
1F
100
AcDbEntity
  8
0
  6
CONTINUOUS
 62
     3
100
AcDbLine
 10
765.869202
 20
926.926361
 30
0.0
 11
765.869202
 21
961.926361
 31
0.0
  0
LINE
  5
6EA
330
1F
100
AcDbEntity
  8
0
  6
CONTINUOUS
 62
     3
100
AcDbLine
 10
669.869202
 20
961.926361
 30
0.0
 11
661.869202
 21
961.926361
 31
0.0
  0
LINE
  5
6EB
330
1F
100
AcDbEntity
  8
0
  6
CONTINUOUS
 62
     3
100
AcDbLine
 10
669.869202
 20
926.926361
 30
0.0
 11
661.869202
 21
926.926361
 31
0.0
  0
LINE
  5
6EC
330
1F
100
AcDbEntity
  8
0
  6
CONTINUOUS
 62
     3
100
AcDbLine
 10
669.869202
 20
926.926361
 30
0.0
 11
669.869202
 21
961.926361
 31
0.0
  0
LINE
  5
6ED
330
1F
100
AcDbEntity
  8
0
  6
CONTINUOUS
 62
     3
100
AcDbLine
 10
755.869202
 20
958.026361
 30
0.0
 11
738.869202
 21
958.026361
 31
0.0
  0
LINE
  5
6EE
330
1F
100
AcDbEntity
  8
0
  6
CONTINUOUS
 62
     3
100
AcDbLine
 10
764.869202
 20
923.676881
 30
0.0
 11
764.869202
 21
988.812828
 31
0.0
  0
LINE
  5
6EF
330
1F
100
AcDbEntity
  8
0
  6
CONTINUOUS
 62
     3
100
AcDbLine
 10
755.869202
 20
923.676881
 30
0.0
 11
755.869202
 21
988.812828
 31
0.0
  0
LINE
  5
6F0
330
1F
100
AcDbEntity
  8
0
  6
CONTINUOUS
 62
     3
100
AcDbLine
 10
738.869202
 20
931.426361
 30
0.0
 11
738.869202
 21
1013.00541
 31
0.0
  0
LINE
  5
6F1
330
1F
100
AcDbEntity
  8
0
  6
CONTINUOUS
 62
     3
100
AcDbLine
 10
764.869202
 20
988.812828
 30
0.0
 11
755.869202
 21
988.812828
 31
0.0
  0
LINE
  5
6F2
330
1F
100
AcDbEntity
  8
0
  6
CONTINUOUS
 62
     3
100
AcDbLine
 10
738.869202
 20
1013.00541
 30
0.0
 11
732.869202
 21
1013.00541
 31
0.0
  0
LINE
  5
6F3
330
1F
100
AcDbEntity
  8
0
  6
CONTINUOUS
 62
     3
100
AcDbLine
 10
755.869202
 20
927.826361
 30
0.0
 11
731.469202
 21
927.826361
 31
0.0
  0
LINE
  5
6F4
330
1F
100
AcDbEntity
  8
0
  6
CONTINUOUS
 62
     3
100
AcDbLine
 10
764.869202
 20
923.676881
 30
0.0
 11
755.869202
 21
923.676881
 31
0.0
  0
LINE
  5
6F5
330
1F
100
AcDbEntity
  8
0
  6
CONTINUOUS
 62
     8
100
AcDbLine
 10
732.869202
 20
931.426361
 30
0.0
 11
738.869202
 21
931.426361
 31
0.0
  0
LINE
  5
6F6
330
1F
100
AcDbEntity
  8
0
  6
CONTINUOUS
 62
     8
100
AcDbLine
 10
732.869202
 20
974.826361
 30
0.0
 11
732.869202
 21
930.826361
 31
0.0
  0
LINE
  5
6F7
330
1F
100
AcDbEntity
  8
0
  6
CONTINUOUS
 62
     8
100
AcDbLine
 10
755.869202
 20
958.026361
 30
0.0
 11
755.869202
 21
983.026361
 31
0.0
  0
LINE
  5
6F8
330
1F
100
AcDbEntity
  8
0
  6
CONTINUOUS
 62
     8
100
AcDbLine
 10
738.869202
 20
983.026361
 30
0.0
 11
738.869202
 21
958.026361
 31
0.0
  0
LINE
  5
6F9
330
1F
100
AcDbEntity
  8
0
  6
CONTINUOUS
 62
     3
100
AcDbLine
 10
731.469202
 20
930.826361
 30
0.0
 11
755.869202
 21
930.826361
 31
0.0
  0
LINE
  5
6FA
330
1F
100
AcDbEntity
  8
0
  6
CONTINUOUS
 62
     8
100
AcDbLine
 10
755.869202
 20
930.826361
 30
0.0
 11
755.869202
 21
924.826361
 31
0.0
  0
LINE
  5
6FB
330
1F
100
AcDbEntity
  8
0
  6
CONTINUOUS
 62
     3
100
AcDbLine
 10
679.869202
 20
958.026361
 30
0.0
 11
696.869202
 21
958.026361
 31
0.0
  0
LINE
  5
6FC
330
1F
100
AcDbEntity
  8
0
  6
CONTINUOUS
 62
     3
100
AcDbLine
 10
670.869202
 20
923.676881
 30
0.0
 11
670.869202
 21
988.812828
 31
0.0
  0
LINE
  5
6FD
330
1F
100
AcDbEntity
  8
0
  6
CONTINUOUS
 62
     3
100
AcDbLine
 10
679.869202
 20
923.676881
 30
0.0
 11
679.869202
 21
988.812828
 31
0.0
  0
LINE
  5
6FE
330
1F
100
AcDbEntity
  8
0
  6
CONTINUOUS
 62
     3
100
AcDbLine
 10
696.869202
 20
931.426361
 30
0.0
 11
696.869202
 21
1013.00541
 31
0.0
  0
LINE
  5
6FF
330
1F
100
AcDbEntity
  8
0
  6
CONTINUOUS
 62
     3
100
AcDbLine
 10
670.869202
 20
988.812828
 30
0.0
 11
679.869202
 21
988.812828
 31
0.0
  0
LINE
  5
700
330
1F
100
AcDbEntity
  8
0
  6
CONTINUOUS
 62
     3
100
AcDbLine
 10
696.869202
 20
1013.00541
 30
0.0
 11
702.869202
 21
1013.00541
 31
0.0
  0
LINE
  5
701
330
1F
100
AcDbEntity
  8
0
  6
CONTINUOUS
 62
     3
100
AcDbLine
 10
679.869202
 20
927.826361
 30
0.0
 11
704.269202
 21
927.826361
 31
0.0
  0
LINE
  5
702
330
1F
100
AcDbEntity
  8
0
  6
CONTINUOUS
 62
     3
100
AcDbLine
 10
670.869202
 20
923.676881
 30
0.0
 11
679.869202
 21
923.676881
 31
0.0
  0
LINE
  5
703
330
1F
100
AcDbEntity
  8
0
  6
CONTINUOUS
 62
     3
100
AcDbLine
 10
702.869202
 20
931.426361
 30
0.0
 11
696.869202
 21
931.426361
 31
0.0
  0
LINE
  5
704
330
1F
100
AcDbEntity
  8
0
  6
CONTINUOUS
 62
     3
100
AcDbLine
 10
702.869202
 20
974.826361
 30
0.0
 11
702.869202
 21
930.826361
 31
0.0
  0
LINE
  5
705
330
1F
100
AcDbEntity
  8
0
  6
CONTINUOUS
 62
     8
100
AcDbLine
 10
679.869202
 20
930.826361
 30
0.0
 11
679.869202
 21
924.826361
 31
0.0
  0
LINE
  5
706
330
1F
100
AcDbEntity
  8
0
  6
CONTINUOUS
 62
     3
100
AcDbLine
 10
679.869202
 20
930.826361
 30
0.0
 11
704.269202
 21
930.826361
 31
0.0
  0
LINE
  5
707
330
1F
100
AcDbEntity
  8
0
  6
CONTINUOUS
 62
     3
100
AcDbLine
 10
755.869202
 20
970.526361
 30
0.0
 11
738.869202
 21
970.526361
 31
0.0
  0
LINE
  5
708
330
1F
100
AcDbEntity
  8
0
  6
CONTINUOUS
 62
     8
100
AcDbLine
 10
755.869202
 20
958.026361
 30
0.0
 11
738.869202
 21
958.026361
 31
0.0
  0
LINE
  5
709
330
1F
100
AcDbEntity
  8
0
  6
CONTINUOUS
 62
     8
100
AcDbLine
 10
679.869202
 20
958.026361
 30
0.0
 11
679.869202
 21
983.026361
 31
0.0
  0
LINE
  5
70A
330
1F
100
AcDbEntity
  8
0
  6
CONTINUOUS
 62
     8
100
AcDbLine
 10
679.869202
 20
958.026361
 30
0.0
 11
696.869202
 21
958.026361
 31
0.0
  0
LINE
  5
70B
330
1F
100
AcDbEntity
  8
0
  6
CONTINUOUS
 62
     8
100
AcDbLine
 10
696.869202
 20
983.026361
 30
0.0
 11
696.869202
 21
958.026361
 31
0.0
  0
LINE
  5
70C
330
1F
100
AcDbEntity
  8
0
  6
CONTINUOUS
 62
     3
100
AcDbLine
 10
679.869202
 20
970.526361
 30
0.0
 11
696.869202
 21
970.526361
 31
0.0
  0
LINE
  5
70D
330
1F
100
AcDbEntity
  8
0
  6
CONTINUOUS
 62
     3
100
AcDbLine
 10
732.869202
 20
931.426361
 30
0.0
 11
732.869202
 21
1013.00541
 31
0.0
  0
LINE
  5
70E
330
1F
100
AcDbEntity
  8
0
  6
CONTINUOUS
 62
     3
100
AcDbLine
 10
702.869202
 20
1013.00541
 30
0.0
 11
702.869202
 21
931.426361
 31
0.0
  0
LINE
  5
70F
330
1F
100
AcDbEntity
  8
0
  6
CONTINUOUS
 62
     3
100
AcDbLine
 10
755.869202
 20
962.026361
 30
0.0
 11
738.869202
 21
962.026361
 31
0.0
  0
LINE
  5
710
330
1F
100
AcDbEntity
  8
0
  6
CONTINUOUS
 62
     3
100
AcDbLine
 10
679.869202
 20
962.026361
 30
0.0
 11
696.869202
 21
962.026361
 31
0.0
  0
LINE
  5
711
330
1F
100
AcDbEntity
  8
0
  6
CENTER
 62
     6
100
AcDbLine
 10
751.478191
 20
956.946932
 30
0.0
 11
769.750121
 21
956.946932
 31
0.0
  0
LINE
  5
712
330
1F
100
AcDbEntity
  8
0
  6
CENTER
 62
     6
100
AcDbLine
 10
684.260213
 20
956.946932
 30
0.0
 11
665.988283
 21
956.946932
 31
0.0
  0
LINE
  5
713
330
1F
100
AcDbEntity
  8
0
  6
CONTINUOUS
 62
     3
100
AcDbLine
 10
731.869202
 20
1016.995987
 30
0.0
 11
703.869202
 21
1016.995987
 31
0.0
  0
LINE
  5
714
330
1F
100
AcDbEntity
  8
0
  6
CONTINUOUS
 62
     3
100
AcDbLine
 10
731.869202
 20
996.112828
 30
0.0
 11
703.869202
 21
996.112828
 31
0.0
  0
LINE
  5
715
330
1F
100
AcDbEntity
  8
0
  6
CONTINUOUS
 62
     3
100
AcDbLine
 10
703.869202
 20
1016.995987
 30
0.0
 11
703.869202
 21
985.014832
 31
0.0
  0
LINE
  5
716
330
1F
100
AcDbEntity
  8
0
  6
CONTINUOUS
 62
     8
100
AcDbLine
 10
704.269202
 20
985.014832
 30
0.0
 11
703.869202
 21
985.014832
 31
0.0
  0
LINE
  5
717
330
1F
100
AcDbEntity
  8
0
  6
CENTER
 62
     6
100
AcDbLine
 10
751.119202
 20
1001.00541
 30
0.0
 11
684.619202
 21
1001.00541
 31
0.0
  0
LINE
  5
718
330
1F
100
AcDbEntity
  8
0
  6
CENTER
 62
     6
100
AcDbLine
 10
647.704841
 20
944.426361
 30
0.0
 11
782.876415
 21
944.426361
 31
0.0
  0
LINE
  5
719
330
1F
100
AcDbEntity
  8
0
  6
CONTINUOUS
 62
     3
100
AcDbLine
 10
738.869202
 20
1009.50541
 30
0.0
 11
741.869202
 21
1009.50541
 31
0.0
  0
LINE
  5
71A
330
1F
100
AcDbEntity
  8
0
  6
CONTINUOUS
 62
     3
100
AcDbLine
 10
741.869202
 20
1009.50541
 30
0.0
 11
741.869202
 21
977.50541
 31
0.0
  0
LINE
  5
71B
330
1F
100
AcDbEntity
  8
0
  6
CONTINUOUS
 62
     3
100
AcDbLine
 10
741.869202
 20
977.50541
 30
0.0
 11
738.869202
 21
977.50541
 31
0.0
  0
LINE
  5
71C
330
1F
100
AcDbEntity
  8
0
  6
CONTINUOUS
 62
     3
100
AcDbLine
 10
741.869202
 20
980.00541
 30
0.0
 11
742.869202
 21
980.00541
 31
0.0
  0
LINE
  5
71D
330
1F
100
AcDbEntity
  8
0
  6
CONTINUOUS
 62
     3
100
AcDbLine
 10
742.869202
 20
980.50541
 30
0.0
 11
746.869202
 21
980.50541
 31
0.0
  0
LINE
  5
71E
330
1F
100
AcDbEntity
  8
0
  6
CONTINUOUS
 62
     3
100
AcDbLine
 10
746.869202
 20
980.50541
 30
0.0
 11
746.869202
 21
991.50541
 31
0.0
  0
LINE
  5
71F
330
1F
100
AcDbEntity
  8
0
  6
CONTINUOUS
 62
     3
100
AcDbLine
 10
746.869202
 20
991.50541
 30
0.0
 11
742.869202
 21
991.50541
 31
0.0
  0
LINE
  5
720
330
1F
100
AcDbEntity
  8
0
  6
CONTINUOUS
 62
     3
100
AcDbLine
 10
742.869202
 20
992.00541
 30
0.0
 11
741.869202
 21
992.00541
 31
0.0
  0
LINE
  5
721
330
1F
100
AcDbEntity
  8
0
  6
CONTINUOUS
 62
     3
100
AcDbLine
 10
742.869202
 20
992.00541
 30
0.0
 11
742.869202
 21
980.00541
 31
0.0
  0
LINE
  5
722
330
1F
100
AcDbEntity
  8
0
  6
CONTINUOUS
 62
     3
100
AcDbLine
 10
746.869202
 20
988.70541
 30
0.0
 11
742.869202
 21
988.70541
 31
0.0
  0
LINE
  5
723
330
1F
100
AcDbEntity
  8
0
  6
CONTINUOUS
 62
     3
100
AcDbLine
 10
742.869202
 20
983.30541
 30
0.0
 11
746.869202
 21
983.30541
 31
0.0
  0
LINE
  5
724
330
1F
100
AcDbEntity
  8
0
  6
CONTINUOUS
 62
     3
100
AcDbLine
 10
696.869202
 20
1007.00541
 30
0.0
 11
695.869202
 21
1007.00541
 31
0.0
  0
LINE
  5
725
330
1F
100
AcDbEntity
  8
0
  6
CONTINUOUS
 62
     3
100
AcDbLine
 10
695.869202
 20
1007.00541
 30
0.0
 11
694.869202
 21
1006.00541
 31
0.0
  0
LINE
  5
726
330
1F
100
AcDbEntity
  8
0
  6
CONTINUOUS
 62
     3
100
AcDbLine
 10
694.869202
 20
1006.00541
 30
0.0
 11
694.869202
 21
996.00541
 31
0.0
  0
LINE
  5
727
330
1F
100
AcDbEntity
  8
0
  6
CONTINUOUS
 62
     3
100
AcDbLine
 10
694.869202
 20
996.00541
 30
0.0
 11
695.869202
 21
995.00541
 31
0.0
  0
LINE
  5
728
330
1F
100
AcDbEntity
  8
0
  6
CONTINUOUS
 62
     3
100
AcDbLine
 10
695.869202
 20
995.00541
 30
0.0
 11
696.869202
 21
995.00541
 31
0.0
  0
LINE
  5
729
330
1F
100
AcDbEntity
  8
0
  6
PHANTOM
 62
     6
100
AcDbLine
 10
769.619202
 20
837.682936
 30
0.0
 11
769.619202
 21
995.858107
 31
0.0
  0
LINE
  5
72A
330
1F
100
AcDbEntity
  8
0
  6
PHANTOM
 62
     6
100
AcDbLine
 10
751.119202
 20
837.682936
 30
0.0
 11
751.119202
 21
995.858107
 31
0.0
  0
LINE
  5
72B
330
1F
100
AcDbEntity
  8
0
  6
PHANTOM
 62
     6
100
AcDbLine
 10
666.119202
 20
837.682936
 30
0.0
 11
666.119202
 21
995.858107
 31
0.0
  0
LINE
  5
72C
330
1F
100
AcDbEntity
  8
0
  6
PHANTOM
 62
     6
100
AcDbLine
 10
684.619202
 20
837.682936
 30
0.0
 11
684.619202
 21
995.858107
 31
0.0
  0
LINE
  5
72D
330
1F
100
AcDbEntity
  8
0
  6
CONTINUOUS
 62
     3
100
AcDbLine
 10
1238.650179
 20
539.49307
 30
0.0
 11
1238.650179
 21
569.49307
 31
0.0
  0
LINE
  5
72E
330
1F
100
AcDbEntity
  8
0
  6
CONTINUOUS
 62
     3
100
AcDbLine
 10
1238.650179
 20
539.49307
 30
0.0
 11
1938.650179
 21
539.49307
 31
0.0
  0
LINE
  5
72F
330
1F
100
AcDbEntity
  8
0
  6
CENTER
 62
     6
100
AcDbLine
 10
1249.556429
 20
556.49307
 30
0.0
 11
1267.401514
 21
556.49307
 31
0.0
  0
LINE
  5
730
330
1F
100
AcDbEntity
  8
0
  6
CENTER
 62
     6
100
AcDbLine
 10
1258.650179
 20
565.300678
 30
0.0
 11
1258.650179
 21
548.246198
 31
0.0
  0
LINE
  5
731
330
1F
100
AcDbEntity
  8
0
  6
CONTINUOUS
 62
     3
100
AcDbLine
 10
1276.650179
 20
569.49307
 30
0.0
 11
1276.650179
 21
539.49307
 31
0.0
  0
LINE
  5
732
330
1F
100
AcDbEntity
  8
0
  6
CONTINUOUS
 62
     3
100
AcDbLine
 10
1238.650179
 20
569.49307
 30
0.0
 11
1938.650179
 21
569.49307
 31
0.0
  0
LINE
  5
733
330
1F
100
AcDbEntity
  8
0
  6
CONTINUOUS
 62
     3
100
AcDbLine
 10
1282.650179
 20
569.49307
 30
0.0
 11
1282.650179
 21
539.49307
 31
0.0
  0
LINE
  5
734
330
1F
100
AcDbEntity
  8
0
  6
CONTINUOUS
 62
     3
100
AcDbLine
 10
1938.650179
 20
539.49307
 30
0.0
 11
1938.650179
 21
585.49307
 31
0.0
  0
LINE
  5
735
330
1F
100
AcDbEntity
  8
0
  6
CENTER
 62
     6
100
AcDbLine
 10
1257.650179
 20
548.246198
 30
0.0
 11
1257.650179
 21
533.563532
 31
0.0
  0
LINE
  5
736
330
1F
100
AcDbEntity
  8
0
  6
CONTINUOUS
 62
     3
100
AcDbLine
 10
1238.650179
 20
543.99307
 30
0.0
 11
1276.650179
 21
543.99307
 31
0.0
  0
LINE
  5
737
330
1F
100
AcDbEntity
  8
0
  6
PHANTOM
 62
     6
100
AcDbLine
 10
1238.425336
 20
616.69307
 30
0.0
 11
1238.425336
 21
589.49307
 31
0.0
  0
LINE
  5
738
330
1F
100
AcDbEntity
  8
0
  6
PHANTOM
 62
     6
100
AcDbLine
 10
1238.425336
 20
589.49307
 30
0.0
 11
1938.425336
 21
589.49307
 31
0.0
  0
ARC
  5
739
330
1F
100
AcDbEntity
  8
0
  6
CONTINUOUS
 62
     6
100
AcDbCircle
 10
1241.225336
 20
616.69307
 30
0.0
 40
2.8
100
AcDbArc
 50
90.0
 51
180.0
  0
LINE
  5
73A
330
1F
100
AcDbEntity
  8
0
  6
PHANTOM
 62
     6
100
AcDbLine
 10
1241.225336
 20
619.49307
 30
0.0
 11
1935.625336
 21
619.49307
 31
0.0
  0
LINE
  5
73B
330
1F
100
AcDbEntity
  8
0
  6
PHANTOM
 62
     6
100
AcDbLine
 10
1240.725336
 20
589.49307
 30
0.0
 11
1240.725336
 21
585.19307
 31
0.0
  0
LINE
  5
73C
330
1F
100
AcDbEntity
  8
0
  6
PHANTOM
 62
     6
100
AcDbLine
 10
1240.725336
 20
585.19307
 30
0.0
 11
1250.725336
 21
575.19307
 31
0.0
  0
LINE
  5
73D
330
1F
100
AcDbEntity
  8
0
  6
PHANTOM
 62
     6
100
AcDbLine
 10
1250.725336
 20
575.19307
 30
0.0
 11
1267.725336
 21
575.19307
 31
0.0
  0
LINE
  5
73E
330
1F
100
AcDbEntity
  8
0
  6
PHANTOM
 62
     6
100
AcDbLine
 10
1272.725336
 20
580.19307
 30
0.0
 11
1267.725336
 21
575.19307
 31
0.0
  0
LINE
  5
73F
330
1F
100
AcDbEntity
  8
0
  6
CENTER
 62
     6
100
AcDbLine
 10
1245.592975
 20
587.19307
 30
0.0
 11
1271.592975
 21
587.19307
 31
0.0
  0
ARC
  5
740
330
1F
100
AcDbEntity
  8
0
  6
CONTINUOUS
 62
     6
100
AcDbCircle
 10
1935.625336
 20
616.69307
 30
0.0
 40
2.8
100
AcDbArc
 50
0.0
 51
90.0
  0
LINE
  5
741
330
1F
100
AcDbEntity
  8
0
  6
PHANTOM
 62
     6
100
AcDbLine
 10
1938.425336
 20
616.69307
 30
0.0
 11
1938.425336
 21
589.49307
 31
0.0
  0
LINE
  5
742
330
1F
100
AcDbEntity
  8
0
  6
CENTER
 62
     6
100
AcDbLine
 10
1904.964978
 20
556.49307
 30
0.0
 11
1926.603346
 21
556.49307
 31
0.0
  0
LINE
  5
743
330
1F
100
AcDbEntity
  8
0
  6
CENTER
 62
     6
100
AcDbLine
 10
1904.964978
 20
587.19307
 30
0.0
 11
1926.603346
 21
587.19307
 31
0.0
  0
LINE
  5
744
330
1F
100
AcDbEntity
  8
0
  6
CENTER
 62
     6
100
AcDbLine
 10
1914.647976
 20
566.340675
 30
0.0
 11
1914.647976
 21
546.83943
 31
0.0
  0
LINE
  5
745
330
1F
100
AcDbEntity
  8
0
  6
CENTER
 62
     6
100
AcDbLine
 10
1914.572819
 20
597.328954
 30
0.0
 11
1914.572819
 21
578.36199
 31
0.0
  0
LINE
  5
746
330
1F
100
AcDbEntity
  8
0
  6
CENTER
 62
     6
100
AcDbLine
 10
1258.725336
 20
597.337302
 30
0.0
 11
1258.725336
 21
575.19307
 31
0.0
  0
LINE
  5
747
330
1F
100
AcDbEntity
  8
0
  6
CONTINUOUS
 62
     3
100
AcDbLine
 10
1261.479733
 20
1126.69307
 30
0.0
 11
1261.479733
 21
1099.49307
 31
0.0
  0
LINE
  5
748
330
1F
100
AcDbEntity
  8
0
  6
CONTINUOUS
 62
     3
100
AcDbLine
 10
1261.479733
 20
1099.49307
 30
0.0
 11
1961.479733
 21
1099.49307
 31
0.0
  0
ARC
  5
749
330
1F
100
AcDbEntity
  8
0
  6
CONTINUOUS
 62
     3
100
AcDbCircle
 10
1264.279733
 20
1126.69307
 30
0.0
 40
2.8
100
AcDbArc
 50
90.0
 51
180.0
  0
LINE
  5
74A
330
1F
100
AcDbEntity
  8
0
  6
CONTINUOUS
 62
     3
100
AcDbLine
 10
1264.279733
 20
1129.49307
 30
0.0
 11
1958.679733
 21
1129.49307
 31
0.0
  0
LINE
  5
74B
330
1F
100
AcDbEntity
  8
0
  6
CONTINUOUS
 62
     3
100
AcDbLine
 10
1263.779733
 20
1099.49307
 30
0.0
 11
1263.779733
 21
1095.19307
 31
0.0
  0
LINE
  5
74C
330
1F
100
AcDbEntity
  8
0
  6
CONTINUOUS
 62
     3
100
AcDbLine
 10
1263.779733
 20
1095.19307
 30
0.0
 11
1273.779733
 21
1085.19307
 31
0.0
  0
LINE
  5
74D
330
1F
100
AcDbEntity
  8
0
  6
CONTINUOUS
 62
     3
100
AcDbLine
 10
1273.779733
 20
1085.19307
 30
0.0
 11
1274.914242
 21
1085.19307
 31
0.0
  0
LINE
  5
74E
330
1F
100
AcDbEntity
  8
0
  6
CENTER
 62
     6
100
AcDbLine
 10
1268.647373
 20
1097.19307
 30
0.0
 11
1294.647373
 21
1097.19307
 31
0.0
  0
LINE
  5
74F
330
1F
100
AcDbEntity
  8
0
  6
CONTINUOUS
 62
     3
100
AcDbLine
 10
1295.779733
 20
1098.575652
 30
0.0
 11
1295.779733
 21
1099.49307
 31
0.0
  0
ARC
  5
750
330
1F
100
AcDbEntity
  8
0
  6
CONTINUOUS
 62
     3
100
AcDbCircle
 10
1958.679733
 20
1126.69307
 30
0.0
 40
2.8
100
AcDbArc
 50
0.0
 51
90.0
  0
LINE
  5
751
330
1F
100
AcDbEntity
  8
0
  6
CONTINUOUS
 62
     3
100
AcDbLine
 10
1961.479733
 20
1126.69307
 30
0.0
 11
1961.479733
 21
1099.49307
 31
0.0
  0
LINE
  5
752
330
1F
100
AcDbEntity
  8
0
  6
CENTER
 62
     6
100
AcDbLine
 10
1281.779733
 20
1107.337302
 30
0.0
 11
1281.779733
 21
1085.19307
 31
0.0
  0
LINE
  5
753
330
1F
100
AcDbEntity
  8
0
  6
CONTINUOUS
 62
     3
100
AcDbLine
 10
1307.597289
 20
1092.89728
 30
0.0
 11
1320.868246
 21
1075.350721
 31
0.0
  0
LINE
  5
754
330
1F
100
AcDbEntity
  8
0
  6
CONTINUOUS
 62
     3
100
AcDbLine
 10
1302.811864
 20
1089.277928
 30
0.0
 11
1307.597289
 21
1092.89728
 31
0.0
  0
LINE
  5
755
330
1F
100
AcDbEntity
  8
0
  6
CONTINUOUS
 62
     3
100
AcDbLine
 10
1316.082821
 20
1071.73137
 30
0.0
 11
1320.868246
 21
1075.350721
 31
0.0
  0
LINE
  5
756
330
1F
100
AcDbEntity
  8
0
  6
CONTINUOUS
 62
     3
100
AcDbLine
 10
1658.292399
 20
584.538875
 30
0.0
 11
1351.673114
 21
1024.674691
 31
0.0
  0
LINE
  5
757
330
1F
100
AcDbEntity
  8
0
  6
CONTINUOUS
 62
     3
100
AcDbLine
 10
1295.085864
 20
1099.49307
 30
0.0
 11
1351.673114
 21
1024.674691
 31
0.0
  0
LINE
  5
758
330
1F
100
AcDbEntity
  8
0
  6
CONTINUOUS
 62
     3
100
AcDbLine
 10
1398.679204
 20
874.663266
 30
0.0
 11
1271.434889
 21
1091.111607
 31
0.0
  0
LINE
  5
759
330
1F
100
AcDbEntity
  8
0
  6
CONTINUOUS
 62
     3
100
AcDbLine
 10
1629.488026
 20
569.49307
 30
0.0
 11
1398.679204
 21
874.663266
 31
0.0
  0
LINE
  5
75A
330
1F
100
AcDbEntity
  8
0
  6
CONTINUOUS
 62
     3
100
AcDbLine
 10
1506.295294
 20
802.722705
 30
0.0
 11
1499.366874
 21
831.471469
 31
0.0
  0
ARC
  5
75B
330
1F
100
AcDbEntity
  8
0
  6
CONTINUOUS
 62
     3
100
AcDbCircle
 10
1467.285379
 20
823.739865
 30
0.0
 40
33.0
100
AcDbArc
 50
13.549835
 51
74.579469
  0
LINE
  5
75C
330
1F
100
AcDbEntity
  8
0
  6
CONTINUOUS
 62
     8
100
AcDbLine
 10
1662.921451
 20
569.49307
 30
0.0
 11
1658.292399
 21
584.538875
 31
0.0
  0
LINE
  5
75D
330
1F
100
AcDbEntity
  8
0
  6
CONTINUOUS
 62
     3
100
AcDbLine
 10
1268.150179
 20
561.977898
 30
0.0
 11
1258.650179
 21
567.462725
 31
0.0
  0
LINE
  5
75E
330
1F
100
AcDbEntity
  8
0
  6
CONTINUOUS
 62
     3
100
AcDbLine
 10
1258.650179
 20
567.462725
 30
0.0
 11
1249.150179
 21
561.977898
 31
0.0
  0
LINE
  5
75F
330
1F
100
AcDbEntity
  8
0
  6
CONTINUOUS
 62
     3
100
AcDbLine
 10
1249.150179
 20
561.977898
 30
0.0
 11
1249.150179
 21
551.008243
 31
0.0
  0
LINE
  5
760
330
1F
100
AcDbEntity
  8
0
  6
CONTINUOUS
 62
     3
100
AcDbLine
 10
1249.150179
 20
551.008243
 30
0.0
 11
1258.650179
 21
545.523415
 31
0.0
  0
LINE
  5
761
330
1F
100
AcDbEntity
  8
0
  6
CONTINUOUS
 62
     3
100
AcDbLine
 10
1258.650179
 20
545.523415
 30
0.0
 11
1268.150179
 21
551.008243
 31
0.0
  0
LINE
  5
762
330
1F
100
AcDbEntity
  8
0
  6
CONTINUOUS
 62
     3
100
AcDbLine
 10
1268.150179
 20
551.008243
 30
0.0
 11
1268.150179
 21
561.977898
 31
0.0
  0
CIRCLE
  5
763
330
1F
100
AcDbEntity
  8
0
  6
CONTINUOUS
 62
     3
100
AcDbCircle
 10
1258.650179
 20
556.49307
 30
0.0
 40
11.0
  0
LINE
  5
764
330
1F
100
AcDbEntity
  8
0
  6
CONTINUOUS
 62
     3
100
AcDbLine
 10
1466.008079
 20
823.581131
 30
0.0
 11
1456.508079
 21
829.065958
 31
0.0
  0
LINE
  5
765
330
1F
100
AcDbEntity
  8
0
  6
CONTINUOUS
 62
     3
100
AcDbLine
 10
1456.508079
 20
829.065958
 30
0.0
 11
1447.008079
 21
823.581131
 31
0.0
  0
LINE
  5
766
330
1F
100
AcDbEntity
  8
0
  6
CONTINUOUS
 62
     3
100
AcDbLine
 10
1447.008079
 20
823.581131
 30
0.0
 11
1447.008079
 21
812.611476
 31
0.0
  0
LINE
  5
767
330
1F
100
AcDbEntity
  8
0
  6
CONTINUOUS
 62
     3
100
AcDbLine
 10
1447.008079
 20
812.611476
 30
0.0
 11
1456.508079
 21
807.126648
 31
0.0
  0
LINE
  5
768
330
1F
100
AcDbEntity
  8
0
  6
CONTINUOUS
 62
     3
100
AcDbLine
 10
1456.508079
 20
807.126648
 30
0.0
 11
1466.008079
 21
812.611476
 31
0.0
  0
LINE
  5
769
330
1F
100
AcDbEntity
  8
0
  6
CONTINUOUS
 62
     3
100
AcDbLine
 10
1466.008079
 20
812.611476
 30
0.0
 11
1466.008079
 21
823.581131
 31
0.0
  0
CIRCLE
  5
76A
330
1F
100
AcDbEntity
  8
0
  6
CONTINUOUS
 62
     3
100
AcDbCircle
 10
1456.508079
 20
818.096303
 30
0.0
 40
11.0
  0
ARC
  5
76B
330
1F
100
AcDbEntity
  8
0
  6
CONTINUOUS
 62
     3
100
AcDbCircle
 10
1281.779733
 20
1097.19307
 30
0.0
 40
12.0
100
AcDbArc
 50
168.949935
 51
208.908027
  0
ARC
  5
76C
330
1F
100
AcDbEntity
  8
0
  6
CONTINUOUS
 62
     3
100
AcDbCircle
 10
1281.779733
 20
1097.19307
 30
0.0
 40
6.000000000000001
100
AcDbArc
 50
157.45969
 51
22.54031
  0
ARC
  5
76D
330
1F
100
AcDbEntity
  8
0
  6
CONTINUOUS
 62
     3
100
AcDbCircle
 10
1281.779733
 20
1097.19307
 30
0.0
 40
5.300000000000001
100
AcDbArc
 50
154.28072
 51
25.71928
  0
CIRCLE
  5
76E
330
1F
100
AcDbEntity
  8
0
  6
CONTINUOUS
 62
     3
100
AcDbCircle
 10
1456.508079
 20
818.096303
 30
0.0
 40
6.000000000000001
  0
LINE
  5
76F
330
1F
100
AcDbEntity
  8
0
  6
CONTINUOUS
 62
     3
100
AcDbLine
 10
1580.150753
 20
942.304305
 30
0.0
 11
1562.163116
 21
923.743171
 31
0.0
  0
ARC
  5
770
330
1F
100
AcDbEntity
  8
0
  6
CONTINUOUS
 62
     3
100
AcDbCircle
 10
1551.391409
 20
934.182056
 30
0.0
 40
15.0
100
AcDbArc
 50
266.722904
 51
315.89897
  0
ARC
  5
771
330
1F
100
AcDbEntity
  8
0
  6
CONTINUOUS
 62
     3
100
AcDbCircle
 10
1585.922977
 20
927.034041
 30
0.0
 40
90.0
100
AcDbArc
 50
146.918019
 51
156.425306
  0
ARC
  5
772
330
1F
100
AcDbEntity
  8
0
  6
CONTINUOUS
 62
     3
100
AcDbCircle
 10
1631.236424
 20
1097.19307
 30
0.0
 40
6.000000000000001
100
AcDbArc
 50
157.45969
 51
22.54031
  0
ARC
  5
773
330
1F
100
AcDbEntity
  8
0
  6
CONTINUOUS
 62
     3
100
AcDbCircle
 10
1631.236424
 20
1097.19307
 30
0.0
 40
14.0
100
AcDbArc
 50
170.544257
 51
9.455743
  0
LINE
  5
774
330
1F
100
AcDbEntity
  8
0
  6
CONTINUOUS
 62
     3
100
AcDbLine
 10
1475.054095
 20
854.221714
 30
0.0
 11
1503.933895
 21
892.405931
 31
0.0
  0
LINE
  5
775
330
1F
100
AcDbEntity
  8
0
  6
CONTINUOUS
 62
     3
100
AcDbLine
 10
1542.10092
 20
908.056644
 30
0.0
 11
1503.933895
 21
892.405931
 31
0.0
  0
LINE
  5
776
330
1F
100
AcDbEntity
  8
0
  6
CONTINUOUS
 62
     3
100
AcDbLine
 10
1542.10092
 20
908.056644
 30
0.0
 11
1573.540111
 21
949.62483
 31
0.0
  0
LINE
  5
777
330
1F
100
AcDbEntity
  8
0
  6
CONTINUOUS
 62
     3
100
AcDbLine
 10
1573.540111
 20
949.62483
 30
0.0
 11
1572.756406
 21
978.428229
 31
0.0
  0
LINE
  5
778
330
1F
100
AcDbEntity
  8
0
  6
CONTINUOUS
 62
     3
100
AcDbLine
 10
1572.756406
 20
978.428229
 30
0.0
 11
1611.539464
 21
1029.706311
 31
0.0
  0
LINE
  5
779
330
1F
100
AcDbEntity
  8
0
  6
CONTINUOUS
 62
     3
100
AcDbLine
 10
1611.539464
 20
1029.706311
 30
0.0
 11
1638.84059
 21
1085.438213
 31
0.0
  0
LINE
  5
77A
330
1F
100
AcDbEntity
  8
0
  6
CONTINUOUS
 62
     3
100
AcDbLine
 10
1562.998752
 20
1038.468118
 30
0.0
 11
1609.153644
 21
1099.49307
 31
0.0
  0
LINE
  5
77B
330
1F
100
AcDbEntity
  8
0
  6
CONTINUOUS
 62
     3
100
AcDbLine
 10
1590.184268
 20
1084.358724
 30
0.0
 11
1594.969693
 21
1080.739372
 31
0.0
  0
LINE
  5
77C
330
1F
100
AcDbEntity
  8
0
  6
CONTINUOUS
 62
     3
100
AcDbLine
 10
1601.630801
 20
1099.49307
 30
0.0
 11
1590.184268
 21
1084.358724
 31
0.0
  0
LINE
  5
77D
330
1F
100
AcDbEntity
  8
0
  6
CONTINUOUS
 62
     3
100
AcDbLine
 10
1549.339104
 20
1023.723152
 30
0.0
 11
1562.998752
 21
1038.468118
 31
0.0
  0
ARC
  5
77E
330
1F
100
AcDbEntity
  8
0
  6
CONTINUOUS
 62
     3
100
AcDbCircle
 10
1571.391012
 20
951.927182
 30
0.0
 40
5.0
100
AcDbArc
 50
271.257192
 51
66.904626
  0
ARC
  5
77F
330
1F
100
AcDbEntity
  8
0
  6
CONTINUOUS
 62
     3
100
AcDbCircle
 10
1571.391012
 20
951.927182
 30
0.0
 40
9.0
100
AcDbArc
 50
0.89897
 51
78.15888
  0
LINE
  5
780
330
1F
100
AcDbEntity
  8
0
  6
CONTINUOUS
 62
     3
100
AcDbLine
 10
1580.389905
 20
952.068386
 30
0.0
 11
1580.536864
 21
942.702726
 31
0.0
  0
LINE
  5
781
330
1F
100
AcDbEntity
  8
0
  6
CONTINUOUS
 62
     3
100
AcDbLine
 10
1386.468272
 20
808.379027
 30
0.0
 11
1417.640058
 21
849.593656
 31
0.0
  0
LINE
  5
782
330
1F
100
AcDbEntity
  8
0
  6
CONTINUOUS
 62
     3
100
AcDbLine
 10
1477.217485
 20
844.462365
 30
0.0
 11
1475.054095
 21
854.221714
 31
0.0
  0
LINE
  5
783
330
1F
100
AcDbEntity
  8
0
  6
CONTINUOUS
 62
     3
100
AcDbLine
 10
1459.329145
 20
794.473289
 30
0.0
 11
1457.603491
 21
792.191669
 31
0.0
  0
LINE
  5
784
330
1F
100
AcDbEntity
  8
0
  6
CONTINUOUS
 62
     3
100
AcDbLine
 10
1457.603491
 20
792.191669
 30
0.0
 11
1451.299909
 21
791.317114
 31
0.0
  0
LINE
  5
785
330
1F
100
AcDbEntity
  8
0
  6
CONTINUOUS
 62
     3
100
AcDbLine
 10
1451.299909
 20
791.317114
 30
0.0
 11
1283.528131
 21
569.49307
 31
0.0
  0
LINE
  5
786
330
1F
100
AcDbEntity
  8
0
  6
CONTINUOUS
 62
     3
100
AcDbLine
 10
1367.059302
 20
776.667714
 30
0.0
 11
1386.468272
 21
808.379027
 31
0.0
  0
LINE
  5
787
330
1F
100
AcDbEntity
  8
0
  6
CONTINUOUS
 62
     3
100
AcDbLine
 10
1372.38965
 20
788.935714
 30
0.0
 11
1375.191242
 21
789.324405
 31
0.0
  0
LINE
  5
788
330
1F
100
AcDbEntity
  8
0
  6
CONTINUOUS
 62
     3
100
AcDbLine
 10
1372.38965
 20
788.935714
 30
0.0
 11
1343.434836
 21
750.652314
 31
0.0
  0
LINE
  5
789
330
1F
100
AcDbEntity
  8
0
  6
CONTINUOUS
 62
     3
100
AcDbLine
 10
1343.434836
 20
750.652314
 30
0.0
 11
1344.858037
 21
740.394217
 31
0.0
  0
LINE
  5
78A
330
1F
100
AcDbEntity
  8
0
  6
CONTINUOUS
 62
     3
100
AcDbLine
 10
1336.128617
 20
726.131669
 30
0.0
 11
1367.059302
 21
776.667714
 31
0.0
  0
LINE
  5
78B
330
1F
100
AcDbEntity
  8
0
  6
CONTINUOUS
 62
     3
100
AcDbLine
 10
1272.112717
 20
621.539402
 30
0.0
 11
1336.128617
 21
726.131669
 31
0.0
  0
LINE
  5
78C
330
1F
100
AcDbEntity
  8
0
  6
CONTINUOUS
 62
     3
100
AcDbLine
 10
1250.977577
 20
569.49307
 30
0.0
 11
1272.112717
 21
621.539402
 31
0.0
  0
LINE
  5
78D
330
1F
100
AcDbEntity
  8
0
  6
CONTINUOUS
 62
     3
100
AcDbLine
 10
1512.423522
 20
988.678838
 30
0.0
 11
1506.623657
 21
992.160841
 31
0.0
  0
LINE
  5
78E
330
1F
100
AcDbEntity
  8
0
  6
CONTINUOUS
 62
     3
100
AcDbLine
 10
1458.239766
 20
911.569284
 30
0.0
 11
1506.623657
 21
992.160841
 31
0.0
  0
LINE
  5
78F
330
1F
100
AcDbEntity
  8
0
  6
CONTINUOUS
 62
     3
100
AcDbLine
 10
1504.143435
 20
995.549216
 30
0.0
 11
1505.723432
 21
992.7013
 31
0.0
  0
LINE
  5
790
330
1F
100
AcDbEntity
  8
0
  6
CONTINUOUS
 62
     8
100
AcDbLine
 10
1505.723432
 20
992.7013
 30
0.0
 11
1506.623657
 21
992.160841
 31
0.0
  0
LINE
  5
791
330
1F
100
AcDbEntity
  8
0
  6
CONTINUOUS
 62
     3
100
AcDbLine
 10
1504.143435
 20
995.549216
 30
0.0
 11
1516.364566
 21
1015.905578
 31
0.0
  0
LINE
  5
792
330
1F
100
AcDbEntity
  8
0
  6
CONTINUOUS
 62
     3
100
AcDbLine
 10
1516.364566
 20
1015.905578
 30
0.0
 11
1519.620933
 21
1015.849938
 31
0.0
  0
LINE
  5
793
330
1F
100
AcDbEntity
  8
0
  6
CONTINUOUS
 62
     3
100
AcDbLine
 10
1519.620933
 20
1015.849938
 30
0.0
 11
1535.963654
 21
1006.038434
 31
0.0
  0
LINE
  5
794
330
1F
100
AcDbEntity
  8
0
  6
CONTINUOUS
 62
     8
100
AcDbLine
 10
1535.963654
 20
1006.038434
 30
0.0
 11
1532.052609
 21
1008.386466
 31
0.0
  0
LINE
  5
795
330
1F
100
AcDbEntity
  8
0
  6
CENTER
 62
     5
100
AcDbLine
 10
1508.976565
 20
1007.077505
 30
0.0
 11
1541.745875
 21
987.404145
 31
0.0
  0
LINE
  5
796
330
1F
100
AcDbEntity
  8
0
  6
CONTINUOUS
 62
     3
100
AcDbLine
 10
1462.554697
 20
908.978775
 30
0.0
 11
1452.624078
 21
914.940715
 31
0.0
  0
ARC
  5
797
330
1F
100
AcDbEntity
  8
0
  6
CONTINUOUS
 62
     3
100
AcDbCircle
 10
1452.109356
 20
914.083358
 30
0.0
 40
1.0
100
AcDbArc
 50
59.021109
 51
149.021109
  0
LINE
  5
798
330
1F
100
AcDbEntity
  8
0
  6
CONTINUOUS
 62
     3
100
AcDbLine
 10
1450.222554
 20
912.883366
 30
0.0
 11
1451.251999
 21
914.59808
 31
0.0
  0
LINE
  5
799
330
1F
100
AcDbEntity
  8
0
  6
CENTER
 62
     6
100
AcDbLine
 10
1277.82581
 20
584.928715
 30
0.0
 11
1525.36122
 21
997.240825
 31
0.0
  0
LINE
  5
79A
330
1F
100
AcDbEntity
  8
0
  6
CONTINUOUS
 62
     3
100
AcDbLine
 10
1299.92905
 20
682.943455
 30
0.0
 11
1348.05558
 21
763.106334
 31
0.0
  0
LINE
  5
79B
330
1F
100
AcDbEntity
  8
0
  6
CONTINUOUS
 62
     3
100
AcDbLine
 10
1353.94254
 20
650.515954
 30
0.0
 11
1389.103353
 21
709.082237
 31
0.0
  0
LINE
  5
79C
330
1F
100
AcDbEntity
  8
0
  6
CONTINUOUS
 62
     3
100
AcDbLine
 10
1347.198223
 20
763.621056
 30
0.0
 11
1351.355687
 21
761.125084
 31
0.0
  0
LINE
  5
79D
330
1F
100
AcDbEntity
  8
0
  6
CONTINUOUS
 62
     3
100
AcDbLine
 10
1310.652173
 20
699.833234
 30
0.0
 11
1317.511969
 21
695.714892
 31
0.0
  0
LINE
  5
79E
330
1F
100
AcDbEntity
  8
0
  6
CONTINUOUS
 62
     3
100
AcDbLine
 10
1389.406412
 20
812.263769
 30
0.0
 11
1414.394232
 21
853.885212
 31
0.0
  0
LINE
  5
79F
330
1F
100
AcDbEntity
  8
0
  6
CONTINUOUS
 62
     3
100
AcDbLine
 10
1361.610445
 20
787.627052
 30
0.0
 11
1368.342883
 21
783.585171
 31
0.0
  0
LINE
  5
7A0
330
1F
100
AcDbEntity
  8
0
  6
CONTINUOUS
 62
     3
100
AcDbLine
 10
1361.610445
 20
787.627052
 30
0.0
 11
1347.198223
 21
763.621056
 31
0.0
  0
LINE
  5
7A1
330
1F
100
AcDbEntity
  8
0
  6
CONTINUOUS
 62
     3
100
AcDbLine
 10
1322.031307
 20
603.190781
 30
0.0
 11
1320.487196
 21
600.618804
 31
0.0
  0
LINE
  5
7A2
330
1F
100
AcDbEntity
  8
0
  6
CONTINUOUS
 62
     3
100
AcDbLine
 10
1273.161941
 20
632.529959
 30
0.0
 11
1271.617831
 21
629.957982
 31
0.0
  0
LINE
  5
7A3
330
1F
100
AcDbEntity
  8
0
  6
CONTINUOUS
 62
     3
100
AcDbLine
 10
1298.788986
 20
586.81893
 30
0.0
 11
1297.244809
 21
584.246842
 31
0.0
  0
LINE
  5
7A4
330
1F
100
AcDbEntity
  8
0
  6
CONTINUOUS
 62
     3
100
AcDbLine
 10
1275.747774
 20
627.478533
 30
0.0
 11
1271.617831
 21
629.957982
 31
0.0
  0
LINE
  5
7A5
330
1F
100
AcDbEntity
  8
0
  6
CONTINUOUS
 62
     6
100
AcDbLine
 10
1267.148155
 20
609.313923
 30
0.0
 11
1266.89623
 21
609.465168
 31
0.0
  0
LINE
  5
7A6
330
1F
100
AcDbEntity
  8
0
  6
CONTINUOUS
 62
     3
100
AcDbLine
 10
1301.531603
 20
581.673225
 30
0.0
 11
1300.502153
 21
579.958503
 31
0.0
  0
LINE
  5
7A7
330
1F
100
AcDbEntity
  8
0
  6
CONTINUOUS
 62
     6
100
AcDbLine
 10
1263.807887
 20
604.321009
 30
0.0
 11
1262.778437
 21
602.606287
 31
0.0
  0
LINE
  5
7A8
330
1F
100
AcDbEntity
  8
0
  6
CONTINUOUS
 62
     3
100
AcDbLine
 10
1314.914376
 20
603.964499
 30
0.0
 11
1303.07578
 21
584.245314
 31
0.0
  0
LINE
  5
7A9
330
1F
100
AcDbEntity
  8
0
  6
CONTINUOUS
 62
     6
100
AcDbLine
 10
1267.864536
 20
611.078045
 30
0.0
 11
1265.352064
 21
606.893097
 31
0.0
  0
LINE
  5
7AA
330
1F
100
AcDbEntity
  8
0
  6
CONTINUOUS
 62
     3
100
AcDbLine
 10
1300.502153
 20
579.958503
 30
0.0
 11
1294.272241
 21
583.698689
 31
0.0
  0
LINE
  5
7AB
330
1F
100
AcDbEntity
  8
0
  6
CONTINUOUS
 62
     6
100
AcDbLine
 10
1264.86331
 20
603.687376
 30
0.0
 11
1263.807887
 21
604.321009
 31
0.0
  0
LINE
  5
7AC
330
1F
100
AcDbEntity
  8
0
  6
CONTINUOUS
 62
     3
100
AcDbLine
 10
1303.07578
 20
584.245314
 30
0.0
 11
1297.305687
 21
587.709442
 31
0.0
  0
LINE
  5
7AD
330
1F
100
AcDbEntity
  8
0
  6
CONTINUOUS
 62
     3
100
AcDbLine
 10
1313.079427
 20
608.565125
 30
0.0
 11
1324.603378
 21
601.646614
 31
0.0
  0
LINE
  5
7AE
330
1F
100
AcDbEntity
  8
0
  6
CONTINUOUS
 62
     3
100
AcDbLine
 10
1286.546271
 20
660.652174
 30
0.0
 11
1270.589887
 21
634.074115
 31
0.0
  0
LINE
  5
7AF
330
1F
100
AcDbEntity
  8
0
  6
CONTINUOUS
 62
     3
100
AcDbLine
 10
1340.559762
 20
628.224672
 30
0.0
 11
1324.603378
 21
601.646614
 31
0.0
  0
LINE
  5
7B0
330
1F
100
AcDbEntity
  8
0
  6
CONTINUOUS
 62
     3
100
AcDbLine
 10
1347.6605
 20
654.287435
 30
0.0
 11
1353.94254
 21
650.515954
 31
0.0
  0
LINE
  5
7B1
330
1F
100
AcDbEntity
  8
0
  6
CONTINUOUS
 62
     3
100
AcDbLine
 10
1331.886675
 20
633.431641
 30
0.0
 11
1340.559762
 21
628.224672
 31
0.0
  0
LINE
  5
7B2
330
1F
100
AcDbEntity
  8
0
  6
CONTINUOUS
 62
     3
100
AcDbLine
 10
1352.656505
 20
651.288037
 30
0.0
 11
1339.273726
 21
628.996756
 31
0.0
  0
LINE
  5
7B3
330
1F
100
AcDbEntity
  8
0
  6
CONTINUOUS
 62
     3
100
AcDbLine
 10
1304.619947
 20
586.817385
 30
0.0
 11
1299.125744
 21
590.11588
 31
0.0
  0
LINE
  5
7B4
330
1F
100
AcDbEntity
  8
0
  6
CONTINUOUS
 62
     6
100
AcDbLine
 10
1266.005736
 20
606.500659
 30
0.0
 11
1265.352064
 21
606.893097
 31
0.0
  0
LINE
  5
7B5
330
1F
100
AcDbEntity
  8
0
  6
CONTINUOUS
 62
     3
100
AcDbLine
 10
1301.531603
 20
581.673225
 30
0.0
 11
1295.485618
 21
585.302989
 31
0.0
  0
LINE
  5
7B6
330
1F
100
AcDbEntity
  8
0
  6
CONTINUOUS
 62
     6
100
AcDbLine
 10
1264.101693
 20
601.811858
 30
0.0
 11
1262.778437
 21
602.606287
 31
0.0
  0
LINE
  5
7B7
330
1F
100
AcDbEntity
  8
0
  6
CONTINUOUS
 62
     3
100
AcDbLine
 10
1270.589887
 20
634.074115
 30
0.0
 11
1277.313876
 21
630.037306
 31
0.0
  0
LINE
  5
7B8
330
1F
100
AcDbEntity
  8
0
  6
CONTINUOUS
 62
     3
100
AcDbLine
 10
1307.070905
 20
678.655776
 30
0.0
 11
1299.92905
 21
682.943455
 31
0.0
  0
LINE
  5
7B9
330
1F
100
AcDbEntity
  8
0
  6
CONTINUOUS
 62
     3
100
AcDbLine
 10
1301.215085
 20
682.171372
 30
0.0
 11
1287.832307
 21
659.88009
 31
0.0
  0
LINE
  5
7BA
330
1F
100
AcDbEntity
  8
0
  6
CONTINUOUS
 62
     3
100
AcDbLine
 10
1293.497521
 20
656.478926
 30
0.0
 11
1286.546271
 21
660.652174
 31
0.0
  0
LINE
  5
7BB
330
1F
100
AcDbEntity
  8
0
  6
CONTINUOUS
 62
     3
100
AcDbLine
 10
1319.799973
 20
599.14559
 30
0.0
 11
1320.341216
 21
599.88997
 31
0.0
  0
LINE
  5
7BC
330
1F
100
AcDbEntity
  8
0
  6
CONTINUOUS
 62
     3
100
AcDbLine
 10
1315.223212
 20
601.89329
 30
0.0
 11
1315.625762
 21
602.720937
 31
0.0
  0
LINE
  5
7BD
330
1F
100
AcDbEntity
  8
0
  6
CONTINUOUS
 62
     3
100
AcDbLine
 10
1317.983485
 20
601.305456
 30
0.0
 11
1317.738673
 21
602.268906
 31
0.0
  0
LINE
  5
7BE
330
1F
100
AcDbEntity
  8
0
  6
CONTINUOUS
 62
     3
100
AcDbLine
 10
1315.814592
 20
603.424045
 30
0.0
 11
1315.454282
 21
602.823887
 31
0.0
  0
LINE
  5
7BF
330
1F
100
AcDbEntity
  8
0
  6
CONTINUOUS
 62
     3
100
AcDbLine
 10
1320.872999
 20
600.387184
 30
0.0
 11
1320.512688
 21
599.787026
 31
0.0
  0
LINE
  5
7C0
330
1F
100
AcDbEntity
  8
0
  6
CONTINUOUS
 62
     3
100
AcDbLine
 10
1315.454282
 20
602.823887
 30
0.0
 11
1320.512688
 21
599.787026
 31
0.0
  0
LINE
  5
7C1
330
1F
100
AcDbEntity
  8
0
  6
CENTER
 62
     6
100
AcDbLine
 10
1319.887905
 20
604.477591
 30
0.0
 11
1316.476581
 21
598.795453
 31
0.0
  0
LINE
  5
7C2
330
1F
100
AcDbEntity
  8
0
  6
CONTINUOUS
 62
     3
100
AcDbLine
 10
1320.872999
 20
600.387184
 30
0.0
 11
1311.259437
 21
606.158775
 31
0.0
  0
LINE
  5
7C3
330
1F
100
AcDbEntity
  8
0
  6
CONTINUOUS
 62
     3
100
AcDbLine
 10
1316.954253
 20
599.591116
 30
0.0
 11
1318.102878
 21
599.03039
 31
0.0
  0
LINE
  5
7C4
330
1F
100
AcDbEntity
  8
0
  6
CONTINUOUS
 62
     3
100
AcDbLine
 10
1318.102878
 20
599.03039
 30
0.0
 11
1319.004244
 21
598.74803
 31
0.0
  0
LINE
  5
7C5
330
1F
100
AcDbEntity
  8
0
  6
CONTINUOUS
 62
     3
100
AcDbLine
 10
1319.004088
 20
598.747692
 30
0.0
 11
1319.173561
 21
598.760473
 31
0.0
  0
LINE
  5
7C6
330
1F
100
AcDbEntity
  8
0
  6
CONTINUOUS
 62
     3
100
AcDbLine
 10
1319.173561
 20
598.760473
 30
0.0
 11
1319.338026
 21
598.802389
 31
0.0
  0
LINE
  5
7C7
330
1F
100
AcDbEntity
  8
0
  6
CONTINUOUS
 62
     3
100
AcDbLine
 10
1319.338026
 20
598.802389
 30
0.0
 11
1319.492463
 21
598.87217
 31
0.0
  0
LINE
  5
7C8
330
1F
100
AcDbEntity
  8
0
  6
CONTINUOUS
 62
     3
100
AcDbLine
 10
1319.492463
 20
598.87217
 30
0.0
 11
1319.632198
 21
598.967703
 31
0.0
  0
LINE
  5
7C9
330
1F
100
AcDbEntity
  8
0
  6
CONTINUOUS
 62
     3
100
AcDbLine
 10
1319.632198
 20
598.967703
 30
0.0
 11
1319.752982
 21
599.086066
 31
0.0
  0
LINE
  5
7CA
330
1F
100
AcDbEntity
  8
0
  6
CONTINUOUS
 62
     3
100
AcDbLine
 10
1319.752982
 20
599.086066
 30
0.0
 11
1319.799974
 21
599.145612
 31
0.0
  0
LINE
  5
7CB
330
1F
100
AcDbEntity
  8
0
  6
CONTINUOUS
 62
     3
100
AcDbLine
 10
1315.246406
 20
601.004083
 30
0.0
 11
1316.176832
 21
600.128285
 31
0.0
  0
LINE
  5
7CC
330
1F
100
AcDbEntity
  8
0
  6
CONTINUOUS
 62
     3
100
AcDbLine
 10
1316.176832
 20
600.128285
 30
0.0
 11
1316.954262
 21
599.591111
 31
0.0
  0
LINE
  5
7CD
330
1F
100
AcDbEntity
  8
0
  6
CONTINUOUS
 62
     3
100
AcDbLine
 10
1315.223231
 20
601.893302
 30
0.0
 11
1315.162925
 21
601.735365
 31
0.0
  0
LINE
  5
7CE
330
1F
100
AcDbEntity
  8
0
  6
CONTINUOUS
 62
     3
100
AcDbLine
 10
1315.162925
 20
601.735365
 30
0.0
 11
1315.131147
 21
601.569187
 31
0.0
  0
LINE
  5
7CF
330
1F
100
AcDbEntity
  8
0
  6
CONTINUOUS
 62
     3
100
AcDbLine
 10
1315.131147
 20
601.569187
 30
0.0
 11
1315.128871
 21
601.399831
 31
0.0
  0
LINE
  5
7D0
330
1F
100
AcDbEntity
  8
0
  6
CONTINUOUS
 62
     3
100
AcDbLine
 10
1315.128871
 20
601.399831
 30
0.0
 11
1315.156148
 21
601.232433
 31
0.0
  0
LINE
  5
7D1
330
1F
100
AcDbEntity
  8
0
  6
CONTINUOUS
 62
     3
100
AcDbLine
 10
1315.156148
 20
601.232433
 30
0.0
 11
1315.212165
 21
601.072088
 31
0.0
  0
LINE
  5
7D2
330
1F
100
AcDbEntity
  8
0
  6
CONTINUOUS
 62
     3
100
AcDbLine
 10
1315.212165
 20
601.072088
 30
0.0
 11
1315.24619
 21
601.003781
 31
0.0
  0
LINE
  5
7D3
330
1F
100
AcDbEntity
  8
0
  6
CONTINUOUS
 62
     3
100
AcDbLine
 10
1511.252028
 20
977.217869
 30
0.0
 11
1513.423422
 21
998.461059
 31
0.0
  0
LINE
  5
7D4
330
1F
100
AcDbEntity
  8
0
  6
CONTINUOUS
 62
     3
100
AcDbLine
 10
1449.922479
 20
913.063519
 30
0.0
 11
1460.734641
 21
906.572337
 31
0.0
  0
ARC
  5
7D5
330
1F
100
AcDbEntity
  8
0
  6
CONTINUOUS
 62
     3
100
AcDbCircle
 10
1525.36122
 20
997.240825
 30
0.0
 40
12.0
100
AcDbArc
 50
37.684006
 51
174.163725
  0
ARC
  5
7D6
330
1F
100
AcDbEntity
  8
0
  6
CONTINUOUS
 62
     3
100
AcDbCircle
 10
1527.270647
 20
965.242734
 30
0.0
 40
20.0
100
AcDbArc
 50
115.001188
 51
146.918019
  0
LINE
  5
7D7
330
1F
100
AcDbEntity
  8
0
  6
CONTINUOUS
 62
     3
100
AcDbLine
 10
1446.791584
 20
888.137143
 30
0.0
 11
1549.339104
 21
1023.723152
 31
0.0
  0
LINE
  5
7D8
330
1F
100
AcDbEntity
  8
0
  6
CONTINUOUS
 62
     3
100
AcDbLine
 10
1440.435376
 20
897.261143
 30
0.0
 11
1449.922479
 21
913.063519
 31
0.0
  0
LINE
  5
7D9
330
1F
100
AcDbEntity
  8
0
  6
PHANTOM
 62
     6
100
AcDbLine
 10
1272.725336
 20
580.19307
 30
0.0
 11
1272.725336
 21
589.49307
 31
0.0
  0
LINE
  5
7DA
330
1F
100
AcDbEntity
  8
0
  6
CONTINUOUS
 62
     3
100
AcDbLine
 10
1927.450179
 20
602.69307
 30
0.0
 11
1827.450179
 21
602.69307
 31
0.0
  0
LINE
  5
7DB
330
1F
100
AcDbEntity
  8
0
  6
CONTINUOUS
 62
     3
100
AcDbLine
 10
1827.450179
 20
602.69307
 30
0.0
 11
1827.450179
 21
569.49307
 31
0.0
  0
LINE
  5
7DC
330
1F
100
AcDbEntity
  8
0
  6
CONTINUOUS
 62
     3
100
AcDbLine
 10
1927.450179
 20
569.49307
 30
0.0
 11
1927.450179
 21
602.69307
 31
0.0
  0
ARC
  5
7DD
330
1F
100
AcDbEntity
  8
0
  6
CONTINUOUS
 62
     3
100
AcDbCircle
 10
1525.36122
 20
997.240825
 30
0.0
 40
8.5
100
AcDbArc
 50
31.15229
 51
174.163725
  0
LINE
  5
7DE
330
1F
100
AcDbEntity
  8
0
  6
CONTINUOUS
 62
     3
100
AcDbLine
 10
1516.90528
 20
998.105157
 30
0.0
 11
1515.243167
 21
981.844372
 31
0.0
  0
LINE
  5
7DF
330
1F
100
AcDbEntity
  8
0
  6
CENTER
 62
     6
100
AcDbLine
 10
1369.35298
 20
766.649496
 30
0.0
 11
1397.787607
 21
749.578503
 31
0.0
  0
LINE
  5
7E0
330
1F
100
AcDbEntity
  8
0
  6
CENTER
 62
     6
100
AcDbLine
 10
1438.8824
 20
818.096303
 30
0.0
 11
1474.144817
 21
818.096303
 31
0.0
  0
LINE
  5
7E1
330
1F
100
AcDbEntity
  8
0
  6
CENTER
 62
     6
100
AcDbLine
 10
1456.508079
 20
836.453842
 30
0.0
 11
1456.508079
 21
798.375795
 31
0.0
  0
LINE
  5
7E2
330
1F
100
AcDbEntity
  8
0
  6
CENTER
 62
     6
100
AcDbLine
 10
1631.236424
 20
1078.463963
 30
0.0
 11
1631.236424
 21
1113.190069
 31
0.0
  0
LINE
  5
7E3
330
1F
100
AcDbEntity
  8
0
  6
CENTER
 62
     6
100
AcDbLine
 10
1611.306232
 20
1097.19307
 30
0.0
 11
1650.590977
 21
1097.19307
 31
0.0
  0
LINE
  5
7E4
330
1F
100
AcDbEntity
  8
0
  6
CENTER
 62
     6
100
AcDbLine
 10
1639.462534
 20
556.49307
 30
0.0
 11
1672.311553
 21
556.49307
 31
0.0
  0
LINE
  5
7E5
330
1F
100
AcDbEntity
  8
0
  6
CENTER
 62
     6
100
AcDbLine
 10
1654.365978
 20
571.650524
 30
0.0
 11
1654.365978
 21
544.16461
 31
0.0
  0
LINE
  5
7E6
330
1F
100
AcDbEntity
  8
0
  6
CONTINUOUS
 62
     3
100
AcDbLine
 10
1959.150179
 20
578.99307
 30
0.0
 11
2034.120036
 21
578.99307
 31
0.0
  0
LINE
  5
7E7
330
1F
100
AcDbEntity
  8
0
  6
CONTINUOUS
 62
     3
100
AcDbLine
 10
1959.150179
 20
571.99307
 30
0.0
 11
2034.120036
 21
571.99307
 31
0.0
  0
LINE
  5
7E8
330
1F
100
AcDbEntity
  8
0
  6
CENTER
 62
     6
100
AcDbLine
 10
1531.176468
 20
949.693565
 30
0.0
 11
1556.426714
 21
930.596093
 31
0.0
  0
LINE
  5
7E9
330
1F
100
AcDbEntity
  8
0
  6
CENTER
 62
     6
100
AcDbLine
 10
1534.252855
 20
927.519707
 30
0.0
 11
1553.350327
 21
952.769952
 31
0.0
  0
CIRCLE
  5
7EA
330
1F
100
AcDbEntity
  8
0
  6
CONTINUOUS
 62
     3
100
AcDbCircle
 10
1543.801591
 20
940.144829
 30
0.0
 40
6.000000000000001
  0
LINE
  5
7EB
330
1F
100
AcDbEntity
  8
0
  6
CONTINUOUS
 62
     3
100
AcDbLine
 10
1548.801591
 20
943.031581
 30
0.0
 11
1543.801591
 21
945.918332
 31
0.0
  0
LINE
  5
7EC
330
1F
100
AcDbEntity
  8
0
  6
CONTINUOUS
 62
     3
100
AcDbLine
 10
1543.801591
 20
945.918332
 30
0.0
 11
1538.801591
 21
943.031581
 31
0.0
  0
LINE
  5
7ED
330
1F
100
AcDbEntity
  8
0
  6
CONTINUOUS
 62
     3
100
AcDbLine
 10
1538.801591
 20
943.031581
 30
0.0
 11
1538.801591
 21
937.258078
 31
0.0
  0
LINE
  5
7EE
330
1F
100
AcDbEntity
  8
0
  6
CONTINUOUS
 62
     3
100
AcDbLine
 10
1538.801591
 20
937.258078
 30
0.0
 11
1543.801591
 21
934.371327
 31
0.0
  0
LINE
  5
7EF
330
1F
100
AcDbEntity
  8
0
  6
CONTINUOUS
 62
     3
100
AcDbLine
 10
1543.801591
 20
934.371327
 30
0.0
 11
1548.801591
 21
937.258078
 31
0.0
  0
LINE
  5
7F0
330
1F
100
AcDbEntity
  8
0
  6
CONTINUOUS
 62
     3
100
AcDbLine
 10
1548.801591
 20
937.258078
 30
0.0
 11
1548.801591
 21
943.031581
 31
0.0
  0
CIRCLE
  5
7F1
330
1F
100
AcDbEntity
  8
0
  6
CONTINUOUS
 62
     3
100
AcDbCircle
 10
1543.801591
 20
940.144829
 30
0.0
 40
12.0
  0
LINE
  5
7F2
330
1F
100
AcDbEntity
  8
0
  6
CENTER
 62
     6
100
AcDbLine
 10
1525.36122
 20
997.240825
 30
0.0
 11
1535.1979
 21
1013.62548
 31
0.0
  0
LINE
  5
7F3
330
1F
100
AcDbEntity
  8
0
  6
CONTINUOUS
 62
     3
100
AcDbLine
 10
1933.450179
 20
582.998624
 30
0.0
 11
1929.450179
 21
582.998624
 31
0.0
  0
LINE
  5
7F4
330
1F
100
AcDbEntity
  8
0
  6
CONTINUOUS
 62
     3
100
AcDbLine
 10
1929.450179
 20
590.504177
 30
0.0
 11
1933.450179
 21
590.504177
 31
0.0
  0
LINE
  5
7F5
330
1F
100
AcDbEntity
  8
0
  6
CONTINUOUS
 62
     3
100
AcDbLine
 10
1929.450179
 20
569.49307
 30
0.0
 11
1929.450179
 21
590.504177
 31
0.0
  0
LINE
  5
7F6
330
1F
100
AcDbEntity
  8
0
  6
CONTINUOUS
 62
     3
100
AcDbLine
 10
1933.450179
 20
569.49307
 30
0.0
 11
1933.450179
 21
590.504177
 31
0.0
  0
LINE
  5
7F7
330
1F
100
AcDbEntity
  8
0
  6
CONTINUOUS
 62
     3
100
AcDbLine
 10
1927.450179
 20
587.99307
 30
0.0
 11
1929.450179
 21
587.99307
 31
0.0
  0
LINE
  5
7F8
330
1F
100
AcDbEntity
  8
0
  6
CONTINUOUS
 62
     3
100
AcDbLine
 10
1933.450179
 20
588.49307
 30
0.0
 11
1938.650179
 21
585.49307
 31
0.0
  0
LINE
  5
7F9
330
1F
100
AcDbEntity
  8
0
  6
CONTINUOUS
 62
     3
100
AcDbLine
 10
1959.150179
 20
582.49307
 30
0.0
 11
1959.150179
 21
568.74307
 31
0.0
  0
LINE
  5
7FA
330
1F
100
AcDbEntity
  8
0
  6
CONTINUOUS
 62
     3
100
AcDbLine
 10
1953.650179
 20
582.49307
 30
0.0
 11
1959.150179
 21
582.49307
 31
0.0
  0
LINE
  5
7FB
330
1F
100
AcDbEntity
  8
0
  6
CONTINUOUS
 62
     3
100
AcDbLine
 10
1947.150179
 20
583.49307
 30
0.0
 11
1952.650179
 21
583.49307
 31
0.0
  0
LINE
  5
7FC
330
1F
100
AcDbEntity
  8
0
  6
CONTINUOUS
 62
     3
100
AcDbLine
 10
1940.150179
 20
584.99307
 30
0.0
 11
1945.650179
 21
584.99307
 31
0.0
  0
LINE
  5
7FD
330
1F
100
AcDbEntity
  8
0
  6
CONTINUOUS
 62
     3
100
AcDbLine
 10
1940.150179
 20
584.99307
 30
0.0
 11
1940.150179
 21
565.74307
 31
0.0
  0
LINE
  5
7FE
330
1F
100
AcDbEntity
  8
0
  6
CONTINUOUS
 62
     3
100
AcDbLine
 10
1945.650179
 20
584.99307
 30
0.0
 11
1945.650179
 21
565.74307
 31
0.0
  0
LINE
  5
7FF
330
1F
100
AcDbEntity
  8
0
  6
CONTINUOUS
 62
     3
100
AcDbLine
 10
1947.150179
 20
583.49307
 30
0.0
 11
1947.150179
 21
567.24307
 31
0.0
  0
LINE
  5
800
330
1F
100
AcDbEntity
  8
0
  6
CONTINUOUS
 62
     3
100
AcDbLine
 10
1952.650179
 20
583.49307
 30
0.0
 11
1952.650179
 21
567.24307
 31
0.0
  0
LINE
  5
801
330
1F
100
AcDbEntity
  8
0
  6
CONTINUOUS
 62
     3
100
AcDbLine
 10
1953.650179
 20
582.49307
 30
0.0
 11
1953.650179
 21
568.74307
 31
0.0
  0
ARC
  5
802
330
1F
100
AcDbEntity
  8
0
  6
CONTINUOUS
 62
     3
100
AcDbCircle
 10
1956.400179
 20
568.74307
 30
0.0
 40
2.75
100
AcDbArc
 50
180.0
 51
0.0
  0
ARC
  5
803
330
1F
100
AcDbEntity
  8
0
  6
CONTINUOUS
 62
     3
100
AcDbCircle
 10
1949.900179
 20
567.24307
 30
0.0
 40
2.75
100
AcDbArc
 50
180.0
 51
0.0
  0
ARC
  5
804
330
1F
100
AcDbEntity
  8
0
  6
CONTINUOUS
 62
     3
100
AcDbCircle
 10
1942.900179
 20
565.74307
 30
0.0
 40
2.75
100
AcDbArc
 50
180.0
 51
0.0
  0
LINE
  5
805
330
1F
100
AcDbEntity
  8
0
  6
CENTER
 62
     6
100
AcDbLine
 10
1920.599531
 20
575.49307
 30
0.0
 11
1991.585356
 21
575.49307
 31
0.0
  0
TEXT
  5
806
330
1F
100
AcDbEntity
  8
0
  6
CONTINUOUS
 62
     3
100
AcDbText
 10
2958.789062
 20
1591.596069
 30
0.0
 40
40.0
  1
フットスイッチ
 41
0.75
  7
ED_VECTOR
100
AcDbText
  0
TEXT
  5
807
330
1F
100
AcDbEntity
  8
0
  6
CONTINUOUS
 62
     3
100
AcDbText
 10
2686.732178
 20
1521.596069
 30
0.0
 40
40.0
  1
制御方式
 41
0.75
  7
ED_VECTOR
100
AcDbText
  0
TEXT
  5
808
330
1F
100
AcDbEntity
  8
0
  6
CONTINUOUS
 62
     3
100
AcDbText
 10
2958.789062
 20
1521.596069
 30
0.0
 40
40.0
  1
ベクトル制御
 41
0.75
  7
ED_VECTOR
100
AcDbText
  0
TEXT
  5
809
330
1F
100
AcDbEntity
  8
0
  6
CONTINUOUS
 62
     5
100
AcDbText
 10
2718.823975
 20
426.442932
 30
0.0
 40
50.0
  1
令和　2年　1月　1日
 41
0.8
  7
ED_VECTOR
100
AcDbText
  0
LINE
  5
80A
330
1F
100
AcDbEntity
  8
0
  6
CONTINUOUS
 62
     3
100
AcDbLine
 10
670.369202
 20
603.69307
 30
0.0
 11
670.369202
 21
597.69307
 31
0.0
  0
LINE
  5
80B
330
1F
100
AcDbEntity
  8
0
  6
CONTINUOUS
 62
     3
100
AcDbLine
 10
695.869202
 20
597.69307
 30
0.0
 11
670.369202
 21
597.69307
 31
0.0
  0
LINE
  5
80C
330
1F
100
AcDbEntity
  8
0
  6
CONTINUOUS
 62
     3
100
AcDbLine
 10
695.869202
 20
603.69307
 30
0.0
 11
670.369202
 21
603.69307
 31
0.0
  0
LINE
  5
80D
330
1F
100
AcDbEntity
  8
0
  6
CONTINUOUS
 62
     3
100
AcDbLine
 10
671.669202
 20
597.69307
 30
0.0
 11
671.669202
 21
569.49307
 31
0.0
  0
LINE
  5
80E
330
1F
100
AcDbEntity
  8
0
  6
CONTINUOUS
 62
     3
100
AcDbLine
 10
764.069202
 20
569.49307
 30
0.0
 11
764.069202
 21
597.69307
 31
0.0
  0
LINE
  5
80F
330
1F
100
AcDbEntity
  8
0
  6
CONTINUOUS
 62
     3
100
AcDbLine
 10
765.369202
 20
597.69307
 30
0.0
 11
739.869202
 21
597.69307
 31
0.0
  0
LINE
  5
810
330
1F
100
AcDbEntity
  8
0
  6
CONTINUOUS
 62
     3
100
AcDbLine
 10
765.369202
 20
603.69307
 30
0.0
 11
739.869202
 21
603.69307
 31
0.0
  0
LINE
  5
811
330
1F
100
AcDbEntity
  8
0
  6
CONTINUOUS
 62
     3
100
AcDbLine
 10
765.369202
 20
603.69307
 30
0.0
 11
765.369202
 21
597.69307
 31
0.0
  0
ENDSEC
  0
SECTION
  2
OBJECTS
  0
DICTIONARY
  5
C
330
0
100
AcDbDictionary
  3
ACAD_GROUP
350
D
  3
ACAD_LAYOUT
350
1A
  3
ACAD_MATERIAL
350
43
  3
ACAD_MLEADERSTYLE
350
6B
  3
ACAD_MLINESTYLE
350
17
  3
ACAD_PLOTSETTINGS
350
19
  3
ACAD_SCALELIST
350
47
  3
ACAD_VISUALSTYLE
350
2A
  3
ACDBVARIABLEDICTIONARY
350
812
1001
ACAD
1000
TREAT_AS_HARD
1070
     0
  0
DICTIONARY
  5
D
102
{ACAD_REACTORS
330
C
102
}
330
C
100
AcDbDictionary
1001
ACAD
1000
TREAT_AS_HARD
1070
     0
  0
DICTIONARY
  5
1A
102
{ACAD_REACTORS
330
C
102
}
330
C
100
AcDbDictionary
1001
ACAD
1000
TREAT_AS_HARD
1070
     0
  0
DICTIONARY
  5
43
102
{ACAD_REACTORS
330
C
102
}
330
C
100
AcDbDictionary
  3
BYBLOCK
350
45
  3
BYLAYER
350
44
  3
GLOBAL
350
46
1001
ACAD
1000
TREAT_AS_HARD
1070
     0
  0
DICTIONARY
  5
6B
102
{ACAD_REACTORS
330
C
102
}
330
C
100
AcDbDictionary
  3
STANDARD
350
6C
1001
ACAD
1000
TREAT_AS_HARD
1070
     0
  0
DICTIONARY
  5
17
102
{ACAD_REACTORS
330
C
102
}
330
C
100
AcDbDictionary
  3
STANDARD
350
18
1001
ACAD
1000
TREAT_AS_HARD
1070
     0
  0
DICTIONARY
  5
19
102
{ACAD_REACTORS
330
C
102
}
330
C
100
AcDbDictionary
1001
ACAD
1000
TREAT_AS_HARD
1070
     0
  0
DICTIONARY
  5
47
102
{ACAD_REACTORS
330
C
102
}
330
C
100
AcDbDictionary
  3
A0
350
48
  3
A1
350
49
  3
A2
350
4A
  3
A3
350
4B
  3
A4
350
4C
  3
A5
350
4D
  3
A6
350
4E
  3
A7
350
4F
  3
A8
350
50
  3
A9
350
51
  3
B0
350
52
  3
B1
350
53
  3
B2
350
54
  3
B3
350
55
  3
B4
350
56
  3
B5
350
57
  3
B6
350
58
  3
B7
350
59
  3
B8
350
5A
  3
B9
350
5B
  3
C0
350
5C
  3
C1
350
5D
  3
C2
350
5E
  3
C3
350
5F
  3
C4
350
60
  3
C5
350
61
  3
C6
350
62
  3
C7
350
63
  3
C8
350
64
  3
C9
350
65
  3
D0
350
66
  3
D1
350
67
  3
D2
350
68
1001
ACAD
1000
TREAT_AS_HARD
1070
     0
  0
DICTIONARY
  5
2A
102
{ACAD_REACTORS
330
C
102
}
330
C
100
AcDbDictionary
  3
2DWIREFRAME
350
2F
  3
BASIC
350
32
  3
BRIGHTEN
350
36
  3
COLORCHANGE
350
3A
  3
CONCEPTUAL
350
34
  3
DIM
350
35
  3
EDGECOLOROFF
350
3D
  3
FACEPATTERN
350
39
  3
FLAT
350
2B
  3
FLATWITHEDGES
350
2C
  3
GOURAUD
350
2D
  3
GOURAUDWITHEDGES
350
2E
  3
HIDDEN
350
31
  3
JITTEROFF
350
3B
  3
LINEPATTERN
350
38
  3
OVERHANGOFF
350
3C
  3
REALISTIC
350
33
  3
SHADED
350
42
  3
SHADED_WITH_EDGES
350
41
  3
SHADES_OF_GRAY
350
3E
  3
SKETCHY
350
3F
  3
THICKEN
350
37
  3
WIREFRAME
350
30
  3
X-RAY
350
40
1001
ACAD
1000
TREAT_AS_HARD
1070
     0
  0
DICTIONARY
  5
812
102
{ACAD_REACTORS
330
C
102
}
330
C
100
AcDbDictionary
  3
CANNOSCALE
350
81D
  3
CENTEREXE
350
819
  3
CENTERLTYPEFILE
350
81A
  3
CMLEADERSTYLE
350
814
  3
CTABLESTYLE
350
813
  3
DIMASSOC
350
81B
  3
HIDETEXT
350
81C
  3
MSLTSCALE
350
81E
  3
PSOLHEIGHT
350
816
  3
PSOLWIDTH
350
815
1001
ACAD
1000
TREAT_AS_HARD
1070
     0
  0
MATERIAL
  5
45
102
{ACAD_REACTORS
330
43
102
}
102
{ACAD_XDICTIONARY
360
821
102
}
330
43
100
AcDbMaterial
  1
BYBLOCK
  0
MATERIAL
  5
44
102
{ACAD_REACTORS
330
43
102
}
102
{ACAD_XDICTIONARY
360
81F
102
}
330
43
100
AcDbMaterial
  1
BYLAYER
  0
MATERIAL
  5
46
102
{ACAD_REACTORS
330
43
102
}
102
{ACAD_XDICTIONARY
360
823
102
}
330
43
100
AcDbMaterial
  1
GLOBAL
  0
ACAD_PROXY_OBJECT
  5
6C
102
{ACAD_REACTORS
330
6B
102
}
330
6B
100
AcDbZombieObject
 90
      499
 91
      505
 93
      610
310
40901902A4063FBFFFFFE0000000000000020400000000000020404214DD185B99185C990000000000000104090141901A00000000000004100000000000000041025764000000000000039000
340
14
340
0
340
11
340
0
 94
        0
1001
ACAD_MLEADERVER
1070
     2
  0
MLINESTYLE
  5
18
102
{ACAD_REACTORS
330
17
102
}
330
17
100
AcDbMlineStyle
  2
Standard
 70
     0
  3

 62
   256
 51
90.0
 52
90.0
 71
     2
 49
0.5
 62
   256
  6
BYLAYER
 49
-0.5
 62
   256
  6
BYLAYER
  0
ACAD_PROXY_OBJECT
  5
48
102
{ACAD_REACTORS
330
47
102
}
330
47
100
AcDbZombieObject
 90
      499
 91
      503
 93
       41
310
903313A31580
  0
ACAD_PROXY_OBJECT
  5
49
102
{ACAD_REACTORS
330
47
102
}
330
47
100
AcDbZombieObject
 90
      499
 91
      503
 93
      105
310
903313A324000000000000004000
  0
ACAD_PROXY_OBJECT
  5
4A
102
{ACAD_REACTORS
330
47
102
}
330
47
100
AcDbZombieObject
 90
      499
 91
      503
 93
      105
310
903313A344000000000000104000
  0
ACAD_PROXY_OBJECT
  5
4B
102
{ACAD_REACTORS
330
47
102
}
330
47
100
AcDbZombieObject
 90
      499
 91
      503
 93
      105
310
903313A354000000000000144000
  0
ACAD_PROXY_OBJECT
  5
4C
102
{ACAD_REACTORS
330
47
102
}
330
47
100
AcDbZombieObject
 90
      499
 91
      503
 93
      105
310
903313A384000000000000204000
  0
ACAD_PROXY_OBJECT
  5
4D
102
{ACAD_REACTORS
330
47
102
}
330
47
100
AcDbZombieObject
 90
      499
 91
      503
 93
      113
310
904313A31304000000000000244000
  0
ACAD_PROXY_OBJECT
  5
4E
102
{ACAD_REACTORS
330
47
102
}
330
47
100
AcDbZombieObject
 90
      499
 91
      503
 93
      113
310
904313A31364000000000000304000
  0
ACAD_PROXY_OBJECT
  5
4F
102
{ACAD_REACTORS
330
47
102
}
330
47
100
AcDbZombieObject
 90
      499
 91
      503
 93
      113
310
904313A32304000000000000344000
  0
ACAD_PROXY_OBJECT
  5
50
102
{ACAD_REACTORS
330
47
102
}
330
47
100
AcDbZombieObject
 90
      499
 91
      503
 93
      113
310
904313A333040000000000003E4000
  0
ACAD_PROXY_OBJECT
  5
51
102
{ACAD_REACTORS
330
47
102
}
330
47
100
AcDbZombieObject
 90
      499
 91
      503
 93
      113
310
904313A34304000000000000444000
  0
ACAD_PROXY_OBJECT
  5
52
102
{ACAD_REACTORS
330
47
102
}
330
47
100
AcDbZombieObject
 90
      499
 91
      503
 93
      113
310
904313A35304000000000000494000
  0
ACAD_PROXY_OBJECT
  5
53
102
{ACAD_REACTORS
330
47
102
}
330
47
100
AcDbZombieObject
 90
      499
 91
      503
 93
      121
310
905313A3130304000000000000594000
  0
ACAD_PROXY_OBJECT
  5
54
102
{ACAD_REACTORS
330
47
102
}
330
47
100
AcDbZombieObject
 90
      499
 91
      503
 93
      105
310
903323A310000000000000010100
  0
ACAD_PROXY_OBJECT
  5
55
102
{ACAD_REACTORS
330
47
102
}
330
47
100
AcDbZombieObject
 90
      499
 91
      503
 93
      105
310
903343A310000000000000410100
  0
ACAD_PROXY_OBJECT
  5
56
102
{ACAD_REACTORS
330
47
102
}
330
47
100
AcDbZombieObject
 90
      499
 91
      503
 93
      105
310
903383A310000000000000810100
  0
ACAD_PROXY_OBJECT
  5
57
102
{ACAD_REACTORS
330
47
102
}
330
47
100
AcDbZombieObject
 90
      499
 91
      503
 93
      113
310
90431303A310000000000000910100
  0
ACAD_PROXY_OBJECT
  5
58
102
{ACAD_REACTORS
330
47
102
}
330
47
100
AcDbZombieObject
 90
      499
 91
      503
 93
      121
310
9053130303A310000000000001650100
  0
ACAD_PROXY_OBJECT
  5
59
102
{ACAD_REACTORS
330
47
102
}
330
47
100
AcDbZombieObject
 90
      499
 91
      503
 93
      257
310
90E312F31323822203D2031272D3022000000000000200FC000000000000284000
  0
ACAD_PROXY_OBJECT
  5
5A
102
{ACAD_REACTORS
330
47
102
}
330
47
100
AcDbZombieObject
 90
      499
 91
      503
 93
      249
310
90D312F363422203D2031272D3022000000000000240FC000000000000284000
  0
ACAD_PROXY_OBJECT
  5
5B
102
{ACAD_REACTORS
330
47
102
}
330
47
100
AcDbZombieObject
 90
      499
 91
      503
 93
      249
310
90D312F333222203D2031272D3022000000000000280FC000000000000284000
  0
ACAD_PROXY_OBJECT
  5
5C
102
{ACAD_REACTORS
330
47
102
}
330
47
100
AcDbZombieObject
 90
      499
 91
      503
 93
      249
310
90D312F313622203D2031272D30220000000000002C0FC000000000000284000
  0
ACAD_PROXY_OBJECT
  5
5D
102
{ACAD_REACTORS
330
47
102
}
330
47
100
AcDbZombieObject
 90
      499
 91
      503
 93
      249
310
90D332F333222203D2031272D30220000000000002E0FC000000000000284000
  0
ACAD_PROXY_OBJECT
  5
5E
102
{ACAD_REACTORS
330
47
102
}
330
47
100
AcDbZombieObject
 90
      499
 91
      503
 93
      241
310
90C312F3822203D2031272D3022000000000000300FC000000000000284000
  0
ACAD_PROXY_OBJECT
  5
5F
102
{ACAD_REACTORS
330
47
102
}
330
47
100
AcDbZombieObject
 90
      499
 91
      503
 93
      249
310
90D332F313622203D2031272D3022000000000000320FC000000000000284000
  0
ACAD_PROXY_OBJECT
  5
60
102
{ACAD_REACTORS
330
47
102
}
330
47
100
AcDbZombieObject
 90
      499
 91
      503
 93
      241
310
90C312F3422203D2031272D3022000000000000340FC000000000000284000
  0
ACAD_PROXY_OBJECT
  5
61
102
{ACAD_REACTORS
330
47
102
}
330
47
100
AcDbZombieObject
 90
      499
 91
      503
 93
      241
310
90C332F3822203D2031272D3022000000000000360FC000000000000284000
  0
ACAD_PROXY_OBJECT
  5
62
102
{ACAD_REACTORS
330
47
102
}
330
47
100
AcDbZombieObject
 90
      499
 91
      503
 93
      241
310
90C312F3222203D2031272D3022000000000000380FC000000000000284000
  0
ACAD_PROXY_OBJECT
  5
63
102
{ACAD_REACTORS
330
47
102
}
330
47
100
AcDbZombieObject
 90
      499
 91
      503
 93
      241
310
90C332F3422203D2031272D30220000000000003A0FC000000000000284000
  0
ACAD_PROXY_OBJECT
  5
64
102
{ACAD_REACTORS
330
47
102
}
330
47
100
AcDbZombieObject
 90
      499
 91
      503
 93
      161
310
90A3122203D2031272D30224000000000000284000
  0
ACAD_PROXY_OBJECT
  5
65
102
{ACAD_REACTORS
330
47
102
}
330
47
100
AcDbZombieObject
 90
      499
 91
      503
 93
      257
310
90E312D312F3222203D2031272D30220000000000003E0FC000000000000284000
  0
ACAD_PROXY_OBJECT
  5
66
102
{ACAD_REACTORS
330
47
102
}
330
47
100
AcDbZombieObject
 90
      499
 91
      503
 93
      225
310
90A3322203D2031272D302200000000000002100000000000000284000
  0
ACAD_PROXY_OBJECT
  5
67
102
{ACAD_REACTORS
330
47
102
}
330
47
100
AcDbZombieObject
 90
      499
 91
      503
 93
      225
310
90A3622203D2031272D302200000000000006100000000000000284000
  0
ACAD_PROXY_OBJECT
  5
68
102
{ACAD_REACTORS
330
47
102
}
330
47
100
AcDbZombieObject
 90
      499
 91
      503
 93
      249
310
90D31272D3022203D2031272D30220000000000000A100000000000000284000
  0
ACAD_PROXY_OBJECT
  5
2F
102
{ACAD_REACTORS
330
2A
102
}
330
2A
100
AcDbZombieObject
 90
      499
 91
      501
 93
      436
310
42CC9915DA5C99599C985B595049028333333333333E33F0000000000000F90107901411070040501600405405064090741402480A0340
1001
ACAD
1000
AcDbSavedByObjectVersion
1070
     0
  0
ACAD_PROXY_OBJECT
  5
32
102
{ACAD_REACTORS
330
2A
102
}
330
2A
100
AcDbZombieObject
 90
      499
 91
      501
 93
      388
310
4150985CDA58D07406404333333333333E33F0000000000000F90107A41107004050150841D405064090741402480A0350
1001
ACAD
1000
AcDbSavedByObjectVersion
1070
     0
  0
ACAD_PROXY_OBJECT
  5
36
102
{ACAD_REACTORS
330
2A
102
}
330
2A
100
AcDbZombieObject
 90
      499
 91
      501
 93
      428
310
42109C9A59DA1D195B90C409028333333333333E33F0000000000000F9010790141107004050150841D405064090741402480A029950
1001
ACAD
1000
AcDbSavedByObjectVersion
1070
     0
  0
ACAD_PROXY_OBJECT
  5
3A
102
{ACAD_REACTORS
330
2A
102
}
330
2A
100
AcDbZombieObject
 90
      499
 91
      501
 93
      452
310
42D0DBDB1BDC90DA185B99D95104090240C333333333333E33F0000000000000F90108901411070040501508421405064090741402480A0350
1001
ACAD
1000
AcDbSavedByObjectVersion
1070
     0
  0
ACAD_PROXY_OBJECT
  5
34
102
{ACAD_REACTORS
330
2A
102
}
330
2A
100
AcDbZombieObject
 90
      499
 91
      501
 93
      500
310
4290DBDB98D95C1D1D585B10940D028333333333333E33F0000000000000F90107902409070040501000000000018199010841D405064090740C02480A0340
1001
ACAD
1000
AcDbSavedByObjectVersion
1070
     0
  0
ACAD_PROXY_OBJECT
  5
35
102
{ACAD_REACTORS
330
2A
102
}
330
2A
100
AcDbZombieObject
 90
      499
 91
      501
 93
      412
310
40D11A5B50B409028333333333333E33F0000000000000F9010790141107004050150841D405064090741402480A02677FFFFFD0
1001
ACAD
1000
AcDbSavedByObjectVersion
1070
     0
  0
ACAD_PROXY_OBJECT
  5
3D
102
{ACAD_REACTORS
330
2A
102
}
330
2A
100
AcDbZombieObject
 90
      499
 91
      501
 93
      452
310
43115919D950DBDB1BDC93D999916409028333333333333E33F0000000000000F9010790141107004050150841D405064090741402480A0350
1001
ACAD
1000
AcDbSavedByObjectVersion
1070
     0
  0
ACAD_PROXY_OBJECT
  5
39
102
{ACAD_REACTORS
330
2A
102
}
330
2A
100
AcDbZombieObject
 90
      499
 91
      501
 93
      444
310
42D19858D95C185D1D195C9B90F409028333333333333E33F0000000000000F9010790141107004050150841D405064090741402480A0350
1001
ACAD
1000
AcDbSavedByObjectVersion
1070
     0
  0
ACAD_PROXY_OBJECT
  5
2B
102
{ACAD_REACTORS
330
2A
102
}
330
2A
100
AcDbZombieObject
 90
      499
 91
      501
 93
      380
310
41119B185D240901404333333333333E33F0000000000000F9010740A907004050150841D405064090741402480A1B50
1001
ACAD
1000
AcDbSavedByObjectVersion
1070
     0
  0
ACAD_PROXY_OBJECT
  5
2C
102
{ACAD_REACTORS
330
2A
102
}
330
2A
100
AcDbZombieObject
 90
      499
 91
      501
 93
      468
310
43519B185D15DA5D1A115919D95CD0140901404333333333333E33F0000000000000F90107409019070040501600405405064090741402480A1B50
1001
ACAD
1000
AcDbSavedByObjectVersion
1070
     0
  0
ACAD_PROXY_OBJECT
  5
2D
102
{ACAD_REACTORS
330
2A
102
}
330
2A
100
AcDbZombieObject
 90
      499
 91
      501
 93
      404
310
41D1DBDD5C985D5910240902404333333333333E33F0000000000000F9010740A9070040501641D405064090741402480A1B50
1001
ACAD
1000
AcDbSavedByObjectVersion
1070
     0
  0
ACAD_PROXY_OBJECT
  5
2E
102
{ACAD_REACTORS
330
2A
102
}
330
2A
100
AcDbZombieObject
 90
      499
 91
      501
 93
      492
310
4411DBDD5C985D5915DA5D1A115919D95CD0340902404333333333333E33F0000000000000F90107409019070040501600405405064090741402480A1B50
1001
ACAD
1000
AcDbSavedByObjectVersion
1070
     0
  0
ACAD_PROXY_OBJECT
  5
31
102
{ACAD_REACTORS
330
2A
102
}
330
2A
100
AcDbZombieObject
 90
      499
 91
      501
 93
      476
310
41921A5919195B90640502408333333333333E33F0000000000000F901079024090700405020000000000001110200405405064090740C02480A0340
1001
ACAD
1000
AcDbSavedByObjectVersion
1070
     0
  0
ACAD_PROXY_OBJECT
  5
3B
102
{ACAD_REACTORS
330
2A
102
}
330
2A
100
AcDbZombieObject
 90
      499
 91
      501
 93
      428
310
42529A5D1D195C93D999914409028333333333333E33F0000000000000F9010790141107004050150A41D405064090741402480A0350
1001
ACAD
1000
AcDbSavedByObjectVersion
1070
     0
  0
ACAD_PROXY_OBJECT
  5
38
102
{ACAD_REACTORS
330
2A
102
}
330
2A
100
AcDbZombieObject
 90
      499
 91
      501
 93
      444
310
42D31A5B995C185D1D195C9B90E409028333333333333E33F0000000000000F9010790141107004050750841D405064090741402483A0350
1001
ACAD
1000
AcDbSavedByObjectVersion
1070
     0
  0
ACAD_PROXY_OBJECT
  5
3C
102
{ACAD_REACTORS
330
2A
102
}
330
2A
100
AcDbZombieObject
 90
      499
 91
      501
 93
      444
310
42D3DD995C9A185B99D3D999915409028333333333333E33F0000000000000F9010790141107004050150941D405064090741402480A0350
1001
ACAD
1000
AcDbSavedByObjectVersion
1070
     0
  0
ACAD_PROXY_OBJECT
  5
33
102
{ACAD_REACTORS
330
2A
102
}
330
2A
100
AcDbZombieObject
 90
      499
 91
      501
 93
      428
310
425499585B1A5CDD1A58D08409038333333333333E33F0000000000000F9010740A907004050150800405405064090740C02480A1B40
1001
ACAD
1000
AcDbSavedByObjectVersion
1070
     0
  0
ACAD_PROXY_OBJECT
  5
42
102
{ACAD_REACTORS
330
2A
102
}
330
2A
100
AcDbZombieObject
 90
      499
 91
      501
 93
      420
310
4194DA1859195911B40902404333333333333E33F0000000000000F9010740A41107004050150800405405064090840C02480A0B40
1001
ACAD
1000
AcDbSavedByObjectVersion
1070
     0
  0
ACAD_PROXY_OBJECT
  5
41
102
{ACAD_REACTORS
330
2A
102
}
330
2A
100
AcDbZombieObject
 90
      499
 91
      501
 93
      516
310
4454DA18591959081DDA5D1A08195919D95CD1A40902404333333333333E33F0000000000000F901074090142907004050250800405405064090740C02480A0B40
1001
ACAD
1000
AcDbSavedByObjectVersion
1070
     0
  0
ACAD_PROXY_OBJECT
  5
3E
102
{ACAD_REACTORS
330
2A
102
}
330
2A
100
AcDbZombieObject
 90
      499
 91
      501
 93
      532
310
4394DA1859195CC81BD98811DC985E5174090240C333333333333E33F0000000000000F901079024090741D01000000000000111010841D405064090740C02480A0340
1001
ACAD
1000
AcDbSavedByObjectVersion
1070
     0
  0
ACAD_PROXY_OBJECT
  5
3F
102
{ACAD_REACTORS
330
2A
102
}
330
2A
100
AcDbZombieObject
 90
      499
 91
      501
 93
      476
310
41D4DAD95D18DA1E51840502408333333333333E33F0000000000000F901079024090741D01000000000000111010B41D405064090741802480A0340
1001
ACAD
1000
AcDbSavedByObjectVersion
1070
     0
  0
ACAD_PROXY_OBJECT
  5
37
102
{ACAD_REACTORS
330
2A
102
}
330
2A
100
AcDbZombieObject
 90
      499
 91
      501
 93
      412
310
41D51A1A58DAD95B90D409028333333333333E33F0000000000000F9010790141107004050150C41D405064090741402480A0350
1001
ACAD
1000
AcDbSavedByObjectVersion
1070
     0
  0
ACAD_PROXY_OBJECT
  5
30
102
{ACAD_REACTORS
330
2A
102
}
330
2A
100
AcDbZombieObject
 90
      499
 91
      501
 93
      420
310
4255DA5C99599C985B595059028333333333333E33F0000000000000F90107901411070040501600405405064090740C02480A0340
1001
ACAD
1000
AcDbSavedByObjectVersion
1070
     0
  0
ACAD_PROXY_OBJECT
  5
40
102
{ACAD_REACTORS
330
2A
102
}
330
2A
100
AcDbZombieObject
 90
      499
 91
      501
 93
      404
310
41560B54985E51940902404000000000000E03F0000000000000F9010740501907004050150841D405064090740C02480A1B40
1001
ACAD
1000
AcDbSavedByObjectVersion
1070
     0
  0
DICTIONARYVAR
  5
81D
102
{ACAD_REACTORS
330
812
102
}
330
812
100
DictionaryVariables
280
     0
  1
1:1
  0
DICTIONARYVAR
  5
819
102
{ACAD_REACTORS
330
812
102
}
330
812
100
DictionaryVariables
280
     0
  1
3.500000
  0
DICTIONARYVAR
  5
81A
102
{ACAD_REACTORS
330
812
102
}
330
812
100
DictionaryVariables
280
     0
  1
acadiso.lin
  0
DICTIONARYVAR
  5
814
102
{ACAD_REACTORS
330
812
102
}
330
812
100
DictionaryVariables
280
     0
  1
Standard
  0
DICTIONARYVAR
  5
813
102
{ACAD_REACTORS
330
812
102
}
330
812
100
DictionaryVariables
280
     0
  1
Standard
  0
DICTIONARYVAR
  5
81B
102
{ACAD_REACTORS
330
812
102
}
330
812
100
DictionaryVariables
280
     0
  1
2
  0
DICTIONARYVAR
  5
81C
102
{ACAD_REACTORS
330
812
102
}
330
812
100
DictionaryVariables
280
     0
  1
1
  0
DICTIONARYVAR
  5
81E
102
{ACAD_REACTORS
330
812
102
}
330
812
100
DictionaryVariables
280
     0
  1
1
  0
DICTIONARYVAR
  5
816
102
{ACAD_REACTORS
330
812
102
}
330
812
100
DictionaryVariables
280
     0
  1
80.000000
  0
DICTIONARYVAR
  5
815
102
{ACAD_REACTORS
330
812
102
}
330
812
100
DictionaryVariables
280
     0
  1
5.000000
  0
DICTIONARY
  5
821
330
45
100
AcDbDictionary
  3
ACAD_XREC_ROUNDTRIP
360
822
1001
ACAD
1000
TREAT_AS_HARD
1070
     1
  0
DICTIONARY
  5
81F
330
44
100
AcDbDictionary
  3
ACAD_XREC_ROUNDTRIP
360
820
1001
ACAD
1000
TREAT_AS_HARD
1070
     1
  0
DICTIONARY
  5
823
330
46
100
AcDbDictionary
  3
ACAD_XREC_ROUNDTRIP
360
824
1001
ACAD
1000
TREAT_AS_HARD
1070
     1
  0
XRECORD
  5
822
102
{ACAD_REACTORS
330
821
102
}
330
821
100
AcDbXrecord
102
MATERIAL
148
0.0
149
0.0
149
0.0
 93
        0
 94
      127
282
     0
 72
     1
 77
     1
171
     1
175
     1
179
     1
273
     0
  0
XRECORD
  5
820
102
{ACAD_REACTORS
330
81F
102
}
330
81F
100
AcDbXrecord
102
MATERIAL
148
0.0
149
0.0
149
0.0
 93
        0
 94
      127
282
     0
 72
     1
 77
     1
171
     1
175
     1
179
     1
273
     0
  0
XRECORD
  5
824
102
{ACAD_REACTORS
330
823
102
}
330
823
100
AcDbXrecord
102
MATERIAL
148
0.0
149
0.0
149
0.0
 93
        0
 94
      127
282
     0
 72
     1
 77
     1
171
     1
175
     1
179
     1
273
     0
  0
ENDSEC
  0
EOF
