  0
SECTION
  2
HEADER
  9
$ACADVER
  1
AC1012
  9
$DWGCODEPAGE
  3
ansi_932
  9
$INSBASE
 10
0.0
 20
0.0
 30
0.0
  9
$EXTMIN
 10
0.0
 20
0.0
 30
0.0
  9
$EXTMAX
 10
3640.0
 20
2570.0
 30
0.0
  9
$LIMMIN
 10
0.0
 20
0.0
  9
$LIMMAX
 10
3640.0
 20
2570.0
  9
$ORTHOMODE
 70
     0
  9
$REGENMODE
 70
     1
  9
$FILLMODE
 70
     1
  9
$QTEXTMODE
 70
     0
  9
$MIRRTEXT
 70
     1
  9
$DRAGMODE
 70
     2
  9
$LTSCALE
 40
1.0
  9
$OSMODE
 70
    37
  9
$ATTMODE
 70
     1
  9
$TEXTSIZE
 40
2.5
  9
$TRACEWID
 40
1.0
  9
$TEXTSTYLE
  7
ED_VECTOR
  9
$CLAYER
  8
0
  9
$CELTYPE
  6
BYLAYER
  9
$CECOLOR
 62
   256
  9
$CELTSCALE
 40
1.0
  9
$DELOBJ
 70
     1
  9
$DISPSILH
 70
     0
  9
$DIMSCALE
 40
1.0
  9
$DIMASZ
 40
30.0
  9
$DIMEXO
 40
10.0
  9
$DIMDLI
 40
0.1
  9
$DIMRND
 40
0.0
  9
$DIMDLE
 40
40.0
  9
$DIMEXE
 40
10.0
  9
$DIMTP
 40
0.0
  9
$DIMTM
 40
0.0
  9
$DIMTXT
 40
30.0
  9
$DIMCEN
 40
2.5
  9
$DIMTSZ
 40
0.0
  9
$DIMTOL
 70
     0
  9
$DIMLIM
 70
     0
  9
$DIMTIH
 70
     0
  9
$DIMTOH
 70
     0
  9
$DIMSE1
 70
     0
  9
$DIMSE2
 70
     0
  9
$DIMTAD
 70
     1
  9
$DIMZIN
 70
     8
  9
$DIMBLK
  1

  9
$DIMASO
 70
     1
  9
$DIMSHO
 70
     1
  9
$DIMPOST
  1

  9
$DIMAPOST
  1

  9
$DIMALT
 70
     0
  9
$DIMALTD
 70
     3
  9
$DIMALTF
 40
0.03937
  9
$DIMLFAC
 40
1.0
  9
$DIMTOFL
 70
     1
  9
$DIMTVP
 40
0.0
  9
$DIMTIX
 70
     0
  9
$DIMSOXD
 70
     0
  9
$DIMSAH
 70
     1
  9
$DIMBLK1
  1
EDTIP_ARROW_S
  9
$DIMBLK2
  1
EDTIP_ARROW_E
  9
$DIMSTYLE
  2
EDDIMINFO
  9
$DIMCLRD
 70
     5
  9
$DIMCLRE
 70
     5
  9
$DIMCLRT
 70
     4
  9
$DIMTFAC
 40
1.0
  9
$DIMGAP
 40
10.0
  9
$DIMJUST
 70
     0
  9
$DIMSD1
 70
     0
  9
$DIMSD2
 70
     0
  9
$DIMTOLJ
 70
     0
  9
$DIMTZIN
 70
     8
  9
$DIMALTZ
 70
     0
  9
$DIMALTTZ
 70
     0
  9
$DIMFIT
 70
     3
  9
$DIMUPT
 70
     0
  9
$DIMUNIT
 70
     2
  9
$DIMDEC
 70
     0
  9
$DIMTDEC
 70
     2
  9
$DIMALTU
 70
     2
  9
$DIMALTTD
 70
     3
  9
$DIMTXSTY
  7
ED_VECTOR
  9
$DIMAUNIT
 70
     0
  9
$LUNITS
 70
     2
  9
$LUPREC
 70
     4
  9
$SKETCHINC
 40
1.0
  9
$FILLETRAD
 40
10.0
  9
$AUNITS
 70
     0
  9
$AUPREC
 70
     0
  9
$MENU
  1
.
  9
$ELEVATION
 40
0.0
  9
$PELEVATION
 40
0.0
  9
$THICKNESS
 40
0.0
  9
$LIMCHECK
 70
     0
  9
$CHAMFERA
 40
0.0
  9
$CHAMFERB
 40
0.0
  9
$CHAMFERC
 40
0.0
  9
$CHAMFERD
 40
0.0
  9
$SKPOLY
 70
     0
  9
$TDCREATE
 40
2458877.664311423
  9
$TDUPDATE
 40
2458877.664313113
  9
$TDINDWG
 40
0.0000000116
  9
$TDUSRTIMER
 40
0.0000000116
  9
$USRTIMER
 70
     1
  9
$ANGBASE
 50
0.0
  9
$ANGDIR
 70
     0
  9
$PDMODE
 70
     0
  9
$PDSIZE
 40
0.0
  9
$PLINEWID
 40
0.0
  9
$COORDS
 70
     1
  9
$SPLFRAME
 70
     0
  9
$SPLINETYPE
 70
     6
  9
$SPLINESEGS
 70
     8
  9
$ATTDIA
 70
     0
  9
$ATTREQ
 70
     1
  9
$HANDLING
 70
     1
  9
$HANDSEED
  5
82C
  9
$SURFTAB1
 70
     6
  9
$SURFTAB2
 70
     6
  9
$SURFTYPE
 70
     6
  9
$SURFU
 70
     6
  9
$SURFV
 70
     6
  9
$UCSNAME
  2

  9
$UCSORG
 10
0.0
 20
0.0
 30
0.0
  9
$UCSXDIR
 10
1.0
 20
0.0
 30
0.0
  9
$UCSYDIR
 10
0.0
 20
1.0
 30
0.0
  9
$PUCSNAME
  2

  9
$PUCSORG
 10
0.0
 20
0.0
 30
0.0
  9
$PUCSXDIR
 10
1.0
 20
0.0
 30
0.0
  9
$PUCSYDIR
 10
0.0
 20
1.0
 30
0.0
  9
$USERI1
 70
     0
  9
$USERI2
 70
     0
  9
$USERI3
 70
     0
  9
$USERI4
 70
     0
  9
$USERI5
 70
     0
  9
$USERR1
 40
0.0
  9
$USERR2
 40
0.0
  9
$USERR3
 40
0.0
  9
$USERR4
 40
0.0
  9
$USERR5
 40
0.0
  9
$WORLDVIEW
 70
     1
  9
$SHADEDGE
 70
     3
  9
$SHADEDIF
 70
    70
  9
$TILEMODE
 70
     1
  9
$MAXACTVP
 70
    64
  9
$PINSBASE
 10
0.0
 20
0.0
 30
0.0
  9
$PLIMCHECK
 70
     0
  9
$PEXTMIN
 10
1.000000E+20
 20
1.000000E+20
 30
1.000000E+20
  9
$PEXTMAX
 10
-1.000000E+20
 20
-1.000000E+20
 30
-1.000000E+20
  9
$PLIMMIN
 10
0.0
 20
0.0
  9
$PLIMMAX
 10
420.0
 20
297.0
  9
$UNITMODE
 70
     0
  9
$VISRETAIN
 70
     1
  9
$PLINEGEN
 70
     0
  9
$PSLTSCALE
 70
     1
  9
$TREEDEPTH
 70
  3020
  9
$PICKSTYLE
 70
     1
  9
$CMLSTYLE
  2
STANDARD
  9
$CMLJUST
 70
     0
  9
$CMLSCALE
 40
20.0
  9
$SAVEIMAGES
 70
     1
  0
ENDSEC
  0
SECTION
  2
CLASSES
  0
CLASS
  1
ACDBDICTIONARYWDFLT
  2
AcDbDictionaryWithDefault
  3
ObjectDBX Classes
 90
    32768
280
     0
281
     0
  0
CLASS
  1
VISUALSTYLE
  2
AcDbVisualStyle
  3
ObjectDBX Classes
 90
     4095
280
     0
281
     0
  0
CLASS
  1
MATERIAL
  2
AcDbMaterial
  3
ObjectDBX Classes
 90
     1153
280
     0
281
     0
  0
CLASS
  1
SCALE
  2
AcDbScale
  3
ObjectDBX Classes
 90
     1153
280
     0
281
     0
  0
CLASS
  1
TABLESTYLE
  2
AcDbTableStyle
  3
ObjectDBX Classes
 90
     4095
280
     0
281
     0
  0
CLASS
  1
MLEADERSTYLE
  2
AcDbMLeaderStyle
  3
ACDB_MLEADERSTYLE_CLASS
 90
     4095
280
     0
281
     0
  0
CLASS
  1
SUN
  2
AcDbSun
  3
SCENEOE
 90
     1153
280
     0
281
     0
  0
CLASS
  1
DICTIONARYVAR
  2
AcDbDictionaryVar
  3
ObjectDBX Classes
 90
        0
280
     0
281
     0
  0
CLASS
  1
XRECORD
  2
AcDbXrecord
  3
ObjectDBX Classes
 90
    32768
280
     0
281
     0
  0
CLASS
  1
LWPOLYLINE
  2
AcDbPolyline
  3
ObjectDBX Classes
 90
    32768
280
     0
281
     1
  0
CLASS
  1
HATCH
  2
AcDbHatch
  3
ObjectDBX Classes
 90
    32768
280
     0
281
     1
  0
CLASS
  1
ACDBPLACEHOLDER
  2
AcDbPlaceHolder
  3
ObjectDBX Classes
 90
        0
280
     0
281
     0
  0
CLASS
  1
LAYOUT
  2
AcDbLayout
  3
ObjectDBX Classes
 90
        0
280
     0
281
     0
  0
ENDSEC
  0
SECTION
  2
TABLES
  0
TABLE
  2
VPORT
  5
8
330
0
100
AcDbSymbolTable
 70
     1
  0
VPORT
  5
29
330
8
100
AcDbSymbolTableRecord
100
AcDbViewportTableRecord
  2
*ACTIVE
 70
     0
 10
0.0
 20
0.0
 11
1.0
 21
1.0
 12
1820.0
 22
1285.0
 13
0.0
 23
0.0
 14
10.0
 24
10.0
 15
10.0
 25
10.0
 16
0.0
 26
0.0
 36
1.0
 17
0.0
 27
0.0
 37
0.0
 40
2570.0
 41
1.416342
 42
50.0
 43
0.0
 44
0.0
 50
0.0
 51
0.0
 71
     0
 72
   100
 73
     1
 74
     3
 75
     0
 76
     0
 77
     0
 78
     0
  0
ENDTAB
  0
TABLE
  2
LTYPE
  5
5
330
0
100
AcDbSymbolTable
 70
     5
  0
LTYPE
  5
14
330
5
100
AcDbSymbolTableRecord
100
AcDbLinetypeTableRecord
  2
BYBLOCK
 70
     0
  3

 72
    65
 73
     0
 40
0.0
  0
LTYPE
  5
15
330
5
100
AcDbSymbolTableRecord
100
AcDbLinetypeTableRecord
  2
BYLAYER
 70
     0
  3

 72
    65
 73
     0
 40
0.0
  0
LTYPE
  5
16
330
5
100
AcDbSymbolTableRecord
100
AcDbLinetypeTableRecord
  2
CONTINUOUS
 70
     0
  3
--------------------
 72
    65
 73
     0
 40
0.0
  0
LTYPE
  5
6E
330
5
100
AcDbSymbolTableRecord
100
AcDbLinetypeTableRecord
  2
DASHED
 70
     0
  3
- - - - - - - - - - -
 72
    65
 73
     2
 40
19.1
 49
12.7
 74
     0
 49
-6.4
 74
     0
  0
LTYPE
  5
6F
330
5
100
AcDbSymbolTableRecord
100
AcDbLinetypeTableRecord
  2
CENTER
 70
     0
  3
- ･ - ･ - ･ - ･ - ･ - ･ - ･ - ･ - ･ - ･ -
 72
    65
 73
     4
 40
51.0
 49
31.8
 74
     0
 49
-6.4
 74
     0
 49
6.4
 74
     0
 49
-6.4
 74
     0
  0
LTYPE
  5
70
330
5
100
AcDbSymbolTableRecord
100
AcDbLinetypeTableRecord
  2
PHANTOM
 70
     0
  3
- ･ ･ - ･ ･ - ･ ･ - ･ ･ - ･ ･ - ･ ･ - ･ ･ - 
 72
    65
 73
     6
 40
63.8
 49
31.8
 74
     0
 49
-6.4
 74
     0
 49
6.4
 74
     0
 49
-6.4
 74
     0
 49
6.4
 74
     0
 49
-6.4
 74
     0
  0
LTYPE
  5
71
330
5
100
AcDbSymbolTableRecord
100
AcDbLinetypeTableRecord
  2
DOT
 70
     0
  3
・・・・・・・・・・・・・・・
 72
    65
 73
     2
 40
6.5
 49
0.1
 74
     0
 49
-6.4
 74
     0
  0
ENDTAB
  0
TABLE
  2
LAYER
  5
2
330
0
100
AcDbSymbolTable
 70
    65
  0
LAYER
  5
10
330
2
100
AcDbSymbolTableRecord
100
AcDbLayerTableRecord
  2
0
 70
     0
 62
     7
  6
CONTINUOUS
  0
LAYER
  5
72
330
2
100
AcDbSymbolTableRecord
100
AcDbLayerTableRecord
  2
LAYER002
 70
     0
 62
     7
  6
CONTINUOUS
  0
LAYER
  5
73
330
2
100
AcDbSymbolTableRecord
100
AcDbLayerTableRecord
  2
LAYER003
 70
     0
 62
     7
  6
CONTINUOUS
  0
LAYER
  5
74
330
2
100
AcDbSymbolTableRecord
100
AcDbLayerTableRecord
  2
LAYER004
 70
     0
 62
     7
  6
CONTINUOUS
  0
LAYER
  5
75
330
2
100
AcDbSymbolTableRecord
100
AcDbLayerTableRecord
  2
LAYER005
 70
     0
 62
     7
  6
CONTINUOUS
  0
LAYER
  5
76
330
2
100
AcDbSymbolTableRecord
100
AcDbLayerTableRecord
  2
LAYER006
 70
     0
 62
     7
  6
CONTINUOUS
  0
LAYER
  5
77
330
2
100
AcDbSymbolTableRecord
100
AcDbLayerTableRecord
  2
LAYER007
 70
     0
 62
     7
  6
CONTINUOUS
  0
LAYER
  5
78
330
2
100
AcDbSymbolTableRecord
100
AcDbLayerTableRecord
  2
LAYER008
 70
     0
 62
     7
  6
CONTINUOUS
  0
LAYER
  5
79
330
2
100
AcDbSymbolTableRecord
100
AcDbLayerTableRecord
  2
LAYER009
 70
     0
 62
     7
  6
CONTINUOUS
  0
LAYER
  5
7A
330
2
100
AcDbSymbolTableRecord
100
AcDbLayerTableRecord
  2
LAYER010
 70
     0
 62
     7
  6
CONTINUOUS
  0
LAYER
  5
7B
330
2
100
AcDbSymbolTableRecord
100
AcDbLayerTableRecord
  2
LAYER011
 70
     0
 62
     7
  6
CONTINUOUS
  0
LAYER
  5
7C
330
2
100
AcDbSymbolTableRecord
100
AcDbLayerTableRecord
  2
LAYER012
 70
     0
 62
     7
  6
CONTINUOUS
  0
LAYER
  5
7D
330
2
100
AcDbSymbolTableRecord
100
AcDbLayerTableRecord
  2
LAYER013
 70
     0
 62
     7
  6
CONTINUOUS
  0
LAYER
  5
7E
330
2
100
AcDbSymbolTableRecord
100
AcDbLayerTableRecord
  2
LAYER014
 70
     0
 62
     7
  6
CONTINUOUS
  0
LAYER
  5
7F
330
2
100
AcDbSymbolTableRecord
100
AcDbLayerTableRecord
  2
LAYER015
 70
     0
 62
     7
  6
CONTINUOUS
  0
LAYER
  5
80
330
2
100
AcDbSymbolTableRecord
100
AcDbLayerTableRecord
  2
LAYER016
 70
     0
 62
     7
  6
CONTINUOUS
  0
LAYER
  5
81
330
2
100
AcDbSymbolTableRecord
100
AcDbLayerTableRecord
  2
LAYER017
 70
     0
 62
     7
  6
CONTINUOUS
  0
LAYER
  5
82
330
2
100
AcDbSymbolTableRecord
100
AcDbLayerTableRecord
  2
LAYER018
 70
     0
 62
     7
  6
CONTINUOUS
  0
LAYER
  5
83
330
2
100
AcDbSymbolTableRecord
100
AcDbLayerTableRecord
  2
LAYER019
 70
     0
 62
     7
  6
CONTINUOUS
  0
LAYER
  5
84
330
2
100
AcDbSymbolTableRecord
100
AcDbLayerTableRecord
  2
LAYER020
 70
     0
 62
     7
  6
CONTINUOUS
  0
LAYER
  5
85
330
2
100
AcDbSymbolTableRecord
100
AcDbLayerTableRecord
  2
LAYER021
 70
     0
 62
     7
  6
CONTINUOUS
  0
LAYER
  5
86
330
2
100
AcDbSymbolTableRecord
100
AcDbLayerTableRecord
  2
LAYER022
 70
     0
 62
     7
  6
CONTINUOUS
  0
LAYER
  5
87
330
2
100
AcDbSymbolTableRecord
100
AcDbLayerTableRecord
  2
LAYER023
 70
     0
 62
     7
  6
CONTINUOUS
  0
LAYER
  5
88
330
2
100
AcDbSymbolTableRecord
100
AcDbLayerTableRecord
  2
LAYER024
 70
     0
 62
     7
  6
CONTINUOUS
  0
LAYER
  5
89
330
2
100
AcDbSymbolTableRecord
100
AcDbLayerTableRecord
  2
LAYER025
 70
     0
 62
     7
  6
CONTINUOUS
  0
LAYER
  5
8A
330
2
100
AcDbSymbolTableRecord
100
AcDbLayerTableRecord
  2
LAYER026
 70
     0
 62
     7
  6
CONTINUOUS
  0
LAYER
  5
8B
330
2
100
AcDbSymbolTableRecord
100
AcDbLayerTableRecord
  2
LAYER027
 70
     0
 62
     7
  6
CONTINUOUS
  0
LAYER
  5
8C
330
2
100
AcDbSymbolTableRecord
100
AcDbLayerTableRecord
  2
LAYER028
 70
     0
 62
     7
  6
CONTINUOUS
  0
LAYER
  5
8D
330
2
100
AcDbSymbolTableRecord
100
AcDbLayerTableRecord
  2
LAYER029
 70
     0
 62
     7
  6
CONTINUOUS
  0
LAYER
  5
8E
330
2
100
AcDbSymbolTableRecord
100
AcDbLayerTableRecord
  2
LAYER030
 70
     0
 62
     7
  6
CONTINUOUS
  0
LAYER
  5
8F
330
2
100
AcDbSymbolTableRecord
100
AcDbLayerTableRecord
  2
LAYER031
 70
     0
 62
     7
  6
CONTINUOUS
  0
LAYER
  5
90
330
2
100
AcDbSymbolTableRecord
100
AcDbLayerTableRecord
  2
LAYER032
 70
     0
 62
     7
  6
CONTINUOUS
  0
LAYER
  5
91
330
2
100
AcDbSymbolTableRecord
100
AcDbLayerTableRecord
  2
LAYER033
 70
     0
 62
     7
  6
CONTINUOUS
  0
LAYER
  5
92
330
2
100
AcDbSymbolTableRecord
100
AcDbLayerTableRecord
  2
LAYER034
 70
     0
 62
     7
  6
CONTINUOUS
  0
LAYER
  5
93
330
2
100
AcDbSymbolTableRecord
100
AcDbLayerTableRecord
  2
LAYER035
 70
     0
 62
     7
  6
CONTINUOUS
  0
LAYER
  5
94
330
2
100
AcDbSymbolTableRecord
100
AcDbLayerTableRecord
  2
LAYER036
 70
     0
 62
     7
  6
CONTINUOUS
  0
LAYER
  5
95
330
2
100
AcDbSymbolTableRecord
100
AcDbLayerTableRecord
  2
LAYER037
 70
     0
 62
     7
  6
CONTINUOUS
  0
LAYER
  5
96
330
2
100
AcDbSymbolTableRecord
100
AcDbLayerTableRecord
  2
LAYER038
 70
     0
 62
     7
  6
CONTINUOUS
  0
LAYER
  5
97
330
2
100
AcDbSymbolTableRecord
100
AcDbLayerTableRecord
  2
LAYER039
 70
     0
 62
     7
  6
CONTINUOUS
  0
LAYER
  5
98
330
2
100
AcDbSymbolTableRecord
100
AcDbLayerTableRecord
  2
LAYER040
 70
     0
 62
     7
  6
CONTINUOUS
  0
LAYER
  5
99
330
2
100
AcDbSymbolTableRecord
100
AcDbLayerTableRecord
  2
LAYER041
 70
     0
 62
     7
  6
CONTINUOUS
  0
LAYER
  5
9A
330
2
100
AcDbSymbolTableRecord
100
AcDbLayerTableRecord
  2
LAYER042
 70
     0
 62
     7
  6
CONTINUOUS
  0
LAYER
  5
9B
330
2
100
AcDbSymbolTableRecord
100
AcDbLayerTableRecord
  2
LAYER043
 70
     0
 62
     7
  6
CONTINUOUS
  0
LAYER
  5
9C
330
2
100
AcDbSymbolTableRecord
100
AcDbLayerTableRecord
  2
LAYER044
 70
     0
 62
     7
  6
CONTINUOUS
  0
LAYER
  5
9D
330
2
100
AcDbSymbolTableRecord
100
AcDbLayerTableRecord
  2
LAYER045
 70
     0
 62
     7
  6
CONTINUOUS
  0
LAYER
  5
9E
330
2
100
AcDbSymbolTableRecord
100
AcDbLayerTableRecord
  2
LAYER046
 70
     0
 62
     7
  6
CONTINUOUS
  0
LAYER
  5
9F
330
2
100
AcDbSymbolTableRecord
100
AcDbLayerTableRecord
  2
LAYER047
 70
     0
 62
     7
  6
CONTINUOUS
  0
LAYER
  5
A0
330
2
100
AcDbSymbolTableRecord
100
AcDbLayerTableRecord
  2
LAYER048
 70
     0
 62
     7
  6
CONTINUOUS
  0
LAYER
  5
A1
330
2
100
AcDbSymbolTableRecord
100
AcDbLayerTableRecord
  2
LAYER049
 70
     0
 62
     7
  6
CONTINUOUS
  0
LAYER
  5
A2
330
2
100
AcDbSymbolTableRecord
100
AcDbLayerTableRecord
  2
LAYER050
 70
     0
 62
     7
  6
CONTINUOUS
  0
LAYER
  5
A3
330
2
100
AcDbSymbolTableRecord
100
AcDbLayerTableRecord
  2
LAYER051
 70
     0
 62
     7
  6
CONTINUOUS
  0
LAYER
  5
A4
330
2
100
AcDbSymbolTableRecord
100
AcDbLayerTableRecord
  2
LAYER052
 70
     0
 62
     7
  6
CONTINUOUS
  0
LAYER
  5
A5
330
2
100
AcDbSymbolTableRecord
100
AcDbLayerTableRecord
  2
LAYER053
 70
     0
 62
     7
  6
CONTINUOUS
  0
LAYER
  5
A6
330
2
100
AcDbSymbolTableRecord
100
AcDbLayerTableRecord
  2
LAYER054
 70
     0
 62
     7
  6
CONTINUOUS
  0
LAYER
  5
A7
330
2
100
AcDbSymbolTableRecord
100
AcDbLayerTableRecord
  2
LAYER055
 70
     0
 62
     7
  6
CONTINUOUS
  0
LAYER
  5
A8
330
2
100
AcDbSymbolTableRecord
100
AcDbLayerTableRecord
  2
LAYER056
 70
     0
 62
     7
  6
CONTINUOUS
  0
LAYER
  5
A9
330
2
100
AcDbSymbolTableRecord
100
AcDbLayerTableRecord
  2
LAYER057
 70
     0
 62
     7
  6
CONTINUOUS
  0
LAYER
  5
AA
330
2
100
AcDbSymbolTableRecord
100
AcDbLayerTableRecord
  2
LAYER058
 70
     0
 62
     7
  6
CONTINUOUS
  0
LAYER
  5
AB
330
2
100
AcDbSymbolTableRecord
100
AcDbLayerTableRecord
  2
LAYER059
 70
     0
 62
     7
  6
CONTINUOUS
  0
LAYER
  5
AC
330
2
100
AcDbSymbolTableRecord
100
AcDbLayerTableRecord
  2
LAYER060
 70
     0
 62
     7
  6
CONTINUOUS
  0
LAYER
  5
AD
330
2
100
AcDbSymbolTableRecord
100
AcDbLayerTableRecord
  2
LAYER061
 70
     0
 62
     7
  6
CONTINUOUS
  0
LAYER
  5
AE
330
2
100
AcDbSymbolTableRecord
100
AcDbLayerTableRecord
  2
LAYER062
 70
     0
 62
     7
  6
CONTINUOUS
  0
LAYER
  5
AF
330
2
100
AcDbSymbolTableRecord
100
AcDbLayerTableRecord
  2
LAYER063
 70
     0
 62
     7
  6
CONTINUOUS
  0
LAYER
  5
B0
330
2
100
AcDbSymbolTableRecord
100
AcDbLayerTableRecord
  2
LAYER064
 70
     0
 62
     7
  6
CONTINUOUS
  0
LAYER
  5
ED
330
2
100
AcDbSymbolTableRecord
100
AcDbLayerTableRecord
  2
LAYER065
 70
     0
 62
     7
  6
CONTINUOUS
  0
ENDTAB
  0
TABLE
  2
STYLE
  5
3
330
0
100
AcDbSymbolTable
 70
     2
  0
STYLE
  5
11
330
3
100
AcDbSymbolTableRecord
100
AcDbTextStyleTableRecord
  2
STANDARD
 70
     0
 40
0.0
 41
1.0
 50
0.0
 71
     0
 42
2.5
  3
txt
  4

  0
STYLE
  5
B1
330
3
100
AcDbSymbolTableRecord
100
AcDbTextStyleTableRecord
  2
ED_VECTOR
 70
     0
 40
0.0
 41
1.0
 50
0.0
 71
     0
 42
2.5
  3
MONOTXT.SHX
  4
BIGFONT.SHX
  0
ENDTAB
  0
TABLE
  2
VIEW
  5
6
330
0
100
AcDbSymbolTable
 70
     0
  0
ENDTAB
  0
TABLE
  2
UCS
  5
7
330
0
100
AcDbSymbolTable
 70
     0
  0
ENDTAB
  0
TABLE
  2
APPID
  5
9
330
0
100
AcDbSymbolTable
 70
     2
  0
APPID
  5
12
330
9
100
AcDbSymbolTableRecord
100
AcDbRegAppTableRecord
  2
ACAD
 70
     0
  0
APPID
  5
82B
330
9
100
AcDbSymbolTableRecord
100
AcDbRegAppTableRecord
  2
ACAD_MLEADERVER
 70
     0
  0
ENDTAB
  0
TABLE
  2
DIMSTYLE
  5
A
330
0
100
AcDbSymbolTable
 70
     2
  0
DIMSTYLE
105
27
330
A
100
AcDbSymbolTableRecord
100
AcDbDimStyleTableRecord
  2
ISO-25
 70
     0
  3

  4

  5

  6

  7

 40
1.0
 41
2.5
 42
0.625
 43
3.75
 44
1.25
 45
0.0
 46
0.0
 47
0.0
 48
0.0
140
2.5
141
2.5
142
0.0
143
0.03937
144
1.0
145
0.0
146
1.0
147
0.625
 71
     0
 72
     0
 73
     0
 74
     0
 75
     0
 76
     0
 77
     1
 78
     8
170
     0
171
     3
172
     1
173
     0
174
     0
175
     0
176
     0
177
     0
178
     0
270
     2
271
     2
272
     2
273
     2
274
     3
340
11
275
     0
280
     0
281
     0
282
     0
283
     0
284
     8
285
     0
286
     0
287
     3
288
     0
  0
DIMSTYLE
105
EC
102
{ACAD_REACTORS
330
272
330
27C
330
288
330
292
330
29C
330
2A5
330
2BA
330
36C
330
376
330
380
330
38A
102
}
330
A
100
AcDbSymbolTableRecord
100
AcDbDimStyleTableRecord
  2
EDDIMINFO
 70
     0
  3

  4

  5

  6
EDTIP_ARROW_S
  7
EDTIP_ARROW_E
 40
1.0
 41
30.0
 42
10.0
 43
0.1
 44
10.0
 45
0.0
 46
40.0
 47
0.0
 48
0.0
140
30.0
141
2.5
142
0.0
143
0.03937
144
1.0
145
0.0
146
1.0
147
10.0
 71
     0
 72
     0
 73
     0
 74
     0
 75
     0
 76
     0
 77
     1
 78
     8
170
     0
171
     3
172
     1
173
     1
174
     0
175
     0
176
     5
177
     5
178
     4
270
     2
271
     0
272
     2
273
     2
274
     3
340
B1
275
     0
280
     0
281
     0
282
     0
283
     0
284
     8
285
     0
286
     0
287
     3
288
     0
  0
ENDTAB
  0
TABLE
  2
BLOCK_RECORD
  5
1
330
0
100
AcDbSymbolTable
 70
    37
  0
BLOCK_RECORD
  5
1F
330
1
100
AcDbSymbolTableRecord
100
AcDbBlockTableRecord
  2
*MODEL_SPACE
  0
BLOCK_RECORD
  5
1B
330
1
100
AcDbSymbolTableRecord
100
AcDbBlockTableRecord
  2
*PAPER_SPACE
  0
BLOCK_RECORD
  5
B2
330
1
100
AcDbSymbolTableRecord
100
AcDbBlockTableRecord
  2
EDTIP_ARROW_S
  0
BLOCK_RECORD
  5
B8
330
1
100
AcDbSymbolTableRecord
100
AcDbBlockTableRecord
  2
EDTIP_ARROW_E
  0
BLOCK_RECORD
  5
BE
330
1
100
AcDbSymbolTableRecord
100
AcDbBlockTableRecord
  2
EDTIP_BLACKDOT_S
  0
BLOCK_RECORD
  5
C4
330
1
100
AcDbSymbolTableRecord
100
AcDbBlockTableRecord
  2
EDTIP_BLACKDOT_E
  0
BLOCK_RECORD
  5
CA
330
1
100
AcDbSymbolTableRecord
100
AcDbBlockTableRecord
  2
EDTIP_ARCHITECT_S
  0
BLOCK_RECORD
  5
D0
330
1
100
AcDbSymbolTableRecord
100
AcDbBlockTableRecord
  2
EDTIP_ARCHITECT_E
  0
BLOCK_RECORD
  5
D6
330
1
100
AcDbSymbolTableRecord
100
AcDbBlockTableRecord
  2
EDTIP_CIVIL_S
  0
BLOCK_RECORD
  5
DC
330
1
100
AcDbSymbolTableRecord
100
AcDbBlockTableRecord
  2
EDTIP_CIVIL_E
  0
BLOCK_RECORD
  5
E2
330
1
100
AcDbSymbolTableRecord
100
AcDbBlockTableRecord
  2
EDTIP_WHITEDOT_S
  0
BLOCK_RECORD
  5
E7
330
1
100
AcDbSymbolTableRecord
100
AcDbBlockTableRecord
  2
EDTIP_WHITEDOT_E
  0
BLOCK_RECORD
  5
10B
330
1
100
AcDbSymbolTableRecord
100
AcDbBlockTableRecord
  2
BLKF014
  0
BLOCK_RECORD
  5
1E9
330
1
100
AcDbSymbolTableRecord
100
AcDbBlockTableRecord
  2
EDDIM015
  0
BLOCK_RECORD
  5
1EE
330
1
100
AcDbSymbolTableRecord
100
AcDbBlockTableRecord
  2
EDDIM016
  0
BLOCK_RECORD
  5
1F3
330
1
100
AcDbSymbolTableRecord
100
AcDbBlockTableRecord
  2
EDDIM017
  0
BLOCK_RECORD
  5
1F8
330
1
100
AcDbSymbolTableRecord
100
AcDbBlockTableRecord
  2
EDDIM018
  0
BLOCK_RECORD
  5
1FD
330
1
100
AcDbSymbolTableRecord
100
AcDbBlockTableRecord
  2
EDDIM019
  0
BLOCK_RECORD
  5
202
330
1
100
AcDbSymbolTableRecord
100
AcDbBlockTableRecord
  2
EDDIM020
  0
BLOCK_RECORD
  5
207
330
1
100
AcDbSymbolTableRecord
100
AcDbBlockTableRecord
  2
EDDIM021
  0
BLOCK_RECORD
  5
20C
330
1
100
AcDbSymbolTableRecord
100
AcDbBlockTableRecord
  2
EDDIM022
  0
BLOCK_RECORD
  5
211
330
1
100
AcDbSymbolTableRecord
100
AcDbBlockTableRecord
  2
EDDIM023
  0
BLOCK_RECORD
  5
216
330
1
100
AcDbSymbolTableRecord
100
AcDbBlockTableRecord
  2
EDDIM024
  0
BLOCK_RECORD
  5
21B
330
1
100
AcDbSymbolTableRecord
100
AcDbBlockTableRecord
  2
EDDIM025
  0
BLOCK_RECORD
  5
220
330
1
100
AcDbSymbolTableRecord
100
AcDbBlockTableRecord
  2
EDDIM026
  0
BLOCK_RECORD
  5
225
330
1
100
AcDbSymbolTableRecord
100
AcDbBlockTableRecord
  2
EDDIM027
  0
BLOCK_RECORD
  5
273
330
1
100
AcDbSymbolTableRecord
100
AcDbBlockTableRecord
  2
*D25
  0
BLOCK_RECORD
  5
27D
330
1
100
AcDbSymbolTableRecord
100
AcDbBlockTableRecord
  2
*D26
  0
BLOCK_RECORD
  5
289
330
1
100
AcDbSymbolTableRecord
100
AcDbBlockTableRecord
  2
*D27
  0
BLOCK_RECORD
  5
293
330
1
100
AcDbSymbolTableRecord
100
AcDbBlockTableRecord
  2
*D28
  0
BLOCK_RECORD
  5
29D
330
1
100
AcDbSymbolTableRecord
100
AcDbBlockTableRecord
  2
*D29
  0
BLOCK_RECORD
  5
2A6
330
1
100
AcDbSymbolTableRecord
100
AcDbBlockTableRecord
  2
*D30
  0
BLOCK_RECORD
  5
2BB
330
1
100
AcDbSymbolTableRecord
100
AcDbBlockTableRecord
  2
*D31
  0
BLOCK_RECORD
  5
2C4
330
1
100
AcDbSymbolTableRecord
100
AcDbBlockTableRecord
  2
BLKF035
  0
BLOCK_RECORD
  5
366
330
1
100
AcDbSymbolTableRecord
100
AcDbBlockTableRecord
  2
EDDIM036
  0
BLOCK_RECORD
  5
36D
330
1
100
AcDbSymbolTableRecord
100
AcDbBlockTableRecord
  2
*D34
  0
BLOCK_RECORD
  5
377
330
1
100
AcDbSymbolTableRecord
100
AcDbBlockTableRecord
  2
*D35
  0
BLOCK_RECORD
  5
381
330
1
100
AcDbSymbolTableRecord
100
AcDbBlockTableRecord
  2
*D36
  0
BLOCK_RECORD
  5
38B
330
1
100
AcDbSymbolTableRecord
100
AcDbBlockTableRecord
  2
*D37
  0
ENDTAB
  0
ENDSEC
  0
SECTION
  2
BLOCKS
  0
BLOCK
  5
20
330
1F
100
AcDbEntity
  8
0
100
AcDbBlockBegin
  2
*MODEL_SPACE
 70
     0
 10
0.0
 20
0.0
 30
0.0
  3
*MODEL_SPACE
  1

  0
ENDBLK
  5
21
330
1F
100
AcDbEntity
  8
0
100
AcDbBlockEnd
  0
BLOCK
  5
1C
330
1B
100
AcDbEntity
 67
     1
  8
0
100
AcDbBlockBegin
  2
*PAPER_SPACE
 70
     0
 10
0.0
 20
0.0
 30
0.0
  3
*PAPER_SPACE
  1

  0
ENDBLK
  5
1D
330
1B
100
AcDbEntity
 67
     1
  8
0
100
AcDbBlockEnd
  0
BLOCK
  5
B3
330
B2
100
AcDbEntity
  8
0
100
AcDbBlockBegin
  2
EDTIP_ARROW_S
 70
     0
 10
0.0
 20
0.0
 30
0.0
  3
EDTIP_ARROW_S
  1

  0
LINE
  5
B5
330
B2
100
AcDbEntity
  8
0
  6
CONTINUOUS
 62
     0
100
AcDbLine
 10
0.0
 20
0.0
 30
0.0
 11
-1.0
 21
0.0
 31
0.0
  0
LINE
  5
B6
330
B2
100
AcDbEntity
  8
0
  6
CONTINUOUS
 62
     0
100
AcDbLine
 10
0.0
 20
0.0
 30
0.0
 11
-0.965926
 21
0.258819
 31
0.0
  0
LINE
  5
B7
330
B2
100
AcDbEntity
  8
0
  6
CONTINUOUS
 62
     0
100
AcDbLine
 10
0.0
 20
0.0
 30
0.0
 11
-0.965926
 21
-0.258819
 31
0.0
  0
ENDBLK
  5
B4
330
B2
100
AcDbEntity
  8
0
100
AcDbBlockEnd
  0
BLOCK
  5
B9
330
B8
100
AcDbEntity
  8
0
100
AcDbBlockBegin
  2
EDTIP_ARROW_E
 70
     0
 10
0.0
 20
0.0
 30
0.0
  3
EDTIP_ARROW_E
  1

  0
LINE
  5
BB
330
B8
100
AcDbEntity
  8
0
  6
CONTINUOUS
 62
     0
100
AcDbLine
 10
0.0
 20
0.0
 30
0.0
 11
-1.0
 21
0.0
 31
0.0
  0
LINE
  5
BC
330
B8
100
AcDbEntity
  8
0
  6
CONTINUOUS
 62
     0
100
AcDbLine
 10
0.0
 20
0.0
 30
0.0
 11
-0.965926
 21
-0.258819
 31
0.0
  0
LINE
  5
BD
330
B8
100
AcDbEntity
  8
0
  6
CONTINUOUS
 62
     0
100
AcDbLine
 10
0.0
 20
0.0
 30
0.0
 11
-0.965926
 21
0.258819
 31
0.0
  0
ENDBLK
  5
BA
330
B8
100
AcDbEntity
  8
0
100
AcDbBlockEnd
  0
BLOCK
  5
BF
330
BE
100
AcDbEntity
  8
0
100
AcDbBlockBegin
  2
EDTIP_BLACKDOT_S
 70
     0
 10
0.0
 20
0.0
 30
0.0
  3
EDTIP_BLACKDOT_S
  1

  0
LINE
  5
C1
330
BE
100
AcDbEntity
  8
0
  6
CONTINUOUS
 62
     0
100
AcDbLine
 10
0.0
 20
0.0
 30
0.0
 11
-1.0
 21
0.0
 31
0.0
  0
CIRCLE
  5
C2
330
BE
100
AcDbEntity
  8
0
  6
CONTINUOUS
 62
     0
100
AcDbCircle
 10
0.0
 20
0.0
 30
0.0
 40
0.5
  0
CIRCLE
  5
C3
330
BE
100
AcDbEntity
  8
0
  6
CONTINUOUS
 62
     0
100
AcDbCircle
 10
0.0
 20
0.0
 30
0.0
 40
0.25
  0
ENDBLK
  5
C0
330
BE
100
AcDbEntity
  8
0
100
AcDbBlockEnd
  0
BLOCK
  5
C5
330
C4
100
AcDbEntity
  8
0
100
AcDbBlockBegin
  2
EDTIP_BLACKDOT_E
 70
     0
 10
0.0
 20
0.0
 30
0.0
  3
EDTIP_BLACKDOT_E
  1

  0
LINE
  5
C7
330
C4
100
AcDbEntity
  8
0
  6
CONTINUOUS
 62
     0
100
AcDbLine
 10
0.0
 20
0.0
 30
0.0
 11
-1.0
 21
0.0
 31
0.0
  0
CIRCLE
  5
C8
330
C4
100
AcDbEntity
  8
0
  6
CONTINUOUS
 62
     0
100
AcDbCircle
 10
0.0
 20
0.0
 30
0.0
 40
0.5
  0
CIRCLE
  5
C9
330
C4
100
AcDbEntity
  8
0
  6
CONTINUOUS
 62
     0
100
AcDbCircle
 10
0.0
 20
0.0
 30
0.0
 40
0.25
  0
ENDBLK
  5
C6
330
C4
100
AcDbEntity
  8
0
100
AcDbBlockEnd
  0
BLOCK
  5
CB
330
CA
100
AcDbEntity
  8
0
100
AcDbBlockBegin
  2
EDTIP_ARCHITECT_S
 70
     0
 10
0.0
 20
0.0
 30
0.0
  3
EDTIP_ARCHITECT_S
  1

  0
LINE
  5
CD
330
CA
100
AcDbEntity
  8
0
  6
CONTINUOUS
 62
     0
100
AcDbLine
 10
0.0
 20
0.0
 30
0.0
 11
-1.0
 21
0.0
 31
0.0
  0
LINE
  5
CE
330
CA
100
AcDbEntity
  8
0
  6
CONTINUOUS
 62
     0
100
AcDbLine
 10
0.0
 20
0.0
 30
0.0
 11
-0.707107
 21
-0.707107
 31
0.0
  0
LINE
  5
CF
330
CA
100
AcDbEntity
  8
0
  6
CONTINUOUS
 62
     0
100
AcDbLine
 10
0.0
 20
0.0
 30
0.0
 11
0.707107
 21
0.707107
 31
0.0
  0
ENDBLK
  5
CC
330
CA
100
AcDbEntity
  8
0
100
AcDbBlockEnd
  0
BLOCK
  5
D1
330
D0
100
AcDbEntity
  8
0
100
AcDbBlockBegin
  2
EDTIP_ARCHITECT_E
 70
     0
 10
0.0
 20
0.0
 30
0.0
  3
EDTIP_ARCHITECT_E
  1

  0
LINE
  5
D3
330
D0
100
AcDbEntity
  8
0
  6
CONTINUOUS
 62
     0
100
AcDbLine
 10
0.0
 20
0.0
 30
0.0
 11
-1.0
 21
0.0
 31
0.0
  0
LINE
  5
D4
330
D0
100
AcDbEntity
  8
0
  6
CONTINUOUS
 62
     0
100
AcDbLine
 10
0.0
 20
0.0
 30
0.0
 11
-0.707107
 21
-0.707107
 31
0.0
  0
LINE
  5
D5
330
D0
100
AcDbEntity
  8
0
  6
CONTINUOUS
 62
     0
100
AcDbLine
 10
0.0
 20
0.0
 30
0.0
 11
0.707107
 21
0.707107
 31
0.0
  0
ENDBLK
  5
D2
330
D0
100
AcDbEntity
  8
0
100
AcDbBlockEnd
  0
BLOCK
  5
D7
330
D6
100
AcDbEntity
  8
0
100
AcDbBlockBegin
  2
EDTIP_CIVIL_S
 70
     0
 10
0.0
 20
0.0
 30
0.0
  3
EDTIP_CIVIL_S
  1

  0
LINE
  5
D9
330
D6
100
AcDbEntity
  8
0
  6
CONTINUOUS
 62
     0
100
AcDbLine
 10
0.0
 20
0.0
 30
0.0
 11
-1.0
 21
0.0
 31
0.0
  0
LINE
  5
DA
330
D6
100
AcDbEntity
  8
0
  6
CONTINUOUS
 62
     0
100
AcDbLine
 10
0.0
 20
-0.008333
 30
0.0
 11
-1.0
 21
-0.008333
 31
0.0
  0
LINE
  5
DB
330
D6
100
AcDbEntity
  8
0
  6
CONTINUOUS
 62
     0
100
AcDbLine
 10
0.0
 20
-0.016667
 30
0.0
 11
-1.0
 21
-0.016667
 31
0.0
  0
ENDBLK
  5
D8
330
D6
100
AcDbEntity
  8
0
100
AcDbBlockEnd
  0
BLOCK
  5
DD
330
DC
100
AcDbEntity
  8
0
100
AcDbBlockBegin
  2
EDTIP_CIVIL_E
 70
     0
 10
0.0
 20
0.0
 30
0.0
  3
EDTIP_CIVIL_E
  1

  0
LINE
  5
DF
330
DC
100
AcDbEntity
  8
0
  6
CONTINUOUS
 62
     0
100
AcDbLine
 10
0.0
 20
0.0
 30
0.0
 11
-1.0
 21
0.0
 31
0.0
  0
LINE
  5
E0
330
DC
100
AcDbEntity
  8
0
  6
CONTINUOUS
 62
     0
100
AcDbLine
 10
0.0
 20
0.008333
 30
0.0
 11
-1.0
 21
0.008333
 31
0.0
  0
LINE
  5
E1
330
DC
100
AcDbEntity
  8
0
  6
CONTINUOUS
 62
     0
100
AcDbLine
 10
0.0
 20
0.016667
 30
0.0
 11
-1.0
 21
0.016667
 31
0.0
  0
ENDBLK
  5
DE
330
DC
100
AcDbEntity
  8
0
100
AcDbBlockEnd
  0
BLOCK
  5
E3
330
E2
100
AcDbEntity
  8
0
100
AcDbBlockBegin
  2
EDTIP_WHITEDOT_S
 70
     0
 10
0.0
 20
0.0
 30
0.0
  3
EDTIP_WHITEDOT_S
  1

  0
LINE
  5
E5
330
E2
100
AcDbEntity
  8
0
  6
CONTINUOUS
 62
     0
100
AcDbLine
 10
0.0
 20
0.0
 30
0.0
 11
-1.0
 21
0.0
 31
0.0
  0
CIRCLE
  5
E6
330
E2
100
AcDbEntity
  8
0
  6
CONTINUOUS
 62
     0
100
AcDbCircle
 10
0.0
 20
0.0
 30
0.0
 40
0.5
  0
ENDBLK
  5
E4
330
E2
100
AcDbEntity
  8
0
100
AcDbBlockEnd
  0
BLOCK
  5
E8
330
E7
100
AcDbEntity
  8
0
100
AcDbBlockBegin
  2
EDTIP_WHITEDOT_E
 70
     0
 10
0.0
 20
0.0
 30
0.0
  3
EDTIP_WHITEDOT_E
  1

  0
LINE
  5
EA
330
E7
100
AcDbEntity
  8
0
  6
CONTINUOUS
 62
     0
100
AcDbLine
 10
0.0
 20
0.0
 30
0.0
 11
-1.0
 21
0.0
 31
0.0
  0
CIRCLE
  5
EB
330
E7
100
AcDbEntity
  8
0
  6
CONTINUOUS
 62
     0
100
AcDbCircle
 10
0.0
 20
0.0
 30
0.0
 40
0.5
  0
ENDBLK
  5
E9
330
E7
100
AcDbEntity
  8
0
100
AcDbBlockEnd
  0
BLOCK
  5
10C
330
10B
100
AcDbEntity
  8
0
100
AcDbBlockBegin
  2
BLKF014
 70
     0
 10
0.0
 20
0.0
 30
0.0
  3
BLKF014
  1

  0
ARC
  5
10F
330
10B
100
AcDbEntity
  8
0
  6
CONTINUOUS
 62
     5
100
AcDbCircle
 10
2830.108592
 20
148.870953
 30
0.0
 40
3.549224681232935
100
AcDbArc
 50
6.429109
 51
73.182034
  0
ARC
  5
110
330
10B
100
AcDbEntity
  8
0
  6
CONTINUOUS
 62
     5
100
AcDbCircle
 10
2826.647621
 20
147.71256
 30
0.0
 40
6.90775391640079
100
AcDbArc
 50
310.51797
 51
330.092764
  0
ARC
  5
111
330
10B
100
AcDbEntity
  8
0
  6
CONTINUOUS
 62
     5
100
AcDbCircle
 10
2826.586972
 20
148.078078
 30
0.0
 40
7.148321241986046
100
AcDbArc
 50
327.794941
 51
9.585194
  0
ARC
  5
112
330
10B
100
AcDbEntity
  8
0
  6
CONTINUOUS
 62
     5
100
AcDbCircle
 10
2829.8797
 20
145.31708
 30
0.0
 40
4.767514462094933
100
AcDbArc
 50
180.0
 51
218.51415
  0
ARC
  5
113
330
10B
100
AcDbEntity
  8
0
  6
CONTINUOUS
 62
     5
100
AcDbCircle
 10
2828.592979
 20
144.639939
 30
0.0
 40
3.348282029286163
100
AcDbArc
 50
222.781148
 51
319.406906
  0
ARC
  5
114
330
10B
100
AcDbEntity
  8
0
  6
CONTINUOUS
 62
     5
100
AcDbCircle
 10
2831.658621
 20
145.729832
 30
0.0
 40
6.559434466070106
100
AcDbArc
 50
94.574282
 51
183.607718
  0
LINE
  5
115
330
10B
100
AcDbEntity
  8
0
  6
CONTINUOUS
 62
     5
100
AcDbLine
 10
2845.102527
 20
140.613
 30
0.0
 11
2844.245491
 21
137.574417
 31
0.0
  0
LINE
  5
116
330
10B
100
AcDbEntity
  8
0
  6
CONTINUOUS
 62
     5
100
AcDbLine
 10
2846.894512
 20
160.480657
 30
0.0
 11
2844.790878
 21
163.207591
 31
0.0
  0
LINE
  5
117
330
10B
100
AcDbEntity
  8
0
  6
CONTINUOUS
 62
     5
100
AcDbLine
 10
2844.790878
 20
163.207591
 30
0.0
 11
2838.037523
 21
166.965503
 31
0.0
  0
LINE
  5
118
330
10B
100
AcDbEntity
  8
0
  6
CONTINUOUS
 62
     5
100
AcDbLine
 10
2838.037523
 20
166.965503
 30
0.0
 11
2831.135496
 21
167.768373
 31
0.0
  0
LINE
  5
119
330
10B
100
AcDbEntity
  8
0
  6
CONTINUOUS
 62
     5
100
AcDbLine
 10
2812.846271
 20
154.3897
 30
0.0
 11
2814.992965
 21
159.35393
 31
0.0
  0
LINE
  5
11A
330
10B
100
AcDbEntity
  8
0
  6
CONTINUOUS
 62
     5
100
AcDbLine
 10
2814.955967
 20
159.268373
 30
0.0
 11
2817.139659
 21
161.90313
 31
0.0
  0
LINE
  5
11B
330
10B
100
AcDbEntity
  8
0
  6
CONTINUOUS
 62
     5
100
AcDbLine
 10
2817.139659
 20
161.90313
 30
0.0
 11
2820.444082
 21
164.268373
 31
0.0
  0
LINE
  5
11C
330
10B
100
AcDbEntity
  8
0
  6
CONTINUOUS
 62
     5
100
AcDbLine
 10
2831.135496
 20
167.768373
 30
0.0
 11
2829.61732
 21
167.001529
 31
0.0
  0
LINE
  5
11D
330
10B
100
AcDbEntity
  8
0
  6
CONTINUOUS
 62
     5
100
AcDbLine
 10
2829.61732
 20
167.001529
 30
0.0
 11
2826.128942
 21
167.001529
 31
0.0
  0
LINE
  5
11E
330
10B
100
AcDbEntity
  8
0
  6
CONTINUOUS
 62
     5
100
AcDbLine
 10
2826.128942
 20
167.001529
 30
0.0
 11
2822.573479
 21
165.056087
 31
0.0
  0
LINE
  5
11F
330
10B
100
AcDbEntity
  8
0
  6
CONTINUOUS
 62
     5
100
AcDbLine
 10
2822.573479
 20
165.056087
 30
0.0
 11
2820.444082
 21
164.268373
 31
0.0
  0
LINE
  5
120
330
10B
100
AcDbEntity
  8
0
  6
CONTINUOUS
 62
     5
100
AcDbLine
 10
2812.846271
 20
154.3897
 30
0.0
 11
2811.328724
 21
146.841097
 31
0.0
  0
LINE
  5
121
330
10B
100
AcDbEntity
  8
0
  6
CONTINUOUS
 62
     5
100
AcDbLine
 10
2811.328724
 20
146.841097
 30
0.0
 11
2811.135496
 21
144.268373
 31
0.0
  0
LINE
  5
122
330
10B
100
AcDbEntity
  8
0
  6
CONTINUOUS
 62
     5
100
AcDbLine
 10
2813.844879
 20
136.428591
 30
0.0
 11
2811.135496
 21
142.524702
 31
0.0
  0
LINE
  5
123
330
10B
100
AcDbEntity
  8
0
  6
CONTINUOUS
 62
     5
100
AcDbLine
 10
2811.135496
 20
142.524702
 30
0.0
 11
2811.135496
 21
144.268373
 31
0.0
  0
LINE
  5
124
330
10B
100
AcDbEntity
  8
0
  6
CONTINUOUS
 62
     5
100
AcDbLine
 10
2844.245491
 20
137.574417
 30
0.0
 11
2842.559704
 21
134.571411
 31
0.0
  0
LINE
  5
125
330
10B
100
AcDbEntity
  8
0
  6
CONTINUOUS
 62
     5
100
AcDbLine
 10
2842.559704
 20
134.571411
 30
0.0
 11
2841.135496
 21
133.2527
 31
0.0
  0
ARC
  5
126
330
10B
100
AcDbEntity
  8
0
  6
CONTINUOUS
 62
     5
100
AcDbCircle
 10
2828.943551
 20
144.805134
 30
0.0
 40
17.2666264049271
100
AcDbArc
 50
208.054813
 51
260.64047
  0
ARC
  5
127
330
10B
100
AcDbEntity
  8
0
  6
CONTINUOUS
 62
     5
100
AcDbCircle
 10
2823.750156
 20
157.547603
 30
0.0
 40
29.87461092848634
100
AcDbArc
 50
274.579659
 51
305.587364
  0
ARC
  5
128
330
10B
100
AcDbEntity
  8
0
  6
CONTINUOUS
 62
     5
100
AcDbCircle
 10
2834.722505
 20
151.563881
 30
0.0
 40
15.08862654287332
100
AcDbArc
 50
313.467013
 51
331.085078
  0
LINE
  5
129
330
10B
100
AcDbEntity
  8
0
  6
CONTINUOUS
 62
     5
100
AcDbLine
 10
2849.513837
 20
147.781794
 30
0.0
 11
2849.811132
 21
151.563881
 31
0.0
  0
LINE
  5
12A
330
10B
100
AcDbEntity
  8
0
  6
CONTINUOUS
 62
     5
100
AcDbLine
 10
2849.811132
 20
151.563881
 30
0.0
 11
2848.519134
 21
157.672864
 31
0.0
  0
LINE
  5
12B
330
10B
100
AcDbEntity
  8
0
  6
CONTINUOUS
 62
     5
100
AcDbLine
 10
2849.513837
 20
147.781794
 30
0.0
 11
2847.930163
 21
144.268373
 31
0.0
  0
ARC
  5
12C
330
10B
100
AcDbEntity
  8
0
  6
CONTINUOUS
 62
     5
100
AcDbCircle
 10
2834.722505
 20
151.563881
 30
0.0
 40
15.08862654287332
100
AcDbArc
 50
23.883193
 51
36.22517
  0
LINE
  5
12D
330
10B
100
AcDbEntity
  8
0
  6
CONTINUOUS
 62
     5
100
AcDbLine
 10
2795.135496
 20
179.268373
 30
0.0
 11
2796.135496
 21
180.361018
 31
0.0
  0
LINE
  5
12E
330
10B
100
AcDbEntity
  8
0
  6
CONTINUOUS
 62
     5
100
AcDbLine
 10
2795.135496
 20
179.268373
 30
0.0
 11
2796.712454
 21
177.82334
 31
0.0
  0
LINE
  5
12F
330
10B
100
AcDbEntity
  8
0
  6
CONTINUOUS
 62
     5
100
AcDbLine
 10
2798.251667
 20
175.714049
 30
0.0
 11
2798.277935
 21
173.54593
 31
0.0
  0
LINE
  5
130
330
10B
100
AcDbEntity
  8
0
  6
CONTINUOUS
 62
     5
100
AcDbLine
 10
2798.277935
 20
173.54593
 30
0.0
 11
2798.485333
 21
172.78547
 31
0.0
  0
LINE
  5
131
330
10B
100
AcDbEntity
  8
0
  6
CONTINUOUS
 62
     5
100
AcDbLine
 10
2798.485333
 20
172.78547
 30
0.0
 11
2799.07296
 21
172.059577
 31
0.0
  0
LINE
  5
132
330
10B
100
AcDbEntity
  8
0
  6
CONTINUOUS
 62
     5
100
AcDbLine
 10
2799.07296
 20
172.059577
 30
0.0
 11
2799.660588
 21
172.12871
 31
0.0
  0
LINE
  5
133
330
10B
100
AcDbEntity
  8
0
  6
CONTINUOUS
 62
     5
100
AcDbLine
 10
2799.660588
 20
172.12871
 30
0.0
 11
2800.282782
 21
172.301542
 31
0.0
  0
LINE
  5
134
330
10B
100
AcDbEntity
  8
0
  6
CONTINUOUS
 62
     5
100
AcDbLine
 10
2800.282782
 20
172.301542
 30
0.0
 11
2800.697578
 21
172.12871
 31
0.0
  0
LINE
  5
135
330
10B
100
AcDbEntity
  8
0
  6
CONTINUOUS
 62
     5
100
AcDbLine
 10
2800.697578
 20
172.12871
 30
0.0
 11
2801.596303
 21
171.679348
 31
0.0
  0
LINE
  5
136
330
10B
100
AcDbEntity
  8
0
  6
CONTINUOUS
 62
     5
100
AcDbLine
 10
2801.596303
 20
171.679348
 30
0.0
 11
2802.372354
 21
171.268373
 31
0.0
  0
LINE
  5
137
330
10B
100
AcDbEntity
  8
0
  6
CONTINUOUS
 62
     5
100
AcDbLine
 10
2802.372354
 20
171.268373
 30
0.0
 11
2802.875257
 21
171.299118
 31
0.0
  0
LINE
  5
138
330
10B
100
AcDbEntity
  8
0
  6
CONTINUOUS
 62
     5
100
AcDbLine
 10
2802.875257
 20
171.299118
 30
0.0
 11
2805.683129
 21
172.745598
 31
0.0
  0
LINE
  5
139
330
10B
100
AcDbEntity
  8
0
  6
CONTINUOUS
 62
     5
100
AcDbLine
 10
2796.135496
 20
180.361018
 30
0.0
 11
2796.468348
 21
181.834725
 31
0.0
  0
LINE
  5
13A
330
10B
100
AcDbEntity
  8
0
  6
CONTINUOUS
 62
     5
100
AcDbLine
 10
2796.468348
 20
181.834725
 30
0.0
 11
2797.921753
 21
181.985077
 31
0.0
  0
LINE
  5
13B
330
10B
100
AcDbEntity
  8
0
  6
CONTINUOUS
 62
     5
100
AcDbLine
 10
2799.415512
 20
184.753536
 30
0.0
 11
2801.169684
 21
184.910626
 31
0.0
  0
LINE
  5
13C
330
10B
100
AcDbEntity
  8
0
  6
CONTINUOUS
 62
     5
100
AcDbLine
 10
2801.169684
 20
184.910626
 30
0.0
 11
2804.704212
 21
185.74844
 31
0.0
  0
LINE
  5
13D
330
10B
100
AcDbEntity
  8
0
  6
CONTINUOUS
 62
     5
100
AcDbLine
 10
2804.704212
 20
185.74844
 30
0.0
 11
2806.135496
 21
186.080079
 31
0.0
  0
LINE
  5
13E
330
10B
100
AcDbEntity
  8
0
  6
CONTINUOUS
 62
     5
100
AcDbLine
 10
2799.415512
 20
184.753536
 30
0.0
 11
2797.48262
 21
184.912404
 31
0.0
  0
LINE
  5
13F
330
10B
100
AcDbEntity
  8
0
  6
CONTINUOUS
 62
     5
100
AcDbLine
 10
2796.746497
 20
184.043717
 30
0.0
 11
2796.840023
 21
183.672555
 31
0.0
  0
LINE
  5
140
330
10B
100
AcDbEntity
  8
0
  6
CONTINUOUS
 62
     5
100
AcDbLine
 10
2796.840023
 20
183.672555
 30
0.0
 11
2797.331617
 21
183.134874
 31
0.0
  0
LINE
  5
141
330
10B
100
AcDbEntity
  8
0
  6
CONTINUOUS
 62
     5
100
AcDbLine
 10
2797.331617
 20
183.134874
 30
0.0
 11
2798.007558
 21
182.627918
 31
0.0
  0
LINE
  5
142
330
10B
100
AcDbEntity
  8
0
  6
CONTINUOUS
 62
     5
100
AcDbLine
 10
2798.007558
 20
182.627918
 30
0.0
 11
2798.130883
 21
182.463485
 31
0.0
  0
LINE
  5
143
330
10B
100
AcDbEntity
  8
0
  6
CONTINUOUS
 62
     5
100
AcDbLine
 10
2796.712454
 20
177.82334
 30
0.0
 11
2798.251667
 21
175.714049
 31
0.0
  0
ARC
  5
144
330
10B
100
AcDbEntity
  8
0
  6
CONTINUOUS
 62
     5
100
AcDbCircle
 10
2841.122197
 20
7.609721
 30
0.0
 40
180.7274633591883
100
AcDbArc
 50
80.438896
 51
96.353582
  0
ARC
  5
145
330
10B
100
AcDbEntity
  8
0
  6
CONTINUOUS
 62
     5
100
AcDbCircle
 10
2816.223283
 20
152.857621
 30
0.0
 40
34.72024168784506
100
AcDbArc
 50
81.866516
 51
106.890578
  0
LINE
  5
146
330
10B
100
AcDbEntity
  8
0
  6
CONTINUOUS
 62
     5
100
AcDbLine
 10
2875.329757
 20
185.035044
 30
0.0
 11
2877.57684
 21
184.013642
 31
0.0
  0
LINE
  5
147
330
10B
100
AcDbEntity
  8
0
  6
CONTINUOUS
 62
     5
100
AcDbLine
 10
2881.151744
 20
182.430471
 30
0.0
 11
2877.57684
 21
184.013642
 31
0.0
  0
LINE
  5
148
330
10B
100
AcDbEntity
  8
0
  6
CONTINUOUS
 62
     5
100
AcDbLine
 10
2875.329757
 20
185.035044
 30
0.0
 11
2871.135496
 21
185.827615
 31
0.0
  0
LINE
  5
149
330
10B
100
AcDbEntity
  8
0
  6
CONTINUOUS
 62
     5
100
AcDbLine
 10
2881.135496
 20
182.437666
 30
0.0
 11
2883.007071
 21
180.869189
 31
0.0
  0
LINE
  5
14A
330
10B
100
AcDbEntity
  8
0
  6
CONTINUOUS
 62
     5
100
AcDbLine
 10
2864.378752
 20
183.474517
 30
0.0
 11
2865.278027
 21
184.927192
 31
0.0
  0
LINE
  5
14B
330
10B
100
AcDbEntity
  8
0
  6
CONTINUOUS
 62
     5
100
AcDbLine
 10
2865.278027
 20
184.927192
 30
0.0
 11
2869.953625
 21
183.807682
 31
0.0
  0
LINE
  5
14C
330
10B
100
AcDbEntity
  8
0
  6
CONTINUOUS
 62
     5
100
AcDbLine
 10
2869.953625
 20
183.807682
 30
0.0
 11
2886.696011
 21
179.268373
 31
0.0
  0
LINE
  5
14D
330
10B
100
AcDbEntity
  8
0
  6
CONTINUOUS
 62
     5
100
AcDbLine
 10
2889.635496
 20
179.268373
 30
0.0
 11
2883.007071
 21
180.869189
 31
0.0
  0
LINE
  5
14E
330
10B
100
AcDbEntity
  8
0
  6
CONTINUOUS
 62
     5
100
AcDbLine
 10
2886.696011
 20
179.268373
 30
0.0
 11
2889.635496
 21
179.268373
 31
0.0
  0
LINE
  5
14F
330
10B
100
AcDbEntity
  8
0
  6
CONTINUOUS
 62
     5
100
AcDbLine
 10
2831.135496
 20
183.733315
 30
0.0
 11
2851.135496
 21
184.268373
 31
0.0
  0
LINE
  5
150
330
10B
100
AcDbEntity
  8
0
  6
CONTINUOUS
 62
     5
100
AcDbLine
 10
2851.135496
 20
184.268373
 30
0.0
 11
2864.378752
 21
183.474517
 31
0.0
  0
LINE
  5
151
330
10B
100
AcDbEntity
  8
0
  6
CONTINUOUS
 62
     5
100
AcDbLine
 10
2865.981733
 20
181.414037
 30
0.0
 11
2851.135496
 21
182.768373
 31
0.0
  0
LINE
  5
152
330
10B
100
AcDbEntity
  8
0
  6
CONTINUOUS
 62
     5
100
AcDbLine
 10
2851.135496
 20
182.768373
 30
0.0
 11
2836.086286
 21
183.177025
 31
0.0
  0
LINE
  5
153
330
10B
100
AcDbEntity
  8
0
  6
CONTINUOUS
 62
     5
100
AcDbLine
 10
2836.135496
 20
183.175689
 30
0.0
 11
2831.135496
 21
183.270983
 31
0.0
  0
LINE
  5
154
330
10B
100
AcDbEntity
  8
0
  6
CONTINUOUS
 62
     5
100
AcDbLine
 10
2831.135496
 20
183.733315
 30
0.0
 11
2831.135496
 21
183.270983
 31
0.0
  0
LINE
  5
155
330
10B
100
AcDbEntity
  8
0
  6
CONTINUOUS
 62
     5
100
AcDbLine
 10
2888.635496
 20
175.768373
 30
0.0
 11
2879.792937
 21
178.079036
 31
0.0
  0
LINE
  5
156
330
10B
100
AcDbEntity
  8
0
  6
CONTINUOUS
 62
     5
100
AcDbLine
 10
2865.981733
 20
181.414037
 30
0.0
 11
2876.135496
 21
179.441654
 31
0.0
  0
LINE
  5
157
330
10B
100
AcDbEntity
  8
0
  6
CONTINUOUS
 62
     5
100
AcDbLine
 10
2876.135496
 20
179.441654
 30
0.0
 11
2879.792937
 21
178.079036
 31
0.0
  0
LINE
  5
158
330
10B
100
AcDbEntity
  8
0
  6
CONTINUOUS
 62
     5
100
AcDbLine
 10
2888.635496
 20
175.768373
 30
0.0
 11
2888.342879
 21
174.929268
 31
0.0
  0
LINE
  5
159
330
10B
100
AcDbEntity
  8
0
  6
CONTINUOUS
 62
     5
100
AcDbLine
 10
2898.135496
 20
170.268373
 30
0.0
 11
2897.829469
 21
171.497354
 31
0.0
  0
LINE
  5
15A
330
10B
100
AcDbEntity
  8
0
  6
CONTINUOUS
 62
     5
100
AcDbLine
 10
2888.342879
 20
174.929268
 30
0.0
 11
2897.829469
 21
171.497354
 31
0.0
  0
LINE
  5
15B
330
10B
100
AcDbEntity
  8
0
  6
CONTINUOUS
 62
     5
100
AcDbLine
 10
2834.635496
 20
175.768373
 30
0.0
 11
2837.058534
 21
175.768373
 31
0.0
  0
LINE
  5
15C
330
10B
100
AcDbEntity
  8
0
  6
CONTINUOUS
 62
     5
100
AcDbLine
 10
2857.135496
 20
176.200869
 30
0.0
 11
2857.135496
 21
175.768373
 31
0.0
  0
LINE
  5
15D
330
10B
100
AcDbEntity
  8
0
  6
CONTINUOUS
 62
     5
100
AcDbLine
 10
2856.135496
 20
176.73531
 30
0.0
 11
2854.424217
 21
177.372488
 31
0.0
  0
LINE
  5
15E
330
10B
100
AcDbEntity
  8
0
  6
CONTINUOUS
 62
     5
100
AcDbLine
 10
2854.424217
 20
177.372488
 30
0.0
 11
2853.314161
 21
177.422945
 31
0.0
  0
LINE
  5
15F
330
10B
100
AcDbEntity
  8
0
  6
CONTINUOUS
 62
     5
100
AcDbLine
 10
2853.314161
 20
177.422945
 30
0.0
 11
2852.834818
 21
177.17066
 31
0.0
  0
LINE
  5
160
330
10B
100
AcDbEntity
  8
0
  6
CONTINUOUS
 62
     5
100
AcDbLine
 10
2852.834818
 20
177.17066
 30
0.0
 11
2852.733904
 21
176.767003
 31
0.0
  0
LINE
  5
161
330
10B
100
AcDbEntity
  8
0
  6
CONTINUOUS
 62
     5
100
AcDbLine
 10
2852.733904
 20
176.767003
 30
0.0
 11
2853.188018
 21
176.464261
 31
0.0
  0
LINE
  5
162
330
10B
100
AcDbEntity
  8
0
  6
CONTINUOUS
 62
     5
100
AcDbLine
 10
2853.188018
 20
176.464261
 30
0.0
 11
2854.827873
 21
176.312889
 31
0.0
  0
LINE
  5
163
330
10B
100
AcDbEntity
  8
0
  6
CONTINUOUS
 62
     5
100
AcDbLine
 10
2854.827873
 20
176.312889
 30
0.0
 11
2857.135496
 21
176.200869
 31
0.0
  0
LINE
  5
164
330
10B
100
AcDbEntity
  8
0
  6
CONTINUOUS
 62
     5
100
AcDbLine
 10
2898.135496
 20
170.268373
 30
0.0
 11
2895.159953
 21
171.454955
 31
0.0
  0
LINE
  5
165
330
10B
100
AcDbEntity
  8
0
  6
CONTINUOUS
 62
     5
100
AcDbLine
 10
2895.159953
 20
171.454955
 30
0.0
 11
2885.104264
 21
173.29783
 31
0.0
  0
LINE
  5
166
330
10B
100
AcDbEntity
  8
0
  6
CONTINUOUS
 62
     5
100
AcDbLine
 10
2885.104264
 20
173.29783
 30
0.0
 11
2880.078484
 21
174.457626
 31
0.0
  0
LINE
  5
167
330
10B
100
AcDbEntity
  8
0
  6
CONTINUOUS
 62
     5
100
AcDbLine
 10
2857.669717
 20
176.768373
 30
0.0
 11
2869.435383
 21
176.768373
 31
0.0
  0
LINE
  5
168
330
10B
100
AcDbEntity
  8
0
  6
CONTINUOUS
 62
     5
100
AcDbLine
 10
2856.135496
 20
176.73531
 30
0.0
 11
2856.660156
 21
176.426843
 31
0.0
  0
LINE
  5
169
330
10B
100
AcDbEntity
  8
0
  6
CONTINUOUS
 62
     5
100
AcDbLine
 10
2856.660156
 20
176.426843
 30
0.0
 11
2856.956968
 21
176.337799
 31
0.0
  0
LINE
  5
16A
330
10B
100
AcDbEntity
  8
0
  6
CONTINUOUS
 62
     5
100
AcDbLine
 10
2856.956968
 20
176.337799
 30
0.0
 11
2857.135496
 21
176.362969
 31
0.0
  0
LINE
  5
16B
330
10B
100
AcDbEntity
  8
0
  6
CONTINUOUS
 62
     5
100
AcDbLine
 10
2857.135496
 20
176.362969
 30
0.0
 11
2857.669717
 21
176.768373
 31
0.0
  0
LINE
  5
16C
330
10B
100
AcDbEntity
  8
0
  6
CONTINUOUS
 62
     5
100
AcDbLine
 10
2869.435383
 20
176.768373
 30
0.0
 11
2873.885652
 21
175.739548
 31
0.0
  0
LINE
  5
16D
330
10B
100
AcDbEntity
  8
0
  6
CONTINUOUS
 62
     5
100
AcDbLine
 10
2873.885652
 20
175.739548
 30
0.0
 11
2878.038843
 21
174.574399
 31
0.0
  0
LINE
  5
16E
330
10B
100
AcDbEntity
  8
0
  6
CONTINUOUS
 62
     5
100
AcDbLine
 10
2878.038843
 20
174.574399
 30
0.0
 11
2880.078484
 21
174.457626
 31
0.0
  0
LINE
  5
16F
330
10B
100
AcDbEntity
  8
0
  6
CONTINUOUS
 62
     5
100
AcDbLine
 10
2833.635496
 20
174.768373
 30
0.0
 11
2833.635496
 21
174.268373
 31
0.0
  0
LINE
  5
170
330
10B
100
AcDbEntity
  8
0
  6
CONTINUOUS
 62
     5
100
AcDbLine
 10
2831.135496
 20
174.268373
 30
0.0
 11
2833.635496
 21
174.268373
 31
0.0
  0
ARC
  5
171
330
10B
100
AcDbEntity
  8
0
  6
CONTINUOUS
 62
     5
100
AcDbCircle
 10
2834.635496
 20
174.768373
 30
0.0
 40
1.0
100
AcDbArc
 50
90.0
 51
180.0
  0
LINE
  5
172
330
10B
100
AcDbEntity
  8
0
  6
CONTINUOUS
 62
     5
100
AcDbLine
 10
2837.058534
 20
175.768373
 30
0.0
 11
2837.756091
 21
175.196377
 31
0.0
  0
LINE
  5
173
330
10B
100
AcDbEntity
  8
0
  6
CONTINUOUS
 62
     5
100
AcDbLine
 10
2838.358459
 20
175.172416
 30
0.0
 11
2839.216056
 21
175.768373
 31
0.0
  0
LINE
  5
174
330
10B
100
AcDbEntity
  8
0
  6
CONTINUOUS
 62
     5
100
AcDbLine
 10
2840.794452
 20
175.768373
 30
0.0
 11
2842.461577
 21
175.110298
 31
0.0
  0
LINE
  5
175
330
10B
100
AcDbEntity
  8
0
  6
CONTINUOUS
 62
     5
100
AcDbLine
 10
2842.885286
 20
175.13681
 30
0.0
 11
2844.038773
 21
175.768373
 31
0.0
  0
LINE
  5
176
330
10B
100
AcDbEntity
  8
0
  6
CONTINUOUS
 62
     5
100
AcDbLine
 10
2839.216056
 20
175.768373
 30
0.0
 11
2840.794452
 21
175.768373
 31
0.0
  0
LINE
  5
177
330
10B
100
AcDbEntity
  8
0
  6
CONTINUOUS
 62
     5
100
AcDbLine
 10
2844.038773
 20
175.768373
 30
0.0
 11
2857.135496
 21
175.768373
 31
0.0
  0
LINE
  5
178
330
10B
100
AcDbEntity
  8
0
  6
CONTINUOUS
 62
     5
100
AcDbLine
 10
2809.684479
 20
172.659547
 30
0.0
 11
2831.135496
 21
174.268373
 31
0.0
  0
LINE
  5
179
330
10B
100
AcDbEntity
  8
0
  6
CONTINUOUS
 62
     5
100
AcDbLine
 10
2805.683129
 20
172.745598
 30
0.0
 11
2809.684479
 21
172.659547
 31
0.0
  0
ARC
  5
17A
330
10B
100
AcDbEntity
  8
0
  6
CONTINUOUS
 62
     5
100
AcDbCircle
 10
2838.073131
 20
175.583011
 30
0.0
 40
0.5
100
AcDbArc
 50
230.648247
 51
304.796026
  0
ARC
  5
17B
330
10B
100
AcDbEntity
  8
0
  6
CONTINUOUS
 62
     5
100
AcDbCircle
 10
2842.64516
 20
175.575375
 30
0.0
 40
0.5
100
AcDbArc
 50
248.459024
 51
298.701829
  0
ARC
  5
17C
330
10B
100
AcDbEntity
  8
0
  6
CONTINUOUS
 62
     5
100
AcDbCircle
 10
2797.890883
 20
182.283485
 30
0.0
 40
0.3
100
AcDbArc
 50
275.906141
 51
36.869898
  0
ARC
  5
17D
330
10B
100
AcDbEntity
  8
0
  6
CONTINUOUS
 62
     5
100
AcDbCircle
 10
2797.42528
 20
184.214756
 30
0.0
 40
0.7
100
AcDbArc
 50
85.301319
 51
194.14298
  0
LINE
  5
17E
330
10B
100
AcDbEntity
  8
0
  6
CONTINUOUS
 62
     3
100
AcDbLine
 10
2829.61732
 20
167.001529
 30
0.0
 11
2837.727816
 21
167.001529
 31
0.0
  0
LINE
  5
17F
330
10B
100
AcDbEntity
  8
0
  6
CONTINUOUS
 62
     3
100
AcDbLine
 10
2823.204804
 20
165.401529
 30
0.0
 11
2840.848145
 21
165.401529
 31
0.0
  0
LINE
  5
180
330
10B
100
AcDbEntity
  8
0
  6
CONTINUOUS
 62
     3
100
AcDbLine
 10
2819.791865
 20
163.801529
 30
0.0
 11
2843.723509
 21
163.801529
 31
0.0
  0
LINE
  5
181
330
10B
100
AcDbEntity
  8
0
  6
CONTINUOUS
 62
     3
100
AcDbLine
 10
2817.556545
 20
162.201529
 30
0.0
 11
2845.566982
 21
162.201529
 31
0.0
  0
LINE
  5
182
330
10B
100
AcDbEntity
  8
0
  6
CONTINUOUS
 62
     3
100
AcDbLine
 10
2816.06089
 20
160.601529
 30
0.0
 11
2846.801268
 21
160.601529
 31
0.0
  0
LINE
  5
183
330
10B
100
AcDbEntity
  8
0
  6
CONTINUOUS
 62
     3
100
AcDbLine
 10
2814.840575
 20
159.001529
 30
0.0
 11
2847.850644
 21
159.001529
 31
0.0
  0
LINE
  5
184
330
10B
100
AcDbEntity
  8
0
  6
CONTINUOUS
 62
     3
100
AcDbLine
 10
2814.148683
 20
157.401529
 30
0.0
 11
2848.576519
 21
157.401529
 31
0.0
  0
LINE
  5
185
330
10B
100
AcDbEntity
  8
0
  6
CONTINUOUS
 62
     3
100
AcDbLine
 10
2813.456791
 20
155.801529
 30
0.0
 11
2848.914905
 21
155.801529
 31
0.0
  0
LINE
  5
186
330
10B
100
AcDbEntity
  8
0
  6
CONTINUOUS
 62
     3
100
AcDbLine
 10
2812.808441
 20
154.201529
 30
0.0
 11
2849.253292
 21
154.201529
 31
0.0
  0
LINE
  5
187
330
10B
100
AcDbEntity
  8
0
  6
CONTINUOUS
 62
     3
100
AcDbLine
 10
2812.486783
 20
152.601529
 30
0.0
 11
2849.591678
 21
152.601529
 31
0.0
  0
LINE
  5
188
330
10B
100
AcDbEntity
  8
0
  6
CONTINUOUS
 62
     3
100
AcDbLine
 10
2812.165124
 20
151.001529
 30
0.0
 11
2827.755367
 21
151.001529
 31
0.0
  0
LINE
  5
189
330
10B
100
AcDbEntity
  8
0
  6
CONTINUOUS
 62
     3
100
AcDbLine
 10
2811.843465
 20
149.401529
 30
0.0
 11
2826.223106
 21
149.401529
 31
0.0
  0
LINE
  5
18A
330
10B
100
AcDbEntity
  8
0
  6
CONTINUOUS
 62
     3
100
AcDbLine
 10
2811.521806
 20
147.801529
 30
0.0
 11
2825.434936
 21
147.801529
 31
0.0
  0
LINE
  5
18B
330
10B
100
AcDbEntity
  8
0
  6
CONTINUOUS
 62
     3
100
AcDbLine
 10
2811.280688
 20
146.201529
 30
0.0
 11
2825.116168
 21
146.201529
 31
0.0
  0
LINE
  5
18C
330
10B
100
AcDbEntity
  8
0
  6
CONTINUOUS
 62
     3
100
AcDbLine
 10
2811.160518
 20
144.601529
 30
0.0
 11
2825.166189
 21
144.601529
 31
0.0
  0
LINE
  5
18D
330
10B
100
AcDbEntity
  8
0
  6
CONTINUOUS
 62
     3
100
AcDbLine
 10
2811.135496
 20
143.001529
 30
0.0
 11
2825.712276
 21
143.001529
 31
0.0
  0
LINE
  5
18E
330
10B
100
AcDbEntity
  8
0
  6
CONTINUOUS
 62
     3
100
AcDbLine
 10
2811.634684
 20
141.401529
 30
0.0
 11
2827.742279
 21
141.401529
 31
0.0
  0
LINE
  5
18F
330
10B
100
AcDbEntity
  8
0
  6
CONTINUOUS
 62
     3
100
AcDbLine
 10
2812.345795
 20
139.801529
 30
0.0
 11
2844.873651
 21
139.801529
 31
0.0
  0
LINE
  5
190
330
10B
100
AcDbEntity
  8
0
  6
CONTINUOUS
 62
     3
100
AcDbLine
 10
2813.056906
 20
138.201529
 30
0.0
 11
2844.422369
 21
138.201529
 31
0.0
  0
LINE
  5
191
330
10B
100
AcDbEntity
  8
0
  6
CONTINUOUS
 62
     3
100
AcDbLine
 10
2813.768017
 20
136.601529
 30
0.0
 11
2843.699344
 21
136.601529
 31
0.0
  0
LINE
  5
192
330
10B
100
AcDbEntity
  8
0
  6
CONTINUOUS
 62
     3
100
AcDbLine
 10
2814.729976
 20
135.001529
 30
0.0
 11
2842.801158
 21
135.001529
 31
0.0
  0
LINE
  5
193
330
10B
100
AcDbEntity
  8
0
  6
CONTINUOUS
 62
     3
100
AcDbLine
 10
2815.978437
 20
133.401529
 30
0.0
 11
2841.296232
 21
133.401529
 31
0.0
  0
LINE
  5
194
330
10B
100
AcDbEntity
  8
0
  6
CONTINUOUS
 62
     3
100
AcDbLine
 10
2817.583857
 20
131.801529
 30
0.0
 11
2838.903771
 21
131.801529
 31
0.0
  0
LINE
  5
195
330
10B
100
AcDbEntity
  8
0
  6
CONTINUOUS
 62
     3
100
AcDbLine
 10
2819.731
 20
130.201529
 30
0.0
 11
2835.778647
 21
130.201529
 31
0.0
  0
LINE
  5
196
330
10B
100
AcDbEntity
  8
0
  6
CONTINUOUS
 62
     3
100
AcDbLine
 10
2822.97869
 20
128.601529
 30
0.0
 11
2831.140499
 21
128.601529
 31
0.0
  0
LINE
  5
197
330
10B
100
AcDbEntity
  8
0
  6
CONTINUOUS
 62
     3
100
AcDbLine
 10
2832.94719
 20
151.001529
 30
0.0
 11
2849.766927
 21
151.001529
 31
0.0
  0
LINE
  5
198
330
10B
100
AcDbEntity
  8
0
  6
CONTINUOUS
 62
     3
100
AcDbLine
 10
2833.617934
 20
149.401529
 30
0.0
 11
2849.641158
 21
149.401529
 31
0.0
  0
LINE
  5
199
330
10B
100
AcDbEntity
  8
0
  6
CONTINUOUS
 62
     3
100
AcDbLine
 10
2833.729941
 20
147.801529
 30
0.0
 11
2849.515388
 21
147.801529
 31
0.0
  0
LINE
  5
19A
330
10B
100
AcDbEntity
  8
0
  6
CONTINUOUS
 62
     3
100
AcDbLine
 10
2833.484584
 20
146.201529
 30
0.0
 11
2848.801533
 21
146.201529
 31
0.0
  0
LINE
  5
19B
330
10B
100
AcDbEntity
  8
0
  6
CONTINUOUS
 62
     3
100
AcDbLine
 10
2832.832939
 20
144.601529
 30
0.0
 11
2848.080333
 21
144.601529
 31
0.0
  0
LINE
  5
19C
330
10B
100
AcDbEntity
  8
0
  6
CONTINUOUS
 62
     3
100
AcDbLine
 10
2831.699675
 20
143.001529
 30
0.0
 11
2847.146385
 21
143.001529
 31
0.0
  0
LINE
  5
19D
330
10B
100
AcDbEntity
  8
0
  6
CONTINUOUS
 62
     3
100
AcDbLine
 10
2829.443679
 20
141.401529
 30
0.0
 11
2845.875678
 21
141.401529
 31
0.0
  0
TEXT
  5
19E
330
10B
100
AcDbEntity
  8
0
  6
CONTINUOUS
 62
     5
100
AcDbText
 10
2850.307158
 20
149.012707
 30
0.0
 40
4.713448
  1
M
 41
1.300704
  7
ED_VECTOR
100
AcDbText
  0
TEXT
  5
19F
330
10B
100
AcDbEntity
  8
0
  6
CONTINUOUS
 62
     5
100
AcDbText
 10
2859.958545
 20
148.954436
 30
0.0
 40
4.626621
  1
T
 41
0.518801
  7
ED_VECTOR
100
AcDbText
  0
TEXT
  5
1A0
330
10B
100
AcDbEntity
  8
0
  6
CONTINUOUS
 62
     5
100
AcDbText
 10
2862.724108
 20
148.989235
 30
0.0
 40
4.696183
  1
E
 41
0.703702
  7
ED_VECTOR
100
AcDbText
  0
TEXT
  5
1A1
330
10B
100
AcDbEntity
  8
0
  6
CONTINUOUS
 62
     5
100
AcDbText
 10
2865.840288
 20
150.605079
 30
0.0
 40
0.348283
  1
-
 41
6.250213
  7
ED_VECTOR
100
AcDbText
  0
TEXT
  5
1A2
330
10B
100
AcDbEntity
  8
0
  6
CONTINUOUS
 62
     5
100
AcDbText
 10
2867.654498
 20
148.957888
 30
0.0
 40
4.861659
  1
H
 41
0.865668
  7
ED_VECTOR
100
AcDbText
  0
TEXT
  5
1A3
330
10B
100
AcDbEntity
  8
0
  6
CONTINUOUS
 62
     5
100
AcDbText
 10
2871.730513
 20
148.988266
 30
0.0
 40
4.843139
  1
A
 41
0.846157
  7
ED_VECTOR
100
AcDbText
  0
TEXT
  5
1A4
330
10B
100
AcDbEntity
  8
0
  6
CONTINUOUS
 62
     5
100
AcDbText
 10
2875.436669
 20
148.94674
 30
0.0
 40
4.825362
  1
N
 41
0.993429
  7
ED_VECTOR
100
AcDbText
  0
TEXT
  5
1A5
330
10B
100
AcDbEntity
  8
0
  6
CONTINUOUS
 62
     5
100
AcDbText
 10
2856.228127
 20
148.924167
 30
0.0
 40
4.982325
  1
A
 41
0.784962
  7
ED_VECTOR
100
AcDbText
  0
TEXT
  5
1A6
330
10B
100
AcDbEntity
  8
0
  6
CONTINUOUS
 62
     5
100
AcDbText
 10
2850.674171
 20
141.928927
 30
0.0
 40
4.982325
  1
A
 41
0.784962
  7
ED_VECTOR
100
AcDbText
  0
TEXT
  5
1A7
330
10B
100
AcDbEntity
  8
0
  6
CONTINUOUS
 62
     5
100
AcDbText
 10
2863.458595
 20
141.957248
 30
0.0
 40
4.982325
  1
A
 41
0.784962
  7
ED_VECTOR
100
AcDbText
  0
TEXT
  5
1A8
330
10B
100
AcDbEntity
  8
0
  6
CONTINUOUS
 62
     5
100
AcDbText
 10
2867.21914
 20
142.014245
 30
0.0
 40
4.825362
  1
N
 41
0.993429
  7
ED_VECTOR
100
AcDbText
  0
TEXT
  5
1A9
330
10B
100
AcDbEntity
  8
0
  6
CONTINUOUS
 62
     5
100
AcDbText
 10
2876.121476
 20
142.02264
 30
0.0
 40
4.841775
  1
E
 41
0.789479
  7
ED_VECTOR
100
AcDbText
  0
TEXT
  5
1AA
330
10B
100
AcDbEntity
  8
0
  6
CONTINUOUS
 62
     5
100
AcDbText
 10
2854.954725
 20
141.927603
 30
0.0
 40
4.947865
  1
D
 41
0.729328
  7
ED_VECTOR
100
AcDbText
  0
TEXT
  5
1AB
330
10B
100
AcDbEntity
  8
0
  6
CONTINUOUS
 62
     5
100
AcDbText
 10
2859.357083
 20
141.922218
 30
0.0
 40
4.92421
  1
V
 41
0.818797
  7
ED_VECTOR
100
AcDbText
  0
TEXT
  5
1AC
330
10B
100
AcDbEntity
  8
0
  6
CONTINUOUS
 62
     5
100
AcDbText
 10
2871.582284
 20
141.94295
 30
0.0
 40
5.032894
  1
C
 41
0.987349
  7
ED_VECTOR
100
AcDbText
  0
LINE
  5
1AD
330
10B
100
AcDbEntity
  8
0
  6
CONTINUOUS
 62
     5
100
AcDbLine
 10
2862.212833
 20
153.003346
 30
0.0
 11
2861.200771
 21
153.003346
 31
0.0
  0
LINE
  5
1AE
330
10B
100
AcDbEntity
  8
0
  6
CONTINUOUS
 62
     3
100
AcDbLine
 10
2811.311071
 20
187.228617
 30
0.0
 11
2861.108897
 21
187.228617
 31
0.0
  0
LINE
  5
1AF
330
10B
100
AcDbEntity
  8
0
  6
CONTINUOUS
 62
     3
100
AcDbLine
 10
2804.198707
 20
185.628617
 30
0.0
 11
2872.188589
 21
185.628617
 31
0.0
  0
LINE
  5
1B0
330
10B
100
AcDbEntity
  8
0
  6
CONTINUOUS
 62
     3
100
AcDbLine
 10
2796.750302
 20
184.028617
 30
0.0
 11
2842.173613
 21
184.028617
 31
0.0
  0
LINE
  5
1B1
330
10B
100
AcDbEntity
  8
0
  6
CONTINUOUS
 62
     3
100
AcDbLine
 10
2855.135162
 20
184.028617
 30
0.0
 11
2864.721766
 21
184.028617
 31
0.0
  0
LINE
  5
1B2
330
10B
100
AcDbEntity
  8
0
  6
CONTINUOUS
 62
     3
100
AcDbLine
 10
2869.030899
 20
184.028617
 30
0.0
 11
2877.543897
 21
184.028617
 31
0.0
  0
LINE
  5
1B3
330
10B
100
AcDbEntity
  8
0
  6
CONTINUOUS
 62
     3
100
AcDbLine
 10
2798.153441
 20
182.428617
 30
0.0
 11
2854.859911
 21
182.428617
 31
0.0
  0
LINE
  5
1B4
330
10B
100
AcDbEntity
  8
0
  6
CONTINUOUS
 62
     3
100
AcDbLine
 10
2875.040049
 20
182.428617
 30
0.0
 11
2881.146294
 21
182.428617
 31
0.0
  0
LINE
  5
1B5
330
10B
100
AcDbEntity
  8
0
  6
CONTINUOUS
 62
     3
100
AcDbLine
 10
2796.241108
 20
180.828617
 30
0.0
 11
2868.995459
 21
180.828617
 31
0.0
  0
LINE
  5
1B6
330
10B
100
AcDbEntity
  8
0
  6
CONTINUOUS
 62
     3
100
AcDbLine
 10
2880.941348
 20
180.828617
 30
0.0
 11
2883.175069
 21
180.828617
 31
0.0
  0
LINE
  5
1B7
330
10B
100
AcDbEntity
  8
0
  6
CONTINUOUS
 62
     3
100
AcDbLine
 10
2795.178882
 20
179.228617
 30
0.0
 11
2876.707315
 21
179.228617
 31
0.0
  0
LINE
  5
1B8
330
10B
100
AcDbEntity
  8
0
  6
CONTINUOUS
 62
     3
100
AcDbLine
 10
2796.854549
 20
177.628617
 30
0.0
 11
2881.516624
 21
177.628617
 31
0.0
  0
LINE
  5
1B9
330
10B
100
AcDbEntity
  8
0
  6
CONTINUOUS
 62
     3
100
AcDbLine
 10
2798.022117
 20
176.028617
 30
0.0
 11
2857.135496
 21
176.028617
 31
0.0
  0
LINE
  5
1BA
330
10B
100
AcDbEntity
  8
0
  6
CONTINUOUS
 62
     3
100
AcDbLine
 10
2872.635261
 20
176.028617
 30
0.0
 11
2887.639584
 21
176.028617
 31
0.0
  0
LINE
  5
1BB
330
10B
100
AcDbEntity
  8
0
  6
CONTINUOUS
 62
     3
100
AcDbLine
 10
2798.26724
 20
174.428617
 30
0.0
 11
2833.635496
 21
174.428617
 31
0.0
  0
LINE
  5
1BC
330
10B
100
AcDbEntity
  8
0
  6
CONTINUOUS
 62
     3
100
AcDbLine
 10
2880.20419
 20
174.428617
 30
0.0
 11
2889.726793
 21
174.428617
 31
0.0
  0
LINE
  5
1BD
330
10B
100
AcDbEntity
  8
0
  6
CONTINUOUS
 62
     3
100
AcDbLine
 10
2798.473566
 20
172.828617
 30
0.0
 11
2811.938739
 21
172.828617
 31
0.0
  0
LINE
  5
1BE
330
10B
100
AcDbEntity
  8
0
  6
CONTINUOUS
 62
     3
100
AcDbLine
 10
2887.664538
 20
172.828617
 30
0.0
 11
2894.149557
 21
172.828617
 31
0.0
  0
LINE
  5
1BF
330
10B
100
AcDbEntity
  8
0
  6
CONTINUOUS
 62
     3
100
AcDbLine
 10
2895.727533
 20
171.228617
 30
0.0
 11
2897.896387
 21
171.228617
 31
0.0
  0
ENDBLK
  5
10D
330
10B
100
AcDbEntity
  8
0
100
AcDbBlockEnd
  0
BLOCK
  5
1EA
330
1E9
100
AcDbEntity
  8
0
100
AcDbBlockBegin
  2
EDDIM015
 70
     0
 10
0.0
 20
0.0
 30
0.0
  3
EDDIM015
  1

  0
TEXT
  5
1ED
330
1E9
100
AcDbEntity
  8
0
  6
CONTINUOUS
 62
     3
100
AcDbText
 10
3022.912598
 20
2221.119141
 30
0.0
 40
35.0
  1
GLSB-100-2507
 41
0.857143
  7
ED_VECTOR
100
AcDbText
  0
ENDBLK
  5
1EB
330
1E9
100
AcDbEntity
  8
0
100
AcDbBlockEnd
  0
BLOCK
  5
1EF
330
1EE
100
AcDbEntity
  8
0
100
AcDbBlockBegin
  2
EDDIM016
 70
     0
 10
0.0
 20
0.0
 30
0.0
  3
EDDIM016
  1

  0
TEXT
  5
1F2
330
1EE
100
AcDbEntity
  8
0
  6
CONTINUOUS
 62
     3
100
AcDbText
 10
2993.198975
 20
2080.548828
 30
0.0
 40
35.0
  1
700
 41
0.857143
  7
ED_VECTOR
100
AcDbText
  0
ENDBLK
  5
1F0
330
1EE
100
AcDbEntity
  8
0
100
AcDbBlockEnd
  0
BLOCK
  5
1F4
330
1F3
100
AcDbEntity
  8
0
100
AcDbBlockBegin
  2
EDDIM017
 70
     0
 10
0.0
 20
0.0
 30
0.0
  3
EDDIM017
  1

  0
TEXT
  5
1F7
330
1F3
100
AcDbEntity
  8
0
  6
CONTINUOUS
 62
     3
100
AcDbText
 10
3233.19751
 20
2077.120117
 30
0.0
 40
35.0
  1
250
 41
0.857143
  7
ED_VECTOR
100
AcDbText
  0
ENDBLK
  5
1F5
330
1F3
100
AcDbEntity
  8
0
100
AcDbBlockEnd
  0
BLOCK
  5
1F9
330
1F8
100
AcDbEntity
  8
0
100
AcDbBlockBegin
  2
EDDIM018
 70
     0
 10
0.0
 20
0.0
 30
0.0
  3
EDDIM018
  1

  0
TEXT
  5
1FC
330
1F8
100
AcDbEntity
  8
0
  6
CONTINUOUS
 62
     3
100
AcDbText
 10
3157.197998
 20
2077.120117
 30
0.0
 40
35.0
  1
x
 41
0.857143
  7
ED_VECTOR
100
AcDbText
  0
ENDBLK
  5
1FA
330
1F8
100
AcDbEntity
  8
0
100
AcDbBlockEnd
  0
BLOCK
  5
1FE
330
1FD
100
AcDbEntity
  8
0
100
AcDbBlockBegin
  2
EDDIM019
 70
     0
 10
0.0
 20
0.0
 30
0.0
  3
EDDIM019
  1

  0
TEXT
  5
201
330
1FD
100
AcDbEntity
  8
0
  6
CONTINUOUS
 62
     3
100
AcDbText
 10
3123.140869
 20
2147.662598
 30
0.0
 40
35.0
  1
100
 41
0.857143
  7
ED_VECTOR
100
AcDbText
  0
ENDBLK
  5
1FF
330
1FD
100
AcDbEntity
  8
0
100
AcDbBlockEnd
  0
BLOCK
  5
203
330
202
100
AcDbEntity
  8
0
100
AcDbBlockBegin
  2
EDDIM020
 70
     0
 10
0.0
 20
0.0
 30
0.0
  3
EDDIM020
  1

  0
TEXT
  5
206
330
202
100
AcDbEntity
  8
0
  6
CONTINUOUS
 62
     3
100
AcDbText
 10
3022.570312
 20
2007.77771
 30
0.0
 40
35.0
  1
80
 41
0.857143
  7
ED_VECTOR
100
AcDbText
  0
ENDBLK
  5
204
330
202
100
AcDbEntity
  8
0
100
AcDbBlockEnd
  0
BLOCK
  5
208
330
207
100
AcDbEntity
  8
0
100
AcDbBlockBegin
  2
EDDIM021
 70
     0
 10
0.0
 20
0.0
 30
0.0
  3
EDDIM021
  1

  0
TEXT
  5
20B
330
207
100
AcDbEntity
  8
0
  6
CONTINUOUS
 62
     3
100
AcDbText
 10
3231.483154
 20
2009.149292
 30
0.0
 40
35.0
  1
580
 41
0.857143
  7
ED_VECTOR
100
AcDbText
  0
ENDBLK
  5
209
330
207
100
AcDbEntity
  8
0
100
AcDbBlockEnd
  0
BLOCK
  5
20D
330
20C
100
AcDbEntity
  8
0
100
AcDbBlockBegin
  2
EDDIM022
 70
     0
 10
0.0
 20
0.0
 30
0.0
  3
EDDIM022
  1

  0
TEXT
  5
210
330
20C
100
AcDbEntity
  8
0
  6
CONTINUOUS
 62
     3
100
AcDbText
 10
3122.046875
 20
1937.832886
 30
0.0
 40
35.0
  1
500
 41
0.857143
  7
ED_VECTOR
100
AcDbText
  0
ENDBLK
  5
20E
330
20C
100
AcDbEntity
  8
0
100
AcDbBlockEnd
  0
BLOCK
  5
212
330
211
100
AcDbEntity
  8
0
100
AcDbBlockBegin
  2
EDDIM023
 70
     0
 10
0.0
 20
0.0
 30
0.0
  3
EDDIM023
  1

  0
TEXT
  5
215
330
211
100
AcDbEntity
  8
0
  6
CONTINUOUS
 62
     3
100
AcDbText
 10
3122.003662
 20
1870.792847
 30
0.0
 40
35.0
  1
700
 41
0.857143
  7
ED_VECTOR
100
AcDbText
  0
ENDBLK
  5
213
330
211
100
AcDbEntity
  8
0
100
AcDbBlockEnd
  0
BLOCK
  5
217
330
216
100
AcDbEntity
  8
0
100
AcDbBlockBegin
  2
EDDIM024
 70
     0
 10
0.0
 20
0.0
 30
0.0
  3
EDDIM024
  1

  0
TEXT
  5
21A
330
216
100
AcDbEntity
  8
0
  6
CONTINUOUS
 62
     3
100
AcDbText
 10
3119.907471
 20
1798.359253
 30
0.0
 40
35.0
  1
300
 41
0.857143
  7
ED_VECTOR
100
AcDbText
  0
ENDBLK
  5
218
330
216
100
AcDbEntity
  8
0
100
AcDbBlockEnd
  0
BLOCK
  5
21C
330
21B
100
AcDbEntity
  8
0
100
AcDbBlockBegin
  2
EDDIM025
 70
     0
 10
0.0
 20
0.0
 30
0.0
  3
EDDIM025
  1

  0
TEXT
  5
21F
330
21B
100
AcDbEntity
  8
0
  6
CONTINUOUS
 62
     3
100
AcDbText
 10
3118.151855
 20
1728.142456
 30
0.0
 40
35.0
  1
80
 41
0.857143
  7
ED_VECTOR
100
AcDbText
  0
ENDBLK
  5
21D
330
21B
100
AcDbEntity
  8
0
100
AcDbBlockEnd
  0
BLOCK
  5
221
330
220
100
AcDbEntity
  8
0
100
AcDbBlockBegin
  2
EDDIM026
 70
     0
 10
0.0
 20
0.0
 30
0.0
  3
EDDIM026
  1

  0
TEXT
  5
224
330
220
100
AcDbEntity
  8
0
  6
CONTINUOUS
 62
     3
100
AcDbText
 10
3043.702148
 20
1170.371216
 30
0.0
 40
35.0
  1
３０　回／時
 41
0.857143
  7
ED_VECTOR
100
AcDbText
  0
ENDBLK
  5
222
330
220
100
AcDbEntity
  8
0
100
AcDbBlockEnd
  0
BLOCK
  5
226
330
225
100
AcDbEntity
  8
0
100
AcDbBlockBegin
  2
EDDIM027
 70
     0
 10
0.0
 20
0.0
 30
0.0
  3
EDDIM027
  1

  0
TEXT
  5
229
330
225
100
AcDbEntity
  8
0
  6
CONTINUOUS
 62
     3
100
AcDbText
 10
3042.629639
 20
1101.723511
 30
0.0
 40
35.0
  1
約　２１　㎏
 41
0.857143
  7
ED_VECTOR
100
AcDbText
  0
ENDBLK
  5
227
330
225
100
AcDbEntity
  8
0
100
AcDbBlockEnd
  0
BLOCK
  5
274
330
273
100
AcDbEntity
  8
0
100
AcDbBlockBegin
  2
*D25
 70
     1
 10
0.0
 20
0.0
 30
0.0
  3
*D25
  1

  0
TEXT
  5
276
330
273
100
AcDbEntity
  8
0
  6
CONTINUOUS
 62
     3
100
AcDbText
 10
1634.527466
 20
1197.196533
 30
0.0
 40
30.0
  1
700
 41
0.8
  7
ED_VECTOR
100
AcDbText
  0
LINE
  5
277
330
273
100
AcDbEntity
  8
0
  6
CONTINUOUS
 62
     6
100
AcDbLine
 10
1321.527586
 20
1103.396315
 30
0.0
 11
1321.527586
 21
1206.196315
 31
0.0
  0
LINE
  5
278
330
273
100
AcDbEntity
  8
0
  6
CONTINUOUS
 62
     6
100
AcDbLine
 10
2021.527586
 20
1103.396315
 30
0.0
 11
2021.527586
 21
1206.196315
 31
0.0
  0
LINE
  5
279
330
273
100
AcDbEntity
  8
0
  6
CONTINUOUS
 62
     6
100
AcDbLine
 10
1321.527586
 20
1196.196315
 30
0.0
 11
2021.527586
 21
1196.196315
 31
0.0
  0
INSERT
  5
27A
330
273
100
AcDbEntity
  8
0
  6
CONTINUOUS
 62
     6
100
AcDbBlockReference
  2
EDTIP_ARROW_S
 10
1321.527586
 20
1196.196315
 30
0.0
 41
30.0
 42
30.0
 50
180.0
  0
INSERT
  5
27B
330
273
100
AcDbEntity
  8
0
  6
CONTINUOUS
 62
     6
100
AcDbBlockReference
  2
EDTIP_ARROW_E
 10
2021.527586
 20
1196.196315
 30
0.0
 41
30.0
 42
30.0
  0
ENDBLK
  5
275
330
273
100
AcDbEntity
  8
0
100
AcDbBlockEnd
  0
BLOCK
  5
27E
330
27D
100
AcDbEntity
  8
0
100
AcDbBlockBegin
  2
*D26
 70
     1
 10
0.0
 20
0.0
 30
0.0
  3
*D26
  1

  0
TEXT
  5
280
330
27D
100
AcDbEntity
  8
0
  6
CONTINUOUS
 62
     3
100
AcDbText
 10
1179.473145
 20
948.510986
 30
0.0
 40
30.0
  1
23.1
 41
0.8
  7
ED_VECTOR
100
AcDbText
  0
LINE
  5
281
330
27D
100
AcDbEntity
  8
0
  6
CONTINUOUS
 62
     6
100
AcDbLine
 10
1298.473189
 20
593.396315
 30
0.0
 11
1298.473189
 21
957.511046
 31
0.0
  0
LINE
  5
282
330
27D
100
AcDbEntity
  8
0
  6
CONTINUOUS
 62
     6
100
AcDbLine
 10
1321.527586
 20
1056.196315
 30
0.0
 11
1321.527586
 21
937.511046
 31
0.0
  0
LINE
  5
283
330
27D
100
AcDbEntity
  8
0
  6
CONTINUOUS
 62
     6
100
AcDbLine
 10
1298.473189
 20
947.511046
 30
0.0
 11
1321.527586
 21
947.511046
 31
0.0
  0
LINE
  5
284
330
27D
100
AcDbEntity
  8
0
  6
CONTINUOUS
 62
     6
100
AcDbLine
 10
1179.473189
 20
947.511046
 30
0.0
 11
1298.473189
 21
947.511046
 31
0.0
  0
INSERT
  5
285
330
27D
100
AcDbEntity
  8
0
  6
CONTINUOUS
 62
     6
100
AcDbBlockReference
  2
EDTIP_ARROW_E
 10
1298.473189
 20
947.511046
 30
0.0
 41
30.0
 42
30.0
  0
LINE
  5
286
330
27D
100
AcDbEntity
  8
0
  6
CONTINUOUS
 62
     6
100
AcDbLine
 10
1321.527586
 20
947.511046
 30
0.0
 11
1371.527586
 21
947.511046
 31
0.0
  0
INSERT
  5
287
330
27D
100
AcDbEntity
  8
0
  6
CONTINUOUS
 62
     6
100
AcDbBlockReference
  2
EDTIP_ARROW_S
 10
1321.527586
 20
947.511046
 30
0.0
 41
30.0
 42
30.0
 50
180.0
  0
ENDBLK
  5
27F
330
27D
100
AcDbEntity
  8
0
100
AcDbBlockEnd
  0
BLOCK
  5
28A
330
289
100
AcDbEntity
  8
0
100
AcDbBlockBegin
  2
*D27
 70
     1
 10
0.0
 20
0.0
 30
0.0
  3
*D27
  1

  0
TEXT
  5
28C
330
289
100
AcDbEntity
  8
0
  6
CONTINUOUS
 62
     3
100
AcDbText
 10
1611.697876
 20
387.196381
 30
0.0
 40
30.0
  1
700
 41
0.8
  7
ED_VECTOR
100
AcDbText
  0
LINE
  5
28D
330
289
100
AcDbEntity
  8
0
  6
CONTINUOUS
 62
     6
100
AcDbLine
 10
1298.698032
 20
496.196315
 30
0.0
 11
1298.698032
 21
376.196315
 31
0.0
  0
LINE
  5
28E
330
289
100
AcDbEntity
  8
0
  6
CONTINUOUS
 62
     6
100
AcDbLine
 10
1998.698032
 20
496.196315
 30
0.0
 11
1998.698032
 21
376.196315
 31
0.0
  0
LINE
  5
28F
330
289
100
AcDbEntity
  8
0
  6
CONTINUOUS
 62
     6
100
AcDbLine
 10
1298.698032
 20
386.196315
 30
0.0
 11
1998.698032
 21
386.196315
 31
0.0
  0
INSERT
  5
290
330
289
100
AcDbEntity
  8
0
  6
CONTINUOUS
 62
     6
100
AcDbBlockReference
  2
EDTIP_ARROW_S
 10
1298.698032
 20
386.196315
 30
0.0
 41
30.0
 42
30.0
 50
180.0
  0
INSERT
  5
291
330
289
100
AcDbEntity
  8
0
  6
CONTINUOUS
 62
     6
100
AcDbBlockReference
  2
EDTIP_ARROW_E
 10
1998.698032
 20
386.196315
 30
0.0
 41
30.0
 42
30.0
  0
ENDBLK
  5
28B
330
289
100
AcDbEntity
  8
0
100
AcDbBlockEnd
  0
BLOCK
  5
294
330
293
100
AcDbEntity
  8
0
100
AcDbBlockBegin
  2
*D28
 70
     1
 10
0.0
 20
0.0
 30
0.0
  3
*D28
  1

  0
TEXT
  5
296
330
293
100
AcDbEntity
  8
0
  6
CONTINUOUS
 62
     3
100
AcDbText
 10
2154.384277
 20
522.793579
 30
0.0
 40
30.0
  1
80
 50
90.0
 41
0.8
  7
ED_VECTOR
100
AcDbText
  0
LINE
  5
297
330
293
100
AcDbEntity
  8
0
  6
CONTINUOUS
 62
     6
100
AcDbLine
 10
2008.698032
 20
506.196315
 30
0.0
 11
2165.384089
 21
506.196315
 31
0.0
  0
LINE
  5
298
330
293
100
AcDbEntity
  8
0
  6
CONTINUOUS
 62
     6
100
AcDbLine
 10
2005.673189
 20
586.196315
 30
0.0
 11
2165.384089
 21
586.196315
 31
0.0
  0
LINE
  5
299
330
293
100
AcDbEntity
  8
0
  6
CONTINUOUS
 62
     6
100
AcDbLine
 10
2155.384089
 20
506.196315
 30
0.0
 11
2155.384089
 21
586.196315
 31
0.0
  0
LINE
  5
29A
330
293
100
AcDbEntity
  8
0
  6
CONTINUOUS
 62
     6
100
AcDbLine
 10
2155.384089
 20
455.319348
 30
0.0
 11
2155.384089
 21
506.196315
 31
0.0
  0
INSERT
  5
29B
330
293
100
AcDbEntity
  8
0
  6
CONTINUOUS
 62
     6
100
AcDbBlockReference
  2
EDTIP_ARROW_E
 10
2155.384089
 20
506.196315
 30
0.0
 41
30.0
 42
30.0
 50
90.0
  0
ENDBLK
  5
295
330
293
100
AcDbEntity
  8
0
100
AcDbBlockEnd
  0
BLOCK
  5
29E
330
29D
100
AcDbEntity
  8
0
100
AcDbBlockBegin
  2
*D29
 70
     1
 10
0.0
 20
0.0
 30
0.0
  3
*D29
  1

  0
TEXT
  5
2A0
330
29D
100
AcDbEntity
  8
0
  6
CONTINUOUS
 62
     4
100
AcDbText
 10
2154.384277
 20
804.196289
 30
0.0
 40
30.0
  1
500
 50
90.0
 41
0.8
  7
ED_VECTOR
100
AcDbText
  0
LINE
  5
2A1
330
29D
100
AcDbEntity
  8
0
  6
CONTINUOUS
 62
     6
100
AcDbLine
 10
2028.727586
 20
1096.196315
 30
0.0
 11
2165.384089
 21
1096.196315
 31
0.0
  0
LINE
  5
2A2
330
29D
100
AcDbEntity
  8
0
  6
CONTINUOUS
 62
     6
100
AcDbLine
 10
2155.384089
 20
586.196315
 30
0.0
 11
2155.384089
 21
1096.196315
 31
0.0
  0
INSERT
  5
2A3
330
29D
100
AcDbEntity
  8
0
  6
CONTINUOUS
 62
     6
100
AcDbBlockReference
  2
EDTIP_ARROW_S
 10
2155.384089
 20
586.196315
 30
0.0
 41
30.0
 42
30.0
 50
270.0
  0
INSERT
  5
2A4
330
29D
100
AcDbEntity
  8
0
  6
CONTINUOUS
 62
     6
100
AcDbBlockReference
  2
EDTIP_ARROW_E
 10
2155.384089
 20
1096.196315
 30
0.0
 41
30.0
 42
30.0
 50
90.0
  0
ENDBLK
  5
29F
330
29D
100
AcDbEntity
  8
0
100
AcDbBlockEnd
  0
BLOCK
  5
2A7
330
2A6
100
AcDbEntity
  8
0
100
AcDbBlockBegin
  2
*D30
 70
     1
 10
0.0
 20
0.0
 30
0.0
  3
*D30
  1

  0
TEXT
  5
2A9
330
2A6
100
AcDbEntity
  8
0
  6
CONTINUOUS
 62
     4
100
AcDbText
 10
2234.384277
 20
764.196289
 30
0.0
 40
30.0
  1
580
 50
90.0
 41
0.8
  7
ED_VECTOR
100
AcDbText
  0
LINE
  5
2AA
330
2A6
100
AcDbEntity
  8
0
  6
CONTINUOUS
 62
     6
100
AcDbLine
 10
2008.698032
 20
506.196315
 30
0.0
 11
2245.384089
 21
506.196315
 31
0.0
  0
LINE
  5
2AB
330
2A6
100
AcDbEntity
  8
0
  6
CONTINUOUS
 62
     6
100
AcDbLine
 10
2028.727586
 20
1096.196315
 30
0.0
 11
2245.384089
 21
1096.196315
 31
0.0
  0
LINE
  5
2AC
330
2A6
100
AcDbEntity
  8
0
  6
CONTINUOUS
 62
     6
100
AcDbLine
 10
2235.384089
 20
506.196315
 30
0.0
 11
2235.384089
 21
1096.196315
 31
0.0
  0
INSERT
  5
2AD
330
2A6
100
AcDbEntity
  8
0
  6
CONTINUOUS
 62
     6
100
AcDbBlockReference
  2
EDTIP_ARROW_S
 10
2235.384089
 20
506.196315
 30
0.0
 41
30.0
 42
30.0
 50
270.0
  0
INSERT
  5
2AE
330
2A6
100
AcDbEntity
  8
0
  6
CONTINUOUS
 62
     6
100
AcDbBlockReference
  2
EDTIP_ARROW_E
 10
2235.384089
 20
1096.196315
 30
0.0
 41
30.0
 42
30.0
 50
90.0
  0
ENDBLK
  5
2A8
330
2A6
100
AcDbEntity
  8
0
100
AcDbBlockEnd
  0
BLOCK
  5
2BC
330
2BB
100
AcDbEntity
  8
0
100
AcDbBlockBegin
  2
*D31
 70
     1
 10
0.0
 20
0.0
 30
0.0
  3
*D31
  1

  0
TEXT
  5
2BE
330
2BB
100
AcDbEntity
  8
0
  6
CONTINUOUS
 62
     3
100
AcDbText
 10
741.917053
 20
1206.196411
 30
0.0
 40
30.0
  1
250
 41
0.8
  7
ED_VECTOR
100
AcDbText
  0
LINE
  5
2BF
330
2BB
100
AcDbEntity
  8
0
  6
CONTINUOUS
 62
     5
100
AcDbLine
 10
652.917055
 20
1106.196315
 30
0.0
 11
652.917055
 21
1206.196315
 31
0.0
  0
LINE
  5
2C0
330
2BB
100
AcDbEntity
  8
0
  6
CONTINUOUS
 62
     5
100
AcDbLine
 10
902.917055
 20
1106.196315
 30
0.0
 11
902.917055
 21
1206.196315
 31
0.0
  0
LINE
  5
2C1
330
2BB
100
AcDbEntity
  8
0
  6
CONTINUOUS
 62
     5
100
AcDbLine
 10
652.917055
 20
1196.196315
 30
0.0
 11
902.917055
 21
1196.196315
 31
0.0
  0
INSERT
  5
2C2
330
2BB
100
AcDbEntity
  8
0
  6
CONTINUOUS
 62
     5
100
AcDbBlockReference
  2
EDTIP_ARROW_S
 10
652.917055
 20
1196.196315
 30
0.0
 41
30.0
 42
30.0
 50
180.0
  0
INSERT
  5
2C3
330
2BB
100
AcDbEntity
  8
0
  6
CONTINUOUS
 62
     5
100
AcDbBlockReference
  2
EDTIP_ARROW_E
 10
902.917055
 20
1196.196315
 30
0.0
 41
30.0
 42
30.0
  0
ENDBLK
  5
2BD
330
2BB
100
AcDbEntity
  8
0
100
AcDbBlockEnd
  0
BLOCK
  5
2C5
330
2C4
100
AcDbEntity
  8
0
100
AcDbBlockBegin
  2
BLKF035
 70
     0
 10
0.0
 20
0.0
 30
0.0
  3
BLKF035
  1

  0
LINE
  5
2C8
330
2C4
100
AcDbEntity
  8
0
  6
CONTINUOUS
 62
     3
100
AcDbLine
 10
2315.843219
 20
1439.857555
 30
0.0
 11
2358.343219
 21
1366.245395
 31
0.0
  0
LINE
  5
2C9
330
2C4
100
AcDbEntity
  8
0
  6
CENTER
 62
     5
100
AcDbLine
 10
2348.205241
 20
1528.804888
 30
0.0
 11
2377.380061
 21
1478.272618
 31
0.0
  0
LINE
  5
2CA
330
2C4
100
AcDbEntity
  8
0
  6
CONTINUOUS
 62
     2
100
AcDbLine
 10
2364.773654
 20
1468.107555
 30
0.0
 11
2407.273654
 21
1394.495395
 31
0.0
  0
LINE
  5
2CB
330
2C4
100
AcDbEntity
  8
0
  6
CONTINUOUS
 62
     3
100
AcDbLine
 10
2320.173346
 20
1442.357555
 30
0.0
 11
2359.144489
 21
1464.857555
 31
0.0
  0
LINE
  5
2CC
330
2C4
100
AcDbEntity
  8
0
  6
CONTINUOUS
 62
     3
100
AcDbLine
 10
2361.758283
 20
1365.330332
 30
0.0
 11
2422.380061
 21
1400.330332
 31
0.0
  0
LINE
  5
2CD
330
2C4
100
AcDbEntity
  8
0
  6
CONTINUOUS
 62
     3
100
AcDbLine
 10
2319.258283
 20
1438.942491
 30
0.0
 11
2357.758283
 21
1372.258535
 31
0.0
  0
LINE
  5
2CE
330
2C4
100
AcDbEntity
  8
0
  6
CONTINUOUS
 62
     3
100
AcDbLine
 10
2362.559553
 20
1463.942491
 30
0.0
 11
2401.059553
 21
1397.258535
 31
0.0
  0
ARC
  5
2CF
330
2C4
100
AcDbEntity
  8
0
  6
CONTINUOUS
 62
     3
100
AcDbCircle
 10
2352.374827
 20
1431.582954
 30
0.0
 40
59.56818181817744
100
AcDbArc
 50
275.185163
 51
324.814837
  0
ARC
  5
2D0
330
2C4
100
AcDbEntity
  8
0
  6
CONTINUOUS
 62
     3
100
AcDbCircle
 10
2321.423346
 20
1440.192491
 30
0.0
 40
2.5
100
AcDbArc
 50
120.0
 51
210.0
  0
ARC
  5
2D1
330
2C4
100
AcDbEntity
  8
0
  6
CONTINUOUS
 62
     3
100
AcDbCircle
 10
2360.394489
 20
1462.692491
 30
0.0
 40
2.5
100
AcDbArc
 50
30.0
 51
120.0
  0
ARC
  5
2D2
330
2C4
100
AcDbEntity
  8
0
  6
CONTINUOUS
 62
     3
100
AcDbCircle
 10
2318.008283
 20
1441.107555
 30
0.0
 40
2.5
100
AcDbArc
 50
120.0
 51
210.0
  0
ARC
  5
2D3
330
2C4
100
AcDbEntity
  8
0
  6
CONTINUOUS
 62
     3
100
AcDbCircle
 10
2360.508283
 20
1367.495395
 30
0.0
 40
2.5
100
AcDbArc
 50
210.0
 51
300.0
  0
ARC
  5
2D4
330
2C4
100
AcDbEntity
  8
0
  6
CONTINUOUS
 62
     2
100
AcDbCircle
 10
2409.438718
 20
1395.745395
 30
0.0
 40
2.5
100
AcDbArc
 50
210.0
 51
300.0
  0
ARC
  5
2D5
330
2C4
100
AcDbEntity
  8
0
  6
CONTINUOUS
 62
     2
100
AcDbCircle
 10
2366.938718
 20
1469.357555
 30
0.0
 40
2.5
100
AcDbArc
 50
120.0
 51
210.0
  0
LINE
  5
2D6
330
2C4
100
AcDbEntity
  8
0
  6
CONTINUOUS
 62
     3
100
AcDbLine
 10
2438.001839
 20
1513.272618
 30
0.0
 11
2316.758283
 21
1443.272618
 31
0.0
  0
LINE
  5
2D7
330
2C4
100
AcDbEntity
  8
0
  6
CONTINUOUS
 62
     3
100
AcDbLine
 10
2441.416903
 20
1512.357555
 30
0.0
 11
2483.916903
 21
1438.745395
 31
0.0
  0
LINE
  5
2D8
330
2C4
100
AcDbEntity
  8
0
  6
CONTINUOUS
 62
     2
100
AcDbLine
 10
2392.486467
 20
1484.107555
 30
0.0
 11
2434.986467
 21
1410.495395
 31
0.0
  0
LINE
  5
2D9
330
2C4
100
AcDbEntity
  8
0
  6
CONTINUOUS
 62
     3
100
AcDbLine
 10
2483.001839
 20
1435.330332
 30
0.0
 11
2422.380061
 21
1400.330332
 31
0.0
  0
ARC
  5
2DA
330
2C4
100
AcDbEntity
  8
0
  6
CONTINUOUS
 62
     3
100
AcDbCircle
 10
2439.251839
 20
1511.107555
 30
0.0
 40
2.5
100
AcDbArc
 50
30.0
 51
120.0
  0
ARC
  5
2DB
330
2C4
100
AcDbEntity
  8
0
  6
CONTINUOUS
 62
     3
100
AcDbCircle
 10
2481.751839
 20
1437.495395
 30
0.0
 40
2.5
100
AcDbArc
 50
300.0
 51
30.0
  0
ARC
  5
2DC
330
2C4
100
AcDbEntity
  8
0
  6
CONTINUOUS
 62
     2
100
AcDbCircle
 10
2432.821404
 20
1409.245395
 30
0.0
 40
2.5
100
AcDbArc
 50
300.0
 51
30.0
  0
ARC
  5
2DD
330
2C4
100
AcDbEntity
  8
0
  6
CONTINUOUS
 62
     2
100
AcDbCircle
 10
2390.321404
 20
1482.857555
 30
0.0
 40
2.5
100
AcDbArc
 50
30.0
 51
120.0
  0
LINE
  5
2DE
330
2C4
100
AcDbEntity
  8
0
  6
CONTINUOUS
 62
     3
100
AcDbLine
 10
2437.086776
 20
1509.857555
 30
0.0
 11
2398.115632
 21
1487.357555
 31
0.0
  0
LINE
  5
2DF
330
2C4
100
AcDbEntity
  8
0
  6
CONTINUOUS
 62
     3
100
AcDbLine
 10
2440.501839
 20
1508.942491
 30
0.0
 11
2479.001839
 21
1442.258535
 31
0.0
  0
LINE
  5
2E0
330
2C4
100
AcDbEntity
  8
0
  6
CONTINUOUS
 62
     3
100
AcDbLine
 10
2397.200569
 20
1483.942491
 30
0.0
 11
2435.700569
 21
1417.258535
 31
0.0
  0
ARC
  5
2E1
330
2C4
100
AcDbEntity
  8
0
  6
CONTINUOUS
 62
     3
100
AcDbCircle
 10
2430.317113
 20
1476.582954
 30
0.0
 40
59.56818181817744
100
AcDbArc
 50
275.185163
 51
324.814837
  0
ARC
  5
2E2
330
2C4
100
AcDbEntity
  8
0
  6
CONTINUOUS
 62
     3
100
AcDbCircle
 10
2438.336776
 20
1507.692491
 30
0.0
 40
2.5
100
AcDbArc
 50
30.0
 51
120.0
  0
ARC
  5
2E3
330
2C4
100
AcDbEntity
  8
0
  6
CONTINUOUS
 62
     3
100
AcDbCircle
 10
2399.365632
 20
1485.192491
 30
0.0
 40
2.5
100
AcDbArc
 50
120.0
 51
210.0
  0
LINE
  5
2E4
330
2C4
100
AcDbEntity
  8
0
  6
CONTINUOUS
 62
     3
100
AcDbLine
 10
2379.942239
 20
1487.834796
 30
0.0
 11
2367.817883
 21
1480.834796
 31
0.0
  0
LINE
  5
2E5
330
2C4
100
AcDbEntity
  8
0
  6
CONTINUOUS
 62
     3
100
AcDbLine
 10
2381.308264
 20
1487.468771
 30
0.0
 11
2384.308264
 21
1482.272618
 31
0.0
  0
LINE
  5
2E6
330
2C4
100
AcDbEntity
  8
0
  6
CONTINUOUS
 62
     3
100
AcDbLine
 10
2367.451858
 20
1479.468771
 30
0.0
 11
2370.451858
 21
1474.272618
 31
0.0
  0
ARC
  5
2E7
330
2C4
100
AcDbEntity
  8
0
  6
CONTINUOUS
 62
     3
100
AcDbCircle
 10
2368.317883
 20
1479.968771
 30
0.0
 40
1.0
100
AcDbArc
 50
120.0
 51
210.0
  0
ARC
  5
2E8
330
2C4
100
AcDbEntity
  8
0
  6
CONTINUOUS
 62
     3
100
AcDbCircle
 10
2380.442239
 20
1486.968771
 30
0.0
 40
1.0
100
AcDbArc
 50
30.0
 51
120.0
  0
LINE
  5
2E9
330
2C4
100
AcDbEntity
  8
0
  6
CONTINUOUS
 62
     2
100
AcDbLine
 10
2376.593395
 20
1455.309845
 30
0.0
 11
2372.025895
 21
1463.220987
 31
0.0
  0
LINE
  5
2EA
330
2C4
100
AcDbEntity
  8
0
  6
CONTINUOUS
 62
     2
100
AcDbLine
 10
2397.053245
 20
1467.122345
 30
0.0
 11
2392.485745
 21
1475.033487
 31
0.0
  0
LINE
  5
2EB
330
2C4
100
AcDbEntity
  8
0
  6
CONTINUOUS
 62
     2
100
AcDbLine
 10
2372.487087
 20
1464.942179
 30
0.0
 11
2390.764553
 21
1475.494679
 31
0.0
  0
LINE
  5
2EC
330
2C4
100
AcDbEntity
  8
0
  6
CONTINUOUS
 62
     2
100
AcDbLine
 10
2378.314587
 20
1454.848653
 30
0.0
 11
2396.592053
 21
1465.401153
 31
0.0
  0
LINE
  5
2ED
330
2C4
100
AcDbEntity
  8
0
  6
CONTINUOUS
 62
     2
100
AcDbLine
 10
2395.101457
 20
1466.722941
 30
0.0
 11
2391.085207
 21
1473.67929
 31
0.0
  0
LINE
  5
2EE
330
2C4
100
AcDbEntity
  8
0
  6
CONTINUOUS
 62
     2
100
AcDbLine
 10
2392.373477
 20
1465.147941
 30
0.0
 11
2391.900977
 21
1465.966335
 31
0.0
  0
LINE
  5
2EF
330
2C4
100
AcDbEntity
  8
0
  6
CONTINUOUS
 62
     2
100
AcDbLine
 10
2384.871532
 20
1460.816691
 30
0.0
 11
2384.399032
 21
1461.635085
 31
0.0
  0
LINE
  5
2F0
330
2C4
100
AcDbEntity
  8
0
  6
CONTINUOUS
 62
     2
100
AcDbLine
 10
2380.915961
 20
1458.532941
 30
0.0
 11
2378.395961
 21
1462.897709
 31
0.0
  0
LINE
  5
2F1
330
2C4
100
AcDbEntity
  8
0
  6
CONTINUOUS
 62
     2
100
AcDbLine
 10
2382.422004
 20
1458.129398
 30
0.0
 11
2384.467989
 21
1459.310648
 31
0.0
  0
LINE
  5
2F2
330
2C4
100
AcDbEntity
  8
0
  6
CONTINUOUS
 62
     2
100
AcDbLine
 10
2378.799504
 20
1464.403752
 30
0.0
 11
2380.845489
 21
1465.585002
 31
0.0
  0
LINE
  5
2F3
330
2C4
100
AcDbEntity
  8
0
  6
CONTINUOUS
 62
     2
100
AcDbLine
 10
2388.76077
 20
1473.610333
 30
0.0
 11
2389.579164
 21
1474.082833
 31
0.0
  0
LINE
  5
2F4
330
2C4
100
AcDbEntity
  8
0
  6
CONTINUOUS
 62
     2
100
AcDbLine
 10
2384.744926
 20
1462.925979
 30
0.0
 11
2390.610083
 21
1466.312229
 31
0.0
  0
LINE
  5
2F5
330
2C4
100
AcDbEntity
  8
0
  6
CONTINUOUS
 62
     2
100
AcDbLine
 10
2384.351176
 20
1463.607974
 30
0.0
 11
2390.216333
 21
1466.994224
 31
0.0
  0
ARC
  5
2F6
330
2C4
100
AcDbEntity
  8
0
  6
CONTINUOUS
 62
     2
100
AcDbCircle
 10
2381.870754
 20
1459.084191
 30
0.0
 40
1.1025
100
AcDbArc
 50
210.0
 51
300.0
  0
ARC
  5
2F7
330
2C4
100
AcDbEntity
  8
0
  6
CONTINUOUS
 62
     2
100
AcDbCircle
 10
2379.350754
 20
1463.448959
 30
0.0
 40
1.1025
100
AcDbArc
 50
120.0
 51
210.0
  0
ARC
  5
2F8
330
2C4
100
AcDbEntity
  8
0
  6
CONTINUOUS
 62
     2
100
AcDbCircle
 10
2381.396739
 20
1464.630209
 30
0.0
 40
1.1025
100
AcDbArc
 50
30.0
 51
120.0
  0
ARC
  5
2F9
330
2C4
100
AcDbEntity
  8
0
  6
CONTINUOUS
 62
     2
100
AcDbCircle
 10
2383.916739
 20
1460.265441
 30
0.0
 40
1.1025
100
AcDbArc
 50
300.0
 51
30.0
  0
ARC
  5
2FA
330
2C4
100
AcDbEntity
  8
0
  6
CONTINUOUS
 62
     2
100
AcDbCircle
 10
2389.31202
 20
1472.65554
 30
0.0
 40
1.1025
100
AcDbArc
 50
120.0
 51
210.0
  0
ARC
  5
2FB
330
2C4
100
AcDbEntity
  8
0
  6
CONTINUOUS
 62
     2
100
AcDbCircle
 10
2390.130414
 20
1473.12804
 30
0.0
 40
1.1025
100
AcDbArc
 50
30.0
 51
120.0
  0
ARC
  5
2FC
330
2C4
100
AcDbEntity
  8
0
  6
CONTINUOUS
 62
     2
100
AcDbCircle
 10
2394.146664
 20
1466.171691
 30
0.0
 40
1.1025
100
AcDbArc
 50
300.0
 51
30.0
  0
ARC
  5
2FD
330
2C4
100
AcDbEntity
  8
0
  6
CONTINUOUS
 62
     2
100
AcDbCircle
 10
2393.32827
 20
1465.699191
 30
0.0
 40
1.1025
100
AcDbArc
 50
210.0
 51
300.0
  0
LINE
  5
2FE
330
2C4
100
AcDbEntity
  8
0
  6
CONTINUOUS
 62
     2
100
AcDbLine
 10
2383.060282
 20
1463.953868
 30
0.0
 11
2382.351532
 21
1465.181459
 31
0.0
  0
LINE
  5
2FF
330
2C4
100
AcDbEntity
  8
0
  6
CONTINUOUS
 62
     2
100
AcDbLine
 10
2390.562227
 20
1468.285118
 30
0.0
 11
2388.357227
 21
1472.10429
 31
0.0
  0
ARC
  5
300
330
2C4
100
AcDbEntity
  8
0
  6
CONTINUOUS
 62
     2
100
AcDbCircle
 10
2385.217426
 20
1462.107585
 30
0.0
 40
0.9450000000000001
100
AcDbArc
 50
120.0
 51
210.0
  0
ARC
  5
301
330
2C4
100
AcDbEntity
  8
0
  6
CONTINUOUS
 62
     2
100
AcDbCircle
 10
2383.878676
 20
1464.426368
 30
0.0
 40
0.9450000000000001
100
AcDbArc
 50
210.0
 51
300.0
  0
ARC
  5
302
330
2C4
100
AcDbEntity
  8
0
  6
CONTINUOUS
 62
     2
100
AcDbCircle
 10
2389.743833
 20
1467.812618
 30
0.0
 40
0.9450000000000001
100
AcDbArc
 50
300.0
 51
30.0
  0
ARC
  5
303
330
2C4
100
AcDbEntity
  8
0
  6
CONTINUOUS
 62
     2
100
AcDbCircle
 10
2377.684587
 20
1455.939845
 30
0.0
 40
1.26
100
AcDbArc
 50
210.0
 51
300.0
  0
ARC
  5
304
330
2C4
100
AcDbEntity
  8
0
  6
CONTINUOUS
 62
     2
100
AcDbCircle
 10
2373.117087
 20
1463.850987
 30
0.0
 40
1.26
100
AcDbArc
 50
120.0
 51
210.0
  0
ARC
  5
305
330
2C4
100
AcDbEntity
  8
0
  6
CONTINUOUS
 62
     2
100
AcDbCircle
 10
2391.394553
 20
1474.403487
 30
0.0
 40
1.26
100
AcDbArc
 50
30.0
 51
120.0
  0
ARC
  5
306
330
2C4
100
AcDbEntity
  8
0
  6
CONTINUOUS
 62
     2
100
AcDbCircle
 10
2395.962053
 20
1466.492345
 30
0.0
 40
1.26
100
AcDbArc
 50
300.0
 51
30.0
  0
ARC
  5
307
330
2C4
100
AcDbEntity
  8
0
  6
CONTINUOUS
 62
     2
100
AcDbCircle
 10
2391.082583
 20
1465.493835
 30
0.0
 40
0.9450000000000001
100
AcDbArc
 50
30.0
 51
120.0
  0
LINE
  5
308
330
2C4
100
AcDbEntity
  8
0
  6
CONTINUOUS
 62
     2
100
AcDbLine
 10
2393.87952
 20
1464.744398
 30
0.0
 11
2394.697914
 21
1465.216898
 31
0.0
  0
CIRCLE
  5
309
330
2C4
100
AcDbEntity
  8
0
  6
CONTINUOUS
 62
     2
100
AcDbCircle
 10
2421.49835
 20
1418.091459
 30
0.0
 40
1.5
  0
CIRCLE
  5
30A
330
2C4
100
AcDbEntity
  8
0
  6
CONTINUOUS
 62
     2
100
AcDbCircle
 10
2421.49835
 20
1418.091459
 30
0.0
 40
1.0
  0
POINT
  5
30B
330
2C4
100
AcDbEntity
  8
0
  6
CONTINUOUS
 62
     2
100
AcDbPoint
 10
2421.49835
 20
1418.091459
 30
0.0
  0
CIRCLE
  5
30C
330
2C4
100
AcDbEntity
  8
0
  6
CONTINUOUS
 62
     2
100
AcDbCircle
 10
2416.49835
 20
1426.751713
 30
0.0
 40
1.5
  0
CIRCLE
  5
30D
330
2C4
100
AcDbEntity
  8
0
  6
CONTINUOUS
 62
     2
100
AcDbCircle
 10
2416.49835
 20
1426.751713
 30
0.0
 40
1.0
  0
POINT
  5
30E
330
2C4
100
AcDbEntity
  8
0
  6
CONTINUOUS
 62
     2
100
AcDbPoint
 10
2416.49835
 20
1426.751713
 30
0.0
  0
CIRCLE
  5
30F
330
2C4
100
AcDbEntity
  8
0
  6
CONTINUOUS
 62
     2
100
AcDbCircle
 10
2411.49835
 20
1435.411967
 30
0.0
 40
1.5
  0
CIRCLE
  5
310
330
2C4
100
AcDbEntity
  8
0
  6
CONTINUOUS
 62
     2
100
AcDbCircle
 10
2411.49835
 20
1435.411967
 30
0.0
 40
1.0
  0
POINT
  5
311
330
2C4
100
AcDbEntity
  8
0
  6
CONTINUOUS
 62
     2
100
AcDbPoint
 10
2411.49835
 20
1435.411967
 30
0.0
  0
TEXT
  5
312
330
2C4
100
AcDbEntity
  8
0
  6
CONTINUOUS
 62
     2
100
AcDbText
 10
2410.081304
 20
1409.394446
 30
0.0
 40
3.646549
  1
3
 50
30.0
 41
1.113868
  7
ED_VECTOR
100
AcDbText
  0
TEXT
  5
313
330
2C4
100
AcDbEntity
  8
0
  6
CONTINUOUS
 62
     2
100
AcDbText
 10
2405.081304
 20
1418.054602
 30
0.0
 40
3.646549
  1
2
 50
30.0
 41
1.113868
  7
ED_VECTOR
100
AcDbText
  0
TEXT
  5
314
330
2C4
100
AcDbEntity
  8
0
  6
CONTINUOUS
 62
     2
100
AcDbText
 10
2400.081304
 20
1426.714758
 30
0.0
 40
3.646549
  1
1
 50
30.0
 41
1.113868
  7
ED_VECTOR
100
AcDbText
  0
CIRCLE
  5
315
330
2C4
100
AcDbEntity
  8
0
  6
CONTINUOUS
 62
     2
100
AcDbCircle
 10
2351.328791
 20
1423.394742
 30
0.0
 40
2.5
  0
CIRCLE
  5
316
330
2C4
100
AcDbEntity
  8
0
  6
CONTINUOUS
 62
     2
100
AcDbCircle
 10
2342.668537
 20
1418.394742
 30
0.0
 40
2.5
  0
CIRCLE
  5
317
330
2C4
100
AcDbEntity
  8
0
  6
CONTINUOUS
 62
     2
100
AcDbCircle
 10
2347.668537
 20
1409.734488
 30
0.0
 40
2.5
  0
CIRCLE
  5
318
330
2C4
100
AcDbEntity
  8
0
  6
CONTINUOUS
 62
     2
100
AcDbCircle
 10
2356.328791
 20
1414.734488
 30
0.0
 40
2.5
  0
CIRCLE
  5
319
330
2C4
100
AcDbEntity
  8
0
  6
CONTINUOUS
 62
     2
100
AcDbCircle
 10
2361.328791
 20
1406.074234
 30
0.0
 40
2.5
  0
CIRCLE
  5
31A
330
2C4
100
AcDbEntity
  8
0
  6
CONTINUOUS
 62
     2
100
AcDbCircle
 10
2352.668537
 20
1401.074234
 30
0.0
 40
2.5
  0
CIRCLE
  5
31B
330
2C4
100
AcDbEntity
  8
0
  6
CONTINUOUS
 62
     2
100
AcDbCircle
 10
2357.668537
 20
1392.41398
 30
0.0
 40
2.5
  0
CIRCLE
  5
31C
330
2C4
100
AcDbEntity
  8
0
  6
CONTINUOUS
 62
     2
100
AcDbCircle
 10
2366.328791
 20
1397.41398
 30
0.0
 40
2.5
  0
CIRCLE
  5
31D
330
2C4
100
AcDbEntity
  8
0
  6
CONTINUOUS
 62
     2
100
AcDbCircle
 10
2371.328791
 20
1388.753726
 30
0.0
 40
2.5
  0
CIRCLE
  5
31E
330
2C4
100
AcDbEntity
  8
0
  6
CONTINUOUS
 62
     2
100
AcDbCircle
 10
2362.668537
 20
1383.753726
 30
0.0
 40
2.5
  0
CIRCLE
  5
31F
330
2C4
100
AcDbEntity
  8
0
  6
CONTINUOUS
 62
     2
100
AcDbCircle
 10
2359.989045
 20
1428.394742
 30
0.0
 40
2.5
  0
CIRCLE
  5
320
330
2C4
100
AcDbEntity
  8
0
  6
CONTINUOUS
 62
     2
100
AcDbCircle
 10
2368.649299
 20
1433.394742
 30
0.0
 40
2.5
  0
CIRCLE
  5
321
330
2C4
100
AcDbEntity
  8
0
  6
CONTINUOUS
 62
     2
100
AcDbCircle
 10
2373.649299
 20
1424.734488
 30
0.0
 40
2.5
  0
CIRCLE
  5
322
330
2C4
100
AcDbEntity
  8
0
  6
CONTINUOUS
 62
     2
100
AcDbCircle
 10
2364.989045
 20
1419.734488
 30
0.0
 40
2.5
  0
CIRCLE
  5
323
330
2C4
100
AcDbEntity
  8
0
  6
CONTINUOUS
 62
     2
100
AcDbCircle
 10
2369.989045
 20
1411.074234
 30
0.0
 40
2.5
  0
CIRCLE
  5
324
330
2C4
100
AcDbEntity
  8
0
  6
CONTINUOUS
 62
     2
100
AcDbCircle
 10
2378.649299
 20
1416.074234
 30
0.0
 40
2.5
  0
CIRCLE
  5
325
330
2C4
100
AcDbEntity
  8
0
  6
CONTINUOUS
 62
     2
100
AcDbCircle
 10
2383.649299
 20
1407.41398
 30
0.0
 40
2.5
  0
CIRCLE
  5
326
330
2C4
100
AcDbEntity
  8
0
  6
CONTINUOUS
 62
     2
100
AcDbCircle
 10
2374.989045
 20
1402.41398
 30
0.0
 40
2.5
  0
CIRCLE
  5
327
330
2C4
100
AcDbEntity
  8
0
  6
CONTINUOUS
 62
     2
100
AcDbCircle
 10
2379.989045
 20
1393.753726
 30
0.0
 40
2.5
  0
CIRCLE
  5
328
330
2C4
100
AcDbEntity
  8
0
  6
CONTINUOUS
 62
     2
100
AcDbCircle
 10
2388.649299
 20
1398.753726
 30
0.0
 40
2.5
  0
CIRCLE
  5
329
330
2C4
100
AcDbEntity
  8
0
  6
CONTINUOUS
 62
     2
100
AcDbCircle
 10
2437.931331
 20
1473.394742
 30
0.0
 40
2.5
  0
CIRCLE
  5
32A
330
2C4
100
AcDbEntity
  8
0
  6
CONTINUOUS
 62
     2
100
AcDbCircle
 10
2446.591585
 20
1478.394742
 30
0.0
 40
2.5
  0
CIRCLE
  5
32B
330
2C4
100
AcDbEntity
  8
0
  6
CONTINUOUS
 62
     2
100
AcDbCircle
 10
2451.591585
 20
1469.734488
 30
0.0
 40
2.5
  0
CIRCLE
  5
32C
330
2C4
100
AcDbEntity
  8
0
  6
CONTINUOUS
 62
     2
100
AcDbCircle
 10
2442.931331
 20
1464.734488
 30
0.0
 40
2.5
  0
CIRCLE
  5
32D
330
2C4
100
AcDbEntity
  8
0
  6
CONTINUOUS
 62
     2
100
AcDbCircle
 10
2447.931331
 20
1456.074234
 30
0.0
 40
2.5
  0
CIRCLE
  5
32E
330
2C4
100
AcDbEntity
  8
0
  6
CONTINUOUS
 62
     2
100
AcDbCircle
 10
2456.591585
 20
1461.074234
 30
0.0
 40
2.5
  0
CIRCLE
  5
32F
330
2C4
100
AcDbEntity
  8
0
  6
CONTINUOUS
 62
     2
100
AcDbCircle
 10
2461.591585
 20
1452.41398
 30
0.0
 40
2.5
  0
CIRCLE
  5
330
330
2C4
100
AcDbEntity
  8
0
  6
CONTINUOUS
 62
     2
100
AcDbCircle
 10
2452.931331
 20
1447.41398
 30
0.0
 40
2.5
  0
CIRCLE
  5
331
330
2C4
100
AcDbEntity
  8
0
  6
CONTINUOUS
 62
     2
100
AcDbCircle
 10
2457.931331
 20
1438.753726
 30
0.0
 40
2.5
  0
CIRCLE
  5
332
330
2C4
100
AcDbEntity
  8
0
  6
CONTINUOUS
 62
     2
100
AcDbCircle
 10
2466.591585
 20
1443.753726
 30
0.0
 40
2.5
  0
CIRCLE
  5
333
330
2C4
100
AcDbEntity
  8
0
  6
CONTINUOUS
 62
     2
100
AcDbCircle
 10
2429.271077
 20
1468.394742
 30
0.0
 40
2.5
  0
CIRCLE
  5
334
330
2C4
100
AcDbEntity
  8
0
  6
CONTINUOUS
 62
     2
100
AcDbCircle
 10
2420.610823
 20
1463.394742
 30
0.0
 40
2.5
  0
CIRCLE
  5
335
330
2C4
100
AcDbEntity
  8
0
  6
CONTINUOUS
 62
     2
100
AcDbCircle
 10
2425.610823
 20
1454.734488
 30
0.0
 40
2.5
  0
CIRCLE
  5
336
330
2C4
100
AcDbEntity
  8
0
  6
CONTINUOUS
 62
     2
100
AcDbCircle
 10
2434.271077
 20
1459.734488
 30
0.0
 40
2.5
  0
CIRCLE
  5
337
330
2C4
100
AcDbEntity
  8
0
  6
CONTINUOUS
 62
     2
100
AcDbCircle
 10
2439.271077
 20
1451.074234
 30
0.0
 40
2.5
  0
CIRCLE
  5
338
330
2C4
100
AcDbEntity
  8
0
  6
CONTINUOUS
 62
     2
100
AcDbCircle
 10
2430.610823
 20
1446.074234
 30
0.0
 40
2.5
  0
CIRCLE
  5
339
330
2C4
100
AcDbEntity
  8
0
  6
CONTINUOUS
 62
     2
100
AcDbCircle
 10
2435.610823
 20
1437.41398
 30
0.0
 40
2.5
  0
CIRCLE
  5
33A
330
2C4
100
AcDbEntity
  8
0
  6
CONTINUOUS
 62
     2
100
AcDbCircle
 10
2444.271077
 20
1442.41398
 30
0.0
 40
2.5
  0
CIRCLE
  5
33B
330
2C4
100
AcDbEntity
  8
0
  6
CONTINUOUS
 62
     2
100
AcDbCircle
 10
2449.271077
 20
1433.753726
 30
0.0
 40
2.5
  0
CIRCLE
  5
33C
330
2C4
100
AcDbEntity
  8
0
  6
CONTINUOUS
 62
     2
100
AcDbCircle
 10
2440.610823
 20
1428.753726
 30
0.0
 40
2.5
  0
LINE
  5
33D
330
2C4
100
AcDbEntity
  8
0
  6
CONTINUOUS
 62
     2
100
AcDbLine
 10
2405.44576
 20
1484.661402
 30
0.0
 11
2435.756649
 21
1502.161402
 31
0.0
  0
LINE
  5
33E
330
2C4
100
AcDbEntity
  8
0
  6
CONTINUOUS
 62
     2
100
AcDbLine
 10
2413.44576
 20
1470.804996
 30
0.0
 11
2443.756649
 21
1488.304996
 31
0.0
  0
LINE
  5
33F
330
2C4
100
AcDbEntity
  8
0
  6
CONTINUOUS
 62
     2
100
AcDbLine
 10
2404.896721
 20
1482.612364
 30
0.0
 11
2411.396721
 21
1471.354034
 31
0.0
  0
LINE
  5
340
330
2C4
100
AcDbEntity
  8
0
  6
CONTINUOUS
 62
     2
100
AcDbLine
 10
2405.94576
 20
1483.795377
 30
0.0
 11
2436.256649
 21
1501.295377
 31
0.0
  0
LINE
  5
341
330
2C4
100
AcDbEntity
  8
0
  6
CONTINUOUS
 62
     2
100
AcDbLine
 10
2412.94576
 20
1471.671021
 30
0.0
 11
2443.256649
 21
1489.171021
 31
0.0
  0
LINE
  5
342
330
2C4
100
AcDbEntity
  8
0
  6
CONTINUOUS
 62
     2
100
AcDbLine
 10
2405.762747
 20
1483.112364
 30
0.0
 11
2412.262747
 21
1471.854034
 31
0.0
  0
LINE
  5
343
330
2C4
100
AcDbEntity
  8
0
  6
CONTINUOUS
 62
     2
100
AcDbLine
 10
2437.805687
 20
1501.612364
 30
0.0
 11
2444.305687
 21
1490.354034
 31
0.0
  0
LINE
  5
344
330
2C4
100
AcDbEntity
  8
0
  6
CONTINUOUS
 62
     2
100
AcDbLine
 10
2436.939661
 20
1501.112364
 30
0.0
 11
2443.439661
 21
1489.854034
 31
0.0
  0
ARC
  5
345
330
2C4
100
AcDbEntity
  8
0
  6
CONTINUOUS
 62
     2
100
AcDbCircle
 10
2406.19576
 20
1483.362364
 30
0.0
 40
0.5
100
AcDbArc
 50
120.0
 51
210.0
  0
ARC
  5
346
330
2C4
100
AcDbEntity
  8
0
  6
CONTINUOUS
 62
     2
100
AcDbCircle
 10
2412.69576
 20
1472.104034
 30
0.0
 40
0.5
100
AcDbArc
 50
210.0
 51
300.0
  0
ARC
  5
347
330
2C4
100
AcDbEntity
  8
0
  6
CONTINUOUS
 62
     2
100
AcDbCircle
 10
2436.506649
 20
1500.862364
 30
0.0
 40
0.5
100
AcDbArc
 50
30.0
 51
120.0
  0
ARC
  5
348
330
2C4
100
AcDbEntity
  8
0
  6
CONTINUOUS
 62
     2
100
AcDbCircle
 10
2443.006649
 20
1489.604034
 30
0.0
 40
0.5
100
AcDbArc
 50
300.0
 51
30.0
  0
ARC
  5
349
330
2C4
100
AcDbEntity
  8
0
  6
CONTINUOUS
 62
     2
100
AcDbCircle
 10
2406.19576
 20
1483.362364
 30
0.0
 40
1.5
100
AcDbArc
 50
120.0
 51
210.0
  0
ARC
  5
34A
330
2C4
100
AcDbEntity
  8
0
  6
CONTINUOUS
 62
     2
100
AcDbCircle
 10
2412.69576
 20
1472.104034
 30
0.0
 40
1.5
100
AcDbArc
 50
210.0
 51
300.0
  0
ARC
  5
34B
330
2C4
100
AcDbEntity
  8
0
  6
CONTINUOUS
 62
     2
100
AcDbCircle
 10
2436.506649
 20
1500.862364
 30
0.0
 40
1.5
100
AcDbArc
 50
30.0
 51
120.0
  0
ARC
  5
34C
330
2C4
100
AcDbEntity
  8
0
  6
CONTINUOUS
 62
     2
100
AcDbCircle
 10
2443.006649
 20
1489.604034
 30
0.0
 40
1.5
100
AcDbArc
 50
300.0
 51
30.0
  0
LINE
  5
34D
330
2C4
100
AcDbEntity
  8
0
  6
CONTINUOUS
 62
     2
100
AcDbLine
 10
2415.306975
 20
1484.581275
 30
0.0
 11
2430.895433
 21
1493.581275
 31
0.0
  0
LINE
  5
34E
330
2C4
100
AcDbEntity
  8
0
  6
CONTINUOUS
 62
     2
100
AcDbLine
 10
2421.562168
 20
1491.746964
 30
0.0
 11
2430.895433
 21
1493.581275
 31
0.0
  0
LINE
  5
34F
330
2C4
100
AcDbEntity
  8
0
  6
CONTINUOUS
 62
     2
100
AcDbLine
 10
2421.562168
 20
1491.746964
 30
0.0
 11
2415.306975
 21
1484.581275
 31
0.0
  0
TEXT
  5
350
330
2C4
100
AcDbEntity
  8
0
  6
CONTINUOUS
 62
     2
100
AcDbText
 10
2419.471235
 20
1477.408359
 30
0.0
 40
7.066058
  1
UP
 50
30.0
 41
1.166654
  7
ED_VECTOR
100
AcDbText
  0
LINE
  5
351
330
2C4
100
AcDbEntity
  8
0
  6
CONTINUOUS
 62
     2
100
AcDbLine
 10
2357.814362
 20
1457.161402
 30
0.0
 11
2327.503473
 21
1439.661402
 31
0.0
  0
LINE
  5
352
330
2C4
100
AcDbEntity
  8
0
  6
CONTINUOUS
 62
     2
100
AcDbLine
 10
2365.814362
 20
1443.304996
 30
0.0
 11
2335.503473
 21
1425.804996
 31
0.0
  0
LINE
  5
353
330
2C4
100
AcDbEntity
  8
0
  6
CONTINUOUS
 62
     2
100
AcDbLine
 10
2359.8634
 20
1456.612364
 30
0.0
 11
2366.3634
 21
1445.354034
 31
0.0
  0
LINE
  5
354
330
2C4
100
AcDbEntity
  8
0
  6
CONTINUOUS
 62
     2
100
AcDbLine
 10
2358.314362
 20
1456.295377
 30
0.0
 11
2328.003473
 21
1438.795377
 31
0.0
  0
LINE
  5
355
330
2C4
100
AcDbEntity
  8
0
  6
CONTINUOUS
 62
     2
100
AcDbLine
 10
2365.314362
 20
1444.171021
 30
0.0
 11
2335.003473
 21
1426.671021
 31
0.0
  0
LINE
  5
356
330
2C4
100
AcDbEntity
  8
0
  6
CONTINUOUS
 62
     2
100
AcDbLine
 10
2358.997375
 20
1456.112364
 30
0.0
 11
2365.497375
 21
1444.854034
 31
0.0
  0
LINE
  5
357
330
2C4
100
AcDbEntity
  8
0
  6
CONTINUOUS
 62
     2
100
AcDbLine
 10
2326.954435
 20
1437.612364
 30
0.0
 11
2333.454435
 21
1426.354034
 31
0.0
  0
LINE
  5
358
330
2C4
100
AcDbEntity
  8
0
  6
CONTINUOUS
 62
     2
100
AcDbLine
 10
2327.82046
 20
1438.112364
 30
0.0
 11
2334.32046
 21
1426.854034
 31
0.0
  0
ARC
  5
359
330
2C4
100
AcDbEntity
  8
0
  6
CONTINUOUS
 62
     2
100
AcDbCircle
 10
2358.564362
 20
1455.862364
 30
0.0
 40
0.5
100
AcDbArc
 50
30.0
 51
120.0
  0
ARC
  5
35A
330
2C4
100
AcDbEntity
  8
0
  6
CONTINUOUS
 62
     2
100
AcDbCircle
 10
2365.064362
 20
1444.604034
 30
0.0
 40
0.5
100
AcDbArc
 50
300.0
 51
30.0
  0
ARC
  5
35B
330
2C4
100
AcDbEntity
  8
0
  6
CONTINUOUS
 62
     2
100
AcDbCircle
 10
2328.253473
 20
1438.362364
 30
0.0
 40
0.5
100
AcDbArc
 50
120.0
 51
210.0
  0
ARC
  5
35C
330
2C4
100
AcDbEntity
  8
0
  6
CONTINUOUS
 62
     2
100
AcDbCircle
 10
2334.753473
 20
1427.104034
 30
0.0
 40
0.5
100
AcDbArc
 50
210.0
 51
300.0
  0
ARC
  5
35D
330
2C4
100
AcDbEntity
  8
0
  6
CONTINUOUS
 62
     2
100
AcDbCircle
 10
2358.564362
 20
1455.862364
 30
0.0
 40
1.5
100
AcDbArc
 50
30.0
 51
120.0
  0
ARC
  5
35E
330
2C4
100
AcDbEntity
  8
0
  6
CONTINUOUS
 62
     2
100
AcDbCircle
 10
2365.064362
 20
1444.604034
 30
0.0
 40
1.5
100
AcDbArc
 50
300.0
 51
30.0
  0
ARC
  5
35F
330
2C4
100
AcDbEntity
  8
0
  6
CONTINUOUS
 62
     2
100
AcDbCircle
 10
2328.253473
 20
1438.362364
 30
0.0
 40
1.5
100
AcDbArc
 50
120.0
 51
210.0
  0
ARC
  5
360
330
2C4
100
AcDbEntity
  8
0
  6
CONTINUOUS
 62
     2
100
AcDbCircle
 10
2334.753473
 20
1427.104034
 30
0.0
 40
1.5
100
AcDbArc
 50
210.0
 51
300.0
  0
LINE
  5
361
330
2C4
100
AcDbEntity
  8
0
  6
CONTINUOUS
 62
     2
100
AcDbLine
 10
2355.689612
 20
1443.841579
 30
0.0
 11
2340.101154
 21
1434.841579
 31
0.0
  0
LINE
  5
362
330
2C4
100
AcDbEntity
  8
0
  6
CONTINUOUS
 62
     2
100
AcDbLine
 10
2349.434419
 20
1436.67589
 30
0.0
 11
2340.101154
 21
1434.841579
 31
0.0
  0
LINE
  5
363
330
2C4
100
AcDbEntity
  8
0
  6
CONTINUOUS
 62
     2
100
AcDbLine
 10
2349.434419
 20
1436.67589
 30
0.0
 11
2355.689612
 21
1443.841579
 31
0.0
  0
TEXT
  5
364
330
2C4
100
AcDbEntity
  8
0
  6
CONTINUOUS
 62
     2
100
AcDbText
 10
2334.361676
 20
1433.387091
 30
0.0
 40
6.383575
  1
DOWN
 50
30.0
 41
0.969444
  7
ED_VECTOR
100
AcDbText
  0
ENDBLK
  5
2C6
330
2C4
100
AcDbEntity
  8
0
100
AcDbBlockEnd
  0
BLOCK
  5
367
330
366
100
AcDbEntity
  8
0
100
AcDbBlockBegin
  2
EDDIM036
 70
     0
 10
0.0
 20
0.0
 30
0.0
  3
EDDIM036
  1

  0
TEXT
  5
36A
330
366
100
AcDbEntity
  8
0
  6
CONTINUOUS
 62
     3
100
AcDbText
 10
1137.009521
 20
1912.241699
 30
0.0
 40
30.0
  1
アンカーピッチ
 41
0.8
  7
ED_VECTOR
100
AcDbText
  0
LINE
  5
36B
330
366
100
AcDbEntity
  8
0
  6
CONTINUOUS
 62
     6
100
AcDbLine
 10
1118.698032
 20
1911.241655
 30
0.0
 11
1321.009266
 21
1911.241655
 31
0.0
  0
ENDBLK
  5
368
330
366
100
AcDbEntity
  8
0
100
AcDbBlockEnd
  0
BLOCK
  5
36E
330
36D
100
AcDbEntity
  8
0
100
AcDbBlockBegin
  2
*D34
 70
     1
 10
0.0
 20
0.0
 30
0.0
  3
*D34
  1

  0
TEXT
  5
370
330
36D
100
AcDbEntity
  8
0
  6
CONTINUOUS
 62
     3
100
AcDbText
 10
1196.69812
 20
1611.674194
 30
0.0
 40
32.0
  1
200
 50
90.0
 41
0.78125
  7
ED_VECTOR
100
AcDbText
  0
LINE
  5
371
330
36D
100
AcDbEntity
  8
0
  6
CONTINUOUS
 62
     5
100
AcDbLine
 10
1288.698032
 20
1549.174198
 30
0.0
 11
1188.698032
 21
1549.174198
 31
0.0
  0
LINE
  5
372
330
36D
100
AcDbEntity
  8
0
  6
CONTINUOUS
 62
     5
100
AcDbLine
 10
1288.698032
 20
1749.174198
 30
0.0
 11
1188.698032
 21
1749.174198
 31
0.0
  0
LINE
  5
373
330
36D
100
AcDbEntity
  8
0
  6
CONTINUOUS
 62
     5
100
AcDbLine
 10
1198.698032
 20
1549.174198
 30
0.0
 11
1198.698032
 21
1749.174198
 31
0.0
  0
INSERT
  5
374
330
36D
100
AcDbEntity
  8
0
  6
CONTINUOUS
 62
     5
100
AcDbBlockReference
  2
EDTIP_ARROW_S
 10
1198.698032
 20
1549.174198
 30
0.0
 41
30.0
 42
30.0
 50
270.0
  0
INSERT
  5
375
330
36D
100
AcDbEntity
  8
0
  6
CONTINUOUS
 62
     5
100
AcDbBlockReference
  2
EDTIP_ARROW_E
 10
1198.698032
 20
1749.174198
 30
0.0
 41
30.0
 42
30.0
 50
90.0
  0
ENDBLK
  5
36F
330
36D
100
AcDbEntity
  8
0
100
AcDbBlockEnd
  0
BLOCK
  5
378
330
377
100
AcDbEntity
  8
0
100
AcDbBlockBegin
  2
*D35
 70
     1
 10
0.0
 20
0.0
 30
0.0
  3
*D35
  1

  0
TEXT
  5
37A
330
377
100
AcDbEntity
  8
0
  6
CONTINUOUS
 62
     3
100
AcDbText
 10
1117.698242
 20
1612.174316
 30
0.0
 40
30.0
  1
250
 50
90.0
 41
0.8
  7
ED_VECTOR
100
AcDbText
  0
LINE
  5
37B
330
377
100
AcDbEntity
  8
0
  6
CONTINUOUS
 62
     6
100
AcDbLine
 10
1295.004106
 20
1524.174198
 30
0.0
 11
1108.698032
 21
1524.174198
 31
0.0
  0
LINE
  5
37C
330
377
100
AcDbEntity
  8
0
  6
CONTINUOUS
 62
     6
100
AcDbLine
 10
1295.004106
 20
1774.174198
 30
0.0
 11
1108.698032
 21
1774.174198
 31
0.0
  0
LINE
  5
37D
330
377
100
AcDbEntity
  8
0
  6
CONTINUOUS
 62
     6
100
AcDbLine
 10
1118.698032
 20
1524.174198
 30
0.0
 11
1118.698032
 21
1774.174198
 31
0.0
  0
INSERT
  5
37E
330
377
100
AcDbEntity
  8
0
  6
CONTINUOUS
 62
     6
100
AcDbBlockReference
  2
EDTIP_ARROW_S
 10
1118.698032
 20
1524.174198
 30
0.0
 41
30.0
 42
30.0
 50
270.0
  0
INSERT
  5
37F
330
377
100
AcDbEntity
  8
0
  6
CONTINUOUS
 62
     6
100
AcDbBlockReference
  2
EDTIP_ARROW_E
 10
1118.698032
 20
1774.174198
 30
0.0
 41
30.0
 42
30.0
 50
90.0
  0
ENDBLK
  5
379
330
377
100
AcDbEntity
  8
0
100
AcDbBlockEnd
  0
BLOCK
  5
382
330
381
100
AcDbEntity
  8
0
100
AcDbBlockBegin
  2
*D36
 70
     1
 10
0.0
 20
0.0
 30
0.0
  3
*D36
  1

  0
TEXT
  5
384
330
381
100
AcDbEntity
  8
0
  6
CONTINUOUS
 62
     3
100
AcDbText
 10
1037.698242
 20
1612.174316
 30
0.0
 40
30.0
  1
300
 50
90.0
 41
0.8
  7
ED_VECTOR
100
AcDbText
  0
LINE
  5
385
330
381
100
AcDbEntity
  8
0
  6
CONTINUOUS
 62
     6
100
AcDbLine
 10
1293.698032
 20
1499.174198
 30
0.0
 11
1028.698032
 21
1499.174198
 31
0.0
  0
LINE
  5
386
330
381
100
AcDbEntity
  8
0
  6
CONTINUOUS
 62
     6
100
AcDbLine
 10
1293.698032
 20
1799.174198
 30
0.0
 11
1028.698032
 21
1799.174198
 31
0.0
  0
LINE
  5
387
330
381
100
AcDbEntity
  8
0
  6
CONTINUOUS
 62
     6
100
AcDbLine
 10
1038.698032
 20
1499.174198
 30
0.0
 11
1038.698032
 21
1799.174198
 31
0.0
  0
INSERT
  5
388
330
381
100
AcDbEntity
  8
0
  6
CONTINUOUS
 62
     6
100
AcDbBlockReference
  2
EDTIP_ARROW_S
 10
1038.698032
 20
1499.174198
 30
0.0
 41
30.0
 42
30.0
 50
270.0
  0
INSERT
  5
389
330
381
100
AcDbEntity
  8
0
  6
CONTINUOUS
 62
     6
100
AcDbBlockReference
  2
EDTIP_ARROW_E
 10
1038.698032
 20
1799.174198
 30
0.0
 41
30.0
 42
30.0
 50
90.0
  0
ENDBLK
  5
383
330
381
100
AcDbEntity
  8
0
100
AcDbBlockEnd
  0
BLOCK
  5
38C
330
38B
100
AcDbEntity
  8
0
100
AcDbBlockBegin
  2
*D37
 70
     1
 10
0.0
 20
0.0
 30
0.0
  3
*D37
  1

  0
TEXT
  5
38E
330
38B
100
AcDbEntity
  8
0
  6
CONTINUOUS
 62
     3
100
AcDbText
 10
1229.69812
 20
1380.174072
 30
0.0
 40
30.0
  1
19
 41
0.8
  7
ED_VECTOR
100
AcDbText
  0
LINE
  5
38F
330
38B
100
AcDbEntity
  8
0
  6
CONTINUOUS
 62
     6
100
AcDbLine
 10
1298.698032
 20
1494.174198
 30
0.0
 11
1298.698032
 21
1369.174198
 31
0.0
  0
LINE
  5
390
330
38B
100
AcDbEntity
  8
0
  6
CONTINUOUS
 62
     6
100
AcDbLine
 10
1317.698032
 20
1501.712674
 30
0.0
 11
1317.698032
 21
1369.174198
 31
0.0
  0
LINE
  5
391
330
38B
100
AcDbEntity
  8
0
  6
CONTINUOUS
 62
     6
100
AcDbLine
 10
1298.698032
 20
1379.174198
 30
0.0
 11
1317.698032
 21
1379.174198
 31
0.0
  0
LINE
  5
392
330
38B
100
AcDbEntity
  8
0
  6
CONTINUOUS
 62
     6
100
AcDbLine
 10
1229.698032
 20
1379.174198
 30
0.0
 11
1298.698032
 21
1379.174198
 31
0.0
  0
INSERT
  5
393
330
38B
100
AcDbEntity
  8
0
  6
CONTINUOUS
 62
     6
100
AcDbBlockReference
  2
EDTIP_ARROW_E
 10
1298.698032
 20
1379.174198
 30
0.0
 41
30.0
 42
30.0
  0
LINE
  5
394
330
38B
100
AcDbEntity
  8
0
  6
CONTINUOUS
 62
     6
100
AcDbLine
 10
1317.698032
 20
1379.174198
 30
0.0
 11
1367.698032
 21
1379.174198
 31
0.0
  0
INSERT
  5
395
330
38B
100
AcDbEntity
  8
0
  6
CONTINUOUS
 62
     6
100
AcDbBlockReference
  2
EDTIP_ARROW_S
 10
1317.698032
 20
1379.174198
 30
0.0
 41
30.0
 42
30.0
 50
180.0
  0
ENDBLK
  5
38D
330
38B
100
AcDbEntity
  8
0
100
AcDbBlockEnd
  0
ENDSEC
  0
SECTION
  2
ENTITIES
  0
LINE
  5
EE
330
1F
100
AcDbEntity
  8
0
  6
CONTINUOUS
 62
     3
100
AcDbLine
 10
208.824201
 20
2417.442922
 30
0.0
 11
3488.824201
 21
2417.442922
 31
0.0
  0
LINE
  5
EF
330
1F
100
AcDbEntity
  8
0
  6
CONTINUOUS
 62
     3
100
AcDbLine
 10
3488.824201
 20
2417.442922
 30
0.0
 11
3488.824201
 21
121.442922
 31
0.0
  0
LINE
  5
F0
330
1F
100
AcDbEntity
  8
0
  6
CONTINUOUS
 62
     3
100
AcDbLine
 10
208.824201
 20
121.442922
 30
0.0
 11
208.824201
 21
2417.442922
 31
0.0
  0
LINE
  5
F1
330
1F
100
AcDbEntity
  8
0
  6
CONTINUOUS
 62
     3
100
AcDbLine
 10
3488.824201
 20
121.442922
 30
0.0
 11
208.824201
 21
121.442922
 31
0.0
  0
LINE
  5
F2
330
1F
100
AcDbEntity
  8
0
  6
CONTINUOUS
 62
     5
100
AcDbLine
 10
2688.824201
 20
561.442922
 30
0.0
 11
3488.824201
 21
561.442922
 31
0.0
  0
LINE
  5
F3
330
1F
100
AcDbEntity
  8
0
  6
CONTINUOUS
 62
     5
100
AcDbLine
 10
2688.824201
 20
201.442922
 30
0.0
 11
3488.824201
 21
201.442922
 31
0.0
  0
LINE
  5
F4
330
1F
100
AcDbEntity
  8
0
  6
CONTINUOUS
 62
     5
100
AcDbLine
 10
2688.824201
 20
361.442922
 30
0.0
 11
3488.824201
 21
361.442922
 31
0.0
  0
LINE
  5
F5
330
1F
100
AcDbEntity
  8
0
  6
CONTINUOUS
 62
     5
100
AcDbLine
 10
2688.824201
 20
421.442922
 30
0.0
 11
3488.824201
 21
421.442922
 31
0.0
  0
LINE
  5
F6
330
1F
100
AcDbEntity
  8
0
  6
CONTINUOUS
 62
     5
100
AcDbLine
 10
2688.824201
 20
481.442922
 30
0.0
 11
3488.824201
 21
481.442922
 31
0.0
  0
LINE
  5
F7
330
1F
100
AcDbEntity
  8
0
  6
CONTINUOUS
 62
     5
100
AcDbLine
 10
2688.824201
 20
641.442922
 30
0.0
 11
3488.824201
 21
641.442922
 31
0.0
  0
LINE
  5
F8
330
1F
100
AcDbEntity
  8
0
  6
CONTINUOUS
 62
     5
100
AcDbLine
 10
2688.824201
 20
721.442922
 30
0.0
 11
2688.824201
 21
121.442922
 31
0.0
  0
LINE
  5
F9
330
1F
100
AcDbEntity
  8
0
  6
CONTINUOUS
 62
     5
100
AcDbLine
 10
2888.824201
 20
721.442922
 30
0.0
 11
2888.824201
 21
481.442922
 31
0.0
  0
LINE
  5
FA
330
1F
100
AcDbEntity
  8
0
  6
CONTINUOUS
 62
     5
100
AcDbLine
 10
2688.824201
 20
721.442922
 30
0.0
 11
3488.824201
 21
721.442922
 31
0.0
  0
LINE
  5
FB
330
1F
100
AcDbEntity
  8
0
  6
CONTINUOUS
 62
     5
100
AcDbLine
 10
3188.824201
 20
481.442922
 30
0.0
 11
3188.824201
 21
201.442922
 31
0.0
  0
TEXT
  5
FC
330
1F
100
AcDbEntity
  8
0
  6
CONTINUOUS
 62
     3
100
AcDbText
 10
2908.515193
 20
130.00565
 30
0.0
 40
59.380363
  1
東正車輌株式会社
 41
0.788955
  7
ED_VECTOR
100
AcDbText
  0
LINE
  5
FD
330
1F
100
AcDbEntity
  8
0
  6
CONTINUOUS
 62
     5
100
AcDbLine
 10
2938.824201
 20
421.442922
 30
0.0
 11
2938.824201
 21
201.442922
 31
0.0
  0
TEXT
  5
FE
330
1F
100
AcDbEntity
  8
0
  6
CONTINUOUS
 62
     5
100
AcDbText
 10
2718.823975
 20
656.442871
 30
0.0
 40
50.0
  1
品　名
 41
0.8
  7
ED_VECTOR
100
AcDbText
  0
TEXT
  5
FF
330
1F
100
AcDbEntity
  8
0
  6
CONTINUOUS
 62
     5
100
AcDbText
 10
2718.823975
 20
576.442871
 30
0.0
 40
50.0
  1
型　式
 41
0.8
  7
ED_VECTOR
100
AcDbText
  0
TEXT
  5
100
330
1F
100
AcDbEntity
  8
0
  6
CONTINUOUS
 62
     5
100
AcDbText
 10
2693.823975
 20
496.442932
 30
0.0
 40
50.0
  1
図面番号
 41
0.8
  7
ED_VECTOR
100
AcDbText
  0
TEXT
  5
101
330
1F
100
AcDbEntity
  8
0
  6
CONTINUOUS
 62
     5
100
AcDbText
 10
3268.823975
 20
426.442932
 30
0.0
 40
50.0
  1
Ｂ－４
 41
0.8
  7
ED_VECTOR
100
AcDbText
  0
TEXT
  5
102
330
1F
100
AcDbEntity
  8
0
  6
CONTINUOUS
 62
     5
100
AcDbText
 10
2743.823975
 20
366.442932
 30
0.0
 40
50.0
  1
検　図
 41
0.8
  7
ED_VECTOR
100
AcDbText
  0
TEXT
  5
103
330
1F
100
AcDbEntity
  8
0
  6
CONTINUOUS
 62
     5
100
AcDbText
 10
2993.823975
 20
366.442932
 30
0.0
 40
50.0
  1
作　図
 41
0.8
  7
ED_VECTOR
100
AcDbText
  0
TEXT
  5
104
330
1F
100
AcDbEntity
  8
0
  6
CONTINUOUS
 62
     5
100
AcDbText
 10
3268.823975
 20
366.442932
 30
0.0
 40
50.0
  1
尺　度
 41
0.8
  7
ED_VECTOR
100
AcDbText
  0
TEXT
  5
105
330
1F
100
AcDbEntity
  8
0
  6
CONTINUOUS
 62
     5
100
AcDbText
 10
3369.562744
 20
215.928192
 30
0.0
 40
50.0
  1
１０
 41
0.8
  7
ED_VECTOR
100
AcDbText
  0
TEXT
  5
106
330
1F
100
AcDbEntity
  8
0
  6
CONTINUOUS
 62
     5
100
AcDbText
 10
3349.243164
 20
263.632874
 30
0.0
 40
50.0
  1
／
 41
0.8
  7
ED_VECTOR
100
AcDbText
  0
TEXT
  5
107
330
1F
100
AcDbEntity
  8
0
  6
CONTINUOUS
 62
     5
100
AcDbText
 10
3319.030273
 20
298.616333
 30
0.0
 40
50.0
  1
１
 41
0.8
  7
ED_VECTOR
100
AcDbText
  0
TEXT
  5
108
330
1F
100
AcDbEntity
  8
0
  6
CONTINUOUS
 62
     3
100
AcDbText
 10
3028.823975
 20
656.442871
 30
0.0
 40
50.0
  1
ゴールドリフター
 41
0.8
  7
ED_VECTOR
100
AcDbText
  0
TEXT
  5
109
330
1F
100
AcDbEntity
  8
0
  6
CONTINUOUS
 62
     3
100
AcDbText
 10
2928.823975
 20
576.442871
 30
0.0
 40
50.0
  1
GLSB-100-2507
 41
0.8
  7
ED_VECTOR
100
AcDbText
  0
TEXT
  5
10A
330
1F
100
AcDbEntity
  8
0
  6
CONTINUOUS
 62
     3
100
AcDbText
 10
3168.823975
 20
496.442932
 30
0.0
 40
50.0
  1
　
 41
0.8
  7
ED_VECTOR
100
AcDbText
  0
INSERT
  5
10E
330
1F
100
AcDbEntity
  8
0
100
AcDbBlockReference
  2
BLKF014
 10
0.0
 20
0.0
 30
0.0
  0
TEXT
  5
1C0
330
1F
100
AcDbEntity
  8
0
  6
CONTINUOUS
 62
     4
100
AcDbText
 10
3034.644775
 20
253.937347
 30
0.0
 40
50.0
  1
濱田
 41
0.8
  7
ED_VECTOR
100
AcDbText
  0
TEXT
  5
1C1
330
1F
100
AcDbEntity
  8
0
  6
CONTINUOUS
 62
     3
100
AcDbText
 10
1128.818237
 20
989.173462
 30
0.0
 40
30.0
  1
テーブルのズレ
 41
0.8
  7
ED_VECTOR
100
AcDbText
  0
LINE
  5
1C2
330
1F
100
AcDbEntity
  8
0
  6
CONTINUOUS
 62
     6
100
AcDbLine
 10
2670.60673
 20
2291.596194
 30
0.0
 11
2870.60673
 21
2291.596194
 31
0.0
  0
LINE
  5
1C3
330
1F
100
AcDbEntity
  8
0
  6
CONTINUOUS
 62
     6
100
AcDbLine
 10
2670.60673
 20
2281.596194
 30
0.0
 11
2870.60673
 21
2281.596194
 31
0.0
  0
LINE
  5
1C4
330
1F
100
AcDbEntity
  8
0
  6
CONTINUOUS
 62
     6
100
AcDbLine
 10
2670.60673
 20
2211.596194
 30
0.0
 11
3470.60673
 21
2211.596194
 31
0.0
  0
LINE
  5
1C5
330
1F
100
AcDbEntity
  8
0
  6
CONTINUOUS
 62
     6
100
AcDbLine
 10
2670.60673
 20
2141.596194
 30
0.0
 11
3470.60673
 21
2141.596194
 31
0.0
  0
LINE
  5
1C6
330
1F
100
AcDbEntity
  8
0
  6
CONTINUOUS
 62
     6
100
AcDbLine
 10
2670.60673
 20
2071.596194
 30
0.0
 11
3470.60673
 21
2071.596194
 31
0.0
  0
LINE
  5
1C7
330
1F
100
AcDbEntity
  8
0
  6
CONTINUOUS
 62
     6
100
AcDbLine
 10
2670.60673
 20
2001.596194
 30
0.0
 11
3470.60673
 21
2001.596194
 31
0.0
  0
LINE
  5
1C8
330
1F
100
AcDbEntity
  8
0
  6
CONTINUOUS
 62
     6
100
AcDbLine
 10
2670.60673
 20
1931.596194
 30
0.0
 11
3470.60673
 21
1931.596194
 31
0.0
  0
LINE
  5
1C9
330
1F
100
AcDbEntity
  8
0
  6
CONTINUOUS
 62
     6
100
AcDbLine
 10
2670.60673
 20
1861.596194
 30
0.0
 11
3470.60673
 21
1861.596194
 31
0.0
  0
LINE
  5
1CA
330
1F
100
AcDbEntity
  8
0
  6
CONTINUOUS
 62
     6
100
AcDbLine
 10
2670.60673
 20
1791.596194
 30
0.0
 11
3470.60673
 21
1791.596194
 31
0.0
  0
LINE
  5
1CB
330
1F
100
AcDbEntity
  8
0
  6
CONTINUOUS
 62
     6
100
AcDbLine
 10
2670.60673
 20
1721.596194
 30
0.0
 11
3470.60673
 21
1721.596194
 31
0.0
  0
LINE
  5
1CC
330
1F
100
AcDbEntity
  8
0
  6
CONTINUOUS
 62
     6
100
AcDbLine
 10
2670.60673
 20
1651.596194
 30
0.0
 11
3470.60673
 21
1651.596194
 31
0.0
  0
LINE
  5
1CD
330
1F
100
AcDbEntity
  8
0
  6
CONTINUOUS
 62
     6
100
AcDbLine
 10
2670.60673
 20
1581.596194
 30
0.0
 11
3470.60673
 21
1581.596194
 31
0.0
  0
LINE
  5
1CE
330
1F
100
AcDbEntity
  8
0
  6
CONTINUOUS
 62
     6
100
AcDbLine
 10
2670.60673
 20
1511.596194
 30
0.0
 11
3470.60673
 21
1511.596194
 31
0.0
  0
LINE
  5
1CF
330
1F
100
AcDbEntity
  8
0
  6
CONTINUOUS
 62
     6
100
AcDbLine
 10
2670.60673
 20
1441.596194
 30
0.0
 11
3470.60673
 21
1441.596194
 31
0.0
  0
LINE
  5
1D0
330
1F
100
AcDbEntity
  8
0
  6
CONTINUOUS
 62
     6
100
AcDbLine
 10
2670.60673
 20
1371.596194
 30
0.0
 11
3470.60673
 21
1371.596194
 31
0.0
  0
TEXT
  5
1D1
330
1F
100
AcDbEntity
  8
0
  6
CONTINUOUS
 62
     3
100
AcDbText
 10
2692.980713
 20
2301.596191
 30
0.0
 40
40.0
  1
仕　　　様
 41
0.75
  7
ED_VECTOR
100
AcDbText
  0
TEXT
  5
1D2
330
1F
100
AcDbEntity
  8
0
  6
CONTINUOUS
 62
     3
100
AcDbText
 10
2692.980713
 20
2221.596191
 30
0.0
 40
40.0
  1
型　　　式
 41
0.75
  7
ED_VECTOR
100
AcDbText
  0
TEXT
  5
1D3
330
1F
100
AcDbEntity
  8
0
  6
CONTINUOUS
 62
     3
100
AcDbText
 10
2689.856445
 20
2151.596191
 30
0.0
 40
40.0
  1
均等荷重
 41
0.75
  7
ED_VECTOR
100
AcDbText
  0
TEXT
  5
1D4
330
1F
100
AcDbEntity
  8
0
  6
CONTINUOUS
 62
     3
100
AcDbText
 10
2692.980713
 20
2081.596191
 30
0.0
 40
40.0
  1
テーブル寸法
 41
0.75
  7
ED_VECTOR
100
AcDbText
  0
TEXT
  5
1D5
330
1F
100
AcDbEntity
  8
0
  6
CONTINUOUS
 62
     3
100
AcDbText
 10
2692.980713
 20
2011.596069
 30
0.0
 40
40.0
  1
テーブル高さ
 41
0.75
  7
ED_VECTOR
100
AcDbText
  0
TEXT
  5
1D6
330
1F
100
AcDbEntity
  8
0
  6
CONTINUOUS
 62
     3
100
AcDbText
 10
2689.856445
 20
1941.596069
 30
0.0
 40
40.0
  1
ストローク
 41
0.75
  7
ED_VECTOR
100
AcDbText
  0
TEXT
  5
1D7
330
1F
100
AcDbEntity
  8
0
  6
CONTINUOUS
 62
     3
100
AcDbText
 10
2686.732178
 20
1871.596069
 30
0.0
 40
40.0
  1
全　　　長
 41
0.75
  7
ED_VECTOR
100
AcDbText
  0
TEXT
  5
1D8
330
1F
100
AcDbEntity
  8
0
  6
CONTINUOUS
 62
     3
100
AcDbText
 10
2686.732178
 20
1801.596069
 30
0.0
 40
40.0
  1
全　　　巾
 41
0.75
  7
ED_VECTOR
100
AcDbText
  0
TEXT
  5
1D9
330
1F
100
AcDbEntity
  8
0
  6
CONTINUOUS
 62
     3
100
AcDbText
 10
2686.732178
 20
1731.596069
 30
0.0
 40
40.0
  1
全　　　高
 41
0.75
  7
ED_VECTOR
100
AcDbText
  0
TEXT
  5
1DA
330
1F
100
AcDbEntity
  8
0
  6
CONTINUOUS
 62
     3
100
AcDbText
 10
2686.732178
 20
1661.596069
 30
0.0
 40
40.0
  1
リフト方式
 41
0.75
  7
ED_VECTOR
100
AcDbText
  0
TEXT
  5
1DB
330
1F
100
AcDbEntity
  8
0
  6
CONTINUOUS
 62
     3
100
AcDbText
 10
2686.732178
 20
1171.596069
 30
0.0
 40
40.0
  1
最大使用頻度
 41
0.75
  7
ED_VECTOR
100
AcDbText
  0
TEXT
  5
1DC
330
1F
100
AcDbEntity
  8
0
  6
CONTINUOUS
 62
     3
100
AcDbText
 10
2680.483887
 20
1101.596069
 30
0.0
 40
40.0
  1
自　　　重
 41
0.75
  7
ED_VECTOR
100
AcDbText
  0
TEXT
  5
1DD
330
1F
100
AcDbEntity
  8
0
  6
CONTINUOUS
 62
     3
100
AcDbText
 10
2680.483887
 20
1031.596069
 30
0.0
 40
40.0
  1
塗　装　色
 41
0.75
  7
ED_VECTOR
100
AcDbText
  0
TEXT
  5
1DE
330
1F
100
AcDbEntity
  8
0
  6
CONTINUOUS
 62
     3
100
AcDbText
 10
3260.60376
 20
2148.772461
 30
0.0
 40
40.0
  1
   　Ｋｇ
 41
0.75
  7
ED_VECTOR
100
AcDbText
  0
TEXT
  5
1DF
330
1F
100
AcDbEntity
  8
0
  6
CONTINUOUS
 62
     3
100
AcDbText
 10
3117.870117
 20
2101.596191
 30
0.0
 40
40.0
  1
Ｌ
 41
0.75
  7
ED_VECTOR
100
AcDbText
  0
TEXT
  5
1E0
330
1F
100
AcDbEntity
  8
0
  6
CONTINUOUS
 62
     3
100
AcDbText
 10
3342.778809
 20
2101.264648
 30
0.0
 40
40.0
  1
Ｗ
 41
0.75
  7
ED_VECTOR
100
AcDbText
  0
TEXT
  5
1E1
330
1F
100
AcDbEntity
  8
0
  6
CONTINUOUS
 62
     3
100
AcDbText
 10
2958.789062
 20
1661.596069
 30
0.0
 40
40.0
  1
電動ボールネジ方式
 41
0.75
  7
ED_VECTOR
100
AcDbText
  0
TEXT
  5
1E2
330
1F
100
AcDbEntity
  8
0
  6
CONTINUOUS
 62
     3
100
AcDbText
 10
3386.745117
 20
2081.596191
 30
0.0
 40
40.0
  1
ｍｍ
 41
0.75
  7
ED_VECTOR
100
AcDbText
  0
TEXT
  5
1E3
330
1F
100
AcDbEntity
  8
0
  6
CONTINUOUS
 62
     3
100
AcDbText
 10
3384.108887
 20
2011.596069
 30
0.0
 40
40.0
  1
ｍｍ
 41
0.75
  7
ED_VECTOR
100
AcDbText
  0
TEXT
  5
1E4
330
1F
100
AcDbEntity
  8
0
  6
CONTINUOUS
 62
     3
100
AcDbText
 10
3384.108887
 20
1941.596069
 30
0.0
 40
40.0
  1
ｍｍ
 41
0.75
  7
ED_VECTOR
100
AcDbText
  0
TEXT
  5
1E5
330
1F
100
AcDbEntity
  8
0
  6
CONTINUOUS
 62
     3
100
AcDbText
 10
3381.473145
 20
1871.596069
 30
0.0
 40
40.0
  1
ｍｍ
 41
0.75
  7
ED_VECTOR
100
AcDbText
  0
TEXT
  5
1E6
330
1F
100
AcDbEntity
  8
0
  6
CONTINUOUS
 62
     3
100
AcDbText
 10
3381.473145
 20
1801.596069
 30
0.0
 40
40.0
  1
ｍｍ
 41
0.75
  7
ED_VECTOR
100
AcDbText
  0
TEXT
  5
1E7
330
1F
100
AcDbEntity
  8
0
  6
CONTINUOUS
 62
     3
100
AcDbText
 10
3381.473145
 20
1731.596069
 30
0.0
 40
40.0
  1
ｍｍ
 41
0.75
  7
ED_VECTOR
100
AcDbText
  0
TEXT
  5
1E8
330
1F
100
AcDbEntity
  8
0
  6
CONTINUOUS
 62
     3
100
AcDbText
 10
3132.052246
 20
1997.903198
 30
0.0
 40
50.0
  1
～
 41
0.8
  7
ED_VECTOR
100
AcDbText
  0
INSERT
  5
1EC
330
1F
100
AcDbEntity
  8
0
100
AcDbBlockReference
  2
EDDIM015
 10
0.0
 20
0.0
 30
0.0
  0
INSERT
  5
1F1
330
1F
100
AcDbEntity
  8
0
100
AcDbBlockReference
  2
EDDIM016
 10
0.0
 20
0.0
 30
0.0
  0
INSERT
  5
1F6
330
1F
100
AcDbEntity
  8
0
100
AcDbBlockReference
  2
EDDIM017
 10
0.0
 20
0.0
 30
0.0
  0
INSERT
  5
1FB
330
1F
100
AcDbEntity
  8
0
100
AcDbBlockReference
  2
EDDIM018
 10
0.0
 20
0.0
 30
0.0
  0
INSERT
  5
200
330
1F
100
AcDbEntity
  8
0
100
AcDbBlockReference
  2
EDDIM019
 10
0.0
 20
0.0
 30
0.0
  0
INSERT
  5
205
330
1F
100
AcDbEntity
  8
0
100
AcDbBlockReference
  2
EDDIM020
 10
0.0
 20
0.0
 30
0.0
  0
INSERT
  5
20A
330
1F
100
AcDbEntity
  8
0
100
AcDbBlockReference
  2
EDDIM021
 10
0.0
 20
0.0
 30
0.0
  0
INSERT
  5
20F
330
1F
100
AcDbEntity
  8
0
100
AcDbBlockReference
  2
EDDIM022
 10
0.0
 20
0.0
 30
0.0
  0
INSERT
  5
214
330
1F
100
AcDbEntity
  8
0
100
AcDbBlockReference
  2
EDDIM023
 10
0.0
 20
0.0
 30
0.0
  0
INSERT
  5
219
330
1F
100
AcDbEntity
  8
0
100
AcDbBlockReference
  2
EDDIM024
 10
0.0
 20
0.0
 30
0.0
  0
INSERT
  5
21E
330
1F
100
AcDbEntity
  8
0
100
AcDbBlockReference
  2
EDDIM025
 10
0.0
 20
0.0
 30
0.0
  0
INSERT
  5
223
330
1F
100
AcDbEntity
  8
0
100
AcDbBlockReference
  2
EDDIM026
 10
0.0
 20
0.0
 30
0.0
  0
INSERT
  5
228
330
1F
100
AcDbEntity
  8
0
100
AcDbBlockReference
  2
EDDIM027
 10
0.0
 20
0.0
 30
0.0
  0
LINE
  5
22A
330
1F
100
AcDbEntity
  8
0
  6
CONTINUOUS
 62
     6
100
AcDbLine
 10
2670.60673
 20
1301.596194
 30
0.0
 11
3470.60673
 21
1301.596194
 31
0.0
  0
LINE
  5
22B
330
1F
100
AcDbEntity
  8
0
  6
CONTINUOUS
 62
     6
100
AcDbLine
 10
2670.60673
 20
1231.596194
 30
0.0
 11
3470.60673
 21
1231.596194
 31
0.0
  0
LINE
  5
22C
330
1F
100
AcDbEntity
  8
0
  6
CONTINUOUS
 62
     6
100
AcDbLine
 10
2670.60673
 20
1161.596194
 30
0.0
 11
3470.60673
 21
1161.596194
 31
0.0
  0
LINE
  5
22D
330
1F
100
AcDbEntity
  8
0
  6
CONTINUOUS
 62
     6
100
AcDbLine
 10
2670.60673
 20
1091.596194
 30
0.0
 11
3470.60673
 21
1091.596194
 31
0.0
  0
TEXT
  5
22E
330
1F
100
AcDbEntity
  8
0
  6
CONTINUOUS
 62
     3
100
AcDbText
 10
2686.732178
 20
1591.596069
 30
0.0
 40
40.0
  1
操作方式
 41
0.75
  7
ED_VECTOR
100
AcDbText
  0
TEXT
  5
22F
330
1F
100
AcDbEntity
  8
0
  6
CONTINUOUS
 62
     3
100
AcDbText
 10
2686.732178
 20
1451.596069
 30
0.0
 40
40.0
  1
モーター
 41
0.75
  7
ED_VECTOR
100
AcDbText
  0
TEXT
  5
230
330
1F
100
AcDbEntity
  8
0
  6
CONTINUOUS
 62
     3
100
AcDbText
 10
2958.789062
 20
1451.596069
 30
0.0
 40
40.0
  1
ＤＣ９０Ｖ、７０Ｗ
 41
0.75
  7
ED_VECTOR
100
AcDbText
  0
TEXT
  5
231
330
1F
100
AcDbEntity
  8
0
  6
CONTINUOUS
 62
     3
100
AcDbText
 10
2686.732178
 20
1381.596069
 30
0.0
 40
40.0
  1
電　　源
 41
0.75
  7
ED_VECTOR
100
AcDbText
  0
TEXT
  5
232
330
1F
100
AcDbEntity
  8
0
  6
CONTINUOUS
 62
     3
100
AcDbText
 10
2958.789062
 20
1381.596069
 30
0.0
 40
40.0
  1
ＡＣ１００Ｖ、５０／６０ＨＺ
 41
0.75
  7
ED_VECTOR
100
AcDbText
  0
TEXT
  5
233
330
1F
100
AcDbEntity
  8
0
  6
CONTINUOUS
 62
     3
100
AcDbText
 10
2686.732178
 20
1311.596069
 30
0.0
 40
40.0
  1
上昇時間
 41
0.75
  7
ED_VECTOR
100
AcDbText
  0
TEXT
  5
234
330
1F
100
AcDbEntity
  8
0
  6
CONTINUOUS
 62
     3
100
AcDbText
 10
3044.774902
 20
1312.750122
 30
0.0
 40
40.0
  1
約　１２　秒
 41
0.75
  7
ED_VECTOR
100
AcDbText
  0
TEXT
  5
235
330
1F
100
AcDbEntity
  8
0
  6
CONTINUOUS
 62
     3
100
AcDbText
 10
2686.732178
 20
1241.596069
 30
0.0
 40
40.0
  1
下降時間
 41
0.75
  7
ED_VECTOR
100
AcDbText
  0
TEXT
  5
236
330
1F
100
AcDbEntity
  8
0
  6
CONTINUOUS
 62
     3
100
AcDbText
 10
3042.629639
 20
1241.957153
 30
0.0
 40
40.0
  1
約　１２　秒
 41
0.75
  7
ED_VECTOR
100
AcDbText
  0
TEXT
  5
237
330
1F
100
AcDbEntity
  8
0
  6
CONTINUOUS
 62
     3
100
AcDbText
 10
3043.944092
 20
1035.679932
 30
0.0
 40
40.0
  1
１０Ｒ４／１３
 41
0.75
  7
ED_VECTOR
100
AcDbText
  0
LINE
  5
238
330
1F
100
AcDbEntity
  8
0
  6
CONTINUOUS
 62
     6
100
AcDbLine
 10
2670.60673
 20
1021.596194
 30
0.0
 11
3470.60673
 21
1021.596194
 31
0.0
  0
LINE
  5
239
330
1F
100
AcDbEntity
  8
0
  6
CENTER
 62
     6
100
AcDbLine
 10
2011.284009
 20
1649.174198
 30
0.0
 11
1281.012592
 21
1649.174198
 31
0.0
  0
LINE
  5
23A
330
1F
100
AcDbEntity
  8
0
  6
DASHED
 62
     3
100
AcDbLine
 10
1998.698032
 20
1549.174198
 30
0.0
 11
1298.698032
 21
1549.174198
 31
0.0
  0
LINE
  5
23B
330
1F
100
AcDbEntity
  8
0
  6
DASHED
 62
     3
100
AcDbLine
 10
1298.698032
 20
1749.174198
 30
0.0
 11
1998.698032
 21
1749.174198
 31
0.0
  0
LINE
  5
23C
330
1F
100
AcDbEntity
  8
0
  6
DASHED
 62
     3
100
AcDbLine
 10
1336.698032
 20
1749.174198
 30
0.0
 11
1336.698032
 21
1774.174198
 31
0.0
  0
LINE
  5
23D
330
1F
100
AcDbEntity
  8
0
  6
CONTINUOUS
 62
     3
100
AcDbLine
 10
1331.698032
 20
1799.174198
 30
0.0
 11
1303.698032
 21
1799.174198
 31
0.0
  0
ARC
  5
23E
330
1F
100
AcDbEntity
  8
0
  6
CONTINUOUS
 62
     3
100
AcDbCircle
 10
1317.698032
 20
1774.174198
 30
0.0
 40
6.5
100
AcDbArc
 50
0.0
 51
180.0
  0
LINE
  5
23F
330
1F
100
AcDbEntity
  8
0
  6
CENTER
 62
     6
100
AcDbLine
 10
1305.004106
 20
1774.174198
 30
0.0
 11
1329.430523
 21
1774.174198
 31
0.0
  0
LINE
  5
240
330
1F
100
AcDbEntity
  8
0
  6
CENTER
 62
     6
100
AcDbLine
 10
1317.698032
 20
1761.088827
 30
0.0
 11
1317.698032
 21
1786.635722
 31
0.0
  0
LINE
  5
241
330
1F
100
AcDbEntity
  8
0
  6
CONTINUOUS
 62
     3
100
AcDbLine
 10
1303.698032
 20
1799.174198
 30
0.0
 11
1298.698032
 21
1794.174198
 31
0.0
  0
LINE
  5
242
330
1F
100
AcDbEntity
  8
0
  6
CONTINUOUS
 62
     3
100
AcDbLine
 10
1331.698032
 20
1799.174198
 30
0.0
 11
1336.698032
 21
1794.174198
 31
0.0
  0
LINE
  5
243
330
1F
100
AcDbEntity
  8
0
  6
DASHED
 62
     3
100
AcDbLine
 10
1336.698032
 20
1549.174198
 30
0.0
 11
1336.698032
 21
1524.174198
 31
0.0
  0
LINE
  5
244
330
1F
100
AcDbEntity
  8
0
  6
CONTINUOUS
 62
     3
100
AcDbLine
 10
1331.698032
 20
1499.174198
 30
0.0
 11
1303.698032
 21
1499.174198
 31
0.0
  0
LINE
  5
245
330
1F
100
AcDbEntity
  8
0
  6
CONTINUOUS
 62
     3
100
AcDbLine
 10
1298.698032
 20
1794.174198
 30
0.0
 11
1298.698032
 21
1504.174198
 31
0.0
  0
ARC
  5
246
330
1F
100
AcDbEntity
  8
0
  6
DOT
 62
     8
100
AcDbCircle
 10
1317.698032
 20
1524.174198
 30
0.0
 40
6.5
100
AcDbArc
 50
0.0
 51
180.0
  0
LINE
  5
247
330
1F
100
AcDbEntity
  8
0
  6
CENTER
 62
     6
100
AcDbLine
 10
1305.004106
 20
1524.174198
 30
0.0
 11
1329.430523
 21
1524.174198
 31
0.0
  0
LINE
  5
248
330
1F
100
AcDbEntity
  8
0
  6
CENTER
 62
     6
100
AcDbLine
 10
1317.698032
 20
1537.259569
 30
0.0
 11
1317.698032
 21
1511.712674
 31
0.0
  0
LINE
  5
249
330
1F
100
AcDbEntity
  8
0
  6
CONTINUOUS
 62
     3
100
AcDbLine
 10
1303.698032
 20
1499.174198
 30
0.0
 11
1298.698032
 21
1504.174198
 31
0.0
  0
LINE
  5
24A
330
1F
100
AcDbEntity
  8
0
  6
CONTINUOUS
 62
     3
100
AcDbLine
 10
1331.698032
 20
1499.174198
 30
0.0
 11
1336.698032
 21
1504.174198
 31
0.0
  0
LINE
  5
24B
330
1F
100
AcDbEntity
  8
0
  6
CONTINUOUS
 62
     3
100
AcDbLine
 10
1998.698032
 20
1774.174198
 30
0.0
 11
1998.698032
 21
1524.174198
 31
0.0
  0
LINE
  5
24C
330
1F
100
AcDbEntity
  8
0
  6
CENTER
 62
     6
100
AcDbLine
 10
777.917055
 20
1116.196315
 30
0.0
 11
777.917055
 21
486.196315
 31
0.0
  0
LINE
  5
24D
330
1F
100
AcDbEntity
  8
0
  6
CONTINUOUS
 62
     3
100
AcDbLine
 10
652.917055
 20
1093.396315
 30
0.0
 11
652.917055
 21
1066.196315
 31
0.0
  0
LINE
  5
24E
330
1F
100
AcDbEntity
  8
0
  6
CONTINUOUS
 62
     3
100
AcDbLine
 10
652.917055
 20
1066.196315
 30
0.0
 11
902.917055
 21
1066.196315
 31
0.0
  0
ARC
  5
24F
330
1F
100
AcDbEntity
  8
0
  6
CONTINUOUS
 62
     3
100
AcDbCircle
 10
655.717055
 20
1093.396315
 30
0.0
 40
2.8
100
AcDbArc
 50
90.0
 51
180.0
  0
LINE
  5
250
330
1F
100
AcDbEntity
  8
0
  6
CONTINUOUS
 62
     3
100
AcDbLine
 10
900.117055
 20
1096.196315
 30
0.0
 11
655.717055
 21
1096.196315
 31
0.0
  0
ARC
  5
251
330
1F
100
AcDbEntity
  8
0
  6
CONTINUOUS
 62
     3
100
AcDbCircle
 10
900.117055
 20
1093.396315
 30
0.0
 40
2.8
100
AcDbArc
 50
0.0
 51
90.0
  0
LINE
  5
252
330
1F
100
AcDbEntity
  8
0
  6
CONTINUOUS
 62
     3
100
AcDbLine
 10
902.917055
 20
1093.396315
 30
0.0
 11
902.917055
 21
1066.196315
 31
0.0
  0
LINE
  5
253
330
1F
100
AcDbEntity
  8
0
  6
CONTINUOUS
 62
     6
100
AcDbLine
 10
2257.377102
 20
1324.674198
 30
0.0
 11
1718.785074
 21
1324.674198
 31
0.0
  0
ARC
  5
254
330
1F
100
AcDbEntity
  8
0
  6
CONTINUOUS
 62
     3
100
AcDbCircle
 10
2166.414682
 20
1698.674198
 30
0.0
 40
30.0
100
AcDbArc
 50
180.0
 51
300.0
  0
ARC
  5
255
330
1F
100
AcDbEntity
  8
0
  6
CONTINUOUS
 62
     3
100
AcDbCircle
 10
2166.414682
 20
1698.674198
 30
0.0
 40
37.0
100
AcDbArc
 50
180.0
 51
300.0
  0
LINE
  5
256
330
1F
100
AcDbEntity
  8
0
  6
CONTINUOUS
 62
     3
100
AcDbLine
 10
2311.52791
 20
1739.731439
 30
0.0
 11
2184.914682
 21
1666.631258
 31
0.0
  0
LINE
  5
257
330
1F
100
AcDbEntity
  8
0
  6
CONTINUOUS
 62
     3
100
AcDbLine
 10
2308.02791
 20
1745.793617
 30
0.0
 11
2181.414682
 21
1672.693436
 31
0.0
  0
ARC
  5
258
330
1F
100
AcDbEntity
  8
0
  6
CONTINUOUS
 62
     3
100
AcDbCircle
 10
2166.414682
 20
1698.674198
 30
0.0
 40
30.0
100
AcDbArc
 50
330.650201
 51
180.0
  0
ARC
  5
259
330
1F
100
AcDbEntity
  8
0
  6
CONTINUOUS
 62
     3
100
AcDbCircle
 10
2166.414682
 20
1698.674198
 30
0.0
 40
37.0
100
AcDbArc
 50
345.857154
 51
180.0
  0
LINE
  5
25A
330
1F
100
AcDbEntity
  8
0
  6
CONTINUOUS
 62
     3
100
AcDbLine
 10
2308.27791
 20
1745.360604
 30
0.0
 11
2311.27791
 21
1740.164452
 31
0.0
  0
LINE
  5
25B
330
1F
100
AcDbEntity
  8
0
  6
CONTINUOUS
 62
     3
100
AcDbLine
 10
2322.098418
 20
1761.422782
 30
0.0
 11
2332.098418
 21
1744.102274
 31
0.0
  0
LINE
  5
25C
330
1F
100
AcDbEntity
  8
0
  6
CONTINUOUS
 62
     3
100
AcDbLine
 10
2322.098418
 20
1761.422782
 30
0.0
 11
2310.840087
 21
1754.922782
 31
0.0
  0
LINE
  5
25D
330
1F
100
AcDbEntity
  8
0
  6
CONTINUOUS
 62
     3
100
AcDbLine
 10
2332.098418
 20
1744.102274
 30
0.0
 11
2320.840087
 21
1737.602274
 31
0.0
  0
ARC
  5
25E
330
1F
100
AcDbEntity
  8
0
  6
CONTINUOUS
 62
     3
100
AcDbCircle
 10
2314.340087
 20
1748.860604
 30
0.0
 40
7.000000000000001
100
AcDbArc
 50
120.0
 51
210.0
  0
ARC
  5
25F
330
1F
100
AcDbEntity
  8
0
  6
CONTINUOUS
 62
     3
100
AcDbCircle
 10
2317.340087
 20
1743.664452
 30
0.0
 40
7.000000000000001
100
AcDbArc
 50
210.0
 51
300.0
  0
LINE
  5
260
330
1F
100
AcDbEntity
  8
0
  6
CONTINUOUS
 62
     3
100
AcDbLine
 10
2333.258672
 20
1762.092655
 30
0.0
 11
2324.598418
 21
1757.092655
 31
0.0
  0
LINE
  5
261
330
1F
100
AcDbEntity
  8
0
  6
CONTINUOUS
 62
     3
100
AcDbLine
 10
2338.258672
 20
1753.432401
 30
0.0
 11
2329.598418
 21
1748.432401
 31
0.0
  0
LINE
  5
262
330
1F
100
AcDbEntity
  8
0
  6
CONTINUOUS
 62
     3
100
AcDbLine
 10
2303.536049
 20
1613.174198
 30
0.0
 11
2376.91115
 21
1486.084796
 31
0.0
  0
LINE
  5
263
330
1F
100
AcDbEntity
  8
0
  6
CONTINUOUS
 62
     3
100
AcDbLine
 10
2297.473872
 20
1609.674198
 30
0.0
 11
2370.848972
 21
1482.584796
 31
0.0
  0
LINE
  5
264
330
1F
100
AcDbEntity
  8
0
  6
CONTINUOUS
 62
     3
100
AcDbLine
 10
2019.198032
 20
1668.674198
 30
0.0
 11
2136.737975
 21
1668.674198
 31
0.0
  0
LINE
  5
265
330
1F
100
AcDbEntity
  8
0
  6
CONTINUOUS
 62
     3
100
AcDbLine
 10
2019.198032
 20
1661.674198
 30
0.0
 11
2146.50014
 21
1661.674198
 31
0.0
  0
LINE
  5
266
330
1F
100
AcDbEntity
  8
0
  6
CONTINUOUS
 62
     3
100
AcDbLine
 10
2019.198032
 20
1636.674198
 30
0.0
 11
2243.55079
 21
1636.674198
 31
0.0
  0
LINE
  5
267
330
1F
100
AcDbEntity
  8
0
  6
CONTINUOUS
 62
     3
100
AcDbLine
 10
2019.198032
 20
1629.674198
 30
0.0
 11
2232.843899
 21
1629.674198
 31
0.0
  0
LINE
  5
268
330
1F
100
AcDbEntity
  8
0
  6
CONTINUOUS
 62
     6
100
AcDbLine
 10
2312.863559
 20
1756.091034
 30
0.0
 11
2189.906365
 21
1960.047074
 31
0.0
  0
INSERT
  5
269
330
1F
100
AcDbEntity
  8
0
  6
CONTINUOUS
 62
     6
100
AcDbBlockReference
  2
EDTIP_ARROW_S
 10
2312.863559
 20
1756.091034
 30
0.0
 41
30.0
 42
30.0
 50
301.084147
  0
TEXT
  5
26A
330
1F
100
AcDbEntity
  8
0
  6
CONTINUOUS
 62
     3
100
AcDbText
 10
2223.852295
 20
1971.397827
 30
0.0
 40
30.0
  1
電源コード　３ｍ
 41
0.8
  7
ED_VECTOR
100
AcDbText
  0
ARC
  5
26B
330
1F
100
AcDbEntity
  8
0
  6
CONTINUOUS
 62
     3
100
AcDbCircle
 10
2262.832855
 20
1589.674198
 30
0.0
 40
47.0
100
AcDbArc
 50
30.0
 51
350.864906
  0
ARC
  5
26C
330
1F
100
AcDbEntity
  8
0
  6
CONTINUOUS
 62
     3
100
AcDbCircle
 10
2262.832855
 20
1589.674198
 30
0.0
 40
40.0
100
AcDbArc
 50
30.0
 51
0.922892
  0
LINE
  5
26D
330
1F
100
AcDbEntity
  8
0
  6
CONTINUOUS
 62
     6
100
AcDbLine
 10
2189.906365
 20
1960.047074
 30
0.0
 11
2484.893618
 21
1960.047074
 31
0.0
  0
LINE
  5
26E
330
1F
100
AcDbEntity
  8
0
  6
CONTINUOUS
 62
     6
100
AcDbLine
 10
2338.002293
 20
1405.976912
 30
0.0
 11
2257.377102
 21
1324.674198
 31
0.0
  0
INSERT
  5
26F
330
1F
100
AcDbEntity
  8
0
  6
CONTINUOUS
 62
     6
100
AcDbBlockReference
  2
EDTIP_ARROW_S
 10
2338.002293
 20
1405.976912
 30
0.0
 41
30.0
 42
30.0
 50
45.23973
  0
TEXT
  5
270
330
1F
100
AcDbEntity
  8
0
  6
CONTINUOUS
 62
     3
100
AcDbText
 10
1760.68103
 20
1336.902222
 30
0.0
 40
30.0
  1
フットスイッチ（ＵＰ・ＤＯＷＮ）
 41
0.8
  7
ED_VECTOR
100
AcDbText
  0
TEXT
  5
271
330
1F
100
AcDbEntity
  8
0
  6
CONTINUOUS
 62
     3
100
AcDbText
 10
1873.855591
 20
1281.057739
 30
0.0
 40
30.0
  1
コード長サ ２ｍ
 41
0.8
  7
ED_VECTOR
100
AcDbText
  0
DIMENSION
  5
272
330
1F
100
AcDbEntity
  8
0
100
AcDbDimension
  2
*D25
 10
2021.527586
 20
1196.196315
 30
0.0
 11
1671.527466
 21
1197.196533
 31
0.0
 70
    33
  3
EDDIMINFO
100
AcDbAlignedDimension
 13
1321.527586
 23
1102.396315
 33
0.0
 14
2021.527586
 24
1102.396315
 34
0.0
1001
ACAD
1000
DSTYLE
1002
{
1070
     7
1000
EDTIP_ARROW_E
1070
     6
1000
EDTIP_ARROW_S
1070
   173
1070
     1
1002
}
  0
DIMENSION
  5
27C
330
1F
100
AcDbEntity
  8
0
100
AcDbDimension
  2
*D26
 10
1321.527586
 20
947.511046
 30
0.0
 11
1228.973145
 21
948.510986
 31
0.0
 70
    32
  3
EDDIMINFO
100
AcDbAlignedDimension
 13
1298.473189
 23
592.396315
 33
0.0
 14
1321.527586
 24
1057.196315
 34
0.0
 50
180.0
100
AcDbRotatedDimension
  0
DIMENSION
  5
288
330
1F
100
AcDbEntity
  8
0
100
AcDbDimension
  2
*D27
 10
1998.698032
 20
386.196315
 30
0.0
 11
1648.697876
 21
387.196381
 31
0.0
 70
    33
  3
EDDIMINFO
100
AcDbAlignedDimension
 13
1298.698032
 23
497.196315
 33
0.0
 14
1998.698032
 24
497.196315
 34
0.0
1001
ACAD
1000
DSTYLE
1002
{
1070
     7
1000
EDTIP_ARROW_E
1070
     6
1000
EDTIP_ARROW_S
1070
   173
1070
     1
1002
}
  0
DIMENSION
  5
292
330
1F
100
AcDbEntity
  8
0
100
AcDbDimension
  2
*D28
 10
2155.384089
 20
586.196315
 30
0.0
 11
2154.384277
 21
547.293579
 31
0.0
 70
    32
  3
EDDIMINFO
100
AcDbAlignedDimension
 13
2007.698032
 23
506.196315
 33
0.0
 14
2004.673189
 24
586.196315
 34
0.0
 50
270.0
100
AcDbRotatedDimension
  0
DIMENSION
  5
29C
330
1F
100
AcDbEntity
  8
0
100
AcDbDimension
  2
*D29
 10
2155.384089
 20
1096.196315
 30
0.0
 11
2154.384277
 21
841.196289
 31
0.0
 70
    33
  3
EDDIMINFO
100
AcDbAlignedDimension
 13
2027.727586
 23
586.196315
 33
0.0
 14
2027.727586
 24
1096.196315
 34
0.0
1001
ACAD
1000
DSTYLE
1002
{
1070
     7
1000
EDTIP_ARROW_E
1070
     6
1000
EDTIP_ARROW_S
1070
   173
1070
     1
1002
}
  0
DIMENSION
  5
2A5
330
1F
100
AcDbEntity
  8
0
100
AcDbDimension
  2
*D30
 10
2235.384089
 20
1096.196315
 30
0.0
 11
2234.384277
 21
801.196289
 31
0.0
 70
    32
  3
EDDIMINFO
100
AcDbAlignedDimension
 13
2007.698032
 23
506.196315
 33
0.0
 14
2027.727586
 24
1096.196315
 34
0.0
 50
270.0
100
AcDbRotatedDimension
1001
ACAD
1000
DSTYLE
1002
{
1070
     7
1000
EDTIP_ARROW_E
1070
     6
1000
EDTIP_ARROW_S
1070
   173
1070
     1
1002
}
  0
TEXT
  5
2AF
330
1F
100
AcDbEntity
  8
0
  6
CONTINUOUS
 62
     3
100
AcDbText
 10
2266.963135
 20
1918.766968
 30
0.0
 40
30.0
  1
ＡＣ１００ｖ
 41
0.8
  7
ED_VECTOR
100
AcDbText
  0
LINE
  5
2B0
330
1F
100
AcDbEntity
  8
0
  6
CONTINUOUS
 62
     6
100
AcDbLine
 10
627.917055
 20
506.196315
 30
0.0
 11
517.549045
 21
506.196315
 31
0.0
  0
LINE
  5
2B1
330
1F
100
AcDbEntity
  8
0
  6
CONTINUOUS
 62
     6
100
AcDbLine
 10
927.917055
 20
506.196315
 30
0.0
 11
1298.698032
 21
506.196315
 31
0.0
  0
LINE
  5
2B2
330
1F
100
AcDbEntity
  8
0
  6
CONTINUOUS
 62
     6
100
AcDbLine
 10
1998.698032
 20
506.196315
 30
0.0
 11
2559.283185
 21
506.196315
 31
0.0
  0
TEXT
  5
2B3
330
1F
100
AcDbEntity
  8
0
  6
CONTINUOUS
 62
     3
100
AcDbText
 10
2479.909424
 20
515.761719
 30
0.0
 40
40.0
  1
Ｆ．Ｌ
 41
0.75
  7
ED_VECTOR
100
AcDbText
  0
LINE
  5
2B4
330
1F
100
AcDbEntity
  8
0
  6
CONTINUOUS
 62
     3
100
AcDbLine
 10
1998.698032
 20
1774.174198
 30
0.0
 11
1298.698032
 21
1774.174198
 31
0.0
  0
LINE
  5
2B5
330
1F
100
AcDbEntity
  8
0
  6
CONTINUOUS
 62
     3
100
AcDbLine
 10
1998.698032
 20
1524.174198
 30
0.0
 11
1298.698032
 21
1524.174198
 31
0.0
  0
LINE
  5
2B6
330
1F
100
AcDbEntity
  8
0
  6
CONTINUOUS
 62
     3
100
AcDbLine
 10
1336.698032
 20
1774.174198
 30
0.0
 11
1336.698032
 21
1794.174198
 31
0.0
  0
LINE
  5
2B7
330
1F
100
AcDbEntity
  8
0
  6
CONTINUOUS
 62
     3
100
AcDbLine
 10
1336.698032
 20
1524.174198
 30
0.0
 11
1336.698032
 21
1504.174198
 31
0.0
  0
ARC
  5
2B8
330
1F
100
AcDbEntity
  8
0
  6
CONTINUOUS
 62
     3
100
AcDbCircle
 10
1317.698032
 20
1524.174198
 30
0.0
 40
6.5
100
AcDbArc
 50
180.0
 51
0.0
  0
ARC
  5
2B9
330
1F
100
AcDbEntity
  8
0
  6
DOT
 62
     8
100
AcDbCircle
 10
1317.698032
 20
1774.174198
 30
0.0
 40
6.5
100
AcDbArc
 50
180.0
 51
0.0
  0
DIMENSION
  5
2BA
330
1F
100
AcDbEntity
  8
0
100
AcDbDimension
  2
*D31
 10
902.917055
 20
1196.196315
 30
0.0
 11
777.917053
 21
1206.196411
 31
0.0
 70
    33
  3
EDDIMINFO
100
AcDbAlignedDimension
 13
652.917055
 23
1105.196315
 33
0.0
 14
902.917055
 24
1105.196315
 34
0.0
1001
ACAD
1000
DSTYLE
1002
{
1070
     7
1000
EDTIP_ARROW_E
1070
     6
1000
EDTIP_ARROW_S
1070
   173
1070
     1
1002
}
  0
INSERT
  5
2C7
330
1F
100
AcDbEntity
  8
0
100
AcDbBlockReference
  2
BLKF035
 10
0.0
 20
0.0
 30
0.0
  0
LINE
  5
365
330
1F
100
AcDbEntity
  8
0
  6
CONTINUOUS
 62
     6
100
AcDbLine
 10
1118.698032
 20
1774.174198
 30
0.0
 11
1118.698032
 21
1911.241655
 31
0.0
  0
INSERT
  5
369
330
1F
100
AcDbEntity
  8
0
100
AcDbBlockReference
  2
EDDIM036
 10
0.0
 20
0.0
 30
0.0
  0
DIMENSION
  5
36C
330
1F
100
AcDbEntity
  8
0
100
AcDbDimension
  2
*D34
 10
1198.698032
 20
1749.174198
 30
0.0
 11
1196.69812
 21
1649.174194
 31
0.0
 70
    33
  3
EDDIMINFO
100
AcDbAlignedDimension
 13
1289.698032
 23
1549.174198
 33
0.0
 14
1289.698032
 24
1749.174198
 34
0.0
1001
ACAD
1000
DSTYLE
1002
{
1070
     7
1000
EDTIP_ARROW_E
1070
     6
1000
EDTIP_ARROW_S
1070
   173
1070
     1
1002
}
  0
DIMENSION
  5
376
330
1F
100
AcDbEntity
  8
0
100
AcDbDimension
  2
*D35
 10
1118.698032
 20
1774.174198
 30
0.0
 11
1117.698242
 21
1649.174316
 31
0.0
 70
    33
  3
EDDIMINFO
100
AcDbAlignedDimension
 13
1296.004106
 23
1524.174198
 33
0.0
 14
1296.004106
 24
1774.174198
 34
0.0
1001
ACAD
1000
DSTYLE
1002
{
1070
     7
1000
EDTIP_ARROW_E
1070
     6
1000
EDTIP_ARROW_S
1070
   173
1070
     1
1002
}
  0
DIMENSION
  5
380
330
1F
100
AcDbEntity
  8
0
100
AcDbDimension
  2
*D36
 10
1038.698032
 20
1799.174198
 30
0.0
 11
1037.698242
 21
1649.174316
 31
0.0
 70
    33
  3
EDDIMINFO
100
AcDbAlignedDimension
 13
1294.698032
 23
1499.174198
 33
0.0
 14
1294.698032
 24
1799.174198
 34
0.0
1001
ACAD
1000
DSTYLE
1002
{
1070
     7
1000
EDTIP_ARROW_E
1070
     6
1000
EDTIP_ARROW_S
1070
   173
1070
     1
1002
}
  0
DIMENSION
  5
38A
330
1F
100
AcDbEntity
  8
0
100
AcDbDimension
  2
*D37
 10
1317.698032
 20
1379.174198
 30
0.0
 11
1254.19812
 21
1380.174072
 31
0.0
 70
    32
  3
EDDIMINFO
100
AcDbAlignedDimension
 13
1298.698032
 23
1495.174198
 33
0.0
 14
1317.698032
 24
1502.712674
 34
0.0
 50
180.0
100
AcDbRotatedDimension
  0
LINE
  5
396
330
1F
100
AcDbEntity
  8
0
  6
CONTINUOUS
 62
     5
100
AcDbLine
 10
1547.627924
 20
1379.174198
 30
0.0
 11
1405.74399
 21
1379.174198
 31
0.0
  0
TEXT
  5
397
330
1F
100
AcDbEntity
  8
0
  6
CONTINUOUS
 62
     3
100
AcDbText
 10
1413.410034
 20
1383.124023
 30
0.0
 40
30.0
  1
2-φ13
 41
0.833333
  7
ED_VECTOR
100
AcDbText
  0
LINE
  5
398
330
1F
100
AcDbEntity
  8
0
  6
CONTINUOUS
 62
     5
100
AcDbLine
 10
1321.071677
 20
1518.618253
 30
0.0
 11
1405.74399
 21
1379.174198
 31
0.0
  0
INSERT
  5
399
330
1F
100
AcDbEntity
  8
0
  6
CONTINUOUS
 62
     5
100
AcDbBlockReference
  2
EDTIP_ARROW_S
 10
1321.071677
 20
1518.618253
 30
0.0
 41
30.0
 42
30.0
 50
121.266689
  0
LINE
  5
39A
330
1F
100
AcDbEntity
  8
0
  6
CONTINUOUS
 62
     3
100
AcDbLine
 10
2019.198032
 20
1672.174198
 30
0.0
 11
2019.198032
 21
1658.424198
 31
0.0
  0
LINE
  5
39B
330
1F
100
AcDbEntity
  8
0
  6
CONTINUOUS
 62
     3
100
AcDbLine
 10
2013.698032
 20
1672.174198
 30
0.0
 11
2019.198032
 21
1672.174198
 31
0.0
  0
LINE
  5
39C
330
1F
100
AcDbEntity
  8
0
  6
CONTINUOUS
 62
     3
100
AcDbLine
 10
2007.198032
 20
1673.174198
 30
0.0
 11
2012.698032
 21
1673.174198
 31
0.0
  0
LINE
  5
39D
330
1F
100
AcDbEntity
  8
0
  6
CONTINUOUS
 62
     3
100
AcDbLine
 10
2000.198032
 20
1674.674198
 30
0.0
 11
2005.698032
 21
1674.674198
 31
0.0
  0
LINE
  5
39E
330
1F
100
AcDbEntity
  8
0
  6
CONTINUOUS
 62
     3
100
AcDbLine
 10
2000.198032
 20
1674.674198
 30
0.0
 11
2000.198032
 21
1655.424198
 31
0.0
  0
LINE
  5
39F
330
1F
100
AcDbEntity
  8
0
  6
CONTINUOUS
 62
     3
100
AcDbLine
 10
2005.698032
 20
1674.674198
 30
0.0
 11
2005.698032
 21
1655.424198
 31
0.0
  0
LINE
  5
3A0
330
1F
100
AcDbEntity
  8
0
  6
CONTINUOUS
 62
     3
100
AcDbLine
 10
2007.198032
 20
1673.174198
 30
0.0
 11
2007.198032
 21
1656.924198
 31
0.0
  0
LINE
  5
3A1
330
1F
100
AcDbEntity
  8
0
  6
CONTINUOUS
 62
     3
100
AcDbLine
 10
2012.698032
 20
1673.174198
 30
0.0
 11
2012.698032
 21
1656.924198
 31
0.0
  0
LINE
  5
3A2
330
1F
100
AcDbEntity
  8
0
  6
CONTINUOUS
 62
     3
100
AcDbLine
 10
2013.698032
 20
1672.174198
 30
0.0
 11
2013.698032
 21
1658.424198
 31
0.0
  0
LINE
  5
3A3
330
1F
100
AcDbEntity
  8
0
  6
CENTER
 62
     6
100
AcDbLine
 10
1988.394427
 20
1665.174198
 30
0.0
 11
2051.633208
 21
1665.174198
 31
0.0
  0
LINE
  5
3A4
330
1F
100
AcDbEntity
  8
0
  6
CENTER
 62
     6
100
AcDbLine
 10
1988.394427
 20
1633.174198
 30
0.0
 11
2051.633208
 21
1633.174198
 31
0.0
  0
ARC
  5
3A5
330
1F
100
AcDbEntity
  8
0
  6
CONTINUOUS
 62
     3
100
AcDbCircle
 10
2016.448032
 20
1658.424198
 30
0.0
 40
2.75
100
AcDbArc
 50
180.0
 51
0.0
  0
ARC
  5
3A6
330
1F
100
AcDbEntity
  8
0
  6
CONTINUOUS
 62
     3
100
AcDbCircle
 10
2009.948032
 20
1656.924198
 30
0.0
 40
2.75
100
AcDbArc
 50
180.0
 51
0.0
  0
ARC
  5
3A7
330
1F
100
AcDbEntity
  8
0
  6
CONTINUOUS
 62
     3
100
AcDbCircle
 10
2002.948032
 20
1655.424198
 30
0.0
 40
2.75
100
AcDbArc
 50
180.0
 51
0.0
  0
LINE
  5
3A8
330
1F
100
AcDbEntity
  8
0
  6
CONTINUOUS
 62
     3
100
AcDbLine
 10
2019.198032
 20
1640.174198
 30
0.0
 11
2019.198032
 21
1626.424198
 31
0.0
  0
LINE
  5
3A9
330
1F
100
AcDbEntity
  8
0
  6
CONTINUOUS
 62
     3
100
AcDbLine
 10
2013.698032
 20
1640.174198
 30
0.0
 11
2019.198032
 21
1640.174198
 31
0.0
  0
LINE
  5
3AA
330
1F
100
AcDbEntity
  8
0
  6
CONTINUOUS
 62
     3
100
AcDbLine
 10
2007.198032
 20
1641.174198
 30
0.0
 11
2012.698032
 21
1641.174198
 31
0.0
  0
LINE
  5
3AB
330
1F
100
AcDbEntity
  8
0
  6
CONTINUOUS
 62
     3
100
AcDbLine
 10
2000.198032
 20
1642.674198
 30
0.0
 11
2005.698032
 21
1642.674198
 31
0.0
  0
LINE
  5
3AC
330
1F
100
AcDbEntity
  8
0
  6
CONTINUOUS
 62
     3
100
AcDbLine
 10
2000.198032
 20
1642.674198
 30
0.0
 11
2000.198032
 21
1623.424198
 31
0.0
  0
LINE
  5
3AD
330
1F
100
AcDbEntity
  8
0
  6
CONTINUOUS
 62
     3
100
AcDbLine
 10
2005.698032
 20
1642.674198
 30
0.0
 11
2005.698032
 21
1623.424198
 31
0.0
  0
LINE
  5
3AE
330
1F
100
AcDbEntity
  8
0
  6
CONTINUOUS
 62
     3
100
AcDbLine
 10
2007.198032
 20
1641.174198
 30
0.0
 11
2007.198032
 21
1624.924198
 31
0.0
  0
LINE
  5
3AF
330
1F
100
AcDbEntity
  8
0
  6
CONTINUOUS
 62
     3
100
AcDbLine
 10
2012.698032
 20
1641.174198
 30
0.0
 11
2012.698032
 21
1624.924198
 31
0.0
  0
LINE
  5
3B0
330
1F
100
AcDbEntity
  8
0
  6
CONTINUOUS
 62
     3
100
AcDbLine
 10
2013.698032
 20
1640.174198
 30
0.0
 11
2013.698032
 21
1626.424198
 31
0.0
  0
ARC
  5
3B1
330
1F
100
AcDbEntity
  8
0
  6
CONTINUOUS
 62
     3
100
AcDbCircle
 10
2016.448032
 20
1626.424198
 30
0.0
 40
2.75
100
AcDbArc
 50
180.0
 51
0.0
  0
ARC
  5
3B2
330
1F
100
AcDbEntity
  8
0
  6
CONTINUOUS
 62
     3
100
AcDbCircle
 10
2009.948032
 20
1624.924198
 30
0.0
 40
2.75
100
AcDbArc
 50
180.0
 51
0.0
  0
ARC
  5
3B3
330
1F
100
AcDbEntity
  8
0
  6
CONTINUOUS
 62
     3
100
AcDbCircle
 10
2002.948032
 20
1623.424198
 30
0.0
 40
2.75
100
AcDbArc
 50
180.0
 51
0.0
  0
POINT
  5
3B4
330
1F
100
AcDbEntity
  8
0
  6
CONTINUOUS
 62
     5
100
AcDbPoint
 10
1910.007966
 20
1575.158714
 30
0.0
  0
LINE
  5
3B5
330
1F
100
AcDbEntity
  8
0
  6
CONTINUOUS
 62
     3
100
AcDbLine
 10
627.917055
 20
506.196315
 30
0.0
 11
627.917055
 21
510.696315
 31
0.0
  0
LINE
  5
3B6
330
1F
100
AcDbEntity
  8
0
  6
CONTINUOUS
 62
     3
100
AcDbLine
 10
677.917055
 20
510.696315
 30
0.0
 11
677.917055
 21
536.196315
 31
0.0
  0
LINE
  5
3B7
330
1F
100
AcDbEntity
  8
0
  6
DASHED
 62
     3
100
AcDbLine
 10
677.917055
 20
510.696315
 30
0.0
 11
677.917055
 21
506.196315
 31
0.0
  0
LINE
  5
3B8
330
1F
100
AcDbEntity
  8
0
  6
CENTER
 62
     6
100
AcDbLine
 10
652.917055
 20
519.975432
 30
0.0
 11
652.917055
 21
496.483168
 31
0.0
  0
LINE
  5
3B9
330
1F
100
AcDbEntity
  8
0
  6
CONTINUOUS
 62
     3
100
AcDbLine
 10
627.917055
 20
506.196315
 30
0.0
 11
927.917055
 21
506.196315
 31
0.0
  0
LINE
  5
3BA
330
1F
100
AcDbEntity
  8
0
  6
CONTINUOUS
 62
     3
100
AcDbLine
 10
627.917055
 20
510.696315
 30
0.0
 11
703.917055
 21
510.696315
 31
0.0
  0
LINE
  5
3BB
330
1F
100
AcDbEntity
  8
0
  6
CONTINUOUS
 62
     3
100
AcDbLine
 10
703.917055
 20
506.196315
 30
0.0
 11
703.917055
 21
536.196315
 31
0.0
  0
LINE
  5
3BC
330
1F
100
AcDbEntity
  8
0
  6
CONTINUOUS
 62
     3
100
AcDbLine
 10
709.917055
 20
506.196315
 30
0.0
 11
709.917055
 21
536.196315
 31
0.0
  0
LINE
  5
3BD
330
1F
100
AcDbEntity
  8
0
  6
CONTINUOUS
 62
     3
100
AcDbLine
 10
712.917055
 20
536.196315
 30
0.0
 11
712.917055
 21
1038.434615
 31
0.0
  0
LINE
  5
3BE
330
1F
100
AcDbEntity
  8
0
  6
CONTINUOUS
 62
     3
100
AcDbLine
 10
721.917055
 20
536.196315
 30
0.0
 11
721.917055
 21
1038.434615
 31
0.0
  0
LINE
  5
3BF
330
1F
100
AcDbEntity
  8
0
  6
CONTINUOUS
 62
     3
100
AcDbLine
 10
708.917055
 20
1066.196315
 30
0.0
 11
708.917055
 21
536.196315
 31
0.0
  0
LINE
  5
3C0
330
1F
100
AcDbEntity
  8
0
  6
CONTINUOUS
 62
     3
100
AcDbLine
 10
699.917055
 20
536.196315
 30
0.0
 11
699.917055
 21
1066.196315
 31
0.0
  0
LINE
  5
3C1
330
1F
100
AcDbEntity
  8
0
  6
CONTINUOUS
 62
     3
100
AcDbLine
 10
677.917055
 20
536.196315
 30
0.0
 11
877.917055
 21
536.196315
 31
0.0
  0
LINE
  5
3C2
330
1F
100
AcDbEntity
  8
0
  6
CONTINUOUS
 62
     3
100
AcDbLine
 10
927.917055
 20
510.696315
 30
0.0
 11
851.917055
 21
510.696315
 31
0.0
  0
LINE
  5
3C3
330
1F
100
AcDbEntity
  8
0
  6
CONTINUOUS
 62
     3
100
AcDbLine
 10
927.917055
 20
506.196315
 30
0.0
 11
927.917055
 21
510.696315
 31
0.0
  0
LINE
  5
3C4
330
1F
100
AcDbEntity
  8
0
  6
CENTER
 62
     6
100
AcDbLine
 10
902.917055
 20
519.975432
 30
0.0
 11
902.917055
 21
496.483168
 31
0.0
  0
LINE
  5
3C5
330
1F
100
AcDbEntity
  8
0
  6
CONTINUOUS
 62
     3
100
AcDbLine
 10
839.417055
 20
1051.896315
 30
0.0
 11
839.417055
 21
1066.196315
 31
0.0
  0
LINE
  5
3C6
330
1F
100
AcDbEntity
  8
0
  6
CONTINUOUS
 62
     3
100
AcDbLine
 10
845.417055
 20
1066.196315
 30
0.0
 11
845.417055
 21
1051.896315
 31
0.0
  0
LINE
  5
3C7
330
1F
100
AcDbEntity
  8
0
  6
CONTINUOUS
 62
     3
100
AcDbLine
 10
845.417055
 20
1051.896315
 30
0.0
 11
839.417055
 21
1051.896315
 31
0.0
  0
LINE
  5
3C8
330
1F
100
AcDbEntity
  8
0
  6
CENTER
 62
     6
100
AcDbLine
 10
852.249693
 20
1063.896315
 30
0.0
 11
777.917055
 21
1063.896315
 31
0.0
  0
LINE
  5
3C9
330
1F
100
AcDbEntity
  8
0
  6
CENTER
 62
     6
100
AcDbLine
 10
699.917055
 20
1063.896315
 30
0.0
 11
777.917055
 21
1063.896315
 31
0.0
  0
LINE
  5
3CA
330
1F
100
AcDbEntity
  8
0
  6
CONTINUOUS
 62
     3
100
AcDbLine
 10
710.417055
 20
1066.196315
 30
0.0
 11
710.417055
 21
1051.896315
 31
0.0
  0
LINE
  5
3CB
330
1F
100
AcDbEntity
  8
0
  6
CONTINUOUS
 62
     3
100
AcDbLine
 10
716.417055
 20
1051.896315
 30
0.0
 11
716.417055
 21
1066.196315
 31
0.0
  0
LINE
  5
3CC
330
1F
100
AcDbEntity
  8
0
  6
CONTINUOUS
 62
     3
100
AcDbLine
 10
710.417055
 20
1051.896315
 30
0.0
 11
716.417055
 21
1051.896315
 31
0.0
  0
LINE
  5
3CD
330
1F
100
AcDbEntity
  8
0
  6
CENTER
 62
     6
100
AcDbLine
 10
684.190203
 20
784.799549
 30
0.0
 11
749.243839
 21
784.799549
 31
0.0
  0
LINE
  5
3CE
330
1F
100
AcDbEntity
  8
0
  6
CONTINUOUS
 62
     3
100
AcDbLine
 10
709.117055
 20
771.199549
 30
0.0
 11
712.917055
 21
771.199549
 31
0.0
  0
LINE
  5
3CF
330
1F
100
AcDbEntity
  8
0
  6
CONTINUOUS
 62
     3
100
AcDbLine
 10
709.117055
 20
798.399549
 30
0.0
 11
709.117055
 21
771.199549
 31
0.0
  0
LINE
  5
3D0
330
1F
100
AcDbEntity
  8
0
  6
CONTINUOUS
 62
     3
100
AcDbLine
 10
712.917055
 20
798.399549
 30
0.0
 11
709.117055
 21
798.399549
 31
0.0
  0
LINE
  5
3D1
330
1F
100
AcDbEntity
  8
0
  6
CONTINUOUS
 62
     3
100
AcDbLine
 10
712.917055
 20
797.299549
 30
0.0
 11
721.917055
 21
797.299549
 31
0.0
  0
LINE
  5
3D2
330
1F
100
AcDbEntity
  8
0
  6
CONTINUOUS
 62
     3
100
AcDbLine
 10
745.917055
 20
790.799549
 30
0.0
 11
739.917055
 21
790.799549
 31
0.0
  0
LINE
  5
3D3
330
1F
100
AcDbEntity
  8
0
  6
CONTINUOUS
 62
     3
100
AcDbLine
 10
721.917055
 20
772.299549
 30
0.0
 11
712.917055
 21
772.299549
 31
0.0
  0
LINE
  5
3D4
330
1F
100
AcDbEntity
  8
0
  6
CONTINUOUS
 62
     3
100
AcDbLine
 10
730.917055
 20
755.826168
 30
0.0
 11
730.917055
 21
823.443111
 31
0.0
  0
LINE
  5
3D5
330
1F
100
AcDbEntity
  8
0
  6
CONTINUOUS
 62
     3
100
AcDbLine
 10
739.917055
 20
753.714475
 30
0.0
 11
739.917055
 21
823.443111
 31
0.0
  0
LINE
  5
3D6
330
1F
100
AcDbEntity
  8
0
  6
CONTINUOUS
 62
     3
100
AcDbLine
 10
745.917055
 20
778.799549
 30
0.0
 11
739.917055
 21
778.799549
 31
0.0
  0
LINE
  5
3D7
330
1F
100
AcDbEntity
  8
0
  6
CONTINUOUS
 62
     3
100
AcDbLine
 10
745.917055
 20
778.799549
 30
0.0
 11
745.917055
 21
790.799549
 31
0.0
  0
LINE
  5
3D8
330
1F
100
AcDbEntity
  8
0
  6
CONTINUOUS
 62
     3
100
AcDbLine
 10
728.917055
 20
805.690318
 30
0.0
 11
728.917055
 21
815.690318
 31
0.0
  0
LINE
  5
3D9
330
1F
100
AcDbEntity
  8
0
  6
CONTINUOUS
 62
     3
100
AcDbLine
 10
728.917055
 20
815.690318
 30
0.0
 11
730.917055
 21
815.690318
 31
0.0
  0
LINE
  5
3DA
330
1F
100
AcDbEntity
  8
0
  6
CONTINUOUS
 62
     3
100
AcDbLine
 10
741.917055
 20
815.690318
 30
0.0
 11
741.917055
 21
805.690318
 31
0.0
  0
LINE
  5
3DB
330
1F
100
AcDbEntity
  8
0
  6
CONTINUOUS
 62
     3
100
AcDbLine
 10
741.917055
 20
805.690318
 30
0.0
 11
739.917055
 21
805.690318
 31
0.0
  0
LINE
  5
3DC
330
1F
100
AcDbEntity
  8
0
  6
CONTINUOUS
 62
     3
100
AcDbLine
 10
699.917055
 20
774.299549
 30
0.0
 11
689.917055
 21
774.299549
 31
0.0
  0
LINE
  5
3DD
330
1F
100
AcDbEntity
  8
0
  6
CONTINUOUS
 62
     3
100
AcDbLine
 10
688.417055
 20
778.799549
 30
0.0
 11
688.417055
 21
790.799549
 31
0.0
  0
LINE
  5
3DE
330
1F
100
AcDbEntity
  8
0
  6
CONTINUOUS
 62
     3
100
AcDbLine
 10
689.917055
 20
795.299549
 30
0.0
 11
689.917055
 21
774.299549
 31
0.0
  0
LINE
  5
3DF
330
1F
100
AcDbEntity
  8
0
  6
CONTINUOUS
 62
     3
100
AcDbLine
 10
696.917055
 20
795.299549
 30
0.0
 11
696.917055
 21
774.299549
 31
0.0
  0
LINE
  5
3E0
330
1F
100
AcDbEntity
  8
0
  6
CONTINUOUS
 62
     3
100
AcDbLine
 10
699.917055
 20
795.299549
 30
0.0
 11
689.917055
 21
795.299549
 31
0.0
  0
LINE
  5
3E1
330
1F
100
AcDbEntity
  8
0
  6
CONTINUOUS
 62
     3
100
AcDbLine
 10
688.417055
 20
778.799549
 30
0.0
 11
696.917055
 21
778.799549
 31
0.0
  0
LINE
  5
3E2
330
1F
100
AcDbEntity
  8
0
  6
CONTINUOUS
 62
     3
100
AcDbLine
 10
688.417055
 20
790.799549
 30
0.0
 11
696.917055
 21
790.799549
 31
0.0
  0
LINE
  5
3E3
330
1F
100
AcDbEntity
  8
0
  6
CONTINUOUS
 62
     3
100
AcDbLine
 10
696.917055
 20
783.13063
 30
0.0
 11
699.917055
 21
785.513608
 31
0.0
  0
LINE
  5
3E4
330
1F
100
AcDbEntity
  8
0
  6
CONTINUOUS
 62
     3
100
AcDbLine
 10
696.917055
 20
784.407718
 30
0.0
 11
699.917055
 21
786.790696
 31
0.0
  0
LINE
  5
3E5
330
1F
100
AcDbEntity
  8
0
  6
CENTER
 62
     6
100
AcDbLine
 10
745.150742
 20
810.690318
 30
0.0
 11
726.483685
 21
810.690318
 31
0.0
  0
LINE
  5
3E6
330
1F
100
AcDbEntity
  8
0
  6
CONTINUOUS
 62
     3
100
AcDbLine
 10
739.917055
 20
823.443111
 30
0.0
 11
730.917055
 21
823.443111
 31
0.0
  0
LINE
  5
3E7
330
1F
100
AcDbEntity
  8
0
  6
CONTINUOUS
 62
     8
100
AcDbLine
 10
708.917055
 20
753.714475
 30
0.0
 11
712.917055
 21
753.714475
 31
0.0
  0
LINE
  5
3E8
330
1F
100
AcDbEntity
  8
0
  6
CONTINUOUS
 62
     8
100
AcDbLine
 10
708.917055
 20
748.285447
 30
0.0
 11
712.917055
 21
748.285447
 31
0.0
  0
LINE
  5
3E9
330
1F
100
AcDbEntity
  8
0
  6
CONTINUOUS
 62
     8
100
AcDbLine
 10
708.917055
 20
717.977755
 30
0.0
 11
712.917055
 21
717.977755
 31
0.0
  0
LINE
  5
3EA
330
1F
100
AcDbEntity
  8
0
  6
CONTINUOUS
 62
     3
100
AcDbLine
 10
739.917055
 20
815.690318
 30
0.0
 11
741.917055
 21
815.690318
 31
0.0
  0
LINE
  5
3EB
330
1F
100
AcDbEntity
  8
0
  6
CONTINUOUS
 62
     3
100
AcDbLine
 10
730.917055
 20
805.690318
 30
0.0
 11
728.917055
 21
805.690318
 31
0.0
  0
LINE
  5
3EC
330
1F
100
AcDbEntity
  8
0
  6
CENTER
 62
     6
100
AcDbLine
 10
693.917055
 20
523.196315
 30
0.0
 11
777.917055
 21
523.196315
 31
0.0
  0
LINE
  5
3ED
330
1F
100
AcDbEntity
  8
0
  6
CENTER
 62
     6
100
AcDbLine
 10
871.480646
 20
784.799549
 30
0.0
 11
806.590271
 21
784.799549
 31
0.0
  0
LINE
  5
3EE
330
1F
100
AcDbEntity
  8
0
  6
CONTINUOUS
 62
     3
100
AcDbLine
 10
846.717055
 20
771.199549
 30
0.0
 11
842.917055
 21
771.199549
 31
0.0
  0
LINE
  5
3EF
330
1F
100
AcDbEntity
  8
0
  6
CONTINUOUS
 62
     8
100
AcDbLine
 10
846.717055
 20
798.399549
 30
0.0
 11
846.717055
 21
771.199549
 31
0.0
  0
LINE
  5
3F0
330
1F
100
AcDbEntity
  8
0
  6
CONTINUOUS
 62
     3
100
AcDbLine
 10
842.917055
 20
798.399549
 30
0.0
 11
846.717055
 21
798.399549
 31
0.0
  0
LINE
  5
3F1
330
1F
100
AcDbEntity
  8
0
  6
CONTINUOUS
 62
     3
100
AcDbLine
 10
825.117055
 20
772.299549
 30
0.0
 11
833.917055
 21
772.299549
 31
0.0
  0
LINE
  5
3F2
330
1F
100
AcDbEntity
  8
0
  6
CONTINUOUS
 62
     3
100
AcDbLine
 10
809.917055
 20
790.799549
 30
0.0
 11
815.917055
 21
790.799549
 31
0.0
  0
LINE
  5
3F3
330
1F
100
AcDbEntity
  8
0
  6
CONTINUOUS
 62
     3
100
AcDbLine
 10
833.917055
 20
797.299549
 30
0.0
 11
825.117055
 21
797.299549
 31
0.0
  0
LINE
  5
3F4
330
1F
100
AcDbEntity
  8
0
  6
CONTINUOUS
 62
     3
100
AcDbLine
 10
825.117055
 20
797.299549
 30
0.0
 11
825.117055
 21
772.299549
 31
0.0
  0
LINE
  5
3F5
330
1F
100
AcDbEntity
  8
0
  6
CONTINUOUS
 62
     3
100
AcDbLine
 10
824.917055
 20
755.826168
 30
0.0
 11
824.917055
 21
823.443111
 31
0.0
  0
LINE
  5
3F6
330
1F
100
AcDbEntity
  8
0
  6
CONTINUOUS
 62
     3
100
AcDbLine
 10
815.917055
 20
753.714475
 30
0.0
 11
815.917055
 21
823.443111
 31
0.0
  0
LINE
  5
3F7
330
1F
100
AcDbEntity
  8
0
  6
CONTINUOUS
 62
     3
100
AcDbLine
 10
809.917055
 20
778.799549
 30
0.0
 11
815.917055
 21
778.799549
 31
0.0
  0
LINE
  5
3F8
330
1F
100
AcDbEntity
  8
0
  6
CONTINUOUS
 62
     3
100
AcDbLine
 10
809.917055
 20
778.799549
 30
0.0
 11
809.917055
 21
790.799549
 31
0.0
  0
LINE
  5
3F9
330
1F
100
AcDbEntity
  8
0
  6
CONTINUOUS
 62
     3
100
AcDbLine
 10
826.917055
 20
805.690318
 30
0.0
 11
826.917055
 21
815.690318
 31
0.0
  0
LINE
  5
3FA
330
1F
100
AcDbEntity
  8
0
  6
CONTINUOUS
 62
     3
100
AcDbLine
 10
826.917055
 20
815.690318
 30
0.0
 11
824.917055
 21
815.690318
 31
0.0
  0
LINE
  5
3FB
330
1F
100
AcDbEntity
  8
0
  6
CONTINUOUS
 62
     3
100
AcDbLine
 10
813.917055
 20
815.690318
 30
0.0
 11
813.917055
 21
805.690318
 31
0.0
  0
LINE
  5
3FC
330
1F
100
AcDbEntity
  8
0
  6
CONTINUOUS
 62
     3
100
AcDbLine
 10
813.917055
 20
805.690318
 30
0.0
 11
815.917055
 21
805.690318
 31
0.0
  0
LINE
  5
3FD
330
1F
100
AcDbEntity
  8
0
  6
CONTINUOUS
 62
     3
100
AcDbLine
 10
855.917055
 20
774.299549
 30
0.0
 11
865.917055
 21
774.299549
 31
0.0
  0
LINE
  5
3FE
330
1F
100
AcDbEntity
  8
0
  6
CONTINUOUS
 62
     3
100
AcDbLine
 10
867.417055
 20
778.799549
 30
0.0
 11
867.417055
 21
790.799549
 31
0.0
  0
LINE
  5
3FF
330
1F
100
AcDbEntity
  8
0
  6
CONTINUOUS
 62
     3
100
AcDbLine
 10
865.917055
 20
795.299549
 30
0.0
 11
865.917055
 21
774.299549
 31
0.0
  0
LINE
  5
400
330
1F
100
AcDbEntity
  8
0
  6
CONTINUOUS
 62
     3
100
AcDbLine
 10
858.917055
 20
795.299549
 30
0.0
 11
858.917055
 21
774.299549
 31
0.0
  0
LINE
  5
401
330
1F
100
AcDbEntity
  8
0
  6
CONTINUOUS
 62
     3
100
AcDbLine
 10
855.917055
 20
795.299549
 30
0.0
 11
865.917055
 21
795.299549
 31
0.0
  0
LINE
  5
402
330
1F
100
AcDbEntity
  8
0
  6
CONTINUOUS
 62
     3
100
AcDbLine
 10
867.417055
 20
778.799549
 30
0.0
 11
858.917055
 21
778.799549
 31
0.0
  0
LINE
  5
403
330
1F
100
AcDbEntity
  8
0
  6
CONTINUOUS
 62
     3
100
AcDbLine
 10
867.417055
 20
790.799549
 30
0.0
 11
858.917055
 21
790.799549
 31
0.0
  0
LINE
  5
404
330
1F
100
AcDbEntity
  8
0
  6
CONTINUOUS
 62
     3
100
AcDbLine
 10
858.917055
 20
786.468468
 30
0.0
 11
855.917055
 21
784.085489
 31
0.0
  0
LINE
  5
405
330
1F
100
AcDbEntity
  8
0
  6
CONTINUOUS
 62
     3
100
AcDbLine
 10
858.917055
 20
785.191379
 30
0.0
 11
855.917055
 21
782.808401
 31
0.0
  0
LINE
  5
406
330
1F
100
AcDbEntity
  8
0
  6
CENTER
 62
     6
100
AcDbLine
 10
811.167055
 20
810.690318
 30
0.0
 11
829.667055
 21
810.690318
 31
0.0
  0
LINE
  5
407
330
1F
100
AcDbEntity
  8
0
  6
CONTINUOUS
 62
     3
100
AcDbLine
 10
815.917055
 20
823.443111
 30
0.0
 11
824.917055
 21
823.443111
 31
0.0
  0
LINE
  5
408
330
1F
100
AcDbEntity
  8
0
  6
CONTINUOUS
 62
     3
100
AcDbLine
 10
846.917055
 20
753.714475
 30
0.0
 11
842.917055
 21
753.714475
 31
0.0
  0
LINE
  5
409
330
1F
100
AcDbEntity
  8
0
  6
CONTINUOUS
 62
     3
100
AcDbLine
 10
846.917055
 20
748.285447
 30
0.0
 11
842.917055
 21
748.285447
 31
0.0
  0
LINE
  5
40A
330
1F
100
AcDbEntity
  8
0
  6
CONTINUOUS
 62
     3
100
AcDbLine
 10
846.917055
 20
717.977755
 30
0.0
 11
842.917055
 21
717.977755
 31
0.0
  0
LINE
  5
40B
330
1F
100
AcDbEntity
  8
0
  6
CONTINUOUS
 62
     3
100
AcDbLine
 10
815.917055
 20
815.690318
 30
0.0
 11
813.917055
 21
815.690318
 31
0.0
  0
LINE
  5
40C
330
1F
100
AcDbEntity
  8
0
  6
CONTINUOUS
 62
     3
100
AcDbLine
 10
824.917055
 20
805.690318
 30
0.0
 11
826.917055
 21
805.690318
 31
0.0
  0
LINE
  5
40D
330
1F
100
AcDbEntity
  8
0
  6
CONTINUOUS
 62
     3
100
AcDbLine
 10
855.917055
 20
536.196315
 30
0.0
 11
855.917055
 21
1066.196315
 31
0.0
  0
LINE
  5
40E
330
1F
100
AcDbEntity
  8
0
  6
CONTINUOUS
 62
     3
100
AcDbLine
 10
846.917055
 20
1066.196315
 30
0.0
 11
846.917055
 21
536.196315
 31
0.0
  0
LINE
  5
40F
330
1F
100
AcDbEntity
  8
0
  6
CONTINUOUS
 62
     3
100
AcDbLine
 10
842.917055
 20
536.196315
 30
0.0
 11
842.917055
 21
1038.434615
 31
0.0
  0
LINE
  5
410
330
1F
100
AcDbEntity
  8
0
  6
CONTINUOUS
 62
     3
100
AcDbLine
 10
833.917055
 20
536.196315
 30
0.0
 11
833.917055
 21
1038.434615
 31
0.0
  0
LINE
  5
411
330
1F
100
AcDbEntity
  8
0
  6
CONTINUOUS
 62
     3
100
AcDbLine
 10
703.917055
 20
512.696315
 30
0.0
 11
693.917055
 21
512.696315
 31
0.0
  0
LINE
  5
412
330
1F
100
AcDbEntity
  8
0
  6
CONTINUOUS
 62
     3
100
AcDbLine
 10
700.917055
 20
512.696315
 30
0.0
 11
700.917055
 21
533.696315
 31
0.0
  0
LINE
  5
413
330
1F
100
AcDbEntity
  8
0
  6
CONTINUOUS
 62
     3
100
AcDbLine
 10
693.917055
 20
512.696315
 30
0.0
 11
693.917055
 21
533.696315
 31
0.0
  0
LINE
  5
414
330
1F
100
AcDbEntity
  8
0
  6
CONTINUOUS
 62
     3
100
AcDbLine
 10
703.917055
 20
533.696315
 30
0.0
 11
693.917055
 21
533.696315
 31
0.0
  0
LINE
  5
415
330
1F
100
AcDbEntity
  8
0
  6
CONTINUOUS
 62
     3
100
AcDbLine
 10
700.917055
 20
521.527396
 30
0.0
 11
703.917055
 21
523.910375
 31
0.0
  0
LINE
  5
416
330
1F
100
AcDbEntity
  8
0
  6
CONTINUOUS
 62
     3
100
AcDbLine
 10
700.917055
 20
522.804485
 30
0.0
 11
703.917055
 21
525.187463
 31
0.0
  0
LINE
  5
417
330
1F
100
AcDbEntity
  8
0
  6
CONTINUOUS
 62
     3
100
AcDbLine
 10
693.917055
 20
517.196315
 30
0.0
 11
700.917055
 21
517.196315
 31
0.0
  0
LINE
  5
418
330
1F
100
AcDbEntity
  8
0
  6
CONTINUOUS
 62
     3
100
AcDbLine
 10
693.917055
 20
529.196315
 30
0.0
 11
700.917055
 21
529.196315
 31
0.0
  0
LINE
  5
419
330
1F
100
AcDbEntity
  8
0
  6
CONTINUOUS
 62
     3
100
AcDbLine
 10
726.417055
 20
1053.396315
 30
0.0
 11
726.417055
 21
1066.196315
 31
0.0
  0
LINE
  5
41A
330
1F
100
AcDbEntity
  8
0
  6
CONTINUOUS
 62
     3
100
AcDbLine
 10
719.417055
 20
1053.396315
 30
0.0
 11
719.417055
 21
1066.196315
 31
0.0
  0
LINE
  5
41B
330
1F
100
AcDbEntity
  8
0
  6
CONTINUOUS
 62
     3
100
AcDbLine
 10
716.417055
 20
1053.396315
 30
0.0
 11
726.417055
 21
1053.396315
 31
0.0
  0
LINE
  5
41C
330
1F
100
AcDbEntity
  8
0
  6
CONTINUOUS
 62
     3
100
AcDbLine
 10
719.417055
 20
1065.565234
 30
0.0
 11
716.417055
 21
1063.182256
 31
0.0
  0
LINE
  5
41D
330
1F
100
AcDbEntity
  8
0
  6
CONTINUOUS
 62
     3
100
AcDbLine
 10
719.417055
 20
1064.288146
 30
0.0
 11
716.417055
 21
1061.905168
 31
0.0
  0
LINE
  5
41E
330
1F
100
AcDbEntity
  8
0
  6
CONTINUOUS
 62
     3
100
AcDbLine
 10
726.417055
 20
1057.896315
 30
0.0
 11
719.417055
 21
1057.896315
 31
0.0
  0
LINE
  5
41F
330
1F
100
AcDbEntity
  8
0
  6
CONTINUOUS
 62
     3
100
AcDbLine
 10
708.917055
 20
1038.434615
 30
0.0
 11
846.917055
 21
1038.434615
 31
0.0
  0
LINE
  5
420
330
1F
100
AcDbEntity
  8
0
  6
CONTINUOUS
 62
     3
100
AcDbLine
 10
726.417055
 20
1055.981173
 30
0.0
 11
829.417055
 21
1055.981173
 31
0.0
  0
LINE
  5
421
330
1F
100
AcDbEntity
  8
0
  6
CONTINUOUS
 62
     3
100
AcDbLine
 10
726.417055
 20
1059.600525
 30
0.0
 11
829.417055
 21
1059.600525
 31
0.0
  0
LINE
  5
422
330
1F
100
AcDbEntity
  8
0
  6
CONTINUOUS
 62
     3
100
AcDbLine
 10
829.417055
 20
1053.396315
 30
0.0
 11
829.417055
 21
1066.196315
 31
0.0
  0
LINE
  5
423
330
1F
100
AcDbEntity
  8
0
  6
CONTINUOUS
 62
     3
100
AcDbLine
 10
836.417055
 20
1053.396315
 30
0.0
 11
836.417055
 21
1066.196315
 31
0.0
  0
LINE
  5
424
330
1F
100
AcDbEntity
  8
0
  6
CONTINUOUS
 62
     3
100
AcDbLine
 10
839.417055
 20
1053.396315
 30
0.0
 11
829.417055
 21
1053.396315
 31
0.0
  0
LINE
  5
425
330
1F
100
AcDbEntity
  8
0
  6
CONTINUOUS
 62
     3
100
AcDbLine
 10
836.417055
 20
1062.227396
 30
0.0
 11
839.417055
 21
1064.610375
 31
0.0
  0
LINE
  5
426
330
1F
100
AcDbEntity
  8
0
  6
CONTINUOUS
 62
     3
100
AcDbLine
 10
836.417055
 20
1063.504485
 30
0.0
 11
839.417055
 21
1065.887463
 31
0.0
  0
LINE
  5
427
330
1F
100
AcDbEntity
  8
0
  6
CONTINUOUS
 62
     3
100
AcDbLine
 10
829.417055
 20
1057.896315
 30
0.0
 11
836.417055
 21
1057.896315
 31
0.0
  0
LINE
  5
428
330
1F
100
AcDbEntity
  8
0
  6
CONTINUOUS
 62
     3
100
AcDbLine
 10
877.917055
 20
510.696315
 30
0.0
 11
877.917055
 21
536.196315
 31
0.0
  0
LINE
  5
429
330
1F
100
AcDbEntity
  8
0
  6
DASHED
 62
     3
100
AcDbLine
 10
877.917055
 20
510.696315
 30
0.0
 11
877.917055
 21
506.196315
 31
0.0
  0
LINE
  5
42A
330
1F
100
AcDbEntity
  8
0
  6
CONTINUOUS
 62
     3
100
AcDbLine
 10
851.917055
 20
506.196315
 30
0.0
 11
851.917055
 21
536.196315
 31
0.0
  0
LINE
  5
42B
330
1F
100
AcDbEntity
  8
0
  6
CONTINUOUS
 62
     3
100
AcDbLine
 10
845.917055
 20
506.196315
 30
0.0
 11
845.917055
 21
536.196315
 31
0.0
  0
LINE
  5
42C
330
1F
100
AcDbEntity
  8
0
  6
CONTINUOUS
 62
     3
100
AcDbLine
 10
851.917055
 20
512.696315
 30
0.0
 11
861.917055
 21
512.696315
 31
0.0
  0
LINE
  5
42D
330
1F
100
AcDbEntity
  8
0
  6
CONTINUOUS
 62
     3
100
AcDbLine
 10
854.917055
 20
512.696315
 30
0.0
 11
854.917055
 21
533.696315
 31
0.0
  0
LINE
  5
42E
330
1F
100
AcDbEntity
  8
0
  6
CONTINUOUS
 62
     3
100
AcDbLine
 10
861.917055
 20
512.696315
 30
0.0
 11
861.917055
 21
533.696315
 31
0.0
  0
LINE
  5
42F
330
1F
100
AcDbEntity
  8
0
  6
CONTINUOUS
 62
     3
100
AcDbLine
 10
851.917055
 20
533.696315
 30
0.0
 11
861.917055
 21
533.696315
 31
0.0
  0
LINE
  5
430
330
1F
100
AcDbEntity
  8
0
  6
CONTINUOUS
 62
     3
100
AcDbLine
 10
854.917055
 20
524.865234
 30
0.0
 11
851.917055
 21
522.482256
 31
0.0
  0
LINE
  5
431
330
1F
100
AcDbEntity
  8
0
  6
CONTINUOUS
 62
     3
100
AcDbLine
 10
854.917055
 20
523.588146
 30
0.0
 11
851.917055
 21
521.205168
 31
0.0
  0
LINE
  5
432
330
1F
100
AcDbEntity
  8
0
  6
CONTINUOUS
 62
     3
100
AcDbLine
 10
861.917055
 20
517.196315
 30
0.0
 11
854.917055
 21
517.196315
 31
0.0
  0
LINE
  5
433
330
1F
100
AcDbEntity
  8
0
  6
CONTINUOUS
 62
     3
100
AcDbLine
 10
861.917055
 20
529.196315
 30
0.0
 11
854.917055
 21
529.196315
 31
0.0
  0
LINE
  5
434
330
1F
100
AcDbEntity
  8
0
  6
CENTER
 62
     6
100
AcDbLine
 10
861.917055
 20
523.196315
 30
0.0
 11
777.917055
 21
523.196315
 31
0.0
  0
LINE
  5
435
330
1F
100
AcDbEntity
  8
0
  6
CENTER
 62
     6
100
AcDbLine
 10
712.917055
 20
725.598827
 30
0.0
 11
842.917055
 21
725.598827
 31
0.0
  0
LINE
  5
436
330
1F
100
AcDbEntity
  8
0
  6
CONTINUOUS
 62
     3
100
AcDbLine
 10
809.417055
 20
582.336005
 30
0.0
 11
809.297188
 21
583.708708
 31
0.0
  0
LINE
  5
437
330
1F
100
AcDbEntity
  8
0
  6
CONTINUOUS
 62
     3
100
AcDbLine
 10
809.297188
 20
583.708708
 30
0.0
 11
808.938499
 21
585.070964
 31
0.0
  0
LINE
  5
438
330
1F
100
AcDbEntity
  8
0
  6
CONTINUOUS
 62
     3
100
AcDbLine
 10
808.938499
 20
585.070964
 30
0.0
 11
808.343718
 21
586.412405
 31
0.0
  0
LINE
  5
439
330
1F
100
AcDbEntity
  8
0
  6
CONTINUOUS
 62
     3
100
AcDbLine
 10
808.343718
 20
586.412405
 30
0.0
 11
807.517372
 21
587.722822
 31
0.0
  0
LINE
  5
43A
330
1F
100
AcDbEntity
  8
0
  6
CONTINUOUS
 62
     3
100
AcDbLine
 10
807.517372
 20
587.722822
 30
0.0
 11
806.46575
 21
588.992243
 31
0.0
  0
LINE
  5
43B
330
1F
100
AcDbEntity
  8
0
  6
CONTINUOUS
 62
     3
100
AcDbLine
 10
806.46575
 20
588.992243
 30
0.0
 11
805.196855
 21
590.211005
 31
0.0
  0
LINE
  5
43C
330
1F
100
AcDbEntity
  8
0
  6
CONTINUOUS
 62
     3
100
AcDbLine
 10
805.196855
 20
590.211005
 30
0.0
 11
803.720344
 21
591.369834
 31
0.0
  0
LINE
  5
43D
330
1F
100
AcDbEntity
  8
0
  6
CONTINUOUS
 62
     3
100
AcDbLine
 10
803.720344
 20
591.369834
 30
0.0
 11
802.047455
 21
592.45991
 31
0.0
  0
LINE
  5
43E
330
1F
100
AcDbEntity
  8
0
  6
CONTINUOUS
 62
     3
100
AcDbLine
 10
802.047455
 20
592.45991
 30
0.0
 11
800.190919
 21
593.472937
 31
0.0
  0
LINE
  5
43F
330
1F
100
AcDbEntity
  8
0
  6
CONTINUOUS
 62
     3
100
AcDbLine
 10
800.190919
 20
593.472937
 30
0.0
 11
798.164865
 21
594.401205
 31
0.0
  0
LINE
  5
440
330
1F
100
AcDbEntity
  8
0
  6
CONTINUOUS
 62
     3
100
AcDbLine
 10
798.164865
 20
594.401205
 30
0.0
 11
795.984713
 21
595.23765
 31
0.0
  0
LINE
  5
441
330
1F
100
AcDbEntity
  8
0
  6
CONTINUOUS
 62
     3
100
AcDbLine
 10
795.984713
 20
595.23765
 30
0.0
 11
793.667055
 21
595.975905
 31
0.0
  0
LINE
  5
442
330
1F
100
AcDbEntity
  8
0
  6
CONTINUOUS
 62
     3
100
AcDbLine
 10
793.667055
 20
595.975905
 30
0.0
 11
791.22953
 21
596.610353
 31
0.0
  0
LINE
  5
443
330
1F
100
AcDbEntity
  8
0
  6
CONTINUOUS
 62
     3
100
AcDbLine
 10
791.22953
 20
596.610353
 30
0.0
 11
788.690689
 21
597.136164
 31
0.0
  0
LINE
  5
444
330
1F
100
AcDbEntity
  8
0
  6
CONTINUOUS
 62
     3
100
AcDbLine
 10
788.690689
 20
597.136164
 30
0.0
 11
786.069855
 21
597.549337
 31
0.0
  0
LINE
  5
445
330
1F
100
AcDbEntity
  8
0
  6
CONTINUOUS
 62
     3
100
AcDbLine
 10
786.069855
 20
597.549337
 30
0.0
 11
783.386973
 21
597.846727
 31
0.0
  0
LINE
  5
446
330
1F
100
AcDbEntity
  8
0
  6
CONTINUOUS
 62
     3
100
AcDbLine
 10
783.386973
 20
597.846727
 30
0.0
 11
780.662461
 21
598.026072
 31
0.0
  0
LINE
  5
447
330
1F
100
AcDbEntity
  8
0
  6
CONTINUOUS
 62
     3
100
AcDbLine
 10
780.662461
 20
598.026072
 30
0.0
 11
777.917055
 21
598.086005
 31
0.0
  0
LINE
  5
448
330
1F
100
AcDbEntity
  8
0
  6
CONTINUOUS
 62
     3
100
AcDbLine
 10
777.917055
 20
598.086005
 30
0.0
 11
775.171649
 21
598.026072
 31
0.0
  0
LINE
  5
449
330
1F
100
AcDbEntity
  8
0
  6
CONTINUOUS
 62
     3
100
AcDbLine
 10
775.171649
 20
598.026072
 30
0.0
 11
772.447137
 21
597.846727
 31
0.0
  0
LINE
  5
44A
330
1F
100
AcDbEntity
  8
0
  6
CONTINUOUS
 62
     3
100
AcDbLine
 10
772.447137
 20
597.846727
 30
0.0
 11
769.764255
 21
597.549337
 31
0.0
  0
LINE
  5
44B
330
1F
100
AcDbEntity
  8
0
  6
CONTINUOUS
 62
     3
100
AcDbLine
 10
769.764255
 20
597.549337
 30
0.0
 11
767.14342
 21
597.136164
 31
0.0
  0
LINE
  5
44C
330
1F
100
AcDbEntity
  8
0
  6
CONTINUOUS
 62
     3
100
AcDbLine
 10
767.14342
 20
597.136164
 30
0.0
 11
764.60458
 21
596.610353
 31
0.0
  0
LINE
  5
44D
330
1F
100
AcDbEntity
  8
0
  6
CONTINUOUS
 62
     3
100
AcDbLine
 10
764.60458
 20
596.610353
 30
0.0
 11
762.167055
 21
595.975905
 31
0.0
  0
LINE
  5
44E
330
1F
100
AcDbEntity
  8
0
  6
CONTINUOUS
 62
     3
100
AcDbLine
 10
762.167055
 20
595.975905
 30
0.0
 11
759.849397
 21
595.23765
 31
0.0
  0
LINE
  5
44F
330
1F
100
AcDbEntity
  8
0
  6
CONTINUOUS
 62
     3
100
AcDbLine
 10
759.849397
 20
595.23765
 30
0.0
 11
757.669245
 21
594.401205
 31
0.0
  0
LINE
  5
450
330
1F
100
AcDbEntity
  8
0
  6
CONTINUOUS
 62
     3
100
AcDbLine
 10
757.669245
 20
594.401205
 30
0.0
 11
755.643191
 21
593.472937
 31
0.0
  0
LINE
  5
451
330
1F
100
AcDbEntity
  8
0
  6
CONTINUOUS
 62
     3
100
AcDbLine
 10
755.643191
 20
593.472937
 30
0.0
 11
753.786655
 21
592.45991
 31
0.0
  0
LINE
  5
452
330
1F
100
AcDbEntity
  8
0
  6
CONTINUOUS
 62
     3
100
AcDbLine
 10
753.786655
 20
592.45991
 30
0.0
 11
752.113766
 21
591.369834
 31
0.0
  0
LINE
  5
453
330
1F
100
AcDbEntity
  8
0
  6
CONTINUOUS
 62
     3
100
AcDbLine
 10
752.113766
 20
591.369834
 30
0.0
 11
750.637255
 21
590.211005
 31
0.0
  0
LINE
  5
454
330
1F
100
AcDbEntity
  8
0
  6
CONTINUOUS
 62
     3
100
AcDbLine
 10
750.637255
 20
590.211005
 30
0.0
 11
749.36836
 21
588.992243
 31
0.0
  0
LINE
  5
455
330
1F
100
AcDbEntity
  8
0
  6
CONTINUOUS
 62
     3
100
AcDbLine
 10
749.36836
 20
588.992243
 30
0.0
 11
748.316737
 21
587.722822
 31
0.0
  0
LINE
  5
456
330
1F
100
AcDbEntity
  8
0
  6
CONTINUOUS
 62
     3
100
AcDbLine
 10
748.316737
 20
587.722822
 30
0.0
 11
747.490391
 21
586.412405
 31
0.0
  0
LINE
  5
457
330
1F
100
AcDbEntity
  8
0
  6
CONTINUOUS
 62
     3
100
AcDbLine
 10
747.490391
 20
586.412405
 30
0.0
 11
746.895611
 21
585.070964
 31
0.0
  0
LINE
  5
458
330
1F
100
AcDbEntity
  8
0
  6
CONTINUOUS
 62
     3
100
AcDbLine
 10
746.895611
 20
585.070964
 30
0.0
 11
746.536922
 21
583.708708
 31
0.0
  0
LINE
  5
459
330
1F
100
AcDbEntity
  8
0
  6
CONTINUOUS
 62
     3
100
AcDbLine
 10
746.536922
 20
583.708708
 30
0.0
 11
746.417055
 21
582.336005
 31
0.0
  0
LINE
  5
45A
330
1F
100
AcDbEntity
  8
0
  6
CONTINUOUS
 62
     3
100
AcDbLine
 10
746.417055
 20
582.336005
 30
0.0
 11
746.536922
 21
580.963302
 31
0.0
  0
LINE
  5
45B
330
1F
100
AcDbEntity
  8
0
  6
CONTINUOUS
 62
     3
100
AcDbLine
 10
746.536922
 20
580.963302
 30
0.0
 11
746.895611
 21
579.601046
 31
0.0
  0
LINE
  5
45C
330
1F
100
AcDbEntity
  8
0
  6
CONTINUOUS
 62
     3
100
AcDbLine
 10
746.895611
 20
579.601046
 30
0.0
 11
747.490391
 21
578.259605
 31
0.0
  0
LINE
  5
45D
330
1F
100
AcDbEntity
  8
0
  6
CONTINUOUS
 62
     3
100
AcDbLine
 10
747.490391
 20
578.259605
 30
0.0
 11
748.316737
 21
576.949188
 31
0.0
  0
LINE
  5
45E
330
1F
100
AcDbEntity
  8
0
  6
CONTINUOUS
 62
     3
100
AcDbLine
 10
748.316737
 20
576.949188
 30
0.0
 11
749.36836
 21
575.679768
 31
0.0
  0
LINE
  5
45F
330
1F
100
AcDbEntity
  8
0
  6
CONTINUOUS
 62
     3
100
AcDbLine
 10
749.36836
 20
575.679768
 30
0.0
 11
750.637255
 21
574.461005
 31
0.0
  0
LINE
  5
460
330
1F
100
AcDbEntity
  8
0
  6
CONTINUOUS
 62
     3
100
AcDbLine
 10
750.637255
 20
574.461005
 30
0.0
 11
752.113766
 21
573.302176
 31
0.0
  0
LINE
  5
461
330
1F
100
AcDbEntity
  8
0
  6
CONTINUOUS
 62
     3
100
AcDbLine
 10
752.113766
 20
573.302176
 30
0.0
 11
753.786655
 21
572.2121
 31
0.0
  0
LINE
  5
462
330
1F
100
AcDbEntity
  8
0
  6
CONTINUOUS
 62
     3
100
AcDbLine
 10
753.786655
 20
572.2121
 30
0.0
 11
755.643191
 21
571.199073
 31
0.0
  0
LINE
  5
463
330
1F
100
AcDbEntity
  8
0
  6
CONTINUOUS
 62
     3
100
AcDbLine
 10
800.190919
 20
571.199073
 30
0.0
 11
802.047455
 21
572.2121
 31
0.0
  0
LINE
  5
464
330
1F
100
AcDbEntity
  8
0
  6
CONTINUOUS
 62
     3
100
AcDbLine
 10
802.047455
 20
572.2121
 30
0.0
 11
803.720344
 21
573.302176
 31
0.0
  0
LINE
  5
465
330
1F
100
AcDbEntity
  8
0
  6
CONTINUOUS
 62
     3
100
AcDbLine
 10
803.720344
 20
573.302176
 30
0.0
 11
805.196855
 21
574.461005
 31
0.0
  0
LINE
  5
466
330
1F
100
AcDbEntity
  8
0
  6
CONTINUOUS
 62
     3
100
AcDbLine
 10
805.196855
 20
574.461005
 30
0.0
 11
806.46575
 21
575.679768
 31
0.0
  0
LINE
  5
467
330
1F
100
AcDbEntity
  8
0
  6
CONTINUOUS
 62
     3
100
AcDbLine
 10
806.46575
 20
575.679768
 30
0.0
 11
807.517372
 21
576.949188
 31
0.0
  0
LINE
  5
468
330
1F
100
AcDbEntity
  8
0
  6
CONTINUOUS
 62
     3
100
AcDbLine
 10
807.517372
 20
576.949188
 30
0.0
 11
808.343718
 21
578.259605
 31
0.0
  0
LINE
  5
469
330
1F
100
AcDbEntity
  8
0
  6
CONTINUOUS
 62
     3
100
AcDbLine
 10
808.343718
 20
578.259605
 30
0.0
 11
808.938499
 21
579.601046
 31
0.0
  0
LINE
  5
46A
330
1F
100
AcDbEntity
  8
0
  6
CONTINUOUS
 62
     3
100
AcDbLine
 10
808.938499
 20
579.601046
 30
0.0
 11
809.297188
 21
580.963302
 31
0.0
  0
LINE
  5
46B
330
1F
100
AcDbEntity
  8
0
  6
CONTINUOUS
 62
     3
100
AcDbLine
 10
809.297188
 20
580.963302
 30
0.0
 11
809.417055
 21
582.336005
 31
0.0
  0
LINE
  5
46C
330
1F
100
AcDbEntity
  8
0
  6
CONTINUOUS
 62
     3
100
AcDbLine
 10
809.417055
 20
609.333855
 30
0.0
 11
809.297188
 21
610.706558
 31
0.0
  0
LINE
  5
46D
330
1F
100
AcDbEntity
  8
0
  6
CONTINUOUS
 62
     3
100
AcDbLine
 10
809.297188
 20
610.706558
 30
0.0
 11
808.938499
 21
612.068814
 31
0.0
  0
LINE
  5
46E
330
1F
100
AcDbEntity
  8
0
  6
CONTINUOUS
 62
     3
100
AcDbLine
 10
808.938499
 20
612.068814
 30
0.0
 11
808.343718
 21
613.410255
 31
0.0
  0
LINE
  5
46F
330
1F
100
AcDbEntity
  8
0
  6
CONTINUOUS
 62
     3
100
AcDbLine
 10
808.343718
 20
613.410255
 30
0.0
 11
807.517372
 21
614.720672
 31
0.0
  0
LINE
  5
470
330
1F
100
AcDbEntity
  8
0
  6
CONTINUOUS
 62
     3
100
AcDbLine
 10
807.517372
 20
614.720672
 30
0.0
 11
806.46575
 21
615.990093
 31
0.0
  0
LINE
  5
471
330
1F
100
AcDbEntity
  8
0
  6
CONTINUOUS
 62
     3
100
AcDbLine
 10
806.46575
 20
615.990093
 30
0.0
 11
805.196855
 21
617.208855
 31
0.0
  0
LINE
  5
472
330
1F
100
AcDbEntity
  8
0
  6
CONTINUOUS
 62
     3
100
AcDbLine
 10
805.196855
 20
617.208855
 30
0.0
 11
803.720344
 21
618.367684
 31
0.0
  0
LINE
  5
473
330
1F
100
AcDbEntity
  8
0
  6
CONTINUOUS
 62
     3
100
AcDbLine
 10
803.720344
 20
618.367684
 30
0.0
 11
802.047455
 21
619.45776
 31
0.0
  0
LINE
  5
474
330
1F
100
AcDbEntity
  8
0
  6
CONTINUOUS
 62
     3
100
AcDbLine
 10
802.047455
 20
619.45776
 30
0.0
 11
800.190919
 21
620.470787
 31
0.0
  0
LINE
  5
475
330
1F
100
AcDbEntity
  8
0
  6
CONTINUOUS
 62
     3
100
AcDbLine
 10
800.190919
 20
620.470787
 30
0.0
 11
798.164865
 21
621.399055
 31
0.0
  0
LINE
  5
476
330
1F
100
AcDbEntity
  8
0
  6
CONTINUOUS
 62
     3
100
AcDbLine
 10
798.164865
 20
621.399055
 30
0.0
 11
795.984713
 21
622.2355
 31
0.0
  0
LINE
  5
477
330
1F
100
AcDbEntity
  8
0
  6
CONTINUOUS
 62
     3
100
AcDbLine
 10
795.984713
 20
622.2355
 30
0.0
 11
793.667055
 21
622.973755
 31
0.0
  0
LINE
  5
478
330
1F
100
AcDbEntity
  8
0
  6
CONTINUOUS
 62
     3
100
AcDbLine
 10
793.667055
 20
622.973755
 30
0.0
 11
791.22953
 21
623.608203
 31
0.0
  0
LINE
  5
479
330
1F
100
AcDbEntity
  8
0
  6
CONTINUOUS
 62
     3
100
AcDbLine
 10
791.22953
 20
623.608203
 30
0.0
 11
788.690689
 21
624.134014
 31
0.0
  0
LINE
  5
47A
330
1F
100
AcDbEntity
  8
0
  6
CONTINUOUS
 62
     3
100
AcDbLine
 10
788.690689
 20
624.134014
 30
0.0
 11
786.069855
 21
624.547187
 31
0.0
  0
LINE
  5
47B
330
1F
100
AcDbEntity
  8
0
  6
CONTINUOUS
 62
     3
100
AcDbLine
 10
786.069855
 20
624.547187
 30
0.0
 11
783.386973
 21
624.844577
 31
0.0
  0
LINE
  5
47C
330
1F
100
AcDbEntity
  8
0
  6
CONTINUOUS
 62
     3
100
AcDbLine
 10
783.386973
 20
624.844577
 30
0.0
 11
780.662461
 21
625.023922
 31
0.0
  0
LINE
  5
47D
330
1F
100
AcDbEntity
  8
0
  6
CONTINUOUS
 62
     3
100
AcDbLine
 10
780.662461
 20
625.023922
 30
0.0
 11
777.917055
 21
625.083855
 31
0.0
  0
LINE
  5
47E
330
1F
100
AcDbEntity
  8
0
  6
CONTINUOUS
 62
     3
100
AcDbLine
 10
777.917055
 20
625.083855
 30
0.0
 11
775.171649
 21
625.023922
 31
0.0
  0
LINE
  5
47F
330
1F
100
AcDbEntity
  8
0
  6
CONTINUOUS
 62
     3
100
AcDbLine
 10
775.171649
 20
625.023922
 30
0.0
 11
772.447137
 21
624.844577
 31
0.0
  0
LINE
  5
480
330
1F
100
AcDbEntity
  8
0
  6
CONTINUOUS
 62
     3
100
AcDbLine
 10
772.447137
 20
624.844577
 30
0.0
 11
769.764255
 21
624.547187
 31
0.0
  0
LINE
  5
481
330
1F
100
AcDbEntity
  8
0
  6
CONTINUOUS
 62
     3
100
AcDbLine
 10
769.764255
 20
624.547187
 30
0.0
 11
767.14342
 21
624.134014
 31
0.0
  0
LINE
  5
482
330
1F
100
AcDbEntity
  8
0
  6
CONTINUOUS
 62
     3
100
AcDbLine
 10
767.14342
 20
624.134014
 30
0.0
 11
764.60458
 21
623.608203
 31
0.0
  0
LINE
  5
483
330
1F
100
AcDbEntity
  8
0
  6
CONTINUOUS
 62
     3
100
AcDbLine
 10
764.60458
 20
623.608203
 30
0.0
 11
762.167055
 21
622.973755
 31
0.0
  0
LINE
  5
484
330
1F
100
AcDbEntity
  8
0
  6
CONTINUOUS
 62
     3
100
AcDbLine
 10
762.167055
 20
622.973755
 30
0.0
 11
759.849397
 21
622.2355
 31
0.0
  0
LINE
  5
485
330
1F
100
AcDbEntity
  8
0
  6
CONTINUOUS
 62
     3
100
AcDbLine
 10
759.849397
 20
622.2355
 30
0.0
 11
757.669245
 21
621.399055
 31
0.0
  0
LINE
  5
486
330
1F
100
AcDbEntity
  8
0
  6
CONTINUOUS
 62
     3
100
AcDbLine
 10
757.669245
 20
621.399055
 30
0.0
 11
755.643191
 21
620.470787
 31
0.0
  0
LINE
  5
487
330
1F
100
AcDbEntity
  8
0
  6
CONTINUOUS
 62
     3
100
AcDbLine
 10
755.643191
 20
620.470787
 30
0.0
 11
753.786655
 21
619.45776
 31
0.0
  0
LINE
  5
488
330
1F
100
AcDbEntity
  8
0
  6
CONTINUOUS
 62
     3
100
AcDbLine
 10
753.786655
 20
619.45776
 30
0.0
 11
752.113766
 21
618.367684
 31
0.0
  0
LINE
  5
489
330
1F
100
AcDbEntity
  8
0
  6
CONTINUOUS
 62
     3
100
AcDbLine
 10
752.113766
 20
618.367684
 30
0.0
 11
750.637255
 21
617.208855
 31
0.0
  0
LINE
  5
48A
330
1F
100
AcDbEntity
  8
0
  6
CONTINUOUS
 62
     3
100
AcDbLine
 10
750.637255
 20
617.208855
 30
0.0
 11
749.36836
 21
615.990093
 31
0.0
  0
LINE
  5
48B
330
1F
100
AcDbEntity
  8
0
  6
CONTINUOUS
 62
     3
100
AcDbLine
 10
749.36836
 20
615.990093
 30
0.0
 11
748.316737
 21
614.720672
 31
0.0
  0
LINE
  5
48C
330
1F
100
AcDbEntity
  8
0
  6
CONTINUOUS
 62
     3
100
AcDbLine
 10
748.316737
 20
614.720672
 30
0.0
 11
747.490391
 21
613.410255
 31
0.0
  0
LINE
  5
48D
330
1F
100
AcDbEntity
  8
0
  6
CONTINUOUS
 62
     3
100
AcDbLine
 10
747.490391
 20
613.410255
 30
0.0
 11
746.895611
 21
612.068814
 31
0.0
  0
LINE
  5
48E
330
1F
100
AcDbEntity
  8
0
  6
CONTINUOUS
 62
     3
100
AcDbLine
 10
746.895611
 20
612.068814
 30
0.0
 11
746.536922
 21
610.706558
 31
0.0
  0
LINE
  5
48F
330
1F
100
AcDbEntity
  8
0
  6
CONTINUOUS
 62
     3
100
AcDbLine
 10
746.536922
 20
610.706558
 30
0.0
 11
746.417055
 21
609.333855
 31
0.0
  0
LINE
  5
490
330
1F
100
AcDbEntity
  8
0
  6
CONTINUOUS
 62
     3
100
AcDbLine
 10
809.417055
 20
649.395194
 30
0.0
 11
809.297188
 21
650.767897
 31
0.0
  0
LINE
  5
491
330
1F
100
AcDbEntity
  8
0
  6
CONTINUOUS
 62
     3
100
AcDbLine
 10
809.297188
 20
650.767897
 30
0.0
 11
808.938499
 21
652.130152
 31
0.0
  0
LINE
  5
492
330
1F
100
AcDbEntity
  8
0
  6
CONTINUOUS
 62
     3
100
AcDbLine
 10
808.938499
 20
652.130152
 30
0.0
 11
808.343718
 21
653.471594
 31
0.0
  0
LINE
  5
493
330
1F
100
AcDbEntity
  8
0
  6
CONTINUOUS
 62
     3
100
AcDbLine
 10
808.343718
 20
653.471594
 30
0.0
 11
807.517372
 21
654.782011
 31
0.0
  0
LINE
  5
494
330
1F
100
AcDbEntity
  8
0
  6
CONTINUOUS
 62
     3
100
AcDbLine
 10
807.517372
 20
654.782011
 30
0.0
 11
806.46575
 21
656.051431
 31
0.0
  0
LINE
  5
495
330
1F
100
AcDbEntity
  8
0
  6
CONTINUOUS
 62
     3
100
AcDbLine
 10
806.46575
 20
656.051431
 30
0.0
 11
805.196855
 21
657.270194
 31
0.0
  0
LINE
  5
496
330
1F
100
AcDbEntity
  8
0
  6
CONTINUOUS
 62
     3
100
AcDbLine
 10
805.196855
 20
657.270194
 30
0.0
 11
803.720344
 21
658.429022
 31
0.0
  0
LINE
  5
497
330
1F
100
AcDbEntity
  8
0
  6
CONTINUOUS
 62
     3
100
AcDbLine
 10
803.720344
 20
658.429022
 30
0.0
 11
802.047455
 21
659.519098
 31
0.0
  0
LINE
  5
498
330
1F
100
AcDbEntity
  8
0
  6
CONTINUOUS
 62
     3
100
AcDbLine
 10
802.047455
 20
659.519098
 30
0.0
 11
800.190919
 21
660.532125
 31
0.0
  0
LINE
  5
499
330
1F
100
AcDbEntity
  8
0
  6
CONTINUOUS
 62
     3
100
AcDbLine
 10
800.190919
 20
660.532125
 30
0.0
 11
798.164865
 21
661.460394
 31
0.0
  0
LINE
  5
49A
330
1F
100
AcDbEntity
  8
0
  6
CONTINUOUS
 62
     3
100
AcDbLine
 10
798.164865
 20
661.460394
 30
0.0
 11
795.984713
 21
662.296838
 31
0.0
  0
LINE
  5
49B
330
1F
100
AcDbEntity
  8
0
  6
CONTINUOUS
 62
     3
100
AcDbLine
 10
795.984713
 20
662.296838
 30
0.0
 11
793.667055
 21
663.035094
 31
0.0
  0
LINE
  5
49C
330
1F
100
AcDbEntity
  8
0
  6
CONTINUOUS
 62
     3
100
AcDbLine
 10
793.667055
 20
663.035094
 30
0.0
 11
791.22953
 21
663.669541
 31
0.0
  0
LINE
  5
49D
330
1F
100
AcDbEntity
  8
0
  6
CONTINUOUS
 62
     3
100
AcDbLine
 10
791.22953
 20
663.669541
 30
0.0
 11
788.690689
 21
664.195352
 31
0.0
  0
LINE
  5
49E
330
1F
100
AcDbEntity
  8
0
  6
CONTINUOUS
 62
     3
100
AcDbLine
 10
788.690689
 20
664.195352
 30
0.0
 11
786.069855
 21
664.608525
 31
0.0
  0
LINE
  5
49F
330
1F
100
AcDbEntity
  8
0
  6
CONTINUOUS
 62
     3
100
AcDbLine
 10
786.069855
 20
664.608525
 30
0.0
 11
783.386973
 21
664.905916
 31
0.0
  0
LINE
  5
4A0
330
1F
100
AcDbEntity
  8
0
  6
CONTINUOUS
 62
     3
100
AcDbLine
 10
783.386973
 20
664.905916
 30
0.0
 11
780.662461
 21
665.08526
 31
0.0
  0
LINE
  5
4A1
330
1F
100
AcDbEntity
  8
0
  6
CONTINUOUS
 62
     3
100
AcDbLine
 10
780.662461
 20
665.08526
 30
0.0
 11
777.917055
 21
665.145194
 31
0.0
  0
LINE
  5
4A2
330
1F
100
AcDbEntity
  8
0
  6
CONTINUOUS
 62
     3
100
AcDbLine
 10
777.917055
 20
665.145194
 30
0.0
 11
775.171649
 21
665.08526
 31
0.0
  0
LINE
  5
4A3
330
1F
100
AcDbEntity
  8
0
  6
CONTINUOUS
 62
     3
100
AcDbLine
 10
775.171649
 20
665.08526
 30
0.0
 11
772.447137
 21
664.905916
 31
0.0
  0
LINE
  5
4A4
330
1F
100
AcDbEntity
  8
0
  6
CONTINUOUS
 62
     3
100
AcDbLine
 10
772.447137
 20
664.905916
 30
0.0
 11
769.764255
 21
664.608525
 31
0.0
  0
LINE
  5
4A5
330
1F
100
AcDbEntity
  8
0
  6
CONTINUOUS
 62
     3
100
AcDbLine
 10
769.764255
 20
664.608525
 30
0.0
 11
767.14342
 21
664.195352
 31
0.0
  0
LINE
  5
4A6
330
1F
100
AcDbEntity
  8
0
  6
CONTINUOUS
 62
     3
100
AcDbLine
 10
767.14342
 20
664.195352
 30
0.0
 11
764.60458
 21
663.669541
 31
0.0
  0
LINE
  5
4A7
330
1F
100
AcDbEntity
  8
0
  6
CONTINUOUS
 62
     3
100
AcDbLine
 10
764.60458
 20
663.669541
 30
0.0
 11
762.167055
 21
663.035094
 31
0.0
  0
LINE
  5
4A8
330
1F
100
AcDbEntity
  8
0
  6
CONTINUOUS
 62
     3
100
AcDbLine
 10
762.167055
 20
663.035094
 30
0.0
 11
759.849397
 21
662.296838
 31
0.0
  0
LINE
  5
4A9
330
1F
100
AcDbEntity
  8
0
  6
CONTINUOUS
 62
     3
100
AcDbLine
 10
759.849397
 20
662.296838
 30
0.0
 11
757.669245
 21
661.460394
 31
0.0
  0
LINE
  5
4AA
330
1F
100
AcDbEntity
  8
0
  6
CONTINUOUS
 62
     3
100
AcDbLine
 10
757.669245
 20
661.460394
 30
0.0
 11
755.643191
 21
660.532125
 31
0.0
  0
LINE
  5
4AB
330
1F
100
AcDbEntity
  8
0
  6
CONTINUOUS
 62
     3
100
AcDbLine
 10
755.643191
 20
660.532125
 30
0.0
 11
753.786655
 21
659.519098
 31
0.0
  0
LINE
  5
4AC
330
1F
100
AcDbEntity
  8
0
  6
CONTINUOUS
 62
     3
100
AcDbLine
 10
753.786655
 20
659.519098
 30
0.0
 11
752.113766
 21
658.429022
 31
0.0
  0
LINE
  5
4AD
330
1F
100
AcDbEntity
  8
0
  6
CONTINUOUS
 62
     3
100
AcDbLine
 10
752.113766
 20
658.429022
 30
0.0
 11
750.637255
 21
657.270194
 31
0.0
  0
LINE
  5
4AE
330
1F
100
AcDbEntity
  8
0
  6
CONTINUOUS
 62
     3
100
AcDbLine
 10
750.637255
 20
657.270194
 30
0.0
 11
749.36836
 21
656.051431
 31
0.0
  0
LINE
  5
4AF
330
1F
100
AcDbEntity
  8
0
  6
CONTINUOUS
 62
     3
100
AcDbLine
 10
749.36836
 20
656.051431
 30
0.0
 11
748.316737
 21
654.782011
 31
0.0
  0
LINE
  5
4B0
330
1F
100
AcDbEntity
  8
0
  6
CONTINUOUS
 62
     3
100
AcDbLine
 10
748.316737
 20
654.782011
 30
0.0
 11
747.490391
 21
653.471594
 31
0.0
  0
LINE
  5
4B1
330
1F
100
AcDbEntity
  8
0
  6
CONTINUOUS
 62
     3
100
AcDbLine
 10
747.490391
 20
653.471594
 30
0.0
 11
746.895611
 21
652.130152
 31
0.0
  0
LINE
  5
4B2
330
1F
100
AcDbEntity
  8
0
  6
CONTINUOUS
 62
     3
100
AcDbLine
 10
746.895611
 20
652.130152
 30
0.0
 11
746.536922
 21
650.767897
 31
0.0
  0
LINE
  5
4B3
330
1F
100
AcDbEntity
  8
0
  6
CONTINUOUS
 62
     3
100
AcDbLine
 10
746.536922
 20
650.767897
 30
0.0
 11
746.417055
 21
649.395194
 31
0.0
  0
LINE
  5
4B4
330
1F
100
AcDbEntity
  8
0
  6
CONTINUOUS
 62
     3
100
AcDbLine
 10
809.417055
 20
680.312096
 30
0.0
 11
809.297188
 21
681.684799
 31
0.0
  0
LINE
  5
4B5
330
1F
100
AcDbEntity
  8
0
  6
CONTINUOUS
 62
     3
100
AcDbLine
 10
809.297188
 20
681.684799
 30
0.0
 11
808.938499
 21
683.047055
 31
0.0
  0
LINE
  5
4B6
330
1F
100
AcDbEntity
  8
0
  6
CONTINUOUS
 62
     3
100
AcDbLine
 10
808.938499
 20
683.047055
 30
0.0
 11
808.343718
 21
684.388496
 31
0.0
  0
LINE
  5
4B7
330
1F
100
AcDbEntity
  8
0
  6
CONTINUOUS
 62
     3
100
AcDbLine
 10
808.343718
 20
684.388496
 30
0.0
 11
807.517372
 21
685.698913
 31
0.0
  0
LINE
  5
4B8
330
1F
100
AcDbEntity
  8
0
  6
CONTINUOUS
 62
     3
100
AcDbLine
 10
807.517372
 20
685.698913
 30
0.0
 11
806.46575
 21
686.968334
 31
0.0
  0
LINE
  5
4B9
330
1F
100
AcDbEntity
  8
0
  6
CONTINUOUS
 62
     3
100
AcDbLine
 10
806.46575
 20
686.968334
 30
0.0
 11
805.196855
 21
688.187096
 31
0.0
  0
LINE
  5
4BA
330
1F
100
AcDbEntity
  8
0
  6
CONTINUOUS
 62
     3
100
AcDbLine
 10
805.196855
 20
688.187096
 30
0.0
 11
803.720344
 21
689.345925
 31
0.0
  0
LINE
  5
4BB
330
1F
100
AcDbEntity
  8
0
  6
CONTINUOUS
 62
     3
100
AcDbLine
 10
803.720344
 20
689.345925
 30
0.0
 11
802.047455
 21
690.436001
 31
0.0
  0
LINE
  5
4BC
330
1F
100
AcDbEntity
  8
0
  6
CONTINUOUS
 62
     3
100
AcDbLine
 10
802.047455
 20
690.436001
 30
0.0
 11
800.190919
 21
691.449028
 31
0.0
  0
LINE
  5
4BD
330
1F
100
AcDbEntity
  8
0
  6
CONTINUOUS
 62
     3
100
AcDbLine
 10
800.190919
 20
691.449028
 30
0.0
 11
798.164865
 21
692.377296
 31
0.0
  0
LINE
  5
4BE
330
1F
100
AcDbEntity
  8
0
  6
CONTINUOUS
 62
     3
100
AcDbLine
 10
798.164865
 20
692.377296
 30
0.0
 11
795.984713
 21
693.213741
 31
0.0
  0
LINE
  5
4BF
330
1F
100
AcDbEntity
  8
0
  6
CONTINUOUS
 62
     3
100
AcDbLine
 10
795.984713
 20
693.213741
 30
0.0
 11
793.667055
 21
693.951996
 31
0.0
  0
LINE
  5
4C0
330
1F
100
AcDbEntity
  8
0
  6
CONTINUOUS
 62
     3
100
AcDbLine
 10
793.667055
 20
693.951996
 30
0.0
 11
791.22953
 21
694.586444
 31
0.0
  0
LINE
  5
4C1
330
1F
100
AcDbEntity
  8
0
  6
CONTINUOUS
 62
     3
100
AcDbLine
 10
791.22953
 20
694.586444
 30
0.0
 11
788.690689
 21
695.112255
 31
0.0
  0
LINE
  5
4C2
330
1F
100
AcDbEntity
  8
0
  6
CONTINUOUS
 62
     3
100
AcDbLine
 10
788.690689
 20
695.112255
 30
0.0
 11
786.069855
 21
695.525428
 31
0.0
  0
LINE
  5
4C3
330
1F
100
AcDbEntity
  8
0
  6
CONTINUOUS
 62
     3
100
AcDbLine
 10
786.069855
 20
695.525428
 30
0.0
 11
783.386973
 21
695.822818
 31
0.0
  0
LINE
  5
4C4
330
1F
100
AcDbEntity
  8
0
  6
CONTINUOUS
 62
     3
100
AcDbLine
 10
783.386973
 20
695.822818
 30
0.0
 11
780.662461
 21
696.002163
 31
0.0
  0
LINE
  5
4C5
330
1F
100
AcDbEntity
  8
0
  6
CONTINUOUS
 62
     3
100
AcDbLine
 10
780.662461
 20
696.002163
 30
0.0
 11
777.917055
 21
696.062096
 31
0.0
  0
LINE
  5
4C6
330
1F
100
AcDbEntity
  8
0
  6
CONTINUOUS
 62
     3
100
AcDbLine
 10
777.917055
 20
696.062096
 30
0.0
 11
775.171649
 21
696.002163
 31
0.0
  0
LINE
  5
4C7
330
1F
100
AcDbEntity
  8
0
  6
CONTINUOUS
 62
     3
100
AcDbLine
 10
775.171649
 20
696.002163
 30
0.0
 11
772.447137
 21
695.822818
 31
0.0
  0
LINE
  5
4C8
330
1F
100
AcDbEntity
  8
0
  6
CONTINUOUS
 62
     3
100
AcDbLine
 10
772.447137
 20
695.822818
 30
0.0
 11
769.764255
 21
695.525428
 31
0.0
  0
LINE
  5
4C9
330
1F
100
AcDbEntity
  8
0
  6
CONTINUOUS
 62
     3
100
AcDbLine
 10
769.764255
 20
695.525428
 30
0.0
 11
767.14342
 21
695.112255
 31
0.0
  0
LINE
  5
4CA
330
1F
100
AcDbEntity
  8
0
  6
CONTINUOUS
 62
     3
100
AcDbLine
 10
767.14342
 20
695.112255
 30
0.0
 11
764.60458
 21
694.586444
 31
0.0
  0
LINE
  5
4CB
330
1F
100
AcDbEntity
  8
0
  6
CONTINUOUS
 62
     3
100
AcDbLine
 10
764.60458
 20
694.586444
 30
0.0
 11
762.167055
 21
693.951996
 31
0.0
  0
LINE
  5
4CC
330
1F
100
AcDbEntity
  8
0
  6
CONTINUOUS
 62
     3
100
AcDbLine
 10
762.167055
 20
693.951996
 30
0.0
 11
759.849397
 21
693.213741
 31
0.0
  0
LINE
  5
4CD
330
1F
100
AcDbEntity
  8
0
  6
CONTINUOUS
 62
     3
100
AcDbLine
 10
759.849397
 20
693.213741
 30
0.0
 11
757.669245
 21
692.377296
 31
0.0
  0
LINE
  5
4CE
330
1F
100
AcDbEntity
  8
0
  6
CONTINUOUS
 62
     3
100
AcDbLine
 10
757.669245
 20
692.377296
 30
0.0
 11
755.643191
 21
691.449028
 31
0.0
  0
LINE
  5
4CF
330
1F
100
AcDbEntity
  8
0
  6
CONTINUOUS
 62
     3
100
AcDbLine
 10
755.643191
 20
691.449028
 30
0.0
 11
753.786655
 21
690.436001
 31
0.0
  0
LINE
  5
4D0
330
1F
100
AcDbEntity
  8
0
  6
CONTINUOUS
 62
     3
100
AcDbLine
 10
753.786655
 20
690.436001
 30
0.0
 11
752.113766
 21
689.345925
 31
0.0
  0
LINE
  5
4D1
330
1F
100
AcDbEntity
  8
0
  6
CONTINUOUS
 62
     3
100
AcDbLine
 10
752.113766
 20
689.345925
 30
0.0
 11
750.637255
 21
688.187096
 31
0.0
  0
LINE
  5
4D2
330
1F
100
AcDbEntity
  8
0
  6
CONTINUOUS
 62
     3
100
AcDbLine
 10
750.637255
 20
688.187096
 30
0.0
 11
749.36836
 21
686.968334
 31
0.0
  0
LINE
  5
4D3
330
1F
100
AcDbEntity
  8
0
  6
CONTINUOUS
 62
     3
100
AcDbLine
 10
749.36836
 20
686.968334
 30
0.0
 11
748.316737
 21
685.698913
 31
0.0
  0
LINE
  5
4D4
330
1F
100
AcDbEntity
  8
0
  6
CONTINUOUS
 62
     3
100
AcDbLine
 10
748.316737
 20
685.698913
 30
0.0
 11
747.490391
 21
684.388496
 31
0.0
  0
LINE
  5
4D5
330
1F
100
AcDbEntity
  8
0
  6
CONTINUOUS
 62
     3
100
AcDbLine
 10
747.490391
 20
684.388496
 30
0.0
 11
746.895611
 21
683.047055
 31
0.0
  0
LINE
  5
4D6
330
1F
100
AcDbEntity
  8
0
  6
CONTINUOUS
 62
     3
100
AcDbLine
 10
746.895611
 20
683.047055
 30
0.0
 11
746.536922
 21
681.684799
 31
0.0
  0
LINE
  5
4D7
330
1F
100
AcDbEntity
  8
0
  6
CONTINUOUS
 62
     3
100
AcDbLine
 10
746.536922
 20
681.684799
 30
0.0
 11
746.417055
 21
680.312096
 31
0.0
  0
LINE
  5
4D8
330
1F
100
AcDbEntity
  8
0
  6
CONTINUOUS
 62
     3
100
AcDbLine
 10
809.417055
 20
713.406245
 30
0.0
 11
809.297188
 21
714.778948
 31
0.0
  0
LINE
  5
4D9
330
1F
100
AcDbEntity
  8
0
  6
CONTINUOUS
 62
     3
100
AcDbLine
 10
809.297188
 20
714.778948
 30
0.0
 11
808.938499
 21
716.141204
 31
0.0
  0
LINE
  5
4DA
330
1F
100
AcDbEntity
  8
0
  6
CONTINUOUS
 62
     3
100
AcDbLine
 10
808.938499
 20
716.141204
 30
0.0
 11
808.343718
 21
717.482645
 31
0.0
  0
LINE
  5
4DB
330
1F
100
AcDbEntity
  8
0
  6
CONTINUOUS
 62
     3
100
AcDbLine
 10
808.343718
 20
717.482645
 30
0.0
 11
807.517372
 21
718.793063
 31
0.0
  0
LINE
  5
4DC
330
1F
100
AcDbEntity
  8
0
  6
CONTINUOUS
 62
     3
100
AcDbLine
 10
807.517372
 20
718.793063
 30
0.0
 11
806.46575
 21
720.062483
 31
0.0
  0
LINE
  5
4DD
330
1F
100
AcDbEntity
  8
0
  6
CONTINUOUS
 62
     3
100
AcDbLine
 10
806.46575
 20
720.062483
 30
0.0
 11
805.196855
 21
721.281245
 31
0.0
  0
LINE
  5
4DE
330
1F
100
AcDbEntity
  8
0
  6
CONTINUOUS
 62
     3
100
AcDbLine
 10
805.196855
 20
721.281245
 30
0.0
 11
803.720344
 21
722.440074
 31
0.0
  0
LINE
  5
4DF
330
1F
100
AcDbEntity
  8
0
  6
CONTINUOUS
 62
     3
100
AcDbLine
 10
803.720344
 20
722.440074
 30
0.0
 11
802.047455
 21
723.53015
 31
0.0
  0
LINE
  5
4E0
330
1F
100
AcDbEntity
  8
0
  6
CONTINUOUS
 62
     3
100
AcDbLine
 10
802.047455
 20
723.53015
 30
0.0
 11
800.190919
 21
724.543177
 31
0.0
  0
LINE
  5
4E1
330
1F
100
AcDbEntity
  8
0
  6
CONTINUOUS
 62
     3
100
AcDbLine
 10
800.190919
 20
724.543177
 30
0.0
 11
798.164865
 21
725.471445
 31
0.0
  0
LINE
  5
4E2
330
1F
100
AcDbEntity
  8
0
  6
CONTINUOUS
 62
     3
100
AcDbLine
 10
798.164865
 20
725.471445
 30
0.0
 11
795.984713
 21
726.30789
 31
0.0
  0
LINE
  5
4E3
330
1F
100
AcDbEntity
  8
0
  6
CONTINUOUS
 62
     3
100
AcDbLine
 10
795.984713
 20
726.30789
 30
0.0
 11
793.667055
 21
727.046145
 31
0.0
  0
LINE
  5
4E4
330
1F
100
AcDbEntity
  8
0
  6
CONTINUOUS
 62
     3
100
AcDbLine
 10
793.667055
 20
727.046145
 30
0.0
 11
791.22953
 21
727.680593
 31
0.0
  0
LINE
  5
4E5
330
1F
100
AcDbEntity
  8
0
  6
CONTINUOUS
 62
     3
100
AcDbLine
 10
791.22953
 20
727.680593
 30
0.0
 11
788.690689
 21
728.206404
 31
0.0
  0
LINE
  5
4E6
330
1F
100
AcDbEntity
  8
0
  6
CONTINUOUS
 62
     3
100
AcDbLine
 10
788.690689
 20
728.206404
 30
0.0
 11
786.069855
 21
728.619577
 31
0.0
  0
LINE
  5
4E7
330
1F
100
AcDbEntity
  8
0
  6
CONTINUOUS
 62
     3
100
AcDbLine
 10
786.069855
 20
728.619577
 30
0.0
 11
783.386973
 21
728.916967
 31
0.0
  0
LINE
  5
4E8
330
1F
100
AcDbEntity
  8
0
  6
CONTINUOUS
 62
     3
100
AcDbLine
 10
783.386973
 20
728.916967
 30
0.0
 11
780.662461
 21
729.096312
 31
0.0
  0
LINE
  5
4E9
330
1F
100
AcDbEntity
  8
0
  6
CONTINUOUS
 62
     3
100
AcDbLine
 10
780.662461
 20
729.096312
 30
0.0
 11
777.917055
 21
729.156245
 31
0.0
  0
LINE
  5
4EA
330
1F
100
AcDbEntity
  8
0
  6
CONTINUOUS
 62
     3
100
AcDbLine
 10
777.917055
 20
729.156245
 30
0.0
 11
775.171649
 21
729.096312
 31
0.0
  0
LINE
  5
4EB
330
1F
100
AcDbEntity
  8
0
  6
CONTINUOUS
 62
     3
100
AcDbLine
 10
775.171649
 20
729.096312
 30
0.0
 11
772.447137
 21
728.916967
 31
0.0
  0
LINE
  5
4EC
330
1F
100
AcDbEntity
  8
0
  6
CONTINUOUS
 62
     3
100
AcDbLine
 10
772.447137
 20
728.916967
 30
0.0
 11
769.764255
 21
728.619577
 31
0.0
  0
LINE
  5
4ED
330
1F
100
AcDbEntity
  8
0
  6
CONTINUOUS
 62
     3
100
AcDbLine
 10
769.764255
 20
728.619577
 30
0.0
 11
767.14342
 21
728.206404
 31
0.0
  0
LINE
  5
4EE
330
1F
100
AcDbEntity
  8
0
  6
CONTINUOUS
 62
     3
100
AcDbLine
 10
767.14342
 20
728.206404
 30
0.0
 11
764.60458
 21
727.680593
 31
0.0
  0
LINE
  5
4EF
330
1F
100
AcDbEntity
  8
0
  6
CONTINUOUS
 62
     3
100
AcDbLine
 10
764.60458
 20
727.680593
 30
0.0
 11
762.167055
 21
727.046145
 31
0.0
  0
LINE
  5
4F0
330
1F
100
AcDbEntity
  8
0
  6
CONTINUOUS
 62
     3
100
AcDbLine
 10
762.167055
 20
727.046145
 30
0.0
 11
759.849397
 21
726.30789
 31
0.0
  0
LINE
  5
4F1
330
1F
100
AcDbEntity
  8
0
  6
CONTINUOUS
 62
     3
100
AcDbLine
 10
759.849397
 20
726.30789
 30
0.0
 11
757.669245
 21
725.471445
 31
0.0
  0
LINE
  5
4F2
330
1F
100
AcDbEntity
  8
0
  6
CONTINUOUS
 62
     3
100
AcDbLine
 10
757.669245
 20
725.471445
 30
0.0
 11
755.643191
 21
724.543177
 31
0.0
  0
LINE
  5
4F3
330
1F
100
AcDbEntity
  8
0
  6
CONTINUOUS
 62
     3
100
AcDbLine
 10
755.643191
 20
724.543177
 30
0.0
 11
753.786655
 21
723.53015
 31
0.0
  0
LINE
  5
4F4
330
1F
100
AcDbEntity
  8
0
  6
CONTINUOUS
 62
     3
100
AcDbLine
 10
753.786655
 20
723.53015
 30
0.0
 11
752.113766
 21
722.440074
 31
0.0
  0
LINE
  5
4F5
330
1F
100
AcDbEntity
  8
0
  6
CONTINUOUS
 62
     3
100
AcDbLine
 10
752.113766
 20
722.440074
 30
0.0
 11
750.637255
 21
721.281245
 31
0.0
  0
LINE
  5
4F6
330
1F
100
AcDbEntity
  8
0
  6
CONTINUOUS
 62
     3
100
AcDbLine
 10
750.637255
 20
721.281245
 30
0.0
 11
749.36836
 21
720.062483
 31
0.0
  0
LINE
  5
4F7
330
1F
100
AcDbEntity
  8
0
  6
CONTINUOUS
 62
     3
100
AcDbLine
 10
749.36836
 20
720.062483
 30
0.0
 11
748.316737
 21
718.793063
 31
0.0
  0
LINE
  5
4F8
330
1F
100
AcDbEntity
  8
0
  6
CONTINUOUS
 62
     3
100
AcDbLine
 10
748.316737
 20
718.793063
 30
0.0
 11
747.490391
 21
717.482645
 31
0.0
  0
LINE
  5
4F9
330
1F
100
AcDbEntity
  8
0
  6
CONTINUOUS
 62
     3
100
AcDbLine
 10
747.490391
 20
717.482645
 30
0.0
 11
746.895611
 21
716.141204
 31
0.0
  0
LINE
  5
4FA
330
1F
100
AcDbEntity
  8
0
  6
CONTINUOUS
 62
     3
100
AcDbLine
 10
746.895611
 20
716.141204
 30
0.0
 11
746.536922
 21
714.778948
 31
0.0
  0
LINE
  5
4FB
330
1F
100
AcDbEntity
  8
0
  6
CONTINUOUS
 62
     3
100
AcDbLine
 10
746.536922
 20
714.778948
 30
0.0
 11
746.417055
 21
713.406245
 31
0.0
  0
LINE
  5
4FC
330
1F
100
AcDbEntity
  8
0
  6
CONTINUOUS
 62
     3
100
AcDbLine
 10
807.917055
 20
631.97722
 30
0.0
 11
807.802896
 21
633.284556
 31
0.0
  0
LINE
  5
4FD
330
1F
100
AcDbEntity
  8
0
  6
CONTINUOUS
 62
     3
100
AcDbLine
 10
807.802896
 20
633.284556
 30
0.0
 11
807.461288
 21
634.581943
 31
0.0
  0
LINE
  5
4FE
330
1F
100
AcDbEntity
  8
0
  6
CONTINUOUS
 62
     3
100
AcDbLine
 10
807.461288
 20
634.581943
 30
0.0
 11
806.89483
 21
635.859506
 31
0.0
  0
LINE
  5
4FF
330
1F
100
AcDbEntity
  8
0
  6
CONTINUOUS
 62
     3
100
AcDbLine
 10
806.89483
 20
635.859506
 30
0.0
 11
806.107834
 21
637.107522
 31
0.0
  0
LINE
  5
500
330
1F
100
AcDbEntity
  8
0
  6
CONTINUOUS
 62
     3
100
AcDbLine
 10
806.107834
 20
637.107522
 30
0.0
 11
805.106289
 21
638.316494
 31
0.0
  0
LINE
  5
501
330
1F
100
AcDbEntity
  8
0
  6
CONTINUOUS
 62
     3
100
AcDbLine
 10
805.106289
 20
638.316494
 30
0.0
 11
803.897817
 21
639.47722
 31
0.0
  0
LINE
  5
502
330
1F
100
AcDbEntity
  8
0
  6
CONTINUOUS
 62
     3
100
AcDbLine
 10
803.897817
 20
639.47722
 30
0.0
 11
802.491616
 21
640.580867
 31
0.0
  0
LINE
  5
503
330
1F
100
AcDbEntity
  8
0
  6
CONTINUOUS
 62
     3
100
AcDbLine
 10
802.491616
 20
640.580867
 30
0.0
 11
800.898388
 21
641.619034
 31
0.0
  0
LINE
  5
504
330
1F
100
AcDbEntity
  8
0
  6
CONTINUOUS
 62
     3
100
AcDbLine
 10
800.898388
 20
641.619034
 30
0.0
 11
799.130258
 21
642.583822
 31
0.0
  0
LINE
  5
505
330
1F
100
AcDbEntity
  8
0
  6
CONTINUOUS
 62
     3
100
AcDbLine
 10
799.130258
 20
642.583822
 30
0.0
 11
797.200683
 21
643.467887
 31
0.0
  0
LINE
  5
506
330
1F
100
AcDbEntity
  8
0
  6
CONTINUOUS
 62
     3
100
AcDbLine
 10
797.200683
 20
643.467887
 30
0.0
 11
795.124348
 21
644.264501
 31
0.0
  0
LINE
  5
507
330
1F
100
AcDbEntity
  8
0
  6
CONTINUOUS
 62
     3
100
AcDbLine
 10
795.124348
 20
644.264501
 30
0.0
 11
792.917055
 21
644.967601
 31
0.0
  0
LINE
  5
508
330
1F
100
AcDbEntity
  8
0
  6
CONTINUOUS
 62
     3
100
AcDbLine
 10
792.917055
 20
644.967601
 30
0.0
 11
790.595603
 21
645.571837
 31
0.0
  0
LINE
  5
509
330
1F
100
AcDbEntity
  8
0
  6
CONTINUOUS
 62
     3
100
AcDbLine
 10
790.595603
 20
645.571837
 30
0.0
 11
788.177659
 21
646.07261
 31
0.0
  0
LINE
  5
50A
330
1F
100
AcDbEntity
  8
0
  6
CONTINUOUS
 62
     3
100
AcDbLine
 10
788.177659
 20
646.07261
 30
0.0
 11
785.681626
 21
646.466108
 31
0.0
  0
LINE
  5
50B
330
1F
100
AcDbEntity
  8
0
  6
CONTINUOUS
 62
     3
100
AcDbLine
 10
785.681626
 20
646.466108
 30
0.0
 11
783.1265
 21
646.749337
 31
0.0
  0
LINE
  5
50C
330
1F
100
AcDbEntity
  8
0
  6
CONTINUOUS
 62
     3
100
AcDbLine
 10
783.1265
 20
646.749337
 30
0.0
 11
780.531727
 21
646.920141
 31
0.0
  0
LINE
  5
50D
330
1F
100
AcDbEntity
  8
0
  6
CONTINUOUS
 62
     3
100
AcDbLine
 10
780.531727
 20
646.920141
 30
0.0
 11
777.917055
 21
646.97722
 31
0.0
  0
LINE
  5
50E
330
1F
100
AcDbEntity
  8
0
  6
CONTINUOUS
 62
     3
100
AcDbLine
 10
777.917055
 20
646.97722
 30
0.0
 11
775.302383
 21
646.920141
 31
0.0
  0
LINE
  5
50F
330
1F
100
AcDbEntity
  8
0
  6
CONTINUOUS
 62
     3
100
AcDbLine
 10
775.302383
 20
646.920141
 30
0.0
 11
772.70761
 21
646.749337
 31
0.0
  0
LINE
  5
510
330
1F
100
AcDbEntity
  8
0
  6
CONTINUOUS
 62
     3
100
AcDbLine
 10
772.70761
 20
646.749337
 30
0.0
 11
770.152484
 21
646.466108
 31
0.0
  0
LINE
  5
511
330
1F
100
AcDbEntity
  8
0
  6
CONTINUOUS
 62
     3
100
AcDbLine
 10
770.152484
 20
646.466108
 30
0.0
 11
767.656451
 21
646.07261
 31
0.0
  0
LINE
  5
512
330
1F
100
AcDbEntity
  8
0
  6
CONTINUOUS
 62
     3
100
AcDbLine
 10
767.656451
 20
646.07261
 30
0.0
 11
765.238507
 21
645.571837
 31
0.0
  0
LINE
  5
513
330
1F
100
AcDbEntity
  8
0
  6
CONTINUOUS
 62
     3
100
AcDbLine
 10
765.238507
 20
645.571837
 30
0.0
 11
762.917055
 21
644.967601
 31
0.0
  0
LINE
  5
514
330
1F
100
AcDbEntity
  8
0
  6
CONTINUOUS
 62
     3
100
AcDbLine
 10
762.917055
 20
644.967601
 30
0.0
 11
760.709762
 21
644.264501
 31
0.0
  0
LINE
  5
515
330
1F
100
AcDbEntity
  8
0
  6
CONTINUOUS
 62
     3
100
AcDbLine
 10
760.709762
 20
644.264501
 30
0.0
 11
758.633427
 21
643.467887
 31
0.0
  0
LINE
  5
516
330
1F
100
AcDbEntity
  8
0
  6
CONTINUOUS
 62
     3
100
AcDbLine
 10
758.633427
 20
643.467887
 30
0.0
 11
756.703851
 21
642.583822
 31
0.0
  0
LINE
  5
517
330
1F
100
AcDbEntity
  8
0
  6
CONTINUOUS
 62
     3
100
AcDbLine
 10
756.703851
 20
642.583822
 30
0.0
 11
754.935722
 21
641.619034
 31
0.0
  0
LINE
  5
518
330
1F
100
AcDbEntity
  8
0
  6
CONTINUOUS
 62
     3
100
AcDbLine
 10
754.935722
 20
641.619034
 30
0.0
 11
753.342494
 21
640.580867
 31
0.0
  0
LINE
  5
519
330
1F
100
AcDbEntity
  8
0
  6
CONTINUOUS
 62
     3
100
AcDbLine
 10
753.342494
 20
640.580867
 30
0.0
 11
751.936293
 21
639.47722
 31
0.0
  0
LINE
  5
51A
330
1F
100
AcDbEntity
  8
0
  6
CONTINUOUS
 62
     3
100
AcDbLine
 10
751.936293
 20
639.47722
 30
0.0
 11
750.727821
 21
638.316494
 31
0.0
  0
LINE
  5
51B
330
1F
100
AcDbEntity
  8
0
  6
CONTINUOUS
 62
     3
100
AcDbLine
 10
750.727821
 20
638.316494
 30
0.0
 11
749.726276
 21
637.107522
 31
0.0
  0
LINE
  5
51C
330
1F
100
AcDbEntity
  8
0
  6
CONTINUOUS
 62
     3
100
AcDbLine
 10
749.726276
 20
637.107522
 30
0.0
 11
748.93928
 21
635.859506
 31
0.0
  0
LINE
  5
51D
330
1F
100
AcDbEntity
  8
0
  6
CONTINUOUS
 62
     3
100
AcDbLine
 10
748.93928
 20
635.859506
 30
0.0
 11
748.372822
 21
634.581943
 31
0.0
  0
LINE
  5
51E
330
1F
100
AcDbEntity
  8
0
  6
CONTINUOUS
 62
     3
100
AcDbLine
 10
748.372822
 20
634.581943
 30
0.0
 11
748.031214
 21
633.284556
 31
0.0
  0
LINE
  5
51F
330
1F
100
AcDbEntity
  8
0
  6
CONTINUOUS
 62
     3
100
AcDbLine
 10
748.031214
 20
633.284556
 30
0.0
 11
747.917055
 21
631.97722
 31
0.0
  0
LINE
  5
520
330
1F
100
AcDbEntity
  8
0
  6
CONTINUOUS
 62
     3
100
AcDbLine
 10
809.417055
 20
609.333855
 30
0.0
 11
809.417055
 21
582.336005
 31
0.0
  0
LINE
  5
521
330
1F
100
AcDbEntity
  8
0
  6
CONTINUOUS
 62
     3
100
AcDbLine
 10
746.417055
 20
609.333855
 30
0.0
 11
746.417055
 21
582.336005
 31
0.0
  0
LINE
  5
522
330
1F
100
AcDbEntity
  8
0
  6
CONTINUOUS
 62
     3
100
AcDbLine
 10
807.917055
 20
631.97722
 30
0.0
 11
807.917055
 21
614.086857
 31
0.0
  0
LINE
  5
523
330
1F
100
AcDbEntity
  8
0
  6
CONTINUOUS
 62
     3
100
AcDbLine
 10
747.917055
 20
631.97722
 30
0.0
 11
747.917055
 21
614.086857
 31
0.0
  0
LINE
  5
524
330
1F
100
AcDbEntity
  8
0
  6
CONTINUOUS
 62
     3
100
AcDbLine
 10
809.417055
 20
631.97722
 30
0.0
 11
809.297188
 21
633.349923
 31
0.0
  0
LINE
  5
525
330
1F
100
AcDbEntity
  8
0
  6
CONTINUOUS
 62
     3
100
AcDbLine
 10
809.297188
 20
633.349923
 30
0.0
 11
808.938499
 21
634.712179
 31
0.0
  0
LINE
  5
526
330
1F
100
AcDbEntity
  8
0
  6
CONTINUOUS
 62
     3
100
AcDbLine
 10
808.938499
 20
634.712179
 30
0.0
 11
808.343718
 21
636.05362
 31
0.0
  0
LINE
  5
527
330
1F
100
AcDbEntity
  8
0
  6
CONTINUOUS
 62
     3
100
AcDbLine
 10
808.343718
 20
636.05362
 30
0.0
 11
807.517372
 21
637.364038
 31
0.0
  0
LINE
  5
528
330
1F
100
AcDbEntity
  8
0
  6
CONTINUOUS
 62
     3
100
AcDbLine
 10
807.517372
 20
637.364038
 30
0.0
 11
806.46575
 21
638.633458
 31
0.0
  0
LINE
  5
529
330
1F
100
AcDbEntity
  8
0
  6
CONTINUOUS
 62
     3
100
AcDbLine
 10
806.46575
 20
638.633458
 30
0.0
 11
805.196855
 21
639.85222
 31
0.0
  0
LINE
  5
52A
330
1F
100
AcDbEntity
  8
0
  6
CONTINUOUS
 62
     3
100
AcDbLine
 10
805.196855
 20
639.85222
 30
0.0
 11
803.720344
 21
641.011049
 31
0.0
  0
LINE
  5
52B
330
1F
100
AcDbEntity
  8
0
  6
CONTINUOUS
 62
     3
100
AcDbLine
 10
803.720344
 20
641.011049
 30
0.0
 11
802.047455
 21
642.101125
 31
0.0
  0
LINE
  5
52C
330
1F
100
AcDbEntity
  8
0
  6
CONTINUOUS
 62
     3
100
AcDbLine
 10
802.047455
 20
642.101125
 30
0.0
 11
800.190919
 21
643.114152
 31
0.0
  0
LINE
  5
52D
330
1F
100
AcDbEntity
  8
0
  6
CONTINUOUS
 62
     3
100
AcDbLine
 10
800.190919
 20
643.114152
 30
0.0
 11
798.164865
 21
644.04242
 31
0.0
  0
LINE
  5
52E
330
1F
100
AcDbEntity
  8
0
  6
CONTINUOUS
 62
     3
100
AcDbLine
 10
798.164865
 20
644.04242
 30
0.0
 11
795.984713
 21
644.878865
 31
0.0
  0
LINE
  5
52F
330
1F
100
AcDbEntity
  8
0
  6
CONTINUOUS
 62
     3
100
AcDbLine
 10
795.984713
 20
644.878865
 30
0.0
 11
793.667055
 21
645.61712
 31
0.0
  0
LINE
  5
530
330
1F
100
AcDbEntity
  8
0
  6
CONTINUOUS
 62
     3
100
AcDbLine
 10
793.667055
 20
645.61712
 30
0.0
 11
791.22953
 21
646.251568
 31
0.0
  0
LINE
  5
531
330
1F
100
AcDbEntity
  8
0
  6
CONTINUOUS
 62
     3
100
AcDbLine
 10
791.22953
 20
646.251568
 30
0.0
 11
788.690689
 21
646.777379
 31
0.0
  0
LINE
  5
532
330
1F
100
AcDbEntity
  8
0
  6
CONTINUOUS
 62
     3
100
AcDbLine
 10
788.690689
 20
646.777379
 30
0.0
 11
786.069855
 21
647.190552
 31
0.0
  0
LINE
  5
533
330
1F
100
AcDbEntity
  8
0
  6
CONTINUOUS
 62
     3
100
AcDbLine
 10
786.069855
 20
647.190552
 30
0.0
 11
783.386973
 21
647.487942
 31
0.0
  0
LINE
  5
534
330
1F
100
AcDbEntity
  8
0
  6
CONTINUOUS
 62
     3
100
AcDbLine
 10
783.386973
 20
647.487942
 30
0.0
 11
780.662461
 21
647.667287
 31
0.0
  0
LINE
  5
535
330
1F
100
AcDbEntity
  8
0
  6
CONTINUOUS
 62
     3
100
AcDbLine
 10
780.662461
 20
647.667287
 30
0.0
 11
777.917055
 21
647.72722
 31
0.0
  0
LINE
  5
536
330
1F
100
AcDbEntity
  8
0
  6
CONTINUOUS
 62
     3
100
AcDbLine
 10
777.917055
 20
647.72722
 30
0.0
 11
775.171649
 21
647.667287
 31
0.0
  0
LINE
  5
537
330
1F
100
AcDbEntity
  8
0
  6
CONTINUOUS
 62
     3
100
AcDbLine
 10
775.171649
 20
647.667287
 30
0.0
 11
772.447137
 21
647.487942
 31
0.0
  0
LINE
  5
538
330
1F
100
AcDbEntity
  8
0
  6
CONTINUOUS
 62
     3
100
AcDbLine
 10
772.447137
 20
647.487942
 30
0.0
 11
769.764255
 21
647.190552
 31
0.0
  0
LINE
  5
539
330
1F
100
AcDbEntity
  8
0
  6
CONTINUOUS
 62
     3
100
AcDbLine
 10
769.764255
 20
647.190552
 30
0.0
 11
767.14342
 21
646.777379
 31
0.0
  0
LINE
  5
53A
330
1F
100
AcDbEntity
  8
0
  6
CONTINUOUS
 62
     3
100
AcDbLine
 10
767.14342
 20
646.777379
 30
0.0
 11
764.60458
 21
646.251568
 31
0.0
  0
LINE
  5
53B
330
1F
100
AcDbEntity
  8
0
  6
CONTINUOUS
 62
     3
100
AcDbLine
 10
764.60458
 20
646.251568
 30
0.0
 11
762.167055
 21
645.61712
 31
0.0
  0
LINE
  5
53C
330
1F
100
AcDbEntity
  8
0
  6
CONTINUOUS
 62
     3
100
AcDbLine
 10
762.167055
 20
645.61712
 30
0.0
 11
759.849397
 21
644.878865
 31
0.0
  0
LINE
  5
53D
330
1F
100
AcDbEntity
  8
0
  6
CONTINUOUS
 62
     3
100
AcDbLine
 10
759.849397
 20
644.878865
 30
0.0
 11
757.669245
 21
644.04242
 31
0.0
  0
LINE
  5
53E
330
1F
100
AcDbEntity
  8
0
  6
CONTINUOUS
 62
     3
100
AcDbLine
 10
757.669245
 20
644.04242
 30
0.0
 11
755.643191
 21
643.114152
 31
0.0
  0
LINE
  5
53F
330
1F
100
AcDbEntity
  8
0
  6
CONTINUOUS
 62
     3
100
AcDbLine
 10
755.643191
 20
643.114152
 30
0.0
 11
753.786655
 21
642.101125
 31
0.0
  0
LINE
  5
540
330
1F
100
AcDbEntity
  8
0
  6
CONTINUOUS
 62
     3
100
AcDbLine
 10
753.786655
 20
642.101125
 30
0.0
 11
752.113766
 21
641.011049
 31
0.0
  0
LINE
  5
541
330
1F
100
AcDbEntity
  8
0
  6
CONTINUOUS
 62
     3
100
AcDbLine
 10
752.113766
 20
641.011049
 30
0.0
 11
750.637255
 21
639.85222
 31
0.0
  0
LINE
  5
542
330
1F
100
AcDbEntity
  8
0
  6
CONTINUOUS
 62
     3
100
AcDbLine
 10
750.637255
 20
639.85222
 30
0.0
 11
749.36836
 21
638.633458
 31
0.0
  0
LINE
  5
543
330
1F
100
AcDbEntity
  8
0
  6
CONTINUOUS
 62
     3
100
AcDbLine
 10
749.36836
 20
638.633458
 30
0.0
 11
748.316737
 21
637.364038
 31
0.0
  0
LINE
  5
544
330
1F
100
AcDbEntity
  8
0
  6
CONTINUOUS
 62
     3
100
AcDbLine
 10
748.316737
 20
637.364038
 30
0.0
 11
747.490391
 21
636.05362
 31
0.0
  0
LINE
  5
545
330
1F
100
AcDbEntity
  8
0
  6
CONTINUOUS
 62
     3
100
AcDbLine
 10
747.490391
 20
636.05362
 30
0.0
 11
746.895611
 21
634.712179
 31
0.0
  0
LINE
  5
546
330
1F
100
AcDbEntity
  8
0
  6
CONTINUOUS
 62
     3
100
AcDbLine
 10
746.895611
 20
634.712179
 30
0.0
 11
746.536922
 21
633.349923
 31
0.0
  0
LINE
  5
547
330
1F
100
AcDbEntity
  8
0
  6
CONTINUOUS
 62
     3
100
AcDbLine
 10
746.536922
 20
633.349923
 30
0.0
 11
746.417055
 21
631.97722
 31
0.0
  0
LINE
  5
548
330
1F
100
AcDbEntity
  8
0
  6
CONTINUOUS
 62
     3
100
AcDbLine
 10
809.417055
 20
713.406245
 30
0.0
 11
809.417055
 21
631.97722
 31
0.0
  0
LINE
  5
549
330
1F
100
AcDbEntity
  8
0
  6
CONTINUOUS
 62
     3
100
AcDbLine
 10
746.417055
 20
713.406245
 30
0.0
 11
746.417055
 21
631.97722
 31
0.0
  0
LINE
  5
54A
330
1F
100
AcDbEntity
  8
0
  6
CONTINUOUS
 62
     3
100
AcDbLine
 10
799.917055
 20
559.692762
 30
0.0
 11
799.833338
 21
560.651475
 31
0.0
  0
LINE
  5
54B
330
1F
100
AcDbEntity
  8
0
  6
CONTINUOUS
 62
     3
100
AcDbLine
 10
799.833338
 20
560.651475
 30
0.0
 11
799.582825
 21
561.602892
 31
0.0
  0
LINE
  5
54C
330
1F
100
AcDbEntity
  8
0
  6
CONTINUOUS
 62
     3
100
AcDbLine
 10
799.582825
 20
561.602892
 30
0.0
 11
799.167423
 21
562.539771
 31
0.0
  0
LINE
  5
54D
330
1F
100
AcDbEntity
  8
0
  6
CONTINUOUS
 62
     3
100
AcDbLine
 10
799.167423
 20
562.539771
 30
0.0
 11
798.590293
 21
563.454983
 31
0.0
  0
LINE
  5
54E
330
1F
100
AcDbEntity
  8
0
  6
CONTINUOUS
 62
     3
100
AcDbLine
 10
798.590293
 20
563.454983
 30
0.0
 11
797.855826
 21
564.341563
 31
0.0
  0
LINE
  5
54F
330
1F
100
AcDbEntity
  8
0
  6
CONTINUOUS
 62
     3
100
AcDbLine
 10
797.855826
 20
564.341563
 30
0.0
 11
796.969614
 21
565.192762
 31
0.0
  0
LINE
  5
550
330
1F
100
AcDbEntity
  8
0
  6
CONTINUOUS
 62
     3
100
AcDbLine
 10
796.969614
 20
565.192762
 30
0.0
 11
795.9384
 21
566.002103
 31
0.0
  0
LINE
  5
551
330
1F
100
AcDbEntity
  8
0
  6
CONTINUOUS
 62
     3
100
AcDbLine
 10
795.9384
 20
566.002103
 30
0.0
 11
794.770033
 21
566.763426
 31
0.0
  0
LINE
  5
552
330
1F
100
AcDbEntity
  8
0
  6
CONTINUOUS
 62
     3
100
AcDbLine
 10
794.770033
 20
566.763426
 30
0.0
 11
793.473404
 21
567.470937
 31
0.0
  0
LINE
  5
553
330
1F
100
AcDbEntity
  8
0
  6
CONTINUOUS
 62
     3
100
AcDbLine
 10
793.473404
 20
567.470937
 30
0.0
 11
792.058382
 21
568.119251
 31
0.0
  0
LINE
  5
554
330
1F
100
AcDbEntity
  8
0
  6
CONTINUOUS
 62
     3
100
AcDbLine
 10
792.058382
 20
568.119251
 30
0.0
 11
790.535737
 21
568.703434
 31
0.0
  0
LINE
  5
555
330
1F
100
AcDbEntity
  8
0
  6
CONTINUOUS
 62
     3
100
AcDbLine
 10
790.535737
 20
568.703434
 30
0.0
 11
788.917055
 21
569.219041
 31
0.0
  0
LINE
  5
556
330
1F
100
AcDbEntity
  8
0
  6
CONTINUOUS
 62
     3
100
AcDbLine
 10
788.917055
 20
569.219041
 30
0.0
 11
787.214657
 21
569.662148
 31
0.0
  0
LINE
  5
557
330
1F
100
AcDbEntity
  8
0
  6
CONTINUOUS
 62
     3
100
AcDbLine
 10
787.214657
 20
569.662148
 30
0.0
 11
785.441498
 21
570.029381
 31
0.0
  0
LINE
  5
558
330
1F
100
AcDbEntity
  8
0
  6
CONTINUOUS
 62
     3
100
AcDbLine
 10
785.441498
 20
570.029381
 30
0.0
 11
783.611074
 21
570.317946
 31
0.0
  0
LINE
  5
559
330
1F
100
AcDbEntity
  8
0
  6
CONTINUOUS
 62
     3
100
AcDbLine
 10
783.611074
 20
570.317946
 30
0.0
 11
781.737315
 21
570.525647
 31
0.0
  0
LINE
  5
55A
330
1F
100
AcDbEntity
  8
0
  6
CONTINUOUS
 62
     3
100
AcDbLine
 10
781.737315
 20
570.525647
 30
0.0
 11
779.834481
 21
570.650904
 31
0.0
  0
LINE
  5
55B
330
1F
100
AcDbEntity
  8
0
  6
CONTINUOUS
 62
     3
100
AcDbLine
 10
779.834481
 20
570.650904
 30
0.0
 11
777.917055
 21
570.692762
 31
0.0
  0
LINE
  5
55C
330
1F
100
AcDbEntity
  8
0
  6
CONTINUOUS
 62
     3
100
AcDbLine
 10
777.917055
 20
570.692762
 30
0.0
 11
775.999629
 21
570.650904
 31
0.0
  0
LINE
  5
55D
330
1F
100
AcDbEntity
  8
0
  6
CONTINUOUS
 62
     3
100
AcDbLine
 10
775.999629
 20
570.650904
 30
0.0
 11
774.096795
 21
570.525647
 31
0.0
  0
LINE
  5
55E
330
1F
100
AcDbEntity
  8
0
  6
CONTINUOUS
 62
     3
100
AcDbLine
 10
774.096795
 20
570.525647
 30
0.0
 11
772.223036
 21
570.317946
 31
0.0
  0
LINE
  5
55F
330
1F
100
AcDbEntity
  8
0
  6
CONTINUOUS
 62
     3
100
AcDbLine
 10
772.223036
 20
570.317946
 30
0.0
 11
770.392612
 21
570.029381
 31
0.0
  0
LINE
  5
560
330
1F
100
AcDbEntity
  8
0
  6
CONTINUOUS
 62
     3
100
AcDbLine
 10
770.392612
 20
570.029381
 30
0.0
 11
768.619453
 21
569.662148
 31
0.0
  0
LINE
  5
561
330
1F
100
AcDbEntity
  8
0
  6
CONTINUOUS
 62
     3
100
AcDbLine
 10
768.619453
 20
569.662148
 30
0.0
 11
766.917055
 21
569.219041
 31
0.0
  0
LINE
  5
562
330
1F
100
AcDbEntity
  8
0
  6
CONTINUOUS
 62
     3
100
AcDbLine
 10
766.917055
 20
569.219041
 30
0.0
 11
765.298373
 21
568.703434
 31
0.0
  0
LINE
  5
563
330
1F
100
AcDbEntity
  8
0
  6
CONTINUOUS
 62
     3
100
AcDbLine
 10
765.298373
 20
568.703434
 30
0.0
 11
763.775728
 21
568.119251
 31
0.0
  0
LINE
  5
564
330
1F
100
AcDbEntity
  8
0
  6
CONTINUOUS
 62
     3
100
AcDbLine
 10
763.775728
 20
568.119251
 30
0.0
 11
762.360706
 21
567.470937
 31
0.0
  0
LINE
  5
565
330
1F
100
AcDbEntity
  8
0
  6
CONTINUOUS
 62
     3
100
AcDbLine
 10
762.360706
 20
567.470937
 30
0.0
 11
761.064077
 21
566.763426
 31
0.0
  0
LINE
  5
566
330
1F
100
AcDbEntity
  8
0
  6
CONTINUOUS
 62
     3
100
AcDbLine
 10
761.064077
 20
566.763426
 30
0.0
 11
759.89571
 21
566.002103
 31
0.0
  0
LINE
  5
567
330
1F
100
AcDbEntity
  8
0
  6
CONTINUOUS
 62
     3
100
AcDbLine
 10
759.89571
 20
566.002103
 30
0.0
 11
758.864496
 21
565.192762
 31
0.0
  0
LINE
  5
568
330
1F
100
AcDbEntity
  8
0
  6
CONTINUOUS
 62
     3
100
AcDbLine
 10
758.864496
 20
565.192762
 30
0.0
 11
757.978284
 21
564.341563
 31
0.0
  0
LINE
  5
569
330
1F
100
AcDbEntity
  8
0
  6
CONTINUOUS
 62
     3
100
AcDbLine
 10
757.978284
 20
564.341563
 30
0.0
 11
757.243817
 21
563.454983
 31
0.0
  0
LINE
  5
56A
330
1F
100
AcDbEntity
  8
0
  6
CONTINUOUS
 62
     3
100
AcDbLine
 10
757.243817
 20
563.454983
 30
0.0
 11
756.666687
 21
562.539771
 31
0.0
  0
LINE
  5
56B
330
1F
100
AcDbEntity
  8
0
  6
CONTINUOUS
 62
     3
100
AcDbLine
 10
756.666687
 20
562.539771
 30
0.0
 11
756.251284
 21
561.602892
 31
0.0
  0
LINE
  5
56C
330
1F
100
AcDbEntity
  8
0
  6
CONTINUOUS
 62
     3
100
AcDbLine
 10
756.251284
 20
561.602892
 30
0.0
 11
756.000772
 21
560.651475
 31
0.0
  0
LINE
  5
56D
330
1F
100
AcDbEntity
  8
0
  6
CONTINUOUS
 62
     3
100
AcDbLine
 10
756.000772
 20
560.651475
 30
0.0
 11
755.917055
 21
559.692762
 31
0.0
  0
LINE
  5
56E
330
1F
100
AcDbEntity
  8
0
  6
CONTINUOUS
 62
     3
100
AcDbLine
 10
755.917055
 20
559.692762
 30
0.0
 11
756.000772
 21
558.734049
 31
0.0
  0
LINE
  5
56F
330
1F
100
AcDbEntity
  8
0
  6
CONTINUOUS
 62
     3
100
AcDbLine
 10
756.000772
 20
558.734049
 30
0.0
 11
756.251284
 21
557.782632
 31
0.0
  0
LINE
  5
570
330
1F
100
AcDbEntity
  8
0
  6
CONTINUOUS
 62
     3
100
AcDbLine
 10
756.251284
 20
557.782632
 30
0.0
 11
756.666687
 21
556.845752
 31
0.0
  0
LINE
  5
571
330
1F
100
AcDbEntity
  8
0
  6
CONTINUOUS
 62
     3
100
AcDbLine
 10
756.666687
 20
556.845752
 30
0.0
 11
757.243817
 21
555.93054
 31
0.0
  0
LINE
  5
572
330
1F
100
AcDbEntity
  8
0
  6
CONTINUOUS
 62
     3
100
AcDbLine
 10
757.243817
 20
555.93054
 30
0.0
 11
757.978284
 21
555.043961
 31
0.0
  0
LINE
  5
573
330
1F
100
AcDbEntity
  8
0
  6
CONTINUOUS
 62
     3
100
AcDbLine
 10
757.978284
 20
555.043961
 30
0.0
 11
758.864496
 21
554.192762
 31
0.0
  0
LINE
  5
574
330
1F
100
AcDbEntity
  8
0
  6
CONTINUOUS
 62
     3
100
AcDbLine
 10
758.864496
 20
554.192762
 30
0.0
 11
759.89571
 21
553.383421
 31
0.0
  0
LINE
  5
575
330
1F
100
AcDbEntity
  8
0
  6
CONTINUOUS
 62
     3
100
AcDbLine
 10
759.89571
 20
553.383421
 30
0.0
 11
761.064077
 21
552.622098
 31
0.0
  0
LINE
  5
576
330
1F
100
AcDbEntity
  8
0
  6
CONTINUOUS
 62
     3
100
AcDbLine
 10
761.064077
 20
552.622098
 30
0.0
 11
762.360706
 21
551.914587
 31
0.0
  0
LINE
  5
577
330
1F
100
AcDbEntity
  8
0
  6
CONTINUOUS
 62
     3
100
AcDbLine
 10
762.360706
 20
551.914587
 30
0.0
 11
763.775728
 21
551.266273
 31
0.0
  0
LINE
  5
578
330
1F
100
AcDbEntity
  8
0
  6
CONTINUOUS
 62
     3
100
AcDbLine
 10
763.775728
 20
551.266273
 30
0.0
 11
765.298373
 21
550.682089
 31
0.0
  0
LINE
  5
579
330
1F
100
AcDbEntity
  8
0
  6
CONTINUOUS
 62
     3
100
AcDbLine
 10
765.298373
 20
550.682089
 30
0.0
 11
766.917055
 21
550.166482
 31
0.0
  0
LINE
  5
57A
330
1F
100
AcDbEntity
  8
0
  6
CONTINUOUS
 62
     3
100
AcDbLine
 10
766.917055
 20
550.166482
 30
0.0
 11
768.619453
 21
549.723376
 31
0.0
  0
LINE
  5
57B
330
1F
100
AcDbEntity
  8
0
  6
CONTINUOUS
 62
     3
100
AcDbLine
 10
768.619453
 20
549.723376
 30
0.0
 11
770.392612
 21
549.356143
 31
0.0
  0
LINE
  5
57C
330
1F
100
AcDbEntity
  8
0
  6
CONTINUOUS
 62
     3
100
AcDbLine
 10
785.441498
 20
549.356143
 30
0.0
 11
787.214657
 21
549.723376
 31
0.0
  0
LINE
  5
57D
330
1F
100
AcDbEntity
  8
0
  6
CONTINUOUS
 62
     3
100
AcDbLine
 10
787.214657
 20
549.723376
 30
0.0
 11
788.917055
 21
550.166482
 31
0.0
  0
LINE
  5
57E
330
1F
100
AcDbEntity
  8
0
  6
CONTINUOUS
 62
     3
100
AcDbLine
 10
788.917055
 20
550.166482
 30
0.0
 11
790.535737
 21
550.682089
 31
0.0
  0
LINE
  5
57F
330
1F
100
AcDbEntity
  8
0
  6
CONTINUOUS
 62
     3
100
AcDbLine
 10
790.535737
 20
550.682089
 30
0.0
 11
792.058382
 21
551.266273
 31
0.0
  0
LINE
  5
580
330
1F
100
AcDbEntity
  8
0
  6
CONTINUOUS
 62
     3
100
AcDbLine
 10
792.058382
 20
551.266273
 30
0.0
 11
793.473404
 21
551.914587
 31
0.0
  0
LINE
  5
581
330
1F
100
AcDbEntity
  8
0
  6
CONTINUOUS
 62
     3
100
AcDbLine
 10
793.473404
 20
551.914587
 30
0.0
 11
794.770033
 21
552.622098
 31
0.0
  0
LINE
  5
582
330
1F
100
AcDbEntity
  8
0
  6
CONTINUOUS
 62
     3
100
AcDbLine
 10
794.770033
 20
552.622098
 30
0.0
 11
795.9384
 21
553.383421
 31
0.0
  0
LINE
  5
583
330
1F
100
AcDbEntity
  8
0
  6
CONTINUOUS
 62
     3
100
AcDbLine
 10
795.9384
 20
553.383421
 30
0.0
 11
796.969614
 21
554.192762
 31
0.0
  0
LINE
  5
584
330
1F
100
AcDbEntity
  8
0
  6
CONTINUOUS
 62
     3
100
AcDbLine
 10
796.969614
 20
554.192762
 30
0.0
 11
797.855826
 21
555.043961
 31
0.0
  0
LINE
  5
585
330
1F
100
AcDbEntity
  8
0
  6
CONTINUOUS
 62
     3
100
AcDbLine
 10
797.855826
 20
555.043961
 30
0.0
 11
798.590293
 21
555.93054
 31
0.0
  0
LINE
  5
586
330
1F
100
AcDbEntity
  8
0
  6
CONTINUOUS
 62
     3
100
AcDbLine
 10
798.590293
 20
555.93054
 30
0.0
 11
799.167423
 21
556.845752
 31
0.0
  0
LINE
  5
587
330
1F
100
AcDbEntity
  8
0
  6
CONTINUOUS
 62
     3
100
AcDbLine
 10
799.167423
 20
556.845752
 30
0.0
 11
799.582825
 21
557.782632
 31
0.0
  0
LINE
  5
588
330
1F
100
AcDbEntity
  8
0
  6
CONTINUOUS
 62
     3
100
AcDbLine
 10
799.582825
 20
557.782632
 30
0.0
 11
799.833338
 21
558.734049
 31
0.0
  0
LINE
  5
589
330
1F
100
AcDbEntity
  8
0
  6
CONTINUOUS
 62
     3
100
AcDbLine
 10
799.833338
 20
558.734049
 30
0.0
 11
799.917055
 21
559.692762
 31
0.0
  0
LINE
  5
58A
330
1F
100
AcDbEntity
  8
0
  6
CONTINUOUS
 62
     3
100
AcDbLine
 10
799.917055
 20
582.336005
 30
0.0
 11
799.833338
 21
583.294718
 31
0.0
  0
LINE
  5
58B
330
1F
100
AcDbEntity
  8
0
  6
CONTINUOUS
 62
     3
100
AcDbLine
 10
799.833338
 20
583.294718
 30
0.0
 11
799.582825
 21
584.246135
 31
0.0
  0
LINE
  5
58C
330
1F
100
AcDbEntity
  8
0
  6
CONTINUOUS
 62
     3
100
AcDbLine
 10
799.582825
 20
584.246135
 30
0.0
 11
799.167423
 21
585.183015
 31
0.0
  0
LINE
  5
58D
330
1F
100
AcDbEntity
  8
0
  6
CONTINUOUS
 62
     3
100
AcDbLine
 10
799.167423
 20
585.183015
 30
0.0
 11
798.590293
 21
586.098227
 31
0.0
  0
LINE
  5
58E
330
1F
100
AcDbEntity
  8
0
  6
CONTINUOUS
 62
     3
100
AcDbLine
 10
798.590293
 20
586.098227
 30
0.0
 11
797.855826
 21
586.984806
 31
0.0
  0
LINE
  5
58F
330
1F
100
AcDbEntity
  8
0
  6
CONTINUOUS
 62
     3
100
AcDbLine
 10
797.855826
 20
586.984806
 30
0.0
 11
796.969614
 21
587.836005
 31
0.0
  0
LINE
  5
590
330
1F
100
AcDbEntity
  8
0
  6
CONTINUOUS
 62
     3
100
AcDbLine
 10
796.969614
 20
587.836005
 30
0.0
 11
795.9384
 21
588.645346
 31
0.0
  0
LINE
  5
591
330
1F
100
AcDbEntity
  8
0
  6
CONTINUOUS
 62
     3
100
AcDbLine
 10
795.9384
 20
588.645346
 30
0.0
 11
794.770033
 21
589.406669
 31
0.0
  0
LINE
  5
592
330
1F
100
AcDbEntity
  8
0
  6
CONTINUOUS
 62
     3
100
AcDbLine
 10
794.770033
 20
589.406669
 30
0.0
 11
793.473404
 21
590.11418
 31
0.0
  0
LINE
  5
593
330
1F
100
AcDbEntity
  8
0
  6
CONTINUOUS
 62
     3
100
AcDbLine
 10
793.473404
 20
590.11418
 30
0.0
 11
792.058382
 21
590.762494
 31
0.0
  0
LINE
  5
594
330
1F
100
AcDbEntity
  8
0
  6
CONTINUOUS
 62
     3
100
AcDbLine
 10
792.058382
 20
590.762494
 30
0.0
 11
790.535737
 21
591.346678
 31
0.0
  0
LINE
  5
595
330
1F
100
AcDbEntity
  8
0
  6
CONTINUOUS
 62
     3
100
AcDbLine
 10
790.535737
 20
591.346678
 30
0.0
 11
788.917055
 21
591.862285
 31
0.0
  0
LINE
  5
596
330
1F
100
AcDbEntity
  8
0
  6
CONTINUOUS
 62
     3
100
AcDbLine
 10
788.917055
 20
591.862285
 30
0.0
 11
787.214657
 21
592.305391
 31
0.0
  0
LINE
  5
597
330
1F
100
AcDbEntity
  8
0
  6
CONTINUOUS
 62
     3
100
AcDbLine
 10
787.214657
 20
592.305391
 30
0.0
 11
785.441498
 21
592.672624
 31
0.0
  0
LINE
  5
598
330
1F
100
AcDbEntity
  8
0
  6
CONTINUOUS
 62
     3
100
AcDbLine
 10
785.441498
 20
592.672624
 30
0.0
 11
783.611074
 21
592.961189
 31
0.0
  0
LINE
  5
599
330
1F
100
AcDbEntity
  8
0
  6
CONTINUOUS
 62
     3
100
AcDbLine
 10
783.611074
 20
592.961189
 30
0.0
 11
781.737315
 21
593.168891
 31
0.0
  0
LINE
  5
59A
330
1F
100
AcDbEntity
  8
0
  6
CONTINUOUS
 62
     3
100
AcDbLine
 10
781.737315
 20
593.168891
 30
0.0
 11
779.834481
 21
593.294147
 31
0.0
  0
LINE
  5
59B
330
1F
100
AcDbEntity
  8
0
  6
CONTINUOUS
 62
     3
100
AcDbLine
 10
779.834481
 20
593.294147
 30
0.0
 11
777.917055
 21
593.336005
 31
0.0
  0
LINE
  5
59C
330
1F
100
AcDbEntity
  8
0
  6
CONTINUOUS
 62
     3
100
AcDbLine
 10
777.917055
 20
593.336005
 30
0.0
 11
775.999629
 21
593.294147
 31
0.0
  0
LINE
  5
59D
330
1F
100
AcDbEntity
  8
0
  6
CONTINUOUS
 62
     3
100
AcDbLine
 10
775.999629
 20
593.294147
 30
0.0
 11
774.096795
 21
593.168891
 31
0.0
  0
LINE
  5
59E
330
1F
100
AcDbEntity
  8
0
  6
CONTINUOUS
 62
     3
100
AcDbLine
 10
774.096795
 20
593.168891
 30
0.0
 11
772.223036
 21
592.961189
 31
0.0
  0
LINE
  5
59F
330
1F
100
AcDbEntity
  8
0
  6
CONTINUOUS
 62
     3
100
AcDbLine
 10
772.223036
 20
592.961189
 30
0.0
 11
770.392612
 21
592.672624
 31
0.0
  0
LINE
  5
5A0
330
1F
100
AcDbEntity
  8
0
  6
CONTINUOUS
 62
     3
100
AcDbLine
 10
770.392612
 20
592.672624
 30
0.0
 11
768.619453
 21
592.305391
 31
0.0
  0
LINE
  5
5A1
330
1F
100
AcDbEntity
  8
0
  6
CONTINUOUS
 62
     3
100
AcDbLine
 10
768.619453
 20
592.305391
 30
0.0
 11
766.917055
 21
591.862285
 31
0.0
  0
LINE
  5
5A2
330
1F
100
AcDbEntity
  8
0
  6
CONTINUOUS
 62
     3
100
AcDbLine
 10
766.917055
 20
591.862285
 30
0.0
 11
765.298373
 21
591.346678
 31
0.0
  0
LINE
  5
5A3
330
1F
100
AcDbEntity
  8
0
  6
CONTINUOUS
 62
     3
100
AcDbLine
 10
765.298373
 20
591.346678
 30
0.0
 11
763.775728
 21
590.762494
 31
0.0
  0
LINE
  5
5A4
330
1F
100
AcDbEntity
  8
0
  6
CONTINUOUS
 62
     3
100
AcDbLine
 10
763.775728
 20
590.762494
 30
0.0
 11
762.360706
 21
590.11418
 31
0.0
  0
LINE
  5
5A5
330
1F
100
AcDbEntity
  8
0
  6
CONTINUOUS
 62
     3
100
AcDbLine
 10
762.360706
 20
590.11418
 30
0.0
 11
761.064077
 21
589.406669
 31
0.0
  0
LINE
  5
5A6
330
1F
100
AcDbEntity
  8
0
  6
CONTINUOUS
 62
     3
100
AcDbLine
 10
761.064077
 20
589.406669
 30
0.0
 11
759.89571
 21
588.645346
 31
0.0
  0
LINE
  5
5A7
330
1F
100
AcDbEntity
  8
0
  6
CONTINUOUS
 62
     3
100
AcDbLine
 10
759.89571
 20
588.645346
 30
0.0
 11
758.864496
 21
587.836005
 31
0.0
  0
LINE
  5
5A8
330
1F
100
AcDbEntity
  8
0
  6
CONTINUOUS
 62
     3
100
AcDbLine
 10
758.864496
 20
587.836005
 30
0.0
 11
757.978284
 21
586.984806
 31
0.0
  0
LINE
  5
5A9
330
1F
100
AcDbEntity
  8
0
  6
CONTINUOUS
 62
     3
100
AcDbLine
 10
757.978284
 20
586.984806
 30
0.0
 11
757.243817
 21
586.098227
 31
0.0
  0
LINE
  5
5AA
330
1F
100
AcDbEntity
  8
0
  6
CONTINUOUS
 62
     3
100
AcDbLine
 10
757.243817
 20
586.098227
 30
0.0
 11
756.666687
 21
585.183015
 31
0.0
  0
LINE
  5
5AB
330
1F
100
AcDbEntity
  8
0
  6
CONTINUOUS
 62
     3
100
AcDbLine
 10
756.666687
 20
585.183015
 30
0.0
 11
756.251284
 21
584.246135
 31
0.0
  0
LINE
  5
5AC
330
1F
100
AcDbEntity
  8
0
  6
CONTINUOUS
 62
     3
100
AcDbLine
 10
756.251284
 20
584.246135
 30
0.0
 11
756.000772
 21
583.294718
 31
0.0
  0
LINE
  5
5AD
330
1F
100
AcDbEntity
  8
0
  6
CONTINUOUS
 62
     3
100
AcDbLine
 10
756.000772
 20
583.294718
 30
0.0
 11
755.917055
 21
582.336005
 31
0.0
  0
LINE
  5
5AE
330
1F
100
AcDbEntity
  8
0
  6
CONTINUOUS
 62
     3
100
AcDbLine
 10
782.917055
 20
549.67741
 30
0.0
 11
782.898028
 21
549.895299
 31
0.0
  0
LINE
  5
5AF
330
1F
100
AcDbEntity
  8
0
  6
CONTINUOUS
 62
     3
100
AcDbLine
 10
782.898028
 20
549.895299
 30
0.0
 11
782.841094
 21
550.11153
 31
0.0
  0
LINE
  5
5B0
330
1F
100
AcDbEntity
  8
0
  6
CONTINUOUS
 62
     3
100
AcDbLine
 10
782.841094
 20
550.11153
 30
0.0
 11
782.746684
 21
550.324457
 31
0.0
  0
LINE
  5
5B1
330
1F
100
AcDbEntity
  8
0
  6
CONTINUOUS
 62
     3
100
AcDbLine
 10
782.746684
 20
550.324457
 30
0.0
 11
782.615518
 21
550.53246
 31
0.0
  0
LINE
  5
5B2
330
1F
100
AcDbEntity
  8
0
  6
CONTINUOUS
 62
     3
100
AcDbLine
 10
782.615518
 20
550.53246
 30
0.0
 11
782.448594
 21
550.733956
 31
0.0
  0
LINE
  5
5B3
330
1F
100
AcDbEntity
  8
0
  6
CONTINUOUS
 62
     3
100
AcDbLine
 10
782.448594
 20
550.733956
 30
0.0
 11
782.247182
 21
550.92741
 31
0.0
  0
LINE
  5
5B4
330
1F
100
AcDbEntity
  8
0
  6
CONTINUOUS
 62
     3
100
AcDbLine
 10
782.247182
 20
550.92741
 30
0.0
 11
782.012815
 21
551.111351
 31
0.0
  0
LINE
  5
5B5
330
1F
100
AcDbEntity
  8
0
  6
CONTINUOUS
 62
     3
100
AcDbLine
 10
782.012815
 20
551.111351
 30
0.0
 11
781.747277
 21
551.284379
 31
0.0
  0
LINE
  5
5B6
330
1F
100
AcDbEntity
  8
0
  6
CONTINUOUS
 62
     3
100
AcDbLine
 10
781.747277
 20
551.284379
 30
0.0
 11
781.452589
 21
551.445177
 31
0.0
  0
LINE
  5
5B7
330
1F
100
AcDbEntity
  8
0
  6
CONTINUOUS
 62
     3
100
AcDbLine
 10
781.452589
 20
551.445177
 30
0.0
 11
781.130993
 21
551.592521
 31
0.0
  0
LINE
  5
5B8
330
1F
100
AcDbEntity
  8
0
  6
CONTINUOUS
 62
     3
100
AcDbLine
 10
781.130993
 20
551.592521
 30
0.0
 11
780.784937
 21
551.72529
 31
0.0
  0
LINE
  5
5B9
330
1F
100
AcDbEntity
  8
0
  6
CONTINUOUS
 62
     3
100
AcDbLine
 10
780.784937
 20
551.72529
 30
0.0
 11
780.417055
 21
551.842473
 31
0.0
  0
LINE
  5
5BA
330
1F
100
AcDbEntity
  8
0
  6
CONTINUOUS
 62
     3
100
AcDbLine
 10
780.417055
 20
551.842473
 30
0.0
 11
780.030146
 21
551.943179
 31
0.0
  0
LINE
  5
5BB
330
1F
100
AcDbEntity
  8
0
  6
CONTINUOUS
 62
     3
100
AcDbLine
 10
780.030146
 20
551.943179
 30
0.0
 11
779.627156
 21
552.026641
 31
0.0
  0
LINE
  5
5BC
330
1F
100
AcDbEntity
  8
0
  6
CONTINUOUS
 62
     3
100
AcDbLine
 10
779.627156
 20
552.026641
 30
0.0
 11
779.21115
 21
552.092224
 31
0.0
  0
LINE
  5
5BD
330
1F
100
AcDbEntity
  8
0
  6
CONTINUOUS
 62
     3
100
AcDbLine
 10
779.21115
 20
552.092224
 30
0.0
 11
778.785296
 21
552.139429
 31
0.0
  0
LINE
  5
5BE
330
1F
100
AcDbEntity
  8
0
  6
CONTINUOUS
 62
     3
100
AcDbLine
 10
778.785296
 20
552.139429
 30
0.0
 11
778.352834
 21
552.167897
 31
0.0
  0
LINE
  5
5BF
330
1F
100
AcDbEntity
  8
0
  6
CONTINUOUS
 62
     3
100
AcDbLine
 10
778.352834
 20
552.167897
 30
0.0
 11
777.917055
 21
552.17741
 31
0.0
  0
LINE
  5
5C0
330
1F
100
AcDbEntity
  8
0
  6
CONTINUOUS
 62
     3
100
AcDbLine
 10
777.917055
 20
552.17741
 30
0.0
 11
777.481276
 21
552.167897
 31
0.0
  0
LINE
  5
5C1
330
1F
100
AcDbEntity
  8
0
  6
CONTINUOUS
 62
     3
100
AcDbLine
 10
777.481276
 20
552.167897
 30
0.0
 11
777.048814
 21
552.139429
 31
0.0
  0
LINE
  5
5C2
330
1F
100
AcDbEntity
  8
0
  6
CONTINUOUS
 62
     3
100
AcDbLine
 10
777.048814
 20
552.139429
 30
0.0
 11
776.62296
 21
552.092224
 31
0.0
  0
LINE
  5
5C3
330
1F
100
AcDbEntity
  8
0
  6
CONTINUOUS
 62
     3
100
AcDbLine
 10
776.62296
 20
552.092224
 30
0.0
 11
776.206954
 21
552.026641
 31
0.0
  0
LINE
  5
5C4
330
1F
100
AcDbEntity
  8
0
  6
CONTINUOUS
 62
     3
100
AcDbLine
 10
776.206954
 20
552.026641
 30
0.0
 11
775.803964
 21
551.943179
 31
0.0
  0
LINE
  5
5C5
330
1F
100
AcDbEntity
  8
0
  6
CONTINUOUS
 62
     3
100
AcDbLine
 10
775.803964
 20
551.943179
 30
0.0
 11
775.417055
 21
551.842473
 31
0.0
  0
LINE
  5
5C6
330
1F
100
AcDbEntity
  8
0
  6
CONTINUOUS
 62
     3
100
AcDbLine
 10
775.417055
 20
551.842473
 30
0.0
 11
775.049173
 21
551.72529
 31
0.0
  0
LINE
  5
5C7
330
1F
100
AcDbEntity
  8
0
  6
CONTINUOUS
 62
     3
100
AcDbLine
 10
775.049173
 20
551.72529
 30
0.0
 11
774.703117
 21
551.592521
 31
0.0
  0
LINE
  5
5C8
330
1F
100
AcDbEntity
  8
0
  6
CONTINUOUS
 62
     3
100
AcDbLine
 10
774.703117
 20
551.592521
 30
0.0
 11
774.381521
 21
551.445177
 31
0.0
  0
LINE
  5
5C9
330
1F
100
AcDbEntity
  8
0
  6
CONTINUOUS
 62
     3
100
AcDbLine
 10
774.381521
 20
551.445177
 30
0.0
 11
774.086833
 21
551.284379
 31
0.0
  0
LINE
  5
5CA
330
1F
100
AcDbEntity
  8
0
  6
CONTINUOUS
 62
     3
100
AcDbLine
 10
774.086833
 20
551.284379
 30
0.0
 11
773.821295
 21
551.111351
 31
0.0
  0
LINE
  5
5CB
330
1F
100
AcDbEntity
  8
0
  6
CONTINUOUS
 62
     3
100
AcDbLine
 10
773.821295
 20
551.111351
 30
0.0
 11
773.586928
 21
550.92741
 31
0.0
  0
LINE
  5
5CC
330
1F
100
AcDbEntity
  8
0
  6
CONTINUOUS
 62
     3
100
AcDbLine
 10
773.586928
 20
550.92741
 30
0.0
 11
773.385516
 21
550.733956
 31
0.0
  0
LINE
  5
5CD
330
1F
100
AcDbEntity
  8
0
  6
CONTINUOUS
 62
     3
100
AcDbLine
 10
773.385516
 20
550.733956
 30
0.0
 11
773.218592
 21
550.53246
 31
0.0
  0
LINE
  5
5CE
330
1F
100
AcDbEntity
  8
0
  6
CONTINUOUS
 62
     3
100
AcDbLine
 10
773.218592
 20
550.53246
 30
0.0
 11
773.087426
 21
550.324457
 31
0.0
  0
LINE
  5
5CF
330
1F
100
AcDbEntity
  8
0
  6
CONTINUOUS
 62
     3
100
AcDbLine
 10
773.087426
 20
550.324457
 30
0.0
 11
772.993016
 21
550.11153
 31
0.0
  0
LINE
  5
5D0
330
1F
100
AcDbEntity
  8
0
  6
CONTINUOUS
 62
     3
100
AcDbLine
 10
772.993016
 20
550.11153
 30
0.0
 11
772.936081
 21
549.895299
 31
0.0
  0
LINE
  5
5D1
330
1F
100
AcDbEntity
  8
0
  6
CONTINUOUS
 62
     3
100
AcDbLine
 10
772.936081
 20
549.895299
 30
0.0
 11
772.917055
 21
549.67741
 31
0.0
  0
LINE
  5
5D2
330
1F
100
AcDbEntity
  8
0
  6
CONTINUOUS
 62
     3
100
AcDbLine
 10
772.917055
 20
549.67741
 30
0.0
 11
772.936081
 21
549.459521
 31
0.0
  0
LINE
  5
5D3
330
1F
100
AcDbEntity
  8
0
  6
CONTINUOUS
 62
     3
100
AcDbLine
 10
772.936081
 20
549.459521
 30
0.0
 11
772.993016
 21
549.243289
 31
0.0
  0
LINE
  5
5D4
330
1F
100
AcDbEntity
  8
0
  6
CONTINUOUS
 62
     3
100
AcDbLine
 10
772.993016
 20
549.243289
 30
0.0
 11
773.087426
 21
549.030362
 31
0.0
  0
LINE
  5
5D5
330
1F
100
AcDbEntity
  8
0
  6
CONTINUOUS
 62
     3
100
AcDbLine
 10
773.087426
 20
549.030362
 30
0.0
 11
773.218592
 21
548.82236
 31
0.0
  0
LINE
  5
5D6
330
1F
100
AcDbEntity
  8
0
  6
CONTINUOUS
 62
     3
100
AcDbLine
 10
773.218592
 20
548.82236
 30
0.0
 11
773.385516
 21
548.620864
 31
0.0
  0
LINE
  5
5D7
330
1F
100
AcDbEntity
  8
0
  6
CONTINUOUS
 62
     3
100
AcDbLine
 10
773.385516
 20
548.620864
 30
0.0
 11
773.586928
 21
548.42741
 31
0.0
  0
LINE
  5
5D8
330
1F
100
AcDbEntity
  8
0
  6
CONTINUOUS
 62
     3
100
AcDbLine
 10
773.586928
 20
548.42741
 30
0.0
 11
773.821295
 21
548.243469
 31
0.0
  0
LINE
  5
5D9
330
1F
100
AcDbEntity
  8
0
  6
CONTINUOUS
 62
     3
100
AcDbLine
 10
773.821295
 20
548.243469
 30
0.0
 11
774.086833
 21
548.070441
 31
0.0
  0
LINE
  5
5DA
330
1F
100
AcDbEntity
  8
0
  6
CONTINUOUS
 62
     3
100
AcDbLine
 10
774.086833
 20
548.070441
 30
0.0
 11
774.381521
 21
547.909643
 31
0.0
  0
LINE
  5
5DB
330
1F
100
AcDbEntity
  8
0
  6
CONTINUOUS
 62
     3
100
AcDbLine
 10
774.381521
 20
547.909643
 30
0.0
 11
774.703117
 21
547.762299
 31
0.0
  0
LINE
  5
5DC
330
1F
100
AcDbEntity
  8
0
  6
CONTINUOUS
 62
     3
100
AcDbLine
 10
774.703117
 20
547.762299
 30
0.0
 11
775.049173
 21
547.62953
 31
0.0
  0
LINE
  5
5DD
330
1F
100
AcDbEntity
  8
0
  6
CONTINUOUS
 62
     3
100
AcDbLine
 10
775.049173
 20
547.62953
 30
0.0
 11
775.417055
 21
547.512346
 31
0.0
  0
LINE
  5
5DE
330
1F
100
AcDbEntity
  8
0
  6
CONTINUOUS
 62
     3
100
AcDbLine
 10
775.417055
 20
547.512346
 30
0.0
 11
775.803964
 21
547.41164
 31
0.0
  0
LINE
  5
5DF
330
1F
100
AcDbEntity
  8
0
  6
CONTINUOUS
 62
     3
100
AcDbLine
 10
775.803964
 20
547.41164
 30
0.0
 11
776.206954
 21
547.328178
 31
0.0
  0
LINE
  5
5E0
330
1F
100
AcDbEntity
  8
0
  6
CONTINUOUS
 62
     3
100
AcDbLine
 10
776.206954
 20
547.328178
 30
0.0
 11
776.62296
 21
547.262595
 31
0.0
  0
LINE
  5
5E1
330
1F
100
AcDbEntity
  8
0
  6
CONTINUOUS
 62
     3
100
AcDbLine
 10
776.62296
 20
547.262595
 30
0.0
 11
777.048814
 21
547.21539
 31
0.0
  0
LINE
  5
5E2
330
1F
100
AcDbEntity
  8
0
  6
CONTINUOUS
 62
     3
100
AcDbLine
 10
777.048814
 20
547.21539
 30
0.0
 11
777.481276
 21
547.186923
 31
0.0
  0
LINE
  5
5E3
330
1F
100
AcDbEntity
  8
0
  6
CONTINUOUS
 62
     3
100
AcDbLine
 10
777.481276
 20
547.186923
 30
0.0
 11
777.917055
 21
547.17741
 31
0.0
  0
LINE
  5
5E4
330
1F
100
AcDbEntity
  8
0
  6
CONTINUOUS
 62
     3
100
AcDbLine
 10
777.917055
 20
547.17741
 30
0.0
 11
778.352834
 21
547.186923
 31
0.0
  0
LINE
  5
5E5
330
1F
100
AcDbEntity
  8
0
  6
CONTINUOUS
 62
     3
100
AcDbLine
 10
778.352834
 20
547.186923
 30
0.0
 11
778.785296
 21
547.21539
 31
0.0
  0
LINE
  5
5E6
330
1F
100
AcDbEntity
  8
0
  6
CONTINUOUS
 62
     3
100
AcDbLine
 10
778.785296
 20
547.21539
 30
0.0
 11
779.21115
 21
547.262595
 31
0.0
  0
LINE
  5
5E7
330
1F
100
AcDbEntity
  8
0
  6
CONTINUOUS
 62
     3
100
AcDbLine
 10
779.21115
 20
547.262595
 30
0.0
 11
779.627156
 21
547.328178
 31
0.0
  0
LINE
  5
5E8
330
1F
100
AcDbEntity
  8
0
  6
CONTINUOUS
 62
     3
100
AcDbLine
 10
779.627156
 20
547.328178
 30
0.0
 11
780.030146
 21
547.41164
 31
0.0
  0
LINE
  5
5E9
330
1F
100
AcDbEntity
  8
0
  6
CONTINUOUS
 62
     3
100
AcDbLine
 10
780.030146
 20
547.41164
 30
0.0
 11
780.417055
 21
547.512346
 31
0.0
  0
LINE
  5
5EA
330
1F
100
AcDbEntity
  8
0
  6
CONTINUOUS
 62
     3
100
AcDbLine
 10
780.417055
 20
547.512346
 30
0.0
 11
780.784937
 21
547.62953
 31
0.0
  0
LINE
  5
5EB
330
1F
100
AcDbEntity
  8
0
  6
CONTINUOUS
 62
     3
100
AcDbLine
 10
780.784937
 20
547.62953
 30
0.0
 11
781.130993
 21
547.762299
 31
0.0
  0
LINE
  5
5EC
330
1F
100
AcDbEntity
  8
0
  6
CONTINUOUS
 62
     3
100
AcDbLine
 10
781.130993
 20
547.762299
 30
0.0
 11
781.452589
 21
547.909643
 31
0.0
  0
LINE
  5
5ED
330
1F
100
AcDbEntity
  8
0
  6
CONTINUOUS
 62
     3
100
AcDbLine
 10
781.452589
 20
547.909643
 30
0.0
 11
781.747277
 21
548.070441
 31
0.0
  0
LINE
  5
5EE
330
1F
100
AcDbEntity
  8
0
  6
CONTINUOUS
 62
     3
100
AcDbLine
 10
781.747277
 20
548.070441
 30
0.0
 11
782.012815
 21
548.243469
 31
0.0
  0
LINE
  5
5EF
330
1F
100
AcDbEntity
  8
0
  6
CONTINUOUS
 62
     3
100
AcDbLine
 10
782.012815
 20
548.243469
 30
0.0
 11
782.247182
 21
548.42741
 31
0.0
  0
LINE
  5
5F0
330
1F
100
AcDbEntity
  8
0
  6
CONTINUOUS
 62
     3
100
AcDbLine
 10
782.247182
 20
548.42741
 30
0.0
 11
782.448594
 21
548.620864
 31
0.0
  0
LINE
  5
5F1
330
1F
100
AcDbEntity
  8
0
  6
CONTINUOUS
 62
     3
100
AcDbLine
 10
782.448594
 20
548.620864
 30
0.0
 11
782.615518
 21
548.82236
 31
0.0
  0
LINE
  5
5F2
330
1F
100
AcDbEntity
  8
0
  6
CONTINUOUS
 62
     3
100
AcDbLine
 10
782.615518
 20
548.82236
 30
0.0
 11
782.746684
 21
549.030362
 31
0.0
  0
LINE
  5
5F3
330
1F
100
AcDbEntity
  8
0
  6
CONTINUOUS
 62
     3
100
AcDbLine
 10
782.746684
 20
549.030362
 30
0.0
 11
782.841094
 21
549.243289
 31
0.0
  0
LINE
  5
5F4
330
1F
100
AcDbEntity
  8
0
  6
CONTINUOUS
 62
     3
100
AcDbLine
 10
782.841094
 20
549.243289
 30
0.0
 11
782.898028
 21
549.459521
 31
0.0
  0
LINE
  5
5F5
330
1F
100
AcDbEntity
  8
0
  6
CONTINUOUS
 62
     3
100
AcDbLine
 10
782.898028
 20
549.459521
 30
0.0
 11
782.917055
 21
549.67741
 31
0.0
  0
LINE
  5
5F6
330
1F
100
AcDbEntity
  8
0
  6
CONTINUOUS
 62
     3
100
AcDbLine
 10
782.917055
 20
551.854665
 30
0.0
 11
782.898028
 21
552.072555
 31
0.0
  0
LINE
  5
5F7
330
1F
100
AcDbEntity
  8
0
  6
CONTINUOUS
 62
     3
100
AcDbLine
 10
782.898028
 20
552.072555
 30
0.0
 11
782.841094
 21
552.288786
 31
0.0
  0
LINE
  5
5F8
330
1F
100
AcDbEntity
  8
0
  6
CONTINUOUS
 62
     3
100
AcDbLine
 10
782.841094
 20
552.288786
 30
0.0
 11
782.746684
 21
552.501713
 31
0.0
  0
LINE
  5
5F9
330
1F
100
AcDbEntity
  8
0
  6
CONTINUOUS
 62
     3
100
AcDbLine
 10
782.746684
 20
552.501713
 30
0.0
 11
782.615518
 21
552.709716
 31
0.0
  0
LINE
  5
5FA
330
1F
100
AcDbEntity
  8
0
  6
CONTINUOUS
 62
     3
100
AcDbLine
 10
782.615518
 20
552.709716
 30
0.0
 11
782.448594
 21
552.911211
 31
0.0
  0
LINE
  5
5FB
330
1F
100
AcDbEntity
  8
0
  6
CONTINUOUS
 62
     3
100
AcDbLine
 10
782.448594
 20
552.911211
 30
0.0
 11
782.247182
 21
553.104665
 31
0.0
  0
LINE
  5
5FC
330
1F
100
AcDbEntity
  8
0
  6
CONTINUOUS
 62
     3
100
AcDbLine
 10
782.247182
 20
553.104665
 30
0.0
 11
782.012815
 21
553.288606
 31
0.0
  0
LINE
  5
5FD
330
1F
100
AcDbEntity
  8
0
  6
CONTINUOUS
 62
     3
100
AcDbLine
 10
782.012815
 20
553.288606
 30
0.0
 11
781.747277
 21
553.461634
 31
0.0
  0
LINE
  5
5FE
330
1F
100
AcDbEntity
  8
0
  6
CONTINUOUS
 62
     3
100
AcDbLine
 10
781.747277
 20
553.461634
 30
0.0
 11
781.452589
 21
553.622432
 31
0.0
  0
LINE
  5
5FF
330
1F
100
AcDbEntity
  8
0
  6
CONTINUOUS
 62
     3
100
AcDbLine
 10
781.452589
 20
553.622432
 30
0.0
 11
781.130993
 21
553.769776
 31
0.0
  0
LINE
  5
600
330
1F
100
AcDbEntity
  8
0
  6
CONTINUOUS
 62
     3
100
AcDbLine
 10
781.130993
 20
553.769776
 30
0.0
 11
780.784937
 21
553.902545
 31
0.0
  0
LINE
  5
601
330
1F
100
AcDbEntity
  8
0
  6
CONTINUOUS
 62
     3
100
AcDbLine
 10
780.784937
 20
553.902545
 30
0.0
 11
780.417055
 21
554.019729
 31
0.0
  0
LINE
  5
602
330
1F
100
AcDbEntity
  8
0
  6
CONTINUOUS
 62
     3
100
AcDbLine
 10
780.417055
 20
554.019729
 30
0.0
 11
780.030146
 21
554.120435
 31
0.0
  0
LINE
  5
603
330
1F
100
AcDbEntity
  8
0
  6
CONTINUOUS
 62
     3
100
AcDbLine
 10
780.030146
 20
554.120435
 30
0.0
 11
779.627156
 21
554.203897
 31
0.0
  0
LINE
  5
604
330
1F
100
AcDbEntity
  8
0
  6
CONTINUOUS
 62
     3
100
AcDbLine
 10
779.627156
 20
554.203897
 30
0.0
 11
779.21115
 21
554.26948
 31
0.0
  0
LINE
  5
605
330
1F
100
AcDbEntity
  8
0
  6
CONTINUOUS
 62
     3
100
AcDbLine
 10
779.21115
 20
554.26948
 30
0.0
 11
778.785296
 21
554.316685
 31
0.0
  0
LINE
  5
606
330
1F
100
AcDbEntity
  8
0
  6
CONTINUOUS
 62
     3
100
AcDbLine
 10
778.785296
 20
554.316685
 30
0.0
 11
778.352834
 21
554.345152
 31
0.0
  0
LINE
  5
607
330
1F
100
AcDbEntity
  8
0
  6
CONTINUOUS
 62
     3
100
AcDbLine
 10
778.352834
 20
554.345152
 30
0.0
 11
777.917055
 21
554.354665
 31
0.0
  0
LINE
  5
608
330
1F
100
AcDbEntity
  8
0
  6
CONTINUOUS
 62
     3
100
AcDbLine
 10
777.917055
 20
554.354665
 30
0.0
 11
777.481276
 21
554.345152
 31
0.0
  0
LINE
  5
609
330
1F
100
AcDbEntity
  8
0
  6
CONTINUOUS
 62
     3
100
AcDbLine
 10
777.481276
 20
554.345152
 30
0.0
 11
777.048814
 21
554.316685
 31
0.0
  0
LINE
  5
60A
330
1F
100
AcDbEntity
  8
0
  6
CONTINUOUS
 62
     3
100
AcDbLine
 10
777.048814
 20
554.316685
 30
0.0
 11
776.62296
 21
554.26948
 31
0.0
  0
LINE
  5
60B
330
1F
100
AcDbEntity
  8
0
  6
CONTINUOUS
 62
     3
100
AcDbLine
 10
776.62296
 20
554.26948
 30
0.0
 11
776.206954
 21
554.203897
 31
0.0
  0
LINE
  5
60C
330
1F
100
AcDbEntity
  8
0
  6
CONTINUOUS
 62
     3
100
AcDbLine
 10
776.206954
 20
554.203897
 30
0.0
 11
775.803964
 21
554.120435
 31
0.0
  0
LINE
  5
60D
330
1F
100
AcDbEntity
  8
0
  6
CONTINUOUS
 62
     3
100
AcDbLine
 10
775.803964
 20
554.120435
 30
0.0
 11
775.417055
 21
554.019729
 31
0.0
  0
LINE
  5
60E
330
1F
100
AcDbEntity
  8
0
  6
CONTINUOUS
 62
     3
100
AcDbLine
 10
775.417055
 20
554.019729
 30
0.0
 11
775.049173
 21
553.902545
 31
0.0
  0
LINE
  5
60F
330
1F
100
AcDbEntity
  8
0
  6
CONTINUOUS
 62
     3
100
AcDbLine
 10
775.049173
 20
553.902545
 30
0.0
 11
774.703117
 21
553.769776
 31
0.0
  0
LINE
  5
610
330
1F
100
AcDbEntity
  8
0
  6
CONTINUOUS
 62
     3
100
AcDbLine
 10
774.703117
 20
553.769776
 30
0.0
 11
774.381521
 21
553.622432
 31
0.0
  0
LINE
  5
611
330
1F
100
AcDbEntity
  8
0
  6
CONTINUOUS
 62
     3
100
AcDbLine
 10
774.381521
 20
553.622432
 30
0.0
 11
774.086833
 21
553.461634
 31
0.0
  0
LINE
  5
612
330
1F
100
AcDbEntity
  8
0
  6
CONTINUOUS
 62
     3
100
AcDbLine
 10
774.086833
 20
553.461634
 30
0.0
 11
773.821295
 21
553.288606
 31
0.0
  0
LINE
  5
613
330
1F
100
AcDbEntity
  8
0
  6
CONTINUOUS
 62
     3
100
AcDbLine
 10
773.821295
 20
553.288606
 30
0.0
 11
773.586928
 21
553.104665
 31
0.0
  0
LINE
  5
614
330
1F
100
AcDbEntity
  8
0
  6
CONTINUOUS
 62
     3
100
AcDbLine
 10
773.586928
 20
553.104665
 30
0.0
 11
773.385516
 21
552.911211
 31
0.0
  0
LINE
  5
615
330
1F
100
AcDbEntity
  8
0
  6
CONTINUOUS
 62
     3
100
AcDbLine
 10
773.385516
 20
552.911211
 30
0.0
 11
773.218592
 21
552.709716
 31
0.0
  0
LINE
  5
616
330
1F
100
AcDbEntity
  8
0
  6
CONTINUOUS
 62
     3
100
AcDbLine
 10
773.218592
 20
552.709716
 30
0.0
 11
773.087426
 21
552.501713
 31
0.0
  0
LINE
  5
617
330
1F
100
AcDbEntity
  8
0
  6
CONTINUOUS
 62
     3
100
AcDbLine
 10
773.087426
 20
552.501713
 30
0.0
 11
772.993016
 21
552.288786
 31
0.0
  0
LINE
  5
618
330
1F
100
AcDbEntity
  8
0
  6
CONTINUOUS
 62
     3
100
AcDbLine
 10
772.993016
 20
552.288786
 30
0.0
 11
772.936081
 21
552.072555
 31
0.0
  0
LINE
  5
619
330
1F
100
AcDbEntity
  8
0
  6
CONTINUOUS
 62
     3
100
AcDbLine
 10
772.936081
 20
552.072555
 30
0.0
 11
772.917055
 21
551.854665
 31
0.0
  0
LINE
  5
61A
330
1F
100
AcDbEntity
  8
0
  6
CONTINUOUS
 62
     3
100
AcDbLine
 10
786.917055
 20
551.854665
 30
0.0
 11
786.882807
 21
552.246866
 31
0.0
  0
LINE
  5
61B
330
1F
100
AcDbEntity
  8
0
  6
CONTINUOUS
 62
     3
100
AcDbLine
 10
786.882807
 20
552.246866
 30
0.0
 11
786.780325
 21
552.636082
 31
0.0
  0
LINE
  5
61C
330
1F
100
AcDbEntity
  8
0
  6
CONTINUOUS
 62
     3
100
AcDbLine
 10
786.780325
 20
552.636082
 30
0.0
 11
786.610387
 21
553.019351
 31
0.0
  0
LINE
  5
61D
330
1F
100
AcDbEntity
  8
0
  6
CONTINUOUS
 62
     3
100
AcDbLine
 10
786.610387
 20
553.019351
 30
0.0
 11
786.374289
 21
553.393756
 31
0.0
  0
LINE
  5
61E
330
1F
100
AcDbEntity
  8
0
  6
CONTINUOUS
 62
     3
100
AcDbLine
 10
786.374289
 20
553.393756
 30
0.0
 11
786.073825
 21
553.756447
 31
0.0
  0
LINE
  5
61F
330
1F
100
AcDbEntity
  8
0
  6
CONTINUOUS
 62
     3
100
AcDbLine
 10
786.073825
 20
553.756447
 30
0.0
 11
785.711284
 21
554.104665
 31
0.0
  0
LINE
  5
620
330
1F
100
AcDbEntity
  8
0
  6
CONTINUOUS
 62
     3
100
AcDbLine
 10
785.711284
 20
554.104665
 30
0.0
 11
785.289423
 21
554.435759
 31
0.0
  0
LINE
  5
621
330
1F
100
AcDbEntity
  8
0
  6
CONTINUOUS
 62
     3
100
AcDbLine
 10
785.289423
 20
554.435759
 30
0.0
 11
784.811455
 21
554.747209
 31
0.0
  0
LINE
  5
622
330
1F
100
AcDbEntity
  8
0
  6
CONTINUOUS
 62
     3
100
AcDbLine
 10
784.811455
 20
554.747209
 30
0.0
 11
784.281016
 21
555.036646
 31
0.0
  0
LINE
  5
623
330
1F
100
AcDbEntity
  8
0
  6
CONTINUOUS
 62
     3
100
AcDbLine
 10
784.281016
 20
555.036646
 30
0.0
 11
783.702143
 21
555.301865
 31
0.0
  0
LINE
  5
624
330
1F
100
AcDbEntity
  8
0
  6
CONTINUOUS
 62
     3
100
AcDbLine
 10
783.702143
 20
555.301865
 30
0.0
 11
783.079243
 21
555.540849
 31
0.0
  0
LINE
  5
625
330
1F
100
AcDbEntity
  8
0
  6
CONTINUOUS
 62
     3
100
AcDbLine
 10
783.079243
 20
555.540849
 30
0.0
 11
782.417055
 21
555.75178
 31
0.0
  0
LINE
  5
626
330
1F
100
AcDbEntity
  8
0
  6
CONTINUOUS
 62
     3
100
AcDbLine
 10
782.417055
 20
555.75178
 30
0.0
 11
781.720619
 21
555.93305
 31
0.0
  0
LINE
  5
627
330
1F
100
AcDbEntity
  8
0
  6
CONTINUOUS
 62
     3
100
AcDbLine
 10
781.720619
 20
555.93305
 30
0.0
 11
780.995236
 21
556.083282
 31
0.0
  0
LINE
  5
628
330
1F
100
AcDbEntity
  8
0
  6
CONTINUOUS
 62
     3
100
AcDbLine
 10
780.995236
 20
556.083282
 30
0.0
 11
780.246426
 21
556.201331
 31
0.0
  0
LINE
  5
629
330
1F
100
AcDbEntity
  8
0
  6
CONTINUOUS
 62
     3
100
AcDbLine
 10
780.246426
 20
556.201331
 30
0.0
 11
779.479889
 21
556.2863
 31
0.0
  0
LINE
  5
62A
330
1F
100
AcDbEntity
  8
0
  6
CONTINUOUS
 62
     3
100
AcDbLine
 10
779.479889
 20
556.2863
 30
0.0
 11
778.701457
 21
556.337541
 31
0.0
  0
LINE
  5
62B
330
1F
100
AcDbEntity
  8
0
  6
CONTINUOUS
 62
     3
100
AcDbLine
 10
778.701457
 20
556.337541
 30
0.0
 11
777.917055
 21
556.354665
 31
0.0
  0
LINE
  5
62C
330
1F
100
AcDbEntity
  8
0
  6
CONTINUOUS
 62
     3
100
AcDbLine
 10
777.917055
 20
556.354665
 30
0.0
 11
777.132653
 21
556.337541
 31
0.0
  0
LINE
  5
62D
330
1F
100
AcDbEntity
  8
0
  6
CONTINUOUS
 62
     3
100
AcDbLine
 10
777.132653
 20
556.337541
 30
0.0
 11
776.354221
 21
556.2863
 31
0.0
  0
LINE
  5
62E
330
1F
100
AcDbEntity
  8
0
  6
CONTINUOUS
 62
     3
100
AcDbLine
 10
776.354221
 20
556.2863
 30
0.0
 11
775.587684
 21
556.201331
 31
0.0
  0
LINE
  5
62F
330
1F
100
AcDbEntity
  8
0
  6
CONTINUOUS
 62
     3
100
AcDbLine
 10
775.587684
 20
556.201331
 30
0.0
 11
774.838874
 21
556.083282
 31
0.0
  0
LINE
  5
630
330
1F
100
AcDbEntity
  8
0
  6
CONTINUOUS
 62
     3
100
AcDbLine
 10
774.838874
 20
556.083282
 30
0.0
 11
774.113491
 21
555.93305
 31
0.0
  0
LINE
  5
631
330
1F
100
AcDbEntity
  8
0
  6
CONTINUOUS
 62
     3
100
AcDbLine
 10
774.113491
 20
555.93305
 30
0.0
 11
773.417055
 21
555.75178
 31
0.0
  0
LINE
  5
632
330
1F
100
AcDbEntity
  8
0
  6
CONTINUOUS
 62
     3
100
AcDbLine
 10
773.417055
 20
555.75178
 30
0.0
 11
772.754867
 21
555.540849
 31
0.0
  0
LINE
  5
633
330
1F
100
AcDbEntity
  8
0
  6
CONTINUOUS
 62
     3
100
AcDbLine
 10
772.754867
 20
555.540849
 30
0.0
 11
772.131966
 21
555.301865
 31
0.0
  0
LINE
  5
634
330
1F
100
AcDbEntity
  8
0
  6
CONTINUOUS
 62
     3
100
AcDbLine
 10
772.131966
 20
555.301865
 30
0.0
 11
771.553094
 21
555.036646
 31
0.0
  0
LINE
  5
635
330
1F
100
AcDbEntity
  8
0
  6
CONTINUOUS
 62
     3
100
AcDbLine
 10
771.553094
 20
555.036646
 30
0.0
 11
771.022655
 21
554.747209
 31
0.0
  0
LINE
  5
636
330
1F
100
AcDbEntity
  8
0
  6
CONTINUOUS
 62
     3
100
AcDbLine
 10
771.022655
 20
554.747209
 30
0.0
 11
770.544687
 21
554.435759
 31
0.0
  0
LINE
  5
637
330
1F
100
AcDbEntity
  8
0
  6
CONTINUOUS
 62
     3
100
AcDbLine
 10
770.544687
 20
554.435759
 30
0.0
 11
770.122826
 21
554.104665
 31
0.0
  0
LINE
  5
638
330
1F
100
AcDbEntity
  8
0
  6
CONTINUOUS
 62
     3
100
AcDbLine
 10
770.122826
 20
554.104665
 30
0.0
 11
769.760285
 21
553.756447
 31
0.0
  0
LINE
  5
639
330
1F
100
AcDbEntity
  8
0
  6
CONTINUOUS
 62
     3
100
AcDbLine
 10
769.760285
 20
553.756447
 30
0.0
 11
769.459821
 21
553.393756
 31
0.0
  0
LINE
  5
63A
330
1F
100
AcDbEntity
  8
0
  6
CONTINUOUS
 62
     3
100
AcDbLine
 10
769.459821
 20
553.393756
 30
0.0
 11
769.223722
 21
553.019351
 31
0.0
  0
LINE
  5
63B
330
1F
100
AcDbEntity
  8
0
  6
CONTINUOUS
 62
     3
100
AcDbLine
 10
769.223722
 20
553.019351
 30
0.0
 11
769.053785
 21
552.636082
 31
0.0
  0
LINE
  5
63C
330
1F
100
AcDbEntity
  8
0
  6
CONTINUOUS
 62
     3
100
AcDbLine
 10
769.053785
 20
552.636082
 30
0.0
 11
768.951303
 21
552.246866
 31
0.0
  0
LINE
  5
63D
330
1F
100
AcDbEntity
  8
0
  6
CONTINUOUS
 62
     3
100
AcDbLine
 10
768.951303
 20
552.246866
 30
0.0
 11
768.917055
 21
551.854665
 31
0.0
  0
LINE
  5
63E
330
1F
100
AcDbEntity
  8
0
  6
CONTINUOUS
 62
     3
100
AcDbLine
 10
768.917055
 20
551.854665
 30
0.0
 11
768.951303
 21
551.462464
 31
0.0
  0
LINE
  5
63F
330
1F
100
AcDbEntity
  8
0
  6
CONTINUOUS
 62
     3
100
AcDbLine
 10
768.951303
 20
551.462464
 30
0.0
 11
769.053785
 21
551.073248
 31
0.0
  0
LINE
  5
640
330
1F
100
AcDbEntity
  8
0
  6
CONTINUOUS
 62
     3
100
AcDbLine
 10
769.053785
 20
551.073248
 30
0.0
 11
769.223722
 21
550.68998
 31
0.0
  0
LINE
  5
641
330
1F
100
AcDbEntity
  8
0
  6
CONTINUOUS
 62
     3
100
AcDbLine
 10
769.223722
 20
550.68998
 30
0.0
 11
769.459821
 21
550.315575
 31
0.0
  0
LINE
  5
642
330
1F
100
AcDbEntity
  8
0
  6
CONTINUOUS
 62
     3
100
AcDbLine
 10
769.459821
 20
550.315575
 30
0.0
 11
769.760285
 21
549.952883
 31
0.0
  0
LINE
  5
643
330
1F
100
AcDbEntity
  8
0
  6
CONTINUOUS
 62
     3
100
AcDbLine
 10
769.760285
 20
549.952883
 30
0.0
 11
770.122826
 21
549.604665
 31
0.0
  0
LINE
  5
644
330
1F
100
AcDbEntity
  8
0
  6
CONTINUOUS
 62
     3
100
AcDbLine
 10
770.122826
 20
549.604665
 30
0.0
 11
770.544687
 21
549.273571
 31
0.0
  0
LINE
  5
645
330
1F
100
AcDbEntity
  8
0
  6
CONTINUOUS
 62
     3
100
AcDbLine
 10
770.544687
 20
549.273571
 30
0.0
 11
771.022655
 21
548.962121
 31
0.0
  0
LINE
  5
646
330
1F
100
AcDbEntity
  8
0
  6
CONTINUOUS
 62
     3
100
AcDbLine
 10
771.022655
 20
548.962121
 30
0.0
 11
771.553094
 21
548.672685
 31
0.0
  0
LINE
  5
647
330
1F
100
AcDbEntity
  8
0
  6
CONTINUOUS
 62
     3
100
AcDbLine
 10
771.553094
 20
548.672685
 30
0.0
 11
772.131966
 21
548.407465
 31
0.0
  0
LINE
  5
648
330
1F
100
AcDbEntity
  8
0
  6
CONTINUOUS
 62
     3
100
AcDbLine
 10
772.131966
 20
548.407465
 30
0.0
 11
772.754867
 21
548.168481
 31
0.0
  0
LINE
  5
649
330
1F
100
AcDbEntity
  8
0
  6
CONTINUOUS
 62
     3
100
AcDbLine
 10
772.754867
 20
548.168481
 30
0.0
 11
773.417055
 21
547.957551
 31
0.0
  0
LINE
  5
64A
330
1F
100
AcDbEntity
  8
0
  6
CONTINUOUS
 62
     3
100
AcDbLine
 10
773.417055
 20
547.957551
 30
0.0
 11
774.113491
 21
547.77628
 31
0.0
  0
LINE
  5
64B
330
1F
100
AcDbEntity
  8
0
  6
CONTINUOUS
 62
     3
100
AcDbLine
 10
774.113491
 20
547.77628
 30
0.0
 11
774.838874
 21
547.626048
 31
0.0
  0
LINE
  5
64C
330
1F
100
AcDbEntity
  8
0
  6
CONTINUOUS
 62
     3
100
AcDbLine
 10
774.838874
 20
547.626048
 30
0.0
 11
775.27688
 21
547.556997
 31
0.0
  0
LINE
  5
64D
330
1F
100
AcDbEntity
  8
0
  6
CONTINUOUS
 62
     3
100
AcDbLine
 10
780.55723
 20
547.556997
 30
0.0
 11
780.995236
 21
547.626048
 31
0.0
  0
LINE
  5
64E
330
1F
100
AcDbEntity
  8
0
  6
CONTINUOUS
 62
     3
100
AcDbLine
 10
780.995236
 20
547.626048
 30
0.0
 11
781.720619
 21
547.77628
 31
0.0
  0
LINE
  5
64F
330
1F
100
AcDbEntity
  8
0
  6
CONTINUOUS
 62
     3
100
AcDbLine
 10
781.720619
 20
547.77628
 30
0.0
 11
782.417055
 21
547.957551
 31
0.0
  0
LINE
  5
650
330
1F
100
AcDbEntity
  8
0
  6
CONTINUOUS
 62
     3
100
AcDbLine
 10
782.417055
 20
547.957551
 30
0.0
 11
783.079243
 21
548.168481
 31
0.0
  0
LINE
  5
651
330
1F
100
AcDbEntity
  8
0
  6
CONTINUOUS
 62
     3
100
AcDbLine
 10
783.079243
 20
548.168481
 30
0.0
 11
783.702143
 21
548.407465
 31
0.0
  0
LINE
  5
652
330
1F
100
AcDbEntity
  8
0
  6
CONTINUOUS
 62
     3
100
AcDbLine
 10
783.702143
 20
548.407465
 30
0.0
 11
784.281016
 21
548.672685
 31
0.0
  0
LINE
  5
653
330
1F
100
AcDbEntity
  8
0
  6
CONTINUOUS
 62
     3
100
AcDbLine
 10
784.281016
 20
548.672685
 30
0.0
 11
784.811455
 21
548.962121
 31
0.0
  0
LINE
  5
654
330
1F
100
AcDbEntity
  8
0
  6
CONTINUOUS
 62
     3
100
AcDbLine
 10
784.811455
 20
548.962121
 30
0.0
 11
785.289423
 21
549.273571
 31
0.0
  0
LINE
  5
655
330
1F
100
AcDbEntity
  8
0
  6
CONTINUOUS
 62
     3
100
AcDbLine
 10
785.289423
 20
549.273571
 30
0.0
 11
785.711284
 21
549.604665
 31
0.0
  0
LINE
  5
656
330
1F
100
AcDbEntity
  8
0
  6
CONTINUOUS
 62
     3
100
AcDbLine
 10
785.711284
 20
549.604665
 30
0.0
 11
786.073825
 21
549.952883
 31
0.0
  0
LINE
  5
657
330
1F
100
AcDbEntity
  8
0
  6
CONTINUOUS
 62
     3
100
AcDbLine
 10
786.073825
 20
549.952883
 30
0.0
 11
786.374289
 21
550.315575
 31
0.0
  0
LINE
  5
658
330
1F
100
AcDbEntity
  8
0
  6
CONTINUOUS
 62
     3
100
AcDbLine
 10
786.374289
 20
550.315575
 30
0.0
 11
786.610387
 21
550.68998
 31
0.0
  0
LINE
  5
659
330
1F
100
AcDbEntity
  8
0
  6
CONTINUOUS
 62
     3
100
AcDbLine
 10
786.610387
 20
550.68998
 30
0.0
 11
786.780325
 21
551.073248
 31
0.0
  0
LINE
  5
65A
330
1F
100
AcDbEntity
  8
0
  6
CONTINUOUS
 62
     3
100
AcDbLine
 10
786.780325
 20
551.073248
 30
0.0
 11
786.882807
 21
551.462464
 31
0.0
  0
LINE
  5
65B
330
1F
100
AcDbEntity
  8
0
  6
CONTINUOUS
 62
     3
100
AcDbLine
 10
786.882807
 20
551.462464
 30
0.0
 11
786.917055
 21
551.854665
 31
0.0
  0
LINE
  5
65C
330
1F
100
AcDbEntity
  8
0
  6
CONTINUOUS
 62
     3
100
AcDbLine
 10
786.917055
 20
555.338242
 30
0.0
 11
786.882807
 21
555.730443
 31
0.0
  0
LINE
  5
65D
330
1F
100
AcDbEntity
  8
0
  6
CONTINUOUS
 62
     3
100
AcDbLine
 10
786.882807
 20
555.730443
 30
0.0
 11
786.780325
 21
556.119659
 31
0.0
  0
LINE
  5
65E
330
1F
100
AcDbEntity
  8
0
  6
CONTINUOUS
 62
     3
100
AcDbLine
 10
786.780325
 20
556.119659
 30
0.0
 11
786.610387
 21
556.502928
 31
0.0
  0
LINE
  5
65F
330
1F
100
AcDbEntity
  8
0
  6
CONTINUOUS
 62
     3
100
AcDbLine
 10
786.610387
 20
556.502928
 30
0.0
 11
786.374289
 21
556.877333
 31
0.0
  0
LINE
  5
660
330
1F
100
AcDbEntity
  8
0
  6
CONTINUOUS
 62
     3
100
AcDbLine
 10
786.374289
 20
556.877333
 30
0.0
 11
786.073825
 21
557.240025
 31
0.0
  0
LINE
  5
661
330
1F
100
AcDbEntity
  8
0
  6
CONTINUOUS
 62
     3
100
AcDbLine
 10
786.073825
 20
557.240025
 30
0.0
 11
785.711284
 21
557.588242
 31
0.0
  0
LINE
  5
662
330
1F
100
AcDbEntity
  8
0
  6
CONTINUOUS
 62
     3
100
AcDbLine
 10
785.711284
 20
557.588242
 30
0.0
 11
785.289423
 21
557.919336
 31
0.0
  0
LINE
  5
663
330
1F
100
AcDbEntity
  8
0
  6
CONTINUOUS
 62
     3
100
AcDbLine
 10
785.289423
 20
557.919336
 30
0.0
 11
784.811455
 21
558.230787
 31
0.0
  0
LINE
  5
664
330
1F
100
AcDbEntity
  8
0
  6
CONTINUOUS
 62
     3
100
AcDbLine
 10
784.811455
 20
558.230787
 30
0.0
 11
784.281016
 21
558.520223
 31
0.0
  0
LINE
  5
665
330
1F
100
AcDbEntity
  8
0
  6
CONTINUOUS
 62
     3
100
AcDbLine
 10
784.281016
 20
558.520223
 30
0.0
 11
783.702143
 21
558.785442
 31
0.0
  0
LINE
  5
666
330
1F
100
AcDbEntity
  8
0
  6
CONTINUOUS
 62
     3
100
AcDbLine
 10
783.702143
 20
558.785442
 30
0.0
 11
783.079243
 21
559.024427
 31
0.0
  0
LINE
  5
667
330
1F
100
AcDbEntity
  8
0
  6
CONTINUOUS
 62
     3
100
AcDbLine
 10
783.079243
 20
559.024427
 30
0.0
 11
782.417055
 21
559.235357
 31
0.0
  0
LINE
  5
668
330
1F
100
AcDbEntity
  8
0
  6
CONTINUOUS
 62
     3
100
AcDbLine
 10
782.417055
 20
559.235357
 30
0.0
 11
781.720619
 21
559.416628
 31
0.0
  0
LINE
  5
669
330
1F
100
AcDbEntity
  8
0
  6
CONTINUOUS
 62
     3
100
AcDbLine
 10
781.720619
 20
559.416628
 30
0.0
 11
780.995236
 21
559.566859
 31
0.0
  0
LINE
  5
66A
330
1F
100
AcDbEntity
  8
0
  6
CONTINUOUS
 62
     3
100
AcDbLine
 10
780.995236
 20
559.566859
 30
0.0
 11
780.246426
 21
559.684909
 31
0.0
  0
LINE
  5
66B
330
1F
100
AcDbEntity
  8
0
  6
CONTINUOUS
 62
     3
100
AcDbLine
 10
780.246426
 20
559.684909
 30
0.0
 11
779.479889
 21
559.769877
 31
0.0
  0
LINE
  5
66C
330
1F
100
AcDbEntity
  8
0
  6
CONTINUOUS
 62
     3
100
AcDbLine
 10
779.479889
 20
559.769877
 30
0.0
 11
778.701457
 21
559.821119
 31
0.0
  0
LINE
  5
66D
330
1F
100
AcDbEntity
  8
0
  6
CONTINUOUS
 62
     3
100
AcDbLine
 10
778.701457
 20
559.821119
 30
0.0
 11
777.917055
 21
559.838242
 31
0.0
  0
LINE
  5
66E
330
1F
100
AcDbEntity
  8
0
  6
CONTINUOUS
 62
     3
100
AcDbLine
 10
777.917055
 20
559.838242
 30
0.0
 11
777.132653
 21
559.821119
 31
0.0
  0
LINE
  5
66F
330
1F
100
AcDbEntity
  8
0
  6
CONTINUOUS
 62
     3
100
AcDbLine
 10
777.132653
 20
559.821119
 30
0.0
 11
776.354221
 21
559.769877
 31
0.0
  0
LINE
  5
670
330
1F
100
AcDbEntity
  8
0
  6
CONTINUOUS
 62
     3
100
AcDbLine
 10
776.354221
 20
559.769877
 30
0.0
 11
775.587684
 21
559.684909
 31
0.0
  0
LINE
  5
671
330
1F
100
AcDbEntity
  8
0
  6
CONTINUOUS
 62
     3
100
AcDbLine
 10
775.587684
 20
559.684909
 30
0.0
 11
774.838874
 21
559.566859
 31
0.0
  0
LINE
  5
672
330
1F
100
AcDbEntity
  8
0
  6
CONTINUOUS
 62
     3
100
AcDbLine
 10
774.838874
 20
559.566859
 30
0.0
 11
774.113491
 21
559.416628
 31
0.0
  0
LINE
  5
673
330
1F
100
AcDbEntity
  8
0
  6
CONTINUOUS
 62
     3
100
AcDbLine
 10
774.113491
 20
559.416628
 30
0.0
 11
773.417055
 21
559.235357
 31
0.0
  0
LINE
  5
674
330
1F
100
AcDbEntity
  8
0
  6
CONTINUOUS
 62
     3
100
AcDbLine
 10
773.417055
 20
559.235357
 30
0.0
 11
772.754867
 21
559.024427
 31
0.0
  0
LINE
  5
675
330
1F
100
AcDbEntity
  8
0
  6
CONTINUOUS
 62
     3
100
AcDbLine
 10
772.754867
 20
559.024427
 30
0.0
 11
772.131966
 21
558.785442
 31
0.0
  0
LINE
  5
676
330
1F
100
AcDbEntity
  8
0
  6
CONTINUOUS
 62
     3
100
AcDbLine
 10
772.131966
 20
558.785442
 30
0.0
 11
771.553094
 21
558.520223
 31
0.0
  0
LINE
  5
677
330
1F
100
AcDbEntity
  8
0
  6
CONTINUOUS
 62
     3
100
AcDbLine
 10
771.553094
 20
558.520223
 30
0.0
 11
771.022655
 21
558.230787
 31
0.0
  0
LINE
  5
678
330
1F
100
AcDbEntity
  8
0
  6
CONTINUOUS
 62
     3
100
AcDbLine
 10
771.022655
 20
558.230787
 30
0.0
 11
770.544687
 21
557.919336
 31
0.0
  0
LINE
  5
679
330
1F
100
AcDbEntity
  8
0
  6
CONTINUOUS
 62
     3
100
AcDbLine
 10
770.544687
 20
557.919336
 30
0.0
 11
770.122826
 21
557.588242
 31
0.0
  0
LINE
  5
67A
330
1F
100
AcDbEntity
  8
0
  6
CONTINUOUS
 62
     3
100
AcDbLine
 10
770.122826
 20
557.588242
 30
0.0
 11
769.760285
 21
557.240025
 31
0.0
  0
LINE
  5
67B
330
1F
100
AcDbEntity
  8
0
  6
CONTINUOUS
 62
     3
100
AcDbLine
 10
769.760285
 20
557.240025
 30
0.0
 11
769.459821
 21
556.877333
 31
0.0
  0
LINE
  5
67C
330
1F
100
AcDbEntity
  8
0
  6
CONTINUOUS
 62
     3
100
AcDbLine
 10
769.459821
 20
556.877333
 30
0.0
 11
769.223722
 21
556.502928
 31
0.0
  0
LINE
  5
67D
330
1F
100
AcDbEntity
  8
0
  6
CONTINUOUS
 62
     3
100
AcDbLine
 10
769.223722
 20
556.502928
 30
0.0
 11
769.053785
 21
556.119659
 31
0.0
  0
LINE
  5
67E
330
1F
100
AcDbEntity
  8
0
  6
CONTINUOUS
 62
     3
100
AcDbLine
 10
769.053785
 20
556.119659
 30
0.0
 11
768.951303
 21
555.730443
 31
0.0
  0
LINE
  5
67F
330
1F
100
AcDbEntity
  8
0
  6
CONTINUOUS
 62
     3
100
AcDbLine
 10
768.951303
 20
555.730443
 30
0.0
 11
768.917055
 21
555.338242
 31
0.0
  0
LINE
  5
680
330
1F
100
AcDbEntity
  8
0
  6
CONTINUOUS
 62
     3
100
AcDbLine
 10
799.917055
 20
582.336005
 30
0.0
 11
799.917055
 21
559.692762
 31
0.0
  0
LINE
  5
681
330
1F
100
AcDbEntity
  8
0
  6
CONTINUOUS
 62
     3
100
AcDbLine
 10
755.917055
 20
582.336005
 30
0.0
 11
755.917055
 21
559.692762
 31
0.0
  0
LINE
  5
682
330
1F
100
AcDbEntity
  8
0
  6
CONTINUOUS
 62
     3
100
AcDbLine
 10
786.917055
 20
555.338242
 30
0.0
 11
786.917055
 21
551.854665
 31
0.0
  0
LINE
  5
683
330
1F
100
AcDbEntity
  8
0
  6
CONTINUOUS
 62
     3
100
AcDbLine
 10
768.917055
 20
555.338242
 30
0.0
 11
768.917055
 21
551.854665
 31
0.0
  0
LINE
  5
684
330
1F
100
AcDbEntity
  8
0
  6
CONTINUOUS
 62
     3
100
AcDbLine
 10
782.917055
 20
551.854665
 30
0.0
 11
782.917055
 21
549.67741
 31
0.0
  0
LINE
  5
685
330
1F
100
AcDbEntity
  8
0
  6
CONTINUOUS
 62
     3
100
AcDbLine
 10
772.917055
 20
551.854665
 30
0.0
 11
772.917055
 21
549.67741
 31
0.0
  0
LINE
  5
686
330
1F
100
AcDbEntity
  8
0
  6
CONTINUOUS
 62
     3
100
AcDbLine
 10
808.343718
 20
627.90082
 30
0.0
 11
808.938499
 21
629.242262
 31
0.0
  0
LINE
  5
687
330
1F
100
AcDbEntity
  8
0
  6
CONTINUOUS
 62
     3
100
AcDbLine
 10
808.938499
 20
629.242262
 30
0.0
 11
809.297188
 21
630.604517
 31
0.0
  0
LINE
  5
688
330
1F
100
AcDbEntity
  8
0
  6
CONTINUOUS
 62
     3
100
AcDbLine
 10
809.297188
 20
630.604517
 30
0.0
 11
809.417055
 21
631.97722
 31
0.0
  0
LINE
  5
689
330
1F
100
AcDbEntity
  8
0
  6
CONTINUOUS
 62
     3
100
AcDbLine
 10
747.490391
 20
627.90082
 30
0.0
 11
746.895611
 21
629.242262
 31
0.0
  0
LINE
  5
68A
330
1F
100
AcDbEntity
  8
0
  6
CONTINUOUS
 62
     3
100
AcDbLine
 10
746.895611
 20
629.242262
 30
0.0
 11
746.536922
 21
630.604517
 31
0.0
  0
LINE
  5
68B
330
1F
100
AcDbEntity
  8
0
  6
CONTINUOUS
 62
     3
100
AcDbLine
 10
746.536922
 20
630.604517
 30
0.0
 11
746.417055
 21
631.97722
 31
0.0
  0
LINE
  5
68C
330
1F
100
AcDbEntity
  8
0
  6
CONTINUOUS
 62
     3
100
AcDbLine
 10
777.917055
 20
729.378781
 30
0.0
 11
810.417055
 21
729.378781
 31
0.0
  0
LINE
  5
68D
330
1F
100
AcDbEntity
  8
0
  6
CONTINUOUS
 62
     8
100
AcDbLine
 10
809.417055
 20
697.43371
 30
0.0
 11
810.417055
 21
697.43371
 31
0.0
  0
LINE
  5
68E
330
1F
100
AcDbEntity
  8
0
  6
CONTINUOUS
 62
     3
100
AcDbLine
 10
733.917055
 20
753.763943
 30
0.0
 11
821.917055
 21
753.763943
 31
0.0
  0
LINE
  5
68F
330
1F
100
AcDbEntity
  8
0
  6
CONTINUOUS
 62
     3
100
AcDbLine
 10
810.417055
 20
753.763943
 30
0.0
 11
810.417055
 21
697.43371
 31
0.0
  0
LINE
  5
690
330
1F
100
AcDbEntity
  8
0
  6
CONTINUOUS
 62
     3
100
AcDbLine
 10
810.417055
 20
748.598827
 30
0.0
 11
820.417055
 21
738.598827
 31
0.0
  0
LINE
  5
691
330
1F
100
AcDbEntity
  8
0
  6
CONTINUOUS
 62
     3
100
AcDbLine
 10
821.917055
 20
683.753507
 30
0.0
 11
821.917055
 21
755.826168
 31
0.0
  0
LINE
  5
692
330
1F
100
AcDbEntity
  8
0
  6
CONTINUOUS
 62
     3
100
AcDbLine
 10
810.417055
 20
702.598827
 30
0.0
 11
820.417055
 21
712.598827
 31
0.0
  0
LINE
  5
693
330
1F
100
AcDbEntity
  8
0
  6
CONTINUOUS
 62
     3
100
AcDbLine
 10
820.417055
 20
738.598827
 30
0.0
 11
820.417055
 21
712.598827
 31
0.0
  0
LINE
  5
694
330
1F
100
AcDbEntity
  8
0
  6
CONTINUOUS
 62
     3
100
AcDbLine
 10
821.917055
 20
755.826168
 30
0.0
 11
833.917055
 21
755.826168
 31
0.0
  0
LINE
  5
695
330
1F
100
AcDbEntity
  8
0
  6
CONTINUOUS
 62
     3
100
AcDbLine
 10
821.917055
 20
683.753507
 30
0.0
 11
833.917055
 21
683.753507
 31
0.0
  0
LINE
  5
696
330
1F
100
AcDbEntity
  8
0
  6
CONTINUOUS
 62
     3
100
AcDbLine
 10
791.517055
 20
955.516074
 30
0.0
 11
791.465303
 21
956.108733
 31
0.0
  0
LINE
  5
697
330
1F
100
AcDbEntity
  8
0
  6
CONTINUOUS
 62
     3
100
AcDbLine
 10
791.465303
 20
956.108733
 30
0.0
 11
791.31044
 21
956.696881
 31
0.0
  0
LINE
  5
698
330
1F
100
AcDbEntity
  8
0
  6
CONTINUOUS
 62
     3
100
AcDbLine
 10
791.31044
 20
956.696881
 30
0.0
 11
791.053646
 21
957.276043
 31
0.0
  0
LINE
  5
699
330
1F
100
AcDbEntity
  8
0
  6
CONTINUOUS
 62
     3
100
AcDbLine
 10
791.053646
 20
957.276043
 30
0.0
 11
790.696875
 21
957.841811
 31
0.0
  0
LINE
  5
69A
330
1F
100
AcDbEntity
  8
0
  6
CONTINUOUS
 62
     3
100
AcDbLine
 10
790.696875
 20
957.841811
 30
0.0
 11
790.242841
 21
958.389878
 31
0.0
  0
LINE
  5
69B
330
1F
100
AcDbEntity
  8
0
  6
CONTINUOUS
 62
     3
100
AcDbLine
 10
790.242841
 20
958.389878
 30
0.0
 11
789.695
 21
958.916074
 31
0.0
  0
LINE
  5
69C
330
1F
100
AcDbEntity
  8
0
  6
CONTINUOUS
 62
     3
100
AcDbLine
 10
789.695
 20
958.916074
 30
0.0
 11
789.057523
 21
959.416393
 31
0.0
  0
LINE
  5
69D
330
1F
100
AcDbEntity
  8
0
  6
CONTINUOUS
 62
     3
100
AcDbLine
 10
789.057523
 20
959.416393
 30
0.0
 11
788.335259
 21
959.887029
 31
0.0
  0
LINE
  5
69E
330
1F
100
AcDbEntity
  8
0
  6
CONTINUOUS
 62
     3
100
AcDbLine
 10
788.335259
 20
959.887029
 30
0.0
 11
787.533707
 21
960.3244
 31
0.0
  0
LINE
  5
69F
330
1F
100
AcDbEntity
  8
0
  6
CONTINUOUS
 62
     3
100
AcDbLine
 10
787.533707
 20
960.3244
 30
0.0
 11
786.658966
 21
960.725176
 31
0.0
  0
LINE
  5
6A0
330
1F
100
AcDbEntity
  8
0
  6
CONTINUOUS
 62
     3
100
AcDbLine
 10
786.658966
 20
960.725176
 30
0.0
 11
785.717694
 21
961.086308
 31
0.0
  0
LINE
  5
6A1
330
1F
100
AcDbEntity
  8
0
  6
CONTINUOUS
 62
     3
100
AcDbLine
 10
785.717694
 20
961.086308
 30
0.0
 11
784.717055
 21
961.405046
 31
0.0
  0
LINE
  5
6A2
330
1F
100
AcDbEntity
  8
0
  6
CONTINUOUS
 62
     3
100
AcDbLine
 10
784.717055
 20
961.405046
 30
0.0
 11
783.664663
 21
961.678967
 31
0.0
  0
LINE
  5
6A3
330
1F
100
AcDbEntity
  8
0
  6
CONTINUOUS
 62
     3
100
AcDbLine
 10
783.664663
 20
961.678967
 30
0.0
 11
782.568529
 21
961.905983
 31
0.0
  0
LINE
  5
6A4
330
1F
100
AcDbEntity
  8
0
  6
CONTINUOUS
 62
     3
100
AcDbLine
 10
782.568529
 20
961.905983
 30
0.0
 11
781.436994
 21
962.084369
 31
0.0
  0
LINE
  5
6A5
330
1F
100
AcDbEntity
  8
0
  6
CONTINUOUS
 62
     3
100
AcDbLine
 10
781.436994
 20
962.084369
 30
0.0
 11
780.27867
 21
962.212766
 31
0.0
  0
LINE
  5
6A6
330
1F
100
AcDbEntity
  8
0
  6
CONTINUOUS
 62
     3
100
AcDbLine
 10
780.27867
 20
962.212766
 30
0.0
 11
779.102373
 21
962.290198
 31
0.0
  0
LINE
  5
6A7
330
1F
100
AcDbEntity
  8
0
  6
CONTINUOUS
 62
     3
100
AcDbLine
 10
779.102373
 20
962.290198
 30
0.0
 11
777.917055
 21
962.316074
 31
0.0
  0
LINE
  5
6A8
330
1F
100
AcDbEntity
  8
0
  6
CONTINUOUS
 62
     3
100
AcDbLine
 10
777.917055
 20
962.316074
 30
0.0
 11
776.731737
 21
962.290198
 31
0.0
  0
LINE
  5
6A9
330
1F
100
AcDbEntity
  8
0
  6
CONTINUOUS
 62
     3
100
AcDbLine
 10
776.731737
 20
962.290198
 30
0.0
 11
775.55544
 21
962.212766
 31
0.0
  0
LINE
  5
6AA
330
1F
100
AcDbEntity
  8
0
  6
CONTINUOUS
 62
     3
100
AcDbLine
 10
775.55544
 20
962.212766
 30
0.0
 11
774.397116
 21
962.084369
 31
0.0
  0
LINE
  5
6AB
330
1F
100
AcDbEntity
  8
0
  6
CONTINUOUS
 62
     3
100
AcDbLine
 10
774.397116
 20
962.084369
 30
0.0
 11
773.265581
 21
961.905983
 31
0.0
  0
LINE
  5
6AC
330
1F
100
AcDbEntity
  8
0
  6
CONTINUOUS
 62
     3
100
AcDbLine
 10
773.265581
 20
961.905983
 30
0.0
 11
772.169447
 21
961.678967
 31
0.0
  0
LINE
  5
6AD
330
1F
100
AcDbEntity
  8
0
  6
CONTINUOUS
 62
     3
100
AcDbLine
 10
772.169447
 20
961.678967
 30
0.0
 11
771.117055
 21
961.405046
 31
0.0
  0
LINE
  5
6AE
330
1F
100
AcDbEntity
  8
0
  6
CONTINUOUS
 62
     3
100
AcDbLine
 10
771.117055
 20
961.405046
 30
0.0
 11
770.116415
 21
961.086308
 31
0.0
  0
LINE
  5
6AF
330
1F
100
AcDbEntity
  8
0
  6
CONTINUOUS
 62
     3
100
AcDbLine
 10
770.116415
 20
961.086308
 30
0.0
 11
769.175143
 21
960.725176
 31
0.0
  0
LINE
  5
6B0
330
1F
100
AcDbEntity
  8
0
  6
CONTINUOUS
 62
     3
100
AcDbLine
 10
769.175143
 20
960.725176
 30
0.0
 11
768.300403
 21
960.3244
 31
0.0
  0
LINE
  5
6B1
330
1F
100
AcDbEntity
  8
0
  6
CONTINUOUS
 62
     3
100
AcDbLine
 10
768.300403
 20
960.3244
 30
0.0
 11
767.49885
 21
959.887029
 31
0.0
  0
LINE
  5
6B2
330
1F
100
AcDbEntity
  8
0
  6
CONTINUOUS
 62
     3
100
AcDbLine
 10
767.49885
 20
959.887029
 30
0.0
 11
766.776587
 21
959.416393
 31
0.0
  0
LINE
  5
6B3
330
1F
100
AcDbEntity
  8
0
  6
CONTINUOUS
 62
     3
100
AcDbLine
 10
766.776587
 20
959.416393
 30
0.0
 11
766.139109
 21
958.916074
 31
0.0
  0
LINE
  5
6B4
330
1F
100
AcDbEntity
  8
0
  6
CONTINUOUS
 62
     3
100
AcDbLine
 10
766.139109
 20
958.916074
 30
0.0
 11
765.591269
 21
958.389878
 31
0.0
  0
LINE
  5
6B5
330
1F
100
AcDbEntity
  8
0
  6
CONTINUOUS
 62
     3
100
AcDbLine
 10
765.591269
 20
958.389878
 30
0.0
 11
765.137235
 21
957.841811
 31
0.0
  0
LINE
  5
6B6
330
1F
100
AcDbEntity
  8
0
  6
CONTINUOUS
 62
     3
100
AcDbLine
 10
765.137235
 20
957.841811
 30
0.0
 11
764.780464
 21
957.276043
 31
0.0
  0
LINE
  5
6B7
330
1F
100
AcDbEntity
  8
0
  6
CONTINUOUS
 62
     3
100
AcDbLine
 10
764.780464
 20
957.276043
 30
0.0
 11
764.523669
 21
956.696881
 31
0.0
  0
LINE
  5
6B8
330
1F
100
AcDbEntity
  8
0
  6
CONTINUOUS
 62
     3
100
AcDbLine
 10
764.523669
 20
956.696881
 30
0.0
 11
764.368807
 21
956.108733
 31
0.0
  0
LINE
  5
6B9
330
1F
100
AcDbEntity
  8
0
  6
CONTINUOUS
 62
     3
100
AcDbLine
 10
764.368807
 20
956.108733
 30
0.0
 11
764.317055
 21
955.516074
 31
0.0
  0
LINE
  5
6BA
330
1F
100
AcDbEntity
  8
0
  6
CONTINUOUS
 62
     3
100
AcDbLine
 10
799.267055
 20
873.651599
 30
0.0
 11
799.185812
 21
874.581987
 31
0.0
  0
LINE
  5
6BB
330
1F
100
AcDbEntity
  8
0
  6
CONTINUOUS
 62
     3
100
AcDbLine
 10
799.185812
 20
874.581987
 30
0.0
 11
798.9427
 21
875.505294
 31
0.0
  0
LINE
  5
6BC
330
1F
100
AcDbEntity
  8
0
  6
CONTINUOUS
 62
     3
100
AcDbLine
 10
798.9427
 20
875.505294
 30
0.0
 11
798.539571
 21
876.414493
 31
0.0
  0
LINE
  5
6BD
330
1F
100
AcDbEntity
  8
0
  6
CONTINUOUS
 62
     3
100
AcDbLine
 10
798.539571
 20
876.414493
 30
0.0
 11
797.979492
 21
877.302664
 31
0.0
  0
LINE
  5
6BE
330
1F
100
AcDbEntity
  8
0
  6
CONTINUOUS
 62
     3
100
AcDbLine
 10
797.979492
 20
877.302664
 30
0.0
 11
797.266726
 21
878.163049
 31
0.0
  0
LINE
  5
6BF
330
1F
100
AcDbEntity
  8
0
  6
CONTINUOUS
 62
     3
100
AcDbLine
 10
797.266726
 20
878.163049
 30
0.0
 11
796.406697
 21
878.989099
 31
0.0
  0
LINE
  5
6C0
330
1F
100
AcDbEntity
  8
0
  6
CONTINUOUS
 62
     3
100
AcDbLine
 10
796.406697
 20
878.989099
 30
0.0
 11
795.405951
 21
879.774528
 31
0.0
  0
LINE
  5
6C1
330
1F
100
AcDbEntity
  8
0
  6
CONTINUOUS
 62
     3
100
AcDbLine
 10
795.405951
 20
879.774528
 30
0.0
 11
794.272104
 21
880.513357
 31
0.0
  0
LINE
  5
6C2
330
1F
100
AcDbEntity
  8
0
  6
CONTINUOUS
 62
     3
100
AcDbLine
 10
794.272104
 20
880.513357
 30
0.0
 11
793.013785
 21
881.199964
 31
0.0
  0
LINE
  5
6C3
330
1F
100
AcDbEntity
  8
0
  6
CONTINUOUS
 62
     3
100
AcDbLine
 10
793.013785
 20
881.199964
 30
0.0
 11
791.64057
 21
881.829124
 31
0.0
  0
LINE
  5
6C4
330
1F
100
AcDbEntity
  8
0
  6
CONTINUOUS
 62
     3
100
AcDbLine
 10
791.64057
 20
881.829124
 30
0.0
 11
790.162912
 21
882.396047
 31
0.0
  0
LINE
  5
6C5
330
1F
100
AcDbEntity
  8
0
  6
CONTINUOUS
 62
     3
100
AcDbLine
 10
790.162912
 20
882.396047
 30
0.0
 11
788.592055
 21
882.89642
 31
0.0
  0
LINE
  5
6C6
330
1F
100
AcDbEntity
  8
0
  6
CONTINUOUS
 62
     3
100
AcDbLine
 10
788.592055
 20
882.89642
 30
0.0
 11
786.939955
 21
883.326435
 31
0.0
  0
LINE
  5
6C7
330
1F
100
AcDbEntity
  8
0
  6
CONTINUOUS
 62
     3
100
AcDbLine
 10
786.939955
 20
883.326435
 30
0.0
 11
785.219185
 21
883.682818
 31
0.0
  0
LINE
  5
6C8
330
1F
100
AcDbEntity
  8
0
  6
CONTINUOUS
 62
     3
100
AcDbLine
 10
785.219185
 20
883.682818
 30
0.0
 11
783.442842
 21
883.962857
 31
0.0
  0
LINE
  5
6C9
330
1F
100
AcDbEntity
  8
0
  6
CONTINUOUS
 62
     3
100
AcDbLine
 10
783.442842
 20
883.962857
 30
0.0
 11
781.624444
 21
884.164422
 31
0.0
  0
LINE
  5
6CA
330
1F
100
AcDbEntity
  8
0
  6
CONTINUOUS
 62
     3
100
AcDbLine
 10
781.624444
 20
884.164422
 30
0.0
 11
779.77783
 21
884.285978
 31
0.0
  0
LINE
  5
6CB
330
1F
100
AcDbEntity
  8
0
  6
CONTINUOUS
 62
     3
100
AcDbLine
 10
779.77783
 20
884.285978
 30
0.0
 11
777.917055
 21
884.326599
 31
0.0
  0
LINE
  5
6CC
330
1F
100
AcDbEntity
  8
0
  6
CONTINUOUS
 62
     3
100
AcDbLine
 10
777.917055
 20
884.326599
 30
0.0
 11
776.05628
 21
884.285978
 31
0.0
  0
LINE
  5
6CD
330
1F
100
AcDbEntity
  8
0
  6
CONTINUOUS
 62
     3
100
AcDbLine
 10
776.05628
 20
884.285978
 30
0.0
 11
774.209666
 21
884.164422
 31
0.0
  0
LINE
  5
6CE
330
1F
100
AcDbEntity
  8
0
  6
CONTINUOUS
 62
     3
100
AcDbLine
 10
774.209666
 20
884.164422
 30
0.0
 11
772.391268
 21
883.962857
 31
0.0
  0
LINE
  5
6CF
330
1F
100
AcDbEntity
  8
0
  6
CONTINUOUS
 62
     3
100
AcDbLine
 10
772.391268
 20
883.962857
 30
0.0
 11
770.614925
 21
883.682818
 31
0.0
  0
LINE
  5
6D0
330
1F
100
AcDbEntity
  8
0
  6
CONTINUOUS
 62
     3
100
AcDbLine
 10
770.614925
 20
883.682818
 30
0.0
 11
768.894155
 21
883.326435
 31
0.0
  0
LINE
  5
6D1
330
1F
100
AcDbEntity
  8
0
  6
CONTINUOUS
 62
     3
100
AcDbLine
 10
768.894155
 20
883.326435
 30
0.0
 11
767.242055
 21
882.89642
 31
0.0
  0
LINE
  5
6D2
330
1F
100
AcDbEntity
  8
0
  6
CONTINUOUS
 62
     3
100
AcDbLine
 10
767.242055
 20
882.89642
 30
0.0
 11
765.671198
 21
882.396047
 31
0.0
  0
LINE
  5
6D3
330
1F
100
AcDbEntity
  8
0
  6
CONTINUOUS
 62
     3
100
AcDbLine
 10
765.671198
 20
882.396047
 30
0.0
 11
764.193539
 21
881.829124
 31
0.0
  0
LINE
  5
6D4
330
1F
100
AcDbEntity
  8
0
  6
CONTINUOUS
 62
     3
100
AcDbLine
 10
764.193539
 20
881.829124
 30
0.0
 11
762.820325
 21
881.199964
 31
0.0
  0
LINE
  5
6D5
330
1F
100
AcDbEntity
  8
0
  6
CONTINUOUS
 62
     3
100
AcDbLine
 10
762.820325
 20
881.199964
 30
0.0
 11
761.562006
 21
880.513357
 31
0.0
  0
LINE
  5
6D6
330
1F
100
AcDbEntity
  8
0
  6
CONTINUOUS
 62
     3
100
AcDbLine
 10
761.562006
 20
880.513357
 30
0.0
 11
760.428159
 21
879.774528
 31
0.0
  0
LINE
  5
6D7
330
1F
100
AcDbEntity
  8
0
  6
CONTINUOUS
 62
     3
100
AcDbLine
 10
760.428159
 20
879.774528
 30
0.0
 11
759.427413
 21
878.989099
 31
0.0
  0
LINE
  5
6D8
330
1F
100
AcDbEntity
  8
0
  6
CONTINUOUS
 62
     3
100
AcDbLine
 10
759.427413
 20
878.989099
 30
0.0
 11
758.567384
 21
878.163049
 31
0.0
  0
LINE
  5
6D9
330
1F
100
AcDbEntity
  8
0
  6
CONTINUOUS
 62
     3
100
AcDbLine
 10
758.567384
 20
878.163049
 30
0.0
 11
757.854617
 21
877.302664
 31
0.0
  0
LINE
  5
6DA
330
1F
100
AcDbEntity
  8
0
  6
CONTINUOUS
 62
     3
100
AcDbLine
 10
757.854617
 20
877.302664
 30
0.0
 11
757.294539
 21
876.414493
 31
0.0
  0
LINE
  5
6DB
330
1F
100
AcDbEntity
  8
0
  6
CONTINUOUS
 62
     3
100
AcDbLine
 10
757.294539
 20
876.414493
 30
0.0
 11
756.891409
 21
875.505294
 31
0.0
  0
LINE
  5
6DC
330
1F
100
AcDbEntity
  8
0
  6
CONTINUOUS
 62
     3
100
AcDbLine
 10
756.891409
 20
875.505294
 30
0.0
 11
756.648298
 21
874.581987
 31
0.0
  0
LINE
  5
6DD
330
1F
100
AcDbEntity
  8
0
  6
CONTINUOUS
 62
     3
100
AcDbLine
 10
756.648298
 20
874.581987
 30
0.0
 11
756.567055
 21
873.651599
 31
0.0
  0
LINE
  5
6DE
330
1F
100
AcDbEntity
  8
0
  6
CONTINUOUS
 62
     3
100
AcDbLine
 10
799.267055
 20
873.651599
 30
0.0
 11
799.267055
 21
753.763943
 31
0.0
  0
LINE
  5
6DF
330
1F
100
AcDbEntity
  8
0
  6
CONTINUOUS
 62
     3
100
AcDbLine
 10
756.567055
 20
873.651599
 30
0.0
 11
756.567055
 21
753.763943
 31
0.0
  0
LINE
  5
6E0
330
1F
100
AcDbEntity
  8
0
  6
CONTINUOUS
 62
     3
100
AcDbLine
 10
791.517055
 20
955.516074
 30
0.0
 11
791.517055
 21
881.876512
 31
0.0
  0
LINE
  5
6E1
330
1F
100
AcDbEntity
  8
0
  6
CONTINUOUS
 62
     3
100
AcDbLine
 10
764.317055
 20
955.516074
 30
0.0
 11
764.317055
 21
881.876512
 31
0.0
  0
LINE
  5
6E2
330
1F
100
AcDbEntity
  8
0
  6
CONTINUOUS
 62
     3
100
AcDbLine
 10
791.517055
 20
951.718077
 30
0.0
 11
791.917055
 21
951.718077
 31
0.0
  0
LINE
  5
6E3
330
1F
100
AcDbEntity
  8
0
  6
CONTINUOUS
 62
     3
100
AcDbLine
 10
791.917055
 20
983.699233
 30
0.0
 11
791.917055
 21
951.718077
 31
0.0
  0
LINE
  5
6E4
330
1F
100
AcDbEntity
  8
0
  6
CONTINUOUS
 62
     3
100
AcDbLine
 10
745.417055
 20
753.763943
 30
0.0
 11
745.417055
 21
697.43371
 31
0.0
  0
LINE
  5
6E5
330
1F
100
AcDbEntity
  8
0
  6
CONTINUOUS
 62
     3
100
AcDbLine
 10
745.417055
 20
748.598827
 30
0.0
 11
735.417055
 21
738.598827
 31
0.0
  0
LINE
  5
6E6
330
1F
100
AcDbEntity
  8
0
  6
CONTINUOUS
 62
     3
100
AcDbLine
 10
735.417055
 20
712.598827
 30
0.0
 11
735.417055
 21
738.598827
 31
0.0
  0
LINE
  5
6E7
330
1F
100
AcDbEntity
  8
0
  6
CONTINUOUS
 62
     3
100
AcDbLine
 10
745.417055
 20
702.598827
 30
0.0
 11
735.417055
 21
712.598827
 31
0.0
  0
LINE
  5
6E8
330
1F
100
AcDbEntity
  8
0
  6
CONTINUOUS
 62
     3
100
AcDbLine
 10
746.417055
 20
697.43371
 30
0.0
 11
745.417055
 21
697.43371
 31
0.0
  0
LINE
  5
6E9
330
1F
100
AcDbEntity
  8
0
  6
CONTINUOUS
 62
     3
100
AcDbLine
 10
777.917055
 20
729.378781
 30
0.0
 11
745.417055
 21
729.378781
 31
0.0
  0
LINE
  5
6EA
330
1F
100
AcDbEntity
  8
0
  6
CONTINUOUS
 62
     3
100
AcDbLine
 10
733.917055
 20
683.753507
 30
0.0
 11
733.917055
 21
755.826168
 31
0.0
  0
LINE
  5
6EB
330
1F
100
AcDbEntity
  8
0
  6
CONTINUOUS
 62
     3
100
AcDbLine
 10
733.917055
 20
755.826168
 30
0.0
 11
721.917055
 21
755.826168
 31
0.0
  0
LINE
  5
6EC
330
1F
100
AcDbEntity
  8
0
  6
CONTINUOUS
 62
     8
100
AcDbLine
 10
733.917055
 20
683.753507
 30
0.0
 11
721.917055
 21
683.753507
 31
0.0
  0
LINE
  5
6ED
330
1F
100
AcDbEntity
  8
0
  6
CONTINUOUS
 62
     3
100
AcDbLine
 10
825.917055
 20
928.629606
 30
0.0
 11
833.917055
 21
928.629606
 31
0.0
  0
LINE
  5
6EE
330
1F
100
AcDbEntity
  8
0
  6
CONTINUOUS
 62
     3
100
AcDbLine
 10
825.917055
 20
893.629606
 30
0.0
 11
833.917055
 21
893.629606
 31
0.0
  0
LINE
  5
6EF
330
1F
100
AcDbEntity
  8
0
  6
CONTINUOUS
 62
     3
100
AcDbLine
 10
825.917055
 20
893.629606
 30
0.0
 11
825.917055
 21
928.629606
 31
0.0
  0
LINE
  5
6F0
330
1F
100
AcDbEntity
  8
0
  6
CONTINUOUS
 62
     3
100
AcDbLine
 10
729.917055
 20
928.629606
 30
0.0
 11
721.917055
 21
928.629606
 31
0.0
  0
LINE
  5
6F1
330
1F
100
AcDbEntity
  8
0
  6
CONTINUOUS
 62
     3
100
AcDbLine
 10
729.917055
 20
893.629606
 30
0.0
 11
721.917055
 21
893.629606
 31
0.0
  0
LINE
  5
6F2
330
1F
100
AcDbEntity
  8
0
  6
CONTINUOUS
 62
     3
100
AcDbLine
 10
729.917055
 20
893.629606
 30
0.0
 11
729.917055
 21
928.629606
 31
0.0
  0
LINE
  5
6F3
330
1F
100
AcDbEntity
  8
0
  6
CONTINUOUS
 62
     3
100
AcDbLine
 10
815.917055
 20
924.729606
 30
0.0
 11
798.917055
 21
924.729606
 31
0.0
  0
LINE
  5
6F4
330
1F
100
AcDbEntity
  8
0
  6
CONTINUOUS
 62
     3
100
AcDbLine
 10
824.917055
 20
890.380126
 30
0.0
 11
824.917055
 21
955.516074
 31
0.0
  0
LINE
  5
6F5
330
1F
100
AcDbEntity
  8
0
  6
CONTINUOUS
 62
     3
100
AcDbLine
 10
815.917055
 20
890.380126
 30
0.0
 11
815.917055
 21
955.516074
 31
0.0
  0
LINE
  5
6F6
330
1F
100
AcDbEntity
  8
0
  6
CONTINUOUS
 62
     3
100
AcDbLine
 10
798.917055
 20
898.129606
 30
0.0
 11
798.917055
 21
979.708655
 31
0.0
  0
LINE
  5
6F7
330
1F
100
AcDbEntity
  8
0
  6
CONTINUOUS
 62
     3
100
AcDbLine
 10
824.917055
 20
955.516074
 30
0.0
 11
815.917055
 21
955.516074
 31
0.0
  0
LINE
  5
6F8
330
1F
100
AcDbEntity
  8
0
  6
CONTINUOUS
 62
     3
100
AcDbLine
 10
798.917055
 20
979.708655
 30
0.0
 11
792.917055
 21
979.708655
 31
0.0
  0
LINE
  5
6F9
330
1F
100
AcDbEntity
  8
0
  6
CONTINUOUS
 62
     3
100
AcDbLine
 10
815.917055
 20
894.529606
 30
0.0
 11
791.517055
 21
894.529606
 31
0.0
  0
LINE
  5
6FA
330
1F
100
AcDbEntity
  8
0
  6
CONTINUOUS
 62
     3
100
AcDbLine
 10
824.917055
 20
890.380126
 30
0.0
 11
815.917055
 21
890.380126
 31
0.0
  0
LINE
  5
6FB
330
1F
100
AcDbEntity
  8
0
  6
CONTINUOUS
 62
     8
100
AcDbLine
 10
792.917055
 20
898.129606
 30
0.0
 11
798.917055
 21
898.129606
 31
0.0
  0
LINE
  5
6FC
330
1F
100
AcDbEntity
  8
0
  6
CONTINUOUS
 62
     8
100
AcDbLine
 10
792.917055
 20
941.529606
 30
0.0
 11
792.917055
 21
897.529606
 31
0.0
  0
LINE
  5
6FD
330
1F
100
AcDbEntity
  8
0
  6
CONTINUOUS
 62
     8
100
AcDbLine
 10
815.917055
 20
924.729606
 30
0.0
 11
815.917055
 21
949.729606
 31
0.0
  0
LINE
  5
6FE
330
1F
100
AcDbEntity
  8
0
  6
CONTINUOUS
 62
     8
100
AcDbLine
 10
798.917055
 20
949.729606
 30
0.0
 11
798.917055
 21
924.729606
 31
0.0
  0
LINE
  5
6FF
330
1F
100
AcDbEntity
  8
0
  6
CONTINUOUS
 62
     3
100
AcDbLine
 10
791.517055
 20
897.529606
 30
0.0
 11
815.917055
 21
897.529606
 31
0.0
  0
LINE
  5
700
330
1F
100
AcDbEntity
  8
0
  6
CONTINUOUS
 62
     8
100
AcDbLine
 10
815.917055
 20
897.529606
 30
0.0
 11
815.917055
 21
891.529606
 31
0.0
  0
LINE
  5
701
330
1F
100
AcDbEntity
  8
0
  6
CONTINUOUS
 62
     3
100
AcDbLine
 10
739.917055
 20
924.729606
 30
0.0
 11
756.917055
 21
924.729606
 31
0.0
  0
LINE
  5
702
330
1F
100
AcDbEntity
  8
0
  6
CONTINUOUS
 62
     3
100
AcDbLine
 10
730.917055
 20
890.380126
 30
0.0
 11
730.917055
 21
955.516074
 31
0.0
  0
LINE
  5
703
330
1F
100
AcDbEntity
  8
0
  6
CONTINUOUS
 62
     3
100
AcDbLine
 10
739.917055
 20
890.380126
 30
0.0
 11
739.917055
 21
955.516074
 31
0.0
  0
LINE
  5
704
330
1F
100
AcDbEntity
  8
0
  6
CONTINUOUS
 62
     3
100
AcDbLine
 10
756.917055
 20
898.129606
 30
0.0
 11
756.917055
 21
979.708655
 31
0.0
  0
LINE
  5
705
330
1F
100
AcDbEntity
  8
0
  6
CONTINUOUS
 62
     3
100
AcDbLine
 10
730.917055
 20
955.516074
 30
0.0
 11
739.917055
 21
955.516074
 31
0.0
  0
LINE
  5
706
330
1F
100
AcDbEntity
  8
0
  6
CONTINUOUS
 62
     3
100
AcDbLine
 10
756.917055
 20
979.708655
 30
0.0
 11
762.917055
 21
979.708655
 31
0.0
  0
LINE
  5
707
330
1F
100
AcDbEntity
  8
0
  6
CONTINUOUS
 62
     3
100
AcDbLine
 10
739.917055
 20
894.529606
 30
0.0
 11
764.317055
 21
894.529606
 31
0.0
  0
LINE
  5
708
330
1F
100
AcDbEntity
  8
0
  6
CONTINUOUS
 62
     3
100
AcDbLine
 10
730.917055
 20
890.380126
 30
0.0
 11
739.917055
 21
890.380126
 31
0.0
  0
LINE
  5
709
330
1F
100
AcDbEntity
  8
0
  6
CONTINUOUS
 62
     3
100
AcDbLine
 10
762.917055
 20
898.129606
 30
0.0
 11
756.917055
 21
898.129606
 31
0.0
  0
LINE
  5
70A
330
1F
100
AcDbEntity
  8
0
  6
CONTINUOUS
 62
     3
100
AcDbLine
 10
762.917055
 20
941.529606
 30
0.0
 11
762.917055
 21
897.529606
 31
0.0
  0
LINE
  5
70B
330
1F
100
AcDbEntity
  8
0
  6
CONTINUOUS
 62
     8
100
AcDbLine
 10
739.917055
 20
897.529606
 30
0.0
 11
739.917055
 21
891.529606
 31
0.0
  0
LINE
  5
70C
330
1F
100
AcDbEntity
  8
0
  6
CONTINUOUS
 62
     3
100
AcDbLine
 10
739.917055
 20
897.529606
 30
0.0
 11
764.317055
 21
897.529606
 31
0.0
  0
LINE
  5
70D
330
1F
100
AcDbEntity
  8
0
  6
CONTINUOUS
 62
     3
100
AcDbLine
 10
815.917055
 20
937.229606
 30
0.0
 11
798.917055
 21
937.229606
 31
0.0
  0
LINE
  5
70E
330
1F
100
AcDbEntity
  8
0
  6
CONTINUOUS
 62
     8
100
AcDbLine
 10
815.917055
 20
924.729606
 30
0.0
 11
798.917055
 21
924.729606
 31
0.0
  0
LINE
  5
70F
330
1F
100
AcDbEntity
  8
0
  6
CONTINUOUS
 62
     8
100
AcDbLine
 10
739.917055
 20
924.729606
 30
0.0
 11
739.917055
 21
949.729606
 31
0.0
  0
LINE
  5
710
330
1F
100
AcDbEntity
  8
0
  6
CONTINUOUS
 62
     8
100
AcDbLine
 10
739.917055
 20
924.729606
 30
0.0
 11
756.917055
 21
924.729606
 31
0.0
  0
LINE
  5
711
330
1F
100
AcDbEntity
  8
0
  6
CONTINUOUS
 62
     8
100
AcDbLine
 10
756.917055
 20
949.729606
 30
0.0
 11
756.917055
 21
924.729606
 31
0.0
  0
LINE
  5
712
330
1F
100
AcDbEntity
  8
0
  6
CONTINUOUS
 62
     3
100
AcDbLine
 10
739.917055
 20
937.229606
 30
0.0
 11
756.917055
 21
937.229606
 31
0.0
  0
LINE
  5
713
330
1F
100
AcDbEntity
  8
0
  6
CONTINUOUS
 62
     3
100
AcDbLine
 10
792.917055
 20
898.129606
 30
0.0
 11
792.917055
 21
979.708655
 31
0.0
  0
LINE
  5
714
330
1F
100
AcDbEntity
  8
0
  6
CONTINUOUS
 62
     3
100
AcDbLine
 10
762.917055
 20
979.708655
 30
0.0
 11
762.917055
 21
898.129606
 31
0.0
  0
LINE
  5
715
330
1F
100
AcDbEntity
  8
0
  6
CONTINUOUS
 62
     3
100
AcDbLine
 10
815.917055
 20
928.729606
 30
0.0
 11
798.917055
 21
928.729606
 31
0.0
  0
LINE
  5
716
330
1F
100
AcDbEntity
  8
0
  6
CONTINUOUS
 62
     3
100
AcDbLine
 10
739.917055
 20
928.729606
 30
0.0
 11
756.917055
 21
928.729606
 31
0.0
  0
LINE
  5
717
330
1F
100
AcDbEntity
  8
0
  6
CENTER
 62
     6
100
AcDbLine
 10
811.526044
 20
923.650177
 30
0.0
 11
829.797974
 21
923.650177
 31
0.0
  0
LINE
  5
718
330
1F
100
AcDbEntity
  8
0
  6
CENTER
 62
     6
100
AcDbLine
 10
744.308066
 20
923.650177
 30
0.0
 11
726.036136
 21
923.650177
 31
0.0
  0
LINE
  5
719
330
1F
100
AcDbEntity
  8
0
  6
CONTINUOUS
 62
     3
100
AcDbLine
 10
791.917055
 20
983.699233
 30
0.0
 11
763.917055
 21
983.699233
 31
0.0
  0
LINE
  5
71A
330
1F
100
AcDbEntity
  8
0
  6
CONTINUOUS
 62
     3
100
AcDbLine
 10
791.917055
 20
962.816074
 30
0.0
 11
763.917055
 21
962.816074
 31
0.0
  0
LINE
  5
71B
330
1F
100
AcDbEntity
  8
0
  6
CONTINUOUS
 62
     3
100
AcDbLine
 10
763.917055
 20
983.699233
 30
0.0
 11
763.917055
 21
951.718077
 31
0.0
  0
LINE
  5
71C
330
1F
100
AcDbEntity
  8
0
  6
CONTINUOUS
 62
     8
100
AcDbLine
 10
764.317055
 20
951.718077
 30
0.0
 11
763.917055
 21
951.718077
 31
0.0
  0
LINE
  5
71D
330
1F
100
AcDbEntity
  8
0
  6
CENTER
 62
     6
100
AcDbLine
 10
811.167055
 20
967.708655
 30
0.0
 11
744.667055
 21
967.708655
 31
0.0
  0
LINE
  5
71E
330
1F
100
AcDbEntity
  8
0
  6
CENTER
 62
     6
100
AcDbLine
 10
707.752693
 20
911.129606
 30
0.0
 11
842.924268
 21
911.129606
 31
0.0
  0
LINE
  5
71F
330
1F
100
AcDbEntity
  8
0
  6
CONTINUOUS
 62
     3
100
AcDbLine
 10
798.917055
 20
976.208655
 30
0.0
 11
801.917055
 21
976.208655
 31
0.0
  0
LINE
  5
720
330
1F
100
AcDbEntity
  8
0
  6
CONTINUOUS
 62
     3
100
AcDbLine
 10
801.917055
 20
976.208655
 30
0.0
 11
801.917055
 21
944.208655
 31
0.0
  0
LINE
  5
721
330
1F
100
AcDbEntity
  8
0
  6
CONTINUOUS
 62
     3
100
AcDbLine
 10
801.917055
 20
944.208655
 30
0.0
 11
798.917055
 21
944.208655
 31
0.0
  0
LINE
  5
722
330
1F
100
AcDbEntity
  8
0
  6
CONTINUOUS
 62
     3
100
AcDbLine
 10
801.917055
 20
946.708655
 30
0.0
 11
802.917055
 21
946.708655
 31
0.0
  0
LINE
  5
723
330
1F
100
AcDbEntity
  8
0
  6
CONTINUOUS
 62
     3
100
AcDbLine
 10
802.917055
 20
947.208655
 30
0.0
 11
806.917055
 21
947.208655
 31
0.0
  0
LINE
  5
724
330
1F
100
AcDbEntity
  8
0
  6
CONTINUOUS
 62
     3
100
AcDbLine
 10
806.917055
 20
947.208655
 30
0.0
 11
806.917055
 21
958.208655
 31
0.0
  0
LINE
  5
725
330
1F
100
AcDbEntity
  8
0
  6
CONTINUOUS
 62
     3
100
AcDbLine
 10
806.917055
 20
958.208655
 30
0.0
 11
802.917055
 21
958.208655
 31
0.0
  0
LINE
  5
726
330
1F
100
AcDbEntity
  8
0
  6
CONTINUOUS
 62
     3
100
AcDbLine
 10
802.917055
 20
958.708655
 30
0.0
 11
801.917055
 21
958.708655
 31
0.0
  0
LINE
  5
727
330
1F
100
AcDbEntity
  8
0
  6
CONTINUOUS
 62
     3
100
AcDbLine
 10
802.917055
 20
958.708655
 30
0.0
 11
802.917055
 21
946.708655
 31
0.0
  0
LINE
  5
728
330
1F
100
AcDbEntity
  8
0
  6
CONTINUOUS
 62
     3
100
AcDbLine
 10
806.917055
 20
955.408655
 30
0.0
 11
802.917055
 21
955.408655
 31
0.0
  0
LINE
  5
729
330
1F
100
AcDbEntity
  8
0
  6
CONTINUOUS
 62
     3
100
AcDbLine
 10
802.917055
 20
950.008655
 30
0.0
 11
806.917055
 21
950.008655
 31
0.0
  0
LINE
  5
72A
330
1F
100
AcDbEntity
  8
0
  6
CONTINUOUS
 62
     3
100
AcDbLine
 10
756.917055
 20
973.708655
 30
0.0
 11
755.917055
 21
973.708655
 31
0.0
  0
LINE
  5
72B
330
1F
100
AcDbEntity
  8
0
  6
CONTINUOUS
 62
     3
100
AcDbLine
 10
755.917055
 20
973.708655
 30
0.0
 11
754.917055
 21
972.708655
 31
0.0
  0
LINE
  5
72C
330
1F
100
AcDbEntity
  8
0
  6
CONTINUOUS
 62
     3
100
AcDbLine
 10
754.917055
 20
972.708655
 30
0.0
 11
754.917055
 21
962.708655
 31
0.0
  0
LINE
  5
72D
330
1F
100
AcDbEntity
  8
0
  6
CONTINUOUS
 62
     3
100
AcDbLine
 10
754.917055
 20
962.708655
 30
0.0
 11
755.917055
 21
961.708655
 31
0.0
  0
LINE
  5
72E
330
1F
100
AcDbEntity
  8
0
  6
CONTINUOUS
 62
     3
100
AcDbLine
 10
755.917055
 20
961.708655
 30
0.0
 11
756.917055
 21
961.708655
 31
0.0
  0
LINE
  5
72F
330
1F
100
AcDbEntity
  8
0
  6
PHANTOM
 62
     6
100
AcDbLine
 10
829.667055
 20
804.386181
 30
0.0
 11
829.667055
 21
962.561352
 31
0.0
  0
LINE
  5
730
330
1F
100
AcDbEntity
  8
0
  6
PHANTOM
 62
     6
100
AcDbLine
 10
811.167055
 20
804.386181
 30
0.0
 11
811.167055
 21
962.561352
 31
0.0
  0
LINE
  5
731
330
1F
100
AcDbEntity
  8
0
  6
PHANTOM
 62
     6
100
AcDbLine
 10
726.167055
 20
804.386181
 30
0.0
 11
726.167055
 21
962.561352
 31
0.0
  0
LINE
  5
732
330
1F
100
AcDbEntity
  8
0
  6
PHANTOM
 62
     6
100
AcDbLine
 10
744.667055
 20
804.386181
 30
0.0
 11
744.667055
 21
962.561352
 31
0.0
  0
LINE
  5
733
330
1F
100
AcDbEntity
  8
0
  6
CONTINUOUS
 62
     3
100
AcDbLine
 10
1298.698032
 20
506.196315
 30
0.0
 11
1298.698032
 21
536.196315
 31
0.0
  0
LINE
  5
734
330
1F
100
AcDbEntity
  8
0
  6
CONTINUOUS
 62
     3
100
AcDbLine
 10
1298.698032
 20
506.196315
 30
0.0
 11
1998.698032
 21
506.196315
 31
0.0
  0
LINE
  5
735
330
1F
100
AcDbEntity
  8
0
  6
CENTER
 62
     6
100
AcDbLine
 10
1309.604282
 20
523.196315
 30
0.0
 11
1327.449367
 21
523.196315
 31
0.0
  0
LINE
  5
736
330
1F
100
AcDbEntity
  8
0
  6
CENTER
 62
     6
100
AcDbLine
 10
1318.698032
 20
532.003924
 30
0.0
 11
1318.698032
 21
514.949443
 31
0.0
  0
LINE
  5
737
330
1F
100
AcDbEntity
  8
0
  6
CONTINUOUS
 62
     3
100
AcDbLine
 10
1336.698032
 20
536.196315
 30
0.0
 11
1336.698032
 21
506.196315
 31
0.0
  0
LINE
  5
738
330
1F
100
AcDbEntity
  8
0
  6
CONTINUOUS
 62
     3
100
AcDbLine
 10
1298.698032
 20
536.196315
 30
0.0
 11
1998.698032
 21
536.196315
 31
0.0
  0
LINE
  5
739
330
1F
100
AcDbEntity
  8
0
  6
CONTINUOUS
 62
     3
100
AcDbLine
 10
1342.698032
 20
536.196315
 30
0.0
 11
1342.698032
 21
506.196315
 31
0.0
  0
LINE
  5
73A
330
1F
100
AcDbEntity
  8
0
  6
CONTINUOUS
 62
     3
100
AcDbLine
 10
1998.698032
 20
506.196315
 30
0.0
 11
1998.698032
 21
552.196315
 31
0.0
  0
LINE
  5
73B
330
1F
100
AcDbEntity
  8
0
  6
CENTER
 62
     6
100
AcDbLine
 10
1317.698032
 20
514.949443
 30
0.0
 11
1317.698032
 21
500.266777
 31
0.0
  0
LINE
  5
73C
330
1F
100
AcDbEntity
  8
0
  6
CONTINUOUS
 62
     3
100
AcDbLine
 10
1298.698032
 20
510.696315
 30
0.0
 11
1336.698032
 21
510.696315
 31
0.0
  0
LINE
  5
73D
330
1F
100
AcDbEntity
  8
0
  6
PHANTOM
 62
     6
100
AcDbLine
 10
1298.473189
 20
583.396315
 30
0.0
 11
1298.473189
 21
556.196315
 31
0.0
  0
LINE
  5
73E
330
1F
100
AcDbEntity
  8
0
  6
PHANTOM
 62
     6
100
AcDbLine
 10
1298.473189
 20
556.196315
 30
0.0
 11
1998.473189
 21
556.196315
 31
0.0
  0
ARC
  5
73F
330
1F
100
AcDbEntity
  8
0
  6
CONTINUOUS
 62
     6
100
AcDbCircle
 10
1301.273189
 20
583.396315
 30
0.0
 40
2.8
100
AcDbArc
 50
90.0
 51
180.0
  0
LINE
  5
740
330
1F
100
AcDbEntity
  8
0
  6
PHANTOM
 62
     6
100
AcDbLine
 10
1301.273189
 20
586.196315
 30
0.0
 11
1995.673189
 21
586.196315
 31
0.0
  0
LINE
  5
741
330
1F
100
AcDbEntity
  8
0
  6
PHANTOM
 62
     6
100
AcDbLine
 10
1300.773189
 20
556.196315
 30
0.0
 11
1300.773189
 21
551.896315
 31
0.0
  0
LINE
  5
742
330
1F
100
AcDbEntity
  8
0
  6
PHANTOM
 62
     6
100
AcDbLine
 10
1300.773189
 20
551.896315
 30
0.0
 11
1310.773189
 21
541.896315
 31
0.0
  0
LINE
  5
743
330
1F
100
AcDbEntity
  8
0
  6
PHANTOM
 62
     6
100
AcDbLine
 10
1310.773189
 20
541.896315
 30
0.0
 11
1327.773189
 21
541.896315
 31
0.0
  0
LINE
  5
744
330
1F
100
AcDbEntity
  8
0
  6
PHANTOM
 62
     6
100
AcDbLine
 10
1332.773189
 20
546.896315
 30
0.0
 11
1327.773189
 21
541.896315
 31
0.0
  0
LINE
  5
745
330
1F
100
AcDbEntity
  8
0
  6
CENTER
 62
     6
100
AcDbLine
 10
1305.640828
 20
553.896315
 30
0.0
 11
1331.640828
 21
553.896315
 31
0.0
  0
ARC
  5
746
330
1F
100
AcDbEntity
  8
0
  6
CONTINUOUS
 62
     6
100
AcDbCircle
 10
1995.673189
 20
583.396315
 30
0.0
 40
2.8
100
AcDbArc
 50
0.0
 51
90.0
  0
LINE
  5
747
330
1F
100
AcDbEntity
  8
0
  6
PHANTOM
 62
     6
100
AcDbLine
 10
1998.473189
 20
583.396315
 30
0.0
 11
1998.473189
 21
556.196315
 31
0.0
  0
LINE
  5
748
330
1F
100
AcDbEntity
  8
0
  6
CENTER
 62
     6
100
AcDbLine
 10
1965.012831
 20
523.196315
 30
0.0
 11
1986.651199
 21
523.196315
 31
0.0
  0
LINE
  5
749
330
1F
100
AcDbEntity
  8
0
  6
CENTER
 62
     6
100
AcDbLine
 10
1965.012831
 20
553.896315
 30
0.0
 11
1986.651199
 21
553.896315
 31
0.0
  0
LINE
  5
74A
330
1F
100
AcDbEntity
  8
0
  6
CENTER
 62
     6
100
AcDbLine
 10
1974.695829
 20
533.04392
 30
0.0
 11
1974.695829
 21
513.542675
 31
0.0
  0
LINE
  5
74B
330
1F
100
AcDbEntity
  8
0
  6
CENTER
 62
     6
100
AcDbLine
 10
1974.620672
 20
564.0322
 30
0.0
 11
1974.620672
 21
545.065235
 31
0.0
  0
LINE
  5
74C
330
1F
100
AcDbEntity
  8
0
  6
CENTER
 62
     6
100
AcDbLine
 10
1318.773189
 20
564.040548
 30
0.0
 11
1318.773189
 21
541.896315
 31
0.0
  0
LINE
  5
74D
330
1F
100
AcDbEntity
  8
0
  6
CONTINUOUS
 62
     3
100
AcDbLine
 10
1321.527586
 20
1093.396315
 30
0.0
 11
1321.527586
 21
1066.196315
 31
0.0
  0
LINE
  5
74E
330
1F
100
AcDbEntity
  8
0
  6
CONTINUOUS
 62
     3
100
AcDbLine
 10
1321.527586
 20
1066.196315
 30
0.0
 11
2021.527586
 21
1066.196315
 31
0.0
  0
ARC
  5
74F
330
1F
100
AcDbEntity
  8
0
  6
CONTINUOUS
 62
     3
100
AcDbCircle
 10
1324.327586
 20
1093.396315
 30
0.0
 40
2.8
100
AcDbArc
 50
90.0
 51
180.0
  0
LINE
  5
750
330
1F
100
AcDbEntity
  8
0
  6
CONTINUOUS
 62
     3
100
AcDbLine
 10
1324.327586
 20
1096.196315
 30
0.0
 11
2018.727586
 21
1096.196315
 31
0.0
  0
LINE
  5
751
330
1F
100
AcDbEntity
  8
0
  6
CONTINUOUS
 62
     3
100
AcDbLine
 10
1323.827586
 20
1066.196315
 30
0.0
 11
1323.827586
 21
1061.896315
 31
0.0
  0
LINE
  5
752
330
1F
100
AcDbEntity
  8
0
  6
CONTINUOUS
 62
     3
100
AcDbLine
 10
1323.827586
 20
1061.896315
 30
0.0
 11
1333.827586
 21
1051.896315
 31
0.0
  0
LINE
  5
753
330
1F
100
AcDbEntity
  8
0
  6
CONTINUOUS
 62
     3
100
AcDbLine
 10
1333.827586
 20
1051.896315
 30
0.0
 11
1334.962095
 21
1051.896315
 31
0.0
  0
LINE
  5
754
330
1F
100
AcDbEntity
  8
0
  6
CENTER
 62
     6
100
AcDbLine
 10
1328.695226
 20
1063.896315
 30
0.0
 11
1354.695226
 21
1063.896315
 31
0.0
  0
LINE
  5
755
330
1F
100
AcDbEntity
  8
0
  6
CONTINUOUS
 62
     3
100
AcDbLine
 10
1355.827586
 20
1065.278897
 30
0.0
 11
1355.827586
 21
1066.196315
 31
0.0
  0
ARC
  5
756
330
1F
100
AcDbEntity
  8
0
  6
CONTINUOUS
 62
     3
100
AcDbCircle
 10
2018.727586
 20
1093.396315
 30
0.0
 40
2.8
100
AcDbArc
 50
0.0
 51
90.0
  0
LINE
  5
757
330
1F
100
AcDbEntity
  8
0
  6
CONTINUOUS
 62
     3
100
AcDbLine
 10
2021.527586
 20
1093.396315
 30
0.0
 11
2021.527586
 21
1066.196315
 31
0.0
  0
LINE
  5
758
330
1F
100
AcDbEntity
  8
0
  6
CENTER
 62
     6
100
AcDbLine
 10
1341.827586
 20
1074.040548
 30
0.0
 11
1341.827586
 21
1051.896315
 31
0.0
  0
LINE
  5
759
330
1F
100
AcDbEntity
  8
0
  6
CONTINUOUS
 62
     3
100
AcDbLine
 10
1367.645142
 20
1059.600525
 30
0.0
 11
1380.916099
 21
1042.053967
 31
0.0
  0
LINE
  5
75A
330
1F
100
AcDbEntity
  8
0
  6
CONTINUOUS
 62
     3
100
AcDbLine
 10
1362.859717
 20
1055.981173
 30
0.0
 11
1367.645142
 21
1059.600525
 31
0.0
  0
LINE
  5
75B
330
1F
100
AcDbEntity
  8
0
  6
CONTINUOUS
 62
     3
100
AcDbLine
 10
1376.130674
 20
1038.434615
 30
0.0
 11
1380.916099
 21
1042.053967
 31
0.0
  0
LINE
  5
75C
330
1F
100
AcDbEntity
  8
0
  6
CONTINUOUS
 62
     3
100
AcDbLine
 10
1718.340252
 20
551.242121
 30
0.0
 11
1411.720967
 21
991.377936
 31
0.0
  0
LINE
  5
75D
330
1F
100
AcDbEntity
  8
0
  6
CONTINUOUS
 62
     3
100
AcDbLine
 10
1355.133717
 20
1066.196315
 30
0.0
 11
1411.720967
 21
991.377936
 31
0.0
  0
LINE
  5
75E
330
1F
100
AcDbEntity
  8
0
  6
CONTINUOUS
 62
     3
100
AcDbLine
 10
1458.727057
 20
841.366512
 30
0.0
 11
1331.482742
 21
1057.814852
 31
0.0
  0
LINE
  5
75F
330
1F
100
AcDbEntity
  8
0
  6
CONTINUOUS
 62
     3
100
AcDbLine
 10
1689.535879
 20
536.196315
 30
0.0
 11
1458.727057
 21
841.366512
 31
0.0
  0
LINE
  5
760
330
1F
100
AcDbEntity
  8
0
  6
CONTINUOUS
 62
     3
100
AcDbLine
 10
1566.343147
 20
769.42595
 30
0.0
 11
1559.414727
 21
798.174714
 31
0.0
  0
ARC
  5
761
330
1F
100
AcDbEntity
  8
0
  6
CONTINUOUS
 62
     3
100
AcDbCircle
 10
1527.333232
 20
790.443111
 30
0.0
 40
33.0
100
AcDbArc
 50
13.549835
 51
74.579469
  0
LINE
  5
762
330
1F
100
AcDbEntity
  8
0
  6
CONTINUOUS
 62
     8
100
AcDbLine
 10
1722.969304
 20
536.196315
 30
0.0
 11
1718.340252
 21
551.242121
 31
0.0
  0
LINE
  5
763
330
1F
100
AcDbEntity
  8
0
  6
CONTINUOUS
 62
     3
100
AcDbLine
 10
1328.198032
 20
528.681143
 30
0.0
 11
1318.698032
 21
534.165971
 31
0.0
  0
LINE
  5
764
330
1F
100
AcDbEntity
  8
0
  6
CONTINUOUS
 62
     3
100
AcDbLine
 10
1318.698032
 20
534.165971
 30
0.0
 11
1309.198032
 21
528.681143
 31
0.0
  0
LINE
  5
765
330
1F
100
AcDbEntity
  8
0
  6
CONTINUOUS
 62
     3
100
AcDbLine
 10
1309.198032
 20
528.681143
 30
0.0
 11
1309.198032
 21
517.711488
 31
0.0
  0
LINE
  5
766
330
1F
100
AcDbEntity
  8
0
  6
CONTINUOUS
 62
     3
100
AcDbLine
 10
1309.198032
 20
517.711488
 30
0.0
 11
1318.698032
 21
512.22666
 31
0.0
  0
LINE
  5
767
330
1F
100
AcDbEntity
  8
0
  6
CONTINUOUS
 62
     3
100
AcDbLine
 10
1318.698032
 20
512.22666
 30
0.0
 11
1328.198032
 21
517.711488
 31
0.0
  0
LINE
  5
768
330
1F
100
AcDbEntity
  8
0
  6
CONTINUOUS
 62
     3
100
AcDbLine
 10
1328.198032
 20
517.711488
 30
0.0
 11
1328.198032
 21
528.681143
 31
0.0
  0
CIRCLE
  5
769
330
1F
100
AcDbEntity
  8
0
  6
CONTINUOUS
 62
     3
100
AcDbCircle
 10
1318.698032
 20
523.196315
 30
0.0
 40
11.0
  0
LINE
  5
76A
330
1F
100
AcDbEntity
  8
0
  6
CONTINUOUS
 62
     3
100
AcDbLine
 10
1526.055932
 20
790.284376
 30
0.0
 11
1516.555932
 21
795.769204
 31
0.0
  0
LINE
  5
76B
330
1F
100
AcDbEntity
  8
0
  6
CONTINUOUS
 62
     3
100
AcDbLine
 10
1516.555932
 20
795.769204
 30
0.0
 11
1507.055932
 21
790.284376
 31
0.0
  0
LINE
  5
76C
330
1F
100
AcDbEntity
  8
0
  6
CONTINUOUS
 62
     3
100
AcDbLine
 10
1507.055932
 20
790.284376
 30
0.0
 11
1507.055932
 21
779.314721
 31
0.0
  0
LINE
  5
76D
330
1F
100
AcDbEntity
  8
0
  6
CONTINUOUS
 62
     3
100
AcDbLine
 10
1507.055932
 20
779.314721
 30
0.0
 11
1516.555932
 21
773.829893
 31
0.0
  0
LINE
  5
76E
330
1F
100
AcDbEntity
  8
0
  6
CONTINUOUS
 62
     3
100
AcDbLine
 10
1516.555932
 20
773.829893
 30
0.0
 11
1526.055932
 21
779.314721
 31
0.0
  0
LINE
  5
76F
330
1F
100
AcDbEntity
  8
0
  6
CONTINUOUS
 62
     3
100
AcDbLine
 10
1526.055932
 20
779.314721
 30
0.0
 11
1526.055932
 21
790.284376
 31
0.0
  0
CIRCLE
  5
770
330
1F
100
AcDbEntity
  8
0
  6
CONTINUOUS
 62
     3
100
AcDbCircle
 10
1516.555932
 20
784.799549
 30
0.0
 40
11.0
  0
ARC
  5
771
330
1F
100
AcDbEntity
  8
0
  6
CONTINUOUS
 62
     3
100
AcDbCircle
 10
1341.827586
 20
1063.896315
 30
0.0
 40
12.0
100
AcDbArc
 50
168.949935
 51
208.908027
  0
ARC
  5
772
330
1F
100
AcDbEntity
  8
0
  6
CONTINUOUS
 62
     3
100
AcDbCircle
 10
1341.827586
 20
1063.896315
 30
0.0
 40
6.000000000000001
100
AcDbArc
 50
157.45969
 51
22.54031
  0
ARC
  5
773
330
1F
100
AcDbEntity
  8
0
  6
CONTINUOUS
 62
     3
100
AcDbCircle
 10
1341.827586
 20
1063.896315
 30
0.0
 40
5.300000000000001
100
AcDbArc
 50
154.28072
 51
25.71928
  0
CIRCLE
  5
774
330
1F
100
AcDbEntity
  8
0
  6
CONTINUOUS
 62
     3
100
AcDbCircle
 10
1516.555932
 20
784.799549
 30
0.0
 40
6.000000000000001
  0
LINE
  5
775
330
1F
100
AcDbEntity
  8
0
  6
CONTINUOUS
 62
     3
100
AcDbLine
 10
1640.198606
 20
909.00755
 30
0.0
 11
1622.210969
 21
890.446416
 31
0.0
  0
ARC
  5
776
330
1F
100
AcDbEntity
  8
0
  6
CONTINUOUS
 62
     3
100
AcDbCircle
 10
1611.439262
 20
900.885302
 30
0.0
 40
15.0
100
AcDbArc
 50
266.722904
 51
315.89897
  0
ARC
  5
777
330
1F
100
AcDbEntity
  8
0
  6
CONTINUOUS
 62
     3
100
AcDbCircle
 10
1645.970829
 20
893.737286
 30
0.0
 40
90.0
100
AcDbArc
 50
146.918019
 51
156.425306
  0
ARC
  5
778
330
1F
100
AcDbEntity
  8
0
  6
CONTINUOUS
 62
     3
100
AcDbCircle
 10
1691.284277
 20
1063.896315
 30
0.0
 40
6.000000000000001
100
AcDbArc
 50
157.45969
 51
22.54031
  0
ARC
  5
779
330
1F
100
AcDbEntity
  8
0
  6
CONTINUOUS
 62
     3
100
AcDbCircle
 10
1691.284277
 20
1063.896315
 30
0.0
 40
14.0
100
AcDbArc
 50
170.544257
 51
9.455743
  0
LINE
  5
77A
330
1F
100
AcDbEntity
  8
0
  6
CONTINUOUS
 62
     3
100
AcDbLine
 10
1535.101948
 20
820.924959
 30
0.0
 11
1563.981748
 21
859.109177
 31
0.0
  0
LINE
  5
77B
330
1F
100
AcDbEntity
  8
0
  6
CONTINUOUS
 62
     3
100
AcDbLine
 10
1602.148773
 20
874.759889
 30
0.0
 11
1563.981748
 21
859.109177
 31
0.0
  0
LINE
  5
77C
330
1F
100
AcDbEntity
  8
0
  6
CONTINUOUS
 62
     3
100
AcDbLine
 10
1602.148773
 20
874.759889
 30
0.0
 11
1633.587964
 21
916.328075
 31
0.0
  0
LINE
  5
77D
330
1F
100
AcDbEntity
  8
0
  6
CONTINUOUS
 62
     3
100
AcDbLine
 10
1633.587964
 20
916.328075
 30
0.0
 11
1632.804258
 21
945.131475
 31
0.0
  0
LINE
  5
77E
330
1F
100
AcDbEntity
  8
0
  6
CONTINUOUS
 62
     3
100
AcDbLine
 10
1632.804258
 20
945.131475
 30
0.0
 11
1671.587317
 21
996.409556
 31
0.0
  0
LINE
  5
77F
330
1F
100
AcDbEntity
  8
0
  6
CONTINUOUS
 62
     3
100
AcDbLine
 10
1671.587317
 20
996.409556
 30
0.0
 11
1698.888443
 21
1052.141458
 31
0.0
  0
LINE
  5
780
330
1F
100
AcDbEntity
  8
0
  6
CONTINUOUS
 62
     3
100
AcDbLine
 10
1623.046605
 20
1005.171363
 30
0.0
 11
1669.201496
 21
1066.196315
 31
0.0
  0
LINE
  5
781
330
1F
100
AcDbEntity
  8
0
  6
CONTINUOUS
 62
     3
100
AcDbLine
 10
1650.232121
 20
1051.061969
 30
0.0
 11
1655.017546
 21
1047.442617
 31
0.0
  0
LINE
  5
782
330
1F
100
AcDbEntity
  8
0
  6
CONTINUOUS
 62
     3
100
AcDbLine
 10
1661.678654
 20
1066.196315
 30
0.0
 11
1650.232121
 21
1051.061969
 31
0.0
  0
LINE
  5
783
330
1F
100
AcDbEntity
  8
0
  6
CONTINUOUS
 62
     3
100
AcDbLine
 10
1609.386957
 20
990.426397
 30
0.0
 11
1623.046605
 21
1005.171363
 31
0.0
  0
ARC
  5
784
330
1F
100
AcDbEntity
  8
0
  6
CONTINUOUS
 62
     3
100
AcDbCircle
 10
1631.438865
 20
918.630427
 30
0.0
 40
5.0
100
AcDbArc
 50
271.257192
 51
66.904626
  0
ARC
  5
785
330
1F
100
AcDbEntity
  8
0
  6
CONTINUOUS
 62
     3
100
AcDbCircle
 10
1631.438865
 20
918.630427
 30
0.0
 40
9.0
100
AcDbArc
 50
0.89897
 51
78.15888
  0
LINE
  5
786
330
1F
100
AcDbEntity
  8
0
  6
CONTINUOUS
 62
     3
100
AcDbLine
 10
1640.437757
 20
918.771631
 30
0.0
 11
1640.584717
 21
909.405971
 31
0.0
  0
LINE
  5
787
330
1F
100
AcDbEntity
  8
0
  6
CONTINUOUS
 62
     3
100
AcDbLine
 10
1446.516125
 20
775.082272
 30
0.0
 11
1477.687911
 21
816.296901
 31
0.0
  0
LINE
  5
788
330
1F
100
AcDbEntity
  8
0
  6
CONTINUOUS
 62
     3
100
AcDbLine
 10
1537.265338
 20
811.165611
 30
0.0
 11
1535.101948
 21
820.924959
 31
0.0
  0
LINE
  5
789
330
1F
100
AcDbEntity
  8
0
  6
CONTINUOUS
 62
     3
100
AcDbLine
 10
1519.376998
 20
761.176534
 30
0.0
 11
1517.651344
 21
758.894914
 31
0.0
  0
LINE
  5
78A
330
1F
100
AcDbEntity
  8
0
  6
CONTINUOUS
 62
     3
100
AcDbLine
 10
1517.651344
 20
758.894914
 30
0.0
 11
1511.347762
 21
758.02036
 31
0.0
  0
LINE
  5
78B
330
1F
100
AcDbEntity
  8
0
  6
CONTINUOUS
 62
     3
100
AcDbLine
 10
1511.347762
 20
758.02036
 30
0.0
 11
1343.575984
 21
536.196315
 31
0.0
  0
LINE
  5
78C
330
1F
100
AcDbEntity
  8
0
  6
CONTINUOUS
 62
     3
100
AcDbLine
 10
1427.107154
 20
743.37096
 30
0.0
 11
1446.516125
 21
775.082272
 31
0.0
  0
LINE
  5
78D
330
1F
100
AcDbEntity
  8
0
  6
CONTINUOUS
 62
     3
100
AcDbLine
 10
1432.437503
 20
755.638959
 30
0.0
 11
1435.239095
 21
756.027651
 31
0.0
  0
LINE
  5
78E
330
1F
100
AcDbEntity
  8
0
  6
CONTINUOUS
 62
     3
100
AcDbLine
 10
1432.437503
 20
755.638959
 30
0.0
 11
1403.482688
 21
717.35556
 31
0.0
  0
LINE
  5
78F
330
1F
100
AcDbEntity
  8
0
  6
CONTINUOUS
 62
     3
100
AcDbLine
 10
1403.482688
 20
717.35556
 30
0.0
 11
1404.90589
 21
707.097462
 31
0.0
  0
LINE
  5
790
330
1F
100
AcDbEntity
  8
0
  6
CONTINUOUS
 62
     3
100
AcDbLine
 10
1396.17647
 20
692.834915
 30
0.0
 11
1427.107154
 21
743.37096
 31
0.0
  0
LINE
  5
791
330
1F
100
AcDbEntity
  8
0
  6
CONTINUOUS
 62
     3
100
AcDbLine
 10
1332.16057
 20
588.242647
 30
0.0
 11
1396.17647
 21
692.834915
 31
0.0
  0
LINE
  5
792
330
1F
100
AcDbEntity
  8
0
  6
CONTINUOUS
 62
     3
100
AcDbLine
 10
1311.02543
 20
536.196315
 30
0.0
 11
1332.16057
 21
588.242647
 31
0.0
  0
LINE
  5
793
330
1F
100
AcDbEntity
  8
0
  6
CONTINUOUS
 62
     3
100
AcDbLine
 10
1572.471375
 20
955.382084
 30
0.0
 11
1566.67151
 21
958.864087
 31
0.0
  0
LINE
  5
794
330
1F
100
AcDbEntity
  8
0
  6
CONTINUOUS
 62
     3
100
AcDbLine
 10
1518.287619
 20
878.272529
 30
0.0
 11
1566.67151
 21
958.864087
 31
0.0
  0
LINE
  5
795
330
1F
100
AcDbEntity
  8
0
  6
CONTINUOUS
 62
     3
100
AcDbLine
 10
1564.191287
 20
962.252461
 30
0.0
 11
1565.771285
 21
959.404545
 31
0.0
  0
LINE
  5
796
330
1F
100
AcDbEntity
  8
0
  6
CONTINUOUS
 62
     8
100
AcDbLine
 10
1565.771285
 20
959.404545
 30
0.0
 11
1566.67151
 21
958.864087
 31
0.0
  0
LINE
  5
797
330
1F
100
AcDbEntity
  8
0
  6
CONTINUOUS
 62
     3
100
AcDbLine
 10
1564.191287
 20
962.252461
 30
0.0
 11
1576.412419
 21
982.608824
 31
0.0
  0
LINE
  5
798
330
1F
100
AcDbEntity
  8
0
  6
CONTINUOUS
 62
     3
100
AcDbLine
 10
1576.412419
 20
982.608824
 30
0.0
 11
1579.668786
 21
982.553184
 31
0.0
  0
LINE
  5
799
330
1F
100
AcDbEntity
  8
0
  6
CONTINUOUS
 62
     3
100
AcDbLine
 10
1579.668786
 20
982.553184
 30
0.0
 11
1596.011506
 21
972.741679
 31
0.0
  0
LINE
  5
79A
330
1F
100
AcDbEntity
  8
0
  6
CONTINUOUS
 62
     8
100
AcDbLine
 10
1596.011506
 20
972.741679
 30
0.0
 11
1592.100462
 21
975.089711
 31
0.0
  0
LINE
  5
79B
330
1F
100
AcDbEntity
  8
0
  6
CENTER
 62
     5
100
AcDbLine
 10
1569.024418
 20
973.780751
 30
0.0
 11
1601.793728
 21
954.10739
 31
0.0
  0
LINE
  5
79C
330
1F
100
AcDbEntity
  8
0
  6
CONTINUOUS
 62
     3
100
AcDbLine
 10
1522.60255
 20
875.68202
 30
0.0
 11
1512.671931
 21
881.64396
 31
0.0
  0
ARC
  5
79D
330
1F
100
AcDbEntity
  8
0
  6
CONTINUOUS
 62
     3
100
AcDbCircle
 10
1512.157209
 20
880.786603
 30
0.0
 40
1.0
100
AcDbArc
 50
59.021109
 51
149.021109
  0
LINE
  5
79E
330
1F
100
AcDbEntity
  8
0
  6
CONTINUOUS
 62
     3
100
AcDbLine
 10
1510.270407
 20
879.586611
 30
0.0
 11
1511.299852
 21
881.301325
 31
0.0
  0
LINE
  5
79F
330
1F
100
AcDbEntity
  8
0
  6
CENTER
 62
     6
100
AcDbLine
 10
1337.873663
 20
551.631961
 30
0.0
 11
1585.409073
 21
963.94407
 31
0.0
  0
LINE
  5
7A0
330
1F
100
AcDbEntity
  8
0
  6
CONTINUOUS
 62
     3
100
AcDbLine
 10
1359.976903
 20
649.646701
 30
0.0
 11
1408.103433
 21
729.809579
 31
0.0
  0
LINE
  5
7A1
330
1F
100
AcDbEntity
  8
0
  6
CONTINUOUS
 62
     3
100
AcDbLine
 10
1413.990393
 20
617.219199
 30
0.0
 11
1449.151206
 21
675.785482
 31
0.0
  0
LINE
  5
7A2
330
1F
100
AcDbEntity
  8
0
  6
CONTINUOUS
 62
     3
100
AcDbLine
 10
1407.246076
 20
730.324302
 30
0.0
 11
1411.40354
 21
727.828329
 31
0.0
  0
LINE
  5
7A3
330
1F
100
AcDbEntity
  8
0
  6
CONTINUOUS
 62
     3
100
AcDbLine
 10
1370.700026
 20
666.536479
 30
0.0
 11
1377.559822
 21
662.418137
 31
0.0
  0
LINE
  5
7A4
330
1F
100
AcDbEntity
  8
0
  6
CONTINUOUS
 62
     3
100
AcDbLine
 10
1449.454265
 20
778.967014
 30
0.0
 11
1474.442085
 21
820.588457
 31
0.0
  0
LINE
  5
7A5
330
1F
100
AcDbEntity
  8
0
  6
CONTINUOUS
 62
     3
100
AcDbLine
 10
1421.658298
 20
754.330297
 30
0.0
 11
1428.390736
 21
750.288416
 31
0.0
  0
LINE
  5
7A6
330
1F
100
AcDbEntity
  8
0
  6
CONTINUOUS
 62
     3
100
AcDbLine
 10
1421.658298
 20
754.330297
 30
0.0
 11
1407.246076
 21
730.324302
 31
0.0
  0
LINE
  5
7A7
330
1F
100
AcDbEntity
  8
0
  6
CONTINUOUS
 62
     3
100
AcDbLine
 10
1382.079159
 20
569.894026
 30
0.0
 11
1380.535049
 21
567.322049
 31
0.0
  0
LINE
  5
7A8
330
1F
100
AcDbEntity
  8
0
  6
CONTINUOUS
 62
     3
100
AcDbLine
 10
1333.209794
 20
599.233204
 30
0.0
 11
1331.665684
 21
596.661228
 31
0.0
  0
LINE
  5
7A9
330
1F
100
AcDbEntity
  8
0
  6
CONTINUOUS
 62
     3
100
AcDbLine
 10
1358.836839
 20
553.522175
 30
0.0
 11
1357.292662
 21
550.950087
 31
0.0
  0
LINE
  5
7AA
330
1F
100
AcDbEntity
  8
0
  6
CONTINUOUS
 62
     3
100
AcDbLine
 10
1335.795626
 20
594.181778
 30
0.0
 11
1331.665684
 21
596.661228
 31
0.0
  0
LINE
  5
7AB
330
1F
100
AcDbEntity
  8
0
  6
CONTINUOUS
 62
     6
100
AcDbLine
 10
1327.196008
 20
576.017168
 30
0.0
 11
1326.944083
 21
576.168414
 31
0.0
  0
LINE
  5
7AC
330
1F
100
AcDbEntity
  8
0
  6
CONTINUOUS
 62
     3
100
AcDbLine
 10
1361.579456
 20
548.376471
 30
0.0
 11
1360.550006
 21
546.661748
 31
0.0
  0
LINE
  5
7AD
330
1F
100
AcDbEntity
  8
0
  6
CONTINUOUS
 62
     6
100
AcDbLine
 10
1323.855739
 20
571.024255
 30
0.0
 11
1322.82629
 21
569.309532
 31
0.0
  0
LINE
  5
7AE
330
1F
100
AcDbEntity
  8
0
  6
CONTINUOUS
 62
     3
100
AcDbLine
 10
1374.962229
 20
570.667744
 30
0.0
 11
1363.123633
 21
550.948559
 31
0.0
  0
LINE
  5
7AF
330
1F
100
AcDbEntity
  8
0
  6
CONTINUOUS
 62
     6
100
AcDbLine
 10
1327.912389
 20
577.78129
 30
0.0
 11
1325.399916
 21
573.596343
 31
0.0
  0
LINE
  5
7B0
330
1F
100
AcDbEntity
  8
0
  6
CONTINUOUS
 62
     3
100
AcDbLine
 10
1360.550006
 20
546.661748
 30
0.0
 11
1354.320094
 21
550.401934
 31
0.0
  0
LINE
  5
7B1
330
1F
100
AcDbEntity
  8
0
  6
CONTINUOUS
 62
     6
100
AcDbLine
 10
1324.911162
 20
570.390622
 30
0.0
 11
1323.855739
 21
571.024255
 31
0.0
  0
LINE
  5
7B2
330
1F
100
AcDbEntity
  8
0
  6
CONTINUOUS
 62
     3
100
AcDbLine
 10
1363.123633
 20
550.948559
 30
0.0
 11
1357.35354
 21
554.412688
 31
0.0
  0
LINE
  5
7B3
330
1F
100
AcDbEntity
  8
0
  6
CONTINUOUS
 62
     3
100
AcDbLine
 10
1373.12728
 20
575.26837
 30
0.0
 11
1384.65123
 21
568.349859
 31
0.0
  0
LINE
  5
7B4
330
1F
100
AcDbEntity
  8
0
  6
CONTINUOUS
 62
     3
100
AcDbLine
 10
1346.594124
 20
627.355419
 30
0.0
 11
1330.63774
 21
600.777361
 31
0.0
  0
LINE
  5
7B5
330
1F
100
AcDbEntity
  8
0
  6
CONTINUOUS
 62
     3
100
AcDbLine
 10
1400.607615
 20
594.927917
 30
0.0
 11
1384.65123
 21
568.349859
 31
0.0
  0
LINE
  5
7B6
330
1F
100
AcDbEntity
  8
0
  6
CONTINUOUS
 62
     3
100
AcDbLine
 10
1407.708353
 20
620.990681
 30
0.0
 11
1413.990393
 21
617.219199
 31
0.0
  0
LINE
  5
7B7
330
1F
100
AcDbEntity
  8
0
  6
CONTINUOUS
 62
     3
100
AcDbLine
 10
1391.934528
 20
600.134886
 30
0.0
 11
1400.607615
 21
594.927917
 31
0.0
  0
LINE
  5
7B8
330
1F
100
AcDbEntity
  8
0
  6
CONTINUOUS
 62
     3
100
AcDbLine
 10
1412.704358
 20
617.991283
 30
0.0
 11
1399.321579
 21
595.700001
 31
0.0
  0
LINE
  5
7B9
330
1F
100
AcDbEntity
  8
0
  6
CONTINUOUS
 62
     3
100
AcDbLine
 10
1364.667799
 20
553.52063
 30
0.0
 11
1359.173597
 21
556.819126
 31
0.0
  0
LINE
  5
7BA
330
1F
100
AcDbEntity
  8
0
  6
CONTINUOUS
 62
     6
100
AcDbLine
 10
1326.053589
 20
573.203904
 30
0.0
 11
1325.399916
 21
573.596343
 31
0.0
  0
LINE
  5
7BB
330
1F
100
AcDbEntity
  8
0
  6
CONTINUOUS
 62
     3
100
AcDbLine
 10
1361.579456
 20
548.376471
 30
0.0
 11
1355.533471
 21
552.006234
 31
0.0
  0
LINE
  5
7BC
330
1F
100
AcDbEntity
  8
0
  6
CONTINUOUS
 62
     6
100
AcDbLine
 10
1324.149546
 20
568.515103
 30
0.0
 11
1322.82629
 21
569.309532
 31
0.0
  0
LINE
  5
7BD
330
1F
100
AcDbEntity
  8
0
  6
CONTINUOUS
 62
     3
100
AcDbLine
 10
1330.63774
 20
600.777361
 30
0.0
 11
1337.361729
 21
596.740552
 31
0.0
  0
LINE
  5
7BE
330
1F
100
AcDbEntity
  8
0
  6
CONTINUOUS
 62
     3
100
AcDbLine
 10
1367.118758
 20
645.359022
 30
0.0
 11
1359.976903
 21
649.646701
 31
0.0
  0
LINE
  5
7BF
330
1F
100
AcDbEntity
  8
0
  6
CONTINUOUS
 62
     3
100
AcDbLine
 10
1361.262938
 20
648.874617
 30
0.0
 11
1347.88016
 21
626.583335
 31
0.0
  0
LINE
  5
7C0
330
1F
100
AcDbEntity
  8
0
  6
CONTINUOUS
 62
     3
100
AcDbLine
 10
1353.545374
 20
623.182172
 30
0.0
 11
1346.594124
 21
627.355419
 31
0.0
  0
LINE
  5
7C1
330
1F
100
AcDbEntity
  8
0
  6
CONTINUOUS
 62
     3
100
AcDbLine
 10
1379.847825
 20
565.848835
 30
0.0
 11
1380.389069
 21
566.593215
 31
0.0
  0
LINE
  5
7C2
330
1F
100
AcDbEntity
  8
0
  6
CONTINUOUS
 62
     3
100
AcDbLine
 10
1375.271065
 20
568.596536
 30
0.0
 11
1375.673614
 21
569.424183
 31
0.0
  0
LINE
  5
7C3
330
1F
100
AcDbEntity
  8
0
  6
CONTINUOUS
 62
     3
100
AcDbLine
 10
1378.031338
 20
568.008702
 30
0.0
 11
1377.786526
 21
568.972151
 31
0.0
  0
LINE
  5
7C4
330
1F
100
AcDbEntity
  8
0
  6
CONTINUOUS
 62
     3
100
AcDbLine
 10
1375.862445
 20
570.127291
 30
0.0
 11
1375.502134
 21
569.527132
 31
0.0
  0
LINE
  5
7C5
330
1F
100
AcDbEntity
  8
0
  6
CONTINUOUS
 62
     3
100
AcDbLine
 10
1380.920851
 20
567.09043
 30
0.0
 11
1380.560541
 21
566.490271
 31
0.0
  0
LINE
  5
7C6
330
1F
100
AcDbEntity
  8
0
  6
CONTINUOUS
 62
     3
100
AcDbLine
 10
1375.502134
 20
569.527132
 30
0.0
 11
1380.560541
 21
566.490271
 31
0.0
  0
LINE
  5
7C7
330
1F
100
AcDbEntity
  8
0
  6
CENTER
 62
     6
100
AcDbLine
 10
1379.935758
 20
571.180837
 30
0.0
 11
1376.524434
 21
565.498698
 31
0.0
  0
LINE
  5
7C8
330
1F
100
AcDbEntity
  8
0
  6
CONTINUOUS
 62
     3
100
AcDbLine
 10
1380.920851
 20
567.09043
 30
0.0
 11
1371.30729
 21
572.86202
 31
0.0
  0
LINE
  5
7C9
330
1F
100
AcDbEntity
  8
0
  6
CONTINUOUS
 62
     3
100
AcDbLine
 10
1377.002106
 20
566.294361
 30
0.0
 11
1378.150731
 21
565.733635
 31
0.0
  0
LINE
  5
7CA
330
1F
100
AcDbEntity
  8
0
  6
CONTINUOUS
 62
     3
100
AcDbLine
 10
1378.150731
 20
565.733635
 30
0.0
 11
1379.052097
 21
565.451275
 31
0.0
  0
LINE
  5
7CB
330
1F
100
AcDbEntity
  8
0
  6
CONTINUOUS
 62
     3
100
AcDbLine
 10
1379.051941
 20
565.450937
 30
0.0
 11
1379.221414
 21
565.463719
 31
0.0
  0
LINE
  5
7CC
330
1F
100
AcDbEntity
  8
0
  6
CONTINUOUS
 62
     3
100
AcDbLine
 10
1379.221414
 20
565.463719
 30
0.0
 11
1379.385879
 21
565.505634
 31
0.0
  0
LINE
  5
7CD
330
1F
100
AcDbEntity
  8
0
  6
CONTINUOUS
 62
     3
100
AcDbLine
 10
1379.385879
 20
565.505634
 30
0.0
 11
1379.540316
 21
565.575415
 31
0.0
  0
LINE
  5
7CE
330
1F
100
AcDbEntity
  8
0
  6
CONTINUOUS
 62
     3
100
AcDbLine
 10
1379.540316
 20
565.575415
 30
0.0
 11
1379.680051
 21
565.670948
 31
0.0
  0
LINE
  5
7CF
330
1F
100
AcDbEntity
  8
0
  6
CONTINUOUS
 62
     3
100
AcDbLine
 10
1379.680051
 20
565.670948
 30
0.0
 11
1379.800835
 21
565.789312
 31
0.0
  0
LINE
  5
7D0
330
1F
100
AcDbEntity
  8
0
  6
CONTINUOUS
 62
     3
100
AcDbLine
 10
1379.800835
 20
565.789312
 30
0.0
 11
1379.847827
 21
565.848857
 31
0.0
  0
LINE
  5
7D1
330
1F
100
AcDbEntity
  8
0
  6
CONTINUOUS
 62
     3
100
AcDbLine
 10
1375.294259
 20
567.707328
 30
0.0
 11
1376.224685
 21
566.831531
 31
0.0
  0
LINE
  5
7D2
330
1F
100
AcDbEntity
  8
0
  6
CONTINUOUS
 62
     3
100
AcDbLine
 10
1376.224685
 20
566.831531
 30
0.0
 11
1377.002114
 21
566.294356
 31
0.0
  0
LINE
  5
7D3
330
1F
100
AcDbEntity
  8
0
  6
CONTINUOUS
 62
     3
100
AcDbLine
 10
1375.271084
 20
568.596548
 30
0.0
 11
1375.210778
 21
568.43861
 31
0.0
  0
LINE
  5
7D4
330
1F
100
AcDbEntity
  8
0
  6
CONTINUOUS
 62
     3
100
AcDbLine
 10
1375.210778
 20
568.43861
 30
0.0
 11
1375.179
 21
568.272433
 31
0.0
  0
LINE
  5
7D5
330
1F
100
AcDbEntity
  8
0
  6
CONTINUOUS
 62
     3
100
AcDbLine
 10
1375.179
 20
568.272433
 30
0.0
 11
1375.176724
 21
568.103077
 31
0.0
  0
LINE
  5
7D6
330
1F
100
AcDbEntity
  8
0
  6
CONTINUOUS
 62
     3
100
AcDbLine
 10
1375.176724
 20
568.103077
 30
0.0
 11
1375.204001
 21
567.935678
 31
0.0
  0
LINE
  5
7D7
330
1F
100
AcDbEntity
  8
0
  6
CONTINUOUS
 62
     3
100
AcDbLine
 10
1375.204001
 20
567.935678
 30
0.0
 11
1375.260018
 21
567.775333
 31
0.0
  0
LINE
  5
7D8
330
1F
100
AcDbEntity
  8
0
  6
CONTINUOUS
 62
     3
100
AcDbLine
 10
1375.260018
 20
567.775333
 30
0.0
 11
1375.294043
 21
567.707026
 31
0.0
  0
LINE
  5
7D9
330
1F
100
AcDbEntity
  8
0
  6
CONTINUOUS
 62
     3
100
AcDbLine
 10
1571.299881
 20
943.921114
 30
0.0
 11
1573.471275
 21
965.164304
 31
0.0
  0
LINE
  5
7DA
330
1F
100
AcDbEntity
  8
0
  6
CONTINUOUS
 62
     3
100
AcDbLine
 10
1509.970332
 20
879.766764
 30
0.0
 11
1520.782494
 21
873.275583
 31
0.0
  0
ARC
  5
7DB
330
1F
100
AcDbEntity
  8
0
  6
CONTINUOUS
 62
     3
100
AcDbCircle
 10
1585.409073
 20
963.94407
 30
0.0
 40
12.0
100
AcDbArc
 50
37.684006
 51
174.163725
  0
ARC
  5
7DC
330
1F
100
AcDbEntity
  8
0
  6
CONTINUOUS
 62
     3
100
AcDbCircle
 10
1587.3185
 20
931.94598
 30
0.0
 40
20.0
100
AcDbArc
 50
115.001188
 51
146.918019
  0
LINE
  5
7DD
330
1F
100
AcDbEntity
  8
0
  6
CONTINUOUS
 62
     3
100
AcDbLine
 10
1506.839436
 20
854.840388
 30
0.0
 11
1609.386957
 21
990.426397
 31
0.0
  0
LINE
  5
7DE
330
1F
100
AcDbEntity
  8
0
  6
CONTINUOUS
 62
     3
100
AcDbLine
 10
1500.483229
 20
863.964389
 30
0.0
 11
1509.970332
 21
879.766764
 31
0.0
  0
LINE
  5
7DF
330
1F
100
AcDbEntity
  8
0
  6
PHANTOM
 62
     6
100
AcDbLine
 10
1332.773189
 20
546.896315
 30
0.0
 11
1332.773189
 21
556.196315
 31
0.0
  0
LINE
  5
7E0
330
1F
100
AcDbEntity
  8
0
  6
CONTINUOUS
 62
     3
100
AcDbLine
 10
1987.498032
 20
569.396315
 30
0.0
 11
1887.498032
 21
569.396315
 31
0.0
  0
LINE
  5
7E1
330
1F
100
AcDbEntity
  8
0
  6
CONTINUOUS
 62
     3
100
AcDbLine
 10
1887.498032
 20
569.396315
 30
0.0
 11
1887.498032
 21
536.196315
 31
0.0
  0
LINE
  5
7E2
330
1F
100
AcDbEntity
  8
0
  6
CONTINUOUS
 62
     3
100
AcDbLine
 10
1987.498032
 20
536.196315
 30
0.0
 11
1987.498032
 21
569.396315
 31
0.0
  0
ARC
  5
7E3
330
1F
100
AcDbEntity
  8
0
  6
CONTINUOUS
 62
     3
100
AcDbCircle
 10
1585.409073
 20
963.94407
 30
0.0
 40
8.5
100
AcDbArc
 50
31.15229
 51
174.163725
  0
LINE
  5
7E4
330
1F
100
AcDbEntity
  8
0
  6
CONTINUOUS
 62
     3
100
AcDbLine
 10
1576.953133
 20
964.808403
 30
0.0
 11
1575.29102
 21
948.547617
 31
0.0
  0
LINE
  5
7E5
330
1F
100
AcDbEntity
  8
0
  6
CENTER
 62
     6
100
AcDbLine
 10
1429.400832
 20
733.352741
 30
0.0
 11
1457.83546
 21
716.281748
 31
0.0
  0
LINE
  5
7E6
330
1F
100
AcDbEntity
  8
0
  6
CENTER
 62
     6
100
AcDbLine
 10
1498.930253
 20
784.799549
 30
0.0
 11
1534.19267
 21
784.799549
 31
0.0
  0
LINE
  5
7E7
330
1F
100
AcDbEntity
  8
0
  6
CENTER
 62
     6
100
AcDbLine
 10
1516.555932
 20
803.157087
 30
0.0
 11
1516.555932
 21
765.07904
 31
0.0
  0
LINE
  5
7E8
330
1F
100
AcDbEntity
  8
0
  6
CENTER
 62
     6
100
AcDbLine
 10
1691.284277
 20
1045.167208
 30
0.0
 11
1691.284277
 21
1079.893314
 31
0.0
  0
LINE
  5
7E9
330
1F
100
AcDbEntity
  8
0
  6
CENTER
 62
     6
100
AcDbLine
 10
1671.354085
 20
1063.896315
 30
0.0
 11
1710.63883
 21
1063.896315
 31
0.0
  0
LINE
  5
7EA
330
1F
100
AcDbEntity
  8
0
  6
CENTER
 62
     6
100
AcDbLine
 10
1699.510387
 20
523.196315
 30
0.0
 11
1732.359406
 21
523.196315
 31
0.0
  0
LINE
  5
7EB
330
1F
100
AcDbEntity
  8
0
  6
CENTER
 62
     6
100
AcDbLine
 10
1714.413831
 20
538.353769
 30
0.0
 11
1714.413831
 21
510.867855
 31
0.0
  0
LINE
  5
7EC
330
1F
100
AcDbEntity
  8
0
  6
CONTINUOUS
 62
     3
100
AcDbLine
 10
2019.198032
 20
545.696315
 30
0.0
 11
2094.167889
 21
545.696315
 31
0.0
  0
LINE
  5
7ED
330
1F
100
AcDbEntity
  8
0
  6
CONTINUOUS
 62
     3
100
AcDbLine
 10
2019.198032
 20
538.696315
 30
0.0
 11
2094.167889
 21
538.696315
 31
0.0
  0
LINE
  5
7EE
330
1F
100
AcDbEntity
  8
0
  6
CENTER
 62
     6
100
AcDbLine
 10
1591.224321
 20
916.396811
 30
0.0
 11
1616.474566
 21
897.299339
 31
0.0
  0
LINE
  5
7EF
330
1F
100
AcDbEntity
  8
0
  6
CENTER
 62
     6
100
AcDbLine
 10
1594.300708
 20
894.222952
 30
0.0
 11
1613.39818
 21
919.473197
 31
0.0
  0
CIRCLE
  5
7F0
330
1F
100
AcDbEntity
  8
0
  6
CONTINUOUS
 62
     3
100
AcDbCircle
 10
1603.849444
 20
906.848075
 30
0.0
 40
6.000000000000001
  0
LINE
  5
7F1
330
1F
100
AcDbEntity
  8
0
  6
CONTINUOUS
 62
     3
100
AcDbLine
 10
1608.849444
 20
909.734826
 30
0.0
 11
1603.849444
 21
912.621577
 31
0.0
  0
LINE
  5
7F2
330
1F
100
AcDbEntity
  8
0
  6
CONTINUOUS
 62
     3
100
AcDbLine
 10
1603.849444
 20
912.621577
 30
0.0
 11
1598.849444
 21
909.734826
 31
0.0
  0
LINE
  5
7F3
330
1F
100
AcDbEntity
  8
0
  6
CONTINUOUS
 62
     3
100
AcDbLine
 10
1598.849444
 20
909.734826
 30
0.0
 11
1598.849444
 21
903.961323
 31
0.0
  0
LINE
  5
7F4
330
1F
100
AcDbEntity
  8
0
  6
CONTINUOUS
 62
     3
100
AcDbLine
 10
1598.849444
 20
903.961323
 30
0.0
 11
1603.849444
 21
901.074572
 31
0.0
  0
LINE
  5
7F5
330
1F
100
AcDbEntity
  8
0
  6
CONTINUOUS
 62
     3
100
AcDbLine
 10
1603.849444
 20
901.074572
 30
0.0
 11
1608.849444
 21
903.961323
 31
0.0
  0
LINE
  5
7F6
330
1F
100
AcDbEntity
  8
0
  6
CONTINUOUS
 62
     3
100
AcDbLine
 10
1608.849444
 20
903.961323
 30
0.0
 11
1608.849444
 21
909.734826
 31
0.0
  0
CIRCLE
  5
7F7
330
1F
100
AcDbEntity
  8
0
  6
CONTINUOUS
 62
     3
100
AcDbCircle
 10
1603.849444
 20
906.848075
 30
0.0
 40
12.0
  0
LINE
  5
7F8
330
1F
100
AcDbEntity
  8
0
  6
CENTER
 62
     6
100
AcDbLine
 10
1585.409073
 20
963.94407
 30
0.0
 11
1595.245753
 21
980.328726
 31
0.0
  0
LINE
  5
7F9
330
1F
100
AcDbEntity
  8
0
  6
CONTINUOUS
 62
     3
100
AcDbLine
 10
1993.498032
 20
549.701869
 30
0.0
 11
1989.498032
 21
549.701869
 31
0.0
  0
LINE
  5
7FA
330
1F
100
AcDbEntity
  8
0
  6
CONTINUOUS
 62
     3
100
AcDbLine
 10
1989.498032
 20
557.207422
 30
0.0
 11
1993.498032
 21
557.207422
 31
0.0
  0
LINE
  5
7FB
330
1F
100
AcDbEntity
  8
0
  6
CONTINUOUS
 62
     3
100
AcDbLine
 10
1989.498032
 20
536.196315
 30
0.0
 11
1989.498032
 21
557.207422
 31
0.0
  0
LINE
  5
7FC
330
1F
100
AcDbEntity
  8
0
  6
CONTINUOUS
 62
     3
100
AcDbLine
 10
1993.498032
 20
536.196315
 30
0.0
 11
1993.498032
 21
557.207422
 31
0.0
  0
LINE
  5
7FD
330
1F
100
AcDbEntity
  8
0
  6
CONTINUOUS
 62
     3
100
AcDbLine
 10
1987.498032
 20
554.696315
 30
0.0
 11
1989.498032
 21
554.696315
 31
0.0
  0
LINE
  5
7FE
330
1F
100
AcDbEntity
  8
0
  6
CONTINUOUS
 62
     3
100
AcDbLine
 10
1993.498032
 20
555.196315
 30
0.0
 11
1998.698032
 21
552.196315
 31
0.0
  0
LINE
  5
7FF
330
1F
100
AcDbEntity
  8
0
  6
CONTINUOUS
 62
     3
100
AcDbLine
 10
2019.198032
 20
549.196315
 30
0.0
 11
2019.198032
 21
535.446315
 31
0.0
  0
LINE
  5
800
330
1F
100
AcDbEntity
  8
0
  6
CONTINUOUS
 62
     3
100
AcDbLine
 10
2013.698032
 20
549.196315
 30
0.0
 11
2019.198032
 21
549.196315
 31
0.0
  0
LINE
  5
801
330
1F
100
AcDbEntity
  8
0
  6
CONTINUOUS
 62
     3
100
AcDbLine
 10
2007.198032
 20
550.196315
 30
0.0
 11
2012.698032
 21
550.196315
 31
0.0
  0
LINE
  5
802
330
1F
100
AcDbEntity
  8
0
  6
CONTINUOUS
 62
     3
100
AcDbLine
 10
2000.198032
 20
551.696315
 30
0.0
 11
2005.698032
 21
551.696315
 31
0.0
  0
LINE
  5
803
330
1F
100
AcDbEntity
  8
0
  6
CONTINUOUS
 62
     3
100
AcDbLine
 10
2000.198032
 20
551.696315
 30
0.0
 11
2000.198032
 21
532.446315
 31
0.0
  0
LINE
  5
804
330
1F
100
AcDbEntity
  8
0
  6
CONTINUOUS
 62
     3
100
AcDbLine
 10
2005.698032
 20
551.696315
 30
0.0
 11
2005.698032
 21
532.446315
 31
0.0
  0
LINE
  5
805
330
1F
100
AcDbEntity
  8
0
  6
CONTINUOUS
 62
     3
100
AcDbLine
 10
2007.198032
 20
550.196315
 30
0.0
 11
2007.198032
 21
533.946315
 31
0.0
  0
LINE
  5
806
330
1F
100
AcDbEntity
  8
0
  6
CONTINUOUS
 62
     3
100
AcDbLine
 10
2012.698032
 20
550.196315
 30
0.0
 11
2012.698032
 21
533.946315
 31
0.0
  0
LINE
  5
807
330
1F
100
AcDbEntity
  8
0
  6
CONTINUOUS
 62
     3
100
AcDbLine
 10
2013.698032
 20
549.196315
 30
0.0
 11
2013.698032
 21
535.446315
 31
0.0
  0
ARC
  5
808
330
1F
100
AcDbEntity
  8
0
  6
CONTINUOUS
 62
     3
100
AcDbCircle
 10
2016.448032
 20
535.446315
 30
0.0
 40
2.75
100
AcDbArc
 50
180.0
 51
0.0
  0
ARC
  5
809
330
1F
100
AcDbEntity
  8
0
  6
CONTINUOUS
 62
     3
100
AcDbCircle
 10
2009.948032
 20
533.946315
 30
0.0
 40
2.75
100
AcDbArc
 50
180.0
 51
0.0
  0
ARC
  5
80A
330
1F
100
AcDbEntity
  8
0
  6
CONTINUOUS
 62
     3
100
AcDbCircle
 10
2002.948032
 20
532.446315
 30
0.0
 40
2.75
100
AcDbArc
 50
180.0
 51
0.0
  0
LINE
  5
80B
330
1F
100
AcDbEntity
  8
0
  6
CENTER
 62
     6
100
AcDbLine
 10
1980.647384
 20
542.196315
 30
0.0
 11
2051.633208
 21
542.196315
 31
0.0
  0
TEXT
  5
80C
330
1F
100
AcDbEntity
  8
0
  6
CONTINUOUS
 62
     3
100
AcDbText
 10
2958.789062
 20
1591.596069
 30
0.0
 40
40.0
  1
フットスイッチ
 41
0.75
  7
ED_VECTOR
100
AcDbText
  0
TEXT
  5
80D
330
1F
100
AcDbEntity
  8
0
  6
CONTINUOUS
 62
     3
100
AcDbText
 10
2686.732178
 20
1521.596069
 30
0.0
 40
40.0
  1
制御方式
 41
0.75
  7
ED_VECTOR
100
AcDbText
  0
TEXT
  5
80E
330
1F
100
AcDbEntity
  8
0
  6
CONTINUOUS
 62
     3
100
AcDbText
 10
2958.789062
 20
1521.596069
 30
0.0
 40
40.0
  1
ベクトル制御
 41
0.75
  7
ED_VECTOR
100
AcDbText
  0
TEXT
  5
80F
330
1F
100
AcDbEntity
  8
0
  6
CONTINUOUS
 62
     5
100
AcDbText
 10
2718.823975
 20
426.442932
 30
0.0
 40
50.0
  1
令和　2年　1月　1日
 41
0.8
  7
ED_VECTOR
100
AcDbText
  0
LINE
  5
810
330
1F
100
AcDbEntity
  8
0
  6
CONTINUOUS
 62
     3
100
AcDbLine
 10
730.417055
 20
570.396315
 30
0.0
 11
730.417055
 21
564.396315
 31
0.0
  0
LINE
  5
811
330
1F
100
AcDbEntity
  8
0
  6
CONTINUOUS
 62
     3
100
AcDbLine
 10
755.917055
 20
564.396315
 30
0.0
 11
730.417055
 21
564.396315
 31
0.0
  0
LINE
  5
812
330
1F
100
AcDbEntity
  8
0
  6
CONTINUOUS
 62
     3
100
AcDbLine
 10
755.917055
 20
570.396315
 30
0.0
 11
730.417055
 21
570.396315
 31
0.0
  0
LINE
  5
813
330
1F
100
AcDbEntity
  8
0
  6
CONTINUOUS
 62
     3
100
AcDbLine
 10
731.717055
 20
564.396315
 30
0.0
 11
731.717055
 21
536.196315
 31
0.0
  0
LINE
  5
814
330
1F
100
AcDbEntity
  8
0
  6
CONTINUOUS
 62
     3
100
AcDbLine
 10
824.117055
 20
536.196315
 30
0.0
 11
824.117055
 21
564.396315
 31
0.0
  0
LINE
  5
815
330
1F
100
AcDbEntity
  8
0
  6
CONTINUOUS
 62
     3
100
AcDbLine
 10
825.417055
 20
564.396315
 30
0.0
 11
799.917055
 21
564.396315
 31
0.0
  0
LINE
  5
816
330
1F
100
AcDbEntity
  8
0
  6
CONTINUOUS
 62
     3
100
AcDbLine
 10
825.417055
 20
570.396315
 30
0.0
 11
825.417055
 21
564.396315
 31
0.0
  0
LINE
  5
817
330
1F
100
AcDbEntity
  8
0
  6
CONTINUOUS
 62
     3
100
AcDbLine
 10
825.417055
 20
570.396315
 30
0.0
 11
799.917055
 21
570.396315
 31
0.0
  0
ENDSEC
  0
SECTION
  2
OBJECTS
  0
DICTIONARY
  5
C
330
0
100
AcDbDictionary
  3
ACAD_GROUP
350
D
  3
ACAD_LAYOUT
350
1A
  3
ACAD_MATERIAL
350
43
  3
ACAD_MLEADERSTYLE
350
6B
  3
ACAD_MLINESTYLE
350
17
  3
ACAD_PLOTSETTINGS
350
19
  3
ACAD_SCALELIST
350
47
  3
ACAD_VISUALSTYLE
350
2A
  3
ACDBVARIABLEDICTIONARY
350
818
1001
ACAD
1000
TREAT_AS_HARD
1070
     0
  0
DICTIONARY
  5
D
102
{ACAD_REACTORS
330
C
102
}
330
C
100
AcDbDictionary
1001
ACAD
1000
TREAT_AS_HARD
1070
     0
  0
DICTIONARY
  5
1A
102
{ACAD_REACTORS
330
C
102
}
330
C
100
AcDbDictionary
1001
ACAD
1000
TREAT_AS_HARD
1070
     0
  0
DICTIONARY
  5
43
102
{ACAD_REACTORS
330
C
102
}
330
C
100
AcDbDictionary
  3
BYBLOCK
350
45
  3
BYLAYER
350
44
  3
GLOBAL
350
46
1001
ACAD
1000
TREAT_AS_HARD
1070
     0
  0
DICTIONARY
  5
6B
102
{ACAD_REACTORS
330
C
102
}
330
C
100
AcDbDictionary
  3
STANDARD
350
6C
1001
ACAD
1000
TREAT_AS_HARD
1070
     0
  0
DICTIONARY
  5
17
102
{ACAD_REACTORS
330
C
102
}
330
C
100
AcDbDictionary
  3
STANDARD
350
18
1001
ACAD
1000
TREAT_AS_HARD
1070
     0
  0
DICTIONARY
  5
19
102
{ACAD_REACTORS
330
C
102
}
330
C
100
AcDbDictionary
1001
ACAD
1000
TREAT_AS_HARD
1070
     0
  0
DICTIONARY
  5
47
102
{ACAD_REACTORS
330
C
102
}
330
C
100
AcDbDictionary
  3
A0
350
48
  3
A1
350
49
  3
A2
350
4A
  3
A3
350
4B
  3
A4
350
4C
  3
A5
350
4D
  3
A6
350
4E
  3
A7
350
4F
  3
A8
350
50
  3
A9
350
51
  3
B0
350
52
  3
B1
350
53
  3
B2
350
54
  3
B3
350
55
  3
B4
350
56
  3
B5
350
57
  3
B6
350
58
  3
B7
350
59
  3
B8
350
5A
  3
B9
350
5B
  3
C0
350
5C
  3
C1
350
5D
  3
C2
350
5E
  3
C3
350
5F
  3
C4
350
60
  3
C5
350
61
  3
C6
350
62
  3
C7
350
63
  3
C8
350
64
  3
C9
350
65
  3
D0
350
66
  3
D1
350
67
  3
D2
350
68
1001
ACAD
1000
TREAT_AS_HARD
1070
     0
  0
DICTIONARY
  5
2A
102
{ACAD_REACTORS
330
C
102
}
330
C
100
AcDbDictionary
  3
2DWIREFRAME
350
2F
  3
BASIC
350
32
  3
BRIGHTEN
350
36
  3
COLORCHANGE
350
3A
  3
CONCEPTUAL
350
34
  3
DIM
350
35
  3
EDGECOLOROFF
350
3D
  3
FACEPATTERN
350
39
  3
FLAT
350
2B
  3
FLATWITHEDGES
350
2C
  3
GOURAUD
350
2D
  3
GOURAUDWITHEDGES
350
2E
  3
HIDDEN
350
31
  3
JITTEROFF
350
3B
  3
LINEPATTERN
350
38
  3
OVERHANGOFF
350
3C
  3
REALISTIC
350
33
  3
SHADED
350
42
  3
SHADED_WITH_EDGES
350
41
  3
SHADES_OF_GRAY
350
3E
  3
SKETCHY
350
3F
  3
THICKEN
350
37
  3
WIREFRAME
350
30
  3
X-RAY
350
40
1001
ACAD
1000
TREAT_AS_HARD
1070
     0
  0
DICTIONARY
  5
818
102
{ACAD_REACTORS
330
C
102
}
330
C
100
AcDbDictionary
  3
CANNOSCALE
350
823
  3
CENTEREXE
350
81F
  3
CENTERLTYPEFILE
350
820
  3
CMLEADERSTYLE
350
81A
  3
CTABLESTYLE
350
819
  3
DIMASSOC
350
821
  3
HIDETEXT
350
822
  3
MSLTSCALE
350
824
  3
PSOLHEIGHT
350
81C
  3
PSOLWIDTH
350
81B
1001
ACAD
1000
TREAT_AS_HARD
1070
     0
  0
MATERIAL
  5
45
102
{ACAD_REACTORS
330
43
102
}
102
{ACAD_XDICTIONARY
360
827
102
}
330
43
100
AcDbMaterial
  1
BYBLOCK
  0
MATERIAL
  5
44
102
{ACAD_REACTORS
330
43
102
}
102
{ACAD_XDICTIONARY
360
825
102
}
330
43
100
AcDbMaterial
  1
BYLAYER
  0
MATERIAL
  5
46
102
{ACAD_REACTORS
330
43
102
}
102
{ACAD_XDICTIONARY
360
829
102
}
330
43
100
AcDbMaterial
  1
GLOBAL
  0
ACAD_PROXY_OBJECT
  5
6C
102
{ACAD_REACTORS
330
6B
102
}
330
6B
100
AcDbZombieObject
 90
      499
 91
      505
 93
      610
310
40901902A4063FBFFFFFE0000000000000020400000000000020404214DD185B99185C990000000000000104090141901A00000000000004100000000000000041025764000000000000039000
340
14
340
0
340
11
340
0
 94
        0
1001
ACAD_MLEADERVER
1070
     2
  0
MLINESTYLE
  5
18
102
{ACAD_REACTORS
330
17
102
}
330
17
100
AcDbMlineStyle
  2
Standard
 70
     0
  3

 62
   256
 51
90.0
 52
90.0
 71
     2
 49
0.5
 62
   256
  6
BYLAYER
 49
-0.5
 62
   256
  6
BYLAYER
  0
ACAD_PROXY_OBJECT
  5
48
102
{ACAD_REACTORS
330
47
102
}
330
47
100
AcDbZombieObject
 90
      499
 91
      503
 93
       41
310
903313A31580
  0
ACAD_PROXY_OBJECT
  5
49
102
{ACAD_REACTORS
330
47
102
}
330
47
100
AcDbZombieObject
 90
      499
 91
      503
 93
      105
310
903313A324000000000000004000
  0
ACAD_PROXY_OBJECT
  5
4A
102
{ACAD_REACTORS
330
47
102
}
330
47
100
AcDbZombieObject
 90
      499
 91
      503
 93
      105
310
903313A344000000000000104000
  0
ACAD_PROXY_OBJECT
  5
4B
102
{ACAD_REACTORS
330
47
102
}
330
47
100
AcDbZombieObject
 90
      499
 91
      503
 93
      105
310
903313A354000000000000144000
  0
ACAD_PROXY_OBJECT
  5
4C
102
{ACAD_REACTORS
330
47
102
}
330
47
100
AcDbZombieObject
 90
      499
 91
      503
 93
      105
310
903313A384000000000000204000
  0
ACAD_PROXY_OBJECT
  5
4D
102
{ACAD_REACTORS
330
47
102
}
330
47
100
AcDbZombieObject
 90
      499
 91
      503
 93
      113
310
904313A31304000000000000244000
  0
ACAD_PROXY_OBJECT
  5
4E
102
{ACAD_REACTORS
330
47
102
}
330
47
100
AcDbZombieObject
 90
      499
 91
      503
 93
      113
310
904313A31364000000000000304000
  0
ACAD_PROXY_OBJECT
  5
4F
102
{ACAD_REACTORS
330
47
102
}
330
47
100
AcDbZombieObject
 90
      499
 91
      503
 93
      113
310
904313A32304000000000000344000
  0
ACAD_PROXY_OBJECT
  5
50
102
{ACAD_REACTORS
330
47
102
}
330
47
100
AcDbZombieObject
 90
      499
 91
      503
 93
      113
310
904313A333040000000000003E4000
  0
ACAD_PROXY_OBJECT
  5
51
102
{ACAD_REACTORS
330
47
102
}
330
47
100
AcDbZombieObject
 90
      499
 91
      503
 93
      113
310
904313A34304000000000000444000
  0
ACAD_PROXY_OBJECT
  5
52
102
{ACAD_REACTORS
330
47
102
}
330
47
100
AcDbZombieObject
 90
      499
 91
      503
 93
      113
310
904313A35304000000000000494000
  0
ACAD_PROXY_OBJECT
  5
53
102
{ACAD_REACTORS
330
47
102
}
330
47
100
AcDbZombieObject
 90
      499
 91
      503
 93
      121
310
905313A3130304000000000000594000
  0
ACAD_PROXY_OBJECT
  5
54
102
{ACAD_REACTORS
330
47
102
}
330
47
100
AcDbZombieObject
 90
      499
 91
      503
 93
      105
310
903323A310000000000000010100
  0
ACAD_PROXY_OBJECT
  5
55
102
{ACAD_REACTORS
330
47
102
}
330
47
100
AcDbZombieObject
 90
      499
 91
      503
 93
      105
310
903343A310000000000000410100
  0
ACAD_PROXY_OBJECT
  5
56
102
{ACAD_REACTORS
330
47
102
}
330
47
100
AcDbZombieObject
 90
      499
 91
      503
 93
      105
310
903383A310000000000000810100
  0
ACAD_PROXY_OBJECT
  5
57
102
{ACAD_REACTORS
330
47
102
}
330
47
100
AcDbZombieObject
 90
      499
 91
      503
 93
      113
310
90431303A310000000000000910100
  0
ACAD_PROXY_OBJECT
  5
58
102
{ACAD_REACTORS
330
47
102
}
330
47
100
AcDbZombieObject
 90
      499
 91
      503
 93
      121
310
9053130303A310000000000001650100
  0
ACAD_PROXY_OBJECT
  5
59
102
{ACAD_REACTORS
330
47
102
}
330
47
100
AcDbZombieObject
 90
      499
 91
      503
 93
      257
310
90E312F31323822203D2031272D3022000000000000200FC000000000000284000
  0
ACAD_PROXY_OBJECT
  5
5A
102
{ACAD_REACTORS
330
47
102
}
330
47
100
AcDbZombieObject
 90
      499
 91
      503
 93
      249
310
90D312F363422203D2031272D3022000000000000240FC000000000000284000
  0
ACAD_PROXY_OBJECT
  5
5B
102
{ACAD_REACTORS
330
47
102
}
330
47
100
AcDbZombieObject
 90
      499
 91
      503
 93
      249
310
90D312F333222203D2031272D3022000000000000280FC000000000000284000
  0
ACAD_PROXY_OBJECT
  5
5C
102
{ACAD_REACTORS
330
47
102
}
330
47
100
AcDbZombieObject
 90
      499
 91
      503
 93
      249
310
90D312F313622203D2031272D30220000000000002C0FC000000000000284000
  0
ACAD_PROXY_OBJECT
  5
5D
102
{ACAD_REACTORS
330
47
102
}
330
47
100
AcDbZombieObject
 90
      499
 91
      503
 93
      249
310
90D332F333222203D2031272D30220000000000002E0FC000000000000284000
  0
ACAD_PROXY_OBJECT
  5
5E
102
{ACAD_REACTORS
330
47
102
}
330
47
100
AcDbZombieObject
 90
      499
 91
      503
 93
      241
310
90C312F3822203D2031272D3022000000000000300FC000000000000284000
  0
ACAD_PROXY_OBJECT
  5
5F
102
{ACAD_REACTORS
330
47
102
}
330
47
100
AcDbZombieObject
 90
      499
 91
      503
 93
      249
310
90D332F313622203D2031272D3022000000000000320FC000000000000284000
  0
ACAD_PROXY_OBJECT
  5
60
102
{ACAD_REACTORS
330
47
102
}
330
47
100
AcDbZombieObject
 90
      499
 91
      503
 93
      241
310
90C312F3422203D2031272D3022000000000000340FC000000000000284000
  0
ACAD_PROXY_OBJECT
  5
61
102
{ACAD_REACTORS
330
47
102
}
330
47
100
AcDbZombieObject
 90
      499
 91
      503
 93
      241
310
90C332F3822203D2031272D3022000000000000360FC000000000000284000
  0
ACAD_PROXY_OBJECT
  5
62
102
{ACAD_REACTORS
330
47
102
}
330
47
100
AcDbZombieObject
 90
      499
 91
      503
 93
      241
310
90C312F3222203D2031272D3022000000000000380FC000000000000284000
  0
ACAD_PROXY_OBJECT
  5
63
102
{ACAD_REACTORS
330
47
102
}
330
47
100
AcDbZombieObject
 90
      499
 91
      503
 93
      241
310
90C332F3422203D2031272D30220000000000003A0FC000000000000284000
  0
ACAD_PROXY_OBJECT
  5
64
102
{ACAD_REACTORS
330
47
102
}
330
47
100
AcDbZombieObject
 90
      499
 91
      503
 93
      161
310
90A3122203D2031272D30224000000000000284000
  0
ACAD_PROXY_OBJECT
  5
65
102
{ACAD_REACTORS
330
47
102
}
330
47
100
AcDbZombieObject
 90
      499
 91
      503
 93
      257
310
90E312D312F3222203D2031272D30220000000000003E0FC000000000000284000
  0
ACAD_PROXY_OBJECT
  5
66
102
{ACAD_REACTORS
330
47
102
}
330
47
100
AcDbZombieObject
 90
      499
 91
      503
 93
      225
310
90A3322203D2031272D302200000000000002100000000000000284000
  0
ACAD_PROXY_OBJECT
  5
67
102
{ACAD_REACTORS
330
47
102
}
330
47
100
AcDbZombieObject
 90
      499
 91
      503
 93
      225
310
90A3622203D2031272D302200000000000006100000000000000284000
  0
ACAD_PROXY_OBJECT
  5
68
102
{ACAD_REACTORS
330
47
102
}
330
47
100
AcDbZombieObject
 90
      499
 91
      503
 93
      249
310
90D31272D3022203D2031272D30220000000000000A100000000000000284000
  0
ACAD_PROXY_OBJECT
  5
2F
102
{ACAD_REACTORS
330
2A
102
}
330
2A
100
AcDbZombieObject
 90
      499
 91
      501
 93
      436
310
42CC9915DA5C99599C985B595049028333333333333E33F0000000000000F90107901411070040501600405405064090741402480A0340
1001
ACAD
1000
AcDbSavedByObjectVersion
1070
     0
  0
ACAD_PROXY_OBJECT
  5
32
102
{ACAD_REACTORS
330
2A
102
}
330
2A
100
AcDbZombieObject
 90
      499
 91
      501
 93
      388
310
4150985CDA58D07406404333333333333E33F0000000000000F90107A41107004050150841D405064090741402480A0350
1001
ACAD
1000
AcDbSavedByObjectVersion
1070
     0
  0
ACAD_PROXY_OBJECT
  5
36
102
{ACAD_REACTORS
330
2A
102
}
330
2A
100
AcDbZombieObject
 90
      499
 91
      501
 93
      428
310
42109C9A59DA1D195B90C409028333333333333E33F0000000000000F9010790141107004050150841D405064090741402480A029950
1001
ACAD
1000
AcDbSavedByObjectVersion
1070
     0
  0
ACAD_PROXY_OBJECT
  5
3A
102
{ACAD_REACTORS
330
2A
102
}
330
2A
100
AcDbZombieObject
 90
      499
 91
      501
 93
      452
310
42D0DBDB1BDC90DA185B99D95104090240C333333333333E33F0000000000000F90108901411070040501508421405064090741402480A0350
1001
ACAD
1000
AcDbSavedByObjectVersion
1070
     0
  0
ACAD_PROXY_OBJECT
  5
34
102
{ACAD_REACTORS
330
2A
102
}
330
2A
100
AcDbZombieObject
 90
      499
 91
      501
 93
      500
310
4290DBDB98D95C1D1D585B10940D028333333333333E33F0000000000000F90107902409070040501000000000018199010841D405064090740C02480A0340
1001
ACAD
1000
AcDbSavedByObjectVersion
1070
     0
  0
ACAD_PROXY_OBJECT
  5
35
102
{ACAD_REACTORS
330
2A
102
}
330
2A
100
AcDbZombieObject
 90
      499
 91
      501
 93
      412
310
40D11A5B50B409028333333333333E33F0000000000000F9010790141107004050150841D405064090741402480A02677FFFFFD0
1001
ACAD
1000
AcDbSavedByObjectVersion
1070
     0
  0
ACAD_PROXY_OBJECT
  5
3D
102
{ACAD_REACTORS
330
2A
102
}
330
2A
100
AcDbZombieObject
 90
      499
 91
      501
 93
      452
310
43115919D950DBDB1BDC93D999916409028333333333333E33F0000000000000F9010790141107004050150841D405064090741402480A0350
1001
ACAD
1000
AcDbSavedByObjectVersion
1070
     0
  0
ACAD_PROXY_OBJECT
  5
39
102
{ACAD_REACTORS
330
2A
102
}
330
2A
100
AcDbZombieObject
 90
      499
 91
      501
 93
      444
310
42D19858D95C185D1D195C9B90F409028333333333333E33F0000000000000F9010790141107004050150841D405064090741402480A0350
1001
ACAD
1000
AcDbSavedByObjectVersion
1070
     0
  0
ACAD_PROXY_OBJECT
  5
2B
102
{ACAD_REACTORS
330
2A
102
}
330
2A
100
AcDbZombieObject
 90
      499
 91
      501
 93
      380
310
41119B185D240901404333333333333E33F0000000000000F9010740A907004050150841D405064090741402480A1B50
1001
ACAD
1000
AcDbSavedByObjectVersion
1070
     0
  0
ACAD_PROXY_OBJECT
  5
2C
102
{ACAD_REACTORS
330
2A
102
}
330
2A
100
AcDbZombieObject
 90
      499
 91
      501
 93
      468
310
43519B185D15DA5D1A115919D95CD0140901404333333333333E33F0000000000000F90107409019070040501600405405064090741402480A1B50
1001
ACAD
1000
AcDbSavedByObjectVersion
1070
     0
  0
ACAD_PROXY_OBJECT
  5
2D
102
{ACAD_REACTORS
330
2A
102
}
330
2A
100
AcDbZombieObject
 90
      499
 91
      501
 93
      404
310
41D1DBDD5C985D5910240902404333333333333E33F0000000000000F9010740A9070040501641D405064090741402480A1B50
1001
ACAD
1000
AcDbSavedByObjectVersion
1070
     0
  0
ACAD_PROXY_OBJECT
  5
2E
102
{ACAD_REACTORS
330
2A
102
}
330
2A
100
AcDbZombieObject
 90
      499
 91
      501
 93
      492
310
4411DBDD5C985D5915DA5D1A115919D95CD0340902404333333333333E33F0000000000000F90107409019070040501600405405064090741402480A1B50
1001
ACAD
1000
AcDbSavedByObjectVersion
1070
     0
  0
ACAD_PROXY_OBJECT
  5
31
102
{ACAD_REACTORS
330
2A
102
}
330
2A
100
AcDbZombieObject
 90
      499
 91
      501
 93
      476
310
41921A5919195B90640502408333333333333E33F0000000000000F901079024090700405020000000000001110200405405064090740C02480A0340
1001
ACAD
1000
AcDbSavedByObjectVersion
1070
     0
  0
ACAD_PROXY_OBJECT
  5
3B
102
{ACAD_REACTORS
330
2A
102
}
330
2A
100
AcDbZombieObject
 90
      499
 91
      501
 93
      428
310
42529A5D1D195C93D999914409028333333333333E33F0000000000000F9010790141107004050150A41D405064090741402480A0350
1001
ACAD
1000
AcDbSavedByObjectVersion
1070
     0
  0
ACAD_PROXY_OBJECT
  5
38
102
{ACAD_REACTORS
330
2A
102
}
330
2A
100
AcDbZombieObject
 90
      499
 91
      501
 93
      444
310
42D31A5B995C185D1D195C9B90E409028333333333333E33F0000000000000F9010790141107004050750841D405064090741402483A0350
1001
ACAD
1000
AcDbSavedByObjectVersion
1070
     0
  0
ACAD_PROXY_OBJECT
  5
3C
102
{ACAD_REACTORS
330
2A
102
}
330
2A
100
AcDbZombieObject
 90
      499
 91
      501
 93
      444
310
42D3DD995C9A185B99D3D999915409028333333333333E33F0000000000000F9010790141107004050150941D405064090741402480A0350
1001
ACAD
1000
AcDbSavedByObjectVersion
1070
     0
  0
ACAD_PROXY_OBJECT
  5
33
102
{ACAD_REACTORS
330
2A
102
}
330
2A
100
AcDbZombieObject
 90
      499
 91
      501
 93
      428
310
425499585B1A5CDD1A58D08409038333333333333E33F0000000000000F9010740A907004050150800405405064090740C02480A1B40
1001
ACAD
1000
AcDbSavedByObjectVersion
1070
     0
  0
ACAD_PROXY_OBJECT
  5
42
102
{ACAD_REACTORS
330
2A
102
}
330
2A
100
AcDbZombieObject
 90
      499
 91
      501
 93
      420
310
4194DA1859195911B40902404333333333333E33F0000000000000F9010740A41107004050150800405405064090840C02480A0B40
1001
ACAD
1000
AcDbSavedByObjectVersion
1070
     0
  0
ACAD_PROXY_OBJECT
  5
41
102
{ACAD_REACTORS
330
2A
102
}
330
2A
100
AcDbZombieObject
 90
      499
 91
      501
 93
      516
310
4454DA18591959081DDA5D1A08195919D95CD1A40902404333333333333E33F0000000000000F901074090142907004050250800405405064090740C02480A0B40
1001
ACAD
1000
AcDbSavedByObjectVersion
1070
     0
  0
ACAD_PROXY_OBJECT
  5
3E
102
{ACAD_REACTORS
330
2A
102
}
330
2A
100
AcDbZombieObject
 90
      499
 91
      501
 93
      532
310
4394DA1859195CC81BD98811DC985E5174090240C333333333333E33F0000000000000F901079024090741D01000000000000111010841D405064090740C02480A0340
1001
ACAD
1000
AcDbSavedByObjectVersion
1070
     0
  0
ACAD_PROXY_OBJECT
  5
3F
102
{ACAD_REACTORS
330
2A
102
}
330
2A
100
AcDbZombieObject
 90
      499
 91
      501
 93
      476
310
41D4DAD95D18DA1E51840502408333333333333E33F0000000000000F901079024090741D01000000000000111010B41D405064090741802480A0340
1001
ACAD
1000
AcDbSavedByObjectVersion
1070
     0
  0
ACAD_PROXY_OBJECT
  5
37
102
{ACAD_REACTORS
330
2A
102
}
330
2A
100
AcDbZombieObject
 90
      499
 91
      501
 93
      412
310
41D51A1A58DAD95B90D409028333333333333E33F0000000000000F9010790141107004050150C41D405064090741402480A0350
1001
ACAD
1000
AcDbSavedByObjectVersion
1070
     0
  0
ACAD_PROXY_OBJECT
  5
30
102
{ACAD_REACTORS
330
2A
102
}
330
2A
100
AcDbZombieObject
 90
      499
 91
      501
 93
      420
310
4255DA5C99599C985B595059028333333333333E33F0000000000000F90107901411070040501600405405064090740C02480A0340
1001
ACAD
1000
AcDbSavedByObjectVersion
1070
     0
  0
ACAD_PROXY_OBJECT
  5
40
102
{ACAD_REACTORS
330
2A
102
}
330
2A
100
AcDbZombieObject
 90
      499
 91
      501
 93
      404
310
41560B54985E51940902404000000000000E03F0000000000000F9010740501907004050150841D405064090740C02480A1B40
1001
ACAD
1000
AcDbSavedByObjectVersion
1070
     0
  0
DICTIONARYVAR
  5
823
102
{ACAD_REACTORS
330
818
102
}
330
818
100
DictionaryVariables
280
     0
  1
1:1
  0
DICTIONARYVAR
  5
81F
102
{ACAD_REACTORS
330
818
102
}
330
818
100
DictionaryVariables
280
     0
  1
3.500000
  0
DICTIONARYVAR
  5
820
102
{ACAD_REACTORS
330
818
102
}
330
818
100
DictionaryVariables
280
     0
  1
acadiso.lin
  0
DICTIONARYVAR
  5
81A
102
{ACAD_REACTORS
330
818
102
}
330
818
100
DictionaryVariables
280
     0
  1
Standard
  0
DICTIONARYVAR
  5
819
102
{ACAD_REACTORS
330
818
102
}
330
818
100
DictionaryVariables
280
     0
  1
Standard
  0
DICTIONARYVAR
  5
821
102
{ACAD_REACTORS
330
818
102
}
330
818
100
DictionaryVariables
280
     0
  1
2
  0
DICTIONARYVAR
  5
822
102
{ACAD_REACTORS
330
818
102
}
330
818
100
DictionaryVariables
280
     0
  1
1
  0
DICTIONARYVAR
  5
824
102
{ACAD_REACTORS
330
818
102
}
330
818
100
DictionaryVariables
280
     0
  1
1
  0
DICTIONARYVAR
  5
81C
102
{ACAD_REACTORS
330
818
102
}
330
818
100
DictionaryVariables
280
     0
  1
80.000000
  0
DICTIONARYVAR
  5
81B
102
{ACAD_REACTORS
330
818
102
}
330
818
100
DictionaryVariables
280
     0
  1
5.000000
  0
DICTIONARY
  5
827
330
45
100
AcDbDictionary
  3
ACAD_XREC_ROUNDTRIP
360
828
1001
ACAD
1000
TREAT_AS_HARD
1070
     1
  0
DICTIONARY
  5
825
330
44
100
AcDbDictionary
  3
ACAD_XREC_ROUNDTRIP
360
826
1001
ACAD
1000
TREAT_AS_HARD
1070
     1
  0
DICTIONARY
  5
829
330
46
100
AcDbDictionary
  3
ACAD_XREC_ROUNDTRIP
360
82A
1001
ACAD
1000
TREAT_AS_HARD
1070
     1
  0
XRECORD
  5
828
102
{ACAD_REACTORS
330
827
102
}
330
827
100
AcDbXrecord
102
MATERIAL
148
0.0
149
0.0
149
0.0
 93
        0
 94
      127
282
     0
 72
     1
 77
     1
171
     1
175
     1
179
     1
273
     0
  0
XRECORD
  5
826
102
{ACAD_REACTORS
330
825
102
}
330
825
100
AcDbXrecord
102
MATERIAL
148
0.0
149
0.0
149
0.0
 93
        0
 94
      127
282
     0
 72
     1
 77
     1
171
     1
175
     1
179
     1
273
     0
  0
XRECORD
  5
82A
102
{ACAD_REACTORS
330
829
102
}
330
829
100
AcDbXrecord
102
MATERIAL
148
0.0
149
0.0
149
0.0
 93
        0
 94
      127
282
     0
 72
     1
 77
     1
171
     1
175
     1
179
     1
273
     0
  0
ENDSEC
  0
EOF
