  0
SECTION
  2
HEADER
  9
$ACADVER
  1
AC1012
  9
$DWGCODEPAGE
  3
ansi_932
  9
$INSBASE
 10
0.0
 20
0.0
 30
0.0
  9
$EXTMIN
 10
0.0
 20
0.0
 30
0.0
  9
$EXTMAX
 10
3640.0
 20
2570.0
 30
0.0
  9
$LIMMIN
 10
0.0
 20
0.0
  9
$LIMMAX
 10
3640.0
 20
2570.0
  9
$ORTHOMODE
 70
     0
  9
$REGENMODE
 70
     1
  9
$FILLMODE
 70
     1
  9
$QTEXTMODE
 70
     0
  9
$MIRRTEXT
 70
     1
  9
$DRAGMODE
 70
     2
  9
$LTSCALE
 40
1.0
  9
$OSMODE
 70
    37
  9
$ATTMODE
 70
     1
  9
$TEXTSIZE
 40
2.5
  9
$TRACEWID
 40
1.0
  9
$TEXTSTYLE
  7
ED_VECTOR
  9
$CLAYER
  8
0
  9
$CELTYPE
  6
BYLAYER
  9
$CECOLOR
 62
   256
  9
$CELTSCALE
 40
1.0
  9
$DELOBJ
 70
     1
  9
$DISPSILH
 70
     0
  9
$DIMSCALE
 40
1.0
  9
$DIMASZ
 40
30.0
  9
$DIMEXO
 40
10.0
  9
$DIMDLI
 40
0.1
  9
$DIMRND
 40
0.0
  9
$DIMDLE
 40
40.0
  9
$DIMEXE
 40
10.0
  9
$DIMTP
 40
0.0
  9
$DIMTM
 40
0.0
  9
$DIMTXT
 40
40.0
  9
$DIMCEN
 40
2.5
  9
$DIMTSZ
 40
0.0
  9
$DIMTOL
 70
     0
  9
$DIMLIM
 70
     0
  9
$DIMTIH
 70
     0
  9
$DIMTOH
 70
     0
  9
$DIMSE1
 70
     0
  9
$DIMSE2
 70
     0
  9
$DIMTAD
 70
     1
  9
$DIMZIN
 70
     8
  9
$DIMBLK
  1

  9
$DIMASO
 70
     1
  9
$DIMSHO
 70
     1
  9
$DIMPOST
  1

  9
$DIMAPOST
  1

  9
$DIMALT
 70
     0
  9
$DIMALTD
 70
     3
  9
$DIMALTF
 40
0.03937
  9
$DIMLFAC
 40
1.0
  9
$DIMTOFL
 70
     1
  9
$DIMTVP
 40
0.0
  9
$DIMTIX
 70
     0
  9
$DIMSOXD
 70
     0
  9
$DIMSAH
 70
     1
  9
$DIMBLK1
  1
EDTIP_ARROW_S
  9
$DIMBLK2
  1
EDTIP_ARROW_E
  9
$DIMSTYLE
  2
EDDIMINFO
  9
$DIMCLRD
 70
     5
  9
$DIMCLRE
 70
     5
  9
$DIMCLRT
 70
     4
  9
$DIMTFAC
 40
1.0
  9
$DIMGAP
 40
10.0
  9
$DIMJUST
 70
     0
  9
$DIMSD1
 70
     0
  9
$DIMSD2
 70
     0
  9
$DIMTOLJ
 70
     0
  9
$DIMTZIN
 70
     8
  9
$DIMALTZ
 70
     0
  9
$DIMALTTZ
 70
     0
  9
$DIMFIT
 70
     3
  9
$DIMUPT
 70
     0
  9
$DIMUNIT
 70
     2
  9
$DIMDEC
 70
     0
  9
$DIMTDEC
 70
     2
  9
$DIMALTU
 70
     2
  9
$DIMALTTD
 70
     3
  9
$DIMTXSTY
  7
ED_VECTOR
  9
$DIMAUNIT
 70
     0
  9
$LUNITS
 70
     2
  9
$LUPREC
 70
     4
  9
$SKETCHINC
 40
1.0
  9
$FILLETRAD
 40
10.0
  9
$AUNITS
 70
     0
  9
$AUPREC
 70
     0
  9
$MENU
  1
.
  9
$ELEVATION
 40
0.0
  9
$PELEVATION
 40
0.0
  9
$THICKNESS
 40
0.0
  9
$LIMCHECK
 70
     0
  9
$CHAMFERA
 40
0.0
  9
$CHAMFERB
 40
0.0
  9
$CHAMFERC
 40
0.0
  9
$CHAMFERD
 40
0.0
  9
$SKPOLY
 70
     0
  9
$TDCREATE
 40
2458877.664494456
  9
$TDUPDATE
 40
2458877.664496123
  9
$TDINDWG
 40
0.0000000116
  9
$TDUSRTIMER
 40
0.0000000116
  9
$USRTIMER
 70
     1
  9
$ANGBASE
 50
0.0
  9
$ANGDIR
 70
     0
  9
$PDMODE
 70
     0
  9
$PDSIZE
 40
0.0
  9
$PLINEWID
 40
0.0
  9
$COORDS
 70
     1
  9
$SPLFRAME
 70
     0
  9
$SPLINETYPE
 70
     6
  9
$SPLINESEGS
 70
     8
  9
$ATTDIA
 70
     0
  9
$ATTREQ
 70
     1
  9
$HANDLING
 70
     1
  9
$HANDSEED
  5
81A
  9
$SURFTAB1
 70
     6
  9
$SURFTAB2
 70
     6
  9
$SURFTYPE
 70
     6
  9
$SURFU
 70
     6
  9
$SURFV
 70
     6
  9
$UCSNAME
  2

  9
$UCSORG
 10
0.0
 20
0.0
 30
0.0
  9
$UCSXDIR
 10
1.0
 20
0.0
 30
0.0
  9
$UCSYDIR
 10
0.0
 20
1.0
 30
0.0
  9
$PUCSNAME
  2

  9
$PUCSORG
 10
0.0
 20
0.0
 30
0.0
  9
$PUCSXDIR
 10
1.0
 20
0.0
 30
0.0
  9
$PUCSYDIR
 10
0.0
 20
1.0
 30
0.0
  9
$USERI1
 70
     0
  9
$USERI2
 70
     0
  9
$USERI3
 70
     0
  9
$USERI4
 70
     0
  9
$USERI5
 70
     0
  9
$USERR1
 40
0.0
  9
$USERR2
 40
0.0
  9
$USERR3
 40
0.0
  9
$USERR4
 40
0.0
  9
$USERR5
 40
0.0
  9
$WORLDVIEW
 70
     1
  9
$SHADEDGE
 70
     3
  9
$SHADEDIF
 70
    70
  9
$TILEMODE
 70
     1
  9
$MAXACTVP
 70
    64
  9
$PINSBASE
 10
0.0
 20
0.0
 30
0.0
  9
$PLIMCHECK
 70
     0
  9
$PEXTMIN
 10
1.000000E+20
 20
1.000000E+20
 30
1.000000E+20
  9
$PEXTMAX
 10
-1.000000E+20
 20
-1.000000E+20
 30
-1.000000E+20
  9
$PLIMMIN
 10
0.0
 20
0.0
  9
$PLIMMAX
 10
420.0
 20
297.0
  9
$UNITMODE
 70
     0
  9
$VISRETAIN
 70
     1
  9
$PLINEGEN
 70
     0
  9
$PSLTSCALE
 70
     1
  9
$TREEDEPTH
 70
  3020
  9
$PICKSTYLE
 70
     1
  9
$CMLSTYLE
  2
STANDARD
  9
$CMLJUST
 70
     0
  9
$CMLSCALE
 40
20.0
  9
$SAVEIMAGES
 70
     1
  0
ENDSEC
  0
SECTION
  2
CLASSES
  0
CLASS
  1
ACDBDICTIONARYWDFLT
  2
AcDbDictionaryWithDefault
  3
ObjectDBX Classes
 90
    32768
280
     0
281
     0
  0
CLASS
  1
VISUALSTYLE
  2
AcDbVisualStyle
  3
ObjectDBX Classes
 90
     4095
280
     0
281
     0
  0
CLASS
  1
MATERIAL
  2
AcDbMaterial
  3
ObjectDBX Classes
 90
     1153
280
     0
281
     0
  0
CLASS
  1
SCALE
  2
AcDbScale
  3
ObjectDBX Classes
 90
     1153
280
     0
281
     0
  0
CLASS
  1
TABLESTYLE
  2
AcDbTableStyle
  3
ObjectDBX Classes
 90
     4095
280
     0
281
     0
  0
CLASS
  1
MLEADERSTYLE
  2
AcDbMLeaderStyle
  3
ACDB_MLEADERSTYLE_CLASS
 90
     4095
280
     0
281
     0
  0
CLASS
  1
SUN
  2
AcDbSun
  3
SCENEOE
 90
     1153
280
     0
281
     0
  0
CLASS
  1
DICTIONARYVAR
  2
AcDbDictionaryVar
  3
ObjectDBX Classes
 90
        0
280
     0
281
     0
  0
CLASS
  1
XRECORD
  2
AcDbXrecord
  3
ObjectDBX Classes
 90
    32768
280
     0
281
     0
  0
CLASS
  1
LWPOLYLINE
  2
AcDbPolyline
  3
ObjectDBX Classes
 90
    32768
280
     0
281
     1
  0
CLASS
  1
HATCH
  2
AcDbHatch
  3
ObjectDBX Classes
 90
    32768
280
     0
281
     1
  0
CLASS
  1
ACDBPLACEHOLDER
  2
AcDbPlaceHolder
  3
ObjectDBX Classes
 90
        0
280
     0
281
     0
  0
CLASS
  1
LAYOUT
  2
AcDbLayout
  3
ObjectDBX Classes
 90
        0
280
     0
281
     0
  0
ENDSEC
  0
SECTION
  2
TABLES
  0
TABLE
  2
VPORT
  5
8
330
0
100
AcDbSymbolTable
 70
     1
  0
VPORT
  5
29
330
8
100
AcDbSymbolTableRecord
100
AcDbViewportTableRecord
  2
*ACTIVE
 70
     0
 10
0.0
 20
0.0
 11
1.0
 21
1.0
 12
1820.0
 22
1285.0
 13
0.0
 23
0.0
 14
10.0
 24
10.0
 15
10.0
 25
10.0
 16
0.0
 26
0.0
 36
1.0
 17
0.0
 27
0.0
 37
0.0
 40
2570.0
 41
1.416342
 42
50.0
 43
0.0
 44
0.0
 50
0.0
 51
0.0
 71
     0
 72
   100
 73
     1
 74
     3
 75
     0
 76
     0
 77
     0
 78
     0
  0
ENDTAB
  0
TABLE
  2
LTYPE
  5
5
330
0
100
AcDbSymbolTable
 70
     5
  0
LTYPE
  5
14
330
5
100
AcDbSymbolTableRecord
100
AcDbLinetypeTableRecord
  2
BYBLOCK
 70
     0
  3

 72
    65
 73
     0
 40
0.0
  0
LTYPE
  5
15
330
5
100
AcDbSymbolTableRecord
100
AcDbLinetypeTableRecord
  2
BYLAYER
 70
     0
  3

 72
    65
 73
     0
 40
0.0
  0
LTYPE
  5
16
330
5
100
AcDbSymbolTableRecord
100
AcDbLinetypeTableRecord
  2
CONTINUOUS
 70
     0
  3
--------------------
 72
    65
 73
     0
 40
0.0
  0
LTYPE
  5
6E
330
5
100
AcDbSymbolTableRecord
100
AcDbLinetypeTableRecord
  2
DASHED
 70
     0
  3
- - - - - - - - - - -
 72
    65
 73
     2
 40
19.1
 49
12.7
 74
     0
 49
-6.4
 74
     0
  0
LTYPE
  5
6F
330
5
100
AcDbSymbolTableRecord
100
AcDbLinetypeTableRecord
  2
CENTER
 70
     0
  3
- ･ - ･ - ･ - ･ - ･ - ･ - ･ - ･ - ･ - ･ -
 72
    65
 73
     4
 40
51.0
 49
31.8
 74
     0
 49
-6.4
 74
     0
 49
6.4
 74
     0
 49
-6.4
 74
     0
  0
LTYPE
  5
70
330
5
100
AcDbSymbolTableRecord
100
AcDbLinetypeTableRecord
  2
PHANTOM
 70
     0
  3
- ･ ･ - ･ ･ - ･ ･ - ･ ･ - ･ ･ - ･ ･ - ･ ･ - 
 72
    65
 73
     6
 40
63.8
 49
31.8
 74
     0
 49
-6.4
 74
     0
 49
6.4
 74
     0
 49
-6.4
 74
     0
 49
6.4
 74
     0
 49
-6.4
 74
     0
  0
LTYPE
  5
71
330
5
100
AcDbSymbolTableRecord
100
AcDbLinetypeTableRecord
  2
DOT
 70
     0
  3
・・・・・・・・・・・・・・・
 72
    65
 73
     2
 40
6.5
 49
0.1
 74
     0
 49
-6.4
 74
     0
  0
ENDTAB
  0
TABLE
  2
LAYER
  5
2
330
0
100
AcDbSymbolTable
 70
    65
  0
LAYER
  5
10
330
2
100
AcDbSymbolTableRecord
100
AcDbLayerTableRecord
  2
0
 70
     0
 62
     7
  6
CONTINUOUS
  0
LAYER
  5
72
330
2
100
AcDbSymbolTableRecord
100
AcDbLayerTableRecord
  2
LAYER002
 70
     0
 62
     7
  6
CONTINUOUS
  0
LAYER
  5
73
330
2
100
AcDbSymbolTableRecord
100
AcDbLayerTableRecord
  2
LAYER003
 70
     0
 62
     7
  6
CONTINUOUS
  0
LAYER
  5
74
330
2
100
AcDbSymbolTableRecord
100
AcDbLayerTableRecord
  2
LAYER004
 70
     0
 62
     7
  6
CONTINUOUS
  0
LAYER
  5
75
330
2
100
AcDbSymbolTableRecord
100
AcDbLayerTableRecord
  2
LAYER005
 70
     0
 62
     7
  6
CONTINUOUS
  0
LAYER
  5
76
330
2
100
AcDbSymbolTableRecord
100
AcDbLayerTableRecord
  2
LAYER006
 70
     0
 62
     7
  6
CONTINUOUS
  0
LAYER
  5
77
330
2
100
AcDbSymbolTableRecord
100
AcDbLayerTableRecord
  2
LAYER007
 70
     0
 62
     7
  6
CONTINUOUS
  0
LAYER
  5
78
330
2
100
AcDbSymbolTableRecord
100
AcDbLayerTableRecord
  2
LAYER008
 70
     0
 62
     7
  6
CONTINUOUS
  0
LAYER
  5
79
330
2
100
AcDbSymbolTableRecord
100
AcDbLayerTableRecord
  2
LAYER009
 70
     0
 62
     7
  6
CONTINUOUS
  0
LAYER
  5
7A
330
2
100
AcDbSymbolTableRecord
100
AcDbLayerTableRecord
  2
LAYER010
 70
     0
 62
     7
  6
CONTINUOUS
  0
LAYER
  5
7B
330
2
100
AcDbSymbolTableRecord
100
AcDbLayerTableRecord
  2
LAYER011
 70
     0
 62
     7
  6
CONTINUOUS
  0
LAYER
  5
7C
330
2
100
AcDbSymbolTableRecord
100
AcDbLayerTableRecord
  2
LAYER012
 70
     0
 62
     7
  6
CONTINUOUS
  0
LAYER
  5
7D
330
2
100
AcDbSymbolTableRecord
100
AcDbLayerTableRecord
  2
LAYER013
 70
     0
 62
     7
  6
CONTINUOUS
  0
LAYER
  5
7E
330
2
100
AcDbSymbolTableRecord
100
AcDbLayerTableRecord
  2
LAYER014
 70
     0
 62
     7
  6
CONTINUOUS
  0
LAYER
  5
7F
330
2
100
AcDbSymbolTableRecord
100
AcDbLayerTableRecord
  2
LAYER015
 70
     0
 62
     7
  6
CONTINUOUS
  0
LAYER
  5
80
330
2
100
AcDbSymbolTableRecord
100
AcDbLayerTableRecord
  2
LAYER016
 70
     0
 62
     7
  6
CONTINUOUS
  0
LAYER
  5
81
330
2
100
AcDbSymbolTableRecord
100
AcDbLayerTableRecord
  2
LAYER017
 70
     0
 62
     7
  6
CONTINUOUS
  0
LAYER
  5
82
330
2
100
AcDbSymbolTableRecord
100
AcDbLayerTableRecord
  2
LAYER018
 70
     0
 62
     7
  6
CONTINUOUS
  0
LAYER
  5
83
330
2
100
AcDbSymbolTableRecord
100
AcDbLayerTableRecord
  2
LAYER019
 70
     0
 62
     7
  6
CONTINUOUS
  0
LAYER
  5
84
330
2
100
AcDbSymbolTableRecord
100
AcDbLayerTableRecord
  2
LAYER020
 70
     0
 62
     7
  6
CONTINUOUS
  0
LAYER
  5
85
330
2
100
AcDbSymbolTableRecord
100
AcDbLayerTableRecord
  2
LAYER021
 70
     0
 62
     7
  6
CONTINUOUS
  0
LAYER
  5
86
330
2
100
AcDbSymbolTableRecord
100
AcDbLayerTableRecord
  2
LAYER022
 70
     0
 62
     7
  6
CONTINUOUS
  0
LAYER
  5
87
330
2
100
AcDbSymbolTableRecord
100
AcDbLayerTableRecord
  2
LAYER023
 70
     0
 62
     7
  6
CONTINUOUS
  0
LAYER
  5
88
330
2
100
AcDbSymbolTableRecord
100
AcDbLayerTableRecord
  2
LAYER024
 70
     0
 62
     7
  6
CONTINUOUS
  0
LAYER
  5
89
330
2
100
AcDbSymbolTableRecord
100
AcDbLayerTableRecord
  2
LAYER025
 70
     0
 62
     7
  6
CONTINUOUS
  0
LAYER
  5
8A
330
2
100
AcDbSymbolTableRecord
100
AcDbLayerTableRecord
  2
LAYER026
 70
     0
 62
     7
  6
CONTINUOUS
  0
LAYER
  5
8B
330
2
100
AcDbSymbolTableRecord
100
AcDbLayerTableRecord
  2
LAYER027
 70
     0
 62
     7
  6
CONTINUOUS
  0
LAYER
  5
8C
330
2
100
AcDbSymbolTableRecord
100
AcDbLayerTableRecord
  2
LAYER028
 70
     0
 62
     7
  6
CONTINUOUS
  0
LAYER
  5
8D
330
2
100
AcDbSymbolTableRecord
100
AcDbLayerTableRecord
  2
LAYER029
 70
     0
 62
     7
  6
CONTINUOUS
  0
LAYER
  5
8E
330
2
100
AcDbSymbolTableRecord
100
AcDbLayerTableRecord
  2
LAYER030
 70
     0
 62
     7
  6
CONTINUOUS
  0
LAYER
  5
8F
330
2
100
AcDbSymbolTableRecord
100
AcDbLayerTableRecord
  2
LAYER031
 70
     0
 62
     7
  6
CONTINUOUS
  0
LAYER
  5
90
330
2
100
AcDbSymbolTableRecord
100
AcDbLayerTableRecord
  2
LAYER032
 70
     0
 62
     7
  6
CONTINUOUS
  0
LAYER
  5
91
330
2
100
AcDbSymbolTableRecord
100
AcDbLayerTableRecord
  2
LAYER033
 70
     0
 62
     7
  6
CONTINUOUS
  0
LAYER
  5
92
330
2
100
AcDbSymbolTableRecord
100
AcDbLayerTableRecord
  2
LAYER034
 70
     0
 62
     7
  6
CONTINUOUS
  0
LAYER
  5
93
330
2
100
AcDbSymbolTableRecord
100
AcDbLayerTableRecord
  2
LAYER035
 70
     0
 62
     7
  6
CONTINUOUS
  0
LAYER
  5
94
330
2
100
AcDbSymbolTableRecord
100
AcDbLayerTableRecord
  2
LAYER036
 70
     0
 62
     7
  6
CONTINUOUS
  0
LAYER
  5
95
330
2
100
AcDbSymbolTableRecord
100
AcDbLayerTableRecord
  2
LAYER037
 70
     0
 62
     7
  6
CONTINUOUS
  0
LAYER
  5
96
330
2
100
AcDbSymbolTableRecord
100
AcDbLayerTableRecord
  2
LAYER038
 70
     0
 62
     7
  6
CONTINUOUS
  0
LAYER
  5
97
330
2
100
AcDbSymbolTableRecord
100
AcDbLayerTableRecord
  2
LAYER039
 70
     0
 62
     7
  6
CONTINUOUS
  0
LAYER
  5
98
330
2
100
AcDbSymbolTableRecord
100
AcDbLayerTableRecord
  2
LAYER040
 70
     0
 62
     7
  6
CONTINUOUS
  0
LAYER
  5
99
330
2
100
AcDbSymbolTableRecord
100
AcDbLayerTableRecord
  2
LAYER041
 70
     0
 62
     7
  6
CONTINUOUS
  0
LAYER
  5
9A
330
2
100
AcDbSymbolTableRecord
100
AcDbLayerTableRecord
  2
LAYER042
 70
     0
 62
     7
  6
CONTINUOUS
  0
LAYER
  5
9B
330
2
100
AcDbSymbolTableRecord
100
AcDbLayerTableRecord
  2
LAYER043
 70
     0
 62
     7
  6
CONTINUOUS
  0
LAYER
  5
9C
330
2
100
AcDbSymbolTableRecord
100
AcDbLayerTableRecord
  2
LAYER044
 70
     0
 62
     7
  6
CONTINUOUS
  0
LAYER
  5
9D
330
2
100
AcDbSymbolTableRecord
100
AcDbLayerTableRecord
  2
LAYER045
 70
     0
 62
     7
  6
CONTINUOUS
  0
LAYER
  5
9E
330
2
100
AcDbSymbolTableRecord
100
AcDbLayerTableRecord
  2
LAYER046
 70
     0
 62
     7
  6
CONTINUOUS
  0
LAYER
  5
9F
330
2
100
AcDbSymbolTableRecord
100
AcDbLayerTableRecord
  2
LAYER047
 70
     0
 62
     7
  6
CONTINUOUS
  0
LAYER
  5
A0
330
2
100
AcDbSymbolTableRecord
100
AcDbLayerTableRecord
  2
LAYER048
 70
     0
 62
     7
  6
CONTINUOUS
  0
LAYER
  5
A1
330
2
100
AcDbSymbolTableRecord
100
AcDbLayerTableRecord
  2
LAYER049
 70
     0
 62
     7
  6
CONTINUOUS
  0
LAYER
  5
A2
330
2
100
AcDbSymbolTableRecord
100
AcDbLayerTableRecord
  2
LAYER050
 70
     0
 62
     7
  6
CONTINUOUS
  0
LAYER
  5
A3
330
2
100
AcDbSymbolTableRecord
100
AcDbLayerTableRecord
  2
LAYER051
 70
     0
 62
     7
  6
CONTINUOUS
  0
LAYER
  5
A4
330
2
100
AcDbSymbolTableRecord
100
AcDbLayerTableRecord
  2
LAYER052
 70
     0
 62
     7
  6
CONTINUOUS
  0
LAYER
  5
A5
330
2
100
AcDbSymbolTableRecord
100
AcDbLayerTableRecord
  2
LAYER053
 70
     0
 62
     7
  6
CONTINUOUS
  0
LAYER
  5
A6
330
2
100
AcDbSymbolTableRecord
100
AcDbLayerTableRecord
  2
LAYER054
 70
     0
 62
     7
  6
CONTINUOUS
  0
LAYER
  5
A7
330
2
100
AcDbSymbolTableRecord
100
AcDbLayerTableRecord
  2
LAYER055
 70
     0
 62
     7
  6
CONTINUOUS
  0
LAYER
  5
A8
330
2
100
AcDbSymbolTableRecord
100
AcDbLayerTableRecord
  2
LAYER056
 70
     0
 62
     7
  6
CONTINUOUS
  0
LAYER
  5
A9
330
2
100
AcDbSymbolTableRecord
100
AcDbLayerTableRecord
  2
LAYER057
 70
     0
 62
     7
  6
CONTINUOUS
  0
LAYER
  5
AA
330
2
100
AcDbSymbolTableRecord
100
AcDbLayerTableRecord
  2
LAYER058
 70
     0
 62
     7
  6
CONTINUOUS
  0
LAYER
  5
AB
330
2
100
AcDbSymbolTableRecord
100
AcDbLayerTableRecord
  2
LAYER059
 70
     0
 62
     7
  6
CONTINUOUS
  0
LAYER
  5
AC
330
2
100
AcDbSymbolTableRecord
100
AcDbLayerTableRecord
  2
LAYER060
 70
     0
 62
     7
  6
CONTINUOUS
  0
LAYER
  5
AD
330
2
100
AcDbSymbolTableRecord
100
AcDbLayerTableRecord
  2
LAYER061
 70
     0
 62
     7
  6
CONTINUOUS
  0
LAYER
  5
AE
330
2
100
AcDbSymbolTableRecord
100
AcDbLayerTableRecord
  2
LAYER062
 70
     0
 62
     7
  6
CONTINUOUS
  0
LAYER
  5
AF
330
2
100
AcDbSymbolTableRecord
100
AcDbLayerTableRecord
  2
LAYER063
 70
     0
 62
     7
  6
CONTINUOUS
  0
LAYER
  5
B0
330
2
100
AcDbSymbolTableRecord
100
AcDbLayerTableRecord
  2
LAYER064
 70
     0
 62
     7
  6
CONTINUOUS
  0
LAYER
  5
ED
330
2
100
AcDbSymbolTableRecord
100
AcDbLayerTableRecord
  2
LAYER065
 70
     0
 62
     7
  6
CONTINUOUS
  0
ENDTAB
  0
TABLE
  2
STYLE
  5
3
330
0
100
AcDbSymbolTable
 70
     2
  0
STYLE
  5
11
330
3
100
AcDbSymbolTableRecord
100
AcDbTextStyleTableRecord
  2
STANDARD
 70
     0
 40
0.0
 41
1.0
 50
0.0
 71
     0
 42
2.5
  3
txt
  4

  0
STYLE
  5
B1
330
3
100
AcDbSymbolTableRecord
100
AcDbTextStyleTableRecord
  2
ED_VECTOR
 70
     0
 40
0.0
 41
1.0
 50
0.0
 71
     0
 42
2.5
  3
MONOTXT.SHX
  4
BIGFONT.SHX
  0
ENDTAB
  0
TABLE
  2
VIEW
  5
6
330
0
100
AcDbSymbolTable
 70
     0
  0
ENDTAB
  0
TABLE
  2
UCS
  5
7
330
0
100
AcDbSymbolTable
 70
     0
  0
ENDTAB
  0
TABLE
  2
APPID
  5
9
330
0
100
AcDbSymbolTable
 70
     2
  0
APPID
  5
12
330
9
100
AcDbSymbolTableRecord
100
AcDbRegAppTableRecord
  2
ACAD
 70
     0
  0
APPID
  5
819
330
9
100
AcDbSymbolTableRecord
100
AcDbRegAppTableRecord
  2
ACAD_MLEADERVER
 70
     0
  0
ENDTAB
  0
TABLE
  2
DIMSTYLE
  5
A
330
0
100
AcDbSymbolTable
 70
     2
  0
DIMSTYLE
105
27
330
A
100
AcDbSymbolTableRecord
100
AcDbDimStyleTableRecord
  2
ISO-25
 70
     0
  3

  4

  5

  6

  7

 40
1.0
 41
2.5
 42
0.625
 43
3.75
 44
1.25
 45
0.0
 46
0.0
 47
0.0
 48
0.0
140
2.5
141
2.5
142
0.0
143
0.03937
144
1.0
145
0.0
146
1.0
147
0.625
 71
     0
 72
     0
 73
     0
 74
     0
 75
     0
 76
     0
 77
     1
 78
     8
170
     0
171
     3
172
     1
173
     0
174
     0
175
     0
176
     0
177
     0
178
     0
270
     2
271
     2
272
     2
273
     2
274
     3
340
11
275
     0
280
     0
281
     0
282
     0
283
     0
284
     8
285
     0
286
     0
287
     3
288
     0
  0
DIMSTYLE
105
EC
102
{ACAD_REACTORS
330
6A1
330
6AB
330
6B5
330
6C1
330
6CB
330
6D5
330
6DE
330
7A9
330
7B3
330
7BD
102
}
330
A
100
AcDbSymbolTableRecord
100
AcDbDimStyleTableRecord
  2
EDDIMINFO
 70
     0
  3

  4

  5

  6
EDTIP_ARROW_S
  7
EDTIP_ARROW_E
 40
1.0
 41
30.0
 42
10.0
 43
0.1
 44
10.0
 45
0.0
 46
40.0
 47
0.0
 48
0.0
140
40.0
141
2.5
142
0.0
143
0.03937
144
1.0
145
0.0
146
1.0
147
10.0
 71
     0
 72
     0
 73
     0
 74
     0
 75
     0
 76
     0
 77
     1
 78
     8
170
     0
171
     3
172
     1
173
     1
174
     0
175
     0
176
     5
177
     5
178
     4
270
     2
271
     0
272
     2
273
     2
274
     3
340
B1
275
     0
280
     0
281
     0
282
     0
283
     0
284
     8
285
     0
286
     0
287
     3
288
     0
  0
ENDTAB
  0
TABLE
  2
BLOCK_RECORD
  5
1
330
0
100
AcDbSymbolTable
 70
    36
  0
BLOCK_RECORD
  5
1F
330
1
100
AcDbSymbolTableRecord
100
AcDbBlockTableRecord
  2
*MODEL_SPACE
  0
BLOCK_RECORD
  5
1B
330
1
100
AcDbSymbolTableRecord
100
AcDbBlockTableRecord
  2
*PAPER_SPACE
  0
BLOCK_RECORD
  5
B2
330
1
100
AcDbSymbolTableRecord
100
AcDbBlockTableRecord
  2
EDTIP_ARROW_S
  0
BLOCK_RECORD
  5
B8
330
1
100
AcDbSymbolTableRecord
100
AcDbBlockTableRecord
  2
EDTIP_ARROW_E
  0
BLOCK_RECORD
  5
BE
330
1
100
AcDbSymbolTableRecord
100
AcDbBlockTableRecord
  2
EDTIP_BLACKDOT_S
  0
BLOCK_RECORD
  5
C4
330
1
100
AcDbSymbolTableRecord
100
AcDbBlockTableRecord
  2
EDTIP_BLACKDOT_E
  0
BLOCK_RECORD
  5
CA
330
1
100
AcDbSymbolTableRecord
100
AcDbBlockTableRecord
  2
EDTIP_ARCHITECT_S
  0
BLOCK_RECORD
  5
D0
330
1
100
AcDbSymbolTableRecord
100
AcDbBlockTableRecord
  2
EDTIP_ARCHITECT_E
  0
BLOCK_RECORD
  5
D6
330
1
100
AcDbSymbolTableRecord
100
AcDbBlockTableRecord
  2
EDTIP_CIVIL_S
  0
BLOCK_RECORD
  5
DC
330
1
100
AcDbSymbolTableRecord
100
AcDbBlockTableRecord
  2
EDTIP_CIVIL_E
  0
BLOCK_RECORD
  5
E2
330
1
100
AcDbSymbolTableRecord
100
AcDbBlockTableRecord
  2
EDTIP_WHITEDOT_S
  0
BLOCK_RECORD
  5
E7
330
1
100
AcDbSymbolTableRecord
100
AcDbBlockTableRecord
  2
EDTIP_WHITEDOT_E
  0
BLOCK_RECORD
  5
10A
330
1
100
AcDbSymbolTableRecord
100
AcDbBlockTableRecord
  2
BLKF014
  0
BLOCK_RECORD
  5
1E8
330
1
100
AcDbSymbolTableRecord
100
AcDbBlockTableRecord
  2
EDDIM015
  0
BLOCK_RECORD
  5
1ED
330
1
100
AcDbSymbolTableRecord
100
AcDbBlockTableRecord
  2
EDDIM016
  0
BLOCK_RECORD
  5
1F2
330
1
100
AcDbSymbolTableRecord
100
AcDbBlockTableRecord
  2
EDDIM017
  0
BLOCK_RECORD
  5
1F7
330
1
100
AcDbSymbolTableRecord
100
AcDbBlockTableRecord
  2
EDDIM018
  0
BLOCK_RECORD
  5
1FC
330
1
100
AcDbSymbolTableRecord
100
AcDbBlockTableRecord
  2
EDDIM019
  0
BLOCK_RECORD
  5
201
330
1
100
AcDbSymbolTableRecord
100
AcDbBlockTableRecord
  2
EDDIM020
  0
BLOCK_RECORD
  5
206
330
1
100
AcDbSymbolTableRecord
100
AcDbBlockTableRecord
  2
EDDIM021
  0
BLOCK_RECORD
  5
20B
330
1
100
AcDbSymbolTableRecord
100
AcDbBlockTableRecord
  2
EDDIM022
  0
BLOCK_RECORD
  5
210
330
1
100
AcDbSymbolTableRecord
100
AcDbBlockTableRecord
  2
EDDIM023
  0
BLOCK_RECORD
  5
215
330
1
100
AcDbSymbolTableRecord
100
AcDbBlockTableRecord
  2
EDDIM024
  0
BLOCK_RECORD
  5
21A
330
1
100
AcDbSymbolTableRecord
100
AcDbBlockTableRecord
  2
EDDIM025
  0
BLOCK_RECORD
  5
21F
330
1
100
AcDbSymbolTableRecord
100
AcDbBlockTableRecord
  2
EDDIM026
  0
BLOCK_RECORD
  5
224
330
1
100
AcDbSymbolTableRecord
100
AcDbBlockTableRecord
  2
EDDIM027
  0
BLOCK_RECORD
  5
6A2
330
1
100
AcDbSymbolTableRecord
100
AcDbBlockTableRecord
  2
*D25
  0
BLOCK_RECORD
  5
6AC
330
1
100
AcDbSymbolTableRecord
100
AcDbBlockTableRecord
  2
*D26
  0
BLOCK_RECORD
  5
6B6
330
1
100
AcDbSymbolTableRecord
100
AcDbBlockTableRecord
  2
*D27
  0
BLOCK_RECORD
  5
6C2
330
1
100
AcDbSymbolTableRecord
100
AcDbBlockTableRecord
  2
*D28
  0
BLOCK_RECORD
  5
6CC
330
1
100
AcDbSymbolTableRecord
100
AcDbBlockTableRecord
  2
*D29
  0
BLOCK_RECORD
  5
6D6
330
1
100
AcDbSymbolTableRecord
100
AcDbBlockTableRecord
  2
*D30
  0
BLOCK_RECORD
  5
6DF
330
1
100
AcDbSymbolTableRecord
100
AcDbBlockTableRecord
  2
*D31
  0
BLOCK_RECORD
  5
701
330
1
100
AcDbSymbolTableRecord
100
AcDbBlockTableRecord
  2
BLKF035
  0
BLOCK_RECORD
  5
7A2
330
1
100
AcDbSymbolTableRecord
100
AcDbBlockTableRecord
  2
EDDIM036
  0
BLOCK_RECORD
  5
7AA
330
1
100
AcDbSymbolTableRecord
100
AcDbBlockTableRecord
  2
*D34
  0
BLOCK_RECORD
  5
7B4
330
1
100
AcDbSymbolTableRecord
100
AcDbBlockTableRecord
  2
*D35
  0
BLOCK_RECORD
  5
7BE
330
1
100
AcDbSymbolTableRecord
100
AcDbBlockTableRecord
  2
*D36
  0
ENDTAB
  0
ENDSEC
  0
SECTION
  2
BLOCKS
  0
BLOCK
  5
20
330
1F
100
AcDbEntity
  8
0
100
AcDbBlockBegin
  2
*MODEL_SPACE
 70
     0
 10
0.0
 20
0.0
 30
0.0
  3
*MODEL_SPACE
  1

  0
ENDBLK
  5
21
330
1F
100
AcDbEntity
  8
0
100
AcDbBlockEnd
  0
BLOCK
  5
1C
330
1B
100
AcDbEntity
 67
     1
  8
0
100
AcDbBlockBegin
  2
*PAPER_SPACE
 70
     0
 10
0.0
 20
0.0
 30
0.0
  3
*PAPER_SPACE
  1

  0
ENDBLK
  5
1D
330
1B
100
AcDbEntity
 67
     1
  8
0
100
AcDbBlockEnd
  0
BLOCK
  5
B3
330
B2
100
AcDbEntity
  8
0
100
AcDbBlockBegin
  2
EDTIP_ARROW_S
 70
     0
 10
0.0
 20
0.0
 30
0.0
  3
EDTIP_ARROW_S
  1

  0
LINE
  5
B5
330
B2
100
AcDbEntity
  8
0
  6
CONTINUOUS
 62
     0
100
AcDbLine
 10
0.0
 20
0.0
 30
0.0
 11
-1.0
 21
0.0
 31
0.0
  0
LINE
  5
B6
330
B2
100
AcDbEntity
  8
0
  6
CONTINUOUS
 62
     0
100
AcDbLine
 10
0.0
 20
0.0
 30
0.0
 11
-0.965926
 21
0.258819
 31
0.0
  0
LINE
  5
B7
330
B2
100
AcDbEntity
  8
0
  6
CONTINUOUS
 62
     0
100
AcDbLine
 10
0.0
 20
0.0
 30
0.0
 11
-0.965926
 21
-0.258819
 31
0.0
  0
ENDBLK
  5
B4
330
B2
100
AcDbEntity
  8
0
100
AcDbBlockEnd
  0
BLOCK
  5
B9
330
B8
100
AcDbEntity
  8
0
100
AcDbBlockBegin
  2
EDTIP_ARROW_E
 70
     0
 10
0.0
 20
0.0
 30
0.0
  3
EDTIP_ARROW_E
  1

  0
LINE
  5
BB
330
B8
100
AcDbEntity
  8
0
  6
CONTINUOUS
 62
     0
100
AcDbLine
 10
0.0
 20
0.0
 30
0.0
 11
-1.0
 21
0.0
 31
0.0
  0
LINE
  5
BC
330
B8
100
AcDbEntity
  8
0
  6
CONTINUOUS
 62
     0
100
AcDbLine
 10
0.0
 20
0.0
 30
0.0
 11
-0.965926
 21
-0.258819
 31
0.0
  0
LINE
  5
BD
330
B8
100
AcDbEntity
  8
0
  6
CONTINUOUS
 62
     0
100
AcDbLine
 10
0.0
 20
0.0
 30
0.0
 11
-0.965926
 21
0.258819
 31
0.0
  0
ENDBLK
  5
BA
330
B8
100
AcDbEntity
  8
0
100
AcDbBlockEnd
  0
BLOCK
  5
BF
330
BE
100
AcDbEntity
  8
0
100
AcDbBlockBegin
  2
EDTIP_BLACKDOT_S
 70
     0
 10
0.0
 20
0.0
 30
0.0
  3
EDTIP_BLACKDOT_S
  1

  0
LINE
  5
C1
330
BE
100
AcDbEntity
  8
0
  6
CONTINUOUS
 62
     0
100
AcDbLine
 10
0.0
 20
0.0
 30
0.0
 11
-1.0
 21
0.0
 31
0.0
  0
CIRCLE
  5
C2
330
BE
100
AcDbEntity
  8
0
  6
CONTINUOUS
 62
     0
100
AcDbCircle
 10
0.0
 20
0.0
 30
0.0
 40
0.5
  0
CIRCLE
  5
C3
330
BE
100
AcDbEntity
  8
0
  6
CONTINUOUS
 62
     0
100
AcDbCircle
 10
0.0
 20
0.0
 30
0.0
 40
0.25
  0
ENDBLK
  5
C0
330
BE
100
AcDbEntity
  8
0
100
AcDbBlockEnd
  0
BLOCK
  5
C5
330
C4
100
AcDbEntity
  8
0
100
AcDbBlockBegin
  2
EDTIP_BLACKDOT_E
 70
     0
 10
0.0
 20
0.0
 30
0.0
  3
EDTIP_BLACKDOT_E
  1

  0
LINE
  5
C7
330
C4
100
AcDbEntity
  8
0
  6
CONTINUOUS
 62
     0
100
AcDbLine
 10
0.0
 20
0.0
 30
0.0
 11
-1.0
 21
0.0
 31
0.0
  0
CIRCLE
  5
C8
330
C4
100
AcDbEntity
  8
0
  6
CONTINUOUS
 62
     0
100
AcDbCircle
 10
0.0
 20
0.0
 30
0.0
 40
0.5
  0
CIRCLE
  5
C9
330
C4
100
AcDbEntity
  8
0
  6
CONTINUOUS
 62
     0
100
AcDbCircle
 10
0.0
 20
0.0
 30
0.0
 40
0.25
  0
ENDBLK
  5
C6
330
C4
100
AcDbEntity
  8
0
100
AcDbBlockEnd
  0
BLOCK
  5
CB
330
CA
100
AcDbEntity
  8
0
100
AcDbBlockBegin
  2
EDTIP_ARCHITECT_S
 70
     0
 10
0.0
 20
0.0
 30
0.0
  3
EDTIP_ARCHITECT_S
  1

  0
LINE
  5
CD
330
CA
100
AcDbEntity
  8
0
  6
CONTINUOUS
 62
     0
100
AcDbLine
 10
0.0
 20
0.0
 30
0.0
 11
-1.0
 21
0.0
 31
0.0
  0
LINE
  5
CE
330
CA
100
AcDbEntity
  8
0
  6
CONTINUOUS
 62
     0
100
AcDbLine
 10
0.0
 20
0.0
 30
0.0
 11
-0.707107
 21
-0.707107
 31
0.0
  0
LINE
  5
CF
330
CA
100
AcDbEntity
  8
0
  6
CONTINUOUS
 62
     0
100
AcDbLine
 10
0.0
 20
0.0
 30
0.0
 11
0.707107
 21
0.707107
 31
0.0
  0
ENDBLK
  5
CC
330
CA
100
AcDbEntity
  8
0
100
AcDbBlockEnd
  0
BLOCK
  5
D1
330
D0
100
AcDbEntity
  8
0
100
AcDbBlockBegin
  2
EDTIP_ARCHITECT_E
 70
     0
 10
0.0
 20
0.0
 30
0.0
  3
EDTIP_ARCHITECT_E
  1

  0
LINE
  5
D3
330
D0
100
AcDbEntity
  8
0
  6
CONTINUOUS
 62
     0
100
AcDbLine
 10
0.0
 20
0.0
 30
0.0
 11
-1.0
 21
0.0
 31
0.0
  0
LINE
  5
D4
330
D0
100
AcDbEntity
  8
0
  6
CONTINUOUS
 62
     0
100
AcDbLine
 10
0.0
 20
0.0
 30
0.0
 11
-0.707107
 21
-0.707107
 31
0.0
  0
LINE
  5
D5
330
D0
100
AcDbEntity
  8
0
  6
CONTINUOUS
 62
     0
100
AcDbLine
 10
0.0
 20
0.0
 30
0.0
 11
0.707107
 21
0.707107
 31
0.0
  0
ENDBLK
  5
D2
330
D0
100
AcDbEntity
  8
0
100
AcDbBlockEnd
  0
BLOCK
  5
D7
330
D6
100
AcDbEntity
  8
0
100
AcDbBlockBegin
  2
EDTIP_CIVIL_S
 70
     0
 10
0.0
 20
0.0
 30
0.0
  3
EDTIP_CIVIL_S
  1

  0
LINE
  5
D9
330
D6
100
AcDbEntity
  8
0
  6
CONTINUOUS
 62
     0
100
AcDbLine
 10
0.0
 20
0.0
 30
0.0
 11
-1.0
 21
0.0
 31
0.0
  0
LINE
  5
DA
330
D6
100
AcDbEntity
  8
0
  6
CONTINUOUS
 62
     0
100
AcDbLine
 10
0.0
 20
-0.008333
 30
0.0
 11
-1.0
 21
-0.008333
 31
0.0
  0
LINE
  5
DB
330
D6
100
AcDbEntity
  8
0
  6
CONTINUOUS
 62
     0
100
AcDbLine
 10
0.0
 20
-0.016667
 30
0.0
 11
-1.0
 21
-0.016667
 31
0.0
  0
ENDBLK
  5
D8
330
D6
100
AcDbEntity
  8
0
100
AcDbBlockEnd
  0
BLOCK
  5
DD
330
DC
100
AcDbEntity
  8
0
100
AcDbBlockBegin
  2
EDTIP_CIVIL_E
 70
     0
 10
0.0
 20
0.0
 30
0.0
  3
EDTIP_CIVIL_E
  1

  0
LINE
  5
DF
330
DC
100
AcDbEntity
  8
0
  6
CONTINUOUS
 62
     0
100
AcDbLine
 10
0.0
 20
0.0
 30
0.0
 11
-1.0
 21
0.0
 31
0.0
  0
LINE
  5
E0
330
DC
100
AcDbEntity
  8
0
  6
CONTINUOUS
 62
     0
100
AcDbLine
 10
0.0
 20
0.008333
 30
0.0
 11
-1.0
 21
0.008333
 31
0.0
  0
LINE
  5
E1
330
DC
100
AcDbEntity
  8
0
  6
CONTINUOUS
 62
     0
100
AcDbLine
 10
0.0
 20
0.016667
 30
0.0
 11
-1.0
 21
0.016667
 31
0.0
  0
ENDBLK
  5
DE
330
DC
100
AcDbEntity
  8
0
100
AcDbBlockEnd
  0
BLOCK
  5
E3
330
E2
100
AcDbEntity
  8
0
100
AcDbBlockBegin
  2
EDTIP_WHITEDOT_S
 70
     0
 10
0.0
 20
0.0
 30
0.0
  3
EDTIP_WHITEDOT_S
  1

  0
LINE
  5
E5
330
E2
100
AcDbEntity
  8
0
  6
CONTINUOUS
 62
     0
100
AcDbLine
 10
0.0
 20
0.0
 30
0.0
 11
-1.0
 21
0.0
 31
0.0
  0
CIRCLE
  5
E6
330
E2
100
AcDbEntity
  8
0
  6
CONTINUOUS
 62
     0
100
AcDbCircle
 10
0.0
 20
0.0
 30
0.0
 40
0.5
  0
ENDBLK
  5
E4
330
E2
100
AcDbEntity
  8
0
100
AcDbBlockEnd
  0
BLOCK
  5
E8
330
E7
100
AcDbEntity
  8
0
100
AcDbBlockBegin
  2
EDTIP_WHITEDOT_E
 70
     0
 10
0.0
 20
0.0
 30
0.0
  3
EDTIP_WHITEDOT_E
  1

  0
LINE
  5
EA
330
E7
100
AcDbEntity
  8
0
  6
CONTINUOUS
 62
     0
100
AcDbLine
 10
0.0
 20
0.0
 30
0.0
 11
-1.0
 21
0.0
 31
0.0
  0
CIRCLE
  5
EB
330
E7
100
AcDbEntity
  8
0
  6
CONTINUOUS
 62
     0
100
AcDbCircle
 10
0.0
 20
0.0
 30
0.0
 40
0.5
  0
ENDBLK
  5
E9
330
E7
100
AcDbEntity
  8
0
100
AcDbBlockEnd
  0
BLOCK
  5
10B
330
10A
100
AcDbEntity
  8
0
100
AcDbBlockBegin
  2
BLKF014
 70
     0
 10
0.0
 20
0.0
 30
0.0
  3
BLKF014
  1

  0
ARC
  5
10E
330
10A
100
AcDbEntity
  8
0
  6
CONTINUOUS
 62
     5
100
AcDbCircle
 10
2830.108592
 20
148.870953
 30
0.0
 40
3.549224681232935
100
AcDbArc
 50
6.429109
 51
73.182034
  0
ARC
  5
10F
330
10A
100
AcDbEntity
  8
0
  6
CONTINUOUS
 62
     5
100
AcDbCircle
 10
2826.647621
 20
147.71256
 30
0.0
 40
6.90775391640079
100
AcDbArc
 50
310.51797
 51
330.092764
  0
ARC
  5
110
330
10A
100
AcDbEntity
  8
0
  6
CONTINUOUS
 62
     5
100
AcDbCircle
 10
2826.586972
 20
148.078078
 30
0.0
 40
7.148321241986046
100
AcDbArc
 50
327.794941
 51
9.585194
  0
ARC
  5
111
330
10A
100
AcDbEntity
  8
0
  6
CONTINUOUS
 62
     5
100
AcDbCircle
 10
2829.8797
 20
145.31708
 30
0.0
 40
4.767514462094933
100
AcDbArc
 50
180.0
 51
218.51415
  0
ARC
  5
112
330
10A
100
AcDbEntity
  8
0
  6
CONTINUOUS
 62
     5
100
AcDbCircle
 10
2828.592979
 20
144.639939
 30
0.0
 40
3.348282029286163
100
AcDbArc
 50
222.781148
 51
319.406906
  0
ARC
  5
113
330
10A
100
AcDbEntity
  8
0
  6
CONTINUOUS
 62
     5
100
AcDbCircle
 10
2831.658621
 20
145.729832
 30
0.0
 40
6.559434466070106
100
AcDbArc
 50
94.574282
 51
183.607718
  0
LINE
  5
114
330
10A
100
AcDbEntity
  8
0
  6
CONTINUOUS
 62
     5
100
AcDbLine
 10
2845.102527
 20
140.613
 30
0.0
 11
2844.245491
 21
137.574417
 31
0.0
  0
LINE
  5
115
330
10A
100
AcDbEntity
  8
0
  6
CONTINUOUS
 62
     5
100
AcDbLine
 10
2846.894512
 20
160.480657
 30
0.0
 11
2844.790878
 21
163.207591
 31
0.0
  0
LINE
  5
116
330
10A
100
AcDbEntity
  8
0
  6
CONTINUOUS
 62
     5
100
AcDbLine
 10
2844.790878
 20
163.207591
 30
0.0
 11
2838.037523
 21
166.965503
 31
0.0
  0
LINE
  5
117
330
10A
100
AcDbEntity
  8
0
  6
CONTINUOUS
 62
     5
100
AcDbLine
 10
2838.037523
 20
166.965503
 30
0.0
 11
2831.135496
 21
167.768373
 31
0.0
  0
LINE
  5
118
330
10A
100
AcDbEntity
  8
0
  6
CONTINUOUS
 62
     5
100
AcDbLine
 10
2812.846271
 20
154.3897
 30
0.0
 11
2814.992965
 21
159.35393
 31
0.0
  0
LINE
  5
119
330
10A
100
AcDbEntity
  8
0
  6
CONTINUOUS
 62
     5
100
AcDbLine
 10
2814.955967
 20
159.268373
 30
0.0
 11
2817.139659
 21
161.90313
 31
0.0
  0
LINE
  5
11A
330
10A
100
AcDbEntity
  8
0
  6
CONTINUOUS
 62
     5
100
AcDbLine
 10
2817.139659
 20
161.90313
 30
0.0
 11
2820.444082
 21
164.268373
 31
0.0
  0
LINE
  5
11B
330
10A
100
AcDbEntity
  8
0
  6
CONTINUOUS
 62
     5
100
AcDbLine
 10
2831.135496
 20
167.768373
 30
0.0
 11
2829.61732
 21
167.001529
 31
0.0
  0
LINE
  5
11C
330
10A
100
AcDbEntity
  8
0
  6
CONTINUOUS
 62
     5
100
AcDbLine
 10
2829.61732
 20
167.001529
 30
0.0
 11
2826.128942
 21
167.001529
 31
0.0
  0
LINE
  5
11D
330
10A
100
AcDbEntity
  8
0
  6
CONTINUOUS
 62
     5
100
AcDbLine
 10
2826.128942
 20
167.001529
 30
0.0
 11
2822.573479
 21
165.056087
 31
0.0
  0
LINE
  5
11E
330
10A
100
AcDbEntity
  8
0
  6
CONTINUOUS
 62
     5
100
AcDbLine
 10
2822.573479
 20
165.056087
 30
0.0
 11
2820.444082
 21
164.268373
 31
0.0
  0
LINE
  5
11F
330
10A
100
AcDbEntity
  8
0
  6
CONTINUOUS
 62
     5
100
AcDbLine
 10
2812.846271
 20
154.3897
 30
0.0
 11
2811.328724
 21
146.841097
 31
0.0
  0
LINE
  5
120
330
10A
100
AcDbEntity
  8
0
  6
CONTINUOUS
 62
     5
100
AcDbLine
 10
2811.328724
 20
146.841097
 30
0.0
 11
2811.135496
 21
144.268373
 31
0.0
  0
LINE
  5
121
330
10A
100
AcDbEntity
  8
0
  6
CONTINUOUS
 62
     5
100
AcDbLine
 10
2813.844879
 20
136.428591
 30
0.0
 11
2811.135496
 21
142.524702
 31
0.0
  0
LINE
  5
122
330
10A
100
AcDbEntity
  8
0
  6
CONTINUOUS
 62
     5
100
AcDbLine
 10
2811.135496
 20
142.524702
 30
0.0
 11
2811.135496
 21
144.268373
 31
0.0
  0
LINE
  5
123
330
10A
100
AcDbEntity
  8
0
  6
CONTINUOUS
 62
     5
100
AcDbLine
 10
2844.245491
 20
137.574417
 30
0.0
 11
2842.559704
 21
134.571411
 31
0.0
  0
LINE
  5
124
330
10A
100
AcDbEntity
  8
0
  6
CONTINUOUS
 62
     5
100
AcDbLine
 10
2842.559704
 20
134.571411
 30
0.0
 11
2841.135496
 21
133.2527
 31
0.0
  0
ARC
  5
125
330
10A
100
AcDbEntity
  8
0
  6
CONTINUOUS
 62
     5
100
AcDbCircle
 10
2828.943551
 20
144.805134
 30
0.0
 40
17.2666264049271
100
AcDbArc
 50
208.054813
 51
260.64047
  0
ARC
  5
126
330
10A
100
AcDbEntity
  8
0
  6
CONTINUOUS
 62
     5
100
AcDbCircle
 10
2823.750156
 20
157.547603
 30
0.0
 40
29.87461092848634
100
AcDbArc
 50
274.579659
 51
305.587364
  0
ARC
  5
127
330
10A
100
AcDbEntity
  8
0
  6
CONTINUOUS
 62
     5
100
AcDbCircle
 10
2834.722505
 20
151.563881
 30
0.0
 40
15.08862654287332
100
AcDbArc
 50
313.467013
 51
331.085078
  0
LINE
  5
128
330
10A
100
AcDbEntity
  8
0
  6
CONTINUOUS
 62
     5
100
AcDbLine
 10
2849.513837
 20
147.781794
 30
0.0
 11
2849.811132
 21
151.563881
 31
0.0
  0
LINE
  5
129
330
10A
100
AcDbEntity
  8
0
  6
CONTINUOUS
 62
     5
100
AcDbLine
 10
2849.811132
 20
151.563881
 30
0.0
 11
2848.519134
 21
157.672864
 31
0.0
  0
LINE
  5
12A
330
10A
100
AcDbEntity
  8
0
  6
CONTINUOUS
 62
     5
100
AcDbLine
 10
2849.513837
 20
147.781794
 30
0.0
 11
2847.930163
 21
144.268373
 31
0.0
  0
ARC
  5
12B
330
10A
100
AcDbEntity
  8
0
  6
CONTINUOUS
 62
     5
100
AcDbCircle
 10
2834.722505
 20
151.563881
 30
0.0
 40
15.08862654287332
100
AcDbArc
 50
23.883193
 51
36.22517
  0
LINE
  5
12C
330
10A
100
AcDbEntity
  8
0
  6
CONTINUOUS
 62
     5
100
AcDbLine
 10
2795.135496
 20
179.268373
 30
0.0
 11
2796.135496
 21
180.361018
 31
0.0
  0
LINE
  5
12D
330
10A
100
AcDbEntity
  8
0
  6
CONTINUOUS
 62
     5
100
AcDbLine
 10
2795.135496
 20
179.268373
 30
0.0
 11
2796.712454
 21
177.82334
 31
0.0
  0
LINE
  5
12E
330
10A
100
AcDbEntity
  8
0
  6
CONTINUOUS
 62
     5
100
AcDbLine
 10
2798.251667
 20
175.714049
 30
0.0
 11
2798.277935
 21
173.54593
 31
0.0
  0
LINE
  5
12F
330
10A
100
AcDbEntity
  8
0
  6
CONTINUOUS
 62
     5
100
AcDbLine
 10
2798.277935
 20
173.54593
 30
0.0
 11
2798.485333
 21
172.78547
 31
0.0
  0
LINE
  5
130
330
10A
100
AcDbEntity
  8
0
  6
CONTINUOUS
 62
     5
100
AcDbLine
 10
2798.485333
 20
172.78547
 30
0.0
 11
2799.07296
 21
172.059577
 31
0.0
  0
LINE
  5
131
330
10A
100
AcDbEntity
  8
0
  6
CONTINUOUS
 62
     5
100
AcDbLine
 10
2799.07296
 20
172.059577
 30
0.0
 11
2799.660588
 21
172.12871
 31
0.0
  0
LINE
  5
132
330
10A
100
AcDbEntity
  8
0
  6
CONTINUOUS
 62
     5
100
AcDbLine
 10
2799.660588
 20
172.12871
 30
0.0
 11
2800.282782
 21
172.301542
 31
0.0
  0
LINE
  5
133
330
10A
100
AcDbEntity
  8
0
  6
CONTINUOUS
 62
     5
100
AcDbLine
 10
2800.282782
 20
172.301542
 30
0.0
 11
2800.697578
 21
172.12871
 31
0.0
  0
LINE
  5
134
330
10A
100
AcDbEntity
  8
0
  6
CONTINUOUS
 62
     5
100
AcDbLine
 10
2800.697578
 20
172.12871
 30
0.0
 11
2801.596303
 21
171.679348
 31
0.0
  0
LINE
  5
135
330
10A
100
AcDbEntity
  8
0
  6
CONTINUOUS
 62
     5
100
AcDbLine
 10
2801.596303
 20
171.679348
 30
0.0
 11
2802.372354
 21
171.268373
 31
0.0
  0
LINE
  5
136
330
10A
100
AcDbEntity
  8
0
  6
CONTINUOUS
 62
     5
100
AcDbLine
 10
2802.372354
 20
171.268373
 30
0.0
 11
2802.875257
 21
171.299118
 31
0.0
  0
LINE
  5
137
330
10A
100
AcDbEntity
  8
0
  6
CONTINUOUS
 62
     5
100
AcDbLine
 10
2802.875257
 20
171.299118
 30
0.0
 11
2805.683129
 21
172.745598
 31
0.0
  0
LINE
  5
138
330
10A
100
AcDbEntity
  8
0
  6
CONTINUOUS
 62
     5
100
AcDbLine
 10
2796.135496
 20
180.361018
 30
0.0
 11
2796.468348
 21
181.834725
 31
0.0
  0
LINE
  5
139
330
10A
100
AcDbEntity
  8
0
  6
CONTINUOUS
 62
     5
100
AcDbLine
 10
2796.468348
 20
181.834725
 30
0.0
 11
2797.921753
 21
181.985077
 31
0.0
  0
LINE
  5
13A
330
10A
100
AcDbEntity
  8
0
  6
CONTINUOUS
 62
     5
100
AcDbLine
 10
2799.415512
 20
184.753536
 30
0.0
 11
2801.169684
 21
184.910626
 31
0.0
  0
LINE
  5
13B
330
10A
100
AcDbEntity
  8
0
  6
CONTINUOUS
 62
     5
100
AcDbLine
 10
2801.169684
 20
184.910626
 30
0.0
 11
2804.704212
 21
185.74844
 31
0.0
  0
LINE
  5
13C
330
10A
100
AcDbEntity
  8
0
  6
CONTINUOUS
 62
     5
100
AcDbLine
 10
2804.704212
 20
185.74844
 30
0.0
 11
2806.135496
 21
186.080079
 31
0.0
  0
LINE
  5
13D
330
10A
100
AcDbEntity
  8
0
  6
CONTINUOUS
 62
     5
100
AcDbLine
 10
2799.415512
 20
184.753536
 30
0.0
 11
2797.48262
 21
184.912404
 31
0.0
  0
LINE
  5
13E
330
10A
100
AcDbEntity
  8
0
  6
CONTINUOUS
 62
     5
100
AcDbLine
 10
2796.746497
 20
184.043717
 30
0.0
 11
2796.840023
 21
183.672555
 31
0.0
  0
LINE
  5
13F
330
10A
100
AcDbEntity
  8
0
  6
CONTINUOUS
 62
     5
100
AcDbLine
 10
2796.840023
 20
183.672555
 30
0.0
 11
2797.331617
 21
183.134874
 31
0.0
  0
LINE
  5
140
330
10A
100
AcDbEntity
  8
0
  6
CONTINUOUS
 62
     5
100
AcDbLine
 10
2797.331617
 20
183.134874
 30
0.0
 11
2798.007558
 21
182.627918
 31
0.0
  0
LINE
  5
141
330
10A
100
AcDbEntity
  8
0
  6
CONTINUOUS
 62
     5
100
AcDbLine
 10
2798.007558
 20
182.627918
 30
0.0
 11
2798.130883
 21
182.463485
 31
0.0
  0
LINE
  5
142
330
10A
100
AcDbEntity
  8
0
  6
CONTINUOUS
 62
     5
100
AcDbLine
 10
2796.712454
 20
177.82334
 30
0.0
 11
2798.251667
 21
175.714049
 31
0.0
  0
ARC
  5
143
330
10A
100
AcDbEntity
  8
0
  6
CONTINUOUS
 62
     5
100
AcDbCircle
 10
2841.122197
 20
7.609721
 30
0.0
 40
180.7274633591883
100
AcDbArc
 50
80.438896
 51
96.353582
  0
ARC
  5
144
330
10A
100
AcDbEntity
  8
0
  6
CONTINUOUS
 62
     5
100
AcDbCircle
 10
2816.223283
 20
152.857621
 30
0.0
 40
34.72024168784506
100
AcDbArc
 50
81.866516
 51
106.890578
  0
LINE
  5
145
330
10A
100
AcDbEntity
  8
0
  6
CONTINUOUS
 62
     5
100
AcDbLine
 10
2875.329757
 20
185.035044
 30
0.0
 11
2877.57684
 21
184.013642
 31
0.0
  0
LINE
  5
146
330
10A
100
AcDbEntity
  8
0
  6
CONTINUOUS
 62
     5
100
AcDbLine
 10
2881.151744
 20
182.430471
 30
0.0
 11
2877.57684
 21
184.013642
 31
0.0
  0
LINE
  5
147
330
10A
100
AcDbEntity
  8
0
  6
CONTINUOUS
 62
     5
100
AcDbLine
 10
2875.329757
 20
185.035044
 30
0.0
 11
2871.135496
 21
185.827615
 31
0.0
  0
LINE
  5
148
330
10A
100
AcDbEntity
  8
0
  6
CONTINUOUS
 62
     5
100
AcDbLine
 10
2881.135496
 20
182.437666
 30
0.0
 11
2883.007071
 21
180.869189
 31
0.0
  0
LINE
  5
149
330
10A
100
AcDbEntity
  8
0
  6
CONTINUOUS
 62
     5
100
AcDbLine
 10
2864.378752
 20
183.474517
 30
0.0
 11
2865.278027
 21
184.927192
 31
0.0
  0
LINE
  5
14A
330
10A
100
AcDbEntity
  8
0
  6
CONTINUOUS
 62
     5
100
AcDbLine
 10
2865.278027
 20
184.927192
 30
0.0
 11
2869.953625
 21
183.807682
 31
0.0
  0
LINE
  5
14B
330
10A
100
AcDbEntity
  8
0
  6
CONTINUOUS
 62
     5
100
AcDbLine
 10
2869.953625
 20
183.807682
 30
0.0
 11
2886.696011
 21
179.268373
 31
0.0
  0
LINE
  5
14C
330
10A
100
AcDbEntity
  8
0
  6
CONTINUOUS
 62
     5
100
AcDbLine
 10
2889.635496
 20
179.268373
 30
0.0
 11
2883.007071
 21
180.869189
 31
0.0
  0
LINE
  5
14D
330
10A
100
AcDbEntity
  8
0
  6
CONTINUOUS
 62
     5
100
AcDbLine
 10
2886.696011
 20
179.268373
 30
0.0
 11
2889.635496
 21
179.268373
 31
0.0
  0
LINE
  5
14E
330
10A
100
AcDbEntity
  8
0
  6
CONTINUOUS
 62
     5
100
AcDbLine
 10
2831.135496
 20
183.733315
 30
0.0
 11
2851.135496
 21
184.268373
 31
0.0
  0
LINE
  5
14F
330
10A
100
AcDbEntity
  8
0
  6
CONTINUOUS
 62
     5
100
AcDbLine
 10
2851.135496
 20
184.268373
 30
0.0
 11
2864.378752
 21
183.474517
 31
0.0
  0
LINE
  5
150
330
10A
100
AcDbEntity
  8
0
  6
CONTINUOUS
 62
     5
100
AcDbLine
 10
2865.981733
 20
181.414037
 30
0.0
 11
2851.135496
 21
182.768373
 31
0.0
  0
LINE
  5
151
330
10A
100
AcDbEntity
  8
0
  6
CONTINUOUS
 62
     5
100
AcDbLine
 10
2851.135496
 20
182.768373
 30
0.0
 11
2836.086286
 21
183.177025
 31
0.0
  0
LINE
  5
152
330
10A
100
AcDbEntity
  8
0
  6
CONTINUOUS
 62
     5
100
AcDbLine
 10
2836.135496
 20
183.175689
 30
0.0
 11
2831.135496
 21
183.270983
 31
0.0
  0
LINE
  5
153
330
10A
100
AcDbEntity
  8
0
  6
CONTINUOUS
 62
     5
100
AcDbLine
 10
2831.135496
 20
183.733315
 30
0.0
 11
2831.135496
 21
183.270983
 31
0.0
  0
LINE
  5
154
330
10A
100
AcDbEntity
  8
0
  6
CONTINUOUS
 62
     5
100
AcDbLine
 10
2888.635496
 20
175.768373
 30
0.0
 11
2879.792937
 21
178.079036
 31
0.0
  0
LINE
  5
155
330
10A
100
AcDbEntity
  8
0
  6
CONTINUOUS
 62
     5
100
AcDbLine
 10
2865.981733
 20
181.414037
 30
0.0
 11
2876.135496
 21
179.441654
 31
0.0
  0
LINE
  5
156
330
10A
100
AcDbEntity
  8
0
  6
CONTINUOUS
 62
     5
100
AcDbLine
 10
2876.135496
 20
179.441654
 30
0.0
 11
2879.792937
 21
178.079036
 31
0.0
  0
LINE
  5
157
330
10A
100
AcDbEntity
  8
0
  6
CONTINUOUS
 62
     5
100
AcDbLine
 10
2888.635496
 20
175.768373
 30
0.0
 11
2888.342879
 21
174.929268
 31
0.0
  0
LINE
  5
158
330
10A
100
AcDbEntity
  8
0
  6
CONTINUOUS
 62
     5
100
AcDbLine
 10
2898.135496
 20
170.268373
 30
0.0
 11
2897.829469
 21
171.497354
 31
0.0
  0
LINE
  5
159
330
10A
100
AcDbEntity
  8
0
  6
CONTINUOUS
 62
     5
100
AcDbLine
 10
2888.342879
 20
174.929268
 30
0.0
 11
2897.829469
 21
171.497354
 31
0.0
  0
LINE
  5
15A
330
10A
100
AcDbEntity
  8
0
  6
CONTINUOUS
 62
     5
100
AcDbLine
 10
2834.635496
 20
175.768373
 30
0.0
 11
2837.058534
 21
175.768373
 31
0.0
  0
LINE
  5
15B
330
10A
100
AcDbEntity
  8
0
  6
CONTINUOUS
 62
     5
100
AcDbLine
 10
2857.135496
 20
176.200869
 30
0.0
 11
2857.135496
 21
175.768373
 31
0.0
  0
LINE
  5
15C
330
10A
100
AcDbEntity
  8
0
  6
CONTINUOUS
 62
     5
100
AcDbLine
 10
2856.135496
 20
176.73531
 30
0.0
 11
2854.424217
 21
177.372488
 31
0.0
  0
LINE
  5
15D
330
10A
100
AcDbEntity
  8
0
  6
CONTINUOUS
 62
     5
100
AcDbLine
 10
2854.424217
 20
177.372488
 30
0.0
 11
2853.314161
 21
177.422945
 31
0.0
  0
LINE
  5
15E
330
10A
100
AcDbEntity
  8
0
  6
CONTINUOUS
 62
     5
100
AcDbLine
 10
2853.314161
 20
177.422945
 30
0.0
 11
2852.834818
 21
177.17066
 31
0.0
  0
LINE
  5
15F
330
10A
100
AcDbEntity
  8
0
  6
CONTINUOUS
 62
     5
100
AcDbLine
 10
2852.834818
 20
177.17066
 30
0.0
 11
2852.733904
 21
176.767003
 31
0.0
  0
LINE
  5
160
330
10A
100
AcDbEntity
  8
0
  6
CONTINUOUS
 62
     5
100
AcDbLine
 10
2852.733904
 20
176.767003
 30
0.0
 11
2853.188018
 21
176.464261
 31
0.0
  0
LINE
  5
161
330
10A
100
AcDbEntity
  8
0
  6
CONTINUOUS
 62
     5
100
AcDbLine
 10
2853.188018
 20
176.464261
 30
0.0
 11
2854.827873
 21
176.312889
 31
0.0
  0
LINE
  5
162
330
10A
100
AcDbEntity
  8
0
  6
CONTINUOUS
 62
     5
100
AcDbLine
 10
2854.827873
 20
176.312889
 30
0.0
 11
2857.135496
 21
176.200869
 31
0.0
  0
LINE
  5
163
330
10A
100
AcDbEntity
  8
0
  6
CONTINUOUS
 62
     5
100
AcDbLine
 10
2898.135496
 20
170.268373
 30
0.0
 11
2895.159953
 21
171.454955
 31
0.0
  0
LINE
  5
164
330
10A
100
AcDbEntity
  8
0
  6
CONTINUOUS
 62
     5
100
AcDbLine
 10
2895.159953
 20
171.454955
 30
0.0
 11
2885.104264
 21
173.29783
 31
0.0
  0
LINE
  5
165
330
10A
100
AcDbEntity
  8
0
  6
CONTINUOUS
 62
     5
100
AcDbLine
 10
2885.104264
 20
173.29783
 30
0.0
 11
2880.078484
 21
174.457626
 31
0.0
  0
LINE
  5
166
330
10A
100
AcDbEntity
  8
0
  6
CONTINUOUS
 62
     5
100
AcDbLine
 10
2857.669717
 20
176.768373
 30
0.0
 11
2869.435383
 21
176.768373
 31
0.0
  0
LINE
  5
167
330
10A
100
AcDbEntity
  8
0
  6
CONTINUOUS
 62
     5
100
AcDbLine
 10
2856.135496
 20
176.73531
 30
0.0
 11
2856.660156
 21
176.426843
 31
0.0
  0
LINE
  5
168
330
10A
100
AcDbEntity
  8
0
  6
CONTINUOUS
 62
     5
100
AcDbLine
 10
2856.660156
 20
176.426843
 30
0.0
 11
2856.956968
 21
176.337799
 31
0.0
  0
LINE
  5
169
330
10A
100
AcDbEntity
  8
0
  6
CONTINUOUS
 62
     5
100
AcDbLine
 10
2856.956968
 20
176.337799
 30
0.0
 11
2857.135496
 21
176.362969
 31
0.0
  0
LINE
  5
16A
330
10A
100
AcDbEntity
  8
0
  6
CONTINUOUS
 62
     5
100
AcDbLine
 10
2857.135496
 20
176.362969
 30
0.0
 11
2857.669717
 21
176.768373
 31
0.0
  0
LINE
  5
16B
330
10A
100
AcDbEntity
  8
0
  6
CONTINUOUS
 62
     5
100
AcDbLine
 10
2869.435383
 20
176.768373
 30
0.0
 11
2873.885652
 21
175.739548
 31
0.0
  0
LINE
  5
16C
330
10A
100
AcDbEntity
  8
0
  6
CONTINUOUS
 62
     5
100
AcDbLine
 10
2873.885652
 20
175.739548
 30
0.0
 11
2878.038843
 21
174.574399
 31
0.0
  0
LINE
  5
16D
330
10A
100
AcDbEntity
  8
0
  6
CONTINUOUS
 62
     5
100
AcDbLine
 10
2878.038843
 20
174.574399
 30
0.0
 11
2880.078484
 21
174.457626
 31
0.0
  0
LINE
  5
16E
330
10A
100
AcDbEntity
  8
0
  6
CONTINUOUS
 62
     5
100
AcDbLine
 10
2833.635496
 20
174.768373
 30
0.0
 11
2833.635496
 21
174.268373
 31
0.0
  0
LINE
  5
16F
330
10A
100
AcDbEntity
  8
0
  6
CONTINUOUS
 62
     5
100
AcDbLine
 10
2831.135496
 20
174.268373
 30
0.0
 11
2833.635496
 21
174.268373
 31
0.0
  0
ARC
  5
170
330
10A
100
AcDbEntity
  8
0
  6
CONTINUOUS
 62
     5
100
AcDbCircle
 10
2834.635496
 20
174.768373
 30
0.0
 40
1.0
100
AcDbArc
 50
90.0
 51
180.0
  0
LINE
  5
171
330
10A
100
AcDbEntity
  8
0
  6
CONTINUOUS
 62
     5
100
AcDbLine
 10
2837.058534
 20
175.768373
 30
0.0
 11
2837.756091
 21
175.196377
 31
0.0
  0
LINE
  5
172
330
10A
100
AcDbEntity
  8
0
  6
CONTINUOUS
 62
     5
100
AcDbLine
 10
2838.358459
 20
175.172416
 30
0.0
 11
2839.216056
 21
175.768373
 31
0.0
  0
LINE
  5
173
330
10A
100
AcDbEntity
  8
0
  6
CONTINUOUS
 62
     5
100
AcDbLine
 10
2840.794452
 20
175.768373
 30
0.0
 11
2842.461577
 21
175.110298
 31
0.0
  0
LINE
  5
174
330
10A
100
AcDbEntity
  8
0
  6
CONTINUOUS
 62
     5
100
AcDbLine
 10
2842.885286
 20
175.13681
 30
0.0
 11
2844.038773
 21
175.768373
 31
0.0
  0
LINE
  5
175
330
10A
100
AcDbEntity
  8
0
  6
CONTINUOUS
 62
     5
100
AcDbLine
 10
2839.216056
 20
175.768373
 30
0.0
 11
2840.794452
 21
175.768373
 31
0.0
  0
LINE
  5
176
330
10A
100
AcDbEntity
  8
0
  6
CONTINUOUS
 62
     5
100
AcDbLine
 10
2844.038773
 20
175.768373
 30
0.0
 11
2857.135496
 21
175.768373
 31
0.0
  0
LINE
  5
177
330
10A
100
AcDbEntity
  8
0
  6
CONTINUOUS
 62
     5
100
AcDbLine
 10
2809.684479
 20
172.659547
 30
0.0
 11
2831.135496
 21
174.268373
 31
0.0
  0
LINE
  5
178
330
10A
100
AcDbEntity
  8
0
  6
CONTINUOUS
 62
     5
100
AcDbLine
 10
2805.683129
 20
172.745598
 30
0.0
 11
2809.684479
 21
172.659547
 31
0.0
  0
ARC
  5
179
330
10A
100
AcDbEntity
  8
0
  6
CONTINUOUS
 62
     5
100
AcDbCircle
 10
2838.073131
 20
175.583011
 30
0.0
 40
0.5
100
AcDbArc
 50
230.648247
 51
304.796026
  0
ARC
  5
17A
330
10A
100
AcDbEntity
  8
0
  6
CONTINUOUS
 62
     5
100
AcDbCircle
 10
2842.64516
 20
175.575375
 30
0.0
 40
0.5
100
AcDbArc
 50
248.459024
 51
298.701829
  0
ARC
  5
17B
330
10A
100
AcDbEntity
  8
0
  6
CONTINUOUS
 62
     5
100
AcDbCircle
 10
2797.890883
 20
182.283485
 30
0.0
 40
0.3
100
AcDbArc
 50
275.906141
 51
36.869898
  0
ARC
  5
17C
330
10A
100
AcDbEntity
  8
0
  6
CONTINUOUS
 62
     5
100
AcDbCircle
 10
2797.42528
 20
184.214756
 30
0.0
 40
0.7
100
AcDbArc
 50
85.301319
 51
194.14298
  0
LINE
  5
17D
330
10A
100
AcDbEntity
  8
0
  6
CONTINUOUS
 62
     3
100
AcDbLine
 10
2829.61732
 20
167.001529
 30
0.0
 11
2837.727816
 21
167.001529
 31
0.0
  0
LINE
  5
17E
330
10A
100
AcDbEntity
  8
0
  6
CONTINUOUS
 62
     3
100
AcDbLine
 10
2823.204804
 20
165.401529
 30
0.0
 11
2840.848145
 21
165.401529
 31
0.0
  0
LINE
  5
17F
330
10A
100
AcDbEntity
  8
0
  6
CONTINUOUS
 62
     3
100
AcDbLine
 10
2819.791865
 20
163.801529
 30
0.0
 11
2843.723509
 21
163.801529
 31
0.0
  0
LINE
  5
180
330
10A
100
AcDbEntity
  8
0
  6
CONTINUOUS
 62
     3
100
AcDbLine
 10
2817.556545
 20
162.201529
 30
0.0
 11
2845.566982
 21
162.201529
 31
0.0
  0
LINE
  5
181
330
10A
100
AcDbEntity
  8
0
  6
CONTINUOUS
 62
     3
100
AcDbLine
 10
2816.06089
 20
160.601529
 30
0.0
 11
2846.801268
 21
160.601529
 31
0.0
  0
LINE
  5
182
330
10A
100
AcDbEntity
  8
0
  6
CONTINUOUS
 62
     3
100
AcDbLine
 10
2814.840575
 20
159.001529
 30
0.0
 11
2847.850644
 21
159.001529
 31
0.0
  0
LINE
  5
183
330
10A
100
AcDbEntity
  8
0
  6
CONTINUOUS
 62
     3
100
AcDbLine
 10
2814.148683
 20
157.401529
 30
0.0
 11
2848.576519
 21
157.401529
 31
0.0
  0
LINE
  5
184
330
10A
100
AcDbEntity
  8
0
  6
CONTINUOUS
 62
     3
100
AcDbLine
 10
2813.456791
 20
155.801529
 30
0.0
 11
2848.914905
 21
155.801529
 31
0.0
  0
LINE
  5
185
330
10A
100
AcDbEntity
  8
0
  6
CONTINUOUS
 62
     3
100
AcDbLine
 10
2812.808441
 20
154.201529
 30
0.0
 11
2849.253292
 21
154.201529
 31
0.0
  0
LINE
  5
186
330
10A
100
AcDbEntity
  8
0
  6
CONTINUOUS
 62
     3
100
AcDbLine
 10
2812.486783
 20
152.601529
 30
0.0
 11
2849.591678
 21
152.601529
 31
0.0
  0
LINE
  5
187
330
10A
100
AcDbEntity
  8
0
  6
CONTINUOUS
 62
     3
100
AcDbLine
 10
2812.165124
 20
151.001529
 30
0.0
 11
2827.755367
 21
151.001529
 31
0.0
  0
LINE
  5
188
330
10A
100
AcDbEntity
  8
0
  6
CONTINUOUS
 62
     3
100
AcDbLine
 10
2811.843465
 20
149.401529
 30
0.0
 11
2826.223106
 21
149.401529
 31
0.0
  0
LINE
  5
189
330
10A
100
AcDbEntity
  8
0
  6
CONTINUOUS
 62
     3
100
AcDbLine
 10
2811.521806
 20
147.801529
 30
0.0
 11
2825.434936
 21
147.801529
 31
0.0
  0
LINE
  5
18A
330
10A
100
AcDbEntity
  8
0
  6
CONTINUOUS
 62
     3
100
AcDbLine
 10
2811.280688
 20
146.201529
 30
0.0
 11
2825.116168
 21
146.201529
 31
0.0
  0
LINE
  5
18B
330
10A
100
AcDbEntity
  8
0
  6
CONTINUOUS
 62
     3
100
AcDbLine
 10
2811.160518
 20
144.601529
 30
0.0
 11
2825.166189
 21
144.601529
 31
0.0
  0
LINE
  5
18C
330
10A
100
AcDbEntity
  8
0
  6
CONTINUOUS
 62
     3
100
AcDbLine
 10
2811.135496
 20
143.001529
 30
0.0
 11
2825.712276
 21
143.001529
 31
0.0
  0
LINE
  5
18D
330
10A
100
AcDbEntity
  8
0
  6
CONTINUOUS
 62
     3
100
AcDbLine
 10
2811.634684
 20
141.401529
 30
0.0
 11
2827.742279
 21
141.401529
 31
0.0
  0
LINE
  5
18E
330
10A
100
AcDbEntity
  8
0
  6
CONTINUOUS
 62
     3
100
AcDbLine
 10
2812.345795
 20
139.801529
 30
0.0
 11
2844.873651
 21
139.801529
 31
0.0
  0
LINE
  5
18F
330
10A
100
AcDbEntity
  8
0
  6
CONTINUOUS
 62
     3
100
AcDbLine
 10
2813.056906
 20
138.201529
 30
0.0
 11
2844.422369
 21
138.201529
 31
0.0
  0
LINE
  5
190
330
10A
100
AcDbEntity
  8
0
  6
CONTINUOUS
 62
     3
100
AcDbLine
 10
2813.768017
 20
136.601529
 30
0.0
 11
2843.699344
 21
136.601529
 31
0.0
  0
LINE
  5
191
330
10A
100
AcDbEntity
  8
0
  6
CONTINUOUS
 62
     3
100
AcDbLine
 10
2814.729976
 20
135.001529
 30
0.0
 11
2842.801158
 21
135.001529
 31
0.0
  0
LINE
  5
192
330
10A
100
AcDbEntity
  8
0
  6
CONTINUOUS
 62
     3
100
AcDbLine
 10
2815.978437
 20
133.401529
 30
0.0
 11
2841.296232
 21
133.401529
 31
0.0
  0
LINE
  5
193
330
10A
100
AcDbEntity
  8
0
  6
CONTINUOUS
 62
     3
100
AcDbLine
 10
2817.583857
 20
131.801529
 30
0.0
 11
2838.903771
 21
131.801529
 31
0.0
  0
LINE
  5
194
330
10A
100
AcDbEntity
  8
0
  6
CONTINUOUS
 62
     3
100
AcDbLine
 10
2819.731
 20
130.201529
 30
0.0
 11
2835.778647
 21
130.201529
 31
0.0
  0
LINE
  5
195
330
10A
100
AcDbEntity
  8
0
  6
CONTINUOUS
 62
     3
100
AcDbLine
 10
2822.97869
 20
128.601529
 30
0.0
 11
2831.140499
 21
128.601529
 31
0.0
  0
LINE
  5
196
330
10A
100
AcDbEntity
  8
0
  6
CONTINUOUS
 62
     3
100
AcDbLine
 10
2832.94719
 20
151.001529
 30
0.0
 11
2849.766927
 21
151.001529
 31
0.0
  0
LINE
  5
197
330
10A
100
AcDbEntity
  8
0
  6
CONTINUOUS
 62
     3
100
AcDbLine
 10
2833.617934
 20
149.401529
 30
0.0
 11
2849.641158
 21
149.401529
 31
0.0
  0
LINE
  5
198
330
10A
100
AcDbEntity
  8
0
  6
CONTINUOUS
 62
     3
100
AcDbLine
 10
2833.729941
 20
147.801529
 30
0.0
 11
2849.515388
 21
147.801529
 31
0.0
  0
LINE
  5
199
330
10A
100
AcDbEntity
  8
0
  6
CONTINUOUS
 62
     3
100
AcDbLine
 10
2833.484584
 20
146.201529
 30
0.0
 11
2848.801533
 21
146.201529
 31
0.0
  0
LINE
  5
19A
330
10A
100
AcDbEntity
  8
0
  6
CONTINUOUS
 62
     3
100
AcDbLine
 10
2832.832939
 20
144.601529
 30
0.0
 11
2848.080333
 21
144.601529
 31
0.0
  0
LINE
  5
19B
330
10A
100
AcDbEntity
  8
0
  6
CONTINUOUS
 62
     3
100
AcDbLine
 10
2831.699675
 20
143.001529
 30
0.0
 11
2847.146385
 21
143.001529
 31
0.0
  0
LINE
  5
19C
330
10A
100
AcDbEntity
  8
0
  6
CONTINUOUS
 62
     3
100
AcDbLine
 10
2829.443679
 20
141.401529
 30
0.0
 11
2845.875678
 21
141.401529
 31
0.0
  0
TEXT
  5
19D
330
10A
100
AcDbEntity
  8
0
  6
CONTINUOUS
 62
     5
100
AcDbText
 10
2850.307158
 20
149.012707
 30
0.0
 40
4.713448
  1
M
 41
1.300704
  7
ED_VECTOR
100
AcDbText
  0
TEXT
  5
19E
330
10A
100
AcDbEntity
  8
0
  6
CONTINUOUS
 62
     5
100
AcDbText
 10
2859.958545
 20
148.954436
 30
0.0
 40
4.626621
  1
T
 41
0.518801
  7
ED_VECTOR
100
AcDbText
  0
TEXT
  5
19F
330
10A
100
AcDbEntity
  8
0
  6
CONTINUOUS
 62
     5
100
AcDbText
 10
2862.724108
 20
148.989235
 30
0.0
 40
4.696183
  1
E
 41
0.703702
  7
ED_VECTOR
100
AcDbText
  0
TEXT
  5
1A0
330
10A
100
AcDbEntity
  8
0
  6
CONTINUOUS
 62
     5
100
AcDbText
 10
2865.840288
 20
150.605079
 30
0.0
 40
0.348283
  1
-
 41
6.250213
  7
ED_VECTOR
100
AcDbText
  0
TEXT
  5
1A1
330
10A
100
AcDbEntity
  8
0
  6
CONTINUOUS
 62
     5
100
AcDbText
 10
2867.654498
 20
148.957888
 30
0.0
 40
4.861659
  1
H
 41
0.865668
  7
ED_VECTOR
100
AcDbText
  0
TEXT
  5
1A2
330
10A
100
AcDbEntity
  8
0
  6
CONTINUOUS
 62
     5
100
AcDbText
 10
2871.730513
 20
148.988266
 30
0.0
 40
4.843139
  1
A
 41
0.846157
  7
ED_VECTOR
100
AcDbText
  0
TEXT
  5
1A3
330
10A
100
AcDbEntity
  8
0
  6
CONTINUOUS
 62
     5
100
AcDbText
 10
2875.436669
 20
148.94674
 30
0.0
 40
4.825362
  1
N
 41
0.993429
  7
ED_VECTOR
100
AcDbText
  0
TEXT
  5
1A4
330
10A
100
AcDbEntity
  8
0
  6
CONTINUOUS
 62
     5
100
AcDbText
 10
2856.228127
 20
148.924167
 30
0.0
 40
4.982325
  1
A
 41
0.784962
  7
ED_VECTOR
100
AcDbText
  0
TEXT
  5
1A5
330
10A
100
AcDbEntity
  8
0
  6
CONTINUOUS
 62
     5
100
AcDbText
 10
2850.674171
 20
141.928927
 30
0.0
 40
4.982325
  1
A
 41
0.784962
  7
ED_VECTOR
100
AcDbText
  0
TEXT
  5
1A6
330
10A
100
AcDbEntity
  8
0
  6
CONTINUOUS
 62
     5
100
AcDbText
 10
2863.458595
 20
141.957248
 30
0.0
 40
4.982325
  1
A
 41
0.784962
  7
ED_VECTOR
100
AcDbText
  0
TEXT
  5
1A7
330
10A
100
AcDbEntity
  8
0
  6
CONTINUOUS
 62
     5
100
AcDbText
 10
2867.21914
 20
142.014245
 30
0.0
 40
4.825362
  1
N
 41
0.993429
  7
ED_VECTOR
100
AcDbText
  0
TEXT
  5
1A8
330
10A
100
AcDbEntity
  8
0
  6
CONTINUOUS
 62
     5
100
AcDbText
 10
2876.121476
 20
142.02264
 30
0.0
 40
4.841775
  1
E
 41
0.789479
  7
ED_VECTOR
100
AcDbText
  0
TEXT
  5
1A9
330
10A
100
AcDbEntity
  8
0
  6
CONTINUOUS
 62
     5
100
AcDbText
 10
2854.954725
 20
141.927603
 30
0.0
 40
4.947865
  1
D
 41
0.729328
  7
ED_VECTOR
100
AcDbText
  0
TEXT
  5
1AA
330
10A
100
AcDbEntity
  8
0
  6
CONTINUOUS
 62
     5
100
AcDbText
 10
2859.357083
 20
141.922218
 30
0.0
 40
4.92421
  1
V
 41
0.818797
  7
ED_VECTOR
100
AcDbText
  0
TEXT
  5
1AB
330
10A
100
AcDbEntity
  8
0
  6
CONTINUOUS
 62
     5
100
AcDbText
 10
2871.582284
 20
141.94295
 30
0.0
 40
5.032894
  1
C
 41
0.987349
  7
ED_VECTOR
100
AcDbText
  0
LINE
  5
1AC
330
10A
100
AcDbEntity
  8
0
  6
CONTINUOUS
 62
     5
100
AcDbLine
 10
2862.212833
 20
153.003346
 30
0.0
 11
2861.200771
 21
153.003346
 31
0.0
  0
LINE
  5
1AD
330
10A
100
AcDbEntity
  8
0
  6
CONTINUOUS
 62
     3
100
AcDbLine
 10
2811.311071
 20
187.228617
 30
0.0
 11
2861.108897
 21
187.228617
 31
0.0
  0
LINE
  5
1AE
330
10A
100
AcDbEntity
  8
0
  6
CONTINUOUS
 62
     3
100
AcDbLine
 10
2804.198707
 20
185.628617
 30
0.0
 11
2872.188589
 21
185.628617
 31
0.0
  0
LINE
  5
1AF
330
10A
100
AcDbEntity
  8
0
  6
CONTINUOUS
 62
     3
100
AcDbLine
 10
2796.750302
 20
184.028617
 30
0.0
 11
2842.173613
 21
184.028617
 31
0.0
  0
LINE
  5
1B0
330
10A
100
AcDbEntity
  8
0
  6
CONTINUOUS
 62
     3
100
AcDbLine
 10
2855.135162
 20
184.028617
 30
0.0
 11
2864.721766
 21
184.028617
 31
0.0
  0
LINE
  5
1B1
330
10A
100
AcDbEntity
  8
0
  6
CONTINUOUS
 62
     3
100
AcDbLine
 10
2869.030899
 20
184.028617
 30
0.0
 11
2877.543897
 21
184.028617
 31
0.0
  0
LINE
  5
1B2
330
10A
100
AcDbEntity
  8
0
  6
CONTINUOUS
 62
     3
100
AcDbLine
 10
2798.153441
 20
182.428617
 30
0.0
 11
2854.859911
 21
182.428617
 31
0.0
  0
LINE
  5
1B3
330
10A
100
AcDbEntity
  8
0
  6
CONTINUOUS
 62
     3
100
AcDbLine
 10
2875.040049
 20
182.428617
 30
0.0
 11
2881.146294
 21
182.428617
 31
0.0
  0
LINE
  5
1B4
330
10A
100
AcDbEntity
  8
0
  6
CONTINUOUS
 62
     3
100
AcDbLine
 10
2796.241108
 20
180.828617
 30
0.0
 11
2868.995459
 21
180.828617
 31
0.0
  0
LINE
  5
1B5
330
10A
100
AcDbEntity
  8
0
  6
CONTINUOUS
 62
     3
100
AcDbLine
 10
2880.941348
 20
180.828617
 30
0.0
 11
2883.175069
 21
180.828617
 31
0.0
  0
LINE
  5
1B6
330
10A
100
AcDbEntity
  8
0
  6
CONTINUOUS
 62
     3
100
AcDbLine
 10
2795.178882
 20
179.228617
 30
0.0
 11
2876.707315
 21
179.228617
 31
0.0
  0
LINE
  5
1B7
330
10A
100
AcDbEntity
  8
0
  6
CONTINUOUS
 62
     3
100
AcDbLine
 10
2796.854549
 20
177.628617
 30
0.0
 11
2881.516624
 21
177.628617
 31
0.0
  0
LINE
  5
1B8
330
10A
100
AcDbEntity
  8
0
  6
CONTINUOUS
 62
     3
100
AcDbLine
 10
2798.022117
 20
176.028617
 30
0.0
 11
2857.135496
 21
176.028617
 31
0.0
  0
LINE
  5
1B9
330
10A
100
AcDbEntity
  8
0
  6
CONTINUOUS
 62
     3
100
AcDbLine
 10
2872.635261
 20
176.028617
 30
0.0
 11
2887.639584
 21
176.028617
 31
0.0
  0
LINE
  5
1BA
330
10A
100
AcDbEntity
  8
0
  6
CONTINUOUS
 62
     3
100
AcDbLine
 10
2798.26724
 20
174.428617
 30
0.0
 11
2833.635496
 21
174.428617
 31
0.0
  0
LINE
  5
1BB
330
10A
100
AcDbEntity
  8
0
  6
CONTINUOUS
 62
     3
100
AcDbLine
 10
2880.20419
 20
174.428617
 30
0.0
 11
2889.726793
 21
174.428617
 31
0.0
  0
LINE
  5
1BC
330
10A
100
AcDbEntity
  8
0
  6
CONTINUOUS
 62
     3
100
AcDbLine
 10
2798.473566
 20
172.828617
 30
0.0
 11
2811.938739
 21
172.828617
 31
0.0
  0
LINE
  5
1BD
330
10A
100
AcDbEntity
  8
0
  6
CONTINUOUS
 62
     3
100
AcDbLine
 10
2887.664538
 20
172.828617
 30
0.0
 11
2894.149557
 21
172.828617
 31
0.0
  0
LINE
  5
1BE
330
10A
100
AcDbEntity
  8
0
  6
CONTINUOUS
 62
     3
100
AcDbLine
 10
2895.727533
 20
171.228617
 30
0.0
 11
2897.896387
 21
171.228617
 31
0.0
  0
ENDBLK
  5
10C
330
10A
100
AcDbEntity
  8
0
100
AcDbBlockEnd
  0
BLOCK
  5
1E9
330
1E8
100
AcDbEntity
  8
0
100
AcDbBlockBegin
  2
EDDIM015
 70
     0
 10
0.0
 20
0.0
 30
0.0
  3
EDDIM015
  1

  0
TEXT
  5
1EC
330
1E8
100
AcDbEntity
  8
0
  6
CONTINUOUS
 62
     3
100
AcDbText
 10
3022.912598
 20
2221.119141
 30
0.0
 40
35.0
  1
GLSB-100-2007
 41
0.857143
  7
ED_VECTOR
100
AcDbText
  0
ENDBLK
  5
1EA
330
1E8
100
AcDbEntity
  8
0
100
AcDbBlockEnd
  0
BLOCK
  5
1EE
330
1ED
100
AcDbEntity
  8
0
100
AcDbBlockBegin
  2
EDDIM016
 70
     0
 10
0.0
 20
0.0
 30
0.0
  3
EDDIM016
  1

  0
TEXT
  5
1F1
330
1ED
100
AcDbEntity
  8
0
  6
CONTINUOUS
 62
     3
100
AcDbText
 10
2993.198975
 20
2080.548828
 30
0.0
 40
35.0
  1
700
 41
0.857143
  7
ED_VECTOR
100
AcDbText
  0
ENDBLK
  5
1EF
330
1ED
100
AcDbEntity
  8
0
100
AcDbBlockEnd
  0
BLOCK
  5
1F3
330
1F2
100
AcDbEntity
  8
0
100
AcDbBlockBegin
  2
EDDIM017
 70
     0
 10
0.0
 20
0.0
 30
0.0
  3
EDDIM017
  1

  0
TEXT
  5
1F6
330
1F2
100
AcDbEntity
  8
0
  6
CONTINUOUS
 62
     3
100
AcDbText
 10
3233.19751
 20
2077.120117
 30
0.0
 40
35.0
  1
200
 41
0.857143
  7
ED_VECTOR
100
AcDbText
  0
ENDBLK
  5
1F4
330
1F2
100
AcDbEntity
  8
0
100
AcDbBlockEnd
  0
BLOCK
  5
1F8
330
1F7
100
AcDbEntity
  8
0
100
AcDbBlockBegin
  2
EDDIM018
 70
     0
 10
0.0
 20
0.0
 30
0.0
  3
EDDIM018
  1

  0
TEXT
  5
1FB
330
1F7
100
AcDbEntity
  8
0
  6
CONTINUOUS
 62
     3
100
AcDbText
 10
3157.197998
 20
2077.120117
 30
0.0
 40
35.0
  1
x
 41
0.857143
  7
ED_VECTOR
100
AcDbText
  0
ENDBLK
  5
1F9
330
1F7
100
AcDbEntity
  8
0
100
AcDbBlockEnd
  0
BLOCK
  5
1FD
330
1FC
100
AcDbEntity
  8
0
100
AcDbBlockBegin
  2
EDDIM019
 70
     0
 10
0.0
 20
0.0
 30
0.0
  3
EDDIM019
  1

  0
TEXT
  5
200
330
1FC
100
AcDbEntity
  8
0
  6
CONTINUOUS
 62
     3
100
AcDbText
 10
3123.140869
 20
2147.662598
 30
0.0
 40
35.0
  1
100
 41
0.857143
  7
ED_VECTOR
100
AcDbText
  0
ENDBLK
  5
1FE
330
1FC
100
AcDbEntity
  8
0
100
AcDbBlockEnd
  0
BLOCK
  5
202
330
201
100
AcDbEntity
  8
0
100
AcDbBlockBegin
  2
EDDIM020
 70
     0
 10
0.0
 20
0.0
 30
0.0
  3
EDDIM020
  1

  0
TEXT
  5
205
330
201
100
AcDbEntity
  8
0
  6
CONTINUOUS
 62
     3
100
AcDbText
 10
3022.570312
 20
2007.77771
 30
0.0
 40
35.0
  1
80
 41
0.857143
  7
ED_VECTOR
100
AcDbText
  0
ENDBLK
  5
203
330
201
100
AcDbEntity
  8
0
100
AcDbBlockEnd
  0
BLOCK
  5
207
330
206
100
AcDbEntity
  8
0
100
AcDbBlockBegin
  2
EDDIM021
 70
     0
 10
0.0
 20
0.0
 30
0.0
  3
EDDIM021
  1

  0
TEXT
  5
20A
330
206
100
AcDbEntity
  8
0
  6
CONTINUOUS
 62
     3
100
AcDbText
 10
3231.483154
 20
2009.149292
 30
0.0
 40
35.0
  1
580
 41
0.857143
  7
ED_VECTOR
100
AcDbText
  0
ENDBLK
  5
208
330
206
100
AcDbEntity
  8
0
100
AcDbBlockEnd
  0
BLOCK
  5
20C
330
20B
100
AcDbEntity
  8
0
100
AcDbBlockBegin
  2
EDDIM022
 70
     0
 10
0.0
 20
0.0
 30
0.0
  3
EDDIM022
  1

  0
TEXT
  5
20F
330
20B
100
AcDbEntity
  8
0
  6
CONTINUOUS
 62
     3
100
AcDbText
 10
3122.046875
 20
1937.832886
 30
0.0
 40
35.0
  1
500
 41
0.857143
  7
ED_VECTOR
100
AcDbText
  0
ENDBLK
  5
20D
330
20B
100
AcDbEntity
  8
0
100
AcDbBlockEnd
  0
BLOCK
  5
211
330
210
100
AcDbEntity
  8
0
100
AcDbBlockBegin
  2
EDDIM023
 70
     0
 10
0.0
 20
0.0
 30
0.0
  3
EDDIM023
  1

  0
TEXT
  5
214
330
210
100
AcDbEntity
  8
0
  6
CONTINUOUS
 62
     3
100
AcDbText
 10
3122.003662
 20
1870.792847
 30
0.0
 40
35.0
  1
700
 41
0.857143
  7
ED_VECTOR
100
AcDbText
  0
ENDBLK
  5
212
330
210
100
AcDbEntity
  8
0
100
AcDbBlockEnd
  0
BLOCK
  5
216
330
215
100
AcDbEntity
  8
0
100
AcDbBlockBegin
  2
EDDIM024
 70
     0
 10
0.0
 20
0.0
 30
0.0
  3
EDDIM024
  1

  0
TEXT
  5
219
330
215
100
AcDbEntity
  8
0
  6
CONTINUOUS
 62
     3
100
AcDbText
 10
3119.907471
 20
1798.359253
 30
0.0
 40
35.0
  1
300
 41
0.857143
  7
ED_VECTOR
100
AcDbText
  0
ENDBLK
  5
217
330
215
100
AcDbEntity
  8
0
100
AcDbBlockEnd
  0
BLOCK
  5
21B
330
21A
100
AcDbEntity
  8
0
100
AcDbBlockBegin
  2
EDDIM025
 70
     0
 10
0.0
 20
0.0
 30
0.0
  3
EDDIM025
  1

  0
TEXT
  5
21E
330
21A
100
AcDbEntity
  8
0
  6
CONTINUOUS
 62
     3
100
AcDbText
 10
3118.151855
 20
1728.142456
 30
0.0
 40
35.0
  1
80
 41
0.857143
  7
ED_VECTOR
100
AcDbText
  0
ENDBLK
  5
21C
330
21A
100
AcDbEntity
  8
0
100
AcDbBlockEnd
  0
BLOCK
  5
220
330
21F
100
AcDbEntity
  8
0
100
AcDbBlockBegin
  2
EDDIM026
 70
     0
 10
0.0
 20
0.0
 30
0.0
  3
EDDIM026
  1

  0
TEXT
  5
223
330
21F
100
AcDbEntity
  8
0
  6
CONTINUOUS
 62
     3
100
AcDbText
 10
3043.702148
 20
1170.371216
 30
0.0
 40
35.0
  1
３０　回／時
 41
0.857143
  7
ED_VECTOR
100
AcDbText
  0
ENDBLK
  5
221
330
21F
100
AcDbEntity
  8
0
100
AcDbBlockEnd
  0
BLOCK
  5
225
330
224
100
AcDbEntity
  8
0
100
AcDbBlockBegin
  2
EDDIM027
 70
     0
 10
0.0
 20
0.0
 30
0.0
  3
EDDIM027
  1

  0
TEXT
  5
228
330
224
100
AcDbEntity
  8
0
  6
CONTINUOUS
 62
     3
100
AcDbText
 10
3042.629639
 20
1101.723511
 30
0.0
 40
35.0
  1
約　２０　㎏
 41
0.857143
  7
ED_VECTOR
100
AcDbText
  0
ENDBLK
  5
226
330
224
100
AcDbEntity
  8
0
100
AcDbBlockEnd
  0
BLOCK
  5
6A3
330
6A2
100
AcDbEntity
  8
0
100
AcDbBlockBegin
  2
*D25
 70
     1
 10
0.0
 20
0.0
 30
0.0
  3
*D25
  1

  0
TEXT
  5
6A5
330
6A2
100
AcDbEntity
  8
0
  6
CONTINUOUS
 62
     3
100
AcDbText
 10
1541.243774
 20
1271.444214
 30
0.0
 40
30.0
  1
700
 41
0.8
  7
ED_VECTOR
100
AcDbText
  0
LINE
  5
6A6
330
6A2
100
AcDbEntity
  8
0
  6
CONTINUOUS
 62
     6
100
AcDbLine
 10
1228.243902
 20
1177.643983
 30
0.0
 11
1228.243902
 21
1280.443983
 31
0.0
  0
LINE
  5
6A7
330
6A2
100
AcDbEntity
  8
0
  6
CONTINUOUS
 62
     6
100
AcDbLine
 10
1928.243902
 20
1177.643983
 30
0.0
 11
1928.243902
 21
1280.443983
 31
0.0
  0
LINE
  5
6A8
330
6A2
100
AcDbEntity
  8
0
  6
CONTINUOUS
 62
     6
100
AcDbLine
 10
1228.243902
 20
1270.443983
 30
0.0
 11
1928.243902
 21
1270.443983
 31
0.0
  0
INSERT
  5
6A9
330
6A2
100
AcDbEntity
  8
0
  6
CONTINUOUS
 62
     6
100
AcDbBlockReference
  2
EDTIP_ARROW_S
 10
1228.243902
 20
1270.443983
 30
0.0
 41
30.0
 42
30.0
 50
180.0
  0
INSERT
  5
6AA
330
6A2
100
AcDbEntity
  8
0
  6
CONTINUOUS
 62
     6
100
AcDbBlockReference
  2
EDTIP_ARROW_E
 10
1928.243902
 20
1270.443983
 30
0.0
 41
30.0
 42
30.0
  0
ENDBLK
  5
6A4
330
6A2
100
AcDbEntity
  8
0
100
AcDbBlockEnd
  0
BLOCK
  5
6AD
330
6AC
100
AcDbEntity
  8
0
100
AcDbBlockBegin
  2
*D26
 70
     1
 10
0.0
 20
0.0
 30
0.0
  3
*D26
  1

  0
TEXT
  5
6AF
330
6AC
100
AcDbEntity
  8
0
  6
CONTINUOUS
 62
     3
100
AcDbText
 10
647.633301
 20
1271.444092
 30
0.0
 40
30.0
  1
200
 41
0.8
  7
ED_VECTOR
100
AcDbText
  0
LINE
  5
6B0
330
6AC
100
AcDbEntity
  8
0
  6
CONTINUOUS
 62
     6
100
AcDbLine
 10
584.633371
 20
1177.643983
 30
0.0
 11
584.633371
 21
1280.443983
 31
0.0
  0
LINE
  5
6B1
330
6AC
100
AcDbEntity
  8
0
  6
CONTINUOUS
 62
     6
100
AcDbLine
 10
784.633371
 20
1177.643983
 30
0.0
 11
784.633371
 21
1280.443983
 31
0.0
  0
LINE
  5
6B2
330
6AC
100
AcDbEntity
  8
0
  6
CONTINUOUS
 62
     6
100
AcDbLine
 10
584.633371
 20
1270.443983
 30
0.0
 11
784.633371
 21
1270.443983
 31
0.0
  0
INSERT
  5
6B3
330
6AC
100
AcDbEntity
  8
0
  6
CONTINUOUS
 62
     6
100
AcDbBlockReference
  2
EDTIP_ARROW_S
 10
584.633371
 20
1270.443983
 30
0.0
 41
30.0
 42
30.0
 50
180.0
  0
INSERT
  5
6B4
330
6AC
100
AcDbEntity
  8
0
  6
CONTINUOUS
 62
     6
100
AcDbBlockReference
  2
EDTIP_ARROW_E
 10
784.633371
 20
1270.443983
 30
0.0
 41
30.0
 42
30.0
  0
ENDBLK
  5
6AE
330
6AC
100
AcDbEntity
  8
0
100
AcDbBlockEnd
  0
BLOCK
  5
6B7
330
6B6
100
AcDbEntity
  8
0
100
AcDbBlockBegin
  2
*D27
 70
     1
 10
0.0
 20
0.0
 30
0.0
  3
*D27
  1

  0
TEXT
  5
6B9
330
6B6
100
AcDbEntity
  8
0
  6
CONTINUOUS
 62
     3
100
AcDbText
 10
1086.189453
 20
1022.758667
 30
0.0
 40
30.0
  1
23.1
 41
0.8
  7
ED_VECTOR
100
AcDbText
  0
LINE
  5
6BA
330
6B6
100
AcDbEntity
  8
0
  6
CONTINUOUS
 62
     6
100
AcDbLine
 10
1205.189505
 20
667.643983
 30
0.0
 11
1205.189505
 21
1031.758714
 31
0.0
  0
LINE
  5
6BB
330
6B6
100
AcDbEntity
  8
0
  6
CONTINUOUS
 62
     6
100
AcDbLine
 10
1228.243902
 20
1130.443983
 30
0.0
 11
1228.243902
 21
1011.758714
 31
0.0
  0
LINE
  5
6BC
330
6B6
100
AcDbEntity
  8
0
  6
CONTINUOUS
 62
     6
100
AcDbLine
 10
1205.189505
 20
1021.758714
 30
0.0
 11
1228.243902
 21
1021.758714
 31
0.0
  0
LINE
  5
6BD
330
6B6
100
AcDbEntity
  8
0
  6
CONTINUOUS
 62
     6
100
AcDbLine
 10
1086.189505
 20
1021.758714
 30
0.0
 11
1205.189505
 21
1021.758714
 31
0.0
  0
INSERT
  5
6BE
330
6B6
100
AcDbEntity
  8
0
  6
CONTINUOUS
 62
     6
100
AcDbBlockReference
  2
EDTIP_ARROW_E
 10
1205.189505
 20
1021.758714
 30
0.0
 41
30.0
 42
30.0
  0
LINE
  5
6BF
330
6B6
100
AcDbEntity
  8
0
  6
CONTINUOUS
 62
     6
100
AcDbLine
 10
1228.243902
 20
1021.758714
 30
0.0
 11
1278.243902
 21
1021.758714
 31
0.0
  0
INSERT
  5
6C0
330
6B6
100
AcDbEntity
  8
0
  6
CONTINUOUS
 62
     6
100
AcDbBlockReference
  2
EDTIP_ARROW_S
 10
1228.243902
 20
1021.758714
 30
0.0
 41
30.0
 42
30.0
 50
180.0
  0
ENDBLK
  5
6B8
330
6B6
100
AcDbEntity
  8
0
100
AcDbBlockEnd
  0
BLOCK
  5
6C3
330
6C2
100
AcDbEntity
  8
0
100
AcDbBlockBegin
  2
*D28
 70
     1
 10
0.0
 20
0.0
 30
0.0
  3
*D28
  1

  0
TEXT
  5
6C5
330
6C2
100
AcDbEntity
  8
0
  6
CONTINUOUS
 62
     3
100
AcDbText
 10
1518.414185
 20
461.444061
 30
0.0
 40
30.0
  1
700
 41
0.8
  7
ED_VECTOR
100
AcDbText
  0
LINE
  5
6C6
330
6C2
100
AcDbEntity
  8
0
  6
CONTINUOUS
 62
     6
100
AcDbLine
 10
1205.414348
 20
570.443983
 30
0.0
 11
1205.414348
 21
450.443983
 31
0.0
  0
LINE
  5
6C7
330
6C2
100
AcDbEntity
  8
0
  6
CONTINUOUS
 62
     6
100
AcDbLine
 10
1905.414348
 20
570.443983
 30
0.0
 11
1905.414348
 21
450.443983
 31
0.0
  0
LINE
  5
6C8
330
6C2
100
AcDbEntity
  8
0
  6
CONTINUOUS
 62
     6
100
AcDbLine
 10
1205.414348
 20
460.443983
 30
0.0
 11
1905.414348
 21
460.443983
 31
0.0
  0
INSERT
  5
6C9
330
6C2
100
AcDbEntity
  8
0
  6
CONTINUOUS
 62
     6
100
AcDbBlockReference
  2
EDTIP_ARROW_S
 10
1205.414348
 20
460.443983
 30
0.0
 41
30.0
 42
30.0
 50
180.0
  0
INSERT
  5
6CA
330
6C2
100
AcDbEntity
  8
0
  6
CONTINUOUS
 62
     6
100
AcDbBlockReference
  2
EDTIP_ARROW_E
 10
1905.414348
 20
460.443983
 30
0.0
 41
30.0
 42
30.0
  0
ENDBLK
  5
6C4
330
6C2
100
AcDbEntity
  8
0
100
AcDbBlockEnd
  0
BLOCK
  5
6CD
330
6CC
100
AcDbEntity
  8
0
100
AcDbBlockBegin
  2
*D29
 70
     1
 10
0.0
 20
0.0
 30
0.0
  3
*D29
  1

  0
TEXT
  5
6CF
330
6CC
100
AcDbEntity
  8
0
  6
CONTINUOUS
 62
     3
100
AcDbText
 10
2061.100586
 20
595.70813
 30
0.0
 40
30.0
  1
80
 50
90.0
 41
0.8
  7
ED_VECTOR
100
AcDbText
  0
LINE
  5
6D0
330
6CC
100
AcDbEntity
  8
0
  6
CONTINUOUS
 62
     6
100
AcDbLine
 10
1915.414348
 20
580.443983
 30
0.0
 11
2072.100405
 21
580.443983
 31
0.0
  0
LINE
  5
6D1
330
6CC
100
AcDbEntity
  8
0
  6
CONTINUOUS
 62
     6
100
AcDbLine
 10
1912.389505
 20
660.443983
 30
0.0
 11
2072.100405
 21
660.443983
 31
0.0
  0
LINE
  5
6D2
330
6CC
100
AcDbEntity
  8
0
  6
CONTINUOUS
 62
     6
100
AcDbLine
 10
2062.100405
 20
580.443983
 30
0.0
 11
2062.100405
 21
660.443983
 31
0.0
  0
LINE
  5
6D3
330
6CC
100
AcDbEntity
  8
0
  6
CONTINUOUS
 62
     6
100
AcDbLine
 10
2062.100405
 20
534.798063
 30
0.0
 11
2062.100405
 21
580.443983
 31
0.0
  0
INSERT
  5
6D4
330
6CC
100
AcDbEntity
  8
0
  6
CONTINUOUS
 62
     6
100
AcDbBlockReference
  2
EDTIP_ARROW_E
 10
2062.100405
 20
580.443983
 30
0.0
 41
30.0
 42
30.0
 50
90.0
  0
ENDBLK
  5
6CE
330
6CC
100
AcDbEntity
  8
0
100
AcDbBlockEnd
  0
BLOCK
  5
6D7
330
6D6
100
AcDbEntity
  8
0
100
AcDbBlockBegin
  2
*D30
 70
     1
 10
0.0
 20
0.0
 30
0.0
  3
*D30
  1

  0
TEXT
  5
6D9
330
6D6
100
AcDbEntity
  8
0
  6
CONTINUOUS
 62
     4
100
AcDbText
 10
2061.100586
 20
878.44397
 30
0.0
 40
30.0
  1
500
 50
90.0
 41
0.8
  7
ED_VECTOR
100
AcDbText
  0
LINE
  5
6DA
330
6D6
100
AcDbEntity
  8
0
  6
CONTINUOUS
 62
     6
100
AcDbLine
 10
1935.443902
 20
1170.443983
 30
0.0
 11
2072.100405
 21
1170.443983
 31
0.0
  0
LINE
  5
6DB
330
6D6
100
AcDbEntity
  8
0
  6
CONTINUOUS
 62
     6
100
AcDbLine
 10
2062.100405
 20
660.443983
 30
0.0
 11
2062.100405
 21
1170.443983
 31
0.0
  0
INSERT
  5
6DC
330
6D6
100
AcDbEntity
  8
0
  6
CONTINUOUS
 62
     6
100
AcDbBlockReference
  2
EDTIP_ARROW_S
 10
2062.100405
 20
660.443983
 30
0.0
 41
30.0
 42
30.0
 50
270.0
  0
INSERT
  5
6DD
330
6D6
100
AcDbEntity
  8
0
  6
CONTINUOUS
 62
     6
100
AcDbBlockReference
  2
EDTIP_ARROW_E
 10
2062.100405
 20
1170.443983
 30
0.0
 41
30.0
 42
30.0
 50
90.0
  0
ENDBLK
  5
6D8
330
6D6
100
AcDbEntity
  8
0
100
AcDbBlockEnd
  0
BLOCK
  5
6E0
330
6DF
100
AcDbEntity
  8
0
100
AcDbBlockBegin
  2
*D31
 70
     1
 10
0.0
 20
0.0
 30
0.0
  3
*D31
  1

  0
TEXT
  5
6E2
330
6DF
100
AcDbEntity
  8
0
  6
CONTINUOUS
 62
     4
100
AcDbText
 10
2141.100586
 20
838.44397
 30
0.0
 40
30.0
  1
580
 50
90.0
 41
0.8
  7
ED_VECTOR
100
AcDbText
  0
LINE
  5
6E3
330
6DF
100
AcDbEntity
  8
0
  6
CONTINUOUS
 62
     6
100
AcDbLine
 10
1915.414348
 20
580.443983
 30
0.0
 11
2152.100405
 21
580.443983
 31
0.0
  0
LINE
  5
6E4
330
6DF
100
AcDbEntity
  8
0
  6
CONTINUOUS
 62
     6
100
AcDbLine
 10
1935.443902
 20
1170.443983
 30
0.0
 11
2152.100405
 21
1170.443983
 31
0.0
  0
LINE
  5
6E5
330
6DF
100
AcDbEntity
  8
0
  6
CONTINUOUS
 62
     6
100
AcDbLine
 10
2142.100405
 20
580.443983
 30
0.0
 11
2142.100405
 21
1170.443983
 31
0.0
  0
INSERT
  5
6E6
330
6DF
100
AcDbEntity
  8
0
  6
CONTINUOUS
 62
     6
100
AcDbBlockReference
  2
EDTIP_ARROW_S
 10
2142.100405
 20
580.443983
 30
0.0
 41
30.0
 42
30.0
 50
270.0
  0
INSERT
  5
6E7
330
6DF
100
AcDbEntity
  8
0
  6
CONTINUOUS
 62
     6
100
AcDbBlockReference
  2
EDTIP_ARROW_E
 10
2142.100405
 20
1170.443983
 30
0.0
 41
30.0
 42
30.0
 50
90.0
  0
ENDBLK
  5
6E1
330
6DF
100
AcDbEntity
  8
0
100
AcDbBlockEnd
  0
BLOCK
  5
702
330
701
100
AcDbEntity
  8
0
100
AcDbBlockBegin
  2
BLKF035
 70
     0
 10
0.0
 20
0.0
 30
0.0
  3
BLKF035
  1

  0
LINE
  5
705
330
701
100
AcDbEntity
  8
0
  6
CONTINUOUS
 62
     3
100
AcDbLine
 10
2222.559535
 20
1514.105222
 30
0.0
 11
2265.059535
 21
1440.493063
 31
0.0
  0
LINE
  5
706
330
701
100
AcDbEntity
  8
0
  6
CENTER
 62
     5
100
AcDbLine
 10
2254.921558
 20
1603.052555
 30
0.0
 11
2284.096377
 21
1552.520286
 31
0.0
  0
LINE
  5
707
330
701
100
AcDbEntity
  8
0
  6
CONTINUOUS
 62
     2
100
AcDbLine
 10
2271.489971
 20
1542.355222
 30
0.0
 11
2313.989971
 21
1468.743063
 31
0.0
  0
LINE
  5
708
330
701
100
AcDbEntity
  8
0
  6
CONTINUOUS
 62
     3
100
AcDbLine
 10
2226.889662
 20
1516.605222
 30
0.0
 11
2265.860805
 21
1539.105222
 31
0.0
  0
LINE
  5
709
330
701
100
AcDbEntity
  8
0
  6
CONTINUOUS
 62
     3
100
AcDbLine
 10
2268.474599
 20
1439.577999
 30
0.0
 11
2329.096377
 21
1474.577999
 31
0.0
  0
LINE
  5
70A
330
701
100
AcDbEntity
  8
0
  6
CONTINUOUS
 62
     3
100
AcDbLine
 10
2225.974599
 20
1513.190159
 30
0.0
 11
2264.474599
 21
1446.506203
 31
0.0
  0
LINE
  5
70B
330
701
100
AcDbEntity
  8
0
  6
CONTINUOUS
 62
     3
100
AcDbLine
 10
2269.275869
 20
1538.190159
 30
0.0
 11
2307.775869
 21
1471.506203
 31
0.0
  0
ARC
  5
70C
330
701
100
AcDbEntity
  8
0
  6
CONTINUOUS
 62
     3
100
AcDbCircle
 10
2259.091143
 20
1505.830622
 30
0.0
 40
59.56818181817744
100
AcDbArc
 50
275.185163
 51
324.814837
  0
ARC
  5
70D
330
701
100
AcDbEntity
  8
0
  6
CONTINUOUS
 62
     3
100
AcDbCircle
 10
2228.139662
 20
1514.440159
 30
0.0
 40
2.5
100
AcDbArc
 50
120.0
 51
210.0
  0
ARC
  5
70E
330
701
100
AcDbEntity
  8
0
  6
CONTINUOUS
 62
     3
100
AcDbCircle
 10
2267.110805
 20
1536.940159
 30
0.0
 40
2.5
100
AcDbArc
 50
30.0
 51
120.0
  0
ARC
  5
70F
330
701
100
AcDbEntity
  8
0
  6
CONTINUOUS
 62
     3
100
AcDbCircle
 10
2224.724599
 20
1515.355222
 30
0.0
 40
2.5
100
AcDbArc
 50
120.0
 51
210.0
  0
ARC
  5
710
330
701
100
AcDbEntity
  8
0
  6
CONTINUOUS
 62
     3
100
AcDbCircle
 10
2267.224599
 20
1441.743063
 30
0.0
 40
2.5
100
AcDbArc
 50
210.0
 51
300.0
  0
ARC
  5
711
330
701
100
AcDbEntity
  8
0
  6
CONTINUOUS
 62
     2
100
AcDbCircle
 10
2316.155034
 20
1469.993063
 30
0.0
 40
2.5
100
AcDbArc
 50
210.0
 51
300.0
  0
ARC
  5
712
330
701
100
AcDbEntity
  8
0
  6
CONTINUOUS
 62
     2
100
AcDbCircle
 10
2273.655034
 20
1543.605222
 30
0.0
 40
2.5
100
AcDbArc
 50
120.0
 51
210.0
  0
LINE
  5
713
330
701
100
AcDbEntity
  8
0
  6
CONTINUOUS
 62
     3
100
AcDbLine
 10
2344.718155
 20
1587.520286
 30
0.0
 11
2223.474599
 21
1517.520286
 31
0.0
  0
LINE
  5
714
330
701
100
AcDbEntity
  8
0
  6
CONTINUOUS
 62
     3
100
AcDbLine
 10
2348.133219
 20
1586.605222
 30
0.0
 11
2390.633219
 21
1512.993063
 31
0.0
  0
LINE
  5
715
330
701
100
AcDbEntity
  8
0
  6
CONTINUOUS
 62
     2
100
AcDbLine
 10
2299.202784
 20
1558.355222
 30
0.0
 11
2341.702784
 21
1484.743063
 31
0.0
  0
LINE
  5
716
330
701
100
AcDbEntity
  8
0
  6
CONTINUOUS
 62
     3
100
AcDbLine
 10
2389.718155
 20
1509.577999
 30
0.0
 11
2329.096377
 21
1474.577999
 31
0.0
  0
ARC
  5
717
330
701
100
AcDbEntity
  8
0
  6
CONTINUOUS
 62
     3
100
AcDbCircle
 10
2345.968155
 20
1585.355222
 30
0.0
 40
2.5
100
AcDbArc
 50
30.0
 51
120.0
  0
ARC
  5
718
330
701
100
AcDbEntity
  8
0
  6
CONTINUOUS
 62
     3
100
AcDbCircle
 10
2388.468155
 20
1511.743063
 30
0.0
 40
2.5
100
AcDbArc
 50
300.0
 51
30.0
  0
ARC
  5
719
330
701
100
AcDbEntity
  8
0
  6
CONTINUOUS
 62
     2
100
AcDbCircle
 10
2339.53772
 20
1483.493063
 30
0.0
 40
2.5
100
AcDbArc
 50
300.0
 51
30.0
  0
ARC
  5
71A
330
701
100
AcDbEntity
  8
0
  6
CONTINUOUS
 62
     2
100
AcDbCircle
 10
2297.03772
 20
1557.105222
 30
0.0
 40
2.5
100
AcDbArc
 50
30.0
 51
120.0
  0
LINE
  5
71B
330
701
100
AcDbEntity
  8
0
  6
CONTINUOUS
 62
     3
100
AcDbLine
 10
2343.803092
 20
1584.105222
 30
0.0
 11
2304.831949
 21
1561.605222
 31
0.0
  0
LINE
  5
71C
330
701
100
AcDbEntity
  8
0
  6
CONTINUOUS
 62
     3
100
AcDbLine
 10
2347.218155
 20
1583.190159
 30
0.0
 11
2385.718155
 21
1516.506203
 31
0.0
  0
LINE
  5
71D
330
701
100
AcDbEntity
  8
0
  6
CONTINUOUS
 62
     3
100
AcDbLine
 10
2303.916885
 20
1558.190159
 30
0.0
 11
2342.416885
 21
1491.506203
 31
0.0
  0
ARC
  5
71E
330
701
100
AcDbEntity
  8
0
  6
CONTINUOUS
 62
     3
100
AcDbCircle
 10
2337.033429
 20
1550.830622
 30
0.0
 40
59.56818181817744
100
AcDbArc
 50
275.185163
 51
324.814837
  0
ARC
  5
71F
330
701
100
AcDbEntity
  8
0
  6
CONTINUOUS
 62
     3
100
AcDbCircle
 10
2345.053092
 20
1581.940159
 30
0.0
 40
2.5
100
AcDbArc
 50
30.0
 51
120.0
  0
ARC
  5
720
330
701
100
AcDbEntity
  8
0
  6
CONTINUOUS
 62
     3
100
AcDbCircle
 10
2306.081949
 20
1559.440159
 30
0.0
 40
2.5
100
AcDbArc
 50
120.0
 51
210.0
  0
LINE
  5
721
330
701
100
AcDbEntity
  8
0
  6
CONTINUOUS
 62
     3
100
AcDbLine
 10
2286.658555
 20
1562.082463
 30
0.0
 11
2274.534199
 21
1555.082463
 31
0.0
  0
LINE
  5
722
330
701
100
AcDbEntity
  8
0
  6
CONTINUOUS
 62
     3
100
AcDbLine
 10
2288.02458
 20
1561.716438
 30
0.0
 11
2291.02458
 21
1556.520286
 31
0.0
  0
LINE
  5
723
330
701
100
AcDbEntity
  8
0
  6
CONTINUOUS
 62
     3
100
AcDbLine
 10
2274.168174
 20
1553.716438
 30
0.0
 11
2277.168174
 21
1548.520286
 31
0.0
  0
ARC
  5
724
330
701
100
AcDbEntity
  8
0
  6
CONTINUOUS
 62
     3
100
AcDbCircle
 10
2275.034199
 20
1554.216438
 30
0.0
 40
1.0
100
AcDbArc
 50
120.0
 51
210.0
  0
ARC
  5
725
330
701
100
AcDbEntity
  8
0
  6
CONTINUOUS
 62
     3
100
AcDbCircle
 10
2287.158555
 20
1561.216438
 30
0.0
 40
1.0
100
AcDbArc
 50
30.0
 51
120.0
  0
LINE
  5
726
330
701
100
AcDbEntity
  8
0
  6
CONTINUOUS
 62
     2
100
AcDbLine
 10
2283.309711
 20
1529.557513
 30
0.0
 11
2278.742211
 21
1537.468655
 31
0.0
  0
LINE
  5
727
330
701
100
AcDbEntity
  8
0
  6
CONTINUOUS
 62
     2
100
AcDbLine
 10
2303.769561
 20
1541.370013
 30
0.0
 11
2299.202061
 21
1549.281155
 31
0.0
  0
LINE
  5
728
330
701
100
AcDbEntity
  8
0
  6
CONTINUOUS
 62
     2
100
AcDbLine
 10
2279.203403
 20
1539.189847
 30
0.0
 11
2297.480869
 21
1549.742347
 31
0.0
  0
LINE
  5
729
330
701
100
AcDbEntity
  8
0
  6
CONTINUOUS
 62
     2
100
AcDbLine
 10
2285.030903
 20
1529.096321
 30
0.0
 11
2303.308369
 21
1539.648821
 31
0.0
  0
LINE
  5
72A
330
701
100
AcDbEntity
  8
0
  6
CONTINUOUS
 62
     2
100
AcDbLine
 10
2301.817773
 20
1540.970609
 30
0.0
 11
2297.801523
 21
1547.926958
 31
0.0
  0
LINE
  5
72B
330
701
100
AcDbEntity
  8
0
  6
CONTINUOUS
 62
     2
100
AcDbLine
 10
2299.089793
 20
1539.395609
 30
0.0
 11
2298.617293
 21
1540.214003
 31
0.0
  0
LINE
  5
72C
330
701
100
AcDbEntity
  8
0
  6
CONTINUOUS
 62
     2
100
AcDbLine
 10
2291.587848
 20
1535.064359
 30
0.0
 11
2291.115348
 21
1535.882753
 31
0.0
  0
LINE
  5
72D
330
701
100
AcDbEntity
  8
0
  6
CONTINUOUS
 62
     2
100
AcDbLine
 10
2287.632277
 20
1532.780609
 30
0.0
 11
2285.112277
 21
1537.145377
 31
0.0
  0
LINE
  5
72E
330
701
100
AcDbEntity
  8
0
  6
CONTINUOUS
 62
     2
100
AcDbLine
 10
2289.13832
 20
1532.377066
 30
0.0
 11
2291.184305
 21
1533.558316
 31
0.0
  0
LINE
  5
72F
330
701
100
AcDbEntity
  8
0
  6
CONTINUOUS
 62
     2
100
AcDbLine
 10
2285.51582
 20
1538.65142
 30
0.0
 11
2287.561805
 21
1539.83267
 31
0.0
  0
LINE
  5
730
330
701
100
AcDbEntity
  8
0
  6
CONTINUOUS
 62
     2
100
AcDbLine
 10
2295.477086
 20
1547.858001
 30
0.0
 11
2296.29548
 21
1548.330501
 31
0.0
  0
LINE
  5
731
330
701
100
AcDbEntity
  8
0
  6
CONTINUOUS
 62
     2
100
AcDbLine
 10
2291.461242
 20
1537.173647
 30
0.0
 11
2297.326399
 21
1540.559897
 31
0.0
  0
LINE
  5
732
330
701
100
AcDbEntity
  8
0
  6
CONTINUOUS
 62
     2
100
AcDbLine
 10
2291.067492
 20
1537.855642
 30
0.0
 11
2296.932649
 21
1541.241892
 31
0.0
  0
ARC
  5
733
330
701
100
AcDbEntity
  8
0
  6
CONTINUOUS
 62
     2
100
AcDbCircle
 10
2288.58707
 20
1533.331859
 30
0.0
 40
1.1025
100
AcDbArc
 50
210.0
 51
300.0
  0
ARC
  5
734
330
701
100
AcDbEntity
  8
0
  6
CONTINUOUS
 62
     2
100
AcDbCircle
 10
2286.06707
 20
1537.696627
 30
0.0
 40
1.1025
100
AcDbArc
 50
120.0
 51
210.0
  0
ARC
  5
735
330
701
100
AcDbEntity
  8
0
  6
CONTINUOUS
 62
     2
100
AcDbCircle
 10
2288.113055
 20
1538.877877
 30
0.0
 40
1.1025
100
AcDbArc
 50
30.0
 51
120.0
  0
ARC
  5
736
330
701
100
AcDbEntity
  8
0
  6
CONTINUOUS
 62
     2
100
AcDbCircle
 10
2290.633055
 20
1534.513109
 30
0.0
 40
1.1025
100
AcDbArc
 50
300.0
 51
30.0
  0
ARC
  5
737
330
701
100
AcDbEntity
  8
0
  6
CONTINUOUS
 62
     2
100
AcDbCircle
 10
2296.028336
 20
1546.903208
 30
0.0
 40
1.1025
100
AcDbArc
 50
120.0
 51
210.0
  0
ARC
  5
738
330
701
100
AcDbEntity
  8
0
  6
CONTINUOUS
 62
     2
100
AcDbCircle
 10
2296.84673
 20
1547.375708
 30
0.0
 40
1.1025
100
AcDbArc
 50
30.0
 51
120.0
  0
ARC
  5
739
330
701
100
AcDbEntity
  8
0
  6
CONTINUOUS
 62
     2
100
AcDbCircle
 10
2300.86298
 20
1540.419359
 30
0.0
 40
1.1025
100
AcDbArc
 50
300.0
 51
30.0
  0
ARC
  5
73A
330
701
100
AcDbEntity
  8
0
  6
CONTINUOUS
 62
     2
100
AcDbCircle
 10
2300.044586
 20
1539.946859
 30
0.0
 40
1.1025
100
AcDbArc
 50
210.0
 51
300.0
  0
LINE
  5
73B
330
701
100
AcDbEntity
  8
0
  6
CONTINUOUS
 62
     2
100
AcDbLine
 10
2289.776598
 20
1538.201536
 30
0.0
 11
2289.067848
 21
1539.429127
 31
0.0
  0
LINE
  5
73C
330
701
100
AcDbEntity
  8
0
  6
CONTINUOUS
 62
     2
100
AcDbLine
 10
2297.278543
 20
1542.532786
 30
0.0
 11
2295.073543
 21
1546.351958
 31
0.0
  0
ARC
  5
73D
330
701
100
AcDbEntity
  8
0
  6
CONTINUOUS
 62
     2
100
AcDbCircle
 10
2291.933742
 20
1536.355253
 30
0.0
 40
0.9450000000000001
100
AcDbArc
 50
120.0
 51
210.0
  0
ARC
  5
73E
330
701
100
AcDbEntity
  8
0
  6
CONTINUOUS
 62
     2
100
AcDbCircle
 10
2290.594992
 20
1538.674036
 30
0.0
 40
0.9450000000000001
100
AcDbArc
 50
210.0
 51
300.0
  0
ARC
  5
73F
330
701
100
AcDbEntity
  8
0
  6
CONTINUOUS
 62
     2
100
AcDbCircle
 10
2296.460149
 20
1542.060286
 30
0.0
 40
0.9450000000000001
100
AcDbArc
 50
300.0
 51
30.0
  0
ARC
  5
740
330
701
100
AcDbEntity
  8
0
  6
CONTINUOUS
 62
     2
100
AcDbCircle
 10
2284.400903
 20
1530.187513
 30
0.0
 40
1.26
100
AcDbArc
 50
210.0
 51
300.0
  0
ARC
  5
741
330
701
100
AcDbEntity
  8
0
  6
CONTINUOUS
 62
     2
100
AcDbCircle
 10
2279.833403
 20
1538.098655
 30
0.0
 40
1.26
100
AcDbArc
 50
120.0
 51
210.0
  0
ARC
  5
742
330
701
100
AcDbEntity
  8
0
  6
CONTINUOUS
 62
     2
100
AcDbCircle
 10
2298.110869
 20
1548.651155
 30
0.0
 40
1.26
100
AcDbArc
 50
30.0
 51
120.0
  0
ARC
  5
743
330
701
100
AcDbEntity
  8
0
  6
CONTINUOUS
 62
     2
100
AcDbCircle
 10
2302.678369
 20
1540.740013
 30
0.0
 40
1.26
100
AcDbArc
 50
300.0
 51
30.0
  0
ARC
  5
744
330
701
100
AcDbEntity
  8
0
  6
CONTINUOUS
 62
     2
100
AcDbCircle
 10
2297.798899
 20
1539.741503
 30
0.0
 40
0.9450000000000001
100
AcDbArc
 50
30.0
 51
120.0
  0
LINE
  5
745
330
701
100
AcDbEntity
  8
0
  6
CONTINUOUS
 62
     2
100
AcDbLine
 10
2300.595836
 20
1538.992066
 30
0.0
 11
2301.41423
 21
1539.464566
 31
0.0
  0
CIRCLE
  5
746
330
701
100
AcDbEntity
  8
0
  6
CONTINUOUS
 62
     2
100
AcDbCircle
 10
2328.214666
 20
1492.339126
 30
0.0
 40
1.5
  0
CIRCLE
  5
747
330
701
100
AcDbEntity
  8
0
  6
CONTINUOUS
 62
     2
100
AcDbCircle
 10
2328.214666
 20
1492.339126
 30
0.0
 40
1.0
  0
POINT
  5
748
330
701
100
AcDbEntity
  8
0
  6
CONTINUOUS
 62
     2
100
AcDbPoint
 10
2328.214666
 20
1492.339126
 30
0.0
  0
CIRCLE
  5
749
330
701
100
AcDbEntity
  8
0
  6
CONTINUOUS
 62
     2
100
AcDbCircle
 10
2323.214666
 20
1500.99938
 30
0.0
 40
1.5
  0
CIRCLE
  5
74A
330
701
100
AcDbEntity
  8
0
  6
CONTINUOUS
 62
     2
100
AcDbCircle
 10
2323.214666
 20
1500.99938
 30
0.0
 40
1.0
  0
POINT
  5
74B
330
701
100
AcDbEntity
  8
0
  6
CONTINUOUS
 62
     2
100
AcDbPoint
 10
2323.214666
 20
1500.99938
 30
0.0
  0
CIRCLE
  5
74C
330
701
100
AcDbEntity
  8
0
  6
CONTINUOUS
 62
     2
100
AcDbCircle
 10
2318.214666
 20
1509.659634
 30
0.0
 40
1.5
  0
CIRCLE
  5
74D
330
701
100
AcDbEntity
  8
0
  6
CONTINUOUS
 62
     2
100
AcDbCircle
 10
2318.214666
 20
1509.659634
 30
0.0
 40
1.0
  0
POINT
  5
74E
330
701
100
AcDbEntity
  8
0
  6
CONTINUOUS
 62
     2
100
AcDbPoint
 10
2318.214666
 20
1509.659634
 30
0.0
  0
TEXT
  5
74F
330
701
100
AcDbEntity
  8
0
  6
CONTINUOUS
 62
     2
100
AcDbText
 10
2316.797613
 20
1483.642127
 30
0.0
 40
3.646549
  1
3
 50
30.0
 41
1.113868
  7
ED_VECTOR
100
AcDbText
  0
TEXT
  5
750
330
701
100
AcDbEntity
  8
0
  6
CONTINUOUS
 62
     2
100
AcDbText
 10
2311.797613
 20
1492.302405
 30
0.0
 40
3.646549
  1
2
 50
30.0
 41
1.113868
  7
ED_VECTOR
100
AcDbText
  0
TEXT
  5
751
330
701
100
AcDbEntity
  8
0
  6
CONTINUOUS
 62
     2
100
AcDbText
 10
2306.797613
 20
1500.962561
 30
0.0
 40
3.646549
  1
1
 50
30.0
 41
1.113868
  7
ED_VECTOR
100
AcDbText
  0
CIRCLE
  5
752
330
701
100
AcDbEntity
  8
0
  6
CONTINUOUS
 62
     2
100
AcDbCircle
 10
2258.045107
 20
1497.642409
 30
0.0
 40
2.5
  0
CIRCLE
  5
753
330
701
100
AcDbEntity
  8
0
  6
CONTINUOUS
 62
     2
100
AcDbCircle
 10
2249.384853
 20
1492.642409
 30
0.0
 40
2.5
  0
CIRCLE
  5
754
330
701
100
AcDbEntity
  8
0
  6
CONTINUOUS
 62
     2
100
AcDbCircle
 10
2254.384853
 20
1483.982155
 30
0.0
 40
2.5
  0
CIRCLE
  5
755
330
701
100
AcDbEntity
  8
0
  6
CONTINUOUS
 62
     2
100
AcDbCircle
 10
2263.045107
 20
1488.982155
 30
0.0
 40
2.5
  0
CIRCLE
  5
756
330
701
100
AcDbEntity
  8
0
  6
CONTINUOUS
 62
     2
100
AcDbCircle
 10
2268.045107
 20
1480.321901
 30
0.0
 40
2.5
  0
CIRCLE
  5
757
330
701
100
AcDbEntity
  8
0
  6
CONTINUOUS
 62
     2
100
AcDbCircle
 10
2259.384853
 20
1475.321901
 30
0.0
 40
2.5
  0
CIRCLE
  5
758
330
701
100
AcDbEntity
  8
0
  6
CONTINUOUS
 62
     2
100
AcDbCircle
 10
2264.384853
 20
1466.661647
 30
0.0
 40
2.5
  0
CIRCLE
  5
759
330
701
100
AcDbEntity
  8
0
  6
CONTINUOUS
 62
     2
100
AcDbCircle
 10
2273.045107
 20
1471.661647
 30
0.0
 40
2.5
  0
CIRCLE
  5
75A
330
701
100
AcDbEntity
  8
0
  6
CONTINUOUS
 62
     2
100
AcDbCircle
 10
2278.045107
 20
1463.001393
 30
0.0
 40
2.5
  0
CIRCLE
  5
75B
330
701
100
AcDbEntity
  8
0
  6
CONTINUOUS
 62
     2
100
AcDbCircle
 10
2269.384853
 20
1458.001393
 30
0.0
 40
2.5
  0
CIRCLE
  5
75C
330
701
100
AcDbEntity
  8
0
  6
CONTINUOUS
 62
     2
100
AcDbCircle
 10
2266.705361
 20
1502.642409
 30
0.0
 40
2.5
  0
CIRCLE
  5
75D
330
701
100
AcDbEntity
  8
0
  6
CONTINUOUS
 62
     2
100
AcDbCircle
 10
2275.365615
 20
1507.642409
 30
0.0
 40
2.5
  0
CIRCLE
  5
75E
330
701
100
AcDbEntity
  8
0
  6
CONTINUOUS
 62
     2
100
AcDbCircle
 10
2280.365615
 20
1498.982155
 30
0.0
 40
2.5
  0
CIRCLE
  5
75F
330
701
100
AcDbEntity
  8
0
  6
CONTINUOUS
 62
     2
100
AcDbCircle
 10
2271.705361
 20
1493.982155
 30
0.0
 40
2.5
  0
CIRCLE
  5
760
330
701
100
AcDbEntity
  8
0
  6
CONTINUOUS
 62
     2
100
AcDbCircle
 10
2276.705361
 20
1485.321901
 30
0.0
 40
2.5
  0
CIRCLE
  5
761
330
701
100
AcDbEntity
  8
0
  6
CONTINUOUS
 62
     2
100
AcDbCircle
 10
2285.365615
 20
1490.321901
 30
0.0
 40
2.5
  0
CIRCLE
  5
762
330
701
100
AcDbEntity
  8
0
  6
CONTINUOUS
 62
     2
100
AcDbCircle
 10
2290.365615
 20
1481.661647
 30
0.0
 40
2.5
  0
CIRCLE
  5
763
330
701
100
AcDbEntity
  8
0
  6
CONTINUOUS
 62
     2
100
AcDbCircle
 10
2281.705361
 20
1476.661647
 30
0.0
 40
2.5
  0
CIRCLE
  5
764
330
701
100
AcDbEntity
  8
0
  6
CONTINUOUS
 62
     2
100
AcDbCircle
 10
2286.705361
 20
1468.001393
 30
0.0
 40
2.5
  0
CIRCLE
  5
765
330
701
100
AcDbEntity
  8
0
  6
CONTINUOUS
 62
     2
100
AcDbCircle
 10
2295.365615
 20
1473.001393
 30
0.0
 40
2.5
  0
CIRCLE
  5
766
330
701
100
AcDbEntity
  8
0
  6
CONTINUOUS
 62
     2
100
AcDbCircle
 10
2344.647647
 20
1547.642409
 30
0.0
 40
2.5
  0
CIRCLE
  5
767
330
701
100
AcDbEntity
  8
0
  6
CONTINUOUS
 62
     2
100
AcDbCircle
 10
2353.307901
 20
1552.642409
 30
0.0
 40
2.5
  0
CIRCLE
  5
768
330
701
100
AcDbEntity
  8
0
  6
CONTINUOUS
 62
     2
100
AcDbCircle
 10
2358.307901
 20
1543.982155
 30
0.0
 40
2.5
  0
CIRCLE
  5
769
330
701
100
AcDbEntity
  8
0
  6
CONTINUOUS
 62
     2
100
AcDbCircle
 10
2349.647647
 20
1538.982155
 30
0.0
 40
2.5
  0
CIRCLE
  5
76A
330
701
100
AcDbEntity
  8
0
  6
CONTINUOUS
 62
     2
100
AcDbCircle
 10
2354.647647
 20
1530.321901
 30
0.0
 40
2.5
  0
CIRCLE
  5
76B
330
701
100
AcDbEntity
  8
0
  6
CONTINUOUS
 62
     2
100
AcDbCircle
 10
2363.307901
 20
1535.321901
 30
0.0
 40
2.5
  0
CIRCLE
  5
76C
330
701
100
AcDbEntity
  8
0
  6
CONTINUOUS
 62
     2
100
AcDbCircle
 10
2368.307901
 20
1526.661647
 30
0.0
 40
2.5
  0
CIRCLE
  5
76D
330
701
100
AcDbEntity
  8
0
  6
CONTINUOUS
 62
     2
100
AcDbCircle
 10
2359.647647
 20
1521.661647
 30
0.0
 40
2.5
  0
CIRCLE
  5
76E
330
701
100
AcDbEntity
  8
0
  6
CONTINUOUS
 62
     2
100
AcDbCircle
 10
2364.647647
 20
1513.001393
 30
0.0
 40
2.5
  0
CIRCLE
  5
76F
330
701
100
AcDbEntity
  8
0
  6
CONTINUOUS
 62
     2
100
AcDbCircle
 10
2373.307901
 20
1518.001393
 30
0.0
 40
2.5
  0
CIRCLE
  5
770
330
701
100
AcDbEntity
  8
0
  6
CONTINUOUS
 62
     2
100
AcDbCircle
 10
2335.987393
 20
1542.642409
 30
0.0
 40
2.5
  0
CIRCLE
  5
771
330
701
100
AcDbEntity
  8
0
  6
CONTINUOUS
 62
     2
100
AcDbCircle
 10
2327.327139
 20
1537.642409
 30
0.0
 40
2.5
  0
CIRCLE
  5
772
330
701
100
AcDbEntity
  8
0
  6
CONTINUOUS
 62
     2
100
AcDbCircle
 10
2332.327139
 20
1528.982155
 30
0.0
 40
2.5
  0
CIRCLE
  5
773
330
701
100
AcDbEntity
  8
0
  6
CONTINUOUS
 62
     2
100
AcDbCircle
 10
2340.987393
 20
1533.982155
 30
0.0
 40
2.5
  0
CIRCLE
  5
774
330
701
100
AcDbEntity
  8
0
  6
CONTINUOUS
 62
     2
100
AcDbCircle
 10
2345.987393
 20
1525.321901
 30
0.0
 40
2.5
  0
CIRCLE
  5
775
330
701
100
AcDbEntity
  8
0
  6
CONTINUOUS
 62
     2
100
AcDbCircle
 10
2337.327139
 20
1520.321901
 30
0.0
 40
2.5
  0
CIRCLE
  5
776
330
701
100
AcDbEntity
  8
0
  6
CONTINUOUS
 62
     2
100
AcDbCircle
 10
2342.327139
 20
1511.661647
 30
0.0
 40
2.5
  0
CIRCLE
  5
777
330
701
100
AcDbEntity
  8
0
  6
CONTINUOUS
 62
     2
100
AcDbCircle
 10
2350.987393
 20
1516.661647
 30
0.0
 40
2.5
  0
CIRCLE
  5
778
330
701
100
AcDbEntity
  8
0
  6
CONTINUOUS
 62
     2
100
AcDbCircle
 10
2355.987393
 20
1508.001393
 30
0.0
 40
2.5
  0
CIRCLE
  5
779
330
701
100
AcDbEntity
  8
0
  6
CONTINUOUS
 62
     2
100
AcDbCircle
 10
2347.327139
 20
1503.001393
 30
0.0
 40
2.5
  0
LINE
  5
77A
330
701
100
AcDbEntity
  8
0
  6
CONTINUOUS
 62
     2
100
AcDbLine
 10
2312.162076
 20
1558.90907
 30
0.0
 11
2342.472965
 21
1576.40907
 31
0.0
  0
LINE
  5
77B
330
701
100
AcDbEntity
  8
0
  6
CONTINUOUS
 62
     2
100
AcDbLine
 10
2320.162076
 20
1545.052663
 30
0.0
 11
2350.472965
 21
1562.552663
 31
0.0
  0
LINE
  5
77C
330
701
100
AcDbEntity
  8
0
  6
CONTINUOUS
 62
     2
100
AcDbLine
 10
2311.613038
 20
1556.860032
 30
0.0
 11
2318.113038
 21
1545.601701
 31
0.0
  0
LINE
  5
77D
330
701
100
AcDbEntity
  8
0
  6
CONTINUOUS
 62
     2
100
AcDbLine
 10
2312.662076
 20
1558.043044
 30
0.0
 11
2342.972965
 21
1575.543044
 31
0.0
  0
LINE
  5
77E
330
701
100
AcDbEntity
  8
0
  6
CONTINUOUS
 62
     2
100
AcDbLine
 10
2319.662076
 20
1545.918689
 30
0.0
 11
2349.972965
 21
1563.418689
 31
0.0
  0
LINE
  5
77F
330
701
100
AcDbEntity
  8
0
  6
CONTINUOUS
 62
     2
100
AcDbLine
 10
2312.479063
 20
1557.360032
 30
0.0
 11
2318.979063
 21
1546.101701
 31
0.0
  0
LINE
  5
780
330
701
100
AcDbEntity
  8
0
  6
CONTINUOUS
 62
     2
100
AcDbLine
 10
2344.522003
 20
1575.860032
 30
0.0
 11
2351.022003
 21
1564.601701
 31
0.0
  0
LINE
  5
781
330
701
100
AcDbEntity
  8
0
  6
CONTINUOUS
 62
     2
100
AcDbLine
 10
2343.655978
 20
1575.360032
 30
0.0
 11
2350.155978
 21
1564.101701
 31
0.0
  0
ARC
  5
782
330
701
100
AcDbEntity
  8
0
  6
CONTINUOUS
 62
     2
100
AcDbCircle
 10
2312.912076
 20
1557.610032
 30
0.0
 40
0.5
100
AcDbArc
 50
120.0
 51
210.0
  0
ARC
  5
783
330
701
100
AcDbEntity
  8
0
  6
CONTINUOUS
 62
     2
100
AcDbCircle
 10
2319.412076
 20
1546.351701
 30
0.0
 40
0.5
100
AcDbArc
 50
210.0
 51
300.0
  0
ARC
  5
784
330
701
100
AcDbEntity
  8
0
  6
CONTINUOUS
 62
     2
100
AcDbCircle
 10
2343.222965
 20
1575.110032
 30
0.0
 40
0.5
100
AcDbArc
 50
30.0
 51
120.0
  0
ARC
  5
785
330
701
100
AcDbEntity
  8
0
  6
CONTINUOUS
 62
     2
100
AcDbCircle
 10
2349.722965
 20
1563.851701
 30
0.0
 40
0.5
100
AcDbArc
 50
300.0
 51
30.0
  0
ARC
  5
786
330
701
100
AcDbEntity
  8
0
  6
CONTINUOUS
 62
     2
100
AcDbCircle
 10
2312.912076
 20
1557.610032
 30
0.0
 40
1.5
100
AcDbArc
 50
120.0
 51
210.0
  0
ARC
  5
787
330
701
100
AcDbEntity
  8
0
  6
CONTINUOUS
 62
     2
100
AcDbCircle
 10
2319.412076
 20
1546.351701
 30
0.0
 40
1.5
100
AcDbArc
 50
210.0
 51
300.0
  0
ARC
  5
788
330
701
100
AcDbEntity
  8
0
  6
CONTINUOUS
 62
     2
100
AcDbCircle
 10
2343.222965
 20
1575.110032
 30
0.0
 40
1.5
100
AcDbArc
 50
30.0
 51
120.0
  0
ARC
  5
789
330
701
100
AcDbEntity
  8
0
  6
CONTINUOUS
 62
     2
100
AcDbCircle
 10
2349.722965
 20
1563.851701
 30
0.0
 40
1.5
100
AcDbArc
 50
300.0
 51
30.0
  0
LINE
  5
78A
330
701
100
AcDbEntity
  8
0
  6
CONTINUOUS
 62
     2
100
AcDbLine
 10
2322.023292
 20
1558.828943
 30
0.0
 11
2337.611749
 21
1567.828943
 31
0.0
  0
LINE
  5
78B
330
701
100
AcDbEntity
  8
0
  6
CONTINUOUS
 62
     2
100
AcDbLine
 10
2328.278484
 20
1565.994631
 30
0.0
 11
2337.611749
 21
1567.828943
 31
0.0
  0
LINE
  5
78C
330
701
100
AcDbEntity
  8
0
  6
CONTINUOUS
 62
     2
100
AcDbLine
 10
2328.278484
 20
1565.994631
 30
0.0
 11
2322.023292
 21
1558.828943
 31
0.0
  0
TEXT
  5
78D
330
701
100
AcDbEntity
  8
0
  6
CONTINUOUS
 62
     2
100
AcDbText
 10
2326.187544
 20
1551.656162
 30
0.0
 40
7.066058
  1
UP
 50
30.0
 41
1.166654
  7
ED_VECTOR
100
AcDbText
  0
LINE
  5
78E
330
701
100
AcDbEntity
  8
0
  6
CONTINUOUS
 62
     2
100
AcDbLine
 10
2264.530678
 20
1531.40907
 30
0.0
 11
2234.219789
 21
1513.90907
 31
0.0
  0
LINE
  5
78F
330
701
100
AcDbEntity
  8
0
  6
CONTINUOUS
 62
     2
100
AcDbLine
 10
2272.530678
 20
1517.552663
 30
0.0
 11
2242.219789
 21
1500.052663
 31
0.0
  0
LINE
  5
790
330
701
100
AcDbEntity
  8
0
  6
CONTINUOUS
 62
     2
100
AcDbLine
 10
2266.579717
 20
1530.860032
 30
0.0
 11
2273.079717
 21
1519.601701
 31
0.0
  0
LINE
  5
791
330
701
100
AcDbEntity
  8
0
  6
CONTINUOUS
 62
     2
100
AcDbLine
 10
2265.030678
 20
1530.543044
 30
0.0
 11
2234.719789
 21
1513.043044
 31
0.0
  0
LINE
  5
792
330
701
100
AcDbEntity
  8
0
  6
CONTINUOUS
 62
     2
100
AcDbLine
 10
2272.030678
 20
1518.418689
 30
0.0
 11
2241.719789
 21
1500.918689
 31
0.0
  0
LINE
  5
793
330
701
100
AcDbEntity
  8
0
  6
CONTINUOUS
 62
     2
100
AcDbLine
 10
2265.713691
 20
1530.360032
 30
0.0
 11
2272.213691
 21
1519.101701
 31
0.0
  0
LINE
  5
794
330
701
100
AcDbEntity
  8
0
  6
CONTINUOUS
 62
     2
100
AcDbLine
 10
2233.670751
 20
1511.860032
 30
0.0
 11
2240.170751
 21
1500.601701
 31
0.0
  0
LINE
  5
795
330
701
100
AcDbEntity
  8
0
  6
CONTINUOUS
 62
     2
100
AcDbLine
 10
2234.536777
 20
1512.360032
 30
0.0
 11
2241.036777
 21
1501.101701
 31
0.0
  0
ARC
  5
796
330
701
100
AcDbEntity
  8
0
  6
CONTINUOUS
 62
     2
100
AcDbCircle
 10
2265.280678
 20
1530.110032
 30
0.0
 40
0.5
100
AcDbArc
 50
30.0
 51
120.0
  0
ARC
  5
797
330
701
100
AcDbEntity
  8
0
  6
CONTINUOUS
 62
     2
100
AcDbCircle
 10
2271.780678
 20
1518.851701
 30
0.0
 40
0.5
100
AcDbArc
 50
300.0
 51
30.0
  0
ARC
  5
798
330
701
100
AcDbEntity
  8
0
  6
CONTINUOUS
 62
     2
100
AcDbCircle
 10
2234.969789
 20
1512.610032
 30
0.0
 40
0.5
100
AcDbArc
 50
120.0
 51
210.0
  0
ARC
  5
799
330
701
100
AcDbEntity
  8
0
  6
CONTINUOUS
 62
     2
100
AcDbCircle
 10
2241.469789
 20
1501.351701
 30
0.0
 40
0.5
100
AcDbArc
 50
210.0
 51
300.0
  0
ARC
  5
79A
330
701
100
AcDbEntity
  8
0
  6
CONTINUOUS
 62
     2
100
AcDbCircle
 10
2265.280678
 20
1530.110032
 30
0.0
 40
1.5
100
AcDbArc
 50
30.0
 51
120.0
  0
ARC
  5
79B
330
701
100
AcDbEntity
  8
0
  6
CONTINUOUS
 62
     2
100
AcDbCircle
 10
2271.780678
 20
1518.851701
 30
0.0
 40
1.5
100
AcDbArc
 50
300.0
 51
30.0
  0
ARC
  5
79C
330
701
100
AcDbEntity
  8
0
  6
CONTINUOUS
 62
     2
100
AcDbCircle
 10
2234.969789
 20
1512.610032
 30
0.0
 40
1.5
100
AcDbArc
 50
120.0
 51
210.0
  0
ARC
  5
79D
330
701
100
AcDbEntity
  8
0
  6
CONTINUOUS
 62
     2
100
AcDbCircle
 10
2241.469789
 20
1501.351701
 30
0.0
 40
1.5
100
AcDbArc
 50
210.0
 51
300.0
  0
LINE
  5
79E
330
701
100
AcDbEntity
  8
0
  6
CONTINUOUS
 62
     2
100
AcDbLine
 10
2262.405928
 20
1518.089246
 30
0.0
 11
2246.81747
 21
1509.089246
 31
0.0
  0
LINE
  5
79F
330
701
100
AcDbEntity
  8
0
  6
CONTINUOUS
 62
     2
100
AcDbLine
 10
2256.150735
 20
1510.923558
 30
0.0
 11
2246.81747
 21
1509.089246
 31
0.0
  0
LINE
  5
7A0
330
701
100
AcDbEntity
  8
0
  6
CONTINUOUS
 62
     2
100
AcDbLine
 10
2256.150735
 20
1510.923558
 30
0.0
 11
2262.405928
 21
1518.089246
 31
0.0
  0
TEXT
  5
7A1
330
701
100
AcDbEntity
  8
0
  6
CONTINUOUS
 62
     2
100
AcDbText
 10
2241.077984
 20
1507.634771
 30
0.0
 40
6.383575
  1
DOWN
 50
30.0
 41
0.969444
  7
ED_VECTOR
100
AcDbText
  0
ENDBLK
  5
703
330
701
100
AcDbEntity
  8
0
100
AcDbBlockEnd
  0
BLOCK
  5
7A3
330
7A2
100
AcDbEntity
  8
0
100
AcDbBlockBegin
  2
EDDIM036
 70
     0
 10
0.0
 20
0.0
 30
0.0
  3
EDDIM036
  1

  0
TEXT
  5
7A6
330
7A2
100
AcDbEntity
  8
0
  6
CONTINUOUS
 62
     3
100
AcDbText
 10
1123.72583
 20
1986.48938
 30
0.0
 40
30.0
  1
アンカーピッチ
 41
0.8
  7
ED_VECTOR
100
AcDbText
  0
LINE
  5
7A7
330
7A2
100
AcDbEntity
  8
0
  6
CONTINUOUS
 62
     6
100
AcDbLine
 10
1105.414348
 20
1985.489322
 30
0.0
 11
1307.725582
 21
1985.489322
 31
0.0
  0
ENDBLK
  5
7A4
330
7A2
100
AcDbEntity
  8
0
100
AcDbBlockEnd
  0
BLOCK
  5
7AB
330
7AA
100
AcDbEntity
  8
0
100
AcDbBlockBegin
  2
*D34
 70
     1
 10
0.0
 20
0.0
 30
0.0
  3
*D34
  1

  0
TEXT
  5
7AD
330
7AA
100
AcDbEntity
  8
0
  6
CONTINUOUS
 62
     3
100
AcDbText
 10
1104.414551
 20
1686.421997
 30
0.0
 40
30.0
  1
250
 50
90.0
 41
0.8
  7
ED_VECTOR
100
AcDbText
  0
LINE
  5
7AE
330
7AA
100
AcDbEntity
  8
0
  6
CONTINUOUS
 62
     6
100
AcDbLine
 10
1201.720422
 20
1598.421865
 30
0.0
 11
1095.414348
 21
1598.421865
 31
0.0
  0
LINE
  5
7AF
330
7AA
100
AcDbEntity
  8
0
  6
CONTINUOUS
 62
     6
100
AcDbLine
 10
1201.720422
 20
1848.421865
 30
0.0
 11
1095.414348
 21
1848.421865
 31
0.0
  0
LINE
  5
7B0
330
7AA
100
AcDbEntity
  8
0
  6
CONTINUOUS
 62
     6
100
AcDbLine
 10
1105.414348
 20
1598.421865
 30
0.0
 11
1105.414348
 21
1848.421865
 31
0.0
  0
INSERT
  5
7B1
330
7AA
100
AcDbEntity
  8
0
  6
CONTINUOUS
 62
     6
100
AcDbBlockReference
  2
EDTIP_ARROW_S
 10
1105.414348
 20
1598.421865
 30
0.0
 41
30.0
 42
30.0
 50
270.0
  0
INSERT
  5
7B2
330
7AA
100
AcDbEntity
  8
0
  6
CONTINUOUS
 62
     6
100
AcDbBlockReference
  2
EDTIP_ARROW_E
 10
1105.414348
 20
1848.421865
 30
0.0
 41
30.0
 42
30.0
 50
90.0
  0
ENDBLK
  5
7AC
330
7AA
100
AcDbEntity
  8
0
100
AcDbBlockEnd
  0
BLOCK
  5
7B5
330
7B4
100
AcDbEntity
  8
0
100
AcDbBlockBegin
  2
*D35
 70
     1
 10
0.0
 20
0.0
 30
0.0
  3
*D35
  1

  0
TEXT
  5
7B7
330
7B4
100
AcDbEntity
  8
0
  6
CONTINUOUS
 62
     3
100
AcDbText
 10
1024.414551
 20
1686.421997
 30
0.0
 40
30.0
  1
300
 50
90.0
 41
0.8
  7
ED_VECTOR
100
AcDbText
  0
LINE
  5
7B8
330
7B4
100
AcDbEntity
  8
0
  6
CONTINUOUS
 62
     6
100
AcDbLine
 10
1200.414348
 20
1573.421865
 30
0.0
 11
1015.414348
 21
1573.421865
 31
0.0
  0
LINE
  5
7B9
330
7B4
100
AcDbEntity
  8
0
  6
CONTINUOUS
 62
     6
100
AcDbLine
 10
1200.414348
 20
1873.421865
 30
0.0
 11
1015.414348
 21
1873.421865
 31
0.0
  0
LINE
  5
7BA
330
7B4
100
AcDbEntity
  8
0
  6
CONTINUOUS
 62
     6
100
AcDbLine
 10
1025.414348
 20
1573.421865
 30
0.0
 11
1025.414348
 21
1873.421865
 31
0.0
  0
INSERT
  5
7BB
330
7B4
100
AcDbEntity
  8
0
  6
CONTINUOUS
 62
     6
100
AcDbBlockReference
  2
EDTIP_ARROW_S
 10
1025.414348
 20
1573.421865
 30
0.0
 41
30.0
 42
30.0
 50
270.0
  0
INSERT
  5
7BC
330
7B4
100
AcDbEntity
  8
0
  6
CONTINUOUS
 62
     6
100
AcDbBlockReference
  2
EDTIP_ARROW_E
 10
1025.414348
 20
1873.421865
 30
0.0
 41
30.0
 42
30.0
 50
90.0
  0
ENDBLK
  5
7B6
330
7B4
100
AcDbEntity
  8
0
100
AcDbBlockEnd
  0
BLOCK
  5
7BF
330
7BE
100
AcDbEntity
  8
0
100
AcDbBlockBegin
  2
*D36
 70
     1
 10
0.0
 20
0.0
 30
0.0
  3
*D36
  1

  0
TEXT
  5
7C1
330
7BE
100
AcDbEntity
  8
0
  6
CONTINUOUS
 62
     3
100
AcDbText
 10
1136.414429
 20
1454.421753
 30
0.0
 40
30.0
  1
19
 41
0.8
  7
ED_VECTOR
100
AcDbText
  0
LINE
  5
7C2
330
7BE
100
AcDbEntity
  8
0
  6
CONTINUOUS
 62
     6
100
AcDbLine
 10
1205.414348
 20
1568.421865
 30
0.0
 11
1205.414348
 21
1443.421865
 31
0.0
  0
LINE
  5
7C3
330
7BE
100
AcDbEntity
  8
0
  6
CONTINUOUS
 62
     6
100
AcDbLine
 10
1224.414348
 20
1575.960342
 30
0.0
 11
1224.414348
 21
1443.421865
 31
0.0
  0
LINE
  5
7C4
330
7BE
100
AcDbEntity
  8
0
  6
CONTINUOUS
 62
     6
100
AcDbLine
 10
1205.414348
 20
1453.421865
 30
0.0
 11
1224.414348
 21
1453.421865
 31
0.0
  0
LINE
  5
7C5
330
7BE
100
AcDbEntity
  8
0
  6
CONTINUOUS
 62
     6
100
AcDbLine
 10
1136.414348
 20
1453.421865
 30
0.0
 11
1205.414348
 21
1453.421865
 31
0.0
  0
INSERT
  5
7C6
330
7BE
100
AcDbEntity
  8
0
  6
CONTINUOUS
 62
     6
100
AcDbBlockReference
  2
EDTIP_ARROW_E
 10
1205.414348
 20
1453.421865
 30
0.0
 41
30.0
 42
30.0
  0
LINE
  5
7C7
330
7BE
100
AcDbEntity
  8
0
  6
CONTINUOUS
 62
     6
100
AcDbLine
 10
1224.414348
 20
1453.421865
 30
0.0
 11
1274.414348
 21
1453.421865
 31
0.0
  0
INSERT
  5
7C8
330
7BE
100
AcDbEntity
  8
0
  6
CONTINUOUS
 62
     6
100
AcDbBlockReference
  2
EDTIP_ARROW_S
 10
1224.414348
 20
1453.421865
 30
0.0
 41
30.0
 42
30.0
 50
180.0
  0
ENDBLK
  5
7C0
330
7BE
100
AcDbEntity
  8
0
100
AcDbBlockEnd
  0
ENDSEC
  0
SECTION
  2
ENTITIES
  0
LINE
  5
EE
330
1F
100
AcDbEntity
  8
0
  6
CONTINUOUS
 62
     3
100
AcDbLine
 10
208.824201
 20
2417.442922
 30
0.0
 11
3488.824201
 21
2417.442922
 31
0.0
  0
LINE
  5
EF
330
1F
100
AcDbEntity
  8
0
  6
CONTINUOUS
 62
     3
100
AcDbLine
 10
3488.824201
 20
2417.442922
 30
0.0
 11
3488.824201
 21
121.442922
 31
0.0
  0
LINE
  5
F0
330
1F
100
AcDbEntity
  8
0
  6
CONTINUOUS
 62
     3
100
AcDbLine
 10
208.824201
 20
121.442922
 30
0.0
 11
208.824201
 21
2417.442922
 31
0.0
  0
LINE
  5
F1
330
1F
100
AcDbEntity
  8
0
  6
CONTINUOUS
 62
     5
100
AcDbLine
 10
2688.824201
 20
561.442922
 30
0.0
 11
3488.824201
 21
561.442922
 31
0.0
  0
LINE
  5
F2
330
1F
100
AcDbEntity
  8
0
  6
CONTINUOUS
 62
     5
100
AcDbLine
 10
2688.824201
 20
201.442922
 30
0.0
 11
3488.824201
 21
201.442922
 31
0.0
  0
LINE
  5
F3
330
1F
100
AcDbEntity
  8
0
  6
CONTINUOUS
 62
     5
100
AcDbLine
 10
2688.824201
 20
361.442922
 30
0.0
 11
3488.824201
 21
361.442922
 31
0.0
  0
LINE
  5
F4
330
1F
100
AcDbEntity
  8
0
  6
CONTINUOUS
 62
     5
100
AcDbLine
 10
2688.824201
 20
421.442922
 30
0.0
 11
3488.824201
 21
421.442922
 31
0.0
  0
LINE
  5
F5
330
1F
100
AcDbEntity
  8
0
  6
CONTINUOUS
 62
     5
100
AcDbLine
 10
2688.824201
 20
481.442922
 30
0.0
 11
3488.824201
 21
481.442922
 31
0.0
  0
LINE
  5
F6
330
1F
100
AcDbEntity
  8
0
  6
CONTINUOUS
 62
     5
100
AcDbLine
 10
2688.824201
 20
641.442922
 30
0.0
 11
3488.824201
 21
641.442922
 31
0.0
  0
LINE
  5
F7
330
1F
100
AcDbEntity
  8
0
  6
CONTINUOUS
 62
     5
100
AcDbLine
 10
2688.824201
 20
721.442922
 30
0.0
 11
2688.824201
 21
121.442922
 31
0.0
  0
LINE
  5
F8
330
1F
100
AcDbEntity
  8
0
  6
CONTINUOUS
 62
     5
100
AcDbLine
 10
2888.824201
 20
721.442922
 30
0.0
 11
2888.824201
 21
481.442922
 31
0.0
  0
LINE
  5
F9
330
1F
100
AcDbEntity
  8
0
  6
CONTINUOUS
 62
     5
100
AcDbLine
 10
2688.824201
 20
721.442922
 30
0.0
 11
3488.824201
 21
721.442922
 31
0.0
  0
LINE
  5
FA
330
1F
100
AcDbEntity
  8
0
  6
CONTINUOUS
 62
     5
100
AcDbLine
 10
3188.824201
 20
481.442922
 30
0.0
 11
3188.824201
 21
201.442922
 31
0.0
  0
TEXT
  5
FB
330
1F
100
AcDbEntity
  8
0
  6
CONTINUOUS
 62
     3
100
AcDbText
 10
2908.515193
 20
130.00565
 30
0.0
 40
59.380363
  1
東正車輌株式会社
 41
0.788955
  7
ED_VECTOR
100
AcDbText
  0
LINE
  5
FC
330
1F
100
AcDbEntity
  8
0
  6
CONTINUOUS
 62
     5
100
AcDbLine
 10
2938.824201
 20
421.442922
 30
0.0
 11
2938.824201
 21
201.442922
 31
0.0
  0
TEXT
  5
FD
330
1F
100
AcDbEntity
  8
0
  6
CONTINUOUS
 62
     5
100
AcDbText
 10
2718.823975
 20
656.442871
 30
0.0
 40
50.0
  1
品　名
 41
0.8
  7
ED_VECTOR
100
AcDbText
  0
TEXT
  5
FE
330
1F
100
AcDbEntity
  8
0
  6
CONTINUOUS
 62
     5
100
AcDbText
 10
2718.823975
 20
576.442871
 30
0.0
 40
50.0
  1
型　式
 41
0.8
  7
ED_VECTOR
100
AcDbText
  0
TEXT
  5
FF
330
1F
100
AcDbEntity
  8
0
  6
CONTINUOUS
 62
     5
100
AcDbText
 10
2693.823975
 20
496.442932
 30
0.0
 40
50.0
  1
図面番号
 41
0.8
  7
ED_VECTOR
100
AcDbText
  0
TEXT
  5
100
330
1F
100
AcDbEntity
  8
0
  6
CONTINUOUS
 62
     5
100
AcDbText
 10
3268.823975
 20
426.442932
 30
0.0
 40
50.0
  1
Ｂ－４
 41
0.8
  7
ED_VECTOR
100
AcDbText
  0
TEXT
  5
101
330
1F
100
AcDbEntity
  8
0
  6
CONTINUOUS
 62
     5
100
AcDbText
 10
2743.823975
 20
366.442932
 30
0.0
 40
50.0
  1
検　図
 41
0.8
  7
ED_VECTOR
100
AcDbText
  0
TEXT
  5
102
330
1F
100
AcDbEntity
  8
0
  6
CONTINUOUS
 62
     5
100
AcDbText
 10
2993.823975
 20
366.442932
 30
0.0
 40
50.0
  1
作　図
 41
0.8
  7
ED_VECTOR
100
AcDbText
  0
TEXT
  5
103
330
1F
100
AcDbEntity
  8
0
  6
CONTINUOUS
 62
     5
100
AcDbText
 10
3268.823975
 20
366.442932
 30
0.0
 40
50.0
  1
尺　度
 41
0.8
  7
ED_VECTOR
100
AcDbText
  0
TEXT
  5
104
330
1F
100
AcDbEntity
  8
0
  6
CONTINUOUS
 62
     5
100
AcDbText
 10
3369.562744
 20
215.928192
 30
0.0
 40
50.0
  1
１０
 41
0.8
  7
ED_VECTOR
100
AcDbText
  0
TEXT
  5
105
330
1F
100
AcDbEntity
  8
0
  6
CONTINUOUS
 62
     5
100
AcDbText
 10
3349.243164
 20
263.632874
 30
0.0
 40
50.0
  1
／
 41
0.8
  7
ED_VECTOR
100
AcDbText
  0
TEXT
  5
106
330
1F
100
AcDbEntity
  8
0
  6
CONTINUOUS
 62
     5
100
AcDbText
 10
3319.030273
 20
298.616333
 30
0.0
 40
50.0
  1
１
 41
0.8
  7
ED_VECTOR
100
AcDbText
  0
TEXT
  5
107
330
1F
100
AcDbEntity
  8
0
  6
CONTINUOUS
 62
     3
100
AcDbText
 10
3028.823975
 20
656.442871
 30
0.0
 40
50.0
  1
ゴールドリフター
 41
0.8
  7
ED_VECTOR
100
AcDbText
  0
TEXT
  5
108
330
1F
100
AcDbEntity
  8
0
  6
CONTINUOUS
 62
     3
100
AcDbText
 10
2928.823975
 20
576.442871
 30
0.0
 40
50.0
  1
GLSB-100-2007
 41
0.8
  7
ED_VECTOR
100
AcDbText
  0
TEXT
  5
109
330
1F
100
AcDbEntity
  8
0
  6
CONTINUOUS
 62
     3
100
AcDbText
 10
3168.823975
 20
496.442932
 30
0.0
 40
50.0
  1
　
 41
0.8
  7
ED_VECTOR
100
AcDbText
  0
INSERT
  5
10D
330
1F
100
AcDbEntity
  8
0
100
AcDbBlockReference
  2
BLKF014
 10
0.0
 20
0.0
 30
0.0
  0
LINE
  5
1BF
330
1F
100
AcDbEntity
  8
0
  6
CONTINUOUS
 62
     3
100
AcDbLine
 10
3488.824201
 20
121.442922
 30
0.0
 11
208.824201
 21
121.442922
 31
0.0
  0
TEXT
  5
1C0
330
1F
100
AcDbEntity
  8
0
  6
CONTINUOUS
 62
     3
100
AcDbText
 10
1027.940063
 20
1057.06665
 30
0.0
 40
30.0
  1
テーブルのズレ
 41
0.8
  7
ED_VECTOR
100
AcDbText
  0
LINE
  5
1C1
330
1F
100
AcDbEntity
  8
0
  6
CONTINUOUS
 62
     6
100
AcDbLine
 10
2670.60673
 20
2291.596194
 30
0.0
 11
2870.60673
 21
2291.596194
 31
0.0
  0
LINE
  5
1C2
330
1F
100
AcDbEntity
  8
0
  6
CONTINUOUS
 62
     6
100
AcDbLine
 10
2670.60673
 20
2281.596194
 30
0.0
 11
2870.60673
 21
2281.596194
 31
0.0
  0
LINE
  5
1C3
330
1F
100
AcDbEntity
  8
0
  6
CONTINUOUS
 62
     6
100
AcDbLine
 10
2670.60673
 20
2211.596194
 30
0.0
 11
3470.60673
 21
2211.596194
 31
0.0
  0
LINE
  5
1C4
330
1F
100
AcDbEntity
  8
0
  6
CONTINUOUS
 62
     6
100
AcDbLine
 10
2670.60673
 20
2141.596194
 30
0.0
 11
3470.60673
 21
2141.596194
 31
0.0
  0
LINE
  5
1C5
330
1F
100
AcDbEntity
  8
0
  6
CONTINUOUS
 62
     6
100
AcDbLine
 10
2670.60673
 20
2071.596194
 30
0.0
 11
3470.60673
 21
2071.596194
 31
0.0
  0
LINE
  5
1C6
330
1F
100
AcDbEntity
  8
0
  6
CONTINUOUS
 62
     6
100
AcDbLine
 10
2670.60673
 20
2001.596194
 30
0.0
 11
3470.60673
 21
2001.596194
 31
0.0
  0
LINE
  5
1C7
330
1F
100
AcDbEntity
  8
0
  6
CONTINUOUS
 62
     6
100
AcDbLine
 10
2670.60673
 20
1931.596194
 30
0.0
 11
3470.60673
 21
1931.596194
 31
0.0
  0
LINE
  5
1C8
330
1F
100
AcDbEntity
  8
0
  6
CONTINUOUS
 62
     6
100
AcDbLine
 10
2670.60673
 20
1861.596194
 30
0.0
 11
3470.60673
 21
1861.596194
 31
0.0
  0
LINE
  5
1C9
330
1F
100
AcDbEntity
  8
0
  6
CONTINUOUS
 62
     6
100
AcDbLine
 10
2670.60673
 20
1791.596194
 30
0.0
 11
3470.60673
 21
1791.596194
 31
0.0
  0
LINE
  5
1CA
330
1F
100
AcDbEntity
  8
0
  6
CONTINUOUS
 62
     6
100
AcDbLine
 10
2670.60673
 20
1721.596194
 30
0.0
 11
3470.60673
 21
1721.596194
 31
0.0
  0
LINE
  5
1CB
330
1F
100
AcDbEntity
  8
0
  6
CONTINUOUS
 62
     6
100
AcDbLine
 10
2670.60673
 20
1651.596194
 30
0.0
 11
3470.60673
 21
1651.596194
 31
0.0
  0
LINE
  5
1CC
330
1F
100
AcDbEntity
  8
0
  6
CONTINUOUS
 62
     6
100
AcDbLine
 10
2670.60673
 20
1581.596194
 30
0.0
 11
3470.60673
 21
1581.596194
 31
0.0
  0
LINE
  5
1CD
330
1F
100
AcDbEntity
  8
0
  6
CONTINUOUS
 62
     6
100
AcDbLine
 10
2670.60673
 20
1511.596194
 30
0.0
 11
3470.60673
 21
1511.596194
 31
0.0
  0
LINE
  5
1CE
330
1F
100
AcDbEntity
  8
0
  6
CONTINUOUS
 62
     6
100
AcDbLine
 10
2670.60673
 20
1441.596194
 30
0.0
 11
3470.60673
 21
1441.596194
 31
0.0
  0
LINE
  5
1CF
330
1F
100
AcDbEntity
  8
0
  6
CONTINUOUS
 62
     6
100
AcDbLine
 10
2670.60673
 20
1371.596194
 30
0.0
 11
3470.60673
 21
1371.596194
 31
0.0
  0
TEXT
  5
1D0
330
1F
100
AcDbEntity
  8
0
  6
CONTINUOUS
 62
     3
100
AcDbText
 10
2692.980713
 20
2301.596191
 30
0.0
 40
40.0
  1
仕　　　様
 41
0.75
  7
ED_VECTOR
100
AcDbText
  0
TEXT
  5
1D1
330
1F
100
AcDbEntity
  8
0
  6
CONTINUOUS
 62
     3
100
AcDbText
 10
2692.980713
 20
2221.596191
 30
0.0
 40
40.0
  1
型　　　式
 41
0.75
  7
ED_VECTOR
100
AcDbText
  0
TEXT
  5
1D2
330
1F
100
AcDbEntity
  8
0
  6
CONTINUOUS
 62
     3
100
AcDbText
 10
2689.856445
 20
2151.596191
 30
0.0
 40
40.0
  1
均等荷重
 41
0.75
  7
ED_VECTOR
100
AcDbText
  0
TEXT
  5
1D3
330
1F
100
AcDbEntity
  8
0
  6
CONTINUOUS
 62
     3
100
AcDbText
 10
2692.980713
 20
2081.596191
 30
0.0
 40
40.0
  1
テーブル寸法
 41
0.75
  7
ED_VECTOR
100
AcDbText
  0
TEXT
  5
1D4
330
1F
100
AcDbEntity
  8
0
  6
CONTINUOUS
 62
     3
100
AcDbText
 10
2692.980713
 20
2011.596069
 30
0.0
 40
40.0
  1
テーブル高さ
 41
0.75
  7
ED_VECTOR
100
AcDbText
  0
TEXT
  5
1D5
330
1F
100
AcDbEntity
  8
0
  6
CONTINUOUS
 62
     3
100
AcDbText
 10
2689.856445
 20
1941.596069
 30
0.0
 40
40.0
  1
ストローク
 41
0.75
  7
ED_VECTOR
100
AcDbText
  0
TEXT
  5
1D6
330
1F
100
AcDbEntity
  8
0
  6
CONTINUOUS
 62
     3
100
AcDbText
 10
2686.732178
 20
1871.596069
 30
0.0
 40
40.0
  1
全　　　長
 41
0.75
  7
ED_VECTOR
100
AcDbText
  0
TEXT
  5
1D7
330
1F
100
AcDbEntity
  8
0
  6
CONTINUOUS
 62
     3
100
AcDbText
 10
2686.732178
 20
1801.596069
 30
0.0
 40
40.0
  1
全　　　巾
 41
0.75
  7
ED_VECTOR
100
AcDbText
  0
TEXT
  5
1D8
330
1F
100
AcDbEntity
  8
0
  6
CONTINUOUS
 62
     3
100
AcDbText
 10
2686.732178
 20
1731.596069
 30
0.0
 40
40.0
  1
全　　　高
 41
0.75
  7
ED_VECTOR
100
AcDbText
  0
TEXT
  5
1D9
330
1F
100
AcDbEntity
  8
0
  6
CONTINUOUS
 62
     3
100
AcDbText
 10
2686.732178
 20
1661.596069
 30
0.0
 40
40.0
  1
リフト方式
 41
0.75
  7
ED_VECTOR
100
AcDbText
  0
TEXT
  5
1DA
330
1F
100
AcDbEntity
  8
0
  6
CONTINUOUS
 62
     3
100
AcDbText
 10
2686.732178
 20
1171.596069
 30
0.0
 40
40.0
  1
最大使用頻度
 41
0.75
  7
ED_VECTOR
100
AcDbText
  0
TEXT
  5
1DB
330
1F
100
AcDbEntity
  8
0
  6
CONTINUOUS
 62
     3
100
AcDbText
 10
2680.483887
 20
1101.596069
 30
0.0
 40
40.0
  1
自　　　重
 41
0.75
  7
ED_VECTOR
100
AcDbText
  0
TEXT
  5
1DC
330
1F
100
AcDbEntity
  8
0
  6
CONTINUOUS
 62
     3
100
AcDbText
 10
2680.483887
 20
1031.596069
 30
0.0
 40
40.0
  1
塗　装　色
 41
0.75
  7
ED_VECTOR
100
AcDbText
  0
TEXT
  5
1DD
330
1F
100
AcDbEntity
  8
0
  6
CONTINUOUS
 62
     3
100
AcDbText
 10
3260.60376
 20
2148.772461
 30
0.0
 40
40.0
  1
   　Ｋｇ
 41
0.75
  7
ED_VECTOR
100
AcDbText
  0
TEXT
  5
1DE
330
1F
100
AcDbEntity
  8
0
  6
CONTINUOUS
 62
     3
100
AcDbText
 10
3117.870117
 20
2101.596191
 30
0.0
 40
40.0
  1
Ｌ
 41
0.75
  7
ED_VECTOR
100
AcDbText
  0
TEXT
  5
1DF
330
1F
100
AcDbEntity
  8
0
  6
CONTINUOUS
 62
     3
100
AcDbText
 10
3342.778809
 20
2101.264648
 30
0.0
 40
40.0
  1
Ｗ
 41
0.75
  7
ED_VECTOR
100
AcDbText
  0
TEXT
  5
1E0
330
1F
100
AcDbEntity
  8
0
  6
CONTINUOUS
 62
     3
100
AcDbText
 10
2958.789062
 20
1661.596069
 30
0.0
 40
40.0
  1
電動ボールネジ方式
 41
0.75
  7
ED_VECTOR
100
AcDbText
  0
TEXT
  5
1E1
330
1F
100
AcDbEntity
  8
0
  6
CONTINUOUS
 62
     3
100
AcDbText
 10
3386.745117
 20
2081.596191
 30
0.0
 40
40.0
  1
ｍｍ
 41
0.75
  7
ED_VECTOR
100
AcDbText
  0
TEXT
  5
1E2
330
1F
100
AcDbEntity
  8
0
  6
CONTINUOUS
 62
     3
100
AcDbText
 10
3384.108887
 20
2011.596069
 30
0.0
 40
40.0
  1
ｍｍ
 41
0.75
  7
ED_VECTOR
100
AcDbText
  0
TEXT
  5
1E3
330
1F
100
AcDbEntity
  8
0
  6
CONTINUOUS
 62
     3
100
AcDbText
 10
3384.108887
 20
1941.596069
 30
0.0
 40
40.0
  1
ｍｍ
 41
0.75
  7
ED_VECTOR
100
AcDbText
  0
TEXT
  5
1E4
330
1F
100
AcDbEntity
  8
0
  6
CONTINUOUS
 62
     3
100
AcDbText
 10
3381.473145
 20
1871.596069
 30
0.0
 40
40.0
  1
ｍｍ
 41
0.75
  7
ED_VECTOR
100
AcDbText
  0
TEXT
  5
1E5
330
1F
100
AcDbEntity
  8
0
  6
CONTINUOUS
 62
     3
100
AcDbText
 10
3381.473145
 20
1801.596069
 30
0.0
 40
40.0
  1
ｍｍ
 41
0.75
  7
ED_VECTOR
100
AcDbText
  0
TEXT
  5
1E6
330
1F
100
AcDbEntity
  8
0
  6
CONTINUOUS
 62
     3
100
AcDbText
 10
3381.473145
 20
1731.596069
 30
0.0
 40
40.0
  1
ｍｍ
 41
0.75
  7
ED_VECTOR
100
AcDbText
  0
TEXT
  5
1E7
330
1F
100
AcDbEntity
  8
0
  6
CONTINUOUS
 62
     3
100
AcDbText
 10
3132.052246
 20
1997.903198
 30
0.0
 40
50.0
  1
～
 41
0.8
  7
ED_VECTOR
100
AcDbText
  0
INSERT
  5
1EB
330
1F
100
AcDbEntity
  8
0
100
AcDbBlockReference
  2
EDDIM015
 10
0.0
 20
0.0
 30
0.0
  0
INSERT
  5
1F0
330
1F
100
AcDbEntity
  8
0
100
AcDbBlockReference
  2
EDDIM016
 10
0.0
 20
0.0
 30
0.0
  0
INSERT
  5
1F5
330
1F
100
AcDbEntity
  8
0
100
AcDbBlockReference
  2
EDDIM017
 10
0.0
 20
0.0
 30
0.0
  0
INSERT
  5
1FA
330
1F
100
AcDbEntity
  8
0
100
AcDbBlockReference
  2
EDDIM018
 10
0.0
 20
0.0
 30
0.0
  0
INSERT
  5
1FF
330
1F
100
AcDbEntity
  8
0
100
AcDbBlockReference
  2
EDDIM019
 10
0.0
 20
0.0
 30
0.0
  0
INSERT
  5
204
330
1F
100
AcDbEntity
  8
0
100
AcDbBlockReference
  2
EDDIM020
 10
0.0
 20
0.0
 30
0.0
  0
INSERT
  5
209
330
1F
100
AcDbEntity
  8
0
100
AcDbBlockReference
  2
EDDIM021
 10
0.0
 20
0.0
 30
0.0
  0
INSERT
  5
20E
330
1F
100
AcDbEntity
  8
0
100
AcDbBlockReference
  2
EDDIM022
 10
0.0
 20
0.0
 30
0.0
  0
INSERT
  5
213
330
1F
100
AcDbEntity
  8
0
100
AcDbBlockReference
  2
EDDIM023
 10
0.0
 20
0.0
 30
0.0
  0
INSERT
  5
218
330
1F
100
AcDbEntity
  8
0
100
AcDbBlockReference
  2
EDDIM024
 10
0.0
 20
0.0
 30
0.0
  0
INSERT
  5
21D
330
1F
100
AcDbEntity
  8
0
100
AcDbBlockReference
  2
EDDIM025
 10
0.0
 20
0.0
 30
0.0
  0
INSERT
  5
222
330
1F
100
AcDbEntity
  8
0
100
AcDbBlockReference
  2
EDDIM026
 10
0.0
 20
0.0
 30
0.0
  0
INSERT
  5
227
330
1F
100
AcDbEntity
  8
0
100
AcDbBlockReference
  2
EDDIM027
 10
0.0
 20
0.0
 30
0.0
  0
LINE
  5
229
330
1F
100
AcDbEntity
  8
0
  6
CONTINUOUS
 62
     6
100
AcDbLine
 10
2670.60673
 20
1301.596194
 30
0.0
 11
3470.60673
 21
1301.596194
 31
0.0
  0
LINE
  5
22A
330
1F
100
AcDbEntity
  8
0
  6
CONTINUOUS
 62
     6
100
AcDbLine
 10
2670.60673
 20
1231.596194
 30
0.0
 11
3470.60673
 21
1231.596194
 31
0.0
  0
LINE
  5
22B
330
1F
100
AcDbEntity
  8
0
  6
CONTINUOUS
 62
     6
100
AcDbLine
 10
2670.60673
 20
1161.596194
 30
0.0
 11
3470.60673
 21
1161.596194
 31
0.0
  0
LINE
  5
22C
330
1F
100
AcDbEntity
  8
0
  6
CONTINUOUS
 62
     6
100
AcDbLine
 10
2670.60673
 20
1091.596194
 30
0.0
 11
3470.60673
 21
1091.596194
 31
0.0
  0
TEXT
  5
22D
330
1F
100
AcDbEntity
  8
0
  6
CONTINUOUS
 62
     3
100
AcDbText
 10
2686.732178
 20
1591.596069
 30
0.0
 40
40.0
  1
操作方式
 41
0.75
  7
ED_VECTOR
100
AcDbText
  0
TEXT
  5
22E
330
1F
100
AcDbEntity
  8
0
  6
CONTINUOUS
 62
     3
100
AcDbText
 10
2686.732178
 20
1451.596069
 30
0.0
 40
40.0
  1
モーター
 41
0.75
  7
ED_VECTOR
100
AcDbText
  0
TEXT
  5
22F
330
1F
100
AcDbEntity
  8
0
  6
CONTINUOUS
 62
     3
100
AcDbText
 10
2958.789062
 20
1451.596069
 30
0.0
 40
40.0
  1
ＤＣ９０Ｖ、７０Ｗ
 41
0.75
  7
ED_VECTOR
100
AcDbText
  0
TEXT
  5
230
330
1F
100
AcDbEntity
  8
0
  6
CONTINUOUS
 62
     3
100
AcDbText
 10
2686.732178
 20
1381.596069
 30
0.0
 40
40.0
  1
電　　源
 41
0.75
  7
ED_VECTOR
100
AcDbText
  0
TEXT
  5
231
330
1F
100
AcDbEntity
  8
0
  6
CONTINUOUS
 62
     3
100
AcDbText
 10
2958.789062
 20
1381.596069
 30
0.0
 40
40.0
  1
ＡＣ１００Ｖ、５０／６０ＨＺ
 41
0.75
  7
ED_VECTOR
100
AcDbText
  0
TEXT
  5
232
330
1F
100
AcDbEntity
  8
0
  6
CONTINUOUS
 62
     3
100
AcDbText
 10
2686.732178
 20
1311.596069
 30
0.0
 40
40.0
  1
上昇時間
 41
0.75
  7
ED_VECTOR
100
AcDbText
  0
TEXT
  5
233
330
1F
100
AcDbEntity
  8
0
  6
CONTINUOUS
 62
     3
100
AcDbText
 10
3044.774902
 20
1312.750122
 30
0.0
 40
40.0
  1
約　１２　秒
 41
0.75
  7
ED_VECTOR
100
AcDbText
  0
TEXT
  5
234
330
1F
100
AcDbEntity
  8
0
  6
CONTINUOUS
 62
     3
100
AcDbText
 10
2686.732178
 20
1241.596069
 30
0.0
 40
40.0
  1
下降時間
 41
0.75
  7
ED_VECTOR
100
AcDbText
  0
TEXT
  5
235
330
1F
100
AcDbEntity
  8
0
  6
CONTINUOUS
 62
     3
100
AcDbText
 10
3042.629639
 20
1241.957153
 30
0.0
 40
40.0
  1
約　１２　秒
 41
0.75
  7
ED_VECTOR
100
AcDbText
  0
TEXT
  5
236
330
1F
100
AcDbEntity
  8
0
  6
CONTINUOUS
 62
     3
100
AcDbText
 10
3043.944092
 20
1035.679932
 30
0.0
 40
40.0
  1
１０Ｒ４／１３
 41
0.75
  7
ED_VECTOR
100
AcDbText
  0
LINE
  5
237
330
1F
100
AcDbEntity
  8
0
  6
CONTINUOUS
 62
     6
100
AcDbLine
 10
2670.60673
 20
1021.596194
 30
0.0
 11
3470.60673
 21
1021.596194
 31
0.0
  0
LINE
  5
238
330
1F
100
AcDbEntity
  8
0
  6
CONTINUOUS
 62
     3
100
AcDbLine
 10
1205.414348
 20
580.443983
 30
0.0
 11
1205.414348
 21
610.443983
 31
0.0
  0
LINE
  5
239
330
1F
100
AcDbEntity
  8
0
  6
CONTINUOUS
 62
     3
100
AcDbLine
 10
1205.414348
 20
580.443983
 30
0.0
 11
1905.414348
 21
580.443983
 31
0.0
  0
LINE
  5
23A
330
1F
100
AcDbEntity
  8
0
  6
CENTER
 62
     6
100
AcDbLine
 10
1216.320598
 20
597.443983
 30
0.0
 11
1234.165683
 21
597.443983
 31
0.0
  0
LINE
  5
23B
330
1F
100
AcDbEntity
  8
0
  6
CENTER
 62
     6
100
AcDbLine
 10
1225.414348
 20
606.251591
 30
0.0
 11
1225.414348
 21
589.19711
 31
0.0
  0
LINE
  5
23C
330
1F
100
AcDbEntity
  8
0
  6
CONTINUOUS
 62
     3
100
AcDbLine
 10
1243.414348
 20
610.443983
 30
0.0
 11
1243.414348
 21
580.443983
 31
0.0
  0
LINE
  5
23D
330
1F
100
AcDbEntity
  8
0
  6
CONTINUOUS
 62
     3
100
AcDbLine
 10
1205.414348
 20
610.443983
 30
0.0
 11
1905.414348
 21
610.443983
 31
0.0
  0
LINE
  5
23E
330
1F
100
AcDbEntity
  8
0
  6
CONTINUOUS
 62
     3
100
AcDbLine
 10
1249.414348
 20
610.443983
 30
0.0
 11
1249.414348
 21
580.443983
 31
0.0
  0
LINE
  5
23F
330
1F
100
AcDbEntity
  8
0
  6
CONTINUOUS
 62
     3
100
AcDbLine
 10
1905.414348
 20
580.443983
 30
0.0
 11
1905.414348
 21
626.443983
 31
0.0
  0
LINE
  5
240
330
1F
100
AcDbEntity
  8
0
  6
CENTER
 62
     6
100
AcDbLine
 10
1224.414348
 20
589.19711
 30
0.0
 11
1224.414348
 21
574.514445
 31
0.0
  0
LINE
  5
241
330
1F
100
AcDbEntity
  8
0
  6
CONTINUOUS
 62
     3
100
AcDbLine
 10
1205.414348
 20
584.943983
 30
0.0
 11
1243.414348
 21
584.943983
 31
0.0
  0
LINE
  5
242
330
1F
100
AcDbEntity
  8
0
  6
PHANTOM
 62
     6
100
AcDbLine
 10
1205.189505
 20
657.643983
 30
0.0
 11
1205.189505
 21
630.443983
 31
0.0
  0
LINE
  5
243
330
1F
100
AcDbEntity
  8
0
  6
PHANTOM
 62
     6
100
AcDbLine
 10
1205.189505
 20
630.443983
 30
0.0
 11
1905.189505
 21
630.443983
 31
0.0
  0
ARC
  5
244
330
1F
100
AcDbEntity
  8
0
  6
CONTINUOUS
 62
     6
100
AcDbCircle
 10
1207.989505
 20
657.643983
 30
0.0
 40
2.8
100
AcDbArc
 50
90.0
 51
180.0
  0
LINE
  5
245
330
1F
100
AcDbEntity
  8
0
  6
PHANTOM
 62
     6
100
AcDbLine
 10
1207.989505
 20
660.443983
 30
0.0
 11
1902.389505
 21
660.443983
 31
0.0
  0
LINE
  5
246
330
1F
100
AcDbEntity
  8
0
  6
PHANTOM
 62
     6
100
AcDbLine
 10
1207.489505
 20
630.443983
 30
0.0
 11
1207.489505
 21
626.143983
 31
0.0
  0
LINE
  5
247
330
1F
100
AcDbEntity
  8
0
  6
PHANTOM
 62
     6
100
AcDbLine
 10
1207.489505
 20
626.143983
 30
0.0
 11
1217.489505
 21
616.143983
 31
0.0
  0
LINE
  5
248
330
1F
100
AcDbEntity
  8
0
  6
PHANTOM
 62
     6
100
AcDbLine
 10
1217.489505
 20
616.143983
 30
0.0
 11
1234.489505
 21
616.143983
 31
0.0
  0
LINE
  5
249
330
1F
100
AcDbEntity
  8
0
  6
PHANTOM
 62
     6
100
AcDbLine
 10
1239.489505
 20
621.143983
 30
0.0
 11
1234.489505
 21
616.143983
 31
0.0
  0
LINE
  5
24A
330
1F
100
AcDbEntity
  8
0
  6
CENTER
 62
     6
100
AcDbLine
 10
1212.357144
 20
628.143983
 30
0.0
 11
1238.357144
 21
628.143983
 31
0.0
  0
ARC
  5
24B
330
1F
100
AcDbEntity
  8
0
  6
CONTINUOUS
 62
     6
100
AcDbCircle
 10
1902.389505
 20
657.643983
 30
0.0
 40
2.8
100
AcDbArc
 50
0.0
 51
90.0
  0
LINE
  5
24C
330
1F
100
AcDbEntity
  8
0
  6
PHANTOM
 62
     6
100
AcDbLine
 10
1905.189505
 20
657.643983
 30
0.0
 11
1905.189505
 21
630.443983
 31
0.0
  0
LINE
  5
24D
330
1F
100
AcDbEntity
  8
0
  6
CENTER
 62
     6
100
AcDbLine
 10
1871.729147
 20
597.443983
 30
0.0
 11
1893.367515
 21
597.443983
 31
0.0
  0
LINE
  5
24E
330
1F
100
AcDbEntity
  8
0
  6
CENTER
 62
     6
100
AcDbLine
 10
1871.729147
 20
628.143983
 30
0.0
 11
1893.367515
 21
628.143983
 31
0.0
  0
LINE
  5
24F
330
1F
100
AcDbEntity
  8
0
  6
CENTER
 62
     6
100
AcDbLine
 10
1881.412145
 20
607.291587
 30
0.0
 11
1881.412145
 21
587.790342
 31
0.0
  0
LINE
  5
250
330
1F
100
AcDbEntity
  8
0
  6
CENTER
 62
     6
100
AcDbLine
 10
1881.336988
 20
638.279867
 30
0.0
 11
1881.336988
 21
619.312903
 31
0.0
  0
LINE
  5
251
330
1F
100
AcDbEntity
  8
0
  6
CENTER
 62
     6
100
AcDbLine
 10
1225.489505
 20
638.288215
 30
0.0
 11
1225.489505
 21
616.143983
 31
0.0
  0
LINE
  5
252
330
1F
100
AcDbEntity
  8
0
  6
CONTINUOUS
 62
     3
100
AcDbLine
 10
1228.243902
 20
1167.643983
 30
0.0
 11
1228.243902
 21
1140.443983
 31
0.0
  0
LINE
  5
253
330
1F
100
AcDbEntity
  8
0
  6
CONTINUOUS
 62
     3
100
AcDbLine
 10
1228.243902
 20
1140.443983
 30
0.0
 11
1928.243902
 21
1140.443983
 31
0.0
  0
ARC
  5
254
330
1F
100
AcDbEntity
  8
0
  6
CONTINUOUS
 62
     3
100
AcDbCircle
 10
1231.043902
 20
1167.643983
 30
0.0
 40
2.8
100
AcDbArc
 50
90.0
 51
180.0
  0
LINE
  5
255
330
1F
100
AcDbEntity
  8
0
  6
CONTINUOUS
 62
     3
100
AcDbLine
 10
1231.043902
 20
1170.443983
 30
0.0
 11
1925.443902
 21
1170.443983
 31
0.0
  0
LINE
  5
256
330
1F
100
AcDbEntity
  8
0
  6
CONTINUOUS
 62
     3
100
AcDbLine
 10
1230.543902
 20
1140.443983
 30
0.0
 11
1230.543902
 21
1136.143983
 31
0.0
  0
LINE
  5
257
330
1F
100
AcDbEntity
  8
0
  6
CONTINUOUS
 62
     3
100
AcDbLine
 10
1230.543902
 20
1136.143983
 30
0.0
 11
1240.543902
 21
1126.143983
 31
0.0
  0
LINE
  5
258
330
1F
100
AcDbEntity
  8
0
  6
CONTINUOUS
 62
     3
100
AcDbLine
 10
1240.543902
 20
1126.143983
 30
0.0
 11
1241.678411
 21
1126.143983
 31
0.0
  0
LINE
  5
259
330
1F
100
AcDbEntity
  8
0
  6
CENTER
 62
     6
100
AcDbLine
 10
1235.411542
 20
1138.143983
 30
0.0
 11
1261.411542
 21
1138.143983
 31
0.0
  0
LINE
  5
25A
330
1F
100
AcDbEntity
  8
0
  6
CONTINUOUS
 62
     3
100
AcDbLine
 10
1262.543902
 20
1139.526565
 30
0.0
 11
1262.543902
 21
1140.443983
 31
0.0
  0
ARC
  5
25B
330
1F
100
AcDbEntity
  8
0
  6
CONTINUOUS
 62
     3
100
AcDbCircle
 10
1925.443902
 20
1167.643983
 30
0.0
 40
2.8
100
AcDbArc
 50
0.0
 51
90.0
  0
LINE
  5
25C
330
1F
100
AcDbEntity
  8
0
  6
CONTINUOUS
 62
     3
100
AcDbLine
 10
1928.243902
 20
1167.643983
 30
0.0
 11
1928.243902
 21
1140.443983
 31
0.0
  0
LINE
  5
25D
330
1F
100
AcDbEntity
  8
0
  6
CENTER
 62
     6
100
AcDbLine
 10
1248.543902
 20
1148.288215
 30
0.0
 11
1248.543902
 21
1126.143983
 31
0.0
  0
LINE
  5
25E
330
1F
100
AcDbEntity
  8
0
  6
CONTINUOUS
 62
     3
100
AcDbLine
 10
1274.361458
 20
1133.848192
 30
0.0
 11
1287.632415
 21
1116.301634
 31
0.0
  0
LINE
  5
25F
330
1F
100
AcDbEntity
  8
0
  6
CONTINUOUS
 62
     3
100
AcDbLine
 10
1269.576033
 20
1130.228841
 30
0.0
 11
1274.361458
 21
1133.848192
 31
0.0
  0
LINE
  5
260
330
1F
100
AcDbEntity
  8
0
  6
CONTINUOUS
 62
     3
100
AcDbLine
 10
1282.84699
 20
1112.682282
 30
0.0
 11
1287.632415
 21
1116.301634
 31
0.0
  0
LINE
  5
261
330
1F
100
AcDbEntity
  8
0
  6
CONTINUOUS
 62
     3
100
AcDbLine
 10
1625.056568
 20
625.489788
 30
0.0
 11
1318.437283
 21
1065.625603
 31
0.0
  0
LINE
  5
262
330
1F
100
AcDbEntity
  8
0
  6
CONTINUOUS
 62
     3
100
AcDbLine
 10
1261.850033
 20
1140.443983
 30
0.0
 11
1318.437283
 21
1065.625603
 31
0.0
  0
LINE
  5
263
330
1F
100
AcDbEntity
  8
0
  6
CONTINUOUS
 62
     3
100
AcDbLine
 10
1365.443374
 20
915.614179
 30
0.0
 11
1238.199058
 21
1132.06252
 31
0.0
  0
LINE
  5
264
330
1F
100
AcDbEntity
  8
0
  6
CONTINUOUS
 62
     3
100
AcDbLine
 10
1596.252195
 20
610.443983
 30
0.0
 11
1365.443374
 21
915.614179
 31
0.0
  0
LINE
  5
265
330
1F
100
AcDbEntity
  8
0
  6
CONTINUOUS
 62
     3
100
AcDbLine
 10
1473.059463
 20
843.673617
 30
0.0
 11
1466.131043
 21
872.422382
 31
0.0
  0
ARC
  5
266
330
1F
100
AcDbEntity
  8
0
  6
CONTINUOUS
 62
     3
100
AcDbCircle
 10
1434.049548
 20
864.690778
 30
0.0
 40
33.0
100
AcDbArc
 50
13.549835
 51
74.579469
  0
LINE
  5
267
330
1F
100
AcDbEntity
  8
0
  6
CONTINUOUS
 62
     8
100
AcDbLine
 10
1629.68562
 20
610.443983
 30
0.0
 11
1625.056568
 21
625.489788
 31
0.0
  0
LINE
  5
268
330
1F
100
AcDbEntity
  8
0
  6
CONTINUOUS
 62
     3
100
AcDbLine
 10
1234.914348
 20
602.92881
 30
0.0
 11
1225.414348
 21
608.413638
 31
0.0
  0
LINE
  5
269
330
1F
100
AcDbEntity
  8
0
  6
CONTINUOUS
 62
     3
100
AcDbLine
 10
1225.414348
 20
608.413638
 30
0.0
 11
1215.914348
 21
602.92881
 31
0.0
  0
LINE
  5
26A
330
1F
100
AcDbEntity
  8
0
  6
CONTINUOUS
 62
     3
100
AcDbLine
 10
1215.914348
 20
602.92881
 30
0.0
 11
1215.914348
 21
591.959155
 31
0.0
  0
LINE
  5
26B
330
1F
100
AcDbEntity
  8
0
  6
CONTINUOUS
 62
     3
100
AcDbLine
 10
1215.914348
 20
591.959155
 30
0.0
 11
1225.414348
 21
586.474328
 31
0.0
  0
LINE
  5
26C
330
1F
100
AcDbEntity
  8
0
  6
CONTINUOUS
 62
     3
100
AcDbLine
 10
1225.414348
 20
586.474328
 30
0.0
 11
1234.914348
 21
591.959155
 31
0.0
  0
LINE
  5
26D
330
1F
100
AcDbEntity
  8
0
  6
CONTINUOUS
 62
     3
100
AcDbLine
 10
1234.914348
 20
591.959155
 30
0.0
 11
1234.914348
 21
602.92881
 31
0.0
  0
CIRCLE
  5
26E
330
1F
100
AcDbEntity
  8
0
  6
CONTINUOUS
 62
     3
100
AcDbCircle
 10
1225.414348
 20
597.443983
 30
0.0
 40
11.0
  0
LINE
  5
26F
330
1F
100
AcDbEntity
  8
0
  6
CONTINUOUS
 62
     3
100
AcDbLine
 10
1432.772248
 20
864.532043
 30
0.0
 11
1423.272248
 21
870.016871
 31
0.0
  0
LINE
  5
270
330
1F
100
AcDbEntity
  8
0
  6
CONTINUOUS
 62
     3
100
AcDbLine
 10
1423.272248
 20
870.016871
 30
0.0
 11
1413.772248
 21
864.532043
 31
0.0
  0
LINE
  5
271
330
1F
100
AcDbEntity
  8
0
  6
CONTINUOUS
 62
     3
100
AcDbLine
 10
1413.772248
 20
864.532043
 30
0.0
 11
1413.772248
 21
853.562388
 31
0.0
  0
LINE
  5
272
330
1F
100
AcDbEntity
  8
0
  6
CONTINUOUS
 62
     3
100
AcDbLine
 10
1413.772248
 20
853.562388
 30
0.0
 11
1423.272248
 21
848.077561
 31
0.0
  0
LINE
  5
273
330
1F
100
AcDbEntity
  8
0
  6
CONTINUOUS
 62
     3
100
AcDbLine
 10
1423.272248
 20
848.077561
 30
0.0
 11
1432.772248
 21
853.562388
 31
0.0
  0
LINE
  5
274
330
1F
100
AcDbEntity
  8
0
  6
CONTINUOUS
 62
     3
100
AcDbLine
 10
1432.772248
 20
853.562388
 30
0.0
 11
1432.772248
 21
864.532043
 31
0.0
  0
CIRCLE
  5
275
330
1F
100
AcDbEntity
  8
0
  6
CONTINUOUS
 62
     3
100
AcDbCircle
 10
1423.272248
 20
859.047216
 30
0.0
 40
11.0
  0
ARC
  5
276
330
1F
100
AcDbEntity
  8
0
  6
CONTINUOUS
 62
     3
100
AcDbCircle
 10
1248.543902
 20
1138.143983
 30
0.0
 40
12.0
100
AcDbArc
 50
168.949935
 51
208.908027
  0
ARC
  5
277
330
1F
100
AcDbEntity
  8
0
  6
CONTINUOUS
 62
     3
100
AcDbCircle
 10
1248.543902
 20
1138.143983
 30
0.0
 40
6.000000000000001
100
AcDbArc
 50
157.45969
 51
22.54031
  0
ARC
  5
278
330
1F
100
AcDbEntity
  8
0
  6
CONTINUOUS
 62
     3
100
AcDbCircle
 10
1248.543902
 20
1138.143983
 30
0.0
 40
5.300000000000001
100
AcDbArc
 50
154.28072
 51
25.71928
  0
CIRCLE
  5
279
330
1F
100
AcDbEntity
  8
0
  6
CONTINUOUS
 62
     3
100
AcDbCircle
 10
1423.272248
 20
859.047216
 30
0.0
 40
6.000000000000001
  0
LINE
  5
27A
330
1F
100
AcDbEntity
  8
0
  6
CONTINUOUS
 62
     3
100
AcDbLine
 10
1546.914922
 20
983.255218
 30
0.0
 11
1528.927285
 21
964.694084
 31
0.0
  0
ARC
  5
27B
330
1F
100
AcDbEntity
  8
0
  6
CONTINUOUS
 62
     3
100
AcDbCircle
 10
1518.155578
 20
975.132969
 30
0.0
 40
15.0
100
AcDbArc
 50
266.722904
 51
315.89897
  0
ARC
  5
27C
330
1F
100
AcDbEntity
  8
0
  6
CONTINUOUS
 62
     3
100
AcDbCircle
 10
1552.687146
 20
967.984954
 30
0.0
 40
90.0
100
AcDbArc
 50
146.918019
 51
156.425306
  0
ARC
  5
27D
330
1F
100
AcDbEntity
  8
0
  6
CONTINUOUS
 62
     3
100
AcDbCircle
 10
1598.000593
 20
1138.143983
 30
0.0
 40
6.000000000000001
100
AcDbArc
 50
157.45969
 51
22.54031
  0
ARC
  5
27E
330
1F
100
AcDbEntity
  8
0
  6
CONTINUOUS
 62
     3
100
AcDbCircle
 10
1598.000593
 20
1138.143983
 30
0.0
 40
14.0
100
AcDbArc
 50
170.544257
 51
9.455743
  0
LINE
  5
27F
330
1F
100
AcDbEntity
  8
0
  6
CONTINUOUS
 62
     3
100
AcDbLine
 10
1441.818264
 20
895.172626
 30
0.0
 11
1470.698064
 21
933.356844
 31
0.0
  0
LINE
  5
280
330
1F
100
AcDbEntity
  8
0
  6
CONTINUOUS
 62
     3
100
AcDbLine
 10
1508.865089
 20
949.007556
 30
0.0
 11
1470.698064
 21
933.356844
 31
0.0
  0
LINE
  5
281
330
1F
100
AcDbEntity
  8
0
  6
CONTINUOUS
 62
     3
100
AcDbLine
 10
1508.865089
 20
949.007556
 30
0.0
 11
1540.30428
 21
990.575743
 31
0.0
  0
LINE
  5
282
330
1F
100
AcDbEntity
  8
0
  6
CONTINUOUS
 62
     3
100
AcDbLine
 10
1540.30428
 20
990.575743
 30
0.0
 11
1539.520575
 21
1019.379142
 31
0.0
  0
LINE
  5
283
330
1F
100
AcDbEntity
  8
0
  6
CONTINUOUS
 62
     3
100
AcDbLine
 10
1539.520575
 20
1019.379142
 30
0.0
 11
1578.303633
 21
1070.657224
 31
0.0
  0
LINE
  5
284
330
1F
100
AcDbEntity
  8
0
  6
CONTINUOUS
 62
     3
100
AcDbLine
 10
1578.303633
 20
1070.657224
 30
0.0
 11
1605.604759
 21
1126.389126
 31
0.0
  0
LINE
  5
285
330
1F
100
AcDbEntity
  8
0
  6
CONTINUOUS
 62
     3
100
AcDbLine
 10
1529.762921
 20
1079.41903
 30
0.0
 11
1575.917813
 21
1140.443983
 31
0.0
  0
LINE
  5
286
330
1F
100
AcDbEntity
  8
0
  6
CONTINUOUS
 62
     3
100
AcDbLine
 10
1556.948437
 20
1125.309636
 30
0.0
 11
1561.733862
 21
1121.690284
 31
0.0
  0
LINE
  5
287
330
1F
100
AcDbEntity
  8
0
  6
CONTINUOUS
 62
     3
100
AcDbLine
 10
1568.39497
 20
1140.443983
 30
0.0
 11
1556.948437
 21
1125.309636
 31
0.0
  0
LINE
  5
288
330
1F
100
AcDbEntity
  8
0
  6
CONTINUOUS
 62
     3
100
AcDbLine
 10
1516.103273
 20
1064.674064
 30
0.0
 11
1529.762921
 21
1079.41903
 31
0.0
  0
ARC
  5
289
330
1F
100
AcDbEntity
  8
0
  6
CONTINUOUS
 62
     3
100
AcDbCircle
 10
1538.155181
 20
992.878095
 30
0.0
 40
5.0
100
AcDbArc
 50
271.257192
 51
66.904626
  0
ARC
  5
28A
330
1F
100
AcDbEntity
  8
0
  6
CONTINUOUS
 62
     3
100
AcDbCircle
 10
1538.155181
 20
992.878095
 30
0.0
 40
9.0
100
AcDbArc
 50
0.89897
 51
78.15888
  0
LINE
  5
28B
330
1F
100
AcDbEntity
  8
0
  6
CONTINUOUS
 62
     3
100
AcDbLine
 10
1547.154074
 20
993.019299
 30
0.0
 11
1547.301033
 21
983.653639
 31
0.0
  0
LINE
  5
28C
330
1F
100
AcDbEntity
  8
0
  6
CONTINUOUS
 62
     3
100
AcDbLine
 10
1353.232441
 20
849.329939
 30
0.0
 11
1384.404227
 21
890.544568
 31
0.0
  0
LINE
  5
28D
330
1F
100
AcDbEntity
  8
0
  6
CONTINUOUS
 62
     3
100
AcDbLine
 10
1443.981654
 20
885.413278
 30
0.0
 11
1441.818264
 21
895.172626
 31
0.0
  0
LINE
  5
28E
330
1F
100
AcDbEntity
  8
0
  6
CONTINUOUS
 62
     3
100
AcDbLine
 10
1426.093314
 20
835.424202
 30
0.0
 11
1424.367661
 21
833.142582
 31
0.0
  0
LINE
  5
28F
330
1F
100
AcDbEntity
  8
0
  6
CONTINUOUS
 62
     3
100
AcDbLine
 10
1424.367661
 20
833.142582
 30
0.0
 11
1418.064078
 21
832.268027
 31
0.0
  0
LINE
  5
290
330
1F
100
AcDbEntity
  8
0
  6
CONTINUOUS
 62
     3
100
AcDbLine
 10
1418.064078
 20
832.268027
 30
0.0
 11
1250.2923
 21
610.443983
 31
0.0
  0
LINE
  5
291
330
1F
100
AcDbEntity
  8
0
  6
CONTINUOUS
 62
     3
100
AcDbLine
 10
1333.823471
 20
817.618627
 30
0.0
 11
1353.232441
 21
849.329939
 31
0.0
  0
LINE
  5
292
330
1F
100
AcDbEntity
  8
0
  6
CONTINUOUS
 62
     3
100
AcDbLine
 10
1339.153819
 20
829.886627
 30
0.0
 11
1341.955411
 21
830.275318
 31
0.0
  0
LINE
  5
293
330
1F
100
AcDbEntity
  8
0
  6
CONTINUOUS
 62
     3
100
AcDbLine
 10
1339.153819
 20
829.886627
 30
0.0
 11
1310.199005
 21
791.603227
 31
0.0
  0
LINE
  5
294
330
1F
100
AcDbEntity
  8
0
  6
CONTINUOUS
 62
     3
100
AcDbLine
 10
1310.199005
 20
791.603227
 30
0.0
 11
1311.622206
 21
781.34513
 31
0.0
  0
LINE
  5
295
330
1F
100
AcDbEntity
  8
0
  6
CONTINUOUS
 62
     3
100
AcDbLine
 10
1302.892786
 20
767.082582
 30
0.0
 11
1333.823471
 21
817.618627
 31
0.0
  0
LINE
  5
296
330
1F
100
AcDbEntity
  8
0
  6
CONTINUOUS
 62
     3
100
AcDbLine
 10
1238.876886
 20
662.490314
 30
0.0
 11
1302.892786
 21
767.082582
 31
0.0
  0
LINE
  5
297
330
1F
100
AcDbEntity
  8
0
  6
CONTINUOUS
 62
     3
100
AcDbLine
 10
1217.741746
 20
610.443983
 30
0.0
 11
1238.876886
 21
662.490314
 31
0.0
  0
LINE
  5
298
330
1F
100
AcDbEntity
  8
0
  6
CONTINUOUS
 62
     3
100
AcDbLine
 10
1479.187691
 20
1029.629751
 30
0.0
 11
1473.387826
 21
1033.111754
 31
0.0
  0
LINE
  5
299
330
1F
100
AcDbEntity
  8
0
  6
CONTINUOUS
 62
     3
100
AcDbLine
 10
1425.003935
 20
952.520197
 30
0.0
 11
1473.387826
 21
1033.111754
 31
0.0
  0
LINE
  5
29A
330
1F
100
AcDbEntity
  8
0
  6
CONTINUOUS
 62
     3
100
AcDbLine
 10
1470.907604
 20
1036.500129
 30
0.0
 11
1472.487601
 21
1033.652212
 31
0.0
  0
LINE
  5
29B
330
1F
100
AcDbEntity
  8
0
  6
CONTINUOUS
 62
     8
100
AcDbLine
 10
1472.487601
 20
1033.652212
 30
0.0
 11
1473.387826
 21
1033.111754
 31
0.0
  0
LINE
  5
29C
330
1F
100
AcDbEntity
  8
0
  6
CONTINUOUS
 62
     3
100
AcDbLine
 10
1470.907604
 20
1036.500129
 30
0.0
 11
1483.128735
 21
1056.856491
 31
0.0
  0
LINE
  5
29D
330
1F
100
AcDbEntity
  8
0
  6
CONTINUOUS
 62
     3
100
AcDbLine
 10
1483.128735
 20
1056.856491
 30
0.0
 11
1486.385102
 21
1056.800851
 31
0.0
  0
LINE
  5
29E
330
1F
100
AcDbEntity
  8
0
  6
CONTINUOUS
 62
     3
100
AcDbLine
 10
1486.385102
 20
1056.800851
 30
0.0
 11
1502.727823
 21
1046.989347
 31
0.0
  0
LINE
  5
29F
330
1F
100
AcDbEntity
  8
0
  6
CONTINUOUS
 62
     8
100
AcDbLine
 10
1502.727823
 20
1046.989347
 30
0.0
 11
1498.816778
 21
1049.337379
 31
0.0
  0
LINE
  5
2A0
330
1F
100
AcDbEntity
  8
0
  6
CENTER
 62
     5
100
AcDbLine
 10
1475.740734
 20
1048.028418
 30
0.0
 11
1508.510044
 21
1028.355058
 31
0.0
  0
LINE
  5
2A1
330
1F
100
AcDbEntity
  8
0
  6
CONTINUOUS
 62
     3
100
AcDbLine
 10
1429.318866
 20
949.929688
 30
0.0
 11
1419.388247
 21
955.891627
 31
0.0
  0
ARC
  5
2A2
330
1F
100
AcDbEntity
  8
0
  6
CONTINUOUS
 62
     3
100
AcDbCircle
 10
1418.873525
 20
955.03427
 30
0.0
 40
1.0
100
AcDbArc
 50
59.021109
 51
149.021109
  0
LINE
  5
2A3
330
1F
100
AcDbEntity
  8
0
  6
CONTINUOUS
 62
     3
100
AcDbLine
 10
1416.986723
 20
953.834279
 30
0.0
 11
1418.016168
 21
955.548993
 31
0.0
  0
LINE
  5
2A4
330
1F
100
AcDbEntity
  8
0
  6
CENTER
 62
     6
100
AcDbLine
 10
1244.589979
 20
625.879628
 30
0.0
 11
1492.125389
 21
1038.191738
 31
0.0
  0
LINE
  5
2A5
330
1F
100
AcDbEntity
  8
0
  6
CONTINUOUS
 62
     3
100
AcDbLine
 10
1266.693219
 20
723.894368
 30
0.0
 11
1314.819749
 21
804.057247
 31
0.0
  0
LINE
  5
2A6
330
1F
100
AcDbEntity
  8
0
  6
CONTINUOUS
 62
     3
100
AcDbLine
 10
1320.706709
 20
691.466867
 30
0.0
 11
1355.867522
 21
750.033149
 31
0.0
  0
LINE
  5
2A7
330
1F
100
AcDbEntity
  8
0
  6
CONTINUOUS
 62
     3
100
AcDbLine
 10
1313.962392
 20
804.571969
 30
0.0
 11
1318.119856
 21
802.075997
 31
0.0
  0
LINE
  5
2A8
330
1F
100
AcDbEntity
  8
0
  6
CONTINUOUS
 62
     3
100
AcDbLine
 10
1277.416342
 20
740.784147
 30
0.0
 11
1284.276138
 21
736.665804
 31
0.0
  0
LINE
  5
2A9
330
1F
100
AcDbEntity
  8
0
  6
CONTINUOUS
 62
     3
100
AcDbLine
 10
1356.170581
 20
853.214681
 30
0.0
 11
1381.158402
 21
894.836125
 31
0.0
  0
LINE
  5
2AA
330
1F
100
AcDbEntity
  8
0
  6
CONTINUOUS
 62
     3
100
AcDbLine
 10
1328.374615
 20
828.577965
 30
0.0
 11
1335.107052
 21
824.536083
 31
0.0
  0
LINE
  5
2AB
330
1F
100
AcDbEntity
  8
0
  6
CONTINUOUS
 62
     3
100
AcDbLine
 10
1328.374615
 20
828.577965
 30
0.0
 11
1313.962392
 21
804.571969
 31
0.0
  0
LINE
  5
2AC
330
1F
100
AcDbEntity
  8
0
  6
CONTINUOUS
 62
     3
100
AcDbLine
 10
1288.795476
 20
644.141693
 30
0.0
 11
1287.251365
 21
641.569717
 31
0.0
  0
LINE
  5
2AD
330
1F
100
AcDbEntity
  8
0
  6
CONTINUOUS
 62
     3
100
AcDbLine
 10
1239.92611
 20
673.480872
 30
0.0
 11
1238.382
 21
670.908895
 31
0.0
  0
LINE
  5
2AE
330
1F
100
AcDbEntity
  8
0
  6
CONTINUOUS
 62
     3
100
AcDbLine
 10
1265.553155
 20
627.769843
 30
0.0
 11
1264.008978
 21
625.197755
 31
0.0
  0
LINE
  5
2AF
330
1F
100
AcDbEntity
  8
0
  6
CONTINUOUS
 62
     3
100
AcDbLine
 10
1242.511943
 20
668.429445
 30
0.0
 11
1238.382
 21
670.908895
 31
0.0
  0
LINE
  5
2B0
330
1F
100
AcDbEntity
  8
0
  6
CONTINUOUS
 62
     6
100
AcDbLine
 10
1233.912325
 20
650.264836
 30
0.0
 11
1233.660399
 21
650.416081
 31
0.0
  0
LINE
  5
2B1
330
1F
100
AcDbEntity
  8
0
  6
CONTINUOUS
 62
     3
100
AcDbLine
 10
1268.295772
 20
622.624138
 30
0.0
 11
1267.266322
 21
620.909416
 31
0.0
  0
LINE
  5
2B2
330
1F
100
AcDbEntity
  8
0
  6
CONTINUOUS
 62
     6
100
AcDbLine
 10
1230.572056
 20
645.271922
 30
0.0
 11
1229.542606
 21
643.557199
 31
0.0
  0
LINE
  5
2B3
330
1F
100
AcDbEntity
  8
0
  6
CONTINUOUS
 62
     3
100
AcDbLine
 10
1281.678545
 20
644.915411
 30
0.0
 11
1269.839949
 21
625.196226
 31
0.0
  0
LINE
  5
2B4
330
1F
100
AcDbEntity
  8
0
  6
CONTINUOUS
 62
     6
100
AcDbLine
 10
1234.628705
 20
652.028958
 30
0.0
 11
1232.116233
 21
647.84401
 31
0.0
  0
LINE
  5
2B5
330
1F
100
AcDbEntity
  8
0
  6
CONTINUOUS
 62
     3
100
AcDbLine
 10
1267.266322
 20
620.909416
 30
0.0
 11
1261.03641
 21
624.649601
 31
0.0
  0
LINE
  5
2B6
330
1F
100
AcDbEntity
  8
0
  6
CONTINUOUS
 62
     6
100
AcDbLine
 10
1231.627479
 20
644.638289
 30
0.0
 11
1230.572056
 21
645.271922
 31
0.0
  0
LINE
  5
2B7
330
1F
100
AcDbEntity
  8
0
  6
CONTINUOUS
 62
     3
100
AcDbLine
 10
1269.839949
 20
625.196226
 30
0.0
 11
1264.069856
 21
628.660355
 31
0.0
  0
LINE
  5
2B8
330
1F
100
AcDbEntity
  8
0
  6
CONTINUOUS
 62
     3
100
AcDbLine
 10
1279.843597
 20
649.516037
 30
0.0
 11
1291.367547
 21
642.597527
 31
0.0
  0
LINE
  5
2B9
330
1F
100
AcDbEntity
  8
0
  6
CONTINUOUS
 62
     3
100
AcDbLine
 10
1253.310441
 20
701.603086
 30
0.0
 11
1237.354056
 21
675.025028
 31
0.0
  0
LINE
  5
2BA
330
1F
100
AcDbEntity
  8
0
  6
CONTINUOUS
 62
     3
100
AcDbLine
 10
1307.323931
 20
669.175585
 30
0.0
 11
1291.367547
 21
642.597527
 31
0.0
  0
LINE
  5
2BB
330
1F
100
AcDbEntity
  8
0
  6
CONTINUOUS
 62
     3
100
AcDbLine
 10
1314.424669
 20
695.238348
 30
0.0
 11
1320.706709
 21
691.466867
 31
0.0
  0
LINE
  5
2BC
330
1F
100
AcDbEntity
  8
0
  6
CONTINUOUS
 62
     3
100
AcDbLine
 10
1298.650844
 20
674.382554
 30
0.0
 11
1307.323931
 21
669.175585
 31
0.0
  0
LINE
  5
2BD
330
1F
100
AcDbEntity
  8
0
  6
CONTINUOUS
 62
     3
100
AcDbLine
 10
1319.420674
 20
692.23895
 30
0.0
 11
1306.037896
 21
669.947668
 31
0.0
  0
LINE
  5
2BE
330
1F
100
AcDbEntity
  8
0
  6
CONTINUOUS
 62
     3
100
AcDbLine
 10
1271.384116
 20
627.768297
 30
0.0
 11
1265.889913
 21
631.066793
 31
0.0
  0
LINE
  5
2BF
330
1F
100
AcDbEntity
  8
0
  6
CONTINUOUS
 62
     6
100
AcDbLine
 10
1232.769905
 20
647.451572
 30
0.0
 11
1232.116233
 21
647.84401
 31
0.0
  0
LINE
  5
2C0
330
1F
100
AcDbEntity
  8
0
  6
CONTINUOUS
 62
     3
100
AcDbLine
 10
1268.295772
 20
622.624138
 30
0.0
 11
1262.249787
 21
626.253901
 31
0.0
  0
LINE
  5
2C1
330
1F
100
AcDbEntity
  8
0
  6
CONTINUOUS
 62
     6
100
AcDbLine
 10
1230.865862
 20
642.76277
 30
0.0
 11
1229.542606
 21
643.557199
 31
0.0
  0
LINE
  5
2C2
330
1F
100
AcDbEntity
  8
0
  6
CONTINUOUS
 62
     3
100
AcDbLine
 10
1237.354056
 20
675.025028
 30
0.0
 11
1244.078045
 21
670.988219
 31
0.0
  0
LINE
  5
2C3
330
1F
100
AcDbEntity
  8
0
  6
CONTINUOUS
 62
     3
100
AcDbLine
 10
1273.835074
 20
719.606689
 30
0.0
 11
1266.693219
 21
723.894368
 31
0.0
  0
LINE
  5
2C4
330
1F
100
AcDbEntity
  8
0
  6
CONTINUOUS
 62
     3
100
AcDbLine
 10
1267.979254
 20
723.122285
 30
0.0
 11
1254.596476
 21
700.831003
 31
0.0
  0
LINE
  5
2C5
330
1F
100
AcDbEntity
  8
0
  6
CONTINUOUS
 62
     3
100
AcDbLine
 10
1260.26169
 20
697.429839
 30
0.0
 11
1253.310441
 21
701.603086
 31
0.0
  0
LINE
  5
2C6
330
1F
100
AcDbEntity
  8
0
  6
CONTINUOUS
 62
     3
100
AcDbLine
 10
1286.564142
 20
640.096502
 30
0.0
 11
1287.105385
 21
640.840883
 31
0.0
  0
LINE
  5
2C7
330
1F
100
AcDbEntity
  8
0
  6
CONTINUOUS
 62
     3
100
AcDbLine
 10
1281.987381
 20
642.844203
 30
0.0
 11
1282.389931
 21
643.67185
 31
0.0
  0
LINE
  5
2C8
330
1F
100
AcDbEntity
  8
0
  6
CONTINUOUS
 62
     3
100
AcDbLine
 10
1284.747654
 20
642.256369
 30
0.0
 11
1284.502842
 21
643.219818
 31
0.0
  0
LINE
  5
2C9
330
1F
100
AcDbEntity
  8
0
  6
CONTINUOUS
 62
     3
100
AcDbLine
 10
1282.578761
 20
644.374958
 30
0.0
 11
1282.218451
 21
643.7748
 31
0.0
  0
LINE
  5
2CA
330
1F
100
AcDbEntity
  8
0
  6
CONTINUOUS
 62
     3
100
AcDbLine
 10
1287.637168
 20
641.338097
 30
0.0
 11
1287.276857
 21
640.737938
 31
0.0
  0
LINE
  5
2CB
330
1F
100
AcDbEntity
  8
0
  6
CONTINUOUS
 62
     3
100
AcDbLine
 10
1282.218451
 20
643.7748
 30
0.0
 11
1287.276857
 21
640.737938
 31
0.0
  0
LINE
  5
2CC
330
1F
100
AcDbEntity
  8
0
  6
CENTER
 62
     6
100
AcDbLine
 10
1286.652075
 20
645.428504
 30
0.0
 11
1283.24075
 21
639.746365
 31
0.0
  0
LINE
  5
2CD
330
1F
100
AcDbEntity
  8
0
  6
CONTINUOUS
 62
     3
100
AcDbLine
 10
1287.637168
 20
641.338097
 30
0.0
 11
1278.023606
 21
647.109688
 31
0.0
  0
LINE
  5
2CE
330
1F
100
AcDbEntity
  8
0
  6
CONTINUOUS
 62
     3
100
AcDbLine
 10
1283.718422
 20
640.542029
 30
0.0
 11
1284.867047
 21
639.981302
 31
0.0
  0
LINE
  5
2CF
330
1F
100
AcDbEntity
  8
0
  6
CONTINUOUS
 62
     3
100
AcDbLine
 10
1284.867047
 20
639.981302
 30
0.0
 11
1285.768414
 21
639.698942
 31
0.0
  0
LINE
  5
2D0
330
1F
100
AcDbEntity
  8
0
  6
CONTINUOUS
 62
     3
100
AcDbLine
 10
1285.768257
 20
639.698604
 30
0.0
 11
1285.93773
 21
639.711386
 31
0.0
  0
LINE
  5
2D1
330
1F
100
AcDbEntity
  8
0
  6
CONTINUOUS
 62
     3
100
AcDbLine
 10
1285.93773
 20
639.711386
 30
0.0
 11
1286.102195
 21
639.753301
 31
0.0
  0
LINE
  5
2D2
330
1F
100
AcDbEntity
  8
0
  6
CONTINUOUS
 62
     3
100
AcDbLine
 10
1286.102195
 20
639.753301
 30
0.0
 11
1286.256632
 21
639.823083
 31
0.0
  0
LINE
  5
2D3
330
1F
100
AcDbEntity
  8
0
  6
CONTINUOUS
 62
     3
100
AcDbLine
 10
1286.256632
 20
639.823083
 30
0.0
 11
1286.396367
 21
639.918615
 31
0.0
  0
LINE
  5
2D4
330
1F
100
AcDbEntity
  8
0
  6
CONTINUOUS
 62
     3
100
AcDbLine
 10
1286.396367
 20
639.918615
 30
0.0
 11
1286.517151
 21
640.036979
 31
0.0
  0
LINE
  5
2D5
330
1F
100
AcDbEntity
  8
0
  6
CONTINUOUS
 62
     3
100
AcDbLine
 10
1286.517151
 20
640.036979
 30
0.0
 11
1286.564143
 21
640.096525
 31
0.0
  0
LINE
  5
2D6
330
1F
100
AcDbEntity
  8
0
  6
CONTINUOUS
 62
     3
100
AcDbLine
 10
1282.010575
 20
641.954996
 30
0.0
 11
1282.941001
 21
641.079198
 31
0.0
  0
LINE
  5
2D7
330
1F
100
AcDbEntity
  8
0
  6
CONTINUOUS
 62
     3
100
AcDbLine
 10
1282.941001
 20
641.079198
 30
0.0
 11
1283.718431
 21
640.542024
 31
0.0
  0
LINE
  5
2D8
330
1F
100
AcDbEntity
  8
0
  6
CONTINUOUS
 62
     3
100
AcDbLine
 10
1281.9874
 20
642.844215
 30
0.0
 11
1281.927094
 21
642.686277
 31
0.0
  0
LINE
  5
2D9
330
1F
100
AcDbEntity
  8
0
  6
CONTINUOUS
 62
     3
100
AcDbLine
 10
1281.927094
 20
642.686277
 30
0.0
 11
1281.895316
 21
642.5201
 31
0.0
  0
LINE
  5
2DA
330
1F
100
AcDbEntity
  8
0
  6
CONTINUOUS
 62
     3
100
AcDbLine
 10
1281.895316
 20
642.5201
 30
0.0
 11
1281.89304
 21
642.350744
 31
0.0
  0
LINE
  5
2DB
330
1F
100
AcDbEntity
  8
0
  6
CONTINUOUS
 62
     3
100
AcDbLine
 10
1281.89304
 20
642.350744
 30
0.0
 11
1281.920317
 21
642.183346
 31
0.0
  0
LINE
  5
2DC
330
1F
100
AcDbEntity
  8
0
  6
CONTINUOUS
 62
     3
100
AcDbLine
 10
1281.920317
 20
642.183346
 30
0.0
 11
1281.976334
 21
642.023
 31
0.0
  0
LINE
  5
2DD
330
1F
100
AcDbEntity
  8
0
  6
CONTINUOUS
 62
     3
100
AcDbLine
 10
1281.976334
 20
642.023
 30
0.0
 11
1282.010359
 21
641.954694
 31
0.0
  0
LINE
  5
2DE
330
1F
100
AcDbEntity
  8
0
  6
CONTINUOUS
 62
     3
100
AcDbLine
 10
1478.016197
 20
1018.168782
 30
0.0
 11
1480.187591
 21
1039.411972
 31
0.0
  0
LINE
  5
2DF
330
1F
100
AcDbEntity
  8
0
  6
CONTINUOUS
 62
     3
100
AcDbLine
 10
1416.686648
 20
954.014432
 30
0.0
 11
1427.49881
 21
947.52325
 31
0.0
  0
ARC
  5
2E0
330
1F
100
AcDbEntity
  8
0
  6
CONTINUOUS
 62
     3
100
AcDbCircle
 10
1492.125389
 20
1038.191738
 30
0.0
 40
12.0
100
AcDbArc
 50
37.684006
 51
174.163725
  0
ARC
  5
2E1
330
1F
100
AcDbEntity
  8
0
  6
CONTINUOUS
 62
     3
100
AcDbCircle
 10
1494.034816
 20
1006.193647
 30
0.0
 40
20.0
100
AcDbArc
 50
115.001188
 51
146.918019
  0
LINE
  5
2E2
330
1F
100
AcDbEntity
  8
0
  6
CONTINUOUS
 62
     3
100
AcDbLine
 10
1413.555753
 20
929.088056
 30
0.0
 11
1516.103273
 21
1064.674064
 31
0.0
  0
LINE
  5
2E3
330
1F
100
AcDbEntity
  8
0
  6
CONTINUOUS
 62
     3
100
AcDbLine
 10
1407.199545
 20
938.212056
 30
0.0
 11
1416.686648
 21
954.014432
 31
0.0
  0
LINE
  5
2E4
330
1F
100
AcDbEntity
  8
0
  6
PHANTOM
 62
     6
100
AcDbLine
 10
1239.489505
 20
621.143983
 30
0.0
 11
1239.489505
 21
630.443983
 31
0.0
  0
LINE
  5
2E5
330
1F
100
AcDbEntity
  8
0
  6
CENTER
 62
     6
100
AcDbLine
 10
1918.000325
 20
1723.421865
 30
0.0
 11
1187.728908
 21
1723.421865
 31
0.0
  0
LINE
  5
2E6
330
1F
100
AcDbEntity
  8
0
  6
CONTINUOUS
 62
     3
100
AcDbLine
 10
1905.414348
 20
1623.421865
 30
0.0
 11
1205.414348
 21
1623.421865
 31
0.0
  0
LINE
  5
2E7
330
1F
100
AcDbEntity
  8
0
  6
CONTINUOUS
 62
     3
100
AcDbLine
 10
1205.414348
 20
1823.421865
 30
0.0
 11
1905.414348
 21
1823.421865
 31
0.0
  0
LINE
  5
2E8
330
1F
100
AcDbEntity
  8
0
  6
CONTINUOUS
 62
     3
100
AcDbLine
 10
1243.414348
 20
1823.421865
 30
0.0
 11
1243.414348
 21
1868.421865
 31
0.0
  0
LINE
  5
2E9
330
1F
100
AcDbEntity
  8
0
  6
CONTINUOUS
 62
     3
100
AcDbLine
 10
1238.414348
 20
1873.421865
 30
0.0
 11
1210.414348
 21
1873.421865
 31
0.0
  0
CIRCLE
  5
2EA
330
1F
100
AcDbEntity
  8
0
  6
CONTINUOUS
 62
     3
100
AcDbCircle
 10
1224.414348
 20
1848.421865
 30
0.0
 40
6.5
  0
LINE
  5
2EB
330
1F
100
AcDbEntity
  8
0
  6
CENTER
 62
     6
100
AcDbLine
 10
1211.720422
 20
1848.421865
 30
0.0
 11
1236.146839
 21
1848.421865
 31
0.0
  0
LINE
  5
2EC
330
1F
100
AcDbEntity
  8
0
  6
CENTER
 62
     6
100
AcDbLine
 10
1224.414348
 20
1835.336494
 30
0.0
 11
1224.414348
 21
1860.883389
 31
0.0
  0
LINE
  5
2ED
330
1F
100
AcDbEntity
  8
0
  6
CONTINUOUS
 62
     3
100
AcDbLine
 10
1210.414348
 20
1873.421865
 30
0.0
 11
1205.414348
 21
1868.421865
 31
0.0
  0
LINE
  5
2EE
330
1F
100
AcDbEntity
  8
0
  6
CONTINUOUS
 62
     3
100
AcDbLine
 10
1238.414348
 20
1873.421865
 30
0.0
 11
1243.414348
 21
1868.421865
 31
0.0
  0
LINE
  5
2EF
330
1F
100
AcDbEntity
  8
0
  6
CONTINUOUS
 62
     3
100
AcDbLine
 10
1243.414348
 20
1623.421865
 30
0.0
 11
1243.414348
 21
1578.421865
 31
0.0
  0
LINE
  5
2F0
330
1F
100
AcDbEntity
  8
0
  6
CONTINUOUS
 62
     3
100
AcDbLine
 10
1238.414348
 20
1573.421865
 30
0.0
 11
1210.414348
 21
1573.421865
 31
0.0
  0
CIRCLE
  5
2F1
330
1F
100
AcDbEntity
  8
0
  6
CONTINUOUS
 62
     3
100
AcDbCircle
 10
1224.414348
 20
1598.421865
 30
0.0
 40
6.5
  0
LINE
  5
2F2
330
1F
100
AcDbEntity
  8
0
  6
CENTER
 62
     6
100
AcDbLine
 10
1211.720422
 20
1598.421865
 30
0.0
 11
1236.146839
 21
1598.421865
 31
0.0
  0
LINE
  5
2F3
330
1F
100
AcDbEntity
  8
0
  6
CENTER
 62
     6
100
AcDbLine
 10
1224.414348
 20
1611.507237
 30
0.0
 11
1224.414348
 21
1585.960342
 31
0.0
  0
LINE
  5
2F4
330
1F
100
AcDbEntity
  8
0
  6
CONTINUOUS
 62
     3
100
AcDbLine
 10
1210.414348
 20
1573.421865
 30
0.0
 11
1205.414348
 21
1578.421865
 31
0.0
  0
LINE
  5
2F5
330
1F
100
AcDbEntity
  8
0
  6
CONTINUOUS
 62
     3
100
AcDbLine
 10
1238.414348
 20
1573.421865
 30
0.0
 11
1243.414348
 21
1578.421865
 31
0.0
  0
LINE
  5
2F6
330
1F
100
AcDbEntity
  8
0
  6
CONTINUOUS
 62
     3
100
AcDbLine
 10
1205.414348
 20
1868.421865
 30
0.0
 11
1205.414348
 21
1578.421865
 31
0.0
  0
LINE
  5
2F7
330
1F
100
AcDbEntity
  8
0
  6
CONTINUOUS
 62
     3
100
AcDbLine
 10
1905.414348
 20
1623.421865
 30
0.0
 11
1905.414348
 21
1823.421865
 31
0.0
  0
LINE
  5
2F8
330
1F
100
AcDbEntity
  8
0
  6
CONTINUOUS
 62
     3
100
AcDbLine
 10
1894.214348
 20
643.643983
 30
0.0
 11
1794.214348
 21
643.643983
 31
0.0
  0
LINE
  5
2F9
330
1F
100
AcDbEntity
  8
0
  6
CONTINUOUS
 62
     3
100
AcDbLine
 10
1794.214348
 20
643.643983
 30
0.0
 11
1794.214348
 21
610.443983
 31
0.0
  0
LINE
  5
2FA
330
1F
100
AcDbEntity
  8
0
  6
CONTINUOUS
 62
     3
100
AcDbLine
 10
1894.214348
 20
610.443983
 30
0.0
 11
1894.214348
 21
643.643983
 31
0.0
  0
LINE
  5
2FB
330
1F
100
AcDbEntity
  8
0
  6
CONTINUOUS
 62
     3
100
AcDbLine
 10
534.633371
 20
580.443983
 30
0.0
 11
534.633371
 21
584.943983
 31
0.0
  0
LINE
  5
2FC
330
1F
100
AcDbEntity
  8
0
  6
CONTINUOUS
 62
     3
100
AcDbLine
 10
584.633371
 20
584.943983
 30
0.0
 11
584.633371
 21
610.443983
 31
0.0
  0
LINE
  5
2FD
330
1F
100
AcDbEntity
  8
0
  6
DASHED
 62
     3
100
AcDbLine
 10
584.633371
 20
584.943983
 30
0.0
 11
584.633371
 21
580.443983
 31
0.0
  0
LINE
  5
2FE
330
1F
100
AcDbEntity
  8
0
  6
CENTER
 62
     6
100
AcDbLine
 10
559.633371
 20
594.2231
 30
0.0
 11
559.633371
 21
570.730835
 31
0.0
  0
LINE
  5
2FF
330
1F
100
AcDbEntity
  8
0
  6
CONTINUOUS
 62
     3
100
AcDbLine
 10
534.633371
 20
580.443983
 30
0.0
 11
834.633371
 21
580.443983
 31
0.0
  0
LINE
  5
300
330
1F
100
AcDbEntity
  8
0
  6
CONTINUOUS
 62
     3
100
AcDbLine
 10
534.633371
 20
584.943983
 30
0.0
 11
610.633371
 21
584.943983
 31
0.0
  0
LINE
  5
301
330
1F
100
AcDbEntity
  8
0
  6
CONTINUOUS
 62
     3
100
AcDbLine
 10
610.633371
 20
580.443983
 30
0.0
 11
610.633371
 21
610.443983
 31
0.0
  0
LINE
  5
302
330
1F
100
AcDbEntity
  8
0
  6
CONTINUOUS
 62
     3
100
AcDbLine
 10
616.633371
 20
580.443983
 30
0.0
 11
616.633371
 21
610.443983
 31
0.0
  0
LINE
  5
303
330
1F
100
AcDbEntity
  8
0
  6
CONTINUOUS
 62
     3
100
AcDbLine
 10
619.633371
 20
610.443983
 30
0.0
 11
619.633371
 21
1112.682282
 31
0.0
  0
LINE
  5
304
330
1F
100
AcDbEntity
  8
0
  6
CONTINUOUS
 62
     3
100
AcDbLine
 10
628.633371
 20
610.443983
 30
0.0
 11
628.633371
 21
1112.682282
 31
0.0
  0
LINE
  5
305
330
1F
100
AcDbEntity
  8
0
  6
CONTINUOUS
 62
     3
100
AcDbLine
 10
615.633371
 20
1140.443983
 30
0.0
 11
615.633371
 21
610.443983
 31
0.0
  0
LINE
  5
306
330
1F
100
AcDbEntity
  8
0
  6
CONTINUOUS
 62
     3
100
AcDbLine
 10
606.633371
 20
610.443983
 30
0.0
 11
606.633371
 21
1140.443983
 31
0.0
  0
LINE
  5
307
330
1F
100
AcDbEntity
  8
0
  6
CONTINUOUS
 62
     3
100
AcDbLine
 10
584.633371
 20
610.443983
 30
0.0
 11
784.633371
 21
610.443983
 31
0.0
  0
LINE
  5
308
330
1F
100
AcDbEntity
  8
0
  6
CENTER
 62
     6
100
AcDbLine
 10
684.633371
 20
1190.443983
 30
0.0
 11
684.633371
 21
560.443983
 31
0.0
  0
LINE
  5
309
330
1F
100
AcDbEntity
  8
0
  6
CONTINUOUS
 62
     3
100
AcDbLine
 10
834.633371
 20
584.943983
 30
0.0
 11
758.633371
 21
584.943983
 31
0.0
  0
LINE
  5
30A
330
1F
100
AcDbEntity
  8
0
  6
CONTINUOUS
 62
     3
100
AcDbLine
 10
834.633371
 20
580.443983
 30
0.0
 11
834.633371
 21
584.943983
 31
0.0
  0
LINE
  5
30B
330
1F
100
AcDbEntity
  8
0
  6
CENTER
 62
     6
100
AcDbLine
 10
809.633371
 20
594.2231
 30
0.0
 11
809.633371
 21
570.730835
 31
0.0
  0
LINE
  5
30C
330
1F
100
AcDbEntity
  8
0
  6
CONTINUOUS
 62
     3
100
AcDbLine
 10
584.633371
 20
1167.643983
 30
0.0
 11
584.633371
 21
1140.443983
 31
0.0
  0
LINE
  5
30D
330
1F
100
AcDbEntity
  8
0
  6
CONTINUOUS
 62
     3
100
AcDbLine
 10
584.633371
 20
1140.443983
 30
0.0
 11
784.633371
 21
1140.443983
 31
0.0
  0
ARC
  5
30E
330
1F
100
AcDbEntity
  8
0
  6
CONTINUOUS
 62
     3
100
AcDbCircle
 10
587.433371
 20
1167.643983
 30
0.0
 40
2.8
100
AcDbArc
 50
90.0
 51
180.0
  0
LINE
  5
30F
330
1F
100
AcDbEntity
  8
0
  6
CONTINUOUS
 62
     3
100
AcDbLine
 10
781.833371
 20
1170.443983
 30
0.0
 11
587.433371
 21
1170.443983
 31
0.0
  0
ARC
  5
310
330
1F
100
AcDbEntity
  8
0
  6
CONTINUOUS
 62
     3
100
AcDbCircle
 10
781.833371
 20
1167.643983
 30
0.0
 40
2.8
100
AcDbArc
 50
0.0
 51
90.0
  0
LINE
  5
311
330
1F
100
AcDbEntity
  8
0
  6
CONTINUOUS
 62
     3
100
AcDbLine
 10
784.633371
 20
1167.643983
 30
0.0
 11
784.633371
 21
1140.443983
 31
0.0
  0
LINE
  5
312
330
1F
100
AcDbEntity
  8
0
  6
CONTINUOUS
 62
     3
100
AcDbLine
 10
746.133371
 20
1126.143983
 30
0.0
 11
746.133371
 21
1140.443983
 31
0.0
  0
LINE
  5
313
330
1F
100
AcDbEntity
  8
0
  6
CONTINUOUS
 62
     3
100
AcDbLine
 10
752.133371
 20
1140.443983
 30
0.0
 11
752.133371
 21
1126.143983
 31
0.0
  0
LINE
  5
314
330
1F
100
AcDbEntity
  8
0
  6
CONTINUOUS
 62
     3
100
AcDbLine
 10
752.133371
 20
1126.143983
 30
0.0
 11
746.133371
 21
1126.143983
 31
0.0
  0
LINE
  5
315
330
1F
100
AcDbEntity
  8
0
  6
CENTER
 62
     6
100
AcDbLine
 10
758.966009
 20
1138.143983
 30
0.0
 11
684.633371
 21
1138.143983
 31
0.0
  0
LINE
  5
316
330
1F
100
AcDbEntity
  8
0
  6
CENTER
 62
     6
100
AcDbLine
 10
606.633371
 20
1138.143983
 30
0.0
 11
684.633371
 21
1138.143983
 31
0.0
  0
LINE
  5
317
330
1F
100
AcDbEntity
  8
0
  6
CONTINUOUS
 62
     3
100
AcDbLine
 10
617.133371
 20
1140.443983
 30
0.0
 11
617.133371
 21
1126.143983
 31
0.0
  0
LINE
  5
318
330
1F
100
AcDbEntity
  8
0
  6
CONTINUOUS
 62
     3
100
AcDbLine
 10
623.133371
 20
1126.143983
 30
0.0
 11
623.133371
 21
1140.443983
 31
0.0
  0
LINE
  5
319
330
1F
100
AcDbEntity
  8
0
  6
CONTINUOUS
 62
     3
100
AcDbLine
 10
617.133371
 20
1126.143983
 30
0.0
 11
623.133371
 21
1126.143983
 31
0.0
  0
LINE
  5
31A
330
1F
100
AcDbEntity
  8
0
  6
CENTER
 62
     6
100
AcDbLine
 10
590.906519
 20
859.047216
 30
0.0
 11
655.960155
 21
859.047216
 31
0.0
  0
LINE
  5
31B
330
1F
100
AcDbEntity
  8
0
  6
CONTINUOUS
 62
     3
100
AcDbLine
 10
615.833371
 20
845.447216
 30
0.0
 11
619.633371
 21
845.447216
 31
0.0
  0
LINE
  5
31C
330
1F
100
AcDbEntity
  8
0
  6
CONTINUOUS
 62
     3
100
AcDbLine
 10
615.833371
 20
872.647216
 30
0.0
 11
615.833371
 21
845.447216
 31
0.0
  0
LINE
  5
31D
330
1F
100
AcDbEntity
  8
0
  6
CONTINUOUS
 62
     3
100
AcDbLine
 10
619.633371
 20
872.647216
 30
0.0
 11
615.833371
 21
872.647216
 31
0.0
  0
LINE
  5
31E
330
1F
100
AcDbEntity
  8
0
  6
CONTINUOUS
 62
     3
100
AcDbLine
 10
619.633371
 20
871.547216
 30
0.0
 11
628.633371
 21
871.547216
 31
0.0
  0
LINE
  5
31F
330
1F
100
AcDbEntity
  8
0
  6
CONTINUOUS
 62
     3
100
AcDbLine
 10
652.633371
 20
865.047216
 30
0.0
 11
646.633371
 21
865.047216
 31
0.0
  0
LINE
  5
320
330
1F
100
AcDbEntity
  8
0
  6
CONTINUOUS
 62
     3
100
AcDbLine
 10
628.633371
 20
846.547216
 30
0.0
 11
619.633371
 21
846.547216
 31
0.0
  0
LINE
  5
321
330
1F
100
AcDbEntity
  8
0
  6
CONTINUOUS
 62
     3
100
AcDbLine
 10
637.633371
 20
830.073835
 30
0.0
 11
637.633371
 21
897.690778
 31
0.0
  0
LINE
  5
322
330
1F
100
AcDbEntity
  8
0
  6
CONTINUOUS
 62
     3
100
AcDbLine
 10
646.633371
 20
827.962142
 30
0.0
 11
646.633371
 21
897.690778
 31
0.0
  0
LINE
  5
323
330
1F
100
AcDbEntity
  8
0
  6
CONTINUOUS
 62
     3
100
AcDbLine
 10
652.633371
 20
853.047216
 30
0.0
 11
646.633371
 21
853.047216
 31
0.0
  0
LINE
  5
324
330
1F
100
AcDbEntity
  8
0
  6
CONTINUOUS
 62
     3
100
AcDbLine
 10
652.633371
 20
853.047216
 30
0.0
 11
652.633371
 21
865.047216
 31
0.0
  0
LINE
  5
325
330
1F
100
AcDbEntity
  8
0
  6
CONTINUOUS
 62
     3
100
AcDbLine
 10
635.633371
 20
879.937985
 30
0.0
 11
635.633371
 21
889.937985
 31
0.0
  0
LINE
  5
326
330
1F
100
AcDbEntity
  8
0
  6
CONTINUOUS
 62
     3
100
AcDbLine
 10
635.633371
 20
889.937985
 30
0.0
 11
637.633371
 21
889.937985
 31
0.0
  0
LINE
  5
327
330
1F
100
AcDbEntity
  8
0
  6
CONTINUOUS
 62
     3
100
AcDbLine
 10
648.633371
 20
889.937985
 30
0.0
 11
648.633371
 21
879.937985
 31
0.0
  0
LINE
  5
328
330
1F
100
AcDbEntity
  8
0
  6
CONTINUOUS
 62
     3
100
AcDbLine
 10
648.633371
 20
879.937985
 30
0.0
 11
646.633371
 21
879.937985
 31
0.0
  0
LINE
  5
329
330
1F
100
AcDbEntity
  8
0
  6
CONTINUOUS
 62
     3
100
AcDbLine
 10
606.633371
 20
848.547216
 30
0.0
 11
596.633371
 21
848.547216
 31
0.0
  0
LINE
  5
32A
330
1F
100
AcDbEntity
  8
0
  6
CONTINUOUS
 62
     3
100
AcDbLine
 10
595.133371
 20
853.047216
 30
0.0
 11
595.133371
 21
865.047216
 31
0.0
  0
LINE
  5
32B
330
1F
100
AcDbEntity
  8
0
  6
CONTINUOUS
 62
     3
100
AcDbLine
 10
596.633371
 20
869.547216
 30
0.0
 11
596.633371
 21
848.547216
 31
0.0
  0
LINE
  5
32C
330
1F
100
AcDbEntity
  8
0
  6
CONTINUOUS
 62
     3
100
AcDbLine
 10
603.633371
 20
869.547216
 30
0.0
 11
603.633371
 21
848.547216
 31
0.0
  0
LINE
  5
32D
330
1F
100
AcDbEntity
  8
0
  6
CONTINUOUS
 62
     3
100
AcDbLine
 10
606.633371
 20
869.547216
 30
0.0
 11
596.633371
 21
869.547216
 31
0.0
  0
LINE
  5
32E
330
1F
100
AcDbEntity
  8
0
  6
CONTINUOUS
 62
     3
100
AcDbLine
 10
595.133371
 20
853.047216
 30
0.0
 11
603.633371
 21
853.047216
 31
0.0
  0
LINE
  5
32F
330
1F
100
AcDbEntity
  8
0
  6
CONTINUOUS
 62
     3
100
AcDbLine
 10
595.133371
 20
865.047216
 30
0.0
 11
603.633371
 21
865.047216
 31
0.0
  0
LINE
  5
330
330
1F
100
AcDbEntity
  8
0
  6
CONTINUOUS
 62
     3
100
AcDbLine
 10
603.633371
 20
857.378297
 30
0.0
 11
606.633371
 21
859.761276
 31
0.0
  0
LINE
  5
331
330
1F
100
AcDbEntity
  8
0
  6
CONTINUOUS
 62
     3
100
AcDbLine
 10
603.633371
 20
858.655385
 30
0.0
 11
606.633371
 21
861.038364
 31
0.0
  0
LINE
  5
332
330
1F
100
AcDbEntity
  8
0
  6
CENTER
 62
     6
100
AcDbLine
 10
651.867059
 20
884.937985
 30
0.0
 11
633.200001
 21
884.937985
 31
0.0
  0
LINE
  5
333
330
1F
100
AcDbEntity
  8
0
  6
CONTINUOUS
 62
     3
100
AcDbLine
 10
646.633371
 20
897.690778
 30
0.0
 11
637.633371
 21
897.690778
 31
0.0
  0
LINE
  5
334
330
1F
100
AcDbEntity
  8
0
  6
CONTINUOUS
 62
     8
100
AcDbLine
 10
615.633371
 20
827.962142
 30
0.0
 11
619.633371
 21
827.962142
 31
0.0
  0
LINE
  5
335
330
1F
100
AcDbEntity
  8
0
  6
CONTINUOUS
 62
     8
100
AcDbLine
 10
615.633371
 20
822.533114
 30
0.0
 11
619.633371
 21
822.533114
 31
0.0
  0
LINE
  5
336
330
1F
100
AcDbEntity
  8
0
  6
CONTINUOUS
 62
     8
100
AcDbLine
 10
615.633371
 20
792.225423
 30
0.0
 11
619.633371
 21
792.225423
 31
0.0
  0
LINE
  5
337
330
1F
100
AcDbEntity
  8
0
  6
CONTINUOUS
 62
     3
100
AcDbLine
 10
646.633371
 20
889.937985
 30
0.0
 11
648.633371
 21
889.937985
 31
0.0
  0
LINE
  5
338
330
1F
100
AcDbEntity
  8
0
  6
CONTINUOUS
 62
     3
100
AcDbLine
 10
637.633371
 20
879.937985
 30
0.0
 11
635.633371
 21
879.937985
 31
0.0
  0
LINE
  5
339
330
1F
100
AcDbEntity
  8
0
  6
CENTER
 62
     6
100
AcDbLine
 10
600.633371
 20
597.443983
 30
0.0
 11
684.633371
 21
597.443983
 31
0.0
  0
LINE
  5
33A
330
1F
100
AcDbEntity
  8
0
  6
CENTER
 62
     6
100
AcDbLine
 10
778.196962
 20
859.047216
 30
0.0
 11
713.306587
 21
859.047216
 31
0.0
  0
LINE
  5
33B
330
1F
100
AcDbEntity
  8
0
  6
CONTINUOUS
 62
     3
100
AcDbLine
 10
753.433371
 20
845.447216
 30
0.0
 11
749.633371
 21
845.447216
 31
0.0
  0
LINE
  5
33C
330
1F
100
AcDbEntity
  8
0
  6
CONTINUOUS
 62
     8
100
AcDbLine
 10
753.433371
 20
872.647216
 30
0.0
 11
753.433371
 21
845.447216
 31
0.0
  0
LINE
  5
33D
330
1F
100
AcDbEntity
  8
0
  6
CONTINUOUS
 62
     3
100
AcDbLine
 10
749.633371
 20
872.647216
 30
0.0
 11
753.433371
 21
872.647216
 31
0.0
  0
LINE
  5
33E
330
1F
100
AcDbEntity
  8
0
  6
CONTINUOUS
 62
     3
100
AcDbLine
 10
731.833371
 20
846.547216
 30
0.0
 11
740.633371
 21
846.547216
 31
0.0
  0
LINE
  5
33F
330
1F
100
AcDbEntity
  8
0
  6
CONTINUOUS
 62
     3
100
AcDbLine
 10
716.633371
 20
865.047216
 30
0.0
 11
722.633371
 21
865.047216
 31
0.0
  0
LINE
  5
340
330
1F
100
AcDbEntity
  8
0
  6
CONTINUOUS
 62
     3
100
AcDbLine
 10
740.633371
 20
871.547216
 30
0.0
 11
731.833371
 21
871.547216
 31
0.0
  0
LINE
  5
341
330
1F
100
AcDbEntity
  8
0
  6
CONTINUOUS
 62
     3
100
AcDbLine
 10
731.833371
 20
871.547216
 30
0.0
 11
731.833371
 21
846.547216
 31
0.0
  0
LINE
  5
342
330
1F
100
AcDbEntity
  8
0
  6
CONTINUOUS
 62
     3
100
AcDbLine
 10
731.633371
 20
830.073835
 30
0.0
 11
731.633371
 21
897.690778
 31
0.0
  0
LINE
  5
343
330
1F
100
AcDbEntity
  8
0
  6
CONTINUOUS
 62
     3
100
AcDbLine
 10
722.633371
 20
827.962142
 30
0.0
 11
722.633371
 21
897.690778
 31
0.0
  0
LINE
  5
344
330
1F
100
AcDbEntity
  8
0
  6
CONTINUOUS
 62
     3
100
AcDbLine
 10
716.633371
 20
853.047216
 30
0.0
 11
722.633371
 21
853.047216
 31
0.0
  0
LINE
  5
345
330
1F
100
AcDbEntity
  8
0
  6
CONTINUOUS
 62
     3
100
AcDbLine
 10
716.633371
 20
853.047216
 30
0.0
 11
716.633371
 21
865.047216
 31
0.0
  0
LINE
  5
346
330
1F
100
AcDbEntity
  8
0
  6
CONTINUOUS
 62
     3
100
AcDbLine
 10
733.633371
 20
879.937985
 30
0.0
 11
733.633371
 21
889.937985
 31
0.0
  0
LINE
  5
347
330
1F
100
AcDbEntity
  8
0
  6
CONTINUOUS
 62
     3
100
AcDbLine
 10
733.633371
 20
889.937985
 30
0.0
 11
731.633371
 21
889.937985
 31
0.0
  0
LINE
  5
348
330
1F
100
AcDbEntity
  8
0
  6
CONTINUOUS
 62
     3
100
AcDbLine
 10
720.633371
 20
889.937985
 30
0.0
 11
720.633371
 21
879.937985
 31
0.0
  0
LINE
  5
349
330
1F
100
AcDbEntity
  8
0
  6
CONTINUOUS
 62
     3
100
AcDbLine
 10
720.633371
 20
879.937985
 30
0.0
 11
722.633371
 21
879.937985
 31
0.0
  0
LINE
  5
34A
330
1F
100
AcDbEntity
  8
0
  6
CONTINUOUS
 62
     3
100
AcDbLine
 10
762.633371
 20
848.547216
 30
0.0
 11
772.633371
 21
848.547216
 31
0.0
  0
LINE
  5
34B
330
1F
100
AcDbEntity
  8
0
  6
CONTINUOUS
 62
     3
100
AcDbLine
 10
774.133371
 20
853.047216
 30
0.0
 11
774.133371
 21
865.047216
 31
0.0
  0
LINE
  5
34C
330
1F
100
AcDbEntity
  8
0
  6
CONTINUOUS
 62
     3
100
AcDbLine
 10
772.633371
 20
869.547216
 30
0.0
 11
772.633371
 21
848.547216
 31
0.0
  0
LINE
  5
34D
330
1F
100
AcDbEntity
  8
0
  6
CONTINUOUS
 62
     3
100
AcDbLine
 10
765.633371
 20
869.547216
 30
0.0
 11
765.633371
 21
848.547216
 31
0.0
  0
LINE
  5
34E
330
1F
100
AcDbEntity
  8
0
  6
CONTINUOUS
 62
     3
100
AcDbLine
 10
762.633371
 20
869.547216
 30
0.0
 11
772.633371
 21
869.547216
 31
0.0
  0
LINE
  5
34F
330
1F
100
AcDbEntity
  8
0
  6
CONTINUOUS
 62
     3
100
AcDbLine
 10
774.133371
 20
853.047216
 30
0.0
 11
765.633371
 21
853.047216
 31
0.0
  0
LINE
  5
350
330
1F
100
AcDbEntity
  8
0
  6
CONTINUOUS
 62
     3
100
AcDbLine
 10
774.133371
 20
865.047216
 30
0.0
 11
765.633371
 21
865.047216
 31
0.0
  0
LINE
  5
351
330
1F
100
AcDbEntity
  8
0
  6
CONTINUOUS
 62
     3
100
AcDbLine
 10
765.633371
 20
860.716135
 30
0.0
 11
762.633371
 21
858.333156
 31
0.0
  0
LINE
  5
352
330
1F
100
AcDbEntity
  8
0
  6
CONTINUOUS
 62
     3
100
AcDbLine
 10
765.633371
 20
859.439047
 30
0.0
 11
762.633371
 21
857.056068
 31
0.0
  0
LINE
  5
353
330
1F
100
AcDbEntity
  8
0
  6
CENTER
 62
     6
100
AcDbLine
 10
717.883371
 20
884.937985
 30
0.0
 11
736.383371
 21
884.937985
 31
0.0
  0
LINE
  5
354
330
1F
100
AcDbEntity
  8
0
  6
CONTINUOUS
 62
     3
100
AcDbLine
 10
722.633371
 20
897.690778
 30
0.0
 11
731.633371
 21
897.690778
 31
0.0
  0
LINE
  5
355
330
1F
100
AcDbEntity
  8
0
  6
CONTINUOUS
 62
     3
100
AcDbLine
 10
753.633371
 20
827.962142
 30
0.0
 11
749.633371
 21
827.962142
 31
0.0
  0
LINE
  5
356
330
1F
100
AcDbEntity
  8
0
  6
CONTINUOUS
 62
     3
100
AcDbLine
 10
753.633371
 20
822.533114
 30
0.0
 11
749.633371
 21
822.533114
 31
0.0
  0
LINE
  5
357
330
1F
100
AcDbEntity
  8
0
  6
CONTINUOUS
 62
     3
100
AcDbLine
 10
753.633371
 20
792.225423
 30
0.0
 11
749.633371
 21
792.225423
 31
0.0
  0
LINE
  5
358
330
1F
100
AcDbEntity
  8
0
  6
CONTINUOUS
 62
     3
100
AcDbLine
 10
722.633371
 20
889.937985
 30
0.0
 11
720.633371
 21
889.937985
 31
0.0
  0
LINE
  5
359
330
1F
100
AcDbEntity
  8
0
  6
CONTINUOUS
 62
     3
100
AcDbLine
 10
731.633371
 20
879.937985
 30
0.0
 11
733.633371
 21
879.937985
 31
0.0
  0
LINE
  5
35A
330
1F
100
AcDbEntity
  8
0
  6
CONTINUOUS
 62
     3
100
AcDbLine
 10
762.633371
 20
610.443983
 30
0.0
 11
762.633371
 21
1140.443983
 31
0.0
  0
LINE
  5
35B
330
1F
100
AcDbEntity
  8
0
  6
CONTINUOUS
 62
     3
100
AcDbLine
 10
753.633371
 20
1140.443983
 30
0.0
 11
753.633371
 21
610.443983
 31
0.0
  0
LINE
  5
35C
330
1F
100
AcDbEntity
  8
0
  6
CONTINUOUS
 62
     3
100
AcDbLine
 10
749.633371
 20
610.443983
 30
0.0
 11
749.633371
 21
1112.682282
 31
0.0
  0
LINE
  5
35D
330
1F
100
AcDbEntity
  8
0
  6
CONTINUOUS
 62
     3
100
AcDbLine
 10
740.633371
 20
610.443983
 30
0.0
 11
740.633371
 21
1112.682282
 31
0.0
  0
LINE
  5
35E
330
1F
100
AcDbEntity
  8
0
  6
CONTINUOUS
 62
     3
100
AcDbLine
 10
610.633371
 20
586.943983
 30
0.0
 11
600.633371
 21
586.943983
 31
0.0
  0
LINE
  5
35F
330
1F
100
AcDbEntity
  8
0
  6
CONTINUOUS
 62
     3
100
AcDbLine
 10
607.633371
 20
586.943983
 30
0.0
 11
607.633371
 21
607.943983
 31
0.0
  0
LINE
  5
360
330
1F
100
AcDbEntity
  8
0
  6
CONTINUOUS
 62
     3
100
AcDbLine
 10
600.633371
 20
586.943983
 30
0.0
 11
600.633371
 21
607.943983
 31
0.0
  0
LINE
  5
361
330
1F
100
AcDbEntity
  8
0
  6
CONTINUOUS
 62
     3
100
AcDbLine
 10
610.633371
 20
607.943983
 30
0.0
 11
600.633371
 21
607.943983
 31
0.0
  0
LINE
  5
362
330
1F
100
AcDbEntity
  8
0
  6
CONTINUOUS
 62
     3
100
AcDbLine
 10
607.633371
 20
595.775064
 30
0.0
 11
610.633371
 21
598.158043
 31
0.0
  0
LINE
  5
363
330
1F
100
AcDbEntity
  8
0
  6
CONTINUOUS
 62
     3
100
AcDbLine
 10
607.633371
 20
597.052152
 30
0.0
 11
610.633371
 21
599.435131
 31
0.0
  0
LINE
  5
364
330
1F
100
AcDbEntity
  8
0
  6
CONTINUOUS
 62
     3
100
AcDbLine
 10
600.633371
 20
591.443983
 30
0.0
 11
607.633371
 21
591.443983
 31
0.0
  0
LINE
  5
365
330
1F
100
AcDbEntity
  8
0
  6
CONTINUOUS
 62
     3
100
AcDbLine
 10
600.633371
 20
603.443983
 30
0.0
 11
607.633371
 21
603.443983
 31
0.0
  0
LINE
  5
366
330
1F
100
AcDbEntity
  8
0
  6
CONTINUOUS
 62
     3
100
AcDbLine
 10
633.133371
 20
1127.643983
 30
0.0
 11
633.133371
 21
1140.443983
 31
0.0
  0
LINE
  5
367
330
1F
100
AcDbEntity
  8
0
  6
CONTINUOUS
 62
     3
100
AcDbLine
 10
626.133371
 20
1127.643983
 30
0.0
 11
626.133371
 21
1140.443983
 31
0.0
  0
LINE
  5
368
330
1F
100
AcDbEntity
  8
0
  6
CONTINUOUS
 62
     3
100
AcDbLine
 10
623.133371
 20
1127.643983
 30
0.0
 11
633.133371
 21
1127.643983
 31
0.0
  0
LINE
  5
369
330
1F
100
AcDbEntity
  8
0
  6
CONTINUOUS
 62
     3
100
AcDbLine
 10
626.133371
 20
1139.812902
 30
0.0
 11
623.133371
 21
1137.429923
 31
0.0
  0
LINE
  5
36A
330
1F
100
AcDbEntity
  8
0
  6
CONTINUOUS
 62
     3
100
AcDbLine
 10
626.133371
 20
1138.535814
 30
0.0
 11
623.133371
 21
1136.152835
 31
0.0
  0
LINE
  5
36B
330
1F
100
AcDbEntity
  8
0
  6
CONTINUOUS
 62
     3
100
AcDbLine
 10
633.133371
 20
1132.143983
 30
0.0
 11
626.133371
 21
1132.143983
 31
0.0
  0
LINE
  5
36C
330
1F
100
AcDbEntity
  8
0
  6
CONTINUOUS
 62
     3
100
AcDbLine
 10
615.633371
 20
1112.682282
 30
0.0
 11
753.633371
 21
1112.682282
 31
0.0
  0
LINE
  5
36D
330
1F
100
AcDbEntity
  8
0
  6
CONTINUOUS
 62
     3
100
AcDbLine
 10
633.133371
 20
1130.228841
 30
0.0
 11
736.133371
 21
1130.228841
 31
0.0
  0
LINE
  5
36E
330
1F
100
AcDbEntity
  8
0
  6
CONTINUOUS
 62
     3
100
AcDbLine
 10
633.133371
 20
1133.848192
 30
0.0
 11
736.133371
 21
1133.848192
 31
0.0
  0
LINE
  5
36F
330
1F
100
AcDbEntity
  8
0
  6
CONTINUOUS
 62
     3
100
AcDbLine
 10
736.133371
 20
1127.643983
 30
0.0
 11
736.133371
 21
1140.443983
 31
0.0
  0
LINE
  5
370
330
1F
100
AcDbEntity
  8
0
  6
CONTINUOUS
 62
     3
100
AcDbLine
 10
743.133371
 20
1127.643983
 30
0.0
 11
743.133371
 21
1140.443983
 31
0.0
  0
LINE
  5
371
330
1F
100
AcDbEntity
  8
0
  6
CONTINUOUS
 62
     3
100
AcDbLine
 10
746.133371
 20
1127.643983
 30
0.0
 11
736.133371
 21
1127.643983
 31
0.0
  0
LINE
  5
372
330
1F
100
AcDbEntity
  8
0
  6
CONTINUOUS
 62
     3
100
AcDbLine
 10
743.133371
 20
1136.475064
 30
0.0
 11
746.133371
 21
1138.858043
 31
0.0
  0
LINE
  5
373
330
1F
100
AcDbEntity
  8
0
  6
CONTINUOUS
 62
     3
100
AcDbLine
 10
743.133371
 20
1137.752152
 30
0.0
 11
746.133371
 21
1140.135131
 31
0.0
  0
LINE
  5
374
330
1F
100
AcDbEntity
  8
0
  6
CONTINUOUS
 62
     3
100
AcDbLine
 10
736.133371
 20
1132.143983
 30
0.0
 11
743.133371
 21
1132.143983
 31
0.0
  0
LINE
  5
375
330
1F
100
AcDbEntity
  8
0
  6
CONTINUOUS
 62
     3
100
AcDbLine
 10
784.633371
 20
584.943983
 30
0.0
 11
784.633371
 21
610.443983
 31
0.0
  0
LINE
  5
376
330
1F
100
AcDbEntity
  8
0
  6
DASHED
 62
     3
100
AcDbLine
 10
784.633371
 20
584.943983
 30
0.0
 11
784.633371
 21
580.443983
 31
0.0
  0
LINE
  5
377
330
1F
100
AcDbEntity
  8
0
  6
CONTINUOUS
 62
     3
100
AcDbLine
 10
758.633371
 20
580.443983
 30
0.0
 11
758.633371
 21
610.443983
 31
0.0
  0
LINE
  5
378
330
1F
100
AcDbEntity
  8
0
  6
CONTINUOUS
 62
     3
100
AcDbLine
 10
752.633371
 20
580.443983
 30
0.0
 11
752.633371
 21
610.443983
 31
0.0
  0
LINE
  5
379
330
1F
100
AcDbEntity
  8
0
  6
CONTINUOUS
 62
     3
100
AcDbLine
 10
758.633371
 20
586.943983
 30
0.0
 11
768.633371
 21
586.943983
 31
0.0
  0
LINE
  5
37A
330
1F
100
AcDbEntity
  8
0
  6
CONTINUOUS
 62
     3
100
AcDbLine
 10
761.633371
 20
586.943983
 30
0.0
 11
761.633371
 21
607.943983
 31
0.0
  0
LINE
  5
37B
330
1F
100
AcDbEntity
  8
0
  6
CONTINUOUS
 62
     3
100
AcDbLine
 10
768.633371
 20
586.943983
 30
0.0
 11
768.633371
 21
607.943983
 31
0.0
  0
LINE
  5
37C
330
1F
100
AcDbEntity
  8
0
  6
CONTINUOUS
 62
     3
100
AcDbLine
 10
758.633371
 20
607.943983
 30
0.0
 11
768.633371
 21
607.943983
 31
0.0
  0
LINE
  5
37D
330
1F
100
AcDbEntity
  8
0
  6
CONTINUOUS
 62
     3
100
AcDbLine
 10
761.633371
 20
599.112902
 30
0.0
 11
758.633371
 21
596.729923
 31
0.0
  0
LINE
  5
37E
330
1F
100
AcDbEntity
  8
0
  6
CONTINUOUS
 62
     3
100
AcDbLine
 10
761.633371
 20
597.835814
 30
0.0
 11
758.633371
 21
595.452835
 31
0.0
  0
LINE
  5
37F
330
1F
100
AcDbEntity
  8
0
  6
CONTINUOUS
 62
     3
100
AcDbLine
 10
768.633371
 20
591.443983
 30
0.0
 11
761.633371
 21
591.443983
 31
0.0
  0
LINE
  5
380
330
1F
100
AcDbEntity
  8
0
  6
CONTINUOUS
 62
     3
100
AcDbLine
 10
768.633371
 20
603.443983
 30
0.0
 11
761.633371
 21
603.443983
 31
0.0
  0
LINE
  5
381
330
1F
100
AcDbEntity
  8
0
  6
CENTER
 62
     6
100
AcDbLine
 10
768.633371
 20
597.443983
 30
0.0
 11
684.633371
 21
597.443983
 31
0.0
  0
LINE
  5
382
330
1F
100
AcDbEntity
  8
0
  6
CENTER
 62
     6
100
AcDbLine
 10
619.633371
 20
799.846494
 30
0.0
 11
749.633371
 21
799.846494
 31
0.0
  0
LINE
  5
383
330
1F
100
AcDbEntity
  8
0
  6
CONTINUOUS
 62
     3
100
AcDbLine
 10
716.133371
 20
656.583673
 30
0.0
 11
716.013504
 21
657.956376
 31
0.0
  0
LINE
  5
384
330
1F
100
AcDbEntity
  8
0
  6
CONTINUOUS
 62
     3
100
AcDbLine
 10
716.013504
 20
657.956376
 30
0.0
 11
715.654815
 21
659.318631
 31
0.0
  0
LINE
  5
385
330
1F
100
AcDbEntity
  8
0
  6
CONTINUOUS
 62
     3
100
AcDbLine
 10
715.654815
 20
659.318631
 30
0.0
 11
715.060035
 21
660.660073
 31
0.0
  0
LINE
  5
386
330
1F
100
AcDbEntity
  8
0
  6
CONTINUOUS
 62
     3
100
AcDbLine
 10
715.060035
 20
660.660073
 30
0.0
 11
714.233689
 21
661.97049
 31
0.0
  0
LINE
  5
387
330
1F
100
AcDbEntity
  8
0
  6
CONTINUOUS
 62
     3
100
AcDbLine
 10
714.233689
 20
661.97049
 30
0.0
 11
713.182066
 21
663.23991
 31
0.0
  0
LINE
  5
388
330
1F
100
AcDbEntity
  8
0
  6
CONTINUOUS
 62
     3
100
AcDbLine
 10
713.182066
 20
663.23991
 30
0.0
 11
711.913171
 21
664.458673
 31
0.0
  0
LINE
  5
389
330
1F
100
AcDbEntity
  8
0
  6
CONTINUOUS
 62
     3
100
AcDbLine
 10
711.913171
 20
664.458673
 30
0.0
 11
710.43666
 21
665.617501
 31
0.0
  0
LINE
  5
38A
330
1F
100
AcDbEntity
  8
0
  6
CONTINUOUS
 62
     3
100
AcDbLine
 10
710.43666
 20
665.617501
 30
0.0
 11
708.763771
 21
666.707577
 31
0.0
  0
LINE
  5
38B
330
1F
100
AcDbEntity
  8
0
  6
CONTINUOUS
 62
     3
100
AcDbLine
 10
708.763771
 20
666.707577
 30
0.0
 11
706.907235
 21
667.720604
 31
0.0
  0
LINE
  5
38C
330
1F
100
AcDbEntity
  8
0
  6
CONTINUOUS
 62
     3
100
AcDbLine
 10
706.907235
 20
667.720604
 30
0.0
 11
704.881181
 21
668.648873
 31
0.0
  0
LINE
  5
38D
330
1F
100
AcDbEntity
  8
0
  6
CONTINUOUS
 62
     3
100
AcDbLine
 10
704.881181
 20
668.648873
 30
0.0
 11
702.701029
 21
669.485317
 31
0.0
  0
LINE
  5
38E
330
1F
100
AcDbEntity
  8
0
  6
CONTINUOUS
 62
     3
100
AcDbLine
 10
702.701029
 20
669.485317
 30
0.0
 11
700.383371
 21
670.223573
 31
0.0
  0
LINE
  5
38F
330
1F
100
AcDbEntity
  8
0
  6
CONTINUOUS
 62
     3
100
AcDbLine
 10
700.383371
 20
670.223573
 30
0.0
 11
697.945846
 21
670.85802
 31
0.0
  0
LINE
  5
390
330
1F
100
AcDbEntity
  8
0
  6
CONTINUOUS
 62
     3
100
AcDbLine
 10
697.945846
 20
670.85802
 30
0.0
 11
695.407006
 21
671.383831
 31
0.0
  0
LINE
  5
391
330
1F
100
AcDbEntity
  8
0
  6
CONTINUOUS
 62
     3
100
AcDbLine
 10
695.407006
 20
671.383831
 30
0.0
 11
692.786171
 21
671.797004
 31
0.0
  0
LINE
  5
392
330
1F
100
AcDbEntity
  8
0
  6
CONTINUOUS
 62
     3
100
AcDbLine
 10
692.786171
 20
671.797004
 30
0.0
 11
690.103289
 21
672.094395
 31
0.0
  0
LINE
  5
393
330
1F
100
AcDbEntity
  8
0
  6
CONTINUOUS
 62
     3
100
AcDbLine
 10
690.103289
 20
672.094395
 30
0.0
 11
687.378777
 21
672.273739
 31
0.0
  0
LINE
  5
394
330
1F
100
AcDbEntity
  8
0
  6
CONTINUOUS
 62
     3
100
AcDbLine
 10
687.378777
 20
672.273739
 30
0.0
 11
684.633371
 21
672.333673
 31
0.0
  0
LINE
  5
395
330
1F
100
AcDbEntity
  8
0
  6
CONTINUOUS
 62
     3
100
AcDbLine
 10
684.633371
 20
672.333673
 30
0.0
 11
681.887965
 21
672.273739
 31
0.0
  0
LINE
  5
396
330
1F
100
AcDbEntity
  8
0
  6
CONTINUOUS
 62
     3
100
AcDbLine
 10
681.887965
 20
672.273739
 30
0.0
 11
679.163453
 21
672.094395
 31
0.0
  0
LINE
  5
397
330
1F
100
AcDbEntity
  8
0
  6
CONTINUOUS
 62
     3
100
AcDbLine
 10
679.163453
 20
672.094395
 30
0.0
 11
676.480571
 21
671.797004
 31
0.0
  0
LINE
  5
398
330
1F
100
AcDbEntity
  8
0
  6
CONTINUOUS
 62
     3
100
AcDbLine
 10
676.480571
 20
671.797004
 30
0.0
 11
673.859737
 21
671.383831
 31
0.0
  0
LINE
  5
399
330
1F
100
AcDbEntity
  8
0
  6
CONTINUOUS
 62
     3
100
AcDbLine
 10
673.859737
 20
671.383831
 30
0.0
 11
671.320896
 21
670.85802
 31
0.0
  0
LINE
  5
39A
330
1F
100
AcDbEntity
  8
0
  6
CONTINUOUS
 62
     3
100
AcDbLine
 10
671.320896
 20
670.85802
 30
0.0
 11
668.883371
 21
670.223573
 31
0.0
  0
LINE
  5
39B
330
1F
100
AcDbEntity
  8
0
  6
CONTINUOUS
 62
     3
100
AcDbLine
 10
668.883371
 20
670.223573
 30
0.0
 11
666.565713
 21
669.485317
 31
0.0
  0
LINE
  5
39C
330
1F
100
AcDbEntity
  8
0
  6
CONTINUOUS
 62
     3
100
AcDbLine
 10
666.565713
 20
669.485317
 30
0.0
 11
664.385561
 21
668.648873
 31
0.0
  0
LINE
  5
39D
330
1F
100
AcDbEntity
  8
0
  6
CONTINUOUS
 62
     3
100
AcDbLine
 10
664.385561
 20
668.648873
 30
0.0
 11
662.359507
 21
667.720604
 31
0.0
  0
LINE
  5
39E
330
1F
100
AcDbEntity
  8
0
  6
CONTINUOUS
 62
     3
100
AcDbLine
 10
662.359507
 20
667.720604
 30
0.0
 11
660.502971
 21
666.707577
 31
0.0
  0
LINE
  5
39F
330
1F
100
AcDbEntity
  8
0
  6
CONTINUOUS
 62
     3
100
AcDbLine
 10
660.502971
 20
666.707577
 30
0.0
 11
658.830082
 21
665.617501
 31
0.0
  0
LINE
  5
3A0
330
1F
100
AcDbEntity
  8
0
  6
CONTINUOUS
 62
     3
100
AcDbLine
 10
658.830082
 20
665.617501
 30
0.0
 11
657.353571
 21
664.458673
 31
0.0
  0
LINE
  5
3A1
330
1F
100
AcDbEntity
  8
0
  6
CONTINUOUS
 62
     3
100
AcDbLine
 10
657.353571
 20
664.458673
 30
0.0
 11
656.084676
 21
663.23991
 31
0.0
  0
LINE
  5
3A2
330
1F
100
AcDbEntity
  8
0
  6
CONTINUOUS
 62
     3
100
AcDbLine
 10
656.084676
 20
663.23991
 30
0.0
 11
655.033054
 21
661.97049
 31
0.0
  0
LINE
  5
3A3
330
1F
100
AcDbEntity
  8
0
  6
CONTINUOUS
 62
     3
100
AcDbLine
 10
655.033054
 20
661.97049
 30
0.0
 11
654.206708
 21
660.660073
 31
0.0
  0
LINE
  5
3A4
330
1F
100
AcDbEntity
  8
0
  6
CONTINUOUS
 62
     3
100
AcDbLine
 10
654.206708
 20
660.660073
 30
0.0
 11
653.611927
 21
659.318631
 31
0.0
  0
LINE
  5
3A5
330
1F
100
AcDbEntity
  8
0
  6
CONTINUOUS
 62
     3
100
AcDbLine
 10
653.611927
 20
659.318631
 30
0.0
 11
653.253238
 21
657.956376
 31
0.0
  0
LINE
  5
3A6
330
1F
100
AcDbEntity
  8
0
  6
CONTINUOUS
 62
     3
100
AcDbLine
 10
653.253238
 20
657.956376
 30
0.0
 11
653.133371
 21
656.583673
 31
0.0
  0
LINE
  5
3A7
330
1F
100
AcDbEntity
  8
0
  6
CONTINUOUS
 62
     3
100
AcDbLine
 10
653.133371
 20
656.583673
 30
0.0
 11
653.253238
 21
655.21097
 31
0.0
  0
LINE
  5
3A8
330
1F
100
AcDbEntity
  8
0
  6
CONTINUOUS
 62
     3
100
AcDbLine
 10
653.253238
 20
655.21097
 30
0.0
 11
653.611927
 21
653.848714
 31
0.0
  0
LINE
  5
3A9
330
1F
100
AcDbEntity
  8
0
  6
CONTINUOUS
 62
     3
100
AcDbLine
 10
653.611927
 20
653.848714
 30
0.0
 11
654.206708
 21
652.507273
 31
0.0
  0
LINE
  5
3AA
330
1F
100
AcDbEntity
  8
0
  6
CONTINUOUS
 62
     3
100
AcDbLine
 10
654.206708
 20
652.507273
 30
0.0
 11
655.033054
 21
651.196855
 31
0.0
  0
LINE
  5
3AB
330
1F
100
AcDbEntity
  8
0
  6
CONTINUOUS
 62
     3
100
AcDbLine
 10
655.033054
 20
651.196855
 30
0.0
 11
656.084676
 21
649.927435
 31
0.0
  0
LINE
  5
3AC
330
1F
100
AcDbEntity
  8
0
  6
CONTINUOUS
 62
     3
100
AcDbLine
 10
656.084676
 20
649.927435
 30
0.0
 11
657.353571
 21
648.708673
 31
0.0
  0
LINE
  5
3AD
330
1F
100
AcDbEntity
  8
0
  6
CONTINUOUS
 62
     3
100
AcDbLine
 10
657.353571
 20
648.708673
 30
0.0
 11
658.830082
 21
647.549844
 31
0.0
  0
LINE
  5
3AE
330
1F
100
AcDbEntity
  8
0
  6
CONTINUOUS
 62
     3
100
AcDbLine
 10
658.830082
 20
647.549844
 30
0.0
 11
660.502971
 21
646.459768
 31
0.0
  0
LINE
  5
3AF
330
1F
100
AcDbEntity
  8
0
  6
CONTINUOUS
 62
     3
100
AcDbLine
 10
660.502971
 20
646.459768
 30
0.0
 11
662.359507
 21
645.446741
 31
0.0
  0
LINE
  5
3B0
330
1F
100
AcDbEntity
  8
0
  6
CONTINUOUS
 62
     3
100
AcDbLine
 10
706.907235
 20
645.446741
 30
0.0
 11
708.763771
 21
646.459768
 31
0.0
  0
LINE
  5
3B1
330
1F
100
AcDbEntity
  8
0
  6
CONTINUOUS
 62
     3
100
AcDbLine
 10
708.763771
 20
646.459768
 30
0.0
 11
710.43666
 21
647.549844
 31
0.0
  0
LINE
  5
3B2
330
1F
100
AcDbEntity
  8
0
  6
CONTINUOUS
 62
     3
100
AcDbLine
 10
710.43666
 20
647.549844
 30
0.0
 11
711.913171
 21
648.708673
 31
0.0
  0
LINE
  5
3B3
330
1F
100
AcDbEntity
  8
0
  6
CONTINUOUS
 62
     3
100
AcDbLine
 10
711.913171
 20
648.708673
 30
0.0
 11
713.182066
 21
649.927435
 31
0.0
  0
LINE
  5
3B4
330
1F
100
AcDbEntity
  8
0
  6
CONTINUOUS
 62
     3
100
AcDbLine
 10
713.182066
 20
649.927435
 30
0.0
 11
714.233689
 21
651.196855
 31
0.0
  0
LINE
  5
3B5
330
1F
100
AcDbEntity
  8
0
  6
CONTINUOUS
 62
     3
100
AcDbLine
 10
714.233689
 20
651.196855
 30
0.0
 11
715.060035
 21
652.507273
 31
0.0
  0
LINE
  5
3B6
330
1F
100
AcDbEntity
  8
0
  6
CONTINUOUS
 62
     3
100
AcDbLine
 10
715.060035
 20
652.507273
 30
0.0
 11
715.654815
 21
653.848714
 31
0.0
  0
LINE
  5
3B7
330
1F
100
AcDbEntity
  8
0
  6
CONTINUOUS
 62
     3
100
AcDbLine
 10
715.654815
 20
653.848714
 30
0.0
 11
716.013504
 21
655.21097
 31
0.0
  0
LINE
  5
3B8
330
1F
100
AcDbEntity
  8
0
  6
CONTINUOUS
 62
     3
100
AcDbLine
 10
716.013504
 20
655.21097
 30
0.0
 11
716.133371
 21
656.583673
 31
0.0
  0
LINE
  5
3B9
330
1F
100
AcDbEntity
  8
0
  6
CONTINUOUS
 62
     3
100
AcDbLine
 10
716.133371
 20
683.581522
 30
0.0
 11
716.013504
 21
684.954225
 31
0.0
  0
LINE
  5
3BA
330
1F
100
AcDbEntity
  8
0
  6
CONTINUOUS
 62
     3
100
AcDbLine
 10
716.013504
 20
684.954225
 30
0.0
 11
715.654815
 21
686.316481
 31
0.0
  0
LINE
  5
3BB
330
1F
100
AcDbEntity
  8
0
  6
CONTINUOUS
 62
     3
100
AcDbLine
 10
715.654815
 20
686.316481
 30
0.0
 11
715.060035
 21
687.657922
 31
0.0
  0
LINE
  5
3BC
330
1F
100
AcDbEntity
  8
0
  6
CONTINUOUS
 62
     3
100
AcDbLine
 10
715.060035
 20
687.657922
 30
0.0
 11
714.233689
 21
688.96834
 31
0.0
  0
LINE
  5
3BD
330
1F
100
AcDbEntity
  8
0
  6
CONTINUOUS
 62
     3
100
AcDbLine
 10
714.233689
 20
688.96834
 30
0.0
 11
713.182066
 21
690.23776
 31
0.0
  0
LINE
  5
3BE
330
1F
100
AcDbEntity
  8
0
  6
CONTINUOUS
 62
     3
100
AcDbLine
 10
713.182066
 20
690.23776
 30
0.0
 11
711.913171
 21
691.456522
 31
0.0
  0
LINE
  5
3BF
330
1F
100
AcDbEntity
  8
0
  6
CONTINUOUS
 62
     3
100
AcDbLine
 10
711.913171
 20
691.456522
 30
0.0
 11
710.43666
 21
692.615351
 31
0.0
  0
LINE
  5
3C0
330
1F
100
AcDbEntity
  8
0
  6
CONTINUOUS
 62
     3
100
AcDbLine
 10
710.43666
 20
692.615351
 30
0.0
 11
708.763771
 21
693.705427
 31
0.0
  0
LINE
  5
3C1
330
1F
100
AcDbEntity
  8
0
  6
CONTINUOUS
 62
     3
100
AcDbLine
 10
708.763771
 20
693.705427
 30
0.0
 11
706.907235
 21
694.718454
 31
0.0
  0
LINE
  5
3C2
330
1F
100
AcDbEntity
  8
0
  6
CONTINUOUS
 62
     3
100
AcDbLine
 10
706.907235
 20
694.718454
 30
0.0
 11
704.881181
 21
695.646722
 31
0.0
  0
LINE
  5
3C3
330
1F
100
AcDbEntity
  8
0
  6
CONTINUOUS
 62
     3
100
AcDbLine
 10
704.881181
 20
695.646722
 30
0.0
 11
702.701029
 21
696.483167
 31
0.0
  0
LINE
  5
3C4
330
1F
100
AcDbEntity
  8
0
  6
CONTINUOUS
 62
     3
100
AcDbLine
 10
702.701029
 20
696.483167
 30
0.0
 11
700.383371
 21
697.221423
 31
0.0
  0
LINE
  5
3C5
330
1F
100
AcDbEntity
  8
0
  6
CONTINUOUS
 62
     3
100
AcDbLine
 10
700.383371
 20
697.221423
 30
0.0
 11
697.945846
 21
697.85587
 31
0.0
  0
LINE
  5
3C6
330
1F
100
AcDbEntity
  8
0
  6
CONTINUOUS
 62
     3
100
AcDbLine
 10
697.945846
 20
697.85587
 30
0.0
 11
695.407006
 21
698.381681
 31
0.0
  0
LINE
  5
3C7
330
1F
100
AcDbEntity
  8
0
  6
CONTINUOUS
 62
     3
100
AcDbLine
 10
695.407006
 20
698.381681
 30
0.0
 11
692.786171
 21
698.794854
 31
0.0
  0
LINE
  5
3C8
330
1F
100
AcDbEntity
  8
0
  6
CONTINUOUS
 62
     3
100
AcDbLine
 10
692.786171
 20
698.794854
 30
0.0
 11
690.103289
 21
699.092245
 31
0.0
  0
LINE
  5
3C9
330
1F
100
AcDbEntity
  8
0
  6
CONTINUOUS
 62
     3
100
AcDbLine
 10
690.103289
 20
699.092245
 30
0.0
 11
687.378777
 21
699.271589
 31
0.0
  0
LINE
  5
3CA
330
1F
100
AcDbEntity
  8
0
  6
CONTINUOUS
 62
     3
100
AcDbLine
 10
687.378777
 20
699.271589
 30
0.0
 11
684.633371
 21
699.331522
 31
0.0
  0
LINE
  5
3CB
330
1F
100
AcDbEntity
  8
0
  6
CONTINUOUS
 62
     3
100
AcDbLine
 10
684.633371
 20
699.331522
 30
0.0
 11
681.887965
 21
699.271589
 31
0.0
  0
LINE
  5
3CC
330
1F
100
AcDbEntity
  8
0
  6
CONTINUOUS
 62
     3
100
AcDbLine
 10
681.887965
 20
699.271589
 30
0.0
 11
679.163453
 21
699.092245
 31
0.0
  0
LINE
  5
3CD
330
1F
100
AcDbEntity
  8
0
  6
CONTINUOUS
 62
     3
100
AcDbLine
 10
679.163453
 20
699.092245
 30
0.0
 11
676.480571
 21
698.794854
 31
0.0
  0
LINE
  5
3CE
330
1F
100
AcDbEntity
  8
0
  6
CONTINUOUS
 62
     3
100
AcDbLine
 10
676.480571
 20
698.794854
 30
0.0
 11
673.859737
 21
698.381681
 31
0.0
  0
LINE
  5
3CF
330
1F
100
AcDbEntity
  8
0
  6
CONTINUOUS
 62
     3
100
AcDbLine
 10
673.859737
 20
698.381681
 30
0.0
 11
671.320896
 21
697.85587
 31
0.0
  0
LINE
  5
3D0
330
1F
100
AcDbEntity
  8
0
  6
CONTINUOUS
 62
     3
100
AcDbLine
 10
671.320896
 20
697.85587
 30
0.0
 11
668.883371
 21
697.221423
 31
0.0
  0
LINE
  5
3D1
330
1F
100
AcDbEntity
  8
0
  6
CONTINUOUS
 62
     3
100
AcDbLine
 10
668.883371
 20
697.221423
 30
0.0
 11
666.565713
 21
696.483167
 31
0.0
  0
LINE
  5
3D2
330
1F
100
AcDbEntity
  8
0
  6
CONTINUOUS
 62
     3
100
AcDbLine
 10
666.565713
 20
696.483167
 30
0.0
 11
664.385561
 21
695.646722
 31
0.0
  0
LINE
  5
3D3
330
1F
100
AcDbEntity
  8
0
  6
CONTINUOUS
 62
     3
100
AcDbLine
 10
664.385561
 20
695.646722
 30
0.0
 11
662.359507
 21
694.718454
 31
0.0
  0
LINE
  5
3D4
330
1F
100
AcDbEntity
  8
0
  6
CONTINUOUS
 62
     3
100
AcDbLine
 10
662.359507
 20
694.718454
 30
0.0
 11
660.502971
 21
693.705427
 31
0.0
  0
LINE
  5
3D5
330
1F
100
AcDbEntity
  8
0
  6
CONTINUOUS
 62
     3
100
AcDbLine
 10
660.502971
 20
693.705427
 30
0.0
 11
658.830082
 21
692.615351
 31
0.0
  0
LINE
  5
3D6
330
1F
100
AcDbEntity
  8
0
  6
CONTINUOUS
 62
     3
100
AcDbLine
 10
658.830082
 20
692.615351
 30
0.0
 11
657.353571
 21
691.456522
 31
0.0
  0
LINE
  5
3D7
330
1F
100
AcDbEntity
  8
0
  6
CONTINUOUS
 62
     3
100
AcDbLine
 10
657.353571
 20
691.456522
 30
0.0
 11
656.084676
 21
690.23776
 31
0.0
  0
LINE
  5
3D8
330
1F
100
AcDbEntity
  8
0
  6
CONTINUOUS
 62
     3
100
AcDbLine
 10
656.084676
 20
690.23776
 30
0.0
 11
655.033054
 21
688.96834
 31
0.0
  0
LINE
  5
3D9
330
1F
100
AcDbEntity
  8
0
  6
CONTINUOUS
 62
     3
100
AcDbLine
 10
655.033054
 20
688.96834
 30
0.0
 11
654.206708
 21
687.657922
 31
0.0
  0
LINE
  5
3DA
330
1F
100
AcDbEntity
  8
0
  6
CONTINUOUS
 62
     3
100
AcDbLine
 10
654.206708
 20
687.657922
 30
0.0
 11
653.611927
 21
686.316481
 31
0.0
  0
LINE
  5
3DB
330
1F
100
AcDbEntity
  8
0
  6
CONTINUOUS
 62
     3
100
AcDbLine
 10
653.611927
 20
686.316481
 30
0.0
 11
653.253238
 21
684.954225
 31
0.0
  0
LINE
  5
3DC
330
1F
100
AcDbEntity
  8
0
  6
CONTINUOUS
 62
     3
100
AcDbLine
 10
653.253238
 20
684.954225
 30
0.0
 11
653.133371
 21
683.581522
 31
0.0
  0
LINE
  5
3DD
330
1F
100
AcDbEntity
  8
0
  6
CONTINUOUS
 62
     3
100
AcDbLine
 10
716.133371
 20
723.642861
 30
0.0
 11
716.013504
 21
725.015564
 31
0.0
  0
LINE
  5
3DE
330
1F
100
AcDbEntity
  8
0
  6
CONTINUOUS
 62
     3
100
AcDbLine
 10
716.013504
 20
725.015564
 30
0.0
 11
715.654815
 21
726.37782
 31
0.0
  0
LINE
  5
3DF
330
1F
100
AcDbEntity
  8
0
  6
CONTINUOUS
 62
     3
100
AcDbLine
 10
715.654815
 20
726.37782
 30
0.0
 11
715.060035
 21
727.719261
 31
0.0
  0
LINE
  5
3E0
330
1F
100
AcDbEntity
  8
0
  6
CONTINUOUS
 62
     3
100
AcDbLine
 10
715.060035
 20
727.719261
 30
0.0
 11
714.233689
 21
729.029678
 31
0.0
  0
LINE
  5
3E1
330
1F
100
AcDbEntity
  8
0
  6
CONTINUOUS
 62
     3
100
AcDbLine
 10
714.233689
 20
729.029678
 30
0.0
 11
713.182066
 21
730.299099
 31
0.0
  0
LINE
  5
3E2
330
1F
100
AcDbEntity
  8
0
  6
CONTINUOUS
 62
     3
100
AcDbLine
 10
713.182066
 20
730.299099
 30
0.0
 11
711.913171
 21
731.517861
 31
0.0
  0
LINE
  5
3E3
330
1F
100
AcDbEntity
  8
0
  6
CONTINUOUS
 62
     3
100
AcDbLine
 10
711.913171
 20
731.517861
 30
0.0
 11
710.43666
 21
732.67669
 31
0.0
  0
LINE
  5
3E4
330
1F
100
AcDbEntity
  8
0
  6
CONTINUOUS
 62
     3
100
AcDbLine
 10
710.43666
 20
732.67669
 30
0.0
 11
708.763771
 21
733.766766
 31
0.0
  0
LINE
  5
3E5
330
1F
100
AcDbEntity
  8
0
  6
CONTINUOUS
 62
     3
100
AcDbLine
 10
708.763771
 20
733.766766
 30
0.0
 11
706.907235
 21
734.779793
 31
0.0
  0
LINE
  5
3E6
330
1F
100
AcDbEntity
  8
0
  6
CONTINUOUS
 62
     3
100
AcDbLine
 10
706.907235
 20
734.779793
 30
0.0
 11
704.881181
 21
735.708061
 31
0.0
  0
LINE
  5
3E7
330
1F
100
AcDbEntity
  8
0
  6
CONTINUOUS
 62
     3
100
AcDbLine
 10
704.881181
 20
735.708061
 30
0.0
 11
702.701029
 21
736.544506
 31
0.0
  0
LINE
  5
3E8
330
1F
100
AcDbEntity
  8
0
  6
CONTINUOUS
 62
     3
100
AcDbLine
 10
702.701029
 20
736.544506
 30
0.0
 11
700.383371
 21
737.282761
 31
0.0
  0
LINE
  5
3E9
330
1F
100
AcDbEntity
  8
0
  6
CONTINUOUS
 62
     3
100
AcDbLine
 10
700.383371
 20
737.282761
 30
0.0
 11
697.945846
 21
737.917209
 31
0.0
  0
LINE
  5
3EA
330
1F
100
AcDbEntity
  8
0
  6
CONTINUOUS
 62
     3
100
AcDbLine
 10
697.945846
 20
737.917209
 30
0.0
 11
695.407006
 21
738.44302
 31
0.0
  0
LINE
  5
3EB
330
1F
100
AcDbEntity
  8
0
  6
CONTINUOUS
 62
     3
100
AcDbLine
 10
695.407006
 20
738.44302
 30
0.0
 11
692.786171
 21
738.856193
 31
0.0
  0
LINE
  5
3EC
330
1F
100
AcDbEntity
  8
0
  6
CONTINUOUS
 62
     3
100
AcDbLine
 10
692.786171
 20
738.856193
 30
0.0
 11
690.103289
 21
739.153583
 31
0.0
  0
LINE
  5
3ED
330
1F
100
AcDbEntity
  8
0
  6
CONTINUOUS
 62
     3
100
AcDbLine
 10
690.103289
 20
739.153583
 30
0.0
 11
687.378777
 21
739.332927
 31
0.0
  0
LINE
  5
3EE
330
1F
100
AcDbEntity
  8
0
  6
CONTINUOUS
 62
     3
100
AcDbLine
 10
687.378777
 20
739.332927
 30
0.0
 11
684.633371
 21
739.392861
 31
0.0
  0
LINE
  5
3EF
330
1F
100
AcDbEntity
  8
0
  6
CONTINUOUS
 62
     3
100
AcDbLine
 10
684.633371
 20
739.392861
 30
0.0
 11
681.887965
 21
739.332927
 31
0.0
  0
LINE
  5
3F0
330
1F
100
AcDbEntity
  8
0
  6
CONTINUOUS
 62
     3
100
AcDbLine
 10
681.887965
 20
739.332927
 30
0.0
 11
679.163453
 21
739.153583
 31
0.0
  0
LINE
  5
3F1
330
1F
100
AcDbEntity
  8
0
  6
CONTINUOUS
 62
     3
100
AcDbLine
 10
679.163453
 20
739.153583
 30
0.0
 11
676.480571
 21
738.856193
 31
0.0
  0
LINE
  5
3F2
330
1F
100
AcDbEntity
  8
0
  6
CONTINUOUS
 62
     3
100
AcDbLine
 10
676.480571
 20
738.856193
 30
0.0
 11
673.859737
 21
738.44302
 31
0.0
  0
LINE
  5
3F3
330
1F
100
AcDbEntity
  8
0
  6
CONTINUOUS
 62
     3
100
AcDbLine
 10
673.859737
 20
738.44302
 30
0.0
 11
671.320896
 21
737.917209
 31
0.0
  0
LINE
  5
3F4
330
1F
100
AcDbEntity
  8
0
  6
CONTINUOUS
 62
     3
100
AcDbLine
 10
671.320896
 20
737.917209
 30
0.0
 11
668.883371
 21
737.282761
 31
0.0
  0
LINE
  5
3F5
330
1F
100
AcDbEntity
  8
0
  6
CONTINUOUS
 62
     3
100
AcDbLine
 10
668.883371
 20
737.282761
 30
0.0
 11
666.565713
 21
736.544506
 31
0.0
  0
LINE
  5
3F6
330
1F
100
AcDbEntity
  8
0
  6
CONTINUOUS
 62
     3
100
AcDbLine
 10
666.565713
 20
736.544506
 30
0.0
 11
664.385561
 21
735.708061
 31
0.0
  0
LINE
  5
3F7
330
1F
100
AcDbEntity
  8
0
  6
CONTINUOUS
 62
     3
100
AcDbLine
 10
664.385561
 20
735.708061
 30
0.0
 11
662.359507
 21
734.779793
 31
0.0
  0
LINE
  5
3F8
330
1F
100
AcDbEntity
  8
0
  6
CONTINUOUS
 62
     3
100
AcDbLine
 10
662.359507
 20
734.779793
 30
0.0
 11
660.502971
 21
733.766766
 31
0.0
  0
LINE
  5
3F9
330
1F
100
AcDbEntity
  8
0
  6
CONTINUOUS
 62
     3
100
AcDbLine
 10
660.502971
 20
733.766766
 30
0.0
 11
658.830082
 21
732.67669
 31
0.0
  0
LINE
  5
3FA
330
1F
100
AcDbEntity
  8
0
  6
CONTINUOUS
 62
     3
100
AcDbLine
 10
658.830082
 20
732.67669
 30
0.0
 11
657.353571
 21
731.517861
 31
0.0
  0
LINE
  5
3FB
330
1F
100
AcDbEntity
  8
0
  6
CONTINUOUS
 62
     3
100
AcDbLine
 10
657.353571
 20
731.517861
 30
0.0
 11
656.084676
 21
730.299099
 31
0.0
  0
LINE
  5
3FC
330
1F
100
AcDbEntity
  8
0
  6
CONTINUOUS
 62
     3
100
AcDbLine
 10
656.084676
 20
730.299099
 30
0.0
 11
655.033054
 21
729.029678
 31
0.0
  0
LINE
  5
3FD
330
1F
100
AcDbEntity
  8
0
  6
CONTINUOUS
 62
     3
100
AcDbLine
 10
655.033054
 20
729.029678
 30
0.0
 11
654.206708
 21
727.719261
 31
0.0
  0
LINE
  5
3FE
330
1F
100
AcDbEntity
  8
0
  6
CONTINUOUS
 62
     3
100
AcDbLine
 10
654.206708
 20
727.719261
 30
0.0
 11
653.611927
 21
726.37782
 31
0.0
  0
LINE
  5
3FF
330
1F
100
AcDbEntity
  8
0
  6
CONTINUOUS
 62
     3
100
AcDbLine
 10
653.611927
 20
726.37782
 30
0.0
 11
653.253238
 21
725.015564
 31
0.0
  0
LINE
  5
400
330
1F
100
AcDbEntity
  8
0
  6
CONTINUOUS
 62
     3
100
AcDbLine
 10
653.253238
 20
725.015564
 30
0.0
 11
653.133371
 21
723.642861
 31
0.0
  0
LINE
  5
401
330
1F
100
AcDbEntity
  8
0
  6
CONTINUOUS
 62
     3
100
AcDbLine
 10
716.133371
 20
754.559764
 30
0.0
 11
716.013504
 21
755.932466
 31
0.0
  0
LINE
  5
402
330
1F
100
AcDbEntity
  8
0
  6
CONTINUOUS
 62
     3
100
AcDbLine
 10
716.013504
 20
755.932466
 30
0.0
 11
715.654815
 21
757.294722
 31
0.0
  0
LINE
  5
403
330
1F
100
AcDbEntity
  8
0
  6
CONTINUOUS
 62
     3
100
AcDbLine
 10
715.654815
 20
757.294722
 30
0.0
 11
715.060035
 21
758.636163
 31
0.0
  0
LINE
  5
404
330
1F
100
AcDbEntity
  8
0
  6
CONTINUOUS
 62
     3
100
AcDbLine
 10
715.060035
 20
758.636163
 30
0.0
 11
714.233689
 21
759.946581
 31
0.0
  0
LINE
  5
405
330
1F
100
AcDbEntity
  8
0
  6
CONTINUOUS
 62
     3
100
AcDbLine
 10
714.233689
 20
759.946581
 30
0.0
 11
713.182066
 21
761.216001
 31
0.0
  0
LINE
  5
406
330
1F
100
AcDbEntity
  8
0
  6
CONTINUOUS
 62
     3
100
AcDbLine
 10
713.182066
 20
761.216001
 30
0.0
 11
711.913171
 21
762.434764
 31
0.0
  0
LINE
  5
407
330
1F
100
AcDbEntity
  8
0
  6
CONTINUOUS
 62
     3
100
AcDbLine
 10
711.913171
 20
762.434764
 30
0.0
 11
710.43666
 21
763.593592
 31
0.0
  0
LINE
  5
408
330
1F
100
AcDbEntity
  8
0
  6
CONTINUOUS
 62
     3
100
AcDbLine
 10
710.43666
 20
763.593592
 30
0.0
 11
708.763771
 21
764.683668
 31
0.0
  0
LINE
  5
409
330
1F
100
AcDbEntity
  8
0
  6
CONTINUOUS
 62
     3
100
AcDbLine
 10
708.763771
 20
764.683668
 30
0.0
 11
706.907235
 21
765.696695
 31
0.0
  0
LINE
  5
40A
330
1F
100
AcDbEntity
  8
0
  6
CONTINUOUS
 62
     3
100
AcDbLine
 10
706.907235
 20
765.696695
 30
0.0
 11
704.881181
 21
766.624963
 31
0.0
  0
LINE
  5
40B
330
1F
100
AcDbEntity
  8
0
  6
CONTINUOUS
 62
     3
100
AcDbLine
 10
704.881181
 20
766.624963
 30
0.0
 11
702.701029
 21
767.461408
 31
0.0
  0
LINE
  5
40C
330
1F
100
AcDbEntity
  8
0
  6
CONTINUOUS
 62
     3
100
AcDbLine
 10
702.701029
 20
767.461408
 30
0.0
 11
700.383371
 21
768.199664
 31
0.0
  0
LINE
  5
40D
330
1F
100
AcDbEntity
  8
0
  6
CONTINUOUS
 62
     3
100
AcDbLine
 10
700.383371
 20
768.199664
 30
0.0
 11
697.945846
 21
768.834111
 31
0.0
  0
LINE
  5
40E
330
1F
100
AcDbEntity
  8
0
  6
CONTINUOUS
 62
     3
100
AcDbLine
 10
697.945846
 20
768.834111
 30
0.0
 11
695.407006
 21
769.359922
 31
0.0
  0
LINE
  5
40F
330
1F
100
AcDbEntity
  8
0
  6
CONTINUOUS
 62
     3
100
AcDbLine
 10
695.407006
 20
769.359922
 30
0.0
 11
692.786171
 21
769.773095
 31
0.0
  0
LINE
  5
410
330
1F
100
AcDbEntity
  8
0
  6
CONTINUOUS
 62
     3
100
AcDbLine
 10
692.786171
 20
769.773095
 30
0.0
 11
690.103289
 21
770.070486
 31
0.0
  0
LINE
  5
411
330
1F
100
AcDbEntity
  8
0
  6
CONTINUOUS
 62
     3
100
AcDbLine
 10
690.103289
 20
770.070486
 30
0.0
 11
687.378777
 21
770.24983
 31
0.0
  0
LINE
  5
412
330
1F
100
AcDbEntity
  8
0
  6
CONTINUOUS
 62
     3
100
AcDbLine
 10
687.378777
 20
770.24983
 30
0.0
 11
684.633371
 21
770.309764
 31
0.0
  0
LINE
  5
413
330
1F
100
AcDbEntity
  8
0
  6
CONTINUOUS
 62
     3
100
AcDbLine
 10
684.633371
 20
770.309764
 30
0.0
 11
681.887965
 21
770.24983
 31
0.0
  0
LINE
  5
414
330
1F
100
AcDbEntity
  8
0
  6
CONTINUOUS
 62
     3
100
AcDbLine
 10
681.887965
 20
770.24983
 30
0.0
 11
679.163453
 21
770.070486
 31
0.0
  0
LINE
  5
415
330
1F
100
AcDbEntity
  8
0
  6
CONTINUOUS
 62
     3
100
AcDbLine
 10
679.163453
 20
770.070486
 30
0.0
 11
676.480571
 21
769.773095
 31
0.0
  0
LINE
  5
416
330
1F
100
AcDbEntity
  8
0
  6
CONTINUOUS
 62
     3
100
AcDbLine
 10
676.480571
 20
769.773095
 30
0.0
 11
673.859737
 21
769.359922
 31
0.0
  0
LINE
  5
417
330
1F
100
AcDbEntity
  8
0
  6
CONTINUOUS
 62
     3
100
AcDbLine
 10
673.859737
 20
769.359922
 30
0.0
 11
671.320896
 21
768.834111
 31
0.0
  0
LINE
  5
418
330
1F
100
AcDbEntity
  8
0
  6
CONTINUOUS
 62
     3
100
AcDbLine
 10
671.320896
 20
768.834111
 30
0.0
 11
668.883371
 21
768.199664
 31
0.0
  0
LINE
  5
419
330
1F
100
AcDbEntity
  8
0
  6
CONTINUOUS
 62
     3
100
AcDbLine
 10
668.883371
 20
768.199664
 30
0.0
 11
666.565713
 21
767.461408
 31
0.0
  0
LINE
  5
41A
330
1F
100
AcDbEntity
  8
0
  6
CONTINUOUS
 62
     3
100
AcDbLine
 10
666.565713
 20
767.461408
 30
0.0
 11
664.385561
 21
766.624963
 31
0.0
  0
LINE
  5
41B
330
1F
100
AcDbEntity
  8
0
  6
CONTINUOUS
 62
     3
100
AcDbLine
 10
664.385561
 20
766.624963
 30
0.0
 11
662.359507
 21
765.696695
 31
0.0
  0
LINE
  5
41C
330
1F
100
AcDbEntity
  8
0
  6
CONTINUOUS
 62
     3
100
AcDbLine
 10
662.359507
 20
765.696695
 30
0.0
 11
660.502971
 21
764.683668
 31
0.0
  0
LINE
  5
41D
330
1F
100
AcDbEntity
  8
0
  6
CONTINUOUS
 62
     3
100
AcDbLine
 10
660.502971
 20
764.683668
 30
0.0
 11
658.830082
 21
763.593592
 31
0.0
  0
LINE
  5
41E
330
1F
100
AcDbEntity
  8
0
  6
CONTINUOUS
 62
     3
100
AcDbLine
 10
658.830082
 20
763.593592
 30
0.0
 11
657.353571
 21
762.434764
 31
0.0
  0
LINE
  5
41F
330
1F
100
AcDbEntity
  8
0
  6
CONTINUOUS
 62
     3
100
AcDbLine
 10
657.353571
 20
762.434764
 30
0.0
 11
656.084676
 21
761.216001
 31
0.0
  0
LINE
  5
420
330
1F
100
AcDbEntity
  8
0
  6
CONTINUOUS
 62
     3
100
AcDbLine
 10
656.084676
 20
761.216001
 30
0.0
 11
655.033054
 21
759.946581
 31
0.0
  0
LINE
  5
421
330
1F
100
AcDbEntity
  8
0
  6
CONTINUOUS
 62
     3
100
AcDbLine
 10
655.033054
 20
759.946581
 30
0.0
 11
654.206708
 21
758.636163
 31
0.0
  0
LINE
  5
422
330
1F
100
AcDbEntity
  8
0
  6
CONTINUOUS
 62
     3
100
AcDbLine
 10
654.206708
 20
758.636163
 30
0.0
 11
653.611927
 21
757.294722
 31
0.0
  0
LINE
  5
423
330
1F
100
AcDbEntity
  8
0
  6
CONTINUOUS
 62
     3
100
AcDbLine
 10
653.611927
 20
757.294722
 30
0.0
 11
653.253238
 21
755.932466
 31
0.0
  0
LINE
  5
424
330
1F
100
AcDbEntity
  8
0
  6
CONTINUOUS
 62
     3
100
AcDbLine
 10
653.253238
 20
755.932466
 30
0.0
 11
653.133371
 21
754.559764
 31
0.0
  0
LINE
  5
425
330
1F
100
AcDbEntity
  8
0
  6
CONTINUOUS
 62
     3
100
AcDbLine
 10
716.133371
 20
787.653913
 30
0.0
 11
716.013504
 21
789.026616
 31
0.0
  0
LINE
  5
426
330
1F
100
AcDbEntity
  8
0
  6
CONTINUOUS
 62
     3
100
AcDbLine
 10
716.013504
 20
789.026616
 30
0.0
 11
715.654815
 21
790.388871
 31
0.0
  0
LINE
  5
427
330
1F
100
AcDbEntity
  8
0
  6
CONTINUOUS
 62
     3
100
AcDbLine
 10
715.654815
 20
790.388871
 30
0.0
 11
715.060035
 21
791.730313
 31
0.0
  0
LINE
  5
428
330
1F
100
AcDbEntity
  8
0
  6
CONTINUOUS
 62
     3
100
AcDbLine
 10
715.060035
 20
791.730313
 30
0.0
 11
714.233689
 21
793.04073
 31
0.0
  0
LINE
  5
429
330
1F
100
AcDbEntity
  8
0
  6
CONTINUOUS
 62
     3
100
AcDbLine
 10
714.233689
 20
793.04073
 30
0.0
 11
713.182066
 21
794.31015
 31
0.0
  0
LINE
  5
42A
330
1F
100
AcDbEntity
  8
0
  6
CONTINUOUS
 62
     3
100
AcDbLine
 10
713.182066
 20
794.31015
 30
0.0
 11
711.913171
 21
795.528913
 31
0.0
  0
LINE
  5
42B
330
1F
100
AcDbEntity
  8
0
  6
CONTINUOUS
 62
     3
100
AcDbLine
 10
711.913171
 20
795.528913
 30
0.0
 11
710.43666
 21
796.687742
 31
0.0
  0
LINE
  5
42C
330
1F
100
AcDbEntity
  8
0
  6
CONTINUOUS
 62
     3
100
AcDbLine
 10
710.43666
 20
796.687742
 30
0.0
 11
708.763771
 21
797.777818
 31
0.0
  0
LINE
  5
42D
330
1F
100
AcDbEntity
  8
0
  6
CONTINUOUS
 62
     3
100
AcDbLine
 10
708.763771
 20
797.777818
 30
0.0
 11
706.907235
 21
798.790844
 31
0.0
  0
LINE
  5
42E
330
1F
100
AcDbEntity
  8
0
  6
CONTINUOUS
 62
     3
100
AcDbLine
 10
706.907235
 20
798.790844
 30
0.0
 11
704.881181
 21
799.719113
 31
0.0
  0
LINE
  5
42F
330
1F
100
AcDbEntity
  8
0
  6
CONTINUOUS
 62
     3
100
AcDbLine
 10
704.881181
 20
799.719113
 30
0.0
 11
702.701029
 21
800.555557
 31
0.0
  0
LINE
  5
430
330
1F
100
AcDbEntity
  8
0
  6
CONTINUOUS
 62
     3
100
AcDbLine
 10
702.701029
 20
800.555557
 30
0.0
 11
700.383371
 21
801.293813
 31
0.0
  0
LINE
  5
431
330
1F
100
AcDbEntity
  8
0
  6
CONTINUOUS
 62
     3
100
AcDbLine
 10
700.383371
 20
801.293813
 30
0.0
 11
697.945846
 21
801.92826
 31
0.0
  0
LINE
  5
432
330
1F
100
AcDbEntity
  8
0
  6
CONTINUOUS
 62
     3
100
AcDbLine
 10
697.945846
 20
801.92826
 30
0.0
 11
695.407006
 21
802.454071
 31
0.0
  0
LINE
  5
433
330
1F
100
AcDbEntity
  8
0
  6
CONTINUOUS
 62
     3
100
AcDbLine
 10
695.407006
 20
802.454071
 30
0.0
 11
692.786171
 21
802.867244
 31
0.0
  0
LINE
  5
434
330
1F
100
AcDbEntity
  8
0
  6
CONTINUOUS
 62
     3
100
AcDbLine
 10
692.786171
 20
802.867244
 30
0.0
 11
690.103289
 21
803.164635
 31
0.0
  0
LINE
  5
435
330
1F
100
AcDbEntity
  8
0
  6
CONTINUOUS
 62
     3
100
AcDbLine
 10
690.103289
 20
803.164635
 30
0.0
 11
687.378777
 21
803.343979
 31
0.0
  0
LINE
  5
436
330
1F
100
AcDbEntity
  8
0
  6
CONTINUOUS
 62
     3
100
AcDbLine
 10
687.378777
 20
803.343979
 30
0.0
 11
684.633371
 21
803.403913
 31
0.0
  0
LINE
  5
437
330
1F
100
AcDbEntity
  8
0
  6
CONTINUOUS
 62
     3
100
AcDbLine
 10
684.633371
 20
803.403913
 30
0.0
 11
681.887965
 21
803.343979
 31
0.0
  0
LINE
  5
438
330
1F
100
AcDbEntity
  8
0
  6
CONTINUOUS
 62
     3
100
AcDbLine
 10
681.887965
 20
803.343979
 30
0.0
 11
679.163453
 21
803.164635
 31
0.0
  0
LINE
  5
439
330
1F
100
AcDbEntity
  8
0
  6
CONTINUOUS
 62
     3
100
AcDbLine
 10
679.163453
 20
803.164635
 30
0.0
 11
676.480571
 21
802.867244
 31
0.0
  0
LINE
  5
43A
330
1F
100
AcDbEntity
  8
0
  6
CONTINUOUS
 62
     3
100
AcDbLine
 10
676.480571
 20
802.867244
 30
0.0
 11
673.859737
 21
802.454071
 31
0.0
  0
LINE
  5
43B
330
1F
100
AcDbEntity
  8
0
  6
CONTINUOUS
 62
     3
100
AcDbLine
 10
673.859737
 20
802.454071
 30
0.0
 11
671.320896
 21
801.92826
 31
0.0
  0
LINE
  5
43C
330
1F
100
AcDbEntity
  8
0
  6
CONTINUOUS
 62
     3
100
AcDbLine
 10
671.320896
 20
801.92826
 30
0.0
 11
668.883371
 21
801.293813
 31
0.0
  0
LINE
  5
43D
330
1F
100
AcDbEntity
  8
0
  6
CONTINUOUS
 62
     3
100
AcDbLine
 10
668.883371
 20
801.293813
 30
0.0
 11
666.565713
 21
800.555557
 31
0.0
  0
LINE
  5
43E
330
1F
100
AcDbEntity
  8
0
  6
CONTINUOUS
 62
     3
100
AcDbLine
 10
666.565713
 20
800.555557
 30
0.0
 11
664.385561
 21
799.719113
 31
0.0
  0
LINE
  5
43F
330
1F
100
AcDbEntity
  8
0
  6
CONTINUOUS
 62
     3
100
AcDbLine
 10
664.385561
 20
799.719113
 30
0.0
 11
662.359507
 21
798.790844
 31
0.0
  0
LINE
  5
440
330
1F
100
AcDbEntity
  8
0
  6
CONTINUOUS
 62
     3
100
AcDbLine
 10
662.359507
 20
798.790844
 30
0.0
 11
660.502971
 21
797.777818
 31
0.0
  0
LINE
  5
441
330
1F
100
AcDbEntity
  8
0
  6
CONTINUOUS
 62
     3
100
AcDbLine
 10
660.502971
 20
797.777818
 30
0.0
 11
658.830082
 21
796.687742
 31
0.0
  0
LINE
  5
442
330
1F
100
AcDbEntity
  8
0
  6
CONTINUOUS
 62
     3
100
AcDbLine
 10
658.830082
 20
796.687742
 30
0.0
 11
657.353571
 21
795.528913
 31
0.0
  0
LINE
  5
443
330
1F
100
AcDbEntity
  8
0
  6
CONTINUOUS
 62
     3
100
AcDbLine
 10
657.353571
 20
795.528913
 30
0.0
 11
656.084676
 21
794.31015
 31
0.0
  0
LINE
  5
444
330
1F
100
AcDbEntity
  8
0
  6
CONTINUOUS
 62
     3
100
AcDbLine
 10
656.084676
 20
794.31015
 30
0.0
 11
655.033054
 21
793.04073
 31
0.0
  0
LINE
  5
445
330
1F
100
AcDbEntity
  8
0
  6
CONTINUOUS
 62
     3
100
AcDbLine
 10
655.033054
 20
793.04073
 30
0.0
 11
654.206708
 21
791.730313
 31
0.0
  0
LINE
  5
446
330
1F
100
AcDbEntity
  8
0
  6
CONTINUOUS
 62
     3
100
AcDbLine
 10
654.206708
 20
791.730313
 30
0.0
 11
653.611927
 21
790.388871
 31
0.0
  0
LINE
  5
447
330
1F
100
AcDbEntity
  8
0
  6
CONTINUOUS
 62
     3
100
AcDbLine
 10
653.611927
 20
790.388871
 30
0.0
 11
653.253238
 21
789.026616
 31
0.0
  0
LINE
  5
448
330
1F
100
AcDbEntity
  8
0
  6
CONTINUOUS
 62
     3
100
AcDbLine
 10
653.253238
 20
789.026616
 30
0.0
 11
653.133371
 21
787.653913
 31
0.0
  0
LINE
  5
449
330
1F
100
AcDbEntity
  8
0
  6
CONTINUOUS
 62
     3
100
AcDbLine
 10
714.633371
 20
706.224888
 30
0.0
 11
714.519212
 21
707.532224
 31
0.0
  0
LINE
  5
44A
330
1F
100
AcDbEntity
  8
0
  6
CONTINUOUS
 62
     3
100
AcDbLine
 10
714.519212
 20
707.532224
 30
0.0
 11
714.177604
 21
708.82961
 31
0.0
  0
LINE
  5
44B
330
1F
100
AcDbEntity
  8
0
  6
CONTINUOUS
 62
     3
100
AcDbLine
 10
714.177604
 20
708.82961
 30
0.0
 11
713.611146
 21
710.107173
 31
0.0
  0
LINE
  5
44C
330
1F
100
AcDbEntity
  8
0
  6
CONTINUOUS
 62
     3
100
AcDbLine
 10
713.611146
 20
710.107173
 30
0.0
 11
712.82415
 21
711.35519
 31
0.0
  0
LINE
  5
44D
330
1F
100
AcDbEntity
  8
0
  6
CONTINUOUS
 62
     3
100
AcDbLine
 10
712.82415
 20
711.35519
 30
0.0
 11
711.822605
 21
712.564162
 31
0.0
  0
LINE
  5
44E
330
1F
100
AcDbEntity
  8
0
  6
CONTINUOUS
 62
     3
100
AcDbLine
 10
711.822605
 20
712.564162
 30
0.0
 11
710.614133
 21
713.724888
 31
0.0
  0
LINE
  5
44F
330
1F
100
AcDbEntity
  8
0
  6
CONTINUOUS
 62
     3
100
AcDbLine
 10
710.614133
 20
713.724888
 30
0.0
 11
709.207932
 21
714.828534
 31
0.0
  0
LINE
  5
450
330
1F
100
AcDbEntity
  8
0
  6
CONTINUOUS
 62
     3
100
AcDbLine
 10
709.207932
 20
714.828534
 30
0.0
 11
707.614704
 21
715.866702
 31
0.0
  0
LINE
  5
451
330
1F
100
AcDbEntity
  8
0
  6
CONTINUOUS
 62
     3
100
AcDbLine
 10
707.614704
 20
715.866702
 30
0.0
 11
705.846575
 21
716.831489
 31
0.0
  0
LINE
  5
452
330
1F
100
AcDbEntity
  8
0
  6
CONTINUOUS
 62
     3
100
AcDbLine
 10
705.846575
 20
716.831489
 30
0.0
 11
703.916999
 21
717.715554
 31
0.0
  0
LINE
  5
453
330
1F
100
AcDbEntity
  8
0
  6
CONTINUOUS
 62
     3
100
AcDbLine
 10
703.916999
 20
717.715554
 30
0.0
 11
701.840664
 21
718.512168
 31
0.0
  0
LINE
  5
454
330
1F
100
AcDbEntity
  8
0
  6
CONTINUOUS
 62
     3
100
AcDbLine
 10
701.840664
 20
718.512168
 30
0.0
 11
699.633371
 21
719.215269
 31
0.0
  0
LINE
  5
455
330
1F
100
AcDbEntity
  8
0
  6
CONTINUOUS
 62
     3
100
AcDbLine
 10
699.633371
 20
719.215269
 30
0.0
 11
697.311919
 21
719.819505
 31
0.0
  0
LINE
  5
456
330
1F
100
AcDbEntity
  8
0
  6
CONTINUOUS
 62
     3
100
AcDbLine
 10
697.311919
 20
719.819505
 30
0.0
 11
694.893975
 21
720.320277
 31
0.0
  0
LINE
  5
457
330
1F
100
AcDbEntity
  8
0
  6
CONTINUOUS
 62
     3
100
AcDbLine
 10
694.893975
 20
720.320277
 30
0.0
 11
692.397942
 21
720.713775
 31
0.0
  0
LINE
  5
458
330
1F
100
AcDbEntity
  8
0
  6
CONTINUOUS
 62
     3
100
AcDbLine
 10
692.397942
 20
720.713775
 30
0.0
 11
689.842816
 21
720.997004
 31
0.0
  0
LINE
  5
459
330
1F
100
AcDbEntity
  8
0
  6
CONTINUOUS
 62
     3
100
AcDbLine
 10
689.842816
 20
720.997004
 30
0.0
 11
687.248043
 21
721.167808
 31
0.0
  0
LINE
  5
45A
330
1F
100
AcDbEntity
  8
0
  6
CONTINUOUS
 62
     3
100
AcDbLine
 10
687.248043
 20
721.167808
 30
0.0
 11
684.633371
 21
721.224888
 31
0.0
  0
LINE
  5
45B
330
1F
100
AcDbEntity
  8
0
  6
CONTINUOUS
 62
     3
100
AcDbLine
 10
684.633371
 20
721.224888
 30
0.0
 11
682.018699
 21
721.167808
 31
0.0
  0
LINE
  5
45C
330
1F
100
AcDbEntity
  8
0
  6
CONTINUOUS
 62
     3
100
AcDbLine
 10
682.018699
 20
721.167808
 30
0.0
 11
679.423926
 21
720.997004
 31
0.0
  0
LINE
  5
45D
330
1F
100
AcDbEntity
  8
0
  6
CONTINUOUS
 62
     3
100
AcDbLine
 10
679.423926
 20
720.997004
 30
0.0
 11
676.8688
 21
720.713775
 31
0.0
  0
LINE
  5
45E
330
1F
100
AcDbEntity
  8
0
  6
CONTINUOUS
 62
     3
100
AcDbLine
 10
676.8688
 20
720.713775
 30
0.0
 11
674.372767
 21
720.320277
 31
0.0
  0
LINE
  5
45F
330
1F
100
AcDbEntity
  8
0
  6
CONTINUOUS
 62
     3
100
AcDbLine
 10
674.372767
 20
720.320277
 30
0.0
 11
671.954823
 21
719.819505
 31
0.0
  0
LINE
  5
460
330
1F
100
AcDbEntity
  8
0
  6
CONTINUOUS
 62
     3
100
AcDbLine
 10
671.954823
 20
719.819505
 30
0.0
 11
669.633371
 21
719.215269
 31
0.0
  0
LINE
  5
461
330
1F
100
AcDbEntity
  8
0
  6
CONTINUOUS
 62
     3
100
AcDbLine
 10
669.633371
 20
719.215269
 30
0.0
 11
667.426078
 21
718.512168
 31
0.0
  0
LINE
  5
462
330
1F
100
AcDbEntity
  8
0
  6
CONTINUOUS
 62
     3
100
AcDbLine
 10
667.426078
 20
718.512168
 30
0.0
 11
665.349743
 21
717.715554
 31
0.0
  0
LINE
  5
463
330
1F
100
AcDbEntity
  8
0
  6
CONTINUOUS
 62
     3
100
AcDbLine
 10
665.349743
 20
717.715554
 30
0.0
 11
663.420168
 21
716.831489
 31
0.0
  0
LINE
  5
464
330
1F
100
AcDbEntity
  8
0
  6
CONTINUOUS
 62
     3
100
AcDbLine
 10
663.420168
 20
716.831489
 30
0.0
 11
661.652038
 21
715.866702
 31
0.0
  0
LINE
  5
465
330
1F
100
AcDbEntity
  8
0
  6
CONTINUOUS
 62
     3
100
AcDbLine
 10
661.652038
 20
715.866702
 30
0.0
 11
660.05881
 21
714.828534
 31
0.0
  0
LINE
  5
466
330
1F
100
AcDbEntity
  8
0
  6
CONTINUOUS
 62
     3
100
AcDbLine
 10
660.05881
 20
714.828534
 30
0.0
 11
658.652609
 21
713.724888
 31
0.0
  0
LINE
  5
467
330
1F
100
AcDbEntity
  8
0
  6
CONTINUOUS
 62
     3
100
AcDbLine
 10
658.652609
 20
713.724888
 30
0.0
 11
657.444137
 21
712.564162
 31
0.0
  0
LINE
  5
468
330
1F
100
AcDbEntity
  8
0
  6
CONTINUOUS
 62
     3
100
AcDbLine
 10
657.444137
 20
712.564162
 30
0.0
 11
656.442592
 21
711.35519
 31
0.0
  0
LINE
  5
469
330
1F
100
AcDbEntity
  8
0
  6
CONTINUOUS
 62
     3
100
AcDbLine
 10
656.442592
 20
711.35519
 30
0.0
 11
655.655596
 21
710.107173
 31
0.0
  0
LINE
  5
46A
330
1F
100
AcDbEntity
  8
0
  6
CONTINUOUS
 62
     3
100
AcDbLine
 10
655.655596
 20
710.107173
 30
0.0
 11
655.089138
 21
708.82961
 31
0.0
  0
LINE
  5
46B
330
1F
100
AcDbEntity
  8
0
  6
CONTINUOUS
 62
     3
100
AcDbLine
 10
655.089138
 20
708.82961
 30
0.0
 11
654.74753
 21
707.532224
 31
0.0
  0
LINE
  5
46C
330
1F
100
AcDbEntity
  8
0
  6
CONTINUOUS
 62
     3
100
AcDbLine
 10
654.74753
 20
707.532224
 30
0.0
 11
654.633371
 21
706.224888
 31
0.0
  0
LINE
  5
46D
330
1F
100
AcDbEntity
  8
0
  6
CONTINUOUS
 62
     3
100
AcDbLine
 10
716.133371
 20
683.581522
 30
0.0
 11
716.133371
 21
656.583673
 31
0.0
  0
LINE
  5
46E
330
1F
100
AcDbEntity
  8
0
  6
CONTINUOUS
 62
     3
100
AcDbLine
 10
653.133371
 20
683.581522
 30
0.0
 11
653.133371
 21
656.583673
 31
0.0
  0
LINE
  5
46F
330
1F
100
AcDbEntity
  8
0
  6
CONTINUOUS
 62
     3
100
AcDbLine
 10
714.633371
 20
706.224888
 30
0.0
 11
714.633371
 21
688.334524
 31
0.0
  0
LINE
  5
470
330
1F
100
AcDbEntity
  8
0
  6
CONTINUOUS
 62
     3
100
AcDbLine
 10
654.633371
 20
706.224888
 30
0.0
 11
654.633371
 21
688.334524
 31
0.0
  0
LINE
  5
471
330
1F
100
AcDbEntity
  8
0
  6
CONTINUOUS
 62
     3
100
AcDbLine
 10
716.133371
 20
706.224888
 30
0.0
 11
716.013504
 21
707.597591
 31
0.0
  0
LINE
  5
472
330
1F
100
AcDbEntity
  8
0
  6
CONTINUOUS
 62
     3
100
AcDbLine
 10
716.013504
 20
707.597591
 30
0.0
 11
715.654815
 21
708.959847
 31
0.0
  0
LINE
  5
473
330
1F
100
AcDbEntity
  8
0
  6
CONTINUOUS
 62
     3
100
AcDbLine
 10
715.654815
 20
708.959847
 30
0.0
 11
715.060035
 21
710.301288
 31
0.0
  0
LINE
  5
474
330
1F
100
AcDbEntity
  8
0
  6
CONTINUOUS
 62
     3
100
AcDbLine
 10
715.060035
 20
710.301288
 30
0.0
 11
714.233689
 21
711.611705
 31
0.0
  0
LINE
  5
475
330
1F
100
AcDbEntity
  8
0
  6
CONTINUOUS
 62
     3
100
AcDbLine
 10
714.233689
 20
711.611705
 30
0.0
 11
713.182066
 21
712.881125
 31
0.0
  0
LINE
  5
476
330
1F
100
AcDbEntity
  8
0
  6
CONTINUOUS
 62
     3
100
AcDbLine
 10
713.182066
 20
712.881125
 30
0.0
 11
711.913171
 21
714.099888
 31
0.0
  0
LINE
  5
477
330
1F
100
AcDbEntity
  8
0
  6
CONTINUOUS
 62
     3
100
AcDbLine
 10
711.913171
 20
714.099888
 30
0.0
 11
710.43666
 21
715.258717
 31
0.0
  0
LINE
  5
478
330
1F
100
AcDbEntity
  8
0
  6
CONTINUOUS
 62
     3
100
AcDbLine
 10
710.43666
 20
715.258717
 30
0.0
 11
708.763771
 21
716.348793
 31
0.0
  0
LINE
  5
479
330
1F
100
AcDbEntity
  8
0
  6
CONTINUOUS
 62
     3
100
AcDbLine
 10
708.763771
 20
716.348793
 30
0.0
 11
706.907235
 21
717.36182
 31
0.0
  0
LINE
  5
47A
330
1F
100
AcDbEntity
  8
0
  6
CONTINUOUS
 62
     3
100
AcDbLine
 10
706.907235
 20
717.36182
 30
0.0
 11
704.881181
 21
718.290088
 31
0.0
  0
LINE
  5
47B
330
1F
100
AcDbEntity
  8
0
  6
CONTINUOUS
 62
     3
100
AcDbLine
 10
704.881181
 20
718.290088
 30
0.0
 11
702.701029
 21
719.126532
 31
0.0
  0
LINE
  5
47C
330
1F
100
AcDbEntity
  8
0
  6
CONTINUOUS
 62
     3
100
AcDbLine
 10
702.701029
 20
719.126532
 30
0.0
 11
700.383371
 21
719.864788
 31
0.0
  0
LINE
  5
47D
330
1F
100
AcDbEntity
  8
0
  6
CONTINUOUS
 62
     3
100
AcDbLine
 10
700.383371
 20
719.864788
 30
0.0
 11
697.945846
 21
720.499235
 31
0.0
  0
LINE
  5
47E
330
1F
100
AcDbEntity
  8
0
  6
CONTINUOUS
 62
     3
100
AcDbLine
 10
697.945846
 20
720.499235
 30
0.0
 11
695.407006
 21
721.025046
 31
0.0
  0
LINE
  5
47F
330
1F
100
AcDbEntity
  8
0
  6
CONTINUOUS
 62
     3
100
AcDbLine
 10
695.407006
 20
721.025046
 30
0.0
 11
692.786171
 21
721.438219
 31
0.0
  0
LINE
  5
480
330
1F
100
AcDbEntity
  8
0
  6
CONTINUOUS
 62
     3
100
AcDbLine
 10
692.786171
 20
721.438219
 30
0.0
 11
690.103289
 21
721.73561
 31
0.0
  0
LINE
  5
481
330
1F
100
AcDbEntity
  8
0
  6
CONTINUOUS
 62
     3
100
AcDbLine
 10
690.103289
 20
721.73561
 30
0.0
 11
687.378777
 21
721.914954
 31
0.0
  0
LINE
  5
482
330
1F
100
AcDbEntity
  8
0
  6
CONTINUOUS
 62
     3
100
AcDbLine
 10
687.378777
 20
721.914954
 30
0.0
 11
684.633371
 21
721.974888
 31
0.0
  0
LINE
  5
483
330
1F
100
AcDbEntity
  8
0
  6
CONTINUOUS
 62
     3
100
AcDbLine
 10
684.633371
 20
721.974888
 30
0.0
 11
681.887965
 21
721.914954
 31
0.0
  0
LINE
  5
484
330
1F
100
AcDbEntity
  8
0
  6
CONTINUOUS
 62
     3
100
AcDbLine
 10
681.887965
 20
721.914954
 30
0.0
 11
679.163453
 21
721.73561
 31
0.0
  0
LINE
  5
485
330
1F
100
AcDbEntity
  8
0
  6
CONTINUOUS
 62
     3
100
AcDbLine
 10
679.163453
 20
721.73561
 30
0.0
 11
676.480571
 21
721.438219
 31
0.0
  0
LINE
  5
486
330
1F
100
AcDbEntity
  8
0
  6
CONTINUOUS
 62
     3
100
AcDbLine
 10
676.480571
 20
721.438219
 30
0.0
 11
673.859737
 21
721.025046
 31
0.0
  0
LINE
  5
487
330
1F
100
AcDbEntity
  8
0
  6
CONTINUOUS
 62
     3
100
AcDbLine
 10
673.859737
 20
721.025046
 30
0.0
 11
671.320896
 21
720.499235
 31
0.0
  0
LINE
  5
488
330
1F
100
AcDbEntity
  8
0
  6
CONTINUOUS
 62
     3
100
AcDbLine
 10
671.320896
 20
720.499235
 30
0.0
 11
668.883371
 21
719.864788
 31
0.0
  0
LINE
  5
489
330
1F
100
AcDbEntity
  8
0
  6
CONTINUOUS
 62
     3
100
AcDbLine
 10
668.883371
 20
719.864788
 30
0.0
 11
666.565713
 21
719.126532
 31
0.0
  0
LINE
  5
48A
330
1F
100
AcDbEntity
  8
0
  6
CONTINUOUS
 62
     3
100
AcDbLine
 10
666.565713
 20
719.126532
 30
0.0
 11
664.385561
 21
718.290088
 31
0.0
  0
LINE
  5
48B
330
1F
100
AcDbEntity
  8
0
  6
CONTINUOUS
 62
     3
100
AcDbLine
 10
664.385561
 20
718.290088
 30
0.0
 11
662.359507
 21
717.36182
 31
0.0
  0
LINE
  5
48C
330
1F
100
AcDbEntity
  8
0
  6
CONTINUOUS
 62
     3
100
AcDbLine
 10
662.359507
 20
717.36182
 30
0.0
 11
660.502971
 21
716.348793
 31
0.0
  0
LINE
  5
48D
330
1F
100
AcDbEntity
  8
0
  6
CONTINUOUS
 62
     3
100
AcDbLine
 10
660.502971
 20
716.348793
 30
0.0
 11
658.830082
 21
715.258717
 31
0.0
  0
LINE
  5
48E
330
1F
100
AcDbEntity
  8
0
  6
CONTINUOUS
 62
     3
100
AcDbLine
 10
658.830082
 20
715.258717
 30
0.0
 11
657.353571
 21
714.099888
 31
0.0
  0
LINE
  5
48F
330
1F
100
AcDbEntity
  8
0
  6
CONTINUOUS
 62
     3
100
AcDbLine
 10
657.353571
 20
714.099888
 30
0.0
 11
656.084676
 21
712.881125
 31
0.0
  0
LINE
  5
490
330
1F
100
AcDbEntity
  8
0
  6
CONTINUOUS
 62
     3
100
AcDbLine
 10
656.084676
 20
712.881125
 30
0.0
 11
655.033054
 21
711.611705
 31
0.0
  0
LINE
  5
491
330
1F
100
AcDbEntity
  8
0
  6
CONTINUOUS
 62
     3
100
AcDbLine
 10
655.033054
 20
711.611705
 30
0.0
 11
654.206708
 21
710.301288
 31
0.0
  0
LINE
  5
492
330
1F
100
AcDbEntity
  8
0
  6
CONTINUOUS
 62
     3
100
AcDbLine
 10
654.206708
 20
710.301288
 30
0.0
 11
653.611927
 21
708.959847
 31
0.0
  0
LINE
  5
493
330
1F
100
AcDbEntity
  8
0
  6
CONTINUOUS
 62
     3
100
AcDbLine
 10
653.611927
 20
708.959847
 30
0.0
 11
653.253238
 21
707.597591
 31
0.0
  0
LINE
  5
494
330
1F
100
AcDbEntity
  8
0
  6
CONTINUOUS
 62
     3
100
AcDbLine
 10
653.253238
 20
707.597591
 30
0.0
 11
653.133371
 21
706.224888
 31
0.0
  0
LINE
  5
495
330
1F
100
AcDbEntity
  8
0
  6
CONTINUOUS
 62
     3
100
AcDbLine
 10
716.133371
 20
787.653913
 30
0.0
 11
716.133371
 21
706.224888
 31
0.0
  0
LINE
  5
496
330
1F
100
AcDbEntity
  8
0
  6
CONTINUOUS
 62
     3
100
AcDbLine
 10
653.133371
 20
787.653913
 30
0.0
 11
653.133371
 21
706.224888
 31
0.0
  0
LINE
  5
497
330
1F
100
AcDbEntity
  8
0
  6
CONTINUOUS
 62
     3
100
AcDbLine
 10
706.633371
 20
633.940429
 30
0.0
 11
706.549654
 21
634.899142
 31
0.0
  0
LINE
  5
498
330
1F
100
AcDbEntity
  8
0
  6
CONTINUOUS
 62
     3
100
AcDbLine
 10
706.549654
 20
634.899142
 30
0.0
 11
706.299142
 21
635.850559
 31
0.0
  0
LINE
  5
499
330
1F
100
AcDbEntity
  8
0
  6
CONTINUOUS
 62
     3
100
AcDbLine
 10
706.299142
 20
635.850559
 30
0.0
 11
705.883739
 21
636.787439
 31
0.0
  0
LINE
  5
49A
330
1F
100
AcDbEntity
  8
0
  6
CONTINUOUS
 62
     3
100
AcDbLine
 10
705.883739
 20
636.787439
 30
0.0
 11
705.306609
 21
637.702651
 31
0.0
  0
LINE
  5
49B
330
1F
100
AcDbEntity
  8
0
  6
CONTINUOUS
 62
     3
100
AcDbLine
 10
705.306609
 20
637.702651
 30
0.0
 11
704.572142
 21
638.58923
 31
0.0
  0
LINE
  5
49C
330
1F
100
AcDbEntity
  8
0
  6
CONTINUOUS
 62
     3
100
AcDbLine
 10
704.572142
 20
638.58923
 30
0.0
 11
703.68593
 21
639.440429
 31
0.0
  0
LINE
  5
49D
330
1F
100
AcDbEntity
  8
0
  6
CONTINUOUS
 62
     3
100
AcDbLine
 10
703.68593
 20
639.440429
 30
0.0
 11
702.654716
 21
640.24977
 31
0.0
  0
LINE
  5
49E
330
1F
100
AcDbEntity
  8
0
  6
CONTINUOUS
 62
     3
100
AcDbLine
 10
702.654716
 20
640.24977
 30
0.0
 11
701.486349
 21
641.011093
 31
0.0
  0
LINE
  5
49F
330
1F
100
AcDbEntity
  8
0
  6
CONTINUOUS
 62
     3
100
AcDbLine
 10
701.486349
 20
641.011093
 30
0.0
 11
700.18972
 21
641.718604
 31
0.0
  0
LINE
  5
4A0
330
1F
100
AcDbEntity
  8
0
  6
CONTINUOUS
 62
     3
100
AcDbLine
 10
700.18972
 20
641.718604
 30
0.0
 11
698.774698
 21
642.366918
 31
0.0
  0
LINE
  5
4A1
330
1F
100
AcDbEntity
  8
0
  6
CONTINUOUS
 62
     3
100
AcDbLine
 10
698.774698
 20
642.366918
 30
0.0
 11
697.252053
 21
642.951102
 31
0.0
  0
LINE
  5
4A2
330
1F
100
AcDbEntity
  8
0
  6
CONTINUOUS
 62
     3
100
AcDbLine
 10
697.252053
 20
642.951102
 30
0.0
 11
695.633371
 21
643.466709
 31
0.0
  0
LINE
  5
4A3
330
1F
100
AcDbEntity
  8
0
  6
CONTINUOUS
 62
     3
100
AcDbLine
 10
695.633371
 20
643.466709
 30
0.0
 11
693.930973
 21
643.909815
 31
0.0
  0
LINE
  5
4A4
330
1F
100
AcDbEntity
  8
0
  6
CONTINUOUS
 62
     3
100
AcDbLine
 10
693.930973
 20
643.909815
 30
0.0
 11
692.157814
 21
644.277048
 31
0.0
  0
LINE
  5
4A5
330
1F
100
AcDbEntity
  8
0
  6
CONTINUOUS
 62
     3
100
AcDbLine
 10
692.157814
 20
644.277048
 30
0.0
 11
690.32739
 21
644.565613
 31
0.0
  0
LINE
  5
4A6
330
1F
100
AcDbEntity
  8
0
  6
CONTINUOUS
 62
     3
100
AcDbLine
 10
690.32739
 20
644.565613
 30
0.0
 11
688.453631
 21
644.773315
 31
0.0
  0
LINE
  5
4A7
330
1F
100
AcDbEntity
  8
0
  6
CONTINUOUS
 62
     3
100
AcDbLine
 10
688.453631
 20
644.773315
 30
0.0
 11
686.550797
 21
644.898571
 31
0.0
  0
LINE
  5
4A8
330
1F
100
AcDbEntity
  8
0
  6
CONTINUOUS
 62
     3
100
AcDbLine
 10
686.550797
 20
644.898571
 30
0.0
 11
684.633371
 21
644.940429
 31
0.0
  0
LINE
  5
4A9
330
1F
100
AcDbEntity
  8
0
  6
CONTINUOUS
 62
     3
100
AcDbLine
 10
684.633371
 20
644.940429
 30
0.0
 11
682.715945
 21
644.898571
 31
0.0
  0
LINE
  5
4AA
330
1F
100
AcDbEntity
  8
0
  6
CONTINUOUS
 62
     3
100
AcDbLine
 10
682.715945
 20
644.898571
 30
0.0
 11
680.813111
 21
644.773315
 31
0.0
  0
LINE
  5
4AB
330
1F
100
AcDbEntity
  8
0
  6
CONTINUOUS
 62
     3
100
AcDbLine
 10
680.813111
 20
644.773315
 30
0.0
 11
678.939352
 21
644.565613
 31
0.0
  0
LINE
  5
4AC
330
1F
100
AcDbEntity
  8
0
  6
CONTINUOUS
 62
     3
100
AcDbLine
 10
678.939352
 20
644.565613
 30
0.0
 11
677.108928
 21
644.277048
 31
0.0
  0
LINE
  5
4AD
330
1F
100
AcDbEntity
  8
0
  6
CONTINUOUS
 62
     3
100
AcDbLine
 10
677.108928
 20
644.277048
 30
0.0
 11
675.335769
 21
643.909815
 31
0.0
  0
LINE
  5
4AE
330
1F
100
AcDbEntity
  8
0
  6
CONTINUOUS
 62
     3
100
AcDbLine
 10
675.335769
 20
643.909815
 30
0.0
 11
673.633371
 21
643.466709
 31
0.0
  0
LINE
  5
4AF
330
1F
100
AcDbEntity
  8
0
  6
CONTINUOUS
 62
     3
100
AcDbLine
 10
673.633371
 20
643.466709
 30
0.0
 11
672.014689
 21
642.951102
 31
0.0
  0
LINE
  5
4B0
330
1F
100
AcDbEntity
  8
0
  6
CONTINUOUS
 62
     3
100
AcDbLine
 10
672.014689
 20
642.951102
 30
0.0
 11
670.492044
 21
642.366918
 31
0.0
  0
LINE
  5
4B1
330
1F
100
AcDbEntity
  8
0
  6
CONTINUOUS
 62
     3
100
AcDbLine
 10
670.492044
 20
642.366918
 30
0.0
 11
669.077022
 21
641.718604
 31
0.0
  0
LINE
  5
4B2
330
1F
100
AcDbEntity
  8
0
  6
CONTINUOUS
 62
     3
100
AcDbLine
 10
669.077022
 20
641.718604
 30
0.0
 11
667.780393
 21
641.011093
 31
0.0
  0
LINE
  5
4B3
330
1F
100
AcDbEntity
  8
0
  6
CONTINUOUS
 62
     3
100
AcDbLine
 10
667.780393
 20
641.011093
 30
0.0
 11
666.612026
 21
640.24977
 31
0.0
  0
LINE
  5
4B4
330
1F
100
AcDbEntity
  8
0
  6
CONTINUOUS
 62
     3
100
AcDbLine
 10
666.612026
 20
640.24977
 30
0.0
 11
665.580812
 21
639.440429
 31
0.0
  0
LINE
  5
4B5
330
1F
100
AcDbEntity
  8
0
  6
CONTINUOUS
 62
     3
100
AcDbLine
 10
665.580812
 20
639.440429
 30
0.0
 11
664.6946
 21
638.58923
 31
0.0
  0
LINE
  5
4B6
330
1F
100
AcDbEntity
  8
0
  6
CONTINUOUS
 62
     3
100
AcDbLine
 10
664.6946
 20
638.58923
 30
0.0
 11
663.960133
 21
637.702651
 31
0.0
  0
LINE
  5
4B7
330
1F
100
AcDbEntity
  8
0
  6
CONTINUOUS
 62
     3
100
AcDbLine
 10
663.960133
 20
637.702651
 30
0.0
 11
663.383003
 21
636.787439
 31
0.0
  0
LINE
  5
4B8
330
1F
100
AcDbEntity
  8
0
  6
CONTINUOUS
 62
     3
100
AcDbLine
 10
663.383003
 20
636.787439
 30
0.0
 11
662.967601
 21
635.850559
 31
0.0
  0
LINE
  5
4B9
330
1F
100
AcDbEntity
  8
0
  6
CONTINUOUS
 62
     3
100
AcDbLine
 10
662.967601
 20
635.850559
 30
0.0
 11
662.717088
 21
634.899142
 31
0.0
  0
LINE
  5
4BA
330
1F
100
AcDbEntity
  8
0
  6
CONTINUOUS
 62
     3
100
AcDbLine
 10
662.717088
 20
634.899142
 30
0.0
 11
662.633371
 21
633.940429
 31
0.0
  0
LINE
  5
4BB
330
1F
100
AcDbEntity
  8
0
  6
CONTINUOUS
 62
     3
100
AcDbLine
 10
662.633371
 20
633.940429
 30
0.0
 11
662.717088
 21
632.981716
 31
0.0
  0
LINE
  5
4BC
330
1F
100
AcDbEntity
  8
0
  6
CONTINUOUS
 62
     3
100
AcDbLine
 10
662.717088
 20
632.981716
 30
0.0
 11
662.967601
 21
632.030299
 31
0.0
  0
LINE
  5
4BD
330
1F
100
AcDbEntity
  8
0
  6
CONTINUOUS
 62
     3
100
AcDbLine
 10
662.967601
 20
632.030299
 30
0.0
 11
663.383003
 21
631.09342
 31
0.0
  0
LINE
  5
4BE
330
1F
100
AcDbEntity
  8
0
  6
CONTINUOUS
 62
     3
100
AcDbLine
 10
663.383003
 20
631.09342
 30
0.0
 11
663.960133
 21
630.178208
 31
0.0
  0
LINE
  5
4BF
330
1F
100
AcDbEntity
  8
0
  6
CONTINUOUS
 62
     3
100
AcDbLine
 10
663.960133
 20
630.178208
 30
0.0
 11
664.6946
 21
629.291628
 31
0.0
  0
LINE
  5
4C0
330
1F
100
AcDbEntity
  8
0
  6
CONTINUOUS
 62
     3
100
AcDbLine
 10
664.6946
 20
629.291628
 30
0.0
 11
665.580812
 21
628.440429
 31
0.0
  0
LINE
  5
4C1
330
1F
100
AcDbEntity
  8
0
  6
CONTINUOUS
 62
     3
100
AcDbLine
 10
665.580812
 20
628.440429
 30
0.0
 11
666.612026
 21
627.631089
 31
0.0
  0
LINE
  5
4C2
330
1F
100
AcDbEntity
  8
0
  6
CONTINUOUS
 62
     3
100
AcDbLine
 10
666.612026
 20
627.631089
 30
0.0
 11
667.780393
 21
626.869766
 31
0.0
  0
LINE
  5
4C3
330
1F
100
AcDbEntity
  8
0
  6
CONTINUOUS
 62
     3
100
AcDbLine
 10
667.780393
 20
626.869766
 30
0.0
 11
669.077022
 21
626.162255
 31
0.0
  0
LINE
  5
4C4
330
1F
100
AcDbEntity
  8
0
  6
CONTINUOUS
 62
     3
100
AcDbLine
 10
669.077022
 20
626.162255
 30
0.0
 11
670.492044
 21
625.51394
 31
0.0
  0
LINE
  5
4C5
330
1F
100
AcDbEntity
  8
0
  6
CONTINUOUS
 62
     3
100
AcDbLine
 10
670.492044
 20
625.51394
 30
0.0
 11
672.014689
 21
624.929757
 31
0.0
  0
LINE
  5
4C6
330
1F
100
AcDbEntity
  8
0
  6
CONTINUOUS
 62
     3
100
AcDbLine
 10
672.014689
 20
624.929757
 30
0.0
 11
673.633371
 21
624.41415
 31
0.0
  0
LINE
  5
4C7
330
1F
100
AcDbEntity
  8
0
  6
CONTINUOUS
 62
     3
100
AcDbLine
 10
673.633371
 20
624.41415
 30
0.0
 11
675.335769
 21
623.971044
 31
0.0
  0
LINE
  5
4C8
330
1F
100
AcDbEntity
  8
0
  6
CONTINUOUS
 62
     3
100
AcDbLine
 10
675.335769
 20
623.971044
 30
0.0
 11
677.108928
 21
623.60381
 31
0.0
  0
LINE
  5
4C9
330
1F
100
AcDbEntity
  8
0
  6
CONTINUOUS
 62
     3
100
AcDbLine
 10
692.157814
 20
623.60381
 30
0.0
 11
693.930973
 21
623.971044
 31
0.0
  0
LINE
  5
4CA
330
1F
100
AcDbEntity
  8
0
  6
CONTINUOUS
 62
     3
100
AcDbLine
 10
693.930973
 20
623.971044
 30
0.0
 11
695.633371
 21
624.41415
 31
0.0
  0
LINE
  5
4CB
330
1F
100
AcDbEntity
  8
0
  6
CONTINUOUS
 62
     3
100
AcDbLine
 10
695.633371
 20
624.41415
 30
0.0
 11
697.252053
 21
624.929757
 31
0.0
  0
LINE
  5
4CC
330
1F
100
AcDbEntity
  8
0
  6
CONTINUOUS
 62
     3
100
AcDbLine
 10
697.252053
 20
624.929757
 30
0.0
 11
698.774698
 21
625.51394
 31
0.0
  0
LINE
  5
4CD
330
1F
100
AcDbEntity
  8
0
  6
CONTINUOUS
 62
     3
100
AcDbLine
 10
698.774698
 20
625.51394
 30
0.0
 11
700.18972
 21
626.162255
 31
0.0
  0
LINE
  5
4CE
330
1F
100
AcDbEntity
  8
0
  6
CONTINUOUS
 62
     3
100
AcDbLine
 10
700.18972
 20
626.162255
 30
0.0
 11
701.486349
 21
626.869766
 31
0.0
  0
LINE
  5
4CF
330
1F
100
AcDbEntity
  8
0
  6
CONTINUOUS
 62
     3
100
AcDbLine
 10
701.486349
 20
626.869766
 30
0.0
 11
702.654716
 21
627.631089
 31
0.0
  0
LINE
  5
4D0
330
1F
100
AcDbEntity
  8
0
  6
CONTINUOUS
 62
     3
100
AcDbLine
 10
702.654716
 20
627.631089
 30
0.0
 11
703.68593
 21
628.440429
 31
0.0
  0
LINE
  5
4D1
330
1F
100
AcDbEntity
  8
0
  6
CONTINUOUS
 62
     3
100
AcDbLine
 10
703.68593
 20
628.440429
 30
0.0
 11
704.572142
 21
629.291628
 31
0.0
  0
LINE
  5
4D2
330
1F
100
AcDbEntity
  8
0
  6
CONTINUOUS
 62
     3
100
AcDbLine
 10
704.572142
 20
629.291628
 30
0.0
 11
705.306609
 21
630.178208
 31
0.0
  0
LINE
  5
4D3
330
1F
100
AcDbEntity
  8
0
  6
CONTINUOUS
 62
     3
100
AcDbLine
 10
705.306609
 20
630.178208
 30
0.0
 11
705.883739
 21
631.09342
 31
0.0
  0
LINE
  5
4D4
330
1F
100
AcDbEntity
  8
0
  6
CONTINUOUS
 62
     3
100
AcDbLine
 10
705.883739
 20
631.09342
 30
0.0
 11
706.299142
 21
632.030299
 31
0.0
  0
LINE
  5
4D5
330
1F
100
AcDbEntity
  8
0
  6
CONTINUOUS
 62
     3
100
AcDbLine
 10
706.299142
 20
632.030299
 30
0.0
 11
706.549654
 21
632.981716
 31
0.0
  0
LINE
  5
4D6
330
1F
100
AcDbEntity
  8
0
  6
CONTINUOUS
 62
     3
100
AcDbLine
 10
706.549654
 20
632.981716
 30
0.0
 11
706.633371
 21
633.940429
 31
0.0
  0
LINE
  5
4D7
330
1F
100
AcDbEntity
  8
0
  6
CONTINUOUS
 62
     3
100
AcDbLine
 10
706.633371
 20
656.583673
 30
0.0
 11
706.549654
 21
657.542386
 31
0.0
  0
LINE
  5
4D8
330
1F
100
AcDbEntity
  8
0
  6
CONTINUOUS
 62
     3
100
AcDbLine
 10
706.549654
 20
657.542386
 30
0.0
 11
706.299142
 21
658.493803
 31
0.0
  0
LINE
  5
4D9
330
1F
100
AcDbEntity
  8
0
  6
CONTINUOUS
 62
     3
100
AcDbLine
 10
706.299142
 20
658.493803
 30
0.0
 11
705.883739
 21
659.430682
 31
0.0
  0
LINE
  5
4DA
330
1F
100
AcDbEntity
  8
0
  6
CONTINUOUS
 62
     3
100
AcDbLine
 10
705.883739
 20
659.430682
 30
0.0
 11
705.306609
 21
660.345894
 31
0.0
  0
LINE
  5
4DB
330
1F
100
AcDbEntity
  8
0
  6
CONTINUOUS
 62
     3
100
AcDbLine
 10
705.306609
 20
660.345894
 30
0.0
 11
704.572142
 21
661.232474
 31
0.0
  0
LINE
  5
4DC
330
1F
100
AcDbEntity
  8
0
  6
CONTINUOUS
 62
     3
100
AcDbLine
 10
704.572142
 20
661.232474
 30
0.0
 11
703.68593
 21
662.083673
 31
0.0
  0
LINE
  5
4DD
330
1F
100
AcDbEntity
  8
0
  6
CONTINUOUS
 62
     3
100
AcDbLine
 10
703.68593
 20
662.083673
 30
0.0
 11
702.654716
 21
662.893013
 31
0.0
  0
LINE
  5
4DE
330
1F
100
AcDbEntity
  8
0
  6
CONTINUOUS
 62
     3
100
AcDbLine
 10
702.654716
 20
662.893013
 30
0.0
 11
701.486349
 21
663.654336
 31
0.0
  0
LINE
  5
4DF
330
1F
100
AcDbEntity
  8
0
  6
CONTINUOUS
 62
     3
100
AcDbLine
 10
701.486349
 20
663.654336
 30
0.0
 11
700.18972
 21
664.361847
 31
0.0
  0
LINE
  5
4E0
330
1F
100
AcDbEntity
  8
0
  6
CONTINUOUS
 62
     3
100
AcDbLine
 10
700.18972
 20
664.361847
 30
0.0
 11
698.774698
 21
665.010161
 31
0.0
  0
LINE
  5
4E1
330
1F
100
AcDbEntity
  8
0
  6
CONTINUOUS
 62
     3
100
AcDbLine
 10
698.774698
 20
665.010161
 30
0.0
 11
697.252053
 21
665.594345
 31
0.0
  0
LINE
  5
4E2
330
1F
100
AcDbEntity
  8
0
  6
CONTINUOUS
 62
     3
100
AcDbLine
 10
697.252053
 20
665.594345
 30
0.0
 11
695.633371
 21
666.109952
 31
0.0
  0
LINE
  5
4E3
330
1F
100
AcDbEntity
  8
0
  6
CONTINUOUS
 62
     3
100
AcDbLine
 10
695.633371
 20
666.109952
 30
0.0
 11
693.930973
 21
666.553058
 31
0.0
  0
LINE
  5
4E4
330
1F
100
AcDbEntity
  8
0
  6
CONTINUOUS
 62
     3
100
AcDbLine
 10
693.930973
 20
666.553058
 30
0.0
 11
692.157814
 21
666.920291
 31
0.0
  0
LINE
  5
4E5
330
1F
100
AcDbEntity
  8
0
  6
CONTINUOUS
 62
     3
100
AcDbLine
 10
692.157814
 20
666.920291
 30
0.0
 11
690.32739
 21
667.208857
 31
0.0
  0
LINE
  5
4E6
330
1F
100
AcDbEntity
  8
0
  6
CONTINUOUS
 62
     3
100
AcDbLine
 10
690.32739
 20
667.208857
 30
0.0
 11
688.453631
 21
667.416558
 31
0.0
  0
LINE
  5
4E7
330
1F
100
AcDbEntity
  8
0
  6
CONTINUOUS
 62
     3
100
AcDbLine
 10
688.453631
 20
667.416558
 30
0.0
 11
686.550797
 21
667.541814
 31
0.0
  0
LINE
  5
4E8
330
1F
100
AcDbEntity
  8
0
  6
CONTINUOUS
 62
     3
100
AcDbLine
 10
686.550797
 20
667.541814
 30
0.0
 11
684.633371
 21
667.583673
 31
0.0
  0
LINE
  5
4E9
330
1F
100
AcDbEntity
  8
0
  6
CONTINUOUS
 62
     3
100
AcDbLine
 10
684.633371
 20
667.583673
 30
0.0
 11
682.715945
 21
667.541814
 31
0.0
  0
LINE
  5
4EA
330
1F
100
AcDbEntity
  8
0
  6
CONTINUOUS
 62
     3
100
AcDbLine
 10
682.715945
 20
667.541814
 30
0.0
 11
680.813111
 21
667.416558
 31
0.0
  0
LINE
  5
4EB
330
1F
100
AcDbEntity
  8
0
  6
CONTINUOUS
 62
     3
100
AcDbLine
 10
680.813111
 20
667.416558
 30
0.0
 11
678.939352
 21
667.208857
 31
0.0
  0
LINE
  5
4EC
330
1F
100
AcDbEntity
  8
0
  6
CONTINUOUS
 62
     3
100
AcDbLine
 10
678.939352
 20
667.208857
 30
0.0
 11
677.108928
 21
666.920291
 31
0.0
  0
LINE
  5
4ED
330
1F
100
AcDbEntity
  8
0
  6
CONTINUOUS
 62
     3
100
AcDbLine
 10
677.108928
 20
666.920291
 30
0.0
 11
675.335769
 21
666.553058
 31
0.0
  0
LINE
  5
4EE
330
1F
100
AcDbEntity
  8
0
  6
CONTINUOUS
 62
     3
100
AcDbLine
 10
675.335769
 20
666.553058
 30
0.0
 11
673.633371
 21
666.109952
 31
0.0
  0
LINE
  5
4EF
330
1F
100
AcDbEntity
  8
0
  6
CONTINUOUS
 62
     3
100
AcDbLine
 10
673.633371
 20
666.109952
 30
0.0
 11
672.014689
 21
665.594345
 31
0.0
  0
LINE
  5
4F0
330
1F
100
AcDbEntity
  8
0
  6
CONTINUOUS
 62
     3
100
AcDbLine
 10
672.014689
 20
665.594345
 30
0.0
 11
670.492044
 21
665.010161
 31
0.0
  0
LINE
  5
4F1
330
1F
100
AcDbEntity
  8
0
  6
CONTINUOUS
 62
     3
100
AcDbLine
 10
670.492044
 20
665.010161
 30
0.0
 11
669.077022
 21
664.361847
 31
0.0
  0
LINE
  5
4F2
330
1F
100
AcDbEntity
  8
0
  6
CONTINUOUS
 62
     3
100
AcDbLine
 10
669.077022
 20
664.361847
 30
0.0
 11
667.780393
 21
663.654336
 31
0.0
  0
LINE
  5
4F3
330
1F
100
AcDbEntity
  8
0
  6
CONTINUOUS
 62
     3
100
AcDbLine
 10
667.780393
 20
663.654336
 30
0.0
 11
666.612026
 21
662.893013
 31
0.0
  0
LINE
  5
4F4
330
1F
100
AcDbEntity
  8
0
  6
CONTINUOUS
 62
     3
100
AcDbLine
 10
666.612026
 20
662.893013
 30
0.0
 11
665.580812
 21
662.083673
 31
0.0
  0
LINE
  5
4F5
330
1F
100
AcDbEntity
  8
0
  6
CONTINUOUS
 62
     3
100
AcDbLine
 10
665.580812
 20
662.083673
 30
0.0
 11
664.6946
 21
661.232474
 31
0.0
  0
LINE
  5
4F6
330
1F
100
AcDbEntity
  8
0
  6
CONTINUOUS
 62
     3
100
AcDbLine
 10
664.6946
 20
661.232474
 30
0.0
 11
663.960133
 21
660.345894
 31
0.0
  0
LINE
  5
4F7
330
1F
100
AcDbEntity
  8
0
  6
CONTINUOUS
 62
     3
100
AcDbLine
 10
663.960133
 20
660.345894
 30
0.0
 11
663.383003
 21
659.430682
 31
0.0
  0
LINE
  5
4F8
330
1F
100
AcDbEntity
  8
0
  6
CONTINUOUS
 62
     3
100
AcDbLine
 10
663.383003
 20
659.430682
 30
0.0
 11
662.967601
 21
658.493803
 31
0.0
  0
LINE
  5
4F9
330
1F
100
AcDbEntity
  8
0
  6
CONTINUOUS
 62
     3
100
AcDbLine
 10
662.967601
 20
658.493803
 30
0.0
 11
662.717088
 21
657.542386
 31
0.0
  0
LINE
  5
4FA
330
1F
100
AcDbEntity
  8
0
  6
CONTINUOUS
 62
     3
100
AcDbLine
 10
662.717088
 20
657.542386
 30
0.0
 11
662.633371
 21
656.583673
 31
0.0
  0
LINE
  5
4FB
330
1F
100
AcDbEntity
  8
0
  6
CONTINUOUS
 62
     3
100
AcDbLine
 10
689.633371
 20
623.925077
 30
0.0
 11
689.614345
 21
624.142967
 31
0.0
  0
LINE
  5
4FC
330
1F
100
AcDbEntity
  8
0
  6
CONTINUOUS
 62
     3
100
AcDbLine
 10
689.614345
 20
624.142967
 30
0.0
 11
689.55741
 21
624.359198
 31
0.0
  0
LINE
  5
4FD
330
1F
100
AcDbEntity
  8
0
  6
CONTINUOUS
 62
     3
100
AcDbLine
 10
689.55741
 20
624.359198
 30
0.0
 11
689.463
 21
624.572125
 31
0.0
  0
LINE
  5
4FE
330
1F
100
AcDbEntity
  8
0
  6
CONTINUOUS
 62
     3
100
AcDbLine
 10
689.463
 20
624.572125
 30
0.0
 11
689.331834
 21
624.780128
 31
0.0
  0
LINE
  5
4FF
330
1F
100
AcDbEntity
  8
0
  6
CONTINUOUS
 62
     3
100
AcDbLine
 10
689.331834
 20
624.780128
 30
0.0
 11
689.16491
 21
624.981623
 31
0.0
  0
LINE
  5
500
330
1F
100
AcDbEntity
  8
0
  6
CONTINUOUS
 62
     3
100
AcDbLine
 10
689.16491
 20
624.981623
 30
0.0
 11
688.963498
 21
625.175077
 31
0.0
  0
LINE
  5
501
330
1F
100
AcDbEntity
  8
0
  6
CONTINUOUS
 62
     3
100
AcDbLine
 10
688.963498
 20
625.175077
 30
0.0
 11
688.729131
 21
625.359018
 31
0.0
  0
LINE
  5
502
330
1F
100
AcDbEntity
  8
0
  6
CONTINUOUS
 62
     3
100
AcDbLine
 10
688.729131
 20
625.359018
 30
0.0
 11
688.463593
 21
625.532046
 31
0.0
  0
LINE
  5
503
330
1F
100
AcDbEntity
  8
0
  6
CONTINUOUS
 62
     3
100
AcDbLine
 10
688.463593
 20
625.532046
 30
0.0
 11
688.168905
 21
625.692844
 31
0.0
  0
LINE
  5
504
330
1F
100
AcDbEntity
  8
0
  6
CONTINUOUS
 62
     3
100
AcDbLine
 10
688.168905
 20
625.692844
 30
0.0
 11
687.847309
 21
625.840188
 31
0.0
  0
LINE
  5
505
330
1F
100
AcDbEntity
  8
0
  6
CONTINUOUS
 62
     3
100
AcDbLine
 10
687.847309
 20
625.840188
 30
0.0
 11
687.501253
 21
625.972957
 31
0.0
  0
LINE
  5
506
330
1F
100
AcDbEntity
  8
0
  6
CONTINUOUS
 62
     3
100
AcDbLine
 10
687.501253
 20
625.972957
 30
0.0
 11
687.133371
 21
626.090141
 31
0.0
  0
LINE
  5
507
330
1F
100
AcDbEntity
  8
0
  6
CONTINUOUS
 62
     3
100
AcDbLine
 10
687.133371
 20
626.090141
 30
0.0
 11
686.746462
 21
626.190847
 31
0.0
  0
LINE
  5
508
330
1F
100
AcDbEntity
  8
0
  6
CONTINUOUS
 62
     3
100
AcDbLine
 10
686.746462
 20
626.190847
 30
0.0
 11
686.343472
 21
626.274309
 31
0.0
  0
LINE
  5
509
330
1F
100
AcDbEntity
  8
0
  6
CONTINUOUS
 62
     3
100
AcDbLine
 10
686.343472
 20
626.274309
 30
0.0
 11
685.927466
 21
626.339892
 31
0.0
  0
LINE
  5
50A
330
1F
100
AcDbEntity
  8
0
  6
CONTINUOUS
 62
     3
100
AcDbLine
 10
685.927466
 20
626.339892
 30
0.0
 11
685.501612
 21
626.387097
 31
0.0
  0
LINE
  5
50B
330
1F
100
AcDbEntity
  8
0
  6
CONTINUOUS
 62
     3
100
AcDbLine
 10
685.501612
 20
626.387097
 30
0.0
 11
685.06915
 21
626.415564
 31
0.0
  0
LINE
  5
50C
330
1F
100
AcDbEntity
  8
0
  6
CONTINUOUS
 62
     3
100
AcDbLine
 10
685.06915
 20
626.415564
 30
0.0
 11
684.633371
 21
626.425077
 31
0.0
  0
LINE
  5
50D
330
1F
100
AcDbEntity
  8
0
  6
CONTINUOUS
 62
     3
100
AcDbLine
 10
684.633371
 20
626.425077
 30
0.0
 11
684.197592
 21
626.415564
 31
0.0
  0
LINE
  5
50E
330
1F
100
AcDbEntity
  8
0
  6
CONTINUOUS
 62
     3
100
AcDbLine
 10
684.197592
 20
626.415564
 30
0.0
 11
683.76513
 21
626.387097
 31
0.0
  0
LINE
  5
50F
330
1F
100
AcDbEntity
  8
0
  6
CONTINUOUS
 62
     3
100
AcDbLine
 10
683.76513
 20
626.387097
 30
0.0
 11
683.339276
 21
626.339892
 31
0.0
  0
LINE
  5
510
330
1F
100
AcDbEntity
  8
0
  6
CONTINUOUS
 62
     3
100
AcDbLine
 10
683.339276
 20
626.339892
 30
0.0
 11
682.92327
 21
626.274309
 31
0.0
  0
LINE
  5
511
330
1F
100
AcDbEntity
  8
0
  6
CONTINUOUS
 62
     3
100
AcDbLine
 10
682.92327
 20
626.274309
 30
0.0
 11
682.52028
 21
626.190847
 31
0.0
  0
LINE
  5
512
330
1F
100
AcDbEntity
  8
0
  6
CONTINUOUS
 62
     3
100
AcDbLine
 10
682.52028
 20
626.190847
 30
0.0
 11
682.133371
 21
626.090141
 31
0.0
  0
LINE
  5
513
330
1F
100
AcDbEntity
  8
0
  6
CONTINUOUS
 62
     3
100
AcDbLine
 10
682.133371
 20
626.090141
 30
0.0
 11
681.765489
 21
625.972957
 31
0.0
  0
LINE
  5
514
330
1F
100
AcDbEntity
  8
0
  6
CONTINUOUS
 62
     3
100
AcDbLine
 10
681.765489
 20
625.972957
 30
0.0
 11
681.419433
 21
625.840188
 31
0.0
  0
LINE
  5
515
330
1F
100
AcDbEntity
  8
0
  6
CONTINUOUS
 62
     3
100
AcDbLine
 10
681.419433
 20
625.840188
 30
0.0
 11
681.097837
 21
625.692844
 31
0.0
  0
LINE
  5
516
330
1F
100
AcDbEntity
  8
0
  6
CONTINUOUS
 62
     3
100
AcDbLine
 10
681.097837
 20
625.692844
 30
0.0
 11
680.803149
 21
625.532046
 31
0.0
  0
LINE
  5
517
330
1F
100
AcDbEntity
  8
0
  6
CONTINUOUS
 62
     3
100
AcDbLine
 10
680.803149
 20
625.532046
 30
0.0
 11
680.537611
 21
625.359018
 31
0.0
  0
LINE
  5
518
330
1F
100
AcDbEntity
  8
0
  6
CONTINUOUS
 62
     3
100
AcDbLine
 10
680.537611
 20
625.359018
 30
0.0
 11
680.303244
 21
625.175077
 31
0.0
  0
LINE
  5
519
330
1F
100
AcDbEntity
  8
0
  6
CONTINUOUS
 62
     3
100
AcDbLine
 10
680.303244
 20
625.175077
 30
0.0
 11
680.101832
 21
624.981623
 31
0.0
  0
LINE
  5
51A
330
1F
100
AcDbEntity
  8
0
  6
CONTINUOUS
 62
     3
100
AcDbLine
 10
680.101832
 20
624.981623
 30
0.0
 11
679.934908
 21
624.780128
 31
0.0
  0
LINE
  5
51B
330
1F
100
AcDbEntity
  8
0
  6
CONTINUOUS
 62
     3
100
AcDbLine
 10
679.934908
 20
624.780128
 30
0.0
 11
679.803742
 21
624.572125
 31
0.0
  0
LINE
  5
51C
330
1F
100
AcDbEntity
  8
0
  6
CONTINUOUS
 62
     3
100
AcDbLine
 10
679.803742
 20
624.572125
 30
0.0
 11
679.709332
 21
624.359198
 31
0.0
  0
LINE
  5
51D
330
1F
100
AcDbEntity
  8
0
  6
CONTINUOUS
 62
     3
100
AcDbLine
 10
679.709332
 20
624.359198
 30
0.0
 11
679.652398
 21
624.142967
 31
0.0
  0
LINE
  5
51E
330
1F
100
AcDbEntity
  8
0
  6
CONTINUOUS
 62
     3
100
AcDbLine
 10
679.652398
 20
624.142967
 30
0.0
 11
679.633371
 21
623.925077
 31
0.0
  0
LINE
  5
51F
330
1F
100
AcDbEntity
  8
0
  6
CONTINUOUS
 62
     3
100
AcDbLine
 10
679.633371
 20
623.925077
 30
0.0
 11
679.652398
 21
623.707188
 31
0.0
  0
LINE
  5
520
330
1F
100
AcDbEntity
  8
0
  6
CONTINUOUS
 62
     3
100
AcDbLine
 10
679.652398
 20
623.707188
 30
0.0
 11
679.709332
 21
623.490957
 31
0.0
  0
LINE
  5
521
330
1F
100
AcDbEntity
  8
0
  6
CONTINUOUS
 62
     3
100
AcDbLine
 10
679.709332
 20
623.490957
 30
0.0
 11
679.803742
 21
623.27803
 31
0.0
  0
LINE
  5
522
330
1F
100
AcDbEntity
  8
0
  6
CONTINUOUS
 62
     3
100
AcDbLine
 10
679.803742
 20
623.27803
 30
0.0
 11
679.934908
 21
623.070027
 31
0.0
  0
LINE
  5
523
330
1F
100
AcDbEntity
  8
0
  6
CONTINUOUS
 62
     3
100
AcDbLine
 10
679.934908
 20
623.070027
 30
0.0
 11
680.101832
 21
622.868532
 31
0.0
  0
LINE
  5
524
330
1F
100
AcDbEntity
  8
0
  6
CONTINUOUS
 62
     3
100
AcDbLine
 10
680.101832
 20
622.868532
 30
0.0
 11
680.303244
 21
622.675077
 31
0.0
  0
LINE
  5
525
330
1F
100
AcDbEntity
  8
0
  6
CONTINUOUS
 62
     3
100
AcDbLine
 10
680.303244
 20
622.675077
 30
0.0
 11
680.537611
 21
622.491136
 31
0.0
  0
LINE
  5
526
330
1F
100
AcDbEntity
  8
0
  6
CONTINUOUS
 62
     3
100
AcDbLine
 10
680.537611
 20
622.491136
 30
0.0
 11
680.803149
 21
622.318108
 31
0.0
  0
LINE
  5
527
330
1F
100
AcDbEntity
  8
0
  6
CONTINUOUS
 62
     3
100
AcDbLine
 10
680.803149
 20
622.318108
 30
0.0
 11
681.097837
 21
622.15731
 31
0.0
  0
LINE
  5
528
330
1F
100
AcDbEntity
  8
0
  6
CONTINUOUS
 62
     3
100
AcDbLine
 10
681.097837
 20
622.15731
 30
0.0
 11
681.419433
 21
622.009966
 31
0.0
  0
LINE
  5
529
330
1F
100
AcDbEntity
  8
0
  6
CONTINUOUS
 62
     3
100
AcDbLine
 10
681.419433
 20
622.009966
 30
0.0
 11
681.765489
 21
621.877197
 31
0.0
  0
LINE
  5
52A
330
1F
100
AcDbEntity
  8
0
  6
CONTINUOUS
 62
     3
100
AcDbLine
 10
681.765489
 20
621.877197
 30
0.0
 11
682.133371
 21
621.760014
 31
0.0
  0
LINE
  5
52B
330
1F
100
AcDbEntity
  8
0
  6
CONTINUOUS
 62
     3
100
AcDbLine
 10
682.133371
 20
621.760014
 30
0.0
 11
682.52028
 21
621.659308
 31
0.0
  0
LINE
  5
52C
330
1F
100
AcDbEntity
  8
0
  6
CONTINUOUS
 62
     3
100
AcDbLine
 10
682.52028
 20
621.659308
 30
0.0
 11
682.92327
 21
621.575846
 31
0.0
  0
LINE
  5
52D
330
1F
100
AcDbEntity
  8
0
  6
CONTINUOUS
 62
     3
100
AcDbLine
 10
682.92327
 20
621.575846
 30
0.0
 11
683.339276
 21
621.510263
 31
0.0
  0
LINE
  5
52E
330
1F
100
AcDbEntity
  8
0
  6
CONTINUOUS
 62
     3
100
AcDbLine
 10
683.339276
 20
621.510263
 30
0.0
 11
683.76513
 21
621.463058
 31
0.0
  0
LINE
  5
52F
330
1F
100
AcDbEntity
  8
0
  6
CONTINUOUS
 62
     3
100
AcDbLine
 10
683.76513
 20
621.463058
 30
0.0
 11
684.197592
 21
621.434591
 31
0.0
  0
LINE
  5
530
330
1F
100
AcDbEntity
  8
0
  6
CONTINUOUS
 62
     3
100
AcDbLine
 10
684.197592
 20
621.434591
 30
0.0
 11
684.633371
 21
621.425077
 31
0.0
  0
LINE
  5
531
330
1F
100
AcDbEntity
  8
0
  6
CONTINUOUS
 62
     3
100
AcDbLine
 10
684.633371
 20
621.425077
 30
0.0
 11
685.06915
 21
621.434591
 31
0.0
  0
LINE
  5
532
330
1F
100
AcDbEntity
  8
0
  6
CONTINUOUS
 62
     3
100
AcDbLine
 10
685.06915
 20
621.434591
 30
0.0
 11
685.501612
 21
621.463058
 31
0.0
  0
LINE
  5
533
330
1F
100
AcDbEntity
  8
0
  6
CONTINUOUS
 62
     3
100
AcDbLine
 10
685.501612
 20
621.463058
 30
0.0
 11
685.927466
 21
621.510263
 31
0.0
  0
LINE
  5
534
330
1F
100
AcDbEntity
  8
0
  6
CONTINUOUS
 62
     3
100
AcDbLine
 10
685.927466
 20
621.510263
 30
0.0
 11
686.343472
 21
621.575846
 31
0.0
  0
LINE
  5
535
330
1F
100
AcDbEntity
  8
0
  6
CONTINUOUS
 62
     3
100
AcDbLine
 10
686.343472
 20
621.575846
 30
0.0
 11
686.746462
 21
621.659308
 31
0.0
  0
LINE
  5
536
330
1F
100
AcDbEntity
  8
0
  6
CONTINUOUS
 62
     3
100
AcDbLine
 10
686.746462
 20
621.659308
 30
0.0
 11
687.133371
 21
621.760014
 31
0.0
  0
LINE
  5
537
330
1F
100
AcDbEntity
  8
0
  6
CONTINUOUS
 62
     3
100
AcDbLine
 10
687.133371
 20
621.760014
 30
0.0
 11
687.501253
 21
621.877197
 31
0.0
  0
LINE
  5
538
330
1F
100
AcDbEntity
  8
0
  6
CONTINUOUS
 62
     3
100
AcDbLine
 10
687.501253
 20
621.877197
 30
0.0
 11
687.847309
 21
622.009966
 31
0.0
  0
LINE
  5
539
330
1F
100
AcDbEntity
  8
0
  6
CONTINUOUS
 62
     3
100
AcDbLine
 10
687.847309
 20
622.009966
 30
0.0
 11
688.168905
 21
622.15731
 31
0.0
  0
LINE
  5
53A
330
1F
100
AcDbEntity
  8
0
  6
CONTINUOUS
 62
     3
100
AcDbLine
 10
688.168905
 20
622.15731
 30
0.0
 11
688.463593
 21
622.318108
 31
0.0
  0
LINE
  5
53B
330
1F
100
AcDbEntity
  8
0
  6
CONTINUOUS
 62
     3
100
AcDbLine
 10
688.463593
 20
622.318108
 30
0.0
 11
688.729131
 21
622.491136
 31
0.0
  0
LINE
  5
53C
330
1F
100
AcDbEntity
  8
0
  6
CONTINUOUS
 62
     3
100
AcDbLine
 10
688.729131
 20
622.491136
 30
0.0
 11
688.963498
 21
622.675077
 31
0.0
  0
LINE
  5
53D
330
1F
100
AcDbEntity
  8
0
  6
CONTINUOUS
 62
     3
100
AcDbLine
 10
688.963498
 20
622.675077
 30
0.0
 11
689.16491
 21
622.868532
 31
0.0
  0
LINE
  5
53E
330
1F
100
AcDbEntity
  8
0
  6
CONTINUOUS
 62
     3
100
AcDbLine
 10
689.16491
 20
622.868532
 30
0.0
 11
689.331834
 21
623.070027
 31
0.0
  0
LINE
  5
53F
330
1F
100
AcDbEntity
  8
0
  6
CONTINUOUS
 62
     3
100
AcDbLine
 10
689.331834
 20
623.070027
 30
0.0
 11
689.463
 21
623.27803
 31
0.0
  0
LINE
  5
540
330
1F
100
AcDbEntity
  8
0
  6
CONTINUOUS
 62
     3
100
AcDbLine
 10
689.463
 20
623.27803
 30
0.0
 11
689.55741
 21
623.490957
 31
0.0
  0
LINE
  5
541
330
1F
100
AcDbEntity
  8
0
  6
CONTINUOUS
 62
     3
100
AcDbLine
 10
689.55741
 20
623.490957
 30
0.0
 11
689.614345
 21
623.707188
 31
0.0
  0
LINE
  5
542
330
1F
100
AcDbEntity
  8
0
  6
CONTINUOUS
 62
     3
100
AcDbLine
 10
689.614345
 20
623.707188
 30
0.0
 11
689.633371
 21
623.925077
 31
0.0
  0
LINE
  5
543
330
1F
100
AcDbEntity
  8
0
  6
CONTINUOUS
 62
     3
100
AcDbLine
 10
689.633371
 20
626.102333
 30
0.0
 11
689.614345
 21
626.320222
 31
0.0
  0
LINE
  5
544
330
1F
100
AcDbEntity
  8
0
  6
CONTINUOUS
 62
     3
100
AcDbLine
 10
689.614345
 20
626.320222
 30
0.0
 11
689.55741
 21
626.536453
 31
0.0
  0
LINE
  5
545
330
1F
100
AcDbEntity
  8
0
  6
CONTINUOUS
 62
     3
100
AcDbLine
 10
689.55741
 20
626.536453
 30
0.0
 11
689.463
 21
626.74938
 31
0.0
  0
LINE
  5
546
330
1F
100
AcDbEntity
  8
0
  6
CONTINUOUS
 62
     3
100
AcDbLine
 10
689.463
 20
626.74938
 30
0.0
 11
689.331834
 21
626.957383
 31
0.0
  0
LINE
  5
547
330
1F
100
AcDbEntity
  8
0
  6
CONTINUOUS
 62
     3
100
AcDbLine
 10
689.331834
 20
626.957383
 30
0.0
 11
689.16491
 21
627.158878
 31
0.0
  0
LINE
  5
548
330
1F
100
AcDbEntity
  8
0
  6
CONTINUOUS
 62
     3
100
AcDbLine
 10
689.16491
 20
627.158878
 30
0.0
 11
688.963498
 21
627.352333
 31
0.0
  0
LINE
  5
549
330
1F
100
AcDbEntity
  8
0
  6
CONTINUOUS
 62
     3
100
AcDbLine
 10
688.963498
 20
627.352333
 30
0.0
 11
688.729131
 21
627.536274
 31
0.0
  0
LINE
  5
54A
330
1F
100
AcDbEntity
  8
0
  6
CONTINUOUS
 62
     3
100
AcDbLine
 10
688.729131
 20
627.536274
 30
0.0
 11
688.463593
 21
627.709302
 31
0.0
  0
LINE
  5
54B
330
1F
100
AcDbEntity
  8
0
  6
CONTINUOUS
 62
     3
100
AcDbLine
 10
688.463593
 20
627.709302
 30
0.0
 11
688.168905
 21
627.8701
 31
0.0
  0
LINE
  5
54C
330
1F
100
AcDbEntity
  8
0
  6
CONTINUOUS
 62
     3
100
AcDbLine
 10
688.168905
 20
627.8701
 30
0.0
 11
687.847309
 21
628.017444
 31
0.0
  0
LINE
  5
54D
330
1F
100
AcDbEntity
  8
0
  6
CONTINUOUS
 62
     3
100
AcDbLine
 10
687.847309
 20
628.017444
 30
0.0
 11
687.501253
 21
628.150213
 31
0.0
  0
LINE
  5
54E
330
1F
100
AcDbEntity
  8
0
  6
CONTINUOUS
 62
     3
100
AcDbLine
 10
687.501253
 20
628.150213
 30
0.0
 11
687.133371
 21
628.267396
 31
0.0
  0
LINE
  5
54F
330
1F
100
AcDbEntity
  8
0
  6
CONTINUOUS
 62
     3
100
AcDbLine
 10
687.133371
 20
628.267396
 30
0.0
 11
686.746462
 21
628.368102
 31
0.0
  0
LINE
  5
550
330
1F
100
AcDbEntity
  8
0
  6
CONTINUOUS
 62
     3
100
AcDbLine
 10
686.746462
 20
628.368102
 30
0.0
 11
686.343472
 21
628.451564
 31
0.0
  0
LINE
  5
551
330
1F
100
AcDbEntity
  8
0
  6
CONTINUOUS
 62
     3
100
AcDbLine
 10
686.343472
 20
628.451564
 30
0.0
 11
685.927466
 21
628.517147
 31
0.0
  0
LINE
  5
552
330
1F
100
AcDbEntity
  8
0
  6
CONTINUOUS
 62
     3
100
AcDbLine
 10
685.927466
 20
628.517147
 30
0.0
 11
685.501612
 21
628.564352
 31
0.0
  0
LINE
  5
553
330
1F
100
AcDbEntity
  8
0
  6
CONTINUOUS
 62
     3
100
AcDbLine
 10
685.501612
 20
628.564352
 30
0.0
 11
685.06915
 21
628.592819
 31
0.0
  0
LINE
  5
554
330
1F
100
AcDbEntity
  8
0
  6
CONTINUOUS
 62
     3
100
AcDbLine
 10
685.06915
 20
628.592819
 30
0.0
 11
684.633371
 21
628.602333
 31
0.0
  0
LINE
  5
555
330
1F
100
AcDbEntity
  8
0
  6
CONTINUOUS
 62
     3
100
AcDbLine
 10
684.633371
 20
628.602333
 30
0.0
 11
684.197592
 21
628.592819
 31
0.0
  0
LINE
  5
556
330
1F
100
AcDbEntity
  8
0
  6
CONTINUOUS
 62
     3
100
AcDbLine
 10
684.197592
 20
628.592819
 30
0.0
 11
683.76513
 21
628.564352
 31
0.0
  0
LINE
  5
557
330
1F
100
AcDbEntity
  8
0
  6
CONTINUOUS
 62
     3
100
AcDbLine
 10
683.76513
 20
628.564352
 30
0.0
 11
683.339276
 21
628.517147
 31
0.0
  0
LINE
  5
558
330
1F
100
AcDbEntity
  8
0
  6
CONTINUOUS
 62
     3
100
AcDbLine
 10
683.339276
 20
628.517147
 30
0.0
 11
682.92327
 21
628.451564
 31
0.0
  0
LINE
  5
559
330
1F
100
AcDbEntity
  8
0
  6
CONTINUOUS
 62
     3
100
AcDbLine
 10
682.92327
 20
628.451564
 30
0.0
 11
682.52028
 21
628.368102
 31
0.0
  0
LINE
  5
55A
330
1F
100
AcDbEntity
  8
0
  6
CONTINUOUS
 62
     3
100
AcDbLine
 10
682.52028
 20
628.368102
 30
0.0
 11
682.133371
 21
628.267396
 31
0.0
  0
LINE
  5
55B
330
1F
100
AcDbEntity
  8
0
  6
CONTINUOUS
 62
     3
100
AcDbLine
 10
682.133371
 20
628.267396
 30
0.0
 11
681.765489
 21
628.150213
 31
0.0
  0
LINE
  5
55C
330
1F
100
AcDbEntity
  8
0
  6
CONTINUOUS
 62
     3
100
AcDbLine
 10
681.765489
 20
628.150213
 30
0.0
 11
681.419433
 21
628.017444
 31
0.0
  0
LINE
  5
55D
330
1F
100
AcDbEntity
  8
0
  6
CONTINUOUS
 62
     3
100
AcDbLine
 10
681.419433
 20
628.017444
 30
0.0
 11
681.097837
 21
627.8701
 31
0.0
  0
LINE
  5
55E
330
1F
100
AcDbEntity
  8
0
  6
CONTINUOUS
 62
     3
100
AcDbLine
 10
681.097837
 20
627.8701
 30
0.0
 11
680.803149
 21
627.709302
 31
0.0
  0
LINE
  5
55F
330
1F
100
AcDbEntity
  8
0
  6
CONTINUOUS
 62
     3
100
AcDbLine
 10
680.803149
 20
627.709302
 30
0.0
 11
680.537611
 21
627.536274
 31
0.0
  0
LINE
  5
560
330
1F
100
AcDbEntity
  8
0
  6
CONTINUOUS
 62
     3
100
AcDbLine
 10
680.537611
 20
627.536274
 30
0.0
 11
680.303244
 21
627.352333
 31
0.0
  0
LINE
  5
561
330
1F
100
AcDbEntity
  8
0
  6
CONTINUOUS
 62
     3
100
AcDbLine
 10
680.303244
 20
627.352333
 30
0.0
 11
680.101832
 21
627.158878
 31
0.0
  0
LINE
  5
562
330
1F
100
AcDbEntity
  8
0
  6
CONTINUOUS
 62
     3
100
AcDbLine
 10
680.101832
 20
627.158878
 30
0.0
 11
679.934908
 21
626.957383
 31
0.0
  0
LINE
  5
563
330
1F
100
AcDbEntity
  8
0
  6
CONTINUOUS
 62
     3
100
AcDbLine
 10
679.934908
 20
626.957383
 30
0.0
 11
679.803742
 21
626.74938
 31
0.0
  0
LINE
  5
564
330
1F
100
AcDbEntity
  8
0
  6
CONTINUOUS
 62
     3
100
AcDbLine
 10
679.803742
 20
626.74938
 30
0.0
 11
679.709332
 21
626.536453
 31
0.0
  0
LINE
  5
565
330
1F
100
AcDbEntity
  8
0
  6
CONTINUOUS
 62
     3
100
AcDbLine
 10
679.709332
 20
626.536453
 30
0.0
 11
679.652398
 21
626.320222
 31
0.0
  0
LINE
  5
566
330
1F
100
AcDbEntity
  8
0
  6
CONTINUOUS
 62
     3
100
AcDbLine
 10
679.652398
 20
626.320222
 30
0.0
 11
679.633371
 21
626.102333
 31
0.0
  0
LINE
  5
567
330
1F
100
AcDbEntity
  8
0
  6
CONTINUOUS
 62
     3
100
AcDbLine
 10
693.633371
 20
626.102333
 30
0.0
 11
693.599123
 21
626.494533
 31
0.0
  0
LINE
  5
568
330
1F
100
AcDbEntity
  8
0
  6
CONTINUOUS
 62
     3
100
AcDbLine
 10
693.599123
 20
626.494533
 30
0.0
 11
693.496641
 21
626.883749
 31
0.0
  0
LINE
  5
569
330
1F
100
AcDbEntity
  8
0
  6
CONTINUOUS
 62
     3
100
AcDbLine
 10
693.496641
 20
626.883749
 30
0.0
 11
693.326704
 21
627.267018
 31
0.0
  0
LINE
  5
56A
330
1F
100
AcDbEntity
  8
0
  6
CONTINUOUS
 62
     3
100
AcDbLine
 10
693.326704
 20
627.267018
 30
0.0
 11
693.090605
 21
627.641423
 31
0.0
  0
LINE
  5
56B
330
1F
100
AcDbEntity
  8
0
  6
CONTINUOUS
 62
     3
100
AcDbLine
 10
693.090605
 20
627.641423
 30
0.0
 11
692.790141
 21
628.004115
 31
0.0
  0
LINE
  5
56C
330
1F
100
AcDbEntity
  8
0
  6
CONTINUOUS
 62
     3
100
AcDbLine
 10
692.790141
 20
628.004115
 30
0.0
 11
692.4276
 21
628.352333
 31
0.0
  0
LINE
  5
56D
330
1F
100
AcDbEntity
  8
0
  6
CONTINUOUS
 62
     3
100
AcDbLine
 10
692.4276
 20
628.352333
 30
0.0
 11
692.005739
 21
628.683427
 31
0.0
  0
LINE
  5
56E
330
1F
100
AcDbEntity
  8
0
  6
CONTINUOUS
 62
     3
100
AcDbLine
 10
692.005739
 20
628.683427
 30
0.0
 11
691.527771
 21
628.994877
 31
0.0
  0
LINE
  5
56F
330
1F
100
AcDbEntity
  8
0
  6
CONTINUOUS
 62
     3
100
AcDbLine
 10
691.527771
 20
628.994877
 30
0.0
 11
690.997332
 21
629.284313
 31
0.0
  0
LINE
  5
570
330
1F
100
AcDbEntity
  8
0
  6
CONTINUOUS
 62
     3
100
AcDbLine
 10
690.997332
 20
629.284313
 30
0.0
 11
690.41846
 21
629.549533
 31
0.0
  0
LINE
  5
571
330
1F
100
AcDbEntity
  8
0
  6
CONTINUOUS
 62
     3
100
AcDbLine
 10
690.41846
 20
629.549533
 30
0.0
 11
689.795559
 21
629.788517
 31
0.0
  0
LINE
  5
572
330
1F
100
AcDbEntity
  8
0
  6
CONTINUOUS
 62
     3
100
AcDbLine
 10
689.795559
 20
629.788517
 30
0.0
 11
689.133371
 21
629.999447
 31
0.0
  0
LINE
  5
573
330
1F
100
AcDbEntity
  8
0
  6
CONTINUOUS
 62
     3
100
AcDbLine
 10
689.133371
 20
629.999447
 30
0.0
 11
688.436935
 21
630.180718
 31
0.0
  0
LINE
  5
574
330
1F
100
AcDbEntity
  8
0
  6
CONTINUOUS
 62
     3
100
AcDbLine
 10
688.436935
 20
630.180718
 30
0.0
 11
687.711552
 21
630.330949
 31
0.0
  0
LINE
  5
575
330
1F
100
AcDbEntity
  8
0
  6
CONTINUOUS
 62
     3
100
AcDbLine
 10
687.711552
 20
630.330949
 30
0.0
 11
686.962742
 21
630.448999
 31
0.0
  0
LINE
  5
576
330
1F
100
AcDbEntity
  8
0
  6
CONTINUOUS
 62
     3
100
AcDbLine
 10
686.962742
 20
630.448999
 30
0.0
 11
686.196205
 21
630.533968
 31
0.0
  0
LINE
  5
577
330
1F
100
AcDbEntity
  8
0
  6
CONTINUOUS
 62
     3
100
AcDbLine
 10
686.196205
 20
630.533968
 30
0.0
 11
685.417773
 21
630.585209
 31
0.0
  0
LINE
  5
578
330
1F
100
AcDbEntity
  8
0
  6
CONTINUOUS
 62
     3
100
AcDbLine
 10
685.417773
 20
630.585209
 30
0.0
 11
684.633371
 21
630.602333
 31
0.0
  0
LINE
  5
579
330
1F
100
AcDbEntity
  8
0
  6
CONTINUOUS
 62
     3
100
AcDbLine
 10
684.633371
 20
630.602333
 30
0.0
 11
683.848969
 21
630.585209
 31
0.0
  0
LINE
  5
57A
330
1F
100
AcDbEntity
  8
0
  6
CONTINUOUS
 62
     3
100
AcDbLine
 10
683.848969
 20
630.585209
 30
0.0
 11
683.070537
 21
630.533968
 31
0.0
  0
LINE
  5
57B
330
1F
100
AcDbEntity
  8
0
  6
CONTINUOUS
 62
     3
100
AcDbLine
 10
683.070537
 20
630.533968
 30
0.0
 11
682.304
 21
630.448999
 31
0.0
  0
LINE
  5
57C
330
1F
100
AcDbEntity
  8
0
  6
CONTINUOUS
 62
     3
100
AcDbLine
 10
682.304
 20
630.448999
 30
0.0
 11
681.55519
 21
630.330949
 31
0.0
  0
LINE
  5
57D
330
1F
100
AcDbEntity
  8
0
  6
CONTINUOUS
 62
     3
100
AcDbLine
 10
681.55519
 20
630.330949
 30
0.0
 11
680.829807
 21
630.180718
 31
0.0
  0
LINE
  5
57E
330
1F
100
AcDbEntity
  8
0
  6
CONTINUOUS
 62
     3
100
AcDbLine
 10
680.829807
 20
630.180718
 30
0.0
 11
680.133371
 21
629.999447
 31
0.0
  0
LINE
  5
57F
330
1F
100
AcDbEntity
  8
0
  6
CONTINUOUS
 62
     3
100
AcDbLine
 10
680.133371
 20
629.999447
 30
0.0
 11
679.471183
 21
629.788517
 31
0.0
  0
LINE
  5
580
330
1F
100
AcDbEntity
  8
0
  6
CONTINUOUS
 62
     3
100
AcDbLine
 10
679.471183
 20
629.788517
 30
0.0
 11
678.848283
 21
629.549533
 31
0.0
  0
LINE
  5
581
330
1F
100
AcDbEntity
  8
0
  6
CONTINUOUS
 62
     3
100
AcDbLine
 10
678.848283
 20
629.549533
 30
0.0
 11
678.26941
 21
629.284313
 31
0.0
  0
LINE
  5
582
330
1F
100
AcDbEntity
  8
0
  6
CONTINUOUS
 62
     3
100
AcDbLine
 10
678.26941
 20
629.284313
 30
0.0
 11
677.738971
 21
628.994877
 31
0.0
  0
LINE
  5
583
330
1F
100
AcDbEntity
  8
0
  6
CONTINUOUS
 62
     3
100
AcDbLine
 10
677.738971
 20
628.994877
 30
0.0
 11
677.261003
 21
628.683427
 31
0.0
  0
LINE
  5
584
330
1F
100
AcDbEntity
  8
0
  6
CONTINUOUS
 62
     3
100
AcDbLine
 10
677.261003
 20
628.683427
 30
0.0
 11
676.839142
 21
628.352333
 31
0.0
  0
LINE
  5
585
330
1F
100
AcDbEntity
  8
0
  6
CONTINUOUS
 62
     3
100
AcDbLine
 10
676.839142
 20
628.352333
 30
0.0
 11
676.476601
 21
628.004115
 31
0.0
  0
LINE
  5
586
330
1F
100
AcDbEntity
  8
0
  6
CONTINUOUS
 62
     3
100
AcDbLine
 10
676.476601
 20
628.004115
 30
0.0
 11
676.176137
 21
627.641423
 31
0.0
  0
LINE
  5
587
330
1F
100
AcDbEntity
  8
0
  6
CONTINUOUS
 62
     3
100
AcDbLine
 10
676.176137
 20
627.641423
 30
0.0
 11
675.940039
 21
627.267018
 31
0.0
  0
LINE
  5
588
330
1F
100
AcDbEntity
  8
0
  6
CONTINUOUS
 62
     3
100
AcDbLine
 10
675.940039
 20
627.267018
 30
0.0
 11
675.770101
 21
626.883749
 31
0.0
  0
LINE
  5
589
330
1F
100
AcDbEntity
  8
0
  6
CONTINUOUS
 62
     3
100
AcDbLine
 10
675.770101
 20
626.883749
 30
0.0
 11
675.667619
 21
626.494533
 31
0.0
  0
LINE
  5
58A
330
1F
100
AcDbEntity
  8
0
  6
CONTINUOUS
 62
     3
100
AcDbLine
 10
675.667619
 20
626.494533
 30
0.0
 11
675.633371
 21
626.102333
 31
0.0
  0
LINE
  5
58B
330
1F
100
AcDbEntity
  8
0
  6
CONTINUOUS
 62
     3
100
AcDbLine
 10
675.633371
 20
626.102333
 30
0.0
 11
675.667619
 21
625.710132
 31
0.0
  0
LINE
  5
58C
330
1F
100
AcDbEntity
  8
0
  6
CONTINUOUS
 62
     3
100
AcDbLine
 10
675.667619
 20
625.710132
 30
0.0
 11
675.770101
 21
625.320916
 31
0.0
  0
LINE
  5
58D
330
1F
100
AcDbEntity
  8
0
  6
CONTINUOUS
 62
     3
100
AcDbLine
 10
675.770101
 20
625.320916
 30
0.0
 11
675.940039
 21
624.937647
 31
0.0
  0
LINE
  5
58E
330
1F
100
AcDbEntity
  8
0
  6
CONTINUOUS
 62
     3
100
AcDbLine
 10
675.940039
 20
624.937647
 30
0.0
 11
676.176137
 21
624.563242
 31
0.0
  0
LINE
  5
58F
330
1F
100
AcDbEntity
  8
0
  6
CONTINUOUS
 62
     3
100
AcDbLine
 10
676.176137
 20
624.563242
 30
0.0
 11
676.476601
 21
624.20055
 31
0.0
  0
LINE
  5
590
330
1F
100
AcDbEntity
  8
0
  6
CONTINUOUS
 62
     3
100
AcDbLine
 10
676.476601
 20
624.20055
 30
0.0
 11
676.839142
 21
623.852333
 31
0.0
  0
LINE
  5
591
330
1F
100
AcDbEntity
  8
0
  6
CONTINUOUS
 62
     3
100
AcDbLine
 10
676.839142
 20
623.852333
 30
0.0
 11
677.261003
 21
623.521239
 31
0.0
  0
LINE
  5
592
330
1F
100
AcDbEntity
  8
0
  6
CONTINUOUS
 62
     3
100
AcDbLine
 10
677.261003
 20
623.521239
 30
0.0
 11
677.738971
 21
623.209788
 31
0.0
  0
LINE
  5
593
330
1F
100
AcDbEntity
  8
0
  6
CONTINUOUS
 62
     3
100
AcDbLine
 10
677.738971
 20
623.209788
 30
0.0
 11
678.26941
 21
622.920352
 31
0.0
  0
LINE
  5
594
330
1F
100
AcDbEntity
  8
0
  6
CONTINUOUS
 62
     3
100
AcDbLine
 10
678.26941
 20
622.920352
 30
0.0
 11
678.848283
 21
622.655133
 31
0.0
  0
LINE
  5
595
330
1F
100
AcDbEntity
  8
0
  6
CONTINUOUS
 62
     3
100
AcDbLine
 10
678.848283
 20
622.655133
 30
0.0
 11
679.471183
 21
622.416148
 31
0.0
  0
LINE
  5
596
330
1F
100
AcDbEntity
  8
0
  6
CONTINUOUS
 62
     3
100
AcDbLine
 10
679.471183
 20
622.416148
 30
0.0
 11
680.133371
 21
622.205218
 31
0.0
  0
LINE
  5
597
330
1F
100
AcDbEntity
  8
0
  6
CONTINUOUS
 62
     3
100
AcDbLine
 10
680.133371
 20
622.205218
 30
0.0
 11
680.829807
 21
622.023948
 31
0.0
  0
LINE
  5
598
330
1F
100
AcDbEntity
  8
0
  6
CONTINUOUS
 62
     3
100
AcDbLine
 10
680.829807
 20
622.023948
 30
0.0
 11
681.55519
 21
621.873716
 31
0.0
  0
LINE
  5
599
330
1F
100
AcDbEntity
  8
0
  6
CONTINUOUS
 62
     3
100
AcDbLine
 10
681.55519
 20
621.873716
 30
0.0
 11
681.993196
 21
621.804664
 31
0.0
  0
LINE
  5
59A
330
1F
100
AcDbEntity
  8
0
  6
CONTINUOUS
 62
     3
100
AcDbLine
 10
687.273546
 20
621.804664
 30
0.0
 11
687.711552
 21
621.873716
 31
0.0
  0
LINE
  5
59B
330
1F
100
AcDbEntity
  8
0
  6
CONTINUOUS
 62
     3
100
AcDbLine
 10
687.711552
 20
621.873716
 30
0.0
 11
688.436935
 21
622.023948
 31
0.0
  0
LINE
  5
59C
330
1F
100
AcDbEntity
  8
0
  6
CONTINUOUS
 62
     3
100
AcDbLine
 10
688.436935
 20
622.023948
 30
0.0
 11
689.133371
 21
622.205218
 31
0.0
  0
LINE
  5
59D
330
1F
100
AcDbEntity
  8
0
  6
CONTINUOUS
 62
     3
100
AcDbLine
 10
689.133371
 20
622.205218
 30
0.0
 11
689.795559
 21
622.416148
 31
0.0
  0
LINE
  5
59E
330
1F
100
AcDbEntity
  8
0
  6
CONTINUOUS
 62
     3
100
AcDbLine
 10
689.795559
 20
622.416148
 30
0.0
 11
690.41846
 21
622.655133
 31
0.0
  0
LINE
  5
59F
330
1F
100
AcDbEntity
  8
0
  6
CONTINUOUS
 62
     3
100
AcDbLine
 10
690.41846
 20
622.655133
 30
0.0
 11
690.997332
 21
622.920352
 31
0.0
  0
LINE
  5
5A0
330
1F
100
AcDbEntity
  8
0
  6
CONTINUOUS
 62
     3
100
AcDbLine
 10
690.997332
 20
622.920352
 30
0.0
 11
691.527771
 21
623.209788
 31
0.0
  0
LINE
  5
5A1
330
1F
100
AcDbEntity
  8
0
  6
CONTINUOUS
 62
     3
100
AcDbLine
 10
691.527771
 20
623.209788
 30
0.0
 11
692.005739
 21
623.521239
 31
0.0
  0
LINE
  5
5A2
330
1F
100
AcDbEntity
  8
0
  6
CONTINUOUS
 62
     3
100
AcDbLine
 10
692.005739
 20
623.521239
 30
0.0
 11
692.4276
 21
623.852333
 31
0.0
  0
LINE
  5
5A3
330
1F
100
AcDbEntity
  8
0
  6
CONTINUOUS
 62
     3
100
AcDbLine
 10
692.4276
 20
623.852333
 30
0.0
 11
692.790141
 21
624.20055
 31
0.0
  0
LINE
  5
5A4
330
1F
100
AcDbEntity
  8
0
  6
CONTINUOUS
 62
     3
100
AcDbLine
 10
692.790141
 20
624.20055
 30
0.0
 11
693.090605
 21
624.563242
 31
0.0
  0
LINE
  5
5A5
330
1F
100
AcDbEntity
  8
0
  6
CONTINUOUS
 62
     3
100
AcDbLine
 10
693.090605
 20
624.563242
 30
0.0
 11
693.326704
 21
624.937647
 31
0.0
  0
LINE
  5
5A6
330
1F
100
AcDbEntity
  8
0
  6
CONTINUOUS
 62
     3
100
AcDbLine
 10
693.326704
 20
624.937647
 30
0.0
 11
693.496641
 21
625.320916
 31
0.0
  0
LINE
  5
5A7
330
1F
100
AcDbEntity
  8
0
  6
CONTINUOUS
 62
     3
100
AcDbLine
 10
693.496641
 20
625.320916
 30
0.0
 11
693.599123
 21
625.710132
 31
0.0
  0
LINE
  5
5A8
330
1F
100
AcDbEntity
  8
0
  6
CONTINUOUS
 62
     3
100
AcDbLine
 10
693.599123
 20
625.710132
 30
0.0
 11
693.633371
 21
626.102333
 31
0.0
  0
LINE
  5
5A9
330
1F
100
AcDbEntity
  8
0
  6
CONTINUOUS
 62
     3
100
AcDbLine
 10
693.633371
 20
629.58591
 30
0.0
 11
693.599123
 21
629.978111
 31
0.0
  0
LINE
  5
5AA
330
1F
100
AcDbEntity
  8
0
  6
CONTINUOUS
 62
     3
100
AcDbLine
 10
693.599123
 20
629.978111
 30
0.0
 11
693.496641
 21
630.367327
 31
0.0
  0
LINE
  5
5AB
330
1F
100
AcDbEntity
  8
0
  6
CONTINUOUS
 62
     3
100
AcDbLine
 10
693.496641
 20
630.367327
 30
0.0
 11
693.326704
 21
630.750596
 31
0.0
  0
LINE
  5
5AC
330
1F
100
AcDbEntity
  8
0
  6
CONTINUOUS
 62
     3
100
AcDbLine
 10
693.326704
 20
630.750596
 30
0.0
 11
693.090605
 21
631.125001
 31
0.0
  0
LINE
  5
5AD
330
1F
100
AcDbEntity
  8
0
  6
CONTINUOUS
 62
     3
100
AcDbLine
 10
693.090605
 20
631.125001
 30
0.0
 11
692.790141
 21
631.487692
 31
0.0
  0
LINE
  5
5AE
330
1F
100
AcDbEntity
  8
0
  6
CONTINUOUS
 62
     3
100
AcDbLine
 10
692.790141
 20
631.487692
 30
0.0
 11
692.4276
 21
631.83591
 31
0.0
  0
LINE
  5
5AF
330
1F
100
AcDbEntity
  8
0
  6
CONTINUOUS
 62
     3
100
AcDbLine
 10
692.4276
 20
631.83591
 30
0.0
 11
692.005739
 21
632.167004
 31
0.0
  0
LINE
  5
5B0
330
1F
100
AcDbEntity
  8
0
  6
CONTINUOUS
 62
     3
100
AcDbLine
 10
692.005739
 20
632.167004
 30
0.0
 11
691.527771
 21
632.478454
 31
0.0
  0
LINE
  5
5B1
330
1F
100
AcDbEntity
  8
0
  6
CONTINUOUS
 62
     3
100
AcDbLine
 10
691.527771
 20
632.478454
 30
0.0
 11
690.997332
 21
632.76789
 31
0.0
  0
LINE
  5
5B2
330
1F
100
AcDbEntity
  8
0
  6
CONTINUOUS
 62
     3
100
AcDbLine
 10
690.997332
 20
632.76789
 30
0.0
 11
690.41846
 21
633.03311
 31
0.0
  0
LINE
  5
5B3
330
1F
100
AcDbEntity
  8
0
  6
CONTINUOUS
 62
     3
100
AcDbLine
 10
690.41846
 20
633.03311
 30
0.0
 11
689.795559
 21
633.272094
 31
0.0
  0
LINE
  5
5B4
330
1F
100
AcDbEntity
  8
0
  6
CONTINUOUS
 62
     3
100
AcDbLine
 10
689.795559
 20
633.272094
 30
0.0
 11
689.133371
 21
633.483024
 31
0.0
  0
LINE
  5
5B5
330
1F
100
AcDbEntity
  8
0
  6
CONTINUOUS
 62
     3
100
AcDbLine
 10
689.133371
 20
633.483024
 30
0.0
 11
688.436935
 21
633.664295
 31
0.0
  0
LINE
  5
5B6
330
1F
100
AcDbEntity
  8
0
  6
CONTINUOUS
 62
     3
100
AcDbLine
 10
688.436935
 20
633.664295
 30
0.0
 11
687.711552
 21
633.814527
 31
0.0
  0
LINE
  5
5B7
330
1F
100
AcDbEntity
  8
0
  6
CONTINUOUS
 62
     3
100
AcDbLine
 10
687.711552
 20
633.814527
 30
0.0
 11
686.962742
 21
633.932576
 31
0.0
  0
LINE
  5
5B8
330
1F
100
AcDbEntity
  8
0
  6
CONTINUOUS
 62
     3
100
AcDbLine
 10
686.962742
 20
633.932576
 30
0.0
 11
686.196205
 21
634.017545
 31
0.0
  0
LINE
  5
5B9
330
1F
100
AcDbEntity
  8
0
  6
CONTINUOUS
 62
     3
100
AcDbLine
 10
686.196205
 20
634.017545
 30
0.0
 11
685.417773
 21
634.068786
 31
0.0
  0
LINE
  5
5BA
330
1F
100
AcDbEntity
  8
0
  6
CONTINUOUS
 62
     3
100
AcDbLine
 10
685.417773
 20
634.068786
 30
0.0
 11
684.633371
 21
634.08591
 31
0.0
  0
LINE
  5
5BB
330
1F
100
AcDbEntity
  8
0
  6
CONTINUOUS
 62
     3
100
AcDbLine
 10
684.633371
 20
634.08591
 30
0.0
 11
683.848969
 21
634.068786
 31
0.0
  0
LINE
  5
5BC
330
1F
100
AcDbEntity
  8
0
  6
CONTINUOUS
 62
     3
100
AcDbLine
 10
683.848969
 20
634.068786
 30
0.0
 11
683.070537
 21
634.017545
 31
0.0
  0
LINE
  5
5BD
330
1F
100
AcDbEntity
  8
0
  6
CONTINUOUS
 62
     3
100
AcDbLine
 10
683.070537
 20
634.017545
 30
0.0
 11
682.304
 21
633.932576
 31
0.0
  0
LINE
  5
5BE
330
1F
100
AcDbEntity
  8
0
  6
CONTINUOUS
 62
     3
100
AcDbLine
 10
682.304
 20
633.932576
 30
0.0
 11
681.55519
 21
633.814527
 31
0.0
  0
LINE
  5
5BF
330
1F
100
AcDbEntity
  8
0
  6
CONTINUOUS
 62
     3
100
AcDbLine
 10
681.55519
 20
633.814527
 30
0.0
 11
680.829807
 21
633.664295
 31
0.0
  0
LINE
  5
5C0
330
1F
100
AcDbEntity
  8
0
  6
CONTINUOUS
 62
     3
100
AcDbLine
 10
680.829807
 20
633.664295
 30
0.0
 11
680.133371
 21
633.483024
 31
0.0
  0
LINE
  5
5C1
330
1F
100
AcDbEntity
  8
0
  6
CONTINUOUS
 62
     3
100
AcDbLine
 10
680.133371
 20
633.483024
 30
0.0
 11
679.471183
 21
633.272094
 31
0.0
  0
LINE
  5
5C2
330
1F
100
AcDbEntity
  8
0
  6
CONTINUOUS
 62
     3
100
AcDbLine
 10
679.471183
 20
633.272094
 30
0.0
 11
678.848283
 21
633.03311
 31
0.0
  0
LINE
  5
5C3
330
1F
100
AcDbEntity
  8
0
  6
CONTINUOUS
 62
     3
100
AcDbLine
 10
678.848283
 20
633.03311
 30
0.0
 11
678.26941
 21
632.76789
 31
0.0
  0
LINE
  5
5C4
330
1F
100
AcDbEntity
  8
0
  6
CONTINUOUS
 62
     3
100
AcDbLine
 10
678.26941
 20
632.76789
 30
0.0
 11
677.738971
 21
632.478454
 31
0.0
  0
LINE
  5
5C5
330
1F
100
AcDbEntity
  8
0
  6
CONTINUOUS
 62
     3
100
AcDbLine
 10
677.738971
 20
632.478454
 30
0.0
 11
677.261003
 21
632.167004
 31
0.0
  0
LINE
  5
5C6
330
1F
100
AcDbEntity
  8
0
  6
CONTINUOUS
 62
     3
100
AcDbLine
 10
677.261003
 20
632.167004
 30
0.0
 11
676.839142
 21
631.83591
 31
0.0
  0
LINE
  5
5C7
330
1F
100
AcDbEntity
  8
0
  6
CONTINUOUS
 62
     3
100
AcDbLine
 10
676.839142
 20
631.83591
 30
0.0
 11
676.476601
 21
631.487692
 31
0.0
  0
LINE
  5
5C8
330
1F
100
AcDbEntity
  8
0
  6
CONTINUOUS
 62
     3
100
AcDbLine
 10
676.476601
 20
631.487692
 30
0.0
 11
676.176137
 21
631.125001
 31
0.0
  0
LINE
  5
5C9
330
1F
100
AcDbEntity
  8
0
  6
CONTINUOUS
 62
     3
100
AcDbLine
 10
676.176137
 20
631.125001
 30
0.0
 11
675.940039
 21
630.750596
 31
0.0
  0
LINE
  5
5CA
330
1F
100
AcDbEntity
  8
0
  6
CONTINUOUS
 62
     3
100
AcDbLine
 10
675.940039
 20
630.750596
 30
0.0
 11
675.770101
 21
630.367327
 31
0.0
  0
LINE
  5
5CB
330
1F
100
AcDbEntity
  8
0
  6
CONTINUOUS
 62
     3
100
AcDbLine
 10
675.770101
 20
630.367327
 30
0.0
 11
675.667619
 21
629.978111
 31
0.0
  0
LINE
  5
5CC
330
1F
100
AcDbEntity
  8
0
  6
CONTINUOUS
 62
     3
100
AcDbLine
 10
675.667619
 20
629.978111
 30
0.0
 11
675.633371
 21
629.58591
 31
0.0
  0
LINE
  5
5CD
330
1F
100
AcDbEntity
  8
0
  6
CONTINUOUS
 62
     3
100
AcDbLine
 10
706.633371
 20
656.583673
 30
0.0
 11
706.633371
 21
633.940429
 31
0.0
  0
LINE
  5
5CE
330
1F
100
AcDbEntity
  8
0
  6
CONTINUOUS
 62
     3
100
AcDbLine
 10
662.633371
 20
656.583673
 30
0.0
 11
662.633371
 21
633.940429
 31
0.0
  0
LINE
  5
5CF
330
1F
100
AcDbEntity
  8
0
  6
CONTINUOUS
 62
     3
100
AcDbLine
 10
693.633371
 20
629.58591
 30
0.0
 11
693.633371
 21
626.102333
 31
0.0
  0
LINE
  5
5D0
330
1F
100
AcDbEntity
  8
0
  6
CONTINUOUS
 62
     3
100
AcDbLine
 10
675.633371
 20
629.58591
 30
0.0
 11
675.633371
 21
626.102333
 31
0.0
  0
LINE
  5
5D1
330
1F
100
AcDbEntity
  8
0
  6
CONTINUOUS
 62
     3
100
AcDbLine
 10
689.633371
 20
626.102333
 30
0.0
 11
689.633371
 21
623.925077
 31
0.0
  0
LINE
  5
5D2
330
1F
100
AcDbEntity
  8
0
  6
CONTINUOUS
 62
     3
100
AcDbLine
 10
679.633371
 20
626.102333
 30
0.0
 11
679.633371
 21
623.925077
 31
0.0
  0
LINE
  5
5D3
330
1F
100
AcDbEntity
  8
0
  6
CONTINUOUS
 62
     3
100
AcDbLine
 10
715.060035
 20
702.148488
 30
0.0
 11
715.654815
 21
703.489929
 31
0.0
  0
LINE
  5
5D4
330
1F
100
AcDbEntity
  8
0
  6
CONTINUOUS
 62
     3
100
AcDbLine
 10
715.654815
 20
703.489929
 30
0.0
 11
716.013504
 21
704.852185
 31
0.0
  0
LINE
  5
5D5
330
1F
100
AcDbEntity
  8
0
  6
CONTINUOUS
 62
     3
100
AcDbLine
 10
716.013504
 20
704.852185
 30
0.0
 11
716.133371
 21
706.224888
 31
0.0
  0
LINE
  5
5D6
330
1F
100
AcDbEntity
  8
0
  6
CONTINUOUS
 62
     3
100
AcDbLine
 10
654.206708
 20
702.148488
 30
0.0
 11
653.611927
 21
703.489929
 31
0.0
  0
LINE
  5
5D7
330
1F
100
AcDbEntity
  8
0
  6
CONTINUOUS
 62
     3
100
AcDbLine
 10
653.611927
 20
703.489929
 30
0.0
 11
653.253238
 21
704.852185
 31
0.0
  0
LINE
  5
5D8
330
1F
100
AcDbEntity
  8
0
  6
CONTINUOUS
 62
     3
100
AcDbLine
 10
653.253238
 20
704.852185
 30
0.0
 11
653.133371
 21
706.224888
 31
0.0
  0
LINE
  5
5D9
330
1F
100
AcDbEntity
  8
0
  6
CONTINUOUS
 62
     3
100
AcDbLine
 10
684.633371
 20
803.626448
 30
0.0
 11
717.133371
 21
803.626448
 31
0.0
  0
LINE
  5
5DA
330
1F
100
AcDbEntity
  8
0
  6
CONTINUOUS
 62
     8
100
AcDbLine
 10
716.133371
 20
771.681377
 30
0.0
 11
717.133371
 21
771.681377
 31
0.0
  0
LINE
  5
5DB
330
1F
100
AcDbEntity
  8
0
  6
CONTINUOUS
 62
     3
100
AcDbLine
 10
640.633371
 20
828.011611
 30
0.0
 11
728.633371
 21
828.011611
 31
0.0
  0
LINE
  5
5DC
330
1F
100
AcDbEntity
  8
0
  6
CONTINUOUS
 62
     3
100
AcDbLine
 10
717.133371
 20
828.011611
 30
0.0
 11
717.133371
 21
771.681377
 31
0.0
  0
LINE
  5
5DD
330
1F
100
AcDbEntity
  8
0
  6
CONTINUOUS
 62
     3
100
AcDbLine
 10
717.133371
 20
822.846494
 30
0.0
 11
727.133371
 21
812.846494
 31
0.0
  0
LINE
  5
5DE
330
1F
100
AcDbEntity
  8
0
  6
CONTINUOUS
 62
     3
100
AcDbLine
 10
728.633371
 20
758.001174
 30
0.0
 11
728.633371
 21
830.073835
 31
0.0
  0
LINE
  5
5DF
330
1F
100
AcDbEntity
  8
0
  6
CONTINUOUS
 62
     3
100
AcDbLine
 10
717.133371
 20
776.846494
 30
0.0
 11
727.133371
 21
786.846494
 31
0.0
  0
LINE
  5
5E0
330
1F
100
AcDbEntity
  8
0
  6
CONTINUOUS
 62
     3
100
AcDbLine
 10
727.133371
 20
812.846494
 30
0.0
 11
727.133371
 21
786.846494
 31
0.0
  0
LINE
  5
5E1
330
1F
100
AcDbEntity
  8
0
  6
CONTINUOUS
 62
     3
100
AcDbLine
 10
728.633371
 20
830.073835
 30
0.0
 11
740.633371
 21
830.073835
 31
0.0
  0
LINE
  5
5E2
330
1F
100
AcDbEntity
  8
0
  6
CONTINUOUS
 62
     3
100
AcDbLine
 10
728.633371
 20
758.001174
 30
0.0
 11
740.633371
 21
758.001174
 31
0.0
  0
LINE
  5
5E3
330
1F
100
AcDbEntity
  8
0
  6
CONTINUOUS
 62
     3
100
AcDbLine
 10
698.233371
 20
1029.763741
 30
0.0
 11
698.181619
 21
1030.3564
 31
0.0
  0
LINE
  5
5E4
330
1F
100
AcDbEntity
  8
0
  6
CONTINUOUS
 62
     3
100
AcDbLine
 10
698.181619
 20
1030.3564
 30
0.0
 11
698.026757
 21
1030.944549
 31
0.0
  0
LINE
  5
5E5
330
1F
100
AcDbEntity
  8
0
  6
CONTINUOUS
 62
     3
100
AcDbLine
 10
698.026757
 20
1030.944549
 30
0.0
 11
697.769962
 21
1031.523711
 31
0.0
  0
LINE
  5
5E6
330
1F
100
AcDbEntity
  8
0
  6
CONTINUOUS
 62
     3
100
AcDbLine
 10
697.769962
 20
1031.523711
 30
0.0
 11
697.413191
 21
1032.089478
 31
0.0
  0
LINE
  5
5E7
330
1F
100
AcDbEntity
  8
0
  6
CONTINUOUS
 62
     3
100
AcDbLine
 10
697.413191
 20
1032.089478
 30
0.0
 11
696.959157
 21
1032.637545
 31
0.0
  0
LINE
  5
5E8
330
1F
100
AcDbEntity
  8
0
  6
CONTINUOUS
 62
     3
100
AcDbLine
 10
696.959157
 20
1032.637545
 30
0.0
 11
696.411317
 21
1033.163741
 31
0.0
  0
LINE
  5
5E9
330
1F
100
AcDbEntity
  8
0
  6
CONTINUOUS
 62
     3
100
AcDbLine
 10
696.411317
 20
1033.163741
 30
0.0
 11
695.773839
 21
1033.664061
 31
0.0
  0
LINE
  5
5EA
330
1F
100
AcDbEntity
  8
0
  6
CONTINUOUS
 62
     3
100
AcDbLine
 10
695.773839
 20
1033.664061
 30
0.0
 11
695.051576
 21
1034.134697
 31
0.0
  0
LINE
  5
5EB
330
1F
100
AcDbEntity
  8
0
  6
CONTINUOUS
 62
     3
100
AcDbLine
 10
695.051576
 20
1034.134697
 30
0.0
 11
694.250023
 21
1034.572067
 31
0.0
  0
LINE
  5
5EC
330
1F
100
AcDbEntity
  8
0
  6
CONTINUOUS
 62
     3
100
AcDbLine
 10
694.250023
 20
1034.572067
 30
0.0
 11
693.375283
 21
1034.972843
 31
0.0
  0
LINE
  5
5ED
330
1F
100
AcDbEntity
  8
0
  6
CONTINUOUS
 62
     3
100
AcDbLine
 10
693.375283
 20
1034.972843
 30
0.0
 11
692.434011
 21
1035.333975
 31
0.0
  0
LINE
  5
5EE
330
1F
100
AcDbEntity
  8
0
  6
CONTINUOUS
 62
     3
100
AcDbLine
 10
692.434011
 20
1035.333975
 30
0.0
 11
691.433371
 21
1035.652714
 31
0.0
  0
LINE
  5
5EF
330
1F
100
AcDbEntity
  8
0
  6
CONTINUOUS
 62
     3
100
AcDbLine
 10
691.433371
 20
1035.652714
 30
0.0
 11
690.380979
 21
1035.926634
 31
0.0
  0
LINE
  5
5F0
330
1F
100
AcDbEntity
  8
0
  6
CONTINUOUS
 62
     3
100
AcDbLine
 10
690.380979
 20
1035.926634
 30
0.0
 11
689.284845
 21
1036.153651
 31
0.0
  0
LINE
  5
5F1
330
1F
100
AcDbEntity
  8
0
  6
CONTINUOUS
 62
     3
100
AcDbLine
 10
689.284845
 20
1036.153651
 30
0.0
 11
688.15331
 21
1036.332037
 31
0.0
  0
LINE
  5
5F2
330
1F
100
AcDbEntity
  8
0
  6
CONTINUOUS
 62
     3
100
AcDbLine
 10
688.15331
 20
1036.332037
 30
0.0
 11
686.994986
 21
1036.460434
 31
0.0
  0
LINE
  5
5F3
330
1F
100
AcDbEntity
  8
0
  6
CONTINUOUS
 62
     3
100
AcDbLine
 10
686.994986
 20
1036.460434
 30
0.0
 11
685.818689
 21
1036.537865
 31
0.0
  0
LINE
  5
5F4
330
1F
100
AcDbEntity
  8
0
  6
CONTINUOUS
 62
     3
100
AcDbLine
 10
685.818689
 20
1036.537865
 30
0.0
 11
684.633371
 21
1036.563741
 31
0.0
  0
LINE
  5
5F5
330
1F
100
AcDbEntity
  8
0
  6
CONTINUOUS
 62
     3
100
AcDbLine
 10
684.633371
 20
1036.563741
 30
0.0
 11
683.448053
 21
1036.537865
 31
0.0
  0
LINE
  5
5F6
330
1F
100
AcDbEntity
  8
0
  6
CONTINUOUS
 62
     3
100
AcDbLine
 10
683.448053
 20
1036.537865
 30
0.0
 11
682.271756
 21
1036.460434
 31
0.0
  0
LINE
  5
5F7
330
1F
100
AcDbEntity
  8
0
  6
CONTINUOUS
 62
     3
100
AcDbLine
 10
682.271756
 20
1036.460434
 30
0.0
 11
681.113432
 21
1036.332037
 31
0.0
  0
LINE
  5
5F8
330
1F
100
AcDbEntity
  8
0
  6
CONTINUOUS
 62
     3
100
AcDbLine
 10
681.113432
 20
1036.332037
 30
0.0
 11
679.981897
 21
1036.153651
 31
0.0
  0
LINE
  5
5F9
330
1F
100
AcDbEntity
  8
0
  6
CONTINUOUS
 62
     3
100
AcDbLine
 10
679.981897
 20
1036.153651
 30
0.0
 11
678.885763
 21
1035.926634
 31
0.0
  0
LINE
  5
5FA
330
1F
100
AcDbEntity
  8
0
  6
CONTINUOUS
 62
     3
100
AcDbLine
 10
678.885763
 20
1035.926634
 30
0.0
 11
677.833371
 21
1035.652714
 31
0.0
  0
LINE
  5
5FB
330
1F
100
AcDbEntity
  8
0
  6
CONTINUOUS
 62
     3
100
AcDbLine
 10
677.833371
 20
1035.652714
 30
0.0
 11
676.832732
 21
1035.333975
 31
0.0
  0
LINE
  5
5FC
330
1F
100
AcDbEntity
  8
0
  6
CONTINUOUS
 62
     3
100
AcDbLine
 10
676.832732
 20
1035.333975
 30
0.0
 11
675.89146
 21
1034.972843
 31
0.0
  0
LINE
  5
5FD
330
1F
100
AcDbEntity
  8
0
  6
CONTINUOUS
 62
     3
100
AcDbLine
 10
675.89146
 20
1034.972843
 30
0.0
 11
675.016719
 21
1034.572067
 31
0.0
  0
LINE
  5
5FE
330
1F
100
AcDbEntity
  8
0
  6
CONTINUOUS
 62
     3
100
AcDbLine
 10
675.016719
 20
1034.572067
 30
0.0
 11
674.215167
 21
1034.134697
 31
0.0
  0
LINE
  5
5FF
330
1F
100
AcDbEntity
  8
0
  6
CONTINUOUS
 62
     3
100
AcDbLine
 10
674.215167
 20
1034.134697
 30
0.0
 11
673.492903
 21
1033.664061
 31
0.0
  0
LINE
  5
600
330
1F
100
AcDbEntity
  8
0
  6
CONTINUOUS
 62
     3
100
AcDbLine
 10
673.492903
 20
1033.664061
 30
0.0
 11
672.855426
 21
1033.163741
 31
0.0
  0
LINE
  5
601
330
1F
100
AcDbEntity
  8
0
  6
CONTINUOUS
 62
     3
100
AcDbLine
 10
672.855426
 20
1033.163741
 30
0.0
 11
672.307585
 21
1032.637545
 31
0.0
  0
LINE
  5
602
330
1F
100
AcDbEntity
  8
0
  6
CONTINUOUS
 62
     3
100
AcDbLine
 10
672.307585
 20
1032.637545
 30
0.0
 11
671.853551
 21
1032.089478
 31
0.0
  0
LINE
  5
603
330
1F
100
AcDbEntity
  8
0
  6
CONTINUOUS
 62
     3
100
AcDbLine
 10
671.853551
 20
1032.089478
 30
0.0
 11
671.49678
 21
1031.523711
 31
0.0
  0
LINE
  5
604
330
1F
100
AcDbEntity
  8
0
  6
CONTINUOUS
 62
     3
100
AcDbLine
 10
671.49678
 20
1031.523711
 30
0.0
 11
671.239986
 21
1030.944549
 31
0.0
  0
LINE
  5
605
330
1F
100
AcDbEntity
  8
0
  6
CONTINUOUS
 62
     3
100
AcDbLine
 10
671.239986
 20
1030.944549
 30
0.0
 11
671.085123
 21
1030.3564
 31
0.0
  0
LINE
  5
606
330
1F
100
AcDbEntity
  8
0
  6
CONTINUOUS
 62
     3
100
AcDbLine
 10
671.085123
 20
1030.3564
 30
0.0
 11
671.033371
 21
1029.763741
 31
0.0
  0
LINE
  5
607
330
1F
100
AcDbEntity
  8
0
  6
CONTINUOUS
 62
     3
100
AcDbLine
 10
705.983371
 20
947.899267
 30
0.0
 11
705.902128
 21
948.829654
 31
0.0
  0
LINE
  5
608
330
1F
100
AcDbEntity
  8
0
  6
CONTINUOUS
 62
     3
100
AcDbLine
 10
705.902128
 20
948.829654
 30
0.0
 11
705.659017
 21
949.752961
 31
0.0
  0
LINE
  5
609
330
1F
100
AcDbEntity
  8
0
  6
CONTINUOUS
 62
     3
100
AcDbLine
 10
705.659017
 20
949.752961
 30
0.0
 11
705.255887
 21
950.66216
 31
0.0
  0
LINE
  5
60A
330
1F
100
AcDbEntity
  8
0
  6
CONTINUOUS
 62
     3
100
AcDbLine
 10
705.255887
 20
950.66216
 30
0.0
 11
704.695809
 21
951.550332
 31
0.0
  0
LINE
  5
60B
330
1F
100
AcDbEntity
  8
0
  6
CONTINUOUS
 62
     3
100
AcDbLine
 10
704.695809
 20
951.550332
 30
0.0
 11
703.983042
 21
952.410717
 31
0.0
  0
LINE
  5
60C
330
1F
100
AcDbEntity
  8
0
  6
CONTINUOUS
 62
     3
100
AcDbLine
 10
703.983042
 20
952.410717
 30
0.0
 11
703.123013
 21
953.236767
 31
0.0
  0
LINE
  5
60D
330
1F
100
AcDbEntity
  8
0
  6
CONTINUOUS
 62
     3
100
AcDbLine
 10
703.123013
 20
953.236767
 30
0.0
 11
702.122267
 21
954.022195
 31
0.0
  0
LINE
  5
60E
330
1F
100
AcDbEntity
  8
0
  6
CONTINUOUS
 62
     3
100
AcDbLine
 10
702.122267
 20
954.022195
 30
0.0
 11
700.98842
 21
954.761024
 31
0.0
  0
LINE
  5
60F
330
1F
100
AcDbEntity
  8
0
  6
CONTINUOUS
 62
     3
100
AcDbLine
 10
700.98842
 20
954.761024
 30
0.0
 11
699.730101
 21
955.447632
 31
0.0
  0
LINE
  5
610
330
1F
100
AcDbEntity
  8
0
  6
CONTINUOUS
 62
     3
100
AcDbLine
 10
699.730101
 20
955.447632
 30
0.0
 11
698.356887
 21
956.076791
 31
0.0
  0
LINE
  5
611
330
1F
100
AcDbEntity
  8
0
  6
CONTINUOUS
 62
     3
100
AcDbLine
 10
698.356887
 20
956.076791
 30
0.0
 11
696.879228
 21
956.643715
 31
0.0
  0
LINE
  5
612
330
1F
100
AcDbEntity
  8
0
  6
CONTINUOUS
 62
     3
100
AcDbLine
 10
696.879228
 20
956.643715
 30
0.0
 11
695.308371
 21
957.144088
 31
0.0
  0
LINE
  5
613
330
1F
100
AcDbEntity
  8
0
  6
CONTINUOUS
 62
     3
100
AcDbLine
 10
695.308371
 20
957.144088
 30
0.0
 11
693.656271
 21
957.574102
 31
0.0
  0
LINE
  5
614
330
1F
100
AcDbEntity
  8
0
  6
CONTINUOUS
 62
     3
100
AcDbLine
 10
693.656271
 20
957.574102
 30
0.0
 11
691.935501
 21
957.930485
 31
0.0
  0
LINE
  5
615
330
1F
100
AcDbEntity
  8
0
  6
CONTINUOUS
 62
     3
100
AcDbLine
 10
691.935501
 20
957.930485
 30
0.0
 11
690.159158
 21
958.210525
 31
0.0
  0
LINE
  5
616
330
1F
100
AcDbEntity
  8
0
  6
CONTINUOUS
 62
     3
100
AcDbLine
 10
690.159158
 20
958.210525
 30
0.0
 11
688.34076
 21
958.412089
 31
0.0
  0
LINE
  5
617
330
1F
100
AcDbEntity
  8
0
  6
CONTINUOUS
 62
     3
100
AcDbLine
 10
688.34076
 20
958.412089
 30
0.0
 11
686.494146
 21
958.533645
 31
0.0
  0
LINE
  5
618
330
1F
100
AcDbEntity
  8
0
  6
CONTINUOUS
 62
     3
100
AcDbLine
 10
686.494146
 20
958.533645
 30
0.0
 11
684.633371
 21
958.574267
 31
0.0
  0
LINE
  5
619
330
1F
100
AcDbEntity
  8
0
  6
CONTINUOUS
 62
     3
100
AcDbLine
 10
684.633371
 20
958.574267
 30
0.0
 11
682.772596
 21
958.533645
 31
0.0
  0
LINE
  5
61A
330
1F
100
AcDbEntity
  8
0
  6
CONTINUOUS
 62
     3
100
AcDbLine
 10
682.772596
 20
958.533645
 30
0.0
 11
680.925982
 21
958.412089
 31
0.0
  0
LINE
  5
61B
330
1F
100
AcDbEntity
  8
0
  6
CONTINUOUS
 62
     3
100
AcDbLine
 10
680.925982
 20
958.412089
 30
0.0
 11
679.107584
 21
958.210525
 31
0.0
  0
LINE
  5
61C
330
1F
100
AcDbEntity
  8
0
  6
CONTINUOUS
 62
     3
100
AcDbLine
 10
679.107584
 20
958.210525
 30
0.0
 11
677.331241
 21
957.930485
 31
0.0
  0
LINE
  5
61D
330
1F
100
AcDbEntity
  8
0
  6
CONTINUOUS
 62
     3
100
AcDbLine
 10
677.331241
 20
957.930485
 30
0.0
 11
675.610471
 21
957.574102
 31
0.0
  0
LINE
  5
61E
330
1F
100
AcDbEntity
  8
0
  6
CONTINUOUS
 62
     3
100
AcDbLine
 10
675.610471
 20
957.574102
 30
0.0
 11
673.958371
 21
957.144088
 31
0.0
  0
LINE
  5
61F
330
1F
100
AcDbEntity
  8
0
  6
CONTINUOUS
 62
     3
100
AcDbLine
 10
673.958371
 20
957.144088
 30
0.0
 11
672.387514
 21
956.643715
 31
0.0
  0
LINE
  5
620
330
1F
100
AcDbEntity
  8
0
  6
CONTINUOUS
 62
     3
100
AcDbLine
 10
672.387514
 20
956.643715
 30
0.0
 11
670.909856
 21
956.076791
 31
0.0
  0
LINE
  5
621
330
1F
100
AcDbEntity
  8
0
  6
CONTINUOUS
 62
     3
100
AcDbLine
 10
670.909856
 20
956.076791
 30
0.0
 11
669.536641
 21
955.447632
 31
0.0
  0
LINE
  5
622
330
1F
100
AcDbEntity
  8
0
  6
CONTINUOUS
 62
     3
100
AcDbLine
 10
669.536641
 20
955.447632
 30
0.0
 11
668.278322
 21
954.761024
 31
0.0
  0
LINE
  5
623
330
1F
100
AcDbEntity
  8
0
  6
CONTINUOUS
 62
     3
100
AcDbLine
 10
668.278322
 20
954.761024
 30
0.0
 11
667.144475
 21
954.022195
 31
0.0
  0
LINE
  5
624
330
1F
100
AcDbEntity
  8
0
  6
CONTINUOUS
 62
     3
100
AcDbLine
 10
667.144475
 20
954.022195
 30
0.0
 11
666.143729
 21
953.236767
 31
0.0
  0
LINE
  5
625
330
1F
100
AcDbEntity
  8
0
  6
CONTINUOUS
 62
     3
100
AcDbLine
 10
666.143729
 20
953.236767
 30
0.0
 11
665.2837
 21
952.410717
 31
0.0
  0
LINE
  5
626
330
1F
100
AcDbEntity
  8
0
  6
CONTINUOUS
 62
     3
100
AcDbLine
 10
665.2837
 20
952.410717
 30
0.0
 11
664.570934
 21
951.550332
 31
0.0
  0
LINE
  5
627
330
1F
100
AcDbEntity
  8
0
  6
CONTINUOUS
 62
     3
100
AcDbLine
 10
664.570934
 20
951.550332
 30
0.0
 11
664.010855
 21
950.66216
 31
0.0
  0
LINE
  5
628
330
1F
100
AcDbEntity
  8
0
  6
CONTINUOUS
 62
     3
100
AcDbLine
 10
664.010855
 20
950.66216
 30
0.0
 11
663.607726
 21
949.752961
 31
0.0
  0
LINE
  5
629
330
1F
100
AcDbEntity
  8
0
  6
CONTINUOUS
 62
     3
100
AcDbLine
 10
663.607726
 20
949.752961
 30
0.0
 11
663.364614
 21
948.829654
 31
0.0
  0
LINE
  5
62A
330
1F
100
AcDbEntity
  8
0
  6
CONTINUOUS
 62
     3
100
AcDbLine
 10
663.364614
 20
948.829654
 30
0.0
 11
663.283371
 21
947.899267
 31
0.0
  0
LINE
  5
62B
330
1F
100
AcDbEntity
  8
0
  6
CONTINUOUS
 62
     3
100
AcDbLine
 10
705.983371
 20
947.899267
 30
0.0
 11
705.983371
 21
828.011611
 31
0.0
  0
LINE
  5
62C
330
1F
100
AcDbEntity
  8
0
  6
CONTINUOUS
 62
     3
100
AcDbLine
 10
663.283371
 20
947.899267
 30
0.0
 11
663.283371
 21
828.011611
 31
0.0
  0
LINE
  5
62D
330
1F
100
AcDbEntity
  8
0
  6
CONTINUOUS
 62
     3
100
AcDbLine
 10
698.233371
 20
1029.763741
 30
0.0
 11
698.233371
 21
956.124179
 31
0.0
  0
LINE
  5
62E
330
1F
100
AcDbEntity
  8
0
  6
CONTINUOUS
 62
     3
100
AcDbLine
 10
671.033371
 20
1029.763741
 30
0.0
 11
671.033371
 21
956.124179
 31
0.0
  0
LINE
  5
62F
330
1F
100
AcDbEntity
  8
0
  6
CONTINUOUS
 62
     3
100
AcDbLine
 10
698.233371
 20
1025.965745
 30
0.0
 11
698.633371
 21
1025.965745
 31
0.0
  0
LINE
  5
630
330
1F
100
AcDbEntity
  8
0
  6
CONTINUOUS
 62
     3
100
AcDbLine
 10
698.633371
 20
1057.9469
 30
0.0
 11
698.633371
 21
1025.965745
 31
0.0
  0
LINE
  5
631
330
1F
100
AcDbEntity
  8
0
  6
CONTINUOUS
 62
     3
100
AcDbLine
 10
652.133371
 20
828.011611
 30
0.0
 11
652.133371
 21
771.681377
 31
0.0
  0
LINE
  5
632
330
1F
100
AcDbEntity
  8
0
  6
CONTINUOUS
 62
     3
100
AcDbLine
 10
652.133371
 20
822.846494
 30
0.0
 11
642.133371
 21
812.846494
 31
0.0
  0
LINE
  5
633
330
1F
100
AcDbEntity
  8
0
  6
CONTINUOUS
 62
     3
100
AcDbLine
 10
642.133371
 20
786.846494
 30
0.0
 11
642.133371
 21
812.846494
 31
0.0
  0
LINE
  5
634
330
1F
100
AcDbEntity
  8
0
  6
CONTINUOUS
 62
     3
100
AcDbLine
 10
652.133371
 20
776.846494
 30
0.0
 11
642.133371
 21
786.846494
 31
0.0
  0
LINE
  5
635
330
1F
100
AcDbEntity
  8
0
  6
CONTINUOUS
 62
     3
100
AcDbLine
 10
653.133371
 20
771.681377
 30
0.0
 11
652.133371
 21
771.681377
 31
0.0
  0
LINE
  5
636
330
1F
100
AcDbEntity
  8
0
  6
CONTINUOUS
 62
     3
100
AcDbLine
 10
684.633371
 20
803.626448
 30
0.0
 11
652.133371
 21
803.626448
 31
0.0
  0
LINE
  5
637
330
1F
100
AcDbEntity
  8
0
  6
CONTINUOUS
 62
     3
100
AcDbLine
 10
640.633371
 20
758.001174
 30
0.0
 11
640.633371
 21
830.073835
 31
0.0
  0
LINE
  5
638
330
1F
100
AcDbEntity
  8
0
  6
CONTINUOUS
 62
     3
100
AcDbLine
 10
640.633371
 20
830.073835
 30
0.0
 11
628.633371
 21
830.073835
 31
0.0
  0
LINE
  5
639
330
1F
100
AcDbEntity
  8
0
  6
CONTINUOUS
 62
     8
100
AcDbLine
 10
640.633371
 20
758.001174
 30
0.0
 11
628.633371
 21
758.001174
 31
0.0
  0
LINE
  5
63A
330
1F
100
AcDbEntity
  8
0
  6
CONTINUOUS
 62
     3
100
AcDbLine
 10
732.633371
 20
1002.877273
 30
0.0
 11
740.633371
 21
1002.877273
 31
0.0
  0
LINE
  5
63B
330
1F
100
AcDbEntity
  8
0
  6
CONTINUOUS
 62
     3
100
AcDbLine
 10
732.633371
 20
967.877273
 30
0.0
 11
740.633371
 21
967.877273
 31
0.0
  0
LINE
  5
63C
330
1F
100
AcDbEntity
  8
0
  6
CONTINUOUS
 62
     3
100
AcDbLine
 10
732.633371
 20
967.877273
 30
0.0
 11
732.633371
 21
1002.877273
 31
0.0
  0
LINE
  5
63D
330
1F
100
AcDbEntity
  8
0
  6
CONTINUOUS
 62
     3
100
AcDbLine
 10
636.633371
 20
1002.877273
 30
0.0
 11
628.633371
 21
1002.877273
 31
0.0
  0
LINE
  5
63E
330
1F
100
AcDbEntity
  8
0
  6
CONTINUOUS
 62
     3
100
AcDbLine
 10
636.633371
 20
967.877273
 30
0.0
 11
628.633371
 21
967.877273
 31
0.0
  0
LINE
  5
63F
330
1F
100
AcDbEntity
  8
0
  6
CONTINUOUS
 62
     3
100
AcDbLine
 10
636.633371
 20
967.877273
 30
0.0
 11
636.633371
 21
1002.877273
 31
0.0
  0
LINE
  5
640
330
1F
100
AcDbEntity
  8
0
  6
CONTINUOUS
 62
     3
100
AcDbLine
 10
722.633371
 20
998.977273
 30
0.0
 11
705.633371
 21
998.977273
 31
0.0
  0
LINE
  5
641
330
1F
100
AcDbEntity
  8
0
  6
CONTINUOUS
 62
     3
100
AcDbLine
 10
731.633371
 20
964.627794
 30
0.0
 11
731.633371
 21
1029.763741
 31
0.0
  0
LINE
  5
642
330
1F
100
AcDbEntity
  8
0
  6
CONTINUOUS
 62
     3
100
AcDbLine
 10
722.633371
 20
964.627794
 30
0.0
 11
722.633371
 21
1029.763741
 31
0.0
  0
LINE
  5
643
330
1F
100
AcDbEntity
  8
0
  6
CONTINUOUS
 62
     3
100
AcDbLine
 10
705.633371
 20
972.377273
 30
0.0
 11
705.633371
 21
1053.956322
 31
0.0
  0
LINE
  5
644
330
1F
100
AcDbEntity
  8
0
  6
CONTINUOUS
 62
     3
100
AcDbLine
 10
731.633371
 20
1029.763741
 30
0.0
 11
722.633371
 21
1029.763741
 31
0.0
  0
LINE
  5
645
330
1F
100
AcDbEntity
  8
0
  6
CONTINUOUS
 62
     3
100
AcDbLine
 10
705.633371
 20
1053.956322
 30
0.0
 11
699.633371
 21
1053.956322
 31
0.0
  0
LINE
  5
646
330
1F
100
AcDbEntity
  8
0
  6
CONTINUOUS
 62
     3
100
AcDbLine
 10
722.633371
 20
968.777273
 30
0.0
 11
698.233371
 21
968.777273
 31
0.0
  0
LINE
  5
647
330
1F
100
AcDbEntity
  8
0
  6
CONTINUOUS
 62
     3
100
AcDbLine
 10
731.633371
 20
964.627794
 30
0.0
 11
722.633371
 21
964.627794
 31
0.0
  0
LINE
  5
648
330
1F
100
AcDbEntity
  8
0
  6
CONTINUOUS
 62
     8
100
AcDbLine
 10
699.633371
 20
972.377273
 30
0.0
 11
705.633371
 21
972.377273
 31
0.0
  0
LINE
  5
649
330
1F
100
AcDbEntity
  8
0
  6
CONTINUOUS
 62
     8
100
AcDbLine
 10
699.633371
 20
1015.777273
 30
0.0
 11
699.633371
 21
971.777273
 31
0.0
  0
LINE
  5
64A
330
1F
100
AcDbEntity
  8
0
  6
CONTINUOUS
 62
     8
100
AcDbLine
 10
722.633371
 20
998.977273
 30
0.0
 11
722.633371
 21
1023.977273
 31
0.0
  0
LINE
  5
64B
330
1F
100
AcDbEntity
  8
0
  6
CONTINUOUS
 62
     8
100
AcDbLine
 10
705.633371
 20
1023.977273
 30
0.0
 11
705.633371
 21
998.977273
 31
0.0
  0
LINE
  5
64C
330
1F
100
AcDbEntity
  8
0
  6
CONTINUOUS
 62
     3
100
AcDbLine
 10
698.233371
 20
971.777273
 30
0.0
 11
722.633371
 21
971.777273
 31
0.0
  0
LINE
  5
64D
330
1F
100
AcDbEntity
  8
0
  6
CONTINUOUS
 62
     8
100
AcDbLine
 10
722.633371
 20
971.777273
 30
0.0
 11
722.633371
 21
965.777273
 31
0.0
  0
LINE
  5
64E
330
1F
100
AcDbEntity
  8
0
  6
CONTINUOUS
 62
     3
100
AcDbLine
 10
646.633371
 20
998.977273
 30
0.0
 11
663.633371
 21
998.977273
 31
0.0
  0
LINE
  5
64F
330
1F
100
AcDbEntity
  8
0
  6
CONTINUOUS
 62
     3
100
AcDbLine
 10
637.633371
 20
964.627794
 30
0.0
 11
637.633371
 21
1029.763741
 31
0.0
  0
LINE
  5
650
330
1F
100
AcDbEntity
  8
0
  6
CONTINUOUS
 62
     3
100
AcDbLine
 10
646.633371
 20
964.627794
 30
0.0
 11
646.633371
 21
1029.763741
 31
0.0
  0
LINE
  5
651
330
1F
100
AcDbEntity
  8
0
  6
CONTINUOUS
 62
     3
100
AcDbLine
 10
663.633371
 20
972.377273
 30
0.0
 11
663.633371
 21
1053.956322
 31
0.0
  0
LINE
  5
652
330
1F
100
AcDbEntity
  8
0
  6
CONTINUOUS
 62
     3
100
AcDbLine
 10
637.633371
 20
1029.763741
 30
0.0
 11
646.633371
 21
1029.763741
 31
0.0
  0
LINE
  5
653
330
1F
100
AcDbEntity
  8
0
  6
CONTINUOUS
 62
     3
100
AcDbLine
 10
663.633371
 20
1053.956322
 30
0.0
 11
669.633371
 21
1053.956322
 31
0.0
  0
LINE
  5
654
330
1F
100
AcDbEntity
  8
0
  6
CONTINUOUS
 62
     3
100
AcDbLine
 10
646.633371
 20
968.777273
 30
0.0
 11
671.033371
 21
968.777273
 31
0.0
  0
LINE
  5
655
330
1F
100
AcDbEntity
  8
0
  6
CONTINUOUS
 62
     3
100
AcDbLine
 10
637.633371
 20
964.627794
 30
0.0
 11
646.633371
 21
964.627794
 31
0.0
  0
LINE
  5
656
330
1F
100
AcDbEntity
  8
0
  6
CONTINUOUS
 62
     3
100
AcDbLine
 10
669.633371
 20
972.377273
 30
0.0
 11
663.633371
 21
972.377273
 31
0.0
  0
LINE
  5
657
330
1F
100
AcDbEntity
  8
0
  6
CONTINUOUS
 62
     3
100
AcDbLine
 10
669.633371
 20
1015.777273
 30
0.0
 11
669.633371
 21
971.777273
 31
0.0
  0
LINE
  5
658
330
1F
100
AcDbEntity
  8
0
  6
CONTINUOUS
 62
     8
100
AcDbLine
 10
646.633371
 20
971.777273
 30
0.0
 11
646.633371
 21
965.777273
 31
0.0
  0
LINE
  5
659
330
1F
100
AcDbEntity
  8
0
  6
CONTINUOUS
 62
     3
100
AcDbLine
 10
646.633371
 20
971.777273
 30
0.0
 11
671.033371
 21
971.777273
 31
0.0
  0
LINE
  5
65A
330
1F
100
AcDbEntity
  8
0
  6
CONTINUOUS
 62
     3
100
AcDbLine
 10
722.633371
 20
1011.477273
 30
0.0
 11
705.633371
 21
1011.477273
 31
0.0
  0
LINE
  5
65B
330
1F
100
AcDbEntity
  8
0
  6
CONTINUOUS
 62
     8
100
AcDbLine
 10
722.633371
 20
998.977273
 30
0.0
 11
705.633371
 21
998.977273
 31
0.0
  0
LINE
  5
65C
330
1F
100
AcDbEntity
  8
0
  6
CONTINUOUS
 62
     8
100
AcDbLine
 10
646.633371
 20
998.977273
 30
0.0
 11
646.633371
 21
1023.977273
 31
0.0
  0
LINE
  5
65D
330
1F
100
AcDbEntity
  8
0
  6
CONTINUOUS
 62
     8
100
AcDbLine
 10
646.633371
 20
998.977273
 30
0.0
 11
663.633371
 21
998.977273
 31
0.0
  0
LINE
  5
65E
330
1F
100
AcDbEntity
  8
0
  6
CONTINUOUS
 62
     8
100
AcDbLine
 10
663.633371
 20
1023.977273
 30
0.0
 11
663.633371
 21
998.977273
 31
0.0
  0
LINE
  5
65F
330
1F
100
AcDbEntity
  8
0
  6
CONTINUOUS
 62
     3
100
AcDbLine
 10
646.633371
 20
1011.477273
 30
0.0
 11
663.633371
 21
1011.477273
 31
0.0
  0
LINE
  5
660
330
1F
100
AcDbEntity
  8
0
  6
CONTINUOUS
 62
     3
100
AcDbLine
 10
699.633371
 20
972.377273
 30
0.0
 11
699.633371
 21
1053.956322
 31
0.0
  0
LINE
  5
661
330
1F
100
AcDbEntity
  8
0
  6
CONTINUOUS
 62
     3
100
AcDbLine
 10
669.633371
 20
1053.956322
 30
0.0
 11
669.633371
 21
972.377273
 31
0.0
  0
LINE
  5
662
330
1F
100
AcDbEntity
  8
0
  6
CONTINUOUS
 62
     3
100
AcDbLine
 10
722.633371
 20
1002.977273
 30
0.0
 11
705.633371
 21
1002.977273
 31
0.0
  0
LINE
  5
663
330
1F
100
AcDbEntity
  8
0
  6
CONTINUOUS
 62
     3
100
AcDbLine
 10
646.633371
 20
1002.977273
 30
0.0
 11
663.633371
 21
1002.977273
 31
0.0
  0
LINE
  5
664
330
1F
100
AcDbEntity
  8
0
  6
CENTER
 62
     6
100
AcDbLine
 10
718.24236
 20
997.897845
 30
0.0
 11
736.51429
 21
997.897845
 31
0.0
  0
LINE
  5
665
330
1F
100
AcDbEntity
  8
0
  6
CENTER
 62
     6
100
AcDbLine
 10
651.024382
 20
997.897845
 30
0.0
 11
632.752452
 21
997.897845
 31
0.0
  0
LINE
  5
666
330
1F
100
AcDbEntity
  8
0
  6
CONTINUOUS
 62
     3
100
AcDbLine
 10
698.633371
 20
1057.9469
 30
0.0
 11
670.633371
 21
1057.9469
 31
0.0
  0
LINE
  5
667
330
1F
100
AcDbEntity
  8
0
  6
CONTINUOUS
 62
     3
100
AcDbLine
 10
698.633371
 20
1037.063741
 30
0.0
 11
670.633371
 21
1037.063741
 31
0.0
  0
LINE
  5
668
330
1F
100
AcDbEntity
  8
0
  6
CONTINUOUS
 62
     3
100
AcDbLine
 10
670.633371
 20
1057.9469
 30
0.0
 11
670.633371
 21
1025.965745
 31
0.0
  0
LINE
  5
669
330
1F
100
AcDbEntity
  8
0
  6
CONTINUOUS
 62
     8
100
AcDbLine
 10
671.033371
 20
1025.965745
 30
0.0
 11
670.633371
 21
1025.965745
 31
0.0
  0
LINE
  5
66A
330
1F
100
AcDbEntity
  8
0
  6
CENTER
 62
     6
100
AcDbLine
 10
717.883371
 20
1041.956322
 30
0.0
 11
651.383371
 21
1041.956322
 31
0.0
  0
LINE
  5
66B
330
1F
100
AcDbEntity
  8
0
  6
CENTER
 62
     6
100
AcDbLine
 10
614.46901
 20
985.377273
 30
0.0
 11
749.640584
 21
985.377273
 31
0.0
  0
ARC
  5
66C
330
1F
100
AcDbEntity
  8
0
  6
CONTINUOUS
 62
     3
100
AcDbCircle
 10
1492.125389
 20
1038.191738
 30
0.0
 40
8.5
100
AcDbArc
 50
31.15229
 51
174.163725
  0
LINE
  5
66D
330
1F
100
AcDbEntity
  8
0
  6
CONTINUOUS
 62
     3
100
AcDbLine
 10
1483.669449
 20
1039.05607
 30
0.0
 11
1482.007336
 21
1022.795285
 31
0.0
  0
LINE
  5
66E
330
1F
100
AcDbEntity
  8
0
  6
CONTINUOUS
 62
     3
100
AcDbLine
 10
705.633371
 20
1050.456322
 30
0.0
 11
708.633371
 21
1050.456322
 31
0.0
  0
LINE
  5
66F
330
1F
100
AcDbEntity
  8
0
  6
CONTINUOUS
 62
     3
100
AcDbLine
 10
708.633371
 20
1050.456322
 30
0.0
 11
708.633371
 21
1018.456322
 31
0.0
  0
LINE
  5
670
330
1F
100
AcDbEntity
  8
0
  6
CONTINUOUS
 62
     3
100
AcDbLine
 10
708.633371
 20
1018.456322
 30
0.0
 11
705.633371
 21
1018.456322
 31
0.0
  0
LINE
  5
671
330
1F
100
AcDbEntity
  8
0
  6
CONTINUOUS
 62
     3
100
AcDbLine
 10
708.633371
 20
1020.956322
 30
0.0
 11
709.633371
 21
1020.956322
 31
0.0
  0
LINE
  5
672
330
1F
100
AcDbEntity
  8
0
  6
CONTINUOUS
 62
     3
100
AcDbLine
 10
709.633371
 20
1021.456322
 30
0.0
 11
713.633371
 21
1021.456322
 31
0.0
  0
LINE
  5
673
330
1F
100
AcDbEntity
  8
0
  6
CONTINUOUS
 62
     3
100
AcDbLine
 10
713.633371
 20
1021.456322
 30
0.0
 11
713.633371
 21
1032.456322
 31
0.0
  0
LINE
  5
674
330
1F
100
AcDbEntity
  8
0
  6
CONTINUOUS
 62
     3
100
AcDbLine
 10
713.633371
 20
1032.456322
 30
0.0
 11
709.633371
 21
1032.456322
 31
0.0
  0
LINE
  5
675
330
1F
100
AcDbEntity
  8
0
  6
CONTINUOUS
 62
     3
100
AcDbLine
 10
709.633371
 20
1032.956322
 30
0.0
 11
708.633371
 21
1032.956322
 31
0.0
  0
LINE
  5
676
330
1F
100
AcDbEntity
  8
0
  6
CONTINUOUS
 62
     3
100
AcDbLine
 10
709.633371
 20
1032.956322
 30
0.0
 11
709.633371
 21
1020.956322
 31
0.0
  0
LINE
  5
677
330
1F
100
AcDbEntity
  8
0
  6
CONTINUOUS
 62
     3
100
AcDbLine
 10
713.633371
 20
1029.656322
 30
0.0
 11
709.633371
 21
1029.656322
 31
0.0
  0
LINE
  5
678
330
1F
100
AcDbEntity
  8
0
  6
CONTINUOUS
 62
     3
100
AcDbLine
 10
709.633371
 20
1024.256322
 30
0.0
 11
713.633371
 21
1024.256322
 31
0.0
  0
LINE
  5
679
330
1F
100
AcDbEntity
  8
0
  6
CONTINUOUS
 62
     3
100
AcDbLine
 10
663.633371
 20
1047.956322
 30
0.0
 11
662.633371
 21
1047.956322
 31
0.0
  0
LINE
  5
67A
330
1F
100
AcDbEntity
  8
0
  6
CONTINUOUS
 62
     3
100
AcDbLine
 10
662.633371
 20
1047.956322
 30
0.0
 11
661.633371
 21
1046.956322
 31
0.0
  0
LINE
  5
67B
330
1F
100
AcDbEntity
  8
0
  6
CONTINUOUS
 62
     3
100
AcDbLine
 10
661.633371
 20
1046.956322
 30
0.0
 11
661.633371
 21
1036.956322
 31
0.0
  0
LINE
  5
67C
330
1F
100
AcDbEntity
  8
0
  6
CONTINUOUS
 62
     3
100
AcDbLine
 10
661.633371
 20
1036.956322
 30
0.0
 11
662.633371
 21
1035.956322
 31
0.0
  0
LINE
  5
67D
330
1F
100
AcDbEntity
  8
0
  6
CONTINUOUS
 62
     3
100
AcDbLine
 10
662.633371
 20
1035.956322
 30
0.0
 11
663.633371
 21
1035.956322
 31
0.0
  0
LINE
  5
67E
330
1F
100
AcDbEntity
  8
0
  6
PHANTOM
 62
     6
100
AcDbLine
 10
736.383371
 20
878.633849
 30
0.0
 11
736.383371
 21
1036.80902
 31
0.0
  0
LINE
  5
67F
330
1F
100
AcDbEntity
  8
0
  6
PHANTOM
 62
     6
100
AcDbLine
 10
717.883371
 20
878.633849
 30
0.0
 11
717.883371
 21
1036.80902
 31
0.0
  0
LINE
  5
680
330
1F
100
AcDbEntity
  8
0
  6
PHANTOM
 62
     6
100
AcDbLine
 10
632.883371
 20
878.633849
 30
0.0
 11
632.883371
 21
1036.80902
 31
0.0
  0
LINE
  5
681
330
1F
100
AcDbEntity
  8
0
  6
PHANTOM
 62
     6
100
AcDbLine
 10
651.383371
 20
878.633849
 30
0.0
 11
651.383371
 21
1036.80902
 31
0.0
  0
LINE
  5
682
330
1F
100
AcDbEntity
  8
0
  6
CONTINUOUS
 62
     6
100
AcDbLine
 10
2164.093418
 20
1398.921865
 30
0.0
 11
1625.50139
 21
1398.921865
 31
0.0
  0
ARC
  5
683
330
1F
100
AcDbEntity
  8
0
  6
CONTINUOUS
 62
     3
100
AcDbCircle
 10
2073.130999
 20
1772.921865
 30
0.0
 40
30.0
100
AcDbArc
 50
180.0
 51
300.0
  0
ARC
  5
684
330
1F
100
AcDbEntity
  8
0
  6
CONTINUOUS
 62
     3
100
AcDbCircle
 10
2073.130999
 20
1772.921865
 30
0.0
 40
37.0
100
AcDbArc
 50
180.0
 51
300.0
  0
LINE
  5
685
330
1F
100
AcDbEntity
  8
0
  6
CONTINUOUS
 62
     3
100
AcDbLine
 10
2218.244226
 20
1813.979106
 30
0.0
 11
2091.630999
 21
1740.878925
 31
0.0
  0
LINE
  5
686
330
1F
100
AcDbEntity
  8
0
  6
CONTINUOUS
 62
     3
100
AcDbLine
 10
2214.744226
 20
1820.041284
 30
0.0
 11
2088.130999
 21
1746.941103
 31
0.0
  0
ARC
  5
687
330
1F
100
AcDbEntity
  8
0
  6
CONTINUOUS
 62
     3
100
AcDbCircle
 10
2073.130999
 20
1772.921865
 30
0.0
 40
30.0
100
AcDbArc
 50
330.650201
 51
180.0
  0
ARC
  5
688
330
1F
100
AcDbEntity
  8
0
  6
CONTINUOUS
 62
     3
100
AcDbCircle
 10
2073.130999
 20
1772.921865
 30
0.0
 40
37.0
100
AcDbArc
 50
345.857154
 51
180.0
  0
LINE
  5
689
330
1F
100
AcDbEntity
  8
0
  6
CONTINUOUS
 62
     3
100
AcDbLine
 10
2214.994226
 20
1819.608271
 30
0.0
 11
2217.994226
 21
1814.412119
 31
0.0
  0
LINE
  5
68A
330
1F
100
AcDbEntity
  8
0
  6
CONTINUOUS
 62
     3
100
AcDbLine
 10
2228.814734
 20
1835.670449
 30
0.0
 11
2238.814734
 21
1818.349941
 31
0.0
  0
LINE
  5
68B
330
1F
100
AcDbEntity
  8
0
  6
CONTINUOUS
 62
     3
100
AcDbLine
 10
2228.814734
 20
1835.670449
 30
0.0
 11
2217.556404
 21
1829.170449
 31
0.0
  0
LINE
  5
68C
330
1F
100
AcDbEntity
  8
0
  6
CONTINUOUS
 62
     3
100
AcDbLine
 10
2238.814734
 20
1818.349941
 30
0.0
 11
2227.556404
 21
1811.849941
 31
0.0
  0
ARC
  5
68D
330
1F
100
AcDbEntity
  8
0
  6
CONTINUOUS
 62
     3
100
AcDbCircle
 10
2221.056404
 20
1823.108271
 30
0.0
 40
7.000000000000001
100
AcDbArc
 50
120.0
 51
210.0
  0
ARC
  5
68E
330
1F
100
AcDbEntity
  8
0
  6
CONTINUOUS
 62
     3
100
AcDbCircle
 10
2224.056404
 20
1817.912119
 30
0.0
 40
7.000000000000001
100
AcDbArc
 50
210.0
 51
300.0
  0
LINE
  5
68F
330
1F
100
AcDbEntity
  8
0
  6
CONTINUOUS
 62
     3
100
AcDbLine
 10
2239.974988
 20
1836.340322
 30
0.0
 11
2231.314734
 21
1831.340322
 31
0.0
  0
LINE
  5
690
330
1F
100
AcDbEntity
  8
0
  6
CONTINUOUS
 62
     3
100
AcDbLine
 10
2244.974988
 20
1827.680068
 30
0.0
 11
2236.314734
 21
1822.680068
 31
0.0
  0
LINE
  5
691
330
1F
100
AcDbEntity
  8
0
  6
CONTINUOUS
 62
     3
100
AcDbLine
 10
2210.252366
 20
1687.421865
 30
0.0
 11
2283.627466
 21
1560.332463
 31
0.0
  0
LINE
  5
692
330
1F
100
AcDbEntity
  8
0
  6
CONTINUOUS
 62
     3
100
AcDbLine
 10
2204.190188
 20
1683.921865
 30
0.0
 11
2277.565288
 21
1556.832463
 31
0.0
  0
LINE
  5
693
330
1F
100
AcDbEntity
  8
0
  6
CONTINUOUS
 62
     3
100
AcDbLine
 10
1925.914348
 20
1742.921865
 30
0.0
 11
2043.454291
 21
1742.921865
 31
0.0
  0
LINE
  5
694
330
1F
100
AcDbEntity
  8
0
  6
CONTINUOUS
 62
     3
100
AcDbLine
 10
1925.914348
 20
1735.921865
 30
0.0
 11
2053.216457
 21
1735.921865
 31
0.0
  0
LINE
  5
695
330
1F
100
AcDbEntity
  8
0
  6
CONTINUOUS
 62
     3
100
AcDbLine
 10
1925.914348
 20
1710.921865
 30
0.0
 11
2150.267106
 21
1710.921865
 31
0.0
  0
LINE
  5
696
330
1F
100
AcDbEntity
  8
0
  6
CONTINUOUS
 62
     3
100
AcDbLine
 10
1925.914348
 20
1703.921865
 30
0.0
 11
2139.560215
 21
1703.921865
 31
0.0
  0
LINE
  5
697
330
1F
100
AcDbEntity
  8
0
  6
CONTINUOUS
 62
     6
100
AcDbLine
 10
2219.579876
 20
1830.338701
 30
0.0
 11
2096.622681
 21
2034.294741
 31
0.0
  0
INSERT
  5
698
330
1F
100
AcDbEntity
  8
0
  6
CONTINUOUS
 62
     6
100
AcDbBlockReference
  2
EDTIP_ARROW_S
 10
2219.579876
 20
1830.338701
 30
0.0
 41
30.0
 42
30.0
 50
301.084147
  0
TEXT
  5
699
330
1F
100
AcDbEntity
  8
0
  6
CONTINUOUS
 62
     3
100
AcDbText
 10
2130.568604
 20
2045.645508
 30
0.0
 40
30.0
  1
電源コード　３ｍ
 41
0.8
  7
ED_VECTOR
100
AcDbText
  0
ARC
  5
69A
330
1F
100
AcDbEntity
  8
0
  6
CONTINUOUS
 62
     3
100
AcDbCircle
 10
2169.549172
 20
1663.921865
 30
0.0
 40
47.0
100
AcDbArc
 50
30.0
 51
350.864906
  0
ARC
  5
69B
330
1F
100
AcDbEntity
  8
0
  6
CONTINUOUS
 62
     3
100
AcDbCircle
 10
2169.549172
 20
1663.921865
 30
0.0
 40
40.0
100
AcDbArc
 50
30.0
 51
0.922892
  0
LINE
  5
69C
330
1F
100
AcDbEntity
  8
0
  6
CONTINUOUS
 62
     6
100
AcDbLine
 10
2096.622681
 20
2034.294741
 30
0.0
 11
2391.609934
 21
2034.294741
 31
0.0
  0
LINE
  5
69D
330
1F
100
AcDbEntity
  8
0
  6
CONTINUOUS
 62
     6
100
AcDbLine
 10
2244.71861
 20
1480.22458
 30
0.0
 11
2164.093418
 21
1398.921865
 31
0.0
  0
INSERT
  5
69E
330
1F
100
AcDbEntity
  8
0
  6
CONTINUOUS
 62
     6
100
AcDbBlockReference
  2
EDTIP_ARROW_S
 10
2244.71861
 20
1480.22458
 30
0.0
 41
30.0
 42
30.0
 50
45.23973
  0
TEXT
  5
69F
330
1F
100
AcDbEntity
  8
0
  6
CONTINUOUS
 62
     3
100
AcDbText
 10
1667.397339
 20
1411.149902
 30
0.0
 40
30.0
  1
フットスイッチ（ＵＰ・ＤＯＷＮ）
 41
0.8
  7
ED_VECTOR
100
AcDbText
  0
TEXT
  5
6A0
330
1F
100
AcDbEntity
  8
0
  6
CONTINUOUS
 62
     3
100
AcDbText
 10
1780.571899
 20
1355.30542
 30
0.0
 40
30.0
  1
コード長サ ２ｍ
 41
0.8
  7
ED_VECTOR
100
AcDbText
  0
DIMENSION
  5
6A1
330
1F
100
AcDbEntity
  8
0
100
AcDbDimension
  2
*D25
 10
1928.243902
 20
1270.443983
 30
0.0
 11
1578.243774
 21
1271.444214
 31
0.0
 70
    33
  3
EDDIMINFO
100
AcDbAlignedDimension
 13
1228.243902
 23
1176.643983
 33
0.0
 14
1928.243902
 24
1176.643983
 34
0.0
1001
ACAD
1000
DSTYLE
1002
{
1070
     7
1000
EDTIP_ARROW_E
1070
     6
1000
EDTIP_ARROW_S
1070
   173
1070
     1
1002
}
  0
DIMENSION
  5
6AB
330
1F
100
AcDbEntity
  8
0
100
AcDbDimension
  2
*D26
 10
784.633371
 20
1270.443983
 30
0.0
 11
684.633301
 21
1271.444092
 31
0.0
 70
    33
  3
EDDIMINFO
100
AcDbAlignedDimension
 13
584.633371
 23
1176.643983
 33
0.0
 14
784.633371
 24
1176.643983
 34
0.0
1001
ACAD
1000
DSTYLE
1002
{
1070
     7
1000
EDTIP_ARROW_E
1070
     6
1000
EDTIP_ARROW_S
1070
   173
1070
     1
1002
}
  0
DIMENSION
  5
6B5
330
1F
100
AcDbEntity
  8
0
100
AcDbDimension
  2
*D27
 10
1228.243902
 20
1021.758714
 30
0.0
 11
1135.689453
 21
1022.758667
 31
0.0
 70
    32
  3
EDDIMINFO
100
AcDbAlignedDimension
 13
1205.189505
 23
666.643983
 33
0.0
 14
1228.243902
 24
1131.443983
 34
0.0
 50
180.0
100
AcDbRotatedDimension
  0
DIMENSION
  5
6C1
330
1F
100
AcDbEntity
  8
0
100
AcDbDimension
  2
*D28
 10
1905.414348
 20
460.443983
 30
0.0
 11
1555.414185
 21
461.444061
 31
0.0
 70
    33
  3
EDDIMINFO
100
AcDbAlignedDimension
 13
1205.414348
 23
571.443983
 33
0.0
 14
1905.414348
 24
571.443983
 34
0.0
1001
ACAD
1000
DSTYLE
1002
{
1070
     7
1000
EDTIP_ARROW_E
1070
     6
1000
EDTIP_ARROW_S
1070
   173
1070
     1
1002
}
  0
DIMENSION
  5
6CB
330
1F
100
AcDbEntity
  8
0
100
AcDbDimension
  2
*D29
 10
2062.100405
 20
660.443983
 30
0.0
 11
2061.100586
 21
620.20813
 31
0.0
 70
    32
  3
EDDIMINFO
100
AcDbAlignedDimension
 13
1914.414348
 23
580.443983
 33
0.0
 14
1911.389505
 24
660.443983
 34
0.0
 50
270.0
100
AcDbRotatedDimension
  0
DIMENSION
  5
6D5
330
1F
100
AcDbEntity
  8
0
100
AcDbDimension
  2
*D30
 10
2062.100405
 20
1170.443983
 30
0.0
 11
2061.100586
 21
915.44397
 31
0.0
 70
    33
  3
EDDIMINFO
100
AcDbAlignedDimension
 13
1934.443902
 23
660.443983
 33
0.0
 14
1934.443902
 24
1170.443983
 34
0.0
1001
ACAD
1000
DSTYLE
1002
{
1070
     7
1000
EDTIP_ARROW_E
1070
     6
1000
EDTIP_ARROW_S
1070
   173
1070
     1
1002
}
  0
DIMENSION
  5
6DE
330
1F
100
AcDbEntity
  8
0
100
AcDbDimension
  2
*D31
 10
2142.100405
 20
1170.443983
 30
0.0
 11
2141.100586
 21
875.44397
 31
0.0
 70
    32
  3
EDDIMINFO
100
AcDbAlignedDimension
 13
1914.414348
 23
580.443983
 33
0.0
 14
1934.443902
 24
1170.443983
 34
0.0
 50
270.0
100
AcDbRotatedDimension
1001
ACAD
1000
DSTYLE
1002
{
1070
     7
1000
EDTIP_ARROW_E
1070
     6
1000
EDTIP_ARROW_S
1070
   173
1070
     1
1002
}
  0
TEXT
  5
6E8
330
1F
100
AcDbEntity
  8
0
  6
CONTINUOUS
 62
     3
100
AcDbText
 10
2173.679443
 20
1993.014648
 30
0.0
 40
30.0
  1
ＡＣ１００ｖ
 41
0.8
  7
ED_VECTOR
100
AcDbText
  0
LINE
  5
6E9
330
1F
100
AcDbEntity
  8
0
  6
CONTINUOUS
 62
     6
100
AcDbLine
 10
534.633371
 20
580.443983
 30
0.0
 11
424.265361
 21
580.443983
 31
0.0
  0
LINE
  5
6EA
330
1F
100
AcDbEntity
  8
0
  6
CONTINUOUS
 62
     6
100
AcDbLine
 10
834.633371
 20
580.443983
 30
0.0
 11
1205.414348
 21
580.443983
 31
0.0
  0
LINE
  5
6EB
330
1F
100
AcDbEntity
  8
0
  6
CONTINUOUS
 62
     6
100
AcDbLine
 10
1905.414348
 20
580.443983
 30
0.0
 11
2465.999501
 21
580.443983
 31
0.0
  0
TEXT
  5
6EC
330
1F
100
AcDbEntity
  8
0
  6
CONTINUOUS
 62
     3
100
AcDbText
 10
2386.625732
 20
590.009399
 30
0.0
 40
40.0
  1
Ｆ．Ｌ
 41
0.75
  7
ED_VECTOR
100
AcDbText
  0
LINE
  5
6ED
330
1F
100
AcDbEntity
  8
0
  6
CENTER
 62
     6
100
AcDbLine
 10
1336.117149
 20
807.600409
 30
0.0
 11
1364.551776
 21
790.529416
 31
0.0
  0
LINE
  5
6EE
330
1F
100
AcDbEntity
  8
0
  6
CENTER
 62
     6
100
AcDbLine
 10
1405.646569
 20
859.047216
 30
0.0
 11
1440.908986
 21
859.047216
 31
0.0
  0
LINE
  5
6EF
330
1F
100
AcDbEntity
  8
0
  6
CENTER
 62
     6
100
AcDbLine
 10
1423.272248
 20
877.404754
 30
0.0
 11
1423.272248
 21
839.326708
 31
0.0
  0
LINE
  5
6F0
330
1F
100
AcDbEntity
  8
0
  6
CENTER
 62
     6
100
AcDbLine
 10
1598.000593
 20
1119.414875
 30
0.0
 11
1598.000593
 21
1154.140981
 31
0.0
  0
LINE
  5
6F1
330
1F
100
AcDbEntity
  8
0
  6
CENTER
 62
     6
100
AcDbLine
 10
1578.070401
 20
1138.143983
 30
0.0
 11
1617.355146
 21
1138.143983
 31
0.0
  0
LINE
  5
6F2
330
1F
100
AcDbEntity
  8
0
  6
CENTER
 62
     6
100
AcDbLine
 10
1606.226703
 20
597.443983
 30
0.0
 11
1639.075722
 21
597.443983
 31
0.0
  0
LINE
  5
6F3
330
1F
100
AcDbEntity
  8
0
  6
CENTER
 62
     6
100
AcDbLine
 10
1621.130147
 20
612.601436
 30
0.0
 11
1621.130147
 21
585.115522
 31
0.0
  0
LINE
  5
6F4
330
1F
100
AcDbEntity
  8
0
  6
CONTINUOUS
 62
     3
100
AcDbLine
 10
1925.914348
 20
619.943983
 30
0.0
 11
2000.884205
 21
619.943983
 31
0.0
  0
LINE
  5
6F5
330
1F
100
AcDbEntity
  8
0
  6
CONTINUOUS
 62
     3
100
AcDbLine
 10
1925.914348
 20
612.943983
 30
0.0
 11
2000.884205
 21
612.943983
 31
0.0
  0
LINE
  5
6F6
330
1F
100
AcDbEntity
  8
0
  6
CENTER
 62
     6
100
AcDbLine
 10
1497.940638
 20
990.644478
 30
0.0
 11
1523.190883
 21
971.547006
 31
0.0
  0
LINE
  5
6F7
330
1F
100
AcDbEntity
  8
0
  6
CENTER
 62
     6
100
AcDbLine
 10
1501.017024
 20
968.470619
 30
0.0
 11
1520.114496
 21
993.720865
 31
0.0
  0
CIRCLE
  5
6F8
330
1F
100
AcDbEntity
  8
0
  6
CONTINUOUS
 62
     3
100
AcDbCircle
 10
1510.56576
 20
981.095742
 30
0.0
 40
6.000000000000001
  0
LINE
  5
6F9
330
1F
100
AcDbEntity
  8
0
  6
CONTINUOUS
 62
     3
100
AcDbLine
 10
1515.56576
 20
983.982493
 30
0.0
 11
1510.56576
 21
986.869245
 31
0.0
  0
LINE
  5
6FA
330
1F
100
AcDbEntity
  8
0
  6
CONTINUOUS
 62
     3
100
AcDbLine
 10
1510.56576
 20
986.869245
 30
0.0
 11
1505.56576
 21
983.982493
 31
0.0
  0
LINE
  5
6FB
330
1F
100
AcDbEntity
  8
0
  6
CONTINUOUS
 62
     3
100
AcDbLine
 10
1505.56576
 20
983.982493
 30
0.0
 11
1505.56576
 21
978.208991
 31
0.0
  0
LINE
  5
6FC
330
1F
100
AcDbEntity
  8
0
  6
CONTINUOUS
 62
     3
100
AcDbLine
 10
1505.56576
 20
978.208991
 30
0.0
 11
1510.56576
 21
975.322239
 31
0.0
  0
LINE
  5
6FD
330
1F
100
AcDbEntity
  8
0
  6
CONTINUOUS
 62
     3
100
AcDbLine
 10
1510.56576
 20
975.322239
 30
0.0
 11
1515.56576
 21
978.208991
 31
0.0
  0
LINE
  5
6FE
330
1F
100
AcDbEntity
  8
0
  6
CONTINUOUS
 62
     3
100
AcDbLine
 10
1515.56576
 20
978.208991
 30
0.0
 11
1515.56576
 21
983.982493
 31
0.0
  0
CIRCLE
  5
6FF
330
1F
100
AcDbEntity
  8
0
  6
CONTINUOUS
 62
     3
100
AcDbCircle
 10
1510.56576
 20
981.095742
 30
0.0
 40
12.0
  0
LINE
  5
700
330
1F
100
AcDbEntity
  8
0
  6
CENTER
 62
     6
100
AcDbLine
 10
1492.125389
 20
1038.191738
 30
0.0
 11
1501.962069
 21
1054.576393
 31
0.0
  0
INSERT
  5
704
330
1F
100
AcDbEntity
  8
0
100
AcDbBlockReference
  2
BLKF035
 10
0.0
 20
0.0
 30
0.0
  0
INSERT
  5
7A5
330
1F
100
AcDbEntity
  8
0
100
AcDbBlockReference
  2
EDDIM036
 10
0.0
 20
0.0
 30
0.0
  0
LINE
  5
7A8
330
1F
100
AcDbEntity
  8
0
  6
CONTINUOUS
 62
     6
100
AcDbLine
 10
1105.414348
 20
1848.421865
 30
0.0
 11
1105.414348
 21
1985.489322
 31
0.0
  0
DIMENSION
  5
7A9
330
1F
100
AcDbEntity
  8
0
100
AcDbDimension
  2
*D34
 10
1105.414348
 20
1848.421865
 30
0.0
 11
1104.414551
 21
1723.421997
 31
0.0
 70
    33
  3
EDDIMINFO
100
AcDbAlignedDimension
 13
1202.720422
 23
1598.421865
 33
0.0
 14
1202.720422
 24
1848.421865
 34
0.0
1001
ACAD
1000
DSTYLE
1002
{
1070
     7
1000
EDTIP_ARROW_E
1070
     6
1000
EDTIP_ARROW_S
1070
   173
1070
     1
1002
}
  0
DIMENSION
  5
7B3
330
1F
100
AcDbEntity
  8
0
100
AcDbDimension
  2
*D35
 10
1025.414348
 20
1873.421865
 30
0.0
 11
1024.414551
 21
1723.421997
 31
0.0
 70
    33
  3
EDDIMINFO
100
AcDbAlignedDimension
 13
1201.414348
 23
1573.421865
 33
0.0
 14
1201.414348
 24
1873.421865
 34
0.0
1001
ACAD
1000
DSTYLE
1002
{
1070
     7
1000
EDTIP_ARROW_E
1070
     6
1000
EDTIP_ARROW_S
1070
   173
1070
     1
1002
}
  0
DIMENSION
  5
7BD
330
1F
100
AcDbEntity
  8
0
100
AcDbDimension
  2
*D36
 10
1224.414348
 20
1453.421865
 30
0.0
 11
1160.914429
 21
1454.421753
 31
0.0
 70
    32
  3
EDDIMINFO
100
AcDbAlignedDimension
 13
1205.414348
 23
1569.421865
 33
0.0
 14
1224.414348
 24
1576.960342
 34
0.0
 50
180.0
100
AcDbRotatedDimension
  0
LINE
  5
7C9
330
1F
100
AcDbEntity
  8
0
  6
CONTINUOUS
 62
     5
100
AcDbLine
 10
1227.787993
 20
1592.865921
 30
0.0
 11
1312.460306
 21
1453.421865
 31
0.0
  0
INSERT
  5
7CA
330
1F
100
AcDbEntity
  8
0
  6
CONTINUOUS
 62
     5
100
AcDbBlockReference
  2
EDTIP_ARROW_S
 10
1227.787993
 20
1592.865921
 30
0.0
 41
30.0
 42
30.0
 50
121.266689
  0
LINE
  5
7CB
330
1F
100
AcDbEntity
  8
0
  6
CONTINUOUS
 62
     5
100
AcDbLine
 10
1454.34424
 20
1453.421865
 30
0.0
 11
1312.460306
 21
1453.421865
 31
0.0
  0
TEXT
  5
7CC
330
1F
100
AcDbEntity
  8
0
  6
CONTINUOUS
 62
     3
100
AcDbText
 10
1320.126343
 20
1457.371704
 30
0.0
 40
30.0
  1
2-φ13
 41
0.833333
  7
ED_VECTOR
100
AcDbText
  0
LINE
  5
7CD
330
1F
100
AcDbEntity
  8
0
  6
CONTINUOUS
 62
     3
100
AcDbLine
 10
1925.914348
 20
1746.421865
 30
0.0
 11
1925.914348
 21
1732.671865
 31
0.0
  0
LINE
  5
7CE
330
1F
100
AcDbEntity
  8
0
  6
CONTINUOUS
 62
     3
100
AcDbLine
 10
1920.414348
 20
1746.421865
 30
0.0
 11
1925.914348
 21
1746.421865
 31
0.0
  0
LINE
  5
7CF
330
1F
100
AcDbEntity
  8
0
  6
CONTINUOUS
 62
     3
100
AcDbLine
 10
1913.914348
 20
1747.421865
 30
0.0
 11
1919.414348
 21
1747.421865
 31
0.0
  0
LINE
  5
7D0
330
1F
100
AcDbEntity
  8
0
  6
CONTINUOUS
 62
     3
100
AcDbLine
 10
1906.914348
 20
1748.921865
 30
0.0
 11
1912.414348
 21
1748.921865
 31
0.0
  0
LINE
  5
7D1
330
1F
100
AcDbEntity
  8
0
  6
CONTINUOUS
 62
     3
100
AcDbLine
 10
1906.914348
 20
1748.921865
 30
0.0
 11
1906.914348
 21
1729.671865
 31
0.0
  0
LINE
  5
7D2
330
1F
100
AcDbEntity
  8
0
  6
CONTINUOUS
 62
     3
100
AcDbLine
 10
1912.414348
 20
1748.921865
 30
0.0
 11
1912.414348
 21
1729.671865
 31
0.0
  0
LINE
  5
7D3
330
1F
100
AcDbEntity
  8
0
  6
CONTINUOUS
 62
     3
100
AcDbLine
 10
1913.914348
 20
1747.421865
 30
0.0
 11
1913.914348
 21
1731.171865
 31
0.0
  0
LINE
  5
7D4
330
1F
100
AcDbEntity
  8
0
  6
CONTINUOUS
 62
     3
100
AcDbLine
 10
1919.414348
 20
1747.421865
 30
0.0
 11
1919.414348
 21
1731.171865
 31
0.0
  0
LINE
  5
7D5
330
1F
100
AcDbEntity
  8
0
  6
CONTINUOUS
 62
     3
100
AcDbLine
 10
1920.414348
 20
1746.421865
 30
0.0
 11
1920.414348
 21
1732.671865
 31
0.0
  0
ARC
  5
7D6
330
1F
100
AcDbEntity
  8
0
  6
CONTINUOUS
 62
     3
100
AcDbCircle
 10
1923.164348
 20
1732.671865
 30
0.0
 40
2.75
100
AcDbArc
 50
180.0
 51
0.0
  0
ARC
  5
7D7
330
1F
100
AcDbEntity
  8
0
  6
CONTINUOUS
 62
     3
100
AcDbCircle
 10
1916.664348
 20
1731.171865
 30
0.0
 40
2.75
100
AcDbArc
 50
180.0
 51
0.0
  0
ARC
  5
7D8
330
1F
100
AcDbEntity
  8
0
  6
CONTINUOUS
 62
     3
100
AcDbCircle
 10
1909.664348
 20
1729.671865
 30
0.0
 40
2.75
100
AcDbArc
 50
180.0
 51
0.0
  0
LINE
  5
7D9
330
1F
100
AcDbEntity
  8
0
  6
CONTINUOUS
 62
     3
100
AcDbLine
 10
1925.914348
 20
1714.421865
 30
0.0
 11
1925.914348
 21
1700.671865
 31
0.0
  0
LINE
  5
7DA
330
1F
100
AcDbEntity
  8
0
  6
CONTINUOUS
 62
     3
100
AcDbLine
 10
1920.414348
 20
1714.421865
 30
0.0
 11
1925.914348
 21
1714.421865
 31
0.0
  0
LINE
  5
7DB
330
1F
100
AcDbEntity
  8
0
  6
CONTINUOUS
 62
     3
100
AcDbLine
 10
1913.914348
 20
1715.421865
 30
0.0
 11
1919.414348
 21
1715.421865
 31
0.0
  0
LINE
  5
7DC
330
1F
100
AcDbEntity
  8
0
  6
CONTINUOUS
 62
     3
100
AcDbLine
 10
1906.914348
 20
1716.921865
 30
0.0
 11
1912.414348
 21
1716.921865
 31
0.0
  0
LINE
  5
7DD
330
1F
100
AcDbEntity
  8
0
  6
CONTINUOUS
 62
     3
100
AcDbLine
 10
1906.914348
 20
1716.921865
 30
0.0
 11
1906.914348
 21
1697.671865
 31
0.0
  0
LINE
  5
7DE
330
1F
100
AcDbEntity
  8
0
  6
CONTINUOUS
 62
     3
100
AcDbLine
 10
1912.414348
 20
1716.921865
 30
0.0
 11
1912.414348
 21
1697.671865
 31
0.0
  0
LINE
  5
7DF
330
1F
100
AcDbEntity
  8
0
  6
CONTINUOUS
 62
     3
100
AcDbLine
 10
1913.914348
 20
1715.421865
 30
0.0
 11
1913.914348
 21
1699.171865
 31
0.0
  0
LINE
  5
7E0
330
1F
100
AcDbEntity
  8
0
  6
CONTINUOUS
 62
     3
100
AcDbLine
 10
1919.414348
 20
1715.421865
 30
0.0
 11
1919.414348
 21
1699.171865
 31
0.0
  0
LINE
  5
7E1
330
1F
100
AcDbEntity
  8
0
  6
CONTINUOUS
 62
     3
100
AcDbLine
 10
1920.414348
 20
1714.421865
 30
0.0
 11
1920.414348
 21
1700.671865
 31
0.0
  0
ARC
  5
7E2
330
1F
100
AcDbEntity
  8
0
  6
CONTINUOUS
 62
     3
100
AcDbCircle
 10
1923.164348
 20
1700.671865
 30
0.0
 40
2.75
100
AcDbArc
 50
180.0
 51
0.0
  0
ARC
  5
7E3
330
1F
100
AcDbEntity
  8
0
  6
CONTINUOUS
 62
     3
100
AcDbCircle
 10
1916.664348
 20
1699.171865
 30
0.0
 40
2.75
100
AcDbArc
 50
180.0
 51
0.0
  0
ARC
  5
7E4
330
1F
100
AcDbEntity
  8
0
  6
CONTINUOUS
 62
     3
100
AcDbCircle
 10
1909.664348
 20
1697.671865
 30
0.0
 40
2.75
100
AcDbArc
 50
180.0
 51
0.0
  0
LINE
  5
7E5
330
1F
100
AcDbEntity
  8
0
  6
CENTER
 62
     6
100
AcDbLine
 10
1895.110743
 20
1707.421865
 30
0.0
 11
1958.349525
 21
1707.421865
 31
0.0
  0
LINE
  5
7E6
330
1F
100
AcDbEntity
  8
0
  6
CENTER
 62
     6
100
AcDbLine
 10
1895.110743
 20
1739.421865
 30
0.0
 11
1958.349525
 21
1739.421865
 31
0.0
  0
LINE
  5
7E7
330
1F
100
AcDbEntity
  8
0
  6
CONTINUOUS
 62
     3
100
AcDbLine
 10
1900.214348
 20
623.949536
 30
0.0
 11
1896.214348
 21
623.949536
 31
0.0
  0
LINE
  5
7E8
330
1F
100
AcDbEntity
  8
0
  6
CONTINUOUS
 62
     3
100
AcDbLine
 10
1896.214348
 20
631.45509
 30
0.0
 11
1900.214348
 21
631.45509
 31
0.0
  0
LINE
  5
7E9
330
1F
100
AcDbEntity
  8
0
  6
CONTINUOUS
 62
     3
100
AcDbLine
 10
1896.214348
 20
610.443983
 30
0.0
 11
1896.214348
 21
631.45509
 31
0.0
  0
LINE
  5
7EA
330
1F
100
AcDbEntity
  8
0
  6
CONTINUOUS
 62
     3
100
AcDbLine
 10
1900.214348
 20
610.443983
 30
0.0
 11
1900.214348
 21
631.45509
 31
0.0
  0
LINE
  5
7EB
330
1F
100
AcDbEntity
  8
0
  6
CONTINUOUS
 62
     3
100
AcDbLine
 10
1894.214348
 20
628.943983
 30
0.0
 11
1896.214348
 21
628.943983
 31
0.0
  0
LINE
  5
7EC
330
1F
100
AcDbEntity
  8
0
  6
CONTINUOUS
 62
     3
100
AcDbLine
 10
1900.214348
 20
629.443983
 30
0.0
 11
1905.414348
 21
626.443983
 31
0.0
  0
LINE
  5
7ED
330
1F
100
AcDbEntity
  8
0
  6
CONTINUOUS
 62
     3
100
AcDbLine
 10
1925.914348
 20
623.443983
 30
0.0
 11
1925.914348
 21
609.693983
 31
0.0
  0
LINE
  5
7EE
330
1F
100
AcDbEntity
  8
0
  6
CONTINUOUS
 62
     3
100
AcDbLine
 10
1920.414348
 20
623.443983
 30
0.0
 11
1925.914348
 21
623.443983
 31
0.0
  0
LINE
  5
7EF
330
1F
100
AcDbEntity
  8
0
  6
CONTINUOUS
 62
     3
100
AcDbLine
 10
1913.914348
 20
624.443983
 30
0.0
 11
1919.414348
 21
624.443983
 31
0.0
  0
LINE
  5
7F0
330
1F
100
AcDbEntity
  8
0
  6
CONTINUOUS
 62
     3
100
AcDbLine
 10
1906.914348
 20
625.943983
 30
0.0
 11
1912.414348
 21
625.943983
 31
0.0
  0
LINE
  5
7F1
330
1F
100
AcDbEntity
  8
0
  6
CONTINUOUS
 62
     3
100
AcDbLine
 10
1906.914348
 20
625.943983
 30
0.0
 11
1906.914348
 21
606.693983
 31
0.0
  0
LINE
  5
7F2
330
1F
100
AcDbEntity
  8
0
  6
CONTINUOUS
 62
     3
100
AcDbLine
 10
1912.414348
 20
625.943983
 30
0.0
 11
1912.414348
 21
606.693983
 31
0.0
  0
LINE
  5
7F3
330
1F
100
AcDbEntity
  8
0
  6
CONTINUOUS
 62
     3
100
AcDbLine
 10
1913.914348
 20
624.443983
 30
0.0
 11
1913.914348
 21
608.193983
 31
0.0
  0
LINE
  5
7F4
330
1F
100
AcDbEntity
  8
0
  6
CONTINUOUS
 62
     3
100
AcDbLine
 10
1919.414348
 20
624.443983
 30
0.0
 11
1919.414348
 21
608.193983
 31
0.0
  0
LINE
  5
7F5
330
1F
100
AcDbEntity
  8
0
  6
CONTINUOUS
 62
     3
100
AcDbLine
 10
1920.414348
 20
623.443983
 30
0.0
 11
1920.414348
 21
609.693983
 31
0.0
  0
ARC
  5
7F6
330
1F
100
AcDbEntity
  8
0
  6
CONTINUOUS
 62
     3
100
AcDbCircle
 10
1923.164348
 20
609.693983
 30
0.0
 40
2.75
100
AcDbArc
 50
180.0
 51
0.0
  0
ARC
  5
7F7
330
1F
100
AcDbEntity
  8
0
  6
CONTINUOUS
 62
     3
100
AcDbCircle
 10
1916.664348
 20
608.193983
 30
0.0
 40
2.75
100
AcDbArc
 50
180.0
 51
0.0
  0
ARC
  5
7F8
330
1F
100
AcDbEntity
  8
0
  6
CONTINUOUS
 62
     3
100
AcDbCircle
 10
1909.664348
 20
606.693983
 30
0.0
 40
2.75
100
AcDbArc
 50
180.0
 51
0.0
  0
LINE
  5
7F9
330
1F
100
AcDbEntity
  8
0
  6
CENTER
 62
     6
100
AcDbLine
 10
1887.363701
 20
616.443983
 30
0.0
 11
1958.349525
 21
616.443983
 31
0.0
  0
TEXT
  5
7FA
330
1F
100
AcDbEntity
  8
0
  6
CONTINUOUS
 62
     3
100
AcDbText
 10
2958.789062
 20
1591.596069
 30
0.0
 40
40.0
  1
フットスイッチ
 41
0.75
  7
ED_VECTOR
100
AcDbText
  0
TEXT
  5
7FB
330
1F
100
AcDbEntity
  8
0
  6
CONTINUOUS
 62
     3
100
AcDbText
 10
2686.732178
 20
1521.596069
 30
0.0
 40
40.0
  1
制御方式
 41
0.75
  7
ED_VECTOR
100
AcDbText
  0
TEXT
  5
7FC
330
1F
100
AcDbEntity
  8
0
  6
CONTINUOUS
 62
     3
100
AcDbText
 10
2958.789062
 20
1521.596069
 30
0.0
 40
40.0
  1
ベクトル制御
 41
0.75
  7
ED_VECTOR
100
AcDbText
  0
TEXT
  5
7FD
330
1F
100
AcDbEntity
  8
0
  6
CONTINUOUS
 62
     5
100
AcDbText
 10
2718.823975
 20
426.442932
 30
0.0
 40
50.0
  1
令和　2年　1月　1日
 41
0.8
  7
ED_VECTOR
100
AcDbText
  0
LINE
  5
7FE
330
1F
100
AcDbEntity
  8
0
  6
CONTINUOUS
 62
     3
100
AcDbLine
 10
637.133371
 20
644.643983
 30
0.0
 11
637.133371
 21
638.643983
 31
0.0
  0
LINE
  5
7FF
330
1F
100
AcDbEntity
  8
0
  6
CONTINUOUS
 62
     3
100
AcDbLine
 10
662.633371
 20
638.643983
 30
0.0
 11
637.133371
 21
638.643983
 31
0.0
  0
LINE
  5
800
330
1F
100
AcDbEntity
  8
0
  6
CONTINUOUS
 62
     3
100
AcDbLine
 10
662.633371
 20
644.643983
 30
0.0
 11
637.133371
 21
644.643983
 31
0.0
  0
LINE
  5
801
330
1F
100
AcDbEntity
  8
0
  6
CONTINUOUS
 62
     3
100
AcDbLine
 10
638.433371
 20
638.643983
 30
0.0
 11
638.433371
 21
610.443983
 31
0.0
  0
LINE
  5
802
330
1F
100
AcDbEntity
  8
0
  6
CONTINUOUS
 62
     3
100
AcDbLine
 10
732.133371
 20
644.643983
 30
0.0
 11
706.633371
 21
644.643983
 31
0.0
  0
LINE
  5
803
330
1F
100
AcDbEntity
  8
0
  6
CONTINUOUS
 62
     3
100
AcDbLine
 10
732.133371
 20
638.643983
 30
0.0
 11
706.633371
 21
638.643983
 31
0.0
  0
LINE
  5
804
330
1F
100
AcDbEntity
  8
0
  6
CONTINUOUS
 62
     3
100
AcDbLine
 10
730.833371
 20
610.443983
 30
0.0
 11
730.833371
 21
638.643983
 31
0.0
  0
LINE
  5
805
330
1F
100
AcDbEntity
  8
0
  6
CONTINUOUS
 62
     3
100
AcDbLine
 10
732.133371
 20
638.643983
 30
0.0
 11
732.133371
 21
644.643983
 31
0.0
  0
ENDSEC
  0
SECTION
  2
OBJECTS
  0
DICTIONARY
  5
C
330
0
100
AcDbDictionary
  3
ACAD_GROUP
350
D
  3
ACAD_LAYOUT
350
1A
  3
ACAD_MATERIAL
350
43
  3
ACAD_MLEADERSTYLE
350
6B
  3
ACAD_MLINESTYLE
350
17
  3
ACAD_PLOTSETTINGS
350
19
  3
ACAD_SCALELIST
350
47
  3
ACAD_VISUALSTYLE
350
2A
  3
ACDBVARIABLEDICTIONARY
350
806
1001
ACAD
1000
TREAT_AS_HARD
1070
     0
  0
DICTIONARY
  5
D
102
{ACAD_REACTORS
330
C
102
}
330
C
100
AcDbDictionary
1001
ACAD
1000
TREAT_AS_HARD
1070
     0
  0
DICTIONARY
  5
1A
102
{ACAD_REACTORS
330
C
102
}
330
C
100
AcDbDictionary
1001
ACAD
1000
TREAT_AS_HARD
1070
     0
  0
DICTIONARY
  5
43
102
{ACAD_REACTORS
330
C
102
}
330
C
100
AcDbDictionary
  3
BYBLOCK
350
45
  3
BYLAYER
350
44
  3
GLOBAL
350
46
1001
ACAD
1000
TREAT_AS_HARD
1070
     0
  0
DICTIONARY
  5
6B
102
{ACAD_REACTORS
330
C
102
}
330
C
100
AcDbDictionary
  3
STANDARD
350
6C
1001
ACAD
1000
TREAT_AS_HARD
1070
     0
  0
DICTIONARY
  5
17
102
{ACAD_REACTORS
330
C
102
}
330
C
100
AcDbDictionary
  3
STANDARD
350
18
1001
ACAD
1000
TREAT_AS_HARD
1070
     0
  0
DICTIONARY
  5
19
102
{ACAD_REACTORS
330
C
102
}
330
C
100
AcDbDictionary
1001
ACAD
1000
TREAT_AS_HARD
1070
     0
  0
DICTIONARY
  5
47
102
{ACAD_REACTORS
330
C
102
}
330
C
100
AcDbDictionary
  3
A0
350
48
  3
A1
350
49
  3
A2
350
4A
  3
A3
350
4B
  3
A4
350
4C
  3
A5
350
4D
  3
A6
350
4E
  3
A7
350
4F
  3
A8
350
50
  3
A9
350
51
  3
B0
350
52
  3
B1
350
53
  3
B2
350
54
  3
B3
350
55
  3
B4
350
56
  3
B5
350
57
  3
B6
350
58
  3
B7
350
59
  3
B8
350
5A
  3
B9
350
5B
  3
C0
350
5C
  3
C1
350
5D
  3
C2
350
5E
  3
C3
350
5F
  3
C4
350
60
  3
C5
350
61
  3
C6
350
62
  3
C7
350
63
  3
C8
350
64
  3
C9
350
65
  3
D0
350
66
  3
D1
350
67
  3
D2
350
68
1001
ACAD
1000
TREAT_AS_HARD
1070
     0
  0
DICTIONARY
  5
2A
102
{ACAD_REACTORS
330
C
102
}
330
C
100
AcDbDictionary
  3
2DWIREFRAME
350
2F
  3
BASIC
350
32
  3
BRIGHTEN
350
36
  3
COLORCHANGE
350
3A
  3
CONCEPTUAL
350
34
  3
DIM
350
35
  3
EDGECOLOROFF
350
3D
  3
FACEPATTERN
350
39
  3
FLAT
350
2B
  3
FLATWITHEDGES
350
2C
  3
GOURAUD
350
2D
  3
GOURAUDWITHEDGES
350
2E
  3
HIDDEN
350
31
  3
JITTEROFF
350
3B
  3
LINEPATTERN
350
38
  3
OVERHANGOFF
350
3C
  3
REALISTIC
350
33
  3
SHADED
350
42
  3
SHADED_WITH_EDGES
350
41
  3
SHADES_OF_GRAY
350
3E
  3
SKETCHY
350
3F
  3
THICKEN
350
37
  3
WIREFRAME
350
30
  3
X-RAY
350
40
1001
ACAD
1000
TREAT_AS_HARD
1070
     0
  0
DICTIONARY
  5
806
102
{ACAD_REACTORS
330
C
102
}
330
C
100
AcDbDictionary
  3
CANNOSCALE
350
811
  3
CENTEREXE
350
80D
  3
CENTERLTYPEFILE
350
80E
  3
CMLEADERSTYLE
350
808
  3
CTABLESTYLE
350
807
  3
DIMASSOC
350
80F
  3
HIDETEXT
350
810
  3
MSLTSCALE
350
812
  3
PSOLHEIGHT
350
80A
  3
PSOLWIDTH
350
809
1001
ACAD
1000
TREAT_AS_HARD
1070
     0
  0
MATERIAL
  5
45
102
{ACAD_REACTORS
330
43
102
}
102
{ACAD_XDICTIONARY
360
815
102
}
330
43
100
AcDbMaterial
  1
BYBLOCK
  0
MATERIAL
  5
44
102
{ACAD_REACTORS
330
43
102
}
102
{ACAD_XDICTIONARY
360
813
102
}
330
43
100
AcDbMaterial
  1
BYLAYER
  0
MATERIAL
  5
46
102
{ACAD_REACTORS
330
43
102
}
102
{ACAD_XDICTIONARY
360
817
102
}
330
43
100
AcDbMaterial
  1
GLOBAL
  0
ACAD_PROXY_OBJECT
  5
6C
102
{ACAD_REACTORS
330
6B
102
}
330
6B
100
AcDbZombieObject
 90
      499
 91
      505
 93
      610
310
40901902A4063FBFFFFFE0000000000000020400000000000020404214DD185B99185C990000000000000104090141901A00000000000004100000000000000041025764000000000000039000
340
14
340
0
340
11
340
0
 94
        0
1001
ACAD_MLEADERVER
1070
     2
  0
MLINESTYLE
  5
18
102
{ACAD_REACTORS
330
17
102
}
330
17
100
AcDbMlineStyle
  2
Standard
 70
     0
  3

 62
   256
 51
90.0
 52
90.0
 71
     2
 49
0.5
 62
   256
  6
BYLAYER
 49
-0.5
 62
   256
  6
BYLAYER
  0
ACAD_PROXY_OBJECT
  5
48
102
{ACAD_REACTORS
330
47
102
}
330
47
100
AcDbZombieObject
 90
      499
 91
      503
 93
       41
310
903313A31580
  0
ACAD_PROXY_OBJECT
  5
49
102
{ACAD_REACTORS
330
47
102
}
330
47
100
AcDbZombieObject
 90
      499
 91
      503
 93
      105
310
903313A324000000000000004000
  0
ACAD_PROXY_OBJECT
  5
4A
102
{ACAD_REACTORS
330
47
102
}
330
47
100
AcDbZombieObject
 90
      499
 91
      503
 93
      105
310
903313A344000000000000104000
  0
ACAD_PROXY_OBJECT
  5
4B
102
{ACAD_REACTORS
330
47
102
}
330
47
100
AcDbZombieObject
 90
      499
 91
      503
 93
      105
310
903313A354000000000000144000
  0
ACAD_PROXY_OBJECT
  5
4C
102
{ACAD_REACTORS
330
47
102
}
330
47
100
AcDbZombieObject
 90
      499
 91
      503
 93
      105
310
903313A384000000000000204000
  0
ACAD_PROXY_OBJECT
  5
4D
102
{ACAD_REACTORS
330
47
102
}
330
47
100
AcDbZombieObject
 90
      499
 91
      503
 93
      113
310
904313A31304000000000000244000
  0
ACAD_PROXY_OBJECT
  5
4E
102
{ACAD_REACTORS
330
47
102
}
330
47
100
AcDbZombieObject
 90
      499
 91
      503
 93
      113
310
904313A31364000000000000304000
  0
ACAD_PROXY_OBJECT
  5
4F
102
{ACAD_REACTORS
330
47
102
}
330
47
100
AcDbZombieObject
 90
      499
 91
      503
 93
      113
310
904313A32304000000000000344000
  0
ACAD_PROXY_OBJECT
  5
50
102
{ACAD_REACTORS
330
47
102
}
330
47
100
AcDbZombieObject
 90
      499
 91
      503
 93
      113
310
904313A333040000000000003E4000
  0
ACAD_PROXY_OBJECT
  5
51
102
{ACAD_REACTORS
330
47
102
}
330
47
100
AcDbZombieObject
 90
      499
 91
      503
 93
      113
310
904313A34304000000000000444000
  0
ACAD_PROXY_OBJECT
  5
52
102
{ACAD_REACTORS
330
47
102
}
330
47
100
AcDbZombieObject
 90
      499
 91
      503
 93
      113
310
904313A35304000000000000494000
  0
ACAD_PROXY_OBJECT
  5
53
102
{ACAD_REACTORS
330
47
102
}
330
47
100
AcDbZombieObject
 90
      499
 91
      503
 93
      121
310
905313A3130304000000000000594000
  0
ACAD_PROXY_OBJECT
  5
54
102
{ACAD_REACTORS
330
47
102
}
330
47
100
AcDbZombieObject
 90
      499
 91
      503
 93
      105
310
903323A310000000000000010100
  0
ACAD_PROXY_OBJECT
  5
55
102
{ACAD_REACTORS
330
47
102
}
330
47
100
AcDbZombieObject
 90
      499
 91
      503
 93
      105
310
903343A310000000000000410100
  0
ACAD_PROXY_OBJECT
  5
56
102
{ACAD_REACTORS
330
47
102
}
330
47
100
AcDbZombieObject
 90
      499
 91
      503
 93
      105
310
903383A310000000000000810100
  0
ACAD_PROXY_OBJECT
  5
57
102
{ACAD_REACTORS
330
47
102
}
330
47
100
AcDbZombieObject
 90
      499
 91
      503
 93
      113
310
90431303A310000000000000910100
  0
ACAD_PROXY_OBJECT
  5
58
102
{ACAD_REACTORS
330
47
102
}
330
47
100
AcDbZombieObject
 90
      499
 91
      503
 93
      121
310
9053130303A310000000000001650100
  0
ACAD_PROXY_OBJECT
  5
59
102
{ACAD_REACTORS
330
47
102
}
330
47
100
AcDbZombieObject
 90
      499
 91
      503
 93
      257
310
90E312F31323822203D2031272D3022000000000000200FC000000000000284000
  0
ACAD_PROXY_OBJECT
  5
5A
102
{ACAD_REACTORS
330
47
102
}
330
47
100
AcDbZombieObject
 90
      499
 91
      503
 93
      249
310
90D312F363422203D2031272D3022000000000000240FC000000000000284000
  0
ACAD_PROXY_OBJECT
  5
5B
102
{ACAD_REACTORS
330
47
102
}
330
47
100
AcDbZombieObject
 90
      499
 91
      503
 93
      249
310
90D312F333222203D2031272D3022000000000000280FC000000000000284000
  0
ACAD_PROXY_OBJECT
  5
5C
102
{ACAD_REACTORS
330
47
102
}
330
47
100
AcDbZombieObject
 90
      499
 91
      503
 93
      249
310
90D312F313622203D2031272D30220000000000002C0FC000000000000284000
  0
ACAD_PROXY_OBJECT
  5
5D
102
{ACAD_REACTORS
330
47
102
}
330
47
100
AcDbZombieObject
 90
      499
 91
      503
 93
      249
310
90D332F333222203D2031272D30220000000000002E0FC000000000000284000
  0
ACAD_PROXY_OBJECT
  5
5E
102
{ACAD_REACTORS
330
47
102
}
330
47
100
AcDbZombieObject
 90
      499
 91
      503
 93
      241
310
90C312F3822203D2031272D3022000000000000300FC000000000000284000
  0
ACAD_PROXY_OBJECT
  5
5F
102
{ACAD_REACTORS
330
47
102
}
330
47
100
AcDbZombieObject
 90
      499
 91
      503
 93
      249
310
90D332F313622203D2031272D3022000000000000320FC000000000000284000
  0
ACAD_PROXY_OBJECT
  5
60
102
{ACAD_REACTORS
330
47
102
}
330
47
100
AcDbZombieObject
 90
      499
 91
      503
 93
      241
310
90C312F3422203D2031272D3022000000000000340FC000000000000284000
  0
ACAD_PROXY_OBJECT
  5
61
102
{ACAD_REACTORS
330
47
102
}
330
47
100
AcDbZombieObject
 90
      499
 91
      503
 93
      241
310
90C332F3822203D2031272D3022000000000000360FC000000000000284000
  0
ACAD_PROXY_OBJECT
  5
62
102
{ACAD_REACTORS
330
47
102
}
330
47
100
AcDbZombieObject
 90
      499
 91
      503
 93
      241
310
90C312F3222203D2031272D3022000000000000380FC000000000000284000
  0
ACAD_PROXY_OBJECT
  5
63
102
{ACAD_REACTORS
330
47
102
}
330
47
100
AcDbZombieObject
 90
      499
 91
      503
 93
      241
310
90C332F3422203D2031272D30220000000000003A0FC000000000000284000
  0
ACAD_PROXY_OBJECT
  5
64
102
{ACAD_REACTORS
330
47
102
}
330
47
100
AcDbZombieObject
 90
      499
 91
      503
 93
      161
310
90A3122203D2031272D30224000000000000284000
  0
ACAD_PROXY_OBJECT
  5
65
102
{ACAD_REACTORS
330
47
102
}
330
47
100
AcDbZombieObject
 90
      499
 91
      503
 93
      257
310
90E312D312F3222203D2031272D30220000000000003E0FC000000000000284000
  0
ACAD_PROXY_OBJECT
  5
66
102
{ACAD_REACTORS
330
47
102
}
330
47
100
AcDbZombieObject
 90
      499
 91
      503
 93
      225
310
90A3322203D2031272D302200000000000002100000000000000284000
  0
ACAD_PROXY_OBJECT
  5
67
102
{ACAD_REACTORS
330
47
102
}
330
47
100
AcDbZombieObject
 90
      499
 91
      503
 93
      225
310
90A3622203D2031272D302200000000000006100000000000000284000
  0
ACAD_PROXY_OBJECT
  5
68
102
{ACAD_REACTORS
330
47
102
}
330
47
100
AcDbZombieObject
 90
      499
 91
      503
 93
      249
310
90D31272D3022203D2031272D30220000000000000A100000000000000284000
  0
ACAD_PROXY_OBJECT
  5
2F
102
{ACAD_REACTORS
330
2A
102
}
330
2A
100
AcDbZombieObject
 90
      499
 91
      501
 93
      436
310
42CC9915DA5C99599C985B595049028333333333333E33F0000000000000F90107901411070040501600405405064090741402480A0340
1001
ACAD
1000
AcDbSavedByObjectVersion
1070
     0
  0
ACAD_PROXY_OBJECT
  5
32
102
{ACAD_REACTORS
330
2A
102
}
330
2A
100
AcDbZombieObject
 90
      499
 91
      501
 93
      388
310
4150985CDA58D07406404333333333333E33F0000000000000F90107A41107004050150841D405064090741402480A0350
1001
ACAD
1000
AcDbSavedByObjectVersion
1070
     0
  0
ACAD_PROXY_OBJECT
  5
36
102
{ACAD_REACTORS
330
2A
102
}
330
2A
100
AcDbZombieObject
 90
      499
 91
      501
 93
      428
310
42109C9A59DA1D195B90C409028333333333333E33F0000000000000F9010790141107004050150841D405064090741402480A029950
1001
ACAD
1000
AcDbSavedByObjectVersion
1070
     0
  0
ACAD_PROXY_OBJECT
  5
3A
102
{ACAD_REACTORS
330
2A
102
}
330
2A
100
AcDbZombieObject
 90
      499
 91
      501
 93
      452
310
42D0DBDB1BDC90DA185B99D95104090240C333333333333E33F0000000000000F90108901411070040501508421405064090741402480A0350
1001
ACAD
1000
AcDbSavedByObjectVersion
1070
     0
  0
ACAD_PROXY_OBJECT
  5
34
102
{ACAD_REACTORS
330
2A
102
}
330
2A
100
AcDbZombieObject
 90
      499
 91
      501
 93
      500
310
4290DBDB98D95C1D1D585B10940D028333333333333E33F0000000000000F90107902409070040501000000000018199010841D405064090740C02480A0340
1001
ACAD
1000
AcDbSavedByObjectVersion
1070
     0
  0
ACAD_PROXY_OBJECT
  5
35
102
{ACAD_REACTORS
330
2A
102
}
330
2A
100
AcDbZombieObject
 90
      499
 91
      501
 93
      412
310
40D11A5B50B409028333333333333E33F0000000000000F9010790141107004050150841D405064090741402480A02677FFFFFD0
1001
ACAD
1000
AcDbSavedByObjectVersion
1070
     0
  0
ACAD_PROXY_OBJECT
  5
3D
102
{ACAD_REACTORS
330
2A
102
}
330
2A
100
AcDbZombieObject
 90
      499
 91
      501
 93
      452
310
43115919D950DBDB1BDC93D999916409028333333333333E33F0000000000000F9010790141107004050150841D405064090741402480A0350
1001
ACAD
1000
AcDbSavedByObjectVersion
1070
     0
  0
ACAD_PROXY_OBJECT
  5
39
102
{ACAD_REACTORS
330
2A
102
}
330
2A
100
AcDbZombieObject
 90
      499
 91
      501
 93
      444
310
42D19858D95C185D1D195C9B90F409028333333333333E33F0000000000000F9010790141107004050150841D405064090741402480A0350
1001
ACAD
1000
AcDbSavedByObjectVersion
1070
     0
  0
ACAD_PROXY_OBJECT
  5
2B
102
{ACAD_REACTORS
330
2A
102
}
330
2A
100
AcDbZombieObject
 90
      499
 91
      501
 93
      380
310
41119B185D240901404333333333333E33F0000000000000F9010740A907004050150841D405064090741402480A1B50
1001
ACAD
1000
AcDbSavedByObjectVersion
1070
     0
  0
ACAD_PROXY_OBJECT
  5
2C
102
{ACAD_REACTORS
330
2A
102
}
330
2A
100
AcDbZombieObject
 90
      499
 91
      501
 93
      468
310
43519B185D15DA5D1A115919D95CD0140901404333333333333E33F0000000000000F90107409019070040501600405405064090741402480A1B50
1001
ACAD
1000
AcDbSavedByObjectVersion
1070
     0
  0
ACAD_PROXY_OBJECT
  5
2D
102
{ACAD_REACTORS
330
2A
102
}
330
2A
100
AcDbZombieObject
 90
      499
 91
      501
 93
      404
310
41D1DBDD5C985D5910240902404333333333333E33F0000000000000F9010740A9070040501641D405064090741402480A1B50
1001
ACAD
1000
AcDbSavedByObjectVersion
1070
     0
  0
ACAD_PROXY_OBJECT
  5
2E
102
{ACAD_REACTORS
330
2A
102
}
330
2A
100
AcDbZombieObject
 90
      499
 91
      501
 93
      492
310
4411DBDD5C985D5915DA5D1A115919D95CD0340902404333333333333E33F0000000000000F90107409019070040501600405405064090741402480A1B50
1001
ACAD
1000
AcDbSavedByObjectVersion
1070
     0
  0
ACAD_PROXY_OBJECT
  5
31
102
{ACAD_REACTORS
330
2A
102
}
330
2A
100
AcDbZombieObject
 90
      499
 91
      501
 93
      476
310
41921A5919195B90640502408333333333333E33F0000000000000F901079024090700405020000000000001110200405405064090740C02480A0340
1001
ACAD
1000
AcDbSavedByObjectVersion
1070
     0
  0
ACAD_PROXY_OBJECT
  5
3B
102
{ACAD_REACTORS
330
2A
102
}
330
2A
100
AcDbZombieObject
 90
      499
 91
      501
 93
      428
310
42529A5D1D195C93D999914409028333333333333E33F0000000000000F9010790141107004050150A41D405064090741402480A0350
1001
ACAD
1000
AcDbSavedByObjectVersion
1070
     0
  0
ACAD_PROXY_OBJECT
  5
38
102
{ACAD_REACTORS
330
2A
102
}
330
2A
100
AcDbZombieObject
 90
      499
 91
      501
 93
      444
310
42D31A5B995C185D1D195C9B90E409028333333333333E33F0000000000000F9010790141107004050750841D405064090741402483A0350
1001
ACAD
1000
AcDbSavedByObjectVersion
1070
     0
  0
ACAD_PROXY_OBJECT
  5
3C
102
{ACAD_REACTORS
330
2A
102
}
330
2A
100
AcDbZombieObject
 90
      499
 91
      501
 93
      444
310
42D3DD995C9A185B99D3D999915409028333333333333E33F0000000000000F9010790141107004050150941D405064090741402480A0350
1001
ACAD
1000
AcDbSavedByObjectVersion
1070
     0
  0
ACAD_PROXY_OBJECT
  5
33
102
{ACAD_REACTORS
330
2A
102
}
330
2A
100
AcDbZombieObject
 90
      499
 91
      501
 93
      428
310
425499585B1A5CDD1A58D08409038333333333333E33F0000000000000F9010740A907004050150800405405064090740C02480A1B40
1001
ACAD
1000
AcDbSavedByObjectVersion
1070
     0
  0
ACAD_PROXY_OBJECT
  5
42
102
{ACAD_REACTORS
330
2A
102
}
330
2A
100
AcDbZombieObject
 90
      499
 91
      501
 93
      420
310
4194DA1859195911B40902404333333333333E33F0000000000000F9010740A41107004050150800405405064090840C02480A0B40
1001
ACAD
1000
AcDbSavedByObjectVersion
1070
     0
  0
ACAD_PROXY_OBJECT
  5
41
102
{ACAD_REACTORS
330
2A
102
}
330
2A
100
AcDbZombieObject
 90
      499
 91
      501
 93
      516
310
4454DA18591959081DDA5D1A08195919D95CD1A40902404333333333333E33F0000000000000F901074090142907004050250800405405064090740C02480A0B40
1001
ACAD
1000
AcDbSavedByObjectVersion
1070
     0
  0
ACAD_PROXY_OBJECT
  5
3E
102
{ACAD_REACTORS
330
2A
102
}
330
2A
100
AcDbZombieObject
 90
      499
 91
      501
 93
      532
310
4394DA1859195CC81BD98811DC985E5174090240C333333333333E33F0000000000000F901079024090741D01000000000000111010841D405064090740C02480A0340
1001
ACAD
1000
AcDbSavedByObjectVersion
1070
     0
  0
ACAD_PROXY_OBJECT
  5
3F
102
{ACAD_REACTORS
330
2A
102
}
330
2A
100
AcDbZombieObject
 90
      499
 91
      501
 93
      476
310
41D4DAD95D18DA1E51840502408333333333333E33F0000000000000F901079024090741D01000000000000111010B41D405064090741802480A0340
1001
ACAD
1000
AcDbSavedByObjectVersion
1070
     0
  0
ACAD_PROXY_OBJECT
  5
37
102
{ACAD_REACTORS
330
2A
102
}
330
2A
100
AcDbZombieObject
 90
      499
 91
      501
 93
      412
310
41D51A1A58DAD95B90D409028333333333333E33F0000000000000F9010790141107004050150C41D405064090741402480A0350
1001
ACAD
1000
AcDbSavedByObjectVersion
1070
     0
  0
ACAD_PROXY_OBJECT
  5
30
102
{ACAD_REACTORS
330
2A
102
}
330
2A
100
AcDbZombieObject
 90
      499
 91
      501
 93
      420
310
4255DA5C99599C985B595059028333333333333E33F0000000000000F90107901411070040501600405405064090740C02480A0340
1001
ACAD
1000
AcDbSavedByObjectVersion
1070
     0
  0
ACAD_PROXY_OBJECT
  5
40
102
{ACAD_REACTORS
330
2A
102
}
330
2A
100
AcDbZombieObject
 90
      499
 91
      501
 93
      404
310
41560B54985E51940902404000000000000E03F0000000000000F9010740501907004050150841D405064090740C02480A1B40
1001
ACAD
1000
AcDbSavedByObjectVersion
1070
     0
  0
DICTIONARYVAR
  5
811
102
{ACAD_REACTORS
330
806
102
}
330
806
100
DictionaryVariables
280
     0
  1
1:1
  0
DICTIONARYVAR
  5
80D
102
{ACAD_REACTORS
330
806
102
}
330
806
100
DictionaryVariables
280
     0
  1
3.500000
  0
DICTIONARYVAR
  5
80E
102
{ACAD_REACTORS
330
806
102
}
330
806
100
DictionaryVariables
280
     0
  1
acadiso.lin
  0
DICTIONARYVAR
  5
808
102
{ACAD_REACTORS
330
806
102
}
330
806
100
DictionaryVariables
280
     0
  1
Standard
  0
DICTIONARYVAR
  5
807
102
{ACAD_REACTORS
330
806
102
}
330
806
100
DictionaryVariables
280
     0
  1
Standard
  0
DICTIONARYVAR
  5
80F
102
{ACAD_REACTORS
330
806
102
}
330
806
100
DictionaryVariables
280
     0
  1
2
  0
DICTIONARYVAR
  5
810
102
{ACAD_REACTORS
330
806
102
}
330
806
100
DictionaryVariables
280
     0
  1
1
  0
DICTIONARYVAR
  5
812
102
{ACAD_REACTORS
330
806
102
}
330
806
100
DictionaryVariables
280
     0
  1
1
  0
DICTIONARYVAR
  5
80A
102
{ACAD_REACTORS
330
806
102
}
330
806
100
DictionaryVariables
280
     0
  1
80.000000
  0
DICTIONARYVAR
  5
809
102
{ACAD_REACTORS
330
806
102
}
330
806
100
DictionaryVariables
280
     0
  1
5.000000
  0
DICTIONARY
  5
815
330
45
100
AcDbDictionary
  3
ACAD_XREC_ROUNDTRIP
360
816
1001
ACAD
1000
TREAT_AS_HARD
1070
     1
  0
DICTIONARY
  5
813
330
44
100
AcDbDictionary
  3
ACAD_XREC_ROUNDTRIP
360
814
1001
ACAD
1000
TREAT_AS_HARD
1070
     1
  0
DICTIONARY
  5
817
330
46
100
AcDbDictionary
  3
ACAD_XREC_ROUNDTRIP
360
818
1001
ACAD
1000
TREAT_AS_HARD
1070
     1
  0
XRECORD
  5
816
102
{ACAD_REACTORS
330
815
102
}
330
815
100
AcDbXrecord
102
MATERIAL
148
0.0
149
0.0
149
0.0
 93
        0
 94
      127
282
     0
 72
     1
 77
     1
171
     1
175
     1
179
     1
273
     0
  0
XRECORD
  5
814
102
{ACAD_REACTORS
330
813
102
}
330
813
100
AcDbXrecord
102
MATERIAL
148
0.0
149
0.0
149
0.0
 93
        0
 94
      127
282
     0
 72
     1
 77
     1
171
     1
175
     1
179
     1
273
     0
  0
XRECORD
  5
818
102
{ACAD_REACTORS
330
817
102
}
330
817
100
AcDbXrecord
102
MATERIAL
148
0.0
149
0.0
149
0.0
 93
        0
 94
      127
282
     0
 72
     1
 77
     1
171
     1
175
     1
179
     1
273
     0
  0
ENDSEC
  0
EOF
