  0
SECTION
  2
HEADER
  9
$ACADVER
  1
AC1012
  9
$DWGCODEPAGE
  3
ansi_932
  9
$INSBASE
 10
0.0
 20
0.0
 30
0.0
  9
$EXTMIN
 10
0.0
 20
0.0
 30
0.0
  9
$EXTMAX
 10
3640.0
 20
2570.0
 30
0.0
  9
$LIMMIN
 10
0.0
 20
0.0
  9
$LIMMAX
 10
3640.0
 20
2570.0
  9
$ORTHOMODE
 70
     0
  9
$REGENMODE
 70
     1
  9
$FILLMODE
 70
     1
  9
$QTEXTMODE
 70
     0
  9
$MIRRTEXT
 70
     1
  9
$DRAGMODE
 70
     2
  9
$LTSCALE
 40
1.0
  9
$OSMODE
 70
    37
  9
$ATTMODE
 70
     1
  9
$TEXTSIZE
 40
2.5
  9
$TRACEWID
 40
1.0
  9
$TEXTSTYLE
  7
ED_VECTOR
  9
$CLAYER
  8
0
  9
$CELTYPE
  6
BYLAYER
  9
$CECOLOR
 62
   256
  9
$CELTSCALE
 40
1.0
  9
$DELOBJ
 70
     1
  9
$DISPSILH
 70
     0
  9
$DIMSCALE
 40
1.0
  9
$DIMASZ
 40
30.0
  9
$DIMEXO
 40
10.0
  9
$DIMDLI
 40
100.0
  9
$DIMRND
 40
0.0
  9
$DIMDLE
 40
50.0
  9
$DIMEXE
 40
10.0
  9
$DIMTP
 40
0.0
  9
$DIMTM
 40
0.0
  9
$DIMTXT
 40
40.0
  9
$DIMCEN
 40
2.5
  9
$DIMTSZ
 40
0.0
  9
$DIMTOL
 70
     0
  9
$DIMLIM
 70
     0
  9
$DIMTIH
 70
     0
  9
$DIMTOH
 70
     0
  9
$DIMSE1
 70
     0
  9
$DIMSE2
 70
     0
  9
$DIMTAD
 70
     1
  9
$DIMZIN
 70
     8
  9
$DIMBLK
  1

  9
$DIMASO
 70
     1
  9
$DIMSHO
 70
     1
  9
$DIMPOST
  1

  9
$DIMAPOST
  1

  9
$DIMALT
 70
     0
  9
$DIMALTD
 70
     3
  9
$DIMALTF
 40
0.03937
  9
$DIMLFAC
 40
1.0
  9
$DIMTOFL
 70
     1
  9
$DIMTVP
 40
0.0
  9
$DIMTIX
 70
     0
  9
$DIMSOXD
 70
     0
  9
$DIMSAH
 70
     1
  9
$DIMBLK1
  1
EDTIP_ARROW_S
  9
$DIMBLK2
  1
EDTIP_ARROW_E
  9
$DIMSTYLE
  2
EDDIMINFO
  9
$DIMCLRD
 70
     5
  9
$DIMCLRE
 70
     5
  9
$DIMCLRT
 70
     3
  9
$DIMTFAC
 40
1.0
  9
$DIMGAP
 40
10.0
  9
$DIMJUST
 70
     0
  9
$DIMSD1
 70
     0
  9
$DIMSD2
 70
     0
  9
$DIMTOLJ
 70
     0
  9
$DIMTZIN
 70
     8
  9
$DIMALTZ
 70
     0
  9
$DIMALTTZ
 70
     0
  9
$DIMFIT
 70
     3
  9
$DIMUPT
 70
     0
  9
$DIMUNIT
 70
     2
  9
$DIMDEC
 70
     0
  9
$DIMTDEC
 70
     2
  9
$DIMALTU
 70
     2
  9
$DIMALTTD
 70
     3
  9
$DIMTXSTY
  7
ED_VECTOR
  9
$DIMAUNIT
 70
     0
  9
$LUNITS
 70
     2
  9
$LUPREC
 70
     4
  9
$SKETCHINC
 40
1.0
  9
$FILLETRAD
 40
10.0
  9
$AUNITS
 70
     0
  9
$AUPREC
 70
     0
  9
$MENU
  1
.
  9
$ELEVATION
 40
0.0
  9
$PELEVATION
 40
0.0
  9
$THICKNESS
 40
0.0
  9
$LIMCHECK
 70
     0
  9
$CHAMFERA
 40
0.0
  9
$CHAMFERB
 40
0.0
  9
$CHAMFERC
 40
0.0
  9
$CHAMFERD
 40
0.0
  9
$SKPOLY
 70
     0
  9
$TDCREATE
 40
2459415.644376076
  9
$TDUPDATE
 40
2459415.644377349
  9
$TDINDWG
 40
0.0000000116
  9
$TDUSRTIMER
 40
0.0000000116
  9
$USRTIMER
 70
     1
  9
$ANGBASE
 50
0.0
  9
$ANGDIR
 70
     0
  9
$PDMODE
 70
     0
  9
$PDSIZE
 40
0.0
  9
$PLINEWID
 40
0.0
  9
$COORDS
 70
     1
  9
$SPLFRAME
 70
     0
  9
$SPLINETYPE
 70
     6
  9
$SPLINESEGS
 70
     8
  9
$ATTDIA
 70
     0
  9
$ATTREQ
 70
     1
  9
$HANDLING
 70
     1
  9
$HANDSEED
  5
3F9
  9
$SURFTAB1
 70
     6
  9
$SURFTAB2
 70
     6
  9
$SURFTYPE
 70
     6
  9
$SURFU
 70
     6
  9
$SURFV
 70
     6
  9
$UCSNAME
  2

  9
$UCSORG
 10
0.0
 20
0.0
 30
0.0
  9
$UCSXDIR
 10
1.0
 20
0.0
 30
0.0
  9
$UCSYDIR
 10
0.0
 20
1.0
 30
0.0
  9
$PUCSNAME
  2

  9
$PUCSORG
 10
0.0
 20
0.0
 30
0.0
  9
$PUCSXDIR
 10
1.0
 20
0.0
 30
0.0
  9
$PUCSYDIR
 10
0.0
 20
1.0
 30
0.0
  9
$USERI1
 70
     0
  9
$USERI2
 70
     0
  9
$USERI3
 70
     0
  9
$USERI4
 70
     0
  9
$USERI5
 70
     0
  9
$USERR1
 40
0.0
  9
$USERR2
 40
0.0
  9
$USERR3
 40
0.0
  9
$USERR4
 40
0.0
  9
$USERR5
 40
0.0
  9
$WORLDVIEW
 70
     1
  9
$SHADEDGE
 70
     3
  9
$SHADEDIF
 70
    70
  9
$TILEMODE
 70
     1
  9
$MAXACTVP
 70
    64
  9
$PINSBASE
 10
0.0
 20
0.0
 30
0.0
  9
$PLIMCHECK
 70
     0
  9
$PEXTMIN
 10
1.000000E+20
 20
1.000000E+20
 30
1.000000E+20
  9
$PEXTMAX
 10
-1.000000E+20
 20
-1.000000E+20
 30
-1.000000E+20
  9
$PLIMMIN
 10
0.0
 20
0.0
  9
$PLIMMAX
 10
420.0
 20
297.0
  9
$UNITMODE
 70
     0
  9
$VISRETAIN
 70
     1
  9
$PLINEGEN
 70
     0
  9
$PSLTSCALE
 70
     1
  9
$TREEDEPTH
 70
  3020
  9
$PICKSTYLE
 70
     1
  9
$CMLSTYLE
  2
STANDARD
  9
$CMLJUST
 70
     0
  9
$CMLSCALE
 40
20.0
  9
$SAVEIMAGES
 70
     1
  0
ENDSEC
  0
SECTION
  2
CLASSES
  0
CLASS
  1
ACDBDICTIONARYWDFLT
  2
AcDbDictionaryWithDefault
  3
ObjectDBX Classes
 90
    32768
280
     0
281
     0
  0
CLASS
  1
VISUALSTYLE
  2
AcDbVisualStyle
  3
ObjectDBX Classes
 90
     4095
280
     0
281
     0
  0
CLASS
  1
MATERIAL
  2
AcDbMaterial
  3
ObjectDBX Classes
 90
     1153
280
     0
281
     0
  0
CLASS
  1
SCALE
  2
AcDbScale
  3
ObjectDBX Classes
 90
     1153
280
     0
281
     0
  0
CLASS
  1
TABLESTYLE
  2
AcDbTableStyle
  3
ObjectDBX Classes
 90
     4095
280
     0
281
     0
  0
CLASS
  1
MLEADERSTYLE
  2
AcDbMLeaderStyle
  3
ACDB_MLEADERSTYLE_CLASS
 90
     4095
280
     0
281
     0
  0
CLASS
  1
SUN
  2
AcDbSun
  3
SCENEOE
 90
     1153
280
     0
281
     0
  0
CLASS
  1
DICTIONARYVAR
  2
AcDbDictionaryVar
  3
ObjectDBX Classes
 90
        0
280
     0
281
     0
  0
CLASS
  1
XRECORD
  2
AcDbXrecord
  3
ObjectDBX Classes
 90
    32768
280
     0
281
     0
  0
CLASS
  1
LWPOLYLINE
  2
AcDbPolyline
  3
ObjectDBX Classes
 90
    32768
280
     0
281
     1
  0
CLASS
  1
HATCH
  2
AcDbHatch
  3
ObjectDBX Classes
 90
    32768
280
     0
281
     1
  0
CLASS
  1
ACDBPLACEHOLDER
  2
AcDbPlaceHolder
  3
ObjectDBX Classes
 90
        0
280
     0
281
     0
  0
CLASS
  1
LAYOUT
  2
AcDbLayout
  3
ObjectDBX Classes
 90
        0
280
     0
281
     0
  0
ENDSEC
  0
SECTION
  2
TABLES
  0
TABLE
  2
VPORT
  5
8
330
0
100
AcDbSymbolTable
 70
     1
  0
VPORT
  5
29
330
8
100
AcDbSymbolTableRecord
100
AcDbViewportTableRecord
  2
*ACTIVE
 70
     0
 10
0.0
 20
0.0
 11
1.0
 21
1.0
 12
1820.0
 22
1285.0
 13
0.0
 23
0.0
 14
10.0
 24
10.0
 15
10.0
 25
10.0
 16
0.0
 26
0.0
 36
1.0
 17
0.0
 27
0.0
 37
0.0
 40
2570.0
 41
1.416342
 42
50.0
 43
0.0
 44
0.0
 50
0.0
 51
0.0
 71
     0
 72
   100
 73
     1
 74
     3
 75
     0
 76
     0
 77
     0
 78
     0
  0
ENDTAB
  0
TABLE
  2
LTYPE
  5
5
330
0
100
AcDbSymbolTable
 70
     5
  0
LTYPE
  5
14
330
5
100
AcDbSymbolTableRecord
100
AcDbLinetypeTableRecord
  2
BYBLOCK
 70
     0
  3

 72
    65
 73
     0
 40
0.0
  0
LTYPE
  5
15
330
5
100
AcDbSymbolTableRecord
100
AcDbLinetypeTableRecord
  2
BYLAYER
 70
     0
  3

 72
    65
 73
     0
 40
0.0
  0
LTYPE
  5
16
330
5
100
AcDbSymbolTableRecord
100
AcDbLinetypeTableRecord
  2
CONTINUOUS
 70
     0
  3
--------------------
 72
    65
 73
     0
 40
0.0
  0
LTYPE
  5
6E
330
5
100
AcDbSymbolTableRecord
100
AcDbLinetypeTableRecord
  2
DASHED
 70
     0
  3
- - - - - - - - - - -
 72
    65
 73
     2
 40
19.1
 49
12.7
 74
     0
 49
-6.4
 74
     0
  0
LTYPE
  5
6F
330
5
100
AcDbSymbolTableRecord
100
AcDbLinetypeTableRecord
  2
CENTER
 70
     0
  3
- ･ - ･ - ･ - ･ - ･ - ･ - ･ - ･ - ･ - ･ -
 72
    65
 73
     4
 40
51.0
 49
31.8
 74
     0
 49
-6.4
 74
     0
 49
6.4
 74
     0
 49
-6.4
 74
     0
  0
LTYPE
  5
70
330
5
100
AcDbSymbolTableRecord
100
AcDbLinetypeTableRecord
  2
PHANTOM
 70
     0
  3
- ･ ･ - ･ ･ - ･ ･ - ･ ･ - ･ ･ - ･ ･ - ･ ･ - 
 72
    65
 73
     6
 40
63.8
 49
31.8
 74
     0
 49
-6.4
 74
     0
 49
6.4
 74
     0
 49
-6.4
 74
     0
 49
6.4
 74
     0
 49
-6.4
 74
     0
  0
LTYPE
  5
71
330
5
100
AcDbSymbolTableRecord
100
AcDbLinetypeTableRecord
  2
DOT
 70
     0
  3
・・・・・・・・・・・・・・・
 72
    65
 73
     2
 40
6.5
 49
0.1
 74
     0
 49
-6.4
 74
     0
  0
ENDTAB
  0
TABLE
  2
LAYER
  5
2
330
0
100
AcDbSymbolTable
 70
    65
  0
LAYER
  5
10
330
2
100
AcDbSymbolTableRecord
100
AcDbLayerTableRecord
  2
0
 70
     0
 62
     7
  6
CONTINUOUS
  0
LAYER
  5
72
330
2
100
AcDbSymbolTableRecord
100
AcDbLayerTableRecord
  2
LAYER002
 70
     0
 62
     7
  6
CONTINUOUS
  0
LAYER
  5
73
330
2
100
AcDbSymbolTableRecord
100
AcDbLayerTableRecord
  2
LAYER003
 70
     0
 62
     7
  6
CONTINUOUS
  0
LAYER
  5
74
330
2
100
AcDbSymbolTableRecord
100
AcDbLayerTableRecord
  2
LAYER004
 70
     0
 62
     7
  6
CONTINUOUS
  0
LAYER
  5
75
330
2
100
AcDbSymbolTableRecord
100
AcDbLayerTableRecord
  2
LAYER005
 70
     0
 62
     7
  6
CONTINUOUS
  0
LAYER
  5
76
330
2
100
AcDbSymbolTableRecord
100
AcDbLayerTableRecord
  2
LAYER006
 70
     0
 62
     7
  6
CONTINUOUS
  0
LAYER
  5
77
330
2
100
AcDbSymbolTableRecord
100
AcDbLayerTableRecord
  2
LAYER007
 70
     0
 62
     7
  6
CONTINUOUS
  0
LAYER
  5
78
330
2
100
AcDbSymbolTableRecord
100
AcDbLayerTableRecord
  2
LAYER008
 70
     0
 62
     7
  6
CONTINUOUS
  0
LAYER
  5
79
330
2
100
AcDbSymbolTableRecord
100
AcDbLayerTableRecord
  2
LAYER009
 70
     0
 62
     7
  6
CONTINUOUS
  0
LAYER
  5
7A
330
2
100
AcDbSymbolTableRecord
100
AcDbLayerTableRecord
  2
LAYER010
 70
     0
 62
     7
  6
CONTINUOUS
  0
LAYER
  5
7B
330
2
100
AcDbSymbolTableRecord
100
AcDbLayerTableRecord
  2
LAYER011
 70
     0
 62
     7
  6
CONTINUOUS
  0
LAYER
  5
7C
330
2
100
AcDbSymbolTableRecord
100
AcDbLayerTableRecord
  2
LAYER012
 70
     0
 62
     7
  6
CONTINUOUS
  0
LAYER
  5
7D
330
2
100
AcDbSymbolTableRecord
100
AcDbLayerTableRecord
  2
LAYER013
 70
     0
 62
     7
  6
CONTINUOUS
  0
LAYER
  5
7E
330
2
100
AcDbSymbolTableRecord
100
AcDbLayerTableRecord
  2
LAYER014
 70
     0
 62
     7
  6
CONTINUOUS
  0
LAYER
  5
7F
330
2
100
AcDbSymbolTableRecord
100
AcDbLayerTableRecord
  2
LAYER015
 70
     0
 62
     7
  6
CONTINUOUS
  0
LAYER
  5
80
330
2
100
AcDbSymbolTableRecord
100
AcDbLayerTableRecord
  2
LAYER016
 70
     0
 62
     7
  6
CONTINUOUS
  0
LAYER
  5
81
330
2
100
AcDbSymbolTableRecord
100
AcDbLayerTableRecord
  2
LAYER017
 70
     0
 62
     7
  6
CONTINUOUS
  0
LAYER
  5
82
330
2
100
AcDbSymbolTableRecord
100
AcDbLayerTableRecord
  2
LAYER018
 70
     0
 62
     7
  6
CONTINUOUS
  0
LAYER
  5
83
330
2
100
AcDbSymbolTableRecord
100
AcDbLayerTableRecord
  2
LAYER019
 70
     0
 62
     7
  6
CONTINUOUS
  0
LAYER
  5
84
330
2
100
AcDbSymbolTableRecord
100
AcDbLayerTableRecord
  2
LAYER020
 70
     0
 62
     7
  6
CONTINUOUS
  0
LAYER
  5
85
330
2
100
AcDbSymbolTableRecord
100
AcDbLayerTableRecord
  2
LAYER021
 70
     0
 62
     7
  6
CONTINUOUS
  0
LAYER
  5
86
330
2
100
AcDbSymbolTableRecord
100
AcDbLayerTableRecord
  2
LAYER022
 70
     0
 62
     7
  6
CONTINUOUS
  0
LAYER
  5
87
330
2
100
AcDbSymbolTableRecord
100
AcDbLayerTableRecord
  2
LAYER023
 70
     0
 62
     7
  6
CONTINUOUS
  0
LAYER
  5
88
330
2
100
AcDbSymbolTableRecord
100
AcDbLayerTableRecord
  2
LAYER024
 70
     0
 62
     7
  6
CONTINUOUS
  0
LAYER
  5
89
330
2
100
AcDbSymbolTableRecord
100
AcDbLayerTableRecord
  2
LAYER025
 70
     0
 62
     7
  6
CONTINUOUS
  0
LAYER
  5
8A
330
2
100
AcDbSymbolTableRecord
100
AcDbLayerTableRecord
  2
LAYER026
 70
     0
 62
     7
  6
CONTINUOUS
  0
LAYER
  5
8B
330
2
100
AcDbSymbolTableRecord
100
AcDbLayerTableRecord
  2
LAYER027
 70
     0
 62
     7
  6
CONTINUOUS
  0
LAYER
  5
8C
330
2
100
AcDbSymbolTableRecord
100
AcDbLayerTableRecord
  2
LAYER028
 70
     0
 62
     7
  6
CONTINUOUS
  0
LAYER
  5
8D
330
2
100
AcDbSymbolTableRecord
100
AcDbLayerTableRecord
  2
LAYER029
 70
     0
 62
     7
  6
CONTINUOUS
  0
LAYER
  5
8E
330
2
100
AcDbSymbolTableRecord
100
AcDbLayerTableRecord
  2
LAYER030
 70
     0
 62
     7
  6
CONTINUOUS
  0
LAYER
  5
8F
330
2
100
AcDbSymbolTableRecord
100
AcDbLayerTableRecord
  2
LAYER031
 70
     0
 62
     7
  6
CONTINUOUS
  0
LAYER
  5
90
330
2
100
AcDbSymbolTableRecord
100
AcDbLayerTableRecord
  2
LAYER032
 70
     0
 62
     7
  6
CONTINUOUS
  0
LAYER
  5
91
330
2
100
AcDbSymbolTableRecord
100
AcDbLayerTableRecord
  2
LAYER033
 70
     0
 62
     7
  6
CONTINUOUS
  0
LAYER
  5
92
330
2
100
AcDbSymbolTableRecord
100
AcDbLayerTableRecord
  2
LAYER034
 70
     0
 62
     7
  6
CONTINUOUS
  0
LAYER
  5
93
330
2
100
AcDbSymbolTableRecord
100
AcDbLayerTableRecord
  2
LAYER035
 70
     0
 62
     7
  6
CONTINUOUS
  0
LAYER
  5
94
330
2
100
AcDbSymbolTableRecord
100
AcDbLayerTableRecord
  2
LAYER036
 70
     0
 62
     7
  6
CONTINUOUS
  0
LAYER
  5
95
330
2
100
AcDbSymbolTableRecord
100
AcDbLayerTableRecord
  2
LAYER037
 70
     0
 62
     7
  6
CONTINUOUS
  0
LAYER
  5
96
330
2
100
AcDbSymbolTableRecord
100
AcDbLayerTableRecord
  2
LAYER038
 70
     0
 62
     7
  6
CONTINUOUS
  0
LAYER
  5
97
330
2
100
AcDbSymbolTableRecord
100
AcDbLayerTableRecord
  2
LAYER039
 70
     0
 62
     7
  6
CONTINUOUS
  0
LAYER
  5
98
330
2
100
AcDbSymbolTableRecord
100
AcDbLayerTableRecord
  2
LAYER040
 70
     0
 62
     7
  6
CONTINUOUS
  0
LAYER
  5
99
330
2
100
AcDbSymbolTableRecord
100
AcDbLayerTableRecord
  2
LAYER041
 70
     0
 62
     7
  6
CONTINUOUS
  0
LAYER
  5
9A
330
2
100
AcDbSymbolTableRecord
100
AcDbLayerTableRecord
  2
LAYER042
 70
     0
 62
     7
  6
CONTINUOUS
  0
LAYER
  5
9B
330
2
100
AcDbSymbolTableRecord
100
AcDbLayerTableRecord
  2
LAYER043
 70
     0
 62
     7
  6
CONTINUOUS
  0
LAYER
  5
9C
330
2
100
AcDbSymbolTableRecord
100
AcDbLayerTableRecord
  2
LAYER044
 70
     0
 62
     7
  6
CONTINUOUS
  0
LAYER
  5
9D
330
2
100
AcDbSymbolTableRecord
100
AcDbLayerTableRecord
  2
LAYER045
 70
     0
 62
     7
  6
CONTINUOUS
  0
LAYER
  5
9E
330
2
100
AcDbSymbolTableRecord
100
AcDbLayerTableRecord
  2
LAYER046
 70
     0
 62
     7
  6
CONTINUOUS
  0
LAYER
  5
9F
330
2
100
AcDbSymbolTableRecord
100
AcDbLayerTableRecord
  2
LAYER047
 70
     0
 62
     7
  6
CONTINUOUS
  0
LAYER
  5
A0
330
2
100
AcDbSymbolTableRecord
100
AcDbLayerTableRecord
  2
LAYER048
 70
     0
 62
     7
  6
CONTINUOUS
  0
LAYER
  5
A1
330
2
100
AcDbSymbolTableRecord
100
AcDbLayerTableRecord
  2
LAYER049
 70
     0
 62
     7
  6
CONTINUOUS
  0
LAYER
  5
A2
330
2
100
AcDbSymbolTableRecord
100
AcDbLayerTableRecord
  2
LAYER050
 70
     0
 62
     7
  6
CONTINUOUS
  0
LAYER
  5
A3
330
2
100
AcDbSymbolTableRecord
100
AcDbLayerTableRecord
  2
LAYER051
 70
     0
 62
     7
  6
CONTINUOUS
  0
LAYER
  5
A4
330
2
100
AcDbSymbolTableRecord
100
AcDbLayerTableRecord
  2
LAYER052
 70
     0
 62
     7
  6
CONTINUOUS
  0
LAYER
  5
A5
330
2
100
AcDbSymbolTableRecord
100
AcDbLayerTableRecord
  2
LAYER053
 70
     0
 62
     7
  6
CONTINUOUS
  0
LAYER
  5
A6
330
2
100
AcDbSymbolTableRecord
100
AcDbLayerTableRecord
  2
LAYER054
 70
     0
 62
     7
  6
CONTINUOUS
  0
LAYER
  5
A7
330
2
100
AcDbSymbolTableRecord
100
AcDbLayerTableRecord
  2
LAYER055
 70
     0
 62
     7
  6
CONTINUOUS
  0
LAYER
  5
A8
330
2
100
AcDbSymbolTableRecord
100
AcDbLayerTableRecord
  2
LAYER056
 70
     0
 62
     7
  6
CONTINUOUS
  0
LAYER
  5
A9
330
2
100
AcDbSymbolTableRecord
100
AcDbLayerTableRecord
  2
LAYER057
 70
     0
 62
     7
  6
CONTINUOUS
  0
LAYER
  5
AA
330
2
100
AcDbSymbolTableRecord
100
AcDbLayerTableRecord
  2
LAYER058
 70
     0
 62
     7
  6
CONTINUOUS
  0
LAYER
  5
AB
330
2
100
AcDbSymbolTableRecord
100
AcDbLayerTableRecord
  2
LAYER059
 70
     0
 62
     7
  6
CONTINUOUS
  0
LAYER
  5
AC
330
2
100
AcDbSymbolTableRecord
100
AcDbLayerTableRecord
  2
LAYER060
 70
     0
 62
     7
  6
CONTINUOUS
  0
LAYER
  5
AD
330
2
100
AcDbSymbolTableRecord
100
AcDbLayerTableRecord
  2
LAYER061
 70
     0
 62
     7
  6
CONTINUOUS
  0
LAYER
  5
AE
330
2
100
AcDbSymbolTableRecord
100
AcDbLayerTableRecord
  2
LAYER062
 70
     0
 62
     7
  6
CONTINUOUS
  0
LAYER
  5
AF
330
2
100
AcDbSymbolTableRecord
100
AcDbLayerTableRecord
  2
LAYER063
 70
     0
 62
     7
  6
CONTINUOUS
  0
LAYER
  5
B0
330
2
100
AcDbSymbolTableRecord
100
AcDbLayerTableRecord
  2
LAYER064
 70
     0
 62
     7
  6
CONTINUOUS
  0
LAYER
  5
ED
330
2
100
AcDbSymbolTableRecord
100
AcDbLayerTableRecord
  2
LAYER065
 70
     0
 62
     7
  6
CONTINUOUS
  0
ENDTAB
  0
TABLE
  2
STYLE
  5
3
330
0
100
AcDbSymbolTable
 70
     2
  0
STYLE
  5
11
330
3
100
AcDbSymbolTableRecord
100
AcDbTextStyleTableRecord
  2
STANDARD
 70
     0
 40
0.0
 41
1.0
 50
0.0
 71
     0
 42
2.5
  3
txt
  4

  0
STYLE
  5
B1
330
3
100
AcDbSymbolTableRecord
100
AcDbTextStyleTableRecord
  2
ED_VECTOR
 70
     0
 40
0.0
 41
1.0
 50
0.0
 71
     0
 42
2.5
  3
MONOTXT.SHX
  4
BIGFONT.SHX
  0
ENDTAB
  0
TABLE
  2
VIEW
  5
6
330
0
100
AcDbSymbolTable
 70
     0
  0
ENDTAB
  0
TABLE
  2
UCS
  5
7
330
0
100
AcDbSymbolTable
 70
     0
  0
ENDTAB
  0
TABLE
  2
APPID
  5
9
330
0
100
AcDbSymbolTable
 70
     2
  0
APPID
  5
12
330
9
100
AcDbSymbolTableRecord
100
AcDbRegAppTableRecord
  2
ACAD
 70
     0
  0
APPID
  5
3F8
330
9
100
AcDbSymbolTableRecord
100
AcDbRegAppTableRecord
  2
ACAD_MLEADERVER
 70
     0
  0
ENDTAB
  0
TABLE
  2
DIMSTYLE
  5
A
330
0
100
AcDbSymbolTable
 70
     2
  0
DIMSTYLE
105
27
330
A
100
AcDbSymbolTableRecord
100
AcDbDimStyleTableRecord
  2
ISO-25
 70
     0
  3

  4

  5

  6

  7

 40
1.0
 41
2.5
 42
0.625
 43
3.75
 44
1.25
 45
0.0
 46
0.0
 47
0.0
 48
0.0
140
2.5
141
2.5
142
0.0
143
0.03937
144
1.0
145
0.0
146
1.0
147
0.625
 71
     0
 72
     0
 73
     0
 74
     0
 75
     0
 76
     0
 77
     1
 78
     8
170
     0
171
     3
172
     1
173
     0
174
     0
175
     0
176
     0
177
     0
178
     0
270
     2
271
     2
272
     2
273
     2
274
     3
340
11
275
     0
280
     0
281
     0
282
     0
283
     0
284
     8
285
     0
286
     0
287
     3
288
     0
  0
DIMSTYLE
105
EC
102
{ACAD_REACTORS
330
198
330
1D9
330
1E2
330
1EA
330
1F3
330
1FD
330
205
330
219
330
229
330
299
330
2A3
102
}
330
A
100
AcDbSymbolTableRecord
100
AcDbDimStyleTableRecord
  2
EDDIMINFO
 70
     0
  3

  4

  5

  6
EDTIP_ARROW_S
  7
EDTIP_ARROW_E
 40
1.0
 41
30.0
 42
10.0
 43
100.0
 44
10.0
 45
0.0
 46
50.0
 47
0.0
 48
0.0
140
40.0
141
2.5
142
0.0
143
0.03937
144
1.0
145
0.0
146
1.0
147
10.0
 71
     0
 72
     0
 73
     0
 74
     0
 75
     0
 76
     0
 77
     1
 78
     8
170
     0
171
     3
172
     1
173
     1
174
     0
175
     0
176
     5
177
     5
178
     3
270
     2
271
     0
272
     2
273
     2
274
     3
340
B1
275
     0
280
     0
281
     0
282
     0
283
     0
284
     8
285
     0
286
     0
287
     3
288
     0
  0
ENDTAB
  0
TABLE
  2
BLOCK_RECORD
  5
1
330
0
100
AcDbSymbolTable
 70
    25
  0
BLOCK_RECORD
  5
1F
330
1
100
AcDbSymbolTableRecord
100
AcDbBlockTableRecord
  2
*MODEL_SPACE
  0
BLOCK_RECORD
  5
1B
330
1
100
AcDbSymbolTableRecord
100
AcDbBlockTableRecord
  2
*PAPER_SPACE
  0
BLOCK_RECORD
  5
B2
330
1
100
AcDbSymbolTableRecord
100
AcDbBlockTableRecord
  2
EDTIP_ARROW_S
  0
BLOCK_RECORD
  5
B8
330
1
100
AcDbSymbolTableRecord
100
AcDbBlockTableRecord
  2
EDTIP_ARROW_E
  0
BLOCK_RECORD
  5
BE
330
1
100
AcDbSymbolTableRecord
100
AcDbBlockTableRecord
  2
EDTIP_BLACKDOT_S
  0
BLOCK_RECORD
  5
C4
330
1
100
AcDbSymbolTableRecord
100
AcDbBlockTableRecord
  2
EDTIP_BLACKDOT_E
  0
BLOCK_RECORD
  5
CA
330
1
100
AcDbSymbolTableRecord
100
AcDbBlockTableRecord
  2
EDTIP_ARCHITECT_S
  0
BLOCK_RECORD
  5
D0
330
1
100
AcDbSymbolTableRecord
100
AcDbBlockTableRecord
  2
EDTIP_ARCHITECT_E
  0
BLOCK_RECORD
  5
D6
330
1
100
AcDbSymbolTableRecord
100
AcDbBlockTableRecord
  2
EDTIP_CIVIL_S
  0
BLOCK_RECORD
  5
DC
330
1
100
AcDbSymbolTableRecord
100
AcDbBlockTableRecord
  2
EDTIP_CIVIL_E
  0
BLOCK_RECORD
  5
E2
330
1
100
AcDbSymbolTableRecord
100
AcDbBlockTableRecord
  2
EDTIP_WHITEDOT_S
  0
BLOCK_RECORD
  5
E7
330
1
100
AcDbSymbolTableRecord
100
AcDbBlockTableRecord
  2
EDTIP_WHITEDOT_E
  0
BLOCK_RECORD
  5
EE
330
1
100
AcDbSymbolTableRecord
100
AcDbBlockTableRecord
  2
BLKF014
  0
BLOCK_RECORD
  5
199
330
1
100
AcDbSymbolTableRecord
100
AcDbBlockTableRecord
  2
*D12
  0
BLOCK_RECORD
  5
1A9
330
1
100
AcDbSymbolTableRecord
100
AcDbBlockTableRecord
  2
EDDIM016
  0
BLOCK_RECORD
  5
1DA
330
1
100
AcDbSymbolTableRecord
100
AcDbBlockTableRecord
  2
*D14
  0
BLOCK_RECORD
  5
1E3
330
1
100
AcDbSymbolTableRecord
100
AcDbBlockTableRecord
  2
*D15
  0
BLOCK_RECORD
  5
1EB
330
1
100
AcDbSymbolTableRecord
100
AcDbBlockTableRecord
  2
*D16
  0
BLOCK_RECORD
  5
1F4
330
1
100
AcDbSymbolTableRecord
100
AcDbBlockTableRecord
  2
*D17
  0
BLOCK_RECORD
  5
1FE
330
1
100
AcDbSymbolTableRecord
100
AcDbBlockTableRecord
  2
*D18
  0
BLOCK_RECORD
  5
206
330
1
100
AcDbSymbolTableRecord
100
AcDbBlockTableRecord
  2
*D19
  0
BLOCK_RECORD
  5
21A
330
1
100
AcDbSymbolTableRecord
100
AcDbBlockTableRecord
  2
*D20
  0
BLOCK_RECORD
  5
22A
330
1
100
AcDbSymbolTableRecord
100
AcDbBlockTableRecord
  2
*D21
  0
BLOCK_RECORD
  5
29A
330
1
100
AcDbSymbolTableRecord
100
AcDbBlockTableRecord
  2
*D22
  0
BLOCK_RECORD
  5
2A4
330
1
100
AcDbSymbolTableRecord
100
AcDbBlockTableRecord
  2
*D23
  0
BLOCK_RECORD
  5
2FE
330
1
100
AcDbSymbolTableRecord
100
AcDbBlockTableRecord
  2
EDDIM027
  0
BLOCK_RECORD
  5
326
330
1
100
AcDbSymbolTableRecord
100
AcDbBlockTableRecord
  2
BLKF028
  0
ENDTAB
  0
ENDSEC
  0
SECTION
  2
BLOCKS
  0
BLOCK
  5
20
330
1F
100
AcDbEntity
  8
0
100
AcDbBlockBegin
  2
*MODEL_SPACE
 70
     0
 10
0.0
 20
0.0
 30
0.0
  3
*MODEL_SPACE
  1

  0
ENDBLK
  5
21
330
1F
100
AcDbEntity
  8
0
100
AcDbBlockEnd
  0
BLOCK
  5
1C
330
1B
100
AcDbEntity
 67
     1
  8
0
100
AcDbBlockBegin
  2
*PAPER_SPACE
 70
     0
 10
0.0
 20
0.0
 30
0.0
  3
*PAPER_SPACE
  1

  0
ENDBLK
  5
1D
330
1B
100
AcDbEntity
 67
     1
  8
0
100
AcDbBlockEnd
  0
BLOCK
  5
B3
330
B2
100
AcDbEntity
  8
0
100
AcDbBlockBegin
  2
EDTIP_ARROW_S
 70
     0
 10
0.0
 20
0.0
 30
0.0
  3
EDTIP_ARROW_S
  1

  0
LINE
  5
B5
330
B2
100
AcDbEntity
  8
0
  6
CONTINUOUS
 62
     0
100
AcDbLine
 10
0.0
 20
0.0
 30
0.0
 11
-1.0
 21
0.0
 31
0.0
  0
LINE
  5
B6
330
B2
100
AcDbEntity
  8
0
  6
CONTINUOUS
 62
     0
100
AcDbLine
 10
0.0
 20
0.0
 30
0.0
 11
-0.965926
 21
0.258819
 31
0.0
  0
LINE
  5
B7
330
B2
100
AcDbEntity
  8
0
  6
CONTINUOUS
 62
     0
100
AcDbLine
 10
0.0
 20
0.0
 30
0.0
 11
-0.965926
 21
-0.258819
 31
0.0
  0
ENDBLK
  5
B4
330
B2
100
AcDbEntity
  8
0
100
AcDbBlockEnd
  0
BLOCK
  5
B9
330
B8
100
AcDbEntity
  8
0
100
AcDbBlockBegin
  2
EDTIP_ARROW_E
 70
     0
 10
0.0
 20
0.0
 30
0.0
  3
EDTIP_ARROW_E
  1

  0
LINE
  5
BB
330
B8
100
AcDbEntity
  8
0
  6
CONTINUOUS
 62
     0
100
AcDbLine
 10
0.0
 20
0.0
 30
0.0
 11
-1.0
 21
0.0
 31
0.0
  0
LINE
  5
BC
330
B8
100
AcDbEntity
  8
0
  6
CONTINUOUS
 62
     0
100
AcDbLine
 10
0.0
 20
0.0
 30
0.0
 11
-0.965926
 21
-0.258819
 31
0.0
  0
LINE
  5
BD
330
B8
100
AcDbEntity
  8
0
  6
CONTINUOUS
 62
     0
100
AcDbLine
 10
0.0
 20
0.0
 30
0.0
 11
-0.965926
 21
0.258819
 31
0.0
  0
ENDBLK
  5
BA
330
B8
100
AcDbEntity
  8
0
100
AcDbBlockEnd
  0
BLOCK
  5
BF
330
BE
100
AcDbEntity
  8
0
100
AcDbBlockBegin
  2
EDTIP_BLACKDOT_S
 70
     0
 10
0.0
 20
0.0
 30
0.0
  3
EDTIP_BLACKDOT_S
  1

  0
LINE
  5
C1
330
BE
100
AcDbEntity
  8
0
  6
CONTINUOUS
 62
     0
100
AcDbLine
 10
0.0
 20
0.0
 30
0.0
 11
-1.0
 21
0.0
 31
0.0
  0
CIRCLE
  5
C2
330
BE
100
AcDbEntity
  8
0
  6
CONTINUOUS
 62
     0
100
AcDbCircle
 10
0.0
 20
0.0
 30
0.0
 40
0.5
  0
CIRCLE
  5
C3
330
BE
100
AcDbEntity
  8
0
  6
CONTINUOUS
 62
     0
100
AcDbCircle
 10
0.0
 20
0.0
 30
0.0
 40
0.25
  0
ENDBLK
  5
C0
330
BE
100
AcDbEntity
  8
0
100
AcDbBlockEnd
  0
BLOCK
  5
C5
330
C4
100
AcDbEntity
  8
0
100
AcDbBlockBegin
  2
EDTIP_BLACKDOT_E
 70
     0
 10
0.0
 20
0.0
 30
0.0
  3
EDTIP_BLACKDOT_E
  1

  0
LINE
  5
C7
330
C4
100
AcDbEntity
  8
0
  6
CONTINUOUS
 62
     0
100
AcDbLine
 10
0.0
 20
0.0
 30
0.0
 11
-1.0
 21
0.0
 31
0.0
  0
CIRCLE
  5
C8
330
C4
100
AcDbEntity
  8
0
  6
CONTINUOUS
 62
     0
100
AcDbCircle
 10
0.0
 20
0.0
 30
0.0
 40
0.5
  0
CIRCLE
  5
C9
330
C4
100
AcDbEntity
  8
0
  6
CONTINUOUS
 62
     0
100
AcDbCircle
 10
0.0
 20
0.0
 30
0.0
 40
0.25
  0
ENDBLK
  5
C6
330
C4
100
AcDbEntity
  8
0
100
AcDbBlockEnd
  0
BLOCK
  5
CB
330
CA
100
AcDbEntity
  8
0
100
AcDbBlockBegin
  2
EDTIP_ARCHITECT_S
 70
     0
 10
0.0
 20
0.0
 30
0.0
  3
EDTIP_ARCHITECT_S
  1

  0
LINE
  5
CD
330
CA
100
AcDbEntity
  8
0
  6
CONTINUOUS
 62
     0
100
AcDbLine
 10
0.0
 20
0.0
 30
0.0
 11
-1.0
 21
0.0
 31
0.0
  0
LINE
  5
CE
330
CA
100
AcDbEntity
  8
0
  6
CONTINUOUS
 62
     0
100
AcDbLine
 10
0.0
 20
0.0
 30
0.0
 11
-0.707107
 21
-0.707107
 31
0.0
  0
LINE
  5
CF
330
CA
100
AcDbEntity
  8
0
  6
CONTINUOUS
 62
     0
100
AcDbLine
 10
0.0
 20
0.0
 30
0.0
 11
0.707107
 21
0.707107
 31
0.0
  0
ENDBLK
  5
CC
330
CA
100
AcDbEntity
  8
0
100
AcDbBlockEnd
  0
BLOCK
  5
D1
330
D0
100
AcDbEntity
  8
0
100
AcDbBlockBegin
  2
EDTIP_ARCHITECT_E
 70
     0
 10
0.0
 20
0.0
 30
0.0
  3
EDTIP_ARCHITECT_E
  1

  0
LINE
  5
D3
330
D0
100
AcDbEntity
  8
0
  6
CONTINUOUS
 62
     0
100
AcDbLine
 10
0.0
 20
0.0
 30
0.0
 11
-1.0
 21
0.0
 31
0.0
  0
LINE
  5
D4
330
D0
100
AcDbEntity
  8
0
  6
CONTINUOUS
 62
     0
100
AcDbLine
 10
0.0
 20
0.0
 30
0.0
 11
-0.707107
 21
-0.707107
 31
0.0
  0
LINE
  5
D5
330
D0
100
AcDbEntity
  8
0
  6
CONTINUOUS
 62
     0
100
AcDbLine
 10
0.0
 20
0.0
 30
0.0
 11
0.707107
 21
0.707107
 31
0.0
  0
ENDBLK
  5
D2
330
D0
100
AcDbEntity
  8
0
100
AcDbBlockEnd
  0
BLOCK
  5
D7
330
D6
100
AcDbEntity
  8
0
100
AcDbBlockBegin
  2
EDTIP_CIVIL_S
 70
     0
 10
0.0
 20
0.0
 30
0.0
  3
EDTIP_CIVIL_S
  1

  0
LINE
  5
D9
330
D6
100
AcDbEntity
  8
0
  6
CONTINUOUS
 62
     0
100
AcDbLine
 10
0.0
 20
0.0
 30
0.0
 11
-1.0
 21
0.0
 31
0.0
  0
LINE
  5
DA
330
D6
100
AcDbEntity
  8
0
  6
CONTINUOUS
 62
     0
100
AcDbLine
 10
0.0
 20
-0.008333
 30
0.0
 11
-1.0
 21
-0.008333
 31
0.0
  0
LINE
  5
DB
330
D6
100
AcDbEntity
  8
0
  6
CONTINUOUS
 62
     0
100
AcDbLine
 10
0.0
 20
-0.016667
 30
0.0
 11
-1.0
 21
-0.016667
 31
0.0
  0
ENDBLK
  5
D8
330
D6
100
AcDbEntity
  8
0
100
AcDbBlockEnd
  0
BLOCK
  5
DD
330
DC
100
AcDbEntity
  8
0
100
AcDbBlockBegin
  2
EDTIP_CIVIL_E
 70
     0
 10
0.0
 20
0.0
 30
0.0
  3
EDTIP_CIVIL_E
  1

  0
LINE
  5
DF
330
DC
100
AcDbEntity
  8
0
  6
CONTINUOUS
 62
     0
100
AcDbLine
 10
0.0
 20
0.0
 30
0.0
 11
-1.0
 21
0.0
 31
0.0
  0
LINE
  5
E0
330
DC
100
AcDbEntity
  8
0
  6
CONTINUOUS
 62
     0
100
AcDbLine
 10
0.0
 20
0.008333
 30
0.0
 11
-1.0
 21
0.008333
 31
0.0
  0
LINE
  5
E1
330
DC
100
AcDbEntity
  8
0
  6
CONTINUOUS
 62
     0
100
AcDbLine
 10
0.0
 20
0.016667
 30
0.0
 11
-1.0
 21
0.016667
 31
0.0
  0
ENDBLK
  5
DE
330
DC
100
AcDbEntity
  8
0
100
AcDbBlockEnd
  0
BLOCK
  5
E3
330
E2
100
AcDbEntity
  8
0
100
AcDbBlockBegin
  2
EDTIP_WHITEDOT_S
 70
     0
 10
0.0
 20
0.0
 30
0.0
  3
EDTIP_WHITEDOT_S
  1

  0
LINE
  5
E5
330
E2
100
AcDbEntity
  8
0
  6
CONTINUOUS
 62
     0
100
AcDbLine
 10
0.0
 20
0.0
 30
0.0
 11
-1.0
 21
0.0
 31
0.0
  0
CIRCLE
  5
E6
330
E2
100
AcDbEntity
  8
0
  6
CONTINUOUS
 62
     0
100
AcDbCircle
 10
0.0
 20
0.0
 30
0.0
 40
0.5
  0
ENDBLK
  5
E4
330
E2
100
AcDbEntity
  8
0
100
AcDbBlockEnd
  0
BLOCK
  5
E8
330
E7
100
AcDbEntity
  8
0
100
AcDbBlockBegin
  2
EDTIP_WHITEDOT_E
 70
     0
 10
0.0
 20
0.0
 30
0.0
  3
EDTIP_WHITEDOT_E
  1

  0
LINE
  5
EA
330
E7
100
AcDbEntity
  8
0
  6
CONTINUOUS
 62
     0
100
AcDbLine
 10
0.0
 20
0.0
 30
0.0
 11
-1.0
 21
0.0
 31
0.0
  0
CIRCLE
  5
EB
330
E7
100
AcDbEntity
  8
0
  6
CONTINUOUS
 62
     0
100
AcDbCircle
 10
0.0
 20
0.0
 30
0.0
 40
0.5
  0
ENDBLK
  5
E9
330
E7
100
AcDbEntity
  8
0
100
AcDbBlockEnd
  0
BLOCK
  5
EF
330
EE
100
AcDbEntity
  8
0
100
AcDbBlockBegin
  2
BLKF014
 70
     0
 10
0.0
 20
0.0
 30
0.0
  3
BLKF014
  1

  0
LINE
  5
F2
330
EE
100
AcDbEntity
  8
0
  6
CONTINUOUS
 62
     3
100
AcDbLine
 10
2220.439032
 20
1774.948414
 30
0.0
 11
2220.439032
 21
1836.948414
 31
0.0
  0
LINE
  5
F3
330
EE
100
AcDbEntity
  8
0
  6
CONTINUOUS
 62
     3
100
AcDbLine
 10
2222.939032
 20
1772.448414
 30
0.0
 11
2307.939032
 21
1772.448414
 31
0.0
  0
LINE
  5
F4
330
EE
100
AcDbEntity
  8
0
  6
CENTER
 62
     5
100
AcDbLine
 10
2162.089393
 20
1844.948414
 30
0.0
 11
2220.439032
 21
1844.948414
 31
0.0
  0
LINE
  5
F5
330
EE
100
AcDbEntity
  8
0
  6
CONTINUOUS
 62
     2
100
AcDbLine
 10
2222.939032
 20
1828.948414
 30
0.0
 11
2307.939032
 21
1828.948414
 31
0.0
  0
LINE
  5
F6
330
EE
100
AcDbEntity
  8
0
  6
CONTINUOUS
 62
     3
100
AcDbLine
 10
2222.939032
 20
1777.448414
 30
0.0
 11
2222.939032
 21
1822.448414
 31
0.0
  0
LINE
  5
F7
330
EE
100
AcDbEntity
  8
0
  6
CONTINUOUS
 62
     3
100
AcDbLine
 10
2310.439032
 20
1774.948414
 30
0.0
 11
2310.439032
 21
1844.948414
 31
0.0
  0
LINE
  5
F8
330
EE
100
AcDbEntity
  8
0
  6
CONTINUOUS
 62
     3
100
AcDbLine
 10
2225.439032
 20
1774.948414
 30
0.0
 11
2302.439032
 21
1774.948414
 31
0.0
  0
LINE
  5
F9
330
EE
100
AcDbEntity
  8
0
  6
CONTINUOUS
 62
     3
100
AcDbLine
 10
2225.439032
 20
1824.948414
 30
0.0
 11
2302.439032
 21
1824.948414
 31
0.0
  0
ARC
  5
FA
330
EE
100
AcDbEntity
  8
0
  6
CONTINUOUS
 62
     3
100
AcDbCircle
 10
2248.37085
 20
1799.948414
 30
0.0
 40
59.56818181817743
100
AcDbArc
 50
335.185163
 51
24.814837
  0
ARC
  5
FB
330
EE
100
AcDbEntity
  8
0
  6
CONTINUOUS
 62
     3
100
AcDbCircle
 10
2225.439032
 20
1777.448414
 30
0.0
 40
2.5
100
AcDbArc
 50
180.0
 51
270.0
  0
ARC
  5
FC
330
EE
100
AcDbEntity
  8
0
  6
CONTINUOUS
 62
     3
100
AcDbCircle
 10
2225.439032
 20
1822.448414
 30
0.0
 40
2.5
100
AcDbArc
 50
90.0
 51
180.0
  0
ARC
  5
FD
330
EE
100
AcDbEntity
  8
0
  6
CONTINUOUS
 62
     3
100
AcDbCircle
 10
2222.939032
 20
1774.948414
 30
0.0
 40
2.5
100
AcDbArc
 50
180.0
 51
270.0
  0
ARC
  5
FE
330
EE
100
AcDbEntity
  8
0
  6
CONTINUOUS
 62
     3
100
AcDbCircle
 10
2307.939032
 20
1774.948414
 30
0.0
 40
2.5
100
AcDbArc
 50
270.0
 51
0.0
  0
ARC
  5
FF
330
EE
100
AcDbEntity
  8
0
  6
CONTINUOUS
 62
     2
100
AcDbCircle
 10
2307.939032
 20
1831.448414
 30
0.0
 40
2.5
100
AcDbArc
 50
270.0
 51
0.0
  0
ARC
  5
100
330
EE
100
AcDbEntity
  8
0
  6
CONTINUOUS
 62
     2
100
AcDbCircle
 10
2222.939032
 20
1831.448414
 30
0.0
 40
2.5
100
AcDbArc
 50
180.0
 51
270.0
  0
LINE
  5
101
330
EE
100
AcDbEntity
  8
0
  6
CONTINUOUS
 62
     3
100
AcDbLine
 10
2220.439032
 20
1914.948414
 30
0.0
 11
2220.439032
 21
1852.948414
 31
0.0
  0
LINE
  5
102
330
EE
100
AcDbEntity
  8
0
  6
CONTINUOUS
 62
     3
100
AcDbLine
 10
2222.939032
 20
1917.448414
 30
0.0
 11
2307.939032
 21
1917.448414
 31
0.0
  0
LINE
  5
103
330
EE
100
AcDbEntity
  8
0
  6
CONTINUOUS
 62
     2
100
AcDbLine
 10
2222.939032
 20
1860.948414
 30
0.0
 11
2307.939032
 21
1860.948414
 31
0.0
  0
LINE
  5
104
330
EE
100
AcDbEntity
  8
0
  6
CONTINUOUS
 62
     3
100
AcDbLine
 10
2310.439032
 20
1914.948414
 30
0.0
 11
2310.439032
 21
1844.948414
 31
0.0
  0
ARC
  5
105
330
EE
100
AcDbEntity
  8
0
  6
CONTINUOUS
 62
     3
100
AcDbCircle
 10
2222.939032
 20
1914.948414
 30
0.0
 40
2.5
100
AcDbArc
 50
90.0
 51
180.0
  0
ARC
  5
106
330
EE
100
AcDbEntity
  8
0
  6
CONTINUOUS
 62
     3
100
AcDbCircle
 10
2307.939032
 20
1914.948414
 30
0.0
 40
2.5
100
AcDbArc
 50
0.0
 51
90.0
  0
ARC
  5
107
330
EE
100
AcDbEntity
  8
0
  6
CONTINUOUS
 62
     2
100
AcDbCircle
 10
2307.939032
 20
1858.448414
 30
0.0
 40
2.5
100
AcDbArc
 50
0.0
 51
90.0
  0
ARC
  5
108
330
EE
100
AcDbEntity
  8
0
  6
CONTINUOUS
 62
     2
100
AcDbCircle
 10
2222.939032
 20
1858.448414
 30
0.0
 40
2.5
100
AcDbArc
 50
90.0
 51
180.0
  0
LINE
  5
109
330
EE
100
AcDbEntity
  8
0
  6
CONTINUOUS
 62
     3
100
AcDbLine
 10
2222.939032
 20
1912.448414
 30
0.0
 11
2222.939032
 21
1867.448414
 31
0.0
  0
LINE
  5
10A
330
EE
100
AcDbEntity
  8
0
  6
CONTINUOUS
 62
     3
100
AcDbLine
 10
2225.439032
 20
1914.948414
 30
0.0
 11
2302.439032
 21
1914.948414
 31
0.0
  0
LINE
  5
10B
330
EE
100
AcDbEntity
  8
0
  6
CONTINUOUS
 62
     3
100
AcDbLine
 10
2225.439032
 20
1864.948414
 30
0.0
 11
2302.439032
 21
1864.948414
 31
0.0
  0
ARC
  5
10C
330
EE
100
AcDbEntity
  8
0
  6
CONTINUOUS
 62
     3
100
AcDbCircle
 10
2248.37085
 20
1889.948414
 30
0.0
 40
59.56818181817743
100
AcDbArc
 50
335.185163
 51
24.814837
  0
ARC
  5
10D
330
EE
100
AcDbEntity
  8
0
  6
CONTINUOUS
 62
     3
100
AcDbCircle
 10
2225.439032
 20
1912.448414
 30
0.0
 40
2.5
100
AcDbArc
 50
90.0
 51
180.0
  0
ARC
  5
10E
330
EE
100
AcDbEntity
  8
0
  6
CONTINUOUS
 62
     3
100
AcDbCircle
 10
2225.439032
 20
1867.448414
 30
0.0
 40
2.5
100
AcDbArc
 50
180.0
 51
270.0
  0
LINE
  5
10F
330
EE
100
AcDbEntity
  8
0
  6
CONTINUOUS
 62
     3
100
AcDbLine
 10
2213.439032
 20
1851.948414
 30
0.0
 11
2213.439032
 21
1848.448414
 31
0.0
  0
LINE
  5
110
330
EE
100
AcDbEntity
  8
0
  6
CONTINUOUS
 62
     3
100
AcDbLine
 10
2162.089393
 20
1848.448414
 30
0.0
 11
2213.439032
 21
1848.448414
 31
0.0
  0
LINE
  5
111
330
EE
100
AcDbEntity
  8
0
  6
CONTINUOUS
 62
     3
100
AcDbLine
 10
2214.439032
 20
1852.948414
 30
0.0
 11
2220.439032
 21
1852.948414
 31
0.0
  0
LINE
  5
112
330
EE
100
AcDbEntity
  8
0
  6
CONTINUOUS
 62
     3
100
AcDbLine
 10
2214.439032
 20
1836.948414
 30
0.0
 11
2220.439032
 21
1836.948414
 31
0.0
  0
LINE
  5
113
330
EE
100
AcDbEntity
  8
0
  6
CONTINUOUS
 62
     3
100
AcDbLine
 10
2162.089393
 20
1841.448414
 30
0.0
 11
2213.439032
 21
1841.448414
 31
0.0
  0
ARC
  5
114
330
EE
100
AcDbEntity
  8
0
  6
CONTINUOUS
 62
     3
100
AcDbCircle
 10
2214.439032
 20
1837.948414
 30
0.0
 40
1.0
100
AcDbArc
 50
180.0
 51
270.0
  0
ARC
  5
115
330
EE
100
AcDbEntity
  8
0
  6
CONTINUOUS
 62
     3
100
AcDbCircle
 10
2214.439032
 20
1851.948414
 30
0.0
 40
1.0
100
AcDbArc
 50
90.0
 51
180.0
  0
LINE
  5
116
330
EE
100
AcDbEntity
  8
0
  6
CONTINUOUS
 62
     3
100
AcDbLine
 10
2213.439032
 20
1841.448414
 30
0.0
 11
2213.439032
 21
1837.948414
 31
0.0
  0
LINE
  5
117
330
EE
100
AcDbEntity
  8
0
  6
CONTINUOUS
 62
     2
100
AcDbLine
 10
2213.439032
 20
1848.448414
 30
0.0
 11
2213.439032
 21
1841.448414
 31
0.0
  0
LINE
  5
118
330
EE
100
AcDbEntity
  8
0
  6
CONTINUOUS
 62
     2
100
AcDbLine
 10
2220.439032
 20
1836.948414
 30
0.0
 11
2220.439032
 21
1844.948414
 31
0.0
  0
LINE
  5
119
330
EE
100
AcDbEntity
  8
0
  6
CONTINUOUS
 62
     2
100
AcDbLine
 10
2220.439032
 20
1852.948414
 30
0.0
 11
2220.439032
 21
1844.948414
 31
0.0
  0
LINE
  5
11A
330
EE
100
AcDbEntity
  8
0
  6
CONTINUOUS
 62
     2
100
AcDbLine
 10
2239.932043
 20
1832.785754
 30
0.0
 11
2230.797043
 21
1832.785754
 31
0.0
  0
LINE
  5
11B
330
EE
100
AcDbEntity
  8
0
  6
CONTINUOUS
 62
     2
100
AcDbLine
 10
2239.932043
 20
1856.410754
 30
0.0
 11
2230.797043
 21
1856.410754
 31
0.0
  0
LINE
  5
11C
330
EE
100
AcDbEntity
  8
0
  6
CONTINUOUS
 62
     2
100
AcDbLine
 10
2229.537043
 20
1834.045754
 30
0.0
 11
2229.537043
 21
1855.150754
 31
0.0
  0
LINE
  5
11D
330
EE
100
AcDbEntity
  8
0
  6
CONTINUOUS
 62
     2
100
AcDbLine
 10
2241.192043
 20
1834.045754
 30
0.0
 11
2241.192043
 21
1855.150754
 31
0.0
  0
LINE
  5
11E
330
EE
100
AcDbEntity
  8
0
  6
CONTINUOUS
 62
     2
100
AcDbLine
 10
2239.302043
 20
1854.520754
 30
0.0
 11
2231.269543
 21
1854.520754
 31
0.0
  0
LINE
  5
11F
330
EE
100
AcDbEntity
  8
0
  6
CONTINUOUS
 62
     2
100
AcDbLine
 10
2239.302043
 20
1851.370754
 30
0.0
 11
2238.357043
 21
1851.370754
 31
0.0
  0
LINE
  5
120
330
EE
100
AcDbEntity
  8
0
  6
CONTINUOUS
 62
     2
100
AcDbLine
 10
2239.302043
 20
1842.708254
 30
0.0
 11
2238.357043
 21
1842.708254
 31
0.0
  0
LINE
  5
121
330
EE
100
AcDbEntity
  8
0
  6
CONTINUOUS
 62
     2
100
AcDbLine
 10
2239.302043
 20
1838.140754
 30
0.0
 11
2234.262043
 21
1838.140754
 31
0.0
  0
LINE
  5
122
330
EE
100
AcDbEntity
  8
0
  6
CONTINUOUS
 62
     2
100
AcDbLine
 10
2240.404543
 20
1839.243254
 30
0.0
 11
2240.404543
 21
1841.605754
 31
0.0
  0
LINE
  5
123
330
EE
100
AcDbEntity
  8
0
  6
CONTINUOUS
 62
     2
100
AcDbLine
 10
2233.159543
 20
1839.243254
 30
0.0
 11
2233.159543
 21
1841.605754
 31
0.0
  0
LINE
  5
124
330
EE
100
AcDbEntity
  8
0
  6
CONTINUOUS
 62
     2
100
AcDbLine
 10
2230.167043
 20
1852.473254
 30
0.0
 11
2230.167043
 21
1853.418254
 31
0.0
  0
LINE
  5
125
330
EE
100
AcDbEntity
  8
0
  6
CONTINUOUS
 62
     2
100
AcDbLine
 10
2237.412043
 20
1843.653254
 30
0.0
 11
2237.412043
 21
1850.425754
 31
0.0
  0
LINE
  5
126
330
EE
100
AcDbEntity
  8
0
  6
CONTINUOUS
 62
     2
100
AcDbLine
 10
2236.624543
 20
1843.653254
 30
0.0
 11
2236.624543
 21
1850.425754
 31
0.0
  0
ARC
  5
127
330
EE
100
AcDbEntity
  8
0
  6
CONTINUOUS
 62
     2
100
AcDbCircle
 10
2239.302043
 20
1839.243254
 30
0.0
 40
1.1025
100
AcDbArc
 50
270.0
 51
0.0
  0
ARC
  5
128
330
EE
100
AcDbEntity
  8
0
  6
CONTINUOUS
 62
     2
100
AcDbCircle
 10
2234.262043
 20
1839.243254
 30
0.0
 40
1.1025
100
AcDbArc
 50
180.0
 51
270.0
  0
ARC
  5
129
330
EE
100
AcDbEntity
  8
0
  6
CONTINUOUS
 62
     2
100
AcDbCircle
 10
2234.262043
 20
1841.605754
 30
0.0
 40
1.1025
100
AcDbArc
 50
90.0
 51
180.0
  0
ARC
  5
12A
330
EE
100
AcDbEntity
  8
0
  6
CONTINUOUS
 62
     2
100
AcDbCircle
 10
2239.302043
 20
1841.605754
 30
0.0
 40
1.1025
100
AcDbArc
 50
0.0
 51
90.0
  0
ARC
  5
12B
330
EE
100
AcDbEntity
  8
0
  6
CONTINUOUS
 62
     2
100
AcDbCircle
 10
2231.269543
 20
1852.473254
 30
0.0
 40
1.1025
100
AcDbArc
 50
180.0
 51
270.0
  0
ARC
  5
12C
330
EE
100
AcDbEntity
  8
0
  6
CONTINUOUS
 62
     2
100
AcDbCircle
 10
2231.269543
 20
1853.418254
 30
0.0
 40
1.1025
100
AcDbArc
 50
90.0
 51
180.0
  0
ARC
  5
12D
330
EE
100
AcDbEntity
  8
0
  6
CONTINUOUS
 62
     2
100
AcDbCircle
 10
2239.302043
 20
1853.418254
 30
0.0
 40
1.1025
100
AcDbArc
 50
0.0
 51
90.0
  0
ARC
  5
12E
330
EE
100
AcDbEntity
  8
0
  6
CONTINUOUS
 62
     2
100
AcDbCircle
 10
2239.302043
 20
1852.473254
 30
0.0
 40
1.1025
100
AcDbArc
 50
270.0
 51
0.0
  0
LINE
  5
12F
330
EE
100
AcDbEntity
  8
0
  6
CONTINUOUS
 62
     2
100
AcDbLine
 10
2235.679543
 20
1842.708254
 30
0.0
 11
2234.262043
 21
1842.708254
 31
0.0
  0
LINE
  5
130
330
EE
100
AcDbEntity
  8
0
  6
CONTINUOUS
 62
     2
100
AcDbLine
 10
2235.679543
 20
1851.370754
 30
0.0
 11
2231.269543
 21
1851.370754
 31
0.0
  0
ARC
  5
131
330
EE
100
AcDbEntity
  8
0
  6
CONTINUOUS
 62
     2
100
AcDbCircle
 10
2238.357043
 20
1843.653254
 30
0.0
 40
0.945
100
AcDbArc
 50
180.0
 51
270.0
  0
ARC
  5
132
330
EE
100
AcDbEntity
  8
0
  6
CONTINUOUS
 62
     2
100
AcDbCircle
 10
2235.679543
 20
1843.653254
 30
0.0
 40
0.945
100
AcDbArc
 50
270.0
 51
0.0
  0
ARC
  5
133
330
EE
100
AcDbEntity
  8
0
  6
CONTINUOUS
 62
     2
100
AcDbCircle
 10
2235.679543
 20
1850.425754
 30
0.0
 40
0.945
100
AcDbArc
 50
0.0
 51
90.0
  0
ARC
  5
134
330
EE
100
AcDbEntity
  8
0
  6
CONTINUOUS
 62
     2
100
AcDbCircle
 10
2239.932043
 20
1834.045754
 30
0.0
 40
1.26
100
AcDbArc
 50
270.0
 51
0.0
  0
ARC
  5
135
330
EE
100
AcDbEntity
  8
0
  6
CONTINUOUS
 62
     2
100
AcDbCircle
 10
2230.797043
 20
1834.045754
 30
0.0
 40
1.26
100
AcDbArc
 50
180.0
 51
270.0
  0
ARC
  5
136
330
EE
100
AcDbEntity
  8
0
  6
CONTINUOUS
 62
     2
100
AcDbCircle
 10
2230.797043
 20
1855.150754
 30
0.0
 40
1.26
100
AcDbArc
 50
90.0
 51
180.0
  0
ARC
  5
137
330
EE
100
AcDbEntity
  8
0
  6
CONTINUOUS
 62
     2
100
AcDbCircle
 10
2239.932043
 20
1855.150754
 30
0.0
 40
1.26
100
AcDbArc
 50
0.0
 51
90.0
  0
ARC
  5
138
330
EE
100
AcDbEntity
  8
0
  6
CONTINUOUS
 62
     2
100
AcDbCircle
 10
2238.357043
 20
1850.425754
 30
0.0
 40
0.945
100
AcDbArc
 50
90.0
 51
180.0
  0
LINE
  5
139
330
EE
100
AcDbEntity
  8
0
  6
CONTINUOUS
 62
     2
100
AcDbLine
 10
2240.404543
 20
1852.473254
 30
0.0
 11
2240.404543
 21
1853.418254
 31
0.0
  0
CIRCLE
  5
13A
330
EE
100
AcDbEntity
  8
0
  6
CONTINUOUS
 62
     2
100
AcDbCircle
 10
2294.616589
 20
1853.065393
 30
0.0
 40
1.5
  0
CIRCLE
  5
13B
330
EE
100
AcDbEntity
  8
0
  6
CONTINUOUS
 62
     2
100
AcDbCircle
 10
2294.616589
 20
1853.065393
 30
0.0
 40
1.0
  0
POINT
  5
13C
330
EE
100
AcDbEntity
  8
0
  6
CONTINUOUS
 62
     2
100
AcDbPoint
 10
2294.616589
 20
1853.065393
 30
0.0
  0
CIRCLE
  5
13D
330
EE
100
AcDbEntity
  8
0
  6
CONTINUOUS
 62
     2
100
AcDbCircle
 10
2284.616589
 20
1853.065393
 30
0.0
 40
1.5
  0
CIRCLE
  5
13E
330
EE
100
AcDbEntity
  8
0
  6
CONTINUOUS
 62
     2
100
AcDbCircle
 10
2284.616589
 20
1853.065393
 30
0.0
 40
1.0
  0
POINT
  5
13F
330
EE
100
AcDbEntity
  8
0
  6
CONTINUOUS
 62
     2
100
AcDbPoint
 10
2284.616589
 20
1853.065393
 30
0.0
  0
CIRCLE
  5
140
330
EE
100
AcDbEntity
  8
0
  6
CONTINUOUS
 62
     2
100
AcDbCircle
 10
2274.616589
 20
1853.065393
 30
0.0
 40
1.5
  0
CIRCLE
  5
141
330
EE
100
AcDbEntity
  8
0
  6
CONTINUOUS
 62
     2
100
AcDbCircle
 10
2274.616589
 20
1853.065393
 30
0.0
 40
1.0
  0
POINT
  5
142
330
EE
100
AcDbEntity
  8
0
  6
CONTINUOUS
 62
     2
100
AcDbPoint
 10
2274.616589
 20
1853.065393
 30
0.0
  0
TEXT
  5
143
330
EE
100
AcDbEntity
  8
0
  6
CONTINUOUS
 62
     2
100
AcDbText
 10
2296.439974
 20
1838.829464
 30
0.0
 40
3.646549
  1
3
 50
90.0
 41
1.113868
  7
ED_VECTOR
100
AcDbText
  0
TEXT
  5
144
330
EE
100
AcDbEntity
  8
0
  6
CONTINUOUS
 62
     2
100
AcDbText
 10
2286.439974
 20
1838.829464
 30
0.0
 40
3.646549
  1
2
 50
90.0
 41
1.113868
  7
ED_VECTOR
100
AcDbText
  0
TEXT
  5
145
330
EE
100
AcDbEntity
  8
0
  6
CONTINUOUS
 62
     2
100
AcDbText
 10
2276.439974
 20
1838.829464
 30
0.0
 40
3.646549
  1
1
 50
90.0
 41
1.113868
  7
ED_VECTOR
100
AcDbText
  0
CIRCLE
  5
146
330
EE
100
AcDbEntity
  8
0
  6
CONTINUOUS
 62
     2
100
AcDbCircle
 10
2254.939032
 20
1794.948414
 30
0.0
 40
2.5
  0
CIRCLE
  5
147
330
EE
100
AcDbEntity
  8
0
  6
CONTINUOUS
 62
     2
100
AcDbCircle
 10
2254.939032
 20
1784.948414
 30
0.0
 40
2.5
  0
CIRCLE
  5
148
330
EE
100
AcDbEntity
  8
0
  6
CONTINUOUS
 62
     2
100
AcDbCircle
 10
2264.939032
 20
1784.948414
 30
0.0
 40
2.5
  0
CIRCLE
  5
149
330
EE
100
AcDbEntity
  8
0
  6
CONTINUOUS
 62
     2
100
AcDbCircle
 10
2264.939032
 20
1794.948414
 30
0.0
 40
2.5
  0
CIRCLE
  5
14A
330
EE
100
AcDbEntity
  8
0
  6
CONTINUOUS
 62
     2
100
AcDbCircle
 10
2274.939032
 20
1794.948414
 30
0.0
 40
2.5
  0
CIRCLE
  5
14B
330
EE
100
AcDbEntity
  8
0
  6
CONTINUOUS
 62
     2
100
AcDbCircle
 10
2274.939032
 20
1784.948414
 30
0.0
 40
2.5
  0
CIRCLE
  5
14C
330
EE
100
AcDbEntity
  8
0
  6
CONTINUOUS
 62
     2
100
AcDbCircle
 10
2284.939032
 20
1784.948414
 30
0.0
 40
2.5
  0
CIRCLE
  5
14D
330
EE
100
AcDbEntity
  8
0
  6
CONTINUOUS
 62
     2
100
AcDbCircle
 10
2284.939032
 20
1794.948414
 30
0.0
 40
2.5
  0
CIRCLE
  5
14E
330
EE
100
AcDbEntity
  8
0
  6
CONTINUOUS
 62
     2
100
AcDbCircle
 10
2294.939032
 20
1794.948414
 30
0.0
 40
2.5
  0
CIRCLE
  5
14F
330
EE
100
AcDbEntity
  8
0
  6
CONTINUOUS
 62
     2
100
AcDbCircle
 10
2294.939032
 20
1784.948414
 30
0.0
 40
2.5
  0
CIRCLE
  5
150
330
EE
100
AcDbEntity
  8
0
  6
CONTINUOUS
 62
     2
100
AcDbCircle
 10
2254.939032
 20
1804.948414
 30
0.0
 40
2.5
  0
CIRCLE
  5
151
330
EE
100
AcDbEntity
  8
0
  6
CONTINUOUS
 62
     2
100
AcDbCircle
 10
2254.939032
 20
1814.948414
 30
0.0
 40
2.5
  0
CIRCLE
  5
152
330
EE
100
AcDbEntity
  8
0
  6
CONTINUOUS
 62
     2
100
AcDbCircle
 10
2264.939032
 20
1814.948414
 30
0.0
 40
2.5
  0
CIRCLE
  5
153
330
EE
100
AcDbEntity
  8
0
  6
CONTINUOUS
 62
     2
100
AcDbCircle
 10
2264.939032
 20
1804.948414
 30
0.0
 40
2.5
  0
CIRCLE
  5
154
330
EE
100
AcDbEntity
  8
0
  6
CONTINUOUS
 62
     2
100
AcDbCircle
 10
2274.939032
 20
1804.948414
 30
0.0
 40
2.5
  0
CIRCLE
  5
155
330
EE
100
AcDbEntity
  8
0
  6
CONTINUOUS
 62
     2
100
AcDbCircle
 10
2274.939032
 20
1814.948414
 30
0.0
 40
2.5
  0
CIRCLE
  5
156
330
EE
100
AcDbEntity
  8
0
  6
CONTINUOUS
 62
     2
100
AcDbCircle
 10
2284.939032
 20
1814.948414
 30
0.0
 40
2.5
  0
CIRCLE
  5
157
330
EE
100
AcDbEntity
  8
0
  6
CONTINUOUS
 62
     2
100
AcDbCircle
 10
2284.939032
 20
1804.948414
 30
0.0
 40
2.5
  0
CIRCLE
  5
158
330
EE
100
AcDbEntity
  8
0
  6
CONTINUOUS
 62
     2
100
AcDbCircle
 10
2294.939032
 20
1804.948414
 30
0.0
 40
2.5
  0
CIRCLE
  5
159
330
EE
100
AcDbEntity
  8
0
  6
CONTINUOUS
 62
     2
100
AcDbCircle
 10
2294.939032
 20
1814.948414
 30
0.0
 40
2.5
  0
CIRCLE
  5
15A
330
EE
100
AcDbEntity
  8
0
  6
CONTINUOUS
 62
     2
100
AcDbCircle
 10
2254.939032
 20
1894.948414
 30
0.0
 40
2.5
  0
CIRCLE
  5
15B
330
EE
100
AcDbEntity
  8
0
  6
CONTINUOUS
 62
     2
100
AcDbCircle
 10
2254.939032
 20
1904.948414
 30
0.0
 40
2.5
  0
CIRCLE
  5
15C
330
EE
100
AcDbEntity
  8
0
  6
CONTINUOUS
 62
     2
100
AcDbCircle
 10
2264.939032
 20
1904.948414
 30
0.0
 40
2.5
  0
CIRCLE
  5
15D
330
EE
100
AcDbEntity
  8
0
  6
CONTINUOUS
 62
     2
100
AcDbCircle
 10
2264.939032
 20
1894.948414
 30
0.0
 40
2.5
  0
CIRCLE
  5
15E
330
EE
100
AcDbEntity
  8
0
  6
CONTINUOUS
 62
     2
100
AcDbCircle
 10
2274.939032
 20
1894.948414
 30
0.0
 40
2.5
  0
CIRCLE
  5
15F
330
EE
100
AcDbEntity
  8
0
  6
CONTINUOUS
 62
     2
100
AcDbCircle
 10
2274.939032
 20
1904.948414
 30
0.0
 40
2.5
  0
CIRCLE
  5
160
330
EE
100
AcDbEntity
  8
0
  6
CONTINUOUS
 62
     2
100
AcDbCircle
 10
2284.939032
 20
1904.948414
 30
0.0
 40
2.5
  0
CIRCLE
  5
161
330
EE
100
AcDbEntity
  8
0
  6
CONTINUOUS
 62
     2
100
AcDbCircle
 10
2284.939032
 20
1894.948414
 30
0.0
 40
2.5
  0
CIRCLE
  5
162
330
EE
100
AcDbEntity
  8
0
  6
CONTINUOUS
 62
     2
100
AcDbCircle
 10
2294.939032
 20
1894.948414
 30
0.0
 40
2.5
  0
CIRCLE
  5
163
330
EE
100
AcDbEntity
  8
0
  6
CONTINUOUS
 62
     2
100
AcDbCircle
 10
2294.939032
 20
1904.948414
 30
0.0
 40
2.5
  0
CIRCLE
  5
164
330
EE
100
AcDbEntity
  8
0
  6
CONTINUOUS
 62
     2
100
AcDbCircle
 10
2254.939032
 20
1884.948414
 30
0.0
 40
2.5
  0
CIRCLE
  5
165
330
EE
100
AcDbEntity
  8
0
  6
CONTINUOUS
 62
     2
100
AcDbCircle
 10
2254.939032
 20
1874.948414
 30
0.0
 40
2.5
  0
CIRCLE
  5
166
330
EE
100
AcDbEntity
  8
0
  6
CONTINUOUS
 62
     2
100
AcDbCircle
 10
2264.939032
 20
1874.948414
 30
0.0
 40
2.5
  0
CIRCLE
  5
167
330
EE
100
AcDbEntity
  8
0
  6
CONTINUOUS
 62
     2
100
AcDbCircle
 10
2264.939032
 20
1884.948414
 30
0.0
 40
2.5
  0
CIRCLE
  5
168
330
EE
100
AcDbEntity
  8
0
  6
CONTINUOUS
 62
     2
100
AcDbCircle
 10
2274.939032
 20
1884.948414
 30
0.0
 40
2.5
  0
CIRCLE
  5
169
330
EE
100
AcDbEntity
  8
0
  6
CONTINUOUS
 62
     2
100
AcDbCircle
 10
2274.939032
 20
1874.948414
 30
0.0
 40
2.5
  0
CIRCLE
  5
16A
330
EE
100
AcDbEntity
  8
0
  6
CONTINUOUS
 62
     2
100
AcDbCircle
 10
2284.939032
 20
1874.948414
 30
0.0
 40
2.5
  0
CIRCLE
  5
16B
330
EE
100
AcDbEntity
  8
0
  6
CONTINUOUS
 62
     2
100
AcDbCircle
 10
2284.939032
 20
1884.948414
 30
0.0
 40
2.5
  0
CIRCLE
  5
16C
330
EE
100
AcDbEntity
  8
0
  6
CONTINUOUS
 62
     2
100
AcDbCircle
 10
2294.939032
 20
1884.948414
 30
0.0
 40
2.5
  0
CIRCLE
  5
16D
330
EE
100
AcDbEntity
  8
0
  6
CONTINUOUS
 62
     2
100
AcDbCircle
 10
2294.939032
 20
1874.948414
 30
0.0
 40
2.5
  0
LINE
  5
16E
330
EE
100
AcDbEntity
  8
0
  6
CONTINUOUS
 62
     2
100
AcDbLine
 10
2228.939032
 20
1872.448414
 30
0.0
 11
2228.939032
 21
1907.448414
 31
0.0
  0
LINE
  5
16F
330
EE
100
AcDbEntity
  8
0
  6
CONTINUOUS
 62
     2
100
AcDbLine
 10
2244.939032
 20
1872.448414
 30
0.0
 11
2244.939032
 21
1907.448414
 31
0.0
  0
LINE
  5
170
330
EE
100
AcDbEntity
  8
0
  6
CONTINUOUS
 62
     2
100
AcDbLine
 10
2230.439032
 20
1870.948414
 30
0.0
 11
2243.439032
 21
1870.948414
 31
0.0
  0
LINE
  5
171
330
EE
100
AcDbEntity
  8
0
  6
CONTINUOUS
 62
     2
100
AcDbLine
 10
2229.939032
 20
1872.448414
 30
0.0
 11
2229.939032
 21
1907.448414
 31
0.0
  0
LINE
  5
172
330
EE
100
AcDbEntity
  8
0
  6
CONTINUOUS
 62
     2
100
AcDbLine
 10
2243.939032
 20
1872.448414
 30
0.0
 11
2243.939032
 21
1907.448414
 31
0.0
  0
LINE
  5
173
330
EE
100
AcDbEntity
  8
0
  6
CONTINUOUS
 62
     2
100
AcDbLine
 10
2230.439032
 20
1871.948414
 30
0.0
 11
2243.439032
 21
1871.948414
 31
0.0
  0
LINE
  5
174
330
EE
100
AcDbEntity
  8
0
  6
CONTINUOUS
 62
     2
100
AcDbLine
 10
2230.439032
 20
1908.948414
 30
0.0
 11
2243.439032
 21
1908.948414
 31
0.0
  0
LINE
  5
175
330
EE
100
AcDbEntity
  8
0
  6
CONTINUOUS
 62
     2
100
AcDbLine
 10
2230.439032
 20
1907.948414
 30
0.0
 11
2243.439032
 21
1907.948414
 31
0.0
  0
ARC
  5
176
330
EE
100
AcDbEntity
  8
0
  6
CONTINUOUS
 62
     2
100
AcDbCircle
 10
2230.439032
 20
1872.448414
 30
0.0
 40
0.5
100
AcDbArc
 50
180.0
 51
270.0
  0
ARC
  5
177
330
EE
100
AcDbEntity
  8
0
  6
CONTINUOUS
 62
     2
100
AcDbCircle
 10
2243.439032
 20
1872.448414
 30
0.0
 40
0.5
100
AcDbArc
 50
270.0
 51
0.0
  0
ARC
  5
178
330
EE
100
AcDbEntity
  8
0
  6
CONTINUOUS
 62
     2
100
AcDbCircle
 10
2230.439032
 20
1907.448414
 30
0.0
 40
0.5
100
AcDbArc
 50
90.0
 51
180.0
  0
ARC
  5
179
330
EE
100
AcDbEntity
  8
0
  6
CONTINUOUS
 62
     2
100
AcDbCircle
 10
2243.439032
 20
1907.448414
 30
0.0
 40
0.5
100
AcDbArc
 50
0.0
 51
90.0
  0
ARC
  5
17A
330
EE
100
AcDbEntity
  8
0
  6
CONTINUOUS
 62
     2
100
AcDbCircle
 10
2230.439032
 20
1872.448414
 30
0.0
 40
1.5
100
AcDbArc
 50
180.0
 51
270.0
  0
ARC
  5
17B
330
EE
100
AcDbEntity
  8
0
  6
CONTINUOUS
 62
     2
100
AcDbCircle
 10
2243.439032
 20
1872.448414
 30
0.0
 40
1.5
100
AcDbArc
 50
270.0
 51
0.0
  0
ARC
  5
17C
330
EE
100
AcDbEntity
  8
0
  6
CONTINUOUS
 62
     2
100
AcDbCircle
 10
2230.439032
 20
1907.448414
 30
0.0
 40
1.5
100
AcDbArc
 50
90.0
 51
180.0
  0
ARC
  5
17D
330
EE
100
AcDbEntity
  8
0
  6
CONTINUOUS
 62
     2
100
AcDbCircle
 10
2243.439032
 20
1907.448414
 30
0.0
 40
1.5
100
AcDbArc
 50
0.0
 51
90.0
  0
LINE
  5
17E
330
EE
100
AcDbEntity
  8
0
  6
CONTINUOUS
 62
     2
100
AcDbLine
 10
2233.939032
 20
1880.948414
 30
0.0
 11
2233.939032
 21
1898.948414
 31
0.0
  0
LINE
  5
17F
330
EE
100
AcDbEntity
  8
0
  6
CONTINUOUS
 62
     2
100
AcDbLine
 10
2230.86096
 20
1889.948414
 30
0.0
 11
2233.939032
 21
1898.948414
 31
0.0
  0
LINE
  5
180
330
EE
100
AcDbEntity
  8
0
  6
CONTINUOUS
 62
     2
100
AcDbLine
 10
2230.86096
 20
1889.948414
 30
0.0
 11
2233.939032
 21
1880.948414
 31
0.0
  0
TEXT
  5
181
330
EE
100
AcDbEntity
  8
0
  6
CONTINUOUS
 62
     2
100
AcDbText
 10
2242.23298
 20
1880.96833
 30
0.0
 40
7.066058
  1
UP
 50
90.0
 41
1.166654
  7
ED_VECTOR
100
AcDbText
  0
LINE
  5
182
330
EE
100
AcDbEntity
  8
0
  6
CONTINUOUS
 62
     2
100
AcDbLine
 10
2228.939032
 20
1817.448414
 30
0.0
 11
2228.939032
 21
1782.448414
 31
0.0
  0
LINE
  5
183
330
EE
100
AcDbEntity
  8
0
  6
CONTINUOUS
 62
     2
100
AcDbLine
 10
2244.939032
 20
1817.448414
 30
0.0
 11
2244.939032
 21
1782.448414
 31
0.0
  0
LINE
  5
184
330
EE
100
AcDbEntity
  8
0
  6
CONTINUOUS
 62
     2
100
AcDbLine
 10
2230.439032
 20
1818.948414
 30
0.0
 11
2243.439032
 21
1818.948414
 31
0.0
  0
LINE
  5
185
330
EE
100
AcDbEntity
  8
0
  6
CONTINUOUS
 62
     2
100
AcDbLine
 10
2229.939032
 20
1817.448414
 30
0.0
 11
2229.939032
 21
1782.448414
 31
0.0
  0
LINE
  5
186
330
EE
100
AcDbEntity
  8
0
  6
CONTINUOUS
 62
     2
100
AcDbLine
 10
2243.939032
 20
1817.448414
 30
0.0
 11
2243.939032
 21
1782.448414
 31
0.0
  0
LINE
  5
187
330
EE
100
AcDbEntity
  8
0
  6
CONTINUOUS
 62
     2
100
AcDbLine
 10
2230.439032
 20
1817.948414
 30
0.0
 11
2243.439032
 21
1817.948414
 31
0.0
  0
LINE
  5
188
330
EE
100
AcDbEntity
  8
0
  6
CONTINUOUS
 62
     2
100
AcDbLine
 10
2230.439032
 20
1780.948414
 30
0.0
 11
2243.439032
 21
1780.948414
 31
0.0
  0
LINE
  5
189
330
EE
100
AcDbEntity
  8
0
  6
CONTINUOUS
 62
     2
100
AcDbLine
 10
2230.439032
 20
1781.948414
 30
0.0
 11
2243.439032
 21
1781.948414
 31
0.0
  0
ARC
  5
18A
330
EE
100
AcDbEntity
  8
0
  6
CONTINUOUS
 62
     2
100
AcDbCircle
 10
2230.439032
 20
1817.448414
 30
0.0
 40
0.5
100
AcDbArc
 50
90.0
 51
180.0
  0
ARC
  5
18B
330
EE
100
AcDbEntity
  8
0
  6
CONTINUOUS
 62
     2
100
AcDbCircle
 10
2243.439032
 20
1817.448414
 30
0.0
 40
0.5
100
AcDbArc
 50
0.0
 51
90.0
  0
ARC
  5
18C
330
EE
100
AcDbEntity
  8
0
  6
CONTINUOUS
 62
     2
100
AcDbCircle
 10
2230.439032
 20
1782.448414
 30
0.0
 40
0.5
100
AcDbArc
 50
180.0
 51
270.0
  0
ARC
  5
18D
330
EE
100
AcDbEntity
  8
0
  6
CONTINUOUS
 62
     2
100
AcDbCircle
 10
2243.439032
 20
1782.448414
 30
0.0
 40
0.5
100
AcDbArc
 50
270.0
 51
0.0
  0
ARC
  5
18E
330
EE
100
AcDbEntity
  8
0
  6
CONTINUOUS
 62
     2
100
AcDbCircle
 10
2230.439032
 20
1817.448414
 30
0.0
 40
1.5
100
AcDbArc
 50
90.0
 51
180.0
  0
ARC
  5
18F
330
EE
100
AcDbEntity
  8
0
  6
CONTINUOUS
 62
     2
100
AcDbCircle
 10
2243.439032
 20
1817.448414
 30
0.0
 40
1.5
100
AcDbArc
 50
0.0
 51
90.0
  0
ARC
  5
190
330
EE
100
AcDbEntity
  8
0
  6
CONTINUOUS
 62
     2
100
AcDbCircle
 10
2230.439032
 20
1782.448414
 30
0.0
 40
1.5
100
AcDbArc
 50
180.0
 51
270.0
  0
ARC
  5
191
330
EE
100
AcDbEntity
  8
0
  6
CONTINUOUS
 62
     2
100
AcDbCircle
 10
2243.439032
 20
1782.448414
 30
0.0
 40
1.5
100
AcDbArc
 50
270.0
 51
0.0
  0
LINE
  5
192
330
EE
100
AcDbEntity
  8
0
  6
CONTINUOUS
 62
     2
100
AcDbLine
 10
2239.411962
 20
1808.948414
 30
0.0
 11
2239.411962
 21
1790.948414
 31
0.0
  0
LINE
  5
193
330
EE
100
AcDbEntity
  8
0
  6
CONTINUOUS
 62
     2
100
AcDbLine
 10
2242.490034
 20
1799.948414
 30
0.0
 11
2239.411962
 21
1790.948414
 31
0.0
  0
LINE
  5
194
330
EE
100
AcDbEntity
  8
0
  6
CONTINUOUS
 62
     2
100
AcDbLine
 10
2242.490034
 20
1799.948414
 30
0.0
 11
2239.411962
 21
1808.948414
 31
0.0
  0
TEXT
  5
195
330
EE
100
AcDbEntity
  8
0
  6
CONTINUOUS
 62
     2
100
AcDbText
 10
2237.801895
 20
1785.250762
 30
0.0
 40
6.383575
  1
DOWN
 50
90.0
 41
0.969444
  7
ED_VECTOR
100
AcDbText
  0
ENDBLK
  5
F0
330
EE
100
AcDbEntity
  8
0
100
AcDbBlockEnd
  0
BLOCK
  5
19A
330
199
100
AcDbEntity
  8
0
100
AcDbBlockBegin
  2
*D12
 70
     1
 10
0.0
 20
0.0
 30
0.0
  3
*D12
  1

  0
TEXT
  5
19C
330
199
100
AcDbEntity
  8
0
  6
CONTINUOUS
 62
     3
100
AcDbText
 10
821.810852
 20
518.927856
 30
0.0
 40
40.0
  1
50
 41
0.75
  7
ED_VECTOR
100
AcDbText
  0
LINE
  5
19D
330
199
100
AcDbEntity
  8
0
  6
CONTINUOUS
 62
     5
100
AcDbLine
 10
742.978401
 20
506.901483
 30
0.0
 11
792.978401
 21
506.901483
 31
0.0
  0
LINE
  5
19E
330
199
100
AcDbEntity
  8
0
  6
CONTINUOUS
 62
     5
100
AcDbLine
 10
792.978401
 20
506.901483
 30
0.0
 11
852.767194
 21
506.901483
 31
0.0
  0
INSERT
  5
19F
330
199
100
AcDbEntity
  8
0
  6
CONTINUOUS
 62
     5
100
AcDbBlockReference
  2
EDTIP_ARROW_S
 10
792.978401
 20
506.901483
 30
0.0
 41
30.0
 42
30.0
 50
180.0
  0
ENDBLK
  5
19B
330
199
100
AcDbEntity
  8
0
100
AcDbBlockEnd
  0
BLOCK
  5
1AA
330
1A9
100
AcDbEntity
  8
0
100
AcDbBlockBegin
  2
EDDIM016
 70
     0
 10
0.0
 20
0.0
 30
0.0
  3
EDDIM016
  1

  0
TEXT
  5
1AD
330
1A9
100
AcDbEntity
  8
0
  6
CONTINUOUS
 62
     5
100
AcDbText
 10
837.045227
 20
313.762085
 30
0.0
 40
40.0
  1
４－φ１０
 41
0.75
  7
ED_VECTOR
100
AcDbText
  0
ENDBLK
  5
1AB
330
1A9
100
AcDbEntity
  8
0
100
AcDbBlockEnd
  0
BLOCK
  5
1DB
330
1DA
100
AcDbEntity
  8
0
100
AcDbBlockBegin
  2
*D14
 70
     1
 10
0.0
 20
0.0
 30
0.0
  3
*D14
  1

  0
TEXT
  5
1DD
330
1DA
100
AcDbEntity
  8
0
  6
CONTINUOUS
 62
     3
100
AcDbText
 10
1940.751831
 20
636.901489
 30
0.0
 40
40.0
  1
150
 50
90.0
 41
0.75
  7
ED_VECTOR
100
AcDbText
  0
LINE
  5
1DE
330
1DA
100
AcDbEntity
  8
0
  6
CONTINUOUS
 62
     5
100
AcDbLine
 10
1860.751711
 20
756.901483
 30
0.0
 11
1960.751711
 21
756.901483
 31
0.0
  0
LINE
  5
1DF
330
1DA
100
AcDbEntity
  8
0
  6
CONTINUOUS
 62
     5
100
AcDbLine
 10
1950.751711
 20
606.901483
 30
0.0
 11
1950.751711
 21
756.901483
 31
0.0
  0
INSERT
  5
1E0
330
1DA
100
AcDbEntity
  8
0
  6
CONTINUOUS
 62
     5
100
AcDbBlockReference
  2
EDTIP_ARROW_S
 10
1950.751711
 20
606.901483
 30
0.0
 41
30.0
 42
30.0
 50
270.0
  0
INSERT
  5
1E1
330
1DA
100
AcDbEntity
  8
0
  6
CONTINUOUS
 62
     5
100
AcDbBlockReference
  2
EDTIP_ARROW_E
 10
1950.751711
 20
756.901483
 30
0.0
 41
30.0
 42
30.0
 50
90.0
  0
ENDBLK
  5
1DC
330
1DA
100
AcDbEntity
  8
0
100
AcDbBlockEnd
  0
BLOCK
  5
1E4
330
1E3
100
AcDbEntity
  8
0
100
AcDbBlockBegin
  2
*D15
 70
     1
 10
0.0
 20
0.0
 30
0.0
  3
*D15
  1

  0
TEXT
  5
1E6
330
1E3
100
AcDbEntity
  8
0
  6
CONTINUOUS
 62
     3
100
AcDbText
 10
1940.751831
 20
961.90155
 30
0.0
 40
40.0
  1
500
 50
90.0
 41
0.75
  7
ED_VECTOR
100
AcDbText
  0
LINE
  5
1E7
330
1E3
100
AcDbEntity
  8
0
  6
CONTINUOUS
 62
     5
100
AcDbLine
 10
1950.751711
 20
756.901483
 30
0.0
 11
1950.751711
 21
1256.901483
 31
0.0
  0
INSERT
  5
1E8
330
1E3
100
AcDbEntity
  8
0
  6
CONTINUOUS
 62
     5
100
AcDbBlockReference
  2
EDTIP_ARROW_S
 10
1950.751711
 20
756.901483
 30
0.0
 41
30.0
 42
30.0
 50
270.0
  0
INSERT
  5
1E9
330
1E3
100
AcDbEntity
  8
0
  6
CONTINUOUS
 62
     5
100
AcDbBlockReference
  2
EDTIP_ARROW_E
 10
1950.751711
 20
1256.901483
 30
0.0
 41
30.0
 42
30.0
 50
90.0
  0
ENDBLK
  5
1E5
330
1E3
100
AcDbEntity
  8
0
100
AcDbBlockEnd
  0
BLOCK
  5
1EC
330
1EB
100
AcDbEntity
  8
0
100
AcDbBlockBegin
  2
*D16
 70
     1
 10
0.0
 20
0.0
 30
0.0
  3
*D16
  1

  0
TEXT
  5
1EE
330
1EB
100
AcDbEntity
  8
0
  6
CONTINUOUS
 62
     3
100
AcDbText
 10
2040.751831
 20
886.90155
 30
0.0
 40
40.0
  1
650
 50
90.0
 41
0.75
  7
ED_VECTOR
100
AcDbText
  0
LINE
  5
1EF
330
1EB
100
AcDbEntity
  8
0
  6
CONTINUOUS
 62
     5
100
AcDbLine
 10
1860.751711
 20
1256.901483
 30
0.0
 11
2060.751711
 21
1256.901483
 31
0.0
  0
LINE
  5
1F0
330
1EB
100
AcDbEntity
  8
0
  6
CONTINUOUS
 62
     5
100
AcDbLine
 10
2050.751711
 20
606.901483
 30
0.0
 11
2050.751711
 21
1256.901483
 31
0.0
  0
INSERT
  5
1F1
330
1EB
100
AcDbEntity
  8
0
  6
CONTINUOUS
 62
     5
100
AcDbBlockReference
  2
EDTIP_ARROW_S
 10
2050.751711
 20
606.901483
 30
0.0
 41
30.0
 42
30.0
 50
270.0
  0
INSERT
  5
1F2
330
1EB
100
AcDbEntity
  8
0
  6
CONTINUOUS
 62
     5
100
AcDbBlockReference
  2
EDTIP_ARROW_E
 10
2050.751711
 20
1256.901483
 30
0.0
 41
30.0
 42
30.0
 50
90.0
  0
ENDBLK
  5
1ED
330
1EB
100
AcDbEntity
  8
0
100
AcDbBlockEnd
  0
BLOCK
  5
1F5
330
1F4
100
AcDbEntity
  8
0
100
AcDbBlockBegin
  2
*D17
 70
     1
 10
0.0
 20
0.0
 30
0.0
  3
*D17
  1

  0
TEXT
  5
1F7
330
1F4
100
AcDbEntity
  8
0
  6
CONTINUOUS
 62
     3
100
AcDbText
 10
1469.312866
 20
512.636597
 30
0.0
 40
40.0
  1
580
 41
0.75
  7
ED_VECTOR
100
AcDbText
  0
LINE
  5
1F8
330
1F4
100
AcDbEntity
  8
0
  6
CONTINUOUS
 62
     5
100
AcDbLine
 10
1135.551711
 20
586.901483
 30
0.0
 11
1135.551711
 21
496.901483
 31
0.0
  0
LINE
  5
1F9
330
1F4
100
AcDbEntity
  8
0
  6
CONTINUOUS
 62
     5
100
AcDbLine
 10
1715.551711
 20
586.901483
 30
0.0
 11
1715.551711
 21
496.901483
 31
0.0
  0
LINE
  5
1FA
330
1F4
100
AcDbEntity
  8
0
  6
CONTINUOUS
 62
     5
100
AcDbLine
 10
1135.551711
 20
506.901483
 30
0.0
 11
1715.551711
 21
506.901483
 31
0.0
  0
INSERT
  5
1FB
330
1F4
100
AcDbEntity
  8
0
  6
CONTINUOUS
 62
     5
100
AcDbBlockReference
  2
EDTIP_ARROW_S
 10
1135.551711
 20
506.901483
 30
0.0
 41
30.0
 42
30.0
 50
180.0
  0
INSERT
  5
1FC
330
1F4
100
AcDbEntity
  8
0
  6
CONTINUOUS
 62
     5
100
AcDbBlockReference
  2
EDTIP_ARROW_E
 10
1715.551711
 20
506.901483
 30
0.0
 41
30.0
 42
30.0
  0
ENDBLK
  5
1F6
330
1F4
100
AcDbEntity
  8
0
100
AcDbBlockEnd
  0
BLOCK
  5
1FF
330
1FE
100
AcDbEntity
  8
0
100
AcDbBlockBegin
  2
*D18
 70
     1
 10
0.0
 20
0.0
 30
0.0
  3
*D18
  1

  0
TEXT
  5
201
330
1FE
100
AcDbEntity
  8
0
  6
CONTINUOUS
 62
     3
100
AcDbText
 10
1720.40625
 20
519.196655
 30
0.0
 40
40.0
  1
70
 41
0.75
  7
ED_VECTOR
100
AcDbText
  0
LINE
  5
202
330
1FE
100
AcDbEntity
  8
0
  6
CONTINUOUS
 62
     5
100
AcDbLine
 10
1715.551711
 20
506.901483
 30
0.0
 11
1785.551711
 21
506.901483
 31
0.0
  0
INSERT
  5
203
330
1FE
100
AcDbEntity
  8
0
  6
CONTINUOUS
 62
     5
100
AcDbBlockReference
  2
EDTIP_ARROW_S
 10
1715.551711
 20
506.901483
 30
0.0
 41
30.0
 42
30.0
 50
180.0
  0
INSERT
  5
204
330
1FE
100
AcDbEntity
  8
0
  6
CONTINUOUS
 62
     5
100
AcDbBlockReference
  2
EDTIP_ARROW_E
 10
1785.551711
 20
506.901483
 30
0.0
 41
30.0
 42
30.0
  0
ENDBLK
  5
200
330
1FE
100
AcDbEntity
  8
0
100
AcDbBlockEnd
  0
BLOCK
  5
207
330
206
100
AcDbEntity
  8
0
100
AcDbBlockBegin
  2
*D19
 70
     1
 10
0.0
 20
0.0
 30
0.0
  3
*D19
  1

  0
TEXT
  5
209
330
206
100
AcDbEntity
  8
0
  6
CONTINUOUS
 62
     3
100
AcDbText
 10
1380.551758
 20
416.901489
 30
0.0
 40
40.0
  1
720
 41
0.75
  7
ED_VECTOR
100
AcDbText
  0
LINE
  5
20A
330
206
100
AcDbEntity
  8
0
  6
CONTINUOUS
 62
     5
100
AcDbLine
 10
1065.551711
 20
596.901483
 30
0.0
 11
1065.551711
 21
396.901483
 31
0.0
  0
LINE
  5
20B
330
206
100
AcDbEntity
  8
0
  6
CONTINUOUS
 62
     5
100
AcDbLine
 10
1785.551711
 20
596.901483
 30
0.0
 11
1785.551711
 21
396.901483
 31
0.0
  0
LINE
  5
20C
330
206
100
AcDbEntity
  8
0
  6
CONTINUOUS
 62
     5
100
AcDbLine
 10
1065.551711
 20
406.901483
 30
0.0
 11
1785.551711
 21
406.901483
 31
0.0
  0
INSERT
  5
20D
330
206
100
AcDbEntity
  8
0
  6
CONTINUOUS
 62
     5
100
AcDbBlockReference
  2
EDTIP_ARROW_S
 10
1065.551711
 20
406.901483
 30
0.0
 41
30.0
 42
30.0
 50
180.0
  0
INSERT
  5
20E
330
206
100
AcDbEntity
  8
0
  6
CONTINUOUS
 62
     5
100
AcDbBlockReference
  2
EDTIP_ARROW_E
 10
1785.551711
 20
406.901483
 30
0.0
 41
30.0
 42
30.0
  0
ENDBLK
  5
208
330
206
100
AcDbEntity
  8
0
100
AcDbBlockEnd
  0
BLOCK
  5
21B
330
21A
100
AcDbEntity
  8
0
100
AcDbBlockBegin
  2
*D20
 70
     1
 10
0.0
 20
0.0
 30
0.0
  3
*D20
  1

  0
TEXT
  5
21D
330
21A
100
AcDbEntity
  8
0
  6
CONTINUOUS
 62
     3
100
AcDbText
 10
886.066162
 20
1910.448486
 30
0.0
 40
40.0
  1
520
 50
90.0
 41
0.75
  7
ED_VECTOR
100
AcDbText
  0
LINE
  5
21E
330
21A
100
AcDbEntity
  8
0
  6
CONTINUOUS
 62
     5
100
AcDbLine
 10
990.751711
 20
1695.448414
 30
0.0
 11
886.066168
 21
1695.448414
 31
0.0
  0
LINE
  5
21F
330
21A
100
AcDbEntity
  8
0
  6
CONTINUOUS
 62
     5
100
AcDbLine
 10
990.751711
 20
2215.448414
 30
0.0
 11
886.066168
 21
2215.448414
 31
0.0
  0
LINE
  5
220
330
21A
100
AcDbEntity
  8
0
  6
CONTINUOUS
 62
     5
100
AcDbLine
 10
896.066168
 20
1695.448414
 30
0.0
 11
896.066168
 21
2215.448414
 31
0.0
  0
INSERT
  5
221
330
21A
100
AcDbEntity
  8
0
  6
CONTINUOUS
 62
     5
100
AcDbBlockReference
  2
EDTIP_ARROW_S
 10
896.066168
 20
1695.448414
 30
0.0
 41
30.0
 42
30.0
 50
270.0
  0
INSERT
  5
222
330
21A
100
AcDbEntity
  8
0
  6
CONTINUOUS
 62
     5
100
AcDbBlockReference
  2
EDTIP_ARROW_E
 10
896.066168
 20
2215.448414
 30
0.0
 41
30.0
 42
30.0
 50
90.0
  0
ENDBLK
  5
21C
330
21A
100
AcDbEntity
  8
0
100
AcDbBlockEnd
  0
BLOCK
  5
22B
330
22A
100
AcDbEntity
  8
0
100
AcDbBlockBegin
  2
*D21
 70
     1
 10
0.0
 20
0.0
 30
0.0
  3
*D21
  1

  0
TEXT
  5
22D
330
22A
100
AcDbEntity
  8
0
  6
CONTINUOUS
 62
     3
100
AcDbText
 10
1380.751709
 20
1366.901489
 30
0.0
 40
40.0
  1
850
 41
0.75
  7
ED_VECTOR
100
AcDbText
  0
LINE
  5
22E
330
22A
100
AcDbEntity
  8
0
  6
CONTINUOUS
 62
     5
100
AcDbLine
 10
1000.751711
 20
1266.901483
 30
0.0
 11
1000.751711
 21
1366.901483
 31
0.0
  0
LINE
  5
22F
330
22A
100
AcDbEntity
  8
0
  6
CONTINUOUS
 62
     5
100
AcDbLine
 10
1850.751711
 20
1266.901483
 30
0.0
 11
1850.751711
 21
1366.901483
 31
0.0
  0
LINE
  5
230
330
22A
100
AcDbEntity
  8
0
  6
CONTINUOUS
 62
     5
100
AcDbLine
 10
1000.751711
 20
1356.901483
 30
0.0
 11
1850.751711
 21
1356.901483
 31
0.0
  0
INSERT
  5
231
330
22A
100
AcDbEntity
  8
0
  6
CONTINUOUS
 62
     5
100
AcDbBlockReference
  2
EDTIP_ARROW_S
 10
1000.751711
 20
1356.901483
 30
0.0
 41
30.0
 42
30.0
 50
180.0
  0
INSERT
  5
232
330
22A
100
AcDbEntity
  8
0
  6
CONTINUOUS
 62
     5
100
AcDbBlockReference
  2
EDTIP_ARROW_E
 10
1850.751711
 20
1356.901483
 30
0.0
 41
30.0
 42
30.0
  0
ENDBLK
  5
22C
330
22A
100
AcDbEntity
  8
0
100
AcDbBlockEnd
  0
BLOCK
  5
29B
330
29A
100
AcDbEntity
  8
0
100
AcDbBlockBegin
  2
*D22
 70
     1
 10
0.0
 20
0.0
 30
0.0
  3
*D22
  1

  0
LINE
  5
29D
330
29A
100
AcDbEntity
  8
0
  6
CONTINUOUS
 62
     5
100
AcDbLine
 10
392.978401
 20
596.901483
 30
0.0
 11
392.978401
 21
422.681094
 31
0.0
  0
LINE
  5
29E
330
29A
100
AcDbEntity
  8
0
  6
CONTINUOUS
 62
     5
100
AcDbLine
 10
792.978401
 20
596.901483
 30
0.0
 11
792.978401
 21
422.681094
 31
0.0
  0
LINE
  5
29F
330
29A
100
AcDbEntity
  8
0
  6
CONTINUOUS
 62
     5
100
AcDbLine
 10
392.978401
 20
432.681094
 30
0.0
 11
792.978401
 21
432.681094
 31
0.0
  0
INSERT
  5
2A0
330
29A
100
AcDbEntity
  8
0
  6
CONTINUOUS
 62
     5
100
AcDbBlockReference
  2
EDTIP_ARROW_S
 10
392.978401
 20
432.681094
 30
0.0
 41
30.0
 42
30.0
 50
180.0
  0
INSERT
  5
2A1
330
29A
100
AcDbEntity
  8
0
  6
CONTINUOUS
 62
     5
100
AcDbBlockReference
  2
EDTIP_ARROW_E
 10
792.978401
 20
432.681094
 30
0.0
 41
30.0
 42
30.0
  0
TEXT
  5
2A2
330
29A
100
AcDbEntity
  8
0
  6
CONTINUOUS
 62
     3
100
AcDbText
 10
547.978394
 20
442.681091
 30
0.0
 40
40.0
  1
400
 41
0.75
  7
ED_VECTOR
100
AcDbText
  0
ENDBLK
  5
29C
330
29A
100
AcDbEntity
  8
0
100
AcDbBlockEnd
  0
BLOCK
  5
2A5
330
2A4
100
AcDbEntity
  8
0
100
AcDbBlockBegin
  2
*D23
 70
     1
 10
0.0
 20
0.0
 30
0.0
  3
*D23
  1

  0
LINE
  5
2A7
330
2A4
100
AcDbEntity
  8
0
  6
CONTINUOUS
 62
     5
100
AcDbLine
 10
337.978401
 20
610.701483
 30
0.0
 11
337.978401
 21
358.908942
 31
0.0
  0
LINE
  5
2A8
330
2A4
100
AcDbEntity
  8
0
  6
CONTINUOUS
 62
     5
100
AcDbLine
 10
847.978401
 20
610.701483
 30
0.0
 11
847.978401
 21
358.908942
 31
0.0
  0
LINE
  5
2A9
330
2A4
100
AcDbEntity
  8
0
  6
CONTINUOUS
 62
     5
100
AcDbLine
 10
337.978401
 20
368.908942
 30
0.0
 11
847.978401
 21
368.908942
 31
0.0
  0
INSERT
  5
2AA
330
2A4
100
AcDbEntity
  8
0
  6
CONTINUOUS
 62
     5
100
AcDbBlockReference
  2
EDTIP_ARROW_S
 10
337.978401
 20
368.908942
 30
0.0
 41
30.0
 42
30.0
 50
180.0
  0
INSERT
  5
2AB
330
2A4
100
AcDbEntity
  8
0
  6
CONTINUOUS
 62
     5
100
AcDbBlockReference
  2
EDTIP_ARROW_E
 10
847.978401
 20
368.908942
 30
0.0
 41
30.0
 42
30.0
  0
TEXT
  5
2AC
330
2A4
100
AcDbEntity
  8
0
  6
CONTINUOUS
 62
     3
100
AcDbText
 10
547.978394
 20
378.908936
 30
0.0
 40
40.0
  1
510
 41
0.75
  7
ED_VECTOR
100
AcDbText
  0
ENDBLK
  5
2A6
330
2A4
100
AcDbEntity
  8
0
100
AcDbBlockEnd
  0
BLOCK
  5
2FF
330
2FE
100
AcDbEntity
  8
0
100
AcDbBlockBegin
  2
EDDIM027
 70
     0
 10
0.0
 20
0.0
 30
0.0
  3
EDDIM027
  1

  0
LINE
  5
302
330
2FE
100
AcDbEntity
  8
0
  6
CONTINUOUS
 62
     5
100
AcDbLine
 10
1030.551711
 20
1071.347942
 30
0.0
 11
611.589404
 21
1610.504967
 31
0.0
  0
INSERT
  5
303
330
2FE
100
AcDbEntity
  8
0
  6
CONTINUOUS
 62
     5
100
AcDbBlockReference
  2
EDTIP_ARROW_S
 10
1030.551711
 20
1071.347942
 30
0.0
 41
30.0
 42
30.0
 50
307.849678
  0
LINE
  5
304
330
2FE
100
AcDbEntity
  8
0
  6
CONTINUOUS
 62
     5
100
AcDbLine
 10
611.589404
 20
1610.504967
 30
0.0
 11
520.637417
 21
1610.504967
 31
0.0
  0
ENDBLK
  5
300
330
2FE
100
AcDbEntity
  8
0
100
AcDbBlockEnd
  0
BLOCK
  5
327
330
326
100
AcDbEntity
  8
0
100
AcDbBlockBegin
  2
BLKF028
 70
     0
 10
0.0
 20
0.0
 30
0.0
  3
BLKF028
  1

  0
ARC
  5
32A
330
326
100
AcDbEntity
  8
0
  6
CONTINUOUS
 62
     5
100
AcDbCircle
 10
2820.645018
 20
148.870953
 30
0.0
 40
3.549224681232935
100
AcDbArc
 50
6.429109
 51
73.182034
  0
ARC
  5
32B
330
326
100
AcDbEntity
  8
0
  6
CONTINUOUS
 62
     5
100
AcDbCircle
 10
2817.184048
 20
147.71256
 30
0.0
 40
6.90775391640079
100
AcDbArc
 50
310.51797
 51
330.092764
  0
ARC
  5
32C
330
326
100
AcDbEntity
  8
0
  6
CONTINUOUS
 62
     5
100
AcDbCircle
 10
2817.123398
 20
148.078078
 30
0.0
 40
7.148321241986046
100
AcDbArc
 50
327.794941
 51
9.585194
  0
ARC
  5
32D
330
326
100
AcDbEntity
  8
0
  6
CONTINUOUS
 62
     5
100
AcDbCircle
 10
2820.416126
 20
145.31708
 30
0.0
 40
4.767514462094932
100
AcDbArc
 50
180.0
 51
218.51415
  0
ARC
  5
32E
330
326
100
AcDbEntity
  8
0
  6
CONTINUOUS
 62
     5
100
AcDbCircle
 10
2819.129406
 20
144.639939
 30
0.0
 40
3.348282029286162
100
AcDbArc
 50
222.781148
 51
319.406906
  0
ARC
  5
32F
330
326
100
AcDbEntity
  8
0
  6
CONTINUOUS
 62
     5
100
AcDbCircle
 10
2822.195047
 20
145.729832
 30
0.0
 40
6.559434466070106
100
AcDbArc
 50
94.574282
 51
183.607718
  0
LINE
  5
330
330
326
100
AcDbEntity
  8
0
  6
CONTINUOUS
 62
     5
100
AcDbLine
 10
2835.638954
 20
140.613
 30
0.0
 11
2834.781918
 21
137.574417
 31
0.0
  0
LINE
  5
331
330
326
100
AcDbEntity
  8
0
  6
CONTINUOUS
 62
     5
100
AcDbLine
 10
2837.430939
 20
160.480657
 30
0.0
 11
2835.327304
 21
163.207591
 31
0.0
  0
LINE
  5
332
330
326
100
AcDbEntity
  8
0
  6
CONTINUOUS
 62
     5
100
AcDbLine
 10
2835.327304
 20
163.207591
 30
0.0
 11
2828.57395
 21
166.965503
 31
0.0
  0
LINE
  5
333
330
326
100
AcDbEntity
  8
0
  6
CONTINUOUS
 62
     5
100
AcDbLine
 10
2828.57395
 20
166.965503
 30
0.0
 11
2821.671923
 21
167.768373
 31
0.0
  0
LINE
  5
334
330
326
100
AcDbEntity
  8
0
  6
CONTINUOUS
 62
     5
100
AcDbLine
 10
2803.382697
 20
154.3897
 30
0.0
 11
2805.529392
 21
159.35393
 31
0.0
  0
LINE
  5
335
330
326
100
AcDbEntity
  8
0
  6
CONTINUOUS
 62
     5
100
AcDbLine
 10
2805.492394
 20
159.268373
 30
0.0
 11
2807.676086
 21
161.90313
 31
0.0
  0
LINE
  5
336
330
326
100
AcDbEntity
  8
0
  6
CONTINUOUS
 62
     5
100
AcDbLine
 10
2807.676086
 20
161.90313
 30
0.0
 11
2810.980508
 21
164.268373
 31
0.0
  0
LINE
  5
337
330
326
100
AcDbEntity
  8
0
  6
CONTINUOUS
 62
     5
100
AcDbLine
 10
2821.671923
 20
167.768373
 30
0.0
 11
2820.153747
 21
167.001529
 31
0.0
  0
LINE
  5
338
330
326
100
AcDbEntity
  8
0
  6
CONTINUOUS
 62
     5
100
AcDbLine
 10
2820.153747
 20
167.001529
 30
0.0
 11
2816.665369
 21
167.001529
 31
0.0
  0
LINE
  5
339
330
326
100
AcDbEntity
  8
0
  6
CONTINUOUS
 62
     5
100
AcDbLine
 10
2816.665369
 20
167.001529
 30
0.0
 11
2813.109906
 21
165.056087
 31
0.0
  0
LINE
  5
33A
330
326
100
AcDbEntity
  8
0
  6
CONTINUOUS
 62
     5
100
AcDbLine
 10
2813.109906
 20
165.056087
 30
0.0
 11
2810.980508
 21
164.268373
 31
0.0
  0
LINE
  5
33B
330
326
100
AcDbEntity
  8
0
  6
CONTINUOUS
 62
     5
100
AcDbLine
 10
2803.382697
 20
154.3897
 30
0.0
 11
2801.86515
 21
146.841097
 31
0.0
  0
LINE
  5
33C
330
326
100
AcDbEntity
  8
0
  6
CONTINUOUS
 62
     5
100
AcDbLine
 10
2801.86515
 20
146.841097
 30
0.0
 11
2801.671923
 21
144.268373
 31
0.0
  0
LINE
  5
33D
330
326
100
AcDbEntity
  8
0
  6
CONTINUOUS
 62
     5
100
AcDbLine
 10
2804.381305
 20
136.428591
 30
0.0
 11
2801.671923
 21
142.524702
 31
0.0
  0
LINE
  5
33E
330
326
100
AcDbEntity
  8
0
  6
CONTINUOUS
 62
     5
100
AcDbLine
 10
2801.671923
 20
142.524702
 30
0.0
 11
2801.671923
 21
144.268373
 31
0.0
  0
LINE
  5
33F
330
326
100
AcDbEntity
  8
0
  6
CONTINUOUS
 62
     5
100
AcDbLine
 10
2834.781918
 20
137.574417
 30
0.0
 11
2833.09613
 21
134.571411
 31
0.0
  0
LINE
  5
340
330
326
100
AcDbEntity
  8
0
  6
CONTINUOUS
 62
     5
100
AcDbLine
 10
2833.09613
 20
134.571411
 30
0.0
 11
2831.671923
 21
133.2527
 31
0.0
  0
ARC
  5
341
330
326
100
AcDbEntity
  8
0
  6
CONTINUOUS
 62
     5
100
AcDbCircle
 10
2819.479978
 20
144.805134
 30
0.0
 40
17.2666264049271
100
AcDbArc
 50
208.054813
 51
260.64047
  0
ARC
  5
342
330
326
100
AcDbEntity
  8
0
  6
CONTINUOUS
 62
     5
100
AcDbCircle
 10
2814.286583
 20
157.547603
 30
0.0
 40
29.87461092848634
100
AcDbArc
 50
274.579659
 51
305.587364
  0
ARC
  5
343
330
326
100
AcDbEntity
  8
0
  6
CONTINUOUS
 62
     5
100
AcDbCircle
 10
2825.258932
 20
151.563881
 30
0.0
 40
15.08862654287332
100
AcDbArc
 50
313.467013
 51
331.085078
  0
LINE
  5
344
330
326
100
AcDbEntity
  8
0
  6
CONTINUOUS
 62
     5
100
AcDbLine
 10
2840.050264
 20
147.781794
 30
0.0
 11
2840.347558
 21
151.563881
 31
0.0
  0
LINE
  5
345
330
326
100
AcDbEntity
  8
0
  6
CONTINUOUS
 62
     5
100
AcDbLine
 10
2840.347558
 20
151.563881
 30
0.0
 11
2839.055561
 21
157.672864
 31
0.0
  0
LINE
  5
346
330
326
100
AcDbEntity
  8
0
  6
CONTINUOUS
 62
     5
100
AcDbLine
 10
2840.050264
 20
147.781794
 30
0.0
 11
2838.466589
 21
144.268373
 31
0.0
  0
ARC
  5
347
330
326
100
AcDbEntity
  8
0
  6
CONTINUOUS
 62
     5
100
AcDbCircle
 10
2825.258932
 20
151.563881
 30
0.0
 40
15.08862654287332
100
AcDbArc
 50
23.883193
 51
36.22517
  0
LINE
  5
348
330
326
100
AcDbEntity
  8
0
  6
CONTINUOUS
 62
     5
100
AcDbLine
 10
2785.671923
 20
179.268373
 30
0.0
 11
2786.671923
 21
180.361018
 31
0.0
  0
LINE
  5
349
330
326
100
AcDbEntity
  8
0
  6
CONTINUOUS
 62
     5
100
AcDbLine
 10
2785.671923
 20
179.268373
 30
0.0
 11
2787.24888
 21
177.82334
 31
0.0
  0
LINE
  5
34A
330
326
100
AcDbEntity
  8
0
  6
CONTINUOUS
 62
     5
100
AcDbLine
 10
2788.788093
 20
175.714049
 30
0.0
 11
2788.814361
 21
173.54593
 31
0.0
  0
LINE
  5
34B
330
326
100
AcDbEntity
  8
0
  6
CONTINUOUS
 62
     5
100
AcDbLine
 10
2788.814361
 20
173.54593
 30
0.0
 11
2789.021759
 21
172.78547
 31
0.0
  0
LINE
  5
34C
330
326
100
AcDbEntity
  8
0
  6
CONTINUOUS
 62
     5
100
AcDbLine
 10
2789.021759
 20
172.78547
 30
0.0
 11
2789.609387
 21
172.059577
 31
0.0
  0
LINE
  5
34D
330
326
100
AcDbEntity
  8
0
  6
CONTINUOUS
 62
     5
100
AcDbLine
 10
2789.609387
 20
172.059577
 30
0.0
 11
2790.197015
 21
172.12871
 31
0.0
  0
LINE
  5
34E
330
326
100
AcDbEntity
  8
0
  6
CONTINUOUS
 62
     5
100
AcDbLine
 10
2790.197015
 20
172.12871
 30
0.0
 11
2790.819209
 21
172.301542
 31
0.0
  0
LINE
  5
34F
330
326
100
AcDbEntity
  8
0
  6
CONTINUOUS
 62
     5
100
AcDbLine
 10
2790.819209
 20
172.301542
 30
0.0
 11
2791.234005
 21
172.12871
 31
0.0
  0
LINE
  5
350
330
326
100
AcDbEntity
  8
0
  6
CONTINUOUS
 62
     5
100
AcDbLine
 10
2791.234005
 20
172.12871
 30
0.0
 11
2792.132729
 21
171.679348
 31
0.0
  0
LINE
  5
351
330
326
100
AcDbEntity
  8
0
  6
CONTINUOUS
 62
     5
100
AcDbLine
 10
2792.132729
 20
171.679348
 30
0.0
 11
2792.908781
 21
171.268373
 31
0.0
  0
LINE
  5
352
330
326
100
AcDbEntity
  8
0
  6
CONTINUOUS
 62
     5
100
AcDbLine
 10
2792.908781
 20
171.268373
 30
0.0
 11
2793.411684
 21
171.299118
 31
0.0
  0
LINE
  5
353
330
326
100
AcDbEntity
  8
0
  6
CONTINUOUS
 62
     5
100
AcDbLine
 10
2793.411684
 20
171.299118
 30
0.0
 11
2796.219555
 21
172.745598
 31
0.0
  0
LINE
  5
354
330
326
100
AcDbEntity
  8
0
  6
CONTINUOUS
 62
     5
100
AcDbLine
 10
2786.671923
 20
180.361018
 30
0.0
 11
2787.004774
 21
181.834725
 31
0.0
  0
LINE
  5
355
330
326
100
AcDbEntity
  8
0
  6
CONTINUOUS
 62
     5
100
AcDbLine
 10
2787.004774
 20
181.834725
 30
0.0
 11
2788.45818
 21
181.985077
 31
0.0
  0
LINE
  5
356
330
326
100
AcDbEntity
  8
0
  6
CONTINUOUS
 62
     5
100
AcDbLine
 10
2789.951938
 20
184.753536
 30
0.0
 11
2791.706111
 21
184.910626
 31
0.0
  0
LINE
  5
357
330
326
100
AcDbEntity
  8
0
  6
CONTINUOUS
 62
     5
100
AcDbLine
 10
2791.706111
 20
184.910626
 30
0.0
 11
2795.240639
 21
185.74844
 31
0.0
  0
LINE
  5
358
330
326
100
AcDbEntity
  8
0
  6
CONTINUOUS
 62
     5
100
AcDbLine
 10
2795.240639
 20
185.74844
 30
0.0
 11
2796.671923
 21
186.080079
 31
0.0
  0
LINE
  5
359
330
326
100
AcDbEntity
  8
0
  6
CONTINUOUS
 62
     5
100
AcDbLine
 10
2789.951938
 20
184.753536
 30
0.0
 11
2788.019047
 21
184.912404
 31
0.0
  0
LINE
  5
35A
330
326
100
AcDbEntity
  8
0
  6
CONTINUOUS
 62
     5
100
AcDbLine
 10
2787.282924
 20
184.043717
 30
0.0
 11
2787.376449
 21
183.672555
 31
0.0
  0
LINE
  5
35B
330
326
100
AcDbEntity
  8
0
  6
CONTINUOUS
 62
     5
100
AcDbLine
 10
2787.376449
 20
183.672555
 30
0.0
 11
2787.868043
 21
183.134874
 31
0.0
  0
LINE
  5
35C
330
326
100
AcDbEntity
  8
0
  6
CONTINUOUS
 62
     5
100
AcDbLine
 10
2787.868043
 20
183.134874
 30
0.0
 11
2788.543985
 21
182.627918
 31
0.0
  0
LINE
  5
35D
330
326
100
AcDbEntity
  8
0
  6
CONTINUOUS
 62
     5
100
AcDbLine
 10
2788.543985
 20
182.627918
 30
0.0
 11
2788.66731
 21
182.463485
 31
0.0
  0
LINE
  5
35E
330
326
100
AcDbEntity
  8
0
  6
CONTINUOUS
 62
     5
100
AcDbLine
 10
2787.24888
 20
177.82334
 30
0.0
 11
2788.788093
 21
175.714049
 31
0.0
  0
ARC
  5
35F
330
326
100
AcDbEntity
  8
0
  6
CONTINUOUS
 62
     5
100
AcDbCircle
 10
2831.658623
 20
7.609721
 30
0.0
 40
180.7274633591883
100
AcDbArc
 50
80.438896
 51
96.353582
  0
ARC
  5
360
330
326
100
AcDbEntity
  8
0
  6
CONTINUOUS
 62
     5
100
AcDbCircle
 10
2806.75971
 20
152.857621
 30
0.0
 40
34.72024168784505
100
AcDbArc
 50
81.866516
 51
106.890578
  0
LINE
  5
361
330
326
100
AcDbEntity
  8
0
  6
CONTINUOUS
 62
     5
100
AcDbLine
 10
2865.866184
 20
185.035044
 30
0.0
 11
2868.113267
 21
184.013642
 31
0.0
  0
LINE
  5
362
330
326
100
AcDbEntity
  8
0
  6
CONTINUOUS
 62
     5
100
AcDbLine
 10
2871.688171
 20
182.430471
 30
0.0
 11
2868.113267
 21
184.013642
 31
0.0
  0
LINE
  5
363
330
326
100
AcDbEntity
  8
0
  6
CONTINUOUS
 62
     5
100
AcDbLine
 10
2865.866184
 20
185.035044
 30
0.0
 11
2861.671923
 21
185.827615
 31
0.0
  0
LINE
  5
364
330
326
100
AcDbEntity
  8
0
  6
CONTINUOUS
 62
     5
100
AcDbLine
 10
2871.671923
 20
182.437666
 30
0.0
 11
2873.543498
 21
180.869189
 31
0.0
  0
LINE
  5
365
330
326
100
AcDbEntity
  8
0
  6
CONTINUOUS
 62
     5
100
AcDbLine
 10
2854.915179
 20
183.474517
 30
0.0
 11
2855.814453
 21
184.927192
 31
0.0
  0
LINE
  5
366
330
326
100
AcDbEntity
  8
0
  6
CONTINUOUS
 62
     5
100
AcDbLine
 10
2855.814453
 20
184.927192
 30
0.0
 11
2860.490052
 21
183.807682
 31
0.0
  0
LINE
  5
367
330
326
100
AcDbEntity
  8
0
  6
CONTINUOUS
 62
     5
100
AcDbLine
 10
2860.490052
 20
183.807682
 30
0.0
 11
2877.232438
 21
179.268373
 31
0.0
  0
LINE
  5
368
330
326
100
AcDbEntity
  8
0
  6
CONTINUOUS
 62
     5
100
AcDbLine
 10
2880.171923
 20
179.268373
 30
0.0
 11
2873.543498
 21
180.869189
 31
0.0
  0
LINE
  5
369
330
326
100
AcDbEntity
  8
0
  6
CONTINUOUS
 62
     5
100
AcDbLine
 10
2877.232438
 20
179.268373
 30
0.0
 11
2880.171923
 21
179.268373
 31
0.0
  0
LINE
  5
36A
330
326
100
AcDbEntity
  8
0
  6
CONTINUOUS
 62
     5
100
AcDbLine
 10
2821.671923
 20
183.733315
 30
0.0
 11
2841.671923
 21
184.268373
 31
0.0
  0
LINE
  5
36B
330
326
100
AcDbEntity
  8
0
  6
CONTINUOUS
 62
     5
100
AcDbLine
 10
2841.671923
 20
184.268373
 30
0.0
 11
2854.915179
 21
183.474517
 31
0.0
  0
LINE
  5
36C
330
326
100
AcDbEntity
  8
0
  6
CONTINUOUS
 62
     5
100
AcDbLine
 10
2856.51816
 20
181.414037
 30
0.0
 11
2841.671923
 21
182.768373
 31
0.0
  0
LINE
  5
36D
330
326
100
AcDbEntity
  8
0
  6
CONTINUOUS
 62
     5
100
AcDbLine
 10
2841.671923
 20
182.768373
 30
0.0
 11
2826.622713
 21
183.177025
 31
0.0
  0
LINE
  5
36E
330
326
100
AcDbEntity
  8
0
  6
CONTINUOUS
 62
     5
100
AcDbLine
 10
2826.671923
 20
183.175689
 30
0.0
 11
2821.671923
 21
183.270983
 31
0.0
  0
LINE
  5
36F
330
326
100
AcDbEntity
  8
0
  6
CONTINUOUS
 62
     5
100
AcDbLine
 10
2821.671923
 20
183.733315
 30
0.0
 11
2821.671923
 21
183.270983
 31
0.0
  0
LINE
  5
370
330
326
100
AcDbEntity
  8
0
  6
CONTINUOUS
 62
     5
100
AcDbLine
 10
2879.171923
 20
175.768373
 30
0.0
 11
2870.329364
 21
178.079036
 31
0.0
  0
LINE
  5
371
330
326
100
AcDbEntity
  8
0
  6
CONTINUOUS
 62
     5
100
AcDbLine
 10
2856.51816
 20
181.414037
 30
0.0
 11
2866.671923
 21
179.441654
 31
0.0
  0
LINE
  5
372
330
326
100
AcDbEntity
  8
0
  6
CONTINUOUS
 62
     5
100
AcDbLine
 10
2866.671923
 20
179.441654
 30
0.0
 11
2870.329364
 21
178.079036
 31
0.0
  0
LINE
  5
373
330
326
100
AcDbEntity
  8
0
  6
CONTINUOUS
 62
     5
100
AcDbLine
 10
2879.171923
 20
175.768373
 30
0.0
 11
2878.879305
 21
174.929268
 31
0.0
  0
LINE
  5
374
330
326
100
AcDbEntity
  8
0
  6
CONTINUOUS
 62
     5
100
AcDbLine
 10
2888.671923
 20
170.268373
 30
0.0
 11
2888.365895
 21
171.497354
 31
0.0
  0
LINE
  5
375
330
326
100
AcDbEntity
  8
0
  6
CONTINUOUS
 62
     5
100
AcDbLine
 10
2878.879305
 20
174.929268
 30
0.0
 11
2888.365895
 21
171.497354
 31
0.0
  0
LINE
  5
376
330
326
100
AcDbEntity
  8
0
  6
CONTINUOUS
 62
     5
100
AcDbLine
 10
2825.171923
 20
175.768373
 30
0.0
 11
2827.594961
 21
175.768373
 31
0.0
  0
LINE
  5
377
330
326
100
AcDbEntity
  8
0
  6
CONTINUOUS
 62
     5
100
AcDbLine
 10
2847.671923
 20
176.200869
 30
0.0
 11
2847.671923
 21
175.768373
 31
0.0
  0
LINE
  5
378
330
326
100
AcDbEntity
  8
0
  6
CONTINUOUS
 62
     5
100
AcDbLine
 10
2846.671923
 20
176.73531
 30
0.0
 11
2844.960643
 21
177.372488
 31
0.0
  0
LINE
  5
379
330
326
100
AcDbEntity
  8
0
  6
CONTINUOUS
 62
     5
100
AcDbLine
 10
2844.960643
 20
177.372488
 30
0.0
 11
2843.850587
 21
177.422945
 31
0.0
  0
LINE
  5
37A
330
326
100
AcDbEntity
  8
0
  6
CONTINUOUS
 62
     5
100
AcDbLine
 10
2843.850587
 20
177.422945
 30
0.0
 11
2843.371245
 21
177.17066
 31
0.0
  0
LINE
  5
37B
330
326
100
AcDbEntity
  8
0
  6
CONTINUOUS
 62
     5
100
AcDbLine
 10
2843.371245
 20
177.17066
 30
0.0
 11
2843.270331
 21
176.767003
 31
0.0
  0
LINE
  5
37C
330
326
100
AcDbEntity
  8
0
  6
CONTINUOUS
 62
     5
100
AcDbLine
 10
2843.270331
 20
176.767003
 30
0.0
 11
2843.724445
 21
176.464261
 31
0.0
  0
LINE
  5
37D
330
326
100
AcDbEntity
  8
0
  6
CONTINUOUS
 62
     5
100
AcDbLine
 10
2843.724445
 20
176.464261
 30
0.0
 11
2845.3643
 21
176.312889
 31
0.0
  0
LINE
  5
37E
330
326
100
AcDbEntity
  8
0
  6
CONTINUOUS
 62
     5
100
AcDbLine
 10
2845.3643
 20
176.312889
 30
0.0
 11
2847.671923
 21
176.200869
 31
0.0
  0
LINE
  5
37F
330
326
100
AcDbEntity
  8
0
  6
CONTINUOUS
 62
     5
100
AcDbLine
 10
2888.671923
 20
170.268373
 30
0.0
 11
2885.69638
 21
171.454955
 31
0.0
  0
LINE
  5
380
330
326
100
AcDbEntity
  8
0
  6
CONTINUOUS
 62
     5
100
AcDbLine
 10
2885.69638
 20
171.454955
 30
0.0
 11
2875.64069
 21
173.29783
 31
0.0
  0
LINE
  5
381
330
326
100
AcDbEntity
  8
0
  6
CONTINUOUS
 62
     5
100
AcDbLine
 10
2875.64069
 20
173.29783
 30
0.0
 11
2870.61491
 21
174.457626
 31
0.0
  0
LINE
  5
382
330
326
100
AcDbEntity
  8
0
  6
CONTINUOUS
 62
     5
100
AcDbLine
 10
2848.206144
 20
176.768373
 30
0.0
 11
2859.97181
 21
176.768373
 31
0.0
  0
LINE
  5
383
330
326
100
AcDbEntity
  8
0
  6
CONTINUOUS
 62
     5
100
AcDbLine
 10
2846.671923
 20
176.73531
 30
0.0
 11
2847.196582
 21
176.426843
 31
0.0
  0
LINE
  5
384
330
326
100
AcDbEntity
  8
0
  6
CONTINUOUS
 62
     5
100
AcDbLine
 10
2847.196582
 20
176.426843
 30
0.0
 11
2847.493394
 21
176.337799
 31
0.0
  0
LINE
  5
385
330
326
100
AcDbEntity
  8
0
  6
CONTINUOUS
 62
     5
100
AcDbLine
 10
2847.493394
 20
176.337799
 30
0.0
 11
2847.671923
 21
176.362969
 31
0.0
  0
LINE
  5
386
330
326
100
AcDbEntity
  8
0
  6
CONTINUOUS
 62
     5
100
AcDbLine
 10
2847.671923
 20
176.362969
 30
0.0
 11
2848.206144
 21
176.768373
 31
0.0
  0
LINE
  5
387
330
326
100
AcDbEntity
  8
0
  6
CONTINUOUS
 62
     5
100
AcDbLine
 10
2859.97181
 20
176.768373
 30
0.0
 11
2864.422078
 21
175.739548
 31
0.0
  0
LINE
  5
388
330
326
100
AcDbEntity
  8
0
  6
CONTINUOUS
 62
     5
100
AcDbLine
 10
2864.422078
 20
175.739548
 30
0.0
 11
2868.57527
 21
174.574399
 31
0.0
  0
LINE
  5
389
330
326
100
AcDbEntity
  8
0
  6
CONTINUOUS
 62
     5
100
AcDbLine
 10
2868.57527
 20
174.574399
 30
0.0
 11
2870.61491
 21
174.457626
 31
0.0
  0
LINE
  5
38A
330
326
100
AcDbEntity
  8
0
  6
CONTINUOUS
 62
     5
100
AcDbLine
 10
2824.171923
 20
174.768373
 30
0.0
 11
2824.171923
 21
174.268373
 31
0.0
  0
LINE
  5
38B
330
326
100
AcDbEntity
  8
0
  6
CONTINUOUS
 62
     5
100
AcDbLine
 10
2821.671923
 20
174.268373
 30
0.0
 11
2824.171923
 21
174.268373
 31
0.0
  0
ARC
  5
38C
330
326
100
AcDbEntity
  8
0
  6
CONTINUOUS
 62
     5
100
AcDbCircle
 10
2825.171923
 20
174.768373
 30
0.0
 40
1.0
100
AcDbArc
 50
90.0
 51
180.0
  0
LINE
  5
38D
330
326
100
AcDbEntity
  8
0
  6
CONTINUOUS
 62
     5
100
AcDbLine
 10
2827.594961
 20
175.768373
 30
0.0
 11
2828.292517
 21
175.196377
 31
0.0
  0
LINE
  5
38E
330
326
100
AcDbEntity
  8
0
  6
CONTINUOUS
 62
     5
100
AcDbLine
 10
2828.894886
 20
175.172416
 30
0.0
 11
2829.752482
 21
175.768373
 31
0.0
  0
LINE
  5
38F
330
326
100
AcDbEntity
  8
0
  6
CONTINUOUS
 62
     5
100
AcDbLine
 10
2831.330878
 20
175.768373
 30
0.0
 11
2832.998004
 21
175.110298
 31
0.0
  0
LINE
  5
390
330
326
100
AcDbEntity
  8
0
  6
CONTINUOUS
 62
     5
100
AcDbLine
 10
2833.421713
 20
175.13681
 30
0.0
 11
2834.5752
 21
175.768373
 31
0.0
  0
LINE
  5
391
330
326
100
AcDbEntity
  8
0
  6
CONTINUOUS
 62
     5
100
AcDbLine
 10
2829.752482
 20
175.768373
 30
0.0
 11
2831.330878
 21
175.768373
 31
0.0
  0
LINE
  5
392
330
326
100
AcDbEntity
  8
0
  6
CONTINUOUS
 62
     5
100
AcDbLine
 10
2834.5752
 20
175.768373
 30
0.0
 11
2847.671923
 21
175.768373
 31
0.0
  0
LINE
  5
393
330
326
100
AcDbEntity
  8
0
  6
CONTINUOUS
 62
     5
100
AcDbLine
 10
2800.220906
 20
172.659547
 30
0.0
 11
2821.671923
 21
174.268373
 31
0.0
  0
LINE
  5
394
330
326
100
AcDbEntity
  8
0
  6
CONTINUOUS
 62
     5
100
AcDbLine
 10
2796.219555
 20
172.745598
 30
0.0
 11
2800.220906
 21
172.659547
 31
0.0
  0
ARC
  5
395
330
326
100
AcDbEntity
  8
0
  6
CONTINUOUS
 62
     5
100
AcDbCircle
 10
2828.609557
 20
175.583011
 30
0.0
 40
0.5
100
AcDbArc
 50
230.648247
 51
304.796026
  0
ARC
  5
396
330
326
100
AcDbEntity
  8
0
  6
CONTINUOUS
 62
     5
100
AcDbCircle
 10
2833.181587
 20
175.575375
 30
0.0
 40
0.5
100
AcDbArc
 50
248.459024
 51
298.701829
  0
ARC
  5
397
330
326
100
AcDbEntity
  8
0
  6
CONTINUOUS
 62
     5
100
AcDbCircle
 10
2788.42731
 20
182.283485
 30
0.0
 40
0.3
100
AcDbArc
 50
275.906141
 51
36.869898
  0
ARC
  5
398
330
326
100
AcDbEntity
  8
0
  6
CONTINUOUS
 62
     5
100
AcDbCircle
 10
2787.961706
 20
184.214756
 30
0.0
 40
0.7
100
AcDbArc
 50
85.301319
 51
194.14298
  0
LINE
  5
399
330
326
100
AcDbEntity
  8
0
  6
CONTINUOUS
 62
     3
100
AcDbLine
 10
2820.153747
 20
167.001529
 30
0.0
 11
2828.264243
 21
167.001529
 31
0.0
  0
LINE
  5
39A
330
326
100
AcDbEntity
  8
0
  6
CONTINUOUS
 62
     3
100
AcDbLine
 10
2813.741231
 20
165.401529
 30
0.0
 11
2831.384571
 21
165.401529
 31
0.0
  0
LINE
  5
39B
330
326
100
AcDbEntity
  8
0
  6
CONTINUOUS
 62
     3
100
AcDbLine
 10
2810.328292
 20
163.801529
 30
0.0
 11
2834.259936
 21
163.801529
 31
0.0
  0
LINE
  5
39C
330
326
100
AcDbEntity
  8
0
  6
CONTINUOUS
 62
     3
100
AcDbLine
 10
2808.092972
 20
162.201529
 30
0.0
 11
2836.103409
 21
162.201529
 31
0.0
  0
LINE
  5
39D
330
326
100
AcDbEntity
  8
0
  6
CONTINUOUS
 62
     3
100
AcDbLine
 10
2806.597316
 20
160.601529
 30
0.0
 11
2837.337695
 21
160.601529
 31
0.0
  0
LINE
  5
39E
330
326
100
AcDbEntity
  8
0
  6
CONTINUOUS
 62
     3
100
AcDbLine
 10
2805.377002
 20
159.001529
 30
0.0
 11
2838.387071
 21
159.001529
 31
0.0
  0
LINE
  5
39F
330
326
100
AcDbEntity
  8
0
  6
CONTINUOUS
 62
     3
100
AcDbLine
 10
2804.68511
 20
157.401529
 30
0.0
 11
2839.112946
 21
157.401529
 31
0.0
  0
LINE
  5
3A0
330
326
100
AcDbEntity
  8
0
  6
CONTINUOUS
 62
     3
100
AcDbLine
 10
2803.993218
 20
155.801529
 30
0.0
 11
2839.451332
 21
155.801529
 31
0.0
  0
LINE
  5
3A1
330
326
100
AcDbEntity
  8
0
  6
CONTINUOUS
 62
     3
100
AcDbLine
 10
2803.344868
 20
154.201529
 30
0.0
 11
2839.789718
 21
154.201529
 31
0.0
  0
LINE
  5
3A2
330
326
100
AcDbEntity
  8
0
  6
CONTINUOUS
 62
     3
100
AcDbLine
 10
2803.023209
 20
152.601529
 30
0.0
 11
2840.128105
 21
152.601529
 31
0.0
  0
LINE
  5
3A3
330
326
100
AcDbEntity
  8
0
  6
CONTINUOUS
 62
     3
100
AcDbLine
 10
2802.70155
 20
151.001529
 30
0.0
 11
2818.291793
 21
151.001529
 31
0.0
  0
LINE
  5
3A4
330
326
100
AcDbEntity
  8
0
  6
CONTINUOUS
 62
     3
100
AcDbLine
 10
2802.379891
 20
149.401529
 30
0.0
 11
2816.759532
 21
149.401529
 31
0.0
  0
LINE
  5
3A5
330
326
100
AcDbEntity
  8
0
  6
CONTINUOUS
 62
     3
100
AcDbLine
 10
2802.058232
 20
147.801529
 30
0.0
 11
2815.971363
 21
147.801529
 31
0.0
  0
LINE
  5
3A6
330
326
100
AcDbEntity
  8
0
  6
CONTINUOUS
 62
     3
100
AcDbLine
 10
2801.817115
 20
146.201529
 30
0.0
 11
2815.652595
 21
146.201529
 31
0.0
  0
LINE
  5
3A7
330
326
100
AcDbEntity
  8
0
  6
CONTINUOUS
 62
     3
100
AcDbLine
 10
2801.696945
 20
144.601529
 30
0.0
 11
2815.702616
 21
144.601529
 31
0.0
  0
LINE
  5
3A8
330
326
100
AcDbEntity
  8
0
  6
CONTINUOUS
 62
     3
100
AcDbLine
 10
2801.671923
 20
143.001529
 30
0.0
 11
2816.248703
 21
143.001529
 31
0.0
  0
LINE
  5
3A9
330
326
100
AcDbEntity
  8
0
  6
CONTINUOUS
 62
     3
100
AcDbLine
 10
2802.171111
 20
141.401529
 30
0.0
 11
2818.278706
 21
141.401529
 31
0.0
  0
LINE
  5
3AA
330
326
100
AcDbEntity
  8
0
  6
CONTINUOUS
 62
     3
100
AcDbLine
 10
2802.882222
 20
139.801529
 30
0.0
 11
2835.410077
 21
139.801529
 31
0.0
  0
LINE
  5
3AB
330
326
100
AcDbEntity
  8
0
  6
CONTINUOUS
 62
     3
100
AcDbLine
 10
2803.593333
 20
138.201529
 30
0.0
 11
2834.958795
 21
138.201529
 31
0.0
  0
LINE
  5
3AC
330
326
100
AcDbEntity
  8
0
  6
CONTINUOUS
 62
     3
100
AcDbLine
 10
2804.304444
 20
136.601529
 30
0.0
 11
2834.235771
 21
136.601529
 31
0.0
  0
LINE
  5
3AD
330
326
100
AcDbEntity
  8
0
  6
CONTINUOUS
 62
     3
100
AcDbLine
 10
2805.266403
 20
135.001529
 30
0.0
 11
2833.337584
 21
135.001529
 31
0.0
  0
LINE
  5
3AE
330
326
100
AcDbEntity
  8
0
  6
CONTINUOUS
 62
     3
100
AcDbLine
 10
2806.514864
 20
133.401529
 30
0.0
 11
2831.832658
 21
133.401529
 31
0.0
  0
LINE
  5
3AF
330
326
100
AcDbEntity
  8
0
  6
CONTINUOUS
 62
     3
100
AcDbLine
 10
2808.120284
 20
131.801529
 30
0.0
 11
2829.440198
 21
131.801529
 31
0.0
  0
LINE
  5
3B0
330
326
100
AcDbEntity
  8
0
  6
CONTINUOUS
 62
     3
100
AcDbLine
 10
2810.267426
 20
130.201529
 30
0.0
 11
2826.315074
 21
130.201529
 31
0.0
  0
LINE
  5
3B1
330
326
100
AcDbEntity
  8
0
  6
CONTINUOUS
 62
     3
100
AcDbLine
 10
2813.515116
 20
128.601529
 30
0.0
 11
2821.676925
 21
128.601529
 31
0.0
  0
LINE
  5
3B2
330
326
100
AcDbEntity
  8
0
  6
CONTINUOUS
 62
     3
100
AcDbLine
 10
2823.483617
 20
151.001529
 30
0.0
 11
2840.303354
 21
151.001529
 31
0.0
  0
LINE
  5
3B3
330
326
100
AcDbEntity
  8
0
  6
CONTINUOUS
 62
     3
100
AcDbLine
 10
2824.154361
 20
149.401529
 30
0.0
 11
2840.177585
 21
149.401529
 31
0.0
  0
LINE
  5
3B4
330
326
100
AcDbEntity
  8
0
  6
CONTINUOUS
 62
     3
100
AcDbLine
 10
2824.266368
 20
147.801529
 30
0.0
 11
2840.051815
 21
147.801529
 31
0.0
  0
LINE
  5
3B5
330
326
100
AcDbEntity
  8
0
  6
CONTINUOUS
 62
     3
100
AcDbLine
 10
2824.021011
 20
146.201529
 30
0.0
 11
2839.337959
 21
146.201529
 31
0.0
  0
LINE
  5
3B6
330
326
100
AcDbEntity
  8
0
  6
CONTINUOUS
 62
     3
100
AcDbLine
 10
2823.369365
 20
144.601529
 30
0.0
 11
2838.616759
 21
144.601529
 31
0.0
  0
LINE
  5
3B7
330
326
100
AcDbEntity
  8
0
  6
CONTINUOUS
 62
     3
100
AcDbLine
 10
2822.236102
 20
143.001529
 30
0.0
 11
2837.682811
 21
143.001529
 31
0.0
  0
LINE
  5
3B8
330
326
100
AcDbEntity
  8
0
  6
CONTINUOUS
 62
     3
100
AcDbLine
 10
2819.980106
 20
141.401529
 30
0.0
 11
2836.412104
 21
141.401529
 31
0.0
  0
TEXT
  5
3B9
330
326
100
AcDbEntity
  8
0
  6
CONTINUOUS
 62
     5
100
AcDbText
 10
2840.843779
 20
149.012722
 30
0.0
 40
4.713448
  1
M
 41
1.300704
  7
ED_VECTOR
100
AcDbText
  0
TEXT
  5
3BA
330
326
100
AcDbEntity
  8
0
  6
CONTINUOUS
 62
     5
100
AcDbText
 10
2850.495166
 20
148.954451
 30
0.0
 40
4.626621
  1
T
 41
0.518801
  7
ED_VECTOR
100
AcDbText
  0
TEXT
  5
3BB
330
326
100
AcDbEntity
  8
0
  6
CONTINUOUS
 62
     5
100
AcDbText
 10
2853.260729
 20
148.98925
 30
0.0
 40
4.696183
  1
E
 41
0.703702
  7
ED_VECTOR
100
AcDbText
  0
TEXT
  5
3BC
330
326
100
AcDbEntity
  8
0
  6
CONTINUOUS
 62
     5
100
AcDbText
 10
2856.376909
 20
150.605094
 30
0.0
 40
0.348283
  1
-
 41
6.250213
  7
ED_VECTOR
100
AcDbText
  0
TEXT
  5
3BD
330
326
100
AcDbEntity
  8
0
  6
CONTINUOUS
 62
     5
100
AcDbText
 10
2858.191119
 20
148.957903
 30
0.0
 40
4.861659
  1
H
 41
0.865668
  7
ED_VECTOR
100
AcDbText
  0
TEXT
  5
3BE
330
326
100
AcDbEntity
  8
0
  6
CONTINUOUS
 62
     5
100
AcDbText
 10
2862.267134
 20
148.988282
 30
0.0
 40
4.843139
  1
A
 41
0.846157
  7
ED_VECTOR
100
AcDbText
  0
TEXT
  5
3BF
330
326
100
AcDbEntity
  8
0
  6
CONTINUOUS
 62
     5
100
AcDbText
 10
2865.97329
 20
148.946755
 30
0.0
 40
4.825362
  1
N
 41
0.993429
  7
ED_VECTOR
100
AcDbText
  0
TEXT
  5
3C0
330
326
100
AcDbEntity
  8
0
  6
CONTINUOUS
 62
     5
100
AcDbText
 10
2846.764748
 20
148.924182
 30
0.0
 40
4.982325
  1
A
 41
0.784962
  7
ED_VECTOR
100
AcDbText
  0
TEXT
  5
3C1
330
326
100
AcDbEntity
  8
0
  6
CONTINUOUS
 62
     5
100
AcDbText
 10
2841.210793
 20
141.928943
 30
0.0
 40
4.982325
  1
A
 41
0.784962
  7
ED_VECTOR
100
AcDbText
  0
TEXT
  5
3C2
330
326
100
AcDbEntity
  8
0
  6
CONTINUOUS
 62
     5
100
AcDbText
 10
2853.995216
 20
141.957263
 30
0.0
 40
4.982325
  1
A
 41
0.784962
  7
ED_VECTOR
100
AcDbText
  0
TEXT
  5
3C3
330
326
100
AcDbEntity
  8
0
  6
CONTINUOUS
 62
     5
100
AcDbText
 10
2857.755761
 20
142.01426
 30
0.0
 40
4.825362
  1
N
 41
0.993429
  7
ED_VECTOR
100
AcDbText
  0
TEXT
  5
3C4
330
326
100
AcDbEntity
  8
0
  6
CONTINUOUS
 62
     5
100
AcDbText
 10
2866.658097
 20
142.022655
 30
0.0
 40
4.841775
  1
E
 41
0.789479
  7
ED_VECTOR
100
AcDbText
  0
TEXT
  5
3C5
330
326
100
AcDbEntity
  8
0
  6
CONTINUOUS
 62
     5
100
AcDbText
 10
2845.491346
 20
141.927618
 30
0.0
 40
4.947865
  1
D
 41
0.729328
  7
ED_VECTOR
100
AcDbText
  0
TEXT
  5
3C6
330
326
100
AcDbEntity
  8
0
  6
CONTINUOUS
 62
     5
100
AcDbText
 10
2849.893704
 20
141.922233
 30
0.0
 40
4.92421
  1
V
 41
0.818797
  7
ED_VECTOR
100
AcDbText
  0
TEXT
  5
3C7
330
326
100
AcDbEntity
  8
0
  6
CONTINUOUS
 62
     5
100
AcDbText
 10
2862.118906
 20
141.942965
 30
0.0
 40
5.032894
  1
C
 41
0.987349
  7
ED_VECTOR
100
AcDbText
  0
LINE
  5
3C8
330
326
100
AcDbEntity
  8
0
  6
CONTINUOUS
 62
     5
100
AcDbLine
 10
2852.749259
 20
153.003346
 30
0.0
 11
2851.737198
 21
153.003346
 31
0.0
  0
LINE
  5
3C9
330
326
100
AcDbEntity
  8
0
  6
CONTINUOUS
 62
     3
100
AcDbLine
 10
2801.847498
 20
187.228617
 30
0.0
 11
2851.645324
 21
187.228617
 31
0.0
  0
LINE
  5
3CA
330
326
100
AcDbEntity
  8
0
  6
CONTINUOUS
 62
     3
100
AcDbLine
 10
2794.735134
 20
185.628617
 30
0.0
 11
2862.725015
 21
185.628617
 31
0.0
  0
LINE
  5
3CB
330
326
100
AcDbEntity
  8
0
  6
CONTINUOUS
 62
     3
100
AcDbLine
 10
2787.286729
 20
184.028617
 30
0.0
 11
2832.710039
 21
184.028617
 31
0.0
  0
LINE
  5
3CC
330
326
100
AcDbEntity
  8
0
  6
CONTINUOUS
 62
     3
100
AcDbLine
 10
2845.671589
 20
184.028617
 30
0.0
 11
2855.258193
 21
184.028617
 31
0.0
  0
LINE
  5
3CD
330
326
100
AcDbEntity
  8
0
  6
CONTINUOUS
 62
     3
100
AcDbLine
 10
2859.567326
 20
184.028617
 30
0.0
 11
2868.080323
 21
184.028617
 31
0.0
  0
LINE
  5
3CE
330
326
100
AcDbEntity
  8
0
  6
CONTINUOUS
 62
     3
100
AcDbLine
 10
2788.689868
 20
182.428617
 30
0.0
 11
2845.396337
 21
182.428617
 31
0.0
  0
LINE
  5
3CF
330
326
100
AcDbEntity
  8
0
  6
CONTINUOUS
 62
     3
100
AcDbLine
 10
2865.576476
 20
182.428617
 30
0.0
 11
2871.682721
 21
182.428617
 31
0.0
  0
LINE
  5
3D0
330
326
100
AcDbEntity
  8
0
  6
CONTINUOUS
 62
     3
100
AcDbLine
 10
2786.777535
 20
180.828617
 30
0.0
 11
2859.531885
 21
180.828617
 31
0.0
  0
LINE
  5
3D1
330
326
100
AcDbEntity
  8
0
  6
CONTINUOUS
 62
     3
100
AcDbLine
 10
2871.477774
 20
180.828617
 30
0.0
 11
2873.711496
 21
180.828617
 31
0.0
  0
LINE
  5
3D2
330
326
100
AcDbEntity
  8
0
  6
CONTINUOUS
 62
     3
100
AcDbLine
 10
2785.715309
 20
179.228617
 30
0.0
 11
2867.243742
 21
179.228617
 31
0.0
  0
LINE
  5
3D3
330
326
100
AcDbEntity
  8
0
  6
CONTINUOUS
 62
     3
100
AcDbLine
 10
2787.390976
 20
177.628617
 30
0.0
 11
2872.05305
 21
177.628617
 31
0.0
  0
LINE
  5
3D4
330
326
100
AcDbEntity
  8
0
  6
CONTINUOUS
 62
     3
100
AcDbLine
 10
2788.558544
 20
176.028617
 30
0.0
 11
2847.671923
 21
176.028617
 31
0.0
  0
LINE
  5
3D5
330
326
100
AcDbEntity
  8
0
  6
CONTINUOUS
 62
     3
100
AcDbLine
 10
2863.171688
 20
176.028617
 30
0.0
 11
2878.176011
 21
176.028617
 31
0.0
  0
LINE
  5
3D6
330
326
100
AcDbEntity
  8
0
  6
CONTINUOUS
 62
     3
100
AcDbLine
 10
2788.803667
 20
174.428617
 30
0.0
 11
2824.171923
 21
174.428617
 31
0.0
  0
LINE
  5
3D7
330
326
100
AcDbEntity
  8
0
  6
CONTINUOUS
 62
     3
100
AcDbLine
 10
2870.740616
 20
174.428617
 30
0.0
 11
2880.263219
 21
174.428617
 31
0.0
  0
LINE
  5
3D8
330
326
100
AcDbEntity
  8
0
  6
CONTINUOUS
 62
     3
100
AcDbLine
 10
2789.009992
 20
172.828617
 30
0.0
 11
2802.475166
 21
172.828617
 31
0.0
  0
LINE
  5
3D9
330
326
100
AcDbEntity
  8
0
  6
CONTINUOUS
 62
     3
100
AcDbLine
 10
2878.200965
 20
172.828617
 30
0.0
 11
2884.685984
 21
172.828617
 31
0.0
  0
LINE
  5
3DA
330
326
100
AcDbEntity
  8
0
  6
CONTINUOUS
 62
     3
100
AcDbLine
 10
2886.263959
 20
171.228617
 30
0.0
 11
2888.432813
 21
171.228617
 31
0.0
  0
ENDBLK
  5
328
330
326
100
AcDbEntity
  8
0
100
AcDbBlockEnd
  0
ENDSEC
  0
SECTION
  2
ENTITIES
  0
INSERT
  5
F1
330
1F
100
AcDbEntity
  8
0
100
AcDbBlockReference
  2
BLKF014
 10
0.0
 20
0.0
 30
0.0
  0
LINE
  5
196
330
1F
100
AcDbEntity
  8
0
  6
CONTINUOUS
 62
     3
100
AcDbLine
 10
2274.975578
 20
606.901483
 30
0.0
 11
308.092582
 21
606.901483
 31
0.0
  0
LINE
  5
197
330
1F
100
AcDbEntity
  8
0
  6
CENTER
 62
     5
100
AcDbLine
 10
592.978401
 20
1294.462493
 30
0.0
 11
592.978401
 21
586.421481
 31
0.0
  0
DIMENSION
  5
198
330
1F
100
AcDbEntity
  8
0
100
AcDbDimension
  2
*D12
 10
742.978401
 20
506.901483
 30
0.0
 11
851.810852
 21
518.927856
 31
0.0
 70
    33
  3
EDDIMINFO
100
AcDbAlignedDimension
 13
792.978401
 23
506.901483
 33
0.0
 14
742.978401
 24
506.901483
 34
0.0
  0
LINE
  5
1A0
330
1F
100
AcDbEntity
  8
0
  6
CONTINUOUS
 62
     5
100
AcDbLine
 10
442.978401
 20
612.352468
 30
0.0
 11
442.978401
 21
601.901483
 31
0.0
  0
LINE
  5
1A1
330
1F
100
AcDbEntity
  8
0
  6
CONTINUOUS
 62
     5
100
AcDbLine
 10
742.978401
 20
612.352468
 30
0.0
 11
742.978401
 21
601.901483
 31
0.0
  0
LINE
  5
1A2
330
1F
100
AcDbEntity
  8
0
  6
CONTINUOUS
 62
     3
100
AcDbLine
 10
792.978401
 20
623.901483
 30
0.0
 11
792.978401
 21
606.901483
 31
0.0
  0
LINE
  5
1A3
330
1F
100
AcDbEntity
  8
0
  6
CONTINUOUS
 62
     3
100
AcDbLine
 10
392.978401
 20
623.901483
 30
0.0
 11
392.978401
 21
606.901483
 31
0.0
  0
LINE
  5
1A4
330
1F
100
AcDbEntity
  8
0
  6
CONTINUOUS
 62
     5
100
AcDbLine
 10
442.978401
 20
591.901483
 30
0.0
 11
442.978401
 21
496.901483
 31
0.0
  0
LINE
  5
1A5
330
1F
100
AcDbEntity
  8
0
  6
CONTINUOUS
 62
     5
100
AcDbLine
 10
742.978401
 20
591.901483
 30
0.0
 11
742.978401
 21
496.901483
 31
0.0
  0
LINE
  5
1A6
330
1F
100
AcDbEntity
  8
0
  6
CONTINUOUS
 62
     5
100
AcDbLine
 10
442.978401
 20
506.901483
 30
0.0
 11
742.978401
 21
506.901483
 31
0.0
  0
INSERT
  5
1A7
330
1F
100
AcDbEntity
  8
0
  6
CONTINUOUS
 62
     5
100
AcDbBlockReference
  2
EDTIP_ARROW_S
 10
442.978401
 20
506.901483
 30
0.0
 41
30.0
 42
30.0
 50
180.0
  0
INSERT
  5
1A8
330
1F
100
AcDbEntity
  8
0
  6
CONTINUOUS
 62
     5
100
AcDbBlockReference
  2
EDTIP_ARROW_E
 10
742.978401
 20
506.901483
 30
0.0
 41
30.0
 42
30.0
  0
INSERT
  5
1AC
330
1F
100
AcDbEntity
  8
0
100
AcDbBlockReference
  2
EDDIM016
 10
0.0
 20
0.0
 30
0.0
  0
TEXT
  5
1AE
330
1F
100
AcDbEntity
  8
0
  6
CONTINUOUS
 62
     5
100
AcDbText
 10
2158.04541
 20
613.241821
 30
0.0
 40
40.0
  1
F.L
 41
0.8
  7
ED_VECTOR
100
AcDbText
  0
TEXT
  5
1AF
330
1F
100
AcDbEntity
  8
0
  6
CONTINUOUS
 62
     5
100
AcDbText
 10
449.682983
 20
522.751587
 30
0.0
 40
40.0
  1
アンカーピッチ
 41
0.75
  7
ED_VECTOR
100
AcDbText
  0
TEXT
  5
1B0
330
1F
100
AcDbEntity
  8
0
  6
CONTINUOUS
 62
     5
100
AcDbText
 10
1263.90067
 20
511.683716
 30
0.0
 40
40.007019
  1
アンカーピッチ
 41
0.679007
  7
ED_VECTOR
100
AcDbText
  0
TEXT
  5
1B1
330
1F
100
AcDbEntity
  8
0
  6
CONTINUOUS
 62
     3
100
AcDbText
 10
665.705623
 20
524.946167
 30
0.0
 40
38.524662
  1
300
 41
0.632735
  7
ED_VECTOR
100
AcDbText
  0
LINE
  5
1B2
330
1F
100
AcDbEntity
  8
0
  6
CONTINUOUS
 62
     3
100
AcDbLine
 10
1785.551711
 20
620.901483
 30
0.0
 11
1785.551711
 21
606.901483
 31
0.0
  0
LINE
  5
1B3
330
1F
100
AcDbEntity
  8
0
  6
CONTINUOUS
 62
     5
100
AcDbLine
 10
1715.551711
 20
616.029766
 30
0.0
 11
1715.551711
 21
596.901483
 31
0.0
  0
LINE
  5
1B4
330
1F
100
AcDbEntity
  8
0
  6
CONTINUOUS
 62
     5
100
AcDbLine
 10
1135.551711
 20
616.029766
 30
0.0
 11
1135.551711
 21
596.901483
 31
0.0
  0
LINE
  5
1B5
330
1F
100
AcDbEntity
  8
0
  6
CONTINUOUS
 62
     3
100
AcDbLine
 10
1065.551711
 20
620.901483
 30
0.0
 11
1065.551711
 21
606.901483
 31
0.0
  0
LINE
  5
1B6
330
1F
100
AcDbEntity
  8
0
  6
CENTER
 62
     5
100
AcDbLine
 10
1872.859111
 20
1955.448414
 30
0.0
 11
953.524495
 21
1955.448414
 31
0.0
  0
LINE
  5
1B7
330
1F
100
AcDbEntity
  8
0
  6
CONTINUOUS
 62
     3
100
AcDbLine
 10
852.978401
 20
1256.901483
 30
0.0
 11
332.978401
 21
1256.901483
 31
0.0
  0
LINE
  5
1B8
330
1F
100
AcDbEntity
  8
0
  6
CONTINUOUS
 62
     3
100
AcDbLine
 10
852.978401
 20
1218.901483
 30
0.0
 11
332.978401
 21
1218.901483
 31
0.0
  0
LINE
  5
1B9
330
1F
100
AcDbEntity
  8
0
  6
PHANTOM
 62
     5
100
AcDbLine
 10
1850.751711
 20
756.901483
 30
0.0
 11
1000.751711
 21
756.901483
 31
0.0
  0
LINE
  5
1BA
330
1F
100
AcDbEntity
  8
0
  6
PHANTOM
 62
     5
100
AcDbLine
 10
1850.751711
 20
718.901483
 30
0.0
 11
1000.751711
 21
718.901483
 31
0.0
  0
LINE
  5
1BB
330
1F
100
AcDbEntity
  8
0
  6
CONTINUOUS
 62
     3
100
AcDbLine
 10
1997.751228
 20
1841.448414
 30
0.0
 11
2213.439032
 21
1841.448414
 31
0.0
  0
LINE
  5
1BC
330
1F
100
AcDbEntity
  8
0
  6
CONTINUOUS
 62
     3
100
AcDbLine
 10
1997.218591
 20
1848.448414
 30
0.0
 11
2213.439032
 21
1848.448414
 31
0.0
  0
ARC
  5
1BD
330
1F
100
AcDbEntity
  8
0
  6
CONTINUOUS
 62
     3
100
AcDbCircle
 10
2004.055988
 20
1801.948414
 30
0.0
 40
40.0
100
AcDbArc
 50
99.068722
 51
63.817766
  0
ARC
  5
1BE
330
1F
100
AcDbEntity
  8
0
  6
CONTINUOUS
 62
     3
100
AcDbCircle
 10
2004.055988
 20
1801.948414
 30
0.0
 40
47.0
100
AcDbArc
 50
98.364875
 51
49.860785
  0
LINE
  5
1BF
330
1F
100
AcDbEntity
  8
0
  6
CONTINUOUS
 62
     3
100
AcDbLine
 10
1850.751711
 20
1841.448414
 30
0.0
 11
1974.064372
 21
1841.448414
 31
0.0
  0
LINE
  5
1C0
330
1F
100
AcDbEntity
  8
0
  6
CONTINUOUS
 62
     3
100
AcDbLine
 10
1850.751711
 20
1848.448414
 30
0.0
 11
1984.771263
 21
1848.448414
 31
0.0
  0
LINE
  5
1C1
330
1F
100
AcDbEntity
  8
0
  6
CONTINUOUS
 62
     3
100
AcDbLine
 10
1850.751711
 20
1870.448414
 30
0.0
 11
1974.37928
 21
1870.448414
 31
0.0
  0
LINE
  5
1C2
330
1F
100
AcDbEntity
  8
0
  6
CONTINUOUS
 62
     3
100
AcDbLine
 10
1850.751711
 20
1863.448414
 30
0.0
 11
1984.141446
 21
1863.448414
 31
0.0
  0
ARC
  5
1C3
330
1F
100
AcDbEntity
  8
0
  6
CONTINUOUS
 62
     3
100
AcDbCircle
 10
2004.055988
 20
1900.448414
 30
0.0
 40
30.0
100
AcDbArc
 50
330.650201
 51
300.0
  0
ARC
  5
1C4
330
1F
100
AcDbEntity
  8
0
  6
CONTINUOUS
 62
     3
100
AcDbCircle
 10
2004.055988
 20
1900.448414
 30
0.0
 40
37.0
100
AcDbArc
 50
345.857154
 51
300.0
  0
LINE
  5
1C5
330
1F
100
AcDbEntity
  8
0
  6
CONTINUOUS
 62
     3
100
AcDbLine
 10
2149.169215
 20
1941.505654
 30
0.0
 11
2022.555988
 21
1868.405474
 31
0.0
  0
LINE
  5
1C6
330
1F
100
AcDbEntity
  8
0
  6
CONTINUOUS
 62
     3
100
AcDbLine
 10
2145.669215
 20
1947.567832
 30
0.0
 11
2019.055988
 21
1874.467652
 31
0.0
  0
LINE
  5
1C7
330
1F
100
AcDbEntity
  8
0
  6
CONTINUOUS
 62
     3
100
AcDbLine
 10
2145.919215
 20
1947.13482
 30
0.0
 11
2148.919215
 21
1941.938667
 31
0.0
  0
LINE
  5
1C8
330
1F
100
AcDbEntity
  8
0
  6
CONTINUOUS
 62
     3
100
AcDbLine
 10
2159.739723
 20
1963.196997
 30
0.0
 11
2169.739723
 21
1945.876489
 31
0.0
  0
LINE
  5
1C9
330
1F
100
AcDbEntity
  8
0
  6
CONTINUOUS
 62
     3
100
AcDbLine
 10
2159.739723
 20
1963.196997
 30
0.0
 11
2148.481393
 21
1956.696997
 31
0.0
  0
LINE
  5
1CA
330
1F
100
AcDbEntity
  8
0
  6
CONTINUOUS
 62
     3
100
AcDbLine
 10
2169.739723
 20
1945.876489
 30
0.0
 11
2158.481393
 21
1939.376489
 31
0.0
  0
ARC
  5
1CB
330
1F
100
AcDbEntity
  8
0
  6
CONTINUOUS
 62
     3
100
AcDbCircle
 10
2151.981393
 20
1950.63482
 30
0.0
 40
7.0
100
AcDbArc
 50
120.0
 51
210.0
  0
ARC
  5
1CC
330
1F
100
AcDbEntity
  8
0
  6
CONTINUOUS
 62
     3
100
AcDbCircle
 10
2154.981393
 20
1945.438667
 30
0.0
 40
7.0
100
AcDbArc
 50
210.0
 51
300.0
  0
LINE
  5
1CD
330
1F
100
AcDbEntity
  8
0
  6
CONTINUOUS
 62
     3
100
AcDbLine
 10
2170.899977
 20
1963.86687
 30
0.0
 11
2162.239723
 21
1958.86687
 31
0.0
  0
LINE
  5
1CE
330
1F
100
AcDbEntity
  8
0
  6
CONTINUOUS
 62
     3
100
AcDbLine
 10
2175.899977
 20
1955.206616
 30
0.0
 11
2167.239723
 21
1950.206616
 31
0.0
  0
TEXT
  5
1CF
330
1F
100
AcDbEntity
  8
0
  6
CONTINUOUS
 62
     5
100
AcDbText
 10
2100.456055
 20
2154.94043
 30
0.0
 40
40.0
  1
電源コード
 50
360.0
 41
0.8
  7
ED_VECTOR
100
AcDbText
  0
LINE
  5
1D0
330
1F
100
AcDbEntity
  8
0
  6
CONTINUOUS
 62
     5
100
AcDbLine
 10
2316.530429
 20
2146.822749
 30
0.0
 11
2085.497941
 21
2146.822749
 31
0.0
  0
TEXT
  5
1D1
330
1F
100
AcDbEntity
  8
0
  6
CONTINUOUS
 62
     5
100
AcDbText
 10
2148.291504
 20
2099.81543
 30
0.0
 40
40.0
  1
長サ3ｍ
 50
360.0
 41
0.8
  7
ED_VECTOR
100
AcDbText
  0
LINE
  5
1D2
330
1F
100
AcDbEntity
  8
0
  6
CONTINUOUS
 62
     5
100
AcDbLine
 10
2152.369681
 20
1958.941901
 30
0.0
 11
2085.497941
 21
2146.822749
 31
0.0
  0
INSERT
  5
1D3
330
1F
100
AcDbEntity
  8
0
  6
CONTINUOUS
 62
     5
100
AcDbBlockReference
  2
EDTIP_ARROW_S
 10
2152.369681
 20
1958.941901
 30
0.0
 41
30.0
 42
30.0
 50
289.591983
  0
LINE
  5
1D4
330
1F
100
AcDbEntity
  8
0
  6
CONTINUOUS
 62
     5
100
AcDbLine
 10
2261.259098
 20
1772.448414
 30
0.0
 11
2135.97409
 21
1555.448414
 31
0.0
  0
INSERT
  5
1D5
330
1F
100
AcDbEntity
  8
0
  6
CONTINUOUS
 62
     5
100
AcDbBlockReference
  2
EDTIP_ARROW_S
 10
2261.259098
 20
1772.448414
 30
0.0
 41
30.0
 42
30.0
 50
60.0
  0
TEXT
  5
1D6
330
1F
100
AcDbEntity
  8
0
  6
CONTINUOUS
 62
     5
100
AcDbText
 10
1484.537476
 20
1560.765381
 30
0.0
 40
40.0
  1
フットスイッチ（ＵＰ・ＤＯＷＮ）
 50
360.0
 41
0.8
  7
ED_VECTOR
100
AcDbText
  0
TEXT
  5
1D7
330
1F
100
AcDbEntity
  8
0
  6
CONTINUOUS
 62
     5
100
AcDbText
 10
1693.557007
 20
1507.369385
 30
0.0
 40
40.0
  1
コード長サ２ｍ
 50
360.0
 41
0.8
  7
ED_VECTOR
100
AcDbText
  0
LINE
  5
1D8
330
1F
100
AcDbEntity
  8
0
  6
CONTINUOUS
 62
     5
100
AcDbLine
 10
2135.97409
 20
1555.448414
 30
0.0
 11
1467.394187
 21
1555.448414
 31
0.0
  0
DIMENSION
  5
1D9
330
1F
100
AcDbEntity
  8
0
100
AcDbDimension
  2
*D14
 10
1950.751711
 20
756.901483
 30
0.0
 11
1940.751831
 21
681.901489
 31
0.0
 70
    33
  3
EDDIMINFO
100
AcDbAlignedDimension
 13
1859.751711
 23
606.901483
 33
0.0
 14
1859.751711
 24
756.901483
 34
0.0
1001
ACAD
1000
DSTYLE
1002
{
1070
     7
1000
EDTIP_ARROW_E
1070
     6
1000
EDTIP_ARROW_S
1070
   173
1070
     1
1002
}
  0
DIMENSION
  5
1E2
330
1F
100
AcDbEntity
  8
0
100
AcDbDimension
  2
*D15
 10
1950.751711
 20
756.901483
 30
0.0
 11
1940.751831
 21
1006.90155
 31
0.0
 70
    33
  3
EDDIMINFO
100
AcDbAlignedDimension
 13
1950.751711
 23
1256.901483
 33
0.0
 14
1950.751711
 24
756.901483
 34
0.0
1001
ACAD
1000
DSTYLE
1002
{
1070
     7
1000
EDTIP_ARROW_E
1070
     6
1000
EDTIP_ARROW_S
1070
   173
1070
     1
1002
}
  0
DIMENSION
  5
1EA
330
1F
100
AcDbEntity
  8
0
100
AcDbDimension
  2
*D16
 10
2050.751711
 20
1256.901483
 30
0.0
 11
2040.751831
 21
931.90155
 31
0.0
 70
    33
  3
EDDIMINFO
100
AcDbAlignedDimension
 13
1859.751711
 23
606.901483
 33
0.0
 14
1859.751711
 24
1256.901483
 34
0.0
1001
ACAD
1000
DSTYLE
1002
{
1070
     7
1000
EDTIP_ARROW_E
1070
     6
1000
EDTIP_ARROW_S
1070
   173
1070
     1
1002
}
  0
DIMENSION
  5
1F3
330
1F
100
AcDbEntity
  8
0
100
AcDbDimension
  2
*D17
 10
1715.551711
 20
506.901483
 30
0.0
 11
1514.312866
 21
512.636597
 31
0.0
 70
    33
  3
EDDIMINFO
100
AcDbAlignedDimension
 13
1135.551711
 23
587.901483
 33
0.0
 14
1715.551711
 24
587.901483
 34
0.0
1001
ACAD
1000
DSTYLE
1002
{
1070
     7
1000
EDTIP_ARROW_E
1070
     6
1000
EDTIP_ARROW_S
1070
   173
1070
     1
1002
}
  0
DIMENSION
  5
1FD
330
1F
100
AcDbEntity
  8
0
100
AcDbDimension
  2
*D18
 10
1715.551711
 20
506.901483
 30
0.0
 11
1750.40625
 21
519.196655
 31
0.0
 70
    33
  3
EDDIMINFO
100
AcDbAlignedDimension
 13
1785.551711
 23
506.901483
 33
0.0
 14
1715.551711
 24
506.901483
 34
0.0
1001
ACAD
1000
DSTYLE
1002
{
1070
     7
1000
EDTIP_ARROW_E
1070
     6
1000
EDTIP_ARROW_S
1070
   173
1070
     1
1002
}
  0
DIMENSION
  5
205
330
1F
100
AcDbEntity
  8
0
100
AcDbDimension
  2
*D19
 10
1785.551711
 20
406.901483
 30
0.0
 11
1425.551758
 21
416.901489
 31
0.0
 70
    33
  3
EDDIMINFO
100
AcDbAlignedDimension
 13
1065.551711
 23
597.901483
 33
0.0
 14
1785.551711
 24
597.901483
 34
0.0
1001
ACAD
1000
DSTYLE
1002
{
1070
     7
1000
EDTIP_ARROW_E
1070
     6
1000
EDTIP_ARROW_S
1070
   173
1070
     1
1002
}
  0
LINE
  5
20F
330
1F
100
AcDbEntity
  8
0
  6
CONTINUOUS
 62
     5
100
AcDbLine
 10
995.819924
 20
306.901483
 30
0.0
 11
827.014339
 21
306.901483
 31
0.0
  0
LINE
  5
210
330
1F
100
AcDbEntity
  8
0
  6
CONTINUOUS
 62
     5
100
AcDbLine
 10
1135.551711
 20
606.901483
 30
0.0
 11
995.819924
 21
306.901483
 31
0.0
  0
INSERT
  5
211
330
1F
100
AcDbEntity
  8
0
  6
CONTINUOUS
 62
     5
100
AcDbBlockReference
  2
EDTIP_ARROW_S
 10
1135.551711
 20
606.901483
 30
0.0
 41
30.0
 42
30.0
 50
65.025185
  0
LINE
  5
212
330
1F
100
AcDbEntity
  8
0
  6
CONTINUOUS
 62
     3
100
AcDbLine
 10
1850.751711
 20
1256.901483
 30
0.0
 11
1000.751711
 21
1256.901483
 31
0.0
  0
LINE
  5
213
330
1F
100
AcDbEntity
  8
0
  6
CONTINUOUS
 62
     3
100
AcDbLine
 10
1850.751711
 20
1218.901483
 30
0.0
 11
1000.751711
 21
1218.901483
 31
0.0
  0
LINE
  5
214
330
1F
100
AcDbEntity
  8
0
  6
CONTINUOUS
 62
     5
100
AcDbLine
 10
1509.822165
 20
606.901483
 30
0.0
 11
1509.822165
 21
606.886493
 31
0.0
  0
LINE
  5
215
330
1F
100
AcDbEntity
  8
0
  6
CONTINUOUS
 62
     3
100
AcDbLine
 10
1850.751711
 20
2215.448414
 30
0.0
 11
1000.751711
 21
2215.448414
 31
0.0
  0
LINE
  5
216
330
1F
100
AcDbEntity
  8
0
  6
CONTINUOUS
 62
     3
100
AcDbLine
 10
1850.751711
 20
1695.448414
 30
0.0
 11
1000.751711
 21
1695.448414
 31
0.0
  0
LINE
  5
217
330
1F
100
AcDbEntity
  8
0
  6
CONTINUOUS
 62
     3
100
AcDbLine
 10
852.978401
 20
1256.901483
 30
0.0
 11
852.978401
 21
1218.901483
 31
0.0
  0
LINE
  5
218
330
1F
100
AcDbEntity
  8
0
  6
CONTINUOUS
 62
     3
100
AcDbLine
 10
332.978401
 20
1256.901483
 30
0.0
 11
332.978401
 21
1218.901483
 31
0.0
  0
DIMENSION
  5
219
330
1F
100
AcDbEntity
  8
0
100
AcDbDimension
  2
*D20
 10
896.066168
 20
2215.448414
 30
0.0
 11
886.066162
 21
1955.448486
 31
0.0
 70
    33
  3
EDDIMINFO
100
AcDbAlignedDimension
 13
991.751711
 23
1695.448414
 33
0.0
 14
991.751711
 24
2215.448414
 34
0.0
1001
ACAD
1000
DSTYLE
1002
{
1070
     7
1000
EDTIP_ARROW_E
1070
     6
1000
EDTIP_ARROW_S
1070
   173
1070
     1
1002
}
  0
LINE
  5
223
330
1F
100
AcDbEntity
  8
0
  6
CONTINUOUS
 62
     3
100
AcDbLine
 10
1850.751711
 20
1256.901483
 30
0.0
 11
1850.751711
 21
1218.901483
 31
0.0
  0
LINE
  5
224
330
1F
100
AcDbEntity
  8
0
  6
CONTINUOUS
 62
     3
100
AcDbLine
 10
1000.751711
 20
1256.901483
 30
0.0
 11
1000.751711
 21
1218.901483
 31
0.0
  0
LINE
  5
225
330
1F
100
AcDbEntity
  8
0
  6
PHANTOM
 62
     5
100
AcDbLine
 10
1850.751711
 20
756.901483
 30
0.0
 11
1850.751711
 21
718.901483
 31
0.0
  0
LINE
  5
226
330
1F
100
AcDbEntity
  8
0
  6
PHANTOM
 62
     5
100
AcDbLine
 10
1000.751711
 20
756.901483
 30
0.0
 11
1000.751711
 21
718.901483
 31
0.0
  0
LINE
  5
227
330
1F
100
AcDbEntity
  8
0
  6
CONTINUOUS
 62
     3
100
AcDbLine
 10
1000.751711
 20
1695.448414
 30
0.0
 11
1000.751711
 21
2215.448414
 31
0.0
  0
LINE
  5
228
330
1F
100
AcDbEntity
  8
0
  6
CONTINUOUS
 62
     3
100
AcDbLine
 10
1850.751711
 20
1695.448414
 30
0.0
 11
1850.751711
 21
2215.448414
 31
0.0
  0
DIMENSION
  5
229
330
1F
100
AcDbEntity
  8
0
100
AcDbDimension
  2
*D21
 10
1850.751711
 20
1356.901483
 30
0.0
 11
1425.751709
 21
1366.901489
 31
0.0
 70
    33
  3
EDDIMINFO
100
AcDbAlignedDimension
 13
1000.751711
 23
1265.901483
 33
0.0
 14
1850.751711
 24
1265.901483
 34
0.0
1001
ACAD
1000
DSTYLE
1002
{
1070
     7
1000
EDTIP_ARROW_E
1070
     6
1000
EDTIP_ARROW_S
1070
   173
1070
     1
1002
}
  0
LINE
  5
233
330
1F
100
AcDbEntity
  8
0
  6
CONTINUOUS
 62
     5
100
AcDbLine
 10
3399.830225
 20
2195.618927
 30
0.0
 11
2678.957708
 21
2195.618927
 31
0.0
  0
LINE
  5
234
330
1F
100
AcDbEntity
  8
0
  6
CONTINUOUS
 62
     5
100
AcDbLine
 10
3399.830225
 20
2131.618929
 30
0.0
 11
2678.957708
 21
2131.618929
 31
0.0
  0
LINE
  5
235
330
1F
100
AcDbEntity
  8
0
  6
CONTINUOUS
 62
     5
100
AcDbLine
 10
3399.830225
 20
2067.61893
 30
0.0
 11
2678.957708
 21
2067.61893
 31
0.0
  0
LINE
  5
236
330
1F
100
AcDbEntity
  8
0
  6
CONTINUOUS
 62
     5
100
AcDbLine
 10
3399.830225
 20
2003.618932
 30
0.0
 11
2679.830243
 21
2003.618932
 31
0.0
  0
LINE
  5
237
330
1F
100
AcDbEntity
  8
0
  6
CONTINUOUS
 62
     5
100
AcDbLine
 10
3399.830225
 20
1939.618934
 30
0.0
 11
2678.957708
 21
1939.618934
 31
0.0
  0
LINE
  5
238
330
1F
100
AcDbEntity
  8
0
  6
CONTINUOUS
 62
     5
100
AcDbLine
 10
3399.830225
 20
1875.618935
 30
0.0
 11
2678.957708
 21
1875.618935
 31
0.0
  0
LINE
  5
239
330
1F
100
AcDbEntity
  8
0
  6
CONTINUOUS
 62
     5
100
AcDbLine
 10
3399.830225
 20
1811.618937
 30
0.0
 11
2678.957708
 21
1811.618937
 31
0.0
  0
LINE
  5
23A
330
1F
100
AcDbEntity
  8
0
  6
CONTINUOUS
 62
     5
100
AcDbLine
 10
3399.830225
 20
1747.618938
 30
0.0
 11
2678.957708
 21
1747.618938
 31
0.0
  0
LINE
  5
23B
330
1F
100
AcDbEntity
  8
0
  6
CONTINUOUS
 62
     5
100
AcDbLine
 10
3399.830225
 20
1683.61894
 30
0.0
 11
2678.957708
 21
1683.61894
 31
0.0
  0
LINE
  5
23C
330
1F
100
AcDbEntity
  8
0
  6
CONTINUOUS
 62
     5
100
AcDbLine
 10
3399.830225
 20
1619.618942
 30
0.0
 11
2678.957708
 21
1619.618942
 31
0.0
  0
LINE
  5
23D
330
1F
100
AcDbEntity
  8
0
  6
CONTINUOUS
 62
     5
100
AcDbLine
 10
3399.830225
 20
1491.618945
 30
0.0
 11
2678.957708
 21
1491.618945
 31
0.0
  0
TEXT
  5
23E
330
1F
100
AcDbEntity
  8
0
  6
CONTINUOUS
 62
     5
100
AcDbText
 10
2874.681396
 20
2275.438232
 30
0.0
 40
40.0
  1
仕   様
 41
0.8
  7
ED_VECTOR
100
AcDbText
  0
TEXT
  5
23F
330
1F
100
AcDbEntity
  8
0
  6
CONTINUOUS
 62
     5
100
AcDbText
 10
2689.716797
 20
2203.842285
 30
0.0
 40
40.0
  1
型    式
 41
0.8
  7
ED_VECTOR
100
AcDbText
  0
TEXT
  5
240
330
1F
100
AcDbEntity
  8
0
  6
CONTINUOUS
 62
     5
100
AcDbText
 10
2687.897461
 20
2081.352295
 30
0.0
 40
40.0
  1
テーブル寸法
 41
0.8
  7
ED_VECTOR
100
AcDbText
  0
TEXT
  5
241
330
1F
100
AcDbEntity
  8
0
  6
CONTINUOUS
 62
     5
100
AcDbText
 10
2689.716797
 20
2018.28772
 30
0.0
 40
40.0
  1
テーブル高サ
 41
0.8
  7
ED_VECTOR
100
AcDbText
  0
TEXT
  5
242
330
1F
100
AcDbEntity
  8
0
  6
CONTINUOUS
 62
     5
100
AcDbText
 10
2691.163818
 20
1953.404907
 30
0.0
 40
40.0
  1
ストローク
 41
0.8
  7
ED_VECTOR
100
AcDbText
  0
TEXT
  5
243
330
1F
100
AcDbEntity
  8
0
  6
CONTINUOUS
 62
     5
100
AcDbText
 10
2690.557617
 20
1888.522095
 30
0.0
 40
40.0
  1
全   長
 41
0.8
  7
ED_VECTOR
100
AcDbText
  0
TEXT
  5
244
330
1F
100
AcDbEntity
  8
0
  6
CONTINUOUS
 62
     5
100
AcDbText
 10
2692.828613
 20
1822.671387
 30
0.0
 40
40.0
  1
全   巾
 41
0.8
  7
ED_VECTOR
100
AcDbText
  0
TEXT
  5
245
330
1F
100
AcDbEntity
  8
0
  6
CONTINUOUS
 62
     5
100
AcDbText
 10
2691.270752
 20
1758.786621
 30
0.0
 40
40.0
  1
全   高
 41
0.8
  7
ED_VECTOR
100
AcDbText
  0
TEXT
  5
246
330
1F
100
AcDbEntity
  8
0
  6
CONTINUOUS
 62
     5
100
AcDbText
 10
2691.270752
 20
1696.459961
 30
0.0
 40
40.0
  1
リフト方式
 41
0.8
  7
ED_VECTOR
100
AcDbText
  0
TEXT
  5
247
330
1F
100
AcDbEntity
  8
0
  6
CONTINUOUS
 62
     5
100
AcDbText
 10
2694.059814
 20
1502.210449
 30
0.0
 40
40.0
  1
モーター
 41
0.8
  7
ED_VECTOR
100
AcDbText
  0
LINE
  5
248
330
1F
100
AcDbEntity
  8
0
  6
CONTINUOUS
 62
     5
100
AcDbLine
 10
3399.830225
 20
1427.618946
 30
0.0
 11
2678.957708
 21
1427.618946
 31
0.0
  0
LINE
  5
249
330
1F
100
AcDbEntity
  8
0
  6
CONTINUOUS
 62
     5
100
AcDbLine
 10
3399.830225
 20
1299.61895
 30
0.0
 11
2676.819206
 21
1299.61895
 31
0.0
  0
LINE
  5
24A
330
1F
100
AcDbEntity
  8
0
  6
CONTINUOUS
 62
     5
100
AcDbLine
 10
3399.830225
 20
1235.618951
 30
0.0
 11
2678.957708
 21
1235.618951
 31
0.0
  0
LINE
  5
24B
330
1F
100
AcDbEntity
  8
0
  6
CONTINUOUS
 62
     5
100
AcDbLine
 10
3399.830225
 20
1171.618953
 30
0.0
 11
2678.957708
 21
1171.618953
 31
0.0
  0
LINE
  5
24C
330
1F
100
AcDbEntity
  8
0
  6
CONTINUOUS
 62
     5
100
AcDbLine
 10
3399.830225
 20
1107.618954
 30
0.0
 11
2678.957708
 21
1107.618954
 31
0.0
  0
TEXT
  5
24D
330
1F
100
AcDbEntity
  8
0
  6
CONTINUOUS
 62
     5
100
AcDbText
 10
2692.711914
 20
1118.741089
 30
0.0
 40
40.0
  1
自  　重
 41
0.8
  7
ED_VECTOR
100
AcDbText
  0
TEXT
  5
24E
330
1F
100
AcDbEntity
  8
0
  6
CONTINUOUS
 62
     5
100
AcDbText
 10
3329.296143
 20
2138.677246
 30
0.0
 40
40.0
  1
Ｋｇ
 41
0.8
  7
ED_VECTOR
100
AcDbText
  0
TEXT
  5
24F
330
1F
100
AcDbEntity
  8
0
  6
CONTINUOUS
 62
     5
100
AcDbText
 10
3268.257568
 20
2088.191406
 30
0.0
 40
40.0
  1
Ｗ
 41
0.8
  7
ED_VECTOR
100
AcDbText
  0
TEXT
  5
250
330
1F
100
AcDbEntity
  8
0
  6
CONTINUOUS
 62
     5
100
AcDbText
 10
3105.135986
 20
2090.813721
 30
0.0
 40
40.0
  1
Ｌ
 41
0.8
  7
ED_VECTOR
100
AcDbText
  0
TEXT
  5
251
330
1F
100
AcDbEntity
  8
0
  6
CONTINUOUS
 62
     5
100
AcDbText
 10
3095.318604
 20
1119.527588
 30
0.0
 40
40.0
  1
約　６０  　Ｋｇ
 41
0.8
  7
ED_VECTOR
100
AcDbText
  0
TEXT
  5
252
330
1F
100
AcDbEntity
  8
0
  6
CONTINUOUS
 62
     5
100
AcDbText
 10
3326.781982
 20
2074.574219
 30
0.0
 40
40.0
  1
mm
 41
0.8
  7
ED_VECTOR
100
AcDbText
  0
TEXT
  5
253
330
1F
100
AcDbEntity
  8
0
  6
CONTINUOUS
 62
     5
100
AcDbText
 10
3326.781982
 20
2014.240112
 30
0.0
 40
40.0
  1
mm
 41
0.8
  7
ED_VECTOR
100
AcDbText
  0
TEXT
  5
254
330
1F
100
AcDbEntity
  8
0
  6
CONTINUOUS
 62
     5
100
AcDbText
 10
3323.010986
 20
1950.13623
 30
0.0
 40
40.0
  1
mm
 41
0.8
  7
ED_VECTOR
100
AcDbText
  0
TEXT
  5
255
330
1F
100
AcDbEntity
  8
0
  6
CONTINUOUS
 62
     5
100
AcDbText
 10
3323.010986
 20
1882.26123
 30
0.0
 40
40.0
  1
mm
 41
0.8
  7
ED_VECTOR
100
AcDbText
  0
TEXT
  5
256
330
1F
100
AcDbEntity
  8
0
  6
CONTINUOUS
 62
     5
100
AcDbText
 10
3320.497314
 20
1821.928345
 30
0.0
 40
40.0
  1
mm
 41
0.8
  7
ED_VECTOR
100
AcDbText
  0
TEXT
  5
257
330
1F
100
AcDbEntity
  8
0
  6
CONTINUOUS
 62
     5
100
AcDbText
 10
3320.497314
 20
1757.824097
 30
0.0
 40
40.0
  1
mm
 41
0.8
  7
ED_VECTOR
100
AcDbText
  0
LINE
  5
258
330
1F
100
AcDbEntity
  8
0
  6
CONTINUOUS
 62
     5
100
AcDbLine
 10
3062.734646
 20
2259.618926
 30
0.0
 11
2854.348674
 21
2259.618926
 31
0.0
  0
LINE
  5
259
330
1F
100
AcDbEntity
  8
0
  6
CONTINUOUS
 62
     5
100
AcDbLine
 10
3062.734646
 20
2267.618925
 30
0.0
 11
2854.348674
 21
2267.618925
 31
0.0
  0
LINE
  5
25A
330
1F
100
AcDbEntity
  8
0
  6
CONTINUOUS
 62
     5
100
AcDbLine
 10
3399.830225
 20
1363.618948
 30
0.0
 11
2678.957708
 21
1363.618948
 31
0.0
  0
TEXT
  5
25B
330
1F
100
AcDbEntity
  8
0
  6
CONTINUOUS
 62
     5
100
AcDbText
 10
2723.398926
 20
2141.479004
 30
0.0
 40
40.0
  1
均等荷重
 41
0.8
  7
ED_VECTOR
100
AcDbText
  0
TEXT
  5
25C
330
1F
100
AcDbEntity
  8
0
  6
CONTINUOUS
 62
     5
100
AcDbText
 10
2692.175049
 20
1378.095581
 30
0.0
 40
40.0
  1
上昇時間
 41
0.8
  7
ED_VECTOR
100
AcDbText
  0
TEXT
  5
25D
330
1F
100
AcDbEntity
  8
0
  6
CONTINUOUS
 62
     5
100
AcDbText
 10
3010.450928
 20
2077.145752
 30
0.0
 40
40.0
  1
８５０　×５２０
 41
0.8
  7
ED_VECTOR
100
AcDbText
  0
TEXT
  5
25E
330
1F
100
AcDbEntity
  8
0
  6
CONTINUOUS
 62
     5
100
AcDbText
 10
3164.867432
 20
1951.393188
 30
0.0
 40
40.0
  1
５００
 41
0.8
  7
ED_VECTOR
100
AcDbText
  0
TEXT
  5
25F
330
1F
100
AcDbEntity
  8
0
  6
CONTINUOUS
 62
     5
100
AcDbText
 10
3054.274658
 20
2016.979858
 30
0.0
 40
40.0
  1
１５０～６５０
 41
0.8
  7
ED_VECTOR
100
AcDbText
  0
TEXT
  5
260
330
1F
100
AcDbEntity
  8
0
  6
CONTINUOUS
 62
     5
100
AcDbText
 10
3164.180908
 20
1886.73584
 30
0.0
 40
40.0
  1
８５０
 41
0.8
  7
ED_VECTOR
100
AcDbText
  0
TEXT
  5
261
330
1F
100
AcDbEntity
  8
0
  6
CONTINUOUS
 62
     5
100
AcDbText
 10
3164.867432
 20
1821.615479
 30
0.0
 40
40.0
  1
５２０
 41
0.8
  7
ED_VECTOR
100
AcDbText
  0
TEXT
  5
262
330
1F
100
AcDbEntity
  8
0
  6
CONTINUOUS
 62
     5
100
AcDbText
 10
3164.568604
 20
1757.356689
 30
0.0
 40
40.0
  1
１５０
 41
0.8
  7
ED_VECTOR
100
AcDbText
  0
TEXT
  5
263
330
1F
100
AcDbEntity
  8
0
  6
CONTINUOUS
 62
     5
100
AcDbText
 10
2693.400391
 20
1632.398682
 30
0.0
 40
40.0
  1
操作方式
 41
0.8
  7
ED_VECTOR
100
AcDbText
  0
TEXT
  5
264
330
1F
100
AcDbEntity
  8
0
  6
CONTINUOUS
 62
     5
100
AcDbText
 10
2943.872314
 20
1693.808838
 30
0.0
 40
40.0
  1
電動ボールネジ方式
 41
0.8
  7
ED_VECTOR
100
AcDbText
  0
TEXT
  5
265
330
1F
100
AcDbEntity
  8
0
  6
CONTINUOUS
 62
     5
100
AcDbText
 10
2882.691162
 20
1629.432617
 30
0.0
 40
40.0
  1
フットスイッチ（マイコン搭載）
 41
0.8
  7
ED_VECTOR
100
AcDbText
  0
TEXT
  5
266
330
1F
100
AcDbEntity
  8
0
  6
CONTINUOUS
 62
     5
100
AcDbText
 10
2965.818604
 20
1502.519775
 30
0.0
 40
40.0
  1
ＤＣ９０Ｖ,７０Ｗ
 41
0.8
  7
ED_VECTOR
100
AcDbText
  0
TEXT
  5
267
330
1F
100
AcDbEntity
  8
0
  6
CONTINUOUS
 62
     5
100
AcDbText
 10
2694.7146
 20
1439.042847
 30
0.0
 40
40.0
  1
電　　源
 41
0.8
  7
ED_VECTOR
100
AcDbText
  0
TEXT
  5
268
330
1F
100
AcDbEntity
  8
0
  6
CONTINUOUS
 62
     5
100
AcDbText
 10
2893.375732
 20
1439.606934
 30
0.0
 40
40.0
  1
ＡＣ１００Ｖ,５０／６０HZ
 41
0.8
  7
ED_VECTOR
100
AcDbText
  0
TEXT
  5
269
330
1F
100
AcDbEntity
  8
0
  6
CONTINUOUS
 62
     5
100
AcDbText
 10
2690.036621
 20
1314.095581
 30
0.0
 40
40.0
  1
下降時間
 41
0.8
  7
ED_VECTOR
100
AcDbText
  0
TEXT
  5
26A
330
1F
100
AcDbEntity
  8
0
  6
CONTINUOUS
 62
     5
100
AcDbText
 10
2691.559326
 20
1184.670898
 30
0.0
 40
40.0
  1
最大使用頻度
 41
0.8
  7
ED_VECTOR
100
AcDbText
  0
TEXT
  5
26B
330
1F
100
AcDbEntity
  8
0
  6
CONTINUOUS
 62
     5
100
AcDbText
 10
3071.6604
 20
1184.533081
 30
0.0
 40
40.0
  1
１５回／時
 41
0.8
  7
ED_VECTOR
100
AcDbText
  0
LINE
  5
26C
330
1F
100
AcDbEntity
  8
0
  6
CONTINUOUS
 62
     3
100
AcDbLine
 10
847.978401
 20
623.901483
 30
0.0
 11
337.978401
 21
623.901483
 31
0.0
  0
LINE
  5
26D
330
1F
100
AcDbEntity
  8
0
  6
CONTINUOUS
 62
     3
100
AcDbLine
 10
847.978401
 20
623.901483
 30
0.0
 11
847.978401
 21
620.901483
 31
0.0
  0
LINE
  5
26E
330
1F
100
AcDbEntity
  8
0
  6
CONTINUOUS
 62
     3
100
AcDbLine
 10
337.978401
 20
623.901483
 30
0.0
 11
337.978401
 21
620.901483
 31
0.0
  0
LINE
  5
26F
330
1F
100
AcDbEntity
  8
0
  6
CONTINUOUS
 62
     3
100
AcDbLine
 10
797.978401
 20
623.901483
 30
0.0
 11
847.978401
 21
652.768997
 31
0.0
  0
LINE
  5
270
330
1F
100
AcDbEntity
  8
0
  6
CONTINUOUS
 62
     3
100
AcDbLine
 10
797.978401
 20
681.63651
 30
0.0
 11
847.978401
 21
652.768997
 31
0.0
  0
LINE
  5
271
330
1F
100
AcDbEntity
  8
0
  6
CONTINUOUS
 62
     3
100
AcDbLine
 10
797.978401
 20
739.371537
 30
0.0
 11
847.978401
 21
710.504024
 31
0.0
  0
LINE
  5
272
330
1F
100
AcDbEntity
  8
0
  6
CONTINUOUS
 62
     3
100
AcDbLine
 10
797.978401
 20
681.63651
 30
0.0
 11
847.978401
 21
710.504024
 31
0.0
  0
LINE
  5
273
330
1F
100
AcDbEntity
  8
0
  6
CONTINUOUS
 62
     3
100
AcDbLine
 10
797.978401
 20
797.106564
 30
0.0
 11
847.978401
 21
768.239051
 31
0.0
  0
LINE
  5
274
330
1F
100
AcDbEntity
  8
0
  6
CONTINUOUS
 62
     3
100
AcDbLine
 10
797.978401
 20
739.371537
 30
0.0
 11
847.978401
 21
768.239051
 31
0.0
  0
LINE
  5
275
330
1F
100
AcDbEntity
  8
0
  6
CONTINUOUS
 62
     3
100
AcDbLine
 10
797.978401
 20
854.841591
 30
0.0
 11
847.978401
 21
825.974078
 31
0.0
  0
LINE
  5
276
330
1F
100
AcDbEntity
  8
0
  6
CONTINUOUS
 62
     3
100
AcDbLine
 10
797.978401
 20
797.106564
 30
0.0
 11
847.978401
 21
825.974078
 31
0.0
  0
LINE
  5
277
330
1F
100
AcDbEntity
  8
0
  6
CONTINUOUS
 62
     3
100
AcDbLine
 10
797.978401
 20
912.576618
 30
0.0
 11
847.978401
 21
883.709105
 31
0.0
  0
LINE
  5
278
330
1F
100
AcDbEntity
  8
0
  6
CONTINUOUS
 62
     3
100
AcDbLine
 10
797.978401
 20
854.841591
 30
0.0
 11
847.978401
 21
883.709105
 31
0.0
  0
LINE
  5
279
330
1F
100
AcDbEntity
  8
0
  6
CONTINUOUS
 62
     3
100
AcDbLine
 10
797.978401
 20
970.311645
 30
0.0
 11
847.978401
 21
941.444131
 31
0.0
  0
LINE
  5
27A
330
1F
100
AcDbEntity
  8
0
  6
CONTINUOUS
 62
     3
100
AcDbLine
 10
797.978401
 20
912.576618
 30
0.0
 11
847.978401
 21
941.444131
 31
0.0
  0
LINE
  5
27B
330
1F
100
AcDbEntity
  8
0
  6
CONTINUOUS
 62
     3
100
AcDbLine
 10
797.978401
 20
1028.046672
 30
0.0
 11
847.978401
 21
999.179158
 31
0.0
  0
LINE
  5
27C
330
1F
100
AcDbEntity
  8
0
  6
CONTINUOUS
 62
     3
100
AcDbLine
 10
797.978401
 20
970.311645
 30
0.0
 11
847.978401
 21
999.179158
 31
0.0
  0
LINE
  5
27D
330
1F
100
AcDbEntity
  8
0
  6
CONTINUOUS
 62
     3
100
AcDbLine
 10
797.978401
 20
1085.781699
 30
0.0
 11
847.978401
 21
1056.914185
 31
0.0
  0
LINE
  5
27E
330
1F
100
AcDbEntity
  8
0
  6
CONTINUOUS
 62
     3
100
AcDbLine
 10
797.978401
 20
1028.046672
 30
0.0
 11
847.978401
 21
1056.914185
 31
0.0
  0
LINE
  5
27F
330
1F
100
AcDbEntity
  8
0
  6
CONTINUOUS
 62
     3
100
AcDbLine
 10
797.978401
 20
1143.516726
 30
0.0
 11
847.978401
 21
1114.649212
 31
0.0
  0
LINE
  5
280
330
1F
100
AcDbEntity
  8
0
  6
CONTINUOUS
 62
     3
100
AcDbLine
 10
797.978401
 20
1085.781699
 30
0.0
 11
847.978401
 21
1114.649212
 31
0.0
  0
LINE
  5
281
330
1F
100
AcDbEntity
  8
0
  6
CONTINUOUS
 62
     3
100
AcDbLine
 10
797.978401
 20
1201.251753
 30
0.0
 11
847.978401
 21
1172.384239
 31
0.0
  0
LINE
  5
282
330
1F
100
AcDbEntity
  8
0
  6
CONTINUOUS
 62
     3
100
AcDbLine
 10
797.978401
 20
1143.516726
 30
0.0
 11
847.978401
 21
1172.384239
 31
0.0
  0
LINE
  5
283
330
1F
100
AcDbEntity
  8
0
  6
CONTINUOUS
 62
     3
100
AcDbLine
 10
797.978401
 20
1201.251753
 30
0.0
 11
828.548631
 21
1218.901483
 31
0.0
  0
LINE
  5
284
330
1F
100
AcDbEntity
  8
0
  6
CONTINUOUS
 62
     3
100
AcDbLine
 10
387.978401
 20
912.576618
 30
0.0
 11
337.978401
 21
883.709105
 31
0.0
  0
LINE
  5
285
330
1F
100
AcDbEntity
  8
0
  6
CONTINUOUS
 62
     3
100
AcDbLine
 10
387.978401
 20
970.311645
 30
0.0
 11
337.978401
 21
941.444131
 31
0.0
  0
LINE
  5
286
330
1F
100
AcDbEntity
  8
0
  6
CONTINUOUS
 62
     3
100
AcDbLine
 10
387.978401
 20
912.576618
 30
0.0
 11
337.978401
 21
941.444131
 31
0.0
  0
LINE
  5
287
330
1F
100
AcDbEntity
  8
0
  6
CONTINUOUS
 62
     3
100
AcDbLine
 10
387.978401
 20
1028.046672
 30
0.0
 11
337.978401
 21
999.179158
 31
0.0
  0
LINE
  5
288
330
1F
100
AcDbEntity
  8
0
  6
CONTINUOUS
 62
     3
100
AcDbLine
 10
387.978401
 20
970.311645
 30
0.0
 11
337.978401
 21
999.179158
 31
0.0
  0
LINE
  5
289
330
1F
100
AcDbEntity
  8
0
  6
CONTINUOUS
 62
     3
100
AcDbLine
 10
387.978401
 20
1085.781699
 30
0.0
 11
337.978401
 21
1056.914185
 31
0.0
  0
LINE
  5
28A
330
1F
100
AcDbEntity
  8
0
  6
CONTINUOUS
 62
     3
100
AcDbLine
 10
387.978401
 20
1028.046672
 30
0.0
 11
337.978401
 21
1056.914185
 31
0.0
  0
LINE
  5
28B
330
1F
100
AcDbEntity
  8
0
  6
CONTINUOUS
 62
     3
100
AcDbLine
 10
387.978401
 20
1143.516726
 30
0.0
 11
337.978401
 21
1114.649212
 31
0.0
  0
LINE
  5
28C
330
1F
100
AcDbEntity
  8
0
  6
CONTINUOUS
 62
     3
100
AcDbLine
 10
387.978401
 20
1085.781699
 30
0.0
 11
337.978401
 21
1114.649212
 31
0.0
  0
LINE
  5
28D
330
1F
100
AcDbEntity
  8
0
  6
CONTINUOUS
 62
     3
100
AcDbLine
 10
387.978401
 20
1143.516726
 30
0.0
 11
337.978401
 21
1172.384239
 31
0.0
  0
LINE
  5
28E
330
1F
100
AcDbEntity
  8
0
  6
CONTINUOUS
 62
     3
100
AcDbLine
 10
387.978401
 20
854.841591
 30
0.0
 11
337.978401
 21
825.974078
 31
0.0
  0
LINE
  5
28F
330
1F
100
AcDbEntity
  8
0
  6
CONTINUOUS
 62
     3
100
AcDbLine
 10
387.978401
 20
854.841591
 30
0.0
 11
337.978401
 21
883.709105
 31
0.0
  0
LINE
  5
290
330
1F
100
AcDbEntity
  8
0
  6
CONTINUOUS
 62
     3
100
AcDbLine
 10
387.978401
 20
1201.251753
 30
0.0
 11
337.978401
 21
1172.384239
 31
0.0
  0
LINE
  5
291
330
1F
100
AcDbEntity
  8
0
  6
CONTINUOUS
 62
     3
100
AcDbLine
 10
387.978401
 20
1201.251753
 30
0.0
 11
357.40817
 21
1218.901483
 31
0.0
  0
LINE
  5
292
330
1F
100
AcDbEntity
  8
0
  6
CONTINUOUS
 62
     3
100
AcDbLine
 10
387.978401
 20
797.106564
 30
0.0
 11
337.978401
 21
825.974078
 31
0.0
  0
LINE
  5
293
330
1F
100
AcDbEntity
  8
0
  6
CONTINUOUS
 62
     3
100
AcDbLine
 10
387.978401
 20
797.106564
 30
0.0
 11
337.978401
 21
768.239051
 31
0.0
  0
LINE
  5
294
330
1F
100
AcDbEntity
  8
0
  6
CONTINUOUS
 62
     3
100
AcDbLine
 10
387.978401
 20
739.371537
 30
0.0
 11
337.978401
 21
768.239051
 31
0.0
  0
LINE
  5
295
330
1F
100
AcDbEntity
  8
0
  6
CONTINUOUS
 62
     3
100
AcDbLine
 10
387.978401
 20
739.371537
 30
0.0
 11
337.978401
 21
710.504024
 31
0.0
  0
LINE
  5
296
330
1F
100
AcDbEntity
  8
0
  6
CONTINUOUS
 62
     3
100
AcDbLine
 10
387.978401
 20
681.63651
 30
0.0
 11
337.978401
 21
710.504024
 31
0.0
  0
LINE
  5
297
330
1F
100
AcDbEntity
  8
0
  6
CONTINUOUS
 62
     3
100
AcDbLine
 10
387.978401
 20
681.63651
 30
0.0
 11
337.978401
 21
652.768997
 31
0.0
  0
LINE
  5
298
330
1F
100
AcDbEntity
  8
0
  6
CONTINUOUS
 62
     3
100
AcDbLine
 10
387.978401
 20
623.901483
 30
0.0
 11
337.978401
 21
652.768997
 31
0.0
  0
DIMENSION
  5
299
330
1F
100
AcDbEntity
  8
0
100
AcDbDimension
  2
*D22
 10
792.978401
 20
432.681094
 30
0.0
 11
592.978394
 21
442.681091
 31
0.0
 70
    33
  3
EDDIMINFO
100
AcDbAlignedDimension
 13
392.978401
 23
597.901483
 33
0.0
 14
792.978401
 24
597.901483
 34
0.0
1001
ACAD
1000
DSTYLE
1002
{
1070
     7
1000
EDTIP_ARROW_E
1070
     6
1000
EDTIP_ARROW_S
1070
   173
1070
     1
1002
}
  0
DIMENSION
  5
2A3
330
1F
100
AcDbEntity
  8
0
100
AcDbDimension
  2
*D23
 10
847.978401
 20
368.908942
 30
0.0
 11
592.978394
 21
378.908936
 31
0.0
 70
    33
  3
EDDIMINFO
100
AcDbAlignedDimension
 13
337.978401
 23
611.701483
 33
0.0
 14
847.978401
 24
611.701483
 34
0.0
1001
ACAD
1000
DSTYLE
1002
{
1070
     7
1000
EDTIP_ARROW_E
1070
     6
1000
EDTIP_ARROW_S
1070
   173
1070
     1
1002
}
  0
LINE
  5
2AD
330
1F
100
AcDbEntity
  8
0
  6
CONTINUOUS
 62
     3
100
AcDbLine
 10
1845.551711
 20
623.901483
 30
0.0
 11
1005.551711
 21
623.901483
 31
0.0
  0
LINE
  5
2AE
330
1F
100
AcDbEntity
  8
0
  6
CONTINUOUS
 62
     3
100
AcDbLine
 10
1005.551711
 20
623.901483
 30
0.0
 11
1005.551711
 21
620.901483
 31
0.0
  0
LINE
  5
2AF
330
1F
100
AcDbEntity
  8
0
  6
CONTINUOUS
 62
     3
100
AcDbLine
 10
1845.551711
 20
623.901483
 30
0.0
 11
1845.551711
 21
620.901483
 31
0.0
  0
LINE
  5
2B0
330
1F
100
AcDbEntity
  8
0
  6
CONTINUOUS
 62
     3
100
AcDbLine
 10
1055.551711
 20
797.106564
 30
0.0
 11
1005.551711
 21
768.239051
 31
0.0
  0
LINE
  5
2B1
330
1F
100
AcDbEntity
  8
0
  6
CONTINUOUS
 62
     3
100
AcDbLine
 10
1055.551711
 20
854.841591
 30
0.0
 11
1005.551711
 21
825.974078
 31
0.0
  0
LINE
  5
2B2
330
1F
100
AcDbEntity
  8
0
  6
CONTINUOUS
 62
     3
100
AcDbLine
 10
1055.551711
 20
797.106564
 30
0.0
 11
1005.551711
 21
825.974078
 31
0.0
  0
LINE
  5
2B3
330
1F
100
AcDbEntity
  8
0
  6
CONTINUOUS
 62
     3
100
AcDbLine
 10
1055.551711
 20
912.576618
 30
0.0
 11
1005.551711
 21
883.709105
 31
0.0
  0
LINE
  5
2B4
330
1F
100
AcDbEntity
  8
0
  6
CONTINUOUS
 62
     3
100
AcDbLine
 10
1055.551711
 20
854.841591
 30
0.0
 11
1005.551711
 21
883.709105
 31
0.0
  0
LINE
  5
2B5
330
1F
100
AcDbEntity
  8
0
  6
CONTINUOUS
 62
     3
100
AcDbLine
 10
1055.551711
 20
970.311645
 30
0.0
 11
1005.551711
 21
941.444131
 31
0.0
  0
LINE
  5
2B6
330
1F
100
AcDbEntity
  8
0
  6
CONTINUOUS
 62
     3
100
AcDbLine
 10
1055.551711
 20
912.576618
 30
0.0
 11
1005.551711
 21
941.444131
 31
0.0
  0
LINE
  5
2B7
330
1F
100
AcDbEntity
  8
0
  6
CONTINUOUS
 62
     3
100
AcDbLine
 10
1055.551711
 20
1028.046672
 30
0.0
 11
1005.551711
 21
999.179158
 31
0.0
  0
LINE
  5
2B8
330
1F
100
AcDbEntity
  8
0
  6
CONTINUOUS
 62
     3
100
AcDbLine
 10
1055.551711
 20
970.311645
 30
0.0
 11
1005.551711
 21
999.179158
 31
0.0
  0
LINE
  5
2B9
330
1F
100
AcDbEntity
  8
0
  6
CONTINUOUS
 62
     3
100
AcDbLine
 10
1055.551711
 20
1085.781699
 30
0.0
 11
1005.551711
 21
1056.914185
 31
0.0
  0
LINE
  5
2BA
330
1F
100
AcDbEntity
  8
0
  6
CONTINUOUS
 62
     3
100
AcDbLine
 10
1055.551711
 20
1028.046672
 30
0.0
 11
1005.551711
 21
1056.914185
 31
0.0
  0
LINE
  5
2BB
330
1F
100
AcDbEntity
  8
0
  6
CONTINUOUS
 62
     3
100
AcDbLine
 10
1055.551711
 20
1143.516726
 30
0.0
 11
1005.551711
 21
1114.649212
 31
0.0
  0
LINE
  5
2BC
330
1F
100
AcDbEntity
  8
0
  6
CONTINUOUS
 62
     3
100
AcDbLine
 10
1055.551711
 20
1085.781699
 30
0.0
 11
1005.551711
 21
1114.649212
 31
0.0
  0
LINE
  5
2BD
330
1F
100
AcDbEntity
  8
0
  6
CONTINUOUS
 62
     3
100
AcDbLine
 10
1055.551711
 20
1201.251753
 30
0.0
 11
1005.551711
 21
1172.384239
 31
0.0
  0
LINE
  5
2BE
330
1F
100
AcDbEntity
  8
0
  6
CONTINUOUS
 62
     3
100
AcDbLine
 10
1055.551711
 20
1201.251753
 30
0.0
 11
1024.981481
 21
1218.901483
 31
0.0
  0
LINE
  5
2BF
330
1F
100
AcDbEntity
  8
0
  6
CONTINUOUS
 62
     3
100
AcDbLine
 10
1055.551711
 20
1143.516726
 30
0.0
 11
1005.551711
 21
1172.384239
 31
0.0
  0
LINE
  5
2C0
330
1F
100
AcDbEntity
  8
0
  6
CONTINUOUS
 62
     3
100
AcDbLine
 10
1055.551711
 20
739.371537
 30
0.0
 11
1005.551711
 21
768.239051
 31
0.0
  0
LINE
  5
2C1
330
1F
100
AcDbEntity
  8
0
  6
CONTINUOUS
 62
     3
100
AcDbLine
 10
1055.551711
 20
739.371537
 30
0.0
 11
1005.551711
 21
710.504024
 31
0.0
  0
LINE
  5
2C2
330
1F
100
AcDbEntity
  8
0
  6
CONTINUOUS
 62
     3
100
AcDbLine
 10
1055.551711
 20
681.63651
 30
0.0
 11
1005.551711
 21
710.504024
 31
0.0
  0
LINE
  5
2C3
330
1F
100
AcDbEntity
  8
0
  6
CONTINUOUS
 62
     3
100
AcDbLine
 10
1055.551711
 20
681.63651
 30
0.0
 11
1005.551711
 21
652.768997
 31
0.0
  0
LINE
  5
2C4
330
1F
100
AcDbEntity
  8
0
  6
CONTINUOUS
 62
     3
100
AcDbLine
 10
1055.551711
 20
623.901483
 30
0.0
 11
1005.551711
 21
652.768997
 31
0.0
  0
LINE
  5
2C5
330
1F
100
AcDbEntity
  8
0
  6
CONTINUOUS
 62
     5
100
AcDbLine
 10
1850.751711
 20
756.901483
 30
0.0
 11
1837.105004
 21
756.901483
 31
0.0
  0
LINE
  5
2C6
330
1F
100
AcDbEntity
  8
0
  6
CONTINUOUS
 62
     5
100
AcDbLine
 10
1850.751711
 20
718.901483
 30
0.0
 11
1837.105004
 21
718.901483
 31
0.0
  0
LINE
  5
2C7
330
1F
100
AcDbEntity
  8
0
  6
CONTINUOUS
 62
     5
100
AcDbLine
 10
1850.751711
 20
718.901483
 30
0.0
 11
1850.751711
 21
728.177205
 31
0.0
  0
LINE
  5
2C8
330
1F
100
AcDbEntity
  8
0
  6
CONTINUOUS
 62
     5
100
AcDbLine
 10
1850.751711
 20
749.582791
 30
0.0
 11
1850.751711
 21
756.901483
 31
0.0
  0
LINE
  5
2C9
330
1F
100
AcDbEntity
  8
0
  6
CONTINUOUS
 62
     5
100
AcDbLine
 10
1850.751711
 20
733.213813
 30
0.0
 11
1850.751711
 21
745.118524
 31
0.0
  0
LINE
  5
2CA
330
1F
100
AcDbEntity
  8
0
  6
CONTINUOUS
 62
     3
100
AcDbLine
 10
1796.051711
 20
623.901483
 30
0.0
 11
1846.051711
 21
652.768997
 31
0.0
  0
LINE
  5
2CB
330
1F
100
AcDbEntity
  8
0
  6
CONTINUOUS
 62
     3
100
AcDbLine
 10
1796.051711
 20
681.63651
 30
0.0
 11
1846.051711
 21
652.768997
 31
0.0
  0
LINE
  5
2CC
330
1F
100
AcDbEntity
  8
0
  6
CONTINUOUS
 62
     3
100
AcDbLine
 10
1796.051711
 20
739.371537
 30
0.0
 11
1846.051711
 21
710.504024
 31
0.0
  0
LINE
  5
2CD
330
1F
100
AcDbEntity
  8
0
  6
CONTINUOUS
 62
     3
100
AcDbLine
 10
1796.051711
 20
681.63651
 30
0.0
 11
1846.051711
 21
710.504024
 31
0.0
  0
LINE
  5
2CE
330
1F
100
AcDbEntity
  8
0
  6
CONTINUOUS
 62
     3
100
AcDbLine
 10
1796.051711
 20
797.106564
 30
0.0
 11
1846.051711
 21
768.239051
 31
0.0
  0
LINE
  5
2CF
330
1F
100
AcDbEntity
  8
0
  6
CONTINUOUS
 62
     3
100
AcDbLine
 10
1796.051711
 20
739.371537
 30
0.0
 11
1846.051711
 21
768.239051
 31
0.0
  0
LINE
  5
2D0
330
1F
100
AcDbEntity
  8
0
  6
CONTINUOUS
 62
     3
100
AcDbLine
 10
1796.051711
 20
854.841591
 30
0.0
 11
1846.051711
 21
825.974078
 31
0.0
  0
LINE
  5
2D1
330
1F
100
AcDbEntity
  8
0
  6
CONTINUOUS
 62
     3
100
AcDbLine
 10
1796.051711
 20
797.106564
 30
0.0
 11
1846.051711
 21
825.974078
 31
0.0
  0
LINE
  5
2D2
330
1F
100
AcDbEntity
  8
0
  6
CONTINUOUS
 62
     3
100
AcDbLine
 10
1796.051711
 20
912.576618
 30
0.0
 11
1846.051711
 21
883.709105
 31
0.0
  0
LINE
  5
2D3
330
1F
100
AcDbEntity
  8
0
  6
CONTINUOUS
 62
     3
100
AcDbLine
 10
1796.051711
 20
854.841591
 30
0.0
 11
1846.051711
 21
883.709105
 31
0.0
  0
LINE
  5
2D4
330
1F
100
AcDbEntity
  8
0
  6
CONTINUOUS
 62
     3
100
AcDbLine
 10
1796.051711
 20
970.311645
 30
0.0
 11
1846.051711
 21
941.444131
 31
0.0
  0
LINE
  5
2D5
330
1F
100
AcDbEntity
  8
0
  6
CONTINUOUS
 62
     3
100
AcDbLine
 10
1796.051711
 20
912.576618
 30
0.0
 11
1846.051711
 21
941.444131
 31
0.0
  0
LINE
  5
2D6
330
1F
100
AcDbEntity
  8
0
  6
CONTINUOUS
 62
     3
100
AcDbLine
 10
1796.051711
 20
1028.046672
 30
0.0
 11
1846.051711
 21
999.179158
 31
0.0
  0
LINE
  5
2D7
330
1F
100
AcDbEntity
  8
0
  6
CONTINUOUS
 62
     3
100
AcDbLine
 10
1796.051711
 20
970.311645
 30
0.0
 11
1846.051711
 21
999.179158
 31
0.0
  0
LINE
  5
2D8
330
1F
100
AcDbEntity
  8
0
  6
CONTINUOUS
 62
     3
100
AcDbLine
 10
1796.051711
 20
1085.781699
 30
0.0
 11
1846.051711
 21
1056.914185
 31
0.0
  0
LINE
  5
2D9
330
1F
100
AcDbEntity
  8
0
  6
CONTINUOUS
 62
     3
100
AcDbLine
 10
1796.051711
 20
1028.046672
 30
0.0
 11
1846.051711
 21
1056.914185
 31
0.0
  0
LINE
  5
2DA
330
1F
100
AcDbEntity
  8
0
  6
CONTINUOUS
 62
     3
100
AcDbLine
 10
1796.051711
 20
1143.516726
 30
0.0
 11
1846.051711
 21
1114.649212
 31
0.0
  0
LINE
  5
2DB
330
1F
100
AcDbEntity
  8
0
  6
CONTINUOUS
 62
     3
100
AcDbLine
 10
1796.051711
 20
1085.781699
 30
0.0
 11
1846.051711
 21
1114.649212
 31
0.0
  0
LINE
  5
2DC
330
1F
100
AcDbEntity
  8
0
  6
CONTINUOUS
 62
     3
100
AcDbLine
 10
1796.051711
 20
1201.251753
 30
0.0
 11
1846.051711
 21
1172.384239
 31
0.0
  0
LINE
  5
2DD
330
1F
100
AcDbEntity
  8
0
  6
CONTINUOUS
 62
     3
100
AcDbLine
 10
1796.051711
 20
1143.516726
 30
0.0
 11
1846.051711
 21
1172.384239
 31
0.0
  0
LINE
  5
2DE
330
1F
100
AcDbEntity
  8
0
  6
CONTINUOUS
 62
     3
100
AcDbLine
 10
1796.051711
 20
1201.251753
 30
0.0
 11
1826.621942
 21
1218.901483
 31
0.0
  0
LINE
  5
2DF
330
1F
100
AcDbEntity
  8
0
  6
CONTINUOUS
 62
     3
100
AcDbLine
 10
1845.551711
 20
620.901483
 30
0.0
 11
1005.551711
 21
620.901483
 31
0.0
  0
LINE
  5
2E0
330
1F
100
AcDbEntity
  8
0
  6
CONTINUOUS
 62
     3
100
AcDbLine
 10
847.978401
 20
620.901483
 30
0.0
 11
792.978401
 21
620.901483
 31
0.0
  0
LINE
  5
2E1
330
1F
100
AcDbEntity
  8
0
  6
CONTINUOUS
 62
     3
100
AcDbLine
 10
392.978401
 20
620.901483
 30
0.0
 11
337.978401
 21
620.901483
 31
0.0
  0
LINE
  5
2E2
330
1F
100
AcDbEntity
  8
LAYER002
  6
CONTINUOUS
 62
     3
100
AcDbLine
 10
158.824201
 20
121.442922
 30
0.0
 11
158.824201
 21
2471.080752
 31
0.0
  0
LINE
  5
2E3
330
1F
100
AcDbEntity
  8
LAYER002
  6
CONTINUOUS
 62
     3
100
AcDbLine
 10
3479.360628
 20
2471.080752
 30
0.0
 11
158.824201
 21
2471.080752
 31
0.0
  0
LINE
  5
2E4
330
1F
100
AcDbEntity
  8
LAYER002
  6
CONTINUOUS
 62
     3
100
AcDbLine
 10
3479.360628
 20
121.442922
 30
0.0
 11
3479.360628
 21
2471.080752
 31
0.0
  0
LINE
  5
2E5
330
1F
100
AcDbEntity
  8
LAYER003
  6
CONTINUOUS
 62
     3
100
AcDbLine
 10
158.824201
 20
233.942922
 30
0.0
 11
3479.360628
 21
233.942922
 31
0.0
  0
LINE
  5
2E6
330
1F
100
AcDbEntity
  8
LAYER003
  6
CONTINUOUS
 62
     3
100
AcDbLine
 10
158.824201
 20
234.442922
 30
0.0
 11
3479.360628
 21
234.442922
 31
0.0
  0
LINE
  5
2E7
330
1F
100
AcDbEntity
  8
LAYER003
  6
CONTINUOUS
 62
     3
100
AcDbLine
 10
158.824201
 20
232.942922
 30
0.0
 11
3479.360628
 21
232.942922
 31
0.0
  0
LINE
  5
2E8
330
1F
100
AcDbEntity
  8
LAYER003
  6
CONTINUOUS
 62
     3
100
AcDbLine
 10
158.824201
 20
232.442922
 30
0.0
 11
3479.360628
 21
232.442922
 31
0.0
  0
LINE
  5
2E9
330
1F
100
AcDbEntity
  8
LAYER003
  6
CONTINUOUS
 62
     3
100
AcDbLine
 10
158.824201
 20
2471.080752
 30
0.0
 11
158.824201
 21
121.442922
 31
0.0
  0
LINE
  5
2EA
330
1F
100
AcDbEntity
  8
LAYER003
  6
CONTINUOUS
 62
     3
100
AcDbLine
 10
158.324201
 20
2471.580752
 30
0.0
 11
158.324201
 21
120.942922
 31
0.0
  0
LINE
  5
2EB
330
1F
100
AcDbEntity
  8
LAYER003
  6
CONTINUOUS
 62
     3
100
AcDbLine
 10
158.324201
 20
120.942922
 30
0.0
 11
3479.860628
 21
120.942922
 31
0.0
  0
LINE
  5
2EC
330
1F
100
AcDbEntity
  8
LAYER003
  6
CONTINUOUS
 62
     3
100
AcDbLine
 10
3479.860628
 20
120.942922
 30
0.0
 11
3479.860628
 21
2471.580752
 31
0.0
  0
LINE
  5
2ED
330
1F
100
AcDbEntity
  8
LAYER003
  6
CONTINUOUS
 62
     3
100
AcDbLine
 10
3479.860628
 20
2471.580752
 30
0.0
 11
158.324201
 21
2471.580752
 31
0.0
  0
LINE
  5
2EE
330
1F
100
AcDbEntity
  8
LAYER003
  6
CONTINUOUS
 62
     3
100
AcDbLine
 10
157.824201
 20
2472.080752
 30
0.0
 11
157.824201
 21
120.442922
 31
0.0
  0
LINE
  5
2EF
330
1F
100
AcDbEntity
  8
LAYER003
  6
CONTINUOUS
 62
     3
100
AcDbLine
 10
157.824201
 20
120.442922
 30
0.0
 11
3480.360628
 21
120.442922
 31
0.0
  0
LINE
  5
2F0
330
1F
100
AcDbEntity
  8
LAYER003
  6
CONTINUOUS
 62
     3
100
AcDbLine
 10
3480.360628
 20
120.442922
 30
0.0
 11
3480.360628
 21
2472.080752
 31
0.0
  0
LINE
  5
2F1
330
1F
100
AcDbEntity
  8
LAYER003
  6
CONTINUOUS
 62
     3
100
AcDbLine
 10
3480.360628
 20
2472.080752
 30
0.0
 11
157.824201
 21
2472.080752
 31
0.0
  0
LINE
  5
2F2
330
1F
100
AcDbEntity
  8
LAYER003
  6
CONTINUOUS
 62
     3
100
AcDbLine
 10
157.324201
 20
2472.580752
 30
0.0
 11
157.324201
 21
119.942922
 31
0.0
  0
LINE
  5
2F3
330
1F
100
AcDbEntity
  8
LAYER003
  6
CONTINUOUS
 62
     3
100
AcDbLine
 10
157.324201
 20
119.942922
 30
0.0
 11
3480.860628
 21
119.942922
 31
0.0
  0
LINE
  5
2F4
330
1F
100
AcDbEntity
  8
LAYER003
  6
CONTINUOUS
 62
     3
100
AcDbLine
 10
3480.860628
 20
119.942922
 30
0.0
 11
3480.860628
 21
2472.580752
 31
0.0
  0
LINE
  5
2F5
330
1F
100
AcDbEntity
  8
LAYER003
  6
CONTINUOUS
 62
     3
100
AcDbLine
 10
3480.860628
 20
2472.580752
 30
0.0
 11
157.324201
 21
2472.580752
 31
0.0
  0
LINE
  5
2F6
330
1F
100
AcDbEntity
  8
LAYER003
  6
CONTINUOUS
 62
     3
100
AcDbLine
 10
156.824201
 20
2473.080752
 30
0.0
 11
156.824201
 21
119.442922
 31
0.0
  0
LINE
  5
2F7
330
1F
100
AcDbEntity
  8
LAYER003
  6
CONTINUOUS
 62
     3
100
AcDbLine
 10
156.824201
 20
119.442922
 30
0.0
 11
3481.360628
 21
119.442922
 31
0.0
  0
LINE
  5
2F8
330
1F
100
AcDbEntity
  8
LAYER003
  6
CONTINUOUS
 62
     3
100
AcDbLine
 10
3481.360628
 20
119.442922
 30
0.0
 11
3481.360628
 21
2473.080752
 31
0.0
  0
LINE
  5
2F9
330
1F
100
AcDbEntity
  8
LAYER003
  6
CONTINUOUS
 62
     3
100
AcDbLine
 10
3481.360628
 20
2473.080752
 30
0.0
 11
156.824201
 21
2473.080752
 31
0.0
  0
LINE
  5
2FA
330
1F
100
AcDbEntity
  8
LAYER003
  6
CONTINUOUS
 62
     3
100
AcDbLine
 10
3479.360628
 20
121.442922
 30
0.0
 11
3479.360628
 21
2471.080752
 31
0.0
  0
LINE
  5
2FB
330
1F
100
AcDbEntity
  8
LAYER003
  6
CONTINUOUS
 62
     3
100
AcDbLine
 10
158.824201
 20
121.442922
 30
0.0
 11
3479.360628
 21
121.442922
 31
0.0
  0
LINE
  5
2FC
330
1F
100
AcDbEntity
  8
LAYER003
  6
CONTINUOUS
 62
     3
100
AcDbLine
 10
158.824201
 20
2471.080752
 30
0.0
 11
3479.360628
 21
2471.080752
 31
0.0
  0
LINE
  5
2FD
330
1F
100
AcDbEntity
  8
LAYER003
  6
CONTINUOUS
 62
     3
100
AcDbLine
 10
158.824201
 20
233.442922
 30
0.0
 11
3479.360628
 21
233.442922
 31
0.0
  0
INSERT
  5
301
330
1F
100
AcDbEntity
  8
0
100
AcDbBlockReference
  2
EDDIM027
 10
0.0
 20
0.0
 30
0.0
  0
LINE
  5
305
330
1F
100
AcDbEntity
  8
0
  6
CONTINUOUS
 62
     5
100
AcDbLine
 10
611.589404
 20
1610.504967
 30
0.0
 11
370.235446
 21
1610.504967
 31
0.0
  0
LINE
  5
306
330
1F
100
AcDbEntity
  8
0
  6
CONTINUOUS
 62
     5
100
AcDbLine
 10
370.235446
 20
1610.504967
 30
0.0
 11
262.682119
 21
1610.504967
 31
0.0
  0
TEXT
  5
307
330
1F
100
AcDbEntity
  8
0
  6
CONTINUOUS
 62
     5
100
AcDbText
 10
326.325195
 20
1616.425171
 30
0.0
 40
40.0
  1
４面ジャバラ
 41
0.8
  7
ED_VECTOR
100
AcDbText
  0
TEXT
  5
308
330
1F
100
AcDbEntity
  8
0
  6
CONTINUOUS
 62
     5
100
AcDbText
 10
284.013977
 20
1570.266235
 30
0.0
 40
30.0
  1
ポリエステル地に樹脂コーティング
 41
0.666667
  7
ED_VECTOR
100
AcDbText
  0
LINE
  5
309
330
1F
100
AcDbEntity
  8
0
  6
CONTINUOUS
 62
     5
100
AcDbLine
 10
3399.830225
 20
1555.618943
 30
0.0
 11
2678.957708
 21
1555.618943
 31
0.0
  0
TEXT
  5
30A
330
1F
100
AcDbEntity
  8
0
  6
CONTINUOUS
 62
     5
100
AcDbText
 10
2694.28125
 20
1567.942505
 30
0.0
 40
40.0
  1
制御方式
 41
0.8
  7
ED_VECTOR
100
AcDbText
  0
TEXT
  5
30B
330
1F
100
AcDbEntity
  8
0
  6
CONTINUOUS
 62
     5
100
AcDbText
 10
3032.057129
 20
1569.962891
 30
0.0
 40
40.0
  1
ベクトル制御
 41
0.8
  7
ED_VECTOR
100
AcDbText
  0
TEXT
  5
30C
330
1F
100
AcDbEntity
  8
0
  6
CONTINUOUS
 62
     5
100
AcDbText
 10
2691.31129
 20
1052.756104
 30
0.0
 40
40.0
  1
塗装色(マンセル値)　
 41
0.65
  7
ED_VECTOR
100
AcDbText
  0
TEXT
  5
30D
330
1F
100
AcDbEntity
  8
0
  6
CONTINUOUS
 62
     5
100
AcDbText
 10
2969.543213
 20
1049.366943
 30
0.0
 40
40.0
  1
　　１０Ｒ４／１３
 41
0.8
  7
ED_VECTOR
100
AcDbText
  0
LINE
  5
30E
330
1F
100
AcDbEntity
  8
0
  6
CONTINUOUS
 62
     5
100
AcDbLine
 10
3399.830225
 20
1043.618956
 30
0.0
 11
2678.957708
 21
1043.618956
 31
0.0
  0
LINE
  5
30F
330
1F
100
AcDbEntity
  8
0
  6
CONTINUOUS
 62
     5
100
AcDbLine
 10
2679.360628
 20
561.442922
 30
0.0
 11
3479.360628
 21
561.442922
 31
0.0
  0
LINE
  5
310
330
1F
100
AcDbEntity
  8
0
  6
CONTINUOUS
 62
     5
100
AcDbLine
 10
2679.360628
 20
201.442922
 30
0.0
 11
3479.360628
 21
201.442922
 31
0.0
  0
LINE
  5
311
330
1F
100
AcDbEntity
  8
0
  6
CONTINUOUS
 62
     5
100
AcDbLine
 10
2679.360628
 20
361.442922
 30
0.0
 11
3479.360628
 21
361.442922
 31
0.0
  0
LINE
  5
312
330
1F
100
AcDbEntity
  8
0
  6
CONTINUOUS
 62
     5
100
AcDbLine
 10
2679.360628
 20
421.442922
 30
0.0
 11
3479.360628
 21
421.442922
 31
0.0
  0
LINE
  5
313
330
1F
100
AcDbEntity
  8
0
  6
CONTINUOUS
 62
     5
100
AcDbLine
 10
2679.360628
 20
481.442922
 30
0.0
 11
3479.360628
 21
481.442922
 31
0.0
  0
LINE
  5
314
330
1F
100
AcDbEntity
  8
0
  6
CONTINUOUS
 62
     5
100
AcDbLine
 10
2679.360628
 20
641.442922
 30
0.0
 11
3479.360628
 21
641.442922
 31
0.0
  0
LINE
  5
315
330
1F
100
AcDbEntity
  8
0
  6
CONTINUOUS
 62
     5
100
AcDbLine
 10
2679.360628
 20
721.442922
 30
0.0
 11
2679.360628
 21
121.442922
 31
0.0
  0
LINE
  5
316
330
1F
100
AcDbEntity
  8
0
  6
CONTINUOUS
 62
     5
100
AcDbLine
 10
2879.360628
 20
721.442922
 30
0.0
 11
2879.360628
 21
481.442922
 31
0.0
  0
LINE
  5
317
330
1F
100
AcDbEntity
  8
0
  6
CONTINUOUS
 62
     5
100
AcDbLine
 10
2679.360628
 20
721.442922
 30
0.0
 11
3479.360628
 21
721.442922
 31
0.0
  0
LINE
  5
318
330
1F
100
AcDbEntity
  8
0
  6
CONTINUOUS
 62
     5
100
AcDbLine
 10
3179.360628
 20
481.442922
 30
0.0
 11
3179.360628
 21
201.442922
 31
0.0
  0
TEXT
  5
319
330
1F
100
AcDbEntity
  8
0
  6
CONTINUOUS
 62
     3
100
AcDbText
 10
2899.051815
 20
130.00565
 30
0.0
 40
59.380363
  1
東正車輌株式会社
 41
0.788955
  7
ED_VECTOR
100
AcDbText
  0
LINE
  5
31A
330
1F
100
AcDbEntity
  8
0
  6
CONTINUOUS
 62
     5
100
AcDbLine
 10
2929.360628
 20
421.442922
 30
0.0
 11
2929.360628
 21
201.442922
 31
0.0
  0
TEXT
  5
31B
330
1F
100
AcDbEntity
  8
0
  6
CONTINUOUS
 62
     5
100
AcDbText
 10
2709.360596
 20
656.442871
 30
0.0
 40
50.0
  1
品　名
 41
0.8
  7
ED_VECTOR
100
AcDbText
  0
TEXT
  5
31C
330
1F
100
AcDbEntity
  8
0
  6
CONTINUOUS
 62
     5
100
AcDbText
 10
2709.360596
 20
576.442871
 30
0.0
 40
50.0
  1
型　式
 41
0.8
  7
ED_VECTOR
100
AcDbText
  0
TEXT
  5
31D
330
1F
100
AcDbEntity
  8
0
  6
CONTINUOUS
 62
     5
100
AcDbText
 10
2684.360596
 20
496.442932
 30
0.0
 40
50.0
  1
図面番号
 41
0.8
  7
ED_VECTOR
100
AcDbText
  0
TEXT
  5
31E
330
1F
100
AcDbEntity
  8
0
  6
CONTINUOUS
 62
     5
100
AcDbText
 10
3259.360596
 20
426.442963
 30
0.0
 40
50.0
  1
Ｂ－４
 41
0.8
  7
ED_VECTOR
100
AcDbText
  0
TEXT
  5
31F
330
1F
100
AcDbEntity
  8
0
  6
CONTINUOUS
 62
     5
100
AcDbText
 10
2734.360596
 20
366.442963
 30
0.0
 40
50.0
  1
検　図
 41
0.8
  7
ED_VECTOR
100
AcDbText
  0
TEXT
  5
320
330
1F
100
AcDbEntity
  8
0
  6
CONTINUOUS
 62
     5
100
AcDbText
 10
2984.360596
 20
366.442963
 30
0.0
 40
50.0
  1
作　図
 41
0.8
  7
ED_VECTOR
100
AcDbText
  0
TEXT
  5
321
330
1F
100
AcDbEntity
  8
0
  6
CONTINUOUS
 62
     5
100
AcDbText
 10
3259.360596
 20
366.442963
 30
0.0
 40
50.0
  1
尺　度
 41
0.8
  7
ED_VECTOR
100
AcDbText
  0
TEXT
  5
322
330
1F
100
AcDbEntity
  8
0
  6
CONTINUOUS
 62
     5
100
AcDbText
 10
3360.099365
 20
215.928192
 30
0.0
 40
50.0
  1
１０
 41
0.8
  7
ED_VECTOR
100
AcDbText
  0
TEXT
  5
323
330
1F
100
AcDbEntity
  8
0
  6
CONTINUOUS
 62
     5
100
AcDbText
 10
3339.779785
 20
263.632904
 30
0.0
 40
50.0
  1
／
 41
0.8
  7
ED_VECTOR
100
AcDbText
  0
TEXT
  5
324
330
1F
100
AcDbEntity
  8
0
  6
CONTINUOUS
 62
     5
100
AcDbText
 10
3309.566895
 20
298.616364
 30
0.0
 40
50.0
  1
１
 41
0.8
  7
ED_VECTOR
100
AcDbText
  0
TEXT
  5
325
330
1F
100
AcDbEntity
  8
0
  6
CONTINUOUS
 62
     3
100
AcDbText
 10
3019.360596
 20
656.442871
 30
0.0
 40
50.0
  1
ゴールドリフター
 41
0.8
  7
ED_VECTOR
100
AcDbText
  0
INSERT
  5
329
330
1F
100
AcDbEntity
  8
0
100
AcDbBlockReference
  2
BLKF028
 10
0.0
 20
0.0
 30
0.0
  0
TEXT
  5
3DB
330
1F
100
AcDbEntity
  8
0
  6
CONTINUOUS
 62
     3
100
AcDbText
 10
3009.360596
 20
256.442963
 30
0.0
 40
50.0
  1
濱田
 41
0.8
  7
ED_VECTOR
100
AcDbText
  0
LINE
  5
3DC
330
1F
100
AcDbEntity
  8
0
  6
CONTINUOUS
 62
     5
100
AcDbLine
 10
2679.360628
 20
121.442922
 30
0.0
 11
3479.360628
 21
121.442922
 31
0.0
  0
LINE
  5
3DD
330
1F
100
AcDbEntity
  8
LAYER002
  6
CONTINUOUS
 62
     3
100
AcDbLine
 10
3479.360628
 20
121.442922
 30
0.0
 11
158.824201
 21
121.442922
 31
0.0
  0
TEXT
  5
3DE
330
1F
100
AcDbEntity
  8
0
  6
CONTINUOUS
 62
     5
100
AcDbText
 10
2766.663818
 20
1247.941406
 30
0.0
 40
40.0
  1
上昇端・下降端リードスイッチ付
 41
0.8
  7
ED_VECTOR
100
AcDbText
  0
TEXT
  5
3DF
330
1F
100
AcDbEntity
  8
0
  6
CONTINUOUS
 62
     3
100
AcDbText
 10
2927.002197
 20
2203.159424
 30
0.0
 40
40.0
  1
GLM-150-58VTJ-100
 41
0.75
  7
ED_VECTOR
100
AcDbText
  0
TEXT
  5
3E0
330
1F
100
AcDbEntity
  8
0
  6
CONTINUOUS
 62
     5
100
AcDbText
 10
3168.445068
 20
2143.981934
 30
0.0
 40
40.0
  1
150
 41
0.8
  7
ED_VECTOR
100
AcDbText
  0
TEXT
  5
3E1
330
1F
100
AcDbEntity
  8
0
  6
CONTINUOUS
 62
     5
100
AcDbText
 10
3022.642822
 20
1376.055542
 30
0.0
 40
40.0
  1
約　11　秒
 41
0.8
  7
ED_VECTOR
100
AcDbText
  0
TEXT
  5
3E2
330
1F
100
AcDbEntity
  8
0
  6
CONTINUOUS
 62
     5
100
AcDbText
 10
3020.50415
 20
1312.055542
 30
0.0
 40
40.0
  1
約　11　秒
 41
0.8
  7
ED_VECTOR
100
AcDbText
  0
TEXT
  5
3E3
330
1F
100
AcDbEntity
  8
0
  6
CONTINUOUS
 62
     3
100
AcDbText
 10
2915.360596
 20
576.442871
 30
0.0
 40
50.0
  1
GLM-150-58VTJ-100
 41
0.66
  7
ED_VECTOR
100
AcDbText
  0
TEXT
  5
3E4
330
1F
100
AcDbEntity
  8
0
  6
CONTINUOUS
 62
     5
100
AcDbText
 10
2729.360596
 20
426.442963
 30
0.0
 40
50.0
  1
令和 3年 1月26日
 41
0.8
  7
ED_VECTOR
100
AcDbText
  0
ENDSEC
  0
SECTION
  2
OBJECTS
  0
DICTIONARY
  5
C
330
0
100
AcDbDictionary
  3
ACAD_GROUP
350
D
  3
ACAD_LAYOUT
350
1A
  3
ACAD_MATERIAL
350
43
  3
ACAD_MLEADERSTYLE
350
6B
  3
ACAD_MLINESTYLE
350
17
  3
ACAD_PLOTSETTINGS
350
19
  3
ACAD_SCALELIST
350
47
  3
ACAD_VISUALSTYLE
350
2A
  3
ACDBVARIABLEDICTIONARY
350
3E5
1001
ACAD
1000
TREAT_AS_HARD
1070
     0
  0
DICTIONARY
  5
D
102
{ACAD_REACTORS
330
C
102
}
330
C
100
AcDbDictionary
1001
ACAD
1000
TREAT_AS_HARD
1070
     0
  0
DICTIONARY
  5
1A
102
{ACAD_REACTORS
330
C
102
}
330
C
100
AcDbDictionary
1001
ACAD
1000
TREAT_AS_HARD
1070
     0
  0
DICTIONARY
  5
43
102
{ACAD_REACTORS
330
C
102
}
330
C
100
AcDbDictionary
  3
BYBLOCK
350
45
  3
BYLAYER
350
44
  3
GLOBAL
350
46
1001
ACAD
1000
TREAT_AS_HARD
1070
     0
  0
DICTIONARY
  5
6B
102
{ACAD_REACTORS
330
C
102
}
330
C
100
AcDbDictionary
  3
STANDARD
350
6C
1001
ACAD
1000
TREAT_AS_HARD
1070
     0
  0
DICTIONARY
  5
17
102
{ACAD_REACTORS
330
C
102
}
330
C
100
AcDbDictionary
  3
STANDARD
350
18
1001
ACAD
1000
TREAT_AS_HARD
1070
     0
  0
DICTIONARY
  5
19
102
{ACAD_REACTORS
330
C
102
}
330
C
100
AcDbDictionary
1001
ACAD
1000
TREAT_AS_HARD
1070
     0
  0
DICTIONARY
  5
47
102
{ACAD_REACTORS
330
C
102
}
330
C
100
AcDbDictionary
  3
A0
350
48
  3
A1
350
49
  3
A2
350
4A
  3
A3
350
4B
  3
A4
350
4C
  3
A5
350
4D
  3
A6
350
4E
  3
A7
350
4F
  3
A8
350
50
  3
A9
350
51
  3
B0
350
52
  3
B1
350
53
  3
B2
350
54
  3
B3
350
55
  3
B4
350
56
  3
B5
350
57
  3
B6
350
58
  3
B7
350
59
  3
B8
350
5A
  3
B9
350
5B
  3
C0
350
5C
  3
C1
350
5D
  3
C2
350
5E
  3
C3
350
5F
  3
C4
350
60
  3
C5
350
61
  3
C6
350
62
  3
C7
350
63
  3
C8
350
64
  3
C9
350
65
  3
D0
350
66
  3
D1
350
67
  3
D2
350
68
1001
ACAD
1000
TREAT_AS_HARD
1070
     0
  0
DICTIONARY
  5
2A
102
{ACAD_REACTORS
330
C
102
}
330
C
100
AcDbDictionary
  3
2DWIREFRAME
350
2F
  3
BASIC
350
32
  3
BRIGHTEN
350
36
  3
COLORCHANGE
350
3A
  3
CONCEPTUAL
350
34
  3
DIM
350
35
  3
EDGECOLOROFF
350
3D
  3
FACEPATTERN
350
39
  3
FLAT
350
2B
  3
FLATWITHEDGES
350
2C
  3
GOURAUD
350
2D
  3
GOURAUDWITHEDGES
350
2E
  3
HIDDEN
350
31
  3
JITTEROFF
350
3B
  3
LINEPATTERN
350
38
  3
OVERHANGOFF
350
3C
  3
REALISTIC
350
33
  3
SHADED
350
42
  3
SHADED_WITH_EDGES
350
41
  3
SHADES_OF_GRAY
350
3E
  3
SKETCHY
350
3F
  3
THICKEN
350
37
  3
WIREFRAME
350
30
  3
X-RAY
350
40
1001
ACAD
1000
TREAT_AS_HARD
1070
     0
  0
DICTIONARY
  5
3E5
102
{ACAD_REACTORS
330
C
102
}
330
C
100
AcDbDictionary
  3
CANNOSCALE
350
3F0
  3
CENTEREXE
350
3EC
  3
CENTERLTYPEFILE
350
3ED
  3
CMLEADERSTYLE
350
3E7
  3
CTABLESTYLE
350
3E6
  3
DIMASSOC
350
3EE
  3
HIDETEXT
350
3EF
  3
MSLTSCALE
350
3F1
  3
PSOLHEIGHT
350
3E9
  3
PSOLWIDTH
350
3E8
1001
ACAD
1000
TREAT_AS_HARD
1070
     0
  0
MATERIAL
  5
45
102
{ACAD_REACTORS
330
43
102
}
102
{ACAD_XDICTIONARY
360
3F4
102
}
330
43
100
AcDbMaterial
  1
BYBLOCK
  0
MATERIAL
  5
44
102
{ACAD_REACTORS
330
43
102
}
102
{ACAD_XDICTIONARY
360
3F2
102
}
330
43
100
AcDbMaterial
  1
BYLAYER
  0
MATERIAL
  5
46
102
{ACAD_REACTORS
330
43
102
}
102
{ACAD_XDICTIONARY
360
3F6
102
}
330
43
100
AcDbMaterial
  1
GLOBAL
  0
ACAD_PROXY_OBJECT
  5
6C
102
{ACAD_REACTORS
330
6B
102
}
330
6B
100
AcDbZombieObject
 90
      499
 91
      505
 93
      610
310
40901902A4063FBFFFFFE0000000000000020400000000000020404214DD185B99185C990000000000000104090141901A00000000000004100000000000000041025764000000000000039000
340
14
340
0
340
11
340
0
 94
        0
1001
ACAD_MLEADERVER
1070
     2
  0
MLINESTYLE
  5
18
102
{ACAD_REACTORS
330
17
102
}
330
17
100
AcDbMlineStyle
  2
Standard
 70
     0
  3

 62
   256
 51
90.0
 52
90.0
 71
     2
 49
0.5
 62
   256
  6
BYLAYER
 49
-0.5
 62
   256
  6
BYLAYER
  0
ACAD_PROXY_OBJECT
  5
48
102
{ACAD_REACTORS
330
47
102
}
330
47
100
AcDbZombieObject
 90
      499
 91
      503
 93
       41
310
903313A31580
  0
ACAD_PROXY_OBJECT
  5
49
102
{ACAD_REACTORS
330
47
102
}
330
47
100
AcDbZombieObject
 90
      499
 91
      503
 93
      105
310
903313A324000000000000004000
  0
ACAD_PROXY_OBJECT
  5
4A
102
{ACAD_REACTORS
330
47
102
}
330
47
100
AcDbZombieObject
 90
      499
 91
      503
 93
      105
310
903313A344000000000000104000
  0
ACAD_PROXY_OBJECT
  5
4B
102
{ACAD_REACTORS
330
47
102
}
330
47
100
AcDbZombieObject
 90
      499
 91
      503
 93
      105
310
903313A354000000000000144000
  0
ACAD_PROXY_OBJECT
  5
4C
102
{ACAD_REACTORS
330
47
102
}
330
47
100
AcDbZombieObject
 90
      499
 91
      503
 93
      105
310
903313A384000000000000204000
  0
ACAD_PROXY_OBJECT
  5
4D
102
{ACAD_REACTORS
330
47
102
}
330
47
100
AcDbZombieObject
 90
      499
 91
      503
 93
      113
310
904313A31304000000000000244000
  0
ACAD_PROXY_OBJECT
  5
4E
102
{ACAD_REACTORS
330
47
102
}
330
47
100
AcDbZombieObject
 90
      499
 91
      503
 93
      113
310
904313A31364000000000000304000
  0
ACAD_PROXY_OBJECT
  5
4F
102
{ACAD_REACTORS
330
47
102
}
330
47
100
AcDbZombieObject
 90
      499
 91
      503
 93
      113
310
904313A32304000000000000344000
  0
ACAD_PROXY_OBJECT
  5
50
102
{ACAD_REACTORS
330
47
102
}
330
47
100
AcDbZombieObject
 90
      499
 91
      503
 93
      113
310
904313A333040000000000003E4000
  0
ACAD_PROXY_OBJECT
  5
51
102
{ACAD_REACTORS
330
47
102
}
330
47
100
AcDbZombieObject
 90
      499
 91
      503
 93
      113
310
904313A34304000000000000444000
  0
ACAD_PROXY_OBJECT
  5
52
102
{ACAD_REACTORS
330
47
102
}
330
47
100
AcDbZombieObject
 90
      499
 91
      503
 93
      113
310
904313A35304000000000000494000
  0
ACAD_PROXY_OBJECT
  5
53
102
{ACAD_REACTORS
330
47
102
}
330
47
100
AcDbZombieObject
 90
      499
 91
      503
 93
      121
310
905313A3130304000000000000594000
  0
ACAD_PROXY_OBJECT
  5
54
102
{ACAD_REACTORS
330
47
102
}
330
47
100
AcDbZombieObject
 90
      499
 91
      503
 93
      105
310
903323A310000000000000010100
  0
ACAD_PROXY_OBJECT
  5
55
102
{ACAD_REACTORS
330
47
102
}
330
47
100
AcDbZombieObject
 90
      499
 91
      503
 93
      105
310
903343A310000000000000410100
  0
ACAD_PROXY_OBJECT
  5
56
102
{ACAD_REACTORS
330
47
102
}
330
47
100
AcDbZombieObject
 90
      499
 91
      503
 93
      105
310
903383A310000000000000810100
  0
ACAD_PROXY_OBJECT
  5
57
102
{ACAD_REACTORS
330
47
102
}
330
47
100
AcDbZombieObject
 90
      499
 91
      503
 93
      113
310
90431303A310000000000000910100
  0
ACAD_PROXY_OBJECT
  5
58
102
{ACAD_REACTORS
330
47
102
}
330
47
100
AcDbZombieObject
 90
      499
 91
      503
 93
      121
310
9053130303A310000000000001650100
  0
ACAD_PROXY_OBJECT
  5
59
102
{ACAD_REACTORS
330
47
102
}
330
47
100
AcDbZombieObject
 90
      499
 91
      503
 93
      257
310
90E312F31323822203D2031272D3022000000000000200FC000000000000284000
  0
ACAD_PROXY_OBJECT
  5
5A
102
{ACAD_REACTORS
330
47
102
}
330
47
100
AcDbZombieObject
 90
      499
 91
      503
 93
      249
310
90D312F363422203D2031272D3022000000000000240FC000000000000284000
  0
ACAD_PROXY_OBJECT
  5
5B
102
{ACAD_REACTORS
330
47
102
}
330
47
100
AcDbZombieObject
 90
      499
 91
      503
 93
      249
310
90D312F333222203D2031272D3022000000000000280FC000000000000284000
  0
ACAD_PROXY_OBJECT
  5
5C
102
{ACAD_REACTORS
330
47
102
}
330
47
100
AcDbZombieObject
 90
      499
 91
      503
 93
      249
310
90D312F313622203D2031272D30220000000000002C0FC000000000000284000
  0
ACAD_PROXY_OBJECT
  5
5D
102
{ACAD_REACTORS
330
47
102
}
330
47
100
AcDbZombieObject
 90
      499
 91
      503
 93
      249
310
90D332F333222203D2031272D30220000000000002E0FC000000000000284000
  0
ACAD_PROXY_OBJECT
  5
5E
102
{ACAD_REACTORS
330
47
102
}
330
47
100
AcDbZombieObject
 90
      499
 91
      503
 93
      241
310
90C312F3822203D2031272D3022000000000000300FC000000000000284000
  0
ACAD_PROXY_OBJECT
  5
5F
102
{ACAD_REACTORS
330
47
102
}
330
47
100
AcDbZombieObject
 90
      499
 91
      503
 93
      249
310
90D332F313622203D2031272D3022000000000000320FC000000000000284000
  0
ACAD_PROXY_OBJECT
  5
60
102
{ACAD_REACTORS
330
47
102
}
330
47
100
AcDbZombieObject
 90
      499
 91
      503
 93
      241
310
90C312F3422203D2031272D3022000000000000340FC000000000000284000
  0
ACAD_PROXY_OBJECT
  5
61
102
{ACAD_REACTORS
330
47
102
}
330
47
100
AcDbZombieObject
 90
      499
 91
      503
 93
      241
310
90C332F3822203D2031272D3022000000000000360FC000000000000284000
  0
ACAD_PROXY_OBJECT
  5
62
102
{ACAD_REACTORS
330
47
102
}
330
47
100
AcDbZombieObject
 90
      499
 91
      503
 93
      241
310
90C312F3222203D2031272D3022000000000000380FC000000000000284000
  0
ACAD_PROXY_OBJECT
  5
63
102
{ACAD_REACTORS
330
47
102
}
330
47
100
AcDbZombieObject
 90
      499
 91
      503
 93
      241
310
90C332F3422203D2031272D30220000000000003A0FC000000000000284000
  0
ACAD_PROXY_OBJECT
  5
64
102
{ACAD_REACTORS
330
47
102
}
330
47
100
AcDbZombieObject
 90
      499
 91
      503
 93
      161
310
90A3122203D2031272D30224000000000000284000
  0
ACAD_PROXY_OBJECT
  5
65
102
{ACAD_REACTORS
330
47
102
}
330
47
100
AcDbZombieObject
 90
      499
 91
      503
 93
      257
310
90E312D312F3222203D2031272D30220000000000003E0FC000000000000284000
  0
ACAD_PROXY_OBJECT
  5
66
102
{ACAD_REACTORS
330
47
102
}
330
47
100
AcDbZombieObject
 90
      499
 91
      503
 93
      225
310
90A3322203D2031272D302200000000000002100000000000000284000
  0
ACAD_PROXY_OBJECT
  5
67
102
{ACAD_REACTORS
330
47
102
}
330
47
100
AcDbZombieObject
 90
      499
 91
      503
 93
      225
310
90A3622203D2031272D302200000000000006100000000000000284000
  0
ACAD_PROXY_OBJECT
  5
68
102
{ACAD_REACTORS
330
47
102
}
330
47
100
AcDbZombieObject
 90
      499
 91
      503
 93
      249
310
90D31272D3022203D2031272D30220000000000000A100000000000000284000
  0
ACAD_PROXY_OBJECT
  5
2F
102
{ACAD_REACTORS
330
2A
102
}
330
2A
100
AcDbZombieObject
 90
      499
 91
      501
 93
      436
310
42CC9915DA5C99599C985B595049028333333333333E33F0000000000000F90107901411070040501600405405064090741402480A0340
1001
ACAD
1000
AcDbSavedByObjectVersion
1070
     0
  0
ACAD_PROXY_OBJECT
  5
32
102
{ACAD_REACTORS
330
2A
102
}
330
2A
100
AcDbZombieObject
 90
      499
 91
      501
 93
      388
310
4150985CDA58D07406404333333333333E33F0000000000000F90107A41107004050150841D405064090741402480A0350
1001
ACAD
1000
AcDbSavedByObjectVersion
1070
     0
  0
ACAD_PROXY_OBJECT
  5
36
102
{ACAD_REACTORS
330
2A
102
}
330
2A
100
AcDbZombieObject
 90
      499
 91
      501
 93
      428
310
42109C9A59DA1D195B90C409028333333333333E33F0000000000000F9010790141107004050150841D405064090741402480A029950
1001
ACAD
1000
AcDbSavedByObjectVersion
1070
     0
  0
ACAD_PROXY_OBJECT
  5
3A
102
{ACAD_REACTORS
330
2A
102
}
330
2A
100
AcDbZombieObject
 90
      499
 91
      501
 93
      452
310
42D0DBDB1BDC90DA185B99D95104090240C333333333333E33F0000000000000F90108901411070040501508421405064090741402480A0350
1001
ACAD
1000
AcDbSavedByObjectVersion
1070
     0
  0
ACAD_PROXY_OBJECT
  5
34
102
{ACAD_REACTORS
330
2A
102
}
330
2A
100
AcDbZombieObject
 90
      499
 91
      501
 93
      500
310
4290DBDB98D95C1D1D585B10940D028333333333333E33F0000000000000F90107902409070040501000000000018199010841D405064090740C02480A0340
1001
ACAD
1000
AcDbSavedByObjectVersion
1070
     0
  0
ACAD_PROXY_OBJECT
  5
35
102
{ACAD_REACTORS
330
2A
102
}
330
2A
100
AcDbZombieObject
 90
      499
 91
      501
 93
      412
310
40D11A5B50B409028333333333333E33F0000000000000F9010790141107004050150841D405064090741402480A02677FFFFFD0
1001
ACAD
1000
AcDbSavedByObjectVersion
1070
     0
  0
ACAD_PROXY_OBJECT
  5
3D
102
{ACAD_REACTORS
330
2A
102
}
330
2A
100
AcDbZombieObject
 90
      499
 91
      501
 93
      452
310
43115919D950DBDB1BDC93D999916409028333333333333E33F0000000000000F9010790141107004050150841D405064090741402480A0350
1001
ACAD
1000
AcDbSavedByObjectVersion
1070
     0
  0
ACAD_PROXY_OBJECT
  5
39
102
{ACAD_REACTORS
330
2A
102
}
330
2A
100
AcDbZombieObject
 90
      499
 91
      501
 93
      444
310
42D19858D95C185D1D195C9B90F409028333333333333E33F0000000000000F9010790141107004050150841D405064090741402480A0350
1001
ACAD
1000
AcDbSavedByObjectVersion
1070
     0
  0
ACAD_PROXY_OBJECT
  5
2B
102
{ACAD_REACTORS
330
2A
102
}
330
2A
100
AcDbZombieObject
 90
      499
 91
      501
 93
      380
310
41119B185D240901404333333333333E33F0000000000000F9010740A907004050150841D405064090741402480A1B50
1001
ACAD
1000
AcDbSavedByObjectVersion
1070
     0
  0
ACAD_PROXY_OBJECT
  5
2C
102
{ACAD_REACTORS
330
2A
102
}
330
2A
100
AcDbZombieObject
 90
      499
 91
      501
 93
      468
310
43519B185D15DA5D1A115919D95CD0140901404333333333333E33F0000000000000F90107409019070040501600405405064090741402480A1B50
1001
ACAD
1000
AcDbSavedByObjectVersion
1070
     0
  0
ACAD_PROXY_OBJECT
  5
2D
102
{ACAD_REACTORS
330
2A
102
}
330
2A
100
AcDbZombieObject
 90
      499
 91
      501
 93
      404
310
41D1DBDD5C985D5910240902404333333333333E33F0000000000000F9010740A9070040501641D405064090741402480A1B50
1001
ACAD
1000
AcDbSavedByObjectVersion
1070
     0
  0
ACAD_PROXY_OBJECT
  5
2E
102
{ACAD_REACTORS
330
2A
102
}
330
2A
100
AcDbZombieObject
 90
      499
 91
      501
 93
      492
310
4411DBDD5C985D5915DA5D1A115919D95CD0340902404333333333333E33F0000000000000F90107409019070040501600405405064090741402480A1B50
1001
ACAD
1000
AcDbSavedByObjectVersion
1070
     0
  0
ACAD_PROXY_OBJECT
  5
31
102
{ACAD_REACTORS
330
2A
102
}
330
2A
100
AcDbZombieObject
 90
      499
 91
      501
 93
      476
310
41921A5919195B90640502408333333333333E33F0000000000000F901079024090700405020000000000001110200405405064090740C02480A0340
1001
ACAD
1000
AcDbSavedByObjectVersion
1070
     0
  0
ACAD_PROXY_OBJECT
  5
3B
102
{ACAD_REACTORS
330
2A
102
}
330
2A
100
AcDbZombieObject
 90
      499
 91
      501
 93
      428
310
42529A5D1D195C93D999914409028333333333333E33F0000000000000F9010790141107004050150A41D405064090741402480A0350
1001
ACAD
1000
AcDbSavedByObjectVersion
1070
     0
  0
ACAD_PROXY_OBJECT
  5
38
102
{ACAD_REACTORS
330
2A
102
}
330
2A
100
AcDbZombieObject
 90
      499
 91
      501
 93
      444
310
42D31A5B995C185D1D195C9B90E409028333333333333E33F0000000000000F9010790141107004050750841D405064090741402483A0350
1001
ACAD
1000
AcDbSavedByObjectVersion
1070
     0
  0
ACAD_PROXY_OBJECT
  5
3C
102
{ACAD_REACTORS
330
2A
102
}
330
2A
100
AcDbZombieObject
 90
      499
 91
      501
 93
      444
310
42D3DD995C9A185B99D3D999915409028333333333333E33F0000000000000F9010790141107004050150941D405064090741402480A0350
1001
ACAD
1000
AcDbSavedByObjectVersion
1070
     0
  0
ACAD_PROXY_OBJECT
  5
33
102
{ACAD_REACTORS
330
2A
102
}
330
2A
100
AcDbZombieObject
 90
      499
 91
      501
 93
      428
310
425499585B1A5CDD1A58D08409038333333333333E33F0000000000000F9010740A907004050150800405405064090740C02480A1B40
1001
ACAD
1000
AcDbSavedByObjectVersion
1070
     0
  0
ACAD_PROXY_OBJECT
  5
42
102
{ACAD_REACTORS
330
2A
102
}
330
2A
100
AcDbZombieObject
 90
      499
 91
      501
 93
      420
310
4194DA1859195911B40902404333333333333E33F0000000000000F9010740A41107004050150800405405064090840C02480A0B40
1001
ACAD
1000
AcDbSavedByObjectVersion
1070
     0
  0
ACAD_PROXY_OBJECT
  5
41
102
{ACAD_REACTORS
330
2A
102
}
330
2A
100
AcDbZombieObject
 90
      499
 91
      501
 93
      516
310
4454DA18591959081DDA5D1A08195919D95CD1A40902404333333333333E33F0000000000000F901074090142907004050250800405405064090740C02480A0B40
1001
ACAD
1000
AcDbSavedByObjectVersion
1070
     0
  0
ACAD_PROXY_OBJECT
  5
3E
102
{ACAD_REACTORS
330
2A
102
}
330
2A
100
AcDbZombieObject
 90
      499
 91
      501
 93
      532
310
4394DA1859195CC81BD98811DC985E5174090240C333333333333E33F0000000000000F901079024090741D01000000000000111010841D405064090740C02480A0340
1001
ACAD
1000
AcDbSavedByObjectVersion
1070
     0
  0
ACAD_PROXY_OBJECT
  5
3F
102
{ACAD_REACTORS
330
2A
102
}
330
2A
100
AcDbZombieObject
 90
      499
 91
      501
 93
      476
310
41D4DAD95D18DA1E51840502408333333333333E33F0000000000000F901079024090741D01000000000000111010B41D405064090741802480A0340
1001
ACAD
1000
AcDbSavedByObjectVersion
1070
     0
  0
ACAD_PROXY_OBJECT
  5
37
102
{ACAD_REACTORS
330
2A
102
}
330
2A
100
AcDbZombieObject
 90
      499
 91
      501
 93
      412
310
41D51A1A58DAD95B90D409028333333333333E33F0000000000000F9010790141107004050150C41D405064090741402480A0350
1001
ACAD
1000
AcDbSavedByObjectVersion
1070
     0
  0
ACAD_PROXY_OBJECT
  5
30
102
{ACAD_REACTORS
330
2A
102
}
330
2A
100
AcDbZombieObject
 90
      499
 91
      501
 93
      420
310
4255DA5C99599C985B595059028333333333333E33F0000000000000F90107901411070040501600405405064090740C02480A0340
1001
ACAD
1000
AcDbSavedByObjectVersion
1070
     0
  0
ACAD_PROXY_OBJECT
  5
40
102
{ACAD_REACTORS
330
2A
102
}
330
2A
100
AcDbZombieObject
 90
      499
 91
      501
 93
      404
310
41560B54985E51940902404000000000000E03F0000000000000F9010740501907004050150841D405064090740C02480A1B40
1001
ACAD
1000
AcDbSavedByObjectVersion
1070
     0
  0
DICTIONARYVAR
  5
3F0
102
{ACAD_REACTORS
330
3E5
102
}
330
3E5
100
DictionaryVariables
280
     0
  1
1:1
  0
DICTIONARYVAR
  5
3EC
102
{ACAD_REACTORS
330
3E5
102
}
330
3E5
100
DictionaryVariables
280
     0
  1
3.500000
  0
DICTIONARYVAR
  5
3ED
102
{ACAD_REACTORS
330
3E5
102
}
330
3E5
100
DictionaryVariables
280
     0
  1
acadiso.lin
  0
DICTIONARYVAR
  5
3E7
102
{ACAD_REACTORS
330
3E5
102
}
330
3E5
100
DictionaryVariables
280
     0
  1
Standard
  0
DICTIONARYVAR
  5
3E6
102
{ACAD_REACTORS
330
3E5
102
}
330
3E5
100
DictionaryVariables
280
     0
  1
Standard
  0
DICTIONARYVAR
  5
3EE
102
{ACAD_REACTORS
330
3E5
102
}
330
3E5
100
DictionaryVariables
280
     0
  1
2
  0
DICTIONARYVAR
  5
3EF
102
{ACAD_REACTORS
330
3E5
102
}
330
3E5
100
DictionaryVariables
280
     0
  1
1
  0
DICTIONARYVAR
  5
3F1
102
{ACAD_REACTORS
330
3E5
102
}
330
3E5
100
DictionaryVariables
280
     0
  1
1
  0
DICTIONARYVAR
  5
3E9
102
{ACAD_REACTORS
330
3E5
102
}
330
3E5
100
DictionaryVariables
280
     0
  1
80.000000
  0
DICTIONARYVAR
  5
3E8
102
{ACAD_REACTORS
330
3E5
102
}
330
3E5
100
DictionaryVariables
280
     0
  1
5.000000
  0
DICTIONARY
  5
3F4
330
45
100
AcDbDictionary
  3
ACAD_XREC_ROUNDTRIP
360
3F5
1001
ACAD
1000
TREAT_AS_HARD
1070
     1
  0
DICTIONARY
  5
3F2
330
44
100
AcDbDictionary
  3
ACAD_XREC_ROUNDTRIP
360
3F3
1001
ACAD
1000
TREAT_AS_HARD
1070
     1
  0
DICTIONARY
  5
3F6
330
46
100
AcDbDictionary
  3
ACAD_XREC_ROUNDTRIP
360
3F7
1001
ACAD
1000
TREAT_AS_HARD
1070
     1
  0
XRECORD
  5
3F5
102
{ACAD_REACTORS
330
3F4
102
}
330
3F4
100
AcDbXrecord
102
MATERIAL
148
0.0
149
0.0
149
0.0
 93
        0
 94
      127
282
     0
 72
     1
 77
     1
171
     1
175
     1
179
     1
273
     0
  0
XRECORD
  5
3F3
102
{ACAD_REACTORS
330
3F2
102
}
330
3F2
100
AcDbXrecord
102
MATERIAL
148
0.0
149
0.0
149
0.0
 93
        0
 94
      127
282
     0
 72
     1
 77
     1
171
     1
175
     1
179
     1
273
     0
  0
XRECORD
  5
3F7
102
{ACAD_REACTORS
330
3F6
102
}
330
3F6
100
AcDbXrecord
102
MATERIAL
148
0.0
149
0.0
149
0.0
 93
        0
 94
      127
282
     0
 72
     1
 77
     1
171
     1
175
     1
179
     1
273
     0
  0
ENDSEC
  0
EOF
