  0
SECTION
  2
HEADER
  9
$ACADVER
  1
AC1012
  9
$DWGCODEPAGE
  3
ansi_932
  9
$INSBASE
 10
0.0
 20
0.0
 30
0.0
  9
$EXTMIN
 10
0.0
 20
0.0
 30
0.0
  9
$EXTMAX
 10
3640.0
 20
2570.0
 30
0.0
  9
$LIMMIN
 10
0.0
 20
0.0
  9
$LIMMAX
 10
3640.0
 20
2570.0
  9
$ORTHOMODE
 70
     0
  9
$REGENMODE
 70
     1
  9
$FILLMODE
 70
     1
  9
$QTEXTMODE
 70
     0
  9
$MIRRTEXT
 70
     1
  9
$DRAGMODE
 70
     2
  9
$LTSCALE
 40
1.0
  9
$OSMODE
 70
    37
  9
$ATTMODE
 70
     1
  9
$TEXTSIZE
 40
2.5
  9
$TRACEWID
 40
1.0
  9
$TEXTSTYLE
  7
ED_VECTOR
  9
$CLAYER
  8
0
  9
$CELTYPE
  6
BYLAYER
  9
$CECOLOR
 62
   256
  9
$CELTSCALE
 40
1.0
  9
$DELOBJ
 70
     1
  9
$DISPSILH
 70
     0
  9
$DIMSCALE
 40
1.0
  9
$DIMASZ
 40
30.0
  9
$DIMEXO
 40
10.0
  9
$DIMDLI
 40
100.0
  9
$DIMRND
 40
0.0
  9
$DIMDLE
 40
50.0
  9
$DIMEXE
 40
10.0
  9
$DIMTP
 40
0.0
  9
$DIMTM
 40
0.0
  9
$DIMTXT
 40
40.0
  9
$DIMCEN
 40
2.5
  9
$DIMTSZ
 40
0.0
  9
$DIMTOL
 70
     0
  9
$DIMLIM
 70
     0
  9
$DIMTIH
 70
     0
  9
$DIMTOH
 70
     0
  9
$DIMSE1
 70
     0
  9
$DIMSE2
 70
     0
  9
$DIMTAD
 70
     1
  9
$DIMZIN
 70
     8
  9
$DIMBLK
  1

  9
$DIMASO
 70
     1
  9
$DIMSHO
 70
     1
  9
$DIMPOST
  1

  9
$DIMAPOST
  1

  9
$DIMALT
 70
     0
  9
$DIMALTD
 70
     3
  9
$DIMALTF
 40
0.03937
  9
$DIMLFAC
 40
1.0
  9
$DIMTOFL
 70
     1
  9
$DIMTVP
 40
0.0
  9
$DIMTIX
 70
     0
  9
$DIMSOXD
 70
     0
  9
$DIMSAH
 70
     1
  9
$DIMBLK1
  1

  9
$DIMBLK2
  1
EDTIP_ARROW_E
  9
$DIMSTYLE
  2
EDDIMINFO
  9
$DIMCLRD
 70
     5
  9
$DIMCLRE
 70
     5
  9
$DIMCLRT
 70
     3
  9
$DIMTFAC
 40
1.0
  9
$DIMGAP
 40
10.0
  9
$DIMJUST
 70
     0
  9
$DIMSD1
 70
     0
  9
$DIMSD2
 70
     0
  9
$DIMTOLJ
 70
     0
  9
$DIMTZIN
 70
     8
  9
$DIMALTZ
 70
     0
  9
$DIMALTTZ
 70
     0
  9
$DIMFIT
 70
     3
  9
$DIMUPT
 70
     0
  9
$DIMUNIT
 70
     2
  9
$DIMDEC
 70
     0
  9
$DIMTDEC
 70
     2
  9
$DIMALTU
 70
     2
  9
$DIMALTTD
 70
     3
  9
$DIMTXSTY
  7
ED_VECTOR
  9
$DIMAUNIT
 70
     0
  9
$LUNITS
 70
     2
  9
$LUPREC
 70
     4
  9
$SKETCHINC
 40
1.0
  9
$FILLETRAD
 40
10.0
  9
$AUNITS
 70
     0
  9
$AUPREC
 70
     0
  9
$MENU
  1
.
  9
$ELEVATION
 40
0.0
  9
$PELEVATION
 40
0.0
  9
$THICKNESS
 40
0.0
  9
$LIMCHECK
 70
     0
  9
$CHAMFERA
 40
0.0
  9
$CHAMFERB
 40
0.0
  9
$CHAMFERC
 40
0.0
  9
$CHAMFERD
 40
0.0
  9
$SKPOLY
 70
     0
  9
$TDCREATE
 40
2459363.36280544
  9
$TDUPDATE
 40
2459363.362807245
  9
$TDINDWG
 40
0.0000000116
  9
$TDUSRTIMER
 40
0.0000000116
  9
$USRTIMER
 70
     1
  9
$ANGBASE
 50
0.0
  9
$ANGDIR
 70
     0
  9
$PDMODE
 70
     0
  9
$PDSIZE
 40
0.0
  9
$PLINEWID
 40
0.0
  9
$COORDS
 70
     1
  9
$SPLFRAME
 70
     0
  9
$SPLINETYPE
 70
     6
  9
$SPLINESEGS
 70
     8
  9
$ATTDIA
 70
     0
  9
$ATTREQ
 70
     1
  9
$HANDLING
 70
     1
  9
$HANDSEED
  5
81E
  9
$SURFTAB1
 70
     6
  9
$SURFTAB2
 70
     6
  9
$SURFTYPE
 70
     6
  9
$SURFU
 70
     6
  9
$SURFV
 70
     6
  9
$UCSNAME
  2

  9
$UCSORG
 10
0.0
 20
0.0
 30
0.0
  9
$UCSXDIR
 10
1.0
 20
0.0
 30
0.0
  9
$UCSYDIR
 10
0.0
 20
1.0
 30
0.0
  9
$PUCSNAME
  2

  9
$PUCSORG
 10
0.0
 20
0.0
 30
0.0
  9
$PUCSXDIR
 10
1.0
 20
0.0
 30
0.0
  9
$PUCSYDIR
 10
0.0
 20
1.0
 30
0.0
  9
$USERI1
 70
     0
  9
$USERI2
 70
     0
  9
$USERI3
 70
     0
  9
$USERI4
 70
     0
  9
$USERI5
 70
     0
  9
$USERR1
 40
0.0
  9
$USERR2
 40
0.0
  9
$USERR3
 40
0.0
  9
$USERR4
 40
0.0
  9
$USERR5
 40
0.0
  9
$WORLDVIEW
 70
     1
  9
$SHADEDGE
 70
     3
  9
$SHADEDIF
 70
    70
  9
$TILEMODE
 70
     1
  9
$MAXACTVP
 70
    64
  9
$PINSBASE
 10
0.0
 20
0.0
 30
0.0
  9
$PLIMCHECK
 70
     0
  9
$PEXTMIN
 10
1.000000E+20
 20
1.000000E+20
 30
1.000000E+20
  9
$PEXTMAX
 10
-1.000000E+20
 20
-1.000000E+20
 30
-1.000000E+20
  9
$PLIMMIN
 10
0.0
 20
0.0
  9
$PLIMMAX
 10
420.0
 20
297.0
  9
$UNITMODE
 70
     0
  9
$VISRETAIN
 70
     1
  9
$PLINEGEN
 70
     0
  9
$PSLTSCALE
 70
     1
  9
$TREEDEPTH
 70
  3020
  9
$PICKSTYLE
 70
     1
  9
$CMLSTYLE
  2
STANDARD
  9
$CMLJUST
 70
     0
  9
$CMLSCALE
 40
20.0
  9
$SAVEIMAGES
 70
     1
  0
ENDSEC
  0
SECTION
  2
CLASSES
  0
CLASS
  1
ACDBDICTIONARYWDFLT
  2
AcDbDictionaryWithDefault
  3
ObjectDBX Classes
 90
    32768
280
     0
281
     0
  0
CLASS
  1
VISUALSTYLE
  2
AcDbVisualStyle
  3
ObjectDBX Classes
 90
     4095
280
     0
281
     0
  0
CLASS
  1
MATERIAL
  2
AcDbMaterial
  3
ObjectDBX Classes
 90
     1153
280
     0
281
     0
  0
CLASS
  1
SCALE
  2
AcDbScale
  3
ObjectDBX Classes
 90
     1153
280
     0
281
     0
  0
CLASS
  1
TABLESTYLE
  2
AcDbTableStyle
  3
ObjectDBX Classes
 90
     4095
280
     0
281
     0
  0
CLASS
  1
MLEADERSTYLE
  2
AcDbMLeaderStyle
  3
ACDB_MLEADERSTYLE_CLASS
 90
     4095
280
     0
281
     0
  0
CLASS
  1
SUN
  2
AcDbSun
  3
SCENEOE
 90
     1153
280
     0
281
     0
  0
CLASS
  1
DICTIONARYVAR
  2
AcDbDictionaryVar
  3
ObjectDBX Classes
 90
        0
280
     0
281
     0
  0
CLASS
  1
XRECORD
  2
AcDbXrecord
  3
ObjectDBX Classes
 90
    32768
280
     0
281
     0
  0
CLASS
  1
LWPOLYLINE
  2
AcDbPolyline
  3
ObjectDBX Classes
 90
    32768
280
     0
281
     1
  0
CLASS
  1
HATCH
  2
AcDbHatch
  3
ObjectDBX Classes
 90
    32768
280
     0
281
     1
  0
CLASS
  1
ACDBPLACEHOLDER
  2
AcDbPlaceHolder
  3
ObjectDBX Classes
 90
        0
280
     0
281
     0
  0
CLASS
  1
LAYOUT
  2
AcDbLayout
  3
ObjectDBX Classes
 90
        0
280
     0
281
     0
  0
ENDSEC
  0
SECTION
  2
TABLES
  0
TABLE
  2
VPORT
  5
8
330
0
100
AcDbSymbolTable
 70
     1
  0
VPORT
  5
29
330
8
100
AcDbSymbolTableRecord
100
AcDbViewportTableRecord
  2
*ACTIVE
 70
     0
 10
0.0
 20
0.0
 11
1.0
 21
1.0
 12
1820.0
 22
1285.0
 13
0.0
 23
0.0
 14
10.0
 24
10.0
 15
10.0
 25
10.0
 16
0.0
 26
0.0
 36
1.0
 17
0.0
 27
0.0
 37
0.0
 40
2570.0
 41
1.416342
 42
50.0
 43
0.0
 44
0.0
 50
0.0
 51
0.0
 71
     0
 72
   100
 73
     1
 74
     3
 75
     0
 76
     0
 77
     0
 78
     0
  0
ENDTAB
  0
TABLE
  2
LTYPE
  5
5
330
0
100
AcDbSymbolTable
 70
     5
  0
LTYPE
  5
14
330
5
100
AcDbSymbolTableRecord
100
AcDbLinetypeTableRecord
  2
BYBLOCK
 70
     0
  3

 72
    65
 73
     0
 40
0.0
  0
LTYPE
  5
15
330
5
100
AcDbSymbolTableRecord
100
AcDbLinetypeTableRecord
  2
BYLAYER
 70
     0
  3

 72
    65
 73
     0
 40
0.0
  0
LTYPE
  5
16
330
5
100
AcDbSymbolTableRecord
100
AcDbLinetypeTableRecord
  2
CONTINUOUS
 70
     0
  3
--------------------
 72
    65
 73
     0
 40
0.0
  0
LTYPE
  5
6E
330
5
100
AcDbSymbolTableRecord
100
AcDbLinetypeTableRecord
  2
DASHED
 70
     0
  3
- - - - - - - - - - -
 72
    65
 73
     2
 40
19.1
 49
12.7
 74
     0
 49
-6.4
 74
     0
  0
LTYPE
  5
6F
330
5
100
AcDbSymbolTableRecord
100
AcDbLinetypeTableRecord
  2
CENTER
 70
     0
  3
- ･ - ･ - ･ - ･ - ･ - ･ - ･ - ･ - ･ - ･ -
 72
    65
 73
     4
 40
51.0
 49
31.8
 74
     0
 49
-6.4
 74
     0
 49
6.4
 74
     0
 49
-6.4
 74
     0
  0
LTYPE
  5
70
330
5
100
AcDbSymbolTableRecord
100
AcDbLinetypeTableRecord
  2
PHANTOM
 70
     0
  3
- ･ ･ - ･ ･ - ･ ･ - ･ ･ - ･ ･ - ･ ･ - ･ ･ - 
 72
    65
 73
     6
 40
63.8
 49
31.8
 74
     0
 49
-6.4
 74
     0
 49
6.4
 74
     0
 49
-6.4
 74
     0
 49
6.4
 74
     0
 49
-6.4
 74
     0
  0
LTYPE
  5
71
330
5
100
AcDbSymbolTableRecord
100
AcDbLinetypeTableRecord
  2
DOT
 70
     0
  3
・・・・・・・・・・・・・・・
 72
    65
 73
     2
 40
6.5
 49
0.1
 74
     0
 49
-6.4
 74
     0
  0
ENDTAB
  0
TABLE
  2
LAYER
  5
2
330
0
100
AcDbSymbolTable
 70
    65
  0
LAYER
  5
10
330
2
100
AcDbSymbolTableRecord
100
AcDbLayerTableRecord
  2
0
 70
     0
 62
     7
  6
CONTINUOUS
  0
LAYER
  5
72
330
2
100
AcDbSymbolTableRecord
100
AcDbLayerTableRecord
  2
LAYER002
 70
     0
 62
     7
  6
CONTINUOUS
  0
LAYER
  5
73
330
2
100
AcDbSymbolTableRecord
100
AcDbLayerTableRecord
  2
LAYER003
 70
     0
 62
     7
  6
CONTINUOUS
  0
LAYER
  5
74
330
2
100
AcDbSymbolTableRecord
100
AcDbLayerTableRecord
  2
LAYER004
 70
     0
 62
     7
  6
CONTINUOUS
  0
LAYER
  5
75
330
2
100
AcDbSymbolTableRecord
100
AcDbLayerTableRecord
  2
LAYER005
 70
     0
 62
     7
  6
CONTINUOUS
  0
LAYER
  5
76
330
2
100
AcDbSymbolTableRecord
100
AcDbLayerTableRecord
  2
LAYER006
 70
     0
 62
     7
  6
CONTINUOUS
  0
LAYER
  5
77
330
2
100
AcDbSymbolTableRecord
100
AcDbLayerTableRecord
  2
LAYER007
 70
     0
 62
     7
  6
CONTINUOUS
  0
LAYER
  5
78
330
2
100
AcDbSymbolTableRecord
100
AcDbLayerTableRecord
  2
LAYER008
 70
     0
 62
     7
  6
CONTINUOUS
  0
LAYER
  5
79
330
2
100
AcDbSymbolTableRecord
100
AcDbLayerTableRecord
  2
LAYER009
 70
     0
 62
     7
  6
CONTINUOUS
  0
LAYER
  5
7A
330
2
100
AcDbSymbolTableRecord
100
AcDbLayerTableRecord
  2
LAYER010
 70
     0
 62
     7
  6
CONTINUOUS
  0
LAYER
  5
7B
330
2
100
AcDbSymbolTableRecord
100
AcDbLayerTableRecord
  2
LAYER011
 70
     0
 62
     7
  6
CONTINUOUS
  0
LAYER
  5
7C
330
2
100
AcDbSymbolTableRecord
100
AcDbLayerTableRecord
  2
LAYER012
 70
     0
 62
     7
  6
CONTINUOUS
  0
LAYER
  5
7D
330
2
100
AcDbSymbolTableRecord
100
AcDbLayerTableRecord
  2
LAYER013
 70
     0
 62
     7
  6
CONTINUOUS
  0
LAYER
  5
7E
330
2
100
AcDbSymbolTableRecord
100
AcDbLayerTableRecord
  2
LAYER014
 70
     0
 62
     7
  6
CONTINUOUS
  0
LAYER
  5
7F
330
2
100
AcDbSymbolTableRecord
100
AcDbLayerTableRecord
  2
LAYER015
 70
     0
 62
     7
  6
CONTINUOUS
  0
LAYER
  5
80
330
2
100
AcDbSymbolTableRecord
100
AcDbLayerTableRecord
  2
LAYER016
 70
     0
 62
     7
  6
CONTINUOUS
  0
LAYER
  5
81
330
2
100
AcDbSymbolTableRecord
100
AcDbLayerTableRecord
  2
LAYER017
 70
     0
 62
     7
  6
CONTINUOUS
  0
LAYER
  5
82
330
2
100
AcDbSymbolTableRecord
100
AcDbLayerTableRecord
  2
LAYER018
 70
     0
 62
     7
  6
CONTINUOUS
  0
LAYER
  5
83
330
2
100
AcDbSymbolTableRecord
100
AcDbLayerTableRecord
  2
LAYER019
 70
     0
 62
     7
  6
CONTINUOUS
  0
LAYER
  5
84
330
2
100
AcDbSymbolTableRecord
100
AcDbLayerTableRecord
  2
LAYER020
 70
     0
 62
     7
  6
CONTINUOUS
  0
LAYER
  5
85
330
2
100
AcDbSymbolTableRecord
100
AcDbLayerTableRecord
  2
LAYER021
 70
     0
 62
     7
  6
CONTINUOUS
  0
LAYER
  5
86
330
2
100
AcDbSymbolTableRecord
100
AcDbLayerTableRecord
  2
LAYER022
 70
     0
 62
     7
  6
CONTINUOUS
  0
LAYER
  5
87
330
2
100
AcDbSymbolTableRecord
100
AcDbLayerTableRecord
  2
LAYER023
 70
     0
 62
     7
  6
CONTINUOUS
  0
LAYER
  5
88
330
2
100
AcDbSymbolTableRecord
100
AcDbLayerTableRecord
  2
LAYER024
 70
     0
 62
     7
  6
CONTINUOUS
  0
LAYER
  5
89
330
2
100
AcDbSymbolTableRecord
100
AcDbLayerTableRecord
  2
LAYER025
 70
     0
 62
     7
  6
CONTINUOUS
  0
LAYER
  5
8A
330
2
100
AcDbSymbolTableRecord
100
AcDbLayerTableRecord
  2
LAYER026
 70
     0
 62
     7
  6
CONTINUOUS
  0
LAYER
  5
8B
330
2
100
AcDbSymbolTableRecord
100
AcDbLayerTableRecord
  2
LAYER027
 70
     0
 62
     7
  6
CONTINUOUS
  0
LAYER
  5
8C
330
2
100
AcDbSymbolTableRecord
100
AcDbLayerTableRecord
  2
LAYER028
 70
     0
 62
     7
  6
CONTINUOUS
  0
LAYER
  5
8D
330
2
100
AcDbSymbolTableRecord
100
AcDbLayerTableRecord
  2
LAYER029
 70
     0
 62
     7
  6
CONTINUOUS
  0
LAYER
  5
8E
330
2
100
AcDbSymbolTableRecord
100
AcDbLayerTableRecord
  2
LAYER030
 70
     0
 62
     7
  6
CONTINUOUS
  0
LAYER
  5
8F
330
2
100
AcDbSymbolTableRecord
100
AcDbLayerTableRecord
  2
LAYER031
 70
     0
 62
     7
  6
CONTINUOUS
  0
LAYER
  5
90
330
2
100
AcDbSymbolTableRecord
100
AcDbLayerTableRecord
  2
LAYER032
 70
     0
 62
     7
  6
CONTINUOUS
  0
LAYER
  5
91
330
2
100
AcDbSymbolTableRecord
100
AcDbLayerTableRecord
  2
LAYER033
 70
     0
 62
     7
  6
CONTINUOUS
  0
LAYER
  5
92
330
2
100
AcDbSymbolTableRecord
100
AcDbLayerTableRecord
  2
LAYER034
 70
     0
 62
     7
  6
CONTINUOUS
  0
LAYER
  5
93
330
2
100
AcDbSymbolTableRecord
100
AcDbLayerTableRecord
  2
LAYER035
 70
     0
 62
     7
  6
CONTINUOUS
  0
LAYER
  5
94
330
2
100
AcDbSymbolTableRecord
100
AcDbLayerTableRecord
  2
LAYER036
 70
     0
 62
     7
  6
CONTINUOUS
  0
LAYER
  5
95
330
2
100
AcDbSymbolTableRecord
100
AcDbLayerTableRecord
  2
LAYER037
 70
     0
 62
     7
  6
CONTINUOUS
  0
LAYER
  5
96
330
2
100
AcDbSymbolTableRecord
100
AcDbLayerTableRecord
  2
LAYER038
 70
     0
 62
     7
  6
CONTINUOUS
  0
LAYER
  5
97
330
2
100
AcDbSymbolTableRecord
100
AcDbLayerTableRecord
  2
LAYER039
 70
     0
 62
     7
  6
CONTINUOUS
  0
LAYER
  5
98
330
2
100
AcDbSymbolTableRecord
100
AcDbLayerTableRecord
  2
LAYER040
 70
     0
 62
     7
  6
CONTINUOUS
  0
LAYER
  5
99
330
2
100
AcDbSymbolTableRecord
100
AcDbLayerTableRecord
  2
LAYER041
 70
     0
 62
     7
  6
CONTINUOUS
  0
LAYER
  5
9A
330
2
100
AcDbSymbolTableRecord
100
AcDbLayerTableRecord
  2
LAYER042
 70
     0
 62
     7
  6
CONTINUOUS
  0
LAYER
  5
9B
330
2
100
AcDbSymbolTableRecord
100
AcDbLayerTableRecord
  2
LAYER043
 70
     0
 62
     7
  6
CONTINUOUS
  0
LAYER
  5
9C
330
2
100
AcDbSymbolTableRecord
100
AcDbLayerTableRecord
  2
LAYER044
 70
     0
 62
     7
  6
CONTINUOUS
  0
LAYER
  5
9D
330
2
100
AcDbSymbolTableRecord
100
AcDbLayerTableRecord
  2
LAYER045
 70
     0
 62
     7
  6
CONTINUOUS
  0
LAYER
  5
9E
330
2
100
AcDbSymbolTableRecord
100
AcDbLayerTableRecord
  2
LAYER046
 70
     0
 62
     7
  6
CONTINUOUS
  0
LAYER
  5
9F
330
2
100
AcDbSymbolTableRecord
100
AcDbLayerTableRecord
  2
LAYER047
 70
     0
 62
     7
  6
CONTINUOUS
  0
LAYER
  5
A0
330
2
100
AcDbSymbolTableRecord
100
AcDbLayerTableRecord
  2
LAYER048
 70
     0
 62
     7
  6
CONTINUOUS
  0
LAYER
  5
A1
330
2
100
AcDbSymbolTableRecord
100
AcDbLayerTableRecord
  2
LAYER049
 70
     0
 62
     7
  6
CONTINUOUS
  0
LAYER
  5
A2
330
2
100
AcDbSymbolTableRecord
100
AcDbLayerTableRecord
  2
LAYER050
 70
     0
 62
     7
  6
CONTINUOUS
  0
LAYER
  5
A3
330
2
100
AcDbSymbolTableRecord
100
AcDbLayerTableRecord
  2
LAYER051
 70
     0
 62
     7
  6
CONTINUOUS
  0
LAYER
  5
A4
330
2
100
AcDbSymbolTableRecord
100
AcDbLayerTableRecord
  2
LAYER052
 70
     0
 62
     7
  6
CONTINUOUS
  0
LAYER
  5
A5
330
2
100
AcDbSymbolTableRecord
100
AcDbLayerTableRecord
  2
LAYER053
 70
     0
 62
     7
  6
CONTINUOUS
  0
LAYER
  5
A6
330
2
100
AcDbSymbolTableRecord
100
AcDbLayerTableRecord
  2
LAYER054
 70
     0
 62
     7
  6
CONTINUOUS
  0
LAYER
  5
A7
330
2
100
AcDbSymbolTableRecord
100
AcDbLayerTableRecord
  2
LAYER055
 70
     0
 62
     7
  6
CONTINUOUS
  0
LAYER
  5
A8
330
2
100
AcDbSymbolTableRecord
100
AcDbLayerTableRecord
  2
LAYER056
 70
     0
 62
     7
  6
CONTINUOUS
  0
LAYER
  5
A9
330
2
100
AcDbSymbolTableRecord
100
AcDbLayerTableRecord
  2
LAYER057
 70
     0
 62
     7
  6
CONTINUOUS
  0
LAYER
  5
AA
330
2
100
AcDbSymbolTableRecord
100
AcDbLayerTableRecord
  2
LAYER058
 70
     0
 62
     7
  6
CONTINUOUS
  0
LAYER
  5
AB
330
2
100
AcDbSymbolTableRecord
100
AcDbLayerTableRecord
  2
LAYER059
 70
     0
 62
     7
  6
CONTINUOUS
  0
LAYER
  5
AC
330
2
100
AcDbSymbolTableRecord
100
AcDbLayerTableRecord
  2
LAYER060
 70
     0
 62
     7
  6
CONTINUOUS
  0
LAYER
  5
AD
330
2
100
AcDbSymbolTableRecord
100
AcDbLayerTableRecord
  2
LAYER061
 70
     0
 62
     7
  6
CONTINUOUS
  0
LAYER
  5
AE
330
2
100
AcDbSymbolTableRecord
100
AcDbLayerTableRecord
  2
LAYER062
 70
     0
 62
     7
  6
CONTINUOUS
  0
LAYER
  5
AF
330
2
100
AcDbSymbolTableRecord
100
AcDbLayerTableRecord
  2
LAYER063
 70
     0
 62
     7
  6
CONTINUOUS
  0
LAYER
  5
B0
330
2
100
AcDbSymbolTableRecord
100
AcDbLayerTableRecord
  2
LAYER064
 70
     0
 62
     7
  6
CONTINUOUS
  0
LAYER
  5
ED
330
2
100
AcDbSymbolTableRecord
100
AcDbLayerTableRecord
  2
LAYER065
 70
     0
 62
     7
  6
CONTINUOUS
  0
ENDTAB
  0
TABLE
  2
STYLE
  5
3
330
0
100
AcDbSymbolTable
 70
     2
  0
STYLE
  5
11
330
3
100
AcDbSymbolTableRecord
100
AcDbTextStyleTableRecord
  2
STANDARD
 70
     0
 40
0.0
 41
1.0
 50
0.0
 71
     0
 42
2.5
  3
txt
  4

  0
STYLE
  5
B1
330
3
100
AcDbSymbolTableRecord
100
AcDbTextStyleTableRecord
  2
ED_VECTOR
 70
     0
 40
0.0
 41
1.0
 50
0.0
 71
     0
 42
2.5
  3
MONOTXT.SHX
  4
BIGFONT.SHX
  0
ENDTAB
  0
TABLE
  2
VIEW
  5
6
330
0
100
AcDbSymbolTable
 70
     0
  0
ENDTAB
  0
TABLE
  2
UCS
  5
7
330
0
100
AcDbSymbolTable
 70
     0
  0
ENDTAB
  0
TABLE
  2
APPID
  5
9
330
0
100
AcDbSymbolTable
 70
     2
  0
APPID
  5
12
330
9
100
AcDbSymbolTableRecord
100
AcDbRegAppTableRecord
  2
ACAD
 70
     0
  0
APPID
  5
81D
330
9
100
AcDbSymbolTableRecord
100
AcDbRegAppTableRecord
  2
ACAD_MLEADERVER
 70
     0
  0
ENDTAB
  0
TABLE
  2
DIMSTYLE
  5
A
330
0
100
AcDbSymbolTable
 70
     2
  0
DIMSTYLE
105
27
330
A
100
AcDbSymbolTableRecord
100
AcDbDimStyleTableRecord
  2
ISO-25
 70
     0
  3

  4

  5

  6

  7

 40
1.0
 41
2.5
 42
0.625
 43
3.75
 44
1.25
 45
0.0
 46
0.0
 47
0.0
 48
0.0
140
2.5
141
2.5
142
0.0
143
0.03937
144
1.0
145
0.0
146
1.0
147
0.625
 71
     0
 72
     0
 73
     0
 74
     0
 75
     0
 76
     0
 77
     1
 78
     8
170
     0
171
     3
172
     1
173
     0
174
     0
175
     0
176
     0
177
     0
178
     0
270
     2
271
     2
272
     2
273
     2
274
     3
340
11
275
     0
280
     0
281
     0
282
     0
283
     0
284
     8
285
     0
286
     0
287
     3
288
     0
  0
DIMSTYLE
105
EC
102
{ACAD_REACTORS
330
1A8
330
1B6
330
201
330
20B
330
214
330
21C
330
226
330
2A4
330
2AE
102
}
330
A
100
AcDbSymbolTableRecord
100
AcDbDimStyleTableRecord
  2
EDDIMINFO
 70
     0
  3

  4

  5

  6

  7
EDTIP_ARROW_E
 40
1.0
 41
30.0
 42
10.0
 43
100.0
 44
10.0
 45
0.0
 46
50.0
 47
0.0
 48
0.0
140
40.0
141
2.5
142
0.0
143
0.03937
144
1.0
145
0.0
146
1.0
147
10.0
 71
     0
 72
     0
 73
     0
 74
     0
 75
     0
 76
     0
 77
     1
 78
     8
170
     0
171
     3
172
     1
173
     1
174
     0
175
     0
176
     5
177
     5
178
     3
270
     2
271
     0
272
     2
273
     2
274
     3
340
B1
275
     0
280
     0
281
     0
282
     0
283
     0
284
     8
285
     0
286
     0
287
     3
288
     0
  0
ENDTAB
  0
TABLE
  2
BLOCK_RECORD
  5
1
330
0
100
AcDbSymbolTable
 70
    25
  0
BLOCK_RECORD
  5
1F
330
1
100
AcDbSymbolTableRecord
100
AcDbBlockTableRecord
  2
*MODEL_SPACE
  0
BLOCK_RECORD
  5
1B
330
1
100
AcDbSymbolTableRecord
100
AcDbBlockTableRecord
  2
*PAPER_SPACE
  0
BLOCK_RECORD
  5
B2
330
1
100
AcDbSymbolTableRecord
100
AcDbBlockTableRecord
  2
EDTIP_ARROW_S
  0
BLOCK_RECORD
  5
B8
330
1
100
AcDbSymbolTableRecord
100
AcDbBlockTableRecord
  2
EDTIP_ARROW_E
  0
BLOCK_RECORD
  5
BE
330
1
100
AcDbSymbolTableRecord
100
AcDbBlockTableRecord
  2
EDTIP_BLACKDOT_S
  0
BLOCK_RECORD
  5
C4
330
1
100
AcDbSymbolTableRecord
100
AcDbBlockTableRecord
  2
EDTIP_BLACKDOT_E
  0
BLOCK_RECORD
  5
CA
330
1
100
AcDbSymbolTableRecord
100
AcDbBlockTableRecord
  2
EDTIP_ARCHITECT_S
  0
BLOCK_RECORD
  5
D0
330
1
100
AcDbSymbolTableRecord
100
AcDbBlockTableRecord
  2
EDTIP_ARCHITECT_E
  0
BLOCK_RECORD
  5
D6
330
1
100
AcDbSymbolTableRecord
100
AcDbBlockTableRecord
  2
EDTIP_CIVIL_S
  0
BLOCK_RECORD
  5
DC
330
1
100
AcDbSymbolTableRecord
100
AcDbBlockTableRecord
  2
EDTIP_CIVIL_E
  0
BLOCK_RECORD
  5
E2
330
1
100
AcDbSymbolTableRecord
100
AcDbBlockTableRecord
  2
EDTIP_WHITEDOT_S
  0
BLOCK_RECORD
  5
E7
330
1
100
AcDbSymbolTableRecord
100
AcDbBlockTableRecord
  2
EDTIP_WHITEDOT_E
  0
BLOCK_RECORD
  5
EE
330
1
100
AcDbSymbolTableRecord
100
AcDbBlockTableRecord
  2
BLKF014
  0
BLOCK_RECORD
  5
1A9
330
1
100
AcDbSymbolTableRecord
100
AcDbBlockTableRecord
  2
*D12
  0
BLOCK_RECORD
  5
1B7
330
1
100
AcDbSymbolTableRecord
100
AcDbBlockTableRecord
  2
*D13
  0
BLOCK_RECORD
  5
202
330
1
100
AcDbSymbolTableRecord
100
AcDbBlockTableRecord
  2
*D14
  0
BLOCK_RECORD
  5
20C
330
1
100
AcDbSymbolTableRecord
100
AcDbBlockTableRecord
  2
*D15
  0
BLOCK_RECORD
  5
215
330
1
100
AcDbSymbolTableRecord
100
AcDbBlockTableRecord
  2
*D16
  0
BLOCK_RECORD
  5
21D
330
1
100
AcDbSymbolTableRecord
100
AcDbBlockTableRecord
  2
*D17
  0
BLOCK_RECORD
  5
227
330
1
100
AcDbSymbolTableRecord
100
AcDbBlockTableRecord
  2
*D18
  0
BLOCK_RECORD
  5
234
330
1
100
AcDbSymbolTableRecord
100
AcDbBlockTableRecord
  2
BLKF022
  0
BLOCK_RECORD
  5
23C
330
1
100
AcDbSymbolTableRecord
100
AcDbBlockTableRecord
  2
BLKF023
  0
BLOCK_RECORD
  5
2A5
330
1
100
AcDbSymbolTableRecord
100
AcDbBlockTableRecord
  2
*D21
  0
BLOCK_RECORD
  5
2AF
330
1
100
AcDbSymbolTableRecord
100
AcDbBlockTableRecord
  2
*D22
  0
BLOCK_RECORD
  5
2E7
330
1
100
AcDbSymbolTableRecord
100
AcDbBlockTableRecord
  2
EDDIM026
  0
BLOCK_RECORD
  5
30E
330
1
100
AcDbSymbolTableRecord
100
AcDbBlockTableRecord
  2
BLKF027
  0
BLOCK_RECORD
  5
3CC
330
1
100
AcDbSymbolTableRecord
100
AcDbBlockTableRecord
  2
BLKF028
  0
ENDTAB
  0
ENDSEC
  0
SECTION
  2
BLOCKS
  0
BLOCK
  5
20
330
1F
100
AcDbEntity
  8
0
100
AcDbBlockBegin
  2
*MODEL_SPACE
 70
     0
 10
0.0
 20
0.0
 30
0.0
  3
*MODEL_SPACE
  1

  0
ENDBLK
  5
21
330
1F
100
AcDbEntity
  8
0
100
AcDbBlockEnd
  0
BLOCK
  5
1C
330
1B
100
AcDbEntity
 67
     1
  8
0
100
AcDbBlockBegin
  2
*PAPER_SPACE
 70
     0
 10
0.0
 20
0.0
 30
0.0
  3
*PAPER_SPACE
  1

  0
ENDBLK
  5
1D
330
1B
100
AcDbEntity
 67
     1
  8
0
100
AcDbBlockEnd
  0
BLOCK
  5
B3
330
B2
100
AcDbEntity
  8
0
100
AcDbBlockBegin
  2
EDTIP_ARROW_S
 70
     0
 10
0.0
 20
0.0
 30
0.0
  3
EDTIP_ARROW_S
  1

  0
LINE
  5
B5
330
B2
100
AcDbEntity
  8
0
  6
CONTINUOUS
 62
     0
100
AcDbLine
 10
0.0
 20
0.0
 30
0.0
 11
-1.0
 21
0.0
 31
0.0
  0
LINE
  5
B6
330
B2
100
AcDbEntity
  8
0
  6
CONTINUOUS
 62
     0
100
AcDbLine
 10
0.0
 20
0.0
 30
0.0
 11
-0.965926
 21
0.258819
 31
0.0
  0
LINE
  5
B7
330
B2
100
AcDbEntity
  8
0
  6
CONTINUOUS
 62
     0
100
AcDbLine
 10
0.0
 20
0.0
 30
0.0
 11
-0.965926
 21
-0.258819
 31
0.0
  0
ENDBLK
  5
B4
330
B2
100
AcDbEntity
  8
0
100
AcDbBlockEnd
  0
BLOCK
  5
B9
330
B8
100
AcDbEntity
  8
0
100
AcDbBlockBegin
  2
EDTIP_ARROW_E
 70
     0
 10
0.0
 20
0.0
 30
0.0
  3
EDTIP_ARROW_E
  1

  0
LINE
  5
BB
330
B8
100
AcDbEntity
  8
0
  6
CONTINUOUS
 62
     0
100
AcDbLine
 10
0.0
 20
0.0
 30
0.0
 11
-1.0
 21
0.0
 31
0.0
  0
LINE
  5
BC
330
B8
100
AcDbEntity
  8
0
  6
CONTINUOUS
 62
     0
100
AcDbLine
 10
0.0
 20
0.0
 30
0.0
 11
-0.965926
 21
-0.258819
 31
0.0
  0
LINE
  5
BD
330
B8
100
AcDbEntity
  8
0
  6
CONTINUOUS
 62
     0
100
AcDbLine
 10
0.0
 20
0.0
 30
0.0
 11
-0.965926
 21
0.258819
 31
0.0
  0
ENDBLK
  5
BA
330
B8
100
AcDbEntity
  8
0
100
AcDbBlockEnd
  0
BLOCK
  5
BF
330
BE
100
AcDbEntity
  8
0
100
AcDbBlockBegin
  2
EDTIP_BLACKDOT_S
 70
     0
 10
0.0
 20
0.0
 30
0.0
  3
EDTIP_BLACKDOT_S
  1

  0
LINE
  5
C1
330
BE
100
AcDbEntity
  8
0
  6
CONTINUOUS
 62
     0
100
AcDbLine
 10
0.0
 20
0.0
 30
0.0
 11
-1.0
 21
0.0
 31
0.0
  0
CIRCLE
  5
C2
330
BE
100
AcDbEntity
  8
0
  6
CONTINUOUS
 62
     0
100
AcDbCircle
 10
0.0
 20
0.0
 30
0.0
 40
0.5
  0
CIRCLE
  5
C3
330
BE
100
AcDbEntity
  8
0
  6
CONTINUOUS
 62
     0
100
AcDbCircle
 10
0.0
 20
0.0
 30
0.0
 40
0.25
  0
ENDBLK
  5
C0
330
BE
100
AcDbEntity
  8
0
100
AcDbBlockEnd
  0
BLOCK
  5
C5
330
C4
100
AcDbEntity
  8
0
100
AcDbBlockBegin
  2
EDTIP_BLACKDOT_E
 70
     0
 10
0.0
 20
0.0
 30
0.0
  3
EDTIP_BLACKDOT_E
  1

  0
LINE
  5
C7
330
C4
100
AcDbEntity
  8
0
  6
CONTINUOUS
 62
     0
100
AcDbLine
 10
0.0
 20
0.0
 30
0.0
 11
-1.0
 21
0.0
 31
0.0
  0
CIRCLE
  5
C8
330
C4
100
AcDbEntity
  8
0
  6
CONTINUOUS
 62
     0
100
AcDbCircle
 10
0.0
 20
0.0
 30
0.0
 40
0.5
  0
CIRCLE
  5
C9
330
C4
100
AcDbEntity
  8
0
  6
CONTINUOUS
 62
     0
100
AcDbCircle
 10
0.0
 20
0.0
 30
0.0
 40
0.25
  0
ENDBLK
  5
C6
330
C4
100
AcDbEntity
  8
0
100
AcDbBlockEnd
  0
BLOCK
  5
CB
330
CA
100
AcDbEntity
  8
0
100
AcDbBlockBegin
  2
EDTIP_ARCHITECT_S
 70
     0
 10
0.0
 20
0.0
 30
0.0
  3
EDTIP_ARCHITECT_S
  1

  0
LINE
  5
CD
330
CA
100
AcDbEntity
  8
0
  6
CONTINUOUS
 62
     0
100
AcDbLine
 10
0.0
 20
0.0
 30
0.0
 11
-1.0
 21
0.0
 31
0.0
  0
LINE
  5
CE
330
CA
100
AcDbEntity
  8
0
  6
CONTINUOUS
 62
     0
100
AcDbLine
 10
0.0
 20
0.0
 30
0.0
 11
-0.707107
 21
-0.707107
 31
0.0
  0
LINE
  5
CF
330
CA
100
AcDbEntity
  8
0
  6
CONTINUOUS
 62
     0
100
AcDbLine
 10
0.0
 20
0.0
 30
0.0
 11
0.707107
 21
0.707107
 31
0.0
  0
ENDBLK
  5
CC
330
CA
100
AcDbEntity
  8
0
100
AcDbBlockEnd
  0
BLOCK
  5
D1
330
D0
100
AcDbEntity
  8
0
100
AcDbBlockBegin
  2
EDTIP_ARCHITECT_E
 70
     0
 10
0.0
 20
0.0
 30
0.0
  3
EDTIP_ARCHITECT_E
  1

  0
LINE
  5
D3
330
D0
100
AcDbEntity
  8
0
  6
CONTINUOUS
 62
     0
100
AcDbLine
 10
0.0
 20
0.0
 30
0.0
 11
-1.0
 21
0.0
 31
0.0
  0
LINE
  5
D4
330
D0
100
AcDbEntity
  8
0
  6
CONTINUOUS
 62
     0
100
AcDbLine
 10
0.0
 20
0.0
 30
0.0
 11
-0.707107
 21
-0.707107
 31
0.0
  0
LINE
  5
D5
330
D0
100
AcDbEntity
  8
0
  6
CONTINUOUS
 62
     0
100
AcDbLine
 10
0.0
 20
0.0
 30
0.0
 11
0.707107
 21
0.707107
 31
0.0
  0
ENDBLK
  5
D2
330
D0
100
AcDbEntity
  8
0
100
AcDbBlockEnd
  0
BLOCK
  5
D7
330
D6
100
AcDbEntity
  8
0
100
AcDbBlockBegin
  2
EDTIP_CIVIL_S
 70
     0
 10
0.0
 20
0.0
 30
0.0
  3
EDTIP_CIVIL_S
  1

  0
LINE
  5
D9
330
D6
100
AcDbEntity
  8
0
  6
CONTINUOUS
 62
     0
100
AcDbLine
 10
0.0
 20
0.0
 30
0.0
 11
-1.0
 21
0.0
 31
0.0
  0
LINE
  5
DA
330
D6
100
AcDbEntity
  8
0
  6
CONTINUOUS
 62
     0
100
AcDbLine
 10
0.0
 20
-0.008333
 30
0.0
 11
-1.0
 21
-0.008333
 31
0.0
  0
LINE
  5
DB
330
D6
100
AcDbEntity
  8
0
  6
CONTINUOUS
 62
     0
100
AcDbLine
 10
0.0
 20
-0.016667
 30
0.0
 11
-1.0
 21
-0.016667
 31
0.0
  0
ENDBLK
  5
D8
330
D6
100
AcDbEntity
  8
0
100
AcDbBlockEnd
  0
BLOCK
  5
DD
330
DC
100
AcDbEntity
  8
0
100
AcDbBlockBegin
  2
EDTIP_CIVIL_E
 70
     0
 10
0.0
 20
0.0
 30
0.0
  3
EDTIP_CIVIL_E
  1

  0
LINE
  5
DF
330
DC
100
AcDbEntity
  8
0
  6
CONTINUOUS
 62
     0
100
AcDbLine
 10
0.0
 20
0.0
 30
0.0
 11
-1.0
 21
0.0
 31
0.0
  0
LINE
  5
E0
330
DC
100
AcDbEntity
  8
0
  6
CONTINUOUS
 62
     0
100
AcDbLine
 10
0.0
 20
0.008333
 30
0.0
 11
-1.0
 21
0.008333
 31
0.0
  0
LINE
  5
E1
330
DC
100
AcDbEntity
  8
0
  6
CONTINUOUS
 62
     0
100
AcDbLine
 10
0.0
 20
0.016667
 30
0.0
 11
-1.0
 21
0.016667
 31
0.0
  0
ENDBLK
  5
DE
330
DC
100
AcDbEntity
  8
0
100
AcDbBlockEnd
  0
BLOCK
  5
E3
330
E2
100
AcDbEntity
  8
0
100
AcDbBlockBegin
  2
EDTIP_WHITEDOT_S
 70
     0
 10
0.0
 20
0.0
 30
0.0
  3
EDTIP_WHITEDOT_S
  1

  0
LINE
  5
E5
330
E2
100
AcDbEntity
  8
0
  6
CONTINUOUS
 62
     0
100
AcDbLine
 10
0.0
 20
0.0
 30
0.0
 11
-1.0
 21
0.0
 31
0.0
  0
CIRCLE
  5
E6
330
E2
100
AcDbEntity
  8
0
  6
CONTINUOUS
 62
     0
100
AcDbCircle
 10
0.0
 20
0.0
 30
0.0
 40
0.5
  0
ENDBLK
  5
E4
330
E2
100
AcDbEntity
  8
0
100
AcDbBlockEnd
  0
BLOCK
  5
E8
330
E7
100
AcDbEntity
  8
0
100
AcDbBlockBegin
  2
EDTIP_WHITEDOT_E
 70
     0
 10
0.0
 20
0.0
 30
0.0
  3
EDTIP_WHITEDOT_E
  1

  0
LINE
  5
EA
330
E7
100
AcDbEntity
  8
0
  6
CONTINUOUS
 62
     0
100
AcDbLine
 10
0.0
 20
0.0
 30
0.0
 11
-1.0
 21
0.0
 31
0.0
  0
CIRCLE
  5
EB
330
E7
100
AcDbEntity
  8
0
  6
CONTINUOUS
 62
     0
100
AcDbCircle
 10
0.0
 20
0.0
 30
0.0
 40
0.5
  0
ENDBLK
  5
E9
330
E7
100
AcDbEntity
  8
0
100
AcDbBlockEnd
  0
BLOCK
  5
EF
330
EE
100
AcDbEntity
  8
0
100
AcDbBlockBegin
  2
BLKF014
 70
     0
 10
0.0
 20
0.0
 30
0.0
  3
BLKF014
  1

  0
LINE
  5
F2
330
EE
100
AcDbEntity
  8
0
  6
CONTINUOUS
 62
     3
100
AcDbLine
 10
2260.412556
 20
1701.539938
 30
0.0
 11
2291.412556
 21
1755.233513
 31
0.0
  0
LINE
  5
F3
330
EE
100
AcDbEntity
  8
0
  6
CONTINUOUS
 62
     3
100
AcDbLine
 10
2261.32762
 20
1698.124875
 30
0.0
 11
2334.939779
 21
1655.624875
 31
0.0
  0
LINE
  5
F4
330
EE
100
AcDbEntity
  8
0
  6
CENTER
 62
     5
100
AcDbLine
 10
2244.880287
 20
1791.336536
 30
0.0
 11
2295.412556
 21
1762.161717
 31
0.0
  0
LINE
  5
F5
330
EE
100
AcDbEntity
  8
0
  6
CONTINUOUS
 62
     2
100
AcDbLine
 10
2289.57762
 20
1747.05531
 30
0.0
 11
2363.189779
 21
1704.55531
 31
0.0
  0
LINE
  5
F6
330
EE
100
AcDbEntity
  8
0
  6
CONTINUOUS
 62
     3
100
AcDbLine
 10
2263.82762
 20
1702.455002
 30
0.0
 11
2286.32762
 21
1741.426145
 31
0.0
  0
LINE
  5
F7
330
EE
100
AcDbEntity
  8
0
  6
CONTINUOUS
 62
     3
100
AcDbLine
 10
2338.354843
 20
1656.539938
 30
0.0
 11
2373.354843
 21
1717.161717
 31
0.0
  0
LINE
  5
F8
330
EE
100
AcDbEntity
  8
0
  6
CONTINUOUS
 62
     3
100
AcDbLine
 10
2264.742683
 20
1699.039938
 30
0.0
 11
2331.426639
 21
1660.539938
 31
0.0
  0
LINE
  5
F9
330
EE
100
AcDbEntity
  8
0
  6
CONTINUOUS
 62
     3
100
AcDbLine
 10
2289.742683
 20
1742.341209
 30
0.0
 11
2356.426639
 21
1703.841209
 31
0.0
  0
ARC
  5
FA
330
EE
100
AcDbEntity
  8
0
  6
CONTINUOUS
 62
     3
100
AcDbCircle
 10
2297.10222
 20
1709.224664
 30
0.0
 40
59.56818181817743
100
AcDbArc
 50
305.185163
 51
354.814837
  0
ARC
  5
FB
330
EE
100
AcDbEntity
  8
0
  6
CONTINUOUS
 62
     3
100
AcDbCircle
 10
2265.992683
 20
1701.205002
 30
0.0
 40
2.5
100
AcDbArc
 50
150.0
 51
240.0
  0
ARC
  5
FC
330
EE
100
AcDbEntity
  8
0
  6
CONTINUOUS
 62
     3
100
AcDbCircle
 10
2288.492683
 20
1740.176145
 30
0.0
 40
2.5
100
AcDbArc
 50
60.0
 51
150.0
  0
ARC
  5
FD
330
EE
100
AcDbEntity
  8
0
  6
CONTINUOUS
 62
     3
100
AcDbCircle
 10
2262.57762
 20
1700.289938
 30
0.0
 40
2.5
100
AcDbArc
 50
150.0
 51
240.0
  0
ARC
  5
FE
330
EE
100
AcDbEntity
  8
0
  6
CONTINUOUS
 62
     3
100
AcDbCircle
 10
2336.189779
 20
1657.789938
 30
0.0
 40
2.5
100
AcDbArc
 50
240.0
 51
330.0
  0
ARC
  5
FF
330
EE
100
AcDbEntity
  8
0
  6
CONTINUOUS
 62
     2
100
AcDbCircle
 10
2364.439779
 20
1706.720374
 30
0.0
 40
2.5
100
AcDbArc
 50
240.0
 51
330.0
  0
ARC
  5
100
330
EE
100
AcDbEntity
  8
0
  6
CONTINUOUS
 62
     2
100
AcDbCircle
 10
2290.82762
 20
1749.220374
 30
0.0
 40
2.5
100
AcDbArc
 50
150.0
 51
240.0
  0
LINE
  5
101
330
EE
100
AcDbEntity
  8
0
  6
CONTINUOUS
 62
     3
100
AcDbLine
 10
2330.412556
 20
1822.783495
 30
0.0
 11
2299.412556
 21
1769.08992
 31
0.0
  0
LINE
  5
102
330
EE
100
AcDbEntity
  8
0
  6
CONTINUOUS
 62
     3
100
AcDbLine
 10
2333.82762
 20
1823.698558
 30
0.0
 11
2407.439779
 21
1781.198558
 31
0.0
  0
LINE
  5
103
330
EE
100
AcDbEntity
  8
0
  6
CONTINUOUS
 62
     2
100
AcDbLine
 10
2305.57762
 20
1774.768123
 30
0.0
 11
2379.189779
 21
1732.268123
 31
0.0
  0
LINE
  5
104
330
EE
100
AcDbEntity
  8
0
  6
CONTINUOUS
 62
     3
100
AcDbLine
 10
2408.354843
 20
1777.783495
 30
0.0
 11
2373.354843
 21
1717.161717
 31
0.0
  0
ARC
  5
105
330
EE
100
AcDbEntity
  8
0
  6
CONTINUOUS
 62
     3
100
AcDbCircle
 10
2332.57762
 20
1821.533495
 30
0.0
 40
2.5
100
AcDbArc
 50
60.0
 51
150.0
  0
ARC
  5
106
330
EE
100
AcDbEntity
  8
0
  6
CONTINUOUS
 62
     3
100
AcDbCircle
 10
2406.189779
 20
1779.033495
 30
0.0
 40
2.5
100
AcDbArc
 50
330.0
 51
60.0
  0
ARC
  5
107
330
EE
100
AcDbEntity
  8
0
  6
CONTINUOUS
 62
     2
100
AcDbCircle
 10
2377.939779
 20
1730.10306
 30
0.0
 40
2.5
100
AcDbArc
 50
330.0
 51
60.0
  0
ARC
  5
108
330
EE
100
AcDbEntity
  8
0
  6
CONTINUOUS
 62
     2
100
AcDbCircle
 10
2304.32762
 20
1772.60306
 30
0.0
 40
2.5
100
AcDbArc
 50
60.0
 51
150.0
  0
LINE
  5
109
330
EE
100
AcDbEntity
  8
0
  6
CONTINUOUS
 62
     3
100
AcDbLine
 10
2331.32762
 20
1819.368431
 30
0.0
 11
2308.82762
 21
1780.397288
 31
0.0
  0
LINE
  5
10A
330
EE
100
AcDbEntity
  8
0
  6
CONTINUOUS
 62
     3
100
AcDbLine
 10
2334.742683
 20
1820.283495
 30
0.0
 11
2401.426639
 21
1781.783495
 31
0.0
  0
LINE
  5
10B
330
EE
100
AcDbEntity
  8
0
  6
CONTINUOUS
 62
     3
100
AcDbLine
 10
2309.742683
 20
1776.982225
 30
0.0
 11
2376.426639
 21
1738.482225
 31
0.0
  0
ARC
  5
10C
330
EE
100
AcDbEntity
  8
0
  6
CONTINUOUS
 62
     3
100
AcDbCircle
 10
2342.10222
 20
1787.166951
 30
0.0
 40
59.56818181817743
100
AcDbArc
 50
305.185163
 51
354.814837
  0
ARC
  5
10D
330
EE
100
AcDbEntity
  8
0
  6
CONTINUOUS
 62
     3
100
AcDbCircle
 10
2333.492683
 20
1818.118431
 30
0.0
 40
2.5
100
AcDbArc
 50
60.0
 51
150.0
  0
ARC
  5
10E
330
EE
100
AcDbEntity
  8
0
  6
CONTINUOUS
 62
     3
100
AcDbCircle
 10
2310.992683
 20
1779.147288
 30
0.0
 40
2.5
100
AcDbArc
 50
150.0
 51
240.0
  0
LINE
  5
10F
330
EE
100
AcDbEntity
  8
0
  6
CONTINUOUS
 62
     3
100
AcDbLine
 10
2292.850379
 20
1771.723894
 30
0.0
 11
2291.100379
 21
1768.692806
 31
0.0
  0
LINE
  5
110
330
EE
100
AcDbEntity
  8
0
  6
CONTINUOUS
 62
     3
100
AcDbLine
 10
2246.630287
 20
1794.367625
 30
0.0
 11
2291.100379
 21
1768.692806
 31
0.0
  0
LINE
  5
111
330
EE
100
AcDbEntity
  8
0
  6
CONTINUOUS
 62
     3
100
AcDbLine
 10
2294.216404
 20
1772.08992
 30
0.0
 11
2299.412556
 21
1769.08992
 31
0.0
  0
LINE
  5
112
330
EE
100
AcDbEntity
  8
0
  6
CONTINUOUS
 62
     3
100
AcDbLine
 10
2286.216404
 20
1758.233513
 30
0.0
 11
2291.412556
 21
1755.233513
 31
0.0
  0
LINE
  5
113
330
EE
100
AcDbEntity
  8
0
  6
CONTINUOUS
 62
     3
100
AcDbLine
 10
2243.130287
 20
1788.305447
 30
0.0
 11
2287.600379
 21
1762.630628
 31
0.0
  0
ARC
  5
114
330
EE
100
AcDbEntity
  8
0
  6
CONTINUOUS
 62
     3
100
AcDbCircle
 10
2286.716404
 20
1759.099539
 30
0.0
 40
1.0
100
AcDbArc
 50
150.0
 51
240.0
  0
ARC
  5
115
330
EE
100
AcDbEntity
  8
0
  6
CONTINUOUS
 62
     3
100
AcDbCircle
 10
2293.716404
 20
1771.223894
 30
0.0
 40
1.0
100
AcDbArc
 50
60.0
 51
150.0
  0
LINE
  5
116
330
EE
100
AcDbEntity
  8
0
  6
CONTINUOUS
 62
     3
100
AcDbLine
 10
2287.600379
 20
1762.630628
 30
0.0
 11
2285.850379
 21
1759.599539
 31
0.0
  0
LINE
  5
117
330
EE
100
AcDbEntity
  8
0
  6
CONTINUOUS
 62
     2
100
AcDbLine
 10
2291.100379
 20
1768.692806
 30
0.0
 11
2287.600379
 21
1762.630628
 31
0.0
  0
LINE
  5
118
330
EE
100
AcDbEntity
  8
0
  6
CONTINUOUS
 62
     2
100
AcDbLine
 10
2291.412556
 20
1755.233513
 30
0.0
 11
2295.412556
 21
1762.161717
 31
0.0
  0
LINE
  5
119
330
EE
100
AcDbEntity
  8
0
  6
CONTINUOUS
 62
     2
100
AcDbLine
 10
2299.412556
 20
1769.08992
 30
0.0
 11
2295.412556
 21
1762.161717
 31
0.0
  0
LINE
  5
11A
330
EE
100
AcDbEntity
  8
0
  6
CONTINUOUS
 62
     2
100
AcDbLine
 10
2306.21267
 20
1741.882039
 30
0.0
 11
2298.301528
 21
1746.449539
 31
0.0
  0
LINE
  5
11B
330
EE
100
AcDbEntity
  8
0
  6
CONTINUOUS
 62
     2
100
AcDbLine
 10
2318.02517
 20
1762.341889
 30
0.0
 11
2310.114028
 21
1766.909389
 31
0.0
  0
LINE
  5
11C
330
EE
100
AcDbEntity
  8
0
  6
CONTINUOUS
 62
     2
100
AcDbLine
 10
2297.840336
 20
1748.170731
 30
0.0
 11
2308.392836
 21
1766.448197
 31
0.0
  0
LINE
  5
11D
330
EE
100
AcDbEntity
  8
0
  6
CONTINUOUS
 62
     2
100
AcDbLine
 10
2307.933862
 20
1742.343231
 30
0.0
 11
2318.486362
 21
1760.620697
 31
0.0
  0
LINE
  5
11E
330
EE
100
AcDbEntity
  8
0
  6
CONTINUOUS
 62
     2
100
AcDbLine
 10
2316.534574
 20
1761.020101
 30
0.0
 11
2309.578225
 21
1765.036351
 31
0.0
  0
LINE
  5
11F
330
EE
100
AcDbEntity
  8
0
  6
CONTINUOUS
 62
     2
100
AcDbLine
 10
2314.959574
 20
1758.292121
 30
0.0
 11
2314.14118
 21
1758.764621
 31
0.0
  0
LINE
  5
120
330
EE
100
AcDbEntity
  8
0
  6
CONTINUOUS
 62
     2
100
AcDbLine
 10
2310.628324
 20
1750.790176
 30
0.0
 11
2309.80993
 21
1751.262676
 31
0.0
  0
LINE
  5
121
330
EE
100
AcDbEntity
  8
0
  6
CONTINUOUS
 62
     2
100
AcDbLine
 10
2308.344574
 20
1746.834605
 30
0.0
 11
2303.979806
 21
1749.354605
 31
0.0
  0
LINE
  5
122
330
EE
100
AcDbEntity
  8
0
  6
CONTINUOUS
 62
     2
100
AcDbLine
 10
2309.850617
 20
1747.238148
 30
0.0
 11
2311.031867
 21
1749.284133
 31
0.0
  0
LINE
  5
123
330
EE
100
AcDbEntity
  8
0
  6
CONTINUOUS
 62
     2
100
AcDbLine
 10
2303.576263
 20
1750.860648
 30
0.0
 11
2304.757513
 21
1752.906633
 31
0.0
  0
LINE
  5
124
330
EE
100
AcDbEntity
  8
0
  6
CONTINUOUS
 62
     2
100
AcDbLine
 10
2307.599682
 20
1763.814414
 30
0.0
 11
2308.072182
 21
1764.632808
 31
0.0
  0
LINE
  5
125
330
EE
100
AcDbEntity
  8
0
  6
CONTINUOUS
 62
     2
100
AcDbLine
 10
2309.464036
 20
1752.55357
 30
0.0
 11
2312.850286
 21
1758.418727
 31
0.0
  0
LINE
  5
126
330
EE
100
AcDbEntity
  8
0
  6
CONTINUOUS
 62
     2
100
AcDbLine
 10
2308.782041
 20
1752.94732
 30
0.0
 11
2312.168291
 21
1758.812477
 31
0.0
  0
ARC
  5
127
330
EE
100
AcDbEntity
  8
0
  6
CONTINUOUS
 62
     2
100
AcDbCircle
 10
2308.895824
 20
1747.789398
 30
0.0
 40
1.1025
100
AcDbArc
 50
240.0
 51
330.0
  0
ARC
  5
128
330
EE
100
AcDbEntity
  8
0
  6
CONTINUOUS
 62
     2
100
AcDbCircle
 10
2304.531056
 20
1750.309398
 30
0.0
 40
1.1025
100
AcDbArc
 50
150.0
 51
240.0
  0
ARC
  5
129
330
EE
100
AcDbEntity
  8
0
  6
CONTINUOUS
 62
     2
100
AcDbCircle
 10
2305.712306
 20
1752.355383
 30
0.0
 40
1.1025
100
AcDbArc
 50
60.0
 51
150.0
  0
ARC
  5
12A
330
EE
100
AcDbEntity
  8
0
  6
CONTINUOUS
 62
     2
100
AcDbCircle
 10
2310.077074
 20
1749.835383
 30
0.0
 40
1.1025
100
AcDbArc
 50
330.0
 51
60.0
  0
ARC
  5
12B
330
EE
100
AcDbEntity
  8
0
  6
CONTINUOUS
 62
     2
100
AcDbCircle
 10
2308.554475
 20
1763.263164
 30
0.0
 40
1.1025
100
AcDbArc
 50
150.0
 51
240.0
  0
ARC
  5
12C
330
EE
100
AcDbEntity
  8
0
  6
CONTINUOUS
 62
     2
100
AcDbCircle
 10
2309.026975
 20
1764.081558
 30
0.0
 40
1.1025
100
AcDbArc
 50
60.0
 51
150.0
  0
ARC
  5
12D
330
EE
100
AcDbEntity
  8
0
  6
CONTINUOUS
 62
     2
100
AcDbCircle
 10
2315.983324
 20
1760.065308
 30
0.0
 40
1.1025
100
AcDbArc
 50
330.0
 51
60.0
  0
ARC
  5
12E
330
EE
100
AcDbEntity
  8
0
  6
CONTINUOUS
 62
     2
100
AcDbCircle
 10
2315.510824
 20
1759.246914
 30
0.0
 40
1.1025
100
AcDbArc
 50
240.0
 51
330.0
  0
LINE
  5
12F
330
EE
100
AcDbEntity
  8
0
  6
CONTINUOUS
 62
     2
100
AcDbLine
 10
2307.491147
 20
1752.601426
 30
0.0
 11
2306.263556
 21
1753.310176
 31
0.0
  0
LINE
  5
130
330
EE
100
AcDbEntity
  8
0
  6
CONTINUOUS
 62
     2
100
AcDbLine
 10
2311.822397
 20
1760.103371
 30
0.0
 11
2308.003225
 21
1762.308371
 31
0.0
  0
ARC
  5
131
330
EE
100
AcDbEntity
  8
0
  6
CONTINUOUS
 62
     2
100
AcDbCircle
 10
2310.28243
 20
1752.08107
 30
0.0
 40
0.945
100
AcDbArc
 50
150.0
 51
240.0
  0
ARC
  5
132
330
EE
100
AcDbEntity
  8
0
  6
CONTINUOUS
 62
     2
100
AcDbCircle
 10
2307.963647
 20
1753.41982
 30
0.0
 40
0.945
100
AcDbArc
 50
240.0
 51
330.0
  0
ARC
  5
133
330
EE
100
AcDbEntity
  8
0
  6
CONTINUOUS
 62
     2
100
AcDbCircle
 10
2311.349897
 20
1759.284977
 30
0.0
 40
0.945
100
AcDbArc
 50
330.0
 51
60.0
  0
ARC
  5
134
330
EE
100
AcDbEntity
  8
0
  6
CONTINUOUS
 62
     2
100
AcDbCircle
 10
2306.84267
 20
1742.973231
 30
0.0
 40
1.26
100
AcDbArc
 50
240.0
 51
330.0
  0
ARC
  5
135
330
EE
100
AcDbEntity
  8
0
  6
CONTINUOUS
 62
     2
100
AcDbCircle
 10
2298.931528
 20
1747.540731
 30
0.0
 40
1.26
100
AcDbArc
 50
150.0
 51
240.0
  0
ARC
  5
136
330
EE
100
AcDbEntity
  8
0
  6
CONTINUOUS
 62
     2
100
AcDbCircle
 10
2309.484028
 20
1765.818197
 30
0.0
 40
1.26
100
AcDbArc
 50
60.0
 51
150.0
  0
ARC
  5
137
330
EE
100
AcDbEntity
  8
0
  6
CONTINUOUS
 62
     2
100
AcDbCircle
 10
2317.39517
 20
1761.250697
 30
0.0
 40
1.26
100
AcDbArc
 50
330.0
 51
60.0
  0
ARC
  5
138
330
EE
100
AcDbEntity
  8
0
  6
CONTINUOUS
 62
     2
100
AcDbCircle
 10
2313.66868
 20
1757.946227
 30
0.0
 40
0.945
100
AcDbArc
 50
60.0
 51
150.0
  0
LINE
  5
139
330
EE
100
AcDbEntity
  8
0
  6
CONTINUOUS
 62
     2
100
AcDbLine
 10
2316.465617
 20
1758.695664
 30
0.0
 11
2316.938117
 21
1759.514058
 31
0.0
  0
CIRCLE
  5
13A
330
EE
100
AcDbEntity
  8
0
  6
CONTINUOUS
 62
     2
100
AcDbCircle
 10
2363.710695
 20
1732.102448
 30
0.0
 40
1.5
  0
CIRCLE
  5
13B
330
EE
100
AcDbEntity
  8
0
  6
CONTINUOUS
 62
     2
100
AcDbCircle
 10
2363.710695
 20
1732.102448
 30
0.0
 40
1.0
  0
POINT
  5
13C
330
EE
100
AcDbEntity
  8
0
  6
CONTINUOUS
 62
     2
100
AcDbPoint
 10
2363.710695
 20
1732.102448
 30
0.0
  0
CIRCLE
  5
13D
330
EE
100
AcDbEntity
  8
0
  6
CONTINUOUS
 62
     2
100
AcDbCircle
 10
2355.050441
 20
1737.102448
 30
0.0
 40
1.5
  0
CIRCLE
  5
13E
330
EE
100
AcDbEntity
  8
0
  6
CONTINUOUS
 62
     2
100
AcDbCircle
 10
2355.050441
 20
1737.102448
 30
0.0
 40
1.0
  0
POINT
  5
13F
330
EE
100
AcDbEntity
  8
0
  6
CONTINUOUS
 62
     2
100
AcDbPoint
 10
2355.050441
 20
1737.102448
 30
0.0
  0
CIRCLE
  5
140
330
EE
100
AcDbEntity
  8
0
  6
CONTINUOUS
 62
     2
100
AcDbCircle
 10
2346.390187
 20
1742.102448
 30
0.0
 40
1.5
  0
CIRCLE
  5
141
330
EE
100
AcDbEntity
  8
0
  6
CONTINUOUS
 62
     2
100
AcDbCircle
 10
2346.390187
 20
1742.102448
 30
0.0
 40
1.0
  0
POINT
  5
142
330
EE
100
AcDbEntity
  8
0
  6
CONTINUOUS
 62
     2
100
AcDbPoint
 10
2346.390187
 20
1742.102448
 30
0.0
  0
TEXT
  5
143
330
EE
100
AcDbEntity
  8
0
  6
CONTINUOUS
 62
     2
100
AcDbText
 10
2358.171713
 20
1718.862033
 30
0.0
 40
3.646549
  1
3
 50
60.0
 41
1.113868
  7
ED_VECTOR
100
AcDbText
  0
TEXT
  5
144
330
EE
100
AcDbEntity
  8
0
  6
CONTINUOUS
 62
     2
100
AcDbText
 10
2349.511556
 20
1723.862033
 30
0.0
 40
3.646549
  1
2
 50
60.0
 41
1.113868
  7
ED_VECTOR
100
AcDbText
  0
TEXT
  5
145
330
EE
100
AcDbEntity
  8
0
  6
CONTINUOUS
 62
     2
100
AcDbText
 10
2340.8514
 20
1728.862033
 30
0.0
 40
3.646549
  1
1
 50
60.0
 41
1.113868
  7
ED_VECTOR
100
AcDbText
  0
CIRCLE
  5
146
330
EE
100
AcDbEntity
  8
0
  6
CONTINUOUS
 62
     2
100
AcDbCircle
 10
2300.290433
 20
1701.610446
 30
0.0
 40
2.5
  0
CIRCLE
  5
147
330
EE
100
AcDbEntity
  8
0
  6
CONTINUOUS
 62
     2
100
AcDbCircle
 10
2295.290433
 20
1692.950192
 30
0.0
 40
2.5
  0
CIRCLE
  5
148
330
EE
100
AcDbEntity
  8
0
  6
CONTINUOUS
 62
     2
100
AcDbCircle
 10
2303.950687
 20
1687.950192
 30
0.0
 40
2.5
  0
CIRCLE
  5
149
330
EE
100
AcDbEntity
  8
0
  6
CONTINUOUS
 62
     2
100
AcDbCircle
 10
2308.950687
 20
1696.610446
 30
0.0
 40
2.5
  0
CIRCLE
  5
14A
330
EE
100
AcDbEntity
  8
0
  6
CONTINUOUS
 62
     2
100
AcDbCircle
 10
2317.610941
 20
1691.610446
 30
0.0
 40
2.5
  0
CIRCLE
  5
14B
330
EE
100
AcDbEntity
  8
0
  6
CONTINUOUS
 62
     2
100
AcDbCircle
 10
2312.610941
 20
1682.950192
 30
0.0
 40
2.5
  0
CIRCLE
  5
14C
330
EE
100
AcDbEntity
  8
0
  6
CONTINUOUS
 62
     2
100
AcDbCircle
 10
2321.271195
 20
1677.950192
 30
0.0
 40
2.5
  0
CIRCLE
  5
14D
330
EE
100
AcDbEntity
  8
0
  6
CONTINUOUS
 62
     2
100
AcDbCircle
 10
2326.271195
 20
1686.610446
 30
0.0
 40
2.5
  0
CIRCLE
  5
14E
330
EE
100
AcDbEntity
  8
0
  6
CONTINUOUS
 62
     2
100
AcDbCircle
 10
2334.931449
 20
1681.610446
 30
0.0
 40
2.5
  0
CIRCLE
  5
14F
330
EE
100
AcDbEntity
  8
0
  6
CONTINUOUS
 62
     2
100
AcDbCircle
 10
2329.931449
 20
1672.950192
 30
0.0
 40
2.5
  0
CIRCLE
  5
150
330
EE
100
AcDbEntity
  8
0
  6
CONTINUOUS
 62
     2
100
AcDbCircle
 10
2305.290433
 20
1710.2707
 30
0.0
 40
2.5
  0
CIRCLE
  5
151
330
EE
100
AcDbEntity
  8
0
  6
CONTINUOUS
 62
     2
100
AcDbCircle
 10
2310.290433
 20
1718.930955
 30
0.0
 40
2.5
  0
CIRCLE
  5
152
330
EE
100
AcDbEntity
  8
0
  6
CONTINUOUS
 62
     2
100
AcDbCircle
 10
2318.950687
 20
1713.930955
 30
0.0
 40
2.5
  0
CIRCLE
  5
153
330
EE
100
AcDbEntity
  8
0
  6
CONTINUOUS
 62
     2
100
AcDbCircle
 10
2313.950687
 20
1705.2707
 30
0.0
 40
2.5
  0
CIRCLE
  5
154
330
EE
100
AcDbEntity
  8
0
  6
CONTINUOUS
 62
     2
100
AcDbCircle
 10
2322.610941
 20
1700.2707
 30
0.0
 40
2.5
  0
CIRCLE
  5
155
330
EE
100
AcDbEntity
  8
0
  6
CONTINUOUS
 62
     2
100
AcDbCircle
 10
2327.610941
 20
1708.930955
 30
0.0
 40
2.5
  0
CIRCLE
  5
156
330
EE
100
AcDbEntity
  8
0
  6
CONTINUOUS
 62
     2
100
AcDbCircle
 10
2336.271195
 20
1703.930955
 30
0.0
 40
2.5
  0
CIRCLE
  5
157
330
EE
100
AcDbEntity
  8
0
  6
CONTINUOUS
 62
     2
100
AcDbCircle
 10
2331.271195
 20
1695.2707
 30
0.0
 40
2.5
  0
CIRCLE
  5
158
330
EE
100
AcDbEntity
  8
0
  6
CONTINUOUS
 62
     2
100
AcDbCircle
 10
2339.931449
 20
1690.2707
 30
0.0
 40
2.5
  0
CIRCLE
  5
159
330
EE
100
AcDbEntity
  8
0
  6
CONTINUOUS
 62
     2
100
AcDbCircle
 10
2344.931449
 20
1698.930955
 30
0.0
 40
2.5
  0
CIRCLE
  5
15A
330
EE
100
AcDbEntity
  8
0
  6
CONTINUOUS
 62
     2
100
AcDbCircle
 10
2350.290433
 20
1788.212987
 30
0.0
 40
2.5
  0
CIRCLE
  5
15B
330
EE
100
AcDbEntity
  8
0
  6
CONTINUOUS
 62
     2
100
AcDbCircle
 10
2355.290433
 20
1796.873241
 30
0.0
 40
2.5
  0
CIRCLE
  5
15C
330
EE
100
AcDbEntity
  8
0
  6
CONTINUOUS
 62
     2
100
AcDbCircle
 10
2363.950687
 20
1791.873241
 30
0.0
 40
2.5
  0
CIRCLE
  5
15D
330
EE
100
AcDbEntity
  8
0
  6
CONTINUOUS
 62
     2
100
AcDbCircle
 10
2358.950687
 20
1783.212987
 30
0.0
 40
2.5
  0
CIRCLE
  5
15E
330
EE
100
AcDbEntity
  8
0
  6
CONTINUOUS
 62
     2
100
AcDbCircle
 10
2367.610941
 20
1778.212987
 30
0.0
 40
2.5
  0
CIRCLE
  5
15F
330
EE
100
AcDbEntity
  8
0
  6
CONTINUOUS
 62
     2
100
AcDbCircle
 10
2372.610941
 20
1786.873241
 30
0.0
 40
2.5
  0
CIRCLE
  5
160
330
EE
100
AcDbEntity
  8
0
  6
CONTINUOUS
 62
     2
100
AcDbCircle
 10
2381.271195
 20
1781.873241
 30
0.0
 40
2.5
  0
CIRCLE
  5
161
330
EE
100
AcDbEntity
  8
0
  6
CONTINUOUS
 62
     2
100
AcDbCircle
 10
2376.271195
 20
1773.212987
 30
0.0
 40
2.5
  0
CIRCLE
  5
162
330
EE
100
AcDbEntity
  8
0
  6
CONTINUOUS
 62
     2
100
AcDbCircle
 10
2384.931449
 20
1768.212987
 30
0.0
 40
2.5
  0
CIRCLE
  5
163
330
EE
100
AcDbEntity
  8
0
  6
CONTINUOUS
 62
     2
100
AcDbCircle
 10
2389.931449
 20
1776.873241
 30
0.0
 40
2.5
  0
CIRCLE
  5
164
330
EE
100
AcDbEntity
  8
0
  6
CONTINUOUS
 62
     2
100
AcDbCircle
 10
2345.290433
 20
1779.552733
 30
0.0
 40
2.5
  0
CIRCLE
  5
165
330
EE
100
AcDbEntity
  8
0
  6
CONTINUOUS
 62
     2
100
AcDbCircle
 10
2340.290433
 20
1770.892479
 30
0.0
 40
2.5
  0
CIRCLE
  5
166
330
EE
100
AcDbEntity
  8
0
  6
CONTINUOUS
 62
     2
100
AcDbCircle
 10
2348.950687
 20
1765.892479
 30
0.0
 40
2.5
  0
CIRCLE
  5
167
330
EE
100
AcDbEntity
  8
0
  6
CONTINUOUS
 62
     2
100
AcDbCircle
 10
2353.950687
 20
1774.552733
 30
0.0
 40
2.5
  0
CIRCLE
  5
168
330
EE
100
AcDbEntity
  8
0
  6
CONTINUOUS
 62
     2
100
AcDbCircle
 10
2362.610941
 20
1769.552733
 30
0.0
 40
2.5
  0
CIRCLE
  5
169
330
EE
100
AcDbEntity
  8
0
  6
CONTINUOUS
 62
     2
100
AcDbCircle
 10
2357.610941
 20
1760.892479
 30
0.0
 40
2.5
  0
CIRCLE
  5
16A
330
EE
100
AcDbEntity
  8
0
  6
CONTINUOUS
 62
     2
100
AcDbCircle
 10
2366.271195
 20
1755.892479
 30
0.0
 40
2.5
  0
CIRCLE
  5
16B
330
EE
100
AcDbEntity
  8
0
  6
CONTINUOUS
 62
     2
100
AcDbCircle
 10
2371.271195
 20
1764.552733
 30
0.0
 40
2.5
  0
CIRCLE
  5
16C
330
EE
100
AcDbEntity
  8
0
  6
CONTINUOUS
 62
     2
100
AcDbCircle
 10
2379.931449
 20
1759.552733
 30
0.0
 40
2.5
  0
CIRCLE
  5
16D
330
EE
100
AcDbEntity
  8
0
  6
CONTINUOUS
 62
     2
100
AcDbCircle
 10
2374.931449
 20
1750.892479
 30
0.0
 40
2.5
  0
LINE
  5
16E
330
EE
100
AcDbEntity
  8
0
  6
CONTINUOUS
 62
     2
100
AcDbLine
 10
2316.523772
 20
1781.727415
 30
0.0
 11
2334.023772
 21
1812.038304
 31
0.0
  0
LINE
  5
16F
330
EE
100
AcDbEntity
  8
0
  6
CONTINUOUS
 62
     2
100
AcDbLine
 10
2330.380179
 20
1773.727415
 30
0.0
 11
2347.880179
 21
1804.038304
 31
0.0
  0
LINE
  5
170
330
EE
100
AcDbEntity
  8
0
  6
CONTINUOUS
 62
     2
100
AcDbLine
 10
2317.07281
 20
1779.678377
 30
0.0
 11
2328.331141
 21
1773.178377
 31
0.0
  0
LINE
  5
171
330
EE
100
AcDbEntity
  8
0
  6
CONTINUOUS
 62
     2
100
AcDbLine
 10
2317.389798
 20
1781.227415
 30
0.0
 11
2334.889798
 21
1811.538304
 31
0.0
  0
LINE
  5
172
330
EE
100
AcDbEntity
  8
0
  6
CONTINUOUS
 62
     2
100
AcDbLine
 10
2329.514153
 20
1774.227415
 30
0.0
 11
2347.014153
 21
1804.538304
 31
0.0
  0
LINE
  5
173
330
EE
100
AcDbEntity
  8
0
  6
CONTINUOUS
 62
     2
100
AcDbLine
 10
2317.57281
 20
1780.544403
 30
0.0
 11
2328.831141
 21
1774.044403
 31
0.0
  0
LINE
  5
174
330
EE
100
AcDbEntity
  8
0
  6
CONTINUOUS
 62
     2
100
AcDbLine
 10
2336.07281
 20
1812.587342
 30
0.0
 11
2347.331141
 21
1806.087342
 31
0.0
  0
LINE
  5
175
330
EE
100
AcDbEntity
  8
0
  6
CONTINUOUS
 62
     2
100
AcDbLine
 10
2335.57281
 20
1811.721317
 30
0.0
 11
2346.831141
 21
1805.221317
 31
0.0
  0
ARC
  5
176
330
EE
100
AcDbEntity
  8
0
  6
CONTINUOUS
 62
     2
100
AcDbCircle
 10
2317.82281
 20
1780.977415
 30
0.0
 40
0.5
100
AcDbArc
 50
150.0
 51
240.0
  0
ARC
  5
177
330
EE
100
AcDbEntity
  8
0
  6
CONTINUOUS
 62
     2
100
AcDbCircle
 10
2329.081141
 20
1774.477415
 30
0.0
 40
0.5
100
AcDbArc
 50
240.0
 51
330.0
  0
ARC
  5
178
330
EE
100
AcDbEntity
  8
0
  6
CONTINUOUS
 62
     2
100
AcDbCircle
 10
2335.32281
 20
1811.288304
 30
0.0
 40
0.5
100
AcDbArc
 50
60.0
 51
150.0
  0
ARC
  5
179
330
EE
100
AcDbEntity
  8
0
  6
CONTINUOUS
 62
     2
100
AcDbCircle
 10
2346.581141
 20
1804.788304
 30
0.0
 40
0.5
100
AcDbArc
 50
330.0
 51
60.0
  0
ARC
  5
17A
330
EE
100
AcDbEntity
  8
0
  6
CONTINUOUS
 62
     2
100
AcDbCircle
 10
2317.82281
 20
1780.977415
 30
0.0
 40
1.5
100
AcDbArc
 50
150.0
 51
240.0
  0
ARC
  5
17B
330
EE
100
AcDbEntity
  8
0
  6
CONTINUOUS
 62
     2
100
AcDbCircle
 10
2329.081141
 20
1774.477415
 30
0.0
 40
1.5
100
AcDbArc
 50
240.0
 51
330.0
  0
ARC
  5
17C
330
EE
100
AcDbEntity
  8
0
  6
CONTINUOUS
 62
     2
100
AcDbCircle
 10
2335.32281
 20
1811.288304
 30
0.0
 40
1.5
100
AcDbArc
 50
60.0
 51
150.0
  0
ARC
  5
17D
330
EE
100
AcDbEntity
  8
0
  6
CONTINUOUS
 62
     2
100
AcDbCircle
 10
2346.581141
 20
1804.788304
 30
0.0
 40
1.5
100
AcDbArc
 50
330.0
 51
60.0
  0
LINE
  5
17E
330
EE
100
AcDbEntity
  8
0
  6
CONTINUOUS
 62
     2
100
AcDbLine
 10
2325.103899
 20
1786.588631
 30
0.0
 11
2334.103899
 21
1802.177088
 31
0.0
  0
LINE
  5
17F
330
EE
100
AcDbEntity
  8
0
  6
CONTINUOUS
 62
     2
100
AcDbLine
 10
2326.938211
 20
1795.921896
 30
0.0
 11
2334.103899
 21
1802.177088
 31
0.0
  0
LINE
  5
180
330
EE
100
AcDbEntity
  8
0
  6
CONTINUOUS
 62
     2
100
AcDbLine
 10
2326.938211
 20
1795.921896
 30
0.0
 11
2325.103899
 21
1786.588631
 31
0.0
  0
TEXT
  5
181
330
EE
100
AcDbEntity
  8
0
  6
CONTINUOUS
 62
     2
100
AcDbText
 10
2332.296666
 20
1782.458836
 30
0.0
 40
7.066058
  1
UP
 50
60.0
 41
1.166654
  7
ED_VECTOR
100
AcDbText
  0
LINE
  5
182
330
EE
100
AcDbEntity
  8
0
  6
CONTINUOUS
 62
     2
100
AcDbLine
 10
2289.023772
 20
1734.096018
 30
0.0
 11
2271.523772
 21
1703.785129
 31
0.0
  0
LINE
  5
183
330
EE
100
AcDbEntity
  8
0
  6
CONTINUOUS
 62
     2
100
AcDbLine
 10
2302.880179
 20
1726.096018
 30
0.0
 11
2285.380179
 21
1695.785129
 31
0.0
  0
LINE
  5
184
330
EE
100
AcDbEntity
  8
0
  6
CONTINUOUS
 62
     2
100
AcDbLine
 10
2291.07281
 20
1734.645056
 30
0.0
 11
2302.331141
 21
1728.145056
 31
0.0
  0
LINE
  5
185
330
EE
100
AcDbEntity
  8
0
  6
CONTINUOUS
 62
     2
100
AcDbLine
 10
2289.889798
 20
1733.596018
 30
0.0
 11
2272.389798
 21
1703.285129
 31
0.0
  0
LINE
  5
186
330
EE
100
AcDbEntity
  8
0
  6
CONTINUOUS
 62
     2
100
AcDbLine
 10
2302.014153
 20
1726.596018
 30
0.0
 11
2284.514153
 21
1696.285129
 31
0.0
  0
LINE
  5
187
330
EE
100
AcDbEntity
  8
0
  6
CONTINUOUS
 62
     2
100
AcDbLine
 10
2290.57281
 20
1733.779031
 30
0.0
 11
2301.831141
 21
1727.279031
 31
0.0
  0
LINE
  5
188
330
EE
100
AcDbEntity
  8
0
  6
CONTINUOUS
 62
     2
100
AcDbLine
 10
2272.07281
 20
1701.736091
 30
0.0
 11
2283.331141
 21
1695.236091
 31
0.0
  0
LINE
  5
189
330
EE
100
AcDbEntity
  8
0
  6
CONTINUOUS
 62
     2
100
AcDbLine
 10
2272.57281
 20
1702.602116
 30
0.0
 11
2283.831141
 21
1696.102116
 31
0.0
  0
ARC
  5
18A
330
EE
100
AcDbEntity
  8
0
  6
CONTINUOUS
 62
     2
100
AcDbCircle
 10
2290.32281
 20
1733.346018
 30
0.0
 40
0.5
100
AcDbArc
 50
60.0
 51
150.0
  0
ARC
  5
18B
330
EE
100
AcDbEntity
  8
0
  6
CONTINUOUS
 62
     2
100
AcDbCircle
 10
2301.581141
 20
1726.846018
 30
0.0
 40
0.5
100
AcDbArc
 50
330.0
 51
60.0
  0
ARC
  5
18C
330
EE
100
AcDbEntity
  8
0
  6
CONTINUOUS
 62
     2
100
AcDbCircle
 10
2272.82281
 20
1703.035129
 30
0.0
 40
0.5
100
AcDbArc
 50
150.0
 51
240.0
  0
ARC
  5
18D
330
EE
100
AcDbEntity
  8
0
  6
CONTINUOUS
 62
     2
100
AcDbCircle
 10
2284.081141
 20
1696.535129
 30
0.0
 40
0.5
100
AcDbArc
 50
240.0
 51
330.0
  0
ARC
  5
18E
330
EE
100
AcDbEntity
  8
0
  6
CONTINUOUS
 62
     2
100
AcDbCircle
 10
2290.32281
 20
1733.346018
 30
0.0
 40
1.5
100
AcDbArc
 50
60.0
 51
150.0
  0
ARC
  5
18F
330
EE
100
AcDbEntity
  8
0
  6
CONTINUOUS
 62
     2
100
AcDbCircle
 10
2301.581141
 20
1726.846018
 30
0.0
 40
1.5
100
AcDbArc
 50
330.0
 51
60.0
  0
ARC
  5
190
330
EE
100
AcDbEntity
  8
0
  6
CONTINUOUS
 62
     2
100
AcDbCircle
 10
2272.82281
 20
1703.035129
 30
0.0
 40
1.5
100
AcDbArc
 50
150.0
 51
240.0
  0
ARC
  5
191
330
EE
100
AcDbEntity
  8
0
  6
CONTINUOUS
 62
     2
100
AcDbCircle
 10
2284.081141
 20
1696.535129
 30
0.0
 40
1.5
100
AcDbArc
 50
240.0
 51
330.0
  0
LINE
  5
192
330
EE
100
AcDbEntity
  8
0
  6
CONTINUOUS
 62
     2
100
AcDbLine
 10
2293.843596
 20
1721.498337
 30
0.0
 11
2284.843596
 21
1705.90988
 31
0.0
  0
LINE
  5
193
330
EE
100
AcDbEntity
  8
0
  6
CONTINUOUS
 62
     2
100
AcDbLine
 10
2292.009284
 20
1712.165072
 30
0.0
 11
2284.843596
 21
1705.90988
 31
0.0
  0
LINE
  5
194
330
EE
100
AcDbEntity
  8
0
  6
CONTINUOUS
 62
     2
100
AcDbLine
 10
2292.009284
 20
1712.165072
 30
0.0
 11
2293.843596
 21
1721.498337
 31
0.0
  0
TEXT
  5
195
330
EE
100
AcDbEntity
  8
0
  6
CONTINUOUS
 62
     2
100
AcDbText
 10
2280.600365
 20
1701.780484
 30
0.0
 40
6.383575
  1
DOWN
 50
60.0
 41
0.969444
  7
ED_VECTOR
100
AcDbText
  0
ENDBLK
  5
F0
330
EE
100
AcDbEntity
  8
0
100
AcDbBlockEnd
  0
BLOCK
  5
1AA
330
1A9
100
AcDbEntity
  8
0
100
AcDbBlockBegin
  2
*D12
 70
     1
 10
0.0
 20
0.0
 30
0.0
  3
*D12
  1

  0
TEXT
  5
1AC
330
1A9
100
AcDbEntity
  8
0
  6
CONTINUOUS
 62
     3
100
AcDbText
 10
1462.539795
 20
1324.817749
 30
0.0
 40
40.0
  1
850
 41
0.75
  7
ED_VECTOR
100
AcDbText
  0
LINE
  5
1AD
330
1A9
100
AcDbEntity
  8
0
  6
CONTINUOUS
 62
     5
100
AcDbLine
 10
1082.539812
 20
1224.817774
 30
0.0
 11
1082.539812
 21
1324.817774
 31
0.0
  0
LINE
  5
1AE
330
1A9
100
AcDbEntity
  8
0
  6
CONTINUOUS
 62
     5
100
AcDbLine
 10
1932.539812
 20
1224.817774
 30
0.0
 11
1932.539812
 21
1324.817774
 31
0.0
  0
LINE
  5
1AF
330
1A9
100
AcDbEntity
  8
0
  6
CONTINUOUS
 62
     5
100
AcDbLine
 10
1082.539812
 20
1314.817774
 30
0.0
 11
1932.539812
 21
1314.817774
 31
0.0
  0
INSERT
  5
1B0
330
1A9
100
AcDbEntity
  8
0
  6
CONTINUOUS
 62
     5
100
AcDbBlockReference
  2
EDTIP_ARROW_S
 10
1082.539812
 20
1314.817774
 30
0.0
 41
30.0
 42
30.0
 50
180.0
  0
INSERT
  5
1B1
330
1A9
100
AcDbEntity
  8
0
  6
CONTINUOUS
 62
     5
100
AcDbBlockReference
  2
EDTIP_ARROW_E
 10
1932.539812
 20
1314.817774
 30
0.0
 41
30.0
 42
30.0
  0
ENDBLK
  5
1AB
330
1A9
100
AcDbEntity
  8
0
100
AcDbBlockEnd
  0
BLOCK
  5
1B8
330
1B7
100
AcDbEntity
  8
0
100
AcDbBlockBegin
  2
*D13
 70
     1
 10
0.0
 20
0.0
 30
0.0
  3
*D13
  1

  0
TEXT
  5
1BA
330
1B7
100
AcDbEntity
  8
0
  6
CONTINUOUS
 62
     3
100
AcDbText
 10
978.526184
 20
1768.364746
 30
0.0
 40
40.0
  1
520
 50
90.0
 41
0.75
  7
ED_VECTOR
100
AcDbText
  0
LINE
  5
1BB
330
1B7
100
AcDbEntity
  8
0
  6
CONTINUOUS
 62
     5
100
AcDbLine
 10
1072.539812
 20
1553.364712
 30
0.0
 11
978.526166
 21
1553.364712
 31
0.0
  0
LINE
  5
1BC
330
1B7
100
AcDbEntity
  8
0
  6
CONTINUOUS
 62
     5
100
AcDbLine
 10
1072.539812
 20
2073.364712
 30
0.0
 11
978.526166
 21
2073.364712
 31
0.0
  0
LINE
  5
1BD
330
1B7
100
AcDbEntity
  8
0
  6
CONTINUOUS
 62
     5
100
AcDbLine
 10
988.526166
 20
1553.364712
 30
0.0
 11
988.526166
 21
2073.364712
 31
0.0
  0
INSERT
  5
1BE
330
1B7
100
AcDbEntity
  8
0
  6
CONTINUOUS
 62
     5
100
AcDbBlockReference
  2
EDTIP_ARROW_S
 10
988.526166
 20
1553.364712
 30
0.0
 41
30.0
 42
30.0
 50
270.0
  0
INSERT
  5
1BF
330
1B7
100
AcDbEntity
  8
0
  6
CONTINUOUS
 62
     5
100
AcDbBlockReference
  2
EDTIP_ARROW_E
 10
988.526166
 20
2073.364712
 30
0.0
 41
30.0
 42
30.0
 50
90.0
  0
ENDBLK
  5
1B9
330
1B7
100
AcDbEntity
  8
0
100
AcDbBlockEnd
  0
BLOCK
  5
203
330
202
100
AcDbEntity
  8
0
100
AcDbBlockBegin
  2
*D14
 70
     1
 10
0.0
 20
0.0
 30
0.0
  3
*D14
  1

  0
TEXT
  5
205
330
202
100
AcDbEntity
  8
0
  6
CONTINUOUS
 62
     3
100
AcDbText
 10
2022.539917
 20
674.86499
 30
0.0
 40
40.0
  1
130
 50
90.0
 41
0.75
  7
ED_VECTOR
100
AcDbText
  0
LINE
  5
206
330
202
100
AcDbEntity
  8
0
  6
CONTINUOUS
 62
     5
100
AcDbLine
 10
1942.539812
 20
654.864988
 30
0.0
 11
2152.539812
 21
654.864988
 31
0.0
  0
LINE
  5
207
330
202
100
AcDbEntity
  8
0
  6
CONTINUOUS
 62
     5
100
AcDbLine
 10
1942.539812
 20
784.864988
 30
0.0
 11
2042.539812
 21
784.864988
 31
0.0
  0
LINE
  5
208
330
202
100
AcDbEntity
  8
0
  6
CONTINUOUS
 62
     5
100
AcDbLine
 10
2032.539812
 20
654.864988
 30
0.0
 11
2032.539812
 21
784.864988
 31
0.0
  0
INSERT
  5
209
330
202
100
AcDbEntity
  8
0
  6
CONTINUOUS
 62
     5
100
AcDbBlockReference
  2
EDTIP_ARROW_S
 10
2032.539812
 20
654.864988
 30
0.0
 41
30.0
 42
30.0
 50
270.0
  0
INSERT
  5
20A
330
202
100
AcDbEntity
  8
0
  6
CONTINUOUS
 62
     5
100
AcDbBlockReference
  2
EDTIP_ARROW_E
 10
2032.539812
 20
784.864988
 30
0.0
 41
30.0
 42
30.0
 50
90.0
  0
ENDBLK
  5
204
330
202
100
AcDbEntity
  8
0
100
AcDbBlockEnd
  0
BLOCK
  5
20D
330
20C
100
AcDbEntity
  8
0
100
AcDbBlockBegin
  2
*D15
 70
     1
 10
0.0
 20
0.0
 30
0.0
  3
*D15
  1

  0
TEXT
  5
20F
330
20C
100
AcDbEntity
  8
0
  6
CONTINUOUS
 62
     3
100
AcDbText
 10
2022.539917
 20
954.86499
 30
0.0
 40
40.0
  1
430
 50
90.0
 41
0.75
  7
ED_VECTOR
100
AcDbText
  0
LINE
  5
210
330
20C
100
AcDbEntity
  8
0
  6
CONTINUOUS
 62
     5
100
AcDbLine
 10
1942.539812
 20
1214.864988
 30
0.0
 11
2152.539812
 21
1214.864988
 31
0.0
  0
LINE
  5
211
330
20C
100
AcDbEntity
  8
0
  6
CONTINUOUS
 62
     5
100
AcDbLine
 10
2032.539812
 20
784.864988
 30
0.0
 11
2032.539812
 21
1214.864988
 31
0.0
  0
INSERT
  5
212
330
20C
100
AcDbEntity
  8
0
  6
CONTINUOUS
 62
     5
100
AcDbBlockReference
  2
EDTIP_ARROW_S
 10
2032.539812
 20
784.864988
 30
0.0
 41
30.0
 42
30.0
 50
270.0
  0
INSERT
  5
213
330
20C
100
AcDbEntity
  8
0
  6
CONTINUOUS
 62
     5
100
AcDbBlockReference
  2
EDTIP_ARROW_E
 10
2032.539812
 20
1214.864988
 30
0.0
 41
30.0
 42
30.0
 50
90.0
  0
ENDBLK
  5
20E
330
20C
100
AcDbEntity
  8
0
100
AcDbBlockEnd
  0
BLOCK
  5
216
330
215
100
AcDbEntity
  8
0
100
AcDbBlockBegin
  2
*D16
 70
     1
 10
0.0
 20
0.0
 30
0.0
  3
*D16
  1

  0
TEXT
  5
218
330
215
100
AcDbEntity
  8
0
  6
CONTINUOUS
 62
     3
100
AcDbText
 10
2132.539795
 20
889.86499
 30
0.0
 40
40.0
  1
560
 50
90.0
 41
0.75
  7
ED_VECTOR
100
AcDbText
  0
LINE
  5
219
330
215
100
AcDbEntity
  8
0
  6
CONTINUOUS
 62
     5
100
AcDbLine
 10
2142.539812
 20
654.864988
 30
0.0
 11
2142.539812
 21
1214.864988
 31
0.0
  0
INSERT
  5
21A
330
215
100
AcDbEntity
  8
0
  6
CONTINUOUS
 62
     5
100
AcDbBlockReference
  2
EDTIP_ARROW_S
 10
2142.539812
 20
654.864988
 30
0.0
 41
30.0
 42
30.0
 50
270.0
  0
INSERT
  5
21B
330
215
100
AcDbEntity
  8
0
  6
CONTINUOUS
 62
     5
100
AcDbBlockReference
  2
EDTIP_ARROW_E
 10
2142.539812
 20
1214.864988
 30
0.0
 41
30.0
 42
30.0
 50
90.0
  0
ENDBLK
  5
217
330
215
100
AcDbEntity
  8
0
100
AcDbBlockEnd
  0
BLOCK
  5
21E
330
21D
100
AcDbEntity
  8
0
100
AcDbBlockBegin
  2
*D17
 70
     1
 10
0.0
 20
0.0
 30
0.0
  3
*D17
  1

  0
TEXT
  5
220
330
21D
100
AcDbEntity
  8
0
  6
CONTINUOUS
 62
     3
100
AcDbText
 10
505.464233
 20
581.778931
 30
0.0
 40
40.0
  1
336
 41
0.75
  7
ED_VECTOR
100
AcDbText
  0
LINE
  5
221
330
21D
100
AcDbEntity
  8
0
  6
CONTINUOUS
 62
     5
100
AcDbLine
 10
382.464217
 20
644.817774
 30
0.0
 11
382.464217
 21
561.778962
 31
0.0
  0
LINE
  5
222
330
21D
100
AcDbEntity
  8
0
  6
CONTINUOUS
 62
     5
100
AcDbLine
 10
718.464217
 20
644.817774
 30
0.0
 11
718.464217
 21
561.778962
 31
0.0
  0
LINE
  5
223
330
21D
100
AcDbEntity
  8
0
  6
CONTINUOUS
 62
     5
100
AcDbLine
 10
382.464217
 20
571.778962
 30
0.0
 11
718.464217
 21
571.778962
 31
0.0
  0
INSERT
  5
224
330
21D
100
AcDbEntity
  8
0
  6
CONTINUOUS
 62
     5
100
AcDbBlockReference
  2
EDTIP_ARROW_S
 10
382.464217
 20
571.778962
 30
0.0
 41
30.0
 42
30.0
 50
180.0
  0
INSERT
  5
225
330
21D
100
AcDbEntity
  8
0
  6
CONTINUOUS
 62
     5
100
AcDbBlockReference
  2
EDTIP_ARROW_E
 10
718.464217
 20
571.778962
 30
0.0
 41
30.0
 42
30.0
  0
ENDBLK
  5
21F
330
21D
100
AcDbEntity
  8
0
100
AcDbBlockEnd
  0
BLOCK
  5
228
330
227
100
AcDbEntity
  8
0
100
AcDbBlockBegin
  2
*D18
 70
     1
 10
0.0
 20
0.0
 30
0.0
  3
*D18
  1

  0
TEXT
  5
22A
330
227
100
AcDbEntity
  8
0
  6
CONTINUOUS
 62
     3
100
AcDbText
 10
1462.273315
 20
581.778931
 30
0.0
 40
40.0
  1
650
 41
0.75
  7
ED_VECTOR
100
AcDbText
  0
LINE
  5
22B
330
227
100
AcDbEntity
  8
0
  6
CONTINUOUS
 62
     5
100
AcDbLine
 10
1182.273335
 20
644.817774
 30
0.0
 11
1182.273335
 21
561.778962
 31
0.0
  0
LINE
  5
22C
330
227
100
AcDbEntity
  8
0
  6
CONTINUOUS
 62
     5
100
AcDbLine
 10
1832.273335
 20
644.817774
 30
0.0
 11
1832.273335
 21
561.778962
 31
0.0
  0
LINE
  5
22D
330
227
100
AcDbEntity
  8
0
  6
CONTINUOUS
 62
     5
100
AcDbLine
 10
1182.273335
 20
571.778962
 30
0.0
 11
1832.273335
 21
571.778962
 31
0.0
  0
INSERT
  5
22E
330
227
100
AcDbEntity
  8
0
  6
CONTINUOUS
 62
     5
100
AcDbBlockReference
  2
EDTIP_ARROW_S
 10
1182.273335
 20
571.778962
 30
0.0
 41
30.0
 42
30.0
 50
180.0
  0
INSERT
  5
22F
330
227
100
AcDbEntity
  8
0
  6
CONTINUOUS
 62
     5
100
AcDbBlockReference
  2
EDTIP_ARROW_E
 10
1832.273335
 20
571.778962
 30
0.0
 41
30.0
 42
30.0
  0
ENDBLK
  5
229
330
227
100
AcDbEntity
  8
0
100
AcDbBlockEnd
  0
BLOCK
  5
235
330
234
100
AcDbEntity
  8
0
100
AcDbBlockBegin
  2
BLKF022
 70
     0
 10
0.0
 20
0.0
 30
0.0
  3
BLKF022
  1

  0
LINE
  5
238
330
234
100
AcDbEntity
  8
0
  6
PHANTOM
 62
     5
100
AcDbLine
 10
1932.539812
 20
784.864988
 30
0.0
 11
1932.539812
 21
746.864988
 31
0.0
  0
LINE
  5
239
330
234
100
AcDbEntity
  8
0
  6
PHANTOM
 62
     5
100
AcDbLine
 10
1082.539812
 20
784.864988
 30
0.0
 11
1082.539812
 21
746.864988
 31
0.0
  0
LINE
  5
23A
330
234
100
AcDbEntity
  8
0
  6
PHANTOM
 62
     5
100
AcDbLine
 10
1082.539812
 20
746.817774
 30
0.0
 11
1932.539812
 21
746.817774
 31
0.0
  0
LINE
  5
23B
330
234
100
AcDbEntity
  8
0
  6
PHANTOM
 62
     5
100
AcDbLine
 10
1082.539812
 20
784.817774
 30
0.0
 11
1932.539812
 21
784.817774
 31
0.0
  0
ENDBLK
  5
236
330
234
100
AcDbEntity
  8
0
100
AcDbBlockEnd
  0
BLOCK
  5
23D
330
23C
100
AcDbEntity
  8
0
100
AcDbBlockBegin
  2
BLKF023
 70
     0
 10
0.0
 20
0.0
 30
0.0
  3
BLKF023
  1

  0
LINE
  5
240
330
23C
100
AcDbEntity
  8
0
  6
CONTINUOUS
 62
     3
100
AcDbLine
 10
1932.539812
 20
1214.864988
 30
0.0
 11
1932.539812
 21
1176.864988
 31
0.0
  0
LINE
  5
241
330
23C
100
AcDbEntity
  8
0
  6
CONTINUOUS
 62
     3
100
AcDbLine
 10
1082.539812
 20
1214.864988
 30
0.0
 11
1082.539812
 21
1176.864988
 31
0.0
  0
LINE
  5
242
330
23C
100
AcDbEntity
  8
0
  6
CONTINUOUS
 62
     3
100
AcDbLine
 10
1082.539812
 20
1176.817774
 30
0.0
 11
1932.539812
 21
1176.817774
 31
0.0
  0
LINE
  5
243
330
23C
100
AcDbEntity
  8
0
  6
CONTINUOUS
 62
     3
100
AcDbLine
 10
1082.539812
 20
1214.817774
 30
0.0
 11
1932.539812
 21
1214.817774
 31
0.0
  0
ENDBLK
  5
23E
330
23C
100
AcDbEntity
  8
0
100
AcDbBlockEnd
  0
BLOCK
  5
2A6
330
2A5
100
AcDbEntity
  8
0
100
AcDbBlockBegin
  2
*D21
 70
     1
 10
0.0
 20
0.0
 30
0.0
  3
*D21
  1

  0
TEXT
  5
2A8
330
2A5
100
AcDbEntity
  8
0
  6
CONTINUOUS
 62
     3
100
AcDbText
 10
505.464233
 20
502.729156
 30
0.0
 40
40.0
  1
466
 41
0.75
  7
ED_VECTOR
100
AcDbText
  0
LINE
  5
2A9
330
2A5
100
AcDbEntity
  8
0
  6
CONTINUOUS
 62
     5
100
AcDbLine
 10
317.464217
 20
709.817774
 30
0.0
 11
317.464217
 21
482.729155
 31
0.0
  0
LINE
  5
2AA
330
2A5
100
AcDbEntity
  8
0
  6
CONTINUOUS
 62
     5
100
AcDbLine
 10
783.464217
 20
709.817774
 30
0.0
 11
783.464217
 21
482.729155
 31
0.0
  0
LINE
  5
2AB
330
2A5
100
AcDbEntity
  8
0
  6
CONTINUOUS
 62
     5
100
AcDbLine
 10
317.464217
 20
492.729155
 30
0.0
 11
783.464217
 21
492.729155
 31
0.0
  0
INSERT
  5
2AC
330
2A5
100
AcDbEntity
  8
0
  6
CONTINUOUS
 62
     5
100
AcDbBlockReference
  2
EDTIP_ARROW_S
 10
317.464217
 20
492.729155
 30
0.0
 41
30.0
 42
30.0
 50
180.0
  0
INSERT
  5
2AD
330
2A5
100
AcDbEntity
  8
0
  6
CONTINUOUS
 62
     5
100
AcDbBlockReference
  2
EDTIP_ARROW_E
 10
783.464217
 20
492.729155
 30
0.0
 41
30.0
 42
30.0
  0
ENDBLK
  5
2A7
330
2A5
100
AcDbEntity
  8
0
100
AcDbBlockEnd
  0
BLOCK
  5
2B0
330
2AF
100
AcDbEntity
  8
0
100
AcDbBlockBegin
  2
*D22
 70
     1
 10
0.0
 20
0.0
 30
0.0
  3
*D22
  1

  0
TEXT
  5
2B2
330
2AF
100
AcDbEntity
  8
0
  6
CONTINUOUS
 62
     3
100
AcDbText
 10
505.464233
 20
424.174225
 30
0.0
 40
40.0
  1
510
 41
0.75
  7
ED_VECTOR
100
AcDbText
  0
LINE
  5
2B3
330
2AF
100
AcDbEntity
  8
0
  6
CONTINUOUS
 62
     5
100
AcDbLine
 10
295.464217
 20
739.685287
 30
0.0
 11
295.464217
 21
404.174224
 31
0.0
  0
LINE
  5
2B4
330
2AF
100
AcDbEntity
  8
0
  6
CONTINUOUS
 62
     5
100
AcDbLine
 10
805.464217
 20
739.685287
 30
0.0
 11
805.464217
 21
404.174224
 31
0.0
  0
LINE
  5
2B5
330
2AF
100
AcDbEntity
  8
0
  6
CONTINUOUS
 62
     5
100
AcDbLine
 10
295.464217
 20
414.174224
 30
0.0
 11
805.464217
 21
414.174224
 31
0.0
  0
INSERT
  5
2B6
330
2AF
100
AcDbEntity
  8
0
  6
CONTINUOUS
 62
     5
100
AcDbBlockReference
  2
EDTIP_ARROW_S
 10
295.464217
 20
414.174224
 30
0.0
 41
30.0
 42
30.0
 50
180.0
  0
INSERT
  5
2B7
330
2AF
100
AcDbEntity
  8
0
  6
CONTINUOUS
 62
     5
100
AcDbBlockReference
  2
EDTIP_ARROW_E
 10
805.464217
 20
414.174224
 30
0.0
 41
30.0
 42
30.0
  0
ENDBLK
  5
2B1
330
2AF
100
AcDbEntity
  8
0
100
AcDbBlockEnd
  0
BLOCK
  5
2E8
330
2E7
100
AcDbEntity
  8
0
100
AcDbBlockBegin
  2
EDDIM026
 70
     0
 10
0.0
 20
0.0
 30
0.0
  3
EDDIM026
  1

  0
LINE
  5
2EB
330
2E7
100
AcDbEntity
  8
0
  6
CONTINUOUS
 62
     5
100
AcDbLine
 10
1112.473335
 20
1033.098721
 30
0.0
 11
720.09106
 21
1555.190397
 31
0.0
  0
INSERT
  5
2EC
330
2E7
100
AcDbEntity
  8
0
  6
CONTINUOUS
 62
     5
100
AcDbBlockReference
  2
EDTIP_ARROW_S
 10
1112.473335
 20
1033.098721
 30
0.0
 41
30.0
 42
30.0
 50
306.926993
  0
LINE
  5
2ED
330
2E7
100
AcDbEntity
  8
0
  6
CONTINUOUS
 62
     5
100
AcDbLine
 10
720.09106
 20
1555.190397
 30
0.0
 11
447.657285
 21
1555.190397
 31
0.0
  0
ENDBLK
  5
2E9
330
2E7
100
AcDbEntity
  8
0
100
AcDbBlockEnd
  0
BLOCK
  5
30F
330
30E
100
AcDbEntity
  8
0
100
AcDbBlockBegin
  2
BLKF027
 70
     0
 10
0.0
 20
0.0
 30
0.0
  3
BLKF027
  1

  0
ARC
  5
312
330
30E
100
AcDbEntity
  8
0
  6
CONTINUOUS
 62
     3
100
AcDbCircle
 10
2820.645018
 20
148.870953
 30
0.0
 40
3.549224681232935
100
AcDbArc
 50
6.429109
 51
73.182034
  0
ARC
  5
313
330
30E
100
AcDbEntity
  8
0
  6
CONTINUOUS
 62
     3
100
AcDbCircle
 10
2817.184048
 20
147.71256
 30
0.0
 40
6.90775391640079
100
AcDbArc
 50
310.51797
 51
330.092764
  0
ARC
  5
314
330
30E
100
AcDbEntity
  8
0
  6
CONTINUOUS
 62
     3
100
AcDbCircle
 10
2817.123398
 20
148.078078
 30
0.0
 40
7.148321241986046
100
AcDbArc
 50
327.794941
 51
9.585194
  0
ARC
  5
315
330
30E
100
AcDbEntity
  8
0
  6
CONTINUOUS
 62
     3
100
AcDbCircle
 10
2820.416126
 20
145.31708
 30
0.0
 40
4.767514462094932
100
AcDbArc
 50
180.0
 51
218.51415
  0
ARC
  5
316
330
30E
100
AcDbEntity
  8
0
  6
CONTINUOUS
 62
     3
100
AcDbCircle
 10
2819.129406
 20
144.639939
 30
0.0
 40
3.348282029286162
100
AcDbArc
 50
222.781148
 51
319.406906
  0
ARC
  5
317
330
30E
100
AcDbEntity
  8
0
  6
CONTINUOUS
 62
     3
100
AcDbCircle
 10
2822.195047
 20
145.729832
 30
0.0
 40
6.559434466070106
100
AcDbArc
 50
94.574282
 51
183.607718
  0
LINE
  5
318
330
30E
100
AcDbEntity
  8
0
  6
CONTINUOUS
 62
     3
100
AcDbLine
 10
2835.638954
 20
140.613
 30
0.0
 11
2834.781918
 21
137.574417
 31
0.0
  0
LINE
  5
319
330
30E
100
AcDbEntity
  8
0
  6
CONTINUOUS
 62
     3
100
AcDbLine
 10
2837.430939
 20
160.480657
 30
0.0
 11
2835.327304
 21
163.207591
 31
0.0
  0
LINE
  5
31A
330
30E
100
AcDbEntity
  8
0
  6
CONTINUOUS
 62
     3
100
AcDbLine
 10
2835.327304
 20
163.207591
 30
0.0
 11
2828.57395
 21
166.965503
 31
0.0
  0
LINE
  5
31B
330
30E
100
AcDbEntity
  8
0
  6
CONTINUOUS
 62
     3
100
AcDbLine
 10
2828.57395
 20
166.965503
 30
0.0
 11
2821.671923
 21
167.768373
 31
0.0
  0
LINE
  5
31C
330
30E
100
AcDbEntity
  8
0
  6
CONTINUOUS
 62
     3
100
AcDbLine
 10
2803.382697
 20
154.3897
 30
0.0
 11
2805.529392
 21
159.35393
 31
0.0
  0
LINE
  5
31D
330
30E
100
AcDbEntity
  8
0
  6
CONTINUOUS
 62
     3
100
AcDbLine
 10
2805.492394
 20
159.268373
 30
0.0
 11
2807.676086
 21
161.90313
 31
0.0
  0
LINE
  5
31E
330
30E
100
AcDbEntity
  8
0
  6
CONTINUOUS
 62
     3
100
AcDbLine
 10
2807.676086
 20
161.90313
 30
0.0
 11
2810.980508
 21
164.268373
 31
0.0
  0
LINE
  5
31F
330
30E
100
AcDbEntity
  8
0
  6
CONTINUOUS
 62
     3
100
AcDbLine
 10
2821.671923
 20
167.768373
 30
0.0
 11
2820.153747
 21
167.001529
 31
0.0
  0
LINE
  5
320
330
30E
100
AcDbEntity
  8
0
  6
CONTINUOUS
 62
     3
100
AcDbLine
 10
2820.153747
 20
167.001529
 30
0.0
 11
2816.665369
 21
167.001529
 31
0.0
  0
LINE
  5
321
330
30E
100
AcDbEntity
  8
0
  6
CONTINUOUS
 62
     3
100
AcDbLine
 10
2816.665369
 20
167.001529
 30
0.0
 11
2813.109906
 21
165.056087
 31
0.0
  0
LINE
  5
322
330
30E
100
AcDbEntity
  8
0
  6
CONTINUOUS
 62
     3
100
AcDbLine
 10
2813.109906
 20
165.056087
 30
0.0
 11
2810.980508
 21
164.268373
 31
0.0
  0
LINE
  5
323
330
30E
100
AcDbEntity
  8
0
  6
CONTINUOUS
 62
     3
100
AcDbLine
 10
2803.382697
 20
154.3897
 30
0.0
 11
2801.86515
 21
146.841097
 31
0.0
  0
LINE
  5
324
330
30E
100
AcDbEntity
  8
0
  6
CONTINUOUS
 62
     3
100
AcDbLine
 10
2801.86515
 20
146.841097
 30
0.0
 11
2801.671923
 21
144.268373
 31
0.0
  0
LINE
  5
325
330
30E
100
AcDbEntity
  8
0
  6
CONTINUOUS
 62
     3
100
AcDbLine
 10
2804.381305
 20
136.428591
 30
0.0
 11
2801.671923
 21
142.524702
 31
0.0
  0
LINE
  5
326
330
30E
100
AcDbEntity
  8
0
  6
CONTINUOUS
 62
     3
100
AcDbLine
 10
2801.671923
 20
142.524702
 30
0.0
 11
2801.671923
 21
144.268373
 31
0.0
  0
LINE
  5
327
330
30E
100
AcDbEntity
  8
0
  6
CONTINUOUS
 62
     3
100
AcDbLine
 10
2834.781918
 20
137.574417
 30
0.0
 11
2833.09613
 21
134.571411
 31
0.0
  0
LINE
  5
328
330
30E
100
AcDbEntity
  8
0
  6
CONTINUOUS
 62
     3
100
AcDbLine
 10
2833.09613
 20
134.571411
 30
0.0
 11
2831.671923
 21
133.2527
 31
0.0
  0
ARC
  5
329
330
30E
100
AcDbEntity
  8
0
  6
CONTINUOUS
 62
     3
100
AcDbCircle
 10
2819.479978
 20
144.805134
 30
0.0
 40
17.2666264049271
100
AcDbArc
 50
208.054813
 51
260.64047
  0
ARC
  5
32A
330
30E
100
AcDbEntity
  8
0
  6
CONTINUOUS
 62
     3
100
AcDbCircle
 10
2814.286583
 20
157.547603
 30
0.0
 40
29.87461092848634
100
AcDbArc
 50
274.579659
 51
305.587364
  0
ARC
  5
32B
330
30E
100
AcDbEntity
  8
0
  6
CONTINUOUS
 62
     3
100
AcDbCircle
 10
2825.258932
 20
151.563881
 30
0.0
 40
15.08862654287332
100
AcDbArc
 50
313.467013
 51
331.085078
  0
LINE
  5
32C
330
30E
100
AcDbEntity
  8
0
  6
CONTINUOUS
 62
     3
100
AcDbLine
 10
2840.050264
 20
147.781794
 30
0.0
 11
2840.347558
 21
151.563881
 31
0.0
  0
LINE
  5
32D
330
30E
100
AcDbEntity
  8
0
  6
CONTINUOUS
 62
     3
100
AcDbLine
 10
2840.347558
 20
151.563881
 30
0.0
 11
2839.055561
 21
157.672864
 31
0.0
  0
LINE
  5
32E
330
30E
100
AcDbEntity
  8
0
  6
CONTINUOUS
 62
     3
100
AcDbLine
 10
2840.050264
 20
147.781794
 30
0.0
 11
2838.466589
 21
144.268373
 31
0.0
  0
ARC
  5
32F
330
30E
100
AcDbEntity
  8
0
  6
CONTINUOUS
 62
     3
100
AcDbCircle
 10
2825.258932
 20
151.563881
 30
0.0
 40
15.08862654287332
100
AcDbArc
 50
23.883193
 51
36.22517
  0
LINE
  5
330
330
30E
100
AcDbEntity
  8
0
  6
CONTINUOUS
 62
     3
100
AcDbLine
 10
2785.671923
 20
179.268373
 30
0.0
 11
2786.671923
 21
180.361018
 31
0.0
  0
LINE
  5
331
330
30E
100
AcDbEntity
  8
0
  6
CONTINUOUS
 62
     3
100
AcDbLine
 10
2785.671923
 20
179.268373
 30
0.0
 11
2787.24888
 21
177.82334
 31
0.0
  0
LINE
  5
332
330
30E
100
AcDbEntity
  8
0
  6
CONTINUOUS
 62
     3
100
AcDbLine
 10
2788.788093
 20
175.714049
 30
0.0
 11
2788.814361
 21
173.54593
 31
0.0
  0
LINE
  5
333
330
30E
100
AcDbEntity
  8
0
  6
CONTINUOUS
 62
     3
100
AcDbLine
 10
2788.814361
 20
173.54593
 30
0.0
 11
2789.021759
 21
172.78547
 31
0.0
  0
LINE
  5
334
330
30E
100
AcDbEntity
  8
0
  6
CONTINUOUS
 62
     3
100
AcDbLine
 10
2789.021759
 20
172.78547
 30
0.0
 11
2789.609387
 21
172.059577
 31
0.0
  0
LINE
  5
335
330
30E
100
AcDbEntity
  8
0
  6
CONTINUOUS
 62
     3
100
AcDbLine
 10
2789.609387
 20
172.059577
 30
0.0
 11
2790.197015
 21
172.12871
 31
0.0
  0
LINE
  5
336
330
30E
100
AcDbEntity
  8
0
  6
CONTINUOUS
 62
     3
100
AcDbLine
 10
2790.197015
 20
172.12871
 30
0.0
 11
2790.819209
 21
172.301542
 31
0.0
  0
LINE
  5
337
330
30E
100
AcDbEntity
  8
0
  6
CONTINUOUS
 62
     3
100
AcDbLine
 10
2790.819209
 20
172.301542
 30
0.0
 11
2791.234005
 21
172.12871
 31
0.0
  0
LINE
  5
338
330
30E
100
AcDbEntity
  8
0
  6
CONTINUOUS
 62
     3
100
AcDbLine
 10
2791.234005
 20
172.12871
 30
0.0
 11
2792.132729
 21
171.679348
 31
0.0
  0
LINE
  5
339
330
30E
100
AcDbEntity
  8
0
  6
CONTINUOUS
 62
     3
100
AcDbLine
 10
2792.132729
 20
171.679348
 30
0.0
 11
2792.908781
 21
171.268373
 31
0.0
  0
LINE
  5
33A
330
30E
100
AcDbEntity
  8
0
  6
CONTINUOUS
 62
     3
100
AcDbLine
 10
2792.908781
 20
171.268373
 30
0.0
 11
2793.411684
 21
171.299118
 31
0.0
  0
LINE
  5
33B
330
30E
100
AcDbEntity
  8
0
  6
CONTINUOUS
 62
     3
100
AcDbLine
 10
2793.411684
 20
171.299118
 30
0.0
 11
2796.219555
 21
172.745598
 31
0.0
  0
LINE
  5
33C
330
30E
100
AcDbEntity
  8
0
  6
CONTINUOUS
 62
     3
100
AcDbLine
 10
2786.671923
 20
180.361018
 30
0.0
 11
2787.004774
 21
181.834725
 31
0.0
  0
LINE
  5
33D
330
30E
100
AcDbEntity
  8
0
  6
CONTINUOUS
 62
     3
100
AcDbLine
 10
2787.004774
 20
181.834725
 30
0.0
 11
2788.45818
 21
181.985077
 31
0.0
  0
LINE
  5
33E
330
30E
100
AcDbEntity
  8
0
  6
CONTINUOUS
 62
     3
100
AcDbLine
 10
2789.951938
 20
184.753536
 30
0.0
 11
2791.706111
 21
184.910626
 31
0.0
  0
LINE
  5
33F
330
30E
100
AcDbEntity
  8
0
  6
CONTINUOUS
 62
     3
100
AcDbLine
 10
2791.706111
 20
184.910626
 30
0.0
 11
2795.240639
 21
185.74844
 31
0.0
  0
LINE
  5
340
330
30E
100
AcDbEntity
  8
0
  6
CONTINUOUS
 62
     3
100
AcDbLine
 10
2795.240639
 20
185.74844
 30
0.0
 11
2796.671923
 21
186.080079
 31
0.0
  0
LINE
  5
341
330
30E
100
AcDbEntity
  8
0
  6
CONTINUOUS
 62
     3
100
AcDbLine
 10
2789.951938
 20
184.753536
 30
0.0
 11
2788.019047
 21
184.912404
 31
0.0
  0
LINE
  5
342
330
30E
100
AcDbEntity
  8
0
  6
CONTINUOUS
 62
     3
100
AcDbLine
 10
2787.282924
 20
184.043717
 30
0.0
 11
2787.376449
 21
183.672555
 31
0.0
  0
LINE
  5
343
330
30E
100
AcDbEntity
  8
0
  6
CONTINUOUS
 62
     3
100
AcDbLine
 10
2787.376449
 20
183.672555
 30
0.0
 11
2787.868043
 21
183.134874
 31
0.0
  0
LINE
  5
344
330
30E
100
AcDbEntity
  8
0
  6
CONTINUOUS
 62
     3
100
AcDbLine
 10
2787.868043
 20
183.134874
 30
0.0
 11
2788.543985
 21
182.627918
 31
0.0
  0
LINE
  5
345
330
30E
100
AcDbEntity
  8
0
  6
CONTINUOUS
 62
     3
100
AcDbLine
 10
2788.543985
 20
182.627918
 30
0.0
 11
2788.66731
 21
182.463485
 31
0.0
  0
LINE
  5
346
330
30E
100
AcDbEntity
  8
0
  6
CONTINUOUS
 62
     3
100
AcDbLine
 10
2787.24888
 20
177.82334
 30
0.0
 11
2788.788093
 21
175.714049
 31
0.0
  0
ARC
  5
347
330
30E
100
AcDbEntity
  8
0
  6
CONTINUOUS
 62
     3
100
AcDbCircle
 10
2831.658623
 20
7.609721
 30
0.0
 40
180.7274633591883
100
AcDbArc
 50
80.438896
 51
96.353582
  0
ARC
  5
348
330
30E
100
AcDbEntity
  8
0
  6
CONTINUOUS
 62
     3
100
AcDbCircle
 10
2806.75971
 20
152.857621
 30
0.0
 40
34.72024168784505
100
AcDbArc
 50
81.866516
 51
106.890578
  0
LINE
  5
349
330
30E
100
AcDbEntity
  8
0
  6
CONTINUOUS
 62
     3
100
AcDbLine
 10
2865.866184
 20
185.035044
 30
0.0
 11
2868.113267
 21
184.013642
 31
0.0
  0
LINE
  5
34A
330
30E
100
AcDbEntity
  8
0
  6
CONTINUOUS
 62
     3
100
AcDbLine
 10
2871.688171
 20
182.430471
 30
0.0
 11
2868.113267
 21
184.013642
 31
0.0
  0
LINE
  5
34B
330
30E
100
AcDbEntity
  8
0
  6
CONTINUOUS
 62
     3
100
AcDbLine
 10
2865.866184
 20
185.035044
 30
0.0
 11
2861.671923
 21
185.827615
 31
0.0
  0
LINE
  5
34C
330
30E
100
AcDbEntity
  8
0
  6
CONTINUOUS
 62
     3
100
AcDbLine
 10
2871.671923
 20
182.437666
 30
0.0
 11
2873.543498
 21
180.869189
 31
0.0
  0
LINE
  5
34D
330
30E
100
AcDbEntity
  8
0
  6
CONTINUOUS
 62
     3
100
AcDbLine
 10
2854.915179
 20
183.474517
 30
0.0
 11
2855.814453
 21
184.927192
 31
0.0
  0
LINE
  5
34E
330
30E
100
AcDbEntity
  8
0
  6
CONTINUOUS
 62
     3
100
AcDbLine
 10
2855.814453
 20
184.927192
 30
0.0
 11
2860.490052
 21
183.807682
 31
0.0
  0
LINE
  5
34F
330
30E
100
AcDbEntity
  8
0
  6
CONTINUOUS
 62
     3
100
AcDbLine
 10
2860.490052
 20
183.807682
 30
0.0
 11
2877.232438
 21
179.268373
 31
0.0
  0
LINE
  5
350
330
30E
100
AcDbEntity
  8
0
  6
CONTINUOUS
 62
     3
100
AcDbLine
 10
2880.171923
 20
179.268373
 30
0.0
 11
2873.543498
 21
180.869189
 31
0.0
  0
LINE
  5
351
330
30E
100
AcDbEntity
  8
0
  6
CONTINUOUS
 62
     3
100
AcDbLine
 10
2877.232438
 20
179.268373
 30
0.0
 11
2880.171923
 21
179.268373
 31
0.0
  0
LINE
  5
352
330
30E
100
AcDbEntity
  8
0
  6
CONTINUOUS
 62
     3
100
AcDbLine
 10
2821.671923
 20
183.733315
 30
0.0
 11
2841.671923
 21
184.268373
 31
0.0
  0
LINE
  5
353
330
30E
100
AcDbEntity
  8
0
  6
CONTINUOUS
 62
     3
100
AcDbLine
 10
2841.671923
 20
184.268373
 30
0.0
 11
2854.915179
 21
183.474517
 31
0.0
  0
LINE
  5
354
330
30E
100
AcDbEntity
  8
0
  6
CONTINUOUS
 62
     3
100
AcDbLine
 10
2856.51816
 20
181.414037
 30
0.0
 11
2841.671923
 21
182.768373
 31
0.0
  0
LINE
  5
355
330
30E
100
AcDbEntity
  8
0
  6
CONTINUOUS
 62
     3
100
AcDbLine
 10
2841.671923
 20
182.768373
 30
0.0
 11
2826.622713
 21
183.177025
 31
0.0
  0
LINE
  5
356
330
30E
100
AcDbEntity
  8
0
  6
CONTINUOUS
 62
     3
100
AcDbLine
 10
2826.671923
 20
183.175689
 30
0.0
 11
2821.671923
 21
183.270983
 31
0.0
  0
LINE
  5
357
330
30E
100
AcDbEntity
  8
0
  6
CONTINUOUS
 62
     3
100
AcDbLine
 10
2821.671923
 20
183.733315
 30
0.0
 11
2821.671923
 21
183.270983
 31
0.0
  0
LINE
  5
358
330
30E
100
AcDbEntity
  8
0
  6
CONTINUOUS
 62
     3
100
AcDbLine
 10
2879.171923
 20
175.768373
 30
0.0
 11
2870.329364
 21
178.079036
 31
0.0
  0
LINE
  5
359
330
30E
100
AcDbEntity
  8
0
  6
CONTINUOUS
 62
     3
100
AcDbLine
 10
2856.51816
 20
181.414037
 30
0.0
 11
2866.671923
 21
179.441654
 31
0.0
  0
LINE
  5
35A
330
30E
100
AcDbEntity
  8
0
  6
CONTINUOUS
 62
     3
100
AcDbLine
 10
2866.671923
 20
179.441654
 30
0.0
 11
2870.329364
 21
178.079036
 31
0.0
  0
LINE
  5
35B
330
30E
100
AcDbEntity
  8
0
  6
CONTINUOUS
 62
     3
100
AcDbLine
 10
2879.171923
 20
175.768373
 30
0.0
 11
2878.879305
 21
174.929268
 31
0.0
  0
LINE
  5
35C
330
30E
100
AcDbEntity
  8
0
  6
CONTINUOUS
 62
     3
100
AcDbLine
 10
2888.671923
 20
170.268373
 30
0.0
 11
2888.365895
 21
171.497354
 31
0.0
  0
LINE
  5
35D
330
30E
100
AcDbEntity
  8
0
  6
CONTINUOUS
 62
     3
100
AcDbLine
 10
2878.879305
 20
174.929268
 30
0.0
 11
2888.365895
 21
171.497354
 31
0.0
  0
LINE
  5
35E
330
30E
100
AcDbEntity
  8
0
  6
CONTINUOUS
 62
     3
100
AcDbLine
 10
2825.171923
 20
175.768373
 30
0.0
 11
2827.594961
 21
175.768373
 31
0.0
  0
LINE
  5
35F
330
30E
100
AcDbEntity
  8
0
  6
CONTINUOUS
 62
     3
100
AcDbLine
 10
2847.671923
 20
176.200869
 30
0.0
 11
2847.671923
 21
175.768373
 31
0.0
  0
LINE
  5
360
330
30E
100
AcDbEntity
  8
0
  6
CONTINUOUS
 62
     3
100
AcDbLine
 10
2846.671923
 20
176.73531
 30
0.0
 11
2844.960643
 21
177.372488
 31
0.0
  0
LINE
  5
361
330
30E
100
AcDbEntity
  8
0
  6
CONTINUOUS
 62
     3
100
AcDbLine
 10
2844.960643
 20
177.372488
 30
0.0
 11
2843.850587
 21
177.422945
 31
0.0
  0
LINE
  5
362
330
30E
100
AcDbEntity
  8
0
  6
CONTINUOUS
 62
     3
100
AcDbLine
 10
2843.850587
 20
177.422945
 30
0.0
 11
2843.371245
 21
177.17066
 31
0.0
  0
LINE
  5
363
330
30E
100
AcDbEntity
  8
0
  6
CONTINUOUS
 62
     3
100
AcDbLine
 10
2843.371245
 20
177.17066
 30
0.0
 11
2843.270331
 21
176.767003
 31
0.0
  0
LINE
  5
364
330
30E
100
AcDbEntity
  8
0
  6
CONTINUOUS
 62
     3
100
AcDbLine
 10
2843.270331
 20
176.767003
 30
0.0
 11
2843.724445
 21
176.464261
 31
0.0
  0
LINE
  5
365
330
30E
100
AcDbEntity
  8
0
  6
CONTINUOUS
 62
     3
100
AcDbLine
 10
2843.724445
 20
176.464261
 30
0.0
 11
2845.3643
 21
176.312889
 31
0.0
  0
LINE
  5
366
330
30E
100
AcDbEntity
  8
0
  6
CONTINUOUS
 62
     3
100
AcDbLine
 10
2845.3643
 20
176.312889
 30
0.0
 11
2847.671923
 21
176.200869
 31
0.0
  0
LINE
  5
367
330
30E
100
AcDbEntity
  8
0
  6
CONTINUOUS
 62
     3
100
AcDbLine
 10
2888.671923
 20
170.268373
 30
0.0
 11
2885.69638
 21
171.454955
 31
0.0
  0
LINE
  5
368
330
30E
100
AcDbEntity
  8
0
  6
CONTINUOUS
 62
     3
100
AcDbLine
 10
2885.69638
 20
171.454955
 30
0.0
 11
2875.64069
 21
173.29783
 31
0.0
  0
LINE
  5
369
330
30E
100
AcDbEntity
  8
0
  6
CONTINUOUS
 62
     3
100
AcDbLine
 10
2875.64069
 20
173.29783
 30
0.0
 11
2870.61491
 21
174.457626
 31
0.0
  0
LINE
  5
36A
330
30E
100
AcDbEntity
  8
0
  6
CONTINUOUS
 62
     3
100
AcDbLine
 10
2848.206144
 20
176.768373
 30
0.0
 11
2859.97181
 21
176.768373
 31
0.0
  0
LINE
  5
36B
330
30E
100
AcDbEntity
  8
0
  6
CONTINUOUS
 62
     3
100
AcDbLine
 10
2846.671923
 20
176.73531
 30
0.0
 11
2847.196582
 21
176.426843
 31
0.0
  0
LINE
  5
36C
330
30E
100
AcDbEntity
  8
0
  6
CONTINUOUS
 62
     3
100
AcDbLine
 10
2847.196582
 20
176.426843
 30
0.0
 11
2847.493394
 21
176.337799
 31
0.0
  0
LINE
  5
36D
330
30E
100
AcDbEntity
  8
0
  6
CONTINUOUS
 62
     3
100
AcDbLine
 10
2847.493394
 20
176.337799
 30
0.0
 11
2847.671923
 21
176.362969
 31
0.0
  0
LINE
  5
36E
330
30E
100
AcDbEntity
  8
0
  6
CONTINUOUS
 62
     3
100
AcDbLine
 10
2847.671923
 20
176.362969
 30
0.0
 11
2848.206144
 21
176.768373
 31
0.0
  0
LINE
  5
36F
330
30E
100
AcDbEntity
  8
0
  6
CONTINUOUS
 62
     3
100
AcDbLine
 10
2859.97181
 20
176.768373
 30
0.0
 11
2864.422078
 21
175.739548
 31
0.0
  0
LINE
  5
370
330
30E
100
AcDbEntity
  8
0
  6
CONTINUOUS
 62
     3
100
AcDbLine
 10
2864.422078
 20
175.739548
 30
0.0
 11
2868.57527
 21
174.574399
 31
0.0
  0
LINE
  5
371
330
30E
100
AcDbEntity
  8
0
  6
CONTINUOUS
 62
     3
100
AcDbLine
 10
2868.57527
 20
174.574399
 30
0.0
 11
2870.61491
 21
174.457626
 31
0.0
  0
LINE
  5
372
330
30E
100
AcDbEntity
  8
0
  6
CONTINUOUS
 62
     3
100
AcDbLine
 10
2824.171923
 20
174.768373
 30
0.0
 11
2824.171923
 21
174.268373
 31
0.0
  0
LINE
  5
373
330
30E
100
AcDbEntity
  8
0
  6
CONTINUOUS
 62
     3
100
AcDbLine
 10
2821.671923
 20
174.268373
 30
0.0
 11
2824.171923
 21
174.268373
 31
0.0
  0
ARC
  5
374
330
30E
100
AcDbEntity
  8
0
  6
CONTINUOUS
 62
     3
100
AcDbCircle
 10
2825.171923
 20
174.768373
 30
0.0
 40
1.0
100
AcDbArc
 50
90.0
 51
180.0
  0
LINE
  5
375
330
30E
100
AcDbEntity
  8
0
  6
CONTINUOUS
 62
     3
100
AcDbLine
 10
2827.594961
 20
175.768373
 30
0.0
 11
2828.292517
 21
175.196377
 31
0.0
  0
LINE
  5
376
330
30E
100
AcDbEntity
  8
0
  6
CONTINUOUS
 62
     3
100
AcDbLine
 10
2828.894886
 20
175.172416
 30
0.0
 11
2829.752482
 21
175.768373
 31
0.0
  0
LINE
  5
377
330
30E
100
AcDbEntity
  8
0
  6
CONTINUOUS
 62
     3
100
AcDbLine
 10
2831.330878
 20
175.768373
 30
0.0
 11
2832.998004
 21
175.110298
 31
0.0
  0
LINE
  5
378
330
30E
100
AcDbEntity
  8
0
  6
CONTINUOUS
 62
     3
100
AcDbLine
 10
2833.421713
 20
175.13681
 30
0.0
 11
2834.5752
 21
175.768373
 31
0.0
  0
LINE
  5
379
330
30E
100
AcDbEntity
  8
0
  6
CONTINUOUS
 62
     3
100
AcDbLine
 10
2829.752482
 20
175.768373
 30
0.0
 11
2831.330878
 21
175.768373
 31
0.0
  0
LINE
  5
37A
330
30E
100
AcDbEntity
  8
0
  6
CONTINUOUS
 62
     3
100
AcDbLine
 10
2834.5752
 20
175.768373
 30
0.0
 11
2847.671923
 21
175.768373
 31
0.0
  0
LINE
  5
37B
330
30E
100
AcDbEntity
  8
0
  6
CONTINUOUS
 62
     3
100
AcDbLine
 10
2800.220906
 20
172.659547
 30
0.0
 11
2821.671923
 21
174.268373
 31
0.0
  0
LINE
  5
37C
330
30E
100
AcDbEntity
  8
0
  6
CONTINUOUS
 62
     3
100
AcDbLine
 10
2796.219555
 20
172.745598
 30
0.0
 11
2800.220906
 21
172.659547
 31
0.0
  0
ARC
  5
37D
330
30E
100
AcDbEntity
  8
0
  6
CONTINUOUS
 62
     3
100
AcDbCircle
 10
2828.609557
 20
175.583011
 30
0.0
 40
0.5
100
AcDbArc
 50
230.648247
 51
304.796026
  0
ARC
  5
37E
330
30E
100
AcDbEntity
  8
0
  6
CONTINUOUS
 62
     3
100
AcDbCircle
 10
2833.181587
 20
175.575375
 30
0.0
 40
0.5
100
AcDbArc
 50
248.459024
 51
298.701829
  0
ARC
  5
37F
330
30E
100
AcDbEntity
  8
0
  6
CONTINUOUS
 62
     3
100
AcDbCircle
 10
2788.42731
 20
182.283485
 30
0.0
 40
0.3
100
AcDbArc
 50
275.906141
 51
36.869898
  0
ARC
  5
380
330
30E
100
AcDbEntity
  8
0
  6
CONTINUOUS
 62
     3
100
AcDbCircle
 10
2787.961706
 20
184.214756
 30
0.0
 40
0.7
100
AcDbArc
 50
85.301319
 51
194.14298
  0
LINE
  5
381
330
30E
100
AcDbEntity
  8
0
  6
CONTINUOUS
 62
     3
100
AcDbLine
 10
2820.153747
 20
167.001529
 30
0.0
 11
2828.264243
 21
167.001529
 31
0.0
  0
LINE
  5
382
330
30E
100
AcDbEntity
  8
0
  6
CONTINUOUS
 62
     3
100
AcDbLine
 10
2813.741231
 20
165.401529
 30
0.0
 11
2831.384571
 21
165.401529
 31
0.0
  0
LINE
  5
383
330
30E
100
AcDbEntity
  8
0
  6
CONTINUOUS
 62
     3
100
AcDbLine
 10
2810.328292
 20
163.801529
 30
0.0
 11
2834.259936
 21
163.801529
 31
0.0
  0
LINE
  5
384
330
30E
100
AcDbEntity
  8
0
  6
CONTINUOUS
 62
     3
100
AcDbLine
 10
2808.092972
 20
162.201529
 30
0.0
 11
2836.103409
 21
162.201529
 31
0.0
  0
LINE
  5
385
330
30E
100
AcDbEntity
  8
0
  6
CONTINUOUS
 62
     3
100
AcDbLine
 10
2806.597316
 20
160.601529
 30
0.0
 11
2837.337695
 21
160.601529
 31
0.0
  0
LINE
  5
386
330
30E
100
AcDbEntity
  8
0
  6
CONTINUOUS
 62
     3
100
AcDbLine
 10
2805.377002
 20
159.001529
 30
0.0
 11
2838.387071
 21
159.001529
 31
0.0
  0
LINE
  5
387
330
30E
100
AcDbEntity
  8
0
  6
CONTINUOUS
 62
     3
100
AcDbLine
 10
2804.68511
 20
157.401529
 30
0.0
 11
2839.112946
 21
157.401529
 31
0.0
  0
LINE
  5
388
330
30E
100
AcDbEntity
  8
0
  6
CONTINUOUS
 62
     3
100
AcDbLine
 10
2803.993218
 20
155.801529
 30
0.0
 11
2839.451332
 21
155.801529
 31
0.0
  0
LINE
  5
389
330
30E
100
AcDbEntity
  8
0
  6
CONTINUOUS
 62
     3
100
AcDbLine
 10
2803.344868
 20
154.201529
 30
0.0
 11
2839.789718
 21
154.201529
 31
0.0
  0
LINE
  5
38A
330
30E
100
AcDbEntity
  8
0
  6
CONTINUOUS
 62
     3
100
AcDbLine
 10
2803.023209
 20
152.601529
 30
0.0
 11
2840.128105
 21
152.601529
 31
0.0
  0
LINE
  5
38B
330
30E
100
AcDbEntity
  8
0
  6
CONTINUOUS
 62
     3
100
AcDbLine
 10
2802.70155
 20
151.001529
 30
0.0
 11
2818.291793
 21
151.001529
 31
0.0
  0
LINE
  5
38C
330
30E
100
AcDbEntity
  8
0
  6
CONTINUOUS
 62
     3
100
AcDbLine
 10
2802.379891
 20
149.401529
 30
0.0
 11
2816.759532
 21
149.401529
 31
0.0
  0
LINE
  5
38D
330
30E
100
AcDbEntity
  8
0
  6
CONTINUOUS
 62
     3
100
AcDbLine
 10
2802.058232
 20
147.801529
 30
0.0
 11
2815.971363
 21
147.801529
 31
0.0
  0
LINE
  5
38E
330
30E
100
AcDbEntity
  8
0
  6
CONTINUOUS
 62
     3
100
AcDbLine
 10
2801.817115
 20
146.201529
 30
0.0
 11
2815.652595
 21
146.201529
 31
0.0
  0
LINE
  5
38F
330
30E
100
AcDbEntity
  8
0
  6
CONTINUOUS
 62
     3
100
AcDbLine
 10
2801.696945
 20
144.601529
 30
0.0
 11
2815.702616
 21
144.601529
 31
0.0
  0
LINE
  5
390
330
30E
100
AcDbEntity
  8
0
  6
CONTINUOUS
 62
     3
100
AcDbLine
 10
2801.671923
 20
143.001529
 30
0.0
 11
2816.248703
 21
143.001529
 31
0.0
  0
LINE
  5
391
330
30E
100
AcDbEntity
  8
0
  6
CONTINUOUS
 62
     3
100
AcDbLine
 10
2802.171111
 20
141.401529
 30
0.0
 11
2818.278706
 21
141.401529
 31
0.0
  0
LINE
  5
392
330
30E
100
AcDbEntity
  8
0
  6
CONTINUOUS
 62
     3
100
AcDbLine
 10
2802.882222
 20
139.801529
 30
0.0
 11
2835.410077
 21
139.801529
 31
0.0
  0
LINE
  5
393
330
30E
100
AcDbEntity
  8
0
  6
CONTINUOUS
 62
     3
100
AcDbLine
 10
2803.593333
 20
138.201529
 30
0.0
 11
2834.958795
 21
138.201529
 31
0.0
  0
LINE
  5
394
330
30E
100
AcDbEntity
  8
0
  6
CONTINUOUS
 62
     3
100
AcDbLine
 10
2804.304444
 20
136.601529
 30
0.0
 11
2834.235771
 21
136.601529
 31
0.0
  0
LINE
  5
395
330
30E
100
AcDbEntity
  8
0
  6
CONTINUOUS
 62
     3
100
AcDbLine
 10
2805.266403
 20
135.001529
 30
0.0
 11
2833.337584
 21
135.001529
 31
0.0
  0
LINE
  5
396
330
30E
100
AcDbEntity
  8
0
  6
CONTINUOUS
 62
     3
100
AcDbLine
 10
2806.514864
 20
133.401529
 30
0.0
 11
2831.832658
 21
133.401529
 31
0.0
  0
LINE
  5
397
330
30E
100
AcDbEntity
  8
0
  6
CONTINUOUS
 62
     3
100
AcDbLine
 10
2808.120284
 20
131.801529
 30
0.0
 11
2829.440198
 21
131.801529
 31
0.0
  0
LINE
  5
398
330
30E
100
AcDbEntity
  8
0
  6
CONTINUOUS
 62
     3
100
AcDbLine
 10
2810.267426
 20
130.201529
 30
0.0
 11
2826.315074
 21
130.201529
 31
0.0
  0
LINE
  5
399
330
30E
100
AcDbEntity
  8
0
  6
CONTINUOUS
 62
     3
100
AcDbLine
 10
2813.515116
 20
128.601529
 30
0.0
 11
2821.676925
 21
128.601529
 31
0.0
  0
LINE
  5
39A
330
30E
100
AcDbEntity
  8
0
  6
CONTINUOUS
 62
     3
100
AcDbLine
 10
2823.483617
 20
151.001529
 30
0.0
 11
2840.303354
 21
151.001529
 31
0.0
  0
LINE
  5
39B
330
30E
100
AcDbEntity
  8
0
  6
CONTINUOUS
 62
     3
100
AcDbLine
 10
2824.154361
 20
149.401529
 30
0.0
 11
2840.177585
 21
149.401529
 31
0.0
  0
LINE
  5
39C
330
30E
100
AcDbEntity
  8
0
  6
CONTINUOUS
 62
     3
100
AcDbLine
 10
2824.266368
 20
147.801529
 30
0.0
 11
2840.051815
 21
147.801529
 31
0.0
  0
LINE
  5
39D
330
30E
100
AcDbEntity
  8
0
  6
CONTINUOUS
 62
     3
100
AcDbLine
 10
2824.021011
 20
146.201529
 30
0.0
 11
2839.337959
 21
146.201529
 31
0.0
  0
LINE
  5
39E
330
30E
100
AcDbEntity
  8
0
  6
CONTINUOUS
 62
     3
100
AcDbLine
 10
2823.369365
 20
144.601529
 30
0.0
 11
2838.616759
 21
144.601529
 31
0.0
  0
LINE
  5
39F
330
30E
100
AcDbEntity
  8
0
  6
CONTINUOUS
 62
     3
100
AcDbLine
 10
2822.236102
 20
143.001529
 30
0.0
 11
2837.682811
 21
143.001529
 31
0.0
  0
LINE
  5
3A0
330
30E
100
AcDbEntity
  8
0
  6
CONTINUOUS
 62
     3
100
AcDbLine
 10
2819.980106
 20
141.401529
 30
0.0
 11
2836.412104
 21
141.401529
 31
0.0
  0
TEXT
  5
3A1
330
30E
100
AcDbEntity
  8
0
  6
CONTINUOUS
 62
     3
100
AcDbText
 10
2840.843779
 20
149.012722
 30
0.0
 40
4.713448
  1
M
 41
1.300704
  7
ED_VECTOR
100
AcDbText
  0
TEXT
  5
3A2
330
30E
100
AcDbEntity
  8
0
  6
CONTINUOUS
 62
     3
100
AcDbText
 10
2850.495166
 20
148.954451
 30
0.0
 40
4.626621
  1
T
 41
0.518801
  7
ED_VECTOR
100
AcDbText
  0
TEXT
  5
3A3
330
30E
100
AcDbEntity
  8
0
  6
CONTINUOUS
 62
     3
100
AcDbText
 10
2853.260729
 20
148.98925
 30
0.0
 40
4.696183
  1
E
 41
0.703702
  7
ED_VECTOR
100
AcDbText
  0
TEXT
  5
3A4
330
30E
100
AcDbEntity
  8
0
  6
CONTINUOUS
 62
     3
100
AcDbText
 10
2856.376909
 20
150.605094
 30
0.0
 40
0.348283
  1
-
 41
6.250213
  7
ED_VECTOR
100
AcDbText
  0
TEXT
  5
3A5
330
30E
100
AcDbEntity
  8
0
  6
CONTINUOUS
 62
     3
100
AcDbText
 10
2858.191119
 20
148.957903
 30
0.0
 40
4.861659
  1
H
 41
0.865668
  7
ED_VECTOR
100
AcDbText
  0
TEXT
  5
3A6
330
30E
100
AcDbEntity
  8
0
  6
CONTINUOUS
 62
     3
100
AcDbText
 10
2862.267134
 20
148.988282
 30
0.0
 40
4.843139
  1
A
 41
0.846157
  7
ED_VECTOR
100
AcDbText
  0
TEXT
  5
3A7
330
30E
100
AcDbEntity
  8
0
  6
CONTINUOUS
 62
     3
100
AcDbText
 10
2865.97329
 20
148.946755
 30
0.0
 40
4.825362
  1
N
 41
0.993429
  7
ED_VECTOR
100
AcDbText
  0
TEXT
  5
3A8
330
30E
100
AcDbEntity
  8
0
  6
CONTINUOUS
 62
     3
100
AcDbText
 10
2846.764748
 20
148.924182
 30
0.0
 40
4.982325
  1
A
 41
0.784962
  7
ED_VECTOR
100
AcDbText
  0
TEXT
  5
3A9
330
30E
100
AcDbEntity
  8
0
  6
CONTINUOUS
 62
     3
100
AcDbText
 10
2841.210793
 20
141.928943
 30
0.0
 40
4.982325
  1
A
 41
0.784962
  7
ED_VECTOR
100
AcDbText
  0
TEXT
  5
3AA
330
30E
100
AcDbEntity
  8
0
  6
CONTINUOUS
 62
     3
100
AcDbText
 10
2853.995216
 20
141.957263
 30
0.0
 40
4.982325
  1
A
 41
0.784962
  7
ED_VECTOR
100
AcDbText
  0
TEXT
  5
3AB
330
30E
100
AcDbEntity
  8
0
  6
CONTINUOUS
 62
     3
100
AcDbText
 10
2857.755761
 20
142.01426
 30
0.0
 40
4.825362
  1
N
 41
0.993429
  7
ED_VECTOR
100
AcDbText
  0
TEXT
  5
3AC
330
30E
100
AcDbEntity
  8
0
  6
CONTINUOUS
 62
     3
100
AcDbText
 10
2866.658097
 20
142.022655
 30
0.0
 40
4.841775
  1
E
 41
0.789479
  7
ED_VECTOR
100
AcDbText
  0
TEXT
  5
3AD
330
30E
100
AcDbEntity
  8
0
  6
CONTINUOUS
 62
     3
100
AcDbText
 10
2845.491346
 20
141.927618
 30
0.0
 40
4.947865
  1
D
 41
0.729328
  7
ED_VECTOR
100
AcDbText
  0
TEXT
  5
3AE
330
30E
100
AcDbEntity
  8
0
  6
CONTINUOUS
 62
     3
100
AcDbText
 10
2849.893704
 20
141.922233
 30
0.0
 40
4.92421
  1
V
 41
0.818797
  7
ED_VECTOR
100
AcDbText
  0
TEXT
  5
3AF
330
30E
100
AcDbEntity
  8
0
  6
CONTINUOUS
 62
     3
100
AcDbText
 10
2862.118906
 20
141.942965
 30
0.0
 40
5.032894
  1
C
 41
0.987349
  7
ED_VECTOR
100
AcDbText
  0
LINE
  5
3B0
330
30E
100
AcDbEntity
  8
0
  6
CONTINUOUS
 62
     3
100
AcDbLine
 10
2852.749259
 20
153.003346
 30
0.0
 11
2851.737198
 21
153.003346
 31
0.0
  0
LINE
  5
3B1
330
30E
100
AcDbEntity
  8
0
  6
CONTINUOUS
 62
     3
100
AcDbLine
 10
2801.847498
 20
187.228617
 30
0.0
 11
2851.645324
 21
187.228617
 31
0.0
  0
LINE
  5
3B2
330
30E
100
AcDbEntity
  8
0
  6
CONTINUOUS
 62
     3
100
AcDbLine
 10
2794.735134
 20
185.628617
 30
0.0
 11
2862.725015
 21
185.628617
 31
0.0
  0
LINE
  5
3B3
330
30E
100
AcDbEntity
  8
0
  6
CONTINUOUS
 62
     3
100
AcDbLine
 10
2787.286729
 20
184.028617
 30
0.0
 11
2832.710039
 21
184.028617
 31
0.0
  0
LINE
  5
3B4
330
30E
100
AcDbEntity
  8
0
  6
CONTINUOUS
 62
     3
100
AcDbLine
 10
2845.671589
 20
184.028617
 30
0.0
 11
2855.258193
 21
184.028617
 31
0.0
  0
LINE
  5
3B5
330
30E
100
AcDbEntity
  8
0
  6
CONTINUOUS
 62
     3
100
AcDbLine
 10
2859.567326
 20
184.028617
 30
0.0
 11
2868.080323
 21
184.028617
 31
0.0
  0
LINE
  5
3B6
330
30E
100
AcDbEntity
  8
0
  6
CONTINUOUS
 62
     3
100
AcDbLine
 10
2788.689868
 20
182.428617
 30
0.0
 11
2845.396337
 21
182.428617
 31
0.0
  0
LINE
  5
3B7
330
30E
100
AcDbEntity
  8
0
  6
CONTINUOUS
 62
     3
100
AcDbLine
 10
2865.576476
 20
182.428617
 30
0.0
 11
2871.682721
 21
182.428617
 31
0.0
  0
LINE
  5
3B8
330
30E
100
AcDbEntity
  8
0
  6
CONTINUOUS
 62
     3
100
AcDbLine
 10
2786.777535
 20
180.828617
 30
0.0
 11
2859.531885
 21
180.828617
 31
0.0
  0
LINE
  5
3B9
330
30E
100
AcDbEntity
  8
0
  6
CONTINUOUS
 62
     3
100
AcDbLine
 10
2871.477774
 20
180.828617
 30
0.0
 11
2873.711496
 21
180.828617
 31
0.0
  0
LINE
  5
3BA
330
30E
100
AcDbEntity
  8
0
  6
CONTINUOUS
 62
     3
100
AcDbLine
 10
2785.715309
 20
179.228617
 30
0.0
 11
2867.243742
 21
179.228617
 31
0.0
  0
LINE
  5
3BB
330
30E
100
AcDbEntity
  8
0
  6
CONTINUOUS
 62
     3
100
AcDbLine
 10
2787.390976
 20
177.628617
 30
0.0
 11
2872.05305
 21
177.628617
 31
0.0
  0
LINE
  5
3BC
330
30E
100
AcDbEntity
  8
0
  6
CONTINUOUS
 62
     3
100
AcDbLine
 10
2788.558544
 20
176.028617
 30
0.0
 11
2847.671923
 21
176.028617
 31
0.0
  0
LINE
  5
3BD
330
30E
100
AcDbEntity
  8
0
  6
CONTINUOUS
 62
     3
100
AcDbLine
 10
2863.171688
 20
176.028617
 30
0.0
 11
2878.176011
 21
176.028617
 31
0.0
  0
LINE
  5
3BE
330
30E
100
AcDbEntity
  8
0
  6
CONTINUOUS
 62
     3
100
AcDbLine
 10
2788.803667
 20
174.428617
 30
0.0
 11
2824.171923
 21
174.428617
 31
0.0
  0
LINE
  5
3BF
330
30E
100
AcDbEntity
  8
0
  6
CONTINUOUS
 62
     3
100
AcDbLine
 10
2870.740616
 20
174.428617
 30
0.0
 11
2880.263219
 21
174.428617
 31
0.0
  0
LINE
  5
3C0
330
30E
100
AcDbEntity
  8
0
  6
CONTINUOUS
 62
     3
100
AcDbLine
 10
2789.009992
 20
172.828617
 30
0.0
 11
2802.475166
 21
172.828617
 31
0.0
  0
LINE
  5
3C1
330
30E
100
AcDbEntity
  8
0
  6
CONTINUOUS
 62
     3
100
AcDbLine
 10
2878.200965
 20
172.828617
 30
0.0
 11
2884.685984
 21
172.828617
 31
0.0
  0
LINE
  5
3C2
330
30E
100
AcDbEntity
  8
0
  6
CONTINUOUS
 62
     3
100
AcDbLine
 10
2886.263959
 20
171.228617
 30
0.0
 11
2888.432813
 21
171.228617
 31
0.0
  0
ENDBLK
  5
310
330
30E
100
AcDbEntity
  8
0
100
AcDbBlockEnd
  0
BLOCK
  5
3CD
330
3CC
100
AcDbEntity
  8
0
100
AcDbBlockBegin
  2
BLKF028
 70
     0
 10
0.0
 20
0.0
 30
0.0
  3
BLKF028
  1

  0
LINE
  5
3D0
330
3CC
100
AcDbEntity
  8
0
  6
CONTINUOUS
 62
     7
100
AcDbLine
 10
3010.673128
 20
304.822891
 30
0.0
 11
3013.003128
 21
304.822891
 31
0.0
  0
LINE
  5
3D1
330
3CC
100
AcDbEntity
  8
0
  6
CONTINUOUS
 62
     7
100
AcDbLine
 10
3009.508128
 20
303.657891
 30
0.0
 11
3011.838128
 21
303.657891
 31
0.0
  0
LINE
  5
3D2
330
3CC
100
AcDbEntity
  8
0
  6
CONTINUOUS
 62
     7
100
AcDbLine
 10
3008.343128
 20
302.492891
 30
0.0
 11
3011.838128
 21
302.492891
 31
0.0
  0
LINE
  5
3D3
330
3CC
100
AcDbEntity
  8
0
  6
CONTINUOUS
 62
     7
100
AcDbLine
 10
3008.343128
 20
301.327891
 30
0.0
 11
3011.838128
 21
301.327891
 31
0.0
  0
LINE
  5
3D4
330
3CC
100
AcDbEntity
  8
0
  6
CONTINUOUS
 62
     7
100
AcDbLine
 10
3008.343128
 20
300.162891
 30
0.0
 11
3010.673128
 21
300.162891
 31
0.0
  0
LINE
  5
3D5
330
3CC
100
AcDbEntity
  8
0
  6
CONTINUOUS
 62
     7
100
AcDbLine
 10
3007.178128
 20
298.997891
 30
0.0
 11
3009.508128
 21
298.997891
 31
0.0
  0
LINE
  5
3D6
330
3CC
100
AcDbEntity
  8
0
  6
CONTINUOUS
 62
     7
100
AcDbLine
 10
3006.013128
 20
297.832891
 30
0.0
 11
3009.508128
 21
297.832891
 31
0.0
  0
LINE
  5
3D7
330
3CC
100
AcDbEntity
  8
0
  6
CONTINUOUS
 62
     7
100
AcDbLine
 10
3006.013128
 20
296.667891
 30
0.0
 11
3009.508128
 21
296.667891
 31
0.0
  0
LINE
  5
3D8
330
3CC
100
AcDbEntity
  8
0
  6
CONTINUOUS
 62
     7
100
AcDbLine
 10
3006.013128
 20
295.502891
 30
0.0
 11
3009.508128
 21
295.502891
 31
0.0
  0
LINE
  5
3D9
330
3CC
100
AcDbEntity
  8
0
  6
CONTINUOUS
 62
     7
100
AcDbLine
 10
3006.013128
 20
294.337891
 30
0.0
 11
3009.508128
 21
294.337891
 31
0.0
  0
LINE
  5
3DA
330
3CC
100
AcDbEntity
  8
0
  6
CONTINUOUS
 62
     7
100
AcDbLine
 10
3006.013128
 20
293.172891
 30
0.0
 11
3008.343128
 21
293.172891
 31
0.0
  0
LINE
  5
3DB
330
3CC
100
AcDbEntity
  8
0
  6
CONTINUOUS
 62
     7
100
AcDbLine
 10
3004.848128
 20
292.007891
 30
0.0
 11
3008.343128
 21
292.007891
 31
0.0
  0
LINE
  5
3DC
330
3CC
100
AcDbEntity
  8
0
  6
CONTINUOUS
 62
     7
100
AcDbLine
 10
3004.848128
 20
290.842891
 30
0.0
 11
3008.343128
 21
290.842891
 31
0.0
  0
LINE
  5
3DD
330
3CC
100
AcDbEntity
  8
0
  6
CONTINUOUS
 62
     7
100
AcDbLine
 10
3004.848128
 20
289.677891
 30
0.0
 11
3007.178128
 21
289.677891
 31
0.0
  0
LINE
  5
3DE
330
3CC
100
AcDbEntity
  8
0
  6
CONTINUOUS
 62
     7
100
AcDbLine
 10
3004.848128
 20
288.512891
 30
0.0
 11
3007.178128
 21
288.512891
 31
0.0
  0
LINE
  5
3DF
330
3CC
100
AcDbEntity
  8
0
  6
CONTINUOUS
 62
     7
100
AcDbLine
 10
3004.848128
 20
287.347891
 30
0.0
 11
3007.178128
 21
287.347891
 31
0.0
  0
LINE
  5
3E0
330
3CC
100
AcDbEntity
  8
0
  6
CONTINUOUS
 62
     7
100
AcDbLine
 10
3004.848128
 20
286.182891
 30
0.0
 11
3007.178128
 21
286.182891
 31
0.0
  0
LINE
  5
3E1
330
3CC
100
AcDbEntity
  8
0
  6
CONTINUOUS
 62
     7
100
AcDbLine
 10
3004.848128
 20
285.017891
 30
0.0
 11
3007.178128
 21
285.017891
 31
0.0
  0
LINE
  5
3E2
330
3CC
100
AcDbEntity
  8
0
  6
CONTINUOUS
 62
     7
100
AcDbLine
 10
3004.848128
 20
283.852891
 30
0.0
 11
3007.178128
 21
283.852891
 31
0.0
  0
LINE
  5
3E3
330
3CC
100
AcDbEntity
  8
0
  6
CONTINUOUS
 62
     7
100
AcDbLine
 10
3004.848128
 20
282.687891
 30
0.0
 11
3007.178128
 21
282.687891
 31
0.0
  0
LINE
  5
3E4
330
3CC
100
AcDbEntity
  8
0
  6
CONTINUOUS
 62
     7
100
AcDbLine
 10
3003.683128
 20
281.522891
 30
0.0
 11
3007.178128
 21
281.522891
 31
0.0
  0
LINE
  5
3E5
330
3CC
100
AcDbEntity
  8
0
  6
CONTINUOUS
 62
     7
100
AcDbLine
 10
3003.666767
 20
280.357891
 30
0.0
 11
3007.178128
 21
280.357891
 31
0.0
  0
LINE
  5
3E6
330
3CC
100
AcDbEntity
  8
0
  6
CONTINUOUS
 62
     7
100
AcDbLine
 10
3003.666767
 20
279.192891
 30
0.0
 11
3007.178128
 21
279.192891
 31
0.0
  0
LINE
  5
3E7
330
3CC
100
AcDbEntity
  8
0
  6
CONTINUOUS
 62
     7
100
AcDbLine
 10
3003.666767
 20
278.027891
 30
0.0
 11
3007.178128
 21
278.027891
 31
0.0
  0
LINE
  5
3E8
330
3CC
100
AcDbEntity
  8
0
  6
CONTINUOUS
 62
     7
100
AcDbLine
 10
3003.666767
 20
276.862891
 30
0.0
 11
3007.178128
 21
276.862891
 31
0.0
  0
LINE
  5
3E9
330
3CC
100
AcDbEntity
  8
0
  6
CONTINUOUS
 62
     7
100
AcDbLine
 10
3003.666767
 20
275.697891
 30
0.0
 11
3007.178128
 21
275.697891
 31
0.0
  0
LINE
  5
3EA
330
3CC
100
AcDbEntity
  8
0
  6
CONTINUOUS
 62
     7
100
AcDbLine
 10
3003.666767
 20
274.532891
 30
0.0
 11
3007.178128
 21
274.532891
 31
0.0
  0
LINE
  5
3EB
330
3CC
100
AcDbEntity
  8
0
  6
CONTINUOUS
 62
     7
100
AcDbLine
 10
3003.666767
 20
273.367891
 30
0.0
 11
3007.178128
 21
273.367891
 31
0.0
  0
LINE
  5
3EC
330
3CC
100
AcDbEntity
  8
0
  6
CONTINUOUS
 62
     7
100
AcDbLine
 10
3003.666767
 20
272.202891
 30
0.0
 11
3007.178128
 21
272.202891
 31
0.0
  0
LINE
  5
3ED
330
3CC
100
AcDbEntity
  8
0
  6
CONTINUOUS
 62
     7
100
AcDbLine
 10
3003.666767
 20
271.037891
 30
0.0
 11
3008.343128
 21
271.037891
 31
0.0
  0
LINE
  5
3EE
330
3CC
100
AcDbEntity
  8
0
  6
CONTINUOUS
 62
     7
100
AcDbLine
 10
3003.666767
 20
269.872891
 30
0.0
 11
3009.508128
 21
269.872891
 31
0.0
  0
LINE
  5
3EF
330
3CC
100
AcDbEntity
  8
0
  6
CONTINUOUS
 62
     7
100
AcDbLine
 10
3003.666767
 20
268.707891
 30
0.0
 11
3009.508128
 21
268.707891
 31
0.0
  0
LINE
  5
3F0
330
3CC
100
AcDbEntity
  8
0
  6
CONTINUOUS
 62
     7
100
AcDbLine
 10
3003.666767
 20
267.542891
 30
0.0
 11
3009.508128
 21
267.542891
 31
0.0
  0
LINE
  5
3F1
330
3CC
100
AcDbEntity
  8
0
  6
CONTINUOUS
 62
     7
100
AcDbLine
 10
3003.666767
 20
266.377891
 30
0.0
 11
3004.848128
 21
266.377891
 31
0.0
  0
LINE
  5
3F2
330
3CC
100
AcDbEntity
  8
0
  6
CONTINUOUS
 62
     7
100
AcDbLine
 10
3006.013128
 20
265.212891
 30
0.0
 11
3009.508128
 21
265.212891
 31
0.0
  0
LINE
  5
3F3
330
3CC
100
AcDbEntity
  8
0
  6
CONTINUOUS
 62
     7
100
AcDbLine
 10
3006.013128
 20
264.047891
 30
0.0
 11
3010.673128
 21
264.047891
 31
0.0
  0
LINE
  5
3F4
330
3CC
100
AcDbEntity
  8
0
  6
CONTINUOUS
 62
     7
100
AcDbLine
 10
3007.178128
 20
262.882891
 30
0.0
 11
3011.838128
 21
262.882891
 31
0.0
  0
LINE
  5
3F5
330
3CC
100
AcDbEntity
  8
0
  6
CONTINUOUS
 62
     7
100
AcDbLine
 10
3008.343128
 20
261.717891
 30
0.0
 11
3013.003128
 21
261.717891
 31
0.0
  0
LINE
  5
3F6
330
3CC
100
AcDbEntity
  8
0
  6
CONTINUOUS
 62
     7
100
AcDbLine
 10
3008.343128
 20
260.552891
 30
0.0
 11
3013.003128
 21
260.552891
 31
0.0
  0
LINE
  5
3F7
330
3CC
100
AcDbEntity
  8
0
  6
CONTINUOUS
 62
     7
100
AcDbLine
 10
3008.343128
 20
259.387891
 30
0.0
 11
3013.003128
 21
259.387891
 31
0.0
  0
LINE
  5
3F8
330
3CC
100
AcDbEntity
  8
0
  6
CONTINUOUS
 62
     7
100
AcDbLine
 10
3009.508128
 20
258.222891
 30
0.0
 11
3014.168128
 21
258.222891
 31
0.0
  0
LINE
  5
3F9
330
3CC
100
AcDbEntity
  8
0
  6
CONTINUOUS
 62
     7
100
AcDbLine
 10
3010.673128
 20
257.057891
 30
0.0
 11
3015.333128
 21
257.057891
 31
0.0
  0
LINE
  5
3FA
330
3CC
100
AcDbEntity
  8
0
  6
CONTINUOUS
 62
     7
100
AcDbLine
 10
3010.673128
 20
255.892891
 30
0.0
 11
3016.498128
 21
255.892891
 31
0.0
  0
LINE
  5
3FB
330
3CC
100
AcDbEntity
  8
0
  6
CONTINUOUS
 62
     7
100
AcDbLine
 10
3010.673128
 20
254.727891
 30
0.0
 11
3016.498128
 21
254.727891
 31
0.0
  0
LINE
  5
3FC
330
3CC
100
AcDbEntity
  8
0
  6
CONTINUOUS
 62
     7
100
AcDbLine
 10
3011.838128
 20
253.562891
 30
0.0
 11
3016.498128
 21
253.562891
 31
0.0
  0
LINE
  5
3FD
330
3CC
100
AcDbEntity
  8
0
  6
CONTINUOUS
 62
     7
100
AcDbLine
 10
3013.003128
 20
252.397891
 30
0.0
 11
3017.663128
 21
252.397891
 31
0.0
  0
LINE
  5
3FE
330
3CC
100
AcDbEntity
  8
0
  6
CONTINUOUS
 62
     7
100
AcDbLine
 10
3014.168128
 20
251.232891
 30
0.0
 11
3018.828128
 21
251.232891
 31
0.0
  0
LINE
  5
3FF
330
3CC
100
AcDbEntity
  8
0
  6
CONTINUOUS
 62
     7
100
AcDbLine
 10
3015.333128
 20
250.067891
 30
0.0
 11
3021.158128
 21
250.067891
 31
0.0
  0
LINE
  5
400
330
3CC
100
AcDbEntity
  8
0
  6
CONTINUOUS
 62
     7
100
AcDbLine
 10
3015.333128
 20
248.902891
 30
0.0
 11
3021.158128
 21
248.902891
 31
0.0
  0
LINE
  5
401
330
3CC
100
AcDbEntity
  8
0
  6
CONTINUOUS
 62
     7
100
AcDbLine
 10
3015.333128
 20
247.737891
 30
0.0
 11
3022.323128
 21
247.737891
 31
0.0
  0
LINE
  5
402
330
3CC
100
AcDbEntity
  8
0
  6
CONTINUOUS
 62
     7
100
AcDbLine
 10
3017.663128
 20
246.572891
 30
0.0
 11
3023.488128
 21
246.572891
 31
0.0
  0
LINE
  5
403
330
3CC
100
AcDbEntity
  8
0
  6
CONTINUOUS
 62
     7
100
AcDbLine
 10
3010.673128
 20
305.987891
 30
0.0
 11
3014.168128
 21
305.987891
 31
0.0
  0
LINE
  5
404
330
3CC
100
AcDbEntity
  8
0
  6
CONTINUOUS
 62
     7
100
AcDbLine
 10
3010.673128
 20
307.152891
 30
0.0
 11
3014.168128
 21
307.152891
 31
0.0
  0
LINE
  5
405
330
3CC
100
AcDbEntity
  8
0
  6
CONTINUOUS
 62
     7
100
AcDbLine
 10
3011.838128
 20
308.317891
 30
0.0
 11
3015.333128
 21
308.317891
 31
0.0
  0
LINE
  5
406
330
3CC
100
AcDbEntity
  8
0
  6
CONTINUOUS
 62
     7
100
AcDbLine
 10
3013.003128
 20
309.482891
 30
0.0
 11
3015.333128
 21
309.482891
 31
0.0
  0
LINE
  5
407
330
3CC
100
AcDbEntity
  8
0
  6
CONTINUOUS
 62
     7
100
AcDbLine
 10
3014.168128
 20
310.647891
 30
0.0
 11
3016.498128
 21
310.647891
 31
0.0
  0
LINE
  5
408
330
3CC
100
AcDbEntity
  8
0
  6
CONTINUOUS
 62
     7
100
AcDbLine
 10
3015.333128
 20
311.812891
 30
0.0
 11
3017.663128
 21
311.812891
 31
0.0
  0
LINE
  5
409
330
3CC
100
AcDbEntity
  8
0
  6
CONTINUOUS
 62
     7
100
AcDbLine
 10
3015.333128
 20
312.977891
 30
0.0
 11
3018.828128
 21
312.977891
 31
0.0
  0
LINE
  5
40A
330
3CC
100
AcDbEntity
  8
0
  6
CONTINUOUS
 62
     7
100
AcDbLine
 10
3015.333128
 20
314.142891
 30
0.0
 11
3019.993128
 21
314.142891
 31
0.0
  0
LINE
  5
40B
330
3CC
100
AcDbEntity
  8
0
  6
CONTINUOUS
 62
     7
100
AcDbLine
 10
3016.498128
 20
315.307891
 30
0.0
 11
3021.158128
 21
315.307891
 31
0.0
  0
LINE
  5
40C
330
3CC
100
AcDbEntity
  8
0
  6
CONTINUOUS
 62
     7
100
AcDbLine
 10
3017.663128
 20
316.472891
 30
0.0
 11
3022.323128
 21
316.472891
 31
0.0
  0
LINE
  5
40D
330
3CC
100
AcDbEntity
  8
0
  6
CONTINUOUS
 62
     7
100
AcDbLine
 10
3018.828128
 20
317.637891
 30
0.0
 11
3023.488128
 21
317.637891
 31
0.0
  0
LINE
  5
40E
330
3CC
100
AcDbEntity
  8
0
  6
CONTINUOUS
 62
     7
100
AcDbLine
 10
3019.993128
 20
318.802891
 30
0.0
 11
3026.983128
 21
318.802891
 31
0.0
  0
LINE
  5
40F
330
3CC
100
AcDbEntity
  8
0
  6
CONTINUOUS
 62
     7
100
AcDbLine
 10
3021.158128
 20
319.967891
 30
0.0
 11
3035.138128
 21
319.967891
 31
0.0
  0
LINE
  5
410
330
3CC
100
AcDbEntity
  8
0
  6
CONTINUOUS
 62
     7
100
AcDbLine
 10
3022.323128
 20
321.132891
 30
0.0
 11
3035.138128
 21
321.132891
 31
0.0
  0
LINE
  5
411
330
3CC
100
AcDbEntity
  8
0
  6
CONTINUOUS
 62
     7
100
AcDbLine
 10
3024.653128
 20
322.297891
 30
0.0
 11
3033.973128
 21
322.297891
 31
0.0
  0
LINE
  5
412
330
3CC
100
AcDbEntity
  8
0
  6
CONTINUOUS
 62
     7
100
AcDbLine
 10
3024.653128
 20
323.462891
 30
0.0
 11
3033.973128
 21
323.462891
 31
0.0
  0
LINE
  5
413
330
3CC
100
AcDbEntity
  8
0
  6
CONTINUOUS
 62
     7
100
AcDbLine
 10
3028.148128
 20
324.627891
 30
0.0
 11
3037.468128
 21
324.627891
 31
0.0
  0
LINE
  5
414
330
3CC
100
AcDbEntity
  8
0
  6
CONTINUOUS
 62
     7
100
AcDbLine
 10
3029.313128
 20
325.792891
 30
0.0
 11
3040.963128
 21
325.792891
 31
0.0
  0
LINE
  5
415
330
3CC
100
AcDbEntity
  8
0
  6
CONTINUOUS
 62
     7
100
AcDbLine
 10
3032.808128
 20
326.957891
 30
0.0
 11
3046.788128
 21
326.957891
 31
0.0
  0
LINE
  5
416
330
3CC
100
AcDbEntity
  8
0
  6
CONTINUOUS
 62
     7
100
AcDbLine
 10
3033.973128
 20
328.122891
 30
0.0
 11
3050.283128
 21
328.122891
 31
0.0
  0
LINE
  5
417
330
3CC
100
AcDbEntity
  8
0
  6
CONTINUOUS
 62
     7
100
AcDbLine
 10
3037.468128
 20
329.287891
 30
0.0
 11
3071.253128
 21
329.287891
 31
0.0
  0
LINE
  5
418
330
3CC
100
AcDbEntity
  8
0
  6
CONTINUOUS
 62
     7
100
AcDbLine
 10
3038.633128
 20
330.452891
 30
0.0
 11
3067.758128
 21
330.452891
 31
0.0
  0
LINE
  5
419
330
3CC
100
AcDbEntity
  8
0
  6
CONTINUOUS
 62
     7
100
AcDbLine
 10
3044.458128
 20
331.617891
 30
0.0
 11
3061.933128
 21
331.617891
 31
0.0
  0
LINE
  5
41A
330
3CC
100
AcDbEntity
  8
0
  6
CONTINUOUS
 62
     7
100
AcDbLine
 10
3045.623128
 20
332.782891
 30
0.0
 11
3060.768128
 21
332.782891
 31
0.0
  0
LINE
  5
41B
330
3CC
100
AcDbEntity
  8
0
  6
CONTINUOUS
 62
     7
100
AcDbLine
 10
3017.663128
 20
245.407891
 30
0.0
 11
3024.653128
 21
245.407891
 31
0.0
  0
LINE
  5
41C
330
3CC
100
AcDbEntity
  8
0
  6
CONTINUOUS
 62
     7
100
AcDbLine
 10
3018.828128
 20
244.242891
 30
0.0
 11
3025.818128
 21
244.242891
 31
0.0
  0
LINE
  5
41D
330
3CC
100
AcDbEntity
  8
0
  6
CONTINUOUS
 62
     7
100
AcDbLine
 10
3019.993128
 20
243.077891
 30
0.0
 11
3044.458128
 21
243.077891
 31
0.0
  0
LINE
  5
41E
330
3CC
100
AcDbEntity
  8
0
  6
CONTINUOUS
 62
     7
100
AcDbLine
 10
3023.488128
 20
241.912891
 30
0.0
 11
3040.963128
 21
241.912891
 31
0.0
  0
LINE
  5
41F
330
3CC
100
AcDbEntity
  8
0
  6
CONTINUOUS
 62
     7
100
AcDbLine
 10
3024.653128
 20
240.747891
 30
0.0
 11
3035.138128
 21
240.747891
 31
0.0
  0
LINE
  5
420
330
3CC
100
AcDbEntity
  8
0
  6
CONTINUOUS
 62
     7
100
AcDbLine
 10
3025.818128
 20
239.582891
 30
0.0
 11
3035.138128
 21
239.582891
 31
0.0
  0
LINE
  5
421
330
3CC
100
AcDbEntity
  8
0
  6
CONTINUOUS
 62
     7
100
AcDbLine
 10
3026.983128
 20
238.417891
 30
0.0
 11
3038.633128
 21
238.417891
 31
0.0
  0
LINE
  5
422
330
3CC
100
AcDbEntity
  8
0
  6
CONTINUOUS
 62
     7
100
AcDbLine
 10
3029.313128
 20
237.252891
 30
0.0
 11
3042.128128
 21
237.252891
 31
0.0
  0
LINE
  5
423
330
3CC
100
AcDbEntity
  8
0
  6
CONTINUOUS
 62
     7
100
AcDbLine
 10
3029.313128
 20
236.087891
 30
0.0
 11
3045.623128
 21
236.087891
 31
0.0
  0
LINE
  5
424
330
3CC
100
AcDbEntity
  8
0
  6
CONTINUOUS
 62
     7
100
AcDbLine
 10
3032.808128
 20
234.922891
 30
0.0
 11
3073.583128
 21
234.922891
 31
0.0
  0
LINE
  5
425
330
3CC
100
AcDbEntity
  8
0
  6
CONTINUOUS
 62
     7
100
AcDbLine
 10
3033.973128
 20
233.757891
 30
0.0
 11
3072.418128
 21
233.757891
 31
0.0
  0
LINE
  5
426
330
3CC
100
AcDbEntity
  8
0
  6
CONTINUOUS
 62
     7
100
AcDbLine
 10
3037.468128
 20
232.592891
 30
0.0
 11
3068.923128
 21
232.592891
 31
0.0
  0
LINE
  5
427
330
3CC
100
AcDbEntity
  8
0
  6
CONTINUOUS
 62
     7
100
AcDbLine
 10
3038.633128
 20
231.427891
 30
0.0
 11
3039.798128
 21
231.427891
 31
0.0
  0
LINE
  5
428
330
3CC
100
AcDbEntity
  8
0
  6
CONTINUOUS
 62
     7
100
AcDbLine
 10
3046.788128
 20
230.262891
 30
0.0
 11
3047.953128
 21
230.262891
 31
0.0
  0
LINE
  5
429
330
3CC
100
AcDbEntity
  8
0
  6
CONTINUOUS
 62
     7
100
AcDbLine
 10
3058.438128
 20
230.102954
 30
0.0
 11
3058.438128
 21
236.087891
 31
0.0
  0
LINE
  5
42A
330
3CC
100
AcDbEntity
  8
0
  6
CONTINUOUS
 62
     7
100
AcDbLine
 10
3059.603128
 20
230.102954
 30
0.0
 11
3059.603128
 21
236.087891
 31
0.0
  0
LINE
  5
42B
330
3CC
100
AcDbEntity
  8
0
  6
CONTINUOUS
 62
     7
100
AcDbLine
 10
3060.768128
 20
230.102954
 30
0.0
 11
3060.768128
 21
236.087891
 31
0.0
  0
LINE
  5
42C
330
3CC
100
AcDbEntity
  8
0
  6
CONTINUOUS
 62
     7
100
AcDbLine
 10
3061.933128
 20
230.102954
 30
0.0
 11
3061.933128
 21
237.252891
 31
0.0
  0
LINE
  5
42D
330
3CC
100
AcDbEntity
  8
0
  6
CONTINUOUS
 62
     7
100
AcDbLine
 10
3063.098128
 20
231.427891
 30
0.0
 11
3063.098128
 21
237.252891
 31
0.0
  0
LINE
  5
42E
330
3CC
100
AcDbEntity
  8
0
  6
CONTINUOUS
 62
     7
100
AcDbLine
 10
3064.263128
 20
231.427891
 30
0.0
 11
3064.263128
 21
237.252891
 31
0.0
  0
LINE
  5
42F
330
3CC
100
AcDbEntity
  8
0
  6
CONTINUOUS
 62
     7
100
AcDbLine
 10
3065.428128
 20
231.427891
 30
0.0
 11
3065.428128
 21
237.252891
 31
0.0
  0
LINE
  5
430
330
3CC
100
AcDbEntity
  8
0
  6
CONTINUOUS
 62
     7
100
AcDbLine
 10
3066.593128
 20
231.427891
 30
0.0
 11
3066.593128
 21
237.252891
 31
0.0
  0
LINE
  5
431
330
3CC
100
AcDbEntity
  8
0
  6
CONTINUOUS
 62
     7
100
AcDbLine
 10
3067.758128
 20
231.427891
 30
0.0
 11
3067.758128
 21
238.417891
 31
0.0
  0
LINE
  5
432
330
3CC
100
AcDbEntity
  8
0
  6
CONTINUOUS
 62
     7
100
AcDbLine
 10
3068.923128
 20
232.592891
 30
0.0
 11
3068.923128
 21
239.582891
 31
0.0
  0
LINE
  5
433
330
3CC
100
AcDbEntity
  8
0
  6
CONTINUOUS
 62
     7
100
AcDbLine
 10
3070.088128
 20
233.757891
 30
0.0
 11
3070.088128
 21
239.582891
 31
0.0
  0
LINE
  5
434
330
3CC
100
AcDbEntity
  8
0
  6
CONTINUOUS
 62
     7
100
AcDbLine
 10
3071.253128
 20
233.757891
 30
0.0
 11
3071.253128
 21
239.582891
 31
0.0
  0
LINE
  5
435
330
3CC
100
AcDbEntity
  8
0
  6
CONTINUOUS
 62
     7
100
AcDbLine
 10
3072.418128
 20
233.757891
 30
0.0
 11
3072.418128
 21
239.582891
 31
0.0
  0
LINE
  5
436
330
3CC
100
AcDbEntity
  8
0
  6
CONTINUOUS
 62
     7
100
AcDbLine
 10
3073.583128
 20
234.922891
 30
0.0
 11
3073.583128
 21
239.582891
 31
0.0
  0
LINE
  5
437
330
3CC
100
AcDbEntity
  8
0
  6
CONTINUOUS
 62
     7
100
AcDbLine
 10
3074.748128
 20
236.087891
 30
0.0
 11
3074.748128
 21
248.902891
 31
0.0
  0
LINE
  5
438
330
3CC
100
AcDbEntity
  8
0
  6
CONTINUOUS
 62
     7
100
AcDbLine
 10
3075.913128
 20
236.087891
 30
0.0
 11
3075.913128
 21
248.902891
 31
0.0
  0
LINE
  5
439
330
3CC
100
AcDbEntity
  8
0
  6
CONTINUOUS
 62
     7
100
AcDbLine
 10
3077.078128
 20
236.087891
 30
0.0
 11
3077.078128
 21
250.067891
 31
0.0
  0
LINE
  5
43A
330
3CC
100
AcDbEntity
  8
0
  6
CONTINUOUS
 62
     7
100
AcDbLine
 10
3078.243128
 20
238.417891
 30
0.0
 11
3078.243128
 21
251.232891
 31
0.0
  0
LINE
  5
43B
330
3CC
100
AcDbEntity
  8
0
  6
CONTINUOUS
 62
     7
100
AcDbLine
 10
3079.408128
 20
238.417891
 30
0.0
 11
3079.408128
 21
267.542891
 31
0.0
  0
LINE
  5
43C
330
3CC
100
AcDbEntity
  8
0
  6
CONTINUOUS
 62
     7
100
AcDbLine
 10
3080.573128
 20
239.582891
 30
0.0
 11
3080.573128
 21
266.377891
 31
0.0
  0
LINE
  5
43D
330
3CC
100
AcDbEntity
  8
0
  6
CONTINUOUS
 62
     7
100
AcDbLine
 10
3081.738128
 20
239.582891
 30
0.0
 11
3081.738128
 21
248.902891
 31
0.0
  0
LINE
  5
43E
330
3CC
100
AcDbEntity
  8
0
  6
CONTINUOUS
 62
     7
100
AcDbLine
 10
3082.903128
 20
239.582891
 30
0.0
 11
3082.903128
 21
248.902891
 31
0.0
  0
LINE
  5
43F
330
3CC
100
AcDbEntity
  8
0
  6
CONTINUOUS
 62
     7
100
AcDbLine
 10
3084.068128
 20
240.747891
 30
0.0
 11
3084.068128
 21
246.572891
 31
0.0
  0
LINE
  5
440
330
3CC
100
AcDbEntity
  8
0
  6
CONTINUOUS
 62
     7
100
AcDbLine
 10
3085.233128
 20
240.747891
 30
0.0
 11
3085.233128
 21
246.572891
 31
0.0
  0
LINE
  5
441
330
3CC
100
AcDbEntity
  8
0
  6
CONTINUOUS
 62
     7
100
AcDbLine
 10
3086.398128
 20
240.747891
 30
0.0
 11
3086.398128
 21
241.912891
 31
0.0
  0
LINE
  5
442
330
3CC
100
AcDbEntity
  8
0
  6
CONTINUOUS
 62
     7
100
AcDbLine
 10
3087.563128
 20
244.242891
 30
0.0
 11
3087.563128
 21
251.232891
 31
0.0
  0
LINE
  5
443
330
3CC
100
AcDbEntity
  8
0
  6
CONTINUOUS
 62
     7
100
AcDbLine
 10
3088.728128
 20
245.407891
 30
0.0
 11
3088.728128
 21
252.397891
 31
0.0
  0
LINE
  5
444
330
3CC
100
AcDbEntity
  8
0
  6
CONTINUOUS
 62
     7
100
AcDbLine
 10
3089.893128
 20
246.572891
 30
0.0
 11
3089.893128
 21
253.562891
 31
0.0
  0
LINE
  5
445
330
3CC
100
AcDbEntity
  8
0
  6
CONTINUOUS
 62
     7
100
AcDbLine
 10
3091.058128
 20
247.737891
 30
0.0
 11
3091.058128
 21
254.727891
 31
0.0
  0
LINE
  5
446
330
3CC
100
AcDbEntity
  8
0
  6
CONTINUOUS
 62
     7
100
AcDbLine
 10
3092.223128
 20
247.737891
 30
0.0
 11
3092.223128
 21
255.892891
 31
0.0
  0
LINE
  5
447
330
3CC
100
AcDbEntity
  8
0
  6
CONTINUOUS
 62
     7
100
AcDbLine
 10
3093.388128
 20
247.737891
 30
0.0
 11
3093.388128
 21
248.902891
 31
0.0
  0
LINE
  5
448
330
3CC
100
AcDbEntity
  8
0
  6
CONTINUOUS
 62
     7
100
AcDbLine
 10
3094.553128
 20
250.067891
 30
0.0
 11
3094.553128
 21
260.552891
 31
0.0
  0
LINE
  5
449
330
3CC
100
AcDbEntity
  8
0
  6
CONTINUOUS
 62
     7
100
AcDbLine
 10
3095.718128
 20
250.067891
 30
0.0
 11
3095.718128
 21
251.232891
 31
0.0
  0
LINE
  5
44A
330
3CC
100
AcDbEntity
  8
0
  6
CONTINUOUS
 62
     7
100
AcDbLine
 10
3096.883128
 20
253.562891
 30
0.0
 11
3096.883128
 21
265.212891
 31
0.0
  0
LINE
  5
44B
330
3CC
100
AcDbEntity
  8
0
  6
CONTINUOUS
 62
     7
100
AcDbLine
 10
3098.048128
 20
257.057891
 30
0.0
 11
3098.048128
 21
268.707891
 31
0.0
  0
LINE
  5
44C
330
3CC
100
AcDbEntity
  8
0
  6
CONTINUOUS
 62
     7
100
AcDbLine
 10
3099.213128
 20
260.552891
 30
0.0
 11
3099.213128
 21
269.872891
 31
0.0
  0
LINE
  5
44D
330
3CC
100
AcDbEntity
  8
0
  6
CONTINUOUS
 62
     7
100
AcDbLine
 10
3100.378128
 20
261.717891
 30
0.0
 11
3100.378128
 21
300.162891
 31
0.0
  0
LINE
  5
44E
330
3CC
100
AcDbEntity
  8
0
  6
CONTINUOUS
 62
     7
100
AcDbLine
 10
3101.543128
 20
262.882891
 30
0.0
 11
3101.543128
 21
298.997891
 31
0.0
  0
LINE
  5
44F
330
3CC
100
AcDbEntity
  8
0
  6
CONTINUOUS
 62
     7
100
AcDbLine
 10
3102.708128
 20
266.377891
 30
0.0
 11
3102.708128
 21
295.502891
 31
0.0
  0
LINE
  5
450
330
3CC
100
AcDbEntity
  8
0
  6
CONTINUOUS
 62
     7
100
AcDbLine
 10
3103.873128
 20
272.202891
 30
0.0
 11
3103.873128
 21
289.677891
 31
0.0
  0
LINE
  5
451
330
3CC
100
AcDbEntity
  8
0
  6
CONTINUOUS
 62
     7
100
AcDbLine
 10
3105.038128
 20
273.367891
 30
0.0
 11
3105.038128
 21
274.532891
 31
0.0
  0
LINE
  5
452
330
3CC
100
AcDbEntity
  8
0
  6
CONTINUOUS
 62
     7
100
AcDbLine
 10
3057.273128
 20
230.102954
 30
0.0
 11
3057.273128
 21
236.087891
 31
0.0
  0
LINE
  5
453
330
3CC
100
AcDbEntity
  8
0
  6
CONTINUOUS
 62
     7
100
AcDbLine
 10
3056.108128
 20
230.102954
 30
0.0
 11
3056.108128
 21
236.087891
 31
0.0
  0
LINE
  5
454
330
3CC
100
AcDbEntity
  8
0
  6
CONTINUOUS
 62
     7
100
AcDbLine
 10
3054.943128
 20
230.102954
 30
0.0
 11
3054.943128
 21
234.922891
 31
0.0
  0
LINE
  5
455
330
3CC
100
AcDbEntity
  8
0
  6
CONTINUOUS
 62
     7
100
AcDbLine
 10
3053.778128
 20
230.102954
 30
0.0
 11
3053.778128
 21
234.922891
 31
0.0
  0
LINE
  5
456
330
3CC
100
AcDbEntity
  8
0
  6
CONTINUOUS
 62
     7
100
AcDbLine
 10
3052.613128
 20
230.102954
 30
0.0
 11
3052.613128
 21
236.087891
 31
0.0
  0
LINE
  5
457
330
3CC
100
AcDbEntity
  8
0
  6
CONTINUOUS
 62
     7
100
AcDbLine
 10
3051.448128
 20
230.102954
 30
0.0
 11
3051.448128
 21
236.087891
 31
0.0
  0
LINE
  5
458
330
3CC
100
AcDbEntity
  8
0
  6
CONTINUOUS
 62
     7
100
AcDbLine
 10
3050.283128
 20
230.102954
 30
0.0
 11
3050.283128
 21
236.087891
 31
0.0
  0
LINE
  5
459
330
3CC
100
AcDbEntity
  8
0
  6
CONTINUOUS
 62
     7
100
AcDbLine
 10
3049.118128
 20
230.102954
 30
0.0
 11
3049.118128
 21
236.087891
 31
0.0
  0
LINE
  5
45A
330
3CC
100
AcDbEntity
  8
0
  6
CONTINUOUS
 62
     7
100
AcDbLine
 10
3047.953128
 20
230.102954
 30
0.0
 11
3047.953128
 21
236.087891
 31
0.0
  0
LINE
  5
45B
330
3CC
100
AcDbEntity
  8
0
  6
CONTINUOUS
 62
     7
100
AcDbLine
 10
3046.788128
 20
230.102954
 30
0.0
 11
3046.788128
 21
236.087891
 31
0.0
  0
LINE
  5
45C
330
3CC
100
AcDbEntity
  8
0
  6
CONTINUOUS
 62
     7
100
AcDbLine
 10
3045.623128
 20
231.427891
 30
0.0
 11
3045.623128
 21
236.087891
 31
0.0
  0
LINE
  5
45D
330
3CC
100
AcDbEntity
  8
0
  6
CONTINUOUS
 62
     7
100
AcDbLine
 10
3044.458128
 20
231.427891
 30
0.0
 11
3044.458128
 21
237.252891
 31
0.0
  0
LINE
  5
45E
330
3CC
100
AcDbEntity
  8
0
  6
CONTINUOUS
 62
     7
100
AcDbLine
 10
3043.293128
 20
231.427891
 30
0.0
 11
3043.293128
 21
237.252891
 31
0.0
  0
LINE
  5
45F
330
3CC
100
AcDbEntity
  8
0
  6
CONTINUOUS
 62
     7
100
AcDbLine
 10
3042.128128
 20
231.427891
 30
0.0
 11
3042.128128
 21
237.252891
 31
0.0
  0
LINE
  5
460
330
3CC
100
AcDbEntity
  8
0
  6
CONTINUOUS
 62
     7
100
AcDbLine
 10
3040.963128
 20
231.427891
 30
0.0
 11
3040.963128
 21
237.252891
 31
0.0
  0
LINE
  5
461
330
3CC
100
AcDbEntity
  8
0
  6
CONTINUOUS
 62
     7
100
AcDbLine
 10
3039.798128
 20
231.427891
 30
0.0
 11
3039.798128
 21
237.252891
 31
0.0
  0
LINE
  5
462
330
3CC
100
AcDbEntity
  8
0
  6
CONTINUOUS
 62
     7
100
AcDbLine
 10
3038.633128
 20
231.427891
 30
0.0
 11
3038.633128
 21
238.417891
 31
0.0
  0
LINE
  5
463
330
3CC
100
AcDbEntity
  8
0
  6
CONTINUOUS
 62
     7
100
AcDbLine
 10
3037.468128
 20
232.592891
 30
0.0
 11
3037.468128
 21
239.582891
 31
0.0
  0
LINE
  5
464
330
3CC
100
AcDbEntity
  8
0
  6
CONTINUOUS
 62
     7
100
AcDbLine
 10
3036.303128
 20
233.757891
 30
0.0
 11
3036.303128
 21
239.582891
 31
0.0
  0
LINE
  5
465
330
3CC
100
AcDbEntity
  8
0
  6
CONTINUOUS
 62
     7
100
AcDbLine
 10
3035.138128
 20
233.757891
 30
0.0
 11
3035.138128
 21
239.582891
 31
0.0
  0
LINE
  5
466
330
3CC
100
AcDbEntity
  8
0
  6
CONTINUOUS
 62
     7
100
AcDbLine
 10
3033.973128
 20
233.757891
 30
0.0
 11
3033.973128
 21
248.902891
 31
0.0
  0
LINE
  5
467
330
3CC
100
AcDbEntity
  8
0
  6
CONTINUOUS
 62
     7
100
AcDbLine
 10
3032.808128
 20
234.922891
 30
0.0
 11
3032.808128
 21
248.902891
 31
0.0
  0
LINE
  5
468
330
3CC
100
AcDbEntity
  8
0
  6
CONTINUOUS
 62
     7
100
AcDbLine
 10
3031.643128
 20
236.087891
 30
0.0
 11
3031.643128
 21
272.202891
 31
0.0
  0
LINE
  5
469
330
3CC
100
AcDbEntity
  8
0
  6
CONTINUOUS
 62
     7
100
AcDbLine
 10
3030.478128
 20
236.087891
 30
0.0
 11
3030.478128
 21
271.037891
 31
0.0
  0
LINE
  5
46A
330
3CC
100
AcDbEntity
  8
0
  6
CONTINUOUS
 62
     7
100
AcDbLine
 10
3029.313128
 20
236.087891
 30
0.0
 11
3029.313128
 21
244.242891
 31
0.0
  0
LINE
  5
46B
330
3CC
100
AcDbEntity
  8
0
  6
CONTINUOUS
 62
     7
100
AcDbLine
 10
3028.148128
 20
238.417891
 30
0.0
 11
3028.148128
 21
244.242891
 31
0.0
  0
LINE
  5
46C
330
3CC
100
AcDbEntity
  8
0
  6
CONTINUOUS
 62
     7
100
AcDbLine
 10
3026.983128
 20
238.417891
 30
0.0
 11
3026.983128
 21
244.242891
 31
0.0
  0
LINE
  5
46D
330
3CC
100
AcDbEntity
  8
0
  6
CONTINUOUS
 62
     7
100
AcDbLine
 10
3025.818128
 20
239.582891
 30
0.0
 11
3025.818128
 21
244.242891
 31
0.0
  0
LINE
  5
46E
330
3CC
100
AcDbEntity
  8
0
  6
CONTINUOUS
 62
     7
100
AcDbLine
 10
3024.653128
 20
240.747891
 30
0.0
 11
3024.653128
 21
245.407891
 31
0.0
  0
LINE
  5
46F
330
3CC
100
AcDbEntity
  8
0
  6
CONTINUOUS
 62
     7
100
AcDbLine
 10
3023.488128
 20
241.912891
 30
0.0
 11
3023.488128
 21
246.572891
 31
0.0
  0
LINE
  5
470
330
3CC
100
AcDbEntity
  8
0
  6
CONTINUOUS
 62
     7
100
AcDbLine
 10
3022.323128
 20
243.077891
 30
0.0
 11
3022.323128
 21
247.737891
 31
0.0
  0
LINE
  5
471
330
3CC
100
AcDbEntity
  8
0
  6
CONTINUOUS
 62
     7
100
AcDbLine
 10
3021.158128
 20
243.077891
 30
0.0
 11
3021.158128
 21
248.902891
 31
0.0
  0
LINE
  5
472
330
3CC
100
AcDbEntity
  8
0
  6
CONTINUOUS
 62
     7
100
AcDbLine
 10
3019.993128
 20
243.077891
 30
0.0
 11
3019.993128
 21
251.232891
 31
0.0
  0
LINE
  5
473
330
3CC
100
AcDbEntity
  8
0
  6
CONTINUOUS
 62
     7
100
AcDbLine
 10
3018.828128
 20
244.242891
 30
0.0
 11
3018.828128
 21
251.232891
 31
0.0
  0
LINE
  5
474
330
3CC
100
AcDbEntity
  8
0
  6
CONTINUOUS
 62
     7
100
AcDbLine
 10
3017.663128
 20
245.407891
 30
0.0
 11
3017.663128
 21
252.397891
 31
0.0
  0
LINE
  5
475
330
3CC
100
AcDbEntity
  8
0
  6
CONTINUOUS
 62
     7
100
AcDbLine
 10
3016.498128
 20
247.737891
 30
0.0
 11
3016.498128
 21
253.562891
 31
0.0
  0
LINE
  5
476
330
3CC
100
AcDbEntity
  8
0
  6
CONTINUOUS
 62
     7
100
AcDbLine
 10
3015.333128
 20
247.737891
 30
0.0
 11
3015.333128
 21
248.902891
 31
0.0
  0
LINE
  5
477
330
3CC
100
AcDbEntity
  8
0
  6
CONTINUOUS
 62
     7
100
AcDbLine
 10
3014.168128
 20
251.232891
 30
0.0
 11
3014.168128
 21
258.222891
 31
0.0
  0
LINE
  5
478
330
3CC
100
AcDbEntity
  8
0
  6
CONTINUOUS
 62
     7
100
AcDbLine
 10
3013.003128
 20
252.397891
 30
0.0
 11
3013.003128
 21
261.717891
 31
0.0
  0
LINE
  5
479
330
3CC
100
AcDbEntity
  8
0
  6
CONTINUOUS
 62
     7
100
AcDbLine
 10
3011.838128
 20
253.562891
 30
0.0
 11
3011.838128
 21
262.882891
 31
0.0
  0
LINE
  5
47A
330
3CC
100
AcDbEntity
  8
0
  6
CONTINUOUS
 62
     7
100
AcDbLine
 10
3010.673128
 20
254.727891
 30
0.0
 11
3010.673128
 21
255.892891
 31
0.0
  0
LINE
  5
47B
330
3CC
100
AcDbEntity
  8
0
  6
CONTINUOUS
 62
     7
100
AcDbLine
 10
3009.508128
 20
258.222891
 30
0.0
 11
3009.508128
 21
265.212891
 31
0.0
  0
LINE
  5
47C
330
3CC
100
AcDbEntity
  8
0
  6
CONTINUOUS
 62
     7
100
AcDbLine
 10
3008.343128
 20
259.387891
 30
0.0
 11
3008.343128
 21
260.552891
 31
0.0
  0
LINE
  5
47D
330
3CC
100
AcDbEntity
  8
0
  6
CONTINUOUS
 62
     7
100
AcDbLine
 10
3007.178128
 20
262.882891
 30
0.0
 11
3007.178128
 21
272.202891
 31
0.0
  0
LINE
  5
47E
330
3CC
100
AcDbEntity
  8
0
  6
CONTINUOUS
 62
     7
100
AcDbLine
 10
3006.013128
 20
264.047891
 30
0.0
 11
3006.013128
 21
297.832891
 31
0.0
  0
LINE
  5
47F
330
3CC
100
AcDbEntity
  8
0
  6
CONTINUOUS
 62
     7
100
AcDbLine
 10
3004.848128
 20
266.377891
 30
0.0
 11
3004.848128
 21
292.007891
 31
0.0
  0
LINE
  5
480
330
3CC
100
AcDbEntity
  8
0
  6
CONTINUOUS
 62
     7
100
AcDbLine
 10
3003.683128
 20
266.377891
 30
0.0
 11
3003.683128
 21
267.542891
 31
0.0
  0
LINE
  5
481
330
3CC
100
AcDbEntity
  8
0
  6
CONTINUOUS
 62
     7
100
AcDbLine
 10
3008.343128
 20
290.842891
 30
0.0
 11
3008.343128
 21
302.492891
 31
0.0
  0
LINE
  5
482
330
3CC
100
AcDbEntity
  8
0
  6
CONTINUOUS
 62
     7
100
AcDbLine
 10
3009.508128
 20
294.337891
 30
0.0
 11
3009.508128
 21
303.657891
 31
0.0
  0
LINE
  5
483
330
3CC
100
AcDbEntity
  8
0
  6
CONTINUOUS
 62
     7
100
AcDbLine
 10
3010.673128
 20
300.162891
 30
0.0
 11
3010.673128
 21
307.152891
 31
0.0
  0
LINE
  5
484
330
3CC
100
AcDbEntity
  8
0
  6
CONTINUOUS
 62
     7
100
AcDbLine
 10
3011.838128
 20
301.327891
 30
0.0
 11
3011.838128
 21
308.317891
 31
0.0
  0
LINE
  5
485
330
3CC
100
AcDbEntity
  8
0
  6
CONTINUOUS
 62
     7
100
AcDbLine
 10
3013.003128
 20
304.822891
 30
0.0
 11
3013.003128
 21
309.482891
 31
0.0
  0
LINE
  5
486
330
3CC
100
AcDbEntity
  8
0
  6
CONTINUOUS
 62
     7
100
AcDbLine
 10
3014.168128
 20
305.987891
 30
0.0
 11
3014.168128
 21
310.647891
 31
0.0
  0
LINE
  5
487
330
3CC
100
AcDbEntity
  8
0
  6
CONTINUOUS
 62
     7
100
AcDbLine
 10
3015.333128
 20
308.317891
 30
0.0
 11
3015.333128
 21
314.142891
 31
0.0
  0
LINE
  5
488
330
3CC
100
AcDbEntity
  8
0
  6
CONTINUOUS
 62
     7
100
AcDbLine
 10
3016.498128
 20
310.647891
 30
0.0
 11
3016.498128
 21
315.307891
 31
0.0
  0
LINE
  5
489
330
3CC
100
AcDbEntity
  8
0
  6
CONTINUOUS
 62
     7
100
AcDbLine
 10
3017.663128
 20
311.812891
 30
0.0
 11
3017.663128
 21
316.472891
 31
0.0
  0
LINE
  5
48A
330
3CC
100
AcDbEntity
  8
0
  6
CONTINUOUS
 62
     7
100
AcDbLine
 10
3018.828128
 20
312.977891
 30
0.0
 11
3018.828128
 21
317.637891
 31
0.0
  0
LINE
  5
48B
330
3CC
100
AcDbEntity
  8
0
  6
CONTINUOUS
 62
     7
100
AcDbLine
 10
3019.993128
 20
314.142891
 30
0.0
 11
3019.993128
 21
318.802891
 31
0.0
  0
LINE
  5
48C
330
3CC
100
AcDbEntity
  8
0
  6
CONTINUOUS
 62
     7
100
AcDbLine
 10
3021.158128
 20
315.307891
 30
0.0
 11
3021.158128
 21
319.967891
 31
0.0
  0
LINE
  5
48D
330
3CC
100
AcDbEntity
  8
0
  6
CONTINUOUS
 62
     7
100
AcDbLine
 10
3022.323128
 20
316.472891
 30
0.0
 11
3022.323128
 21
321.132891
 31
0.0
  0
LINE
  5
48E
330
3CC
100
AcDbEntity
  8
0
  6
CONTINUOUS
 62
     7
100
AcDbLine
 10
3024.653128
 20
286.182891
 30
0.0
 11
3029.313128
 21
286.182891
 31
0.0
  0
LINE
  5
48F
330
3CC
100
AcDbEntity
  8
0
  6
CONTINUOUS
 62
     7
100
AcDbLine
 10
3024.653128
 20
285.017891
 30
0.0
 11
3028.148128
 21
285.017891
 31
0.0
  0
LINE
  5
490
330
3CC
100
AcDbEntity
  8
0
  6
CONTINUOUS
 62
     7
100
AcDbLine
 10
3024.653128
 20
283.852891
 30
0.0
 11
3028.148128
 21
283.852891
 31
0.0
  0
LINE
  5
491
330
3CC
100
AcDbEntity
  8
0
  6
CONTINUOUS
 62
     7
100
AcDbLine
 10
3024.653128
 20
282.687891
 30
0.0
 11
3025.818128
 21
282.687891
 31
0.0
  0
LINE
  5
492
330
3CC
100
AcDbEntity
  8
0
  6
CONTINUOUS
 62
     7
100
AcDbLine
 10
3023.488128
 20
317.637891
 30
0.0
 11
3023.488128
 21
321.132891
 31
0.0
  0
LINE
  5
493
330
3CC
100
AcDbEntity
  8
0
  6
CONTINUOUS
 62
     7
100
AcDbLine
 10
3042.128128
 20
281.522891
 30
0.0
 11
3043.293128
 21
281.522891
 31
0.0
  0
LINE
  5
494
330
3CC
100
AcDbEntity
  8
0
  6
CONTINUOUS
 62
     7
100
AcDbLine
 10
3025.818128
 20
287.347891
 30
0.0
 11
3030.478128
 21
287.347891
 31
0.0
  0
LINE
  5
495
330
3CC
100
AcDbEntity
  8
0
  6
CONTINUOUS
 62
     7
100
AcDbLine
 10
3024.653128
 20
317.637891
 30
0.0
 11
3024.653128
 21
323.462891
 31
0.0
  0
LINE
  5
496
330
3CC
100
AcDbEntity
  8
0
  6
CONTINUOUS
 62
     7
100
AcDbLine
 10
3024.653128
 20
282.687891
 30
0.0
 11
3024.653128
 21
283.852891
 31
0.0
  0
LINE
  5
497
330
3CC
100
AcDbEntity
  8
0
  6
CONTINUOUS
 62
     7
100
AcDbLine
 10
3026.983128
 20
288.512891
 30
0.0
 11
3030.478128
 21
288.512891
 31
0.0
  0
LINE
  5
498
330
3CC
100
AcDbEntity
  8
0
  6
CONTINUOUS
 62
     7
100
AcDbLine
 10
3026.983128
 20
289.677891
 30
0.0
 11
3030.478128
 21
289.677891
 31
0.0
  0
LINE
  5
499
330
3CC
100
AcDbEntity
  8
0
  6
CONTINUOUS
 62
     7
100
AcDbLine
 10
3026.983128
 20
290.842891
 30
0.0
 11
3031.643128
 21
290.842891
 31
0.0
  0
LINE
  5
49A
330
3CC
100
AcDbEntity
  8
0
  6
CONTINUOUS
 62
     7
100
AcDbLine
 10
3028.148128
 20
292.007891
 30
0.0
 11
3032.808128
 21
292.007891
 31
0.0
  0
LINE
  5
49B
330
3CC
100
AcDbEntity
  8
0
  6
CONTINUOUS
 62
     7
100
AcDbLine
 10
3025.818128
 20
307.152891
 30
0.0
 11
3025.818128
 21
309.482891
 31
0.0
  0
LINE
  5
49C
330
3CC
100
AcDbEntity
  8
0
  6
CONTINUOUS
 62
     7
100
AcDbLine
 10
3029.313128
 20
293.172891
 30
0.0
 11
3032.808128
 21
293.172891
 31
0.0
  0
LINE
  5
49D
330
3CC
100
AcDbEntity
  8
0
  6
CONTINUOUS
 62
     7
100
AcDbLine
 10
3029.313128
 20
294.337891
 30
0.0
 11
3032.808128
 21
294.337891
 31
0.0
  0
LINE
  5
49E
330
3CC
100
AcDbEntity
  8
0
  6
CONTINUOUS
 62
     7
100
AcDbLine
 10
3026.983128
 20
305.987891
 30
0.0
 11
3026.983128
 21
309.482891
 31
0.0
  0
LINE
  5
49F
330
3CC
100
AcDbEntity
  8
0
  6
CONTINUOUS
 62
     7
100
AcDbLine
 10
3029.313128
 20
295.502891
 30
0.0
 11
3030.478128
 21
295.502891
 31
0.0
  0
LINE
  5
4A0
330
3CC
100
AcDbEntity
  8
0
  6
CONTINUOUS
 62
     7
100
AcDbLine
 10
3031.643128
 20
296.667891
 30
0.0
 11
3032.808128
 21
296.667891
 31
0.0
  0
LINE
  5
4A1
330
3CC
100
AcDbEntity
  8
0
  6
CONTINUOUS
 62
     7
100
AcDbLine
 10
3031.643128
 20
297.832891
 30
0.0
 11
3032.808128
 21
297.832891
 31
0.0
  0
LINE
  5
4A2
330
3CC
100
AcDbEntity
  8
0
  6
CONTINUOUS
 62
     7
100
AcDbLine
 10
3028.148128
 20
304.822891
 30
0.0
 11
3028.148128
 21
310.647891
 31
0.0
  0
LINE
  5
4A3
330
3CC
100
AcDbEntity
  8
0
  6
CONTINUOUS
 62
     7
100
AcDbLine
 10
3029.313128
 20
304.822891
 30
0.0
 11
3029.313128
 21
311.812891
 31
0.0
  0
LINE
  5
4A4
330
3CC
100
AcDbEntity
  8
0
  6
CONTINUOUS
 62
     7
100
AcDbLine
 10
3039.798128
 20
298.997891
 30
0.0
 11
3049.118128
 21
298.997891
 31
0.0
  0
LINE
  5
4A5
330
3CC
100
AcDbEntity
  8
0
  6
CONTINUOUS
 62
     7
100
AcDbLine
 10
3040.963128
 20
300.162891
 30
0.0
 11
3050.283128
 21
300.162891
 31
0.0
  0
LINE
  5
4A6
330
3CC
100
AcDbEntity
  8
0
  6
CONTINUOUS
 62
     7
100
AcDbLine
 10
3044.458128
 20
301.327891
 30
0.0
 11
3045.623128
 21
301.327891
 31
0.0
  0
LINE
  5
4A7
330
3CC
100
AcDbEntity
  8
0
  6
CONTINUOUS
 62
     7
100
AcDbLine
 10
3047.953128
 20
302.492891
 30
0.0
 11
3049.118128
 21
302.492891
 31
0.0
  0
LINE
  5
4A8
330
3CC
100
AcDbEntity
  8
0
  6
CONTINUOUS
 62
     7
100
AcDbLine
 10
3057.273128
 20
303.657891
 30
0.0
 11
3063.098128
 21
303.657891
 31
0.0
  0
LINE
  5
4A9
330
3CC
100
AcDbEntity
  8
0
  6
CONTINUOUS
 62
     7
100
AcDbLine
 10
3030.478128
 20
305.987891
 30
0.0
 11
3030.478128
 21
311.812891
 31
0.0
  0
LINE
  5
4AA
330
3CC
100
AcDbEntity
  8
0
  6
CONTINUOUS
 62
     7
100
AcDbLine
 10
3031.643128
 20
305.987891
 30
0.0
 11
3031.643128
 21
310.647891
 31
0.0
  0
LINE
  5
4AB
330
3CC
100
AcDbEntity
  8
0
  6
CONTINUOUS
 62
     7
100
AcDbLine
 10
3028.148128
 20
304.822891
 30
0.0
 11
3029.313128
 21
304.822891
 31
0.0
  0
LINE
  5
4AC
330
3CC
100
AcDbEntity
  8
0
  6
CONTINUOUS
 62
     7
100
AcDbLine
 10
3026.983128
 20
305.987891
 30
0.0
 11
3032.808128
 21
305.987891
 31
0.0
  0
LINE
  5
4AD
330
3CC
100
AcDbEntity
  8
0
  6
CONTINUOUS
 62
     7
100
AcDbLine
 10
3025.818128
 20
307.152891
 30
0.0
 11
3035.138128
 21
307.152891
 31
0.0
  0
LINE
  5
4AE
330
3CC
100
AcDbEntity
  8
0
  6
CONTINUOUS
 62
     7
100
AcDbLine
 10
3025.818128
 20
308.317891
 30
0.0
 11
3035.138128
 21
308.317891
 31
0.0
  0
LINE
  5
4AF
330
3CC
100
AcDbEntity
  8
0
  6
CONTINUOUS
 62
     7
100
AcDbLine
 10
3025.818128
 20
309.482891
 30
0.0
 11
3035.138128
 21
309.482891
 31
0.0
  0
LINE
  5
4B0
330
3CC
100
AcDbEntity
  8
0
  6
CONTINUOUS
 62
     7
100
AcDbLine
 10
3028.148128
 20
310.647891
 30
0.0
 11
3031.643128
 21
310.647891
 31
0.0
  0
LINE
  5
4B1
330
3CC
100
AcDbEntity
  8
0
  6
CONTINUOUS
 62
     7
100
AcDbLine
 10
3025.818128
 20
317.637891
 30
0.0
 11
3025.818128
 21
323.462891
 31
0.0
  0
LINE
  5
4B2
330
3CC
100
AcDbEntity
  8
0
  6
CONTINUOUS
 62
     7
100
AcDbLine
 10
3029.313128
 20
311.812891
 30
0.0
 11
3030.478128
 21
311.812891
 31
0.0
  0
LINE
  5
4B3
330
3CC
100
AcDbEntity
  8
0
  6
CONTINUOUS
 62
     7
100
AcDbLine
 10
3026.983128
 20
318.802891
 30
0.0
 11
3026.983128
 21
323.462891
 31
0.0
  0
LINE
  5
4B4
330
3CC
100
AcDbEntity
  8
0
  6
CONTINUOUS
 62
     7
100
AcDbLine
 10
3040.963128
 20
312.977891
 30
0.0
 11
3044.458128
 21
312.977891
 31
0.0
  0
LINE
  5
4B5
330
3CC
100
AcDbEntity
  8
0
  6
CONTINUOUS
 62
     7
100
AcDbLine
 10
3040.963128
 20
314.142891
 30
0.0
 11
3045.623128
 21
314.142891
 31
0.0
  0
LINE
  5
4B6
330
3CC
100
AcDbEntity
  8
0
  6
CONTINUOUS
 62
     7
100
AcDbLine
 10
3040.963128
 20
315.307891
 30
0.0
 11
3046.788128
 21
315.307891
 31
0.0
  0
LINE
  5
4B7
330
3CC
100
AcDbEntity
  8
0
  6
CONTINUOUS
 62
     7
100
AcDbLine
 10
3030.478128
 20
316.472891
 30
0.0
 11
3031.643128
 21
316.472891
 31
0.0
  0
LINE
  5
4B8
330
3CC
100
AcDbEntity
  8
0
  6
CONTINUOUS
 62
     7
100
AcDbLine
 10
3028.148128
 20
318.802891
 30
0.0
 11
3028.148128
 21
324.627891
 31
0.0
  0
LINE
  5
4B9
330
3CC
100
AcDbEntity
  8
0
  6
CONTINUOUS
 62
     7
100
AcDbLine
 10
3029.313128
 20
317.637891
 30
0.0
 11
3029.313128
 21
325.792891
 31
0.0
  0
LINE
  5
4BA
330
3CC
100
AcDbEntity
  8
0
  6
CONTINUOUS
 62
     7
100
AcDbLine
 10
3030.478128
 20
316.472891
 30
0.0
 11
3030.478128
 21
325.792891
 31
0.0
  0
LINE
  5
4BB
330
3CC
100
AcDbEntity
  8
0
  6
CONTINUOUS
 62
     7
100
AcDbLine
 10
3031.643128
 20
316.472891
 30
0.0
 11
3031.643128
 21
325.792891
 31
0.0
  0
LINE
  5
4BC
330
3CC
100
AcDbEntity
  8
0
  6
CONTINUOUS
 62
     7
100
AcDbLine
 10
3029.313128
 20
317.637891
 30
0.0
 11
3035.138128
 21
317.637891
 31
0.0
  0
LINE
  5
4BD
330
3CC
100
AcDbEntity
  8
0
  6
CONTINUOUS
 62
     7
100
AcDbLine
 10
3040.963128
 20
316.472891
 30
0.0
 11
3046.788128
 21
316.472891
 31
0.0
  0
LINE
  5
4BE
330
3CC
100
AcDbEntity
  8
0
  6
CONTINUOUS
 62
     7
100
AcDbLine
 10
3049.118128
 20
311.812891
 30
0.0
 11
3050.283128
 21
311.812891
 31
0.0
  0
LINE
  5
4BF
330
3CC
100
AcDbEntity
  8
0
  6
CONTINUOUS
 62
     7
100
AcDbLine
 10
3032.808128
 20
316.472891
 30
0.0
 11
3032.808128
 21
326.957891
 31
0.0
  0
LINE
  5
4C0
330
3CC
100
AcDbEntity
  8
0
  6
CONTINUOUS
 62
     7
100
AcDbLine
 10
3033.973128
 20
316.472891
 30
0.0
 11
3033.973128
 21
322.297891
 31
0.0
  0
LINE
  5
4C1
330
3CC
100
AcDbEntity
  8
0
  6
CONTINUOUS
 62
     7
100
AcDbLine
 10
3035.138128
 20
317.637891
 30
0.0
 11
3035.138128
 21
318.802891
 31
0.0
  0
LINE
  5
4C2
330
3CC
100
AcDbEntity
  8
0
  6
CONTINUOUS
 62
     7
100
AcDbLine
 10
3036.303128
 20
324.627891
 30
0.0
 11
3036.303128
 21
328.122891
 31
0.0
  0
LINE
  5
4C3
330
3CC
100
AcDbEntity
  8
0
  6
CONTINUOUS
 62
     7
100
AcDbLine
 10
3033.973128
 20
305.987891
 30
0.0
 11
3033.973128
 21
310.647891
 31
0.0
  0
LINE
  5
4C4
330
3CC
100
AcDbEntity
  8
0
  6
CONTINUOUS
 62
     7
100
AcDbLine
 10
3035.138128
 20
305.987891
 30
0.0
 11
3035.138128
 21
307.152891
 31
0.0
  0
LINE
  5
4C5
330
3CC
100
AcDbEntity
  8
0
  6
CONTINUOUS
 62
     7
100
AcDbLine
 10
3032.808128
 20
305.987891
 30
0.0
 11
3032.808128
 21
310.647891
 31
0.0
  0
LINE
  5
4C6
330
3CC
100
AcDbEntity
  8
0
  6
CONTINUOUS
 62
     7
100
AcDbLine
 10
3038.633128
 20
297.832891
 30
0.0
 11
3046.788128
 21
297.832891
 31
0.0
  0
LINE
  5
4C7
330
3CC
100
AcDbEntity
  8
0
  6
CONTINUOUS
 62
     7
100
AcDbLine
 10
3038.633128
 20
296.667891
 30
0.0
 11
3039.798128
 21
296.667891
 31
0.0
  0
LINE
  5
4C8
330
3CC
100
AcDbEntity
  8
0
  6
CONTINUOUS
 62
     7
100
AcDbLine
 10
3037.468128
 20
324.627891
 30
0.0
 11
3037.468128
 21
329.287891
 31
0.0
  0
LINE
  5
4C9
330
3CC
100
AcDbEntity
  8
0
  6
CONTINUOUS
 62
     7
100
AcDbLine
 10
3042.128128
 20
317.637891
 30
0.0
 11
3053.778128
 21
317.637891
 31
0.0
  0
LINE
  5
4CA
330
3CC
100
AcDbEntity
  8
0
  6
CONTINUOUS
 62
     7
100
AcDbLine
 10
3043.293128
 20
318.802891
 30
0.0
 11
3077.078128
 21
318.802891
 31
0.0
  0
LINE
  5
4CB
330
3CC
100
AcDbEntity
  8
0
  6
CONTINUOUS
 62
     7
100
AcDbLine
 10
3044.458128
 20
319.967891
 30
0.0
 11
3045.623128
 21
319.967891
 31
0.0
  0
LINE
  5
4CC
330
3CC
100
AcDbEntity
  8
0
  6
CONTINUOUS
 62
     7
100
AcDbLine
 10
3038.633128
 20
324.627891
 30
0.0
 11
3038.633128
 21
330.452891
 31
0.0
  0
LINE
  5
4CD
330
3CC
100
AcDbEntity
  8
0
  6
CONTINUOUS
 62
     7
100
AcDbLine
 10
3039.798128
 20
324.627891
 30
0.0
 11
3039.798128
 21
330.452891
 31
0.0
  0
LINE
  5
4CE
330
3CC
100
AcDbEntity
  8
0
  6
CONTINUOUS
 62
     7
100
AcDbLine
 10
3052.613128
 20
321.132891
 30
0.0
 11
3053.778128
 21
321.132891
 31
0.0
  0
LINE
  5
4CF
330
3CC
100
AcDbEntity
  8
0
  6
CONTINUOUS
 62
     7
100
AcDbLine
 10
3056.108128
 20
322.297891
 30
0.0
 11
3063.098128
 21
322.297891
 31
0.0
  0
LINE
  5
4D0
330
3CC
100
AcDbEntity
  8
0
  6
CONTINUOUS
 62
     7
100
AcDbLine
 10
3057.273128
 20
323.462891
 30
0.0
 11
3060.768128
 21
323.462891
 31
0.0
  0
LINE
  5
4D1
330
3CC
100
AcDbEntity
  8
0
  6
CONTINUOUS
 62
     7
100
AcDbLine
 10
3035.138128
 20
324.627891
 30
0.0
 11
3035.138128
 21
328.122891
 31
0.0
  0
LINE
  5
4D2
330
3CC
100
AcDbEntity
  8
0
  6
CONTINUOUS
 62
     7
100
AcDbLine
 10
3040.963128
 20
325.792891
 30
0.0
 11
3040.963128
 21
330.452891
 31
0.0
  0
LINE
  5
4D3
330
3CC
100
AcDbEntity
  8
0
  6
CONTINUOUS
 62
     7
100
AcDbLine
 10
3042.128128
 20
326.957891
 30
0.0
 11
3042.128128
 21
330.452891
 31
0.0
  0
LINE
  5
4D4
330
3CC
100
AcDbEntity
  8
0
  6
CONTINUOUS
 62
     7
100
AcDbLine
 10
3043.293128
 20
326.957891
 30
0.0
 11
3043.293128
 21
330.452891
 31
0.0
  0
LINE
  5
4D5
330
3CC
100
AcDbEntity
  8
0
  6
CONTINUOUS
 62
     7
100
AcDbLine
 10
3044.458128
 20
326.957891
 30
0.0
 11
3044.458128
 21
331.617891
 31
0.0
  0
LINE
  5
4D6
330
3CC
100
AcDbEntity
  8
0
  6
CONTINUOUS
 62
     7
100
AcDbLine
 10
3045.623128
 20
326.957891
 30
0.0
 11
3045.623128
 21
332.782891
 31
0.0
  0
LINE
  5
4D7
330
3CC
100
AcDbEntity
  8
0
  6
CONTINUOUS
 62
     7
100
AcDbLine
 10
3046.788128
 20
326.957891
 30
0.0
 11
3046.788128
 21
332.782891
 31
0.0
  0
LINE
  5
4D8
330
3CC
100
AcDbEntity
  8
0
  6
CONTINUOUS
 62
     7
100
AcDbLine
 10
3066.593128
 20
324.627891
 30
0.0
 11
3067.758128
 21
324.627891
 31
0.0
  0
LINE
  5
4D9
330
3CC
100
AcDbEntity
  8
0
  6
CONTINUOUS
 62
     7
100
AcDbLine
 10
3066.593128
 20
325.792891
 30
0.0
 11
3077.078128
 21
325.792891
 31
0.0
  0
LINE
  5
4DA
330
3CC
100
AcDbEntity
  8
0
  6
CONTINUOUS
 62
     7
100
AcDbLine
 10
3047.953128
 20
326.957891
 30
0.0
 11
3047.953128
 21
332.782891
 31
0.0
  0
LINE
  5
4DB
330
3CC
100
AcDbEntity
  8
0
  6
CONTINUOUS
 62
     7
100
AcDbLine
 10
3049.118128
 20
326.957891
 30
0.0
 11
3049.118128
 21
332.782891
 31
0.0
  0
LINE
  5
4DC
330
3CC
100
AcDbEntity
  8
0
  6
CONTINUOUS
 62
     7
100
AcDbLine
 10
3050.283128
 20
328.122891
 30
0.0
 11
3050.283128
 21
332.782891
 31
0.0
  0
LINE
  5
4DD
330
3CC
100
AcDbEntity
  8
0
  6
CONTINUOUS
 62
     7
100
AcDbLine
 10
3051.448128
 20
328.122891
 30
0.0
 11
3051.448128
 21
332.782891
 31
0.0
  0
LINE
  5
4DE
330
3CC
100
AcDbEntity
  8
0
  6
CONTINUOUS
 62
     7
100
AcDbLine
 10
3057.273128
 20
326.957891
 30
0.0
 11
3058.438128
 21
326.957891
 31
0.0
  0
LINE
  5
4DF
330
3CC
100
AcDbEntity
  8
0
  6
CONTINUOUS
 62
     7
100
AcDbLine
 10
3052.613128
 20
328.122891
 30
0.0
 11
3052.613128
 21
332.782891
 31
0.0
  0
LINE
  5
4E0
330
3CC
100
AcDbEntity
  8
0
  6
CONTINUOUS
 62
     7
100
AcDbLine
 10
3053.778128
 20
328.122891
 30
0.0
 11
3053.778128
 21
332.782891
 31
0.0
  0
LINE
  5
4E1
330
3CC
100
AcDbEntity
  8
0
  6
CONTINUOUS
 62
     7
100
AcDbLine
 10
3054.943128
 20
328.122891
 30
0.0
 11
3054.943128
 21
332.782891
 31
0.0
  0
LINE
  5
4E2
330
3CC
100
AcDbEntity
  8
0
  6
CONTINUOUS
 62
     7
100
AcDbLine
 10
3056.108128
 20
328.122891
 30
0.0
 11
3056.108128
 21
332.782891
 31
0.0
  0
LINE
  5
4E3
330
3CC
100
AcDbEntity
  8
0
  6
CONTINUOUS
 62
     7
100
AcDbLine
 10
3057.273128
 20
326.957891
 30
0.0
 11
3057.273128
 21
332.782891
 31
0.0
  0
LINE
  5
4E4
330
3CC
100
AcDbEntity
  8
0
  6
CONTINUOUS
 62
     7
100
AcDbLine
 10
3058.438128
 20
326.957891
 30
0.0
 11
3058.438128
 21
332.782891
 31
0.0
  0
LINE
  5
4E5
330
3CC
100
AcDbEntity
  8
0
  6
CONTINUOUS
 62
     7
100
AcDbLine
 10
3059.603128
 20
326.957891
 30
0.0
 11
3059.603128
 21
332.782891
 31
0.0
  0
LINE
  5
4E6
330
3CC
100
AcDbEntity
  8
0
  6
CONTINUOUS
 62
     7
100
AcDbLine
 10
3060.768128
 20
326.957891
 30
0.0
 11
3060.768128
 21
332.782891
 31
0.0
  0
LINE
  5
4E7
330
3CC
100
AcDbEntity
  8
0
  6
CONTINUOUS
 62
     7
100
AcDbLine
 10
3061.933128
 20
326.957891
 30
0.0
 11
3061.933128
 21
331.617891
 31
0.0
  0
LINE
  5
4E8
330
3CC
100
AcDbEntity
  8
0
  6
CONTINUOUS
 62
     7
100
AcDbLine
 10
3063.098128
 20
326.957891
 30
0.0
 11
3063.098128
 21
331.617891
 31
0.0
  0
LINE
  5
4E9
330
3CC
100
AcDbEntity
  8
0
  6
CONTINUOUS
 62
     7
100
AcDbLine
 10
3064.263128
 20
326.957891
 30
0.0
 11
3064.263128
 21
331.617891
 31
0.0
  0
LINE
  5
4EA
330
3CC
100
AcDbEntity
  8
0
  6
CONTINUOUS
 62
     7
100
AcDbLine
 10
3065.428128
 20
326.957891
 30
0.0
 11
3065.428128
 21
330.452891
 31
0.0
  0
LINE
  5
4EB
330
3CC
100
AcDbEntity
  8
0
  6
CONTINUOUS
 62
     7
100
AcDbLine
 10
3066.593128
 20
324.627891
 30
0.0
 11
3066.593128
 21
325.792891
 31
0.0
  0
LINE
  5
4EC
330
3CC
100
AcDbEntity
  8
0
  6
CONTINUOUS
 62
     7
100
AcDbLine
 10
3070.088128
 20
323.462891
 30
0.0
 11
3071.253128
 21
323.462891
 31
0.0
  0
LINE
  5
4ED
330
3CC
100
AcDbEntity
  8
0
  6
CONTINUOUS
 62
     7
100
AcDbLine
 10
3057.273128
 20
310.647891
 30
0.0
 11
3060.768128
 21
310.647891
 31
0.0
  0
LINE
  5
4EE
330
3CC
100
AcDbEntity
  8
0
  6
CONTINUOUS
 62
     7
100
AcDbLine
 10
3051.448128
 20
319.967891
 30
0.0
 11
3066.593128
 21
319.967891
 31
0.0
  0
LINE
  5
4EF
330
3CC
100
AcDbEntity
  8
0
  6
CONTINUOUS
 62
     7
100
AcDbLine
 10
3035.138128
 20
319.967891
 30
0.0
 11
3035.138128
 21
321.132891
 31
0.0
  0
LINE
  5
4F0
330
3CC
100
AcDbEntity
  8
0
  6
CONTINUOUS
 62
     7
100
AcDbLine
 10
3032.808128
 20
316.472891
 30
0.0
 11
3033.973128
 21
316.472891
 31
0.0
  0
LINE
  5
4F1
330
3CC
100
AcDbEntity
  8
0
  6
CONTINUOUS
 62
     7
100
AcDbLine
 10
3028.148128
 20
318.802891
 30
0.0
 11
3035.138128
 21
318.802891
 31
0.0
  0
LINE
  5
4F2
330
3CC
100
AcDbEntity
  8
0
  6
CONTINUOUS
 62
     7
100
AcDbLine
 10
3038.633128
 20
324.627891
 30
0.0
 11
3039.798128
 21
324.627891
 31
0.0
  0
LINE
  5
4F3
330
3CC
100
AcDbEntity
  8
0
  6
CONTINUOUS
 62
     7
100
AcDbLine
 10
3047.953128
 20
326.957891
 30
0.0
 11
3049.118128
 21
326.957891
 31
0.0
  0
LINE
  5
4F4
330
3CC
100
AcDbEntity
  8
0
  6
CONTINUOUS
 62
     7
100
AcDbLine
 10
3059.603128
 20
326.957891
 30
0.0
 11
3075.913128
 21
326.957891
 31
0.0
  0
LINE
  5
4F5
330
3CC
100
AcDbEntity
  8
0
  6
CONTINUOUS
 62
     7
100
AcDbLine
 10
3066.593128
 20
326.957891
 30
0.0
 11
3066.593128
 21
330.452891
 31
0.0
  0
LINE
  5
4F6
330
3CC
100
AcDbEntity
  8
0
  6
CONTINUOUS
 62
     7
100
AcDbLine
 10
3032.808128
 20
292.007891
 30
0.0
 11
3032.808128
 21
293.172891
 31
0.0
  0
LINE
  5
4F7
330
3CC
100
AcDbEntity
  8
0
  6
CONTINUOUS
 62
     7
100
AcDbLine
 10
3031.643128
 20
290.842891
 30
0.0
 11
3031.643128
 21
295.502891
 31
0.0
  0
LINE
  5
4F8
330
3CC
100
AcDbEntity
  8
0
  6
CONTINUOUS
 62
     7
100
AcDbLine
 10
3030.478128
 20
287.347891
 30
0.0
 11
3030.478128
 21
288.512891
 31
0.0
  0
LINE
  5
4F9
330
3CC
100
AcDbEntity
  8
0
  6
CONTINUOUS
 62
     7
100
AcDbLine
 10
3029.313128
 20
286.182891
 30
0.0
 11
3029.313128
 21
293.172891
 31
0.0
  0
LINE
  5
4FA
330
3CC
100
AcDbEntity
  8
0
  6
CONTINUOUS
 62
     7
100
AcDbLine
 10
3028.148128
 20
282.687891
 30
0.0
 11
3028.148128
 21
283.852891
 31
0.0
  0
LINE
  5
4FB
330
3CC
100
AcDbEntity
  8
0
  6
CONTINUOUS
 62
     7
100
AcDbLine
 10
3026.983128
 20
282.687891
 30
0.0
 11
3026.983128
 21
288.512891
 31
0.0
  0
LINE
  5
4FC
330
3CC
100
AcDbEntity
  8
0
  6
CONTINUOUS
 62
     7
100
AcDbLine
 10
3025.818128
 20
282.687891
 30
0.0
 11
3025.818128
 21
287.347891
 31
0.0
  0
LINE
  5
4FD
330
3CC
100
AcDbEntity
  8
0
  6
CONTINUOUS
 62
     7
100
AcDbLine
 10
3029.313128
 20
245.407891
 30
0.0
 11
3088.728128
 21
245.407891
 31
0.0
  0
LINE
  5
4FE
330
3CC
100
AcDbEntity
  8
0
  6
CONTINUOUS
 62
     7
100
AcDbLine
 10
3026.983128
 20
247.737891
 30
0.0
 11
3026.983128
 21
248.902891
 31
0.0
  0
LINE
  5
4FF
330
3CC
100
AcDbEntity
  8
0
  6
CONTINUOUS
 62
     7
100
AcDbLine
 10
3028.148128
 20
247.737891
 30
0.0
 11
3028.148128
 21
264.047891
 31
0.0
  0
LINE
  5
500
330
3CC
100
AcDbEntity
  8
0
  6
CONTINUOUS
 62
     7
100
AcDbLine
 10
3029.313128
 20
246.572891
 30
0.0
 11
3089.893128
 21
246.572891
 31
0.0
  0
LINE
  5
501
330
3CC
100
AcDbEntity
  8
0
  6
CONTINUOUS
 62
     7
100
AcDbLine
 10
3026.983128
 20
247.737891
 30
0.0
 11
3036.303128
 21
247.737891
 31
0.0
  0
LINE
  5
502
330
3CC
100
AcDbEntity
  8
0
  6
CONTINUOUS
 62
     7
100
AcDbLine
 10
3026.983128
 20
248.902891
 30
0.0
 11
3032.808128
 21
248.902891
 31
0.0
  0
LINE
  5
503
330
3CC
100
AcDbEntity
  8
0
  6
CONTINUOUS
 62
     7
100
AcDbLine
 10
3026.983128
 20
250.067891
 30
0.0
 11
3032.808128
 21
250.067891
 31
0.0
  0
LINE
  5
504
330
3CC
100
AcDbEntity
  8
0
  6
CONTINUOUS
 62
     7
100
AcDbLine
 10
3026.983128
 20
251.232891
 30
0.0
 11
3032.808128
 21
251.232891
 31
0.0
  0
LINE
  5
505
330
3CC
100
AcDbEntity
  8
0
  6
CONTINUOUS
 62
     7
100
AcDbLine
 10
3026.983128
 20
252.397891
 30
0.0
 11
3032.808128
 21
252.397891
 31
0.0
  0
LINE
  5
506
330
3CC
100
AcDbEntity
  8
0
  6
CONTINUOUS
 62
     7
100
AcDbLine
 10
3026.983128
 20
253.562891
 30
0.0
 11
3032.808128
 21
253.562891
 31
0.0
  0
LINE
  5
507
330
3CC
100
AcDbEntity
  8
0
  6
CONTINUOUS
 62
     7
100
AcDbLine
 10
3049.118128
 20
243.077891
 30
0.0
 11
3049.118128
 21
250.067891
 31
0.0
  0
LINE
  5
508
330
3CC
100
AcDbEntity
  8
0
  6
CONTINUOUS
 62
     7
100
AcDbLine
 10
3050.283128
 20
243.077891
 30
0.0
 11
3050.283128
 21
251.232891
 31
0.0
  0
LINE
  5
509
330
3CC
100
AcDbEntity
  8
0
  6
CONTINUOUS
 62
     7
100
AcDbLine
 10
3047.953128
 20
243.077891
 30
0.0
 11
3047.953128
 21
248.902891
 31
0.0
  0
LINE
  5
50A
330
3CC
100
AcDbEntity
  8
0
  6
CONTINUOUS
 62
     7
100
AcDbLine
 10
3046.788128
 20
243.077891
 30
0.0
 11
3046.788128
 21
248.902891
 31
0.0
  0
LINE
  5
50B
330
3CC
100
AcDbEntity
  8
0
  6
CONTINUOUS
 62
     7
100
AcDbLine
 10
3045.623128
 20
243.077891
 30
0.0
 11
3045.623128
 21
248.902891
 31
0.0
  0
LINE
  5
50C
330
3CC
100
AcDbEntity
  8
0
  6
CONTINUOUS
 62
     7
100
AcDbLine
 10
3044.458128
 20
243.077891
 30
0.0
 11
3044.458128
 21
247.737891
 31
0.0
  0
LINE
  5
50D
330
3CC
100
AcDbEntity
  8
0
  6
CONTINUOUS
 62
     7
100
AcDbLine
 10
3043.293128
 20
243.077891
 30
0.0
 11
3043.293128
 21
247.737891
 31
0.0
  0
LINE
  5
50E
330
3CC
100
AcDbEntity
  8
0
  6
CONTINUOUS
 62
     7
100
AcDbLine
 10
3042.128128
 20
243.077891
 30
0.0
 11
3042.128128
 21
248.902891
 31
0.0
  0
LINE
  5
50F
330
3CC
100
AcDbEntity
  8
0
  6
CONTINUOUS
 62
     7
100
AcDbLine
 10
3040.963128
 20
241.912891
 30
0.0
 11
3040.963128
 21
248.902891
 31
0.0
  0
LINE
  5
510
330
3CC
100
AcDbEntity
  8
0
  6
CONTINUOUS
 62
     7
100
AcDbLine
 10
3039.798128
 20
240.747891
 30
0.0
 11
3039.798128
 21
247.737891
 31
0.0
  0
LINE
  5
511
330
3CC
100
AcDbEntity
  8
0
  6
CONTINUOUS
 62
     7
100
AcDbLine
 10
3038.633128
 20
240.747891
 30
0.0
 11
3038.633128
 21
246.572891
 31
0.0
  0
LINE
  5
512
330
3CC
100
AcDbEntity
  8
0
  6
CONTINUOUS
 62
     7
100
AcDbLine
 10
3068.923128
 20
239.582891
 30
0.0
 11
3070.088128
 21
239.582891
 31
0.0
  0
LINE
  5
513
330
3CC
100
AcDbEntity
  8
0
  6
CONTINUOUS
 62
     7
100
AcDbLine
 10
3067.758128
 20
238.417891
 30
0.0
 11
3079.408128
 21
238.417891
 31
0.0
  0
LINE
  5
514
330
3CC
100
AcDbEntity
  8
0
  6
CONTINUOUS
 62
     7
100
AcDbLine
 10
3061.933128
 20
237.252891
 30
0.0
 11
3063.098128
 21
237.252891
 31
0.0
  0
LINE
  5
515
330
3CC
100
AcDbEntity
  8
0
  6
CONTINUOUS
 62
     7
100
AcDbLine
 10
3051.448128
 20
243.077891
 30
0.0
 11
3051.448128
 21
251.232891
 31
0.0
  0
LINE
  5
516
330
3CC
100
AcDbEntity
  8
0
  6
CONTINUOUS
 62
     7
100
AcDbLine
 10
3052.613128
 20
244.242891
 30
0.0
 11
3052.613128
 21
251.232891
 31
0.0
  0
LINE
  5
517
330
3CC
100
AcDbEntity
  8
0
  6
CONTINUOUS
 62
     7
100
AcDbLine
 10
3073.583128
 20
240.747891
 30
0.0
 11
3084.068128
 21
240.747891
 31
0.0
  0
LINE
  5
518
330
3CC
100
AcDbEntity
  8
0
  6
CONTINUOUS
 62
     7
100
AcDbLine
 10
3073.583128
 20
241.912891
 30
0.0
 11
3086.398128
 21
241.912891
 31
0.0
  0
LINE
  5
519
330
3CC
100
AcDbEntity
  8
0
  6
CONTINUOUS
 62
     7
100
AcDbLine
 10
3053.778128
 20
244.242891
 30
0.0
 11
3053.778128
 21
254.727891
 31
0.0
  0
LINE
  5
51A
330
3CC
100
AcDbEntity
  8
0
  6
CONTINUOUS
 62
     7
100
AcDbLine
 10
3054.943128
 20
244.242891
 30
0.0
 11
3054.943128
 21
267.542891
 31
0.0
  0
LINE
  5
51B
330
3CC
100
AcDbEntity
  8
0
  6
CONTINUOUS
 62
     7
100
AcDbLine
 10
3056.108128
 20
236.087891
 30
0.0
 11
3057.273128
 21
236.087891
 31
0.0
  0
LINE
  5
51C
330
3CC
100
AcDbEntity
  8
0
  6
CONTINUOUS
 62
     7
100
AcDbLine
 10
3056.108128
 20
244.242891
 30
0.0
 11
3056.108128
 21
251.232891
 31
0.0
  0
LINE
  5
51D
330
3CC
100
AcDbEntity
  8
0
  6
CONTINUOUS
 62
     7
100
AcDbLine
 10
3064.263128
 20
243.077891
 30
0.0
 11
3065.428128
 21
243.077891
 31
0.0
  0
LINE
  5
51E
330
3CC
100
AcDbEntity
  8
0
  6
CONTINUOUS
 62
     7
100
AcDbLine
 10
3057.273128
 20
244.242891
 30
0.0
 11
3057.273128
 21
251.232891
 31
0.0
  0
LINE
  5
51F
330
3CC
100
AcDbEntity
  8
0
  6
CONTINUOUS
 62
     7
100
AcDbLine
 10
3058.438128
 20
245.407891
 30
0.0
 11
3058.438128
 21
251.232891
 31
0.0
  0
LINE
  5
520
330
3CC
100
AcDbEntity
  8
0
  6
CONTINUOUS
 62
     7
100
AcDbLine
 10
3059.603128
 20
245.407891
 30
0.0
 11
3059.603128
 21
250.067891
 31
0.0
  0
LINE
  5
521
330
3CC
100
AcDbEntity
  8
0
  6
CONTINUOUS
 62
     7
100
AcDbLine
 10
3060.768128
 20
244.242891
 30
0.0
 11
3061.933128
 21
244.242891
 31
0.0
  0
LINE
  5
522
330
3CC
100
AcDbEntity
  8
0
  6
CONTINUOUS
 62
     7
100
AcDbLine
 10
3060.768128
 20
244.242891
 30
0.0
 11
3060.768128
 21
248.902891
 31
0.0
  0
LINE
  5
523
330
3CC
100
AcDbEntity
  8
0
  6
CONTINUOUS
 62
     7
100
AcDbLine
 10
3061.933128
 20
244.242891
 30
0.0
 11
3061.933128
 21
248.902891
 31
0.0
  0
LINE
  5
524
330
3CC
100
AcDbEntity
  8
0
  6
CONTINUOUS
 62
     7
100
AcDbLine
 10
3063.098128
 20
244.242891
 30
0.0
 11
3063.098128
 21
248.902891
 31
0.0
  0
LINE
  5
525
330
3CC
100
AcDbEntity
  8
0
  6
CONTINUOUS
 62
     7
100
AcDbLine
 10
3064.263128
 20
243.077891
 30
0.0
 11
3064.263128
 21
248.902891
 31
0.0
  0
LINE
  5
526
330
3CC
100
AcDbEntity
  8
0
  6
CONTINUOUS
 62
     7
100
AcDbLine
 10
3065.428128
 20
243.077891
 30
0.0
 11
3065.428128
 21
248.902891
 31
0.0
  0
LINE
  5
527
330
3CC
100
AcDbEntity
  8
0
  6
CONTINUOUS
 62
     7
100
AcDbLine
 10
3066.593128
 20
243.077891
 30
0.0
 11
3066.593128
 21
248.902891
 31
0.0
  0
LINE
  5
528
330
3CC
100
AcDbEntity
  8
0
  6
CONTINUOUS
 62
     7
100
AcDbLine
 10
3067.758128
 20
243.077891
 30
0.0
 11
3067.758128
 21
248.902891
 31
0.0
  0
LINE
  5
529
330
3CC
100
AcDbEntity
  8
0
  6
CONTINUOUS
 62
     7
100
AcDbLine
 10
3068.923128
 20
243.077891
 30
0.0
 11
3068.923128
 21
248.902891
 31
0.0
  0
LINE
  5
52A
330
3CC
100
AcDbEntity
  8
0
  6
CONTINUOUS
 62
     7
100
AcDbLine
 10
3070.088128
 20
243.077891
 30
0.0
 11
3070.088128
 21
248.902891
 31
0.0
  0
LINE
  5
52B
330
3CC
100
AcDbEntity
  8
0
  6
CONTINUOUS
 62
     7
100
AcDbLine
 10
3071.253128
 20
243.077891
 30
0.0
 11
3071.253128
 21
248.902891
 31
0.0
  0
LINE
  5
52C
330
3CC
100
AcDbEntity
  8
0
  6
CONTINUOUS
 62
     7
100
AcDbLine
 10
3072.418128
 20
243.077891
 30
0.0
 11
3072.418128
 21
248.902891
 31
0.0
  0
LINE
  5
52D
330
3CC
100
AcDbEntity
  8
0
  6
CONTINUOUS
 62
     7
100
AcDbLine
 10
3037.468128
 20
240.747891
 30
0.0
 11
3037.468128
 21
246.572891
 31
0.0
  0
LINE
  5
52E
330
3CC
100
AcDbEntity
  8
0
  6
CONTINUOUS
 62
     7
100
AcDbLine
 10
3053.778128
 20
244.242891
 30
0.0
 11
3054.943128
 21
244.242891
 31
0.0
  0
LINE
  5
52F
330
3CC
100
AcDbEntity
  8
0
  6
CONTINUOUS
 62
     7
100
AcDbLine
 10
3056.108128
 20
244.242891
 30
0.0
 11
3057.273128
 21
244.242891
 31
0.0
  0
LINE
  5
530
330
3CC
100
AcDbEntity
  8
0
  6
CONTINUOUS
 62
     7
100
AcDbLine
 10
3058.438128
 20
236.087891
 30
0.0
 11
3059.603128
 21
236.087891
 31
0.0
  0
LINE
  5
531
330
3CC
100
AcDbEntity
  8
0
  6
CONTINUOUS
 62
     7
100
AcDbLine
 10
3060.768128
 20
236.087891
 30
0.0
 11
3077.078128
 21
236.087891
 31
0.0
  0
LINE
  5
532
330
3CC
100
AcDbEntity
  8
0
  6
CONTINUOUS
 62
     7
100
AcDbLine
 10
3064.263128
 20
237.252891
 30
0.0
 11
3065.428128
 21
237.252891
 31
0.0
  0
LINE
  5
533
330
3CC
100
AcDbEntity
  8
0
  6
CONTINUOUS
 62
     7
100
AcDbLine
 10
3066.593128
 20
237.252891
 30
0.0
 11
3077.078128
 21
237.252891
 31
0.0
  0
LINE
  5
534
330
3CC
100
AcDbEntity
  8
0
  6
CONTINUOUS
 62
     7
100
AcDbLine
 10
3071.253128
 20
239.582891
 30
0.0
 11
3082.903128
 21
239.582891
 31
0.0
  0
LINE
  5
535
330
3CC
100
AcDbEntity
  8
0
  6
CONTINUOUS
 62
     7
100
AcDbLine
 10
3026.983128
 20
254.727891
 30
0.0
 11
3032.808128
 21
254.727891
 31
0.0
  0
LINE
  5
536
330
3CC
100
AcDbEntity
  8
0
  6
CONTINUOUS
 62
     7
100
AcDbLine
 10
3026.983128
 20
255.892891
 30
0.0
 11
3032.808128
 21
255.892891
 31
0.0
  0
LINE
  5
537
330
3CC
100
AcDbEntity
  8
0
  6
CONTINUOUS
 62
     7
100
AcDbLine
 10
3026.983128
 20
257.057891
 30
0.0
 11
3032.808128
 21
257.057891
 31
0.0
  0
LINE
  5
538
330
3CC
100
AcDbEntity
  8
0
  6
CONTINUOUS
 62
     7
100
AcDbLine
 10
3026.983128
 20
258.222891
 30
0.0
 11
3032.808128
 21
258.222891
 31
0.0
  0
LINE
  5
539
330
3CC
100
AcDbEntity
  8
0
  6
CONTINUOUS
 62
     7
100
AcDbLine
 10
3026.983128
 20
259.387891
 30
0.0
 11
3032.808128
 21
259.387891
 31
0.0
  0
LINE
  5
53A
330
3CC
100
AcDbEntity
  8
0
  6
CONTINUOUS
 62
     7
100
AcDbLine
 10
3026.983128
 20
260.552891
 30
0.0
 11
3032.808128
 21
260.552891
 31
0.0
  0
LINE
  5
53B
330
3CC
100
AcDbEntity
  8
0
  6
CONTINUOUS
 62
     7
100
AcDbLine
 10
3026.983128
 20
261.717891
 30
0.0
 11
3032.808128
 21
261.717891
 31
0.0
  0
LINE
  5
53C
330
3CC
100
AcDbEntity
  8
0
  6
CONTINUOUS
 62
     7
100
AcDbLine
 10
3028.148128
 20
264.047891
 30
0.0
 11
3032.808128
 21
264.047891
 31
0.0
  0
LINE
  5
53D
330
3CC
100
AcDbEntity
  8
0
  6
CONTINUOUS
 62
     7
100
AcDbLine
 10
3026.983128
 20
262.882891
 30
0.0
 11
3032.808128
 21
262.882891
 31
0.0
  0
LINE
  5
53E
330
3CC
100
AcDbEntity
  8
0
  6
CONTINUOUS
 62
     7
100
AcDbLine
 10
3029.313128
 20
265.212891
 30
0.0
 11
3032.808128
 21
265.212891
 31
0.0
  0
LINE
  5
53F
330
3CC
100
AcDbEntity
  8
0
  6
CONTINUOUS
 62
     7
100
AcDbLine
 10
3029.313128
 20
266.377891
 30
0.0
 11
3035.138128
 21
266.377891
 31
0.0
  0
LINE
  5
540
330
3CC
100
AcDbEntity
  8
0
  6
CONTINUOUS
 62
     7
100
AcDbLine
 10
3029.313128
 20
267.542891
 30
0.0
 11
3035.138128
 21
267.542891
 31
0.0
  0
LINE
  5
541
330
3CC
100
AcDbEntity
  8
0
  6
CONTINUOUS
 62
     7
100
AcDbLine
 10
3030.478128
 20
268.707891
 30
0.0
 11
3035.138128
 21
268.707891
 31
0.0
  0
LINE
  5
542
330
3CC
100
AcDbEntity
  8
0
  6
CONTINUOUS
 62
     7
100
AcDbLine
 10
3030.478128
 20
269.872891
 30
0.0
 11
3036.303128
 21
269.872891
 31
0.0
  0
LINE
  5
543
330
3CC
100
AcDbEntity
  8
0
  6
CONTINUOUS
 62
     7
100
AcDbLine
 10
3030.478128
 20
271.037891
 30
0.0
 11
3044.458128
 21
271.037891
 31
0.0
  0
LINE
  5
544
330
3CC
100
AcDbEntity
  8
0
  6
CONTINUOUS
 62
     7
100
AcDbLine
 10
3031.643128
 20
272.202891
 30
0.0
 11
3077.078128
 21
272.202891
 31
0.0
  0
LINE
  5
545
330
3CC
100
AcDbEntity
  8
0
  6
CONTINUOUS
 62
     7
100
AcDbLine
 10
3035.138128
 20
273.367891
 30
0.0
 11
3036.303128
 21
273.367891
 31
0.0
  0
LINE
  5
546
330
3CC
100
AcDbEntity
  8
0
  6
CONTINUOUS
 62
     7
100
AcDbLine
 10
3099.213128
 20
274.532891
 30
0.0
 11
3105.038128
 21
274.532891
 31
0.0
  0
LINE
  5
547
330
3CC
100
AcDbEntity
  8
0
  6
CONTINUOUS
 62
     7
100
AcDbLine
 10
3099.213128
 20
275.697891
 30
0.0
 11
3105.038128
 21
275.697891
 31
0.0
  0
LINE
  5
548
330
3CC
100
AcDbEntity
  8
0
  6
CONTINUOUS
 62
     7
100
AcDbLine
 10
3099.213128
 20
276.862891
 30
0.0
 11
3105.038128
 21
276.862891
 31
0.0
  0
LINE
  5
549
330
3CC
100
AcDbEntity
  8
0
  6
CONTINUOUS
 62
     7
100
AcDbLine
 10
3099.213128
 20
278.027891
 30
0.0
 11
3105.038128
 21
278.027891
 31
0.0
  0
LINE
  5
54A
330
3CC
100
AcDbEntity
  8
0
  6
CONTINUOUS
 62
     7
100
AcDbLine
 10
3099.213128
 20
279.192891
 30
0.0
 11
3105.038128
 21
279.192891
 31
0.0
  0
LINE
  5
54B
330
3CC
100
AcDbEntity
  8
0
  6
CONTINUOUS
 62
     7
100
AcDbLine
 10
3099.213128
 20
280.357891
 30
0.0
 11
3105.038128
 21
280.357891
 31
0.0
  0
LINE
  5
54C
330
3CC
100
AcDbEntity
  8
0
  6
CONTINUOUS
 62
     7
100
AcDbLine
 10
3038.633128
 20
282.687891
 30
0.0
 11
3038.633128
 21
283.852891
 31
0.0
  0
LINE
  5
54D
330
3CC
100
AcDbEntity
  8
0
  6
CONTINUOUS
 62
     7
100
AcDbLine
 10
3039.798128
 20
282.687891
 30
0.0
 11
3039.798128
 21
283.852891
 31
0.0
  0
LINE
  5
54E
330
3CC
100
AcDbEntity
  8
0
  6
CONTINUOUS
 62
     7
100
AcDbLine
 10
3040.963128
 20
282.687891
 30
0.0
 11
3040.963128
 21
283.852891
 31
0.0
  0
LINE
  5
54F
330
3CC
100
AcDbEntity
  8
0
  6
CONTINUOUS
 62
     7
100
AcDbLine
 10
3042.128128
 20
281.522891
 30
0.0
 11
3042.128128
 21
283.852891
 31
0.0
  0
LINE
  5
550
330
3CC
100
AcDbEntity
  8
0
  6
CONTINUOUS
 62
     7
100
AcDbLine
 10
3043.293128
 20
274.532891
 30
0.0
 11
3044.458128
 21
274.532891
 31
0.0
  0
LINE
  5
551
330
3CC
100
AcDbEntity
  8
0
  6
CONTINUOUS
 62
     7
100
AcDbLine
 10
3043.293128
 20
281.522891
 30
0.0
 11
3043.293128
 21
283.852891
 31
0.0
  0
LINE
  5
552
330
3CC
100
AcDbEntity
  8
0
  6
CONTINUOUS
 62
     7
100
AcDbLine
 10
3044.458128
 20
282.687891
 30
0.0
 11
3044.458128
 21
294.337891
 31
0.0
  0
LINE
  5
553
330
3CC
100
AcDbEntity
  8
0
  6
CONTINUOUS
 62
     7
100
AcDbLine
 10
3074.748128
 20
281.522891
 30
0.0
 11
3075.913128
 21
281.522891
 31
0.0
  0
LINE
  5
554
330
3CC
100
AcDbEntity
  8
0
  6
CONTINUOUS
 62
     7
100
AcDbLine
 10
3071.253128
 20
282.687891
 30
0.0
 11
3080.573128
 21
282.687891
 31
0.0
  0
LINE
  5
555
330
3CC
100
AcDbEntity
  8
0
  6
CONTINUOUS
 62
     7
100
AcDbLine
 10
3045.623128
 20
282.687891
 30
0.0
 11
3045.623128
 21
292.007891
 31
0.0
  0
LINE
  5
556
330
3CC
100
AcDbEntity
  8
0
  6
CONTINUOUS
 62
     7
100
AcDbLine
 10
3047.953128
 20
274.532891
 30
0.0
 11
3049.118128
 21
274.532891
 31
0.0
  0
LINE
  5
557
330
3CC
100
AcDbEntity
  8
0
  6
CONTINUOUS
 62
     7
100
AcDbLine
 10
3046.788128
 20
282.687891
 30
0.0
 11
3046.788128
 21
288.512891
 31
0.0
  0
LINE
  5
558
330
3CC
100
AcDbEntity
  8
0
  6
CONTINUOUS
 62
     7
100
AcDbLine
 10
3047.953128
 20
282.687891
 30
0.0
 11
3047.953128
 21
288.512891
 31
0.0
  0
LINE
  5
559
330
3CC
100
AcDbEntity
  8
0
  6
CONTINUOUS
 62
     7
100
AcDbLine
 10
3049.118128
 20
282.687891
 30
0.0
 11
3049.118128
 21
288.512891
 31
0.0
  0
LINE
  5
55A
330
3CC
100
AcDbEntity
  8
0
  6
CONTINUOUS
 62
     7
100
AcDbLine
 10
3044.458128
 20
304.822891
 30
0.0
 11
3047.953128
 21
304.822891
 31
0.0
  0
LINE
  5
55B
330
3CC
100
AcDbEntity
  8
0
  6
CONTINUOUS
 62
     7
100
AcDbLine
 10
3043.293128
 20
305.987891
 30
0.0
 11
3051.448128
 21
305.987891
 31
0.0
  0
LINE
  5
55C
330
3CC
100
AcDbEntity
  8
0
  6
CONTINUOUS
 62
     7
100
AcDbLine
 10
3043.293128
 20
307.152891
 30
0.0
 11
3053.778128
 21
307.152891
 31
0.0
  0
LINE
  5
55D
330
3CC
100
AcDbEntity
  8
0
  6
CONTINUOUS
 62
     7
100
AcDbLine
 10
3049.118128
 20
308.317891
 30
0.0
 11
3052.613128
 21
308.317891
 31
0.0
  0
LINE
  5
55E
330
3CC
100
AcDbEntity
  8
0
  6
CONTINUOUS
 62
     7
100
AcDbLine
 10
3050.283128
 20
309.482891
 30
0.0
 11
3051.448128
 21
309.482891
 31
0.0
  0
LINE
  5
55F
330
3CC
100
AcDbEntity
  8
0
  6
CONTINUOUS
 62
     7
100
AcDbLine
 10
3040.963128
 20
312.977891
 30
0.0
 11
3040.963128
 21
314.142891
 31
0.0
  0
LINE
  5
560
330
3CC
100
AcDbEntity
  8
0
  6
CONTINUOUS
 62
     7
100
AcDbLine
 10
3042.128128
 20
312.977891
 30
0.0
 11
3042.128128
 21
317.637891
 31
0.0
  0
LINE
  5
561
330
3CC
100
AcDbEntity
  8
0
  6
CONTINUOUS
 62
     7
100
AcDbLine
 10
3043.293128
 20
305.987891
 30
0.0
 11
3043.293128
 21
307.152891
 31
0.0
  0
LINE
  5
562
330
3CC
100
AcDbEntity
  8
0
  6
CONTINUOUS
 62
     7
100
AcDbLine
 10
3044.458128
 20
304.822891
 30
0.0
 11
3044.458128
 21
307.152891
 31
0.0
  0
LINE
  5
563
330
3CC
100
AcDbEntity
  8
0
  6
CONTINUOUS
 62
     7
100
AcDbLine
 10
3045.623128
 20
304.822891
 30
0.0
 11
3045.623128
 21
307.152891
 31
0.0
  0
LINE
  5
564
330
3CC
100
AcDbEntity
  8
0
  6
CONTINUOUS
 62
     7
100
AcDbLine
 10
3046.788128
 20
304.822891
 30
0.0
 11
3046.788128
 21
307.152891
 31
0.0
  0
LINE
  5
565
330
3CC
100
AcDbEntity
  8
0
  6
CONTINUOUS
 62
     7
100
AcDbLine
 10
3047.953128
 20
304.822891
 30
0.0
 11
3047.953128
 21
307.152891
 31
0.0
  0
LINE
  5
566
330
3CC
100
AcDbEntity
  8
0
  6
CONTINUOUS
 62
     7
100
AcDbLine
 10
3043.293128
 20
312.977891
 30
0.0
 11
3043.293128
 21
318.802891
 31
0.0
  0
LINE
  5
567
330
3CC
100
AcDbEntity
  8
0
  6
CONTINUOUS
 62
     7
100
AcDbLine
 10
3045.623128
 20
314.142891
 30
0.0
 11
3045.623128
 21
319.967891
 31
0.0
  0
LINE
  5
568
330
3CC
100
AcDbEntity
  8
0
  6
CONTINUOUS
 62
     7
100
AcDbLine
 10
3044.458128
 20
312.977891
 30
0.0
 11
3044.458128
 21
319.967891
 31
0.0
  0
LINE
  5
569
330
3CC
100
AcDbEntity
  8
0
  6
CONTINUOUS
 62
     7
100
AcDbLine
 10
3046.788128
 20
315.307891
 30
0.0
 11
3046.788128
 21
316.472891
 31
0.0
  0
LINE
  5
56A
330
3CC
100
AcDbEntity
  8
0
  6
CONTINUOUS
 62
     7
100
AcDbLine
 10
3047.953128
 20
317.637891
 30
0.0
 11
3047.953128
 21
319.967891
 31
0.0
  0
LINE
  5
56B
330
3CC
100
AcDbEntity
  8
0
  6
CONTINUOUS
 62
     7
100
AcDbLine
 10
3038.633128
 20
282.687891
 30
0.0
 11
3039.798128
 21
282.687891
 31
0.0
  0
LINE
  5
56C
330
3CC
100
AcDbEntity
  8
0
  6
CONTINUOUS
 62
     7
100
AcDbLine
 10
3038.633128
 20
283.852891
 30
0.0
 11
3039.798128
 21
283.852891
 31
0.0
  0
LINE
  5
56D
330
3CC
100
AcDbEntity
  8
0
  6
CONTINUOUS
 62
     7
100
AcDbLine
 10
3043.293128
 20
285.017891
 30
0.0
 11
3051.448128
 21
285.017891
 31
0.0
  0
LINE
  5
56E
330
3CC
100
AcDbEntity
  8
0
  6
CONTINUOUS
 62
     7
100
AcDbLine
 10
3043.293128
 20
286.182891
 30
0.0
 11
3052.613128
 21
286.182891
 31
0.0
  0
LINE
  5
56F
330
3CC
100
AcDbEntity
  8
0
  6
CONTINUOUS
 62
     7
100
AcDbLine
 10
3043.293128
 20
287.347891
 30
0.0
 11
3050.283128
 21
287.347891
 31
0.0
  0
LINE
  5
570
330
3CC
100
AcDbEntity
  8
0
  6
CONTINUOUS
 62
     7
100
AcDbLine
 10
3043.293128
 20
288.512891
 30
0.0
 11
3046.788128
 21
288.512891
 31
0.0
  0
LINE
  5
571
330
3CC
100
AcDbEntity
  8
0
  6
CONTINUOUS
 62
     7
100
AcDbLine
 10
3043.293128
 20
289.677891
 30
0.0
 11
3045.623128
 21
289.677891
 31
0.0
  0
LINE
  5
572
330
3CC
100
AcDbEntity
  8
0
  6
CONTINUOUS
 62
     7
100
AcDbLine
 10
3043.293128
 20
290.842891
 30
0.0
 11
3045.623128
 21
290.842891
 31
0.0
  0
LINE
  5
573
330
3CC
100
AcDbEntity
  8
0
  6
CONTINUOUS
 62
     7
100
AcDbLine
 10
3043.293128
 20
292.007891
 30
0.0
 11
3045.623128
 21
292.007891
 31
0.0
  0
LINE
  5
574
330
3CC
100
AcDbEntity
  8
0
  6
CONTINUOUS
 62
     7
100
AcDbLine
 10
3038.633128
 20
296.667891
 30
0.0
 11
3038.633128
 21
297.832891
 31
0.0
  0
LINE
  5
575
330
3CC
100
AcDbEntity
  8
0
  6
CONTINUOUS
 62
     7
100
AcDbLine
 10
3043.293128
 20
293.172891
 30
0.0
 11
3045.623128
 21
293.172891
 31
0.0
  0
LINE
  5
576
330
3CC
100
AcDbEntity
  8
0
  6
CONTINUOUS
 62
     7
100
AcDbLine
 10
3044.458128
 20
294.337891
 30
0.0
 11
3045.623128
 21
294.337891
 31
0.0
  0
LINE
  5
577
330
3CC
100
AcDbEntity
  8
0
  6
CONTINUOUS
 62
     7
100
AcDbLine
 10
3053.778128
 20
295.502891
 30
0.0
 11
3054.943128
 21
295.502891
 31
0.0
  0
LINE
  5
578
330
3CC
100
AcDbEntity
  8
0
  6
CONTINUOUS
 62
     7
100
AcDbLine
 10
3039.798128
 20
296.667891
 30
0.0
 11
3039.798128
 21
298.997891
 31
0.0
  0
LINE
  5
579
330
3CC
100
AcDbEntity
  8
0
  6
CONTINUOUS
 62
     7
100
AcDbLine
 10
3040.963128
 20
296.667891
 30
0.0
 11
3040.963128
 21
300.162891
 31
0.0
  0
LINE
  5
57A
330
3CC
100
AcDbEntity
  8
0
  6
CONTINUOUS
 62
     7
100
AcDbLine
 10
3042.128128
 20
296.667891
 30
0.0
 11
3042.128128
 21
300.162891
 31
0.0
  0
LINE
  5
57B
330
3CC
100
AcDbEntity
  8
0
  6
CONTINUOUS
 62
     7
100
AcDbLine
 10
3043.293128
 20
296.667891
 30
0.0
 11
3043.293128
 21
300.162891
 31
0.0
  0
LINE
  5
57C
330
3CC
100
AcDbEntity
  8
0
  6
CONTINUOUS
 62
     7
100
AcDbLine
 10
3044.458128
 20
296.667891
 30
0.0
 11
3044.458128
 21
301.327891
 31
0.0
  0
LINE
  5
57D
330
3CC
100
AcDbEntity
  8
0
  6
CONTINUOUS
 62
     7
100
AcDbLine
 10
3045.623128
 20
296.667891
 30
0.0
 11
3045.623128
 21
301.327891
 31
0.0
  0
LINE
  5
57E
330
3CC
100
AcDbEntity
  8
0
  6
CONTINUOUS
 62
     7
100
AcDbLine
 10
3046.788128
 20
296.667891
 30
0.0
 11
3046.788128
 21
297.832891
 31
0.0
  0
LINE
  5
57F
330
3CC
100
AcDbEntity
  8
0
  6
CONTINUOUS
 62
     7
100
AcDbLine
 10
3047.953128
 20
298.997891
 30
0.0
 11
3047.953128
 21
302.492891
 31
0.0
  0
LINE
  5
580
330
3CC
100
AcDbEntity
  8
0
  6
CONTINUOUS
 62
     7
100
AcDbLine
 10
3049.118128
 20
312.977891
 30
0.0
 11
3065.428128
 21
312.977891
 31
0.0
  0
LINE
  5
581
330
3CC
100
AcDbEntity
  8
0
  6
CONTINUOUS
 62
     7
100
AcDbLine
 10
3050.283128
 20
314.142891
 30
0.0
 11
3051.448128
 21
314.142891
 31
0.0
  0
LINE
  5
582
330
3CC
100
AcDbEntity
  8
0
  6
CONTINUOUS
 62
     7
100
AcDbLine
 10
3073.583128
 20
315.307891
 30
0.0
 11
3078.243128
 21
315.307891
 31
0.0
  0
LINE
  5
583
330
3CC
100
AcDbEntity
  8
0
  6
CONTINUOUS
 62
     7
100
AcDbLine
 10
3072.418128
 20
316.472891
 30
0.0
 11
3077.078128
 21
316.472891
 31
0.0
  0
LINE
  5
584
330
3CC
100
AcDbEntity
  8
0
  6
CONTINUOUS
 62
     7
100
AcDbLine
 10
3049.118128
 20
317.637891
 30
0.0
 11
3049.118128
 21
318.802891
 31
0.0
  0
LINE
  5
585
330
3CC
100
AcDbEntity
  8
0
  6
CONTINUOUS
 62
     7
100
AcDbLine
 10
3050.283128
 20
317.637891
 30
0.0
 11
3050.283128
 21
318.802891
 31
0.0
  0
LINE
  5
586
330
3CC
100
AcDbEntity
  8
0
  6
CONTINUOUS
 62
     7
100
AcDbLine
 10
3051.448128
 20
317.637891
 30
0.0
 11
3051.448128
 21
319.967891
 31
0.0
  0
LINE
  5
587
330
3CC
100
AcDbEntity
  8
0
  6
CONTINUOUS
 62
     7
100
AcDbLine
 10
3052.613128
 20
317.637891
 30
0.0
 11
3052.613128
 21
321.132891
 31
0.0
  0
LINE
  5
588
330
3CC
100
AcDbEntity
  8
0
  6
CONTINUOUS
 62
     7
100
AcDbLine
 10
3053.778128
 20
317.637891
 30
0.0
 11
3053.778128
 21
321.132891
 31
0.0
  0
LINE
  5
589
330
3CC
100
AcDbEntity
  8
0
  6
CONTINUOUS
 62
     7
100
AcDbLine
 10
3054.943128
 20
317.637891
 30
0.0
 11
3054.943128
 21
321.132891
 31
0.0
  0
LINE
  5
58A
330
3CC
100
AcDbEntity
  8
0
  6
CONTINUOUS
 62
     7
100
AcDbLine
 10
3056.108128
 20
317.637891
 30
0.0
 11
3056.108128
 21
322.297891
 31
0.0
  0
LINE
  5
58B
330
3CC
100
AcDbEntity
  8
0
  6
CONTINUOUS
 62
     7
100
AcDbLine
 10
3057.273128
 20
317.637891
 30
0.0
 11
3057.273128
 21
323.462891
 31
0.0
  0
LINE
  5
58C
330
3CC
100
AcDbEntity
  8
0
  6
CONTINUOUS
 62
     7
100
AcDbLine
 10
3059.603128
 20
317.637891
 30
0.0
 11
3059.603128
 21
323.462891
 31
0.0
  0
LINE
  5
58D
330
3CC
100
AcDbEntity
  8
0
  6
CONTINUOUS
 62
     7
100
AcDbLine
 10
3058.438128
 20
317.637891
 30
0.0
 11
3058.438128
 21
323.462891
 31
0.0
  0
LINE
  5
58E
330
3CC
100
AcDbEntity
  8
0
  6
CONTINUOUS
 62
     7
100
AcDbLine
 10
3067.758128
 20
324.627891
 30
0.0
 11
3067.758128
 21
330.452891
 31
0.0
  0
LINE
  5
58F
330
3CC
100
AcDbEntity
  8
0
  6
CONTINUOUS
 62
     7
100
AcDbLine
 10
3068.923128
 20
324.627891
 30
0.0
 11
3068.923128
 21
329.287891
 31
0.0
  0
LINE
  5
590
330
3CC
100
AcDbEntity
  8
0
  6
CONTINUOUS
 62
     7
100
AcDbLine
 10
3073.583128
 20
322.297891
 30
0.0
 11
3074.748128
 21
322.297891
 31
0.0
  0
LINE
  5
591
330
3CC
100
AcDbEntity
  8
0
  6
CONTINUOUS
 62
     7
100
AcDbLine
 10
3068.923128
 20
321.132891
 30
0.0
 11
3070.088128
 21
321.132891
 31
0.0
  0
LINE
  5
592
330
3CC
100
AcDbEntity
  8
0
  6
CONTINUOUS
 62
     7
100
AcDbLine
 10
3070.088128
 20
323.462891
 30
0.0
 11
3070.088128
 21
329.287891
 31
0.0
  0
LINE
  5
593
330
3CC
100
AcDbEntity
  8
0
  6
CONTINUOUS
 62
     7
100
AcDbLine
 10
3071.253128
 20
323.462891
 30
0.0
 11
3071.253128
 21
329.287891
 31
0.0
  0
LINE
  5
594
330
3CC
100
AcDbEntity
  8
0
  6
CONTINUOUS
 62
     7
100
AcDbLine
 10
3072.418128
 20
323.462891
 30
0.0
 11
3072.418128
 21
328.122891
 31
0.0
  0
LINE
  5
595
330
3CC
100
AcDbEntity
  8
0
  6
CONTINUOUS
 62
     7
100
AcDbLine
 10
3060.768128
 20
317.637891
 30
0.0
 11
3060.768128
 21
323.462891
 31
0.0
  0
LINE
  5
596
330
3CC
100
AcDbEntity
  8
0
  6
CONTINUOUS
 62
     7
100
AcDbLine
 10
3061.933128
 20
317.637891
 30
0.0
 11
3061.933128
 21
323.462891
 31
0.0
  0
LINE
  5
597
330
3CC
100
AcDbEntity
  8
0
  6
CONTINUOUS
 62
     7
100
AcDbLine
 10
3063.098128
 20
317.637891
 30
0.0
 11
3063.098128
 21
321.132891
 31
0.0
  0
LINE
  5
598
330
3CC
100
AcDbEntity
  8
0
  6
CONTINUOUS
 62
     7
100
AcDbLine
 10
3064.263128
 20
317.637891
 30
0.0
 11
3064.263128
 21
321.132891
 31
0.0
  0
LINE
  5
599
330
3CC
100
AcDbEntity
  8
0
  6
CONTINUOUS
 62
     7
100
AcDbLine
 10
3065.428128
 20
317.637891
 30
0.0
 11
3065.428128
 21
321.132891
 31
0.0
  0
LINE
  5
59A
330
3CC
100
AcDbEntity
  8
0
  6
CONTINUOUS
 62
     7
100
AcDbLine
 10
3066.593128
 20
317.637891
 30
0.0
 11
3066.593128
 21
319.967891
 31
0.0
  0
LINE
  5
59B
330
3CC
100
AcDbEntity
  8
0
  6
CONTINUOUS
 62
     7
100
AcDbLine
 10
3067.758128
 20
317.637891
 30
0.0
 11
3067.758128
 21
319.967891
 31
0.0
  0
LINE
  5
59C
330
3CC
100
AcDbEntity
  8
0
  6
CONTINUOUS
 62
     7
100
AcDbLine
 10
3068.923128
 20
317.637891
 30
0.0
 11
3068.923128
 21
321.132891
 31
0.0
  0
LINE
  5
59D
330
3CC
100
AcDbEntity
  8
0
  6
CONTINUOUS
 62
     7
100
AcDbLine
 10
3070.088128
 20
317.637891
 30
0.0
 11
3070.088128
 21
321.132891
 31
0.0
  0
LINE
  5
59E
330
3CC
100
AcDbEntity
  8
0
  6
CONTINUOUS
 62
     7
100
AcDbLine
 10
3071.253128
 20
317.637891
 30
0.0
 11
3071.253128
 21
321.132891
 31
0.0
  0
LINE
  5
59F
330
3CC
100
AcDbEntity
  8
0
  6
CONTINUOUS
 62
     7
100
AcDbLine
 10
3072.418128
 20
316.472891
 30
0.0
 11
3072.418128
 21
321.132891
 31
0.0
  0
LINE
  5
5A0
330
3CC
100
AcDbEntity
  8
0
  6
CONTINUOUS
 62
     7
100
AcDbLine
 10
3073.583128
 20
315.307891
 30
0.0
 11
3073.583128
 21
321.132891
 31
0.0
  0
LINE
  5
5A1
330
3CC
100
AcDbEntity
  8
0
  6
CONTINUOUS
 62
     7
100
AcDbLine
 10
3074.748128
 20
314.142891
 30
0.0
 11
3074.748128
 21
321.132891
 31
0.0
  0
LINE
  5
5A2
330
3CC
100
AcDbEntity
  8
0
  6
CONTINUOUS
 62
     7
100
AcDbLine
 10
3075.913128
 20
312.977891
 30
0.0
 11
3078.243128
 21
312.977891
 31
0.0
  0
LINE
  5
5A3
330
3CC
100
AcDbEntity
  8
0
  6
CONTINUOUS
 62
     7
100
AcDbLine
 10
3074.748128
 20
314.142891
 30
0.0
 11
3078.243128
 21
314.142891
 31
0.0
  0
LINE
  5
5A4
330
3CC
100
AcDbEntity
  8
0
  6
CONTINUOUS
 62
     7
100
AcDbLine
 10
3073.583128
 20
322.297891
 30
0.0
 11
3073.583128
 21
328.122891
 31
0.0
  0
LINE
  5
5A5
330
3CC
100
AcDbEntity
  8
0
  6
CONTINUOUS
 62
     7
100
AcDbLine
 10
3074.748128
 20
322.297891
 30
0.0
 11
3074.748128
 21
328.122891
 31
0.0
  0
LINE
  5
5A6
330
3CC
100
AcDbEntity
  8
0
  6
CONTINUOUS
 62
     7
100
AcDbLine
 10
3075.913128
 20
322.297891
 30
0.0
 11
3075.913128
 21
326.957891
 31
0.0
  0
LINE
  5
5A7
330
3CC
100
AcDbEntity
  8
0
  6
CONTINUOUS
 62
     7
100
AcDbLine
 10
3049.118128
 20
311.812891
 30
0.0
 11
3049.118128
 21
312.977891
 31
0.0
  0
LINE
  5
5A8
330
3CC
100
AcDbEntity
  8
0
  6
CONTINUOUS
 62
     7
100
AcDbLine
 10
3050.283128
 20
311.812891
 30
0.0
 11
3050.283128
 21
314.142891
 31
0.0
  0
LINE
  5
5A9
330
3CC
100
AcDbEntity
  8
0
  6
CONTINUOUS
 62
     7
100
AcDbLine
 10
3051.448128
 20
311.812891
 30
0.0
 11
3051.448128
 21
314.142891
 31
0.0
  0
LINE
  5
5AA
330
3CC
100
AcDbEntity
  8
0
  6
CONTINUOUS
 62
     7
100
AcDbLine
 10
3052.613128
 20
311.812891
 30
0.0
 11
3052.613128
 21
314.142891
 31
0.0
  0
LINE
  5
5AB
330
3CC
100
AcDbEntity
  8
0
  6
CONTINUOUS
 62
     7
100
AcDbLine
 10
3091.058128
 20
309.482891
 30
0.0
 11
3095.718128
 21
309.482891
 31
0.0
  0
LINE
  5
5AC
330
3CC
100
AcDbEntity
  8
0
  6
CONTINUOUS
 62
     7
100
AcDbLine
 10
3075.913128
 20
310.647891
 30
0.0
 11
3077.078128
 21
310.647891
 31
0.0
  0
LINE
  5
5AD
330
3CC
100
AcDbEntity
  8
0
  6
CONTINUOUS
 62
     7
100
AcDbLine
 10
3075.913128
 20
311.812891
 30
0.0
 11
3078.243128
 21
311.812891
 31
0.0
  0
LINE
  5
5AE
330
3CC
100
AcDbEntity
  8
0
  6
CONTINUOUS
 62
     7
100
AcDbLine
 10
3070.088128
 20
312.977891
 30
0.0
 11
3070.088128
 21
314.142891
 31
0.0
  0
LINE
  5
5AF
330
3CC
100
AcDbEntity
  8
0
  6
CONTINUOUS
 62
     7
100
AcDbLine
 10
3092.223128
 20
308.317891
 30
0.0
 11
3098.048128
 21
308.317891
 31
0.0
  0
LINE
  5
5B0
330
3CC
100
AcDbEntity
  8
0
  6
CONTINUOUS
 62
     7
100
AcDbLine
 10
3053.778128
 20
311.812891
 30
0.0
 11
3053.778128
 21
314.142891
 31
0.0
  0
LINE
  5
5B1
330
3CC
100
AcDbEntity
  8
0
  6
CONTINUOUS
 62
     7
100
AcDbLine
 10
3067.758128
 20
308.317891
 30
0.0
 11
3068.923128
 21
308.317891
 31
0.0
  0
LINE
  5
5B2
330
3CC
100
AcDbEntity
  8
0
  6
CONTINUOUS
 62
     7
100
AcDbLine
 10
3067.758128
 20
312.977891
 30
0.0
 11
3067.758128
 21
314.142891
 31
0.0
  0
LINE
  5
5B3
330
3CC
100
AcDbEntity
  8
0
  6
CONTINUOUS
 62
     7
100
AcDbLine
 10
3066.593128
 20
312.977891
 30
0.0
 11
3066.593128
 21
314.142891
 31
0.0
  0
LINE
  5
5B4
330
3CC
100
AcDbEntity
  8
0
  6
CONTINUOUS
 62
     7
100
AcDbLine
 10
3065.428128
 20
312.977891
 30
0.0
 11
3065.428128
 21
314.142891
 31
0.0
  0
LINE
  5
5B5
330
3CC
100
AcDbEntity
  8
0
  6
CONTINUOUS
 62
     7
100
AcDbLine
 10
3064.263128
 20
311.812891
 30
0.0
 11
3064.263128
 21
314.142891
 31
0.0
  0
LINE
  5
5B6
330
3CC
100
AcDbEntity
  8
0
  6
CONTINUOUS
 62
     7
100
AcDbLine
 10
3063.098128
 20
311.812891
 30
0.0
 11
3063.098128
 21
314.142891
 31
0.0
  0
LINE
  5
5B7
330
3CC
100
AcDbEntity
  8
0
  6
CONTINUOUS
 62
     7
100
AcDbLine
 10
3061.933128
 20
311.812891
 30
0.0
 11
3061.933128
 21
314.142891
 31
0.0
  0
LINE
  5
5B8
330
3CC
100
AcDbEntity
  8
0
  6
CONTINUOUS
 62
     7
100
AcDbLine
 10
3060.768128
 20
310.647891
 30
0.0
 11
3060.768128
 21
314.142891
 31
0.0
  0
LINE
  5
5B9
330
3CC
100
AcDbEntity
  8
0
  6
CONTINUOUS
 62
     7
100
AcDbLine
 10
3059.603128
 20
310.647891
 30
0.0
 11
3059.603128
 21
314.142891
 31
0.0
  0
LINE
  5
5BA
330
3CC
100
AcDbEntity
  8
0
  6
CONTINUOUS
 62
     7
100
AcDbLine
 10
3058.438128
 20
310.647891
 30
0.0
 11
3058.438128
 21
314.142891
 31
0.0
  0
LINE
  5
5BB
330
3CC
100
AcDbEntity
  8
0
  6
CONTINUOUS
 62
     7
100
AcDbLine
 10
3057.273128
 20
310.647891
 30
0.0
 11
3057.273128
 21
314.142891
 31
0.0
  0
LINE
  5
5BC
330
3CC
100
AcDbEntity
  8
0
  6
CONTINUOUS
 62
     7
100
AcDbLine
 10
3054.943128
 20
311.812891
 30
0.0
 11
3054.943128
 21
314.142891
 31
0.0
  0
LINE
  5
5BD
330
3CC
100
AcDbEntity
  8
0
  6
CONTINUOUS
 62
     7
100
AcDbLine
 10
3056.108128
 20
311.812891
 30
0.0
 11
3056.108128
 21
314.142891
 31
0.0
  0
LINE
  5
5BE
330
3CC
100
AcDbEntity
  8
0
  6
CONTINUOUS
 62
     7
100
AcDbLine
 10
3059.603128
 20
307.152891
 30
0.0
 11
3060.768128
 21
307.152891
 31
0.0
  0
LINE
  5
5BF
330
3CC
100
AcDbEntity
  8
0
  6
CONTINUOUS
 62
     7
100
AcDbLine
 10
3092.223128
 20
307.152891
 30
0.0
 11
3098.048128
 21
307.152891
 31
0.0
  0
LINE
  5
5C0
330
3CC
100
AcDbEntity
  8
0
  6
CONTINUOUS
 62
     7
100
AcDbLine
 10
3089.893128
 20
310.647891
 30
0.0
 11
3095.718128
 21
310.647891
 31
0.0
  0
LINE
  5
5C1
330
3CC
100
AcDbEntity
  8
0
  6
CONTINUOUS
 62
     7
100
AcDbLine
 10
3075.913128
 20
310.647891
 30
0.0
 11
3075.913128
 21
311.812891
 31
0.0
  0
LINE
  5
5C2
330
3CC
100
AcDbEntity
  8
0
  6
CONTINUOUS
 62
     7
100
AcDbLine
 10
3058.438128
 20
305.987891
 30
0.0
 11
3070.088128
 21
305.987891
 31
0.0
  0
LINE
  5
5C3
330
3CC
100
AcDbEntity
  8
0
  6
CONTINUOUS
 62
     7
100
AcDbLine
 10
3057.273128
 20
304.822891
 30
0.0
 11
3070.088128
 21
304.822891
 31
0.0
  0
LINE
  5
5C4
330
3CC
100
AcDbEntity
  8
0
  6
CONTINUOUS
 62
     7
100
AcDbLine
 10
3049.118128
 20
304.822891
 30
0.0
 11
3049.118128
 21
308.317891
 31
0.0
  0
LINE
  5
5C5
330
3CC
100
AcDbEntity
  8
0
  6
CONTINUOUS
 62
     7
100
AcDbLine
 10
3050.283128
 20
304.822891
 30
0.0
 11
3050.283128
 21
309.482891
 31
0.0
  0
LINE
  5
5C6
330
3CC
100
AcDbEntity
  8
0
  6
CONTINUOUS
 62
     7
100
AcDbLine
 10
3051.448128
 20
305.987891
 30
0.0
 11
3051.448128
 21
309.482891
 31
0.0
  0
LINE
  5
5C7
330
3CC
100
AcDbEntity
  8
0
  6
CONTINUOUS
 62
     7
100
AcDbLine
 10
3052.613128
 20
305.987891
 30
0.0
 11
3052.613128
 21
308.317891
 31
0.0
  0
LINE
  5
5C8
330
3CC
100
AcDbEntity
  8
0
  6
CONTINUOUS
 62
     7
100
AcDbLine
 10
3053.778128
 20
305.987891
 30
0.0
 11
3053.778128
 21
307.152891
 31
0.0
  0
LINE
  5
5C9
330
3CC
100
AcDbEntity
  8
0
  6
CONTINUOUS
 62
     7
100
AcDbLine
 10
3092.223128
 20
305.987891
 30
0.0
 11
3098.048128
 21
305.987891
 31
0.0
  0
LINE
  5
5CA
330
3CC
100
AcDbEntity
  8
0
  6
CONTINUOUS
 62
     7
100
AcDbLine
 10
3077.078128
 20
310.647891
 30
0.0
 11
3077.078128
 21
316.472891
 31
0.0
  0
LINE
  5
5CB
330
3CC
100
AcDbEntity
  8
0
  6
CONTINUOUS
 62
     7
100
AcDbLine
 10
3078.243128
 20
311.812891
 30
0.0
 11
3078.243128
 21
312.977891
 31
0.0
  0
LINE
  5
5CC
330
3CC
100
AcDbEntity
  8
0
  6
CONTINUOUS
 62
     7
100
AcDbLine
 10
3093.388128
 20
304.822891
 30
0.0
 11
3098.048128
 21
304.822891
 31
0.0
  0
LINE
  5
5CD
330
3CC
100
AcDbEntity
  8
0
  6
CONTINUOUS
 62
     7
100
AcDbLine
 10
3079.408128
 20
318.802891
 30
0.0
 11
3079.408128
 21
324.627891
 31
0.0
  0
LINE
  5
5CE
330
3CC
100
AcDbEntity
  8
0
  6
CONTINUOUS
 62
     7
100
AcDbLine
 10
3094.553128
 20
303.657891
 30
0.0
 11
3098.048128
 21
303.657891
 31
0.0
  0
LINE
  5
5CF
330
3CC
100
AcDbEntity
  8
0
  6
CONTINUOUS
 62
     7
100
AcDbLine
 10
3094.553128
 20
302.492891
 30
0.0
 11
3098.048128
 21
302.492891
 31
0.0
  0
LINE
  5
5D0
330
3CC
100
AcDbEntity
  8
0
  6
CONTINUOUS
 62
     7
100
AcDbLine
 10
3072.418128
 20
303.657891
 30
0.0
 11
3073.583128
 21
303.657891
 31
0.0
  0
LINE
  5
5D1
330
3CC
100
AcDbEntity
  8
0
  6
CONTINUOUS
 62
     7
100
AcDbLine
 10
3072.418128
 20
302.492891
 30
0.0
 11
3074.748128
 21
302.492891
 31
0.0
  0
LINE
  5
5D2
330
3CC
100
AcDbEntity
  8
0
  6
CONTINUOUS
 62
     7
100
AcDbLine
 10
3070.088128
 20
303.657891
 30
0.0
 11
3070.088128
 21
304.822891
 31
0.0
  0
LINE
  5
5D3
330
3CC
100
AcDbEntity
  8
0
  6
CONTINUOUS
 62
     7
100
AcDbLine
 10
3073.583128
 20
301.327891
 30
0.0
 11
3075.913128
 21
301.327891
 31
0.0
  0
LINE
  5
5D4
330
3CC
100
AcDbEntity
  8
0
  6
CONTINUOUS
 62
     7
100
AcDbLine
 10
3053.778128
 20
296.667891
 30
0.0
 11
3060.768128
 21
296.667891
 31
0.0
  0
LINE
  5
5D5
330
3CC
100
AcDbEntity
  8
0
  6
CONTINUOUS
 62
     7
100
AcDbLine
 10
3075.913128
 20
294.337891
 30
0.0
 11
3077.078128
 21
294.337891
 31
0.0
  0
LINE
  5
5D6
330
3CC
100
AcDbEntity
  8
0
  6
CONTINUOUS
 62
     7
100
AcDbLine
 10
3075.913128
 20
293.172891
 30
0.0
 11
3077.078128
 21
293.172891
 31
0.0
  0
LINE
  5
5D7
330
3CC
100
AcDbEntity
  8
0
  6
CONTINUOUS
 62
     7
100
AcDbLine
 10
3072.418128
 20
302.492891
 30
0.0
 11
3072.418128
 21
303.657891
 31
0.0
  0
LINE
  5
5D8
330
3CC
100
AcDbEntity
  8
0
  6
CONTINUOUS
 62
     7
100
AcDbLine
 10
3073.583128
 20
298.997891
 30
0.0
 11
3073.583128
 21
300.162891
 31
0.0
  0
LINE
  5
5D9
330
3CC
100
AcDbEntity
  8
0
  6
CONTINUOUS
 62
     7
100
AcDbLine
 10
3074.748128
 20
292.007891
 30
0.0
 11
3077.078128
 21
292.007891
 31
0.0
  0
LINE
  5
5DA
330
3CC
100
AcDbEntity
  8
0
  6
CONTINUOUS
 62
     7
100
AcDbLine
 10
3074.748128
 20
295.502891
 30
0.0
 11
3074.748128
 21
296.667891
 31
0.0
  0
LINE
  5
5DB
330
3CC
100
AcDbEntity
  8
0
  6
CONTINUOUS
 62
     7
100
AcDbLine
 10
3074.748128
 20
295.502891
 30
0.0
 11
3077.078128
 21
295.502891
 31
0.0
  0
LINE
  5
5DC
330
3CC
100
AcDbEntity
  8
0
  6
CONTINUOUS
 62
     7
100
AcDbLine
 10
3049.118128
 20
298.997891
 30
0.0
 11
3049.118128
 21
302.492891
 31
0.0
  0
LINE
  5
5DD
330
3CC
100
AcDbEntity
  8
0
  6
CONTINUOUS
 62
     7
100
AcDbLine
 10
3050.283128
 20
300.162891
 30
0.0
 11
3050.283128
 21
302.492891
 31
0.0
  0
LINE
  5
5DE
330
3CC
100
AcDbEntity
  8
0
  6
CONTINUOUS
 62
     7
100
AcDbLine
 10
3054.943128
 20
297.832891
 30
0.0
 11
3060.768128
 21
297.832891
 31
0.0
  0
LINE
  5
5DF
330
3CC
100
AcDbEntity
  8
0
  6
CONTINUOUS
 62
     7
100
AcDbLine
 10
3054.943128
 20
293.172891
 30
0.0
 11
3056.108128
 21
293.172891
 31
0.0
  0
LINE
  5
5E0
330
3CC
100
AcDbEntity
  8
0
  6
CONTINUOUS
 62
     7
100
AcDbLine
 10
3054.943128
 20
292.007891
 30
0.0
 11
3056.108128
 21
292.007891
 31
0.0
  0
LINE
  5
5E1
330
3CC
100
AcDbEntity
  8
0
  6
CONTINUOUS
 62
     7
100
AcDbLine
 10
3051.448128
 20
301.327891
 30
0.0
 11
3051.448128
 21
302.492891
 31
0.0
  0
LINE
  5
5E2
330
3CC
100
AcDbEntity
  8
0
  6
CONTINUOUS
 62
     7
100
AcDbLine
 10
3073.583128
 20
298.997891
 30
0.0
 11
3077.078128
 21
298.997891
 31
0.0
  0
LINE
  5
5E3
330
3CC
100
AcDbEntity
  8
0
  6
CONTINUOUS
 62
     7
100
AcDbLine
 10
3073.583128
 20
300.162891
 30
0.0
 11
3077.078128
 21
300.162891
 31
0.0
  0
LINE
  5
5E4
330
3CC
100
AcDbEntity
  8
0
  6
CONTINUOUS
 62
     7
100
AcDbLine
 10
3052.613128
 20
301.327891
 30
0.0
 11
3052.613128
 21
302.492891
 31
0.0
  0
LINE
  5
5E5
330
3CC
100
AcDbEntity
  8
0
  6
CONTINUOUS
 62
     7
100
AcDbLine
 10
3073.583128
 20
290.842891
 30
0.0
 11
3077.078128
 21
290.842891
 31
0.0
  0
LINE
  5
5E6
330
3CC
100
AcDbEntity
  8
0
  6
CONTINUOUS
 62
     7
100
AcDbLine
 10
3074.748128
 20
296.667891
 30
0.0
 11
3077.078128
 21
296.667891
 31
0.0
  0
LINE
  5
5E7
330
3CC
100
AcDbEntity
  8
0
  6
CONTINUOUS
 62
     7
100
AcDbLine
 10
3074.748128
 20
297.832891
 30
0.0
 11
3077.078128
 21
297.832891
 31
0.0
  0
LINE
  5
5E8
330
3CC
100
AcDbEntity
  8
0
  6
CONTINUOUS
 62
     7
100
AcDbLine
 10
3053.778128
 20
301.327891
 30
0.0
 11
3053.778128
 21
302.492891
 31
0.0
  0
LINE
  5
5E9
330
3CC
100
AcDbEntity
  8
0
  6
CONTINUOUS
 62
     7
100
AcDbLine
 10
3053.778128
 20
295.502891
 30
0.0
 11
3053.778128
 21
296.667891
 31
0.0
  0
LINE
  5
5EA
330
3CC
100
AcDbEntity
  8
0
  6
CONTINUOUS
 62
     7
100
AcDbLine
 10
3050.283128
 20
283.852891
 30
0.0
 11
3050.283128
 21
287.347891
 31
0.0
  0
LINE
  5
5EB
330
3CC
100
AcDbEntity
  8
0
  6
CONTINUOUS
 62
     7
100
AcDbLine
 10
3051.448128
 20
285.017891
 30
0.0
 11
3051.448128
 21
287.347891
 31
0.0
  0
LINE
  5
5EC
330
3CC
100
AcDbEntity
  8
0
  6
CONTINUOUS
 62
     7
100
AcDbLine
 10
3052.613128
 20
286.182891
 30
0.0
 11
3052.613128
 21
287.347891
 31
0.0
  0
LINE
  5
5ED
330
3CC
100
AcDbEntity
  8
0
  6
CONTINUOUS
 62
     7
100
AcDbLine
 10
3054.943128
 20
286.182891
 30
0.0
 11
3054.943128
 21
288.512891
 31
0.0
  0
LINE
  5
5EE
330
3CC
100
AcDbEntity
  8
0
  6
CONTINUOUS
 62
     7
100
AcDbLine
 10
3056.108128
 20
286.182891
 30
0.0
 11
3056.108128
 21
288.512891
 31
0.0
  0
LINE
  5
5EF
330
3CC
100
AcDbEntity
  8
0
  6
CONTINUOUS
 62
     7
100
AcDbLine
 10
3057.273128
 20
287.347891
 30
0.0
 11
3057.273128
 21
288.512891
 31
0.0
  0
LINE
  5
5F0
330
3CC
100
AcDbEntity
  8
0
  6
CONTINUOUS
 62
     7
100
AcDbLine
 10
3071.253128
 20
283.852891
 30
0.0
 11
3077.078128
 21
283.852891
 31
0.0
  0
LINE
  5
5F1
330
3CC
100
AcDbEntity
  8
0
  6
CONTINUOUS
 62
     7
100
AcDbLine
 10
3068.923128
 20
285.017891
 30
0.0
 11
3077.078128
 21
285.017891
 31
0.0
  0
LINE
  5
5F2
330
3CC
100
AcDbEntity
  8
0
  6
CONTINUOUS
 62
     7
100
AcDbLine
 10
3054.943128
 20
286.182891
 30
0.0
 11
3056.108128
 21
286.182891
 31
0.0
  0
LINE
  5
5F3
330
3CC
100
AcDbEntity
  8
0
  6
CONTINUOUS
 62
     7
100
AcDbLine
 10
3054.943128
 20
287.347891
 30
0.0
 11
3056.108128
 21
287.347891
 31
0.0
  0
LINE
  5
5F4
330
3CC
100
AcDbEntity
  8
0
  6
CONTINUOUS
 62
     7
100
AcDbLine
 10
3054.943128
 20
288.512891
 30
0.0
 11
3056.108128
 21
288.512891
 31
0.0
  0
LINE
  5
5F5
330
3CC
100
AcDbEntity
  8
0
  6
CONTINUOUS
 62
     7
100
AcDbLine
 10
3073.583128
 20
289.677891
 30
0.0
 11
3077.078128
 21
289.677891
 31
0.0
  0
LINE
  5
5F6
330
3CC
100
AcDbEntity
  8
0
  6
CONTINUOUS
 62
     7
100
AcDbLine
 10
3068.923128
 20
303.657891
 30
0.0
 11
3068.923128
 21
308.317891
 31
0.0
  0
LINE
  5
5F7
330
3CC
100
AcDbEntity
  8
0
  6
CONTINUOUS
 62
     7
100
AcDbLine
 10
3071.253128
 20
288.512891
 30
0.0
 11
3077.078128
 21
288.512891
 31
0.0
  0
LINE
  5
5F8
330
3CC
100
AcDbEntity
  8
0
  6
CONTINUOUS
 62
     7
100
AcDbLine
 10
3067.758128
 20
292.007891
 30
0.0
 11
3067.758128
 21
293.172891
 31
0.0
  0
LINE
  5
5F9
330
3CC
100
AcDbEntity
  8
0
  6
CONTINUOUS
 62
     7
100
AcDbLine
 10
3066.593128
 20
292.007891
 30
0.0
 11
3066.593128
 21
293.172891
 31
0.0
  0
LINE
  5
5FA
330
3CC
100
AcDbEntity
  8
0
  6
CONTINUOUS
 62
     7
100
AcDbLine
 10
3065.428128
 20
292.007891
 30
0.0
 11
3065.428128
 21
293.172891
 31
0.0
  0
LINE
  5
5FB
330
3CC
100
AcDbEntity
  8
0
  6
CONTINUOUS
 62
     7
100
AcDbLine
 10
3064.263128
 20
292.007891
 30
0.0
 11
3064.263128
 21
293.172891
 31
0.0
  0
LINE
  5
5FC
330
3CC
100
AcDbEntity
  8
0
  6
CONTINUOUS
 62
     7
100
AcDbLine
 10
3063.098128
 20
292.007891
 30
0.0
 11
3063.098128
 21
293.172891
 31
0.0
  0
LINE
  5
5FD
330
3CC
100
AcDbEntity
  8
0
  6
CONTINUOUS
 62
     7
100
AcDbLine
 10
3058.438128
 20
286.182891
 30
0.0
 11
3058.438128
 21
288.512891
 31
0.0
  0
LINE
  5
5FE
330
3CC
100
AcDbEntity
  8
0
  6
CONTINUOUS
 62
     7
100
AcDbLine
 10
3059.603128
 20
286.182891
 30
0.0
 11
3059.603128
 21
288.512891
 31
0.0
  0
LINE
  5
5FF
330
3CC
100
AcDbEntity
  8
0
  6
CONTINUOUS
 62
     7
100
AcDbLine
 10
3060.768128
 20
286.182891
 30
0.0
 11
3060.768128
 21
288.512891
 31
0.0
  0
LINE
  5
600
330
3CC
100
AcDbEntity
  8
0
  6
CONTINUOUS
 62
     7
100
AcDbLine
 10
3060.768128
 20
292.007891
 30
0.0
 11
3060.768128
 21
293.172891
 31
0.0
  0
LINE
  5
601
330
3CC
100
AcDbEntity
  8
0
  6
CONTINUOUS
 62
     7
100
AcDbLine
 10
3061.933128
 20
292.007891
 30
0.0
 11
3061.933128
 21
293.172891
 31
0.0
  0
LINE
  5
602
330
3CC
100
AcDbEntity
  8
0
  6
CONTINUOUS
 62
     7
100
AcDbLine
 10
3059.603128
 20
292.007891
 30
0.0
 11
3059.603128
 21
293.172891
 31
0.0
  0
LINE
  5
603
330
3CC
100
AcDbEntity
  8
0
  6
CONTINUOUS
 62
     7
100
AcDbLine
 10
3058.438128
 20
292.007891
 30
0.0
 11
3058.438128
 21
293.172891
 31
0.0
  0
LINE
  5
604
330
3CC
100
AcDbEntity
  8
0
  6
CONTINUOUS
 62
     7
100
AcDbLine
 10
3057.273128
 20
292.007891
 30
0.0
 11
3057.273128
 21
293.172891
 31
0.0
  0
LINE
  5
605
330
3CC
100
AcDbEntity
  8
0
  6
CONTINUOUS
 62
     7
100
AcDbLine
 10
3056.108128
 20
292.007891
 30
0.0
 11
3056.108128
 21
293.172891
 31
0.0
  0
LINE
  5
606
330
3CC
100
AcDbEntity
  8
0
  6
CONTINUOUS
 62
     7
100
AcDbLine
 10
3054.943128
 20
292.007891
 30
0.0
 11
3054.943128
 21
293.172891
 31
0.0
  0
LINE
  5
607
330
3CC
100
AcDbEntity
  8
0
  6
CONTINUOUS
 62
     7
100
AcDbLine
 10
3054.943128
 20
295.502891
 30
0.0
 11
3054.943128
 21
297.832891
 31
0.0
  0
LINE
  5
608
330
3CC
100
AcDbEntity
  8
0
  6
CONTINUOUS
 62
     7
100
AcDbLine
 10
3057.273128
 20
296.667891
 30
0.0
 11
3057.273128
 21
297.832891
 31
0.0
  0
LINE
  5
609
330
3CC
100
AcDbEntity
  8
0
  6
CONTINUOUS
 62
     7
100
AcDbLine
 10
3058.438128
 20
296.667891
 30
0.0
 11
3058.438128
 21
297.832891
 31
0.0
  0
LINE
  5
60A
330
3CC
100
AcDbEntity
  8
0
  6
CONTINUOUS
 62
     7
100
AcDbLine
 10
3056.108128
 20
296.667891
 30
0.0
 11
3056.108128
 21
297.832891
 31
0.0
  0
LINE
  5
60B
330
3CC
100
AcDbEntity
  8
0
  6
CONTINUOUS
 62
     7
100
AcDbLine
 10
3061.933128
 20
286.182891
 30
0.0
 11
3061.933128
 21
288.512891
 31
0.0
  0
LINE
  5
60C
330
3CC
100
AcDbEntity
  8
0
  6
CONTINUOUS
 62
     7
100
AcDbLine
 10
3063.098128
 20
287.347891
 30
0.0
 11
3063.098128
 21
288.512891
 31
0.0
  0
LINE
  5
60D
330
3CC
100
AcDbEntity
  8
0
  6
CONTINUOUS
 62
     7
100
AcDbLine
 10
3064.263128
 20
287.347891
 30
0.0
 11
3064.263128
 21
288.512891
 31
0.0
  0
LINE
  5
60E
330
3CC
100
AcDbEntity
  8
0
  6
CONTINUOUS
 62
     7
100
AcDbLine
 10
3065.428128
 20
286.182891
 30
0.0
 11
3065.428128
 21
288.512891
 31
0.0
  0
LINE
  5
60F
330
3CC
100
AcDbEntity
  8
0
  6
CONTINUOUS
 62
     7
100
AcDbLine
 10
3066.593128
 20
286.182891
 30
0.0
 11
3066.593128
 21
288.512891
 31
0.0
  0
LINE
  5
610
330
3CC
100
AcDbEntity
  8
0
  6
CONTINUOUS
 62
     7
100
AcDbLine
 10
3067.758128
 20
296.667891
 30
0.0
 11
3067.758128
 21
297.832891
 31
0.0
  0
LINE
  5
611
330
3CC
100
AcDbEntity
  8
0
  6
CONTINUOUS
 62
     7
100
AcDbLine
 10
3067.758128
 20
303.657891
 30
0.0
 11
3067.758128
 21
308.317891
 31
0.0
  0
LINE
  5
612
330
3CC
100
AcDbEntity
  8
0
  6
CONTINUOUS
 62
     7
100
AcDbLine
 10
3066.593128
 20
303.657891
 30
0.0
 11
3066.593128
 21
307.152891
 31
0.0
  0
LINE
  5
613
330
3CC
100
AcDbEntity
  8
0
  6
CONTINUOUS
 62
     7
100
AcDbLine
 10
3065.428128
 20
303.657891
 30
0.0
 11
3065.428128
 21
307.152891
 31
0.0
  0
LINE
  5
614
330
3CC
100
AcDbEntity
  8
0
  6
CONTINUOUS
 62
     7
100
AcDbLine
 10
3064.263128
 20
303.657891
 30
0.0
 11
3064.263128
 21
307.152891
 31
0.0
  0
LINE
  5
615
330
3CC
100
AcDbEntity
  8
0
  6
CONTINUOUS
 62
     7
100
AcDbLine
 10
3063.098128
 20
303.657891
 30
0.0
 11
3063.098128
 21
307.152891
 31
0.0
  0
LINE
  5
616
330
3CC
100
AcDbEntity
  8
0
  6
CONTINUOUS
 62
     7
100
AcDbLine
 10
3061.933128
 20
303.657891
 30
0.0
 11
3061.933128
 21
307.152891
 31
0.0
  0
LINE
  5
617
330
3CC
100
AcDbEntity
  8
0
  6
CONTINUOUS
 62
     7
100
AcDbLine
 10
3060.768128
 20
303.657891
 30
0.0
 11
3060.768128
 21
307.152891
 31
0.0
  0
LINE
  5
618
330
3CC
100
AcDbEntity
  8
0
  6
CONTINUOUS
 62
     7
100
AcDbLine
 10
3059.603128
 20
302.492891
 30
0.0
 11
3059.603128
 21
307.152891
 31
0.0
  0
LINE
  5
619
330
3CC
100
AcDbEntity
  8
0
  6
CONTINUOUS
 62
     7
100
AcDbLine
 10
3054.943128
 20
301.327891
 30
0.0
 11
3054.943128
 21
302.492891
 31
0.0
  0
LINE
  5
61A
330
3CC
100
AcDbEntity
  8
0
  6
CONTINUOUS
 62
     7
100
AcDbLine
 10
3056.108128
 20
301.327891
 30
0.0
 11
3056.108128
 21
302.492891
 31
0.0
  0
LINE
  5
61B
330
3CC
100
AcDbEntity
  8
0
  6
CONTINUOUS
 62
     7
100
AcDbLine
 10
3058.438128
 20
302.492891
 30
0.0
 11
3058.438128
 21
305.987891
 31
0.0
  0
LINE
  5
61C
330
3CC
100
AcDbEntity
  8
0
  6
CONTINUOUS
 62
     7
100
AcDbLine
 10
3057.273128
 20
303.657891
 30
0.0
 11
3057.273128
 21
304.822891
 31
0.0
  0
LINE
  5
61D
330
3CC
100
AcDbEntity
  8
0
  6
CONTINUOUS
 62
     7
100
AcDbLine
 10
3058.438128
 20
302.492891
 30
0.0
 11
3059.603128
 21
302.492891
 31
0.0
  0
LINE
  5
61E
330
3CC
100
AcDbEntity
  8
0
  6
CONTINUOUS
 62
     7
100
AcDbLine
 10
3088.728128
 20
311.812891
 30
0.0
 11
3093.388128
 21
311.812891
 31
0.0
  0
LINE
  5
61F
330
3CC
100
AcDbEntity
  8
0
  6
CONTINUOUS
 62
     7
100
AcDbLine
 10
3087.563128
 20
312.977891
 30
0.0
 11
3093.388128
 21
312.977891
 31
0.0
  0
LINE
  5
620
330
3CC
100
AcDbEntity
  8
0
  6
CONTINUOUS
 62
     7
100
AcDbLine
 10
3086.398128
 20
314.142891
 30
0.0
 11
3091.058128
 21
314.142891
 31
0.0
  0
LINE
  5
621
330
3CC
100
AcDbEntity
  8
0
  6
CONTINUOUS
 62
     7
100
AcDbLine
 10
3078.243128
 20
319.967891
 30
0.0
 11
3078.243128
 21
324.627891
 31
0.0
  0
LINE
  5
622
330
3CC
100
AcDbEntity
  8
0
  6
CONTINUOUS
 62
     7
100
AcDbLine
 10
3085.233128
 20
315.307891
 30
0.0
 11
3091.058128
 21
315.307891
 31
0.0
  0
LINE
  5
623
330
3CC
100
AcDbEntity
  8
0
  6
CONTINUOUS
 62
     7
100
AcDbLine
 10
3084.068128
 20
316.472891
 30
0.0
 11
3088.728128
 21
316.472891
 31
0.0
  0
LINE
  5
624
330
3CC
100
AcDbEntity
  8
0
  6
CONTINUOUS
 62
     7
100
AcDbLine
 10
3080.573128
 20
317.637891
 30
0.0
 11
3081.738128
 21
317.637891
 31
0.0
  0
LINE
  5
625
330
3CC
100
AcDbEntity
  8
0
  6
CONTINUOUS
 62
     7
100
AcDbLine
 10
3079.408128
 20
318.802891
 30
0.0
 11
3088.728128
 21
318.802891
 31
0.0
  0
LINE
  5
626
330
3CC
100
AcDbEntity
  8
0
  6
CONTINUOUS
 62
     7
100
AcDbLine
 10
3078.243128
 20
319.967891
 30
0.0
 11
3087.563128
 21
319.967891
 31
0.0
  0
LINE
  5
627
330
3CC
100
AcDbEntity
  8
0
  6
CONTINUOUS
 62
     7
100
AcDbLine
 10
3077.078128
 20
319.967891
 30
0.0
 11
3077.078128
 21
325.792891
 31
0.0
  0
LINE
  5
628
330
3CC
100
AcDbEntity
  8
0
  6
CONTINUOUS
 62
     7
100
AcDbLine
 10
3080.573128
 20
317.637891
 30
0.0
 11
3080.573128
 21
324.627891
 31
0.0
  0
LINE
  5
629
330
3CC
100
AcDbEntity
  8
0
  6
CONTINUOUS
 62
     7
100
AcDbLine
 10
3079.408128
 20
281.522891
 30
0.0
 11
3079.408128
 21
283.852891
 31
0.0
  0
LINE
  5
62A
330
3CC
100
AcDbEntity
  8
0
  6
CONTINUOUS
 62
     7
100
AcDbLine
 10
3080.573128
 20
281.522891
 30
0.0
 11
3080.573128
 21
282.687891
 31
0.0
  0
LINE
  5
62B
330
3CC
100
AcDbEntity
  8
0
  6
CONTINUOUS
 62
     7
100
AcDbLine
 10
3099.213128
 20
281.522891
 30
0.0
 11
3105.038128
 21
281.522891
 31
0.0
  0
LINE
  5
62C
330
3CC
100
AcDbEntity
  8
0
  6
CONTINUOUS
 62
     7
100
AcDbLine
 10
3099.213128
 20
282.687891
 30
0.0
 11
3105.038128
 21
282.687891
 31
0.0
  0
LINE
  5
62D
330
3CC
100
AcDbEntity
  8
0
  6
CONTINUOUS
 62
     7
100
AcDbLine
 10
3081.738128
 20
317.637891
 30
0.0
 11
3081.738128
 21
323.462891
 31
0.0
  0
LINE
  5
62E
330
3CC
100
AcDbEntity
  8
0
  6
CONTINUOUS
 62
     7
100
AcDbLine
 10
3094.553128
 20
301.327891
 30
0.0
 11
3100.378128
 21
301.327891
 31
0.0
  0
LINE
  5
62F
330
3CC
100
AcDbEntity
  8
0
  6
CONTINUOUS
 62
     7
100
AcDbLine
 10
3096.883128
 20
300.162891
 30
0.0
 11
3100.378128
 21
300.162891
 31
0.0
  0
LINE
  5
630
330
3CC
100
AcDbEntity
  8
0
  6
CONTINUOUS
 62
     7
100
AcDbLine
 10
3066.593128
 20
296.667891
 30
0.0
 11
3066.593128
 21
297.832891
 31
0.0
  0
LINE
  5
631
330
3CC
100
AcDbEntity
  8
0
  6
CONTINUOUS
 62
     7
100
AcDbLine
 10
3065.428128
 20
296.667891
 30
0.0
 11
3065.428128
 21
297.832891
 31
0.0
  0
LINE
  5
632
330
3CC
100
AcDbEntity
  8
0
  6
CONTINUOUS
 62
     7
100
AcDbLine
 10
3064.263128
 20
296.667891
 30
0.0
 11
3064.263128
 21
297.832891
 31
0.0
  0
LINE
  5
633
330
3CC
100
AcDbEntity
  8
0
  6
CONTINUOUS
 62
     7
100
AcDbLine
 10
3063.098128
 20
296.667891
 30
0.0
 11
3063.098128
 21
297.832891
 31
0.0
  0
LINE
  5
634
330
3CC
100
AcDbEntity
  8
0
  6
CONTINUOUS
 62
     7
100
AcDbLine
 10
3061.933128
 20
296.667891
 30
0.0
 11
3061.933128
 21
297.832891
 31
0.0
  0
LINE
  5
635
330
3CC
100
AcDbEntity
  8
0
  6
CONTINUOUS
 62
     7
100
AcDbLine
 10
3060.768128
 20
296.667891
 30
0.0
 11
3060.768128
 21
297.832891
 31
0.0
  0
LINE
  5
636
330
3CC
100
AcDbEntity
  8
0
  6
CONTINUOUS
 62
     7
100
AcDbLine
 10
3059.603128
 20
296.667891
 30
0.0
 11
3059.603128
 21
297.832891
 31
0.0
  0
LINE
  5
637
330
3CC
100
AcDbEntity
  8
0
  6
CONTINUOUS
 62
     7
100
AcDbLine
 10
3096.883128
 20
298.997891
 30
0.0
 11
3101.543128
 21
298.997891
 31
0.0
  0
LINE
  5
638
330
3CC
100
AcDbEntity
  8
0
  6
CONTINUOUS
 62
     7
100
AcDbLine
 10
3096.883128
 20
297.832891
 30
0.0
 11
3102.708128
 21
297.832891
 31
0.0
  0
LINE
  5
639
330
3CC
100
AcDbEntity
  8
0
  6
CONTINUOUS
 62
     7
100
AcDbLine
 10
3096.883128
 20
296.667891
 30
0.0
 11
3102.708128
 21
296.667891
 31
0.0
  0
LINE
  5
63A
330
3CC
100
AcDbEntity
  8
0
  6
CONTINUOUS
 62
     7
100
AcDbLine
 10
3067.758128
 20
286.182891
 30
0.0
 11
3067.758128
 21
288.512891
 31
0.0
  0
LINE
  5
63B
330
3CC
100
AcDbEntity
  8
0
  6
CONTINUOUS
 62
     7
100
AcDbLine
 10
3068.923128
 20
285.017891
 30
0.0
 11
3068.923128
 21
287.347891
 31
0.0
  0
LINE
  5
63C
330
3CC
100
AcDbEntity
  8
0
  6
CONTINUOUS
 62
     7
100
AcDbLine
 10
3070.088128
 20
285.017891
 30
0.0
 11
3070.088128
 21
287.347891
 31
0.0
  0
LINE
  5
63D
330
3CC
100
AcDbEntity
  8
0
  6
CONTINUOUS
 62
     7
100
AcDbLine
 10
3071.253128
 20
282.687891
 30
0.0
 11
3071.253128
 21
288.512891
 31
0.0
  0
LINE
  5
63E
330
3CC
100
AcDbEntity
  8
0
  6
CONTINUOUS
 62
     7
100
AcDbLine
 10
3072.418128
 20
282.687891
 30
0.0
 11
3072.418128
 21
288.512891
 31
0.0
  0
LINE
  5
63F
330
3CC
100
AcDbEntity
  8
0
  6
CONTINUOUS
 62
     7
100
AcDbLine
 10
3073.583128
 20
282.687891
 30
0.0
 11
3073.583128
 21
288.512891
 31
0.0
  0
LINE
  5
640
330
3CC
100
AcDbEntity
  8
0
  6
CONTINUOUS
 62
     7
100
AcDbLine
 10
3074.748128
 20
281.522891
 30
0.0
 11
3074.748128
 21
292.007891
 31
0.0
  0
LINE
  5
641
330
3CC
100
AcDbEntity
  8
0
  6
CONTINUOUS
 62
     7
100
AcDbLine
 10
3075.913128
 20
281.522891
 30
0.0
 11
3075.913128
 21
293.172891
 31
0.0
  0
LINE
  5
642
330
3CC
100
AcDbEntity
  8
0
  6
CONTINUOUS
 62
     7
100
AcDbLine
 10
3077.078128
 20
281.522891
 30
0.0
 11
3077.078128
 21
283.852891
 31
0.0
  0
LINE
  5
643
330
3CC
100
AcDbEntity
  8
0
  6
CONTINUOUS
 62
     7
100
AcDbLine
 10
3078.243128
 20
281.522891
 30
0.0
 11
3078.243128
 21
283.852891
 31
0.0
  0
LINE
  5
644
330
3CC
100
AcDbEntity
  8
0
  6
CONTINUOUS
 62
     7
100
AcDbLine
 10
3099.213128
 20
274.532891
 30
0.0
 11
3105.038128
 21
274.532891
 31
0.0
  0
LINE
  5
645
330
3CC
100
AcDbEntity
  8
0
  6
CONTINUOUS
 62
     7
100
AcDbLine
 10
3099.213128
 20
273.367891
 30
0.0
 11
3105.038128
 21
273.367891
 31
0.0
  0
LINE
  5
646
330
3CC
100
AcDbEntity
  8
0
  6
CONTINUOUS
 62
     7
100
AcDbLine
 10
3082.903128
 20
317.637891
 30
0.0
 11
3082.903128
 21
323.462891
 31
0.0
  0
LINE
  5
647
330
3CC
100
AcDbEntity
  8
0
  6
CONTINUOUS
 62
     7
100
AcDbLine
 10
3096.883128
 20
295.502891
 30
0.0
 11
3102.708128
 21
295.502891
 31
0.0
  0
LINE
  5
648
330
3CC
100
AcDbEntity
  8
0
  6
CONTINUOUS
 62
     7
100
AcDbLine
 10
3098.048128
 20
290.842891
 30
0.0
 11
3098.048128
 21
292.007891
 31
0.0
  0
LINE
  5
649
330
3CC
100
AcDbEntity
  8
0
  6
CONTINUOUS
 62
     7
100
AcDbLine
 10
3096.883128
 20
294.337891
 30
0.0
 11
3096.883128
 21
295.502891
 31
0.0
  0
LINE
  5
64A
330
3CC
100
AcDbEntity
  8
0
  6
CONTINUOUS
 62
     7
100
AcDbLine
 10
3095.718128
 20
301.327891
 30
0.0
 11
3095.718128
 21
309.482891
 31
0.0
  0
LINE
  5
64B
330
3CC
100
AcDbEntity
  8
0
  6
CONTINUOUS
 62
     7
100
AcDbLine
 10
3099.213128
 20
283.852891
 30
0.0
 11
3105.038128
 21
283.852891
 31
0.0
  0
LINE
  5
64C
330
3CC
100
AcDbEntity
  8
0
  6
CONTINUOUS
 62
     7
100
AcDbLine
 10
3099.213128
 20
285.017891
 30
0.0
 11
3105.038128
 21
285.017891
 31
0.0
  0
LINE
  5
64D
330
3CC
100
AcDbEntity
  8
0
  6
CONTINUOUS
 62
     7
100
AcDbLine
 10
3096.883128
 20
294.337891
 30
0.0
 11
3102.708128
 21
294.337891
 31
0.0
  0
LINE
  5
64E
330
3CC
100
AcDbEntity
  8
0
  6
CONTINUOUS
 62
     7
100
AcDbLine
 10
3098.048128
 20
293.172891
 30
0.0
 11
3102.708128
 21
293.172891
 31
0.0
  0
LINE
  5
64F
330
3CC
100
AcDbEntity
  8
0
  6
CONTINUOUS
 62
     7
100
AcDbLine
 10
3098.048128
 20
292.007891
 30
0.0
 11
3103.873128
 21
292.007891
 31
0.0
  0
LINE
  5
650
330
3CC
100
AcDbEntity
  8
0
  6
CONTINUOUS
 62
     7
100
AcDbLine
 10
3098.048128
 20
290.842891
 30
0.0
 11
3103.873128
 21
290.842891
 31
0.0
  0
LINE
  5
651
330
3CC
100
AcDbEntity
  8
0
  6
CONTINUOUS
 62
     7
100
AcDbLine
 10
3099.213128
 20
289.677891
 30
0.0
 11
3103.873128
 21
289.677891
 31
0.0
  0
LINE
  5
652
330
3CC
100
AcDbEntity
  8
0
  6
CONTINUOUS
 62
     7
100
AcDbLine
 10
3099.213128
 20
288.512891
 30
0.0
 11
3105.038128
 21
288.512891
 31
0.0
  0
LINE
  5
653
330
3CC
100
AcDbEntity
  8
0
  6
CONTINUOUS
 62
     7
100
AcDbLine
 10
3099.213128
 20
286.182891
 30
0.0
 11
3105.038128
 21
286.182891
 31
0.0
  0
LINE
  5
654
330
3CC
100
AcDbEntity
  8
0
  6
CONTINUOUS
 62
     7
100
AcDbLine
 10
3099.213128
 20
287.347891
 30
0.0
 11
3105.038128
 21
287.347891
 31
0.0
  0
LINE
  5
655
330
3CC
100
AcDbEntity
  8
0
  6
CONTINUOUS
 62
     7
100
AcDbLine
 10
3099.213128
 20
272.202891
 30
0.0
 11
3103.873128
 21
272.202891
 31
0.0
  0
LINE
  5
656
330
3CC
100
AcDbEntity
  8
0
  6
CONTINUOUS
 62
     7
100
AcDbLine
 10
3099.213128
 20
271.037891
 30
0.0
 11
3102.708128
 21
271.037891
 31
0.0
  0
LINE
  5
657
330
3CC
100
AcDbEntity
  8
0
  6
CONTINUOUS
 62
     7
100
AcDbLine
 10
3075.913128
 20
312.977891
 30
0.0
 11
3075.913128
 21
321.132891
 31
0.0
  0
LINE
  5
658
330
3CC
100
AcDbEntity
  8
0
  6
CONTINUOUS
 62
     7
100
AcDbLine
 10
3078.243128
 20
314.142891
 30
0.0
 11
3078.243128
 21
315.307891
 31
0.0
  0
LINE
  5
659
330
3CC
100
AcDbEntity
  8
0
  6
CONTINUOUS
 62
     7
100
AcDbLine
 10
3077.078128
 20
317.637891
 30
0.0
 11
3077.078128
 21
318.802891
 31
0.0
  0
LINE
  5
65A
330
3CC
100
AcDbEntity
  8
0
  6
CONTINUOUS
 62
     7
100
AcDbLine
 10
3068.923128
 20
317.637891
 30
0.0
 11
3077.078128
 21
317.637891
 31
0.0
  0
LINE
  5
65B
330
3CC
100
AcDbEntity
  8
0
  6
CONTINUOUS
 62
     7
100
AcDbLine
 10
3064.263128
 20
317.637891
 30
0.0
 11
3067.758128
 21
317.637891
 31
0.0
  0
LINE
  5
65C
330
3CC
100
AcDbEntity
  8
0
  6
CONTINUOUS
 62
     7
100
AcDbLine
 10
3059.603128
 20
317.637891
 30
0.0
 11
3063.098128
 21
317.637891
 31
0.0
  0
LINE
  5
65D
330
3CC
100
AcDbEntity
  8
0
  6
CONTINUOUS
 62
     7
100
AcDbLine
 10
3057.273128
 20
317.637891
 30
0.0
 11
3058.438128
 21
317.637891
 31
0.0
  0
LINE
  5
65E
330
3CC
100
AcDbEntity
  8
0
  6
CONTINUOUS
 62
     7
100
AcDbLine
 10
3054.943128
 20
317.637891
 30
0.0
 11
3056.108128
 21
317.637891
 31
0.0
  0
LINE
  5
65F
330
3CC
100
AcDbEntity
  8
0
  6
CONTINUOUS
 62
     7
100
AcDbLine
 10
3071.253128
 20
321.132891
 30
0.0
 11
3074.748128
 21
321.132891
 31
0.0
  0
LINE
  5
660
330
3CC
100
AcDbEntity
  8
0
  6
CONTINUOUS
 62
     7
100
AcDbLine
 10
3075.913128
 20
321.132891
 30
0.0
 11
3086.398128
 21
321.132891
 31
0.0
  0
LINE
  5
661
330
3CC
100
AcDbEntity
  8
0
  6
CONTINUOUS
 62
     7
100
AcDbLine
 10
3082.903128
 20
317.637891
 30
0.0
 11
3088.728128
 21
317.637891
 31
0.0
  0
LINE
  5
662
330
3CC
100
AcDbEntity
  8
0
  6
CONTINUOUS
 62
     7
100
AcDbLine
 10
3072.418128
 20
323.462891
 30
0.0
 11
3081.738128
 21
323.462891
 31
0.0
  0
LINE
  5
663
330
3CC
100
AcDbEntity
  8
0
  6
CONTINUOUS
 62
     7
100
AcDbLine
 10
3075.913128
 20
322.297891
 30
0.0
 11
3085.233128
 21
322.297891
 31
0.0
  0
LINE
  5
664
330
3CC
100
AcDbEntity
  8
0
  6
CONTINUOUS
 62
     7
100
AcDbLine
 10
3033.973128
 20
323.462891
 30
0.0
 11
3033.973128
 21
328.122891
 31
0.0
  0
LINE
  5
665
330
3CC
100
AcDbEntity
  8
0
  6
CONTINUOUS
 62
     7
100
AcDbLine
 10
3024.653128
 20
317.637891
 30
0.0
 11
3025.818128
 21
317.637891
 31
0.0
  0
LINE
  5
666
330
3CC
100
AcDbEntity
  8
0
  6
CONTINUOUS
 62
     7
100
AcDbLine
 10
3033.973128
 20
305.987891
 30
0.0
 11
3035.138128
 21
305.987891
 31
0.0
  0
LINE
  5
667
330
3CC
100
AcDbEntity
  8
0
  6
CONTINUOUS
 62
     7
100
AcDbLine
 10
3035.138128
 20
308.317891
 30
0.0
 11
3035.138128
 21
309.482891
 31
0.0
  0
LINE
  5
668
330
3CC
100
AcDbEntity
  8
0
  6
CONTINUOUS
 62
     7
100
AcDbLine
 10
3032.808128
 20
310.647891
 30
0.0
 11
3033.973128
 21
310.647891
 31
0.0
  0
LINE
  5
669
330
3CC
100
AcDbEntity
  8
0
  6
CONTINUOUS
 62
     7
100
AcDbLine
 10
3040.963128
 20
315.307891
 30
0.0
 11
3040.963128
 21
316.472891
 31
0.0
  0
LINE
  5
66A
330
3CC
100
AcDbEntity
  8
0
  6
CONTINUOUS
 62
     7
100
AcDbLine
 10
3046.788128
 20
317.637891
 30
0.0
 11
3046.788128
 21
319.967891
 31
0.0
  0
LINE
  5
66B
330
3CC
100
AcDbEntity
  8
0
  6
CONTINUOUS
 62
     7
100
AcDbLine
 10
3046.788128
 20
319.967891
 30
0.0
 11
3047.953128
 21
319.967891
 31
0.0
  0
LINE
  5
66C
330
3CC
100
AcDbEntity
  8
0
  6
CONTINUOUS
 62
     7
100
AcDbLine
 10
3054.943128
 20
321.132891
 30
0.0
 11
3065.428128
 21
321.132891
 31
0.0
  0
LINE
  5
66D
330
3CC
100
AcDbEntity
  8
0
  6
CONTINUOUS
 62
     7
100
AcDbLine
 10
3061.933128
 20
323.462891
 30
0.0
 11
3063.098128
 21
323.462891
 31
0.0
  0
LINE
  5
66E
330
3CC
100
AcDbEntity
  8
0
  6
CONTINUOUS
 62
     7
100
AcDbLine
 10
3063.098128
 20
322.297891
 30
0.0
 11
3063.098128
 21
323.462891
 31
0.0
  0
LINE
  5
66F
330
3CC
100
AcDbEntity
  8
0
  6
CONTINUOUS
 62
     7
100
AcDbLine
 10
3067.758128
 20
319.967891
 30
0.0
 11
3077.078128
 21
319.967891
 31
0.0
  0
LINE
  5
670
330
3CC
100
AcDbEntity
  8
0
  6
CONTINUOUS
 62
     7
100
AcDbLine
 10
3052.613128
 20
305.987891
 30
0.0
 11
3053.778128
 21
305.987891
 31
0.0
  0
LINE
  5
671
330
3CC
100
AcDbEntity
  8
0
  6
CONTINUOUS
 62
     7
100
AcDbLine
 10
3049.118128
 20
304.822891
 30
0.0
 11
3050.283128
 21
304.822891
 31
0.0
  0
LINE
  5
672
330
3CC
100
AcDbEntity
  8
0
  6
CONTINUOUS
 62
     7
100
AcDbLine
 10
3084.068128
 20
316.472891
 30
0.0
 11
3084.068128
 21
323.462891
 31
0.0
  0
LINE
  5
673
330
3CC
100
AcDbEntity
  8
0
  6
CONTINUOUS
 62
     7
100
AcDbLine
 10
3085.233128
 20
315.307891
 30
0.0
 11
3085.233128
 21
322.297891
 31
0.0
  0
LINE
  5
674
330
3CC
100
AcDbEntity
  8
0
  6
CONTINUOUS
 62
     7
100
AcDbLine
 10
3084.068128
 20
252.397891
 30
0.0
 11
3084.068128
 21
253.562891
 31
0.0
  0
LINE
  5
675
330
3CC
100
AcDbEntity
  8
0
  6
CONTINUOUS
 62
     7
100
AcDbLine
 10
3082.903128
 20
251.232891
 30
0.0
 11
3082.903128
 21
257.057891
 31
0.0
  0
LINE
  5
676
330
3CC
100
AcDbEntity
  8
0
  6
CONTINUOUS
 62
     7
100
AcDbLine
 10
3087.563128
 20
251.232891
 30
0.0
 11
3095.718128
 21
251.232891
 31
0.0
  0
LINE
  5
677
330
3CC
100
AcDbEntity
  8
0
  6
CONTINUOUS
 62
     7
100
AcDbLine
 10
3086.398128
 20
250.067891
 30
0.0
 11
3093.388128
 21
250.067891
 31
0.0
  0
LINE
  5
678
330
3CC
100
AcDbEntity
  8
0
  6
CONTINUOUS
 62
     7
100
AcDbLine
 10
3088.728128
 20
252.397891
 30
0.0
 11
3095.718128
 21
252.397891
 31
0.0
  0
LINE
  5
679
330
3CC
100
AcDbEntity
  8
0
  6
CONTINUOUS
 62
     7
100
AcDbLine
 10
3089.893128
 20
253.562891
 30
0.0
 11
3096.883128
 21
253.562891
 31
0.0
  0
LINE
  5
67A
330
3CC
100
AcDbEntity
  8
0
  6
CONTINUOUS
 62
     7
100
AcDbLine
 10
3091.058128
 20
254.727891
 30
0.0
 11
3096.883128
 21
254.727891
 31
0.0
  0
LINE
  5
67B
330
3CC
100
AcDbEntity
  8
0
  6
CONTINUOUS
 62
     7
100
AcDbLine
 10
3086.398128
 20
314.142891
 30
0.0
 11
3086.398128
 21
321.132891
 31
0.0
  0
LINE
  5
67C
330
3CC
100
AcDbEntity
  8
0
  6
CONTINUOUS
 62
     7
100
AcDbLine
 10
3087.563128
 20
312.977891
 30
0.0
 11
3087.563128
 21
319.967891
 31
0.0
  0
LINE
  5
67D
330
3CC
100
AcDbEntity
  8
0
  6
CONTINUOUS
 62
     7
100
AcDbLine
 10
3088.728128
 20
311.812891
 30
0.0
 11
3088.728128
 21
316.472891
 31
0.0
  0
LINE
  5
67E
330
3CC
100
AcDbEntity
  8
0
  6
CONTINUOUS
 62
     7
100
AcDbLine
 10
3089.893128
 20
310.647891
 30
0.0
 11
3089.893128
 21
316.472891
 31
0.0
  0
LINE
  5
67F
330
3CC
100
AcDbEntity
  8
0
  6
CONTINUOUS
 62
     7
100
AcDbLine
 10
3091.058128
 20
309.482891
 30
0.0
 11
3091.058128
 21
316.472891
 31
0.0
  0
LINE
  5
680
330
3CC
100
AcDbEntity
  8
0
  6
CONTINUOUS
 62
     7
100
AcDbLine
 10
3092.223128
 20
305.987891
 30
0.0
 11
3092.223128
 21
307.152891
 31
0.0
  0
LINE
  5
681
330
3CC
100
AcDbEntity
  8
0
  6
CONTINUOUS
 62
     7
100
AcDbLine
 10
3093.388128
 20
304.822891
 30
0.0
 11
3093.388128
 21
311.812891
 31
0.0
  0
LINE
  5
682
330
3CC
100
AcDbEntity
  8
0
  6
CONTINUOUS
 62
     7
100
AcDbLine
 10
3094.553128
 20
301.327891
 30
0.0
 11
3094.553128
 21
302.492891
 31
0.0
  0
LINE
  5
683
330
3CC
100
AcDbEntity
  8
0
  6
CONTINUOUS
 62
     7
100
AcDbLine
 10
3099.213128
 20
269.872891
 30
0.0
 11
3102.708128
 21
269.872891
 31
0.0
  0
LINE
  5
684
330
3CC
100
AcDbEntity
  8
0
  6
CONTINUOUS
 62
     7
100
AcDbLine
 10
3099.213128
 20
280.357891
 30
0.0
 11
3099.213128
 21
281.522891
 31
0.0
  0
LINE
  5
685
330
3CC
100
AcDbEntity
  8
0
  6
CONTINUOUS
 62
     7
100
AcDbLine
 10
3099.213128
 20
278.027891
 30
0.0
 11
3099.213128
 21
279.192891
 31
0.0
  0
LINE
  5
686
330
3CC
100
AcDbEntity
  8
0
  6
CONTINUOUS
 62
     7
100
AcDbLine
 10
3099.213128
 20
275.697891
 30
0.0
 11
3099.213128
 21
276.862891
 31
0.0
  0
LINE
  5
687
330
3CC
100
AcDbEntity
  8
0
  6
CONTINUOUS
 62
     7
100
AcDbLine
 10
3099.213128
 20
273.367891
 30
0.0
 11
3099.213128
 21
274.532891
 31
0.0
  0
LINE
  5
688
330
3CC
100
AcDbEntity
  8
0
  6
CONTINUOUS
 62
     7
100
AcDbLine
 10
3099.213128
 20
271.037891
 30
0.0
 11
3099.213128
 21
272.202891
 31
0.0
  0
LINE
  5
689
330
3CC
100
AcDbEntity
  8
0
  6
CONTINUOUS
 62
     7
100
AcDbLine
 10
3099.213128
 20
285.017891
 30
0.0
 11
3099.213128
 21
286.182891
 31
0.0
  0
LINE
  5
68A
330
3CC
100
AcDbEntity
  8
0
  6
CONTINUOUS
 62
     7
100
AcDbLine
 10
3099.213128
 20
282.687891
 30
0.0
 11
3099.213128
 21
283.852891
 31
0.0
  0
LINE
  5
68B
330
3CC
100
AcDbEntity
  8
0
  6
CONTINUOUS
 62
     7
100
AcDbLine
 10
3099.213128
 20
289.677891
 30
0.0
 11
3099.213128
 21
302.492891
 31
0.0
  0
LINE
  5
68C
330
3CC
100
AcDbEntity
  8
0
  6
CONTINUOUS
 62
     7
100
AcDbLine
 10
3099.213128
 20
287.347891
 30
0.0
 11
3099.213128
 21
288.512891
 31
0.0
  0
LINE
  5
68D
330
3CC
100
AcDbEntity
  8
0
  6
CONTINUOUS
 62
     7
100
AcDbLine
 10
3098.048128
 20
293.172891
 30
0.0
 11
3098.048128
 21
302.492891
 31
0.0
  0
LINE
  5
68E
330
3CC
100
AcDbEntity
  8
0
  6
CONTINUOUS
 62
     7
100
AcDbLine
 10
3096.883128
 20
296.667891
 30
0.0
 11
3096.883128
 21
297.832891
 31
0.0
  0
LINE
  5
68F
330
3CC
100
AcDbEntity
  8
0
  6
CONTINUOUS
 62
     7
100
AcDbLine
 10
3096.883128
 20
298.997891
 30
0.0
 11
3096.883128
 21
300.162891
 31
0.0
  0
LINE
  5
690
330
3CC
100
AcDbEntity
  8
0
  6
CONTINUOUS
 62
     7
100
AcDbLine
 10
3096.883128
 20
301.327891
 30
0.0
 11
3096.883128
 21
309.482891
 31
0.0
  0
LINE
  5
691
330
3CC
100
AcDbEntity
  8
0
  6
CONTINUOUS
 62
     7
100
AcDbLine
 10
3094.553128
 20
303.657891
 30
0.0
 11
3094.553128
 21
311.812891
 31
0.0
  0
LINE
  5
692
330
3CC
100
AcDbEntity
  8
0
  6
CONTINUOUS
 62
     7
100
AcDbLine
 10
3092.223128
 20
308.317891
 30
0.0
 11
3092.223128
 21
314.142891
 31
0.0
  0
LINE
  5
693
330
3CC
100
AcDbEntity
  8
0
  6
CONTINUOUS
 62
     7
100
AcDbLine
 10
3068.923128
 20
324.627891
 30
0.0
 11
3080.573128
 21
324.627891
 31
0.0
  0
LINE
  5
694
330
3CC
100
AcDbEntity
  8
0
  6
CONTINUOUS
 62
     7
100
AcDbLine
 10
3074.748128
 20
297.832891
 30
0.0
 11
3074.748128
 21
302.492891
 31
0.0
  0
LINE
  5
695
330
3CC
100
AcDbEntity
  8
0
  6
CONTINUOUS
 62
     7
100
AcDbLine
 10
3073.583128
 20
301.327891
 30
0.0
 11
3073.583128
 21
303.657891
 31
0.0
  0
LINE
  5
696
330
3CC
100
AcDbEntity
  8
0
  6
CONTINUOUS
 62
     7
100
AcDbLine
 10
3077.078128
 20
298.997891
 30
0.0
 11
3077.078128
 21
300.162891
 31
0.0
  0
LINE
  5
697
330
3CC
100
AcDbEntity
  8
0
  6
CONTINUOUS
 62
     7
100
AcDbLine
 10
3077.078128
 20
296.667891
 30
0.0
 11
3077.078128
 21
297.832891
 31
0.0
  0
LINE
  5
698
330
3CC
100
AcDbEntity
  8
0
  6
CONTINUOUS
 62
     7
100
AcDbLine
 10
3077.078128
 20
294.337891
 30
0.0
 11
3077.078128
 21
295.502891
 31
0.0
  0
LINE
  5
699
330
3CC
100
AcDbEntity
  8
0
  6
CONTINUOUS
 62
     7
100
AcDbLine
 10
3075.913128
 20
294.337891
 30
0.0
 11
3075.913128
 21
301.327891
 31
0.0
  0
LINE
  5
69A
330
3CC
100
AcDbEntity
  8
0
  6
CONTINUOUS
 62
     7
100
AcDbLine
 10
3077.078128
 20
292.007891
 30
0.0
 11
3077.078128
 21
293.172891
 31
0.0
  0
LINE
  5
69B
330
3CC
100
AcDbEntity
  8
0
  6
CONTINUOUS
 62
     7
100
AcDbLine
 10
3077.078128
 20
289.677891
 30
0.0
 11
3077.078128
 21
290.842891
 31
0.0
  0
LINE
  5
69C
330
3CC
100
AcDbEntity
  8
0
  6
CONTINUOUS
 62
     7
100
AcDbLine
 10
3077.078128
 20
287.347891
 30
0.0
 11
3077.078128
 21
288.512891
 31
0.0
  0
LINE
  5
69D
330
3CC
100
AcDbEntity
  8
0
  6
CONTINUOUS
 62
     7
100
AcDbLine
 10
3077.078128
 20
285.017891
 30
0.0
 11
3077.078128
 21
286.182891
 31
0.0
  0
LINE
  5
69E
330
3CC
100
AcDbEntity
  8
0
  6
CONTINUOUS
 62
     7
100
AcDbLine
 10
3078.243128
 20
283.852891
 30
0.0
 11
3079.408128
 21
283.852891
 31
0.0
  0
LINE
  5
69F
330
3CC
100
AcDbEntity
  8
0
  6
CONTINUOUS
 62
     7
100
AcDbLine
 10
3077.078128
 20
281.522891
 30
0.0
 11
3080.573128
 21
281.522891
 31
0.0
  0
LINE
  5
6A0
330
3CC
100
AcDbEntity
  8
0
  6
CONTINUOUS
 62
     7
100
AcDbLine
 10
3073.583128
 20
289.677891
 30
0.0
 11
3073.583128
 21
290.842891
 31
0.0
  0
LINE
  5
6A1
330
3CC
100
AcDbEntity
  8
0
  6
CONTINUOUS
 62
     7
100
AcDbLine
 10
3070.088128
 20
287.347891
 30
0.0
 11
3077.078128
 21
287.347891
 31
0.0
  0
LINE
  5
6A2
330
3CC
100
AcDbEntity
  8
0
  6
CONTINUOUS
 62
     7
100
AcDbLine
 10
3058.438128
 20
286.182891
 30
0.0
 11
3061.933128
 21
286.182891
 31
0.0
  0
LINE
  5
6A3
330
3CC
100
AcDbEntity
  8
0
  6
CONTINUOUS
 62
     7
100
AcDbLine
 10
3057.273128
 20
287.347891
 30
0.0
 11
3063.098128
 21
287.347891
 31
0.0
  0
LINE
  5
6A4
330
3CC
100
AcDbEntity
  8
0
  6
CONTINUOUS
 62
     7
100
AcDbLine
 10
3057.273128
 20
288.512891
 30
0.0
 11
3058.438128
 21
288.512891
 31
0.0
  0
LINE
  5
6A5
330
3CC
100
AcDbEntity
  8
0
  6
CONTINUOUS
 62
     7
100
AcDbLine
 10
3066.593128
 20
307.152891
 30
0.0
 11
3070.088128
 21
307.152891
 31
0.0
  0
LINE
  5
6A6
330
3CC
100
AcDbEntity
  8
0
  6
CONTINUOUS
 62
     7
100
AcDbLine
 10
3064.263128
 20
307.152891
 30
0.0
 11
3065.428128
 21
307.152891
 31
0.0
  0
LINE
  5
6A7
330
3CC
100
AcDbEntity
  8
0
  6
CONTINUOUS
 62
     7
100
AcDbLine
 10
3061.933128
 20
307.152891
 30
0.0
 11
3063.098128
 21
307.152891
 31
0.0
  0
LINE
  5
6A8
330
3CC
100
AcDbEntity
  8
0
  6
CONTINUOUS
 62
     7
100
AcDbLine
 10
3064.263128
 20
303.657891
 30
0.0
 11
3065.428128
 21
303.657891
 31
0.0
  0
LINE
  5
6A9
330
3CC
100
AcDbEntity
  8
0
  6
CONTINUOUS
 62
     7
100
AcDbLine
 10
3066.593128
 20
303.657891
 30
0.0
 11
3067.758128
 21
303.657891
 31
0.0
  0
LINE
  5
6AA
330
3CC
100
AcDbEntity
  8
0
  6
CONTINUOUS
 62
     7
100
AcDbLine
 10
3068.923128
 20
303.657891
 30
0.0
 11
3070.088128
 21
303.657891
 31
0.0
  0
LINE
  5
6AB
330
3CC
100
AcDbEntity
  8
0
  6
CONTINUOUS
 62
     7
100
AcDbLine
 10
3070.088128
 20
305.987891
 30
0.0
 11
3070.088128
 21
307.152891
 31
0.0
  0
LINE
  5
6AC
330
3CC
100
AcDbEntity
  8
0
  6
CONTINUOUS
 62
     7
100
AcDbLine
 10
3054.943128
 20
301.327891
 30
0.0
 11
3056.108128
 21
301.327891
 31
0.0
  0
LINE
  5
6AD
330
3CC
100
AcDbEntity
  8
0
  6
CONTINUOUS
 62
     7
100
AcDbLine
 10
3054.943128
 20
302.492891
 30
0.0
 11
3056.108128
 21
302.492891
 31
0.0
  0
LINE
  5
6AE
330
3CC
100
AcDbEntity
  8
0
  6
CONTINUOUS
 62
     7
100
AcDbLine
 10
3050.283128
 20
302.492891
 30
0.0
 11
3053.778128
 21
302.492891
 31
0.0
  0
LINE
  5
6AF
330
3CC
100
AcDbEntity
  8
0
  6
CONTINUOUS
 62
     7
100
AcDbLine
 10
3046.788128
 20
301.327891
 30
0.0
 11
3053.778128
 21
301.327891
 31
0.0
  0
LINE
  5
6B0
330
3CC
100
AcDbEntity
  8
0
  6
CONTINUOUS
 62
     7
100
AcDbLine
 10
3043.293128
 20
296.667891
 30
0.0
 11
3046.788128
 21
296.667891
 31
0.0
  0
LINE
  5
6B1
330
3CC
100
AcDbEntity
  8
0
  6
CONTINUOUS
 62
     7
100
AcDbLine
 10
3040.963128
 20
296.667891
 30
0.0
 11
3042.128128
 21
296.667891
 31
0.0
  0
LINE
  5
6B2
330
3CC
100
AcDbEntity
  8
0
  6
CONTINUOUS
 62
     7
100
AcDbLine
 10
3046.788128
 20
298.997891
 30
0.0
 11
3046.788128
 21
301.327891
 31
0.0
  0
LINE
  5
6B3
330
3CC
100
AcDbEntity
  8
0
  6
CONTINUOUS
 62
     7
100
AcDbLine
 10
3098.048128
 20
268.707891
 30
0.0
 11
3102.708128
 21
268.707891
 31
0.0
  0
LINE
  5
6B4
330
3CC
100
AcDbEntity
  8
0
  6
CONTINUOUS
 62
     7
100
AcDbLine
 10
3096.883128
 20
267.542891
 30
0.0
 11
3102.708128
 21
267.542891
 31
0.0
  0
LINE
  5
6B5
330
3CC
100
AcDbEntity
  8
0
  6
CONTINUOUS
 62
     7
100
AcDbLine
 10
3096.883128
 20
266.377891
 30
0.0
 11
3102.708128
 21
266.377891
 31
0.0
  0
LINE
  5
6B6
330
3CC
100
AcDbEntity
  8
0
  6
CONTINUOUS
 62
     7
100
AcDbLine
 10
3096.883128
 20
265.212891
 30
0.0
 11
3101.543128
 21
265.212891
 31
0.0
  0
LINE
  5
6B7
330
3CC
100
AcDbEntity
  8
0
  6
CONTINUOUS
 62
     7
100
AcDbLine
 10
3096.883128
 20
264.047891
 30
0.0
 11
3101.543128
 21
264.047891
 31
0.0
  0
LINE
  5
6B8
330
3CC
100
AcDbEntity
  8
0
  6
CONTINUOUS
 62
     7
100
AcDbLine
 10
3096.883128
 20
262.882891
 30
0.0
 11
3101.543128
 21
262.882891
 31
0.0
  0
LINE
  5
6B9
330
3CC
100
AcDbEntity
  8
0
  6
CONTINUOUS
 62
     7
100
AcDbLine
 10
3095.718128
 20
261.717891
 30
0.0
 11
3100.378128
 21
261.717891
 31
0.0
  0
LINE
  5
6BA
330
3CC
100
AcDbEntity
  8
0
  6
CONTINUOUS
 62
     7
100
AcDbLine
 10
3094.553128
 20
260.552891
 30
0.0
 11
3099.213128
 21
260.552891
 31
0.0
  0
LINE
  5
6BB
330
3CC
100
AcDbEntity
  8
0
  6
CONTINUOUS
 62
     7
100
AcDbLine
 10
3093.388128
 20
259.387891
 30
0.0
 11
3098.048128
 21
259.387891
 31
0.0
  0
LINE
  5
6BC
330
3CC
100
AcDbEntity
  8
0
  6
CONTINUOUS
 62
     7
100
AcDbLine
 10
3092.223128
 20
258.222891
 30
0.0
 11
3098.048128
 21
258.222891
 31
0.0
  0
LINE
  5
6BD
330
3CC
100
AcDbEntity
  8
0
  6
CONTINUOUS
 62
     7
100
AcDbLine
 10
3092.223128
 20
257.057891
 30
0.0
 11
3098.048128
 21
257.057891
 31
0.0
  0
LINE
  5
6BE
330
3CC
100
AcDbEntity
  8
0
  6
CONTINUOUS
 62
     7
100
AcDbLine
 10
3092.223128
 20
255.892891
 30
0.0
 11
3096.883128
 21
255.892891
 31
0.0
  0
LINE
  5
6BF
330
3CC
100
AcDbEntity
  8
0
  6
CONTINUOUS
 62
     7
100
AcDbLine
 10
3085.233128
 20
248.902891
 30
0.0
 11
3093.388128
 21
248.902891
 31
0.0
  0
LINE
  5
6C0
330
3CC
100
AcDbEntity
  8
0
  6
CONTINUOUS
 62
     7
100
AcDbLine
 10
3085.233128
 20
247.737891
 30
0.0
 11
3091.058128
 21
247.737891
 31
0.0
  0
LINE
  5
6C1
330
3CC
100
AcDbEntity
  8
0
  6
CONTINUOUS
 62
     7
100
AcDbLine
 10
3096.883128
 20
266.377891
 30
0.0
 11
3096.883128
 21
267.542891
 31
0.0
  0
LINE
  5
6C2
330
3CC
100
AcDbEntity
  8
0
  6
CONTINUOUS
 62
     7
100
AcDbLine
 10
3092.223128
 20
257.057891
 30
0.0
 11
3092.223128
 21
258.222891
 31
0.0
  0
LINE
  5
6C3
330
3CC
100
AcDbEntity
  8
0
  6
CONTINUOUS
 62
     7
100
AcDbLine
 10
3085.233128
 20
247.737891
 30
0.0
 11
3085.233128
 21
248.902891
 31
0.0
  0
LINE
  5
6C4
330
3CC
100
AcDbEntity
  8
0
  6
CONTINUOUS
 62
     7
100
AcDbLine
 10
3084.068128
 20
247.737891
 30
0.0
 11
3084.068128
 21
248.902891
 31
0.0
  0
LINE
  5
6C5
330
3CC
100
AcDbEntity
  8
0
  6
CONTINUOUS
 62
     7
100
AcDbLine
 10
3082.903128
 20
248.902891
 30
0.0
 11
3084.068128
 21
248.902891
 31
0.0
  0
LINE
  5
6C6
330
3CC
100
AcDbEntity
  8
0
  6
CONTINUOUS
 62
     7
100
AcDbLine
 10
3081.738128
 20
250.067891
 30
0.0
 11
3081.738128
 21
258.222891
 31
0.0
  0
LINE
  5
6C7
330
3CC
100
AcDbEntity
  8
0
  6
CONTINUOUS
 62
     7
100
AcDbLine
 10
3081.738128
 20
259.387891
 30
0.0
 11
3081.738128
 21
260.552891
 31
0.0
  0
LINE
  5
6C8
330
3CC
100
AcDbEntity
  8
0
  6
CONTINUOUS
 62
     7
100
AcDbLine
 10
3081.738128
 20
261.717891
 30
0.0
 11
3081.738128
 21
262.882891
 31
0.0
  0
LINE
  5
6C9
330
3CC
100
AcDbEntity
  8
0
  6
CONTINUOUS
 62
     7
100
AcDbLine
 10
3081.738128
 20
264.047891
 30
0.0
 11
3081.738128
 21
265.212891
 31
0.0
  0
LINE
  5
6CA
330
3CC
100
AcDbEntity
  8
0
  6
CONTINUOUS
 62
     7
100
AcDbLine
 10
3079.408128
 20
268.707891
 30
0.0
 11
3079.408128
 21
269.872891
 31
0.0
  0
LINE
  5
6CB
330
3CC
100
AcDbEntity
  8
0
  6
CONTINUOUS
 62
     7
100
AcDbLine
 10
3050.283128
 20
274.532891
 30
0.0
 11
3051.448128
 21
274.532891
 31
0.0
  0
LINE
  5
6CC
330
3CC
100
AcDbEntity
  8
0
  6
CONTINUOUS
 62
     7
100
AcDbLine
 10
3052.613128
 20
274.532891
 30
0.0
 11
3053.778128
 21
274.532891
 31
0.0
  0
LINE
  5
6CD
330
3CC
100
AcDbEntity
  8
0
  6
CONTINUOUS
 62
     7
100
AcDbLine
 10
3054.943128
 20
274.532891
 30
0.0
 11
3056.108128
 21
274.532891
 31
0.0
  0
LINE
  5
6CE
330
3CC
100
AcDbEntity
  8
0
  6
CONTINUOUS
 62
     7
100
AcDbLine
 10
3057.273128
 20
274.532891
 30
0.0
 11
3058.438128
 21
274.532891
 31
0.0
  0
LINE
  5
6CF
330
3CC
100
AcDbEntity
  8
0
  6
CONTINUOUS
 62
     7
100
AcDbLine
 10
3059.603128
 20
274.532891
 30
0.0
 11
3060.768128
 21
274.532891
 31
0.0
  0
LINE
  5
6D0
330
3CC
100
AcDbEntity
  8
0
  6
CONTINUOUS
 62
     7
100
AcDbLine
 10
3061.933128
 20
274.532891
 30
0.0
 11
3063.098128
 21
274.532891
 31
0.0
  0
LINE
  5
6D1
330
3CC
100
AcDbEntity
  8
0
  6
CONTINUOUS
 62
     7
100
AcDbLine
 10
3066.593128
 20
274.532891
 30
0.0
 11
3067.758128
 21
274.532891
 31
0.0
  0
LINE
  5
6D2
330
3CC
100
AcDbEntity
  8
0
  6
CONTINUOUS
 62
     7
100
AcDbLine
 10
3065.428128
 20
273.367891
 30
0.0
 11
3075.913128
 21
273.367891
 31
0.0
  0
LINE
  5
6D3
330
3CC
100
AcDbEntity
  8
0
  6
CONTINUOUS
 62
     7
100
AcDbLine
 10
3068.923128
 20
274.532891
 30
0.0
 11
3070.088128
 21
274.532891
 31
0.0
  0
LINE
  5
6D4
330
3CC
100
AcDbEntity
  8
0
  6
CONTINUOUS
 62
     7
100
AcDbLine
 10
3071.253128
 20
274.532891
 30
0.0
 11
3072.418128
 21
274.532891
 31
0.0
  0
LINE
  5
6D5
330
3CC
100
AcDbEntity
  8
0
  6
CONTINUOUS
 62
     7
100
AcDbLine
 10
3073.583128
 20
274.532891
 30
0.0
 11
3074.748128
 21
274.532891
 31
0.0
  0
LINE
  5
6D6
330
3CC
100
AcDbEntity
  8
0
  6
CONTINUOUS
 62
     7
100
AcDbLine
 10
3042.128128
 20
273.367891
 30
0.0
 11
3064.263128
 21
273.367891
 31
0.0
  0
LINE
  5
6D7
330
3CC
100
AcDbEntity
  8
0
  6
CONTINUOUS
 62
     7
100
AcDbLine
 10
3039.798128
 20
273.367891
 30
0.0
 11
3040.963128
 21
273.367891
 31
0.0
  0
LINE
  5
6D8
330
3CC
100
AcDbEntity
  8
0
  6
CONTINUOUS
 62
     7
100
AcDbLine
 10
3037.468128
 20
273.367891
 30
0.0
 11
3038.633128
 21
273.367891
 31
0.0
  0
LINE
  5
6D9
330
3CC
100
AcDbEntity
  8
0
  6
CONTINUOUS
 62
     7
100
AcDbLine
 10
3029.313128
 20
266.377891
 30
0.0
 11
3029.313128
 21
267.542891
 31
0.0
  0
LINE
  5
6DA
330
3CC
100
AcDbEntity
  8
0
  6
CONTINUOUS
 62
     7
100
AcDbLine
 10
3026.983128
 20
261.717891
 30
0.0
 11
3026.983128
 21
262.882891
 31
0.0
  0
LINE
  5
6DB
330
3CC
100
AcDbEntity
  8
0
  6
CONTINUOUS
 62
     7
100
AcDbLine
 10
3026.983128
 20
259.387891
 30
0.0
 11
3026.983128
 21
260.552891
 31
0.0
  0
LINE
  5
6DC
330
3CC
100
AcDbEntity
  8
0
  6
CONTINUOUS
 62
     7
100
AcDbLine
 10
3026.983128
 20
257.057891
 30
0.0
 11
3026.983128
 21
258.222891
 31
0.0
  0
LINE
  5
6DD
330
3CC
100
AcDbEntity
  8
0
  6
CONTINUOUS
 62
     7
100
AcDbLine
 10
3026.983128
 20
254.727891
 30
0.0
 11
3026.983128
 21
255.892891
 31
0.0
  0
LINE
  5
6DE
330
3CC
100
AcDbEntity
  8
0
  6
CONTINUOUS
 62
     7
100
AcDbLine
 10
3026.983128
 20
252.397891
 30
0.0
 11
3026.983128
 21
253.562891
 31
0.0
  0
LINE
  5
6DF
330
3CC
100
AcDbEntity
  8
0
  6
CONTINUOUS
 62
     7
100
AcDbLine
 10
3026.983128
 20
250.067891
 30
0.0
 11
3026.983128
 21
251.232891
 31
0.0
  0
LINE
  5
6E0
330
3CC
100
AcDbEntity
  8
0
  6
CONTINUOUS
 62
     7
100
AcDbLine
 10
3021.158128
 20
250.067891
 30
0.0
 11
3021.158128
 21
251.232891
 31
0.0
  0
LINE
  5
6E1
330
3CC
100
AcDbEntity
  8
0
  6
CONTINUOUS
 62
     7
100
AcDbLine
 10
3019.993128
 20
251.232891
 30
0.0
 11
3021.158128
 21
251.232891
 31
0.0
  0
LINE
  5
6E2
330
3CC
100
AcDbEntity
  8
0
  6
CONTINUOUS
 62
     7
100
AcDbLine
 10
3016.498128
 20
254.727891
 30
0.0
 11
3016.498128
 21
255.892891
 31
0.0
  0
LINE
  5
6E3
330
3CC
100
AcDbEntity
  8
0
  6
CONTINUOUS
 62
     7
100
AcDbLine
 10
3009.508128
 20
266.377891
 30
0.0
 11
3009.508128
 21
267.542891
 31
0.0
  0
LINE
  5
6E4
330
3CC
100
AcDbEntity
  8
0
  6
CONTINUOUS
 62
     7
100
AcDbLine
 10
3009.508128
 20
268.707891
 30
0.0
 11
3009.508128
 21
269.872891
 31
0.0
  0
LINE
  5
6E5
330
3CC
100
AcDbEntity
  8
0
  6
CONTINUOUS
 62
     7
100
AcDbLine
 10
3007.178128
 20
273.367891
 30
0.0
 11
3007.178128
 21
274.532891
 31
0.0
  0
LINE
  5
6E6
330
3CC
100
AcDbEntity
  8
0
  6
CONTINUOUS
 62
     7
100
AcDbLine
 10
3007.178128
 20
275.697891
 30
0.0
 11
3007.178128
 21
276.862891
 31
0.0
  0
LINE
  5
6E7
330
3CC
100
AcDbEntity
  8
0
  6
CONTINUOUS
 62
     7
100
AcDbLine
 10
3007.178128
 20
278.027891
 30
0.0
 11
3007.178128
 21
279.192891
 31
0.0
  0
LINE
  5
6E8
330
3CC
100
AcDbEntity
  8
0
  6
CONTINUOUS
 62
     7
100
AcDbLine
 10
3007.178128
 20
282.687891
 30
0.0
 11
3007.178128
 21
283.852891
 31
0.0
  0
LINE
  5
6E9
330
3CC
100
AcDbEntity
  8
0
  6
CONTINUOUS
 62
     7
100
AcDbLine
 10
3007.178128
 20
280.357891
 30
0.0
 11
3007.178128
 21
281.522891
 31
0.0
  0
LINE
  5
6EA
330
3CC
100
AcDbEntity
  8
0
  6
CONTINUOUS
 62
     7
100
AcDbLine
 10
3007.178128
 20
285.017891
 30
0.0
 11
3007.178128
 21
286.182891
 31
0.0
  0
LINE
  5
6EB
330
3CC
100
AcDbEntity
  8
0
  6
CONTINUOUS
 62
     7
100
AcDbLine
 10
3007.178128
 20
287.347891
 30
0.0
 11
3007.178128
 21
288.512891
 31
0.0
  0
LINE
  5
6EC
330
3CC
100
AcDbEntity
  8
0
  6
CONTINUOUS
 62
     7
100
AcDbLine
 10
3007.178128
 20
289.677891
 30
0.0
 11
3007.178128
 21
298.997891
 31
0.0
  0
LINE
  5
6ED
330
3CC
100
AcDbEntity
  8
0
  6
CONTINUOUS
 62
     7
100
AcDbLine
 10
3065.428128
 20
286.182891
 30
0.0
 11
3066.593128
 21
286.182891
 31
0.0
  0
LINE
  5
6EE
330
3CC
100
AcDbEntity
  8
0
  6
CONTINUOUS
 62
     7
100
AcDbLine
 10
3051.448128
 20
287.347891
 30
0.0
 11
3052.613128
 21
287.347891
 31
0.0
  0
LINE
  5
6EF
330
3CC
100
AcDbEntity
  8
0
  6
CONTINUOUS
 62
     7
100
AcDbLine
 10
3047.953128
 20
288.512891
 30
0.0
 11
3049.118128
 21
288.512891
 31
0.0
  0
LINE
  5
6F0
330
3CC
100
AcDbEntity
  8
0
  6
CONTINUOUS
 62
     7
100
AcDbLine
 10
3045.623128
 20
293.172891
 30
0.0
 11
3045.623128
 21
294.337891
 31
0.0
  0
LINE
  5
6F1
330
3CC
100
AcDbEntity
  8
0
  6
CONTINUOUS
 62
     7
100
AcDbLine
 10
3043.293128
 20
292.007891
 30
0.0
 11
3043.293128
 21
293.172891
 31
0.0
  0
LINE
  5
6F2
330
3CC
100
AcDbEntity
  8
0
  6
CONTINUOUS
 62
     7
100
AcDbLine
 10
3043.293128
 20
289.677891
 30
0.0
 11
3043.293128
 21
290.842891
 31
0.0
  0
LINE
  5
6F3
330
3CC
100
AcDbEntity
  8
0
  6
CONTINUOUS
 62
     7
100
AcDbLine
 10
3043.293128
 20
287.347891
 30
0.0
 11
3043.293128
 21
288.512891
 31
0.0
  0
LINE
  5
6F4
330
3CC
100
AcDbEntity
  8
0
  6
CONTINUOUS
 62
     7
100
AcDbLine
 10
3043.293128
 20
285.017891
 30
0.0
 11
3043.293128
 21
286.182891
 31
0.0
  0
LINE
  5
6F5
330
3CC
100
AcDbEntity
  8
0
  6
CONTINUOUS
 62
     7
100
AcDbLine
 10
3043.293128
 20
283.852891
 30
0.0
 11
3050.283128
 21
283.852891
 31
0.0
  0
LINE
  5
6F6
330
3CC
100
AcDbEntity
  8
0
  6
CONTINUOUS
 62
     7
100
AcDbLine
 10
3047.953128
 20
282.687891
 30
0.0
 11
3049.118128
 21
282.687891
 31
0.0
  0
LINE
  5
6F7
330
3CC
100
AcDbEntity
  8
0
  6
CONTINUOUS
 62
     7
100
AcDbLine
 10
3059.603128
 20
288.512891
 30
0.0
 11
3060.768128
 21
288.512891
 31
0.0
  0
LINE
  5
6F8
330
3CC
100
AcDbEntity
  8
0
  6
CONTINUOUS
 62
     7
100
AcDbLine
 10
3067.758128
 20
286.182891
 30
0.0
 11
3077.078128
 21
286.182891
 31
0.0
  0
LINE
  5
6F9
330
3CC
100
AcDbEntity
  8
0
  6
CONTINUOUS
 62
     7
100
AcDbLine
 10
3029.313128
 20
245.407891
 30
0.0
 11
3029.313128
 21
246.572891
 31
0.0
  0
LINE
  5
6FA
330
3CC
100
AcDbEntity
  8
0
  6
CONTINUOUS
 62
     7
100
AcDbLine
 10
3029.313128
 20
244.242891
 30
0.0
 11
3052.613128
 21
244.242891
 31
0.0
  0
LINE
  5
6FB
330
3CC
100
AcDbEntity
  8
0
  6
CONTINUOUS
 62
     7
100
AcDbLine
 10
3026.983128
 20
244.242891
 30
0.0
 11
3028.148128
 21
244.242891
 31
0.0
  0
LINE
  5
6FC
330
3CC
100
AcDbEntity
  8
0
  6
CONTINUOUS
 62
     7
100
AcDbLine
 10
3036.303128
 20
240.747891
 30
0.0
 11
3036.303128
 21
247.737891
 31
0.0
  0
LINE
  5
6FD
330
3CC
100
AcDbEntity
  8
0
  6
CONTINUOUS
 62
     7
100
AcDbLine
 10
3036.303128
 20
239.582891
 30
0.0
 11
3037.468128
 21
239.582891
 31
0.0
  0
LINE
  5
6FE
330
3CC
100
AcDbEntity
  8
0
  6
CONTINUOUS
 62
     7
100
AcDbLine
 10
3035.138128
 20
240.747891
 30
0.0
 11
3035.138128
 21
248.902891
 31
0.0
  0
LINE
  5
6FF
330
3CC
100
AcDbEntity
  8
0
  6
CONTINUOUS
 62
     7
100
AcDbLine
 10
3036.303128
 20
240.747891
 30
0.0
 11
3037.468128
 21
240.747891
 31
0.0
  0
LINE
  5
700
330
3CC
100
AcDbEntity
  8
0
  6
CONTINUOUS
 62
     7
100
AcDbLine
 10
3038.633128
 20
240.747891
 30
0.0
 11
3039.798128
 21
240.747891
 31
0.0
  0
LINE
  5
701
330
3CC
100
AcDbEntity
  8
0
  6
CONTINUOUS
 62
     7
100
AcDbLine
 10
3045.623128
 20
243.077891
 30
0.0
 11
3046.788128
 21
243.077891
 31
0.0
  0
LINE
  5
702
330
3CC
100
AcDbEntity
  8
0
  6
CONTINUOUS
 62
     7
100
AcDbLine
 10
3047.953128
 20
243.077891
 30
0.0
 11
3049.118128
 21
243.077891
 31
0.0
  0
LINE
  5
703
330
3CC
100
AcDbEntity
  8
0
  6
CONTINUOUS
 62
     7
100
AcDbLine
 10
3050.283128
 20
243.077891
 30
0.0
 11
3051.448128
 21
243.077891
 31
0.0
  0
LINE
  5
704
330
3CC
100
AcDbEntity
  8
0
  6
CONTINUOUS
 62
     7
100
AcDbLine
 10
3068.923128
 20
243.077891
 30
0.0
 11
3086.398128
 21
243.077891
 31
0.0
  0
LINE
  5
705
330
3CC
100
AcDbEntity
  8
0
  6
CONTINUOUS
 62
     7
100
AcDbLine
 10
3066.593128
 20
243.077891
 30
0.0
 11
3067.758128
 21
243.077891
 31
0.0
  0
LINE
  5
706
330
3CC
100
AcDbEntity
  8
0
  6
CONTINUOUS
 62
     7
100
AcDbLine
 10
3073.583128
 20
240.747891
 30
0.0
 11
3073.583128
 21
241.912891
 31
0.0
  0
LINE
  5
707
330
3CC
100
AcDbEntity
  8
0
  6
CONTINUOUS
 62
     7
100
AcDbLine
 10
3073.583128
 20
243.077891
 30
0.0
 11
3073.583128
 21
248.902891
 31
0.0
  0
LINE
  5
708
330
3CC
100
AcDbEntity
  8
0
  6
CONTINUOUS
 62
     7
100
AcDbLine
 10
3051.448128
 20
236.087891
 30
0.0
 11
3052.613128
 21
236.087891
 31
0.0
  0
LINE
  5
709
330
3CC
100
AcDbEntity
  8
0
  6
CONTINUOUS
 62
     7
100
AcDbLine
 10
3049.118128
 20
236.087891
 30
0.0
 11
3050.283128
 21
236.087891
 31
0.0
  0
LINE
  5
70A
330
3CC
100
AcDbEntity
  8
0
  6
CONTINUOUS
 62
     7
100
AcDbLine
 10
3046.788128
 20
236.087891
 30
0.0
 11
3047.953128
 21
236.087891
 31
0.0
  0
LINE
  5
70B
330
3CC
100
AcDbEntity
  8
0
  6
CONTINUOUS
 62
     7
100
AcDbLine
 10
3043.293128
 20
237.252891
 30
0.0
 11
3044.458128
 21
237.252891
 31
0.0
  0
LINE
  5
70C
330
3CC
100
AcDbEntity
  8
0
  6
CONTINUOUS
 62
     7
100
AcDbLine
 10
3029.313128
 20
247.737891
 30
0.0
 11
3029.313128
 21
265.212891
 31
0.0
  0
LINE
  5
70D
330
3CC
100
AcDbEntity
  8
0
  6
CONTINUOUS
 62
     7
100
AcDbLine
 10
3033.973128
 20
266.377891
 30
0.0
 11
3033.973128
 21
272.202891
 31
0.0
  0
LINE
  5
70E
330
3CC
100
AcDbEntity
  8
0
  6
CONTINUOUS
 62
     7
100
AcDbLine
 10
3035.138128
 20
260.552891
 30
0.0
 11
3035.138128
 21
261.717891
 31
0.0
  0
LINE
  5
70F
330
3CC
100
AcDbEntity
  8
0
  6
CONTINUOUS
 62
     7
100
AcDbLine
 10
3035.138128
 20
266.377891
 30
0.0
 11
3035.138128
 21
267.542891
 31
0.0
  0
LINE
  5
710
330
3CC
100
AcDbEntity
  8
0
  6
CONTINUOUS
 62
     7
100
AcDbLine
 10
3036.303128
 20
269.872891
 30
0.0
 11
3036.303128
 21
273.367891
 31
0.0
  0
LINE
  5
711
330
3CC
100
AcDbEntity
  8
0
  6
CONTINUOUS
 62
     7
100
AcDbLine
 10
3036.303128
 20
257.057891
 30
0.0
 11
3036.303128
 21
258.222891
 31
0.0
  0
LINE
  5
712
330
3CC
100
AcDbEntity
  8
0
  6
CONTINUOUS
 62
     7
100
AcDbLine
 10
3033.973128
 20
248.902891
 30
0.0
 11
3035.138128
 21
248.902891
 31
0.0
  0
LINE
  5
713
330
3CC
100
AcDbEntity
  8
0
  6
CONTINUOUS
 62
     7
100
AcDbLine
 10
3040.963128
 20
248.902891
 30
0.0
 11
3042.128128
 21
248.902891
 31
0.0
  0
LINE
  5
714
330
3CC
100
AcDbEntity
  8
0
  6
CONTINUOUS
 62
     7
100
AcDbLine
 10
3039.798128
 20
247.737891
 30
0.0
 11
3043.293128
 21
247.737891
 31
0.0
  0
LINE
  5
715
330
3CC
100
AcDbEntity
  8
0
  6
CONTINUOUS
 62
     7
100
AcDbLine
 10
3037.468128
 20
257.057891
 30
0.0
 11
3037.468128
 21
261.717891
 31
0.0
  0
LINE
  5
716
330
3CC
100
AcDbEntity
  8
0
  6
CONTINUOUS
 62
     7
100
AcDbLine
 10
3037.468128
 20
269.872891
 30
0.0
 11
3037.468128
 21
273.367891
 31
0.0
  0
LINE
  5
717
330
3CC
100
AcDbEntity
  8
0
  6
CONTINUOUS
 62
     7
100
AcDbLine
 10
3035.138128
 20
260.552891
 30
0.0
 11
3068.923128
 21
260.552891
 31
0.0
  0
LINE
  5
718
330
3CC
100
AcDbEntity
  8
0
  6
CONTINUOUS
 62
     7
100
AcDbLine
 10
3035.138128
 20
261.717891
 30
0.0
 11
3036.303128
 21
261.717891
 31
0.0
  0
LINE
  5
719
330
3CC
100
AcDbEntity
  8
0
  6
CONTINUOUS
 62
     7
100
AcDbLine
 10
3038.633128
 20
262.882891
 30
0.0
 11
3039.798128
 21
262.882891
 31
0.0
  0
LINE
  5
71A
330
3CC
100
AcDbEntity
  8
0
  6
CONTINUOUS
 62
     7
100
AcDbLine
 10
3049.118128
 20
264.047891
 30
0.0
 11
3057.273128
 21
264.047891
 31
0.0
  0
LINE
  5
71B
330
3CC
100
AcDbEntity
  8
0
  6
CONTINUOUS
 62
     7
100
AcDbLine
 10
3050.283128
 20
265.212891
 30
0.0
 11
3051.448128
 21
265.212891
 31
0.0
  0
LINE
  5
71C
330
3CC
100
AcDbEntity
  8
0
  6
CONTINUOUS
 62
     7
100
AcDbLine
 10
3050.283128
 20
266.377891
 30
0.0
 11
3051.448128
 21
266.377891
 31
0.0
  0
LINE
  5
71D
330
3CC
100
AcDbEntity
  8
0
  6
CONTINUOUS
 62
     7
100
AcDbLine
 10
3050.283128
 20
267.542891
 30
0.0
 11
3053.778128
 21
267.542891
 31
0.0
  0
LINE
  5
71E
330
3CC
100
AcDbEntity
  8
0
  6
CONTINUOUS
 62
     7
100
AcDbLine
 10
3050.283128
 20
268.707891
 30
0.0
 11
3053.778128
 21
268.707891
 31
0.0
  0
LINE
  5
71F
330
3CC
100
AcDbEntity
  8
0
  6
CONTINUOUS
 62
     7
100
AcDbLine
 10
3049.118128
 20
269.872891
 30
0.0
 11
3056.108128
 21
269.872891
 31
0.0
  0
LINE
  5
720
330
3CC
100
AcDbEntity
  8
0
  6
CONTINUOUS
 62
     7
100
AcDbLine
 10
3038.633128
 20
269.872891
 30
0.0
 11
3038.633128
 21
273.367891
 31
0.0
  0
LINE
  5
721
330
3CC
100
AcDbEntity
  8
0
  6
CONTINUOUS
 62
     7
100
AcDbLine
 10
3039.798128
 20
269.872891
 30
0.0
 11
3039.798128
 21
273.367891
 31
0.0
  0
LINE
  5
722
330
3CC
100
AcDbEntity
  8
0
  6
CONTINUOUS
 62
     7
100
AcDbLine
 10
3040.963128
 20
269.872891
 30
0.0
 11
3040.963128
 21
273.367891
 31
0.0
  0
LINE
  5
723
330
3CC
100
AcDbEntity
  8
0
  6
CONTINUOUS
 62
     7
100
AcDbLine
 10
3042.128128
 20
271.037891
 30
0.0
 11
3042.128128
 21
273.367891
 31
0.0
  0
LINE
  5
724
330
3CC
100
AcDbEntity
  8
0
  6
CONTINUOUS
 62
     7
100
AcDbLine
 10
3045.623128
 20
262.882891
 30
0.0
 11
3046.788128
 21
262.882891
 31
0.0
  0
LINE
  5
725
330
3CC
100
AcDbEntity
  8
0
  6
CONTINUOUS
 62
     7
100
AcDbLine
 10
3043.293128
 20
271.037891
 30
0.0
 11
3043.293128
 21
274.532891
 31
0.0
  0
LINE
  5
726
330
3CC
100
AcDbEntity
  8
0
  6
CONTINUOUS
 62
     7
100
AcDbLine
 10
3044.458128
 20
271.037891
 30
0.0
 11
3044.458128
 21
274.532891
 31
0.0
  0
LINE
  5
727
330
3CC
100
AcDbEntity
  8
0
  6
CONTINUOUS
 62
     7
100
AcDbLine
 10
3045.623128
 20
271.037891
 30
0.0
 11
3045.623128
 21
273.367891
 31
0.0
  0
LINE
  5
728
330
3CC
100
AcDbEntity
  8
0
  6
CONTINUOUS
 62
     7
100
AcDbLine
 10
3046.788128
 20
271.037891
 30
0.0
 11
3046.788128
 21
273.367891
 31
0.0
  0
LINE
  5
729
330
3CC
100
AcDbEntity
  8
0
  6
CONTINUOUS
 62
     7
100
AcDbLine
 10
3047.953128
 20
271.037891
 30
0.0
 11
3047.953128
 21
274.532891
 31
0.0
  0
LINE
  5
72A
330
3CC
100
AcDbEntity
  8
0
  6
CONTINUOUS
 62
     7
100
AcDbLine
 10
3049.118128
 20
269.872891
 30
0.0
 11
3049.118128
 21
274.532891
 31
0.0
  0
LINE
  5
72B
330
3CC
100
AcDbEntity
  8
0
  6
CONTINUOUS
 62
     7
100
AcDbLine
 10
3045.623128
 20
271.037891
 30
0.0
 11
3078.243128
 21
271.037891
 31
0.0
  0
LINE
  5
72C
330
3CC
100
AcDbEntity
  8
0
  6
CONTINUOUS
 62
     7
100
AcDbLine
 10
3039.798128
 20
269.872891
 30
0.0
 11
3040.963128
 21
269.872891
 31
0.0
  0
LINE
  5
72D
330
3CC
100
AcDbEntity
  8
0
  6
CONTINUOUS
 62
     7
100
AcDbLine
 10
3037.468128
 20
269.872891
 30
0.0
 11
3038.633128
 21
269.872891
 31
0.0
  0
LINE
  5
72E
330
3CC
100
AcDbEntity
  8
0
  6
CONTINUOUS
 62
     7
100
AcDbLine
 10
3035.138128
 20
268.707891
 30
0.0
 11
3035.138128
 21
273.367891
 31
0.0
  0
LINE
  5
72F
330
3CC
100
AcDbEntity
  8
0
  6
CONTINUOUS
 62
     7
100
AcDbLine
 10
3032.808128
 20
266.377891
 30
0.0
 11
3032.808128
 21
272.202891
 31
0.0
  0
LINE
  5
730
330
3CC
100
AcDbEntity
  8
0
  6
CONTINUOUS
 62
     7
100
AcDbLine
 10
3032.808128
 20
264.047891
 30
0.0
 11
3032.808128
 21
265.212891
 31
0.0
  0
LINE
  5
731
330
3CC
100
AcDbEntity
  8
0
  6
CONTINUOUS
 62
     7
100
AcDbLine
 10
3032.808128
 20
261.717891
 30
0.0
 11
3032.808128
 21
262.882891
 31
0.0
  0
LINE
  5
732
330
3CC
100
AcDbEntity
  8
0
  6
CONTINUOUS
 62
     7
100
AcDbLine
 10
3032.808128
 20
259.387891
 30
0.0
 11
3032.808128
 21
260.552891
 31
0.0
  0
LINE
  5
733
330
3CC
100
AcDbEntity
  8
0
  6
CONTINUOUS
 62
     7
100
AcDbLine
 10
3036.303128
 20
259.387891
 30
0.0
 11
3060.768128
 21
259.387891
 31
0.0
  0
LINE
  5
734
330
3CC
100
AcDbEntity
  8
0
  6
CONTINUOUS
 62
     7
100
AcDbLine
 10
3036.303128
 20
258.222891
 30
0.0
 11
3038.633128
 21
258.222891
 31
0.0
  0
LINE
  5
735
330
3CC
100
AcDbEntity
  8
0
  6
CONTINUOUS
 62
     7
100
AcDbLine
 10
3036.303128
 20
259.387891
 30
0.0
 11
3036.303128
 21
261.717891
 31
0.0
  0
LINE
  5
736
330
3CC
100
AcDbEntity
  8
0
  6
CONTINUOUS
 62
     7
100
AcDbLine
 10
3037.468128
 20
261.717891
 30
0.0
 11
3070.088128
 21
261.717891
 31
0.0
  0
LINE
  5
737
330
3CC
100
AcDbEntity
  8
0
  6
CONTINUOUS
 62
     7
100
AcDbLine
 10
3040.963128
 20
262.882891
 30
0.0
 11
3042.128128
 21
262.882891
 31
0.0
  0
LINE
  5
738
330
3CC
100
AcDbEntity
  8
0
  6
CONTINUOUS
 62
     7
100
AcDbLine
 10
3047.953128
 20
262.882891
 30
0.0
 11
3058.438128
 21
262.882891
 31
0.0
  0
LINE
  5
739
330
3CC
100
AcDbEntity
  8
0
  6
CONTINUOUS
 62
     7
100
AcDbLine
 10
3036.303128
 20
257.057891
 30
0.0
 11
3037.468128
 21
257.057891
 31
0.0
  0
LINE
  5
73A
330
3CC
100
AcDbEntity
  8
0
  6
CONTINUOUS
 62
     7
100
AcDbLine
 10
3053.778128
 20
255.892891
 30
0.0
 11
3056.108128
 21
255.892891
 31
0.0
  0
LINE
  5
73B
330
3CC
100
AcDbEntity
  8
0
  6
CONTINUOUS
 62
     7
100
AcDbLine
 10
3053.778128
 20
254.727891
 30
0.0
 11
3056.108128
 21
254.727891
 31
0.0
  0
LINE
  5
73C
330
3CC
100
AcDbEntity
  8
0
  6
CONTINUOUS
 62
     7
100
AcDbLine
 10
3049.118128
 20
250.067891
 30
0.0
 11
3059.603128
 21
250.067891
 31
0.0
  0
LINE
  5
73D
330
3CC
100
AcDbEntity
  8
0
  6
CONTINUOUS
 62
     7
100
AcDbLine
 10
3052.613128
 20
252.397891
 30
0.0
 11
3056.108128
 21
252.397891
 31
0.0
  0
LINE
  5
73E
330
3CC
100
AcDbEntity
  8
0
  6
CONTINUOUS
 62
     7
100
AcDbLine
 10
3050.283128
 20
251.232891
 30
0.0
 11
3051.448128
 21
251.232891
 31
0.0
  0
LINE
  5
73F
330
3CC
100
AcDbEntity
  8
0
  6
CONTINUOUS
 62
     7
100
AcDbLine
 10
3052.613128
 20
253.562891
 30
0.0
 11
3056.108128
 21
253.562891
 31
0.0
  0
LINE
  5
740
330
3CC
100
AcDbEntity
  8
0
  6
CONTINUOUS
 62
     7
100
AcDbLine
 10
3038.633128
 20
258.222891
 30
0.0
 11
3038.633128
 21
262.882891
 31
0.0
  0
LINE
  5
741
330
3CC
100
AcDbEntity
  8
0
  6
CONTINUOUS
 62
     7
100
AcDbLine
 10
3039.798128
 20
258.222891
 30
0.0
 11
3039.798128
 21
262.882891
 31
0.0
  0
LINE
  5
742
330
3CC
100
AcDbEntity
  8
0
  6
CONTINUOUS
 62
     7
100
AcDbLine
 10
3052.613128
 20
257.057891
 30
0.0
 11
3056.108128
 21
257.057891
 31
0.0
  0
LINE
  5
743
330
3CC
100
AcDbEntity
  8
0
  6
CONTINUOUS
 62
     7
100
AcDbLine
 10
3040.963128
 20
258.222891
 30
0.0
 11
3040.963128
 21
262.882891
 31
0.0
  0
LINE
  5
744
330
3CC
100
AcDbEntity
  8
0
  6
CONTINUOUS
 62
     7
100
AcDbLine
 10
3042.128128
 20
259.387891
 30
0.0
 11
3042.128128
 21
262.882891
 31
0.0
  0
LINE
  5
745
330
3CC
100
AcDbEntity
  8
0
  6
CONTINUOUS
 62
     7
100
AcDbLine
 10
3043.293128
 20
259.387891
 30
0.0
 11
3043.293128
 21
261.717891
 31
0.0
  0
LINE
  5
746
330
3CC
100
AcDbEntity
  8
0
  6
CONTINUOUS
 62
     7
100
AcDbLine
 10
3045.623128
 20
248.902891
 30
0.0
 11
3063.098128
 21
248.902891
 31
0.0
  0
LINE
  5
747
330
3CC
100
AcDbEntity
  8
0
  6
CONTINUOUS
 62
     7
100
AcDbLine
 10
3044.458128
 20
259.387891
 30
0.0
 11
3044.458128
 21
261.717891
 31
0.0
  0
LINE
  5
748
330
3CC
100
AcDbEntity
  8
0
  6
CONTINUOUS
 62
     7
100
AcDbLine
 10
3046.788128
 20
258.222891
 30
0.0
 11
3047.953128
 21
258.222891
 31
0.0
  0
LINE
  5
749
330
3CC
100
AcDbEntity
  8
0
  6
CONTINUOUS
 62
     7
100
AcDbLine
 10
3045.623128
 20
259.387891
 30
0.0
 11
3045.623128
 21
262.882891
 31
0.0
  0
LINE
  5
74A
330
3CC
100
AcDbEntity
  8
0
  6
CONTINUOUS
 62
     7
100
AcDbLine
 10
3046.788128
 20
258.222891
 30
0.0
 11
3046.788128
 21
262.882891
 31
0.0
  0
LINE
  5
74B
330
3CC
100
AcDbEntity
  8
0
  6
CONTINUOUS
 62
     7
100
AcDbLine
 10
3047.953128
 20
258.222891
 30
0.0
 11
3047.953128
 21
262.882891
 31
0.0
  0
LINE
  5
74C
330
3CC
100
AcDbEntity
  8
0
  6
CONTINUOUS
 62
     7
100
AcDbLine
 10
3049.118128
 20
259.387891
 30
0.0
 11
3049.118128
 21
264.047891
 31
0.0
  0
LINE
  5
74D
330
3CC
100
AcDbEntity
  8
0
  6
CONTINUOUS
 62
     7
100
AcDbLine
 10
3050.283128
 20
259.387891
 30
0.0
 11
3050.283128
 21
265.212891
 31
0.0
  0
LINE
  5
74E
330
3CC
100
AcDbEntity
  8
0
  6
CONTINUOUS
 62
     7
100
AcDbLine
 10
3051.448128
 20
258.222891
 30
0.0
 11
3057.273128
 21
258.222891
 31
0.0
  0
LINE
  5
74F
330
3CC
100
AcDbEntity
  8
0
  6
CONTINUOUS
 62
     7
100
AcDbLine
 10
3051.448128
 20
258.222891
 30
0.0
 11
3051.448128
 21
265.212891
 31
0.0
  0
LINE
  5
750
330
3CC
100
AcDbEntity
  8
0
  6
CONTINUOUS
 62
     7
100
AcDbLine
 10
3052.613128
 20
257.057891
 30
0.0
 11
3052.613128
 21
265.212891
 31
0.0
  0
LINE
  5
751
330
3CC
100
AcDbEntity
  8
0
  6
CONTINUOUS
 62
     7
100
AcDbLine
 10
3053.778128
 20
255.892891
 30
0.0
 11
3053.778128
 21
267.542891
 31
0.0
  0
LINE
  5
752
330
3CC
100
AcDbEntity
  8
0
  6
CONTINUOUS
 62
     7
100
AcDbLine
 10
3050.283128
 20
268.707891
 30
0.0
 11
3050.283128
 21
274.532891
 31
0.0
  0
LINE
  5
753
330
3CC
100
AcDbEntity
  8
0
  6
CONTINUOUS
 62
     7
100
AcDbLine
 10
3050.283128
 20
266.377891
 30
0.0
 11
3050.283128
 21
267.542891
 31
0.0
  0
LINE
  5
754
330
3CC
100
AcDbEntity
  8
0
  6
CONTINUOUS
 62
     7
100
AcDbLine
 10
3051.448128
 20
266.377891
 30
0.0
 11
3051.448128
 21
274.532891
 31
0.0
  0
LINE
  5
755
330
3CC
100
AcDbEntity
  8
0
  6
CONTINUOUS
 62
     7
100
AcDbLine
 10
3052.613128
 20
266.377891
 30
0.0
 11
3052.613128
 21
274.532891
 31
0.0
  0
LINE
  5
756
330
3CC
100
AcDbEntity
  8
0
  6
CONTINUOUS
 62
     7
100
AcDbLine
 10
3052.613128
 20
265.212891
 30
0.0
 11
3056.108128
 21
265.212891
 31
0.0
  0
LINE
  5
757
330
3CC
100
AcDbEntity
  8
0
  6
CONTINUOUS
 62
     7
100
AcDbLine
 10
3052.613128
 20
266.377891
 30
0.0
 11
3056.108128
 21
266.377891
 31
0.0
  0
LINE
  5
758
330
3CC
100
AcDbEntity
  8
0
  6
CONTINUOUS
 62
     7
100
AcDbLine
 10
3039.798128
 20
258.222891
 30
0.0
 11
3040.963128
 21
258.222891
 31
0.0
  0
LINE
  5
759
330
3CC
100
AcDbEntity
  8
0
  6
CONTINUOUS
 62
     7
100
AcDbLine
 10
3044.458128
 20
247.737891
 30
0.0
 11
3084.068128
 21
247.737891
 31
0.0
  0
LINE
  5
75A
330
3CC
100
AcDbEntity
  8
0
  6
CONTINUOUS
 62
     7
100
AcDbLine
 10
3052.613128
 20
251.232891
 30
0.0
 11
3056.108128
 21
251.232891
 31
0.0
  0
LINE
  5
75B
330
3CC
100
AcDbEntity
  8
0
  6
CONTINUOUS
 62
     7
100
AcDbLine
 10
3052.613128
 20
252.397891
 30
0.0
 11
3052.613128
 21
253.562891
 31
0.0
  0
LINE
  5
75C
330
3CC
100
AcDbEntity
  8
0
  6
CONTINUOUS
 62
     7
100
AcDbLine
 10
3032.808128
 20
250.067891
 30
0.0
 11
3032.808128
 21
251.232891
 31
0.0
  0
LINE
  5
75D
330
3CC
100
AcDbEntity
  8
0
  6
CONTINUOUS
 62
     7
100
AcDbLine
 10
3032.808128
 20
252.397891
 30
0.0
 11
3032.808128
 21
253.562891
 31
0.0
  0
LINE
  5
75E
330
3CC
100
AcDbEntity
  8
0
  6
CONTINUOUS
 62
     7
100
AcDbLine
 10
3032.808128
 20
254.727891
 30
0.0
 11
3032.808128
 21
255.892891
 31
0.0
  0
LINE
  5
75F
330
3CC
100
AcDbEntity
  8
0
  6
CONTINUOUS
 62
     7
100
AcDbLine
 10
3032.808128
 20
257.057891
 30
0.0
 11
3032.808128
 21
258.222891
 31
0.0
  0
LINE
  5
760
330
3CC
100
AcDbEntity
  8
0
  6
CONTINUOUS
 62
     7
100
AcDbLine
 10
3026.983128
 20
282.687891
 30
0.0
 11
3028.148128
 21
282.687891
 31
0.0
  0
LINE
  5
761
330
3CC
100
AcDbEntity
  8
0
  6
CONTINUOUS
 62
     7
100
AcDbLine
 10
3024.653128
 20
285.017891
 30
0.0
 11
3024.653128
 21
286.182891
 31
0.0
  0
LINE
  5
762
330
3CC
100
AcDbEntity
  8
0
  6
CONTINUOUS
 62
     7
100
AcDbLine
 10
3028.148128
 20
285.017891
 30
0.0
 11
3028.148128
 21
292.007891
 31
0.0
  0
LINE
  5
763
330
3CC
100
AcDbEntity
  8
0
  6
CONTINUOUS
 62
     7
100
AcDbLine
 10
3075.913128
 20
268.707891
 30
0.0
 11
3079.408128
 21
268.707891
 31
0.0
  0
LINE
  5
764
330
3CC
100
AcDbEntity
  8
0
  6
CONTINUOUS
 62
     7
100
AcDbLine
 10
3072.418128
 20
269.872891
 30
0.0
 11
3073.583128
 21
269.872891
 31
0.0
  0
LINE
  5
765
330
3CC
100
AcDbEntity
  8
0
  6
CONTINUOUS
 62
     7
100
AcDbLine
 10
3057.273128
 20
271.037891
 30
0.0
 11
3057.273128
 21
274.532891
 31
0.0
  0
LINE
  5
766
330
3CC
100
AcDbEntity
  8
0
  6
CONTINUOUS
 62
     7
100
AcDbLine
 10
3058.438128
 20
271.037891
 30
0.0
 11
3058.438128
 21
274.532891
 31
0.0
  0
LINE
  5
767
330
3CC
100
AcDbEntity
  8
0
  6
CONTINUOUS
 62
     7
100
AcDbLine
 10
3075.913128
 20
267.542891
 30
0.0
 11
3079.408128
 21
267.542891
 31
0.0
  0
LINE
  5
768
330
3CC
100
AcDbEntity
  8
0
  6
CONTINUOUS
 62
     7
100
AcDbLine
 10
3054.943128
 20
268.707891
 30
0.0
 11
3054.943128
 21
274.532891
 31
0.0
  0
LINE
  5
769
330
3CC
100
AcDbEntity
  8
0
  6
CONTINUOUS
 62
     7
100
AcDbLine
 10
3056.108128
 20
268.707891
 30
0.0
 11
3056.108128
 21
269.872891
 31
0.0
  0
LINE
  5
76A
330
3CC
100
AcDbEntity
  8
0
  6
CONTINUOUS
 62
     7
100
AcDbLine
 10
3053.778128
 20
268.707891
 30
0.0
 11
3053.778128
 21
274.532891
 31
0.0
  0
LINE
  5
76B
330
3CC
100
AcDbEntity
  8
0
  6
CONTINUOUS
 62
     7
100
AcDbLine
 10
3054.943128
 20
267.542891
 30
0.0
 11
3056.108128
 21
267.542891
 31
0.0
  0
LINE
  5
76C
330
3CC
100
AcDbEntity
  8
0
  6
CONTINUOUS
 62
     7
100
AcDbLine
 10
3054.943128
 20
268.707891
 30
0.0
 11
3056.108128
 21
268.707891
 31
0.0
  0
LINE
  5
76D
330
3CC
100
AcDbEntity
  8
0
  6
CONTINUOUS
 62
     7
100
AcDbLine
 10
3056.108128
 20
271.037891
 30
0.0
 11
3056.108128
 21
274.532891
 31
0.0
  0
LINE
  5
76E
330
3CC
100
AcDbEntity
  8
0
  6
CONTINUOUS
 62
     7
100
AcDbLine
 10
3056.108128
 20
266.377891
 30
0.0
 11
3056.108128
 21
267.542891
 31
0.0
  0
LINE
  5
76F
330
3CC
100
AcDbEntity
  8
0
  6
CONTINUOUS
 62
     7
100
AcDbLine
 10
3057.273128
 20
258.222891
 30
0.0
 11
3057.273128
 21
264.047891
 31
0.0
  0
LINE
  5
770
330
3CC
100
AcDbEntity
  8
0
  6
CONTINUOUS
 62
     7
100
AcDbLine
 10
3058.438128
 20
259.387891
 30
0.0
 11
3058.438128
 21
262.882891
 31
0.0
  0
LINE
  5
771
330
3CC
100
AcDbEntity
  8
0
  6
CONTINUOUS
 62
     7
100
AcDbLine
 10
3056.108128
 20
252.397891
 30
0.0
 11
3056.108128
 21
253.562891
 31
0.0
  0
LINE
  5
772
330
3CC
100
AcDbEntity
  8
0
  6
CONTINUOUS
 62
     7
100
AcDbLine
 10
3056.108128
 20
254.727891
 30
0.0
 11
3056.108128
 21
255.892891
 31
0.0
  0
LINE
  5
773
330
3CC
100
AcDbEntity
  8
0
  6
CONTINUOUS
 62
     7
100
AcDbLine
 10
3056.108128
 20
257.057891
 30
0.0
 11
3056.108128
 21
265.212891
 31
0.0
  0
LINE
  5
774
330
3CC
100
AcDbEntity
  8
0
  6
CONTINUOUS
 62
     7
100
AcDbLine
 10
3077.078128
 20
258.222891
 30
0.0
 11
3081.738128
 21
258.222891
 31
0.0
  0
LINE
  5
775
330
3CC
100
AcDbEntity
  8
0
  6
CONTINUOUS
 62
     7
100
AcDbLine
 10
3075.913128
 20
266.377891
 30
0.0
 11
3080.573128
 21
266.377891
 31
0.0
  0
LINE
  5
776
330
3CC
100
AcDbEntity
  8
0
  6
CONTINUOUS
 62
     7
100
AcDbLine
 10
3075.913128
 20
265.212891
 30
0.0
 11
3081.738128
 21
265.212891
 31
0.0
  0
LINE
  5
777
330
3CC
100
AcDbEntity
  8
0
  6
CONTINUOUS
 62
     7
100
AcDbLine
 10
3060.768128
 20
264.047891
 30
0.0
 11
3061.933128
 21
264.047891
 31
0.0
  0
LINE
  5
778
330
3CC
100
AcDbEntity
  8
0
  6
CONTINUOUS
 62
     7
100
AcDbLine
 10
3059.603128
 20
271.037891
 30
0.0
 11
3059.603128
 21
274.532891
 31
0.0
  0
LINE
  5
779
330
3CC
100
AcDbEntity
  8
0
  6
CONTINUOUS
 62
     7
100
AcDbLine
 10
3059.603128
 20
262.882891
 30
0.0
 11
3070.088128
 21
262.882891
 31
0.0
  0
LINE
  5
77A
330
3CC
100
AcDbEntity
  8
0
  6
CONTINUOUS
 62
     7
100
AcDbLine
 10
3060.768128
 20
271.037891
 30
0.0
 11
3060.768128
 21
274.532891
 31
0.0
  0
LINE
  5
77B
330
3CC
100
AcDbEntity
  8
0
  6
CONTINUOUS
 62
     7
100
AcDbLine
 10
3061.933128
 20
271.037891
 30
0.0
 11
3061.933128
 21
274.532891
 31
0.0
  0
LINE
  5
77C
330
3CC
100
AcDbEntity
  8
0
  6
CONTINUOUS
 62
     7
100
AcDbLine
 10
3063.098128
 20
271.037891
 30
0.0
 11
3063.098128
 21
274.532891
 31
0.0
  0
LINE
  5
77D
330
3CC
100
AcDbEntity
  8
0
  6
CONTINUOUS
 62
     7
100
AcDbLine
 10
3064.263128
 20
271.037891
 30
0.0
 11
3064.263128
 21
273.367891
 31
0.0
  0
LINE
  5
77E
330
3CC
100
AcDbEntity
  8
0
  6
CONTINUOUS
 62
     7
100
AcDbLine
 10
3075.913128
 20
264.047891
 30
0.0
 11
3081.738128
 21
264.047891
 31
0.0
  0
LINE
  5
77F
330
3CC
100
AcDbEntity
  8
0
  6
CONTINUOUS
 62
     7
100
AcDbLine
 10
3065.428128
 20
271.037891
 30
0.0
 11
3065.428128
 21
273.367891
 31
0.0
  0
LINE
  5
780
330
3CC
100
AcDbEntity
  8
0
  6
CONTINUOUS
 62
     7
100
AcDbLine
 10
3066.593128
 20
271.037891
 30
0.0
 11
3066.593128
 21
274.532891
 31
0.0
  0
LINE
  5
781
330
3CC
100
AcDbEntity
  8
0
  6
CONTINUOUS
 62
     7
100
AcDbLine
 10
3067.758128
 20
271.037891
 30
0.0
 11
3067.758128
 21
274.532891
 31
0.0
  0
LINE
  5
782
330
3CC
100
AcDbEntity
  8
0
  6
CONTINUOUS
 62
     7
100
AcDbLine
 10
3068.923128
 20
271.037891
 30
0.0
 11
3068.923128
 21
274.532891
 31
0.0
  0
LINE
  5
783
330
3CC
100
AcDbEntity
  8
0
  6
CONTINUOUS
 62
     7
100
AcDbLine
 10
3070.088128
 20
271.037891
 30
0.0
 11
3070.088128
 21
274.532891
 31
0.0
  0
LINE
  5
784
330
3CC
100
AcDbEntity
  8
0
  6
CONTINUOUS
 62
     7
100
AcDbLine
 10
3075.913128
 20
262.882891
 30
0.0
 11
3081.738128
 21
262.882891
 31
0.0
  0
LINE
  5
785
330
3CC
100
AcDbEntity
  8
0
  6
CONTINUOUS
 62
     7
100
AcDbLine
 10
3071.253128
 20
271.037891
 30
0.0
 11
3071.253128
 21
274.532891
 31
0.0
  0
LINE
  5
786
330
3CC
100
AcDbEntity
  8
0
  6
CONTINUOUS
 62
     7
100
AcDbLine
 10
3072.418128
 20
269.872891
 30
0.0
 11
3072.418128
 21
274.532891
 31
0.0
  0
LINE
  5
787
330
3CC
100
AcDbEntity
  8
0
  6
CONTINUOUS
 62
     7
100
AcDbLine
 10
3032.808128
 20
296.667891
 30
0.0
 11
3032.808128
 21
297.832891
 31
0.0
  0
LINE
  5
788
330
3CC
100
AcDbEntity
  8
0
  6
CONTINUOUS
 62
     7
100
AcDbLine
 10
3032.808128
 20
294.337891
 30
0.0
 11
3032.808128
 21
295.502891
 31
0.0
  0
LINE
  5
789
330
3CC
100
AcDbEntity
  8
0
  6
CONTINUOUS
 62
     7
100
AcDbLine
 10
3031.643128
 20
295.502891
 30
0.0
 11
3032.808128
 21
295.502891
 31
0.0
  0
LINE
  5
78A
330
3CC
100
AcDbEntity
  8
0
  6
CONTINUOUS
 62
     7
100
AcDbLine
 10
3029.313128
 20
294.337891
 30
0.0
 11
3029.313128
 21
295.502891
 31
0.0
  0
LINE
  5
78B
330
3CC
100
AcDbEntity
  8
0
  6
CONTINUOUS
 62
     7
100
AcDbLine
 10
3026.983128
 20
289.677891
 30
0.0
 11
3026.983128
 21
290.842891
 31
0.0
  0
LINE
  5
78C
330
3CC
100
AcDbEntity
  8
0
  6
CONTINUOUS
 62
     7
100
AcDbLine
 10
3030.478128
 20
289.677891
 30
0.0
 11
3030.478128
 21
295.502891
 31
0.0
  0
LINE
  5
78D
330
3CC
100
AcDbEntity
  8
0
  6
CONTINUOUS
 62
     7
100
AcDbLine
 10
3031.643128
 20
296.667891
 30
0.0
 11
3031.643128
 21
297.832891
 31
0.0
  0
LINE
  5
78E
330
3CC
100
AcDbEntity
  8
0
  6
CONTINUOUS
 62
     7
100
AcDbLine
 10
3061.933128
 20
296.667891
 30
0.0
 11
3067.758128
 21
296.667891
 31
0.0
  0
LINE
  5
78F
330
3CC
100
AcDbEntity
  8
0
  6
CONTINUOUS
 62
     7
100
AcDbLine
 10
3061.933128
 20
297.832891
 30
0.0
 11
3067.758128
 21
297.832891
 31
0.0
  0
LINE
  5
790
330
3CC
100
AcDbEntity
  8
0
  6
CONTINUOUS
 62
     7
100
AcDbLine
 10
3061.933128
 20
288.512891
 30
0.0
 11
3063.098128
 21
288.512891
 31
0.0
  0
LINE
  5
791
330
3CC
100
AcDbEntity
  8
0
  6
CONTINUOUS
 62
     7
100
AcDbLine
 10
3066.593128
 20
288.512891
 30
0.0
 11
3067.758128
 21
288.512891
 31
0.0
  0
LINE
  5
792
330
3CC
100
AcDbEntity
  8
0
  6
CONTINUOUS
 62
     7
100
AcDbLine
 10
3057.273128
 20
292.007891
 30
0.0
 11
3058.438128
 21
292.007891
 31
0.0
  0
LINE
  5
793
330
3CC
100
AcDbEntity
  8
0
  6
CONTINUOUS
 62
     7
100
AcDbLine
 10
3057.273128
 20
293.172891
 30
0.0
 11
3058.438128
 21
293.172891
 31
0.0
  0
LINE
  5
794
330
3CC
100
AcDbEntity
  8
0
  6
CONTINUOUS
 62
     7
100
AcDbLine
 10
3059.603128
 20
292.007891
 30
0.0
 11
3060.768128
 21
292.007891
 31
0.0
  0
LINE
  5
795
330
3CC
100
AcDbEntity
  8
0
  6
CONTINUOUS
 62
     7
100
AcDbLine
 10
3059.603128
 20
293.172891
 30
0.0
 11
3060.768128
 21
293.172891
 31
0.0
  0
LINE
  5
796
330
3CC
100
AcDbEntity
  8
0
  6
CONTINUOUS
 62
     7
100
AcDbLine
 10
3061.933128
 20
292.007891
 30
0.0
 11
3065.428128
 21
292.007891
 31
0.0
  0
LINE
  5
797
330
3CC
100
AcDbEntity
  8
0
  6
CONTINUOUS
 62
     7
100
AcDbLine
 10
3061.933128
 20
293.172891
 30
0.0
 11
3065.428128
 21
293.172891
 31
0.0
  0
LINE
  5
798
330
3CC
100
AcDbEntity
  8
0
  6
CONTINUOUS
 62
     7
100
AcDbLine
 10
3066.593128
 20
292.007891
 30
0.0
 11
3067.758128
 21
292.007891
 31
0.0
  0
LINE
  5
799
330
3CC
100
AcDbEntity
  8
0
  6
CONTINUOUS
 62
     7
100
AcDbLine
 10
3066.593128
 20
293.172891
 30
0.0
 11
3067.758128
 21
293.172891
 31
0.0
  0
LINE
  5
79A
330
3CC
100
AcDbEntity
  8
0
  6
CONTINUOUS
 62
     7
100
AcDbLine
 10
3064.263128
 20
288.512891
 30
0.0
 11
3065.428128
 21
288.512891
 31
0.0
  0
LINE
  5
79B
330
3CC
100
AcDbEntity
  8
0
  6
CONTINUOUS
 62
     7
100
AcDbLine
 10
3064.263128
 20
287.347891
 30
0.0
 11
3068.923128
 21
287.347891
 31
0.0
  0
LINE
  5
79C
330
3CC
100
AcDbEntity
  8
0
  6
CONTINUOUS
 62
     7
100
AcDbLine
 10
3040.963128
 20
282.687891
 30
0.0
 11
3046.788128
 21
282.687891
 31
0.0
  0
LINE
  5
79D
330
3CC
100
AcDbEntity
  8
0
  6
CONTINUOUS
 62
     7
100
AcDbLine
 10
3040.963128
 20
283.852891
 30
0.0
 11
3042.128128
 21
283.852891
 31
0.0
  0
LINE
  5
79E
330
3CC
100
AcDbEntity
  8
0
  6
CONTINUOUS
 62
     7
100
AcDbLine
 10
3051.448128
 20
311.812891
 30
0.0
 11
3052.613128
 21
311.812891
 31
0.0
  0
LINE
  5
79F
330
3CC
100
AcDbEntity
  8
0
  6
CONTINUOUS
 62
     7
100
AcDbLine
 10
3053.778128
 20
311.812891
 30
0.0
 11
3054.943128
 21
311.812891
 31
0.0
  0
LINE
  5
7A0
330
3CC
100
AcDbEntity
  8
0
  6
CONTINUOUS
 62
     7
100
AcDbLine
 10
3056.108128
 20
311.812891
 30
0.0
 11
3061.933128
 21
311.812891
 31
0.0
  0
LINE
  5
7A1
330
3CC
100
AcDbEntity
  8
0
  6
CONTINUOUS
 62
     7
100
AcDbLine
 10
3052.613128
 20
314.142891
 30
0.0
 11
3053.778128
 21
314.142891
 31
0.0
  0
LINE
  5
7A2
330
3CC
100
AcDbEntity
  8
0
  6
CONTINUOUS
 62
     7
100
AcDbLine
 10
3054.943128
 20
314.142891
 30
0.0
 11
3056.108128
 21
314.142891
 31
0.0
  0
LINE
  5
7A3
330
3CC
100
AcDbEntity
  8
0
  6
CONTINUOUS
 62
     7
100
AcDbLine
 10
3057.273128
 20
314.142891
 30
0.0
 11
3058.438128
 21
314.142891
 31
0.0
  0
LINE
  5
7A4
330
3CC
100
AcDbEntity
  8
0
  6
CONTINUOUS
 62
     7
100
AcDbLine
 10
3059.603128
 20
314.142891
 30
0.0
 11
3060.768128
 21
314.142891
 31
0.0
  0
LINE
  5
7A5
330
3CC
100
AcDbEntity
  8
0
  6
CONTINUOUS
 62
     7
100
AcDbLine
 10
3061.933128
 20
314.142891
 30
0.0
 11
3063.098128
 21
314.142891
 31
0.0
  0
LINE
  5
7A6
330
3CC
100
AcDbEntity
  8
0
  6
CONTINUOUS
 62
     7
100
AcDbLine
 10
3064.263128
 20
314.142891
 30
0.0
 11
3065.428128
 21
314.142891
 31
0.0
  0
LINE
  5
7A7
330
3CC
100
AcDbEntity
  8
0
  6
CONTINUOUS
 62
     7
100
AcDbLine
 10
3063.098128
 20
311.812891
 30
0.0
 11
3064.263128
 21
311.812891
 31
0.0
  0
LINE
  5
7A8
330
3CC
100
AcDbEntity
  8
0
  6
CONTINUOUS
 62
     7
100
AcDbLine
 10
3066.593128
 20
312.977891
 30
0.0
 11
3067.758128
 21
312.977891
 31
0.0
  0
LINE
  5
7A9
330
3CC
100
AcDbEntity
  8
0
  6
CONTINUOUS
 62
     7
100
AcDbLine
 10
3068.923128
 20
312.977891
 30
0.0
 11
3070.088128
 21
312.977891
 31
0.0
  0
LINE
  5
7AA
330
3CC
100
AcDbEntity
  8
0
  6
CONTINUOUS
 62
     7
100
AcDbLine
 10
3068.923128
 20
312.977891
 30
0.0
 11
3068.923128
 21
314.142891
 31
0.0
  0
LINE
  5
7AB
330
3CC
100
AcDbEntity
  8
0
  6
CONTINUOUS
 62
     7
100
AcDbLine
 10
3066.593128
 20
314.142891
 30
0.0
 11
3067.758128
 21
314.142891
 31
0.0
  0
LINE
  5
7AC
330
3CC
100
AcDbEntity
  8
0
  6
CONTINUOUS
 62
     7
100
AcDbLine
 10
3068.923128
 20
314.142891
 30
0.0
 11
3070.088128
 21
314.142891
 31
0.0
  0
LINE
  5
7AD
330
3CC
100
AcDbEntity
  8
0
  6
CONTINUOUS
 62
     7
100
AcDbLine
 10
3073.583128
 20
269.872891
 30
0.0
 11
3073.583128
 21
274.532891
 31
0.0
  0
LINE
  5
7AE
330
3CC
100
AcDbEntity
  8
0
  6
CONTINUOUS
 62
     7
100
AcDbLine
 10
3074.748128
 20
269.872891
 30
0.0
 11
3074.748128
 21
274.532891
 31
0.0
  0
LINE
  5
7AF
330
3CC
100
AcDbEntity
  8
0
  6
CONTINUOUS
 62
     7
100
AcDbLine
 10
3075.913128
 20
261.717891
 30
0.0
 11
3075.913128
 21
262.882891
 31
0.0
  0
LINE
  5
7B0
330
3CC
100
AcDbEntity
  8
0
  6
CONTINUOUS
 62
     7
100
AcDbLine
 10
3077.078128
 20
255.892891
 30
0.0
 11
3077.078128
 21
257.057891
 31
0.0
  0
LINE
  5
7B1
330
3CC
100
AcDbEntity
  8
0
  6
CONTINUOUS
 62
     7
100
AcDbLine
 10
3075.913128
 20
261.717891
 30
0.0
 11
3081.738128
 21
261.717891
 31
0.0
  0
LINE
  5
7B2
330
3CC
100
AcDbEntity
  8
0
  6
CONTINUOUS
 62
     7
100
AcDbLine
 10
3077.078128
 20
260.552891
 30
0.0
 11
3081.738128
 21
260.552891
 31
0.0
  0
LINE
  5
7B3
330
3CC
100
AcDbEntity
  8
0
  6
CONTINUOUS
 62
     7
100
AcDbLine
 10
3077.078128
 20
259.387891
 30
0.0
 11
3081.738128
 21
259.387891
 31
0.0
  0
LINE
  5
7B4
330
3CC
100
AcDbEntity
  8
0
  6
CONTINUOUS
 62
     7
100
AcDbLine
 10
3077.078128
 20
260.552891
 30
0.0
 11
3077.078128
 21
272.202891
 31
0.0
  0
LINE
  5
7B5
330
3CC
100
AcDbEntity
  8
0
  6
CONTINUOUS
 62
     7
100
AcDbLine
 10
3074.748128
 20
269.872891
 30
0.0
 11
3079.408128
 21
269.872891
 31
0.0
  0
LINE
  5
7B6
330
3CC
100
AcDbEntity
  8
0
  6
CONTINUOUS
 62
     7
100
AcDbLine
 10
3075.913128
 20
268.707891
 30
0.0
 11
3075.913128
 21
273.367891
 31
0.0
  0
LINE
  5
7B7
330
3CC
100
AcDbEntity
  8
0
  6
CONTINUOUS
 62
     7
100
AcDbLine
 10
3075.913128
 20
266.377891
 30
0.0
 11
3075.913128
 21
267.542891
 31
0.0
  0
LINE
  5
7B8
330
3CC
100
AcDbEntity
  8
0
  6
CONTINUOUS
 62
     7
100
AcDbLine
 10
3075.913128
 20
264.047891
 30
0.0
 11
3075.913128
 21
265.212891
 31
0.0
  0
LINE
  5
7B9
330
3CC
100
AcDbEntity
  8
0
  6
CONTINUOUS
 62
     7
100
AcDbLine
 10
3070.088128
 20
261.717891
 30
0.0
 11
3070.088128
 21
262.882891
 31
0.0
  0
LINE
  5
7BA
330
3CC
100
AcDbEntity
  8
0
  6
CONTINUOUS
 62
     7
100
AcDbLine
 10
3077.078128
 20
257.057891
 30
0.0
 11
3082.903128
 21
257.057891
 31
0.0
  0
LINE
  5
7BB
330
3CC
100
AcDbEntity
  8
0
  6
CONTINUOUS
 62
     7
100
AcDbLine
 10
3077.078128
 20
258.222891
 30
0.0
 11
3077.078128
 21
259.387891
 31
0.0
  0
LINE
  5
7BC
330
3CC
100
AcDbEntity
  8
0
  6
CONTINUOUS
 62
     7
100
AcDbLine
 10
3077.078128
 20
255.892891
 30
0.0
 11
3082.903128
 21
255.892891
 31
0.0
  0
LINE
  5
7BD
330
3CC
100
AcDbEntity
  8
0
  6
CONTINUOUS
 62
     7
100
AcDbLine
 10
3059.603128
 20
259.387891
 30
0.0
 11
3059.603128
 21
262.882891
 31
0.0
  0
LINE
  5
7BE
330
3CC
100
AcDbEntity
  8
0
  6
CONTINUOUS
 62
     7
100
AcDbLine
 10
3060.768128
 20
259.387891
 30
0.0
 11
3060.768128
 21
264.047891
 31
0.0
  0
LINE
  5
7BF
330
3CC
100
AcDbEntity
  8
0
  6
CONTINUOUS
 62
     7
100
AcDbLine
 10
3078.243128
 20
254.727891
 30
0.0
 11
3082.903128
 21
254.727891
 31
0.0
  0
LINE
  5
7C0
330
3CC
100
AcDbEntity
  8
0
  6
CONTINUOUS
 62
     7
100
AcDbLine
 10
3078.243128
 20
253.562891
 30
0.0
 11
3084.068128
 21
253.562891
 31
0.0
  0
LINE
  5
7C1
330
3CC
100
AcDbEntity
  8
0
  6
CONTINUOUS
 62
     7
100
AcDbLine
 10
3078.243128
 20
252.397891
 30
0.0
 11
3084.068128
 21
252.397891
 31
0.0
  0
LINE
  5
7C2
330
3CC
100
AcDbEntity
  8
0
  6
CONTINUOUS
 62
     7
100
AcDbLine
 10
3078.243128
 20
251.232891
 30
0.0
 11
3082.903128
 21
251.232891
 31
0.0
  0
LINE
  5
7C3
330
3CC
100
AcDbEntity
  8
0
  6
CONTINUOUS
 62
     7
100
AcDbLine
 10
3078.243128
 20
252.397891
 30
0.0
 11
3078.243128
 21
253.562891
 31
0.0
  0
LINE
  5
7C4
330
3CC
100
AcDbEntity
  8
0
  6
CONTINUOUS
 62
     7
100
AcDbLine
 10
3078.243128
 20
254.727891
 30
0.0
 11
3078.243128
 21
271.037891
 31
0.0
  0
LINE
  5
7C5
330
3CC
100
AcDbEntity
  8
0
  6
CONTINUOUS
 62
     7
100
AcDbLine
 10
3057.273128
 20
251.232891
 30
0.0
 11
3058.438128
 21
251.232891
 31
0.0
  0
LINE
  5
7C6
330
3CC
100
AcDbEntity
  8
0
  6
CONTINUOUS
 62
     7
100
AcDbLine
 10
3077.078128
 20
250.067891
 30
0.0
 11
3081.738128
 21
250.067891
 31
0.0
  0
LINE
  5
7C7
330
3CC
100
AcDbEntity
  8
0
  6
CONTINUOUS
 62
     7
100
AcDbLine
 10
3061.933128
 20
259.387891
 30
0.0
 11
3061.933128
 21
264.047891
 31
0.0
  0
LINE
  5
7C8
330
3CC
100
AcDbEntity
  8
0
  6
CONTINUOUS
 62
     7
100
AcDbLine
 10
3063.098128
 20
259.387891
 30
0.0
 11
3063.098128
 21
262.882891
 31
0.0
  0
LINE
  5
7C9
330
3CC
100
AcDbEntity
  8
0
  6
CONTINUOUS
 62
     7
100
AcDbLine
 10
3064.263128
 20
259.387891
 30
0.0
 11
3064.263128
 21
262.882891
 31
0.0
  0
LINE
  5
7CA
330
3CC
100
AcDbEntity
  8
0
  6
CONTINUOUS
 62
     7
100
AcDbLine
 10
3065.428128
 20
259.387891
 30
0.0
 11
3065.428128
 21
262.882891
 31
0.0
  0
LINE
  5
7CB
330
3CC
100
AcDbEntity
  8
0
  6
CONTINUOUS
 62
     7
100
AcDbLine
 10
3066.593128
 20
259.387891
 30
0.0
 11
3066.593128
 21
262.882891
 31
0.0
  0
LINE
  5
7CC
330
3CC
100
AcDbEntity
  8
0
  6
CONTINUOUS
 62
     7
100
AcDbLine
 10
3067.758128
 20
259.387891
 30
0.0
 11
3067.758128
 21
262.882891
 31
0.0
  0
LINE
  5
7CD
330
3CC
100
AcDbEntity
  8
0
  6
CONTINUOUS
 62
     7
100
AcDbLine
 10
3068.923128
 20
260.552891
 30
0.0
 11
3068.923128
 21
262.882891
 31
0.0
  0
LINE
  5
7CE
330
3CC
100
AcDbEntity
  8
0
  6
CONTINUOUS
 62
     7
100
AcDbLine
 10
3066.593128
 20
259.387891
 30
0.0
 11
3067.758128
 21
259.387891
 31
0.0
  0
LINE
  5
7CF
330
3CC
100
AcDbEntity
  8
0
  6
CONTINUOUS
 62
     7
100
AcDbLine
 10
3064.263128
 20
259.387891
 30
0.0
 11
3065.428128
 21
259.387891
 31
0.0
  0
LINE
  5
7D0
330
3CC
100
AcDbEntity
  8
0
  6
CONTINUOUS
 62
     7
100
AcDbLine
 10
3061.933128
 20
259.387891
 30
0.0
 11
3063.098128
 21
259.387891
 31
0.0
  0
LINE
  5
7D1
330
3CC
100
AcDbEntity
  8
0
  6
CONTINUOUS
 62
     7
100
AcDbLine
 10
3075.913128
 20
248.902891
 30
0.0
 11
3081.738128
 21
248.902891
 31
0.0
  0
LINE
  5
7D2
330
3CC
100
AcDbEntity
  8
0
  6
CONTINUOUS
 62
     7
100
AcDbLine
 10
3073.583128
 20
248.902891
 30
0.0
 11
3074.748128
 21
248.902891
 31
0.0
  0
LINE
  5
7D3
330
3CC
100
AcDbEntity
  8
0
  6
CONTINUOUS
 62
     7
100
AcDbLine
 10
3071.253128
 20
248.902891
 30
0.0
 11
3072.418128
 21
248.902891
 31
0.0
  0
LINE
  5
7D4
330
3CC
100
AcDbEntity
  8
0
  6
CONTINUOUS
 62
     7
100
AcDbLine
 10
3068.923128
 20
248.902891
 30
0.0
 11
3070.088128
 21
248.902891
 31
0.0
  0
LINE
  5
7D5
330
3CC
100
AcDbEntity
  8
0
  6
CONTINUOUS
 62
     7
100
AcDbLine
 10
3066.593128
 20
248.902891
 30
0.0
 11
3067.758128
 21
248.902891
 31
0.0
  0
LINE
  5
7D6
330
3CC
100
AcDbEntity
  8
0
  6
CONTINUOUS
 62
     7
100
AcDbLine
 10
3064.263128
 20
248.902891
 30
0.0
 11
3065.428128
 21
248.902891
 31
0.0
  0
LINE
  5
7D7
330
3CC
100
AcDbEntity
  8
0
  6
CONTINUOUS
 62
     7
100
AcDbLine
 10
3063.098128
 20
244.242891
 30
0.0
 11
3087.563128
 21
244.242891
 31
0.0
  0
LINE
  5
7D8
330
3CC
100
AcDbEntity
  8
0
  6
CONTINUOUS
 62
     7
100
AcDbLine
 10
3053.778128
 20
328.122891
 30
0.0
 11
3054.943128
 21
328.122891
 31
0.0
  0
LINE
  5
7D9
330
3CC
100
AcDbEntity
  8
0
  6
CONTINUOUS
 62
     7
100
AcDbLine
 10
3051.448128
 20
328.122891
 30
0.0
 11
3052.613128
 21
328.122891
 31
0.0
  0
LINE
  5
7DA
330
3CC
100
AcDbEntity
  8
0
  6
CONTINUOUS
 62
     7
100
AcDbLine
 10
3056.108128
 20
328.122891
 30
0.0
 11
3074.748128
 21
328.122891
 31
0.0
  0
LINE
  5
7DB
330
3CC
100
AcDbEntity
  8
0
  6
CONTINUOUS
 62
     7
100
AcDbLine
 10
3105.038128
 20
285.017891
 30
0.0
 11
3105.038128
 21
286.182891
 31
0.0
  0
LINE
  5
7DC
330
3CC
100
AcDbEntity
  8
0
  6
CONTINUOUS
 62
     7
100
AcDbLine
 10
3105.038128
 20
282.687891
 30
0.0
 11
3105.038128
 21
283.852891
 31
0.0
  0
LINE
  5
7DD
330
3CC
100
AcDbEntity
  8
0
  6
CONTINUOUS
 62
     7
100
AcDbLine
 10
3105.038128
 20
280.357891
 30
0.0
 11
3105.038128
 21
281.522891
 31
0.0
  0
LINE
  5
7DE
330
3CC
100
AcDbEntity
  8
0
  6
CONTINUOUS
 62
     7
100
AcDbLine
 10
3105.038128
 20
278.027891
 30
0.0
 11
3105.038128
 21
279.192891
 31
0.0
  0
LINE
  5
7DF
330
3CC
100
AcDbEntity
  8
0
  6
CONTINUOUS
 62
     7
100
AcDbLine
 10
3105.038128
 20
275.697891
 30
0.0
 11
3105.038128
 21
276.862891
 31
0.0
  0
LINE
  5
7E0
330
3CC
100
AcDbEntity
  8
0
  6
CONTINUOUS
 62
     7
100
AcDbLine
 10
3105.038128
 20
287.347891
 30
0.0
 11
3105.038128
 21
288.512891
 31
0.0
  0
LINE
  5
7E1
330
3CC
100
AcDbEntity
  8
0
  6
CONTINUOUS
 62
     7
100
AcDbLine
 10
3103.873128
 20
290.842891
 30
0.0
 11
3103.873128
 21
292.007891
 31
0.0
  0
LINE
  5
7E2
330
3CC
100
AcDbEntity
  8
0
  6
CONTINUOUS
 62
     7
100
AcDbLine
 10
3098.048128
 20
308.317891
 30
0.0
 11
3098.048128
 21
309.482891
 31
0.0
  0
LINE
  5
7E3
330
3CC
100
AcDbEntity
  8
0
  6
CONTINUOUS
 62
     7
100
AcDbLine
 10
3096.883128
 20
309.482891
 30
0.0
 11
3098.048128
 21
309.482891
 31
0.0
  0
LINE
  5
7E4
330
3CC
100
AcDbEntity
  8
0
  6
CONTINUOUS
 62
     7
100
AcDbLine
 10
3102.708128
 20
296.667891
 30
0.0
 11
3102.708128
 21
297.832891
 31
0.0
  0
LINE
  5
7E5
330
3CC
100
AcDbEntity
  8
0
  6
CONTINUOUS
 62
     7
100
AcDbLine
 10
3094.553128
 20
311.812891
 30
0.0
 11
3095.718128
 21
311.812891
 31
0.0
  0
LINE
  5
7E6
330
3CC
100
AcDbEntity
  8
0
  6
CONTINUOUS
 62
     7
100
AcDbLine
 10
3095.718128
 20
310.647891
 30
0.0
 11
3095.718128
 21
311.812891
 31
0.0
  0
LINE
  5
7E7
330
3CC
100
AcDbEntity
  8
0
  6
CONTINUOUS
 62
     7
100
AcDbLine
 10
3060.768128
 20
230.262891
 30
0.0
 11
3061.933128
 21
230.262891
 31
0.0
  0
LINE
  5
7E8
330
3CC
100
AcDbEntity
  8
0
  6
CONTINUOUS
 62
     7
100
AcDbLine
 10
3058.438128
 20
230.262891
 30
0.0
 11
3059.603128
 21
230.262891
 31
0.0
  0
LINE
  5
7E9
330
3CC
100
AcDbEntity
  8
0
  6
CONTINUOUS
 62
     7
100
AcDbLine
 10
3056.108128
 20
230.262891
 30
0.0
 11
3057.273128
 21
230.262891
 31
0.0
  0
LINE
  5
7EA
330
3CC
100
AcDbEntity
  8
0
  6
CONTINUOUS
 62
     7
100
AcDbLine
 10
3053.778128
 20
230.262891
 30
0.0
 11
3054.943128
 21
230.262891
 31
0.0
  0
LINE
  5
7EB
330
3CC
100
AcDbEntity
  8
0
  6
CONTINUOUS
 62
     7
100
AcDbLine
 10
3051.448128
 20
230.262891
 30
0.0
 11
3052.613128
 21
230.262891
 31
0.0
  0
LINE
  5
7EC
330
3CC
100
AcDbEntity
  8
0
  6
CONTINUOUS
 62
     7
100
AcDbLine
 10
3049.118128
 20
230.262891
 30
0.0
 11
3050.283128
 21
230.262891
 31
0.0
  0
LINE
  5
7ED
330
3CC
100
AcDbEntity
  8
0
  6
CONTINUOUS
 62
     7
100
AcDbLine
 10
3066.593128
 20
231.427891
 30
0.0
 11
3067.758128
 21
231.427891
 31
0.0
  0
LINE
  5
7EE
330
3CC
100
AcDbEntity
  8
0
  6
CONTINUOUS
 62
     7
100
AcDbLine
 10
3085.233128
 20
240.747891
 30
0.0
 11
3086.398128
 21
240.747891
 31
0.0
  0
LINE
  5
7EF
330
3CC
100
AcDbEntity
  8
0
  6
CONTINUOUS
 62
     7
100
AcDbLine
 10
3086.398128
 20
243.077891
 30
0.0
 11
3086.398128
 21
250.067891
 31
0.0
  0
LINE
  5
7F0
330
3CC
100
AcDbEntity
  8
0
  6
CONTINUOUS
 62
     7
100
AcDbLine
 10
3095.718128
 20
252.397891
 30
0.0
 11
3095.718128
 21
261.717891
 31
0.0
  0
LINE
  5
7F1
330
3CC
100
AcDbEntity
  8
0
  6
CONTINUOUS
 62
     7
100
AcDbLine
 10
3094.553128
 20
250.067891
 30
0.0
 11
3095.718128
 21
250.067891
 31
0.0
  0
LINE
  5
7F2
330
3CC
100
AcDbEntity
  8
0
  6
CONTINUOUS
 62
     7
100
AcDbLine
 10
3093.388128
 20
250.067891
 30
0.0
 11
3093.388128
 21
259.387891
 31
0.0
  0
LINE
  5
7F3
330
3CC
100
AcDbEntity
  8
0
  6
CONTINUOUS
 62
     7
100
AcDbLine
 10
3092.223128
 20
247.737891
 30
0.0
 11
3093.388128
 21
247.737891
 31
0.0
  0
LINE
  5
7F4
330
3CC
100
AcDbEntity
  8
0
  6
CONTINUOUS
 62
     7
100
AcDbLine
 10
3040.963128
 20
231.427891
 30
0.0
 11
3042.128128
 21
231.427891
 31
0.0
  0
LINE
  5
7F5
330
3CC
100
AcDbEntity
  8
0
  6
CONTINUOUS
 62
     7
100
AcDbLine
 10
3043.293128
 20
231.427891
 30
0.0
 11
3065.428128
 21
231.427891
 31
0.0
  0
LINE
  5
7F6
330
3CC
100
AcDbEntity
  8
0
  6
CONTINUOUS
 62
     7
100
AcDbLine
 10
3092.223128
 20
314.142891
 30
0.0
 11
3093.388128
 21
314.142891
 31
0.0
  0
LINE
  5
7F7
330
3CC
100
AcDbEntity
  8
0
  6
CONTINUOUS
 62
     7
100
AcDbLine
 10
3089.893128
 20
316.472891
 30
0.0
 11
3091.058128
 21
316.472891
 31
0.0
  0
LINE
  5
7F8
330
3CC
100
AcDbEntity
  8
0
  6
CONTINUOUS
 62
     7
100
AcDbLine
 10
3088.728128
 20
317.637891
 30
0.0
 11
3088.728128
 21
318.802891
 31
0.0
  0
LINE
  5
7F9
330
3CC
100
AcDbEntity
  8
0
  6
CONTINUOUS
 62
     7
100
AcDbLine
 10
3100.378128
 20
301.327891
 30
0.0
 11
3100.378128
 21
302.492891
 31
0.0
  0
LINE
  5
7FA
330
3CC
100
AcDbEntity
  8
0
  6
CONTINUOUS
 62
     7
100
AcDbLine
 10
3099.213128
 20
302.492891
 30
0.0
 11
3100.378128
 21
302.492891
 31
0.0
  0
LINE
  5
7FB
330
3CC
100
AcDbEntity
  8
0
  6
CONTINUOUS
 62
     7
100
AcDbLine
 10
3098.048128
 20
303.657891
 30
0.0
 11
3098.048128
 21
304.822891
 31
0.0
  0
LINE
  5
7FC
330
3CC
100
AcDbEntity
  8
0
  6
CONTINUOUS
 62
     7
100
AcDbLine
 10
3098.048128
 20
305.987891
 30
0.0
 11
3098.048128
 21
307.152891
 31
0.0
  0
LINE
  5
7FD
330
3CC
100
AcDbEntity
  8
0
  6
CONTINUOUS
 62
     7
100
AcDbLine
 10
3006.013128
 20
266.377891
 30
0.0
 11
3009.508128
 21
266.377891
 31
0.0
  0
LINE
  5
7FE
330
3CC
100
AcDbEntity
  8
0
  6
CONTINUOUS
 62
     7
100
AcDbLine
 10
3003.683128
 20
268.707891
 30
0.0
 11
3003.683128
 21
281.522891
 31
0.0
  0
LINE
  5
7FF
330
3CC
100
AcDbEntity
  8
0
  6
CONTINUOUS
 62
     7
100
AcDbLine
 10
3015.333128
 20
250.067891
 30
0.0
 11
3015.333128
 21
257.057891
 31
0.0
  0
LINE
  5
800
330
3CC
100
AcDbEntity
  8
0
  6
CONTINUOUS
 62
     7
100
AcDbLine
 10
3010.673128
 20
257.057891
 30
0.0
 11
3010.673128
 21
264.047891
 31
0.0
  0
LINE
  5
801
330
3CC
100
AcDbEntity
  8
0
  6
CONTINUOUS
 62
     7
100
AcDbLine
 10
3008.343128
 20
261.717891
 30
0.0
 11
3008.343128
 21
271.037891
 31
0.0
  0
LINE
  5
802
330
3CC
100
AcDbEntity
  8
0
  6
CONTINUOUS
 62
     7
100
AcDbLine
 10
3063.098128
 20
331.617891
 30
0.0
 11
3064.263128
 21
331.617891
 31
0.0
  0
LINE
  5
803
330
3CC
100
AcDbEntity
  8
0
  6
CONTINUOUS
 62
     7
100
AcDbLine
 10
3082.903128
 20
323.462891
 30
0.0
 11
3084.068128
 21
323.462891
 31
0.0
  0
LINE
  5
804
330
3CC
100
AcDbEntity
  8
0
  6
CONTINUOUS
 62
     7
100
AcDbLine
 10
3093.388128
 20
312.977891
 30
0.0
 11
3093.388128
 21
314.142891
 31
0.0
  0
ENDBLK
  5
3CE
330
3CC
100
AcDbEntity
  8
0
100
AcDbBlockEnd
  0
ENDSEC
  0
SECTION
  2
ENTITIES
  0
INSERT
  5
F1
330
1F
100
AcDbEntity
  8
0
100
AcDbBlockReference
  2
BLKF014
 10
0.0
 20
0.0
 30
0.0
  0
TEXT
  5
196
330
1F
100
AcDbEntity
  8
0
  6
CONTINUOUS
 62
     5
100
AcDbText
 10
1953.163086
 20
1480.537598
 30
0.0
 40
40.0
  1
フットスイッチ（ＵＰ・ＤＯＷＮ）
 41
0.75
  7
ED_VECTOR
100
AcDbText
  0
TEXT
  5
197
330
1F
100
AcDbEntity
  8
0
  6
CONTINUOUS
 62
     5
100
AcDbText
 10
2093.163086
 20
1425.291992
 30
0.0
 40
40.0
  1
コード長サ ２ｍ
 41
0.75
  7
ED_VECTOR
100
AcDbText
  0
LINE
  5
198
330
1F
100
AcDbEntity
  8
0
  6
CENTER
 62
     5
100
AcDbLine
 10
1054.890502
 20
1813.364712
 30
0.0
 11
1955.864347
 21
1813.364712
 31
0.0
  0
ARC
  5
199
330
1F
100
AcDbEntity
  8
0
  6
CONTINUOUS
 62
     3
100
AcDbCircle
 10
2140.513636
 20
1801.864712
 30
0.0
 40
40.0
100
AcDbArc
 50
68.451184
 51
35.020142
  0
ARC
  5
19A
330
1F
100
AcDbEntity
  8
0
  6
CONTINUOUS
 62
     3
100
AcDbCircle
 10
2140.513636
 20
1801.864712
 30
0.0
 40
47.0
100
AcDbArc
 50
67.795427
 51
16.862694
  0
ARC
  5
19B
330
1F
100
AcDbEntity
  8
0
  6
CONTINUOUS
 62
     3
100
AcDbCircle
 10
2099.756462
 20
1900.364712
 30
0.0
 40
30.0
100
AcDbArc
 50
330.650201
 51
300.0
  0
ARC
  5
19C
330
1F
100
AcDbEntity
  8
0
  6
CONTINUOUS
 62
     3
100
AcDbCircle
 10
2099.756462
 20
1900.364712
 30
0.0
 40
37.0
100
AcDbArc
 50
345.857154
 51
300.0
  0
LINE
  5
19D
330
1F
100
AcDbEntity
  8
0
  6
CONTINUOUS
 62
     3
100
AcDbLine
 10
2244.869689
 20
1941.421953
 30
0.0
 11
2118.256462
 21
1868.321772
 31
0.0
  0
LINE
  5
19E
330
1F
100
AcDbEntity
  8
0
  6
CONTINUOUS
 62
     3
100
AcDbLine
 10
2241.369689
 20
1947.484131
 30
0.0
 11
2114.756462
 21
1874.38395
 31
0.0
  0
LINE
  5
19F
330
1F
100
AcDbEntity
  8
0
  6
CONTINUOUS
 62
     3
100
AcDbLine
 10
2158.275626
 20
1845.379212
 30
0.0
 11
2291.100379
 21
1768.692806
 31
0.0
  0
LINE
  5
1A0
330
1F
100
AcDbEntity
  8
0
  6
CONTINUOUS
 62
     3
100
AcDbLine
 10
2155.205388
 20
1839.068911
 30
0.0
 11
2287.600379
 21
1762.630628
 31
0.0
  0
LINE
  5
1A1
330
1F
100
AcDbEntity
  8
0
  6
CONTINUOUS
 62
     3
100
AcDbLine
 10
1932.539812
 20
1870.364712
 30
0.0
 11
2070.079754
 21
1870.364712
 31
0.0
  0
LINE
  5
1A2
330
1F
100
AcDbEntity
  8
0
  6
CONTINUOUS
 62
     3
100
AcDbLine
 10
1932.539812
 20
1863.364712
 30
0.0
 11
2079.84192
 21
1863.364712
 31
0.0
  0
LINE
  5
1A3
330
1F
100
AcDbEntity
  8
0
  6
CONTINUOUS
 62
     3
100
AcDbLine
 10
1932.539812
 20
1848.364712
 30
0.0
 11
2121.228911
 21
1848.364712
 31
0.0
  0
LINE
  5
1A4
330
1F
100
AcDbEntity
  8
0
  6
CONTINUOUS
 62
     3
100
AcDbLine
 10
1932.539812
 20
1841.364712
 30
0.0
 11
2110.52202
 21
1841.364712
 31
0.0
  0
LINE
  5
1A5
330
1F
100
AcDbEntity
  8
0
  6
CONTINUOUS
 62
     5
100
AcDbLine
 10
1943.385361
 20
1472.119054
 30
0.0
 11
2537.612269
 21
1472.119054
 31
0.0
  0
LINE
  5
1A6
330
1F
100
AcDbEntity
  8
0
  6
CONTINUOUS
 62
     5
100
AcDbLine
 10
2390.979227
 20
1747.688046
 30
0.0
 11
2537.612269
 21
1472.119054
 31
0.0
  0
INSERT
  5
1A7
330
1F
100
AcDbEntity
  8
0
  6
CONTINUOUS
 62
     5
100
AcDbBlockReference
  2
EDTIP_ARROW_S
 10
2390.979227
 20
1747.688046
 30
0.0
 41
30.0
 42
30.0
 50
118.017894
  0
DIMENSION
  5
1A8
330
1F
100
AcDbEntity
  8
0
100
AcDbDimension
  2
*D12
 10
1932.539812
 20
1314.817774
 30
0.0
 11
1507.539795
 21
1324.817749
 31
0.0
 70
    33
  3
EDDIMINFO
100
AcDbAlignedDimension
 13
1082.539812
 23
1223.817774
 33
0.0
 14
1932.539812
 24
1223.817774
 34
0.0
1001
ACAD
1000
DSTYLE
1002
{
1070
     7
1000
EDTIP_ARROW_E
1070
     6
1000
EDTIP_ARROW_S
1070
   173
1070
     1
1002
}
  0
LINE
  5
1B2
330
1F
100
AcDbEntity
  8
0
  6
CONTINUOUS
 62
     3
100
AcDbLine
 10
1082.539812
 20
1553.364712
 30
0.0
 11
1082.539812
 21
2073.364712
 31
0.0
  0
LINE
  5
1B3
330
1F
100
AcDbEntity
  8
0
  6
CONTINUOUS
 62
     3
100
AcDbLine
 10
1932.539812
 20
1553.364712
 30
0.0
 11
1932.539812
 21
2073.364712
 31
0.0
  0
LINE
  5
1B4
330
1F
100
AcDbEntity
  8
0
  6
CONTINUOUS
 62
     3
100
AcDbLine
 10
1082.539812
 20
2073.364712
 30
0.0
 11
1932.539812
 21
2073.364712
 31
0.0
  0
LINE
  5
1B5
330
1F
100
AcDbEntity
  8
0
  6
CONTINUOUS
 62
     3
100
AcDbLine
 10
1082.539812
 20
1553.364712
 30
0.0
 11
1932.539812
 21
1553.364712
 31
0.0
  0
DIMENSION
  5
1B6
330
1F
100
AcDbEntity
  8
0
100
AcDbDimension
  2
*D13
 10
988.526166
 20
2073.364712
 30
0.0
 11
978.526184
 21
1813.364746
 31
0.0
 70
    33
  3
EDDIMINFO
100
AcDbAlignedDimension
 13
1073.539812
 23
1553.364712
 33
0.0
 14
1073.539812
 24
2073.364712
 34
0.0
1001
ACAD
1000
DSTYLE
1002
{
1070
     7
1000
EDTIP_ARROW_E
1070
     6
1000
EDTIP_ARROW_S
1070
   173
1070
     1
1002
}
  0
LINE
  5
1C0
330
1F
100
AcDbEntity
  8
0
  6
CONTINUOUS
 62
     3
100
AcDbLine
 10
3402.3185
 20
2219.691837
 30
0.0
 11
2681.445983
 21
2219.691837
 31
0.0
  0
LINE
  5
1C1
330
1F
100
AcDbEntity
  8
0
  6
CONTINUOUS
 62
     3
100
AcDbLine
 10
3402.3185
 20
2155.691839
 30
0.0
 11
2681.445983
 21
2155.691839
 31
0.0
  0
LINE
  5
1C2
330
1F
100
AcDbEntity
  8
0
  6
CONTINUOUS
 62
     3
100
AcDbLine
 10
3402.3185
 20
2091.691841
 30
0.0
 11
2681.445983
 21
2091.691841
 31
0.0
  0
LINE
  5
1C3
330
1F
100
AcDbEntity
  8
0
  6
CONTINUOUS
 62
     3
100
AcDbLine
 10
3402.3185
 20
2027.691842
 30
0.0
 11
2682.318518
 21
2027.691842
 31
0.0
  0
LINE
  5
1C4
330
1F
100
AcDbEntity
  8
0
  6
CONTINUOUS
 62
     3
100
AcDbLine
 10
3402.3185
 20
1963.691844
 30
0.0
 11
2681.445983
 21
1963.691844
 31
0.0
  0
LINE
  5
1C5
330
1F
100
AcDbEntity
  8
0
  6
CONTINUOUS
 62
     3
100
AcDbLine
 10
3402.3185
 20
1899.691845
 30
0.0
 11
2681.445983
 21
1899.691845
 31
0.0
  0
LINE
  5
1C6
330
1F
100
AcDbEntity
  8
0
  6
CONTINUOUS
 62
     3
100
AcDbLine
 10
3402.3185
 20
1835.691847
 30
0.0
 11
2681.445983
 21
1835.691847
 31
0.0
  0
LINE
  5
1C7
330
1F
100
AcDbEntity
  8
0
  6
CONTINUOUS
 62
     3
100
AcDbLine
 10
3402.3185
 20
1771.691849
 30
0.0
 11
2681.445983
 21
1771.691849
 31
0.0
  0
LINE
  5
1C8
330
1F
100
AcDbEntity
  8
0
  6
CONTINUOUS
 62
     3
100
AcDbLine
 10
3402.3185
 20
1707.69185
 30
0.0
 11
2681.445983
 21
1707.69185
 31
0.0
  0
LINE
  5
1C9
330
1F
100
AcDbEntity
  8
0
  6
CONTINUOUS
 62
     3
100
AcDbLine
 10
3402.3185
 20
1643.691852
 30
0.0
 11
2681.445983
 21
1643.691852
 31
0.0
  0
LINE
  5
1CA
330
1F
100
AcDbEntity
  8
0
  6
CONTINUOUS
 62
     3
100
AcDbLine
 10
3402.3185
 20
1515.691855
 30
0.0
 11
2681.445983
 21
1515.691855
 31
0.0
  0
TEXT
  5
1CB
330
1F
100
AcDbEntity
  8
0
  6
CONTINUOUS
 62
     3
100
AcDbText
 10
2877.169678
 20
2299.510986
 30
0.0
 40
40.0
  1
仕   様
 41
0.8
  7
ED_VECTOR
100
AcDbText
  0
TEXT
  5
1CC
330
1F
100
AcDbEntity
  8
0
  6
CONTINUOUS
 62
     3
100
AcDbText
 10
2692.205078
 20
2227.915039
 30
0.0
 40
40.0
  1
型    式
 41
0.8
  7
ED_VECTOR
100
AcDbText
  0
TEXT
  5
1CD
330
1F
100
AcDbEntity
  8
0
  6
CONTINUOUS
 62
     3
100
AcDbText
 10
2690.385742
 20
2105.425049
 30
0.0
 40
40.0
  1
テーブル寸法
 41
0.8
  7
ED_VECTOR
100
AcDbText
  0
TEXT
  5
1CE
330
1F
100
AcDbEntity
  8
0
  6
CONTINUOUS
 62
     3
100
AcDbText
 10
2692.205078
 20
2042.360596
 30
0.0
 40
40.0
  1
テーブル高サ
 41
0.8
  7
ED_VECTOR
100
AcDbText
  0
TEXT
  5
1CF
330
1F
100
AcDbEntity
  8
0
  6
CONTINUOUS
 62
     3
100
AcDbText
 10
2693.6521
 20
1977.477783
 30
0.0
 40
40.0
  1
ストローク
 41
0.8
  7
ED_VECTOR
100
AcDbText
  0
TEXT
  5
1D0
330
1F
100
AcDbEntity
  8
0
  6
CONTINUOUS
 62
     3
100
AcDbText
 10
2693.045898
 20
1912.594849
 30
0.0
 40
40.0
  1
全   長
 41
0.8
  7
ED_VECTOR
100
AcDbText
  0
TEXT
  5
1D1
330
1F
100
AcDbEntity
  8
0
  6
CONTINUOUS
 62
     3
100
AcDbText
 10
2695.316895
 20
1846.744141
 30
0.0
 40
40.0
  1
全   巾
 41
0.8
  7
ED_VECTOR
100
AcDbText
  0
TEXT
  5
1D2
330
1F
100
AcDbEntity
  8
0
  6
CONTINUOUS
 62
     3
100
AcDbText
 10
2693.759033
 20
1782.859375
 30
0.0
 40
40.0
  1
全   高
 41
0.8
  7
ED_VECTOR
100
AcDbText
  0
TEXT
  5
1D3
330
1F
100
AcDbEntity
  8
0
  6
CONTINUOUS
 62
     3
100
AcDbText
 10
2693.759033
 20
1720.532837
 30
0.0
 40
40.0
  1
リフト方式
 41
0.8
  7
ED_VECTOR
100
AcDbText
  0
TEXT
  5
1D4
330
1F
100
AcDbEntity
  8
0
  6
CONTINUOUS
 62
     3
100
AcDbText
 10
2696.548096
 20
1526.283325
 30
0.0
 40
40.0
  1
モーター
 41
0.8
  7
ED_VECTOR
100
AcDbText
  0
LINE
  5
1D5
330
1F
100
AcDbEntity
  8
0
  6
CONTINUOUS
 62
     3
100
AcDbLine
 10
3402.3185
 20
1451.691857
 30
0.0
 11
2681.445983
 21
1451.691857
 31
0.0
  0
LINE
  5
1D6
330
1F
100
AcDbEntity
  8
0
  6
CONTINUOUS
 62
     3
100
AcDbLine
 10
3402.3185
 20
1323.69186
 30
0.0
 11
2679.30748
 21
1323.69186
 31
0.0
  0
LINE
  5
1D7
330
1F
100
AcDbEntity
  8
0
  6
CONTINUOUS
 62
     3
100
AcDbLine
 10
3402.3185
 20
1259.691862
 30
0.0
 11
2681.445983
 21
1259.691862
 31
0.0
  0
LINE
  5
1D8
330
1F
100
AcDbEntity
  8
0
  6
CONTINUOUS
 62
     3
100
AcDbLine
 10
3402.3185
 20
1195.691863
 30
0.0
 11
2681.445983
 21
1195.691863
 31
0.0
  0
LINE
  5
1D9
330
1F
100
AcDbEntity
  8
0
  6
CONTINUOUS
 62
     3
100
AcDbLine
 10
3402.3185
 20
1131.691865
 30
0.0
 11
2681.445983
 21
1131.691865
 31
0.0
  0
TEXT
  5
1DA
330
1F
100
AcDbEntity
  8
0
  6
CONTINUOUS
 62
     3
100
AcDbText
 10
2695.200195
 20
1142.813843
 30
0.0
 40
40.0
  1
自  　重
 41
0.8
  7
ED_VECTOR
100
AcDbText
  0
TEXT
  5
1DB
330
1F
100
AcDbEntity
  8
0
  6
CONTINUOUS
 62
     3
100
AcDbText
 10
3331.78418
 20
2162.75
 30
0.0
 40
40.0
  1
Ｋｇ
 41
0.8
  7
ED_VECTOR
100
AcDbText
  0
TEXT
  5
1DC
330
1F
100
AcDbEntity
  8
0
  6
CONTINUOUS
 62
     3
100
AcDbText
 10
3270.745605
 20
2112.26416
 30
0.0
 40
40.0
  1
Ｗ
 41
0.8
  7
ED_VECTOR
100
AcDbText
  0
TEXT
  5
1DD
330
1F
100
AcDbEntity
  8
0
  6
CONTINUOUS
 62
     3
100
AcDbText
 10
3107.624023
 20
2114.886719
 30
0.0
 40
40.0
  1
Ｌ
 41
0.8
  7
ED_VECTOR
100
AcDbText
  0
TEXT
  5
1DE
330
1F
100
AcDbEntity
  8
0
  6
CONTINUOUS
 62
     3
100
AcDbText
 10
3097.806641
 20
1143.600342
 30
0.0
 40
40.0
  1
約　４９  　Ｋｇ
 41
0.8
  7
ED_VECTOR
100
AcDbText
  0
TEXT
  5
1DF
330
1F
100
AcDbEntity
  8
0
  6
CONTINUOUS
 62
     3
100
AcDbText
 10
3329.27002
 20
2098.646973
 30
0.0
 40
40.0
  1
mm
 41
0.8
  7
ED_VECTOR
100
AcDbText
  0
TEXT
  5
1E0
330
1F
100
AcDbEntity
  8
0
  6
CONTINUOUS
 62
     3
100
AcDbText
 10
3329.27002
 20
2038.312988
 30
0.0
 40
40.0
  1
mm
 41
0.8
  7
ED_VECTOR
100
AcDbText
  0
TEXT
  5
1E1
330
1F
100
AcDbEntity
  8
0
  6
CONTINUOUS
 62
     3
100
AcDbText
 10
3325.499268
 20
1974.209106
 30
0.0
 40
40.0
  1
mm
 41
0.8
  7
ED_VECTOR
100
AcDbText
  0
TEXT
  5
1E2
330
1F
100
AcDbEntity
  8
0
  6
CONTINUOUS
 62
     3
100
AcDbText
 10
3325.499268
 20
1906.333984
 30
0.0
 40
40.0
  1
mm
 41
0.8
  7
ED_VECTOR
100
AcDbText
  0
TEXT
  5
1E3
330
1F
100
AcDbEntity
  8
0
  6
CONTINUOUS
 62
     3
100
AcDbText
 10
3322.985596
 20
1846.001099
 30
0.0
 40
40.0
  1
mm
 41
0.8
  7
ED_VECTOR
100
AcDbText
  0
TEXT
  5
1E4
330
1F
100
AcDbEntity
  8
0
  6
CONTINUOUS
 62
     3
100
AcDbText
 10
3322.985596
 20
1781.896851
 30
0.0
 40
40.0
  1
mm
 41
0.8
  7
ED_VECTOR
100
AcDbText
  0
LINE
  5
1E5
330
1F
100
AcDbEntity
  8
0
  6
CONTINUOUS
 62
     3
100
AcDbLine
 10
3065.22292
 20
2283.691836
 30
0.0
 11
2856.836949
 21
2283.691836
 31
0.0
  0
LINE
  5
1E6
330
1F
100
AcDbEntity
  8
0
  6
CONTINUOUS
 62
     3
100
AcDbLine
 10
3065.22292
 20
2291.691836
 30
0.0
 11
2856.836949
 21
2291.691836
 31
0.0
  0
LINE
  5
1E7
330
1F
100
AcDbEntity
  8
0
  6
CONTINUOUS
 62
     3
100
AcDbLine
 10
3402.3185
 20
1387.691858
 30
0.0
 11
2681.445983
 21
1387.691858
 31
0.0
  0
TEXT
  5
1E8
330
1F
100
AcDbEntity
  8
0
  6
CONTINUOUS
 62
     3
100
AcDbText
 10
2725.887207
 20
2165.551758
 30
0.0
 40
40.0
  1
均等荷重
 41
0.8
  7
ED_VECTOR
100
AcDbText
  0
TEXT
  5
1E9
330
1F
100
AcDbEntity
  8
0
  6
CONTINUOUS
 62
     3
100
AcDbText
 10
2694.66333
 20
1402.168579
 30
0.0
 40
40.0
  1
上昇時間
 41
0.8
  7
ED_VECTOR
100
AcDbText
  0
TEXT
  5
1EA
330
1F
100
AcDbEntity
  8
0
  6
CONTINUOUS
 62
     3
100
AcDbText
 10
3170.93335
 20
2168.054688
 30
0.0
 40
40.0
  1
１００
 41
0.8
  7
ED_VECTOR
100
AcDbText
  0
TEXT
  5
1EB
330
1F
100
AcDbEntity
  8
0
  6
CONTINUOUS
 62
     3
100
AcDbText
 10
3012.938965
 20
2101.218506
 30
0.0
 40
40.0
  1
８５０　×５２０
 41
0.8
  7
ED_VECTOR
100
AcDbText
  0
TEXT
  5
1EC
330
1F
100
AcDbEntity
  8
0
  6
CONTINUOUS
 62
     3
100
AcDbText
 10
3167.355469
 20
1975.466064
 30
0.0
 40
40.0
  1
４３０
 41
0.8
  7
ED_VECTOR
100
AcDbText
  0
TEXT
  5
1ED
330
1F
100
AcDbEntity
  8
0
  6
CONTINUOUS
 62
     3
100
AcDbText
 10
3009.359619
 20
2039.657471
 30
0.0
 40
40.0
  1
１３０～　５６０
 41
0.8
  7
ED_VECTOR
100
AcDbText
  0
TEXT
  5
1EE
330
1F
100
AcDbEntity
  8
0
  6
CONTINUOUS
 62
     3
100
AcDbText
 10
3166.668945
 20
1910.80896
 30
0.0
 40
40.0
  1
８５０
 41
0.8
  7
ED_VECTOR
100
AcDbText
  0
TEXT
  5
1EF
330
1F
100
AcDbEntity
  8
0
  6
CONTINUOUS
 62
     3
100
AcDbText
 10
3167.355469
 20
1845.688232
 30
0.0
 40
40.0
  1
５２０
 41
0.8
  7
ED_VECTOR
100
AcDbText
  0
TEXT
  5
1F0
330
1F
100
AcDbEntity
  8
0
  6
CONTINUOUS
 62
     3
100
AcDbText
 10
3168.816406
 20
1781.960083
 30
0.0
 40
40.0
  1
１３０
 41
0.8
  7
ED_VECTOR
100
AcDbText
  0
TEXT
  5
1F1
330
1F
100
AcDbEntity
  8
0
  6
CONTINUOUS
 62
     3
100
AcDbText
 10
2695.888672
 20
1656.471436
 30
0.0
 40
40.0
  1
操作方式
 41
0.8
  7
ED_VECTOR
100
AcDbText
  0
TEXT
  5
1F2
330
1F
100
AcDbEntity
  8
0
  6
CONTINUOUS
 62
     3
100
AcDbText
 10
2946.360352
 20
1717.881592
 30
0.0
 40
40.0
  1
電動ボールネジ方式
 41
0.8
  7
ED_VECTOR
100
AcDbText
  0
TEXT
  5
1F3
330
1F
100
AcDbEntity
  8
0
  6
CONTINUOUS
 62
     3
100
AcDbText
 10
2885.179199
 20
1653.505859
 30
0.0
 40
40.0
  1
フットスイッチ（マイコン搭載）
 41
0.8
  7
ED_VECTOR
100
AcDbText
  0
TEXT
  5
1F4
330
1F
100
AcDbEntity
  8
0
  6
CONTINUOUS
 62
     3
100
AcDbText
 10
2697.202881
 20
1463.115601
 30
0.0
 40
40.0
  1
電　　源
 41
0.8
  7
ED_VECTOR
100
AcDbText
  0
TEXT
  5
1F5
330
1F
100
AcDbEntity
  8
0
  6
CONTINUOUS
 62
     3
100
AcDbText
 10
3007.130859
 20
1400.128296
 30
0.0
 40
40.0
  1
約　　１０　秒
 41
0.8
  7
ED_VECTOR
100
AcDbText
  0
TEXT
  5
1F6
330
1F
100
AcDbEntity
  8
0
  6
CONTINUOUS
 62
     3
100
AcDbText
 10
2692.524902
 20
1338.168579
 30
0.0
 40
40.0
  1
下降時間
 41
0.8
  7
ED_VECTOR
100
AcDbText
  0
TEXT
  5
1F7
330
1F
100
AcDbEntity
  8
0
  6
CONTINUOUS
 62
     3
100
AcDbText
 10
3004.992432
 20
1336.128296
 30
0.0
 40
40.0
  1
約　　１０　秒
 41
0.8
  7
ED_VECTOR
100
AcDbText
  0
TEXT
  5
1F8
330
1F
100
AcDbEntity
  8
0
  6
CONTINUOUS
 62
     3
100
AcDbText
 10
2694.047607
 20
1208.743774
 30
0.0
 40
40.0
  1
最大使用頻度
 41
0.8
  7
ED_VECTOR
100
AcDbText
  0
TEXT
  5
1F9
330
1F
100
AcDbEntity
  8
0
  6
CONTINUOUS
 62
     3
100
AcDbText
 10
3074.148682
 20
1208.605835
 30
0.0
 40
40.0
  1
３０回／時
 41
0.8
  7
ED_VECTOR
100
AcDbText
  0
LINE
  5
1FA
330
1F
100
AcDbEntity
  8
0
  6
CONTINUOUS
 62
     3
100
AcDbLine
 10
2339.421542
 20
654.817774
 30
0.0
 11
297.503734
 21
654.817774
 31
0.0
  0
TEXT
  5
1FB
330
1F
100
AcDbEntity
  8
0
  6
CONTINUOUS
 62
     5
100
AcDbText
 10
2231.597656
 20
662.961609
 30
0.0
 40
40.0
  1
Ｆ.Ｌ
 41
0.75
  7
ED_VECTOR
100
AcDbText
  0
LINE
  5
1FC
330
1F
100
AcDbEntity
  8
0
  6
CENTER
 62
     5
100
AcDbLine
 10
550.464217
 20
1214.817774
 30
0.0
 11
550.464217
 21
654.817774
 31
0.0
  0
LINE
  5
1FD
330
1F
100
AcDbEntity
  8
0
  6
CONTINUOUS
 62
     3
100
AcDbLine
 10
783.464217
 20
700.817774
 30
0.0
 11
317.464217
 21
700.817774
 31
0.0
  0
LINE
  5
1FE
330
1F
100
AcDbEntity
  8
0
  6
CONTINUOUS
 62
     3
100
AcDbLine
 10
382.464217
 20
700.817774
 30
0.0
 11
382.464217
 21
654.817774
 31
0.0
  0
LINE
  5
1FF
330
1F
100
AcDbEntity
  8
0
  6
CONTINUOUS
 62
     3
100
AcDbLine
 10
718.464217
 20
700.817774
 30
0.0
 11
718.464217
 21
654.817774
 31
0.0
  0
LINE
  5
200
330
1F
100
AcDbEntity
  8
0
  6
CONTINUOUS
 62
     3
100
AcDbLine
 10
1182.273335
 20
697.817774
 30
0.0
 11
1182.273335
 21
654.817774
 31
0.0
  0
DIMENSION
  5
201
330
1F
100
AcDbEntity
  8
0
100
AcDbDimension
  2
*D14
 10
2032.539812
 20
784.864988
 30
0.0
 11
2022.539917
 21
719.86499
 31
0.0
 70
    32
  3
EDDIMINFO
100
AcDbAlignedDimension
 13
2151.539812
 23
654.864988
 33
0.0
 14
1941.539812
 24
784.864988
 34
0.0
 50
270.0
100
AcDbRotatedDimension
1001
ACAD
1000
DSTYLE
1002
{
1070
     7
1000
EDTIP_ARROW_E
1070
     6
1000
EDTIP_ARROW_S
1070
   173
1070
     1
1002
}
  0
DIMENSION
  5
20B
330
1F
100
AcDbEntity
  8
0
100
AcDbDimension
  2
*D15
 10
2032.539812
 20
1214.864988
 30
0.0
 11
2022.539917
 21
999.86499
 31
0.0
 70
    33
  3
EDDIMINFO
100
AcDbAlignedDimension
 13
1911.539812
 23
784.864988
 33
0.0
 14
1911.539812
 24
1214.864988
 34
0.0
1001
ACAD
1000
DSTYLE
1002
{
1070
     7
1000
EDTIP_ARROW_E
1070
     6
1000
EDTIP_ARROW_S
1070
   173
1070
     1
1002
}
  0
DIMENSION
  5
214
330
1F
100
AcDbEntity
  8
0
100
AcDbDimension
  2
*D16
 10
2142.539812
 20
654.864988
 30
0.0
 11
2132.539795
 21
934.86499
 31
0.0
 70
    33
  3
EDDIMINFO
100
AcDbAlignedDimension
 13
2142.539812
 23
1214.864988
 33
0.0
 14
2142.539812
 24
654.864988
 34
0.0
1001
ACAD
1000
DSTYLE
1002
{
1070
     7
1000
EDTIP_ARROW_E
1070
     6
1000
EDTIP_ARROW_S
1070
   173
1070
     1
1002
}
  0
DIMENSION
  5
21C
330
1F
100
AcDbEntity
  8
0
100
AcDbDimension
  2
*D17
 10
718.464217
 20
571.778962
 30
0.0
 11
550.464233
 21
581.778931
 31
0.0
 70
    33
  3
EDDIMINFO
100
AcDbAlignedDimension
 13
382.464217
 23
645.817774
 33
0.0
 14
718.464217
 24
645.817774
 34
0.0
1001
ACAD
1000
DSTYLE
1002
{
1070
     7
1000
EDTIP_ARROW_E
1070
     6
1000
EDTIP_ARROW_S
1070
   173
1070
     1
1002
}
  0
DIMENSION
  5
226
330
1F
100
AcDbEntity
  8
0
100
AcDbDimension
  2
*D18
 10
1832.273335
 20
571.778962
 30
0.0
 11
1507.273315
 21
581.778931
 31
0.0
 70
    33
  3
EDDIMINFO
100
AcDbAlignedDimension
 13
1182.273335
 23
645.817774
 33
0.0
 14
1832.273335
 24
645.817774
 34
0.0
1001
ACAD
1000
DSTYLE
1002
{
1070
     7
1000
EDTIP_ARROW_E
1070
     6
1000
EDTIP_ARROW_S
1070
   173
1070
     1
1002
}
  0
LINE
  5
230
330
1F
100
AcDbEntity
  8
0
  6
CENTER
 62
     5
100
AcDbLine
 10
396.875396
 20
676.017774
 30
0.0
 11
367.205213
 21
676.017774
 31
0.0
  0
LINE
  5
231
330
1F
100
AcDbEntity
  8
0
  6
CENTER
 62
     5
100
AcDbLine
 10
704.053038
 20
676.017774
 30
0.0
 11
733.72322
 21
676.017774
 31
0.0
  0
LINE
  5
232
330
1F
100
AcDbEntity
  8
0
  6
CONTINUOUS
 62
     3
100
AcDbLine
 10
290.464217
 20
1214.817774
 30
0.0
 11
810.464217
 21
1214.817774
 31
0.0
  0
LINE
  5
233
330
1F
100
AcDbEntity
  8
0
  6
CONTINUOUS
 62
     3
100
AcDbLine
 10
290.464217
 20
1176.817774
 30
0.0
 11
810.464217
 21
1176.817774
 31
0.0
  0
INSERT
  5
237
330
1F
100
AcDbEntity
  8
0
100
AcDbBlockReference
  2
BLKF022
 10
0.0
 20
0.0
 30
0.0
  0
INSERT
  5
23F
330
1F
100
AcDbEntity
  8
0
100
AcDbBlockReference
  2
BLKF023
 10
0.0
 20
0.0
 30
0.0
  0
LINE
  5
244
330
1F
100
AcDbEntity
  8
0
  6
CONTINUOUS
 62
     7
100
AcDbLine
 10
1877.473335
 20
1105.267505
 30
0.0
 11
1927.473335
 21
1134.135018
 31
0.0
  0
LINE
  5
245
330
1F
100
AcDbEntity
  8
0
  6
CONTINUOUS
 62
     7
100
AcDbLine
 10
1877.473335
 20
1105.267505
 30
0.0
 11
1927.473335
 21
1076.399991
 31
0.0
  0
LINE
  5
246
330
1F
100
AcDbEntity
  8
0
  6
CONTINUOUS
 62
     7
100
AcDbLine
 10
1877.473335
 20
1047.532478
 30
0.0
 11
1927.473335
 21
1076.399991
 31
0.0
  0
LINE
  5
247
330
1F
100
AcDbEntity
  8
0
  6
CONTINUOUS
 62
     7
100
AcDbLine
 10
1877.473335
 20
1047.532478
 30
0.0
 11
1927.473335
 21
1018.664964
 31
0.0
  0
LINE
  5
248
330
1F
100
AcDbEntity
  8
0
  6
CONTINUOUS
 62
     7
100
AcDbLine
 10
1877.473335
 20
989.797451
 30
0.0
 11
1927.473335
 21
1018.664964
 31
0.0
  0
LINE
  5
249
330
1F
100
AcDbEntity
  8
0
  6
CONTINUOUS
 62
     7
100
AcDbLine
 10
1877.473335
 20
989.797451
 30
0.0
 11
1927.473335
 21
960.929937
 31
0.0
  0
LINE
  5
24A
330
1F
100
AcDbEntity
  8
0
  6
CONTINUOUS
 62
     7
100
AcDbLine
 10
1877.473335
 20
932.062424
 30
0.0
 11
1927.473335
 21
960.929937
 31
0.0
  0
LINE
  5
24B
330
1F
100
AcDbEntity
  8
0
  6
CONTINUOUS
 62
     7
100
AcDbLine
 10
1877.473335
 20
932.062424
 30
0.0
 11
1927.473335
 21
903.19491
 31
0.0
  0
LINE
  5
24C
330
1F
100
AcDbEntity
  8
0
  6
CONTINUOUS
 62
     7
100
AcDbLine
 10
1877.473335
 20
874.327397
 30
0.0
 11
1927.473335
 21
903.19491
 31
0.0
  0
LINE
  5
24D
330
1F
100
AcDbEntity
  8
0
  6
CONTINUOUS
 62
     7
100
AcDbLine
 10
1877.473335
 20
874.327397
 30
0.0
 11
1927.473335
 21
845.459883
 31
0.0
  0
LINE
  5
24E
330
1F
100
AcDbEntity
  8
0
  6
CONTINUOUS
 62
     7
100
AcDbLine
 10
1877.473335
 20
816.59237
 30
0.0
 11
1927.473335
 21
845.459883
 31
0.0
  0
LINE
  5
24F
330
1F
100
AcDbEntity
  8
0
  6
CONTINUOUS
 62
     7
100
AcDbLine
 10
1877.473335
 20
816.59237
 30
0.0
 11
1927.473335
 21
787.724856
 31
0.0
  0
LINE
  5
250
330
1F
100
AcDbEntity
  8
0
  6
CONTINUOUS
 62
     7
100
AcDbLine
 10
1877.473335
 20
758.857343
 30
0.0
 11
1927.473335
 21
787.724856
 31
0.0
  0
LINE
  5
251
330
1F
100
AcDbEntity
  8
0
  6
CONTINUOUS
 62
     7
100
AcDbLine
 10
1877.473335
 20
758.857343
 30
0.0
 11
1927.473335
 21
729.98983
 31
0.0
  0
LINE
  5
252
330
1F
100
AcDbEntity
  8
0
  6
CONTINUOUS
 62
     7
100
AcDbLine
 10
1878.331492
 20
701.617774
 30
0.0
 11
1927.473335
 21
729.98983
 31
0.0
  0
LINE
  5
253
330
1F
100
AcDbEntity
  8
0
  6
CONTINUOUS
 62
     7
100
AcDbLine
 10
1137.473335
 20
1105.267505
 30
0.0
 11
1087.473335
 21
1134.135018
 31
0.0
  0
LINE
  5
254
330
1F
100
AcDbEntity
  8
0
  6
CONTINUOUS
 62
     7
100
AcDbLine
 10
1137.473335
 20
1047.532478
 30
0.0
 11
1087.473335
 21
1076.399991
 31
0.0
  0
LINE
  5
255
330
1F
100
AcDbEntity
  8
0
  6
CONTINUOUS
 62
     7
100
AcDbLine
 10
1137.473335
 20
1105.267505
 30
0.0
 11
1087.473335
 21
1076.399991
 31
0.0
  0
LINE
  5
256
330
1F
100
AcDbEntity
  8
0
  6
CONTINUOUS
 62
     7
100
AcDbLine
 10
1137.473335
 20
1047.532478
 30
0.0
 11
1087.473335
 21
1018.664964
 31
0.0
  0
LINE
  5
257
330
1F
100
AcDbEntity
  8
0
  6
CONTINUOUS
 62
     7
100
AcDbLine
 10
1137.473335
 20
989.797451
 30
0.0
 11
1087.473335
 21
1018.664964
 31
0.0
  0
LINE
  5
258
330
1F
100
AcDbEntity
  8
0
  6
CONTINUOUS
 62
     7
100
AcDbLine
 10
1137.473335
 20
989.797451
 30
0.0
 11
1087.473335
 21
960.929937
 31
0.0
  0
LINE
  5
259
330
1F
100
AcDbEntity
  8
0
  6
CONTINUOUS
 62
     7
100
AcDbLine
 10
1137.473335
 20
932.062424
 30
0.0
 11
1087.473335
 21
903.19491
 31
0.0
  0
LINE
  5
25A
330
1F
100
AcDbEntity
  8
0
  6
CONTINUOUS
 62
     7
100
AcDbLine
 10
1137.473335
 20
932.062424
 30
0.0
 11
1087.473335
 21
960.929937
 31
0.0
  0
LINE
  5
25B
330
1F
100
AcDbEntity
  8
0
  6
CONTINUOUS
 62
     7
100
AcDbLine
 10
1137.473335
 20
874.327397
 30
0.0
 11
1087.473335
 21
845.459883
 31
0.0
  0
LINE
  5
25C
330
1F
100
AcDbEntity
  8
0
  6
CONTINUOUS
 62
     7
100
AcDbLine
 10
1137.473335
 20
874.327397
 30
0.0
 11
1087.473335
 21
903.19491
 31
0.0
  0
LINE
  5
25D
330
1F
100
AcDbEntity
  8
0
  6
CONTINUOUS
 62
     7
100
AcDbLine
 10
1137.473335
 20
816.59237
 30
0.0
 11
1087.473335
 21
845.459883
 31
0.0
  0
LINE
  5
25E
330
1F
100
AcDbEntity
  8
0
  6
CONTINUOUS
 62
     7
100
AcDbLine
 10
1137.473335
 20
816.59237
 30
0.0
 11
1087.473335
 21
787.724856
 31
0.0
  0
LINE
  5
25F
330
1F
100
AcDbEntity
  8
0
  6
CONTINUOUS
 62
     7
100
AcDbLine
 10
1137.473335
 20
758.857343
 30
0.0
 11
1087.473335
 21
787.724856
 31
0.0
  0
LINE
  5
260
330
1F
100
AcDbEntity
  8
0
  6
CONTINUOUS
 62
     7
100
AcDbLine
 10
1137.473335
 20
758.857343
 30
0.0
 11
1087.473335
 21
729.98983
 31
0.0
  0
LINE
  5
261
330
1F
100
AcDbEntity
  8
0
  6
CONTINUOUS
 62
     7
100
AcDbLine
 10
1136.615177
 20
701.617774
 30
0.0
 11
1087.473335
 21
729.98983
 31
0.0
  0
LINE
  5
262
330
1F
100
AcDbEntity
  8
0
  6
CONTINUOUS
 62
     1
100
AcDbLine
 10
1087.473335
 20
729.98983
 30
0.0
 11
1927.473335
 21
729.98983
 31
0.0
  0
LINE
  5
263
330
1F
100
AcDbEntity
  8
0
  6
CONTINUOUS
 62
     1
100
AcDbLine
 10
1877.473335
 20
758.857343
 30
0.0
 11
1137.473335
 21
758.857343
 31
0.0
  0
LINE
  5
264
330
1F
100
AcDbEntity
  8
0
  6
CONTINUOUS
 62
     1
100
AcDbLine
 10
1877.473335
 20
816.59237
 30
0.0
 11
1137.473335
 21
816.59237
 31
0.0
  0
LINE
  5
265
330
1F
100
AcDbEntity
  8
0
  6
CONTINUOUS
 62
     1
100
AcDbLine
 10
1087.473335
 20
787.724856
 30
0.0
 11
1927.473335
 21
787.724856
 31
0.0
  0
LINE
  5
266
330
1F
100
AcDbEntity
  8
0
  6
CONTINUOUS
 62
     1
100
AcDbLine
 10
1877.473335
 20
874.327397
 30
0.0
 11
1137.473335
 21
874.327397
 31
0.0
  0
LINE
  5
267
330
1F
100
AcDbEntity
  8
0
  6
CONTINUOUS
 62
     1
100
AcDbLine
 10
1087.473335
 20
845.459883
 30
0.0
 11
1927.473335
 21
845.459883
 31
0.0
  0
LINE
  5
268
330
1F
100
AcDbEntity
  8
0
  6
CONTINUOUS
 62
     1
100
AcDbLine
 10
1877.473335
 20
932.062424
 30
0.0
 11
1137.473335
 21
932.062424
 31
0.0
  0
LINE
  5
269
330
1F
100
AcDbEntity
  8
0
  6
CONTINUOUS
 62
     1
100
AcDbLine
 10
1087.473335
 20
903.19491
 30
0.0
 11
1927.473335
 21
903.19491
 31
0.0
  0
LINE
  5
26A
330
1F
100
AcDbEntity
  8
0
  6
CONTINUOUS
 62
     1
100
AcDbLine
 10
1877.473335
 20
989.797451
 30
0.0
 11
1137.473335
 21
989.797451
 31
0.0
  0
LINE
  5
26B
330
1F
100
AcDbEntity
  8
0
  6
CONTINUOUS
 62
     1
100
AcDbLine
 10
1087.473335
 20
960.929937
 30
0.0
 11
1927.473335
 21
960.929937
 31
0.0
  0
LINE
  5
26C
330
1F
100
AcDbEntity
  8
0
  6
CONTINUOUS
 62
     1
100
AcDbLine
 10
1877.473335
 20
1047.532478
 30
0.0
 11
1137.473335
 21
1047.532478
 31
0.0
  0
LINE
  5
26D
330
1F
100
AcDbEntity
  8
0
  6
CONTINUOUS
 62
     1
100
AcDbLine
 10
1087.473335
 20
1018.664964
 30
0.0
 11
1927.473335
 21
1018.664964
 31
0.0
  0
LINE
  5
26E
330
1F
100
AcDbEntity
  8
0
  6
CONTINUOUS
 62
     1
100
AcDbLine
 10
1877.473335
 20
1105.267505
 30
0.0
 11
1137.473335
 21
1105.267505
 31
0.0
  0
LINE
  5
26F
330
1F
100
AcDbEntity
  8
0
  6
CONTINUOUS
 62
     1
100
AcDbLine
 10
1087.473335
 20
1076.399991
 30
0.0
 11
1927.473335
 21
1076.399991
 31
0.0
  0
LINE
  5
270
330
1F
100
AcDbEntity
  8
0
  6
CONTINUOUS
 62
     3
100
AcDbLine
 10
1832.273335
 20
697.817774
 30
0.0
 11
1832.273335
 21
654.817774
 31
0.0
  0
LINE
  5
271
330
1F
100
AcDbEntity
  8
0
  6
CENTER
 62
     5
100
AcDbLine
 10
1233.636061
 20
676.017774
 30
0.0
 11
1191.09738
 21
676.017774
 31
0.0
  0
CIRCLE
  5
272
330
1F
100
AcDbEntity
  8
0
  6
CONTINUOUS
 62
     5
100
AcDbCircle
 10
1211.973335
 20
676.017774
 30
0.0
 40
15.0
  0
LINE
  5
273
330
1F
100
AcDbEntity
  8
0
  6
CENTER
 62
     5
100
AcDbLine
 10
1211.973335
 20
696.149052
 30
0.0
 11
1211.973335
 21
656.790833
 31
0.0
  0
LINE
  5
274
330
1F
100
AcDbEntity
  8
0
  6
CONTINUOUS
 62
     7
100
AcDbLine
 10
345.464217
 20
1104.962962
 30
0.0
 11
295.464217
 21
1133.830476
 31
0.0
  0
LINE
  5
275
330
1F
100
AcDbEntity
  8
0
  6
CONTINUOUS
 62
     7
100
AcDbLine
 10
345.464217
 20
1104.962962
 30
0.0
 11
295.464217
 21
1076.095449
 31
0.0
  0
LINE
  5
276
330
1F
100
AcDbEntity
  8
0
  6
CONTINUOUS
 62
     7
100
AcDbLine
 10
345.464217
 20
1047.227935
 30
0.0
 11
295.464217
 21
1018.360422
 31
0.0
  0
LINE
  5
277
330
1F
100
AcDbEntity
  8
0
  6
CONTINUOUS
 62
     7
100
AcDbLine
 10
345.464217
 20
1047.227935
 30
0.0
 11
295.464217
 21
1076.095449
 31
0.0
  0
LINE
  5
278
330
1F
100
AcDbEntity
  8
0
  6
CONTINUOUS
 62
     7
100
AcDbLine
 10
345.464217
 20
989.492908
 30
0.0
 11
295.464217
 21
1018.360422
 31
0.0
  0
LINE
  5
279
330
1F
100
AcDbEntity
  8
0
  6
CONTINUOUS
 62
     7
100
AcDbLine
 10
345.464217
 20
989.492908
 30
0.0
 11
295.464217
 21
960.625395
 31
0.0
  0
LINE
  5
27A
330
1F
100
AcDbEntity
  8
0
  6
CONTINUOUS
 62
     7
100
AcDbLine
 10
345.464217
 20
931.757881
 30
0.0
 11
295.464217
 21
960.625395
 31
0.0
  0
LINE
  5
27B
330
1F
100
AcDbEntity
  8
0
  6
CONTINUOUS
 62
     7
100
AcDbLine
 10
345.464217
 20
931.757881
 30
0.0
 11
295.464217
 21
902.890368
 31
0.0
  0
LINE
  5
27C
330
1F
100
AcDbEntity
  8
0
  6
CONTINUOUS
 62
     7
100
AcDbLine
 10
345.464217
 20
874.022854
 30
0.0
 11
295.464217
 21
845.155341
 31
0.0
  0
LINE
  5
27D
330
1F
100
AcDbEntity
  8
0
  6
CONTINUOUS
 62
     7
100
AcDbLine
 10
345.464217
 20
874.022854
 30
0.0
 11
295.464217
 21
902.890368
 31
0.0
  0
LINE
  5
27E
330
1F
100
AcDbEntity
  8
0
  6
CONTINUOUS
 62
     7
100
AcDbLine
 10
345.464217
 20
816.287828
 30
0.0
 11
295.464217
 21
845.155341
 31
0.0
  0
LINE
  5
27F
330
1F
100
AcDbEntity
  8
0
  6
CONTINUOUS
 62
     7
100
AcDbLine
 10
345.464217
 20
816.287828
 30
0.0
 11
295.464217
 21
787.420314
 31
0.0
  0
LINE
  5
280
330
1F
100
AcDbEntity
  8
0
  6
CONTINUOUS
 62
     7
100
AcDbLine
 10
345.464217
 20
758.552801
 30
0.0
 11
295.464217
 21
729.685287
 31
0.0
  0
LINE
  5
281
330
1F
100
AcDbEntity
  8
0
  6
CONTINUOUS
 62
     7
100
AcDbLine
 10
345.464217
 20
758.552801
 30
0.0
 11
295.464217
 21
787.420314
 31
0.0
  0
LINE
  5
282
330
1F
100
AcDbEntity
  8
0
  6
CONTINUOUS
 62
     7
100
AcDbLine
 10
345.464217
 20
700.817774
 30
0.0
 11
295.464217
 21
729.685287
 31
0.0
  0
LINE
  5
283
330
1F
100
AcDbEntity
  8
0
  6
CONTINUOUS
 62
     7
100
AcDbLine
 10
755.464217
 20
1104.962962
 30
0.0
 11
805.464217
 21
1133.830476
 31
0.0
  0
LINE
  5
284
330
1F
100
AcDbEntity
  8
0
  6
CONTINUOUS
 62
     7
100
AcDbLine
 10
755.464217
 20
1104.962962
 30
0.0
 11
805.464217
 21
1076.095449
 31
0.0
  0
LINE
  5
285
330
1F
100
AcDbEntity
  8
0
  6
CONTINUOUS
 62
     7
100
AcDbLine
 10
755.464217
 20
1047.227935
 30
0.0
 11
805.464217
 21
1018.360422
 31
0.0
  0
LINE
  5
286
330
1F
100
AcDbEntity
  8
0
  6
CONTINUOUS
 62
     7
100
AcDbLine
 10
755.464217
 20
1047.227935
 30
0.0
 11
805.464217
 21
1076.095449
 31
0.0
  0
LINE
  5
287
330
1F
100
AcDbEntity
  8
0
  6
CONTINUOUS
 62
     7
100
AcDbLine
 10
755.464217
 20
989.492908
 30
0.0
 11
805.464217
 21
1018.360422
 31
0.0
  0
LINE
  5
288
330
1F
100
AcDbEntity
  8
0
  6
CONTINUOUS
 62
     7
100
AcDbLine
 10
755.464217
 20
989.492908
 30
0.0
 11
805.464217
 21
960.625395
 31
0.0
  0
LINE
  5
289
330
1F
100
AcDbEntity
  8
0
  6
CONTINUOUS
 62
     7
100
AcDbLine
 10
755.464217
 20
931.757881
 30
0.0
 11
805.464217
 21
960.625395
 31
0.0
  0
LINE
  5
28A
330
1F
100
AcDbEntity
  8
0
  6
CONTINUOUS
 62
     7
100
AcDbLine
 10
755.464217
 20
931.757881
 30
0.0
 11
805.464217
 21
902.890368
 31
0.0
  0
LINE
  5
28B
330
1F
100
AcDbEntity
  8
0
  6
CONTINUOUS
 62
     7
100
AcDbLine
 10
755.464217
 20
874.022854
 30
0.0
 11
805.464217
 21
845.155341
 31
0.0
  0
LINE
  5
28C
330
1F
100
AcDbEntity
  8
0
  6
CONTINUOUS
 62
     7
100
AcDbLine
 10
755.464217
 20
874.022854
 30
0.0
 11
805.464217
 21
902.890368
 31
0.0
  0
LINE
  5
28D
330
1F
100
AcDbEntity
  8
0
  6
CONTINUOUS
 62
     7
100
AcDbLine
 10
755.464217
 20
816.287828
 30
0.0
 11
805.464217
 21
845.155341
 31
0.0
  0
LINE
  5
28E
330
1F
100
AcDbEntity
  8
0
  6
CONTINUOUS
 62
     7
100
AcDbLine
 10
755.464217
 20
816.287828
 30
0.0
 11
805.464217
 21
787.420314
 31
0.0
  0
LINE
  5
28F
330
1F
100
AcDbEntity
  8
0
  6
CONTINUOUS
 62
     7
100
AcDbLine
 10
755.464217
 20
758.552801
 30
0.0
 11
805.464217
 21
729.685287
 31
0.0
  0
LINE
  5
290
330
1F
100
AcDbEntity
  8
0
  6
CONTINUOUS
 62
     7
100
AcDbLine
 10
755.464217
 20
758.552801
 30
0.0
 11
805.464217
 21
787.420314
 31
0.0
  0
LINE
  5
291
330
1F
100
AcDbEntity
  8
0
  6
CONTINUOUS
 62
     7
100
AcDbLine
 10
755.464217
 20
700.817774
 30
0.0
 11
805.464217
 21
729.685287
 31
0.0
  0
LINE
  5
292
330
1F
100
AcDbEntity
  8
0
  6
CONTINUOUS
 62
     1
100
AcDbLine
 10
295.464217
 20
1133.830476
 30
0.0
 11
805.464217
 21
1133.830476
 31
0.0
  0
LINE
  5
293
330
1F
100
AcDbEntity
  8
0
  6
CONTINUOUS
 62
     1
100
AcDbLine
 10
755.464217
 20
1104.962962
 30
0.0
 11
345.464217
 21
1104.962962
 31
0.0
  0
LINE
  5
294
330
1F
100
AcDbEntity
  8
0
  6
CONTINUOUS
 62
     1
100
AcDbLine
 10
295.464217
 20
1076.095449
 30
0.0
 11
805.464217
 21
1076.095449
 31
0.0
  0
LINE
  5
295
330
1F
100
AcDbEntity
  8
0
  6
CONTINUOUS
 62
     1
100
AcDbLine
 10
755.464217
 20
1047.227935
 30
0.0
 11
345.464217
 21
1047.227935
 31
0.0
  0
LINE
  5
296
330
1F
100
AcDbEntity
  8
0
  6
CONTINUOUS
 62
     1
100
AcDbLine
 10
295.464217
 20
1018.360422
 30
0.0
 11
805.464217
 21
1018.360422
 31
0.0
  0
LINE
  5
297
330
1F
100
AcDbEntity
  8
0
  6
CONTINUOUS
 62
     1
100
AcDbLine
 10
755.464217
 20
989.492908
 30
0.0
 11
345.464217
 21
989.492908
 31
0.0
  0
LINE
  5
298
330
1F
100
AcDbEntity
  8
0
  6
CONTINUOUS
 62
     1
100
AcDbLine
 10
295.464217
 20
960.625395
 30
0.0
 11
805.464217
 21
960.625395
 31
0.0
  0
LINE
  5
299
330
1F
100
AcDbEntity
  8
0
  6
CONTINUOUS
 62
     1
100
AcDbLine
 10
755.464217
 20
931.757881
 30
0.0
 11
345.464217
 21
931.757881
 31
0.0
  0
LINE
  5
29A
330
1F
100
AcDbEntity
  8
0
  6
CONTINUOUS
 62
     1
100
AcDbLine
 10
295.464217
 20
902.890368
 30
0.0
 11
805.464217
 21
902.890368
 31
0.0
  0
LINE
  5
29B
330
1F
100
AcDbEntity
  8
0
  6
CONTINUOUS
 62
     1
100
AcDbLine
 10
755.464217
 20
874.022854
 30
0.0
 11
345.464217
 21
874.022854
 31
0.0
  0
LINE
  5
29C
330
1F
100
AcDbEntity
  8
0
  6
CONTINUOUS
 62
     1
100
AcDbLine
 10
295.464217
 20
845.155341
 30
0.0
 11
805.464217
 21
845.155341
 31
0.0
  0
LINE
  5
29D
330
1F
100
AcDbEntity
  8
0
  6
CONTINUOUS
 62
     1
100
AcDbLine
 10
755.464217
 20
816.287828
 30
0.0
 11
345.464217
 21
816.287828
 31
0.0
  0
LINE
  5
29E
330
1F
100
AcDbEntity
  8
0
  6
CONTINUOUS
 62
     1
100
AcDbLine
 10
755.464217
 20
758.552801
 30
0.0
 11
345.464217
 21
758.552801
 31
0.0
  0
LINE
  5
29F
330
1F
100
AcDbEntity
  8
0
  6
CONTINUOUS
 62
     1
100
AcDbLine
 10
295.464217
 20
787.420314
 30
0.0
 11
805.464217
 21
787.420314
 31
0.0
  0
LINE
  5
2A0
330
1F
100
AcDbEntity
  8
0
  6
CONTINUOUS
 62
     1
100
AcDbLine
 10
755.464217
 20
700.817774
 30
0.0
 11
345.464217
 21
700.817774
 31
0.0
  0
LINE
  5
2A1
330
1F
100
AcDbEntity
  8
0
  6
CONTINUOUS
 62
     1
100
AcDbLine
 10
295.464217
 20
729.685287
 30
0.0
 11
805.464217
 21
729.685287
 31
0.0
  0
LINE
  5
2A2
330
1F
100
AcDbEntity
  8
0
  6
CONTINUOUS
 62
     3
100
AcDbLine
 10
810.464217
 20
1214.817774
 30
0.0
 11
810.464217
 21
1176.817774
 31
0.0
  0
LINE
  5
2A3
330
1F
100
AcDbEntity
  8
0
  6
CONTINUOUS
 62
     3
100
AcDbLine
 10
290.464217
 20
1214.817774
 30
0.0
 11
290.464217
 21
1176.817774
 31
0.0
  0
DIMENSION
  5
2A4
330
1F
100
AcDbEntity
  8
0
100
AcDbDimension
  2
*D21
 10
783.464217
 20
492.729155
 30
0.0
 11
550.464233
 21
502.729156
 31
0.0
 70
    33
  3
EDDIMINFO
100
AcDbAlignedDimension
 13
317.464217
 23
710.817774
 33
0.0
 14
783.464217
 24
710.817774
 34
0.0
1001
ACAD
1000
DSTYLE
1002
{
1070
     7
1000
EDTIP_ARROW_E
1070
     6
1000
EDTIP_ARROW_S
1070
   173
1070
     1
1002
}
  0
DIMENSION
  5
2AE
330
1F
100
AcDbEntity
  8
0
100
AcDbDimension
  2
*D22
 10
805.464217
 20
414.174224
 30
0.0
 11
550.464233
 21
424.174225
 31
0.0
 70
    33
  3
EDDIMINFO
100
AcDbAlignedDimension
 13
295.464217
 23
740.685287
 33
0.0
 14
805.464217
 24
740.685287
 34
0.0
1001
ACAD
1000
DSTYLE
1002
{
1070
     7
1000
EDTIP_ARROW_E
1070
     6
1000
EDTIP_ARROW_S
1070
   173
1070
     1
1002
}
  0
LINE
  5
2B8
330
1F
100
AcDbEntity
  8
0
  6
CONTINUOUS
 62
     3
100
AcDbLine
 10
1922.273335
 20
697.817774
 30
0.0
 11
1092.273335
 21
697.817774
 31
0.0
  0
LINE
  5
2B9
330
1F
100
AcDbEntity
  8
0
  6
CONTINUOUS
 62
     3
100
AcDbLine
 10
1922.273335
 20
700.817774
 30
0.0
 11
1092.273335
 21
700.817774
 31
0.0
  0
LINE
  5
2BA
330
1F
100
AcDbEntity
  8
0
  6
CONTINUOUS
 62
     3
100
AcDbLine
 10
1922.273335
 20
697.817774
 30
0.0
 11
1922.273335
 21
700.817774
 31
0.0
  0
LINE
  5
2BB
330
1F
100
AcDbEntity
  8
0
  6
CONTINUOUS
 62
     3
100
AcDbLine
 10
1092.273335
 20
697.817774
 30
0.0
 11
1092.273335
 21
700.817774
 31
0.0
  0
LINE
  5
2BC
330
1F
100
AcDbEntity
  8
0
  6
CONTINUOUS
 62
     7
100
AcDbLine
 10
1877.473335
 20
1163.002531
 30
0.0
 11
1901.402036
 21
1176.817774
 31
0.0
  0
LINE
  5
2BD
330
1F
100
AcDbEntity
  8
0
  6
CONTINUOUS
 62
     7
100
AcDbLine
 10
1877.473335
 20
1163.002531
 30
0.0
 11
1927.473335
 21
1134.135018
 31
0.0
  0
LINE
  5
2BE
330
1F
100
AcDbEntity
  8
0
  6
CONTINUOUS
 62
     7
100
AcDbLine
 10
1137.473335
 20
1163.002531
 30
0.0
 11
1113.544633
 21
1176.817774
 31
0.0
  0
LINE
  5
2BF
330
1F
100
AcDbEntity
  8
0
  6
CONTINUOUS
 62
     7
100
AcDbLine
 10
1137.473335
 20
1163.002531
 30
0.0
 11
1087.473335
 21
1134.135018
 31
0.0
  0
LINE
  5
2C0
330
1F
100
AcDbEntity
  8
0
  6
CONTINUOUS
 62
     1
100
AcDbLine
 10
1877.473335
 20
1163.002531
 30
0.0
 11
1137.473335
 21
1163.002531
 31
0.0
  0
LINE
  5
2C1
330
1F
100
AcDbEntity
  8
0
  6
CONTINUOUS
 62
     1
100
AcDbLine
 10
1087.473335
 20
1134.135018
 30
0.0
 11
1927.473335
 21
1134.135018
 31
0.0
  0
LINE
  5
2C2
330
1F
100
AcDbEntity
  8
0
  6
CONTINUOUS
 62
     3
100
AcDbLine
 10
718.464217
 20
697.817774
 30
0.0
 11
783.464217
 21
697.817774
 31
0.0
  0
LINE
  5
2C3
330
1F
100
AcDbEntity
  8
0
  6
CONTINUOUS
 62
     3
100
AcDbLine
 10
783.464217
 20
700.817774
 30
0.0
 11
783.464217
 21
697.817774
 31
0.0
  0
LINE
  5
2C4
330
1F
100
AcDbEntity
  8
0
  6
CONTINUOUS
 62
     3
100
AcDbLine
 10
382.464217
 20
697.817774
 30
0.0
 11
317.464217
 21
697.817774
 31
0.0
  0
LINE
  5
2C5
330
1F
100
AcDbEntity
  8
0
  6
CONTINUOUS
 62
     3
100
AcDbLine
 10
317.464217
 20
700.817774
 30
0.0
 11
317.464217
 21
697.817774
 31
0.0
  0
LINE
  5
2C6
330
1F
100
AcDbEntity
  8
0
  6
CONTINUOUS
 62
     7
100
AcDbLine
 10
755.464217
 20
1162.697989
 30
0.0
 11
805.464217
 21
1133.830476
 31
0.0
  0
LINE
  5
2C7
330
1F
100
AcDbEntity
  8
0
  6
CONTINUOUS
 62
     1
100
AcDbLine
 10
755.464217
 20
1162.697989
 30
0.0
 11
345.464217
 21
1162.697989
 31
0.0
  0
LINE
  5
2C8
330
1F
100
AcDbEntity
  8
0
  6
CONTINUOUS
 62
     7
100
AcDbLine
 10
755.464217
 20
1162.697989
 30
0.0
 11
779.920401
 21
1176.817774
 31
0.0
  0
LINE
  5
2C9
330
1F
100
AcDbEntity
  8
0
  6
CONTINUOUS
 62
     7
100
AcDbLine
 10
345.464217
 20
1162.697989
 30
0.0
 11
321.008032
 21
1176.817774
 31
0.0
  0
LINE
  5
2CA
330
1F
100
AcDbEntity
  8
0
  6
CONTINUOUS
 62
     7
100
AcDbLine
 10
345.464217
 20
1162.697989
 30
0.0
 11
295.464217
 21
1133.830476
 31
0.0
  0
LINE
  5
2CB
330
1F
100
AcDbEntity
  8
LAYER002
  6
CONTINUOUS
 62
     3
100
AcDbLine
 10
158.824201
 20
121.442922
 30
0.0
 11
158.824201
 21
2471.080752
 31
0.0
  0
LINE
  5
2CC
330
1F
100
AcDbEntity
  8
LAYER002
  6
CONTINUOUS
 62
     3
100
AcDbLine
 10
3479.360628
 20
2471.080752
 30
0.0
 11
158.824201
 21
2471.080752
 31
0.0
  0
LINE
  5
2CD
330
1F
100
AcDbEntity
  8
LAYER002
  6
CONTINUOUS
 62
     3
100
AcDbLine
 10
3479.360628
 20
121.442922
 30
0.0
 11
3479.360628
 21
2471.080752
 31
0.0
  0
LINE
  5
2CE
330
1F
100
AcDbEntity
  8
LAYER003
  6
CONTINUOUS
 62
     3
100
AcDbLine
 10
158.824201
 20
233.942922
 30
0.0
 11
3479.360628
 21
233.942922
 31
0.0
  0
LINE
  5
2CF
330
1F
100
AcDbEntity
  8
LAYER003
  6
CONTINUOUS
 62
     3
100
AcDbLine
 10
158.824201
 20
234.442922
 30
0.0
 11
3479.360628
 21
234.442922
 31
0.0
  0
LINE
  5
2D0
330
1F
100
AcDbEntity
  8
LAYER003
  6
CONTINUOUS
 62
     3
100
AcDbLine
 10
158.824201
 20
232.942922
 30
0.0
 11
3479.360628
 21
232.942922
 31
0.0
  0
LINE
  5
2D1
330
1F
100
AcDbEntity
  8
LAYER003
  6
CONTINUOUS
 62
     3
100
AcDbLine
 10
158.824201
 20
232.442922
 30
0.0
 11
3479.360628
 21
232.442922
 31
0.0
  0
LINE
  5
2D2
330
1F
100
AcDbEntity
  8
LAYER003
  6
CONTINUOUS
 62
     3
100
AcDbLine
 10
158.824201
 20
2471.080752
 30
0.0
 11
158.824201
 21
121.442922
 31
0.0
  0
LINE
  5
2D3
330
1F
100
AcDbEntity
  8
LAYER003
  6
CONTINUOUS
 62
     3
100
AcDbLine
 10
158.324201
 20
2471.580752
 30
0.0
 11
158.324201
 21
120.942922
 31
0.0
  0
LINE
  5
2D4
330
1F
100
AcDbEntity
  8
LAYER003
  6
CONTINUOUS
 62
     3
100
AcDbLine
 10
158.324201
 20
120.942922
 30
0.0
 11
3479.860628
 21
120.942922
 31
0.0
  0
LINE
  5
2D5
330
1F
100
AcDbEntity
  8
LAYER003
  6
CONTINUOUS
 62
     3
100
AcDbLine
 10
3479.860628
 20
120.942922
 30
0.0
 11
3479.860628
 21
2471.580752
 31
0.0
  0
LINE
  5
2D6
330
1F
100
AcDbEntity
  8
LAYER003
  6
CONTINUOUS
 62
     3
100
AcDbLine
 10
3479.860628
 20
2471.580752
 30
0.0
 11
158.324201
 21
2471.580752
 31
0.0
  0
LINE
  5
2D7
330
1F
100
AcDbEntity
  8
LAYER003
  6
CONTINUOUS
 62
     3
100
AcDbLine
 10
157.824201
 20
2472.080752
 30
0.0
 11
157.824201
 21
120.442922
 31
0.0
  0
LINE
  5
2D8
330
1F
100
AcDbEntity
  8
LAYER003
  6
CONTINUOUS
 62
     3
100
AcDbLine
 10
157.824201
 20
120.442922
 30
0.0
 11
3480.360628
 21
120.442922
 31
0.0
  0
LINE
  5
2D9
330
1F
100
AcDbEntity
  8
LAYER003
  6
CONTINUOUS
 62
     3
100
AcDbLine
 10
3480.360628
 20
120.442922
 30
0.0
 11
3480.360628
 21
2472.080752
 31
0.0
  0
LINE
  5
2DA
330
1F
100
AcDbEntity
  8
LAYER003
  6
CONTINUOUS
 62
     3
100
AcDbLine
 10
3480.360628
 20
2472.080752
 30
0.0
 11
157.824201
 21
2472.080752
 31
0.0
  0
LINE
  5
2DB
330
1F
100
AcDbEntity
  8
LAYER003
  6
CONTINUOUS
 62
     3
100
AcDbLine
 10
157.324201
 20
2472.580752
 30
0.0
 11
157.324201
 21
119.942922
 31
0.0
  0
LINE
  5
2DC
330
1F
100
AcDbEntity
  8
LAYER003
  6
CONTINUOUS
 62
     3
100
AcDbLine
 10
157.324201
 20
119.942922
 30
0.0
 11
3480.860628
 21
119.942922
 31
0.0
  0
LINE
  5
2DD
330
1F
100
AcDbEntity
  8
LAYER003
  6
CONTINUOUS
 62
     3
100
AcDbLine
 10
3480.860628
 20
119.942922
 30
0.0
 11
3480.860628
 21
2472.580752
 31
0.0
  0
LINE
  5
2DE
330
1F
100
AcDbEntity
  8
LAYER003
  6
CONTINUOUS
 62
     3
100
AcDbLine
 10
3480.860628
 20
2472.580752
 30
0.0
 11
157.324201
 21
2472.580752
 31
0.0
  0
LINE
  5
2DF
330
1F
100
AcDbEntity
  8
LAYER003
  6
CONTINUOUS
 62
     3
100
AcDbLine
 10
156.824201
 20
2473.080752
 30
0.0
 11
156.824201
 21
119.442922
 31
0.0
  0
LINE
  5
2E0
330
1F
100
AcDbEntity
  8
LAYER003
  6
CONTINUOUS
 62
     3
100
AcDbLine
 10
156.824201
 20
119.442922
 30
0.0
 11
3481.360628
 21
119.442922
 31
0.0
  0
LINE
  5
2E1
330
1F
100
AcDbEntity
  8
LAYER003
  6
CONTINUOUS
 62
     3
100
AcDbLine
 10
3481.360628
 20
119.442922
 30
0.0
 11
3481.360628
 21
2473.080752
 31
0.0
  0
LINE
  5
2E2
330
1F
100
AcDbEntity
  8
LAYER003
  6
CONTINUOUS
 62
     3
100
AcDbLine
 10
3481.360628
 20
2473.080752
 30
0.0
 11
156.824201
 21
2473.080752
 31
0.0
  0
LINE
  5
2E3
330
1F
100
AcDbEntity
  8
LAYER003
  6
CONTINUOUS
 62
     3
100
AcDbLine
 10
3479.360628
 20
121.442922
 30
0.0
 11
3479.360628
 21
2471.080752
 31
0.0
  0
LINE
  5
2E4
330
1F
100
AcDbEntity
  8
LAYER003
  6
CONTINUOUS
 62
     3
100
AcDbLine
 10
158.824201
 20
121.442922
 30
0.0
 11
3479.360628
 21
121.442922
 31
0.0
  0
LINE
  5
2E5
330
1F
100
AcDbEntity
  8
LAYER003
  6
CONTINUOUS
 62
     3
100
AcDbLine
 10
158.824201
 20
2471.080752
 30
0.0
 11
3479.360628
 21
2471.080752
 31
0.0
  0
LINE
  5
2E6
330
1F
100
AcDbEntity
  8
LAYER003
  6
CONTINUOUS
 62
     3
100
AcDbLine
 10
158.824201
 20
233.442922
 30
0.0
 11
3479.360628
 21
233.442922
 31
0.0
  0
INSERT
  5
2EA
330
1F
100
AcDbEntity
  8
0
100
AcDbBlockReference
  2
EDDIM026
 10
0.0
 20
0.0
 30
0.0
  0
TEXT
  5
2EE
330
1F
100
AcDbEntity
  8
0
  6
CONTINUOUS
 62
     5
100
AcDbText
 10
392.515625
 20
1514.95166
 30
0.0
 40
30.0
  1
ポリエステル地に樹脂コーティング
 41
0.666667
  7
ED_VECTOR
100
AcDbText
  0
TEXT
  5
2EF
330
1F
100
AcDbEntity
  8
0
  6
CONTINUOUS
 62
     5
100
AcDbText
 10
434.826843
 20
1561.110596
 30
0.0
 40
40.0
  1
４面ジャバラ
 41
0.8
  7
ED_VECTOR
100
AcDbText
  0
LINE
  5
2F0
330
1F
100
AcDbEntity
  8
0
  6
CONTINUOUS
 62
     5
100
AcDbLine
 10
447.657285
 20
1555.190397
 30
0.0
 11
368.05442
 21
1555.190397
 31
0.0
  0
LINE
  5
2F1
330
1F
100
AcDbEntity
  8
0
  6
CONTINUOUS
 62
     3
100
AcDbLine
 10
3402.3185
 20
1579.691853
 30
0.0
 11
2681.445983
 21
1579.691853
 31
0.0
  0
TEXT
  5
2F2
330
1F
100
AcDbEntity
  8
0
  6
CONTINUOUS
 62
     3
100
AcDbText
 10
2697.759521
 20
1590.53418
 30
0.0
 40
40.0
  1
制御方式
 41
0.8
  7
ED_VECTOR
100
AcDbText
  0
TEXT
  5
2F3
330
1F
100
AcDbEntity
  8
0
  6
CONTINUOUS
 62
     3
100
AcDbText
 10
3008.456055
 20
1590.53418
 30
0.0
 40
40.0
  1
ベクトル制御
 41
0.8
  7
ED_VECTOR
100
AcDbText
  0
TEXT
  5
2F4
330
1F
100
AcDbEntity
  8
0
  6
CONTINUOUS
 62
     3
100
AcDbText
 10
2976.061523
 20
1079.233765
 30
0.0
 40
40.0
  1
　　１０Ｒ４／１３
 41
0.8
  7
ED_VECTOR
100
AcDbText
  0
LINE
  5
2F5
330
1F
100
AcDbEntity
  8
0
  6
CONTINUOUS
 62
     3
100
AcDbLine
 10
3402.3185
 20
1067.691866
 30
0.0
 11
2681.445983
 21
1067.691866
 31
0.0
  0
TEXT
  5
2F6
330
1F
100
AcDbEntity
  8
0
  6
CONTINUOUS
 62
     3
100
AcDbText
 10
2686.507324
 20
1079.192505
 30
0.0
 40
40.0
  1
塗装色(マンセル値)　
 41
0.625
  7
ED_VECTOR
100
AcDbText
  0
LINE
  5
2F7
330
1F
100
AcDbEntity
  8
0
  6
CONTINUOUS
 62
     3
100
AcDbLine
 10
2679.360628
 20
561.442922
 30
0.0
 11
3479.360628
 21
561.442922
 31
0.0
  0
LINE
  5
2F8
330
1F
100
AcDbEntity
  8
0
  6
CONTINUOUS
 62
     3
100
AcDbLine
 10
2679.360628
 20
201.442922
 30
0.0
 11
3479.360628
 21
201.442922
 31
0.0
  0
LINE
  5
2F9
330
1F
100
AcDbEntity
  8
0
  6
CONTINUOUS
 62
     3
100
AcDbLine
 10
2679.360628
 20
361.442922
 30
0.0
 11
3479.360628
 21
361.442922
 31
0.0
  0
LINE
  5
2FA
330
1F
100
AcDbEntity
  8
0
  6
CONTINUOUS
 62
     3
100
AcDbLine
 10
2679.360628
 20
421.442922
 30
0.0
 11
3479.360628
 21
421.442922
 31
0.0
  0
LINE
  5
2FB
330
1F
100
AcDbEntity
  8
0
  6
CONTINUOUS
 62
     3
100
AcDbLine
 10
2679.360628
 20
481.442922
 30
0.0
 11
3479.360628
 21
481.442922
 31
0.0
  0
LINE
  5
2FC
330
1F
100
AcDbEntity
  8
0
  6
CONTINUOUS
 62
     3
100
AcDbLine
 10
2679.360628
 20
641.442922
 30
0.0
 11
3479.360628
 21
641.442922
 31
0.0
  0
LINE
  5
2FD
330
1F
100
AcDbEntity
  8
0
  6
CONTINUOUS
 62
     3
100
AcDbLine
 10
2679.360628
 20
721.442922
 30
0.0
 11
2679.360628
 21
121.442922
 31
0.0
  0
LINE
  5
2FE
330
1F
100
AcDbEntity
  8
0
  6
CONTINUOUS
 62
     3
100
AcDbLine
 10
2879.360628
 20
721.442922
 30
0.0
 11
2879.360628
 21
481.442922
 31
0.0
  0
LINE
  5
2FF
330
1F
100
AcDbEntity
  8
0
  6
CONTINUOUS
 62
     3
100
AcDbLine
 10
2679.360628
 20
721.442922
 30
0.0
 11
3479.360628
 21
721.442922
 31
0.0
  0
LINE
  5
300
330
1F
100
AcDbEntity
  8
0
  6
CONTINUOUS
 62
     3
100
AcDbLine
 10
3179.360628
 20
481.442922
 30
0.0
 11
3179.360628
 21
201.442922
 31
0.0
  0
TEXT
  5
301
330
1F
100
AcDbEntity
  8
0
  6
CONTINUOUS
 62
     3
100
AcDbText
 10
2899.051815
 20
130.00565
 30
0.0
 40
59.380363
  1
東正車輌株式会社
 41
0.788955
  7
ED_VECTOR
100
AcDbText
  0
LINE
  5
302
330
1F
100
AcDbEntity
  8
0
  6
CONTINUOUS
 62
     3
100
AcDbLine
 10
2929.360628
 20
421.442922
 30
0.0
 11
2929.360628
 21
201.442922
 31
0.0
  0
TEXT
  5
303
330
1F
100
AcDbEntity
  8
0
  6
CONTINUOUS
 62
     3
100
AcDbText
 10
2709.360596
 20
656.442871
 30
0.0
 40
50.0
  1
品　名
 41
0.8
  7
ED_VECTOR
100
AcDbText
  0
TEXT
  5
304
330
1F
100
AcDbEntity
  8
0
  6
CONTINUOUS
 62
     3
100
AcDbText
 10
2709.360596
 20
576.442871
 30
0.0
 40
50.0
  1
型　式
 41
0.8
  7
ED_VECTOR
100
AcDbText
  0
TEXT
  5
305
330
1F
100
AcDbEntity
  8
0
  6
CONTINUOUS
 62
     3
100
AcDbText
 10
2684.360596
 20
496.442932
 30
0.0
 40
50.0
  1
図面番号
 41
0.8
  7
ED_VECTOR
100
AcDbText
  0
TEXT
  5
306
330
1F
100
AcDbEntity
  8
0
  6
CONTINUOUS
 62
     3
100
AcDbText
 10
3259.360596
 20
426.442963
 30
0.0
 40
50.0
  1
Ｂ－４
 41
0.8
  7
ED_VECTOR
100
AcDbText
  0
TEXT
  5
307
330
1F
100
AcDbEntity
  8
0
  6
CONTINUOUS
 62
     3
100
AcDbText
 10
2734.360596
 20
366.442963
 30
0.0
 40
50.0
  1
検　図
 41
0.8
  7
ED_VECTOR
100
AcDbText
  0
TEXT
  5
308
330
1F
100
AcDbEntity
  8
0
  6
CONTINUOUS
 62
     3
100
AcDbText
 10
2984.360596
 20
366.442963
 30
0.0
 40
50.0
  1
作　図
 41
0.8
  7
ED_VECTOR
100
AcDbText
  0
TEXT
  5
309
330
1F
100
AcDbEntity
  8
0
  6
CONTINUOUS
 62
     3
100
AcDbText
 10
3259.360596
 20
366.442963
 30
0.0
 40
50.0
  1
尺　度
 41
0.8
  7
ED_VECTOR
100
AcDbText
  0
TEXT
  5
30A
330
1F
100
AcDbEntity
  8
0
  6
CONTINUOUS
 62
     3
100
AcDbText
 10
3360.099365
 20
215.928192
 30
0.0
 40
50.0
  1
１０
 41
0.8
  7
ED_VECTOR
100
AcDbText
  0
TEXT
  5
30B
330
1F
100
AcDbEntity
  8
0
  6
CONTINUOUS
 62
     3
100
AcDbText
 10
3339.779785
 20
263.632904
 30
0.0
 40
50.0
  1
／
 41
0.8
  7
ED_VECTOR
100
AcDbText
  0
TEXT
  5
30C
330
1F
100
AcDbEntity
  8
0
  6
CONTINUOUS
 62
     3
100
AcDbText
 10
3309.566895
 20
298.616364
 30
0.0
 40
50.0
  1
１
 41
0.8
  7
ED_VECTOR
100
AcDbText
  0
TEXT
  5
30D
330
1F
100
AcDbEntity
  8
0
  6
CONTINUOUS
 62
     3
100
AcDbText
 10
3019.360596
 20
656.442871
 30
0.0
 40
50.0
  1
ゴールドリフター
 41
0.8
  7
ED_VECTOR
100
AcDbText
  0
INSERT
  5
311
330
1F
100
AcDbEntity
  8
0
100
AcDbBlockReference
  2
BLKF027
 10
0.0
 20
0.0
 30
0.0
  0
LINE
  5
3C3
330
1F
100
AcDbEntity
  8
LAYER002
  6
CONTINUOUS
 62
     3
100
AcDbLine
 10
3479.360628
 20
121.442922
 30
0.0
 11
158.824201
 21
121.442922
 31
0.0
  0
LINE
  5
3C4
330
1F
100
AcDbEntity
  8
0
  6
CONTINUOUS
 62
     3
100
AcDbLine
 10
2679.360628
 20
121.442922
 30
0.0
 11
3479.360628
 21
121.442922
 31
0.0
  0
TEXT
  5
3C5
330
1F
100
AcDbEntity
  8
0
  6
CONTINUOUS
 62
     5
100
AcDbText
 10
2150.159424
 20
2176.14502
 30
0.0
 40
40.0
  1
電源コード　2ｍ
 41
0.75
  7
ED_VECTOR
100
AcDbText
  0
LINE
  5
3C6
330
1F
100
AcDbEntity
  8
0
  6
CONTINUOUS
 62
     3
100
AcDbLine
 10
2241.619689
 20
1947.051118
 30
0.0
 11
2244.619689
 21
1941.854966
 31
0.0
  0
LINE
  5
3C7
330
1F
100
AcDbEntity
  8
0
  6
CONTINUOUS
 62
     5
100
AcDbLine
 10
2481.486332
 20
2165.364712
 30
0.0
 11
2096.963645
 21
2165.364712
 31
0.0
  0
LINE
  5
3C8
330
1F
100
AcDbEntity
  8
0
  6
CONTINUOUS
 62
     5
100
AcDbLine
 10
2246.648416
 20
1958.037359
 30
0.0
 11
2096.963645
 21
2165.364712
 31
0.0
  0
INSERT
  5
3C9
330
1F
100
AcDbEntity
  8
0
  6
CONTINUOUS
 62
     5
100
AcDbBlockReference
  2
EDTIP_ARROW_S
 10
2246.648416
 20
1958.037359
 30
0.0
 41
30.0
 42
30.0
 50
305.828271
  0
TEXT
  5
3CA
330
1F
100
AcDbEntity
  8
0
  6
CONTINUOUS
 62
     4
100
AcDbText
 10
2152.249756
 20
2116.321777
 30
0.0
 40
40.0
  1
２本線(＋極/-極)
 41
0.75
  7
ED_VECTOR
100
AcDbText
  0
TEXT
  5
3CB
330
1F
100
AcDbEntity
  8
0
  6
CONTINUOUS
 62
     3
100
AcDbText
 10
2769.151855
 20
1272.014404
 30
0.0
 40
40.0
  1
上昇端・下降端リードスイッチ付
 41
0.8
  7
ED_VECTOR
100
AcDbText
  0
INSERT
  5
3CF
330
1F
100
AcDbEntity
  8
0
100
AcDbBlockReference
  2
BLKF028
 10
0.0
 20
0.0
 30
0.0
  0
TEXT
  5
805
330
1F
100
AcDbEntity
  8
0
  6
CONTINUOUS
 62
     3
100
AcDbText
 10
2729.360596
 20
426.442963
 30
0.0
 40
50.0
  1
2021年4月7日
 41
0.8
  7
ED_VECTOR
100
AcDbText
  0
TEXT
  5
806
330
1F
100
AcDbEntity
  8
0
  6
CONTINUOUS
 62
     3
100
AcDbText
 10
2924.479248
 20
2228.443115
 30
0.0
 40
40.0
  1
GLM-100-58VJ-48V
 41
0.75
  7
ED_VECTOR
100
AcDbText
  0
TEXT
  5
807
330
1F
100
AcDbEntity
  8
0
  6
CONTINUOUS
 62
     3
100
AcDbText
 10
2968.306641
 20
1526.592773
 30
0.0
 40
40.0
  1
ＤＣ48Ｖ,７０Ｗ
 41
0.8
  7
ED_VECTOR
100
AcDbText
  0
TEXT
  5
808
330
1F
100
AcDbEntity
  8
0
  6
CONTINUOUS
 62
     3
100
AcDbText
 10
3057.86377
 20
1463.679688
 30
0.0
 40
40.0
  1
DC48V
 41
0.8
  7
ED_VECTOR
100
AcDbText
  0
TEXT
  5
809
330
1F
100
AcDbEntity
  8
0
  6
CONTINUOUS
 62
     3
100
AcDbText
 10
2899.360596
 20
576.442871
 30
0.0
 40
50.0
  1
GLM-100-58VJ-48V
 41
0.7
  7
ED_VECTOR
100
AcDbText
  0
ENDSEC
  0
SECTION
  2
OBJECTS
  0
DICTIONARY
  5
C
330
0
100
AcDbDictionary
  3
ACAD_GROUP
350
D
  3
ACAD_LAYOUT
350
1A
  3
ACAD_MATERIAL
350
43
  3
ACAD_MLEADERSTYLE
350
6B
  3
ACAD_MLINESTYLE
350
17
  3
ACAD_PLOTSETTINGS
350
19
  3
ACAD_SCALELIST
350
47
  3
ACAD_VISUALSTYLE
350
2A
  3
ACDBVARIABLEDICTIONARY
350
80A
1001
ACAD
1000
TREAT_AS_HARD
1070
     0
  0
DICTIONARY
  5
D
102
{ACAD_REACTORS
330
C
102
}
330
C
100
AcDbDictionary
1001
ACAD
1000
TREAT_AS_HARD
1070
     0
  0
DICTIONARY
  5
1A
102
{ACAD_REACTORS
330
C
102
}
330
C
100
AcDbDictionary
1001
ACAD
1000
TREAT_AS_HARD
1070
     0
  0
DICTIONARY
  5
43
102
{ACAD_REACTORS
330
C
102
}
330
C
100
AcDbDictionary
  3
BYBLOCK
350
45
  3
BYLAYER
350
44
  3
GLOBAL
350
46
1001
ACAD
1000
TREAT_AS_HARD
1070
     0
  0
DICTIONARY
  5
6B
102
{ACAD_REACTORS
330
C
102
}
330
C
100
AcDbDictionary
  3
STANDARD
350
6C
1001
ACAD
1000
TREAT_AS_HARD
1070
     0
  0
DICTIONARY
  5
17
102
{ACAD_REACTORS
330
C
102
}
330
C
100
AcDbDictionary
  3
STANDARD
350
18
1001
ACAD
1000
TREAT_AS_HARD
1070
     0
  0
DICTIONARY
  5
19
102
{ACAD_REACTORS
330
C
102
}
330
C
100
AcDbDictionary
1001
ACAD
1000
TREAT_AS_HARD
1070
     0
  0
DICTIONARY
  5
47
102
{ACAD_REACTORS
330
C
102
}
330
C
100
AcDbDictionary
  3
A0
350
48
  3
A1
350
49
  3
A2
350
4A
  3
A3
350
4B
  3
A4
350
4C
  3
A5
350
4D
  3
A6
350
4E
  3
A7
350
4F
  3
A8
350
50
  3
A9
350
51
  3
B0
350
52
  3
B1
350
53
  3
B2
350
54
  3
B3
350
55
  3
B4
350
56
  3
B5
350
57
  3
B6
350
58
  3
B7
350
59
  3
B8
350
5A
  3
B9
350
5B
  3
C0
350
5C
  3
C1
350
5D
  3
C2
350
5E
  3
C3
350
5F
  3
C4
350
60
  3
C5
350
61
  3
C6
350
62
  3
C7
350
63
  3
C8
350
64
  3
C9
350
65
  3
D0
350
66
  3
D1
350
67
  3
D2
350
68
1001
ACAD
1000
TREAT_AS_HARD
1070
     0
  0
DICTIONARY
  5
2A
102
{ACAD_REACTORS
330
C
102
}
330
C
100
AcDbDictionary
  3
2DWIREFRAME
350
2F
  3
BASIC
350
32
  3
BRIGHTEN
350
36
  3
COLORCHANGE
350
3A
  3
CONCEPTUAL
350
34
  3
DIM
350
35
  3
EDGECOLOROFF
350
3D
  3
FACEPATTERN
350
39
  3
FLAT
350
2B
  3
FLATWITHEDGES
350
2C
  3
GOURAUD
350
2D
  3
GOURAUDWITHEDGES
350
2E
  3
HIDDEN
350
31
  3
JITTEROFF
350
3B
  3
LINEPATTERN
350
38
  3
OVERHANGOFF
350
3C
  3
REALISTIC
350
33
  3
SHADED
350
42
  3
SHADED_WITH_EDGES
350
41
  3
SHADES_OF_GRAY
350
3E
  3
SKETCHY
350
3F
  3
THICKEN
350
37
  3
WIREFRAME
350
30
  3
X-RAY
350
40
1001
ACAD
1000
TREAT_AS_HARD
1070
     0
  0
DICTIONARY
  5
80A
102
{ACAD_REACTORS
330
C
102
}
330
C
100
AcDbDictionary
  3
CANNOSCALE
350
815
  3
CENTEREXE
350
811
  3
CENTERLTYPEFILE
350
812
  3
CMLEADERSTYLE
350
80C
  3
CTABLESTYLE
350
80B
  3
DIMASSOC
350
813
  3
HIDETEXT
350
814
  3
MSLTSCALE
350
816
  3
PSOLHEIGHT
350
80E
  3
PSOLWIDTH
350
80D
1001
ACAD
1000
TREAT_AS_HARD
1070
     0
  0
MATERIAL
  5
45
102
{ACAD_REACTORS
330
43
102
}
102
{ACAD_XDICTIONARY
360
819
102
}
330
43
100
AcDbMaterial
  1
BYBLOCK
  0
MATERIAL
  5
44
102
{ACAD_REACTORS
330
43
102
}
102
{ACAD_XDICTIONARY
360
817
102
}
330
43
100
AcDbMaterial
  1
BYLAYER
  0
MATERIAL
  5
46
102
{ACAD_REACTORS
330
43
102
}
102
{ACAD_XDICTIONARY
360
81B
102
}
330
43
100
AcDbMaterial
  1
GLOBAL
  0
ACAD_PROXY_OBJECT
  5
6C
102
{ACAD_REACTORS
330
6B
102
}
330
6B
100
AcDbZombieObject
 90
      499
 91
      505
 93
      610
310
40901902A4063FBFFFFFE0000000000000020400000000000020404214DD185B99185C990000000000000104090141901A00000000000004100000000000000041025764000000000000039000
340
14
340
0
340
11
340
0
 94
        0
1001
ACAD_MLEADERVER
1070
     2
  0
MLINESTYLE
  5
18
102
{ACAD_REACTORS
330
17
102
}
330
17
100
AcDbMlineStyle
  2
Standard
 70
     0
  3

 62
   256
 51
90.0
 52
90.0
 71
     2
 49
0.5
 62
   256
  6
BYLAYER
 49
-0.5
 62
   256
  6
BYLAYER
  0
ACAD_PROXY_OBJECT
  5
48
102
{ACAD_REACTORS
330
47
102
}
330
47
100
AcDbZombieObject
 90
      499
 91
      503
 93
       41
310
903313A31580
  0
ACAD_PROXY_OBJECT
  5
49
102
{ACAD_REACTORS
330
47
102
}
330
47
100
AcDbZombieObject
 90
      499
 91
      503
 93
      105
310
903313A324000000000000004000
  0
ACAD_PROXY_OBJECT
  5
4A
102
{ACAD_REACTORS
330
47
102
}
330
47
100
AcDbZombieObject
 90
      499
 91
      503
 93
      105
310
903313A344000000000000104000
  0
ACAD_PROXY_OBJECT
  5
4B
102
{ACAD_REACTORS
330
47
102
}
330
47
100
AcDbZombieObject
 90
      499
 91
      503
 93
      105
310
903313A354000000000000144000
  0
ACAD_PROXY_OBJECT
  5
4C
102
{ACAD_REACTORS
330
47
102
}
330
47
100
AcDbZombieObject
 90
      499
 91
      503
 93
      105
310
903313A384000000000000204000
  0
ACAD_PROXY_OBJECT
  5
4D
102
{ACAD_REACTORS
330
47
102
}
330
47
100
AcDbZombieObject
 90
      499
 91
      503
 93
      113
310
904313A31304000000000000244000
  0
ACAD_PROXY_OBJECT
  5
4E
102
{ACAD_REACTORS
330
47
102
}
330
47
100
AcDbZombieObject
 90
      499
 91
      503
 93
      113
310
904313A31364000000000000304000
  0
ACAD_PROXY_OBJECT
  5
4F
102
{ACAD_REACTORS
330
47
102
}
330
47
100
AcDbZombieObject
 90
      499
 91
      503
 93
      113
310
904313A32304000000000000344000
  0
ACAD_PROXY_OBJECT
  5
50
102
{ACAD_REACTORS
330
47
102
}
330
47
100
AcDbZombieObject
 90
      499
 91
      503
 93
      113
310
904313A333040000000000003E4000
  0
ACAD_PROXY_OBJECT
  5
51
102
{ACAD_REACTORS
330
47
102
}
330
47
100
AcDbZombieObject
 90
      499
 91
      503
 93
      113
310
904313A34304000000000000444000
  0
ACAD_PROXY_OBJECT
  5
52
102
{ACAD_REACTORS
330
47
102
}
330
47
100
AcDbZombieObject
 90
      499
 91
      503
 93
      113
310
904313A35304000000000000494000
  0
ACAD_PROXY_OBJECT
  5
53
102
{ACAD_REACTORS
330
47
102
}
330
47
100
AcDbZombieObject
 90
      499
 91
      503
 93
      121
310
905313A3130304000000000000594000
  0
ACAD_PROXY_OBJECT
  5
54
102
{ACAD_REACTORS
330
47
102
}
330
47
100
AcDbZombieObject
 90
      499
 91
      503
 93
      105
310
903323A310000000000000010100
  0
ACAD_PROXY_OBJECT
  5
55
102
{ACAD_REACTORS
330
47
102
}
330
47
100
AcDbZombieObject
 90
      499
 91
      503
 93
      105
310
903343A310000000000000410100
  0
ACAD_PROXY_OBJECT
  5
56
102
{ACAD_REACTORS
330
47
102
}
330
47
100
AcDbZombieObject
 90
      499
 91
      503
 93
      105
310
903383A310000000000000810100
  0
ACAD_PROXY_OBJECT
  5
57
102
{ACAD_REACTORS
330
47
102
}
330
47
100
AcDbZombieObject
 90
      499
 91
      503
 93
      113
310
90431303A310000000000000910100
  0
ACAD_PROXY_OBJECT
  5
58
102
{ACAD_REACTORS
330
47
102
}
330
47
100
AcDbZombieObject
 90
      499
 91
      503
 93
      121
310
9053130303A310000000000001650100
  0
ACAD_PROXY_OBJECT
  5
59
102
{ACAD_REACTORS
330
47
102
}
330
47
100
AcDbZombieObject
 90
      499
 91
      503
 93
      257
310
90E312F31323822203D2031272D3022000000000000200FC000000000000284000
  0
ACAD_PROXY_OBJECT
  5
5A
102
{ACAD_REACTORS
330
47
102
}
330
47
100
AcDbZombieObject
 90
      499
 91
      503
 93
      249
310
90D312F363422203D2031272D3022000000000000240FC000000000000284000
  0
ACAD_PROXY_OBJECT
  5
5B
102
{ACAD_REACTORS
330
47
102
}
330
47
100
AcDbZombieObject
 90
      499
 91
      503
 93
      249
310
90D312F333222203D2031272D3022000000000000280FC000000000000284000
  0
ACAD_PROXY_OBJECT
  5
5C
102
{ACAD_REACTORS
330
47
102
}
330
47
100
AcDbZombieObject
 90
      499
 91
      503
 93
      249
310
90D312F313622203D2031272D30220000000000002C0FC000000000000284000
  0
ACAD_PROXY_OBJECT
  5
5D
102
{ACAD_REACTORS
330
47
102
}
330
47
100
AcDbZombieObject
 90
      499
 91
      503
 93
      249
310
90D332F333222203D2031272D30220000000000002E0FC000000000000284000
  0
ACAD_PROXY_OBJECT
  5
5E
102
{ACAD_REACTORS
330
47
102
}
330
47
100
AcDbZombieObject
 90
      499
 91
      503
 93
      241
310
90C312F3822203D2031272D3022000000000000300FC000000000000284000
  0
ACAD_PROXY_OBJECT
  5
5F
102
{ACAD_REACTORS
330
47
102
}
330
47
100
AcDbZombieObject
 90
      499
 91
      503
 93
      249
310
90D332F313622203D2031272D3022000000000000320FC000000000000284000
  0
ACAD_PROXY_OBJECT
  5
60
102
{ACAD_REACTORS
330
47
102
}
330
47
100
AcDbZombieObject
 90
      499
 91
      503
 93
      241
310
90C312F3422203D2031272D3022000000000000340FC000000000000284000
  0
ACAD_PROXY_OBJECT
  5
61
102
{ACAD_REACTORS
330
47
102
}
330
47
100
AcDbZombieObject
 90
      499
 91
      503
 93
      241
310
90C332F3822203D2031272D3022000000000000360FC000000000000284000
  0
ACAD_PROXY_OBJECT
  5
62
102
{ACAD_REACTORS
330
47
102
}
330
47
100
AcDbZombieObject
 90
      499
 91
      503
 93
      241
310
90C312F3222203D2031272D3022000000000000380FC000000000000284000
  0
ACAD_PROXY_OBJECT
  5
63
102
{ACAD_REACTORS
330
47
102
}
330
47
100
AcDbZombieObject
 90
      499
 91
      503
 93
      241
310
90C332F3422203D2031272D30220000000000003A0FC000000000000284000
  0
ACAD_PROXY_OBJECT
  5
64
102
{ACAD_REACTORS
330
47
102
}
330
47
100
AcDbZombieObject
 90
      499
 91
      503
 93
      161
310
90A3122203D2031272D30224000000000000284000
  0
ACAD_PROXY_OBJECT
  5
65
102
{ACAD_REACTORS
330
47
102
}
330
47
100
AcDbZombieObject
 90
      499
 91
      503
 93
      257
310
90E312D312F3222203D2031272D30220000000000003E0FC000000000000284000
  0
ACAD_PROXY_OBJECT
  5
66
102
{ACAD_REACTORS
330
47
102
}
330
47
100
AcDbZombieObject
 90
      499
 91
      503
 93
      225
310
90A3322203D2031272D302200000000000002100000000000000284000
  0
ACAD_PROXY_OBJECT
  5
67
102
{ACAD_REACTORS
330
47
102
}
330
47
100
AcDbZombieObject
 90
      499
 91
      503
 93
      225
310
90A3622203D2031272D302200000000000006100000000000000284000
  0
ACAD_PROXY_OBJECT
  5
68
102
{ACAD_REACTORS
330
47
102
}
330
47
100
AcDbZombieObject
 90
      499
 91
      503
 93
      249
310
90D31272D3022203D2031272D30220000000000000A100000000000000284000
  0
ACAD_PROXY_OBJECT
  5
2F
102
{ACAD_REACTORS
330
2A
102
}
330
2A
100
AcDbZombieObject
 90
      499
 91
      501
 93
      436
310
42CC9915DA5C99599C985B595049028333333333333E33F0000000000000F90107901411070040501600405405064090741402480A0340
1001
ACAD
1000
AcDbSavedByObjectVersion
1070
     0
  0
ACAD_PROXY_OBJECT
  5
32
102
{ACAD_REACTORS
330
2A
102
}
330
2A
100
AcDbZombieObject
 90
      499
 91
      501
 93
      388
310
4150985CDA58D07406404333333333333E33F0000000000000F90107A41107004050150841D405064090741402480A0350
1001
ACAD
1000
AcDbSavedByObjectVersion
1070
     0
  0
ACAD_PROXY_OBJECT
  5
36
102
{ACAD_REACTORS
330
2A
102
}
330
2A
100
AcDbZombieObject
 90
      499
 91
      501
 93
      428
310
42109C9A59DA1D195B90C409028333333333333E33F0000000000000F9010790141107004050150841D405064090741402480A029950
1001
ACAD
1000
AcDbSavedByObjectVersion
1070
     0
  0
ACAD_PROXY_OBJECT
  5
3A
102
{ACAD_REACTORS
330
2A
102
}
330
2A
100
AcDbZombieObject
 90
      499
 91
      501
 93
      452
310
42D0DBDB1BDC90DA185B99D95104090240C333333333333E33F0000000000000F90108901411070040501508421405064090741402480A0350
1001
ACAD
1000
AcDbSavedByObjectVersion
1070
     0
  0
ACAD_PROXY_OBJECT
  5
34
102
{ACAD_REACTORS
330
2A
102
}
330
2A
100
AcDbZombieObject
 90
      499
 91
      501
 93
      500
310
4290DBDB98D95C1D1D585B10940D028333333333333E33F0000000000000F90107902409070040501000000000018199010841D405064090740C02480A0340
1001
ACAD
1000
AcDbSavedByObjectVersion
1070
     0
  0
ACAD_PROXY_OBJECT
  5
35
102
{ACAD_REACTORS
330
2A
102
}
330
2A
100
AcDbZombieObject
 90
      499
 91
      501
 93
      412
310
40D11A5B50B409028333333333333E33F0000000000000F9010790141107004050150841D405064090741402480A02677FFFFFD0
1001
ACAD
1000
AcDbSavedByObjectVersion
1070
     0
  0
ACAD_PROXY_OBJECT
  5
3D
102
{ACAD_REACTORS
330
2A
102
}
330
2A
100
AcDbZombieObject
 90
      499
 91
      501
 93
      452
310
43115919D950DBDB1BDC93D999916409028333333333333E33F0000000000000F9010790141107004050150841D405064090741402480A0350
1001
ACAD
1000
AcDbSavedByObjectVersion
1070
     0
  0
ACAD_PROXY_OBJECT
  5
39
102
{ACAD_REACTORS
330
2A
102
}
330
2A
100
AcDbZombieObject
 90
      499
 91
      501
 93
      444
310
42D19858D95C185D1D195C9B90F409028333333333333E33F0000000000000F9010790141107004050150841D405064090741402480A0350
1001
ACAD
1000
AcDbSavedByObjectVersion
1070
     0
  0
ACAD_PROXY_OBJECT
  5
2B
102
{ACAD_REACTORS
330
2A
102
}
330
2A
100
AcDbZombieObject
 90
      499
 91
      501
 93
      380
310
41119B185D240901404333333333333E33F0000000000000F9010740A907004050150841D405064090741402480A1B50
1001
ACAD
1000
AcDbSavedByObjectVersion
1070
     0
  0
ACAD_PROXY_OBJECT
  5
2C
102
{ACAD_REACTORS
330
2A
102
}
330
2A
100
AcDbZombieObject
 90
      499
 91
      501
 93
      468
310
43519B185D15DA5D1A115919D95CD0140901404333333333333E33F0000000000000F90107409019070040501600405405064090741402480A1B50
1001
ACAD
1000
AcDbSavedByObjectVersion
1070
     0
  0
ACAD_PROXY_OBJECT
  5
2D
102
{ACAD_REACTORS
330
2A
102
}
330
2A
100
AcDbZombieObject
 90
      499
 91
      501
 93
      404
310
41D1DBDD5C985D5910240902404333333333333E33F0000000000000F9010740A9070040501641D405064090741402480A1B50
1001
ACAD
1000
AcDbSavedByObjectVersion
1070
     0
  0
ACAD_PROXY_OBJECT
  5
2E
102
{ACAD_REACTORS
330
2A
102
}
330
2A
100
AcDbZombieObject
 90
      499
 91
      501
 93
      492
310
4411DBDD5C985D5915DA5D1A115919D95CD0340902404333333333333E33F0000000000000F90107409019070040501600405405064090741402480A1B50
1001
ACAD
1000
AcDbSavedByObjectVersion
1070
     0
  0
ACAD_PROXY_OBJECT
  5
31
102
{ACAD_REACTORS
330
2A
102
}
330
2A
100
AcDbZombieObject
 90
      499
 91
      501
 93
      476
310
41921A5919195B90640502408333333333333E33F0000000000000F901079024090700405020000000000001110200405405064090740C02480A0340
1001
ACAD
1000
AcDbSavedByObjectVersion
1070
     0
  0
ACAD_PROXY_OBJECT
  5
3B
102
{ACAD_REACTORS
330
2A
102
}
330
2A
100
AcDbZombieObject
 90
      499
 91
      501
 93
      428
310
42529A5D1D195C93D999914409028333333333333E33F0000000000000F9010790141107004050150A41D405064090741402480A0350
1001
ACAD
1000
AcDbSavedByObjectVersion
1070
     0
  0
ACAD_PROXY_OBJECT
  5
38
102
{ACAD_REACTORS
330
2A
102
}
330
2A
100
AcDbZombieObject
 90
      499
 91
      501
 93
      444
310
42D31A5B995C185D1D195C9B90E409028333333333333E33F0000000000000F9010790141107004050750841D405064090741402483A0350
1001
ACAD
1000
AcDbSavedByObjectVersion
1070
     0
  0
ACAD_PROXY_OBJECT
  5
3C
102
{ACAD_REACTORS
330
2A
102
}
330
2A
100
AcDbZombieObject
 90
      499
 91
      501
 93
      444
310
42D3DD995C9A185B99D3D999915409028333333333333E33F0000000000000F9010790141107004050150941D405064090741402480A0350
1001
ACAD
1000
AcDbSavedByObjectVersion
1070
     0
  0
ACAD_PROXY_OBJECT
  5
33
102
{ACAD_REACTORS
330
2A
102
}
330
2A
100
AcDbZombieObject
 90
      499
 91
      501
 93
      428
310
425499585B1A5CDD1A58D08409038333333333333E33F0000000000000F9010740A907004050150800405405064090740C02480A1B40
1001
ACAD
1000
AcDbSavedByObjectVersion
1070
     0
  0
ACAD_PROXY_OBJECT
  5
42
102
{ACAD_REACTORS
330
2A
102
}
330
2A
100
AcDbZombieObject
 90
      499
 91
      501
 93
      420
310
4194DA1859195911B40902404333333333333E33F0000000000000F9010740A41107004050150800405405064090840C02480A0B40
1001
ACAD
1000
AcDbSavedByObjectVersion
1070
     0
  0
ACAD_PROXY_OBJECT
  5
41
102
{ACAD_REACTORS
330
2A
102
}
330
2A
100
AcDbZombieObject
 90
      499
 91
      501
 93
      516
310
4454DA18591959081DDA5D1A08195919D95CD1A40902404333333333333E33F0000000000000F901074090142907004050250800405405064090740C02480A0B40
1001
ACAD
1000
AcDbSavedByObjectVersion
1070
     0
  0
ACAD_PROXY_OBJECT
  5
3E
102
{ACAD_REACTORS
330
2A
102
}
330
2A
100
AcDbZombieObject
 90
      499
 91
      501
 93
      532
310
4394DA1859195CC81BD98811DC985E5174090240C333333333333E33F0000000000000F901079024090741D01000000000000111010841D405064090740C02480A0340
1001
ACAD
1000
AcDbSavedByObjectVersion
1070
     0
  0
ACAD_PROXY_OBJECT
  5
3F
102
{ACAD_REACTORS
330
2A
102
}
330
2A
100
AcDbZombieObject
 90
      499
 91
      501
 93
      476
310
41D4DAD95D18DA1E51840502408333333333333E33F0000000000000F901079024090741D01000000000000111010B41D405064090741802480A0340
1001
ACAD
1000
AcDbSavedByObjectVersion
1070
     0
  0
ACAD_PROXY_OBJECT
  5
37
102
{ACAD_REACTORS
330
2A
102
}
330
2A
100
AcDbZombieObject
 90
      499
 91
      501
 93
      412
310
41D51A1A58DAD95B90D409028333333333333E33F0000000000000F9010790141107004050150C41D405064090741402480A0350
1001
ACAD
1000
AcDbSavedByObjectVersion
1070
     0
  0
ACAD_PROXY_OBJECT
  5
30
102
{ACAD_REACTORS
330
2A
102
}
330
2A
100
AcDbZombieObject
 90
      499
 91
      501
 93
      420
310
4255DA5C99599C985B595059028333333333333E33F0000000000000F90107901411070040501600405405064090740C02480A0340
1001
ACAD
1000
AcDbSavedByObjectVersion
1070
     0
  0
ACAD_PROXY_OBJECT
  5
40
102
{ACAD_REACTORS
330
2A
102
}
330
2A
100
AcDbZombieObject
 90
      499
 91
      501
 93
      404
310
41560B54985E51940902404000000000000E03F0000000000000F9010740501907004050150841D405064090740C02480A1B40
1001
ACAD
1000
AcDbSavedByObjectVersion
1070
     0
  0
DICTIONARYVAR
  5
815
102
{ACAD_REACTORS
330
80A
102
}
330
80A
100
DictionaryVariables
280
     0
  1
1:1
  0
DICTIONARYVAR
  5
811
102
{ACAD_REACTORS
330
80A
102
}
330
80A
100
DictionaryVariables
280
     0
  1
3.500000
  0
DICTIONARYVAR
  5
812
102
{ACAD_REACTORS
330
80A
102
}
330
80A
100
DictionaryVariables
280
     0
  1
acadiso.lin
  0
DICTIONARYVAR
  5
80C
102
{ACAD_REACTORS
330
80A
102
}
330
80A
100
DictionaryVariables
280
     0
  1
Standard
  0
DICTIONARYVAR
  5
80B
102
{ACAD_REACTORS
330
80A
102
}
330
80A
100
DictionaryVariables
280
     0
  1
Standard
  0
DICTIONARYVAR
  5
813
102
{ACAD_REACTORS
330
80A
102
}
330
80A
100
DictionaryVariables
280
     0
  1
2
  0
DICTIONARYVAR
  5
814
102
{ACAD_REACTORS
330
80A
102
}
330
80A
100
DictionaryVariables
280
     0
  1
1
  0
DICTIONARYVAR
  5
816
102
{ACAD_REACTORS
330
80A
102
}
330
80A
100
DictionaryVariables
280
     0
  1
1
  0
DICTIONARYVAR
  5
80E
102
{ACAD_REACTORS
330
80A
102
}
330
80A
100
DictionaryVariables
280
     0
  1
80.000000
  0
DICTIONARYVAR
  5
80D
102
{ACAD_REACTORS
330
80A
102
}
330
80A
100
DictionaryVariables
280
     0
  1
5.000000
  0
DICTIONARY
  5
819
330
45
100
AcDbDictionary
  3
ACAD_XREC_ROUNDTRIP
360
81A
1001
ACAD
1000
TREAT_AS_HARD
1070
     1
  0
DICTIONARY
  5
817
330
44
100
AcDbDictionary
  3
ACAD_XREC_ROUNDTRIP
360
818
1001
ACAD
1000
TREAT_AS_HARD
1070
     1
  0
DICTIONARY
  5
81B
330
46
100
AcDbDictionary
  3
ACAD_XREC_ROUNDTRIP
360
81C
1001
ACAD
1000
TREAT_AS_HARD
1070
     1
  0
XRECORD
  5
81A
102
{ACAD_REACTORS
330
819
102
}
330
819
100
AcDbXrecord
102
MATERIAL
148
0.0
149
0.0
149
0.0
 93
        0
 94
      127
282
     0
 72
     1
 77
     1
171
     1
175
     1
179
     1
273
     0
  0
XRECORD
  5
818
102
{ACAD_REACTORS
330
817
102
}
330
817
100
AcDbXrecord
102
MATERIAL
148
0.0
149
0.0
149
0.0
 93
        0
 94
      127
282
     0
 72
     1
 77
     1
171
     1
175
     1
179
     1
273
     0
  0
XRECORD
  5
81C
102
{ACAD_REACTORS
330
81B
102
}
330
81B
100
AcDbXrecord
102
MATERIAL
148
0.0
149
0.0
149
0.0
 93
        0
 94
      127
282
     0
 72
     1
 77
     1
171
     1
175
     1
179
     1
273
     0
  0
ENDSEC
  0
EOF
