  0
SECTION
  2
HEADER
  9
$ACADVER
  1
AC1012
  9
$DWGCODEPAGE
  3
ansi_932
  9
$INSBASE
 10
0.0
 20
0.0
 30
0.0
  9
$EXTMIN
 10
0.0
 20
0.0
 30
0.0
  9
$EXTMAX
 10
3640.0
 20
2570.0
 30
0.0
  9
$LIMMIN
 10
0.0
 20
0.0
  9
$LIMMAX
 10
3640.0
 20
2570.0
  9
$ORTHOMODE
 70
     0
  9
$REGENMODE
 70
     1
  9
$FILLMODE
 70
     1
  9
$QTEXTMODE
 70
     0
  9
$MIRRTEXT
 70
     1
  9
$DRAGMODE
 70
     2
  9
$LTSCALE
 40
1.0
  9
$OSMODE
 70
    37
  9
$ATTMODE
 70
     1
  9
$TEXTSIZE
 40
2.5
  9
$TRACEWID
 40
1.0
  9
$TEXTSTYLE
  7
ED_VECTOR
  9
$CLAYER
  8
0
  9
$CELTYPE
  6
BYLAYER
  9
$CECOLOR
 62
   256
  9
$CELTSCALE
 40
1.0
  9
$DELOBJ
 70
     1
  9
$DISPSILH
 70
     0
  9
$DIMSCALE
 40
1.0
  9
$DIMASZ
 40
30.0
  9
$DIMEXO
 40
10.0
  9
$DIMDLI
 40
100.0
  9
$DIMRND
 40
0.0
  9
$DIMDLE
 40
50.0
  9
$DIMEXE
 40
10.0
  9
$DIMTP
 40
0.0
  9
$DIMTM
 40
0.0
  9
$DIMTXT
 40
40.0
  9
$DIMCEN
 40
2.5
  9
$DIMTSZ
 40
0.0
  9
$DIMTOL
 70
     0
  9
$DIMLIM
 70
     0
  9
$DIMTIH
 70
     0
  9
$DIMTOH
 70
     0
  9
$DIMSE1
 70
     0
  9
$DIMSE2
 70
     0
  9
$DIMTAD
 70
     1
  9
$DIMZIN
 70
     8
  9
$DIMBLK
  1

  9
$DIMASO
 70
     1
  9
$DIMSHO
 70
     1
  9
$DIMPOST
  1

  9
$DIMAPOST
  1

  9
$DIMALT
 70
     0
  9
$DIMALTD
 70
     3
  9
$DIMALTF
 40
0.03937
  9
$DIMLFAC
 40
1.0
  9
$DIMTOFL
 70
     1
  9
$DIMTVP
 40
0.0
  9
$DIMTIX
 70
     0
  9
$DIMSOXD
 70
     0
  9
$DIMSAH
 70
     1
  9
$DIMBLK1
  1
EDTIP_ARROW_S
  9
$DIMBLK2
  1
EDTIP_ARROW_E
  9
$DIMSTYLE
  2
EDDIMINFO
  9
$DIMCLRD
 70
     5
  9
$DIMCLRE
 70
     5
  9
$DIMCLRT
 70
     3
  9
$DIMTFAC
 40
1.0
  9
$DIMGAP
 40
10.0
  9
$DIMJUST
 70
     0
  9
$DIMSD1
 70
     0
  9
$DIMSD2
 70
     0
  9
$DIMTOLJ
 70
     0
  9
$DIMTZIN
 70
     8
  9
$DIMALTZ
 70
     0
  9
$DIMALTTZ
 70
     0
  9
$DIMFIT
 70
     3
  9
$DIMUPT
 70
     0
  9
$DIMUNIT
 70
     2
  9
$DIMDEC
 70
     0
  9
$DIMTDEC
 70
     2
  9
$DIMALTU
 70
     2
  9
$DIMALTTD
 70
     3
  9
$DIMTXSTY
  7
ED_VECTOR
  9
$DIMAUNIT
 70
     0
  9
$LUNITS
 70
     2
  9
$LUPREC
 70
     4
  9
$SKETCHINC
 40
1.0
  9
$FILLETRAD
 40
10.0
  9
$AUNITS
 70
     0
  9
$AUPREC
 70
     0
  9
$MENU
  1
.
  9
$ELEVATION
 40
0.0
  9
$PELEVATION
 40
0.0
  9
$THICKNESS
 40
0.0
  9
$LIMCHECK
 70
     0
  9
$CHAMFERA
 40
0.0
  9
$CHAMFERB
 40
0.0
  9
$CHAMFERC
 40
0.0
  9
$CHAMFERD
 40
0.0
  9
$SKPOLY
 70
     0
  9
$TDCREATE
 40
2459415.64384434
  9
$TDUPDATE
 40
2459415.643845602
  9
$TDINDWG
 40
0.0000000116
  9
$TDUSRTIMER
 40
0.0000000116
  9
$USRTIMER
 70
     1
  9
$ANGBASE
 50
0.0
  9
$ANGDIR
 70
     0
  9
$PDMODE
 70
     0
  9
$PDSIZE
 40
0.0
  9
$PLINEWID
 40
0.0
  9
$COORDS
 70
     1
  9
$SPLFRAME
 70
     0
  9
$SPLINETYPE
 70
     6
  9
$SPLINESEGS
 70
     8
  9
$ATTDIA
 70
     0
  9
$ATTREQ
 70
     1
  9
$HANDLING
 70
     1
  9
$HANDSEED
  5
3DB
  9
$SURFTAB1
 70
     6
  9
$SURFTAB2
 70
     6
  9
$SURFTYPE
 70
     6
  9
$SURFU
 70
     6
  9
$SURFV
 70
     6
  9
$UCSNAME
  2

  9
$UCSORG
 10
0.0
 20
0.0
 30
0.0
  9
$UCSXDIR
 10
1.0
 20
0.0
 30
0.0
  9
$UCSYDIR
 10
0.0
 20
1.0
 30
0.0
  9
$PUCSNAME
  2

  9
$PUCSORG
 10
0.0
 20
0.0
 30
0.0
  9
$PUCSXDIR
 10
1.0
 20
0.0
 30
0.0
  9
$PUCSYDIR
 10
0.0
 20
1.0
 30
0.0
  9
$USERI1
 70
     0
  9
$USERI2
 70
     0
  9
$USERI3
 70
     0
  9
$USERI4
 70
     0
  9
$USERI5
 70
     0
  9
$USERR1
 40
0.0
  9
$USERR2
 40
0.0
  9
$USERR3
 40
0.0
  9
$USERR4
 40
0.0
  9
$USERR5
 40
0.0
  9
$WORLDVIEW
 70
     1
  9
$SHADEDGE
 70
     3
  9
$SHADEDIF
 70
    70
  9
$TILEMODE
 70
     1
  9
$MAXACTVP
 70
    64
  9
$PINSBASE
 10
0.0
 20
0.0
 30
0.0
  9
$PLIMCHECK
 70
     0
  9
$PEXTMIN
 10
1.000000E+20
 20
1.000000E+20
 30
1.000000E+20
  9
$PEXTMAX
 10
-1.000000E+20
 20
-1.000000E+20
 30
-1.000000E+20
  9
$PLIMMIN
 10
0.0
 20
0.0
  9
$PLIMMAX
 10
420.0
 20
297.0
  9
$UNITMODE
 70
     0
  9
$VISRETAIN
 70
     1
  9
$PLINEGEN
 70
     0
  9
$PSLTSCALE
 70
     1
  9
$TREEDEPTH
 70
  3020
  9
$PICKSTYLE
 70
     1
  9
$CMLSTYLE
  2
STANDARD
  9
$CMLJUST
 70
     0
  9
$CMLSCALE
 40
20.0
  9
$SAVEIMAGES
 70
     1
  0
ENDSEC
  0
SECTION
  2
CLASSES
  0
CLASS
  1
ACDBDICTIONARYWDFLT
  2
AcDbDictionaryWithDefault
  3
ObjectDBX Classes
 90
    32768
280
     0
281
     0
  0
CLASS
  1
VISUALSTYLE
  2
AcDbVisualStyle
  3
ObjectDBX Classes
 90
     4095
280
     0
281
     0
  0
CLASS
  1
MATERIAL
  2
AcDbMaterial
  3
ObjectDBX Classes
 90
     1153
280
     0
281
     0
  0
CLASS
  1
SCALE
  2
AcDbScale
  3
ObjectDBX Classes
 90
     1153
280
     0
281
     0
  0
CLASS
  1
TABLESTYLE
  2
AcDbTableStyle
  3
ObjectDBX Classes
 90
     4095
280
     0
281
     0
  0
CLASS
  1
MLEADERSTYLE
  2
AcDbMLeaderStyle
  3
ACDB_MLEADERSTYLE_CLASS
 90
     4095
280
     0
281
     0
  0
CLASS
  1
SUN
  2
AcDbSun
  3
SCENEOE
 90
     1153
280
     0
281
     0
  0
CLASS
  1
DICTIONARYVAR
  2
AcDbDictionaryVar
  3
ObjectDBX Classes
 90
        0
280
     0
281
     0
  0
CLASS
  1
XRECORD
  2
AcDbXrecord
  3
ObjectDBX Classes
 90
    32768
280
     0
281
     0
  0
CLASS
  1
LWPOLYLINE
  2
AcDbPolyline
  3
ObjectDBX Classes
 90
    32768
280
     0
281
     1
  0
CLASS
  1
HATCH
  2
AcDbHatch
  3
ObjectDBX Classes
 90
    32768
280
     0
281
     1
  0
CLASS
  1
ACDBPLACEHOLDER
  2
AcDbPlaceHolder
  3
ObjectDBX Classes
 90
        0
280
     0
281
     0
  0
CLASS
  1
LAYOUT
  2
AcDbLayout
  3
ObjectDBX Classes
 90
        0
280
     0
281
     0
  0
ENDSEC
  0
SECTION
  2
TABLES
  0
TABLE
  2
VPORT
  5
8
330
0
100
AcDbSymbolTable
 70
     1
  0
VPORT
  5
29
330
8
100
AcDbSymbolTableRecord
100
AcDbViewportTableRecord
  2
*ACTIVE
 70
     0
 10
0.0
 20
0.0
 11
1.0
 21
1.0
 12
1820.0
 22
1285.0
 13
0.0
 23
0.0
 14
10.0
 24
10.0
 15
10.0
 25
10.0
 16
0.0
 26
0.0
 36
1.0
 17
0.0
 27
0.0
 37
0.0
 40
2570.0
 41
1.416342
 42
50.0
 43
0.0
 44
0.0
 50
0.0
 51
0.0
 71
     0
 72
   100
 73
     1
 74
     3
 75
     0
 76
     0
 77
     0
 78
     0
  0
ENDTAB
  0
TABLE
  2
LTYPE
  5
5
330
0
100
AcDbSymbolTable
 70
     5
  0
LTYPE
  5
14
330
5
100
AcDbSymbolTableRecord
100
AcDbLinetypeTableRecord
  2
BYBLOCK
 70
     0
  3

 72
    65
 73
     0
 40
0.0
  0
LTYPE
  5
15
330
5
100
AcDbSymbolTableRecord
100
AcDbLinetypeTableRecord
  2
BYLAYER
 70
     0
  3

 72
    65
 73
     0
 40
0.0
  0
LTYPE
  5
16
330
5
100
AcDbSymbolTableRecord
100
AcDbLinetypeTableRecord
  2
CONTINUOUS
 70
     0
  3
--------------------
 72
    65
 73
     0
 40
0.0
  0
LTYPE
  5
6E
330
5
100
AcDbSymbolTableRecord
100
AcDbLinetypeTableRecord
  2
DASHED
 70
     0
  3
- - - - - - - - - - -
 72
    65
 73
     2
 40
19.1
 49
12.7
 74
     0
 49
-6.4
 74
     0
  0
LTYPE
  5
6F
330
5
100
AcDbSymbolTableRecord
100
AcDbLinetypeTableRecord
  2
CENTER
 70
     0
  3
- ･ - ･ - ･ - ･ - ･ - ･ - ･ - ･ - ･ - ･ -
 72
    65
 73
     4
 40
51.0
 49
31.8
 74
     0
 49
-6.4
 74
     0
 49
6.4
 74
     0
 49
-6.4
 74
     0
  0
LTYPE
  5
70
330
5
100
AcDbSymbolTableRecord
100
AcDbLinetypeTableRecord
  2
PHANTOM
 70
     0
  3
- ･ ･ - ･ ･ - ･ ･ - ･ ･ - ･ ･ - ･ ･ - ･ ･ - 
 72
    65
 73
     6
 40
63.8
 49
31.8
 74
     0
 49
-6.4
 74
     0
 49
6.4
 74
     0
 49
-6.4
 74
     0
 49
6.4
 74
     0
 49
-6.4
 74
     0
  0
LTYPE
  5
71
330
5
100
AcDbSymbolTableRecord
100
AcDbLinetypeTableRecord
  2
DOT
 70
     0
  3
・・・・・・・・・・・・・・・
 72
    65
 73
     2
 40
6.5
 49
0.1
 74
     0
 49
-6.4
 74
     0
  0
ENDTAB
  0
TABLE
  2
LAYER
  5
2
330
0
100
AcDbSymbolTable
 70
    65
  0
LAYER
  5
10
330
2
100
AcDbSymbolTableRecord
100
AcDbLayerTableRecord
  2
0
 70
     0
 62
     7
  6
CONTINUOUS
  0
LAYER
  5
72
330
2
100
AcDbSymbolTableRecord
100
AcDbLayerTableRecord
  2
LAYER002
 70
     0
 62
     7
  6
CONTINUOUS
  0
LAYER
  5
73
330
2
100
AcDbSymbolTableRecord
100
AcDbLayerTableRecord
  2
LAYER003
 70
     0
 62
     7
  6
CONTINUOUS
  0
LAYER
  5
74
330
2
100
AcDbSymbolTableRecord
100
AcDbLayerTableRecord
  2
LAYER004
 70
     0
 62
     7
  6
CONTINUOUS
  0
LAYER
  5
75
330
2
100
AcDbSymbolTableRecord
100
AcDbLayerTableRecord
  2
LAYER005
 70
     0
 62
     7
  6
CONTINUOUS
  0
LAYER
  5
76
330
2
100
AcDbSymbolTableRecord
100
AcDbLayerTableRecord
  2
LAYER006
 70
     0
 62
     7
  6
CONTINUOUS
  0
LAYER
  5
77
330
2
100
AcDbSymbolTableRecord
100
AcDbLayerTableRecord
  2
LAYER007
 70
     0
 62
     7
  6
CONTINUOUS
  0
LAYER
  5
78
330
2
100
AcDbSymbolTableRecord
100
AcDbLayerTableRecord
  2
LAYER008
 70
     0
 62
     7
  6
CONTINUOUS
  0
LAYER
  5
79
330
2
100
AcDbSymbolTableRecord
100
AcDbLayerTableRecord
  2
LAYER009
 70
     0
 62
     7
  6
CONTINUOUS
  0
LAYER
  5
7A
330
2
100
AcDbSymbolTableRecord
100
AcDbLayerTableRecord
  2
LAYER010
 70
     0
 62
     7
  6
CONTINUOUS
  0
LAYER
  5
7B
330
2
100
AcDbSymbolTableRecord
100
AcDbLayerTableRecord
  2
LAYER011
 70
     0
 62
     7
  6
CONTINUOUS
  0
LAYER
  5
7C
330
2
100
AcDbSymbolTableRecord
100
AcDbLayerTableRecord
  2
LAYER012
 70
     0
 62
     7
  6
CONTINUOUS
  0
LAYER
  5
7D
330
2
100
AcDbSymbolTableRecord
100
AcDbLayerTableRecord
  2
LAYER013
 70
     0
 62
     7
  6
CONTINUOUS
  0
LAYER
  5
7E
330
2
100
AcDbSymbolTableRecord
100
AcDbLayerTableRecord
  2
LAYER014
 70
     0
 62
     7
  6
CONTINUOUS
  0
LAYER
  5
7F
330
2
100
AcDbSymbolTableRecord
100
AcDbLayerTableRecord
  2
LAYER015
 70
     0
 62
     7
  6
CONTINUOUS
  0
LAYER
  5
80
330
2
100
AcDbSymbolTableRecord
100
AcDbLayerTableRecord
  2
LAYER016
 70
     0
 62
     7
  6
CONTINUOUS
  0
LAYER
  5
81
330
2
100
AcDbSymbolTableRecord
100
AcDbLayerTableRecord
  2
LAYER017
 70
     0
 62
     7
  6
CONTINUOUS
  0
LAYER
  5
82
330
2
100
AcDbSymbolTableRecord
100
AcDbLayerTableRecord
  2
LAYER018
 70
     0
 62
     7
  6
CONTINUOUS
  0
LAYER
  5
83
330
2
100
AcDbSymbolTableRecord
100
AcDbLayerTableRecord
  2
LAYER019
 70
     0
 62
     7
  6
CONTINUOUS
  0
LAYER
  5
84
330
2
100
AcDbSymbolTableRecord
100
AcDbLayerTableRecord
  2
LAYER020
 70
     0
 62
     7
  6
CONTINUOUS
  0
LAYER
  5
85
330
2
100
AcDbSymbolTableRecord
100
AcDbLayerTableRecord
  2
LAYER021
 70
     0
 62
     7
  6
CONTINUOUS
  0
LAYER
  5
86
330
2
100
AcDbSymbolTableRecord
100
AcDbLayerTableRecord
  2
LAYER022
 70
     0
 62
     7
  6
CONTINUOUS
  0
LAYER
  5
87
330
2
100
AcDbSymbolTableRecord
100
AcDbLayerTableRecord
  2
LAYER023
 70
     0
 62
     7
  6
CONTINUOUS
  0
LAYER
  5
88
330
2
100
AcDbSymbolTableRecord
100
AcDbLayerTableRecord
  2
LAYER024
 70
     0
 62
     7
  6
CONTINUOUS
  0
LAYER
  5
89
330
2
100
AcDbSymbolTableRecord
100
AcDbLayerTableRecord
  2
LAYER025
 70
     0
 62
     7
  6
CONTINUOUS
  0
LAYER
  5
8A
330
2
100
AcDbSymbolTableRecord
100
AcDbLayerTableRecord
  2
LAYER026
 70
     0
 62
     7
  6
CONTINUOUS
  0
LAYER
  5
8B
330
2
100
AcDbSymbolTableRecord
100
AcDbLayerTableRecord
  2
LAYER027
 70
     0
 62
     7
  6
CONTINUOUS
  0
LAYER
  5
8C
330
2
100
AcDbSymbolTableRecord
100
AcDbLayerTableRecord
  2
LAYER028
 70
     0
 62
     7
  6
CONTINUOUS
  0
LAYER
  5
8D
330
2
100
AcDbSymbolTableRecord
100
AcDbLayerTableRecord
  2
LAYER029
 70
     0
 62
     7
  6
CONTINUOUS
  0
LAYER
  5
8E
330
2
100
AcDbSymbolTableRecord
100
AcDbLayerTableRecord
  2
LAYER030
 70
     0
 62
     7
  6
CONTINUOUS
  0
LAYER
  5
8F
330
2
100
AcDbSymbolTableRecord
100
AcDbLayerTableRecord
  2
LAYER031
 70
     0
 62
     7
  6
CONTINUOUS
  0
LAYER
  5
90
330
2
100
AcDbSymbolTableRecord
100
AcDbLayerTableRecord
  2
LAYER032
 70
     0
 62
     7
  6
CONTINUOUS
  0
LAYER
  5
91
330
2
100
AcDbSymbolTableRecord
100
AcDbLayerTableRecord
  2
LAYER033
 70
     0
 62
     7
  6
CONTINUOUS
  0
LAYER
  5
92
330
2
100
AcDbSymbolTableRecord
100
AcDbLayerTableRecord
  2
LAYER034
 70
     0
 62
     7
  6
CONTINUOUS
  0
LAYER
  5
93
330
2
100
AcDbSymbolTableRecord
100
AcDbLayerTableRecord
  2
LAYER035
 70
     0
 62
     7
  6
CONTINUOUS
  0
LAYER
  5
94
330
2
100
AcDbSymbolTableRecord
100
AcDbLayerTableRecord
  2
LAYER036
 70
     0
 62
     7
  6
CONTINUOUS
  0
LAYER
  5
95
330
2
100
AcDbSymbolTableRecord
100
AcDbLayerTableRecord
  2
LAYER037
 70
     0
 62
     7
  6
CONTINUOUS
  0
LAYER
  5
96
330
2
100
AcDbSymbolTableRecord
100
AcDbLayerTableRecord
  2
LAYER038
 70
     0
 62
     7
  6
CONTINUOUS
  0
LAYER
  5
97
330
2
100
AcDbSymbolTableRecord
100
AcDbLayerTableRecord
  2
LAYER039
 70
     0
 62
     7
  6
CONTINUOUS
  0
LAYER
  5
98
330
2
100
AcDbSymbolTableRecord
100
AcDbLayerTableRecord
  2
LAYER040
 70
     0
 62
     7
  6
CONTINUOUS
  0
LAYER
  5
99
330
2
100
AcDbSymbolTableRecord
100
AcDbLayerTableRecord
  2
LAYER041
 70
     0
 62
     7
  6
CONTINUOUS
  0
LAYER
  5
9A
330
2
100
AcDbSymbolTableRecord
100
AcDbLayerTableRecord
  2
LAYER042
 70
     0
 62
     7
  6
CONTINUOUS
  0
LAYER
  5
9B
330
2
100
AcDbSymbolTableRecord
100
AcDbLayerTableRecord
  2
LAYER043
 70
     0
 62
     7
  6
CONTINUOUS
  0
LAYER
  5
9C
330
2
100
AcDbSymbolTableRecord
100
AcDbLayerTableRecord
  2
LAYER044
 70
     0
 62
     7
  6
CONTINUOUS
  0
LAYER
  5
9D
330
2
100
AcDbSymbolTableRecord
100
AcDbLayerTableRecord
  2
LAYER045
 70
     0
 62
     7
  6
CONTINUOUS
  0
LAYER
  5
9E
330
2
100
AcDbSymbolTableRecord
100
AcDbLayerTableRecord
  2
LAYER046
 70
     0
 62
     7
  6
CONTINUOUS
  0
LAYER
  5
9F
330
2
100
AcDbSymbolTableRecord
100
AcDbLayerTableRecord
  2
LAYER047
 70
     0
 62
     7
  6
CONTINUOUS
  0
LAYER
  5
A0
330
2
100
AcDbSymbolTableRecord
100
AcDbLayerTableRecord
  2
LAYER048
 70
     0
 62
     7
  6
CONTINUOUS
  0
LAYER
  5
A1
330
2
100
AcDbSymbolTableRecord
100
AcDbLayerTableRecord
  2
LAYER049
 70
     0
 62
     7
  6
CONTINUOUS
  0
LAYER
  5
A2
330
2
100
AcDbSymbolTableRecord
100
AcDbLayerTableRecord
  2
LAYER050
 70
     0
 62
     7
  6
CONTINUOUS
  0
LAYER
  5
A3
330
2
100
AcDbSymbolTableRecord
100
AcDbLayerTableRecord
  2
LAYER051
 70
     0
 62
     7
  6
CONTINUOUS
  0
LAYER
  5
A4
330
2
100
AcDbSymbolTableRecord
100
AcDbLayerTableRecord
  2
LAYER052
 70
     0
 62
     7
  6
CONTINUOUS
  0
LAYER
  5
A5
330
2
100
AcDbSymbolTableRecord
100
AcDbLayerTableRecord
  2
LAYER053
 70
     0
 62
     7
  6
CONTINUOUS
  0
LAYER
  5
A6
330
2
100
AcDbSymbolTableRecord
100
AcDbLayerTableRecord
  2
LAYER054
 70
     0
 62
     7
  6
CONTINUOUS
  0
LAYER
  5
A7
330
2
100
AcDbSymbolTableRecord
100
AcDbLayerTableRecord
  2
LAYER055
 70
     0
 62
     7
  6
CONTINUOUS
  0
LAYER
  5
A8
330
2
100
AcDbSymbolTableRecord
100
AcDbLayerTableRecord
  2
LAYER056
 70
     0
 62
     7
  6
CONTINUOUS
  0
LAYER
  5
A9
330
2
100
AcDbSymbolTableRecord
100
AcDbLayerTableRecord
  2
LAYER057
 70
     0
 62
     7
  6
CONTINUOUS
  0
LAYER
  5
AA
330
2
100
AcDbSymbolTableRecord
100
AcDbLayerTableRecord
  2
LAYER058
 70
     0
 62
     7
  6
CONTINUOUS
  0
LAYER
  5
AB
330
2
100
AcDbSymbolTableRecord
100
AcDbLayerTableRecord
  2
LAYER059
 70
     0
 62
     7
  6
CONTINUOUS
  0
LAYER
  5
AC
330
2
100
AcDbSymbolTableRecord
100
AcDbLayerTableRecord
  2
LAYER060
 70
     0
 62
     7
  6
CONTINUOUS
  0
LAYER
  5
AD
330
2
100
AcDbSymbolTableRecord
100
AcDbLayerTableRecord
  2
LAYER061
 70
     0
 62
     7
  6
CONTINUOUS
  0
LAYER
  5
AE
330
2
100
AcDbSymbolTableRecord
100
AcDbLayerTableRecord
  2
LAYER062
 70
     0
 62
     7
  6
CONTINUOUS
  0
LAYER
  5
AF
330
2
100
AcDbSymbolTableRecord
100
AcDbLayerTableRecord
  2
LAYER063
 70
     0
 62
     7
  6
CONTINUOUS
  0
LAYER
  5
B0
330
2
100
AcDbSymbolTableRecord
100
AcDbLayerTableRecord
  2
LAYER064
 70
     0
 62
     7
  6
CONTINUOUS
  0
LAYER
  5
ED
330
2
100
AcDbSymbolTableRecord
100
AcDbLayerTableRecord
  2
LAYER065
 70
     0
 62
     7
  6
CONTINUOUS
  0
ENDTAB
  0
TABLE
  2
STYLE
  5
3
330
0
100
AcDbSymbolTable
 70
     2
  0
STYLE
  5
11
330
3
100
AcDbSymbolTableRecord
100
AcDbTextStyleTableRecord
  2
STANDARD
 70
     0
 40
0.0
 41
1.0
 50
0.0
 71
     0
 42
2.5
  3
txt
  4

  0
STYLE
  5
B1
330
3
100
AcDbSymbolTableRecord
100
AcDbTextStyleTableRecord
  2
ED_VECTOR
 70
     0
 40
0.0
 41
1.0
 50
0.0
 71
     0
 42
2.5
  3
MONOTXT.SHX
  4
BIGFONT.SHX
  0
ENDTAB
  0
TABLE
  2
VIEW
  5
6
330
0
100
AcDbSymbolTable
 70
     0
  0
ENDTAB
  0
TABLE
  2
UCS
  5
7
330
0
100
AcDbSymbolTable
 70
     0
  0
ENDTAB
  0
TABLE
  2
APPID
  5
9
330
0
100
AcDbSymbolTable
 70
     2
  0
APPID
  5
12
330
9
100
AcDbSymbolTableRecord
100
AcDbRegAppTableRecord
  2
ACAD
 70
     0
  0
APPID
  5
3DA
330
9
100
AcDbSymbolTableRecord
100
AcDbRegAppTableRecord
  2
ACAD_MLEADERVER
 70
     0
  0
ENDTAB
  0
TABLE
  2
DIMSTYLE
  5
A
330
0
100
AcDbSymbolTable
 70
     2
  0
DIMSTYLE
105
27
330
A
100
AcDbSymbolTableRecord
100
AcDbDimStyleTableRecord
  2
ISO-25
 70
     0
  3

  4

  5

  6

  7

 40
1.0
 41
2.5
 42
0.625
 43
3.75
 44
1.25
 45
0.0
 46
0.0
 47
0.0
 48
0.0
140
2.5
141
2.5
142
0.0
143
0.03937
144
1.0
145
0.0
146
1.0
147
0.625
 71
     0
 72
     0
 73
     0
 74
     0
 75
     0
 76
     0
 77
     1
 78
     8
170
     0
171
     3
172
     1
173
     0
174
     0
175
     0
176
     0
177
     0
178
     0
270
     2
271
     2
272
     2
273
     2
274
     3
340
11
275
     0
280
     0
281
     0
282
     0
283
     0
284
     8
285
     0
286
     0
287
     3
288
     0
  0
DIMSTYLE
105
EC
102
{ACAD_REACTORS
330
1B7
330
1BF
330
1D8
330
1E0
330
1F1
330
204
330
20D
330
21C
330
229
330
28B
330
2BE
102
}
330
A
100
AcDbSymbolTableRecord
100
AcDbDimStyleTableRecord
  2
EDDIMINFO
 70
     0
  3

  4

  5

  6
EDTIP_ARROW_S
  7
EDTIP_ARROW_E
 40
1.0
 41
30.0
 42
10.0
 43
100.0
 44
10.0
 45
0.0
 46
50.0
 47
0.0
 48
0.0
140
40.0
141
2.5
142
0.0
143
0.03937
144
1.0
145
0.0
146
1.0
147
10.0
 71
     0
 72
     0
 73
     0
 74
     0
 75
     0
 76
     0
 77
     1
 78
     8
170
     0
171
     3
172
     1
173
     1
174
     0
175
     0
176
     5
177
     5
178
     3
270
     2
271
     0
272
     2
273
     2
274
     3
340
B1
275
     0
280
     0
281
     0
282
     0
283
     0
284
     8
285
     0
286
     0
287
     3
288
     0
  0
ENDTAB
  0
TABLE
  2
BLOCK_RECORD
  5
1
330
0
100
AcDbSymbolTable
 70
    25
  0
BLOCK_RECORD
  5
1F
330
1
100
AcDbSymbolTableRecord
100
AcDbBlockTableRecord
  2
*MODEL_SPACE
  0
BLOCK_RECORD
  5
1B
330
1
100
AcDbSymbolTableRecord
100
AcDbBlockTableRecord
  2
*PAPER_SPACE
  0
BLOCK_RECORD
  5
B2
330
1
100
AcDbSymbolTableRecord
100
AcDbBlockTableRecord
  2
EDTIP_ARROW_S
  0
BLOCK_RECORD
  5
B8
330
1
100
AcDbSymbolTableRecord
100
AcDbBlockTableRecord
  2
EDTIP_ARROW_E
  0
BLOCK_RECORD
  5
BE
330
1
100
AcDbSymbolTableRecord
100
AcDbBlockTableRecord
  2
EDTIP_BLACKDOT_S
  0
BLOCK_RECORD
  5
C4
330
1
100
AcDbSymbolTableRecord
100
AcDbBlockTableRecord
  2
EDTIP_BLACKDOT_E
  0
BLOCK_RECORD
  5
CA
330
1
100
AcDbSymbolTableRecord
100
AcDbBlockTableRecord
  2
EDTIP_ARCHITECT_S
  0
BLOCK_RECORD
  5
D0
330
1
100
AcDbSymbolTableRecord
100
AcDbBlockTableRecord
  2
EDTIP_ARCHITECT_E
  0
BLOCK_RECORD
  5
D6
330
1
100
AcDbSymbolTableRecord
100
AcDbBlockTableRecord
  2
EDTIP_CIVIL_S
  0
BLOCK_RECORD
  5
DC
330
1
100
AcDbSymbolTableRecord
100
AcDbBlockTableRecord
  2
EDTIP_CIVIL_E
  0
BLOCK_RECORD
  5
E2
330
1
100
AcDbSymbolTableRecord
100
AcDbBlockTableRecord
  2
EDTIP_WHITEDOT_S
  0
BLOCK_RECORD
  5
E7
330
1
100
AcDbSymbolTableRecord
100
AcDbBlockTableRecord
  2
EDTIP_WHITEDOT_E
  0
BLOCK_RECORD
  5
EE
330
1
100
AcDbSymbolTableRecord
100
AcDbBlockTableRecord
  2
BLKF014
  0
BLOCK_RECORD
  5
1B8
330
1
100
AcDbSymbolTableRecord
100
AcDbBlockTableRecord
  2
*D12
  0
BLOCK_RECORD
  5
1C0
330
1
100
AcDbSymbolTableRecord
100
AcDbBlockTableRecord
  2
*D13
  0
BLOCK_RECORD
  5
1D0
330
1
100
AcDbSymbolTableRecord
100
AcDbBlockTableRecord
  2
EDDIM017
  0
BLOCK_RECORD
  5
1D9
330
1
100
AcDbSymbolTableRecord
100
AcDbBlockTableRecord
  2
*D15
  0
BLOCK_RECORD
  5
1E1
330
1
100
AcDbSymbolTableRecord
100
AcDbBlockTableRecord
  2
*D16
  0
BLOCK_RECORD
  5
1F2
330
1
100
AcDbSymbolTableRecord
100
AcDbBlockTableRecord
  2
*D17
  0
BLOCK_RECORD
  5
1FB
330
1
100
AcDbSymbolTableRecord
100
AcDbBlockTableRecord
  2
BLKF021
  0
BLOCK_RECORD
  5
205
330
1
100
AcDbSymbolTableRecord
100
AcDbBlockTableRecord
  2
*D19
  0
BLOCK_RECORD
  5
20E
330
1
100
AcDbSymbolTableRecord
100
AcDbBlockTableRecord
  2
*D20
  0
BLOCK_RECORD
  5
21D
330
1
100
AcDbSymbolTableRecord
100
AcDbBlockTableRecord
  2
*D21
  0
BLOCK_RECORD
  5
22A
330
1
100
AcDbSymbolTableRecord
100
AcDbBlockTableRecord
  2
*D22
  0
BLOCK_RECORD
  5
28C
330
1
100
AcDbSymbolTableRecord
100
AcDbBlockTableRecord
  2
*D23
  0
BLOCK_RECORD
  5
2BF
330
1
100
AcDbSymbolTableRecord
100
AcDbBlockTableRecord
  2
*D24
  0
BLOCK_RECORD
  5
308
330
1
100
AcDbSymbolTableRecord
100
AcDbBlockTableRecord
  2
BLKF028
  0
ENDTAB
  0
ENDSEC
  0
SECTION
  2
BLOCKS
  0
BLOCK
  5
20
330
1F
100
AcDbEntity
  8
0
100
AcDbBlockBegin
  2
*MODEL_SPACE
 70
     0
 10
0.0
 20
0.0
 30
0.0
  3
*MODEL_SPACE
  1

  0
ENDBLK
  5
21
330
1F
100
AcDbEntity
  8
0
100
AcDbBlockEnd
  0
BLOCK
  5
1C
330
1B
100
AcDbEntity
 67
     1
  8
0
100
AcDbBlockBegin
  2
*PAPER_SPACE
 70
     0
 10
0.0
 20
0.0
 30
0.0
  3
*PAPER_SPACE
  1

  0
ENDBLK
  5
1D
330
1B
100
AcDbEntity
 67
     1
  8
0
100
AcDbBlockEnd
  0
BLOCK
  5
B3
330
B2
100
AcDbEntity
  8
0
100
AcDbBlockBegin
  2
EDTIP_ARROW_S
 70
     0
 10
0.0
 20
0.0
 30
0.0
  3
EDTIP_ARROW_S
  1

  0
LINE
  5
B5
330
B2
100
AcDbEntity
  8
0
  6
CONTINUOUS
 62
     0
100
AcDbLine
 10
0.0
 20
0.0
 30
0.0
 11
-1.0
 21
0.0
 31
0.0
  0
LINE
  5
B6
330
B2
100
AcDbEntity
  8
0
  6
CONTINUOUS
 62
     0
100
AcDbLine
 10
0.0
 20
0.0
 30
0.0
 11
-0.965926
 21
0.258819
 31
0.0
  0
LINE
  5
B7
330
B2
100
AcDbEntity
  8
0
  6
CONTINUOUS
 62
     0
100
AcDbLine
 10
0.0
 20
0.0
 30
0.0
 11
-0.965926
 21
-0.258819
 31
0.0
  0
ENDBLK
  5
B4
330
B2
100
AcDbEntity
  8
0
100
AcDbBlockEnd
  0
BLOCK
  5
B9
330
B8
100
AcDbEntity
  8
0
100
AcDbBlockBegin
  2
EDTIP_ARROW_E
 70
     0
 10
0.0
 20
0.0
 30
0.0
  3
EDTIP_ARROW_E
  1

  0
LINE
  5
BB
330
B8
100
AcDbEntity
  8
0
  6
CONTINUOUS
 62
     0
100
AcDbLine
 10
0.0
 20
0.0
 30
0.0
 11
-1.0
 21
0.0
 31
0.0
  0
LINE
  5
BC
330
B8
100
AcDbEntity
  8
0
  6
CONTINUOUS
 62
     0
100
AcDbLine
 10
0.0
 20
0.0
 30
0.0
 11
-0.965926
 21
-0.258819
 31
0.0
  0
LINE
  5
BD
330
B8
100
AcDbEntity
  8
0
  6
CONTINUOUS
 62
     0
100
AcDbLine
 10
0.0
 20
0.0
 30
0.0
 11
-0.965926
 21
0.258819
 31
0.0
  0
ENDBLK
  5
BA
330
B8
100
AcDbEntity
  8
0
100
AcDbBlockEnd
  0
BLOCK
  5
BF
330
BE
100
AcDbEntity
  8
0
100
AcDbBlockBegin
  2
EDTIP_BLACKDOT_S
 70
     0
 10
0.0
 20
0.0
 30
0.0
  3
EDTIP_BLACKDOT_S
  1

  0
LINE
  5
C1
330
BE
100
AcDbEntity
  8
0
  6
CONTINUOUS
 62
     0
100
AcDbLine
 10
0.0
 20
0.0
 30
0.0
 11
-1.0
 21
0.0
 31
0.0
  0
CIRCLE
  5
C2
330
BE
100
AcDbEntity
  8
0
  6
CONTINUOUS
 62
     0
100
AcDbCircle
 10
0.0
 20
0.0
 30
0.0
 40
0.5
  0
CIRCLE
  5
C3
330
BE
100
AcDbEntity
  8
0
  6
CONTINUOUS
 62
     0
100
AcDbCircle
 10
0.0
 20
0.0
 30
0.0
 40
0.25
  0
ENDBLK
  5
C0
330
BE
100
AcDbEntity
  8
0
100
AcDbBlockEnd
  0
BLOCK
  5
C5
330
C4
100
AcDbEntity
  8
0
100
AcDbBlockBegin
  2
EDTIP_BLACKDOT_E
 70
     0
 10
0.0
 20
0.0
 30
0.0
  3
EDTIP_BLACKDOT_E
  1

  0
LINE
  5
C7
330
C4
100
AcDbEntity
  8
0
  6
CONTINUOUS
 62
     0
100
AcDbLine
 10
0.0
 20
0.0
 30
0.0
 11
-1.0
 21
0.0
 31
0.0
  0
CIRCLE
  5
C8
330
C4
100
AcDbEntity
  8
0
  6
CONTINUOUS
 62
     0
100
AcDbCircle
 10
0.0
 20
0.0
 30
0.0
 40
0.5
  0
CIRCLE
  5
C9
330
C4
100
AcDbEntity
  8
0
  6
CONTINUOUS
 62
     0
100
AcDbCircle
 10
0.0
 20
0.0
 30
0.0
 40
0.25
  0
ENDBLK
  5
C6
330
C4
100
AcDbEntity
  8
0
100
AcDbBlockEnd
  0
BLOCK
  5
CB
330
CA
100
AcDbEntity
  8
0
100
AcDbBlockBegin
  2
EDTIP_ARCHITECT_S
 70
     0
 10
0.0
 20
0.0
 30
0.0
  3
EDTIP_ARCHITECT_S
  1

  0
LINE
  5
CD
330
CA
100
AcDbEntity
  8
0
  6
CONTINUOUS
 62
     0
100
AcDbLine
 10
0.0
 20
0.0
 30
0.0
 11
-1.0
 21
0.0
 31
0.0
  0
LINE
  5
CE
330
CA
100
AcDbEntity
  8
0
  6
CONTINUOUS
 62
     0
100
AcDbLine
 10
0.0
 20
0.0
 30
0.0
 11
-0.707107
 21
-0.707107
 31
0.0
  0
LINE
  5
CF
330
CA
100
AcDbEntity
  8
0
  6
CONTINUOUS
 62
     0
100
AcDbLine
 10
0.0
 20
0.0
 30
0.0
 11
0.707107
 21
0.707107
 31
0.0
  0
ENDBLK
  5
CC
330
CA
100
AcDbEntity
  8
0
100
AcDbBlockEnd
  0
BLOCK
  5
D1
330
D0
100
AcDbEntity
  8
0
100
AcDbBlockBegin
  2
EDTIP_ARCHITECT_E
 70
     0
 10
0.0
 20
0.0
 30
0.0
  3
EDTIP_ARCHITECT_E
  1

  0
LINE
  5
D3
330
D0
100
AcDbEntity
  8
0
  6
CONTINUOUS
 62
     0
100
AcDbLine
 10
0.0
 20
0.0
 30
0.0
 11
-1.0
 21
0.0
 31
0.0
  0
LINE
  5
D4
330
D0
100
AcDbEntity
  8
0
  6
CONTINUOUS
 62
     0
100
AcDbLine
 10
0.0
 20
0.0
 30
0.0
 11
-0.707107
 21
-0.707107
 31
0.0
  0
LINE
  5
D5
330
D0
100
AcDbEntity
  8
0
  6
CONTINUOUS
 62
     0
100
AcDbLine
 10
0.0
 20
0.0
 30
0.0
 11
0.707107
 21
0.707107
 31
0.0
  0
ENDBLK
  5
D2
330
D0
100
AcDbEntity
  8
0
100
AcDbBlockEnd
  0
BLOCK
  5
D7
330
D6
100
AcDbEntity
  8
0
100
AcDbBlockBegin
  2
EDTIP_CIVIL_S
 70
     0
 10
0.0
 20
0.0
 30
0.0
  3
EDTIP_CIVIL_S
  1

  0
LINE
  5
D9
330
D6
100
AcDbEntity
  8
0
  6
CONTINUOUS
 62
     0
100
AcDbLine
 10
0.0
 20
0.0
 30
0.0
 11
-1.0
 21
0.0
 31
0.0
  0
LINE
  5
DA
330
D6
100
AcDbEntity
  8
0
  6
CONTINUOUS
 62
     0
100
AcDbLine
 10
0.0
 20
-0.008333
 30
0.0
 11
-1.0
 21
-0.008333
 31
0.0
  0
LINE
  5
DB
330
D6
100
AcDbEntity
  8
0
  6
CONTINUOUS
 62
     0
100
AcDbLine
 10
0.0
 20
-0.016667
 30
0.0
 11
-1.0
 21
-0.016667
 31
0.0
  0
ENDBLK
  5
D8
330
D6
100
AcDbEntity
  8
0
100
AcDbBlockEnd
  0
BLOCK
  5
DD
330
DC
100
AcDbEntity
  8
0
100
AcDbBlockBegin
  2
EDTIP_CIVIL_E
 70
     0
 10
0.0
 20
0.0
 30
0.0
  3
EDTIP_CIVIL_E
  1

  0
LINE
  5
DF
330
DC
100
AcDbEntity
  8
0
  6
CONTINUOUS
 62
     0
100
AcDbLine
 10
0.0
 20
0.0
 30
0.0
 11
-1.0
 21
0.0
 31
0.0
  0
LINE
  5
E0
330
DC
100
AcDbEntity
  8
0
  6
CONTINUOUS
 62
     0
100
AcDbLine
 10
0.0
 20
0.008333
 30
0.0
 11
-1.0
 21
0.008333
 31
0.0
  0
LINE
  5
E1
330
DC
100
AcDbEntity
  8
0
  6
CONTINUOUS
 62
     0
100
AcDbLine
 10
0.0
 20
0.016667
 30
0.0
 11
-1.0
 21
0.016667
 31
0.0
  0
ENDBLK
  5
DE
330
DC
100
AcDbEntity
  8
0
100
AcDbBlockEnd
  0
BLOCK
  5
E3
330
E2
100
AcDbEntity
  8
0
100
AcDbBlockBegin
  2
EDTIP_WHITEDOT_S
 70
     0
 10
0.0
 20
0.0
 30
0.0
  3
EDTIP_WHITEDOT_S
  1

  0
LINE
  5
E5
330
E2
100
AcDbEntity
  8
0
  6
CONTINUOUS
 62
     0
100
AcDbLine
 10
0.0
 20
0.0
 30
0.0
 11
-1.0
 21
0.0
 31
0.0
  0
CIRCLE
  5
E6
330
E2
100
AcDbEntity
  8
0
  6
CONTINUOUS
 62
     0
100
AcDbCircle
 10
0.0
 20
0.0
 30
0.0
 40
0.5
  0
ENDBLK
  5
E4
330
E2
100
AcDbEntity
  8
0
100
AcDbBlockEnd
  0
BLOCK
  5
E8
330
E7
100
AcDbEntity
  8
0
100
AcDbBlockBegin
  2
EDTIP_WHITEDOT_E
 70
     0
 10
0.0
 20
0.0
 30
0.0
  3
EDTIP_WHITEDOT_E
  1

  0
LINE
  5
EA
330
E7
100
AcDbEntity
  8
0
  6
CONTINUOUS
 62
     0
100
AcDbLine
 10
0.0
 20
0.0
 30
0.0
 11
-1.0
 21
0.0
 31
0.0
  0
CIRCLE
  5
EB
330
E7
100
AcDbEntity
  8
0
  6
CONTINUOUS
 62
     0
100
AcDbCircle
 10
0.0
 20
0.0
 30
0.0
 40
0.5
  0
ENDBLK
  5
E9
330
E7
100
AcDbEntity
  8
0
100
AcDbBlockEnd
  0
BLOCK
  5
EF
330
EE
100
AcDbEntity
  8
0
100
AcDbBlockBegin
  2
BLKF014
 70
     0
 10
0.0
 20
0.0
 30
0.0
  3
BLKF014
  1

  0
LINE
  5
F2
330
EE
100
AcDbEntity
  8
0
  6
CONTINUOUS
 62
     3
100
AcDbLine
 10
2295.858068
 20
1738.590914
 30
0.0
 11
2326.858068
 21
1792.284489
 31
0.0
  0
LINE
  5
F3
330
EE
100
AcDbEntity
  8
0
  6
CONTINUOUS
 62
     3
100
AcDbLine
 10
2296.773131
 20
1735.17585
 30
0.0
 11
2370.38529
 21
1692.67585
 31
0.0
  0
LINE
  5
F4
330
EE
100
AcDbEntity
  8
0
  6
CENTER
 62
     5
100
AcDbLine
 10
2280.325798
 20
1828.387511
 30
0.0
 11
2330.858068
 21
1799.212692
 31
0.0
  0
LINE
  5
F5
330
EE
100
AcDbEntity
  8
0
  6
CONTINUOUS
 62
     2
100
AcDbLine
 10
2325.023131
 20
1784.106285
 30
0.0
 11
2398.63529
 21
1741.606285
 31
0.0
  0
LINE
  5
F6
330
EE
100
AcDbEntity
  8
0
  6
CONTINUOUS
 62
     3
100
AcDbLine
 10
2299.273131
 20
1739.505977
 30
0.0
 11
2321.773131
 21
1778.47712
 31
0.0
  0
LINE
  5
F7
330
EE
100
AcDbEntity
  8
0
  6
CONTINUOUS
 62
     3
100
AcDbLine
 10
2373.800354
 20
1693.590914
 30
0.0
 11
2408.800354
 21
1754.212692
 31
0.0
  0
LINE
  5
F8
330
EE
100
AcDbEntity
  8
0
  6
CONTINUOUS
 62
     3
100
AcDbLine
 10
2300.188195
 20
1736.090914
 30
0.0
 11
2366.872151
 21
1697.590914
 31
0.0
  0
LINE
  5
F9
330
EE
100
AcDbEntity
  8
0
  6
CONTINUOUS
 62
     3
100
AcDbLine
 10
2325.188195
 20
1779.392184
 30
0.0
 11
2391.872151
 21
1740.892184
 31
0.0
  0
ARC
  5
FA
330
EE
100
AcDbEntity
  8
0
  6
CONTINUOUS
 62
     3
100
AcDbCircle
 10
2332.547732
 20
1746.27564
 30
0.0
 40
59.56818181817743
100
AcDbArc
 50
305.185163
 51
354.814837
  0
ARC
  5
FB
330
EE
100
AcDbEntity
  8
0
  6
CONTINUOUS
 62
     3
100
AcDbCircle
 10
2301.438195
 20
1738.255977
 30
0.0
 40
2.5
100
AcDbArc
 50
150.0
 51
240.0
  0
ARC
  5
FC
330
EE
100
AcDbEntity
  8
0
  6
CONTINUOUS
 62
     3
100
AcDbCircle
 10
2323.938195
 20
1777.22712
 30
0.0
 40
2.5
100
AcDbArc
 50
60.0
 51
150.0
  0
ARC
  5
FD
330
EE
100
AcDbEntity
  8
0
  6
CONTINUOUS
 62
     3
100
AcDbCircle
 10
2298.023131
 20
1737.340914
 30
0.0
 40
2.5
100
AcDbArc
 50
150.0
 51
240.0
  0
ARC
  5
FE
330
EE
100
AcDbEntity
  8
0
  6
CONTINUOUS
 62
     3
100
AcDbCircle
 10
2371.63529
 20
1694.840914
 30
0.0
 40
2.5
100
AcDbArc
 50
240.0
 51
330.0
  0
ARC
  5
FF
330
EE
100
AcDbEntity
  8
0
  6
CONTINUOUS
 62
     2
100
AcDbCircle
 10
2399.88529
 20
1743.771349
 30
0.0
 40
2.5
100
AcDbArc
 50
240.0
 51
330.0
  0
ARC
  5
100
330
EE
100
AcDbEntity
  8
0
  6
CONTINUOUS
 62
     2
100
AcDbCircle
 10
2326.273131
 20
1786.271349
 30
0.0
 40
2.5
100
AcDbArc
 50
150.0
 51
240.0
  0
LINE
  5
101
330
EE
100
AcDbEntity
  8
0
  6
CONTINUOUS
 62
     3
100
AcDbLine
 10
2365.858068
 20
1859.83447
 30
0.0
 11
2334.858068
 21
1806.140895
 31
0.0
  0
LINE
  5
102
330
EE
100
AcDbEntity
  8
0
  6
CONTINUOUS
 62
     3
100
AcDbLine
 10
2369.273131
 20
1860.749534
 30
0.0
 11
2442.88529
 21
1818.249534
 31
0.0
  0
LINE
  5
103
330
EE
100
AcDbEntity
  8
0
  6
CONTINUOUS
 62
     2
100
AcDbLine
 10
2341.023131
 20
1811.819098
 30
0.0
 11
2414.63529
 21
1769.319098
 31
0.0
  0
LINE
  5
104
330
EE
100
AcDbEntity
  8
0
  6
CONTINUOUS
 62
     3
100
AcDbLine
 10
2443.800354
 20
1814.83447
 30
0.0
 11
2408.800354
 21
1754.212692
 31
0.0
  0
ARC
  5
105
330
EE
100
AcDbEntity
  8
0
  6
CONTINUOUS
 62
     3
100
AcDbCircle
 10
2368.023131
 20
1858.58447
 30
0.0
 40
2.5
100
AcDbArc
 50
60.0
 51
150.0
  0
ARC
  5
106
330
EE
100
AcDbEntity
  8
0
  6
CONTINUOUS
 62
     3
100
AcDbCircle
 10
2441.63529
 20
1816.08447
 30
0.0
 40
2.5
100
AcDbArc
 50
330.0
 51
60.0
  0
ARC
  5
107
330
EE
100
AcDbEntity
  8
0
  6
CONTINUOUS
 62
     2
100
AcDbCircle
 10
2413.38529
 20
1767.154035
 30
0.0
 40
2.5
100
AcDbArc
 50
330.0
 51
60.0
  0
ARC
  5
108
330
EE
100
AcDbEntity
  8
0
  6
CONTINUOUS
 62
     2
100
AcDbCircle
 10
2339.773131
 20
1809.654035
 30
0.0
 40
2.5
100
AcDbArc
 50
60.0
 51
150.0
  0
LINE
  5
109
330
EE
100
AcDbEntity
  8
0
  6
CONTINUOUS
 62
     3
100
AcDbLine
 10
2366.773131
 20
1856.419407
 30
0.0
 11
2344.273131
 21
1817.448263
 31
0.0
  0
LINE
  5
10A
330
EE
100
AcDbEntity
  8
0
  6
CONTINUOUS
 62
     3
100
AcDbLine
 10
2370.188195
 20
1857.33447
 30
0.0
 11
2436.872151
 21
1818.83447
 31
0.0
  0
LINE
  5
10B
330
EE
100
AcDbEntity
  8
0
  6
CONTINUOUS
 62
     3
100
AcDbLine
 10
2345.188195
 20
1814.0332
 30
0.0
 11
2411.872151
 21
1775.5332
 31
0.0
  0
ARC
  5
10C
330
EE
100
AcDbEntity
  8
0
  6
CONTINUOUS
 62
     3
100
AcDbCircle
 10
2377.547732
 20
1824.217926
 30
0.0
 40
59.56818181817743
100
AcDbArc
 50
305.185163
 51
354.814837
  0
ARC
  5
10D
330
EE
100
AcDbEntity
  8
0
  6
CONTINUOUS
 62
     3
100
AcDbCircle
 10
2368.938195
 20
1855.169407
 30
0.0
 40
2.5
100
AcDbArc
 50
60.0
 51
150.0
  0
ARC
  5
10E
330
EE
100
AcDbEntity
  8
0
  6
CONTINUOUS
 62
     3
100
AcDbCircle
 10
2346.438195
 20
1816.198263
 30
0.0
 40
2.5
100
AcDbArc
 50
150.0
 51
240.0
  0
LINE
  5
10F
330
EE
100
AcDbEntity
  8
0
  6
CONTINUOUS
 62
     3
100
AcDbLine
 10
2328.29589
 20
1808.77487
 30
0.0
 11
2326.54589
 21
1805.743781
 31
0.0
  0
LINE
  5
110
330
EE
100
AcDbEntity
  8
0
  6
CONTINUOUS
 62
     3
100
AcDbLine
 10
2282.075798
 20
1831.4186
 30
0.0
 11
2326.54589
 21
1805.743781
 31
0.0
  0
LINE
  5
111
330
EE
100
AcDbEntity
  8
0
  6
CONTINUOUS
 62
     3
100
AcDbLine
 10
2329.661915
 20
1809.140895
 30
0.0
 11
2334.858068
 21
1806.140895
 31
0.0
  0
LINE
  5
112
330
EE
100
AcDbEntity
  8
0
  6
CONTINUOUS
 62
     3
100
AcDbLine
 10
2321.661915
 20
1795.284489
 30
0.0
 11
2326.858068
 21
1792.284489
 31
0.0
  0
LINE
  5
113
330
EE
100
AcDbEntity
  8
0
  6
CONTINUOUS
 62
     3
100
AcDbLine
 10
2278.575798
 20
1825.356422
 30
0.0
 11
2323.04589
 21
1799.681603
 31
0.0
  0
ARC
  5
114
330
EE
100
AcDbEntity
  8
0
  6
CONTINUOUS
 62
     3
100
AcDbCircle
 10
2322.161915
 20
1796.150514
 30
0.0
 40
1.0
100
AcDbArc
 50
150.0
 51
240.0
  0
ARC
  5
115
330
EE
100
AcDbEntity
  8
0
  6
CONTINUOUS
 62
     3
100
AcDbCircle
 10
2329.161915
 20
1808.27487
 30
0.0
 40
1.0
100
AcDbArc
 50
60.0
 51
150.0
  0
LINE
  5
116
330
EE
100
AcDbEntity
  8
0
  6
CONTINUOUS
 62
     3
100
AcDbLine
 10
2323.04589
 20
1799.681603
 30
0.0
 11
2321.29589
 21
1796.650514
 31
0.0
  0
LINE
  5
117
330
EE
100
AcDbEntity
  8
0
  6
CONTINUOUS
 62
     2
100
AcDbLine
 10
2326.54589
 20
1805.743781
 30
0.0
 11
2323.04589
 21
1799.681603
 31
0.0
  0
LINE
  5
118
330
EE
100
AcDbEntity
  8
0
  6
CONTINUOUS
 62
     2
100
AcDbLine
 10
2326.858068
 20
1792.284489
 30
0.0
 11
2330.858068
 21
1799.212692
 31
0.0
  0
LINE
  5
119
330
EE
100
AcDbEntity
  8
0
  6
CONTINUOUS
 62
     2
100
AcDbLine
 10
2334.858068
 20
1806.140895
 30
0.0
 11
2330.858068
 21
1799.212692
 31
0.0
  0
LINE
  5
11A
330
EE
100
AcDbEntity
  8
0
  6
CONTINUOUS
 62
     2
100
AcDbLine
 10
2341.658181
 20
1778.933014
 30
0.0
 11
2333.747039
 21
1783.500514
 31
0.0
  0
LINE
  5
11B
330
EE
100
AcDbEntity
  8
0
  6
CONTINUOUS
 62
     2
100
AcDbLine
 10
2353.470681
 20
1799.392864
 30
0.0
 11
2345.559539
 21
1803.960364
 31
0.0
  0
LINE
  5
11C
330
EE
100
AcDbEntity
  8
0
  6
CONTINUOUS
 62
     2
100
AcDbLine
 10
2333.285847
 20
1785.221706
 30
0.0
 11
2343.838347
 21
1803.499172
 31
0.0
  0
LINE
  5
11D
330
EE
100
AcDbEntity
  8
0
  6
CONTINUOUS
 62
     2
100
AcDbLine
 10
2343.379373
 20
1779.394206
 30
0.0
 11
2353.931873
 21
1797.671672
 31
0.0
  0
LINE
  5
11E
330
EE
100
AcDbEntity
  8
0
  6
CONTINUOUS
 62
     2
100
AcDbLine
 10
2351.980085
 20
1798.071076
 30
0.0
 11
2345.023736
 21
1802.087326
 31
0.0
  0
LINE
  5
11F
330
EE
100
AcDbEntity
  8
0
  6
CONTINUOUS
 62
     2
100
AcDbLine
 10
2350.405085
 20
1795.343096
 30
0.0
 11
2349.586691
 21
1795.815596
 31
0.0
  0
LINE
  5
120
330
EE
100
AcDbEntity
  8
0
  6
CONTINUOUS
 62
     2
100
AcDbLine
 10
2346.073835
 20
1787.841151
 30
0.0
 11
2345.255441
 21
1788.313651
 31
0.0
  0
LINE
  5
121
330
EE
100
AcDbEntity
  8
0
  6
CONTINUOUS
 62
     2
100
AcDbLine
 10
2343.790085
 20
1783.88558
 30
0.0
 11
2339.425317
 21
1786.40558
 31
0.0
  0
LINE
  5
122
330
EE
100
AcDbEntity
  8
0
  6
CONTINUOUS
 62
     2
100
AcDbLine
 10
2345.296128
 20
1784.289123
 30
0.0
 11
2346.477378
 21
1786.335108
 31
0.0
  0
LINE
  5
123
330
EE
100
AcDbEntity
  8
0
  6
CONTINUOUS
 62
     2
100
AcDbLine
 10
2339.021774
 20
1787.911623
 30
0.0
 11
2340.203024
 21
1789.957608
 31
0.0
  0
LINE
  5
124
330
EE
100
AcDbEntity
  8
0
  6
CONTINUOUS
 62
     2
100
AcDbLine
 10
2343.045193
 20
1800.865389
 30
0.0
 11
2343.517693
 21
1801.683783
 31
0.0
  0
LINE
  5
125
330
EE
100
AcDbEntity
  8
0
  6
CONTINUOUS
 62
     2
100
AcDbLine
 10
2344.909547
 20
1789.604545
 30
0.0
 11
2348.295797
 21
1795.469702
 31
0.0
  0
LINE
  5
126
330
EE
100
AcDbEntity
  8
0
  6
CONTINUOUS
 62
     2
100
AcDbLine
 10
2344.227552
 20
1789.998295
 30
0.0
 11
2347.613802
 21
1795.863452
 31
0.0
  0
ARC
  5
127
330
EE
100
AcDbEntity
  8
0
  6
CONTINUOUS
 62
     2
100
AcDbCircle
 10
2344.341335
 20
1784.840373
 30
0.0
 40
1.1025
100
AcDbArc
 50
240.0
 51
330.0
  0
ARC
  5
128
330
EE
100
AcDbEntity
  8
0
  6
CONTINUOUS
 62
     2
100
AcDbCircle
 10
2339.976567
 20
1787.360373
 30
0.0
 40
1.1025
100
AcDbArc
 50
150.0
 51
240.0
  0
ARC
  5
129
330
EE
100
AcDbEntity
  8
0
  6
CONTINUOUS
 62
     2
100
AcDbCircle
 10
2341.157817
 20
1789.406358
 30
0.0
 40
1.1025
100
AcDbArc
 50
60.0
 51
150.0
  0
ARC
  5
12A
330
EE
100
AcDbEntity
  8
0
  6
CONTINUOUS
 62
     2
100
AcDbCircle
 10
2345.522585
 20
1786.886358
 30
0.0
 40
1.1025
100
AcDbArc
 50
330.0
 51
60.0
  0
ARC
  5
12B
330
EE
100
AcDbEntity
  8
0
  6
CONTINUOUS
 62
     2
100
AcDbCircle
 10
2343.999986
 20
1800.314139
 30
0.0
 40
1.1025
100
AcDbArc
 50
150.0
 51
240.0
  0
ARC
  5
12C
330
EE
100
AcDbEntity
  8
0
  6
CONTINUOUS
 62
     2
100
AcDbCircle
 10
2344.472486
 20
1801.132533
 30
0.0
 40
1.1025
100
AcDbArc
 50
60.0
 51
150.0
  0
ARC
  5
12D
330
EE
100
AcDbEntity
  8
0
  6
CONTINUOUS
 62
     2
100
AcDbCircle
 10
2351.428835
 20
1797.116283
 30
0.0
 40
1.1025
100
AcDbArc
 50
330.0
 51
60.0
  0
ARC
  5
12E
330
EE
100
AcDbEntity
  8
0
  6
CONTINUOUS
 62
     2
100
AcDbCircle
 10
2350.956335
 20
1796.297889
 30
0.0
 40
1.1025
100
AcDbArc
 50
240.0
 51
330.0
  0
LINE
  5
12F
330
EE
100
AcDbEntity
  8
0
  6
CONTINUOUS
 62
     2
100
AcDbLine
 10
2342.936658
 20
1789.652401
 30
0.0
 11
2341.709067
 21
1790.361151
 31
0.0
  0
LINE
  5
130
330
EE
100
AcDbEntity
  8
0
  6
CONTINUOUS
 62
     2
100
AcDbLine
 10
2347.267908
 20
1797.154346
 30
0.0
 11
2343.448736
 21
1799.359346
 31
0.0
  0
ARC
  5
131
330
EE
100
AcDbEntity
  8
0
  6
CONTINUOUS
 62
     2
100
AcDbCircle
 10
2345.727941
 20
1789.132045
 30
0.0
 40
0.945
100
AcDbArc
 50
150.0
 51
240.0
  0
ARC
  5
132
330
EE
100
AcDbEntity
  8
0
  6
CONTINUOUS
 62
     2
100
AcDbCircle
 10
2343.409158
 20
1790.470795
 30
0.0
 40
0.945
100
AcDbArc
 50
240.0
 51
330.0
  0
ARC
  5
133
330
EE
100
AcDbEntity
  8
0
  6
CONTINUOUS
 62
     2
100
AcDbCircle
 10
2346.795408
 20
1796.335952
 30
0.0
 40
0.945
100
AcDbArc
 50
330.0
 51
60.0
  0
ARC
  5
134
330
EE
100
AcDbEntity
  8
0
  6
CONTINUOUS
 62
     2
100
AcDbCircle
 10
2342.288181
 20
1780.024206
 30
0.0
 40
1.26
100
AcDbArc
 50
240.0
 51
330.0
  0
ARC
  5
135
330
EE
100
AcDbEntity
  8
0
  6
CONTINUOUS
 62
     2
100
AcDbCircle
 10
2334.377039
 20
1784.591706
 30
0.0
 40
1.26
100
AcDbArc
 50
150.0
 51
240.0
  0
ARC
  5
136
330
EE
100
AcDbEntity
  8
0
  6
CONTINUOUS
 62
     2
100
AcDbCircle
 10
2344.929539
 20
1802.869172
 30
0.0
 40
1.26
100
AcDbArc
 50
60.0
 51
150.0
  0
ARC
  5
137
330
EE
100
AcDbEntity
  8
0
  6
CONTINUOUS
 62
     2
100
AcDbCircle
 10
2352.840681
 20
1798.301672
 30
0.0
 40
1.26
100
AcDbArc
 50
330.0
 51
60.0
  0
ARC
  5
138
330
EE
100
AcDbEntity
  8
0
  6
CONTINUOUS
 62
     2
100
AcDbCircle
 10
2349.114191
 20
1794.997202
 30
0.0
 40
0.945
100
AcDbArc
 50
60.0
 51
150.0
  0
LINE
  5
139
330
EE
100
AcDbEntity
  8
0
  6
CONTINUOUS
 62
     2
100
AcDbLine
 10
2351.911128
 20
1795.746639
 30
0.0
 11
2352.383628
 21
1796.565033
 31
0.0
  0
CIRCLE
  5
13A
330
EE
100
AcDbEntity
  8
0
  6
CONTINUOUS
 62
     2
100
AcDbCircle
 10
2399.156207
 20
1769.153424
 30
0.0
 40
1.5
  0
CIRCLE
  5
13B
330
EE
100
AcDbEntity
  8
0
  6
CONTINUOUS
 62
     2
100
AcDbCircle
 10
2399.156207
 20
1769.153424
 30
0.0
 40
1.0
  0
POINT
  5
13C
330
EE
100
AcDbEntity
  8
0
  6
CONTINUOUS
 62
     2
100
AcDbPoint
 10
2399.156207
 20
1769.153424
 30
0.0
  0
CIRCLE
  5
13D
330
EE
100
AcDbEntity
  8
0
  6
CONTINUOUS
 62
     2
100
AcDbCircle
 10
2390.495953
 20
1774.153424
 30
0.0
 40
1.5
  0
CIRCLE
  5
13E
330
EE
100
AcDbEntity
  8
0
  6
CONTINUOUS
 62
     2
100
AcDbCircle
 10
2390.495953
 20
1774.153424
 30
0.0
 40
1.0
  0
POINT
  5
13F
330
EE
100
AcDbEntity
  8
0
  6
CONTINUOUS
 62
     2
100
AcDbPoint
 10
2390.495953
 20
1774.153424
 30
0.0
  0
CIRCLE
  5
140
330
EE
100
AcDbEntity
  8
0
  6
CONTINUOUS
 62
     2
100
AcDbCircle
 10
2381.835699
 20
1779.153424
 30
0.0
 40
1.5
  0
CIRCLE
  5
141
330
EE
100
AcDbEntity
  8
0
  6
CONTINUOUS
 62
     2
100
AcDbCircle
 10
2381.835699
 20
1779.153424
 30
0.0
 40
1.0
  0
POINT
  5
142
330
EE
100
AcDbEntity
  8
0
  6
CONTINUOUS
 62
     2
100
AcDbPoint
 10
2381.835699
 20
1779.153424
 30
0.0
  0
TEXT
  5
143
330
EE
100
AcDbEntity
  8
0
  6
CONTINUOUS
 62
     2
100
AcDbText
 10
2393.617025
 20
1755.913059
 30
0.0
 40
3.646549
  1
3
 50
60.0
 41
1.113868
  7
ED_VECTOR
100
AcDbText
  0
TEXT
  5
144
330
EE
100
AcDbEntity
  8
0
  6
CONTINUOUS
 62
     2
100
AcDbText
 10
2384.956869
 20
1760.913059
 30
0.0
 40
3.646549
  1
2
 50
60.0
 41
1.113868
  7
ED_VECTOR
100
AcDbText
  0
TEXT
  5
145
330
EE
100
AcDbEntity
  8
0
  6
CONTINUOUS
 62
     2
100
AcDbText
 10
2376.296713
 20
1765.913059
 30
0.0
 40
3.646549
  1
1
 50
60.0
 41
1.113868
  7
ED_VECTOR
100
AcDbText
  0
CIRCLE
  5
146
330
EE
100
AcDbEntity
  8
0
  6
CONTINUOUS
 62
     2
100
AcDbCircle
 10
2335.735944
 20
1738.661422
 30
0.0
 40
2.5
  0
CIRCLE
  5
147
330
EE
100
AcDbEntity
  8
0
  6
CONTINUOUS
 62
     2
100
AcDbCircle
 10
2330.735944
 20
1730.001168
 30
0.0
 40
2.5
  0
CIRCLE
  5
148
330
EE
100
AcDbEntity
  8
0
  6
CONTINUOUS
 62
     2
100
AcDbCircle
 10
2339.396198
 20
1725.001168
 30
0.0
 40
2.5
  0
CIRCLE
  5
149
330
EE
100
AcDbEntity
  8
0
  6
CONTINUOUS
 62
     2
100
AcDbCircle
 10
2344.396198
 20
1733.661422
 30
0.0
 40
2.5
  0
CIRCLE
  5
14A
330
EE
100
AcDbEntity
  8
0
  6
CONTINUOUS
 62
     2
100
AcDbCircle
 10
2353.056452
 20
1728.661422
 30
0.0
 40
2.5
  0
CIRCLE
  5
14B
330
EE
100
AcDbEntity
  8
0
  6
CONTINUOUS
 62
     2
100
AcDbCircle
 10
2348.056452
 20
1720.001168
 30
0.0
 40
2.5
  0
CIRCLE
  5
14C
330
EE
100
AcDbEntity
  8
0
  6
CONTINUOUS
 62
     2
100
AcDbCircle
 10
2356.716706
 20
1715.001168
 30
0.0
 40
2.5
  0
CIRCLE
  5
14D
330
EE
100
AcDbEntity
  8
0
  6
CONTINUOUS
 62
     2
100
AcDbCircle
 10
2361.716706
 20
1723.661422
 30
0.0
 40
2.5
  0
CIRCLE
  5
14E
330
EE
100
AcDbEntity
  8
0
  6
CONTINUOUS
 62
     2
100
AcDbCircle
 10
2370.37696
 20
1718.661422
 30
0.0
 40
2.5
  0
CIRCLE
  5
14F
330
EE
100
AcDbEntity
  8
0
  6
CONTINUOUS
 62
     2
100
AcDbCircle
 10
2365.37696
 20
1710.001168
 30
0.0
 40
2.5
  0
CIRCLE
  5
150
330
EE
100
AcDbEntity
  8
0
  6
CONTINUOUS
 62
     2
100
AcDbCircle
 10
2340.735944
 20
1747.321676
 30
0.0
 40
2.5
  0
CIRCLE
  5
151
330
EE
100
AcDbEntity
  8
0
  6
CONTINUOUS
 62
     2
100
AcDbCircle
 10
2345.735944
 20
1755.98193
 30
0.0
 40
2.5
  0
CIRCLE
  5
152
330
EE
100
AcDbEntity
  8
0
  6
CONTINUOUS
 62
     2
100
AcDbCircle
 10
2354.396198
 20
1750.98193
 30
0.0
 40
2.5
  0
CIRCLE
  5
153
330
EE
100
AcDbEntity
  8
0
  6
CONTINUOUS
 62
     2
100
AcDbCircle
 10
2349.396198
 20
1742.321676
 30
0.0
 40
2.5
  0
CIRCLE
  5
154
330
EE
100
AcDbEntity
  8
0
  6
CONTINUOUS
 62
     2
100
AcDbCircle
 10
2358.056452
 20
1737.321676
 30
0.0
 40
2.5
  0
CIRCLE
  5
155
330
EE
100
AcDbEntity
  8
0
  6
CONTINUOUS
 62
     2
100
AcDbCircle
 10
2363.056452
 20
1745.98193
 30
0.0
 40
2.5
  0
CIRCLE
  5
156
330
EE
100
AcDbEntity
  8
0
  6
CONTINUOUS
 62
     2
100
AcDbCircle
 10
2371.716706
 20
1740.98193
 30
0.0
 40
2.5
  0
CIRCLE
  5
157
330
EE
100
AcDbEntity
  8
0
  6
CONTINUOUS
 62
     2
100
AcDbCircle
 10
2366.716706
 20
1732.321676
 30
0.0
 40
2.5
  0
CIRCLE
  5
158
330
EE
100
AcDbEntity
  8
0
  6
CONTINUOUS
 62
     2
100
AcDbCircle
 10
2375.37696
 20
1727.321676
 30
0.0
 40
2.5
  0
CIRCLE
  5
159
330
EE
100
AcDbEntity
  8
0
  6
CONTINUOUS
 62
     2
100
AcDbCircle
 10
2380.37696
 20
1735.98193
 30
0.0
 40
2.5
  0
CIRCLE
  5
15A
330
EE
100
AcDbEntity
  8
0
  6
CONTINUOUS
 62
     2
100
AcDbCircle
 10
2385.735944
 20
1825.263962
 30
0.0
 40
2.5
  0
CIRCLE
  5
15B
330
EE
100
AcDbEntity
  8
0
  6
CONTINUOUS
 62
     2
100
AcDbCircle
 10
2390.735944
 20
1833.924216
 30
0.0
 40
2.5
  0
CIRCLE
  5
15C
330
EE
100
AcDbEntity
  8
0
  6
CONTINUOUS
 62
     2
100
AcDbCircle
 10
2399.396198
 20
1828.924216
 30
0.0
 40
2.5
  0
CIRCLE
  5
15D
330
EE
100
AcDbEntity
  8
0
  6
CONTINUOUS
 62
     2
100
AcDbCircle
 10
2394.396198
 20
1820.263962
 30
0.0
 40
2.5
  0
CIRCLE
  5
15E
330
EE
100
AcDbEntity
  8
0
  6
CONTINUOUS
 62
     2
100
AcDbCircle
 10
2403.056452
 20
1815.263962
 30
0.0
 40
2.5
  0
CIRCLE
  5
15F
330
EE
100
AcDbEntity
  8
0
  6
CONTINUOUS
 62
     2
100
AcDbCircle
 10
2408.056452
 20
1823.924216
 30
0.0
 40
2.5
  0
CIRCLE
  5
160
330
EE
100
AcDbEntity
  8
0
  6
CONTINUOUS
 62
     2
100
AcDbCircle
 10
2416.716706
 20
1818.924216
 30
0.0
 40
2.5
  0
CIRCLE
  5
161
330
EE
100
AcDbEntity
  8
0
  6
CONTINUOUS
 62
     2
100
AcDbCircle
 10
2411.716706
 20
1810.263962
 30
0.0
 40
2.5
  0
CIRCLE
  5
162
330
EE
100
AcDbEntity
  8
0
  6
CONTINUOUS
 62
     2
100
AcDbCircle
 10
2420.37696
 20
1805.263962
 30
0.0
 40
2.5
  0
CIRCLE
  5
163
330
EE
100
AcDbEntity
  8
0
  6
CONTINUOUS
 62
     2
100
AcDbCircle
 10
2425.37696
 20
1813.924216
 30
0.0
 40
2.5
  0
CIRCLE
  5
164
330
EE
100
AcDbEntity
  8
0
  6
CONTINUOUS
 62
     2
100
AcDbCircle
 10
2380.735944
 20
1816.603708
 30
0.0
 40
2.5
  0
CIRCLE
  5
165
330
EE
100
AcDbEntity
  8
0
  6
CONTINUOUS
 62
     2
100
AcDbCircle
 10
2375.735944
 20
1807.943454
 30
0.0
 40
2.5
  0
CIRCLE
  5
166
330
EE
100
AcDbEntity
  8
0
  6
CONTINUOUS
 62
     2
100
AcDbCircle
 10
2384.396198
 20
1802.943454
 30
0.0
 40
2.5
  0
CIRCLE
  5
167
330
EE
100
AcDbEntity
  8
0
  6
CONTINUOUS
 62
     2
100
AcDbCircle
 10
2389.396198
 20
1811.603708
 30
0.0
 40
2.5
  0
CIRCLE
  5
168
330
EE
100
AcDbEntity
  8
0
  6
CONTINUOUS
 62
     2
100
AcDbCircle
 10
2398.056452
 20
1806.603708
 30
0.0
 40
2.5
  0
CIRCLE
  5
169
330
EE
100
AcDbEntity
  8
0
  6
CONTINUOUS
 62
     2
100
AcDbCircle
 10
2393.056452
 20
1797.943454
 30
0.0
 40
2.5
  0
CIRCLE
  5
16A
330
EE
100
AcDbEntity
  8
0
  6
CONTINUOUS
 62
     2
100
AcDbCircle
 10
2401.716706
 20
1792.943454
 30
0.0
 40
2.5
  0
CIRCLE
  5
16B
330
EE
100
AcDbEntity
  8
0
  6
CONTINUOUS
 62
     2
100
AcDbCircle
 10
2406.716706
 20
1801.603708
 30
0.0
 40
2.5
  0
CIRCLE
  5
16C
330
EE
100
AcDbEntity
  8
0
  6
CONTINUOUS
 62
     2
100
AcDbCircle
 10
2415.37696
 20
1796.603708
 30
0.0
 40
2.5
  0
CIRCLE
  5
16D
330
EE
100
AcDbEntity
  8
0
  6
CONTINUOUS
 62
     2
100
AcDbCircle
 10
2410.37696
 20
1787.943454
 30
0.0
 40
2.5
  0
LINE
  5
16E
330
EE
100
AcDbEntity
  8
0
  6
CONTINUOUS
 62
     2
100
AcDbLine
 10
2351.969284
 20
1818.778391
 30
0.0
 11
2369.469284
 21
1849.08928
 31
0.0
  0
LINE
  5
16F
330
EE
100
AcDbEntity
  8
0
  6
CONTINUOUS
 62
     2
100
AcDbLine
 10
2365.82569
 20
1810.778391
 30
0.0
 11
2383.32569
 21
1841.08928
 31
0.0
  0
LINE
  5
170
330
EE
100
AcDbEntity
  8
0
  6
CONTINUOUS
 62
     2
100
AcDbLine
 10
2352.518322
 20
1816.729352
 30
0.0
 11
2363.776652
 21
1810.229352
 31
0.0
  0
LINE
  5
171
330
EE
100
AcDbEntity
  8
0
  6
CONTINUOUS
 62
     2
100
AcDbLine
 10
2352.835309
 20
1818.278391
 30
0.0
 11
2370.335309
 21
1848.58928
 31
0.0
  0
LINE
  5
172
330
EE
100
AcDbEntity
  8
0
  6
CONTINUOUS
 62
     2
100
AcDbLine
 10
2364.959665
 20
1811.278391
 30
0.0
 11
2382.459665
 21
1841.58928
 31
0.0
  0
LINE
  5
173
330
EE
100
AcDbEntity
  8
0
  6
CONTINUOUS
 62
     2
100
AcDbLine
 10
2353.018322
 20
1817.595378
 30
0.0
 11
2364.276652
 21
1811.095378
 31
0.0
  0
LINE
  5
174
330
EE
100
AcDbEntity
  8
0
  6
CONTINUOUS
 62
     2
100
AcDbLine
 10
2371.518322
 20
1849.638318
 30
0.0
 11
2382.776652
 21
1843.138318
 31
0.0
  0
LINE
  5
175
330
EE
100
AcDbEntity
  8
0
  6
CONTINUOUS
 62
     2
100
AcDbLine
 10
2371.018322
 20
1848.772292
 30
0.0
 11
2382.276652
 21
1842.272292
 31
0.0
  0
ARC
  5
176
330
EE
100
AcDbEntity
  8
0
  6
CONTINUOUS
 62
     2
100
AcDbCircle
 10
2353.268322
 20
1818.028391
 30
0.0
 40
0.5
100
AcDbArc
 50
150.0
 51
240.0
  0
ARC
  5
177
330
EE
100
AcDbEntity
  8
0
  6
CONTINUOUS
 62
     2
100
AcDbCircle
 10
2364.526652
 20
1811.528391
 30
0.0
 40
0.5
100
AcDbArc
 50
240.0
 51
330.0
  0
ARC
  5
178
330
EE
100
AcDbEntity
  8
0
  6
CONTINUOUS
 62
     2
100
AcDbCircle
 10
2370.768322
 20
1848.33928
 30
0.0
 40
0.5
100
AcDbArc
 50
60.0
 51
150.0
  0
ARC
  5
179
330
EE
100
AcDbEntity
  8
0
  6
CONTINUOUS
 62
     2
100
AcDbCircle
 10
2382.026652
 20
1841.83928
 30
0.0
 40
0.5
100
AcDbArc
 50
330.0
 51
60.0
  0
ARC
  5
17A
330
EE
100
AcDbEntity
  8
0
  6
CONTINUOUS
 62
     2
100
AcDbCircle
 10
2353.268322
 20
1818.028391
 30
0.0
 40
1.5
100
AcDbArc
 50
150.0
 51
240.0
  0
ARC
  5
17B
330
EE
100
AcDbEntity
  8
0
  6
CONTINUOUS
 62
     2
100
AcDbCircle
 10
2364.526652
 20
1811.528391
 30
0.0
 40
1.5
100
AcDbArc
 50
240.0
 51
330.0
  0
ARC
  5
17C
330
EE
100
AcDbEntity
  8
0
  6
CONTINUOUS
 62
     2
100
AcDbCircle
 10
2370.768322
 20
1848.33928
 30
0.0
 40
1.5
100
AcDbArc
 50
60.0
 51
150.0
  0
ARC
  5
17D
330
EE
100
AcDbEntity
  8
0
  6
CONTINUOUS
 62
     2
100
AcDbCircle
 10
2382.026652
 20
1841.83928
 30
0.0
 40
1.5
100
AcDbArc
 50
330.0
 51
60.0
  0
LINE
  5
17E
330
EE
100
AcDbEntity
  8
0
  6
CONTINUOUS
 62
     2
100
AcDbLine
 10
2360.549411
 20
1823.639606
 30
0.0
 11
2369.549411
 21
1839.228064
 31
0.0
  0
LINE
  5
17F
330
EE
100
AcDbEntity
  8
0
  6
CONTINUOUS
 62
     2
100
AcDbLine
 10
2362.383722
 20
1832.972871
 30
0.0
 11
2369.549411
 21
1839.228064
 31
0.0
  0
LINE
  5
180
330
EE
100
AcDbEntity
  8
0
  6
CONTINUOUS
 62
     2
100
AcDbLine
 10
2362.383722
 20
1832.972871
 30
0.0
 11
2360.549411
 21
1823.639606
 31
0.0
  0
TEXT
  5
181
330
EE
100
AcDbEntity
  8
0
  6
CONTINUOUS
 62
     2
100
AcDbText
 10
2367.741978
 20
1819.509861
 30
0.0
 40
7.066058
  1
UP
 50
60.0
 41
1.166654
  7
ED_VECTOR
100
AcDbText
  0
LINE
  5
182
330
EE
100
AcDbEntity
  8
0
  6
CONTINUOUS
 62
     2
100
AcDbLine
 10
2324.469284
 20
1771.146993
 30
0.0
 11
2306.969284
 21
1740.836104
 31
0.0
  0
LINE
  5
183
330
EE
100
AcDbEntity
  8
0
  6
CONTINUOUS
 62
     2
100
AcDbLine
 10
2338.32569
 20
1763.146993
 30
0.0
 11
2320.82569
 21
1732.836104
 31
0.0
  0
LINE
  5
184
330
EE
100
AcDbEntity
  8
0
  6
CONTINUOUS
 62
     2
100
AcDbLine
 10
2326.518322
 20
1771.696031
 30
0.0
 11
2337.776652
 21
1765.196031
 31
0.0
  0
LINE
  5
185
330
EE
100
AcDbEntity
  8
0
  6
CONTINUOUS
 62
     2
100
AcDbLine
 10
2325.335309
 20
1770.646993
 30
0.0
 11
2307.835309
 21
1740.336104
 31
0.0
  0
LINE
  5
186
330
EE
100
AcDbEntity
  8
0
  6
CONTINUOUS
 62
     2
100
AcDbLine
 10
2337.459665
 20
1763.646993
 30
0.0
 11
2319.959665
 21
1733.336104
 31
0.0
  0
LINE
  5
187
330
EE
100
AcDbEntity
  8
0
  6
CONTINUOUS
 62
     2
100
AcDbLine
 10
2326.018322
 20
1770.830006
 30
0.0
 11
2337.276652
 21
1764.330006
 31
0.0
  0
LINE
  5
188
330
EE
100
AcDbEntity
  8
0
  6
CONTINUOUS
 62
     2
100
AcDbLine
 10
2307.518322
 20
1738.787066
 30
0.0
 11
2318.776652
 21
1732.287066
 31
0.0
  0
LINE
  5
189
330
EE
100
AcDbEntity
  8
0
  6
CONTINUOUS
 62
     2
100
AcDbLine
 10
2308.018322
 20
1739.653091
 30
0.0
 11
2319.276652
 21
1733.153091
 31
0.0
  0
ARC
  5
18A
330
EE
100
AcDbEntity
  8
0
  6
CONTINUOUS
 62
     2
100
AcDbCircle
 10
2325.768322
 20
1770.396993
 30
0.0
 40
0.5
100
AcDbArc
 50
60.0
 51
150.0
  0
ARC
  5
18B
330
EE
100
AcDbEntity
  8
0
  6
CONTINUOUS
 62
     2
100
AcDbCircle
 10
2337.026652
 20
1763.896993
 30
0.0
 40
0.5
100
AcDbArc
 50
330.0
 51
60.0
  0
ARC
  5
18C
330
EE
100
AcDbEntity
  8
0
  6
CONTINUOUS
 62
     2
100
AcDbCircle
 10
2308.268322
 20
1740.086104
 30
0.0
 40
0.5
100
AcDbArc
 50
150.0
 51
240.0
  0
ARC
  5
18D
330
EE
100
AcDbEntity
  8
0
  6
CONTINUOUS
 62
     2
100
AcDbCircle
 10
2319.526652
 20
1733.586104
 30
0.0
 40
0.5
100
AcDbArc
 50
240.0
 51
330.0
  0
ARC
  5
18E
330
EE
100
AcDbEntity
  8
0
  6
CONTINUOUS
 62
     2
100
AcDbCircle
 10
2325.768322
 20
1770.396993
 30
0.0
 40
1.5
100
AcDbArc
 50
60.0
 51
150.0
  0
ARC
  5
18F
330
EE
100
AcDbEntity
  8
0
  6
CONTINUOUS
 62
     2
100
AcDbCircle
 10
2337.026652
 20
1763.896993
 30
0.0
 40
1.5
100
AcDbArc
 50
330.0
 51
60.0
  0
ARC
  5
190
330
EE
100
AcDbEntity
  8
0
  6
CONTINUOUS
 62
     2
100
AcDbCircle
 10
2308.268322
 20
1740.086104
 30
0.0
 40
1.5
100
AcDbArc
 50
150.0
 51
240.0
  0
ARC
  5
191
330
EE
100
AcDbEntity
  8
0
  6
CONTINUOUS
 62
     2
100
AcDbCircle
 10
2319.526652
 20
1733.586104
 30
0.0
 40
1.5
100
AcDbArc
 50
240.0
 51
330.0
  0
LINE
  5
192
330
EE
100
AcDbEntity
  8
0
  6
CONTINUOUS
 62
     2
100
AcDbLine
 10
2329.289107
 20
1758.549312
 30
0.0
 11
2320.289107
 21
1742.960855
 31
0.0
  0
LINE
  5
193
330
EE
100
AcDbEntity
  8
0
  6
CONTINUOUS
 62
     2
100
AcDbLine
 10
2327.454796
 20
1749.216048
 30
0.0
 11
2320.289107
 21
1742.960855
 31
0.0
  0
LINE
  5
194
330
EE
100
AcDbEntity
  8
0
  6
CONTINUOUS
 62
     2
100
AcDbLine
 10
2327.454796
 20
1749.216048
 30
0.0
 11
2329.289107
 21
1758.549312
 31
0.0
  0
TEXT
  5
195
330
EE
100
AcDbEntity
  8
0
  6
CONTINUOUS
 62
     2
100
AcDbText
 10
2316.045678
 20
1738.831509
 30
0.0
 40
6.383575
  1
DOWN
 50
60.0
 41
0.969444
  7
ED_VECTOR
100
AcDbText
  0
ENDBLK
  5
F0
330
EE
100
AcDbEntity
  8
0
100
AcDbBlockEnd
  0
BLOCK
  5
1B9
330
1B8
100
AcDbEntity
  8
0
100
AcDbBlockBegin
  2
*D12
 70
     1
 10
0.0
 20
0.0
 30
0.0
  3
*D12
  1

  0
TEXT
  5
1BB
330
1B8
100
AcDbEntity
  8
0
  6
CONTINUOUS
 62
     3
100
AcDbText
 10
1838.293213
 20
565.643677
 30
0.0
 40
40.0
  1
70
 41
0.75
  7
ED_VECTOR
100
AcDbText
  0
LINE
  5
1BC
330
1B8
100
AcDbEntity
  8
0
  6
CONTINUOUS
 62
     5
100
AcDbLine
 10
1832.785323
 20
552.868757
 30
0.0
 11
1902.785323
 21
552.868757
 31
0.0
  0
INSERT
  5
1BD
330
1B8
100
AcDbEntity
  8
0
  6
CONTINUOUS
 62
     5
100
AcDbBlockReference
  2
EDTIP_ARROW_S
 10
1832.785323
 20
552.868757
 30
0.0
 41
30.0
 42
30.0
 50
180.0
  0
INSERT
  5
1BE
330
1B8
100
AcDbEntity
  8
0
  6
CONTINUOUS
 62
     5
100
AcDbBlockReference
  2
EDTIP_ARROW_E
 10
1902.785323
 20
552.868757
 30
0.0
 41
30.0
 42
30.0
  0
ENDBLK
  5
1BA
330
1B8
100
AcDbEntity
  8
0
100
AcDbBlockEnd
  0
BLOCK
  5
1C1
330
1C0
100
AcDbEntity
  8
0
100
AcDbBlockBegin
  2
*D13
 70
     1
 10
0.0
 20
0.0
 30
0.0
  3
*D13
  1

  0
TEXT
  5
1C3
330
1C0
100
AcDbEntity
  8
0
  6
CONTINUOUS
 62
     3
100
AcDbText
 10
1607.7854
 20
462.868774
 30
0.0
 40
40.0
  1
500
 41
0.75
  7
ED_VECTOR
100
AcDbText
  0
LINE
  5
1C4
330
1C0
100
AcDbEntity
  8
0
  6
CONTINUOUS
 62
     5
100
AcDbLine
 10
1402.785323
 20
642.868757
 30
0.0
 11
1402.785323
 21
442.868757
 31
0.0
  0
LINE
  5
1C5
330
1C0
100
AcDbEntity
  8
0
  6
CONTINUOUS
 62
     5
100
AcDbLine
 10
1902.785323
 20
642.868757
 30
0.0
 11
1902.785323
 21
442.868757
 31
0.0
  0
LINE
  5
1C6
330
1C0
100
AcDbEntity
  8
0
  6
CONTINUOUS
 62
     5
100
AcDbLine
 10
1402.785323
 20
452.868757
 30
0.0
 11
1902.785323
 21
452.868757
 31
0.0
  0
INSERT
  5
1C7
330
1C0
100
AcDbEntity
  8
0
  6
CONTINUOUS
 62
     5
100
AcDbBlockReference
  2
EDTIP_ARROW_S
 10
1402.785323
 20
452.868757
 30
0.0
 41
30.0
 42
30.0
 50
180.0
  0
INSERT
  5
1C8
330
1C0
100
AcDbEntity
  8
0
  6
CONTINUOUS
 62
     5
100
AcDbBlockReference
  2
EDTIP_ARROW_E
 10
1902.785323
 20
452.868757
 30
0.0
 41
30.0
 42
30.0
  0
ENDBLK
  5
1C2
330
1C0
100
AcDbEntity
  8
0
100
AcDbBlockEnd
  0
BLOCK
  5
1D1
330
1D0
100
AcDbEntity
  8
0
100
AcDbBlockBegin
  2
EDDIM017
 70
     0
 10
0.0
 20
0.0
 30
0.0
  3
EDDIM017
  1

  0
TEXT
  5
1D4
330
1D0
100
AcDbEntity
  8
0
  6
CONTINUOUS
 62
     5
100
AcDbText
 10
1131.255859
 20
407.821106
 30
0.0
 40
40.0
  1
４－φ１０
 41
0.75
  7
ED_VECTOR
100
AcDbText
  0
ENDBLK
  5
1D2
330
1D0
100
AcDbEntity
  8
0
100
AcDbBlockEnd
  0
BLOCK
  5
1DA
330
1D9
100
AcDbEntity
  8
0
100
AcDbBlockBegin
  2
*D15
 70
     1
 10
0.0
 20
0.0
 30
0.0
  3
*D15
  1

  0
TEXT
  5
1DC
330
1D9
100
AcDbEntity
  8
0
  6
CONTINUOUS
 62
     3
100
AcDbText
 10
767.317139
 20
570.016479
 30
0.0
 40
40.0
  1
50
 41
0.75
  7
ED_VECTOR
100
AcDbText
  0
LINE
  5
1DD
330
1D9
100
AcDbEntity
  8
0
  6
CONTINUOUS
 62
     5
100
AcDbLine
 10
748.085323
 20
553.868757
 30
0.0
 11
798.085323
 21
553.868757
 31
0.0
  0
LINE
  5
1DE
330
1D9
100
AcDbEntity
  8
0
  6
CONTINUOUS
 62
     5
100
AcDbLine
 10
798.085323
 20
553.868757
 30
0.0
 11
843.929256
 21
553.868757
 31
0.0
  0
INSERT
  5
1DF
330
1D9
100
AcDbEntity
  8
0
  6
CONTINUOUS
 62
     5
100
AcDbBlockReference
  2
EDTIP_ARROW_S
 10
798.085323
 20
553.868757
 30
0.0
 41
30.0
 42
30.0
 50
180.0
  0
ENDBLK
  5
1DB
330
1D9
100
AcDbEntity
  8
0
100
AcDbBlockEnd
  0
BLOCK
  5
1E2
330
1E1
100
AcDbEntity
  8
0
100
AcDbBlockBegin
  2
*D16
 70
     1
 10
0.0
 20
0.0
 30
0.0
  3
*D16
  1

  0
TEXT
  5
1E4
330
1E1
100
AcDbEntity
  8
0
  6
CONTINUOUS
 62
     3
100
AcDbText
 10
553.085327
 20
463.868774
 30
0.0
 40
40.0
  1
400
 41
0.75
  7
ED_VECTOR
100
AcDbText
  0
LINE
  5
1E5
330
1E1
100
AcDbEntity
  8
0
  6
CONTINUOUS
 62
     5
100
AcDbLine
 10
398.085323
 20
643.868757
 30
0.0
 11
398.085323
 21
443.868757
 31
0.0
  0
LINE
  5
1E6
330
1E1
100
AcDbEntity
  8
0
  6
CONTINUOUS
 62
     5
100
AcDbLine
 10
798.085323
 20
643.868757
 30
0.0
 11
798.085323
 21
443.868757
 31
0.0
  0
LINE
  5
1E7
330
1E1
100
AcDbEntity
  8
0
  6
CONTINUOUS
 62
     5
100
AcDbLine
 10
398.085323
 20
453.868757
 30
0.0
 11
798.085323
 21
453.868757
 31
0.0
  0
INSERT
  5
1E8
330
1E1
100
AcDbEntity
  8
0
  6
CONTINUOUS
 62
     5
100
AcDbBlockReference
  2
EDTIP_ARROW_S
 10
398.085323
 20
453.868757
 30
0.0
 41
30.0
 42
30.0
 50
180.0
  0
INSERT
  5
1E9
330
1E1
100
AcDbEntity
  8
0
  6
CONTINUOUS
 62
     5
100
AcDbBlockReference
  2
EDTIP_ARROW_E
 10
798.085323
 20
453.868757
 30
0.0
 41
30.0
 42
30.0
  0
ENDBLK
  5
1E3
330
1E1
100
AcDbEntity
  8
0
100
AcDbBlockEnd
  0
BLOCK
  5
1F3
330
1F2
100
AcDbEntity
  8
0
100
AcDbBlockBegin
  2
*D17
 70
     1
 10
0.0
 20
0.0
 30
0.0
  3
*D17
  1

  0
TEXT
  5
1F5
330
1F2
100
AcDbEntity
  8
0
  6
CONTINUOUS
 62
     3
100
AcDbText
 10
2038.170044
 20
663.868713
 30
0.0
 40
40.0
  1
80
 50
90.0
 41
0.75
  7
ED_VECTOR
100
AcDbText
  0
LINE
  5
1F6
330
1F2
100
AcDbEntity
  8
0
  6
CONTINUOUS
 62
     5
100
AcDbLine
 10
1978.085323
 20
653.868757
 30
0.0
 11
2180.245425
 21
653.868757
 31
0.0
  0
LINE
  5
1F7
330
1F2
100
AcDbEntity
  8
0
  6
CONTINUOUS
 62
     5
100
AcDbLine
 10
1977.985323
 20
733.868757
 30
0.0
 11
2058.170024
 21
733.868757
 31
0.0
  0
LINE
  5
1F8
330
1F2
100
AcDbEntity
  8
0
  6
CONTINUOUS
 62
     5
100
AcDbLine
 10
2048.170024
 20
653.868757
 30
0.0
 11
2048.170024
 21
733.868757
 31
0.0
  0
INSERT
  5
1F9
330
1F2
100
AcDbEntity
  8
0
  6
CONTINUOUS
 62
     5
100
AcDbBlockReference
  2
EDTIP_ARROW_S
 10
2048.170024
 20
653.868757
 30
0.0
 41
30.0
 42
30.0
 50
270.0
  0
INSERT
  5
1FA
330
1F2
100
AcDbEntity
  8
0
  6
CONTINUOUS
 62
     5
100
AcDbBlockReference
  2
EDTIP_ARROW_E
 10
2048.170024
 20
733.868757
 30
0.0
 41
30.0
 42
30.0
 50
90.0
  0
ENDBLK
  5
1F4
330
1F2
100
AcDbEntity
  8
0
100
AcDbBlockEnd
  0
BLOCK
  5
1FC
330
1FB
100
AcDbEntity
  8
0
100
AcDbBlockBegin
  2
BLKF021
 70
     0
 10
0.0
 20
0.0
 30
0.0
  3
BLKF021
  1

  0
LINE
  5
1FF
330
1FB
100
AcDbEntity
  8
0
  6
CONTINUOUS
 62
     3
100
AcDbLine
 10
1402.785323
 20
667.868757
 30
0.0
 11
1402.785323
 21
653.868757
 31
0.0
  0
LINE
  5
200
330
1FB
100
AcDbEntity
  8
0
  6
CONTINUOUS
 62
     3
100
AcDbLine
 10
1902.785323
 20
667.868757
 30
0.0
 11
1902.785323
 21
653.868757
 31
0.0
  0
LINE
  5
201
330
1FB
100
AcDbEntity
  8
0
  6
CONTINUOUS
 62
     3
100
AcDbLine
 10
1902.785323
 20
653.868757
 30
0.0
 11
1402.785323
 21
653.868757
 31
0.0
  0
LINE
  5
202
330
1FB
100
AcDbEntity
  8
0
  6
CENTER
 62
     5
100
AcDbLine
 10
1472.785323
 20
643.023684
 30
0.0
 11
1472.785323
 21
661.006276
 31
0.0
  0
LINE
  5
203
330
1FB
100
AcDbEntity
  8
0
  6
CENTER
 62
     5
100
AcDbLine
 10
1783.785323
 20
643.023684
 30
0.0
 11
1783.785323
 21
661.006276
 31
0.0
  0
ENDBLK
  5
1FD
330
1FB
100
AcDbEntity
  8
0
100
AcDbBlockEnd
  0
BLOCK
  5
206
330
205
100
AcDbEntity
  8
0
100
AcDbBlockBegin
  2
*D19
 70
     1
 10
0.0
 20
0.0
 30
0.0
  3
*D19
  1

  0
TEXT
  5
208
330
205
100
AcDbEntity
  8
0
  6
CONTINUOUS
 62
     3
100
AcDbText
 10
2038.170044
 20
863.868713
 30
0.0
 40
40.0
  1
350
 50
90.0
 41
0.75
  7
ED_VECTOR
100
AcDbText
  0
LINE
  5
209
330
205
100
AcDbEntity
  8
0
  6
CONTINUOUS
 62
     5
100
AcDbLine
 10
1977.985323
 20
1083.868757
 30
0.0
 11
2180.245425
 21
1083.868757
 31
0.0
  0
LINE
  5
20A
330
205
100
AcDbEntity
  8
0
  6
CONTINUOUS
 62
     5
100
AcDbLine
 10
2048.170024
 20
733.868757
 30
0.0
 11
2048.170024
 21
1083.868757
 31
0.0
  0
INSERT
  5
20B
330
205
100
AcDbEntity
  8
0
  6
CONTINUOUS
 62
     5
100
AcDbBlockReference
  2
EDTIP_ARROW_S
 10
2048.170024
 20
733.868757
 30
0.0
 41
30.0
 42
30.0
 50
270.0
  0
INSERT
  5
20C
330
205
100
AcDbEntity
  8
0
  6
CONTINUOUS
 62
     5
100
AcDbBlockReference
  2
EDTIP_ARROW_E
 10
2048.170024
 20
1083.868757
 30
0.0
 41
30.0
 42
30.0
 50
90.0
  0
ENDBLK
  5
207
330
205
100
AcDbEntity
  8
0
100
AcDbBlockEnd
  0
BLOCK
  5
20F
330
20E
100
AcDbEntity
  8
0
100
AcDbBlockBegin
  2
*D20
 70
     1
 10
0.0
 20
0.0
 30
0.0
  3
*D20
  1

  0
TEXT
  5
211
330
20E
100
AcDbEntity
  8
0
  6
CONTINUOUS
 62
     3
100
AcDbText
 10
2160.245361
 20
823.868713
 30
0.0
 40
40.0
  1
430
 50
90.0
 41
0.75
  7
ED_VECTOR
100
AcDbText
  0
LINE
  5
212
330
20E
100
AcDbEntity
  8
0
  6
CONTINUOUS
 62
     5
100
AcDbLine
 10
2170.245425
 20
653.868757
 30
0.0
 11
2170.245425
 21
1083.868757
 31
0.0
  0
INSERT
  5
213
330
20E
100
AcDbEntity
  8
0
  6
CONTINUOUS
 62
     5
100
AcDbBlockReference
  2
EDTIP_ARROW_S
 10
2170.245425
 20
653.868757
 30
0.0
 41
30.0
 42
30.0
 50
270.0
  0
INSERT
  5
214
330
20E
100
AcDbEntity
  8
0
  6
CONTINUOUS
 62
     5
100
AcDbBlockReference
  2
EDTIP_ARROW_E
 10
2170.245425
 20
1083.868757
 30
0.0
 41
30.0
 42
30.0
 50
90.0
  0
ENDBLK
  5
210
330
20E
100
AcDbEntity
  8
0
100
AcDbBlockEnd
  0
BLOCK
  5
21E
330
21D
100
AcDbEntity
  8
0
100
AcDbBlockBegin
  2
*D21
 70
     1
 10
0.0
 20
0.0
 30
0.0
  3
*D21
  1

  0
TEXT
  5
220
330
21D
100
AcDbEntity
  8
0
  6
CONTINUOUS
 62
     3
100
AcDbText
 10
1607.985352
 20
1174.829956
 30
0.0
 40
40.0
  1
630
 41
0.75
  7
ED_VECTOR
100
AcDbText
  0
LINE
  5
221
330
21D
100
AcDbEntity
  8
0
  6
CONTINUOUS
 62
     5
100
AcDbLine
 10
1337.985323
 20
1093.868757
 30
0.0
 11
1337.985323
 21
1174.829927
 31
0.0
  0
LINE
  5
222
330
21D
100
AcDbEntity
  8
0
  6
CONTINUOUS
 62
     5
100
AcDbLine
 10
1967.985323
 20
1093.868757
 30
0.0
 11
1967.985323
 21
1174.829927
 31
0.0
  0
LINE
  5
223
330
21D
100
AcDbEntity
  8
0
  6
CONTINUOUS
 62
     5
100
AcDbLine
 10
1337.985323
 20
1164.829927
 30
0.0
 11
1967.985323
 21
1164.829927
 31
0.0
  0
INSERT
  5
224
330
21D
100
AcDbEntity
  8
0
  6
CONTINUOUS
 62
     5
100
AcDbBlockReference
  2
EDTIP_ARROW_S
 10
1337.985323
 20
1164.829927
 30
0.0
 41
30.0
 42
30.0
 50
180.0
  0
INSERT
  5
225
330
21D
100
AcDbEntity
  8
0
  6
CONTINUOUS
 62
     5
100
AcDbBlockReference
  2
EDTIP_ARROW_E
 10
1967.985323
 20
1164.829927
 30
0.0
 41
30.0
 42
30.0
  0
ENDBLK
  5
21F
330
21D
100
AcDbEntity
  8
0
100
AcDbBlockEnd
  0
BLOCK
  5
22B
330
22A
100
AcDbEntity
  8
0
100
AcDbBlockBegin
  2
*D22
 70
     1
 10
0.0
 20
0.0
 30
0.0
  3
*D22
  1

  0
TEXT
  5
22D
330
22A
100
AcDbEntity
  8
0
  6
CONTINUOUS
 62
     3
100
AcDbText
 10
1216.469849
 20
1947.415771
 30
0.0
 40
40.0
  1
520
 50
90.0
 41
0.75
  7
ED_VECTOR
100
AcDbText
  0
LINE
  5
22E
330
22A
100
AcDbEntity
  8
0
  6
CONTINUOUS
 62
     5
100
AcDbLine
 10
1327.985323
 20
1732.415687
 30
0.0
 11
1216.469795
 21
1732.415687
 31
0.0
  0
LINE
  5
22F
330
22A
100
AcDbEntity
  8
0
  6
CONTINUOUS
 62
     5
100
AcDbLine
 10
1327.985323
 20
2252.415687
 30
0.0
 11
1216.469795
 21
2252.415687
 31
0.0
  0
LINE
  5
230
330
22A
100
AcDbEntity
  8
0
  6
CONTINUOUS
 62
     5
100
AcDbLine
 10
1226.469795
 20
1732.415687
 30
0.0
 11
1226.469795
 21
2252.415687
 31
0.0
  0
INSERT
  5
231
330
22A
100
AcDbEntity
  8
0
  6
CONTINUOUS
 62
     5
100
AcDbBlockReference
  2
EDTIP_ARROW_S
 10
1226.469795
 20
1732.415687
 30
0.0
 41
30.0
 42
30.0
 50
270.0
  0
INSERT
  5
232
330
22A
100
AcDbEntity
  8
0
  6
CONTINUOUS
 62
     5
100
AcDbBlockReference
  2
EDTIP_ARROW_E
 10
1226.469795
 20
2252.415687
 30
0.0
 41
30.0
 42
30.0
 50
90.0
  0
ENDBLK
  5
22C
330
22A
100
AcDbEntity
  8
0
100
AcDbBlockEnd
  0
BLOCK
  5
28D
330
28C
100
AcDbEntity
  8
0
100
AcDbBlockBegin
  2
*D23
 70
     1
 10
0.0
 20
0.0
 30
0.0
  3
*D23
  1

  0
LINE
  5
28F
330
28C
100
AcDbEntity
  8
0
  6
CONTINUOUS
 62
     5
100
AcDbLine
 10
343.085323
 20
657.668757
 30
0.0
 11
343.085323
 21
367.819045
 31
0.0
  0
LINE
  5
290
330
28C
100
AcDbEntity
  8
0
  6
CONTINUOUS
 62
     5
100
AcDbLine
 10
853.085323
 20
657.668757
 30
0.0
 11
853.085323
 21
367.819045
 31
0.0
  0
LINE
  5
291
330
28C
100
AcDbEntity
  8
0
  6
CONTINUOUS
 62
     5
100
AcDbLine
 10
343.085323
 20
377.819045
 30
0.0
 11
853.085323
 21
377.819045
 31
0.0
  0
INSERT
  5
292
330
28C
100
AcDbEntity
  8
0
  6
CONTINUOUS
 62
     5
100
AcDbBlockReference
  2
EDTIP_ARROW_S
 10
343.085323
 20
377.819045
 30
0.0
 41
30.0
 42
30.0
 50
180.0
  0
INSERT
  5
293
330
28C
100
AcDbEntity
  8
0
  6
CONTINUOUS
 62
     5
100
AcDbBlockReference
  2
EDTIP_ARROW_E
 10
853.085323
 20
377.819045
 30
0.0
 41
30.0
 42
30.0
  0
TEXT
  5
294
330
28C
100
AcDbEntity
  8
0
  6
CONTINUOUS
 62
     3
100
AcDbText
 10
553.085327
 20
387.819031
 30
0.0
 40
40.0
  1
510
 41
0.75
  7
ED_VECTOR
100
AcDbText
  0
ENDBLK
  5
28E
330
28C
100
AcDbEntity
  8
0
100
AcDbBlockEnd
  0
BLOCK
  5
2C0
330
2BF
100
AcDbEntity
  8
0
100
AcDbBlockBegin
  2
*D24
 70
     1
 10
0.0
 20
0.0
 30
0.0
  3
*D24
  1

  0
LINE
  5
2C2
330
2BF
100
AcDbEntity
  8
0
  6
CONTINUOUS
 62
     5
100
AcDbLine
 10
1342.785323
 20
657.668757
 30
0.0
 11
1342.785323
 21
366.148334
 31
0.0
  0
LINE
  5
2C3
330
2BF
100
AcDbEntity
  8
0
  6
CONTINUOUS
 62
     5
100
AcDbLine
 10
1962.785323
 20
657.668757
 30
0.0
 11
1962.785323
 21
366.148334
 31
0.0
  0
LINE
  5
2C4
330
2BF
100
AcDbEntity
  8
0
  6
CONTINUOUS
 62
     5
100
AcDbLine
 10
1342.785323
 20
376.148334
 30
0.0
 11
1962.785323
 21
376.148334
 31
0.0
  0
INSERT
  5
2C5
330
2BF
100
AcDbEntity
  8
0
  6
CONTINUOUS
 62
     5
100
AcDbBlockReference
  2
EDTIP_ARROW_S
 10
1342.785323
 20
376.148334
 30
0.0
 41
30.0
 42
30.0
 50
180.0
  0
INSERT
  5
2C6
330
2BF
100
AcDbEntity
  8
0
  6
CONTINUOUS
 62
     5
100
AcDbBlockReference
  2
EDTIP_ARROW_E
 10
1962.785323
 20
376.148334
 30
0.0
 41
30.0
 42
30.0
  0
TEXT
  5
2C7
330
2BF
100
AcDbEntity
  8
0
  6
CONTINUOUS
 62
     3
100
AcDbText
 10
1607.785278
 20
386.148346
 30
0.0
 40
40.0
  1
620
 41
0.75
  7
ED_VECTOR
100
AcDbText
  0
ENDBLK
  5
2C1
330
2BF
100
AcDbEntity
  8
0
100
AcDbBlockEnd
  0
BLOCK
  5
309
330
308
100
AcDbEntity
  8
0
100
AcDbBlockBegin
  2
BLKF028
 70
     0
 10
0.0
 20
0.0
 30
0.0
  3
BLKF028
  1

  0
ARC
  5
30C
330
308
100
AcDbEntity
  8
0
  6
CONTINUOUS
 62
     5
100
AcDbCircle
 10
2820.645018
 20
148.870953
 30
0.0
 40
3.549224681232935
100
AcDbArc
 50
6.429109
 51
73.182034
  0
ARC
  5
30D
330
308
100
AcDbEntity
  8
0
  6
CONTINUOUS
 62
     5
100
AcDbCircle
 10
2817.184048
 20
147.71256
 30
0.0
 40
6.90775391640079
100
AcDbArc
 50
310.51797
 51
330.092764
  0
ARC
  5
30E
330
308
100
AcDbEntity
  8
0
  6
CONTINUOUS
 62
     5
100
AcDbCircle
 10
2817.123398
 20
148.078078
 30
0.0
 40
7.148321241986046
100
AcDbArc
 50
327.794941
 51
9.585194
  0
ARC
  5
30F
330
308
100
AcDbEntity
  8
0
  6
CONTINUOUS
 62
     5
100
AcDbCircle
 10
2820.416126
 20
145.31708
 30
0.0
 40
4.767514462094932
100
AcDbArc
 50
180.0
 51
218.51415
  0
ARC
  5
310
330
308
100
AcDbEntity
  8
0
  6
CONTINUOUS
 62
     5
100
AcDbCircle
 10
2819.129406
 20
144.639939
 30
0.0
 40
3.348282029286162
100
AcDbArc
 50
222.781148
 51
319.406906
  0
ARC
  5
311
330
308
100
AcDbEntity
  8
0
  6
CONTINUOUS
 62
     5
100
AcDbCircle
 10
2822.195047
 20
145.729832
 30
0.0
 40
6.559434466070106
100
AcDbArc
 50
94.574282
 51
183.607718
  0
LINE
  5
312
330
308
100
AcDbEntity
  8
0
  6
CONTINUOUS
 62
     5
100
AcDbLine
 10
2835.638954
 20
140.613
 30
0.0
 11
2834.781918
 21
137.574417
 31
0.0
  0
LINE
  5
313
330
308
100
AcDbEntity
  8
0
  6
CONTINUOUS
 62
     5
100
AcDbLine
 10
2837.430939
 20
160.480657
 30
0.0
 11
2835.327304
 21
163.207591
 31
0.0
  0
LINE
  5
314
330
308
100
AcDbEntity
  8
0
  6
CONTINUOUS
 62
     5
100
AcDbLine
 10
2835.327304
 20
163.207591
 30
0.0
 11
2828.57395
 21
166.965503
 31
0.0
  0
LINE
  5
315
330
308
100
AcDbEntity
  8
0
  6
CONTINUOUS
 62
     5
100
AcDbLine
 10
2828.57395
 20
166.965503
 30
0.0
 11
2821.671923
 21
167.768373
 31
0.0
  0
LINE
  5
316
330
308
100
AcDbEntity
  8
0
  6
CONTINUOUS
 62
     5
100
AcDbLine
 10
2803.382697
 20
154.3897
 30
0.0
 11
2805.529392
 21
159.35393
 31
0.0
  0
LINE
  5
317
330
308
100
AcDbEntity
  8
0
  6
CONTINUOUS
 62
     5
100
AcDbLine
 10
2805.492394
 20
159.268373
 30
0.0
 11
2807.676086
 21
161.90313
 31
0.0
  0
LINE
  5
318
330
308
100
AcDbEntity
  8
0
  6
CONTINUOUS
 62
     5
100
AcDbLine
 10
2807.676086
 20
161.90313
 30
0.0
 11
2810.980508
 21
164.268373
 31
0.0
  0
LINE
  5
319
330
308
100
AcDbEntity
  8
0
  6
CONTINUOUS
 62
     5
100
AcDbLine
 10
2821.671923
 20
167.768373
 30
0.0
 11
2820.153747
 21
167.001529
 31
0.0
  0
LINE
  5
31A
330
308
100
AcDbEntity
  8
0
  6
CONTINUOUS
 62
     5
100
AcDbLine
 10
2820.153747
 20
167.001529
 30
0.0
 11
2816.665369
 21
167.001529
 31
0.0
  0
LINE
  5
31B
330
308
100
AcDbEntity
  8
0
  6
CONTINUOUS
 62
     5
100
AcDbLine
 10
2816.665369
 20
167.001529
 30
0.0
 11
2813.109906
 21
165.056087
 31
0.0
  0
LINE
  5
31C
330
308
100
AcDbEntity
  8
0
  6
CONTINUOUS
 62
     5
100
AcDbLine
 10
2813.109906
 20
165.056087
 30
0.0
 11
2810.980508
 21
164.268373
 31
0.0
  0
LINE
  5
31D
330
308
100
AcDbEntity
  8
0
  6
CONTINUOUS
 62
     5
100
AcDbLine
 10
2803.382697
 20
154.3897
 30
0.0
 11
2801.86515
 21
146.841097
 31
0.0
  0
LINE
  5
31E
330
308
100
AcDbEntity
  8
0
  6
CONTINUOUS
 62
     5
100
AcDbLine
 10
2801.86515
 20
146.841097
 30
0.0
 11
2801.671923
 21
144.268373
 31
0.0
  0
LINE
  5
31F
330
308
100
AcDbEntity
  8
0
  6
CONTINUOUS
 62
     5
100
AcDbLine
 10
2804.381305
 20
136.428591
 30
0.0
 11
2801.671923
 21
142.524702
 31
0.0
  0
LINE
  5
320
330
308
100
AcDbEntity
  8
0
  6
CONTINUOUS
 62
     5
100
AcDbLine
 10
2801.671923
 20
142.524702
 30
0.0
 11
2801.671923
 21
144.268373
 31
0.0
  0
LINE
  5
321
330
308
100
AcDbEntity
  8
0
  6
CONTINUOUS
 62
     5
100
AcDbLine
 10
2834.781918
 20
137.574417
 30
0.0
 11
2833.09613
 21
134.571411
 31
0.0
  0
LINE
  5
322
330
308
100
AcDbEntity
  8
0
  6
CONTINUOUS
 62
     5
100
AcDbLine
 10
2833.09613
 20
134.571411
 30
0.0
 11
2831.671923
 21
133.2527
 31
0.0
  0
ARC
  5
323
330
308
100
AcDbEntity
  8
0
  6
CONTINUOUS
 62
     5
100
AcDbCircle
 10
2819.479978
 20
144.805134
 30
0.0
 40
17.2666264049271
100
AcDbArc
 50
208.054813
 51
260.64047
  0
ARC
  5
324
330
308
100
AcDbEntity
  8
0
  6
CONTINUOUS
 62
     5
100
AcDbCircle
 10
2814.286583
 20
157.547603
 30
0.0
 40
29.87461092848634
100
AcDbArc
 50
274.579659
 51
305.587364
  0
ARC
  5
325
330
308
100
AcDbEntity
  8
0
  6
CONTINUOUS
 62
     5
100
AcDbCircle
 10
2825.258932
 20
151.563881
 30
0.0
 40
15.08862654287332
100
AcDbArc
 50
313.467013
 51
331.085078
  0
LINE
  5
326
330
308
100
AcDbEntity
  8
0
  6
CONTINUOUS
 62
     5
100
AcDbLine
 10
2840.050264
 20
147.781794
 30
0.0
 11
2840.347558
 21
151.563881
 31
0.0
  0
LINE
  5
327
330
308
100
AcDbEntity
  8
0
  6
CONTINUOUS
 62
     5
100
AcDbLine
 10
2840.347558
 20
151.563881
 30
0.0
 11
2839.055561
 21
157.672864
 31
0.0
  0
LINE
  5
328
330
308
100
AcDbEntity
  8
0
  6
CONTINUOUS
 62
     5
100
AcDbLine
 10
2840.050264
 20
147.781794
 30
0.0
 11
2838.466589
 21
144.268373
 31
0.0
  0
ARC
  5
329
330
308
100
AcDbEntity
  8
0
  6
CONTINUOUS
 62
     5
100
AcDbCircle
 10
2825.258932
 20
151.563881
 30
0.0
 40
15.08862654287332
100
AcDbArc
 50
23.883193
 51
36.22517
  0
LINE
  5
32A
330
308
100
AcDbEntity
  8
0
  6
CONTINUOUS
 62
     5
100
AcDbLine
 10
2785.671923
 20
179.268373
 30
0.0
 11
2786.671923
 21
180.361018
 31
0.0
  0
LINE
  5
32B
330
308
100
AcDbEntity
  8
0
  6
CONTINUOUS
 62
     5
100
AcDbLine
 10
2785.671923
 20
179.268373
 30
0.0
 11
2787.24888
 21
177.82334
 31
0.0
  0
LINE
  5
32C
330
308
100
AcDbEntity
  8
0
  6
CONTINUOUS
 62
     5
100
AcDbLine
 10
2788.788093
 20
175.714049
 30
0.0
 11
2788.814361
 21
173.54593
 31
0.0
  0
LINE
  5
32D
330
308
100
AcDbEntity
  8
0
  6
CONTINUOUS
 62
     5
100
AcDbLine
 10
2788.814361
 20
173.54593
 30
0.0
 11
2789.021759
 21
172.78547
 31
0.0
  0
LINE
  5
32E
330
308
100
AcDbEntity
  8
0
  6
CONTINUOUS
 62
     5
100
AcDbLine
 10
2789.021759
 20
172.78547
 30
0.0
 11
2789.609387
 21
172.059577
 31
0.0
  0
LINE
  5
32F
330
308
100
AcDbEntity
  8
0
  6
CONTINUOUS
 62
     5
100
AcDbLine
 10
2789.609387
 20
172.059577
 30
0.0
 11
2790.197015
 21
172.12871
 31
0.0
  0
LINE
  5
330
330
308
100
AcDbEntity
  8
0
  6
CONTINUOUS
 62
     5
100
AcDbLine
 10
2790.197015
 20
172.12871
 30
0.0
 11
2790.819209
 21
172.301542
 31
0.0
  0
LINE
  5
331
330
308
100
AcDbEntity
  8
0
  6
CONTINUOUS
 62
     5
100
AcDbLine
 10
2790.819209
 20
172.301542
 30
0.0
 11
2791.234005
 21
172.12871
 31
0.0
  0
LINE
  5
332
330
308
100
AcDbEntity
  8
0
  6
CONTINUOUS
 62
     5
100
AcDbLine
 10
2791.234005
 20
172.12871
 30
0.0
 11
2792.132729
 21
171.679348
 31
0.0
  0
LINE
  5
333
330
308
100
AcDbEntity
  8
0
  6
CONTINUOUS
 62
     5
100
AcDbLine
 10
2792.132729
 20
171.679348
 30
0.0
 11
2792.908781
 21
171.268373
 31
0.0
  0
LINE
  5
334
330
308
100
AcDbEntity
  8
0
  6
CONTINUOUS
 62
     5
100
AcDbLine
 10
2792.908781
 20
171.268373
 30
0.0
 11
2793.411684
 21
171.299118
 31
0.0
  0
LINE
  5
335
330
308
100
AcDbEntity
  8
0
  6
CONTINUOUS
 62
     5
100
AcDbLine
 10
2793.411684
 20
171.299118
 30
0.0
 11
2796.219555
 21
172.745598
 31
0.0
  0
LINE
  5
336
330
308
100
AcDbEntity
  8
0
  6
CONTINUOUS
 62
     5
100
AcDbLine
 10
2786.671923
 20
180.361018
 30
0.0
 11
2787.004774
 21
181.834725
 31
0.0
  0
LINE
  5
337
330
308
100
AcDbEntity
  8
0
  6
CONTINUOUS
 62
     5
100
AcDbLine
 10
2787.004774
 20
181.834725
 30
0.0
 11
2788.45818
 21
181.985077
 31
0.0
  0
LINE
  5
338
330
308
100
AcDbEntity
  8
0
  6
CONTINUOUS
 62
     5
100
AcDbLine
 10
2789.951938
 20
184.753536
 30
0.0
 11
2791.706111
 21
184.910626
 31
0.0
  0
LINE
  5
339
330
308
100
AcDbEntity
  8
0
  6
CONTINUOUS
 62
     5
100
AcDbLine
 10
2791.706111
 20
184.910626
 30
0.0
 11
2795.240639
 21
185.74844
 31
0.0
  0
LINE
  5
33A
330
308
100
AcDbEntity
  8
0
  6
CONTINUOUS
 62
     5
100
AcDbLine
 10
2795.240639
 20
185.74844
 30
0.0
 11
2796.671923
 21
186.080079
 31
0.0
  0
LINE
  5
33B
330
308
100
AcDbEntity
  8
0
  6
CONTINUOUS
 62
     5
100
AcDbLine
 10
2789.951938
 20
184.753536
 30
0.0
 11
2788.019047
 21
184.912404
 31
0.0
  0
LINE
  5
33C
330
308
100
AcDbEntity
  8
0
  6
CONTINUOUS
 62
     5
100
AcDbLine
 10
2787.282924
 20
184.043717
 30
0.0
 11
2787.376449
 21
183.672555
 31
0.0
  0
LINE
  5
33D
330
308
100
AcDbEntity
  8
0
  6
CONTINUOUS
 62
     5
100
AcDbLine
 10
2787.376449
 20
183.672555
 30
0.0
 11
2787.868043
 21
183.134874
 31
0.0
  0
LINE
  5
33E
330
308
100
AcDbEntity
  8
0
  6
CONTINUOUS
 62
     5
100
AcDbLine
 10
2787.868043
 20
183.134874
 30
0.0
 11
2788.543985
 21
182.627918
 31
0.0
  0
LINE
  5
33F
330
308
100
AcDbEntity
  8
0
  6
CONTINUOUS
 62
     5
100
AcDbLine
 10
2788.543985
 20
182.627918
 30
0.0
 11
2788.66731
 21
182.463485
 31
0.0
  0
LINE
  5
340
330
308
100
AcDbEntity
  8
0
  6
CONTINUOUS
 62
     5
100
AcDbLine
 10
2787.24888
 20
177.82334
 30
0.0
 11
2788.788093
 21
175.714049
 31
0.0
  0
ARC
  5
341
330
308
100
AcDbEntity
  8
0
  6
CONTINUOUS
 62
     5
100
AcDbCircle
 10
2831.658623
 20
7.609721
 30
0.0
 40
180.7274633591883
100
AcDbArc
 50
80.438896
 51
96.353582
  0
ARC
  5
342
330
308
100
AcDbEntity
  8
0
  6
CONTINUOUS
 62
     5
100
AcDbCircle
 10
2806.75971
 20
152.857621
 30
0.0
 40
34.72024168784505
100
AcDbArc
 50
81.866516
 51
106.890578
  0
LINE
  5
343
330
308
100
AcDbEntity
  8
0
  6
CONTINUOUS
 62
     5
100
AcDbLine
 10
2865.866184
 20
185.035044
 30
0.0
 11
2868.113267
 21
184.013642
 31
0.0
  0
LINE
  5
344
330
308
100
AcDbEntity
  8
0
  6
CONTINUOUS
 62
     5
100
AcDbLine
 10
2871.688171
 20
182.430471
 30
0.0
 11
2868.113267
 21
184.013642
 31
0.0
  0
LINE
  5
345
330
308
100
AcDbEntity
  8
0
  6
CONTINUOUS
 62
     5
100
AcDbLine
 10
2865.866184
 20
185.035044
 30
0.0
 11
2861.671923
 21
185.827615
 31
0.0
  0
LINE
  5
346
330
308
100
AcDbEntity
  8
0
  6
CONTINUOUS
 62
     5
100
AcDbLine
 10
2871.671923
 20
182.437666
 30
0.0
 11
2873.543498
 21
180.869189
 31
0.0
  0
LINE
  5
347
330
308
100
AcDbEntity
  8
0
  6
CONTINUOUS
 62
     5
100
AcDbLine
 10
2854.915179
 20
183.474517
 30
0.0
 11
2855.814453
 21
184.927192
 31
0.0
  0
LINE
  5
348
330
308
100
AcDbEntity
  8
0
  6
CONTINUOUS
 62
     5
100
AcDbLine
 10
2855.814453
 20
184.927192
 30
0.0
 11
2860.490052
 21
183.807682
 31
0.0
  0
LINE
  5
349
330
308
100
AcDbEntity
  8
0
  6
CONTINUOUS
 62
     5
100
AcDbLine
 10
2860.490052
 20
183.807682
 30
0.0
 11
2877.232438
 21
179.268373
 31
0.0
  0
LINE
  5
34A
330
308
100
AcDbEntity
  8
0
  6
CONTINUOUS
 62
     5
100
AcDbLine
 10
2880.171923
 20
179.268373
 30
0.0
 11
2873.543498
 21
180.869189
 31
0.0
  0
LINE
  5
34B
330
308
100
AcDbEntity
  8
0
  6
CONTINUOUS
 62
     5
100
AcDbLine
 10
2877.232438
 20
179.268373
 30
0.0
 11
2880.171923
 21
179.268373
 31
0.0
  0
LINE
  5
34C
330
308
100
AcDbEntity
  8
0
  6
CONTINUOUS
 62
     5
100
AcDbLine
 10
2821.671923
 20
183.733315
 30
0.0
 11
2841.671923
 21
184.268373
 31
0.0
  0
LINE
  5
34D
330
308
100
AcDbEntity
  8
0
  6
CONTINUOUS
 62
     5
100
AcDbLine
 10
2841.671923
 20
184.268373
 30
0.0
 11
2854.915179
 21
183.474517
 31
0.0
  0
LINE
  5
34E
330
308
100
AcDbEntity
  8
0
  6
CONTINUOUS
 62
     5
100
AcDbLine
 10
2856.51816
 20
181.414037
 30
0.0
 11
2841.671923
 21
182.768373
 31
0.0
  0
LINE
  5
34F
330
308
100
AcDbEntity
  8
0
  6
CONTINUOUS
 62
     5
100
AcDbLine
 10
2841.671923
 20
182.768373
 30
0.0
 11
2826.622713
 21
183.177025
 31
0.0
  0
LINE
  5
350
330
308
100
AcDbEntity
  8
0
  6
CONTINUOUS
 62
     5
100
AcDbLine
 10
2826.671923
 20
183.175689
 30
0.0
 11
2821.671923
 21
183.270983
 31
0.0
  0
LINE
  5
351
330
308
100
AcDbEntity
  8
0
  6
CONTINUOUS
 62
     5
100
AcDbLine
 10
2821.671923
 20
183.733315
 30
0.0
 11
2821.671923
 21
183.270983
 31
0.0
  0
LINE
  5
352
330
308
100
AcDbEntity
  8
0
  6
CONTINUOUS
 62
     5
100
AcDbLine
 10
2879.171923
 20
175.768373
 30
0.0
 11
2870.329364
 21
178.079036
 31
0.0
  0
LINE
  5
353
330
308
100
AcDbEntity
  8
0
  6
CONTINUOUS
 62
     5
100
AcDbLine
 10
2856.51816
 20
181.414037
 30
0.0
 11
2866.671923
 21
179.441654
 31
0.0
  0
LINE
  5
354
330
308
100
AcDbEntity
  8
0
  6
CONTINUOUS
 62
     5
100
AcDbLine
 10
2866.671923
 20
179.441654
 30
0.0
 11
2870.329364
 21
178.079036
 31
0.0
  0
LINE
  5
355
330
308
100
AcDbEntity
  8
0
  6
CONTINUOUS
 62
     5
100
AcDbLine
 10
2879.171923
 20
175.768373
 30
0.0
 11
2878.879305
 21
174.929268
 31
0.0
  0
LINE
  5
356
330
308
100
AcDbEntity
  8
0
  6
CONTINUOUS
 62
     5
100
AcDbLine
 10
2888.671923
 20
170.268373
 30
0.0
 11
2888.365895
 21
171.497354
 31
0.0
  0
LINE
  5
357
330
308
100
AcDbEntity
  8
0
  6
CONTINUOUS
 62
     5
100
AcDbLine
 10
2878.879305
 20
174.929268
 30
0.0
 11
2888.365895
 21
171.497354
 31
0.0
  0
LINE
  5
358
330
308
100
AcDbEntity
  8
0
  6
CONTINUOUS
 62
     5
100
AcDbLine
 10
2825.171923
 20
175.768373
 30
0.0
 11
2827.594961
 21
175.768373
 31
0.0
  0
LINE
  5
359
330
308
100
AcDbEntity
  8
0
  6
CONTINUOUS
 62
     5
100
AcDbLine
 10
2847.671923
 20
176.200869
 30
0.0
 11
2847.671923
 21
175.768373
 31
0.0
  0
LINE
  5
35A
330
308
100
AcDbEntity
  8
0
  6
CONTINUOUS
 62
     5
100
AcDbLine
 10
2846.671923
 20
176.73531
 30
0.0
 11
2844.960643
 21
177.372488
 31
0.0
  0
LINE
  5
35B
330
308
100
AcDbEntity
  8
0
  6
CONTINUOUS
 62
     5
100
AcDbLine
 10
2844.960643
 20
177.372488
 30
0.0
 11
2843.850587
 21
177.422945
 31
0.0
  0
LINE
  5
35C
330
308
100
AcDbEntity
  8
0
  6
CONTINUOUS
 62
     5
100
AcDbLine
 10
2843.850587
 20
177.422945
 30
0.0
 11
2843.371245
 21
177.17066
 31
0.0
  0
LINE
  5
35D
330
308
100
AcDbEntity
  8
0
  6
CONTINUOUS
 62
     5
100
AcDbLine
 10
2843.371245
 20
177.17066
 30
0.0
 11
2843.270331
 21
176.767003
 31
0.0
  0
LINE
  5
35E
330
308
100
AcDbEntity
  8
0
  6
CONTINUOUS
 62
     5
100
AcDbLine
 10
2843.270331
 20
176.767003
 30
0.0
 11
2843.724445
 21
176.464261
 31
0.0
  0
LINE
  5
35F
330
308
100
AcDbEntity
  8
0
  6
CONTINUOUS
 62
     5
100
AcDbLine
 10
2843.724445
 20
176.464261
 30
0.0
 11
2845.3643
 21
176.312889
 31
0.0
  0
LINE
  5
360
330
308
100
AcDbEntity
  8
0
  6
CONTINUOUS
 62
     5
100
AcDbLine
 10
2845.3643
 20
176.312889
 30
0.0
 11
2847.671923
 21
176.200869
 31
0.0
  0
LINE
  5
361
330
308
100
AcDbEntity
  8
0
  6
CONTINUOUS
 62
     5
100
AcDbLine
 10
2888.671923
 20
170.268373
 30
0.0
 11
2885.69638
 21
171.454955
 31
0.0
  0
LINE
  5
362
330
308
100
AcDbEntity
  8
0
  6
CONTINUOUS
 62
     5
100
AcDbLine
 10
2885.69638
 20
171.454955
 30
0.0
 11
2875.64069
 21
173.29783
 31
0.0
  0
LINE
  5
363
330
308
100
AcDbEntity
  8
0
  6
CONTINUOUS
 62
     5
100
AcDbLine
 10
2875.64069
 20
173.29783
 30
0.0
 11
2870.61491
 21
174.457626
 31
0.0
  0
LINE
  5
364
330
308
100
AcDbEntity
  8
0
  6
CONTINUOUS
 62
     5
100
AcDbLine
 10
2848.206144
 20
176.768373
 30
0.0
 11
2859.97181
 21
176.768373
 31
0.0
  0
LINE
  5
365
330
308
100
AcDbEntity
  8
0
  6
CONTINUOUS
 62
     5
100
AcDbLine
 10
2846.671923
 20
176.73531
 30
0.0
 11
2847.196582
 21
176.426843
 31
0.0
  0
LINE
  5
366
330
308
100
AcDbEntity
  8
0
  6
CONTINUOUS
 62
     5
100
AcDbLine
 10
2847.196582
 20
176.426843
 30
0.0
 11
2847.493394
 21
176.337799
 31
0.0
  0
LINE
  5
367
330
308
100
AcDbEntity
  8
0
  6
CONTINUOUS
 62
     5
100
AcDbLine
 10
2847.493394
 20
176.337799
 30
0.0
 11
2847.671923
 21
176.362969
 31
0.0
  0
LINE
  5
368
330
308
100
AcDbEntity
  8
0
  6
CONTINUOUS
 62
     5
100
AcDbLine
 10
2847.671923
 20
176.362969
 30
0.0
 11
2848.206144
 21
176.768373
 31
0.0
  0
LINE
  5
369
330
308
100
AcDbEntity
  8
0
  6
CONTINUOUS
 62
     5
100
AcDbLine
 10
2859.97181
 20
176.768373
 30
0.0
 11
2864.422078
 21
175.739548
 31
0.0
  0
LINE
  5
36A
330
308
100
AcDbEntity
  8
0
  6
CONTINUOUS
 62
     5
100
AcDbLine
 10
2864.422078
 20
175.739548
 30
0.0
 11
2868.57527
 21
174.574399
 31
0.0
  0
LINE
  5
36B
330
308
100
AcDbEntity
  8
0
  6
CONTINUOUS
 62
     5
100
AcDbLine
 10
2868.57527
 20
174.574399
 30
0.0
 11
2870.61491
 21
174.457626
 31
0.0
  0
LINE
  5
36C
330
308
100
AcDbEntity
  8
0
  6
CONTINUOUS
 62
     5
100
AcDbLine
 10
2824.171923
 20
174.768373
 30
0.0
 11
2824.171923
 21
174.268373
 31
0.0
  0
LINE
  5
36D
330
308
100
AcDbEntity
  8
0
  6
CONTINUOUS
 62
     5
100
AcDbLine
 10
2821.671923
 20
174.268373
 30
0.0
 11
2824.171923
 21
174.268373
 31
0.0
  0
ARC
  5
36E
330
308
100
AcDbEntity
  8
0
  6
CONTINUOUS
 62
     5
100
AcDbCircle
 10
2825.171923
 20
174.768373
 30
0.0
 40
1.0
100
AcDbArc
 50
90.0
 51
180.0
  0
LINE
  5
36F
330
308
100
AcDbEntity
  8
0
  6
CONTINUOUS
 62
     5
100
AcDbLine
 10
2827.594961
 20
175.768373
 30
0.0
 11
2828.292517
 21
175.196377
 31
0.0
  0
LINE
  5
370
330
308
100
AcDbEntity
  8
0
  6
CONTINUOUS
 62
     5
100
AcDbLine
 10
2828.894886
 20
175.172416
 30
0.0
 11
2829.752482
 21
175.768373
 31
0.0
  0
LINE
  5
371
330
308
100
AcDbEntity
  8
0
  6
CONTINUOUS
 62
     5
100
AcDbLine
 10
2831.330878
 20
175.768373
 30
0.0
 11
2832.998004
 21
175.110298
 31
0.0
  0
LINE
  5
372
330
308
100
AcDbEntity
  8
0
  6
CONTINUOUS
 62
     5
100
AcDbLine
 10
2833.421713
 20
175.13681
 30
0.0
 11
2834.5752
 21
175.768373
 31
0.0
  0
LINE
  5
373
330
308
100
AcDbEntity
  8
0
  6
CONTINUOUS
 62
     5
100
AcDbLine
 10
2829.752482
 20
175.768373
 30
0.0
 11
2831.330878
 21
175.768373
 31
0.0
  0
LINE
  5
374
330
308
100
AcDbEntity
  8
0
  6
CONTINUOUS
 62
     5
100
AcDbLine
 10
2834.5752
 20
175.768373
 30
0.0
 11
2847.671923
 21
175.768373
 31
0.0
  0
LINE
  5
375
330
308
100
AcDbEntity
  8
0
  6
CONTINUOUS
 62
     5
100
AcDbLine
 10
2800.220906
 20
172.659547
 30
0.0
 11
2821.671923
 21
174.268373
 31
0.0
  0
LINE
  5
376
330
308
100
AcDbEntity
  8
0
  6
CONTINUOUS
 62
     5
100
AcDbLine
 10
2796.219555
 20
172.745598
 30
0.0
 11
2800.220906
 21
172.659547
 31
0.0
  0
ARC
  5
377
330
308
100
AcDbEntity
  8
0
  6
CONTINUOUS
 62
     5
100
AcDbCircle
 10
2828.609557
 20
175.583011
 30
0.0
 40
0.5
100
AcDbArc
 50
230.648247
 51
304.796026
  0
ARC
  5
378
330
308
100
AcDbEntity
  8
0
  6
CONTINUOUS
 62
     5
100
AcDbCircle
 10
2833.181587
 20
175.575375
 30
0.0
 40
0.5
100
AcDbArc
 50
248.459024
 51
298.701829
  0
ARC
  5
379
330
308
100
AcDbEntity
  8
0
  6
CONTINUOUS
 62
     5
100
AcDbCircle
 10
2788.42731
 20
182.283485
 30
0.0
 40
0.3
100
AcDbArc
 50
275.906141
 51
36.869898
  0
ARC
  5
37A
330
308
100
AcDbEntity
  8
0
  6
CONTINUOUS
 62
     5
100
AcDbCircle
 10
2787.961706
 20
184.214756
 30
0.0
 40
0.7
100
AcDbArc
 50
85.301319
 51
194.14298
  0
LINE
  5
37B
330
308
100
AcDbEntity
  8
0
  6
CONTINUOUS
 62
     3
100
AcDbLine
 10
2820.153747
 20
167.001529
 30
0.0
 11
2828.264243
 21
167.001529
 31
0.0
  0
LINE
  5
37C
330
308
100
AcDbEntity
  8
0
  6
CONTINUOUS
 62
     3
100
AcDbLine
 10
2813.741231
 20
165.401529
 30
0.0
 11
2831.384571
 21
165.401529
 31
0.0
  0
LINE
  5
37D
330
308
100
AcDbEntity
  8
0
  6
CONTINUOUS
 62
     3
100
AcDbLine
 10
2810.328292
 20
163.801529
 30
0.0
 11
2834.259936
 21
163.801529
 31
0.0
  0
LINE
  5
37E
330
308
100
AcDbEntity
  8
0
  6
CONTINUOUS
 62
     3
100
AcDbLine
 10
2808.092972
 20
162.201529
 30
0.0
 11
2836.103409
 21
162.201529
 31
0.0
  0
LINE
  5
37F
330
308
100
AcDbEntity
  8
0
  6
CONTINUOUS
 62
     3
100
AcDbLine
 10
2806.597316
 20
160.601529
 30
0.0
 11
2837.337695
 21
160.601529
 31
0.0
  0
LINE
  5
380
330
308
100
AcDbEntity
  8
0
  6
CONTINUOUS
 62
     3
100
AcDbLine
 10
2805.377002
 20
159.001529
 30
0.0
 11
2838.387071
 21
159.001529
 31
0.0
  0
LINE
  5
381
330
308
100
AcDbEntity
  8
0
  6
CONTINUOUS
 62
     3
100
AcDbLine
 10
2804.68511
 20
157.401529
 30
0.0
 11
2839.112946
 21
157.401529
 31
0.0
  0
LINE
  5
382
330
308
100
AcDbEntity
  8
0
  6
CONTINUOUS
 62
     3
100
AcDbLine
 10
2803.993218
 20
155.801529
 30
0.0
 11
2839.451332
 21
155.801529
 31
0.0
  0
LINE
  5
383
330
308
100
AcDbEntity
  8
0
  6
CONTINUOUS
 62
     3
100
AcDbLine
 10
2803.344868
 20
154.201529
 30
0.0
 11
2839.789718
 21
154.201529
 31
0.0
  0
LINE
  5
384
330
308
100
AcDbEntity
  8
0
  6
CONTINUOUS
 62
     3
100
AcDbLine
 10
2803.023209
 20
152.601529
 30
0.0
 11
2840.128105
 21
152.601529
 31
0.0
  0
LINE
  5
385
330
308
100
AcDbEntity
  8
0
  6
CONTINUOUS
 62
     3
100
AcDbLine
 10
2802.70155
 20
151.001529
 30
0.0
 11
2818.291793
 21
151.001529
 31
0.0
  0
LINE
  5
386
330
308
100
AcDbEntity
  8
0
  6
CONTINUOUS
 62
     3
100
AcDbLine
 10
2802.379891
 20
149.401529
 30
0.0
 11
2816.759532
 21
149.401529
 31
0.0
  0
LINE
  5
387
330
308
100
AcDbEntity
  8
0
  6
CONTINUOUS
 62
     3
100
AcDbLine
 10
2802.058232
 20
147.801529
 30
0.0
 11
2815.971363
 21
147.801529
 31
0.0
  0
LINE
  5
388
330
308
100
AcDbEntity
  8
0
  6
CONTINUOUS
 62
     3
100
AcDbLine
 10
2801.817115
 20
146.201529
 30
0.0
 11
2815.652595
 21
146.201529
 31
0.0
  0
LINE
  5
389
330
308
100
AcDbEntity
  8
0
  6
CONTINUOUS
 62
     3
100
AcDbLine
 10
2801.696945
 20
144.601529
 30
0.0
 11
2815.702616
 21
144.601529
 31
0.0
  0
LINE
  5
38A
330
308
100
AcDbEntity
  8
0
  6
CONTINUOUS
 62
     3
100
AcDbLine
 10
2801.671923
 20
143.001529
 30
0.0
 11
2816.248703
 21
143.001529
 31
0.0
  0
LINE
  5
38B
330
308
100
AcDbEntity
  8
0
  6
CONTINUOUS
 62
     3
100
AcDbLine
 10
2802.171111
 20
141.401529
 30
0.0
 11
2818.278706
 21
141.401529
 31
0.0
  0
LINE
  5
38C
330
308
100
AcDbEntity
  8
0
  6
CONTINUOUS
 62
     3
100
AcDbLine
 10
2802.882222
 20
139.801529
 30
0.0
 11
2835.410077
 21
139.801529
 31
0.0
  0
LINE
  5
38D
330
308
100
AcDbEntity
  8
0
  6
CONTINUOUS
 62
     3
100
AcDbLine
 10
2803.593333
 20
138.201529
 30
0.0
 11
2834.958795
 21
138.201529
 31
0.0
  0
LINE
  5
38E
330
308
100
AcDbEntity
  8
0
  6
CONTINUOUS
 62
     3
100
AcDbLine
 10
2804.304444
 20
136.601529
 30
0.0
 11
2834.235771
 21
136.601529
 31
0.0
  0
LINE
  5
38F
330
308
100
AcDbEntity
  8
0
  6
CONTINUOUS
 62
     3
100
AcDbLine
 10
2805.266403
 20
135.001529
 30
0.0
 11
2833.337584
 21
135.001529
 31
0.0
  0
LINE
  5
390
330
308
100
AcDbEntity
  8
0
  6
CONTINUOUS
 62
     3
100
AcDbLine
 10
2806.514864
 20
133.401529
 30
0.0
 11
2831.832658
 21
133.401529
 31
0.0
  0
LINE
  5
391
330
308
100
AcDbEntity
  8
0
  6
CONTINUOUS
 62
     3
100
AcDbLine
 10
2808.120284
 20
131.801529
 30
0.0
 11
2829.440198
 21
131.801529
 31
0.0
  0
LINE
  5
392
330
308
100
AcDbEntity
  8
0
  6
CONTINUOUS
 62
     3
100
AcDbLine
 10
2810.267426
 20
130.201529
 30
0.0
 11
2826.315074
 21
130.201529
 31
0.0
  0
LINE
  5
393
330
308
100
AcDbEntity
  8
0
  6
CONTINUOUS
 62
     3
100
AcDbLine
 10
2813.515116
 20
128.601529
 30
0.0
 11
2821.676925
 21
128.601529
 31
0.0
  0
LINE
  5
394
330
308
100
AcDbEntity
  8
0
  6
CONTINUOUS
 62
     3
100
AcDbLine
 10
2823.483617
 20
151.001529
 30
0.0
 11
2840.303354
 21
151.001529
 31
0.0
  0
LINE
  5
395
330
308
100
AcDbEntity
  8
0
  6
CONTINUOUS
 62
     3
100
AcDbLine
 10
2824.154361
 20
149.401529
 30
0.0
 11
2840.177585
 21
149.401529
 31
0.0
  0
LINE
  5
396
330
308
100
AcDbEntity
  8
0
  6
CONTINUOUS
 62
     3
100
AcDbLine
 10
2824.266368
 20
147.801529
 30
0.0
 11
2840.051815
 21
147.801529
 31
0.0
  0
LINE
  5
397
330
308
100
AcDbEntity
  8
0
  6
CONTINUOUS
 62
     3
100
AcDbLine
 10
2824.021011
 20
146.201529
 30
0.0
 11
2839.337959
 21
146.201529
 31
0.0
  0
LINE
  5
398
330
308
100
AcDbEntity
  8
0
  6
CONTINUOUS
 62
     3
100
AcDbLine
 10
2823.369365
 20
144.601529
 30
0.0
 11
2838.616759
 21
144.601529
 31
0.0
  0
LINE
  5
399
330
308
100
AcDbEntity
  8
0
  6
CONTINUOUS
 62
     3
100
AcDbLine
 10
2822.236102
 20
143.001529
 30
0.0
 11
2837.682811
 21
143.001529
 31
0.0
  0
LINE
  5
39A
330
308
100
AcDbEntity
  8
0
  6
CONTINUOUS
 62
     3
100
AcDbLine
 10
2819.980106
 20
141.401529
 30
0.0
 11
2836.412104
 21
141.401529
 31
0.0
  0
TEXT
  5
39B
330
308
100
AcDbEntity
  8
0
  6
CONTINUOUS
 62
     5
100
AcDbText
 10
2840.843779
 20
149.012722
 30
0.0
 40
4.713448
  1
M
 41
1.300704
  7
ED_VECTOR
100
AcDbText
  0
TEXT
  5
39C
330
308
100
AcDbEntity
  8
0
  6
CONTINUOUS
 62
     5
100
AcDbText
 10
2850.495166
 20
148.954451
 30
0.0
 40
4.626621
  1
T
 41
0.518801
  7
ED_VECTOR
100
AcDbText
  0
TEXT
  5
39D
330
308
100
AcDbEntity
  8
0
  6
CONTINUOUS
 62
     5
100
AcDbText
 10
2853.260729
 20
148.98925
 30
0.0
 40
4.696183
  1
E
 41
0.703702
  7
ED_VECTOR
100
AcDbText
  0
TEXT
  5
39E
330
308
100
AcDbEntity
  8
0
  6
CONTINUOUS
 62
     5
100
AcDbText
 10
2856.376909
 20
150.605094
 30
0.0
 40
0.348283
  1
-
 41
6.250213
  7
ED_VECTOR
100
AcDbText
  0
TEXT
  5
39F
330
308
100
AcDbEntity
  8
0
  6
CONTINUOUS
 62
     5
100
AcDbText
 10
2858.191119
 20
148.957903
 30
0.0
 40
4.861659
  1
H
 41
0.865668
  7
ED_VECTOR
100
AcDbText
  0
TEXT
  5
3A0
330
308
100
AcDbEntity
  8
0
  6
CONTINUOUS
 62
     5
100
AcDbText
 10
2862.267134
 20
148.988282
 30
0.0
 40
4.843139
  1
A
 41
0.846157
  7
ED_VECTOR
100
AcDbText
  0
TEXT
  5
3A1
330
308
100
AcDbEntity
  8
0
  6
CONTINUOUS
 62
     5
100
AcDbText
 10
2865.97329
 20
148.946755
 30
0.0
 40
4.825362
  1
N
 41
0.993429
  7
ED_VECTOR
100
AcDbText
  0
TEXT
  5
3A2
330
308
100
AcDbEntity
  8
0
  6
CONTINUOUS
 62
     5
100
AcDbText
 10
2846.764748
 20
148.924182
 30
0.0
 40
4.982325
  1
A
 41
0.784962
  7
ED_VECTOR
100
AcDbText
  0
TEXT
  5
3A3
330
308
100
AcDbEntity
  8
0
  6
CONTINUOUS
 62
     5
100
AcDbText
 10
2841.210793
 20
141.928943
 30
0.0
 40
4.982325
  1
A
 41
0.784962
  7
ED_VECTOR
100
AcDbText
  0
TEXT
  5
3A4
330
308
100
AcDbEntity
  8
0
  6
CONTINUOUS
 62
     5
100
AcDbText
 10
2853.995216
 20
141.957263
 30
0.0
 40
4.982325
  1
A
 41
0.784962
  7
ED_VECTOR
100
AcDbText
  0
TEXT
  5
3A5
330
308
100
AcDbEntity
  8
0
  6
CONTINUOUS
 62
     5
100
AcDbText
 10
2857.755761
 20
142.01426
 30
0.0
 40
4.825362
  1
N
 41
0.993429
  7
ED_VECTOR
100
AcDbText
  0
TEXT
  5
3A6
330
308
100
AcDbEntity
  8
0
  6
CONTINUOUS
 62
     5
100
AcDbText
 10
2866.658097
 20
142.022655
 30
0.0
 40
4.841775
  1
E
 41
0.789479
  7
ED_VECTOR
100
AcDbText
  0
TEXT
  5
3A7
330
308
100
AcDbEntity
  8
0
  6
CONTINUOUS
 62
     5
100
AcDbText
 10
2845.491346
 20
141.927618
 30
0.0
 40
4.947865
  1
D
 41
0.729328
  7
ED_VECTOR
100
AcDbText
  0
TEXT
  5
3A8
330
308
100
AcDbEntity
  8
0
  6
CONTINUOUS
 62
     5
100
AcDbText
 10
2849.893704
 20
141.922233
 30
0.0
 40
4.92421
  1
V
 41
0.818797
  7
ED_VECTOR
100
AcDbText
  0
TEXT
  5
3A9
330
308
100
AcDbEntity
  8
0
  6
CONTINUOUS
 62
     5
100
AcDbText
 10
2862.118906
 20
141.942965
 30
0.0
 40
5.032894
  1
C
 41
0.987349
  7
ED_VECTOR
100
AcDbText
  0
LINE
  5
3AA
330
308
100
AcDbEntity
  8
0
  6
CONTINUOUS
 62
     5
100
AcDbLine
 10
2852.749259
 20
153.003346
 30
0.0
 11
2851.737198
 21
153.003346
 31
0.0
  0
LINE
  5
3AB
330
308
100
AcDbEntity
  8
0
  6
CONTINUOUS
 62
     3
100
AcDbLine
 10
2801.847498
 20
187.228617
 30
0.0
 11
2851.645324
 21
187.228617
 31
0.0
  0
LINE
  5
3AC
330
308
100
AcDbEntity
  8
0
  6
CONTINUOUS
 62
     3
100
AcDbLine
 10
2794.735134
 20
185.628617
 30
0.0
 11
2862.725015
 21
185.628617
 31
0.0
  0
LINE
  5
3AD
330
308
100
AcDbEntity
  8
0
  6
CONTINUOUS
 62
     3
100
AcDbLine
 10
2787.286729
 20
184.028617
 30
0.0
 11
2832.710039
 21
184.028617
 31
0.0
  0
LINE
  5
3AE
330
308
100
AcDbEntity
  8
0
  6
CONTINUOUS
 62
     3
100
AcDbLine
 10
2845.671589
 20
184.028617
 30
0.0
 11
2855.258193
 21
184.028617
 31
0.0
  0
LINE
  5
3AF
330
308
100
AcDbEntity
  8
0
  6
CONTINUOUS
 62
     3
100
AcDbLine
 10
2859.567326
 20
184.028617
 30
0.0
 11
2868.080323
 21
184.028617
 31
0.0
  0
LINE
  5
3B0
330
308
100
AcDbEntity
  8
0
  6
CONTINUOUS
 62
     3
100
AcDbLine
 10
2788.689868
 20
182.428617
 30
0.0
 11
2845.396337
 21
182.428617
 31
0.0
  0
LINE
  5
3B1
330
308
100
AcDbEntity
  8
0
  6
CONTINUOUS
 62
     3
100
AcDbLine
 10
2865.576476
 20
182.428617
 30
0.0
 11
2871.682721
 21
182.428617
 31
0.0
  0
LINE
  5
3B2
330
308
100
AcDbEntity
  8
0
  6
CONTINUOUS
 62
     3
100
AcDbLine
 10
2786.777535
 20
180.828617
 30
0.0
 11
2859.531885
 21
180.828617
 31
0.0
  0
LINE
  5
3B3
330
308
100
AcDbEntity
  8
0
  6
CONTINUOUS
 62
     3
100
AcDbLine
 10
2871.477774
 20
180.828617
 30
0.0
 11
2873.711496
 21
180.828617
 31
0.0
  0
LINE
  5
3B4
330
308
100
AcDbEntity
  8
0
  6
CONTINUOUS
 62
     3
100
AcDbLine
 10
2785.715309
 20
179.228617
 30
0.0
 11
2867.243742
 21
179.228617
 31
0.0
  0
LINE
  5
3B5
330
308
100
AcDbEntity
  8
0
  6
CONTINUOUS
 62
     3
100
AcDbLine
 10
2787.390976
 20
177.628617
 30
0.0
 11
2872.05305
 21
177.628617
 31
0.0
  0
LINE
  5
3B6
330
308
100
AcDbEntity
  8
0
  6
CONTINUOUS
 62
     3
100
AcDbLine
 10
2788.558544
 20
176.028617
 30
0.0
 11
2847.671923
 21
176.028617
 31
0.0
  0
LINE
  5
3B7
330
308
100
AcDbEntity
  8
0
  6
CONTINUOUS
 62
     3
100
AcDbLine
 10
2863.171688
 20
176.028617
 30
0.0
 11
2878.176011
 21
176.028617
 31
0.0
  0
LINE
  5
3B8
330
308
100
AcDbEntity
  8
0
  6
CONTINUOUS
 62
     3
100
AcDbLine
 10
2788.803667
 20
174.428617
 30
0.0
 11
2824.171923
 21
174.428617
 31
0.0
  0
LINE
  5
3B9
330
308
100
AcDbEntity
  8
0
  6
CONTINUOUS
 62
     3
100
AcDbLine
 10
2870.740616
 20
174.428617
 30
0.0
 11
2880.263219
 21
174.428617
 31
0.0
  0
LINE
  5
3BA
330
308
100
AcDbEntity
  8
0
  6
CONTINUOUS
 62
     3
100
AcDbLine
 10
2789.009992
 20
172.828617
 30
0.0
 11
2802.475166
 21
172.828617
 31
0.0
  0
LINE
  5
3BB
330
308
100
AcDbEntity
  8
0
  6
CONTINUOUS
 62
     3
100
AcDbLine
 10
2878.200965
 20
172.828617
 30
0.0
 11
2884.685984
 21
172.828617
 31
0.0
  0
LINE
  5
3BC
330
308
100
AcDbEntity
  8
0
  6
CONTINUOUS
 62
     3
100
AcDbLine
 10
2886.263959
 20
171.228617
 30
0.0
 11
2888.432813
 21
171.228617
 31
0.0
  0
ENDBLK
  5
30A
330
308
100
AcDbEntity
  8
0
100
AcDbBlockEnd
  0
ENDSEC
  0
SECTION
  2
ENTITIES
  0
INSERT
  5
F1
330
1F
100
AcDbEntity
  8
0
100
AcDbBlockReference
  2
BLKF014
 10
0.0
 20
0.0
 30
0.0
  0
TEXT
  5
196
330
1F
100
AcDbEntity
  8
0
  6
CONTINUOUS
 62
     5
100
AcDbText
 10
2290.862793
 20
660.819336
 30
0.0
 40
40.0
  1
Ｆ.Ｌ
 41
0.75
  7
ED_VECTOR
100
AcDbText
  0
TEXT
  5
197
330
1F
100
AcDbEntity
  8
0
  6
CONTINUOUS
 62
     5
100
AcDbText
 10
2137.891602
 20
2213.224854
 30
0.0
 40
40.0
  1
電源コード　３ｍ
 41
0.75
  7
ED_VECTOR
100
AcDbText
  0
TEXT
  5
198
330
1F
100
AcDbEntity
  8
0
  6
CONTINUOUS
 62
     5
100
AcDbText
 10
1622.058838
 20
1544.347046
 30
0.0
 40
40.0
  1
フットスイッチ（ ＵＰ・ＤＯＷＮ ）
 41
0.75
  7
ED_VECTOR
100
AcDbText
  0
TEXT
  5
199
330
1F
100
AcDbEntity
  8
0
  6
CONTINUOUS
 62
     5
100
AcDbText
 10
1816.151367
 20
1483.014038
 30
0.0
 40
40.0
  1
コード長サ ２ｍ
 41
0.75
  7
ED_VECTOR
100
AcDbText
  0
ARC
  5
19A
330
1F
100
AcDbEntity
  8
0
  6
CONTINUOUS
 62
     3
100
AcDbCircle
 10
2175.959147
 20
1838.915687
 30
0.0
 40
40.0
100
AcDbArc
 50
68.451184
 51
35.020142
  0
ARC
  5
19B
330
1F
100
AcDbEntity
  8
0
  6
CONTINUOUS
 62
     3
100
AcDbCircle
 10
2175.959147
 20
1838.915687
 30
0.0
 40
47.0
100
AcDbArc
 50
67.795427
 51
16.862694
  0
ARC
  5
19C
330
1F
100
AcDbEntity
  8
0
  6
CONTINUOUS
 62
     3
100
AcDbCircle
 10
2135.201973
 20
1937.415687
 30
0.0
 40
30.0
100
AcDbArc
 50
330.650201
 51
300.0
  0
ARC
  5
19D
330
1F
100
AcDbEntity
  8
0
  6
CONTINUOUS
 62
     3
100
AcDbCircle
 10
2135.201973
 20
1937.415687
 30
0.0
 40
37.0
100
AcDbArc
 50
345.857154
 51
300.0
  0
LINE
  5
19E
330
1F
100
AcDbEntity
  8
0
  6
CONTINUOUS
 62
     3
100
AcDbLine
 10
2280.315201
 20
1978.472928
 30
0.0
 11
2153.701973
 21
1905.372747
 31
0.0
  0
LINE
  5
19F
330
1F
100
AcDbEntity
  8
0
  6
CONTINUOUS
 62
     3
100
AcDbLine
 10
2276.815201
 20
1984.535106
 30
0.0
 11
2150.201973
 21
1911.434925
 31
0.0
  0
LINE
  5
1A0
330
1F
100
AcDbEntity
  8
0
  6
CONTINUOUS
 62
     3
100
AcDbLine
 10
2277.065201
 20
1984.102093
 30
0.0
 11
2280.065201
 21
1978.905941
 31
0.0
  0
LINE
  5
1A1
330
1F
100
AcDbEntity
  8
0
  6
CONTINUOUS
 62
     3
100
AcDbLine
 10
2290.885709
 20
2000.164271
 30
0.0
 11
2300.885709
 21
1982.843763
 31
0.0
  0
LINE
  5
1A2
330
1F
100
AcDbEntity
  8
0
  6
CONTINUOUS
 62
     3
100
AcDbLine
 10
2290.885709
 20
2000.164271
 30
0.0
 11
2279.627378
 21
1993.664271
 31
0.0
  0
LINE
  5
1A3
330
1F
100
AcDbEntity
  8
0
  6
CONTINUOUS
 62
     3
100
AcDbLine
 10
2300.885709
 20
1982.843763
 30
0.0
 11
2289.627378
 21
1976.343763
 31
0.0
  0
ARC
  5
1A4
330
1F
100
AcDbEntity
  8
0
  6
CONTINUOUS
 62
     3
100
AcDbCircle
 10
2283.127378
 20
1987.602093
 30
0.0
 40
7.0
100
AcDbArc
 50
120.0
 51
210.0
  0
ARC
  5
1A5
330
1F
100
AcDbEntity
  8
0
  6
CONTINUOUS
 62
     3
100
AcDbCircle
 10
2286.127378
 20
1982.405941
 30
0.0
 40
7.0
100
AcDbArc
 50
210.0
 51
300.0
  0
LINE
  5
1A6
330
1F
100
AcDbEntity
  8
0
  6
CONTINUOUS
 62
     3
100
AcDbLine
 10
2302.045963
 20
2000.834144
 30
0.0
 11
2293.385709
 21
1995.834144
 31
0.0
  0
LINE
  5
1A7
330
1F
100
AcDbEntity
  8
0
  6
CONTINUOUS
 62
     3
100
AcDbLine
 10
2307.045963
 20
1992.17389
 30
0.0
 11
2298.385709
 21
1987.17389
 31
0.0
  0
LINE
  5
1A8
330
1F
100
AcDbEntity
  8
0
  6
CONTINUOUS
 62
     3
100
AcDbLine
 10
2193.721138
 20
1882.430187
 30
0.0
 11
2326.54589
 21
1805.743781
 31
0.0
  0
LINE
  5
1A9
330
1F
100
AcDbEntity
  8
0
  6
CONTINUOUS
 62
     3
100
AcDbLine
 10
2190.6509
 20
1876.119886
 30
0.0
 11
2323.04589
 21
1799.681603
 31
0.0
  0
LINE
  5
1AA
330
1F
100
AcDbEntity
  8
0
  6
CONTINUOUS
 62
     3
100
AcDbLine
 10
1967.985323
 20
1907.415687
 30
0.0
 11
2105.525266
 21
1907.415687
 31
0.0
  0
LINE
  5
1AB
330
1F
100
AcDbEntity
  8
0
  6
CONTINUOUS
 62
     3
100
AcDbLine
 10
1967.985323
 20
1900.415687
 30
0.0
 11
2115.287431
 21
1900.415687
 31
0.0
  0
LINE
  5
1AC
330
1F
100
AcDbEntity
  8
0
  6
CONTINUOUS
 62
     3
100
AcDbLine
 10
1967.985323
 20
1885.415687
 30
0.0
 11
2156.674423
 21
1885.415687
 31
0.0
  0
LINE
  5
1AD
330
1F
100
AcDbEntity
  8
0
  6
CONTINUOUS
 62
     3
100
AcDbLine
 10
1967.985323
 20
1878.415687
 30
0.0
 11
2145.967531
 21
1878.415687
 31
0.0
  0
LINE
  5
1AE
330
1F
100
AcDbEntity
  8
0
  6
CONTINUOUS
 62
     3
100
AcDbLine
 10
2392.657732
 20
653.868757
 30
0.0
 11
235.781453
 21
653.868757
 31
0.0
  0
LINE
  5
1AF
330
1F
100
AcDbEntity
  8
0
  6
CONTINUOUS
 62
     5
100
AcDbLine
 10
2416.692998
 20
2202.415687
 30
0.0
 11
2132.409157
 21
2202.415687
 31
0.0
  0
LINE
  5
1B0
330
1F
100
AcDbEntity
  8
0
  6
CONTINUOUS
 62
     5
100
AcDbLine
 10
2282.093927
 20
1995.088334
 30
0.0
 11
2132.409157
 21
2202.415687
 31
0.0
  0
INSERT
  5
1B1
330
1F
100
AcDbEntity
  8
0
  6
CONTINUOUS
 62
     5
100
AcDbBlockReference
  2
EDTIP_ARROW_S
 10
2282.093927
 20
1995.088334
 30
0.0
 41
30.0
 42
30.0
 50
305.828271
  0
LINE
  5
1B2
330
1F
100
AcDbEntity
  8
0
  6
CONTINUOUS
 62
     5
100
AcDbLine
 10
2250.578345
 20
1532.415687
 30
0.0
 11
1615.191256
 21
1532.415687
 31
0.0
  0
LINE
  5
1B3
330
1F
100
AcDbEntity
  8
0
  6
CONTINUOUS
 62
     5
100
AcDbLine
 10
2333.641233
 20
1713.890041
 30
0.0
 11
2250.578345
 21
1532.415687
 31
0.0
  0
INSERT
  5
1B4
330
1F
100
AcDbEntity
  8
0
  6
CONTINUOUS
 62
     5
100
AcDbBlockReference
  2
EDTIP_ARROW_S
 10
2333.641233
 20
1713.890041
 30
0.0
 41
30.0
 42
30.0
 50
65.405888
  0
LINE
  5
1B5
330
1F
100
AcDbEntity
  8
0
  6
CENTER
 62
     5
100
AcDbLine
 10
1985.89664
 20
1992.415687
 30
0.0
 11
1313.938537
 21
1992.415687
 31
0.0
  0
LINE
  5
1B6
330
1F
100
AcDbEntity
  8
0
  6
CONTINUOUS
 62
     3
100
AcDbLine
 10
1967.985323
 20
1732.415687
 30
0.0
 11
1967.985323
 21
2252.415687
 31
0.0
  0
DIMENSION
  5
1B7
330
1F
100
AcDbEntity
  8
0
100
AcDbDimension
  2
*D12
 10
1832.785323
 20
552.868757
 30
0.0
 11
1868.293213
 21
565.643677
 31
0.0
 70
    33
  3
EDDIMINFO
100
AcDbAlignedDimension
 13
1902.785323
 23
552.868757
 33
0.0
 14
1832.785323
 24
552.868757
 34
0.0
1001
ACAD
1000
DSTYLE
1002
{
1070
     7
1000
EDTIP_ARROW_E
1070
     6
1000
EDTIP_ARROW_S
1070
   173
1070
     1
1002
}
  0
DIMENSION
  5
1BF
330
1F
100
AcDbEntity
  8
0
100
AcDbDimension
  2
*D13
 10
1902.785323
 20
452.868757
 30
0.0
 11
1652.7854
 21
462.868774
 31
0.0
 70
    33
  3
EDDIMINFO
100
AcDbAlignedDimension
 13
1402.785323
 23
643.868757
 33
0.0
 14
1902.785323
 24
643.868757
 34
0.0
1001
ACAD
1000
DSTYLE
1002
{
1070
     7
1000
EDTIP_ARROW_E
1070
     6
1000
EDTIP_ARROW_S
1070
   173
1070
     1
1002
}
  0
LINE
  5
1C9
330
1F
100
AcDbEntity
  8
0
  6
CONTINUOUS
 62
     5
100
AcDbLine
 10
1472.785323
 20
652.868757
 30
0.0
 11
1287.060151
 21
402.868757
 31
0.0
  0
INSERT
  5
1CA
330
1F
100
AcDbEntity
  8
0
  6
CONTINUOUS
 62
     5
100
AcDbBlockReference
  2
EDTIP_ARROW_S
 10
1472.785323
 20
652.868757
 30
0.0
 41
30.0
 42
30.0
 50
53.391317
  0
LINE
  5
1CB
330
1F
100
AcDbEntity
  8
0
  6
CONTINUOUS
 62
     5
100
AcDbLine
 10
1472.785323
 20
637.868757
 30
0.0
 11
1472.785323
 21
542.868757
 31
0.0
  0
LINE
  5
1CC
330
1F
100
AcDbEntity
  8
0
  6
CONTINUOUS
 62
     5
100
AcDbLine
 10
1832.785323
 20
637.868757
 30
0.0
 11
1832.785323
 21
542.868757
 31
0.0
  0
LINE
  5
1CD
330
1F
100
AcDbEntity
  8
0
  6
CONTINUOUS
 62
     5
100
AcDbLine
 10
1472.785323
 20
552.868757
 30
0.0
 11
1832.785323
 21
552.868757
 31
0.0
  0
INSERT
  5
1CE
330
1F
100
AcDbEntity
  8
0
  6
CONTINUOUS
 62
     5
100
AcDbBlockReference
  2
EDTIP_ARROW_S
 10
1472.785323
 20
552.868757
 30
0.0
 41
30.0
 42
30.0
 50
180.0
  0
INSERT
  5
1CF
330
1F
100
AcDbEntity
  8
0
  6
CONTINUOUS
 62
     5
100
AcDbBlockReference
  2
EDTIP_ARROW_E
 10
1832.785323
 20
552.868757
 30
0.0
 41
30.0
 42
30.0
  0
INSERT
  5
1D3
330
1F
100
AcDbEntity
  8
0
100
AcDbBlockReference
  2
EDDIM017
 10
0.0
 20
0.0
 30
0.0
  0
TEXT
  5
1D5
330
1F
100
AcDbEntity
  8
0
  6
CONTINUOUS
 62
     5
100
AcDbText
 10
1517.667703
 20
565.731567
 30
0.0
 40
37.389736
  1
アンカーピッチ
 41
0.679007
  7
ED_VECTOR
100
AcDbText
  0
TEXT
  5
1D6
330
1F
100
AcDbEntity
  8
0
  6
CONTINUOUS
 62
     3
100
AcDbText
 10
1714.953613
 20
567.015442
 30
0.0
 40
40.0
  1
360
 41
0.75
  7
ED_VECTOR
100
AcDbText
  0
LINE
  5
1D7
330
1F
100
AcDbEntity
  8
0
  6
CONTINUOUS
 62
     5
100
AcDbLine
 10
1287.060151
 20
402.868757
 30
0.0
 11
1123.62132
 21
402.868757
 31
0.0
  0
DIMENSION
  5
1D8
330
1F
100
AcDbEntity
  8
0
100
AcDbDimension
  2
*D15
 10
748.085323
 20
553.868757
 30
0.0
 11
797.317139
 21
570.016479
 31
0.0
 70
    33
  3
EDDIMINFO
100
AcDbAlignedDimension
 13
798.085323
 23
553.868757
 33
0.0
 14
748.085323
 24
553.868757
 34
0.0
  0
DIMENSION
  5
1E0
330
1F
100
AcDbEntity
  8
0
100
AcDbDimension
  2
*D16
 10
798.085323
 20
453.868757
 30
0.0
 11
598.085327
 21
463.868774
 31
0.0
 70
    33
  3
EDDIMINFO
100
AcDbAlignedDimension
 13
398.085323
 23
644.868757
 33
0.0
 14
798.085323
 24
644.868757
 34
0.0
1001
ACAD
1000
DSTYLE
1002
{
1070
     7
1000
EDTIP_ARROW_E
1070
     6
1000
EDTIP_ARROW_S
1070
   173
1070
     1
1002
}
  0
LINE
  5
1EA
330
1F
100
AcDbEntity
  8
0
  6
CONTINUOUS
 62
     5
100
AcDbLine
 10
448.085323
 20
638.868757
 30
0.0
 11
448.085323
 21
543.868757
 31
0.0
  0
LINE
  5
1EB
330
1F
100
AcDbEntity
  8
0
  6
CONTINUOUS
 62
     5
100
AcDbLine
 10
748.085323
 20
638.868757
 30
0.0
 11
748.085323
 21
543.868757
 31
0.0
  0
LINE
  5
1EC
330
1F
100
AcDbEntity
  8
0
  6
CONTINUOUS
 62
     5
100
AcDbLine
 10
448.085323
 20
553.868757
 30
0.0
 11
748.085323
 21
553.868757
 31
0.0
  0
INSERT
  5
1ED
330
1F
100
AcDbEntity
  8
0
  6
CONTINUOUS
 62
     5
100
AcDbBlockReference
  2
EDTIP_ARROW_S
 10
448.085323
 20
553.868757
 30
0.0
 41
30.0
 42
30.0
 50
180.0
  0
INSERT
  5
1EE
330
1F
100
AcDbEntity
  8
0
  6
CONTINUOUS
 62
     5
100
AcDbBlockReference
  2
EDTIP_ARROW_E
 10
748.085323
 20
553.868757
 30
0.0
 41
30.0
 42
30.0
  0
TEXT
  5
1EF
330
1F
100
AcDbEntity
  8
0
  6
CONTINUOUS
 62
     5
100
AcDbText
 10
454.789856
 20
569.718933
 30
0.0
 40
40.0
  1
アンカーピッチ
 41
0.75
  7
ED_VECTOR
100
AcDbText
  0
TEXT
  5
1F0
330
1F
100
AcDbEntity
  8
0
  6
CONTINUOUS
 62
     3
100
AcDbText
 10
670.812495
 20
571.913513
 30
0.0
 40
38.524662
  1
300
 41
0.632735
  7
ED_VECTOR
100
AcDbText
  0
DIMENSION
  5
1F1
330
1F
100
AcDbEntity
  8
0
100
AcDbDimension
  2
*D17
 10
2048.170024
 20
733.868757
 30
0.0
 11
2038.170044
 21
693.868713
 31
0.0
 70
    32
  3
EDDIMINFO
100
AcDbAlignedDimension
 13
2179.245425
 23
653.868757
 33
0.0
 14
1976.985323
 24
733.868757
 34
0.0
 50
270.0
100
AcDbRotatedDimension
1001
ACAD
1000
DSTYLE
1002
{
1070
     7
1000
EDTIP_ARROW_E
1070
     6
1000
EDTIP_ARROW_S
1070
   173
1070
     1
1002
}
  0
INSERT
  5
1FE
330
1F
100
AcDbEntity
  8
0
100
AcDbBlockReference
  2
BLKF021
 10
0.0
 20
0.0
 30
0.0
  0
DIMENSION
  5
204
330
1F
100
AcDbEntity
  8
0
100
AcDbDimension
  2
*D19
 10
2048.170024
 20
1083.868757
 30
0.0
 11
2038.170044
 21
908.868713
 31
0.0
 70
    33
  3
EDDIMINFO
100
AcDbAlignedDimension
 13
1915.094623
 23
733.868757
 33
0.0
 14
1915.094623
 24
1083.868757
 34
0.0
1001
ACAD
1000
DSTYLE
1002
{
1070
     7
1000
EDTIP_ARROW_E
1070
     6
1000
EDTIP_ARROW_S
1070
   173
1070
     1
1002
}
  0
DIMENSION
  5
20D
330
1F
100
AcDbEntity
  8
0
100
AcDbDimension
  2
*D20
 10
2170.245425
 20
653.868757
 30
0.0
 11
2160.245361
 21
868.868713
 31
0.0
 70
    33
  3
EDDIMINFO
100
AcDbAlignedDimension
 13
2170.245425
 23
1083.868757
 33
0.0
 14
2170.245425
 24
653.868757
 34
0.0
1001
ACAD
1000
DSTYLE
1002
{
1070
     7
1000
EDTIP_ARROW_E
1070
     6
1000
EDTIP_ARROW_S
1070
   173
1070
     1
1002
}
  0
LINE
  5
215
330
1F
100
AcDbEntity
  8
0
  6
CENTER
 62
     5
100
AcDbLine
 10
598.085323
 20
1100.125647
 30
0.0
 11
598.085323
 21
633.388754
 31
0.0
  0
LINE
  5
216
330
1F
100
AcDbEntity
  8
0
  6
CONTINUOUS
 62
     5
100
AcDbLine
 10
448.085323
 20
659.319742
 30
0.0
 11
448.085323
 21
648.868757
 31
0.0
  0
LINE
  5
217
330
1F
100
AcDbEntity
  8
0
  6
CONTINUOUS
 62
     5
100
AcDbLine
 10
748.085323
 20
659.319742
 30
0.0
 11
748.085323
 21
648.868757
 31
0.0
  0
LINE
  5
218
330
1F
100
AcDbEntity
  8
0
  6
CONTINUOUS
 62
     3
100
AcDbLine
 10
798.085323
 20
670.868757
 30
0.0
 11
798.085323
 21
653.868757
 31
0.0
  0
LINE
  5
219
330
1F
100
AcDbEntity
  8
0
  6
CONTINUOUS
 62
     3
100
AcDbLine
 10
398.085323
 20
670.868757
 30
0.0
 11
398.085323
 21
653.868757
 31
0.0
  0
LINE
  5
21A
330
1F
100
AcDbEntity
  8
0
  6
CONTINUOUS
 62
     3
100
AcDbLine
 10
857.985323
 20
1045.868757
 30
0.0
 11
338.185323
 21
1045.868757
 31
0.0
  0
LINE
  5
21B
330
1F
100
AcDbEntity
  8
0
  6
CONTINUOUS
 62
     3
100
AcDbLine
 10
857.985323
 20
1083.868757
 30
0.0
 11
338.185323
 21
1083.868757
 31
0.0
  0
DIMENSION
  5
21C
330
1F
100
AcDbEntity
  8
0
100
AcDbDimension
  2
*D21
 10
1967.985323
 20
1164.829927
 30
0.0
 11
1652.985352
 21
1174.829956
 31
0.0
 70
    33
  3
EDDIMINFO
100
AcDbAlignedDimension
 13
1337.985323
 23
1092.868757
 33
0.0
 14
1967.985323
 24
1092.868757
 34
0.0
1001
ACAD
1000
DSTYLE
1002
{
1070
     7
1000
EDTIP_ARROW_E
1070
     6
1000
EDTIP_ARROW_S
1070
   173
1070
     1
1002
}
  0
LINE
  5
226
330
1F
100
AcDbEntity
  8
0
  6
CONTINUOUS
 62
     3
100
AcDbLine
 10
1337.985323
 20
1732.415687
 30
0.0
 11
1337.985323
 21
2252.415687
 31
0.0
  0
LINE
  5
227
330
1F
100
AcDbEntity
  8
0
  6
CONTINUOUS
 62
     3
100
AcDbLine
 10
1967.985323
 20
2252.415687
 30
0.0
 11
1337.985323
 21
2252.415687
 31
0.0
  0
LINE
  5
228
330
1F
100
AcDbEntity
  8
0
  6
CONTINUOUS
 62
     3
100
AcDbLine
 10
1967.985323
 20
1732.415687
 30
0.0
 11
1337.985323
 21
1732.415687
 31
0.0
  0
DIMENSION
  5
229
330
1F
100
AcDbEntity
  8
0
100
AcDbDimension
  2
*D22
 10
1226.469795
 20
2252.415687
 30
0.0
 11
1216.469849
 21
1992.415771
 31
0.0
 70
    33
  3
EDDIMINFO
100
AcDbAlignedDimension
 13
1328.985323
 23
1732.415687
 33
0.0
 14
1328.985323
 24
2252.415687
 34
0.0
1001
ACAD
1000
DSTYLE
1002
{
1070
     7
1000
EDTIP_ARROW_E
1070
     6
1000
EDTIP_ARROW_S
1070
   173
1070
     1
1002
}
  0
LINE
  5
233
330
1F
100
AcDbEntity
  8
0
  6
CONTINUOUS
 62
     3
100
AcDbLine
 10
338.185323
 20
1083.868757
 30
0.0
 11
338.185323
 21
1045.868757
 31
0.0
  0
LINE
  5
234
330
1F
100
AcDbEntity
  8
0
  6
CONTINUOUS
 62
     3
100
AcDbLine
 10
857.985323
 20
1083.868757
 30
0.0
 11
857.985323
 21
1045.868757
 31
0.0
  0
LINE
  5
235
330
1F
100
AcDbEntity
  8
0
  6
CONTINUOUS
 62
     5
100
AcDbLine
 10
3402.3185
 20
2219.691837
 30
0.0
 11
2681.445983
 21
2219.691837
 31
0.0
  0
LINE
  5
236
330
1F
100
AcDbEntity
  8
0
  6
CONTINUOUS
 62
     5
100
AcDbLine
 10
3402.3185
 20
2155.691839
 30
0.0
 11
2681.445983
 21
2155.691839
 31
0.0
  0
LINE
  5
237
330
1F
100
AcDbEntity
  8
0
  6
CONTINUOUS
 62
     5
100
AcDbLine
 10
3402.3185
 20
2091.691841
 30
0.0
 11
2681.445983
 21
2091.691841
 31
0.0
  0
LINE
  5
238
330
1F
100
AcDbEntity
  8
0
  6
CONTINUOUS
 62
     5
100
AcDbLine
 10
3402.3185
 20
2027.691842
 30
0.0
 11
2682.318518
 21
2027.691842
 31
0.0
  0
LINE
  5
239
330
1F
100
AcDbEntity
  8
0
  6
CONTINUOUS
 62
     5
100
AcDbLine
 10
3402.3185
 20
1963.691844
 30
0.0
 11
2681.445983
 21
1963.691844
 31
0.0
  0
LINE
  5
23A
330
1F
100
AcDbEntity
  8
0
  6
CONTINUOUS
 62
     5
100
AcDbLine
 10
3402.3185
 20
1899.691845
 30
0.0
 11
2681.445983
 21
1899.691845
 31
0.0
  0
LINE
  5
23B
330
1F
100
AcDbEntity
  8
0
  6
CONTINUOUS
 62
     5
100
AcDbLine
 10
3402.3185
 20
1835.691847
 30
0.0
 11
2681.445983
 21
1835.691847
 31
0.0
  0
LINE
  5
23C
330
1F
100
AcDbEntity
  8
0
  6
CONTINUOUS
 62
     5
100
AcDbLine
 10
3402.3185
 20
1771.691849
 30
0.0
 11
2681.445983
 21
1771.691849
 31
0.0
  0
LINE
  5
23D
330
1F
100
AcDbEntity
  8
0
  6
CONTINUOUS
 62
     5
100
AcDbLine
 10
3402.3185
 20
1707.69185
 30
0.0
 11
2681.445983
 21
1707.69185
 31
0.0
  0
LINE
  5
23E
330
1F
100
AcDbEntity
  8
0
  6
CONTINUOUS
 62
     5
100
AcDbLine
 10
3402.3185
 20
1643.691852
 30
0.0
 11
2681.445983
 21
1643.691852
 31
0.0
  0
LINE
  5
23F
330
1F
100
AcDbEntity
  8
0
  6
CONTINUOUS
 62
     5
100
AcDbLine
 10
3402.3185
 20
1515.691855
 30
0.0
 11
2681.445983
 21
1515.691855
 31
0.0
  0
TEXT
  5
240
330
1F
100
AcDbEntity
  8
0
  6
CONTINUOUS
 62
     5
100
AcDbText
 10
2877.169678
 20
2299.510986
 30
0.0
 40
40.0
  1
仕   様
 41
0.8
  7
ED_VECTOR
100
AcDbText
  0
TEXT
  5
241
330
1F
100
AcDbEntity
  8
0
  6
CONTINUOUS
 62
     5
100
AcDbText
 10
2692.205078
 20
2227.915039
 30
0.0
 40
40.0
  1
型    式
 41
0.8
  7
ED_VECTOR
100
AcDbText
  0
TEXT
  5
242
330
1F
100
AcDbEntity
  8
0
  6
CONTINUOUS
 62
     5
100
AcDbText
 10
2690.385742
 20
2105.425049
 30
0.0
 40
40.0
  1
テーブル寸法
 41
0.8
  7
ED_VECTOR
100
AcDbText
  0
TEXT
  5
243
330
1F
100
AcDbEntity
  8
0
  6
CONTINUOUS
 62
     5
100
AcDbText
 10
2692.205078
 20
2042.360596
 30
0.0
 40
40.0
  1
テーブル高サ
 41
0.8
  7
ED_VECTOR
100
AcDbText
  0
TEXT
  5
244
330
1F
100
AcDbEntity
  8
0
  6
CONTINUOUS
 62
     5
100
AcDbText
 10
2693.6521
 20
1977.477783
 30
0.0
 40
40.0
  1
ストローク
 41
0.8
  7
ED_VECTOR
100
AcDbText
  0
TEXT
  5
245
330
1F
100
AcDbEntity
  8
0
  6
CONTINUOUS
 62
     5
100
AcDbText
 10
2693.045898
 20
1912.594971
 30
0.0
 40
40.0
  1
全   長
 41
0.8
  7
ED_VECTOR
100
AcDbText
  0
TEXT
  5
246
330
1F
100
AcDbEntity
  8
0
  6
CONTINUOUS
 62
     5
100
AcDbText
 10
2695.316895
 20
1846.744263
 30
0.0
 40
40.0
  1
全   巾
 41
0.8
  7
ED_VECTOR
100
AcDbText
  0
TEXT
  5
247
330
1F
100
AcDbEntity
  8
0
  6
CONTINUOUS
 62
     5
100
AcDbText
 10
2693.759033
 20
1782.859497
 30
0.0
 40
40.0
  1
全   高
 41
0.8
  7
ED_VECTOR
100
AcDbText
  0
TEXT
  5
248
330
1F
100
AcDbEntity
  8
0
  6
CONTINUOUS
 62
     5
100
AcDbText
 10
2693.759033
 20
1720.532837
 30
0.0
 40
40.0
  1
リフト方式
 41
0.8
  7
ED_VECTOR
100
AcDbText
  0
TEXT
  5
249
330
1F
100
AcDbEntity
  8
0
  6
CONTINUOUS
 62
     5
100
AcDbText
 10
2696.548096
 20
1526.283325
 30
0.0
 40
40.0
  1
モーター
 41
0.8
  7
ED_VECTOR
100
AcDbText
  0
LINE
  5
24A
330
1F
100
AcDbEntity
  8
0
  6
CONTINUOUS
 62
     5
100
AcDbLine
 10
3402.3185
 20
1451.691857
 30
0.0
 11
2681.445983
 21
1451.691857
 31
0.0
  0
LINE
  5
24B
330
1F
100
AcDbEntity
  8
0
  6
CONTINUOUS
 62
     5
100
AcDbLine
 10
3402.3185
 20
1323.69186
 30
0.0
 11
2679.30748
 21
1323.69186
 31
0.0
  0
LINE
  5
24C
330
1F
100
AcDbEntity
  8
0
  6
CONTINUOUS
 62
     5
100
AcDbLine
 10
3402.3185
 20
1259.691862
 30
0.0
 11
2681.445983
 21
1259.691862
 31
0.0
  0
LINE
  5
24D
330
1F
100
AcDbEntity
  8
0
  6
CONTINUOUS
 62
     5
100
AcDbLine
 10
3402.3185
 20
1195.691863
 30
0.0
 11
2681.445983
 21
1195.691863
 31
0.0
  0
LINE
  5
24E
330
1F
100
AcDbEntity
  8
0
  6
CONTINUOUS
 62
     5
100
AcDbLine
 10
3402.3185
 20
1131.691865
 30
0.0
 11
2681.445983
 21
1131.691865
 31
0.0
  0
TEXT
  5
24F
330
1F
100
AcDbEntity
  8
0
  6
CONTINUOUS
 62
     5
100
AcDbText
 10
2695.200195
 20
1142.813965
 30
0.0
 40
40.0
  1
自  　重
 41
0.8
  7
ED_VECTOR
100
AcDbText
  0
TEXT
  5
250
330
1F
100
AcDbEntity
  8
0
  6
CONTINUOUS
 62
     5
100
AcDbText
 10
3331.78418
 20
2162.75
 30
0.0
 40
40.0
  1
Ｋｇ
 41
0.8
  7
ED_VECTOR
100
AcDbText
  0
TEXT
  5
251
330
1F
100
AcDbEntity
  8
0
  6
CONTINUOUS
 62
     5
100
AcDbText
 10
3270.745605
 20
2112.26416
 30
0.0
 40
40.0
  1
Ｗ
 41
0.8
  7
ED_VECTOR
100
AcDbText
  0
TEXT
  5
252
330
1F
100
AcDbEntity
  8
0
  6
CONTINUOUS
 62
     5
100
AcDbText
 10
3107.624023
 20
2114.886475
 30
0.0
 40
40.0
  1
Ｌ
 41
0.8
  7
ED_VECTOR
100
AcDbText
  0
TEXT
  5
253
330
1F
100
AcDbEntity
  8
0
  6
CONTINUOUS
 62
     5
100
AcDbText
 10
3097.806641
 20
1143.600464
 30
0.0
 40
40.0
  1
約　３９  　Ｋｇ
 41
0.8
  7
ED_VECTOR
100
AcDbText
  0
TEXT
  5
254
330
1F
100
AcDbEntity
  8
0
  6
CONTINUOUS
 62
     5
100
AcDbText
 10
3329.27002
 20
2098.646973
 30
0.0
 40
40.0
  1
mm
 41
0.8
  7
ED_VECTOR
100
AcDbText
  0
TEXT
  5
255
330
1F
100
AcDbEntity
  8
0
  6
CONTINUOUS
 62
     5
100
AcDbText
 10
3329.27002
 20
2038.312988
 30
0.0
 40
40.0
  1
mm
 41
0.8
  7
ED_VECTOR
100
AcDbText
  0
TEXT
  5
256
330
1F
100
AcDbEntity
  8
0
  6
CONTINUOUS
 62
     5
100
AcDbText
 10
3325.499268
 20
1974.209106
 30
0.0
 40
40.0
  1
mm
 41
0.8
  7
ED_VECTOR
100
AcDbText
  0
TEXT
  5
257
330
1F
100
AcDbEntity
  8
0
  6
CONTINUOUS
 62
     5
100
AcDbText
 10
3325.499268
 20
1906.334106
 30
0.0
 40
40.0
  1
mm
 41
0.8
  7
ED_VECTOR
100
AcDbText
  0
TEXT
  5
258
330
1F
100
AcDbEntity
  8
0
  6
CONTINUOUS
 62
     5
100
AcDbText
 10
3322.985596
 20
1846.001221
 30
0.0
 40
40.0
  1
mm
 41
0.8
  7
ED_VECTOR
100
AcDbText
  0
TEXT
  5
259
330
1F
100
AcDbEntity
  8
0
  6
CONTINUOUS
 62
     5
100
AcDbText
 10
3322.985596
 20
1781.896973
 30
0.0
 40
40.0
  1
mm
 41
0.8
  7
ED_VECTOR
100
AcDbText
  0
LINE
  5
25A
330
1F
100
AcDbEntity
  8
0
  6
CONTINUOUS
 62
     5
100
AcDbLine
 10
3065.22292
 20
2283.691836
 30
0.0
 11
2856.836949
 21
2283.691836
 31
0.0
  0
LINE
  5
25B
330
1F
100
AcDbEntity
  8
0
  6
CONTINUOUS
 62
     5
100
AcDbLine
 10
3065.22292
 20
2291.691836
 30
0.0
 11
2856.836949
 21
2291.691836
 31
0.0
  0
LINE
  5
25C
330
1F
100
AcDbEntity
  8
0
  6
CONTINUOUS
 62
     5
100
AcDbLine
 10
3402.3185
 20
1387.691858
 30
0.0
 11
2681.445983
 21
1387.691858
 31
0.0
  0
TEXT
  5
25D
330
1F
100
AcDbEntity
  8
0
  6
CONTINUOUS
 62
     5
100
AcDbText
 10
2725.887207
 20
2165.551758
 30
0.0
 40
40.0
  1
均等荷重
 41
0.8
  7
ED_VECTOR
100
AcDbText
  0
TEXT
  5
25E
330
1F
100
AcDbEntity
  8
0
  6
CONTINUOUS
 62
     5
100
AcDbText
 10
2694.66333
 20
1402.168457
 30
0.0
 40
40.0
  1
上昇時間
 41
0.8
  7
ED_VECTOR
100
AcDbText
  0
TEXT
  5
25F
330
1F
100
AcDbEntity
  8
0
  6
CONTINUOUS
 62
     5
100
AcDbText
 10
3012.938965
 20
2101.218506
 30
0.0
 40
40.0
  1
６３０　×５２０
 41
0.8
  7
ED_VECTOR
100
AcDbText
  0
TEXT
  5
260
330
1F
100
AcDbEntity
  8
0
  6
CONTINUOUS
 62
     5
100
AcDbText
 10
3167.355469
 20
1975.466064
 30
0.0
 40
40.0
  1
３５０
 41
0.8
  7
ED_VECTOR
100
AcDbText
  0
TEXT
  5
261
330
1F
100
AcDbEntity
  8
0
  6
CONTINUOUS
 62
     5
100
AcDbText
 10
3072.762939
 20
2041.052979
 30
0.0
 40
40.0
  1
８０～４３０
 41
0.8
  7
ED_VECTOR
100
AcDbText
  0
TEXT
  5
262
330
1F
100
AcDbEntity
  8
0
  6
CONTINUOUS
 62
     5
100
AcDbText
 10
3166.668945
 20
1910.808716
 30
0.0
 40
40.0
  1
６３０
 41
0.8
  7
ED_VECTOR
100
AcDbText
  0
TEXT
  5
263
330
1F
100
AcDbEntity
  8
0
  6
CONTINUOUS
 62
     5
100
AcDbText
 10
3167.355469
 20
1845.688354
 30
0.0
 40
40.0
  1
５２０
 41
0.8
  7
ED_VECTOR
100
AcDbText
  0
TEXT
  5
264
330
1F
100
AcDbEntity
  8
0
  6
CONTINUOUS
 62
     5
100
AcDbText
 10
3199.292969
 20
1781.414917
 30
0.0
 40
40.0
  1
８０
 41
0.8
  7
ED_VECTOR
100
AcDbText
  0
TEXT
  5
265
330
1F
100
AcDbEntity
  8
0
  6
CONTINUOUS
 62
     5
100
AcDbText
 10
2695.888672
 20
1656.471558
 30
0.0
 40
40.0
  1
操作方式
 41
0.8
  7
ED_VECTOR
100
AcDbText
  0
TEXT
  5
266
330
1F
100
AcDbEntity
  8
0
  6
CONTINUOUS
 62
     5
100
AcDbText
 10
2946.360352
 20
1717.881714
 30
0.0
 40
40.0
  1
電動ボールネジ方式
 41
0.8
  7
ED_VECTOR
100
AcDbText
  0
TEXT
  5
267
330
1F
100
AcDbEntity
  8
0
  6
CONTINUOUS
 62
     5
100
AcDbText
 10
2885.179199
 20
1653.505493
 30
0.0
 40
40.0
  1
フットスイッチ（マイコン搭載）
 41
0.8
  7
ED_VECTOR
100
AcDbText
  0
TEXT
  5
268
330
1F
100
AcDbEntity
  8
0
  6
CONTINUOUS
 62
     5
100
AcDbText
 10
2968.306641
 20
1526.592651
 30
0.0
 40
40.0
  1
ＤＣ９０Ｖ,７０Ｗ
 41
0.8
  7
ED_VECTOR
100
AcDbText
  0
TEXT
  5
269
330
1F
100
AcDbEntity
  8
0
  6
CONTINUOUS
 62
     5
100
AcDbText
 10
2697.202881
 20
1463.115723
 30
0.0
 40
40.0
  1
電　　源
 41
0.8
  7
ED_VECTOR
100
AcDbText
  0
TEXT
  5
26A
330
1F
100
AcDbEntity
  8
0
  6
CONTINUOUS
 62
     5
100
AcDbText
 10
2895.86377
 20
1463.67981
 30
0.0
 40
40.0
  1
ＡＣ１００Ｖ,５０／６０HZ
 41
0.8
  7
ED_VECTOR
100
AcDbText
  0
TEXT
  5
26B
330
1F
100
AcDbEntity
  8
0
  6
CONTINUOUS
 62
     5
100
AcDbText
 10
2692.524902
 20
1338.168457
 30
0.0
 40
40.0
  1
下降時間
 41
0.8
  7
ED_VECTOR
100
AcDbText
  0
TEXT
  5
26C
330
1F
100
AcDbEntity
  8
0
  6
CONTINUOUS
 62
     5
100
AcDbText
 10
2694.047607
 20
1208.743774
 30
0.0
 40
40.0
  1
最大使用頻度
 41
0.8
  7
ED_VECTOR
100
AcDbText
  0
TEXT
  5
26D
330
1F
100
AcDbEntity
  8
0
  6
CONTINUOUS
 62
     5
100
AcDbText
 10
3074.148682
 20
1208.605957
 30
0.0
 40
40.0
  1
３０回／時
 41
0.8
  7
ED_VECTOR
100
AcDbText
  0
LINE
  5
26E
330
1F
100
AcDbEntity
  8
0
  6
CONTINUOUS
 62
     3
100
AcDbLine
 10
853.085323
 20
670.868757
 30
0.0
 11
343.085323
 21
670.868757
 31
0.0
  0
LINE
  5
26F
330
1F
100
AcDbEntity
  8
0
  6
CONTINUOUS
 62
     3
100
AcDbLine
 10
853.085323
 20
670.868757
 30
0.0
 11
853.085323
 21
667.868757
 31
0.0
  0
LINE
  5
270
330
1F
100
AcDbEntity
  8
0
  6
CONTINUOUS
 62
     3
100
AcDbLine
 10
343.085323
 20
670.868757
 30
0.0
 11
343.085323
 21
667.868757
 31
0.0
  0
LINE
  5
271
330
1F
100
AcDbEntity
  8
0
  6
CONTINUOUS
 62
     3
100
AcDbLine
 10
803.085323
 20
670.868757
 30
0.0
 11
853.085323
 21
699.73627
 31
0.0
  0
LINE
  5
272
330
1F
100
AcDbEntity
  8
0
  6
CONTINUOUS
 62
     3
100
AcDbLine
 10
803.085323
 20
728.603784
 30
0.0
 11
853.085323
 21
699.73627
 31
0.0
  0
LINE
  5
273
330
1F
100
AcDbEntity
  8
0
  6
CONTINUOUS
 62
     3
100
AcDbLine
 10
803.085323
 20
728.603784
 30
0.0
 11
853.085323
 21
757.471297
 31
0.0
  0
LINE
  5
274
330
1F
100
AcDbEntity
  8
0
  6
CONTINUOUS
 62
     3
100
AcDbLine
 10
803.085323
 20
786.338811
 30
0.0
 11
853.085323
 21
757.471297
 31
0.0
  0
LINE
  5
275
330
1F
100
AcDbEntity
  8
0
  6
CONTINUOUS
 62
     3
100
AcDbLine
 10
803.085323
 20
901.808865
 30
0.0
 11
853.085323
 21
872.941351
 31
0.0
  0
LINE
  5
276
330
1F
100
AcDbEntity
  8
0
  6
CONTINUOUS
 62
     3
100
AcDbLine
 10
803.085323
 20
844.073838
 30
0.0
 11
853.085323
 21
872.941351
 31
0.0
  0
LINE
  5
277
330
1F
100
AcDbEntity
  8
0
  6
CONTINUOUS
 62
     3
100
AcDbLine
 10
803.085323
 20
844.073838
 30
0.0
 11
853.085323
 21
815.206324
 31
0.0
  0
LINE
  5
278
330
1F
100
AcDbEntity
  8
0
  6
CONTINUOUS
 62
     3
100
AcDbLine
 10
803.085323
 20
786.338811
 30
0.0
 11
853.085323
 21
815.206324
 31
0.0
  0
LINE
  5
279
330
1F
100
AcDbEntity
  8
0
  6
CONTINUOUS
 62
     3
100
AcDbLine
 10
803.085323
 20
959.543892
 30
0.0
 11
853.085323
 21
930.676378
 31
0.0
  0
LINE
  5
27A
330
1F
100
AcDbEntity
  8
0
  6
CONTINUOUS
 62
     3
100
AcDbLine
 10
803.085323
 20
901.808865
 30
0.0
 11
853.085323
 21
930.676378
 31
0.0
  0
LINE
  5
27B
330
1F
100
AcDbEntity
  8
0
  6
CONTINUOUS
 62
     3
100
AcDbLine
 10
393.085323
 20
728.603784
 30
0.0
 11
343.085323
 21
699.73627
 31
0.0
  0
LINE
  5
27C
330
1F
100
AcDbEntity
  8
0
  6
CONTINUOUS
 62
     3
100
AcDbLine
 10
393.085323
 20
728.603784
 30
0.0
 11
343.085323
 21
757.471297
 31
0.0
  0
LINE
  5
27D
330
1F
100
AcDbEntity
  8
0
  6
CONTINUOUS
 62
     3
100
AcDbLine
 10
393.085323
 20
786.338811
 30
0.0
 11
343.085323
 21
757.471297
 31
0.0
  0
LINE
  5
27E
330
1F
100
AcDbEntity
  8
0
  6
CONTINUOUS
 62
     3
100
AcDbLine
 10
393.085323
 20
901.808865
 30
0.0
 11
343.085323
 21
872.941351
 31
0.0
  0
LINE
  5
27F
330
1F
100
AcDbEntity
  8
0
  6
CONTINUOUS
 62
     3
100
AcDbLine
 10
393.085323
 20
844.073838
 30
0.0
 11
343.085323
 21
872.941351
 31
0.0
  0
LINE
  5
280
330
1F
100
AcDbEntity
  8
0
  6
CONTINUOUS
 62
     3
100
AcDbLine
 10
393.085323
 20
844.073838
 30
0.0
 11
343.085323
 21
815.206324
 31
0.0
  0
LINE
  5
281
330
1F
100
AcDbEntity
  8
0
  6
CONTINUOUS
 62
     3
100
AcDbLine
 10
393.085323
 20
786.338811
 30
0.0
 11
343.085323
 21
815.206324
 31
0.0
  0
LINE
  5
282
330
1F
100
AcDbEntity
  8
0
  6
CONTINUOUS
 62
     3
100
AcDbLine
 10
393.085323
 20
959.543892
 30
0.0
 11
343.085323
 21
930.676378
 31
0.0
  0
LINE
  5
283
330
1F
100
AcDbEntity
  8
0
  6
CONTINUOUS
 62
     3
100
AcDbLine
 10
393.085323
 20
901.808865
 30
0.0
 11
343.085323
 21
930.676378
 31
0.0
  0
LINE
  5
284
330
1F
100
AcDbEntity
  8
0
  6
CONTINUOUS
 62
     3
100
AcDbLine
 10
393.085323
 20
670.868757
 30
0.0
 11
343.085323
 21
699.73627
 31
0.0
  0
LINE
  5
285
330
1F
100
AcDbEntity
  8
0
  6
CONTINUOUS
 62
     3
100
AcDbLine
 10
803.085323
 20
1017.278919
 30
0.0
 11
853.085323
 21
988.411405
 31
0.0
  0
LINE
  5
286
330
1F
100
AcDbEntity
  8
0
  6
CONTINUOUS
 62
     3
100
AcDbLine
 10
803.085323
 20
959.543892
 30
0.0
 11
853.085323
 21
988.411405
 31
0.0
  0
LINE
  5
287
330
1F
100
AcDbEntity
  8
0
  6
CONTINUOUS
 62
     3
100
AcDbLine
 10
803.085323
 20
1017.278919
 30
0.0
 11
852.604376
 21
1045.868757
 31
0.0
  0
LINE
  5
288
330
1F
100
AcDbEntity
  8
0
  6
CONTINUOUS
 62
     3
100
AcDbLine
 10
393.085323
 20
1017.278919
 30
0.0
 11
343.085323
 21
988.411405
 31
0.0
  0
LINE
  5
289
330
1F
100
AcDbEntity
  8
0
  6
CONTINUOUS
 62
     3
100
AcDbLine
 10
393.085323
 20
959.543892
 30
0.0
 11
343.085323
 21
988.411405
 31
0.0
  0
LINE
  5
28A
330
1F
100
AcDbEntity
  8
0
  6
CONTINUOUS
 62
     3
100
AcDbLine
 10
393.085323
 20
1017.278919
 30
0.0
 11
343.56627
 21
1045.868757
 31
0.0
  0
DIMENSION
  5
28B
330
1F
100
AcDbEntity
  8
0
100
AcDbDimension
  2
*D23
 10
853.085323
 20
377.819045
 30
0.0
 11
598.085327
 21
387.819031
 31
0.0
 70
    33
  3
EDDIMINFO
100
AcDbAlignedDimension
 13
343.085323
 23
658.668757
 33
0.0
 14
853.085323
 24
658.668757
 34
0.0
1001
ACAD
1000
DSTYLE
1002
{
1070
     7
1000
EDTIP_ARROW_E
1070
     6
1000
EDTIP_ARROW_S
1070
   173
1070
     1
1002
}
  0
LINE
  5
295
330
1F
100
AcDbEntity
  8
0
  6
CONTINUOUS
 62
     3
100
AcDbLine
 10
1967.985323
 20
1083.868757
 30
0.0
 11
1967.985323
 21
1045.868757
 31
0.0
  0
LINE
  5
296
330
1F
100
AcDbEntity
  8
0
  6
CONTINUOUS
 62
     3
100
AcDbLine
 10
1337.985323
 20
1083.868757
 30
0.0
 11
1337.985323
 21
1045.868757
 31
0.0
  0
LINE
  5
297
330
1F
100
AcDbEntity
  8
0
  6
CONTINUOUS
 62
     3
100
AcDbLine
 10
1967.985323
 20
1083.868757
 30
0.0
 11
1337.985323
 21
1083.868757
 31
0.0
  0
LINE
  5
298
330
1F
100
AcDbEntity
  8
0
  6
CONTINUOUS
 62
     3
100
AcDbLine
 10
1337.985323
 20
1045.868757
 30
0.0
 11
1967.985323
 21
1045.868757
 31
0.0
  0
LINE
  5
299
330
1F
100
AcDbEntity
  8
0
  6
PHANTOM
 62
     5
100
AcDbLine
 10
1967.985323
 20
733.868757
 30
0.0
 11
1967.985323
 21
695.868757
 31
0.0
  0
LINE
  5
29A
330
1F
100
AcDbEntity
  8
0
  6
PHANTOM
 62
     5
100
AcDbLine
 10
1337.985323
 20
733.868757
 30
0.0
 11
1337.985323
 21
695.868757
 31
0.0
  0
LINE
  5
29B
330
1F
100
AcDbEntity
  8
0
  6
PHANTOM
 62
     5
100
AcDbLine
 10
1967.985323
 20
733.868757
 30
0.0
 11
1337.985323
 21
733.868757
 31
0.0
  0
LINE
  5
29C
330
1F
100
AcDbEntity
  8
0
  6
PHANTOM
 62
     5
100
AcDbLine
 10
1337.985323
 20
695.868757
 30
0.0
 11
1967.985323
 21
695.868757
 31
0.0
  0
LINE
  5
29D
330
1F
100
AcDbEntity
  8
0
  6
CONTINUOUS
 62
     5
100
AcDbLine
 10
1436.437679
 20
672.068757
 30
0.0
 11
1410.249301
 21
672.068757
 31
0.0
  0
LINE
  5
29E
330
1F
100
AcDbEntity
  8
0
  6
CONTINUOUS
 62
     5
100
AcDbLine
 10
1818.698233
 20
672.068757
 30
0.0
 11
1789.295696
 21
672.068757
 31
0.0
  0
LINE
  5
29F
330
1F
100
AcDbEntity
  8
0
  6
CONTINUOUS
 62
     3
100
AcDbLine
 10
1962.785323
 20
670.868757
 30
0.0
 11
1342.785323
 21
670.868757
 31
0.0
  0
LINE
  5
2A0
330
1F
100
AcDbEntity
  8
0
  6
CONTINUOUS
 62
     3
100
AcDbLine
 10
1962.785323
 20
670.868757
 30
0.0
 11
1962.785323
 21
667.868757
 31
0.0
  0
LINE
  5
2A1
330
1F
100
AcDbEntity
  8
0
  6
CONTINUOUS
 62
     3
100
AcDbLine
 10
1342.785323
 20
670.868757
 30
0.0
 11
1342.785323
 21
667.868757
 31
0.0
  0
LINE
  5
2A2
330
1F
100
AcDbEntity
  8
0
  6
CONTINUOUS
 62
     3
100
AcDbLine
 10
1912.785323
 20
670.868757
 30
0.0
 11
1962.785323
 21
699.73627
 31
0.0
  0
LINE
  5
2A3
330
1F
100
AcDbEntity
  8
0
  6
CONTINUOUS
 62
     3
100
AcDbLine
 10
1912.785323
 20
728.603784
 30
0.0
 11
1962.785323
 21
757.471297
 31
0.0
  0
LINE
  5
2A4
330
1F
100
AcDbEntity
  8
0
  6
CONTINUOUS
 62
     3
100
AcDbLine
 10
1912.785323
 20
728.603784
 30
0.0
 11
1962.785323
 21
699.73627
 31
0.0
  0
LINE
  5
2A5
330
1F
100
AcDbEntity
  8
0
  6
CONTINUOUS
 62
     3
100
AcDbLine
 10
1912.785323
 20
786.338811
 30
0.0
 11
1962.785323
 21
757.471297
 31
0.0
  0
LINE
  5
2A6
330
1F
100
AcDbEntity
  8
0
  6
CONTINUOUS
 62
     3
100
AcDbLine
 10
1912.785323
 20
844.073838
 30
0.0
 11
1962.785323
 21
815.206324
 31
0.0
  0
LINE
  5
2A7
330
1F
100
AcDbEntity
  8
0
  6
CONTINUOUS
 62
     3
100
AcDbLine
 10
1912.785323
 20
786.338811
 30
0.0
 11
1962.785323
 21
815.206324
 31
0.0
  0
LINE
  5
2A8
330
1F
100
AcDbEntity
  8
0
  6
CONTINUOUS
 62
     3
100
AcDbLine
 10
1912.785323
 20
844.073838
 30
0.0
 11
1962.785323
 21
872.941351
 31
0.0
  0
LINE
  5
2A9
330
1F
100
AcDbEntity
  8
0
  6
CONTINUOUS
 62
     3
100
AcDbLine
 10
1912.785323
 20
901.808865
 30
0.0
 11
1962.785323
 21
872.941351
 31
0.0
  0
LINE
  5
2AA
330
1F
100
AcDbEntity
  8
0
  6
CONTINUOUS
 62
     3
100
AcDbLine
 10
1912.785323
 20
901.808865
 30
0.0
 11
1962.785323
 21
930.676378
 31
0.0
  0
LINE
  5
2AB
330
1F
100
AcDbEntity
  8
0
  6
CONTINUOUS
 62
     3
100
AcDbLine
 10
1912.785323
 20
959.543892
 30
0.0
 11
1962.785323
 21
930.676378
 31
0.0
  0
LINE
  5
2AC
330
1F
100
AcDbEntity
  8
0
  6
CONTINUOUS
 62
     3
100
AcDbLine
 10
1392.785323
 20
901.808865
 30
0.0
 11
1342.785323
 21
930.676378
 31
0.0
  0
LINE
  5
2AD
330
1F
100
AcDbEntity
  8
0
  6
CONTINUOUS
 62
     3
100
AcDbLine
 10
1392.785323
 20
959.543892
 30
0.0
 11
1342.785323
 21
930.676378
 31
0.0
  0
LINE
  5
2AE
330
1F
100
AcDbEntity
  8
0
  6
CONTINUOUS
 62
     3
100
AcDbLine
 10
1392.785323
 20
901.808865
 30
0.0
 11
1342.785323
 21
872.941351
 31
0.0
  0
LINE
  5
2AF
330
1F
100
AcDbEntity
  8
0
  6
CONTINUOUS
 62
     3
100
AcDbLine
 10
1392.785323
 20
844.073838
 30
0.0
 11
1342.785323
 21
872.941351
 31
0.0
  0
LINE
  5
2B0
330
1F
100
AcDbEntity
  8
0
  6
CONTINUOUS
 62
     3
100
AcDbLine
 10
1392.785323
 20
844.073838
 30
0.0
 11
1342.785323
 21
815.206324
 31
0.0
  0
LINE
  5
2B1
330
1F
100
AcDbEntity
  8
0
  6
CONTINUOUS
 62
     5
100
AcDbLine
 10
1158.481915
 20
1153.868757
 30
0.0
 11
1354.230221
 21
821.814039
 31
0.0
  0
INSERT
  5
2B2
330
1F
100
AcDbEntity
  8
0
  6
CONTINUOUS
 62
     5
100
AcDbBlockReference
  2
EDTIP_ARROW_E
 10
1354.230221
 20
821.814039
 30
0.0
 41
30.0
 42
30.0
 50
300.519612
  0
LINE
  5
2B3
330
1F
100
AcDbEntity
  8
0
  6
CONTINUOUS
 62
     3
100
AcDbLine
 10
1392.785323
 20
786.338811
 30
0.0
 11
1342.785323
 21
757.471297
 31
0.0
  0
LINE
  5
2B4
330
1F
100
AcDbEntity
  8
0
  6
CONTINUOUS
 62
     3
100
AcDbLine
 10
1392.785323
 20
786.338811
 30
0.0
 11
1342.785323
 21
815.206324
 31
0.0
  0
LINE
  5
2B5
330
1F
100
AcDbEntity
  8
0
  6
CONTINUOUS
 62
     3
100
AcDbLine
 10
1392.785323
 20
728.603784
 30
0.0
 11
1342.785323
 21
757.471297
 31
0.0
  0
LINE
  5
2B6
330
1F
100
AcDbEntity
  8
0
  6
CONTINUOUS
 62
     3
100
AcDbLine
 10
1392.785323
 20
728.603784
 30
0.0
 11
1342.785323
 21
699.73627
 31
0.0
  0
LINE
  5
2B7
330
1F
100
AcDbEntity
  8
0
  6
CONTINUOUS
 62
     3
100
AcDbLine
 10
1392.785323
 20
670.868757
 30
0.0
 11
1342.785323
 21
699.73627
 31
0.0
  0
LINE
  5
2B8
330
1F
100
AcDbEntity
  8
0
  6
CONTINUOUS
 62
     3
100
AcDbLine
 10
1912.785323
 20
959.543892
 30
0.0
 11
1962.785323
 21
988.411405
 31
0.0
  0
LINE
  5
2B9
330
1F
100
AcDbEntity
  8
0
  6
CONTINUOUS
 62
     3
100
AcDbLine
 10
1912.785323
 20
1017.278919
 30
0.0
 11
1962.785323
 21
988.411405
 31
0.0
  0
LINE
  5
2BA
330
1F
100
AcDbEntity
  8
0
  6
CONTINUOUS
 62
     3
100
AcDbLine
 10
1912.785323
 20
1017.278919
 30
0.0
 11
1962.785323
 21
1046.146432
 31
0.0
  0
LINE
  5
2BB
330
1F
100
AcDbEntity
  8
0
  6
CONTINUOUS
 62
     3
100
AcDbLine
 10
1392.785323
 20
1017.278919
 30
0.0
 11
1342.785323
 21
1046.146432
 31
0.0
  0
LINE
  5
2BC
330
1F
100
AcDbEntity
  8
0
  6
CONTINUOUS
 62
     3
100
AcDbLine
 10
1392.785323
 20
1017.278919
 30
0.0
 11
1342.785323
 21
988.411405
 31
0.0
  0
LINE
  5
2BD
330
1F
100
AcDbEntity
  8
0
  6
CONTINUOUS
 62
     3
100
AcDbLine
 10
1392.785323
 20
959.543892
 30
0.0
 11
1342.785323
 21
988.411405
 31
0.0
  0
DIMENSION
  5
2BE
330
1F
100
AcDbEntity
  8
0
100
AcDbDimension
  2
*D24
 10
1962.785323
 20
376.148334
 30
0.0
 11
1652.785278
 21
386.148346
 31
0.0
 70
    33
  3
EDDIMINFO
100
AcDbAlignedDimension
 13
1342.785323
 23
658.668757
 33
0.0
 14
1962.785323
 24
658.668757
 34
0.0
1001
ACAD
1000
DSTYLE
1002
{
1070
     7
1000
EDTIP_ARROW_E
1070
     6
1000
EDTIP_ARROW_S
1070
   173
1070
     1
1002
}
  0
TEXT
  5
2C8
330
1F
100
AcDbEntity
  8
0
  6
CONTINUOUS
 62
     5
100
AcDbText
 10
873.217712
 20
1159.78894
 30
0.0
 40
40.0
  1
４面ジャバラ
 41
0.8
  7
ED_VECTOR
100
AcDbText
  0
LINE
  5
2C9
330
1F
100
AcDbEntity
  8
0
  6
CONTINUOUS
 62
     5
100
AcDbLine
 10
1158.481915
 20
1153.868757
 30
0.0
 11
917.127957
 21
1153.868757
 31
0.0
  0
LINE
  5
2CA
330
1F
100
AcDbEntity
  8
0
  6
CONTINUOUS
 62
     3
100
AcDbLine
 10
1962.785323
 20
667.868757
 30
0.0
 11
1342.785323
 21
667.868757
 31
0.0
  0
LINE
  5
2CB
330
1F
100
AcDbEntity
  8
0
  6
CONTINUOUS
 62
     3
100
AcDbLine
 10
853.085323
 20
667.868757
 30
0.0
 11
798.085323
 21
667.868757
 31
0.0
  0
LINE
  5
2CC
330
1F
100
AcDbEntity
  8
0
  6
CONTINUOUS
 62
     3
100
AcDbLine
 10
398.085323
 20
667.868757
 30
0.0
 11
343.085323
 21
667.868757
 31
0.0
  0
LINE
  5
2CD
330
1F
100
AcDbEntity
  8
LAYER002
  6
CONTINUOUS
 62
     3
100
AcDbLine
 10
158.824201
 20
121.442922
 30
0.0
 11
158.824201
 21
2471.080752
 31
0.0
  0
LINE
  5
2CE
330
1F
100
AcDbEntity
  8
LAYER002
  6
CONTINUOUS
 62
     3
100
AcDbLine
 10
3479.360628
 20
2471.080752
 30
0.0
 11
158.824201
 21
2471.080752
 31
0.0
  0
LINE
  5
2CF
330
1F
100
AcDbEntity
  8
LAYER002
  6
CONTINUOUS
 62
     3
100
AcDbLine
 10
3479.360628
 20
121.442922
 30
0.0
 11
3479.360628
 21
2471.080752
 31
0.0
  0
LINE
  5
2D0
330
1F
100
AcDbEntity
  8
LAYER003
  6
CONTINUOUS
 62
     3
100
AcDbLine
 10
158.824201
 20
233.942922
 30
0.0
 11
3479.360628
 21
233.942922
 31
0.0
  0
LINE
  5
2D1
330
1F
100
AcDbEntity
  8
LAYER003
  6
CONTINUOUS
 62
     3
100
AcDbLine
 10
158.824201
 20
234.442922
 30
0.0
 11
3479.360628
 21
234.442922
 31
0.0
  0
LINE
  5
2D2
330
1F
100
AcDbEntity
  8
LAYER003
  6
CONTINUOUS
 62
     3
100
AcDbLine
 10
158.824201
 20
232.942922
 30
0.0
 11
3479.360628
 21
232.942922
 31
0.0
  0
LINE
  5
2D3
330
1F
100
AcDbEntity
  8
LAYER003
  6
CONTINUOUS
 62
     3
100
AcDbLine
 10
158.824201
 20
232.442922
 30
0.0
 11
3479.360628
 21
232.442922
 31
0.0
  0
LINE
  5
2D4
330
1F
100
AcDbEntity
  8
LAYER003
  6
CONTINUOUS
 62
     3
100
AcDbLine
 10
158.824201
 20
2471.080752
 30
0.0
 11
158.824201
 21
121.442922
 31
0.0
  0
LINE
  5
2D5
330
1F
100
AcDbEntity
  8
LAYER003
  6
CONTINUOUS
 62
     3
100
AcDbLine
 10
158.324201
 20
2471.580752
 30
0.0
 11
158.324201
 21
120.942922
 31
0.0
  0
LINE
  5
2D6
330
1F
100
AcDbEntity
  8
LAYER003
  6
CONTINUOUS
 62
     3
100
AcDbLine
 10
158.324201
 20
120.942922
 30
0.0
 11
3479.860628
 21
120.942922
 31
0.0
  0
LINE
  5
2D7
330
1F
100
AcDbEntity
  8
LAYER003
  6
CONTINUOUS
 62
     3
100
AcDbLine
 10
3479.860628
 20
120.942922
 30
0.0
 11
3479.860628
 21
2471.580752
 31
0.0
  0
LINE
  5
2D8
330
1F
100
AcDbEntity
  8
LAYER003
  6
CONTINUOUS
 62
     3
100
AcDbLine
 10
3479.860628
 20
2471.580752
 30
0.0
 11
158.324201
 21
2471.580752
 31
0.0
  0
LINE
  5
2D9
330
1F
100
AcDbEntity
  8
LAYER003
  6
CONTINUOUS
 62
     3
100
AcDbLine
 10
157.824201
 20
2472.080752
 30
0.0
 11
157.824201
 21
120.442922
 31
0.0
  0
LINE
  5
2DA
330
1F
100
AcDbEntity
  8
LAYER003
  6
CONTINUOUS
 62
     3
100
AcDbLine
 10
157.824201
 20
120.442922
 30
0.0
 11
3480.360628
 21
120.442922
 31
0.0
  0
LINE
  5
2DB
330
1F
100
AcDbEntity
  8
LAYER003
  6
CONTINUOUS
 62
     3
100
AcDbLine
 10
3480.360628
 20
120.442922
 30
0.0
 11
3480.360628
 21
2472.080752
 31
0.0
  0
LINE
  5
2DC
330
1F
100
AcDbEntity
  8
LAYER003
  6
CONTINUOUS
 62
     3
100
AcDbLine
 10
3480.360628
 20
2472.080752
 30
0.0
 11
157.824201
 21
2472.080752
 31
0.0
  0
LINE
  5
2DD
330
1F
100
AcDbEntity
  8
LAYER003
  6
CONTINUOUS
 62
     3
100
AcDbLine
 10
157.324201
 20
2472.580752
 30
0.0
 11
157.324201
 21
119.942922
 31
0.0
  0
LINE
  5
2DE
330
1F
100
AcDbEntity
  8
LAYER003
  6
CONTINUOUS
 62
     3
100
AcDbLine
 10
157.324201
 20
119.942922
 30
0.0
 11
3480.860628
 21
119.942922
 31
0.0
  0
LINE
  5
2DF
330
1F
100
AcDbEntity
  8
LAYER003
  6
CONTINUOUS
 62
     3
100
AcDbLine
 10
3480.860628
 20
119.942922
 30
0.0
 11
3480.860628
 21
2472.580752
 31
0.0
  0
LINE
  5
2E0
330
1F
100
AcDbEntity
  8
LAYER003
  6
CONTINUOUS
 62
     3
100
AcDbLine
 10
3480.860628
 20
2472.580752
 30
0.0
 11
157.324201
 21
2472.580752
 31
0.0
  0
LINE
  5
2E1
330
1F
100
AcDbEntity
  8
LAYER003
  6
CONTINUOUS
 62
     3
100
AcDbLine
 10
156.824201
 20
2473.080752
 30
0.0
 11
156.824201
 21
119.442922
 31
0.0
  0
LINE
  5
2E2
330
1F
100
AcDbEntity
  8
LAYER003
  6
CONTINUOUS
 62
     3
100
AcDbLine
 10
156.824201
 20
119.442922
 30
0.0
 11
3481.360628
 21
119.442922
 31
0.0
  0
LINE
  5
2E3
330
1F
100
AcDbEntity
  8
LAYER003
  6
CONTINUOUS
 62
     3
100
AcDbLine
 10
3481.360628
 20
119.442922
 30
0.0
 11
3481.360628
 21
2473.080752
 31
0.0
  0
LINE
  5
2E4
330
1F
100
AcDbEntity
  8
LAYER003
  6
CONTINUOUS
 62
     3
100
AcDbLine
 10
3481.360628
 20
2473.080752
 30
0.0
 11
156.824201
 21
2473.080752
 31
0.0
  0
LINE
  5
2E5
330
1F
100
AcDbEntity
  8
LAYER003
  6
CONTINUOUS
 62
     3
100
AcDbLine
 10
3479.360628
 20
121.442922
 30
0.0
 11
3479.360628
 21
2471.080752
 31
0.0
  0
LINE
  5
2E6
330
1F
100
AcDbEntity
  8
LAYER003
  6
CONTINUOUS
 62
     3
100
AcDbLine
 10
158.824201
 20
121.442922
 30
0.0
 11
3479.360628
 21
121.442922
 31
0.0
  0
LINE
  5
2E7
330
1F
100
AcDbEntity
  8
LAYER003
  6
CONTINUOUS
 62
     3
100
AcDbLine
 10
158.824201
 20
2471.080752
 30
0.0
 11
3479.360628
 21
2471.080752
 31
0.0
  0
LINE
  5
2E8
330
1F
100
AcDbEntity
  8
LAYER003
  6
CONTINUOUS
 62
     3
100
AcDbLine
 10
158.824201
 20
233.442922
 30
0.0
 11
3479.360628
 21
233.442922
 31
0.0
  0
TEXT
  5
2E9
330
1F
100
AcDbEntity
  8
0
  6
CONTINUOUS
 62
     5
100
AcDbText
 10
830.906494
 20
1113.630005
 30
0.0
 40
30.0
  1
ポリエステル地に樹脂コーティング
 41
0.666667
  7
ED_VECTOR
100
AcDbText
  0
LINE
  5
2EA
330
1F
100
AcDbEntity
  8
0
  6
CONTINUOUS
 62
     5
100
AcDbLine
 10
917.127957
 20
1153.868757
 30
0.0
 11
810.509106
 21
1153.868757
 31
0.0
  0
LINE
  5
2EB
330
1F
100
AcDbEntity
  8
0
  6
CONTINUOUS
 62
     5
100
AcDbLine
 10
3402.3185
 20
1579.691853
 30
0.0
 11
2681.445983
 21
1579.691853
 31
0.0
  0
TEXT
  5
2EC
330
1F
100
AcDbEntity
  8
0
  6
CONTINUOUS
 62
     5
100
AcDbText
 10
2696.721191
 20
1591.535278
 30
0.0
 40
40.0
  1
制御方式
 41
0.8
  7
ED_VECTOR
100
AcDbText
  0
TEXT
  5
2ED
330
1F
100
AcDbEntity
  8
0
  6
CONTINUOUS
 62
     5
100
AcDbText
 10
3026.086426
 20
1591.535278
 30
0.0
 40
40.0
  1
ベクトル制御
 41
0.8
  7
ED_VECTOR
100
AcDbText
  0
TEXT
  5
2EE
330
1F
100
AcDbEntity
  8
0
  6
CONTINUOUS
 62
     5
100
AcDbText
 10
3005.719971
 20
1079.233765
 30
0.0
 40
40.0
  1
　１０Ｒ４／１３
 41
0.8
  7
ED_VECTOR
100
AcDbText
  0
TEXT
  5
2EF
330
1F
100
AcDbEntity
  8
0
  6
CONTINUOUS
 62
     5
100
AcDbText
 10
2691.487305
 20
1080.535645
 30
0.0
 40
40.0
  1
塗装色(マンセル値)　
 41
0.625
  7
ED_VECTOR
100
AcDbText
  0
LINE
  5
2F0
330
1F
100
AcDbEntity
  8
0
  6
CONTINUOUS
 62
     5
100
AcDbLine
 10
3402.3185
 20
1067.691866
 30
0.0
 11
2681.445983
 21
1067.691866
 31
0.0
  0
LINE
  5
2F1
330
1F
100
AcDbEntity
  8
0
  6
CONTINUOUS
 62
     5
100
AcDbLine
 10
2679.360628
 20
561.442922
 30
0.0
 11
3479.360628
 21
561.442922
 31
0.0
  0
LINE
  5
2F2
330
1F
100
AcDbEntity
  8
0
  6
CONTINUOUS
 62
     5
100
AcDbLine
 10
2679.360628
 20
201.442922
 30
0.0
 11
3479.360628
 21
201.442922
 31
0.0
  0
LINE
  5
2F3
330
1F
100
AcDbEntity
  8
0
  6
CONTINUOUS
 62
     5
100
AcDbLine
 10
2679.360628
 20
361.442922
 30
0.0
 11
3479.360628
 21
361.442922
 31
0.0
  0
LINE
  5
2F4
330
1F
100
AcDbEntity
  8
0
  6
CONTINUOUS
 62
     5
100
AcDbLine
 10
2679.360628
 20
421.442922
 30
0.0
 11
3479.360628
 21
421.442922
 31
0.0
  0
LINE
  5
2F5
330
1F
100
AcDbEntity
  8
0
  6
CONTINUOUS
 62
     5
100
AcDbLine
 10
2679.360628
 20
481.442922
 30
0.0
 11
3479.360628
 21
481.442922
 31
0.0
  0
LINE
  5
2F6
330
1F
100
AcDbEntity
  8
0
  6
CONTINUOUS
 62
     5
100
AcDbLine
 10
2679.360628
 20
641.442922
 30
0.0
 11
3479.360628
 21
641.442922
 31
0.0
  0
LINE
  5
2F7
330
1F
100
AcDbEntity
  8
0
  6
CONTINUOUS
 62
     5
100
AcDbLine
 10
2679.360628
 20
721.442922
 30
0.0
 11
2679.360628
 21
121.442922
 31
0.0
  0
LINE
  5
2F8
330
1F
100
AcDbEntity
  8
0
  6
CONTINUOUS
 62
     5
100
AcDbLine
 10
2879.360628
 20
721.442922
 30
0.0
 11
2879.360628
 21
481.442922
 31
0.0
  0
LINE
  5
2F9
330
1F
100
AcDbEntity
  8
0
  6
CONTINUOUS
 62
     5
100
AcDbLine
 10
2679.360628
 20
721.442922
 30
0.0
 11
3479.360628
 21
721.442922
 31
0.0
  0
LINE
  5
2FA
330
1F
100
AcDbEntity
  8
0
  6
CONTINUOUS
 62
     5
100
AcDbLine
 10
3179.360628
 20
481.442922
 30
0.0
 11
3179.360628
 21
201.442922
 31
0.0
  0
TEXT
  5
2FB
330
1F
100
AcDbEntity
  8
0
  6
CONTINUOUS
 62
     3
100
AcDbText
 10
2899.051815
 20
130.00565
 30
0.0
 40
59.380363
  1
東正車輌株式会社
 41
0.788955
  7
ED_VECTOR
100
AcDbText
  0
LINE
  5
2FC
330
1F
100
AcDbEntity
  8
0
  6
CONTINUOUS
 62
     5
100
AcDbLine
 10
2929.360628
 20
421.442922
 30
0.0
 11
2929.360628
 21
201.442922
 31
0.0
  0
TEXT
  5
2FD
330
1F
100
AcDbEntity
  8
0
  6
CONTINUOUS
 62
     5
100
AcDbText
 10
2709.360596
 20
656.442871
 30
0.0
 40
50.0
  1
品　名
 41
0.8
  7
ED_VECTOR
100
AcDbText
  0
TEXT
  5
2FE
330
1F
100
AcDbEntity
  8
0
  6
CONTINUOUS
 62
     5
100
AcDbText
 10
2709.360596
 20
576.442871
 30
0.0
 40
50.0
  1
型　式
 41
0.8
  7
ED_VECTOR
100
AcDbText
  0
TEXT
  5
2FF
330
1F
100
AcDbEntity
  8
0
  6
CONTINUOUS
 62
     5
100
AcDbText
 10
2684.360596
 20
496.442932
 30
0.0
 40
50.0
  1
図面番号
 41
0.8
  7
ED_VECTOR
100
AcDbText
  0
TEXT
  5
300
330
1F
100
AcDbEntity
  8
0
  6
CONTINUOUS
 62
     5
100
AcDbText
 10
3259.360596
 20
426.442963
 30
0.0
 40
50.0
  1
Ｂ－４
 41
0.8
  7
ED_VECTOR
100
AcDbText
  0
TEXT
  5
301
330
1F
100
AcDbEntity
  8
0
  6
CONTINUOUS
 62
     5
100
AcDbText
 10
2734.360596
 20
366.442963
 30
0.0
 40
50.0
  1
検　図
 41
0.8
  7
ED_VECTOR
100
AcDbText
  0
TEXT
  5
302
330
1F
100
AcDbEntity
  8
0
  6
CONTINUOUS
 62
     5
100
AcDbText
 10
2984.360596
 20
366.442963
 30
0.0
 40
50.0
  1
作　図
 41
0.8
  7
ED_VECTOR
100
AcDbText
  0
TEXT
  5
303
330
1F
100
AcDbEntity
  8
0
  6
CONTINUOUS
 62
     5
100
AcDbText
 10
3259.360596
 20
366.442963
 30
0.0
 40
50.0
  1
尺　度
 41
0.8
  7
ED_VECTOR
100
AcDbText
  0
TEXT
  5
304
330
1F
100
AcDbEntity
  8
0
  6
CONTINUOUS
 62
     5
100
AcDbText
 10
3360.099365
 20
215.928192
 30
0.0
 40
50.0
  1
１０
 41
0.8
  7
ED_VECTOR
100
AcDbText
  0
TEXT
  5
305
330
1F
100
AcDbEntity
  8
0
  6
CONTINUOUS
 62
     5
100
AcDbText
 10
3339.779785
 20
263.632904
 30
0.0
 40
50.0
  1
／
 41
0.8
  7
ED_VECTOR
100
AcDbText
  0
TEXT
  5
306
330
1F
100
AcDbEntity
  8
0
  6
CONTINUOUS
 62
     5
100
AcDbText
 10
3309.566895
 20
298.616364
 30
0.0
 40
50.0
  1
１
 41
0.8
  7
ED_VECTOR
100
AcDbText
  0
TEXT
  5
307
330
1F
100
AcDbEntity
  8
0
  6
CONTINUOUS
 62
     3
100
AcDbText
 10
3019.360596
 20
656.442871
 30
0.0
 40
50.0
  1
ゴールドリフター
 41
0.8
  7
ED_VECTOR
100
AcDbText
  0
INSERT
  5
30B
330
1F
100
AcDbEntity
  8
0
100
AcDbBlockReference
  2
BLKF028
 10
0.0
 20
0.0
 30
0.0
  0
LINE
  5
3BD
330
1F
100
AcDbEntity
  8
0
  6
CONTINUOUS
 62
     5
100
AcDbLine
 10
2679.360628
 20
121.442922
 30
0.0
 11
3479.360628
 21
121.442922
 31
0.0
  0
LINE
  5
3BE
330
1F
100
AcDbEntity
  8
LAYER002
  6
CONTINUOUS
 62
     3
100
AcDbLine
 10
3479.360628
 20
121.442922
 30
0.0
 11
158.824201
 21
121.442922
 31
0.0
  0
TEXT
  5
3BF
330
1F
100
AcDbEntity
  8
0
  6
CONTINUOUS
 62
     5
100
AcDbText
 10
2769.151855
 20
1272.014282
 30
0.0
 40
40.0
  1
上昇端・下降端リードスイッチ付
 41
0.8
  7
ED_VECTOR
100
AcDbText
  0
TEXT
  5
3C0
330
1F
100
AcDbEntity
  8
0
  6
CONTINUOUS
 62
     3
100
AcDbText
 10
3009.360596
 20
256.442963
 30
0.0
 40
50.0
  1
秋元
 41
0.8
  7
ED_VECTOR
100
AcDbText
  0
TEXT
  5
3C1
330
1F
100
AcDbEntity
  8
0
  6
CONTINUOUS
 62
     3
100
AcDbText
 10
2926.852051
 20
2228.543701
 30
0.0
 40
40.0
  1
GLL-100-56VTJ-100
 41
0.75
  7
ED_VECTOR
100
AcDbText
  0
TEXT
  5
3C2
330
1F
100
AcDbEntity
  8
0
  6
CONTINUOUS
 62
     5
100
AcDbText
 10
3170.93335
 20
2168.054688
 30
0.0
 40
40.0
  1
100
 41
0.8
  7
ED_VECTOR
100
AcDbText
  0
TEXT
  5
3C3
330
1F
100
AcDbEntity
  8
0
  6
CONTINUOUS
 62
     5
100
AcDbText
 10
3025.130859
 20
1400.128418
 30
0.0
 40
40.0
  1
約　 5　秒
 41
0.8
  7
ED_VECTOR
100
AcDbText
  0
TEXT
  5
3C4
330
1F
100
AcDbEntity
  8
0
  6
CONTINUOUS
 62
     5
100
AcDbText
 10
3022.992432
 20
1336.128418
 30
0.0
 40
40.0
  1
約　 5　秒
 41
0.8
  7
ED_VECTOR
100
AcDbText
  0
TEXT
  5
3C5
330
1F
100
AcDbEntity
  8
0
  6
CONTINUOUS
 62
     3
100
AcDbText
 10
2899.360596
 20
576.442871
 30
0.0
 40
50.0
  1
GLL-100-56VTJ-100
 41
0.6
  7
ED_VECTOR
100
AcDbText
  0
TEXT
  5
3C6
330
1F
100
AcDbEntity
  8
0
  6
CONTINUOUS
 62
     5
100
AcDbText
 10
2729.360596
 20
426.442963
 30
0.0
 40
50.0
  1
令和 3年 1月26日
 41
0.8
  7
ED_VECTOR
100
AcDbText
  0
ENDSEC
  0
SECTION
  2
OBJECTS
  0
DICTIONARY
  5
C
330
0
100
AcDbDictionary
  3
ACAD_GROUP
350
D
  3
ACAD_LAYOUT
350
1A
  3
ACAD_MATERIAL
350
43
  3
ACAD_MLEADERSTYLE
350
6B
  3
ACAD_MLINESTYLE
350
17
  3
ACAD_PLOTSETTINGS
350
19
  3
ACAD_SCALELIST
350
47
  3
ACAD_VISUALSTYLE
350
2A
  3
ACDBVARIABLEDICTIONARY
350
3C7
1001
ACAD
1000
TREAT_AS_HARD
1070
     0
  0
DICTIONARY
  5
D
102
{ACAD_REACTORS
330
C
102
}
330
C
100
AcDbDictionary
1001
ACAD
1000
TREAT_AS_HARD
1070
     0
  0
DICTIONARY
  5
1A
102
{ACAD_REACTORS
330
C
102
}
330
C
100
AcDbDictionary
1001
ACAD
1000
TREAT_AS_HARD
1070
     0
  0
DICTIONARY
  5
43
102
{ACAD_REACTORS
330
C
102
}
330
C
100
AcDbDictionary
  3
BYBLOCK
350
45
  3
BYLAYER
350
44
  3
GLOBAL
350
46
1001
ACAD
1000
TREAT_AS_HARD
1070
     0
  0
DICTIONARY
  5
6B
102
{ACAD_REACTORS
330
C
102
}
330
C
100
AcDbDictionary
  3
STANDARD
350
6C
1001
ACAD
1000
TREAT_AS_HARD
1070
     0
  0
DICTIONARY
  5
17
102
{ACAD_REACTORS
330
C
102
}
330
C
100
AcDbDictionary
  3
STANDARD
350
18
1001
ACAD
1000
TREAT_AS_HARD
1070
     0
  0
DICTIONARY
  5
19
102
{ACAD_REACTORS
330
C
102
}
330
C
100
AcDbDictionary
1001
ACAD
1000
TREAT_AS_HARD
1070
     0
  0
DICTIONARY
  5
47
102
{ACAD_REACTORS
330
C
102
}
330
C
100
AcDbDictionary
  3
A0
350
48
  3
A1
350
49
  3
A2
350
4A
  3
A3
350
4B
  3
A4
350
4C
  3
A5
350
4D
  3
A6
350
4E
  3
A7
350
4F
  3
A8
350
50
  3
A9
350
51
  3
B0
350
52
  3
B1
350
53
  3
B2
350
54
  3
B3
350
55
  3
B4
350
56
  3
B5
350
57
  3
B6
350
58
  3
B7
350
59
  3
B8
350
5A
  3
B9
350
5B
  3
C0
350
5C
  3
C1
350
5D
  3
C2
350
5E
  3
C3
350
5F
  3
C4
350
60
  3
C5
350
61
  3
C6
350
62
  3
C7
350
63
  3
C8
350
64
  3
C9
350
65
  3
D0
350
66
  3
D1
350
67
  3
D2
350
68
1001
ACAD
1000
TREAT_AS_HARD
1070
     0
  0
DICTIONARY
  5
2A
102
{ACAD_REACTORS
330
C
102
}
330
C
100
AcDbDictionary
  3
2DWIREFRAME
350
2F
  3
BASIC
350
32
  3
BRIGHTEN
350
36
  3
COLORCHANGE
350
3A
  3
CONCEPTUAL
350
34
  3
DIM
350
35
  3
EDGECOLOROFF
350
3D
  3
FACEPATTERN
350
39
  3
FLAT
350
2B
  3
FLATWITHEDGES
350
2C
  3
GOURAUD
350
2D
  3
GOURAUDWITHEDGES
350
2E
  3
HIDDEN
350
31
  3
JITTEROFF
350
3B
  3
LINEPATTERN
350
38
  3
OVERHANGOFF
350
3C
  3
REALISTIC
350
33
  3
SHADED
350
42
  3
SHADED_WITH_EDGES
350
41
  3
SHADES_OF_GRAY
350
3E
  3
SKETCHY
350
3F
  3
THICKEN
350
37
  3
WIREFRAME
350
30
  3
X-RAY
350
40
1001
ACAD
1000
TREAT_AS_HARD
1070
     0
  0
DICTIONARY
  5
3C7
102
{ACAD_REACTORS
330
C
102
}
330
C
100
AcDbDictionary
  3
CANNOSCALE
350
3D2
  3
CENTEREXE
350
3CE
  3
CENTERLTYPEFILE
350
3CF
  3
CMLEADERSTYLE
350
3C9
  3
CTABLESTYLE
350
3C8
  3
DIMASSOC
350
3D0
  3
HIDETEXT
350
3D1
  3
MSLTSCALE
350
3D3
  3
PSOLHEIGHT
350
3CB
  3
PSOLWIDTH
350
3CA
1001
ACAD
1000
TREAT_AS_HARD
1070
     0
  0
MATERIAL
  5
45
102
{ACAD_REACTORS
330
43
102
}
102
{ACAD_XDICTIONARY
360
3D6
102
}
330
43
100
AcDbMaterial
  1
BYBLOCK
  0
MATERIAL
  5
44
102
{ACAD_REACTORS
330
43
102
}
102
{ACAD_XDICTIONARY
360
3D4
102
}
330
43
100
AcDbMaterial
  1
BYLAYER
  0
MATERIAL
  5
46
102
{ACAD_REACTORS
330
43
102
}
102
{ACAD_XDICTIONARY
360
3D8
102
}
330
43
100
AcDbMaterial
  1
GLOBAL
  0
ACAD_PROXY_OBJECT
  5
6C
102
{ACAD_REACTORS
330
6B
102
}
330
6B
100
AcDbZombieObject
 90
      499
 91
      505
 93
      610
310
40901902A4063FBFFFFFE0000000000000020400000000000020404214DD185B99185C990000000000000104090141901A00000000000004100000000000000041025764000000000000039000
340
14
340
0
340
11
340
0
 94
        0
1001
ACAD_MLEADERVER
1070
     2
  0
MLINESTYLE
  5
18
102
{ACAD_REACTORS
330
17
102
}
330
17
100
AcDbMlineStyle
  2
Standard
 70
     0
  3

 62
   256
 51
90.0
 52
90.0
 71
     2
 49
0.5
 62
   256
  6
BYLAYER
 49
-0.5
 62
   256
  6
BYLAYER
  0
ACAD_PROXY_OBJECT
  5
48
102
{ACAD_REACTORS
330
47
102
}
330
47
100
AcDbZombieObject
 90
      499
 91
      503
 93
       41
310
903313A31580
  0
ACAD_PROXY_OBJECT
  5
49
102
{ACAD_REACTORS
330
47
102
}
330
47
100
AcDbZombieObject
 90
      499
 91
      503
 93
      105
310
903313A324000000000000004000
  0
ACAD_PROXY_OBJECT
  5
4A
102
{ACAD_REACTORS
330
47
102
}
330
47
100
AcDbZombieObject
 90
      499
 91
      503
 93
      105
310
903313A344000000000000104000
  0
ACAD_PROXY_OBJECT
  5
4B
102
{ACAD_REACTORS
330
47
102
}
330
47
100
AcDbZombieObject
 90
      499
 91
      503
 93
      105
310
903313A354000000000000144000
  0
ACAD_PROXY_OBJECT
  5
4C
102
{ACAD_REACTORS
330
47
102
}
330
47
100
AcDbZombieObject
 90
      499
 91
      503
 93
      105
310
903313A384000000000000204000
  0
ACAD_PROXY_OBJECT
  5
4D
102
{ACAD_REACTORS
330
47
102
}
330
47
100
AcDbZombieObject
 90
      499
 91
      503
 93
      113
310
904313A31304000000000000244000
  0
ACAD_PROXY_OBJECT
  5
4E
102
{ACAD_REACTORS
330
47
102
}
330
47
100
AcDbZombieObject
 90
      499
 91
      503
 93
      113
310
904313A31364000000000000304000
  0
ACAD_PROXY_OBJECT
  5
4F
102
{ACAD_REACTORS
330
47
102
}
330
47
100
AcDbZombieObject
 90
      499
 91
      503
 93
      113
310
904313A32304000000000000344000
  0
ACAD_PROXY_OBJECT
  5
50
102
{ACAD_REACTORS
330
47
102
}
330
47
100
AcDbZombieObject
 90
      499
 91
      503
 93
      113
310
904313A333040000000000003E4000
  0
ACAD_PROXY_OBJECT
  5
51
102
{ACAD_REACTORS
330
47
102
}
330
47
100
AcDbZombieObject
 90
      499
 91
      503
 93
      113
310
904313A34304000000000000444000
  0
ACAD_PROXY_OBJECT
  5
52
102
{ACAD_REACTORS
330
47
102
}
330
47
100
AcDbZombieObject
 90
      499
 91
      503
 93
      113
310
904313A35304000000000000494000
  0
ACAD_PROXY_OBJECT
  5
53
102
{ACAD_REACTORS
330
47
102
}
330
47
100
AcDbZombieObject
 90
      499
 91
      503
 93
      121
310
905313A3130304000000000000594000
  0
ACAD_PROXY_OBJECT
  5
54
102
{ACAD_REACTORS
330
47
102
}
330
47
100
AcDbZombieObject
 90
      499
 91
      503
 93
      105
310
903323A310000000000000010100
  0
ACAD_PROXY_OBJECT
  5
55
102
{ACAD_REACTORS
330
47
102
}
330
47
100
AcDbZombieObject
 90
      499
 91
      503
 93
      105
310
903343A310000000000000410100
  0
ACAD_PROXY_OBJECT
  5
56
102
{ACAD_REACTORS
330
47
102
}
330
47
100
AcDbZombieObject
 90
      499
 91
      503
 93
      105
310
903383A310000000000000810100
  0
ACAD_PROXY_OBJECT
  5
57
102
{ACAD_REACTORS
330
47
102
}
330
47
100
AcDbZombieObject
 90
      499
 91
      503
 93
      113
310
90431303A310000000000000910100
  0
ACAD_PROXY_OBJECT
  5
58
102
{ACAD_REACTORS
330
47
102
}
330
47
100
AcDbZombieObject
 90
      499
 91
      503
 93
      121
310
9053130303A310000000000001650100
  0
ACAD_PROXY_OBJECT
  5
59
102
{ACAD_REACTORS
330
47
102
}
330
47
100
AcDbZombieObject
 90
      499
 91
      503
 93
      257
310
90E312F31323822203D2031272D3022000000000000200FC000000000000284000
  0
ACAD_PROXY_OBJECT
  5
5A
102
{ACAD_REACTORS
330
47
102
}
330
47
100
AcDbZombieObject
 90
      499
 91
      503
 93
      249
310
90D312F363422203D2031272D3022000000000000240FC000000000000284000
  0
ACAD_PROXY_OBJECT
  5
5B
102
{ACAD_REACTORS
330
47
102
}
330
47
100
AcDbZombieObject
 90
      499
 91
      503
 93
      249
310
90D312F333222203D2031272D3022000000000000280FC000000000000284000
  0
ACAD_PROXY_OBJECT
  5
5C
102
{ACAD_REACTORS
330
47
102
}
330
47
100
AcDbZombieObject
 90
      499
 91
      503
 93
      249
310
90D312F313622203D2031272D30220000000000002C0FC000000000000284000
  0
ACAD_PROXY_OBJECT
  5
5D
102
{ACAD_REACTORS
330
47
102
}
330
47
100
AcDbZombieObject
 90
      499
 91
      503
 93
      249
310
90D332F333222203D2031272D30220000000000002E0FC000000000000284000
  0
ACAD_PROXY_OBJECT
  5
5E
102
{ACAD_REACTORS
330
47
102
}
330
47
100
AcDbZombieObject
 90
      499
 91
      503
 93
      241
310
90C312F3822203D2031272D3022000000000000300FC000000000000284000
  0
ACAD_PROXY_OBJECT
  5
5F
102
{ACAD_REACTORS
330
47
102
}
330
47
100
AcDbZombieObject
 90
      499
 91
      503
 93
      249
310
90D332F313622203D2031272D3022000000000000320FC000000000000284000
  0
ACAD_PROXY_OBJECT
  5
60
102
{ACAD_REACTORS
330
47
102
}
330
47
100
AcDbZombieObject
 90
      499
 91
      503
 93
      241
310
90C312F3422203D2031272D3022000000000000340FC000000000000284000
  0
ACAD_PROXY_OBJECT
  5
61
102
{ACAD_REACTORS
330
47
102
}
330
47
100
AcDbZombieObject
 90
      499
 91
      503
 93
      241
310
90C332F3822203D2031272D3022000000000000360FC000000000000284000
  0
ACAD_PROXY_OBJECT
  5
62
102
{ACAD_REACTORS
330
47
102
}
330
47
100
AcDbZombieObject
 90
      499
 91
      503
 93
      241
310
90C312F3222203D2031272D3022000000000000380FC000000000000284000
  0
ACAD_PROXY_OBJECT
  5
63
102
{ACAD_REACTORS
330
47
102
}
330
47
100
AcDbZombieObject
 90
      499
 91
      503
 93
      241
310
90C332F3422203D2031272D30220000000000003A0FC000000000000284000
  0
ACAD_PROXY_OBJECT
  5
64
102
{ACAD_REACTORS
330
47
102
}
330
47
100
AcDbZombieObject
 90
      499
 91
      503
 93
      161
310
90A3122203D2031272D30224000000000000284000
  0
ACAD_PROXY_OBJECT
  5
65
102
{ACAD_REACTORS
330
47
102
}
330
47
100
AcDbZombieObject
 90
      499
 91
      503
 93
      257
310
90E312D312F3222203D2031272D30220000000000003E0FC000000000000284000
  0
ACAD_PROXY_OBJECT
  5
66
102
{ACAD_REACTORS
330
47
102
}
330
47
100
AcDbZombieObject
 90
      499
 91
      503
 93
      225
310
90A3322203D2031272D302200000000000002100000000000000284000
  0
ACAD_PROXY_OBJECT
  5
67
102
{ACAD_REACTORS
330
47
102
}
330
47
100
AcDbZombieObject
 90
      499
 91
      503
 93
      225
310
90A3622203D2031272D302200000000000006100000000000000284000
  0
ACAD_PROXY_OBJECT
  5
68
102
{ACAD_REACTORS
330
47
102
}
330
47
100
AcDbZombieObject
 90
      499
 91
      503
 93
      249
310
90D31272D3022203D2031272D30220000000000000A100000000000000284000
  0
ACAD_PROXY_OBJECT
  5
2F
102
{ACAD_REACTORS
330
2A
102
}
330
2A
100
AcDbZombieObject
 90
      499
 91
      501
 93
      436
310
42CC9915DA5C99599C985B595049028333333333333E33F0000000000000F90107901411070040501600405405064090741402480A0340
1001
ACAD
1000
AcDbSavedByObjectVersion
1070
     0
  0
ACAD_PROXY_OBJECT
  5
32
102
{ACAD_REACTORS
330
2A
102
}
330
2A
100
AcDbZombieObject
 90
      499
 91
      501
 93
      388
310
4150985CDA58D07406404333333333333E33F0000000000000F90107A41107004050150841D405064090741402480A0350
1001
ACAD
1000
AcDbSavedByObjectVersion
1070
     0
  0
ACAD_PROXY_OBJECT
  5
36
102
{ACAD_REACTORS
330
2A
102
}
330
2A
100
AcDbZombieObject
 90
      499
 91
      501
 93
      428
310
42109C9A59DA1D195B90C409028333333333333E33F0000000000000F9010790141107004050150841D405064090741402480A029950
1001
ACAD
1000
AcDbSavedByObjectVersion
1070
     0
  0
ACAD_PROXY_OBJECT
  5
3A
102
{ACAD_REACTORS
330
2A
102
}
330
2A
100
AcDbZombieObject
 90
      499
 91
      501
 93
      452
310
42D0DBDB1BDC90DA185B99D95104090240C333333333333E33F0000000000000F90108901411070040501508421405064090741402480A0350
1001
ACAD
1000
AcDbSavedByObjectVersion
1070
     0
  0
ACAD_PROXY_OBJECT
  5
34
102
{ACAD_REACTORS
330
2A
102
}
330
2A
100
AcDbZombieObject
 90
      499
 91
      501
 93
      500
310
4290DBDB98D95C1D1D585B10940D028333333333333E33F0000000000000F90107902409070040501000000000018199010841D405064090740C02480A0340
1001
ACAD
1000
AcDbSavedByObjectVersion
1070
     0
  0
ACAD_PROXY_OBJECT
  5
35
102
{ACAD_REACTORS
330
2A
102
}
330
2A
100
AcDbZombieObject
 90
      499
 91
      501
 93
      412
310
40D11A5B50B409028333333333333E33F0000000000000F9010790141107004050150841D405064090741402480A02677FFFFFD0
1001
ACAD
1000
AcDbSavedByObjectVersion
1070
     0
  0
ACAD_PROXY_OBJECT
  5
3D
102
{ACAD_REACTORS
330
2A
102
}
330
2A
100
AcDbZombieObject
 90
      499
 91
      501
 93
      452
310
43115919D950DBDB1BDC93D999916409028333333333333E33F0000000000000F9010790141107004050150841D405064090741402480A0350
1001
ACAD
1000
AcDbSavedByObjectVersion
1070
     0
  0
ACAD_PROXY_OBJECT
  5
39
102
{ACAD_REACTORS
330
2A
102
}
330
2A
100
AcDbZombieObject
 90
      499
 91
      501
 93
      444
310
42D19858D95C185D1D195C9B90F409028333333333333E33F0000000000000F9010790141107004050150841D405064090741402480A0350
1001
ACAD
1000
AcDbSavedByObjectVersion
1070
     0
  0
ACAD_PROXY_OBJECT
  5
2B
102
{ACAD_REACTORS
330
2A
102
}
330
2A
100
AcDbZombieObject
 90
      499
 91
      501
 93
      380
310
41119B185D240901404333333333333E33F0000000000000F9010740A907004050150841D405064090741402480A1B50
1001
ACAD
1000
AcDbSavedByObjectVersion
1070
     0
  0
ACAD_PROXY_OBJECT
  5
2C
102
{ACAD_REACTORS
330
2A
102
}
330
2A
100
AcDbZombieObject
 90
      499
 91
      501
 93
      468
310
43519B185D15DA5D1A115919D95CD0140901404333333333333E33F0000000000000F90107409019070040501600405405064090741402480A1B50
1001
ACAD
1000
AcDbSavedByObjectVersion
1070
     0
  0
ACAD_PROXY_OBJECT
  5
2D
102
{ACAD_REACTORS
330
2A
102
}
330
2A
100
AcDbZombieObject
 90
      499
 91
      501
 93
      404
310
41D1DBDD5C985D5910240902404333333333333E33F0000000000000F9010740A9070040501641D405064090741402480A1B50
1001
ACAD
1000
AcDbSavedByObjectVersion
1070
     0
  0
ACAD_PROXY_OBJECT
  5
2E
102
{ACAD_REACTORS
330
2A
102
}
330
2A
100
AcDbZombieObject
 90
      499
 91
      501
 93
      492
310
4411DBDD5C985D5915DA5D1A115919D95CD0340902404333333333333E33F0000000000000F90107409019070040501600405405064090741402480A1B50
1001
ACAD
1000
AcDbSavedByObjectVersion
1070
     0
  0
ACAD_PROXY_OBJECT
  5
31
102
{ACAD_REACTORS
330
2A
102
}
330
2A
100
AcDbZombieObject
 90
      499
 91
      501
 93
      476
310
41921A5919195B90640502408333333333333E33F0000000000000F901079024090700405020000000000001110200405405064090740C02480A0340
1001
ACAD
1000
AcDbSavedByObjectVersion
1070
     0
  0
ACAD_PROXY_OBJECT
  5
3B
102
{ACAD_REACTORS
330
2A
102
}
330
2A
100
AcDbZombieObject
 90
      499
 91
      501
 93
      428
310
42529A5D1D195C93D999914409028333333333333E33F0000000000000F9010790141107004050150A41D405064090741402480A0350
1001
ACAD
1000
AcDbSavedByObjectVersion
1070
     0
  0
ACAD_PROXY_OBJECT
  5
38
102
{ACAD_REACTORS
330
2A
102
}
330
2A
100
AcDbZombieObject
 90
      499
 91
      501
 93
      444
310
42D31A5B995C185D1D195C9B90E409028333333333333E33F0000000000000F9010790141107004050750841D405064090741402483A0350
1001
ACAD
1000
AcDbSavedByObjectVersion
1070
     0
  0
ACAD_PROXY_OBJECT
  5
3C
102
{ACAD_REACTORS
330
2A
102
}
330
2A
100
AcDbZombieObject
 90
      499
 91
      501
 93
      444
310
42D3DD995C9A185B99D3D999915409028333333333333E33F0000000000000F9010790141107004050150941D405064090741402480A0350
1001
ACAD
1000
AcDbSavedByObjectVersion
1070
     0
  0
ACAD_PROXY_OBJECT
  5
33
102
{ACAD_REACTORS
330
2A
102
}
330
2A
100
AcDbZombieObject
 90
      499
 91
      501
 93
      428
310
425499585B1A5CDD1A58D08409038333333333333E33F0000000000000F9010740A907004050150800405405064090740C02480A1B40
1001
ACAD
1000
AcDbSavedByObjectVersion
1070
     0
  0
ACAD_PROXY_OBJECT
  5
42
102
{ACAD_REACTORS
330
2A
102
}
330
2A
100
AcDbZombieObject
 90
      499
 91
      501
 93
      420
310
4194DA1859195911B40902404333333333333E33F0000000000000F9010740A41107004050150800405405064090840C02480A0B40
1001
ACAD
1000
AcDbSavedByObjectVersion
1070
     0
  0
ACAD_PROXY_OBJECT
  5
41
102
{ACAD_REACTORS
330
2A
102
}
330
2A
100
AcDbZombieObject
 90
      499
 91
      501
 93
      516
310
4454DA18591959081DDA5D1A08195919D95CD1A40902404333333333333E33F0000000000000F901074090142907004050250800405405064090740C02480A0B40
1001
ACAD
1000
AcDbSavedByObjectVersion
1070
     0
  0
ACAD_PROXY_OBJECT
  5
3E
102
{ACAD_REACTORS
330
2A
102
}
330
2A
100
AcDbZombieObject
 90
      499
 91
      501
 93
      532
310
4394DA1859195CC81BD98811DC985E5174090240C333333333333E33F0000000000000F901079024090741D01000000000000111010841D405064090740C02480A0340
1001
ACAD
1000
AcDbSavedByObjectVersion
1070
     0
  0
ACAD_PROXY_OBJECT
  5
3F
102
{ACAD_REACTORS
330
2A
102
}
330
2A
100
AcDbZombieObject
 90
      499
 91
      501
 93
      476
310
41D4DAD95D18DA1E51840502408333333333333E33F0000000000000F901079024090741D01000000000000111010B41D405064090741802480A0340
1001
ACAD
1000
AcDbSavedByObjectVersion
1070
     0
  0
ACAD_PROXY_OBJECT
  5
37
102
{ACAD_REACTORS
330
2A
102
}
330
2A
100
AcDbZombieObject
 90
      499
 91
      501
 93
      412
310
41D51A1A58DAD95B90D409028333333333333E33F0000000000000F9010790141107004050150C41D405064090741402480A0350
1001
ACAD
1000
AcDbSavedByObjectVersion
1070
     0
  0
ACAD_PROXY_OBJECT
  5
30
102
{ACAD_REACTORS
330
2A
102
}
330
2A
100
AcDbZombieObject
 90
      499
 91
      501
 93
      420
310
4255DA5C99599C985B595059028333333333333E33F0000000000000F90107901411070040501600405405064090740C02480A0340
1001
ACAD
1000
AcDbSavedByObjectVersion
1070
     0
  0
ACAD_PROXY_OBJECT
  5
40
102
{ACAD_REACTORS
330
2A
102
}
330
2A
100
AcDbZombieObject
 90
      499
 91
      501
 93
      404
310
41560B54985E51940902404000000000000E03F0000000000000F9010740501907004050150841D405064090740C02480A1B40
1001
ACAD
1000
AcDbSavedByObjectVersion
1070
     0
  0
DICTIONARYVAR
  5
3D2
102
{ACAD_REACTORS
330
3C7
102
}
330
3C7
100
DictionaryVariables
280
     0
  1
1:1
  0
DICTIONARYVAR
  5
3CE
102
{ACAD_REACTORS
330
3C7
102
}
330
3C7
100
DictionaryVariables
280
     0
  1
3.500000
  0
DICTIONARYVAR
  5
3CF
102
{ACAD_REACTORS
330
3C7
102
}
330
3C7
100
DictionaryVariables
280
     0
  1
acadiso.lin
  0
DICTIONARYVAR
  5
3C9
102
{ACAD_REACTORS
330
3C7
102
}
330
3C7
100
DictionaryVariables
280
     0
  1
Standard
  0
DICTIONARYVAR
  5
3C8
102
{ACAD_REACTORS
330
3C7
102
}
330
3C7
100
DictionaryVariables
280
     0
  1
Standard
  0
DICTIONARYVAR
  5
3D0
102
{ACAD_REACTORS
330
3C7
102
}
330
3C7
100
DictionaryVariables
280
     0
  1
2
  0
DICTIONARYVAR
  5
3D1
102
{ACAD_REACTORS
330
3C7
102
}
330
3C7
100
DictionaryVariables
280
     0
  1
1
  0
DICTIONARYVAR
  5
3D3
102
{ACAD_REACTORS
330
3C7
102
}
330
3C7
100
DictionaryVariables
280
     0
  1
1
  0
DICTIONARYVAR
  5
3CB
102
{ACAD_REACTORS
330
3C7
102
}
330
3C7
100
DictionaryVariables
280
     0
  1
80.000000
  0
DICTIONARYVAR
  5
3CA
102
{ACAD_REACTORS
330
3C7
102
}
330
3C7
100
DictionaryVariables
280
     0
  1
5.000000
  0
DICTIONARY
  5
3D6
330
45
100
AcDbDictionary
  3
ACAD_XREC_ROUNDTRIP
360
3D7
1001
ACAD
1000
TREAT_AS_HARD
1070
     1
  0
DICTIONARY
  5
3D4
330
44
100
AcDbDictionary
  3
ACAD_XREC_ROUNDTRIP
360
3D5
1001
ACAD
1000
TREAT_AS_HARD
1070
     1
  0
DICTIONARY
  5
3D8
330
46
100
AcDbDictionary
  3
ACAD_XREC_ROUNDTRIP
360
3D9
1001
ACAD
1000
TREAT_AS_HARD
1070
     1
  0
XRECORD
  5
3D7
102
{ACAD_REACTORS
330
3D6
102
}
330
3D6
100
AcDbXrecord
102
MATERIAL
148
0.0
149
0.0
149
0.0
 93
        0
 94
      127
282
     0
 72
     1
 77
     1
171
     1
175
     1
179
     1
273
     0
  0
XRECORD
  5
3D5
102
{ACAD_REACTORS
330
3D4
102
}
330
3D4
100
AcDbXrecord
102
MATERIAL
148
0.0
149
0.0
149
0.0
 93
        0
 94
      127
282
     0
 72
     1
 77
     1
171
     1
175
     1
179
     1
273
     0
  0
XRECORD
  5
3D9
102
{ACAD_REACTORS
330
3D8
102
}
330
3D8
100
AcDbXrecord
102
MATERIAL
148
0.0
149
0.0
149
0.0
 93
        0
 94
      127
282
     0
 72
     1
 77
     1
171
     1
175
     1
179
     1
273
     0
  0
ENDSEC
  0
EOF
