  0
SECTION
  2
HEADER
  9
$ACADVER
  1
AC1006
  9
$INSBASE
 10
-1442.064332
 20
3566.188925
 30
0.0
  9
$EXTMIN
 10
-1442.064332
 20
3566.188925
  9
$EXTMAX
 10
4017.935668
 20
7421.188925
  9
$LIMMIN
 10
-1442.064332
 20
3566.188925
  9
$LIMMAX
 10
4017.935668
 20
7421.188925
  9
$VIEWCTR
 10
1287.935668
 20
5493.688925
  9
$VIEWSIZE
 40
3855.000000
  9
$SNAPMODE
 70
     0
  9
$SNAPUNIT
 10
1.0
 20
1.0
  9
$SNAPBASE
 10
0.0
 20
0.0
  9
$SNAPANG
 50
0.0
  9
$SNAPSTYLE
 70
     0
  9
$SNAPISOPAIR
 70
     0
  9
$GRIDMODE
 70
     0
  9
$GRIDUNIT
 10
0.0
 20
0.0
  9
$ORTHOMODE
 70
     0
  9
$REGENMODE
 70
     1
  9
$FILLMODE
 70
     1
  9
$QTEXTMODE
 70
     0
  9
$DRAGMODE
 70
     2
  9
$LTSCALE
 40
15.000000
  9
$OSMODE
 70
     0
  9
$ATTMODE
 70
     1
  9
$TEXTSIZE
 40
0.2
  9
$TRACEWID
 40
0.05
  9
$TEXTSTYLE
  7
STANDARD
  9
$CLAYER
  8
CSLAYER1
  9
$CELTYPE
  6
BYLAYER
  9
$CECOLOR
 62
   256
  9
$DIMSCALE
 40
1.0
  9
$DIMASZ
 40
0.18
  9
$DIMEXO
 40
0.0625
  9
$DIMDLI
 40
0.38
  9
$DIMRND
 40
0.0
  9
$DIMDLE
 40
0.0
  9
$DIMEXE
 40
0.18
  9
$DIMTP
 40
0.0
  9
$DIMTM
 40
0.0
  9
$DIMTXT
 40
0.18
  9
$DIMCEN
 40
0.09
  9
$DIMTSZ
 40
0.0
  9
$DIMTOL
 70
     0
  9
$DIMLIM
 70
     0
  9
$DIMTIH
 70
     1
  9
$DIMTOH
 70
     1
  9
$DIMSE1
 70
     0
  9
$DIMSE2
 70
     0
  9
$DIMTAD
 70
     0
  9
$DIMZIN
 70
     0
  9
$DIMBLK
  1

  9
$LUNITS
 70
     2
  9
$LUPREC
 70
     4
  9
$AXISMODE
 70
     0
  9
$AXISUNIT
 10
0.0
 20
0.0
  9
$SKETCHINC
 40
0.1
  9
$FILLETRAD
 40
0.0
  9
$AUNITS
 70
     0
  9
$AUPREC
 70
     0
  9
$MENU
  1
ACAD
  9
$ELEVATION
 40
0.0
  9
$THICKNESS
 40
0.0
  9
$VIEWDIR
 10
0.0
 20
0.0
 30
1.0
  9
$LIMCHECK
 70
     0
  9
$BLIPMODE
 70
     1
  9
$CHAMFERA
 40
0.0
  9
$CHAMFERB
 40
0.0
  9
$FASTZOOM
 70
     1
  9
$SKPOLY
 70
     0
  9
$TDCREATE
 40
2457497.000000
  9
$TDUPDATE
 40
2457497.000000
  9
$TDINDWG
 40
0.0
  9
$TDUSRTIMER
 40
0.0
  9
$USRTIMER
 70
     1
  9
$ANGBASE
 50
0.0
  9
$ANGDIR
 70
     0
  9
$PDMODE
 70
     0
  9
$PDSIZE
 40
0.0
  9
$PLINEWID
 40
0.0
  9
$COORDS
 70
     0
  9
$USERI1
 70
     0
  9
$USERI2
 70
     0
  9
$USERI3
 70
     0
  9
$USERI4
 70
     0
  9
$USERI5
 70
     0
  9
$USERR1
 40
0.0
  9
$USERR2
 40
0.0
  9
$USERR3
 40
0.0
  9
$USERR4
 40
0.0
  9
$USERR5
 40
0.0
  0
ENDSEC
  0
SECTION
  2
TABLES
  0
TABLE
  2
LTYPE
 70
     9
  0
LTYPE
  2
CONTINUOUS
 70
    64
  3
Solid line
 72
    65
 73
     0
 40
0.0
  0
LTYPE
  2
DASHED
 70
    64
  3
__ __ __ __ __ __ __ __ __ __ __ __ __ __ __
 72
    65
 73
     2
 40
0.75
 49
0.5
 49
-0.25
  0
LTYPE
  2
HIDDEN
 70
    64
  3
_ _ _ _ _ _ _ _ _ _ _ _ _ _ _ _ _ _ _ _ _ _ _
 72
    65
 73
     2
 40
0.375
 49
0.25
 49
-0.125
  0
LTYPE
  2
DOT
 70
    64
  3
...............................................
 72
    65
 73
     2
 40
0.25
 49
0.0
 49
-0.25
  0
LTYPE
  2
DASHDOT
 70
    64
  3
__ . __ . __ . __ . __ . __ . __ . __ . __ . __
 72
    65
 73
     4
 40
1.0
 49
0.5
 49
-0.25
 49
0.0
 49
-0.25
  0
LTYPE
  2
DIVIDE
 70
    64
  3
__ . . __ . . __ . . __ . . __ . . __ . . __
 72
    65
 73
     6
 40
1.25
 49
0.5
 49
-0.25
 49
0.0
 49
-0.25
 49
0.0
 49
-0.25
  0
LTYPE
  2
CENTER
 70
    64
  3
____ _ ____ _ ____ _ ____ _ ____ _ ____ _ ____ 
 72
    65
 73
     4
 40
2.0
 49
1.25
 49
-0.25
 49
0.25
 49
-0.25
  0
LTYPE
  2
PHANTOM
 70
    64
  3
______  __  __  ______  __  __  ______  __  __ 
 72
    65
 73
     6
 40
2.5
 49
1.25
 49
-0.25
 49
0.25
 49
-0.25
 49
0.25
 49
-0.25
  0
LTYPE
  2
BORDER
 70
    64
  3
__ __ . __ __ . __ __ . __ __ . __ __ . __ __ .
 72
    65
 73
     6
 40
1.75
 49
0.5
 49
-0.25
 49
0.5
 49
-0.25
 49
0.0
 49
-0.25
  0
ENDTAB
  0
TABLE
  2
LAYER
 70
    16
  0
LAYER
  2
CSLAYER1
 70
    64
 62
     7
  6
CONTINUOUS
  0
LAYER
  2
CSLAYER2
 70
    64
 62
     7
  6
CONTINUOUS
  0
LAYER
  2
CSLAYER3
 70
    64
 62
     7
  6
CONTINUOUS
  0
LAYER
  2
CSLAYER4
 70
    64
 62
     7
  6
CONTINUOUS
  0
LAYER
  2
CSLAYER5
 70
    64
 62
     7
  6
CONTINUOUS
  0
LAYER
  2
CSLAYER6
 70
    64
 62
     7
  6
CONTINUOUS
  0
LAYER
  2
CSLAYER7
 70
    64
 62
     7
  6
CONTINUOUS
  0
LAYER
  2
CSLAYER8
 70
    64
 62
     7
  6
CONTINUOUS
  0
LAYER
  2
CSLAYER9
 70
    64
 62
     7
  6
CONTINUOUS
  0
LAYER
  2
CSLAYER10
 70
    64
 62
     7
  6
CONTINUOUS
  0
LAYER
  2
CSLAYER11
 70
    64
 62
     7
  6
CONTINUOUS
  0
LAYER
  2
CSLAYER12
 70
    64
 62
     7
  6
CONTINUOUS
  0
LAYER
  2
CSLAYER13
 70
    64
 62
     7
  6
CONTINUOUS
  0
LAYER
  2
CSLAYER14
 70
    64
 62
     7
  6
CONTINUOUS
  0
LAYER
  2
CSLAYER15
 70
    64
 62
     7
  6
CONTINUOUS
  0
LAYER
  2
CSLAYER16
 70
    64
 62
     7
  6
CONTINUOUS
  0
ENDTAB
  0
TABLE
  2
STYLE
 70
     1
  0
STYLE
  2
EASYDRAW_FONT
 70
     0
 40
1.0
 41
1.0
 50
0.0
 71
     0
 42
1.0
  3
monotxt
  4
bigfont
  0
ENDTAB
  0
TABLE
  2
VIEW
 70
     0
  0
ENDTAB
  0
ENDSEC
  0
SECTION
  2
BLOCKS
  0
BLOCK
  8
CSLAYER1
  2
*D0000
 70
    65
 10
0.0
 20
0.0
 30
0.0
  0
TEXT
  8
CSLAYER1
 62
     3
 10
3324.709473
 20
667.752258
 40
60.000000
 41
0.843750
  1
230
 50
90.000000
 51
0.000000
  7
EASYDRAW_FONT
 72
     5
 11
3324.709473
 21
802.752258
  0
LINE
  8
CSLAYER1
  6
CONTINUOUS
 62
     5
 10
3209.234622
 20
850.252279
 11
3354.709601
 21
850.252279
  0
LINE
  8
CSLAYER1
  6
CONTINUOUS
 62
     5
 10
3339.709601
 20
620.252279
 11
3339.709601
 21
850.252279
  0
LINE
  8
CSLAYER1
  6
CONTINUOUS
 62
     5
 10
3339.709601
 20
620.252279
 11
3328.062744
 21
663.718942
  0
LINE
  8
CSLAYER1
  6
CONTINUOUS
 62
     5
 10
3339.709601
 20
620.252279
 11
3351.356458
 21
663.718942
  0
LINE
  8
CSLAYER1
  6
CONTINUOUS
 62
     5
 10
3339.709601
 20
850.252279
 11
3328.062744
 21
806.785617
  0
LINE
  8
CSLAYER1
  6
CONTINUOUS
 62
     5
 10
3339.709601
 20
850.252279
 11
3351.356458
 21
806.785617
  0
ENDBLK
  8
0
  0
BLOCK
  8
CSLAYER1
  2
*D0001
 70
    65
 10
0.0
 20
0.0
 30
0.0
  0
TEXT
  8
CSLAYER1
 62
     3
 10
3324.709473
 20
1287.173096
 40
60.000000
 41
0.843750
  1
990
 50
90.000000
 51
0.000000
  7
EASYDRAW_FONT
 72
     5
 11
3324.709473
 21
1422.173096
  0
LINE
  8
CSLAYER1
  6
CONTINUOUS
 62
     5
 10
3209.234675
 20
1859.094245
 11
3497.279736
 21
1859.094245
  0
LINE
  8
CSLAYER1
  6
CONTINUOUS
 62
     5
 10
3339.709601
 20
850.252279
 11
3339.709601
 21
1859.094245
  0
LINE
  8
CSLAYER1
  6
CONTINUOUS
 62
     5
 10
3339.709601
 20
850.252279
 11
3328.062744
 21
893.718942
  0
LINE
  8
CSLAYER1
  6
CONTINUOUS
 62
     5
 10
3339.709601
 20
850.252279
 11
3351.356458
 21
893.718942
  0
LINE
  8
CSLAYER1
  6
CONTINUOUS
 62
     5
 10
3339.709601
 20
1859.094245
 11
3328.062744
 21
1815.627583
  0
LINE
  8
CSLAYER1
  6
CONTINUOUS
 62
     5
 10
3339.709601
 20
1859.094245
 11
3351.356458
 21
1815.627583
  0
ENDBLK
  8
0
  0
BLOCK
  8
CSLAYER1
  2
*D0002
 70
    65
 10
0.0
 20
0.0
 30
0.0
  0
TEXT
  8
CSLAYER1
 62
     3
 10
3467.279541
 20
1149.673096
 40
60.000000
 41
0.818182
  1
1220
 50
90.000000
 51
0.000000
  7
EASYDRAW_FONT
 72
     5
 11
3467.279541
 21
1329.673096
  0
LINE
  8
CSLAYER1
  6
CONTINUOUS
 62
     5
 10
3482.279736
 20
620.252279
 11
3482.279736
 21
1859.094245
  0
LINE
  8
CSLAYER1
  6
CONTINUOUS
 62
     5
 10
3482.279736
 20
620.252279
 11
3470.632879
 21
663.718942
  0
LINE
  8
CSLAYER1
  6
CONTINUOUS
 62
     5
 10
3482.279736
 20
620.252279
 11
3493.926593
 21
663.718942
  0
LINE
  8
CSLAYER1
  6
CONTINUOUS
 62
     5
 10
3482.279736
 20
1859.094245
 11
3470.632879
 21
1815.627583
  0
LINE
  8
CSLAYER1
  6
CONTINUOUS
 62
     5
 10
3482.279736
 20
1859.094245
 11
3493.926593
 21
1815.627583
  0
ENDBLK
  8
0
  0
BLOCK
  8
CSLAYER1
  2
*D0003
 70
    65
 10
0.0
 20
0.0
 30
0.0
  0
TEXT
  8
CSLAYER1
 62
     3
 10
1521.152222
 20
2746.524658
 40
60.000000
 41
0.843750
  1
800
 50
90.000000
 51
0.000000
  7
EASYDRAW_FONT
 72
     5
 11
1521.152222
 21
2881.524658
  0
LINE
  8
CSLAYER1
  6
CONTINUOUS
 62
     5
 10
1679.234675
 20
2414.024656
 11
1521.152179
 21
2414.024656
  0
LINE
  8
CSLAYER1
  6
CONTINUOUS
 62
     5
 10
1679.234675
 20
3214.024656
 11
1521.152179
 21
3214.024656
  0
LINE
  8
CSLAYER1
  6
CONTINUOUS
 62
     5
 10
1536.152179
 20
2414.024656
 11
1536.152179
 21
3214.024656
  0
LINE
  8
CSLAYER1
  6
CONTINUOUS
 62
     5
 10
1536.152179
 20
2414.024656
 11
1524.505322
 21
2457.491318
  0
LINE
  8
CSLAYER1
  6
CONTINUOUS
 62
     5
 10
1536.152179
 20
2414.024656
 11
1547.799036
 21
2457.491318
  0
LINE
  8
CSLAYER1
  6
CONTINUOUS
 62
     5
 10
1536.152179
 20
3214.024656
 11
1524.505322
 21
3170.557994
  0
LINE
  8
CSLAYER1
  6
CONTINUOUS
 62
     5
 10
1536.152179
 20
3214.024656
 11
1547.799036
 21
3170.557994
  0
ENDBLK
  8
0
  0
BLOCK
  8
CSLAYER1
  2
*D0004
 70
    65
 10
0.0
 20
0.0
 30
0.0
  0
TEXT
  8
CSLAYER1
 62
     3
 10
2354.234375
 20
2016.213623
 40
60.000000
 41
0.818182
  1
1500
 50
0.000000
 51
0.000000
  7
EASYDRAW_FONT
 72
     5
 11
2534.234375
 21
2016.213623
  0
LINE
  8
CSLAYER1
  6
CONTINUOUS
 62
     5
 10
1694.234675
 20
1874.094245
 11
1694.234675
 21
2016.213947
  0
LINE
  8
CSLAYER1
  6
CONTINUOUS
 62
     5
 10
3194.234675
 20
1874.094245
 11
3194.234675
 21
2016.213947
  0
LINE
  8
CSLAYER1
  6
CONTINUOUS
 62
     5
 10
1694.234675
 20
2001.213947
 11
3194.234675
 21
2001.213947
  0
LINE
  8
CSLAYER1
  6
CONTINUOUS
 62
     5
 10
1694.234675
 20
2001.213947
 11
1737.701337
 21
2012.860804
  0
LINE
  8
CSLAYER1
  6
CONTINUOUS
 62
     5
 10
1694.234675
 20
2001.213947
 11
1737.701337
 21
1989.567090
  0
LINE
  8
CSLAYER1
  6
CONTINUOUS
 62
     5
 10
3194.234675
 20
2001.213947
 11
3150.768013
 21
2012.860804
  0
LINE
  8
CSLAYER1
  6
CONTINUOUS
 62
     5
 10
3194.234675
 20
2001.213947
 11
3150.768013
 21
1989.567090
  0
ENDBLK
  8
0
  0
BLOCK
  8
CSLAYER1
  2
*D0005
 70
    65
 10
0.0
 20
0.0
 30
0.0
  0
TEXT
  8
CSLAYER1
 62
     3
 10
2354.234375
 20
504.807404
 40
60.000000
 41
0.818182
  1
1500
 50
0.000000
 51
0.000000
  7
EASYDRAW_FONT
 72
     5
 11
2534.234375
 21
504.807404
  0
LINE
  8
CSLAYER1
  6
CONTINUOUS
 62
     5
 10
1694.234622
 20
605.252279
 11
1694.234622
 21
474.807195
  0
LINE
  8
CSLAYER1
  6
CONTINUOUS
 62
     5
 10
3194.234622
 20
605.252279
 11
3194.234622
 21
474.807195
  0
LINE
  8
CSLAYER1
  6
CONTINUOUS
 62
     5
 10
1694.234622
 20
489.807195
 11
3194.234622
 21
489.807195
  0
LINE
  8
CSLAYER1
  6
CONTINUOUS
 62
     5
 10
1694.234622
 20
489.807195
 11
1737.701284
 21
501.454052
  0
LINE
  8
CSLAYER1
  6
CONTINUOUS
 62
     5
 10
1694.234622
 20
489.807195
 11
1737.701284
 21
478.160338
  0
LINE
  8
CSLAYER1
  6
CONTINUOUS
 62
     5
 10
3194.234622
 20
489.807195
 11
3150.767960
 21
501.454052
  0
LINE
  8
CSLAYER1
  6
CONTINUOUS
 62
     5
 10
3194.234622
 20
489.807195
 11
3150.767960
 21
478.160338
  0
ENDBLK
  8
0
  0
BLOCK
  8
CSLAYER1
  2
*D0006
 70
    65
 10
0.0
 20
0.0
 30
0.0
  0
TEXT
  8
CSLAYER1
 62
     3
 10
792.661255
 20
504.807404
 40
60.000000
 41
0.843750
  1
600
 50
0.000000
 51
0.000000
  7
EASYDRAW_FONT
 72
     5
 11
927.661255
 21
504.807404
  0
LINE
  8
CSLAYER1
  6
CONTINUOUS
 62
     5
 10
560.161210
 20
605.252279
 11
560.161210
 21
474.807195
  0
LINE
  8
CSLAYER1
  6
CONTINUOUS
 62
     5
 10
1160.161210
 20
605.252279
 11
1160.161210
 21
474.807195
  0
LINE
  8
CSLAYER1
  6
CONTINUOUS
 62
     5
 10
560.161210
 20
489.807195
 11
1160.161210
 21
489.807195
  0
LINE
  8
CSLAYER1
  6
CONTINUOUS
 62
     5
 10
560.161210
 20
489.807195
 11
603.627872
 21
501.454052
  0
LINE
  8
CSLAYER1
  6
CONTINUOUS
 62
     5
 10
560.161210
 20
489.807195
 11
603.627872
 21
478.160338
  0
LINE
  8
CSLAYER1
  6
CONTINUOUS
 62
     5
 10
1160.161210
 20
489.807195
 11
1116.694547
 21
501.454052
  0
LINE
  8
CSLAYER1
  6
CONTINUOUS
 62
     5
 10
1160.161210
 20
489.807195
 11
1116.694547
 21
478.160338
  0
ENDBLK
  8
0
  0
BLOCK
  8
CSLAYER1
  2
BLKF0000
 70
   64
 10
0.0
 20
0.0
 30
0.0
  0
ARC
  8
CSLAYER1
  6
CONTINUOUS
 62
     5
 10
4169.771750
 20
120.742239
 40
5.323837
 50
6.429109
 51
73.182034
  0
ARC
  8
CSLAYER1
  6
CONTINUOUS
 62
     5
 10
4164.580294
 20
119.004650
 40
10.361631
 50
310.517970
 51
330.092764
  0
ARC
  8
CSLAYER1
  6
CONTINUOUS
 62
     5
 10
4164.489320
 20
119.552927
 40
10.722482
 50
-32.205059
 51
9.585194
  0
ARC
  8
CSLAYER1
  6
CONTINUOUS
 62
     5
 10
4169.428412
 20
115.411429
 40
7.151272
 50
180.000000
 51
218.514150
  0
ARC
  8
CSLAYER1
  6
CONTINUOUS
 62
     5
 10
4167.498330
 20
114.395718
 40
5.022423
 50
222.781148
 51
319.406906
  0
ARC
  8
CSLAYER1
  6
CONTINUOUS
 62
     5
 10
4172.096793
 20
116.030557
 40
9.839152
 50
94.574282
 51
183.607718
  0
LINE
  8
CSLAYER1
  6
CONTINUOUS
 62
     5
 10
4192.262653
 20
108.355309
 11
4190.977098
 21
103.797435
  0
LINE
  8
CSLAYER1
  6
CONTINUOUS
 62
     5
 10
4194.950630
 20
138.156795
 11
4191.795178
 21
142.247195
  0
LINE
  8
CSLAYER1
  6
CONTINUOUS
 62
     5
 10
4191.795178
 20
142.247195
 11
4181.665147
 21
147.884063
  0
LINE
  8
CSLAYER1
  6
CONTINUOUS
 62
     5
 10
4181.665147
 20
147.884063
 11
4171.312106
 21
149.088369
  0
LINE
  8
CSLAYER1
  6
CONTINUOUS
 62
     5
 10
4143.878268
 20
129.020359
 11
4147.098310
 21
136.466705
  0
LINE
  8
CSLAYER1
  6
CONTINUOUS
 62
     5
 10
4147.042813
 20
136.338369
 11
4150.318351
 21
140.290504
  0
LINE
  8
CSLAYER1
  6
CONTINUOUS
 62
     5
 10
4150.318351
 20
140.290504
 11
4155.274984
 21
143.838369
  0
LINE
  8
CSLAYER1
  6
CONTINUOUS
 62
     5
 10
4171.312106
 20
149.088369
 11
4169.034843
 21
147.938103
  0
LINE
  8
CSLAYER1
  6
CONTINUOUS
 62
     5
 10
4169.034843
 20
147.938103
 11
4163.802275
 21
147.938103
  0
LINE
  8
CSLAYER1
  6
CONTINUOUS
 62
     5
 10
4163.802275
 20
147.938103
 11
4158.469081
 21
145.019940
  0
LINE
  8
CSLAYER1
  6
CONTINUOUS
 62
     5
 10
4158.469081
 20
145.019940
 11
4155.274984
 21
143.838369
  0
LINE
  8
CSLAYER1
  6
CONTINUOUS
 62
     5
 10
4143.878268
 20
129.020359
 11
4141.601947
 21
117.697454
  0
LINE
  8
CSLAYER1
  6
CONTINUOUS
 62
     5
 10
4141.601947
 20
117.697454
 11
4141.312106
 21
113.838369
  0
LINE
  8
CSLAYER1
  6
CONTINUOUS
 62
     5
 10
4145.376180
 20
102.078696
 11
4141.312106
 21
111.222862
  0
LINE
  8
CSLAYER1
  6
CONTINUOUS
 62
     5
 10
4141.312106
 20
111.222862
 11
4141.312106
 21
113.838369
  0
LINE
  8
CSLAYER1
  6
CONTINUOUS
 62
     5
 10
4190.977098
 20
103.797435
 11
4188.448418
 21
99.292925
  0
LINE
  8
CSLAYER1
  6
CONTINUOUS
 62
     5
 10
4188.448418
 20
99.292925
 11
4186.312106
 21
97.314859
  0
ARC
  8
CSLAYER1
  6
CONTINUOUS
 62
     5
 10
4168.024189
 20
114.643510
 40
25.899940
 50
208.054813
 51
260.640470
  0
ARC
  8
CSLAYER1
  6
CONTINUOUS
 62
     5
 10
4160.234096
 20
133.757214
 40
44.811916
 50
274.579659
 51
305.587364
  0
ARC
  8
CSLAYER1
  6
CONTINUOUS
 62
     5
 10
4176.692620
 20
124.781631
 40
22.632940
 50
313.467013
 51
331.085078
  0
LINE
  8
CSLAYER1
  6
CONTINUOUS
 62
     5
 10
4198.879618
 20
119.108501
 11
4199.325560
 21
124.781631
  0
LINE
  8
CSLAYER1
  6
CONTINUOUS
 62
     5
 10
4199.325560
 20
124.781631
 11
4197.387563
 21
133.945105
  0
LINE
  8
CSLAYER1
  6
CONTINUOUS
 62
     5
 10
4198.879618
 20
119.108501
 11
4196.504106
 21
113.838369
  0
ARC
  8
CSLAYER1
  6
CONTINUOUS
 62
     5
 10
4176.692620
 20
124.781631
 40
22.632940
 50
23.883193
 51
36.225170
  0
LINE
  8
CSLAYER1
  6
CONTINUOUS
 62
     5
 10
4117.312106
 20
166.338369
 11
4118.812106
 21
167.977336
  0
LINE
  8
CSLAYER1
  6
CONTINUOUS
 62
     5
 10
4117.312106
 20
166.338369
 11
4119.677543
 21
164.170820
  0
LINE
  8
CSLAYER1
  6
CONTINUOUS
 62
     5
 10
4121.986362
 20
161.006882
 11
4122.025764
 21
157.754704
  0
LINE
  8
CSLAYER1
  6
CONTINUOUS
 62
     5
 10
4122.025764
 20
157.754704
 11
4122.336861
 21
156.614015
  0
LINE
  8
CSLAYER1
  6
CONTINUOUS
 62
     5
 10
4122.336861
 20
156.614015
 11
4123.218303
 21
155.525175
  0
LINE
  8
CSLAYER1
  6
CONTINUOUS
 62
     5
 10
4123.218303
 20
155.525175
 11
4124.099744
 21
155.628874
  0
LINE
  8
CSLAYER1
  6
CONTINUOUS
 62
     5
 10
4124.099744
 20
155.628874
 11
4125.033035
 21
155.888122
  0
LINE
  8
CSLAYER1
  6
CONTINUOUS
 62
     5
 10
4125.033035
 20
155.888122
 11
4125.655229
 21
155.628874
  0
LINE
  8
CSLAYER1
  6
CONTINUOUS
 62
     5
 10
4125.655229
 20
155.628874
 11
4127.003316
 21
154.954831
  0
LINE
  8
CSLAYER1
  6
CONTINUOUS
 62
     5
 10
4127.003316
 20
154.954831
 11
4128.167393
 21
154.338369
  0
LINE
  8
CSLAYER1
  6
CONTINUOUS
 62
     5
 10
4128.167393
 20
154.338369
 11
4128.921747
 21
154.384486
  0
LINE
  8
CSLAYER1
  6
CONTINUOUS
 62
     5
 10
4128.921747
 20
154.384486
 11
4133.133555
 21
156.554206
  0
LINE
  8
CSLAYER1
  6
CONTINUOUS
 62
     5
 10
4118.812106
 20
167.977336
 11
4119.311384
 21
170.187897
  0
LINE
  8
CSLAYER1
  6
CONTINUOUS
 62
     5
 10
4119.311384
 20
170.187897
 11
4121.491492
 21
170.413425
  0
LINE
  8
CSLAYER1
  6
CONTINUOUS
 62
     5
 10
4123.732129
 20
174.566113
 11
4126.363389
 21
174.801748
  0
LINE
  8
CSLAYER1
  6
CONTINUOUS
 62
     5
 10
4126.363389
 20
174.801748
 11
4131.665180
 21
176.058469
  0
LINE
  8
CSLAYER1
  6
CONTINUOUS
 62
     5
 10
4131.665180
 20
176.058469
 11
4133.812106
 21
176.555928
  0
LINE
  8
CSLAYER1
  6
CONTINUOUS
 62
     5
 10
4123.732129
 20
174.566113
 11
4120.832793
 21
174.804415
  0
LINE
  8
CSLAYER1
  6
CONTINUOUS
 62
     5
 10
4119.728608
 20
173.501384
 11
4119.868896
 21
172.944642
  0
LINE
  8
CSLAYER1
  6
CONTINUOUS
 62
     5
 10
4119.868896
 20
172.944642
 11
4120.606287
 21
172.138120
  0
LINE
  8
CSLAYER1
  6
CONTINUOUS
 62
     5
 10
4120.606287
 20
172.138120
 11
4121.620200
 21
171.377686
  0
LINE
  8
CSLAYER1
  6
CONTINUOUS
 62
     5
 10
4121.620200
 20
171.377686
 11
4121.805187
 21
171.131036
  0
LINE
  8
CSLAYER1
  6
CONTINUOUS
 62
     5
 10
4119.677543
 20
164.170820
 11
4121.986362
 21
161.006882
  0
ARC
  8
CSLAYER1
  6
CONTINUOUS
 62
     5
 10
4186.292157
 20
-91.149610
 40
271.091195
 50
80.438896
 51
96.353582
  0
ARC
  8
CSLAYER1
  6
CONTINUOUS
 62
     5
 10
4148.943787
 20
126.722240
 40
52.080363
 50
81.866516
 51
106.890578
  0
LINE
  8
CSLAYER1
  6
CONTINUOUS
 62
     5
 10
4237.603498
 20
174.988375
 11
4240.974122
 21
173.456273
  0
LINE
  8
CSLAYER1
  6
CONTINUOUS
 62
     5
 10
4246.336478
 20
171.081515
 11
4240.974122
 21
173.456273
  0
LINE
  8
CSLAYER1
  6
CONTINUOUS
 62
     5
 10
4237.603498
 20
174.988375
 11
4231.312106
 21
176.177232
  0
LINE
  8
CSLAYER1
  6
CONTINUOUS
 62
     5
 10
4246.312106
 20
171.092308
 11
4249.119469
 21
168.739593
  0
LINE
  8
CSLAYER1
  6
CONTINUOUS
 62
     5
 10
4221.176990
 20
172.647585
 11
4222.525902
 21
174.826597
  0
LINE
  8
CSLAYER1
  6
CONTINUOUS
 62
     5
 10
4222.525902
 20
174.826597
 11
4229.539300
 21
173.147333
  0
LINE
  8
CSLAYER1
  6
CONTINUOUS
 62
     5
 10
4229.539300
 20
173.147333
 11
4254.652879
 21
166.338369
  0
LINE
  8
CSLAYER1
  6
CONTINUOUS
 62
     5
 10
4259.062106
 20
166.338369
 11
4249.119469
 21
168.739593
  0
LINE
  8
CSLAYER1
  6
CONTINUOUS
 62
     5
 10
4254.652879
 20
166.338369
 11
4259.062106
 21
166.338369
  0
LINE
  8
CSLAYER1
  6
CONTINUOUS
 62
     5
 10
4171.312106
 20
173.035781
 11
4201.312106
 21
173.838369
  0
LINE
  8
CSLAYER1
  6
CONTINUOUS
 62
     5
 10
4201.312106
 20
173.838369
 11
4221.176990
 21
172.647585
  0
LINE
  8
CSLAYER1
  6
CONTINUOUS
 62
     5
 10
4223.581462
 20
169.556865
 11
4201.312106
 21
171.588369
  0
LINE
  8
CSLAYER1
  6
CONTINUOUS
 62
     5
 10
4201.312106
 20
171.588369
 11
4178.738292
 21
172.201347
  0
LINE
  8
CSLAYER1
  6
CONTINUOUS
 62
     5
 10
4178.812106
 20
172.199343
 11
4171.312106
 21
172.342284
  0
LINE
  8
CSLAYER1
  6
CONTINUOUS
 62
     5
 10
4171.312106
 20
173.035781
 11
4171.312106
 21
172.342284
  0
LINE
  8
CSLAYER1
  6
CONTINUOUS
 62
     5
 10
4257.562106
 20
161.088369
 11
4244.298268
 21
164.554363
  0
LINE
  8
CSLAYER1
  6
CONTINUOUS
 62
     5
 10
4223.581462
 20
169.556865
 11
4238.812106
 21
166.598290
  0
LINE
  8
CSLAYER1
  6
CONTINUOUS
 62
     5
 10
4238.812106
 20
166.598290
 11
4244.298268
 21
164.554363
  0
LINE
  8
CSLAYER1
  6
CONTINUOUS
 62
     5
 10
4257.562106
 20
161.088369
 11
4257.123180
 21
159.829711
  0
LINE
  8
CSLAYER1
  6
CONTINUOUS
 62
     5
 10
4271.812106
 20
152.838369
 11
4271.353065
 21
154.681841
  0
LINE
  8
CSLAYER1
  6
CONTINUOUS
 62
     5
 10
4257.123180
 20
159.829711
 11
4271.353065
 21
154.681841
  0
LINE
  8
CSLAYER1
  6
CONTINUOUS
 62
     5
 10
4176.562106
 20
161.088369
 11
4180.196663
 21
161.088369
  0
LINE
  8
CSLAYER1
  6
CONTINUOUS
 62
     5
 10
4210.312106
 20
161.737113
 11
4210.312106
 21
161.088369
  0
LINE
  8
CSLAYER1
  6
CONTINUOUS
 62
     5
 10
4208.812106
 20
162.538774
 11
4206.245187
 21
163.494542
  0
LINE
  8
CSLAYER1
  6
CONTINUOUS
 62
     5
 10
4206.245187
 20
163.494542
 11
4204.580103
 21
163.570227
  0
LINE
  8
CSLAYER1
  6
CONTINUOUS
 62
     5
 10
4204.580103
 20
163.570227
 11
4203.861090
 21
163.191799
  0
LINE
  8
CSLAYER1
  6
CONTINUOUS
 62
     5
 10
4203.861090
 20
163.191799
 11
4203.709718
 21
162.586314
  0
LINE
  8
CSLAYER1
  6
CONTINUOUS
 62
     5
 10
4203.709718
 20
162.586314
 11
4204.390889
 21
162.132200
  0
LINE
  8
CSLAYER1
  6
CONTINUOUS
 62
     5
 10
4204.390889
 20
162.132200
 11
4206.850672
 21
161.905143
  0
LINE
  8
CSLAYER1
  6
CONTINUOUS
 62
     5
 10
4206.850672
 20
161.905143
 11
4210.312106
 21
161.737113
  0
LINE
  8
CSLAYER1
  6
CONTINUOUS
 62
     5
 10
4271.812106
 20
152.838369
 11
4267.348792
 21
154.618242
  0
LINE
  8
CSLAYER1
  6
CONTINUOUS
 62
     5
 10
4267.348792
 20
154.618242
 11
4252.265258
 21
157.382555
  0
LINE
  8
CSLAYER1
  6
CONTINUOUS
 62
     5
 10
4252.265258
 20
157.382555
 11
4244.726588
 21
159.122248
  0
LINE
  8
CSLAYER1
  6
CONTINUOUS
 62
     5
 10
4211.113437
 20
162.588369
 11
4228.761936
 21
162.588369
  0
LINE
  8
CSLAYER1
  6
CONTINUOUS
 62
     5
 10
4208.812106
 20
162.538774
 11
4209.599096
 21
162.076073
  0
LINE
  8
CSLAYER1
  6
CONTINUOUS
 62
     5
 10
4209.599096
 20
162.076073
 11
4210.044314
 21
161.942508
  0
LINE
  8
CSLAYER1
  6
CONTINUOUS
 62
     5
 10
4210.044314
 20
161.942508
 11
4210.312106
 21
161.980263
  0
LINE
  8
CSLAYER1
  6
CONTINUOUS
 62
     5
 10
4210.312106
 20
161.980263
 11
4211.113437
 21
162.588369
  0
LINE
  8
CSLAYER1
  6
CONTINUOUS
 62
     5
 10
4228.761936
 20
162.588369
 11
4235.437340
 21
161.045131
  0
LINE
  8
CSLAYER1
  6
CONTINUOUS
 62
     5
 10
4235.437340
 20
161.045131
 11
4241.667127
 21
159.297408
  0
LINE
  8
CSLAYER1
  6
CONTINUOUS
 62
     5
 10
4241.667127
 20
159.297408
 11
4244.726588
 21
159.122248
  0
LINE
  8
CSLAYER1
  6
CONTINUOUS
 62
     5
 10
4175.062106
 20
159.588369
 11
4175.062106
 21
158.838369
  0
LINE
  8
CSLAYER1
  6
CONTINUOUS
 62
     5
 10
4171.312106
 20
158.838369
 11
4175.062106
 21
158.838369
  0
ARC
  8
CSLAYER1
  6
CONTINUOUS
 62
     5
 10
4176.562106
 20
159.588369
 40
1.500000
 50
90.000000
 51
180.000000
  0
LINE
  8
CSLAYER1
  6
CONTINUOUS
 62
     5
 10
4180.196663
 20
161.088369
 11
4181.242998
 21
160.230375
  0
LINE
  8
CSLAYER1
  6
CONTINUOUS
 62
     5
 10
4182.146550
 20
160.194434
 11
4183.432945
 21
161.088369
  0
LINE
  8
CSLAYER1
  6
CONTINUOUS
 62
     5
 10
4185.800540
 20
161.088369
 11
4188.301228
 21
160.101256
  0
LINE
  8
CSLAYER1
  6
CONTINUOUS
 62
     5
 10
4188.936791
 20
160.141024
 11
4190.667022
 21
161.088369
  0
LINE
  8
CSLAYER1
  6
CONTINUOUS
 62
     5
 10
4183.432945
 20
161.088369
 11
4185.800540
 21
161.088369
  0
LINE
  8
CSLAYER1
  6
CONTINUOUS
 62
     5
 10
4190.667022
 20
161.088369
 11
4210.312106
 21
161.088369
  0
LINE
  8
CSLAYER1
  6
CONTINUOUS
 62
     5
 10
4139.135581
 20
156.425130
 11
4171.312106
 21
158.838369
  0
LINE
  8
CSLAYER1
  6
CONTINUOUS
 62
     5
 10
4133.133555
 20
156.554206
 11
4139.135581
 21
156.425130
  0
ARC
  8
CSLAYER1
  6
CONTINUOUS
 62
     5
 10
4181.718558
 20
160.810325
 40
0.750000
 50
230.648247
 51
304.796026
  0
ARC
  8
CSLAYER1
  6
CONTINUOUS
 62
     5
 10
4188.576603
 20
160.798872
 40
0.750000
 50
248.459024
 51
298.701829
  0
ARC
  8
CSLAYER1
  6
CONTINUOUS
 62
     5
 10
4121.445187
 20
170.861036
 40
0.450000
 50
-84.093859
 51
36.869898
  0
ARC
  8
CSLAYER1
  6
CONTINUOUS
 62
     5
 10
4120.746781
 20
173.757944
 40
1.050000
 50
85.301319
 51
194.142980
  0
LINE
  8
CSLAYER1
  6
CONTINUOUS
 62
     3
 10
4169.034843
 20
147.938103
 11
4181.200586
 21
147.938103
  0
LINE
  8
CSLAYER1
  6
CONTINUOUS
 62
     3
 10
4159.416068
 20
145.538103
 11
4185.881079
 21
145.538103
  0
LINE
  8
CSLAYER1
  6
CONTINUOUS
 62
     3
 10
4154.296660
 20
143.138103
 11
4190.194126
 21
143.138103
  0
LINE
  8
CSLAYER1
  6
CONTINUOUS
 62
     3
 10
4150.943680
 20
140.738103
 11
4192.959335
 21
140.738103
  0
LINE
  8
CSLAYER1
  6
CONTINUOUS
 62
     3
 10
4148.700197
 20
138.338103
 11
4194.810764
 21
138.338103
  0
LINE
  8
CSLAYER1
  6
CONTINUOUS
 62
     3
 10
4146.869725
 20
135.938103
 11
4196.384829
 21
135.938103
  0
LINE
  8
CSLAYER1
  6
CONTINUOUS
 62
     3
 10
4145.831887
 20
133.538103
 11
4197.473641
 21
133.538103
  0
LINE
  8
CSLAYER1
  6
CONTINUOUS
 62
     3
 10
4144.794049
 20
131.138103
 11
4197.981220
 21
131.138103
  0
LINE
  8
CSLAYER1
  6
CONTINUOUS
 62
     3
 10
4143.821524
 20
128.738103
 11
4198.488800
 21
128.738103
  0
LINE
  8
CSLAYER1
  6
CONTINUOUS
 62
     3
 10
4143.339036
 20
126.338103
 11
4198.996379
 21
126.338103
  0
LINE
  8
CSLAYER1
  6
CONTINUOUS
 62
     3
 10
4142.856547
 20
123.938103
 11
4166.241912
 21
123.938103
  0
LINE
  8
CSLAYER1
  6
CONTINUOUS
 62
     3
 10
4142.374059
 20
121.538103
 11
4163.943521
 21
121.538103
  0
LINE
  8
CSLAYER1
  6
CONTINUOUS
 62
     3
 10
4141.891571
 20
119.138103
 11
4162.761266
 21
119.138103
  0
LINE
  8
CSLAYER1
  6
CONTINUOUS
 62
     3
 10
4141.529894
 20
116.738103
 11
4162.283115
 21
116.738103
  0
LINE
  8
CSLAYER1
  6
CONTINUOUS
 62
     3
 10
4141.349639
 20
114.338103
 11
4162.358146
 21
114.338103
  0
LINE
  8
CSLAYER1
  6
CONTINUOUS
 62
     3
 10
4141.312106
 20
111.938103
 11
4163.177277
 21
111.938103
  0
LINE
  8
CSLAYER1
  6
CONTINUOUS
 62
     3
 10
4142.060888
 20
109.538103
 11
4166.222280
 21
109.538103
  0
LINE
  8
CSLAYER1
  6
CONTINUOUS
 62
     3
 10
4143.127555
 20
107.138103
 11
4191.919338
 21
107.138103
  0
LINE
  8
CSLAYER1
  6
CONTINUOUS
 62
     3
 10
4144.194221
 20
104.738103
 11
4191.242415
 21
104.738103
  0
LINE
  8
CSLAYER1
  6
CONTINUOUS
 62
     3
 10
4145.260888
 20
102.338103
 11
4190.157878
 21
102.338103
  0
LINE
  8
CSLAYER1
  6
CONTINUOUS
 62
     3
 10
4146.703826
 20
99.938103
 11
4188.810599
 21
99.938103
  0
LINE
  8
CSLAYER1
  6
CONTINUOUS
 62
     3
 10
4148.576518
 20
97.538103
 11
4186.553209
 21
97.538103
  0
LINE
  8
CSLAYER1
  6
CONTINUOUS
 62
     3
 10
4150.984648
 20
95.138103
 11
4182.964518
 21
95.138103
  0
LINE
  8
CSLAYER1
  6
CONTINUOUS
 62
     3
 10
4154.205361
 20
92.738103
 11
4178.276833
 21
92.738103
  0
LINE
  8
CSLAYER1
  6
CONTINUOUS
 62
     3
 10
4159.076897
 20
90.338103
 11
4171.319610
 21
90.338103
  0
LINE
  8
CSLAYER1
  6
CONTINUOUS
 62
     3
 10
4174.029648
 20
123.938103
 11
4199.259253
 21
123.938103
  0
LINE
  8
CSLAYER1
  6
CONTINUOUS
 62
     3
 10
4175.035764
 20
121.538103
 11
4199.070599
 21
121.538103
  0
LINE
  8
CSLAYER1
  6
CONTINUOUS
 62
     3
 10
4175.203774
 20
119.138103
 11
4198.881945
 21
119.138103
  0
LINE
  8
CSLAYER1
  6
CONTINUOUS
 62
     3
 10
4174.835739
 20
116.738103
 11
4197.811161
 21
116.738103
  0
LINE
  8
CSLAYER1
  6
CONTINUOUS
 62
     3
 10
4173.858270
 20
114.338103
 11
4196.729361
 21
114.338103
  0
LINE
  8
CSLAYER1
  6
CONTINUOUS
 62
     3
 10
4172.158375
 20
111.938103
 11
4195.328439
 21
111.938103
  0
LINE
  8
CSLAYER1
  6
CONTINUOUS
 62
     3
 10
4168.774380
 20
109.538103
 11
4193.422378
 21
109.538103
  0
TEXT
  8
CSLAYER1
 62
     5
 10
4200.069867
 20
120.954866
 40
7.070172
 41
1.951056
  1
M
 50
0.000000
 51
0.000000
  7
EASYDRAW_FONT
 72
     5
 11
4209.266070
 21
120.954866
  0
TEXT
  8
CSLAYER1
 62
     5
 10
4214.546948
 20
120.867460
 40
6.939931
 41
0.778201
  1
T
 50
0.000000
 51
0.000000
  7
EASYDRAW_FONT
 72
     5
 11
4218.147388
 21
120.867460
  0
TEXT
  8
CSLAYER1
 62
     5
 10
4218.695292
 20
120.919658
 40
7.044274
 41
1.055553
  1
E
 50
0.000000
 51
0.000000
  7
EASYDRAW_FONT
 72
     5
 11
4223.652364
 21
120.919658
  0
TEXT
  8
CSLAYER1
 62
     5
 10
4223.369808
 20
123.343425
 40
0.522425
 41
9.375319
  1
-
 50
0.000000
 51
0.000000
  7
EASYDRAW_FONT
 72
     5
 11
4226.635075
 21
123.343425
  0
TEXT
  8
CSLAYER1
 62
     5
 10
4226.090633
 20
120.872638
 40
7.292489
 41
1.298502
  1
H
 50
0.000000
 51
0.000000
  7
EASYDRAW_FONT
 72
     5
 11
4232.403507
 21
120.872638
  0
TEXT
  8
CSLAYER1
 62
     5
 10
4232.204778
 20
120.918206
 40
7.264708
 41
1.269236
  1
A
 50
0.000000
 51
0.000000
  7
EASYDRAW_FONT
 72
     5
 11
4238.351862
 21
120.918206
  0
TEXT
  8
CSLAYER1
 62
     5
 10
4237.764134
 20
120.855916
 40
7.238043
 41
1.490144
  1
N
 50
0.000000
 51
0.000000
  7
EASYDRAW_FONT
 72
     5
 11
4244.954616
 21
120.855916
  0
TEXT
  8
CSLAYER1
 62
     5
 10
4208.951077
 20
120.822056
 40
7.473487
 41
1.177443
  1
A
 50
0.000000
 51
0.000000
  7
EASYDRAW_FONT
 72
     5
 11
4214.817478
 21
120.822056
  0
TEXT
  8
CSLAYER1
 62
     5
 10
4200.620022
 20
110.329197
 40
7.473487
 41
1.177443
  1
A
 50
0.000000
 51
0.000000
  7
EASYDRAW_FONT
 72
     5
 11
4206.486423
 21
110.329197
  0
TEXT
  8
CSLAYER1
 62
     5
 10
4219.797268
 20
110.371678
 40
7.473487
 41
1.177443
  1
A
 50
0.000000
 51
0.000000
  7
EASYDRAW_FONT
 72
     5
 11
4225.663670
 21
110.371678
  0
TEXT
  8
CSLAYER1
 62
     5
 10
4225.437962
 20
110.457173
 40
7.238043
 41
1.490144
  1
N
 50
0.000000
 51
0.000000
  7
EASYDRAW_FONT
 72
     5
 11
4232.628444
 21
110.457173
  0
TEXT
  8
CSLAYER1
 62
     5
 10
4238.791344
 20
110.469766
 40
7.262663
 41
1.184218
  1
E
 50
0.000000
 51
0.000000
  7
EASYDRAW_FONT
 72
     5
 11
4244.525062
 21
110.469766
  0
TEXT
  8
CSLAYER1
 62
     5
 10
4207.041096
 20
110.327210
 40
7.421797
 41
1.093992
  1
D
 50
0.000000
 51
0.000000
  7
EASYDRAW_FONT
 72
     5
 11
4212.454021
 21
110.327210
  0
TEXT
  8
CSLAYER1
 62
     5
 10
4213.645000
 20
110.319133
 40
7.386315
 41
1.228195
  1
V
 50
0.000000
 51
0.000000
  7
EASYDRAW_FONT
 72
     5
 11
4219.692891
 21
110.319133
  0
TEXT
  8
CSLAYER1
 62
     5
 10
4231.982558
 20
110.350231
 40
7.549340
 41
1.481023
  1
C
 50
0.000000
 51
0.000000
  7
EASYDRAW_FONT
 72
     5
 11
4239.436388
 21
110.350231
  0
LINE
  8
CSLAYER1
  6
CONTINUOUS
 62
     5
 10
4217.928111
 20
126.940827
 11
4216.410018
 21
126.940827
  0
LINE
  8
CSLAYER1
  6
CONTINUOUS
 62
     3
 10
4141.575468
 20
178.278734
 11
4216.272208
 21
178.278734
  0
LINE
  8
CSLAYER1
  6
CONTINUOUS
 62
     3
 10
4130.906922
 20
175.878734
 11
4232.891745
 21
175.878734
  0
LINE
  8
CSLAYER1
  6
CONTINUOUS
 62
     3
 10
4119.734315
 20
173.478734
 11
4187.869281
 21
173.478734
  0
LINE
  8
CSLAYER1
  6
CONTINUOUS
 62
     3
 10
4207.311605
 20
173.478734
 11
4221.691511
 21
173.478734
  0
LINE
  8
CSLAYER1
  6
CONTINUOUS
 62
     3
 10
4228.155211
 20
173.478734
 11
4240.924707
 21
173.478734
  0
LINE
  8
CSLAYER1
  6
CONTINUOUS
 62
     3
 10
4121.839024
 20
171.078734
 11
4206.898728
 21
171.078734
  0
LINE
  8
CSLAYER1
  6
CONTINUOUS
 62
     3
 10
4237.168936
 20
171.078734
 11
4246.328303
 21
171.078734
  0
LINE
  8
CSLAYER1
  6
CONTINUOUS
 62
     3
 10
4118.970524
 20
168.678734
 11
4228.102050
 21
168.678734
  0
LINE
  8
CSLAYER1
  6
CONTINUOUS
 62
     3
 10
4246.020884
 20
168.678734
 11
4249.371466
 21
168.678734
  0
LINE
  8
CSLAYER1
  6
CONTINUOUS
 62
     3
 10
4117.377186
 20
166.278734
 11
4239.669834
 21
166.278734
  0
LINE
  8
CSLAYER1
  6
CONTINUOUS
 62
     3
 10
4119.890686
 20
163.878734
 11
4246.883797
 21
163.878734
  0
LINE
  8
CSLAYER1
  6
CONTINUOUS
 62
     3
 10
4121.642038
 20
161.478734
 11
4210.312106
 21
161.478734
  0
LINE
  8
CSLAYER1
  6
CONTINUOUS
 62
     3
 10
4233.561753
 20
161.478734
 11
4256.068238
 21
161.478734
  0
LINE
  8
CSLAYER1
  6
CONTINUOUS
 62
     3
 10
4122.009723
 20
159.078734
 11
4175.062106
 21
159.078734
  0
LINE
  8
CSLAYER1
  6
CONTINUOUS
 62
     3
 10
4244.915147
 20
159.078734
 11
4259.199051
 21
159.078734
  0
LINE
  8
CSLAYER1
  6
CONTINUOUS
 62
     3
 10
4122.319210
 20
156.678734
 11
4142.516971
 21
156.678734
  0
LINE
  8
CSLAYER1
  6
CONTINUOUS
 62
     3
 10
4256.105670
 20
156.678734
 11
4265.833197
 21
156.678734
  0
LINE
  8
CSLAYER1
  6
CONTINUOUS
 62
     3
 10
4268.200161
 20
154.278734
 11
4271.453442
 21
154.278734
  0
ENDBLK
  8
0
  0
BLOCK
  8
CSLAYER1
  2
BLKF0001
 70
   64
 10
0.0
 20
0.0
 30
0.0
  0
LINE
  8
CSLAYER1
  6
CONTINUOUS
 62
     1
 10
822.661210
 20
727.752279
 11
822.661210
 21
725.552279
  0
LINE
  8
CSLAYER1
  6
CONTINUOUS
 62
     1
 10
829.661210
 20
727.752279
 11
829.661210
 21
725.552279
  0
LINE
  8
CSLAYER1
  6
CONTINUOUS
 62
     1
 10
829.661210
 20
726.552279
 11
822.661210
 21
726.552279
  0
LINE
  8
CSLAYER1
  6
CONTINUOUS
 62
     1
 10
828.261210
 20
729.152279
 11
824.061210
 21
729.152279
  0
LINE
  8
CSLAYER1
  6
CONTINUOUS
 62
     1
 10
830.661210
 20
725.552279
 11
830.661210
 21
724.752279
  0
LINE
  8
CSLAYER1
  6
CONTINUOUS
 62
     1
 10
821.661210
 20
725.552279
 11
821.661210
 21
724.752279
  0
LINE
  8
CSLAYER1
  6
CONTINUOUS
 62
     1
 10
829.661210
 20
727.752279
 11
829.661210
 21
726.552279
  0
LINE
  8
CSLAYER1
  6
CONTINUOUS
 62
     1
 10
830.661210
 20
725.552279
 11
821.661210
 21
725.552279
  0
ARC
  8
CSLAYER1
  6
CONTINUOUS
 62
     1
 10
828.261210
 20
727.752279
 40
1.400000
 50
-0.000000
 51
90.000000
  0
ARC
  8
CSLAYER1
  6
CONTINUOUS
 62
     1
 10
824.061210
 20
727.752279
 40
1.400000
 50
90.000000
 51
180.000000
  0
LINE
  8
CSLAYER1
  6
CONTINUOUS
 62
     1
 10
827.201162
 20
725.552279
 11
824.815959
 21
726.552279
  0
LINE
  8
CSLAYER1
  6
CONTINUOUS
 62
     1
 10
826.161210
 20
731.122298
 11
826.161210
 21
722.584295
  0
ENDBLK
  8
0
  0
BLOCK
  8
CSLAYER1
  2
BLKF0002
 70
   64
 10
0.0
 20
0.0
 30
0.0
  0
LINE
  8
CSLAYER1
  6
CONTINUOUS
 62
     1
 10
3100.234622
 20
727.752279
 11
3100.234622
 21
725.552279
  0
LINE
  8
CSLAYER1
  6
CONTINUOUS
 62
     1
 10
3107.234622
 20
727.752279
 11
3107.234622
 21
725.552279
  0
LINE
  8
CSLAYER1
  6
CONTINUOUS
 62
     1
 10
3107.234622
 20
726.552279
 11
3100.234622
 21
726.552279
  0
LINE
  8
CSLAYER1
  6
CONTINUOUS
 62
     1
 10
3105.834622
 20
729.152279
 11
3101.634622
 21
729.152279
  0
LINE
  8
CSLAYER1
  6
CONTINUOUS
 62
     1
 10
3108.234622
 20
725.552279
 11
3108.234622
 21
724.752279
  0
LINE
  8
CSLAYER1
  6
CONTINUOUS
 62
     1
 10
3099.234622
 20
725.552279
 11
3099.234622
 21
724.752279
  0
LINE
  8
CSLAYER1
  6
CONTINUOUS
 62
     1
 10
3107.234622
 20
727.752279
 11
3107.234622
 21
726.552279
  0
LINE
  8
CSLAYER1
  6
CONTINUOUS
 62
     1
 10
3108.234622
 20
725.552279
 11
3099.234622
 21
725.552279
  0
ARC
  8
CSLAYER1
  6
CONTINUOUS
 62
     1
 10
3105.834622
 20
727.752279
 40
1.400000
 50
-0.000000
 51
90.000000
  0
ARC
  8
CSLAYER1
  6
CONTINUOUS
 62
     1
 10
3101.634622
 20
727.752279
 40
1.400000
 50
90.000000
 51
180.000000
  0
LINE
  8
CSLAYER1
  6
CONTINUOUS
 62
     1
 10
3104.774574
 20
725.552279
 11
3102.389372
 21
726.552279
  0
ENDBLK
  8
0
  0
BLOCK
  8
CSLAYER1
  2
BLKF0003
 70
   64
 10
0.0
 20
0.0
 30
0.0
  0
LINE
  8
CSLAYER1
  6
CONTINUOUS
 62
     3
 10
3495.319717
 20
2710.052697
 11
3495.319717
 21
2772.052697
  0
LINE
  8
CSLAYER1
  6
CONTINUOUS
 62
     3
 10
3497.819717
 20
2707.552697
 11
3582.819717
 21
2707.552697
  0
LINE
  8
CSLAYER1
  6
CENTER
 62
     5
 10
3436.970078
 20
2780.052697
 11
3495.319717
 21
2780.052697
  0
LINE
  8
CSLAYER1
  6
CONTINUOUS
 62
     2
 10
3497.819717
 20
2764.052697
 11
3582.819717
 21
2764.052697
  0
LINE
  8
CSLAYER1
  6
CONTINUOUS
 62
     3
 10
3497.819717
 20
2712.552697
 11
3497.819717
 21
2757.552697
  0
LINE
  8
CSLAYER1
  6
CONTINUOUS
 62
     3
 10
3585.319717
 20
2710.052697
 11
3585.319717
 21
2780.052697
  0
LINE
  8
CSLAYER1
  6
CONTINUOUS
 62
     3
 10
3500.319717
 20
2710.052697
 11
3577.319717
 21
2710.052697
  0
LINE
  8
CSLAYER1
  6
CONTINUOUS
 62
     3
 10
3500.319717
 20
2760.052697
 11
3577.319717
 21
2760.052697
  0
ARC
  8
CSLAYER1
  6
CONTINUOUS
 62
     3
 10
3523.251535
 20
2735.052697
 40
59.568182
 50
-24.814837
 51
24.814837
  0
ARC
  8
CSLAYER1
  6
CONTINUOUS
 62
     3
 10
3500.319717
 20
2712.552697
 40
2.500000
 50
180.000000
 51
270.000000
  0
ARC
  8
CSLAYER1
  6
CONTINUOUS
 62
     3
 10
3500.319717
 20
2757.552697
 40
2.500000
 50
90.000000
 51
180.000000
  0
ARC
  8
CSLAYER1
  6
CONTINUOUS
 62
     3
 10
3497.819717
 20
2710.052697
 40
2.500000
 50
180.000000
 51
270.000000
  0
ARC
  8
CSLAYER1
  6
CONTINUOUS
 62
     3
 10
3582.819717
 20
2710.052697
 40
2.500000
 50
270.000000
 51
360.000000
  0
ARC
  8
CSLAYER1
  6
CONTINUOUS
 62
     2
 10
3582.819717
 20
2766.552697
 40
2.500000
 50
270.000000
 51
360.000000
  0
ARC
  8
CSLAYER1
  6
CONTINUOUS
 62
     2
 10
3497.819717
 20
2766.552697
 40
2.500000
 50
180.000000
 51
270.000000
  0
LINE
  8
CSLAYER1
  6
CONTINUOUS
 62
     3
 10
3495.319717
 20
2850.052697
 11
3495.319717
 21
2788.052697
  0
LINE
  8
CSLAYER1
  6
CONTINUOUS
 62
     3
 10
3497.819717
 20
2852.552697
 11
3582.819717
 21
2852.552697
  0
LINE
  8
CSLAYER1
  6
CONTINUOUS
 62
     2
 10
3497.819717
 20
2796.052697
 11
3582.819717
 21
2796.052697
  0
LINE
  8
CSLAYER1
  6
CONTINUOUS
 62
     3
 10
3585.319717
 20
2850.052697
 11
3585.319717
 21
2780.052697
  0
ARC
  8
CSLAYER1
  6
CONTINUOUS
 62
     3
 10
3497.819717
 20
2850.052697
 40
2.500000
 50
90.000000
 51
180.000000
  0
ARC
  8
CSLAYER1
  6
CONTINUOUS
 62
     3
 10
3582.819717
 20
2850.052697
 40
2.500000
 50
-0.000000
 51
90.000000
  0
ARC
  8
CSLAYER1
  6
CONTINUOUS
 62
     2
 10
3582.819717
 20
2793.552697
 40
2.500000
 50
-0.000000
 51
90.000000
  0
ARC
  8
CSLAYER1
  6
CONTINUOUS
 62
     2
 10
3497.819717
 20
2793.552697
 40
2.500000
 50
90.000000
 51
180.000000
  0
LINE
  8
CSLAYER1
  6
CONTINUOUS
 62
     3
 10
3497.819717
 20
2847.552697
 11
3497.819717
 21
2802.552697
  0
LINE
  8
CSLAYER1
  6
CONTINUOUS
 62
     3
 10
3500.319717
 20
2850.052697
 11
3577.319717
 21
2850.052697
  0
LINE
  8
CSLAYER1
  6
CONTINUOUS
 62
     3
 10
3500.319717
 20
2800.052697
 11
3577.319717
 21
2800.052697
  0
ARC
  8
CSLAYER1
  6
CONTINUOUS
 62
     3
 10
3523.251535
 20
2825.052697
 40
59.568182
 50
-24.814837
 51
24.814837
  0
ARC
  8
CSLAYER1
  6
CONTINUOUS
 62
     3
 10
3500.319717
 20
2847.552697
 40
2.500000
 50
90.000000
 51
180.000000
  0
ARC
  8
CSLAYER1
  6
CONTINUOUS
 62
     3
 10
3500.319717
 20
2802.552697
 40
2.500000
 50
180.000000
 51
270.000000
  0
LINE
  8
CSLAYER1
  6
CONTINUOUS
 62
     3
 10
3488.319717
 20
2787.052697
 11
3488.319717
 21
2783.552697
  0
LINE
  8
CSLAYER1
  6
CONTINUOUS
 62
     3
 10
3436.970078
 20
2783.552697
 11
3488.319717
 21
2783.552697
  0
LINE
  8
CSLAYER1
  6
CONTINUOUS
 62
     3
 10
3489.319717
 20
2788.052697
 11
3495.319717
 21
2788.052697
  0
LINE
  8
CSLAYER1
  6
CONTINUOUS
 62
     3
 10
3489.319717
 20
2772.052697
 11
3495.319717
 21
2772.052697
  0
LINE
  8
CSLAYER1
  6
CONTINUOUS
 62
     3
 10
3436.970078
 20
2776.552697
 11
3488.319717
 21
2776.552697
  0
ARC
  8
CSLAYER1
  6
CONTINUOUS
 62
     3
 10
3489.319717
 20
2773.052697
 40
1.000000
 50
180.000000
 51
270.000000
  0
ARC
  8
CSLAYER1
  6
CONTINUOUS
 62
     3
 10
3489.319717
 20
2787.052697
 40
1.000000
 50
90.000000
 51
180.000000
  0
LINE
  8
CSLAYER1
  6
CONTINUOUS
 62
     3
 10
3488.319717
 20
2776.552697
 11
3488.319717
 21
2773.052697
  0
LINE
  8
CSLAYER1
  6
CONTINUOUS
 62
     2
 10
3488.319717
 20
2783.552697
 11
3488.319717
 21
2776.552697
  0
LINE
  8
CSLAYER1
  6
CONTINUOUS
 62
     2
 10
3495.319717
 20
2772.052697
 11
3495.319717
 21
2780.052697
  0
LINE
  8
CSLAYER1
  6
CONTINUOUS
 62
     2
 10
3495.319717
 20
2788.052697
 11
3495.319717
 21
2780.052697
  0
LINE
  8
CSLAYER1
  6
CONTINUOUS
 62
     2
 10
3514.812728
 20
2767.890037
 11
3505.677728
 21
2767.890037
  0
LINE
  8
CSLAYER1
  6
CONTINUOUS
 62
     2
 10
3514.812728
 20
2791.515037
 11
3505.677728
 21
2791.515037
  0
LINE
  8
CSLAYER1
  6
CONTINUOUS
 62
     2
 10
3504.417728
 20
2769.150037
 11
3504.417728
 21
2790.255037
  0
LINE
  8
CSLAYER1
  6
CONTINUOUS
 62
     2
 10
3516.072728
 20
2769.150037
 11
3516.072728
 21
2790.255037
  0
LINE
  8
CSLAYER1
  6
CONTINUOUS
 62
     2
 10
3514.182728
 20
2789.625037
 11
3506.150228
 21
2789.625037
  0
LINE
  8
CSLAYER1
  6
CONTINUOUS
 62
     2
 10
3514.182728
 20
2786.475037
 11
3513.237728
 21
2786.475037
  0
LINE
  8
CSLAYER1
  6
CONTINUOUS
 62
     2
 10
3514.182728
 20
2777.812537
 11
3513.237728
 21
2777.812537
  0
LINE
  8
CSLAYER1
  6
CONTINUOUS
 62
     2
 10
3514.182728
 20
2773.245037
 11
3509.142728
 21
2773.245037
  0
LINE
  8
CSLAYER1
  6
CONTINUOUS
 62
     2
 10
3515.285228
 20
2774.347537
 11
3515.285228
 21
2776.710037
  0
LINE
  8
CSLAYER1
  6
CONTINUOUS
 62
     2
 10
3508.040228
 20
2774.347537
 11
3508.040228
 21
2776.710037
  0
LINE
  8
CSLAYER1
  6
CONTINUOUS
 62
     2
 10
3505.047728
 20
2787.577537
 11
3505.047728
 21
2788.522537
  0
LINE
  8
CSLAYER1
  6
CONTINUOUS
 62
     2
 10
3512.292728
 20
2778.757537
 11
3512.292728
 21
2785.530037
  0
LINE
  8
CSLAYER1
  6
CONTINUOUS
 62
     2
 10
3511.505228
 20
2778.757537
 11
3511.505228
 21
2785.530037
  0
ARC
  8
CSLAYER1
  6
CONTINUOUS
 62
     2
 10
3514.182728
 20
2774.347537
 40
1.102500
 50
270.000000
 51
360.000000
  0
ARC
  8
CSLAYER1
  6
CONTINUOUS
 62
     2
 10
3509.142728
 20
2774.347537
 40
1.102500
 50
180.000000
 51
270.000000
  0
ARC
  8
CSLAYER1
  6
CONTINUOUS
 62
     2
 10
3509.142728
 20
2776.710037
 40
1.102500
 50
90.000000
 51
180.000000
  0
ARC
  8
CSLAYER1
  6
CONTINUOUS
 62
     2
 10
3514.182728
 20
2776.710037
 40
1.102500
 50
-0.000000
 51
90.000000
  0
ARC
  8
CSLAYER1
  6
CONTINUOUS
 62
     2
 10
3506.150228
 20
2787.577537
 40
1.102500
 50
180.000000
 51
270.000000
  0
ARC
  8
CSLAYER1
  6
CONTINUOUS
 62
     2
 10
3506.150228
 20
2788.522537
 40
1.102500
 50
90.000000
 51
180.000000
  0
ARC
  8
CSLAYER1
  6
CONTINUOUS
 62
     2
 10
3514.182728
 20
2788.522537
 40
1.102500
 50
-0.000000
 51
90.000000
  0
ARC
  8
CSLAYER1
  6
CONTINUOUS
 62
     2
 10
3514.182728
 20
2787.577537
 40
1.102500
 50
270.000000
 51
360.000000
  0
LINE
  8
CSLAYER1
  6
CONTINUOUS
 62
     2
 10
3510.560228
 20
2777.812537
 11
3509.142728
 21
2777.812537
  0
LINE
  8
CSLAYER1
  6
CONTINUOUS
 62
     2
 10
3510.560228
 20
2786.475037
 11
3506.150228
 21
2786.475037
  0
ARC
  8
CSLAYER1
  6
CONTINUOUS
 62
     2
 10
3513.237728
 20
2778.757537
 40
0.945000
 50
180.000000
 51
270.000000
  0
ARC
  8
CSLAYER1
  6
CONTINUOUS
 62
     2
 10
3510.560228
 20
2778.757537
 40
0.945000
 50
270.000000
 51
360.000000
  0
ARC
  8
CSLAYER1
  6
CONTINUOUS
 62
     2
 10
3510.560228
 20
2785.530037
 40
0.945000
 50
-0.000000
 51
90.000000
  0
ARC
  8
CSLAYER1
  6
CONTINUOUS
 62
     2
 10
3514.812728
 20
2769.150037
 40
1.260000
 50
270.000000
 51
360.000000
  0
ARC
  8
CSLAYER1
  6
CONTINUOUS
 62
     2
 10
3505.677728
 20
2769.150037
 40
1.260000
 50
180.000000
 51
270.000000
  0
ARC
  8
CSLAYER1
  6
CONTINUOUS
 62
     2
 10
3505.677728
 20
2790.255037
 40
1.260000
 50
90.000000
 51
180.000000
  0
ARC
  8
CSLAYER1
  6
CONTINUOUS
 62
     2
 10
3514.812728
 20
2790.255037
 40
1.260000
 50
-0.000000
 51
90.000000
  0
ARC
  8
CSLAYER1
  6
CONTINUOUS
 62
     2
 10
3513.237728
 20
2785.530037
 40
0.945000
 50
90.000000
 51
180.000000
  0
LINE
  8
CSLAYER1
  6
CONTINUOUS
 62
     2
 10
3515.285228
 20
2787.577537
 11
3515.285228
 21
2788.522537
  0
CIRCLE
  8
CSLAYER1
  6
CONTINUOUS
 62
     2
 10
3529.819717
 20
2730.052697
 40
2.500000
  0
CIRCLE
  8
CSLAYER1
  6
CONTINUOUS
 62
     2
 10
3529.819717
 20
2720.052697
 40
2.500000
  0
CIRCLE
  8
CSLAYER1
  6
CONTINUOUS
 62
     2
 10
3539.819717
 20
2720.052697
 40
2.500000
  0
CIRCLE
  8
CSLAYER1
  6
CONTINUOUS
 62
     2
 10
3539.819717
 20
2730.052697
 40
2.500000
  0
CIRCLE
  8
CSLAYER1
  6
CONTINUOUS
 62
     2
 10
3549.819717
 20
2730.052697
 40
2.500000
  0
CIRCLE
  8
CSLAYER1
  6
CONTINUOUS
 62
     2
 10
3549.819717
 20
2720.052697
 40
2.500000
  0
CIRCLE
  8
CSLAYER1
  6
CONTINUOUS
 62
     2
 10
3559.819717
 20
2720.052697
 40
2.500000
  0
CIRCLE
  8
CSLAYER1
  6
CONTINUOUS
 62
     2
 10
3559.819717
 20
2730.052697
 40
2.500000
  0
CIRCLE
  8
CSLAYER1
  6
CONTINUOUS
 62
     2
 10
3569.819717
 20
2730.052697
 40
2.500000
  0
CIRCLE
  8
CSLAYER1
  6
CONTINUOUS
 62
     2
 10
3569.819717
 20
2720.052697
 40
2.500000
  0
CIRCLE
  8
CSLAYER1
  6
CONTINUOUS
 62
     2
 10
3529.819717
 20
2740.052697
 40
2.500000
  0
CIRCLE
  8
CSLAYER1
  6
CONTINUOUS
 62
     2
 10
3529.819717
 20
2750.052697
 40
2.500000
  0
CIRCLE
  8
CSLAYER1
  6
CONTINUOUS
 62
     2
 10
3539.819717
 20
2750.052697
 40
2.500000
  0
CIRCLE
  8
CSLAYER1
  6
CONTINUOUS
 62
     2
 10
3539.819717
 20
2740.052697
 40
2.500000
  0
CIRCLE
  8
CSLAYER1
  6
CONTINUOUS
 62
     2
 10
3549.819717
 20
2740.052697
 40
2.500000
  0
CIRCLE
  8
CSLAYER1
  6
CONTINUOUS
 62
     2
 10
3549.819717
 20
2750.052697
 40
2.500000
  0
CIRCLE
  8
CSLAYER1
  6
CONTINUOUS
 62
     2
 10
3559.819717
 20
2750.052697
 40
2.500000
  0
CIRCLE
  8
CSLAYER1
  6
CONTINUOUS
 62
     2
 10
3559.819717
 20
2740.052697
 40
2.500000
  0
CIRCLE
  8
CSLAYER1
  6
CONTINUOUS
 62
     2
 10
3569.819717
 20
2740.052697
 40
2.500000
  0
CIRCLE
  8
CSLAYER1
  6
CONTINUOUS
 62
     2
 10
3569.819717
 20
2750.052697
 40
2.500000
  0
CIRCLE
  8
CSLAYER1
  6
CONTINUOUS
 62
     2
 10
3529.819717
 20
2830.052697
 40
2.500000
  0
CIRCLE
  8
CSLAYER1
  6
CONTINUOUS
 62
     2
 10
3529.819717
 20
2840.052697
 40
2.500000
  0
CIRCLE
  8
CSLAYER1
  6
CONTINUOUS
 62
     2
 10
3539.819717
 20
2840.052697
 40
2.500000
  0
CIRCLE
  8
CSLAYER1
  6
CONTINUOUS
 62
     2
 10
3539.819717
 20
2830.052697
 40
2.500000
  0
CIRCLE
  8
CSLAYER1
  6
CONTINUOUS
 62
     2
 10
3549.819717
 20
2830.052697
 40
2.500000
  0
CIRCLE
  8
CSLAYER1
  6
CONTINUOUS
 62
     2
 10
3549.819717
 20
2840.052697
 40
2.500000
  0
CIRCLE
  8
CSLAYER1
  6
CONTINUOUS
 62
     2
 10
3559.819717
 20
2840.052697
 40
2.500000
  0
CIRCLE
  8
CSLAYER1
  6
CONTINUOUS
 62
     2
 10
3559.819717
 20
2830.052697
 40
2.500000
  0
CIRCLE
  8
CSLAYER1
  6
CONTINUOUS
 62
     2
 10
3569.819717
 20
2830.052697
 40
2.500000
  0
CIRCLE
  8
CSLAYER1
  6
CONTINUOUS
 62
     2
 10
3569.819717
 20
2840.052697
 40
2.500000
  0
CIRCLE
  8
CSLAYER1
  6
CONTINUOUS
 62
     2
 10
3529.819717
 20
2820.052697
 40
2.500000
  0
CIRCLE
  8
CSLAYER1
  6
CONTINUOUS
 62
     2
 10
3529.819717
 20
2810.052697
 40
2.500000
  0
CIRCLE
  8
CSLAYER1
  6
CONTINUOUS
 62
     2
 10
3539.819717
 20
2810.052697
 40
2.500000
  0
CIRCLE
  8
CSLAYER1
  6
CONTINUOUS
 62
     2
 10
3539.819717
 20
2820.052697
 40
2.500000
  0
CIRCLE
  8
CSLAYER1
  6
CONTINUOUS
 62
     2
 10
3549.819717
 20
2820.052697
 40
2.500000
  0
CIRCLE
  8
CSLAYER1
  6
CONTINUOUS
 62
     2
 10
3549.819717
 20
2810.052697
 40
2.500000
  0
CIRCLE
  8
CSLAYER1
  6
CONTINUOUS
 62
     2
 10
3559.819717
 20
2810.052697
 40
2.500000
  0
CIRCLE
  8
CSLAYER1
  6
CONTINUOUS
 62
     2
 10
3559.819717
 20
2820.052697
 40
2.500000
  0
CIRCLE
  8
CSLAYER1
  6
CONTINUOUS
 62
     2
 10
3569.819717
 20
2820.052697
 40
2.500000
  0
CIRCLE
  8
CSLAYER1
  6
CONTINUOUS
 62
     2
 10
3569.819717
 20
2810.052697
 40
2.500000
  0
LINE
  8
CSLAYER1
  6
CONTINUOUS
 62
     2
 10
3503.819717
 20
2807.552697
 11
3503.819717
 21
2842.552697
  0
LINE
  8
CSLAYER1
  6
CONTINUOUS
 62
     2
 10
3519.819717
 20
2807.552697
 11
3519.819717
 21
2842.552697
  0
LINE
  8
CSLAYER1
  6
CONTINUOUS
 62
     2
 10
3505.319717
 20
2806.052697
 11
3518.319717
 21
2806.052697
  0
LINE
  8
CSLAYER1
  6
CONTINUOUS
 62
     2
 10
3504.819717
 20
2807.552697
 11
3504.819717
 21
2842.552697
  0
LINE
  8
CSLAYER1
  6
CONTINUOUS
 62
     2
 10
3518.819717
 20
2807.552697
 11
3518.819717
 21
2842.552697
  0
LINE
  8
CSLAYER1
  6
CONTINUOUS
 62
     2
 10
3505.319717
 20
2807.052697
 11
3518.319717
 21
2807.052697
  0
LINE
  8
CSLAYER1
  6
CONTINUOUS
 62
     2
 10
3505.319717
 20
2844.052697
 11
3518.319717
 21
2844.052697
  0
LINE
  8
CSLAYER1
  6
CONTINUOUS
 62
     2
 10
3505.319717
 20
2843.052697
 11
3518.319717
 21
2843.052697
  0
ARC
  8
CSLAYER1
  6
CONTINUOUS
 62
     2
 10
3505.319717
 20
2807.552697
 40
0.500000
 50
180.000000
 51
270.000000
  0
ARC
  8
CSLAYER1
  6
CONTINUOUS
 62
     2
 10
3518.319717
 20
2807.552697
 40
0.500000
 50
270.000000
 51
360.000000
  0
ARC
  8
CSLAYER1
  6
CONTINUOUS
 62
     2
 10
3505.319717
 20
2842.552697
 40
0.500000
 50
90.000000
 51
180.000000
  0
ARC
  8
CSLAYER1
  6
CONTINUOUS
 62
     2
 10
3518.319717
 20
2842.552697
 40
0.500000
 50
-0.000000
 51
90.000000
  0
ARC
  8
CSLAYER1
  6
CONTINUOUS
 62
     2
 10
3505.319717
 20
2807.552697
 40
1.500000
 50
180.000000
 51
270.000000
  0
ARC
  8
CSLAYER1
  6
CONTINUOUS
 62
     2
 10
3518.319717
 20
2807.552697
 40
1.500000
 50
270.000000
 51
360.000000
  0
ARC
  8
CSLAYER1
  6
CONTINUOUS
 62
     2
 10
3505.319717
 20
2842.552697
 40
1.500000
 50
90.000000
 51
180.000000
  0
ARC
  8
CSLAYER1
  6
CONTINUOUS
 62
     2
 10
3518.319717
 20
2842.552697
 40
1.500000
 50
-0.000000
 51
90.000000
  0
LINE
  8
CSLAYER1
  6
CONTINUOUS
 62
     2
 10
3508.819717
 20
2816.052697
 11
3508.819717
 21
2834.052697
  0
LINE
  8
CSLAYER1
  6
CONTINUOUS
 62
     2
 10
3505.741645
 20
2825.052697
 11
3508.819717
 21
2834.052697
  0
LINE
  8
CSLAYER1
  6
CONTINUOUS
 62
     2
 10
3505.741645
 20
2825.052697
 11
3508.819717
 21
2816.052697
  0
TEXT
  8
CSLAYER1
 62
     2
 10
3517.113349
 20
2816.072577
 40
7.066058
 41
1.574983
  1
UP
 50
89.999985
 51
0.000000
  7
EASYDRAW_FONT
 72
     5
 11
3517.113354
 21
2834.620780
  0
LINE
  8
CSLAYER1
  6
CONTINUOUS
 62
     2
 10
3503.819717
 20
2752.552697
 11
3503.819717
 21
2717.552697
  0
LINE
  8
CSLAYER1
  6
CONTINUOUS
 62
     2
 10
3519.819717
 20
2752.552697
 11
3519.819717
 21
2717.552697
  0
LINE
  8
CSLAYER1
  6
CONTINUOUS
 62
     2
 10
3505.319717
 20
2754.052697
 11
3518.319717
 21
2754.052697
  0
LINE
  8
CSLAYER1
  6
CONTINUOUS
 62
     2
 10
3504.819717
 20
2752.552697
 11
3504.819717
 21
2717.552697
  0
LINE
  8
CSLAYER1
  6
CONTINUOUS
 62
     2
 10
3518.819717
 20
2752.552697
 11
3518.819717
 21
2717.552697
  0
LINE
  8
CSLAYER1
  6
CONTINUOUS
 62
     2
 10
3505.319717
 20
2753.052697
 11
3518.319717
 21
2753.052697
  0
LINE
  8
CSLAYER1
  6
CONTINUOUS
 62
     2
 10
3505.319717
 20
2716.052697
 11
3518.319717
 21
2716.052697
  0
LINE
  8
CSLAYER1
  6
CONTINUOUS
 62
     2
 10
3505.319717
 20
2717.052697
 11
3518.319717
 21
2717.052697
  0
ARC
  8
CSLAYER1
  6
CONTINUOUS
 62
     2
 10
3505.319717
 20
2752.552697
 40
0.500000
 50
90.000000
 51
180.000000
  0
ARC
  8
CSLAYER1
  6
CONTINUOUS
 62
     2
 10
3518.319717
 20
2752.552697
 40
0.500000
 50
-0.000000
 51
90.000000
  0
ARC
  8
CSLAYER1
  6
CONTINUOUS
 62
     2
 10
3505.319717
 20
2717.552697
 40
0.500000
 50
180.000000
 51
270.000000
  0
ARC
  8
CSLAYER1
  6
CONTINUOUS
 62
     2
 10
3518.319717
 20
2717.552697
 40
0.500000
 50
270.000000
 51
360.000000
  0
ARC
  8
CSLAYER1
  6
CONTINUOUS
 62
     2
 10
3505.319717
 20
2752.552697
 40
1.500000
 50
90.000000
 51
180.000000
  0
ARC
  8
CSLAYER1
  6
CONTINUOUS
 62
     2
 10
3518.319717
 20
2752.552697
 40
1.500000
 50
-0.000000
 51
90.000000
  0
ARC
  8
CSLAYER1
  6
CONTINUOUS
 62
     2
 10
3505.319717
 20
2717.552697
 40
1.500000
 50
180.000000
 51
270.000000
  0
ARC
  8
CSLAYER1
  6
CONTINUOUS
 62
     2
 10
3518.319717
 20
2717.552697
 40
1.500000
 50
270.000000
 51
360.000000
  0
LINE
  8
CSLAYER1
  6
CONTINUOUS
 62
     2
 10
3514.292647
 20
2744.052697
 11
3514.292647
 21
2726.052697
  0
LINE
  8
CSLAYER1
  6
CONTINUOUS
 62
     2
 10
3517.370719
 20
2735.052697
 11
3514.292647
 21
2726.052697
  0
LINE
  8
CSLAYER1
  6
CONTINUOUS
 62
     2
 10
3517.370719
 20
2735.052697
 11
3514.292647
 21
2744.052697
  0
TEXT
  8
CSLAYER1
 62
     2
 10
3512.682506
 20
2720.355009
 40
6.383575
 41
1.255870
  1
DOWN
 50
89.999985
 51
0.000000
  7
EASYDRAW_FONT
 72
     5
 11
3512.682514
 21
2749.750458
  0
ENDBLK
  8
0
  0
ENDSEC
  0
SECTION
  2
ENTITIES
  0
LINE
  8
CSLAYER1
  6
CONTINUOUS
 62
     3
 10
180.707488
 20
3599.850540
 11
180.707488
 21
75.393795
  0
LINE
  8
CSLAYER1
  6
CONTINUOUS
 62
     3
 10
5161.512127
 20
3599.850540
 11
180.707488
 21
3599.850540
  0
LINE
  8
CSLAYER1
  6
CONTINUOUS
 62
     3
 10
5161.512127
 20
75.393795
 11
180.707488
 21
75.393795
  0
LINE
  8
CSLAYER1
  6
CONTINUOUS
 62
     3
 10
5161.512127
 20
75.393795
 11
5161.512127
 21
3599.850540
  0
LINE
  8
CSLAYER1
  6
CONTINUOUS
 62
     5
 10
105.707488
 20
1815.393795
 11
30.707488
 21
1815.393795
  0
LINE
  8
CSLAYER1
  6
CONTINUOUS
 62
     5
 10
3961.512127
 20
735.393795
 11
5161.512127
 21
735.393795
  0
LINE
  8
CSLAYER1
  6
CONTINUOUS
 62
     5
 10
3961.512127
 20
195.393795
 11
5161.512127
 21
195.393795
  0
LINE
  8
CSLAYER1
  6
CONTINUOUS
 62
     5
 10
3961.512127
 20
435.393795
 11
5161.512127
 21
435.393795
  0
LINE
  8
CSLAYER1
  6
CONTINUOUS
 62
     5
 10
3961.512127
 20
525.393795
 11
5161.512127
 21
525.393795
  0
LINE
  8
CSLAYER1
  6
CONTINUOUS
 62
     5
 10
3961.512127
 20
615.393795
 11
5161.512127
 21
615.393795
  0
LINE
  8
CSLAYER1
  6
CONTINUOUS
 62
     5
 10
3961.512127
 20
855.393795
 11
5161.512127
 21
855.393795
  0
LINE
  8
CSLAYER1
  6
CONTINUOUS
 62
     5
 10
3961.512127
 20
975.393795
 11
3961.512127
 21
75.393795
  0
LINE
  8
CSLAYER1
  6
CONTINUOUS
 62
     5
 10
4261.512127
 20
975.393795
 11
4261.512127
 21
615.393795
  0
LINE
  8
CSLAYER1
  6
CONTINUOUS
 62
     5
 10
3961.512127
 20
975.393795
 11
5161.512127
 21
975.393795
  0
LINE
  8
CSLAYER1
  6
CONTINUOUS
 62
     5
 10
4711.512127
 20
615.393795
 11
4711.512127
 21
195.393795
  0
TEXT
  8
CSLAYER1
 62
     3
 10
4291.048678
 20
88.237877
 40
89.070541
 41
1.003345
  1
東正車輌株式会社
 50
0.000000
 51
0.000000
  7
EASYDRAW_FONT
 72
     5
 11
4976.207181
 21
88.237877
  0
LINE
  8
CSLAYER1
  6
CONTINUOUS
 62
     5
 10
4336.512127
 20
525.393795
 11
4336.512127
 21
195.393795
  0
TEXT
  8
CSLAYER1
 62
     5
 10
4006.511719
 20
877.893738
 40
75.000000
 41
1.050000
  1
品　名
 50
0.000000
 51
0.000000
  7
EASYDRAW_FONT
 72
     5
 11
4216.511719
 21
877.893738
  0
TEXT
  8
CSLAYER1
 62
     5
 10
4006.511719
 20
757.893738
 40
75.000000
 41
1.050000
  1
型　式
 50
0.000000
 51
0.000000
  7
EASYDRAW_FONT
 72
     5
 11
4216.511719
 21
757.893738
  0
TEXT
  8
CSLAYER1
 62
     5
 10
3969.011719
 20
637.893799
 40
75.000000
 41
1.036364
  1
図面番号
 50
0.000000
 51
0.000000
  7
EASYDRAW_FONT
 72
     5
 11
4254.011719
 21
637.893799
  0
TEXT
  8
CSLAYER1
 62
     5
 10
4036.511719
 20
532.893799
 40
75.000000
 41
0.827586
  1
平成２８年４月１６日
 50
0.000000
 51
0.000000
  7
EASYDRAW_FONT
 72
     5
 11
4636.511719
 21
532.893799
  0
TEXT
  8
CSLAYER1
 62
     5
 10
4831.511719
 20
532.893799
 40
75.000000
 41
1.050000
  1
Ｂ－４
 50
0.000000
 51
0.000000
  7
EASYDRAW_FONT
 72
     5
 11
5041.511719
 21
532.893799
  0
TEXT
  8
CSLAYER1
 62
     5
 10
4044.011719
 20
442.893799
 40
75.000000
 41
1.050000
  1
検　図
 50
0.000000
 51
0.000000
  7
EASYDRAW_FONT
 72
     5
 11
4254.011719
 21
442.893799
  0
TEXT
  8
CSLAYER1
 62
     5
 10
4419.011719
 20
442.893799
 40
75.000000
 41
1.050000
  1
作　図
 50
0.000000
 51
0.000000
  7
EASYDRAW_FONT
 72
     5
 11
4629.011719
 21
442.893799
  0
TEXT
  8
CSLAYER1
 62
     5
 10
4831.511719
 20
442.893799
 40
75.000000
 41
1.050000
  1
尺　度
 50
0.000000
 51
0.000000
  7
EASYDRAW_FONT
 72
     5
 11
5041.511719
 21
442.893799
  0
TEXT
  8
CSLAYER1
 62
     5
 10
4982.620117
 20
217.121689
 40
75.000000
 41
1.080000
  1
１５
 50
0.000000
 51
0.000000
  7
EASYDRAW_FONT
 72
     5
 11
5117.620117
 21
217.121689
  0
TEXT
  8
CSLAYER1
 62
     5
 10
4952.140625
 20
288.678741
 40
75.000000
 41
1.200000
  1
／
 50
0.000000
 51
0.000000
  7
EASYDRAW_FONT
 72
     5
 11
5012.140625
 21
288.678741
  0
TEXT
  8
CSLAYER1
 62
     5
 10
4906.821289
 20
341.153900
 40
75.000000
 41
1.200000
  1
１
 50
0.000000
 51
0.000000
  7
EASYDRAW_FONT
 72
     5
 11
4966.821289
 21
341.153900
  0
TEXT
  8
CSLAYER1
 62
     3
 10
4471.511719
 20
877.893738
 40
75.000000
 41
0.834783
  1
ゴールドリフター
 50
0.000000
 51
0.000000
  7
EASYDRAW_FONT
 72
     5
 11
4951.511719
 21
877.893738
  0
TEXT
  8
CSLAYER1
 62
     3
 10
4351.511719
 20
757.893738
 40
75.000000
 41
0.822857
  1
ＧＬＩ－７５０－０８１５
 50
0.000000
 51
0.000000
  7
EASYDRAW_FONT
 72
     5
 11
5071.511719
 21
757.893738
  0
TEXT
  8
CSLAYER1
 62
     3
 10
4561.511719
 20
637.893799
 40
75.000000
 41
0.857143
  1
GI-30
 50
0.000000
 51
0.000000
  7
EASYDRAW_FONT
 72
     5
 11
4861.511719
 21
637.893799
  0
INSERT
  8
CSLAYER1
  2
BLKF0000
 10
0.0
 20
0.0
 30
0.0
  0
ARC
  8
CSLAYER1
  6
CONTINUOUS
 62
     4
 10
2738.023982
 20
1664.898234
 40
17.000000
 50
-33.130318
 51
45.490000
  0
CIRCLE
  8
CSLAYER1
  6
CONTINUOUS
 62
     7
 10
2731.702579
 20
1659.894241
 40
21.000000
  0
LINE
  8
CSLAYER1
  6
CONTINUOUS
 62
     7
 10
1694.234622
 20
685.252279
 11
1694.234622
 21
620.252279
  0
LINE
  8
CSLAYER1
  6
CONTINUOUS
 62
     7
 10
343.445474
 20
620.252279
 11
3734.651139
 21
620.252279
  0
LINE
  8
CSLAYER1
  6
CONTINUOUS
 62
     7
 10
1694.234622
 20
685.252279
 11
3194.234622
 21
685.252279
  0
LINE
  8
CSLAYER1
  6
CONTINUOUS
 62
     5
 10
2067.443026
 20
1444.456225
 11
2068.038725
 21
1445.041821
  0
LINE
  8
CSLAYER1
  6
CONTINUOUS
 62
     4
 10
2669.106181
 20
685.252279
 11
2270.204687
 21
1091.035703
  0
LINE
  8
CSLAYER1
  6
CONTINUOUS
 62
     4
 10
2715.917885
 20
785.985318
 11
2740.842859
 21
685.252279
  0
LINE
  8
CSLAYER1
  6
CONTINUOUS
 62
     4
 10
2715.917885
 20
785.985318
 11
1874.677404
 21
1641.739051
  0
LINE
  8
CSLAYER1
  6
CONTINUOUS
 62
     4
 10
2172.059954
 20
1190.873649
 11
1729.671533
 21
1640.894245
  0
LINE
  8
CSLAYER1
  6
CONTINUOUS
 62
     4
 10
2181.801863
 20
1172.404878
 11
2172.059957
 21
1190.873643
  0
LINE
  8
CSLAYER1
  6
CONTINUOUS
 62
     4
 10
2251.905237
 20
1101.092067
 11
2270.204680
 21
1091.035707
  0
LINE
  8
CSLAYER1
  6
CONTINUOUS
 62
     3
 10
2216.853550
 20
1136.748472
 11
2181.801276
 21
1172.405475
  0
LINE
  8
CSLAYER1
  6
CONTINUOUS
 62
     4
 10
1874.677404
 20
1641.739051
 11
1756.234675
 21
1673.205294
  0
LINE
  8
CSLAYER1
  6
CONTINUOUS
 62
     4
 10
2509.088381
 20
1705.894245
 11
2336.112634
 21
1529.934289
  0
LINE
  8
CSLAYER1
  6
CONTINUOUS
 62
     4
 10
2216.032020
 20
1101.092072
 11
2197.732576
 21
1091.035712
  0
LINE
  8
CSLAYER1
  6
CONTINUOUS
 62
     4
 10
2233.968626
 20
1119.338124
 11
2216.032020
 21
1101.092072
  0
LINE
  8
CSLAYER1
  6
CONTINUOUS
 62
     4
 10
2278.140213
 20
1231.315619
 11
2381.655367
 21
1336.616636
  0
ARC
  8
CSLAYER1
  6
CONTINUOUS
 62
     4
 10
2365.556930
 20
1394.416639
 40
60.000000
 50
285.563565
 51
315.490000
  0
LINE
  8
CSLAYER1
  6
CONTINUOUS
 62
     4
 10
2408.344616
 20
1352.354614
 11
2664.922974
 21
1613.359510
  0
LINE
  8
CSLAYER1
  6
CONTINUOUS
 62
     4
 10
2664.922960
 20
1613.359504
 11
2728.450487
 21
1639.147581
  0
ARC
  8
CSLAYER1
  6
CONTINUOUS
 62
     4
 10
2365.556930
 20
1394.416639
 40
32.500000
 50
148.247532
 51
328.247532
  0
LINE
  8
CSLAYER1
  6
CONTINUOUS
 62
     4
 10
2536.178896
 20
1608.354468
 11
2393.192641
 21
1377.313496
  0
CIRCLE
  8
CSLAYER1
  6
CONTINUOUS
 62
     4
 10
2731.702581
 20
1659.894246
 40
10.100000
  0
LINE
  8
CSLAYER1
  6
CONTINUOUS
 62
     4
 10
1745.129926
 20
764.712377
 11
1726.609246
 21
685.252279
  0
LINE
  8
CSLAYER1
  6
CONTINUOUS
 62
     4
 10
1798.831064
 20
685.252279
 11
2197.732569
 21
1091.035708
  0
LINE
  8
CSLAYER1
  6
CONTINUOUS
 62
     4
 10
2480.907474
 20
1642.560754
 11
2337.921219
 21
1411.519782
  0
ARC
  8
CSLAYER1
  6
CONTINUOUS
 62
     4
 10
2508.543185
 20
1625.457611
 40
32.500000
 50
-31.752468
 51
148.247532
  0
LINE
  8
CSLAYER1
  6
CONTINUOUS
 62
     4
 10
2749.941552
 20
1677.021415
 11
2746.001907
 21
1680.894245
  0
LINE
  8
CSLAYER1
  6
CONTINUOUS
 62
     7
 10
3194.234622
 20
685.252279
 11
3194.234622
 21
620.252279
  0
LINE
  8
CSLAYER1
  6
CONTINUOUS
 62
     4
 10
2336.112634
 20
1529.934289
 11
2181.450615
 21
1329.673326
  0
LINE
  8
CSLAYER1
  6
CONTINUOUS
 62
     3
 10
2629.034675
 20
1683.894245
 11
2629.034675
 21
1705.894245
  0
LINE
  8
CSLAYER1
  6
CONTINUOUS
 62
     5
 10
5082.426141
 20
2757.545661
 11
4001.117365
 21
2757.545661
  0
LINE
  8
CSLAYER1
  6
CONTINUOUS
 62
     5
 10
5082.426141
 20
2661.545663
 11
4001.117365
 21
2661.545663
  0
LINE
  8
CSLAYER1
  6
CONTINUOUS
 62
     5
 10
5082.426141
 20
2565.545665
 11
4001.117365
 21
2565.545665
  0
LINE
  8
CSLAYER1
  6
CONTINUOUS
 62
     5
 10
5082.426141
 20
2469.545668
 11
4002.426168
 21
2469.545668
  0
LINE
  8
CSLAYER1
  6
CONTINUOUS
 62
     5
 10
5082.426141
 20
2373.545670
 11
4001.117365
 21
2373.545670
  0
LINE
  8
CSLAYER1
  6
CONTINUOUS
 62
     5
 10
5082.426141
 20
2277.545673
 11
4001.117365
 21
2277.545673
  0
LINE
  8
CSLAYER1
  6
CONTINUOUS
 62
     5
 10
5082.426141
 20
2181.545675
 11
4001.117365
 21
2181.545675
  0
LINE
  8
CSLAYER1
  6
CONTINUOUS
 62
     5
 10
5082.426141
 20
2085.545677
 11
4001.117365
 21
2085.545677
  0
LINE
  8
CSLAYER1
  6
CONTINUOUS
 62
     5
 10
5082.426141
 20
1989.545680
 11
4001.117365
 21
1989.545680
  0
TEXT
  8
CSLAYER1
 62
     3
 10
4294.703613
 20
2877.273682
 40
60.000000
 41
0.857143
  1
仕   様
 50
0.000000
 51
0.000000
  7
EASYDRAW_FONT
 72
     5
 11
4534.703613
 21
2877.273682
  0
TEXT
  8
CSLAYER1
 62
     3
 10
4017.257324
 20
2769.879639
 40
60.000000
 41
0.847059
  1
型    式
 50
0.000000
 51
0.000000
  7
EASYDRAW_FONT
 72
     5
 11
4305.257324
 21
2769.879639
  0
TEXT
  8
CSLAYER1
 62
     3
 10
4014.527344
 20
2586.145264
 40
60.000000
 41
0.847059
  1
テーブル寸法
 50
0.000000
 51
0.000000
  7
EASYDRAW_FONT
 72
     5
 11
4302.527344
 21
2586.145264
  0
TEXT
  8
CSLAYER1
 62
     3
 10
4017.257324
 20
2491.549072
 40
60.000000
 41
0.847059
  1
テーブル高サ
 50
0.000000
 51
0.000000
  7
EASYDRAW_FONT
 72
     5
 11
4305.257324
 21
2491.549072
  0
TEXT
  8
CSLAYER1
 62
     3
 10
4019.427246
 20
2394.224854
 40
60.000000
 41
0.857143
  1
ストローク
 50
0.000000
 51
0.000000
  7
EASYDRAW_FONT
 72
     5
 11
4259.427246
 21
2394.224854
  0
TEXT
  8
CSLAYER1
 62
     3
 10
4018.517578
 20
2296.900635
 40
60.000000
 41
0.857143
  1
全   長
 50
0.000000
 51
0.000000
  7
EASYDRAW_FONT
 72
     5
 11
4258.517578
 21
2296.900635
  0
TEXT
  8
CSLAYER1
 62
     3
 10
4021.924805
 20
2198.124268
 40
60.000000
 41
0.857143
  1
全   巾
 50
0.000000
 51
0.000000
  7
EASYDRAW_FONT
 72
     5
 11
4261.924805
 21
2198.124268
  0
TEXT
  8
CSLAYER1
 62
     3
 10
4019.587891
 20
2102.296631
 40
60.000000
 41
0.857143
  1
全   高
 50
0.000000
 51
0.000000
  7
EASYDRAW_FONT
 72
     5
 11
4259.587891
 21
2102.296631
  0
TEXT
  8
CSLAYER1
 62
     3
 10
4019.587891
 20
2008.806885
 40
60.000000
 41
0.857143
  1
リフト方式
 50
0.000000
 51
0.000000
  7
EASYDRAW_FONT
 72
     5
 11
4259.587891
 21
2008.806885
  0
TEXT
  8
CSLAYER1
 62
     3
 10
4721.390625
 20
2677.642334
 40
60.000000
 41
0.900000
  1
750
 50
0.000000
 51
0.000000
  7
EASYDRAW_FONT
 72
     5
 11
4865.390625
 21
2677.642334
  0
TEXT
  8
CSLAYER1
 62
     3
 10
4976.625977
 20
2672.132568
 40
60.000000
 41
0.960000
  1
Ｋｇ
 50
0.000000
 51
0.000000
  7
EASYDRAW_FONT
 72
     5
 11
5072.625977
 21
2672.132568
  0
TEXT
  8
CSLAYER1
 62
     3
 10
4455.717285
 20
2580.887451
 40
60.000000
 41
0.830769
  1
1500 ×800
 50
0.000000
 51
0.000000
  7
EASYDRAW_FONT
 72
     5
 11
4887.717285
 21
2580.887451
  0
TEXT
  8
CSLAYER1
 62
     3
 10
4895.898438
 20
2598.417236
 40
60.000000
 41
1.200000
  1
Ｗ
 50
0.000000
 51
0.000000
  7
EASYDRAW_FONT
 72
     5
 11
4943.898438
 21
2598.417236
  0
TEXT
  8
CSLAYER1
 62
     3
 10
4638.335449
 20
2602.843018
 40
60.000000
 41
1.200000
  1
Ｌ
 50
0.000000
 51
0.000000
  7
EASYDRAW_FONT
 72
     5
 11
4686.335449
 21
2602.843018
  0
TEXT
  8
CSLAYER1
 62
     3
 10
4522.778320
 20
2487.087158
 40
60.000000
 41
0.834783
  1
230～1220
 50
0.000000
 51
0.000000
  7
EASYDRAW_FONT
 72
     5
 11
4906.778320
 21
2487.087158
  0
TEXT
  8
CSLAYER1
 62
     3
 10
4736.148438
 20
2391.574463
 40
60.000000
 41
0.900000
  1
990
 50
0.000000
 51
0.000000
  7
EASYDRAW_FONT
 72
     5
 11
4880.148438
 21
2391.574463
  0
TEXT
  8
CSLAYER1
 62
     3
 10
4691.714355
 20
2296.218506
 40
60.000000
 41
0.872727
  1
1500
 50
0.000000
 51
0.000000
  7
EASYDRAW_FONT
 72
     5
 11
4883.714355
 21
2296.218506
  0
TEXT
  8
CSLAYER1
 62
     3
 10
4739.327148
 20
2199.439697
 40
60.000000
 41
0.900000
  1
800
 50
0.000000
 51
0.000000
  7
EASYDRAW_FONT
 72
     5
 11
4883.327148
 21
2199.439697
  0
TEXT
  8
CSLAYER1
 62
     3
 10
4426.143555
 20
2010.239014
 40
60.000000
 41
0.827586
  1
電 動 ボールネジ式
 50
0.000000
 51
0.000000
  7
EASYDRAW_FONT
 72
     5
 11
4906.143555
 21
2010.239014
  0
TEXT
  8
CSLAYER1
 62
     3
 10
4736.313965
 20
2102.447998
 40
60.000000
 41
0.900000
  1
230
 50
0.000000
 51
0.000000
  7
EASYDRAW_FONT
 72
     5
 11
4880.313965
 21
2102.447998
  0
TEXT
  8
CSLAYER1
 62
     3
 10
4972.854492
 20
2575.977295
 40
60.000000
 41
0.960000
  1
mm
 50
0.000000
 51
0.000000
  7
EASYDRAW_FONT
 72
     5
 11
5068.854492
 21
2575.977295
  0
TEXT
  8
CSLAYER1
 62
     3
 10
4972.854492
 20
2485.477783
 40
60.000000
 41
0.960000
  1
mm
 50
0.000000
 51
0.000000
  7
EASYDRAW_FONT
 72
     5
 11
5068.854492
 21
2485.477783
  0
TEXT
  8
CSLAYER1
 62
     3
 10
4967.198242
 20
2389.321533
 40
60.000000
 41
0.960000
  1
mm
 50
0.000000
 51
0.000000
  7
EASYDRAW_FONT
 72
     5
 11
5063.198242
 21
2389.321533
  0
TEXT
  8
CSLAYER1
 62
     3
 10
4967.198242
 20
2287.509033
 40
60.000000
 41
0.960000
  1
mm
 50
0.000000
 51
0.000000
  7
EASYDRAW_FONT
 72
     5
 11
5063.198242
 21
2287.509033
  0
TEXT
  8
CSLAYER1
 62
     3
 10
4963.428223
 20
2197.010010
 40
60.000000
 41
0.960000
  1
mm
 50
0.000000
 51
0.000000
  7
EASYDRAW_FONT
 72
     5
 11
5059.428223
 21
2197.010010
  0
TEXT
  8
CSLAYER1
 62
     3
 10
4963.428223
 20
2100.852783
 40
60.000000
 41
0.960000
  1
mm
 50
0.000000
 51
0.000000
  7
EASYDRAW_FONT
 72
     5
 11
5059.428223
 21
2100.852783
  0
LINE
  8
CSLAYER1
  6
CONTINUOUS
 62
     5
 10
4576.782772
 20
2853.545658
 11
4264.203814
 21
2853.545658
  0
LINE
  8
CSLAYER1
  6
CONTINUOUS
 62
     5
 10
4576.782772
 20
2865.545658
 11
4264.203814
 21
2865.545658
  0
LINE
  8
CSLAYER1
  6
CONTINUOUS
 62
     3
 10
4006.346955
 20
2441.365976
 11
4009.546955
 21
2441.365976
  0
LINE
  8
CSLAYER1
  6
CONTINUOUS
 62
     3
 10
3277.781972
 20
2776.552697
 11
3488.319717
 21
2776.552697
  0
LINE
  8
CSLAYER1
  6
CONTINUOUS
 62
     3
 10
3277.249335
 20
2783.552697
 11
3488.319717
 21
2783.552697
  0
ARC
  8
CSLAYER1
  6
CONTINUOUS
 62
     3
 10
3284.086732
 20
2737.052697
 40
40.000000
 50
-260.931278
 51
63.817766
  0
ARC
  8
CSLAYER1
  6
CONTINUOUS
 62
     3
 10
3284.086732
 20
2737.052697
 40
47.000000
 50
-261.635125
 51
49.860785
  0
LINE
  8
CSLAYER1
  6
CONTINUOUS
 62
     3
 10
3194.234675
 20
2776.552697
 11
3254.095116
 21
2776.552697
  0
LINE
  8
CSLAYER1
  6
CONTINUOUS
 62
     3
 10
3194.234675
 20
2783.552697
 11
3264.802007
 21
2783.552697
  0
LINE
  8
CSLAYER1
  6
CONTINUOUS
 62
     3
 10
3194.234675
 20
2818.752697
 11
3309.679643
 21
2818.752697
  0
LINE
  8
CSLAYER1
  6
CONTINUOUS
 62
     3
 10
3194.234675
 20
2811.752697
 11
3319.561434
 21
2811.752697
  0
TEXT
  8
CSLAYER1
 62
     5
 10
3672.501465
 20
3279.969971
 40
60.000000
 41
1.028571
  1
電源コード
 50
360.000000
 51
0.000000
  7
EASYDRAW_FONT
 72
     5
 11
3960.501465
 21
3279.969971
  0
TEXT
  8
CSLAYER1
 62
     5
 10
3705.261475
 20
3206.135498
 40
60.000000
 41
1.036364
  1
長サ４ｍ
 50
360.000000
 51
0.000000
  7
EASYDRAW_FONT
 72
     5
 11
3933.261475
 21
3206.135498
  0
LINE
  8
CSLAYER1
  6
CONTINUOUS
 62
     3
 10
3556.179960
 20
2965.364936
 11
3561.250588
 21
2967.274653
  0
LINE
  8
CSLAYER1
  6
CONTINUOUS
 62
     3
 10
3561.250588
 20
2967.274653
 11
3567.675220
 21
2967.453115
  0
LINE
  8
CSLAYER1
  6
CONTINUOUS
 62
     3
 10
3555.125631
 20
2966.754038
 11
3560.774690
 21
2969.118761
  0
LINE
  8
CSLAYER1
  6
CONTINUOUS
 62
     3
 10
3560.774690
 20
2969.118761
 11
3566.128550
 21
2970.427482
  0
LINE
  8
CSLAYER1
  6
CONTINUOUS
 62
     3
 10
3554.283436
 20
2967.863648
 11
3559.168532
 21
2970.724919
  0
LINE
  8
CSLAYER1
  6
CONTINUOUS
 62
     3
 10
3559.168532
 20
2970.724919
 11
3561.488538
 21
2974.056209
  0
ARC
  8
CSLAYER1
  6
CONTINUOUS
 62
     3
 10
3341.214584
 20
2858.752697
 40
47.000000
 50
-10.756396
 51
307.198537
  0
ARC
  8
CSLAYER1
  6
CONTINUOUS
 62
     3
 10
3341.214584
 20
2858.752697
 40
40.000000
 50
-23.471057
 51
307.198537
  0
LINE
  8
CSLAYER1
  6
CONTINUOUS
 62
     3
 10
3557.363714
 20
2963.805316
 11
3369.629786
 21
2821.315065
  0
LINE
  8
CSLAYER1
  6
CONTINUOUS
 62
     3
 10
3553.131663
 20
2969.381133
 11
3365.397735
 21
2826.890883
  0
LINE
  8
CSLAYER1
  6
CONTINUOUS
 62
     3
 10
3557.363714
 20
2963.805316
 11
3553.131663
 21
2969.381133
  0
CIRCLE
  8
CSLAYER1
  6
CONTINUOUS
 62
     3
 10
1736.234678
 20
1659.894245
 40
8.000000
  0
LINE
  8
CSLAYER1
  6
CONTINUOUS
 62
     3
 10
1697.434675
 20
1755.894245
 11
1706.234675
 21
1755.894245
  0
LINE
  8
CSLAYER1
  6
CONTINUOUS
 62
     3
 10
1779.034675
 20
1780.894245
 11
1779.034675
 21
1799.094245
  0
LINE
  8
CSLAYER1
  6
CONTINUOUS
 62
     3
 10
1779.034675
 20
1780.894245
 11
1854.034675
 21
1705.894245
  0
LINE
  8
CSLAYER1
  6
CONTINUOUS
 62
     3
 10
1694.234675
 20
1859.094245
 11
1694.234675
 21
1799.094245
  0
LINE
  8
CSLAYER1
  6
CONTINUOUS
 62
     3
 10
1697.434675
 20
1799.094245
 11
1697.434675
 21
1755.894245
  0
LINE
  8
CSLAYER1
  6
CONTINUOUS
 62
     3
 10
1706.234675
 20
1799.094245
 11
1706.234675
 21
1640.894245
  0
LINE
  8
CSLAYER1
  6
CONTINUOUS
 62
     3
 10
1694.234675
 20
1859.094245
 11
3194.234675
 21
1859.094245
  0
LINE
  8
CSLAYER1
  6
CONTINUOUS
 62
     3
 10
1756.234675
 20
1799.094245
 11
1756.234675
 21
1655.894245
  0
ARC
  8
CSLAYER1
  6
CONTINUOUS
 62
     3
 10
1741.234675
 20
1655.894245
 40
15.000000
 50
270.000000
 51
360.000000
  0
LINE
  8
CSLAYER1
  6
CONTINUOUS
 62
     3
 10
1706.234675
 20
1640.894245
 11
1741.234675
 21
1640.894245
  0
LINE
  8
CSLAYER1
  6
CONTINUOUS
 62
     3
 10
3194.234675
 20
1859.094245
 11
3194.234675
 21
1799.094245
  0
LINE
  8
CSLAYER1
  6
CONTINUOUS
 62
     3
 10
3191.034675
 20
1708.894245
 11
3191.034675
 21
1799.094245
  0
LINE
  8
CSLAYER1
  6
CONTINUOUS
 62
     3
 10
3179.034675
 20
1683.894245
 11
3179.034675
 21
1799.094245
  0
LINE
  8
CSLAYER1
  6
CONTINUOUS
 62
     3
 10
1854.034675
 20
1705.894245
 11
3188.034675
 21
1705.894245
  0
LINE
  8
CSLAYER1
  6
CONTINUOUS
 62
     3
 10
2632.034675
 20
1680.894245
 11
3176.034675
 21
1680.894245
  0
LINE
  8
CSLAYER1
  6
CONTINUOUS
 62
     3
 10
1800.244236
 20
845.595968
 11
1804.774459
 21
841.941884
  0
LINE
  8
CSLAYER1
  6
CONTINUOUS
 62
     3
 10
1836.030151
 20
889.962264
 11
1839.622743
 21
887.064475
  0
LINE
  8
CSLAYER1
  6
CONTINUOUS
 62
     3
 10
1800.244236
 20
845.595968
 11
1836.030151
 21
889.962264
  0
LINE
  8
CSLAYER1
  6
CONTINUOUS
 62
     3
 10
1837.586864
 20
888.706618
 11
1928.621209
 21
1001.568250
  0
LINE
  8
CSLAYER1
  6
CONTINUOUS
 62
     3
 10
1800.244236
 20
845.595968
 11
1803.177978
 21
839.874713
  0
LINE
  8
CSLAYER1
  6
CONTINUOUS
 62
     3
 10
1896.760390
 20
767.745907
 11
1887.370824
 21
775.319544
  0
LINE
  8
CSLAYER1
  6
CONTINUOUS
 62
     3
 10
1932.546305
 20
812.112203
 11
1927.522767
 21
816.164196
  0
LINE
  8
CSLAYER1
  6
CONTINUOUS
 62
     3
 10
1896.760390
 20
767.745907
 11
1932.546305
 21
812.112203
  0
LINE
  8
CSLAYER1
  6
CONTINUOUS
 62
     3
 10
1930.989593
 20
813.367849
 11
1959.405245
 21
848.596717
  0
LINE
  8
CSLAYER1
  6
CONTINUOUS
 62
     3
 10
1896.760390
 20
767.745907
 11
1883.421351
 21
771.301934
  0
LINE
  8
CSLAYER1
  6
CONTINUOUS
 62
     5
 10
2482.113394
 20
1643.632785
 11
2532.824151
 21
1602.729420
  0
ARC
  8
CSLAYER1
  6
CONTINUOUS
 62
     4
 10
2263.215406
 20
1173.680049
 40
124.983369
 50
14.717843
 51
59.265674
  0
LINE
  8
CSLAYER1
  6
CONTINUOUS
 62
     4
 10
2413.457182
 20
1093.664134
 11
2384.097906
 21
1205.433219
  0
LINE
  8
CSLAYER1
  6
CONTINUOUS
 62
     4
 10
2181.801865
 20
1172.404878
 11
2251.905237
 21
1101.092067
  0
LINE
  8
CSLAYER1
  6
CONTINUOUS
 62
     4
 10
2216.852968
 20
1136.749075
 11
2181.802527
 21
1172.406705
  0
LINE
  8
CSLAYER1
  6
CONTINUOUS
 62
     4
 10
2730.008347
 20
723.151966
 11
2475.883616
 21
981.660904
  0
POINT
  8
CSLAYER1
 62
     5
 10
2452.706953
 20
958.877308
  0
ARC
  8
CSLAYER1
  6
CONTINUOUS
 62
     4
 10
2452.706953
 20
958.877308
 40
32.500000
 50
44.510000
 51
224.510000
  0
LINE
  8
CSLAYER1
  6
CONTINUOUS
 62
     4
 10
2730.008347
 20
723.151966
 11
2739.829889
 21
685.252279
  0
LINE
  8
CSLAYER1
  6
CONTINUOUS
 62
     4
 10
2676.117551
 20
685.252279
 11
2429.530289
 21
936.093711
  0
LINE
  8
CSLAYER1
  6
CONTINUOUS
 62
     5
 10
1721.490146
 20
1659.894245
 11
1751.906251
 21
1659.894245
  0
LINE
  8
CSLAYER1
  6
CONTINUOUS
 62
     5
 10
1736.234675
 20
1676.143992
 11
1736.234675
 21
1645.098588
  0
LINE
  8
CSLAYER1
  6
CONTINUOUS
 62
     3
 10
2629.034675
 20
1683.894245
 11
2632.034675
 21
1680.894245
  0
LINE
  8
CSLAYER1
  6
CONTINUOUS
 62
     3
 10
3176.034675
 20
1680.894245
 11
3179.034675
 21
1683.894245
  0
LINE
  8
CSLAYER1
  6
CONTINUOUS
 62
     3
 10
3188.034675
 20
1705.894245
 11
3191.034675
 21
1708.894245
  0
LINE
  8
CSLAYER1
  6
CONTINUOUS
 62
     5
 10
2697.700226
 20
1659.894246
 11
2765.979311
 21
1659.894246
  0
LINE
  8
CSLAYER1
  6
CONTINUOUS
 62
     5
 10
2731.702581
 20
1687.776634
 11
2731.702581
 21
1625.903113
  0
LINE
  8
CSLAYER1
  6
CONTINUOUS
 62
     5
 10
2531.024922
 20
1648.927198
 11
2393.023781
 21
1500.555958
  0
LINE
  8
CSLAYER1
  6
CONTINUOUS
 62
     3
 10
2510.826351
 20
1581.608914
 11
2465.708164
 21
1618.001306
  0
LINE
  8
CSLAYER1
  6
CONTINUOUS
 62
     3
 10
2510.826351
 20
1581.608914
 11
2510.976884
 21
1580.202735
  0
LINE
  8
CSLAYER1
  6
CONTINUOUS
 62
     3
 10
2473.617117
 20
1611.621934
 11
2478.115065
 21
1614.005498
  0
LINE
  8
CSLAYER1
  6
CONTINUOUS
 62
     3
 10
2478.115065
 20
1614.005498
 11
2478.449765
 21
1607.723913
  0
LINE
  8
CSLAYER1
  6
CONTINUOUS
 62
     3
 10
2478.449765
 20
1607.723913
 11
2480.297660
 21
1609.240194
  0
LINE
  8
CSLAYER1
  6
CONTINUOUS
 62
     3
 10
2478.449765
 20
1607.723913
 11
2477.795446
 21
1613.836124
  0
LINE
  8
CSLAYER1
  6
CONTINUOUS
 62
     3
 10
2478.229612
 20
1607.901488
 11
2477.605101
 21
1613.735256
  0
LINE
  8
CSLAYER1
  6
CONTINUOUS
 62
     3
 10
2478.009460
 20
1608.079064
 11
2477.414756
 21
1613.634389
  0
LINE
  8
CSLAYER1
  6
CONTINUOUS
 62
     3
 10
2477.789308
 20
1608.256639
 11
2477.224412
 21
1613.533521
  0
LINE
  8
CSLAYER1
  6
CONTINUOUS
 62
     3
 10
2477.569155
 20
1608.434214
 11
2477.034067
 21
1613.432653
  0
LINE
  8
CSLAYER1
  6
CONTINUOUS
 62
     3
 10
2477.349003
 20
1608.611789
 11
2476.843722
 21
1613.331785
  0
LINE
  8
CSLAYER1
  6
CONTINUOUS
 62
     3
 10
2477.128851
 20
1608.789364
 11
2476.653378
 21
1613.230917
  0
LINE
  8
CSLAYER1
  6
CONTINUOUS
 62
     3
 10
2476.908698
 20
1608.966940
 11
2476.463033
 21
1613.130049
  0
LINE
  8
CSLAYER1
  6
CONTINUOUS
 62
     3
 10
2476.688546
 20
1609.144515
 11
2476.272688
 21
1613.029181
  0
LINE
  8
CSLAYER1
  6
CONTINUOUS
 62
     3
 10
2476.468394
 20
1609.322090
 11
2476.082344
 21
1612.928313
  0
LINE
  8
CSLAYER1
  6
CONTINUOUS
 62
     3
 10
2476.248241
 20
1609.499665
 11
2475.891999
 21
1612.827445
  0
LINE
  8
CSLAYER1
  6
CONTINUOUS
 62
     3
 10
2476.028089
 20
1609.677240
 11
2475.701654
 21
1612.726577
  0
LINE
  8
CSLAYER1
  6
CONTINUOUS
 62
     3
 10
2475.807937
 20
1609.854815
 11
2475.511309
 21
1612.625709
  0
LINE
  8
CSLAYER1
  6
CONTINUOUS
 62
     3
 10
2475.587784
 20
1610.032391
 11
2475.320965
 21
1612.524841
  0
LINE
  8
CSLAYER1
  6
CONTINUOUS
 62
     3
 10
2475.367632
 20
1610.209966
 11
2475.130620
 21
1612.423973
  0
LINE
  8
CSLAYER1
  6
CONTINUOUS
 62
     3
 10
2475.147480
 20
1610.387541
 11
2474.940275
 21
1612.323105
  0
LINE
  8
CSLAYER1
  6
CONTINUOUS
 62
     3
 10
2474.927327
 20
1610.565116
 11
2474.749931
 21
1612.222237
  0
LINE
  8
CSLAYER1
  6
CONTINUOUS
 62
     3
 10
2474.707175
 20
1610.742691
 11
2474.559586
 21
1612.121369
  0
LINE
  8
CSLAYER1
  6
CONTINUOUS
 62
     3
 10
2474.487023
 20
1610.920266
 11
2474.369241
 21
1612.020501
  0
LINE
  8
CSLAYER1
  6
CONTINUOUS
 62
     3
 10
2474.266870
 20
1611.097842
 11
2474.178896
 21
1611.919633
  0
LINE
  8
CSLAYER1
  6
CONTINUOUS
 62
     3
 10
2474.046718
 20
1611.275417
 11
2473.988552
 21
1611.818765
  0
LINE
  8
CSLAYER1
  6
CONTINUOUS
 62
     3
 10
2473.826565
 20
1611.452992
 11
2473.798207
 21
1611.717897
  0
LINE
  8
CSLAYER1
  6
CONTINUOUS
 62
     3
 10
2478.634666
 20
1607.875633
 11
2477.985791
 21
1613.936992
  0
LINE
  8
CSLAYER1
  6
CONTINUOUS
 62
     3
 10
2478.819567
 20
1608.027352
 11
2478.206050
 21
1613.758413
  0
LINE
  8
CSLAYER1
  6
CONTINUOUS
 62
     3
 10
2479.004468
 20
1608.179072
 11
2478.484266
 21
1613.038452
  0
LINE
  8
CSLAYER1
  6
CONTINUOUS
 62
     3
 10
2479.189369
 20
1608.330791
 11
2478.755812
 21
1612.380794
  0
LINE
  8
CSLAYER1
  6
CONTINUOUS
 62
     3
 10
2479.374270
 20
1608.482511
 11
2479.022040
 21
1611.772807
  0
LINE
  8
CSLAYER1
  6
CONTINUOUS
 62
     3
 10
2479.559171
 20
1608.634231
 11
2479.283895
 21
1611.205675
  0
LINE
  8
CSLAYER1
  6
CONTINUOUS
 62
     3
 10
2479.744072
 20
1608.785950
 11
2479.542066
 21
1610.672953
  0
LINE
  8
CSLAYER1
  6
CONTINUOUS
 62
     3
 10
2479.928973
 20
1608.937670
 11
2479.797076
 21
1610.169759
  0
LINE
  8
CSLAYER1
  6
CONTINUOUS
 62
     3
 10
2480.113874
 20
1609.089389
 11
2480.049332
 21
1609.692291
  0
LINE
  8
CSLAYER1
  6
CONTINUOUS
 62
     3
 10
2502.890933
 20
1588.009633
 11
2504.268376
 21
1592.910201
  0
LINE
  8
CSLAYER1
  6
CONTINUOUS
 62
     3
 10
2504.268376
 20
1592.910201
 11
2498.058285
 21
1591.907654
  0
LINE
  8
CSLAYER1
  6
CONTINUOUS
 62
     3
 10
2498.058285
 20
1591.907654
 11
2499.149051
 21
1594.034636
  0
LINE
  8
CSLAYER1
  6
CONTINUOUS
 62
     3
 10
2498.058285
 20
1591.907654
 11
2504.170497
 21
1592.561973
  0
LINE
  8
CSLAYER1
  6
CONTINUOUS
 62
     3
 10
2498.278438
 20
1591.730079
 11
2504.112206
 21
1592.354590
  0
LINE
  8
CSLAYER1
  6
CONTINUOUS
 62
     3
 10
2498.498590
 20
1591.552503
 11
2504.053915
 21
1592.147207
  0
LINE
  8
CSLAYER1
  6
CONTINUOUS
 62
     3
 10
2498.718742
 20
1591.374928
 11
2503.995624
 21
1591.939824
  0
LINE
  8
CSLAYER1
  6
CONTINUOUS
 62
     3
 10
2498.938895
 20
1591.197353
 11
2503.937333
 21
1591.732441
  0
LINE
  8
CSLAYER1
  6
CONTINUOUS
 62
     3
 10
2499.159047
 20
1591.019778
 11
2503.879043
 21
1591.525059
  0
LINE
  8
CSLAYER1
  6
CONTINUOUS
 62
     3
 10
2499.379199
 20
1590.842203
 11
2503.820752
 21
1591.317676
  0
LINE
  8
CSLAYER1
  6
CONTINUOUS
 62
     3
 10
2499.599352
 20
1590.664628
 11
2503.762461
 21
1591.110293
  0
LINE
  8
CSLAYER1
  6
CONTINUOUS
 62
     3
 10
2499.819504
 20
1590.487052
 11
2503.704170
 21
1590.902910
  0
LINE
  8
CSLAYER1
  6
CONTINUOUS
 62
     3
 10
2500.039656
 20
1590.309477
 11
2503.645879
 21
1590.695527
  0
LINE
  8
CSLAYER1
  6
CONTINUOUS
 62
     3
 10
2500.259809
 20
1590.131902
 11
2503.587589
 21
1590.488144
  0
LINE
  8
CSLAYER1
  6
CONTINUOUS
 62
     3
 10
2500.479961
 20
1589.954327
 11
2503.529298
 21
1590.280762
  0
LINE
  8
CSLAYER1
  6
CONTINUOUS
 62
     3
 10
2500.700114
 20
1589.776752
 11
2503.471007
 21
1590.073379
  0
LINE
  8
CSLAYER1
  6
CONTINUOUS
 62
     3
 10
2500.920266
 20
1589.599176
 11
2503.412716
 21
1589.865996
  0
LINE
  8
CSLAYER1
  6
CONTINUOUS
 62
     3
 10
2501.140418
 20
1589.421601
 11
2503.354426
 21
1589.658613
  0
LINE
  8
CSLAYER1
  6
CONTINUOUS
 62
     3
 10
2501.360571
 20
1589.244026
 11
2503.296135
 21
1589.451230
  0
LINE
  8
CSLAYER1
  6
CONTINUOUS
 62
     3
 10
2501.580723
 20
1589.066451
 11
2503.237844
 21
1589.243848
  0
LINE
  8
CSLAYER1
  6
CONTINUOUS
 62
     3
 10
2501.800875
 20
1588.888876
 11
2503.179553
 21
1589.036465
  0
LINE
  8
CSLAYER1
  6
CONTINUOUS
 62
     3
 10
2502.021028
 20
1588.711301
 11
2503.121262
 21
1588.829082
  0
LINE
  8
CSLAYER1
  6
CONTINUOUS
 62
     3
 10
2502.241180
 20
1588.533725
 11
2503.062972
 21
1588.621699
  0
LINE
  8
CSLAYER1
  6
CONTINUOUS
 62
     3
 10
2502.461332
 20
1588.356150
 11
2503.004681
 21
1588.414316
  0
LINE
  8
CSLAYER1
  6
CONTINUOUS
 62
     3
 10
2502.681485
 20
1588.178575
 11
2502.946390
 21
1588.206933
  0
LINE
  8
CSLAYER1
  6
CONTINUOUS
 62
     3
 10
2498.167428
 20
1592.120480
 11
2504.228787
 21
1592.769355
  0
LINE
  8
CSLAYER1
  6
CONTINUOUS
 62
     3
 10
2498.276570
 20
1592.333307
 11
2504.007631
 21
1592.946823
  0
LINE
  8
CSLAYER1
  6
CONTINUOUS
 62
     3
 10
2498.385713
 20
1592.546133
 11
2503.245092
 21
1593.066335
  0
LINE
  8
CSLAYER1
  6
CONTINUOUS
 62
     3
 10
2498.494855
 20
1592.758960
 11
2502.544857
 21
1593.192517
  0
LINE
  8
CSLAYER1
  6
CONTINUOUS
 62
     3
 10
2498.603997
 20
1592.971786
 11
2501.894293
 21
1593.324016
  0
LINE
  8
CSLAYER1
  6
CONTINUOUS
 62
     3
 10
2498.713140
 20
1593.184613
 11
2501.284584
 21
1593.459889
  0
LINE
  8
CSLAYER1
  6
CONTINUOUS
 62
     3
 10
2498.822282
 20
1593.397440
 11
2500.709285
 21
1593.599445
  0
LINE
  8
CSLAYER1
  6
CONTINUOUS
 62
     3
 10
2498.931424
 20
1593.610266
 11
2500.163514
 21
1593.742163
  0
LINE
  8
CSLAYER1
  6
CONTINUOUS
 62
     3
 10
2499.040567
 20
1593.823093
 11
2499.643469
 21
1593.887634
  0
LINE
  8
CSLAYER1
  6
CONTINUOUS
 62
     3
 10
2346.487239
 20
1376.273442
 11
2511.133840
 21
1580.397324
  0
CIRCLE
  8
CSLAYER1
  6
CONTINUOUS
 62
     3
 10
2507.245673
 20
1623.361055
 40
22.000000
  0
CIRCLE
  8
CSLAYER1
  6
CONTINUOUS
 62
     3
 10
2507.245673
 20
1623.361055
 40
22.250000
  0
LINE
  8
CSLAYER1
  6
CONTINUOUS
 62
     3
 10
2357.033964
 20
1367.766439
 11
2334.094727
 21
1386.269259
  0
LINE
  8
CSLAYER1
  6
CONTINUOUS
 62
     3
 10
2357.033964
 20
1367.766439
 11
2357.184497
 21
1366.360260
  0
LINE
  8
CSLAYER1
  6
CONTINUOUS
 62
     3
 10
2334.576151
 20
1384.596183
 11
2357.184497
 21
1366.360260
  0
LINE
  8
CSLAYER1
  6
CONTINUOUS
 62
     3
 10
2355.017078
 20
1363.673159
 11
2357.184497
 21
1366.360260
  0
ARC
  8
CSLAYER1
  6
CONTINUOUS
 62
     3
 10
2358.966109
 20
1463.939021
 40
13.000000
 50
286.443395
 51
355.780187
  0
ARC
  8
CSLAYER1
  6
CONTINUOUS
 62
     3
 10
2380.589595
 20
1487.187405
 40
4.770000
 50
-73.875349
 51
10.370413
  0
ARC
  8
CSLAYER1
  6
CONTINUOUS
 62
     3
 10
2380.589595
 20
1487.187405
 40
13.000000
 50
-80.557345
 51
42.455299
  0
ARC
  8
CSLAYER1
  6
CONTINUOUS
 62
     3
 10
2380.589595
 20
1487.187405
 40
15.050000
 50
259.039634
 51
348.904419
  0
ARC
  8
CSLAYER1
  6
CONTINUOUS
 62
     3
 10
2384.855165
 20
1461.539697
 40
13.000000
 50
99.442655
 51
174.705115
  0
ARC
  8
CSLAYER1
  6
CONTINUOUS
 62
     3
 10
2410.126951
 20
1481.394772
 40
15.050000
 50
105.243351
 51
168.904419
  0
ARC
  8
CSLAYER1
  6
CONTINUOUS
 62
     3
 10
2380.589595
 20
1487.187405
 40
9.525000
 50
-99.948135
 51
36.443199
  0
POINT
  8
CSLAYER1
 62
     3
 10
2507.245676
 20
1623.361060
  0
ARC
  8
CSLAYER1
  6
CONTINUOUS
 62
     3
 10
2507.245676
 20
1623.361060
 40
30.250000
 50
-275.222986
 51
9.370756
  0
LINE
  8
CSLAYER1
  6
CONTINUOUS
 62
     3
 10
2486.470573
 20
1582.634218
 11
2468.128148
 21
1599.694638
  0
LINE
  8
CSLAYER1
  6
CONTINUOUS
 62
     3
 10
2447.911451
 20
1577.527741
 11
2465.823989
 21
1560.867162
  0
POINT
  8
CSLAYER1
 62
     3
 10
2467.083540
 20
1580.180940
  0
CIRCLE
  8
CSLAYER1
  6
CONTINUOUS
 62
     3
 10
2467.083540
 20
1580.180940
 40
4.770000
  0
ARC
  8
CSLAYER1
  6
CONTINUOUS
 62
     3
 10
2467.083540
 20
1580.180940
 40
13.000000
 50
-80.557345
 51
174.705115
  0
ARC
  8
CSLAYER1
  6
CONTINUOUS
 62
     3
 10
2471.349110
 20
1554.533232
 40
13.000000
 50
99.442655
 51
174.705115
  0
ARC
  8
CSLAYER1
  6
CONTINUOUS
 62
     3
 10
2441.194484
 20
1582.580264
 40
13.000000
 50
279.442655
 51
354.705115
  0
LINE
  8
CSLAYER1
  6
CONTINUOUS
 62
     3
 10
2446.276608
 20
1580.699171
 11
2465.061721
 21
1600.895892
  0
LINE
  8
CSLAYER1
  6
CONTINUOUS
 62
     3
 10
2470.142434
 20
1596.185639
 11
2451.342007
 21
1575.972453
  0
ARC
  8
CSLAYER1
  6
CONTINUOUS
 62
     3
 10
2464.624411
 20
1595.328905
 40
5.584136
 50
8.825335
 51
85.508402
  0
ARC
  8
CSLAYER1
  6
CONTINUOUS
 62
     3
 10
2455.565305
 20
1567.797166
 40
31.912350
 50
31.327706
 51
62.820064
  0
LINE
  8
CSLAYER1
  6
CONTINUOUS
 62
     5
 10
2456.740480
 20
1589.801093
 11
2477.418061
 21
1570.568729
  0
ARC
  8
CSLAYER1
  6
CONTINUOUS
 62
     3
 10
2451.797383
 20
1581.537991
 40
5.584136
 50
188.639368
 51
265.322435
  0
ARC
  8
CSLAYER1
  6
CONTINUOUS
 62
     3
 10
2478.601775
 20
1592.564713
 40
31.912350
 50
211.327706
 51
242.820064
  0
LINE
  8
CSLAYER1
  6
CONTINUOUS
 62
     3
 10
2469.105360
 20
1559.465988
 11
2487.890472
 21
1579.662708
  0
LINE
  8
CSLAYER1
  6
CONTINUOUS
 62
     3
 10
2482.825074
 20
1584.389426
 11
2464.024646
 21
1564.176240
  0
ARC
  8
CSLAYER1
  6
CONTINUOUS
 62
     3
 10
2482.369697
 20
1578.823889
 40
5.584136
 50
8.639368
 51
85.322435
  0
ARC
  8
CSLAYER1
  6
CONTINUOUS
 62
     3
 10
2469.542670
 20
1565.032974
 40
5.584136
 50
188.825335
 51
265.508402
  0
LINE
  8
CSLAYER1
  6
CONTINUOUS
 62
     3
 10
2511.725612
 20
1653.609531
 11
2515.140443
 21
1657.280970
  0
LINE
  8
CSLAYER1
  6
CONTINUOUS
 62
     3
 10
2518.066932
 20
1647.711425
 11
2523.972995
 21
1654.061299
  0
LINE
  8
CSLAYER1
  6
CONTINUOUS
 62
     3
 10
2537.954554
 20
1629.213806
 11
2510.861950
 21
1654.412830
  0
LINE
  8
CSLAYER1
  6
CONTINUOUS
 62
     3
 10
2537.090892
 20
1630.017105
 11
2540.095740
 21
1633.247752
  0
LINE
  8
CSLAYER1
  6
CONTINUOUS
 62
     3
 10
2530.749572
 20
1635.915212
 11
2536.475689
 21
1642.071618
  0
LINE
  8
CSLAYER1
  6
CONTINUOUS
 62
     3
 10
2477.885931
 20
1604.275718
 11
2481.249842
 21
1607.892410
  0
LINE
  8
CSLAYER1
  6
CONTINUOUS
 62
     3
 10
2471.339144
 20
1599.439440
 11
2480.479716
 21
1609.266880
  0
LINE
  8
CSLAYER1
  6
CONTINUOUS
 62
     3
 10
2535.775179
 20
1626.870662
 11
2508.682575
 21
1652.069686
  0
LINE
  8
CSLAYER1
  6
CONTINUOUS
 62
     3
 10
2535.775179
 20
1626.870662
 11
2537.954554
 21
1629.213806
  0
LINE
  8
CSLAYER1
  6
CONTINUOUS
 62
     3
 10
2508.682575
 20
1652.069686
 11
2510.861950
 21
1654.412830
  0
LINE
  8
CSLAYER1
  6
CONTINUOUS
 62
     3
 10
2476.787582
 20
1605.297300
 11
2491.432233
 21
1591.676207
  0
LINE
  8
CSLAYER1
  6
CONTINUOUS
 62
     3
 10
2477.885931
 20
1604.275718
 11
2475.018150
 21
1603.394904
  0
LINE
  8
CSLAYER1
  6
CONTINUOUS
 62
     3
 10
2490.333884
 20
1592.697789
 11
2493.697795
 21
1596.314481
  0
LINE
  8
CSLAYER1
  6
CONTINUOUS
 62
     3
 10
2490.333884
 20
1592.697789
 11
2489.662801
 21
1589.773811
  0
LINE
  8
CSLAYER1
  6
CONTINUOUS
 62
     3
 10
2485.983795
 20
1585.818346
 11
2495.124367
 21
1595.645786
  0
ARC
  8
CSLAYER1
  6
CONTINUOUS
 62
     3
 10
2487.448261
 20
1584.456237
 40
2.000000
 50
137.073885
 51
227.073885
  0
ARC
  8
CSLAYER1
  6
CONTINUOUS
 62
     3
 10
2469.874679
 20
1600.801549
 40
2.000000
 50
227.073885
 51
317.073885
  0
POINT
  8
CSLAYER1
 62
     3
 10
2477.299361
 20
1591.164428
  0
LINE
  8
CSLAYER1
  6
CONTINUOUS
 62
     3
 10
2513.269240
 20
1644.520374
 11
2514.906552
 21
1646.280721
  0
LINE
  8
CSLAYER1
  6
CONTINUOUS
 62
     3
 10
2514.841403
 20
1644.008210
 11
2516.004900
 21
1645.259139
  0
LINE
  8
CSLAYER1
  6
CONTINUOUS
 62
     3
 10
2527.954568
 20
1630.943014
 11
2529.551203
 21
1632.659627
  0
LINE
  8
CSLAYER1
  6
CONTINUOUS
 62
     3
 10
2527.289356
 20
1632.430280
 11
2528.452854
 21
1633.681209
  0
POINT
  8
CSLAYER1
 62
     3
 10
2402.213081
 20
1510.435789
  0
ARC
  8
CSLAYER1
  6
CONTINUOUS
 62
     3
 10
2402.213081
 20
1510.435789
 40
15.050000
 50
-74.756649
 51
15.108136
  0
ARC
  8
CSLAYER1
  6
CONTINUOUS
 62
     3
 10
2402.213081
 20
1510.435789
 40
13.000000
 50
226.644587
 51
354.705115
  0
POINT
  8
CSLAYER1
 62
     3
 10
2423.836568
 20
1533.684172
  0
POINT
  8
CSLAYER1
 62
     3
 10
2445.460054
 20
1556.932556
  0
ARC
  8
CSLAYER1
  6
CONTINUOUS
 62
     3
 10
2402.213081
 20
1510.435789
 40
4.770000
 50
-154.992540
 51
91.487604
  0
CIRCLE
  8
CSLAYER1
  6
CONTINUOUS
 62
     3
 10
2423.836568
 20
1533.684172
 40
4.770000
  0
ARC
  8
CSLAYER1
  6
CONTINUOUS
 62
     3
 10
2423.836568
 20
1533.684172
 40
13.000000
 50
-80.557345
 51
100.655598
  0
ARC
  8
CSLAYER1
  6
CONTINUOUS
 62
     3
 10
2423.836568
 20
1533.684172
 40
15.050000
 50
259.039634
 51
348.904419
  0
ARC
  8
CSLAYER1
  6
CONTINUOUS
 62
     3
 10
2445.460054
 20
1556.932556
 40
15.050000
 50
-74.756649
 51
15.108136
  0
ARC
  8
CSLAYER1
  6
CONTINUOUS
 62
     3
 10
2428.102138
 20
1508.036465
 40
13.000000
 50
99.442655
 51
174.705115
  0
ARC
  8
CSLAYER1
  6
CONTINUOUS
 62
     3
 10
2453.373924
 20
1527.891539
 40
15.050000
 50
105.243351
 51
168.904419
  0
ARC
  8
CSLAYER1
  6
CONTINUOUS
 62
     3
 10
2415.922698
 20
1562.725189
 40
15.050000
 50
299.897641
 51
348.904419
  0
ARC
  8
CSLAYER1
  6
CONTINUOUS
 62
     3
 10
2402.213081
 20
1510.435789
 40
9.525000
 50
-137.685031
 51
74.180096
  0
ARC
  8
CSLAYER1
  6
CONTINUOUS
 62
     3
 10
2423.836568
 20
1533.684172
 40
9.525000
 50
-188.744365
 51
125.239429
  0
ARC
  8
CSLAYER1
  6
CONTINUOUS
 62
     3
 10
2445.460054
 20
1556.932556
 40
13.000000
 50
99.442655
 51
354.705115
  0
ARC
  8
CSLAYER1
  6
CONTINUOUS
 62
     3
 10
2445.460054
 20
1556.932556
 40
15.050000
 50
79.039634
 51
168.904419
  0
CIRCLE
  8
CSLAYER1
  6
CONTINUOUS
 62
     3
 10
2445.460054
 20
1556.932556
 40
4.770000
  0
CIRCLE
  8
CSLAYER1
  6
CONTINUOUS
 62
     3
 10
2445.460054
 20
1556.932556
 40
9.525000
  0
LINE
  8
CSLAYER1
  6
CONTINUOUS
 62
     5
 10
1716.234622
 20
647.252279
 11
1756.234622
 21
647.252279
  0
LINE
  8
CSLAYER1
  6
CONTINUOUS
 62
     5
 10
1736.234622
 20
667.252279
 11
1736.234622
 21
627.252279
  0
LINE
  8
CSLAYER1
  6
CONTINUOUS
 62
     4
 10
2117.286645
 20
1246.591918
 11
1745.129926
 21
764.712377
  0
LINE
  8
CSLAYER1
  6
CONTINUOUS
 62
     5
 10
2711.702581
 20
647.252329
 11
2751.702581
 21
647.252329
  0
LINE
  8
CSLAYER1
  6
CONTINUOUS
 62
     5
 10
2731.702581
 20
667.252329
 11
2731.702581
 21
627.252329
  0
LINE
  8
CSLAYER1
  6
CONTINUOUS
 62
     3
 10
1694.234675
 20
2414.024656
 11
1694.234675
 21
3214.024656
  0
LINE
  8
CSLAYER1
  6
CONTINUOUS
 62
     3
 10
3194.234675
 20
2414.024656
 11
3194.234675
 21
3214.024656
  0
LINE
  8
CSLAYER1
  6
CONTINUOUS
 62
     3
 10
1694.234675
 20
2414.024656
 11
3194.234675
 21
2414.024656
  0
LINE
  8
CSLAYER1
  6
CONTINUOUS
 62
     3
 10
1694.234675
 20
3214.024656
 11
3194.234675
 21
3214.024656
  0
POINT
  8
CSLAYER1
 62
     5
 10
2234.607159
 20
1154.168315
  0
POINT
  8
CSLAYER1
 62
     1
 10
2234.607159
 20
1154.168315
  0
CIRCLE
  8
CSLAYER1
  6
CONTINUOUS
 62
     4
 10
2234.607159
 20
1154.168315
 40
15.000000
  0
CIRCLE
  8
CSLAYER1
  6
CONTINUOUS
 62
     4
 10
2234.607159
 20
1154.168315
 40
10.000000
  0
CIRCLE
  8
CSLAYER1
  6
CONTINUOUS
 62
     4
 10
2234.607159
 20
1154.168315
 40
9.000000
  0
LINE
  8
CSLAYER1
  6
CONTINUOUS
 62
     4
 10
2249.607159
 20
1162.828569
 11
2234.607159
 21
1171.488823
  0
LINE
  8
CSLAYER1
  6
CONTINUOUS
 62
     4
 10
2234.607159
 20
1171.488823
 11
2219.607159
 21
1162.828569
  0
LINE
  8
CSLAYER1
  6
CONTINUOUS
 62
     4
 10
2219.607159
 20
1162.828569
 11
2219.607159
 21
1145.508060
  0
LINE
  8
CSLAYER1
  6
CONTINUOUS
 62
     4
 10
2219.607159
 20
1145.508060
 11
2234.607159
 21
1136.847806
  0
LINE
  8
CSLAYER1
  6
CONTINUOUS
 62
     4
 10
2234.607159
 20
1136.847806
 11
2249.607159
 21
1145.508060
  0
LINE
  8
CSLAYER1
  6
CONTINUOUS
 62
     4
 10
2249.607159
 20
1145.508060
 11
2249.607159
 21
1162.828569
  0
LINE
  8
CSLAYER1
  6
PHANTOM
 62
     5
 10
1694.234622
 20
797.252279
 11
3194.234622
 21
797.252279
  0
LINE
  8
CSLAYER1
  6
PHANTOM
 62
     5
 10
1694.234622
 20
850.252279
 11
1694.234622
 21
797.252279
  0
LINE
  8
CSLAYER1
  6
PHANTOM
 62
     5
 10
1694.234622
 20
850.252279
 11
3194.234622
 21
850.252279
  0
LINE
  8
CSLAYER1
  6
PHANTOM
 62
     5
 10
3194.234622
 20
850.252279
 11
3194.234622
 21
797.252279
  0
LINE
  8
CSLAYER1
  6
PHANTOM
 62
     5
 10
1697.434622
 20
755.441119
 11
1697.434622
 21
797.252279
  0
LINE
  8
CSLAYER1
  6
PHANTOM
 62
     5
 10
3191.034622
 20
720.041135
 11
3191.034622
 21
797.252279
  0
DIMENSION
  8
CSLAYER1
 62
     3
  2
*D0000
 10
3339.709601
 20
850.252279
 11
3324.709473
 21
735.252258
 13
3194.234622
 23
620.252279
 14
3194.234622
 24
850.252279
 50
90.000000
 70
1
  0
DIMENSION
  8
CSLAYER1
 62
     3
  2
*D0001
 10
3339.709601
 20
1859.094245
 11
3324.709473
 21
1354.673096
 13
3167.139466
 23
850.252279
 14
3167.139466
 24
1859.094245
 50
90.000000
 70
1
  0
DIMENSION
  8
CSLAYER1
 62
     3
  2
*D0002
 10
3482.279736
 20
620.252279
 11
3467.279541
 21
1239.673096
 13
3482.279736
 23
1859.094245
 14
3482.279736
 24
620.252279
 50
90.000000
 70
1
  0
DIMENSION
  8
CSLAYER1
 62
     3
  2
*D0003
 10
1536.152179
 20
3214.024656
 11
1521.152222
 21
2814.024658
 13
1694.234675
 23
2414.024656
 14
1694.234675
 24
3214.024656
 50
90.000000
 70
1
  0
DIMENSION
  8
CSLAYER1
 62
     3
  2
*D0004
 10
3194.234675
 20
2001.213947
 11
2444.234375
 21
2016.213623
 13
1694.234675
 23
1859.094245
 14
3194.234675
 24
1859.094245
 70
1
  0
DIMENSION
  8
CSLAYER1
 62
     3
  2
*D0005
 10
3194.234622
 20
489.807195
 11
2444.234375
 21
504.807404
 13
1694.234622
 23
620.252279
 14
3194.234622
 24
620.252279
 52
270.000000
 70
1
  0
CIRCLE
  8
CSLAYER1
  6
CONTINUOUS
 62
     4
 10
2029.943184
 20
1031.615848
 40
14.100000
  0
LINE
  8
CSLAYER1
  6
CONTINUOUS
 62
     5
 10
2029.943181
 20
1066.877168
 11
2029.943181
 21
1006.024755
  0
LINE
  8
CSLAYER1
  6
CONTINUOUS
 62
     5
 10
1999.774769
 20
1031.615845
 11
2065.353583
 21
1031.615845
  0
LINE
  8
CSLAYER1
  6
CONTINUOUS
 62
     3
 10
1694.234675
 20
1799.094245
 11
3194.234675
 21
1799.094245
  0
LINE
  8
CSLAYER1
  6
CONTINUOUS
 62
     4
 10
1160.161210
 20
684.534064
 11
1160.161210
 21
620.252279
  0
LINE
  8
CSLAYER1
  6
CONTINUOUS
 62
     4
 10
988.361210
 20
685.252279
 11
988.361210
 21
710.914024
  0
LINE
  8
CSLAYER1
  6
CONTINUOUS
 62
     5
 10
982.532033
 20
703.169346
 11
1017.072163
 21
703.169346
  0
LINE
  8
CSLAYER1
  6
CONTINUOUS
 62
     4
 10
987.161210
 20
708.169346
 11
988.361210
 21
708.169346
  0
LINE
  8
CSLAYER1
  6
CONTINUOUS
 62
     4
 10
987.161210
 20
698.169346
 11
988.361210
 21
698.169346
  0
LINE
  8
CSLAYER1
  6
CONTINUOUS
 62
     2
 10
988.361210
 20
697.863055
 11
991.361210
 21
697.863055
  0
LINE
  8
CSLAYER1
  6
CONTINUOUS
 62
     2
 10
988.361210
 20
702.210274
 11
991.361210
 21
702.210274
  0
LINE
  8
CSLAYER1
  6
CONTINUOUS
 62
     4
 10
988.361210
 20
710.914024
 11
992.361210
 21
710.914024
  0
LINE
  8
CSLAYER1
  6
CONTINUOUS
 62
     2
 10
995.861210
 20
740.745877
 11
997.361210
 21
740.745877
  0
LINE
  8
CSLAYER1
  6
CONTINUOUS
 62
     4
 10
995.861210
 20
741.254084
 11
997.361210
 21
741.254084
  0
LINE
  8
CSLAYER1
  6
CONTINUOUS
 62
     4
 10
1007.361210
 20
685.252279
 11
1007.361210
 21
710.914024
  0
LINE
  8
CSLAYER1
  6
CONTINUOUS
 62
     2
 10
991.361210
 20
685.252279
 11
991.361210
 21
710.948839
  0
LINE
  8
CSLAYER1
  6
CONTINUOUS
 62
     4
 10
995.861210
 20
728.942348
 11
995.861210
 21
741.254084
  0
LINE
  8
CSLAYER1
  6
CONTINUOUS
 62
     4
 10
1002.861210
 20
728.942348
 11
1002.861210
 21
741.254084
  0
LINE
  8
CSLAYER1
  6
CONTINUOUS
 62
     2
 10
992.361210
 20
701.627850
 11
992.361210
 21
710.914024
  0
LINE
  8
CSLAYER1
  6
CONTINUOUS
 62
     2
 10
1006.361210
 20
701.627850
 11
1006.361210
 21
710.914024
  0
LINE
  8
CSLAYER1
  6
CONTINUOUS
 62
     2
 10
997.361210
 20
728.942348
 11
997.361210
 21
741.254084
  0
LINE
  8
CSLAYER1
  6
CONTINUOUS
 62
     2
 10
1001.361210
 20
728.942348
 11
1001.361210
 21
741.254084
  0
LINE
  8
CSLAYER1
  6
CONTINUOUS
 62
     4
 10
993.822027
 20
728.942348
 11
995.861210
 21
728.942348
  0
LINE
  8
CSLAYER1
  6
CONTINUOUS
 62
     4
 10
1006.361210
 20
716.958209
 11
1004.900392
 21
728.942348
  0
LINE
  8
CSLAYER1
  6
CONTINUOUS
 62
     4
 10
992.361210
 20
716.958209
 11
993.822027
 21
728.942348
  0
LINE
  8
CSLAYER1
  6
CONTINUOUS
 62
     2
 10
991.361210
 20
701.627850
 11
1007.361210
 21
701.627850
  0
LINE
  8
CSLAYER1
  6
CONTINUOUS
 62
     2
 10
1008.361210
 20
695.376887
 11
1008.361210
 21
702.976887
  0
LINE
  8
CSLAYER1
  6
CONTINUOUS
 62
     2
 10
1008.361210
 20
695.376887
 11
1007.361210
 21
695.376887
  0
LINE
  8
CSLAYER1
  6
CONTINUOUS
 62
     2
 10
1008.361210
 20
702.976887
 11
1007.361210
 21
702.976887
  0
LINE
  8
CSLAYER1
  6
CONTINUOUS
 62
     2
 10
1010.961210
 20
697.676887
 11
1010.961210
 21
700.676887
  0
LINE
  8
CSLAYER1
  6
CONTINUOUS
 62
     2
 10
1008.961210
 20
695.676887
 11
1008.361210
 21
695.676887
  0
LINE
  8
CSLAYER1
  6
CONTINUOUS
 62
     2
 10
1008.961210
 20
702.676887
 11
1008.361210
 21
702.676887
  0
ARC
  8
CSLAYER1
  6
CONTINUOUS
 62
     2
 10
1008.961210
 20
697.676887
 40
2.000000
 50
270.000000
 51
360.000000
  0
ARC
  8
CSLAYER1
  6
CONTINUOUS
 62
     2
 10
1008.961210
 20
700.676887
 40
2.000000
 50
0.000000
 51
90.000000
  0
LINE
  8
CSLAYER1
  6
CONTINUOUS
 62
     4
 10
1006.361210
 20
710.914024
 11
1007.361210
 21
710.914024
  0
LINE
  8
CSLAYER1
  6
CONTINUOUS
 62
     2
 10
1001.361210
 20
740.745877
 11
1002.861210
 21
740.745877
  0
LINE
  8
CSLAYER1
  6
CONTINUOUS
 62
     4
 10
1001.361210
 20
741.254084
 11
1002.861210
 21
741.254084
  0
LINE
  8
CSLAYER1
  6
CONTINUOUS
 62
     4
 10
995.119455
 20
758.577070
 11
996.615148
 21
757.679654
  0
LINE
  8
CSLAYER1
  6
CONTINUOUS
 62
     4
 10
996.615148
 20
757.679654
 11
1005.589309
 21
749.902048
  0
LINE
  8
CSLAYER1
  6
CONTINUOUS
 62
     4
 10
987.161210
 20
708.169346
 11
987.161210
 21
698.169346
  0
LINE
  8
CSLAYER1
  6
CONTINUOUS
 62
     4
 10
1007.361210
 20
708.169346
 11
1017.161210
 21
708.169346
  0
LINE
  8
CSLAYER1
  6
CONTINUOUS
 62
     4
 10
1010.899633
 20
698.169346
 11
1017.161210
 21
698.169346
  0
LINE
  8
CSLAYER1
  6
CONTINUOUS
 62
     4
 10
1092.161210
 20
685.252279
 11
1092.161210
 21
1640.894245
  0
LINE
  8
CSLAYER1
  6
CONTINUOUS
 62
     4
 10
1076.161210
 20
685.252279
 11
1076.161210
 21
1640.894245
  0
LINE
  8
CSLAYER1
  6
CONTINUOUS
 62
     4
 10
1033.161210
 20
685.252279
 11
1033.161210
 21
1755.894245
  0
LINE
  8
CSLAYER1
  6
CONTINUOUS
 62
     4
 10
1017.161210
 20
685.252279
 11
1017.161210
 21
1755.894245
  0
LINE
  8
CSLAYER1
  6
CONTINUOUS
 62
     3
 10
1111.861210
 20
1659.894245
 11
1111.861210
 21
1669.394245
  0
LINE
  8
CSLAYER1
  6
CONTINUOUS
 62
     4
 10
1108.661210
 20
1799.094245
 11
1108.661210
 21
1640.894245
  0
LINE
  8
CSLAYER1
  6
CONTINUOUS
 62
     4
 10
1067.661210
 20
1755.894245
 11
1067.661210
 21
1640.894245
  0
LINE
  8
CSLAYER1
  6
CONTINUOUS
 62
     5
 10
1114.869062
 20
1659.894245
 11
1063.602795
 21
1659.894245
  0
LINE
  8
CSLAYER1
  6
CONTINUOUS
 62
     4
 10
1067.661210
 20
1640.894245
 11
1108.661210
 21
1640.894245
  0
LINE
  8
CSLAYER1
  6
CONTINUOUS
 62
     4
 10
1111.861210
 20
1682.894245
 11
1111.861210
 21
1651.894245
  0
LINE
  8
CSLAYER1
  6
CONTINUOUS
 62
     4
 10
1111.861210
 20
1655.894245
 11
1108.661210
 21
1655.894245
  0
LINE
  8
CSLAYER1
  6
CONTINUOUS
 62
     5
 10
1116.352084
 20
1674.894245
 11
1102.661210
 21
1674.894245
  0
LINE
  8
CSLAYER1
  6
CONTINUOUS
 62
     4
 10
1111.861210
 20
1682.894245
 11
1108.661210
 21
1682.894245
  0
LINE
  8
CSLAYER1
  6
CONTINUOUS
 62
     4
 10
1066.661210
 20
1652.894245
 11
1066.661210
 21
1666.894245
  0
LINE
  8
CSLAYER1
  6
CONTINUOUS
 62
     4
 10
1066.661210
 20
1652.894245
 11
1067.661210
 21
1651.894245
  0
LINE
  8
CSLAYER1
  6
CONTINUOUS
 62
     4
 10
1111.861210
 20
1651.894245
 11
1108.661210
 21
1651.894245
  0
LINE
  8
CSLAYER1
  6
CONTINUOUS
 62
     4
 10
1066.661210
 20
1666.894245
 11
1067.661210
 21
1667.894245
  0
LINE
  8
CSLAYER1
  6
CONTINUOUS
 62
     4
 10
1111.861210
 20
1663.894245
 11
1108.661210
 21
1663.894245
  0
LINE
  8
CSLAYER1
  6
CENTER
 62
     5
 10
985.161210
 20
1708.826144
 11
985.161210
 21
1016.048723
  0
LINE
  8
CSLAYER1
  6
CONTINUOUS
 62
     5
 10
985.161210
 20
1031.615845
 11
1054.189998
 21
1031.615845
  0
LINE
  8
CSLAYER1
  6
CONTINUOUS
 62
     4
 10
1035.161210
 20
1047.615845
 11
1035.161210
 21
1015.615845
  0
LINE
  8
CSLAYER1
  6
CONTINUOUS
 62
     4
 10
1045.161210
 20
1045.615845
 11
1045.161210
 21
1017.615845
  0
LINE
  8
CSLAYER1
  6
CONTINUOUS
 62
     4
 10
1043.161210
 20
1047.615845
 11
1035.161210
 21
1047.615845
  0
LINE
  8
CSLAYER1
  6
CONTINUOUS
 62
     4
 10
1045.161210
 20
1045.615845
 11
1043.161210
 21
1047.615845
  0
LINE
  8
CSLAYER1
  6
CONTINUOUS
 62
     4
 10
1043.161210
 20
1047.615845
 11
1043.161210
 21
1015.615845
  0
LINE
  8
CSLAYER1
  6
CONTINUOUS
 62
     4
 10
1043.161210
 20
1015.615845
 11
1035.161210
 21
1015.615845
  0
LINE
  8
CSLAYER1
  6
CONTINUOUS
 62
     4
 10
1045.161210
 20
1017.615845
 11
1043.161210
 21
1015.615845
  0
LINE
  8
CSLAYER1
  6
CONTINUOUS
 62
     4
 10
1035.161210
 20
1045.615845
 11
1033.161210
 21
1045.615845
  0
LINE
  8
CSLAYER1
  6
CONTINUOUS
 62
     4
 10
1035.161210
 20
1017.615845
 11
1033.161210
 21
1017.615845
  0
LINE
  8
CSLAYER1
  6
CONTINUOUS
 62
     4
 10
1033.161210
 20
1051.052158
 11
1076.161210
 21
1051.052158
  0
LINE
  8
CSLAYER1
  6
CONTINUOUS
 62
     4
 10
936.483493
 20
979.739347
 11
1017.161210
 21
979.739347
  0
LINE
  8
CSLAYER1
  6
CONTINUOUS
 62
     4
 10
1033.161210
 20
979.739347
 11
1076.161210
 21
979.739347
  0
LINE
  8
CSLAYER1
  6
CENTER
 62
     5
 10
860.161210
 20
1894.876911
 11
860.161210
 21
584.879413
  0
LINE
  8
CSLAYER1
  6
CONTINUOUS
 62
     4
 10
1108.161210
 20
1097.435746
 11
1108.161210
 21
685.252279
  0
LINE
  8
CSLAYER1
  6
CONTINUOUS
 62
     4
 10
1092.161210
 20
1097.435746
 11
1108.161210
 21
1097.435746
  0
LINE
  8
CSLAYER1
  6
CONTINUOUS
 62
     4
 10
904.711210
 20
1109.139686
 11
1017.161210
 21
1109.139686
  0
LINE
  8
CSLAYER1
  6
CONTINUOUS
 62
     4
 10
904.711210
 20
1086.708563
 11
1017.161210
 21
1086.708563
  0
LINE
  8
CSLAYER1
  6
CONTINUOUS
 62
     4
 10
1033.161210
 20
1086.708563
 11
1076.161210
 21
1086.708563
  0
LINE
  8
CSLAYER1
  6
CONTINUOUS
 62
     4
 10
1100.161210
 20
1755.894245
 11
620.161210
 21
1755.894245
  0
LINE
  8
CSLAYER1
  6
CONTINUOUS
 62
     4
 10
1100.161210
 20
1799.094245
 11
1100.161210
 21
1755.894245
  0
LINE
  8
CSLAYER1
  6
CONTINUOUS
 62
     7
 10
1016.161210
 20
1057.126071
 11
1016.161210
 21
1006.105618
  0
LINE
  8
CSLAYER1
  6
CONTINUOUS
 62
     5
 10
985.161210
 20
1031.615845
 11
985.161210
 21
996.361985
  0
LINE
  8
CSLAYER1
  6
CONTINUOUS
 62
     7
 10
926.161210
 20
1086.421908
 11
794.161210
 21
1086.421908
  0
LINE
  8
CSLAYER1
  6
CONTINUOUS
 62
     7
 10
926.161210
 20
1055.287665
 11
794.161210
 21
1055.287665
  0
LINE
  8
CSLAYER1
  6
CONTINUOUS
 62
     5
 10
968.327486
 20
1016.048723
 11
998.971226
 21
1016.048723
  0
ARC
  8
CSLAYER1
  6
CONTINUOUS
 62
     7
 10
1011.161210
 20
1057.126071
 40
5.000000
 50
0.000000
 51
79.830548
  0
ARC
  8
CSLAYER1
  6
CONTINUOUS
 62
     7
 10
1011.161210
 20
1025.991828
 40
5.000000
 50
-0.000000
 51
79.830548
  0
ARC
  8
CSLAYER1
  6
CONTINUOUS
 62
     7
 10
1011.161210
 20
1006.105618
 40
5.000000
 50
280.169452
 51
360.000000
  0
POINT
  8
CSLAYER1
 62
     5
 10
1017.161210
 20
1031.615845
  0
LINE
  8
CSLAYER1
  6
CONTINUOUS
 62
     7
 10
904.711210
 20
1395.108134
 11
904.711210
 21
1086.421908
  0
LINE
  8
CSLAYER1
  6
CONTINUOUS
 62
     4
 10
977.161210
 20
1139.573284
 11
974.134669
 21
1139.573284
  0
LINE
  8
CSLAYER1
  6
CONTINUOUS
 62
     4
 10
971.161210
 20
1140.573284
 11
971.161210
 21
1166.573284
  0
LINE
  8
CSLAYER1
  6
CONTINUOUS
 62
     4
 10
971.161210
 20
1140.573284
 11
972.161210
 21
1139.573284
  0
LINE
  8
CSLAYER1
  6
CONTINUOUS
 62
     4
 10
972.161210
 20
1139.573284
 11
972.161210
 21
1167.573284
  0
LINE
  8
CSLAYER1
  6
CONTINUOUS
 62
     4
 10
994.161210
 20
1172.573284
 11
994.161210
 21
1134.573284
  0
LINE
  8
CSLAYER1
  6
CONTINUOUS
 62
     4
 10
972.161210
 20
1139.573284
 11
977.227468
 21
1134.588603
  0
LINE
  8
CSLAYER1
  6
CONTINUOUS
 62
     4
 10
977.161210
 20
1134.653794
 11
972.241720
 21
1139.573284
  0
LINE
  8
CSLAYER1
  6
CONTINUOUS
 62
     4
 10
977.161210
 20
1134.936637
 11
972.524563
 21
1139.573284
  0
LINE
  8
CSLAYER1
  6
CONTINUOUS
 62
     4
 10
977.161210
 20
1135.219480
 11
972.807405
 21
1139.573284
  0
LINE
  8
CSLAYER1
  6
CONTINUOUS
 62
     4
 10
977.161210
 20
1135.502322
 11
973.090248
 21
1139.573284
  0
LINE
  8
CSLAYER1
  6
CONTINUOUS
 62
     4
 10
977.161210
 20
1135.785165
 11
973.373091
 21
1139.573284
  0
LINE
  8
CSLAYER1
  6
CONTINUOUS
 62
     4
 10
977.161210
 20
1136.068008
 11
973.655933
 21
1139.573284
  0
LINE
  8
CSLAYER1
  6
CONTINUOUS
 62
     4
 10
977.161210
 20
1136.350850
 11
973.938776
 21
1139.573284
  0
LINE
  8
CSLAYER1
  6
CONTINUOUS
 62
     4
 10
977.161210
 20
1136.633693
 11
974.221619
 21
1139.573284
  0
LINE
  8
CSLAYER1
  6
CONTINUOUS
 62
     4
 10
977.161210
 20
1136.916536
 11
974.504462
 21
1139.573284
  0
LINE
  8
CSLAYER1
  6
CONTINUOUS
 62
     4
 10
977.161210
 20
1137.199379
 11
974.787304
 21
1139.573284
  0
LINE
  8
CSLAYER1
  6
CONTINUOUS
 62
     4
 10
977.161210
 20
1137.482221
 11
975.070147
 21
1139.573284
  0
LINE
  8
CSLAYER1
  6
CONTINUOUS
 62
     4
 10
977.161210
 20
1137.765064
 11
975.352990
 21
1139.573284
  0
LINE
  8
CSLAYER1
  6
CONTINUOUS
 62
     4
 10
977.161210
 20
1138.047907
 11
975.635832
 21
1139.573284
  0
LINE
  8
CSLAYER1
  6
CONTINUOUS
 62
     4
 10
977.161210
 20
1138.330749
 11
975.918675
 21
1139.573284
  0
LINE
  8
CSLAYER1
  6
CONTINUOUS
 62
     4
 10
977.161210
 20
1138.613592
 11
976.201518
 21
1139.573284
  0
LINE
  8
CSLAYER1
  6
CONTINUOUS
 62
     4
 10
977.161210
 20
1138.896435
 11
976.484361
 21
1139.573284
  0
LINE
  8
CSLAYER1
  6
CONTINUOUS
 62
     4
 10
977.161210
 20
1139.179278
 11
976.767203
 21
1139.573284
  0
LINE
  8
CSLAYER1
  6
CONTINUOUS
 62
     4
 10
977.161210
 20
1139.462120
 11
977.050046
 21
1139.573284
  0
LINE
  8
CSLAYER1
  6
CONTINUOUS
 62
     4
 10
977.161210
 20
1167.573284
 11
974.134669
 21
1167.573284
  0
LINE
  8
CSLAYER1
  6
CONTINUOUS
 62
     4
 10
971.161210
 20
1166.573284
 11
972.161210
 21
1167.573284
  0
LINE
  8
CSLAYER1
  6
CONTINUOUS
 62
     4
 10
994.161210
 20
1172.573284
 11
995.161210
 21
1173.573284
  0
LINE
  8
CSLAYER1
  6
CONTINUOUS
 62
     4
 10
972.161210
 20
1167.573284
 11
977.227468
 21
1172.557965
  0
LINE
  8
CSLAYER1
  6
CONTINUOUS
 62
     4
 10
977.161210
 20
1172.492774
 11
972.241720
 21
1167.573284
  0
LINE
  8
CSLAYER1
  6
CONTINUOUS
 62
     4
 10
977.161210
 20
1172.209931
 11
972.524563
 21
1167.573284
  0
LINE
  8
CSLAYER1
  6
CONTINUOUS
 62
     4
 10
977.161210
 20
1171.927088
 11
972.807405
 21
1167.573284
  0
LINE
  8
CSLAYER1
  6
CONTINUOUS
 62
     4
 10
977.161210
 20
1171.644246
 11
973.090248
 21
1167.573284
  0
LINE
  8
CSLAYER1
  6
CONTINUOUS
 62
     4
 10
977.161210
 20
1171.361403
 11
973.373091
 21
1167.573284
  0
LINE
  8
CSLAYER1
  6
CONTINUOUS
 62
     4
 10
977.161210
 20
1171.078560
 11
973.655933
 21
1167.573284
  0
LINE
  8
CSLAYER1
  6
CONTINUOUS
 62
     4
 10
977.161210
 20
1170.795717
 11
973.938776
 21
1167.573284
  0
LINE
  8
CSLAYER1
  6
CONTINUOUS
 62
     4
 10
977.161210
 20
1170.512875
 11
974.221619
 21
1167.573284
  0
LINE
  8
CSLAYER1
  6
CONTINUOUS
 62
     4
 10
977.161210
 20
1170.230032
 11
974.504462
 21
1167.573284
  0
LINE
  8
CSLAYER1
  6
CONTINUOUS
 62
     4
 10
977.161210
 20
1169.947189
 11
974.787304
 21
1167.573284
  0
LINE
  8
CSLAYER1
  6
CONTINUOUS
 62
     4
 10
977.161210
 20
1169.664347
 11
975.070147
 21
1167.573284
  0
LINE
  8
CSLAYER1
  6
CONTINUOUS
 62
     4
 10
977.161210
 20
1169.381504
 11
975.352990
 21
1167.573284
  0
LINE
  8
CSLAYER1
  6
CONTINUOUS
 62
     4
 10
977.161210
 20
1169.098661
 11
975.635832
 21
1167.573284
  0
LINE
  8
CSLAYER1
  6
CONTINUOUS
 62
     4
 10
977.161210
 20
1168.815818
 11
975.918675
 21
1167.573284
  0
LINE
  8
CSLAYER1
  6
CONTINUOUS
 62
     4
 10
977.161210
 20
1168.532976
 11
976.201518
 21
1167.573284
  0
LINE
  8
CSLAYER1
  6
CONTINUOUS
 62
     4
 10
977.161210
 20
1168.250133
 11
976.484361
 21
1167.573284
  0
LINE
  8
CSLAYER1
  6
CONTINUOUS
 62
     4
 10
977.161210
 20
1167.967290
 11
976.767203
 21
1167.573284
  0
LINE
  8
CSLAYER1
  6
CONTINUOUS
 62
     4
 10
977.161210
 20
1167.684448
 11
977.050046
 21
1167.573284
  0
LINE
  8
CSLAYER1
  6
CONTINUOUS
 62
     4
 10
1074.134669
 20
1132.223284
 11
1033.161210
 21
1132.223284
  0
LINE
  8
CSLAYER1
  6
CONTINUOUS
 62
     4
 10
1075.134669
 20
1173.923284
 11
1075.134669
 21
1133.223284
  0
LINE
  8
CSLAYER1
  6
CONTINUOUS
 62
     4
 10
1075.134669
 20
1133.223284
 11
1074.134669
 21
1132.223284
  0
LINE
  8
CSLAYER1
  6
CONTINUOUS
 62
     4
 10
1115.134669
 20
1163.573284
 11
1115.134669
 21
1143.573284
  0
LINE
  8
CSLAYER1
  6
CONTINUOUS
 62
     4
 10
1096.134669
 20
1172.073284
 11
1096.134669
 21
1135.073284
  0
LINE
  8
CSLAYER1
  6
CONTINUOUS
 62
     4
 10
1101.234669
 20
1170.573284
 11
1101.234669
 21
1136.573284
  0
LINE
  8
CSLAYER1
  6
CONTINUOUS
 62
     4
 10
1113.234669
 20
1170.573284
 11
1113.234669
 21
1136.573284
  0
LINE
  8
CSLAYER1
  6
CONTINUOUS
 62
     4
 10
1096.134669
 20
1170.573284
 11
1113.234669
 21
1170.573284
  0
LINE
  8
CSLAYER1
  6
CONTINUOUS
 62
     4
 10
1101.234669
 20
1163.573284
 11
1115.134669
 21
1163.573284
  0
LINE
  8
CSLAYER1
  6
CONTINUOUS
 62
     4
 10
1096.134669
 20
1136.573284
 11
1113.234669
 21
1136.573284
  0
LINE
  8
CSLAYER1
  6
CONTINUOUS
 62
     4
 10
1101.234669
 20
1143.573284
 11
1115.134669
 21
1143.573284
  0
LINE
  8
CSLAYER1
  6
CONTINUOUS
 62
     4
 10
1093.134669
 20
1172.073284
 11
1096.134669
 21
1172.073284
  0
LINE
  8
CSLAYER1
  6
CONTINUOUS
 62
     4
 10
1093.134669
 20
1135.073284
 11
1096.134669
 21
1135.073284
  0
LINE
  8
CSLAYER1
  6
CONTINUOUS
 62
     4
 10
1093.134669
 20
1135.073284
 11
1093.134669
 21
1172.073284
  0
LINE
  8
CSLAYER1
  6
CENTER
 62
     5
 10
1129.594607
 20
1153.573284
 11
954.564514
 21
1153.573284
  0
LINE
  8
CSLAYER1
  6
CONTINUOUS
 62
     4
 10
1093.134669
 20
1141.073284
 11
1092.161210
 21
1141.073284
  0
LINE
  8
CSLAYER1
  6
CONTINUOUS
 62
     4
 10
1074.134669
 20
1174.923284
 11
1033.161210
 21
1174.923284
  0
LINE
  8
CSLAYER1
  6
CONTINUOUS
 62
     4
 10
1075.134669
 20
1173.923284
 11
1074.134669
 21
1174.923284
  0
LINE
  8
CSLAYER1
  6
CONTINUOUS
 62
     4
 10
1093.134669
 20
1166.073284
 11
1092.161210
 21
1166.073284
  0
LINE
  8
CSLAYER1
  6
CONTINUOUS
 62
     4
 10
1092.134669
 20
1127.466360
 11
1092.134669
 21
1141.073284
  0
LINE
  8
CSLAYER1
  6
CONTINUOUS
 62
     4
 10
1038.161210
 20
1132.223284
 11
1033.161210
 21
1127.223284
  0
LINE
  8
CSLAYER1
  6
CONTINUOUS
 62
     4
 10
1033.161210
 20
1127.506127
 11
1037.878367
 21
1132.223284
  0
LINE
  8
CSLAYER1
  6
CONTINUOUS
 62
     4
 10
1033.161210
 20
1127.788969
 11
1037.595524
 21
1132.223284
  0
LINE
  8
CSLAYER1
  6
CONTINUOUS
 62
     4
 10
1033.161210
 20
1128.071812
 11
1037.312681
 21
1132.223284
  0
LINE
  8
CSLAYER1
  6
CONTINUOUS
 62
     4
 10
1033.161210
 20
1128.354655
 11
1037.029839
 21
1132.223284
  0
LINE
  8
CSLAYER1
  6
CONTINUOUS
 62
     4
 10
1033.161210
 20
1128.637498
 11
1036.746996
 21
1132.223284
  0
LINE
  8
CSLAYER1
  6
CONTINUOUS
 62
     4
 10
1033.161210
 20
1128.920340
 11
1036.464153
 21
1132.223284
  0
LINE
  8
CSLAYER1
  6
CONTINUOUS
 62
     4
 10
1033.161210
 20
1129.203183
 11
1036.181311
 21
1132.223284
  0
LINE
  8
CSLAYER1
  6
CONTINUOUS
 62
     4
 10
1033.161210
 20
1129.486026
 11
1035.898468
 21
1132.223284
  0
LINE
  8
CSLAYER1
  6
CONTINUOUS
 62
     4
 10
1033.161210
 20
1129.768868
 11
1035.615625
 21
1132.223284
  0
LINE
  8
CSLAYER1
  6
CONTINUOUS
 62
     4
 10
1033.161210
 20
1130.051711
 11
1035.332782
 21
1132.223284
  0
LINE
  8
CSLAYER1
  6
CONTINUOUS
 62
     4
 10
1033.161210
 20
1130.334554
 11
1035.049940
 21
1132.223284
  0
LINE
  8
CSLAYER1
  6
CONTINUOUS
 62
     4
 10
1033.161210
 20
1130.617396
 11
1034.767097
 21
1132.223284
  0
LINE
  8
CSLAYER1
  6
CONTINUOUS
 62
     4
 10
1033.161210
 20
1130.900239
 11
1034.484254
 21
1132.223284
  0
LINE
  8
CSLAYER1
  6
CONTINUOUS
 62
     4
 10
1033.161210
 20
1131.183082
 11
1034.201412
 21
1132.223284
  0
LINE
  8
CSLAYER1
  6
CONTINUOUS
 62
     4
 10
1033.161210
 20
1131.465925
 11
1033.918569
 21
1132.223284
  0
LINE
  8
CSLAYER1
  6
CONTINUOUS
 62
     4
 10
1033.161210
 20
1131.748767
 11
1033.635726
 21
1132.223284
  0
LINE
  8
CSLAYER1
  6
CONTINUOUS
 62
     4
 10
1033.161210
 20
1132.031610
 11
1033.352883
 21
1132.223284
  0
LINE
  8
CSLAYER1
  6
CONTINUOUS
 62
     4
 10
1017.161210
 20
1178.290441
 11
1012.444052
 21
1173.573284
  0
LINE
  8
CSLAYER1
  6
CONTINUOUS
 62
     4
 10
1017.161210
 20
1178.007599
 11
1012.726895
 21
1173.573284
  0
LINE
  8
CSLAYER1
  6
CONTINUOUS
 62
     4
 10
1017.161210
 20
1177.724756
 11
1013.009738
 21
1173.573284
  0
LINE
  8
CSLAYER1
  6
CONTINUOUS
 62
     4
 10
1017.161210
 20
1177.441913
 11
1013.292580
 21
1173.573284
  0
LINE
  8
CSLAYER1
  6
CONTINUOUS
 62
     4
 10
1017.161210
 20
1177.159070
 11
1013.575423
 21
1173.573284
  0
LINE
  8
CSLAYER1
  6
CONTINUOUS
 62
     4
 10
1017.161210
 20
1176.876228
 11
1013.858266
 21
1173.573284
  0
LINE
  8
CSLAYER1
  6
CONTINUOUS
 62
     4
 10
1017.161210
 20
1176.593385
 11
1014.141109
 21
1173.573284
  0
LINE
  8
CSLAYER1
  6
CONTINUOUS
 62
     4
 10
1017.161210
 20
1176.310542
 11
1014.423951
 21
1173.573284
  0
LINE
  8
CSLAYER1
  6
CONTINUOUS
 62
     4
 10
1017.161210
 20
1176.027700
 11
1014.706794
 21
1173.573284
  0
LINE
  8
CSLAYER1
  6
CONTINUOUS
 62
     4
 10
1017.161210
 20
1175.744857
 11
1014.989637
 21
1173.573284
  0
LINE
  8
CSLAYER1
  6
CONTINUOUS
 62
     4
 10
1017.161210
 20
1175.462014
 11
1015.272479
 21
1173.573284
  0
LINE
  8
CSLAYER1
  6
CONTINUOUS
 62
     4
 10
1017.161210
 20
1175.179171
 11
1015.555322
 21
1173.573284
  0
LINE
  8
CSLAYER1
  6
CONTINUOUS
 62
     4
 10
1017.161210
 20
1174.896329
 11
1015.838165
 21
1173.573284
  0
LINE
  8
CSLAYER1
  6
CONTINUOUS
 62
     4
 10
1017.161210
 20
1174.613486
 11
1016.121008
 21
1173.573284
  0
LINE
  8
CSLAYER1
  6
CONTINUOUS
 62
     4
 10
1017.161210
 20
1174.330643
 11
1016.403850
 21
1173.573284
  0
LINE
  8
CSLAYER1
  6
CONTINUOUS
 62
     4
 10
1017.161210
 20
1174.047801
 11
1016.686693
 21
1173.573284
  0
LINE
  8
CSLAYER1
  6
CONTINUOUS
 62
     4
 10
1017.161210
 20
1173.764958
 11
1016.969536
 21
1173.573284
  0
LINE
  8
CSLAYER1
  6
CONTINUOUS
 62
     4
 10
1038.161210
 20
1174.923284
 11
1033.161210
 21
1179.923284
  0
LINE
  8
CSLAYER1
  6
CONTINUOUS
 62
     4
 10
1033.161210
 20
1179.640441
 11
1037.878367
 21
1174.923284
  0
LINE
  8
CSLAYER1
  6
CONTINUOUS
 62
     4
 10
1033.161210
 20
1179.357599
 11
1037.595524
 21
1174.923284
  0
LINE
  8
CSLAYER1
  6
CONTINUOUS
 62
     4
 10
1033.161210
 20
1179.074756
 11
1037.312681
 21
1174.923284
  0
LINE
  8
CSLAYER1
  6
CONTINUOUS
 62
     4
 10
1033.161210
 20
1178.791913
 11
1037.029839
 21
1174.923284
  0
LINE
  8
CSLAYER1
  6
CONTINUOUS
 62
     4
 10
1033.161210
 20
1178.509070
 11
1036.746996
 21
1174.923284
  0
LINE
  8
CSLAYER1
  6
CONTINUOUS
 62
     4
 10
1033.161210
 20
1178.226228
 11
1036.464153
 21
1174.923284
  0
LINE
  8
CSLAYER1
  6
CONTINUOUS
 62
     4
 10
1033.161210
 20
1177.943385
 11
1036.181311
 21
1174.923284
  0
LINE
  8
CSLAYER1
  6
CONTINUOUS
 62
     4
 10
1033.161210
 20
1177.660542
 11
1035.898468
 21
1174.923284
  0
LINE
  8
CSLAYER1
  6
CONTINUOUS
 62
     4
 10
1033.161210
 20
1177.377700
 11
1035.615625
 21
1174.923284
  0
LINE
  8
CSLAYER1
  6
CONTINUOUS
 62
     4
 10
1033.161210
 20
1177.094857
 11
1035.332782
 21
1174.923284
  0
LINE
  8
CSLAYER1
  6
CONTINUOUS
 62
     4
 10
1033.161210
 20
1176.812014
 11
1035.049940
 21
1174.923284
  0
LINE
  8
CSLAYER1
  6
CONTINUOUS
 62
     4
 10
1033.161210
 20
1176.529171
 11
1034.767097
 21
1174.923284
  0
LINE
  8
CSLAYER1
  6
CONTINUOUS
 62
     4
 10
1033.161210
 20
1176.246329
 11
1034.484254
 21
1174.923284
  0
LINE
  8
CSLAYER1
  6
CONTINUOUS
 62
     4
 10
1033.161210
 20
1175.963486
 11
1034.201412
 21
1174.923284
  0
LINE
  8
CSLAYER1
  6
CONTINUOUS
 62
     4
 10
1033.161210
 20
1175.680643
 11
1033.918569
 21
1174.923284
  0
LINE
  8
CSLAYER1
  6
CONTINUOUS
 62
     4
 10
1033.161210
 20
1175.397801
 11
1033.635726
 21
1174.923284
  0
LINE
  8
CSLAYER1
  6
CONTINUOUS
 62
     4
 10
1033.161210
 20
1175.114958
 11
1033.352883
 21
1174.923284
  0
LINE
  8
CSLAYER1
  6
CONTINUOUS
 62
     4
 10
1016.121008
 20
1173.573284
 11
1017.161210
 21
1173.573284
  0
LINE
  8
CSLAYER1
  6
CONTINUOUS
 62
     4
 10
977.161210
 20
1129.573284
 11
993.161210
 21
1129.573284
  0
LINE
  8
CSLAYER1
  6
CONTINUOUS
 62
     4
 10
1014.969536
 20
1173.573284
 11
995.161210
 21
1173.573284
  0
LINE
  8
CSLAYER1
  6
CONTINUOUS
 62
     4
 10
994.161210
 20
1168.573284
 11
993.161210
 21
1168.573284
  0
LINE
  8
CSLAYER1
  6
CONTINUOUS
 62
     4
 10
994.161210
 20
1138.573284
 11
993.161210
 21
1138.573284
  0
LINE
  8
CSLAYER1
  6
CONTINUOUS
 62
     4
 10
1076.161210
 20
1168.573284
 11
1075.134669
 21
1168.573284
  0
LINE
  8
CSLAYER1
  6
CONTINUOUS
 62
     4
 10
1076.161210
 20
1138.573284
 11
1075.134669
 21
1138.573284
  0
LINE
  8
CSLAYER1
  6
CONTINUOUS
 62
     4
 10
994.161210
 20
1134.573284
 11
995.161210
 21
1133.573284
  0
LINE
  8
CSLAYER1
  6
CONTINUOUS
 62
     4
 10
1017.161210
 20
1128.856127
 11
1012.444052
 21
1133.573284
  0
LINE
  8
CSLAYER1
  6
CONTINUOUS
 62
     4
 10
1017.161210
 20
1129.138969
 11
1012.726895
 21
1133.573284
  0
LINE
  8
CSLAYER1
  6
CONTINUOUS
 62
     4
 10
1017.161210
 20
1129.421812
 11
1013.009738
 21
1133.573284
  0
LINE
  8
CSLAYER1
  6
CONTINUOUS
 62
     4
 10
1017.161210
 20
1129.704655
 11
1013.292580
 21
1133.573284
  0
LINE
  8
CSLAYER1
  6
CONTINUOUS
 62
     4
 10
1017.161210
 20
1129.987498
 11
1013.575423
 21
1133.573284
  0
LINE
  8
CSLAYER1
  6
CONTINUOUS
 62
     4
 10
1017.161210
 20
1130.270340
 11
1013.858266
 21
1133.573284
  0
LINE
  8
CSLAYER1
  6
CONTINUOUS
 62
     4
 10
1017.161210
 20
1130.553183
 11
1014.141109
 21
1133.573284
  0
LINE
  8
CSLAYER1
  6
CONTINUOUS
 62
     4
 10
1017.161210
 20
1130.836026
 11
1014.423951
 21
1133.573284
  0
LINE
  8
CSLAYER1
  6
CONTINUOUS
 62
     4
 10
1017.161210
 20
1131.118868
 11
1014.706794
 21
1133.573284
  0
LINE
  8
CSLAYER1
  6
CONTINUOUS
 62
     4
 10
1017.161210
 20
1131.401711
 11
1014.989637
 21
1133.573284
  0
LINE
  8
CSLAYER1
  6
CONTINUOUS
 62
     4
 10
1017.161210
 20
1131.684554
 11
1015.272479
 21
1133.573284
  0
LINE
  8
CSLAYER1
  6
CONTINUOUS
 62
     4
 10
1017.161210
 20
1131.967396
 11
1015.555322
 21
1133.573284
  0
LINE
  8
CSLAYER1
  6
CONTINUOUS
 62
     4
 10
1017.161210
 20
1132.250239
 11
1015.838165
 21
1133.573284
  0
LINE
  8
CSLAYER1
  6
CONTINUOUS
 62
     4
 10
1017.161210
 20
1132.533082
 11
1016.121008
 21
1133.573284
  0
LINE
  8
CSLAYER1
  6
CONTINUOUS
 62
     4
 10
1017.161210
 20
1132.815925
 11
1016.403850
 21
1133.573284
  0
LINE
  8
CSLAYER1
  6
CONTINUOUS
 62
     4
 10
1017.161210
 20
1133.098767
 11
1016.686693
 21
1133.573284
  0
LINE
  8
CSLAYER1
  6
CONTINUOUS
 62
     4
 10
1017.161210
 20
1133.381610
 11
1016.969536
 21
1133.573284
  0
LINE
  8
CSLAYER1
  6
CONTINUOUS
 62
     4
 10
1016.121008
 20
1133.573284
 11
1017.161210
 21
1133.573284
  0
LINE
  8
CSLAYER1
  6
CONTINUOUS
 62
     4
 10
1014.969536
 20
1133.573284
 11
995.161210
 21
1133.573284
  0
POINT
  8
CSLAYER1
 62
     4
 10
985.161210
 20
1223.230635
  0
LINE
  8
CSLAYER1
  6
CONTINUOUS
 62
     4
 10
998.686210
 20
1210.230635
 11
998.686210
 21
1305.480635
  0
LINE
  8
CSLAYER1
  6
CONTINUOUS
 62
     4
 10
1003.061210
 20
1210.230635
 11
1003.061210
 21
1267.980635
  0
LINE
  8
CSLAYER1
  6
CONTINUOUS
 62
     4
 10
1004.911210
 20
1219.460635
 11
1004.911210
 21
1227.010362
  0
LINE
  8
CSLAYER1
  6
CONTINUOUS
 62
     4
 10
998.686210
 20
1210.230635
 11
1003.061210
 21
1210.230635
  0
LINE
  8
CSLAYER1
  6
CONTINUOUS
 62
     4
 10
1003.061210
 20
1228.010362
 11
1003.911210
 21
1228.010362
  0
ARC
  8
CSLAYER1
  6
CONTINUOUS
 62
     4
 10
1003.911210
 20
1219.460635
 40
1.000000
 50
270.000000
 51
360.000000
  0
ARC
  8
CSLAYER1
  6
CONTINUOUS
 62
     4
 10
1003.911210
 20
1227.010362
 40
1.000000
 50
0.000000
 51
90.000000
  0
LINE
  8
CSLAYER1
  6
CONTINUOUS
 62
     4
 10
971.636210
 20
1210.230635
 11
971.636210
 21
1305.480635
  0
LINE
  8
CSLAYER1
  6
CONTINUOUS
 62
     4
 10
967.261210
 20
1210.230635
 11
967.261210
 21
1267.980635
  0
LINE
  8
CSLAYER1
  6
CONTINUOUS
 62
     4
 10
965.411210
 20
1219.460635
 11
965.411210
 21
1227.010362
  0
LINE
  8
CSLAYER1
  6
CONTINUOUS
 62
     4
 10
971.636210
 20
1210.230635
 11
967.261210
 21
1210.230635
  0
LINE
  8
CSLAYER1
  6
CONTINUOUS
 62
     4
 10
967.261210
 20
1218.460635
 11
966.411210
 21
1218.460635
  0
LINE
  8
CSLAYER1
  6
CONTINUOUS
 62
     4
 10
967.261210
 20
1228.010362
 11
966.411210
 21
1228.010362
  0
ARC
  8
CSLAYER1
  6
CONTINUOUS
 62
     4
 10
966.411210
 20
1219.460635
 40
1.000000
 50
180.000000
 51
270.000000
  0
ARC
  8
CSLAYER1
  6
CONTINUOUS
 62
     4
 10
966.411210
 20
1227.010362
 40
1.000000
 50
90.000000
 51
180.000000
  0
LINE
  8
CSLAYER1
  6
CONTINUOUS
 62
     4
 10
972.636210
 20
1213.230635
 11
977.161210
 21
1213.230635
  0
LINE
  8
CSLAYER1
  6
CONTINUOUS
 62
     4
 10
971.636210
 20
1214.230635
 11
972.636210
 21
1213.230635
  0
LINE
  8
CSLAYER1
  6
CONTINUOUS
 62
     4
 10
997.686210
 20
1213.230635
 11
998.686210
 21
1214.230635
  0
LINE
  8
CSLAYER1
  6
CONTINUOUS
 62
     4
 10
972.636210
 20
1233.230635
 11
977.161210
 21
1233.230635
  0
LINE
  8
CSLAYER1
  6
CONTINUOUS
 62
     4
 10
971.636210
 20
1232.230635
 11
972.636210
 21
1233.230635
  0
LINE
  8
CSLAYER1
  6
CONTINUOUS
 62
     4
 10
997.686210
 20
1233.230635
 11
998.686210
 21
1232.230635
  0
LINE
  8
CSLAYER1
  6
CONTINUOUS
 62
     4
 10
1003.061210
 20
1218.460635
 11
1003.911210
 21
1218.460635
  0
LINE
  8
CSLAYER1
  6
CONTINUOUS
 62
     5
 10
1011.798872
 20
1223.230635
 11
967.262961
 21
1223.230635
  0
LINE
  8
CSLAYER1
  6
CONTINUOUS
 62
     4
 10
994.686210
 20
1239.930635
 11
994.686210
 21
1301.780635
  0
LINE
  8
CSLAYER1
  6
CONTINUOUS
 62
     4
 10
994.686210
 20
1239.930635
 11
998.686210
 21
1239.930635
  0
LINE
  8
CSLAYER1
  6
CONTINUOUS
 62
     4
 10
975.636210
 20
1239.930635
 11
975.636210
 21
1301.780635
  0
LINE
  8
CSLAYER1
  6
CONTINUOUS
 62
     4
 10
975.636210
 20
1239.930635
 11
971.636210
 21
1239.930635
  0
LINE
  8
CSLAYER1
  6
CONTINUOUS
 62
     4
 10
993.161210
 20
1240.230635
 11
977.161210
 21
1240.230635
  0
LINE
  8
CSLAYER1
  6
CONTINUOUS
 62
     4
 10
993.161210
 20
1233.230635
 11
997.686210
 21
1233.230635
  0
LINE
  8
CSLAYER1
  6
CONTINUOUS
 62
     4
 10
993.161210
 20
1213.230635
 11
997.686210
 21
1213.230635
  0
LINE
  8
CSLAYER1
  6
CONTINUOUS
 62
     4
 10
993.161210
 20
1245.455635
 11
993.161210
 21
1109.139686
  0
LINE
  8
CSLAYER1
  6
CONTINUOUS
 62
     4
 10
977.161210
 20
1245.455635
 11
977.161210
 21
1109.139686
  0
LINE
  8
CSLAYER1
  6
CONTINUOUS
 62
     4
 10
1076.161210
 20
1109.139686
 11
1033.161210
 21
1109.139686
  0
LINE
  8
CSLAYER1
  6
CONTINUOUS
 62
     4
 10
1003.061210
 20
1273.730635
 11
1003.061210
 21
1462.753367
  0
LINE
  8
CSLAYER1
  6
CONTINUOUS
 62
     4
 10
967.261210
 20
1273.730635
 11
967.261210
 21
1457.228367
  0
LINE
  8
CSLAYER1
  6
CENTER
 62
     5
 10
1101.722994
 20
1623.361060
 11
618.599425
 21
1623.361060
  0
LINE
  8
CSLAYER1
  6
CONTINUOUS
 62
     7
 10
890.161210
 20
1599.815788
 11
890.161210
 21
1416.250262
  0
LINE
  8
CSLAYER1
  6
CONTINUOUS
 62
     7
 10
904.711210
 20
1395.108134
 11
904.541683
 21
1397.551652
  0
LINE
  8
CSLAYER1
  6
CONTINUOUS
 62
     7
 10
904.541683
 20
1397.551652
 11
904.034395
 21
1399.976573
  0
LINE
  8
CSLAYER1
  6
CONTINUOUS
 62
     7
 10
904.034395
 20
1399.976573
 11
903.193205
 21
1402.364443
  0
LINE
  8
CSLAYER1
  6
CONTINUOUS
 62
     7
 10
903.193205
 20
1402.364443
 11
902.024516
 21
1404.697087
  0
LINE
  8
CSLAYER1
  6
CONTINUOUS
 62
     7
 10
902.024516
 20
1404.697087
 11
900.537222
 21
1406.956754
  0
LINE
  8
CSLAYER1
  6
CONTINUOUS
 62
     7
 10
900.537222
 20
1406.956754
 11
898.742641
 21
1409.126246
  0
LINE
  8
CSLAYER1
  6
CONTINUOUS
 62
     7
 10
898.742641
 20
1409.126246
 11
896.654433
 21
1411.189051
  0
LINE
  8
CSLAYER1
  6
CONTINUOUS
 62
     7
 10
896.654433
 20
1411.189051
 11
894.288490
 21
1413.129471
  0
LINE
  8
CSLAYER1
  6
CONTINUOUS
 62
     7
 10
894.288490
 20
1413.129471
 11
891.662817
 21
1414.932738
  0
LINE
  8
CSLAYER1
  6
CONTINUOUS
 62
     7
 10
891.662817
 20
1414.932738
 11
888.797398
 21
1416.585127
  0
LINE
  8
CSLAYER1
  6
CONTINUOUS
 62
     7
 10
888.797398
 20
1416.585127
 11
885.714040
 21
1418.074064
  0
LINE
  8
CSLAYER1
  6
CONTINUOUS
 62
     7
 10
885.714040
 20
1418.074064
 11
882.436210
 21
1419.388216
  0
LINE
  8
CSLAYER1
  6
CONTINUOUS
 62
     7
 10
882.436210
 20
1419.388216
 11
878.988853
 21
1420.517582
  0
LINE
  8
CSLAYER1
  6
CONTINUOUS
 62
     7
 10
878.988853
 20
1420.517582
 11
875.398207
 21
1421.453567
  0
LINE
  8
CSLAYER1
  6
CONTINUOUS
 62
     7
 10
875.398207
 20
1421.453567
 11
871.691598
 21
1422.189047
  0
LINE
  8
CSLAYER1
  6
CONTINUOUS
 62
     7
 10
871.691598
 20
1422.189047
 11
867.897236
 21
1422.718424
  0
LINE
  8
CSLAYER1
  6
CONTINUOUS
 62
     7
 10
867.897236
 20
1422.718424
 11
864.043998
 21
1423.037671
  0
LINE
  8
CSLAYER1
  6
CONTINUOUS
 62
     7
 10
864.043998
 20
1423.037671
 11
860.161210
 21
1423.144358
  0
LINE
  8
CSLAYER1
  6
CONTINUOUS
 62
     7
 10
860.161210
 20
1423.144358
 11
856.278421
 21
1423.037671
  0
LINE
  8
CSLAYER1
  6
CONTINUOUS
 62
     7
 10
890.161210
 20
1599.815788
 11
890.047051
 21
1601.461254
  0
LINE
  8
CSLAYER1
  6
CONTINUOUS
 62
     7
 10
890.047051
 20
1601.461254
 11
889.705442
 21
1603.094198
  0
LINE
  8
CSLAYER1
  6
CONTINUOUS
 62
     7
 10
889.705442
 20
1603.094198
 11
889.138984
 21
1604.702191
  0
LINE
  8
CSLAYER1
  6
CONTINUOUS
 62
     7
 10
889.138984
 20
1604.702191
 11
888.351988
 21
1606.272995
  0
LINE
  8
CSLAYER1
  6
CONTINUOUS
 62
     7
 10
888.351988
 20
1606.272995
 11
887.350443
 21
1607.794656
  0
LINE
  8
CSLAYER1
  6
CONTINUOUS
 62
     7
 10
887.350443
 20
1607.794656
 11
886.141972
 21
1609.255593
  0
LINE
  8
CSLAYER1
  6
CONTINUOUS
 62
     7
 10
886.141972
 20
1609.255593
 11
884.735771
 21
1610.644688
  0
LINE
  8
CSLAYER1
  6
CONTINUOUS
 62
     7
 10
884.735771
 20
1610.644688
 11
883.142543
 21
1611.951368
  0
LINE
  8
CSLAYER1
  6
CONTINUOUS
 62
     7
 10
883.142543
 20
1611.951368
 11
881.374413
 21
1613.165689
  0
LINE
  8
CSLAYER1
  6
CONTINUOUS
 62
     7
 10
881.374413
 20
1613.165689
 11
879.444838
 21
1614.278409
  0
LINE
  8
CSLAYER1
  6
CONTINUOUS
 62
     7
 10
879.444838
 20
1614.278409
 11
877.368503
 21
1615.281060
  0
LINE
  8
CSLAYER1
  6
CONTINUOUS
 62
     7
 10
877.368503
 20
1615.281060
 11
875.161210
 21
1616.166011
  0
LINE
  8
CSLAYER1
  6
CONTINUOUS
 62
     7
 10
875.161210
 20
1616.166011
 11
872.839757
 21
1616.926527
  0
LINE
  8
CSLAYER1
  6
CONTINUOUS
 62
     7
 10
872.839757
 20
1616.926527
 11
870.421814
 21
1617.556819
  0
LINE
  8
CSLAYER1
  6
CONTINUOUS
 62
     7
 10
870.421814
 20
1617.556819
 11
867.925781
 21
1618.052092
  0
LINE
  8
CSLAYER1
  6
CONTINUOUS
 62
     7
 10
867.925781
 20
1618.052092
 11
865.370655
 21
1618.408576
  0
LINE
  8
CSLAYER1
  6
CONTINUOUS
 62
     7
 10
865.370655
 20
1618.408576
 11
862.775882
 21
1618.623557
  0
LINE
  8
CSLAYER1
  6
CONTINUOUS
 62
     7
 10
862.775882
 20
1618.623557
 11
860.161210
 21
1618.695399
  0
LINE
  8
CSLAYER1
  6
CONTINUOUS
 62
     7
 10
860.161210
 20
1618.695399
 11
857.546537
 21
1618.623557
  0
LINE
  8
CSLAYER1
  6
CONTINUOUS
 62
     7
 10
890.161210
 20
1593.111060
 11
1014.661210
 21
1593.111060
  0
LINE
  8
CSLAYER1
  6
CONTINUOUS
 62
     7
 10
1016.161210
 20
1648.925025
 11
1016.161210
 21
1593.461060
  0
LINE
  8
CSLAYER1
  6
CONTINUOUS
 62
     7
 10
1011.161210
 20
1645.361060
 11
1016.161210
 21
1640.361060
  0
LINE
  8
CSLAYER1
  6
CONTINUOUS
 62
     7
 10
1011.161210
 20
1645.361060
 11
1011.161210
 21
1601.361060
  0
ARC
  8
CSLAYER1
  6
CONTINUOUS
 62
     7
 10
1017.261210
 20
1593.461060
 40
1.100000
 50
180.000000
 51
270.000000
  0
LINE
  8
CSLAYER1
  6
CONTINUOUS
 62
     7
 10
1011.161210
 20
1601.361060
 11
1016.161210
 21
1606.361060
  0
LINE
  8
CSLAYER1
  6
CONTINUOUS
 62
     7
 10
966.661210
 20
1654.627388
 11
966.661210
 21
1601.361060
  0
LINE
  8
CSLAYER1
  6
CONTINUOUS
 62
     7
 10
966.661210
 20
1595.111060
 11
966.661210
 21
1600.111060
  0
LINE
  8
CSLAYER1
  6
CONTINUOUS
 62
     7
 10
966.661210
 20
1595.111060
 11
964.661210
 21
1593.111060
  0
POINT
  8
CSLAYER1
 62
     7
 10
985.161210
 20
1535.778367
  0
LINE
  8
CSLAYER1
  6
CONTINUOUS
 62
     5
 10
999.286586
 20
1535.778370
 11
971.047496
 21
1535.778370
  0
LINE
  8
CSLAYER1
  6
CONTINUOUS
 62
     7
 10
993.661210
 20
1560.778370
 11
993.661210
 21
1601.361060
  0
LINE
  8
CSLAYER1
  6
CONTINUOUS
 62
     7
 10
995.161210
 20
1552.778370
 11
995.161210
 21
1601.361060
  0
LINE
  8
CSLAYER1
  6
CONTINUOUS
 62
     7
 10
1011.161210
 20
1645.361060
 11
966.661210
 21
1645.361060
  0
LINE
  8
CSLAYER1
  6
CONTINUOUS
 62
     7
 10
1003.661210
 20
1645.361060
 11
1003.661210
 21
1654.627388
  0
LINE
  8
CSLAYER1
  6
CONTINUOUS
 62
     7
 10
995.161210
 20
1560.778370
 11
975.161210
 21
1560.778370
  0
LINE
  8
CSLAYER1
  6
CONTINUOUS
 62
     7
 10
993.661210
 20
1560.778370
 11
995.161210
 21
1558.180293
  0
LINE
  8
CSLAYER1
  6
CONTINUOUS
 62
     7
 10
976.661210
 20
1560.778370
 11
976.661210
 21
1601.361060
  0
LINE
  8
CSLAYER1
  6
CONTINUOUS
 62
     7
 10
976.661210
 20
1560.778370
 11
975.161210
 21
1558.180293
  0
LINE
  8
CSLAYER1
  6
CONTINUOUS
 62
     7
 10
975.161210
 20
1552.778370
 11
975.161210
 21
1601.361060
  0
LINE
  8
CSLAYER1
  6
CONTINUOUS
 62
     7
 10
972.636210
 20
1550.778367
 11
997.686210
 21
1550.778367
  0
POINT
  8
CSLAYER1
 62
     7
 10
985.161210
 20
1504.028367
  0
LINE
  8
CSLAYER1
  6
CONTINUOUS
 62
     7
 10
998.686210
 20
1549.778367
 11
998.686210
 21
1457.228367
  0
LINE
  8
CSLAYER1
  6
CONTINUOUS
 62
     7
 10
994.686210
 20
1519.078367
 11
994.686210
 21
1457.228367
  0
LINE
  8
CSLAYER1
  6
CONTINUOUS
 62
     7
 10
994.686210
 20
1519.078367
 11
998.686210
 21
1519.078367
  0
LINE
  8
CSLAYER1
  6
CONTINUOUS
 62
     7
 10
993.686210
 20
1494.503367
 11
976.636210
 21
1494.503367
  0
LINE
  8
CSLAYER1
  6
CONTINUOUS
 62
     7
 10
993.686210
 20
1513.553367
 11
976.636210
 21
1513.553367
  0
ARC
  8
CSLAYER1
  6
CONTINUOUS
 62
     7
 10
993.686210
 20
1495.503367
 40
1.000000
 50
270.000000
 51
360.000000
  0
ARC
  8
CSLAYER1
  6
CONTINUOUS
 62
     7
 10
993.686210
 20
1512.553367
 40
1.000000
 50
0.000000
 51
90.000000
  0
LINE
  8
CSLAYER1
  6
CONTINUOUS
 62
     7
 10
971.636210
 20
1549.778367
 11
971.636210
 21
1456.528367
  0
LINE
  8
CSLAYER1
  6
CONTINUOUS
 62
     7
 10
975.636210
 20
1519.078367
 11
975.636210
 21
1457.228367
  0
LINE
  8
CSLAYER1
  6
CONTINUOUS
 62
     7
 10
975.636210
 20
1519.078367
 11
971.636210
 21
1519.078367
  0
ARC
  8
CSLAYER1
  6
CONTINUOUS
 62
     7
 10
976.636210
 20
1495.503367
 40
1.000000
 50
180.000000
 51
270.000000
  0
ARC
  8
CSLAYER1
  6
CONTINUOUS
 62
     7
 10
976.636210
 20
1512.553367
 40
1.000000
 50
90.000000
 51
180.000000
  0
LINE
  8
CSLAYER1
  6
CONTINUOUS
 62
     7
 10
1004.911210
 20
1500.258367
 11
1004.911210
 21
1507.808094
  0
LINE
  8
CSLAYER1
  6
CONTINUOUS
 62
     7
 10
998.686210
 20
1491.028367
 11
1003.061210
 21
1491.028367
  0
LINE
  8
CSLAYER1
  6
CONTINUOUS
 62
     7
 10
998.686210
 20
1548.778367
 11
1003.061210
 21
1548.778367
  0
LINE
  8
CSLAYER1
  6
CONTINUOUS
 62
     7
 10
1003.061210
 20
1499.258367
 11
1003.911210
 21
1499.258367
  0
LINE
  8
CSLAYER1
  6
CONTINUOUS
 62
     7
 10
1003.061210
 20
1508.808094
 11
1003.911210
 21
1508.808094
  0
ARC
  8
CSLAYER1
  6
CONTINUOUS
 62
     7
 10
1003.911210
 20
1500.258367
 40
1.000000
 50
270.000000
 51
360.000000
  0
ARC
  8
CSLAYER1
  6
CONTINUOUS
 62
     7
 10
1003.911210
 20
1507.808094
 40
1.000000
 50
0.000000
 51
90.000000
  0
LINE
  8
CSLAYER1
  6
CONTINUOUS
 62
     7
 10
1004.911210
 20
1532.008367
 11
1004.911210
 21
1539.558094
  0
LINE
  8
CSLAYER1
  6
CONTINUOUS
 62
     7
 10
1003.061210
 20
1531.008367
 11
1003.911210
 21
1531.008367
  0
LINE
  8
CSLAYER1
  6
CONTINUOUS
 62
     7
 10
1003.061210
 20
1540.558094
 11
1003.911210
 21
1540.558094
  0
ARC
  8
CSLAYER1
  6
CONTINUOUS
 62
     7
 10
1003.911210
 20
1532.008367
 40
1.000000
 50
270.000000
 51
360.000000
  0
ARC
  8
CSLAYER1
  6
CONTINUOUS
 62
     7
 10
1003.911210
 20
1539.558094
 40
1.000000
 50
0.000000
 51
90.000000
  0
LINE
  8
CSLAYER1
  6
CONTINUOUS
 62
     7
 10
965.411210
 20
1500.258367
 11
965.411210
 21
1507.808094
  0
LINE
  8
CSLAYER1
  6
CONTINUOUS
 62
     7
 10
971.636210
 20
1491.028367
 11
967.261210
 21
1491.028367
  0
LINE
  8
CSLAYER1
  6
CONTINUOUS
 62
     7
 10
971.636210
 20
1548.778367
 11
967.261210
 21
1548.778367
  0
LINE
  8
CSLAYER1
  6
CONTINUOUS
 62
     7
 10
967.261210
 20
1499.258367
 11
966.411210
 21
1499.258367
  0
LINE
  8
CSLAYER1
  6
CONTINUOUS
 62
     7
 10
967.261210
 20
1508.808094
 11
966.411210
 21
1508.808094
  0
ARC
  8
CSLAYER1
  6
CONTINUOUS
 62
     7
 10
966.411210
 20
1500.258367
 40
1.000000
 50
180.000000
 51
270.000000
  0
ARC
  8
CSLAYER1
  6
CONTINUOUS
 62
     7
 10
966.411210
 20
1507.808094
 40
1.000000
 50
90.000000
 51
180.000000
  0
LINE
  8
CSLAYER1
  6
CONTINUOUS
 62
     7
 10
962.311210
 20
1532.008367
 11
962.311210
 21
1539.558094
  0
LINE
  8
CSLAYER1
  6
CONTINUOUS
 62
     7
 10
967.261210
 20
1531.008367
 11
963.311210
 21
1531.008367
  0
LINE
  8
CSLAYER1
  6
CONTINUOUS
 62
     7
 10
967.261210
 20
1540.558094
 11
963.311210
 21
1540.558094
  0
ARC
  8
CSLAYER1
  6
CONTINUOUS
 62
     7
 10
963.311210
 20
1532.008367
 40
1.000000
 50
180.000000
 51
270.000000
  0
ARC
  8
CSLAYER1
  6
CONTINUOUS
 62
     7
 10
963.311210
 20
1539.558094
 40
1.000000
 50
90.000000
 51
180.000000
  0
LINE
  8
CSLAYER1
  6
CONTINUOUS
 62
     7
 10
971.636210
 20
1540.558094
 11
998.686210
 21
1540.558094
  0
LINE
  8
CSLAYER1
  6
CONTINUOUS
 62
     7
 10
971.636210
 20
1531.008367
 11
998.686210
 21
1531.008367
  0
LINE
  8
CSLAYER1
  6
CONTINUOUS
 62
     7
 10
973.636210
 20
1520.778367
 11
996.686210
 21
1520.778367
  0
ARC
  8
CSLAYER1
  6
CONTINUOUS
 62
     7
 10
996.686210
 20
1522.778367
 40
2.000000
 50
270.000000
 51
360.000000
  0
ARC
  8
CSLAYER1
  6
CONTINUOUS
 62
     7
 10
973.636210
 20
1522.778367
 40
2.000000
 50
180.000000
 51
270.000000
  0
ARC
  8
CSLAYER1
  6
CONTINUOUS
 62
     7
 10
973.161210
 20
1552.778367
 40
2.000000
 50
270.000000
 51
360.000000
  0
ARC
  8
CSLAYER1
  6
CONTINUOUS
 62
     7
 10
997.161210
 20
1552.778367
 40
2.000000
 50
180.000000
 51
270.000000
  0
ARC
  8
CSLAYER1
  6
CONTINUOUS
 62
     7
 10
972.636210
 20
1549.778367
 40
1.000000
 50
90.000000
 51
180.000000
  0
ARC
  8
CSLAYER1
  6
CONTINUOUS
 62
     7
 10
997.686210
 20
1549.778367
 40
1.000000
 50
0.000000
 51
90.000000
  0
POINT
  8
CSLAYER1
 62
     7
 10
985.161210
 20
1550.778367
  0
LINE
  8
CSLAYER1
  6
CONTINUOUS
 62
     7
 10
1003.061210
 20
1491.028367
 11
1003.061210
 21
1548.778367
  0
LINE
  8
CSLAYER1
  6
CONTINUOUS
 62
     7
 10
967.261210
 20
1491.028367
 11
967.261210
 21
1548.778367
  0
POINT
  8
CSLAYER1
 62
     7
 10
985.161210
 20
1472.278367
  0
LINE
  8
CSLAYER1
  6
CONTINUOUS
 62
     7
 10
994.686210
 20
1457.228367
 11
998.686210
 21
1457.228367
  0
LINE
  8
CSLAYER1
  6
CONTINUOUS
 62
     7
 10
993.686210
 20
1481.803367
 11
976.636210
 21
1481.803367
  0
LINE
  8
CSLAYER1
  6
CONTINUOUS
 62
     7
 10
993.686210
 20
1462.753367
 11
976.636210
 21
1462.753367
  0
ARC
  8
CSLAYER1
  6
CONTINUOUS
 62
     7
 10
993.686210
 20
1480.803367
 40
1.000000
 50
0.000000
 51
90.000000
  0
ARC
  8
CSLAYER1
  6
CONTINUOUS
 62
     7
 10
993.686210
 20
1463.753367
 40
1.000000
 50
270.000000
 51
360.000000
  0
LINE
  8
CSLAYER1
  6
CONTINUOUS
 62
     7
 10
975.636210
 20
1457.228367
 11
971.636210
 21
1457.228367
  0
ARC
  8
CSLAYER1
  6
CONTINUOUS
 62
     7
 10
976.636210
 20
1480.803367
 40
1.000000
 50
90.000000
 51
180.000000
  0
ARC
  8
CSLAYER1
  6
CONTINUOUS
 62
     7
 10
976.636210
 20
1463.753367
 40
1.000000
 50
180.000000
 51
270.000000
  0
LINE
  8
CSLAYER1
  6
CONTINUOUS
 62
     7
 10
1004.911210
 20
1476.048367
 11
1004.911210
 21
1468.498641
  0
LINE
  8
CSLAYER1
  6
CONTINUOUS
 62
     7
 10
998.686210
 20
1485.278367
 11
1003.061210
 21
1485.278367
  0
LINE
  8
CSLAYER1
  6
CONTINUOUS
 62
     7
 10
1003.061210
 20
1477.048367
 11
1003.911210
 21
1477.048367
  0
LINE
  8
CSLAYER1
  6
CONTINUOUS
 62
     7
 10
1003.061210
 20
1467.498641
 11
1003.911210
 21
1467.498641
  0
ARC
  8
CSLAYER1
  6
CONTINUOUS
 62
     7
 10
1003.911210
 20
1476.048367
 40
1.000000
 50
0.000000
 51
90.000000
  0
ARC
  8
CSLAYER1
  6
CONTINUOUS
 62
     7
 10
1003.911210
 20
1468.498641
 40
1.000000
 50
270.000000
 51
360.000000
  0
LINE
  8
CSLAYER1
  6
CONTINUOUS
 62
     7
 10
965.411210
 20
1476.048367
 11
965.411210
 21
1468.498641
  0
LINE
  8
CSLAYER1
  6
CONTINUOUS
 62
     7
 10
971.636210
 20
1485.278367
 11
967.261210
 21
1485.278367
  0
LINE
  8
CSLAYER1
  6
CONTINUOUS
 62
     7
 10
967.261210
 20
1477.048367
 11
966.411210
 21
1477.048367
  0
LINE
  8
CSLAYER1
  6
CONTINUOUS
 62
     7
 10
967.261210
 20
1467.498641
 11
966.411210
 21
1467.498641
  0
ARC
  8
CSLAYER1
  6
CONTINUOUS
 62
     7
 10
966.411210
 20
1476.048367
 40
1.000000
 50
90.000000
 51
180.000000
  0
ARC
  8
CSLAYER1
  6
CONTINUOUS
 62
     7
 10
966.411210
 20
1468.498641
 40
1.000000
 50
180.000000
 51
270.000000
  0
LINE
  8
CSLAYER1
  6
CONTINUOUS
 62
     7
 10
967.261210
 20
1485.278367
 11
967.261210
 21
1427.528367
  0
LINE
  8
CSLAYER1
  6
CONTINUOUS
 62
     7
 10
1003.061210
 20
1485.278367
 11
1003.061210
 21
1427.528367
  0
LINE
  8
CSLAYER1
  6
CONTINUOUS
 62
     7
 10
1011.161210
 20
1601.361060
 11
966.661210
 21
1601.361060
  0
LINE
  8
CSLAYER1
  6
CONTINUOUS
 62
     5
 10
1012.644491
 20
1254.980635
 11
968.108579
 21
1254.980635
  0
LINE
  8
CSLAYER1
  6
CONTINUOUS
 62
     4
 10
971.636210
 20
1267.980635
 11
967.261210
 21
1267.980635
  0
LINE
  8
CSLAYER1
  6
CONTINUOUS
 62
     4
 10
965.411210
 20
1251.210635
 11
965.411210
 21
1258.760362
  0
LINE
  8
CSLAYER1
  6
CONTINUOUS
 62
     4
 10
967.261210
 20
1250.210635
 11
966.411210
 21
1250.210635
  0
LINE
  8
CSLAYER1
  6
CONTINUOUS
 62
     4
 10
967.261210
 20
1259.760362
 11
966.411210
 21
1259.760362
  0
ARC
  8
CSLAYER1
  6
CONTINUOUS
 62
     4
 10
966.411210
 20
1251.210635
 40
1.000000
 50
180.000000
 51
270.000000
  0
ARC
  8
CSLAYER1
  6
CONTINUOUS
 62
     4
 10
966.411210
 20
1258.760362
 40
1.000000
 50
90.000000
 51
180.000000
  0
LINE
  8
CSLAYER1
  6
CONTINUOUS
 62
     4
 10
998.686210
 20
1267.980635
 11
1003.061210
 21
1267.980635
  0
LINE
  8
CSLAYER1
  6
CONTINUOUS
 62
     4
 10
1004.911210
 20
1251.210635
 11
1004.911210
 21
1258.760362
  0
LINE
  8
CSLAYER1
  6
CONTINUOUS
 62
     4
 10
1003.061210
 20
1250.210635
 11
1003.911210
 21
1250.210635
  0
LINE
  8
CSLAYER1
  6
CONTINUOUS
 62
     4
 10
1003.061210
 20
1259.760362
 11
1003.911210
 21
1259.760362
  0
ARC
  8
CSLAYER1
  6
CONTINUOUS
 62
     4
 10
1003.911210
 20
1251.210635
 40
1.000000
 50
270.000000
 51
360.000000
  0
ARC
  8
CSLAYER1
  6
CONTINUOUS
 62
     4
 10
1003.911210
 20
1258.760362
 40
1.000000
 50
0.000000
 51
90.000000
  0
POINT
  8
CSLAYER1
 62
     4
 10
985.161210
 20
1254.980635
  0
POINT
  8
CSLAYER1
 62
     4
 10
985.161210
 20
1286.730635
  0
LINE
  8
CSLAYER1
  6
CONTINUOUS
 62
     4
 10
994.686210
 20
1301.780635
 11
998.686210
 21
1301.780635
  0
LINE
  8
CSLAYER1
  6
CONTINUOUS
 62
     4
 10
993.686210
 20
1277.205635
 11
976.636210
 21
1277.205635
  0
LINE
  8
CSLAYER1
  6
CONTINUOUS
 62
     4
 10
993.686210
 20
1296.255635
 11
976.636210
 21
1296.255635
  0
ARC
  8
CSLAYER1
  6
CONTINUOUS
 62
     4
 10
993.686210
 20
1278.205635
 40
1.000000
 50
270.000000
 51
360.000000
  0
ARC
  8
CSLAYER1
  6
CONTINUOUS
 62
     4
 10
993.686210
 20
1295.255635
 40
1.000000
 50
0.000000
 51
90.000000
  0
LINE
  8
CSLAYER1
  6
CONTINUOUS
 62
     4
 10
975.636210
 20
1301.780635
 11
971.636210
 21
1301.780635
  0
ARC
  8
CSLAYER1
  6
CONTINUOUS
 62
     4
 10
976.636210
 20
1278.205635
 40
1.000000
 50
180.000000
 51
270.000000
  0
ARC
  8
CSLAYER1
  6
CONTINUOUS
 62
     4
 10
976.636210
 20
1295.255635
 40
1.000000
 50
90.000000
 51
180.000000
  0
LINE
  8
CSLAYER1
  6
CONTINUOUS
 62
     4
 10
1004.911210
 20
1282.960635
 11
1004.911210
 21
1290.510362
  0
LINE
  8
CSLAYER1
  6
CONTINUOUS
 62
     4
 10
998.686210
 20
1273.730635
 11
1003.061210
 21
1273.730635
  0
LINE
  8
CSLAYER1
  6
CONTINUOUS
 62
     4
 10
1003.061210
 20
1281.960635
 11
1003.911210
 21
1281.960635
  0
LINE
  8
CSLAYER1
  6
CONTINUOUS
 62
     4
 10
1003.061210
 20
1291.510362
 11
1003.911210
 21
1291.510362
  0
ARC
  8
CSLAYER1
  6
CONTINUOUS
 62
     4
 10
1003.911210
 20
1282.960635
 40
1.000000
 50
270.000000
 51
360.000000
  0
ARC
  8
CSLAYER1
  6
CONTINUOUS
 62
     4
 10
1003.911210
 20
1290.510362
 40
1.000000
 50
0.000000
 51
90.000000
  0
LINE
  8
CSLAYER1
  6
CONTINUOUS
 62
     4
 10
965.411210
 20
1282.960635
 11
965.411210
 21
1290.510362
  0
LINE
  8
CSLAYER1
  6
CONTINUOUS
 62
     4
 10
971.636210
 20
1273.730635
 11
967.261210
 21
1273.730635
  0
LINE
  8
CSLAYER1
  6
CONTINUOUS
 62
     4
 10
967.261210
 20
1281.960635
 11
966.411210
 21
1281.960635
  0
LINE
  8
CSLAYER1
  6
CONTINUOUS
 62
     4
 10
967.261210
 20
1291.510362
 11
966.411210
 21
1291.510362
  0
ARC
  8
CSLAYER1
  6
CONTINUOUS
 62
     4
 10
966.411210
 20
1282.960635
 40
1.000000
 50
180.000000
 51
270.000000
  0
ARC
  8
CSLAYER1
  6
CONTINUOUS
 62
     4
 10
966.411210
 20
1290.510362
 40
1.000000
 50
90.000000
 51
180.000000
  0
LINE
  8
CSLAYER1
  6
CONTINUOUS
 62
     4
 10
993.686210
 20
1264.505635
 11
976.636210
 21
1264.505635
  0
LINE
  8
CSLAYER1
  6
CONTINUOUS
 62
     4
 10
993.686210
 20
1245.455635
 11
976.636210
 21
1245.455635
  0
ARC
  8
CSLAYER1
  6
CONTINUOUS
 62
     4
 10
993.686210
 20
1263.505635
 40
1.000000
 50
0.000000
 51
90.000000
  0
ARC
  8
CSLAYER1
  6
CONTINUOUS
 62
     4
 10
993.686210
 20
1246.455635
 40
1.000000
 50
270.000000
 51
360.000000
  0
ARC
  8
CSLAYER1
  6
CONTINUOUS
 62
     4
 10
976.636210
 20
1263.505635
 40
1.000000
 50
90.000000
 51
180.000000
  0
ARC
  8
CSLAYER1
  6
CONTINUOUS
 62
     4
 10
976.636210
 20
1246.455635
 40
1.000000
 50
180.000000
 51
270.000000
  0
LINE
  8
CSLAYER1
  6
CONTINUOUS
 62
     4
 10
1035.661210
 20
1635.861060
 11
1034.511210
 21
1635.861060
  0
LINE
  8
CSLAYER1
  6
CONTINUOUS
 62
     4
 10
1034.511210
 20
1635.311060
 11
1033.161210
 21
1635.311060
  0
LINE
  8
CSLAYER1
  6
CONTINUOUS
 62
     4
 10
1034.511210
 20
1638.411060
 11
1033.161210
 21
1638.411060
  0
LINE
  8
CSLAYER1
  6
CONTINUOUS
 62
     4
 10
1034.511210
 20
1638.411060
 11
1034.511210
 21
1608.311060
  0
LINE
  8
CSLAYER1
  6
CONTINUOUS
 62
     4
 10
1037.161210
 20
1634.361060
 11
1037.161210
 21
1612.361060
  0
LINE
  8
CSLAYER1
  6
CONTINUOUS
 62
     4
 10
1037.161210
 20
1634.361060
 11
1035.661210
 21
1635.861060
  0
LINE
  8
CSLAYER1
  6
CONTINUOUS
 62
     4
 10
1035.661210
 20
1635.861060
 11
1035.661210
 21
1610.861060
  0
LINE
  8
CSLAYER1
  6
CONTINUOUS
 62
     4
 10
1035.661210
 20
1610.861060
 11
1034.511210
 21
1610.861060
  0
LINE
  8
CSLAYER1
  6
CONTINUOUS
 62
     4
 10
1034.511210
 20
1611.411060
 11
1033.161210
 21
1611.411060
  0
LINE
  8
CSLAYER1
  6
CONTINUOUS
 62
     4
 10
1034.511210
 20
1608.311060
 11
1033.161210
 21
1608.311060
  0
LINE
  8
CSLAYER1
  6
CONTINUOUS
 62
     4
 10
1037.161210
 20
1612.361060
 11
1035.661210
 21
1610.861060
  0
LINE
  8
CSLAYER1
  6
CONTINUOUS
 62
     7
 10
1014.661210
 20
1653.611060
 11
705.661210
 21
1653.611060
  0
LINE
  8
CSLAYER1
  6
CONTINUOUS
 62
     7
 10
966.661210
 20
1651.611060
 11
964.661210
 21
1653.611060
  0
ARC
  8
CSLAYER1
  6
CONTINUOUS
 62
     7
 10
985.161210
 20
1636.888374
 40
25.630502
 50
43.797018
 51
136.202982
  0
ARC
  8
CSLAYER1
  6
CONTINUOUS
 62
     7
 10
985.161210
 20
1676.728694
 40
13.551139
 50
42.443318
 51
137.556682
  0
LINE
  8
CSLAYER1
  6
CONTINUOUS
 62
     7
 10
995.161210
 20
1685.873823
 11
995.161210
 21
1660.487582
  0
LINE
  8
CSLAYER1
  6
CONTINUOUS
 62
     7
 10
975.161210
 20
1685.873823
 11
975.161210
 21
1660.487582
  0
ARC
  8
CSLAYER1
  6
CONTINUOUS
 62
     7
 10
985.161210
 20
1627.622046
 40
25.630502
 50
43.797018
 51
136.202982
  0
LINE
  8
CSLAYER1
  6
CONTINUOUS
 62
     4
 10
1033.161210
 20
852.536465
 11
1076.161210
 21
852.536465
  0
LINE
  8
CSLAYER1
  6
CONTINUOUS
 62
     4
 10
1033.161210
 20
839.216824
 11
1076.161210
 21
839.216824
  0
LINE
  8
CSLAYER1
  6
CONTINUOUS
 62
     4
 10
1033.161210
 20
792.863497
 11
1076.161210
 21
792.863497
  0
LINE
  8
CSLAYER1
  6
CONTINUOUS
 62
     4
 10
945.161210
 20
852.536465
 11
1017.161210
 21
852.536465
  0
LINE
  8
CSLAYER1
  6
CONTINUOUS
 62
     4
 10
945.161210
 20
839.216824
 11
1017.161210
 21
839.216824
  0
LINE
  8
CSLAYER1
  6
CONTINUOUS
 62
     4
 10
918.117709
 20
792.863497
 11
1017.161210
 21
792.863497
  0
LINE
  8
CSLAYER1
  6
CONTINUOUS
 62
     7
 10
926.161210
 20
1086.421908
 11
1012.044009
 21
1062.047521
  0
LINE
  8
CSLAYER1
  6
CONTINUOUS
 62
     7
 10
926.161210
 20
1055.287665
 11
1012.044009
 21
1030.913277
  0
LINE
  8
CSLAYER1
  6
CONTINUOUS
 62
     7
 10
926.161210
 20
976.809781
 11
1012.044009
 21
1001.184169
  0
LINE
  8
CSLAYER1
  6
CONTINUOUS
 62
     4
 10
560.161210
 20
684.534064
 11
560.161210
 21
620.252279
  0
LINE
  8
CSLAYER1
  6
CONTINUOUS
 62
     4
 10
1160.161210
 20
685.252279
 11
560.161210
 21
685.252279
  0
LINE
  8
CSLAYER1
  6
CONTINUOUS
 62
     4
 10
628.161210
 20
685.252279
 11
628.161210
 21
1640.894245
  0
LINE
  8
CSLAYER1
  6
CONTINUOUS
 62
     4
 10
644.161210
 20
685.252279
 11
644.161210
 21
1640.894245
  0
LINE
  8
CSLAYER1
  6
CONTINUOUS
 62
     4
 10
687.161210
 20
685.252279
 11
687.161210
 21
1755.894245
  0
LINE
  8
CSLAYER1
  6
CONTINUOUS
 62
     4
 10
703.161210
 20
685.252279
 11
703.161210
 21
1755.894245
  0
LINE
  8
CSLAYER1
  6
CONTINUOUS
 62
     3
 10
608.461210
 20
1659.894245
 11
608.461210
 21
1669.394245
  0
LINE
  8
CSLAYER1
  6
CONTINUOUS
 62
     4
 10
611.661210
 20
1799.094245
 11
611.661210
 21
1640.894245
  0
LINE
  8
CSLAYER1
  6
CONTINUOUS
 62
     4
 10
652.661210
 20
1755.894245
 11
652.661210
 21
1640.894245
  0
LINE
  8
CSLAYER1
  6
CONTINUOUS
 62
     5
 10
605.453357
 20
1659.894245
 11
656.719624
 21
1659.894245
  0
LINE
  8
CSLAYER1
  6
CONTINUOUS
 62
     4
 10
652.661210
 20
1640.894245
 11
611.661210
 21
1640.894245
  0
LINE
  8
CSLAYER1
  6
CONTINUOUS
 62
     4
 10
608.461210
 20
1682.894245
 11
608.461210
 21
1651.894245
  0
LINE
  8
CSLAYER1
  6
CONTINUOUS
 62
     4
 10
608.461210
 20
1655.894245
 11
611.661210
 21
1655.894245
  0
LINE
  8
CSLAYER1
  6
CONTINUOUS
 62
     5
 10
603.970336
 20
1674.894245
 11
617.661210
 21
1674.894245
  0
LINE
  8
CSLAYER1
  6
CONTINUOUS
 62
     4
 10
608.461210
 20
1682.894245
 11
611.661210
 21
1682.894245
  0
LINE
  8
CSLAYER1
  6
CONTINUOUS
 62
     4
 10
653.661210
 20
1652.894245
 11
653.661210
 21
1666.894245
  0
LINE
  8
CSLAYER1
  6
CONTINUOUS
 62
     4
 10
653.661210
 20
1652.894245
 11
652.661210
 21
1651.894245
  0
LINE
  8
CSLAYER1
  6
CONTINUOUS
 62
     4
 10
608.461210
 20
1651.894245
 11
611.661210
 21
1651.894245
  0
LINE
  8
CSLAYER1
  6
CONTINUOUS
 62
     4
 10
653.661210
 20
1666.894245
 11
652.661210
 21
1667.894245
  0
LINE
  8
CSLAYER1
  6
CONTINUOUS
 62
     4
 10
608.461210
 20
1663.894245
 11
611.661210
 21
1663.894245
  0
LINE
  8
CSLAYER1
  6
CENTER
 62
     5
 10
735.161210
 20
1708.826144
 11
735.161210
 21
1016.048723
  0
LINE
  8
CSLAYER1
  6
CONTINUOUS
 62
     5
 10
735.161210
 20
1031.615845
 11
664.632632
 21
1031.615845
  0
LINE
  8
CSLAYER1
  6
CONTINUOUS
 62
     4
 10
685.161210
 20
1047.615845
 11
685.161210
 21
1015.615845
  0
LINE
  8
CSLAYER1
  6
CONTINUOUS
 62
     4
 10
675.161210
 20
1045.615845
 11
675.161210
 21
1017.615845
  0
LINE
  8
CSLAYER1
  6
CONTINUOUS
 62
     4
 10
677.161210
 20
1047.615845
 11
685.161210
 21
1047.615845
  0
LINE
  8
CSLAYER1
  6
CONTINUOUS
 62
     4
 10
675.161210
 20
1045.615845
 11
677.161210
 21
1047.615845
  0
LINE
  8
CSLAYER1
  6
CONTINUOUS
 62
     4
 10
677.161210
 20
1047.615845
 11
677.161210
 21
1015.615845
  0
LINE
  8
CSLAYER1
  6
CONTINUOUS
 62
     4
 10
677.161210
 20
1015.615845
 11
685.161210
 21
1015.615845
  0
LINE
  8
CSLAYER1
  6
CONTINUOUS
 62
     4
 10
675.161210
 20
1017.615845
 11
677.161210
 21
1015.615845
  0
LINE
  8
CSLAYER1
  6
CONTINUOUS
 62
     4
 10
685.161210
 20
1045.615845
 11
687.161210
 21
1045.615845
  0
LINE
  8
CSLAYER1
  6
CONTINUOUS
 62
     4
 10
685.161210
 20
1017.615845
 11
687.161210
 21
1017.615845
  0
LINE
  8
CSLAYER1
  6
CONTINUOUS
 62
     4
 10
687.161210
 20
1051.052158
 11
644.161210
 21
1051.052158
  0
LINE
  8
CSLAYER1
  6
CONTINUOUS
 62
     4
 10
783.838926
 20
979.739347
 11
703.161210
 21
979.739347
  0
LINE
  8
CSLAYER1
  6
CONTINUOUS
 62
     4
 10
687.161210
 20
979.739347
 11
644.161210
 21
979.739347
  0
LINE
  8
CSLAYER1
  6
CONTINUOUS
 62
     4
 10
612.161210
 20
1097.435746
 11
612.161210
 21
685.252279
  0
LINE
  8
CSLAYER1
  6
CONTINUOUS
 62
     4
 10
628.161210
 20
1097.435746
 11
612.161210
 21
1097.435746
  0
LINE
  8
CSLAYER1
  6
CONTINUOUS
 62
     4
 10
815.611210
 20
1109.139686
 11
703.161210
 21
1109.139686
  0
LINE
  8
CSLAYER1
  6
CONTINUOUS
 62
     4
 10
815.611210
 20
1086.708563
 11
703.161210
 21
1086.708563
  0
LINE
  8
CSLAYER1
  6
CONTINUOUS
 62
     4
 10
687.161210
 20
1086.708563
 11
644.161210
 21
1086.708563
  0
LINE
  8
CSLAYER1
  6
CONTINUOUS
 62
     4
 10
620.161210
 20
1799.094245
 11
620.161210
 21
1755.894245
  0
LINE
  8
CSLAYER1
  6
CONTINUOUS
 62
     7
 10
704.161210
 20
1057.126071
 11
704.161210
 21
1006.105618
  0
LINE
  8
CSLAYER1
  6
CONTINUOUS
 62
     5
 10
735.161210
 20
1031.615845
 11
735.161210
 21
996.361985
  0
LINE
  8
CSLAYER1
  6
CONTINUOUS
 62
     5
 10
751.994934
 20
1016.048723
 11
721.351193
 21
1016.048723
  0
ARC
  8
CSLAYER1
  6
CONTINUOUS
 62
     7
 10
709.161210
 20
1057.126071
 40
5.000000
 50
100.169452
 51
180.000000
  0
ARC
  8
CSLAYER1
  6
CONTINUOUS
 62
     7
 10
709.161210
 20
1025.991828
 40
5.000000
 50
100.169452
 51
180.000000
  0
ARC
  8
CSLAYER1
  6
CONTINUOUS
 62
     7
 10
709.161210
 20
1006.105618
 40
5.000000
 50
180.000000
 51
259.830548
  0
POINT
  8
CSLAYER1
 62
     5
 10
703.161210
 20
1031.615845
  0
LINE
  8
CSLAYER1
  6
CONTINUOUS
 62
     7
 10
815.611210
 20
1395.108134
 11
815.611210
 21
1086.421908
  0
LINE
  8
CSLAYER1
  6
CONTINUOUS
 62
     4
 10
743.161210
 20
1139.573284
 11
746.187750
 21
1139.573284
  0
LINE
  8
CSLAYER1
  6
CONTINUOUS
 62
     4
 10
749.161210
 20
1140.573284
 11
749.161210
 21
1166.573284
  0
LINE
  8
CSLAYER1
  6
CONTINUOUS
 62
     4
 10
749.161210
 20
1140.573284
 11
748.161210
 21
1139.573284
  0
LINE
  8
CSLAYER1
  6
CONTINUOUS
 62
     4
 10
748.161210
 20
1139.573284
 11
748.161210
 21
1167.573284
  0
LINE
  8
CSLAYER1
  6
CONTINUOUS
 62
     4
 10
726.161210
 20
1172.573284
 11
726.161210
 21
1134.573284
  0
LINE
  8
CSLAYER1
  6
CONTINUOUS
 62
     4
 10
748.161210
 20
1139.573284
 11
743.094951
 21
1134.588603
  0
LINE
  8
CSLAYER1
  6
CONTINUOUS
 62
     4
 10
743.161210
 20
1134.653794
 11
748.080699
 21
1139.573284
  0
LINE
  8
CSLAYER1
  6
CONTINUOUS
 62
     4
 10
743.161210
 20
1134.936637
 11
747.797857
 21
1139.573284
  0
LINE
  8
CSLAYER1
  6
CONTINUOUS
 62
     4
 10
743.161210
 20
1135.219480
 11
747.515014
 21
1139.573284
  0
LINE
  8
CSLAYER1
  6
CONTINUOUS
 62
     4
 10
743.161210
 20
1135.502322
 11
747.232171
 21
1139.573284
  0
LINE
  8
CSLAYER1
  6
CONTINUOUS
 62
     4
 10
743.161210
 20
1135.785165
 11
746.949329
 21
1139.573284
  0
LINE
  8
CSLAYER1
  6
CONTINUOUS
 62
     4
 10
743.161210
 20
1136.068008
 11
746.666486
 21
1139.573284
  0
LINE
  8
CSLAYER1
  6
CONTINUOUS
 62
     4
 10
743.161210
 20
1136.350850
 11
746.383643
 21
1139.573284
  0
LINE
  8
CSLAYER1
  6
CONTINUOUS
 62
     4
 10
743.161210
 20
1136.633693
 11
746.100800
 21
1139.573284
  0
LINE
  8
CSLAYER1
  6
CONTINUOUS
 62
     4
 10
743.161210
 20
1136.916536
 11
745.817958
 21
1139.573284
  0
LINE
  8
CSLAYER1
  6
CONTINUOUS
 62
     4
 10
743.161210
 20
1137.199379
 11
745.535115
 21
1139.573284
  0
LINE
  8
CSLAYER1
  6
CONTINUOUS
 62
     4
 10
743.161210
 20
1137.482221
 11
745.252272
 21
1139.573284
  0
LINE
  8
CSLAYER1
  6
CONTINUOUS
 62
     4
 10
743.161210
 20
1137.765064
 11
744.969430
 21
1139.573284
  0
LINE
  8
CSLAYER1
  6
CONTINUOUS
 62
     4
 10
743.161210
 20
1138.047907
 11
744.686587
 21
1139.573284
  0
LINE
  8
CSLAYER1
  6
CONTINUOUS
 62
     4
 10
743.161210
 20
1138.330749
 11
744.403744
 21
1139.573284
  0
LINE
  8
CSLAYER1
  6
CONTINUOUS
 62
     4
 10
743.161210
 20
1138.613592
 11
744.120901
 21
1139.573284
  0
LINE
  8
CSLAYER1
  6
CONTINUOUS
 62
     4
 10
743.161210
 20
1138.896435
 11
743.838059
 21
1139.573284
  0
LINE
  8
CSLAYER1
  6
CONTINUOUS
 62
     4
 10
743.161210
 20
1139.179278
 11
743.555216
 21
1139.573284
  0
LINE
  8
CSLAYER1
  6
CONTINUOUS
 62
     4
 10
743.161210
 20
1139.462120
 11
743.272373
 21
1139.573284
  0
LINE
  8
CSLAYER1
  6
CONTINUOUS
 62
     4
 10
743.161210
 20
1167.573284
 11
746.187750
 21
1167.573284
  0
LINE
  8
CSLAYER1
  6
CONTINUOUS
 62
     4
 10
749.161210
 20
1166.573284
 11
748.161210
 21
1167.573284
  0
LINE
  8
CSLAYER1
  6
CONTINUOUS
 62
     4
 10
726.161210
 20
1172.573284
 11
725.161210
 21
1173.573284
  0
LINE
  8
CSLAYER1
  6
CONTINUOUS
 62
     4
 10
748.161210
 20
1167.573284
 11
743.094951
 21
1172.557965
  0
LINE
  8
CSLAYER1
  6
CONTINUOUS
 62
     4
 10
743.161210
 20
1172.492774
 11
748.080699
 21
1167.573284
  0
LINE
  8
CSLAYER1
  6
CONTINUOUS
 62
     4
 10
743.161210
 20
1172.209931
 11
747.797857
 21
1167.573284
  0
LINE
  8
CSLAYER1
  6
CONTINUOUS
 62
     4
 10
743.161210
 20
1171.927088
 11
747.515014
 21
1167.573284
  0
LINE
  8
CSLAYER1
  6
CONTINUOUS
 62
     4
 10
743.161210
 20
1171.644246
 11
747.232171
 21
1167.573284
  0
LINE
  8
CSLAYER1
  6
CONTINUOUS
 62
     4
 10
743.161210
 20
1171.361403
 11
746.949329
 21
1167.573284
  0
LINE
  8
CSLAYER1
  6
CONTINUOUS
 62
     4
 10
743.161210
 20
1171.078560
 11
746.666486
 21
1167.573284
  0
LINE
  8
CSLAYER1
  6
CONTINUOUS
 62
     4
 10
743.161210
 20
1170.795717
 11
746.383643
 21
1167.573284
  0
LINE
  8
CSLAYER1
  6
CONTINUOUS
 62
     4
 10
743.161210
 20
1170.512875
 11
746.100800
 21
1167.573284
  0
LINE
  8
CSLAYER1
  6
CONTINUOUS
 62
     4
 10
743.161210
 20
1170.230032
 11
745.817958
 21
1167.573284
  0
LINE
  8
CSLAYER1
  6
CONTINUOUS
 62
     4
 10
743.161210
 20
1169.947189
 11
745.535115
 21
1167.573284
  0
LINE
  8
CSLAYER1
  6
CONTINUOUS
 62
     4
 10
743.161210
 20
1169.664347
 11
745.252272
 21
1167.573284
  0
LINE
  8
CSLAYER1
  6
CONTINUOUS
 62
     4
 10
743.161210
 20
1169.381504
 11
744.969430
 21
1167.573284
  0
LINE
  8
CSLAYER1
  6
CONTINUOUS
 62
     4
 10
743.161210
 20
1169.098661
 11
744.686587
 21
1167.573284
  0
LINE
  8
CSLAYER1
  6
CONTINUOUS
 62
     4
 10
743.161210
 20
1168.815818
 11
744.403744
 21
1167.573284
  0
LINE
  8
CSLAYER1
  6
CONTINUOUS
 62
     4
 10
743.161210
 20
1168.532976
 11
744.120901
 21
1167.573284
  0
LINE
  8
CSLAYER1
  6
CONTINUOUS
 62
     4
 10
743.161210
 20
1168.250133
 11
743.838059
 21
1167.573284
  0
LINE
  8
CSLAYER1
  6
CONTINUOUS
 62
     4
 10
743.161210
 20
1167.967290
 11
743.555216
 21
1167.573284
  0
LINE
  8
CSLAYER1
  6
CONTINUOUS
 62
     4
 10
743.161210
 20
1167.684448
 11
743.272373
 21
1167.573284
  0
LINE
  8
CSLAYER1
  6
CONTINUOUS
 62
     4
 10
646.187750
 20
1132.223284
 11
687.161210
 21
1132.223284
  0
LINE
  8
CSLAYER1
  6
CONTINUOUS
 62
     4
 10
645.187750
 20
1173.923284
 11
645.187750
 21
1133.223284
  0
LINE
  8
CSLAYER1
  6
CONTINUOUS
 62
     4
 10
645.187750
 20
1133.223284
 11
646.187750
 21
1132.223284
  0
LINE
  8
CSLAYER1
  6
CONTINUOUS
 62
     4
 10
605.187750
 20
1163.573284
 11
605.187750
 21
1143.573284
  0
LINE
  8
CSLAYER1
  6
CONTINUOUS
 62
     4
 10
624.187750
 20
1172.073284
 11
624.187750
 21
1135.073284
  0
LINE
  8
CSLAYER1
  6
CONTINUOUS
 62
     4
 10
619.087750
 20
1170.573284
 11
619.087750
 21
1136.573284
  0
LINE
  8
CSLAYER1
  6
CONTINUOUS
 62
     4
 10
607.087750
 20
1170.573284
 11
607.087750
 21
1136.573284
  0
LINE
  8
CSLAYER1
  6
CONTINUOUS
 62
     4
 10
624.187750
 20
1170.573284
 11
607.087750
 21
1170.573284
  0
LINE
  8
CSLAYER1
  6
CONTINUOUS
 62
     4
 10
619.087750
 20
1163.573284
 11
605.187750
 21
1163.573284
  0
LINE
  8
CSLAYER1
  6
CONTINUOUS
 62
     4
 10
624.187750
 20
1136.573284
 11
607.087750
 21
1136.573284
  0
LINE
  8
CSLAYER1
  6
CONTINUOUS
 62
     4
 10
619.087750
 20
1143.573284
 11
605.187750
 21
1143.573284
  0
LINE
  8
CSLAYER1
  6
CONTINUOUS
 62
     4
 10
627.187750
 20
1172.073284
 11
624.187750
 21
1172.073284
  0
LINE
  8
CSLAYER1
  6
CONTINUOUS
 62
     4
 10
627.187750
 20
1135.073284
 11
624.187750
 21
1135.073284
  0
LINE
  8
CSLAYER1
  6
CONTINUOUS
 62
     4
 10
627.187750
 20
1135.073284
 11
627.187750
 21
1172.073284
  0
LINE
  8
CSLAYER1
  6
CENTER
 62
     5
 10
589.602231
 20
1153.573284
 11
764.519731
 21
1153.573284
  0
LINE
  8
CSLAYER1
  6
CONTINUOUS
 62
     4
 10
627.187750
 20
1141.073284
 11
628.161210
 21
1141.073284
  0
LINE
  8
CSLAYER1
  6
CONTINUOUS
 62
     4
 10
646.187750
 20
1174.923284
 11
687.161210
 21
1174.923284
  0
LINE
  8
CSLAYER1
  6
CONTINUOUS
 62
     4
 10
645.187750
 20
1173.923284
 11
646.187750
 21
1174.923284
  0
LINE
  8
CSLAYER1
  6
CONTINUOUS
 62
     4
 10
627.187750
 20
1166.073284
 11
628.161210
 21
1166.073284
  0
LINE
  8
CSLAYER1
  6
CONTINUOUS
 62
     4
 10
628.187750
 20
1127.466360
 11
628.187750
 21
1141.073284
  0
LINE
  8
CSLAYER1
  6
CONTINUOUS
 62
     4
 10
682.161210
 20
1132.223284
 11
687.161210
 21
1127.223284
  0
LINE
  8
CSLAYER1
  6
CONTINUOUS
 62
     4
 10
687.161210
 20
1127.506127
 11
682.444052
 21
1132.223284
  0
LINE
  8
CSLAYER1
  6
CONTINUOUS
 62
     4
 10
687.161210
 20
1127.788969
 11
682.726895
 21
1132.223284
  0
LINE
  8
CSLAYER1
  6
CONTINUOUS
 62
     4
 10
687.161210
 20
1128.071812
 11
683.009738
 21
1132.223284
  0
LINE
  8
CSLAYER1
  6
CONTINUOUS
 62
     4
 10
687.161210
 20
1128.354655
 11
683.292580
 21
1132.223284
  0
LINE
  8
CSLAYER1
  6
CONTINUOUS
 62
     4
 10
687.161210
 20
1128.637498
 11
683.575423
 21
1132.223284
  0
LINE
  8
CSLAYER1
  6
CONTINUOUS
 62
     4
 10
687.161210
 20
1128.920340
 11
683.858266
 21
1132.223284
  0
LINE
  8
CSLAYER1
  6
CONTINUOUS
 62
     4
 10
687.161210
 20
1129.203183
 11
684.141109
 21
1132.223284
  0
LINE
  8
CSLAYER1
  6
CONTINUOUS
 62
     4
 10
687.161210
 20
1129.486026
 11
684.423951
 21
1132.223284
  0
LINE
  8
CSLAYER1
  6
CONTINUOUS
 62
     4
 10
687.161210
 20
1129.768868
 11
684.706794
 21
1132.223284
  0
LINE
  8
CSLAYER1
  6
CONTINUOUS
 62
     4
 10
687.161210
 20
1130.051711
 11
684.989637
 21
1132.223284
  0
LINE
  8
CSLAYER1
  6
CONTINUOUS
 62
     4
 10
687.161210
 20
1130.334554
 11
685.272479
 21
1132.223284
  0
LINE
  8
CSLAYER1
  6
CONTINUOUS
 62
     4
 10
687.161210
 20
1130.617396
 11
685.555322
 21
1132.223284
  0
LINE
  8
CSLAYER1
  6
CONTINUOUS
 62
     4
 10
687.161210
 20
1130.900239
 11
685.838165
 21
1132.223284
  0
LINE
  8
CSLAYER1
  6
CONTINUOUS
 62
     4
 10
687.161210
 20
1131.183082
 11
686.121008
 21
1132.223284
  0
LINE
  8
CSLAYER1
  6
CONTINUOUS
 62
     4
 10
687.161210
 20
1131.465925
 11
686.403850
 21
1132.223284
  0
LINE
  8
CSLAYER1
  6
CONTINUOUS
 62
     4
 10
687.161210
 20
1131.748767
 11
686.686693
 21
1132.223284
  0
LINE
  8
CSLAYER1
  6
CONTINUOUS
 62
     4
 10
687.161210
 20
1132.031610
 11
686.969536
 21
1132.223284
  0
LINE
  8
CSLAYER1
  6
CONTINUOUS
 62
     4
 10
703.161210
 20
1178.290441
 11
707.878367
 21
1173.573284
  0
LINE
  8
CSLAYER1
  6
CONTINUOUS
 62
     4
 10
703.161210
 20
1178.007599
 11
707.595524
 21
1173.573284
  0
LINE
  8
CSLAYER1
  6
CONTINUOUS
 62
     4
 10
703.161210
 20
1177.724756
 11
707.312681
 21
1173.573284
  0
LINE
  8
CSLAYER1
  6
CONTINUOUS
 62
     4
 10
703.161210
 20
1177.441913
 11
707.029839
 21
1173.573284
  0
LINE
  8
CSLAYER1
  6
CONTINUOUS
 62
     4
 10
703.161210
 20
1177.159070
 11
706.746996
 21
1173.573284
  0
LINE
  8
CSLAYER1
  6
CONTINUOUS
 62
     4
 10
703.161210
 20
1176.876228
 11
706.464153
 21
1173.573284
  0
LINE
  8
CSLAYER1
  6
CONTINUOUS
 62
     4
 10
703.161210
 20
1176.593385
 11
706.181311
 21
1173.573284
  0
LINE
  8
CSLAYER1
  6
CONTINUOUS
 62
     4
 10
703.161210
 20
1176.310542
 11
705.898468
 21
1173.573284
  0
LINE
  8
CSLAYER1
  6
CONTINUOUS
 62
     4
 10
703.161210
 20
1176.027700
 11
705.615625
 21
1173.573284
  0
LINE
  8
CSLAYER1
  6
CONTINUOUS
 62
     4
 10
703.161210
 20
1175.744857
 11
705.332782
 21
1173.573284
  0
LINE
  8
CSLAYER1
  6
CONTINUOUS
 62
     4
 10
703.161210
 20
1175.462014
 11
705.049940
 21
1173.573284
  0
LINE
  8
CSLAYER1
  6
CONTINUOUS
 62
     4
 10
703.161210
 20
1175.179171
 11
704.767097
 21
1173.573284
  0
LINE
  8
CSLAYER1
  6
CONTINUOUS
 62
     4
 10
703.161210
 20
1174.896329
 11
704.484254
 21
1173.573284
  0
LINE
  8
CSLAYER1
  6
CONTINUOUS
 62
     4
 10
703.161210
 20
1174.613486
 11
704.201412
 21
1173.573284
  0
LINE
  8
CSLAYER1
  6
CONTINUOUS
 62
     4
 10
703.161210
 20
1174.330643
 11
703.918569
 21
1173.573284
  0
LINE
  8
CSLAYER1
  6
CONTINUOUS
 62
     4
 10
703.161210
 20
1174.047801
 11
703.635726
 21
1173.573284
  0
LINE
  8
CSLAYER1
  6
CONTINUOUS
 62
     4
 10
703.161210
 20
1173.764958
 11
703.352883
 21
1173.573284
  0
LINE
  8
CSLAYER1
  6
CONTINUOUS
 62
     4
 10
682.161210
 20
1174.923284
 11
687.161210
 21
1179.923284
  0
LINE
  8
CSLAYER1
  6
CONTINUOUS
 62
     4
 10
687.161210
 20
1179.640441
 11
682.444052
 21
1174.923284
  0
LINE
  8
CSLAYER1
  6
CONTINUOUS
 62
     4
 10
687.161210
 20
1179.357599
 11
682.726895
 21
1174.923284
  0
LINE
  8
CSLAYER1
  6
CONTINUOUS
 62
     4
 10
687.161210
 20
1179.074756
 11
683.009738
 21
1174.923284
  0
LINE
  8
CSLAYER1
  6
CONTINUOUS
 62
     4
 10
687.161210
 20
1178.791913
 11
683.292580
 21
1174.923284
  0
LINE
  8
CSLAYER1
  6
CONTINUOUS
 62
     4
 10
687.161210
 20
1178.509070
 11
683.575423
 21
1174.923284
  0
LINE
  8
CSLAYER1
  6
CONTINUOUS
 62
     4
 10
687.161210
 20
1178.226228
 11
683.858266
 21
1174.923284
  0
LINE
  8
CSLAYER1
  6
CONTINUOUS
 62
     4
 10
687.161210
 20
1177.943385
 11
684.141109
 21
1174.923284
  0
LINE
  8
CSLAYER1
  6
CONTINUOUS
 62
     4
 10
687.161210
 20
1177.660542
 11
684.423951
 21
1174.923284
  0
LINE
  8
CSLAYER1
  6
CONTINUOUS
 62
     4
 10
687.161210
 20
1177.377700
 11
684.706794
 21
1174.923284
  0
LINE
  8
CSLAYER1
  6
CONTINUOUS
 62
     4
 10
687.161210
 20
1177.094857
 11
684.989637
 21
1174.923284
  0
LINE
  8
CSLAYER1
  6
CONTINUOUS
 62
     4
 10
687.161210
 20
1176.812014
 11
685.272479
 21
1174.923284
  0
LINE
  8
CSLAYER1
  6
CONTINUOUS
 62
     4
 10
687.161210
 20
1176.529171
 11
685.555322
 21
1174.923284
  0
LINE
  8
CSLAYER1
  6
CONTINUOUS
 62
     4
 10
687.161210
 20
1176.246329
 11
685.838165
 21
1174.923284
  0
LINE
  8
CSLAYER1
  6
CONTINUOUS
 62
     4
 10
687.161210
 20
1175.963486
 11
686.121008
 21
1174.923284
  0
LINE
  8
CSLAYER1
  6
CONTINUOUS
 62
     4
 10
687.161210
 20
1175.680643
 11
686.403850
 21
1174.923284
  0
LINE
  8
CSLAYER1
  6
CONTINUOUS
 62
     4
 10
687.161210
 20
1175.397801
 11
686.686693
 21
1174.923284
  0
LINE
  8
CSLAYER1
  6
CONTINUOUS
 62
     4
 10
687.161210
 20
1175.114958
 11
686.969536
 21
1174.923284
  0
LINE
  8
CSLAYER1
  6
CONTINUOUS
 62
     4
 10
704.201412
 20
1173.573284
 11
703.161210
 21
1173.573284
  0
LINE
  8
CSLAYER1
  6
CONTINUOUS
 62
     4
 10
743.161210
 20
1129.573284
 11
727.161210
 21
1129.573284
  0
LINE
  8
CSLAYER1
  6
CONTINUOUS
 62
     4
 10
705.352883
 20
1173.573284
 11
725.161210
 21
1173.573284
  0
LINE
  8
CSLAYER1
  6
CONTINUOUS
 62
     4
 10
726.161210
 20
1168.573284
 11
727.161210
 21
1168.573284
  0
LINE
  8
CSLAYER1
  6
CONTINUOUS
 62
     4
 10
726.161210
 20
1138.573284
 11
727.161210
 21
1138.573284
  0
LINE
  8
CSLAYER1
  6
CONTINUOUS
 62
     4
 10
644.161210
 20
1168.573284
 11
645.187750
 21
1168.573284
  0
LINE
  8
CSLAYER1
  6
CONTINUOUS
 62
     4
 10
644.161210
 20
1138.573284
 11
645.187750
 21
1138.573284
  0
LINE
  8
CSLAYER1
  6
CONTINUOUS
 62
     4
 10
726.161210
 20
1134.573284
 11
725.161210
 21
1133.573284
  0
LINE
  8
CSLAYER1
  6
CONTINUOUS
 62
     4
 10
703.161210
 20
1128.856127
 11
707.878367
 21
1133.573284
  0
LINE
  8
CSLAYER1
  6
CONTINUOUS
 62
     4
 10
703.161210
 20
1129.138969
 11
707.595524
 21
1133.573284
  0
LINE
  8
CSLAYER1
  6
CONTINUOUS
 62
     4
 10
703.161210
 20
1129.421812
 11
707.312681
 21
1133.573284
  0
LINE
  8
CSLAYER1
  6
CONTINUOUS
 62
     4
 10
703.161210
 20
1129.704655
 11
707.029839
 21
1133.573284
  0
LINE
  8
CSLAYER1
  6
CONTINUOUS
 62
     4
 10
703.161210
 20
1129.987498
 11
706.746996
 21
1133.573284
  0
LINE
  8
CSLAYER1
  6
CONTINUOUS
 62
     4
 10
703.161210
 20
1130.270340
 11
706.464153
 21
1133.573284
  0
LINE
  8
CSLAYER1
  6
CONTINUOUS
 62
     4
 10
703.161210
 20
1130.553183
 11
706.181311
 21
1133.573284
  0
LINE
  8
CSLAYER1
  6
CONTINUOUS
 62
     4
 10
703.161210
 20
1130.836026
 11
705.898468
 21
1133.573284
  0
LINE
  8
CSLAYER1
  6
CONTINUOUS
 62
     4
 10
703.161210
 20
1131.118868
 11
705.615625
 21
1133.573284
  0
LINE
  8
CSLAYER1
  6
CONTINUOUS
 62
     4
 10
703.161210
 20
1131.401711
 11
705.332782
 21
1133.573284
  0
LINE
  8
CSLAYER1
  6
CONTINUOUS
 62
     4
 10
703.161210
 20
1131.684554
 11
705.049940
 21
1133.573284
  0
LINE
  8
CSLAYER1
  6
CONTINUOUS
 62
     4
 10
703.161210
 20
1131.967396
 11
704.767097
 21
1133.573284
  0
LINE
  8
CSLAYER1
  6
CONTINUOUS
 62
     4
 10
703.161210
 20
1132.250239
 11
704.484254
 21
1133.573284
  0
LINE
  8
CSLAYER1
  6
CONTINUOUS
 62
     4
 10
703.161210
 20
1132.533082
 11
704.201412
 21
1133.573284
  0
LINE
  8
CSLAYER1
  6
CONTINUOUS
 62
     4
 10
703.161210
 20
1132.815925
 11
703.918569
 21
1133.573284
  0
LINE
  8
CSLAYER1
  6
CONTINUOUS
 62
     4
 10
703.161210
 20
1133.098767
 11
703.635726
 21
1133.573284
  0
LINE
  8
CSLAYER1
  6
CONTINUOUS
 62
     4
 10
703.161210
 20
1133.381610
 11
703.352883
 21
1133.573284
  0
LINE
  8
CSLAYER1
  6
CONTINUOUS
 62
     4
 10
704.201412
 20
1133.573284
 11
703.161210
 21
1133.573284
  0
LINE
  8
CSLAYER1
  6
CONTINUOUS
 62
     4
 10
705.352883
 20
1133.573284
 11
725.161210
 21
1133.573284
  0
POINT
  8
CSLAYER1
 62
     4
 10
735.161210
 20
1223.230635
  0
LINE
  8
CSLAYER1
  6
CONTINUOUS
 62
     4
 10
721.636210
 20
1210.230635
 11
721.636210
 21
1305.480635
  0
LINE
  8
CSLAYER1
  6
CONTINUOUS
 62
     4
 10
717.261210
 20
1210.230635
 11
717.261210
 21
1267.980635
  0
LINE
  8
CSLAYER1
  6
CONTINUOUS
 62
     4
 10
715.411210
 20
1219.460635
 11
715.411210
 21
1227.010362
  0
LINE
  8
CSLAYER1
  6
CONTINUOUS
 62
     4
 10
721.636210
 20
1210.230635
 11
717.261210
 21
1210.230635
  0
LINE
  8
CSLAYER1
  6
CONTINUOUS
 62
     4
 10
717.261210
 20
1228.010362
 11
716.411210
 21
1228.010362
  0
ARC
  8
CSLAYER1
  6
CONTINUOUS
 62
     4
 10
716.411210
 20
1219.460635
 40
1.000000
 50
180.000000
 51
270.000000
  0
ARC
  8
CSLAYER1
  6
CONTINUOUS
 62
     4
 10
716.411210
 20
1227.010362
 40
1.000000
 50
90.000000
 51
180.000000
  0
LINE
  8
CSLAYER1
  6
CONTINUOUS
 62
     4
 10
748.686210
 20
1210.230635
 11
748.686210
 21
1305.480635
  0
LINE
  8
CSLAYER1
  6
CONTINUOUS
 62
     4
 10
753.061210
 20
1210.230635
 11
753.061210
 21
1267.980635
  0
LINE
  8
CSLAYER1
  6
CONTINUOUS
 62
     4
 10
754.911210
 20
1219.460635
 11
754.911210
 21
1227.010362
  0
LINE
  8
CSLAYER1
  6
CONTINUOUS
 62
     4
 10
748.686210
 20
1210.230635
 11
753.061210
 21
1210.230635
  0
LINE
  8
CSLAYER1
  6
CONTINUOUS
 62
     4
 10
753.061210
 20
1218.460635
 11
753.911210
 21
1218.460635
  0
LINE
  8
CSLAYER1
  6
CONTINUOUS
 62
     4
 10
753.061210
 20
1228.010362
 11
753.911210
 21
1228.010362
  0
ARC
  8
CSLAYER1
  6
CONTINUOUS
 62
     4
 10
753.911210
 20
1219.460635
 40
1.000000
 50
270.000000
 51
360.000000
  0
ARC
  8
CSLAYER1
  6
CONTINUOUS
 62
     4
 10
753.911210
 20
1227.010362
 40
1.000000
 50
0.000000
 51
90.000000
  0
LINE
  8
CSLAYER1
  6
CONTINUOUS
 62
     4
 10
747.686210
 20
1213.230635
 11
743.161210
 21
1213.230635
  0
LINE
  8
CSLAYER1
  6
CONTINUOUS
 62
     4
 10
748.686210
 20
1214.230635
 11
747.686210
 21
1213.230635
  0
LINE
  8
CSLAYER1
  6
CONTINUOUS
 62
     4
 10
722.636210
 20
1213.230635
 11
721.636210
 21
1214.230635
  0
LINE
  8
CSLAYER1
  6
CONTINUOUS
 62
     4
 10
747.686210
 20
1233.230635
 11
743.161210
 21
1233.230635
  0
LINE
  8
CSLAYER1
  6
CONTINUOUS
 62
     4
 10
748.686210
 20
1232.230635
 11
747.686210
 21
1233.230635
  0
LINE
  8
CSLAYER1
  6
CONTINUOUS
 62
     4
 10
722.636210
 20
1233.230635
 11
721.636210
 21
1232.230635
  0
LINE
  8
CSLAYER1
  6
CONTINUOUS
 62
     4
 10
717.261210
 20
1218.460635
 11
716.411210
 21
1218.460635
  0
LINE
  8
CSLAYER1
  6
CONTINUOUS
 62
     5
 10
708.523547
 20
1223.230635
 11
753.059458
 21
1223.230635
  0
LINE
  8
CSLAYER1
  6
CONTINUOUS
 62
     4
 10
725.636210
 20
1239.930635
 11
725.636210
 21
1301.780635
  0
LINE
  8
CSLAYER1
  6
CONTINUOUS
 62
     4
 10
725.636210
 20
1239.930635
 11
721.636210
 21
1239.930635
  0
LINE
  8
CSLAYER1
  6
CONTINUOUS
 62
     4
 10
744.686210
 20
1239.930635
 11
744.686210
 21
1301.780635
  0
LINE
  8
CSLAYER1
  6
CONTINUOUS
 62
     4
 10
744.686210
 20
1239.930635
 11
748.686210
 21
1239.930635
  0
LINE
  8
CSLAYER1
  6
CONTINUOUS
 62
     4
 10
727.161210
 20
1240.230635
 11
743.161210
 21
1240.230635
  0
LINE
  8
CSLAYER1
  6
CONTINUOUS
 62
     4
 10
727.161210
 20
1233.230635
 11
722.636210
 21
1233.230635
  0
LINE
  8
CSLAYER1
  6
CONTINUOUS
 62
     4
 10
727.161210
 20
1213.230635
 11
722.636210
 21
1213.230635
  0
LINE
  8
CSLAYER1
  6
CONTINUOUS
 62
     4
 10
727.161210
 20
1245.455635
 11
727.161210
 21
1109.139686
  0
LINE
  8
CSLAYER1
  6
CONTINUOUS
 62
     4
 10
743.161210
 20
1245.455635
 11
743.161210
 21
1109.139686
  0
LINE
  8
CSLAYER1
  6
CONTINUOUS
 62
     4
 10
644.161210
 20
1109.139686
 11
687.161210
 21
1109.139686
  0
LINE
  8
CSLAYER1
  6
CONTINUOUS
 62
     4
 10
717.261210
 20
1273.730635
 11
717.261210
 21
1462.753367
  0
LINE
  8
CSLAYER1
  6
CONTINUOUS
 62
     4
 10
753.061210
 20
1273.730635
 11
753.061210
 21
1457.228367
  0
LINE
  8
CSLAYER1
  6
CONTINUOUS
 62
     7
 10
830.161210
 20
1599.815788
 11
830.161210
 21
1416.250262
  0
LINE
  8
CSLAYER1
  6
CONTINUOUS
 62
     7
 10
815.611210
 20
1395.108134
 11
815.780736
 21
1397.551652
  0
LINE
  8
CSLAYER1
  6
CONTINUOUS
 62
     7
 10
815.780736
 20
1397.551652
 11
816.288024
 21
1399.976573
  0
LINE
  8
CSLAYER1
  6
CONTINUOUS
 62
     7
 10
816.288024
 20
1399.976573
 11
817.129214
 21
1402.364443
  0
LINE
  8
CSLAYER1
  6
CONTINUOUS
 62
     7
 10
817.129214
 20
1402.364443
 11
818.297903
 21
1404.697087
  0
LINE
  8
CSLAYER1
  6
CONTINUOUS
 62
     7
 10
818.297903
 20
1404.697087
 11
819.785198
 21
1406.956754
  0
LINE
  8
CSLAYER1
  6
CONTINUOUS
 62
     7
 10
819.785198
 20
1406.956754
 11
821.579778
 21
1409.126246
  0
LINE
  8
CSLAYER1
  6
CONTINUOUS
 62
     7
 10
821.579778
 20
1409.126246
 11
823.667986
 21
1411.189051
  0
LINE
  8
CSLAYER1
  6
CONTINUOUS
 62
     7
 10
823.667986
 20
1411.189051
 11
826.033930
 21
1413.129471
  0
LINE
  8
CSLAYER1
  6
CONTINUOUS
 62
     7
 10
826.033930
 20
1413.129471
 11
828.659603
 21
1414.932738
  0
LINE
  8
CSLAYER1
  6
CONTINUOUS
 62
     7
 10
828.659603
 20
1414.932738
 11
831.525022
 21
1416.585127
  0
LINE
  8
CSLAYER1
  6
CONTINUOUS
 62
     7
 10
831.525022
 20
1416.585127
 11
834.608379
 21
1418.074064
  0
LINE
  8
CSLAYER1
  6
CONTINUOUS
 62
     7
 10
834.608379
 20
1418.074064
 11
837.886210
 21
1419.388216
  0
LINE
  8
CSLAYER1
  6
CONTINUOUS
 62
     7
 10
837.886210
 20
1419.388216
 11
841.333566
 21
1420.517582
  0
LINE
  8
CSLAYER1
  6
CONTINUOUS
 62
     7
 10
841.333566
 20
1420.517582
 11
844.924212
 21
1421.453567
  0
LINE
  8
CSLAYER1
  6
CONTINUOUS
 62
     7
 10
844.924212
 20
1421.453567
 11
848.630821
 21
1422.189047
  0
LINE
  8
CSLAYER1
  6
CONTINUOUS
 62
     7
 10
848.630821
 20
1422.189047
 11
852.425183
 21
1422.718424
  0
LINE
  8
CSLAYER1
  6
CONTINUOUS
 62
     7
 10
852.425183
 20
1422.718424
 11
856.278421
 21
1423.037671
  0
LINE
  8
CSLAYER1
  6
CONTINUOUS
 62
     7
 10
830.161210
 20
1599.815788
 11
830.275369
 21
1601.461254
  0
LINE
  8
CSLAYER1
  6
CONTINUOUS
 62
     7
 10
830.275369
 20
1601.461254
 11
830.616977
 21
1603.094198
  0
LINE
  8
CSLAYER1
  6
CONTINUOUS
 62
     7
 10
830.616977
 20
1603.094198
 11
831.183435
 21
1604.702191
  0
LINE
  8
CSLAYER1
  6
CONTINUOUS
 62
     7
 10
831.183435
 20
1604.702191
 11
831.970431
 21
1606.272995
  0
LINE
  8
CSLAYER1
  6
CONTINUOUS
 62
     7
 10
831.970431
 20
1606.272995
 11
832.971976
 21
1607.794656
  0
LINE
  8
CSLAYER1
  6
CONTINUOUS
 62
     7
 10
832.971976
 20
1607.794656
 11
834.180447
 21
1609.255593
  0
LINE
  8
CSLAYER1
  6
CONTINUOUS
 62
     7
 10
834.180447
 20
1609.255593
 11
835.586648
 21
1610.644688
  0
LINE
  8
CSLAYER1
  6
CONTINUOUS
 62
     7
 10
835.586648
 20
1610.644688
 11
837.179876
 21
1611.951368
  0
LINE
  8
CSLAYER1
  6
CONTINUOUS
 62
     7
 10
837.179876
 20
1611.951368
 11
838.948006
 21
1613.165689
  0
LINE
  8
CSLAYER1
  6
CONTINUOUS
 62
     7
 10
838.948006
 20
1613.165689
 11
840.877581
 21
1614.278409
  0
LINE
  8
CSLAYER1
  6
CONTINUOUS
 62
     7
 10
840.877581
 20
1614.278409
 11
842.953917
 21
1615.281060
  0
LINE
  8
CSLAYER1
  6
CONTINUOUS
 62
     7
 10
842.953917
 20
1615.281060
 11
845.161210
 21
1616.166011
  0
LINE
  8
CSLAYER1
  6
CONTINUOUS
 62
     7
 10
845.161210
 20
1616.166011
 11
847.482662
 21
1616.926527
  0
LINE
  8
CSLAYER1
  6
CONTINUOUS
 62
     7
 10
847.482662
 20
1616.926527
 11
849.900605
 21
1617.556819
  0
LINE
  8
CSLAYER1
  6
CONTINUOUS
 62
     7
 10
849.900605
 20
1617.556819
 11
852.396638
 21
1618.052092
  0
LINE
  8
CSLAYER1
  6
CONTINUOUS
 62
     7
 10
852.396638
 20
1618.052092
 11
854.951764
 21
1618.408576
  0
LINE
  8
CSLAYER1
  6
CONTINUOUS
 62
     7
 10
854.951764
 20
1618.408576
 11
857.546537
 21
1618.623557
  0
LINE
  8
CSLAYER1
  6
CONTINUOUS
 62
     7
 10
830.161210
 20
1593.111060
 11
705.661210
 21
1593.111060
  0
LINE
  8
CSLAYER1
  6
CONTINUOUS
 62
     7
 10
704.161210
 20
1648.925025
 11
704.161210
 21
1593.461060
  0
LINE
  8
CSLAYER1
  6
CONTINUOUS
 62
     7
 10
709.161210
 20
1645.361060
 11
704.161210
 21
1640.361060
  0
LINE
  8
CSLAYER1
  6
CONTINUOUS
 62
     7
 10
709.161210
 20
1645.361060
 11
709.161210
 21
1601.361060
  0
ARC
  8
CSLAYER1
  6
CONTINUOUS
 62
     7
 10
703.061210
 20
1593.461060
 40
1.100000
 50
270.000000
 51
360.000000
  0
LINE
  8
CSLAYER1
  6
CONTINUOUS
 62
     7
 10
709.161210
 20
1601.361060
 11
704.161210
 21
1606.361060
  0
LINE
  8
CSLAYER1
  6
CONTINUOUS
 62
     7
 10
753.661210
 20
1654.627388
 11
753.661210
 21
1601.361060
  0
LINE
  8
CSLAYER1
  6
CONTINUOUS
 62
     7
 10
753.661210
 20
1595.111060
 11
753.661210
 21
1600.111060
  0
LINE
  8
CSLAYER1
  6
CONTINUOUS
 62
     7
 10
753.661210
 20
1595.111060
 11
755.661210
 21
1593.111060
  0
POINT
  8
CSLAYER1
 62
     7
 10
735.161210
 20
1535.778367
  0
LINE
  8
CSLAYER1
  6
CONTINUOUS
 62
     5
 10
721.035833
 20
1535.778370
 11
749.274923
 21
1535.778370
  0
LINE
  8
CSLAYER1
  6
CONTINUOUS
 62
     7
 10
726.661210
 20
1560.778370
 11
726.661210
 21
1601.361060
  0
LINE
  8
CSLAYER1
  6
CONTINUOUS
 62
     7
 10
725.161210
 20
1552.778370
 11
725.161210
 21
1601.361060
  0
LINE
  8
CSLAYER1
  6
CONTINUOUS
 62
     7
 10
709.161210
 20
1645.361060
 11
753.661210
 21
1645.361060
  0
LINE
  8
CSLAYER1
  6
CONTINUOUS
 62
     7
 10
716.661210
 20
1645.361060
 11
716.661210
 21
1654.627388
  0
LINE
  8
CSLAYER1
  6
CONTINUOUS
 62
     7
 10
725.161210
 20
1560.778370
 11
745.161210
 21
1560.778370
  0
LINE
  8
CSLAYER1
  6
CONTINUOUS
 62
     7
 10
726.661210
 20
1560.778370
 11
725.161210
 21
1558.180293
  0
LINE
  8
CSLAYER1
  6
CONTINUOUS
 62
     7
 10
743.661210
 20
1560.778370
 11
743.661210
 21
1601.361060
  0
LINE
  8
CSLAYER1
  6
CONTINUOUS
 62
     7
 10
743.661210
 20
1560.778370
 11
745.161210
 21
1558.180293
  0
LINE
  8
CSLAYER1
  6
CONTINUOUS
 62
     7
 10
745.161210
 20
1552.778370
 11
745.161210
 21
1601.361060
  0
LINE
  8
CSLAYER1
  6
CONTINUOUS
 62
     7
 10
747.686210
 20
1550.778367
 11
722.636210
 21
1550.778367
  0
POINT
  8
CSLAYER1
 62
     7
 10
735.161210
 20
1504.028367
  0
LINE
  8
CSLAYER1
  6
CONTINUOUS
 62
     7
 10
721.636210
 20
1549.778367
 11
721.636210
 21
1457.228367
  0
LINE
  8
CSLAYER1
  6
CONTINUOUS
 62
     7
 10
725.636210
 20
1519.078367
 11
725.636210
 21
1457.228367
  0
LINE
  8
CSLAYER1
  6
CONTINUOUS
 62
     7
 10
725.636210
 20
1519.078367
 11
721.636210
 21
1519.078367
  0
LINE
  8
CSLAYER1
  6
CONTINUOUS
 62
     7
 10
726.636210
 20
1494.503367
 11
743.686210
 21
1494.503367
  0
LINE
  8
CSLAYER1
  6
CONTINUOUS
 62
     7
 10
726.636210
 20
1513.553367
 11
743.686210
 21
1513.553367
  0
ARC
  8
CSLAYER1
  6
CONTINUOUS
 62
     7
 10
726.636210
 20
1495.503367
 40
1.000000
 50
180.000000
 51
270.000000
  0
ARC
  8
CSLAYER1
  6
CONTINUOUS
 62
     7
 10
726.636210
 20
1512.553367
 40
1.000000
 50
90.000000
 51
180.000000
  0
LINE
  8
CSLAYER1
  6
CONTINUOUS
 62
     7
 10
748.686210
 20
1549.778367
 11
748.686210
 21
1456.528367
  0
LINE
  8
CSLAYER1
  6
CONTINUOUS
 62
     7
 10
744.686210
 20
1519.078367
 11
744.686210
 21
1457.228367
  0
LINE
  8
CSLAYER1
  6
CONTINUOUS
 62
     7
 10
744.686210
 20
1519.078367
 11
748.686210
 21
1519.078367
  0
ARC
  8
CSLAYER1
  6
CONTINUOUS
 62
     7
 10
743.686210
 20
1495.503367
 40
1.000000
 50
270.000000
 51
360.000000
  0
ARC
  8
CSLAYER1
  6
CONTINUOUS
 62
     7
 10
743.686210
 20
1512.553367
 40
1.000000
 50
0.000000
 51
90.000000
  0
LINE
  8
CSLAYER1
  6
CONTINUOUS
 62
     7
 10
715.411210
 20
1500.258367
 11
715.411210
 21
1507.808094
  0
LINE
  8
CSLAYER1
  6
CONTINUOUS
 62
     7
 10
721.636210
 20
1491.028367
 11
717.261210
 21
1491.028367
  0
LINE
  8
CSLAYER1
  6
CONTINUOUS
 62
     7
 10
721.636210
 20
1548.778367
 11
717.261210
 21
1548.778367
  0
LINE
  8
CSLAYER1
  6
CONTINUOUS
 62
     7
 10
717.261210
 20
1499.258367
 11
716.411210
 21
1499.258367
  0
LINE
  8
CSLAYER1
  6
CONTINUOUS
 62
     7
 10
717.261210
 20
1508.808094
 11
716.411210
 21
1508.808094
  0
ARC
  8
CSLAYER1
  6
CONTINUOUS
 62
     7
 10
716.411210
 20
1500.258367
 40
1.000000
 50
180.000000
 51
270.000000
  0
ARC
  8
CSLAYER1
  6
CONTINUOUS
 62
     7
 10
716.411210
 20
1507.808094
 40
1.000000
 50
90.000000
 51
180.000000
  0
LINE
  8
CSLAYER1
  6
CONTINUOUS
 62
     7
 10
715.411210
 20
1532.008367
 11
715.411210
 21
1539.558094
  0
LINE
  8
CSLAYER1
  6
CONTINUOUS
 62
     7
 10
717.261210
 20
1531.008367
 11
716.411210
 21
1531.008367
  0
LINE
  8
CSLAYER1
  6
CONTINUOUS
 62
     7
 10
717.261210
 20
1540.558094
 11
716.411210
 21
1540.558094
  0
ARC
  8
CSLAYER1
  6
CONTINUOUS
 62
     7
 10
716.411210
 20
1532.008367
 40
1.000000
 50
180.000000
 51
270.000000
  0
ARC
  8
CSLAYER1
  6
CONTINUOUS
 62
     7
 10
716.411210
 20
1539.558094
 40
1.000000
 50
90.000000
 51
180.000000
  0
LINE
  8
CSLAYER1
  6
CONTINUOUS
 62
     7
 10
754.911210
 20
1500.258367
 11
754.911210
 21
1507.808094
  0
LINE
  8
CSLAYER1
  6
CONTINUOUS
 62
     7
 10
748.686210
 20
1491.028367
 11
753.061210
 21
1491.028367
  0
LINE
  8
CSLAYER1
  6
CONTINUOUS
 62
     7
 10
748.686210
 20
1548.778367
 11
753.061210
 21
1548.778367
  0
LINE
  8
CSLAYER1
  6
CONTINUOUS
 62
     7
 10
753.061210
 20
1499.258367
 11
753.911210
 21
1499.258367
  0
LINE
  8
CSLAYER1
  6
CONTINUOUS
 62
     7
 10
753.061210
 20
1508.808094
 11
753.911210
 21
1508.808094
  0
ARC
  8
CSLAYER1
  6
CONTINUOUS
 62
     7
 10
753.911210
 20
1500.258367
 40
1.000000
 50
270.000000
 51
360.000000
  0
ARC
  8
CSLAYER1
  6
CONTINUOUS
 62
     7
 10
753.911210
 20
1507.808094
 40
1.000000
 50
0.000000
 51
90.000000
  0
LINE
  8
CSLAYER1
  6
CONTINUOUS
 62
     7
 10
758.011210
 20
1532.008367
 11
758.011210
 21
1539.558094
  0
LINE
  8
CSLAYER1
  6
CONTINUOUS
 62
     7
 10
753.061210
 20
1531.008367
 11
757.011210
 21
1531.008367
  0
LINE
  8
CSLAYER1
  6
CONTINUOUS
 62
     7
 10
753.061210
 20
1540.558094
 11
757.011210
 21
1540.558094
  0
ARC
  8
CSLAYER1
  6
CONTINUOUS
 62
     7
 10
757.011210
 20
1532.008367
 40
1.000000
 50
270.000000
 51
360.000000
  0
ARC
  8
CSLAYER1
  6
CONTINUOUS
 62
     7
 10
757.011210
 20
1539.558094
 40
1.000000
 50
0.000000
 51
90.000000
  0
LINE
  8
CSLAYER1
  6
CONTINUOUS
 62
     7
 10
748.686210
 20
1540.558094
 11
721.636210
 21
1540.558094
  0
LINE
  8
CSLAYER1
  6
CONTINUOUS
 62
     7
 10
748.686210
 20
1531.008367
 11
721.636210
 21
1531.008367
  0
LINE
  8
CSLAYER1
  6
CONTINUOUS
 62
     7
 10
746.686210
 20
1520.778367
 11
723.636210
 21
1520.778367
  0
ARC
  8
CSLAYER1
  6
CONTINUOUS
 62
     7
 10
723.636210
 20
1522.778367
 40
2.000000
 50
180.000000
 51
270.000000
  0
ARC
  8
CSLAYER1
  6
CONTINUOUS
 62
     7
 10
746.686210
 20
1522.778367
 40
2.000000
 50
270.000000
 51
360.000000
  0
ARC
  8
CSLAYER1
  6
CONTINUOUS
 62
     7
 10
747.161210
 20
1552.778367
 40
2.000000
 50
180.000000
 51
270.000000
  0
ARC
  8
CSLAYER1
  6
CONTINUOUS
 62
     7
 10
723.161210
 20
1552.778367
 40
2.000000
 50
270.000000
 51
360.000000
  0
ARC
  8
CSLAYER1
  6
CONTINUOUS
 62
     7
 10
747.686210
 20
1549.778367
 40
1.000000
 50
0.000000
 51
90.000000
  0
ARC
  8
CSLAYER1
  6
CONTINUOUS
 62
     7
 10
722.636210
 20
1549.778367
 40
1.000000
 50
90.000000
 51
180.000000
  0
POINT
  8
CSLAYER1
 62
     7
 10
735.161210
 20
1550.778367
  0
LINE
  8
CSLAYER1
  6
CONTINUOUS
 62
     7
 10
717.261210
 20
1491.028367
 11
717.261210
 21
1548.778367
  0
LINE
  8
CSLAYER1
  6
CONTINUOUS
 62
     7
 10
753.061210
 20
1491.028367
 11
753.061210
 21
1548.778367
  0
POINT
  8
CSLAYER1
 62
     7
 10
735.161210
 20
1472.278367
  0
LINE
  8
CSLAYER1
  6
CONTINUOUS
 62
     7
 10
725.636210
 20
1457.228367
 11
721.636210
 21
1457.228367
  0
LINE
  8
CSLAYER1
  6
CONTINUOUS
 62
     7
 10
726.636210
 20
1481.803367
 11
743.686210
 21
1481.803367
  0
LINE
  8
CSLAYER1
  6
CONTINUOUS
 62
     7
 10
726.636210
 20
1462.753367
 11
743.686210
 21
1462.753367
  0
ARC
  8
CSLAYER1
  6
CONTINUOUS
 62
     7
 10
726.636210
 20
1480.803367
 40
1.000000
 50
90.000000
 51
180.000000
  0
ARC
  8
CSLAYER1
  6
CONTINUOUS
 62
     7
 10
726.636210
 20
1463.753367
 40
1.000000
 50
180.000000
 51
270.000000
  0
LINE
  8
CSLAYER1
  6
CONTINUOUS
 62
     7
 10
744.686210
 20
1457.228367
 11
748.686210
 21
1457.228367
  0
ARC
  8
CSLAYER1
  6
CONTINUOUS
 62
     7
 10
743.686210
 20
1480.803367
 40
1.000000
 50
0.000000
 51
90.000000
  0
ARC
  8
CSLAYER1
  6
CONTINUOUS
 62
     7
 10
743.686210
 20
1463.753367
 40
1.000000
 50
270.000000
 51
360.000000
  0
LINE
  8
CSLAYER1
  6
CONTINUOUS
 62
     7
 10
715.411210
 20
1476.048367
 11
715.411210
 21
1468.498641
  0
LINE
  8
CSLAYER1
  6
CONTINUOUS
 62
     7
 10
721.636210
 20
1485.278367
 11
717.261210
 21
1485.278367
  0
LINE
  8
CSLAYER1
  6
CONTINUOUS
 62
     7
 10
717.261210
 20
1477.048367
 11
716.411210
 21
1477.048367
  0
LINE
  8
CSLAYER1
  6
CONTINUOUS
 62
     7
 10
717.261210
 20
1467.498641
 11
716.411210
 21
1467.498641
  0
ARC
  8
CSLAYER1
  6
CONTINUOUS
 62
     7
 10
716.411210
 20
1476.048367
 40
1.000000
 50
90.000000
 51
180.000000
  0
ARC
  8
CSLAYER1
  6
CONTINUOUS
 62
     7
 10
716.411210
 20
1468.498641
 40
1.000000
 50
180.000000
 51
270.000000
  0
LINE
  8
CSLAYER1
  6
CONTINUOUS
 62
     7
 10
754.911210
 20
1476.048367
 11
754.911210
 21
1468.498641
  0
LINE
  8
CSLAYER1
  6
CONTINUOUS
 62
     7
 10
748.686210
 20
1485.278367
 11
753.061210
 21
1485.278367
  0
LINE
  8
CSLAYER1
  6
CONTINUOUS
 62
     7
 10
753.061210
 20
1477.048367
 11
753.911210
 21
1477.048367
  0
LINE
  8
CSLAYER1
  6
CONTINUOUS
 62
     7
 10
753.061210
 20
1467.498641
 11
753.911210
 21
1467.498641
  0
ARC
  8
CSLAYER1
  6
CONTINUOUS
 62
     7
 10
753.911210
 20
1476.048367
 40
1.000000
 50
0.000000
 51
90.000000
  0
ARC
  8
CSLAYER1
  6
CONTINUOUS
 62
     7
 10
753.911210
 20
1468.498641
 40
1.000000
 50
270.000000
 51
360.000000
  0
LINE
  8
CSLAYER1
  6
CONTINUOUS
 62
     7
 10
753.061210
 20
1485.278367
 11
753.061210
 21
1427.528367
  0
LINE
  8
CSLAYER1
  6
CONTINUOUS
 62
     7
 10
717.261210
 20
1485.278367
 11
717.261210
 21
1427.528367
  0
LINE
  8
CSLAYER1
  6
CONTINUOUS
 62
     7
 10
709.161210
 20
1601.361060
 11
753.661210
 21
1601.361060
  0
LINE
  8
CSLAYER1
  6
CONTINUOUS
 62
     5
 10
707.677928
 20
1254.980635
 11
752.213840
 21
1254.980635
  0
LINE
  8
CSLAYER1
  6
CONTINUOUS
 62
     4
 10
748.686210
 20
1267.980635
 11
753.061210
 21
1267.980635
  0
LINE
  8
CSLAYER1
  6
CONTINUOUS
 62
     4
 10
754.911210
 20
1251.210635
 11
754.911210
 21
1258.760362
  0
LINE
  8
CSLAYER1
  6
CONTINUOUS
 62
     4
 10
753.061210
 20
1250.210635
 11
753.911210
 21
1250.210635
  0
LINE
  8
CSLAYER1
  6
CONTINUOUS
 62
     4
 10
753.061210
 20
1259.760362
 11
753.911210
 21
1259.760362
  0
ARC
  8
CSLAYER1
  6
CONTINUOUS
 62
     4
 10
753.911210
 20
1251.210635
 40
1.000000
 50
270.000000
 51
360.000000
  0
ARC
  8
CSLAYER1
  6
CONTINUOUS
 62
     4
 10
753.911210
 20
1258.760362
 40
1.000000
 50
0.000000
 51
90.000000
  0
LINE
  8
CSLAYER1
  6
CONTINUOUS
 62
     4
 10
721.636210
 20
1267.980635
 11
717.261210
 21
1267.980635
  0
LINE
  8
CSLAYER1
  6
CONTINUOUS
 62
     4
 10
715.411210
 20
1251.210635
 11
715.411210
 21
1258.760362
  0
LINE
  8
CSLAYER1
  6
CONTINUOUS
 62
     4
 10
717.261210
 20
1250.210635
 11
716.411210
 21
1250.210635
  0
LINE
  8
CSLAYER1
  6
CONTINUOUS
 62
     4
 10
717.261210
 20
1259.760362
 11
716.411210
 21
1259.760362
  0
ARC
  8
CSLAYER1
  6
CONTINUOUS
 62
     4
 10
716.411210
 20
1251.210635
 40
1.000000
 50
180.000000
 51
270.000000
  0
ARC
  8
CSLAYER1
  6
CONTINUOUS
 62
     4
 10
716.411210
 20
1258.760362
 40
1.000000
 50
90.000000
 51
180.000000
  0
POINT
  8
CSLAYER1
 62
     4
 10
735.161210
 20
1254.980635
  0
POINT
  8
CSLAYER1
 62
     4
 10
735.161210
 20
1286.730635
  0
LINE
  8
CSLAYER1
  6
CONTINUOUS
 62
     4
 10
725.636210
 20
1301.780635
 11
721.636210
 21
1301.780635
  0
LINE
  8
CSLAYER1
  6
CONTINUOUS
 62
     4
 10
726.636210
 20
1277.205635
 11
743.686210
 21
1277.205635
  0
LINE
  8
CSLAYER1
  6
CONTINUOUS
 62
     4
 10
726.636210
 20
1296.255635
 11
743.686210
 21
1296.255635
  0
ARC
  8
CSLAYER1
  6
CONTINUOUS
 62
     4
 10
726.636210
 20
1278.205635
 40
1.000000
 50
180.000000
 51
270.000000
  0
ARC
  8
CSLAYER1
  6
CONTINUOUS
 62
     4
 10
726.636210
 20
1295.255635
 40
1.000000
 50
90.000000
 51
180.000000
  0
LINE
  8
CSLAYER1
  6
CONTINUOUS
 62
     4
 10
744.686210
 20
1301.780635
 11
748.686210
 21
1301.780635
  0
ARC
  8
CSLAYER1
  6
CONTINUOUS
 62
     4
 10
743.686210
 20
1278.205635
 40
1.000000
 50
270.000000
 51
360.000000
  0
ARC
  8
CSLAYER1
  6
CONTINUOUS
 62
     4
 10
743.686210
 20
1295.255635
 40
1.000000
 50
0.000000
 51
90.000000
  0
LINE
  8
CSLAYER1
  6
CONTINUOUS
 62
     4
 10
715.411210
 20
1282.960635
 11
715.411210
 21
1290.510362
  0
LINE
  8
CSLAYER1
  6
CONTINUOUS
 62
     4
 10
721.636210
 20
1273.730635
 11
717.261210
 21
1273.730635
  0
LINE
  8
CSLAYER1
  6
CONTINUOUS
 62
     4
 10
717.261210
 20
1281.960635
 11
716.411210
 21
1281.960635
  0
LINE
  8
CSLAYER1
  6
CONTINUOUS
 62
     4
 10
717.261210
 20
1291.510362
 11
716.411210
 21
1291.510362
  0
ARC
  8
CSLAYER1
  6
CONTINUOUS
 62
     4
 10
716.411210
 20
1282.960635
 40
1.000000
 50
180.000000
 51
270.000000
  0
ARC
  8
CSLAYER1
  6
CONTINUOUS
 62
     4
 10
716.411210
 20
1290.510362
 40
1.000000
 50
90.000000
 51
180.000000
  0
LINE
  8
CSLAYER1
  6
CONTINUOUS
 62
     4
 10
754.911210
 20
1282.960635
 11
754.911210
 21
1290.510362
  0
LINE
  8
CSLAYER1
  6
CONTINUOUS
 62
     4
 10
748.686210
 20
1273.730635
 11
753.061210
 21
1273.730635
  0
LINE
  8
CSLAYER1
  6
CONTINUOUS
 62
     4
 10
753.061210
 20
1281.960635
 11
753.911210
 21
1281.960635
  0
LINE
  8
CSLAYER1
  6
CONTINUOUS
 62
     4
 10
753.061210
 20
1291.510362
 11
753.911210
 21
1291.510362
  0
ARC
  8
CSLAYER1
  6
CONTINUOUS
 62
     4
 10
753.911210
 20
1282.960635
 40
1.000000
 50
270.000000
 51
360.000000
  0
ARC
  8
CSLAYER1
  6
CONTINUOUS
 62
     4
 10
753.911210
 20
1290.510362
 40
1.000000
 50
0.000000
 51
90.000000
  0
LINE
  8
CSLAYER1
  6
CONTINUOUS
 62
     4
 10
726.636210
 20
1264.505635
 11
743.686210
 21
1264.505635
  0
LINE
  8
CSLAYER1
  6
CONTINUOUS
 62
     4
 10
726.636210
 20
1245.455635
 11
743.686210
 21
1245.455635
  0
ARC
  8
CSLAYER1
  6
CONTINUOUS
 62
     4
 10
726.636210
 20
1263.505635
 40
1.000000
 50
90.000000
 51
180.000000
  0
ARC
  8
CSLAYER1
  6
CONTINUOUS
 62
     4
 10
726.636210
 20
1246.455635
 40
1.000000
 50
180.000000
 51
270.000000
  0
ARC
  8
CSLAYER1
  6
CONTINUOUS
 62
     4
 10
743.686210
 20
1263.505635
 40
1.000000
 50
0.000000
 51
90.000000
  0
ARC
  8
CSLAYER1
  6
CONTINUOUS
 62
     4
 10
743.686210
 20
1246.455635
 40
1.000000
 50
270.000000
 51
360.000000
  0
LINE
  8
CSLAYER1
  6
CONTINUOUS
 62
     4
 10
684.661210
 20
1635.861060
 11
685.811210
 21
1635.861060
  0
LINE
  8
CSLAYER1
  6
CONTINUOUS
 62
     4
 10
685.811210
 20
1635.311060
 11
687.161210
 21
1635.311060
  0
LINE
  8
CSLAYER1
  6
CONTINUOUS
 62
     4
 10
685.811210
 20
1638.411060
 11
687.161210
 21
1638.411060
  0
LINE
  8
CSLAYER1
  6
CONTINUOUS
 62
     4
 10
685.811210
 20
1638.411060
 11
685.811210
 21
1608.311060
  0
LINE
  8
CSLAYER1
  6
CONTINUOUS
 62
     4
 10
683.161210
 20
1634.361060
 11
683.161210
 21
1612.361060
  0
LINE
  8
CSLAYER1
  6
CONTINUOUS
 62
     4
 10
683.161210
 20
1634.361060
 11
684.661210
 21
1635.861060
  0
LINE
  8
CSLAYER1
  6
CONTINUOUS
 62
     4
 10
684.661210
 20
1635.861060
 11
684.661210
 21
1610.861060
  0
LINE
  8
CSLAYER1
  6
CONTINUOUS
 62
     4
 10
684.661210
 20
1610.861060
 11
685.811210
 21
1610.861060
  0
LINE
  8
CSLAYER1
  6
CONTINUOUS
 62
     4
 10
685.811210
 20
1611.411060
 11
687.161210
 21
1611.411060
  0
LINE
  8
CSLAYER1
  6
CONTINUOUS
 62
     4
 10
685.811210
 20
1608.311060
 11
687.161210
 21
1608.311060
  0
LINE
  8
CSLAYER1
  6
CONTINUOUS
 62
     4
 10
683.161210
 20
1612.361060
 11
684.661210
 21
1610.861060
  0
LINE
  8
CSLAYER1
  6
CONTINUOUS
 62
     7
 10
753.661210
 20
1651.611060
 11
755.661210
 21
1653.611060
  0
ARC
  8
CSLAYER1
  6
CONTINUOUS
 62
     7
 10
735.161210
 20
1636.888374
 40
25.630502
 50
43.797018
 51
136.202982
  0
ARC
  8
CSLAYER1
  6
CONTINUOUS
 62
     7
 10
735.161210
 20
1676.728694
 40
13.551139
 50
42.443318
 51
137.556682
  0
LINE
  8
CSLAYER1
  6
CONTINUOUS
 62
     7
 10
725.161210
 20
1685.873823
 11
725.161210
 21
1660.487582
  0
LINE
  8
CSLAYER1
  6
CONTINUOUS
 62
     7
 10
745.161210
 20
1685.873823
 11
745.161210
 21
1660.487582
  0
ARC
  8
CSLAYER1
  6
CONTINUOUS
 62
     7
 10
735.161210
 20
1627.622046
 40
25.630502
 50
43.797018
 51
136.202982
  0
LINE
  8
CSLAYER1
  6
CONTINUOUS
 62
     4
 10
687.161210
 20
852.536465
 11
644.161210
 21
852.536465
  0
LINE
  8
CSLAYER1
  6
CONTINUOUS
 62
     4
 10
687.161210
 20
839.216824
 11
644.161210
 21
839.216824
  0
LINE
  8
CSLAYER1
  6
CONTINUOUS
 62
     4
 10
687.161210
 20
792.863497
 11
644.161210
 21
792.863497
  0
LINE
  8
CSLAYER1
  6
CONTINUOUS
 62
     4
 10
798.161210
 20
852.536465
 11
703.161210
 21
852.536465
  0
LINE
  8
CSLAYER1
  6
CONTINUOUS
 62
     4
 10
798.161210
 20
839.216824
 11
703.161210
 21
839.216824
  0
LINE
  8
CSLAYER1
  6
CONTINUOUS
 62
     4
 10
802.204710
 20
792.863497
 11
703.161210
 21
792.863497
  0
LINE
  8
CSLAYER1
  6
CONTINUOUS
 62
     7
 10
794.161210
 20
1086.421908
 11
708.278410
 21
1062.047521
  0
LINE
  8
CSLAYER1
  6
CONTINUOUS
 62
     7
 10
794.161210
 20
1055.287665
 11
708.278410
 21
1030.913277
  0
LINE
  8
CSLAYER1
  6
CONTINUOUS
 62
     7
 10
794.161210
 20
976.809781
 11
708.278410
 21
1001.184169
  0
DIMENSION
  8
CSLAYER1
 62
     3
  2
*D0006
 10
1160.161210
 20
489.807195
 11
860.161255
 21
504.807404
 13
560.161210
 23
620.252279
 14
1160.161210
 24
620.252279
 52
270.000000
 70
1
  0
LINE
  8
CSLAYER1
  6
CONTINUOUS
 62
     4
 10
1260.161210
 20
1856.094245
 11
1260.161210
 21
1799.094245
  0
ARC
  8
CSLAYER1
  6
CONTINUOUS
 62
     4
 10
1257.161210
 20
1856.094245
 40
3.000000
 50
0.000000
 51
90.000000
  0
LINE
  8
CSLAYER1
  6
CONTINUOUS
 62
     4
 10
1257.161210
 20
1859.094245
 11
463.161210
 21
1859.094245
  0
LINE
  8
CSLAYER1
  6
CONTINUOUS
 62
     4
 10
460.161210
 20
1856.094245
 11
460.161210
 21
1799.094245
  0
ARC
  8
CSLAYER1
  6
CONTINUOUS
 62
     4
 10
463.161210
 20
1856.094245
 40
3.000000
 50
90.000000
 51
180.000000
  0
LINE
  8
CSLAYER1
  6
CONTINUOUS
 62
     4
 10
460.161210
 20
1799.094245
 11
1260.161210
 21
1799.094245
  0
TEXT
  8
CSLAYER2
 62
     5
 10
4425.245605
 20
2769.049452
 40
59.088108
 41
0.717259
  1
GLI-750-0815
 50
0.000000
 51
0.000000
  7
EASYDRAW_FONT
 72
     5
 11
4919.696472
 21
2769.049452
  0
LINE
  8
CSLAYER1
  6
CENTER
 62
     5
 10
1644.928502
 20
2814.024656
 11
3194.234675
 21
2814.024656
  0
LINE
  8
CSLAYER1
  6
CONTINUOUS
 62
     7
 10
914.161210
 20
1005.930094
 11
913.955723
 21
1008.891934
  0
LINE
  8
CSLAYER1
  6
CONTINUOUS
 62
     7
 10
913.955723
 20
1008.891934
 11
913.340828
 21
1011.831232
  0
LINE
  8
CSLAYER1
  6
CONTINUOUS
 62
     7
 10
913.340828
 20
1011.831232
 11
912.321204
 21
1014.725619
  0
LINE
  8
CSLAYER1
  6
CONTINUOUS
 62
     7
 10
912.321204
 20
1014.725619
 11
910.904611
 21
1017.553067
  0
LINE
  8
CSLAYER1
  6
CONTINUOUS
 62
     7
 10
910.904611
 20
1017.553067
 11
909.101830
 21
1020.292058
  0
LINE
  8
CSLAYER1
  6
CONTINUOUS
 62
     7
 10
909.101830
 20
1020.292058
 11
906.926581
 21
1022.921744
  0
LINE
  8
CSLAYER1
  6
CONTINUOUS
 62
     7
 10
906.926581
 20
1022.921744
 11
904.395420
 21
1025.422115
  0
LINE
  8
CSLAYER1
  6
CONTINUOUS
 62
     7
 10
904.395420
 20
1025.422115
 11
901.527610
 21
1027.774139
  0
LINE
  8
CSLAYER1
  6
CONTINUOUS
 62
     7
 10
901.527610
 20
1027.774139
 11
898.344976
 21
1029.959917
  0
LINE
  8
CSLAYER1
  6
CONTINUOUS
 62
     7
 10
898.344976
 20
1029.959917
 11
894.871741
 21
1031.962813
  0
LINE
  8
CSLAYER1
  6
CONTINUOUS
 62
     7
 10
894.871741
 20
1031.962813
 11
891.134337
 21
1033.767585
  0
LINE
  8
CSLAYER1
  6
CONTINUOUS
 62
     7
 10
891.134337
 20
1033.767585
 11
887.161210
 21
1035.360496
  0
LINE
  8
CSLAYER1
  6
CONTINUOUS
 62
     7
 10
887.161210
 20
1035.360496
 11
882.982596
 21
1036.729424
  0
LINE
  8
CSLAYER1
  6
CONTINUOUS
 62
     7
 10
882.982596
 20
1036.729424
 11
878.630297
 21
1037.863951
  0
LINE
  8
CSLAYER1
  6
CONTINUOUS
 62
     7
 10
878.630297
 20
1037.863951
 11
874.137438
 21
1038.755442
  0
LINE
  8
CSLAYER1
  6
CONTINUOUS
 62
     7
 10
874.137438
 20
1038.755442
 11
869.538211
 21
1039.397112
  0
LINE
  8
CSLAYER1
  6
CONTINUOUS
 62
     7
 10
869.538211
 20
1039.397112
 11
864.867620
 21
1039.784078
  0
LINE
  8
CSLAYER1
  6
CONTINUOUS
 62
     7
 10
864.867620
 20
1039.784078
 11
860.161210
 21
1039.913395
  0
LINE
  8
CSLAYER1
  6
CONTINUOUS
 62
     7
 10
860.161210
 20
1039.913395
 11
855.454799
 21
1039.784078
  0
LINE
  8
CSLAYER1
  6
CONTINUOUS
 62
     7
 10
855.454799
 20
1039.784078
 11
850.784208
 21
1039.397112
  0
LINE
  8
CSLAYER1
  6
CONTINUOUS
 62
     7
 10
850.784208
 20
1039.397112
 11
846.184981
 21
1038.755442
  0
LINE
  8
CSLAYER1
  6
CONTINUOUS
 62
     7
 10
846.184981
 20
1038.755442
 11
841.692122
 21
1037.863951
  0
LINE
  8
CSLAYER1
  6
CONTINUOUS
 62
     7
 10
841.692122
 20
1037.863951
 11
837.339823
 21
1036.729424
  0
LINE
  8
CSLAYER1
  6
CONTINUOUS
 62
     7
 10
837.339823
 20
1036.729424
 11
833.161210
 21
1035.360496
  0
LINE
  8
CSLAYER1
  6
CONTINUOUS
 62
     7
 10
833.161210
 20
1035.360496
 11
829.188082
 21
1033.767585
  0
LINE
  8
CSLAYER1
  6
CONTINUOUS
 62
     7
 10
829.188082
 20
1033.767585
 11
825.450679
 21
1031.962813
  0
LINE
  8
CSLAYER1
  6
CONTINUOUS
 62
     7
 10
825.450679
 20
1031.962813
 11
821.977443
 21
1029.959917
  0
LINE
  8
CSLAYER1
  6
CONTINUOUS
 62
     7
 10
821.977443
 20
1029.959917
 11
818.794810
 21
1027.774139
  0
LINE
  8
CSLAYER1
  6
CONTINUOUS
 62
     7
 10
818.794810
 20
1027.774139
 11
815.926999
 21
1025.422115
  0
LINE
  8
CSLAYER1
  6
CONTINUOUS
 62
     7
 10
815.926999
 20
1025.422115
 11
813.395838
 21
1022.921744
  0
LINE
  8
CSLAYER1
  6
CONTINUOUS
 62
     7
 10
813.395838
 20
1022.921744
 11
811.220589
 21
1020.292058
  0
LINE
  8
CSLAYER1
  6
CONTINUOUS
 62
     7
 10
811.220589
 20
1020.292058
 11
809.417808
 21
1017.553067
  0
LINE
  8
CSLAYER1
  6
CONTINUOUS
 62
     7
 10
809.417808
 20
1017.553067
 11
808.001215
 21
1014.725619
  0
LINE
  8
CSLAYER1
  6
CONTINUOUS
 62
     7
 10
808.001215
 20
1014.725619
 11
806.981591
 21
1011.831232
  0
LINE
  8
CSLAYER1
  6
CONTINUOUS
 62
     7
 10
806.981591
 20
1011.831232
 11
806.366696
 21
1008.891934
  0
LINE
  8
CSLAYER1
  6
CONTINUOUS
 62
     7
 10
806.366696
 20
1008.891934
 11
806.161210
 21
1005.930094
  0
LINE
  8
CSLAYER1
  6
CONTINUOUS
 62
     7
 10
913.979091
 20
982.091015
 11
913.955723
 21
982.427827
  0
LINE
  8
CSLAYER1
  6
CONTINUOUS
 62
     7
 10
913.955723
 20
982.427827
 11
913.340828
 21
985.367126
  0
LINE
  8
CSLAYER1
  6
CONTINUOUS
 62
     7
 10
913.340828
 20
985.367126
 11
912.321204
 21
988.261513
  0
LINE
  8
CSLAYER1
  6
CONTINUOUS
 62
     7
 10
912.321204
 20
988.261513
 11
910.904611
 21
991.088961
  0
LINE
  8
CSLAYER1
  6
CONTINUOUS
 62
     7
 10
910.904611
 20
991.088961
 11
909.101830
 21
993.827951
  0
LINE
  8
CSLAYER1
  6
CONTINUOUS
 62
     7
 10
909.101830
 20
993.827951
 11
906.926581
 21
996.457638
  0
LINE
  8
CSLAYER1
  6
CONTINUOUS
 62
     7
 10
906.926581
 20
996.457638
 11
904.395420
 21
998.958008
  0
LINE
  8
CSLAYER1
  6
CONTINUOUS
 62
     7
 10
904.395420
 20
998.958008
 11
901.527610
 21
1001.310032
  0
LINE
  8
CSLAYER1
  6
CONTINUOUS
 62
     7
 10
901.527610
 20
1001.310032
 11
898.344976
 21
1003.495810
  0
LINE
  8
CSLAYER1
  6
CONTINUOUS
 62
     7
 10
898.344976
 20
1003.495810
 11
894.871741
 21
1005.498706
  0
LINE
  8
CSLAYER1
  6
CONTINUOUS
 62
     7
 10
894.871741
 20
1005.498706
 11
891.134337
 21
1007.303478
  0
LINE
  8
CSLAYER1
  6
CONTINUOUS
 62
     7
 10
891.134337
 20
1007.303478
 11
887.161210
 21
1008.896389
  0
LINE
  8
CSLAYER1
  6
CONTINUOUS
 62
     7
 10
887.161210
 20
1008.896389
 11
882.982596
 21
1010.265318
  0
LINE
  8
CSLAYER1
  6
CONTINUOUS
 62
     7
 10
882.982596
 20
1010.265318
 11
878.630297
 21
1011.399844
  0
LINE
  8
CSLAYER1
  6
CONTINUOUS
 62
     7
 10
878.630297
 20
1011.399844
 11
874.137438
 21
1012.291335
  0
LINE
  8
CSLAYER1
  6
CONTINUOUS
 62
     7
 10
874.137438
 20
1012.291335
 11
869.538211
 21
1012.933006
  0
LINE
  8
CSLAYER1
  6
CONTINUOUS
 62
     7
 10
869.538211
 20
1012.933006
 11
864.867620
 21
1013.319972
  0
LINE
  8
CSLAYER1
  6
CONTINUOUS
 62
     7
 10
864.867620
 20
1013.319972
 11
860.161210
 21
1013.449288
  0
LINE
  8
CSLAYER1
  6
CONTINUOUS
 62
     7
 10
860.161210
 20
1013.449288
 11
855.454799
 21
1013.319972
  0
LINE
  8
CSLAYER1
  6
CONTINUOUS
 62
     7
 10
855.454799
 20
1013.319972
 11
850.784208
 21
1012.933006
  0
LINE
  8
CSLAYER1
  6
CONTINUOUS
 62
     7
 10
850.784208
 20
1012.933006
 11
846.184981
 21
1012.291335
  0
LINE
  8
CSLAYER1
  6
CONTINUOUS
 62
     7
 10
846.184981
 20
1012.291335
 11
841.692122
 21
1011.399844
  0
LINE
  8
CSLAYER1
  6
CONTINUOUS
 62
     7
 10
841.692122
 20
1011.399844
 11
837.339823
 21
1010.265318
  0
LINE
  8
CSLAYER1
  6
CONTINUOUS
 62
     7
 10
837.339823
 20
1010.265318
 11
833.161210
 21
1008.896389
  0
LINE
  8
CSLAYER1
  6
CONTINUOUS
 62
     7
 10
833.161210
 20
1008.896389
 11
829.188082
 21
1007.303478
  0
LINE
  8
CSLAYER1
  6
CONTINUOUS
 62
     7
 10
829.188082
 20
1007.303478
 11
825.450679
 21
1005.498706
  0
LINE
  8
CSLAYER1
  6
CONTINUOUS
 62
     7
 10
825.450679
 20
1005.498706
 11
821.977443
 21
1003.495810
  0
LINE
  8
CSLAYER1
  6
CONTINUOUS
 62
     7
 10
821.977443
 20
1003.495810
 11
818.794810
 21
1001.310032
  0
LINE
  8
CSLAYER1
  6
CONTINUOUS
 62
     7
 10
818.794810
 20
1001.310032
 11
815.926999
 21
998.958008
  0
LINE
  8
CSLAYER1
  6
CONTINUOUS
 62
     7
 10
815.926999
 20
998.958008
 11
813.395838
 21
996.457638
  0
LINE
  8
CSLAYER1
  6
CONTINUOUS
 62
     7
 10
813.395838
 20
996.457638
 11
811.220589
 21
993.827951
  0
LINE
  8
CSLAYER1
  6
CONTINUOUS
 62
     7
 10
811.220589
 20
993.827951
 11
809.417808
 21
991.088961
  0
LINE
  8
CSLAYER1
  6
CONTINUOUS
 62
     7
 10
809.417808
 20
991.088961
 11
808.001215
 21
988.261513
  0
LINE
  8
CSLAYER1
  6
CONTINUOUS
 62
     7
 10
808.001215
 20
988.261513
 11
806.981591
 21
985.367126
  0
LINE
  8
CSLAYER1
  6
CONTINUOUS
 62
     7
 10
806.981591
 20
985.367126
 11
806.366696
 21
982.427827
  0
LINE
  8
CSLAYER1
  6
CONTINUOUS
 62
     7
 10
920.161210
 20
965.455578
 11
919.932891
 21
968.746511
  0
LINE
  8
CSLAYER1
  6
CONTINUOUS
 62
     7
 10
919.932891
 20
968.746511
 11
919.249675
 21
972.012398
  0
LINE
  8
CSLAYER1
  6
CONTINUOUS
 62
     7
 10
919.249675
 20
972.012398
 11
918.116759
 21
975.228384
  0
LINE
  8
CSLAYER1
  6
CONTINUOUS
 62
     7
 10
918.116759
 20
975.228384
 11
916.542767
 21
978.369993
  0
LINE
  8
CSLAYER1
  6
CONTINUOUS
 62
     7
 10
916.542767
 20
978.369993
 11
914.539677
 21
981.413315
  0
LINE
  8
CSLAYER1
  6
CONTINUOUS
 62
     7
 10
914.539677
 20
981.413315
 11
912.122734
 21
984.335189
  0
LINE
  8
CSLAYER1
  6
CONTINUOUS
 62
     7
 10
912.122734
 20
984.335189
 11
909.310332
 21
987.113379
  0
LINE
  8
CSLAYER1
  6
CONTINUOUS
 62
     7
 10
909.310332
 20
987.113379
 11
906.123876
 21
989.726739
  0
LINE
  8
CSLAYER1
  6
CONTINUOUS
 62
     7
 10
906.123876
 20
989.726739
 11
902.587616
 21
992.155381
  0
LINE
  8
CSLAYER1
  6
CONTINUOUS
 62
     7
 10
902.587616
 20
992.155381
 11
898.728466
 21
994.380821
  0
LINE
  8
CSLAYER1
  6
CONTINUOUS
 62
     7
 10
898.728466
 20
994.380821
 11
894.575796
 21
996.386123
  0
LINE
  8
CSLAYER1
  6
CONTINUOUS
 62
     7
 10
894.575796
 20
996.386123
 11
890.161210
 21
998.156024
  0
LINE
  8
CSLAYER1
  6
CONTINUOUS
 62
     7
 10
890.161210
 20
998.156024
 11
885.518305
 21
999.677056
  0
LINE
  8
CSLAYER1
  6
CONTINUOUS
 62
     7
 10
885.518305
 20
999.677056
 11
880.682418
 21
1000.937641
  0
LINE
  8
CSLAYER1
  6
CONTINUOUS
 62
     7
 10
880.682418
 20
1000.937641
 11
875.690352
 21
1001.928187
  0
LINE
  8
CSLAYER1
  6
CONTINUOUS
 62
     7
 10
875.690352
 20
1001.928187
 11
870.580100
 21
1002.641154
  0
LINE
  8
CSLAYER1
  6
CONTINUOUS
 62
     7
 10
870.580100
 20
1002.641154
 11
865.390554
 21
1003.071116
  0
LINE
  8
CSLAYER1
  6
CONTINUOUS
 62
     7
 10
865.390554
 20
1003.071116
 11
860.161210
 21
1003.214801
  0
LINE
  8
CSLAYER1
  6
CONTINUOUS
 62
     7
 10
860.161210
 20
1003.214801
 11
854.931865
 21
1003.071116
  0
LINE
  8
CSLAYER1
  6
CONTINUOUS
 62
     7
 10
854.931865
 20
1003.071116
 11
849.742319
 21
1002.641154
  0
LINE
  8
CSLAYER1
  6
CONTINUOUS
 62
     7
 10
849.742319
 20
1002.641154
 11
844.632067
 21
1001.928187
  0
LINE
  8
CSLAYER1
  6
CONTINUOUS
 62
     7
 10
844.632067
 20
1001.928187
 11
839.640001
 21
1000.937641
  0
LINE
  8
CSLAYER1
  6
CONTINUOUS
 62
     7
 10
839.640001
 20
1000.937641
 11
834.804114
 21
999.677056
  0
LINE
  8
CSLAYER1
  6
CONTINUOUS
 62
     7
 10
834.804114
 20
999.677056
 11
830.161210
 21
998.156024
  0
LINE
  8
CSLAYER1
  6
CONTINUOUS
 62
     7
 10
830.161210
 20
998.156024
 11
825.746623
 21
996.386123
  0
LINE
  8
CSLAYER1
  6
CONTINUOUS
 62
     7
 10
825.746623
 20
996.386123
 11
821.593953
 21
994.380821
  0
LINE
  8
CSLAYER1
  6
CONTINUOUS
 62
     7
 10
821.593953
 20
994.380821
 11
817.734803
 21
992.155381
  0
LINE
  8
CSLAYER1
  6
CONTINUOUS
 62
     7
 10
817.734803
 20
992.155381
 11
814.198543
 21
989.726739
  0
LINE
  8
CSLAYER1
  6
CONTINUOUS
 62
     7
 10
814.198543
 20
989.726739
 11
811.012087
 21
987.113379
  0
LINE
  8
CSLAYER1
  6
CONTINUOUS
 62
     7
 10
811.012087
 20
987.113379
 11
808.199685
 21
984.335189
  0
LINE
  8
CSLAYER1
  6
CONTINUOUS
 62
     7
 10
808.199685
 20
984.335189
 11
805.782742
 21
981.413315
  0
LINE
  8
CSLAYER1
  6
CONTINUOUS
 62
     7
 10
805.782742
 20
981.413315
 11
803.779652
 21
978.369993
  0
LINE
  8
CSLAYER1
  6
CONTINUOUS
 62
     7
 10
803.779652
 20
978.369993
 11
802.205660
 21
975.228384
  0
LINE
  8
CSLAYER1
  6
CONTINUOUS
 62
     7
 10
802.205660
 20
975.228384
 11
801.072744
 21
972.012398
  0
LINE
  8
CSLAYER1
  6
CONTINUOUS
 62
     7
 10
801.072744
 20
972.012398
 11
800.389528
 21
968.746511
  0
LINE
  8
CSLAYER1
  6
CONTINUOUS
 62
     7
 10
800.389528
 20
968.746511
 11
800.161210
 21
965.455578
  0
LINE
  8
CSLAYER1
  6
CONTINUOUS
 62
     7
 10
914.161210
 20
1005.930094
 11
914.161210
 21
981.870849
  0
LINE
  8
CSLAYER1
  6
CONTINUOUS
 62
     7
 10
912.161210
 20
872.219139
 11
912.161210
 21
983.493568
  0
LINE
  8
CSLAYER1
  6
CONTINUOUS
 62
     7
 10
892.161210
 20
884.426774
 11
892.161210
 21
997.354182
  0
LINE
  8
CSLAYER1
  6
CONTINUOUS
 62
     7
 10
885.161210
 20
886.712844
 11
885.161210
 21
999.770141
  0
LINE
  8
CSLAYER1
  6
CONTINUOUS
 62
     7
 10
877.161210
 20
888.536455
 11
877.161210
 21
1001.636334
  0
LINE
  8
CSLAYER1
  6
CONTINUOUS
 62
     7
 10
806.161210
 20
1005.930094
 11
806.161210
 21
982.091015
  0
LINE
  8
CSLAYER1
  6
CONTINUOUS
 62
     7
 10
800.161210
 20
965.455578
 11
800.161210
 21
860.816168
  0
LINE
  8
CSLAYER1
  6
CONTINUOUS
 62
     7
 10
920.161210
 20
965.455578
 11
920.161210
 21
860.098168
  0
LINE
  8
CSLAYER1
  6
CONTINUOUS
 62
     7
 10
843.161210
 20
888.536455
 11
843.161210
 21
1001.636334
  0
LINE
  8
CSLAYER1
  6
CONTINUOUS
 62
     7
 10
835.161210
 20
886.712844
 11
835.161210
 21
999.770141
  0
LINE
  8
CSLAYER1
  6
CONTINUOUS
 62
     7
 10
828.161210
 20
884.426774
 11
828.161210
 21
997.354182
  0
LINE
  8
CSLAYER1
  6
CONTINUOUS
 62
     7
 10
808.161210
 20
872.219139
 11
808.161210
 21
983.493568
  0
LINE
  8
CSLAYER1
  6
CONTINUOUS
 62
     5
 10
906.111210
 20
1045.505433
 11
906.111210
 21
1026.949528
  0
LINE
  8
CSLAYER1
  6
CONTINUOUS
 62
     7
 10
917.324456
 20
976.809781
 11
926.161210
 21
976.809781
  0
LINE
  8
CSLAYER1
  6
CONTINUOUS
 62
     7
 10
905.161210
 20
1050.578992
 11
815.161210
 21
1050.578992
  0
LINE
  8
CSLAYER1
  6
CONTINUOUS
 62
     7
 10
905.161210
 20
1040.460363
 11
815.161210
 21
1040.460363
  0
LINE
  8
CSLAYER1
  6
CONTINUOUS
 62
     7
 10
915.161210
 20
1040.578992
 11
915.161210
 21
980.469012
  0
ARC
  8
CSLAYER1
  6
CONTINUOUS
 62
     7
 10
905.161210
 20
1040.578992
 40
10.000000
 50
0.000000
 51
90.000000
  0
ARC
  8
CSLAYER1
  6
CONTINUOUS
 62
     7
 10
905.161210
 20
1030.460363
 40
10.000000
 50
0.000000
 51
90.000000
  0
LINE
  8
CSLAYER1
  6
CONTINUOUS
 62
     5
 10
898.286928
 20
1034.786061
 11
911.798509
 21
1034.786061
  0
LINE
  8
CSLAYER1
  6
CONTINUOUS
 62
     5
 10
814.211210
 20
1045.505433
 11
814.211210
 21
1026.949528
  0
ARC
  8
CSLAYER1
  6
CONTINUOUS
 62
     7
 10
815.161210
 20
1040.578992
 40
10.000000
 50
90.000000
 51
180.000000
  0
ARC
  8
CSLAYER1
  6
CONTINUOUS
 62
     7
 10
815.161210
 20
1030.460363
 40
10.000000
 50
90.000000
 51
180.000000
  0
LINE
  8
CSLAYER1
  6
CONTINUOUS
 62
     7
 10
805.161210
 20
1040.578992
 11
805.161210
 21
980.469012
  0
LINE
  8
CSLAYER1
  6
CONTINUOUS
 62
     7
 10
922.161210
 20
806.670937
 11
921.925281
 21
810.071568
  0
LINE
  8
CSLAYER1
  6
CONTINUOUS
 62
     7
 10
921.925281
 20
810.071568
 11
921.219290
 21
813.446318
  0
LINE
  8
CSLAYER1
  6
CONTINUOUS
 62
     7
 10
921.219290
 20
813.446318
 11
920.048611
 21
816.769504
  0
LINE
  8
CSLAYER1
  6
CONTINUOUS
 62
     7
 10
920.048611
 20
816.769504
 11
918.422152
 21
820.015833
  0
LINE
  8
CSLAYER1
  6
CONTINUOUS
 62
     7
 10
918.422152
 20
820.015833
 11
916.352292
 21
823.160599
  0
LINE
  8
CSLAYER1
  6
CONTINUOUS
 62
     7
 10
916.352292
 20
823.160599
 11
913.854785
 21
826.179869
  0
LINE
  8
CSLAYER1
  6
CONTINUOUS
 62
     7
 10
913.854785
 20
826.179869
 11
910.948636
 21
829.050665
  0
LINE
  8
CSLAYER1
  6
CONTINUOUS
 62
     7
 10
910.948636
 20
829.050665
 11
907.655965
 21
831.751137
  0
LINE
  8
CSLAYER1
  6
CONTINUOUS
 62
     7
 10
907.655965
 20
831.751137
 11
904.001830
 21
834.260734
  0
LINE
  8
CSLAYER1
  6
CONTINUOUS
 62
     7
 10
904.001830
 20
834.260734
 11
900.014041
 21
836.560355
  0
LINE
  8
CSLAYER1
  6
CONTINUOUS
 62
     7
 10
900.014041
 20
836.560355
 11
895.722949
 21
838.632501
  0
LINE
  8
CSLAYER1
  6
CONTINUOUS
 62
     7
 10
895.722949
 20
838.632501
 11
891.161210
 21
840.461399
  0
LINE
  8
CSLAYER1
  6
CONTINUOUS
 62
     7
 10
891.161210
 20
840.461399
 11
886.363542
 21
842.033131
  0
LINE
  8
CSLAYER1
  6
CONTINUOUS
 62
     7
 10
886.363542
 20
842.033131
 11
881.366458
 21
843.335736
  0
LINE
  8
CSLAYER1
  6
CONTINUOUS
 62
     7
 10
881.366458
 20
843.335736
 11
876.207990
 21
844.359300
  0
LINE
  8
CSLAYER1
  6
CONTINUOUS
 62
     7
 10
876.207990
 20
844.359300
 11
870.927397
 21
845.096032
  0
LINE
  8
CSLAYER1
  6
CONTINUOUS
 62
     7
 10
870.927397
 20
845.096032
 11
865.564866
 21
845.540327
  0
LINE
  8
CSLAYER1
  6
CONTINUOUS
 62
     7
 10
865.564866
 20
845.540327
 11
860.161210
 21
845.688802
  0
LINE
  8
CSLAYER1
  6
CONTINUOUS
 62
     7
 10
860.161210
 20
845.688802
 11
854.757554
 21
845.540327
  0
LINE
  8
CSLAYER1
  6
CONTINUOUS
 62
     7
 10
854.757554
 20
845.540327
 11
849.395023
 21
845.096032
  0
LINE
  8
CSLAYER1
  6
CONTINUOUS
 62
     7
 10
849.395023
 20
845.096032
 11
844.114429
 21
844.359300
  0
LINE
  8
CSLAYER1
  6
CONTINUOUS
 62
     7
 10
844.114429
 20
844.359300
 11
838.955961
 21
843.335736
  0
LINE
  8
CSLAYER1
  6
CONTINUOUS
 62
     7
 10
838.955961
 20
843.335736
 11
833.958877
 21
842.033131
  0
LINE
  8
CSLAYER1
  6
CONTINUOUS
 62
     7
 10
833.958877
 20
842.033131
 11
829.161210
 21
840.461399
  0
LINE
  8
CSLAYER1
  6
CONTINUOUS
 62
     7
 10
829.161210
 20
840.461399
 11
824.599471
 21
838.632501
  0
LINE
  8
CSLAYER1
  6
CONTINUOUS
 62
     7
 10
824.599471
 20
838.632501
 11
820.308378
 21
836.560355
  0
LINE
  8
CSLAYER1
  6
CONTINUOUS
 62
     7
 10
820.308378
 20
836.560355
 11
816.320589
 21
834.260734
  0
LINE
  8
CSLAYER1
  6
CONTINUOUS
 62
     7
 10
816.320589
 20
834.260734
 11
812.666454
 21
831.751137
  0
LINE
  8
CSLAYER1
  6
CONTINUOUS
 62
     7
 10
812.666454
 20
831.751137
 11
809.373783
 21
829.050665
  0
LINE
  8
CSLAYER1
  6
CONTINUOUS
 62
     7
 10
809.373783
 20
829.050665
 11
806.467635
 21
826.179869
  0
LINE
  8
CSLAYER1
  6
CONTINUOUS
 62
     7
 10
806.467635
 20
826.179869
 11
803.970127
 21
823.160599
  0
LINE
  8
CSLAYER1
  6
CONTINUOUS
 62
     7
 10
803.970127
 20
823.160599
 11
801.900267
 21
820.015833
  0
LINE
  8
CSLAYER1
  6
CONTINUOUS
 62
     7
 10
801.900267
 20
820.015833
 11
800.273808
 21
816.769504
  0
LINE
  8
CSLAYER1
  6
CONTINUOUS
 62
     7
 10
800.273808
 20
816.769504
 11
799.103129
 21
813.446318
  0
LINE
  8
CSLAYER1
  6
CONTINUOUS
 62
     7
 10
799.103129
 20
813.446318
 11
798.397138
 21
810.071568
  0
LINE
  8
CSLAYER1
  6
CONTINUOUS
 62
     7
 10
798.397138
 20
810.071568
 11
798.161210
 21
806.670937
  0
LINE
  8
CSLAYER1
  6
CONTINUOUS
 62
     7
 10
798.161210
 20
806.670937
 11
798.397138
 21
803.270306
  0
LINE
  8
CSLAYER1
  6
CONTINUOUS
 62
     7
 10
922.161210
 20
851.037234
 11
921.925281
 21
854.437865
  0
LINE
  8
CSLAYER1
  6
CONTINUOUS
 62
     7
 10
921.925281
 20
854.437865
 11
921.219290
 21
857.812615
  0
LINE
  8
CSLAYER1
  6
CONTINUOUS
 62
     7
 10
921.219290
 20
857.812615
 11
920.048611
 21
861.135800
  0
LINE
  8
CSLAYER1
  6
CONTINUOUS
 62
     7
 10
920.048611
 20
861.135800
 11
918.422152
 21
864.382129
  0
LINE
  8
CSLAYER1
  6
CONTINUOUS
 62
     7
 10
918.422152
 20
864.382129
 11
916.352292
 21
867.526896
  0
LINE
  8
CSLAYER1
  6
CONTINUOUS
 62
     7
 10
916.352292
 20
867.526896
 11
913.854785
 21
870.546166
  0
LINE
  8
CSLAYER1
  6
CONTINUOUS
 62
     7
 10
913.854785
 20
870.546166
 11
910.948636
 21
873.416961
  0
LINE
  8
CSLAYER1
  6
CONTINUOUS
 62
     7
 10
910.948636
 20
873.416961
 11
907.655965
 21
876.117434
  0
LINE
  8
CSLAYER1
  6
CONTINUOUS
 62
     7
 10
907.655965
 20
876.117434
 11
904.001830
 21
878.627030
  0
LINE
  8
CSLAYER1
  6
CONTINUOUS
 62
     7
 10
904.001830
 20
878.627030
 11
900.014041
 21
880.926652
  0
LINE
  8
CSLAYER1
  6
CONTINUOUS
 62
     7
 10
900.014041
 20
880.926652
 11
895.722949
 21
882.998797
  0
LINE
  8
CSLAYER1
  6
CONTINUOUS
 62
     7
 10
895.722949
 20
882.998797
 11
891.161210
 21
884.827696
  0
LINE
  8
CSLAYER1
  6
CONTINUOUS
 62
     7
 10
891.161210
 20
884.827696
 11
886.363542
 21
886.399428
  0
LINE
  8
CSLAYER1
  6
CONTINUOUS
 62
     7
 10
886.363542
 20
886.399428
 11
881.366458
 21
887.702033
  0
LINE
  8
CSLAYER1
  6
CONTINUOUS
 62
     7
 10
881.366458
 20
887.702033
 11
876.207990
 21
888.725597
  0
LINE
  8
CSLAYER1
  6
CONTINUOUS
 62
     7
 10
876.207990
 20
888.725597
 11
870.927397
 21
889.462329
  0
LINE
  8
CSLAYER1
  6
CONTINUOUS
 62
     7
 10
870.927397
 20
889.462329
 11
865.564866
 21
889.906623
  0
LINE
  8
CSLAYER1
  6
CONTINUOUS
 62
     7
 10
865.564866
 20
889.906623
 11
860.161210
 21
890.055098
  0
LINE
  8
CSLAYER1
  6
CONTINUOUS
 62
     7
 10
860.161210
 20
890.055098
 11
854.757554
 21
889.906623
  0
LINE
  8
CSLAYER1
  6
CONTINUOUS
 62
     7
 10
854.757554
 20
889.906623
 11
849.395023
 21
889.462329
  0
LINE
  8
CSLAYER1
  6
CONTINUOUS
 62
     7
 10
849.395023
 20
889.462329
 11
844.114429
 21
888.725597
  0
LINE
  8
CSLAYER1
  6
CONTINUOUS
 62
     7
 10
844.114429
 20
888.725597
 11
838.955961
 21
887.702033
  0
LINE
  8
CSLAYER1
  6
CONTINUOUS
 62
     7
 10
838.955961
 20
887.702033
 11
833.958877
 21
886.399428
  0
LINE
  8
CSLAYER1
  6
CONTINUOUS
 62
     7
 10
833.958877
 20
886.399428
 11
829.161210
 21
884.827696
  0
LINE
  8
CSLAYER1
  6
CONTINUOUS
 62
     7
 10
829.161210
 20
884.827696
 11
824.599471
 21
882.998797
  0
LINE
  8
CSLAYER1
  6
CONTINUOUS
 62
     7
 10
824.599471
 20
882.998797
 11
820.308378
 21
880.926652
  0
LINE
  8
CSLAYER1
  6
CONTINUOUS
 62
     7
 10
820.308378
 20
880.926652
 11
816.320589
 21
878.627030
  0
LINE
  8
CSLAYER1
  6
CONTINUOUS
 62
     7
 10
816.320589
 20
878.627030
 11
812.666454
 21
876.117434
  0
LINE
  8
CSLAYER1
  6
CONTINUOUS
 62
     7
 10
812.666454
 20
876.117434
 11
809.373783
 21
873.416961
  0
LINE
  8
CSLAYER1
  6
CONTINUOUS
 62
     7
 10
809.373783
 20
873.416961
 11
806.467635
 21
870.546166
  0
LINE
  8
CSLAYER1
  6
CONTINUOUS
 62
     7
 10
806.467635
 20
870.546166
 11
803.970127
 21
867.526896
  0
LINE
  8
CSLAYER1
  6
CONTINUOUS
 62
     7
 10
803.970127
 20
867.526896
 11
801.900267
 21
864.382129
  0
LINE
  8
CSLAYER1
  6
CONTINUOUS
 62
     7
 10
801.900267
 20
864.382129
 11
800.273808
 21
861.135800
  0
LINE
  8
CSLAYER1
  6
CONTINUOUS
 62
     7
 10
800.273808
 20
861.135800
 11
799.103129
 21
857.812615
  0
LINE
  8
CSLAYER1
  6
CONTINUOUS
 62
     7
 10
799.103129
 20
857.812615
 11
798.397138
 21
854.437865
  0
LINE
  8
CSLAYER1
  6
CONTINUOUS
 62
     7
 10
798.397138
 20
854.437865
 11
798.161210
 21
851.037234
  0
LINE
  8
CSLAYER1
  6
CONTINUOUS
 62
     5
 10
926.031789
 20
916.509987
 11
941.590626
 21
916.509987
  0
LINE
  8
CSLAYER1
  6
CONTINUOUS
 62
     5
 10
933.661210
 20
907.824496
 11
933.661210
 21
925.648186
  0
LINE
  8
CSLAYER1
  6
CONTINUOUS
 62
     7
 10
924.126640
 20
827.495297
 11
942.161210
 21
827.495297
  0
LINE
  8
CSLAYER1
  6
CONTINUOUS
 62
     7
 10
924.126640
 20
928.009987
 11
942.161210
 21
928.009987
  0
LINE
  8
CSLAYER1
  6
CONTINUOUS
 62
     7
 10
945.161210
 20
925.009987
 11
945.161210
 21
830.495297
  0
LINE
  8
CSLAYER1
  6
CONTINUOUS
 62
     7
 10
924.126640
 20
827.495297
 11
924.126640
 21
928.009987
  0
LINE
  8
CSLAYER1
  6
CONTINUOUS
 62
     7
 10
921.713760
 20
855.448968
 11
924.126640
 21
855.448968
  0
CIRCLE
  8
CSLAYER1
  6
CONTINUOUS
 62
     7
 10
933.661210
 20
916.509987
 40
6.250000
  0
LINE
  8
CSLAYER1
  6
CONTINUOUS
 62
     7
 10
920.161210
 20
882.429879
 11
924.126640
 21
882.429879
  0
ARC
  8
CSLAYER1
  6
CONTINUOUS
 62
     7
 10
942.161210
 20
830.495297
 40
3.000000
 50
270.000000
 51
360.000000
  0
ARC
  8
CSLAYER1
  6
CONTINUOUS
 62
     7
 10
942.161210
 20
925.009987
 40
3.000000
 50
0.000000
 51
90.000000
  0
LINE
  8
CSLAYER1
  6
CONTINUOUS
 62
     7
 10
922.161210
 20
851.037234
 11
922.161210
 21
806.670937
  0
LINE
  8
CSLAYER1
  6
CONTINUOUS
 62
     7
 10
798.161210
 20
851.037234
 11
798.161210
 21
806.670937
  0
LINE
  8
CSLAYER1
  6
CONTINUOUS
 62
     7
 10
924.126640
 20
866.909035
 11
945.161210
 21
866.909035
  0
LINE
  8
CSLAYER1
  6
CONTINUOUS
 62
     7
 10
922.161210
 20
806.670937
 11
921.925281
 21
803.270306
  0
LINE
  8
CSLAYER1
  6
CONTINUOUS
 62
     7
 10
921.925281
 20
803.270306
 11
921.219290
 21
799.895556
  0
LINE
  8
CSLAYER1
  6
CONTINUOUS
 62
     7
 10
921.219290
 20
799.895556
 11
920.048611
 21
796.572371
  0
LINE
  8
CSLAYER1
  6
CONTINUOUS
 62
     7
 10
920.048611
 20
796.572371
 11
918.422152
 21
793.326042
  0
LINE
  8
CSLAYER1
  6
CONTINUOUS
 62
     7
 10
918.422152
 20
793.326042
 11
916.352292
 21
790.181275
  0
LINE
  8
CSLAYER1
  6
CONTINUOUS
 62
     7
 10
916.352292
 20
790.181275
 11
913.854785
 21
787.162005
  0
LINE
  8
CSLAYER1
  6
CONTINUOUS
 62
     7
 10
913.854785
 20
787.162005
 11
910.948636
 21
784.291210
  0
LINE
  8
CSLAYER1
  6
CONTINUOUS
 62
     7
 10
910.948636
 20
784.291210
 11
907.655965
 21
781.590738
  0
LINE
  8
CSLAYER1
  6
CONTINUOUS
 62
     7
 10
907.655965
 20
781.590738
 11
904.001830
 21
779.081141
  0
LINE
  8
CSLAYER1
  6
CONTINUOUS
 62
     7
 10
904.001830
 20
779.081141
 11
900.014041
 21
776.781519
  0
LINE
  8
CSLAYER1
  6
CONTINUOUS
 62
     7
 10
900.014041
 20
776.781519
 11
895.722949
 21
774.709374
  0
LINE
  8
CSLAYER1
  6
CONTINUOUS
 62
     7
 10
895.722949
 20
774.709374
 11
891.161210
 21
772.880476
  0
LINE
  8
CSLAYER1
  6
CONTINUOUS
 62
     7
 10
891.161210
 20
772.880476
 11
886.363542
 21
771.308743
  0
LINE
  8
CSLAYER1
  6
CONTINUOUS
 62
     7
 10
886.363542
 20
771.308743
 11
881.366458
 21
770.006138
  0
LINE
  8
CSLAYER1
  6
CONTINUOUS
 62
     7
 10
881.366458
 20
770.006138
 11
876.207990
 21
768.982575
  0
LINE
  8
CSLAYER1
  6
CONTINUOUS
 62
     7
 10
876.207990
 20
768.982575
 11
870.927397
 21
768.245842
  0
LINE
  8
CSLAYER1
  6
CONTINUOUS
 62
     7
 10
870.927397
 20
768.245842
 11
865.564866
 21
767.801548
  0
LINE
  8
CSLAYER1
  6
CONTINUOUS
 62
     7
 10
865.564866
 20
767.801548
 11
860.161210
 21
767.653073
  0
LINE
  8
CSLAYER1
  6
CONTINUOUS
 62
     7
 10
860.161210
 20
767.653073
 11
854.757554
 21
767.801548
  0
LINE
  8
CSLAYER1
  6
CONTINUOUS
 62
     7
 10
854.757554
 20
767.801548
 11
849.395023
 21
768.245842
  0
LINE
  8
CSLAYER1
  6
CONTINUOUS
 62
     7
 10
849.395023
 20
768.245842
 11
844.114429
 21
768.982575
  0
LINE
  8
CSLAYER1
  6
CONTINUOUS
 62
     7
 10
844.114429
 20
768.982575
 11
838.955961
 21
770.006138
  0
LINE
  8
CSLAYER1
  6
CONTINUOUS
 62
     7
 10
838.955961
 20
770.006138
 11
833.958877
 21
771.308743
  0
LINE
  8
CSLAYER1
  6
CONTINUOUS
 62
     7
 10
833.958877
 20
771.308743
 11
829.161210
 21
772.880476
  0
LINE
  8
CSLAYER1
  6
CONTINUOUS
 62
     7
 10
829.161210
 20
772.880476
 11
824.599471
 21
774.709374
  0
LINE
  8
CSLAYER1
  6
CONTINUOUS
 62
     7
 10
824.599471
 20
774.709374
 11
820.308378
 21
776.781519
  0
LINE
  8
CSLAYER1
  6
CONTINUOUS
 62
     7
 10
820.308378
 20
776.781519
 11
816.320589
 21
779.081141
  0
LINE
  8
CSLAYER1
  6
CONTINUOUS
 62
     7
 10
816.320589
 20
779.081141
 11
812.666454
 21
781.590738
  0
LINE
  8
CSLAYER1
  6
CONTINUOUS
 62
     7
 10
812.666454
 20
781.590738
 11
809.373783
 21
784.291210
  0
LINE
  8
CSLAYER1
  6
CONTINUOUS
 62
     7
 10
809.373783
 20
784.291210
 11
806.467635
 21
787.162005
  0
LINE
  8
CSLAYER1
  6
CONTINUOUS
 62
     7
 10
806.467635
 20
787.162005
 11
803.970127
 21
790.181275
  0
LINE
  8
CSLAYER1
  6
CONTINUOUS
 62
     7
 10
803.970127
 20
790.181275
 11
801.900267
 21
793.326042
  0
LINE
  8
CSLAYER1
  6
CONTINUOUS
 62
     7
 10
801.900267
 20
793.326042
 11
800.273808
 21
796.572371
  0
LINE
  8
CSLAYER1
  6
CONTINUOUS
 62
     7
 10
800.273808
 20
796.572371
 11
799.103129
 21
799.895556
  0
LINE
  8
CSLAYER1
  6
CONTINUOUS
 62
     7
 10
799.103129
 20
799.895556
 11
798.397138
 21
803.270306
  0
LINE
  8
CSLAYER1
  6
CONTINUOUS
 62
     4
 10
992.361210
 20
710.914024
 11
992.361210
 21
716.958209
  0
LINE
  8
CSLAYER1
  6
CONTINUOUS
 62
     4
 10
1006.361210
 20
710.914024
 11
1006.361210
 21
716.958209
  0
LINE
  8
CSLAYER1
  6
CONTINUOUS
 62
     2
 10
995.861210
 20
728.942348
 11
1004.900392
 21
728.942348
  0
LINE
  8
CSLAYER1
  6
CONTINUOUS
 62
     4
 10
997.361210
 20
741.254084
 11
997.361210
 21
757.033067
  0
LINE
  8
CSLAYER1
  6
CONTINUOUS
 62
     4
 10
1001.361210
 20
741.254084
 11
1001.361210
 21
753.566401
  0
TEXT
  8
CSLAYER1
 62
     5
 10
1404.374878
 20
1163.073975
 40
60.000000
 41
0.782609
  1
ギヤードモ－ター
 50
0.000000
 51
0.000000
  7
EASYDRAW_FONT
 72
     5
 11
1764.374878
 21
1163.073975
  0
LINE
  8
CSLAYER1
  6
CONTINUOUS
 62
     5
 10
1772.059859
 20
1153.453974
 11
1397.532851
 21
1153.453974
  0
TEXT
  8
CSLAYER1
 62
     5
 10
3588.526367
 20
628.527649
 40
60.000000
 41
0.843750
  1
Ｆ.Ｌ
 50
0.000000
 51
0.000000
  7
EASYDRAW_FONT
 72
     5
 11
3723.526367
 21
628.527649
  0
TEXT
  8
CSLAYER1
 62
     5
 10
1168.185669
 20
949.237610
 40
60.000000
 41
0.769737
  1
上限・下限リミットスイッチ
 50
0.000000
 51
0.000000
  7
EASYDRAW_FONT
 72
     5
 11
1753.185669
 21
949.237610
  0
LINE
  8
CSLAYER1
  6
CONTINUOUS
 62
     5
 10
1826.676782
 20
879.394057
 11
1772.059859
 21
1153.453974
  0
LINE
  8
CSLAYER1
  6
CONTINUOUS
 62
     5
 10
1826.676782
 20
879.394057
 11
1806.759200
 21
919.746131
  0
LINE
  8
CSLAYER1
  6
CONTINUOUS
 62
     5
 10
1826.676782
 20
879.394057
 11
1829.603687
 21
924.298769
  0
LINE
  8
CSLAYER1
  6
CONTINUOUS
 62
     5
 10
1166.131143
 20
941.142812
 11
1754.733507
 21
941.142812
  0
LINE
  8
CSLAYER1
  6
CONTINUOUS
 62
     5
 10
1005.077496
 20
757.366109
 11
1166.131143
 21
941.142812
  0
LINE
  8
CSLAYER1
  6
CONTINUOUS
 62
     5
 10
1005.077496
 20
757.366109
 11
1024.966305
 21
797.732372
  0
LINE
  8
CSLAYER1
  6
CONTINUOUS
 62
     5
 10
1005.077496
 20
757.366109
 11
1042.484842
 21
782.379914
  0
LINE
  8
CSLAYER1
  6
CONTINUOUS
 62
     5
 10
2203.161732
 20
1154.168315
 11
2266.136665
 21
1154.168315
  0
LINE
  8
CSLAYER1
  6
CONTINUOUS
 62
     5
 10
2234.607159
 20
1185.683996
 11
2234.607159
 21
1126.473013
  0
LINE
  8
CSLAYER1
  6
CONTINUOUS
 62
     5
 10
3562.842591
 20
2978.137491
 11
3660.731057
 21
3273.185250
  0
LINE
  8
CSLAYER1
  6
CONTINUOUS
 62
     5
 10
3562.842591
 20
2978.137491
 11
3565.475609
 21
3023.060394
  0
LINE
  8
CSLAYER1
  6
CONTINUOUS
 62
     5
 10
3562.842591
 20
2978.137491
 11
3587.584303
 21
3015.725357
  0
LINE
  8
CSLAYER1
  6
CONTINUOUS
 62
     5
 10
3660.731057
 20
3273.185250
 11
3969.087206
 21
3273.185250
  0
LINE
  8
CSLAYER1
  6
CONTINUOUS
 62
     3
 10
820.161210
 20
718.752279
 11
820.161210
 21
685.252279
  0
LINE
  8
CSLAYER1
  6
CONTINUOUS
 62
     3
 10
818.161210
 20
718.752279
 11
818.161210
 21
724.752279
  0
LINE
  8
CSLAYER1
  6
CONTINUOUS
 62
     3
 10
818.161210
 20
724.752279
 11
993.311275
 21
724.752279
  0
LINE
  8
CSLAYER1
  6
CONTINUOUS
 62
     3
 10
818.161210
 20
718.752279
 11
820.161210
 21
718.752279
  0
INSERT
  8
CSLAYER1
  2
BLKF0001
 10
0.0
 20
0.0
 30
0.0
  0
LINE
  8
CSLAYER1
  6
CONTINUOUS
 62
     5
 10
820.161210
 20
718.752279
 11
992.579899
 21
718.752279
  0
LINE
  8
CSLAYER1
  6
CONTINUOUS
 62
     3
 10
3173.434622
 20
718.752279
 11
3173.434622
 21
685.252279
  0
LINE
  8
CSLAYER1
  6
CONTINUOUS
 62
     3
 10
3034.034622
 20
718.752279
 11
3034.034622
 21
685.252279
  0
LINE
  8
CSLAYER1
  6
CONTINUOUS
 62
     5
 10
3103.734622
 20
732.541908
 11
3103.734622
 21
720.842333
  0
LINE
  8
CSLAYER1
  6
CONTINUOUS
 62
     3
 10
3175.234622
 20
724.752279
 11
3032.234622
 21
724.752279
  0
LINE
  8
CSLAYER1
  6
CONTINUOUS
 62
     3
 10
3175.234622
 20
718.752279
 11
3173.434622
 21
718.752279
  0
LINE
  8
CSLAYER1
  6
CONTINUOUS
 62
     3
 10
3175.234622
 20
724.752279
 11
3175.234622
 21
718.752279
  0
LINE
  8
CSLAYER1
  6
CONTINUOUS
 62
     3
 10
3032.234622
 20
724.752279
 11
3032.234622
 21
718.752279
  0
LINE
  8
CSLAYER1
  6
CONTINUOUS
 62
     5
 10
3203.434622
 20
709.052279
 11
3203.434622
 21
692.052279
  0
LINE
  8
CSLAYER1
  6
CONTINUOUS
 62
     5
 10
3199.465056
 20
713.542660
 11
3184.837185
 21
713.542660
  0
LINE
  8
CSLAYER1
  6
CONTINUOUS
 62
     5
 10
3200.325528
 20
712.052279
 11
3200.325528
 21
689.052279
  0
LINE
  8
CSLAYER1
  6
CONTINUOUS
 62
     5
 10
3183.976713
 20
712.052279
 11
3183.976713
 21
689.052279
  0
LINE
  8
CSLAYER1
  6
CONTINUOUS
 62
     5
 10
3200.325528
 20
712.052279
 11
3199.465056
 21
713.542660
  0
LINE
  8
CSLAYER1
  6
CONTINUOUS
 62
     5
 10
3183.976713
 20
712.052279
 11
3184.837185
 21
713.542660
  0
LINE
  8
CSLAYER1
  6
CONTINUOUS
 62
     5
 10
3199.465056
 20
707.191808
 11
3184.837185
 21
707.191808
  0
ARC
  8
CSLAYER1
  6
CONTINUOUS
 62
     5
 10
3174.279503
 20
700.552279
 40
26.046025
 50
-14.768561
 51
14.768561
  0
ARC
  8
CSLAYER1
  6
CONTINUOUS
 62
     5
 10
3194.193934
 20
710.367234
 40
6.153702
 50
-31.065581
 51
23.174644
  0
ARC
  8
CSLAYER1
  6
CONTINUOUS
 62
     5
 10
3190.108307
 20
710.367234
 40
6.153702
 50
156.825356
 51
211.065581
  0
ARC
  8
CSLAYER1
  6
CONTINUOUS
 62
     5
 10
3210.022738
 20
700.552279
 40
26.046025
 50
165.231439
 51
194.768561
  0
LINE
  8
CSLAYER1
  6
CONTINUOUS
 62
     5
 10
3200.434622
 20
712.052279
 11
3200.325528
 21
712.052279
  0
ARC
  8
CSLAYER1
  6
CONTINUOUS
 62
     5
 10
3200.434622
 20
709.052279
 40
3.000000
 50
0.000000
 51
90.000000
  0
LINE
  8
CSLAYER1
  6
CONTINUOUS
 62
     5
 10
3180.434622
 20
712.052279
 11
3180.434622
 21
689.052279
  0
LINE
  8
CSLAYER1
  6
CONTINUOUS
 62
     5
 10
3180.434622
 20
712.052279
 11
3179.574150
 21
713.542660
  0
ARC
  8
CSLAYER1
  6
CONTINUOUS
 62
     5
 10
3154.388597
 20
700.552279
 40
26.046025
 50
-14.768561
 51
14.768561
  0
ARC
  8
CSLAYER1
  6
CONTINUOUS
 62
     5
 10
3174.303029
 20
710.367234
 40
6.153702
 50
-31.065581
 51
23.174644
  0
LINE
  8
CSLAYER1
  6
CONTINUOUS
 62
     5
 10
3179.574150
 20
707.191808
 11
3173.434622
 21
707.191808
  0
LINE
  8
CSLAYER1
  6
CONTINUOUS
 62
     5
 10
3179.574150
 20
713.542660
 11
3173.434622
 21
713.542660
  0
LINE
  8
CSLAYER1
  6
CONTINUOUS
 62
     5
 10
3183.976713
 20
710.888404
 11
3180.434622
 21
710.888404
  0
LINE
  8
CSLAYER1
  6
CONTINUOUS
 62
     5
 10
3183.976713
 20
710.242026
 11
3182.370352
 21
710.242026
  0
LINE
  8
CSLAYER1
  6
CONTINUOUS
 62
     5
 10
3182.370352
 20
710.888404
 11
3182.370352
 21
690.216155
  0
LINE
  8
CSLAYER1
  6
CONTINUOUS
 62
     5
 10
3182.370352
 20
710.242026
 11
3181.235500
 21
710.888404
  0
LINE
  8
CSLAYER1
  6
CONTINUOUS
 62
     5
 10
3199.465056
 20
687.561898
 11
3184.837185
 21
687.561898
  0
LINE
  8
CSLAYER1
  6
CONTINUOUS
 62
     5
 10
3200.325528
 20
689.052279
 11
3199.465056
 21
687.561898
  0
LINE
  8
CSLAYER1
  6
CONTINUOUS
 62
     5
 10
3183.976713
 20
689.052279
 11
3184.837185
 21
687.561898
  0
LINE
  8
CSLAYER1
  6
CONTINUOUS
 62
     5
 10
3199.465056
 20
693.912751
 11
3184.837185
 21
693.912751
  0
ARC
  8
CSLAYER1
  6
CONTINUOUS
 62
     5
 10
3194.193934
 20
690.737325
 40
6.153702
 50
-23.174644
 51
31.065581
  0
ARC
  8
CSLAYER1
  6
CONTINUOUS
 62
     5
 10
3190.108307
 20
690.737325
 40
6.153702
 50
148.934419
 51
203.174644
  0
LINE
  8
CSLAYER1
  6
CONTINUOUS
 62
     5
 10
3200.434622
 20
689.052279
 11
3200.325528
 21
689.052279
  0
ARC
  8
CSLAYER1
  6
CONTINUOUS
 62
     5
 10
3200.434622
 20
692.052279
 40
3.000000
 50
270.000000
 51
360.000000
  0
LINE
  8
CSLAYER1
  6
CONTINUOUS
 62
     5
 10
3180.434622
 20
689.052279
 11
3179.574150
 21
687.561898
  0
ARC
  8
CSLAYER1
  6
CONTINUOUS
 62
     5
 10
3174.303029
 20
690.737325
 40
6.153702
 50
-23.174644
 51
31.065581
  0
LINE
  8
CSLAYER1
  6
CONTINUOUS
 62
     5
 10
3179.574150
 20
693.912751
 11
3173.434622
 21
693.912751
  0
LINE
  8
CSLAYER1
  6
CONTINUOUS
 62
     5
 10
3179.574150
 20
687.561898
 11
3173.434622
 21
687.561898
  0
LINE
  8
CSLAYER1
  6
CONTINUOUS
 62
     5
 10
3183.976713
 20
690.216155
 11
3180.434622
 21
690.216155
  0
LINE
  8
CSLAYER1
  6
CONTINUOUS
 62
     5
 10
3183.976713
 20
690.862533
 11
3182.370352
 21
690.862533
  0
LINE
  8
CSLAYER1
  6
CONTINUOUS
 62
     5
 10
3182.370352
 20
690.862533
 11
3181.235500
 21
690.216155
  0
LINE
  8
CSLAYER1
  6
CENTER
 62
     5
 10
3237.190644
 20
700.552279
 11
3173.434622
 21
700.552279
  0
LINE
  8
CSLAYER1
  6
CONTINUOUS
 62
     5
 10
3237.002603
 20
704.352279
 11
3203.434622
 21
704.352279
  0
LINE
  8
CSLAYER1
  6
CONTINUOUS
 62
     5
 10
3238.318891
 20
696.752279
 11
3203.434622
 21
696.752279
  0
INSERT
  8
CSLAYER1
  2
BLKF0002
 10
0.0
 20
0.0
 30
0.0
  0
LINE
  8
CSLAYER1
  6
CONTINUOUS
 62
     3
 10
3034.034622
 20
718.752279
 11
3032.234622
 21
718.752279
  0
LINE
  8
CSLAYER1
  6
CONTINUOUS
 62
     5
 10
3173.434622
 20
718.752279
 11
3034.034622
 21
718.752279
  0
LINE
  8
CSLAYER1
  6
CONTINUOUS
 62
     1
 10
990.661210
 20
727.752279
 11
990.661210
 21
725.552279
  0
LINE
  8
CSLAYER1
  6
CONTINUOUS
 62
     1
 10
993.530688
 20
726.552279
 11
990.661210
 21
726.552279
  0
LINE
  8
CSLAYER1
  6
CONTINUOUS
 62
     1
 10
995.861210
 20
729.152279
 11
992.061210
 21
729.152279
  0
LINE
  8
CSLAYER1
  6
CONTINUOUS
 62
     1
 10
989.661210
 20
725.552279
 11
989.661210
 21
724.752279
  0
LINE
  8
CSLAYER1
  6
CONTINUOUS
 62
     1
 10
993.408792
 20
725.552279
 11
989.661210
 21
725.552279
  0
ARC
  8
CSLAYER1
  6
CONTINUOUS
 62
     1
 10
992.061210
 20
727.752279
 40
1.400000
 50
90.000000
 51
180.000000
  0
LINE
  8
CSLAYER1
  6
CONTINUOUS
 62
     1
 10
993.495937
 20
726.267197
 11
992.815959
 21
726.552279
  0
TEXT
  8
CSLAYER1
 62
     5
 10
3749.039063
 20
3062.552490
 40
60.000000
 41
1.020000
  1
ＵＰ・ＤＯＷＮ
 50
360.000000
 51
0.000000
  7
EASYDRAW_FONT
 72
     5
 11
4157.039063
 21
3062.552490
  0
TEXT
  8
CSLAYER1
 62
     5
 10
3746.978027
 20
3143.966553
 40
60.000000
 41
1.020000
  1
フットスイッチ
 50
360.000000
 51
0.000000
  7
EASYDRAW_FONT
 72
     5
 11
4154.978027
 21
3143.966553
  0
LINE
  8
CSLAYER1
  6
CONTINUOUS
 62
     5
 10
3735.620190
 20
3131.025833
 11
4165.453050
 21
3131.025833
  0
LINE
  8
CSLAYER1
  6
CONTINUOUS
 62
     5
 10
3580.076475
 20
2852.552697
 11
3735.620190
 21
3131.025833
  0
LINE
  8
CSLAYER1
  6
CONTINUOUS
 62
     5
 10
3580.076475
 20
2852.552697
 11
3591.104603
 21
2896.180445
  0
LINE
  8
CSLAYER1
  6
CONTINUOUS
 62
     5
 10
3580.076475
 20
2852.552697
 11
3611.440988
 21
2884.821371
  0
TEXT
  8
CSLAYER1
 62
     4
 10
4015.730469
 20
1825.586670
 40
60.000000
 41
1.036364
  1
操作方式
 50
0.000000
 51
0.000000
  7
EASYDRAW_FONT
 72
     5
 11
4243.730469
 21
1825.586670
  0
TEXT
  8
CSLAYER1
 62
     4
 10
4438.192871
 20
1817.646729
 40
60.000000
 41
1.020000
  1
フットスイッチ
 50
0.000000
 51
0.000000
  7
EASYDRAW_FONT
 72
     5
 11
4846.192871
 21
1817.646729
  0
LINE
  8
CSLAYER1
  6
CONTINUOUS
 62
     5
 10
5082.426141
 20
1807.547676
 11
4001.117365
 21
1807.547676
  0
LINE
  8
CSLAYER1
  6
CONTINUOUS
 62
     5
 10
5082.426141
 20
1711.547678
 11
4001.117365
 21
1711.547678
  0
TEXT
  8
CSLAYER1
 62
     4
 10
4017.876953
 20
1726.477783
 40
60.000000
 41
0.872727
  1
モーター
 50
0.000000
 51
0.000000
  7
EASYDRAW_FONT
 72
     5
 11
4209.876953
 21
1726.477783
  0
LINE
  8
CSLAYER1
  6
CONTINUOUS
 62
     5
 10
5082.426141
 20
1615.547681
 11
4001.117365
 21
1615.547681
  0
LINE
  8
CSLAYER1
  6
CONTINUOUS
 62
     5
 10
5082.426141
 20
1423.547685
 11
3997.909612
 21
1423.547685
  0
LINE
  8
CSLAYER1
  6
CONTINUOUS
 62
     5
 10
5082.426141
 20
1327.547688
 11
4001.117365
 21
1327.547688
  0
LINE
  8
CSLAYER1
  6
CONTINUOUS
 62
     5
 10
5082.426141
 20
1231.547690
 11
4001.117365
 21
1231.547690
  0
TEXT
  8
CSLAYER1
 62
     4
 10
4021.749512
 20
1248.230225
 40
60.000000
 41
0.857143
  1
自  　重
 50
0.000000
 51
0.000000
  7
EASYDRAW_FONT
 72
     5
 11
4261.749512
 21
1248.230225
  0
TEXT
  8
CSLAYER1
 62
     4
 10
4026.173340
 20
1152.123779
 40
60.000000
 41
0.847059
  1
塗　装　色 
 50
0.000000
 51
0.000000
  7
EASYDRAW_FONT
 72
     5
 11
4314.173340
 21
1152.123779
  0
TEXT
  8
CSLAYER1
 62
     4
 10
4364.536621
 20
1727.852783
 40
60.000000
 41
0.819512
  1
３相ＡＣ２００Ｖ、0.4ＫＷ
 50
0.000000
 51
0.000000
  7
EASYDRAW_FONT
 72
     5
 11
5036.536621
 21
1727.852783
  0
TEXT
  8
CSLAYER1
 62
     4
 10
4561.011719
 20
1632.087646
 40
60.000000
 41
0.840000
  1
長サ  ４ ｍ
 50
0.000000
 51
0.000000
  7
EASYDRAW_FONT
 72
     5
 11
4897.011719
 21
1632.087646
  0
TEXT
  8
CSLAYER1
 62
     3
 10
4729.971191
 20
1251.079346
 40
60.000000
 41
0.847059
  1
２２６　Ｋｇ
 50
0.000000
 51
0.000000
  7
EASYDRAW_FONT
 72
     5
 11
5017.971191
 21
1251.079346
  0
LINE
  8
CSLAYER1
  6
CONTINUOUS
 62
     5
 10
5082.426141
 20
1519.547683
 11
4001.117365
 21
1519.547683
  0
TEXT
  8
CSLAYER1
 62
     4
 10
4019.251953
 20
1631.501709
 40
60.000000
 41
0.942857
  1
電源コード
 50
0.000000
 51
0.000000
  7
EASYDRAW_FONT
 72
     5
 11
4283.251953
 21
1631.501709
  0
TEXT
  8
CSLAYER1
 62
     4
 10
4019.894812
 20
1527.819778
 40
71.595306
 41
0.593339
  1
昇降時間 ３６秒（50HZ） ３０秒(60HZ)
 50
0.000000
 51
0.000000
  7
EASYDRAW_FONT
 72
     5
 11
5025.262415
 21
1527.819778
  0
TEXT
  8
CSLAYER1
 62
     4
 10
4021.846191
 20
1339.655029
 40
60.000000
 41
0.912766
  1
上昇端、下降端リミットスイッチ付
 50
0.000000
 51
0.000000
  7
EASYDRAW_FONT
 72
     5
 11
4879.846191
 21
1339.655029
  0
TEXT
  8
CSLAYER1
 62
     4
 10
4024.616075
 20
1436.650467
 40
68.819672
 41
0.605080
  1
最大使用頻度８０回／時間・最大起動頻度１０回／分
 50
0.000000
 51
0.000000
  7
EASYDRAW_FONT
 72
     5
 11
5010.129042
 21
1436.650467
  0
LINE
  8
CSLAYER1
  6
CONTINUOUS
 62
     5
 10
5082.426141
 20
1893.545682
 11
4001.117365
 21
1893.545682
  0
TEXT
  8
CSLAYER1
 62
     4
 10
4315.859863
 20
1911.146240
 40
60.000000
 41
0.825000
  1
マグネットスイッチ制御
 50
0.000000
 51
0.000000
  7
EASYDRAW_FONT
 72
     5
 11
4843.859863
 21
1911.146240
  0
TEXT
  8
CSLAYER1
 62
     4
 10
4021.279297
 20
1908.162354
 40
60.000000
 41
0.872727
  1
制御方式
 50
0.000000
 51
0.000000
  7
EASYDRAW_FONT
 72
     5
 11
4213.279297
 21
1908.162354
  0
LINE
  8
CSLAYER1
  6
CONTINUOUS
 62
     5
 10
5082.426141
 20
1135.547693
 11
4001.117365
 21
1135.547693
  0
TEXT
  8
CSLAYER1
 62
     4
 10
4489.070801
 20
1151.554565
 40
60.000000
 41
0.926087
  1
　１０Ｒ４／１３
 50
0.000000
 51
0.000000
  7
EASYDRAW_FONT
 72
     5
 11
4915.070801
 21
1151.554565
  0
TEXT
  8
CSLAYER1
 62
     3
 10
4015.730469
 20
2679.584717
 40
60.000000
 41
1.036364
  1
積載荷重
 50
0.000000
 51
0.000000
  7
EASYDRAW_FONT
 72
     5
 11
4243.730469
 21
2679.584717
  0
TEXT
  8
CSLAYER1
 62
     5
 10
3749.039063
 20
2992.090332
 40
60.000000
 41
1.020000
  1
コード長サ２ｍ
 50
360.000000
 51
0.000000
  7
EASYDRAW_FONT
 72
     5
 11
4157.039063
 21
2992.090332
  0
INSERT
  8
CSLAYER1
  2
BLKF0003
 10
0.0
 20
0.0
 30
0.0
  0
ENDSEC
  0
EOF
