  0
SECTION
  2
HEADER
  9
$ACADVER
  1
AC1006
  9
$INSBASE
 10
1108.227416
 20
2798.114496
 30
0.0
  9
$EXTMIN
 10
1108.227416
 20
2798.114496
  9
$EXTMAX
 10
6568.227416
 20
6653.114496
  9
$LIMMIN
 10
1108.227416
 20
2798.114496
  9
$LIMMAX
 10
6568.227416
 20
6653.114496
  9
$VIEWCTR
 10
3838.227416
 20
4725.614496
  9
$VIEWSIZE
 40
3855.000000
  9
$SNAPMODE
 70
     0
  9
$SNAPUNIT
 10
1.0
 20
1.0
  9
$SNAPBASE
 10
0.0
 20
0.0
  9
$SNAPANG
 50
0.0
  9
$SNAPSTYLE
 70
     0
  9
$SNAPISOPAIR
 70
     0
  9
$GRIDMODE
 70
     0
  9
$GRIDUNIT
 10
0.0
 20
0.0
  9
$ORTHOMODE
 70
     0
  9
$REGENMODE
 70
     1
  9
$FILLMODE
 70
     1
  9
$QTEXTMODE
 70
     0
  9
$DRAGMODE
 70
     2
  9
$LTSCALE
 40
15.000000
  9
$OSMODE
 70
     0
  9
$ATTMODE
 70
     1
  9
$TEXTSIZE
 40
0.2
  9
$TRACEWID
 40
0.05
  9
$TEXTSTYLE
  7
STANDARD
  9
$CLAYER
  8
CSLAYER1
  9
$CELTYPE
  6
BYLAYER
  9
$CECOLOR
 62
   256
  9
$DIMSCALE
 40
1.0
  9
$DIMASZ
 40
0.18
  9
$DIMEXO
 40
0.0625
  9
$DIMDLI
 40
0.38
  9
$DIMRND
 40
0.0
  9
$DIMDLE
 40
0.0
  9
$DIMEXE
 40
0.18
  9
$DIMTP
 40
0.0
  9
$DIMTM
 40
0.0
  9
$DIMTXT
 40
0.18
  9
$DIMCEN
 40
0.09
  9
$DIMTSZ
 40
0.0
  9
$DIMTOL
 70
     0
  9
$DIMLIM
 70
     0
  9
$DIMTIH
 70
     1
  9
$DIMTOH
 70
     1
  9
$DIMSE1
 70
     0
  9
$DIMSE2
 70
     0
  9
$DIMTAD
 70
     0
  9
$DIMZIN
 70
     0
  9
$DIMBLK
  1

  9
$LUNITS
 70
     2
  9
$LUPREC
 70
     4
  9
$AXISMODE
 70
     0
  9
$AXISUNIT
 10
0.0
 20
0.0
  9
$SKETCHINC
 40
0.1
  9
$FILLETRAD
 40
0.0
  9
$AUNITS
 70
     0
  9
$AUPREC
 70
     0
  9
$MENU
  1
ACAD
  9
$ELEVATION
 40
0.0
  9
$THICKNESS
 40
0.0
  9
$VIEWDIR
 10
0.0
 20
0.0
 30
1.0
  9
$LIMCHECK
 70
     0
  9
$BLIPMODE
 70
     1
  9
$CHAMFERA
 40
0.0
  9
$CHAMFERB
 40
0.0
  9
$FASTZOOM
 70
     1
  9
$SKPOLY
 70
     0
  9
$TDCREATE
 40
2457497.000000
  9
$TDUPDATE
 40
2457497.000000
  9
$TDINDWG
 40
0.0
  9
$TDUSRTIMER
 40
0.0
  9
$USRTIMER
 70
     1
  9
$ANGBASE
 50
0.0
  9
$ANGDIR
 70
     0
  9
$PDMODE
 70
     0
  9
$PDSIZE
 40
0.0
  9
$PLINEWID
 40
0.0
  9
$COORDS
 70
     0
  9
$USERI1
 70
     0
  9
$USERI2
 70
     0
  9
$USERI3
 70
     0
  9
$USERI4
 70
     0
  9
$USERI5
 70
     0
  9
$USERR1
 40
0.0
  9
$USERR2
 40
0.0
  9
$USERR3
 40
0.0
  9
$USERR4
 40
0.0
  9
$USERR5
 40
0.0
  0
ENDSEC
  0
SECTION
  2
TABLES
  0
TABLE
  2
LTYPE
 70
     9
  0
LTYPE
  2
CONTINUOUS
 70
    64
  3
Solid line
 72
    65
 73
     0
 40
0.0
  0
LTYPE
  2
DASHED
 70
    64
  3
__ __ __ __ __ __ __ __ __ __ __ __ __ __ __
 72
    65
 73
     2
 40
0.75
 49
0.5
 49
-0.25
  0
LTYPE
  2
HIDDEN
 70
    64
  3
_ _ _ _ _ _ _ _ _ _ _ _ _ _ _ _ _ _ _ _ _ _ _
 72
    65
 73
     2
 40
0.375
 49
0.25
 49
-0.125
  0
LTYPE
  2
DOT
 70
    64
  3
...............................................
 72
    65
 73
     2
 40
0.25
 49
0.0
 49
-0.25
  0
LTYPE
  2
DASHDOT
 70
    64
  3
__ . __ . __ . __ . __ . __ . __ . __ . __ . __
 72
    65
 73
     4
 40
1.0
 49
0.5
 49
-0.25
 49
0.0
 49
-0.25
  0
LTYPE
  2
DIVIDE
 70
    64
  3
__ . . __ . . __ . . __ . . __ . . __ . . __
 72
    65
 73
     6
 40
1.25
 49
0.5
 49
-0.25
 49
0.0
 49
-0.25
 49
0.0
 49
-0.25
  0
LTYPE
  2
CENTER
 70
    64
  3
____ _ ____ _ ____ _ ____ _ ____ _ ____ _ ____ 
 72
    65
 73
     4
 40
2.0
 49
1.25
 49
-0.25
 49
0.25
 49
-0.25
  0
LTYPE
  2
PHANTOM
 70
    64
  3
______  __  __  ______  __  __  ______  __  __ 
 72
    65
 73
     6
 40
2.5
 49
1.25
 49
-0.25
 49
0.25
 49
-0.25
 49
0.25
 49
-0.25
  0
LTYPE
  2
BORDER
 70
    64
  3
__ __ . __ __ . __ __ . __ __ . __ __ . __ __ .
 72
    65
 73
     6
 40
1.75
 49
0.5
 49
-0.25
 49
0.5
 49
-0.25
 49
0.0
 49
-0.25
  0
ENDTAB
  0
TABLE
  2
LAYER
 70
    16
  0
LAYER
  2
CSLAYER1
 70
    64
 62
     7
  6
CONTINUOUS
  0
LAYER
  2
CSLAYER2
 70
    64
 62
     7
  6
CONTINUOUS
  0
LAYER
  2
CSLAYER3
 70
    64
 62
     7
  6
CONTINUOUS
  0
LAYER
  2
CSLAYER4
 70
    64
 62
     7
  6
CONTINUOUS
  0
LAYER
  2
CSLAYER5
 70
    64
 62
     7
  6
CONTINUOUS
  0
LAYER
  2
CSLAYER6
 70
    64
 62
     7
  6
CONTINUOUS
  0
LAYER
  2
CSLAYER7
 70
    64
 62
     7
  6
CONTINUOUS
  0
LAYER
  2
CSLAYER8
 70
    64
 62
     7
  6
CONTINUOUS
  0
LAYER
  2
CSLAYER9
 70
    64
 62
     7
  6
CONTINUOUS
  0
LAYER
  2
CSLAYER10
 70
    64
 62
     7
  6
CONTINUOUS
  0
LAYER
  2
CSLAYER11
 70
    64
 62
     7
  6
CONTINUOUS
  0
LAYER
  2
CSLAYER12
 70
    64
 62
     7
  6
CONTINUOUS
  0
LAYER
  2
CSLAYER13
 70
    64
 62
     7
  6
CONTINUOUS
  0
LAYER
  2
CSLAYER14
 70
    64
 62
     7
  6
CONTINUOUS
  0
LAYER
  2
CSLAYER15
 70
    64
 62
     7
  6
CONTINUOUS
  0
LAYER
  2
CSLAYER16
 70
    64
 62
     7
  6
CONTINUOUS
  0
ENDTAB
  0
TABLE
  2
STYLE
 70
     1
  0
STYLE
  2
EASYDRAW_FONT
 70
     0
 40
1.0
 41
1.0
 50
0.0
 71
     0
 42
1.0
  3
monotxt
  4
bigfont
  0
ENDTAB
  0
TABLE
  2
VIEW
 70
     0
  0
ENDTAB
  0
ENDSEC
  0
SECTION
  2
BLOCKS
  0
BLOCK
  8
CSLAYER1
  2
*D0000
 70
    65
 10
0.0
 20
0.0
 30
0.0
  0
TEXT
  8
CSLAYER1
 62
     3
 10
3343.608887
 20
666.588867
 40
60.000000
 41
0.843750
  1
230
 50
90.000000
 51
0.000000
  7
EASYDRAW_FONT
 72
     5
 11
3343.608887
 21
801.588867
  0
LINE
  8
CSLAYER1
  6
CONTINUOUS
 62
     5
 10
3228.134035
 20
849.088848
 11
3373.609013
 21
849.088848
  0
LINE
  8
CSLAYER1
  6
CONTINUOUS
 62
     5
 10
3358.609013
 20
619.088848
 11
3358.609013
 21
849.088848
  0
LINE
  8
CSLAYER1
  6
CONTINUOUS
 62
     5
 10
3358.609013
 20
619.088848
 11
3346.962156
 21
662.555510
  0
LINE
  8
CSLAYER1
  6
CONTINUOUS
 62
     5
 10
3358.609013
 20
619.088848
 11
3370.255870
 21
662.555510
  0
LINE
  8
CSLAYER1
  6
CONTINUOUS
 62
     5
 10
3358.609013
 20
849.088848
 11
3346.962156
 21
805.622186
  0
LINE
  8
CSLAYER1
  6
CONTINUOUS
 62
     5
 10
3358.609013
 20
849.088848
 11
3370.255870
 21
805.622186
  0
ENDBLK
  8
0
  0
BLOCK
  8
CSLAYER1
  2
*D0001
 70
    65
 10
0.0
 20
0.0
 30
0.0
  0
TEXT
  8
CSLAYER1
 62
     3
 10
3343.608887
 20
1286.009888
 40
60.000000
 41
0.843750
  1
990
 50
90.000000
 51
0.000000
  7
EASYDRAW_FONT
 72
     5
 11
3343.608887
 21
1421.009888
  0
LINE
  8
CSLAYER1
  6
CONTINUOUS
 62
     5
 10
3358.609013
 20
849.088848
 11
3358.609013
 21
1857.930814
  0
LINE
  8
CSLAYER1
  6
CONTINUOUS
 62
     5
 10
3358.609013
 20
849.088848
 11
3346.962156
 21
892.555510
  0
LINE
  8
CSLAYER1
  6
CONTINUOUS
 62
     5
 10
3358.609013
 20
849.088848
 11
3370.255870
 21
892.555510
  0
LINE
  8
CSLAYER1
  6
CONTINUOUS
 62
     5
 10
3358.609013
 20
1857.930814
 11
3346.962156
 21
1814.464152
  0
LINE
  8
CSLAYER1
  6
CONTINUOUS
 62
     5
 10
3358.609013
 20
1857.930814
 11
3370.255870
 21
1814.464152
  0
ENDBLK
  8
0
  0
BLOCK
  8
CSLAYER1
  2
*D0002
 70
    65
 10
0.0
 20
0.0
 30
0.0
  0
TEXT
  8
CSLAYER1
 62
     3
 10
3486.178955
 20
1148.509888
 40
60.000000
 41
0.818182
  1
1220
 50
90.000000
 51
0.000000
  7
EASYDRAW_FONT
 72
     5
 11
3486.178955
 21
1328.509888
  0
LINE
  8
CSLAYER1
  6
CONTINUOUS
 62
     5
 10
3228.134087
 20
1857.930814
 11
3516.179148
 21
1857.930814
  0
LINE
  8
CSLAYER1
  6
CONTINUOUS
 62
     5
 10
3501.179148
 20
619.088848
 11
3501.179148
 21
1857.930814
  0
LINE
  8
CSLAYER1
  6
CONTINUOUS
 62
     5
 10
3501.179148
 20
619.088848
 11
3489.532291
 21
662.555510
  0
LINE
  8
CSLAYER1
  6
CONTINUOUS
 62
     5
 10
3501.179148
 20
619.088848
 11
3512.826005
 21
662.555510
  0
LINE
  8
CSLAYER1
  6
CONTINUOUS
 62
     5
 10
3501.179148
 20
1857.930814
 11
3489.532291
 21
1814.464152
  0
LINE
  8
CSLAYER1
  6
CONTINUOUS
 62
     5
 10
3501.179148
 20
1857.930814
 11
3512.826005
 21
1814.464152
  0
ENDBLK
  8
0
  0
BLOCK
  8
CSLAYER1
  2
*D0003
 70
    65
 10
0.0
 20
0.0
 30
0.0
  0
TEXT
  8
CSLAYER1
 62
     3
 10
2373.133789
 20
2015.050293
 40
60.000000
 41
0.818182
  1
1500
 50
0.000000
 51
0.000000
  7
EASYDRAW_FONT
 72
     5
 11
2553.133789
 21
2015.050293
  0
LINE
  8
CSLAYER1
  6
CONTINUOUS
 62
     5
 10
1713.134087
 20
1872.930814
 11
1713.134087
 21
2015.050515
  0
LINE
  8
CSLAYER1
  6
CONTINUOUS
 62
     5
 10
3213.134087
 20
1872.930814
 11
3213.134087
 21
2015.050515
  0
LINE
  8
CSLAYER1
  6
CONTINUOUS
 62
     5
 10
1713.134087
 20
2000.050515
 11
3213.134087
 21
2000.050515
  0
LINE
  8
CSLAYER1
  6
CONTINUOUS
 62
     5
 10
1713.134087
 20
2000.050515
 11
1756.600750
 21
2011.697372
  0
LINE
  8
CSLAYER1
  6
CONTINUOUS
 62
     5
 10
1713.134087
 20
2000.050515
 11
1756.600750
 21
1988.403658
  0
LINE
  8
CSLAYER1
  6
CONTINUOUS
 62
     5
 10
3213.134087
 20
2000.050515
 11
3169.667425
 21
2011.697372
  0
LINE
  8
CSLAYER1
  6
CONTINUOUS
 62
     5
 10
3213.134087
 20
2000.050515
 11
3169.667425
 21
1988.403658
  0
ENDBLK
  8
0
  0
BLOCK
  8
CSLAYER1
  2
*D0004
 70
    65
 10
0.0
 20
0.0
 30
0.0
  0
TEXT
  8
CSLAYER1
 62
     3
 10
2373.133789
 20
503.643555
 40
60.000000
 41
0.818182
  1
1500
 50
0.000000
 51
0.000000
  7
EASYDRAW_FONT
 72
     5
 11
2553.133789
 21
503.643555
  0
LINE
  8
CSLAYER1
  6
CONTINUOUS
 62
     5
 10
1713.134035
 20
604.088848
 11
1713.134035
 21
473.643764
  0
LINE
  8
CSLAYER1
  6
CONTINUOUS
 62
     5
 10
3213.134035
 20
604.088848
 11
3213.134035
 21
473.643764
  0
LINE
  8
CSLAYER1
  6
CONTINUOUS
 62
     5
 10
1713.134035
 20
488.643764
 11
3213.134035
 21
488.643764
  0
LINE
  8
CSLAYER1
  6
CONTINUOUS
 62
     5
 10
1713.134035
 20
488.643764
 11
1756.600697
 21
500.290621
  0
LINE
  8
CSLAYER1
  6
CONTINUOUS
 62
     5
 10
1713.134035
 20
488.643764
 11
1756.600697
 21
476.996907
  0
LINE
  8
CSLAYER1
  6
CONTINUOUS
 62
     5
 10
3213.134035
 20
488.643764
 11
3169.667372
 21
500.290621
  0
LINE
  8
CSLAYER1
  6
CONTINUOUS
 62
     5
 10
3213.134035
 20
488.643764
 11
3169.667372
 21
476.996907
  0
ENDBLK
  8
0
  0
BLOCK
  8
CSLAYER1
  2
*D0005
 70
    65
 10
0.0
 20
0.0
 30
0.0
  0
TEXT
  8
CSLAYER1
 62
     3
 10
699.697693
 20
503.643555
 40
60.000000
 41
0.843750
  1
600
 50
0.000000
 51
0.000000
  7
EASYDRAW_FONT
 72
     5
 11
834.697693
 21
503.643555
  0
LINE
  8
CSLAYER1
  6
CONTINUOUS
 62
     5
 10
467.197686
 20
604.088848
 11
467.197686
 21
473.643764
  0
LINE
  8
CSLAYER1
  6
CONTINUOUS
 62
     5
 10
1067.197686
 20
604.088848
 11
1067.197686
 21
473.643764
  0
LINE
  8
CSLAYER1
  6
CONTINUOUS
 62
     5
 10
467.197686
 20
488.643764
 11
1067.197686
 21
488.643764
  0
LINE
  8
CSLAYER1
  6
CONTINUOUS
 62
     5
 10
467.197686
 20
488.643764
 11
510.664349
 21
500.290621
  0
LINE
  8
CSLAYER1
  6
CONTINUOUS
 62
     5
 10
467.197686
 20
488.643764
 11
510.664349
 21
476.996907
  0
LINE
  8
CSLAYER1
  6
CONTINUOUS
 62
     5
 10
1067.197686
 20
488.643764
 11
1023.731024
 21
500.290621
  0
LINE
  8
CSLAYER1
  6
CONTINUOUS
 62
     5
 10
1067.197686
 20
488.643764
 11
1023.731024
 21
476.996907
  0
ENDBLK
  8
0
  0
BLOCK
  8
CSLAYER1
  2
*D0006
 70
    65
 10
0.0
 20
0.0
 30
0.0
  0
TEXT
  8
CSLAYER1
 62
     3
 10
1547.622803
 20
2670.361328
 40
60.000000
 41
0.843750
  1
600
 50
90.000000
 51
0.000000
  7
EASYDRAW_FONT
 72
     5
 11
1547.622803
 21
2805.361328
  0
LINE
  8
CSLAYER1
  6
CONTINUOUS
 62
     5
 10
1698.134087
 20
2437.861224
 11
1547.622775
 21
2437.861224
  0
LINE
  8
CSLAYER1
  6
CONTINUOUS
 62
     5
 10
1698.134087
 20
3037.861224
 11
1547.622775
 21
3037.861224
  0
LINE
  8
CSLAYER1
  6
CONTINUOUS
 62
     5
 10
1562.622775
 20
2437.861224
 11
1562.622775
 21
3037.861224
  0
LINE
  8
CSLAYER1
  6
CONTINUOUS
 62
     5
 10
1562.622775
 20
2437.861224
 11
1550.975918
 21
2481.327887
  0
LINE
  8
CSLAYER1
  6
CONTINUOUS
 62
     5
 10
1562.622775
 20
2437.861224
 11
1574.269632
 21
2481.327887
  0
LINE
  8
CSLAYER1
  6
CONTINUOUS
 62
     5
 10
1562.622775
 20
3037.861224
 11
1550.975918
 21
2994.394562
  0
LINE
  8
CSLAYER1
  6
CONTINUOUS
 62
     5
 10
1562.622775
 20
3037.861224
 11
1574.269632
 21
2994.394562
  0
ENDBLK
  8
0
  0
BLOCK
  8
CSLAYER1
  2
BLKF0000
 70
   64
 10
0.0
 20
0.0
 30
0.0
  0
ARC
  8
CSLAYER1
  6
CONTINUOUS
 62
     5
 10
4169.771750
 20
120.742239
 40
5.323837
 50
6.429109
 51
73.182034
  0
ARC
  8
CSLAYER1
  6
CONTINUOUS
 62
     5
 10
4164.580294
 20
119.004650
 40
10.361631
 50
310.517970
 51
330.092764
  0
ARC
  8
CSLAYER1
  6
CONTINUOUS
 62
     5
 10
4164.489320
 20
119.552927
 40
10.722482
 50
-32.205059
 51
9.585194
  0
ARC
  8
CSLAYER1
  6
CONTINUOUS
 62
     5
 10
4169.428412
 20
115.411429
 40
7.151272
 50
180.000000
 51
218.514150
  0
ARC
  8
CSLAYER1
  6
CONTINUOUS
 62
     5
 10
4167.498330
 20
114.395718
 40
5.022423
 50
222.781148
 51
319.406906
  0
ARC
  8
CSLAYER1
  6
CONTINUOUS
 62
     5
 10
4172.096793
 20
116.030557
 40
9.839152
 50
94.574282
 51
183.607718
  0
LINE
  8
CSLAYER1
  6
CONTINUOUS
 62
     5
 10
4192.262653
 20
108.355309
 11
4190.977098
 21
103.797435
  0
LINE
  8
CSLAYER1
  6
CONTINUOUS
 62
     5
 10
4194.950630
 20
138.156795
 11
4191.795178
 21
142.247195
  0
LINE
  8
CSLAYER1
  6
CONTINUOUS
 62
     5
 10
4191.795178
 20
142.247195
 11
4181.665147
 21
147.884063
  0
LINE
  8
CSLAYER1
  6
CONTINUOUS
 62
     5
 10
4181.665147
 20
147.884063
 11
4171.312106
 21
149.088369
  0
LINE
  8
CSLAYER1
  6
CONTINUOUS
 62
     5
 10
4143.878268
 20
129.020359
 11
4147.098310
 21
136.466705
  0
LINE
  8
CSLAYER1
  6
CONTINUOUS
 62
     5
 10
4147.042813
 20
136.338369
 11
4150.318351
 21
140.290504
  0
LINE
  8
CSLAYER1
  6
CONTINUOUS
 62
     5
 10
4150.318351
 20
140.290504
 11
4155.274984
 21
143.838369
  0
LINE
  8
CSLAYER1
  6
CONTINUOUS
 62
     5
 10
4171.312106
 20
149.088369
 11
4169.034843
 21
147.938103
  0
LINE
  8
CSLAYER1
  6
CONTINUOUS
 62
     5
 10
4169.034843
 20
147.938103
 11
4163.802275
 21
147.938103
  0
LINE
  8
CSLAYER1
  6
CONTINUOUS
 62
     5
 10
4163.802275
 20
147.938103
 11
4158.469081
 21
145.019940
  0
LINE
  8
CSLAYER1
  6
CONTINUOUS
 62
     5
 10
4158.469081
 20
145.019940
 11
4155.274984
 21
143.838369
  0
LINE
  8
CSLAYER1
  6
CONTINUOUS
 62
     5
 10
4143.878268
 20
129.020359
 11
4141.601947
 21
117.697454
  0
LINE
  8
CSLAYER1
  6
CONTINUOUS
 62
     5
 10
4141.601947
 20
117.697454
 11
4141.312106
 21
113.838369
  0
LINE
  8
CSLAYER1
  6
CONTINUOUS
 62
     5
 10
4145.376180
 20
102.078696
 11
4141.312106
 21
111.222862
  0
LINE
  8
CSLAYER1
  6
CONTINUOUS
 62
     5
 10
4141.312106
 20
111.222862
 11
4141.312106
 21
113.838369
  0
LINE
  8
CSLAYER1
  6
CONTINUOUS
 62
     5
 10
4190.977098
 20
103.797435
 11
4188.448418
 21
99.292925
  0
LINE
  8
CSLAYER1
  6
CONTINUOUS
 62
     5
 10
4188.448418
 20
99.292925
 11
4186.312106
 21
97.314859
  0
ARC
  8
CSLAYER1
  6
CONTINUOUS
 62
     5
 10
4168.024189
 20
114.643510
 40
25.899940
 50
208.054813
 51
260.640470
  0
ARC
  8
CSLAYER1
  6
CONTINUOUS
 62
     5
 10
4160.234096
 20
133.757214
 40
44.811916
 50
274.579659
 51
305.587364
  0
ARC
  8
CSLAYER1
  6
CONTINUOUS
 62
     5
 10
4176.692620
 20
124.781631
 40
22.632940
 50
313.467013
 51
331.085078
  0
LINE
  8
CSLAYER1
  6
CONTINUOUS
 62
     5
 10
4198.879618
 20
119.108501
 11
4199.325560
 21
124.781631
  0
LINE
  8
CSLAYER1
  6
CONTINUOUS
 62
     5
 10
4199.325560
 20
124.781631
 11
4197.387563
 21
133.945105
  0
LINE
  8
CSLAYER1
  6
CONTINUOUS
 62
     5
 10
4198.879618
 20
119.108501
 11
4196.504106
 21
113.838369
  0
ARC
  8
CSLAYER1
  6
CONTINUOUS
 62
     5
 10
4176.692620
 20
124.781631
 40
22.632940
 50
23.883193
 51
36.225170
  0
LINE
  8
CSLAYER1
  6
CONTINUOUS
 62
     5
 10
4117.312106
 20
166.338369
 11
4118.812106
 21
167.977336
  0
LINE
  8
CSLAYER1
  6
CONTINUOUS
 62
     5
 10
4117.312106
 20
166.338369
 11
4119.677543
 21
164.170820
  0
LINE
  8
CSLAYER1
  6
CONTINUOUS
 62
     5
 10
4121.986362
 20
161.006882
 11
4122.025764
 21
157.754704
  0
LINE
  8
CSLAYER1
  6
CONTINUOUS
 62
     5
 10
4122.025764
 20
157.754704
 11
4122.336861
 21
156.614015
  0
LINE
  8
CSLAYER1
  6
CONTINUOUS
 62
     5
 10
4122.336861
 20
156.614015
 11
4123.218303
 21
155.525175
  0
LINE
  8
CSLAYER1
  6
CONTINUOUS
 62
     5
 10
4123.218303
 20
155.525175
 11
4124.099744
 21
155.628874
  0
LINE
  8
CSLAYER1
  6
CONTINUOUS
 62
     5
 10
4124.099744
 20
155.628874
 11
4125.033035
 21
155.888122
  0
LINE
  8
CSLAYER1
  6
CONTINUOUS
 62
     5
 10
4125.033035
 20
155.888122
 11
4125.655229
 21
155.628874
  0
LINE
  8
CSLAYER1
  6
CONTINUOUS
 62
     5
 10
4125.655229
 20
155.628874
 11
4127.003316
 21
154.954831
  0
LINE
  8
CSLAYER1
  6
CONTINUOUS
 62
     5
 10
4127.003316
 20
154.954831
 11
4128.167393
 21
154.338369
  0
LINE
  8
CSLAYER1
  6
CONTINUOUS
 62
     5
 10
4128.167393
 20
154.338369
 11
4128.921747
 21
154.384486
  0
LINE
  8
CSLAYER1
  6
CONTINUOUS
 62
     5
 10
4128.921747
 20
154.384486
 11
4133.133555
 21
156.554206
  0
LINE
  8
CSLAYER1
  6
CONTINUOUS
 62
     5
 10
4118.812106
 20
167.977336
 11
4119.311384
 21
170.187897
  0
LINE
  8
CSLAYER1
  6
CONTINUOUS
 62
     5
 10
4119.311384
 20
170.187897
 11
4121.491492
 21
170.413425
  0
LINE
  8
CSLAYER1
  6
CONTINUOUS
 62
     5
 10
4123.732129
 20
174.566113
 11
4126.363389
 21
174.801748
  0
LINE
  8
CSLAYER1
  6
CONTINUOUS
 62
     5
 10
4126.363389
 20
174.801748
 11
4131.665180
 21
176.058469
  0
LINE
  8
CSLAYER1
  6
CONTINUOUS
 62
     5
 10
4131.665180
 20
176.058469
 11
4133.812106
 21
176.555928
  0
LINE
  8
CSLAYER1
  6
CONTINUOUS
 62
     5
 10
4123.732129
 20
174.566113
 11
4120.832793
 21
174.804415
  0
LINE
  8
CSLAYER1
  6
CONTINUOUS
 62
     5
 10
4119.728608
 20
173.501384
 11
4119.868896
 21
172.944642
  0
LINE
  8
CSLAYER1
  6
CONTINUOUS
 62
     5
 10
4119.868896
 20
172.944642
 11
4120.606287
 21
172.138120
  0
LINE
  8
CSLAYER1
  6
CONTINUOUS
 62
     5
 10
4120.606287
 20
172.138120
 11
4121.620200
 21
171.377686
  0
LINE
  8
CSLAYER1
  6
CONTINUOUS
 62
     5
 10
4121.620200
 20
171.377686
 11
4121.805187
 21
171.131036
  0
LINE
  8
CSLAYER1
  6
CONTINUOUS
 62
     5
 10
4119.677543
 20
164.170820
 11
4121.986362
 21
161.006882
  0
ARC
  8
CSLAYER1
  6
CONTINUOUS
 62
     5
 10
4186.292157
 20
-91.149610
 40
271.091195
 50
80.438896
 51
96.353582
  0
ARC
  8
CSLAYER1
  6
CONTINUOUS
 62
     5
 10
4148.943787
 20
126.722240
 40
52.080363
 50
81.866516
 51
106.890578
  0
LINE
  8
CSLAYER1
  6
CONTINUOUS
 62
     5
 10
4237.603498
 20
174.988375
 11
4240.974122
 21
173.456273
  0
LINE
  8
CSLAYER1
  6
CONTINUOUS
 62
     5
 10
4246.336478
 20
171.081515
 11
4240.974122
 21
173.456273
  0
LINE
  8
CSLAYER1
  6
CONTINUOUS
 62
     5
 10
4237.603498
 20
174.988375
 11
4231.312106
 21
176.177232
  0
LINE
  8
CSLAYER1
  6
CONTINUOUS
 62
     5
 10
4246.312106
 20
171.092308
 11
4249.119469
 21
168.739593
  0
LINE
  8
CSLAYER1
  6
CONTINUOUS
 62
     5
 10
4221.176990
 20
172.647585
 11
4222.525902
 21
174.826597
  0
LINE
  8
CSLAYER1
  6
CONTINUOUS
 62
     5
 10
4222.525902
 20
174.826597
 11
4229.539300
 21
173.147333
  0
LINE
  8
CSLAYER1
  6
CONTINUOUS
 62
     5
 10
4229.539300
 20
173.147333
 11
4254.652879
 21
166.338369
  0
LINE
  8
CSLAYER1
  6
CONTINUOUS
 62
     5
 10
4259.062106
 20
166.338369
 11
4249.119469
 21
168.739593
  0
LINE
  8
CSLAYER1
  6
CONTINUOUS
 62
     5
 10
4254.652879
 20
166.338369
 11
4259.062106
 21
166.338369
  0
LINE
  8
CSLAYER1
  6
CONTINUOUS
 62
     5
 10
4171.312106
 20
173.035781
 11
4201.312106
 21
173.838369
  0
LINE
  8
CSLAYER1
  6
CONTINUOUS
 62
     5
 10
4201.312106
 20
173.838369
 11
4221.176990
 21
172.647585
  0
LINE
  8
CSLAYER1
  6
CONTINUOUS
 62
     5
 10
4223.581462
 20
169.556865
 11
4201.312106
 21
171.588369
  0
LINE
  8
CSLAYER1
  6
CONTINUOUS
 62
     5
 10
4201.312106
 20
171.588369
 11
4178.738292
 21
172.201347
  0
LINE
  8
CSLAYER1
  6
CONTINUOUS
 62
     5
 10
4178.812106
 20
172.199343
 11
4171.312106
 21
172.342284
  0
LINE
  8
CSLAYER1
  6
CONTINUOUS
 62
     5
 10
4171.312106
 20
173.035781
 11
4171.312106
 21
172.342284
  0
LINE
  8
CSLAYER1
  6
CONTINUOUS
 62
     5
 10
4257.562106
 20
161.088369
 11
4244.298268
 21
164.554363
  0
LINE
  8
CSLAYER1
  6
CONTINUOUS
 62
     5
 10
4223.581462
 20
169.556865
 11
4238.812106
 21
166.598290
  0
LINE
  8
CSLAYER1
  6
CONTINUOUS
 62
     5
 10
4238.812106
 20
166.598290
 11
4244.298268
 21
164.554363
  0
LINE
  8
CSLAYER1
  6
CONTINUOUS
 62
     5
 10
4257.562106
 20
161.088369
 11
4257.123180
 21
159.829711
  0
LINE
  8
CSLAYER1
  6
CONTINUOUS
 62
     5
 10
4271.812106
 20
152.838369
 11
4271.353065
 21
154.681841
  0
LINE
  8
CSLAYER1
  6
CONTINUOUS
 62
     5
 10
4257.123180
 20
159.829711
 11
4271.353065
 21
154.681841
  0
LINE
  8
CSLAYER1
  6
CONTINUOUS
 62
     5
 10
4176.562106
 20
161.088369
 11
4180.196663
 21
161.088369
  0
LINE
  8
CSLAYER1
  6
CONTINUOUS
 62
     5
 10
4210.312106
 20
161.737113
 11
4210.312106
 21
161.088369
  0
LINE
  8
CSLAYER1
  6
CONTINUOUS
 62
     5
 10
4208.812106
 20
162.538774
 11
4206.245187
 21
163.494542
  0
LINE
  8
CSLAYER1
  6
CONTINUOUS
 62
     5
 10
4206.245187
 20
163.494542
 11
4204.580103
 21
163.570227
  0
LINE
  8
CSLAYER1
  6
CONTINUOUS
 62
     5
 10
4204.580103
 20
163.570227
 11
4203.861090
 21
163.191799
  0
LINE
  8
CSLAYER1
  6
CONTINUOUS
 62
     5
 10
4203.861090
 20
163.191799
 11
4203.709718
 21
162.586314
  0
LINE
  8
CSLAYER1
  6
CONTINUOUS
 62
     5
 10
4203.709718
 20
162.586314
 11
4204.390889
 21
162.132200
  0
LINE
  8
CSLAYER1
  6
CONTINUOUS
 62
     5
 10
4204.390889
 20
162.132200
 11
4206.850672
 21
161.905143
  0
LINE
  8
CSLAYER1
  6
CONTINUOUS
 62
     5
 10
4206.850672
 20
161.905143
 11
4210.312106
 21
161.737113
  0
LINE
  8
CSLAYER1
  6
CONTINUOUS
 62
     5
 10
4271.812106
 20
152.838369
 11
4267.348792
 21
154.618242
  0
LINE
  8
CSLAYER1
  6
CONTINUOUS
 62
     5
 10
4267.348792
 20
154.618242
 11
4252.265258
 21
157.382555
  0
LINE
  8
CSLAYER1
  6
CONTINUOUS
 62
     5
 10
4252.265258
 20
157.382555
 11
4244.726588
 21
159.122248
  0
LINE
  8
CSLAYER1
  6
CONTINUOUS
 62
     5
 10
4211.113437
 20
162.588369
 11
4228.761936
 21
162.588369
  0
LINE
  8
CSLAYER1
  6
CONTINUOUS
 62
     5
 10
4208.812106
 20
162.538774
 11
4209.599096
 21
162.076073
  0
LINE
  8
CSLAYER1
  6
CONTINUOUS
 62
     5
 10
4209.599096
 20
162.076073
 11
4210.044314
 21
161.942508
  0
LINE
  8
CSLAYER1
  6
CONTINUOUS
 62
     5
 10
4210.044314
 20
161.942508
 11
4210.312106
 21
161.980263
  0
LINE
  8
CSLAYER1
  6
CONTINUOUS
 62
     5
 10
4210.312106
 20
161.980263
 11
4211.113437
 21
162.588369
  0
LINE
  8
CSLAYER1
  6
CONTINUOUS
 62
     5
 10
4228.761936
 20
162.588369
 11
4235.437340
 21
161.045131
  0
LINE
  8
CSLAYER1
  6
CONTINUOUS
 62
     5
 10
4235.437340
 20
161.045131
 11
4241.667127
 21
159.297408
  0
LINE
  8
CSLAYER1
  6
CONTINUOUS
 62
     5
 10
4241.667127
 20
159.297408
 11
4244.726588
 21
159.122248
  0
LINE
  8
CSLAYER1
  6
CONTINUOUS
 62
     5
 10
4175.062106
 20
159.588369
 11
4175.062106
 21
158.838369
  0
LINE
  8
CSLAYER1
  6
CONTINUOUS
 62
     5
 10
4171.312106
 20
158.838369
 11
4175.062106
 21
158.838369
  0
ARC
  8
CSLAYER1
  6
CONTINUOUS
 62
     5
 10
4176.562106
 20
159.588369
 40
1.500000
 50
90.000000
 51
180.000000
  0
LINE
  8
CSLAYER1
  6
CONTINUOUS
 62
     5
 10
4180.196663
 20
161.088369
 11
4181.242998
 21
160.230375
  0
LINE
  8
CSLAYER1
  6
CONTINUOUS
 62
     5
 10
4182.146550
 20
160.194434
 11
4183.432945
 21
161.088369
  0
LINE
  8
CSLAYER1
  6
CONTINUOUS
 62
     5
 10
4185.800540
 20
161.088369
 11
4188.301228
 21
160.101256
  0
LINE
  8
CSLAYER1
  6
CONTINUOUS
 62
     5
 10
4188.936791
 20
160.141024
 11
4190.667022
 21
161.088369
  0
LINE
  8
CSLAYER1
  6
CONTINUOUS
 62
     5
 10
4183.432945
 20
161.088369
 11
4185.800540
 21
161.088369
  0
LINE
  8
CSLAYER1
  6
CONTINUOUS
 62
     5
 10
4190.667022
 20
161.088369
 11
4210.312106
 21
161.088369
  0
LINE
  8
CSLAYER1
  6
CONTINUOUS
 62
     5
 10
4139.135581
 20
156.425130
 11
4171.312106
 21
158.838369
  0
LINE
  8
CSLAYER1
  6
CONTINUOUS
 62
     5
 10
4133.133555
 20
156.554206
 11
4139.135581
 21
156.425130
  0
ARC
  8
CSLAYER1
  6
CONTINUOUS
 62
     5
 10
4181.718558
 20
160.810325
 40
0.750000
 50
230.648247
 51
304.796026
  0
ARC
  8
CSLAYER1
  6
CONTINUOUS
 62
     5
 10
4188.576603
 20
160.798872
 40
0.750000
 50
248.459024
 51
298.701829
  0
ARC
  8
CSLAYER1
  6
CONTINUOUS
 62
     5
 10
4121.445187
 20
170.861036
 40
0.450000
 50
-84.093859
 51
36.869898
  0
ARC
  8
CSLAYER1
  6
CONTINUOUS
 62
     5
 10
4120.746781
 20
173.757944
 40
1.050000
 50
85.301319
 51
194.142980
  0
LINE
  8
CSLAYER1
  6
CONTINUOUS
 62
     3
 10
4169.034843
 20
147.938103
 11
4181.200586
 21
147.938103
  0
LINE
  8
CSLAYER1
  6
CONTINUOUS
 62
     3
 10
4159.416068
 20
145.538103
 11
4185.881079
 21
145.538103
  0
LINE
  8
CSLAYER1
  6
CONTINUOUS
 62
     3
 10
4154.296660
 20
143.138103
 11
4190.194126
 21
143.138103
  0
LINE
  8
CSLAYER1
  6
CONTINUOUS
 62
     3
 10
4150.943680
 20
140.738103
 11
4192.959335
 21
140.738103
  0
LINE
  8
CSLAYER1
  6
CONTINUOUS
 62
     3
 10
4148.700197
 20
138.338103
 11
4194.810764
 21
138.338103
  0
LINE
  8
CSLAYER1
  6
CONTINUOUS
 62
     3
 10
4146.869725
 20
135.938103
 11
4196.384829
 21
135.938103
  0
LINE
  8
CSLAYER1
  6
CONTINUOUS
 62
     3
 10
4145.831887
 20
133.538103
 11
4197.473641
 21
133.538103
  0
LINE
  8
CSLAYER1
  6
CONTINUOUS
 62
     3
 10
4144.794049
 20
131.138103
 11
4197.981220
 21
131.138103
  0
LINE
  8
CSLAYER1
  6
CONTINUOUS
 62
     3
 10
4143.821524
 20
128.738103
 11
4198.488800
 21
128.738103
  0
LINE
  8
CSLAYER1
  6
CONTINUOUS
 62
     3
 10
4143.339036
 20
126.338103
 11
4198.996379
 21
126.338103
  0
LINE
  8
CSLAYER1
  6
CONTINUOUS
 62
     3
 10
4142.856547
 20
123.938103
 11
4166.241912
 21
123.938103
  0
LINE
  8
CSLAYER1
  6
CONTINUOUS
 62
     3
 10
4142.374059
 20
121.538103
 11
4163.943521
 21
121.538103
  0
LINE
  8
CSLAYER1
  6
CONTINUOUS
 62
     3
 10
4141.891571
 20
119.138103
 11
4162.761266
 21
119.138103
  0
LINE
  8
CSLAYER1
  6
CONTINUOUS
 62
     3
 10
4141.529894
 20
116.738103
 11
4162.283115
 21
116.738103
  0
LINE
  8
CSLAYER1
  6
CONTINUOUS
 62
     3
 10
4141.349639
 20
114.338103
 11
4162.358146
 21
114.338103
  0
LINE
  8
CSLAYER1
  6
CONTINUOUS
 62
     3
 10
4141.312106
 20
111.938103
 11
4163.177277
 21
111.938103
  0
LINE
  8
CSLAYER1
  6
CONTINUOUS
 62
     3
 10
4142.060888
 20
109.538103
 11
4166.222280
 21
109.538103
  0
LINE
  8
CSLAYER1
  6
CONTINUOUS
 62
     3
 10
4143.127555
 20
107.138103
 11
4191.919338
 21
107.138103
  0
LINE
  8
CSLAYER1
  6
CONTINUOUS
 62
     3
 10
4144.194221
 20
104.738103
 11
4191.242415
 21
104.738103
  0
LINE
  8
CSLAYER1
  6
CONTINUOUS
 62
     3
 10
4145.260888
 20
102.338103
 11
4190.157878
 21
102.338103
  0
LINE
  8
CSLAYER1
  6
CONTINUOUS
 62
     3
 10
4146.703826
 20
99.938103
 11
4188.810599
 21
99.938103
  0
LINE
  8
CSLAYER1
  6
CONTINUOUS
 62
     3
 10
4148.576518
 20
97.538103
 11
4186.553209
 21
97.538103
  0
LINE
  8
CSLAYER1
  6
CONTINUOUS
 62
     3
 10
4150.984648
 20
95.138103
 11
4182.964518
 21
95.138103
  0
LINE
  8
CSLAYER1
  6
CONTINUOUS
 62
     3
 10
4154.205361
 20
92.738103
 11
4178.276833
 21
92.738103
  0
LINE
  8
CSLAYER1
  6
CONTINUOUS
 62
     3
 10
4159.076897
 20
90.338103
 11
4171.319610
 21
90.338103
  0
LINE
  8
CSLAYER1
  6
CONTINUOUS
 62
     3
 10
4174.029648
 20
123.938103
 11
4199.259253
 21
123.938103
  0
LINE
  8
CSLAYER1
  6
CONTINUOUS
 62
     3
 10
4175.035764
 20
121.538103
 11
4199.070599
 21
121.538103
  0
LINE
  8
CSLAYER1
  6
CONTINUOUS
 62
     3
 10
4175.203774
 20
119.138103
 11
4198.881945
 21
119.138103
  0
LINE
  8
CSLAYER1
  6
CONTINUOUS
 62
     3
 10
4174.835739
 20
116.738103
 11
4197.811161
 21
116.738103
  0
LINE
  8
CSLAYER1
  6
CONTINUOUS
 62
     3
 10
4173.858270
 20
114.338103
 11
4196.729361
 21
114.338103
  0
LINE
  8
CSLAYER1
  6
CONTINUOUS
 62
     3
 10
4172.158375
 20
111.938103
 11
4195.328439
 21
111.938103
  0
LINE
  8
CSLAYER1
  6
CONTINUOUS
 62
     3
 10
4168.774380
 20
109.538103
 11
4193.422378
 21
109.538103
  0
TEXT
  8
CSLAYER1
 62
     5
 10
4200.069867
 20
120.954866
 40
7.070172
 41
1.951056
  1
M
 50
0.000000
 51
0.000000
  7
EASYDRAW_FONT
 72
     5
 11
4209.266070
 21
120.954866
  0
TEXT
  8
CSLAYER1
 62
     5
 10
4214.546948
 20
120.867460
 40
6.939931
 41
0.778201
  1
T
 50
0.000000
 51
0.000000
  7
EASYDRAW_FONT
 72
     5
 11
4218.147388
 21
120.867460
  0
TEXT
  8
CSLAYER1
 62
     5
 10
4218.695292
 20
120.919658
 40
7.044274
 41
1.055553
  1
E
 50
0.000000
 51
0.000000
  7
EASYDRAW_FONT
 72
     5
 11
4223.652364
 21
120.919658
  0
TEXT
  8
CSLAYER1
 62
     5
 10
4223.369808
 20
123.343425
 40
0.522425
 41
9.375319
  1
-
 50
0.000000
 51
0.000000
  7
EASYDRAW_FONT
 72
     5
 11
4226.635075
 21
123.343425
  0
TEXT
  8
CSLAYER1
 62
     5
 10
4226.090633
 20
120.872638
 40
7.292489
 41
1.298502
  1
H
 50
0.000000
 51
0.000000
  7
EASYDRAW_FONT
 72
     5
 11
4232.403507
 21
120.872638
  0
TEXT
  8
CSLAYER1
 62
     5
 10
4232.204778
 20
120.918206
 40
7.264708
 41
1.269236
  1
A
 50
0.000000
 51
0.000000
  7
EASYDRAW_FONT
 72
     5
 11
4238.351862
 21
120.918206
  0
TEXT
  8
CSLAYER1
 62
     5
 10
4237.764134
 20
120.855916
 40
7.238043
 41
1.490144
  1
N
 50
0.000000
 51
0.000000
  7
EASYDRAW_FONT
 72
     5
 11
4244.954616
 21
120.855916
  0
TEXT
  8
CSLAYER1
 62
     5
 10
4208.951077
 20
120.822056
 40
7.473487
 41
1.177443
  1
A
 50
0.000000
 51
0.000000
  7
EASYDRAW_FONT
 72
     5
 11
4214.817478
 21
120.822056
  0
TEXT
  8
CSLAYER1
 62
     5
 10
4200.620022
 20
110.329197
 40
7.473487
 41
1.177443
  1
A
 50
0.000000
 51
0.000000
  7
EASYDRAW_FONT
 72
     5
 11
4206.486423
 21
110.329197
  0
TEXT
  8
CSLAYER1
 62
     5
 10
4219.797268
 20
110.371678
 40
7.473487
 41
1.177443
  1
A
 50
0.000000
 51
0.000000
  7
EASYDRAW_FONT
 72
     5
 11
4225.663670
 21
110.371678
  0
TEXT
  8
CSLAYER1
 62
     5
 10
4225.437962
 20
110.457173
 40
7.238043
 41
1.490144
  1
N
 50
0.000000
 51
0.000000
  7
EASYDRAW_FONT
 72
     5
 11
4232.628444
 21
110.457173
  0
TEXT
  8
CSLAYER1
 62
     5
 10
4238.791344
 20
110.469766
 40
7.262663
 41
1.184218
  1
E
 50
0.000000
 51
0.000000
  7
EASYDRAW_FONT
 72
     5
 11
4244.525062
 21
110.469766
  0
TEXT
  8
CSLAYER1
 62
     5
 10
4207.041096
 20
110.327210
 40
7.421797
 41
1.093992
  1
D
 50
0.000000
 51
0.000000
  7
EASYDRAW_FONT
 72
     5
 11
4212.454021
 21
110.327210
  0
TEXT
  8
CSLAYER1
 62
     5
 10
4213.645000
 20
110.319133
 40
7.386315
 41
1.228195
  1
V
 50
0.000000
 51
0.000000
  7
EASYDRAW_FONT
 72
     5
 11
4219.692891
 21
110.319133
  0
TEXT
  8
CSLAYER1
 62
     5
 10
4231.982558
 20
110.350231
 40
7.549340
 41
1.481023
  1
C
 50
0.000000
 51
0.000000
  7
EASYDRAW_FONT
 72
     5
 11
4239.436388
 21
110.350231
  0
LINE
  8
CSLAYER1
  6
CONTINUOUS
 62
     5
 10
4217.928111
 20
126.940827
 11
4216.410018
 21
126.940827
  0
LINE
  8
CSLAYER1
  6
CONTINUOUS
 62
     3
 10
4141.575468
 20
178.278734
 11
4216.272208
 21
178.278734
  0
LINE
  8
CSLAYER1
  6
CONTINUOUS
 62
     3
 10
4130.906922
 20
175.878734
 11
4232.891745
 21
175.878734
  0
LINE
  8
CSLAYER1
  6
CONTINUOUS
 62
     3
 10
4119.734315
 20
173.478734
 11
4187.869281
 21
173.478734
  0
LINE
  8
CSLAYER1
  6
CONTINUOUS
 62
     3
 10
4207.311605
 20
173.478734
 11
4221.691511
 21
173.478734
  0
LINE
  8
CSLAYER1
  6
CONTINUOUS
 62
     3
 10
4228.155211
 20
173.478734
 11
4240.924707
 21
173.478734
  0
LINE
  8
CSLAYER1
  6
CONTINUOUS
 62
     3
 10
4121.839024
 20
171.078734
 11
4206.898728
 21
171.078734
  0
LINE
  8
CSLAYER1
  6
CONTINUOUS
 62
     3
 10
4237.168936
 20
171.078734
 11
4246.328303
 21
171.078734
  0
LINE
  8
CSLAYER1
  6
CONTINUOUS
 62
     3
 10
4118.970524
 20
168.678734
 11
4228.102050
 21
168.678734
  0
LINE
  8
CSLAYER1
  6
CONTINUOUS
 62
     3
 10
4246.020884
 20
168.678734
 11
4249.371466
 21
168.678734
  0
LINE
  8
CSLAYER1
  6
CONTINUOUS
 62
     3
 10
4117.377186
 20
166.278734
 11
4239.669834
 21
166.278734
  0
LINE
  8
CSLAYER1
  6
CONTINUOUS
 62
     3
 10
4119.890686
 20
163.878734
 11
4246.883797
 21
163.878734
  0
LINE
  8
CSLAYER1
  6
CONTINUOUS
 62
     3
 10
4121.642038
 20
161.478734
 11
4210.312106
 21
161.478734
  0
LINE
  8
CSLAYER1
  6
CONTINUOUS
 62
     3
 10
4233.561753
 20
161.478734
 11
4256.068238
 21
161.478734
  0
LINE
  8
CSLAYER1
  6
CONTINUOUS
 62
     3
 10
4122.009723
 20
159.078734
 11
4175.062106
 21
159.078734
  0
LINE
  8
CSLAYER1
  6
CONTINUOUS
 62
     3
 10
4244.915147
 20
159.078734
 11
4259.199051
 21
159.078734
  0
LINE
  8
CSLAYER1
  6
CONTINUOUS
 62
     3
 10
4122.319210
 20
156.678734
 11
4142.516971
 21
156.678734
  0
LINE
  8
CSLAYER1
  6
CONTINUOUS
 62
     3
 10
4256.105670
 20
156.678734
 11
4265.833197
 21
156.678734
  0
LINE
  8
CSLAYER1
  6
CONTINUOUS
 62
     3
 10
4268.200161
 20
154.278734
 11
4271.453442
 21
154.278734
  0
ENDBLK
  8
0
  0
BLOCK
  8
CSLAYER1
  2
BLKF0001
 70
   64
 10
0.0
 20
0.0
 30
0.0
  0
LINE
  8
CSLAYER1
  6
CONTINUOUS
 62
     1
 10
729.697686
 20
726.588848
 11
729.697686
 21
724.388848
  0
LINE
  8
CSLAYER1
  6
CONTINUOUS
 62
     1
 10
736.697686
 20
726.588848
 11
736.697686
 21
724.388848
  0
LINE
  8
CSLAYER1
  6
CONTINUOUS
 62
     1
 10
736.697686
 20
725.388848
 11
729.697686
 21
725.388848
  0
LINE
  8
CSLAYER1
  6
CONTINUOUS
 62
     1
 10
735.297686
 20
727.988848
 11
731.097686
 21
727.988848
  0
LINE
  8
CSLAYER1
  6
CONTINUOUS
 62
     1
 10
737.697686
 20
724.388848
 11
737.697686
 21
723.588848
  0
LINE
  8
CSLAYER1
  6
CONTINUOUS
 62
     1
 10
728.697686
 20
724.388848
 11
728.697686
 21
723.588848
  0
LINE
  8
CSLAYER1
  6
CONTINUOUS
 62
     1
 10
736.697686
 20
726.588848
 11
736.697686
 21
725.388848
  0
LINE
  8
CSLAYER1
  6
CONTINUOUS
 62
     1
 10
737.697686
 20
724.388848
 11
728.697686
 21
724.388848
  0
ARC
  8
CSLAYER1
  6
CONTINUOUS
 62
     1
 10
735.297686
 20
726.588848
 40
1.400000
 50
-0.000000
 51
90.000000
  0
ARC
  8
CSLAYER1
  6
CONTINUOUS
 62
     1
 10
731.097686
 20
726.588848
 40
1.400000
 50
90.000000
 51
180.000000
  0
LINE
  8
CSLAYER1
  6
CONTINUOUS
 62
     1
 10
734.237638
 20
724.388848
 11
731.852436
 21
725.388848
  0
LINE
  8
CSLAYER1
  6
CONTINUOUS
 62
     1
 10
733.197686
 20
729.958867
 11
733.197686
 21
721.420863
  0
ENDBLK
  8
0
  0
BLOCK
  8
CSLAYER1
  2
BLKF0002
 70
   64
 10
0.0
 20
0.0
 30
0.0
  0
LINE
  8
CSLAYER1
  6
CONTINUOUS
 62
     1
 10
3119.134035
 20
726.588848
 11
3119.134035
 21
724.388848
  0
LINE
  8
CSLAYER1
  6
CONTINUOUS
 62
     1
 10
3126.134035
 20
726.588848
 11
3126.134035
 21
724.388848
  0
LINE
  8
CSLAYER1
  6
CONTINUOUS
 62
     1
 10
3126.134035
 20
725.388848
 11
3119.134035
 21
725.388848
  0
LINE
  8
CSLAYER1
  6
CONTINUOUS
 62
     1
 10
3124.734035
 20
727.988848
 11
3120.534035
 21
727.988848
  0
LINE
  8
CSLAYER1
  6
CONTINUOUS
 62
     1
 10
3127.134035
 20
724.388848
 11
3127.134035
 21
723.588848
  0
LINE
  8
CSLAYER1
  6
CONTINUOUS
 62
     1
 10
3118.134035
 20
724.388848
 11
3118.134035
 21
723.588848
  0
LINE
  8
CSLAYER1
  6
CONTINUOUS
 62
     1
 10
3126.134035
 20
726.588848
 11
3126.134035
 21
725.388848
  0
LINE
  8
CSLAYER1
  6
CONTINUOUS
 62
     1
 10
3127.134035
 20
724.388848
 11
3118.134035
 21
724.388848
  0
ARC
  8
CSLAYER1
  6
CONTINUOUS
 62
     1
 10
3124.734035
 20
726.588848
 40
1.400000
 50
-0.000000
 51
90.000000
  0
ARC
  8
CSLAYER1
  6
CONTINUOUS
 62
     1
 10
3120.534035
 20
726.588848
 40
1.400000
 50
90.000000
 51
180.000000
  0
LINE
  8
CSLAYER1
  6
CONTINUOUS
 62
     1
 10
3123.673987
 20
724.388848
 11
3121.288784
 21
725.388848
  0
ENDBLK
  8
0
  0
BLOCK
  8
CSLAYER1
  2
BLKF0003
 70
   64
 10
0.0
 20
0.0
 30
0.0
  0
LINE
  8
CSLAYER1
  6
CONTINUOUS
 62
     3
 10
3514.219129
 20
2633.889265
 11
3514.219129
 21
2695.889265
  0
LINE
  8
CSLAYER1
  6
CONTINUOUS
 62
     3
 10
3516.719129
 20
2631.389265
 11
3601.719129
 21
2631.389265
  0
LINE
  8
CSLAYER1
  6
CENTER
 62
     5
 10
3455.869490
 20
2703.889265
 11
3514.219129
 21
2703.889265
  0
LINE
  8
CSLAYER1
  6
CONTINUOUS
 62
     2
 10
3516.719129
 20
2687.889265
 11
3601.719129
 21
2687.889265
  0
LINE
  8
CSLAYER1
  6
CONTINUOUS
 62
     3
 10
3516.719129
 20
2636.389265
 11
3516.719129
 21
2681.389265
  0
LINE
  8
CSLAYER1
  6
CONTINUOUS
 62
     3
 10
3604.219129
 20
2633.889265
 11
3604.219129
 21
2703.889265
  0
LINE
  8
CSLAYER1
  6
CONTINUOUS
 62
     3
 10
3519.219129
 20
2633.889265
 11
3596.219129
 21
2633.889265
  0
LINE
  8
CSLAYER1
  6
CONTINUOUS
 62
     3
 10
3519.219129
 20
2683.889265
 11
3596.219129
 21
2683.889265
  0
ARC
  8
CSLAYER1
  6
CONTINUOUS
 62
     3
 10
3542.150947
 20
2658.889265
 40
59.568182
 50
-24.814837
 51
24.814837
  0
ARC
  8
CSLAYER1
  6
CONTINUOUS
 62
     3
 10
3519.219129
 20
2636.389265
 40
2.500000
 50
180.000000
 51
270.000000
  0
ARC
  8
CSLAYER1
  6
CONTINUOUS
 62
     3
 10
3519.219129
 20
2681.389265
 40
2.500000
 50
90.000000
 51
180.000000
  0
ARC
  8
CSLAYER1
  6
CONTINUOUS
 62
     3
 10
3516.719129
 20
2633.889265
 40
2.500000
 50
180.000000
 51
270.000000
  0
ARC
  8
CSLAYER1
  6
CONTINUOUS
 62
     3
 10
3601.719129
 20
2633.889265
 40
2.500000
 50
270.000000
 51
360.000000
  0
ARC
  8
CSLAYER1
  6
CONTINUOUS
 62
     2
 10
3601.719129
 20
2690.389265
 40
2.500000
 50
270.000000
 51
360.000000
  0
ARC
  8
CSLAYER1
  6
CONTINUOUS
 62
     2
 10
3516.719129
 20
2690.389265
 40
2.500000
 50
180.000000
 51
270.000000
  0
LINE
  8
CSLAYER1
  6
CONTINUOUS
 62
     3
 10
3514.219129
 20
2773.889265
 11
3514.219129
 21
2711.889265
  0
LINE
  8
CSLAYER1
  6
CONTINUOUS
 62
     3
 10
3516.719129
 20
2776.389265
 11
3601.719129
 21
2776.389265
  0
LINE
  8
CSLAYER1
  6
CONTINUOUS
 62
     2
 10
3516.719129
 20
2719.889265
 11
3601.719129
 21
2719.889265
  0
LINE
  8
CSLAYER1
  6
CONTINUOUS
 62
     3
 10
3604.219129
 20
2773.889265
 11
3604.219129
 21
2703.889265
  0
ARC
  8
CSLAYER1
  6
CONTINUOUS
 62
     3
 10
3516.719129
 20
2773.889265
 40
2.500000
 50
90.000000
 51
180.000000
  0
ARC
  8
CSLAYER1
  6
CONTINUOUS
 62
     3
 10
3601.719129
 20
2773.889265
 40
2.500000
 50
-0.000000
 51
90.000000
  0
ARC
  8
CSLAYER1
  6
CONTINUOUS
 62
     2
 10
3601.719129
 20
2717.389265
 40
2.500000
 50
-0.000000
 51
90.000000
  0
ARC
  8
CSLAYER1
  6
CONTINUOUS
 62
     2
 10
3516.719129
 20
2717.389265
 40
2.500000
 50
90.000000
 51
180.000000
  0
LINE
  8
CSLAYER1
  6
CONTINUOUS
 62
     3
 10
3516.719129
 20
2771.389265
 11
3516.719129
 21
2726.389265
  0
LINE
  8
CSLAYER1
  6
CONTINUOUS
 62
     3
 10
3519.219129
 20
2773.889265
 11
3596.219129
 21
2773.889265
  0
LINE
  8
CSLAYER1
  6
CONTINUOUS
 62
     3
 10
3519.219129
 20
2723.889265
 11
3596.219129
 21
2723.889265
  0
ARC
  8
CSLAYER1
  6
CONTINUOUS
 62
     3
 10
3542.150947
 20
2748.889265
 40
59.568182
 50
-24.814837
 51
24.814837
  0
ARC
  8
CSLAYER1
  6
CONTINUOUS
 62
     3
 10
3519.219129
 20
2771.389265
 40
2.500000
 50
90.000000
 51
180.000000
  0
ARC
  8
CSLAYER1
  6
CONTINUOUS
 62
     3
 10
3519.219129
 20
2726.389265
 40
2.500000
 50
180.000000
 51
270.000000
  0
LINE
  8
CSLAYER1
  6
CONTINUOUS
 62
     3
 10
3507.219129
 20
2710.889265
 11
3507.219129
 21
2707.389265
  0
LINE
  8
CSLAYER1
  6
CONTINUOUS
 62
     3
 10
3455.869490
 20
2707.389265
 11
3507.219129
 21
2707.389265
  0
LINE
  8
CSLAYER1
  6
CONTINUOUS
 62
     3
 10
3508.219129
 20
2711.889265
 11
3514.219129
 21
2711.889265
  0
LINE
  8
CSLAYER1
  6
CONTINUOUS
 62
     3
 10
3508.219129
 20
2695.889265
 11
3514.219129
 21
2695.889265
  0
LINE
  8
CSLAYER1
  6
CONTINUOUS
 62
     3
 10
3455.869490
 20
2700.389265
 11
3507.219129
 21
2700.389265
  0
ARC
  8
CSLAYER1
  6
CONTINUOUS
 62
     3
 10
3508.219129
 20
2696.889265
 40
1.000000
 50
180.000000
 51
270.000000
  0
ARC
  8
CSLAYER1
  6
CONTINUOUS
 62
     3
 10
3508.219129
 20
2710.889265
 40
1.000000
 50
90.000000
 51
180.000000
  0
LINE
  8
CSLAYER1
  6
CONTINUOUS
 62
     3
 10
3507.219129
 20
2700.389265
 11
3507.219129
 21
2696.889265
  0
LINE
  8
CSLAYER1
  6
CONTINUOUS
 62
     2
 10
3507.219129
 20
2707.389265
 11
3507.219129
 21
2700.389265
  0
LINE
  8
CSLAYER1
  6
CONTINUOUS
 62
     2
 10
3514.219129
 20
2695.889265
 11
3514.219129
 21
2703.889265
  0
LINE
  8
CSLAYER1
  6
CONTINUOUS
 62
     2
 10
3514.219129
 20
2711.889265
 11
3514.219129
 21
2703.889265
  0
LINE
  8
CSLAYER1
  6
CONTINUOUS
 62
     2
 10
3533.712141
 20
2691.726606
 11
3524.577141
 21
2691.726606
  0
LINE
  8
CSLAYER1
  6
CONTINUOUS
 62
     2
 10
3533.712141
 20
2715.351606
 11
3524.577141
 21
2715.351606
  0
LINE
  8
CSLAYER1
  6
CONTINUOUS
 62
     2
 10
3523.317141
 20
2692.986606
 11
3523.317141
 21
2714.091606
  0
LINE
  8
CSLAYER1
  6
CONTINUOUS
 62
     2
 10
3534.972141
 20
2692.986606
 11
3534.972141
 21
2714.091606
  0
LINE
  8
CSLAYER1
  6
CONTINUOUS
 62
     2
 10
3533.082141
 20
2713.461606
 11
3525.049641
 21
2713.461606
  0
LINE
  8
CSLAYER1
  6
CONTINUOUS
 62
     2
 10
3533.082141
 20
2710.311606
 11
3532.137141
 21
2710.311606
  0
LINE
  8
CSLAYER1
  6
CONTINUOUS
 62
     2
 10
3533.082141
 20
2701.649106
 11
3532.137141
 21
2701.649106
  0
LINE
  8
CSLAYER1
  6
CONTINUOUS
 62
     2
 10
3533.082141
 20
2697.081606
 11
3528.042141
 21
2697.081606
  0
LINE
  8
CSLAYER1
  6
CONTINUOUS
 62
     2
 10
3534.184641
 20
2698.184106
 11
3534.184641
 21
2700.546606
  0
LINE
  8
CSLAYER1
  6
CONTINUOUS
 62
     2
 10
3526.939641
 20
2698.184106
 11
3526.939641
 21
2700.546606
  0
LINE
  8
CSLAYER1
  6
CONTINUOUS
 62
     2
 10
3523.947141
 20
2711.414106
 11
3523.947141
 21
2712.359106
  0
LINE
  8
CSLAYER1
  6
CONTINUOUS
 62
     2
 10
3531.192141
 20
2702.594106
 11
3531.192141
 21
2709.366606
  0
LINE
  8
CSLAYER1
  6
CONTINUOUS
 62
     2
 10
3530.404641
 20
2702.594106
 11
3530.404641
 21
2709.366606
  0
ARC
  8
CSLAYER1
  6
CONTINUOUS
 62
     2
 10
3533.082141
 20
2698.184106
 40
1.102500
 50
270.000000
 51
360.000000
  0
ARC
  8
CSLAYER1
  6
CONTINUOUS
 62
     2
 10
3528.042141
 20
2698.184106
 40
1.102500
 50
180.000000
 51
270.000000
  0
ARC
  8
CSLAYER1
  6
CONTINUOUS
 62
     2
 10
3528.042141
 20
2700.546606
 40
1.102500
 50
90.000000
 51
180.000000
  0
ARC
  8
CSLAYER1
  6
CONTINUOUS
 62
     2
 10
3533.082141
 20
2700.546606
 40
1.102500
 50
-0.000000
 51
90.000000
  0
ARC
  8
CSLAYER1
  6
CONTINUOUS
 62
     2
 10
3525.049641
 20
2711.414106
 40
1.102500
 50
180.000000
 51
270.000000
  0
ARC
  8
CSLAYER1
  6
CONTINUOUS
 62
     2
 10
3525.049641
 20
2712.359106
 40
1.102500
 50
90.000000
 51
180.000000
  0
ARC
  8
CSLAYER1
  6
CONTINUOUS
 62
     2
 10
3533.082141
 20
2712.359106
 40
1.102500
 50
-0.000000
 51
90.000000
  0
ARC
  8
CSLAYER1
  6
CONTINUOUS
 62
     2
 10
3533.082141
 20
2711.414106
 40
1.102500
 50
270.000000
 51
360.000000
  0
LINE
  8
CSLAYER1
  6
CONTINUOUS
 62
     2
 10
3529.459641
 20
2701.649106
 11
3528.042141
 21
2701.649106
  0
LINE
  8
CSLAYER1
  6
CONTINUOUS
 62
     2
 10
3529.459641
 20
2710.311606
 11
3525.049641
 21
2710.311606
  0
ARC
  8
CSLAYER1
  6
CONTINUOUS
 62
     2
 10
3532.137141
 20
2702.594106
 40
0.945000
 50
180.000000
 51
270.000000
  0
ARC
  8
CSLAYER1
  6
CONTINUOUS
 62
     2
 10
3529.459641
 20
2702.594106
 40
0.945000
 50
270.000000
 51
360.000000
  0
ARC
  8
CSLAYER1
  6
CONTINUOUS
 62
     2
 10
3529.459641
 20
2709.366606
 40
0.945000
 50
-0.000000
 51
90.000000
  0
ARC
  8
CSLAYER1
  6
CONTINUOUS
 62
     2
 10
3533.712141
 20
2692.986606
 40
1.260000
 50
270.000000
 51
360.000000
  0
ARC
  8
CSLAYER1
  6
CONTINUOUS
 62
     2
 10
3524.577141
 20
2692.986606
 40
1.260000
 50
180.000000
 51
270.000000
  0
ARC
  8
CSLAYER1
  6
CONTINUOUS
 62
     2
 10
3524.577141
 20
2714.091606
 40
1.260000
 50
90.000000
 51
180.000000
  0
ARC
  8
CSLAYER1
  6
CONTINUOUS
 62
     2
 10
3533.712141
 20
2714.091606
 40
1.260000
 50
-0.000000
 51
90.000000
  0
ARC
  8
CSLAYER1
  6
CONTINUOUS
 62
     2
 10
3532.137141
 20
2709.366606
 40
0.945000
 50
90.000000
 51
180.000000
  0
LINE
  8
CSLAYER1
  6
CONTINUOUS
 62
     2
 10
3534.184641
 20
2711.414106
 11
3534.184641
 21
2712.359106
  0
CIRCLE
  8
CSLAYER1
  6
CONTINUOUS
 62
     2
 10
3548.719129
 20
2653.889265
 40
2.500000
  0
CIRCLE
  8
CSLAYER1
  6
CONTINUOUS
 62
     2
 10
3548.719129
 20
2643.889265
 40
2.500000
  0
CIRCLE
  8
CSLAYER1
  6
CONTINUOUS
 62
     2
 10
3558.719129
 20
2643.889265
 40
2.500000
  0
CIRCLE
  8
CSLAYER1
  6
CONTINUOUS
 62
     2
 10
3558.719129
 20
2653.889265
 40
2.500000
  0
CIRCLE
  8
CSLAYER1
  6
CONTINUOUS
 62
     2
 10
3568.719129
 20
2653.889265
 40
2.500000
  0
CIRCLE
  8
CSLAYER1
  6
CONTINUOUS
 62
     2
 10
3568.719129
 20
2643.889265
 40
2.500000
  0
CIRCLE
  8
CSLAYER1
  6
CONTINUOUS
 62
     2
 10
3578.719129
 20
2643.889265
 40
2.500000
  0
CIRCLE
  8
CSLAYER1
  6
CONTINUOUS
 62
     2
 10
3578.719129
 20
2653.889265
 40
2.500000
  0
CIRCLE
  8
CSLAYER1
  6
CONTINUOUS
 62
     2
 10
3588.719129
 20
2653.889265
 40
2.500000
  0
CIRCLE
  8
CSLAYER1
  6
CONTINUOUS
 62
     2
 10
3588.719129
 20
2643.889265
 40
2.500000
  0
CIRCLE
  8
CSLAYER1
  6
CONTINUOUS
 62
     2
 10
3548.719129
 20
2663.889265
 40
2.500000
  0
CIRCLE
  8
CSLAYER1
  6
CONTINUOUS
 62
     2
 10
3548.719129
 20
2673.889265
 40
2.500000
  0
CIRCLE
  8
CSLAYER1
  6
CONTINUOUS
 62
     2
 10
3558.719129
 20
2673.889265
 40
2.500000
  0
CIRCLE
  8
CSLAYER1
  6
CONTINUOUS
 62
     2
 10
3558.719129
 20
2663.889265
 40
2.500000
  0
CIRCLE
  8
CSLAYER1
  6
CONTINUOUS
 62
     2
 10
3568.719129
 20
2663.889265
 40
2.500000
  0
CIRCLE
  8
CSLAYER1
  6
CONTINUOUS
 62
     2
 10
3568.719129
 20
2673.889265
 40
2.500000
  0
CIRCLE
  8
CSLAYER1
  6
CONTINUOUS
 62
     2
 10
3578.719129
 20
2673.889265
 40
2.500000
  0
CIRCLE
  8
CSLAYER1
  6
CONTINUOUS
 62
     2
 10
3578.719129
 20
2663.889265
 40
2.500000
  0
CIRCLE
  8
CSLAYER1
  6
CONTINUOUS
 62
     2
 10
3588.719129
 20
2663.889265
 40
2.500000
  0
CIRCLE
  8
CSLAYER1
  6
CONTINUOUS
 62
     2
 10
3588.719129
 20
2673.889265
 40
2.500000
  0
CIRCLE
  8
CSLAYER1
  6
CONTINUOUS
 62
     2
 10
3548.719129
 20
2753.889265
 40
2.500000
  0
CIRCLE
  8
CSLAYER1
  6
CONTINUOUS
 62
     2
 10
3548.719129
 20
2763.889265
 40
2.500000
  0
CIRCLE
  8
CSLAYER1
  6
CONTINUOUS
 62
     2
 10
3558.719129
 20
2763.889265
 40
2.500000
  0
CIRCLE
  8
CSLAYER1
  6
CONTINUOUS
 62
     2
 10
3558.719129
 20
2753.889265
 40
2.500000
  0
CIRCLE
  8
CSLAYER1
  6
CONTINUOUS
 62
     2
 10
3568.719129
 20
2753.889265
 40
2.500000
  0
CIRCLE
  8
CSLAYER1
  6
CONTINUOUS
 62
     2
 10
3568.719129
 20
2763.889265
 40
2.500000
  0
CIRCLE
  8
CSLAYER1
  6
CONTINUOUS
 62
     2
 10
3578.719129
 20
2763.889265
 40
2.500000
  0
CIRCLE
  8
CSLAYER1
  6
CONTINUOUS
 62
     2
 10
3578.719129
 20
2753.889265
 40
2.500000
  0
CIRCLE
  8
CSLAYER1
  6
CONTINUOUS
 62
     2
 10
3588.719129
 20
2753.889265
 40
2.500000
  0
CIRCLE
  8
CSLAYER1
  6
CONTINUOUS
 62
     2
 10
3588.719129
 20
2763.889265
 40
2.500000
  0
CIRCLE
  8
CSLAYER1
  6
CONTINUOUS
 62
     2
 10
3548.719129
 20
2743.889265
 40
2.500000
  0
CIRCLE
  8
CSLAYER1
  6
CONTINUOUS
 62
     2
 10
3548.719129
 20
2733.889265
 40
2.500000
  0
CIRCLE
  8
CSLAYER1
  6
CONTINUOUS
 62
     2
 10
3558.719129
 20
2733.889265
 40
2.500000
  0
CIRCLE
  8
CSLAYER1
  6
CONTINUOUS
 62
     2
 10
3558.719129
 20
2743.889265
 40
2.500000
  0
CIRCLE
  8
CSLAYER1
  6
CONTINUOUS
 62
     2
 10
3568.719129
 20
2743.889265
 40
2.500000
  0
CIRCLE
  8
CSLAYER1
  6
CONTINUOUS
 62
     2
 10
3568.719129
 20
2733.889265
 40
2.500000
  0
CIRCLE
  8
CSLAYER1
  6
CONTINUOUS
 62
     2
 10
3578.719129
 20
2733.889265
 40
2.500000
  0
CIRCLE
  8
CSLAYER1
  6
CONTINUOUS
 62
     2
 10
3578.719129
 20
2743.889265
 40
2.500000
  0
CIRCLE
  8
CSLAYER1
  6
CONTINUOUS
 62
     2
 10
3588.719129
 20
2743.889265
 40
2.500000
  0
CIRCLE
  8
CSLAYER1
  6
CONTINUOUS
 62
     2
 10
3588.719129
 20
2733.889265
 40
2.500000
  0
LINE
  8
CSLAYER1
  6
CONTINUOUS
 62
     2
 10
3522.719129
 20
2731.389265
 11
3522.719129
 21
2766.389265
  0
LINE
  8
CSLAYER1
  6
CONTINUOUS
 62
     2
 10
3538.719129
 20
2731.389265
 11
3538.719129
 21
2766.389265
  0
LINE
  8
CSLAYER1
  6
CONTINUOUS
 62
     2
 10
3524.219129
 20
2729.889265
 11
3537.219129
 21
2729.889265
  0
LINE
  8
CSLAYER1
  6
CONTINUOUS
 62
     2
 10
3523.719129
 20
2731.389265
 11
3523.719129
 21
2766.389265
  0
LINE
  8
CSLAYER1
  6
CONTINUOUS
 62
     2
 10
3537.719129
 20
2731.389265
 11
3537.719129
 21
2766.389265
  0
LINE
  8
CSLAYER1
  6
CONTINUOUS
 62
     2
 10
3524.219129
 20
2730.889265
 11
3537.219129
 21
2730.889265
  0
LINE
  8
CSLAYER1
  6
CONTINUOUS
 62
     2
 10
3524.219129
 20
2767.889265
 11
3537.219129
 21
2767.889265
  0
LINE
  8
CSLAYER1
  6
CONTINUOUS
 62
     2
 10
3524.219129
 20
2766.889265
 11
3537.219129
 21
2766.889265
  0
ARC
  8
CSLAYER1
  6
CONTINUOUS
 62
     2
 10
3524.219129
 20
2731.389265
 40
0.500000
 50
180.000000
 51
270.000000
  0
ARC
  8
CSLAYER1
  6
CONTINUOUS
 62
     2
 10
3537.219129
 20
2731.389265
 40
0.500000
 50
270.000000
 51
360.000000
  0
ARC
  8
CSLAYER1
  6
CONTINUOUS
 62
     2
 10
3524.219129
 20
2766.389265
 40
0.500000
 50
90.000000
 51
180.000000
  0
ARC
  8
CSLAYER1
  6
CONTINUOUS
 62
     2
 10
3537.219129
 20
2766.389265
 40
0.500000
 50
-0.000000
 51
90.000000
  0
ARC
  8
CSLAYER1
  6
CONTINUOUS
 62
     2
 10
3524.219129
 20
2731.389265
 40
1.500000
 50
180.000000
 51
270.000000
  0
ARC
  8
CSLAYER1
  6
CONTINUOUS
 62
     2
 10
3537.219129
 20
2731.389265
 40
1.500000
 50
270.000000
 51
360.000000
  0
ARC
  8
CSLAYER1
  6
CONTINUOUS
 62
     2
 10
3524.219129
 20
2766.389265
 40
1.500000
 50
90.000000
 51
180.000000
  0
ARC
  8
CSLAYER1
  6
CONTINUOUS
 62
     2
 10
3537.219129
 20
2766.389265
 40
1.500000
 50
-0.000000
 51
90.000000
  0
LINE
  8
CSLAYER1
  6
CONTINUOUS
 62
     2
 10
3527.719129
 20
2739.889265
 11
3527.719129
 21
2757.889265
  0
LINE
  8
CSLAYER1
  6
CONTINUOUS
 62
     2
 10
3524.641057
 20
2748.889265
 11
3527.719129
 21
2757.889265
  0
LINE
  8
CSLAYER1
  6
CONTINUOUS
 62
     2
 10
3524.641057
 20
2748.889265
 11
3527.719129
 21
2739.889265
  0
TEXT
  8
CSLAYER1
 62
     2
 10
3536.012763
 20
2739.909247
 40
7.066058
 41
1.574983
  1
UP
 50
89.999985
 51
0.000000
  7
EASYDRAW_FONT
 72
     5
 11
3536.012768
 21
2758.457450
  0
LINE
  8
CSLAYER1
  6
CONTINUOUS
 62
     2
 10
3522.719129
 20
2676.389265
 11
3522.719129
 21
2641.389265
  0
LINE
  8
CSLAYER1
  6
CONTINUOUS
 62
     2
 10
3538.719129
 20
2676.389265
 11
3538.719129
 21
2641.389265
  0
LINE
  8
CSLAYER1
  6
CONTINUOUS
 62
     2
 10
3524.219129
 20
2677.889265
 11
3537.219129
 21
2677.889265
  0
LINE
  8
CSLAYER1
  6
CONTINUOUS
 62
     2
 10
3523.719129
 20
2676.389265
 11
3523.719129
 21
2641.389265
  0
LINE
  8
CSLAYER1
  6
CONTINUOUS
 62
     2
 10
3537.719129
 20
2676.389265
 11
3537.719129
 21
2641.389265
  0
LINE
  8
CSLAYER1
  6
CONTINUOUS
 62
     2
 10
3524.219129
 20
2676.889265
 11
3537.219129
 21
2676.889265
  0
LINE
  8
CSLAYER1
  6
CONTINUOUS
 62
     2
 10
3524.219129
 20
2639.889265
 11
3537.219129
 21
2639.889265
  0
LINE
  8
CSLAYER1
  6
CONTINUOUS
 62
     2
 10
3524.219129
 20
2640.889265
 11
3537.219129
 21
2640.889265
  0
ARC
  8
CSLAYER1
  6
CONTINUOUS
 62
     2
 10
3524.219129
 20
2676.389265
 40
0.500000
 50
90.000000
 51
180.000000
  0
ARC
  8
CSLAYER1
  6
CONTINUOUS
 62
     2
 10
3537.219129
 20
2676.389265
 40
0.500000
 50
-0.000000
 51
90.000000
  0
ARC
  8
CSLAYER1
  6
CONTINUOUS
 62
     2
 10
3524.219129
 20
2641.389265
 40
0.500000
 50
180.000000
 51
270.000000
  0
ARC
  8
CSLAYER1
  6
CONTINUOUS
 62
     2
 10
3537.219129
 20
2641.389265
 40
0.500000
 50
270.000000
 51
360.000000
  0
ARC
  8
CSLAYER1
  6
CONTINUOUS
 62
     2
 10
3524.219129
 20
2676.389265
 40
1.500000
 50
90.000000
 51
180.000000
  0
ARC
  8
CSLAYER1
  6
CONTINUOUS
 62
     2
 10
3537.219129
 20
2676.389265
 40
1.500000
 50
-0.000000
 51
90.000000
  0
ARC
  8
CSLAYER1
  6
CONTINUOUS
 62
     2
 10
3524.219129
 20
2641.389265
 40
1.500000
 50
180.000000
 51
270.000000
  0
ARC
  8
CSLAYER1
  6
CONTINUOUS
 62
     2
 10
3537.219129
 20
2641.389265
 40
1.500000
 50
270.000000
 51
360.000000
  0
LINE
  8
CSLAYER1
  6
CONTINUOUS
 62
     2
 10
3533.192059
 20
2667.889265
 11
3533.192059
 21
2649.889265
  0
LINE
  8
CSLAYER1
  6
CONTINUOUS
 62
     2
 10
3536.270131
 20
2658.889265
 11
3533.192059
 21
2649.889265
  0
LINE
  8
CSLAYER1
  6
CONTINUOUS
 62
     2
 10
3536.270131
 20
2658.889265
 11
3533.192059
 21
2667.889265
  0
TEXT
  8
CSLAYER1
 62
     2
 10
3531.581920
 20
2644.191435
 40
6.383575
 41
1.255870
  1
DOWN
 50
89.999985
 51
0.000000
  7
EASYDRAW_FONT
 72
     5
 11
3531.581928
 21
2673.586884
  0
ENDBLK
  8
0
  0
ENDSEC
  0
SECTION
  2
ENTITIES
  0
LINE
  8
CSLAYER1
  6
CONTINUOUS
 62
     3
 10
180.707488
 20
3599.850540
 11
180.707488
 21
75.393795
  0
LINE
  8
CSLAYER1
  6
CONTINUOUS
 62
     3
 10
5161.512127
 20
3599.850540
 11
180.707488
 21
3599.850540
  0
LINE
  8
CSLAYER1
  6
CONTINUOUS
 62
     3
 10
5161.512127
 20
75.393795
 11
180.707488
 21
75.393795
  0
LINE
  8
CSLAYER1
  6
CONTINUOUS
 62
     3
 10
5161.512127
 20
75.393795
 11
5161.512127
 21
3599.850540
  0
LINE
  8
CSLAYER1
  6
CONTINUOUS
 62
     5
 10
105.707488
 20
1815.393795
 11
30.707488
 21
1815.393795
  0
LINE
  8
CSLAYER1
  6
CONTINUOUS
 62
     5
 10
3961.512127
 20
735.393795
 11
5161.512127
 21
735.393795
  0
LINE
  8
CSLAYER1
  6
CONTINUOUS
 62
     5
 10
3961.512127
 20
195.393795
 11
5161.512127
 21
195.393795
  0
LINE
  8
CSLAYER1
  6
CONTINUOUS
 62
     5
 10
3961.512127
 20
435.393795
 11
5161.512127
 21
435.393795
  0
LINE
  8
CSLAYER1
  6
CONTINUOUS
 62
     5
 10
3961.512127
 20
525.393795
 11
5161.512127
 21
525.393795
  0
LINE
  8
CSLAYER1
  6
CONTINUOUS
 62
     5
 10
3961.512127
 20
615.393795
 11
5161.512127
 21
615.393795
  0
LINE
  8
CSLAYER1
  6
CONTINUOUS
 62
     5
 10
3961.512127
 20
855.393795
 11
5161.512127
 21
855.393795
  0
LINE
  8
CSLAYER1
  6
CONTINUOUS
 62
     5
 10
3961.512127
 20
975.393795
 11
3961.512127
 21
75.393795
  0
LINE
  8
CSLAYER1
  6
CONTINUOUS
 62
     5
 10
4261.512127
 20
975.393795
 11
4261.512127
 21
615.393795
  0
LINE
  8
CSLAYER1
  6
CONTINUOUS
 62
     5
 10
3961.512127
 20
975.393795
 11
5161.512127
 21
975.393795
  0
LINE
  8
CSLAYER1
  6
CONTINUOUS
 62
     5
 10
4711.512127
 20
615.393795
 11
4711.512127
 21
195.393795
  0
TEXT
  8
CSLAYER1
 62
     3
 10
4291.048678
 20
88.237877
 40
89.070541
 41
1.003345
  1
東正車輌株式会社
 50
0.000000
 51
0.000000
  7
EASYDRAW_FONT
 72
     5
 11
4976.207181
 21
88.237877
  0
LINE
  8
CSLAYER1
  6
CONTINUOUS
 62
     5
 10
4336.512127
 20
525.393795
 11
4336.512127
 21
195.393795
  0
TEXT
  8
CSLAYER1
 62
     5
 10
4006.511719
 20
877.893738
 40
75.000000
 41
1.050000
  1
品　名
 50
0.000000
 51
0.000000
  7
EASYDRAW_FONT
 72
     5
 11
4216.511719
 21
877.893738
  0
TEXT
  8
CSLAYER1
 62
     5
 10
4006.511719
 20
757.893738
 40
75.000000
 41
1.050000
  1
型　式
 50
0.000000
 51
0.000000
  7
EASYDRAW_FONT
 72
     5
 11
4216.511719
 21
757.893738
  0
TEXT
  8
CSLAYER1
 62
     5
 10
3969.011719
 20
637.893799
 40
75.000000
 41
1.036364
  1
図面番号
 50
0.000000
 51
0.000000
  7
EASYDRAW_FONT
 72
     5
 11
4254.011719
 21
637.893799
  0
TEXT
  8
CSLAYER1
 62
     5
 10
4036.511719
 20
532.893799
 40
75.000000
 41
0.827586
  1
平成２８年４月１６日
 50
0.000000
 51
0.000000
  7
EASYDRAW_FONT
 72
     5
 11
4636.511719
 21
532.893799
  0
TEXT
  8
CSLAYER1
 62
     5
 10
4831.511719
 20
532.893799
 40
75.000000
 41
1.050000
  1
Ｂ－４
 50
0.000000
 51
0.000000
  7
EASYDRAW_FONT
 72
     5
 11
5041.511719
 21
532.893799
  0
TEXT
  8
CSLAYER1
 62
     5
 10
4044.011719
 20
442.893799
 40
75.000000
 41
1.050000
  1
検　図
 50
0.000000
 51
0.000000
  7
EASYDRAW_FONT
 72
     5
 11
4254.011719
 21
442.893799
  0
TEXT
  8
CSLAYER1
 62
     5
 10
4419.011719
 20
442.893799
 40
75.000000
 41
1.050000
  1
作　図
 50
0.000000
 51
0.000000
  7
EASYDRAW_FONT
 72
     5
 11
4629.011719
 21
442.893799
  0
TEXT
  8
CSLAYER1
 62
     5
 10
4831.511719
 20
442.893799
 40
75.000000
 41
1.050000
  1
尺　度
 50
0.000000
 51
0.000000
  7
EASYDRAW_FONT
 72
     5
 11
5041.511719
 21
442.893799
  0
TEXT
  8
CSLAYER1
 62
     5
 10
4982.620117
 20
217.121689
 40
75.000000
 41
1.080000
  1
１５
 50
0.000000
 51
0.000000
  7
EASYDRAW_FONT
 72
     5
 11
5117.620117
 21
217.121689
  0
TEXT
  8
CSLAYER1
 62
     5
 10
4952.140625
 20
288.678741
 40
75.000000
 41
1.200000
  1
／
 50
0.000000
 51
0.000000
  7
EASYDRAW_FONT
 72
     5
 11
5012.140625
 21
288.678741
  0
TEXT
  8
CSLAYER1
 62
     5
 10
4906.821289
 20
341.153900
 40
75.000000
 41
1.200000
  1
１
 50
0.000000
 51
0.000000
  7
EASYDRAW_FONT
 72
     5
 11
4966.821289
 21
341.153900
  0
TEXT
  8
CSLAYER1
 62
     3
 10
4471.511719
 20
877.893738
 40
75.000000
 41
0.834783
  1
ゴールドリフター
 50
0.000000
 51
0.000000
  7
EASYDRAW_FONT
 72
     5
 11
4951.511719
 21
877.893738
  0
TEXT
  8
CSLAYER1
 62
     3
 10
4351.511719
 20
757.893738
 40
75.000000
 41
0.822857
  1
ＧＬＩ－７５０－０６１５
 50
0.000000
 51
0.000000
  7
EASYDRAW_FONT
 72
     5
 11
5071.511719
 21
757.893738
  0
TEXT
  8
CSLAYER1
 62
     3
 10
4561.511719
 20
637.893799
 40
75.000000
 41
0.857143
  1
GI-29
 50
0.000000
 51
0.000000
  7
EASYDRAW_FONT
 72
     5
 11
4861.511719
 21
637.893799
  0
INSERT
  8
CSLAYER1
  2
BLKF0000
 10
0.0
 20
0.0
 30
0.0
  0
POINT
  8
CSLAYER1
 62
     5
 10
2750.601993
 20
1658.730815
  0
POINT
  8
CSLAYER1
 62
     5
 10
2252.868041
 20
1152.409852
  0
ARC
  8
CSLAYER1
  6
CONTINUOUS
 62
     4
 10
2756.923394
 20
1663.734803
 40
17.000000
 50
-33.130318
 51
45.490000
  0
CIRCLE
  8
CSLAYER1
  6
CONTINUOUS
 62
     7
 10
2750.601992
 20
1658.730809
 40
21.000000
  0
LINE
  8
CSLAYER1
  6
CONTINUOUS
 62
     7
 10
1713.134035
 20
684.088848
 11
1713.134035
 21
619.088848
  0
LINE
  8
CSLAYER1
  6
CONTINUOUS
 62
     7
 10
305.638257
 20
619.088848
 11
3757.036721
 21
619.088848
  0
LINE
  8
CSLAYER1
  6
CONTINUOUS
 62
     7
 10
1713.134035
 20
684.088848
 11
3213.134035
 21
684.088848
  0
POINT
  8
CSLAYER1
 62
     3
 10
2252.868041
 20
1152.409856
  0
LINE
  8
CSLAYER1
  6
CONTINUOUS
 62
     5
 10
2201.564025
 20
1152.409852
 11
2307.019707
 21
1152.409852
  0
LINE
  8
CSLAYER1
  6
CONTINUOUS
 62
     5
 10
2252.868043
 20
1196.358775
 11
2252.868043
 21
1099.928636
  0
LINE
  8
CSLAYER1
  6
CONTINUOUS
 62
     5
 10
2086.342438
 20
1443.292794
 11
2086.938137
 21
1443.878390
  0
LINE
  8
CSLAYER1
  6
CONTINUOUS
 62
     4
 10
2688.005593
 20
684.088848
 11
2289.104099
 21
1089.872272
  0
LINE
  8
CSLAYER1
  6
CONTINUOUS
 62
     4
 10
2734.817297
 20
784.821886
 11
2759.742271
 21
684.088848
  0
LINE
  8
CSLAYER1
  6
CONTINUOUS
 62
     4
 10
2734.817297
 20
784.821886
 11
1893.576816
 21
1640.575620
  0
LINE
  8
CSLAYER1
  6
CONTINUOUS
 62
     4
 10
2190.959366
 20
1189.710218
 11
1748.570945
 21
1639.730814
  0
LINE
  8
CSLAYER1
  6
CONTINUOUS
 62
     4
 10
2200.701276
 20
1171.241446
 11
2190.959370
 21
1189.710211
  0
LINE
  8
CSLAYER1
  6
CONTINUOUS
 62
     4
 10
2270.804649
 20
1099.928635
 11
2289.104093
 21
1089.872276
  0
LINE
  8
CSLAYER1
  6
CONTINUOUS
 62
     3
 10
2235.752962
 20
1135.585041
 11
2200.700689
 21
1171.242044
  0
LINE
  8
CSLAYER1
  6
CONTINUOUS
 62
     4
 10
1893.576816
 20
1640.575620
 11
1775.134087
 21
1672.041863
  0
POINT
  8
CSLAYER1
 62
     5
 10
1755.134087
 20
1658.730811
  0
LINE
  8
CSLAYER1
  6
CONTINUOUS
 62
     4
 10
2527.987793
 20
1704.730814
 11
2355.012046
 21
1528.770857
  0
POINT
  8
CSLAYER1
 62
     4
 10
2252.868043
 20
1152.409857
  0
LINE
  8
CSLAYER1
  6
CONTINUOUS
 62
     4
 10
2234.931432
 20
1099.928640
 11
2216.631988
 21
1089.872281
  0
LINE
  8
CSLAYER1
  6
CONTINUOUS
 62
     4
 10
2252.868038
 20
1118.174692
 11
2234.931432
 21
1099.928640
  0
LINE
  8
CSLAYER1
  6
CONTINUOUS
 62
     4
 10
2297.039625
 20
1230.152188
 11
2400.554779
 21
1335.453204
  0
ARC
  8
CSLAYER1
  6
CONTINUOUS
 62
     4
 10
2384.456342
 20
1393.253207
 40
60.000000
 50
285.563565
 51
315.490000
  0
LINE
  8
CSLAYER1
  6
CONTINUOUS
 62
     4
 10
2427.244029
 20
1351.191183
 11
2683.822386
 21
1612.196078
  0
LINE
  8
CSLAYER1
  6
CONTINUOUS
 62
     4
 10
2683.822372
 20
1612.196072
 11
2747.349900
 21
1637.984149
  0
ARC
  8
CSLAYER1
  6
CONTINUOUS
 62
     4
 10
2384.456342
 20
1393.253207
 40
32.500000
 50
148.247532
 51
328.247532
  0
LINE
  8
CSLAYER1
  6
CONTINUOUS
 62
     4
 10
2555.078308
 20
1607.191037
 11
2412.092053
 21
1376.150064
  0
CIRCLE
  8
CSLAYER1
  6
CONTINUOUS
 62
     4
 10
2750.601993
 20
1658.730815
 40
10.100000
  0
LINE
  8
CSLAYER1
  6
CONTINUOUS
 62
     4
 10
1764.029338
 20
763.548945
 11
1745.508658
 21
684.088848
  0
LINE
  8
CSLAYER1
  6
CONTINUOUS
 62
     4
 10
1817.730476
 20
684.088848
 11
2216.631982
 21
1089.872277
  0
LINE
  8
CSLAYER1
  6
CONTINUOUS
 62
     4
 10
2499.806886
 20
1641.397323
 11
2356.820632
 21
1410.356350
  0
ARC
  8
CSLAYER1
  6
CONTINUOUS
 62
     4
 10
2527.442597
 20
1624.294180
 40
32.500000
 50
-31.752468
 51
148.247532
  0
LINE
  8
CSLAYER1
  6
CONTINUOUS
 62
     4
 10
2768.840964
 20
1675.857984
 11
2764.901319
 21
1679.730814
  0
LINE
  8
CSLAYER1
  6
CONTINUOUS
 62
     7
 10
3213.134035
 20
684.088848
 11
3213.134035
 21
619.088848
  0
LINE
  8
CSLAYER1
  6
CONTINUOUS
 62
     4
 10
2355.012046
 20
1528.770857
 11
2200.350027
 21
1328.509894
  0
LINE
  8
CSLAYER1
  6
CONTINUOUS
 62
     3
 10
2647.934087
 20
1682.730814
 11
2647.934087
 21
1704.730814
  0
LINE
  8
CSLAYER1
  6
CONTINUOUS
 62
     4
 10
1067.197686
 20
683.370632
 11
1067.197686
 21
619.088848
  0
LINE
  8
CSLAYER1
  6
CONTINUOUS
 62
     4
 10
895.397686
 20
684.088848
 11
895.397686
 21
709.750593
  0
LINE
  8
CSLAYER1
  6
CONTINUOUS
 62
     5
 10
889.568510
 20
702.005914
 11
924.108640
 21
702.005914
  0
LINE
  8
CSLAYER1
  6
CONTINUOUS
 62
     4
 10
894.197686
 20
707.005914
 11
895.397686
 21
707.005914
  0
LINE
  8
CSLAYER1
  6
CONTINUOUS
 62
     4
 10
894.197686
 20
697.005914
 11
895.397686
 21
697.005914
  0
LINE
  8
CSLAYER1
  6
CONTINUOUS
 62
     2
 10
895.397686
 20
696.699623
 11
898.397686
 21
696.699623
  0
LINE
  8
CSLAYER1
  6
CONTINUOUS
 62
     2
 10
895.397686
 20
701.046843
 11
898.397686
 21
701.046843
  0
LINE
  8
CSLAYER1
  6
CONTINUOUS
 62
     4
 10
895.397686
 20
709.750593
 11
899.397686
 21
709.750593
  0
LINE
  8
CSLAYER1
  6
CONTINUOUS
 62
     2
 10
898.397686
 20
684.088848
 11
898.397686
 21
709.750593
  0
LINE
  8
CSLAYER1
  6
CONTINUOUS
 62
     2
 10
902.897686
 20
739.582446
 11
904.397686
 21
739.582446
  0
LINE
  8
CSLAYER1
  6
CONTINUOUS
 62
     4
 10
902.897686
 20
740.090653
 11
904.397686
 21
740.090653
  0
LINE
  8
CSLAYER1
  6
CONTINUOUS
 62
     4
 10
914.397686
 20
684.088848
 11
914.397686
 21
709.750593
  0
LINE
  8
CSLAYER1
  6
CONTINUOUS
 62
     4
 10
902.897686
 20
727.778916
 11
902.897686
 21
740.090653
  0
LINE
  8
CSLAYER1
  6
CONTINUOUS
 62
     4
 10
909.897686
 20
727.778916
 11
909.897686
 21
740.090653
  0
LINE
  8
CSLAYER1
  6
CONTINUOUS
 62
     2
 10
899.397686
 20
700.464419
 11
899.397686
 21
709.750593
  0
LINE
  8
CSLAYER1
  6
CONTINUOUS
 62
     2
 10
913.397686
 20
700.464419
 11
913.397686
 21
709.750593
  0
LINE
  8
CSLAYER1
  6
CONTINUOUS
 62
     2
 10
904.397686
 20
727.778916
 11
904.397686
 21
740.090653
  0
LINE
  8
CSLAYER1
  6
CONTINUOUS
 62
     2
 10
908.397686
 20
727.778916
 11
908.397686
 21
740.090653
  0
LINE
  8
CSLAYER1
  6
CONTINUOUS
 62
     4
 10
900.858504
 20
727.778916
 11
902.897686
 21
727.778916
  0
LINE
  8
CSLAYER1
  6
CONTINUOUS
 62
     4
 10
913.397686
 20
715.794778
 11
911.936869
 21
727.778916
  0
LINE
  8
CSLAYER1
  6
CONTINUOUS
 62
     4
 10
899.397686
 20
715.794778
 11
900.858504
 21
727.778916
  0
LINE
  8
CSLAYER1
  6
CONTINUOUS
 62
     2
 10
898.397686
 20
700.464419
 11
914.397686
 21
700.464419
  0
LINE
  8
CSLAYER1
  6
CONTINUOUS
 62
     2
 10
915.397686
 20
694.213456
 11
915.397686
 21
701.813456
  0
LINE
  8
CSLAYER1
  6
CONTINUOUS
 62
     2
 10
915.397686
 20
694.213456
 11
914.397686
 21
694.213456
  0
LINE
  8
CSLAYER1
  6
CONTINUOUS
 62
     2
 10
915.397686
 20
701.813456
 11
914.397686
 21
701.813456
  0
LINE
  8
CSLAYER1
  6
CONTINUOUS
 62
     2
 10
917.997686
 20
696.513456
 11
917.997686
 21
699.513456
  0
LINE
  8
CSLAYER1
  6
CONTINUOUS
 62
     2
 10
915.997686
 20
694.513456
 11
915.397686
 21
694.513456
  0
LINE
  8
CSLAYER1
  6
CONTINUOUS
 62
     2
 10
915.997686
 20
701.513456
 11
915.397686
 21
701.513456
  0
ARC
  8
CSLAYER1
  6
CONTINUOUS
 62
     2
 10
915.997686
 20
696.513456
 40
2.000000
 50
270.000000
 51
360.000000
  0
ARC
  8
CSLAYER1
  6
CONTINUOUS
 62
     2
 10
915.997686
 20
699.513456
 40
2.000000
 50
0.000000
 51
90.000000
  0
LINE
  8
CSLAYER1
  6
CONTINUOUS
 62
     4
 10
913.397686
 20
709.750593
 11
914.397686
 21
709.750593
  0
LINE
  8
CSLAYER1
  6
CONTINUOUS
 62
     2
 10
908.397686
 20
739.582446
 11
909.897686
 21
739.582446
  0
LINE
  8
CSLAYER1
  6
CONTINUOUS
 62
     4
 10
908.397686
 20
740.090653
 11
909.897686
 21
740.090653
  0
LINE
  8
CSLAYER1
  6
CONTINUOUS
 62
     4
 10
902.155932
 20
757.413638
 11
903.651625
 21
756.516222
  0
LINE
  8
CSLAYER1
  6
CONTINUOUS
 62
     4
 10
903.651625
 20
756.516222
 11
912.625786
 21
748.738617
  0
LINE
  8
CSLAYER1
  6
CONTINUOUS
 62
     4
 10
894.197686
 20
707.005914
 11
894.197686
 21
697.005914
  0
LINE
  8
CSLAYER1
  6
CONTINUOUS
 62
     4
 10
914.397686
 20
707.005914
 11
924.197686
 21
707.005914
  0
LINE
  8
CSLAYER1
  6
CONTINUOUS
 62
     4
 10
917.936110
 20
697.005914
 11
924.197686
 21
697.005914
  0
LINE
  8
CSLAYER1
  6
CONTINUOUS
 62
     4
 10
999.197686
 20
684.088848
 11
999.197686
 21
1639.730814
  0
LINE
  8
CSLAYER1
  6
CONTINUOUS
 62
     4
 10
983.197686
 20
684.088848
 11
983.197686
 21
1639.730814
  0
LINE
  8
CSLAYER1
  6
CONTINUOUS
 62
     4
 10
940.197686
 20
684.088848
 11
940.197686
 21
1754.730814
  0
LINE
  8
CSLAYER1
  6
CONTINUOUS
 62
     4
 10
924.197686
 20
684.088848
 11
924.197686
 21
1754.730814
  0
LINE
  8
CSLAYER1
  6
CONTINUOUS
 62
     3
 10
1018.897686
 20
1658.730814
 11
1018.897686
 21
1668.230814
  0
LINE
  8
CSLAYER1
  6
CONTINUOUS
 62
     4
 10
1015.697686
 20
1797.930814
 11
1015.697686
 21
1639.730814
  0
LINE
  8
CSLAYER1
  6
CONTINUOUS
 62
     4
 10
974.697686
 20
1754.730814
 11
974.697686
 21
1639.730814
  0
LINE
  8
CSLAYER1
  6
CONTINUOUS
 62
     5
 10
1021.905539
 20
1658.730814
 11
970.639272
 21
1658.730814
  0
LINE
  8
CSLAYER1
  6
CONTINUOUS
 62
     4
 10
974.697686
 20
1639.730814
 11
1015.697686
 21
1639.730814
  0
LINE
  8
CSLAYER1
  6
CONTINUOUS
 62
     4
 10
1067.197686
 20
1854.930814
 11
1067.197686
 21
1797.930814
  0
LINE
  8
CSLAYER1
  6
CONTINUOUS
 62
     4
 10
1018.897686
 20
1681.730814
 11
1018.897686
 21
1650.730814
  0
LINE
  8
CSLAYER1
  6
CONTINUOUS
 62
     4
 10
1018.897686
 20
1654.730814
 11
1015.697686
 21
1654.730814
  0
LINE
  8
CSLAYER1
  6
CONTINUOUS
 62
     5
 10
1023.388560
 20
1673.730814
 11
1009.697686
 21
1673.730814
  0
LINE
  8
CSLAYER1
  6
CONTINUOUS
 62
     4
 10
1018.897686
 20
1681.730814
 11
1015.697686
 21
1681.730814
  0
LINE
  8
CSLAYER1
  6
CONTINUOUS
 62
     4
 10
973.697686
 20
1651.730814
 11
973.697686
 21
1665.730814
  0
LINE
  8
CSLAYER1
  6
CONTINUOUS
 62
     4
 10
973.697686
 20
1651.730814
 11
974.697686
 21
1650.730814
  0
LINE
  8
CSLAYER1
  6
CONTINUOUS
 62
     4
 10
1018.897686
 20
1650.730814
 11
1015.697686
 21
1650.730814
  0
LINE
  8
CSLAYER1
  6
CONTINUOUS
 62
     4
 10
973.697686
 20
1665.730814
 11
974.697686
 21
1666.730814
  0
ARC
  8
CSLAYER1
  6
CONTINUOUS
 62
     4
 10
1064.197686
 20
1854.930814
 40
3.000000
 50
0.000000
 51
90.000000
  0
LINE
  8
CSLAYER1
  6
CONTINUOUS
 62
     4
 10
1018.897686
 20
1662.730814
 11
1015.697686
 21
1662.730814
  0
LINE
  8
CSLAYER1
  6
CONTINUOUS
 62
     4
 10
1064.197686
 20
1857.930814
 11
470.197686
 21
1857.930814
  0
LINE
  8
CSLAYER1
  6
CENTER
 62
     5
 10
892.197686
 20
1707.662713
 11
892.197686
 21
1014.885291
  0
LINE
  8
CSLAYER1
  6
CONTINUOUS
 62
     5
 10
892.197686
 20
1030.452413
 11
964.802976
 21
1030.452413
  0
LINE
  8
CSLAYER1
  6
CONTINUOUS
 62
     4
 10
942.197686
 20
1046.452413
 11
942.197686
 21
1014.452413
  0
LINE
  8
CSLAYER1
  6
CONTINUOUS
 62
     4
 10
952.197686
 20
1044.452413
 11
952.197686
 21
1016.452413
  0
LINE
  8
CSLAYER1
  6
CONTINUOUS
 62
     4
 10
950.197686
 20
1046.452413
 11
942.197686
 21
1046.452413
  0
LINE
  8
CSLAYER1
  6
CONTINUOUS
 62
     4
 10
952.197686
 20
1044.452413
 11
950.197686
 21
1046.452413
  0
LINE
  8
CSLAYER1
  6
CONTINUOUS
 62
     4
 10
950.197686
 20
1046.452413
 11
950.197686
 21
1014.452413
  0
LINE
  8
CSLAYER1
  6
CONTINUOUS
 62
     4
 10
950.197686
 20
1014.452413
 11
942.197686
 21
1014.452413
  0
LINE
  8
CSLAYER1
  6
CONTINUOUS
 62
     4
 10
952.197686
 20
1016.452413
 11
950.197686
 21
1014.452413
  0
LINE
  8
CSLAYER1
  6
CONTINUOUS
 62
     4
 10
942.197686
 20
1044.452413
 11
940.197686
 21
1044.452413
  0
LINE
  8
CSLAYER1
  6
CONTINUOUS
 62
     4
 10
942.197686
 20
1016.452413
 11
940.197686
 21
1016.452413
  0
LINE
  8
CSLAYER1
  6
CONTINUOUS
 62
     4
 10
940.197686
 20
1049.888726
 11
983.197686
 21
1049.888726
  0
LINE
  8
CSLAYER1
  6
CONTINUOUS
 62
     4
 10
843.519970
 20
978.575916
 11
924.197686
 21
978.575916
  0
LINE
  8
CSLAYER1
  6
CONTINUOUS
 62
     4
 10
940.197686
 20
978.575916
 11
983.197686
 21
978.575916
  0
LINE
  8
CSLAYER1
  6
CENTER
 62
     5
 10
767.197686
 20
1893.713479
 11
767.197686
 21
583.715981
  0
LINE
  8
CSLAYER1
  6
CONTINUOUS
 62
     4
 10
1015.197686
 20
1096.272314
 11
1015.197686
 21
684.088848
  0
LINE
  8
CSLAYER1
  6
CONTINUOUS
 62
     4
 10
999.197686
 20
1096.272314
 11
1015.197686
 21
1096.272314
  0
LINE
  8
CSLAYER1
  6
CONTINUOUS
 62
     4
 10
811.747686
 20
1107.976255
 11
924.197686
 21
1107.976255
  0
LINE
  8
CSLAYER1
  6
CONTINUOUS
 62
     4
 10
811.747686
 20
1085.545132
 11
924.197686
 21
1085.545132
  0
LINE
  8
CSLAYER1
  6
CONTINUOUS
 62
     4
 10
940.197686
 20
1085.545132
 11
983.197686
 21
1085.545132
  0
LINE
  8
CSLAYER1
  6
CONTINUOUS
 62
     4
 10
1007.197686
 20
1754.730814
 11
527.197686
 21
1754.730814
  0
LINE
  8
CSLAYER1
  6
CONTINUOUS
 62
     4
 10
1007.197686
 20
1797.930814
 11
1007.197686
 21
1754.730814
  0
LINE
  8
CSLAYER1
  6
CONTINUOUS
 62
     7
 10
923.197686
 20
1055.962640
 11
923.197686
 21
1004.942187
  0
LINE
  8
CSLAYER1
  6
CONTINUOUS
 62
     5
 10
892.197686
 20
1030.452413
 11
892.197686
 21
995.198554
  0
LINE
  8
CSLAYER1
  6
CONTINUOUS
 62
     7
 10
833.197686
 20
1085.258477
 11
701.197686
 21
1085.258477
  0
LINE
  8
CSLAYER1
  6
CONTINUOUS
 62
     7
 10
833.197686
 20
1054.124234
 11
701.197686
 21
1054.124234
  0
LINE
  8
CSLAYER1
  6
CONTINUOUS
 62
     5
 10
875.363962
 20
1014.885291
 11
906.007703
 21
1014.885291
  0
ARC
  8
CSLAYER1
  6
CONTINUOUS
 62
     7
 10
918.197686
 20
1055.962640
 40
5.000000
 50
0.000000
 51
79.830548
  0
ARC
  8
CSLAYER1
  6
CONTINUOUS
 62
     7
 10
918.197686
 20
1024.828396
 40
5.000000
 50
-0.000000
 51
79.830548
  0
ARC
  8
CSLAYER1
  6
CONTINUOUS
 62
     7
 10
918.197686
 20
1004.942187
 40
5.000000
 50
280.169452
 51
360.000000
  0
POINT
  8
CSLAYER1
 62
     5
 10
924.197686
 20
1030.452413
  0
LINE
  8
CSLAYER1
  6
CONTINUOUS
 62
     7
 10
811.747686
 20
1393.944703
 11
811.747686
 21
1085.258477
  0
LINE
  8
CSLAYER1
  6
CONTINUOUS
 62
     4
 10
884.197686
 20
1138.409852
 11
881.171146
 21
1138.409852
  0
LINE
  8
CSLAYER1
  6
CONTINUOUS
 62
     4
 10
878.197686
 20
1139.409852
 11
878.197686
 21
1165.409852
  0
LINE
  8
CSLAYER1
  6
CONTINUOUS
 62
     4
 10
878.197686
 20
1139.409852
 11
879.197686
 21
1138.409852
  0
LINE
  8
CSLAYER1
  6
CONTINUOUS
 62
     4
 10
879.197686
 20
1138.409852
 11
879.197686
 21
1166.409852
  0
LINE
  8
CSLAYER1
  6
CONTINUOUS
 62
     4
 10
901.197686
 20
1171.409852
 11
901.197686
 21
1133.409852
  0
LINE
  8
CSLAYER1
  6
CONTINUOUS
 62
     4
 10
879.197686
 20
1138.409852
 11
884.263945
 21
1133.425171
  0
LINE
  8
CSLAYER1
  6
CONTINUOUS
 62
     4
 10
884.197686
 20
1133.490363
 11
879.278197
 21
1138.409852
  0
LINE
  8
CSLAYER1
  6
CONTINUOUS
 62
     4
 10
884.197686
 20
1133.773205
 11
879.561039
 21
1138.409852
  0
LINE
  8
CSLAYER1
  6
CONTINUOUS
 62
     4
 10
884.197686
 20
1134.056048
 11
879.843882
 21
1138.409852
  0
LINE
  8
CSLAYER1
  6
CONTINUOUS
 62
     4
 10
884.197686
 20
1134.338891
 11
880.126725
 21
1138.409852
  0
LINE
  8
CSLAYER1
  6
CONTINUOUS
 62
     4
 10
884.197686
 20
1134.621734
 11
880.409568
 21
1138.409852
  0
LINE
  8
CSLAYER1
  6
CONTINUOUS
 62
     4
 10
884.197686
 20
1134.904576
 11
880.692410
 21
1138.409852
  0
LINE
  8
CSLAYER1
  6
CONTINUOUS
 62
     4
 10
884.197686
 20
1135.187419
 11
880.975253
 21
1138.409852
  0
LINE
  8
CSLAYER1
  6
CONTINUOUS
 62
     4
 10
884.197686
 20
1135.470262
 11
881.258096
 21
1138.409852
  0
LINE
  8
CSLAYER1
  6
CONTINUOUS
 62
     4
 10
884.197686
 20
1135.753104
 11
881.540938
 21
1138.409852
  0
LINE
  8
CSLAYER1
  6
CONTINUOUS
 62
     4
 10
884.197686
 20
1136.035947
 11
881.823781
 21
1138.409852
  0
LINE
  8
CSLAYER1
  6
CONTINUOUS
 62
     4
 10
884.197686
 20
1136.318790
 11
882.106624
 21
1138.409852
  0
LINE
  8
CSLAYER1
  6
CONTINUOUS
 62
     4
 10
884.197686
 20
1136.601633
 11
882.389467
 21
1138.409852
  0
LINE
  8
CSLAYER1
  6
CONTINUOUS
 62
     4
 10
884.197686
 20
1136.884475
 11
882.672309
 21
1138.409852
  0
LINE
  8
CSLAYER1
  6
CONTINUOUS
 62
     4
 10
884.197686
 20
1137.167318
 11
882.955152
 21
1138.409852
  0
LINE
  8
CSLAYER1
  6
CONTINUOUS
 62
     4
 10
884.197686
 20
1137.450161
 11
883.237995
 21
1138.409852
  0
LINE
  8
CSLAYER1
  6
CONTINUOUS
 62
     4
 10
884.197686
 20
1137.733003
 11
883.520837
 21
1138.409852
  0
LINE
  8
CSLAYER1
  6
CONTINUOUS
 62
     4
 10
884.197686
 20
1138.015846
 11
883.803680
 21
1138.409852
  0
LINE
  8
CSLAYER1
  6
CONTINUOUS
 62
     4
 10
884.197686
 20
1138.298689
 11
884.086523
 21
1138.409852
  0
LINE
  8
CSLAYER1
  6
CONTINUOUS
 62
     4
 10
884.197686
 20
1166.409852
 11
881.171146
 21
1166.409852
  0
LINE
  8
CSLAYER1
  6
CONTINUOUS
 62
     4
 10
878.197686
 20
1165.409852
 11
879.197686
 21
1166.409852
  0
LINE
  8
CSLAYER1
  6
CONTINUOUS
 62
     4
 10
901.197686
 20
1171.409852
 11
902.197686
 21
1172.409852
  0
LINE
  8
CSLAYER1
  6
CONTINUOUS
 62
     4
 10
879.197686
 20
1166.409852
 11
884.263945
 21
1171.394534
  0
LINE
  8
CSLAYER1
  6
CONTINUOUS
 62
     4
 10
884.197686
 20
1171.329342
 11
879.278197
 21
1166.409852
  0
LINE
  8
CSLAYER1
  6
CONTINUOUS
 62
     4
 10
884.197686
 20
1171.046499
 11
879.561039
 21
1166.409852
  0
LINE
  8
CSLAYER1
  6
CONTINUOUS
 62
     4
 10
884.197686
 20
1170.763657
 11
879.843882
 21
1166.409852
  0
LINE
  8
CSLAYER1
  6
CONTINUOUS
 62
     4
 10
884.197686
 20
1170.480814
 11
880.126725
 21
1166.409852
  0
LINE
  8
CSLAYER1
  6
CONTINUOUS
 62
     4
 10
884.197686
 20
1170.197971
 11
880.409568
 21
1166.409852
  0
LINE
  8
CSLAYER1
  6
CONTINUOUS
 62
     4
 10
884.197686
 20
1169.915129
 11
880.692410
 21
1166.409852
  0
LINE
  8
CSLAYER1
  6
CONTINUOUS
 62
     4
 10
884.197686
 20
1169.632286
 11
880.975253
 21
1166.409852
  0
LINE
  8
CSLAYER1
  6
CONTINUOUS
 62
     4
 10
884.197686
 20
1169.349443
 11
881.258096
 21
1166.409852
  0
LINE
  8
CSLAYER1
  6
CONTINUOUS
 62
     4
 10
884.197686
 20
1169.066600
 11
881.540938
 21
1166.409852
  0
LINE
  8
CSLAYER1
  6
CONTINUOUS
 62
     4
 10
884.197686
 20
1168.783758
 11
881.823781
 21
1166.409852
  0
LINE
  8
CSLAYER1
  6
CONTINUOUS
 62
     4
 10
884.197686
 20
1168.500915
 11
882.106624
 21
1166.409852
  0
LINE
  8
CSLAYER1
  6
CONTINUOUS
 62
     4
 10
884.197686
 20
1168.218072
 11
882.389467
 21
1166.409852
  0
LINE
  8
CSLAYER1
  6
CONTINUOUS
 62
     4
 10
884.197686
 20
1167.935230
 11
882.672309
 21
1166.409852
  0
LINE
  8
CSLAYER1
  6
CONTINUOUS
 62
     4
 10
884.197686
 20
1167.652387
 11
882.955152
 21
1166.409852
  0
LINE
  8
CSLAYER1
  6
CONTINUOUS
 62
     4
 10
884.197686
 20
1167.369544
 11
883.237995
 21
1166.409852
  0
LINE
  8
CSLAYER1
  6
CONTINUOUS
 62
     4
 10
884.197686
 20
1167.086701
 11
883.520837
 21
1166.409852
  0
LINE
  8
CSLAYER1
  6
CONTINUOUS
 62
     4
 10
884.197686
 20
1166.803859
 11
883.803680
 21
1166.409852
  0
LINE
  8
CSLAYER1
  6
CONTINUOUS
 62
     4
 10
884.197686
 20
1166.521016
 11
884.086523
 21
1166.409852
  0
LINE
  8
CSLAYER1
  6
CONTINUOUS
 62
     4
 10
981.171146
 20
1131.059852
 11
940.197686
 21
1131.059852
  0
LINE
  8
CSLAYER1
  6
CONTINUOUS
 62
     4
 10
982.171146
 20
1172.759852
 11
982.171146
 21
1132.059852
  0
LINE
  8
CSLAYER1
  6
CONTINUOUS
 62
     4
 10
982.171146
 20
1132.059852
 11
981.171146
 21
1131.059852
  0
LINE
  8
CSLAYER1
  6
CONTINUOUS
 62
     4
 10
1022.171146
 20
1162.409852
 11
1022.171146
 21
1142.409852
  0
LINE
  8
CSLAYER1
  6
CONTINUOUS
 62
     4
 10
1003.171146
 20
1170.909852
 11
1003.171146
 21
1133.909852
  0
LINE
  8
CSLAYER1
  6
CONTINUOUS
 62
     4
 10
1008.271146
 20
1169.409852
 11
1008.271146
 21
1135.409852
  0
LINE
  8
CSLAYER1
  6
CONTINUOUS
 62
     4
 10
1020.271146
 20
1169.409852
 11
1020.271146
 21
1135.409852
  0
LINE
  8
CSLAYER1
  6
CONTINUOUS
 62
     4
 10
1003.171146
 20
1169.409852
 11
1020.271146
 21
1169.409852
  0
LINE
  8
CSLAYER1
  6
CONTINUOUS
 62
     4
 10
1008.271146
 20
1162.409852
 11
1022.171146
 21
1162.409852
  0
LINE
  8
CSLAYER1
  6
CONTINUOUS
 62
     4
 10
1003.171146
 20
1135.409852
 11
1020.271146
 21
1135.409852
  0
LINE
  8
CSLAYER1
  6
CONTINUOUS
 62
     4
 10
1008.271146
 20
1142.409852
 11
1022.171146
 21
1142.409852
  0
LINE
  8
CSLAYER1
  6
CONTINUOUS
 62
     4
 10
1000.171146
 20
1170.909852
 11
1003.171146
 21
1170.909852
  0
LINE
  8
CSLAYER1
  6
CONTINUOUS
 62
     4
 10
1000.171146
 20
1133.909852
 11
1003.171146
 21
1133.909852
  0
LINE
  8
CSLAYER1
  6
CONTINUOUS
 62
     4
 10
1000.171146
 20
1133.909852
 11
1000.171146
 21
1170.909852
  0
LINE
  8
CSLAYER1
  6
CENTER
 62
     5
 10
1039.075131
 20
1152.409852
 11
862.551586
 21
1152.409852
  0
LINE
  8
CSLAYER1
  6
CONTINUOUS
 62
     4
 10
1000.171146
 20
1139.909852
 11
999.197686
 21
1139.909852
  0
LINE
  8
CSLAYER1
  6
CONTINUOUS
 62
     4
 10
981.171146
 20
1173.759852
 11
940.197686
 21
1173.759852
  0
LINE
  8
CSLAYER1
  6
CONTINUOUS
 62
     4
 10
982.171146
 20
1172.759852
 11
981.171146
 21
1173.759852
  0
LINE
  8
CSLAYER1
  6
CONTINUOUS
 62
     4
 10
1000.171146
 20
1164.909852
 11
999.197686
 21
1164.909852
  0
LINE
  8
CSLAYER1
  6
CONTINUOUS
 62
     4
 10
999.171146
 20
1126.302928
 11
999.171146
 21
1139.909852
  0
LINE
  8
CSLAYER1
  6
CONTINUOUS
 62
     4
 10
945.197686
 20
1131.059852
 11
940.197686
 21
1126.059852
  0
LINE
  8
CSLAYER1
  6
CONTINUOUS
 62
     4
 10
940.197686
 20
1126.342695
 11
944.914844
 21
1131.059852
  0
LINE
  8
CSLAYER1
  6
CONTINUOUS
 62
     4
 10
940.197686
 20
1126.625538
 11
944.632001
 21
1131.059852
  0
LINE
  8
CSLAYER1
  6
CONTINUOUS
 62
     4
 10
940.197686
 20
1126.908381
 11
944.349158
 21
1131.059852
  0
LINE
  8
CSLAYER1
  6
CONTINUOUS
 62
     4
 10
940.197686
 20
1127.191223
 11
944.066316
 21
1131.059852
  0
LINE
  8
CSLAYER1
  6
CONTINUOUS
 62
     4
 10
940.197686
 20
1127.474066
 11
943.783473
 21
1131.059852
  0
LINE
  8
CSLAYER1
  6
CONTINUOUS
 62
     4
 10
940.197686
 20
1127.756909
 11
943.500630
 21
1131.059852
  0
LINE
  8
CSLAYER1
  6
CONTINUOUS
 62
     4
 10
940.197686
 20
1128.039751
 11
943.217787
 21
1131.059852
  0
LINE
  8
CSLAYER1
  6
CONTINUOUS
 62
     4
 10
940.197686
 20
1128.322594
 11
942.934945
 21
1131.059852
  0
LINE
  8
CSLAYER1
  6
CONTINUOUS
 62
     4
 10
940.197686
 20
1128.605437
 11
942.652102
 21
1131.059852
  0
LINE
  8
CSLAYER1
  6
CONTINUOUS
 62
     4
 10
940.197686
 20
1128.888280
 11
942.369259
 21
1131.059852
  0
LINE
  8
CSLAYER1
  6
CONTINUOUS
 62
     4
 10
940.197686
 20
1129.171122
 11
942.086417
 21
1131.059852
  0
LINE
  8
CSLAYER1
  6
CONTINUOUS
 62
     4
 10
940.197686
 20
1129.453965
 11
941.803574
 21
1131.059852
  0
LINE
  8
CSLAYER1
  6
CONTINUOUS
 62
     4
 10
940.197686
 20
1129.736808
 11
941.520731
 21
1131.059852
  0
LINE
  8
CSLAYER1
  6
CONTINUOUS
 62
     4
 10
940.197686
 20
1130.019650
 11
941.237888
 21
1131.059852
  0
LINE
  8
CSLAYER1
  6
CONTINUOUS
 62
     4
 10
940.197686
 20
1130.302493
 11
940.955046
 21
1131.059852
  0
LINE
  8
CSLAYER1
  6
CONTINUOUS
 62
     4
 10
940.197686
 20
1130.585336
 11
940.672203
 21
1131.059852
  0
LINE
  8
CSLAYER1
  6
CONTINUOUS
 62
     4
 10
940.197686
 20
1130.868179
 11
940.389360
 21
1131.059852
  0
LINE
  8
CSLAYER1
  6
CONTINUOUS
 62
     4
 10
924.197686
 20
1177.127010
 11
919.480529
 21
1172.409852
  0
LINE
  8
CSLAYER1
  6
CONTINUOUS
 62
     4
 10
924.197686
 20
1176.844167
 11
919.763372
 21
1172.409852
  0
LINE
  8
CSLAYER1
  6
CONTINUOUS
 62
     4
 10
924.197686
 20
1176.561324
 11
920.046215
 21
1172.409852
  0
LINE
  8
CSLAYER1
  6
CONTINUOUS
 62
     4
 10
924.197686
 20
1176.278482
 11
920.329057
 21
1172.409852
  0
LINE
  8
CSLAYER1
  6
CONTINUOUS
 62
     4
 10
924.197686
 20
1175.995639
 11
920.611900
 21
1172.409852
  0
LINE
  8
CSLAYER1
  6
CONTINUOUS
 62
     4
 10
924.197686
 20
1175.712796
 11
920.894743
 21
1172.409852
  0
LINE
  8
CSLAYER1
  6
CONTINUOUS
 62
     4
 10
924.197686
 20
1175.429953
 11
921.177585
 21
1172.409852
  0
LINE
  8
CSLAYER1
  6
CONTINUOUS
 62
     4
 10
924.197686
 20
1175.147111
 11
921.460428
 21
1172.409852
  0
LINE
  8
CSLAYER1
  6
CONTINUOUS
 62
     4
 10
924.197686
 20
1174.864268
 11
921.743271
 21
1172.409852
  0
LINE
  8
CSLAYER1
  6
CONTINUOUS
 62
     4
 10
924.197686
 20
1174.581425
 11
922.026114
 21
1172.409852
  0
LINE
  8
CSLAYER1
  6
CONTINUOUS
 62
     4
 10
924.197686
 20
1174.298583
 11
922.308956
 21
1172.409852
  0
LINE
  8
CSLAYER1
  6
CONTINUOUS
 62
     4
 10
924.197686
 20
1174.015740
 11
922.591799
 21
1172.409852
  0
LINE
  8
CSLAYER1
  6
CONTINUOUS
 62
     4
 10
924.197686
 20
1173.732897
 11
922.874642
 21
1172.409852
  0
LINE
  8
CSLAYER1
  6
CONTINUOUS
 62
     4
 10
924.197686
 20
1173.450054
 11
923.157484
 21
1172.409852
  0
LINE
  8
CSLAYER1
  6
CONTINUOUS
 62
     4
 10
924.197686
 20
1173.167212
 11
923.440327
 21
1172.409852
  0
LINE
  8
CSLAYER1
  6
CONTINUOUS
 62
     4
 10
924.197686
 20
1172.884369
 11
923.723170
 21
1172.409852
  0
LINE
  8
CSLAYER1
  6
CONTINUOUS
 62
     4
 10
924.197686
 20
1172.601526
 11
924.006013
 21
1172.409852
  0
LINE
  8
CSLAYER1
  6
CONTINUOUS
 62
     4
 10
945.197686
 20
1173.759852
 11
940.197686
 21
1178.759852
  0
LINE
  8
CSLAYER1
  6
CONTINUOUS
 62
     4
 10
940.197686
 20
1178.477010
 11
944.914844
 21
1173.759852
  0
LINE
  8
CSLAYER1
  6
CONTINUOUS
 62
     4
 10
940.197686
 20
1178.194167
 11
944.632001
 21
1173.759852
  0
LINE
  8
CSLAYER1
  6
CONTINUOUS
 62
     4
 10
940.197686
 20
1177.911324
 11
944.349158
 21
1173.759852
  0
LINE
  8
CSLAYER1
  6
CONTINUOUS
 62
     4
 10
940.197686
 20
1177.628482
 11
944.066316
 21
1173.759852
  0
LINE
  8
CSLAYER1
  6
CONTINUOUS
 62
     4
 10
940.197686
 20
1177.345639
 11
943.783473
 21
1173.759852
  0
LINE
  8
CSLAYER1
  6
CONTINUOUS
 62
     4
 10
940.197686
 20
1177.062796
 11
943.500630
 21
1173.759852
  0
LINE
  8
CSLAYER1
  6
CONTINUOUS
 62
     4
 10
940.197686
 20
1176.779953
 11
943.217787
 21
1173.759852
  0
LINE
  8
CSLAYER1
  6
CONTINUOUS
 62
     4
 10
940.197686
 20
1176.497111
 11
942.934945
 21
1173.759852
  0
LINE
  8
CSLAYER1
  6
CONTINUOUS
 62
     4
 10
940.197686
 20
1176.214268
 11
942.652102
 21
1173.759852
  0
LINE
  8
CSLAYER1
  6
CONTINUOUS
 62
     4
 10
940.197686
 20
1175.931425
 11
942.369259
 21
1173.759852
  0
LINE
  8
CSLAYER1
  6
CONTINUOUS
 62
     4
 10
940.197686
 20
1175.648583
 11
942.086417
 21
1173.759852
  0
LINE
  8
CSLAYER1
  6
CONTINUOUS
 62
     4
 10
940.197686
 20
1175.365740
 11
941.803574
 21
1173.759852
  0
LINE
  8
CSLAYER1
  6
CONTINUOUS
 62
     4
 10
940.197686
 20
1175.082897
 11
941.520731
 21
1173.759852
  0
LINE
  8
CSLAYER1
  6
CONTINUOUS
 62
     4
 10
940.197686
 20
1174.800054
 11
941.237888
 21
1173.759852
  0
LINE
  8
CSLAYER1
  6
CONTINUOUS
 62
     4
 10
940.197686
 20
1174.517212
 11
940.955046
 21
1173.759852
  0
LINE
  8
CSLAYER1
  6
CONTINUOUS
 62
     4
 10
940.197686
 20
1174.234369
 11
940.672203
 21
1173.759852
  0
LINE
  8
CSLAYER1
  6
CONTINUOUS
 62
     4
 10
940.197686
 20
1173.951526
 11
940.389360
 21
1173.759852
  0
LINE
  8
CSLAYER1
  6
CONTINUOUS
 62
     4
 10
923.157484
 20
1172.409852
 11
924.197686
 21
1172.409852
  0
LINE
  8
CSLAYER1
  6
CONTINUOUS
 62
     4
 10
884.197686
 20
1128.409852
 11
900.197686
 21
1128.409852
  0
LINE
  8
CSLAYER1
  6
CONTINUOUS
 62
     4
 10
922.006013
 20
1172.409852
 11
902.197686
 21
1172.409852
  0
LINE
  8
CSLAYER1
  6
CONTINUOUS
 62
     4
 10
901.197686
 20
1167.409852
 11
900.197686
 21
1167.409852
  0
LINE
  8
CSLAYER1
  6
CONTINUOUS
 62
     4
 10
901.197686
 20
1137.409852
 11
900.197686
 21
1137.409852
  0
LINE
  8
CSLAYER1
  6
CONTINUOUS
 62
     4
 10
983.197686
 20
1167.409852
 11
982.171146
 21
1167.409852
  0
LINE
  8
CSLAYER1
  6
CONTINUOUS
 62
     4
 10
983.197686
 20
1137.409852
 11
982.171146
 21
1137.409852
  0
LINE
  8
CSLAYER1
  6
CONTINUOUS
 62
     4
 10
901.197686
 20
1133.409852
 11
902.197686
 21
1132.409852
  0
LINE
  8
CSLAYER1
  6
CONTINUOUS
 62
     4
 10
924.197686
 20
1127.692695
 11
919.480529
 21
1132.409852
  0
LINE
  8
CSLAYER1
  6
CONTINUOUS
 62
     4
 10
924.197686
 20
1127.975538
 11
919.763372
 21
1132.409852
  0
LINE
  8
CSLAYER1
  6
CONTINUOUS
 62
     4
 10
924.197686
 20
1128.258381
 11
920.046215
 21
1132.409852
  0
LINE
  8
CSLAYER1
  6
CONTINUOUS
 62
     4
 10
924.197686
 20
1128.541223
 11
920.329057
 21
1132.409852
  0
LINE
  8
CSLAYER1
  6
CONTINUOUS
 62
     4
 10
924.197686
 20
1128.824066
 11
920.611900
 21
1132.409852
  0
LINE
  8
CSLAYER1
  6
CONTINUOUS
 62
     4
 10
924.197686
 20
1129.106909
 11
920.894743
 21
1132.409852
  0
LINE
  8
CSLAYER1
  6
CONTINUOUS
 62
     4
 10
924.197686
 20
1129.389751
 11
921.177585
 21
1132.409852
  0
LINE
  8
CSLAYER1
  6
CONTINUOUS
 62
     4
 10
924.197686
 20
1129.672594
 11
921.460428
 21
1132.409852
  0
LINE
  8
CSLAYER1
  6
CONTINUOUS
 62
     4
 10
924.197686
 20
1129.955437
 11
921.743271
 21
1132.409852
  0
LINE
  8
CSLAYER1
  6
CONTINUOUS
 62
     4
 10
924.197686
 20
1130.238280
 11
922.026114
 21
1132.409852
  0
LINE
  8
CSLAYER1
  6
CONTINUOUS
 62
     4
 10
924.197686
 20
1130.521122
 11
922.308956
 21
1132.409852
  0
LINE
  8
CSLAYER1
  6
CONTINUOUS
 62
     4
 10
924.197686
 20
1130.803965
 11
922.591799
 21
1132.409852
  0
LINE
  8
CSLAYER1
  6
CONTINUOUS
 62
     4
 10
924.197686
 20
1131.086808
 11
922.874642
 21
1132.409852
  0
LINE
  8
CSLAYER1
  6
CONTINUOUS
 62
     4
 10
924.197686
 20
1131.369650
 11
923.157484
 21
1132.409852
  0
LINE
  8
CSLAYER1
  6
CONTINUOUS
 62
     4
 10
924.197686
 20
1131.652493
 11
923.440327
 21
1132.409852
  0
LINE
  8
CSLAYER1
  6
CONTINUOUS
 62
     4
 10
924.197686
 20
1131.935336
 11
923.723170
 21
1132.409852
  0
LINE
  8
CSLAYER1
  6
CONTINUOUS
 62
     4
 10
924.197686
 20
1132.218179
 11
924.006013
 21
1132.409852
  0
LINE
  8
CSLAYER1
  6
CONTINUOUS
 62
     4
 10
923.157484
 20
1132.409852
 11
924.197686
 21
1132.409852
  0
LINE
  8
CSLAYER1
  6
CONTINUOUS
 62
     4
 10
922.006013
 20
1132.409852
 11
902.197686
 21
1132.409852
  0
POINT
  8
CSLAYER1
 62
     4
 10
892.197686
 20
1222.067204
  0
LINE
  8
CSLAYER1
  6
CONTINUOUS
 62
     4
 10
905.722686
 20
1209.067204
 11
905.722686
 21
1304.317204
  0
LINE
  8
CSLAYER1
  6
CONTINUOUS
 62
     4
 10
910.097686
 20
1209.067204
 11
910.097686
 21
1266.817204
  0
LINE
  8
CSLAYER1
  6
CONTINUOUS
 62
     4
 10
911.947686
 20
1218.297204
 11
911.947686
 21
1225.846930
  0
LINE
  8
CSLAYER1
  6
CONTINUOUS
 62
     4
 10
905.722686
 20
1209.067204
 11
910.097686
 21
1209.067204
  0
LINE
  8
CSLAYER1
  6
CONTINUOUS
 62
     4
 10
910.097686
 20
1226.846930
 11
910.947686
 21
1226.846930
  0
ARC
  8
CSLAYER1
  6
CONTINUOUS
 62
     4
 10
910.947686
 20
1218.297204
 40
1.000000
 50
270.000000
 51
360.000000
  0
ARC
  8
CSLAYER1
  6
CONTINUOUS
 62
     4
 10
910.947686
 20
1225.846930
 40
1.000000
 50
0.000000
 51
90.000000
  0
LINE
  8
CSLAYER1
  6
CONTINUOUS
 62
     4
 10
878.672686
 20
1209.067204
 11
878.672686
 21
1304.317204
  0
LINE
  8
CSLAYER1
  6
CONTINUOUS
 62
     4
 10
874.297686
 20
1209.067204
 11
874.297686
 21
1266.817204
  0
LINE
  8
CSLAYER1
  6
CONTINUOUS
 62
     4
 10
872.447686
 20
1218.297204
 11
872.447686
 21
1225.846930
  0
LINE
  8
CSLAYER1
  6
CONTINUOUS
 62
     4
 10
878.672686
 20
1209.067204
 11
874.297686
 21
1209.067204
  0
LINE
  8
CSLAYER1
  6
CONTINUOUS
 62
     4
 10
874.297686
 20
1217.297204
 11
873.447686
 21
1217.297204
  0
LINE
  8
CSLAYER1
  6
CONTINUOUS
 62
     4
 10
874.297686
 20
1226.846930
 11
873.447686
 21
1226.846930
  0
ARC
  8
CSLAYER1
  6
CONTINUOUS
 62
     4
 10
873.447686
 20
1218.297204
 40
1.000000
 50
180.000000
 51
270.000000
  0
ARC
  8
CSLAYER1
  6
CONTINUOUS
 62
     4
 10
873.447686
 20
1225.846930
 40
1.000000
 50
90.000000
 51
180.000000
  0
LINE
  8
CSLAYER1
  6
CONTINUOUS
 62
     4
 10
879.672686
 20
1212.067204
 11
884.197686
 21
1212.067204
  0
LINE
  8
CSLAYER1
  6
CONTINUOUS
 62
     4
 10
878.672686
 20
1213.067204
 11
879.672686
 21
1212.067204
  0
LINE
  8
CSLAYER1
  6
CONTINUOUS
 62
     4
 10
904.722686
 20
1212.067204
 11
905.722686
 21
1213.067204
  0
LINE
  8
CSLAYER1
  6
CONTINUOUS
 62
     4
 10
879.672686
 20
1232.067204
 11
884.197686
 21
1232.067204
  0
LINE
  8
CSLAYER1
  6
CONTINUOUS
 62
     4
 10
878.672686
 20
1231.067204
 11
879.672686
 21
1232.067204
  0
LINE
  8
CSLAYER1
  6
CONTINUOUS
 62
     4
 10
904.722686
 20
1232.067204
 11
905.722686
 21
1231.067204
  0
LINE
  8
CSLAYER1
  6
CONTINUOUS
 62
     4
 10
910.097686
 20
1217.297204
 11
910.947686
 21
1217.297204
  0
LINE
  8
CSLAYER1
  6
CONTINUOUS
 62
     5
 10
918.835349
 20
1222.067204
 11
874.299438
 21
1222.067204
  0
LINE
  8
CSLAYER1
  6
CONTINUOUS
 62
     4
 10
901.722686
 20
1238.767204
 11
901.722686
 21
1300.617204
  0
LINE
  8
CSLAYER1
  6
CONTINUOUS
 62
     4
 10
901.722686
 20
1238.767204
 11
905.722686
 21
1238.767204
  0
LINE
  8
CSLAYER1
  6
CONTINUOUS
 62
     4
 10
882.672686
 20
1238.767204
 11
882.672686
 21
1300.617204
  0
LINE
  8
CSLAYER1
  6
CONTINUOUS
 62
     4
 10
882.672686
 20
1238.767204
 11
878.672686
 21
1238.767204
  0
LINE
  8
CSLAYER1
  6
CONTINUOUS
 62
     4
 10
900.197686
 20
1239.067204
 11
884.197686
 21
1239.067204
  0
LINE
  8
CSLAYER1
  6
CONTINUOUS
 62
     4
 10
900.197686
 20
1232.067204
 11
904.722686
 21
1232.067204
  0
LINE
  8
CSLAYER1
  6
CONTINUOUS
 62
     4
 10
900.197686
 20
1212.067204
 11
904.722686
 21
1212.067204
  0
LINE
  8
CSLAYER1
  6
CONTINUOUS
 62
     4
 10
900.197686
 20
1244.292204
 11
900.197686
 21
1107.976255
  0
LINE
  8
CSLAYER1
  6
CONTINUOUS
 62
     4
 10
884.197686
 20
1244.292204
 11
884.197686
 21
1107.976255
  0
LINE
  8
CSLAYER1
  6
CONTINUOUS
 62
     4
 10
983.197686
 20
1107.976255
 11
940.197686
 21
1107.976255
  0
LINE
  8
CSLAYER1
  6
CONTINUOUS
 62
     5
 10
5102.940798
 20
2831.537541
 11
4021.632023
 21
2831.537541
  0
LINE
  8
CSLAYER1
  6
CONTINUOUS
 62
     5
 10
5102.940798
 20
2735.537543
 11
4021.632023
 21
2735.537543
  0
LINE
  8
CSLAYER1
  6
CONTINUOUS
 62
     5
 10
5102.940798
 20
2639.537546
 11
4021.632023
 21
2639.537546
  0
LINE
  8
CSLAYER1
  6
CONTINUOUS
 62
     5
 10
5102.940798
 20
2543.537548
 11
4022.940826
 21
2543.537548
  0
LINE
  8
CSLAYER1
  6
CONTINUOUS
 62
     5
 10
5102.940798
 20
2447.537550
 11
4021.632023
 21
2447.537550
  0
LINE
  8
CSLAYER1
  6
CONTINUOUS
 62
     5
 10
5102.940798
 20
2351.537553
 11
4021.632023
 21
2351.537553
  0
LINE
  8
CSLAYER1
  6
CONTINUOUS
 62
     5
 10
5102.940798
 20
2255.537555
 11
4021.632023
 21
2255.537555
  0
LINE
  8
CSLAYER1
  6
CONTINUOUS
 62
     5
 10
5102.940798
 20
2159.537558
 11
4021.632023
 21
2159.537558
  0
LINE
  8
CSLAYER1
  6
CONTINUOUS
 62
     5
 10
5102.940798
 20
2063.537560
 11
4021.632023
 21
2063.537560
  0
TEXT
  8
CSLAYER1
 62
     3
 10
4315.218262
 20
2951.265625
 40
60.000000
 41
0.857143
  1
仕   様
 50
0.000000
 51
0.000000
  7
EASYDRAW_FONT
 72
     5
 11
4555.218262
 21
2951.265625
  0
TEXT
  8
CSLAYER1
 62
     3
 10
4037.771973
 20
2843.871582
 40
60.000000
 41
0.847059
  1
型    式
 50
0.000000
 51
0.000000
  7
EASYDRAW_FONT
 72
     5
 11
4325.771973
 21
2843.871582
  0
TEXT
  8
CSLAYER1
 62
     3
 10
4035.041992
 20
2660.137207
 40
60.000000
 41
0.847059
  1
テーブル寸法
 50
0.000000
 51
0.000000
  7
EASYDRAW_FONT
 72
     5
 11
4323.041992
 21
2660.137207
  0
TEXT
  8
CSLAYER1
 62
     3
 10
4037.771973
 20
2565.541016
 40
60.000000
 41
0.847059
  1
テーブル高サ
 50
0.000000
 51
0.000000
  7
EASYDRAW_FONT
 72
     5
 11
4325.771973
 21
2565.541016
  0
TEXT
  8
CSLAYER1
 62
     3
 10
4039.941895
 20
2468.216797
 40
60.000000
 41
0.857143
  1
ストローク
 50
0.000000
 51
0.000000
  7
EASYDRAW_FONT
 72
     5
 11
4279.941895
 21
2468.216797
  0
TEXT
  8
CSLAYER1
 62
     3
 10
4039.032227
 20
2370.892578
 40
60.000000
 41
0.857143
  1
全   長
 50
0.000000
 51
0.000000
  7
EASYDRAW_FONT
 72
     5
 11
4279.032227
 21
2370.892578
  0
TEXT
  8
CSLAYER1
 62
     3
 10
4042.439453
 20
2272.116211
 40
60.000000
 41
0.857143
  1
全   巾
 50
0.000000
 51
0.000000
  7
EASYDRAW_FONT
 72
     5
 11
4282.439453
 21
2272.116211
  0
TEXT
  8
CSLAYER1
 62
     3
 10
4040.102539
 20
2176.288574
 40
60.000000
 41
0.857143
  1
全   高
 50
0.000000
 51
0.000000
  7
EASYDRAW_FONT
 72
     5
 11
4280.102539
 21
2176.288574
  0
TEXT
  8
CSLAYER1
 62
     3
 10
4040.102539
 20
2082.798828
 40
60.000000
 41
0.857143
  1
リフト方式
 50
0.000000
 51
0.000000
  7
EASYDRAW_FONT
 72
     5
 11
4280.102539
 21
2082.798828
  0
TEXT
  8
CSLAYER1
 62
     3
 10
4741.905273
 20
2751.634277
 40
60.000000
 41
0.900000
  1
750
 50
0.000000
 51
0.000000
  7
EASYDRAW_FONT
 72
     5
 11
4885.905273
 21
2751.634277
  0
TEXT
  8
CSLAYER1
 62
     3
 10
4997.140625
 20
2746.124512
 40
60.000000
 41
0.960000
  1
Ｋｇ
 50
0.000000
 51
0.000000
  7
EASYDRAW_FONT
 72
     5
 11
5093.140625
 21
2746.124512
  0
TEXT
  8
CSLAYER1
 62
     3
 10
4476.231934
 20
2654.879395
 40
60.000000
 41
0.830769
  1
1500 ×600
 50
0.000000
 51
0.000000
  7
EASYDRAW_FONT
 72
     5
 11
4908.231934
 21
2654.879395
  0
TEXT
  8
CSLAYER1
 62
     3
 10
4916.413086
 20
2672.409180
 40
60.000000
 41
1.200000
  1
Ｗ
 50
0.000000
 51
0.000000
  7
EASYDRAW_FONT
 72
     5
 11
4964.413086
 21
2672.409180
  0
TEXT
  8
CSLAYER1
 62
     3
 10
4660.176270
 20
2679.797852
 40
60.000000
 41
1.200000
  1
Ｌ
 50
0.000000
 51
0.000000
  7
EASYDRAW_FONT
 72
     5
 11
4708.176270
 21
2679.797852
  0
TEXT
  8
CSLAYER1
 62
     3
 10
4532.362305
 20
2562.378418
 40
60.000000
 41
0.834783
  1
230～1220
 50
0.000000
 51
0.000000
  7
EASYDRAW_FONT
 72
     5
 11
4916.362305
 21
2562.378418
  0
TEXT
  8
CSLAYER1
 62
     3
 10
4756.663086
 20
2465.566406
 40
60.000000
 41
0.900000
  1
990
 50
0.000000
 51
0.000000
  7
EASYDRAW_FONT
 72
     5
 11
4900.663086
 21
2465.566406
  0
TEXT
  8
CSLAYER1
 62
     3
 10
4712.229004
 20
2370.210449
 40
60.000000
 41
0.872727
  1
1500
 50
0.000000
 51
0.000000
  7
EASYDRAW_FONT
 72
     5
 11
4904.229004
 21
2370.210449
  0
TEXT
  8
CSLAYER1
 62
     3
 10
4759.841797
 20
2273.431641
 40
60.000000
 41
0.900000
  1
600
 50
0.000000
 51
0.000000
  7
EASYDRAW_FONT
 72
     5
 11
4903.841797
 21
2273.431641
  0
TEXT
  8
CSLAYER1
 62
     3
 10
4446.658203
 20
2084.230957
 40
60.000000
 41
0.827586
  1
電 動 ボールネジ式
 50
0.000000
 51
0.000000
  7
EASYDRAW_FONT
 72
     5
 11
4926.658203
 21
2084.230957
  0
TEXT
  8
CSLAYER1
 62
     3
 10
4756.828613
 20
2176.439941
 40
60.000000
 41
0.900000
  1
230
 50
0.000000
 51
0.000000
  7
EASYDRAW_FONT
 72
     5
 11
4900.828613
 21
2176.439941
  0
TEXT
  8
CSLAYER1
 62
     3
 10
4993.369141
 20
2649.969238
 40
60.000000
 41
0.960000
  1
mm
 50
0.000000
 51
0.000000
  7
EASYDRAW_FONT
 72
     5
 11
5089.369141
 21
2649.969238
  0
TEXT
  8
CSLAYER1
 62
     3
 10
4993.369141
 20
2559.469727
 40
60.000000
 41
0.960000
  1
mm
 50
0.000000
 51
0.000000
  7
EASYDRAW_FONT
 72
     5
 11
5089.369141
 21
2559.469727
  0
TEXT
  8
CSLAYER1
 62
     3
 10
4987.712891
 20
2463.313477
 40
60.000000
 41
0.960000
  1
mm
 50
0.000000
 51
0.000000
  7
EASYDRAW_FONT
 72
     5
 11
5083.712891
 21
2463.313477
  0
TEXT
  8
CSLAYER1
 62
     3
 10
4987.712891
 20
2361.500977
 40
60.000000
 41
0.960000
  1
mm
 50
0.000000
 51
0.000000
  7
EASYDRAW_FONT
 72
     5
 11
5083.712891
 21
2361.500977
  0
TEXT
  8
CSLAYER1
 62
     3
 10
4983.942871
 20
2271.001953
 40
60.000000
 41
0.960000
  1
mm
 50
0.000000
 51
0.000000
  7
EASYDRAW_FONT
 72
     5
 11
5079.942871
 21
2271.001953
  0
TEXT
  8
CSLAYER1
 62
     3
 10
4983.942871
 20
2174.844727
 40
60.000000
 41
0.960000
  1
mm
 50
0.000000
 51
0.000000
  7
EASYDRAW_FONT
 72
     5
 11
5079.942871
 21
2174.844727
  0
LINE
  8
CSLAYER1
  6
CONTINUOUS
 62
     5
 10
4597.297429
 20
2927.537538
 11
4284.718472
 21
2927.537538
  0
LINE
  8
CSLAYER1
  6
CONTINUOUS
 62
     5
 10
4597.297429
 20
2939.537538
 11
4284.718472
 21
2939.537538
  0
LINE
  8
CSLAYER1
  6
CONTINUOUS
 62
     3
 10
4026.861613
 20
2440.357856
 11
4030.061613
 21
2440.357856
  0
TEXT
  8
CSLAYER1
 62
     5
 10
3767.938477
 20
3129.620850
 40
60.000000
 41
1.020000
  1
ＵＰ・ＤＯＷＮ
 50
360.000000
 51
0.000000
  7
EASYDRAW_FONT
 72
     5
 11
4175.938477
 21
3129.620850
  0
TEXT
  8
CSLAYER1
 62
     5
 10
3765.877441
 20
3211.034912
 40
60.000000
 41
1.020000
  1
フットスイッチ
 50
360.000000
 51
0.000000
  7
EASYDRAW_FONT
 72
     5
 11
4173.877441
 21
3211.034912
  0
LINE
  8
CSLAYER1
  6
CONTINUOUS
 62
     3
 10
3296.681384
 20
2700.389265
 11
3507.219129
 21
2700.389265
  0
LINE
  8
CSLAYER1
  6
CONTINUOUS
 62
     3
 10
3296.148747
 20
2707.389265
 11
3507.219129
 21
2707.389265
  0
ARC
  8
CSLAYER1
  6
CONTINUOUS
 62
     3
 10
3302.986145
 20
2660.889265
 40
40.000000
 50
-260.931278
 51
63.817766
  0
ARC
  8
CSLAYER1
  6
CONTINUOUS
 62
     3
 10
3302.986145
 20
2660.889265
 40
47.000000
 50
-261.635125
 51
49.860785
  0
LINE
  8
CSLAYER1
  6
CONTINUOUS
 62
     3
 10
3213.134087
 20
2700.389265
 11
3272.994528
 21
2700.389265
  0
LINE
  8
CSLAYER1
  6
CONTINUOUS
 62
     3
 10
3213.134087
 20
2707.389265
 11
3283.701420
 21
2707.389265
  0
LINE
  8
CSLAYER1
  6
CONTINUOUS
 62
     3
 10
3213.134087
 20
2742.589265
 11
3328.579055
 21
2742.589265
  0
LINE
  8
CSLAYER1
  6
CONTINUOUS
 62
     3
 10
3213.134087
 20
2735.589265
 11
3338.460846
 21
2735.589265
  0
TEXT
  8
CSLAYER1
 62
     5
 10
3733.828857
 20
3403.476807
 40
60.000000
 41
1.028571
  1
電源コード
 50
360.000000
 51
0.000000
  7
EASYDRAW_FONT
 72
     5
 11
4021.828857
 21
3403.476807
  0
TEXT
  8
CSLAYER1
 62
     5
 10
3752.330811
 20
3330.655518
 40
60.000000
 41
1.036364
  1
長サ４ｍ
 50
360.000000
 51
0.000000
  7
EASYDRAW_FONT
 72
     5
 11
3980.330811
 21
3330.655518
  0
LINE
  8
CSLAYER1
  6
CONTINUOUS
 62
     3
 10
3575.079373
 20
2889.201505
 11
3580.150001
 21
2891.111222
  0
LINE
  8
CSLAYER1
  6
CONTINUOUS
 62
     3
 10
3580.150001
 20
2891.111222
 11
3586.574632
 21
2891.289684
  0
LINE
  8
CSLAYER1
  6
CONTINUOUS
 62
     3
 10
3574.025043
 20
2890.590607
 11
3579.674102
 21
2892.955329
  0
LINE
  8
CSLAYER1
  6
CONTINUOUS
 62
     3
 10
3579.674102
 20
2892.955329
 11
3585.027962
 21
2894.264050
  0
LINE
  8
CSLAYER1
  6
CONTINUOUS
 62
     3
 10
3573.182848
 20
2891.700216
 11
3578.067944
 21
2894.561487
  0
LINE
  8
CSLAYER1
  6
CONTINUOUS
 62
     3
 10
3578.067944
 20
2894.561487
 11
3580.387950
 21
2897.892778
  0
ARC
  8
CSLAYER1
  6
CONTINUOUS
 62
     3
 10
3360.113996
 20
2782.589265
 40
47.000000
 50
-10.756396
 51
307.198537
  0
ARC
  8
CSLAYER1
  6
CONTINUOUS
 62
     3
 10
3360.113996
 20
2782.589265
 40
40.000000
 50
-23.471057
 51
307.198537
  0
LINE
  8
CSLAYER1
  6
CONTINUOUS
 62
     3
 10
3576.263126
 20
2887.641884
 11
3388.529198
 21
2745.151634
  0
LINE
  8
CSLAYER1
  6
CONTINUOUS
 62
     3
 10
3572.031075
 20
2893.217702
 11
3384.297147
 21
2750.727451
  0
LINE
  8
CSLAYER1
  6
CONTINUOUS
 62
     3
 10
3576.263126
 20
2887.641884
 11
3572.031075
 21
2893.217702
  0
LINE
  8
CSLAYER1
  6
CONTINUOUS
 62
     4
 10
910.097686
 20
1272.567204
 11
910.097686
 21
1461.589936
  0
LINE
  8
CSLAYER1
  6
CONTINUOUS
 62
     4
 10
874.297686
 20
1272.567204
 11
874.297686
 21
1456.064936
  0
LINE
  8
CSLAYER1
  6
CENTER
 62
     5
 10
1008.759471
 20
1622.197628
 11
525.635902
 21
1622.197628
  0
LINE
  8
CSLAYER1
  6
CONTINUOUS
 62
     7
 10
797.197686
 20
1598.652356
 11
797.197686
 21
1415.086830
  0
LINE
  8
CSLAYER1
  6
CONTINUOUS
 62
     7
 10
811.747686
 20
1393.944703
 11
811.578160
 21
1396.388221
  0
LINE
  8
CSLAYER1
  6
CONTINUOUS
 62
     7
 10
811.578160
 20
1396.388221
 11
811.070872
 21
1398.813142
  0
LINE
  8
CSLAYER1
  6
CONTINUOUS
 62
     7
 10
811.070872
 20
1398.813142
 11
810.229682
 21
1401.201011
  0
LINE
  8
CSLAYER1
  6
CONTINUOUS
 62
     7
 10
810.229682
 20
1401.201011
 11
809.060993
 21
1403.533656
  0
LINE
  8
CSLAYER1
  6
CONTINUOUS
 62
     7
 10
809.060993
 20
1403.533656
 11
807.573698
 21
1405.793323
  0
LINE
  8
CSLAYER1
  6
CONTINUOUS
 62
     7
 10
807.573698
 20
1405.793323
 11
805.779118
 21
1407.962814
  0
LINE
  8
CSLAYER1
  6
CONTINUOUS
 62
     7
 10
805.779118
 20
1407.962814
 11
803.690910
 21
1410.025620
  0
LINE
  8
CSLAYER1
  6
CONTINUOUS
 62
     7
 10
803.690910
 20
1410.025620
 11
801.324966
 21
1411.966040
  0
LINE
  8
CSLAYER1
  6
CONTINUOUS
 62
     7
 10
801.324966
 20
1411.966040
 11
798.699294
 21
1413.769306
  0
LINE
  8
CSLAYER1
  6
CONTINUOUS
 62
     7
 10
798.699294
 20
1413.769306
 11
795.833874
 21
1415.421696
  0
LINE
  8
CSLAYER1
  6
CONTINUOUS
 62
     7
 10
795.833874
 20
1415.421696
 11
792.750517
 21
1416.910633
  0
LINE
  8
CSLAYER1
  6
CONTINUOUS
 62
     7
 10
792.750517
 20
1416.910633
 11
789.472686
 21
1418.224784
  0
LINE
  8
CSLAYER1
  6
CONTINUOUS
 62
     7
 10
789.472686
 20
1418.224784
 11
786.025330
 21
1419.354150
  0
LINE
  8
CSLAYER1
  6
CONTINUOUS
 62
     7
 10
786.025330
 20
1419.354150
 11
782.434684
 21
1420.290135
  0
LINE
  8
CSLAYER1
  6
CONTINUOUS
 62
     7
 10
782.434684
 20
1420.290135
 11
778.728075
 21
1421.025615
  0
LINE
  8
CSLAYER1
  6
CONTINUOUS
 62
     7
 10
778.728075
 20
1421.025615
 11
774.933713
 21
1421.554993
  0
LINE
  8
CSLAYER1
  6
CONTINUOUS
 62
     7
 10
774.933713
 20
1421.554993
 11
771.080475
 21
1421.874240
  0
LINE
  8
CSLAYER1
  6
CONTINUOUS
 62
     7
 10
771.080475
 20
1421.874240
 11
767.197686
 21
1421.980926
  0
LINE
  8
CSLAYER1
  6
CONTINUOUS
 62
     7
 10
767.197686
 20
1421.980926
 11
763.314898
 21
1421.874240
  0
LINE
  8
CSLAYER1
  6
CONTINUOUS
 62
     7
 10
797.197686
 20
1598.652356
 11
797.083527
 21
1600.297823
  0
LINE
  8
CSLAYER1
  6
CONTINUOUS
 62
     7
 10
797.083527
 20
1600.297823
 11
796.741919
 21
1601.930766
  0
LINE
  8
CSLAYER1
  6
CONTINUOUS
 62
     7
 10
796.741919
 20
1601.930766
 11
796.175461
 21
1603.538759
  0
LINE
  8
CSLAYER1
  6
CONTINUOUS
 62
     7
 10
796.175461
 20
1603.538759
 11
795.388465
 21
1605.109564
  0
LINE
  8
CSLAYER1
  6
CONTINUOUS
 62
     7
 10
795.388465
 20
1605.109564
 11
794.386920
 21
1606.631225
  0
LINE
  8
CSLAYER1
  6
CONTINUOUS
 62
     7
 10
794.386920
 20
1606.631225
 11
793.178449
 21
1608.092162
  0
LINE
  8
CSLAYER1
  6
CONTINUOUS
 62
     7
 10
793.178449
 20
1608.092162
 11
791.772248
 21
1609.481257
  0
LINE
  8
CSLAYER1
  6
CONTINUOUS
 62
     7
 10
791.772248
 20
1609.481257
 11
790.179020
 21
1610.787937
  0
LINE
  8
CSLAYER1
  6
CONTINUOUS
 62
     7
 10
790.179020
 20
1610.787937
 11
788.410890
 21
1612.002258
  0
LINE
  8
CSLAYER1
  6
CONTINUOUS
 62
     7
 10
788.410890
 20
1612.002258
 11
786.481315
 21
1613.114978
  0
LINE
  8
CSLAYER1
  6
CONTINUOUS
 62
     7
 10
786.481315
 20
1613.114978
 11
784.404980
 21
1614.117629
  0
LINE
  8
CSLAYER1
  6
CONTINUOUS
 62
     7
 10
784.404980
 20
1614.117629
 11
782.197686
 21
1615.002579
  0
LINE
  8
CSLAYER1
  6
CONTINUOUS
 62
     7
 10
782.197686
 20
1615.002579
 11
779.876234
 21
1615.763095
  0
LINE
  8
CSLAYER1
  6
CONTINUOUS
 62
     7
 10
779.876234
 20
1615.763095
 11
777.458291
 21
1616.393388
  0
LINE
  8
CSLAYER1
  6
CONTINUOUS
 62
     7
 10
777.458291
 20
1616.393388
 11
774.962258
 21
1616.888661
  0
LINE
  8
CSLAYER1
  6
CONTINUOUS
 62
     7
 10
774.962258
 20
1616.888661
 11
772.407132
 21
1617.245144
  0
LINE
  8
CSLAYER1
  6
CONTINUOUS
 62
     7
 10
772.407132
 20
1617.245144
 11
769.812359
 21
1617.460125
  0
LINE
  8
CSLAYER1
  6
CONTINUOUS
 62
     7
 10
769.812359
 20
1617.460125
 11
767.197686
 21
1617.531968
  0
LINE
  8
CSLAYER1
  6
CONTINUOUS
 62
     7
 10
767.197686
 20
1617.531968
 11
764.583014
 21
1617.460125
  0
LINE
  8
CSLAYER1
  6
CONTINUOUS
 62
     7
 10
797.197686
 20
1591.947628
 11
921.697686
 21
1591.947628
  0
LINE
  8
CSLAYER1
  6
CONTINUOUS
 62
     7
 10
923.197686
 20
1647.761594
 11
923.197686
 21
1592.297628
  0
LINE
  8
CSLAYER1
  6
CONTINUOUS
 62
     7
 10
918.197686
 20
1644.197628
 11
923.197686
 21
1639.197628
  0
LINE
  8
CSLAYER1
  6
CONTINUOUS
 62
     7
 10
918.197686
 20
1644.197628
 11
918.197686
 21
1600.197628
  0
ARC
  8
CSLAYER1
  6
CONTINUOUS
 62
     7
 10
924.297686
 20
1592.297628
 40
1.100000
 50
180.000000
 51
270.000000
  0
LINE
  8
CSLAYER1
  6
CONTINUOUS
 62
     7
 10
918.197686
 20
1600.197628
 11
923.197686
 21
1605.197628
  0
LINE
  8
CSLAYER1
  6
CONTINUOUS
 62
     7
 10
873.697686
 20
1653.463956
 11
873.697686
 21
1600.197628
  0
LINE
  8
CSLAYER1
  6
CONTINUOUS
 62
     7
 10
873.697686
 20
1593.947628
 11
873.697686
 21
1598.947628
  0
LINE
  8
CSLAYER1
  6
CONTINUOUS
 62
     7
 10
873.697686
 20
1593.947628
 11
871.697686
 21
1591.947628
  0
POINT
  8
CSLAYER1
 62
     7
 10
892.197686
 20
1534.614936
  0
LINE
  8
CSLAYER1
  6
CONTINUOUS
 62
     5
 10
906.323063
 20
1534.614938
 11
878.083973
 21
1534.614938
  0
LINE
  8
CSLAYER1
  6
CONTINUOUS
 62
     7
 10
900.697686
 20
1559.614938
 11
900.697686
 21
1600.197628
  0
LINE
  8
CSLAYER1
  6
CONTINUOUS
 62
     7
 10
902.197686
 20
1551.614938
 11
902.197686
 21
1600.197628
  0
LINE
  8
CSLAYER1
  6
CONTINUOUS
 62
     7
 10
918.197686
 20
1644.197628
 11
873.697686
 21
1644.197628
  0
LINE
  8
CSLAYER1
  6
CONTINUOUS
 62
     7
 10
910.697686
 20
1644.197628
 11
910.697686
 21
1653.463956
  0
LINE
  8
CSLAYER1
  6
CONTINUOUS
 62
     7
 10
902.197686
 20
1559.614938
 11
882.197686
 21
1559.614938
  0
LINE
  8
CSLAYER1
  6
CONTINUOUS
 62
     7
 10
900.697686
 20
1559.614938
 11
902.197686
 21
1557.016862
  0
LINE
  8
CSLAYER1
  6
CONTINUOUS
 62
     7
 10
883.697686
 20
1559.614938
 11
883.697686
 21
1600.197628
  0
LINE
  8
CSLAYER1
  6
CONTINUOUS
 62
     7
 10
883.697686
 20
1559.614938
 11
882.197686
 21
1557.016862
  0
LINE
  8
CSLAYER1
  6
CONTINUOUS
 62
     7
 10
882.197686
 20
1551.614938
 11
882.197686
 21
1600.197628
  0
LINE
  8
CSLAYER1
  6
CONTINUOUS
 62
     7
 10
879.672686
 20
1549.614936
 11
904.722686
 21
1549.614936
  0
POINT
  8
CSLAYER1
 62
     7
 10
892.197686
 20
1502.864936
  0
LINE
  8
CSLAYER1
  6
CONTINUOUS
 62
     7
 10
905.722686
 20
1548.614936
 11
905.722686
 21
1456.064936
  0
LINE
  8
CSLAYER1
  6
CONTINUOUS
 62
     7
 10
901.722686
 20
1517.914936
 11
901.722686
 21
1456.064936
  0
LINE
  8
CSLAYER1
  6
CONTINUOUS
 62
     7
 10
901.722686
 20
1517.914936
 11
905.722686
 21
1517.914936
  0
LINE
  8
CSLAYER1
  6
CONTINUOUS
 62
     7
 10
900.722686
 20
1493.339936
 11
883.672686
 21
1493.339936
  0
LINE
  8
CSLAYER1
  6
CONTINUOUS
 62
     7
 10
900.722686
 20
1512.389936
 11
883.672686
 21
1512.389936
  0
ARC
  8
CSLAYER1
  6
CONTINUOUS
 62
     7
 10
900.722686
 20
1494.339936
 40
1.000000
 50
270.000000
 51
360.000000
  0
ARC
  8
CSLAYER1
  6
CONTINUOUS
 62
     7
 10
900.722686
 20
1511.389936
 40
1.000000
 50
0.000000
 51
90.000000
  0
LINE
  8
CSLAYER1
  6
CONTINUOUS
 62
     7
 10
878.672686
 20
1548.614936
 11
878.672686
 21
1455.364936
  0
LINE
  8
CSLAYER1
  6
CONTINUOUS
 62
     7
 10
882.672686
 20
1517.914936
 11
882.672686
 21
1456.064936
  0
LINE
  8
CSLAYER1
  6
CONTINUOUS
 62
     7
 10
882.672686
 20
1517.914936
 11
878.672686
 21
1517.914936
  0
ARC
  8
CSLAYER1
  6
CONTINUOUS
 62
     7
 10
883.672686
 20
1494.339936
 40
1.000000
 50
180.000000
 51
270.000000
  0
ARC
  8
CSLAYER1
  6
CONTINUOUS
 62
     7
 10
883.672686
 20
1511.389936
 40
1.000000
 50
90.000000
 51
180.000000
  0
LINE
  8
CSLAYER1
  6
CONTINUOUS
 62
     7
 10
911.947686
 20
1499.094936
 11
911.947686
 21
1506.644662
  0
LINE
  8
CSLAYER1
  6
CONTINUOUS
 62
     7
 10
905.722686
 20
1489.864936
 11
910.097686
 21
1489.864936
  0
LINE
  8
CSLAYER1
  6
CONTINUOUS
 62
     7
 10
905.722686
 20
1547.614936
 11
910.097686
 21
1547.614936
  0
LINE
  8
CSLAYER1
  6
CONTINUOUS
 62
     7
 10
910.097686
 20
1498.094936
 11
910.947686
 21
1498.094936
  0
LINE
  8
CSLAYER1
  6
CONTINUOUS
 62
     7
 10
910.097686
 20
1507.644662
 11
910.947686
 21
1507.644662
  0
ARC
  8
CSLAYER1
  6
CONTINUOUS
 62
     7
 10
910.947686
 20
1499.094936
 40
1.000000
 50
270.000000
 51
360.000000
  0
ARC
  8
CSLAYER1
  6
CONTINUOUS
 62
     7
 10
910.947686
 20
1506.644662
 40
1.000000
 50
0.000000
 51
90.000000
  0
LINE
  8
CSLAYER1
  6
CONTINUOUS
 62
     7
 10
911.947686
 20
1530.844936
 11
911.947686
 21
1538.394662
  0
LINE
  8
CSLAYER1
  6
CONTINUOUS
 62
     7
 10
910.097686
 20
1529.844936
 11
910.947686
 21
1529.844936
  0
LINE
  8
CSLAYER1
  6
CONTINUOUS
 62
     7
 10
910.097686
 20
1539.394662
 11
910.947686
 21
1539.394662
  0
ARC
  8
CSLAYER1
  6
CONTINUOUS
 62
     7
 10
910.947686
 20
1530.844936
 40
1.000000
 50
270.000000
 51
360.000000
  0
ARC
  8
CSLAYER1
  6
CONTINUOUS
 62
     7
 10
910.947686
 20
1538.394662
 40
1.000000
 50
0.000000
 51
90.000000
  0
LINE
  8
CSLAYER1
  6
CONTINUOUS
 62
     7
 10
872.447686
 20
1499.094936
 11
872.447686
 21
1506.644662
  0
LINE
  8
CSLAYER1
  6
CONTINUOUS
 62
     7
 10
878.672686
 20
1489.864936
 11
874.297686
 21
1489.864936
  0
LINE
  8
CSLAYER1
  6
CONTINUOUS
 62
     7
 10
878.672686
 20
1547.614936
 11
874.297686
 21
1547.614936
  0
LINE
  8
CSLAYER1
  6
CONTINUOUS
 62
     7
 10
874.297686
 20
1498.094936
 11
873.447686
 21
1498.094936
  0
LINE
  8
CSLAYER1
  6
CONTINUOUS
 62
     7
 10
874.297686
 20
1507.644662
 11
873.447686
 21
1507.644662
  0
ARC
  8
CSLAYER1
  6
CONTINUOUS
 62
     7
 10
873.447686
 20
1499.094936
 40
1.000000
 50
180.000000
 51
270.000000
  0
ARC
  8
CSLAYER1
  6
CONTINUOUS
 62
     7
 10
873.447686
 20
1506.644662
 40
1.000000
 50
90.000000
 51
180.000000
  0
LINE
  8
CSLAYER1
  6
CONTINUOUS
 62
     7
 10
869.347686
 20
1530.844936
 11
869.347686
 21
1538.394662
  0
LINE
  8
CSLAYER1
  6
CONTINUOUS
 62
     7
 10
874.297686
 20
1529.844936
 11
870.347686
 21
1529.844936
  0
LINE
  8
CSLAYER1
  6
CONTINUOUS
 62
     7
 10
874.297686
 20
1539.394662
 11
870.347686
 21
1539.394662
  0
ARC
  8
CSLAYER1
  6
CONTINUOUS
 62
     7
 10
870.347686
 20
1530.844936
 40
1.000000
 50
180.000000
 51
270.000000
  0
ARC
  8
CSLAYER1
  6
CONTINUOUS
 62
     7
 10
870.347686
 20
1538.394662
 40
1.000000
 50
90.000000
 51
180.000000
  0
LINE
  8
CSLAYER1
  6
CONTINUOUS
 62
     7
 10
878.672686
 20
1539.394662
 11
905.722686
 21
1539.394662
  0
LINE
  8
CSLAYER1
  6
CONTINUOUS
 62
     7
 10
878.672686
 20
1529.844936
 11
905.722686
 21
1529.844936
  0
LINE
  8
CSLAYER1
  6
CONTINUOUS
 62
     7
 10
880.672686
 20
1519.614936
 11
903.722686
 21
1519.614936
  0
ARC
  8
CSLAYER1
  6
CONTINUOUS
 62
     7
 10
903.722686
 20
1521.614936
 40
2.000000
 50
270.000000
 51
360.000000
  0
ARC
  8
CSLAYER1
  6
CONTINUOUS
 62
     7
 10
880.672686
 20
1521.614936
 40
2.000000
 50
180.000000
 51
270.000000
  0
ARC
  8
CSLAYER1
  6
CONTINUOUS
 62
     7
 10
880.197686
 20
1551.614936
 40
2.000000
 50
270.000000
 51
360.000000
  0
ARC
  8
CSLAYER1
  6
CONTINUOUS
 62
     7
 10
904.197686
 20
1551.614936
 40
2.000000
 50
180.000000
 51
270.000000
  0
ARC
  8
CSLAYER1
  6
CONTINUOUS
 62
     7
 10
879.672686
 20
1548.614936
 40
1.000000
 50
90.000000
 51
180.000000
  0
ARC
  8
CSLAYER1
  6
CONTINUOUS
 62
     7
 10
904.722686
 20
1548.614936
 40
1.000000
 50
0.000000
 51
90.000000
  0
POINT
  8
CSLAYER1
 62
     7
 10
892.197686
 20
1549.614936
  0
LINE
  8
CSLAYER1
  6
CONTINUOUS
 62
     7
 10
910.097686
 20
1489.864936
 11
910.097686
 21
1547.614936
  0
LINE
  8
CSLAYER1
  6
CONTINUOUS
 62
     7
 10
874.297686
 20
1489.864936
 11
874.297686
 21
1547.614936
  0
POINT
  8
CSLAYER1
 62
     7
 10
892.197686
 20
1471.114936
  0
LINE
  8
CSLAYER1
  6
CONTINUOUS
 62
     7
 10
901.722686
 20
1456.064936
 11
905.722686
 21
1456.064936
  0
LINE
  8
CSLAYER1
  6
CONTINUOUS
 62
     7
 10
900.722686
 20
1480.639936
 11
883.672686
 21
1480.639936
  0
LINE
  8
CSLAYER1
  6
CONTINUOUS
 62
     7
 10
900.722686
 20
1461.589936
 11
883.672686
 21
1461.589936
  0
ARC
  8
CSLAYER1
  6
CONTINUOUS
 62
     7
 10
900.722686
 20
1479.639936
 40
1.000000
 50
0.000000
 51
90.000000
  0
ARC
  8
CSLAYER1
  6
CONTINUOUS
 62
     7
 10
900.722686
 20
1462.589936
 40
1.000000
 50
270.000000
 51
360.000000
  0
LINE
  8
CSLAYER1
  6
CONTINUOUS
 62
     7
 10
882.672686
 20
1456.064936
 11
878.672686
 21
1456.064936
  0
ARC
  8
CSLAYER1
  6
CONTINUOUS
 62
     7
 10
883.672686
 20
1479.639936
 40
1.000000
 50
90.000000
 51
180.000000
  0
ARC
  8
CSLAYER1
  6
CONTINUOUS
 62
     7
 10
883.672686
 20
1462.589936
 40
1.000000
 50
180.000000
 51
270.000000
  0
LINE
  8
CSLAYER1
  6
CONTINUOUS
 62
     7
 10
911.947686
 20
1474.884936
 11
911.947686
 21
1467.335210
  0
LINE
  8
CSLAYER1
  6
CONTINUOUS
 62
     7
 10
905.722686
 20
1484.114936
 11
910.097686
 21
1484.114936
  0
LINE
  8
CSLAYER1
  6
CONTINUOUS
 62
     7
 10
910.097686
 20
1475.884936
 11
910.947686
 21
1475.884936
  0
LINE
  8
CSLAYER1
  6
CONTINUOUS
 62
     7
 10
910.097686
 20
1466.335210
 11
910.947686
 21
1466.335210
  0
ARC
  8
CSLAYER1
  6
CONTINUOUS
 62
     7
 10
910.947686
 20
1474.884936
 40
1.000000
 50
0.000000
 51
90.000000
  0
ARC
  8
CSLAYER1
  6
CONTINUOUS
 62
     7
 10
910.947686
 20
1467.335210
 40
1.000000
 50
270.000000
 51
360.000000
  0
LINE
  8
CSLAYER1
  6
CONTINUOUS
 62
     7
 10
872.447686
 20
1474.884936
 11
872.447686
 21
1467.335210
  0
LINE
  8
CSLAYER1
  6
CONTINUOUS
 62
     7
 10
878.672686
 20
1484.114936
 11
874.297686
 21
1484.114936
  0
LINE
  8
CSLAYER1
  6
CONTINUOUS
 62
     7
 10
874.297686
 20
1475.884936
 11
873.447686
 21
1475.884936
  0
LINE
  8
CSLAYER1
  6
CONTINUOUS
 62
     7
 10
874.297686
 20
1466.335210
 11
873.447686
 21
1466.335210
  0
ARC
  8
CSLAYER1
  6
CONTINUOUS
 62
     7
 10
873.447686
 20
1474.884936
 40
1.000000
 50
90.000000
 51
180.000000
  0
ARC
  8
CSLAYER1
  6
CONTINUOUS
 62
     7
 10
873.447686
 20
1467.335210
 40
1.000000
 50
180.000000
 51
270.000000
  0
LINE
  8
CSLAYER1
  6
CONTINUOUS
 62
     7
 10
874.297686
 20
1484.114936
 11
874.297686
 21
1426.364936
  0
LINE
  8
CSLAYER1
  6
CONTINUOUS
 62
     7
 10
910.097686
 20
1484.114936
 11
910.097686
 21
1426.364936
  0
LINE
  8
CSLAYER1
  6
CONTINUOUS
 62
     7
 10
918.197686
 20
1600.197628
 11
873.697686
 21
1600.197628
  0
LINE
  8
CSLAYER1
  6
CONTINUOUS
 62
     5
 10
919.680968
 20
1253.817204
 11
875.145056
 21
1253.817204
  0
LINE
  8
CSLAYER1
  6
CONTINUOUS
 62
     4
 10
878.672686
 20
1266.817204
 11
874.297686
 21
1266.817204
  0
LINE
  8
CSLAYER1
  6
CONTINUOUS
 62
     4
 10
872.447686
 20
1250.047204
 11
872.447686
 21
1257.596930
  0
LINE
  8
CSLAYER1
  6
CONTINUOUS
 62
     4
 10
874.297686
 20
1249.047204
 11
873.447686
 21
1249.047204
  0
LINE
  8
CSLAYER1
  6
CONTINUOUS
 62
     4
 10
874.297686
 20
1258.596930
 11
873.447686
 21
1258.596930
  0
ARC
  8
CSLAYER1
  6
CONTINUOUS
 62
     4
 10
873.447686
 20
1250.047204
 40
1.000000
 50
180.000000
 51
270.000000
  0
ARC
  8
CSLAYER1
  6
CONTINUOUS
 62
     4
 10
873.447686
 20
1257.596930
 40
1.000000
 50
90.000000
 51
180.000000
  0
LINE
  8
CSLAYER1
  6
CONTINUOUS
 62
     4
 10
905.722686
 20
1266.817204
 11
910.097686
 21
1266.817204
  0
LINE
  8
CSLAYER1
  6
CONTINUOUS
 62
     4
 10
911.947686
 20
1250.047204
 11
911.947686
 21
1257.596930
  0
LINE
  8
CSLAYER1
  6
CONTINUOUS
 62
     4
 10
910.097686
 20
1249.047204
 11
910.947686
 21
1249.047204
  0
LINE
  8
CSLAYER1
  6
CONTINUOUS
 62
     4
 10
910.097686
 20
1258.596930
 11
910.947686
 21
1258.596930
  0
ARC
  8
CSLAYER1
  6
CONTINUOUS
 62
     4
 10
910.947686
 20
1250.047204
 40
1.000000
 50
270.000000
 51
360.000000
  0
ARC
  8
CSLAYER1
  6
CONTINUOUS
 62
     4
 10
910.947686
 20
1257.596930
 40
1.000000
 50
0.000000
 51
90.000000
  0
POINT
  8
CSLAYER1
 62
     4
 10
892.197686
 20
1253.817204
  0
POINT
  8
CSLAYER1
 62
     4
 10
892.197686
 20
1285.567204
  0
LINE
  8
CSLAYER1
  6
CONTINUOUS
 62
     4
 10
901.722686
 20
1300.617204
 11
905.722686
 21
1300.617204
  0
LINE
  8
CSLAYER1
  6
CONTINUOUS
 62
     4
 10
900.722686
 20
1276.042204
 11
883.672686
 21
1276.042204
  0
LINE
  8
CSLAYER1
  6
CONTINUOUS
 62
     4
 10
900.722686
 20
1295.092204
 11
883.672686
 21
1295.092204
  0
ARC
  8
CSLAYER1
  6
CONTINUOUS
 62
     4
 10
900.722686
 20
1277.042204
 40
1.000000
 50
270.000000
 51
360.000000
  0
ARC
  8
CSLAYER1
  6
CONTINUOUS
 62
     4
 10
900.722686
 20
1294.092204
 40
1.000000
 50
0.000000
 51
90.000000
  0
LINE
  8
CSLAYER1
  6
CONTINUOUS
 62
     4
 10
882.672686
 20
1300.617204
 11
878.672686
 21
1300.617204
  0
ARC
  8
CSLAYER1
  6
CONTINUOUS
 62
     4
 10
883.672686
 20
1277.042204
 40
1.000000
 50
180.000000
 51
270.000000
  0
ARC
  8
CSLAYER1
  6
CONTINUOUS
 62
     4
 10
883.672686
 20
1294.092204
 40
1.000000
 50
90.000000
 51
180.000000
  0
LINE
  8
CSLAYER1
  6
CONTINUOUS
 62
     4
 10
911.947686
 20
1281.797204
 11
911.947686
 21
1289.346930
  0
LINE
  8
CSLAYER1
  6
CONTINUOUS
 62
     4
 10
905.722686
 20
1272.567204
 11
910.097686
 21
1272.567204
  0
LINE
  8
CSLAYER1
  6
CONTINUOUS
 62
     4
 10
910.097686
 20
1280.797204
 11
910.947686
 21
1280.797204
  0
LINE
  8
CSLAYER1
  6
CONTINUOUS
 62
     4
 10
910.097686
 20
1290.346930
 11
910.947686
 21
1290.346930
  0
ARC
  8
CSLAYER1
  6
CONTINUOUS
 62
     4
 10
910.947686
 20
1281.797204
 40
1.000000
 50
270.000000
 51
360.000000
  0
ARC
  8
CSLAYER1
  6
CONTINUOUS
 62
     4
 10
910.947686
 20
1289.346930
 40
1.000000
 50
0.000000
 51
90.000000
  0
LINE
  8
CSLAYER1
  6
CONTINUOUS
 62
     4
 10
872.447686
 20
1281.797204
 11
872.447686
 21
1289.346930
  0
LINE
  8
CSLAYER1
  6
CONTINUOUS
 62
     4
 10
878.672686
 20
1272.567204
 11
874.297686
 21
1272.567204
  0
LINE
  8
CSLAYER1
  6
CONTINUOUS
 62
     4
 10
874.297686
 20
1280.797204
 11
873.447686
 21
1280.797204
  0
LINE
  8
CSLAYER1
  6
CONTINUOUS
 62
     4
 10
874.297686
 20
1290.346930
 11
873.447686
 21
1290.346930
  0
ARC
  8
CSLAYER1
  6
CONTINUOUS
 62
     4
 10
873.447686
 20
1281.797204
 40
1.000000
 50
180.000000
 51
270.000000
  0
ARC
  8
CSLAYER1
  6
CONTINUOUS
 62
     4
 10
873.447686
 20
1289.346930
 40
1.000000
 50
90.000000
 51
180.000000
  0
LINE
  8
CSLAYER1
  6
CONTINUOUS
 62
     4
 10
900.722686
 20
1263.342204
 11
883.672686
 21
1263.342204
  0
LINE
  8
CSLAYER1
  6
CONTINUOUS
 62
     4
 10
900.722686
 20
1244.292204
 11
883.672686
 21
1244.292204
  0
ARC
  8
CSLAYER1
  6
CONTINUOUS
 62
     4
 10
900.722686
 20
1262.342204
 40
1.000000
 50
0.000000
 51
90.000000
  0
ARC
  8
CSLAYER1
  6
CONTINUOUS
 62
     4
 10
900.722686
 20
1245.292204
 40
1.000000
 50
270.000000
 51
360.000000
  0
ARC
  8
CSLAYER1
  6
CONTINUOUS
 62
     4
 10
883.672686
 20
1262.342204
 40
1.000000
 50
90.000000
 51
180.000000
  0
ARC
  8
CSLAYER1
  6
CONTINUOUS
 62
     4
 10
883.672686
 20
1245.292204
 40
1.000000
 50
180.000000
 51
270.000000
  0
LINE
  8
CSLAYER1
  6
CONTINUOUS
 62
     4
 10
942.697686
 20
1634.697628
 11
941.547686
 21
1634.697628
  0
LINE
  8
CSLAYER1
  6
CONTINUOUS
 62
     4
 10
941.547686
 20
1634.147628
 11
940.197686
 21
1634.147628
  0
LINE
  8
CSLAYER1
  6
CONTINUOUS
 62
     4
 10
941.547686
 20
1637.247628
 11
940.197686
 21
1637.247628
  0
LINE
  8
CSLAYER1
  6
CONTINUOUS
 62
     4
 10
941.547686
 20
1637.247628
 11
941.547686
 21
1607.147628
  0
LINE
  8
CSLAYER1
  6
CONTINUOUS
 62
     4
 10
944.197686
 20
1633.197628
 11
944.197686
 21
1611.197628
  0
LINE
  8
CSLAYER1
  6
CONTINUOUS
 62
     4
 10
944.197686
 20
1633.197628
 11
942.697686
 21
1634.697628
  0
LINE
  8
CSLAYER1
  6
CONTINUOUS
 62
     4
 10
942.697686
 20
1634.697628
 11
942.697686
 21
1609.697628
  0
LINE
  8
CSLAYER1
  6
CONTINUOUS
 62
     4
 10
942.697686
 20
1609.697628
 11
941.547686
 21
1609.697628
  0
LINE
  8
CSLAYER1
  6
CONTINUOUS
 62
     4
 10
941.547686
 20
1610.247628
 11
940.197686
 21
1610.247628
  0
LINE
  8
CSLAYER1
  6
CONTINUOUS
 62
     4
 10
941.547686
 20
1607.147628
 11
940.197686
 21
1607.147628
  0
LINE
  8
CSLAYER1
  6
CONTINUOUS
 62
     4
 10
944.197686
 20
1611.197628
 11
942.697686
 21
1609.697628
  0
LINE
  8
CSLAYER1
  6
CONTINUOUS
 62
     7
 10
921.697686
 20
1652.447628
 11
612.697686
 21
1652.447628
  0
LINE
  8
CSLAYER1
  6
CONTINUOUS
 62
     7
 10
873.697686
 20
1650.447628
 11
871.697686
 21
1652.447628
  0
ARC
  8
CSLAYER1
  6
CONTINUOUS
 62
     7
 10
892.197686
 20
1635.724942
 40
25.630502
 50
43.797018
 51
136.202982
  0
ARC
  8
CSLAYER1
  6
CONTINUOUS
 62
     7
 10
892.197686
 20
1675.565263
 40
13.551139
 50
42.443318
 51
137.556682
  0
LINE
  8
CSLAYER1
  6
CONTINUOUS
 62
     7
 10
902.197686
 20
1684.710391
 11
902.197686
 21
1659.324150
  0
LINE
  8
CSLAYER1
  6
CONTINUOUS
 62
     7
 10
882.197686
 20
1684.710391
 11
882.197686
 21
1659.324150
  0
ARC
  8
CSLAYER1
  6
CONTINUOUS
 62
     7
 10
892.197686
 20
1626.458614
 40
25.630502
 50
43.797018
 51
136.202982
  0
CIRCLE
  8
CSLAYER1
  6
CONTINUOUS
 62
     3
 10
1755.134091
 20
1658.730814
 40
8.000000
  0
LINE
  8
CSLAYER1
  6
CONTINUOUS
 62
     3
 10
1716.334087
 20
1754.730814
 11
1725.134087
 21
1754.730814
  0
LINE
  8
CSLAYER1
  6
CONTINUOUS
 62
     3
 10
1797.934087
 20
1779.730814
 11
1797.934087
 21
1797.930814
  0
LINE
  8
CSLAYER1
  6
CONTINUOUS
 62
     3
 10
1797.934087
 20
1779.730814
 11
1872.934087
 21
1704.730814
  0
LINE
  8
CSLAYER1
  6
CONTINUOUS
 62
     3
 10
1713.134087
 20
1857.930814
 11
1713.134087
 21
1797.930814
  0
LINE
  8
CSLAYER1
  6
CONTINUOUS
 62
     3
 10
1716.334087
 20
1797.930814
 11
1716.334087
 21
1754.730814
  0
LINE
  8
CSLAYER1
  6
CONTINUOUS
 62
     3
 10
1725.134087
 20
1797.930814
 11
1725.134087
 21
1639.730814
  0
LINE
  8
CSLAYER1
  6
CONTINUOUS
 62
     3
 10
1713.134087
 20
1857.930814
 11
3213.134087
 21
1857.930814
  0
LINE
  8
CSLAYER1
  6
CONTINUOUS
 62
     3
 10
1775.134087
 20
1797.930814
 11
1775.134087
 21
1654.730814
  0
ARC
  8
CSLAYER1
  6
CONTINUOUS
 62
     3
 10
1760.134087
 20
1654.730814
 40
15.000000
 50
270.000000
 51
360.000000
  0
LINE
  8
CSLAYER1
  6
CONTINUOUS
 62
     3
 10
1725.134087
 20
1639.730814
 11
1760.134087
 21
1639.730814
  0
LINE
  8
CSLAYER1
  6
CONTINUOUS
 62
     3
 10
3213.134087
 20
1857.930814
 11
3213.134087
 21
1797.930814
  0
LINE
  8
CSLAYER1
  6
CONTINUOUS
 62
     3
 10
3209.934087
 20
1707.730814
 11
3209.934087
 21
1797.930814
  0
LINE
  8
CSLAYER1
  6
CONTINUOUS
 62
     3
 10
3197.934087
 20
1682.730814
 11
3197.934087
 21
1797.930814
  0
LINE
  8
CSLAYER1
  6
CONTINUOUS
 62
     3
 10
1872.934087
 20
1704.730814
 11
3206.934087
 21
1704.730814
  0
LINE
  8
CSLAYER1
  6
CONTINUOUS
 62
     3
 10
2650.934087
 20
1679.730814
 11
3194.934087
 21
1679.730814
  0
LINE
  8
CSLAYER1
  6
CONTINUOUS
 62
     3
 10
1819.143648
 20
844.432536
 11
1823.673871
 21
840.778452
  0
LINE
  8
CSLAYER1
  6
CONTINUOUS
 62
     3
 10
1854.929564
 20
888.798833
 11
1858.522156
 21
885.901043
  0
LINE
  8
CSLAYER1
  6
CONTINUOUS
 62
     3
 10
1819.143648
 20
844.432536
 11
1854.929564
 21
888.798833
  0
LINE
  8
CSLAYER1
  6
CONTINUOUS
 62
     3
 10
1856.486276
 20
887.543187
 11
1934.188326
 21
983.875841
  0
LINE
  8
CSLAYER1
  6
CONTINUOUS
 62
     3
 10
1819.143648
 20
844.432536
 11
1822.077390
 21
838.711281
  0
LINE
  8
CSLAYER1
  6
CONTINUOUS
 62
     3
 10
1915.659802
 20
766.582475
 11
1906.270236
 21
774.156112
  0
LINE
  8
CSLAYER1
  6
CONTINUOUS
 62
     3
 10
1951.445718
 20
810.948772
 11
1946.422179
 21
815.000764
  0
LINE
  8
CSLAYER1
  6
CONTINUOUS
 62
     3
 10
1915.659802
 20
766.582475
 11
1951.445718
 21
810.948772
  0
LINE
  8
CSLAYER1
  6
CONTINUOUS
 62
     3
 10
1949.889005
 20
812.204418
 11
1978.304658
 21
847.433285
  0
LINE
  8
CSLAYER1
  6
CONTINUOUS
 62
     3
 10
1915.659802
 20
766.582475
 11
1902.320763
 21
770.138502
  0
LINE
  8
CSLAYER1
  6
CONTINUOUS
 62
     5
 10
2501.012807
 20
1642.469354
 11
2551.723563
 21
1601.565988
  0
ARC
  8
CSLAYER1
  6
CONTINUOUS
 62
     4
 10
2282.114818
 20
1172.516618
 40
124.983369
 50
14.717843
 51
59.265674
  0
LINE
  8
CSLAYER1
  6
CONTINUOUS
 62
     4
 10
2432.356595
 20
1092.500702
 11
2402.997318
 21
1204.269788
  0
LINE
  8
CSLAYER1
  6
CONTINUOUS
 62
     4
 10
2200.701277
 20
1171.241446
 11
2270.804649
 21
1099.928635
  0
LINE
  8
CSLAYER1
  6
CONTINUOUS
 62
     4
 10
2235.752380
 20
1135.585643
 11
2200.701939
 21
1171.243273
  0
LINE
  8
CSLAYER1
  6
CONTINUOUS
 62
     4
 10
2748.907759
 20
721.988534
 11
2494.783028
 21
980.497473
  0
POINT
  8
CSLAYER1
 62
     5
 10
2471.606365
 20
957.713876
  0
ARC
  8
CSLAYER1
  6
CONTINUOUS
 62
     4
 10
2471.606365
 20
957.713876
 40
32.500000
 50
44.510000
 51
224.510000
  0
LINE
  8
CSLAYER1
  6
CONTINUOUS
 62
     4
 10
2748.907759
 20
721.988534
 11
2758.729301
 21
684.088848
  0
LINE
  8
CSLAYER1
  6
CONTINUOUS
 62
     4
 10
2695.016963
 20
684.088848
 11
2448.429701
 21
934.930280
  0
LINE
  8
CSLAYER1
  6
CONTINUOUS
 62
     5
 10
1740.389558
 20
1658.730814
 11
1770.805663
 21
1658.730814
  0
LINE
  8
CSLAYER1
  6
CONTINUOUS
 62
     5
 10
1755.134087
 20
1674.980561
 11
1755.134087
 21
1643.935157
  0
LINE
  8
CSLAYER1
  6
CONTINUOUS
 62
     3
 10
2647.934087
 20
1682.730814
 11
2650.934087
 21
1679.730814
  0
LINE
  8
CSLAYER1
  6
CONTINUOUS
 62
     3
 10
3194.934087
 20
1679.730814
 11
3197.934087
 21
1682.730814
  0
LINE
  8
CSLAYER1
  6
CONTINUOUS
 62
     3
 10
3206.934087
 20
1704.730814
 11
3209.934087
 21
1707.730814
  0
LINE
  8
CSLAYER1
  6
CONTINUOUS
 62
     5
 10
2717.976586
 20
1658.730815
 11
2782.502877
 21
1658.730815
  0
LINE
  8
CSLAYER1
  6
CONTINUOUS
 62
     5
 10
2750.601993
 20
1686.613203
 11
2750.601993
 21
1626.919596
  0
LINE
  8
CSLAYER1
  6
CONTINUOUS
 62
     5
 10
2549.924334
 20
1647.763766
 11
2411.923193
 21
1499.392527
  0
POINT
  8
CSLAYER1
 62
     2
 10
2252.868041
 20
1152.409852
  0
LINE
  8
CSLAYER1
  6
CONTINUOUS
 62
     3
 10
2529.725764
 20
1580.445483
 11
2484.607576
 21
1616.837874
  0
LINE
  8
CSLAYER1
  6
CONTINUOUS
 62
     3
 10
2529.725764
 20
1580.445483
 11
2529.876297
 21
1579.039304
  0
LINE
  8
CSLAYER1
  6
CONTINUOUS
 62
     3
 10
2492.516529
 20
1610.458502
 11
2497.014477
 21
1612.842066
  0
LINE
  8
CSLAYER1
  6
CONTINUOUS
 62
     3
 10
2497.014477
 20
1612.842066
 11
2497.349177
 21
1606.560482
  0
LINE
  8
CSLAYER1
  6
CONTINUOUS
 62
     3
 10
2497.349177
 20
1606.560482
 11
2499.197072
 21
1608.076763
  0
LINE
  8
CSLAYER1
  6
CONTINUOUS
 62
     3
 10
2497.349177
 20
1606.560482
 11
2496.694858
 21
1612.672693
  0
LINE
  8
CSLAYER1
  6
CONTINUOUS
 62
     3
 10
2497.129025
 20
1606.738057
 11
2496.504513
 21
1612.571825
  0
LINE
  8
CSLAYER1
  6
CONTINUOUS
 62
     3
 10
2496.908872
 20
1606.915632
 11
2496.314169
 21
1612.470957
  0
LINE
  8
CSLAYER1
  6
CONTINUOUS
 62
     3
 10
2496.688720
 20
1607.093207
 11
2496.123824
 21
1612.370089
  0
LINE
  8
CSLAYER1
  6
CONTINUOUS
 62
     3
 10
2496.468568
 20
1607.270782
 11
2495.933479
 21
1612.269221
  0
LINE
  8
CSLAYER1
  6
CONTINUOUS
 62
     3
 10
2496.248415
 20
1607.448358
 11
2495.743135
 21
1612.168353
  0
LINE
  8
CSLAYER1
  6
CONTINUOUS
 62
     3
 10
2496.028263
 20
1607.625933
 11
2495.552790
 21
1612.067485
  0
LINE
  8
CSLAYER1
  6
CONTINUOUS
 62
     3
 10
2495.808111
 20
1607.803508
 11
2495.362445
 21
1611.966617
  0
LINE
  8
CSLAYER1
  6
CONTINUOUS
 62
     3
 10
2495.587958
 20
1607.981083
 11
2495.172100
 21
1611.865749
  0
LINE
  8
CSLAYER1
  6
CONTINUOUS
 62
     3
 10
2495.367806
 20
1608.158658
 11
2494.981756
 21
1611.764881
  0
LINE
  8
CSLAYER1
  6
CONTINUOUS
 62
     3
 10
2495.147654
 20
1608.336234
 11
2494.791411
 21
1611.664013
  0
LINE
  8
CSLAYER1
  6
CONTINUOUS
 62
     3
 10
2494.927501
 20
1608.513809
 11
2494.601066
 21
1611.563145
  0
LINE
  8
CSLAYER1
  6
CONTINUOUS
 62
     3
 10
2494.707349
 20
1608.691384
 11
2494.410722
 21
1611.462277
  0
LINE
  8
CSLAYER1
  6
CONTINUOUS
 62
     3
 10
2494.487196
 20
1608.868959
 11
2494.220377
 21
1611.361410
  0
LINE
  8
CSLAYER1
  6
CONTINUOUS
 62
     3
 10
2494.267044
 20
1609.046534
 11
2494.030032
 21
1611.260542
  0
LINE
  8
CSLAYER1
  6
CONTINUOUS
 62
     3
 10
2494.046892
 20
1609.224109
 11
2493.839688
 21
1611.159674
  0
LINE
  8
CSLAYER1
  6
CONTINUOUS
 62
     3
 10
2493.826739
 20
1609.401685
 11
2493.649343
 21
1611.058806
  0
LINE
  8
CSLAYER1
  6
CONTINUOUS
 62
     3
 10
2493.606587
 20
1609.579260
 11
2493.458998
 21
1610.957938
  0
LINE
  8
CSLAYER1
  6
CONTINUOUS
 62
     3
 10
2493.386435
 20
1609.756835
 11
2493.268653
 21
1610.857070
  0
LINE
  8
CSLAYER1
  6
CONTINUOUS
 62
     3
 10
2493.166282
 20
1609.934410
 11
2493.078309
 21
1610.756202
  0
LINE
  8
CSLAYER1
  6
CONTINUOUS
 62
     3
 10
2492.946130
 20
1610.111985
 11
2492.887964
 21
1610.655334
  0
LINE
  8
CSLAYER1
  6
CONTINUOUS
 62
     3
 10
2492.725978
 20
1610.289561
 11
2492.697619
 21
1610.554466
  0
LINE
  8
CSLAYER1
  6
CONTINUOUS
 62
     3
 10
2497.534078
 20
1606.712201
 11
2496.885203
 21
1612.773561
  0
LINE
  8
CSLAYER1
  6
CONTINUOUS
 62
     3
 10
2497.718979
 20
1606.863921
 11
2497.105463
 21
1612.594982
  0
LINE
  8
CSLAYER1
  6
CONTINUOUS
 62
     3
 10
2497.903880
 20
1607.015640
 11
2497.383678
 21
1611.875020
  0
LINE
  8
CSLAYER1
  6
CONTINUOUS
 62
     3
 10
2498.088781
 20
1607.167360
 11
2497.655224
 21
1611.217362
  0
LINE
  8
CSLAYER1
  6
CONTINUOUS
 62
     3
 10
2498.273682
 20
1607.319079
 11
2497.921452
 21
1610.609375
  0
LINE
  8
CSLAYER1
  6
CONTINUOUS
 62
     3
 10
2498.458583
 20
1607.470799
 11
2498.183307
 21
1610.042243
  0
LINE
  8
CSLAYER1
  6
CONTINUOUS
 62
     3
 10
2498.643484
 20
1607.622519
 11
2498.441478
 21
1609.509521
  0
LINE
  8
CSLAYER1
  6
CONTINUOUS
 62
     3
 10
2498.828385
 20
1607.774238
 11
2498.696488
 21
1609.006328
  0
LINE
  8
CSLAYER1
  6
CONTINUOUS
 62
     3
 10
2499.013286
 20
1607.925958
 11
2498.948745
 21
1608.528860
  0
LINE
  8
CSLAYER1
  6
CONTINUOUS
 62
     3
 10
2521.790346
 20
1586.846202
 11
2523.167788
 21
1591.746770
  0
LINE
  8
CSLAYER1
  6
CONTINUOUS
 62
     3
 10
2523.167788
 20
1591.746770
 11
2516.957698
 21
1590.744222
  0
LINE
  8
CSLAYER1
  6
CONTINUOUS
 62
     3
 10
2516.957698
 20
1590.744222
 11
2518.048464
 21
1592.871205
  0
LINE
  8
CSLAYER1
  6
CONTINUOUS
 62
     3
 10
2516.957698
 20
1590.744222
 11
2523.069909
 21
1591.398541
  0
LINE
  8
CSLAYER1
  6
CONTINUOUS
 62
     3
 10
2517.177850
 20
1590.566647
 11
2523.011618
 21
1591.191158
  0
LINE
  8
CSLAYER1
  6
CONTINUOUS
 62
     3
 10
2517.398002
 20
1590.389072
 11
2522.953327
 21
1590.983775
  0
LINE
  8
CSLAYER1
  6
CONTINUOUS
 62
     3
 10
2517.618155
 20
1590.211497
 11
2522.895036
 21
1590.776393
  0
LINE
  8
CSLAYER1
  6
CONTINUOUS
 62
     3
 10
2517.838307
 20
1590.033922
 11
2522.836746
 21
1590.569010
  0
LINE
  8
CSLAYER1
  6
CONTINUOUS
 62
     3
 10
2518.058459
 20
1589.856346
 11
2522.778455
 21
1590.361627
  0
LINE
  8
CSLAYER1
  6
CONTINUOUS
 62
     3
 10
2518.278612
 20
1589.678771
 11
2522.720164
 21
1590.154244
  0
LINE
  8
CSLAYER1
  6
CONTINUOUS
 62
     3
 10
2518.498764
 20
1589.501196
 11
2522.661873
 21
1589.946861
  0
LINE
  8
CSLAYER1
  6
CONTINUOUS
 62
     3
 10
2518.718916
 20
1589.323621
 11
2522.603583
 21
1589.739479
  0
LINE
  8
CSLAYER1
  6
CONTINUOUS
 62
     3
 10
2518.939069
 20
1589.146046
 11
2522.545292
 21
1589.532096
  0
LINE
  8
CSLAYER1
  6
CONTINUOUS
 62
     3
 10
2519.159221
 20
1588.968470
 11
2522.487001
 21
1589.324713
  0
LINE
  8
CSLAYER1
  6
CONTINUOUS
 62
     3
 10
2519.379373
 20
1588.790895
 11
2522.428710
 21
1589.117330
  0
LINE
  8
CSLAYER1
  6
CONTINUOUS
 62
     3
 10
2519.599526
 20
1588.613320
 11
2522.370419
 21
1588.909947
  0
LINE
  8
CSLAYER1
  6
CONTINUOUS
 62
     3
 10
2519.819678
 20
1588.435745
 11
2522.312129
 21
1588.702564
  0
LINE
  8
CSLAYER1
  6
CONTINUOUS
 62
     3
 10
2520.039830
 20
1588.258170
 11
2522.253838
 21
1588.495182
  0
LINE
  8
CSLAYER1
  6
CONTINUOUS
 62
     3
 10
2520.259983
 20
1588.080595
 11
2522.195547
 21
1588.287799
  0
LINE
  8
CSLAYER1
  6
CONTINUOUS
 62
     3
 10
2520.480135
 20
1587.903019
 11
2522.137256
 21
1588.080416
  0
LINE
  8
CSLAYER1
  6
CONTINUOUS
 62
     3
 10
2520.700288
 20
1587.725444
 11
2522.078965
 21
1587.873033
  0
LINE
  8
CSLAYER1
  6
CONTINUOUS
 62
     3
 10
2520.920440
 20
1587.547869
 11
2522.020675
 21
1587.665650
  0
LINE
  8
CSLAYER1
  6
CONTINUOUS
 62
     3
 10
2521.140592
 20
1587.370294
 11
2521.962384
 21
1587.458268
  0
LINE
  8
CSLAYER1
  6
CONTINUOUS
 62
     3
 10
2521.360745
 20
1587.192719
 11
2521.904093
 21
1587.250885
  0
LINE
  8
CSLAYER1
  6
CONTINUOUS
 62
     3
 10
2521.580897
 20
1587.015143
 11
2521.845802
 21
1587.043502
  0
LINE
  8
CSLAYER1
  6
CONTINUOUS
 62
     3
 10
2517.066840
 20
1590.957049
 11
2523.128200
 21
1591.605924
  0
LINE
  8
CSLAYER1
  6
CONTINUOUS
 62
     3
 10
2517.175982
 20
1591.169875
 11
2522.907043
 21
1591.783392
  0
LINE
  8
CSLAYER1
  6
CONTINUOUS
 62
     3
 10
2517.285125
 20
1591.382702
 11
2522.144504
 21
1591.902904
  0
LINE
  8
CSLAYER1
  6
CONTINUOUS
 62
     3
 10
2517.394267
 20
1591.595528
 11
2521.444269
 21
1592.029086
  0
LINE
  8
CSLAYER1
  6
CONTINUOUS
 62
     3
 10
2517.503410
 20
1591.808355
 11
2520.793706
 21
1592.160585
  0
LINE
  8
CSLAYER1
  6
CONTINUOUS
 62
     3
 10
2517.612552
 20
1592.021182
 11
2520.183996
 21
1592.296457
  0
LINE
  8
CSLAYER1
  6
CONTINUOUS
 62
     3
 10
2517.721694
 20
1592.234008
 11
2519.608697
 21
1592.436014
  0
LINE
  8
CSLAYER1
  6
CONTINUOUS
 62
     3
 10
2517.830837
 20
1592.446835
 11
2519.062926
 21
1592.578731
  0
LINE
  8
CSLAYER1
  6
CONTINUOUS
 62
     3
 10
2517.939979
 20
1592.659661
 11
2518.542881
 21
1592.724202
  0
LINE
  8
CSLAYER1
  6
CONTINUOUS
 62
     3
 10
2365.386651
 20
1375.110011
 11
2530.033252
 21
1579.233893
  0
CIRCLE
  8
CSLAYER1
  6
CONTINUOUS
 62
     3
 10
2526.145085
 20
1622.197623
 40
22.000000
  0
CIRCLE
  8
CSLAYER1
  6
CONTINUOUS
 62
     3
 10
2526.145085
 20
1622.197623
 40
22.250000
  0
LINE
  8
CSLAYER1
  6
CONTINUOUS
 62
     3
 10
2375.933376
 20
1366.603008
 11
2352.994139
 21
1385.105828
  0
LINE
  8
CSLAYER1
  6
CONTINUOUS
 62
     3
 10
2375.933376
 20
1366.603008
 11
2376.083909
 21
1365.196829
  0
LINE
  8
CSLAYER1
  6
CONTINUOUS
 62
     3
 10
2353.475564
 20
1383.432751
 11
2376.083909
 21
1365.196829
  0
LINE
  8
CSLAYER1
  6
CONTINUOUS
 62
     3
 10
2373.916490
 20
1362.509728
 11
2376.083909
 21
1365.196829
  0
ARC
  8
CSLAYER1
  6
CONTINUOUS
 62
     3
 10
2377.865521
 20
1462.775590
 40
13.000000
 50
286.443395
 51
355.780187
  0
ARC
  8
CSLAYER1
  6
CONTINUOUS
 62
     3
 10
2399.489007
 20
1486.023974
 40
4.770000
 50
-73.875349
 51
10.370413
  0
ARC
  8
CSLAYER1
  6
CONTINUOUS
 62
     3
 10
2399.489007
 20
1486.023974
 40
13.000000
 50
-80.557345
 51
42.455299
  0
ARC
  8
CSLAYER1
  6
CONTINUOUS
 62
     3
 10
2399.489007
 20
1486.023974
 40
15.050000
 50
259.039634
 51
348.904419
  0
ARC
  8
CSLAYER1
  6
CONTINUOUS
 62
     3
 10
2403.754578
 20
1460.376266
 40
13.000000
 50
99.442655
 51
174.705115
  0
ARC
  8
CSLAYER1
  6
CONTINUOUS
 62
     3
 10
2429.026363
 20
1480.231340
 40
15.050000
 50
105.243351
 51
168.904419
  0
ARC
  8
CSLAYER1
  6
CONTINUOUS
 62
     3
 10
2399.489007
 20
1486.023974
 40
9.525000
 50
-99.948135
 51
36.443199
  0
POINT
  8
CSLAYER1
 62
     3
 10
2526.145088
 20
1622.197628
  0
ARC
  8
CSLAYER1
  6
CONTINUOUS
 62
     3
 10
2526.145088
 20
1622.197628
 40
30.250000
 50
-275.222986
 51
9.370756
  0
LINE
  8
CSLAYER1
  6
CONTINUOUS
 62
     3
 10
2505.369986
 20
1581.470786
 11
2487.027560
 21
1598.531206
  0
LINE
  8
CSLAYER1
  6
CONTINUOUS
 62
     3
 10
2466.810863
 20
1576.364309
 11
2484.723401
 21
1559.703730
  0
POINT
  8
CSLAYER1
 62
     3
 10
2485.982953
 20
1579.017508
  0
CIRCLE
  8
CSLAYER1
  6
CONTINUOUS
 62
     3
 10
2485.982953
 20
1579.017508
 40
4.770000
  0
ARC
  8
CSLAYER1
  6
CONTINUOUS
 62
     3
 10
2485.982953
 20
1579.017508
 40
13.000000
 50
-80.557345
 51
174.705115
  0
ARC
  8
CSLAYER1
  6
CONTINUOUS
 62
     3
 10
2490.248523
 20
1553.369800
 40
13.000000
 50
99.442655
 51
174.705115
  0
ARC
  8
CSLAYER1
  6
CONTINUOUS
 62
     3
 10
2460.093896
 20
1581.416832
 40
13.000000
 50
279.442655
 51
354.705115
  0
LINE
  8
CSLAYER1
  6
CONTINUOUS
 62
     3
 10
2465.176020
 20
1579.535740
 11
2483.961133
 21
1599.732460
  0
LINE
  8
CSLAYER1
  6
CONTINUOUS
 62
     3
 10
2489.041846
 20
1595.022208
 11
2470.241419
 21
1574.809022
  0
ARC
  8
CSLAYER1
  6
CONTINUOUS
 62
     3
 10
2483.523823
 20
1594.165474
 40
5.584136
 50
8.825335
 51
85.508402
  0
ARC
  8
CSLAYER1
  6
CONTINUOUS
 62
     3
 10
2474.464717
 20
1566.633735
 40
31.912350
 50
31.327706
 51
62.820064
  0
LINE
  8
CSLAYER1
  6
CONTINUOUS
 62
     5
 10
2475.639892
 20
1588.637662
 11
2496.317473
 21
1569.405297
  0
ARC
  8
CSLAYER1
  6
CONTINUOUS
 62
     3
 10
2470.696795
 20
1580.374559
 40
5.584136
 50
188.639368
 51
265.322435
  0
ARC
  8
CSLAYER1
  6
CONTINUOUS
 62
     3
 10
2497.501188
 20
1591.401281
 40
31.912350
 50
211.327706
 51
242.820064
  0
LINE
  8
CSLAYER1
  6
CONTINUOUS
 62
     3
 10
2488.004772
 20
1558.302556
 11
2506.789885
 21
1578.499276
  0
LINE
  8
CSLAYER1
  6
CONTINUOUS
 62
     3
 10
2501.724486
 20
1583.225994
 11
2482.924059
 21
1563.012808
  0
ARC
  8
CSLAYER1
  6
CONTINUOUS
 62
     3
 10
2501.269110
 20
1577.660457
 40
5.584136
 50
8.639368
 51
85.322435
  0
ARC
  8
CSLAYER1
  6
CONTINUOUS
 62
     3
 10
2488.442082
 20
1563.869542
 40
5.584136
 50
188.825335
 51
265.508402
  0
LINE
  8
CSLAYER1
  6
CONTINUOUS
 62
     3
 10
2530.625024
 20
1652.446100
 11
2534.039856
 21
1656.117539
  0
LINE
  8
CSLAYER1
  6
CONTINUOUS
 62
     3
 10
2536.966344
 20
1646.547993
 11
2542.872407
 21
1652.897867
  0
LINE
  8
CSLAYER1
  6
CONTINUOUS
 62
     3
 10
2556.853967
 20
1628.050375
 11
2529.761362
 21
1653.249398
  0
LINE
  8
CSLAYER1
  6
CONTINUOUS
 62
     3
 10
2555.990304
 20
1628.853673
 11
2558.995152
 21
1632.084320
  0
LINE
  8
CSLAYER1
  6
CONTINUOUS
 62
     3
 10
2549.648984
 20
1634.751780
 11
2555.375101
 21
1640.908186
  0
LINE
  8
CSLAYER1
  6
CONTINUOUS
 62
     3
 10
2496.785343
 20
1603.112287
 11
2500.149254
 21
1606.728979
  0
LINE
  8
CSLAYER1
  6
CONTINUOUS
 62
     3
 10
2490.238557
 20
1598.276008
 11
2499.379128
 21
1608.103448
  0
LINE
  8
CSLAYER1
  6
CONTINUOUS
 62
     3
 10
2554.674592
 20
1625.707231
 11
2527.581987
 21
1650.906254
  0
LINE
  8
CSLAYER1
  6
CONTINUOUS
 62
     3
 10
2554.674592
 20
1625.707231
 11
2556.853967
 21
1628.050375
  0
LINE
  8
CSLAYER1
  6
CONTINUOUS
 62
     3
 10
2527.581987
 20
1650.906254
 11
2529.761362
 21
1653.249398
  0
LINE
  8
CSLAYER1
  6
CONTINUOUS
 62
     3
 10
2495.686994
 20
1604.133869
 11
2510.331645
 21
1590.512775
  0
LINE
  8
CSLAYER1
  6
CONTINUOUS
 62
     3
 10
2496.785343
 20
1603.112287
 11
2493.917562
 21
1602.231473
  0
LINE
  8
CSLAYER1
  6
CONTINUOUS
 62
     3
 10
2509.233296
 20
1591.534357
 11
2512.597207
 21
1595.151049
  0
LINE
  8
CSLAYER1
  6
CONTINUOUS
 62
     3
 10
2509.233296
 20
1591.534357
 11
2508.562213
 21
1588.610379
  0
LINE
  8
CSLAYER1
  6
CONTINUOUS
 62
     3
 10
2504.883208
 20
1584.654915
 11
2514.023779
 21
1594.482355
  0
ARC
  8
CSLAYER1
  6
CONTINUOUS
 62
     3
 10
2506.347673
 20
1583.292805
 40
2.000000
 50
137.073885
 51
227.073885
  0
ARC
  8
CSLAYER1
  6
CONTINUOUS
 62
     3
 10
2488.774092
 20
1599.638118
 40
2.000000
 50
227.073885
 51
317.073885
  0
POINT
  8
CSLAYER1
 62
     3
 10
2496.198773
 20
1590.000996
  0
LINE
  8
CSLAYER1
  6
CONTINUOUS
 62
     3
 10
2532.168652
 20
1643.356942
 11
2533.805964
 21
1645.117289
  0
LINE
  8
CSLAYER1
  6
CONTINUOUS
 62
     3
 10
2533.740815
 20
1642.844779
 11
2534.904313
 21
1644.095707
  0
LINE
  8
CSLAYER1
  6
CONTINUOUS
 62
     3
 10
2546.853981
 20
1629.779582
 11
2548.450615
 21
1631.496196
  0
LINE
  8
CSLAYER1
  6
CONTINUOUS
 62
     3
 10
2546.188769
 20
1631.266849
 11
2547.352266
 21
1632.517778
  0
POINT
  8
CSLAYER1
 62
     3
 10
2421.112494
 20
1509.272357
  0
ARC
  8
CSLAYER1
  6
CONTINUOUS
 62
     3
 10
2421.112494
 20
1509.272357
 40
15.050000
 50
-74.756649
 51
15.108136
  0
ARC
  8
CSLAYER1
  6
CONTINUOUS
 62
     3
 10
2421.112494
 20
1509.272357
 40
13.000000
 50
226.644587
 51
354.705115
  0
POINT
  8
CSLAYER1
 62
     3
 10
2442.735980
 20
1532.520741
  0
POINT
  8
CSLAYER1
 62
     3
 10
2464.359466
 20
1555.769124
  0
ARC
  8
CSLAYER1
  6
CONTINUOUS
 62
     3
 10
2421.112494
 20
1509.272357
 40
4.770000
 50
-154.992540
 51
91.487604
  0
CIRCLE
  8
CSLAYER1
  6
CONTINUOUS
 62
     3
 10
2442.735980
 20
1532.520741
 40
4.770000
  0
ARC
  8
CSLAYER1
  6
CONTINUOUS
 62
     3
 10
2442.735980
 20
1532.520741
 40
13.000000
 50
-80.557345
 51
100.655598
  0
ARC
  8
CSLAYER1
  6
CONTINUOUS
 62
     3
 10
2442.735980
 20
1532.520741
 40
15.050000
 50
259.039634
 51
348.904419
  0
ARC
  8
CSLAYER1
  6
CONTINUOUS
 62
     3
 10
2464.359466
 20
1555.769124
 40
15.050000
 50
-74.756649
 51
15.108136
  0
ARC
  8
CSLAYER1
  6
CONTINUOUS
 62
     3
 10
2447.001550
 20
1506.873033
 40
13.000000
 50
99.442655
 51
174.705115
  0
ARC
  8
CSLAYER1
  6
CONTINUOUS
 62
     3
 10
2472.273336
 20
1526.728107
 40
15.050000
 50
105.243351
 51
168.904419
  0
ARC
  8
CSLAYER1
  6
CONTINUOUS
 62
     3
 10
2434.822110
 20
1561.561758
 40
15.050000
 50
299.897641
 51
348.904419
  0
ARC
  8
CSLAYER1
  6
CONTINUOUS
 62
     3
 10
2421.112494
 20
1509.272357
 40
9.525000
 50
-137.685031
 51
74.180096
  0
ARC
  8
CSLAYER1
  6
CONTINUOUS
 62
     3
 10
2442.735980
 20
1532.520741
 40
9.525000
 50
-188.744365
 51
125.239429
  0
ARC
  8
CSLAYER1
  6
CONTINUOUS
 62
     3
 10
2464.359466
 20
1555.769124
 40
13.000000
 50
99.442655
 51
354.705115
  0
ARC
  8
CSLAYER1
  6
CONTINUOUS
 62
     3
 10
2464.359466
 20
1555.769124
 40
15.050000
 50
79.039634
 51
168.904419
  0
CIRCLE
  8
CSLAYER1
  6
CONTINUOUS
 62
     3
 10
2464.359466
 20
1555.769124
 40
4.770000
  0
CIRCLE
  8
CSLAYER1
  6
CONTINUOUS
 62
     3
 10
2464.359466
 20
1555.769124
 40
9.525000
  0
LINE
  8
CSLAYER1
  6
CONTINUOUS
 62
     5
 10
1735.134035
 20
646.088848
 11
1775.134035
 21
646.088848
  0
LINE
  8
CSLAYER1
  6
CONTINUOUS
 62
     5
 10
1755.134035
 20
666.088848
 11
1755.134035
 21
626.088848
  0
LINE
  8
CSLAYER1
  6
CONTINUOUS
 62
     4
 10
2136.186058
 20
1245.428487
 11
1764.029338
 21
763.548945
  0
LINE
  8
CSLAYER1
  6
CONTINUOUS
 62
     5
 10
2730.601993
 20
646.088897
 11
2770.601993
 21
646.088897
  0
LINE
  8
CSLAYER1
  6
CONTINUOUS
 62
     5
 10
2750.601993
 20
666.088897
 11
2750.601993
 21
626.088897
  0
LINE
  8
CSLAYER1
  6
CONTINUOUS
 62
     3
 10
1713.134087
 20
2437.861224
 11
1713.134087
 21
3037.861224
  0
LINE
  8
CSLAYER1
  6
CONTINUOUS
 62
     3
 10
3213.134087
 20
2437.861224
 11
3213.134087
 21
3037.861224
  0
LINE
  8
CSLAYER1
  6
CONTINUOUS
 62
     4
 10
940.197686
 20
851.373033
 11
983.197686
 21
851.373033
  0
LINE
  8
CSLAYER1
  6
CONTINUOUS
 62
     4
 10
940.197686
 20
838.053392
 11
983.197686
 21
838.053392
  0
LINE
  8
CSLAYER1
  6
CONTINUOUS
 62
     4
 10
940.197686
 20
791.700065
 11
983.197686
 21
791.700065
  0
LINE
  8
CSLAYER1
  6
CONTINUOUS
 62
     4
 10
852.197686
 20
851.373033
 11
924.197686
 21
851.373033
  0
LINE
  8
CSLAYER1
  6
CONTINUOUS
 62
     4
 10
852.197686
 20
838.053392
 11
924.197686
 21
838.053392
  0
LINE
  8
CSLAYER1
  6
CONTINUOUS
 62
     4
 10
825.154186
 20
791.700065
 11
924.197686
 21
791.700065
  0
POINT
  8
CSLAYER1
 62
     5
 10
2253.506571
 20
1153.004883
  0
POINT
  8
CSLAYER1
 62
     1
 10
2253.506571
 20
1153.004883
  0
CIRCLE
  8
CSLAYER1
  6
CONTINUOUS
 62
     4
 10
2253.506571
 20
1153.004883
 40
15.000000
  0
CIRCLE
  8
CSLAYER1
  6
CONTINUOUS
 62
     4
 10
2253.506571
 20
1153.004883
 40
10.000000
  0
CIRCLE
  8
CSLAYER1
  6
CONTINUOUS
 62
     4
 10
2253.506571
 20
1153.004883
 40
9.000000
  0
LINE
  8
CSLAYER1
  6
CONTINUOUS
 62
     4
 10
2268.506571
 20
1161.665137
 11
2253.506571
 21
1170.325391
  0
LINE
  8
CSLAYER1
  6
CONTINUOUS
 62
     4
 10
2253.506571
 20
1170.325391
 11
2238.506571
 21
1161.665137
  0
LINE
  8
CSLAYER1
  6
CONTINUOUS
 62
     4
 10
2238.506571
 20
1161.665137
 11
2238.506571
 21
1144.344629
  0
LINE
  8
CSLAYER1
  6
CONTINUOUS
 62
     4
 10
2238.506571
 20
1144.344629
 11
2253.506571
 21
1135.684375
  0
LINE
  8
CSLAYER1
  6
CONTINUOUS
 62
     4
 10
2253.506571
 20
1135.684375
 11
2268.506571
 21
1144.344629
  0
LINE
  8
CSLAYER1
  6
CONTINUOUS
 62
     4
 10
2268.506571
 20
1144.344629
 11
2268.506571
 21
1161.665137
  0
LINE
  8
CSLAYER1
  6
PHANTOM
 62
     5
 10
3213.134035
 20
796.088848
 11
1713.134035
 21
796.088848
  0
LINE
  8
CSLAYER1
  6
PHANTOM
 62
     5
 10
1713.134035
 20
849.088848
 11
1713.134035
 21
796.088848
  0
LINE
  8
CSLAYER1
  6
PHANTOM
 62
     5
 10
1713.134035
 20
849.088848
 11
3213.134035
 21
849.088848
  0
LINE
  8
CSLAYER1
  6
PHANTOM
 62
     5
 10
3213.134035
 20
849.088848
 11
3213.134035
 21
796.088848
  0
LINE
  8
CSLAYER1
  6
PHANTOM
 62
     5
 10
1716.334035
 20
740.636814
 11
1716.334035
 21
796.088848
  0
LINE
  8
CSLAYER1
  6
PHANTOM
 62
     5
 10
3209.934035
 20
718.877704
 11
3209.934035
 21
796.088848
  0
DIMENSION
  8
CSLAYER1
 62
     3
  2
*D0000
 10
3358.609013
 20
849.088848
 11
3343.608887
 21
734.088867
 13
3213.134035
 23
619.088848
 14
3213.134035
 24
849.088848
 50
90.000000
 70
1
  0
DIMENSION
  8
CSLAYER1
 62
     3
  2
*D0001
 10
3358.609013
 20
849.088848
 11
3343.608887
 21
1353.509888
 13
3358.609013
 23
1857.930814
 14
3358.609013
 24
849.088848
 50
90.000000
 70
1
  0
DIMENSION
  8
CSLAYER1
 62
     3
  2
*D0002
 10
3501.179148
 20
1857.930814
 11
3486.178955
 21
1238.509888
 13
3213.134087
 23
619.088848
 14
3213.134087
 24
1857.930814
 50
90.000000
 70
1
  0
DIMENSION
  8
CSLAYER1
 62
     3
  2
*D0003
 10
3213.134087
 20
2000.050515
 11
2463.133789
 21
2015.050293
 13
1713.134087
 23
1857.930814
 14
3213.134087
 24
1857.930814
 70
1
  0
DIMENSION
  8
CSLAYER1
 62
     3
  2
*D0004
 10
3213.134035
 20
488.643764
 11
2463.133789
 21
503.643555
 13
1713.134035
 23
619.088848
 14
3213.134035
 24
619.088848
 52
270.000000
 70
1
  0
LINE
  8
CSLAYER1
  6
CONTINUOUS
 62
     3
 10
1713.134087
 20
3037.861224
 11
3213.134087
 21
3037.861224
  0
LINE
  8
CSLAYER1
  6
CONTINUOUS
 62
     3
 10
1713.134087
 20
2437.861224
 11
3213.134087
 21
2437.861224
  0
LINE
  8
CSLAYER1
  6
CONTINUOUS
 62
     7
 10
833.197686
 20
1085.258477
 11
919.080486
 21
1060.884089
  0
LINE
  8
CSLAYER1
  6
CONTINUOUS
 62
     7
 10
833.197686
 20
1054.124234
 11
919.080486
 21
1029.749846
  0
LINE
  8
CSLAYER1
  6
CONTINUOUS
 62
     7
 10
833.197686
 20
975.646349
 11
919.080486
 21
1000.020737
  0
LINE
  8
CSLAYER1
  6
CONTINUOUS
 62
     4
 10
467.197686
 20
683.370632
 11
467.197686
 21
619.088848
  0
LINE
  8
CSLAYER1
  6
CONTINUOUS
 62
     4
 10
1067.197686
 20
684.088848
 11
467.197686
 21
684.088848
  0
LINE
  8
CSLAYER1
  6
CONTINUOUS
 62
     4
 10
535.197686
 20
684.088848
 11
535.197686
 21
1639.730814
  0
LINE
  8
CSLAYER1
  6
CONTINUOUS
 62
     4
 10
551.197686
 20
684.088848
 11
551.197686
 21
1639.730814
  0
LINE
  8
CSLAYER1
  6
CONTINUOUS
 62
     4
 10
594.197686
 20
684.088848
 11
594.197686
 21
1754.730814
  0
LINE
  8
CSLAYER1
  6
CONTINUOUS
 62
     4
 10
610.197686
 20
684.088848
 11
610.197686
 21
1754.730814
  0
LINE
  8
CSLAYER1
  6
CONTINUOUS
 62
     3
 10
515.497686
 20
1658.730814
 11
515.497686
 21
1668.230814
  0
LINE
  8
CSLAYER1
  6
CONTINUOUS
 62
     4
 10
518.697686
 20
1797.930814
 11
518.697686
 21
1639.730814
  0
LINE
  8
CSLAYER1
  6
CONTINUOUS
 62
     4
 10
559.697686
 20
1754.730814
 11
559.697686
 21
1639.730814
  0
LINE
  8
CSLAYER1
  6
CONTINUOUS
 62
     5
 10
512.489834
 20
1658.730814
 11
563.756101
 21
1658.730814
  0
LINE
  8
CSLAYER1
  6
CONTINUOUS
 62
     4
 10
559.697686
 20
1639.730814
 11
518.697686
 21
1639.730814
  0
LINE
  8
CSLAYER1
  6
CONTINUOUS
 62
     4
 10
467.197686
 20
1854.930814
 11
467.197686
 21
1797.930814
  0
LINE
  8
CSLAYER1
  6
CONTINUOUS
 62
     4
 10
515.497686
 20
1681.730814
 11
515.497686
 21
1650.730814
  0
LINE
  8
CSLAYER1
  6
CONTINUOUS
 62
     4
 10
515.497686
 20
1654.730814
 11
518.697686
 21
1654.730814
  0
LINE
  8
CSLAYER1
  6
CONTINUOUS
 62
     5
 10
511.006812
 20
1673.730814
 11
524.697686
 21
1673.730814
  0
LINE
  8
CSLAYER1
  6
CONTINUOUS
 62
     4
 10
515.497686
 20
1681.730814
 11
518.697686
 21
1681.730814
  0
LINE
  8
CSLAYER1
  6
CONTINUOUS
 62
     4
 10
560.697686
 20
1651.730814
 11
560.697686
 21
1665.730814
  0
LINE
  8
CSLAYER1
  6
CONTINUOUS
 62
     4
 10
560.697686
 20
1651.730814
 11
559.697686
 21
1650.730814
  0
LINE
  8
CSLAYER1
  6
CONTINUOUS
 62
     4
 10
515.497686
 20
1650.730814
 11
518.697686
 21
1650.730814
  0
LINE
  8
CSLAYER1
  6
CONTINUOUS
 62
     4
 10
560.697686
 20
1665.730814
 11
559.697686
 21
1666.730814
  0
ARC
  8
CSLAYER1
  6
CONTINUOUS
 62
     4
 10
470.197686
 20
1854.930814
 40
3.000000
 50
90.000000
 51
180.000000
  0
LINE
  8
CSLAYER1
  6
CONTINUOUS
 62
     4
 10
515.497686
 20
1662.730814
 11
518.697686
 21
1662.730814
  0
LINE
  8
CSLAYER1
  6
CENTER
 62
     5
 10
642.197686
 20
1707.662713
 11
642.197686
 21
1014.885291
  0
LINE
  8
CSLAYER1
  6
CONTINUOUS
 62
     5
 10
642.197686
 20
1030.452413
 11
568.434316
 21
1030.452413
  0
LINE
  8
CSLAYER1
  6
CONTINUOUS
 62
     4
 10
592.197686
 20
1046.452413
 11
592.197686
 21
1014.452413
  0
LINE
  8
CSLAYER1
  6
CONTINUOUS
 62
     4
 10
582.197686
 20
1044.452413
 11
582.197686
 21
1016.452413
  0
LINE
  8
CSLAYER1
  6
CONTINUOUS
 62
     4
 10
584.197686
 20
1046.452413
 11
592.197686
 21
1046.452413
  0
LINE
  8
CSLAYER1
  6
CONTINUOUS
 62
     4
 10
582.197686
 20
1044.452413
 11
584.197686
 21
1046.452413
  0
LINE
  8
CSLAYER1
  6
CONTINUOUS
 62
     4
 10
584.197686
 20
1046.452413
 11
584.197686
 21
1014.452413
  0
LINE
  8
CSLAYER1
  6
CONTINUOUS
 62
     4
 10
584.197686
 20
1014.452413
 11
592.197686
 21
1014.452413
  0
LINE
  8
CSLAYER1
  6
CONTINUOUS
 62
     4
 10
582.197686
 20
1016.452413
 11
584.197686
 21
1014.452413
  0
LINE
  8
CSLAYER1
  6
CONTINUOUS
 62
     4
 10
592.197686
 20
1044.452413
 11
594.197686
 21
1044.452413
  0
LINE
  8
CSLAYER1
  6
CONTINUOUS
 62
     4
 10
592.197686
 20
1016.452413
 11
594.197686
 21
1016.452413
  0
LINE
  8
CSLAYER1
  6
CONTINUOUS
 62
     4
 10
594.197686
 20
1049.888726
 11
551.197686
 21
1049.888726
  0
LINE
  8
CSLAYER1
  6
CONTINUOUS
 62
     4
 10
690.875403
 20
978.575916
 11
610.197686
 21
978.575916
  0
LINE
  8
CSLAYER1
  6
CONTINUOUS
 62
     4
 10
594.197686
 20
978.575916
 11
551.197686
 21
978.575916
  0
LINE
  8
CSLAYER1
  6
CONTINUOUS
 62
     4
 10
519.197686
 20
1096.272314
 11
519.197686
 21
684.088848
  0
LINE
  8
CSLAYER1
  6
CONTINUOUS
 62
     4
 10
535.197686
 20
1096.272314
 11
519.197686
 21
1096.272314
  0
LINE
  8
CSLAYER1
  6
CONTINUOUS
 62
     4
 10
722.647686
 20
1107.976255
 11
610.197686
 21
1107.976255
  0
LINE
  8
CSLAYER1
  6
CONTINUOUS
 62
     4
 10
722.647686
 20
1085.545132
 11
610.197686
 21
1085.545132
  0
LINE
  8
CSLAYER1
  6
CONTINUOUS
 62
     4
 10
594.197686
 20
1085.545132
 11
551.197686
 21
1085.545132
  0
LINE
  8
CSLAYER1
  6
CONTINUOUS
 62
     4
 10
527.197686
 20
1797.930814
 11
527.197686
 21
1754.730814
  0
LINE
  8
CSLAYER1
  6
CONTINUOUS
 62
     7
 10
611.197686
 20
1055.962640
 11
611.197686
 21
1004.942187
  0
LINE
  8
CSLAYER1
  6
CONTINUOUS
 62
     5
 10
642.197686
 20
1030.452413
 11
642.197686
 21
995.198554
  0
LINE
  8
CSLAYER1
  6
CONTINUOUS
 62
     5
 10
659.031410
 20
1014.885291
 11
628.387670
 21
1014.885291
  0
ARC
  8
CSLAYER1
  6
CONTINUOUS
 62
     7
 10
616.197686
 20
1055.962640
 40
5.000000
 50
100.169452
 51
180.000000
  0
ARC
  8
CSLAYER1
  6
CONTINUOUS
 62
     7
 10
616.197686
 20
1024.828396
 40
5.000000
 50
100.169452
 51
180.000000
  0
ARC
  8
CSLAYER1
  6
CONTINUOUS
 62
     7
 10
616.197686
 20
1004.942187
 40
5.000000
 50
180.000000
 51
259.830548
  0
POINT
  8
CSLAYER1
 62
     5
 10
610.197686
 20
1030.452413
  0
LINE
  8
CSLAYER1
  6
CONTINUOUS
 62
     7
 10
722.647686
 20
1393.944703
 11
722.647686
 21
1085.258477
  0
LINE
  8
CSLAYER1
  6
CONTINUOUS
 62
     4
 10
650.197686
 20
1138.409852
 11
653.224227
 21
1138.409852
  0
LINE
  8
CSLAYER1
  6
CONTINUOUS
 62
     4
 10
656.197686
 20
1139.409852
 11
656.197686
 21
1165.409852
  0
LINE
  8
CSLAYER1
  6
CONTINUOUS
 62
     4
 10
656.197686
 20
1139.409852
 11
655.197686
 21
1138.409852
  0
LINE
  8
CSLAYER1
  6
CONTINUOUS
 62
     4
 10
655.197686
 20
1138.409852
 11
655.197686
 21
1166.409852
  0
LINE
  8
CSLAYER1
  6
CONTINUOUS
 62
     4
 10
633.197686
 20
1171.409852
 11
633.197686
 21
1133.409852
  0
LINE
  8
CSLAYER1
  6
CONTINUOUS
 62
     4
 10
655.197686
 20
1138.409852
 11
650.131428
 21
1133.425171
  0
LINE
  8
CSLAYER1
  6
CONTINUOUS
 62
     4
 10
650.197686
 20
1133.490363
 11
655.117176
 21
1138.409852
  0
LINE
  8
CSLAYER1
  6
CONTINUOUS
 62
     4
 10
650.197686
 20
1133.773205
 11
654.834333
 21
1138.409852
  0
LINE
  8
CSLAYER1
  6
CONTINUOUS
 62
     4
 10
650.197686
 20
1134.056048
 11
654.551491
 21
1138.409852
  0
LINE
  8
CSLAYER1
  6
CONTINUOUS
 62
     4
 10
650.197686
 20
1134.338891
 11
654.268648
 21
1138.409852
  0
LINE
  8
CSLAYER1
  6
CONTINUOUS
 62
     4
 10
650.197686
 20
1134.621734
 11
653.985805
 21
1138.409852
  0
LINE
  8
CSLAYER1
  6
CONTINUOUS
 62
     4
 10
650.197686
 20
1134.904576
 11
653.702963
 21
1138.409852
  0
LINE
  8
CSLAYER1
  6
CONTINUOUS
 62
     4
 10
650.197686
 20
1135.187419
 11
653.420120
 21
1138.409852
  0
LINE
  8
CSLAYER1
  6
CONTINUOUS
 62
     4
 10
650.197686
 20
1135.470262
 11
653.137277
 21
1138.409852
  0
LINE
  8
CSLAYER1
  6
CONTINUOUS
 62
     4
 10
650.197686
 20
1135.753104
 11
652.854435
 21
1138.409852
  0
LINE
  8
CSLAYER1
  6
CONTINUOUS
 62
     4
 10
650.197686
 20
1136.035947
 11
652.571592
 21
1138.409852
  0
LINE
  8
CSLAYER1
  6
CONTINUOUS
 62
     4
 10
650.197686
 20
1136.318790
 11
652.288749
 21
1138.409852
  0
LINE
  8
CSLAYER1
  6
CONTINUOUS
 62
     4
 10
650.197686
 20
1136.601633
 11
652.005906
 21
1138.409852
  0
LINE
  8
CSLAYER1
  6
CONTINUOUS
 62
     4
 10
650.197686
 20
1136.884475
 11
651.723064
 21
1138.409852
  0
LINE
  8
CSLAYER1
  6
CONTINUOUS
 62
     4
 10
650.197686
 20
1137.167318
 11
651.440221
 21
1138.409852
  0
LINE
  8
CSLAYER1
  6
CONTINUOUS
 62
     4
 10
650.197686
 20
1137.450161
 11
651.157378
 21
1138.409852
  0
LINE
  8
CSLAYER1
  6
CONTINUOUS
 62
     4
 10
650.197686
 20
1137.733003
 11
650.874536
 21
1138.409852
  0
LINE
  8
CSLAYER1
  6
CONTINUOUS
 62
     4
 10
650.197686
 20
1138.015846
 11
650.591693
 21
1138.409852
  0
LINE
  8
CSLAYER1
  6
CONTINUOUS
 62
     4
 10
650.197686
 20
1138.298689
 11
650.308850
 21
1138.409852
  0
LINE
  8
CSLAYER1
  6
CONTINUOUS
 62
     4
 10
650.197686
 20
1166.409852
 11
653.224227
 21
1166.409852
  0
LINE
  8
CSLAYER1
  6
CONTINUOUS
 62
     4
 10
656.197686
 20
1165.409852
 11
655.197686
 21
1166.409852
  0
LINE
  8
CSLAYER1
  6
CONTINUOUS
 62
     4
 10
633.197686
 20
1171.409852
 11
632.197686
 21
1172.409852
  0
LINE
  8
CSLAYER1
  6
CONTINUOUS
 62
     4
 10
655.197686
 20
1166.409852
 11
650.131428
 21
1171.394534
  0
LINE
  8
CSLAYER1
  6
CONTINUOUS
 62
     4
 10
650.197686
 20
1171.329342
 11
655.117176
 21
1166.409852
  0
LINE
  8
CSLAYER1
  6
CONTINUOUS
 62
     4
 10
650.197686
 20
1171.046499
 11
654.834333
 21
1166.409852
  0
LINE
  8
CSLAYER1
  6
CONTINUOUS
 62
     4
 10
650.197686
 20
1170.763657
 11
654.551491
 21
1166.409852
  0
LINE
  8
CSLAYER1
  6
CONTINUOUS
 62
     4
 10
650.197686
 20
1170.480814
 11
654.268648
 21
1166.409852
  0
LINE
  8
CSLAYER1
  6
CONTINUOUS
 62
     4
 10
650.197686
 20
1170.197971
 11
653.985805
 21
1166.409852
  0
LINE
  8
CSLAYER1
  6
CONTINUOUS
 62
     4
 10
650.197686
 20
1169.915129
 11
653.702963
 21
1166.409852
  0
LINE
  8
CSLAYER1
  6
CONTINUOUS
 62
     4
 10
650.197686
 20
1169.632286
 11
653.420120
 21
1166.409852
  0
LINE
  8
CSLAYER1
  6
CONTINUOUS
 62
     4
 10
650.197686
 20
1169.349443
 11
653.137277
 21
1166.409852
  0
LINE
  8
CSLAYER1
  6
CONTINUOUS
 62
     4
 10
650.197686
 20
1169.066600
 11
652.854435
 21
1166.409852
  0
LINE
  8
CSLAYER1
  6
CONTINUOUS
 62
     4
 10
650.197686
 20
1168.783758
 11
652.571592
 21
1166.409852
  0
LINE
  8
CSLAYER1
  6
CONTINUOUS
 62
     4
 10
650.197686
 20
1168.500915
 11
652.288749
 21
1166.409852
  0
LINE
  8
CSLAYER1
  6
CONTINUOUS
 62
     4
 10
650.197686
 20
1168.218072
 11
652.005906
 21
1166.409852
  0
LINE
  8
CSLAYER1
  6
CONTINUOUS
 62
     4
 10
650.197686
 20
1167.935230
 11
651.723064
 21
1166.409852
  0
LINE
  8
CSLAYER1
  6
CONTINUOUS
 62
     4
 10
650.197686
 20
1167.652387
 11
651.440221
 21
1166.409852
  0
LINE
  8
CSLAYER1
  6
CONTINUOUS
 62
     4
 10
650.197686
 20
1167.369544
 11
651.157378
 21
1166.409852
  0
LINE
  8
CSLAYER1
  6
CONTINUOUS
 62
     4
 10
650.197686
 20
1167.086701
 11
650.874536
 21
1166.409852
  0
LINE
  8
CSLAYER1
  6
CONTINUOUS
 62
     4
 10
650.197686
 20
1166.803859
 11
650.591693
 21
1166.409852
  0
LINE
  8
CSLAYER1
  6
CONTINUOUS
 62
     4
 10
650.197686
 20
1166.521016
 11
650.308850
 21
1166.409852
  0
LINE
  8
CSLAYER1
  6
CONTINUOUS
 62
     4
 10
553.224227
 20
1131.059852
 11
594.197686
 21
1131.059852
  0
LINE
  8
CSLAYER1
  6
CONTINUOUS
 62
     4
 10
552.224227
 20
1172.759852
 11
552.224227
 21
1132.059852
  0
LINE
  8
CSLAYER1
  6
CONTINUOUS
 62
     4
 10
552.224227
 20
1132.059852
 11
553.224227
 21
1131.059852
  0
LINE
  8
CSLAYER1
  6
CONTINUOUS
 62
     4
 10
512.224227
 20
1162.409852
 11
512.224227
 21
1142.409852
  0
LINE
  8
CSLAYER1
  6
CONTINUOUS
 62
     4
 10
531.224227
 20
1170.909852
 11
531.224227
 21
1133.909852
  0
LINE
  8
CSLAYER1
  6
CONTINUOUS
 62
     4
 10
526.124227
 20
1169.409852
 11
526.124227
 21
1135.409852
  0
LINE
  8
CSLAYER1
  6
CONTINUOUS
 62
     4
 10
514.124227
 20
1169.409852
 11
514.124227
 21
1135.409852
  0
LINE
  8
CSLAYER1
  6
CONTINUOUS
 62
     4
 10
531.224227
 20
1169.409852
 11
514.124227
 21
1169.409852
  0
LINE
  8
CSLAYER1
  6
CONTINUOUS
 62
     4
 10
526.124227
 20
1162.409852
 11
512.224227
 21
1162.409852
  0
LINE
  8
CSLAYER1
  6
CONTINUOUS
 62
     4
 10
531.224227
 20
1135.409852
 11
514.124227
 21
1135.409852
  0
LINE
  8
CSLAYER1
  6
CONTINUOUS
 62
     4
 10
526.124227
 20
1142.409852
 11
512.224227
 21
1142.409852
  0
LINE
  8
CSLAYER1
  6
CONTINUOUS
 62
     4
 10
534.224227
 20
1170.909852
 11
531.224227
 21
1170.909852
  0
LINE
  8
CSLAYER1
  6
CONTINUOUS
 62
     4
 10
534.224227
 20
1133.909852
 11
531.224227
 21
1133.909852
  0
LINE
  8
CSLAYER1
  6
CONTINUOUS
 62
     4
 10
534.224227
 20
1133.909852
 11
534.224227
 21
1170.909852
  0
LINE
  8
CSLAYER1
  6
CENTER
 62
     5
 10
490.249693
 20
1152.409852
 11
674.329945
 21
1152.409852
  0
LINE
  8
CSLAYER1
  6
CONTINUOUS
 62
     4
 10
534.224227
 20
1139.909852
 11
535.197686
 21
1139.909852
  0
LINE
  8
CSLAYER1
  6
CONTINUOUS
 62
     4
 10
553.224227
 20
1173.759852
 11
594.197686
 21
1173.759852
  0
LINE
  8
CSLAYER1
  6
CONTINUOUS
 62
     4
 10
552.224227
 20
1172.759852
 11
553.224227
 21
1173.759852
  0
LINE
  8
CSLAYER1
  6
CONTINUOUS
 62
     4
 10
534.224227
 20
1164.909852
 11
535.197686
 21
1164.909852
  0
LINE
  8
CSLAYER1
  6
CONTINUOUS
 62
     4
 10
535.224227
 20
1126.302928
 11
535.224227
 21
1139.909852
  0
LINE
  8
CSLAYER1
  6
CONTINUOUS
 62
     4
 10
589.197686
 20
1131.059852
 11
594.197686
 21
1126.059852
  0
LINE
  8
CSLAYER1
  6
CONTINUOUS
 62
     4
 10
594.197686
 20
1126.342695
 11
589.480529
 21
1131.059852
  0
LINE
  8
CSLAYER1
  6
CONTINUOUS
 62
     4
 10
594.197686
 20
1126.625538
 11
589.763372
 21
1131.059852
  0
LINE
  8
CSLAYER1
  6
CONTINUOUS
 62
     4
 10
594.197686
 20
1126.908381
 11
590.046215
 21
1131.059852
  0
LINE
  8
CSLAYER1
  6
CONTINUOUS
 62
     4
 10
594.197686
 20
1127.191223
 11
590.329057
 21
1131.059852
  0
LINE
  8
CSLAYER1
  6
CONTINUOUS
 62
     4
 10
594.197686
 20
1127.474066
 11
590.611900
 21
1131.059852
  0
LINE
  8
CSLAYER1
  6
CONTINUOUS
 62
     4
 10
594.197686
 20
1127.756909
 11
590.894743
 21
1131.059852
  0
LINE
  8
CSLAYER1
  6
CONTINUOUS
 62
     4
 10
594.197686
 20
1128.039751
 11
591.177585
 21
1131.059852
  0
LINE
  8
CSLAYER1
  6
CONTINUOUS
 62
     4
 10
594.197686
 20
1128.322594
 11
591.460428
 21
1131.059852
  0
LINE
  8
CSLAYER1
  6
CONTINUOUS
 62
     4
 10
594.197686
 20
1128.605437
 11
591.743271
 21
1131.059852
  0
LINE
  8
CSLAYER1
  6
CONTINUOUS
 62
     4
 10
594.197686
 20
1128.888280
 11
592.026114
 21
1131.059852
  0
LINE
  8
CSLAYER1
  6
CONTINUOUS
 62
     4
 10
594.197686
 20
1129.171122
 11
592.308956
 21
1131.059852
  0
LINE
  8
CSLAYER1
  6
CONTINUOUS
 62
     4
 10
594.197686
 20
1129.453965
 11
592.591799
 21
1131.059852
  0
LINE
  8
CSLAYER1
  6
CONTINUOUS
 62
     4
 10
594.197686
 20
1129.736808
 11
592.874642
 21
1131.059852
  0
LINE
  8
CSLAYER1
  6
CONTINUOUS
 62
     4
 10
594.197686
 20
1130.019650
 11
593.157484
 21
1131.059852
  0
LINE
  8
CSLAYER1
  6
CONTINUOUS
 62
     4
 10
594.197686
 20
1130.302493
 11
593.440327
 21
1131.059852
  0
LINE
  8
CSLAYER1
  6
CONTINUOUS
 62
     4
 10
594.197686
 20
1130.585336
 11
593.723170
 21
1131.059852
  0
LINE
  8
CSLAYER1
  6
CONTINUOUS
 62
     4
 10
594.197686
 20
1130.868179
 11
594.006013
 21
1131.059852
  0
LINE
  8
CSLAYER1
  6
CONTINUOUS
 62
     4
 10
610.197686
 20
1177.127010
 11
614.914844
 21
1172.409852
  0
LINE
  8
CSLAYER1
  6
CONTINUOUS
 62
     4
 10
610.197686
 20
1176.844167
 11
614.632001
 21
1172.409852
  0
LINE
  8
CSLAYER1
  6
CONTINUOUS
 62
     4
 10
610.197686
 20
1176.561324
 11
614.349158
 21
1172.409852
  0
LINE
  8
CSLAYER1
  6
CONTINUOUS
 62
     4
 10
610.197686
 20
1176.278482
 11
614.066316
 21
1172.409852
  0
LINE
  8
CSLAYER1
  6
CONTINUOUS
 62
     4
 10
610.197686
 20
1175.995639
 11
613.783473
 21
1172.409852
  0
LINE
  8
CSLAYER1
  6
CONTINUOUS
 62
     4
 10
610.197686
 20
1175.712796
 11
613.500630
 21
1172.409852
  0
LINE
  8
CSLAYER1
  6
CONTINUOUS
 62
     4
 10
610.197686
 20
1175.429953
 11
613.217787
 21
1172.409852
  0
LINE
  8
CSLAYER1
  6
CONTINUOUS
 62
     4
 10
610.197686
 20
1175.147111
 11
612.934945
 21
1172.409852
  0
LINE
  8
CSLAYER1
  6
CONTINUOUS
 62
     4
 10
610.197686
 20
1174.864268
 11
612.652102
 21
1172.409852
  0
LINE
  8
CSLAYER1
  6
CONTINUOUS
 62
     4
 10
610.197686
 20
1174.581425
 11
612.369259
 21
1172.409852
  0
LINE
  8
CSLAYER1
  6
CONTINUOUS
 62
     4
 10
610.197686
 20
1174.298583
 11
612.086417
 21
1172.409852
  0
LINE
  8
CSLAYER1
  6
CONTINUOUS
 62
     4
 10
610.197686
 20
1174.015740
 11
611.803574
 21
1172.409852
  0
LINE
  8
CSLAYER1
  6
CONTINUOUS
 62
     4
 10
610.197686
 20
1173.732897
 11
611.520731
 21
1172.409852
  0
LINE
  8
CSLAYER1
  6
CONTINUOUS
 62
     4
 10
610.197686
 20
1173.450054
 11
611.237888
 21
1172.409852
  0
LINE
  8
CSLAYER1
  6
CONTINUOUS
 62
     4
 10
610.197686
 20
1173.167212
 11
610.955046
 21
1172.409852
  0
LINE
  8
CSLAYER1
  6
CONTINUOUS
 62
     4
 10
610.197686
 20
1172.884369
 11
610.672203
 21
1172.409852
  0
LINE
  8
CSLAYER1
  6
CONTINUOUS
 62
     4
 10
610.197686
 20
1172.601526
 11
610.389360
 21
1172.409852
  0
LINE
  8
CSLAYER1
  6
CONTINUOUS
 62
     4
 10
589.197686
 20
1173.759852
 11
594.197686
 21
1178.759852
  0
LINE
  8
CSLAYER1
  6
CONTINUOUS
 62
     4
 10
594.197686
 20
1178.477010
 11
589.480529
 21
1173.759852
  0
LINE
  8
CSLAYER1
  6
CONTINUOUS
 62
     4
 10
594.197686
 20
1178.194167
 11
589.763372
 21
1173.759852
  0
LINE
  8
CSLAYER1
  6
CONTINUOUS
 62
     4
 10
594.197686
 20
1177.911324
 11
590.046215
 21
1173.759852
  0
LINE
  8
CSLAYER1
  6
CONTINUOUS
 62
     4
 10
594.197686
 20
1177.628482
 11
590.329057
 21
1173.759852
  0
LINE
  8
CSLAYER1
  6
CONTINUOUS
 62
     4
 10
594.197686
 20
1177.345639
 11
590.611900
 21
1173.759852
  0
LINE
  8
CSLAYER1
  6
CONTINUOUS
 62
     4
 10
594.197686
 20
1177.062796
 11
590.894743
 21
1173.759852
  0
LINE
  8
CSLAYER1
  6
CONTINUOUS
 62
     4
 10
594.197686
 20
1176.779953
 11
591.177585
 21
1173.759852
  0
LINE
  8
CSLAYER1
  6
CONTINUOUS
 62
     4
 10
594.197686
 20
1176.497111
 11
591.460428
 21
1173.759852
  0
LINE
  8
CSLAYER1
  6
CONTINUOUS
 62
     4
 10
594.197686
 20
1176.214268
 11
591.743271
 21
1173.759852
  0
LINE
  8
CSLAYER1
  6
CONTINUOUS
 62
     4
 10
594.197686
 20
1175.931425
 11
592.026114
 21
1173.759852
  0
LINE
  8
CSLAYER1
  6
CONTINUOUS
 62
     4
 10
594.197686
 20
1175.648583
 11
592.308956
 21
1173.759852
  0
LINE
  8
CSLAYER1
  6
CONTINUOUS
 62
     4
 10
594.197686
 20
1175.365740
 11
592.591799
 21
1173.759852
  0
LINE
  8
CSLAYER1
  6
CONTINUOUS
 62
     4
 10
594.197686
 20
1175.082897
 11
592.874642
 21
1173.759852
  0
LINE
  8
CSLAYER1
  6
CONTINUOUS
 62
     4
 10
594.197686
 20
1174.800054
 11
593.157484
 21
1173.759852
  0
LINE
  8
CSLAYER1
  6
CONTINUOUS
 62
     4
 10
594.197686
 20
1174.517212
 11
593.440327
 21
1173.759852
  0
LINE
  8
CSLAYER1
  6
CONTINUOUS
 62
     4
 10
594.197686
 20
1174.234369
 11
593.723170
 21
1173.759852
  0
LINE
  8
CSLAYER1
  6
CONTINUOUS
 62
     4
 10
594.197686
 20
1173.951526
 11
594.006013
 21
1173.759852
  0
LINE
  8
CSLAYER1
  6
CONTINUOUS
 62
     4
 10
611.237888
 20
1172.409852
 11
610.197686
 21
1172.409852
  0
LINE
  8
CSLAYER1
  6
CONTINUOUS
 62
     4
 10
650.197686
 20
1128.409852
 11
634.197686
 21
1128.409852
  0
LINE
  8
CSLAYER1
  6
CONTINUOUS
 62
     4
 10
612.389360
 20
1172.409852
 11
632.197686
 21
1172.409852
  0
LINE
  8
CSLAYER1
  6
CONTINUOUS
 62
     4
 10
633.197686
 20
1167.409852
 11
634.197686
 21
1167.409852
  0
LINE
  8
CSLAYER1
  6
CONTINUOUS
 62
     4
 10
633.197686
 20
1137.409852
 11
634.197686
 21
1137.409852
  0
LINE
  8
CSLAYER1
  6
CONTINUOUS
 62
     4
 10
551.197686
 20
1167.409852
 11
552.224227
 21
1167.409852
  0
LINE
  8
CSLAYER1
  6
CONTINUOUS
 62
     4
 10
551.197686
 20
1137.409852
 11
552.224227
 21
1137.409852
  0
LINE
  8
CSLAYER1
  6
CONTINUOUS
 62
     4
 10
633.197686
 20
1133.409852
 11
632.197686
 21
1132.409852
  0
LINE
  8
CSLAYER1
  6
CONTINUOUS
 62
     4
 10
610.197686
 20
1127.692695
 11
614.914844
 21
1132.409852
  0
LINE
  8
CSLAYER1
  6
CONTINUOUS
 62
     4
 10
610.197686
 20
1127.975538
 11
614.632001
 21
1132.409852
  0
LINE
  8
CSLAYER1
  6
CONTINUOUS
 62
     4
 10
610.197686
 20
1128.258381
 11
614.349158
 21
1132.409852
  0
LINE
  8
CSLAYER1
  6
CONTINUOUS
 62
     4
 10
610.197686
 20
1128.541223
 11
614.066316
 21
1132.409852
  0
LINE
  8
CSLAYER1
  6
CONTINUOUS
 62
     4
 10
610.197686
 20
1128.824066
 11
613.783473
 21
1132.409852
  0
LINE
  8
CSLAYER1
  6
CONTINUOUS
 62
     4
 10
610.197686
 20
1129.106909
 11
613.500630
 21
1132.409852
  0
LINE
  8
CSLAYER1
  6
CONTINUOUS
 62
     4
 10
610.197686
 20
1129.389751
 11
613.217787
 21
1132.409852
  0
LINE
  8
CSLAYER1
  6
CONTINUOUS
 62
     4
 10
610.197686
 20
1129.672594
 11
612.934945
 21
1132.409852
  0
LINE
  8
CSLAYER1
  6
CONTINUOUS
 62
     4
 10
610.197686
 20
1129.955437
 11
612.652102
 21
1132.409852
  0
LINE
  8
CSLAYER1
  6
CONTINUOUS
 62
     4
 10
610.197686
 20
1130.238280
 11
612.369259
 21
1132.409852
  0
LINE
  8
CSLAYER1
  6
CONTINUOUS
 62
     4
 10
610.197686
 20
1130.521122
 11
612.086417
 21
1132.409852
  0
LINE
  8
CSLAYER1
  6
CONTINUOUS
 62
     4
 10
610.197686
 20
1130.803965
 11
611.803574
 21
1132.409852
  0
LINE
  8
CSLAYER1
  6
CONTINUOUS
 62
     4
 10
610.197686
 20
1131.086808
 11
611.520731
 21
1132.409852
  0
LINE
  8
CSLAYER1
  6
CONTINUOUS
 62
     4
 10
610.197686
 20
1131.369650
 11
611.237888
 21
1132.409852
  0
LINE
  8
CSLAYER1
  6
CONTINUOUS
 62
     4
 10
610.197686
 20
1131.652493
 11
610.955046
 21
1132.409852
  0
LINE
  8
CSLAYER1
  6
CONTINUOUS
 62
     4
 10
610.197686
 20
1131.935336
 11
610.672203
 21
1132.409852
  0
LINE
  8
CSLAYER1
  6
CONTINUOUS
 62
     4
 10
610.197686
 20
1132.218179
 11
610.389360
 21
1132.409852
  0
LINE
  8
CSLAYER1
  6
CONTINUOUS
 62
     4
 10
611.237888
 20
1132.409852
 11
610.197686
 21
1132.409852
  0
LINE
  8
CSLAYER1
  6
CONTINUOUS
 62
     4
 10
612.389360
 20
1132.409852
 11
632.197686
 21
1132.409852
  0
POINT
  8
CSLAYER1
 62
     4
 10
642.197686
 20
1222.067204
  0
LINE
  8
CSLAYER1
  6
CONTINUOUS
 62
     4
 10
628.672686
 20
1209.067204
 11
628.672686
 21
1304.317204
  0
LINE
  8
CSLAYER1
  6
CONTINUOUS
 62
     4
 10
624.297686
 20
1209.067204
 11
624.297686
 21
1266.817204
  0
LINE
  8
CSLAYER1
  6
CONTINUOUS
 62
     4
 10
622.447686
 20
1218.297204
 11
622.447686
 21
1225.846930
  0
LINE
  8
CSLAYER1
  6
CONTINUOUS
 62
     4
 10
628.672686
 20
1209.067204
 11
624.297686
 21
1209.067204
  0
LINE
  8
CSLAYER1
  6
CONTINUOUS
 62
     4
 10
624.297686
 20
1226.846930
 11
623.447686
 21
1226.846930
  0
ARC
  8
CSLAYER1
  6
CONTINUOUS
 62
     4
 10
623.447686
 20
1218.297204
 40
1.000000
 50
180.000000
 51
270.000000
  0
ARC
  8
CSLAYER1
  6
CONTINUOUS
 62
     4
 10
623.447686
 20
1225.846930
 40
1.000000
 50
90.000000
 51
180.000000
  0
LINE
  8
CSLAYER1
  6
CONTINUOUS
 62
     4
 10
655.722686
 20
1209.067204
 11
655.722686
 21
1304.317204
  0
LINE
  8
CSLAYER1
  6
CONTINUOUS
 62
     4
 10
660.097686
 20
1209.067204
 11
660.097686
 21
1266.817204
  0
LINE
  8
CSLAYER1
  6
CONTINUOUS
 62
     4
 10
661.947686
 20
1218.297204
 11
661.947686
 21
1225.846930
  0
LINE
  8
CSLAYER1
  6
CONTINUOUS
 62
     4
 10
655.722686
 20
1209.067204
 11
660.097686
 21
1209.067204
  0
LINE
  8
CSLAYER1
  6
CONTINUOUS
 62
     4
 10
660.097686
 20
1217.297204
 11
660.947686
 21
1217.297204
  0
LINE
  8
CSLAYER1
  6
CONTINUOUS
 62
     4
 10
660.097686
 20
1226.846930
 11
660.947686
 21
1226.846930
  0
ARC
  8
CSLAYER1
  6
CONTINUOUS
 62
     4
 10
660.947686
 20
1218.297204
 40
1.000000
 50
270.000000
 51
360.000000
  0
ARC
  8
CSLAYER1
  6
CONTINUOUS
 62
     4
 10
660.947686
 20
1225.846930
 40
1.000000
 50
0.000000
 51
90.000000
  0
LINE
  8
CSLAYER1
  6
CONTINUOUS
 62
     4
 10
654.722686
 20
1212.067204
 11
650.197686
 21
1212.067204
  0
LINE
  8
CSLAYER1
  6
CONTINUOUS
 62
     4
 10
655.722686
 20
1213.067204
 11
654.722686
 21
1212.067204
  0
LINE
  8
CSLAYER1
  6
CONTINUOUS
 62
     4
 10
629.672686
 20
1212.067204
 11
628.672686
 21
1213.067204
  0
LINE
  8
CSLAYER1
  6
CONTINUOUS
 62
     4
 10
654.722686
 20
1232.067204
 11
650.197686
 21
1232.067204
  0
LINE
  8
CSLAYER1
  6
CONTINUOUS
 62
     4
 10
655.722686
 20
1231.067204
 11
654.722686
 21
1232.067204
  0
LINE
  8
CSLAYER1
  6
CONTINUOUS
 62
     4
 10
629.672686
 20
1232.067204
 11
628.672686
 21
1231.067204
  0
LINE
  8
CSLAYER1
  6
CONTINUOUS
 62
     4
 10
624.297686
 20
1217.297204
 11
623.447686
 21
1217.297204
  0
LINE
  8
CSLAYER1
  6
CONTINUOUS
 62
     5
 10
615.560024
 20
1222.067204
 11
660.095935
 21
1222.067204
  0
LINE
  8
CSLAYER1
  6
CONTINUOUS
 62
     4
 10
632.672686
 20
1238.767204
 11
632.672686
 21
1300.617204
  0
LINE
  8
CSLAYER1
  6
CONTINUOUS
 62
     4
 10
632.672686
 20
1238.767204
 11
628.672686
 21
1238.767204
  0
LINE
  8
CSLAYER1
  6
CONTINUOUS
 62
     4
 10
651.722686
 20
1238.767204
 11
651.722686
 21
1300.617204
  0
LINE
  8
CSLAYER1
  6
CONTINUOUS
 62
     4
 10
651.722686
 20
1238.767204
 11
655.722686
 21
1238.767204
  0
LINE
  8
CSLAYER1
  6
CONTINUOUS
 62
     4
 10
634.197686
 20
1239.067204
 11
650.197686
 21
1239.067204
  0
LINE
  8
CSLAYER1
  6
CONTINUOUS
 62
     4
 10
634.197686
 20
1232.067204
 11
629.672686
 21
1232.067204
  0
LINE
  8
CSLAYER1
  6
CONTINUOUS
 62
     4
 10
634.197686
 20
1212.067204
 11
629.672686
 21
1212.067204
  0
LINE
  8
CSLAYER1
  6
CONTINUOUS
 62
     4
 10
634.197686
 20
1244.292204
 11
634.197686
 21
1107.976255
  0
LINE
  8
CSLAYER1
  6
CONTINUOUS
 62
     4
 10
650.197686
 20
1244.292204
 11
650.197686
 21
1107.976255
  0
LINE
  8
CSLAYER1
  6
CONTINUOUS
 62
     4
 10
551.197686
 20
1107.976255
 11
594.197686
 21
1107.976255
  0
LINE
  8
CSLAYER1
  6
CONTINUOUS
 62
     4
 10
624.297686
 20
1272.567204
 11
624.297686
 21
1461.589936
  0
LINE
  8
CSLAYER1
  6
CONTINUOUS
 62
     4
 10
660.097686
 20
1272.567204
 11
660.097686
 21
1456.064936
  0
LINE
  8
CSLAYER1
  6
CONTINUOUS
 62
     7
 10
737.197686
 20
1598.652356
 11
737.197686
 21
1415.086830
  0
LINE
  8
CSLAYER1
  6
CONTINUOUS
 62
     7
 10
722.647686
 20
1393.944703
 11
722.817213
 21
1396.388221
  0
LINE
  8
CSLAYER1
  6
CONTINUOUS
 62
     7
 10
722.817213
 20
1396.388221
 11
723.324501
 21
1398.813142
  0
LINE
  8
CSLAYER1
  6
CONTINUOUS
 62
     7
 10
723.324501
 20
1398.813142
 11
724.165691
 21
1401.201011
  0
LINE
  8
CSLAYER1
  6
CONTINUOUS
 62
     7
 10
724.165691
 20
1401.201011
 11
725.334380
 21
1403.533656
  0
LINE
  8
CSLAYER1
  6
CONTINUOUS
 62
     7
 10
725.334380
 20
1403.533656
 11
726.821675
 21
1405.793323
  0
LINE
  8
CSLAYER1
  6
CONTINUOUS
 62
     7
 10
726.821675
 20
1405.793323
 11
728.616255
 21
1407.962814
  0
LINE
  8
CSLAYER1
  6
CONTINUOUS
 62
     7
 10
728.616255
 20
1407.962814
 11
730.704463
 21
1410.025620
  0
LINE
  8
CSLAYER1
  6
CONTINUOUS
 62
     7
 10
730.704463
 20
1410.025620
 11
733.070407
 21
1411.966040
  0
LINE
  8
CSLAYER1
  6
CONTINUOUS
 62
     7
 10
733.070407
 20
1411.966040
 11
735.696079
 21
1413.769306
  0
LINE
  8
CSLAYER1
  6
CONTINUOUS
 62
     7
 10
735.696079
 20
1413.769306
 11
738.561498
 21
1415.421696
  0
LINE
  8
CSLAYER1
  6
CONTINUOUS
 62
     7
 10
738.561498
 20
1415.421696
 11
741.644856
 21
1416.910633
  0
LINE
  8
CSLAYER1
  6
CONTINUOUS
 62
     7
 10
741.644856
 20
1416.910633
 11
744.922686
 21
1418.224784
  0
LINE
  8
CSLAYER1
  6
CONTINUOUS
 62
     7
 10
744.922686
 20
1418.224784
 11
748.370043
 21
1419.354150
  0
LINE
  8
CSLAYER1
  6
CONTINUOUS
 62
     7
 10
748.370043
 20
1419.354150
 11
751.960689
 21
1420.290135
  0
LINE
  8
CSLAYER1
  6
CONTINUOUS
 62
     7
 10
751.960689
 20
1420.290135
 11
755.667298
 21
1421.025615
  0
LINE
  8
CSLAYER1
  6
CONTINUOUS
 62
     7
 10
755.667298
 20
1421.025615
 11
759.461660
 21
1421.554993
  0
LINE
  8
CSLAYER1
  6
CONTINUOUS
 62
     7
 10
759.461660
 20
1421.554993
 11
763.314898
 21
1421.874240
  0
LINE
  8
CSLAYER1
  6
CONTINUOUS
 62
     7
 10
737.197686
 20
1598.652356
 11
737.311846
 21
1600.297823
  0
LINE
  8
CSLAYER1
  6
CONTINUOUS
 62
     7
 10
737.311846
 20
1600.297823
 11
737.653454
 21
1601.930766
  0
LINE
  8
CSLAYER1
  6
CONTINUOUS
 62
     7
 10
737.653454
 20
1601.930766
 11
738.219912
 21
1603.538759
  0
LINE
  8
CSLAYER1
  6
CONTINUOUS
 62
     7
 10
738.219912
 20
1603.538759
 11
739.006908
 21
1605.109564
  0
LINE
  8
CSLAYER1
  6
CONTINUOUS
 62
     7
 10
739.006908
 20
1605.109564
 11
740.008453
 21
1606.631225
  0
LINE
  8
CSLAYER1
  6
CONTINUOUS
 62
     7
 10
740.008453
 20
1606.631225
 11
741.216924
 21
1608.092162
  0
LINE
  8
CSLAYER1
  6
CONTINUOUS
 62
     7
 10
741.216924
 20
1608.092162
 11
742.623125
 21
1609.481257
  0
LINE
  8
CSLAYER1
  6
CONTINUOUS
 62
     7
 10
742.623125
 20
1609.481257
 11
744.216353
 21
1610.787937
  0
LINE
  8
CSLAYER1
  6
CONTINUOUS
 62
     7
 10
744.216353
 20
1610.787937
 11
745.984483
 21
1612.002258
  0
LINE
  8
CSLAYER1
  6
CONTINUOUS
 62
     7
 10
745.984483
 20
1612.002258
 11
747.914058
 21
1613.114978
  0
LINE
  8
CSLAYER1
  6
CONTINUOUS
 62
     7
 10
747.914058
 20
1613.114978
 11
749.990393
 21
1614.117629
  0
LINE
  8
CSLAYER1
  6
CONTINUOUS
 62
     7
 10
749.990393
 20
1614.117629
 11
752.197686
 21
1615.002579
  0
LINE
  8
CSLAYER1
  6
CONTINUOUS
 62
     7
 10
752.197686
 20
1615.002579
 11
754.519139
 21
1615.763095
  0
LINE
  8
CSLAYER1
  6
CONTINUOUS
 62
     7
 10
754.519139
 20
1615.763095
 11
756.937082
 21
1616.393388
  0
LINE
  8
CSLAYER1
  6
CONTINUOUS
 62
     7
 10
756.937082
 20
1616.393388
 11
759.433115
 21
1616.888661
  0
LINE
  8
CSLAYER1
  6
CONTINUOUS
 62
     7
 10
759.433115
 20
1616.888661
 11
761.988241
 21
1617.245144
  0
LINE
  8
CSLAYER1
  6
CONTINUOUS
 62
     7
 10
761.988241
 20
1617.245144
 11
764.583014
 21
1617.460125
  0
LINE
  8
CSLAYER1
  6
CONTINUOUS
 62
     7
 10
737.197686
 20
1591.947628
 11
612.697686
 21
1591.947628
  0
LINE
  8
CSLAYER1
  6
CONTINUOUS
 62
     7
 10
611.197686
 20
1647.761594
 11
611.197686
 21
1592.297628
  0
LINE
  8
CSLAYER1
  6
CONTINUOUS
 62
     7
 10
616.197686
 20
1644.197628
 11
611.197686
 21
1639.197628
  0
LINE
  8
CSLAYER1
  6
CONTINUOUS
 62
     7
 10
616.197686
 20
1644.197628
 11
616.197686
 21
1600.197628
  0
ARC
  8
CSLAYER1
  6
CONTINUOUS
 62
     7
 10
610.097686
 20
1592.297628
 40
1.100000
 50
270.000000
 51
360.000000
  0
LINE
  8
CSLAYER1
  6
CONTINUOUS
 62
     7
 10
616.197686
 20
1600.197628
 11
611.197686
 21
1605.197628
  0
LINE
  8
CSLAYER1
  6
CONTINUOUS
 62
     7
 10
660.697686
 20
1653.463956
 11
660.697686
 21
1600.197628
  0
LINE
  8
CSLAYER1
  6
CONTINUOUS
 62
     7
 10
660.697686
 20
1593.947628
 11
660.697686
 21
1598.947628
  0
LINE
  8
CSLAYER1
  6
CONTINUOUS
 62
     7
 10
660.697686
 20
1593.947628
 11
662.697686
 21
1591.947628
  0
POINT
  8
CSLAYER1
 62
     7
 10
642.197686
 20
1534.614936
  0
LINE
  8
CSLAYER1
  6
CONTINUOUS
 62
     5
 10
628.072310
 20
1534.614938
 11
656.311400
 21
1534.614938
  0
LINE
  8
CSLAYER1
  6
CONTINUOUS
 62
     7
 10
633.697686
 20
1559.614938
 11
633.697686
 21
1600.197628
  0
LINE
  8
CSLAYER1
  6
CONTINUOUS
 62
     7
 10
632.197686
 20
1551.614938
 11
632.197686
 21
1600.197628
  0
LINE
  8
CSLAYER1
  6
CONTINUOUS
 62
     7
 10
616.197686
 20
1644.197628
 11
660.697686
 21
1644.197628
  0
LINE
  8
CSLAYER1
  6
CONTINUOUS
 62
     7
 10
623.697686
 20
1644.197628
 11
623.697686
 21
1653.463956
  0
LINE
  8
CSLAYER1
  6
CONTINUOUS
 62
     7
 10
632.197686
 20
1559.614938
 11
652.197686
 21
1559.614938
  0
LINE
  8
CSLAYER1
  6
CONTINUOUS
 62
     7
 10
633.697686
 20
1559.614938
 11
632.197686
 21
1557.016862
  0
LINE
  8
CSLAYER1
  6
CONTINUOUS
 62
     7
 10
650.697686
 20
1559.614938
 11
650.697686
 21
1600.197628
  0
LINE
  8
CSLAYER1
  6
CONTINUOUS
 62
     7
 10
650.697686
 20
1559.614938
 11
652.197686
 21
1557.016862
  0
LINE
  8
CSLAYER1
  6
CONTINUOUS
 62
     7
 10
652.197686
 20
1551.614938
 11
652.197686
 21
1600.197628
  0
LINE
  8
CSLAYER1
  6
CONTINUOUS
 62
     7
 10
654.722686
 20
1549.614936
 11
629.672686
 21
1549.614936
  0
POINT
  8
CSLAYER1
 62
     7
 10
642.197686
 20
1502.864936
  0
LINE
  8
CSLAYER1
  6
CONTINUOUS
 62
     7
 10
628.672686
 20
1548.614936
 11
628.672686
 21
1456.064936
  0
LINE
  8
CSLAYER1
  6
CONTINUOUS
 62
     7
 10
632.672686
 20
1517.914936
 11
632.672686
 21
1456.064936
  0
LINE
  8
CSLAYER1
  6
CONTINUOUS
 62
     7
 10
632.672686
 20
1517.914936
 11
628.672686
 21
1517.914936
  0
LINE
  8
CSLAYER1
  6
CONTINUOUS
 62
     7
 10
633.672686
 20
1493.339936
 11
650.722686
 21
1493.339936
  0
LINE
  8
CSLAYER1
  6
CONTINUOUS
 62
     7
 10
633.672686
 20
1512.389936
 11
650.722686
 21
1512.389936
  0
ARC
  8
CSLAYER1
  6
CONTINUOUS
 62
     7
 10
633.672686
 20
1494.339936
 40
1.000000
 50
180.000000
 51
270.000000
  0
ARC
  8
CSLAYER1
  6
CONTINUOUS
 62
     7
 10
633.672686
 20
1511.389936
 40
1.000000
 50
90.000000
 51
180.000000
  0
LINE
  8
CSLAYER1
  6
CONTINUOUS
 62
     7
 10
655.722686
 20
1548.614936
 11
655.722686
 21
1455.364936
  0
LINE
  8
CSLAYER1
  6
CONTINUOUS
 62
     7
 10
651.722686
 20
1517.914936
 11
651.722686
 21
1456.064936
  0
LINE
  8
CSLAYER1
  6
CONTINUOUS
 62
     7
 10
651.722686
 20
1517.914936
 11
655.722686
 21
1517.914936
  0
ARC
  8
CSLAYER1
  6
CONTINUOUS
 62
     7
 10
650.722686
 20
1494.339936
 40
1.000000
 50
270.000000
 51
360.000000
  0
ARC
  8
CSLAYER1
  6
CONTINUOUS
 62
     7
 10
650.722686
 20
1511.389936
 40
1.000000
 50
0.000000
 51
90.000000
  0
LINE
  8
CSLAYER1
  6
CONTINUOUS
 62
     7
 10
622.447686
 20
1499.094936
 11
622.447686
 21
1506.644662
  0
LINE
  8
CSLAYER1
  6
CONTINUOUS
 62
     7
 10
628.672686
 20
1489.864936
 11
624.297686
 21
1489.864936
  0
LINE
  8
CSLAYER1
  6
CONTINUOUS
 62
     7
 10
628.672686
 20
1547.614936
 11
624.297686
 21
1547.614936
  0
LINE
  8
CSLAYER1
  6
CONTINUOUS
 62
     7
 10
624.297686
 20
1498.094936
 11
623.447686
 21
1498.094936
  0
LINE
  8
CSLAYER1
  6
CONTINUOUS
 62
     7
 10
624.297686
 20
1507.644662
 11
623.447686
 21
1507.644662
  0
ARC
  8
CSLAYER1
  6
CONTINUOUS
 62
     7
 10
623.447686
 20
1499.094936
 40
1.000000
 50
180.000000
 51
270.000000
  0
ARC
  8
CSLAYER1
  6
CONTINUOUS
 62
     7
 10
623.447686
 20
1506.644662
 40
1.000000
 50
90.000000
 51
180.000000
  0
LINE
  8
CSLAYER1
  6
CONTINUOUS
 62
     7
 10
622.447686
 20
1530.844936
 11
622.447686
 21
1538.394662
  0
LINE
  8
CSLAYER1
  6
CONTINUOUS
 62
     7
 10
624.297686
 20
1529.844936
 11
623.447686
 21
1529.844936
  0
LINE
  8
CSLAYER1
  6
CONTINUOUS
 62
     7
 10
624.297686
 20
1539.394662
 11
623.447686
 21
1539.394662
  0
ARC
  8
CSLAYER1
  6
CONTINUOUS
 62
     7
 10
623.447686
 20
1530.844936
 40
1.000000
 50
180.000000
 51
270.000000
  0
ARC
  8
CSLAYER1
  6
CONTINUOUS
 62
     7
 10
623.447686
 20
1538.394662
 40
1.000000
 50
90.000000
 51
180.000000
  0
LINE
  8
CSLAYER1
  6
CONTINUOUS
 62
     7
 10
661.947686
 20
1499.094936
 11
661.947686
 21
1506.644662
  0
LINE
  8
CSLAYER1
  6
CONTINUOUS
 62
     7
 10
655.722686
 20
1489.864936
 11
660.097686
 21
1489.864936
  0
LINE
  8
CSLAYER1
  6
CONTINUOUS
 62
     7
 10
655.722686
 20
1547.614936
 11
660.097686
 21
1547.614936
  0
LINE
  8
CSLAYER1
  6
CONTINUOUS
 62
     7
 10
660.097686
 20
1498.094936
 11
660.947686
 21
1498.094936
  0
LINE
  8
CSLAYER1
  6
CONTINUOUS
 62
     7
 10
660.097686
 20
1507.644662
 11
660.947686
 21
1507.644662
  0
ARC
  8
CSLAYER1
  6
CONTINUOUS
 62
     7
 10
660.947686
 20
1499.094936
 40
1.000000
 50
270.000000
 51
360.000000
  0
ARC
  8
CSLAYER1
  6
CONTINUOUS
 62
     7
 10
660.947686
 20
1506.644662
 40
1.000000
 50
0.000000
 51
90.000000
  0
LINE
  8
CSLAYER1
  6
CONTINUOUS
 62
     7
 10
665.047686
 20
1530.844936
 11
665.047686
 21
1538.394662
  0
LINE
  8
CSLAYER1
  6
CONTINUOUS
 62
     7
 10
660.097686
 20
1529.844936
 11
664.047686
 21
1529.844936
  0
LINE
  8
CSLAYER1
  6
CONTINUOUS
 62
     7
 10
660.097686
 20
1539.394662
 11
664.047686
 21
1539.394662
  0
ARC
  8
CSLAYER1
  6
CONTINUOUS
 62
     7
 10
664.047686
 20
1530.844936
 40
1.000000
 50
270.000000
 51
360.000000
  0
ARC
  8
CSLAYER1
  6
CONTINUOUS
 62
     7
 10
664.047686
 20
1538.394662
 40
1.000000
 50
0.000000
 51
90.000000
  0
LINE
  8
CSLAYER1
  6
CONTINUOUS
 62
     7
 10
655.722686
 20
1539.394662
 11
628.672686
 21
1539.394662
  0
LINE
  8
CSLAYER1
  6
CONTINUOUS
 62
     7
 10
655.722686
 20
1529.844936
 11
628.672686
 21
1529.844936
  0
LINE
  8
CSLAYER1
  6
CONTINUOUS
 62
     7
 10
653.722686
 20
1519.614936
 11
630.672686
 21
1519.614936
  0
ARC
  8
CSLAYER1
  6
CONTINUOUS
 62
     7
 10
630.672686
 20
1521.614936
 40
2.000000
 50
180.000000
 51
270.000000
  0
ARC
  8
CSLAYER1
  6
CONTINUOUS
 62
     7
 10
653.722686
 20
1521.614936
 40
2.000000
 50
270.000000
 51
360.000000
  0
ARC
  8
CSLAYER1
  6
CONTINUOUS
 62
     7
 10
654.197686
 20
1551.614936
 40
2.000000
 50
180.000000
 51
270.000000
  0
ARC
  8
CSLAYER1
  6
CONTINUOUS
 62
     7
 10
630.197686
 20
1551.614936
 40
2.000000
 50
270.000000
 51
360.000000
  0
ARC
  8
CSLAYER1
  6
CONTINUOUS
 62
     7
 10
654.722686
 20
1548.614936
 40
1.000000
 50
0.000000
 51
90.000000
  0
ARC
  8
CSLAYER1
  6
CONTINUOUS
 62
     7
 10
629.672686
 20
1548.614936
 40
1.000000
 50
90.000000
 51
180.000000
  0
POINT
  8
CSLAYER1
 62
     7
 10
642.197686
 20
1549.614936
  0
LINE
  8
CSLAYER1
  6
CONTINUOUS
 62
     7
 10
624.297686
 20
1489.864936
 11
624.297686
 21
1547.614936
  0
LINE
  8
CSLAYER1
  6
CONTINUOUS
 62
     7
 10
660.097686
 20
1489.864936
 11
660.097686
 21
1547.614936
  0
POINT
  8
CSLAYER1
 62
     7
 10
642.197686
 20
1471.114936
  0
LINE
  8
CSLAYER1
  6
CONTINUOUS
 62
     7
 10
632.672686
 20
1456.064936
 11
628.672686
 21
1456.064936
  0
LINE
  8
CSLAYER1
  6
CONTINUOUS
 62
     7
 10
633.672686
 20
1480.639936
 11
650.722686
 21
1480.639936
  0
LINE
  8
CSLAYER1
  6
CONTINUOUS
 62
     7
 10
633.672686
 20
1461.589936
 11
650.722686
 21
1461.589936
  0
ARC
  8
CSLAYER1
  6
CONTINUOUS
 62
     7
 10
633.672686
 20
1479.639936
 40
1.000000
 50
90.000000
 51
180.000000
  0
ARC
  8
CSLAYER1
  6
CONTINUOUS
 62
     7
 10
633.672686
 20
1462.589936
 40
1.000000
 50
180.000000
 51
270.000000
  0
LINE
  8
CSLAYER1
  6
CONTINUOUS
 62
     7
 10
651.722686
 20
1456.064936
 11
655.722686
 21
1456.064936
  0
ARC
  8
CSLAYER1
  6
CONTINUOUS
 62
     7
 10
650.722686
 20
1479.639936
 40
1.000000
 50
0.000000
 51
90.000000
  0
ARC
  8
CSLAYER1
  6
CONTINUOUS
 62
     7
 10
650.722686
 20
1462.589936
 40
1.000000
 50
270.000000
 51
360.000000
  0
LINE
  8
CSLAYER1
  6
CONTINUOUS
 62
     7
 10
622.447686
 20
1474.884936
 11
622.447686
 21
1467.335210
  0
LINE
  8
CSLAYER1
  6
CONTINUOUS
 62
     7
 10
628.672686
 20
1484.114936
 11
624.297686
 21
1484.114936
  0
LINE
  8
CSLAYER1
  6
CONTINUOUS
 62
     7
 10
624.297686
 20
1475.884936
 11
623.447686
 21
1475.884936
  0
LINE
  8
CSLAYER1
  6
CONTINUOUS
 62
     7
 10
624.297686
 20
1466.335210
 11
623.447686
 21
1466.335210
  0
ARC
  8
CSLAYER1
  6
CONTINUOUS
 62
     7
 10
623.447686
 20
1474.884936
 40
1.000000
 50
90.000000
 51
180.000000
  0
ARC
  8
CSLAYER1
  6
CONTINUOUS
 62
     7
 10
623.447686
 20
1467.335210
 40
1.000000
 50
180.000000
 51
270.000000
  0
LINE
  8
CSLAYER1
  6
CONTINUOUS
 62
     7
 10
661.947686
 20
1474.884936
 11
661.947686
 21
1467.335210
  0
LINE
  8
CSLAYER1
  6
CONTINUOUS
 62
     7
 10
655.722686
 20
1484.114936
 11
660.097686
 21
1484.114936
  0
LINE
  8
CSLAYER1
  6
CONTINUOUS
 62
     7
 10
660.097686
 20
1475.884936
 11
660.947686
 21
1475.884936
  0
LINE
  8
CSLAYER1
  6
CONTINUOUS
 62
     7
 10
660.097686
 20
1466.335210
 11
660.947686
 21
1466.335210
  0
ARC
  8
CSLAYER1
  6
CONTINUOUS
 62
     7
 10
660.947686
 20
1474.884936
 40
1.000000
 50
0.000000
 51
90.000000
  0
ARC
  8
CSLAYER1
  6
CONTINUOUS
 62
     7
 10
660.947686
 20
1467.335210
 40
1.000000
 50
270.000000
 51
360.000000
  0
LINE
  8
CSLAYER1
  6
CONTINUOUS
 62
     7
 10
660.097686
 20
1484.114936
 11
660.097686
 21
1426.364936
  0
LINE
  8
CSLAYER1
  6
CONTINUOUS
 62
     7
 10
624.297686
 20
1484.114936
 11
624.297686
 21
1426.364936
  0
LINE
  8
CSLAYER1
  6
CONTINUOUS
 62
     7
 10
616.197686
 20
1600.197628
 11
660.697686
 21
1600.197628
  0
LINE
  8
CSLAYER1
  6
CONTINUOUS
 62
     5
 10
614.714405
 20
1253.817204
 11
659.250317
 21
1253.817204
  0
LINE
  8
CSLAYER1
  6
CONTINUOUS
 62
     4
 10
655.722686
 20
1266.817204
 11
660.097686
 21
1266.817204
  0
LINE
  8
CSLAYER1
  6
CONTINUOUS
 62
     4
 10
661.947686
 20
1250.047204
 11
661.947686
 21
1257.596930
  0
LINE
  8
CSLAYER1
  6
CONTINUOUS
 62
     4
 10
660.097686
 20
1249.047204
 11
660.947686
 21
1249.047204
  0
LINE
  8
CSLAYER1
  6
CONTINUOUS
 62
     4
 10
660.097686
 20
1258.596930
 11
660.947686
 21
1258.596930
  0
ARC
  8
CSLAYER1
  6
CONTINUOUS
 62
     4
 10
660.947686
 20
1250.047204
 40
1.000000
 50
270.000000
 51
360.000000
  0
ARC
  8
CSLAYER1
  6
CONTINUOUS
 62
     4
 10
660.947686
 20
1257.596930
 40
1.000000
 50
0.000000
 51
90.000000
  0
LINE
  8
CSLAYER1
  6
CONTINUOUS
 62
     4
 10
628.672686
 20
1266.817204
 11
624.297686
 21
1266.817204
  0
LINE
  8
CSLAYER1
  6
CONTINUOUS
 62
     4
 10
622.447686
 20
1250.047204
 11
622.447686
 21
1257.596930
  0
LINE
  8
CSLAYER1
  6
CONTINUOUS
 62
     4
 10
624.297686
 20
1249.047204
 11
623.447686
 21
1249.047204
  0
LINE
  8
CSLAYER1
  6
CONTINUOUS
 62
     4
 10
624.297686
 20
1258.596930
 11
623.447686
 21
1258.596930
  0
ARC
  8
CSLAYER1
  6
CONTINUOUS
 62
     4
 10
623.447686
 20
1250.047204
 40
1.000000
 50
180.000000
 51
270.000000
  0
ARC
  8
CSLAYER1
  6
CONTINUOUS
 62
     4
 10
623.447686
 20
1257.596930
 40
1.000000
 50
90.000000
 51
180.000000
  0
POINT
  8
CSLAYER1
 62
     4
 10
642.197686
 20
1253.817204
  0
POINT
  8
CSLAYER1
 62
     4
 10
642.197686
 20
1285.567204
  0
LINE
  8
CSLAYER1
  6
CONTINUOUS
 62
     4
 10
632.672686
 20
1300.617204
 11
628.672686
 21
1300.617204
  0
LINE
  8
CSLAYER1
  6
CONTINUOUS
 62
     4
 10
633.672686
 20
1276.042204
 11
650.722686
 21
1276.042204
  0
LINE
  8
CSLAYER1
  6
CONTINUOUS
 62
     4
 10
633.672686
 20
1295.092204
 11
650.722686
 21
1295.092204
  0
ARC
  8
CSLAYER1
  6
CONTINUOUS
 62
     4
 10
633.672686
 20
1277.042204
 40
1.000000
 50
180.000000
 51
270.000000
  0
ARC
  8
CSLAYER1
  6
CONTINUOUS
 62
     4
 10
633.672686
 20
1294.092204
 40
1.000000
 50
90.000000
 51
180.000000
  0
LINE
  8
CSLAYER1
  6
CONTINUOUS
 62
     4
 10
651.722686
 20
1300.617204
 11
655.722686
 21
1300.617204
  0
ARC
  8
CSLAYER1
  6
CONTINUOUS
 62
     4
 10
650.722686
 20
1277.042204
 40
1.000000
 50
270.000000
 51
360.000000
  0
ARC
  8
CSLAYER1
  6
CONTINUOUS
 62
     4
 10
650.722686
 20
1294.092204
 40
1.000000
 50
0.000000
 51
90.000000
  0
LINE
  8
CSLAYER1
  6
CONTINUOUS
 62
     4
 10
622.447686
 20
1281.797204
 11
622.447686
 21
1289.346930
  0
LINE
  8
CSLAYER1
  6
CONTINUOUS
 62
     4
 10
628.672686
 20
1272.567204
 11
624.297686
 21
1272.567204
  0
LINE
  8
CSLAYER1
  6
CONTINUOUS
 62
     4
 10
624.297686
 20
1280.797204
 11
623.447686
 21
1280.797204
  0
LINE
  8
CSLAYER1
  6
CONTINUOUS
 62
     4
 10
624.297686
 20
1290.346930
 11
623.447686
 21
1290.346930
  0
ARC
  8
CSLAYER1
  6
CONTINUOUS
 62
     4
 10
623.447686
 20
1281.797204
 40
1.000000
 50
180.000000
 51
270.000000
  0
ARC
  8
CSLAYER1
  6
CONTINUOUS
 62
     4
 10
623.447686
 20
1289.346930
 40
1.000000
 50
90.000000
 51
180.000000
  0
LINE
  8
CSLAYER1
  6
CONTINUOUS
 62
     4
 10
661.947686
 20
1281.797204
 11
661.947686
 21
1289.346930
  0
LINE
  8
CSLAYER1
  6
CONTINUOUS
 62
     4
 10
655.722686
 20
1272.567204
 11
660.097686
 21
1272.567204
  0
LINE
  8
CSLAYER1
  6
CONTINUOUS
 62
     4
 10
660.097686
 20
1280.797204
 11
660.947686
 21
1280.797204
  0
LINE
  8
CSLAYER1
  6
CONTINUOUS
 62
     4
 10
660.097686
 20
1290.346930
 11
660.947686
 21
1290.346930
  0
ARC
  8
CSLAYER1
  6
CONTINUOUS
 62
     4
 10
660.947686
 20
1281.797204
 40
1.000000
 50
270.000000
 51
360.000000
  0
ARC
  8
CSLAYER1
  6
CONTINUOUS
 62
     4
 10
660.947686
 20
1289.346930
 40
1.000000
 50
0.000000
 51
90.000000
  0
LINE
  8
CSLAYER1
  6
CONTINUOUS
 62
     4
 10
633.672686
 20
1263.342204
 11
650.722686
 21
1263.342204
  0
LINE
  8
CSLAYER1
  6
CONTINUOUS
 62
     4
 10
633.672686
 20
1244.292204
 11
650.722686
 21
1244.292204
  0
ARC
  8
CSLAYER1
  6
CONTINUOUS
 62
     4
 10
633.672686
 20
1262.342204
 40
1.000000
 50
90.000000
 51
180.000000
  0
ARC
  8
CSLAYER1
  6
CONTINUOUS
 62
     4
 10
633.672686
 20
1245.292204
 40
1.000000
 50
180.000000
 51
270.000000
  0
ARC
  8
CSLAYER1
  6
CONTINUOUS
 62
     4
 10
650.722686
 20
1262.342204
 40
1.000000
 50
0.000000
 51
90.000000
  0
ARC
  8
CSLAYER1
  6
CONTINUOUS
 62
     4
 10
650.722686
 20
1245.292204
 40
1.000000
 50
270.000000
 51
360.000000
  0
LINE
  8
CSLAYER1
  6
CONTINUOUS
 62
     4
 10
591.697686
 20
1634.697628
 11
592.847686
 21
1634.697628
  0
LINE
  8
CSLAYER1
  6
CONTINUOUS
 62
     4
 10
592.847686
 20
1634.147628
 11
594.197686
 21
1634.147628
  0
LINE
  8
CSLAYER1
  6
CONTINUOUS
 62
     4
 10
592.847686
 20
1637.247628
 11
594.197686
 21
1637.247628
  0
LINE
  8
CSLAYER1
  6
CONTINUOUS
 62
     4
 10
592.847686
 20
1637.247628
 11
592.847686
 21
1607.147628
  0
LINE
  8
CSLAYER1
  6
CONTINUOUS
 62
     4
 10
590.197686
 20
1633.197628
 11
590.197686
 21
1611.197628
  0
LINE
  8
CSLAYER1
  6
CONTINUOUS
 62
     4
 10
590.197686
 20
1633.197628
 11
591.697686
 21
1634.697628
  0
LINE
  8
CSLAYER1
  6
CONTINUOUS
 62
     4
 10
591.697686
 20
1634.697628
 11
591.697686
 21
1609.697628
  0
LINE
  8
CSLAYER1
  6
CONTINUOUS
 62
     4
 10
591.697686
 20
1609.697628
 11
592.847686
 21
1609.697628
  0
LINE
  8
CSLAYER1
  6
CONTINUOUS
 62
     4
 10
592.847686
 20
1610.247628
 11
594.197686
 21
1610.247628
  0
LINE
  8
CSLAYER1
  6
CONTINUOUS
 62
     4
 10
592.847686
 20
1607.147628
 11
594.197686
 21
1607.147628
  0
LINE
  8
CSLAYER1
  6
CONTINUOUS
 62
     4
 10
590.197686
 20
1611.197628
 11
591.697686
 21
1609.697628
  0
LINE
  8
CSLAYER1
  6
CONTINUOUS
 62
     7
 10
660.697686
 20
1650.447628
 11
662.697686
 21
1652.447628
  0
ARC
  8
CSLAYER1
  6
CONTINUOUS
 62
     7
 10
642.197686
 20
1635.724942
 40
25.630502
 50
43.797018
 51
136.202982
  0
ARC
  8
CSLAYER1
  6
CONTINUOUS
 62
     7
 10
642.197686
 20
1675.565263
 40
13.551139
 50
42.443318
 51
137.556682
  0
LINE
  8
CSLAYER1
  6
CONTINUOUS
 62
     7
 10
632.197686
 20
1684.710391
 11
632.197686
 21
1659.324150
  0
LINE
  8
CSLAYER1
  6
CONTINUOUS
 62
     7
 10
652.197686
 20
1684.710391
 11
652.197686
 21
1659.324150
  0
ARC
  8
CSLAYER1
  6
CONTINUOUS
 62
     7
 10
642.197686
 20
1626.458614
 40
25.630502
 50
43.797018
 51
136.202982
  0
LINE
  8
CSLAYER1
  6
CONTINUOUS
 62
     4
 10
594.197686
 20
851.373033
 11
551.197686
 21
851.373033
  0
LINE
  8
CSLAYER1
  6
CONTINUOUS
 62
     4
 10
594.197686
 20
838.053392
 11
551.197686
 21
838.053392
  0
LINE
  8
CSLAYER1
  6
CONTINUOUS
 62
     4
 10
594.197686
 20
791.700065
 11
551.197686
 21
791.700065
  0
LINE
  8
CSLAYER1
  6
CONTINUOUS
 62
     4
 10
705.197686
 20
851.373033
 11
610.197686
 21
851.373033
  0
LINE
  8
CSLAYER1
  6
CONTINUOUS
 62
     4
 10
705.197686
 20
838.053392
 11
610.197686
 21
838.053392
  0
LINE
  8
CSLAYER1
  6
CONTINUOUS
 62
     4
 10
709.241187
 20
791.700065
 11
610.197686
 21
791.700065
  0
LINE
  8
CSLAYER1
  6
CONTINUOUS
 62
     7
 10
701.197686
 20
1085.258477
 11
615.314887
 21
1060.884089
  0
LINE
  8
CSLAYER1
  6
CONTINUOUS
 62
     7
 10
701.197686
 20
1054.124234
 11
615.314887
 21
1029.749846
  0
LINE
  8
CSLAYER1
  6
CONTINUOUS
 62
     7
 10
701.197686
 20
975.646349
 11
615.314887
 21
1000.020737
  0
DIMENSION
  8
CSLAYER1
 62
     3
  2
*D0005
 10
1067.197686
 20
488.643764
 11
767.197693
 21
503.643555
 13
467.197686
 23
619.088848
 14
1067.197686
 24
619.088848
 52
270.000000
 70
1
  0
DIMENSION
  8
CSLAYER1
 62
     3
  2
*D0006
 10
1562.622775
 20
3037.861224
 11
1547.622803
 21
2737.861328
 13
1713.134087
 23
2437.861224
 14
1713.134087
 24
3037.861224
 50
90.000000
 70
1
  0
POINT
  8
CSLAYER1
 62
     5
 10
2048.842594
 20
1030.452413
  0
CIRCLE
  8
CSLAYER1
  6
CONTINUOUS
 62
     4
 10
2048.842596
 20
1030.452417
 40
14.100000
  0
LINE
  8
CSLAYER1
  6
CONTINUOUS
 62
     5
 10
2020.611191
 20
1030.452413
 11
2075.983668
 21
1030.452413
  0
LINE
  8
CSLAYER1
  6
CONTINUOUS
 62
     5
 10
2048.842594
 20
1066.583594
 11
2048.842594
 21
1000.754512
  0
LINE
  8
CSLAYER1
  6
CONTINUOUS
 62
     3
 10
1713.134087
 20
1797.930814
 11
3213.134087
 21
1797.930814
  0
LINE
  8
CSLAYER1
  6
CONTINUOUS
 62
     4
 10
467.197686
 20
1797.930814
 11
1064.197686
 21
1797.930814
  0
TEXT
  8
CSLAYER2
 62
     5
 10
4445.359863
 20
2842.720594
 40
59.088108
 41
0.717259
  1
GLI-750-0615
 50
0.000000
 51
0.000000
  7
EASYDRAW_FONT
 72
     5
 11
4939.810730
 21
2842.720594
  0
LINE
  8
CSLAYER1
  6
CONTINUOUS
 62
     7
 10
821.197686
 20
1004.766662
 11
820.992200
 21
1007.728502
  0
LINE
  8
CSLAYER1
  6
CONTINUOUS
 62
     7
 10
820.992200
 20
1007.728502
 11
820.377305
 21
1010.667801
  0
LINE
  8
CSLAYER1
  6
CONTINUOUS
 62
     7
 10
820.377305
 20
1010.667801
 11
819.357681
 21
1013.562188
  0
LINE
  8
CSLAYER1
  6
CONTINUOUS
 62
     7
 10
819.357681
 20
1013.562188
 11
817.941088
 21
1016.389636
  0
LINE
  8
CSLAYER1
  6
CONTINUOUS
 62
     7
 10
817.941088
 20
1016.389636
 11
816.138307
 21
1019.128626
  0
LINE
  8
CSLAYER1
  6
CONTINUOUS
 62
     7
 10
816.138307
 20
1019.128626
 11
813.963058
 21
1021.758313
  0
LINE
  8
CSLAYER1
  6
CONTINUOUS
 62
     7
 10
813.963058
 20
1021.758313
 11
811.431897
 21
1024.258683
  0
LINE
  8
CSLAYER1
  6
CONTINUOUS
 62
     7
 10
811.431897
 20
1024.258683
 11
808.564086
 21
1026.610707
  0
LINE
  8
CSLAYER1
  6
CONTINUOUS
 62
     7
 10
808.564086
 20
1026.610707
 11
805.381453
 21
1028.796485
  0
LINE
  8
CSLAYER1
  6
CONTINUOUS
 62
     7
 10
805.381453
 20
1028.796485
 11
801.908217
 21
1030.799381
  0
LINE
  8
CSLAYER1
  6
CONTINUOUS
 62
     7
 10
801.908217
 20
1030.799381
 11
798.170814
 21
1032.604153
  0
LINE
  8
CSLAYER1
  6
CONTINUOUS
 62
     7
 10
798.170814
 20
1032.604153
 11
794.197686
 21
1034.197065
  0
LINE
  8
CSLAYER1
  6
CONTINUOUS
 62
     7
 10
794.197686
 20
1034.197065
 11
790.019073
 21
1035.565993
  0
LINE
  8
CSLAYER1
  6
CONTINUOUS
 62
     7
 10
790.019073
 20
1035.565993
 11
785.666774
 21
1036.700520
  0
LINE
  8
CSLAYER1
  6
CONTINUOUS
 62
     7
 10
785.666774
 20
1036.700520
 11
781.173915
 21
1037.592011
  0
LINE
  8
CSLAYER1
  6
CONTINUOUS
 62
     7
 10
781.173915
 20
1037.592011
 11
776.574688
 21
1038.233681
  0
LINE
  8
CSLAYER1
  6
CONTINUOUS
 62
     7
 10
776.574688
 20
1038.233681
 11
771.904097
 21
1038.620647
  0
LINE
  8
CSLAYER1
  6
CONTINUOUS
 62
     7
 10
771.904097
 20
1038.620647
 11
767.197686
 21
1038.749964
  0
LINE
  8
CSLAYER1
  6
CONTINUOUS
 62
     7
 10
767.197686
 20
1038.749964
 11
762.491276
 21
1038.620647
  0
LINE
  8
CSLAYER1
  6
CONTINUOUS
 62
     7
 10
762.491276
 20
1038.620647
 11
757.820685
 21
1038.233681
  0
LINE
  8
CSLAYER1
  6
CONTINUOUS
 62
     7
 10
757.820685
 20
1038.233681
 11
753.221458
 21
1037.592011
  0
LINE
  8
CSLAYER1
  6
CONTINUOUS
 62
     7
 10
753.221458
 20
1037.592011
 11
748.728599
 21
1036.700520
  0
LINE
  8
CSLAYER1
  6
CONTINUOUS
 62
     7
 10
748.728599
 20
1036.700520
 11
744.376300
 21
1035.565993
  0
LINE
  8
CSLAYER1
  6
CONTINUOUS
 62
     7
 10
744.376300
 20
1035.565993
 11
740.197686
 21
1034.197065
  0
LINE
  8
CSLAYER1
  6
CONTINUOUS
 62
     7
 10
740.197686
 20
1034.197065
 11
736.224559
 21
1032.604153
  0
LINE
  8
CSLAYER1
  6
CONTINUOUS
 62
     7
 10
736.224559
 20
1032.604153
 11
732.487156
 21
1030.799381
  0
LINE
  8
CSLAYER1
  6
CONTINUOUS
 62
     7
 10
732.487156
 20
1030.799381
 11
729.013920
 21
1028.796485
  0
LINE
  8
CSLAYER1
  6
CONTINUOUS
 62
     7
 10
729.013920
 20
1028.796485
 11
725.831287
 21
1026.610707
  0
LINE
  8
CSLAYER1
  6
CONTINUOUS
 62
     7
 10
725.831287
 20
1026.610707
 11
722.963476
 21
1024.258683
  0
LINE
  8
CSLAYER1
  6
CONTINUOUS
 62
     7
 10
722.963476
 20
1024.258683
 11
720.432315
 21
1021.758313
  0
LINE
  8
CSLAYER1
  6
CONTINUOUS
 62
     7
 10
720.432315
 20
1021.758313
 11
718.257066
 21
1019.128626
  0
LINE
  8
CSLAYER1
  6
CONTINUOUS
 62
     7
 10
718.257066
 20
1019.128626
 11
716.454285
 21
1016.389636
  0
LINE
  8
CSLAYER1
  6
CONTINUOUS
 62
     7
 10
716.454285
 20
1016.389636
 11
715.037692
 21
1013.562188
  0
LINE
  8
CSLAYER1
  6
CONTINUOUS
 62
     7
 10
715.037692
 20
1013.562188
 11
714.018068
 21
1010.667801
  0
LINE
  8
CSLAYER1
  6
CONTINUOUS
 62
     7
 10
714.018068
 20
1010.667801
 11
713.403173
 21
1007.728502
  0
LINE
  8
CSLAYER1
  6
CONTINUOUS
 62
     7
 10
713.403173
 20
1007.728502
 11
713.197686
 21
1004.766662
  0
LINE
  8
CSLAYER1
  6
CONTINUOUS
 62
     7
 10
821.015567
 20
980.927584
 11
820.992200
 21
981.264396
  0
LINE
  8
CSLAYER1
  6
CONTINUOUS
 62
     7
 10
820.992200
 20
981.264396
 11
820.377305
 21
984.203694
  0
LINE
  8
CSLAYER1
  6
CONTINUOUS
 62
     7
 10
820.377305
 20
984.203694
 11
819.357681
 21
987.098081
  0
LINE
  8
CSLAYER1
  6
CONTINUOUS
 62
     7
 10
819.357681
 20
987.098081
 11
817.941088
 21
989.925529
  0
LINE
  8
CSLAYER1
  6
CONTINUOUS
 62
     7
 10
817.941088
 20
989.925529
 11
816.138307
 21
992.664519
  0
LINE
  8
CSLAYER1
  6
CONTINUOUS
 62
     7
 10
816.138307
 20
992.664519
 11
813.963058
 21
995.294206
  0
LINE
  8
CSLAYER1
  6
CONTINUOUS
 62
     7
 10
813.963058
 20
995.294206
 11
811.431897
 21
997.794576
  0
LINE
  8
CSLAYER1
  6
CONTINUOUS
 62
     7
 10
811.431897
 20
997.794576
 11
808.564086
 21
1000.146601
  0
LINE
  8
CSLAYER1
  6
CONTINUOUS
 62
     7
 10
808.564086
 20
1000.146601
 11
805.381453
 21
1002.332378
  0
LINE
  8
CSLAYER1
  6
CONTINUOUS
 62
     7
 10
805.381453
 20
1002.332378
 11
801.908217
 21
1004.335275
  0
LINE
  8
CSLAYER1
  6
CONTINUOUS
 62
     7
 10
801.908217
 20
1004.335275
 11
798.170814
 21
1006.140046
  0
LINE
  8
CSLAYER1
  6
CONTINUOUS
 62
     7
 10
798.170814
 20
1006.140046
 11
794.197686
 21
1007.732958
  0
LINE
  8
CSLAYER1
  6
CONTINUOUS
 62
     7
 10
794.197686
 20
1007.732958
 11
790.019073
 21
1009.101886
  0
LINE
  8
CSLAYER1
  6
CONTINUOUS
 62
     7
 10
790.019073
 20
1009.101886
 11
785.666774
 21
1010.236413
  0
LINE
  8
CSLAYER1
  6
CONTINUOUS
 62
     7
 10
785.666774
 20
1010.236413
 11
781.173915
 21
1011.127904
  0
LINE
  8
CSLAYER1
  6
CONTINUOUS
 62
     7
 10
781.173915
 20
1011.127904
 11
776.574688
 21
1011.769574
  0
LINE
  8
CSLAYER1
  6
CONTINUOUS
 62
     7
 10
776.574688
 20
1011.769574
 11
771.904097
 21
1012.156540
  0
LINE
  8
CSLAYER1
  6
CONTINUOUS
 62
     7
 10
771.904097
 20
1012.156540
 11
767.197686
 21
1012.285857
  0
LINE
  8
CSLAYER1
  6
CONTINUOUS
 62
     7
 10
767.197686
 20
1012.285857
 11
762.491276
 21
1012.156540
  0
LINE
  8
CSLAYER1
  6
CONTINUOUS
 62
     7
 10
762.491276
 20
1012.156540
 11
757.820685
 21
1011.769574
  0
LINE
  8
CSLAYER1
  6
CONTINUOUS
 62
     7
 10
757.820685
 20
1011.769574
 11
753.221458
 21
1011.127904
  0
LINE
  8
CSLAYER1
  6
CONTINUOUS
 62
     7
 10
753.221458
 20
1011.127904
 11
748.728599
 21
1010.236413
  0
LINE
  8
CSLAYER1
  6
CONTINUOUS
 62
     7
 10
748.728599
 20
1010.236413
 11
744.376300
 21
1009.101886
  0
LINE
  8
CSLAYER1
  6
CONTINUOUS
 62
     7
 10
744.376300
 20
1009.101886
 11
740.197686
 21
1007.732958
  0
LINE
  8
CSLAYER1
  6
CONTINUOUS
 62
     7
 10
740.197686
 20
1007.732958
 11
736.224559
 21
1006.140046
  0
LINE
  8
CSLAYER1
  6
CONTINUOUS
 62
     7
 10
736.224559
 20
1006.140046
 11
732.487156
 21
1004.335275
  0
LINE
  8
CSLAYER1
  6
CONTINUOUS
 62
     7
 10
732.487156
 20
1004.335275
 11
729.013920
 21
1002.332378
  0
LINE
  8
CSLAYER1
  6
CONTINUOUS
 62
     7
 10
729.013920
 20
1002.332378
 11
725.831287
 21
1000.146601
  0
LINE
  8
CSLAYER1
  6
CONTINUOUS
 62
     7
 10
725.831287
 20
1000.146601
 11
722.963476
 21
997.794576
  0
LINE
  8
CSLAYER1
  6
CONTINUOUS
 62
     7
 10
722.963476
 20
997.794576
 11
720.432315
 21
995.294206
  0
LINE
  8
CSLAYER1
  6
CONTINUOUS
 62
     7
 10
720.432315
 20
995.294206
 11
718.257066
 21
992.664519
  0
LINE
  8
CSLAYER1
  6
CONTINUOUS
 62
     7
 10
718.257066
 20
992.664519
 11
716.454285
 21
989.925529
  0
LINE
  8
CSLAYER1
  6
CONTINUOUS
 62
     7
 10
716.454285
 20
989.925529
 11
715.037692
 21
987.098081
  0
LINE
  8
CSLAYER1
  6
CONTINUOUS
 62
     7
 10
715.037692
 20
987.098081
 11
714.018068
 21
984.203694
  0
LINE
  8
CSLAYER1
  6
CONTINUOUS
 62
     7
 10
714.018068
 20
984.203694
 11
713.403173
 21
981.264396
  0
LINE
  8
CSLAYER1
  6
CONTINUOUS
 62
     7
 10
827.197686
 20
964.292146
 11
826.969368
 21
967.583079
  0
LINE
  8
CSLAYER1
  6
CONTINUOUS
 62
     7
 10
826.969368
 20
967.583079
 11
826.286152
 21
970.848967
  0
LINE
  8
CSLAYER1
  6
CONTINUOUS
 62
     7
 10
826.286152
 20
970.848967
 11
825.153236
 21
974.064952
  0
LINE
  8
CSLAYER1
  6
CONTINUOUS
 62
     7
 10
825.153236
 20
974.064952
 11
823.579244
 21
977.206561
  0
LINE
  8
CSLAYER1
  6
CONTINUOUS
 62
     7
 10
823.579244
 20
977.206561
 11
821.576154
 21
980.249884
  0
LINE
  8
CSLAYER1
  6
CONTINUOUS
 62
     7
 10
821.576154
 20
980.249884
 11
819.159211
 21
983.171758
  0
LINE
  8
CSLAYER1
  6
CONTINUOUS
 62
     7
 10
819.159211
 20
983.171758
 11
816.346809
 21
985.949947
  0
LINE
  8
CSLAYER1
  6
CONTINUOUS
 62
     7
 10
816.346809
 20
985.949947
 11
813.160353
 21
988.563307
  0
LINE
  8
CSLAYER1
  6
CONTINUOUS
 62
     7
 10
813.160353
 20
988.563307
 11
809.624093
 21
990.991949
  0
LINE
  8
CSLAYER1
  6
CONTINUOUS
 62
     7
 10
809.624093
 20
990.991949
 11
805.764943
 21
993.217390
  0
LINE
  8
CSLAYER1
  6
CONTINUOUS
 62
     7
 10
805.764943
 20
993.217390
 11
801.612273
 21
995.222691
  0
LINE
  8
CSLAYER1
  6
CONTINUOUS
 62
     7
 10
801.612273
 20
995.222691
 11
797.197686
 21
996.992593
  0
LINE
  8
CSLAYER1
  6
CONTINUOUS
 62
     7
 10
797.197686
 20
996.992593
 11
792.554782
 21
998.513624
  0
LINE
  8
CSLAYER1
  6
CONTINUOUS
 62
     7
 10
792.554782
 20
998.513624
 11
787.718895
 21
999.774210
  0
LINE
  8
CSLAYER1
  6
CONTINUOUS
 62
     7
 10
787.718895
 20
999.774210
 11
782.726829
 21
1000.764755
  0
LINE
  8
CSLAYER1
  6
CONTINUOUS
 62
     7
 10
782.726829
 20
1000.764755
 11
777.616577
 21
1001.477722
  0
LINE
  8
CSLAYER1
  6
CONTINUOUS
 62
     7
 10
777.616577
 20
1001.477722
 11
772.427031
 21
1001.907684
  0
LINE
  8
CSLAYER1
  6
CONTINUOUS
 62
     7
 10
772.427031
 20
1001.907684
 11
767.197686
 21
1002.051370
  0
LINE
  8
CSLAYER1
  6
CONTINUOUS
 62
     7
 10
767.197686
 20
1002.051370
 11
761.968342
 21
1001.907684
  0
LINE
  8
CSLAYER1
  6
CONTINUOUS
 62
     7
 10
761.968342
 20
1001.907684
 11
756.778796
 21
1001.477722
  0
LINE
  8
CSLAYER1
  6
CONTINUOUS
 62
     7
 10
756.778796
 20
1001.477722
 11
751.668544
 21
1000.764755
  0
LINE
  8
CSLAYER1
  6
CONTINUOUS
 62
     7
 10
751.668544
 20
1000.764755
 11
746.676478
 21
999.774210
  0
LINE
  8
CSLAYER1
  6
CONTINUOUS
 62
     7
 10
746.676478
 20
999.774210
 11
741.840591
 21
998.513624
  0
LINE
  8
CSLAYER1
  6
CONTINUOUS
 62
     7
 10
741.840591
 20
998.513624
 11
737.197686
 21
996.992593
  0
LINE
  8
CSLAYER1
  6
CONTINUOUS
 62
     7
 10
737.197686
 20
996.992593
 11
732.783100
 21
995.222691
  0
LINE
  8
CSLAYER1
  6
CONTINUOUS
 62
     7
 10
732.783100
 20
995.222691
 11
728.630430
 21
993.217390
  0
LINE
  8
CSLAYER1
  6
CONTINUOUS
 62
     7
 10
728.630430
 20
993.217390
 11
724.771280
 21
990.991949
  0
LINE
  8
CSLAYER1
  6
CONTINUOUS
 62
     7
 10
724.771280
 20
990.991949
 11
721.235020
 21
988.563307
  0
LINE
  8
CSLAYER1
  6
CONTINUOUS
 62
     7
 10
721.235020
 20
988.563307
 11
718.048564
 21
985.949947
  0
LINE
  8
CSLAYER1
  6
CONTINUOUS
 62
     7
 10
718.048564
 20
985.949947
 11
715.236162
 21
983.171758
  0
LINE
  8
CSLAYER1
  6
CONTINUOUS
 62
     7
 10
715.236162
 20
983.171758
 11
712.819219
 21
980.249884
  0
LINE
  8
CSLAYER1
  6
CONTINUOUS
 62
     7
 10
712.819219
 20
980.249884
 11
710.816129
 21
977.206561
  0
LINE
  8
CSLAYER1
  6
CONTINUOUS
 62
     7
 10
710.816129
 20
977.206561
 11
709.242137
 21
974.064952
  0
LINE
  8
CSLAYER1
  6
CONTINUOUS
 62
     7
 10
709.242137
 20
974.064952
 11
708.109221
 21
970.848967
  0
LINE
  8
CSLAYER1
  6
CONTINUOUS
 62
     7
 10
708.109221
 20
970.848967
 11
707.426005
 21
967.583079
  0
LINE
  8
CSLAYER1
  6
CONTINUOUS
 62
     7
 10
707.426005
 20
967.583079
 11
707.197686
 21
964.292146
  0
LINE
  8
CSLAYER1
  6
CONTINUOUS
 62
     7
 10
821.197686
 20
1004.766662
 11
821.197686
 21
980.707418
  0
LINE
  8
CSLAYER1
  6
CONTINUOUS
 62
     7
 10
819.197686
 20
871.055707
 11
819.197686
 21
982.330136
  0
LINE
  8
CSLAYER1
  6
CONTINUOUS
 62
     7
 10
799.197686
 20
883.263343
 11
799.197686
 21
996.190750
  0
LINE
  8
CSLAYER1
  6
CONTINUOUS
 62
     7
 10
792.197686
 20
885.549412
 11
792.197686
 21
998.606710
  0
LINE
  8
CSLAYER1
  6
CONTINUOUS
 62
     7
 10
784.197686
 20
887.373024
 11
784.197686
 21
1000.472902
  0
LINE
  8
CSLAYER1
  6
CONTINUOUS
 62
     7
 10
713.197686
 20
1004.766662
 11
713.197686
 21
980.927584
  0
LINE
  8
CSLAYER1
  6
CONTINUOUS
 62
     7
 10
707.197686
 20
964.292146
 11
707.197686
 21
859.652737
  0
LINE
  8
CSLAYER1
  6
CONTINUOUS
 62
     7
 10
827.197686
 20
964.292146
 11
827.197686
 21
858.934736
  0
LINE
  8
CSLAYER1
  6
CONTINUOUS
 62
     7
 10
750.197686
 20
887.373024
 11
750.197686
 21
1000.472902
  0
LINE
  8
CSLAYER1
  6
CONTINUOUS
 62
     7
 10
742.197686
 20
885.549412
 11
742.197686
 21
998.606710
  0
LINE
  8
CSLAYER1
  6
CONTINUOUS
 62
     7
 10
735.197686
 20
883.263343
 11
735.197686
 21
996.190750
  0
LINE
  8
CSLAYER1
  6
CONTINUOUS
 62
     7
 10
715.197686
 20
871.055707
 11
715.197686
 21
982.330136
  0
LINE
  8
CSLAYER1
  6
CONTINUOUS
 62
     5
 10
813.147686
 20
1044.342001
 11
813.147686
 21
1025.786097
  0
LINE
  8
CSLAYER1
  6
CONTINUOUS
 62
     7
 10
824.360933
 20
975.646349
 11
833.197686
 21
975.646349
  0
LINE
  8
CSLAYER1
  6
CONTINUOUS
 62
     7
 10
812.197686
 20
1049.415561
 11
722.197686
 21
1049.415561
  0
LINE
  8
CSLAYER1
  6
CONTINUOUS
 62
     7
 10
812.197686
 20
1039.296931
 11
722.197686
 21
1039.296931
  0
LINE
  8
CSLAYER1
  6
CONTINUOUS
 62
     7
 10
822.197686
 20
1039.415561
 11
822.197686
 21
979.305580
  0
ARC
  8
CSLAYER1
  6
CONTINUOUS
 62
     7
 10
812.197686
 20
1039.415561
 40
10.000000
 50
0.000000
 51
90.000000
  0
ARC
  8
CSLAYER1
  6
CONTINUOUS
 62
     7
 10
812.197686
 20
1029.296931
 40
10.000000
 50
0.000000
 51
90.000000
  0
LINE
  8
CSLAYER1
  6
CONTINUOUS
 62
     5
 10
805.323405
 20
1033.622629
 11
818.834986
 21
1033.622629
  0
LINE
  8
CSLAYER1
  6
CONTINUOUS
 62
     5
 10
721.247686
 20
1044.342001
 11
721.247686
 21
1025.786097
  0
ARC
  8
CSLAYER1
  6
CONTINUOUS
 62
     7
 10
722.197686
 20
1039.415561
 40
10.000000
 50
90.000000
 51
180.000000
  0
ARC
  8
CSLAYER1
  6
CONTINUOUS
 62
     7
 10
722.197686
 20
1029.296931
 40
10.000000
 50
90.000000
 51
180.000000
  0
LINE
  8
CSLAYER1
  6
CONTINUOUS
 62
     7
 10
712.197686
 20
1039.415561
 11
712.197686
 21
979.305580
  0
LINE
  8
CSLAYER1
  6
CONTINUOUS
 62
     7
 10
829.197686
 20
805.507506
 11
828.961758
 21
808.908137
  0
LINE
  8
CSLAYER1
  6
CONTINUOUS
 62
     7
 10
828.961758
 20
808.908137
 11
828.255767
 21
812.282887
  0
LINE
  8
CSLAYER1
  6
CONTINUOUS
 62
     7
 10
828.255767
 20
812.282887
 11
827.085088
 21
815.606072
  0
LINE
  8
CSLAYER1
  6
CONTINUOUS
 62
     7
 10
827.085088
 20
815.606072
 11
825.458629
 21
818.852401
  0
LINE
  8
CSLAYER1
  6
CONTINUOUS
 62
     7
 10
825.458629
 20
818.852401
 11
823.388769
 21
821.997168
  0
LINE
  8
CSLAYER1
  6
CONTINUOUS
 62
     7
 10
823.388769
 20
821.997168
 11
820.891261
 21
825.016438
  0
LINE
  8
CSLAYER1
  6
CONTINUOUS
 62
     7
 10
820.891261
 20
825.016438
 11
817.985113
 21
827.887233
  0
LINE
  8
CSLAYER1
  6
CONTINUOUS
 62
     7
 10
817.985113
 20
827.887233
 11
814.692442
 21
830.587705
  0
LINE
  8
CSLAYER1
  6
CONTINUOUS
 62
     7
 10
814.692442
 20
830.587705
 11
811.038307
 21
833.097302
  0
LINE
  8
CSLAYER1
  6
CONTINUOUS
 62
     7
 10
811.038307
 20
833.097302
 11
807.050518
 21
835.396924
  0
LINE
  8
CSLAYER1
  6
CONTINUOUS
 62
     7
 10
807.050518
 20
835.396924
 11
802.759426
 21
837.469069
  0
LINE
  8
CSLAYER1
  6
CONTINUOUS
 62
     7
 10
802.759426
 20
837.469069
 11
798.197686
 21
839.297967
  0
LINE
  8
CSLAYER1
  6
CONTINUOUS
 62
     7
 10
798.197686
 20
839.297967
 11
793.400019
 21
840.869700
  0
LINE
  8
CSLAYER1
  6
CONTINUOUS
 62
     7
 10
793.400019
 20
840.869700
 11
788.402935
 21
842.172305
  0
LINE
  8
CSLAYER1
  6
CONTINUOUS
 62
     7
 10
788.402935
 20
842.172305
 11
783.244467
 21
843.195869
  0
LINE
  8
CSLAYER1
  6
CONTINUOUS
 62
     7
 10
783.244467
 20
843.195869
 11
777.963873
 21
843.932601
  0
LINE
  8
CSLAYER1
  6
CONTINUOUS
 62
     7
 10
777.963873
 20
843.932601
 11
772.601343
 21
844.376895
  0
LINE
  8
CSLAYER1
  6
CONTINUOUS
 62
     7
 10
772.601343
 20
844.376895
 11
767.197686
 21
844.525370
  0
LINE
  8
CSLAYER1
  6
CONTINUOUS
 62
     7
 10
767.197686
 20
844.525370
 11
761.794030
 21
844.376895
  0
LINE
  8
CSLAYER1
  6
CONTINUOUS
 62
     7
 10
761.794030
 20
844.376895
 11
756.431499
 21
843.932601
  0
LINE
  8
CSLAYER1
  6
CONTINUOUS
 62
     7
 10
756.431499
 20
843.932601
 11
751.150906
 21
843.195869
  0
LINE
  8
CSLAYER1
  6
CONTINUOUS
 62
     7
 10
751.150906
 20
843.195869
 11
745.992438
 21
842.172305
  0
LINE
  8
CSLAYER1
  6
CONTINUOUS
 62
     7
 10
745.992438
 20
842.172305
 11
740.995354
 21
840.869700
  0
LINE
  8
CSLAYER1
  6
CONTINUOUS
 62
     7
 10
740.995354
 20
840.869700
 11
736.197686
 21
839.297967
  0
LINE
  8
CSLAYER1
  6
CONTINUOUS
 62
     7
 10
736.197686
 20
839.297967
 11
731.635947
 21
837.469069
  0
LINE
  8
CSLAYER1
  6
CONTINUOUS
 62
     7
 10
731.635947
 20
837.469069
 11
727.344855
 21
835.396924
  0
LINE
  8
CSLAYER1
  6
CONTINUOUS
 62
     7
 10
727.344855
 20
835.396924
 11
723.357066
 21
833.097302
  0
LINE
  8
CSLAYER1
  6
CONTINUOUS
 62
     7
 10
723.357066
 20
833.097302
 11
719.702931
 21
830.587705
  0
LINE
  8
CSLAYER1
  6
CONTINUOUS
 62
     7
 10
719.702931
 20
830.587705
 11
716.410260
 21
827.887233
  0
LINE
  8
CSLAYER1
  6
CONTINUOUS
 62
     7
 10
716.410260
 20
827.887233
 11
713.504111
 21
825.016438
  0
LINE
  8
CSLAYER1
  6
CONTINUOUS
 62
     7
 10
713.504111
 20
825.016438
 11
711.006604
 21
821.997168
  0
LINE
  8
CSLAYER1
  6
CONTINUOUS
 62
     7
 10
711.006604
 20
821.997168
 11
708.936744
 21
818.852401
  0
LINE
  8
CSLAYER1
  6
CONTINUOUS
 62
     7
 10
708.936744
 20
818.852401
 11
707.310285
 21
815.606072
  0
LINE
  8
CSLAYER1
  6
CONTINUOUS
 62
     7
 10
707.310285
 20
815.606072
 11
706.139606
 21
812.282887
  0
LINE
  8
CSLAYER1
  6
CONTINUOUS
 62
     7
 10
706.139606
 20
812.282887
 11
705.433615
 21
808.908137
  0
LINE
  8
CSLAYER1
  6
CONTINUOUS
 62
     7
 10
705.433615
 20
808.908137
 11
705.197686
 21
805.507506
  0
LINE
  8
CSLAYER1
  6
CONTINUOUS
 62
     7
 10
705.197686
 20
805.507506
 11
705.433615
 21
802.106875
  0
LINE
  8
CSLAYER1
  6
CONTINUOUS
 62
     7
 10
829.197686
 20
849.873802
 11
828.961758
 21
853.274433
  0
LINE
  8
CSLAYER1
  6
CONTINUOUS
 62
     7
 10
828.961758
 20
853.274433
 11
828.255767
 21
856.649183
  0
LINE
  8
CSLAYER1
  6
CONTINUOUS
 62
     7
 10
828.255767
 20
856.649183
 11
827.085088
 21
859.972369
  0
LINE
  8
CSLAYER1
  6
CONTINUOUS
 62
     7
 10
827.085088
 20
859.972369
 11
825.458629
 21
863.218698
  0
LINE
  8
CSLAYER1
  6
CONTINUOUS
 62
     7
 10
825.458629
 20
863.218698
 11
823.388769
 21
866.363464
  0
LINE
  8
CSLAYER1
  6
CONTINUOUS
 62
     7
 10
823.388769
 20
866.363464
 11
820.891261
 21
869.382734
  0
LINE
  8
CSLAYER1
  6
CONTINUOUS
 62
     7
 10
820.891261
 20
869.382734
 11
817.985113
 21
872.253530
  0
LINE
  8
CSLAYER1
  6
CONTINUOUS
 62
     7
 10
817.985113
 20
872.253530
 11
814.692442
 21
874.954002
  0
LINE
  8
CSLAYER1
  6
CONTINUOUS
 62
     7
 10
814.692442
 20
874.954002
 11
811.038307
 21
877.463599
  0
LINE
  8
CSLAYER1
  6
CONTINUOUS
 62
     7
 10
811.038307
 20
877.463599
 11
807.050518
 21
879.763220
  0
LINE
  8
CSLAYER1
  6
CONTINUOUS
 62
     7
 10
807.050518
 20
879.763220
 11
802.759426
 21
881.835366
  0
LINE
  8
CSLAYER1
  6
CONTINUOUS
 62
     7
 10
802.759426
 20
881.835366
 11
798.197686
 21
883.664264
  0
LINE
  8
CSLAYER1
  6
CONTINUOUS
 62
     7
 10
798.197686
 20
883.664264
 11
793.400019
 21
885.235997
  0
LINE
  8
CSLAYER1
  6
CONTINUOUS
 62
     7
 10
793.400019
 20
885.235997
 11
788.402935
 21
886.538601
  0
LINE
  8
CSLAYER1
  6
CONTINUOUS
 62
     7
 10
788.402935
 20
886.538601
 11
783.244467
 21
887.562165
  0
LINE
  8
CSLAYER1
  6
CONTINUOUS
 62
     7
 10
783.244467
 20
887.562165
 11
777.963873
 21
888.298898
  0
LINE
  8
CSLAYER1
  6
CONTINUOUS
 62
     7
 10
777.963873
 20
888.298898
 11
772.601343
 21
888.743192
  0
LINE
  8
CSLAYER1
  6
CONTINUOUS
 62
     7
 10
772.601343
 20
888.743192
 11
767.197686
 21
888.891667
  0
LINE
  8
CSLAYER1
  6
CONTINUOUS
 62
     7
 10
767.197686
 20
888.891667
 11
761.794030
 21
888.743192
  0
LINE
  8
CSLAYER1
  6
CONTINUOUS
 62
     7
 10
761.794030
 20
888.743192
 11
756.431499
 21
888.298898
  0
LINE
  8
CSLAYER1
  6
CONTINUOUS
 62
     7
 10
756.431499
 20
888.298898
 11
751.150906
 21
887.562165
  0
LINE
  8
CSLAYER1
  6
CONTINUOUS
 62
     7
 10
751.150906
 20
887.562165
 11
745.992438
 21
886.538601
  0
LINE
  8
CSLAYER1
  6
CONTINUOUS
 62
     7
 10
745.992438
 20
886.538601
 11
740.995354
 21
885.235997
  0
LINE
  8
CSLAYER1
  6
CONTINUOUS
 62
     7
 10
740.995354
 20
885.235997
 11
736.197686
 21
883.664264
  0
LINE
  8
CSLAYER1
  6
CONTINUOUS
 62
     7
 10
736.197686
 20
883.664264
 11
731.635947
 21
881.835366
  0
LINE
  8
CSLAYER1
  6
CONTINUOUS
 62
     7
 10
731.635947
 20
881.835366
 11
727.344855
 21
879.763220
  0
LINE
  8
CSLAYER1
  6
CONTINUOUS
 62
     7
 10
727.344855
 20
879.763220
 11
723.357066
 21
877.463599
  0
LINE
  8
CSLAYER1
  6
CONTINUOUS
 62
     7
 10
723.357066
 20
877.463599
 11
719.702931
 21
874.954002
  0
LINE
  8
CSLAYER1
  6
CONTINUOUS
 62
     7
 10
719.702931
 20
874.954002
 11
716.410260
 21
872.253530
  0
LINE
  8
CSLAYER1
  6
CONTINUOUS
 62
     7
 10
716.410260
 20
872.253530
 11
713.504111
 21
869.382734
  0
LINE
  8
CSLAYER1
  6
CONTINUOUS
 62
     7
 10
713.504111
 20
869.382734
 11
711.006604
 21
866.363464
  0
LINE
  8
CSLAYER1
  6
CONTINUOUS
 62
     7
 10
711.006604
 20
866.363464
 11
708.936744
 21
863.218698
  0
LINE
  8
CSLAYER1
  6
CONTINUOUS
 62
     7
 10
708.936744
 20
863.218698
 11
707.310285
 21
859.972369
  0
LINE
  8
CSLAYER1
  6
CONTINUOUS
 62
     7
 10
707.310285
 20
859.972369
 11
706.139606
 21
856.649183
  0
LINE
  8
CSLAYER1
  6
CONTINUOUS
 62
     7
 10
706.139606
 20
856.649183
 11
705.433615
 21
853.274433
  0
LINE
  8
CSLAYER1
  6
CONTINUOUS
 62
     7
 10
705.433615
 20
853.274433
 11
705.197686
 21
849.873802
  0
LINE
  8
CSLAYER1
  6
CONTINUOUS
 62
     5
 10
833.068266
 20
915.346556
 11
848.627103
 21
915.346556
  0
LINE
  8
CSLAYER1
  6
CONTINUOUS
 62
     5
 10
840.697686
 20
906.661065
 11
840.697686
 21
924.484754
  0
LINE
  8
CSLAYER1
  6
CONTINUOUS
 62
     7
 10
831.163116
 20
826.331865
 11
849.197686
 21
826.331865
  0
LINE
  8
CSLAYER1
  6
CONTINUOUS
 62
     7
 10
831.163116
 20
926.846556
 11
849.197686
 21
926.846556
  0
LINE
  8
CSLAYER1
  6
CONTINUOUS
 62
     7
 10
852.197686
 20
923.846556
 11
852.197686
 21
829.331865
  0
LINE
  8
CSLAYER1
  6
CONTINUOUS
 62
     7
 10
831.163116
 20
826.331865
 11
831.163116
 21
926.846556
  0
LINE
  8
CSLAYER1
  6
CONTINUOUS
 62
     7
 10
828.750237
 20
854.285537
 11
831.163116
 21
854.285537
  0
CIRCLE
  8
CSLAYER1
  6
CONTINUOUS
 62
     7
 10
840.697686
 20
915.346556
 40
6.250000
  0
LINE
  8
CSLAYER1
  6
CONTINUOUS
 62
     7
 10
827.197686
 20
881.266448
 11
831.163116
 21
881.266448
  0
ARC
  8
CSLAYER1
  6
CONTINUOUS
 62
     7
 10
849.197686
 20
829.331865
 40
3.000000
 50
270.000000
 51
360.000000
  0
ARC
  8
CSLAYER1
  6
CONTINUOUS
 62
     7
 10
849.197686
 20
923.846556
 40
3.000000
 50
0.000000
 51
90.000000
  0
LINE
  8
CSLAYER1
  6
CONTINUOUS
 62
     7
 10
829.197686
 20
849.873802
 11
829.197686
 21
805.507506
  0
LINE
  8
CSLAYER1
  6
CONTINUOUS
 62
     7
 10
705.197686
 20
849.873802
 11
705.197686
 21
805.507506
  0
LINE
  8
CSLAYER1
  6
CONTINUOUS
 62
     7
 10
831.163116
 20
865.745603
 11
852.197686
 21
865.745603
  0
LINE
  8
CSLAYER1
  6
CONTINUOUS
 62
     7
 10
829.197686
 20
805.507506
 11
828.961758
 21
802.106875
  0
LINE
  8
CSLAYER1
  6
CONTINUOUS
 62
     7
 10
828.961758
 20
802.106875
 11
828.255767
 21
798.732125
  0
LINE
  8
CSLAYER1
  6
CONTINUOUS
 62
     7
 10
828.255767
 20
798.732125
 11
827.085088
 21
795.408939
  0
LINE
  8
CSLAYER1
  6
CONTINUOUS
 62
     7
 10
827.085088
 20
795.408939
 11
825.458629
 21
792.162610
  0
LINE
  8
CSLAYER1
  6
CONTINUOUS
 62
     7
 10
825.458629
 20
792.162610
 11
823.388769
 21
789.017844
  0
LINE
  8
CSLAYER1
  6
CONTINUOUS
 62
     7
 10
823.388769
 20
789.017844
 11
820.891261
 21
785.998574
  0
LINE
  8
CSLAYER1
  6
CONTINUOUS
 62
     7
 10
820.891261
 20
785.998574
 11
817.985113
 21
783.127778
  0
LINE
  8
CSLAYER1
  6
CONTINUOUS
 62
     7
 10
817.985113
 20
783.127778
 11
814.692442
 21
780.427306
  0
LINE
  8
CSLAYER1
  6
CONTINUOUS
 62
     7
 10
814.692442
 20
780.427306
 11
811.038307
 21
777.917709
  0
LINE
  8
CSLAYER1
  6
CONTINUOUS
 62
     7
 10
811.038307
 20
777.917709
 11
807.050518
 21
775.618088
  0
LINE
  8
CSLAYER1
  6
CONTINUOUS
 62
     7
 10
807.050518
 20
775.618088
 11
802.759426
 21
773.545943
  0
LINE
  8
CSLAYER1
  6
CONTINUOUS
 62
     7
 10
802.759426
 20
773.545943
 11
798.197686
 21
771.717044
  0
LINE
  8
CSLAYER1
  6
CONTINUOUS
 62
     7
 10
798.197686
 20
771.717044
 11
793.400019
 21
770.145312
  0
LINE
  8
CSLAYER1
  6
CONTINUOUS
 62
     7
 10
793.400019
 20
770.145312
 11
788.402935
 21
768.842707
  0
LINE
  8
CSLAYER1
  6
CONTINUOUS
 62
     7
 10
788.402935
 20
768.842707
 11
783.244467
 21
767.819143
  0
LINE
  8
CSLAYER1
  6
CONTINUOUS
 62
     7
 10
783.244467
 20
767.819143
 11
777.963873
 21
767.082411
  0
LINE
  8
CSLAYER1
  6
CONTINUOUS
 62
     7
 10
777.963873
 20
767.082411
 11
772.601343
 21
766.638116
  0
LINE
  8
CSLAYER1
  6
CONTINUOUS
 62
     7
 10
772.601343
 20
766.638116
 11
767.197686
 21
766.489642
  0
LINE
  8
CSLAYER1
  6
CONTINUOUS
 62
     7
 10
767.197686
 20
766.489642
 11
761.794030
 21
766.638116
  0
LINE
  8
CSLAYER1
  6
CONTINUOUS
 62
     7
 10
761.794030
 20
766.638116
 11
756.431499
 21
767.082411
  0
LINE
  8
CSLAYER1
  6
CONTINUOUS
 62
     7
 10
756.431499
 20
767.082411
 11
751.150906
 21
767.819143
  0
LINE
  8
CSLAYER1
  6
CONTINUOUS
 62
     7
 10
751.150906
 20
767.819143
 11
745.992438
 21
768.842707
  0
LINE
  8
CSLAYER1
  6
CONTINUOUS
 62
     7
 10
745.992438
 20
768.842707
 11
740.995354
 21
770.145312
  0
LINE
  8
CSLAYER1
  6
CONTINUOUS
 62
     7
 10
740.995354
 20
770.145312
 11
736.197686
 21
771.717044
  0
LINE
  8
CSLAYER1
  6
CONTINUOUS
 62
     7
 10
736.197686
 20
771.717044
 11
731.635947
 21
773.545943
  0
LINE
  8
CSLAYER1
  6
CONTINUOUS
 62
     7
 10
731.635947
 20
773.545943
 11
727.344855
 21
775.618088
  0
LINE
  8
CSLAYER1
  6
CONTINUOUS
 62
     7
 10
727.344855
 20
775.618088
 11
723.357066
 21
777.917709
  0
LINE
  8
CSLAYER1
  6
CONTINUOUS
 62
     7
 10
723.357066
 20
777.917709
 11
719.702931
 21
780.427306
  0
LINE
  8
CSLAYER1
  6
CONTINUOUS
 62
     7
 10
719.702931
 20
780.427306
 11
716.410260
 21
783.127778
  0
LINE
  8
CSLAYER1
  6
CONTINUOUS
 62
     7
 10
716.410260
 20
783.127778
 11
713.504111
 21
785.998574
  0
LINE
  8
CSLAYER1
  6
CONTINUOUS
 62
     7
 10
713.504111
 20
785.998574
 11
711.006604
 21
789.017844
  0
LINE
  8
CSLAYER1
  6
CONTINUOUS
 62
     7
 10
711.006604
 20
789.017844
 11
708.936744
 21
792.162610
  0
LINE
  8
CSLAYER1
  6
CONTINUOUS
 62
     7
 10
708.936744
 20
792.162610
 11
707.310285
 21
795.408939
  0
LINE
  8
CSLAYER1
  6
CONTINUOUS
 62
     7
 10
707.310285
 20
795.408939
 11
706.139606
 21
798.732125
  0
LINE
  8
CSLAYER1
  6
CONTINUOUS
 62
     7
 10
706.139606
 20
798.732125
 11
705.433615
 21
802.106875
  0
LINE
  8
CSLAYER1
  6
CONTINUOUS
 62
     3
 10
727.197686
 20
717.588848
 11
727.197686
 21
684.088848
  0
LINE
  8
CSLAYER1
  6
CONTINUOUS
 62
     3
 10
725.197686
 20
717.588848
 11
725.197686
 21
723.588848
  0
LINE
  8
CSLAYER1
  6
CONTINUOUS
 62
     3
 10
725.197686
 20
723.588848
 11
900.347752
 21
723.588848
  0
LINE
  8
CSLAYER1
  6
CONTINUOUS
 62
     3
 10
725.197686
 20
717.588848
 11
727.197686
 21
717.588848
  0
INSERT
  8
CSLAYER1
  2
BLKF0001
 10
0.0
 20
0.0
 30
0.0
  0
LINE
  8
CSLAYER1
  6
CONTINUOUS
 62
     5
 10
727.197686
 20
717.588848
 11
899.616376
 21
717.588848
  0
LINE
  8
CSLAYER1
  6
CONTINUOUS
 62
     3
 10
3192.334035
 20
717.588848
 11
3192.334035
 21
684.088848
  0
LINE
  8
CSLAYER1
  6
CONTINUOUS
 62
     3
 10
3052.934035
 20
717.588848
 11
3052.934035
 21
684.088848
  0
LINE
  8
CSLAYER1
  6
CONTINUOUS
 62
     5
 10
3122.634035
 20
731.378477
 11
3122.634035
 21
719.678902
  0
LINE
  8
CSLAYER1
  6
CONTINUOUS
 62
     3
 10
3194.134035
 20
723.588848
 11
3051.134035
 21
723.588848
  0
LINE
  8
CSLAYER1
  6
CONTINUOUS
 62
     3
 10
3194.134035
 20
717.588848
 11
3192.334035
 21
717.588848
  0
LINE
  8
CSLAYER1
  6
CONTINUOUS
 62
     3
 10
3194.134035
 20
723.588848
 11
3194.134035
 21
717.588848
  0
LINE
  8
CSLAYER1
  6
CONTINUOUS
 62
     3
 10
3051.134035
 20
723.588848
 11
3051.134035
 21
717.588848
  0
LINE
  8
CSLAYER1
  6
CONTINUOUS
 62
     5
 10
3222.334035
 20
707.888848
 11
3222.334035
 21
690.888848
  0
LINE
  8
CSLAYER1
  6
CONTINUOUS
 62
     5
 10
3218.364468
 20
712.379229
 11
3203.736598
 21
712.379229
  0
LINE
  8
CSLAYER1
  6
CONTINUOUS
 62
     5
 10
3219.224940
 20
710.888848
 11
3219.224940
 21
687.888848
  0
LINE
  8
CSLAYER1
  6
CONTINUOUS
 62
     5
 10
3202.876126
 20
710.888848
 11
3202.876126
 21
687.888848
  0
LINE
  8
CSLAYER1
  6
CONTINUOUS
 62
     5
 10
3219.224940
 20
710.888848
 11
3218.364468
 21
712.379229
  0
LINE
  8
CSLAYER1
  6
CONTINUOUS
 62
     5
 10
3202.876126
 20
710.888848
 11
3203.736598
 21
712.379229
  0
LINE
  8
CSLAYER1
  6
CONTINUOUS
 62
     5
 10
3218.364468
 20
706.028376
 11
3203.736598
 21
706.028376
  0
ARC
  8
CSLAYER1
  6
CONTINUOUS
 62
     5
 10
3193.178915
 20
699.388848
 40
26.046025
 50
-14.768561
 51
14.768561
  0
ARC
  8
CSLAYER1
  6
CONTINUOUS
 62
     5
 10
3213.093347
 20
709.203803
 40
6.153702
 50
-31.065581
 51
23.174644
  0
ARC
  8
CSLAYER1
  6
CONTINUOUS
 62
     5
 10
3209.007719
 20
709.203803
 40
6.153702
 50
156.825356
 51
211.065581
  0
ARC
  8
CSLAYER1
  6
CONTINUOUS
 62
     5
 10
3228.922151
 20
699.388848
 40
26.046025
 50
165.231439
 51
194.768561
  0
LINE
  8
CSLAYER1
  6
CONTINUOUS
 62
     5
 10
3219.334035
 20
710.888848
 11
3219.224940
 21
710.888848
  0
ARC
  8
CSLAYER1
  6
CONTINUOUS
 62
     5
 10
3219.334035
 20
707.888848
 40
3.000000
 50
0.000000
 51
90.000000
  0
LINE
  8
CSLAYER1
  6
CONTINUOUS
 62
     5
 10
3199.334035
 20
710.888848
 11
3199.334035
 21
687.888848
  0
LINE
  8
CSLAYER1
  6
CONTINUOUS
 62
     5
 10
3199.334035
 20
710.888848
 11
3198.473563
 21
712.379229
  0
ARC
  8
CSLAYER1
  6
CONTINUOUS
 62
     5
 10
3173.288010
 20
699.388848
 40
26.046025
 50
-14.768561
 51
14.768561
  0
ARC
  8
CSLAYER1
  6
CONTINUOUS
 62
     5
 10
3193.202441
 20
709.203803
 40
6.153702
 50
-31.065581
 51
23.174644
  0
LINE
  8
CSLAYER1
  6
CONTINUOUS
 62
     5
 10
3198.473563
 20
706.028376
 11
3192.334035
 21
706.028376
  0
LINE
  8
CSLAYER1
  6
CONTINUOUS
 62
     5
 10
3198.473563
 20
712.379229
 11
3192.334035
 21
712.379229
  0
LINE
  8
CSLAYER1
  6
CONTINUOUS
 62
     5
 10
3202.876126
 20
709.724972
 11
3199.334035
 21
709.724972
  0
LINE
  8
CSLAYER1
  6
CONTINUOUS
 62
     5
 10
3202.876126
 20
709.078594
 11
3201.269764
 21
709.078594
  0
LINE
  8
CSLAYER1
  6
CONTINUOUS
 62
     5
 10
3201.269764
 20
709.724972
 11
3201.269764
 21
689.052724
  0
LINE
  8
CSLAYER1
  6
CONTINUOUS
 62
     5
 10
3201.269764
 20
709.078594
 11
3200.134912
 21
709.724972
  0
LINE
  8
CSLAYER1
  6
CONTINUOUS
 62
     5
 10
3218.364468
 20
686.398467
 11
3203.736598
 21
686.398467
  0
LINE
  8
CSLAYER1
  6
CONTINUOUS
 62
     5
 10
3219.224940
 20
687.888848
 11
3218.364468
 21
686.398467
  0
LINE
  8
CSLAYER1
  6
CONTINUOUS
 62
     5
 10
3202.876126
 20
687.888848
 11
3203.736598
 21
686.398467
  0
LINE
  8
CSLAYER1
  6
CONTINUOUS
 62
     5
 10
3218.364468
 20
692.749320
 11
3203.736598
 21
692.749320
  0
ARC
  8
CSLAYER1
  6
CONTINUOUS
 62
     5
 10
3213.093347
 20
689.573893
 40
6.153702
 50
-23.174644
 51
31.065581
  0
ARC
  8
CSLAYER1
  6
CONTINUOUS
 62
     5
 10
3209.007719
 20
689.573893
 40
6.153702
 50
148.934419
 51
203.174644
  0
LINE
  8
CSLAYER1
  6
CONTINUOUS
 62
     5
 10
3219.334035
 20
687.888848
 11
3219.224940
 21
687.888848
  0
ARC
  8
CSLAYER1
  6
CONTINUOUS
 62
     5
 10
3219.334035
 20
690.888848
 40
3.000000
 50
270.000000
 51
360.000000
  0
LINE
  8
CSLAYER1
  6
CONTINUOUS
 62
     5
 10
3199.334035
 20
687.888848
 11
3198.473563
 21
686.398467
  0
ARC
  8
CSLAYER1
  6
CONTINUOUS
 62
     5
 10
3193.202441
 20
689.573893
 40
6.153702
 50
-23.174644
 51
31.065581
  0
LINE
  8
CSLAYER1
  6
CONTINUOUS
 62
     5
 10
3198.473563
 20
692.749320
 11
3192.334035
 21
692.749320
  0
LINE
  8
CSLAYER1
  6
CONTINUOUS
 62
     5
 10
3198.473563
 20
686.398467
 11
3192.334035
 21
686.398467
  0
LINE
  8
CSLAYER1
  6
CONTINUOUS
 62
     5
 10
3202.876126
 20
689.052724
 11
3199.334035
 21
689.052724
  0
LINE
  8
CSLAYER1
  6
CONTINUOUS
 62
     5
 10
3202.876126
 20
689.699101
 11
3201.269764
 21
689.699101
  0
LINE
  8
CSLAYER1
  6
CONTINUOUS
 62
     5
 10
3201.269764
 20
689.699101
 11
3200.134912
 21
689.052724
  0
LINE
  8
CSLAYER1
  6
CENTER
 62
     5
 10
3256.090056
 20
699.388848
 11
3192.334035
 21
699.388848
  0
LINE
  8
CSLAYER1
  6
CONTINUOUS
 62
     5
 10
3255.902015
 20
703.188848
 11
3222.334035
 21
703.188848
  0
LINE
  8
CSLAYER1
  6
CONTINUOUS
 62
     5
 10
3257.218303
 20
695.588848
 11
3222.334035
 21
695.588848
  0
INSERT
  8
CSLAYER1
  2
BLKF0002
 10
0.0
 20
0.0
 30
0.0
  0
LINE
  8
CSLAYER1
  6
CONTINUOUS
 62
     3
 10
3052.934035
 20
717.588848
 11
3051.134035
 21
717.588848
  0
LINE
  8
CSLAYER1
  6
CONTINUOUS
 62
     5
 10
3192.334035
 20
717.588848
 11
3052.934035
 21
717.588848
  0
TEXT
  8
CSLAYER1
 62
     5
 10
1426.224243
 20
1160.923950
 40
60.000000
 41
0.782609
  1
ギヤードモ－ター
 50
0.000000
 51
0.000000
  7
EASYDRAW_FONT
 72
     5
 11
1786.224243
 21
1160.923950
  0
LINE
  8
CSLAYER1
  6
CONTINUOUS
 62
     5
 10
1791.006868
 20
1152.290542
 11
1421.867931
 21
1152.290542
  0
TEXT
  8
CSLAYER1
 62
     5
 10
3600.083008
 20
627.273926
 40
60.000000
 41
0.843750
  1
Ｆ.Ｌ
 50
0.000000
 51
0.000000
  7
EASYDRAW_FONT
 72
     5
 11
3735.083008
 21
627.273926
  0
LINE
  8
CSLAYER1
  6
CONTINUOUS
 62
     1
 10
897.697686
 20
726.588848
 11
897.697686
 21
724.388848
  0
LINE
  8
CSLAYER1
  6
CONTINUOUS
 62
     1
 10
900.567165
 20
725.388848
 11
897.697686
 21
725.388848
  0
LINE
  8
CSLAYER1
  6
CONTINUOUS
 62
     1
 10
902.897686
 20
727.988848
 11
899.097686
 21
727.988848
  0
LINE
  8
CSLAYER1
  6
CONTINUOUS
 62
     1
 10
896.697686
 20
724.388848
 11
896.697686
 21
723.588848
  0
LINE
  8
CSLAYER1
  6
CONTINUOUS
 62
     1
 10
900.445269
 20
724.388848
 11
896.697686
 21
724.388848
  0
ARC
  8
CSLAYER1
  6
CONTINUOUS
 62
     1
 10
899.097686
 20
726.588848
 40
1.400000
 50
90.000000
 51
180.000000
  0
LINE
  8
CSLAYER1
  6
CONTINUOUS
 62
     1
 10
900.532414
 20
725.103766
 11
899.852436
 21
725.388848
  0
TEXT
  8
CSLAYER1
 62
     5
 10
1154.157471
 20
958.019104
 40
60.000000
 41
0.769737
  1
上限・下限リミットスイッチ
 50
0.000000
 51
0.000000
  7
EASYDRAW_FONT
 72
     5
 11
1739.157471
 21
958.019104
  0
LINE
  8
CSLAYER1
  6
CONTINUOUS
 62
     5
 10
910.907853
 20
754.108860
 11
1146.443060
 21
949.253974
  0
LINE
  8
CSLAYER1
  6
CONTINUOUS
 62
     5
 10
910.907853
 20
754.108860
 11
936.948384
 21
790.808870
  0
LINE
  8
CSLAYER1
  6
CONTINUOUS
 62
     5
 10
910.907853
 20
754.108860
 11
951.809620
 21
772.871735
  0
LINE
  8
CSLAYER1
  6
CONTINUOUS
 62
     5
 10
1851.406546
 20
884.431102
 11
1791.006868
 21
1152.290542
  0
LINE
  8
CSLAYER1
  6
CONTINUOUS
 62
     5
 10
1851.406546
 20
884.431102
 11
1830.483707
 21
924.271218
  0
LINE
  8
CSLAYER1
  6
CONTINUOUS
 62
     5
 10
1851.406546
 20
884.431102
 11
1853.206894
 21
929.395074
  0
LINE
  8
CSLAYER1
  6
CONTINUOUS
 62
     5
 10
1146.443060
 20
949.253974
 11
1739.753348
 21
949.253974
  0
LINE
  8
CSLAYER1
  6
CENTER
 62
     5
 10
1664.337073
 20
2737.861224
 11
3213.134087
 21
2737.861224
  0
LINE
  8
CSLAYER1
  6
CONTINUOUS
 62
     4
 10
899.397686
 20
709.750593
 11
899.397686
 21
715.794778
  0
LINE
  8
CSLAYER1
  6
CONTINUOUS
 62
     4
 10
913.397686
 20
709.750593
 11
913.397686
 21
715.794778
  0
LINE
  8
CSLAYER1
  6
CONTINUOUS
 62
     4
 10
904.397686
 20
740.090653
 11
904.397686
 21
756.068585
  0
LINE
  8
CSLAYER1
  6
CONTINUOUS
 62
     4
 10
908.397686
 20
740.090653
 11
908.397686
 21
752.029142
  0
LINE
  8
CSLAYER1
  6
CONTINUOUS
 62
     2
 10
902.897686
 20
727.778916
 11
909.897686
 21
727.778916
  0
LINE
  8
CSLAYER1
  6
CONTINUOUS
 62
     4
 10
909.897686
 20
727.778916
 11
911.936869
 21
727.778916
  0
LINE
  8
CSLAYER1
  6
CONTINUOUS
 62
     5
 10
3714.770078
 20
3396.768180
 11
4025.388410
 21
3396.768180
  0
LINE
  8
CSLAYER1
  6
CONTINUOUS
 62
     5
 10
3754.519602
 20
3198.093991
 11
4184.352462
 21
3198.093991
  0
TEXT
  8
CSLAYER1
 62
     4
 10
4036.245117
 20
1899.579102
 40
60.000000
 41
1.036364
  1
操作方式
 50
0.000000
 51
0.000000
  7
EASYDRAW_FONT
 72
     5
 11
4264.245117
 21
1899.579102
  0
TEXT
  8
CSLAYER1
 62
     4
 10
4458.707520
 20
1891.638672
 40
60.000000
 41
1.020000
  1
フットスイッチ
 50
0.000000
 51
0.000000
  7
EASYDRAW_FONT
 72
     5
 11
4866.707520
 21
1891.638672
  0
LINE
  8
CSLAYER1
  6
CONTINUOUS
 62
     5
 10
5102.940798
 20
1881.539556
 11
4021.632023
 21
1881.539556
  0
LINE
  8
CSLAYER1
  6
CONTINUOUS
 62
     5
 10
5102.940798
 20
1785.539558
 11
4021.632023
 21
1785.539558
  0
TEXT
  8
CSLAYER1
 62
     4
 10
4038.391602
 20
1800.469727
 40
60.000000
 41
0.872727
  1
モーター
 50
0.000000
 51
0.000000
  7
EASYDRAW_FONT
 72
     5
 11
4230.391602
 21
1800.469727
  0
LINE
  8
CSLAYER1
  6
CONTINUOUS
 62
     5
 10
5102.940798
 20
1689.539561
 11
4021.632023
 21
1689.539561
  0
LINE
  8
CSLAYER1
  6
CONTINUOUS
 62
     5
 10
5102.940798
 20
1497.539566
 11
4018.424269
 21
1497.539566
  0
LINE
  8
CSLAYER1
  6
CONTINUOUS
 62
     5
 10
5102.940798
 20
1401.539568
 11
4021.632023
 21
1401.539568
  0
LINE
  8
CSLAYER1
  6
CONTINUOUS
 62
     5
 10
5102.940798
 20
1305.539570
 11
4021.632023
 21
1305.539570
  0
TEXT
  8
CSLAYER1
 62
     4
 10
4042.264160
 20
1322.222290
 40
60.000000
 41
0.857143
  1
自  　重
 50
0.000000
 51
0.000000
  7
EASYDRAW_FONT
 72
     5
 11
4282.264160
 21
1322.222290
  0
TEXT
  8
CSLAYER1
 62
     4
 10
4046.687988
 20
1226.115845
 40
60.000000
 41
0.847059
  1
塗　装　色 
 50
0.000000
 51
0.000000
  7
EASYDRAW_FONT
 72
     5
 11
4334.687988
 21
1226.115845
  0
TEXT
  8
CSLAYER1
 62
     4
 10
4385.051270
 20
1801.844727
 40
60.000000
 41
0.819512
  1
３相ＡＣ２００Ｖ、0.4ＫＷ
 50
0.000000
 51
0.000000
  7
EASYDRAW_FONT
 72
     5
 11
5057.051270
 21
1801.844727
  0
TEXT
  8
CSLAYER1
 62
     4
 10
4581.526367
 20
1706.079590
 40
60.000000
 41
0.840000
  1
長サ  ４ ｍ
 50
0.000000
 51
0.000000
  7
EASYDRAW_FONT
 72
     5
 11
4917.526367
 21
1706.079590
  0
TEXT
  8
CSLAYER1
 62
     3
 10
4750.485840
 20
1325.071411
 40
60.000000
 41
0.847059
  1
２１５　Ｋｇ
 50
0.000000
 51
0.000000
  7
EASYDRAW_FONT
 72
     5
 11
5038.485840
 21
1325.071411
  0
LINE
  8
CSLAYER1
  6
CONTINUOUS
 62
     5
 10
5102.940798
 20
1593.539563
 11
4021.632023
 21
1593.539563
  0
TEXT
  8
CSLAYER1
 62
     4
 10
4039.766602
 20
1705.493652
 40
60.000000
 41
0.942857
  1
電源コード
 50
0.000000
 51
0.000000
  7
EASYDRAW_FONT
 72
     5
 11
4303.766602
 21
1705.493652
  0
TEXT
  8
CSLAYER1
 62
     4
 10
4040.409460
 20
1601.811844
 40
71.595306
 41
0.593339
  1
昇降時間 ３６秒（50HZ） ３０秒(60HZ)
 50
0.000000
 51
0.000000
  7
EASYDRAW_FONT
 72
     5
 11
5045.777063
 21
1601.811844
  0
TEXT
  8
CSLAYER1
 62
     4
 10
4042.360840
 20
1413.647095
 40
60.000000
 41
0.912766
  1
上昇端、下降端リミットスイッチ付
 50
0.000000
 51
0.000000
  7
EASYDRAW_FONT
 72
     5
 11
4900.360840
 21
1413.647095
  0
TEXT
  8
CSLAYER1
 62
     4
 10
4045.130723
 20
1510.642532
 40
68.819672
 41
0.605080
  1
最大使用頻度８０回／時間・最大起動頻度１０回／分
 50
0.000000
 51
0.000000
  7
EASYDRAW_FONT
 72
     5
 11
5030.643691
 21
1510.642532
  0
LINE
  8
CSLAYER1
  6
CONTINUOUS
 62
     5
 10
5102.940798
 20
1967.537563
 11
4021.632023
 21
1967.537563
  0
TEXT
  8
CSLAYER1
 62
     4
 10
4336.374512
 20
1985.138184
 40
60.000000
 41
0.825000
  1
マグネットスイッチ制御
 50
0.000000
 51
0.000000
  7
EASYDRAW_FONT
 72
     5
 11
4864.374512
 21
1985.138184
  0
TEXT
  8
CSLAYER1
 62
     4
 10
4041.793945
 20
1982.154297
 40
60.000000
 41
0.872727
  1
制御方式
 50
0.000000
 51
0.000000
  7
EASYDRAW_FONT
 72
     5
 11
4233.793945
 21
1982.154297
  0
LINE
  8
CSLAYER1
  6
CONTINUOUS
 62
     5
 10
3714.770078
 20
3396.768180
 11
3585.642228
 21
2905.429475
  0
LINE
  8
CSLAYER1
  6
CONTINUOUS
 62
     5
 10
3585.642228
 20
2905.429475
 11
3585.426106
 21
2950.428956
  0
LINE
  8
CSLAYER1
  6
CONTINUOUS
 62
     5
 10
3585.642228
 20
2905.429475
 11
3607.954801
 21
2944.508229
  0
LINE
  8
CSLAYER1
  6
CONTINUOUS
 62
     5
 10
3754.519602
 20
3198.093991
 11
3598.975887
 21
2776.389265
  0
LINE
  8
CSLAYER1
  6
CONTINUOUS
 62
     5
 10
3598.975887
 20
2776.389265
 11
3603.090526
 21
2821.200757
  0
LINE
  8
CSLAYER1
  6
CONTINUOUS
 62
     5
 10
3598.975887
 20
2776.389265
 11
3624.945014
 21
2813.139836
  0
TEXT
  8
CSLAYER1
 62
     5
 10
3767.938477
 20
3058.698975
 40
60.000000
 41
1.020000
  1
コード長サ２ｍ
 50
360.000000
 51
0.000000
  7
EASYDRAW_FONT
 72
     5
 11
4175.938477
 21
3058.698975
  0
TEXT
  8
CSLAYER1
 62
     3
 10
4036.245117
 20
2753.577148
 40
60.000000
 41
1.036364
  1
積載荷重
 50
0.000000
 51
0.000000
  7
EASYDRAW_FONT
 72
     5
 11
4264.245117
 21
2753.577148
  0
LINE
  8
CSLAYER1
  6
CONTINUOUS
 62
     5
 10
5102.940798
 20
1209.539573
 11
4021.632023
 21
1209.539573
  0
TEXT
  8
CSLAYER1
 62
     4
 10
4509.585449
 20
1225.546387
 40
60.000000
 41
0.926087
  1
　１０Ｒ４／１３
 50
0.000000
 51
0.000000
  7
EASYDRAW_FONT
 72
     5
 11
4935.585449
 21
1225.546387
  0
INSERT
  8
CSLAYER1
  2
BLKF0003
 10
0.0
 20
0.0
 30
0.0
  0
ENDSEC
  0
EOF
