  0
SECTION
  2
HEADER
  9
$ACADVER
  1
AC1006
  9
$INSBASE
 10
-964.898208
 20
3358.998371
 30
0.0
  9
$EXTMIN
 10
-964.898208
 20
3358.998371
  9
$EXTMAX
 10
4495.101792
 20
7213.998371
  9
$LIMMIN
 10
-964.898208
 20
3358.998371
  9
$LIMMAX
 10
4495.101792
 20
7213.998371
  9
$VIEWCTR
 10
1765.101792
 20
5286.498371
  9
$VIEWSIZE
 40
3855.000000
  9
$SNAPMODE
 70
     0
  9
$SNAPUNIT
 10
1.0
 20
1.0
  9
$SNAPBASE
 10
0.0
 20
0.0
  9
$SNAPANG
 50
0.0
  9
$SNAPSTYLE
 70
     0
  9
$SNAPISOPAIR
 70
     0
  9
$GRIDMODE
 70
     0
  9
$GRIDUNIT
 10
0.0
 20
0.0
  9
$ORTHOMODE
 70
     0
  9
$REGENMODE
 70
     1
  9
$FILLMODE
 70
     1
  9
$QTEXTMODE
 70
     0
  9
$DRAGMODE
 70
     2
  9
$LTSCALE
 40
15.000000
  9
$OSMODE
 70
     0
  9
$ATTMODE
 70
     1
  9
$TEXTSIZE
 40
0.2
  9
$TRACEWID
 40
0.05
  9
$TEXTSTYLE
  7
STANDARD
  9
$CLAYER
  8
CSLAYER1
  9
$CELTYPE
  6
BYLAYER
  9
$CECOLOR
 62
   256
  9
$DIMSCALE
 40
1.0
  9
$DIMASZ
 40
0.18
  9
$DIMEXO
 40
0.0625
  9
$DIMDLI
 40
0.38
  9
$DIMRND
 40
0.0
  9
$DIMDLE
 40
0.0
  9
$DIMEXE
 40
0.18
  9
$DIMTP
 40
0.0
  9
$DIMTM
 40
0.0
  9
$DIMTXT
 40
0.18
  9
$DIMCEN
 40
0.09
  9
$DIMTSZ
 40
0.0
  9
$DIMTOL
 70
     0
  9
$DIMLIM
 70
     0
  9
$DIMTIH
 70
     1
  9
$DIMTOH
 70
     1
  9
$DIMSE1
 70
     0
  9
$DIMSE2
 70
     0
  9
$DIMTAD
 70
     0
  9
$DIMZIN
 70
     0
  9
$DIMBLK
  1

  9
$LUNITS
 70
     2
  9
$LUPREC
 70
     4
  9
$AXISMODE
 70
     0
  9
$AXISUNIT
 10
0.0
 20
0.0
  9
$SKETCHINC
 40
0.1
  9
$FILLETRAD
 40
0.0
  9
$AUNITS
 70
     0
  9
$AUPREC
 70
     0
  9
$MENU
  1
ACAD
  9
$ELEVATION
 40
0.0
  9
$THICKNESS
 40
0.0
  9
$VIEWDIR
 10
0.0
 20
0.0
 30
1.0
  9
$LIMCHECK
 70
     0
  9
$BLIPMODE
 70
     1
  9
$CHAMFERA
 40
0.0
  9
$CHAMFERB
 40
0.0
  9
$FASTZOOM
 70
     1
  9
$SKPOLY
 70
     0
  9
$TDCREATE
 40
2457497.000000
  9
$TDUPDATE
 40
2457497.000000
  9
$TDINDWG
 40
0.0
  9
$TDUSRTIMER
 40
0.0
  9
$USRTIMER
 70
     1
  9
$ANGBASE
 50
0.0
  9
$ANGDIR
 70
     0
  9
$PDMODE
 70
     0
  9
$PDSIZE
 40
0.0
  9
$PLINEWID
 40
0.0
  9
$COORDS
 70
     0
  9
$USERI1
 70
     0
  9
$USERI2
 70
     0
  9
$USERI3
 70
     0
  9
$USERI4
 70
     0
  9
$USERI5
 70
     0
  9
$USERR1
 40
0.0
  9
$USERR2
 40
0.0
  9
$USERR3
 40
0.0
  9
$USERR4
 40
0.0
  9
$USERR5
 40
0.0
  0
ENDSEC
  0
SECTION
  2
TABLES
  0
TABLE
  2
LTYPE
 70
     9
  0
LTYPE
  2
CONTINUOUS
 70
    64
  3
Solid line
 72
    65
 73
     0
 40
0.0
  0
LTYPE
  2
DASHED
 70
    64
  3
__ __ __ __ __ __ __ __ __ __ __ __ __ __ __
 72
    65
 73
     2
 40
0.75
 49
0.5
 49
-0.25
  0
LTYPE
  2
HIDDEN
 70
    64
  3
_ _ _ _ _ _ _ _ _ _ _ _ _ _ _ _ _ _ _ _ _ _ _
 72
    65
 73
     2
 40
0.375
 49
0.25
 49
-0.125
  0
LTYPE
  2
DOT
 70
    64
  3
...............................................
 72
    65
 73
     2
 40
0.25
 49
0.0
 49
-0.25
  0
LTYPE
  2
DASHDOT
 70
    64
  3
__ . __ . __ . __ . __ . __ . __ . __ . __ . __
 72
    65
 73
     4
 40
1.0
 49
0.5
 49
-0.25
 49
0.0
 49
-0.25
  0
LTYPE
  2
DIVIDE
 70
    64
  3
__ . . __ . . __ . . __ . . __ . . __ . . __
 72
    65
 73
     6
 40
1.25
 49
0.5
 49
-0.25
 49
0.0
 49
-0.25
 49
0.0
 49
-0.25
  0
LTYPE
  2
CENTER
 70
    64
  3
____ _ ____ _ ____ _ ____ _ ____ _ ____ _ ____ 
 72
    65
 73
     4
 40
2.0
 49
1.25
 49
-0.25
 49
0.25
 49
-0.25
  0
LTYPE
  2
PHANTOM
 70
    64
  3
______  __  __  ______  __  __  ______  __  __ 
 72
    65
 73
     6
 40
2.5
 49
1.25
 49
-0.25
 49
0.25
 49
-0.25
 49
0.25
 49
-0.25
  0
LTYPE
  2
BORDER
 70
    64
  3
__ __ . __ __ . __ __ . __ __ . __ __ . __ __ .
 72
    65
 73
     6
 40
1.75
 49
0.5
 49
-0.25
 49
0.5
 49
-0.25
 49
0.0
 49
-0.25
  0
ENDTAB
  0
TABLE
  2
LAYER
 70
    16
  0
LAYER
  2
CSLAYER1
 70
    64
 62
     7
  6
CONTINUOUS
  0
LAYER
  2
CSLAYER2
 70
    64
 62
     7
  6
CONTINUOUS
  0
LAYER
  2
CSLAYER3
 70
    64
 62
     7
  6
CONTINUOUS
  0
LAYER
  2
CSLAYER4
 70
    64
 62
     7
  6
CONTINUOUS
  0
LAYER
  2
CSLAYER5
 70
    64
 62
     7
  6
CONTINUOUS
  0
LAYER
  2
CSLAYER6
 70
    64
 62
     7
  6
CONTINUOUS
  0
LAYER
  2
CSLAYER7
 70
    64
 62
     7
  6
CONTINUOUS
  0
LAYER
  2
CSLAYER8
 70
    64
 62
     7
  6
CONTINUOUS
  0
LAYER
  2
CSLAYER9
 70
    64
 62
     7
  6
CONTINUOUS
  0
LAYER
  2
CSLAYER10
 70
    64
 62
     7
  6
CONTINUOUS
  0
LAYER
  2
CSLAYER11
 70
    64
 62
     7
  6
CONTINUOUS
  0
LAYER
  2
CSLAYER12
 70
    64
 62
     7
  6
CONTINUOUS
  0
LAYER
  2
CSLAYER13
 70
    64
 62
     7
  6
CONTINUOUS
  0
LAYER
  2
CSLAYER14
 70
    64
 62
     7
  6
CONTINUOUS
  0
LAYER
  2
CSLAYER15
 70
    64
 62
     7
  6
CONTINUOUS
  0
LAYER
  2
CSLAYER16
 70
    64
 62
     7
  6
CONTINUOUS
  0
ENDTAB
  0
TABLE
  2
STYLE
 70
     1
  0
STYLE
  2
EASYDRAW_FONT
 70
     0
 40
1.0
 41
1.0
 50
0.0
 71
     0
 42
1.0
  3
monotxt
  4
bigfont
  0
ENDTAB
  0
TABLE
  2
VIEW
 70
     0
  0
ENDTAB
  0
ENDSEC
  0
SECTION
  2
BLOCKS
  0
BLOCK
  8
CSLAYER1
  2
*D0000
 70
    65
 10
0.0
 20
0.0
 30
0.0
  0
TEXT
  8
CSLAYER1
 62
     3
 10
2503.281494
 20
2217.409668
 40
60.000000
 41
0.818182
  1
1050
 50
0.000000
 51
0.000000
  7
EASYDRAW_FONT
 72
     5
 11
2683.281494
 21
2217.409668
  0
LINE
  8
CSLAYER1
  6
CONTINUOUS
 62
     5
 10
2068.281749
 20
2095.895939
 11
2068.281749
 21
2217.409308
  0
LINE
  8
CSLAYER1
  6
CONTINUOUS
 62
     5
 10
3118.281749
 20
2095.895939
 11
3118.281749
 21
2217.409308
  0
LINE
  8
CSLAYER1
  6
CONTINUOUS
 62
     5
 10
2068.281749
 20
2202.409308
 11
3118.281749
 21
2202.409308
  0
LINE
  8
CSLAYER1
  6
CONTINUOUS
 62
     5
 10
2068.281749
 20
2202.409308
 11
2111.748411
 21
2214.056165
  0
LINE
  8
CSLAYER1
  6
CONTINUOUS
 62
     5
 10
2068.281749
 20
2202.409308
 11
2111.748411
 21
2190.762451
  0
LINE
  8
CSLAYER1
  6
CONTINUOUS
 62
     5
 10
3118.281749
 20
2202.409308
 11
3074.815086
 21
2214.056165
  0
LINE
  8
CSLAYER1
  6
CONTINUOUS
 62
     5
 10
3118.281749
 20
2202.409308
 11
3074.815086
 21
2190.762451
  0
ENDBLK
  8
0
  0
BLOCK
  8
CSLAYER1
  2
*D0001
 70
    65
 10
0.0
 20
0.0
 30
0.0
  0
TEXT
  8
CSLAYER1
 62
     3
 10
3257.292725
 20
581.139709
 40
60.000000
 41
0.843750
  1
400
 50
90.000000
 51
0.000000
  7
EASYDRAW_FONT
 72
     5
 11
3257.292725
 21
716.139709
  0
LINE
  8
CSLAYER1
  6
CONTINUOUS
 62
     5
 10
3133.281749
 20
847.739455
 11
3287.292923
 21
847.739455
  0
LINE
  8
CSLAYER1
  6
CONTINUOUS
 62
     5
 10
3272.292923
 20
449.539455
 11
3272.292923
 21
847.739455
  0
LINE
  8
CSLAYER1
  6
CONTINUOUS
 62
     5
 10
3272.292923
 20
449.539455
 11
3260.646066
 21
493.006117
  0
LINE
  8
CSLAYER1
  6
CONTINUOUS
 62
     5
 10
3272.292923
 20
449.539455
 11
3283.939780
 21
493.006117
  0
LINE
  8
CSLAYER1
  6
CONTINUOUS
 62
     5
 10
3272.292923
 20
847.739455
 11
3260.646066
 21
804.272793
  0
LINE
  8
CSLAYER1
  6
CONTINUOUS
 62
     5
 10
3272.292923
 20
847.739455
 11
3283.939780
 21
804.272793
  0
ENDBLK
  8
0
  0
BLOCK
  8
CSLAYER1
  2
*D0002
 70
    65
 10
0.0
 20
0.0
 30
0.0
  0
TEXT
  8
CSLAYER1
 62
     3
 10
3257.292725
 20
1374.317383
 40
60.000000
 41
0.818182
  1
1200
 50
90.000000
 51
0.000000
  7
EASYDRAW_FONT
 72
     5
 11
3257.292725
 21
1554.317383
  0
LINE
  8
CSLAYER1
  6
CONTINUOUS
 62
     5
 10
3133.281749
 20
2080.895939
 11
3426.828796
 21
2080.895939
  0
LINE
  8
CSLAYER1
  6
CONTINUOUS
 62
     5
 10
3272.292923
 20
847.739455
 11
3272.292923
 21
2080.895939
  0
LINE
  8
CSLAYER1
  6
CONTINUOUS
 62
     5
 10
3272.292923
 20
847.739455
 11
3260.646066
 21
891.206117
  0
LINE
  8
CSLAYER1
  6
CONTINUOUS
 62
     5
 10
3272.292923
 20
847.739455
 11
3283.939780
 21
891.206117
  0
LINE
  8
CSLAYER1
  6
CONTINUOUS
 62
     5
 10
3272.292923
 20
2080.895939
 11
3260.646066
 21
2037.429277
  0
LINE
  8
CSLAYER1
  6
CONTINUOUS
 62
     5
 10
3272.292923
 20
2080.895939
 11
3283.939780
 21
2037.429277
  0
ENDBLK
  8
0
  0
BLOCK
  8
CSLAYER1
  2
*D0003
 70
    65
 10
0.0
 20
0.0
 30
0.0
  0
TEXT
  8
CSLAYER1
 62
     3
 10
3396.828613
 20
1175.217773
 40
60.000000
 41
0.818182
  1
1600
 50
90.000000
 51
0.000000
  7
EASYDRAW_FONT
 72
     5
 11
3396.828613
 21
1355.217773
  0
LINE
  8
CSLAYER1
  6
CONTINUOUS
 62
     5
 10
3411.828796
 20
449.539455
 11
3411.828796
 21
2080.895939
  0
LINE
  8
CSLAYER1
  6
CONTINUOUS
 62
     5
 10
3411.828796
 20
449.539455
 11
3400.181939
 21
493.006117
  0
LINE
  8
CSLAYER1
  6
CONTINUOUS
 62
     5
 10
3411.828796
 20
449.539455
 11
3423.475653
 21
493.006117
  0
LINE
  8
CSLAYER1
  6
CONTINUOUS
 62
     5
 10
3411.828796
 20
2080.895939
 11
3400.181939
 21
2037.429277
  0
LINE
  8
CSLAYER1
  6
CONTINUOUS
 62
     5
 10
3411.828796
 20
2080.895939
 11
3423.475653
 21
2037.429277
  0
ENDBLK
  8
0
  0
BLOCK
  8
CSLAYER1
  2
*D0004
 70
    65
 10
0.0
 20
0.0
 30
0.0
  0
TEXT
  8
CSLAYER1
 62
     3
 10
2503.481445
 20
323.326202
 40
60.000000
 41
0.818182
  1
1050
 50
0.000000
 51
0.000000
  7
EASYDRAW_FONT
 72
     5
 11
2683.481445
 21
323.326202
  0
LINE
  8
CSLAYER1
  6
CONTINUOUS
 62
     5
 10
2068.481749
 20
434.539455
 11
2068.481749
 21
293.325785
  0
LINE
  8
CSLAYER1
  6
CONTINUOUS
 62
     5
 10
3118.481749
 20
434.539455
 11
3118.481749
 21
293.325785
  0
LINE
  8
CSLAYER1
  6
CONTINUOUS
 62
     5
 10
2068.481749
 20
308.325785
 11
3118.481749
 21
308.325785
  0
LINE
  8
CSLAYER1
  6
CONTINUOUS
 62
     5
 10
2068.481749
 20
308.325785
 11
2111.948411
 21
319.972642
  0
LINE
  8
CSLAYER1
  6
CONTINUOUS
 62
     5
 10
2068.481749
 20
308.325785
 11
2111.948411
 21
296.678928
  0
LINE
  8
CSLAYER1
  6
CONTINUOUS
 62
     5
 10
3118.481749
 20
308.325785
 11
3075.015086
 21
319.972642
  0
LINE
  8
CSLAYER1
  6
CONTINUOUS
 62
     5
 10
3118.481749
 20
308.325785
 11
3075.015086
 21
296.678928
  0
ENDBLK
  8
0
  0
BLOCK
  8
CSLAYER1
  2
*D0005
 70
    65
 10
0.0
 20
0.0
 30
0.0
  0
TEXT
  8
CSLAYER1
 62
     3
 10
871.200378
 20
314.916534
 40
60.000000
 41
0.843750
  1
800
 50
0.000000
 51
0.000000
  7
EASYDRAW_FONT
 72
     5
 11
1006.200378
 21
314.916534
  0
LINE
  8
CSLAYER1
  6
CONTINUOUS
 62
     5
 10
538.700331
 20
434.539455
 11
538.700331
 21
284.916167
  0
LINE
  8
CSLAYER1
  6
CONTINUOUS
 62
     5
 10
1338.700331
 20
434.539455
 11
1338.700331
 21
284.916167
  0
LINE
  8
CSLAYER1
  6
CONTINUOUS
 62
     5
 10
538.700331
 20
299.916167
 11
1338.700331
 21
299.916167
  0
LINE
  8
CSLAYER1
  6
CONTINUOUS
 62
     5
 10
538.700331
 20
299.916167
 11
582.166993
 21
311.563024
  0
LINE
  8
CSLAYER1
  6
CONTINUOUS
 62
     5
 10
538.700331
 20
299.916167
 11
582.166993
 21
288.269310
  0
LINE
  8
CSLAYER1
  6
CONTINUOUS
 62
     5
 10
1338.700331
 20
299.916167
 11
1295.233669
 21
311.563024
  0
LINE
  8
CSLAYER1
  6
CONTINUOUS
 62
     5
 10
1338.700331
 20
299.916167
 11
1295.233669
 21
288.269310
  0
ENDBLK
  8
0
  0
BLOCK
  8
CSLAYER1
  2
*D0006
 70
    65
 10
0.0
 20
0.0
 30
0.0
  0
TEXT
  8
CSLAYER1
 62
     3
 10
3249.783691
 20
2794.104492
 40
60.000000
 41
0.818182
  1
1050
 50
90.000000
 51
0.000000
  7
EASYDRAW_FONT
 72
     5
 11
3249.783691
 21
2974.104492
  0
LINE
  8
CSLAYER1
  6
CONTINUOUS
 62
     5
 10
3133.281749
 20
2359.104686
 11
3279.783908
 21
2359.104686
  0
LINE
  8
CSLAYER1
  6
CONTINUOUS
 62
     5
 10
3133.281749
 20
3409.104686
 11
3279.783908
 21
3409.104686
  0
LINE
  8
CSLAYER1
  6
CONTINUOUS
 62
     5
 10
3264.783908
 20
2359.104686
 11
3264.783908
 21
3409.104686
  0
LINE
  8
CSLAYER1
  6
CONTINUOUS
 62
     5
 10
3264.783908
 20
2359.104686
 11
3253.137051
 21
2402.571348
  0
LINE
  8
CSLAYER1
  6
CONTINUOUS
 62
     5
 10
3264.783908
 20
2359.104686
 11
3276.430765
 21
2402.571348
  0
LINE
  8
CSLAYER1
  6
CONTINUOUS
 62
     5
 10
3264.783908
 20
3409.104686
 11
3253.137051
 21
3365.638024
  0
LINE
  8
CSLAYER1
  6
CONTINUOUS
 62
     5
 10
3264.783908
 20
3409.104686
 11
3276.430765
 21
3365.638024
  0
ENDBLK
  8
0
  0
BLOCK
  8
CSLAYER1
  2
BLKF0000
 70
   64
 10
0.0
 20
0.0
 30
0.0
  0
ARC
  8
CSLAYER1
  6
CONTINUOUS
 62
     5
 10
4169.771750
 20
120.742239
 40
5.323837
 50
6.429109
 51
73.182034
  0
ARC
  8
CSLAYER1
  6
CONTINUOUS
 62
     5
 10
4164.580294
 20
119.004650
 40
10.361631
 50
310.517970
 51
330.092764
  0
ARC
  8
CSLAYER1
  6
CONTINUOUS
 62
     5
 10
4164.489320
 20
119.552927
 40
10.722482
 50
-32.205059
 51
9.585194
  0
ARC
  8
CSLAYER1
  6
CONTINUOUS
 62
     5
 10
4169.428412
 20
115.411429
 40
7.151272
 50
180.000000
 51
218.514150
  0
ARC
  8
CSLAYER1
  6
CONTINUOUS
 62
     5
 10
4167.498330
 20
114.395718
 40
5.022423
 50
222.781148
 51
319.406906
  0
ARC
  8
CSLAYER1
  6
CONTINUOUS
 62
     5
 10
4172.096793
 20
116.030557
 40
9.839152
 50
94.574282
 51
183.607718
  0
LINE
  8
CSLAYER1
  6
CONTINUOUS
 62
     5
 10
4192.262653
 20
108.355309
 11
4190.977098
 21
103.797435
  0
LINE
  8
CSLAYER1
  6
CONTINUOUS
 62
     5
 10
4194.950630
 20
138.156795
 11
4191.795178
 21
142.247195
  0
LINE
  8
CSLAYER1
  6
CONTINUOUS
 62
     5
 10
4191.795178
 20
142.247195
 11
4181.665147
 21
147.884063
  0
LINE
  8
CSLAYER1
  6
CONTINUOUS
 62
     5
 10
4181.665147
 20
147.884063
 11
4171.312106
 21
149.088369
  0
LINE
  8
CSLAYER1
  6
CONTINUOUS
 62
     5
 10
4143.878268
 20
129.020359
 11
4147.098310
 21
136.466705
  0
LINE
  8
CSLAYER1
  6
CONTINUOUS
 62
     5
 10
4147.042813
 20
136.338369
 11
4150.318351
 21
140.290504
  0
LINE
  8
CSLAYER1
  6
CONTINUOUS
 62
     5
 10
4150.318351
 20
140.290504
 11
4155.274984
 21
143.838369
  0
LINE
  8
CSLAYER1
  6
CONTINUOUS
 62
     5
 10
4171.312106
 20
149.088369
 11
4169.034843
 21
147.938103
  0
LINE
  8
CSLAYER1
  6
CONTINUOUS
 62
     5
 10
4169.034843
 20
147.938103
 11
4163.802275
 21
147.938103
  0
LINE
  8
CSLAYER1
  6
CONTINUOUS
 62
     5
 10
4163.802275
 20
147.938103
 11
4158.469081
 21
145.019940
  0
LINE
  8
CSLAYER1
  6
CONTINUOUS
 62
     5
 10
4158.469081
 20
145.019940
 11
4155.274984
 21
143.838369
  0
LINE
  8
CSLAYER1
  6
CONTINUOUS
 62
     5
 10
4143.878268
 20
129.020359
 11
4141.601947
 21
117.697454
  0
LINE
  8
CSLAYER1
  6
CONTINUOUS
 62
     5
 10
4141.601947
 20
117.697454
 11
4141.312106
 21
113.838369
  0
LINE
  8
CSLAYER1
  6
CONTINUOUS
 62
     5
 10
4145.376180
 20
102.078696
 11
4141.312106
 21
111.222862
  0
LINE
  8
CSLAYER1
  6
CONTINUOUS
 62
     5
 10
4141.312106
 20
111.222862
 11
4141.312106
 21
113.838369
  0
LINE
  8
CSLAYER1
  6
CONTINUOUS
 62
     5
 10
4190.977098
 20
103.797435
 11
4188.448418
 21
99.292925
  0
LINE
  8
CSLAYER1
  6
CONTINUOUS
 62
     5
 10
4188.448418
 20
99.292925
 11
4186.312106
 21
97.314859
  0
ARC
  8
CSLAYER1
  6
CONTINUOUS
 62
     5
 10
4168.024189
 20
114.643510
 40
25.899940
 50
208.054813
 51
260.640470
  0
ARC
  8
CSLAYER1
  6
CONTINUOUS
 62
     5
 10
4160.234096
 20
133.757214
 40
44.811916
 50
274.579659
 51
305.587364
  0
ARC
  8
CSLAYER1
  6
CONTINUOUS
 62
     5
 10
4176.692620
 20
124.781631
 40
22.632940
 50
313.467013
 51
331.085078
  0
LINE
  8
CSLAYER1
  6
CONTINUOUS
 62
     5
 10
4198.879618
 20
119.108501
 11
4199.325560
 21
124.781631
  0
LINE
  8
CSLAYER1
  6
CONTINUOUS
 62
     5
 10
4199.325560
 20
124.781631
 11
4197.387563
 21
133.945105
  0
LINE
  8
CSLAYER1
  6
CONTINUOUS
 62
     5
 10
4198.879618
 20
119.108501
 11
4196.504106
 21
113.838369
  0
ARC
  8
CSLAYER1
  6
CONTINUOUS
 62
     5
 10
4176.692620
 20
124.781631
 40
22.632940
 50
23.883193
 51
36.225170
  0
LINE
  8
CSLAYER1
  6
CONTINUOUS
 62
     5
 10
4117.312106
 20
166.338369
 11
4118.812106
 21
167.977336
  0
LINE
  8
CSLAYER1
  6
CONTINUOUS
 62
     5
 10
4117.312106
 20
166.338369
 11
4119.677543
 21
164.170820
  0
LINE
  8
CSLAYER1
  6
CONTINUOUS
 62
     5
 10
4121.986362
 20
161.006882
 11
4122.025764
 21
157.754704
  0
LINE
  8
CSLAYER1
  6
CONTINUOUS
 62
     5
 10
4122.025764
 20
157.754704
 11
4122.336861
 21
156.614015
  0
LINE
  8
CSLAYER1
  6
CONTINUOUS
 62
     5
 10
4122.336861
 20
156.614015
 11
4123.218303
 21
155.525175
  0
LINE
  8
CSLAYER1
  6
CONTINUOUS
 62
     5
 10
4123.218303
 20
155.525175
 11
4124.099744
 21
155.628874
  0
LINE
  8
CSLAYER1
  6
CONTINUOUS
 62
     5
 10
4124.099744
 20
155.628874
 11
4125.033035
 21
155.888122
  0
LINE
  8
CSLAYER1
  6
CONTINUOUS
 62
     5
 10
4125.033035
 20
155.888122
 11
4125.655229
 21
155.628874
  0
LINE
  8
CSLAYER1
  6
CONTINUOUS
 62
     5
 10
4125.655229
 20
155.628874
 11
4127.003316
 21
154.954831
  0
LINE
  8
CSLAYER1
  6
CONTINUOUS
 62
     5
 10
4127.003316
 20
154.954831
 11
4128.167393
 21
154.338369
  0
LINE
  8
CSLAYER1
  6
CONTINUOUS
 62
     5
 10
4128.167393
 20
154.338369
 11
4128.921747
 21
154.384486
  0
LINE
  8
CSLAYER1
  6
CONTINUOUS
 62
     5
 10
4128.921747
 20
154.384486
 11
4133.133555
 21
156.554206
  0
LINE
  8
CSLAYER1
  6
CONTINUOUS
 62
     5
 10
4118.812106
 20
167.977336
 11
4119.311384
 21
170.187897
  0
LINE
  8
CSLAYER1
  6
CONTINUOUS
 62
     5
 10
4119.311384
 20
170.187897
 11
4121.491492
 21
170.413425
  0
LINE
  8
CSLAYER1
  6
CONTINUOUS
 62
     5
 10
4123.732129
 20
174.566113
 11
4126.363389
 21
174.801748
  0
LINE
  8
CSLAYER1
  6
CONTINUOUS
 62
     5
 10
4126.363389
 20
174.801748
 11
4131.665180
 21
176.058469
  0
LINE
  8
CSLAYER1
  6
CONTINUOUS
 62
     5
 10
4131.665180
 20
176.058469
 11
4133.812106
 21
176.555928
  0
LINE
  8
CSLAYER1
  6
CONTINUOUS
 62
     5
 10
4123.732129
 20
174.566113
 11
4120.832793
 21
174.804415
  0
LINE
  8
CSLAYER1
  6
CONTINUOUS
 62
     5
 10
4119.728608
 20
173.501384
 11
4119.868896
 21
172.944642
  0
LINE
  8
CSLAYER1
  6
CONTINUOUS
 62
     5
 10
4119.868896
 20
172.944642
 11
4120.606287
 21
172.138120
  0
LINE
  8
CSLAYER1
  6
CONTINUOUS
 62
     5
 10
4120.606287
 20
172.138120
 11
4121.620200
 21
171.377686
  0
LINE
  8
CSLAYER1
  6
CONTINUOUS
 62
     5
 10
4121.620200
 20
171.377686
 11
4121.805187
 21
171.131036
  0
LINE
  8
CSLAYER1
  6
CONTINUOUS
 62
     5
 10
4119.677543
 20
164.170820
 11
4121.986362
 21
161.006882
  0
ARC
  8
CSLAYER1
  6
CONTINUOUS
 62
     5
 10
4186.292157
 20
-91.149610
 40
271.091195
 50
80.438896
 51
96.353582
  0
ARC
  8
CSLAYER1
  6
CONTINUOUS
 62
     5
 10
4148.943787
 20
126.722240
 40
52.080363
 50
81.866516
 51
106.890578
  0
LINE
  8
CSLAYER1
  6
CONTINUOUS
 62
     5
 10
4237.603498
 20
174.988375
 11
4240.974122
 21
173.456273
  0
LINE
  8
CSLAYER1
  6
CONTINUOUS
 62
     5
 10
4246.336478
 20
171.081515
 11
4240.974122
 21
173.456273
  0
LINE
  8
CSLAYER1
  6
CONTINUOUS
 62
     5
 10
4237.603498
 20
174.988375
 11
4231.312106
 21
176.177232
  0
LINE
  8
CSLAYER1
  6
CONTINUOUS
 62
     5
 10
4246.312106
 20
171.092308
 11
4249.119469
 21
168.739593
  0
LINE
  8
CSLAYER1
  6
CONTINUOUS
 62
     5
 10
4221.176990
 20
172.647585
 11
4222.525902
 21
174.826597
  0
LINE
  8
CSLAYER1
  6
CONTINUOUS
 62
     5
 10
4222.525902
 20
174.826597
 11
4229.539300
 21
173.147333
  0
LINE
  8
CSLAYER1
  6
CONTINUOUS
 62
     5
 10
4229.539300
 20
173.147333
 11
4254.652879
 21
166.338369
  0
LINE
  8
CSLAYER1
  6
CONTINUOUS
 62
     5
 10
4259.062106
 20
166.338369
 11
4249.119469
 21
168.739593
  0
LINE
  8
CSLAYER1
  6
CONTINUOUS
 62
     5
 10
4254.652879
 20
166.338369
 11
4259.062106
 21
166.338369
  0
LINE
  8
CSLAYER1
  6
CONTINUOUS
 62
     5
 10
4171.312106
 20
173.035781
 11
4201.312106
 21
173.838369
  0
LINE
  8
CSLAYER1
  6
CONTINUOUS
 62
     5
 10
4201.312106
 20
173.838369
 11
4221.176990
 21
172.647585
  0
LINE
  8
CSLAYER1
  6
CONTINUOUS
 62
     5
 10
4223.581462
 20
169.556865
 11
4201.312106
 21
171.588369
  0
LINE
  8
CSLAYER1
  6
CONTINUOUS
 62
     5
 10
4201.312106
 20
171.588369
 11
4178.738292
 21
172.201347
  0
LINE
  8
CSLAYER1
  6
CONTINUOUS
 62
     5
 10
4178.812106
 20
172.199343
 11
4171.312106
 21
172.342284
  0
LINE
  8
CSLAYER1
  6
CONTINUOUS
 62
     5
 10
4171.312106
 20
173.035781
 11
4171.312106
 21
172.342284
  0
LINE
  8
CSLAYER1
  6
CONTINUOUS
 62
     5
 10
4257.562106
 20
161.088369
 11
4244.298268
 21
164.554363
  0
LINE
  8
CSLAYER1
  6
CONTINUOUS
 62
     5
 10
4223.581462
 20
169.556865
 11
4238.812106
 21
166.598290
  0
LINE
  8
CSLAYER1
  6
CONTINUOUS
 62
     5
 10
4238.812106
 20
166.598290
 11
4244.298268
 21
164.554363
  0
LINE
  8
CSLAYER1
  6
CONTINUOUS
 62
     5
 10
4257.562106
 20
161.088369
 11
4257.123180
 21
159.829711
  0
LINE
  8
CSLAYER1
  6
CONTINUOUS
 62
     5
 10
4271.812106
 20
152.838369
 11
4271.353065
 21
154.681841
  0
LINE
  8
CSLAYER1
  6
CONTINUOUS
 62
     5
 10
4257.123180
 20
159.829711
 11
4271.353065
 21
154.681841
  0
LINE
  8
CSLAYER1
  6
CONTINUOUS
 62
     5
 10
4176.562106
 20
161.088369
 11
4180.196663
 21
161.088369
  0
LINE
  8
CSLAYER1
  6
CONTINUOUS
 62
     5
 10
4210.312106
 20
161.737113
 11
4210.312106
 21
161.088369
  0
LINE
  8
CSLAYER1
  6
CONTINUOUS
 62
     5
 10
4208.812106
 20
162.538774
 11
4206.245187
 21
163.494542
  0
LINE
  8
CSLAYER1
  6
CONTINUOUS
 62
     5
 10
4206.245187
 20
163.494542
 11
4204.580103
 21
163.570227
  0
LINE
  8
CSLAYER1
  6
CONTINUOUS
 62
     5
 10
4204.580103
 20
163.570227
 11
4203.861090
 21
163.191799
  0
LINE
  8
CSLAYER1
  6
CONTINUOUS
 62
     5
 10
4203.861090
 20
163.191799
 11
4203.709718
 21
162.586314
  0
LINE
  8
CSLAYER1
  6
CONTINUOUS
 62
     5
 10
4203.709718
 20
162.586314
 11
4204.390889
 21
162.132200
  0
LINE
  8
CSLAYER1
  6
CONTINUOUS
 62
     5
 10
4204.390889
 20
162.132200
 11
4206.850672
 21
161.905143
  0
LINE
  8
CSLAYER1
  6
CONTINUOUS
 62
     5
 10
4206.850672
 20
161.905143
 11
4210.312106
 21
161.737113
  0
LINE
  8
CSLAYER1
  6
CONTINUOUS
 62
     5
 10
4271.812106
 20
152.838369
 11
4267.348792
 21
154.618242
  0
LINE
  8
CSLAYER1
  6
CONTINUOUS
 62
     5
 10
4267.348792
 20
154.618242
 11
4252.265258
 21
157.382555
  0
LINE
  8
CSLAYER1
  6
CONTINUOUS
 62
     5
 10
4252.265258
 20
157.382555
 11
4244.726588
 21
159.122248
  0
LINE
  8
CSLAYER1
  6
CONTINUOUS
 62
     5
 10
4211.113437
 20
162.588369
 11
4228.761936
 21
162.588369
  0
LINE
  8
CSLAYER1
  6
CONTINUOUS
 62
     5
 10
4208.812106
 20
162.538774
 11
4209.599096
 21
162.076073
  0
LINE
  8
CSLAYER1
  6
CONTINUOUS
 62
     5
 10
4209.599096
 20
162.076073
 11
4210.044314
 21
161.942508
  0
LINE
  8
CSLAYER1
  6
CONTINUOUS
 62
     5
 10
4210.044314
 20
161.942508
 11
4210.312106
 21
161.980263
  0
LINE
  8
CSLAYER1
  6
CONTINUOUS
 62
     5
 10
4210.312106
 20
161.980263
 11
4211.113437
 21
162.588369
  0
LINE
  8
CSLAYER1
  6
CONTINUOUS
 62
     5
 10
4228.761936
 20
162.588369
 11
4235.437340
 21
161.045131
  0
LINE
  8
CSLAYER1
  6
CONTINUOUS
 62
     5
 10
4235.437340
 20
161.045131
 11
4241.667127
 21
159.297408
  0
LINE
  8
CSLAYER1
  6
CONTINUOUS
 62
     5
 10
4241.667127
 20
159.297408
 11
4244.726588
 21
159.122248
  0
LINE
  8
CSLAYER1
  6
CONTINUOUS
 62
     5
 10
4175.062106
 20
159.588369
 11
4175.062106
 21
158.838369
  0
LINE
  8
CSLAYER1
  6
CONTINUOUS
 62
     5
 10
4171.312106
 20
158.838369
 11
4175.062106
 21
158.838369
  0
ARC
  8
CSLAYER1
  6
CONTINUOUS
 62
     5
 10
4176.562106
 20
159.588369
 40
1.500000
 50
90.000000
 51
180.000000
  0
LINE
  8
CSLAYER1
  6
CONTINUOUS
 62
     5
 10
4180.196663
 20
161.088369
 11
4181.242998
 21
160.230375
  0
LINE
  8
CSLAYER1
  6
CONTINUOUS
 62
     5
 10
4182.146550
 20
160.194434
 11
4183.432945
 21
161.088369
  0
LINE
  8
CSLAYER1
  6
CONTINUOUS
 62
     5
 10
4185.800540
 20
161.088369
 11
4188.301228
 21
160.101256
  0
LINE
  8
CSLAYER1
  6
CONTINUOUS
 62
     5
 10
4188.936791
 20
160.141024
 11
4190.667022
 21
161.088369
  0
LINE
  8
CSLAYER1
  6
CONTINUOUS
 62
     5
 10
4183.432945
 20
161.088369
 11
4185.800540
 21
161.088369
  0
LINE
  8
CSLAYER1
  6
CONTINUOUS
 62
     5
 10
4190.667022
 20
161.088369
 11
4210.312106
 21
161.088369
  0
LINE
  8
CSLAYER1
  6
CONTINUOUS
 62
     5
 10
4139.135581
 20
156.425130
 11
4171.312106
 21
158.838369
  0
LINE
  8
CSLAYER1
  6
CONTINUOUS
 62
     5
 10
4133.133555
 20
156.554206
 11
4139.135581
 21
156.425130
  0
ARC
  8
CSLAYER1
  6
CONTINUOUS
 62
     5
 10
4181.718558
 20
160.810325
 40
0.750000
 50
230.648247
 51
304.796026
  0
ARC
  8
CSLAYER1
  6
CONTINUOUS
 62
     5
 10
4188.576603
 20
160.798872
 40
0.750000
 50
248.459024
 51
298.701829
  0
ARC
  8
CSLAYER1
  6
CONTINUOUS
 62
     5
 10
4121.445187
 20
170.861036
 40
0.450000
 50
-84.093859
 51
36.869898
  0
ARC
  8
CSLAYER1
  6
CONTINUOUS
 62
     5
 10
4120.746781
 20
173.757944
 40
1.050000
 50
85.301319
 51
194.142980
  0
LINE
  8
CSLAYER1
  6
CONTINUOUS
 62
     3
 10
4169.034843
 20
147.938103
 11
4181.200586
 21
147.938103
  0
LINE
  8
CSLAYER1
  6
CONTINUOUS
 62
     3
 10
4159.416068
 20
145.538103
 11
4185.881079
 21
145.538103
  0
LINE
  8
CSLAYER1
  6
CONTINUOUS
 62
     3
 10
4154.296660
 20
143.138103
 11
4190.194126
 21
143.138103
  0
LINE
  8
CSLAYER1
  6
CONTINUOUS
 62
     3
 10
4150.943680
 20
140.738103
 11
4192.959335
 21
140.738103
  0
LINE
  8
CSLAYER1
  6
CONTINUOUS
 62
     3
 10
4148.700197
 20
138.338103
 11
4194.810764
 21
138.338103
  0
LINE
  8
CSLAYER1
  6
CONTINUOUS
 62
     3
 10
4146.869725
 20
135.938103
 11
4196.384829
 21
135.938103
  0
LINE
  8
CSLAYER1
  6
CONTINUOUS
 62
     3
 10
4145.831887
 20
133.538103
 11
4197.473641
 21
133.538103
  0
LINE
  8
CSLAYER1
  6
CONTINUOUS
 62
     3
 10
4144.794049
 20
131.138103
 11
4197.981220
 21
131.138103
  0
LINE
  8
CSLAYER1
  6
CONTINUOUS
 62
     3
 10
4143.821524
 20
128.738103
 11
4198.488800
 21
128.738103
  0
LINE
  8
CSLAYER1
  6
CONTINUOUS
 62
     3
 10
4143.339036
 20
126.338103
 11
4198.996379
 21
126.338103
  0
LINE
  8
CSLAYER1
  6
CONTINUOUS
 62
     3
 10
4142.856547
 20
123.938103
 11
4166.241912
 21
123.938103
  0
LINE
  8
CSLAYER1
  6
CONTINUOUS
 62
     3
 10
4142.374059
 20
121.538103
 11
4163.943521
 21
121.538103
  0
LINE
  8
CSLAYER1
  6
CONTINUOUS
 62
     3
 10
4141.891571
 20
119.138103
 11
4162.761266
 21
119.138103
  0
LINE
  8
CSLAYER1
  6
CONTINUOUS
 62
     3
 10
4141.529894
 20
116.738103
 11
4162.283115
 21
116.738103
  0
LINE
  8
CSLAYER1
  6
CONTINUOUS
 62
     3
 10
4141.349639
 20
114.338103
 11
4162.358146
 21
114.338103
  0
LINE
  8
CSLAYER1
  6
CONTINUOUS
 62
     3
 10
4141.312106
 20
111.938103
 11
4163.177277
 21
111.938103
  0
LINE
  8
CSLAYER1
  6
CONTINUOUS
 62
     3
 10
4142.060888
 20
109.538103
 11
4166.222280
 21
109.538103
  0
LINE
  8
CSLAYER1
  6
CONTINUOUS
 62
     3
 10
4143.127555
 20
107.138103
 11
4191.919338
 21
107.138103
  0
LINE
  8
CSLAYER1
  6
CONTINUOUS
 62
     3
 10
4144.194221
 20
104.738103
 11
4191.242415
 21
104.738103
  0
LINE
  8
CSLAYER1
  6
CONTINUOUS
 62
     3
 10
4145.260888
 20
102.338103
 11
4190.157878
 21
102.338103
  0
LINE
  8
CSLAYER1
  6
CONTINUOUS
 62
     3
 10
4146.703826
 20
99.938103
 11
4188.810599
 21
99.938103
  0
LINE
  8
CSLAYER1
  6
CONTINUOUS
 62
     3
 10
4148.576518
 20
97.538103
 11
4186.553209
 21
97.538103
  0
LINE
  8
CSLAYER1
  6
CONTINUOUS
 62
     3
 10
4150.984648
 20
95.138103
 11
4182.964518
 21
95.138103
  0
LINE
  8
CSLAYER1
  6
CONTINUOUS
 62
     3
 10
4154.205361
 20
92.738103
 11
4178.276833
 21
92.738103
  0
LINE
  8
CSLAYER1
  6
CONTINUOUS
 62
     3
 10
4159.076897
 20
90.338103
 11
4171.319610
 21
90.338103
  0
LINE
  8
CSLAYER1
  6
CONTINUOUS
 62
     3
 10
4174.029648
 20
123.938103
 11
4199.259253
 21
123.938103
  0
LINE
  8
CSLAYER1
  6
CONTINUOUS
 62
     3
 10
4175.035764
 20
121.538103
 11
4199.070599
 21
121.538103
  0
LINE
  8
CSLAYER1
  6
CONTINUOUS
 62
     3
 10
4175.203774
 20
119.138103
 11
4198.881945
 21
119.138103
  0
LINE
  8
CSLAYER1
  6
CONTINUOUS
 62
     3
 10
4174.835739
 20
116.738103
 11
4197.811161
 21
116.738103
  0
LINE
  8
CSLAYER1
  6
CONTINUOUS
 62
     3
 10
4173.858270
 20
114.338103
 11
4196.729361
 21
114.338103
  0
LINE
  8
CSLAYER1
  6
CONTINUOUS
 62
     3
 10
4172.158375
 20
111.938103
 11
4195.328439
 21
111.938103
  0
LINE
  8
CSLAYER1
  6
CONTINUOUS
 62
     3
 10
4168.774380
 20
109.538103
 11
4193.422378
 21
109.538103
  0
TEXT
  8
CSLAYER1
 62
     5
 10
4200.069867
 20
120.954866
 40
7.070172
 41
1.951056
  1
M
 50
0.000000
 51
0.000000
  7
EASYDRAW_FONT
 72
     5
 11
4209.266070
 21
120.954866
  0
TEXT
  8
CSLAYER1
 62
     5
 10
4214.546948
 20
120.867460
 40
6.939931
 41
0.778201
  1
T
 50
0.000000
 51
0.000000
  7
EASYDRAW_FONT
 72
     5
 11
4218.147388
 21
120.867460
  0
TEXT
  8
CSLAYER1
 62
     5
 10
4218.695292
 20
120.919658
 40
7.044274
 41
1.055553
  1
E
 50
0.000000
 51
0.000000
  7
EASYDRAW_FONT
 72
     5
 11
4223.652364
 21
120.919658
  0
TEXT
  8
CSLAYER1
 62
     5
 10
4223.369808
 20
123.343425
 40
0.522425
 41
9.375319
  1
-
 50
0.000000
 51
0.000000
  7
EASYDRAW_FONT
 72
     5
 11
4226.635075
 21
123.343425
  0
TEXT
  8
CSLAYER1
 62
     5
 10
4226.090633
 20
120.872638
 40
7.292489
 41
1.298502
  1
H
 50
0.000000
 51
0.000000
  7
EASYDRAW_FONT
 72
     5
 11
4232.403507
 21
120.872638
  0
TEXT
  8
CSLAYER1
 62
     5
 10
4232.204778
 20
120.918206
 40
7.264708
 41
1.269236
  1
A
 50
0.000000
 51
0.000000
  7
EASYDRAW_FONT
 72
     5
 11
4238.351862
 21
120.918206
  0
TEXT
  8
CSLAYER1
 62
     5
 10
4237.764134
 20
120.855916
 40
7.238043
 41
1.490144
  1
N
 50
0.000000
 51
0.000000
  7
EASYDRAW_FONT
 72
     5
 11
4244.954616
 21
120.855916
  0
TEXT
  8
CSLAYER1
 62
     5
 10
4208.951077
 20
120.822056
 40
7.473487
 41
1.177443
  1
A
 50
0.000000
 51
0.000000
  7
EASYDRAW_FONT
 72
     5
 11
4214.817478
 21
120.822056
  0
TEXT
  8
CSLAYER1
 62
     5
 10
4200.620022
 20
110.329197
 40
7.473487
 41
1.177443
  1
A
 50
0.000000
 51
0.000000
  7
EASYDRAW_FONT
 72
     5
 11
4206.486423
 21
110.329197
  0
TEXT
  8
CSLAYER1
 62
     5
 10
4219.797268
 20
110.371678
 40
7.473487
 41
1.177443
  1
A
 50
0.000000
 51
0.000000
  7
EASYDRAW_FONT
 72
     5
 11
4225.663670
 21
110.371678
  0
TEXT
  8
CSLAYER1
 62
     5
 10
4225.437962
 20
110.457173
 40
7.238043
 41
1.490144
  1
N
 50
0.000000
 51
0.000000
  7
EASYDRAW_FONT
 72
     5
 11
4232.628444
 21
110.457173
  0
TEXT
  8
CSLAYER1
 62
     5
 10
4238.791344
 20
110.469766
 40
7.262663
 41
1.184218
  1
E
 50
0.000000
 51
0.000000
  7
EASYDRAW_FONT
 72
     5
 11
4244.525062
 21
110.469766
  0
TEXT
  8
CSLAYER1
 62
     5
 10
4207.041096
 20
110.327210
 40
7.421797
 41
1.093992
  1
D
 50
0.000000
 51
0.000000
  7
EASYDRAW_FONT
 72
     5
 11
4212.454021
 21
110.327210
  0
TEXT
  8
CSLAYER1
 62
     5
 10
4213.645000
 20
110.319133
 40
7.386315
 41
1.228195
  1
V
 50
0.000000
 51
0.000000
  7
EASYDRAW_FONT
 72
     5
 11
4219.692891
 21
110.319133
  0
TEXT
  8
CSLAYER1
 62
     5
 10
4231.982558
 20
110.350231
 40
7.549340
 41
1.481023
  1
C
 50
0.000000
 51
0.000000
  7
EASYDRAW_FONT
 72
     5
 11
4239.436388
 21
110.350231
  0
LINE
  8
CSLAYER1
  6
CONTINUOUS
 62
     5
 10
4217.928111
 20
126.940827
 11
4216.410018
 21
126.940827
  0
LINE
  8
CSLAYER1
  6
CONTINUOUS
 62
     3
 10
4141.575468
 20
178.278734
 11
4216.272208
 21
178.278734
  0
LINE
  8
CSLAYER1
  6
CONTINUOUS
 62
     3
 10
4130.906922
 20
175.878734
 11
4232.891745
 21
175.878734
  0
LINE
  8
CSLAYER1
  6
CONTINUOUS
 62
     3
 10
4119.734315
 20
173.478734
 11
4187.869281
 21
173.478734
  0
LINE
  8
CSLAYER1
  6
CONTINUOUS
 62
     3
 10
4207.311605
 20
173.478734
 11
4221.691511
 21
173.478734
  0
LINE
  8
CSLAYER1
  6
CONTINUOUS
 62
     3
 10
4228.155211
 20
173.478734
 11
4240.924707
 21
173.478734
  0
LINE
  8
CSLAYER1
  6
CONTINUOUS
 62
     3
 10
4121.839024
 20
171.078734
 11
4206.898728
 21
171.078734
  0
LINE
  8
CSLAYER1
  6
CONTINUOUS
 62
     3
 10
4237.168936
 20
171.078734
 11
4246.328303
 21
171.078734
  0
LINE
  8
CSLAYER1
  6
CONTINUOUS
 62
     3
 10
4118.970524
 20
168.678734
 11
4228.102050
 21
168.678734
  0
LINE
  8
CSLAYER1
  6
CONTINUOUS
 62
     3
 10
4246.020884
 20
168.678734
 11
4249.371466
 21
168.678734
  0
LINE
  8
CSLAYER1
  6
CONTINUOUS
 62
     3
 10
4117.377186
 20
166.278734
 11
4239.669834
 21
166.278734
  0
LINE
  8
CSLAYER1
  6
CONTINUOUS
 62
     3
 10
4119.890686
 20
163.878734
 11
4246.883797
 21
163.878734
  0
LINE
  8
CSLAYER1
  6
CONTINUOUS
 62
     3
 10
4121.642038
 20
161.478734
 11
4210.312106
 21
161.478734
  0
LINE
  8
CSLAYER1
  6
CONTINUOUS
 62
     3
 10
4233.561753
 20
161.478734
 11
4256.068238
 21
161.478734
  0
LINE
  8
CSLAYER1
  6
CONTINUOUS
 62
     3
 10
4122.009723
 20
159.078734
 11
4175.062106
 21
159.078734
  0
LINE
  8
CSLAYER1
  6
CONTINUOUS
 62
     3
 10
4244.915147
 20
159.078734
 11
4259.199051
 21
159.078734
  0
LINE
  8
CSLAYER1
  6
CONTINUOUS
 62
     3
 10
4122.319210
 20
156.678734
 11
4142.516971
 21
156.678734
  0
LINE
  8
CSLAYER1
  6
CONTINUOUS
 62
     3
 10
4256.105670
 20
156.678734
 11
4265.833197
 21
156.678734
  0
LINE
  8
CSLAYER1
  6
CONTINUOUS
 62
     3
 10
4268.200161
 20
154.278734
 11
4271.453442
 21
154.278734
  0
ENDBLK
  8
0
  0
BLOCK
  8
CSLAYER1
  2
BLKF0001
 70
   64
 10
0.0
 20
0.0
 30
0.0
  0
LINE
  8
CSLAYER1
  6
CONTINUOUS
 62
     2
 10
2613.028565
 20
817.754823
 11
2606.582683
 21
813.542863
  0
LINE
  8
CSLAYER1
  6
CONTINUOUS
 62
     2
 10
2614.122581
 20
816.080568
 11
2607.676699
 21
811.868608
  0
LINE
  8
CSLAYER1
  6
CONTINUOUS
 62
     2
 10
2614.122581
 20
816.080568
 11
2613.028565
 21
817.754823
  0
LINE
  8
CSLAYER1
  6
CONTINUOUS
 62
     2
 10
2616.673578
 20
809.982830
 11
2611.232249
 21
806.427279
  0
LINE
  8
CSLAYER1
  6
CONTINUOUS
 62
     2
 10
2616.673578
 20
809.982830
 11
2617.197786
 21
811.018875
  0
LINE
  8
CSLAYER1
  6
CONTINUOUS
 62
     2
 10
2613.959804
 20
815.974204
 11
2617.197786
 21
811.018875
  0
ARC
  8
CSLAYER1
  6
CONTINUOUS
 62
     2
 10
2614.151493
 20
812.250571
 40
3.285875
 50
268.197593
 51
327.848471
  0
ARC
  8
CSLAYER1
  6
CONTINUOUS
 62
     2
 10
2604.438717
 20
816.823937
 40
12.419443
 50
303.161976
 51
320.749930
  0
LINE
  8
CSLAYER1
  6
CONTINUOUS
 62
     2
 10
2610.818252
 20
813.921406
 11
2614.056233
 21
808.966077
  0
LINE
  8
CSLAYER1
  6
CONTINUOUS
 62
     2
 10
2615.909298
 20
805.302458
 11
2613.146777
 21
803.497333
  0
LINE
  8
CSLAYER1
  6
CONTINUOUS
 62
     2
 10
2616.112381
 20
806.271353
 11
2614.580760
 21
808.615310
  0
LINE
  8
CSLAYER1
  6
CONTINUOUS
 62
     2
 10
2615.909298
 20
805.302458
 11
2613.994770
 21
808.232405
  0
LINE
  8
CSLAYER1
  6
CONTINUOUS
 62
     2
 10
2616.112381
 20
806.271353
 11
2615.909298
 21
805.302458
  0
LINE
  8
CSLAYER1
  6
CONTINUOUS
 62
     2
 10
2616.112381
 20
806.271353
 11
2612.763871
 21
804.083322
  0
LINE
  8
CSLAYER1
  6
CONTINUOUS
 62
     2
 10
2600.136801
 20
809.330903
 11
2606.582683
 21
813.542863
  0
LINE
  8
CSLAYER1
  6
CONTINUOUS
 62
     2
 10
2601.230817
 20
807.656648
 11
2607.676699
 21
811.868608
  0
LINE
  8
CSLAYER1
  6
CONTINUOUS
 62
     2
 10
2601.230817
 20
807.656648
 11
2600.136801
 21
809.330903
  0
LINE
  8
CSLAYER1
  6
CONTINUOUS
 62
     2
 10
2605.790921
 20
802.871728
 11
2611.232249
 21
806.427279
  0
LINE
  8
CSLAYER1
  6
CONTINUOUS
 62
     2
 10
2605.790921
 20
802.871728
 11
2604.631575
 21
802.807683
  0
LINE
  8
CSLAYER1
  6
CONTINUOUS
 62
     2
 10
2601.393593
 20
807.763012
 11
2604.631575
 21
802.807683
  0
ARC
  8
CSLAYER1
  6
CONTINUOUS
 62
     2
 10
2604.726835
 20
806.092177
 40
3.285875
 50
278.475481
 51
338.126359
  0
ARC
  8
CSLAYER1
  6
CONTINUOUS
 62
     2
 10
2604.438717
 20
816.823937
 40
12.419443
 50
285.574022
 51
303.161976
  0
LINE
  8
CSLAYER1
  6
CONTINUOUS
 62
     2
 10
2604.535146
 20
809.815810
 11
2607.773128
 21
804.860481
  0
LINE
  8
CSLAYER1
  6
CONTINUOUS
 62
     2
 10
2610.384256
 20
801.692207
 11
2613.146777
 21
803.497333
  0
LINE
  8
CSLAYER1
  6
CONTINUOUS
 62
     2
 10
2609.415361
 20
801.895291
 11
2607.883739
 21
804.239248
  0
LINE
  8
CSLAYER1
  6
CONTINUOUS
 62
     2
 10
2610.384256
 20
801.692207
 11
2608.469729
 21
804.622153
  0
LINE
  8
CSLAYER1
  6
CONTINUOUS
 62
     2
 10
2609.415361
 20
801.895291
 11
2610.384256
 21
801.692207
  0
LINE
  8
CSLAYER1
  6
CONTINUOUS
 62
     2
 10
2609.415361
 20
801.895291
 11
2612.763871
 21
804.083322
  0
LINE
  8
CSLAYER1
  6
CONTINUOUS
 62
     2
 10
2607.915353
 20
814.413675
 11
2605.884778
 21
810.697705
  0
ENDBLK
  8
0
  0
BLOCK
  8
CSLAYER1
  2
BLKF0002
 70
   64
 10
0.0
 20
0.0
 30
0.0
  0
LINE
  8
CSLAYER1
  6
CONTINUOUS
 62
     3
 10
959.700331
 20
1434.952724
 11
974.700331
 21
1434.952724
  0
LINE
  8
CSLAYER1
  6
CONTINUOUS
 62
     3
 10
917.700331
 20
1434.952724
 11
902.700331
 21
1434.952724
  0
LINE
  8
CSLAYER1
  6
CONTINUOUS
 62
     3
 10
938.700331
 20
1406.677930
 11
941.336792
 21
1406.740624
  0
LINE
  8
CSLAYER1
  6
CONTINUOUS
 62
     3
 10
941.336792
 20
1406.740624
 11
943.953189
 21
1406.928228
  0
LINE
  8
CSLAYER1
  6
CONTINUOUS
 62
     3
 10
943.953189
 20
1406.928228
 11
946.529607
 21
1407.239314
  0
LINE
  8
CSLAYER1
  6
CONTINUOUS
 62
     3
 10
946.529607
 20
1407.239314
 11
949.046440
 21
1407.671515
  0
LINE
  8
CSLAYER1
  6
CONTINUOUS
 62
     3
 10
949.046440
 20
1407.671515
 11
951.484534
 21
1408.221541
  0
LINE
  8
CSLAYER1
  6
CONTINUOUS
 62
     3
 10
951.484534
 20
1408.221541
 11
953.825331
 21
1408.885206
  0
LINE
  8
CSLAYER1
  6
CONTINUOUS
 62
     3
 10
953.825331
 20
1408.885206
 11
956.051018
 21
1409.657460
  0
LINE
  8
CSLAYER1
  6
CONTINUOUS
 62
     3
 10
956.051018
 20
1409.657460
 11
958.144656
 21
1410.532426
  0
LINE
  8
CSLAYER1
  6
CONTINUOUS
 62
     3
 10
958.144656
 20
1410.532426
 11
960.090311
 21
1411.503443
  0
LINE
  8
CSLAYER1
  6
CONTINUOUS
 62
     3
 10
960.090311
 20
1411.503443
 11
961.873176
 21
1412.563123
  0
LINE
  8
CSLAYER1
  6
CONTINUOUS
 62
     3
 10
961.873176
 20
1412.563123
 11
963.479681
 21
1413.703400
  0
LINE
  8
CSLAYER1
  6
CONTINUOUS
 62
     3
 10
963.479681
 20
1413.703400
 11
964.897600
 21
1414.915596
  0
LINE
  8
CSLAYER1
  6
CONTINUOUS
 62
     3
 10
964.897600
 20
1414.915596
 11
966.116142
 21
1416.190486
  0
LINE
  8
CSLAYER1
  6
CONTINUOUS
 62
     3
 10
966.116142
 20
1416.190486
 11
967.126033
 21
1417.518366
  0
LINE
  8
CSLAYER1
  6
CONTINUOUS
 62
     3
 10
967.126033
 20
1417.518366
 11
967.919587
 21
1418.889132
  0
LINE
  8
CSLAYER1
  6
CONTINUOUS
 62
     3
 10
967.919587
 20
1418.889132
 11
968.490766
 21
1420.292350
  0
LINE
  8
CSLAYER1
  6
CONTINUOUS
 62
     3
 10
968.490766
 20
1420.292350
 11
968.835221
 21
1421.717342
  0
LINE
  8
CSLAYER1
  6
CONTINUOUS
 62
     3
 10
968.950331
 20
1431.524536
 11
968.835221
 21
1432.960456
  0
LINE
  8
CSLAYER1
  6
CONTINUOUS
 62
     3
 10
968.835221
 20
1432.960456
 11
968.490766
 21
1434.385448
  0
LINE
  8
CSLAYER1
  6
CONTINUOUS
 62
     3
 10
968.490766
 20
1434.385448
 11
968.259856
 21
1434.952724
  0
LINE
  8
CSLAYER1
  6
CONTINUOUS
 62
     3
 10
958.700331
 20
1419.181021
 11
960.090311
 21
1419.874718
  0
LINE
  8
CSLAYER1
  6
CONTINUOUS
 62
     3
 10
960.090311
 20
1419.874718
 11
961.873176
 21
1420.934398
  0
LINE
  8
CSLAYER1
  6
CONTINUOUS
 62
     3
 10
961.873176
 20
1420.934398
 11
963.479681
 21
1422.074675
  0
LINE
  8
CSLAYER1
  6
CONTINUOUS
 62
     3
 10
963.479681
 20
1422.074675
 11
964.897600
 21
1423.286871
  0
LINE
  8
CSLAYER1
  6
CONTINUOUS
 62
     3
 10
964.897600
 20
1423.286871
 11
966.116142
 21
1424.561761
  0
LINE
  8
CSLAYER1
  6
CONTINUOUS
 62
     3
 10
966.116142
 20
1424.561761
 11
967.126033
 21
1425.889641
  0
LINE
  8
CSLAYER1
  6
CONTINUOUS
 62
     3
 10
967.126033
 20
1425.889641
 11
967.919587
 21
1427.260407
  0
LINE
  8
CSLAYER1
  6
CONTINUOUS
 62
     3
 10
967.919587
 20
1427.260407
 11
968.490766
 21
1428.663625
  0
LINE
  8
CSLAYER1
  6
CONTINUOUS
 62
     3
 10
968.490766
 20
1428.663625
 11
968.835221
 21
1430.088617
  0
LINE
  8
CSLAYER1
  6
CONTINUOUS
 62
     3
 10
968.835221
 20
1430.088617
 11
968.950331
 21
1431.524536
  0
LINE
  8
CSLAYER1
  6
CONTINUOUS
 62
     3
 10
938.700331
 20
1406.677930
 11
936.063870
 21
1406.740624
  0
LINE
  8
CSLAYER1
  6
CONTINUOUS
 62
     3
 10
936.063870
 20
1406.740624
 11
933.447474
 21
1406.928228
  0
LINE
  8
CSLAYER1
  6
CONTINUOUS
 62
     3
 10
933.447474
 20
1406.928228
 11
930.871055
 21
1407.239314
  0
LINE
  8
CSLAYER1
  6
CONTINUOUS
 62
     3
 10
930.871055
 20
1407.239314
 11
928.354222
 21
1407.671515
  0
LINE
  8
CSLAYER1
  6
CONTINUOUS
 62
     3
 10
928.354222
 20
1407.671515
 11
925.916129
 21
1408.221541
  0
LINE
  8
CSLAYER1
  6
CONTINUOUS
 62
     3
 10
925.916129
 20
1408.221541
 11
923.575331
 21
1408.885206
  0
LINE
  8
CSLAYER1
  6
CONTINUOUS
 62
     3
 10
923.575331
 20
1408.885206
 11
921.349644
 21
1409.657460
  0
LINE
  8
CSLAYER1
  6
CONTINUOUS
 62
     3
 10
921.349644
 20
1409.657460
 11
919.256006
 21
1410.532426
  0
LINE
  8
CSLAYER1
  6
CONTINUOUS
 62
     3
 10
919.256006
 20
1410.532426
 11
917.310351
 21
1411.503443
  0
LINE
  8
CSLAYER1
  6
CONTINUOUS
 62
     3
 10
917.310351
 20
1411.503443
 11
915.527487
 21
1412.563123
  0
LINE
  8
CSLAYER1
  6
CONTINUOUS
 62
     3
 10
915.527487
 20
1412.563123
 11
913.920982
 21
1413.703400
  0
LINE
  8
CSLAYER1
  6
CONTINUOUS
 62
     3
 10
913.920982
 20
1413.703400
 11
912.503063
 21
1414.915596
  0
LINE
  8
CSLAYER1
  6
CONTINUOUS
 62
     3
 10
912.503063
 20
1414.915596
 11
911.284521
 21
1416.190486
  0
LINE
  8
CSLAYER1
  6
CONTINUOUS
 62
     3
 10
911.284521
 20
1416.190486
 11
910.274629
 21
1417.518366
  0
LINE
  8
CSLAYER1
  6
CONTINUOUS
 62
     3
 10
910.274629
 20
1417.518366
 11
909.481075
 21
1418.889132
  0
LINE
  8
CSLAYER1
  6
CONTINUOUS
 62
     3
 10
909.481075
 20
1418.889132
 11
908.909897
 21
1420.292350
  0
LINE
  8
CSLAYER1
  6
CONTINUOUS
 62
     3
 10
908.909897
 20
1420.292350
 11
908.565442
 21
1421.717342
  0
LINE
  8
CSLAYER1
  6
CONTINUOUS
 62
     3
 10
908.450331
 20
1431.524536
 11
908.565442
 21
1432.960456
  0
LINE
  8
CSLAYER1
  6
CONTINUOUS
 62
     3
 10
908.565442
 20
1432.960456
 11
908.909897
 21
1434.385448
  0
LINE
  8
CSLAYER1
  6
CONTINUOUS
 62
     3
 10
908.909897
 20
1434.385448
 11
909.140806
 21
1434.952724
  0
LINE
  8
CSLAYER1
  6
CONTINUOUS
 62
     3
 10
918.700331
 20
1419.181021
 11
917.310351
 21
1419.874718
  0
LINE
  8
CSLAYER1
  6
CONTINUOUS
 62
     3
 10
917.310351
 20
1419.874718
 11
915.527487
 21
1420.934398
  0
LINE
  8
CSLAYER1
  6
CONTINUOUS
 62
     3
 10
915.527487
 20
1420.934398
 11
913.920982
 21
1422.074675
  0
LINE
  8
CSLAYER1
  6
CONTINUOUS
 62
     3
 10
913.920982
 20
1422.074675
 11
912.503063
 21
1423.286871
  0
LINE
  8
CSLAYER1
  6
CONTINUOUS
 62
     3
 10
912.503063
 20
1423.286871
 11
911.284521
 21
1424.561761
  0
LINE
  8
CSLAYER1
  6
CONTINUOUS
 62
     3
 10
911.284521
 20
1424.561761
 11
910.274629
 21
1425.889641
  0
LINE
  8
CSLAYER1
  6
CONTINUOUS
 62
     3
 10
910.274629
 20
1425.889641
 11
909.481075
 21
1427.260407
  0
LINE
  8
CSLAYER1
  6
CONTINUOUS
 62
     3
 10
909.481075
 20
1427.260407
 11
908.909897
 21
1428.663625
  0
LINE
  8
CSLAYER1
  6
CONTINUOUS
 62
     3
 10
908.909897
 20
1428.663625
 11
908.565442
 21
1430.088617
  0
LINE
  8
CSLAYER1
  6
CONTINUOUS
 62
     3
 10
908.565442
 20
1430.088617
 11
908.450331
 21
1431.524536
  0
ENDBLK
  8
0
  0
BLOCK
  8
CSLAYER1
  2
BLKF0003
 70
   64
 10
0.0
 20
0.0
 30
0.0
  0
LINE
  8
CSLAYER1
  6
CONTINUOUS
 62
     3
 10
1537.805050
 20
3029.216925
 11
1532.734422
 21
3031.126642
  0
LINE
  8
CSLAYER1
  6
CONTINUOUS
 62
     3
 10
1532.734422
 20
3031.126642
 11
1526.309790
 21
3031.305104
  0
LINE
  8
CSLAYER1
  6
CONTINUOUS
 62
     3
 10
1538.859380
 20
3030.606027
 11
1533.210321
 21
3032.970750
  0
LINE
  8
CSLAYER1
  6
CONTINUOUS
 62
     3
 10
1533.210321
 20
3032.970750
 11
1527.856461
 21
3034.279471
  0
LINE
  8
CSLAYER1
  6
CONTINUOUS
 62
     3
 10
1539.701575
 20
3031.715637
 11
1534.816479
 21
3034.576907
  0
LINE
  8
CSLAYER1
  6
CONTINUOUS
 62
     3
 10
1534.816479
 20
3034.576907
 11
1532.496473
 21
3037.908198
  0
LINE
  8
CSLAYER1
  6
CONTINUOUS
 62
     3
 10
1536.621297
 20
3027.657305
 11
1540.853348
 21
3033.233122
  0
LINE
  8
CSLAYER1
  6
CONTINUOUS
 62
     3
 10
1536.621297
 20
3027.657305
 11
1724.355225
 21
2885.167054
  0
LINE
  8
CSLAYER1
  6
CONTINUOUS
 62
     3
 10
1540.853348
 20
3033.233122
 11
1728.587276
 21
2890.742872
  0
ARC
  8
CSLAYER1
  6
CONTINUOUS
 62
     3
 10
1752.770427
 20
2922.604686
 40
47.000000
 50
0.000000
 51
190.756396
  0
ARC
  8
CSLAYER1
  6
CONTINUOUS
 62
     3
 10
1752.770427
 20
2922.604686
 40
40.000000
 50
0.000000
 51
203.471057
  0
ARC
  8
CSLAYER1
  6
CONTINUOUS
 62
     3
 10
1752.770427
 20
2922.604686
 40
40.000000
 50
232.801463
 51
360.000000
  0
ARC
  8
CSLAYER1
  6
CONTINUOUS
 62
     3
 10
1752.770427
 20
2922.604686
 40
47.000000
 50
232.801463
 51
360.000000
  0
LINE
  8
CSLAYER1
  6
CONTINUOUS
 62
     3
 10
2068.281749
 20
2882.604686
 11
1784.305367
 21
2882.604686
  0
LINE
  8
CSLAYER1
  6
CONTINUOUS
 62
     3
 10
2068.281749
 20
2875.604686
 11
1774.423577
 21
2875.604686
  0
ENDBLK
  8
0
  0
BLOCK
  8
CSLAYER1
  2
BLKF0004
 70
   64
 10
0.0
 20
0.0
 30
0.0
  0
LINE
  8
CSLAYER1
  6
CONTINUOUS
 62
     3
 10
1601.620088
 20
2919.104686
 11
1601.620088
 21
2857.104686
  0
LINE
  8
CSLAYER1
  6
CONTINUOUS
 62
     3
 10
1599.120088
 20
2921.604686
 11
1514.120088
 21
2921.604686
  0
LINE
  8
CSLAYER1
  6
CENTER
 62
     5
 10
1659.969727
 20
2849.104686
 11
1601.620088
 21
2849.104686
  0
LINE
  8
CSLAYER1
  6
CONTINUOUS
 62
     2
 10
1599.120088
 20
2865.104686
 11
1514.120088
 21
2865.104686
  0
LINE
  8
CSLAYER1
  6
CONTINUOUS
 62
     3
 10
1599.120088
 20
2916.604686
 11
1599.120088
 21
2871.604686
  0
LINE
  8
CSLAYER1
  6
CONTINUOUS
 62
     3
 10
1511.620088
 20
2919.104686
 11
1511.620088
 21
2849.104686
  0
LINE
  8
CSLAYER1
  6
CONTINUOUS
 62
     3
 10
1596.620088
 20
2919.104686
 11
1519.620088
 21
2919.104686
  0
LINE
  8
CSLAYER1
  6
CONTINUOUS
 62
     3
 10
1596.620088
 20
2869.104686
 11
1519.620088
 21
2869.104686
  0
ARC
  8
CSLAYER1
  6
CONTINUOUS
 62
     3
 10
1573.688270
 20
2894.104686
 40
59.568182
 50
155.185163
 51
204.814837
  0
ARC
  8
CSLAYER1
  6
CONTINUOUS
 62
     3
 10
1596.620088
 20
2916.604686
 40
2.500000
 50
0.000000
 51
90.000000
  0
ARC
  8
CSLAYER1
  6
CONTINUOUS
 62
     3
 10
1596.620088
 20
2871.604686
 40
2.500000
 50
270.000000
 51
360.000000
  0
ARC
  8
CSLAYER1
  6
CONTINUOUS
 62
     3
 10
1599.120088
 20
2919.104686
 40
2.500000
 50
0.000000
 51
90.000000
  0
ARC
  8
CSLAYER1
  6
CONTINUOUS
 62
     3
 10
1514.120088
 20
2919.104686
 40
2.500000
 50
90.000000
 51
180.000000
  0
ARC
  8
CSLAYER1
  6
CONTINUOUS
 62
     2
 10
1514.120088
 20
2862.604686
 40
2.500000
 50
90.000000
 51
180.000000
  0
ARC
  8
CSLAYER1
  6
CONTINUOUS
 62
     2
 10
1599.120088
 20
2862.604686
 40
2.500000
 50
0.000000
 51
90.000000
  0
LINE
  8
CSLAYER1
  6
CONTINUOUS
 62
     3
 10
1601.620088
 20
2779.104686
 11
1601.620088
 21
2841.104686
  0
LINE
  8
CSLAYER1
  6
CONTINUOUS
 62
     3
 10
1599.120088
 20
2776.604686
 11
1514.120088
 21
2776.604686
  0
LINE
  8
CSLAYER1
  6
CONTINUOUS
 62
     2
 10
1599.120088
 20
2833.104686
 11
1514.120088
 21
2833.104686
  0
LINE
  8
CSLAYER1
  6
CONTINUOUS
 62
     3
 10
1511.620088
 20
2779.104686
 11
1511.620088
 21
2849.104686
  0
ARC
  8
CSLAYER1
  6
CONTINUOUS
 62
     3
 10
1599.120088
 20
2779.104686
 40
2.500000
 50
270.000000
 51
360.000000
  0
ARC
  8
CSLAYER1
  6
CONTINUOUS
 62
     3
 10
1514.120088
 20
2779.104686
 40
2.500000
 50
180.000000
 51
270.000000
  0
ARC
  8
CSLAYER1
  6
CONTINUOUS
 62
     2
 10
1514.120088
 20
2835.604686
 40
2.500000
 50
180.000000
 51
270.000000
  0
ARC
  8
CSLAYER1
  6
CONTINUOUS
 62
     2
 10
1599.120088
 20
2835.604686
 40
2.500000
 50
270.000000
 51
360.000000
  0
LINE
  8
CSLAYER1
  6
CONTINUOUS
 62
     3
 10
1599.120088
 20
2781.604686
 11
1599.120088
 21
2826.604686
  0
LINE
  8
CSLAYER1
  6
CONTINUOUS
 62
     3
 10
1596.620088
 20
2779.104686
 11
1519.620088
 21
2779.104686
  0
LINE
  8
CSLAYER1
  6
CONTINUOUS
 62
     3
 10
1596.620088
 20
2829.104686
 11
1519.620088
 21
2829.104686
  0
ARC
  8
CSLAYER1
  6
CONTINUOUS
 62
     3
 10
1573.688270
 20
2804.104686
 40
59.568182
 50
155.185163
 51
204.814837
  0
ARC
  8
CSLAYER1
  6
CONTINUOUS
 62
     3
 10
1596.620088
 20
2781.604686
 40
2.500000
 50
270.000000
 51
360.000000
  0
ARC
  8
CSLAYER1
  6
CONTINUOUS
 62
     3
 10
1596.620088
 20
2826.604686
 40
2.500000
 50
0.000000
 51
90.000000
  0
LINE
  8
CSLAYER1
  6
CONTINUOUS
 62
     3
 10
1608.620088
 20
2842.104686
 11
1608.620088
 21
2845.604686
  0
LINE
  8
CSLAYER1
  6
CONTINUOUS
 62
     3
 10
1659.969727
 20
2845.604686
 11
1608.620088
 21
2845.604686
  0
LINE
  8
CSLAYER1
  6
CONTINUOUS
 62
     3
 10
1607.620088
 20
2841.104686
 11
1601.620088
 21
2841.104686
  0
LINE
  8
CSLAYER1
  6
CONTINUOUS
 62
     3
 10
1607.620088
 20
2857.104686
 11
1601.620088
 21
2857.104686
  0
LINE
  8
CSLAYER1
  6
CONTINUOUS
 62
     3
 10
1659.969727
 20
2852.604686
 11
1608.620088
 21
2852.604686
  0
ARC
  8
CSLAYER1
  6
CONTINUOUS
 62
     3
 10
1607.620088
 20
2856.104686
 40
1.000000
 50
0.000000
 51
90.000000
  0
ARC
  8
CSLAYER1
  6
CONTINUOUS
 62
     3
 10
1607.620088
 20
2842.104686
 40
1.000000
 50
270.000000
 51
360.000000
  0
LINE
  8
CSLAYER1
  6
CONTINUOUS
 62
     3
 10
1608.620088
 20
2852.604686
 11
1608.620088
 21
2856.104686
  0
LINE
  8
CSLAYER1
  6
CONTINUOUS
 62
     2
 10
1608.620088
 20
2845.604686
 11
1608.620088
 21
2852.604686
  0
LINE
  8
CSLAYER1
  6
CONTINUOUS
 62
     2
 10
1601.620088
 20
2857.104686
 11
1601.620088
 21
2849.104686
  0
LINE
  8
CSLAYER1
  6
CONTINUOUS
 62
     2
 10
1601.620088
 20
2841.104686
 11
1601.620088
 21
2849.104686
  0
LINE
  8
CSLAYER1
  6
CONTINUOUS
 62
     2
 10
1582.127077
 20
2861.267345
 11
1591.262077
 21
2861.267345
  0
LINE
  8
CSLAYER1
  6
CONTINUOUS
 62
     2
 10
1582.127077
 20
2837.642345
 11
1591.262077
 21
2837.642345
  0
LINE
  8
CSLAYER1
  6
CONTINUOUS
 62
     2
 10
1592.522077
 20
2860.007345
 11
1592.522077
 21
2838.902345
  0
LINE
  8
CSLAYER1
  6
CONTINUOUS
 62
     2
 10
1580.867077
 20
2860.007345
 11
1580.867077
 21
2838.902345
  0
LINE
  8
CSLAYER1
  6
CONTINUOUS
 62
     2
 10
1582.757077
 20
2839.532345
 11
1590.789577
 21
2839.532345
  0
LINE
  8
CSLAYER1
  6
CONTINUOUS
 62
     2
 10
1582.757077
 20
2842.682345
 11
1583.702077
 21
2842.682345
  0
LINE
  8
CSLAYER1
  6
CONTINUOUS
 62
     2
 10
1582.757077
 20
2851.344845
 11
1583.702077
 21
2851.344845
  0
LINE
  8
CSLAYER1
  6
CONTINUOUS
 62
     2
 10
1582.757077
 20
2855.912345
 11
1587.797077
 21
2855.912345
  0
LINE
  8
CSLAYER1
  6
CONTINUOUS
 62
     2
 10
1581.654577
 20
2854.809845
 11
1581.654577
 21
2852.447345
  0
LINE
  8
CSLAYER1
  6
CONTINUOUS
 62
     2
 10
1588.899577
 20
2854.809845
 11
1588.899577
 21
2852.447345
  0
LINE
  8
CSLAYER1
  6
CONTINUOUS
 62
     2
 10
1591.892077
 20
2841.579845
 11
1591.892077
 21
2840.634845
  0
LINE
  8
CSLAYER1
  6
CONTINUOUS
 62
     2
 10
1584.647077
 20
2850.399845
 11
1584.647077
 21
2843.627345
  0
LINE
  8
CSLAYER1
  6
CONTINUOUS
 62
     2
 10
1585.434577
 20
2850.399845
 11
1585.434577
 21
2843.627345
  0
ARC
  8
CSLAYER1
  6
CONTINUOUS
 62
     2
 10
1582.757077
 20
2854.809845
 40
1.102500
 50
90.000000
 51
180.000000
  0
ARC
  8
CSLAYER1
  6
CONTINUOUS
 62
     2
 10
1587.797077
 20
2854.809845
 40
1.102500
 50
0.000000
 51
90.000000
  0
ARC
  8
CSLAYER1
  6
CONTINUOUS
 62
     2
 10
1587.797077
 20
2852.447345
 40
1.102500
 50
270.000000
 51
360.000000
  0
ARC
  8
CSLAYER1
  6
CONTINUOUS
 62
     2
 10
1582.757077
 20
2852.447345
 40
1.102500
 50
180.000000
 51
270.000000
  0
ARC
  8
CSLAYER1
  6
CONTINUOUS
 62
     2
 10
1590.789577
 20
2841.579845
 40
1.102500
 50
0.000000
 51
90.000000
  0
ARC
  8
CSLAYER1
  6
CONTINUOUS
 62
     2
 10
1590.789577
 20
2840.634845
 40
1.102500
 50
270.000000
 51
360.000000
  0
ARC
  8
CSLAYER1
  6
CONTINUOUS
 62
     2
 10
1582.757077
 20
2840.634845
 40
1.102500
 50
180.000000
 51
270.000000
  0
ARC
  8
CSLAYER1
  6
CONTINUOUS
 62
     2
 10
1582.757077
 20
2841.579845
 40
1.102500
 50
90.000000
 51
180.000000
  0
LINE
  8
CSLAYER1
  6
CONTINUOUS
 62
     2
 10
1586.379577
 20
2851.344845
 11
1587.797077
 21
2851.344845
  0
LINE
  8
CSLAYER1
  6
CONTINUOUS
 62
     2
 10
1586.379577
 20
2842.682345
 11
1590.789577
 21
2842.682345
  0
ARC
  8
CSLAYER1
  6
CONTINUOUS
 62
     2
 10
1583.702077
 20
2850.399845
 40
0.945000
 50
0.000000
 51
90.000000
  0
ARC
  8
CSLAYER1
  6
CONTINUOUS
 62
     2
 10
1586.379577
 20
2850.399845
 40
0.945000
 50
90.000000
 51
180.000000
  0
ARC
  8
CSLAYER1
  6
CONTINUOUS
 62
     2
 10
1586.379577
 20
2843.627345
 40
0.945000
 50
180.000000
 51
270.000000
  0
ARC
  8
CSLAYER1
  6
CONTINUOUS
 62
     2
 10
1582.127077
 20
2860.007345
 40
1.260000
 50
90.000000
 51
180.000000
  0
ARC
  8
CSLAYER1
  6
CONTINUOUS
 62
     2
 10
1591.262077
 20
2860.007345
 40
1.260000
 50
0.000000
 51
90.000000
  0
ARC
  8
CSLAYER1
  6
CONTINUOUS
 62
     2
 10
1591.262077
 20
2838.902345
 40
1.260000
 50
270.000000
 51
360.000000
  0
ARC
  8
CSLAYER1
  6
CONTINUOUS
 62
     2
 10
1582.127077
 20
2838.902345
 40
1.260000
 50
180.000000
 51
270.000000
  0
ARC
  8
CSLAYER1
  6
CONTINUOUS
 62
     2
 10
1583.702077
 20
2843.627345
 40
0.945000
 50
270.000000
 51
360.000000
  0
LINE
  8
CSLAYER1
  6
CONTINUOUS
 62
     2
 10
1581.654577
 20
2841.579845
 11
1581.654577
 21
2840.634845
  0
CIRCLE
  8
CSLAYER1
  6
CONTINUOUS
 62
     2
 10
1567.120088
 20
2899.104686
 40
2.500000
  0
CIRCLE
  8
CSLAYER1
  6
CONTINUOUS
 62
     2
 10
1567.120088
 20
2909.104686
 40
2.500000
  0
CIRCLE
  8
CSLAYER1
  6
CONTINUOUS
 62
     2
 10
1557.120088
 20
2909.104686
 40
2.500000
  0
CIRCLE
  8
CSLAYER1
  6
CONTINUOUS
 62
     2
 10
1557.120088
 20
2899.104686
 40
2.500000
  0
CIRCLE
  8
CSLAYER1
  6
CONTINUOUS
 62
     2
 10
1547.120088
 20
2899.104686
 40
2.500000
  0
CIRCLE
  8
CSLAYER1
  6
CONTINUOUS
 62
     2
 10
1547.120088
 20
2909.104686
 40
2.500000
  0
CIRCLE
  8
CSLAYER1
  6
CONTINUOUS
 62
     2
 10
1537.120088
 20
2909.104686
 40
2.500000
  0
CIRCLE
  8
CSLAYER1
  6
CONTINUOUS
 62
     2
 10
1537.120088
 20
2899.104686
 40
2.500000
  0
CIRCLE
  8
CSLAYER1
  6
CONTINUOUS
 62
     2
 10
1527.120088
 20
2899.104686
 40
2.500000
  0
CIRCLE
  8
CSLAYER1
  6
CONTINUOUS
 62
     2
 10
1527.120088
 20
2909.104686
 40
2.500000
  0
CIRCLE
  8
CSLAYER1
  6
CONTINUOUS
 62
     2
 10
1567.120088
 20
2889.104686
 40
2.500000
  0
CIRCLE
  8
CSLAYER1
  6
CONTINUOUS
 62
     2
 10
1567.120088
 20
2879.104686
 40
2.500000
  0
CIRCLE
  8
CSLAYER1
  6
CONTINUOUS
 62
     2
 10
1557.120088
 20
2879.104686
 40
2.500000
  0
CIRCLE
  8
CSLAYER1
  6
CONTINUOUS
 62
     2
 10
1557.120088
 20
2889.104686
 40
2.500000
  0
CIRCLE
  8
CSLAYER1
  6
CONTINUOUS
 62
     2
 10
1547.120088
 20
2889.104686
 40
2.500000
  0
CIRCLE
  8
CSLAYER1
  6
CONTINUOUS
 62
     2
 10
1547.120088
 20
2879.104686
 40
2.500000
  0
CIRCLE
  8
CSLAYER1
  6
CONTINUOUS
 62
     2
 10
1537.120088
 20
2879.104686
 40
2.500000
  0
CIRCLE
  8
CSLAYER1
  6
CONTINUOUS
 62
     2
 10
1537.120088
 20
2889.104686
 40
2.500000
  0
CIRCLE
  8
CSLAYER1
  6
CONTINUOUS
 62
     2
 10
1527.120088
 20
2889.104686
 40
2.500000
  0
CIRCLE
  8
CSLAYER1
  6
CONTINUOUS
 62
     2
 10
1527.120088
 20
2879.104686
 40
2.500000
  0
CIRCLE
  8
CSLAYER1
  6
CONTINUOUS
 62
     2
 10
1567.120088
 20
2799.104686
 40
2.500000
  0
CIRCLE
  8
CSLAYER1
  6
CONTINUOUS
 62
     2
 10
1567.120088
 20
2789.104686
 40
2.500000
  0
CIRCLE
  8
CSLAYER1
  6
CONTINUOUS
 62
     2
 10
1557.120088
 20
2789.104686
 40
2.500000
  0
CIRCLE
  8
CSLAYER1
  6
CONTINUOUS
 62
     2
 10
1557.120088
 20
2799.104686
 40
2.500000
  0
CIRCLE
  8
CSLAYER1
  6
CONTINUOUS
 62
     2
 10
1547.120088
 20
2799.104686
 40
2.500000
  0
CIRCLE
  8
CSLAYER1
  6
CONTINUOUS
 62
     2
 10
1547.120088
 20
2789.104686
 40
2.500000
  0
CIRCLE
  8
CSLAYER1
  6
CONTINUOUS
 62
     2
 10
1537.120088
 20
2789.104686
 40
2.500000
  0
CIRCLE
  8
CSLAYER1
  6
CONTINUOUS
 62
     2
 10
1537.120088
 20
2799.104686
 40
2.500000
  0
CIRCLE
  8
CSLAYER1
  6
CONTINUOUS
 62
     2
 10
1527.120088
 20
2799.104686
 40
2.500000
  0
CIRCLE
  8
CSLAYER1
  6
CONTINUOUS
 62
     2
 10
1527.120088
 20
2789.104686
 40
2.500000
  0
CIRCLE
  8
CSLAYER1
  6
CONTINUOUS
 62
     2
 10
1567.120088
 20
2809.104686
 40
2.500000
  0
CIRCLE
  8
CSLAYER1
  6
CONTINUOUS
 62
     2
 10
1567.120088
 20
2819.104686
 40
2.500000
  0
CIRCLE
  8
CSLAYER1
  6
CONTINUOUS
 62
     2
 10
1557.120088
 20
2819.104686
 40
2.500000
  0
CIRCLE
  8
CSLAYER1
  6
CONTINUOUS
 62
     2
 10
1557.120088
 20
2809.104686
 40
2.500000
  0
CIRCLE
  8
CSLAYER1
  6
CONTINUOUS
 62
     2
 10
1547.120088
 20
2809.104686
 40
2.500000
  0
CIRCLE
  8
CSLAYER1
  6
CONTINUOUS
 62
     2
 10
1547.120088
 20
2819.104686
 40
2.500000
  0
CIRCLE
  8
CSLAYER1
  6
CONTINUOUS
 62
     2
 10
1537.120088
 20
2819.104686
 40
2.500000
  0
CIRCLE
  8
CSLAYER1
  6
CONTINUOUS
 62
     2
 10
1537.120088
 20
2809.104686
 40
2.500000
  0
CIRCLE
  8
CSLAYER1
  6
CONTINUOUS
 62
     2
 10
1527.120088
 20
2809.104686
 40
2.500000
  0
CIRCLE
  8
CSLAYER1
  6
CONTINUOUS
 62
     2
 10
1527.120088
 20
2819.104686
 40
2.500000
  0
LINE
  8
CSLAYER1
  6
CONTINUOUS
 62
     2
 10
1593.120088
 20
2821.604686
 11
1593.120088
 21
2786.604686
  0
LINE
  8
CSLAYER1
  6
CONTINUOUS
 62
     2
 10
1577.120088
 20
2821.604686
 11
1577.120088
 21
2786.604686
  0
LINE
  8
CSLAYER1
  6
CONTINUOUS
 62
     2
 10
1591.620088
 20
2823.104686
 11
1578.620088
 21
2823.104686
  0
LINE
  8
CSLAYER1
  6
CONTINUOUS
 62
     2
 10
1592.120088
 20
2821.604686
 11
1592.120088
 21
2786.604686
  0
LINE
  8
CSLAYER1
  6
CONTINUOUS
 62
     2
 10
1578.120088
 20
2821.604686
 11
1578.120088
 21
2786.604686
  0
LINE
  8
CSLAYER1
  6
CONTINUOUS
 62
     2
 10
1591.620088
 20
2822.104686
 11
1578.620088
 21
2822.104686
  0
LINE
  8
CSLAYER1
  6
CONTINUOUS
 62
     2
 10
1591.620088
 20
2785.104686
 11
1578.620088
 21
2785.104686
  0
LINE
  8
CSLAYER1
  6
CONTINUOUS
 62
     2
 10
1591.620088
 20
2786.104686
 11
1578.620088
 21
2786.104686
  0
ARC
  8
CSLAYER1
  6
CONTINUOUS
 62
     2
 10
1591.620088
 20
2821.604686
 40
0.500000
 50
0.000000
 51
90.000000
  0
ARC
  8
CSLAYER1
  6
CONTINUOUS
 62
     2
 10
1578.620088
 20
2821.604686
 40
0.500000
 50
90.000000
 51
180.000000
  0
ARC
  8
CSLAYER1
  6
CONTINUOUS
 62
     2
 10
1591.620088
 20
2786.604686
 40
0.500000
 50
270.000000
 51
360.000000
  0
ARC
  8
CSLAYER1
  6
CONTINUOUS
 62
     2
 10
1578.620088
 20
2786.604686
 40
0.500000
 50
180.000000
 51
270.000000
  0
ARC
  8
CSLAYER1
  6
CONTINUOUS
 62
     2
 10
1591.620088
 20
2821.604686
 40
1.500000
 50
0.000000
 51
90.000000
  0
ARC
  8
CSLAYER1
  6
CONTINUOUS
 62
     2
 10
1578.620088
 20
2821.604686
 40
1.500000
 50
90.000000
 51
180.000000
  0
ARC
  8
CSLAYER1
  6
CONTINUOUS
 62
     2
 10
1591.620088
 20
2786.604686
 40
1.500000
 50
270.000000
 51
360.000000
  0
ARC
  8
CSLAYER1
  6
CONTINUOUS
 62
     2
 10
1578.620088
 20
2786.604686
 40
1.500000
 50
180.000000
 51
270.000000
  0
LINE
  8
CSLAYER1
  6
CONTINUOUS
 62
     2
 10
1588.120088
 20
2813.104686
 11
1588.120088
 21
2795.104686
  0
LINE
  8
CSLAYER1
  6
CONTINUOUS
 62
     2
 10
1591.198160
 20
2804.104686
 11
1588.120088
 21
2795.104686
  0
LINE
  8
CSLAYER1
  6
CONTINUOUS
 62
     2
 10
1591.198160
 20
2804.104686
 11
1588.120088
 21
2813.104686
  0
TEXT
  8
CSLAYER1
 62
     2
 10
1579.826102
 20
2813.084892
 40
7.066058
 41
1.574983
  1
UP
 50
270.000000
 51
0.000000
  7
EASYDRAW_FONT
 72
     5
 11
1579.826102
 21
2794.536690
  0
LINE
  8
CSLAYER1
  6
CONTINUOUS
 62
     2
 10
1593.120088
 20
2876.604686
 11
1593.120088
 21
2911.604686
  0
LINE
  8
CSLAYER1
  6
CONTINUOUS
 62
     2
 10
1577.120088
 20
2876.604686
 11
1577.120088
 21
2911.604686
  0
LINE
  8
CSLAYER1
  6
CONTINUOUS
 62
     2
 10
1591.620088
 20
2875.104686
 11
1578.620088
 21
2875.104686
  0
LINE
  8
CSLAYER1
  6
CONTINUOUS
 62
     2
 10
1592.120088
 20
2876.604686
 11
1592.120088
 21
2911.604686
  0
LINE
  8
CSLAYER1
  6
CONTINUOUS
 62
     2
 10
1578.120088
 20
2876.604686
 11
1578.120088
 21
2911.604686
  0
LINE
  8
CSLAYER1
  6
CONTINUOUS
 62
     2
 10
1591.620088
 20
2876.104686
 11
1578.620088
 21
2876.104686
  0
LINE
  8
CSLAYER1
  6
CONTINUOUS
 62
     2
 10
1591.620088
 20
2913.104686
 11
1578.620088
 21
2913.104686
  0
LINE
  8
CSLAYER1
  6
CONTINUOUS
 62
     2
 10
1591.620088
 20
2912.104686
 11
1578.620088
 21
2912.104686
  0
ARC
  8
CSLAYER1
  6
CONTINUOUS
 62
     2
 10
1591.620088
 20
2876.604686
 40
0.500000
 50
270.000000
 51
360.000000
  0
ARC
  8
CSLAYER1
  6
CONTINUOUS
 62
     2
 10
1578.620088
 20
2876.604686
 40
0.500000
 50
180.000000
 51
270.000000
  0
ARC
  8
CSLAYER1
  6
CONTINUOUS
 62
     2
 10
1591.620088
 20
2911.604686
 40
0.500000
 50
0.000000
 51
90.000000
  0
ARC
  8
CSLAYER1
  6
CONTINUOUS
 62
     2
 10
1578.620088
 20
2911.604686
 40
0.500000
 50
90.000000
 51
180.000000
  0
ARC
  8
CSLAYER1
  6
CONTINUOUS
 62
     2
 10
1591.620088
 20
2876.604686
 40
1.500000
 50
270.000000
 51
360.000000
  0
ARC
  8
CSLAYER1
  6
CONTINUOUS
 62
     2
 10
1578.620088
 20
2876.604686
 40
1.500000
 50
180.000000
 51
270.000000
  0
ARC
  8
CSLAYER1
  6
CONTINUOUS
 62
     2
 10
1591.620088
 20
2911.604686
 40
1.500000
 50
0.000000
 51
90.000000
  0
ARC
  8
CSLAYER1
  6
CONTINUOUS
 62
     2
 10
1578.620088
 20
2911.604686
 40
1.500000
 50
90.000000
 51
180.000000
  0
LINE
  8
CSLAYER1
  6
CONTINUOUS
 62
     2
 10
1582.647158
 20
2885.104686
 11
1582.647158
 21
2903.104686
  0
LINE
  8
CSLAYER1
  6
CONTINUOUS
 62
     2
 10
1579.569086
 20
2894.104686
 11
1582.647158
 21
2903.104686
  0
LINE
  8
CSLAYER1
  6
CONTINUOUS
 62
     2
 10
1579.569086
 20
2894.104686
 11
1582.647158
 21
2885.104686
  0
TEXT
  8
CSLAYER1
 62
     2
 10
1584.257187
 20
2908.802705
 40
6.383575
 41
1.255870
  1
DOWN
 50
270.000000
 51
0.000000
  7
EASYDRAW_FONT
 72
     5
 11
1584.257187
 21
2879.407256
  0
ENDBLK
  8
0
  0
ENDSEC
  0
SECTION
  2
ENTITIES
  0
LINE
  8
CSLAYER1
  6
CONTINUOUS
 62
     3
 10
180.707488
 20
3599.850540
 11
180.707488
 21
75.393795
  0
LINE
  8
CSLAYER1
  6
CONTINUOUS
 62
     3
 10
5161.512127
 20
3599.850540
 11
180.707488
 21
3599.850540
  0
LINE
  8
CSLAYER1
  6
CONTINUOUS
 62
     3
 10
5161.512127
 20
75.393795
 11
180.707488
 21
75.393795
  0
LINE
  8
CSLAYER1
  6
CONTINUOUS
 62
     3
 10
5161.512127
 20
75.393795
 11
5161.512127
 21
3599.850540
  0
LINE
  8
CSLAYER1
  6
CONTINUOUS
 62
     5
 10
105.707488
 20
1815.393795
 11
30.707488
 21
1815.393795
  0
LINE
  8
CSLAYER1
  6
CONTINUOUS
 62
     5
 10
3961.512127
 20
735.393795
 11
5161.512127
 21
735.393795
  0
LINE
  8
CSLAYER1
  6
CONTINUOUS
 62
     5
 10
3961.512127
 20
195.393795
 11
5161.512127
 21
195.393795
  0
LINE
  8
CSLAYER1
  6
CONTINUOUS
 62
     5
 10
3961.512127
 20
435.393795
 11
5161.512127
 21
435.393795
  0
LINE
  8
CSLAYER1
  6
CONTINUOUS
 62
     5
 10
3961.512127
 20
525.393795
 11
5161.512127
 21
525.393795
  0
LINE
  8
CSLAYER1
  6
CONTINUOUS
 62
     5
 10
3961.512127
 20
615.393795
 11
5161.512127
 21
615.393795
  0
LINE
  8
CSLAYER1
  6
CONTINUOUS
 62
     5
 10
3961.512127
 20
855.393795
 11
5161.512127
 21
855.393795
  0
LINE
  8
CSLAYER1
  6
CONTINUOUS
 62
     5
 10
3961.512127
 20
975.393795
 11
3961.512127
 21
75.393795
  0
LINE
  8
CSLAYER1
  6
CONTINUOUS
 62
     5
 10
4261.512127
 20
975.393795
 11
4261.512127
 21
615.393795
  0
LINE
  8
CSLAYER1
  6
CONTINUOUS
 62
     5
 10
3961.512127
 20
975.393795
 11
5161.512127
 21
975.393795
  0
LINE
  8
CSLAYER1
  6
CONTINUOUS
 62
     5
 10
4711.512127
 20
615.393795
 11
4711.512127
 21
195.393795
  0
TEXT
  8
CSLAYER1
 62
     3
 10
4291.048678
 20
88.237877
 40
89.070541
 41
1.003345
  1
東正車輌株式会社
 50
0.000000
 51
0.000000
  7
EASYDRAW_FONT
 72
     5
 11
4976.207181
 21
88.237877
  0
LINE
  8
CSLAYER1
  6
CONTINUOUS
 62
     5
 10
4336.512127
 20
525.393795
 11
4336.512127
 21
195.393795
  0
TEXT
  8
CSLAYER1
 62
     5
 10
4006.511719
 20
877.893738
 40
75.000000
 41
1.050000
  1
品　名
 50
0.000000
 51
0.000000
  7
EASYDRAW_FONT
 72
     5
 11
4216.511719
 21
877.893738
  0
TEXT
  8
CSLAYER1
 62
     5
 10
4006.511719
 20
757.893738
 40
75.000000
 41
1.050000
  1
型　式
 50
0.000000
 51
0.000000
  7
EASYDRAW_FONT
 72
     5
 11
4216.511719
 21
757.893738
  0
TEXT
  8
CSLAYER1
 62
     5
 10
3969.011719
 20
637.893799
 40
75.000000
 41
1.036364
  1
図面番号
 50
0.000000
 51
0.000000
  7
EASYDRAW_FONT
 72
     5
 11
4254.011719
 21
637.893799
  0
TEXT
  8
CSLAYER1
 62
     5
 10
4036.511719
 20
532.893799
 40
75.000000
 41
0.827586
  1
平成２８年４月１６日
 50
0.000000
 51
0.000000
  7
EASYDRAW_FONT
 72
     5
 11
4636.511719
 21
532.893799
  0
TEXT
  8
CSLAYER1
 62
     5
 10
4831.511719
 20
532.893799
 40
75.000000
 41
1.050000
  1
Ｂ－４
 50
0.000000
 51
0.000000
  7
EASYDRAW_FONT
 72
     5
 11
5041.511719
 21
532.893799
  0
TEXT
  8
CSLAYER1
 62
     5
 10
4044.011719
 20
442.893799
 40
75.000000
 41
1.050000
  1
検　図
 50
0.000000
 51
0.000000
  7
EASYDRAW_FONT
 72
     5
 11
4254.011719
 21
442.893799
  0
TEXT
  8
CSLAYER1
 62
     5
 10
4419.011719
 20
442.893799
 40
75.000000
 41
1.050000
  1
作　図
 50
0.000000
 51
0.000000
  7
EASYDRAW_FONT
 72
     5
 11
4629.011719
 21
442.893799
  0
TEXT
  8
CSLAYER1
 62
     5
 10
4831.511719
 20
442.893799
 40
75.000000
 41
1.050000
  1
尺　度
 50
0.000000
 51
0.000000
  7
EASYDRAW_FONT
 72
     5
 11
5041.511719
 21
442.893799
  0
TEXT
  8
CSLAYER1
 62
     5
 10
4982.620117
 20
217.121689
 40
75.000000
 41
1.080000
  1
１５
 50
0.000000
 51
0.000000
  7
EASYDRAW_FONT
 72
     5
 11
5117.620117
 21
217.121689
  0
TEXT
  8
CSLAYER1
 62
     5
 10
4952.140625
 20
288.678741
 40
75.000000
 41
1.200000
  1
／
 50
0.000000
 51
0.000000
  7
EASYDRAW_FONT
 72
     5
 11
5012.140625
 21
288.678741
  0
TEXT
  8
CSLAYER1
 62
     5
 10
4906.821289
 20
341.153900
 40
75.000000
 41
1.200000
  1
１
 50
0.000000
 51
0.000000
  7
EASYDRAW_FONT
 72
     5
 11
4966.821289
 21
341.153900
  0
TEXT
  8
CSLAYER1
 62
     3
 10
4471.511719
 20
877.893738
 40
75.000000
 41
0.834783
  1
ゴールドリフター
 50
0.000000
 51
0.000000
  7
EASYDRAW_FONT
 72
     5
 11
4951.511719
 21
877.893738
  0
TEXT
  8
CSLAYER1
 62
     3
 10
4321.511719
 20
757.893738
 40
75.000000
 41
0.821053
  1
ＧＬＩ－５００－１０１０Ｗ
 50
0.000000
 51
0.000000
  7
EASYDRAW_FONT
 72
     5
 11
5101.511719
 21
757.893738
  0
TEXT
  8
CSLAYER1
 62
     3
 10
4561.511719
 20
637.893799
 40
75.000000
 41
0.857143
  1
GI-28
 50
0.000000
 51
0.000000
  7
EASYDRAW_FONT
 72
     5
 11
4861.511719
 21
637.893799
  0
INSERT
  8
CSLAYER1
  2
BLKF0000
 10
0.0
 20
0.0
 30
0.0
  0
TEXT
  8
CSLAYER1
 62
     5
 10
3527.755859
 20
457.710022
 40
60.000000
 41
1.050000
  1
Ｆ.Ｌ
 50
360.000000
 51
0.000000
  7
EASYDRAW_FONT
 72
     5
 11
3695.755859
 21
457.710022
  0
TEXT
  8
CSLAYER1
 62
     5
 10
2731.217529
 20
969.749512
 40
60.000000
 41
1.017391
  1
ギヤードモーター
 50
360.000000
 51
0.000000
  7
EASYDRAW_FONT
 72
     5
 11
3199.217529
 21
969.749512
  0
LINE
  8
CSLAYER1
  6
CONTINUOUS
 62
     3
 10
1338.700331
 20
514.539455
 11
538.700331
 21
514.539455
  0
LINE
  8
CSLAYER1
  6
CENTER
 62
     5
 10
938.700331
 20
2132.574959
 11
938.700331
 21
413.832959
  0
LINE
  8
CSLAYER1
  6
CONTINUOUS
 62
     3
 10
1268.700331
 20
2027.895939
 11
1268.700331
 21
514.539455
  0
LINE
  8
CSLAYER1
  6
CONTINUOUS
 62
     3
 10
1280.700331
 20
2027.895939
 11
1280.700331
 21
514.539455
  0
LINE
  8
CSLAYER1
  6
CONTINUOUS
 62
     3
 10
1258.700331
 20
2027.895939
 11
1258.700331
 21
514.539455
  0
LINE
  8
CSLAYER1
  6
CONTINUOUS
 62
     3
 10
1246.700331
 20
2027.895939
 11
1246.700331
 21
514.539455
  0
LINE
  8
CSLAYER1
  6
CONTINUOUS
 62
     3
 10
1338.700331
 20
514.539455
 11
1338.700331
 21
449.539455
  0
LINE
  8
CSLAYER1
  6
CENTER
 62
     5
 10
1338.700331
 20
1659.406818
 11
538.700331
 21
1659.406818
  0
LINE
  8
CSLAYER1
  6
CENTER
 62
     5
 10
1246.700331
 20
1335.832833
 11
630.700331
 21
1335.832833
  0
LINE
  8
CSLAYER1
  6
CENTER
 62
     5
 10
1318.358264
 20
1265.117697
 11
559.042399
 21
1265.117697
  0
LINE
  8
CSLAYER1
  6
CONTINUOUS
 62
     3
 10
1246.700331
 20
1277.617697
 11
630.700331
 21
1277.617697
  0
LINE
  8
CSLAYER1
  6
CONTINUOUS
 62
     3
 10
1246.700331
 20
1252.617697
 11
630.700331
 21
1252.617697
  0
LINE
  8
CSLAYER1
  6
CONTINUOUS
 62
     3
 10
1258.700331
 20
1282.117697
 11
1268.700331
 21
1282.117697
  0
LINE
  8
CSLAYER1
  6
CONTINUOUS
 62
     3
 10
1258.700331
 20
1248.117697
 11
1268.700331
 21
1248.117697
  0
LINE
  8
CSLAYER1
  6
CONTINUOUS
 62
     3
 10
1280.700331
 20
1285.117697
 11
1290.700331
 21
1285.117697
  0
LINE
  8
CSLAYER1
  6
CONTINUOUS
 62
     3
 10
1280.700331
 20
1245.117697
 11
1290.700331
 21
1245.117697
  0
LINE
  8
CSLAYER1
  6
CONTINUOUS
 62
     3
 10
1290.700331
 20
1285.117697
 11
1290.700331
 21
1245.117697
  0
LINE
  8
CSLAYER1
  6
CONTINUOUS
 62
     3
 10
1246.700331
 20
1305.832833
 11
630.700331
 21
1305.832833
  0
LINE
  8
CSLAYER1
  6
CONTINUOUS
 62
     3
 10
1246.700331
 20
1671.906818
 11
630.700331
 21
1671.906818
  0
LINE
  8
CSLAYER1
  6
CONTINUOUS
 62
     3
 10
1246.700331
 20
1646.906818
 11
630.700331
 21
1646.906818
  0
LINE
  8
CSLAYER1
  6
CONTINUOUS
 62
     3
 10
1246.700331
 20
1733.466720
 11
630.700331
 21
1733.466720
  0
LINE
  8
CSLAYER1
  6
CONTINUOUS
 62
     3
 10
1258.700331
 20
1676.406818
 11
1268.700331
 21
1676.406818
  0
LINE
  8
CSLAYER1
  6
CONTINUOUS
 62
     3
 10
1280.700331
 20
1679.406818
 11
1290.700331
 21
1679.406818
  0
LINE
  8
CSLAYER1
  6
CONTINUOUS
 62
     3
 10
1280.700331
 20
1639.406818
 11
1290.700331
 21
1639.406818
  0
LINE
  8
CSLAYER1
  6
CONTINUOUS
 62
     3
 10
1290.700331
 20
1679.406818
 11
1290.700331
 21
1639.406818
  0
LINE
  8
CSLAYER1
  6
CONTINUOUS
 62
     3
 10
1258.700331
 20
1642.406818
 11
1268.700331
 21
1642.406818
  0
LINE
  8
CSLAYER1
  6
CONTINUOUS
 62
     3
 10
974.700331
 20
1365.832833
 11
902.700331
 21
1365.832833
  0
LINE
  8
CSLAYER1
  6
CENTER
 62
     5
 10
1338.700331
 20
870.828576
 11
538.700331
 21
870.828576
  0
LINE
  8
CSLAYER1
  6
CONTINUOUS
 62
     3
 10
1246.700331
 20
883.328576
 11
630.700331
 21
883.328576
  0
LINE
  8
CSLAYER1
  6
CONTINUOUS
 62
     3
 10
1258.700331
 20
887.828576
 11
1268.700331
 21
887.828576
  0
LINE
  8
CSLAYER1
  6
CONTINUOUS
 62
     3
 10
1280.700331
 20
890.828576
 11
1290.700331
 21
890.828576
  0
LINE
  8
CSLAYER1
  6
CONTINUOUS
 62
     3
 10
1280.700331
 20
850.828576
 11
1290.700331
 21
850.828576
  0
LINE
  8
CSLAYER1
  6
CONTINUOUS
 62
     3
 10
1290.700331
 20
890.828576
 11
1290.700331
 21
850.828576
  0
LINE
  8
CSLAYER1
  6
CONTINUOUS
 62
     3
 10
1258.700331
 20
853.828576
 11
1268.700331
 21
853.828576
  0
LINE
  8
CSLAYER1
  6
CONTINUOUS
 62
     3
 10
413.700331
 20
2080.895939
 11
413.700331
 21
2027.895939
  0
LINE
  8
CSLAYER1
  6
CONTINUOUS
 62
     3
 10
608.700331
 20
2027.895939
 11
608.700331
 21
514.539455
  0
LINE
  8
CSLAYER1
  6
CONTINUOUS
 62
     3
 10
596.700331
 20
2027.895939
 11
596.700331
 21
514.539455
  0
LINE
  8
CSLAYER1
  6
CONTINUOUS
 62
     3
 10
618.700331
 20
2027.895939
 11
618.700331
 21
514.539455
  0
LINE
  8
CSLAYER1
  6
CONTINUOUS
 62
     3
 10
630.700331
 20
2027.895939
 11
630.700331
 21
514.539455
  0
LINE
  8
CSLAYER1
  6
CONTINUOUS
 62
     3
 10
413.700331
 20
2027.895939
 11
1463.700331
 21
2027.895939
  0
LINE
  8
CSLAYER1
  6
CONTINUOUS
 62
     3
 10
413.700331
 20
2080.895939
 11
1463.700331
 21
2080.895939
  0
LINE
  8
CSLAYER1
  6
CONTINUOUS
 62
     3
 10
618.700331
 20
1282.117697
 11
608.700331
 21
1282.117697
  0
LINE
  8
CSLAYER1
  6
CONTINUOUS
 62
     3
 10
618.700331
 20
1248.117697
 11
608.700331
 21
1248.117697
  0
LINE
  8
CSLAYER1
  6
CONTINUOUS
 62
     3
 10
596.700331
 20
1285.117697
 11
586.700331
 21
1285.117697
  0
LINE
  8
CSLAYER1
  6
CONTINUOUS
 62
     3
 10
596.700331
 20
1245.117697
 11
586.700331
 21
1245.117697
  0
LINE
  8
CSLAYER1
  6
CONTINUOUS
 62
     3
 10
586.700331
 20
1285.117697
 11
586.700331
 21
1245.117697
  0
LINE
  8
CSLAYER1
  6
CONTINUOUS
 62
     3
 10
618.700331
 20
1676.406818
 11
608.700331
 21
1676.406818
  0
LINE
  8
CSLAYER1
  6
CONTINUOUS
 62
     3
 10
596.700331
 20
1679.406818
 11
586.700331
 21
1679.406818
  0
LINE
  8
CSLAYER1
  6
CONTINUOUS
 62
     3
 10
596.700331
 20
1639.406818
 11
586.700331
 21
1639.406818
  0
LINE
  8
CSLAYER1
  6
CONTINUOUS
 62
     3
 10
586.700331
 20
1679.406818
 11
586.700331
 21
1639.406818
  0
LINE
  8
CSLAYER1
  6
CONTINUOUS
 62
     3
 10
618.700331
 20
1642.406818
 11
608.700331
 21
1642.406818
  0
LINE
  8
CSLAYER1
  6
CONTINUOUS
 62
     3
 10
618.700331
 20
887.828576
 11
608.700331
 21
887.828576
  0
LINE
  8
CSLAYER1
  6
CONTINUOUS
 62
     3
 10
596.700331
 20
890.828576
 11
586.700331
 21
890.828576
  0
LINE
  8
CSLAYER1
  6
CONTINUOUS
 62
     3
 10
596.700331
 20
850.828576
 11
586.700331
 21
850.828576
  0
LINE
  8
CSLAYER1
  6
CONTINUOUS
 62
     4
 10
586.700331
 20
890.828576
 11
586.700331
 21
850.828576
  0
LINE
  8
CSLAYER1
  6
CONTINUOUS
 62
     3
 10
618.700331
 20
853.828576
 11
608.700331
 21
853.828576
  0
LINE
  8
CSLAYER1
  6
CONTINUOUS
 62
     3
 10
538.700331
 20
514.539455
 11
538.700331
 21
449.539455
  0
LINE
  8
CSLAYER1
  6
CONTINUOUS
 62
     3
 10
2481.529993
 20
711.860517
 11
2473.100761
 21
704.793124
  0
LINE
  8
CSLAYER1
  6
CONTINUOUS
 62
     3
 10
2404.431163
 20
803.815780
 11
2396.768225
 21
797.390878
  0
LINE
  8
CSLAYER1
  6
CONTINUOUS
 62
     3
 10
2396.768225
 20
797.390878
 11
2430.806151
 21
715.156946
  0
ARC
  8
CSLAYER1
  6
CONTINUOUS
 62
     3
 10
2455.753524
 20
725.483059
 40
27.000000
 50
202.485438
 51
309.977763
  0
LINE
  8
CSLAYER1
  6
CONTINUOUS
 62
     2
 10
2404.431163
 20
803.815780
 11
2481.529993
 21
711.860517
  0
CIRCLE
  8
CSLAYER1
  6
CONTINUOUS
 62
     4
 10
2401.749336
 20
870.828576
 40
12.500000
  0
LINE
  8
CSLAYER1
  6
CENTER
 62
     5
 10
630.700331
 20
1703.216720
 11
1246.700331
 21
1703.216720
  0
LINE
  8
CSLAYER1
  6
CONTINUOUS
 62
     3
 10
1246.700331
 20
1672.966720
 11
630.700331
 21
1672.966720
  0
LINE
  8
CSLAYER1
  6
CONTINUOUS
 62
     3
 10
630.700331
 20
865.234110
 11
1246.700331
 21
865.234110
  0
LINE
  8
CSLAYER1
  6
CONTINUOUS
 62
     3
 10
630.700331
 20
804.734110
 11
1246.700331
 21
804.734110
  0
LINE
  8
CSLAYER1
  6
CENTER
 62
     5
 10
624.178099
 20
834.984110
 11
1251.893256
 21
834.984110
  0
LINE
  8
CSLAYER1
  6
CENTER
 62
     5
 10
624.046658
 20
741.925106
 11
1253.223381
 21
741.925106
  0
LINE
  8
CSLAYER1
  6
CONTINUOUS
 62
     4
 10
608.700331
 20
772.175106
 11
618.700331
 21
772.175106
  0
LINE
  8
CSLAYER1
  6
CONTINUOUS
 62
     4
 10
608.700331
 20
711.675106
 11
618.700331
 21
711.675106
  0
LINE
  8
CSLAYER1
  6
CONTINUOUS
 62
     3
 10
630.700331
 20
772.175106
 11
1246.700331
 21
772.175106
  0
LINE
  8
CSLAYER1
  6
CONTINUOUS
 62
     3
 10
630.700331
 20
711.675106
 11
1246.700331
 21
711.675106
  0
LINE
  8
CSLAYER1
  6
CONTINUOUS
 62
     4
 10
1258.700331
 20
772.175106
 11
1268.700331
 21
772.175106
  0
LINE
  8
CSLAYER1
  6
CONTINUOUS
 62
     4
 10
1258.700331
 20
711.675106
 11
1268.700331
 21
711.675106
  0
ARC
  8
CSLAYER1
  6
CONTINUOUS
 62
     3
 10
2134.192747
 20
1452.452724
 40
30.000000
 50
-2.174713
 51
172.935262
  0
LINE
  8
CSLAYER1
  6
CONTINUOUS
 62
     3
 10
2092.143664
 20
1357.081001
 11
2104.420513
 21
1456.142447
  0
LINE
  8
CSLAYER1
  6
CONTINUOUS
 62
     3
 10
2163.715660
 20
1439.319827
 11
2164.171140
 21
1451.314321
  0
LINE
  8
CSLAYER1
  6
CONTINUOUS
 62
     3
 10
2507.139541
 20
821.396127
 11
2532.090288
 21
840.052642
  0
LINE
  8
CSLAYER1
  6
CONTINUOUS
 62
     3
 10
2547.342747
 20
773.446029
 11
2570.003233
 21
793.619282
  0
ARC
  8
CSLAYER1
  6
CONTINUOUS
 62
     3
 10
2550.055421
 20
816.026531
 40
30.000000
 50
-48.323270
 51
126.786704
  0
LINE
  8
CSLAYER1
  6
CONTINUOUS
 62
     3
 10
974.700331
 20
1472.452724
 11
974.700331
 21
1351.314365
  0
LINE
  8
CSLAYER1
  6
CONTINUOUS
 62
     3
 10
974.700331
 20
1472.452724
 11
990.700331
 21
1472.452724
  0
LINE
  8
CSLAYER1
  6
CONTINUOUS
 62
     3
 10
959.700331
 20
1469.952724
 11
959.700331
 21
1434.952724
  0
LINE
  8
CSLAYER1
  6
CONTINUOUS
 62
     4
 10
974.700331
 20
1351.314365
 11
990.700331
 21
1351.314365
  0
LINE
  8
CSLAYER1
  6
CONTINUOUS
 62
     3
 10
959.700331
 20
1469.952724
 11
974.700331
 21
1469.952724
  0
LINE
  8
CSLAYER1
  6
CONTINUOUS
 62
     3
 10
917.700331
 20
1469.952724
 11
917.700331
 21
1434.952724
  0
LINE
  8
CSLAYER1
  6
CONTINUOUS
 62
     3
 10
917.700331
 20
1469.952724
 11
902.700331
 21
1469.952724
  0
LINE
  8
CSLAYER1
  6
CONTINUOUS
 62
     3
 10
990.700331
 20
1472.452724
 11
990.700331
 21
1351.314365
  0
LINE
  8
CSLAYER1
  6
CONTINUOUS
 62
     3
 10
902.700331
 20
1472.452724
 11
902.700331
 21
1351.314365
  0
LINE
  8
CSLAYER1
  6
CONTINUOUS
 62
     3
 10
902.700331
 20
1472.452724
 11
886.700331
 21
1472.452724
  0
LINE
  8
CSLAYER1
  6
CONTINUOUS
 62
     3
 10
902.700331
 20
1351.314365
 11
886.700331
 21
1351.314365
  0
LINE
  8
CSLAYER1
  6
CONTINUOUS
 62
     3
 10
886.700331
 20
1472.452724
 11
886.700331
 21
1351.314365
  0
LINE
  8
CSLAYER1
  6
CONTINUOUS
 62
     3
 10
958.700331
 20
1483.227052
 11
958.700331
 21
1419.181021
  0
LINE
  8
CSLAYER1
  6
CONTINUOUS
 62
     3
 10
958.700331
 20
1483.227052
 11
918.700331
 21
1483.227052
  0
LINE
  8
CSLAYER1
  6
CONTINUOUS
 62
     3
 10
968.950331
 20
1429.621962
 11
968.950331
 21
1365.832833
  0
LINE
  8
CSLAYER1
  6
CONTINUOUS
 62
     3
 10
918.700331
 20
1483.227052
 11
918.700331
 21
1419.181021
  0
LINE
  8
CSLAYER1
  6
CONTINUOUS
 62
     3
 10
908.450331
 20
1431.524536
 11
908.450331
 21
1365.832833
  0
LINE
  8
CSLAYER1
  6
CONTINUOUS
 62
     5
 10
870.461252
 20
1452.452724
 11
1013.818849
 21
1452.452724
  0
LINE
  8
CSLAYER1
  6
CONTINUOUS
 62
     3
 10
886.700331
 20
1365.832833
 11
630.700331
 21
1365.832833
  0
LINE
  8
CSLAYER1
  6
CONTINUOUS
 62
     3
 10
990.700331
 20
1365.832833
 11
1246.700331
 21
1365.832833
  0
LINE
  8
CSLAYER1
  6
CENTER
 62
     5
 10
3077.425850
 20
476.539455
 11
2102.481749
 21
648.539455
  0
LINE
  8
CSLAYER1
  6
CENTER
 62
     5
 10
2102.481749
 20
820.539455
 11
3077.425850
 21
648.539455
  0
LINE
  8
CSLAYER1
  6
CENTER
 62
     5
 10
3077.425850
 20
648.539455
 11
2102.481749
 21
476.539455
  0
LINE
  8
CSLAYER1
  6
CENTER
 62
     5
 10
2102.481749
 20
648.539455
 11
3077.425850
 21
820.539455
  0
POINT
  8
CSLAYER1
 62
     5
 10
3077.425850
 20
648.539455
  0
LINE
  8
CSLAYER1
  6
CONTINUOUS
 62
     2
 10
2300.048625
 20
796.070219
 11
2301.289275
 21
796.749032
  0
LINE
  8
CSLAYER1
  6
CONTINUOUS
 62
     2
 10
2296.242179
 20
783.065856
 11
2248.975397
 21
796.901095
  0
LINE
  8
CSLAYER1
  6
CONTINUOUS
 62
     2
 10
2248.975397
 20
796.901095
 11
2234.087595
 21
788.755339
  0
LINE
  8
CSLAYER1
  6
CONTINUOUS
 62
     3
 10
2068.281749
 20
2080.895939
 11
3118.281749
 21
2080.895939
  0
LINE
  8
CSLAYER1
  6
CONTINUOUS
 62
     3
 10
2068.281749
 20
2080.895939
 11
2068.281749
 21
2027.895939
  0
LINE
  8
CSLAYER1
  6
CONTINUOUS
 62
     3
 10
2068.281749
 20
2027.895939
 11
3118.281749
 21
2027.895939
  0
LINE
  8
CSLAYER1
  6
CONTINUOUS
 62
     3
 10
3118.281749
 20
2080.895939
 11
3118.281749
 21
2027.895939
  0
ARC
  8
CSLAYER1
  6
CONTINUOUS
 62
     3
 10
2701.016924
 20
1265.117697
 40
25.000000
 50
-142.801304
 51
9.977763
  0
LINE
  8
CSLAYER1
  6
CONTINUOUS
 62
     3
 10
2105.933908
 20
1935.958169
 11
2681.859578
 21
1249.055441
  0
LINE
  8
CSLAYER1
  6
CONTINUOUS
 62
     3
 10
2710.616864
 20
1354.836763
 11
2146.298162
 21
2027.895939
  0
LINE
  8
CSLAYER1
  6
CONTINUOUS
 62
     3
 10
2089.759588
 20
2027.895939
 11
2105.933908
 21
1935.958169
  0
LINE
  8
CSLAYER1
  6
CONTINUOUS
 62
     3
 10
2725.638801
 20
1269.449345
 11
2710.903319
 21
1353.208501
  0
ARC
  8
CSLAYER1
  6
CONTINUOUS
 62
     4
 10
2102.481749
 20
1265.117697
 40
25.000000
 50
170.022237
 51
189.977763
  0
LINE
  8
CSLAYER1
  6
CONTINUOUS
 62
     3
 10
2697.564764
 20
1935.958169
 11
2460.473544
 21
1653.181042
  0
LINE
  8
CSLAYER1
  6
CONTINUOUS
 62
     3
 10
2092.881809
 20
1354.836763
 11
2343.025128
 21
1653.181042
  0
LINE
  8
CSLAYER1
  6
CONTINUOUS
 62
     3
 10
2713.739084
 20
2027.895939
 11
2697.564764
 21
1935.958169
  0
LINE
  8
CSLAYER1
  6
CONTINUOUS
 62
     3
 10
2077.859872
 20
1269.449345
 11
2092.881809
 21
1354.836763
  0
LINE
  8
CSLAYER1
  6
CONTINUOUS
 62
     2
 10
2457.735194
 20
811.271333
 11
2456.955729
 21
809.968295
  0
LINE
  8
CSLAYER1
  6
CENTER
 62
     5
 10
2701.016924
 20
476.539455
 11
2102.481749
 21
1265.117697
  0
LINE
  8
CSLAYER1
  6
CENTER
 62
     5
 10
2102.481749
 20
1265.117697
 11
2701.016924
 21
2053.695939
  0
LINE
  8
CSLAYER1
  6
CENTER
 62
     5
 10
2701.016924
 20
1265.117697
 11
2102.481749
 21
2053.695939
  0
LINE
  8
CSLAYER1
  6
CENTER
 62
     5
 10
2102.481749
 20
476.539455
 11
2701.016924
 21
1265.117697
  0
LINE
  8
CSLAYER1
  6
CONTINUOUS
 62
     4
 10
2319.716608
 20
1223.375314
 11
2223.528872
 21
1370.578702
  0
LINE
  8
CSLAYER1
  6
CONTINUOUS
 62
     4
 10
2269.488957
 20
1190.554847
 11
2183.247982
 21
1322.535952
  0
LINE
  8
CSLAYER1
  6
CONTINUOUS
 62
     4
 10
2172.086938
 20
1449.304196
 11
2152.195472
 21
1479.745616
  0
LINE
  8
CSLAYER1
  6
CONTINUOUS
 62
     3
 10
2103.069291
 20
1445.239485
 11
2101.967821
 21
1446.925148
  0
LINE
  8
CSLAYER1
  6
CONTINUOUS
 62
     3
 10
2135.585848
 20
1483.227052
 11
2134.399742
 21
1482.452010
  0
LINE
  8
CSLAYER1
  6
CONTINUOUS
 62
     4
 10
2152.195472
 20
1479.745616
 11
2135.585848
 21
1483.227052
  0
LINE
  8
CSLAYER1
  6
CONTINUOUS
 62
     4
 10
2101.967821
 20
1446.925148
 11
2105.449257
 21
1463.534772
  0
LINE
  8
CSLAYER1
  6
CENTER
 62
     5
 10
2672.265427
 20
646.219457
 11
2664.380049
 21
641.066881
  0
LINE
  8
CSLAYER1
  6
CONTINUOUS
 62
     2
 10
2671.058354
 20
694.407720
 11
2664.753788
 21
690.288101
  0
LINE
  8
CSLAYER1
  6
CONTINUOUS
 62
     2
 10
2656.494671
 20
635.914305
 11
2664.380049
 21
641.066881
  0
LINE
  8
CSLAYER1
  6
CONTINUOUS
 62
     2
 10
2445.312729
 20
1066.531894
 11
2435.438479
 21
1060.079720
  0
LINE
  8
CSLAYER1
  6
CONTINUOUS
 62
     2
 10
2615.404082
 20
800.042807
 11
2573.598819
 21
864.020572
  0
LINE
  8
CSLAYER1
  6
CONTINUOUS
 62
     4
 10
2331.059686
 20
1230.787270
 11
2258.145879
 21
1183.142891
  0
LINE
  8
CSLAYER1
  6
CONTINUOUS
 62
     4
 10
2439.980699
 20
1071.409691
 11
2447.638808
 21
1059.689906
  0
LINE
  8
CSLAYER1
  6
CONTINUOUS
 62
     4
 10
2439.980699
 20
1071.409691
 11
2437.195813
 21
1070.187231
  0
LINE
  8
CSLAYER1
  6
CONTINUOUS
 62
     4
 10
2447.638808
 20
1059.689906
 11
2445.400930
 21
1057.630318
  0
LINE
  8
CSLAYER1
  6
CONTINUOUS
 62
     2
 10
2445.400930
 20
1057.630318
 11
2437.195813
 21
1070.187231
  0
LINE
  8
CSLAYER1
  6
CONTINUOUS
 62
     4
 10
2614.148691
 20
818.486752
 11
2607.037590
 21
829.369409
  0
LINE
  8
CSLAYER1
  6
CONTINUOUS
 62
     2
 10
2760.042579
 20
608.011162
 11
2708.140673
 21
574.096679
  0
LINE
  8
CSLAYER1
  6
CONTINUOUS
 62
     2
 10
2728.863134
 20
655.727431
 11
2703.749309
 21
639.317197
  0
LINE
  8
CSLAYER1
  6
CONTINUOUS
 62
     2
 10
2652.248812
 20
769.319885
 11
2586.709126
 21
726.494009
  0
LINE
  8
CSLAYER1
  6
CONTINUOUS
 62
     4
 10
2613.316046
 20
833.471968
 11
2579.714317
 21
811.515447
  0
LINE
  8
CSLAYER1
  6
CONTINUOUS
 62
     4
 10
2760.042579
 20
608.011162
 11
2728.863134
 21
655.727431
  0
LINE
  8
CSLAYER1
  6
CONTINUOUS
 62
     4
 10
2727.188879
 20
654.633415
 11
2647.872750
 21
776.016905
  0
LINE
  8
CSLAYER1
  6
CONTINUOUS
 62
     4
 10
2640.114946
 20
776.920496
 11
2613.311564
 21
817.939744
  0
LINE
  8
CSLAYER1
  6
CONTINUOUS
 62
     4
 10
2760.042579
 20
608.011162
 11
2749.350346
 21
591.468002
  0
LINE
  8
CSLAYER1
  6
CONTINUOUS
 62
     2
 10
2659.938838
 20
700.879301
 11
2626.503510
 21
679.031512
  0
LINE
  8
CSLAYER1
  6
CONTINUOUS
 62
     2
 10
2704.519973
 20
632.653409
 11
2680.243275
 21
616.790183
  0
LINE
  8
CSLAYER1
  6
CONTINUOUS
 62
     2
 10
2705.390332
 20
636.805815
 11
2628.809242
 21
754.003667
  0
LINE
  8
CSLAYER1
  6
CONTINUOUS
 62
     4
 10
2703.347333
 20
561.408058
 11
2749.350346
 21
591.468002
  0
LINE
  8
CSLAYER1
  6
CONTINUOUS
 62
     4
 10
2701.839433
 20
569.979234
 11
2708.140673
 21
574.096679
  0
ARC
  8
CSLAYER1
  6
CONTINUOUS
 62
     2
 10
2702.878950
 20
635.164791
 40
3.000000
 50
-56.838024
 51
33.161976
  0
ARC
  8
CSLAYER1
  6
CONTINUOUS
 62
     2
 10
2661.579862
 20
698.367919
 40
3.000000
 50
33.161976
 51
123.161976
  0
LINE
  8
CSLAYER1
  6
CONTINUOUS
 62
     4
 10
2573.400753
 20
861.742480
 11
2518.316070
 21
946.042748
  0
LINE
  8
CSLAYER1
  6
CONTINUOUS
 62
     2
 10
2614.148691
 20
818.486752
 11
2568.106678
 21
788.401323
  0
LINE
  8
CSLAYER1
  6
CONTINUOUS
 62
     2
 10
2631.909829
 20
789.477408
 11
2568.591358
 21
748.102951
  0
LINE
  8
CSLAYER1
  6
CONTINUOUS
 62
     4
 10
2407.057015
 20
953.424758
 11
2257.855759
 21
1181.758756
  0
LINE
  8
CSLAYER1
  6
CONTINUOUS
 62
     4
 10
2553.201705
 20
778.661904
 11
2568.106678
 21
788.401323
  0
LINE
  8
CSLAYER1
  6
CONTINUOUS
 62
     2
 10
2645.104479
 20
776.597144
 11
2580.238495
 21
734.211488
  0
ARC
  8
CSLAYER1
  6
CONTINUOUS
 62
     4
 10
2642.626328
 20
778.561519
 40
3.000000
 50
213.161976
 51
303.161976
  0
LINE
  8
CSLAYER1
  6
CONTINUOUS
 62
     2
 10
2649.893308
 20
694.315208
 11
2616.252329
 21
745.798550
  0
LINE
  8
CSLAYER1
  6
CONTINUOUS
 62
     2
 10
2656.590328
 20
698.691270
 11
2622.949349
 21
750.174612
  0
LINE
  8
CSLAYER1
  6
CONTINUOUS
 62
     2
 10
2720.491859
 20
650.257353
 11
2645.551792
 21
764.943822
  0
LINE
  8
CSLAYER1
  6
CONTINUOUS
 62
     2
 10
2722.166114
 20
651.351368
 11
2647.226047
 21
766.037838
  0
LINE
  8
CSLAYER1
  6
CONTINUOUS
 62
     2
 10
2593.699150
 20
718.157055
 11
2587.789993
 21
727.200285
  0
ARC
  8
CSLAYER1
  6
CONTINUOUS
 62
     4
 10
2646.198495
 20
774.922889
 40
2.000000
 50
33.161976
 51
123.161976
  0
LINE
  8
CSLAYER1
  6
CONTINUOUS
 62
     4
 10
2591.435735
 20
866.957068
 11
2557.834005
 21
845.000548
  0
LINE
  8
CSLAYER1
  6
CONTINUOUS
 62
     2
 10
2583.874376
 20
862.016217
 11
2571.308165
 21
853.805025
  0
LINE
  8
CSLAYER1
  6
CONTINUOUS
 62
     2
 10
2580.024056
 20
866.070373
 11
2569.141399
 21
858.959272
  0
LINE
  8
CSLAYER1
  6
CONTINUOUS
 62
     2
 10
2581.183402
 20
866.134419
 11
2583.874376
 21
862.016217
  0
LINE
  8
CSLAYER1
  6
CONTINUOUS
 62
     2
 10
2578.041849
 20
864.081621
 11
2580.732823
 21
859.963419
  0
LINE
  8
CSLAYER1
  6
CONTINUOUS
 62
     2
 10
2580.024056
 20
866.070373
 11
2581.183402
 21
866.134419
  0
ARC
  8
CSLAYER1
  6
CONTINUOUS
 62
     2
 10
2581.070360
 20
862.877139
 40
3.259241
 50
97.596078
 51
158.533594
  0
ARC
  8
CSLAYER1
  6
CONTINUOUS
 62
     2
 10
2581.376260
 20
852.118165
 40
12.419443
 50
105.574022
 51
140.749930
  0
LINE
  8
CSLAYER1
  6
CONTINUOUS
 62
     4
 10
2613.316046
 20
833.471968
 11
2591.435735
 21
866.957068
  0
LINE
  8
CSLAYER1
  6
CONTINUOUS
 62
     3
 10
2331.059686
 20
1230.787270
 11
2332.443821
 21
1230.497150
  0
LINE
  8
CSLAYER1
  6
CONTINUOUS
 62
     3
 10
2258.145879
 20
1183.142891
 11
2257.855759
 21
1181.758756
  0
LINE
  8
CSLAYER1
  6
CONTINUOUS
 62
     4
 10
2568.617191
 20
857.923226
 11
2571.308165
 21
853.805025
  0
LINE
  8
CSLAYER1
  6
CONTINUOUS
 62
     2
 10
2571.758744
 20
859.976025
 11
2574.449718
 21
855.857823
  0
LINE
  8
CSLAYER1
  6
CONTINUOUS
 62
     2
 10
2569.141399
 20
858.959272
 11
2568.617191
 21
857.923226
  0
ARC
  8
CSLAYER1
  6
CONTINUOUS
 62
     2
 10
2571.645701
 20
856.718744
 40
3.259241
 50
87.790358
 51
148.727875
  0
LINE
  8
CSLAYER1
  6
CONTINUOUS
 62
     2
 10
2332.443821
 20
1230.497150
 11
2257.855759
 21
1181.758756
  0
LINE
  8
CSLAYER1
  6
CENTER
 62
     5
 10
2717.899201
 20
559.162464
 11
2134.192747
 21
1452.452724
  0
ARC
  8
CSLAYER1
  6
CONTINUOUS
 62
     3
 10
2102.481749
 20
1265.117697
 40
25.000000
 50
37.198696
 51
189.977763
  0
LINE
  8
CSLAYER1
  6
CONTINUOUS
 62
     3
 10
2697.564764
 20
594.277224
 11
2121.639095
 21
1281.179953
  0
LINE
  8
CSLAYER1
  6
CONTINUOUS
 62
     3
 10
2092.881809
 20
1175.398630
 11
2646.971562
 21
514.539455
  0
LINE
  8
CSLAYER1
  6
CONTINUOUS
 62
     3
 10
2711.592777
 20
514.539455
 11
2697.564764
 21
594.277224
  0
LINE
  8
CSLAYER1
  6
CONTINUOUS
 62
     3
 10
2077.859872
 20
1260.786048
 11
2092.595354
 21
1177.026892
  0
LINE
  8
CSLAYER1
  6
CONTINUOUS
 62
     3
 10
2105.933908
 20
594.277224
 11
2343.025128
 21
877.054351
  0
LINE
  8
CSLAYER1
  6
CONTINUOUS
 62
     3
 10
2710.616864
 20
1175.398630
 11
2460.473544
 21
877.054351
  0
LINE
  8
CSLAYER1
  6
CONTINUOUS
 62
     3
 10
2091.905896
 20
514.539455
 11
2105.933908
 21
594.277224
  0
LINE
  8
CSLAYER1
  6
CONTINUOUS
 62
     3
 10
2725.638801
 20
1260.786048
 11
2710.903319
 21
1177.026892
  0
LINE
  8
CSLAYER1
  6
CONTINUOUS
 62
     3
 10
2068.481749
 20
514.539455
 11
2068.481749
 21
449.539455
  0
LINE
  8
CSLAYER1
  6
CONTINUOUS
 62
     3
 10
3118.481749
 20
514.539455
 11
3118.481749
 21
449.539455
  0
LINE
  8
CSLAYER1
  6
CONTINUOUS
 62
     5
 10
2102.481749
 20
496.539455
 11
2102.481749
 21
456.539455
  0
LINE
  8
CSLAYER1
  6
CONTINUOUS
 62
     3
 10
2068.481749
 20
514.539455
 11
3118.481749
 21
514.539455
  0
LINE
  8
CSLAYER1
  6
CONTINUOUS
 62
     5
 10
2082.481749
 20
476.539455
 11
2122.481749
 21
476.539455
  0
LINE
  8
CSLAYER1
  6
CONTINUOUS
 62
     5
 10
2398.461418
 20
1703.216720
 11
2475.547296
 21
1703.216720
  0
LINE
  8
CSLAYER1
  6
CONTINUOUS
 62
     5
 10
2435.001291
 20
1672.966720
 11
2435.001291
 21
1738.915606
  0
CIRCLE
  8
CSLAYER1
  6
CONTINUOUS
 62
     3
 10
2134.192747
 20
1452.452724
 40
12.500000
  0
LINE
  8
CSLAYER1
  6
PHANTOM
 62
     5
 10
2134.192747
 20
1452.452724
 11
2124.769323
 21
1335.832833
  0
LINE
  8
CSLAYER1
  6
CONTINUOUS
 62
     1
 10
2126.682691
 20
1428.981346
 11
2138.078183
 21
1428.060538
  0
CIRCLE
  8
CSLAYER1
  6
CONTINUOUS
 62
     1
 10
2132.259737
 20
1428.530695
 40
4.000000
  0
ARC
  8
CSLAYER1
  6
CONTINUOUS
 62
     3
 10
2097.105703
 20
1356.466047
 40
5.000000
 50
167.256444
 51
209.168069
  0
LINE
  8
CSLAYER1
  6
CONTINUOUS
 62
     3
 10
2106.635363
 20
1464.309814
 11
2105.449257
 21
1463.534772
  0
POINT
  8
CSLAYER1
 62
     5
 10
2459.512731
 20
741.925106
  0
LINE
  8
CSLAYER1
  6
PHANTOM
 62
     5
 10
2565.532804
 20
828.693441
 11
2436.364830
 21
722.980535
  0
CIRCLE
  8
CSLAYER1
  6
CONTINUOUS
 62
     4
 10
2550.055421
 20
816.026531
 40
16.000000
  0
INSERT
  8
CSLAYER1
  2
BLKF0001
 10
0.0
 20
0.0
 30
0.0
  0
LINE
  8
CSLAYER1
  6
CONTINUOUS
 62
     5
 10
2681.016924
 20
476.539455
 11
2721.016924
 21
476.539455
  0
LINE
  8
CSLAYER1
  6
CONTINUOUS
 62
     5
 10
2701.016924
 20
496.539455
 11
2701.016924
 21
456.539455
  0
LINE
  8
CSLAYER1
  6
CONTINUOUS
 62
     5
 10
2701.016924
 20
2070.695939
 11
2701.016924
 21
2036.695939
  0
LINE
  8
CSLAYER1
  6
CONTINUOUS
 62
     5
 10
2684.016924
 20
2053.695939
 11
2718.016924
 21
2053.695939
  0
LINE
  8
CSLAYER1
  6
CONTINUOUS
 62
     5
 10
2085.481749
 20
2053.695939
 11
2119.481749
 21
2053.695939
  0
LINE
  8
CSLAYER1
  6
CONTINUOUS
 62
     5
 10
2102.481749
 20
2070.695939
 11
2102.481749
 21
2036.695939
  0
LINE
  8
CSLAYER1
  6
CONTINUOUS
 62
     3
 10
2401.749336
 20
1723.221016
 11
2657.200511
 21
2027.895939
  0
LINE
  8
CSLAYER1
  6
CONTINUOUS
 62
     3
 10
2401.749336
 20
1583.141069
 11
2135.106309
 21
1265.117697
  0
LINE
  8
CSLAYER1
  6
CONTINUOUS
 62
     3
 10
2401.749336
 20
947.094325
 11
2668.392364
 21
1265.117697
  0
LINE
  8
CSLAYER1
  6
CONTINUOUS
 62
     3
 10
2401.749336
 20
807.014378
 11
2156.527111
 21
514.539455
  0
LINE
  8
CSLAYER1
  6
CONTINUOUS
 62
     4
 10
2466.874136
 20
1024.768242
 11
2332.443821
 21
1230.497150
  0
LINE
  8
CSLAYER1
  6
CENTER
 62
     5
 10
2331.357222
 20
834.984110
 11
2417.456879
 21
834.984110
  0
LINE
  8
CSLAYER1
  6
CENTER
 62
     5
 10
2374.543192
 20
876.903723
 11
2374.543192
 21
796.213468
  0
LINE
  8
CSLAYER1
  6
CONTINUOUS
 62
     5
 10
2401.749336
 20
890.878013
 11
2401.749336
 21
847.739455
  0
LINE
  8
CSLAYER1
  6
CONTINUOUS
 62
     5
 10
2379.383748
 20
870.828576
 11
2423.317065
 21
870.828576
  0
LINE
  8
CSLAYER1
  6
CONTINUOUS
 62
     5
 10
2673.952392
 20
1265.117697
 11
2735.211047
 21
1265.117697
  0
LINE
  8
CSLAYER1
  6
CONTINUOUS
 62
     5
 10
2701.016924
 20
1297.293348
 11
2701.016924
 21
1229.317736
  0
LINE
  8
CSLAYER1
  6
CONTINUOUS
 62
     5
 10
2102.481749
 20
1299.960655
 11
2102.481749
 21
1237.853882
  0
LINE
  8
CSLAYER1
  6
CONTINUOUS
 62
     5
 10
2069.276785
 20
1265.117697
 11
2127.126239
 21
1265.117697
  0
LINE
  8
CSLAYER1
  6
CONTINUOUS
 62
     5
 10
2371.341722
 20
1659.406818
 11
2435.091221
 21
1659.406818
  0
LINE
  8
CSLAYER1
  6
CONTINUOUS
 62
     5
 10
2401.749336
 20
1686.202102
 11
2401.749336
 21
1626.646649
  0
CIRCLE
  8
CSLAYER1
  6
CONTINUOUS
 62
     3
 10
2401.749336
 20
1659.406818
 40
12.500000
  0
CIRCLE
  8
CSLAYER1
  6
CONTINUOUS
 62
     3
 10
2102.481749
 20
1265.117697
 40
12.500000
  0
CIRCLE
  8
CSLAYER1
  6
CONTINUOUS
 62
     3
 10
2701.016924
 20
1265.117697
 40
12.500000
  0
CIRCLE
  8
CSLAYER1
  6
CONTINUOUS
 62
     3
 10
2401.749336
 20
870.828576
 40
12.500000
  0
LINE
  8
CSLAYER1
  6
CONTINUOUS
 62
     5
 10
2104.769323
 20
1335.832833
 11
2144.769323
 21
1335.832833
  0
LINE
  8
CSLAYER1
  6
CONTINUOUS
 62
     5
 10
2124.769323
 20
1335.832833
 11
2124.769323
 21
1315.832833
  0
LINE
  8
CSLAYER1
  6
CONTINUOUS
 62
     5
 10
3077.425850
 20
496.539455
 11
3077.425850
 21
456.539455
  0
LINE
  8
CSLAYER1
  6
CONTINUOUS
 62
     5
 10
3057.425850
 20
476.539455
 11
3097.425850
 21
476.539455
  0
LINE
  8
CSLAYER1
  6
CONTINUOUS
 62
     5
 10
3060.425850
 20
820.539455
 11
3094.425850
 21
820.539455
  0
LINE
  8
CSLAYER1
  6
CONTINUOUS
 62
     5
 10
3077.425850
 20
837.539455
 11
3077.425850
 21
803.539455
  0
POINT
  8
CSLAYER1
 62
     5
 10
2102.481749
 20
648.539455
  0
INSERT
  8
CSLAYER1
  2
BLKF0002
 10
0.0
 20
0.0
 30
0.0
  0
LINE
  8
CSLAYER1
  6
CONTINUOUS
 62
     3
 10
3118.281749
 20
3409.104686
 11
3118.281749
 21
2359.104686
  0
LINE
  8
CSLAYER1
  6
CONTINUOUS
 62
     3
 10
2068.281749
 20
3409.104686
 11
2068.281749
 21
2359.104686
  0
LINE
  8
CSLAYER1
  6
CONTINUOUS
 62
     3
 10
2068.281749
 20
3409.104686
 11
3118.281749
 21
3409.104686
  0
LINE
  8
CSLAYER1
  6
CONTINUOUS
 62
     3
 10
2068.281749
 20
2359.104686
 11
3118.281749
 21
2359.104686
  0
DIMENSION
  8
CSLAYER1
 62
     3
  2
*D0000
 10
3118.281749
 20
2202.409308
 11
2593.281494
 21
2217.409668
 13
2068.281749
 23
2080.895939
 14
3118.281749
 24
2080.895939
 70
1
  0
DIMENSION
  8
CSLAYER1
 62
     3
  2
*D0001
 10
3272.292923
 20
847.739455
 11
3257.292725
 21
648.639709
 13
3118.281749
 23
449.539455
 14
3118.281749
 24
847.739455
 50
90.000000
 70
1
  0
DIMENSION
  8
CSLAYER1
 62
     3
  2
*D0002
 10
3272.292923
 20
2080.895939
 11
3257.292725
 21
1464.317383
 13
3102.757050
 23
847.739455
 14
3102.757050
 24
2080.895939
 50
90.000000
 70
1
  0
DIMENSION
  8
CSLAYER1
 62
     3
  2
*D0003
 10
3411.828796
 20
449.539455
 11
3396.828613
 21
1265.217773
 13
3411.828796
 23
2080.895939
 14
3411.828796
 24
449.539455
 50
90.000000
 70
1
  0
DIMENSION
  8
CSLAYER1
 62
     3
  2
*D0004
 10
3118.481749
 20
308.325785
 11
2593.481445
 21
323.326202
 13
2068.481749
 23
449.539455
 14
3118.481749
 24
449.539455
 52
270.000000
 70
1
  0
DIMENSION
  8
CSLAYER1
 62
     3
  2
*D0005
 10
1338.700331
 20
299.916167
 11
938.700378
 21
314.916534
 13
538.700331
 23
449.539455
 14
1338.700331
 24
449.539455
 52
270.000000
 70
1
  0
LINE
  8
CSLAYER1
  6
CONTINUOUS
 62
     3
 10
3685.784926
 20
449.539455
 11
419.208597
 21
449.539455
  0
LINE
  8
CSLAYER1
  6
CENTER
 62
     5
 10
2068.281749
 20
2884.104686
 11
3151.867945
 21
2884.104686
  0
TEXT
  8
CSLAYER1
 62
     5
 10
1025.661865
 20
2477.104980
 40
60.000000
 41
1.020000
  1
ＵＰ・ＤＯＷＮ
 50
0.000000
 51
0.000000
  7
EASYDRAW_FONT
 72
     5
 11
1433.661865
 21
2477.104980
  0
TEXT
  8
CSLAYER1
 62
     5
 10
1019.092651
 20
2558.398926
 40
60.000000
 41
1.020000
  1
フットスイッチ
 50
0.000000
 51
0.000000
  7
EASYDRAW_FONT
 72
     5
 11
1427.092651
 21
2558.398926
  0
TEXT
  8
CSLAYER1
 62
     5
 10
1168.653198
 20
3253.090332
 40
60.000000
 41
1.028571
  1
電源コード
 50
0.000000
 51
0.000000
  7
EASYDRAW_FONT
 72
     5
 11
1456.653198
 21
3253.090332
  0
TEXT
  8
CSLAYER1
 62
     5
 10
1202.305542
 20
3174.930176
 40
60.000000
 41
1.036364
  1
長サ４ｍ
 50
0.000000
 51
0.000000
  7
EASYDRAW_FONT
 72
     5
 11
1430.305542
 21
3174.930176
  0
INSERT
  8
CSLAYER1
  2
BLKF0003
 10
0.0
 20
0.0
 30
0.0
  0
LINE
  8
CSLAYER1
  6
CONTINUOUS
 62
     5
 10
1525.198982
 20
3046.269958
 11
1473.720887
 21
3244.957341
  0
LINE
  8
CSLAYER1
  6
CONTINUOUS
 62
     5
 10
1525.198982
 20
3046.269958
 11
1503.022550
 21
3085.426131
  0
LINE
  8
CSLAYER1
  6
CONTINUOUS
 62
     5
 10
1525.198982
 20
3046.269958
 11
1525.571714
 21
3091.268415
  0
LINE
  8
CSLAYER1
  6
CONTINUOUS
 62
     5
 10
1539.584555
 20
2776.604686
 11
1446.104020
 21
2548.895691
  0
LINE
  8
CSLAYER1
  6
CONTINUOUS
 62
     5
 10
1539.584555
 20
2776.604686
 11
1533.851503
 21
2731.971379
  0
LINE
  8
CSLAYER1
  6
CONTINUOUS
 62
     5
 10
1539.584555
 20
2776.604686
 11
1512.302933
 21
2740.817634
  0
LINE
  8
CSLAYER1
  6
CONTINUOUS
 62
     5
 10
1146.106290
 20
3244.957341
 11
1473.720887
 21
3244.957341
  0
LINE
  8
CSLAYER1
  6
CONTINUOUS
 62
     5
 10
1010.415326
 20
2548.895691
 11
1446.104020
 21
2548.895691
  0
TEXT
  8
CSLAYER1
 62
     5
 10
1516.641724
 20
753.318909
 40
60.000000
 41
1.028571
  1
上限・下限
 50
360.000000
 51
0.000000
  7
EASYDRAW_FONT
 72
     5
 11
1804.641724
 21
753.318909
  0
LINE
  8
CSLAYER1
  6
CONTINUOUS
 62
     4
 10
1186.200331
 20
514.539455
 11
1186.200331
 21
540.201200
  0
LINE
  8
CSLAYER1
  6
CONTINUOUS
 62
     4
 10
1191.661149
 20
558.229523
 11
1193.700331
 21
558.229523
  0
LINE
  8
CSLAYER1
  6
CONTINUOUS
 62
     4
 10
1193.700331
 20
558.229523
 11
1193.700331
 21
570.541259
  0
LINE
  8
CSLAYER1
  6
CONTINUOUS
 62
     2
 10
1186.200331
 20
527.150230
 11
1189.200331
 21
527.150230
  0
LINE
  8
CSLAYER1
  6
CONTINUOUS
 62
     2
 10
1186.200331
 20
531.497449
 11
1189.200331
 21
531.497449
  0
LINE
  8
CSLAYER1
  6
CONTINUOUS
 62
     4
 10
1186.200331
 20
540.201200
 11
1190.200331
 21
540.201200
  0
LINE
  8
CSLAYER1
  6
CONTINUOUS
 62
     2
 10
1189.200331
 20
514.539455
 11
1189.200331
 21
540.201200
  0
LINE
  8
CSLAYER1
  6
CONTINUOUS
 62
     4
 10
1205.200331
 20
514.539455
 11
1205.200331
 21
540.201200
  0
LINE
  8
CSLAYER1
  6
CONTINUOUS
 62
     2
 10
1189.200331
 20
530.915026
 11
1205.200331
 21
530.915026
  0
LINE
  8
CSLAYER1
  6
CONTINUOUS
 62
     2
 10
1206.200331
 20
524.664063
 11
1206.200331
 21
532.264063
  0
LINE
  8
CSLAYER1
  6
CONTINUOUS
 62
     4
 10
1206.200331
 20
524.664063
 11
1205.200331
 21
524.664063
  0
LINE
  8
CSLAYER1
  6
CONTINUOUS
 62
     4
 10
1206.200331
 20
532.264063
 11
1205.200331
 21
532.264063
  0
LINE
  8
CSLAYER1
  6
CONTINUOUS
 62
     4
 10
1208.800331
 20
526.964063
 11
1208.800331
 21
529.964063
  0
LINE
  8
CSLAYER1
  6
CONTINUOUS
 62
     4
 10
1206.800331
 20
524.964063
 11
1206.200331
 21
524.964063
  0
LINE
  8
CSLAYER1
  6
CONTINUOUS
 62
     4
 10
1206.800331
 20
531.964063
 11
1206.200331
 21
531.964063
  0
ARC
  8
CSLAYER1
  6
CONTINUOUS
 62
     4
 10
1206.800331
 20
526.964063
 40
2.000000
 50
270.000000
 51
360.000000
  0
ARC
  8
CSLAYER1
  6
CONTINUOUS
 62
     4
 10
1206.800331
 20
529.964063
 40
2.000000
 50
0.000000
 51
90.000000
  0
LINE
  8
CSLAYER1
  6
CONTINUOUS
 62
     4
 10
1204.200331
 20
540.201200
 11
1205.200331
 21
540.201200
  0
LINE
  8
CSLAYER1
  6
CONTINUOUS
 62
     2
 10
1195.200331
 20
558.229523
 11
1195.200331
 21
570.541259
  0
LINE
  8
CSLAYER1
  6
CONTINUOUS
 62
     4
 10
1204.200331
 20
546.245385
 11
1202.739513
 21
558.229523
  0
LINE
  8
CSLAYER1
  6
CONTINUOUS
 62
     4
 10
1190.200331
 20
546.245385
 11
1191.661149
 21
558.229523
  0
LINE
  8
CSLAYER1
  6
CONTINUOUS
 62
     4
 10
1190.200331
 20
530.915026
 11
1190.200331
 21
546.245385
  0
LINE
  8
CSLAYER1
  6
CONTINUOUS
 62
     2
 10
1204.200331
 20
530.915026
 11
1204.200331
 21
540.201200
  0
LINE
  8
CSLAYER1
  6
CONTINUOUS
 62
     4
 10
1200.700331
 20
558.229523
 11
1200.700331
 21
570.541259
  0
LINE
  8
CSLAYER1
  6
CONTINUOUS
 62
     4
 10
1200.700331
 20
558.229523
 11
1202.739513
 21
558.229523
  0
LINE
  8
CSLAYER1
  6
CONTINUOUS
 62
     2
 10
1199.200331
 20
558.229523
 11
1199.200331
 21
570.541259
  0
LINE
  8
CSLAYER1
  6
CONTINUOUS
 62
     4
 10
1193.700331
 20
570.541259
 11
1195.200331
 21
570.541259
  0
LINE
  8
CSLAYER1
  6
CONTINUOUS
 62
     2
 10
1193.700331
 20
570.033052
 11
1195.200331
 21
570.033052
  0
LINE
  8
CSLAYER1
  6
CONTINUOUS
 62
     4
 10
1194.454270
 20
586.966829
 11
1203.428430
 21
579.189223
  0
LINE
  8
CSLAYER1
  6
CONTINUOUS
 62
     1
 10
2137.630894
 20
553.725769
 11
2151.453976
 21
553.725769
  0
LINE
  8
CSLAYER1
  6
CONTINUOUS
 62
     1
 10
2144.746070
 20
561.425227
 11
2144.746070
 21
546.946740
  0
LINE
  8
CSLAYER1
  6
CENTER
 62
     5
 10
1184.483689
 20
553.725769
 11
1246.700331
 21
553.725769
  0
LINE
  8
CSLAYER1
  6
CONTINUOUS
 62
     7
 10
1190.700331
 20
558.725769
 11
1193.700331
 21
558.725769
  0
LINE
  8
CSLAYER1
  6
CONTINUOUS
 62
     7
 10
1203.897982
 20
548.725769
 11
1246.700331
 21
548.725769
  0
LINE
  8
CSLAYER1
  6
CONTINUOUS
 62
     7
 10
1190.700331
 20
558.725769
 11
1190.700331
 21
550.347244
  0
LINE
  8
CSLAYER1
  6
CONTINUOUS
 62
     7
 10
1200.700331
 20
558.725769
 11
1246.700331
 21
558.725769
  0
LINE
  8
CSLAYER1
  6
CONTINUOUS
 62
     4
 10
848.700331
 20
544.839455
 11
848.700331
 21
514.539455
  0
LINE
  8
CSLAYER1
  6
CONTINUOUS
 62
     4
 10
1028.700331
 20
544.839455
 11
1028.700331
 21
514.539455
  0
LINE
  8
CSLAYER1
  6
CONTINUOUS
 62
     4
 10
847.200331
 20
550.839455
 11
1030.200331
 21
550.839455
  0
LINE
  8
CSLAYER1
  6
CONTINUOUS
 62
     4
 10
847.200331
 20
544.839455
 11
847.200331
 21
550.839455
  0
LINE
  8
CSLAYER1
  6
CONTINUOUS
 62
     2
 10
847.200331
 20
544.839455
 11
1030.200331
 21
544.839455
  0
LINE
  8
CSLAYER1
  6
CONTINUOUS
 62
     4
 10
1030.200331
 20
544.839455
 11
1030.200331
 21
550.839455
  0
LINE
  8
CSLAYER1
  6
CONTINUOUS
 62
     2
 10
1030.200331
 20
544.839455
 11
1030.200331
 21
550.839455
  0
LINE
  8
CSLAYER1
  6
CONTINUOUS
 62
     2
 10
849.700331
 20
550.839455
 11
859.700331
 21
550.839455
  0
LINE
  8
CSLAYER1
  6
CONTINUOUS
 62
     2
 10
1019.200331
 20
553.839455
 11
1019.200331
 21
551.639455
  0
LINE
  8
CSLAYER1
  6
CONTINUOUS
 62
     2
 10
1026.200331
 20
553.839455
 11
1026.200331
 21
551.639455
  0
LINE
  8
CSLAYER1
  6
CONTINUOUS
 62
     2
 10
1026.200331
 20
552.639455
 11
1019.200331
 21
552.639455
  0
LINE
  8
CSLAYER1
  6
CONTINUOUS
 62
     2
 10
1024.800331
 20
555.239455
 11
1020.600331
 21
555.239455
  0
LINE
  8
CSLAYER1
  6
CONTINUOUS
 62
     2
 10
1027.200331
 20
551.639455
 11
1027.200331
 21
550.839455
  0
LINE
  8
CSLAYER1
  6
CONTINUOUS
 62
     2
 10
1018.200331
 20
551.639455
 11
1018.200331
 21
550.839455
  0
LINE
  8
CSLAYER1
  6
CONTINUOUS
 62
     2
 10
1027.200331
 20
551.639455
 11
1018.200331
 21
551.639455
  0
ARC
  8
CSLAYER1
  6
CONTINUOUS
 62
     2
 10
1024.800331
 20
553.839455
 40
1.400000
 50
-0.000000
 51
90.000000
  0
ARC
  8
CSLAYER1
  6
CONTINUOUS
 62
     2
 10
1020.600331
 20
553.839455
 40
1.400000
 50
90.000000
 51
180.000000
  0
LINE
  8
CSLAYER1
  6
CONTINUOUS
 62
     2
 10
1023.740283
 20
551.639455
 11
1021.355081
 21
552.639455
  0
LINE
  8
CSLAYER1
  6
CONTINUOUS
 62
     5
 10
1022.700331
 20
557.067804
 11
1022.700331
 21
541.869626
  0
LINE
  8
CSLAYER1
  6
CONTINUOUS
 62
     2
 10
851.200331
 20
553.839455
 11
851.200331
 21
551.639455
  0
LINE
  8
CSLAYER1
  6
CONTINUOUS
 62
     2
 10
858.200331
 20
553.839455
 11
858.200331
 21
551.639455
  0
LINE
  8
CSLAYER1
  6
CONTINUOUS
 62
     2
 10
858.200331
 20
552.639455
 11
851.200331
 21
552.639455
  0
LINE
  8
CSLAYER1
  6
CONTINUOUS
 62
     2
 10
856.800331
 20
555.239455
 11
852.600331
 21
555.239455
  0
LINE
  8
CSLAYER1
  6
CONTINUOUS
 62
     2
 10
859.200331
 20
551.639455
 11
859.200331
 21
550.839455
  0
LINE
  8
CSLAYER1
  6
CONTINUOUS
 62
     2
 10
850.200331
 20
551.639455
 11
850.200331
 21
550.839455
  0
LINE
  8
CSLAYER1
  6
CONTINUOUS
 62
     2
 10
859.200331
 20
551.639455
 11
850.200331
 21
551.639455
  0
ARC
  8
CSLAYER1
  6
CONTINUOUS
 62
     2
 10
856.800331
 20
553.839455
 40
1.400000
 50
-0.000000
 51
90.000000
  0
ARC
  8
CSLAYER1
  6
CONTINUOUS
 62
     2
 10
852.600331
 20
553.839455
 40
1.400000
 50
90.000000
 51
180.000000
  0
LINE
  8
CSLAYER1
  6
CONTINUOUS
 62
     2
 10
855.740283
 20
551.639455
 11
853.355081
 21
552.639455
  0
LINE
  8
CSLAYER1
  6
CONTINUOUS
 62
     5
 10
854.700331
 20
557.067804
 11
854.700331
 21
541.869626
  0
LINE
  8
CSLAYER1
  6
CONTINUOUS
 62
     5
 10
927.845489
 20
529.839455
 11
958.723620
 21
529.839455
  0
LINE
  8
CSLAYER1
  6
CONTINUOUS
 62
     5
 10
973.700331
 20
540.638564
 11
973.700331
 21
514.539455
  0
LINE
  8
CSLAYER1
  6
CONTINUOUS
 62
     5
 10
943.700331
 20
544.839455
 11
943.700331
 21
514.449174
  0
ARC
  8
CSLAYER1
  6
CONTINUOUS
 62
     2
 10
973.700331
 20
529.839455
 40
6.500000
 50
-59.489763
 51
239.489763
  0
ARC
  8
CSLAYER1
  6
CONTINUOUS
 62
     2
 10
943.700331
 20
529.839455
 40
10.500000
 50
-55.150095
 51
231.502580
  0
ARC
  8
CSLAYER1
  6
CONTINUOUS
 62
     2
 10
943.700331
 20
529.839455
 40
6.000000
 50
0.000000
 51
180.000000
  0
ARC
  8
CSLAYER1
  6
CONTINUOUS
 62
     2
 10
973.700331
 20
529.839455
 40
3.300000
 50
0.000000
 51
180.000000
  0
LINE
  8
CSLAYER1
  6
CONTINUOUS
 62
     2
 10
937.700331
 20
529.839455
 11
937.700331
 21
514.539455
  0
LINE
  8
CSLAYER1
  6
CONTINUOUS
 62
     2
 10
949.700331
 20
529.839455
 11
949.700331
 21
514.539455
  0
LINE
  8
CSLAYER1
  6
CONTINUOUS
 62
     2
 10
970.400331
 20
529.839455
 11
970.400331
 21
514.539455
  0
LINE
  8
CSLAYER1
  6
CONTINUOUS
 62
     2
 10
977.000331
 20
529.839455
 11
977.000331
 21
514.539455
  0
LINE
  8
CSLAYER1
  6
CONTINUOUS
 62
     5
 10
964.801188
 20
529.839455
 11
983.864830
 21
529.839455
  0
POINT
  8
CSLAYER1
 62
     2
 10
868.700331
 20
529.839455
  0
POINT
  8
CSLAYER1
 62
     2
 10
908.700331
 20
529.839455
  0
LINE
  8
CSLAYER1
  6
CONTINUOUS
 62
     3
 10
1045.700331
 20
804.734110
 11
1045.700331
 21
772.175106
  0
LINE
  8
CSLAYER1
  6
CONTINUOUS
 62
     3
 10
1061.700331
 20
804.734110
 11
1061.700331
 21
772.175106
  0
LINE
  8
CSLAYER1
  6
CONTINUOUS
 62
     3
 10
1063.700331
 20
799.681538
 11
1063.700331
 21
804.734110
  0
LINE
  8
CSLAYER1
  6
CONTINUOUS
 62
     3
 10
1073.700331
 20
801.681538
 11
1073.700331
 21
804.734110
  0
LINE
  8
CSLAYER1
  6
CONTINUOUS
 62
     3
 10
1071.700331
 20
799.681538
 11
1071.700331
 21
804.734110
  0
LINE
  8
CSLAYER1
  6
CONTINUOUS
 62
     3
 10
1063.700331
 20
799.681538
 11
1071.700331
 21
799.681538
  0
LINE
  8
CSLAYER1
  6
CONTINUOUS
 62
     3
 10
1071.700331
 20
799.681538
 11
1073.700331
 21
801.681538
  0
LINE
  8
CSLAYER1
  6
CONTINUOUS
 62
     3
 10
1061.700331
 20
801.681538
 11
1063.700331
 21
801.681538
  0
LINE
  8
CSLAYER1
  6
CONTINUOUS
 62
     3
 10
1044.700331
 20
801.681538
 11
1045.700331
 21
801.681538
  0
LINE
  8
CSLAYER1
  6
CONTINUOUS
 62
     3
 10
831.700331
 20
804.734110
 11
831.700331
 21
772.175106
  0
LINE
  8
CSLAYER1
  6
CONTINUOUS
 62
     3
 10
815.700331
 20
804.734110
 11
815.700331
 21
772.175106
  0
LINE
  8
CSLAYER1
  6
CONTINUOUS
 62
     3
 10
813.700331
 20
799.681538
 11
813.700331
 21
804.734110
  0
LINE
  8
CSLAYER1
  6
CONTINUOUS
 62
     3
 10
803.700331
 20
801.681538
 11
803.700331
 21
804.734110
  0
LINE
  8
CSLAYER1
  6
CONTINUOUS
 62
     3
 10
805.700331
 20
799.681538
 11
805.700331
 21
804.734110
  0
LINE
  8
CSLAYER1
  6
CONTINUOUS
 62
     3
 10
813.700331
 20
799.681538
 11
805.700331
 21
799.681538
  0
LINE
  8
CSLAYER1
  6
CONTINUOUS
 62
     3
 10
805.700331
 20
799.681538
 11
803.700331
 21
801.681538
  0
LINE
  8
CSLAYER1
  6
CONTINUOUS
 62
     3
 10
815.700331
 20
801.681538
 11
813.700331
 21
801.681538
  0
LINE
  8
CSLAYER1
  6
CONTINUOUS
 62
     3
 10
832.700331
 20
801.681538
 11
831.700331
 21
801.681538
  0
LINE
  8
CSLAYER1
  6
CONTINUOUS
 62
     3
 10
1002.144020
 20
798.581095
 11
875.256643
 21
798.581095
  0
LINE
  8
CSLAYER1
  6
CONTINUOUS
 62
     3
 10
1044.700331
 20
804.734110
 11
1044.700331
 21
792.904550
  0
LINE
  8
CSLAYER1
  6
CONTINUOUS
 62
     3
 10
1017.641851
 20
772.175106
 11
1039.499351
 21
784.131329
  0
LINE
  8
CSLAYER1
  6
CONTINUOUS
 62
     3
 10
1006.943040
 20
799.807874
 11
1015.948828
 21
804.734110
  0
LINE
  8
CSLAYER1
  6
CONTINUOUS
 62
     3
 10
983.200331
 20
1206.965081
 11
983.200331
 21
883.328576
  0
LINE
  8
CSLAYER1
  6
CONTINUOUS
 62
     3
 10
1023.700331
 20
700.879301
 11
1000.700331
 21
700.879301
  0
LINE
  8
CSLAYER1
  6
CONTINUOUS
 62
     3
 10
1000.700331
 20
600.926957
 11
1023.700331
 21
600.926957
  0
LINE
  8
CSLAYER1
  6
CONTINUOUS
 62
     3
 10
983.200331
 20
1206.965081
 11
983.030995
 21
1209.077425
  0
LINE
  8
CSLAYER1
  6
CONTINUOUS
 62
     3
 10
983.030995
 20
1209.077425
 11
982.524276
 21
1211.173694
  0
LINE
  8
CSLAYER1
  6
CONTINUOUS
 62
     3
 10
982.524276
 20
1211.173694
 11
981.684030
 21
1213.237932
  0
LINE
  8
CSLAYER1
  6
CONTINUOUS
 62
     3
 10
981.684030
 20
1213.237932
 11
980.516653
 21
1215.254430
  0
LINE
  8
CSLAYER1
  6
CONTINUOUS
 62
     3
 10
980.516653
 20
1215.254430
 11
979.031028
 21
1217.207841
  0
LINE
  8
CSLAYER1
  6
CONTINUOUS
 62
     3
 10
979.031028
 20
1217.207841
 11
977.238462
 21
1219.083299
  0
LINE
  8
CSLAYER1
  6
CONTINUOUS
 62
     3
 10
977.238462
 20
1219.083299
 11
975.152597
 21
1220.866530
  0
LINE
  8
CSLAYER1
  6
CONTINUOUS
 62
     3
 10
975.152597
 20
1220.866530
 11
972.789309
 21
1222.543962
  0
LINE
  8
CSLAYER1
  6
CONTINUOUS
 62
     3
 10
972.789309
 20
1222.543962
 11
970.166583
 21
1224.102830
  0
LINE
  8
CSLAYER1
  6
CONTINUOUS
 62
     3
 10
970.166583
 20
1224.102830
 11
968.950331
 21
1224.709824
  0
LINE
  8
CSLAYER1
  6
CONTINUOUS
 62
     3
 10
938.700331
 20
1182.728644
 11
942.578762
 21
1182.820870
  0
LINE
  8
CSLAYER1
  6
CONTINUOUS
 62
     3
 10
942.578762
 20
1182.820870
 11
946.427675
 21
1183.096849
  0
LINE
  8
CSLAYER1
  6
CONTINUOUS
 62
     3
 10
946.427675
 20
1183.096849
 11
950.217779
 21
1183.554480
  0
LINE
  8
CSLAYER1
  6
CONTINUOUS
 62
     3
 10
950.217779
 20
1183.554480
 11
953.920228
 21
1184.190280
  0
LINE
  8
CSLAYER1
  6
CONTINUOUS
 62
     3
 10
953.920228
 20
1184.190280
 11
957.506844
 21
1184.999409
  0
LINE
  8
CSLAYER1
  6
CONTINUOUS
 62
     3
 10
957.506844
 20
1184.999409
 11
960.950331
 21
1185.975710
  0
LINE
  8
CSLAYER1
  6
CONTINUOUS
 62
     3
 10
960.950331
 20
1185.975710
 11
964.224483
 21
1187.111754
  0
LINE
  8
CSLAYER1
  6
CONTINUOUS
 62
     3
 10
964.224483
 20
1187.111754
 11
967.304380
 21
1188.398893
  0
LINE
  8
CSLAYER1
  6
CONTINUOUS
 62
     3
 10
967.304380
 20
1188.398893
 11
970.166583
 21
1189.827332
  0
LINE
  8
CSLAYER1
  6
CONTINUOUS
 62
     3
 10
970.166583
 20
1189.827332
 11
972.789309
 21
1191.386199
  0
LINE
  8
CSLAYER1
  6
CONTINUOUS
 62
     3
 10
972.789309
 20
1191.386199
 11
975.152597
 21
1193.063631
  0
LINE
  8
CSLAYER1
  6
CONTINUOUS
 62
     3
 10
975.152597
 20
1193.063631
 11
977.238462
 21
1194.846862
  0
LINE
  8
CSLAYER1
  6
CONTINUOUS
 62
     3
 10
977.238462
 20
1194.846862
 11
979.031028
 21
1196.722320
  0
LINE
  8
CSLAYER1
  6
CONTINUOUS
 62
     3
 10
979.031028
 20
1196.722320
 11
980.516653
 21
1198.675731
  0
LINE
  8
CSLAYER1
  6
CONTINUOUS
 62
     3
 10
980.516653
 20
1198.675731
 11
981.684030
 21
1200.692229
  0
LINE
  8
CSLAYER1
  6
CONTINUOUS
 62
     3
 10
981.684030
 20
1200.692229
 11
982.524276
 21
1202.756467
  0
LINE
  8
CSLAYER1
  6
CONTINUOUS
 62
     3
 10
982.524276
 20
1202.756467
 11
983.030995
 21
1204.852736
  0
LINE
  8
CSLAYER1
  6
CONTINUOUS
 62
     3
 10
983.030995
 20
1204.852736
 11
983.200331
 21
1206.965081
  0
LINE
  8
CSLAYER1
  6
CONTINUOUS
 62
     3
 10
968.950331
 20
1206.965081
 11
968.835221
 21
1208.401000
  0
LINE
  8
CSLAYER1
  6
CONTINUOUS
 62
     3
 10
938.700331
 20
1190.489750
 11
941.336792
 21
1190.552443
  0
LINE
  8
CSLAYER1
  6
CONTINUOUS
 62
     3
 10
941.336792
 20
1190.552443
 11
943.953189
 21
1190.740047
  0
LINE
  8
CSLAYER1
  6
CONTINUOUS
 62
     3
 10
943.953189
 20
1190.740047
 11
946.529607
 21
1191.051133
  0
LINE
  8
CSLAYER1
  6
CONTINUOUS
 62
     3
 10
946.529607
 20
1191.051133
 11
949.046440
 21
1191.483334
  0
LINE
  8
CSLAYER1
  6
CONTINUOUS
 62
     3
 10
949.046440
 20
1191.483334
 11
951.484534
 21
1192.033360
  0
LINE
  8
CSLAYER1
  6
CONTINUOUS
 62
     3
 10
951.484534
 20
1192.033360
 11
953.825331
 21
1192.697026
  0
LINE
  8
CSLAYER1
  6
CONTINUOUS
 62
     3
 10
953.825331
 20
1192.697026
 11
956.051018
 21
1193.469280
  0
LINE
  8
CSLAYER1
  6
CONTINUOUS
 62
     3
 10
956.051018
 20
1193.469280
 11
958.144656
 21
1194.344245
  0
LINE
  8
CSLAYER1
  6
CONTINUOUS
 62
     3
 10
958.144656
 20
1194.344245
 11
960.090311
 21
1195.315262
  0
LINE
  8
CSLAYER1
  6
CONTINUOUS
 62
     3
 10
960.090311
 20
1195.315262
 11
961.873176
 21
1196.374942
  0
LINE
  8
CSLAYER1
  6
CONTINUOUS
 62
     3
 10
961.873176
 20
1196.374942
 11
963.479681
 21
1197.515219
  0
LINE
  8
CSLAYER1
  6
CONTINUOUS
 62
     3
 10
963.479681
 20
1197.515219
 11
964.897600
 21
1198.727415
  0
LINE
  8
CSLAYER1
  6
CONTINUOUS
 62
     3
 10
964.897600
 20
1198.727415
 11
966.116142
 21
1200.002305
  0
LINE
  8
CSLAYER1
  6
CONTINUOUS
 62
     3
 10
966.116142
 20
1200.002305
 11
967.126033
 21
1201.330186
  0
LINE
  8
CSLAYER1
  6
CONTINUOUS
 62
     3
 10
967.126033
 20
1201.330186
 11
967.919587
 21
1202.700951
  0
LINE
  8
CSLAYER1
  6
CONTINUOUS
 62
     3
 10
967.919587
 20
1202.700951
 11
968.490766
 21
1204.104169
  0
LINE
  8
CSLAYER1
  6
CONTINUOUS
 62
     3
 10
968.490766
 20
1204.104169
 11
968.835221
 21
1205.529161
  0
LINE
  8
CSLAYER1
  6
CONTINUOUS
 62
     3
 10
968.835221
 20
1205.529161
 11
968.950331
 21
1206.965081
  0
LINE
  8
CSLAYER1
  6
CONTINUOUS
 62
     3
 10
938.700331
 20
703.821075
 11
943.929676
 21
703.945426
  0
LINE
  8
CSLAYER1
  6
CONTINUOUS
 62
     3
 10
943.929676
 20
703.945426
 11
949.119222
 21
704.317533
  0
LINE
  8
CSLAYER1
  6
CONTINUOUS
 62
     3
 10
949.119222
 20
704.317533
 11
954.229474
 21
704.934563
  0
LINE
  8
CSLAYER1
  6
CONTINUOUS
 62
     3
 10
954.229474
 20
704.934563
 11
959.221540
 21
705.791820
  0
LINE
  8
CSLAYER1
  6
CONTINUOUS
 62
     3
 10
959.221540
 20
705.791820
 11
964.057427
 21
706.882781
  0
LINE
  8
CSLAYER1
  6
CONTINUOUS
 62
     3
 10
964.057427
 20
706.882781
 11
968.700331
 21
708.199143
  0
LINE
  8
CSLAYER1
  6
CONTINUOUS
 62
     3
 10
968.700331
 20
708.199143
 11
973.114917
 21
709.730887
  0
LINE
  8
CSLAYER1
  6
CONTINUOUS
 62
     3
 10
973.114917
 20
709.730887
 11
977.267588
 21
711.466355
  0
LINE
  8
CSLAYER1
  6
CONTINUOUS
 62
     3
 10
977.267588
 20
711.466355
 11
977.685868
 21
711.675106
  0
LINE
  8
CSLAYER1
  6
CONTINUOUS
 62
     3
 10
938.700331
 20
582.366436
 11
944.103987
 21
582.494932
  0
LINE
  8
CSLAYER1
  6
CONTINUOUS
 62
     3
 10
944.103987
 20
582.494932
 11
949.466518
 21
582.879442
  0
LINE
  8
CSLAYER1
  6
CONTINUOUS
 62
     3
 10
949.466518
 20
582.879442
 11
954.747112
 21
583.517040
  0
LINE
  8
CSLAYER1
  6
CONTINUOUS
 62
     3
 10
954.747112
 20
583.517040
 11
959.905580
 21
584.402873
  0
LINE
  8
CSLAYER1
  6
CONTINUOUS
 62
     3
 10
959.905580
 20
584.402873
 11
964.902663
 21
585.530199
  0
LINE
  8
CSLAYER1
  6
CONTINUOUS
 62
     3
 10
964.902663
 20
585.530199
 11
969.700331
 21
586.890440
  0
LINE
  8
CSLAYER1
  6
CONTINUOUS
 62
     3
 10
969.700331
 20
586.890440
 11
974.262070
 21
588.473241
  0
LINE
  8
CSLAYER1
  6
CONTINUOUS
 62
     3
 10
974.262070
 20
588.473241
 11
978.553163
 21
590.266559
  0
LINE
  8
CSLAYER1
  6
CONTINUOUS
 62
     3
 10
978.553163
 20
590.266559
 11
982.540952
 21
592.256743
  0
LINE
  8
CSLAYER1
  6
CONTINUOUS
 62
     3
 10
982.540952
 20
592.256743
 11
986.195087
 21
594.428649
  0
LINE
  8
CSLAYER1
  6
CONTINUOUS
 62
     3
 10
986.195087
 20
594.428649
 11
989.487758
 21
596.765745
  0
LINE
  8
CSLAYER1
  6
CONTINUOUS
 62
     3
 10
989.487758
 20
596.765745
 11
992.393906
 21
599.250246
  0
LINE
  8
CSLAYER1
  6
CONTINUOUS
 62
     3
 10
992.393906
 20
599.250246
 11
994.891414
 21
601.863244
  0
LINE
  8
CSLAYER1
  6
CONTINUOUS
 62
     3
 10
994.891414
 20
601.863244
 11
996.961274
 21
604.584850
  0
LINE
  8
CSLAYER1
  6
CONTINUOUS
 62
     3
 10
996.961274
 20
604.584850
 11
998.587732
 21
607.394353
  0
LINE
  8
CSLAYER1
  6
CONTINUOUS
 62
     3
 10
998.587732
 20
607.394353
 11
999.758412
 21
610.270371
  0
LINE
  8
CSLAYER1
  6
CONTINUOUS
 62
     3
 10
999.758412
 20
610.270371
 11
1000.464402
 21
613.191014
  0
LINE
  8
CSLAYER1
  6
CONTINUOUS
 62
     3
 10
1000.464402
 20
613.191014
 11
1000.700331
 21
616.134057
  0
LINE
  8
CSLAYER1
  6
CONTINUOUS
 62
     3
 10
1000.700331
 20
567.399659
 11
1000.464402
 21
570.342701
  0
LINE
  8
CSLAYER1
  6
CONTINUOUS
 62
     3
 10
992.703209
 20
550.839455
 11
994.891414
 21
553.128846
  0
LINE
  8
CSLAYER1
  6
CONTINUOUS
 62
     3
 10
994.891414
 20
553.128846
 11
996.961274
 21
555.850453
  0
LINE
  8
CSLAYER1
  6
CONTINUOUS
 62
     3
 10
996.961274
 20
555.850453
 11
998.587732
 21
558.659956
  0
LINE
  8
CSLAYER1
  6
CONTINUOUS
 62
     3
 10
998.587732
 20
558.659956
 11
999.758412
 21
561.535974
  0
LINE
  8
CSLAYER1
  6
CONTINUOUS
 62
     3
 10
999.758412
 20
561.535974
 11
1000.464402
 21
564.456617
  0
LINE
  8
CSLAYER1
  6
CONTINUOUS
 62
     3
 10
1000.464402
 20
564.456617
 11
1000.700331
 21
567.399659
  0
LINE
  8
CSLAYER1
  6
CONTINUOUS
 62
     3
 10
1000.700331
 20
700.879301
 11
1000.700331
 21
567.399659
  0
LINE
  8
CSLAYER1
  6
CONTINUOUS
 62
     3
 10
938.700331
 20
583.455714
 11
943.929676
 21
583.580065
  0
LINE
  8
CSLAYER1
  6
CONTINUOUS
 62
     3
 10
943.929676
 20
583.580065
 11
949.119222
 21
583.952172
  0
LINE
  8
CSLAYER1
  6
CONTINUOUS
 62
     3
 10
949.119222
 20
583.952172
 11
954.229474
 21
584.569202
  0
LINE
  8
CSLAYER1
  6
CONTINUOUS
 62
     3
 10
954.229474
 20
584.569202
 11
959.221540
 21
585.426460
  0
LINE
  8
CSLAYER1
  6
CONTINUOUS
 62
     3
 10
959.221540
 20
585.426460
 11
964.057427
 21
586.517421
  0
LINE
  8
CSLAYER1
  6
CONTINUOUS
 62
     3
 10
964.057427
 20
586.517421
 11
968.700331
 21
587.833782
  0
LINE
  8
CSLAYER1
  6
CONTINUOUS
 62
     3
 10
968.700331
 20
587.833782
 11
973.114917
 21
589.365526
  0
LINE
  8
CSLAYER1
  6
CONTINUOUS
 62
     3
 10
973.114917
 20
589.365526
 11
977.267588
 21
591.100994
  0
LINE
  8
CSLAYER1
  6
CONTINUOUS
 62
     3
 10
977.267588
 20
591.100994
 11
981.126738
 21
593.026979
  0
LINE
  8
CSLAYER1
  6
CONTINUOUS
 62
     3
 10
981.126738
 20
593.026979
 11
984.662998
 21
595.128823
  0
LINE
  8
CSLAYER1
  6
CONTINUOUS
 62
     3
 10
984.662998
 20
595.128823
 11
987.849454
 21
597.390530
  0
LINE
  8
CSLAYER1
  6
CONTINUOUS
 62
     3
 10
987.849454
 20
597.390530
 11
990.661855
 21
599.794885
  0
LINE
  8
CSLAYER1
  6
CONTINUOUS
 62
     3
 10
990.661855
 20
599.794885
 11
993.078798
 21
602.323592
  0
LINE
  8
CSLAYER1
  6
CONTINUOUS
 62
     3
 10
993.078798
 20
602.323592
 11
995.081888
 21
604.957405
  0
LINE
  8
CSLAYER1
  6
CONTINUOUS
 62
     3
 10
995.081888
 20
604.957405
 11
996.655881
 21
607.676279
  0
LINE
  8
CSLAYER1
  6
CONTINUOUS
 62
     3
 10
996.655881
 20
607.676279
 11
997.788796
 21
610.459522
  0
LINE
  8
CSLAYER1
  6
CONTINUOUS
 62
     3
 10
997.788796
 20
610.459522
 11
998.472013
 21
613.285951
  0
LINE
  8
CSLAYER1
  6
CONTINUOUS
 62
     3
 10
998.472013
 20
613.285951
 11
998.700331
 21
616.134057
  0
LINE
  8
CSLAYER1
  6
CONTINUOUS
 62
     3
 10
998.700331
 20
711.675106
 11
998.700331
 21
616.134057
  0
LINE
  8
CSLAYER1
  6
CONTINUOUS
 62
     3
 10
998.700331
 20
624.597137
 11
999.758412
 21
621.997742
  0
LINE
  8
CSLAYER1
  6
CONTINUOUS
 62
     3
 10
999.758412
 20
621.997742
 11
1000.464402
 21
619.077099
  0
LINE
  8
CSLAYER1
  6
CONTINUOUS
 62
     3
 10
1000.464402
 20
619.077099
 11
1000.700331
 21
616.134057
  0
LINE
  8
CSLAYER1
  6
CONTINUOUS
 62
     4
 10
992.470236
 20
711.675106
 11
992.470236
 21
601.686888
  0
LINE
  8
CSLAYER1
  6
CONTINUOUS
 62
     4
 10
985.363472
 20
711.675106
 11
985.363472
 21
595.564350
  0
LINE
  8
CSLAYER1
  6
CONTINUOUS
 62
     4
 10
973.081545
 20
709.719307
 11
973.081545
 21
589.402624
  0
LINE
  8
CSLAYER1
  6
CONTINUOUS
 62
     4
 10
968.147328
 20
708.042355
 11
968.147328
 21
587.676994
  0
LINE
  8
CSLAYER1
  6
CONTINUOUS
 62
     4
 10
950.306022
 20
704.473275
 11
950.306022
 21
584.095470
  0
ARC
  8
CSLAYER1
  6
CONTINUOUS
 62
     3
 10
1002.144020
 20
808.581095
 40
10.000000
 50
270.000000
 51
298.679003
  0
ARC
  8
CSLAYER1
  6
CONTINUOUS
 62
     3
 10
1034.700331
 20
792.904550
 40
10.000000
 50
298.679003
 51
360.000000
  0
LINE
  8
CSLAYER1
  6
CONTINUOUS
 62
     3
 10
832.700331
 20
804.734110
 11
832.700331
 21
792.904550
  0
LINE
  8
CSLAYER1
  6
CONTINUOUS
 62
     3
 10
859.758812
 20
772.175106
 11
837.901311
 21
784.131329
  0
LINE
  8
CSLAYER1
  6
CONTINUOUS
 62
     3
 10
870.457623
 20
799.807874
 11
861.451834
 21
804.734110
  0
LINE
  8
CSLAYER1
  6
CONTINUOUS
 62
     3
 10
894.200331
 20
1206.965081
 11
894.200331
 21
883.328576
  0
LINE
  8
CSLAYER1
  6
CONTINUOUS
 62
     3
 10
894.200331
 20
1206.965081
 11
894.369667
 21
1209.077425
  0
LINE
  8
CSLAYER1
  6
CONTINUOUS
 62
     3
 10
894.369667
 20
1209.077425
 11
894.876386
 21
1211.173694
  0
LINE
  8
CSLAYER1
  6
CONTINUOUS
 62
     3
 10
894.876386
 20
1211.173694
 11
895.716632
 21
1213.237932
  0
LINE
  8
CSLAYER1
  6
CONTINUOUS
 62
     3
 10
895.716632
 20
1213.237932
 11
896.884010
 21
1215.254430
  0
LINE
  8
CSLAYER1
  6
CONTINUOUS
 62
     3
 10
896.884010
 20
1215.254430
 11
898.369635
 21
1217.207841
  0
LINE
  8
CSLAYER1
  6
CONTINUOUS
 62
     3
 10
898.369635
 20
1217.207841
 11
900.162201
 21
1219.083299
  0
LINE
  8
CSLAYER1
  6
CONTINUOUS
 62
     3
 10
900.162201
 20
1219.083299
 11
902.248065
 21
1220.866530
  0
LINE
  8
CSLAYER1
  6
CONTINUOUS
 62
     3
 10
902.248065
 20
1220.866530
 11
904.611353
 21
1222.543962
  0
LINE
  8
CSLAYER1
  6
CONTINUOUS
 62
     3
 10
904.611353
 20
1222.543962
 11
907.234079
 21
1224.102830
  0
LINE
  8
CSLAYER1
  6
CONTINUOUS
 62
     3
 10
907.234079
 20
1224.102830
 11
908.450331
 21
1224.709824
  0
LINE
  8
CSLAYER1
  6
CONTINUOUS
 62
     3
 10
938.700331
 20
1182.728644
 11
934.821901
 21
1182.820870
  0
LINE
  8
CSLAYER1
  6
CONTINUOUS
 62
     3
 10
934.821901
 20
1182.820870
 11
930.972987
 21
1183.096849
  0
LINE
  8
CSLAYER1
  6
CONTINUOUS
 62
     3
 10
930.972987
 20
1183.096849
 11
927.182884
 21
1183.554480
  0
LINE
  8
CSLAYER1
  6
CONTINUOUS
 62
     3
 10
927.182884
 20
1183.554480
 11
923.480435
 21
1184.190280
  0
LINE
  8
CSLAYER1
  6
CONTINUOUS
 62
     3
 10
923.480435
 20
1184.190280
 11
919.893819
 21
1184.999409
  0
LINE
  8
CSLAYER1
  6
CONTINUOUS
 62
     3
 10
919.893819
 20
1184.999409
 11
916.450331
 21
1185.975710
  0
LINE
  8
CSLAYER1
  6
CONTINUOUS
 62
     3
 10
916.450331
 20
1185.975710
 11
913.176180
 21
1187.111754
  0
LINE
  8
CSLAYER1
  6
CONTINUOUS
 62
     3
 10
913.176180
 20
1187.111754
 11
910.096283
 21
1188.398893
  0
LINE
  8
CSLAYER1
  6
CONTINUOUS
 62
     3
 10
910.096283
 20
1188.398893
 11
907.234079
 21
1189.827332
  0
LINE
  8
CSLAYER1
  6
CONTINUOUS
 62
     3
 10
907.234079
 20
1189.827332
 11
904.611353
 21
1191.386199
  0
LINE
  8
CSLAYER1
  6
CONTINUOUS
 62
     3
 10
904.611353
 20
1191.386199
 11
902.248065
 21
1193.063631
  0
LINE
  8
CSLAYER1
  6
CONTINUOUS
 62
     3
 10
902.248065
 20
1193.063631
 11
900.162201
 21
1194.846862
  0
LINE
  8
CSLAYER1
  6
CONTINUOUS
 62
     3
 10
900.162201
 20
1194.846862
 11
898.369635
 21
1196.722320
  0
LINE
  8
CSLAYER1
  6
CONTINUOUS
 62
     3
 10
898.369635
 20
1196.722320
 11
896.884010
 21
1198.675731
  0
LINE
  8
CSLAYER1
  6
CONTINUOUS
 62
     3
 10
896.884010
 20
1198.675731
 11
895.716632
 21
1200.692229
  0
LINE
  8
CSLAYER1
  6
CONTINUOUS
 62
     3
 10
895.716632
 20
1200.692229
 11
894.876386
 21
1202.756467
  0
LINE
  8
CSLAYER1
  6
CONTINUOUS
 62
     3
 10
894.876386
 20
1202.756467
 11
894.369667
 21
1204.852736
  0
LINE
  8
CSLAYER1
  6
CONTINUOUS
 62
     3
 10
894.369667
 20
1204.852736
 11
894.200331
 21
1206.965081
  0
LINE
  8
CSLAYER1
  6
CONTINUOUS
 62
     3
 10
908.450331
 20
1206.965081
 11
908.565442
 21
1208.401000
  0
LINE
  8
CSLAYER1
  6
CONTINUOUS
 62
     3
 10
938.700331
 20
1190.489750
 11
936.063870
 21
1190.552443
  0
LINE
  8
CSLAYER1
  6
CONTINUOUS
 62
     3
 10
936.063870
 20
1190.552443
 11
933.447474
 21
1190.740047
  0
LINE
  8
CSLAYER1
  6
CONTINUOUS
 62
     3
 10
933.447474
 20
1190.740047
 11
930.871055
 21
1191.051133
  0
LINE
  8
CSLAYER1
  6
CONTINUOUS
 62
     3
 10
930.871055
 20
1191.051133
 11
928.354222
 21
1191.483334
  0
LINE
  8
CSLAYER1
  6
CONTINUOUS
 62
     3
 10
928.354222
 20
1191.483334
 11
925.916129
 21
1192.033360
  0
LINE
  8
CSLAYER1
  6
CONTINUOUS
 62
     3
 10
925.916129
 20
1192.033360
 11
923.575331
 21
1192.697026
  0
LINE
  8
CSLAYER1
  6
CONTINUOUS
 62
     3
 10
923.575331
 20
1192.697026
 11
921.349644
 21
1193.469280
  0
LINE
  8
CSLAYER1
  6
CONTINUOUS
 62
     3
 10
921.349644
 20
1193.469280
 11
919.256006
 21
1194.344245
  0
LINE
  8
CSLAYER1
  6
CONTINUOUS
 62
     3
 10
919.256006
 20
1194.344245
 11
917.310351
 21
1195.315262
  0
LINE
  8
CSLAYER1
  6
CONTINUOUS
 62
     3
 10
917.310351
 20
1195.315262
 11
915.527487
 21
1196.374942
  0
LINE
  8
CSLAYER1
  6
CONTINUOUS
 62
     3
 10
915.527487
 20
1196.374942
 11
913.920982
 21
1197.515219
  0
LINE
  8
CSLAYER1
  6
CONTINUOUS
 62
     3
 10
913.920982
 20
1197.515219
 11
912.503063
 21
1198.727415
  0
LINE
  8
CSLAYER1
  6
CONTINUOUS
 62
     3
 10
912.503063
 20
1198.727415
 11
911.284521
 21
1200.002305
  0
LINE
  8
CSLAYER1
  6
CONTINUOUS
 62
     3
 10
911.284521
 20
1200.002305
 11
910.274629
 21
1201.330186
  0
LINE
  8
CSLAYER1
  6
CONTINUOUS
 62
     3
 10
910.274629
 20
1201.330186
 11
909.481075
 21
1202.700951
  0
LINE
  8
CSLAYER1
  6
CONTINUOUS
 62
     3
 10
909.481075
 20
1202.700951
 11
908.909897
 21
1204.104169
  0
LINE
  8
CSLAYER1
  6
CONTINUOUS
 62
     3
 10
908.909897
 20
1204.104169
 11
908.565442
 21
1205.529161
  0
LINE
  8
CSLAYER1
  6
CONTINUOUS
 62
     3
 10
908.565442
 20
1205.529161
 11
908.450331
 21
1206.965081
  0
LINE
  8
CSLAYER1
  6
CONTINUOUS
 62
     3
 10
938.700331
 20
703.821075
 11
933.470987
 21
703.945426
  0
LINE
  8
CSLAYER1
  6
CONTINUOUS
 62
     3
 10
933.470987
 20
703.945426
 11
928.281441
 21
704.317533
  0
LINE
  8
CSLAYER1
  6
CONTINUOUS
 62
     3
 10
928.281441
 20
704.317533
 11
923.171188
 21
704.934563
  0
LINE
  8
CSLAYER1
  6
CONTINUOUS
 62
     3
 10
923.171188
 20
704.934563
 11
918.179123
 21
705.791820
  0
LINE
  8
CSLAYER1
  6
CONTINUOUS
 62
     3
 10
918.179123
 20
705.791820
 11
913.343235
 21
706.882781
  0
LINE
  8
CSLAYER1
  6
CONTINUOUS
 62
     3
 10
913.343235
 20
706.882781
 11
908.700331
 21
708.199143
  0
LINE
  8
CSLAYER1
  6
CONTINUOUS
 62
     3
 10
908.700331
 20
708.199143
 11
904.285745
 21
709.730887
  0
LINE
  8
CSLAYER1
  6
CONTINUOUS
 62
     3
 10
904.285745
 20
709.730887
 11
900.133075
 21
711.466355
  0
LINE
  8
CSLAYER1
  6
CONTINUOUS
 62
     3
 10
900.133075
 20
711.466355
 11
899.714794
 21
711.675106
  0
LINE
  8
CSLAYER1
  6
CONTINUOUS
 62
     3
 10
938.700331
 20
582.366436
 11
933.296675
 21
582.494932
  0
LINE
  8
CSLAYER1
  6
CONTINUOUS
 62
     3
 10
933.296675
 20
582.494932
 11
927.934144
 21
582.879442
  0
LINE
  8
CSLAYER1
  6
CONTINUOUS
 62
     3
 10
927.934144
 20
582.879442
 11
922.653550
 21
583.517040
  0
LINE
  8
CSLAYER1
  6
CONTINUOUS
 62
     3
 10
922.653550
 20
583.517040
 11
917.495082
 21
584.402873
  0
LINE
  8
CSLAYER1
  6
CONTINUOUS
 62
     3
 10
917.495082
 20
584.402873
 11
912.497999
 21
585.530199
  0
LINE
  8
CSLAYER1
  6
CONTINUOUS
 62
     3
 10
912.497999
 20
585.530199
 11
907.700331
 21
586.890440
  0
LINE
  8
CSLAYER1
  6
CONTINUOUS
 62
     3
 10
907.700331
 20
586.890440
 11
903.138592
 21
588.473241
  0
LINE
  8
CSLAYER1
  6
CONTINUOUS
 62
     3
 10
903.138592
 20
588.473241
 11
898.847499
 21
590.266559
  0
LINE
  8
CSLAYER1
  6
CONTINUOUS
 62
     3
 10
898.847499
 20
590.266559
 11
894.859711
 21
592.256743
  0
LINE
  8
CSLAYER1
  6
CONTINUOUS
 62
     3
 10
894.859711
 20
592.256743
 11
891.205576
 21
594.428649
  0
LINE
  8
CSLAYER1
  6
CONTINUOUS
 62
     3
 10
891.205576
 20
594.428649
 11
887.912904
 21
596.765745
  0
LINE
  8
CSLAYER1
  6
CONTINUOUS
 62
     3
 10
887.912904
 20
596.765745
 11
885.006756
 21
599.250246
  0
LINE
  8
CSLAYER1
  6
CONTINUOUS
 62
     3
 10
885.006756
 20
599.250246
 11
882.509248
 21
601.863244
  0
LINE
  8
CSLAYER1
  6
CONTINUOUS
 62
     3
 10
882.509248
 20
601.863244
 11
880.439389
 21
604.584850
  0
LINE
  8
CSLAYER1
  6
CONTINUOUS
 62
     3
 10
880.439389
 20
604.584850
 11
878.812930
 21
607.394353
  0
LINE
  8
CSLAYER1
  6
CONTINUOUS
 62
     3
 10
878.812930
 20
607.394353
 11
877.642250
 21
610.270371
  0
LINE
  8
CSLAYER1
  6
CONTINUOUS
 62
     3
 10
877.642250
 20
610.270371
 11
876.936260
 21
613.191014
  0
LINE
  8
CSLAYER1
  6
CONTINUOUS
 62
     3
 10
876.936260
 20
613.191014
 11
876.700331
 21
616.134057
  0
LINE
  8
CSLAYER1
  6
CONTINUOUS
 62
     3
 10
884.697453
 20
550.839455
 11
882.509248
 21
553.128846
  0
LINE
  8
CSLAYER1
  6
CONTINUOUS
 62
     3
 10
882.509248
 20
553.128846
 11
880.439389
 21
555.850453
  0
LINE
  8
CSLAYER1
  6
CONTINUOUS
 62
     3
 10
880.439389
 20
555.850453
 11
878.812930
 21
558.659956
  0
LINE
  8
CSLAYER1
  6
CONTINUOUS
 62
     3
 10
878.812930
 20
558.659956
 11
877.642250
 21
561.535974
  0
LINE
  8
CSLAYER1
  6
CONTINUOUS
 62
     3
 10
877.642250
 20
561.535974
 11
876.936260
 21
564.456617
  0
LINE
  8
CSLAYER1
  6
CONTINUOUS
 62
     3
 10
876.936260
 20
564.456617
 11
876.700331
 21
567.399659
  0
LINE
  8
CSLAYER1
  6
CONTINUOUS
 62
     3
 10
938.700331
 20
583.455714
 11
933.470987
 21
583.580065
  0
LINE
  8
CSLAYER1
  6
CONTINUOUS
 62
     3
 10
933.470987
 20
583.580065
 11
928.281441
 21
583.952172
  0
LINE
  8
CSLAYER1
  6
CONTINUOUS
 62
     3
 10
928.281441
 20
583.952172
 11
923.171188
 21
584.569202
  0
LINE
  8
CSLAYER1
  6
CONTINUOUS
 62
     3
 10
923.171188
 20
584.569202
 11
918.179123
 21
585.426460
  0
LINE
  8
CSLAYER1
  6
CONTINUOUS
 62
     3
 10
918.179123
 20
585.426460
 11
913.343235
 21
586.517421
  0
LINE
  8
CSLAYER1
  6
CONTINUOUS
 62
     3
 10
913.343235
 20
586.517421
 11
908.700331
 21
587.833782
  0
LINE
  8
CSLAYER1
  6
CONTINUOUS
 62
     3
 10
908.700331
 20
587.833782
 11
904.285745
 21
589.365526
  0
LINE
  8
CSLAYER1
  6
CONTINUOUS
 62
     3
 10
904.285745
 20
589.365526
 11
900.133075
 21
591.100994
  0
LINE
  8
CSLAYER1
  6
CONTINUOUS
 62
     3
 10
900.133075
 20
591.100994
 11
896.273924
 21
593.026979
  0
LINE
  8
CSLAYER1
  6
CONTINUOUS
 62
     3
 10
896.273924
 20
593.026979
 11
892.737665
 21
595.128823
  0
LINE
  8
CSLAYER1
  6
CONTINUOUS
 62
     3
 10
892.737665
 20
595.128823
 11
889.551209
 21
597.390530
  0
LINE
  8
CSLAYER1
  6
CONTINUOUS
 62
     3
 10
889.551209
 20
597.390530
 11
886.738807
 21
599.794885
  0
LINE
  8
CSLAYER1
  6
CONTINUOUS
 62
     3
 10
886.738807
 20
599.794885
 11
884.321864
 21
602.323592
  0
LINE
  8
CSLAYER1
  6
CONTINUOUS
 62
     3
 10
884.321864
 20
602.323592
 11
882.318774
 21
604.957405
  0
LINE
  8
CSLAYER1
  6
CONTINUOUS
 62
     3
 10
882.318774
 20
604.957405
 11
880.744782
 21
607.676279
  0
LINE
  8
CSLAYER1
  6
CONTINUOUS
 62
     3
 10
880.744782
 20
607.676279
 11
879.611866
 21
610.459522
  0
LINE
  8
CSLAYER1
  6
CONTINUOUS
 62
     3
 10
879.611866
 20
610.459522
 11
878.928649
 21
613.285951
  0
LINE
  8
CSLAYER1
  6
CONTINUOUS
 62
     3
 10
878.928649
 20
613.285951
 11
878.700331
 21
616.134057
  0
LINE
  8
CSLAYER1
  6
CONTINUOUS
 62
     3
 10
878.700331
 20
711.675106
 11
878.700331
 21
616.134057
  0
LINE
  8
CSLAYER1
  6
CONTINUOUS
 62
     3
 10
878.700331
 20
624.597137
 11
877.642250
 21
621.997742
  0
LINE
  8
CSLAYER1
  6
CONTINUOUS
 62
     3
 10
877.642250
 20
621.997742
 11
876.936260
 21
619.077099
  0
LINE
  8
CSLAYER1
  6
CONTINUOUS
 62
     3
 10
876.936260
 20
619.077099
 11
876.700331
 21
616.134057
  0
LINE
  8
CSLAYER1
  6
CONTINUOUS
 62
     4
 10
884.930427
 20
711.675106
 11
884.930427
 21
601.686888
  0
LINE
  8
CSLAYER1
  6
CONTINUOUS
 62
     4
 10
892.037191
 20
711.675106
 11
892.037191
 21
595.564350
  0
LINE
  8
CSLAYER1
  6
CONTINUOUS
 62
     4
 10
904.319117
 20
709.719307
 11
904.319117
 21
589.402624
  0
LINE
  8
CSLAYER1
  6
CONTINUOUS
 62
     4
 10
909.253334
 20
708.042355
 11
909.253334
 21
587.676994
  0
LINE
  8
CSLAYER1
  6
CONTINUOUS
 62
     4
 10
927.094640
 20
704.473275
 11
927.094640
 21
584.095470
  0
ARC
  8
CSLAYER1
  6
CONTINUOUS
 62
     3
 10
875.256643
 20
808.581095
 40
10.000000
 50
241.320997
 51
270.000000
  0
ARC
  8
CSLAYER1
  6
CONTINUOUS
 62
     3
 10
842.700331
 20
792.904550
 40
10.000000
 50
180.000000
 51
241.320997
  0
LINE
  8
CSLAYER1
  6
CONTINUOUS
 62
     3
 10
1023.700331
 20
700.879301
 11
1023.700331
 21
600.926957
  0
LINE
  8
CSLAYER1
  6
CONTINUOUS
 62
     3
 10
876.700331
 20
616.134057
 11
876.700331
 21
567.399659
  0
LINE
  8
CSLAYER1
  6
CONTINUOUS
 62
     3
 10
968.950331
 20
1305.832833
 11
968.950331
 21
1277.617697
  0
LINE
  8
CSLAYER1
  6
CONTINUOUS
 62
     3
 10
908.450331
 20
1305.832833
 11
908.450331
 21
1277.617697
  0
LINE
  8
CSLAYER1
  6
CONTINUOUS
 62
     3
 10
968.950331
 20
1252.617697
 11
968.950331
 21
1206.965081
  0
LINE
  8
CSLAYER1
  6
CONTINUOUS
 62
     3
 10
908.450331
 20
1252.617697
 11
908.450331
 21
1206.965081
  0
TEXT
  8
CSLAYER1
 62
     5
 10
1434.824219
 20
666.379944
 40
60.000000
 41
1.017391
  1
リミットスイッチ
 50
360.000000
 51
0.000000
  7
EASYDRAW_FONT
 72
     5
 11
1902.824219
 21
666.379944
  0
LINE
  8
CSLAYER1
  6
CONTINUOUS
 62
     5
 10
2597.664281
 20
859.133692
 11
2725.623966
 21
961.008224
  0
LINE
  8
CSLAYER1
  6
CONTINUOUS
 62
     5
 10
2597.664281
 20
859.133692
 11
2624.415587
 21
895.318877
  0
LINE
  8
CSLAYER1
  6
CONTINUOUS
 62
     5
 10
2597.664281
 20
859.133692
 11
2638.924184
 21
877.095328
  0
LINE
  8
CSLAYER1
  6
CONTINUOUS
 62
     5
 10
2725.623966
 20
961.008224
 11
3197.424734
 21
961.008224
  0
LINE
  8
CSLAYER1
  6
CONTINUOUS
 62
     5
 10
1200.700331
 20
566.761300
 11
1423.912523
 21
737.859768
  0
LINE
  8
CSLAYER1
  6
CONTINUOUS
 62
     5
 10
1200.700331
 20
566.761300
 11
1228.112545
 21
602.448420
  0
LINE
  8
CSLAYER1
  6
CONTINUOUS
 62
     5
 10
1200.700331
 20
566.761300
 11
1242.283565
 21
583.961146
  0
LINE
  8
CSLAYER1
  6
CONTINUOUS
 62
     5
 10
1423.912523
 20
737.859768
 11
1903.701402
 21
737.859768
  0
LINE
  8
CSLAYER1
  6
CONTINUOUS
 62
     4
 10
1199.200331
 20
570.541259
 11
1200.700331
 21
570.541259
  0
LINE
  8
CSLAYER1
  6
CONTINUOUS
 62
     2
 10
1199.200331
 20
570.033052
 11
1200.700331
 21
570.033052
  0
LINE
  8
CSLAYER1
  6
CONTINUOUS
 62
     4
 10
1204.200331
 20
540.201200
 11
1204.200331
 21
546.245385
  0
LINE
  8
CSLAYER1
  6
CONTINUOUS
 62
     4
 10
1195.200331
 20
570.541259
 11
1195.200331
 21
586.519192
  0
LINE
  8
CSLAYER1
  6
CONTINUOUS
 62
     4
 10
1199.200331
 20
570.541259
 11
1199.200331
 21
582.479749
  0
LINE
  8
CSLAYER1
  6
CONTINUOUS
 62
     2
 10
1193.700331
 20
558.229523
 11
1200.700331
 21
558.229523
  0
LINE
  8
CSLAYER1
  6
CENTER
 62
     5
 10
2231.306572
 20
529.839455
 11
2220.453735
 21
529.839455
  0
LINE
  8
CSLAYER1
  6
CENTER
 62
     5
 10
2065.764241
 20
529.839455
 11
2094.597576
 21
529.839455
  0
LINE
  8
CSLAYER1
  6
CONTINUOUS
 62
     2
 10
2065.764241
 20
533.639455
 11
2068.281749
 21
533.639455
  0
LINE
  8
CSLAYER1
  6
CONTINUOUS
 62
     2
 10
2096.281749
 20
544.839455
 11
2096.281749
 21
539.412597
  0
LINE
  8
CSLAYER1
  6
CONTINUOUS
 62
     2
 10
2068.281749
 20
538.339455
 11
2068.281749
 21
521.339455
  0
LINE
  8
CSLAYER1
  6
CONTINUOUS
 62
     2
 10
2072.251315
 20
542.829836
 11
2086.879186
 21
542.829836
  0
LINE
  8
CSLAYER1
  6
CONTINUOUS
 62
     2
 10
2071.390843
 20
541.339455
 11
2071.390843
 21
518.339455
  0
LINE
  8
CSLAYER1
  6
CONTINUOUS
 62
     2
 10
2087.739657
 20
541.339455
 11
2087.739657
 21
518.339455
  0
LINE
  8
CSLAYER1
  6
CONTINUOUS
 62
     2
 10
2071.390843
 20
541.339455
 11
2072.251315
 21
542.829836
  0
LINE
  8
CSLAYER1
  6
CONTINUOUS
 62
     2
 10
2087.739657
 20
541.339455
 11
2086.879186
 21
542.829836
  0
LINE
  8
CSLAYER1
  6
CONTINUOUS
 62
     2
 10
2072.251315
 20
536.478983
 11
2086.879186
 21
536.478983
  0
ARC
  8
CSLAYER1
  6
CONTINUOUS
 62
     2
 10
2097.436868
 20
529.839455
 40
26.046025
 50
165.231439
 51
194.768561
  0
ARC
  8
CSLAYER1
  6
CONTINUOUS
 62
     2
 10
2077.522437
 20
539.654409
 40
6.153702
 50
156.825356
 51
211.065581
  0
ARC
  8
CSLAYER1
  6
CONTINUOUS
 62
     2
 10
2081.608064
 20
539.654409
 40
6.153702
 50
-31.065581
 51
23.174644
  0
ARC
  8
CSLAYER1
  6
CONTINUOUS
 62
     2
 10
2061.693633
 20
529.839455
 40
26.046025
 50
-14.768561
 51
14.768561
  0
LINE
  8
CSLAYER1
  6
CONTINUOUS
 62
     2
 10
2071.281749
 20
541.339455
 11
2071.390843
 21
541.339455
  0
ARC
  8
CSLAYER1
  6
CONTINUOUS
 62
     2
 10
2071.281749
 20
538.339455
 40
3.000000
 50
90.000000
 51
180.000000
  0
LINE
  8
CSLAYER1
  6
CONTINUOUS
 62
     2
 10
2091.281749
 20
541.339455
 11
2091.281749
 21
518.339455
  0
LINE
  8
CSLAYER1
  6
CONTINUOUS
 62
     2
 10
2091.281749
 20
541.339455
 11
2092.142221
 21
542.829836
  0
ARC
  8
CSLAYER1
  6
CONTINUOUS
 62
     2
 10
2117.327774
 20
529.839455
 40
26.046025
 50
165.231439
 51
194.768561
  0
ARC
  8
CSLAYER1
  6
CONTINUOUS
 62
     2
 10
2097.413342
 20
539.654409
 40
6.153702
 50
156.825356
 51
211.065581
  0
LINE
  8
CSLAYER1
  6
CONTINUOUS
 62
     2
 10
2092.142221
 20
536.478983
 11
2095.765647
 21
536.478983
  0
LINE
  8
CSLAYER1
  6
CONTINUOUS
 62
     2
 10
2092.142221
 20
542.829836
 11
2096.281749
 21
542.829836
  0
LINE
  8
CSLAYER1
  6
CONTINUOUS
 62
     2
 10
2087.739657
 20
540.175579
 11
2091.281749
 21
540.175579
  0
LINE
  8
CSLAYER1
  6
CONTINUOUS
 62
     2
 10
2087.739657
 20
539.529201
 11
2089.346019
 21
539.529201
  0
LINE
  8
CSLAYER1
  6
CONTINUOUS
 62
     2
 10
2089.346019
 20
540.175579
 11
2089.346019
 21
519.503331
  0
LINE
  8
CSLAYER1
  6
CONTINUOUS
 62
     2
 10
2089.346019
 20
539.529201
 11
2090.480871
 21
540.175579
  0
LINE
  8
CSLAYER1
  6
CONTINUOUS
 62
     2
 10
2072.251315
 20
516.849074
 11
2086.879186
 21
516.849074
  0
LINE
  8
CSLAYER1
  6
CONTINUOUS
 62
     2
 10
2071.390843
 20
518.339455
 11
2072.251315
 21
516.849074
  0
LINE
  8
CSLAYER1
  6
CONTINUOUS
 62
     2
 10
2087.739657
 20
518.339455
 11
2086.879186
 21
516.849074
  0
LINE
  8
CSLAYER1
  6
CONTINUOUS
 62
     2
 10
2072.251315
 20
523.199927
 11
2086.879186
 21
523.199927
  0
ARC
  8
CSLAYER1
  6
CONTINUOUS
 62
     2
 10
2077.522437
 20
520.024500
 40
6.153702
 50
148.934419
 51
203.174644
  0
ARC
  8
CSLAYER1
  6
CONTINUOUS
 62
     2
 10
2081.608064
 20
520.024500
 40
6.153702
 50
-23.174644
 51
31.065581
  0
LINE
  8
CSLAYER1
  6
CONTINUOUS
 62
     2
 10
2071.281749
 20
518.339455
 11
2071.390843
 21
518.339455
  0
ARC
  8
CSLAYER1
  6
CONTINUOUS
 62
     2
 10
2071.281749
 20
521.339455
 40
3.000000
 50
180.000000
 51
270.000000
  0
LINE
  8
CSLAYER1
  6
CONTINUOUS
 62
     2
 10
2091.281749
 20
518.339455
 11
2092.142221
 21
516.849074
  0
ARC
  8
CSLAYER1
  6
CONTINUOUS
 62
     2
 10
2097.413342
 20
520.024500
 40
6.153702
 50
148.934419
 51
203.174644
  0
LINE
  8
CSLAYER1
  6
CONTINUOUS
 62
     2
 10
2092.142221
 20
523.199927
 11
2093.429505
 21
523.199927
  0
LINE
  8
CSLAYER1
  6
CONTINUOUS
 62
     2
 10
2092.142221
 20
516.849074
 11
2092.312220
 21
516.849074
  0
LINE
  8
CSLAYER1
  6
CONTINUOUS
 62
     2
 10
2087.739657
 20
519.503331
 11
2091.281749
 21
519.503331
  0
LINE
  8
CSLAYER1
  6
CONTINUOUS
 62
     2
 10
2087.739657
 20
520.149708
 11
2089.346019
 21
520.149708
  0
LINE
  8
CSLAYER1
  6
CONTINUOUS
 62
     2
 10
2089.346019
 20
520.149708
 11
2090.480871
 21
519.503331
  0
LINE
  8
CSLAYER1
  6
CONTINUOUS
 62
     2
 10
2228.681749
 20
544.839455
 11
2228.681749
 21
514.539455
  0
LINE
  8
CSLAYER1
  6
CONTINUOUS
 62
     2
 10
2229.981749
 20
550.839455
 11
2186.962427
 21
550.839455
  0
LINE
  8
CSLAYER1
  6
CONTINUOUS
 62
     2
 10
2229.981749
 20
544.839455
 11
2181.931797
 21
544.839455
  0
LINE
  8
CSLAYER1
  6
CONTINUOUS
 62
     2
 10
2229.981749
 20
550.839455
 11
2229.981749
 21
544.839455
  0
LINE
  8
CSLAYER1
  6
CONTINUOUS
 62
     2
 10
2094.981749
 20
550.839455
 11
2094.981749
 21
544.839455
  0
ARC
  8
CSLAYER1
  6
CONTINUOUS
 62
     2
 10
2230.831749
 20
497.689320
 40
25.650135
 50
41.065538
 51
90.000000
  0
ARC
  8
CSLAYER1
  6
CONTINUOUS
 62
     2
 10
2230.831749
 20
497.689320
 40
28.654497
 50
36.018400
 51
90.999820
  0
ARC
  8
CSLAYER1
  6
CONTINUOUS
 62
     2
 10
2230.831749
 20
497.689320
 40
35.653641
 50
28.203609
 51
90.803532
  0
ARC
  8
CSLAYER1
  6
CONTINUOUS
 62
     2
 10
2230.831749
 20
497.689320
 40
38.650135
 50
25.846761
 51
90.000000
  0
LINE
  8
CSLAYER1
  6
CONTINUOUS
 62
     2
 10
2065.764241
 20
526.039455
 11
2068.281749
 21
526.039455
  0
LINE
  8
CSLAYER1
  6
CONTINUOUS
 62
     2
 10
2229.831749
 20
540.339455
 11
2228.681749
 21
540.339455
  0
LINE
  8
CSLAYER1
  6
CONTINUOUS
 62
     2
 10
2230.831749
 20
539.339455
 11
2230.831749
 21
533.342961
  0
ARC
  8
CSLAYER1
  6
CONTINUOUS
 62
     2
 10
2229.831749
 20
539.339455
 40
1.000000
 50
0.000000
 51
90.000000
  0
LINE
  8
CSLAYER1
  6
CONTINUOUS
 62
     2
 10
2229.831749
 20
519.339455
 11
2228.831749
 21
519.339455
  0
ARC
  8
CSLAYER1
  6
CONTINUOUS
 62
     2
 10
2229.831749
 20
520.339455
 40
1.000000
 50
270.000000
 51
360.000000
  0
LINE
  8
CSLAYER1
  6
CONTINUOUS
 62
     2
 10
2229.731749
 20
536.339455
 11
2228.831749
 21
536.339455
  0
LINE
  8
CSLAYER1
  6
CONTINUOUS
 62
     2
 10
2230.331749
 20
535.739455
 11
2230.331749
 21
523.939455
  0
ARC
  8
CSLAYER1
  6
CONTINUOUS
 62
     2
 10
2229.731749
 20
535.739455
 40
0.600000
 50
0.000000
 51
90.000000
  0
LINE
  8
CSLAYER1
  6
CONTINUOUS
 62
     2
 10
2229.731749
 20
523.339455
 11
2228.831749
 21
523.339455
  0
ARC
  8
CSLAYER1
  6
CONTINUOUS
 62
     2
 10
2229.731749
 20
523.939455
 40
0.600000
 50
270.000000
 51
360.000000
  0
LINE
  8
CSLAYER1
  6
CONTINUOUS
 62
     2
 10
2230.831749
 20
526.343817
 11
2230.831749
 21
520.339455
  0
ARC
  8
CSLAYER1
  6
CENTER
 62
     5
 10
2230.831749
 20
497.689320
 40
32.153641
 50
31.604352
 51
89.153864
  0
LINE
  8
CSLAYER1
  6
CONTINUOUS
 62
     2
 10
2098.292039
 20
550.839455
 11
2094.981749
 21
550.839455
  0
LINE
  8
CSLAYER1
  6
CONTINUOUS
 62
     2
 10
2097.236478
 20
544.839455
 11
2094.981749
 21
544.839455
  0
ARC
  8
CSLAYER1
  6
CONTINUOUS
 62
     2
 10
2065.764241
 20
426.039455
 40
100.000000
 50
90.000000
 51
141.188616
  0
ARC
  8
CSLAYER1
  6
CONTINUOUS
 62
     2
 10
2065.764241
 20
426.039455
 40
107.600000
 50
90.000000
 51
141.188616
  0
ARC
  8
CSLAYER1
  6
CENTER
 62
     5
 10
2065.764241
 20
426.039455
 40
103.800000
 50
90.000000
 51
141.188616
  0
LINE
  8
CSLAYER1
  6
CONTINUOUS
 62
     5
 10
4989.507112
 20
3197.811737
 11
3905.314846
 21
3197.811737
  0
LINE
  8
CSLAYER1
  6
CONTINUOUS
 62
     5
 10
4989.507112
 20
3101.555740
 11
3905.314846
 21
3101.555740
  0
LINE
  8
CSLAYER1
  6
CONTINUOUS
 62
     5
 10
4989.507112
 20
3005.299742
 11
3905.314846
 21
3005.299742
  0
LINE
  8
CSLAYER1
  6
CONTINUOUS
 62
     5
 10
4989.507112
 20
2909.043744
 11
3906.627139
 21
2909.043744
  0
LINE
  8
CSLAYER1
  6
CONTINUOUS
 62
     5
 10
4989.507112
 20
2812.787747
 11
3905.314846
 21
2812.787747
  0
LINE
  8
CSLAYER1
  6
CONTINUOUS
 62
     5
 10
4989.507112
 20
2716.531749
 11
3905.314846
 21
2716.531749
  0
LINE
  8
CSLAYER1
  6
CONTINUOUS
 62
     5
 10
4989.507112
 20
2620.275752
 11
3905.314846
 21
2620.275752
  0
LINE
  8
CSLAYER1
  6
CONTINUOUS
 62
     5
 10
4989.507112
 20
2524.019754
 11
3905.314846
 21
2524.019754
  0
LINE
  8
CSLAYER1
  6
CONTINUOUS
 62
     5
 10
4989.507112
 20
2427.763756
 11
3905.314846
 21
2427.763756
  0
TEXT
  8
CSLAYER1
 62
     5
 10
4199.683422
 20
3317.858967
 40
60.159996
 41
0.857143
  1
仕   様
 50
0.000000
 51
0.000000
  7
EASYDRAW_FONT
 72
     5
 11
4440.323414
 21
3317.858967
  0
TEXT
  8
CSLAYER1
 62
     5
 10
3921.497841
 20
3210.178791
 40
60.159996
 41
0.847059
  1
型    式
 50
0.000000
 51
0.000000
  7
EASYDRAW_FONT
 72
     5
 11
4210.265831
 21
3210.178791
  0
TEXT
  8
CSLAYER1
 62
     5
 10
3918.760536
 20
3025.953693
 40
60.159996
 41
0.847059
  1
テーブル寸法
 50
0.000000
 51
0.000000
  7
EASYDRAW_FONT
 72
     5
 11
4207.528526
 21
3025.953693
  0
TEXT
  8
CSLAYER1
 62
     5
 10
3921.497841
 20
2931.106037
 40
60.159996
 41
0.847059
  1
テーブル高サ
 50
0.000000
 51
0.000000
  7
EASYDRAW_FONT
 72
     5
 11
4210.265831
 21
2931.106037
  0
TEXT
  8
CSLAYER1
 62
     5
 10
3923.673656
 20
2833.522053
 40
60.159996
 41
0.857143
  1
ストローク
 50
0.000000
 51
0.000000
  7
EASYDRAW_FONT
 72
     5
 11
4164.313648
 21
2833.522053
  0
TEXT
  8
CSLAYER1
 62
     5
 10
3922.761547
 20
2735.938557
 40
60.159996
 41
0.857143
  1
全   長
 50
0.000000
 51
0.000000
  7
EASYDRAW_FONT
 72
     5
 11
4163.401539
 21
2735.938557
  0
TEXT
  8
CSLAYER1
 62
     5
 10
3926.177563
 20
2636.899006
 40
60.159996
 41
0.857143
  1
全   巾
 50
0.000000
 51
0.000000
  7
EASYDRAW_FONT
 72
     5
 11
4166.817554
 21
2636.899006
  0
TEXT
  8
CSLAYER1
 62
     5
 10
3923.834301
 20
2540.815022
 40
60.159996
 41
0.857143
  1
全   高
 50
0.000000
 51
0.000000
  7
EASYDRAW_FONT
 72
     5
 11
4164.474293
 21
2540.815022
  0
TEXT
  8
CSLAYER1
 62
     5
 10
3923.834301
 20
2447.076740
 40
60.159996
 41
0.857143
  1
リフト方式
 50
0.000000
 51
0.000000
  7
EASYDRAW_FONT
 72
     5
 11
4164.474293
 21
2447.076740
  0
TEXT
  8
CSLAYER1
 62
     5
 10
4883.424736
 20
3112.170490
 40
60.159996
 41
0.960000
  1
Ｋｇ
 50
0.000000
 51
0.000000
  7
EASYDRAW_FONT
 72
     5
 11
4979.680733
 21
3112.170490
  0
TEXT
  8
CSLAYER1
 62
     5
 10
4331.473289
 20
2448.511311
 40
60.159996
 41
0.827586
  1
電 動 ボールネジ式
 50
0.000000
 51
0.000000
  7
EASYDRAW_FONT
 72
     5
 11
4812.753273
 21
2448.511311
  0
TEXT
  8
CSLAYER1
 62
     5
 10
4879.643486
 20
3015.758869
 40
60.159996
 41
0.960000
  1
mm
 50
0.000000
 51
0.000000
  7
EASYDRAW_FONT
 72
     5
 11
4975.899483
 21
3015.758869
  0
TEXT
  8
CSLAYER1
 62
     5
 10
4879.643486
 20
2925.018147
 40
60.159996
 41
0.960000
  1
mm
 50
0.000000
 51
0.000000
  7
EASYDRAW_FONT
 72
     5
 11
4975.899483
 21
2925.018147
  0
TEXT
  8
CSLAYER1
 62
     5
 10
4873.971611
 20
2828.606525
 40
60.159996
 41
0.960000
  1
mm
 50
0.000000
 51
0.000000
  7
EASYDRAW_FONT
 72
     5
 11
4970.227608
 21
2828.606525
  0
TEXT
  8
CSLAYER1
 62
     5
 10
4873.971611
 20
2726.522053
 40
60.159996
 41
0.960000
  1
mm
 50
0.000000
 51
0.000000
  7
EASYDRAW_FONT
 72
     5
 11
4970.227608
 21
2726.522053
  0
TEXT
  8
CSLAYER1
 62
     5
 10
4870.191826
 20
2635.781330
 40
60.159996
 41
0.960000
  1
mm
 50
0.000000
 51
0.000000
  7
EASYDRAW_FONT
 72
     5
 11
4966.447823
 21
2635.781330
  0
TEXT
  8
CSLAYER1
 62
     5
 10
4870.191826
 20
2539.368244
 40
60.159996
 41
0.960000
  1
mm
 50
0.000000
 51
0.000000
  7
EASYDRAW_FONT
 72
     5
 11
4966.447823
 21
2539.368244
  0
LINE
  8
CSLAYER1
  6
CONTINUOUS
 62
     5
 10
4482.515361
 20
3294.067735
 11
4169.102859
 21
3294.067735
  0
LINE
  8
CSLAYER1
  6
CONTINUOUS
 62
     5
 10
4482.515361
 20
3306.099734
 11
4169.102859
 21
3306.099734
  0
TEXT
  8
CSLAYER1
 62
     5
 10
4643.524902
 20
3118.892090
 40
60.000000
 41
0.975000
  1
５００
 50
0.000000
 51
0.000000
  7
EASYDRAW_FONT
 72
     5
 11
4799.524902
 21
3118.892090
  0
TEXT
  8
CSLAYER1
 62
     5
 10
4268.074707
 20
3023.247559
 40
60.000000
 41
0.918750
  1
１０５０Ｌ×１０５０Ｗ
 50
0.000000
 51
0.000000
  7
EASYDRAW_FONT
 72
     5
 11
4856.074707
 21
3023.247559
  0
TEXT
  8
CSLAYER1
 62
     5
 10
4377.679688
 20
2925.549316
 40
60.000000
 41
0.926087
  1
４００～１６００
 50
0.000000
 51
0.000000
  7
EASYDRAW_FONT
 72
     5
 11
4803.679688
 21
2925.549316
  0
TEXT
  8
CSLAYER1
 62
     5
 10
4600.222168
 20
2829.205078
 40
60.000000
 41
0.954545
  1
１２００
 50
0.000000
 51
0.000000
  7
EASYDRAW_FONT
 72
     5
 11
4810.222168
 21
2829.205078
  0
TEXT
  8
CSLAYER1
 62
     5
 10
4597.010742
 20
2735.001953
 40
60.000000
 41
0.954545
  1
１０５０
 50
0.000000
 51
0.000000
  7
EASYDRAW_FONT
 72
     5
 11
4807.010742
 21
2735.001953
  0
TEXT
  8
CSLAYER1
 62
     5
 10
4596.576172
 20
2635.705566
 40
60.000000
 41
0.954545
  1
１０５０
 50
0.000000
 51
0.000000
  7
EASYDRAW_FONT
 72
     5
 11
4806.576172
 21
2635.705566
  0
TEXT
  8
CSLAYER1
 62
     5
 10
4651.843750
 20
2544.454102
 40
60.000000
 41
0.975000
  1
４００
 50
0.000000
 51
0.000000
  7
EASYDRAW_FONT
 72
     5
 11
4807.843750
 21
2544.454102
  0
TEXT
  8
CSLAYER2
 62
     5
 10
4342.215740
 20
3209.591633
 40
55.851891
 41
0.776521
  1
GLI-500-1010W
 50
0.000000
 51
0.000000
  7
EASYDRAW_FONT
 72
     5
 11
4891.571369
 21
3209.591633
  0
LINE
  8
CSLAYER1
  6
CONTINUOUS
 62
     3
 10
1463.700331
 20
2080.895939
 11
1463.700331
 21
2027.895939
  0
DIMENSION
  8
CSLAYER1
 62
     3
  2
*D0006
 10
3264.783908
 20
3409.104686
 11
3249.783691
 21
2884.104492
 13
3118.281749
 23
2359.104686
 14
3118.281749
 24
3409.104686
 50
90.000000
 70
1
  0
LINE
  8
CSLAYER1
  6
PHANTOM
 62
     5
 10
2068.281749
 20
847.739455
 11
3118.281749
 21
847.739455
  0
LINE
  8
CSLAYER1
  6
PHANTOM
 62
     5
 10
2068.281749
 20
847.739455
 11
2068.281749
 21
794.739455
  0
LINE
  8
CSLAYER1
  6
CONTINUOUS
 62
     5
 10
2085.481749
 20
820.539455
 11
2119.481749
 21
820.539455
  0
LINE
  8
CSLAYER1
  6
PHANTOM
 62
     5
 10
2068.281749
 20
794.739455
 11
3118.281749
 21
794.739455
  0
LINE
  8
CSLAYER1
  6
CONTINUOUS
 62
     5
 10
2102.481749
 20
837.539455
 11
2102.481749
 21
803.539455
  0
LINE
  8
CSLAYER1
  6
PHANTOM
 62
     5
 10
3118.281749
 20
847.739455
 11
3118.281749
 21
794.739455
  0
LINE
  8
CSLAYER1
  6
CONTINUOUS
 62
     5
 10
2094.685853
 20
1452.452724
 11
2170.029582
 21
1452.452724
  0
LINE
  8
CSLAYER1
  6
CONTINUOUS
 62
     5
 10
2134.192747
 20
1498.477769
 11
2134.192747
 21
1452.452724
  0
TEXT
  8
CSLAYER1
 62
     4
 10
3919.927734
 20
2263.805176
 40
60.000000
 41
1.036364
  1
操作方式
 50
0.000000
 51
0.000000
  7
EASYDRAW_FONT
 72
     5
 11
4147.927734
 21
2263.805176
  0
TEXT
  8
CSLAYER1
 62
     4
 10
4342.389648
 20
2255.865234
 40
60.000000
 41
1.020000
  1
フットスイッチ
 50
0.000000
 51
0.000000
  7
EASYDRAW_FONT
 72
     5
 11
4750.389648
 21
2255.865234
  0
LINE
  8
CSLAYER1
  6
CONTINUOUS
 62
     5
 10
4986.623622
 20
2245.765752
 11
3905.314846
 21
2245.765752
  0
LINE
  8
CSLAYER1
  6
CONTINUOUS
 62
     5
 10
4986.623622
 20
2149.765755
 11
3905.314846
 21
2149.765755
  0
TEXT
  8
CSLAYER1
 62
     4
 10
3922.074707
 20
2164.696289
 40
60.000000
 41
0.872727
  1
モーター
 50
0.000000
 51
0.000000
  7
EASYDRAW_FONT
 72
     5
 11
4114.074707
 21
2164.696289
  0
LINE
  8
CSLAYER1
  6
CONTINUOUS
 62
     5
 10
4986.623622
 20
2053.765757
 11
3905.314846
 21
2053.765757
  0
LINE
  8
CSLAYER1
  6
CONTINUOUS
 62
     5
 10
4986.623622
 20
1861.765762
 11
3902.107093
 21
1861.765762
  0
LINE
  8
CSLAYER1
  6
CONTINUOUS
 62
     5
 10
4986.623622
 20
1765.765764
 11
3905.314846
 21
1765.765764
  0
LINE
  8
CSLAYER1
  6
CONTINUOUS
 62
     5
 10
4986.623622
 20
1669.765767
 11
3905.314846
 21
1669.765767
  0
TEXT
  8
CSLAYER1
 62
     4
 10
3925.946777
 20
1686.448730
 40
60.000000
 41
0.857143
  1
自  　重
 50
0.000000
 51
0.000000
  7
EASYDRAW_FONT
 72
     5
 11
4165.946777
 21
1686.448730
  0
TEXT
  8
CSLAYER1
 62
     4
 10
3930.370605
 20
1590.341797
 40
60.000000
 41
0.847059
  1
塗　装　色 
 50
0.000000
 51
0.000000
  7
EASYDRAW_FONT
 72
     5
 11
4218.370605
 21
1590.341797
  0
TEXT
  8
CSLAYER1
 62
     4
 10
4268.733398
 20
2166.071289
 40
60.000000
 41
0.819512
  1
３相ＡＣ２００Ｖ、0.4ＫＷ
 50
0.000000
 51
0.000000
  7
EASYDRAW_FONT
 72
     5
 11
4940.733398
 21
2166.071289
  0
TEXT
  8
CSLAYER1
 62
     4
 10
4465.208496
 20
2070.306152
 40
60.000000
 41
0.840000
  1
長サ  ４ ｍ
 50
0.000000
 51
0.000000
  7
EASYDRAW_FONT
 72
     5
 11
4801.208496
 21
2070.306152
  0
TEXT
  8
CSLAYER1
 62
     3
 10
4634.167969
 20
1689.297363
 40
60.000000
 41
0.847059
  1
２０２　Ｋｇ
 50
0.000000
 51
0.000000
  7
EASYDRAW_FONT
 72
     5
 11
4922.167969
 21
1689.297363
  0
LINE
  8
CSLAYER1
  6
CONTINUOUS
 62
     5
 10
4986.623622
 20
1957.765760
 11
3905.314846
 21
1957.765760
  0
TEXT
  8
CSLAYER1
 62
     4
 10
3923.449219
 20
2069.720215
 40
60.000000
 41
0.942857
  1
電源コード
 50
0.000000
 51
0.000000
  7
EASYDRAW_FONT
 72
     5
 11
4187.449219
 21
2069.720215
  0
TEXT
  8
CSLAYER1
 62
     4
 10
3924.091589
 20
1966.037674
 40
71.595306
 41
0.593339
  1
昇降時間 ３６秒（50HZ） ３０秒(60HZ)
 50
0.000000
 51
0.000000
  7
EASYDRAW_FONT
 72
     5
 11
4929.459192
 21
1966.037674
  0
TEXT
  8
CSLAYER1
 62
     4
 10
3926.042969
 20
1777.873535
 40
60.000000
 41
0.912766
  1
上昇端、下降端リミットスイッチ付
 50
0.000000
 51
0.000000
  7
EASYDRAW_FONT
 72
     5
 11
4784.042969
 21
1777.873535
  0
TEXT
  8
CSLAYER1
 62
     4
 10
3928.812852
 20
1874.868484
 40
68.819672
 41
0.605080
  1
最大使用頻度８０回／時間・最大起動頻度１０回／分
 50
0.000000
 51
0.000000
  7
EASYDRAW_FONT
 72
     5
 11
4914.325819
 21
1874.868484
  0
LINE
  8
CSLAYER1
  6
CONTINUOUS
 62
     5
 10
4986.623622
 20
2331.763759
 11
3905.314846
 21
2331.763759
  0
TEXT
  8
CSLAYER1
 62
     4
 10
4220.056641
 20
2349.364746
 40
60.000000
 41
0.825000
  1
マグネットスイッチ制御
 50
0.000000
 51
0.000000
  7
EASYDRAW_FONT
 72
     5
 11
4748.056641
 21
2349.364746
  0
TEXT
  8
CSLAYER1
 62
     4
 10
3925.476563
 20
2346.380859
 40
60.000000
 41
0.872727
  1
制御方式
 50
0.000000
 51
0.000000
  7
EASYDRAW_FONT
 72
     5
 11
4117.476563
 21
2346.380859
  0
LINE
  8
CSLAYER1
  6
CONTINUOUS
 62
     3
 10
1819.157833
 20
2845.604686
 11
1608.620088
 21
2845.604686
  0
LINE
  8
CSLAYER1
  6
CONTINUOUS
 62
     3
 10
1819.690470
 20
2852.604686
 11
1608.620088
 21
2852.604686
  0
ARC
  8
CSLAYER1
  6
CONTINUOUS
 62
     3
 10
1812.853073
 20
2806.104686
 40
40.000000
 50
-243.817766
 51
80.931278
  0
ARC
  8
CSLAYER1
  6
CONTINUOUS
 62
     3
 10
1812.853073
 20
2806.104686
 40
47.000000
 50
-229.860785
 51
81.635125
  0
LINE
  8
CSLAYER1
  6
CONTINUOUS
 62
     3
 10
2068.281749
 20
2845.604686
 11
1842.844689
 21
2845.604686
  0
LINE
  8
CSLAYER1
  6
CONTINUOUS
 62
     3
 10
2068.281749
 20
2852.604686
 11
1832.137798
 21
2852.604686
  0
INSERT
  8
CSLAYER1
  2
BLKF0004
 10
0.0
 20
0.0
 30
0.0
  0
LINE
  8
CSLAYER1
  6
CONTINUOUS
 62
     5
 10
4986.623622
 20
1573.765769
 11
3905.314846
 21
1573.765769
  0
TEXT
  8
CSLAYER1
 62
     4
 10
4393.268066
 20
1589.772583
 40
60.000000
 41
0.926087
  1
　１０Ｒ４／１３
 50
0.000000
 51
0.000000
  7
EASYDRAW_FONT
 72
     5
 11
4819.268066
 21
1589.772583
  0
TEXT
  8
CSLAYER1
 62
     5
 10
3919.927734
 20
3119.595215
 40
60.000000
 41
1.036364
  1
積載荷重
 50
0.000000
 51
0.000000
  7
EASYDRAW_FONT
 72
     5
 11
4147.927734
 21
3119.595215
  0
TEXT
  8
CSLAYER1
 62
     5
 10
1025.661865
 20
2409.897705
 40
60.000000
 41
1.020000
  1
コード長サ２ｍ
 50
0.000000
 51
0.000000
  7
EASYDRAW_FONT
 72
     5
 11
1433.661865
 21
2409.897705
  0
ENDSEC
  0
EOF
