  0
SECTION
  2
HEADER
  9
$ACADVER
  1
AC1006
  9
$INSBASE
 10
-1153.916938
 20
2482.100977
 30
0.0
  9
$EXTMIN
 10
-1153.916938
 20
2482.100977
  9
$EXTMAX
 10
2486.083062
 20
5052.100977
  9
$LIMMIN
 10
-1153.916938
 20
2482.100977
  9
$LIMMAX
 10
2486.083062
 20
5052.100977
  9
$VIEWCTR
 10
666.083062
 20
3767.100977
  9
$VIEWSIZE
 40
2570.000000
  9
$SNAPMODE
 70
     0
  9
$SNAPUNIT
 10
1.0
 20
1.0
  9
$SNAPBASE
 10
0.0
 20
0.0
  9
$SNAPANG
 50
0.0
  9
$SNAPSTYLE
 70
     0
  9
$SNAPISOPAIR
 70
     0
  9
$GRIDMODE
 70
     0
  9
$GRIDUNIT
 10
0.0
 20
0.0
  9
$ORTHOMODE
 70
     0
  9
$REGENMODE
 70
     1
  9
$FILLMODE
 70
     1
  9
$QTEXTMODE
 70
     0
  9
$DRAGMODE
 70
     2
  9
$LTSCALE
 40
15.000000
  9
$OSMODE
 70
     0
  9
$ATTMODE
 70
     1
  9
$TEXTSIZE
 40
0.2
  9
$TRACEWID
 40
0.05
  9
$TEXTSTYLE
  7
STANDARD
  9
$CLAYER
  8
CSLAYER1
  9
$CELTYPE
  6
BYLAYER
  9
$CECOLOR
 62
   256
  9
$DIMSCALE
 40
1.0
  9
$DIMASZ
 40
0.18
  9
$DIMEXO
 40
0.0625
  9
$DIMDLI
 40
0.38
  9
$DIMRND
 40
0.0
  9
$DIMDLE
 40
0.0
  9
$DIMEXE
 40
0.18
  9
$DIMTP
 40
0.0
  9
$DIMTM
 40
0.0
  9
$DIMTXT
 40
0.18
  9
$DIMCEN
 40
0.09
  9
$DIMTSZ
 40
0.0
  9
$DIMTOL
 70
     0
  9
$DIMLIM
 70
     0
  9
$DIMTIH
 70
     1
  9
$DIMTOH
 70
     1
  9
$DIMSE1
 70
     0
  9
$DIMSE2
 70
     0
  9
$DIMTAD
 70
     0
  9
$DIMZIN
 70
     0
  9
$DIMBLK
  1

  9
$LUNITS
 70
     2
  9
$LUPREC
 70
     4
  9
$AXISMODE
 70
     0
  9
$AXISUNIT
 10
0.0
 20
0.0
  9
$SKETCHINC
 40
0.1
  9
$FILLETRAD
 40
0.0
  9
$AUNITS
 70
     0
  9
$AUPREC
 70
     0
  9
$MENU
  1
ACAD
  9
$ELEVATION
 40
0.0
  9
$THICKNESS
 40
0.0
  9
$VIEWDIR
 10
0.0
 20
0.0
 30
1.0
  9
$LIMCHECK
 70
     0
  9
$BLIPMODE
 70
     1
  9
$CHAMFERA
 40
0.0
  9
$CHAMFERB
 40
0.0
  9
$FASTZOOM
 70
     1
  9
$SKPOLY
 70
     0
  9
$TDCREATE
 40
2457497.000000
  9
$TDUPDATE
 40
2457497.000000
  9
$TDINDWG
 40
0.0
  9
$TDUSRTIMER
 40
0.0
  9
$USRTIMER
 70
     1
  9
$ANGBASE
 50
0.0
  9
$ANGDIR
 70
     0
  9
$PDMODE
 70
     0
  9
$PDSIZE
 40
0.0
  9
$PLINEWID
 40
0.0
  9
$COORDS
 70
     0
  9
$USERI1
 70
     0
  9
$USERI2
 70
     0
  9
$USERI3
 70
     0
  9
$USERI4
 70
     0
  9
$USERI5
 70
     0
  9
$USERR1
 40
0.0
  9
$USERR2
 40
0.0
  9
$USERR3
 40
0.0
  9
$USERR4
 40
0.0
  9
$USERR5
 40
0.0
  0
ENDSEC
  0
SECTION
  2
TABLES
  0
TABLE
  2
LTYPE
 70
     9
  0
LTYPE
  2
CONTINUOUS
 70
    64
  3
Solid line
 72
    65
 73
     0
 40
0.0
  0
LTYPE
  2
DASHED
 70
    64
  3
__ __ __ __ __ __ __ __ __ __ __ __ __ __ __
 72
    65
 73
     2
 40
0.75
 49
0.5
 49
-0.25
  0
LTYPE
  2
HIDDEN
 70
    64
  3
_ _ _ _ _ _ _ _ _ _ _ _ _ _ _ _ _ _ _ _ _ _ _
 72
    65
 73
     2
 40
0.375
 49
0.25
 49
-0.125
  0
LTYPE
  2
DOT
 70
    64
  3
...............................................
 72
    65
 73
     2
 40
0.25
 49
0.0
 49
-0.25
  0
LTYPE
  2
DASHDOT
 70
    64
  3
__ . __ . __ . __ . __ . __ . __ . __ . __ . __
 72
    65
 73
     4
 40
1.0
 49
0.5
 49
-0.25
 49
0.0
 49
-0.25
  0
LTYPE
  2
DIVIDE
 70
    64
  3
__ . . __ . . __ . . __ . . __ . . __ . . __
 72
    65
 73
     6
 40
1.25
 49
0.5
 49
-0.25
 49
0.0
 49
-0.25
 49
0.0
 49
-0.25
  0
LTYPE
  2
CENTER
 70
    64
  3
____ _ ____ _ ____ _ ____ _ ____ _ ____ _ ____ 
 72
    65
 73
     4
 40
2.0
 49
1.25
 49
-0.25
 49
0.25
 49
-0.25
  0
LTYPE
  2
PHANTOM
 70
    64
  3
______  __  __  ______  __  __  ______  __  __ 
 72
    65
 73
     6
 40
2.5
 49
1.25
 49
-0.25
 49
0.25
 49
-0.25
 49
0.25
 49
-0.25
  0
LTYPE
  2
BORDER
 70
    64
  3
__ __ . __ __ . __ __ . __ __ . __ __ . __ __ .
 72
    65
 73
     6
 40
1.75
 49
0.5
 49
-0.25
 49
0.5
 49
-0.25
 49
0.0
 49
-0.25
  0
ENDTAB
  0
TABLE
  2
LAYER
 70
    16
  0
LAYER
  2
CSLAYER1
 70
    64
 62
     7
  6
CONTINUOUS
  0
LAYER
  2
CSLAYER2
 70
    64
 62
     7
  6
CONTINUOUS
  0
LAYER
  2
CSLAYER3
 70
    64
 62
     7
  6
CONTINUOUS
  0
LAYER
  2
CSLAYER4
 70
    64
 62
     7
  6
CONTINUOUS
  0
LAYER
  2
CSLAYER5
 70
    64
 62
     7
  6
CONTINUOUS
  0
LAYER
  2
CSLAYER6
 70
    64
 62
     7
  6
CONTINUOUS
  0
LAYER
  2
CSLAYER7
 70
    64
 62
     7
  6
CONTINUOUS
  0
LAYER
  2
CSLAYER8
 70
    64
 62
     7
  6
CONTINUOUS
  0
LAYER
  2
CSLAYER9
 70
    64
 62
     7
  6
CONTINUOUS
  0
LAYER
  2
CSLAYER10
 70
    64
 62
     7
  6
CONTINUOUS
  0
LAYER
  2
CSLAYER11
 70
    64
 62
     7
  6
CONTINUOUS
  0
LAYER
  2
CSLAYER12
 70
    64
 62
     7
  6
CONTINUOUS
  0
LAYER
  2
CSLAYER13
 70
    64
 62
     7
  6
CONTINUOUS
  0
LAYER
  2
CSLAYER14
 70
    64
 62
     7
  6
CONTINUOUS
  0
LAYER
  2
CSLAYER15
 70
    64
 62
     7
  6
CONTINUOUS
  0
LAYER
  2
CSLAYER16
 70
    64
 62
     7
  6
CONTINUOUS
  0
ENDTAB
  0
TABLE
  2
STYLE
 70
     1
  0
STYLE
  2
EASYDRAW_FONT
 70
     0
 40
1.0
 41
1.0
 50
0.0
 71
     0
 42
1.0
  3
monotxt
  4
bigfont
  0
ENDTAB
  0
TABLE
  2
VIEW
 70
     0
  0
ENDTAB
  0
ENDSEC
  0
SECTION
  2
BLOCKS
  0
BLOCK
  8
CSLAYER1
  2
*D0000
 70
    65
 10
0.0
 20
0.0
 30
0.0
  0
TEXT
  8
CSLAYER1
 62
     7
 10
2427.882568
 20
291.290863
 40
40.000000
 41
0.843750
  1
155
 50
90.000000
 51
0.000000
  7
EASYDRAW_FONT
 72
     5
 11
2427.882568
 21
381.290863
  0
LINE
  8
CSLAYER1
  6
CONTINUOUS
 62
     5
 10
2283.954803
 20
415.513373
 11
2384.376049
 21
415.513373
  0
LINE
  8
CSLAYER1
  6
CONTINUOUS
 62
     5
 10
2374.376049
 20
260.513373
 11
2374.376049
 21
415.513373
  0
LINE
  8
CSLAYER1
  6
CONTINUOUS
 62
     5
 10
2374.376049
 20
260.513373
 11
2366.611478
 21
289.491148
  0
LINE
  8
CSLAYER1
  6
CONTINUOUS
 62
     5
 10
2374.376049
 20
260.513373
 11
2382.140621
 21
289.491148
  0
LINE
  8
CSLAYER1
  6
CONTINUOUS
 62
     5
 10
2374.376049
 20
415.513373
 11
2366.611478
 21
386.535598
  0
LINE
  8
CSLAYER1
  6
CONTINUOUS
 62
     5
 10
2374.376049
 20
415.513373
 11
2382.140621
 21
386.535598
  0
ENDBLK
  8
0
  0
BLOCK
  8
CSLAYER1
  2
*D0001
 70
    65
 10
0.0
 20
0.0
 30
0.0
  0
TEXT
  8
CSLAYER1
 62
     7
 10
2364.375977
 20
813.348938
 40
40.000000
 41
0.843750
  1
860
 50
90.000000
 51
0.000000
  7
EASYDRAW_FONT
 72
     5
 11
2364.375977
 21
903.348938
  0
LINE
  8
CSLAYER1
  6
CONTINUOUS
 62
     5
 10
2374.376049
 20
415.513373
 11
2374.376049
 21
1301.184602
  0
LINE
  8
CSLAYER1
  6
CONTINUOUS
 62
     5
 10
2374.376049
 20
415.513373
 11
2366.611478
 21
444.491148
  0
LINE
  8
CSLAYER1
  6
CONTINUOUS
 62
     5
 10
2374.376049
 20
415.513373
 11
2382.140621
 21
444.491148
  0
LINE
  8
CSLAYER1
  6
CONTINUOUS
 62
     5
 10
2374.376049
 20
1301.184602
 11
2366.611478
 21
1272.206827
  0
LINE
  8
CSLAYER1
  6
CONTINUOUS
 62
     5
 10
2374.376049
 20
1301.184602
 11
2382.140621
 21
1272.206827
  0
ENDBLK
  8
0
  0
BLOCK
  8
CSLAYER1
  2
*D0002
 70
    65
 10
0.0
 20
0.0
 30
0.0
  0
TEXT
  8
CSLAYER1
 62
     7
 10
2463.954834
 20
720.848938
 40
40.000000
 41
0.818182
  1
1015
 50
90.000000
 51
0.000000
  7
EASYDRAW_FONT
 72
     5
 11
2463.954834
 21
840.848938
  0
LINE
  8
CSLAYER1
  6
CONTINUOUS
 62
     5
 10
2280.954803
 20
1301.184602
 11
2483.954803
 21
1301.184602
  0
LINE
  8
CSLAYER1
  6
CONTINUOUS
 62
     5
 10
2473.954803
 20
260.513373
 11
2473.954803
 21
1301.184602
  0
LINE
  8
CSLAYER1
  6
CONTINUOUS
 62
     5
 10
2473.954803
 20
260.513373
 11
2466.190232
 21
289.491148
  0
LINE
  8
CSLAYER1
  6
CONTINUOUS
 62
     5
 10
2473.954803
 20
260.513373
 11
2481.719375
 21
289.491148
  0
LINE
  8
CSLAYER1
  6
CONTINUOUS
 62
     5
 10
2473.954803
 20
1301.184602
 11
2466.190232
 21
1272.206827
  0
LINE
  8
CSLAYER1
  6
CONTINUOUS
 62
     5
 10
2473.954803
 20
1301.184602
 11
2481.719375
 21
1272.206827
  0
ENDBLK
  8
0
  0
BLOCK
  8
CSLAYER1
  2
*D0003
 70
    65
 10
0.0
 20
0.0
 30
0.0
  0
TEXT
  8
CSLAYER1
 62
     7
 10
949.492126
 20
1807.540649
 40
40.000000
 41
0.843750
  1
800
 50
90.000000
 51
0.000000
  7
EASYDRAW_FONT
 72
     5
 11
949.492126
 21
1897.540649
  0
LINE
  8
CSLAYER1
  6
CONTINUOUS
 62
     5
 10
1063.954803
 20
1452.540750
 11
949.492120
 21
1452.540750
  0
LINE
  8
CSLAYER1
  6
CONTINUOUS
 62
     5
 10
1063.954803
 20
2252.540750
 11
949.492120
 21
2252.540750
  0
LINE
  8
CSLAYER1
  6
CONTINUOUS
 62
     5
 10
959.492120
 20
1452.540750
 11
959.492120
 21
2252.540750
  0
LINE
  8
CSLAYER1
  6
CONTINUOUS
 62
     5
 10
959.492120
 20
1452.540750
 11
951.727548
 21
1481.518524
  0
LINE
  8
CSLAYER1
  6
CONTINUOUS
 62
     5
 10
959.492120
 20
1452.540750
 11
967.256691
 21
1481.518524
  0
LINE
  8
CSLAYER1
  6
CONTINUOUS
 62
     5
 10
959.492120
 20
2252.540750
 11
951.727548
 21
2223.562975
  0
LINE
  8
CSLAYER1
  6
CONTINUOUS
 62
     5
 10
959.492120
 20
2252.540750
 11
967.256691
 21
2223.562975
  0
ENDBLK
  8
0
  0
BLOCK
  8
CSLAYER1
  2
*D0004
 70
    65
 10
0.0
 20
0.0
 30
0.0
  0
TEXT
  8
CSLAYER1
 62
     3
 10
509.543396
 20
195.513382
 40
40.000000
 41
0.843750
  1
700
 50
0.000000
 51
0.000000
  7
EASYDRAW_FONT
 72
     5
 11
599.543396
 21
195.513382
  0
LINE
  8
CSLAYER1
  6
CONTINUOUS
 62
     5
 10
204.543429
 20
250.513373
 11
204.543429
 21
175.513373
  0
LINE
  8
CSLAYER1
  6
CONTINUOUS
 62
     5
 10
904.543429
 20
250.513373
 11
904.543429
 21
175.513373
  0
LINE
  8
CSLAYER1
  6
CONTINUOUS
 62
     5
 10
204.543429
 20
185.513373
 11
904.543429
 21
185.513373
  0
LINE
  8
CSLAYER1
  6
CONTINUOUS
 62
     5
 10
204.543429
 20
185.513373
 11
233.521204
 21
193.277944
  0
LINE
  8
CSLAYER1
  6
CONTINUOUS
 62
     5
 10
204.543429
 20
185.513373
 11
233.521204
 21
177.748802
  0
LINE
  8
CSLAYER1
  6
CONTINUOUS
 62
     5
 10
904.543429
 20
185.513373
 11
875.565654
 21
193.277944
  0
LINE
  8
CSLAYER1
  6
CONTINUOUS
 62
     5
 10
904.543429
 20
185.513373
 11
875.565654
 21
177.748802
  0
ENDBLK
  8
0
  0
BLOCK
  8
CSLAYER1
  2
*D0005
 70
    65
 10
0.0
 20
0.0
 30
0.0
  0
TEXT
  8
CSLAYER1
 62
     3
 10
1613.954834
 20
195.513382
 40
40.000000
 41
0.818182
  1
1200
 50
0.000000
 51
0.000000
  7
EASYDRAW_FONT
 72
     5
 11
1733.954834
 21
195.513382
  0
LINE
  8
CSLAYER1
  6
CONTINUOUS
 62
     5
 10
1073.954803
 20
250.513373
 11
1073.954803
 21
175.513373
  0
LINE
  8
CSLAYER1
  6
CONTINUOUS
 62
     5
 10
2273.954803
 20
250.513373
 11
2273.954803
 21
175.513373
  0
LINE
  8
CSLAYER1
  6
CONTINUOUS
 62
     5
 10
1073.954803
 20
185.513373
 11
2273.954803
 21
185.513373
  0
LINE
  8
CSLAYER1
  6
CONTINUOUS
 62
     5
 10
1073.954803
 20
185.513373
 11
1102.932578
 21
193.277944
  0
LINE
  8
CSLAYER1
  6
CONTINUOUS
 62
     5
 10
1073.954803
 20
185.513373
 11
1102.932578
 21
177.748802
  0
LINE
  8
CSLAYER1
  6
CONTINUOUS
 62
     5
 10
2273.954803
 20
185.513373
 11
2244.977028
 21
193.277944
  0
LINE
  8
CSLAYER1
  6
CONTINUOUS
 62
     5
 10
2273.954803
 20
185.513373
 11
2244.977028
 21
177.748802
  0
ENDBLK
  8
0
  0
BLOCK
  8
CSLAYER1
  2
*D0006
 70
    65
 10
0.0
 20
0.0
 30
0.0
  0
TEXT
  8
CSLAYER1
 62
     3
 10
1613.954834
 20
1386.184692
 40
40.000000
 41
0.818182
  1
1200
 50
0.000000
 51
0.000000
  7
EASYDRAW_FONT
 72
     5
 11
1733.954834
 21
1386.184692
  0
LINE
  8
CSLAYER1
  6
CONTINUOUS
 62
     5
 10
1073.954803
 20
1308.184602
 11
1073.954803
 21
1386.184602
  0
LINE
  8
CSLAYER1
  6
CONTINUOUS
 62
     5
 10
2273.954803
 20
1308.184602
 11
2273.954803
 21
1386.184602
  0
LINE
  8
CSLAYER1
  6
CONTINUOUS
 62
     5
 10
1073.954803
 20
1376.184602
 11
2273.954803
 21
1376.184602
  0
LINE
  8
CSLAYER1
  6
CONTINUOUS
 62
     5
 10
1073.954803
 20
1376.184602
 11
1102.932578
 21
1383.949174
  0
LINE
  8
CSLAYER1
  6
CONTINUOUS
 62
     5
 10
1073.954803
 20
1376.184602
 11
1102.932578
 21
1368.420031
  0
LINE
  8
CSLAYER1
  6
CONTINUOUS
 62
     5
 10
2273.954803
 20
1376.184602
 11
2244.977028
 21
1383.949174
  0
LINE
  8
CSLAYER1
  6
CONTINUOUS
 62
     5
 10
2273.954803
 20
1376.184602
 11
2244.977028
 21
1368.420031
  0
ENDBLK
  8
0
  0
BLOCK
  8
CSLAYER1
  2
BLKF0000
 70
   64
 10
0.0
 20
0.0
 30
0.0
  0
ARC
  8
CSLAYER1
  6
CONTINUOUS
 62
     5
 10
2781.909508
 20
79.335220
 40
3.549225
 50
6.429109
 51
73.182034
  0
ARC
  8
CSLAYER1
  6
CONTINUOUS
 62
     5
 10
2778.448538
 20
78.176827
 40
6.907754
 50
310.517970
 51
330.092764
  0
ARC
  8
CSLAYER1
  6
CONTINUOUS
 62
     5
 10
2778.387888
 20
78.542345
 40
7.148321
 50
-32.205059
 51
9.585194
  0
ARC
  8
CSLAYER1
  6
CONTINUOUS
 62
     5
 10
2781.680616
 20
75.781346
 40
4.767514
 50
180.000000
 51
218.514150
  0
ARC
  8
CSLAYER1
  6
CONTINUOUS
 62
     5
 10
2780.393895
 20
75.104206
 40
3.348282
 50
222.781148
 51
319.406906
  0
ARC
  8
CSLAYER1
  6
CONTINUOUS
 62
     5
 10
2783.459537
 20
76.194099
 40
6.559434
 50
94.574282
 51
183.607718
  0
LINE
  8
CSLAYER1
  6
CONTINUOUS
 62
     5
 10
2796.903443
 20
71.077266
 11
2796.046407
 21
68.038683
  0
LINE
  8
CSLAYER1
  6
CONTINUOUS
 62
     5
 10
2798.695428
 20
90.944924
 11
2796.591794
 21
93.671857
  0
LINE
  8
CSLAYER1
  6
CONTINUOUS
 62
     5
 10
2796.591794
 20
93.671857
 11
2789.838440
 21
97.429769
  0
LINE
  8
CSLAYER1
  6
CONTINUOUS
 62
     5
 10
2789.838440
 20
97.429769
 11
2782.936412
 21
98.232640
  0
LINE
  8
CSLAYER1
  6
CONTINUOUS
 62
     5
 10
2764.647187
 20
84.853966
 11
2766.793881
 21
89.818197
  0
LINE
  8
CSLAYER1
  6
CONTINUOUS
 62
     5
 10
2766.756884
 20
89.732640
 11
2768.940576
 21
92.367396
  0
LINE
  8
CSLAYER1
  6
CONTINUOUS
 62
     5
 10
2768.940576
 20
92.367396
 11
2772.244998
 21
94.732640
  0
LINE
  8
CSLAYER1
  6
CONTINUOUS
 62
     5
 10
2782.936412
 20
98.232640
 11
2781.418237
 21
97.465795
  0
LINE
  8
CSLAYER1
  6
CONTINUOUS
 62
     5
 10
2781.418237
 20
97.465795
 11
2777.929858
 21
97.465795
  0
LINE
  8
CSLAYER1
  6
CONTINUOUS
 62
     5
 10
2777.929858
 20
97.465795
 11
2774.374396
 21
95.520354
  0
LINE
  8
CSLAYER1
  6
CONTINUOUS
 62
     5
 10
2774.374396
 20
95.520354
 11
2772.244998
 21
94.732640
  0
LINE
  8
CSLAYER1
  6
CONTINUOUS
 62
     5
 10
2764.647187
 20
84.853966
 11
2763.129640
 21
77.305363
  0
LINE
  8
CSLAYER1
  6
CONTINUOUS
 62
     5
 10
2763.129640
 20
77.305363
 11
2762.936412
 21
74.732640
  0
LINE
  8
CSLAYER1
  6
CONTINUOUS
 62
     5
 10
2765.645795
 20
66.892857
 11
2762.936412
 21
72.988969
  0
LINE
  8
CSLAYER1
  6
CONTINUOUS
 62
     5
 10
2762.936412
 20
72.988969
 11
2762.936412
 21
74.732640
  0
LINE
  8
CSLAYER1
  6
CONTINUOUS
 62
     5
 10
2796.046407
 20
68.038683
 11
2794.360620
 21
65.035677
  0
LINE
  8
CSLAYER1
  6
CONTINUOUS
 62
     5
 10
2794.360620
 20
65.035677
 11
2792.936412
 21
63.716966
  0
ARC
  8
CSLAYER1
  6
CONTINUOUS
 62
     5
 10
2780.744468
 20
75.269400
 40
17.266626
 50
208.054813
 51
260.640470
  0
ARC
  8
CSLAYER1
  6
CONTINUOUS
 62
     5
 10
2775.551072
 20
88.011870
 40
29.874611
 50
274.579659
 51
305.587364
  0
ARC
  8
CSLAYER1
  6
CONTINUOUS
 62
     5
 10
2786.523421
 20
82.028147
 40
15.088627
 50
313.467013
 51
331.085078
  0
LINE
  8
CSLAYER1
  6
CONTINUOUS
 62
     5
 10
2801.314754
 20
78.246061
 11
2801.612048
 21
82.028147
  0
LINE
  8
CSLAYER1
  6
CONTINUOUS
 62
     5
 10
2801.612048
 20
82.028147
 11
2800.320051
 21
88.137130
  0
LINE
  8
CSLAYER1
  6
CONTINUOUS
 62
     5
 10
2801.314754
 20
78.246061
 11
2799.731079
 21
74.732640
  0
ARC
  8
CSLAYER1
  6
CONTINUOUS
 62
     5
 10
2786.523421
 20
82.028147
 40
15.088627
 50
23.883193
 51
36.225170
  0
LINE
  8
CSLAYER1
  6
CONTINUOUS
 62
     5
 10
2746.936412
 20
109.732640
 11
2747.936412
 21
110.825284
  0
LINE
  8
CSLAYER1
  6
CONTINUOUS
 62
     5
 10
2746.936412
 20
109.732640
 11
2748.513370
 21
108.287607
  0
LINE
  8
CSLAYER1
  6
CONTINUOUS
 62
     5
 10
2750.052583
 20
106.178315
 11
2750.078851
 21
104.010196
  0
LINE
  8
CSLAYER1
  6
CONTINUOUS
 62
     5
 10
2750.078851
 20
104.010196
 11
2750.286249
 21
103.249737
  0
LINE
  8
CSLAYER1
  6
CONTINUOUS
 62
     5
 10
2750.286249
 20
103.249737
 11
2750.873877
 21
102.523844
  0
LINE
  8
CSLAYER1
  6
CONTINUOUS
 62
     5
 10
2750.873877
 20
102.523844
 11
2751.461504
 21
102.592977
  0
LINE
  8
CSLAYER1
  6
CONTINUOUS
 62
     5
 10
2751.461504
 20
102.592977
 11
2752.083698
 21
102.765808
  0
LINE
  8
CSLAYER1
  6
CONTINUOUS
 62
     5
 10
2752.083698
 20
102.765808
 11
2752.498494
 21
102.592977
  0
LINE
  8
CSLAYER1
  6
CONTINUOUS
 62
     5
 10
2752.498494
 20
102.592977
 11
2753.397219
 21
102.143614
  0
LINE
  8
CSLAYER1
  6
CONTINUOUS
 62
     5
 10
2753.397219
 20
102.143614
 11
2754.173270
 21
101.732640
  0
LINE
  8
CSLAYER1
  6
CONTINUOUS
 62
     5
 10
2754.173270
 20
101.732640
 11
2754.676173
 21
101.763385
  0
LINE
  8
CSLAYER1
  6
CONTINUOUS
 62
     5
 10
2754.676173
 20
101.763385
 11
2757.484045
 21
103.209864
  0
LINE
  8
CSLAYER1
  6
CONTINUOUS
 62
     5
 10
2747.936412
 20
110.825284
 11
2748.269264
 21
112.298991
  0
LINE
  8
CSLAYER1
  6
CONTINUOUS
 62
     5
 10
2748.269264
 20
112.298991
 11
2749.722669
 21
112.449344
  0
LINE
  8
CSLAYER1
  6
CONTINUOUS
 62
     5
 10
2751.216428
 20
115.217802
 11
2752.970601
 21
115.374892
  0
LINE
  8
CSLAYER1
  6
CONTINUOUS
 62
     5
 10
2752.970601
 20
115.374892
 11
2756.505128
 21
116.212706
  0
LINE
  8
CSLAYER1
  6
CONTINUOUS
 62
     5
 10
2756.505128
 20
116.212706
 11
2757.936412
 21
116.544345
  0
LINE
  8
CSLAYER1
  6
CONTINUOUS
 62
     5
 10
2751.216428
 20
115.217802
 11
2749.283537
 21
115.376670
  0
LINE
  8
CSLAYER1
  6
CONTINUOUS
 62
     5
 10
2748.547414
 20
114.507983
 11
2748.640939
 21
114.136822
  0
LINE
  8
CSLAYER1
  6
CONTINUOUS
 62
     5
 10
2748.640939
 20
114.136822
 11
2749.132533
 21
113.599141
  0
LINE
  8
CSLAYER1
  6
CONTINUOUS
 62
     5
 10
2749.132533
 20
113.599141
 11
2749.808475
 21
113.092184
  0
LINE
  8
CSLAYER1
  6
CONTINUOUS
 62
     5
 10
2749.808475
 20
113.092184
 11
2749.931800
 21
112.927751
  0
LINE
  8
CSLAYER1
  6
CONTINUOUS
 62
     5
 10
2748.513370
 20
108.287607
 11
2750.052583
 21
106.178315
  0
ARC
  8
CSLAYER1
  6
CONTINUOUS
 62
     5
 10
2792.923113
 20
-61.926013
 40
180.727463
 50
80.438896
 51
96.353582
  0
ARC
  8
CSLAYER1
  6
CONTINUOUS
 62
     5
 10
2768.024200
 20
83.321887
 40
34.720242
 50
81.866516
 51
106.890578
  0
LINE
  8
CSLAYER1
  6
CONTINUOUS
 62
     5
 10
2827.130674
 20
115.499310
 11
2829.377756
 21
114.477909
  0
LINE
  8
CSLAYER1
  6
CONTINUOUS
 62
     5
 10
2832.952661
 20
112.894737
 11
2829.377756
 21
114.477909
  0
LINE
  8
CSLAYER1
  6
CONTINUOUS
 62
     5
 10
2827.130674
 20
115.499310
 11
2822.936412
 21
116.291881
  0
LINE
  8
CSLAYER1
  6
CONTINUOUS
 62
     5
 10
2832.936412
 20
112.901933
 11
2834.807988
 21
111.333456
  0
LINE
  8
CSLAYER1
  6
CONTINUOUS
 62
     5
 10
2816.179668
 20
113.938783
 11
2817.078943
 21
115.391458
  0
LINE
  8
CSLAYER1
  6
CONTINUOUS
 62
     5
 10
2817.078943
 20
115.391458
 11
2821.754542
 21
114.271949
  0
LINE
  8
CSLAYER1
  6
CONTINUOUS
 62
     5
 10
2821.754542
 20
114.271949
 11
2838.496928
 21
109.732640
  0
LINE
  8
CSLAYER1
  6
CONTINUOUS
 62
     5
 10
2841.436412
 20
109.732640
 11
2834.807988
 21
111.333456
  0
LINE
  8
CSLAYER1
  6
CONTINUOUS
 62
     5
 10
2838.496928
 20
109.732640
 11
2841.436412
 21
109.732640
  0
LINE
  8
CSLAYER1
  6
CONTINUOUS
 62
     5
 10
2782.936412
 20
114.197581
 11
2802.936412
 21
114.732640
  0
LINE
  8
CSLAYER1
  6
CONTINUOUS
 62
     5
 10
2802.936412
 20
114.732640
 11
2816.179668
 21
113.938783
  0
LINE
  8
CSLAYER1
  6
CONTINUOUS
 62
     5
 10
2817.782649
 20
111.878304
 11
2802.936412
 21
113.232640
  0
LINE
  8
CSLAYER1
  6
CONTINUOUS
 62
     5
 10
2802.936412
 20
113.232640
 11
2787.887203
 21
113.641292
  0
LINE
  8
CSLAYER1
  6
CONTINUOUS
 62
     5
 10
2787.936412
 20
113.639956
 11
2782.936412
 21
113.735249
  0
LINE
  8
CSLAYER1
  6
CONTINUOUS
 62
     5
 10
2782.936412
 20
114.197581
 11
2782.936412
 21
113.735249
  0
LINE
  8
CSLAYER1
  6
CONTINUOUS
 62
     5
 10
2840.436412
 20
106.232640
 11
2831.593854
 21
108.543302
  0
LINE
  8
CSLAYER1
  6
CONTINUOUS
 62
     5
 10
2817.782649
 20
111.878304
 11
2827.936412
 21
109.905920
  0
LINE
  8
CSLAYER1
  6
CONTINUOUS
 62
     5
 10
2827.936412
 20
109.905920
 11
2831.593854
 21
108.543302
  0
LINE
  8
CSLAYER1
  6
CONTINUOUS
 62
     5
 10
2840.436412
 20
106.232640
 11
2840.143795
 21
105.393534
  0
LINE
  8
CSLAYER1
  6
CONTINUOUS
 62
     5
 10
2849.936412
 20
100.732640
 11
2849.630385
 21
101.961621
  0
LINE
  8
CSLAYER1
  6
CONTINUOUS
 62
     5
 10
2840.143795
 20
105.393534
 11
2849.630385
 21
101.961621
  0
LINE
  8
CSLAYER1
  6
CONTINUOUS
 62
     5
 10
2786.436412
 20
106.232640
 11
2788.859450
 21
106.232640
  0
LINE
  8
CSLAYER1
  6
CONTINUOUS
 62
     5
 10
2808.936412
 20
106.665135
 11
2808.936412
 21
106.232640
  0
LINE
  8
CSLAYER1
  6
CONTINUOUS
 62
     5
 10
2807.936412
 20
107.199576
 11
2806.225133
 21
107.836755
  0
LINE
  8
CSLAYER1
  6
CONTINUOUS
 62
     5
 10
2806.225133
 20
107.836755
 11
2805.115077
 21
107.887212
  0
LINE
  8
CSLAYER1
  6
CONTINUOUS
 62
     5
 10
2805.115077
 20
107.887212
 11
2804.635735
 21
107.634926
  0
LINE
  8
CSLAYER1
  6
CONTINUOUS
 62
     5
 10
2804.635735
 20
107.634926
 11
2804.534821
 21
107.231270
  0
LINE
  8
CSLAYER1
  6
CONTINUOUS
 62
     5
 10
2804.534821
 20
107.231270
 11
2804.988934
 21
106.928527
  0
LINE
  8
CSLAYER1
  6
CONTINUOUS
 62
     5
 10
2804.988934
 20
106.928527
 11
2806.628790
 21
106.777156
  0
LINE
  8
CSLAYER1
  6
CONTINUOUS
 62
     5
 10
2806.628790
 20
106.777156
 11
2808.936412
 21
106.665135
  0
LINE
  8
CSLAYER1
  6
CONTINUOUS
 62
     5
 10
2849.936412
 20
100.732640
 11
2846.960870
 21
101.919221
  0
LINE
  8
CSLAYER1
  6
CONTINUOUS
 62
     5
 10
2846.960870
 20
101.919221
 11
2836.905180
 21
103.762097
  0
LINE
  8
CSLAYER1
  6
CONTINUOUS
 62
     5
 10
2836.905180
 20
103.762097
 11
2831.879400
 21
104.921892
  0
LINE
  8
CSLAYER1
  6
CONTINUOUS
 62
     5
 10
2809.470633
 20
107.232640
 11
2821.236299
 21
107.232640
  0
LINE
  8
CSLAYER1
  6
CONTINUOUS
 62
     5
 10
2807.936412
 20
107.199576
 11
2808.461072
 21
106.891109
  0
LINE
  8
CSLAYER1
  6
CONTINUOUS
 62
     5
 10
2808.461072
 20
106.891109
 11
2808.757884
 21
106.802065
  0
LINE
  8
CSLAYER1
  6
CONTINUOUS
 62
     5
 10
2808.757884
 20
106.802065
 11
2808.936412
 21
106.827236
  0
LINE
  8
CSLAYER1
  6
CONTINUOUS
 62
     5
 10
2808.936412
 20
106.827236
 11
2809.470633
 21
107.232640
  0
LINE
  8
CSLAYER1
  6
CONTINUOUS
 62
     5
 10
2821.236299
 20
107.232640
 11
2825.686568
 21
106.203814
  0
LINE
  8
CSLAYER1
  6
CONTINUOUS
 62
     5
 10
2825.686568
 20
106.203814
 11
2829.839760
 21
105.038665
  0
LINE
  8
CSLAYER1
  6
CONTINUOUS
 62
     5
 10
2829.839760
 20
105.038665
 11
2831.879400
 21
104.921892
  0
LINE
  8
CSLAYER1
  6
CONTINUOUS
 62
     5
 10
2785.436412
 20
105.232640
 11
2785.436412
 21
104.732640
  0
LINE
  8
CSLAYER1
  6
CONTINUOUS
 62
     5
 10
2782.936412
 20
104.732640
 11
2785.436412
 21
104.732640
  0
ARC
  8
CSLAYER1
  6
CONTINUOUS
 62
     5
 10
2786.436412
 20
105.232640
 40
1.000000
 50
90.000000
 51
180.000000
  0
LINE
  8
CSLAYER1
  6
CONTINUOUS
 62
     5
 10
2788.859450
 20
106.232640
 11
2789.557007
 21
105.660643
  0
LINE
  8
CSLAYER1
  6
CONTINUOUS
 62
     5
 10
2790.159375
 20
105.636683
 11
2791.016972
 21
106.232640
  0
LINE
  8
CSLAYER1
  6
CONTINUOUS
 62
     5
 10
2792.595368
 20
106.232640
 11
2794.262494
 21
105.574564
  0
LINE
  8
CSLAYER1
  6
CONTINUOUS
 62
     5
 10
2794.686203
 20
105.601076
 11
2795.839690
 21
106.232640
  0
LINE
  8
CSLAYER1
  6
CONTINUOUS
 62
     5
 10
2791.016972
 20
106.232640
 11
2792.595368
 21
106.232640
  0
LINE
  8
CSLAYER1
  6
CONTINUOUS
 62
     5
 10
2795.839690
 20
106.232640
 11
2808.936412
 21
106.232640
  0
LINE
  8
CSLAYER1
  6
CONTINUOUS
 62
     5
 10
2761.485395
 20
103.123813
 11
2782.936412
 21
104.732640
  0
LINE
  8
CSLAYER1
  6
CONTINUOUS
 62
     5
 10
2757.484045
 20
103.209864
 11
2761.485395
 21
103.123813
  0
ARC
  8
CSLAYER1
  6
CONTINUOUS
 62
     5
 10
2789.874047
 20
106.047277
 40
0.500000
 50
230.648247
 51
304.796026
  0
ARC
  8
CSLAYER1
  6
CONTINUOUS
 62
     5
 10
2794.446077
 20
106.039642
 40
0.500000
 50
248.459024
 51
298.701829
  0
ARC
  8
CSLAYER1
  6
CONTINUOUS
 62
     5
 10
2749.691800
 20
112.747751
 40
0.300000
 50
-84.093859
 51
36.869898
  0
ARC
  8
CSLAYER1
  6
CONTINUOUS
 62
     5
 10
2749.226196
 20
114.679023
 40
0.700000
 50
85.301319
 51
194.142980
  0
LINE
  8
CSLAYER1
  6
CONTINUOUS
 62
     3
 10
2781.418237
 20
97.465795
 11
2789.528732
 21
97.465795
  0
LINE
  8
CSLAYER1
  6
CONTINUOUS
 62
     3
 10
2775.005720
 20
95.865795
 11
2792.649061
 21
95.865795
  0
LINE
  8
CSLAYER1
  6
CONTINUOUS
 62
     3
 10
2771.592781
 20
94.265795
 11
2795.524426
 21
94.265795
  0
LINE
  8
CSLAYER1
  6
CONTINUOUS
 62
     3
 10
2769.357462
 20
92.665795
 11
2797.367899
 21
92.665795
  0
LINE
  8
CSLAYER1
  6
CONTINUOUS
 62
     3
 10
2767.861806
 20
91.065795
 11
2798.602184
 21
91.065795
  0
LINE
  8
CSLAYER1
  6
CONTINUOUS
 62
     3
 10
2766.641492
 20
89.465795
 11
2799.651561
 21
89.465795
  0
LINE
  8
CSLAYER1
  6
CONTINUOUS
 62
     3
 10
2765.949600
 20
87.865795
 11
2800.377436
 21
87.865795
  0
LINE
  8
CSLAYER1
  6
CONTINUOUS
 62
     3
 10
2765.257708
 20
86.265795
 11
2800.715822
 21
86.265795
  0
LINE
  8
CSLAYER1
  6
CONTINUOUS
 62
     3
 10
2764.609358
 20
84.665795
 11
2801.054208
 21
84.665795
  0
LINE
  8
CSLAYER1
  6
CONTINUOUS
 62
     3
 10
2764.287699
 20
83.065795
 11
2801.392594
 21
83.065795
  0
LINE
  8
CSLAYER1
  6
CONTINUOUS
 62
     3
 10
2763.966040
 20
81.465795
 11
2779.556283
 21
81.465795
  0
LINE
  8
CSLAYER1
  6
CONTINUOUS
 62
     3
 10
2763.644381
 20
79.865795
 11
2778.024022
 21
79.865795
  0
LINE
  8
CSLAYER1
  6
CONTINUOUS
 62
     3
 10
2763.322722
 20
78.265795
 11
2777.235852
 21
78.265795
  0
LINE
  8
CSLAYER1
  6
CONTINUOUS
 62
     3
 10
2763.081604
 20
76.665795
 11
2776.917085
 21
76.665795
  0
LINE
  8
CSLAYER1
  6
CONTINUOUS
 62
     3
 10
2762.961434
 20
75.065795
 11
2776.967106
 21
75.065795
  0
LINE
  8
CSLAYER1
  6
CONTINUOUS
 62
     3
 10
2762.936412
 20
73.465795
 11
2777.513193
 21
73.465795
  0
LINE
  8
CSLAYER1
  6
CONTINUOUS
 62
     3
 10
2763.435600
 20
71.865795
 11
2779.543195
 21
71.865795
  0
LINE
  8
CSLAYER1
  6
CONTINUOUS
 62
     3
 10
2764.146711
 20
70.265795
 11
2796.674567
 21
70.265795
  0
LINE
  8
CSLAYER1
  6
CONTINUOUS
 62
     3
 10
2764.857823
 20
68.665795
 11
2796.223285
 21
68.665795
  0
LINE
  8
CSLAYER1
  6
CONTINUOUS
 62
     3
 10
2765.568934
 20
67.065795
 11
2795.500261
 21
67.065795
  0
LINE
  8
CSLAYER1
  6
CONTINUOUS
 62
     3
 10
2766.530893
 20
65.465795
 11
2794.602074
 21
65.465795
  0
LINE
  8
CSLAYER1
  6
CONTINUOUS
 62
     3
 10
2767.779354
 20
63.865795
 11
2793.097148
 21
63.865795
  0
LINE
  8
CSLAYER1
  6
CONTINUOUS
 62
     3
 10
2769.384774
 20
62.265795
 11
2790.704687
 21
62.265795
  0
LINE
  8
CSLAYER1
  6
CONTINUOUS
 62
     3
 10
2771.531916
 20
60.665795
 11
2787.579564
 21
60.665795
  0
LINE
  8
CSLAYER1
  6
CONTINUOUS
 62
     3
 10
2774.779606
 20
59.065795
 11
2782.941415
 21
59.065795
  0
LINE
  8
CSLAYER1
  6
CONTINUOUS
 62
     3
 10
2784.748107
 20
81.465795
 11
2801.567844
 21
81.465795
  0
LINE
  8
CSLAYER1
  6
CONTINUOUS
 62
     3
 10
2785.418851
 20
79.865795
 11
2801.442074
 21
79.865795
  0
LINE
  8
CSLAYER1
  6
CONTINUOUS
 62
     3
 10
2785.530858
 20
78.265795
 11
2801.316305
 21
78.265795
  0
LINE
  8
CSLAYER1
  6
CONTINUOUS
 62
     3
 10
2785.285501
 20
76.665795
 11
2800.602449
 21
76.665795
  0
LINE
  8
CSLAYER1
  6
CONTINUOUS
 62
     3
 10
2784.633855
 20
75.065795
 11
2799.881249
 21
75.065795
  0
LINE
  8
CSLAYER1
  6
CONTINUOUS
 62
     3
 10
2783.500592
 20
73.465795
 11
2798.947301
 21
73.465795
  0
LINE
  8
CSLAYER1
  6
CONTINUOUS
 62
     3
 10
2781.244595
 20
71.865795
 11
2797.676594
 21
71.865795
  0
TEXT
  8
CSLAYER1
 62
     5
 10
2802.108183
 20
79.476970
 40
4.713448
 41
1.951056
  1
M
 50
0.000000
 51
0.000000
  7
EASYDRAW_FONT
 72
     5
 11
2808.238985
 21
79.476970
  0
TEXT
  8
CSLAYER1
 62
     5
 10
2811.759570
 20
79.418700
 40
4.626621
 41
0.778201
  1
T
 50
0.000000
 51
0.000000
  7
EASYDRAW_FONT
 72
     5
 11
2814.159863
 21
79.418700
  0
TEXT
  8
CSLAYER1
 62
     5
 10
2814.525133
 20
79.453499
 40
4.696183
 41
1.055553
  1
E
 50
0.000000
 51
0.000000
  7
EASYDRAW_FONT
 72
     5
 11
2817.829848
 21
79.453499
  0
TEXT
  8
CSLAYER1
 62
     5
 10
2817.641314
 20
81.069343
 40
0.348283
 41
9.375319
  1
-
 50
0.000000
 51
0.000000
  7
EASYDRAW_FONT
 72
     5
 11
2819.818159
 21
81.069343
  0
TEXT
  8
CSLAYER1
 62
     5
 10
2819.455523
 20
79.422152
 40
4.861659
 41
1.298502
  1
H
 50
0.000000
 51
0.000000
  7
EASYDRAW_FONT
 72
     5
 11
2823.664106
 21
79.422152
  0
TEXT
  8
CSLAYER1
 62
     5
 10
2823.531538
 20
79.452530
 40
4.843139
 41
1.269236
  1
A
 50
0.000000
 51
0.000000
  7
EASYDRAW_FONT
 72
     5
 11
2827.629595
 21
79.452530
  0
TEXT
  8
CSLAYER1
 62
     5
 10
2827.237694
 20
79.411004
 40
4.825362
 41
1.490144
  1
N
 50
0.000000
 51
0.000000
  7
EASYDRAW_FONT
 72
     5
 11
2832.031349
 21
79.411004
  0
TEXT
  8
CSLAYER1
 62
     5
 10
2808.029152
 20
79.388431
 40
4.982325
 41
1.177443
  1
A
 50
0.000000
 51
0.000000
  7
EASYDRAW_FONT
 72
     5
 11
2811.940086
 21
79.388431
  0
TEXT
  8
CSLAYER1
 62
     5
 10
2802.475197
 20
72.393191
 40
4.982325
 41
1.177443
  1
A
 50
0.000000
 51
0.000000
  7
EASYDRAW_FONT
 72
     5
 11
2806.386131
 21
72.393191
  0
TEXT
  8
CSLAYER1
 62
     5
 10
2815.259621
 20
72.421512
 40
4.982325
 41
1.177443
  1
A
 50
0.000000
 51
0.000000
  7
EASYDRAW_FONT
 72
     5
 11
2819.170555
 21
72.421512
  0
TEXT
  8
CSLAYER1
 62
     5
 10
2819.020165
 20
72.478509
 40
4.825362
 41
1.490144
  1
N
 50
0.000000
 51
0.000000
  7
EASYDRAW_FONT
 72
     5
 11
2823.813819
 21
72.478509
  0
TEXT
  8
CSLAYER1
 62
     5
 10
2827.922501
 20
72.486903
 40
4.841775
 41
1.184218
  1
E
 50
0.000000
 51
0.000000
  7
EASYDRAW_FONT
 72
     5
 11
2831.744980
 21
72.486903
  0
TEXT
  8
CSLAYER1
 62
     5
 10
2806.755750
 20
72.391867
 40
4.947865
 41
1.093992
  1
D
 50
0.000000
 51
0.000000
  7
EASYDRAW_FONT
 72
     5
 11
2810.364367
 21
72.391867
  0
TEXT
  8
CSLAYER1
 62
     5
 10
2811.158109
 20
72.386482
 40
4.924210
 41
1.228195
  1
V
 50
0.000000
 51
0.000000
  7
EASYDRAW_FONT
 72
     5
 11
2815.190036
 21
72.386482
  0
TEXT
  8
CSLAYER1
 62
     5
 10
2823.383310
 20
72.407213
 40
5.032894
 41
1.481023
  1
C
 50
0.000000
 51
0.000000
  7
EASYDRAW_FONT
 72
     5
 11
2828.352530
 21
72.407213
  0
LINE
  8
CSLAYER1
  6
CONTINUOUS
 62
     5
 10
2814.013749
 20
83.467612
 11
2813.001687
 21
83.467612
  0
LINE
  8
CSLAYER1
  6
CONTINUOUS
 62
     3
 10
2763.111987
 20
117.692883
 11
2812.909813
 21
117.692883
  0
LINE
  8
CSLAYER1
  6
CONTINUOUS
 62
     3
 10
2755.999623
 20
116.092883
 11
2823.989505
 21
116.092883
  0
LINE
  8
CSLAYER1
  6
CONTINUOUS
 62
     3
 10
2748.551219
 20
114.492883
 11
2793.974529
 21
114.492883
  0
LINE
  8
CSLAYER1
  6
CONTINUOUS
 62
     3
 10
2806.936079
 20
114.492883
 11
2816.522682
 21
114.492883
  0
LINE
  8
CSLAYER1
  6
CONTINUOUS
 62
     3
 10
2820.831816
 20
114.492883
 11
2829.344813
 21
114.492883
  0
LINE
  8
CSLAYER1
  6
CONTINUOUS
 62
     3
 10
2749.954358
 20
112.892883
 11
2806.660827
 21
112.892883
  0
LINE
  8
CSLAYER1
  6
CONTINUOUS
 62
     3
 10
2826.840965
 20
112.892883
 11
2832.947211
 21
112.892883
  0
LINE
  8
CSLAYER1
  6
CONTINUOUS
 62
     3
 10
2748.042024
 20
111.292883
 11
2820.796375
 21
111.292883
  0
LINE
  8
CSLAYER1
  6
CONTINUOUS
 62
     3
 10
2832.742264
 20
111.292883
 11
2834.975986
 21
111.292883
  0
LINE
  8
CSLAYER1
  6
CONTINUOUS
 62
     3
 10
2746.979799
 20
109.692883
 11
2828.508231
 21
109.692883
  0
LINE
  8
CSLAYER1
  6
CONTINUOUS
 62
     3
 10
2748.655466
 20
108.092883
 11
2833.317540
 21
108.092883
  0
LINE
  8
CSLAYER1
  6
CONTINUOUS
 62
     3
 10
2749.823033
 20
106.492883
 11
2808.936412
 21
106.492883
  0
LINE
  8
CSLAYER1
  6
CONTINUOUS
 62
     3
 10
2824.436177
 20
106.492883
 11
2839.440500
 21
106.492883
  0
LINE
  8
CSLAYER1
  6
CONTINUOUS
 62
     3
 10
2750.068157
 20
104.892883
 11
2785.436412
 21
104.892883
  0
LINE
  8
CSLAYER1
  6
CONTINUOUS
 62
     3
 10
2832.005106
 20
104.892883
 11
2841.527709
 21
104.892883
  0
LINE
  8
CSLAYER1
  6
CONTINUOUS
 62
     3
 10
2750.274482
 20
103.292883
 11
2763.739655
 21
103.292883
  0
LINE
  8
CSLAYER1
  6
CONTINUOUS
 62
     3
 10
2839.465455
 20
103.292883
 11
2845.950473
 21
103.292883
  0
LINE
  8
CSLAYER1
  6
CONTINUOUS
 62
     3
 10
2847.528449
 20
101.692883
 11
2849.697303
 21
101.692883
  0
ENDBLK
  8
0
  0
BLOCK
  8
CSLAYER1
  2
BLKF0001
 70
   64
 10
0.0
 20
0.0
 30
0.0
  0
LINE
  8
CSLAYER1
  6
CONTINUOUS
 62
     4
 10
1546.574891
 20
995.715520
 11
1636.571142
 21
1115.528518
  0
LINE
  8
CSLAYER1
  6
CONTINUOUS
 62
     4
 10
1684.195769
 20
1080.693802
 11
1637.621251
 21
1115.677753
  0
LINE
  8
CSLAYER1
  6
CONTINUOUS
 62
     4
 10
1684.195769
 20
1080.693802
 11
1684.394749
 21
1079.293657
  0
LINE
  8
CSLAYER1
  6
CONTINUOUS
 62
     4
 10
1637.621251
 20
1115.677753
 11
1636.571142
 21
1115.528518
  0
LINE
  8
CSLAYER1
  6
CONTINUOUS
 62
     4
 10
1645.972762
 20
1109.404605
 11
1650.385757
 21
1111.942002
  0
LINE
  8
CSLAYER1
  6
CONTINUOUS
 62
     4
 10
1650.385757
 20
1111.942002
 11
1650.937076
 21
1105.675714
  0
LINE
  8
CSLAYER1
  6
CONTINUOUS
 62
     4
 10
1650.937076
 20
1105.675714
 11
1652.731534
 21
1107.254874
  0
LINE
  8
CSLAYER1
  6
CONTINUOUS
 62
     4
 10
1650.937076
 20
1105.675714
 11
1650.072175
 21
1111.761698
  0
LINE
  8
CSLAYER1
  6
CONTINUOUS
 62
     4
 10
1650.710926
 20
1105.845584
 11
1649.885425
 21
1111.654320
  0
LINE
  8
CSLAYER1
  6
CONTINUOUS
 62
     4
 10
1650.484775
 20
1106.015455
 11
1649.698676
 21
1111.546942
  0
LINE
  8
CSLAYER1
  6
CONTINUOUS
 62
     4
 10
1650.258625
 20
1106.185325
 11
1649.511926
 21
1111.439564
  0
LINE
  8
CSLAYER1
  6
CONTINUOUS
 62
     4
 10
1650.032474
 20
1106.355196
 11
1649.325176
 21
1111.332186
  0
LINE
  8
CSLAYER1
  6
CONTINUOUS
 62
     4
 10
1649.806324
 20
1106.525066
 11
1649.138427
 21
1111.224808
  0
LINE
  8
CSLAYER1
  6
CONTINUOUS
 62
     4
 10
1649.580174
 20
1106.694936
 11
1648.951677
 21
1111.117431
  0
LINE
  8
CSLAYER1
  6
CONTINUOUS
 62
     4
 10
1649.354023
 20
1106.864807
 11
1648.764927
 21
1111.010053
  0
LINE
  8
CSLAYER1
  6
CONTINUOUS
 62
     4
 10
1649.127873
 20
1107.034677
 11
1648.578178
 21
1110.902675
  0
LINE
  8
CSLAYER1
  6
CONTINUOUS
 62
     4
 10
1648.901722
 20
1107.204548
 11
1648.391428
 21
1110.795297
  0
LINE
  8
CSLAYER1
  6
CONTINUOUS
 62
     4
 10
1648.675572
 20
1107.374418
 11
1648.204678
 21
1110.687919
  0
LINE
  8
CSLAYER1
  6
CONTINUOUS
 62
     4
 10
1648.449421
 20
1107.544289
 11
1648.017929
 21
1110.580541
  0
LINE
  8
CSLAYER1
  6
CONTINUOUS
 62
     4
 10
1648.223271
 20
1107.714159
 11
1647.831179
 21
1110.473163
  0
LINE
  8
CSLAYER1
  6
CONTINUOUS
 62
     4
 10
1647.997120
 20
1107.884030
 11
1647.644429
 21
1110.365785
  0
LINE
  8
CSLAYER1
  6
CONTINUOUS
 62
     4
 10
1647.770970
 20
1108.053900
 11
1647.457680
 21
1110.258408
  0
LINE
  8
CSLAYER1
  6
CONTINUOUS
 62
     4
 10
1647.544820
 20
1108.223771
 11
1647.270930
 21
1110.151030
  0
LINE
  8
CSLAYER1
  6
CONTINUOUS
 62
     4
 10
1647.318669
 20
1108.393641
 11
1647.084180
 21
1110.043652
  0
LINE
  8
CSLAYER1
  6
CONTINUOUS
 62
     4
 10
1647.092519
 20
1108.563512
 11
1646.897431
 21
1109.936274
  0
LINE
  8
CSLAYER1
  6
CONTINUOUS
 62
     4
 10
1646.866368
 20
1108.733382
 11
1646.710681
 21
1109.828896
  0
LINE
  8
CSLAYER1
  6
CONTINUOUS
 62
     4
 10
1646.640218
 20
1108.903253
 11
1646.523931
 21
1109.721518
  0
LINE
  8
CSLAYER1
  6
CONTINUOUS
 62
     4
 10
1646.414067
 20
1109.073123
 11
1646.337182
 21
1109.614140
  0
LINE
  8
CSLAYER1
  6
CONTINUOUS
 62
     4
 10
1646.187917
 20
1109.242994
 11
1646.150432
 21
1109.506762
  0
LINE
  8
CSLAYER1
  6
CONTINUOUS
 62
     4
 10
1651.116630
 20
1105.833725
 11
1650.258925
 21
1111.869076
  0
LINE
  8
CSLAYER1
  6
CONTINUOUS
 62
     4
 10
1651.296184
 20
1105.991736
 11
1650.485217
 21
1111.698206
  0
LINE
  8
CSLAYER1
  6
CONTINUOUS
 62
     4
 10
1651.475738
 20
1106.149747
 11
1650.788117
 21
1110.988276
  0
LINE
  8
CSLAYER1
  6
CONTINUOUS
 62
     4
 10
1651.655292
 20
1106.307759
 11
1651.082201
 21
1110.340383
  0
LINE
  8
CSLAYER1
  6
CONTINUOUS
 62
     4
 10
1651.834846
 20
1106.465770
 11
1651.369257
 21
1109.741948
  0
LINE
  8
CSLAYER1
  6
CONTINUOUS
 62
     4
 10
1652.014400
 20
1106.623781
 11
1651.650531
 21
1109.184192
  0
LINE
  8
CSLAYER1
  6
CONTINUOUS
 62
     4
 10
1652.193954
 20
1106.781793
 11
1651.926936
 21
1108.660698
  0
LINE
  8
CSLAYER1
  6
CONTINUOUS
 62
     4
 10
1652.373508
 20
1106.939804
 11
1652.199163
 21
1108.166607
  0
LINE
  8
CSLAYER1
  6
CONTINUOUS
 62
     4
 10
1652.553062
 20
1107.097815
 11
1652.467749
 21
1107.698130
  0
LINE
  8
CSLAYER1
  6
CONTINUOUS
 62
     4
 10
1676.044149
 20
1086.816805
 11
1677.251620
 21
1091.761997
  0
LINE
  8
CSLAYER1
  6
CONTINUOUS
 62
     4
 10
1677.251620
 20
1091.761997
 11
1671.079835
 21
1090.545696
  0
LINE
  8
CSLAYER1
  6
CONTINUOUS
 62
     4
 10
1671.079835
 20
1090.545696
 11
1672.096535
 21
1092.709061
  0
LINE
  8
CSLAYER1
  6
CONTINUOUS
 62
     4
 10
1671.079835
 20
1090.545696
 11
1677.165819
 21
1091.410597
  0
LINE
  8
CSLAYER1
  6
CONTINUOUS
 62
     4
 10
1671.305985
 20
1090.375826
 11
1677.114721
 21
1091.201326
  0
LINE
  8
CSLAYER1
  6
CONTINUOUS
 62
     4
 10
1671.532135
 20
1090.205955
 11
1677.063623
 21
1090.992055
  0
LINE
  8
CSLAYER1
  6
CONTINUOUS
 62
     4
 10
1671.758286
 20
1090.036085
 11
1677.012525
 21
1090.782784
  0
LINE
  8
CSLAYER1
  6
CONTINUOUS
 62
     4
 10
1671.984436
 20
1089.866214
 11
1676.961427
 21
1090.573512
  0
LINE
  8
CSLAYER1
  6
CONTINUOUS
 62
     4
 10
1672.210587
 20
1089.696344
 11
1676.910329
 21
1090.364241
  0
LINE
  8
CSLAYER1
  6
CONTINUOUS
 62
     4
 10
1672.436737
 20
1089.526473
 11
1676.859231
 21
1090.154970
  0
LINE
  8
CSLAYER1
  6
CONTINUOUS
 62
     4
 10
1672.662888
 20
1089.356603
 11
1676.808133
 21
1089.945699
  0
LINE
  8
CSLAYER1
  6
CONTINUOUS
 62
     4
 10
1672.889038
 20
1089.186732
 11
1676.757035
 21
1089.736427
  0
LINE
  8
CSLAYER1
  6
CONTINUOUS
 62
     4
 10
1673.115189
 20
1089.016862
 11
1676.705938
 21
1089.527156
  0
LINE
  8
CSLAYER1
  6
CONTINUOUS
 62
     4
 10
1673.341339
 20
1088.846991
 11
1676.654840
 21
1089.317885
  0
LINE
  8
CSLAYER1
  6
CONTINUOUS
 62
     4
 10
1673.567489
 20
1088.677121
 11
1676.603742
 21
1089.108614
  0
LINE
  8
CSLAYER1
  6
CONTINUOUS
 62
     4
 10
1673.793640
 20
1088.507250
 11
1676.552644
 21
1088.899342
  0
LINE
  8
CSLAYER1
  6
CONTINUOUS
 62
     4
 10
1674.019790
 20
1088.337380
 11
1676.501546
 21
1088.690071
  0
LINE
  8
CSLAYER1
  6
CONTINUOUS
 62
     4
 10
1674.245941
 20
1088.167509
 11
1676.450448
 21
1088.480800
  0
LINE
  8
CSLAYER1
  6
CONTINUOUS
 62
     4
 10
1674.472091
 20
1087.997639
 11
1676.399350
 21
1088.271529
  0
LINE
  8
CSLAYER1
  6
CONTINUOUS
 62
     4
 10
1674.698242
 20
1087.827768
 11
1676.348252
 21
1088.062257
  0
LINE
  8
CSLAYER1
  6
CONTINUOUS
 62
     4
 10
1674.924392
 20
1087.657898
 11
1676.297154
 21
1087.852986
  0
LINE
  8
CSLAYER1
  6
CONTINUOUS
 62
     4
 10
1675.150542
 20
1087.488028
 11
1676.246056
 21
1087.643715
  0
LINE
  8
CSLAYER1
  6
CONTINUOUS
 62
     4
 10
1675.376693
 20
1087.318157
 11
1676.194958
 21
1087.434444
  0
LINE
  8
CSLAYER1
  6
CONTINUOUS
 62
     4
 10
1675.602843
 20
1087.148287
 11
1676.143860
 21
1087.225172
  0
LINE
  8
CSLAYER1
  6
CONTINUOUS
 62
     4
 10
1675.828994
 20
1086.978416
 11
1676.092762
 21
1087.015901
  0
LINE
  8
CSLAYER1
  6
CONTINUOUS
 62
     4
 10
1671.181566
 20
1090.762163
 11
1677.216917
 21
1091.619869
  0
LINE
  8
CSLAYER1
  6
CONTINUOUS
 62
     4
 10
1671.283297
 20
1090.978630
 11
1676.989767
 21
1091.789597
  0
LINE
  8
CSLAYER1
  6
CONTINUOUS
 62
     4
 10
1671.385029
 20
1091.195097
 11
1676.223557
 21
1091.882718
  0
LINE
  8
CSLAYER1
  6
CONTINUOUS
 62
     4
 10
1671.486760
 20
1091.411564
 11
1675.519384
 21
1091.984655
  0
LINE
  8
CSLAYER1
  6
CONTINUOUS
 62
     4
 10
1671.588491
 20
1091.628031
 11
1674.864669
 21
1092.093620
  0
LINE
  8
CSLAYER1
  6
CONTINUOUS
 62
     4
 10
1671.690223
 20
1091.844498
 11
1674.250633
 21
1092.208367
  0
LINE
  8
CSLAYER1
  6
CONTINUOUS
 62
     4
 10
1671.791954
 20
1092.060965
 11
1673.670859
 21
1092.327983
  0
LINE
  8
CSLAYER1
  6
CONTINUOUS
 62
     4
 10
1671.893685
 20
1092.277432
 11
1673.120488
 21
1092.451777
  0
LINE
  8
CSLAYER1
  6
CONTINUOUS
 62
     4
 10
1671.995416
 20
1092.493899
 11
1672.595732
 21
1092.579212
  0
LINE
  8
CSLAYER1
  6
CONTINUOUS
 62
     4
 10
1649.896798
 20
1106.457107
 11
1661.008455
 21
1098.110705
  0
CIRCLE
  8
CSLAYER1
  6
CONTINUOUS
 62
     4
 10
1679.176086
 20
1122.297472
 40
22.000000
  0
CIRCLE
  8
CSLAYER1
  6
CONTINUOUS
 62
     4
 10
1679.176086
 20
1122.297472
 40
22.250000
  0
POINT
  8
CSLAYER1
 62
     4
 10
1566.845592
 20
978.041955
  0
ARC
  8
CSLAYER1
  6
CONTINUOUS
 62
     4
 10
1566.845592
 20
978.041955
 40
15.050000
 50
-69.738110
 51
20.126675
  0
ARC
  8
CSLAYER1
  6
CONTINUOUS
 62
     4
 10
1577.269575
 20
949.804558
 40
15.050000
 50
110.261890
 51
133.108846
  0
ARC
  8
CSLAYER1
  6
CONTINUOUS
 62
     4
 10
1536.914740
 20
981.228511
 40
15.050000
 50
335.109935
 51
353.922957
  0
POINT
  8
CSLAYER1
 62
     4
 10
1566.845592
 20
978.041955
  0
ARC
  8
CSLAYER1
  6
CONTINUOUS
 62
     4
 10
1566.845592
 20
978.041955
 40
13.000000
 50
104.461194
 51
359.723654
  0
POINT
  8
CSLAYER1
 62
     4
 10
1566.845592
 20
978.041955
  0
ARC
  8
CSLAYER1
  6
CONTINUOUS
 62
     4
 10
1566.845592
 20
978.041955
 40
15.050000
 50
84.058173
 51
173.922957
  0
POINT
  8
CSLAYER1
 62
     4
 10
1566.845592
 20
978.041955
  0
POINT
  8
CSLAYER1
 62
     4
 10
1586.352459
 20
1003.092795
  0
POINT
  8
CSLAYER1
 62
     4
 10
1605.859327
 20
1028.143636
  0
CIRCLE
  8
CSLAYER1
  6
CONTINUOUS
 62
     4
 10
1566.845592
 20
978.041955
 40
4.770000
  0
CIRCLE
  8
CSLAYER1
  6
CONTINUOUS
 62
     4
 10
1586.352459
 20
1003.092795
 40
4.770000
  0
ARC
  8
CSLAYER1
  6
CONTINUOUS
 62
     4
 10
1566.845592
 20
978.041955
 40
13.000000
 50
104.461194
 51
359.723654
  0
ARC
  8
CSLAYER1
  6
CONTINUOUS
 62
     4
 10
1586.352459
 20
1003.092795
 40
13.000000
 50
-75.538806
 51
179.723654
  0
ARC
  8
CSLAYER1
  6
CONTINUOUS
 62
     4
 10
1586.352459
 20
1003.092795
 40
15.050000
 50
264.058173
 51
353.922957
  0
ARC
  8
CSLAYER1
  6
CONTINUOUS
 62
     4
 10
1605.859327
 20
1028.143636
 40
15.050000
 50
-69.738110
 51
20.126675
  0
ARC
  8
CSLAYER1
  6
CONTINUOUS
 62
     4
 10
1592.845289
 20
977.916553
 40
13.000000
 50
104.461194
 51
179.723654
  0
ARC
  8
CSLAYER1
  6
CONTINUOUS
 62
     4
 10
1560.352762
 20
1003.218197
 40
13.000000
 50
284.461194
 51
359.723654
  0
ARC
  8
CSLAYER1
  6
CONTINUOUS
 62
     4
 10
1616.283311
 20
999.906239
 40
15.050000
 50
110.261890
 51
173.922957
  0
ARC
  8
CSLAYER1
  6
CONTINUOUS
 62
     4
 10
1575.928476
 20
1031.330192
 40
15.050000
 50
290.261890
 51
353.922957
  0
POINT
  8
CSLAYER1
 62
     4
 10
1566.845592
 20
978.041955
  0
CIRCLE
  8
CSLAYER1
  6
CONTINUOUS
 62
     4
 10
1566.845592
 20
978.041955
 40
9.525000
  0
CIRCLE
  8
CSLAYER1
  6
CONTINUOUS
 62
     4
 10
1586.352459
 20
1003.092795
 40
9.525000
  0
ARC
  8
CSLAYER1
  6
CONTINUOUS
 62
     4
 10
1586.352459
 20
1003.092795
 40
15.050000
 50
110.261890
 51
200.126675
  0
POINT
  8
CSLAYER1
 62
     4
 10
1605.859327
 20
1028.143636
  0
ARC
  8
CSLAYER1
  6
CONTINUOUS
 62
     4
 10
1605.859327
 20
1028.143636
 40
13.000000
 50
104.461194
 51
359.723654
  0
POINT
  8
CSLAYER1
 62
     4
 10
1605.859327
 20
1028.143636
  0
ARC
  8
CSLAYER1
  6
CONTINUOUS
 62
     4
 10
1605.859327
 20
1028.143636
 40
15.050000
 50
84.058173
 51
173.922957
  0
POINT
  8
CSLAYER1
 62
     4
 10
1679.176086
 20
1122.297472
  0
POINT
  8
CSLAYER1
 62
     4
 10
1679.176086
 20
1122.297472
  0
ARC
  8
CSLAYER1
  6
CONTINUOUS
 62
     4
 10
1679.176086
 20
1122.297472
 40
30.250000
 50
-270.204447
 51
14.389295
  0
POINT
  8
CSLAYER1
 62
     4
 10
1625.366195
 20
1053.194476
  0
POINT
  8
CSLAYER1
 62
     4
 10
1625.366195
 20
1053.194476
  0
POINT
  8
CSLAYER1
 62
     4
 10
1625.366195
 20
1053.194476
  0
POINT
  8
CSLAYER1
 62
     4
 10
1625.366195
 20
1053.194476
  0
POINT
  8
CSLAYER1
 62
     4
 10
1625.366195
 20
1053.194476
  0
POINT
  8
CSLAYER1
 62
     4
 10
1625.366195
 20
1053.194476
  0
POINT
  8
CSLAYER1
 62
     4
 10
1625.366195
 20
1053.194476
  0
POINT
  8
CSLAYER1
 62
     4
 10
1625.366195
 20
1053.194476
  0
LINE
  8
CSLAYER1
  6
CONTINUOUS
 62
     4
 10
1634.582039
 20
1065.029520
 11
1625.114005
 21
1072.402195
  0
LINE
  8
CSLAYER1
  6
CONTINUOUS
 62
     4
 10
1606.499701
 20
1048.874313
 11
1616.150353
 21
1041.359435
  0
POINT
  8
CSLAYER1
 62
     4
 10
1625.366196
 20
1053.194478
  0
POINT
  8
CSLAYER1
 62
     4
 10
1625.366195
 20
1053.194476
  0
POINT
  8
CSLAYER1
 62
     4
 10
1625.366196
 20
1053.194478
  0
CIRCLE
  8
CSLAYER1
  6
CONTINUOUS
 62
     4
 10
1625.366196
 20
1053.194478
 40
4.770000
  0
ARC
  8
CSLAYER1
  6
CONTINUOUS
 62
     4
 10
1625.366196
 20
1053.194478
 40
13.000000
 50
-75.538806
 51
179.723654
  0
ARC
  8
CSLAYER1
  6
CONTINUOUS
 62
     4
 10
1631.859026
 20
1028.018236
 40
13.000000
 50
104.461194
 51
179.723654
  0
ARC
  8
CSLAYER1
  6
CONTINUOUS
 62
     4
 10
1599.366499
 20
1053.319879
 40
13.000000
 50
284.461194
 51
359.723654
  0
POINT
  8
CSLAYER1
 62
     4
 10
1625.366195
 20
1053.194476
  0
LINE
  8
CSLAYER1
  6
CONTINUOUS
 62
     4
 10
1604.593695
 20
1051.890573
 11
1621.540024
 21
1073.653153
  0
LINE
  8
CSLAYER1
  6
CONTINUOUS
 62
     4
 10
1627.013304
 20
1069.405409
 11
1610.053159
 21
1047.625086
  0
LINE
  8
CSLAYER1
  6
CONTINUOUS
 62
     4
 10
1611.711389
 20
1035.658889
 11
1693.713209
 21
1140.966135
  0
ARC
  8
CSLAYER1
  6
CONTINUOUS
 62
     4
 10
1621.591379
 20
1068.069253
 40
5.584136
 50
13.843874
 51
90.526941
  0
ARC
  8
CSLAYER1
  6
CONTINUOUS
 62
     4
 10
1614.975426
 20
1039.850586
 40
31.912350
 50
52.092424
 51
67.838602
  0
ARC
  8
CSLAYER1
  6
CONTINUOUS
 62
     4
 10
1610.019927
 20
1053.209123
 40
5.584136
 50
193.657906
 51
270.340973
  0
ARC
  8
CSLAYER1
  6
CONTINUOUS
 62
     4
 10
1635.756967
 20
1066.538370
 40
31.912350
 50
216.346245
 51
232.092424
  0
LINE
  8
CSLAYER1
  6
CONTINUOUS
 62
     4
 10
1634.582039
 20
1065.029520
 11
1644.050074
 21
1057.656846
  0
LINE
  8
CSLAYER1
  6
CONTINUOUS
 62
     4
 10
1625.801006
 20
1033.844557
 11
1616.150353
 21
1041.359435
  0
POINT
  8
CSLAYER1
 62
     4
 10
1625.366196
 20
1053.194478
  0
POINT
  8
CSLAYER1
 62
     4
 10
1625.366196
 20
1053.194478
  0
LINE
  8
CSLAYER1
  6
CONTINUOUS
 62
     4
 10
1629.192369
 20
1032.735803
 11
1646.138698
 21
1054.498383
  0
LINE
  8
CSLAYER1
  6
CONTINUOUS
 62
     4
 10
1640.679234
 20
1058.763870
 11
1623.719089
 21
1036.983547
  0
ARC
  8
CSLAYER1
  6
CONTINUOUS
 62
     4
 10
1640.712465
 20
1053.179833
 40
5.584136
 50
13.657906
 51
90.340973
  0
ARC
  8
CSLAYER1
  6
CONTINUOUS
 62
     4
 10
1614.975426
 20
1039.850586
 40
31.912350
 50
36.346245
 51
52.092424
  0
ARC
  8
CSLAYER1
  6
CONTINUOUS
 62
     4
 10
1629.141013
 20
1038.319702
 40
5.584136
 50
193.843874
 51
270.526941
  0
ARC
  8
CSLAYER1
  6
CONTINUOUS
 62
     4
 10
1635.756967
 20
1066.538370
 40
31.912350
 50
232.092424
 51
247.838602
  0
LINE
  8
CSLAYER1
  6
CONTINUOUS
 62
     4
 10
1625.114005
 20
1072.402195
 11
1625.111606
 21
1072.404063
  0
LINE
  8
CSLAYER1
  6
CONTINUOUS
 62
     4
 10
1644.050074
 20
1057.656846
 11
1644.052473
 21
1057.654977
  0
LINE
  8
CSLAYER1
  6
CONTINUOUS
 62
     4
 10
1680.992771
 20
1152.821880
 11
1685.365863
 21
1158.437833
  0
LINE
  8
CSLAYER1
  6
CONTINUOUS
 62
     4
 10
1687.825736
 20
1147.501111
 11
1694.531010
 21
1156.112065
  0
LINE
  8
CSLAYER1
  6
CONTINUOUS
 62
     4
 10
1680.992771
 20
1152.821880
 11
1694.658701
 21
1142.180341
  0
LINE
  8
CSLAYER1
  6
CONTINUOUS
 62
     4
 10
1708.324631
 20
1131.538803
 11
1712.634137
 21
1137.073097
  0
LINE
  8
CSLAYER1
  6
CONTINUOUS
 62
     4
 10
1701.491666
 20
1136.859572
 11
1708.169029
 21
1145.434682
  0
LINE
  8
CSLAYER1
  6
CONTINUOUS
 62
     4
 10
1709.255254
 20
1130.814135
 11
1694.658701
 21
1142.180341
  0
LINE
  8
CSLAYER1
  6
CONTINUOUS
 62
     4
 10
1643.675297
 20
1057.948681
 11
1643.261071
 21
1058.271236
  0
LINE
  8
CSLAYER1
  6
CONTINUOUS
 62
     4
 10
1634.019411
 20
1078.141860
 11
1660.002599
 21
1111.509632
  0
LINE
  8
CSLAYER1
  6
CONTINUOUS
 62
     4
 10
1627.920790
 20
1072.751422
 11
1659.246529
 21
1112.980130
  0
LINE
  8
CSLAYER1
  6
CONTINUOUS
 62
     4
 10
1707.289207
 20
1128.289326
 11
1678.096102
 21
1151.021739
  0
LINE
  8
CSLAYER1
  6
CONTINUOUS
 62
     4
 10
1707.289207
 20
1128.289326
 11
1709.255254
 21
1130.814135
  0
LINE
  8
CSLAYER1
  6
CONTINUOUS
 62
     4
 10
1680.062148
 20
1153.546548
 11
1694.658701
 21
1142.180341
  0
LINE
  8
CSLAYER1
  6
CONTINUOUS
 62
     4
 10
1678.096102
 20
1151.021739
 11
1680.062148
 21
1153.546548
  0
LINE
  8
CSLAYER1
  6
CONTINUOUS
 62
     4
 10
1640.725935
 20
1072.919549
 11
1632.835906
 21
1079.063444
  0
LINE
  8
CSLAYER1
  6
CONTINUOUS
 62
     4
 10
1634.019411
 20
1078.141860
 11
1631.239675
 21
1077.013555
  0
LINE
  8
CSLAYER1
  6
CONTINUOUS
 62
     4
 10
1625.903008
 20
1071.787805
 11
1625.488782
 21
1072.110360
  0
LINE
  8
CSLAYER1
  6
CONTINUOUS
 62
     4
 10
1644.464300
 20
1057.334291
 11
1644.050074
 21
1057.656846
  0
LINE
  8
CSLAYER1
  6
CONTINUOUS
 62
     4
 10
1647.432459
 20
1067.697238
 11
1673.415648
 21
1101.065010
  0
LINE
  8
CSLAYER1
  6
CONTINUOUS
 62
     4
 10
1640.725935
 20
1072.919549
 11
1648.615963
 21
1066.775654
  0
LINE
  8
CSLAYER1
  6
CONTINUOUS
 62
     4
 10
1647.432459
 20
1067.697238
 11
1647.019732
 21
1064.725764
  0
LINE
  8
CSLAYER1
  6
CONTINUOUS
 62
     4
 10
1643.700847
 20
1060.463631
 11
1675.026586
 21
1100.692339
  0
LINE
  8
CSLAYER1
  6
CONTINUOUS
 62
     4
 10
1625.114005
 20
1072.402195
 11
1624.699779
 21
1072.724749
  0
LINE
  8
CSLAYER1
  6
CONTINUOUS
 62
     4
 10
1644.050074
 20
1057.656846
 11
1625.114005
 21
1072.402195
  0
ARC
  8
CSLAYER1
  6
CONTINUOUS
 62
     4
 10
1645.278853
 20
1059.234852
 40
2.000000
 50
142.092424
 51
232.092424
  0
ARC
  8
CSLAYER1
  6
CONTINUOUS
 62
     4
 10
1626.342784
 20
1073.980201
 40
2.000000
 50
232.092424
 51
322.092424
  0
POINT
  8
CSLAYER1
 62
     4
 10
1634.582039
 20
1065.029520
  0
LINE
  8
CSLAYER1
  6
CONTINUOUS
 62
     4
 10
1683.325583
 20
1143.902600
 11
1684.802626
 21
1145.799428
  0
LINE
  8
CSLAYER1
  6
CONTINUOUS
 62
     4
 10
1699.142336
 20
1131.661934
 11
1700.582683
 21
1133.511637
  0
LINE
  8
CSLAYER1
  6
CONTINUOUS
 62
     4
 10
1698.349570
 20
1133.085308
 11
1699.399179
 21
1134.433221
  0
CIRCLE
  8
CSLAYER1
  6
CONTINUOUS
 62
     4
 10
1679.176085
 20
1122.297470
 40
22.000000
  0
CIRCLE
  8
CSLAYER1
  6
CONTINUOUS
 62
     4
 10
1605.859327
 20
1028.143636
 40
4.770000
  0
CIRCLE
  8
CSLAYER1
  6
CONTINUOUS
 62
     4
 10
1625.366195
 20
1053.194476
 40
4.770000
  0
ARC
  8
CSLAYER1
  6
CONTINUOUS
 62
     4
 10
1625.366195
 20
1053.194476
 40
13.000000
 50
-76.877857
 51
178.384603
  0
ARC
  8
CSLAYER1
  6
CONTINUOUS
 62
     4
 10
1631.859025
 20
1028.018234
 40
13.000000
 50
104.461194
 51
179.723654
  0
ARC
  8
CSLAYER1
  6
CONTINUOUS
 62
     4
 10
1599.366498
 20
1053.319878
 40
13.000000
 50
284.461194
 51
359.723654
  0
CIRCLE
  8
CSLAYER1
  6
CONTINUOUS
 62
     4
 10
1605.859327
 20
1028.143636
 40
9.525000
  0
CIRCLE
  8
CSLAYER1
  6
CONTINUOUS
 62
     4
 10
1625.366195
 20
1053.194476
 40
9.525000
  0
ARC
  8
CSLAYER1
  6
CONTINUOUS
 62
     4
 10
1682.039569
 20
1126.108500
 40
32.500000
 50
-37.417672
 51
22.263747
  0
LINE
  8
CSLAYER1
  6
CONTINUOUS
 62
     4
 10
1707.851954
 20
1106.360823
 11
1604.556413
 21
971.342190
  0
LINE
  8
CSLAYER1
  6
CONTINUOUS
 62
     4
 10
1656.227183
 20
1145.856177
 11
1552.931642
 21
1010.837545
  0
ARC
  8
CSLAYER1
  6
CONTINUOUS
 62
     4
 10
1578.744027
 20
991.089868
 40
32.500000
 50
142.582328
 51
322.582328
  0
ARC
  8
CSLAYER1
  6
CONTINUOUS
 62
     4
 10
1578.744027
 20
991.089868
 40
59.000000
 50
280.806980
 51
322.582328
  0
POINT
  8
CSLAYER1
 62
     4
 10
1682.039569
 20
1126.108500
  0
ARC
  8
CSLAYER1
  6
CONTINUOUS
 62
     4
 10
1682.039569
 20
1126.108500
 40
32.500000
 50
22.263747
 51
46.753114
  0
ARC
  8
CSLAYER1
  6
CONTINUOUS
 62
     4
 10
1682.039569
 20
1126.108500
 40
32.500000
 50
46.753114
 51
142.582328
  0
ENDBLK
  8
0
  0
BLOCK
  8
CSLAYER1
  2
BLKF0002
 70
   64
 10
0.0
 20
0.0
 30
0.0
  0
LINE
  8
CSLAYER1
  6
CONTINUOUS
 62
     4
 10
1214.002084
 20
560.897387
 11
1220.023741
 21
556.374284
  0
LINE
  8
CSLAYER1
  6
CONTINUOUS
 62
     4
 10
1278.904376
 20
680.989053
 11
1286.711953
 21
691.383366
  0
LINE
  8
CSLAYER1
  6
CONTINUOUS
 62
     4
 10
1119.558231
 20
480.505123
 11
1158.317129
 21
451.391792
  0
LINE
  8
CSLAYER1
  6
CONTINUOUS
 62
     4
 10
1153.791453
 20
526.080188
 11
1177.778329
 21
508.062703
  0
LINE
  8
CSLAYER1
  6
CONTINUOUS
 62
     4
 10
1237.670427
 20
634.419090
 11
1257.020988
 21
619.884123
  0
LINE
  8
CSLAYER1
  6
CONTINUOUS
 62
     4
 10
1280.715234
 20
695.887737
 11
1295.179697
 21
685.022911
  0
LINE
  8
CSLAYER1
  6
CONTINUOUS
 62
     4
 10
1119.558231
 20
480.505123
 11
1153.791453
 21
526.080188
  0
LINE
  8
CSLAYER1
  6
CONTINUOUS
 62
     4
 10
1155.390578
 20
524.879022
 11
1242.475090
 21
640.815590
  0
LINE
  8
CSLAYER1
  6
CONTINUOUS
 62
     4
 10
1250.275379
 20
641.209906
 11
1279.703938
 21
680.388470
  0
LINE
  8
CSLAYER1
  6
CONTINUOUS
 62
     4
 10
1119.558231
 20
480.505123
 11
1129.145694
 21
463.298132
  0
LINE
  8
CSLAYER1
  6
CONTINUOUS
 62
     4
 10
1176.573519
 20
501.463579
 11
1184.265051
 21
495.686168
  0
LINE
  8
CSLAYER1
  6
CONTINUOUS
 62
     4
 10
1175.976580
 20
505.664015
 11
1221.320585
 21
566.030987
  0
LINE
  8
CSLAYER1
  6
CONTINUOUS
 62
     4
 10
1154.246867
 20
444.443655
 11
1129.145694
 21
463.298132
  0
ARC
  8
CSLAYER1
  6
CONTINUOUS
 62
     4
 10
1178.375268
 20
503.862267
 40
3.000000
 50
143.088348
 51
233.088348
  0
ARC
  8
CSLAYER1
  6
CONTINUOUS
 62
     4
 10
1223.719272
 20
564.229238
 40
3.000000
 50
53.088348
 51
143.088348
  0
LINE
  8
CSLAYER1
  6
CONTINUOUS
 62
     4
 10
1278.904376
 20
680.989053
 11
1288.565520
 21
673.732188
  0
LINE
  8
CSLAYER1
  6
CONTINUOUS
 62
     4
 10
1259.284122
 20
653.203344
 11
1271.266906
 21
644.202604
  0
LINE
  8
CSLAYER1
  6
CONTINUOUS
 62
     4
 10
1250.463428
 20
624.809764
 11
1257.020988
 21
619.884123
  0
LINE
  8
CSLAYER1
  6
CONTINUOUS
 62
     4
 10
1177.778329
 20
508.062703
 11
1240.187993
 21
591.149375
  0
LINE
  8
CSLAYER1
  6
CONTINUOUS
 62
     4
 10
1161.787078
 20
520.074360
 11
1244.399737
 21
630.057500
  0
LINE
  8
CSLAYER1
  6
CONTINUOUS
 62
     4
 10
1160.187953
 20
521.275525
 11
1242.800612
 21
631.258666
  0
ARC
  8
CSLAYER1
  6
CONTINUOUS
 62
     4
 10
1244.074215
 20
639.614425
 40
2.000000
 50
53.088348
 51
143.088348
  0
LINE
  8
CSLAYER1
  6
CONTINUOUS
 62
     4
 10
1304.738548
 20
727.870239
 11
1315.531008
 21
719.763598
  0
LINE
  8
CSLAYER1
  6
CONTINUOUS
 62
     4
 10
1279.974238
 20
680.185438
 11
1286.130869
 21
675.560950
  0
LINE
  8
CSLAYER1
  6
CONTINUOUS
 62
     4
 10
1311.960601
 20
722.445471
 11
1315.531008
 21
719.763598
  0
LINE
  8
CSLAYER1
  6
CONTINUOUS
 62
     4
 10
1278.773072
 20
678.586313
 11
1284.929704
 21
673.961825
  0
LINE
  8
CSLAYER1
  6
CONTINUOUS
 62
     4
 10
1278.773072
 20
678.586313
 11
1279.974238
 21
680.185438
  0
LINE
  8
CSLAYER1
  6
CONTINUOUS
 62
     4
 10
1275.828759
 20
672.668457
 11
1281.025915
 21
668.764668
  0
LINE
  8
CSLAYER1
  6
CONTINUOUS
 62
     4
 10
1314.915134
 20
726.378873
 11
1311.960601
 21
722.445471
  0
LINE
  8
CSLAYER1
  6
CONTINUOUS
 62
     4
 10
1317.915714
 20
724.125020
 11
1314.961180
 21
720.191617
  0
LINE
  8
CSLAYER1
  6
CONTINUOUS
 62
     4
 10
1275.828759
 20
672.668457
 11
1275.373428
 21
673.736566
  0
LINE
  8
CSLAYER1
  6
CONTINUOUS
 62
     4
 10
1316.067809
 20
726.239147
 11
1314.915134
 21
726.378873
  0
LINE
  8
CSLAYER1
  6
CONTINUOUS
 62
     4
 10
1278.928544
 20
678.469531
 11
1275.373428
 21
673.736566
  0
ARC
  8
CSLAYER1
  6
CONTINUOUS
 62
     4
 10
1278.493750
 20
674.766406
 40
3.285875
 50
208.401853
 51
268.052731
  0
ARC
  8
CSLAYER1
  6
CONTINUOUS
 62
     4
 10
1314.814916
 20
723.121174
 40
3.259241
 50
17.716730
 51
78.654247
  0
ARC
  8
CSLAYER1
  6
CONTINUOUS
 62
     4
 10
1288.484820
 20
678.694790
 40
12.419443
 50
215.500394
 51
233.088348
  0
LINE
  8
CSLAYER1
  6
CONTINUOUS
 62
     4
 10
1281.929124
 20
676.215678
 11
1278.374008
 21
671.482713
  0
LINE
  8
CSLAYER1
  6
CONTINUOUS
 62
     4
 10
1276.285319
 20
667.948123
 11
1278.923875
 21
665.966199
  0
LINE
  8
CSLAYER1
  6
CONTINUOUS
 62
     4
 10
1276.146033
 20
668.928224
 11
1277.827665
 21
671.167000
  0
LINE
  8
CSLAYER1
  6
CONTINUOUS
 62
     4
 10
1276.285319
 20
667.948123
 11
1278.387359
 21
670.746592
  0
LINE
  8
CSLAYER1
  6
CONTINUOUS
 62
     4
 10
1276.146033
 20
668.928224
 11
1276.285319
 21
667.948123
  0
LINE
  8
CSLAYER1
  6
CONTINUOUS
 62
     4
 10
1276.146033
 20
668.928224
 11
1279.344283
 21
666.525893
  0
LINE
  8
CSLAYER1
  6
CONTINUOUS
 62
     4
 10
1288.565520
 20
673.732188
 11
1286.130869
 21
675.560950
  0
LINE
  8
CSLAYER1
  6
CONTINUOUS
 62
     4
 10
1284.240867
 20
666.349792
 11
1281.025915
 21
668.764668
  0
ARC
  8
CSLAYER1
  6
CONTINUOUS
 62
     4
 10
1288.484820
 20
678.694790
 40
12.419443
 50
233.088348
 51
250.676302
  0
LINE
  8
CSLAYER1
  6
CONTINUOUS
 62
     4
 10
1285.428978
 20
668.377955
 11
1284.375167
 21
666.975006
  0
LINE
  8
CSLAYER1
  6
CONTINUOUS
 62
     4
 10
1281.562432
 20
663.984276
 11
1278.923875
 21
665.966199
  0
LINE
  8
CSLAYER1
  6
CONTINUOUS
 62
     4
 10
1282.542534
 20
664.123562
 11
1284.224165
 21
666.362337
  0
LINE
  8
CSLAYER1
  6
CONTINUOUS
 62
     4
 10
1281.562432
 20
663.984276
 11
1283.664472
 21
666.782745
  0
LINE
  8
CSLAYER1
  6
CONTINUOUS
 62
     4
 10
1282.542534
 20
664.123562
 11
1281.562432
 21
663.984276
  0
LINE
  8
CSLAYER1
  6
CONTINUOUS
 62
     4
 10
1282.542534
 20
664.123562
 11
1279.344283
 21
666.525893
  0
LINE
  8
CSLAYER1
  6
CONTINUOUS
 62
     4
 10
1284.858001
 20
676.517051
 11
1286.641215
 21
672.676242
  0
LINE
  8
CSLAYER1
  6
CONTINUOUS
 62
     4
 10
1280.715234
 20
695.887737
 11
1304.738548
 21
727.870239
  0
LINE
  8
CSLAYER1
  6
CONTINUOUS
 62
     4
 10
1316.067809
 20
726.239147
 11
1318.329313
 21
724.540442
  0
LINE
  8
CSLAYER1
  6
CONTINUOUS
 62
     4
 10
1245.275381
 20
641.213550
 11
1262.108816
 21
628.569295
  0
ARC
  8
CSLAYER1
  6
CONTINUOUS
 62
     4
 10
1247.876692
 20
643.011654
 40
3.000000
 50
233.088348
 51
323.088348
  0
ENDBLK
  8
0
  0
BLOCK
  8
CSLAYER1
  2
BLKF0003
 70
   64
 10
0.0
 20
0.0
 30
0.0
  0
LINE
  8
CSLAYER1
  6
CONTINUOUS
 62
     7
 10
738.543429
 20
652.934974
 11
738.509181
 21
653.407039
  0
LINE
  8
CSLAYER1
  6
CONTINUOUS
 62
     7
 10
738.509181
 20
653.407039
 11
738.406699
 21
653.875511
  0
LINE
  8
CSLAYER1
  6
CONTINUOUS
 62
     7
 10
738.406699
 20
653.875511
 11
738.236761
 21
654.336825
  0
LINE
  8
CSLAYER1
  6
CONTINUOUS
 62
     7
 10
738.236761
 20
654.336825
 11
738.000663
 21
654.787470
  0
LINE
  8
CSLAYER1
  6
CONTINUOUS
 62
     7
 10
738.000663
 20
654.787470
 11
737.700199
 21
655.224017
  0
LINE
  8
CSLAYER1
  6
CONTINUOUS
 62
     7
 10
737.700199
 20
655.224017
 11
737.337658
 21
655.643142
  0
LINE
  8
CSLAYER1
  6
CONTINUOUS
 62
     7
 10
737.337658
 20
655.643142
 11
736.915797
 21
656.041657
  0
LINE
  8
CSLAYER1
  6
CONTINUOUS
 62
     7
 10
736.915797
 20
656.041657
 11
736.437829
 21
656.416528
  0
LINE
  8
CSLAYER1
  6
CONTINUOUS
 62
     7
 10
736.437829
 20
656.416528
 11
735.907390
 21
656.764902
  0
LINE
  8
CSLAYER1
  6
CONTINUOUS
 62
     7
 10
735.907390
 20
656.764902
 11
735.328517
 21
657.084128
  0
LINE
  8
CSLAYER1
  6
CONTINUOUS
 62
     7
 10
735.328517
 20
657.084128
 11
734.705617
 21
657.371777
  0
LINE
  8
CSLAYER1
  6
CONTINUOUS
 62
     7
 10
734.705617
 20
657.371777
 11
734.043429
 21
657.625658
  0
LINE
  8
CSLAYER1
  6
CONTINUOUS
 62
     7
 10
734.043429
 20
657.625658
 11
733.346993
 21
657.843841
  0
LINE
  8
CSLAYER1
  6
CONTINUOUS
 62
     7
 10
733.346993
 20
657.843841
 11
732.621610
 21
658.024665
  0
LINE
  8
CSLAYER1
  6
CONTINUOUS
 62
     7
 10
732.621610
 20
658.024665
 11
731.872800
 21
658.166753
  0
LINE
  8
CSLAYER1
  6
CONTINUOUS
 62
     7
 10
731.872800
 20
658.166753
 11
731.106263
 21
658.269023
  0
LINE
  8
CSLAYER1
  6
CONTINUOUS
 62
     7
 10
731.106263
 20
658.269023
 11
730.327831
 21
658.330699
  0
LINE
  8
CSLAYER1
  6
CONTINUOUS
 62
     7
 10
730.327831
 20
658.330699
 11
729.543429
 21
658.351310
  0
LINE
  8
CSLAYER1
  6
CONTINUOUS
 62
     7
 10
729.543429
 20
658.351310
 11
728.759027
 21
658.330699
  0
LINE
  8
CSLAYER1
  6
CONTINUOUS
 62
     7
 10
728.759027
 20
658.330699
 11
727.980595
 21
658.269023
  0
LINE
  8
CSLAYER1
  6
CONTINUOUS
 62
     7
 10
727.980595
 20
658.269023
 11
727.214058
 21
658.166753
  0
LINE
  8
CSLAYER1
  6
CONTINUOUS
 62
     7
 10
727.214058
 20
658.166753
 11
726.465248
 21
658.024665
  0
LINE
  8
CSLAYER1
  6
CONTINUOUS
 62
     7
 10
726.465248
 20
658.024665
 11
725.739865
 21
657.843841
  0
LINE
  8
CSLAYER1
  6
CONTINUOUS
 62
     7
 10
725.739865
 20
657.843841
 11
725.043429
 21
657.625658
  0
LINE
  8
CSLAYER1
  6
CONTINUOUS
 62
     7
 10
725.043429
 20
657.625658
 11
724.381241
 21
657.371777
  0
LINE
  8
CSLAYER1
  6
CONTINUOUS
 62
     7
 10
724.381241
 20
657.371777
 11
723.758340
 21
657.084128
  0
LINE
  8
CSLAYER1
  6
CONTINUOUS
 62
     7
 10
723.758340
 20
657.084128
 11
723.179468
 21
656.764902
  0
LINE
  8
CSLAYER1
  6
CONTINUOUS
 62
     7
 10
723.179468
 20
656.764902
 11
722.649029
 21
656.416528
  0
LINE
  8
CSLAYER1
  6
CONTINUOUS
 62
     7
 10
722.649029
 20
656.416528
 11
722.171061
 21
656.041657
  0
LINE
  8
CSLAYER1
  6
CONTINUOUS
 62
     7
 10
722.171061
 20
656.041657
 11
721.749200
 21
655.643142
  0
LINE
  8
CSLAYER1
  6
CONTINUOUS
 62
     7
 10
721.749200
 20
655.643142
 11
721.386659
 21
655.224017
  0
LINE
  8
CSLAYER1
  6
CONTINUOUS
 62
     7
 10
721.386659
 20
655.224017
 11
721.086195
 21
654.787470
  0
LINE
  8
CSLAYER1
  6
CONTINUOUS
 62
     7
 10
721.086195
 20
654.787470
 11
720.850097
 21
654.336825
  0
LINE
  8
CSLAYER1
  6
CONTINUOUS
 62
     7
 10
720.850097
 20
654.336825
 11
720.680159
 21
653.875511
  0
LINE
  8
CSLAYER1
  6
CONTINUOUS
 62
     7
 10
720.680159
 20
653.875511
 11
720.577677
 21
653.407039
  0
LINE
  8
CSLAYER1
  6
CONTINUOUS
 62
     7
 10
720.577677
 20
653.407039
 11
720.543429
 21
652.934974
  0
LINE
  8
CSLAYER1
  6
CONTINUOUS
 62
     7
 10
720.543429
 20
652.934974
 11
720.577677
 21
652.462910
  0
LINE
  8
CSLAYER1
  6
CONTINUOUS
 62
     7
 10
720.577677
 20
652.462910
 11
720.680159
 21
651.994438
  0
LINE
  8
CSLAYER1
  6
CONTINUOUS
 62
     7
 10
720.680159
 20
651.994438
 11
720.850097
 21
651.533124
  0
LINE
  8
CSLAYER1
  6
CONTINUOUS
 62
     7
 10
720.850097
 20
651.533124
 11
721.086195
 21
651.082479
  0
LINE
  8
CSLAYER1
  6
CONTINUOUS
 62
     7
 10
721.086195
 20
651.082479
 11
721.386659
 21
650.645932
  0
LINE
  8
CSLAYER1
  6
CONTINUOUS
 62
     7
 10
721.386659
 20
650.645932
 11
721.749200
 21
650.226807
  0
LINE
  8
CSLAYER1
  6
CONTINUOUS
 62
     7
 10
721.749200
 20
650.226807
 11
722.171061
 21
649.828292
  0
LINE
  8
CSLAYER1
  6
CONTINUOUS
 62
     7
 10
722.171061
 20
649.828292
 11
722.649029
 21
649.453421
  0
LINE
  8
CSLAYER1
  6
CONTINUOUS
 62
     7
 10
722.649029
 20
649.453421
 11
723.179468
 21
649.105047
  0
LINE
  8
CSLAYER1
  6
CONTINUOUS
 62
     7
 10
723.179468
 20
649.105047
 11
723.758340
 21
648.785821
  0
LINE
  8
CSLAYER1
  6
CONTINUOUS
 62
     7
 10
723.758340
 20
648.785821
 11
724.381241
 21
648.498172
  0
LINE
  8
CSLAYER1
  6
CONTINUOUS
 62
     7
 10
724.381241
 20
648.498172
 11
725.043429
 21
648.244291
  0
LINE
  8
CSLAYER1
  6
CONTINUOUS
 62
     7
 10
725.043429
 20
648.244291
 11
725.739865
 21
648.026108
  0
LINE
  8
CSLAYER1
  6
CONTINUOUS
 62
     7
 10
725.739865
 20
648.026108
 11
726.465248
 21
647.845284
  0
LINE
  8
CSLAYER1
  6
CONTINUOUS
 62
     7
 10
726.465248
 20
647.845284
 11
727.214058
 21
647.703196
  0
LINE
  8
CSLAYER1
  6
CONTINUOUS
 62
     7
 10
727.214058
 20
647.703196
 11
727.980595
 21
647.600926
  0
LINE
  8
CSLAYER1
  6
CONTINUOUS
 62
     7
 10
727.980595
 20
647.600926
 11
728.759027
 21
647.539250
  0
LINE
  8
CSLAYER1
  6
CONTINUOUS
 62
     7
 10
728.759027
 20
647.539250
 11
729.543429
 21
647.518639
  0
LINE
  8
CSLAYER1
  6
CONTINUOUS
 62
     7
 10
729.543429
 20
647.518639
 11
730.327831
 21
647.539250
  0
LINE
  8
CSLAYER1
  6
CONTINUOUS
 62
     7
 10
730.327831
 20
647.539250
 11
731.106263
 21
647.600926
  0
LINE
  8
CSLAYER1
  6
CONTINUOUS
 62
     7
 10
731.106263
 20
647.600926
 11
731.872800
 21
647.703196
  0
LINE
  8
CSLAYER1
  6
CONTINUOUS
 62
     7
 10
731.872800
 20
647.703196
 11
732.621610
 21
647.845284
  0
LINE
  8
CSLAYER1
  6
CONTINUOUS
 62
     7
 10
732.621610
 20
647.845284
 11
733.346993
 21
648.026108
  0
LINE
  8
CSLAYER1
  6
CONTINUOUS
 62
     7
 10
733.346993
 20
648.026108
 11
734.043429
 21
648.244291
  0
LINE
  8
CSLAYER1
  6
CONTINUOUS
 62
     7
 10
734.043429
 20
648.244291
 11
734.705617
 21
648.498172
  0
LINE
  8
CSLAYER1
  6
CONTINUOUS
 62
     7
 10
734.705617
 20
648.498172
 11
735.328517
 21
648.785821
  0
LINE
  8
CSLAYER1
  6
CONTINUOUS
 62
     7
 10
735.328517
 20
648.785821
 11
735.907390
 21
649.105047
  0
LINE
  8
CSLAYER1
  6
CONTINUOUS
 62
     7
 10
735.907390
 20
649.105047
 11
736.437829
 21
649.453421
  0
LINE
  8
CSLAYER1
  6
CONTINUOUS
 62
     7
 10
736.437829
 20
649.453421
 11
736.915797
 21
649.828292
  0
LINE
  8
CSLAYER1
  6
CONTINUOUS
 62
     7
 10
736.915797
 20
649.828292
 11
737.337658
 21
650.226807
  0
LINE
  8
CSLAYER1
  6
CONTINUOUS
 62
     7
 10
737.337658
 20
650.226807
 11
737.700199
 21
650.645932
  0
LINE
  8
CSLAYER1
  6
CONTINUOUS
 62
     7
 10
737.700199
 20
650.645932
 11
738.000663
 21
651.082479
  0
LINE
  8
CSLAYER1
  6
CONTINUOUS
 62
     7
 10
738.000663
 20
651.082479
 11
738.236761
 21
651.533124
  0
LINE
  8
CSLAYER1
  6
CONTINUOUS
 62
     7
 10
738.236761
 20
651.533124
 11
738.406699
 21
651.994438
  0
LINE
  8
CSLAYER1
  6
CONTINUOUS
 62
     7
 10
738.406699
 20
651.994438
 11
738.509181
 21
652.462910
  0
LINE
  8
CSLAYER1
  6
CONTINUOUS
 62
     7
 10
738.509181
 20
652.462910
 11
738.543429
 21
652.934974
  0
LINE
  8
CSLAYER1
  6
CONTINUOUS
 62
     7
 10
738.543429
 20
658.351310
 11
738.509181
 21
658.823374
  0
LINE
  8
CSLAYER1
  6
CONTINUOUS
 62
     7
 10
738.509181
 20
658.823374
 11
738.406699
 21
659.291846
  0
LINE
  8
CSLAYER1
  6
CONTINUOUS
 62
     7
 10
738.406699
 20
659.291846
 11
738.236761
 21
659.753160
  0
LINE
  8
CSLAYER1
  6
CONTINUOUS
 62
     7
 10
738.236761
 20
659.753160
 11
738.000663
 21
660.203805
  0
LINE
  8
CSLAYER1
  6
CONTINUOUS
 62
     7
 10
738.000663
 20
660.203805
 11
737.700199
 21
660.640352
  0
LINE
  8
CSLAYER1
  6
CONTINUOUS
 62
     7
 10
737.700199
 20
660.640352
 11
737.337658
 21
661.059477
  0
LINE
  8
CSLAYER1
  6
CONTINUOUS
 62
     7
 10
737.337658
 20
661.059477
 11
736.915797
 21
661.457992
  0
LINE
  8
CSLAYER1
  6
CONTINUOUS
 62
     7
 10
736.915797
 20
661.457992
 11
736.437829
 21
661.832863
  0
LINE
  8
CSLAYER1
  6
CONTINUOUS
 62
     7
 10
736.437829
 20
661.832863
 11
735.907390
 21
662.181237
  0
LINE
  8
CSLAYER1
  6
CONTINUOUS
 62
     7
 10
735.907390
 20
662.181237
 11
735.328517
 21
662.500463
  0
LINE
  8
CSLAYER1
  6
CONTINUOUS
 62
     7
 10
735.328517
 20
662.500463
 11
734.705617
 21
662.788112
  0
LINE
  8
CSLAYER1
  6
CONTINUOUS
 62
     7
 10
734.705617
 20
662.788112
 11
734.043429
 21
663.041994
  0
LINE
  8
CSLAYER1
  6
CONTINUOUS
 62
     7
 10
734.043429
 20
663.041994
 11
733.346993
 21
663.260176
  0
LINE
  8
CSLAYER1
  6
CONTINUOUS
 62
     7
 10
733.346993
 20
663.260176
 11
732.621610
 21
663.441000
  0
LINE
  8
CSLAYER1
  6
CONTINUOUS
 62
     7
 10
732.621610
 20
663.441000
 11
731.872800
 21
663.583088
  0
LINE
  8
CSLAYER1
  6
CONTINUOUS
 62
     7
 10
731.872800
 20
663.583088
 11
731.106263
 21
663.685359
  0
LINE
  8
CSLAYER1
  6
CONTINUOUS
 62
     7
 10
731.106263
 20
663.685359
 11
730.327831
 21
663.747034
  0
LINE
  8
CSLAYER1
  6
CONTINUOUS
 62
     7
 10
730.327831
 20
663.747034
 11
729.543429
 21
663.767645
  0
LINE
  8
CSLAYER1
  6
CONTINUOUS
 62
     7
 10
729.543429
 20
663.767645
 11
728.759027
 21
663.747034
  0
LINE
  8
CSLAYER1
  6
CONTINUOUS
 62
     7
 10
728.759027
 20
663.747034
 11
727.980595
 21
663.685359
  0
LINE
  8
CSLAYER1
  6
CONTINUOUS
 62
     7
 10
727.980595
 20
663.685359
 11
727.214058
 21
663.583088
  0
LINE
  8
CSLAYER1
  6
CONTINUOUS
 62
     7
 10
727.214058
 20
663.583088
 11
726.465248
 21
663.441000
  0
LINE
  8
CSLAYER1
  6
CONTINUOUS
 62
     7
 10
726.465248
 20
663.441000
 11
725.739865
 21
663.260176
  0
LINE
  8
CSLAYER1
  6
CONTINUOUS
 62
     7
 10
725.739865
 20
663.260176
 11
725.043429
 21
663.041994
  0
LINE
  8
CSLAYER1
  6
CONTINUOUS
 62
     7
 10
725.043429
 20
663.041994
 11
724.381241
 21
662.788112
  0
LINE
  8
CSLAYER1
  6
CONTINUOUS
 62
     7
 10
724.381241
 20
662.788112
 11
723.758340
 21
662.500463
  0
LINE
  8
CSLAYER1
  6
CONTINUOUS
 62
     7
 10
723.758340
 20
662.500463
 11
723.179468
 21
662.181237
  0
LINE
  8
CSLAYER1
  6
CONTINUOUS
 62
     7
 10
723.179468
 20
662.181237
 11
722.649029
 21
661.832863
  0
LINE
  8
CSLAYER1
  6
CONTINUOUS
 62
     7
 10
722.649029
 20
661.832863
 11
722.171061
 21
661.457992
  0
LINE
  8
CSLAYER1
  6
CONTINUOUS
 62
     7
 10
722.171061
 20
661.457992
 11
721.749200
 21
661.059477
  0
LINE
  8
CSLAYER1
  6
CONTINUOUS
 62
     7
 10
721.749200
 20
661.059477
 11
721.386659
 21
660.640352
  0
LINE
  8
CSLAYER1
  6
CONTINUOUS
 62
     7
 10
721.386659
 20
660.640352
 11
721.086195
 21
660.203805
  0
LINE
  8
CSLAYER1
  6
CONTINUOUS
 62
     7
 10
721.086195
 20
660.203805
 11
720.850097
 21
659.753160
  0
LINE
  8
CSLAYER1
  6
CONTINUOUS
 62
     7
 10
720.850097
 20
659.753160
 11
720.680159
 21
659.291846
  0
LINE
  8
CSLAYER1
  6
CONTINUOUS
 62
     7
 10
720.680159
 20
659.291846
 11
720.577677
 21
658.823374
  0
LINE
  8
CSLAYER1
  6
CONTINUOUS
 62
     7
 10
720.577677
 20
658.823374
 11
720.543429
 21
658.351310
  0
LINE
  8
CSLAYER1
  6
CONTINUOUS
 62
     7
 10
738.543429
 20
658.351310
 11
738.543429
 21
652.462910
  0
LINE
  8
CSLAYER1
  6
CONTINUOUS
 62
     7
 10
720.543429
 20
658.351310
 11
720.543429
 21
652.462910
  0
ENDBLK
  8
0
  0
BLOCK
  8
CSLAYER1
  2
BLKF0004
 70
   64
 10
0.0
 20
0.0
 30
0.0
  0
LINE
  8
CSLAYER1
  6
CONTINUOUS
 62
     7
 10
370.543429
 20
652.934974
 11
370.577677
 21
653.407039
  0
LINE
  8
CSLAYER1
  6
CONTINUOUS
 62
     7
 10
370.577677
 20
653.407039
 11
370.680159
 21
653.875511
  0
LINE
  8
CSLAYER1
  6
CONTINUOUS
 62
     7
 10
370.680159
 20
653.875511
 11
370.850097
 21
654.336825
  0
LINE
  8
CSLAYER1
  6
CONTINUOUS
 62
     7
 10
370.850097
 20
654.336825
 11
371.086195
 21
654.787470
  0
LINE
  8
CSLAYER1
  6
CONTINUOUS
 62
     7
 10
371.086195
 20
654.787470
 11
371.386659
 21
655.224017
  0
LINE
  8
CSLAYER1
  6
CONTINUOUS
 62
     7
 10
371.386659
 20
655.224017
 11
371.749200
 21
655.643142
  0
LINE
  8
CSLAYER1
  6
CONTINUOUS
 62
     7
 10
371.749200
 20
655.643142
 11
372.171061
 21
656.041657
  0
LINE
  8
CSLAYER1
  6
CONTINUOUS
 62
     7
 10
372.171061
 20
656.041657
 11
372.649029
 21
656.416528
  0
LINE
  8
CSLAYER1
  6
CONTINUOUS
 62
     7
 10
372.649029
 20
656.416528
 11
373.179468
 21
656.764902
  0
LINE
  8
CSLAYER1
  6
CONTINUOUS
 62
     7
 10
373.179468
 20
656.764902
 11
373.758340
 21
657.084128
  0
LINE
  8
CSLAYER1
  6
CONTINUOUS
 62
     7
 10
373.758340
 20
657.084128
 11
374.381241
 21
657.371777
  0
LINE
  8
CSLAYER1
  6
CONTINUOUS
 62
     7
 10
374.381241
 20
657.371777
 11
375.043429
 21
657.625658
  0
LINE
  8
CSLAYER1
  6
CONTINUOUS
 62
     7
 10
375.043429
 20
657.625658
 11
375.739865
 21
657.843841
  0
LINE
  8
CSLAYER1
  6
CONTINUOUS
 62
     7
 10
375.739865
 20
657.843841
 11
376.465248
 21
658.024665
  0
LINE
  8
CSLAYER1
  6
CONTINUOUS
 62
     7
 10
376.465248
 20
658.024665
 11
377.214058
 21
658.166753
  0
LINE
  8
CSLAYER1
  6
CONTINUOUS
 62
     7
 10
377.214058
 20
658.166753
 11
377.980595
 21
658.269023
  0
LINE
  8
CSLAYER1
  6
CONTINUOUS
 62
     7
 10
377.980595
 20
658.269023
 11
378.759027
 21
658.330699
  0
LINE
  8
CSLAYER1
  6
CONTINUOUS
 62
     7
 10
378.759027
 20
658.330699
 11
379.543429
 21
658.351310
  0
LINE
  8
CSLAYER1
  6
CONTINUOUS
 62
     7
 10
379.543429
 20
658.351310
 11
380.327831
 21
658.330699
  0
LINE
  8
CSLAYER1
  6
CONTINUOUS
 62
     7
 10
380.327831
 20
658.330699
 11
381.106263
 21
658.269023
  0
LINE
  8
CSLAYER1
  6
CONTINUOUS
 62
     7
 10
381.106263
 20
658.269023
 11
381.872800
 21
658.166753
  0
LINE
  8
CSLAYER1
  6
CONTINUOUS
 62
     7
 10
381.872800
 20
658.166753
 11
382.621610
 21
658.024665
  0
LINE
  8
CSLAYER1
  6
CONTINUOUS
 62
     7
 10
382.621610
 20
658.024665
 11
383.346993
 21
657.843841
  0
LINE
  8
CSLAYER1
  6
CONTINUOUS
 62
     7
 10
383.346993
 20
657.843841
 11
384.043429
 21
657.625658
  0
LINE
  8
CSLAYER1
  6
CONTINUOUS
 62
     7
 10
384.043429
 20
657.625658
 11
384.705617
 21
657.371777
  0
LINE
  8
CSLAYER1
  6
CONTINUOUS
 62
     7
 10
384.705617
 20
657.371777
 11
385.328517
 21
657.084128
  0
LINE
  8
CSLAYER1
  6
CONTINUOUS
 62
     7
 10
385.328517
 20
657.084128
 11
385.907390
 21
656.764902
  0
LINE
  8
CSLAYER1
  6
CONTINUOUS
 62
     7
 10
385.907390
 20
656.764902
 11
386.437829
 21
656.416528
  0
LINE
  8
CSLAYER1
  6
CONTINUOUS
 62
     7
 10
386.437829
 20
656.416528
 11
386.915797
 21
656.041657
  0
LINE
  8
CSLAYER1
  6
CONTINUOUS
 62
     7
 10
386.915797
 20
656.041657
 11
387.337658
 21
655.643142
  0
LINE
  8
CSLAYER1
  6
CONTINUOUS
 62
     7
 10
387.337658
 20
655.643142
 11
387.700199
 21
655.224017
  0
LINE
  8
CSLAYER1
  6
CONTINUOUS
 62
     7
 10
387.700199
 20
655.224017
 11
388.000663
 21
654.787470
  0
LINE
  8
CSLAYER1
  6
CONTINUOUS
 62
     7
 10
388.000663
 20
654.787470
 11
388.236761
 21
654.336825
  0
LINE
  8
CSLAYER1
  6
CONTINUOUS
 62
     7
 10
388.236761
 20
654.336825
 11
388.406699
 21
653.875511
  0
LINE
  8
CSLAYER1
  6
CONTINUOUS
 62
     7
 10
388.406699
 20
653.875511
 11
388.509181
 21
653.407039
  0
LINE
  8
CSLAYER1
  6
CONTINUOUS
 62
     7
 10
388.509181
 20
653.407039
 11
388.543429
 21
652.934974
  0
LINE
  8
CSLAYER1
  6
CONTINUOUS
 62
     7
 10
388.543429
 20
652.934974
 11
388.509181
 21
652.462910
  0
LINE
  8
CSLAYER1
  6
CONTINUOUS
 62
     7
 10
388.509181
 20
652.462910
 11
388.406699
 21
651.994438
  0
LINE
  8
CSLAYER1
  6
CONTINUOUS
 62
     7
 10
388.406699
 20
651.994438
 11
388.236761
 21
651.533124
  0
LINE
  8
CSLAYER1
  6
CONTINUOUS
 62
     7
 10
388.236761
 20
651.533124
 11
388.000663
 21
651.082479
  0
LINE
  8
CSLAYER1
  6
CONTINUOUS
 62
     7
 10
388.000663
 20
651.082479
 11
387.700199
 21
650.645932
  0
LINE
  8
CSLAYER1
  6
CONTINUOUS
 62
     7
 10
387.700199
 20
650.645932
 11
387.337658
 21
650.226807
  0
LINE
  8
CSLAYER1
  6
CONTINUOUS
 62
     7
 10
387.337658
 20
650.226807
 11
386.915797
 21
649.828292
  0
LINE
  8
CSLAYER1
  6
CONTINUOUS
 62
     7
 10
386.915797
 20
649.828292
 11
386.437829
 21
649.453421
  0
LINE
  8
CSLAYER1
  6
CONTINUOUS
 62
     7
 10
386.437829
 20
649.453421
 11
385.907390
 21
649.105047
  0
LINE
  8
CSLAYER1
  6
CONTINUOUS
 62
     7
 10
385.907390
 20
649.105047
 11
385.328517
 21
648.785821
  0
LINE
  8
CSLAYER1
  6
CONTINUOUS
 62
     7
 10
385.328517
 20
648.785821
 11
384.705617
 21
648.498172
  0
LINE
  8
CSLAYER1
  6
CONTINUOUS
 62
     7
 10
384.705617
 20
648.498172
 11
384.043429
 21
648.244291
  0
LINE
  8
CSLAYER1
  6
CONTINUOUS
 62
     7
 10
384.043429
 20
648.244291
 11
383.346993
 21
648.026108
  0
LINE
  8
CSLAYER1
  6
CONTINUOUS
 62
     7
 10
383.346993
 20
648.026108
 11
382.621610
 21
647.845284
  0
LINE
  8
CSLAYER1
  6
CONTINUOUS
 62
     7
 10
382.621610
 20
647.845284
 11
381.872800
 21
647.703196
  0
LINE
  8
CSLAYER1
  6
CONTINUOUS
 62
     7
 10
381.872800
 20
647.703196
 11
381.106263
 21
647.600926
  0
LINE
  8
CSLAYER1
  6
CONTINUOUS
 62
     7
 10
381.106263
 20
647.600926
 11
380.327831
 21
647.539250
  0
LINE
  8
CSLAYER1
  6
CONTINUOUS
 62
     7
 10
380.327831
 20
647.539250
 11
379.543429
 21
647.518639
  0
LINE
  8
CSLAYER1
  6
CONTINUOUS
 62
     7
 10
379.543429
 20
647.518639
 11
378.759027
 21
647.539250
  0
LINE
  8
CSLAYER1
  6
CONTINUOUS
 62
     7
 10
378.759027
 20
647.539250
 11
377.980595
 21
647.600926
  0
LINE
  8
CSLAYER1
  6
CONTINUOUS
 62
     7
 10
377.980595
 20
647.600926
 11
377.214058
 21
647.703196
  0
LINE
  8
CSLAYER1
  6
CONTINUOUS
 62
     7
 10
377.214058
 20
647.703196
 11
376.465248
 21
647.845284
  0
LINE
  8
CSLAYER1
  6
CONTINUOUS
 62
     7
 10
376.465248
 20
647.845284
 11
375.739865
 21
648.026108
  0
LINE
  8
CSLAYER1
  6
CONTINUOUS
 62
     7
 10
375.739865
 20
648.026108
 11
375.043429
 21
648.244291
  0
LINE
  8
CSLAYER1
  6
CONTINUOUS
 62
     7
 10
375.043429
 20
648.244291
 11
374.381241
 21
648.498172
  0
LINE
  8
CSLAYER1
  6
CONTINUOUS
 62
     7
 10
374.381241
 20
648.498172
 11
373.758340
 21
648.785821
  0
LINE
  8
CSLAYER1
  6
CONTINUOUS
 62
     7
 10
373.758340
 20
648.785821
 11
373.179468
 21
649.105047
  0
LINE
  8
CSLAYER1
  6
CONTINUOUS
 62
     7
 10
373.179468
 20
649.105047
 11
372.649029
 21
649.453421
  0
LINE
  8
CSLAYER1
  6
CONTINUOUS
 62
     7
 10
372.649029
 20
649.453421
 11
372.171061
 21
649.828292
  0
LINE
  8
CSLAYER1
  6
CONTINUOUS
 62
     7
 10
372.171061
 20
649.828292
 11
371.749200
 21
650.226807
  0
LINE
  8
CSLAYER1
  6
CONTINUOUS
 62
     7
 10
371.749200
 20
650.226807
 11
371.386659
 21
650.645932
  0
LINE
  8
CSLAYER1
  6
CONTINUOUS
 62
     7
 10
371.386659
 20
650.645932
 11
371.086195
 21
651.082479
  0
LINE
  8
CSLAYER1
  6
CONTINUOUS
 62
     7
 10
371.086195
 20
651.082479
 11
370.850097
 21
651.533124
  0
LINE
  8
CSLAYER1
  6
CONTINUOUS
 62
     7
 10
370.850097
 20
651.533124
 11
370.680159
 21
651.994438
  0
LINE
  8
CSLAYER1
  6
CONTINUOUS
 62
     7
 10
370.680159
 20
651.994438
 11
370.577677
 21
652.462910
  0
LINE
  8
CSLAYER1
  6
CONTINUOUS
 62
     7
 10
370.577677
 20
652.462910
 11
370.543429
 21
652.934974
  0
LINE
  8
CSLAYER1
  6
CONTINUOUS
 62
     7
 10
370.543429
 20
658.351310
 11
370.577677
 21
658.823374
  0
LINE
  8
CSLAYER1
  6
CONTINUOUS
 62
     7
 10
370.577677
 20
658.823374
 11
370.680159
 21
659.291846
  0
LINE
  8
CSLAYER1
  6
CONTINUOUS
 62
     7
 10
370.680159
 20
659.291846
 11
370.850097
 21
659.753160
  0
LINE
  8
CSLAYER1
  6
CONTINUOUS
 62
     7
 10
370.850097
 20
659.753160
 11
371.086195
 21
660.203805
  0
LINE
  8
CSLAYER1
  6
CONTINUOUS
 62
     7
 10
371.086195
 20
660.203805
 11
371.386659
 21
660.640352
  0
LINE
  8
CSLAYER1
  6
CONTINUOUS
 62
     7
 10
371.386659
 20
660.640352
 11
371.749200
 21
661.059477
  0
LINE
  8
CSLAYER1
  6
CONTINUOUS
 62
     7
 10
371.749200
 20
661.059477
 11
372.171061
 21
661.457992
  0
LINE
  8
CSLAYER1
  6
CONTINUOUS
 62
     7
 10
372.171061
 20
661.457992
 11
372.649029
 21
661.832863
  0
LINE
  8
CSLAYER1
  6
CONTINUOUS
 62
     7
 10
372.649029
 20
661.832863
 11
373.179468
 21
662.181237
  0
LINE
  8
CSLAYER1
  6
CONTINUOUS
 62
     7
 10
373.179468
 20
662.181237
 11
373.758340
 21
662.500463
  0
LINE
  8
CSLAYER1
  6
CONTINUOUS
 62
     7
 10
373.758340
 20
662.500463
 11
374.381241
 21
662.788112
  0
LINE
  8
CSLAYER1
  6
CONTINUOUS
 62
     7
 10
374.381241
 20
662.788112
 11
375.043429
 21
663.041994
  0
LINE
  8
CSLAYER1
  6
CONTINUOUS
 62
     7
 10
375.043429
 20
663.041994
 11
375.739865
 21
663.260176
  0
LINE
  8
CSLAYER1
  6
CONTINUOUS
 62
     7
 10
375.739865
 20
663.260176
 11
376.465248
 21
663.441000
  0
LINE
  8
CSLAYER1
  6
CONTINUOUS
 62
     7
 10
376.465248
 20
663.441000
 11
377.214058
 21
663.583088
  0
LINE
  8
CSLAYER1
  6
CONTINUOUS
 62
     7
 10
377.214058
 20
663.583088
 11
377.980595
 21
663.685359
  0
LINE
  8
CSLAYER1
  6
CONTINUOUS
 62
     7
 10
377.980595
 20
663.685359
 11
378.759027
 21
663.747034
  0
LINE
  8
CSLAYER1
  6
CONTINUOUS
 62
     7
 10
378.759027
 20
663.747034
 11
379.543429
 21
663.767645
  0
LINE
  8
CSLAYER1
  6
CONTINUOUS
 62
     7
 10
379.543429
 20
663.767645
 11
380.327831
 21
663.747034
  0
LINE
  8
CSLAYER1
  6
CONTINUOUS
 62
     7
 10
380.327831
 20
663.747034
 11
381.106263
 21
663.685359
  0
LINE
  8
CSLAYER1
  6
CONTINUOUS
 62
     7
 10
381.106263
 20
663.685359
 11
381.872800
 21
663.583088
  0
LINE
  8
CSLAYER1
  6
CONTINUOUS
 62
     7
 10
381.872800
 20
663.583088
 11
382.621610
 21
663.441000
  0
LINE
  8
CSLAYER1
  6
CONTINUOUS
 62
     7
 10
382.621610
 20
663.441000
 11
383.346993
 21
663.260176
  0
LINE
  8
CSLAYER1
  6
CONTINUOUS
 62
     7
 10
383.346993
 20
663.260176
 11
384.043429
 21
663.041994
  0
LINE
  8
CSLAYER1
  6
CONTINUOUS
 62
     7
 10
384.043429
 20
663.041994
 11
384.705617
 21
662.788112
  0
LINE
  8
CSLAYER1
  6
CONTINUOUS
 62
     7
 10
384.705617
 20
662.788112
 11
385.328517
 21
662.500463
  0
LINE
  8
CSLAYER1
  6
CONTINUOUS
 62
     7
 10
385.328517
 20
662.500463
 11
385.907390
 21
662.181237
  0
LINE
  8
CSLAYER1
  6
CONTINUOUS
 62
     7
 10
385.907390
 20
662.181237
 11
386.437829
 21
661.832863
  0
LINE
  8
CSLAYER1
  6
CONTINUOUS
 62
     7
 10
386.437829
 20
661.832863
 11
386.915797
 21
661.457992
  0
LINE
  8
CSLAYER1
  6
CONTINUOUS
 62
     7
 10
386.915797
 20
661.457992
 11
387.337658
 21
661.059477
  0
LINE
  8
CSLAYER1
  6
CONTINUOUS
 62
     7
 10
387.337658
 20
661.059477
 11
387.700199
 21
660.640352
  0
LINE
  8
CSLAYER1
  6
CONTINUOUS
 62
     7
 10
387.700199
 20
660.640352
 11
388.000663
 21
660.203805
  0
LINE
  8
CSLAYER1
  6
CONTINUOUS
 62
     7
 10
388.000663
 20
660.203805
 11
388.236761
 21
659.753160
  0
LINE
  8
CSLAYER1
  6
CONTINUOUS
 62
     7
 10
388.236761
 20
659.753160
 11
388.406699
 21
659.291846
  0
LINE
  8
CSLAYER1
  6
CONTINUOUS
 62
     7
 10
388.406699
 20
659.291846
 11
388.509181
 21
658.823374
  0
LINE
  8
CSLAYER1
  6
CONTINUOUS
 62
     7
 10
388.509181
 20
658.823374
 11
388.543429
 21
658.351310
  0
LINE
  8
CSLAYER1
  6
CONTINUOUS
 62
     7
 10
370.543429
 20
658.351310
 11
370.543429
 21
652.462910
  0
LINE
  8
CSLAYER1
  6
CONTINUOUS
 62
     7
 10
388.543429
 20
658.351310
 11
388.543429
 21
652.462910
  0
ENDBLK
  8
0
  0
BLOCK
  8
CSLAYER1
  2
BLKF0005
 70
   64
 10
0.0
 20
0.0
 30
0.0
  0
LINE
  8
CSLAYER1
  6
CONTINUOUS
 62
     1
 10
467.043429
 20
364.813373
 11
467.043429
 21
362.613373
  0
LINE
  8
CSLAYER1
  6
CONTINUOUS
 62
     1
 10
474.043429
 20
364.813373
 11
474.043429
 21
362.613373
  0
LINE
  8
CSLAYER1
  6
CONTINUOUS
 62
     1
 10
474.043429
 20
363.613373
 11
467.043429
 21
363.613373
  0
LINE
  8
CSLAYER1
  6
CONTINUOUS
 62
     1
 10
472.643429
 20
366.213373
 11
468.443429
 21
366.213373
  0
LINE
  8
CSLAYER1
  6
CONTINUOUS
 62
     1
 10
475.043429
 20
362.613373
 11
475.043429
 21
361.813373
  0
LINE
  8
CSLAYER1
  6
CONTINUOUS
 62
     1
 10
466.043429
 20
362.613373
 11
466.043429
 21
361.813373
  0
LINE
  8
CSLAYER1
  6
CONTINUOUS
 62
     1
 10
474.043429
 20
364.813373
 11
474.043429
 21
363.613373
  0
LINE
  8
CSLAYER1
  6
CONTINUOUS
 62
     1
 10
475.043429
 20
362.613373
 11
466.043429
 21
362.613373
  0
ARC
  8
CSLAYER1
  6
CONTINUOUS
 62
     1
 10
472.643429
 20
364.813373
 40
1.400000
 50
-0.000000
 51
90.000000
  0
ARC
  8
CSLAYER1
  6
CONTINUOUS
 62
     1
 10
468.443429
 20
364.813373
 40
1.400000
 50
90.000000
 51
180.000000
  0
LINE
  8
CSLAYER1
  6
CONTINUOUS
 62
     1
 10
471.583381
 20
362.613373
 11
469.198179
 21
363.613373
  0
LINE
  8
CSLAYER1
  6
CONTINUOUS
 62
     1
 10
470.543429
 20
368.041722
 11
470.543429
 21
352.843544
  0
ENDBLK
  8
0
  0
BLOCK
  8
CSLAYER1
  2
BLKF0006
 70
   64
 10
0.0
 20
0.0
 30
0.0
  0
LINE
  8
CSLAYER1
  6
CONTINUOUS
 62
     1
 10
642.043429
 20
364.813373
 11
642.043429
 21
362.613373
  0
LINE
  8
CSLAYER1
  6
CONTINUOUS
 62
     1
 10
635.043429
 20
364.813373
 11
635.043429
 21
362.613373
  0
LINE
  8
CSLAYER1
  6
CONTINUOUS
 62
     1
 10
635.043429
 20
363.613373
 11
642.043429
 21
363.613373
  0
LINE
  8
CSLAYER1
  6
CONTINUOUS
 62
     1
 10
636.443429
 20
366.213373
 11
640.643429
 21
366.213373
  0
LINE
  8
CSLAYER1
  6
CONTINUOUS
 62
     1
 10
634.043429
 20
362.613373
 11
634.043429
 21
361.813373
  0
LINE
  8
CSLAYER1
  6
CONTINUOUS
 62
     1
 10
643.043429
 20
362.613373
 11
643.043429
 21
361.813373
  0
LINE
  8
CSLAYER1
  6
CONTINUOUS
 62
     1
 10
635.043429
 20
364.813373
 11
635.043429
 21
363.613373
  0
LINE
  8
CSLAYER1
  6
CONTINUOUS
 62
     1
 10
634.043429
 20
362.613373
 11
643.043429
 21
362.613373
  0
ARC
  8
CSLAYER1
  6
CONTINUOUS
 62
     1
 10
636.443429
 20
364.813373
 40
1.400000
 50
90.000000
 51
180.000000
  0
ARC
  8
CSLAYER1
  6
CONTINUOUS
 62
     1
 10
640.643429
 20
364.813373
 40
1.400000
 50
0.000000
 51
90.000000
  0
LINE
  8
CSLAYER1
  6
CONTINUOUS
 62
     1
 10
637.503477
 20
362.613373
 11
639.888679
 21
363.613373
  0
LINE
  8
CSLAYER1
  6
CONTINUOUS
 62
     1
 10
638.543429
 20
368.041722
 11
638.543429
 21
352.843544
  0
ENDBLK
  8
0
  0
BLOCK
  8
CSLAYER1
  2
BLKF0007
 70
   64
 10
0.0
 20
0.0
 30
0.0
  0
LINE
  8
CSLAYER1
  6
CONTINUOUS
 62
     3
 10
2736.872936
 20
1962.688691
 11
2736.872936
 21
2024.688691
  0
LINE
  8
CSLAYER1
  6
CONTINUOUS
 62
     3
 10
2739.372936
 20
1960.188691
 11
2824.372936
 21
1960.188691
  0
LINE
  8
CSLAYER1
  6
CENTER
 62
     5
 10
2678.523297
 20
2032.688691
 11
2736.872936
 21
2032.688691
  0
LINE
  8
CSLAYER1
  6
CONTINUOUS
 62
     2
 10
2739.372936
 20
2016.688691
 11
2824.372936
 21
2016.688691
  0
LINE
  8
CSLAYER1
  6
CONTINUOUS
 62
     3
 10
2739.372936
 20
1965.188691
 11
2739.372936
 21
2010.188691
  0
LINE
  8
CSLAYER1
  6
CONTINUOUS
 62
     3
 10
2826.872936
 20
1962.688691
 11
2826.872936
 21
2032.688691
  0
LINE
  8
CSLAYER1
  6
CONTINUOUS
 62
     3
 10
2741.872936
 20
1962.688691
 11
2818.872936
 21
1962.688691
  0
LINE
  8
CSLAYER1
  6
CONTINUOUS
 62
     3
 10
2741.872936
 20
2012.688691
 11
2818.872936
 21
2012.688691
  0
ARC
  8
CSLAYER1
  6
CONTINUOUS
 62
     3
 10
2764.804754
 20
1987.688691
 40
59.568182
 50
-24.814837
 51
24.814837
  0
ARC
  8
CSLAYER1
  6
CONTINUOUS
 62
     3
 10
2741.872936
 20
1965.188691
 40
2.500000
 50
180.000000
 51
270.000000
  0
ARC
  8
CSLAYER1
  6
CONTINUOUS
 62
     3
 10
2741.872936
 20
2010.188691
 40
2.500000
 50
90.000000
 51
180.000000
  0
ARC
  8
CSLAYER1
  6
CONTINUOUS
 62
     3
 10
2739.372936
 20
1962.688691
 40
2.500000
 50
180.000000
 51
270.000000
  0
ARC
  8
CSLAYER1
  6
CONTINUOUS
 62
     3
 10
2824.372936
 20
1962.688691
 40
2.500000
 50
270.000000
 51
360.000000
  0
ARC
  8
CSLAYER1
  6
CONTINUOUS
 62
     2
 10
2824.372936
 20
2019.188691
 40
2.500000
 50
270.000000
 51
360.000000
  0
ARC
  8
CSLAYER1
  6
CONTINUOUS
 62
     2
 10
2739.372936
 20
2019.188691
 40
2.500000
 50
180.000000
 51
270.000000
  0
LINE
  8
CSLAYER1
  6
CONTINUOUS
 62
     3
 10
2736.872936
 20
2102.688691
 11
2736.872936
 21
2040.688691
  0
LINE
  8
CSLAYER1
  6
CONTINUOUS
 62
     3
 10
2739.372936
 20
2105.188691
 11
2824.372936
 21
2105.188691
  0
LINE
  8
CSLAYER1
  6
CONTINUOUS
 62
     2
 10
2739.372936
 20
2048.688691
 11
2824.372936
 21
2048.688691
  0
LINE
  8
CSLAYER1
  6
CONTINUOUS
 62
     3
 10
2826.872936
 20
2102.688691
 11
2826.872936
 21
2032.688691
  0
ARC
  8
CSLAYER1
  6
CONTINUOUS
 62
     3
 10
2739.372936
 20
2102.688691
 40
2.500000
 50
90.000000
 51
180.000000
  0
ARC
  8
CSLAYER1
  6
CONTINUOUS
 62
     3
 10
2824.372936
 20
2102.688691
 40
2.500000
 50
0.000000
 51
90.000000
  0
ARC
  8
CSLAYER1
  6
CONTINUOUS
 62
     2
 10
2824.372936
 20
2046.188691
 40
2.500000
 50
0.000000
 51
90.000000
  0
ARC
  8
CSLAYER1
  6
CONTINUOUS
 62
     2
 10
2739.372936
 20
2046.188691
 40
2.500000
 50
90.000000
 51
180.000000
  0
LINE
  8
CSLAYER1
  6
CONTINUOUS
 62
     3
 10
2739.372936
 20
2100.188691
 11
2739.372936
 21
2055.188691
  0
LINE
  8
CSLAYER1
  6
CONTINUOUS
 62
     3
 10
2741.872936
 20
2102.688691
 11
2818.872936
 21
2102.688691
  0
LINE
  8
CSLAYER1
  6
CONTINUOUS
 62
     3
 10
2741.872936
 20
2052.688691
 11
2818.872936
 21
2052.688691
  0
ARC
  8
CSLAYER1
  6
CONTINUOUS
 62
     3
 10
2764.804754
 20
2077.688691
 40
59.568182
 50
-24.814837
 51
24.814837
  0
ARC
  8
CSLAYER1
  6
CONTINUOUS
 62
     3
 10
2741.872936
 20
2100.188691
 40
2.500000
 50
90.000000
 51
180.000000
  0
ARC
  8
CSLAYER1
  6
CONTINUOUS
 62
     3
 10
2741.872936
 20
2055.188691
 40
2.500000
 50
180.000000
 51
270.000000
  0
LINE
  8
CSLAYER1
  6
CONTINUOUS
 62
     3
 10
2729.872936
 20
2039.688691
 11
2729.872936
 21
2036.188691
  0
LINE
  8
CSLAYER1
  6
CONTINUOUS
 62
     3
 10
2678.523297
 20
2036.188691
 11
2729.872936
 21
2036.188691
  0
LINE
  8
CSLAYER1
  6
CONTINUOUS
 62
     3
 10
2730.872936
 20
2040.688691
 11
2736.872936
 21
2040.688691
  0
LINE
  8
CSLAYER1
  6
CONTINUOUS
 62
     3
 10
2730.872936
 20
2024.688691
 11
2736.872936
 21
2024.688691
  0
LINE
  8
CSLAYER1
  6
CONTINUOUS
 62
     3
 10
2678.523297
 20
2029.188691
 11
2729.872936
 21
2029.188691
  0
ARC
  8
CSLAYER1
  6
CONTINUOUS
 62
     3
 10
2730.872936
 20
2025.688691
 40
1.000000
 50
180.000000
 51
270.000000
  0
ARC
  8
CSLAYER1
  6
CONTINUOUS
 62
     3
 10
2730.872936
 20
2039.688691
 40
1.000000
 50
90.000000
 51
180.000000
  0
LINE
  8
CSLAYER1
  6
CONTINUOUS
 62
     3
 10
2729.872936
 20
2029.188691
 11
2729.872936
 21
2025.688691
  0
LINE
  8
CSLAYER1
  6
CONTINUOUS
 62
     2
 10
2729.872936
 20
2036.188691
 11
2729.872936
 21
2029.188691
  0
LINE
  8
CSLAYER1
  6
CONTINUOUS
 62
     2
 10
2736.872936
 20
2024.688691
 11
2736.872936
 21
2032.688691
  0
LINE
  8
CSLAYER1
  6
CONTINUOUS
 62
     2
 10
2736.872936
 20
2040.688691
 11
2736.872936
 21
2032.688691
  0
LINE
  8
CSLAYER1
  6
CONTINUOUS
 62
     2
 10
2756.365948
 20
2020.526031
 11
2747.230948
 21
2020.526031
  0
LINE
  8
CSLAYER1
  6
CONTINUOUS
 62
     2
 10
2756.365948
 20
2044.151031
 11
2747.230948
 21
2044.151031
  0
LINE
  8
CSLAYER1
  6
CONTINUOUS
 62
     2
 10
2745.970948
 20
2021.786031
 11
2745.970948
 21
2042.891031
  0
LINE
  8
CSLAYER1
  6
CONTINUOUS
 62
     2
 10
2757.625948
 20
2021.786031
 11
2757.625948
 21
2042.891031
  0
LINE
  8
CSLAYER1
  6
CONTINUOUS
 62
     2
 10
2755.735948
 20
2042.261031
 11
2747.703448
 21
2042.261031
  0
LINE
  8
CSLAYER1
  6
CONTINUOUS
 62
     2
 10
2755.735948
 20
2039.111031
 11
2754.790948
 21
2039.111031
  0
LINE
  8
CSLAYER1
  6
CONTINUOUS
 62
     2
 10
2755.735948
 20
2030.448531
 11
2754.790948
 21
2030.448531
  0
LINE
  8
CSLAYER1
  6
CONTINUOUS
 62
     2
 10
2755.735948
 20
2025.881031
 11
2750.695948
 21
2025.881031
  0
LINE
  8
CSLAYER1
  6
CONTINUOUS
 62
     2
 10
2756.838448
 20
2026.983531
 11
2756.838448
 21
2029.346031
  0
LINE
  8
CSLAYER1
  6
CONTINUOUS
 62
     2
 10
2749.593448
 20
2026.983531
 11
2749.593448
 21
2029.346031
  0
LINE
  8
CSLAYER1
  6
CONTINUOUS
 62
     2
 10
2746.600948
 20
2040.213531
 11
2746.600948
 21
2041.158531
  0
LINE
  8
CSLAYER1
  6
CONTINUOUS
 62
     2
 10
2753.845948
 20
2031.393531
 11
2753.845948
 21
2038.166031
  0
LINE
  8
CSLAYER1
  6
CONTINUOUS
 62
     2
 10
2753.058448
 20
2031.393531
 11
2753.058448
 21
2038.166031
  0
ARC
  8
CSLAYER1
  6
CONTINUOUS
 62
     2
 10
2755.735948
 20
2026.983531
 40
1.102500
 50
270.000000
 51
360.000000
  0
ARC
  8
CSLAYER1
  6
CONTINUOUS
 62
     2
 10
2750.695948
 20
2026.983531
 40
1.102500
 50
180.000000
 51
270.000000
  0
ARC
  8
CSLAYER1
  6
CONTINUOUS
 62
     2
 10
2750.695948
 20
2029.346031
 40
1.102500
 50
90.000000
 51
180.000000
  0
ARC
  8
CSLAYER1
  6
CONTINUOUS
 62
     2
 10
2755.735948
 20
2029.346031
 40
1.102500
 50
0.000000
 51
90.000000
  0
ARC
  8
CSLAYER1
  6
CONTINUOUS
 62
     2
 10
2747.703448
 20
2040.213531
 40
1.102500
 50
180.000000
 51
270.000000
  0
ARC
  8
CSLAYER1
  6
CONTINUOUS
 62
     2
 10
2747.703448
 20
2041.158531
 40
1.102500
 50
90.000000
 51
180.000000
  0
ARC
  8
CSLAYER1
  6
CONTINUOUS
 62
     2
 10
2755.735948
 20
2041.158531
 40
1.102500
 50
0.000000
 51
90.000000
  0
ARC
  8
CSLAYER1
  6
CONTINUOUS
 62
     2
 10
2755.735948
 20
2040.213531
 40
1.102500
 50
270.000000
 51
360.000000
  0
LINE
  8
CSLAYER1
  6
CONTINUOUS
 62
     2
 10
2752.113448
 20
2030.448531
 11
2750.695948
 21
2030.448531
  0
LINE
  8
CSLAYER1
  6
CONTINUOUS
 62
     2
 10
2752.113448
 20
2039.111031
 11
2747.703448
 21
2039.111031
  0
ARC
  8
CSLAYER1
  6
CONTINUOUS
 62
     2
 10
2754.790948
 20
2031.393531
 40
0.945000
 50
180.000000
 51
270.000000
  0
ARC
  8
CSLAYER1
  6
CONTINUOUS
 62
     2
 10
2752.113448
 20
2031.393531
 40
0.945000
 50
270.000000
 51
360.000000
  0
ARC
  8
CSLAYER1
  6
CONTINUOUS
 62
     2
 10
2752.113448
 20
2038.166031
 40
0.945000
 50
0.000000
 51
90.000000
  0
ARC
  8
CSLAYER1
  6
CONTINUOUS
 62
     2
 10
2756.365948
 20
2021.786031
 40
1.260000
 50
270.000000
 51
360.000000
  0
ARC
  8
CSLAYER1
  6
CONTINUOUS
 62
     2
 10
2747.230948
 20
2021.786031
 40
1.260000
 50
180.000000
 51
270.000000
  0
ARC
  8
CSLAYER1
  6
CONTINUOUS
 62
     2
 10
2747.230948
 20
2042.891031
 40
1.260000
 50
90.000000
 51
180.000000
  0
ARC
  8
CSLAYER1
  6
CONTINUOUS
 62
     2
 10
2756.365948
 20
2042.891031
 40
1.260000
 50
0.000000
 51
90.000000
  0
ARC
  8
CSLAYER1
  6
CONTINUOUS
 62
     2
 10
2754.790948
 20
2038.166031
 40
0.945000
 50
90.000000
 51
180.000000
  0
LINE
  8
CSLAYER1
  6
CONTINUOUS
 62
     2
 10
2756.838448
 20
2040.213531
 11
2756.838448
 21
2041.158531
  0
CIRCLE
  8
CSLAYER1
  6
CONTINUOUS
 62
     2
 10
2771.372936
 20
1982.688691
 40
2.500000
  0
CIRCLE
  8
CSLAYER1
  6
CONTINUOUS
 62
     2
 10
2771.372936
 20
1972.688691
 40
2.500000
  0
CIRCLE
  8
CSLAYER1
  6
CONTINUOUS
 62
     2
 10
2781.372936
 20
1972.688691
 40
2.500000
  0
CIRCLE
  8
CSLAYER1
  6
CONTINUOUS
 62
     2
 10
2781.372936
 20
1982.688691
 40
2.500000
  0
CIRCLE
  8
CSLAYER1
  6
CONTINUOUS
 62
     2
 10
2791.372936
 20
1982.688691
 40
2.500000
  0
CIRCLE
  8
CSLAYER1
  6
CONTINUOUS
 62
     2
 10
2791.372936
 20
1972.688691
 40
2.500000
  0
CIRCLE
  8
CSLAYER1
  6
CONTINUOUS
 62
     2
 10
2801.372936
 20
1972.688691
 40
2.500000
  0
CIRCLE
  8
CSLAYER1
  6
CONTINUOUS
 62
     2
 10
2801.372936
 20
1982.688691
 40
2.500000
  0
CIRCLE
  8
CSLAYER1
  6
CONTINUOUS
 62
     2
 10
2811.372936
 20
1982.688691
 40
2.500000
  0
CIRCLE
  8
CSLAYER1
  6
CONTINUOUS
 62
     2
 10
2811.372936
 20
1972.688691
 40
2.500000
  0
CIRCLE
  8
CSLAYER1
  6
CONTINUOUS
 62
     2
 10
2771.372936
 20
1992.688691
 40
2.500000
  0
CIRCLE
  8
CSLAYER1
  6
CONTINUOUS
 62
     2
 10
2771.372936
 20
2002.688691
 40
2.500000
  0
CIRCLE
  8
CSLAYER1
  6
CONTINUOUS
 62
     2
 10
2781.372936
 20
2002.688691
 40
2.500000
  0
CIRCLE
  8
CSLAYER1
  6
CONTINUOUS
 62
     2
 10
2781.372936
 20
1992.688691
 40
2.500000
  0
CIRCLE
  8
CSLAYER1
  6
CONTINUOUS
 62
     2
 10
2791.372936
 20
1992.688691
 40
2.500000
  0
CIRCLE
  8
CSLAYER1
  6
CONTINUOUS
 62
     2
 10
2791.372936
 20
2002.688691
 40
2.500000
  0
CIRCLE
  8
CSLAYER1
  6
CONTINUOUS
 62
     2
 10
2801.372936
 20
2002.688691
 40
2.500000
  0
CIRCLE
  8
CSLAYER1
  6
CONTINUOUS
 62
     2
 10
2801.372936
 20
1992.688691
 40
2.500000
  0
CIRCLE
  8
CSLAYER1
  6
CONTINUOUS
 62
     2
 10
2811.372936
 20
1992.688691
 40
2.500000
  0
CIRCLE
  8
CSLAYER1
  6
CONTINUOUS
 62
     2
 10
2811.372936
 20
2002.688691
 40
2.500000
  0
CIRCLE
  8
CSLAYER1
  6
CONTINUOUS
 62
     2
 10
2771.372936
 20
2082.688691
 40
2.500000
  0
CIRCLE
  8
CSLAYER1
  6
CONTINUOUS
 62
     2
 10
2771.372936
 20
2092.688691
 40
2.500000
  0
CIRCLE
  8
CSLAYER1
  6
CONTINUOUS
 62
     2
 10
2781.372936
 20
2092.688691
 40
2.500000
  0
CIRCLE
  8
CSLAYER1
  6
CONTINUOUS
 62
     2
 10
2781.372936
 20
2082.688691
 40
2.500000
  0
CIRCLE
  8
CSLAYER1
  6
CONTINUOUS
 62
     2
 10
2791.372936
 20
2082.688691
 40
2.500000
  0
CIRCLE
  8
CSLAYER1
  6
CONTINUOUS
 62
     2
 10
2791.372936
 20
2092.688691
 40
2.500000
  0
CIRCLE
  8
CSLAYER1
  6
CONTINUOUS
 62
     2
 10
2801.372936
 20
2092.688691
 40
2.500000
  0
CIRCLE
  8
CSLAYER1
  6
CONTINUOUS
 62
     2
 10
2801.372936
 20
2082.688691
 40
2.500000
  0
CIRCLE
  8
CSLAYER1
  6
CONTINUOUS
 62
     2
 10
2811.372936
 20
2082.688691
 40
2.500000
  0
CIRCLE
  8
CSLAYER1
  6
CONTINUOUS
 62
     2
 10
2811.372936
 20
2092.688691
 40
2.500000
  0
CIRCLE
  8
CSLAYER1
  6
CONTINUOUS
 62
     2
 10
2771.372936
 20
2072.688691
 40
2.500000
  0
CIRCLE
  8
CSLAYER1
  6
CONTINUOUS
 62
     2
 10
2771.372936
 20
2062.688691
 40
2.500000
  0
CIRCLE
  8
CSLAYER1
  6
CONTINUOUS
 62
     2
 10
2781.372936
 20
2062.688691
 40
2.500000
  0
CIRCLE
  8
CSLAYER1
  6
CONTINUOUS
 62
     2
 10
2781.372936
 20
2072.688691
 40
2.500000
  0
CIRCLE
  8
CSLAYER1
  6
CONTINUOUS
 62
     2
 10
2791.372936
 20
2072.688691
 40
2.500000
  0
CIRCLE
  8
CSLAYER1
  6
CONTINUOUS
 62
     2
 10
2791.372936
 20
2062.688691
 40
2.500000
  0
CIRCLE
  8
CSLAYER1
  6
CONTINUOUS
 62
     2
 10
2801.372936
 20
2062.688691
 40
2.500000
  0
CIRCLE
  8
CSLAYER1
  6
CONTINUOUS
 62
     2
 10
2801.372936
 20
2072.688691
 40
2.500000
  0
CIRCLE
  8
CSLAYER1
  6
CONTINUOUS
 62
     2
 10
2811.372936
 20
2072.688691
 40
2.500000
  0
CIRCLE
  8
CSLAYER1
  6
CONTINUOUS
 62
     2
 10
2811.372936
 20
2062.688691
 40
2.500000
  0
LINE
  8
CSLAYER1
  6
CONTINUOUS
 62
     2
 10
2745.372936
 20
2060.188691
 11
2745.372936
 21
2095.188691
  0
LINE
  8
CSLAYER1
  6
CONTINUOUS
 62
     2
 10
2761.372936
 20
2060.188691
 11
2761.372936
 21
2095.188691
  0
LINE
  8
CSLAYER1
  6
CONTINUOUS
 62
     2
 10
2746.872936
 20
2058.688691
 11
2759.872936
 21
2058.688691
  0
LINE
  8
CSLAYER1
  6
CONTINUOUS
 62
     2
 10
2746.372936
 20
2060.188691
 11
2746.372936
 21
2095.188691
  0
LINE
  8
CSLAYER1
  6
CONTINUOUS
 62
     2
 10
2760.372936
 20
2060.188691
 11
2760.372936
 21
2095.188691
  0
LINE
  8
CSLAYER1
  6
CONTINUOUS
 62
     2
 10
2746.872936
 20
2059.688691
 11
2759.872936
 21
2059.688691
  0
LINE
  8
CSLAYER1
  6
CONTINUOUS
 62
     2
 10
2746.872936
 20
2096.688691
 11
2759.872936
 21
2096.688691
  0
LINE
  8
CSLAYER1
  6
CONTINUOUS
 62
     2
 10
2746.872936
 20
2095.688691
 11
2759.872936
 21
2095.688691
  0
ARC
  8
CSLAYER1
  6
CONTINUOUS
 62
     2
 10
2746.872936
 20
2060.188691
 40
0.500000
 50
180.000000
 51
270.000000
  0
ARC
  8
CSLAYER1
  6
CONTINUOUS
 62
     2
 10
2759.872936
 20
2060.188691
 40
0.500000
 50
270.000000
 51
360.000000
  0
ARC
  8
CSLAYER1
  6
CONTINUOUS
 62
     2
 10
2746.872936
 20
2095.188691
 40
0.500000
 50
90.000000
 51
180.000000
  0
ARC
  8
CSLAYER1
  6
CONTINUOUS
 62
     2
 10
2759.872936
 20
2095.188691
 40
0.500000
 50
0.000000
 51
90.000000
  0
ARC
  8
CSLAYER1
  6
CONTINUOUS
 62
     2
 10
2746.872936
 20
2060.188691
 40
1.500000
 50
180.000000
 51
270.000000
  0
ARC
  8
CSLAYER1
  6
CONTINUOUS
 62
     2
 10
2759.872936
 20
2060.188691
 40
1.500000
 50
270.000000
 51
360.000000
  0
ARC
  8
CSLAYER1
  6
CONTINUOUS
 62
     2
 10
2746.872936
 20
2095.188691
 40
1.500000
 50
90.000000
 51
180.000000
  0
ARC
  8
CSLAYER1
  6
CONTINUOUS
 62
     2
 10
2759.872936
 20
2095.188691
 40
1.500000
 50
0.000000
 51
90.000000
  0
LINE
  8
CSLAYER1
  6
CONTINUOUS
 62
     2
 10
2750.372936
 20
2068.688691
 11
2750.372936
 21
2086.688691
  0
LINE
  8
CSLAYER1
  6
CONTINUOUS
 62
     2
 10
2747.294864
 20
2077.688691
 11
2750.372936
 21
2086.688691
  0
LINE
  8
CSLAYER1
  6
CONTINUOUS
 62
     2
 10
2747.294864
 20
2077.688691
 11
2750.372936
 21
2068.688691
  0
TEXT
  8
CSLAYER1
 62
     2
 10
2758.666574
 20
2068.708809
 40
7.066058
 41
1.574983
  1
UP
 50
90.000000
 51
0.000000
  7
EASYDRAW_FONT
 72
     5
 11
2758.666574
 21
2087.257012
  0
LINE
  8
CSLAYER1
  6
CONTINUOUS
 62
     2
 10
2745.372936
 20
2005.188691
 11
2745.372936
 21
1970.188691
  0
LINE
  8
CSLAYER1
  6
CONTINUOUS
 62
     2
 10
2761.372936
 20
2005.188691
 11
2761.372936
 21
1970.188691
  0
LINE
  8
CSLAYER1
  6
CONTINUOUS
 62
     2
 10
2746.872936
 20
2006.688691
 11
2759.872936
 21
2006.688691
  0
LINE
  8
CSLAYER1
  6
CONTINUOUS
 62
     2
 10
2746.372936
 20
2005.188691
 11
2746.372936
 21
1970.188691
  0
LINE
  8
CSLAYER1
  6
CONTINUOUS
 62
     2
 10
2760.372936
 20
2005.188691
 11
2760.372936
 21
1970.188691
  0
LINE
  8
CSLAYER1
  6
CONTINUOUS
 62
     2
 10
2746.872936
 20
2005.688691
 11
2759.872936
 21
2005.688691
  0
LINE
  8
CSLAYER1
  6
CONTINUOUS
 62
     2
 10
2746.872936
 20
1968.688691
 11
2759.872936
 21
1968.688691
  0
LINE
  8
CSLAYER1
  6
CONTINUOUS
 62
     2
 10
2746.872936
 20
1969.688691
 11
2759.872936
 21
1969.688691
  0
ARC
  8
CSLAYER1
  6
CONTINUOUS
 62
     2
 10
2746.872936
 20
2005.188691
 40
0.500000
 50
90.000000
 51
180.000000
  0
ARC
  8
CSLAYER1
  6
CONTINUOUS
 62
     2
 10
2759.872936
 20
2005.188691
 40
0.500000
 50
0.000000
 51
90.000000
  0
ARC
  8
CSLAYER1
  6
CONTINUOUS
 62
     2
 10
2746.872936
 20
1970.188691
 40
0.500000
 50
180.000000
 51
270.000000
  0
ARC
  8
CSLAYER1
  6
CONTINUOUS
 62
     2
 10
2759.872936
 20
1970.188691
 40
0.500000
 50
270.000000
 51
360.000000
  0
ARC
  8
CSLAYER1
  6
CONTINUOUS
 62
     2
 10
2746.872936
 20
2005.188691
 40
1.500000
 50
90.000000
 51
180.000000
  0
ARC
  8
CSLAYER1
  6
CONTINUOUS
 62
     2
 10
2759.872936
 20
2005.188691
 40
1.500000
 50
0.000000
 51
90.000000
  0
ARC
  8
CSLAYER1
  6
CONTINUOUS
 62
     2
 10
2746.872936
 20
1970.188691
 40
1.500000
 50
180.000000
 51
270.000000
  0
ARC
  8
CSLAYER1
  6
CONTINUOUS
 62
     2
 10
2759.872936
 20
1970.188691
 40
1.500000
 50
270.000000
 51
360.000000
  0
LINE
  8
CSLAYER1
  6
CONTINUOUS
 62
     2
 10
2755.845866
 20
1996.688691
 11
2755.845866
 21
1978.688691
  0
LINE
  8
CSLAYER1
  6
CONTINUOUS
 62
     2
 10
2758.923938
 20
1987.688691
 11
2755.845866
 21
1978.688691
  0
LINE
  8
CSLAYER1
  6
CONTINUOUS
 62
     2
 10
2758.923938
 20
1987.688691
 11
2755.845866
 21
1996.688691
  0
TEXT
  8
CSLAYER1
 62
     2
 10
2754.235733
 20
1972.990996
 40
6.383575
 41
1.255870
  1
DOWN
 50
90.000000
 51
0.000000
  7
EASYDRAW_FONT
 72
     5
 11
2754.235733
 21
2002.386445
  0
ENDBLK
  8
0
  0
ENDSEC
  0
SECTION
  2
ENTITIES
  0
LINE
  8
CSLAYER1
  6
CONTINUOUS
 62
     3
 10
118.051807
 20
2400.454119
 11
118.051807
 21
51.907189
  0
LINE
  8
CSLAYER1
  6
CONTINUOUS
 62
     3
 10
3440.625117
 20
2400.454119
 11
118.051807
 21
2400.454119
  0
LINE
  8
CSLAYER1
  6
CONTINUOUS
 62
     3
 10
3440.625117
 20
2400.454119
 11
3440.625117
 21
51.907189
  0
LINE
  8
CSLAYER1
  6
CONTINUOUS
 62
     3
 10
3440.625117
 20
51.907189
 11
118.051807
 21
51.907189
  0
LINE
  8
CSLAYER1
  6
CONTINUOUS
 62
     5
 10
68.051807
 20
1211.907189
 11
18.051807
 21
1211.907189
  0
LINE
  8
CSLAYER1
  6
CONTINUOUS
 62
     5
 10
2640.625117
 20
491.907189
 11
3440.625117
 21
491.907189
  0
LINE
  8
CSLAYER1
  6
CONTINUOUS
 62
     5
 10
2640.625117
 20
131.907189
 11
3440.625117
 21
131.907189
  0
LINE
  8
CSLAYER1
  6
CONTINUOUS
 62
     5
 10
2640.625117
 20
291.907189
 11
3440.625117
 21
291.907189
  0
LINE
  8
CSLAYER1
  6
CONTINUOUS
 62
     5
 10
2640.625117
 20
351.907189
 11
3440.625117
 21
351.907189
  0
LINE
  8
CSLAYER1
  6
CONTINUOUS
 62
     5
 10
2640.625117
 20
411.907189
 11
3440.625117
 21
411.907189
  0
LINE
  8
CSLAYER1
  6
CONTINUOUS
 62
     5
 10
2640.625117
 20
571.907189
 11
3440.625117
 21
571.907189
  0
LINE
  8
CSLAYER1
  6
CONTINUOUS
 62
     5
 10
2640.625117
 20
651.907189
 11
2640.625117
 21
51.907189
  0
LINE
  8
CSLAYER1
  6
CONTINUOUS
 62
     5
 10
2840.625117
 20
651.907189
 11
2840.625117
 21
411.907189
  0
LINE
  8
CSLAYER1
  6
CONTINUOUS
 62
     5
 10
2640.625117
 20
651.907189
 11
3440.625117
 21
651.907189
  0
LINE
  8
CSLAYER1
  6
CONTINUOUS
 62
     5
 10
3140.625117
 20
411.907189
 11
3140.625117
 21
131.907189
  0
TEXT
  8
CSLAYER1
 62
     3
 10
2860.316219
 20
60.469913
 40
59.380363
 41
1.003345
  1
東正車輌株式会社
 50
0.000000
 51
0.000000
  7
EASYDRAW_FONT
 72
     5
 11
3317.088566
 21
60.469913
  0
LINE
  8
CSLAYER1
  6
CONTINUOUS
 62
     5
 10
2890.625117
 20
351.907189
 11
2890.625117
 21
131.907189
  0
TEXT
  8
CSLAYER1
 62
     5
 10
2670.625000
 20
586.907166
 40
50.000000
 41
1.050000
  1
品　名
 50
0.000000
 51
0.000000
  7
EASYDRAW_FONT
 72
     5
 11
2810.625000
 21
586.907166
  0
TEXT
  8
CSLAYER1
 62
     5
 10
2670.625000
 20
506.907166
 40
50.000000
 41
1.050000
  1
型　式
 50
0.000000
 51
0.000000
  7
EASYDRAW_FONT
 72
     5
 11
2810.625000
 21
506.907166
  0
TEXT
  8
CSLAYER1
 62
     5
 10
2645.625000
 20
426.907196
 40
50.000000
 41
1.036364
  1
図面番号
 50
0.000000
 51
0.000000
  7
EASYDRAW_FONT
 72
     5
 11
2835.625000
 21
426.907196
  0
TEXT
  8
CSLAYER1
 62
     5
 10
2690.625000
 20
356.907196
 40
50.000000
 41
0.827586
  1
平成２８年４月１６日
 50
0.000000
 51
0.000000
  7
EASYDRAW_FONT
 72
     5
 11
3090.625000
 21
356.907196
  0
TEXT
  8
CSLAYER1
 62
     5
 10
3220.625000
 20
356.907196
 40
50.000000
 41
1.050000
  1
Ｂ－４
 50
0.000000
 51
0.000000
  7
EASYDRAW_FONT
 72
     5
 11
3360.625000
 21
356.907196
  0
TEXT
  8
CSLAYER1
 62
     5
 10
2695.625000
 20
296.907196
 40
50.000000
 41
1.050000
  1
検　図
 50
0.000000
 51
0.000000
  7
EASYDRAW_FONT
 72
     5
 11
2835.625000
 21
296.907196
  0
TEXT
  8
CSLAYER1
 62
     5
 10
2945.625000
 20
296.907196
 40
50.000000
 41
1.050000
  1
作　図
 50
0.000000
 51
0.000000
  7
EASYDRAW_FONT
 72
     5
 11
3085.625000
 21
296.907196
  0
TEXT
  8
CSLAYER1
 62
     5
 10
3220.625000
 20
296.907196
 40
50.000000
 41
1.050000
  1
尺　度
 50
0.000000
 51
0.000000
  7
EASYDRAW_FONT
 72
     5
 11
3360.625000
 21
296.907196
  0
TEXT
  8
CSLAYER1
 62
     5
 10
3321.363770
 20
146.392456
 40
50.000000
 41
1.080000
  1
１０
 50
0.000000
 51
0.000000
  7
EASYDRAW_FONT
 72
     5
 11
3411.363770
 21
146.392456
  0
TEXT
  8
CSLAYER1
 62
     5
 10
3301.044189
 20
194.097153
 40
50.000000
 41
1.200000
  1
／
 50
0.000000
 51
0.000000
  7
EASYDRAW_FONT
 72
     5
 11
3341.044189
 21
194.097153
  0
TEXT
  8
CSLAYER1
 62
     5
 10
3270.831299
 20
229.080597
 40
50.000000
 41
1.200000
  1
１
 50
0.000000
 51
0.000000
  7
EASYDRAW_FONT
 72
     5
 11
3310.831299
 21
229.080597
  0
TEXT
  8
CSLAYER1
 62
     3
 10
2980.625000
 20
586.907166
 40
50.000000
 41
0.834783
  1
ゴールドリフター
 50
0.000000
 51
0.000000
  7
EASYDRAW_FONT
 72
     5
 11
3300.625000
 21
586.907166
  0
TEXT
  8
CSLAYER1
 62
     3
 10
2900.625000
 20
506.907166
 40
50.000000
 41
0.822857
  1
ＧＬＩ－５００－０８１２
 50
0.000000
 51
0.000000
  7
EASYDRAW_FONT
 72
     5
 11
3380.625000
 21
506.907166
  0
TEXT
  8
CSLAYER1
 62
     3
 10
3040.625000
 20
426.907196
 40
50.000000
 41
0.857143
  1
GI-26
 50
0.000000
 51
0.000000
  7
EASYDRAW_FONT
 72
     5
 11
3240.625000
 21
426.907196
  0
INSERT
  8
CSLAYER1
  2
BLKF0000
 10
0.0
 20
0.0
 30
0.0
  0
LINE
  8
CSLAYER1
  6
CONTINUOUS
 62
     5
 10
1102.354803
 20
1176.984602
 11
1129.554803
 21
1176.984602
  0
LINE
  8
CSLAYER1
  6
CONTINUOUS
 62
     5
 10
1115.954803
 20
1190.584602
 11
1115.954803
 21
1163.384602
  0
CIRCLE
  8
CSLAYER1
  6
CONTINUOUS
 62
     4
 10
1115.954803
 20
1176.984602
 40
8.000000
  0
CIRCLE
  8
CSLAYER1
  6
CONTINUOUS
 62
     4
 10
1342.699549
 20
674.342560
 40
14.000000
  0
LINE
  8
CSLAYER1
  6
CONTINUOUS
 62
     4
 10
904.543429
 20
324.795157
 11
904.543429
 21
260.513373
  0
LINE
  8
CSLAYER1
  6
CONTINUOUS
 62
     4
 10
951.543429
 20
1301.184602
 11
157.543429
 21
1301.184602
  0
LINE
  8
CSLAYER1
  6
CONTINUOUS
 62
     4
 10
954.543429
 20
1298.184602
 11
954.543429
 21
1248.184602
  0
LINE
  8
CSLAYER1
  6
CENTER
 62
     5
 10
791.512436
 20
1122.297472
 11
317.574422
 21
1122.297472
  0
POINT
  8
CSLAYER1
 62
     4
 10
729.543429
 20
1034.714780
  0
LINE
  8
CSLAYER1
  6
CONTINUOUS
 62
     5
 10
743.668805
 20
1034.714782
 11
715.429715
 21
1034.714782
  0
LINE
  8
CSLAYER1
  6
CONTINUOUS
 62
     4
 10
738.043429
 20
1059.714782
 11
738.043429
 21
1100.297472
  0
LINE
  8
CSLAYER1
  6
CONTINUOUS
 62
     4
 10
739.543429
 20
1051.714782
 11
739.543429
 21
1100.297472
  0
LINE
  8
CSLAYER1
  6
CONTINUOUS
 62
     4
 10
739.543429
 20
1059.714782
 11
719.543429
 21
1059.714782
  0
LINE
  8
CSLAYER1
  6
CONTINUOUS
 62
     4
 10
738.043429
 20
1059.714782
 11
739.543429
 21
1057.116705
  0
LINE
  8
CSLAYER1
  6
CONTINUOUS
 62
     4
 10
721.043429
 20
1059.714782
 11
721.043429
 21
1100.297472
  0
LINE
  8
CSLAYER1
  6
CONTINUOUS
 62
     4
 10
721.043429
 20
1059.714782
 11
719.543429
 21
1057.116705
  0
LINE
  8
CSLAYER1
  6
CONTINUOUS
 62
     4
 10
719.543429
 20
1051.714782
 11
719.543429
 21
1100.297472
  0
LINE
  8
CSLAYER1
  6
CONTINUOUS
 62
     4
 10
717.018429
 20
1049.714780
 11
742.068429
 21
1049.714780
  0
POINT
  8
CSLAYER1
 62
     4
 10
729.543429
 20
1002.964780
  0
LINE
  8
CSLAYER1
  6
CONTINUOUS
 62
     4
 10
743.068429
 20
1048.714780
 11
743.068429
 21
956.164780
  0
LINE
  8
CSLAYER1
  6
CONTINUOUS
 62
     4
 10
739.068429
 20
1018.014780
 11
739.068429
 21
956.164780
  0
LINE
  8
CSLAYER1
  6
CONTINUOUS
 62
     4
 10
739.068429
 20
1018.014780
 11
743.068429
 21
1018.014780
  0
LINE
  8
CSLAYER1
  6
CONTINUOUS
 62
     4
 10
738.068429
 20
993.439780
 11
721.018429
 21
993.439780
  0
LINE
  8
CSLAYER1
  6
CONTINUOUS
 62
     4
 10
738.068429
 20
1012.489780
 11
721.018429
 21
1012.489780
  0
ARC
  8
CSLAYER1
  6
CONTINUOUS
 62
     4
 10
738.068429
 20
994.439780
 40
1.000000
 50
270.000000
 51
360.000000
  0
ARC
  8
CSLAYER1
  6
CONTINUOUS
 62
     4
 10
738.068429
 20
1011.489780
 40
1.000000
 50
0.000000
 51
90.000000
  0
LINE
  8
CSLAYER1
  6
CONTINUOUS
 62
     4
 10
716.018429
 20
1048.714780
 11
716.018429
 21
955.464780
  0
LINE
  8
CSLAYER1
  6
CONTINUOUS
 62
     4
 10
720.018429
 20
1018.014780
 11
720.018429
 21
956.164780
  0
LINE
  8
CSLAYER1
  6
CONTINUOUS
 62
     4
 10
720.018429
 20
1018.014780
 11
716.018429
 21
1018.014780
  0
ARC
  8
CSLAYER1
  6
CONTINUOUS
 62
     4
 10
721.018429
 20
994.439780
 40
1.000000
 50
180.000000
 51
270.000000
  0
ARC
  8
CSLAYER1
  6
CONTINUOUS
 62
     4
 10
721.018429
 20
1011.489780
 40
1.000000
 50
90.000000
 51
180.000000
  0
LINE
  8
CSLAYER1
  6
CONTINUOUS
 62
     4
 10
749.293429
 20
999.194780
 11
749.293429
 21
1006.744506
  0
LINE
  8
CSLAYER1
  6
CONTINUOUS
 62
     4
 10
743.068429
 20
989.964780
 11
747.443429
 21
989.964780
  0
LINE
  8
CSLAYER1
  6
CONTINUOUS
 62
     4
 10
743.068429
 20
1047.714780
 11
747.443429
 21
1047.714780
  0
LINE
  8
CSLAYER1
  6
CONTINUOUS
 62
     4
 10
747.443429
 20
998.194780
 11
748.293429
 21
998.194780
  0
LINE
  8
CSLAYER1
  6
CONTINUOUS
 62
     4
 10
747.443429
 20
1007.744506
 11
748.293429
 21
1007.744506
  0
ARC
  8
CSLAYER1
  6
CONTINUOUS
 62
     4
 10
748.293429
 20
999.194780
 40
1.000000
 50
270.000000
 51
360.000000
  0
ARC
  8
CSLAYER1
  6
CONTINUOUS
 62
     4
 10
748.293429
 20
1006.744506
 40
1.000000
 50
0.000000
 51
90.000000
  0
LINE
  8
CSLAYER1
  6
CONTINUOUS
 62
     4
 10
749.293429
 20
1030.944780
 11
749.293429
 21
1038.494506
  0
LINE
  8
CSLAYER1
  6
CONTINUOUS
 62
     4
 10
747.443429
 20
1029.944780
 11
748.293429
 21
1029.944780
  0
LINE
  8
CSLAYER1
  6
CONTINUOUS
 62
     4
 10
747.443429
 20
1039.494506
 11
748.293429
 21
1039.494506
  0
ARC
  8
CSLAYER1
  6
CONTINUOUS
 62
     4
 10
748.293429
 20
1030.944780
 40
1.000000
 50
270.000000
 51
360.000000
  0
ARC
  8
CSLAYER1
  6
CONTINUOUS
 62
     4
 10
748.293429
 20
1038.494506
 40
1.000000
 50
0.000000
 51
90.000000
  0
LINE
  8
CSLAYER1
  6
CONTINUOUS
 62
     4
 10
709.793429
 20
999.194780
 11
709.793429
 21
1006.744506
  0
LINE
  8
CSLAYER1
  6
CONTINUOUS
 62
     4
 10
716.018429
 20
989.964780
 11
711.643429
 21
989.964780
  0
LINE
  8
CSLAYER1
  6
CONTINUOUS
 62
     4
 10
716.018429
 20
1047.714780
 11
711.643429
 21
1047.714780
  0
LINE
  8
CSLAYER1
  6
CONTINUOUS
 62
     4
 10
711.643429
 20
998.194780
 11
710.793429
 21
998.194780
  0
LINE
  8
CSLAYER1
  6
CONTINUOUS
 62
     4
 10
711.643429
 20
1007.744506
 11
710.793429
 21
1007.744506
  0
ARC
  8
CSLAYER1
  6
CONTINUOUS
 62
     4
 10
710.793429
 20
999.194780
 40
1.000000
 50
180.000000
 51
270.000000
  0
ARC
  8
CSLAYER1
  6
CONTINUOUS
 62
     4
 10
710.793429
 20
1006.744506
 40
1.000000
 50
90.000000
 51
180.000000
  0
LINE
  8
CSLAYER1
  6
CONTINUOUS
 62
     4
 10
706.693429
 20
1030.944780
 11
706.693429
 21
1038.494506
  0
LINE
  8
CSLAYER1
  6
CONTINUOUS
 62
     4
 10
711.643429
 20
1029.944780
 11
707.693429
 21
1029.944780
  0
LINE
  8
CSLAYER1
  6
CONTINUOUS
 62
     4
 10
711.643429
 20
1039.494506
 11
707.693429
 21
1039.494506
  0
ARC
  8
CSLAYER1
  6
CONTINUOUS
 62
     4
 10
707.693429
 20
1030.944780
 40
1.000000
 50
180.000000
 51
270.000000
  0
ARC
  8
CSLAYER1
  6
CONTINUOUS
 62
     4
 10
707.693429
 20
1038.494506
 40
1.000000
 50
90.000000
 51
180.000000
  0
LINE
  8
CSLAYER1
  6
CONTINUOUS
 62
     4
 10
716.018429
 20
1039.494506
 11
743.068429
 21
1039.494506
  0
LINE
  8
CSLAYER1
  6
CONTINUOUS
 62
     4
 10
716.018429
 20
1029.944780
 11
743.068429
 21
1029.944780
  0
LINE
  8
CSLAYER1
  6
CONTINUOUS
 62
     4
 10
718.018429
 20
1019.714780
 11
741.068429
 21
1019.714780
  0
ARC
  8
CSLAYER1
  6
CONTINUOUS
 62
     4
 10
741.068429
 20
1021.714780
 40
2.000000
 50
270.000000
 51
360.000000
  0
ARC
  8
CSLAYER1
  6
CONTINUOUS
 62
     4
 10
718.018429
 20
1021.714780
 40
2.000000
 50
180.000000
 51
270.000000
  0
ARC
  8
CSLAYER1
  6
CONTINUOUS
 62
     4
 10
717.543429
 20
1051.714780
 40
2.000000
 50
270.000000
 51
360.000000
  0
ARC
  8
CSLAYER1
  6
CONTINUOUS
 62
     4
 10
741.543429
 20
1051.714780
 40
2.000000
 50
180.000000
 51
270.000000
  0
ARC
  8
CSLAYER1
  6
CONTINUOUS
 62
     4
 10
717.018429
 20
1048.714780
 40
1.000000
 50
90.000000
 51
180.000000
  0
ARC
  8
CSLAYER1
  6
CONTINUOUS
 62
     4
 10
742.068429
 20
1048.714780
 40
1.000000
 50
0.000000
 51
90.000000
  0
POINT
  8
CSLAYER1
 62
     4
 10
729.543429
 20
1049.714780
  0
LINE
  8
CSLAYER1
  6
CONTINUOUS
 62
     4
 10
747.443429
 20
989.964780
 11
747.443429
 21
1047.714780
  0
LINE
  8
CSLAYER1
  6
CONTINUOUS
 62
     4
 10
711.643429
 20
989.964780
 11
711.643429
 21
1047.714780
  0
LINE
  8
CSLAYER1
  6
CONTINUOUS
 62
     4
 10
732.743429
 20
325.513373
 11
732.743429
 21
351.175118
  0
LINE
  8
CSLAYER1
  6
CONTINUOUS
 62
     5
 10
726.914253
 20
343.430439
 11
761.454383
 21
343.430439
  0
LINE
  8
CSLAYER1
  6
CONTINUOUS
 62
     4
 10
731.543429
 20
348.430439
 11
732.743429
 21
348.430439
  0
LINE
  8
CSLAYER1
  6
CONTINUOUS
 62
     4
 10
731.543429
 20
338.430439
 11
732.743429
 21
338.430439
  0
LINE
  8
CSLAYER1
  6
CONTINUOUS
 62
     4
 10
732.743429
 20
338.124148
 11
735.743429
 21
338.124148
  0
LINE
  8
CSLAYER1
  6
CONTINUOUS
 62
     5
 10
803.908765
 20
674.342560
 11
726.024280
 21
674.342560
  0
LINE
  8
CSLAYER1
  6
CONTINUOUS
 62
     4
 10
760.543429
 20
695.416720
 11
760.543429
 21
655.342560
  0
POINT
  8
CSLAYER1
 62
     4
 10
729.543429
 20
775.018215
  0
LINE
  8
CSLAYER1
  6
CONTINUOUS
 62
     4
 10
743.068429
 20
762.018215
 11
743.068429
 21
770.248215
  0
LINE
  8
CSLAYER1
  6
CONTINUOUS
 62
     4
 10
747.443429
 20
762.018215
 11
747.443429
 21
770.248215
  0
LINE
  8
CSLAYER1
  6
CONTINUOUS
 62
     4
 10
749.293429
 20
771.248215
 11
749.293429
 21
778.797942
  0
LINE
  8
CSLAYER1
  6
CONTINUOUS
 62
     4
 10
743.068429
 20
762.018215
 11
747.443429
 21
762.018215
  0
LINE
  8
CSLAYER1
  6
CONTINUOUS
 62
     4
 10
748.293429
 20
770.248215
 11
710.793429
 21
770.248215
  0
ARC
  8
CSLAYER1
  6
CONTINUOUS
 62
     4
 10
748.293429
 20
771.248215
 40
1.000000
 50
270.000000
 51
360.000000
  0
ARC
  8
CSLAYER1
  6
CONTINUOUS
 62
     4
 10
748.293429
 20
778.797942
 40
1.000000
 50
0.000000
 51
90.000000
  0
LINE
  8
CSLAYER1
  6
CONTINUOUS
 62
     4
 10
716.018429
 20
762.018215
 11
716.018429
 21
770.248215
  0
LINE
  8
CSLAYER1
  6
CONTINUOUS
 62
     4
 10
711.643429
 20
762.018215
 11
711.643429
 21
770.248215
  0
LINE
  8
CSLAYER1
  6
CONTINUOUS
 62
     4
 10
709.793429
 20
771.248215
 11
709.793429
 21
778.797942
  0
LINE
  8
CSLAYER1
  6
CONTINUOUS
 62
     4
 10
716.018429
 20
762.018215
 11
711.643429
 21
762.018215
  0
ARC
  8
CSLAYER1
  6
CONTINUOUS
 62
     4
 10
710.793429
 20
771.248215
 40
1.000000
 50
180.000000
 51
270.000000
  0
ARC
  8
CSLAYER1
  6
CONTINUOUS
 62
     4
 10
710.793429
 20
778.797942
 40
1.000000
 50
90.000000
 51
180.000000
  0
LINE
  8
CSLAYER1
  6
CONTINUOUS
 62
     4
 10
717.018429
 20
765.018215
 11
742.068429
 21
765.018215
  0
LINE
  8
CSLAYER1
  6
CONTINUOUS
 62
     4
 10
716.018429
 20
766.018215
 11
717.018429
 21
765.018215
  0
LINE
  8
CSLAYER1
  6
CONTINUOUS
 62
     4
 10
742.068429
 20
765.018215
 11
743.068429
 21
766.018215
  0
LINE
  8
CSLAYER1
  6
CONTINUOUS
 62
     4
 10
717.018429
 20
785.018215
 11
742.068429
 21
785.018215
  0
LINE
  8
CSLAYER1
  6
CONTINUOUS
 62
     4
 10
716.018429
 20
784.018215
 11
717.018429
 21
785.018215
  0
LINE
  8
CSLAYER1
  6
CONTINUOUS
 62
     4
 10
742.068429
 20
785.018215
 11
743.068429
 21
784.018215
  0
LINE
  8
CSLAYER1
  6
CONTINUOUS
 62
     5
 10
757.026710
 20
806.768215
 11
712.490799
 21
806.768215
  0
LINE
  8
CSLAYER1
  6
CONTINUOUS
 62
     4
 10
716.018429
 20
819.768215
 11
711.643429
 21
819.768215
  0
LINE
  8
CSLAYER1
  6
CONTINUOUS
 62
     4
 10
709.793429
 20
802.998215
 11
709.793429
 21
810.547942
  0
LINE
  8
CSLAYER1
  6
CONTINUOUS
 62
     4
 10
711.643429
 20
801.998215
 11
710.793429
 21
801.998215
  0
LINE
  8
CSLAYER1
  6
CONTINUOUS
 62
     4
 10
711.643429
 20
811.547942
 11
710.793429
 21
811.547942
  0
ARC
  8
CSLAYER1
  6
CONTINUOUS
 62
     4
 10
710.793429
 20
802.998215
 40
1.000000
 50
180.000000
 51
270.000000
  0
ARC
  8
CSLAYER1
  6
CONTINUOUS
 62
     4
 10
710.793429
 20
810.547942
 40
1.000000
 50
90.000000
 51
180.000000
  0
LINE
  8
CSLAYER1
  6
CONTINUOUS
 62
     4
 10
743.068429
 20
819.768215
 11
747.443429
 21
819.768215
  0
LINE
  8
CSLAYER1
  6
CONTINUOUS
 62
     4
 10
748.293429
 20
779.788215
 11
710.793429
 21
779.788215
  0
LINE
  8
CSLAYER1
  6
CONTINUOUS
 62
     4
 10
749.293429
 20
802.998215
 11
749.293429
 21
810.547942
  0
LINE
  8
CSLAYER1
  6
CONTINUOUS
 62
     4
 10
747.443429
 20
801.998215
 11
748.293429
 21
801.998215
  0
LINE
  8
CSLAYER1
  6
CONTINUOUS
 62
     4
 10
747.443429
 20
811.547942
 11
748.293429
 21
811.547942
  0
ARC
  8
CSLAYER1
  6
CONTINUOUS
 62
     4
 10
748.293429
 20
802.998215
 40
1.000000
 50
270.000000
 51
360.000000
  0
ARC
  8
CSLAYER1
  6
CONTINUOUS
 62
     4
 10
748.293429
 20
810.547942
 40
1.000000
 50
0.000000
 51
90.000000
  0
POINT
  8
CSLAYER1
 62
     4
 10
729.543429
 20
806.768215
  0
LINE
  8
CSLAYER1
  6
CONTINUOUS
 62
     5
 10
756.181092
 20
775.018215
 11
711.645180
 21
775.018215
  0
LINE
  8
CSLAYER1
  6
CONTINUOUS
 62
     4
 10
747.443429
 20
779.797942
 11
747.443429
 21
819.768215
  0
LINE
  8
CSLAYER1
  6
CONTINUOUS
 62
     4
 10
716.018429
 20
779.788215
 11
716.018429
 21
857.268215
  0
LINE
  8
CSLAYER1
  6
CONTINUOUS
 62
     4
 10
711.643429
 20
779.797942
 11
711.643429
 21
819.768215
  0
LINE
  8
CSLAYER1
  6
CONTINUOUS
 62
     4
 10
737.543429
 20
797.243215
 11
737.543429
 21
785.018215
  0
LINE
  8
CSLAYER1
  6
CONTINUOUS
 62
     4
 10
721.543429
 20
797.243215
 11
721.543429
 21
785.018215
  0
POINT
  8
CSLAYER1
 62
     4
 10
729.543429
 20
971.214780
  0
LINE
  8
CSLAYER1
  6
CONTINUOUS
 62
     4
 10
739.068429
 20
956.164780
 11
743.068429
 21
956.164780
  0
LINE
  8
CSLAYER1
  6
CONTINUOUS
 62
     4
 10
738.068429
 20
980.739780
 11
721.018429
 21
980.739780
  0
LINE
  8
CSLAYER1
  6
CONTINUOUS
 62
     4
 10
738.068429
 20
961.689780
 11
721.018429
 21
961.689780
  0
ARC
  8
CSLAYER1
  6
CONTINUOUS
 62
     4
 10
738.068429
 20
979.739780
 40
1.000000
 50
0.000000
 51
90.000000
  0
ARC
  8
CSLAYER1
  6
CONTINUOUS
 62
     4
 10
738.068429
 20
962.689780
 40
1.000000
 50
270.000000
 51
360.000000
  0
LINE
  8
CSLAYER1
  6
CONTINUOUS
 62
     4
 10
720.018429
 20
956.164780
 11
716.018429
 21
956.164780
  0
ARC
  8
CSLAYER1
  6
CONTINUOUS
 62
     4
 10
721.018429
 20
979.739780
 40
1.000000
 50
90.000000
 51
180.000000
  0
ARC
  8
CSLAYER1
  6
CONTINUOUS
 62
     4
 10
721.018429
 20
962.689780
 40
1.000000
 50
180.000000
 51
270.000000
  0
LINE
  8
CSLAYER1
  6
CONTINUOUS
 62
     4
 10
749.293429
 20
974.984780
 11
749.293429
 21
967.435053
  0
LINE
  8
CSLAYER1
  6
CONTINUOUS
 62
     4
 10
743.068429
 20
984.214780
 11
747.443429
 21
984.214780
  0
LINE
  8
CSLAYER1
  6
CONTINUOUS
 62
     4
 10
747.443429
 20
975.984780
 11
748.293429
 21
975.984780
  0
LINE
  8
CSLAYER1
  6
CONTINUOUS
 62
     4
 10
747.443429
 20
966.435053
 11
748.293429
 21
966.435053
  0
ARC
  8
CSLAYER1
  6
CONTINUOUS
 62
     4
 10
748.293429
 20
974.984780
 40
1.000000
 50
0.000000
 51
90.000000
  0
ARC
  8
CSLAYER1
  6
CONTINUOUS
 62
     4
 10
748.293429
 20
967.435053
 40
1.000000
 50
270.000000
 51
360.000000
  0
LINE
  8
CSLAYER1
  6
CONTINUOUS
 62
     4
 10
709.793429
 20
974.984780
 11
709.793429
 21
967.435053
  0
LINE
  8
CSLAYER1
  6
CONTINUOUS
 62
     4
 10
716.018429
 20
984.214780
 11
711.643429
 21
984.214780
  0
LINE
  8
CSLAYER1
  6
CONTINUOUS
 62
     4
 10
711.643429
 20
975.984780
 11
710.793429
 21
975.984780
  0
LINE
  8
CSLAYER1
  6
CONTINUOUS
 62
     4
 10
711.643429
 20
966.435053
 11
710.793429
 21
966.435053
  0
ARC
  8
CSLAYER1
  6
CONTINUOUS
 62
     4
 10
710.793429
 20
974.984780
 40
1.000000
 50
90.000000
 51
180.000000
  0
ARC
  8
CSLAYER1
  6
CONTINUOUS
 62
     4
 10
710.793429
 20
967.435053
 40
1.000000
 50
180.000000
 51
270.000000
  0
LINE
  8
CSLAYER1
  6
CONTINUOUS
 62
     4
 10
711.643429
 20
984.214780
 11
711.643429
 21
926.464780
  0
LINE
  8
CSLAYER1
  6
CONTINUOUS
 62
     4
 10
747.443429
 20
984.214780
 11
747.443429
 21
926.464780
  0
POINT
  8
CSLAYER1
 62
     4
 10
729.543429
 20
838.518215
  0
LINE
  8
CSLAYER1
  6
CONTINUOUS
 62
     4
 10
743.068429
 20
779.788215
 11
743.068429
 21
857.268215
  0
LINE
  8
CSLAYER1
  6
CONTINUOUS
 62
     4
 10
739.068429
 20
853.568215
 11
739.068429
 21
791.718215
  0
LINE
  8
CSLAYER1
  6
CONTINUOUS
 62
     4
 10
739.068429
 20
853.568215
 11
743.068429
 21
853.568215
  0
LINE
  8
CSLAYER1
  6
CONTINUOUS
 62
     4
 10
738.068429
 20
828.993215
 11
721.018429
 21
828.993215
  0
LINE
  8
CSLAYER1
  6
CONTINUOUS
 62
     4
 10
738.068429
 20
848.043215
 11
721.018429
 21
848.043215
  0
ARC
  8
CSLAYER1
  6
CONTINUOUS
 62
     4
 10
738.068429
 20
829.993215
 40
1.000000
 50
270.000000
 51
360.000000
  0
ARC
  8
CSLAYER1
  6
CONTINUOUS
 62
     4
 10
738.068429
 20
847.043215
 40
1.000000
 50
0.000000
 51
90.000000
  0
LINE
  8
CSLAYER1
  6
CONTINUOUS
 62
     4
 10
720.018429
 20
853.568215
 11
720.018429
 21
791.718215
  0
LINE
  8
CSLAYER1
  6
CONTINUOUS
 62
     4
 10
720.018429
 20
853.568215
 11
716.018429
 21
853.568215
  0
ARC
  8
CSLAYER1
  6
CONTINUOUS
 62
     4
 10
721.018429
 20
829.993215
 40
1.000000
 50
180.000000
 51
270.000000
  0
ARC
  8
CSLAYER1
  6
CONTINUOUS
 62
     4
 10
721.018429
 20
847.043215
 40
1.000000
 50
90.000000
 51
180.000000
  0
LINE
  8
CSLAYER1
  6
CONTINUOUS
 62
     4
 10
749.293429
 20
834.748215
 11
749.293429
 21
842.297942
  0
LINE
  8
CSLAYER1
  6
CONTINUOUS
 62
     4
 10
743.068429
 20
825.518215
 11
747.443429
 21
825.518215
  0
LINE
  8
CSLAYER1
  6
CONTINUOUS
 62
     4
 10
747.443429
 20
833.748215
 11
748.293429
 21
833.748215
  0
LINE
  8
CSLAYER1
  6
CONTINUOUS
 62
     4
 10
747.443429
 20
843.297942
 11
748.293429
 21
843.297942
  0
ARC
  8
CSLAYER1
  6
CONTINUOUS
 62
     4
 10
748.293429
 20
834.748215
 40
1.000000
 50
270.000000
 51
360.000000
  0
ARC
  8
CSLAYER1
  6
CONTINUOUS
 62
     4
 10
748.293429
 20
842.297942
 40
1.000000
 50
0.000000
 51
90.000000
  0
LINE
  8
CSLAYER1
  6
CONTINUOUS
 62
     4
 10
709.793429
 20
834.748215
 11
709.793429
 21
842.297942
  0
LINE
  8
CSLAYER1
  6
CONTINUOUS
 62
     4
 10
716.018429
 20
825.518215
 11
711.643429
 21
825.518215
  0
LINE
  8
CSLAYER1
  6
CONTINUOUS
 62
     4
 10
711.643429
 20
833.748215
 11
710.793429
 21
833.748215
  0
LINE
  8
CSLAYER1
  6
CONTINUOUS
 62
     4
 10
711.643429
 20
843.297942
 11
710.793429
 21
843.297942
  0
ARC
  8
CSLAYER1
  6
CONTINUOUS
 62
     4
 10
710.793429
 20
834.748215
 40
1.000000
 50
180.000000
 51
270.000000
  0
ARC
  8
CSLAYER1
  6
CONTINUOUS
 62
     4
 10
710.793429
 20
842.297942
 40
1.000000
 50
90.000000
 51
180.000000
  0
LINE
  8
CSLAYER1
  6
CONTINUOUS
 62
     4
 10
747.443429
 20
825.518215
 11
747.443429
 21
883.268215
  0
LINE
  8
CSLAYER1
  6
CONTINUOUS
 62
     4
 10
711.643429
 20
825.518215
 11
711.643429
 21
883.268215
  0
LINE
  8
CSLAYER1
  6
CONTINUOUS
 62
     4
 10
739.068429
 20
791.718215
 11
743.068429
 21
791.718215
  0
LINE
  8
CSLAYER1
  6
CONTINUOUS
 62
     4
 10
738.068429
 20
816.293215
 11
721.018429
 21
816.293215
  0
LINE
  8
CSLAYER1
  6
CONTINUOUS
 62
     4
 10
738.068429
 20
797.243215
 11
721.018429
 21
797.243215
  0
ARC
  8
CSLAYER1
  6
CONTINUOUS
 62
     4
 10
738.068429
 20
815.293215
 40
1.000000
 50
0.000000
 51
90.000000
  0
ARC
  8
CSLAYER1
  6
CONTINUOUS
 62
     4
 10
738.068429
 20
798.243215
 40
1.000000
 50
270.000000
 51
360.000000
  0
LINE
  8
CSLAYER1
  6
CONTINUOUS
 62
     4
 10
720.018429
 20
791.718215
 11
716.018429
 21
791.718215
  0
ARC
  8
CSLAYER1
  6
CONTINUOUS
 62
     4
 10
721.018429
 20
815.293215
 40
1.000000
 50
90.000000
 51
180.000000
  0
ARC
  8
CSLAYER1
  6
CONTINUOUS
 62
     4
 10
721.018429
 20
798.243215
 40
1.000000
 50
180.000000
 51
270.000000
  0
LINE
  8
CSLAYER1
  6
CONTINUOUS
 62
     4
 10
721.543429
 20
710.539134
 11
721.543429
 21
765.018215
  0
LINE
  8
CSLAYER1
  6
CONTINUOUS
 62
     4
 10
737.543429
 20
792.018215
 11
721.543429
 21
792.018215
  0
LINE
  8
CSLAYER1
  6
CONTINUOUS
 62
     4
 10
737.543429
 20
765.018215
 11
737.543429
 21
707.793612
  0
LINE
  8
CSLAYER1
  6
CONTINUOUS
 62
     4
 10
732.743429
 20
342.471368
 11
735.743429
 21
342.471368
  0
LINE
  8
CSLAYER1
  6
CONTINUOUS
 62
     4
 10
732.743429
 20
351.175118
 11
736.743429
 21
351.175118
  0
LINE
  8
CSLAYER1
  6
CONTINUOUS
 62
     4
 10
735.743429
 20
325.513373
 11
735.743429
 21
351.175118
  0
LINE
  8
CSLAYER1
  6
CONTINUOUS
 62
     4
 10
740.243429
 20
381.006971
 11
741.743429
 21
381.006971
  0
LINE
  8
CSLAYER1
  6
CONTINUOUS
 62
     4
 10
740.243429
 20
381.515178
 11
741.743429
 21
381.515178
  0
LINE
  8
CSLAYER1
  6
CONTINUOUS
 62
     4
 10
751.743429
 20
325.513373
 11
751.743429
 21
351.175118
  0
LINE
  8
CSLAYER1
  6
CONTINUOUS
 62
     4
 10
740.243429
 20
369.203441
 11
740.243429
 21
381.515178
  0
LINE
  8
CSLAYER1
  6
CONTINUOUS
 62
     4
 10
747.243429
 20
369.203441
 11
747.243429
 21
381.515178
  0
LINE
  8
CSLAYER1
  6
CONTINUOUS
 62
     4
 10
736.743429
 20
341.888944
 11
736.743429
 21
357.219303
  0
LINE
  8
CSLAYER1
  6
CONTINUOUS
 62
     4
 10
750.743429
 20
341.888944
 11
750.743429
 21
357.219303
  0
LINE
  8
CSLAYER1
  6
CONTINUOUS
 62
     4
 10
741.743429
 20
369.203441
 11
741.743429
 21
397.493111
  0
LINE
  8
CSLAYER1
  6
CONTINUOUS
 62
     4
 10
745.743429
 20
369.203441
 11
745.743429
 21
393.453667
  0
LINE
  8
CSLAYER1
  6
CONTINUOUS
 62
     4
 10
738.204247
 20
369.203441
 11
749.282611
 21
369.203441
  0
LINE
  8
CSLAYER1
  6
CONTINUOUS
 62
     4
 10
735.743429
 20
341.888944
 11
751.743429
 21
341.888944
  0
LINE
  8
CSLAYER1
  6
CONTINUOUS
 62
     4
 10
750.743429
 20
357.219303
 11
749.282611
 21
369.203441
  0
LINE
  8
CSLAYER1
  6
CONTINUOUS
 62
     4
 10
736.743429
 20
357.219303
 11
738.204247
 21
369.203441
  0
LINE
  8
CSLAYER1
  6
CONTINUOUS
 62
     4
 10
752.743429
 20
335.637981
 11
752.743429
 21
343.237981
  0
LINE
  8
CSLAYER1
  6
CONTINUOUS
 62
     4
 10
752.743429
 20
335.637981
 11
751.743429
 21
335.637981
  0
LINE
  8
CSLAYER1
  6
CONTINUOUS
 62
     4
 10
752.743429
 20
343.237981
 11
751.743429
 21
343.237981
  0
LINE
  8
CSLAYER1
  6
CONTINUOUS
 62
     4
 10
755.343429
 20
337.937981
 11
755.343429
 21
340.937981
  0
LINE
  8
CSLAYER1
  6
CONTINUOUS
 62
     4
 10
753.343429
 20
335.937981
 11
752.743429
 21
335.937981
  0
LINE
  8
CSLAYER1
  6
CONTINUOUS
 62
     4
 10
753.343429
 20
342.937981
 11
752.743429
 21
342.937981
  0
ARC
  8
CSLAYER1
  6
CONTINUOUS
 62
     4
 10
753.343429
 20
337.937981
 40
2.000000
 50
270.000000
 51
360.000000
  0
ARC
  8
CSLAYER1
  6
CONTINUOUS
 62
     4
 10
753.343429
 20
340.937981
 40
2.000000
 50
0.000000
 51
90.000000
  0
LINE
  8
CSLAYER1
  6
CONTINUOUS
 62
     4
 10
750.743429
 20
351.175118
 11
751.743429
 21
351.175118
  0
LINE
  8
CSLAYER1
  6
CONTINUOUS
 62
     4
 10
745.743429
 20
381.006971
 11
747.243429
 21
381.006971
  0
LINE
  8
CSLAYER1
  6
CONTINUOUS
 62
     4
 10
745.743429
 20
381.515178
 11
747.243429
 21
381.515178
  0
LINE
  8
CSLAYER1
  6
CONTINUOUS
 62
     4
 10
740.997368
 20
397.940747
 11
749.971528
 21
390.163142
  0
LINE
  8
CSLAYER1
  6
CONTINUOUS
 62
     4
 10
731.543429
 20
348.430439
 11
731.543429
 21
338.430439
  0
LINE
  8
CSLAYER1
  6
CONTINUOUS
 62
     4
 10
751.743429
 20
348.430439
 11
761.543429
 21
348.430439
  0
LINE
  8
CSLAYER1
  6
CONTINUOUS
 62
     4
 10
755.281852
 20
338.430439
 11
761.543429
 21
338.430439
  0
LINE
  8
CSLAYER1
  6
CONTINUOUS
 62
     4
 10
761.543429
 20
325.513373
 11
761.543429
 21
1248.184602
  0
LINE
  8
CSLAYER1
  6
CONTINUOUS
 62
     4
 10
777.543429
 20
325.513373
 11
777.543429
 21
1248.184602
  0
LINE
  8
CSLAYER1
  6
CONTINUOUS
 62
     4
 10
599.093429
 20
967.782011
 11
599.093429
 21
727.870239
  0
LINE
  8
CSLAYER1
  6
CONTINUOUS
 62
     4
 10
584.793429
 20
1092.047472
 11
584.793429
 21
986.027853
  0
LINE
  8
CSLAYER1
  6
CONTINUOUS
 62
     4
 10
599.093429
 20
967.782011
 11
598.923903
 21
969.896729
  0
LINE
  8
CSLAYER1
  6
CONTINUOUS
 62
     4
 10
598.923903
 20
969.896729
 11
598.416614
 21
971.995353
  0
LINE
  8
CSLAYER1
  6
CONTINUOUS
 62
     4
 10
598.416614
 20
971.995353
 11
597.575425
 21
974.061911
  0
LINE
  8
CSLAYER1
  6
CONTINUOUS
 62
     4
 10
597.575425
 20
974.061911
 11
596.406735
 21
976.080675
  0
LINE
  8
CSLAYER1
  6
CONTINUOUS
 62
     4
 10
596.406735
 20
976.080675
 11
594.919441
 21
978.036281
  0
LINE
  8
CSLAYER1
  6
CONTINUOUS
 62
     4
 10
594.919441
 20
978.036281
 11
593.124861
 21
979.913846
  0
LINE
  8
CSLAYER1
  6
CONTINUOUS
 62
     4
 10
593.124861
 20
979.913846
 11
591.036653
 21
981.699080
  0
LINE
  8
CSLAYER1
  6
CONTINUOUS
 62
     4
 10
591.036653
 20
981.699080
 11
588.670709
 21
983.378397
  0
LINE
  8
CSLAYER1
  6
CONTINUOUS
 62
     4
 10
588.670709
 20
983.378397
 11
586.045036
 21
984.939016
  0
LINE
  8
CSLAYER1
  6
CONTINUOUS
 62
     4
 10
586.045036
 20
984.939016
 11
583.179617
 21
986.369060
  0
LINE
  8
CSLAYER1
  6
CONTINUOUS
 62
     4
 10
583.179617
 20
986.369060
 11
580.096259
 21
987.657645
  0
LINE
  8
CSLAYER1
  6
CONTINUOUS
 62
     4
 10
580.096259
 20
987.657645
 11
576.818429
 21
988.794965
  0
LINE
  8
CSLAYER1
  6
CONTINUOUS
 62
     4
 10
576.818429
 20
988.794965
 11
573.371073
 21
989.772364
  0
LINE
  8
CSLAYER1
  6
CONTINUOUS
 62
     4
 10
573.371073
 20
989.772364
 11
569.780426
 21
990.582402
  0
LINE
  8
CSLAYER1
  6
CONTINUOUS
 62
     4
 10
569.780426
 20
990.582402
 11
566.073817
 21
991.218916
  0
LINE
  8
CSLAYER1
  6
CONTINUOUS
 62
     4
 10
566.073817
 20
991.218916
 11
554.543429
 21
992.611136
  0
LINE
  8
CSLAYER1
  6
CONTINUOUS
 62
     4
 10
820.543429
 20
612.562003
 11
777.543429
 21
612.562003
  0
LINE
  8
CSLAYER1
  6
CONTINUOUS
 62
     4
 10
820.543429
 20
533.148746
 11
777.543429
 21
533.148746
  0
LINE
  8
CSLAYER1
  6
CONTINUOUS
 62
     4
 10
777.543429
 20
627.755618
 11
820.543429
 21
627.755618
  0
LINE
  8
CSLAYER1
  6
CONTINUOUS
 62
     4
 10
761.543429
 20
612.562003
 11
610.718904
 21
612.562003
  0
LINE
  8
CSLAYER1
  6
CONTINUOUS
 62
     4
 10
761.543429
 20
533.148746
 11
639.543429
 21
533.148746
  0
LINE
  8
CSLAYER1
  6
CONTINUOUS
 62
     4
 10
661.042596
 20
627.755618
 11
761.543429
 21
627.755618
  0
LINE
  8
CSLAYER1
  6
CONTINUOUS
 62
     4
 10
836.543429
 20
719.748988
 11
836.543429
 21
325.513373
  0
LINE
  8
CSLAYER1
  6
CONTINUOUS
 62
     4
 10
836.543429
 20
1157.984602
 11
836.543429
 21
744.748988
  0
LINE
  8
CSLAYER1
  6
CONTINUOUS
 62
     4
 10
820.543429
 20
1157.984602
 11
820.543429
 21
325.513373
  0
LINE
  8
CSLAYER1
  6
CONTINUOUS
 62
     4
 10
954.543429
 20
1248.184602
 11
154.543429
 21
1248.184602
  0
ARC
  8
CSLAYER1
  6
CONTINUOUS
 62
     4
 10
951.543429
 20
1298.184602
 40
3.000000
 50
0.000000
 51
90.000000
  0
LINE
  8
CSLAYER1
  6
CONTINUOUS
 62
     5
 10
729.543429
 20
1206.843906
 11
729.543429
 21
709.166373
  0
LINE
  8
CSLAYER1
  6
CONTINUOUS
 62
     4
 10
779.543429
 20
690.342560
 11
779.543429
 21
658.342560
  0
LINE
  8
CSLAYER1
  6
CONTINUOUS
 62
     4
 10
789.543429
 20
688.342560
 11
789.543429
 21
660.342560
  0
LINE
  8
CSLAYER1
  6
CONTINUOUS
 62
     4
 10
787.543429
 20
690.342560
 11
779.543429
 21
690.342560
  0
LINE
  8
CSLAYER1
  6
CONTINUOUS
 62
     4
 10
789.543429
 20
688.342560
 11
787.543429
 21
690.342560
  0
LINE
  8
CSLAYER1
  6
CONTINUOUS
 62
     4
 10
787.543429
 20
690.342560
 11
787.543429
 21
658.342560
  0
LINE
  8
CSLAYER1
  6
CONTINUOUS
 62
     4
 10
787.543429
 20
658.342560
 11
779.543429
 21
658.342560
  0
LINE
  8
CSLAYER1
  6
CONTINUOUS
 62
     4
 10
789.543429
 20
660.342560
 11
787.543429
 21
658.342560
  0
LINE
  8
CSLAYER1
  6
CONTINUOUS
 62
     4
 10
779.543429
 20
688.342560
 11
777.543429
 21
688.342560
  0
LINE
  8
CSLAYER1
  6
CONTINUOUS
 62
     4
 10
779.543429
 20
660.342560
 11
777.543429
 21
660.342560
  0
LINE
  8
CSLAYER1
  6
CONTINUOUS
 62
     4
 10
761.543429
 20
688.342560
 11
760.543429
 21
688.342560
  0
LINE
  8
CSLAYER1
  6
CONTINUOUS
 62
     4
 10
761.543429
 20
660.342560
 11
760.543429
 21
660.342560
  0
LINE
  8
CSLAYER1
  6
CONTINUOUS
 62
     3
 10
2273.956507
 20
1452.540750
 11
2273.956507
 21
2252.540750
  0
LINE
  8
CSLAYER1
  6
CONTINUOUS
 62
     3
 10
1073.954803
 20
1452.540750
 11
1073.954803
 21
2252.540750
  0
LINE
  8
CSLAYER1
  6
CONTINUOUS
 62
     4
 10
1406.818997
 20
757.372852
 11
1467.588466
 21
677.955778
  0
LINE
  8
CSLAYER1
  6
CONTINUOUS
 62
     5
 10
1115.954803
 20
307.513373
 11
1115.954803
 21
267.513373
  0
LINE
  8
CSLAYER1
  6
CONTINUOUS
 62
     7
 10
1073.954803
 20
325.513373
 11
1073.954803
 21
260.513373
  0
LINE
  8
CSLAYER1
  6
CONTINUOUS
 62
     7
 10
2273.954803
 20
325.513373
 11
2273.954803
 21
260.513373
  0
LINE
  8
CSLAYER1
  6
CONTINUOUS
 62
     5
 10
1095.954803
 20
287.513373
 11
1135.954803
 21
287.513373
  0
LINE
  8
CSLAYER1
  6
CONTINUOUS
 62
     7
 10
1073.954803
 20
325.513373
 11
2273.954803
 21
325.513373
  0
LINE
  8
CSLAYER1
  6
CONTINUOUS
 62
     7
 10
1076.954803
 20
1301.184602
 11
2270.954803
 21
1301.184602
  0
LINE
  8
CSLAYER1
  6
CONTINUOUS
 62
     7
 10
1073.954803
 20
1298.184602
 11
1073.954803
 21
1248.184602
  0
LINE
  8
CSLAYER1
  6
CONTINUOUS
 62
     7
 10
2273.954803
 20
1298.184602
 11
2273.954803
 21
1248.184602
  0
LINE
  8
CSLAYER1
  6
CONTINUOUS
 62
     7
 10
2270.754803
 20
1248.184602
 11
2270.754803
 21
1225.984602
  0
ARC
  8
CSLAYER1
  6
CONTINUOUS
 62
     7
 10
2270.954803
 20
1298.184602
 40
3.000000
 50
0.000000
 51
90.000000
  0
ARC
  8
CSLAYER1
  6
CONTINUOUS
 62
     7
 10
1076.954803
 20
1298.184602
 40
3.000000
 50
90.000000
 51
180.000000
  0
LINE
  8
CSLAYER1
  6
CONTINUOUS
 62
     7
 10
1073.954803
 20
1248.184602
 11
2273.954803
 21
1248.184602
  0
CIRCLE
  8
CSLAYER1
  6
CONTINUOUS
 62
     4
 10
1796.572855
 20
1176.984602
 40
21.000000
  0
CIRCLE
  8
CSLAYER1
  6
CONTINUOUS
 62
     4
 10
1796.572855
 20
1176.984602
 40
7.500000
  0
POINT
  8
CSLAYER1
 62
     5
 10
1342.699549
 20
674.342560
  0
LINE
  8
CSLAYER1
  6
CONTINUOUS
 62
     2
 10
1653.359074
 20
1141.689644
 11
1705.451454
 21
1102.561010
  0
POINT
  8
CSLAYER1
 62
     6
 10
1342.699549
 20
674.342560
  0
POINT
  8
CSLAYER1
 62
     5
 10
1456.263829
 20
732.248988
  0
POINT
  8
CSLAYER1
 62
     1
 10
1456.263829
 20
732.248988
  0
LINE
  8
CSLAYER1
  6
CONTINUOUS
 62
     1
 10
1611.711389
 20
1035.658889
 11
1693.713209
 21
1140.966135
  0
LINE
  8
CSLAYER1
  6
CONTINUOUS
 62
     1
 10
1614.221234
 20
1061.872961
 11
1636.501957
 21
1044.523160
  0
POINT
  8
CSLAYER1
 62
     5
 10
1115.954803
 20
1176.984602
  0
POINT
  8
CSLAYER1
 62
     5
 10
1796.572855
 20
1176.984602
  0
LINE
  8
CSLAYER1
  6
CONTINUOUS
 62
     5
 10
1796.572855
 20
1211.307070
 11
1796.572855
 21
1141.670130
  0
LINE
  8
CSLAYER1
  6
CONTINUOUS
 62
     5
 10
1760.175571
 20
1176.984602
 11
1828.980197
 21
1176.984602
  0
LINE
  8
CSLAYER1
  6
CONTINUOUS
 62
     7
 10
2255.754803
 20
1197.984602
 11
1708.754803
 21
1197.984602
  0
LINE
  8
CSLAYER1
  6
CONTINUOUS
 62
     4
 10
1590.909252
 20
656.665876
 11
1537.957204
 21
771.094065
  0
ARC
  8
CSLAYER1
  6
CONTINUOUS
 62
     4
 10
1474.794670
 20
741.865380
 40
69.597570
 50
24.832507
 51
69.373343
  0
LINE
  8
CSLAYER1
  6
CONTINUOUS
 62
     3
 10
1085.954803
 20
1248.184602
 11
1085.954803
 21
1157.984602
  0
LINE
  8
CSLAYER1
  6
CONTINUOUS
 62
     3
 10
1135.954803
 20
1248.184602
 11
1135.954803
 21
1172.984602
  0
ARC
  8
CSLAYER1
  6
CONTINUOUS
 62
     3
 10
1120.954803
 20
1172.984602
 40
15.000000
 50
270.000000
 51
360.000000
  0
LINE
  8
CSLAYER1
  6
CONTINUOUS
 62
     3
 10
1085.954803
 20
1157.984602
 11
1120.954803
 21
1157.984602
  0
LINE
  8
CSLAYER1
  6
CONTINUOUS
 62
     7
 10
2267.754803
 20
1222.984602
 11
1188.729628
 21
1222.984602
  0
LINE
  8
CSLAYER1
  6
CONTINUOUS
 62
     4
 10
1107.828338
 20
1157.984602
 11
1399.430128
 21
776.902435
  0
LINE
  8
CSLAYER1
  6
CONTINUOUS
 62
     4
 10
1467.588466
 20
677.955778
 11
1484.507384
 21
665.718531
  0
LINE
  8
CSLAYER1
  6
CONTINUOUS
 62
     4
 10
1484.507384
 20
665.718531
 11
1744.830332
 21
325.513373
  0
LINE
  8
CSLAYER1
  6
CONTINUOUS
 62
     4
 10
1364.140023
 20
802.741572
 11
1371.898351
 21
812.882560
  0
LINE
  8
CSLAYER1
  6
CONTINUOUS
 62
     4
 10
1812.521782
 20
1196.260070
 11
1810.267629
 21
1197.984602
  0
ARC
  8
CSLAYER1
  6
CONTINUOUS
 62
     4
 10
1802.192228
 20
1182.758207
 40
17.000000
 50
-25.687221
 51
52.582328
  0
LINE
  8
CSLAYER1
  6
CONTINUOUS
 62
     4
 10
1765.361766
 20
1137.908268
 11
1796.249465
 21
1155.987092
  0
LINE
  8
CSLAYER1
  6
CONTINUOUS
 62
     4
 10
1625.603435
 20
955.240238
 11
1765.345863
 21
1137.898960
  0
LINE
  8
CSLAYER1
  6
CONTINUOUS
 62
     4
 10
1502.146334
 20
818.554678
 11
1493.622404
 21
783.805985
  0
LINE
  8
CSLAYER1
  6
CONTINUOUS
 62
     4
 10
1444.944242
 20
677.954725
 11
1428.026461
 21
665.715905
  0
LINE
  8
CSLAYER1
  6
CONTINUOUS
 62
     4
 10
1444.944242
 20
677.954725
 11
1456.265666
 21
692.753072
  0
LINE
  8
CSLAYER1
  6
CONTINUOUS
 62
     4
 10
1502.146334
 20
818.554678
 11
1589.806585
 21
933.136267
  0
LINE
  8
CSLAYER1
  6
CONTINUOUS
 62
     7
 10
2258.754803
 20
1248.184602
 11
2258.754803
 21
1200.984602
  0
LINE
  8
CSLAYER1
  6
CONTINUOUS
 62
     7
 10
1163.529628
 20
1248.184602
 11
1188.729628
 21
1222.984602
  0
LINE
  8
CSLAYER1
  6
CONTINUOUS
 62
     4
 10
1105.282159
 20
360.858496
 11
1101.725890
 21
325.513373
  0
LINE
  8
CSLAYER1
  6
CONTINUOUS
 62
     7
 10
2270.754803
 20
1225.984602
 11
2267.754803
 21
1222.984602
  0
LINE
  8
CSLAYER1
  6
CONTINUOUS
 62
     7
 10
2258.754803
 20
1200.984602
 11
2255.754803
 21
1197.984602
  0
LINE
  8
CSLAYER1
  6
CONTINUOUS
 62
     4
 10
1364.140023
 20
802.741572
 11
1105.282159
 21
360.858496
  0
LINE
  8
CSLAYER1
  6
CONTINUOUS
 62
     4
 10
1167.755682
 20
325.513373
 11
1428.026461
 21
665.715905
  0
LINE
  8
CSLAYER1
  6
CONTINUOUS
 62
     7
 10
1708.754803
 20
1222.984602
 11
1708.754803
 21
1197.984602
  0
LINE
  8
CSLAYER1
  6
CONTINUOUS
 62
     4
 10
1406.818997
 20
757.372852
 11
1399.430128
 21
776.902435
  0
CIRCLE
  8
CSLAYER1
  6
CONTINUOUS
 62
     4
 10
1456.263829
 20
732.248988
 40
9.000000
  0
CIRCLE
  8
CSLAYER1
  6
CONTINUOUS
 62
     4
 10
1456.263829
 20
732.248988
 40
10.000000
  0
CIRCLE
  8
CSLAYER1
  6
CONTINUOUS
 62
     4
 10
1456.263829
 20
732.248988
 40
15.000000
  0
LINE
  8
CSLAYER1
  6
CONTINUOUS
 62
     4
 10
1471.263829
 20
740.909242
 11
1456.263829
 21
749.569496
  0
LINE
  8
CSLAYER1
  6
CONTINUOUS
 62
     4
 10
1456.263829
 20
749.569496
 11
1441.263829
 21
740.909242
  0
LINE
  8
CSLAYER1
  6
CONTINUOUS
 62
     4
 10
1441.263829
 20
740.909242
 11
1441.263829
 21
723.588734
  0
LINE
  8
CSLAYER1
  6
CONTINUOUS
 62
     4
 10
1441.263829
 20
723.588734
 11
1456.263829
 21
714.928480
  0
LINE
  8
CSLAYER1
  6
CONTINUOUS
 62
     4
 10
1456.263829
 20
714.928480
 11
1471.263829
 21
723.588734
  0
LINE
  8
CSLAYER1
  6
CONTINUOUS
 62
     4
 10
1471.263829
 20
723.588734
 11
1471.263829
 21
740.909242
  0
LINE
  8
CSLAYER1
  6
CONTINUOUS
 62
     4
 10
1421.630975
 20
877.888568
 11
1685.645511
 21
1222.984602
  0
INSERT
  8
CSLAYER1
  2
BLKF0001
 10
0.0
 20
0.0
 30
0.0
  0
LINE
  8
CSLAYER1
  6
CONTINUOUS
 62
     5
 10
1776.572855
 20
287.513373
 11
1816.572855
 21
287.513373
  0
LINE
  8
CSLAYER1
  6
CONTINUOUS
 62
     5
 10
1796.572855
 20
307.513373
 11
1796.572855
 21
267.513373
  0
LINE
  8
CSLAYER1
  6
PHANTOM
 62
     5
 10
2273.954803
 20
415.513373
 11
2273.954803
 21
362.513373
  0
LINE
  8
CSLAYER1
  6
PHANTOM
 62
     5
 10
2273.954803
 20
415.513373
 11
1073.954803
 21
415.513373
  0
LINE
  8
CSLAYER1
  6
PHANTOM
 62
     5
 10
2273.954803
 20
362.513373
 11
1073.954803
 21
362.513373
  0
LINE
  8
CSLAYER1
  6
CONTINUOUS
 62
     5
 10
3393.068857
 20
1867.577238
 11
2672.196340
 21
1867.577238
  0
LINE
  8
CSLAYER1
  6
CONTINUOUS
 62
     5
 10
3393.068857
 20
1803.577240
 11
2672.196340
 21
1803.577240
  0
LINE
  8
CSLAYER1
  6
CONTINUOUS
 62
     5
 10
3393.068857
 20
1739.577241
 11
2672.196340
 21
1739.577241
  0
LINE
  8
CSLAYER1
  6
CONTINUOUS
 62
     5
 10
3393.068857
 20
1675.577243
 11
2673.068875
 21
1675.577243
  0
LINE
  8
CSLAYER1
  6
CONTINUOUS
 62
     5
 10
3393.068857
 20
1611.577244
 11
2672.196340
 21
1611.577244
  0
LINE
  8
CSLAYER1
  6
CONTINUOUS
 62
     5
 10
3393.068857
 20
1547.577246
 11
2672.196340
 21
1547.577246
  0
LINE
  8
CSLAYER1
  6
CONTINUOUS
 62
     5
 10
3393.068857
 20
1483.577248
 11
2672.196340
 21
1483.577248
  0
LINE
  8
CSLAYER1
  6
CONTINUOUS
 62
     5
 10
3393.068857
 20
1419.577249
 11
2672.196340
 21
1419.577249
  0
LINE
  8
CSLAYER1
  6
CONTINUOUS
 62
     5
 10
3393.068857
 20
1355.577251
 11
2672.196340
 21
1355.577251
  0
TEXT
  8
CSLAYER1
 62
     3
 10
2959.604492
 20
1969.526978
 40
40.000000
 41
0.857143
  1
仕   様
 50
0.000000
 51
0.000000
  7
EASYDRAW_FONT
 72
     5
 11
3119.604492
 21
1969.526978
  0
TEXT
  8
CSLAYER1
 62
     3
 10
2682.955811
 20
1875.799927
 40
40.000000
 41
0.847059
  1
型    式
 50
0.000000
 51
0.000000
  7
EASYDRAW_FONT
 72
     5
 11
2874.955811
 21
1875.799927
  0
TEXT
  8
CSLAYER1
 62
     3
 10
2681.136230
 20
1753.310181
 40
40.000000
 41
0.847059
  1
テーブル寸法
 50
0.000000
 51
0.000000
  7
EASYDRAW_FONT
 72
     5
 11
2873.136230
 21
1753.310181
  0
TEXT
  8
CSLAYER1
 62
     3
 10
2682.955811
 20
1690.246216
 40
40.000000
 41
0.847059
  1
テーブル高サ
 50
0.000000
 51
0.000000
  7
EASYDRAW_FONT
 72
     5
 11
2874.955811
 21
1690.246216
  0
TEXT
  8
CSLAYER1
 62
     3
 10
2684.402588
 20
1625.363403
 40
40.000000
 41
0.857143
  1
ストローク
 50
0.000000
 51
0.000000
  7
EASYDRAW_FONT
 72
     5
 11
2844.402588
 21
1625.363403
  0
TEXT
  8
CSLAYER1
 62
     3
 10
2683.796387
 20
1560.480591
 40
40.000000
 41
0.857143
  1
全   長
 50
0.000000
 51
0.000000
  7
EASYDRAW_FONT
 72
     5
 11
2843.796387
 21
1560.480591
  0
TEXT
  8
CSLAYER1
 62
     3
 10
2686.067627
 20
1494.630005
 40
40.000000
 41
0.857143
  1
全   巾
 50
0.000000
 51
0.000000
  7
EASYDRAW_FONT
 72
     5
 11
2846.067627
 21
1494.630005
  0
TEXT
  8
CSLAYER1
 62
     3
 10
2684.509766
 20
1430.744751
 40
40.000000
 41
0.857143
  1
全   高
 50
0.000000
 51
0.000000
  7
EASYDRAW_FONT
 72
     5
 11
2844.509766
 21
1430.744751
  0
TEXT
  8
CSLAYER1
 62
     3
 10
2684.509766
 20
1368.418091
 40
40.000000
 41
0.857143
  1
リフト方式
 50
0.000000
 51
0.000000
  7
EASYDRAW_FONT
 72
     5
 11
2844.509766
 21
1368.418091
  0
TEXT
  8
CSLAYER1
 62
     3
 10
3136.378174
 20
1814.308716
 40
40.000000
 41
0.872727
  1
 500
 50
0.000000
 51
0.000000
  7
EASYDRAW_FONT
 72
     5
 11
3264.378174
 21
1814.308716
  0
TEXT
  8
CSLAYER1
 62
     3
 10
3322.534912
 20
1810.635376
 40
40.000000
 41
0.960000
  1
Ｋｇ
 50
0.000000
 51
0.000000
  7
EASYDRAW_FONT
 72
     5
 11
3386.534912
 21
1810.635376
  0
TEXT
  8
CSLAYER1
 62
     3
 10
2975.262451
 20
1749.805298
 40
40.000000
 41
0.830769
  1
1200 ×800
 50
0.000000
 51
0.000000
  7
EASYDRAW_FONT
 72
     5
 11
3263.262451
 21
1749.805298
  0
TEXT
  8
CSLAYER1
 62
     3
 10
3268.716797
 20
1761.491821
 40
40.000000
 41
1.200000
  1
Ｗ
 50
0.000000
 51
0.000000
  7
EASYDRAW_FONT
 72
     5
 11
3300.716797
 21
1761.491821
  0
TEXT
  8
CSLAYER1
 62
     3
 10
3097.278320
 20
1765.367310
 40
40.000000
 41
1.200000
  1
Ｌ
 50
0.000000
 51
0.000000
  7
EASYDRAW_FONT
 72
     5
 11
3129.278320
 21
1765.367310
  0
TEXT
  8
CSLAYER1
 62
     3
 10
3006.104980
 20
1687.341431
 40
40.000000
 41
0.834783
  1
155～1015
 50
0.000000
 51
0.000000
  7
EASYDRAW_FONT
 72
     5
 11
3262.104980
 21
1687.341431
  0
TEXT
  8
CSLAYER1
 62
     3
 10
3162.216553
 20
1623.596802
 40
40.000000
 41
0.900000
  1
860
 50
0.000000
 51
0.000000
  7
EASYDRAW_FONT
 72
     5
 11
3258.216553
 21
1623.596802
  0
TEXT
  8
CSLAYER1
 62
     3
 10
3132.594238
 20
1560.026001
 40
40.000000
 41
0.872727
  1
1200
 50
0.000000
 51
0.000000
  7
EASYDRAW_FONT
 72
     5
 11
3260.594238
 21
1560.026001
  0
TEXT
  8
CSLAYER1
 62
     3
 10
3164.335693
 20
1495.506958
 40
40.000000
 41
0.900000
  1
800
 50
0.000000
 51
0.000000
  7
EASYDRAW_FONT
 72
     5
 11
3260.335693
 21
1495.506958
  0
TEXT
  8
CSLAYER1
 62
     3
 10
2955.546875
 20
1369.372681
 40
40.000000
 41
0.827586
  1
電 動 ボールネジ式
 50
0.000000
 51
0.000000
  7
EASYDRAW_FONT
 72
     5
 11
3275.546875
 21
1369.372681
  0
TEXT
  8
CSLAYER1
 62
     3
 10
3162.326904
 20
1430.845337
 40
40.000000
 41
0.900000
  1
155
 50
0.000000
 51
0.000000
  7
EASYDRAW_FONT
 72
     5
 11
3258.326904
 21
1430.845337
  0
TEXT
  8
CSLAYER1
 62
     3
 10
3320.020752
 20
1746.531860
 40
40.000000
 41
0.960000
  1
mm
 50
0.000000
 51
0.000000
  7
EASYDRAW_FONT
 72
     5
 11
3384.020752
 21
1746.531860
  0
TEXT
  8
CSLAYER1
 62
     3
 10
3320.020752
 20
1686.198853
 40
40.000000
 41
0.960000
  1
mm
 50
0.000000
 51
0.000000
  7
EASYDRAW_FONT
 72
     5
 11
3384.020752
 21
1686.198853
  0
TEXT
  8
CSLAYER1
 62
     3
 10
3316.250000
 20
1622.094849
 40
40.000000
 41
0.960000
  1
mm
 50
0.000000
 51
0.000000
  7
EASYDRAW_FONT
 72
     5
 11
3380.250000
 21
1622.094849
  0
TEXT
  8
CSLAYER1
 62
     3
 10
3316.250000
 20
1554.219849
 40
40.000000
 41
0.960000
  1
mm
 50
0.000000
 51
0.000000
  7
EASYDRAW_FONT
 72
     5
 11
3380.250000
 21
1554.219849
  0
TEXT
  8
CSLAYER1
 62
     3
 10
3313.736572
 20
1493.886841
 40
40.000000
 41
0.960000
  1
mm
 50
0.000000
 51
0.000000
  7
EASYDRAW_FONT
 72
     5
 11
3377.736572
 21
1493.886841
  0
TEXT
  8
CSLAYER1
 62
     3
 10
3313.736572
 20
1429.782349
 40
40.000000
 41
0.960000
  1
mm
 50
0.000000
 51
0.000000
  7
EASYDRAW_FONT
 72
     5
 11
3377.736572
 21
1429.782349
  0
LINE
  8
CSLAYER1
  6
CONTINUOUS
 62
     5
 10
3147.657562
 20
1953.707926
 11
2939.271591
 21
1953.707926
  0
LINE
  8
CSLAYER1
  6
CONTINUOUS
 62
     5
 10
3147.657562
 20
1961.707926
 11
2939.271591
 21
1961.707926
  0
INSERT
  8
CSLAYER1
  2
BLKF0002
 10
0.0
 20
0.0
 30
0.0
  0
LINE
  8
CSLAYER1
  6
CONTINUOUS
 62
     4
 10
786.543429
 20
1222.984602
 11
811.543429
 21
1222.984602
  0
LINE
  8
CSLAYER1
  6
CONTINUOUS
 62
     4
 10
811.543429
 20
1197.984602
 11
784.043429
 21
1197.984602
  0
LINE
  8
CSLAYER1
  6
CONTINUOUS
 62
     4
 10
811.543429
 20
1248.184602
 11
811.543429
 21
1197.984602
  0
LINE
  8
CSLAYER1
  6
CONTINUOUS
 62
     4
 10
786.543429
 20
1197.984602
 11
786.543429
 21
1248.184602
  0
LINE
  8
CSLAYER1
  6
CONTINUOUS
 62
     4
 10
802.043429
 20
1248.184602
 11
802.043429
 21
1222.984602
  0
LINE
  8
CSLAYER1
  6
CONTINUOUS
 62
     4
 10
796.043429
 20
1248.184602
 11
796.043429
 21
1222.984602
  0
LINE
  8
CSLAYER1
  6
CONTINUOUS
 62
     4
 10
783.043429
 20
1196.984602
 11
783.043429
 21
1156.984602
  0
LINE
  8
CSLAYER1
  6
CONTINUOUS
 62
     4
 10
809.543429
 20
1188.536244
 11
809.543429
 21
1165.432960
  0
LINE
  8
CSLAYER1
  6
CONTINUOUS
 62
     4
 10
810.693429
 20
1188.536244
 11
810.693429
 21
1165.432960
  0
LINE
  8
CSLAYER1
  6
CONTINUOUS
 62
     4
 10
811.543429
 20
1184.484602
 11
810.751266
 21
1184.484602
  0
LINE
  8
CSLAYER1
  6
CONTINUOUS
 62
     4
 10
810.693429
 20
1188.536244
 11
809.543429
 21
1188.536244
  0
LINE
  8
CSLAYER1
  6
CONTINUOUS
 62
     4
 10
809.543429
 20
1184.484602
 11
809.043429
 21
1184.484602
  0
LINE
  8
CSLAYER1
  6
CONTINUOUS
 62
     4
 10
809.043429
 20
1196.984602
 11
809.043429
 21
1156.984602
  0
ARC
  8
CSLAYER1
  6
CONTINUOUS
 62
     4
 10
784.043429
 20
1196.984602
 40
1.000000
 50
90.000000
 51
180.000000
  0
ARC
  8
CSLAYER1
  6
CONTINUOUS
 62
     4
 10
808.043429
 20
1196.984602
 40
1.000000
 50
0.000000
 51
90.000000
  0
ARC
  8
CSLAYER1
  6
CONTINUOUS
 62
     4
 10
797.043429
 20
1196.984602
 40
1.000000
 50
90.000000
 51
180.000000
  0
ARC
  8
CSLAYER1
  6
CONTINUOUS
 62
     4
 10
795.043429
 20
1196.984602
 40
1.000000
 50
0.000000
 51
90.000000
  0
LINE
  8
CSLAYER1
  6
CONTINUOUS
 62
     4
 10
812.043429
 20
1248.184602
 11
812.043429
 21
1157.984602
  0
LINE
  8
CSLAYER1
  6
CONTINUOUS
 62
     4
 10
808.043429
 20
1155.984602
 11
797.043429
 21
1155.984602
  0
LINE
  8
CSLAYER1
  6
CONTINUOUS
 62
     4
 10
811.543429
 20
1169.484602
 11
810.751266
 21
1169.484602
  0
LINE
  8
CSLAYER1
  6
CONTINUOUS
 62
     4
 10
810.693429
 20
1165.432960
 11
809.543429
 21
1165.432960
  0
LINE
  8
CSLAYER1
  6
CONTINUOUS
 62
     4
 10
809.543429
 20
1169.484602
 11
809.043429
 21
1169.484602
  0
ARC
  8
CSLAYER1
  6
CONTINUOUS
 62
     4
 10
784.043429
 20
1156.984602
 40
1.000000
 50
180.000000
 51
270.000000
  0
ARC
  8
CSLAYER1
  6
CONTINUOUS
 62
     4
 10
808.043429
 20
1156.984602
 40
1.000000
 50
270.000000
 51
360.000000
  0
ARC
  8
CSLAYER1
  6
CONTINUOUS
 62
     4
 10
797.043429
 20
1156.984602
 40
1.000000
 50
180.000000
 51
270.000000
  0
ARC
  8
CSLAYER1
  6
CONTINUOUS
 62
     4
 10
795.043429
 20
1156.984602
 40
1.000000
 50
270.000000
 51
360.000000
  0
LINE
  8
CSLAYER1
  6
CONTINUOUS
 62
     4
 10
784.043429
 20
1155.984602
 11
795.043429
 21
1155.984602
  0
LINE
  8
CSLAYER1
  6
CONTINUOUS
 62
     4
 10
782.543429
 20
1186.984602
 11
783.043429
 21
1186.484602
  0
LINE
  8
CSLAYER1
  6
CONTINUOUS
 62
     4
 10
782.543429
 20
1166.984602
 11
783.043429
 21
1167.484602
  0
LINE
  8
CSLAYER1
  6
CONTINUOUS
 62
     4
 10
796.043429
 20
1156.984602
 11
796.043429
 21
1196.984602
  0
LINE
  8
CSLAYER1
  6
CONTINUOUS
 62
     4
 10
782.543429
 20
1186.984602
 11
777.543429
 21
1186.984602
  0
LINE
  8
CSLAYER1
  6
CONTINUOUS
 62
     4
 10
782.543429
 20
1166.984602
 11
777.543429
 21
1166.984602
  0
LINE
  8
CSLAYER1
  6
CENTER
 62
     5
 10
856.569497
 20
1176.984602
 11
805.722308
 21
1176.984602
  0
LINE
  8
CSLAYER1
  6
CONTINUOUS
 62
     3
 10
856.243429
 20
1176.984602
 11
856.243429
 21
1186.484602
  0
LINE
  8
CSLAYER1
  6
CONTINUOUS
 62
     4
 10
853.043429
 20
1248.184602
 11
853.043429
 21
1157.984602
  0
LINE
  8
CSLAYER1
  6
CONTINUOUS
 62
     5
 10
851.274066
 20
1176.984602
 11
807.985014
 21
1176.984602
  0
LINE
  8
CSLAYER1
  6
CONTINUOUS
 62
     4
 10
812.043429
 20
1157.984602
 11
853.043429
 21
1157.984602
  0
LINE
  8
CSLAYER1
  6
CONTINUOUS
 62
     4
 10
856.243429
 20
1199.984602
 11
856.243429
 21
1168.984602
  0
LINE
  8
CSLAYER1
  6
CONTINUOUS
 62
     5
 10
860.734303
 20
1191.984602
 11
847.043429
 21
1191.984602
  0
LINE
  8
CSLAYER1
  6
CONTINUOUS
 62
     4
 10
856.243429
 20
1199.984602
 11
853.043429
 21
1199.984602
  0
LINE
  8
CSLAYER1
  6
CONTINUOUS
 62
     4
 10
811.043429
 20
1169.984602
 11
811.043429
 21
1183.984602
  0
LINE
  8
CSLAYER1
  6
CONTINUOUS
 62
     4
 10
811.043429
 20
1169.984602
 11
812.043429
 21
1168.984602
  0
LINE
  8
CSLAYER1
  6
CONTINUOUS
 62
     4
 10
856.243429
 20
1168.984602
 11
853.043429
 21
1168.984602
  0
LINE
  8
CSLAYER1
  6
CONTINUOUS
 62
     4
 10
811.043429
 20
1183.984602
 11
812.043429
 21
1184.984602
  0
LINE
  8
CSLAYER1
  6
CONTINUOUS
 62
     4
 10
856.243429
 20
1172.984602
 11
853.043429
 21
1172.984602
  0
LINE
  8
CSLAYER1
  6
CONTINUOUS
 62
     4
 10
856.243429
 20
1180.984602
 11
853.043429
 21
1180.984602
  0
LINE
  8
CSLAYER1
  6
CONTINUOUS
 62
     4
 10
761.543429
 20
1226.499742
 11
347.543429
 21
1226.499742
  0
LINE
  8
CSLAYER1
  6
CENTER
 62
     5
 10
777.543429
 20
1243.499742
 11
331.543429
 21
1243.499742
  0
LINE
  8
CSLAYER1
  6
CONTINUOUS
 62
     4
 10
584.793429
 20
1092.047472
 11
709.043429
 21
1092.047472
  0
LINE
  8
CSLAYER1
  6
CONTINUOUS
 62
     4
 10
755.543429
 20
1100.297472
 11
711.043429
 21
1100.297472
  0
LINE
  8
CSLAYER1
  6
CONTINUOUS
 62
     4
 10
755.543429
 20
1144.297472
 11
711.043429
 21
1144.297472
  0
LINE
  8
CSLAYER1
  6
CONTINUOUS
 62
     4
 10
711.043429
 20
1150.547472
 11
711.043429
 21
1094.047472
  0
LINE
  8
CSLAYER1
  6
CONTINUOUS
 62
     4
 10
709.043429
 20
1152.547472
 11
400.043429
 21
1152.547472
  0
LINE
  8
CSLAYER1
  6
CONTINUOUS
 62
     4
 10
711.043429
 20
1150.547472
 11
709.043429
 21
1152.547472
  0
LINE
  8
CSLAYER1
  6
CONTINUOUS
 62
     4
 10
711.043429
 20
1094.047472
 11
709.043429
 21
1092.047472
  0
LINE
  8
CSLAYER1
  6
CONTINUOUS
 62
     4
 10
755.543429
 20
1144.297472
 11
760.543429
 21
1139.297472
  0
LINE
  8
CSLAYER1
  6
CONTINUOUS
 62
     4
 10
755.543429
 20
1144.297472
 11
755.543429
 21
1100.297472
  0
LINE
  8
CSLAYER1
  6
CONTINUOUS
 62
     4
 10
755.543429
 20
1100.297472
 11
760.543429
 21
1105.297472
  0
LINE
  8
CSLAYER1
  6
CONTINUOUS
 62
     4
 10
744.543429
 20
1162.497472
 11
714.543429
 21
1162.497472
  0
LINE
  8
CSLAYER1
  6
CONTINUOUS
 62
     4
 10
746.863937
 20
1147.497472
 11
746.863937
 21
1161.157726
  0
LINE
  8
CSLAYER1
  6
CONTINUOUS
 62
     4
 10
738.203683
 20
1147.497472
 11
738.203683
 21
1161.157726
  0
LINE
  8
CSLAYER1
  6
CONTINUOUS
 62
     4
 10
744.543429
 20
1162.497472
 11
746.863937
 21
1161.157726
  0
ARC
  8
CSLAYER1
  6
CONTINUOUS
 62
     4
 10
742.533810
 20
1154.842854
 40
7.656867
 50
55.561448
 51
124.438552
  0
ARC
  8
CSLAYER1
  6
CONTINUOUS
 62
     4
 10
729.543429
 20
1133.837218
 40
28.660254
 50
72.412046
 51
107.587954
  0
LINE
  8
CSLAYER1
  6
CONTINUOUS
 62
     4
 10
711.043429
 20
1147.497472
 11
748.043429
 21
1147.497472
  0
LINE
  8
CSLAYER1
  6
CONTINUOUS
 62
     4
 10
742.543429
 20
1164.997472
 11
716.543429
 21
1164.997472
  0
LINE
  8
CSLAYER1
  6
CONTINUOUS
 62
     4
 10
744.543429
 20
1162.497472
 11
744.543429
 21
1162.997472
  0
ARC
  8
CSLAYER1
  6
CONTINUOUS
 62
     4
 10
742.543429
 20
1162.997472
 40
2.000000
 50
0.000000
 51
90.000000
  0
LINE
  8
CSLAYER1
  6
CONTINUOUS
 62
     4
 10
712.222921
 20
1147.497472
 11
712.222921
 21
1161.157726
  0
LINE
  8
CSLAYER1
  6
CONTINUOUS
 62
     4
 10
720.883175
 20
1147.497472
 11
720.883175
 21
1161.157726
  0
LINE
  8
CSLAYER1
  6
CONTINUOUS
 62
     4
 10
714.543429
 20
1162.497472
 11
712.222921
 21
1161.157726
  0
ARC
  8
CSLAYER1
  6
CONTINUOUS
 62
     4
 10
716.553048
 20
1154.842854
 40
7.656867
 50
55.561448
 51
124.438552
  0
LINE
  8
CSLAYER1
  6
CONTINUOUS
 62
     4
 10
714.543429
 20
1162.497472
 11
714.543429
 21
1162.997472
  0
ARC
  8
CSLAYER1
  6
CONTINUOUS
 62
     4
 10
716.543429
 20
1162.997472
 40
2.000000
 50
90.000000
 51
180.000000
  0
LINE
  8
CSLAYER1
  6
CONTINUOUS
 62
     4
 10
739.543429
 20
1164.997472
 11
739.543429
 21
1183.075338
  0
LINE
  8
CSLAYER1
  6
CONTINUOUS
 62
     4
 10
738.043429
 20
1164.997472
 11
738.043429
 21
1184.575338
  0
LINE
  8
CSLAYER1
  6
CONTINUOUS
 62
     4
 10
748.043429
 20
1144.297472
 11
748.043429
 21
1147.497472
  0
LINE
  8
CSLAYER1
  6
CONTINUOUS
 62
     4
 10
719.543429
 20
1164.997472
 11
719.543429
 21
1183.075338
  0
LINE
  8
CSLAYER1
  6
CONTINUOUS
 62
     4
 10
721.043429
 20
1164.997472
 11
721.043429
 21
1184.575338
  0
LINE
  8
CSLAYER1
  6
CONTINUOUS
 62
     5
 10
744.516940
 20
1175.075338
 11
712.915582
 21
1175.075338
  0
LINE
  8
CSLAYER1
  6
CONTINUOUS
 62
     4
 10
709.043429
 20
1152.547472
 11
709.043429
 21
1092.047472
  0
LINE
  8
CSLAYER1
  6
CONTINUOUS
 62
     4
 10
554.543429
 20
1109.305894
 11
564.889538
 21
1107.529218
  0
LINE
  8
CSLAYER1
  6
CONTINUOUS
 62
     4
 10
564.889538
 20
1107.529218
 11
567.327631
 21
1106.979192
  0
LINE
  8
CSLAYER1
  6
CONTINUOUS
 62
     4
 10
567.327631
 20
1106.979192
 11
569.668429
 21
1106.315527
  0
LINE
  8
CSLAYER1
  6
CONTINUOUS
 62
     4
 10
569.668429
 20
1106.315527
 11
571.894116
 21
1105.543273
  0
LINE
  8
CSLAYER1
  6
CONTINUOUS
 62
     4
 10
571.894116
 20
1105.543273
 11
573.987754
 21
1104.668307
  0
LINE
  8
CSLAYER1
  6
CONTINUOUS
 62
     4
 10
573.987754
 20
1104.668307
 11
575.933409
 21
1103.697290
  0
LINE
  8
CSLAYER1
  6
CONTINUOUS
 62
     4
 10
575.933409
 20
1103.697290
 11
577.716273
 21
1102.637610
  0
LINE
  8
CSLAYER1
  6
CONTINUOUS
 62
     4
 10
577.716273
 20
1102.637610
 11
579.322778
 21
1101.497333
  0
LINE
  8
CSLAYER1
  6
CONTINUOUS
 62
     4
 10
579.322778
 20
1101.497333
 11
580.740697
 21
1100.285137
  0
LINE
  8
CSLAYER1
  6
CONTINUOUS
 62
     4
 10
580.740697
 20
1100.285137
 11
581.959240
 21
1099.010247
  0
LINE
  8
CSLAYER1
  6
CONTINUOUS
 62
     4
 10
581.959240
 20
1099.010247
 11
582.969131
 21
1097.682367
  0
LINE
  8
CSLAYER1
  6
CONTINUOUS
 62
     4
 10
582.969131
 20
1097.682367
 11
583.762685
 21
1096.311601
  0
LINE
  8
CSLAYER1
  6
CONTINUOUS
 62
     4
 10
583.762685
 20
1096.311601
 11
584.333864
 21
1094.908383
  0
LINE
  8
CSLAYER1
  6
CONTINUOUS
 62
     4
 10
584.333864
 20
1094.908383
 11
584.678319
 21
1093.483391
  0
LINE
  8
CSLAYER1
  6
CONTINUOUS
 62
     4
 10
584.678319
 20
1093.483391
 11
584.793429
 21
1092.047472
  0
LINE
  8
CSLAYER1
  6
CONTINUOUS
 62
     4
 10
760.543429
 20
1152.197472
 11
760.543429
 21
1092.397472
  0
ARC
  8
CSLAYER1
  6
CONTINUOUS
 62
     4
 10
761.643429
 20
1152.197472
 40
1.100000
 50
90.000000
 51
180.000000
  0
ARC
  8
CSLAYER1
  6
CONTINUOUS
 62
     4
 10
761.643429
 20
1092.397472
 40
1.100000
 50
180.000000
 51
270.000000
  0
LINE
  8
CSLAYER1
  6
CONTINUOUS
 62
     4
 10
721.543429
 20
1185.075338
 11
737.543429
 21
1185.075338
  0
LINE
  8
CSLAYER1
  6
CONTINUOUS
 62
     4
 10
719.543429
 20
1183.075338
 11
721.543429
 21
1185.075338
  0
LINE
  8
CSLAYER1
  6
CONTINUOUS
 62
     4
 10
719.543429
 20
1183.075338
 11
739.543429
 21
1183.075338
  0
LINE
  8
CSLAYER1
  6
CONTINUOUS
 62
     4
 10
739.543429
 20
1183.075338
 11
737.543429
 21
1185.075338
  0
CIRCLE
  8
CSLAYER1
  6
CONTINUOUS
 62
     4
 10
729.543429
 20
1175.075338
 40
2.500000
  0
LINE
  8
CSLAYER1
  6
CONTINUOUS
 62
     4
 10
715.543429
 20
720.178026
 11
715.543429
 21
745.248988
  0
LINE
  8
CSLAYER1
  6
CONTINUOUS
 62
     4
 10
716.543429
 20
718.248988
 11
716.543429
 21
746.248988
  0
LINE
  8
CSLAYER1
  6
CONTINUOUS
 62
     4
 10
721.543429
 20
746.248988
 11
718.516888
 21
746.248988
  0
LINE
  8
CSLAYER1
  6
CONTINUOUS
 62
     4
 10
715.543429
 20
745.248988
 11
716.543429
 21
746.248988
  0
LINE
  8
CSLAYER1
  6
CONTINUOUS
 62
     4
 10
738.543429
 20
751.248988
 11
739.543429
 21
752.248988
  0
LINE
  8
CSLAYER1
  6
CONTINUOUS
 62
     4
 10
716.543429
 20
746.248988
 11
721.609687
 21
751.233669
  0
LINE
  8
CSLAYER1
  6
CONTINUOUS
 62
     4
 10
721.543429
 20
751.168477
 11
716.623939
 21
746.248988
  0
LINE
  8
CSLAYER1
  6
CONTINUOUS
 62
     4
 10
721.543429
 20
750.885635
 11
716.906782
 21
746.248988
  0
LINE
  8
CSLAYER1
  6
CONTINUOUS
 62
     4
 10
721.543429
 20
750.602792
 11
717.189625
 21
746.248988
  0
LINE
  8
CSLAYER1
  6
CONTINUOUS
 62
     4
 10
721.543429
 20
750.319949
 11
717.472467
 21
746.248988
  0
LINE
  8
CSLAYER1
  6
CONTINUOUS
 62
     4
 10
721.543429
 20
750.037107
 11
717.755310
 21
746.248988
  0
LINE
  8
CSLAYER1
  6
CONTINUOUS
 62
     4
 10
721.543429
 20
749.754264
 11
718.038153
 21
746.248988
  0
LINE
  8
CSLAYER1
  6
CONTINUOUS
 62
     4
 10
721.543429
 20
749.471421
 11
718.320996
 21
746.248988
  0
LINE
  8
CSLAYER1
  6
CONTINUOUS
 62
     4
 10
721.543429
 20
749.188578
 11
718.603838
 21
746.248988
  0
LINE
  8
CSLAYER1
  6
CONTINUOUS
 62
     4
 10
721.543429
 20
748.905736
 11
718.886681
 21
746.248988
  0
LINE
  8
CSLAYER1
  6
CONTINUOUS
 62
     4
 10
721.543429
 20
748.622893
 11
719.169524
 21
746.248988
  0
LINE
  8
CSLAYER1
  6
CONTINUOUS
 62
     4
 10
721.543429
 20
748.340050
 11
719.452366
 21
746.248988
  0
LINE
  8
CSLAYER1
  6
CONTINUOUS
 62
     4
 10
721.543429
 20
748.057208
 11
719.735209
 21
746.248988
  0
LINE
  8
CSLAYER1
  6
CONTINUOUS
 62
     4
 10
721.543429
 20
747.774365
 11
720.018052
 21
746.248988
  0
LINE
  8
CSLAYER1
  6
CONTINUOUS
 62
     4
 10
721.543429
 20
747.491522
 11
720.300894
 21
746.248988
  0
LINE
  8
CSLAYER1
  6
CONTINUOUS
 62
     4
 10
721.543429
 20
747.208679
 11
720.583737
 21
746.248988
  0
LINE
  8
CSLAYER1
  6
CONTINUOUS
 62
     4
 10
721.543429
 20
746.925837
 11
720.866580
 21
746.248988
  0
LINE
  8
CSLAYER1
  6
CONTINUOUS
 62
     4
 10
721.543429
 20
746.642994
 11
721.149423
 21
746.248988
  0
LINE
  8
CSLAYER1
  6
CONTINUOUS
 62
     4
 10
721.543429
 20
746.360151
 11
721.432265
 21
746.248988
  0
LINE
  8
CSLAYER1
  6
CONTINUOUS
 62
     4
 10
818.516888
 20
710.898988
 11
777.543429
 21
710.898988
  0
LINE
  8
CSLAYER1
  6
CONTINUOUS
 62
     4
 10
738.543429
 20
751.248988
 11
738.543429
 21
713.248988
  0
LINE
  8
CSLAYER1
  6
CONTINUOUS
 62
     4
 10
819.516888
 20
752.598988
 11
819.516888
 21
711.898988
  0
LINE
  8
CSLAYER1
  6
CONTINUOUS
 62
     4
 10
819.516888
 20
711.898988
 11
818.516888
 21
710.898988
  0
LINE
  8
CSLAYER1
  6
CONTINUOUS
 62
     4
 10
859.516888
 20
742.248988
 11
859.516888
 21
722.248988
  0
LINE
  8
CSLAYER1
  6
CONTINUOUS
 62
     4
 10
840.516888
 20
750.748988
 11
840.516888
 21
713.748988
  0
LINE
  8
CSLAYER1
  6
CONTINUOUS
 62
     4
 10
845.616888
 20
749.248988
 11
845.616888
 21
715.248988
  0
LINE
  8
CSLAYER1
  6
CONTINUOUS
 62
     4
 10
857.616888
 20
749.248988
 11
857.616888
 21
715.248988
  0
LINE
  8
CSLAYER1
  6
CONTINUOUS
 62
     4
 10
840.516888
 20
749.248988
 11
857.616888
 21
749.248988
  0
LINE
  8
CSLAYER1
  6
CONTINUOUS
 62
     4
 10
845.616888
 20
742.248988
 11
859.516888
 21
742.248988
  0
LINE
  8
CSLAYER1
  6
CONTINUOUS
 62
     4
 10
840.516888
 20
715.248988
 11
857.616888
 21
715.248988
  0
LINE
  8
CSLAYER1
  6
CONTINUOUS
 62
     4
 10
845.616888
 20
722.248988
 11
859.516888
 21
722.248988
  0
LINE
  8
CSLAYER1
  6
CONTINUOUS
 62
     4
 10
837.516888
 20
750.748988
 11
840.516888
 21
750.748988
  0
LINE
  8
CSLAYER1
  6
CONTINUOUS
 62
     4
 10
837.516888
 20
713.748988
 11
840.516888
 21
713.748988
  0
LINE
  8
CSLAYER1
  6
CONTINUOUS
 62
     4
 10
837.516888
 20
713.748988
 11
837.516888
 21
750.748988
  0
LINE
  8
CSLAYER1
  6
CENTER
 62
     5
 10
873.955818
 20
732.248988
 11
691.735513
 21
732.248988
  0
LINE
  8
CSLAYER1
  6
CONTINUOUS
 62
     4
 10
837.516888
 20
719.748988
 11
836.543429
 21
719.748988
  0
LINE
  8
CSLAYER1
  6
CONTINUOUS
 62
     4
 10
818.516888
 20
753.598988
 11
777.543429
 21
753.598988
  0
LINE
  8
CSLAYER1
  6
CONTINUOUS
 62
     4
 10
819.516888
 20
752.598988
 11
818.516888
 21
753.598988
  0
LINE
  8
CSLAYER1
  6
CONTINUOUS
 62
     4
 10
837.516888
 20
744.748988
 11
836.543429
 21
744.748988
  0
LINE
  8
CSLAYER1
  6
CONTINUOUS
 62
     4
 10
836.516888
 20
706.142063
 11
836.516888
 21
719.748988
  0
LINE
  8
CSLAYER1
  6
CONTINUOUS
 62
     4
 10
782.543429
 20
710.898988
 11
777.543429
 21
705.898988
  0
LINE
  8
CSLAYER1
  6
CONTINUOUS
 62
     4
 10
777.543429
 20
706.181830
 11
782.260586
 21
710.898988
  0
LINE
  8
CSLAYER1
  6
CONTINUOUS
 62
     4
 10
777.543429
 20
706.464673
 11
781.977744
 21
710.898988
  0
LINE
  8
CSLAYER1
  6
CONTINUOUS
 62
     4
 10
777.543429
 20
706.747516
 11
781.694901
 21
710.898988
  0
LINE
  8
CSLAYER1
  6
CONTINUOUS
 62
     4
 10
777.543429
 20
707.030358
 11
781.412058
 21
710.898988
  0
LINE
  8
CSLAYER1
  6
CONTINUOUS
 62
     4
 10
777.543429
 20
707.313201
 11
781.129215
 21
710.898988
  0
LINE
  8
CSLAYER1
  6
CONTINUOUS
 62
     4
 10
777.543429
 20
707.596044
 11
780.846373
 21
710.898988
  0
LINE
  8
CSLAYER1
  6
CONTINUOUS
 62
     4
 10
777.543429
 20
707.878887
 11
780.563530
 21
710.898988
  0
LINE
  8
CSLAYER1
  6
CONTINUOUS
 62
     4
 10
777.543429
 20
708.161729
 11
780.280687
 21
710.898988
  0
LINE
  8
CSLAYER1
  6
CONTINUOUS
 62
     4
 10
777.543429
 20
708.444572
 11
779.997845
 21
710.898988
  0
LINE
  8
CSLAYER1
  6
CONTINUOUS
 62
     4
 10
777.543429
 20
708.727415
 11
779.715002
 21
710.898988
  0
LINE
  8
CSLAYER1
  6
CONTINUOUS
 62
     4
 10
777.543429
 20
709.010257
 11
779.432159
 21
710.898988
  0
LINE
  8
CSLAYER1
  6
CONTINUOUS
 62
     4
 10
777.543429
 20
709.293100
 11
779.149316
 21
710.898988
  0
LINE
  8
CSLAYER1
  6
CONTINUOUS
 62
     4
 10
777.543429
 20
709.575943
 11
778.866474
 21
710.898988
  0
LINE
  8
CSLAYER1
  6
CONTINUOUS
 62
     4
 10
777.543429
 20
709.858786
 11
778.583631
 21
710.898988
  0
LINE
  8
CSLAYER1
  6
CONTINUOUS
 62
     4
 10
777.543429
 20
710.141628
 11
778.300788
 21
710.898988
  0
LINE
  8
CSLAYER1
  6
CONTINUOUS
 62
     4
 10
777.543429
 20
710.424471
 11
778.017946
 21
710.898988
  0
LINE
  8
CSLAYER1
  6
CONTINUOUS
 62
     4
 10
777.543429
 20
710.707314
 11
777.735103
 21
710.898988
  0
LINE
  8
CSLAYER1
  6
CONTINUOUS
 62
     4
 10
761.543429
 20
756.966145
 11
756.826272
 21
752.248988
  0
LINE
  8
CSLAYER1
  6
CONTINUOUS
 62
     4
 10
761.543429
 20
756.683302
 11
757.109114
 21
752.248988
  0
LINE
  8
CSLAYER1
  6
CONTINUOUS
 62
     4
 10
761.543429
 20
756.400460
 11
757.391957
 21
752.248988
  0
LINE
  8
CSLAYER1
  6
CONTINUOUS
 62
     4
 10
761.543429
 20
756.117617
 11
757.674800
 21
752.248988
  0
LINE
  8
CSLAYER1
  6
CONTINUOUS
 62
     4
 10
761.543429
 20
755.834774
 11
757.957643
 21
752.248988
  0
LINE
  8
CSLAYER1
  6
CONTINUOUS
 62
     4
 10
761.543429
 20
755.551931
 11
758.240485
 21
752.248988
  0
LINE
  8
CSLAYER1
  6
CONTINUOUS
 62
     4
 10
761.543429
 20
755.269089
 11
758.523328
 21
752.248988
  0
LINE
  8
CSLAYER1
  6
CONTINUOUS
 62
     4
 10
761.543429
 20
754.986246
 11
758.806171
 21
752.248988
  0
LINE
  8
CSLAYER1
  6
CONTINUOUS
 62
     4
 10
761.543429
 20
754.703403
 11
759.089013
 21
752.248988
  0
LINE
  8
CSLAYER1
  6
CONTINUOUS
 62
     4
 10
761.543429
 20
754.420561
 11
759.371856
 21
752.248988
  0
LINE
  8
CSLAYER1
  6
CONTINUOUS
 62
     4
 10
761.543429
 20
754.137718
 11
759.654699
 21
752.248988
  0
LINE
  8
CSLAYER1
  6
CONTINUOUS
 62
     4
 10
761.543429
 20
753.854875
 11
759.937542
 21
752.248988
  0
LINE
  8
CSLAYER1
  6
CONTINUOUS
 62
     4
 10
761.543429
 20
753.572032
 11
760.220384
 21
752.248988
  0
LINE
  8
CSLAYER1
  6
CONTINUOUS
 62
     4
 10
761.543429
 20
753.289190
 11
760.503227
 21
752.248988
  0
LINE
  8
CSLAYER1
  6
CONTINUOUS
 62
     4
 10
761.543429
 20
753.006347
 11
760.786070
 21
752.248988
  0
LINE
  8
CSLAYER1
  6
CONTINUOUS
 62
     4
 10
761.543429
 20
752.723504
 11
761.068912
 21
752.248988
  0
LINE
  8
CSLAYER1
  6
CONTINUOUS
 62
     4
 10
761.543429
 20
752.440662
 11
761.351755
 21
752.248988
  0
LINE
  8
CSLAYER1
  6
CONTINUOUS
 62
     4
 10
782.543429
 20
753.598988
 11
777.543429
 21
758.598988
  0
LINE
  8
CSLAYER1
  6
CONTINUOUS
 62
     4
 10
777.543429
 20
758.316145
 11
782.260586
 21
753.598988
  0
LINE
  8
CSLAYER1
  6
CONTINUOUS
 62
     4
 10
777.543429
 20
758.033302
 11
781.977744
 21
753.598988
  0
LINE
  8
CSLAYER1
  6
CONTINUOUS
 62
     4
 10
777.543429
 20
757.750460
 11
781.694901
 21
753.598988
  0
LINE
  8
CSLAYER1
  6
CONTINUOUS
 62
     4
 10
777.543429
 20
757.467617
 11
781.412058
 21
753.598988
  0
LINE
  8
CSLAYER1
  6
CONTINUOUS
 62
     4
 10
777.543429
 20
757.184774
 11
781.129215
 21
753.598988
  0
LINE
  8
CSLAYER1
  6
CONTINUOUS
 62
     4
 10
777.543429
 20
756.901931
 11
780.846373
 21
753.598988
  0
LINE
  8
CSLAYER1
  6
CONTINUOUS
 62
     4
 10
777.543429
 20
756.619089
 11
780.563530
 21
753.598988
  0
LINE
  8
CSLAYER1
  6
CONTINUOUS
 62
     4
 10
777.543429
 20
756.336246
 11
780.280687
 21
753.598988
  0
LINE
  8
CSLAYER1
  6
CONTINUOUS
 62
     4
 10
777.543429
 20
756.053403
 11
779.997845
 21
753.598988
  0
LINE
  8
CSLAYER1
  6
CONTINUOUS
 62
     4
 10
777.543429
 20
755.770561
 11
779.715002
 21
753.598988
  0
LINE
  8
CSLAYER1
  6
CONTINUOUS
 62
     4
 10
777.543429
 20
755.487718
 11
779.432159
 21
753.598988
  0
LINE
  8
CSLAYER1
  6
CONTINUOUS
 62
     4
 10
777.543429
 20
755.204875
 11
779.149316
 21
753.598988
  0
LINE
  8
CSLAYER1
  6
CONTINUOUS
 62
     4
 10
777.543429
 20
754.922032
 11
778.866474
 21
753.598988
  0
LINE
  8
CSLAYER1
  6
CONTINUOUS
 62
     4
 10
777.543429
 20
754.639190
 11
778.583631
 21
753.598988
  0
LINE
  8
CSLAYER1
  6
CONTINUOUS
 62
     4
 10
777.543429
 20
754.356347
 11
778.300788
 21
753.598988
  0
LINE
  8
CSLAYER1
  6
CONTINUOUS
 62
     4
 10
777.543429
 20
754.073504
 11
778.017946
 21
753.598988
  0
LINE
  8
CSLAYER1
  6
CONTINUOUS
 62
     4
 10
777.543429
 20
753.790662
 11
777.735103
 21
753.598988
  0
LINE
  8
CSLAYER1
  6
CONTINUOUS
 62
     4
 10
760.503227
 20
752.248988
 11
761.543429
 21
752.248988
  0
LINE
  8
CSLAYER1
  6
CONTINUOUS
 62
     4
 10
759.351755
 20
752.248988
 11
739.543429
 21
752.248988
  0
LINE
  8
CSLAYER1
  6
CONTINUOUS
 62
     4
 10
738.543429
 20
747.248988
 11
737.543429
 21
747.248988
  0
LINE
  8
CSLAYER1
  6
CONTINUOUS
 62
     4
 10
820.543429
 20
747.248988
 11
819.516888
 21
747.248988
  0
LINE
  8
CSLAYER1
  6
CONTINUOUS
 62
     4
 10
820.543429
 20
717.248988
 11
819.516888
 21
717.248988
  0
LINE
  8
CSLAYER1
  6
CONTINUOUS
 62
     4
 10
761.543429
 20
707.531830
 11
756.826272
 21
712.248988
  0
LINE
  8
CSLAYER1
  6
CONTINUOUS
 62
     4
 10
761.543429
 20
707.814673
 11
757.109114
 21
712.248988
  0
LINE
  8
CSLAYER1
  6
CONTINUOUS
 62
     4
 10
761.543429
 20
708.097516
 11
757.391957
 21
712.248988
  0
LINE
  8
CSLAYER1
  6
CONTINUOUS
 62
     4
 10
761.543429
 20
708.380358
 11
757.674800
 21
712.248988
  0
LINE
  8
CSLAYER1
  6
CONTINUOUS
 62
     4
 10
761.543429
 20
708.663201
 11
757.957643
 21
712.248988
  0
LINE
  8
CSLAYER1
  6
CONTINUOUS
 62
     4
 10
761.543429
 20
708.946044
 11
758.240485
 21
712.248988
  0
LINE
  8
CSLAYER1
  6
CONTINUOUS
 62
     4
 10
761.543429
 20
709.228887
 11
758.523328
 21
712.248988
  0
LINE
  8
CSLAYER1
  6
CONTINUOUS
 62
     4
 10
761.543429
 20
709.511729
 11
758.806171
 21
712.248988
  0
LINE
  8
CSLAYER1
  6
CONTINUOUS
 62
     4
 10
761.543429
 20
709.794572
 11
759.089013
 21
712.248988
  0
LINE
  8
CSLAYER1
  6
CONTINUOUS
 62
     4
 10
761.543429
 20
710.077415
 11
759.371856
 21
712.248988
  0
LINE
  8
CSLAYER1
  6
CONTINUOUS
 62
     4
 10
761.543429
 20
710.360257
 11
759.654699
 21
712.248988
  0
LINE
  8
CSLAYER1
  6
CONTINUOUS
 62
     4
 10
761.543429
 20
710.643100
 11
759.937542
 21
712.248988
  0
LINE
  8
CSLAYER1
  6
CONTINUOUS
 62
     4
 10
761.543429
 20
710.925943
 11
760.220384
 21
712.248988
  0
LINE
  8
CSLAYER1
  6
CONTINUOUS
 62
     4
 10
761.543429
 20
711.208786
 11
760.503227
 21
712.248988
  0
LINE
  8
CSLAYER1
  6
CONTINUOUS
 62
     4
 10
761.543429
 20
711.491628
 11
760.786070
 21
712.248988
  0
LINE
  8
CSLAYER1
  6
CONTINUOUS
 62
     4
 10
761.543429
 20
711.774471
 11
761.068912
 21
712.248988
  0
LINE
  8
CSLAYER1
  6
CONTINUOUS
 62
     4
 10
761.543429
 20
712.057314
 11
761.351755
 21
712.248988
  0
LINE
  8
CSLAYER1
  6
CONTINUOUS
 62
     4
 10
760.503227
 20
712.248988
 11
761.543429
 21
712.248988
  0
LINE
  8
CSLAYER1
  6
CONTINUOUS
 62
     4
 10
759.351755
 20
712.248988
 11
739.543429
 21
712.248988
  0
LINE
  8
CSLAYER1
  6
PHANTOM
 62
     5
 10
1073.954803
 20
415.513373
 11
1073.954803
 21
362.513373
  0
DIMENSION
  8
CSLAYER1
 62
     7
  2
*D0000
 10
2374.376049
 20
415.513373
 11
2427.882568
 21
336.290863
 13
2273.954803
 23
260.513373
 14
2273.954803
 24
415.513373
 50
90.000000
 70
1
  0
DIMENSION
  8
CSLAYER1
 62
     7
  2
*D0001
 10
2374.376049
 20
415.513373
 11
2364.375977
 21
858.348938
 13
2374.376049
 23
1301.184602
 14
2374.376049
 24
415.513373
 50
90.000000
 70
1
  0
DIMENSION
  8
CSLAYER1
 62
     7
  2
*D0002
 10
2473.954803
 20
1301.184602
 11
2463.954834
 21
780.848938
 13
2270.954803
 23
260.513373
 14
2270.954803
 24
1301.184602
 50
90.000000
 70
1
  0
TEXT
  8
CSLAYER1
 62
     5
 10
2510.685547
 20
266.082066
 40
40.124626
 41
0.804686
  1
F.L
 50
0.000000
 51
0.000000
  7
EASYDRAW_FONT
 72
     5
 11
2596.786149
 21
266.082066
  0
LINE
  8
CSLAYER1
  6
CONTINUOUS
 62
     5
 10
1429.935910
 20
732.248988
 11
1486.082507
 21
732.248988
  0
LINE
  8
CSLAYER1
  6
CONTINUOUS
 62
     5
 10
1456.263829
 20
760.406806
 11
1456.263829
 21
703.205348
  0
LINE
  8
CSLAYER1
  6
CONTINUOUS
 62
     5
 10
1342.699549
 20
701.346243
 11
1342.699549
 21
645.310515
  0
LINE
  8
CSLAYER1
  6
CONTINUOUS
 62
     5
 10
1313.077229
 20
674.342560
 11
1371.231147
 21
674.342560
  0
POINT
  8
CSLAYER1
 62
     5
 10
761.543429
 20
674.342560
  0
POINT
  8
CSLAYER1
 62
     5
 10
760.543429
 20
674.342560
  0
LINE
  8
CSLAYER1
  6
CONTINUOUS
 62
     7
 10
619.691678
 20
727.870239
 11
489.395180
 21
727.870239
  0
LINE
  8
CSLAYER1
  6
CONTINUOUS
 62
     7
 10
619.691678
 20
695.887737
 11
489.395180
 21
695.887737
  0
LINE
  8
CSLAYER1
  6
CONTINUOUS
 62
     7
 10
609.543429
 20
620.814882
 11
619.762738
 21
620.814882
  0
LINE
  8
CSLAYER1
  6
CONTINUOUS
 62
     7
 10
760.543429
 20
695.416720
 11
760.543429
 21
653.267673
  0
LINE
  8
CSLAYER1
  6
CONTINUOUS
 62
     7
 10
620.543429
 20
727.870239
 11
620.543429
 21
695.887737
  0
INSERT
  8
CSLAYER1
  2
BLKF0003
 10
0.0
 20
0.0
 30
0.0
  0
LINE
  8
CSLAYER1
  6
CONTINUOUS
 62
     7
 10
621.382910
 20
727.726188
 11
752.234662
 21
705.272669
  0
LINE
  8
CSLAYER1
  6
CONTINUOUS
 62
     7
 10
621.382910
 20
695.743686
 11
752.234662
 21
673.290167
  0
LINE
  8
CSLAYER1
  6
CONTINUOUS
 62
     7
 10
752.235501
 20
643.411868
 11
621.454809
 21
620.959077
  0
ARC
  8
CSLAYER1
  6
CONTINUOUS
 62
     7
 10
619.691678
 20
685.887737
 40
10.000000
 50
80.263153
 51
90.000000
  0
ARC
  8
CSLAYER1
  6
CONTINUOUS
 62
     7
 10
619.691678
 20
717.870239
 40
10.000000
 50
80.263153
 51
90.000000
  0
ARC
  8
CSLAYER1
  6
CONTINUOUS
 62
     7
 10
619.762738
 20
630.814882
 40
10.000000
 50
270.000000
 51
279.741726
  0
ARC
  8
CSLAYER1
  6
CONTINUOUS
 62
     7
 10
750.543429
 20
653.267673
 40
10.000000
 50
-80.258274
 51
0.000000
  0
ARC
  8
CSLAYER1
  6
CONTINUOUS
 62
     7
 10
750.543429
 20
695.416720
 40
10.000000
 50
0.000000
 51
80.263153
  0
ARC
  8
CSLAYER1
  6
CONTINUOUS
 62
     7
 10
750.543429
 20
663.434218
 40
10.000000
 50
0.000000
 51
80.263153
  0
LINE
  8
CSLAYER1
  6
CONTINUOUS
 62
     4
 10
721.543429
 20
718.248988
 11
718.516888
 21
718.248988
  0
LINE
  8
CSLAYER1
  6
CONTINUOUS
 62
     4
 10
715.543429
 20
719.248988
 11
716.543429
 21
718.248988
  0
LINE
  8
CSLAYER1
  6
CONTINUOUS
 62
     4
 10
716.543429
 20
718.248988
 11
721.609687
 21
713.264307
  0
LINE
  8
CSLAYER1
  6
CONTINUOUS
 62
     4
 10
721.543429
 20
713.329498
 11
716.623939
 21
718.248988
  0
LINE
  8
CSLAYER1
  6
CONTINUOUS
 62
     4
 10
721.543429
 20
713.612341
 11
716.906782
 21
718.248988
  0
LINE
  8
CSLAYER1
  6
CONTINUOUS
 62
     4
 10
721.543429
 20
713.895183
 11
717.189625
 21
718.248988
  0
LINE
  8
CSLAYER1
  6
CONTINUOUS
 62
     4
 10
721.543429
 20
714.178026
 11
717.472467
 21
718.248988
  0
LINE
  8
CSLAYER1
  6
CONTINUOUS
 62
     4
 10
721.543429
 20
714.460869
 11
717.755310
 21
718.248988
  0
LINE
  8
CSLAYER1
  6
CONTINUOUS
 62
     4
 10
721.543429
 20
714.743711
 11
718.038153
 21
718.248988
  0
LINE
  8
CSLAYER1
  6
CONTINUOUS
 62
     4
 10
721.543429
 20
715.026554
 11
718.320996
 21
718.248988
  0
LINE
  8
CSLAYER1
  6
CONTINUOUS
 62
     4
 10
721.543429
 20
715.309397
 11
718.603838
 21
718.248988
  0
LINE
  8
CSLAYER1
  6
CONTINUOUS
 62
     4
 10
721.543429
 20
715.592240
 11
718.886681
 21
718.248988
  0
LINE
  8
CSLAYER1
  6
CONTINUOUS
 62
     4
 10
721.543429
 20
715.875082
 11
719.169524
 21
718.248988
  0
LINE
  8
CSLAYER1
  6
CONTINUOUS
 62
     4
 10
721.543429
 20
716.157925
 11
719.452366
 21
718.248988
  0
LINE
  8
CSLAYER1
  6
CONTINUOUS
 62
     4
 10
721.543429
 20
716.440768
 11
719.735209
 21
718.248988
  0
LINE
  8
CSLAYER1
  6
CONTINUOUS
 62
     4
 10
721.543429
 20
716.723610
 11
720.018052
 21
718.248988
  0
LINE
  8
CSLAYER1
  6
CONTINUOUS
 62
     4
 10
721.543429
 20
717.006453
 11
720.300894
 21
718.248988
  0
LINE
  8
CSLAYER1
  6
CONTINUOUS
 62
     4
 10
721.543429
 20
717.289296
 11
720.583737
 21
718.248988
  0
LINE
  8
CSLAYER1
  6
CONTINUOUS
 62
     4
 10
721.543429
 20
717.572139
 11
720.866580
 21
718.248988
  0
LINE
  8
CSLAYER1
  6
CONTINUOUS
 62
     4
 10
721.543429
 20
717.854981
 11
721.149423
 21
718.248988
  0
LINE
  8
CSLAYER1
  6
CONTINUOUS
 62
     4
 10
721.543429
 20
718.137824
 11
721.432265
 21
718.248988
  0
LINE
  8
CSLAYER1
  6
CONTINUOUS
 62
     4
 10
738.543429
 20
713.248988
 11
739.543429
 21
712.248988
  0
LINE
  8
CSLAYER1
  6
CONTINUOUS
 62
     4
 10
738.543429
 20
717.248988
 11
737.543429
 21
717.248988
  0
LINE
  8
CSLAYER1
  6
CONTINUOUS
 62
     4
 10
780.043429
 20
1134.797472
 11
778.893429
 21
1134.797472
  0
LINE
  8
CSLAYER1
  6
CONTINUOUS
 62
     4
 10
778.893429
 20
1134.247472
 11
777.543429
 21
1134.247472
  0
LINE
  8
CSLAYER1
  6
CONTINUOUS
 62
     4
 10
778.893429
 20
1137.347472
 11
777.543429
 21
1137.347472
  0
LINE
  8
CSLAYER1
  6
CONTINUOUS
 62
     4
 10
778.893429
 20
1137.347472
 11
778.893429
 21
1107.247472
  0
LINE
  8
CSLAYER1
  6
CONTINUOUS
 62
     4
 10
781.543429
 20
1133.297472
 11
781.543429
 21
1111.297472
  0
LINE
  8
CSLAYER1
  6
CONTINUOUS
 62
     4
 10
781.543429
 20
1133.297472
 11
780.043429
 21
1134.797472
  0
LINE
  8
CSLAYER1
  6
CONTINUOUS
 62
     4
 10
780.043429
 20
1134.797472
 11
780.043429
 21
1109.797472
  0
LINE
  8
CSLAYER1
  6
CONTINUOUS
 62
     4
 10
780.043429
 20
1109.797472
 11
778.893429
 21
1109.797472
  0
LINE
  8
CSLAYER1
  6
CONTINUOUS
 62
     4
 10
778.893429
 20
1110.347472
 11
777.543429
 21
1110.347472
  0
LINE
  8
CSLAYER1
  6
CONTINUOUS
 62
     4
 10
778.893429
 20
1107.247472
 11
777.543429
 21
1107.247472
  0
LINE
  8
CSLAYER1
  6
CONTINUOUS
 62
     4
 10
781.543429
 20
1111.297472
 11
780.043429
 21
1109.797472
  0
LINE
  8
CSLAYER1
  6
CENTER
 62
     5
 10
554.543429
 20
1350.222095
 11
554.543429
 21
237.806643
  0
LINE
  8
CSLAYER1
  6
CONTINUOUS
 62
     4
 10
204.543429
 20
324.795157
 11
204.543429
 21
260.513373
  0
LINE
  8
CSLAYER1
  6
CONTINUOUS
 62
     4
 10
154.543429
 20
1298.184602
 11
154.543429
 21
1248.184602
  0
POINT
  8
CSLAYER1
 62
     4
 10
379.543429
 20
1034.714780
  0
LINE
  8
CSLAYER1
  6
CONTINUOUS
 62
     5
 10
365.418053
 20
1034.714782
 11
393.657143
 21
1034.714782
  0
LINE
  8
CSLAYER1
  6
CONTINUOUS
 62
     4
 10
371.043429
 20
1059.714782
 11
371.043429
 21
1100.297472
  0
LINE
  8
CSLAYER1
  6
CONTINUOUS
 62
     4
 10
369.543429
 20
1051.714782
 11
369.543429
 21
1100.297472
  0
LINE
  8
CSLAYER1
  6
CONTINUOUS
 62
     4
 10
369.543429
 20
1059.714782
 11
389.543429
 21
1059.714782
  0
LINE
  8
CSLAYER1
  6
CONTINUOUS
 62
     4
 10
371.043429
 20
1059.714782
 11
369.543429
 21
1057.116705
  0
LINE
  8
CSLAYER1
  6
CONTINUOUS
 62
     4
 10
388.043429
 20
1059.714782
 11
388.043429
 21
1100.297472
  0
LINE
  8
CSLAYER1
  6
CONTINUOUS
 62
     4
 10
388.043429
 20
1059.714782
 11
389.543429
 21
1057.116705
  0
LINE
  8
CSLAYER1
  6
CONTINUOUS
 62
     4
 10
389.543429
 20
1051.714782
 11
389.543429
 21
1100.297472
  0
LINE
  8
CSLAYER1
  6
CONTINUOUS
 62
     4
 10
392.068429
 20
1049.714780
 11
367.018429
 21
1049.714780
  0
POINT
  8
CSLAYER1
 62
     4
 10
379.543429
 20
1002.964780
  0
LINE
  8
CSLAYER1
  6
CONTINUOUS
 62
     4
 10
366.018429
 20
1048.714780
 11
366.018429
 21
956.164780
  0
LINE
  8
CSLAYER1
  6
CONTINUOUS
 62
     4
 10
370.018429
 20
1018.014780
 11
370.018429
 21
956.164780
  0
LINE
  8
CSLAYER1
  6
CONTINUOUS
 62
     4
 10
370.018429
 20
1018.014780
 11
366.018429
 21
1018.014780
  0
LINE
  8
CSLAYER1
  6
CONTINUOUS
 62
     4
 10
371.018429
 20
993.439780
 11
388.068429
 21
993.439780
  0
LINE
  8
CSLAYER1
  6
CONTINUOUS
 62
     4
 10
371.018429
 20
1012.489780
 11
388.068429
 21
1012.489780
  0
ARC
  8
CSLAYER1
  6
CONTINUOUS
 62
     4
 10
371.018429
 20
994.439780
 40
1.000000
 50
180.000000
 51
270.000000
  0
ARC
  8
CSLAYER1
  6
CONTINUOUS
 62
     4
 10
371.018429
 20
1011.489780
 40
1.000000
 50
90.000000
 51
180.000000
  0
LINE
  8
CSLAYER1
  6
CONTINUOUS
 62
     4
 10
393.068429
 20
1048.714780
 11
393.068429
 21
955.464780
  0
LINE
  8
CSLAYER1
  6
CONTINUOUS
 62
     4
 10
389.068429
 20
1018.014780
 11
389.068429
 21
956.164780
  0
LINE
  8
CSLAYER1
  6
CONTINUOUS
 62
     4
 10
389.068429
 20
1018.014780
 11
393.068429
 21
1018.014780
  0
ARC
  8
CSLAYER1
  6
CONTINUOUS
 62
     4
 10
388.068429
 20
994.439780
 40
1.000000
 50
270.000000
 51
360.000000
  0
ARC
  8
CSLAYER1
  6
CONTINUOUS
 62
     4
 10
388.068429
 20
1011.489780
 40
1.000000
 50
0.000000
 51
90.000000
  0
LINE
  8
CSLAYER1
  6
CONTINUOUS
 62
     4
 10
359.793429
 20
999.194780
 11
359.793429
 21
1006.744506
  0
LINE
  8
CSLAYER1
  6
CONTINUOUS
 62
     4
 10
366.018429
 20
989.964780
 11
361.643429
 21
989.964780
  0
LINE
  8
CSLAYER1
  6
CONTINUOUS
 62
     4
 10
366.018429
 20
1047.714780
 11
361.643429
 21
1047.714780
  0
LINE
  8
CSLAYER1
  6
CONTINUOUS
 62
     4
 10
361.643429
 20
998.194780
 11
360.793429
 21
998.194780
  0
LINE
  8
CSLAYER1
  6
CONTINUOUS
 62
     4
 10
361.643429
 20
1007.744506
 11
360.793429
 21
1007.744506
  0
ARC
  8
CSLAYER1
  6
CONTINUOUS
 62
     4
 10
360.793429
 20
999.194780
 40
1.000000
 50
180.000000
 51
270.000000
  0
ARC
  8
CSLAYER1
  6
CONTINUOUS
 62
     4
 10
360.793429
 20
1006.744506
 40
1.000000
 50
90.000000
 51
180.000000
  0
LINE
  8
CSLAYER1
  6
CONTINUOUS
 62
     4
 10
359.793429
 20
1030.944780
 11
359.793429
 21
1038.494506
  0
LINE
  8
CSLAYER1
  6
CONTINUOUS
 62
     4
 10
361.643429
 20
1029.944780
 11
360.793429
 21
1029.944780
  0
LINE
  8
CSLAYER1
  6
CONTINUOUS
 62
     4
 10
361.643429
 20
1039.494506
 11
360.793429
 21
1039.494506
  0
ARC
  8
CSLAYER1
  6
CONTINUOUS
 62
     4
 10
360.793429
 20
1030.944780
 40
1.000000
 50
180.000000
 51
270.000000
  0
ARC
  8
CSLAYER1
  6
CONTINUOUS
 62
     4
 10
360.793429
 20
1038.494506
 40
1.000000
 50
90.000000
 51
180.000000
  0
LINE
  8
CSLAYER1
  6
CONTINUOUS
 62
     4
 10
399.293429
 20
999.194780
 11
399.293429
 21
1006.744506
  0
LINE
  8
CSLAYER1
  6
CONTINUOUS
 62
     4
 10
393.068429
 20
989.964780
 11
397.443429
 21
989.964780
  0
LINE
  8
CSLAYER1
  6
CONTINUOUS
 62
     4
 10
393.068429
 20
1047.714780
 11
397.443429
 21
1047.714780
  0
LINE
  8
CSLAYER1
  6
CONTINUOUS
 62
     4
 10
397.443429
 20
998.194780
 11
398.293429
 21
998.194780
  0
LINE
  8
CSLAYER1
  6
CONTINUOUS
 62
     4
 10
397.443429
 20
1007.744506
 11
398.293429
 21
1007.744506
  0
ARC
  8
CSLAYER1
  6
CONTINUOUS
 62
     4
 10
398.293429
 20
999.194780
 40
1.000000
 50
270.000000
 51
360.000000
  0
ARC
  8
CSLAYER1
  6
CONTINUOUS
 62
     4
 10
398.293429
 20
1006.744506
 40
1.000000
 50
0.000000
 51
90.000000
  0
LINE
  8
CSLAYER1
  6
CONTINUOUS
 62
     4
 10
402.393429
 20
1030.944780
 11
402.393429
 21
1038.494506
  0
LINE
  8
CSLAYER1
  6
CONTINUOUS
 62
     4
 10
397.443429
 20
1029.944780
 11
401.393429
 21
1029.944780
  0
LINE
  8
CSLAYER1
  6
CONTINUOUS
 62
     4
 10
397.443429
 20
1039.494506
 11
401.393429
 21
1039.494506
  0
ARC
  8
CSLAYER1
  6
CONTINUOUS
 62
     4
 10
401.393429
 20
1030.944780
 40
1.000000
 50
270.000000
 51
360.000000
  0
ARC
  8
CSLAYER1
  6
CONTINUOUS
 62
     4
 10
401.393429
 20
1038.494506
 40
1.000000
 50
0.000000
 51
90.000000
  0
LINE
  8
CSLAYER1
  6
CONTINUOUS
 62
     4
 10
393.068429
 20
1039.494506
 11
366.018429
 21
1039.494506
  0
LINE
  8
CSLAYER1
  6
CONTINUOUS
 62
     4
 10
393.068429
 20
1029.944780
 11
366.018429
 21
1029.944780
  0
LINE
  8
CSLAYER1
  6
CONTINUOUS
 62
     4
 10
391.068429
 20
1019.714780
 11
368.018429
 21
1019.714780
  0
ARC
  8
CSLAYER1
  6
CONTINUOUS
 62
     4
 10
368.018429
 20
1021.714780
 40
2.000000
 50
180.000000
 51
270.000000
  0
ARC
  8
CSLAYER1
  6
CONTINUOUS
 62
     4
 10
391.068429
 20
1021.714780
 40
2.000000
 50
270.000000
 51
360.000000
  0
ARC
  8
CSLAYER1
  6
CONTINUOUS
 62
     4
 10
391.543429
 20
1051.714780
 40
2.000000
 50
180.000000
 51
270.000000
  0
ARC
  8
CSLAYER1
  6
CONTINUOUS
 62
     4
 10
367.543429
 20
1051.714780
 40
2.000000
 50
270.000000
 51
360.000000
  0
ARC
  8
CSLAYER1
  6
CONTINUOUS
 62
     4
 10
392.068429
 20
1048.714780
 40
1.000000
 50
0.000000
 51
90.000000
  0
ARC
  8
CSLAYER1
  6
CONTINUOUS
 62
     4
 10
367.018429
 20
1048.714780
 40
1.000000
 50
90.000000
 51
180.000000
  0
POINT
  8
CSLAYER1
 62
     4
 10
379.543429
 20
1049.714780
  0
LINE
  8
CSLAYER1
  6
CONTINUOUS
 62
     4
 10
361.643429
 20
989.964780
 11
361.643429
 21
1047.714780
  0
LINE
  8
CSLAYER1
  6
CONTINUOUS
 62
     4
 10
397.443429
 20
989.964780
 11
397.443429
 21
1047.714780
  0
LINE
  8
CSLAYER1
  6
CONTINUOUS
 62
     5
 10
307.249407
 20
674.342560
 11
379.252657
 21
674.342560
  0
LINE
  8
CSLAYER1
  6
CONTINUOUS
 62
     4
 10
348.543429
 20
695.416720
 11
348.543429
 21
655.342560
  0
POINT
  8
CSLAYER1
 62
     4
 10
379.543429
 20
775.018215
  0
LINE
  8
CSLAYER1
  6
CONTINUOUS
 62
     4
 10
366.018429
 20
762.018215
 11
366.018429
 21
770.248215
  0
LINE
  8
CSLAYER1
  6
CONTINUOUS
 62
     4
 10
361.643429
 20
762.018215
 11
361.643429
 21
770.248215
  0
LINE
  8
CSLAYER1
  6
CONTINUOUS
 62
     4
 10
359.793429
 20
771.248215
 11
359.793429
 21
778.797942
  0
LINE
  8
CSLAYER1
  6
CONTINUOUS
 62
     4
 10
366.018429
 20
762.018215
 11
361.643429
 21
762.018215
  0
LINE
  8
CSLAYER1
  6
CONTINUOUS
 62
     4
 10
360.793429
 20
770.248215
 11
398.293429
 21
770.248215
  0
ARC
  8
CSLAYER1
  6
CONTINUOUS
 62
     4
 10
360.793429
 20
771.248215
 40
1.000000
 50
180.000000
 51
270.000000
  0
ARC
  8
CSLAYER1
  6
CONTINUOUS
 62
     4
 10
360.793429
 20
778.797942
 40
1.000000
 50
90.000000
 51
180.000000
  0
LINE
  8
CSLAYER1
  6
CONTINUOUS
 62
     4
 10
393.068429
 20
762.018215
 11
393.068429
 21
770.248215
  0
LINE
  8
CSLAYER1
  6
CONTINUOUS
 62
     4
 10
397.443429
 20
762.018215
 11
397.443429
 21
770.248215
  0
LINE
  8
CSLAYER1
  6
CONTINUOUS
 62
     4
 10
399.293429
 20
771.248215
 11
399.293429
 21
778.797942
  0
LINE
  8
CSLAYER1
  6
CONTINUOUS
 62
     4
 10
393.068429
 20
762.018215
 11
397.443429
 21
762.018215
  0
ARC
  8
CSLAYER1
  6
CONTINUOUS
 62
     4
 10
398.293429
 20
771.248215
 40
1.000000
 50
270.000000
 51
360.000000
  0
ARC
  8
CSLAYER1
  6
CONTINUOUS
 62
     4
 10
398.293429
 20
778.797942
 40
1.000000
 50
0.000000
 51
90.000000
  0
LINE
  8
CSLAYER1
  6
CONTINUOUS
 62
     4
 10
392.068429
 20
765.018215
 11
367.018429
 21
765.018215
  0
LINE
  8
CSLAYER1
  6
CONTINUOUS
 62
     4
 10
393.068429
 20
766.018215
 11
392.068429
 21
765.018215
  0
LINE
  8
CSLAYER1
  6
CONTINUOUS
 62
     4
 10
367.018429
 20
765.018215
 11
366.018429
 21
766.018215
  0
LINE
  8
CSLAYER1
  6
CONTINUOUS
 62
     4
 10
392.068429
 20
785.018215
 11
367.018429
 21
785.018215
  0
LINE
  8
CSLAYER1
  6
CONTINUOUS
 62
     4
 10
393.068429
 20
784.018215
 11
392.068429
 21
785.018215
  0
LINE
  8
CSLAYER1
  6
CONTINUOUS
 62
     4
 10
367.018429
 20
785.018215
 11
366.018429
 21
784.018215
  0
LINE
  8
CSLAYER1
  6
CONTINUOUS
 62
     5
 10
352.060148
 20
806.768215
 11
396.596059
 21
806.768215
  0
LINE
  8
CSLAYER1
  6
CONTINUOUS
 62
     4
 10
393.068429
 20
819.768215
 11
397.443429
 21
819.768215
  0
LINE
  8
CSLAYER1
  6
CONTINUOUS
 62
     4
 10
399.293429
 20
802.998215
 11
399.293429
 21
810.547942
  0
LINE
  8
CSLAYER1
  6
CONTINUOUS
 62
     4
 10
397.443429
 20
801.998215
 11
398.293429
 21
801.998215
  0
LINE
  8
CSLAYER1
  6
CONTINUOUS
 62
     4
 10
397.443429
 20
811.547942
 11
398.293429
 21
811.547942
  0
ARC
  8
CSLAYER1
  6
CONTINUOUS
 62
     4
 10
398.293429
 20
802.998215
 40
1.000000
 50
270.000000
 51
360.000000
  0
ARC
  8
CSLAYER1
  6
CONTINUOUS
 62
     4
 10
398.293429
 20
810.547942
 40
1.000000
 50
0.000000
 51
90.000000
  0
LINE
  8
CSLAYER1
  6
CONTINUOUS
 62
     4
 10
366.018429
 20
819.768215
 11
361.643429
 21
819.768215
  0
LINE
  8
CSLAYER1
  6
CONTINUOUS
 62
     4
 10
360.793429
 20
779.788215
 11
398.293429
 21
779.788215
  0
LINE
  8
CSLAYER1
  6
CONTINUOUS
 62
     4
 10
359.793429
 20
802.998215
 11
359.793429
 21
810.547942
  0
LINE
  8
CSLAYER1
  6
CONTINUOUS
 62
     4
 10
361.643429
 20
801.998215
 11
360.793429
 21
801.998215
  0
LINE
  8
CSLAYER1
  6
CONTINUOUS
 62
     4
 10
361.643429
 20
811.547942
 11
360.793429
 21
811.547942
  0
ARC
  8
CSLAYER1
  6
CONTINUOUS
 62
     4
 10
360.793429
 20
802.998215
 40
1.000000
 50
180.000000
 51
270.000000
  0
ARC
  8
CSLAYER1
  6
CONTINUOUS
 62
     4
 10
360.793429
 20
810.547942
 40
1.000000
 50
90.000000
 51
180.000000
  0
POINT
  8
CSLAYER1
 62
     4
 10
379.543429
 20
806.768215
  0
LINE
  8
CSLAYER1
  6
CONTINUOUS
 62
     5
 10
352.905766
 20
775.018215
 11
397.441678
 21
775.018215
  0
LINE
  8
CSLAYER1
  6
CONTINUOUS
 62
     4
 10
361.643429
 20
779.797942
 11
361.643429
 21
819.768215
  0
LINE
  8
CSLAYER1
  6
CONTINUOUS
 62
     4
 10
393.068429
 20
779.788215
 11
393.068429
 21
857.268215
  0
LINE
  8
CSLAYER1
  6
CONTINUOUS
 62
     4
 10
397.443429
 20
779.797942
 11
397.443429
 21
819.768215
  0
LINE
  8
CSLAYER1
  6
CONTINUOUS
 62
     4
 10
371.543429
 20
797.243215
 11
371.543429
 21
785.018215
  0
LINE
  8
CSLAYER1
  6
CONTINUOUS
 62
     4
 10
387.543429
 20
797.243215
 11
387.543429
 21
785.018215
  0
POINT
  8
CSLAYER1
 62
     4
 10
379.543429
 20
971.214780
  0
LINE
  8
CSLAYER1
  6
CONTINUOUS
 62
     4
 10
370.018429
 20
956.164780
 11
366.018429
 21
956.164780
  0
LINE
  8
CSLAYER1
  6
CONTINUOUS
 62
     4
 10
371.018429
 20
980.739780
 11
388.068429
 21
980.739780
  0
LINE
  8
CSLAYER1
  6
CONTINUOUS
 62
     4
 10
371.018429
 20
961.689780
 11
388.068429
 21
961.689780
  0
ARC
  8
CSLAYER1
  6
CONTINUOUS
 62
     4
 10
371.018429
 20
979.739780
 40
1.000000
 50
90.000000
 51
180.000000
  0
ARC
  8
CSLAYER1
  6
CONTINUOUS
 62
     4
 10
371.018429
 20
962.689780
 40
1.000000
 50
180.000000
 51
270.000000
  0
LINE
  8
CSLAYER1
  6
CONTINUOUS
 62
     4
 10
389.068429
 20
956.164780
 11
393.068429
 21
956.164780
  0
ARC
  8
CSLAYER1
  6
CONTINUOUS
 62
     4
 10
388.068429
 20
979.739780
 40
1.000000
 50
0.000000
 51
90.000000
  0
ARC
  8
CSLAYER1
  6
CONTINUOUS
 62
     4
 10
388.068429
 20
962.689780
 40
1.000000
 50
270.000000
 51
360.000000
  0
LINE
  8
CSLAYER1
  6
CONTINUOUS
 62
     4
 10
359.793429
 20
974.984780
 11
359.793429
 21
967.435053
  0
LINE
  8
CSLAYER1
  6
CONTINUOUS
 62
     4
 10
366.018429
 20
984.214780
 11
361.643429
 21
984.214780
  0
LINE
  8
CSLAYER1
  6
CONTINUOUS
 62
     4
 10
361.643429
 20
975.984780
 11
360.793429
 21
975.984780
  0
LINE
  8
CSLAYER1
  6
CONTINUOUS
 62
     4
 10
361.643429
 20
966.435053
 11
360.793429
 21
966.435053
  0
ARC
  8
CSLAYER1
  6
CONTINUOUS
 62
     4
 10
360.793429
 20
974.984780
 40
1.000000
 50
90.000000
 51
180.000000
  0
ARC
  8
CSLAYER1
  6
CONTINUOUS
 62
     4
 10
360.793429
 20
967.435053
 40
1.000000
 50
180.000000
 51
270.000000
  0
LINE
  8
CSLAYER1
  6
CONTINUOUS
 62
     4
 10
399.293429
 20
974.984780
 11
399.293429
 21
967.435053
  0
LINE
  8
CSLAYER1
  6
CONTINUOUS
 62
     4
 10
393.068429
 20
984.214780
 11
397.443429
 21
984.214780
  0
LINE
  8
CSLAYER1
  6
CONTINUOUS
 62
     4
 10
397.443429
 20
975.984780
 11
398.293429
 21
975.984780
  0
LINE
  8
CSLAYER1
  6
CONTINUOUS
 62
     4
 10
397.443429
 20
966.435053
 11
398.293429
 21
966.435053
  0
ARC
  8
CSLAYER1
  6
CONTINUOUS
 62
     4
 10
398.293429
 20
974.984780
 40
1.000000
 50
0.000000
 51
90.000000
  0
ARC
  8
CSLAYER1
  6
CONTINUOUS
 62
     4
 10
398.293429
 20
967.435053
 40
1.000000
 50
270.000000
 51
360.000000
  0
LINE
  8
CSLAYER1
  6
CONTINUOUS
 62
     4
 10
397.443429
 20
984.214780
 11
397.443429
 21
926.464780
  0
LINE
  8
CSLAYER1
  6
CONTINUOUS
 62
     4
 10
361.643429
 20
984.214780
 11
361.643429
 21
926.464780
  0
POINT
  8
CSLAYER1
 62
     4
 10
379.543429
 20
838.518215
  0
LINE
  8
CSLAYER1
  6
CONTINUOUS
 62
     4
 10
366.018429
 20
779.788215
 11
366.018429
 21
857.268215
  0
LINE
  8
CSLAYER1
  6
CONTINUOUS
 62
     4
 10
370.018429
 20
853.568215
 11
370.018429
 21
791.718215
  0
LINE
  8
CSLAYER1
  6
CONTINUOUS
 62
     4
 10
370.018429
 20
853.568215
 11
366.018429
 21
853.568215
  0
LINE
  8
CSLAYER1
  6
CONTINUOUS
 62
     4
 10
371.018429
 20
828.993215
 11
388.068429
 21
828.993215
  0
LINE
  8
CSLAYER1
  6
CONTINUOUS
 62
     4
 10
371.018429
 20
848.043215
 11
388.068429
 21
848.043215
  0
ARC
  8
CSLAYER1
  6
CONTINUOUS
 62
     4
 10
371.018429
 20
829.993215
 40
1.000000
 50
180.000000
 51
270.000000
  0
ARC
  8
CSLAYER1
  6
CONTINUOUS
 62
     4
 10
371.018429
 20
847.043215
 40
1.000000
 50
90.000000
 51
180.000000
  0
LINE
  8
CSLAYER1
  6
CONTINUOUS
 62
     4
 10
389.068429
 20
853.568215
 11
389.068429
 21
791.718215
  0
LINE
  8
CSLAYER1
  6
CONTINUOUS
 62
     4
 10
389.068429
 20
853.568215
 11
393.068429
 21
853.568215
  0
ARC
  8
CSLAYER1
  6
CONTINUOUS
 62
     4
 10
388.068429
 20
829.993215
 40
1.000000
 50
270.000000
 51
360.000000
  0
ARC
  8
CSLAYER1
  6
CONTINUOUS
 62
     4
 10
388.068429
 20
847.043215
 40
1.000000
 50
0.000000
 51
90.000000
  0
LINE
  8
CSLAYER1
  6
CONTINUOUS
 62
     4
 10
359.793429
 20
834.748215
 11
359.793429
 21
842.297942
  0
LINE
  8
CSLAYER1
  6
CONTINUOUS
 62
     4
 10
366.018429
 20
825.518215
 11
361.643429
 21
825.518215
  0
LINE
  8
CSLAYER1
  6
CONTINUOUS
 62
     4
 10
361.643429
 20
833.748215
 11
360.793429
 21
833.748215
  0
LINE
  8
CSLAYER1
  6
CONTINUOUS
 62
     4
 10
361.643429
 20
843.297942
 11
360.793429
 21
843.297942
  0
ARC
  8
CSLAYER1
  6
CONTINUOUS
 62
     4
 10
360.793429
 20
834.748215
 40
1.000000
 50
180.000000
 51
270.000000
  0
ARC
  8
CSLAYER1
  6
CONTINUOUS
 62
     4
 10
360.793429
 20
842.297942
 40
1.000000
 50
90.000000
 51
180.000000
  0
LINE
  8
CSLAYER1
  6
CONTINUOUS
 62
     4
 10
399.293429
 20
834.748215
 11
399.293429
 21
842.297942
  0
LINE
  8
CSLAYER1
  6
CONTINUOUS
 62
     4
 10
393.068429
 20
825.518215
 11
397.443429
 21
825.518215
  0
LINE
  8
CSLAYER1
  6
CONTINUOUS
 62
     4
 10
397.443429
 20
833.748215
 11
398.293429
 21
833.748215
  0
LINE
  8
CSLAYER1
  6
CONTINUOUS
 62
     4
 10
397.443429
 20
843.297942
 11
398.293429
 21
843.297942
  0
ARC
  8
CSLAYER1
  6
CONTINUOUS
 62
     4
 10
398.293429
 20
834.748215
 40
1.000000
 50
270.000000
 51
360.000000
  0
ARC
  8
CSLAYER1
  6
CONTINUOUS
 62
     4
 10
398.293429
 20
842.297942
 40
1.000000
 50
0.000000
 51
90.000000
  0
LINE
  8
CSLAYER1
  6
CONTINUOUS
 62
     4
 10
361.643429
 20
825.518215
 11
361.643429
 21
883.268215
  0
LINE
  8
CSLAYER1
  6
CONTINUOUS
 62
     4
 10
397.443429
 20
825.518215
 11
397.443429
 21
883.268215
  0
LINE
  8
CSLAYER1
  6
CONTINUOUS
 62
     4
 10
370.018429
 20
791.718215
 11
366.018429
 21
791.718215
  0
LINE
  8
CSLAYER1
  6
CONTINUOUS
 62
     4
 10
371.018429
 20
816.293215
 11
388.068429
 21
816.293215
  0
LINE
  8
CSLAYER1
  6
CONTINUOUS
 62
     4
 10
371.018429
 20
797.243215
 11
388.068429
 21
797.243215
  0
ARC
  8
CSLAYER1
  6
CONTINUOUS
 62
     4
 10
371.018429
 20
815.293215
 40
1.000000
 50
90.000000
 51
180.000000
  0
ARC
  8
CSLAYER1
  6
CONTINUOUS
 62
     4
 10
371.018429
 20
798.243215
 40
1.000000
 50
180.000000
 51
270.000000
  0
LINE
  8
CSLAYER1
  6
CONTINUOUS
 62
     4
 10
389.068429
 20
791.718215
 11
393.068429
 21
791.718215
  0
ARC
  8
CSLAYER1
  6
CONTINUOUS
 62
     4
 10
388.068429
 20
815.293215
 40
1.000000
 50
0.000000
 51
90.000000
  0
ARC
  8
CSLAYER1
  6
CONTINUOUS
 62
     4
 10
388.068429
 20
798.243215
 40
1.000000
 50
270.000000
 51
360.000000
  0
LINE
  8
CSLAYER1
  6
CONTINUOUS
 62
     4
 10
387.543429
 20
710.539134
 11
387.543429
 21
765.018215
  0
LINE
  8
CSLAYER1
  6
CONTINUOUS
 62
     4
 10
371.543429
 20
792.018215
 11
387.543429
 21
792.018215
  0
LINE
  8
CSLAYER1
  6
CONTINUOUS
 62
     4
 10
371.543429
 20
765.018215
 11
371.543429
 21
707.793612
  0
LINE
  8
CSLAYER1
  6
CONTINUOUS
 62
     4
 10
904.543429
 20
325.513373
 11
204.543429
 21
325.513373
  0
LINE
  8
CSLAYER1
  6
CONTINUOUS
 62
     3
 10
150.578533
 20
260.513373
 11
2586.289159
 21
260.513373
  0
LINE
  8
CSLAYER1
  6
CONTINUOUS
 62
     4
 10
347.543429
 20
325.513373
 11
347.543429
 21
1248.184602
  0
LINE
  8
CSLAYER1
  6
CONTINUOUS
 62
     4
 10
331.543429
 20
325.513373
 11
331.543429
 21
1248.184602
  0
LINE
  8
CSLAYER1
  6
CONTINUOUS
 62
     4
 10
509.993429
 20
967.782011
 11
509.993429
 21
727.870239
  0
LINE
  8
CSLAYER1
  6
CONTINUOUS
 62
     4
 10
524.293429
 20
1092.047472
 11
524.293429
 21
986.027853
  0
LINE
  8
CSLAYER1
  6
CONTINUOUS
 62
     4
 10
509.993429
 20
967.782011
 11
510.162955
 21
969.896729
  0
LINE
  8
CSLAYER1
  6
CONTINUOUS
 62
     4
 10
510.162955
 20
969.896729
 11
510.670244
 21
971.995353
  0
LINE
  8
CSLAYER1
  6
CONTINUOUS
 62
     4
 10
510.670244
 20
971.995353
 11
511.511433
 21
974.061911
  0
LINE
  8
CSLAYER1
  6
CONTINUOUS
 62
     4
 10
511.511433
 20
974.061911
 11
512.680123
 21
976.080675
  0
LINE
  8
CSLAYER1
  6
CONTINUOUS
 62
     4
 10
512.680123
 20
976.080675
 11
514.167417
 21
978.036281
  0
LINE
  8
CSLAYER1
  6
CONTINUOUS
 62
     4
 10
514.167417
 20
978.036281
 11
515.961997
 21
979.913846
  0
LINE
  8
CSLAYER1
  6
CONTINUOUS
 62
     4
 10
515.961997
 20
979.913846
 11
518.050205
 21
981.699080
  0
LINE
  8
CSLAYER1
  6
CONTINUOUS
 62
     4
 10
518.050205
 20
981.699080
 11
520.416149
 21
983.378397
  0
LINE
  8
CSLAYER1
  6
CONTINUOUS
 62
     4
 10
520.416149
 20
983.378397
 11
523.041822
 21
984.939016
  0
LINE
  8
CSLAYER1
  6
CONTINUOUS
 62
     4
 10
523.041822
 20
984.939016
 11
525.907241
 21
986.369060
  0
LINE
  8
CSLAYER1
  6
CONTINUOUS
 62
     4
 10
525.907241
 20
986.369060
 11
528.990599
 21
987.657645
  0
LINE
  8
CSLAYER1
  6
CONTINUOUS
 62
     4
 10
528.990599
 20
987.657645
 11
532.268429
 21
988.794965
  0
LINE
  8
CSLAYER1
  6
CONTINUOUS
 62
     4
 10
532.268429
 20
988.794965
 11
535.715785
 21
989.772364
  0
LINE
  8
CSLAYER1
  6
CONTINUOUS
 62
     4
 10
535.715785
 20
989.772364
 11
539.306432
 21
990.582402
  0
LINE
  8
CSLAYER1
  6
CONTINUOUS
 62
     4
 10
539.306432
 20
990.582402
 11
543.013041
 21
991.218916
  0
LINE
  8
CSLAYER1
  6
CONTINUOUS
 62
     4
 10
543.013041
 20
991.218916
 11
554.543429
 21
992.611136
  0
LINE
  8
CSLAYER1
  6
CONTINUOUS
 62
     4
 10
288.543429
 20
612.562003
 11
331.543429
 21
612.562003
  0
LINE
  8
CSLAYER1
  6
CONTINUOUS
 62
     4
 10
288.543429
 20
533.148746
 11
331.543429
 21
533.148746
  0
LINE
  8
CSLAYER1
  6
CONTINUOUS
 62
     4
 10
331.543429
 20
627.755618
 11
288.543429
 21
627.755618
  0
LINE
  8
CSLAYER1
  6
CONTINUOUS
 62
     4
 10
347.543429
 20
612.562003
 11
498.367954
 21
612.562003
  0
LINE
  8
CSLAYER1
  6
CONTINUOUS
 62
     4
 10
347.543429
 20
533.148746
 11
494.543429
 21
533.148746
  0
LINE
  8
CSLAYER1
  6
CONTINUOUS
 62
     4
 10
448.044262
 20
627.755618
 11
347.543429
 21
627.755618
  0
LINE
  8
CSLAYER1
  6
CONTINUOUS
 62
     4
 10
272.543429
 20
719.748988
 11
272.543429
 21
325.513373
  0
LINE
  8
CSLAYER1
  6
CONTINUOUS
 62
     4
 10
272.543429
 20
1157.984602
 11
272.543429
 21
744.748988
  0
LINE
  8
CSLAYER1
  6
CONTINUOUS
 62
     4
 10
288.543429
 20
1157.984602
 11
288.543429
 21
325.513373
  0
ARC
  8
CSLAYER1
  6
CONTINUOUS
 62
     4
 10
157.543429
 20
1298.184602
 40
3.000000
 50
90.000000
 51
180.000000
  0
LINE
  8
CSLAYER1
  6
CONTINUOUS
 62
     5
 10
379.543429
 20
1206.843906
 11
379.543429
 21
709.166373
  0
LINE
  8
CSLAYER1
  6
CONTINUOUS
 62
     4
 10
329.543429
 20
690.342560
 11
329.543429
 21
658.342560
  0
LINE
  8
CSLAYER1
  6
CONTINUOUS
 62
     4
 10
319.543429
 20
688.342560
 11
319.543429
 21
660.342560
  0
LINE
  8
CSLAYER1
  6
CONTINUOUS
 62
     4
 10
321.543429
 20
690.342560
 11
329.543429
 21
690.342560
  0
LINE
  8
CSLAYER1
  6
CONTINUOUS
 62
     4
 10
319.543429
 20
688.342560
 11
321.543429
 21
690.342560
  0
LINE
  8
CSLAYER1
  6
CONTINUOUS
 62
     4
 10
321.543429
 20
690.342560
 11
321.543429
 21
658.342560
  0
LINE
  8
CSLAYER1
  6
CONTINUOUS
 62
     4
 10
321.543429
 20
658.342560
 11
329.543429
 21
658.342560
  0
LINE
  8
CSLAYER1
  6
CONTINUOUS
 62
     4
 10
319.543429
 20
660.342560
 11
321.543429
 21
658.342560
  0
LINE
  8
CSLAYER1
  6
CONTINUOUS
 62
     4
 10
329.543429
 20
688.342560
 11
331.543429
 21
688.342560
  0
LINE
  8
CSLAYER1
  6
CONTINUOUS
 62
     4
 10
329.543429
 20
660.342560
 11
331.543429
 21
660.342560
  0
LINE
  8
CSLAYER1
  6
CONTINUOUS
 62
     4
 10
347.543429
 20
688.342560
 11
348.543429
 21
688.342560
  0
LINE
  8
CSLAYER1
  6
CONTINUOUS
 62
     4
 10
347.543429
 20
660.342560
 11
348.543429
 21
660.342560
  0
LINE
  8
CSLAYER1
  6
CONTINUOUS
 62
     4
 10
322.543429
 20
1222.984602
 11
297.543429
 21
1222.984602
  0
LINE
  8
CSLAYER1
  6
CONTINUOUS
 62
     4
 10
297.543429
 20
1197.984602
 11
325.043429
 21
1197.984602
  0
LINE
  8
CSLAYER1
  6
CONTINUOUS
 62
     4
 10
297.543429
 20
1248.184602
 11
297.543429
 21
1197.984602
  0
LINE
  8
CSLAYER1
  6
CONTINUOUS
 62
     4
 10
322.543429
 20
1197.984602
 11
322.543429
 21
1248.184602
  0
LINE
  8
CSLAYER1
  6
CONTINUOUS
 62
     4
 10
307.043429
 20
1248.184602
 11
307.043429
 21
1222.984602
  0
LINE
  8
CSLAYER1
  6
CONTINUOUS
 62
     4
 10
313.043429
 20
1248.184602
 11
313.043429
 21
1222.984602
  0
LINE
  8
CSLAYER1
  6
CONTINUOUS
 62
     4
 10
326.043429
 20
1196.984602
 11
326.043429
 21
1156.984602
  0
LINE
  8
CSLAYER1
  6
CONTINUOUS
 62
     4
 10
299.543429
 20
1188.536244
 11
299.543429
 21
1165.432960
  0
LINE
  8
CSLAYER1
  6
CONTINUOUS
 62
     4
 10
298.393429
 20
1188.536244
 11
298.393429
 21
1165.432960
  0
LINE
  8
CSLAYER1
  6
CONTINUOUS
 62
     4
 10
297.543429
 20
1184.484602
 11
298.335592
 21
1184.484602
  0
LINE
  8
CSLAYER1
  6
CONTINUOUS
 62
     4
 10
298.393429
 20
1188.536244
 11
299.543429
 21
1188.536244
  0
LINE
  8
CSLAYER1
  6
CONTINUOUS
 62
     4
 10
299.543429
 20
1184.484602
 11
300.043429
 21
1184.484602
  0
LINE
  8
CSLAYER1
  6
CONTINUOUS
 62
     4
 10
300.043429
 20
1196.984602
 11
300.043429
 21
1156.984602
  0
ARC
  8
CSLAYER1
  6
CONTINUOUS
 62
     4
 10
325.043429
 20
1196.984602
 40
1.000000
 50
0.000000
 51
90.000000
  0
ARC
  8
CSLAYER1
  6
CONTINUOUS
 62
     4
 10
301.043429
 20
1196.984602
 40
1.000000
 50
90.000000
 51
180.000000
  0
ARC
  8
CSLAYER1
  6
CONTINUOUS
 62
     4
 10
312.043429
 20
1196.984602
 40
1.000000
 50
0.000000
 51
90.000000
  0
ARC
  8
CSLAYER1
  6
CONTINUOUS
 62
     4
 10
314.043429
 20
1196.984602
 40
1.000000
 50
90.000000
 51
180.000000
  0
LINE
  8
CSLAYER1
  6
CONTINUOUS
 62
     4
 10
297.043429
 20
1248.184602
 11
297.043429
 21
1157.984602
  0
LINE
  8
CSLAYER1
  6
CONTINUOUS
 62
     4
 10
301.043429
 20
1155.984602
 11
312.043429
 21
1155.984602
  0
LINE
  8
CSLAYER1
  6
CONTINUOUS
 62
     4
 10
297.543429
 20
1169.484602
 11
298.335592
 21
1169.484602
  0
LINE
  8
CSLAYER1
  6
CONTINUOUS
 62
     4
 10
298.393429
 20
1165.432960
 11
299.543429
 21
1165.432960
  0
LINE
  8
CSLAYER1
  6
CONTINUOUS
 62
     4
 10
299.543429
 20
1169.484602
 11
300.043429
 21
1169.484602
  0
ARC
  8
CSLAYER1
  6
CONTINUOUS
 62
     4
 10
325.043429
 20
1156.984602
 40
1.000000
 50
270.000000
 51
360.000000
  0
ARC
  8
CSLAYER1
  6
CONTINUOUS
 62
     4
 10
301.043429
 20
1156.984602
 40
1.000000
 50
180.000000
 51
270.000000
  0
ARC
  8
CSLAYER1
  6
CONTINUOUS
 62
     4
 10
312.043429
 20
1156.984602
 40
1.000000
 50
270.000000
 51
360.000000
  0
ARC
  8
CSLAYER1
  6
CONTINUOUS
 62
     4
 10
314.043429
 20
1156.984602
 40
1.000000
 50
180.000000
 51
270.000000
  0
LINE
  8
CSLAYER1
  6
CONTINUOUS
 62
     4
 10
325.043429
 20
1155.984602
 11
314.043429
 21
1155.984602
  0
LINE
  8
CSLAYER1
  6
CONTINUOUS
 62
     4
 10
326.543429
 20
1186.984602
 11
326.043429
 21
1186.484602
  0
LINE
  8
CSLAYER1
  6
CONTINUOUS
 62
     4
 10
326.543429
 20
1166.984602
 11
326.043429
 21
1167.484602
  0
LINE
  8
CSLAYER1
  6
CONTINUOUS
 62
     4
 10
313.043429
 20
1156.984602
 11
313.043429
 21
1196.984602
  0
LINE
  8
CSLAYER1
  6
CONTINUOUS
 62
     4
 10
326.543429
 20
1186.984602
 11
331.543429
 21
1186.984602
  0
LINE
  8
CSLAYER1
  6
CONTINUOUS
 62
     4
 10
326.543429
 20
1166.984602
 11
331.543429
 21
1166.984602
  0
LINE
  8
CSLAYER1
  6
CENTER
 62
     5
 10
252.517361
 20
1176.984602
 11
303.364550
 21
1176.984602
  0
LINE
  8
CSLAYER1
  6
CONTINUOUS
 62
     3
 10
252.843429
 20
1176.984602
 11
252.843429
 21
1186.484602
  0
LINE
  8
CSLAYER1
  6
CONTINUOUS
 62
     4
 10
256.043429
 20
1248.184602
 11
256.043429
 21
1157.984602
  0
LINE
  8
CSLAYER1
  6
CONTINUOUS
 62
     5
 10
257.812792
 20
1176.984602
 11
301.101844
 21
1176.984602
  0
LINE
  8
CSLAYER1
  6
CONTINUOUS
 62
     4
 10
297.043429
 20
1157.984602
 11
256.043429
 21
1157.984602
  0
LINE
  8
CSLAYER1
  6
CONTINUOUS
 62
     4
 10
252.843429
 20
1199.984602
 11
252.843429
 21
1168.984602
  0
LINE
  8
CSLAYER1
  6
CONTINUOUS
 62
     5
 10
248.352555
 20
1191.984602
 11
262.043429
 21
1191.984602
  0
LINE
  8
CSLAYER1
  6
CONTINUOUS
 62
     4
 10
252.843429
 20
1199.984602
 11
256.043429
 21
1199.984602
  0
LINE
  8
CSLAYER1
  6
CONTINUOUS
 62
     4
 10
298.043429
 20
1169.984602
 11
298.043429
 21
1183.984602
  0
LINE
  8
CSLAYER1
  6
CONTINUOUS
 62
     4
 10
298.043429
 20
1169.984602
 11
297.043429
 21
1168.984602
  0
LINE
  8
CSLAYER1
  6
CONTINUOUS
 62
     4
 10
252.843429
 20
1168.984602
 11
256.043429
 21
1168.984602
  0
LINE
  8
CSLAYER1
  6
CONTINUOUS
 62
     4
 10
298.043429
 20
1183.984602
 11
297.043429
 21
1184.984602
  0
LINE
  8
CSLAYER1
  6
CONTINUOUS
 62
     4
 10
252.843429
 20
1172.984602
 11
256.043429
 21
1172.984602
  0
LINE
  8
CSLAYER1
  6
CONTINUOUS
 62
     4
 10
252.843429
 20
1180.984602
 11
256.043429
 21
1180.984602
  0
LINE
  8
CSLAYER1
  6
CONTINUOUS
 62
     4
 10
524.293429
 20
1092.047472
 11
400.043429
 21
1092.047472
  0
LINE
  8
CSLAYER1
  6
CONTINUOUS
 62
     4
 10
353.543429
 20
1100.297472
 11
398.043429
 21
1100.297472
  0
LINE
  8
CSLAYER1
  6
CONTINUOUS
 62
     4
 10
353.543429
 20
1144.297472
 11
398.043429
 21
1144.297472
  0
LINE
  8
CSLAYER1
  6
CONTINUOUS
 62
     4
 10
398.043429
 20
1150.547472
 11
398.043429
 21
1094.047472
  0
LINE
  8
CSLAYER1
  6
CONTINUOUS
 62
     4
 10
398.043429
 20
1150.547472
 11
400.043429
 21
1152.547472
  0
LINE
  8
CSLAYER1
  6
CONTINUOUS
 62
     4
 10
398.043429
 20
1094.047472
 11
400.043429
 21
1092.047472
  0
LINE
  8
CSLAYER1
  6
CONTINUOUS
 62
     4
 10
353.543429
 20
1144.297472
 11
348.543429
 21
1139.297472
  0
LINE
  8
CSLAYER1
  6
CONTINUOUS
 62
     4
 10
353.543429
 20
1144.297472
 11
353.543429
 21
1100.297472
  0
LINE
  8
CSLAYER1
  6
CONTINUOUS
 62
     4
 10
353.543429
 20
1100.297472
 11
348.543429
 21
1105.297472
  0
LINE
  8
CSLAYER1
  6
CONTINUOUS
 62
     4
 10
364.543429
 20
1162.497472
 11
394.543429
 21
1162.497472
  0
LINE
  8
CSLAYER1
  6
CONTINUOUS
 62
     4
 10
362.222921
 20
1147.497472
 11
362.222921
 21
1161.157726
  0
LINE
  8
CSLAYER1
  6
CONTINUOUS
 62
     4
 10
370.883175
 20
1147.497472
 11
370.883175
 21
1161.157726
  0
LINE
  8
CSLAYER1
  6
CONTINUOUS
 62
     4
 10
364.543429
 20
1162.497472
 11
362.222921
 21
1161.157726
  0
ARC
  8
CSLAYER1
  6
CONTINUOUS
 62
     4
 10
366.553048
 20
1154.842854
 40
7.656867
 50
55.561448
 51
124.438552
  0
ARC
  8
CSLAYER1
  6
CONTINUOUS
 62
     4
 10
379.543429
 20
1133.837218
 40
28.660254
 50
72.412046
 51
107.587954
  0
LINE
  8
CSLAYER1
  6
CONTINUOUS
 62
     4
 10
398.043429
 20
1147.497472
 11
361.043429
 21
1147.497472
  0
LINE
  8
CSLAYER1
  6
CONTINUOUS
 62
     4
 10
366.543429
 20
1164.997472
 11
392.543429
 21
1164.997472
  0
LINE
  8
CSLAYER1
  6
CONTINUOUS
 62
     4
 10
364.543429
 20
1162.497472
 11
364.543429
 21
1162.997472
  0
ARC
  8
CSLAYER1
  6
CONTINUOUS
 62
     4
 10
366.543429
 20
1162.997472
 40
2.000000
 50
90.000000
 51
180.000000
  0
LINE
  8
CSLAYER1
  6
CONTINUOUS
 62
     4
 10
396.863937
 20
1147.497472
 11
396.863937
 21
1161.157726
  0
LINE
  8
CSLAYER1
  6
CONTINUOUS
 62
     4
 10
388.203683
 20
1147.497472
 11
388.203683
 21
1161.157726
  0
LINE
  8
CSLAYER1
  6
CONTINUOUS
 62
     4
 10
394.543429
 20
1162.497472
 11
396.863937
 21
1161.157726
  0
ARC
  8
CSLAYER1
  6
CONTINUOUS
 62
     4
 10
392.533810
 20
1154.842854
 40
7.656867
 50
55.561448
 51
124.438552
  0
LINE
  8
CSLAYER1
  6
CONTINUOUS
 62
     4
 10
394.543429
 20
1162.497472
 11
394.543429
 21
1162.997472
  0
ARC
  8
CSLAYER1
  6
CONTINUOUS
 62
     4
 10
392.543429
 20
1162.997472
 40
2.000000
 50
0.000000
 51
90.000000
  0
LINE
  8
CSLAYER1
  6
CONTINUOUS
 62
     4
 10
369.543429
 20
1164.997472
 11
369.543429
 21
1183.075338
  0
LINE
  8
CSLAYER1
  6
CONTINUOUS
 62
     4
 10
371.043429
 20
1164.997472
 11
371.043429
 21
1184.575338
  0
LINE
  8
CSLAYER1
  6
CONTINUOUS
 62
     4
 10
361.043429
 20
1144.297472
 11
361.043429
 21
1147.497472
  0
LINE
  8
CSLAYER1
  6
CONTINUOUS
 62
     4
 10
389.543429
 20
1164.997472
 11
389.543429
 21
1183.075338
  0
LINE
  8
CSLAYER1
  6
CONTINUOUS
 62
     4
 10
388.043429
 20
1164.997472
 11
388.043429
 21
1184.575338
  0
LINE
  8
CSLAYER1
  6
CONTINUOUS
 62
     5
 10
364.569918
 20
1175.075338
 11
396.171276
 21
1175.075338
  0
LINE
  8
CSLAYER1
  6
CONTINUOUS
 62
     4
 10
400.043429
 20
1152.547472
 11
400.043429
 21
1092.047472
  0
LINE
  8
CSLAYER1
  6
CONTINUOUS
 62
     4
 10
554.543429
 20
1109.305894
 11
544.197320
 21
1107.529218
  0
LINE
  8
CSLAYER1
  6
CONTINUOUS
 62
     4
 10
544.197320
 20
1107.529218
 11
541.759227
 21
1106.979192
  0
LINE
  8
CSLAYER1
  6
CONTINUOUS
 62
     4
 10
541.759227
 20
1106.979192
 11
539.418429
 21
1106.315527
  0
LINE
  8
CSLAYER1
  6
CONTINUOUS
 62
     4
 10
539.418429
 20
1106.315527
 11
537.192742
 21
1105.543273
  0
LINE
  8
CSLAYER1
  6
CONTINUOUS
 62
     4
 10
537.192742
 20
1105.543273
 11
535.099104
 21
1104.668307
  0
LINE
  8
CSLAYER1
  6
CONTINUOUS
 62
     4
 10
535.099104
 20
1104.668307
 11
533.153449
 21
1103.697290
  0
LINE
  8
CSLAYER1
  6
CONTINUOUS
 62
     4
 10
533.153449
 20
1103.697290
 11
531.370585
 21
1102.637610
  0
LINE
  8
CSLAYER1
  6
CONTINUOUS
 62
     4
 10
531.370585
 20
1102.637610
 11
529.764080
 21
1101.497333
  0
LINE
  8
CSLAYER1
  6
CONTINUOUS
 62
     4
 10
529.764080
 20
1101.497333
 11
528.346161
 21
1100.285137
  0
LINE
  8
CSLAYER1
  6
CONTINUOUS
 62
     4
 10
528.346161
 20
1100.285137
 11
527.127618
 21
1099.010247
  0
LINE
  8
CSLAYER1
  6
CONTINUOUS
 62
     4
 10
527.127618
 20
1099.010247
 11
526.117727
 21
1097.682367
  0
LINE
  8
CSLAYER1
  6
CONTINUOUS
 62
     4
 10
526.117727
 20
1097.682367
 11
525.324173
 21
1096.311601
  0
LINE
  8
CSLAYER1
  6
CONTINUOUS
 62
     4
 10
525.324173
 20
1096.311601
 11
524.752994
 21
1094.908383
  0
LINE
  8
CSLAYER1
  6
CONTINUOUS
 62
     4
 10
524.752994
 20
1094.908383
 11
524.408539
 21
1093.483391
  0
LINE
  8
CSLAYER1
  6
CONTINUOUS
 62
     4
 10
524.408539
 20
1093.483391
 11
524.293429
 21
1092.047472
  0
LINE
  8
CSLAYER1
  6
CONTINUOUS
 62
     4
 10
348.543429
 20
1152.197472
 11
348.543429
 21
1092.397472
  0
ARC
  8
CSLAYER1
  6
CONTINUOUS
 62
     4
 10
347.443429
 20
1152.197472
 40
1.100000
 50
0.000000
 51
90.000000
  0
ARC
  8
CSLAYER1
  6
CONTINUOUS
 62
     4
 10
347.443429
 20
1092.397472
 40
1.100000
 50
270.000000
 51
360.000000
  0
LINE
  8
CSLAYER1
  6
CONTINUOUS
 62
     4
 10
387.543429
 20
1185.075338
 11
371.543429
 21
1185.075338
  0
LINE
  8
CSLAYER1
  6
CONTINUOUS
 62
     4
 10
389.543429
 20
1183.075338
 11
387.543429
 21
1185.075338
  0
LINE
  8
CSLAYER1
  6
CONTINUOUS
 62
     4
 10
389.543429
 20
1183.075338
 11
369.543429
 21
1183.075338
  0
LINE
  8
CSLAYER1
  6
CONTINUOUS
 62
     4
 10
369.543429
 20
1183.075338
 11
371.543429
 21
1185.075338
  0
CIRCLE
  8
CSLAYER1
  6
CONTINUOUS
 62
     4
 10
379.543429
 20
1175.075338
 40
2.500000
  0
LINE
  8
CSLAYER1
  6
CONTINUOUS
 62
     4
 10
393.543429
 20
720.178026
 11
393.543429
 21
745.248988
  0
LINE
  8
CSLAYER1
  6
CONTINUOUS
 62
     4
 10
392.543429
 20
718.248988
 11
392.543429
 21
746.248988
  0
LINE
  8
CSLAYER1
  6
CONTINUOUS
 62
     4
 10
387.543429
 20
746.248988
 11
390.569970
 21
746.248988
  0
LINE
  8
CSLAYER1
  6
CONTINUOUS
 62
     4
 10
393.543429
 20
745.248988
 11
392.543429
 21
746.248988
  0
LINE
  8
CSLAYER1
  6
CONTINUOUS
 62
     4
 10
370.543429
 20
751.248988
 11
369.543429
 21
752.248988
  0
LINE
  8
CSLAYER1
  6
CONTINUOUS
 62
     4
 10
392.543429
 20
746.248988
 11
387.477171
 21
751.233669
  0
LINE
  8
CSLAYER1
  6
CONTINUOUS
 62
     4
 10
387.543429
 20
751.168477
 11
392.462919
 21
746.248988
  0
LINE
  8
CSLAYER1
  6
CONTINUOUS
 62
     4
 10
387.543429
 20
750.885635
 11
392.180076
 21
746.248988
  0
LINE
  8
CSLAYER1
  6
CONTINUOUS
 62
     4
 10
387.543429
 20
750.602792
 11
391.897233
 21
746.248988
  0
LINE
  8
CSLAYER1
  6
CONTINUOUS
 62
     4
 10
387.543429
 20
750.319949
 11
391.614391
 21
746.248988
  0
LINE
  8
CSLAYER1
  6
CONTINUOUS
 62
     4
 10
387.543429
 20
750.037107
 11
391.331548
 21
746.248988
  0
LINE
  8
CSLAYER1
  6
CONTINUOUS
 62
     4
 10
387.543429
 20
749.754264
 11
391.048705
 21
746.248988
  0
LINE
  8
CSLAYER1
  6
CONTINUOUS
 62
     4
 10
387.543429
 20
749.471421
 11
390.765862
 21
746.248988
  0
LINE
  8
CSLAYER1
  6
CONTINUOUS
 62
     4
 10
387.543429
 20
749.188578
 11
390.483020
 21
746.248988
  0
LINE
  8
CSLAYER1
  6
CONTINUOUS
 62
     4
 10
387.543429
 20
748.905736
 11
390.200177
 21
746.248988
  0
LINE
  8
CSLAYER1
  6
CONTINUOUS
 62
     4
 10
387.543429
 20
748.622893
 11
389.917334
 21
746.248988
  0
LINE
  8
CSLAYER1
  6
CONTINUOUS
 62
     4
 10
387.543429
 20
748.340050
 11
389.634492
 21
746.248988
  0
LINE
  8
CSLAYER1
  6
CONTINUOUS
 62
     4
 10
387.543429
 20
748.057208
 11
389.351649
 21
746.248988
  0
LINE
  8
CSLAYER1
  6
CONTINUOUS
 62
     4
 10
387.543429
 20
747.774365
 11
389.068806
 21
746.248988
  0
LINE
  8
CSLAYER1
  6
CONTINUOUS
 62
     4
 10
387.543429
 20
747.491522
 11
388.785963
 21
746.248988
  0
LINE
  8
CSLAYER1
  6
CONTINUOUS
 62
     4
 10
387.543429
 20
747.208679
 11
388.503121
 21
746.248988
  0
LINE
  8
CSLAYER1
  6
CONTINUOUS
 62
     4
 10
387.543429
 20
746.925837
 11
388.220278
 21
746.248988
  0
LINE
  8
CSLAYER1
  6
CONTINUOUS
 62
     4
 10
387.543429
 20
746.642994
 11
387.937435
 21
746.248988
  0
LINE
  8
CSLAYER1
  6
CONTINUOUS
 62
     4
 10
387.543429
 20
746.360151
 11
387.654593
 21
746.248988
  0
LINE
  8
CSLAYER1
  6
CONTINUOUS
 62
     4
 10
290.569970
 20
710.898988
 11
331.543429
 21
710.898988
  0
LINE
  8
CSLAYER1
  6
CONTINUOUS
 62
     4
 10
370.543429
 20
751.248988
 11
370.543429
 21
713.248988
  0
LINE
  8
CSLAYER1
  6
CONTINUOUS
 62
     4
 10
289.569970
 20
752.598988
 11
289.569970
 21
711.898988
  0
LINE
  8
CSLAYER1
  6
CONTINUOUS
 62
     4
 10
289.569970
 20
711.898988
 11
290.569970
 21
710.898988
  0
LINE
  8
CSLAYER1
  6
CONTINUOUS
 62
     4
 10
249.569970
 20
742.248988
 11
249.569970
 21
722.248988
  0
LINE
  8
CSLAYER1
  6
CONTINUOUS
 62
     4
 10
268.569970
 20
750.748988
 11
268.569970
 21
713.748988
  0
LINE
  8
CSLAYER1
  6
CONTINUOUS
 62
     4
 10
263.469970
 20
749.248988
 11
263.469970
 21
715.248988
  0
LINE
  8
CSLAYER1
  6
CONTINUOUS
 62
     4
 10
251.469970
 20
749.248988
 11
251.469970
 21
715.248988
  0
LINE
  8
CSLAYER1
  6
CONTINUOUS
 62
     4
 10
268.569970
 20
749.248988
 11
251.469970
 21
749.248988
  0
LINE
  8
CSLAYER1
  6
CONTINUOUS
 62
     4
 10
263.469970
 20
742.248988
 11
249.569970
 21
742.248988
  0
LINE
  8
CSLAYER1
  6
CONTINUOUS
 62
     4
 10
268.569970
 20
715.248988
 11
251.469970
 21
715.248988
  0
LINE
  8
CSLAYER1
  6
CONTINUOUS
 62
     4
 10
263.469970
 20
722.248988
 11
249.569970
 21
722.248988
  0
LINE
  8
CSLAYER1
  6
CONTINUOUS
 62
     4
 10
271.569970
 20
750.748988
 11
268.569970
 21
750.748988
  0
LINE
  8
CSLAYER1
  6
CONTINUOUS
 62
     4
 10
271.569970
 20
713.748988
 11
268.569970
 21
713.748988
  0
LINE
  8
CSLAYER1
  6
CONTINUOUS
 62
     4
 10
271.569970
 20
713.748988
 11
271.569970
 21
750.748988
  0
LINE
  8
CSLAYER1
  6
CENTER
 62
     5
 10
221.492726
 20
732.248988
 11
403.523416
 21
732.248988
  0
LINE
  8
CSLAYER1
  6
CONTINUOUS
 62
     4
 10
271.569970
 20
719.748988
 11
272.543429
 21
719.748988
  0
LINE
  8
CSLAYER1
  6
CONTINUOUS
 62
     4
 10
290.569970
 20
753.598988
 11
331.543429
 21
753.598988
  0
LINE
  8
CSLAYER1
  6
CONTINUOUS
 62
     4
 10
289.569970
 20
752.598988
 11
290.569970
 21
753.598988
  0
LINE
  8
CSLAYER1
  6
CONTINUOUS
 62
     4
 10
271.569970
 20
744.748988
 11
272.543429
 21
744.748988
  0
LINE
  8
CSLAYER1
  6
CONTINUOUS
 62
     4
 10
272.569970
 20
706.142063
 11
272.569970
 21
719.748988
  0
LINE
  8
CSLAYER1
  6
CONTINUOUS
 62
     4
 10
326.543429
 20
710.898988
 11
331.543429
 21
705.898988
  0
LINE
  8
CSLAYER1
  6
CONTINUOUS
 62
     4
 10
331.543429
 20
706.181830
 11
326.826272
 21
710.898988
  0
LINE
  8
CSLAYER1
  6
CONTINUOUS
 62
     4
 10
331.543429
 20
706.464673
 11
327.109114
 21
710.898988
  0
LINE
  8
CSLAYER1
  6
CONTINUOUS
 62
     4
 10
331.543429
 20
706.747516
 11
327.391957
 21
710.898988
  0
LINE
  8
CSLAYER1
  6
CONTINUOUS
 62
     4
 10
331.543429
 20
707.030358
 11
327.674800
 21
710.898988
  0
LINE
  8
CSLAYER1
  6
CONTINUOUS
 62
     4
 10
331.543429
 20
707.313201
 11
327.957643
 21
710.898988
  0
LINE
  8
CSLAYER1
  6
CONTINUOUS
 62
     4
 10
331.543429
 20
707.596044
 11
328.240485
 21
710.898988
  0
LINE
  8
CSLAYER1
  6
CONTINUOUS
 62
     4
 10
331.543429
 20
707.878887
 11
328.523328
 21
710.898988
  0
LINE
  8
CSLAYER1
  6
CONTINUOUS
 62
     4
 10
331.543429
 20
708.161729
 11
328.806171
 21
710.898988
  0
LINE
  8
CSLAYER1
  6
CONTINUOUS
 62
     4
 10
331.543429
 20
708.444572
 11
329.089013
 21
710.898988
  0
LINE
  8
CSLAYER1
  6
CONTINUOUS
 62
     4
 10
331.543429
 20
708.727415
 11
329.371856
 21
710.898988
  0
LINE
  8
CSLAYER1
  6
CONTINUOUS
 62
     4
 10
331.543429
 20
709.010257
 11
329.654699
 21
710.898988
  0
LINE
  8
CSLAYER1
  6
CONTINUOUS
 62
     4
 10
331.543429
 20
709.293100
 11
329.937542
 21
710.898988
  0
LINE
  8
CSLAYER1
  6
CONTINUOUS
 62
     4
 10
331.543429
 20
709.575943
 11
330.220384
 21
710.898988
  0
LINE
  8
CSLAYER1
  6
CONTINUOUS
 62
     4
 10
331.543429
 20
709.858786
 11
330.503227
 21
710.898988
  0
LINE
  8
CSLAYER1
  6
CONTINUOUS
 62
     4
 10
331.543429
 20
710.141628
 11
330.786070
 21
710.898988
  0
LINE
  8
CSLAYER1
  6
CONTINUOUS
 62
     4
 10
331.543429
 20
710.424471
 11
331.068912
 21
710.898988
  0
LINE
  8
CSLAYER1
  6
CONTINUOUS
 62
     4
 10
331.543429
 20
710.707314
 11
331.351755
 21
710.898988
  0
LINE
  8
CSLAYER1
  6
CONTINUOUS
 62
     4
 10
347.543429
 20
756.966145
 11
352.260586
 21
752.248988
  0
LINE
  8
CSLAYER1
  6
CONTINUOUS
 62
     4
 10
347.543429
 20
756.683302
 11
351.977744
 21
752.248988
  0
LINE
  8
CSLAYER1
  6
CONTINUOUS
 62
     4
 10
347.543429
 20
756.400460
 11
351.694901
 21
752.248988
  0
LINE
  8
CSLAYER1
  6
CONTINUOUS
 62
     4
 10
347.543429
 20
756.117617
 11
351.412058
 21
752.248988
  0
LINE
  8
CSLAYER1
  6
CONTINUOUS
 62
     4
 10
347.543429
 20
755.834774
 11
351.129215
 21
752.248988
  0
LINE
  8
CSLAYER1
  6
CONTINUOUS
 62
     4
 10
347.543429
 20
755.551931
 11
350.846373
 21
752.248988
  0
LINE
  8
CSLAYER1
  6
CONTINUOUS
 62
     4
 10
347.543429
 20
755.269089
 11
350.563530
 21
752.248988
  0
LINE
  8
CSLAYER1
  6
CONTINUOUS
 62
     4
 10
347.543429
 20
754.986246
 11
350.280687
 21
752.248988
  0
LINE
  8
CSLAYER1
  6
CONTINUOUS
 62
     4
 10
347.543429
 20
754.703403
 11
349.997845
 21
752.248988
  0
LINE
  8
CSLAYER1
  6
CONTINUOUS
 62
     4
 10
347.543429
 20
754.420561
 11
349.715002
 21
752.248988
  0
LINE
  8
CSLAYER1
  6
CONTINUOUS
 62
     4
 10
347.543429
 20
754.137718
 11
349.432159
 21
752.248988
  0
LINE
  8
CSLAYER1
  6
CONTINUOUS
 62
     4
 10
347.543429
 20
753.854875
 11
349.149316
 21
752.248988
  0
LINE
  8
CSLAYER1
  6
CONTINUOUS
 62
     4
 10
347.543429
 20
753.572032
 11
348.866474
 21
752.248988
  0
LINE
  8
CSLAYER1
  6
CONTINUOUS
 62
     4
 10
347.543429
 20
753.289190
 11
348.583631
 21
752.248988
  0
LINE
  8
CSLAYER1
  6
CONTINUOUS
 62
     4
 10
347.543429
 20
753.006347
 11
348.300788
 21
752.248988
  0
LINE
  8
CSLAYER1
  6
CONTINUOUS
 62
     4
 10
347.543429
 20
752.723504
 11
348.017946
 21
752.248988
  0
LINE
  8
CSLAYER1
  6
CONTINUOUS
 62
     4
 10
347.543429
 20
752.440662
 11
347.735103
 21
752.248988
  0
LINE
  8
CSLAYER1
  6
CONTINUOUS
 62
     4
 10
326.543429
 20
753.598988
 11
331.543429
 21
758.598988
  0
LINE
  8
CSLAYER1
  6
CONTINUOUS
 62
     4
 10
331.543429
 20
758.316145
 11
326.826272
 21
753.598988
  0
LINE
  8
CSLAYER1
  6
CONTINUOUS
 62
     4
 10
331.543429
 20
758.033302
 11
327.109114
 21
753.598988
  0
LINE
  8
CSLAYER1
  6
CONTINUOUS
 62
     4
 10
331.543429
 20
757.750460
 11
327.391957
 21
753.598988
  0
LINE
  8
CSLAYER1
  6
CONTINUOUS
 62
     4
 10
331.543429
 20
757.467617
 11
327.674800
 21
753.598988
  0
LINE
  8
CSLAYER1
  6
CONTINUOUS
 62
     4
 10
331.543429
 20
757.184774
 11
327.957643
 21
753.598988
  0
LINE
  8
CSLAYER1
  6
CONTINUOUS
 62
     4
 10
331.543429
 20
756.901931
 11
328.240485
 21
753.598988
  0
LINE
  8
CSLAYER1
  6
CONTINUOUS
 62
     4
 10
331.543429
 20
756.619089
 11
328.523328
 21
753.598988
  0
LINE
  8
CSLAYER1
  6
CONTINUOUS
 62
     4
 10
331.543429
 20
756.336246
 11
328.806171
 21
753.598988
  0
LINE
  8
CSLAYER1
  6
CONTINUOUS
 62
     4
 10
331.543429
 20
756.053403
 11
329.089013
 21
753.598988
  0
LINE
  8
CSLAYER1
  6
CONTINUOUS
 62
     4
 10
331.543429
 20
755.770561
 11
329.371856
 21
753.598988
  0
LINE
  8
CSLAYER1
  6
CONTINUOUS
 62
     4
 10
331.543429
 20
755.487718
 11
329.654699
 21
753.598988
  0
LINE
  8
CSLAYER1
  6
CONTINUOUS
 62
     4
 10
331.543429
 20
755.204875
 11
329.937542
 21
753.598988
  0
LINE
  8
CSLAYER1
  6
CONTINUOUS
 62
     4
 10
331.543429
 20
754.922032
 11
330.220384
 21
753.598988
  0
LINE
  8
CSLAYER1
  6
CONTINUOUS
 62
     4
 10
331.543429
 20
754.639190
 11
330.503227
 21
753.598988
  0
LINE
  8
CSLAYER1
  6
CONTINUOUS
 62
     4
 10
331.543429
 20
754.356347
 11
330.786070
 21
753.598988
  0
LINE
  8
CSLAYER1
  6
CONTINUOUS
 62
     4
 10
331.543429
 20
754.073504
 11
331.068912
 21
753.598988
  0
LINE
  8
CSLAYER1
  6
CONTINUOUS
 62
     4
 10
331.543429
 20
753.790662
 11
331.351755
 21
753.598988
  0
LINE
  8
CSLAYER1
  6
CONTINUOUS
 62
     4
 10
348.583631
 20
752.248988
 11
347.543429
 21
752.248988
  0
LINE
  8
CSLAYER1
  6
CONTINUOUS
 62
     4
 10
349.735103
 20
752.248988
 11
369.543429
 21
752.248988
  0
LINE
  8
CSLAYER1
  6
CONTINUOUS
 62
     4
 10
370.543429
 20
747.248988
 11
371.543429
 21
747.248988
  0
LINE
  8
CSLAYER1
  6
CONTINUOUS
 62
     4
 10
288.543429
 20
747.248988
 11
289.569970
 21
747.248988
  0
LINE
  8
CSLAYER1
  6
CONTINUOUS
 62
     4
 10
288.543429
 20
717.248988
 11
289.569970
 21
717.248988
  0
LINE
  8
CSLAYER1
  6
CONTINUOUS
 62
     4
 10
347.543429
 20
707.531830
 11
352.260586
 21
712.248988
  0
LINE
  8
CSLAYER1
  6
CONTINUOUS
 62
     4
 10
347.543429
 20
707.814673
 11
351.977744
 21
712.248988
  0
LINE
  8
CSLAYER1
  6
CONTINUOUS
 62
     4
 10
347.543429
 20
708.097516
 11
351.694901
 21
712.248988
  0
LINE
  8
CSLAYER1
  6
CONTINUOUS
 62
     4
 10
347.543429
 20
708.380358
 11
351.412058
 21
712.248988
  0
LINE
  8
CSLAYER1
  6
CONTINUOUS
 62
     4
 10
347.543429
 20
708.663201
 11
351.129215
 21
712.248988
  0
LINE
  8
CSLAYER1
  6
CONTINUOUS
 62
     4
 10
347.543429
 20
708.946044
 11
350.846373
 21
712.248988
  0
LINE
  8
CSLAYER1
  6
CONTINUOUS
 62
     4
 10
347.543429
 20
709.228887
 11
350.563530
 21
712.248988
  0
LINE
  8
CSLAYER1
  6
CONTINUOUS
 62
     4
 10
347.543429
 20
709.511729
 11
350.280687
 21
712.248988
  0
LINE
  8
CSLAYER1
  6
CONTINUOUS
 62
     4
 10
347.543429
 20
709.794572
 11
349.997845
 21
712.248988
  0
LINE
  8
CSLAYER1
  6
CONTINUOUS
 62
     4
 10
347.543429
 20
710.077415
 11
349.715002
 21
712.248988
  0
LINE
  8
CSLAYER1
  6
CONTINUOUS
 62
     4
 10
347.543429
 20
710.360257
 11
349.432159
 21
712.248988
  0
LINE
  8
CSLAYER1
  6
CONTINUOUS
 62
     4
 10
347.543429
 20
710.643100
 11
349.149316
 21
712.248988
  0
LINE
  8
CSLAYER1
  6
CONTINUOUS
 62
     4
 10
347.543429
 20
710.925943
 11
348.866474
 21
712.248988
  0
LINE
  8
CSLAYER1
  6
CONTINUOUS
 62
     4
 10
347.543429
 20
711.208786
 11
348.583631
 21
712.248988
  0
LINE
  8
CSLAYER1
  6
CONTINUOUS
 62
     4
 10
347.543429
 20
711.491628
 11
348.300788
 21
712.248988
  0
LINE
  8
CSLAYER1
  6
CONTINUOUS
 62
     4
 10
347.543429
 20
711.774471
 11
348.017946
 21
712.248988
  0
LINE
  8
CSLAYER1
  6
CONTINUOUS
 62
     4
 10
347.543429
 20
712.057314
 11
347.735103
 21
712.248988
  0
LINE
  8
CSLAYER1
  6
CONTINUOUS
 62
     4
 10
348.583631
 20
712.248988
 11
347.543429
 21
712.248988
  0
LINE
  8
CSLAYER1
  6
CONTINUOUS
 62
     4
 10
349.735103
 20
712.248988
 11
369.543429
 21
712.248988
  0
POINT
  8
CSLAYER1
 62
     5
 10
347.543429
 20
674.342560
  0
POINT
  8
CSLAYER1
 62
     5
 10
348.543429
 20
674.342560
  0
LINE
  8
CSLAYER1
  6
CONTINUOUS
 62
     7
 10
499.543429
 20
620.814882
 11
489.324120
 21
620.814882
  0
LINE
  8
CSLAYER1
  6
CONTINUOUS
 62
     7
 10
348.543429
 20
695.416720
 11
348.543429
 21
653.267673
  0
LINE
  8
CSLAYER1
  6
CONTINUOUS
 62
     7
 10
488.543429
 20
727.870239
 11
488.543429
 21
695.887737
  0
INSERT
  8
CSLAYER1
  2
BLKF0004
 10
0.0
 20
0.0
 30
0.0
  0
LINE
  8
CSLAYER1
  6
CONTINUOUS
 62
     7
 10
487.703947
 20
727.726188
 11
356.852196
 21
705.272669
  0
LINE
  8
CSLAYER1
  6
CONTINUOUS
 62
     7
 10
487.703947
 20
695.743686
 11
356.852196
 21
673.290167
  0
LINE
  8
CSLAYER1
  6
CONTINUOUS
 62
     7
 10
356.851357
 20
643.411868
 11
487.632049
 21
620.959077
  0
ARC
  8
CSLAYER1
  6
CONTINUOUS
 62
     7
 10
489.395180
 20
685.887737
 40
10.000000
 50
90.000000
 51
99.736847
  0
ARC
  8
CSLAYER1
  6
CONTINUOUS
 62
     7
 10
489.395180
 20
717.870239
 40
10.000000
 50
90.000000
 51
99.736847
  0
ARC
  8
CSLAYER1
  6
CONTINUOUS
 62
     7
 10
489.324120
 20
630.814882
 40
10.000000
 50
260.258274
 51
270.000000
  0
ARC
  8
CSLAYER1
  6
CONTINUOUS
 62
     7
 10
358.543429
 20
653.267673
 40
10.000000
 50
180.000000
 51
260.258274
  0
ARC
  8
CSLAYER1
  6
CONTINUOUS
 62
     7
 10
358.543429
 20
695.416720
 40
10.000000
 50
99.736847
 51
180.000000
  0
ARC
  8
CSLAYER1
  6
CONTINUOUS
 62
     7
 10
358.543429
 20
663.434218
 40
10.000000
 50
99.736847
 51
180.000000
  0
LINE
  8
CSLAYER1
  6
CONTINUOUS
 62
     4
 10
387.543429
 20
718.248988
 11
390.569970
 21
718.248988
  0
LINE
  8
CSLAYER1
  6
CONTINUOUS
 62
     4
 10
393.543429
 20
719.248988
 11
392.543429
 21
718.248988
  0
LINE
  8
CSLAYER1
  6
CONTINUOUS
 62
     4
 10
392.543429
 20
718.248988
 11
387.477171
 21
713.264307
  0
LINE
  8
CSLAYER1
  6
CONTINUOUS
 62
     4
 10
387.543429
 20
713.329498
 11
392.462919
 21
718.248988
  0
LINE
  8
CSLAYER1
  6
CONTINUOUS
 62
     4
 10
387.543429
 20
713.612341
 11
392.180076
 21
718.248988
  0
LINE
  8
CSLAYER1
  6
CONTINUOUS
 62
     4
 10
387.543429
 20
713.895183
 11
391.897233
 21
718.248988
  0
LINE
  8
CSLAYER1
  6
CONTINUOUS
 62
     4
 10
387.543429
 20
714.178026
 11
391.614391
 21
718.248988
  0
LINE
  8
CSLAYER1
  6
CONTINUOUS
 62
     4
 10
387.543429
 20
714.460869
 11
391.331548
 21
718.248988
  0
LINE
  8
CSLAYER1
  6
CONTINUOUS
 62
     4
 10
387.543429
 20
714.743711
 11
391.048705
 21
718.248988
  0
LINE
  8
CSLAYER1
  6
CONTINUOUS
 62
     4
 10
387.543429
 20
715.026554
 11
390.765862
 21
718.248988
  0
LINE
  8
CSLAYER1
  6
CONTINUOUS
 62
     4
 10
387.543429
 20
715.309397
 11
390.483020
 21
718.248988
  0
LINE
  8
CSLAYER1
  6
CONTINUOUS
 62
     4
 10
387.543429
 20
715.592240
 11
390.200177
 21
718.248988
  0
LINE
  8
CSLAYER1
  6
CONTINUOUS
 62
     4
 10
387.543429
 20
715.875082
 11
389.917334
 21
718.248988
  0
LINE
  8
CSLAYER1
  6
CONTINUOUS
 62
     4
 10
387.543429
 20
716.157925
 11
389.634492
 21
718.248988
  0
LINE
  8
CSLAYER1
  6
CONTINUOUS
 62
     4
 10
387.543429
 20
716.440768
 11
389.351649
 21
718.248988
  0
LINE
  8
CSLAYER1
  6
CONTINUOUS
 62
     4
 10
387.543429
 20
716.723610
 11
389.068806
 21
718.248988
  0
LINE
  8
CSLAYER1
  6
CONTINUOUS
 62
     4
 10
387.543429
 20
717.006453
 11
388.785963
 21
718.248988
  0
LINE
  8
CSLAYER1
  6
CONTINUOUS
 62
     4
 10
387.543429
 20
717.289296
 11
388.503121
 21
718.248988
  0
LINE
  8
CSLAYER1
  6
CONTINUOUS
 62
     4
 10
387.543429
 20
717.572139
 11
388.220278
 21
718.248988
  0
LINE
  8
CSLAYER1
  6
CONTINUOUS
 62
     4
 10
387.543429
 20
717.854981
 11
387.937435
 21
718.248988
  0
LINE
  8
CSLAYER1
  6
CONTINUOUS
 62
     4
 10
387.543429
 20
718.137824
 11
387.654593
 21
718.248988
  0
LINE
  8
CSLAYER1
  6
CONTINUOUS
 62
     4
 10
370.543429
 20
713.248988
 11
369.543429
 21
712.248988
  0
LINE
  8
CSLAYER1
  6
CONTINUOUS
 62
     4
 10
370.543429
 20
717.248988
 11
371.543429
 21
717.248988
  0
LINE
  8
CSLAYER1
  6
CONTINUOUS
 62
     4
 10
329.043429
 20
1134.797472
 11
330.193429
 21
1134.797472
  0
LINE
  8
CSLAYER1
  6
CONTINUOUS
 62
     4
 10
330.193429
 20
1134.247472
 11
331.543429
 21
1134.247472
  0
LINE
  8
CSLAYER1
  6
CONTINUOUS
 62
     4
 10
330.193429
 20
1137.347472
 11
331.543429
 21
1137.347472
  0
LINE
  8
CSLAYER1
  6
CONTINUOUS
 62
     4
 10
330.193429
 20
1137.347472
 11
330.193429
 21
1107.247472
  0
LINE
  8
CSLAYER1
  6
CONTINUOUS
 62
     4
 10
327.543429
 20
1133.297472
 11
327.543429
 21
1111.297472
  0
LINE
  8
CSLAYER1
  6
CONTINUOUS
 62
     4
 10
327.543429
 20
1133.297472
 11
329.043429
 21
1134.797472
  0
LINE
  8
CSLAYER1
  6
CONTINUOUS
 62
     4
 10
329.043429
 20
1134.797472
 11
329.043429
 21
1109.797472
  0
LINE
  8
CSLAYER1
  6
CONTINUOUS
 62
     4
 10
329.043429
 20
1109.797472
 11
330.193429
 21
1109.797472
  0
LINE
  8
CSLAYER1
  6
CONTINUOUS
 62
     4
 10
330.193429
 20
1110.347472
 11
331.543429
 21
1110.347472
  0
LINE
  8
CSLAYER1
  6
CONTINUOUS
 62
     4
 10
330.193429
 20
1107.247472
 11
331.543429
 21
1107.247472
  0
LINE
  8
CSLAYER1
  6
CONTINUOUS
 62
     4
 10
327.543429
 20
1111.297472
 11
329.043429
 21
1109.797472
  0
LINE
  8
CSLAYER1
  6
CONTINUOUS
 62
     3
 10
1073.954803
 20
2252.540750
 11
2273.956507
 21
2252.540750
  0
LINE
  8
CSLAYER1
  6
CONTINUOUS
 62
     3
 10
1079.954803
 20
1452.540750
 11
2273.956507
 21
1452.540750
  0
DIMENSION
  8
CSLAYER1
 62
     7
  2
*D0003
 10
959.492120
 20
2252.540750
 11
949.492126
 21
1852.540649
 13
1073.954803
 23
1452.540750
 14
1073.954803
 24
2252.540750
 50
90.000000
 70
1
  0
LINE
  8
CSLAYER1
  6
CONTINUOUS
 62
     4
 10
1206.937847
 20
1158.462026
 11
1802.478642
 21
380.174701
  0
LINE
  8
CSLAYER1
  6
CONTINUOUS
 62
     4
 10
1206.937847
 20
1158.462026
 11
1135.954803
 21
1188.133705
  0
LINE
  8
CSLAYER1
  6
CONTINUOUS
 62
     4
 10
1802.478642
 20
380.174701
 11
1809.705472
 21
325.513373
  0
TEXT
  8
CSLAYER2
 62
     5
 10
2964.823494
 20
1874.523703
 40
40.809284
 41
0.732273
  1
GLI-500-0812
 50
0.000000
 51
0.000000
  7
EASYDRAW_FONT
 72
     5
 11
3313.464592
 21
1874.523703
  0
LINE
  8
CSLAYER1
  6
CENTER
 62
     5
 10
1040.035686
 20
1852.540750
 11
2295.759342
 21
1852.540750
  0
LINE
  8
CSLAYER1
  6
CONTINUOUS
 62
     3
 10
464.543429
 20
355.813373
 11
464.543429
 21
325.513373
  0
LINE
  8
CSLAYER1
  6
CONTINUOUS
 62
     3
 10
463.043429
 20
361.813373
 11
646.043429
 21
361.813373
  0
LINE
  8
CSLAYER1
  6
CONTINUOUS
 62
     1
 10
463.043429
 20
355.813373
 11
464.543429
 21
355.813373
  0
LINE
  8
CSLAYER1
  6
CONTINUOUS
 62
     3
 10
463.043429
 20
355.813373
 11
463.043429
 21
361.813373
  0
LINE
  8
CSLAYER1
  6
CONTINUOUS
 62
     3
 10
463.043429
 20
355.813373
 11
464.543429
 21
355.813373
  0
POINT
  8
CSLAYER1
 62
     5
 10
484.543429
 20
340.813373
  0
POINT
  8
CSLAYER1
 62
     5
 10
524.543429
 20
340.813373
  0
LINE
  8
CSLAYER1
  6
CONTINUOUS
 62
     3
 10
644.543429
 20
355.813373
 11
644.543429
 21
325.513373
  0
LINE
  8
CSLAYER1
  6
CONTINUOUS
 62
     1
 10
646.043429
 20
355.813373
 11
644.543429
 21
355.813373
  0
LINE
  8
CSLAYER1
  6
CONTINUOUS
 62
     3
 10
646.043429
 20
355.813373
 11
646.043429
 21
361.813373
  0
LINE
  8
CSLAYER1
  6
CONTINUOUS
 62
     3
 10
646.043429
 20
355.813373
 11
644.543429
 21
355.813373
  0
LINE
  8
CSLAYER1
  6
CONTINUOUS
 62
     5
 10
1273.334932
 20
675.775485
 11
1153.781460
 21
814.611775
  0
LINE
  8
CSLAYER1
  6
CONTINUOUS
 62
     5
 10
1273.334932
 20
675.775485
 11
1248.542513
 21
692.667377
  0
LINE
  8
CSLAYER1
  6
CONTINUOUS
 62
     5
 10
1273.334932
 20
675.775485
 11
1260.310013
 21
702.800501
  0
LINE
  8
CSLAYER1
  6
CONTINUOUS
 62
     5
 10
1153.781460
 20
814.611775
 11
903.781460
 21
814.611775
  0
TEXT
  8
CSLAYER1
 62
     5
 10
910.019775
 20
821.992249
 40
40.000000
 41
0.782609
  1
ギヤードモーター
 50
0.000000
 51
0.000000
  7
EASYDRAW_FONT
 72
     5
 11
1150.019775
 21
821.992249
  0
TEXT
  8
CSLAYER1
 62
     5
 10
944.531616
 20
619.336975
 40
40.000000
 41
0.803571
  1
上限・下限
 50
0.000000
 51
0.000000
  7
EASYDRAW_FONT
 72
     5
 11
1094.531616
 21
619.336975
  0
TEXT
  8
CSLAYER1
 62
     5
 10
900.560791
 20
565.872864
 40
40.000000
 41
0.782609
  1
リミットスイッチ
 50
0.000000
 51
0.000000
  7
EASYDRAW_FONT
 72
     5
 11
1140.560791
 21
565.872864
  0
LINE
  8
CSLAYER1
  6
CONTINUOUS
 62
     5
 10
748.996537
 20
398.148481
 11
897.127618
 21
611.928007
  0
LINE
  8
CSLAYER1
  6
CONTINUOUS
 62
     5
 10
748.996537
 20
398.148481
 11
759.118600
 21
426.389299
  0
LINE
  8
CSLAYER1
  6
CONTINUOUS
 62
     5
 10
748.996537
 20
398.148481
 11
771.882910
 21
417.544715
  0
LINE
  8
CSLAYER1
  6
CONTINUOUS
 62
     5
 10
897.127618
 20
611.928007
 11
1147.009206
 21
611.928007
  0
LINE
  8
CSLAYER1
  6
CONTINUOUS
 62
     7
 10
608.543429
 20
652.797384
 11
608.543429
 21
507.146067
  0
LINE
  8
CSLAYER1
  6
CONTINUOUS
 62
     7
 10
614.543429
 20
598.384119
 11
614.543429
 21
498.059989
  0
LINE
  8
CSLAYER1
  6
CONTINUOUS
 62
     7
 10
616.543429
 20
488.844052
 11
616.543429
 21
436.872487
  0
LINE
  8
CSLAYER1
  6
CONTINUOUS
 62
     7
 10
554.543429
 20
680.455008
 11
559.249839
 21
680.331343
  0
LINE
  8
CSLAYER1
  6
CONTINUOUS
 62
     7
 10
559.249839
 20
680.331343
 11
563.920431
 21
679.961290
  0
LINE
  8
CSLAYER1
  6
CONTINUOUS
 62
     7
 10
563.920431
 20
679.961290
 11
568.519657
 21
679.347665
  0
LINE
  8
CSLAYER1
  6
CONTINUOUS
 62
     7
 10
568.519657
 20
679.347665
 11
573.012517
 21
678.495138
  0
LINE
  8
CSLAYER1
  6
CONTINUOUS
 62
     7
 10
573.012517
 20
678.495138
 11
577.364815
 21
677.410197
  0
LINE
  8
CSLAYER1
  6
CONTINUOUS
 62
     7
 10
577.364815
 20
677.410197
 11
581.543429
 21
676.101100
  0
LINE
  8
CSLAYER1
  6
CONTINUOUS
 62
     7
 10
581.543429
 20
676.101100
 11
585.516557
 21
674.577809
  0
LINE
  8
CSLAYER1
  6
CONTINUOUS
 62
     7
 10
585.516557
 20
674.577809
 11
589.253960
 21
672.851918
  0
LINE
  8
CSLAYER1
  6
CONTINUOUS
 62
     7
 10
589.253960
 20
672.851918
 11
592.727195
 21
670.936561
  0
LINE
  8
CSLAYER1
  6
CONTINUOUS
 62
     7
 10
592.727195
 20
670.936561
 11
595.909829
 21
668.846316
  0
LINE
  8
CSLAYER1
  6
CONTINUOUS
 62
     7
 10
595.909829
 20
668.846316
 11
598.777639
 21
666.597090
  0
LINE
  8
CSLAYER1
  6
CONTINUOUS
 62
     7
 10
598.777639
 20
666.597090
 11
601.308801
 21
664.206002
  0
LINE
  8
CSLAYER1
  6
CONTINUOUS
 62
     7
 10
601.308801
 20
664.206002
 11
603.484049
 21
661.691250
  0
LINE
  8
CSLAYER1
  6
CONTINUOUS
 62
     7
 10
603.484049
 20
661.691250
 11
605.286830
 21
659.071971
  0
LINE
  8
CSLAYER1
  6
CONTINUOUS
 62
     7
 10
605.286830
 20
659.071971
 11
606.703424
 21
656.368101
  0
LINE
  8
CSLAYER1
  6
CONTINUOUS
 62
     7
 10
606.703424
 20
656.368101
 11
607.723048
 21
653.600217
  0
LINE
  8
CSLAYER1
  6
CONTINUOUS
 62
     7
 10
607.723048
 20
653.600217
 11
608.337943
 21
650.789385
  0
LINE
  8
CSLAYER1
  6
CONTINUOUS
 62
     7
 10
608.337943
 20
650.789385
 11
608.543429
 21
647.956997
  0
LINE
  8
CSLAYER1
  6
CONTINUOUS
 62
     7
 10
608.543429
 20
647.956997
 11
608.337943
 21
645.124608
  0
LINE
  8
CSLAYER1
  6
CONTINUOUS
 62
     7
 10
554.543429
 20
634.493021
 11
559.772774
 21
634.355616
  0
LINE
  8
CSLAYER1
  6
CONTINUOUS
 62
     7
 10
559.772774
 20
634.355616
 11
564.962320
 21
633.944445
  0
LINE
  8
CSLAYER1
  6
CONTINUOUS
 62
     7
 10
564.962320
 20
633.944445
 11
570.072572
 21
633.262640
  0
LINE
  8
CSLAYER1
  6
CONTINUOUS
 62
     7
 10
570.072572
 20
633.262640
 11
575.064638
 21
632.315388
  0
LINE
  8
CSLAYER1
  6
CONTINUOUS
 62
     7
 10
575.064638
 20
632.315388
 11
579.900525
 21
631.109898
  0
LINE
  8
CSLAYER1
  6
CONTINUOUS
 62
     7
 10
579.900525
 20
631.109898
 11
584.543429
 21
629.655345
  0
LINE
  8
CSLAYER1
  6
CONTINUOUS
 62
     7
 10
584.543429
 20
629.655345
 11
588.958015
 21
627.962800
  0
LINE
  8
CSLAYER1
  6
CONTINUOUS
 62
     7
 10
588.958015
 20
627.962800
 11
593.110686
 21
626.045143
  0
LINE
  8
CSLAYER1
  6
CONTINUOUS
 62
     7
 10
593.110686
 20
626.045143
 11
596.969836
 21
623.916968
  0
LINE
  8
CSLAYER1
  6
CONTINUOUS
 62
     7
 10
596.969836
 20
623.916968
 11
600.506096
 21
621.594474
  0
LINE
  8
CSLAYER1
  6
CONTINUOUS
 62
     7
 10
600.506096
 20
621.594474
 11
603.692552
 21
619.095334
  0
LINE
  8
CSLAYER1
  6
CONTINUOUS
 62
     7
 10
603.692552
 20
619.095334
 11
606.504953
 21
616.438570
  0
LINE
  8
CSLAYER1
  6
CONTINUOUS
 62
     7
 10
606.504953
 20
616.438570
 11
608.921896
 21
613.644401
  0
LINE
  8
CSLAYER1
  6
CONTINUOUS
 62
     7
 10
608.921896
 20
613.644401
 11
610.924986
 21
610.734091
  0
LINE
  8
CSLAYER1
  6
CONTINUOUS
 62
     7
 10
610.924986
 20
610.734091
 11
612.498979
 21
607.729791
  0
LINE
  8
CSLAYER1
  6
CONTINUOUS
 62
     7
 10
612.498979
 20
607.729791
 11
613.631894
 21
604.654364
  0
LINE
  8
CSLAYER1
  6
CONTINUOUS
 62
     7
 10
613.631894
 20
604.654364
 11
614.315111
 21
601.531218
  0
LINE
  8
CSLAYER1
  6
CONTINUOUS
 62
     7
 10
614.315111
 20
601.531218
 11
614.543429
 21
598.384119
  0
LINE
  8
CSLAYER1
  6
CONTINUOUS
 62
     7
 10
614.543429
 20
598.384119
 11
614.315111
 21
595.237021
  0
LINE
  8
CSLAYER1
  6
CONTINUOUS
 62
     7
 10
554.543429
 20
526.156583
 11
559.947085
 21
526.014598
  0
LINE
  8
CSLAYER1
  6
CONTINUOUS
 62
     7
 10
559.947085
 20
526.014598
 11
565.309616
 21
525.589722
  0
LINE
  8
CSLAYER1
  6
CONTINUOUS
 62
     7
 10
565.309616
 20
525.589722
 11
570.590210
 21
524.885190
  0
LINE
  8
CSLAYER1
  6
CONTINUOUS
 62
     7
 10
570.590210
 20
524.885190
 11
575.748678
 21
523.906362
  0
LINE
  8
CSLAYER1
  6
CONTINUOUS
 62
     7
 10
575.748678
 20
523.906362
 11
580.745761
 21
522.660690
  0
LINE
  8
CSLAYER1
  6
CONTINUOUS
 62
     7
 10
580.745761
 20
522.660690
 11
585.543429
 21
521.157652
  0
LINE
  8
CSLAYER1
  6
CONTINUOUS
 62
     7
 10
585.543429
 20
521.157652
 11
590.105168
 21
519.408688
  0
LINE
  8
CSLAYER1
  6
CONTINUOUS
 62
     7
 10
590.105168
 20
519.408688
 11
594.396261
 21
517.427109
  0
LINE
  8
CSLAYER1
  6
CONTINUOUS
 62
     7
 10
594.396261
 20
517.427109
 11
598.384049
 21
515.227996
  0
LINE
  8
CSLAYER1
  6
CONTINUOUS
 62
     7
 10
598.384049
 20
515.227996
 11
602.038184
 21
512.828085
  0
LINE
  8
CSLAYER1
  6
CONTINUOUS
 62
     7
 10
602.038184
 20
512.828085
 11
605.330856
 21
510.245641
  0
LINE
  8
CSLAYER1
  6
CONTINUOUS
 62
     7
 10
605.330856
 20
510.245641
 11
608.237004
 21
507.500318
  0
LINE
  8
CSLAYER1
  6
CONTINUOUS
 62
     7
 10
608.237004
 20
507.500318
 11
610.734512
 21
504.613009
  0
LINE
  8
CSLAYER1
  6
CONTINUOUS
 62
     7
 10
610.734512
 20
504.613009
 11
612.804371
 21
501.605689
  0
LINE
  8
CSLAYER1
  6
CONTINUOUS
 62
     7
 10
612.804371
 20
501.605689
 11
614.430830
 21
498.501246
  0
LINE
  8
CSLAYER1
  6
CONTINUOUS
 62
     7
 10
614.430830
 20
498.501246
 11
615.601510
 21
495.323305
  0
LINE
  8
CSLAYER1
  6
CONTINUOUS
 62
     7
 10
615.601510
 20
495.323305
 11
616.307500
 21
492.096053
  0
LINE
  8
CSLAYER1
  6
CONTINUOUS
 62
     7
 10
616.307500
 20
492.096053
 11
616.543429
 21
488.844052
  0
LINE
  8
CSLAYER1
  6
CONTINUOUS
 62
     7
 10
554.543429
 20
474.185018
 11
559.947085
 21
474.043033
  0
LINE
  8
CSLAYER1
  6
CONTINUOUS
 62
     7
 10
559.947085
 20
474.043033
 11
565.309616
 21
473.618157
  0
LINE
  8
CSLAYER1
  6
CONTINUOUS
 62
     7
 10
565.309616
 20
473.618157
 11
570.590210
 21
472.913625
  0
LINE
  8
CSLAYER1
  6
CONTINUOUS
 62
     7
 10
570.590210
 20
472.913625
 11
575.748678
 21
471.934797
  0
LINE
  8
CSLAYER1
  6
CONTINUOUS
 62
     7
 10
575.748678
 20
471.934797
 11
580.745761
 21
470.689125
  0
LINE
  8
CSLAYER1
  6
CONTINUOUS
 62
     7
 10
580.745761
 20
470.689125
 11
585.543429
 21
469.186087
  0
LINE
  8
CSLAYER1
  6
CONTINUOUS
 62
     7
 10
585.543429
 20
469.186087
 11
590.105168
 21
467.437123
  0
LINE
  8
CSLAYER1
  6
CONTINUOUS
 62
     7
 10
590.105168
 20
467.437123
 11
594.396261
 21
465.455544
  0
LINE
  8
CSLAYER1
  6
CONTINUOUS
 62
     7
 10
594.396261
 20
465.455544
 11
598.384049
 21
463.256431
  0
LINE
  8
CSLAYER1
  6
CONTINUOUS
 62
     7
 10
598.384049
 20
463.256431
 11
602.038184
 21
460.856520
  0
LINE
  8
CSLAYER1
  6
CONTINUOUS
 62
     7
 10
602.038184
 20
460.856520
 11
605.330856
 21
458.274076
  0
LINE
  8
CSLAYER1
  6
CONTINUOUS
 62
     7
 10
605.330856
 20
458.274076
 11
608.237004
 21
455.528753
  0
LINE
  8
CSLAYER1
  6
CONTINUOUS
 62
     7
 10
608.237004
 20
455.528753
 11
610.734512
 21
452.641444
  0
LINE
  8
CSLAYER1
  6
CONTINUOUS
 62
     7
 10
610.734512
 20
452.641444
 11
612.804371
 21
449.634124
  0
LINE
  8
CSLAYER1
  6
CONTINUOUS
 62
     7
 10
612.804371
 20
449.634124
 11
614.430830
 21
446.529681
  0
LINE
  8
CSLAYER1
  6
CONTINUOUS
 62
     7
 10
614.430830
 20
446.529681
 11
615.601510
 21
443.351740
  0
LINE
  8
CSLAYER1
  6
CONTINUOUS
 62
     7
 10
615.601510
 20
443.351740
 11
616.307500
 21
440.124488
  0
LINE
  8
CSLAYER1
  6
CONTINUOUS
 62
     7
 10
616.307500
 20
440.124488
 11
616.543429
 21
436.872487
  0
LINE
  8
CSLAYER1
  6
CONTINUOUS
 62
     7
 10
616.543429
 20
436.872487
 11
616.307500
 21
433.620486
  0
LINE
  8
CSLAYER1
  6
CONTINUOUS
 62
     7
 10
616.307500
 20
433.620486
 11
615.601510
 21
430.393234
  0
LINE
  8
CSLAYER1
  6
CONTINUOUS
 62
     7
 10
615.601510
 20
430.393234
 11
614.430830
 21
427.215293
  0
LINE
  8
CSLAYER1
  6
CONTINUOUS
 62
     7
 10
614.430830
 20
427.215293
 11
612.804371
 21
424.110850
  0
LINE
  8
CSLAYER1
  6
CONTINUOUS
 62
     7
 10
612.804371
 20
424.110850
 11
610.734512
 21
421.103530
  0
LINE
  8
CSLAYER1
  6
CONTINUOUS
 62
     7
 10
610.734512
 20
421.103530
 11
608.237004
 21
418.216221
  0
LINE
  8
CSLAYER1
  6
CONTINUOUS
 62
     7
 10
608.237004
 20
418.216221
 11
605.330856
 21
415.470898
  0
LINE
  8
CSLAYER1
  6
CONTINUOUS
 62
     7
 10
605.330856
 20
415.470898
 11
602.038184
 21
412.888454
  0
LINE
  8
CSLAYER1
  6
CONTINUOUS
 62
     7
 10
602.038184
 20
412.888454
 11
598.384049
 21
410.488543
  0
LINE
  8
CSLAYER1
  6
CONTINUOUS
 62
     7
 10
598.384049
 20
410.488543
 11
594.396261
 21
408.289430
  0
LINE
  8
CSLAYER1
  6
CONTINUOUS
 62
     7
 10
594.396261
 20
408.289430
 11
590.105168
 21
406.307851
  0
LINE
  8
CSLAYER1
  6
CONTINUOUS
 62
     7
 10
590.105168
 20
406.307851
 11
585.543429
 21
404.558887
  0
LINE
  8
CSLAYER1
  6
CONTINUOUS
 62
     7
 10
585.543429
 20
404.558887
 11
580.745761
 21
403.055849
  0
LINE
  8
CSLAYER1
  6
CONTINUOUS
 62
     7
 10
580.745761
 20
403.055849
 11
575.748678
 21
401.810177
  0
LINE
  8
CSLAYER1
  6
CONTINUOUS
 62
     7
 10
575.748678
 20
401.810177
 11
570.590210
 21
400.831349
  0
LINE
  8
CSLAYER1
  6
CONTINUOUS
 62
     7
 10
570.590210
 20
400.831349
 11
565.309616
 21
400.126817
  0
LINE
  8
CSLAYER1
  6
CONTINUOUS
 62
     7
 10
565.309616
 20
400.126817
 11
559.947085
 21
399.701941
  0
LINE
  8
CSLAYER1
  6
CONTINUOUS
 62
     7
 10
559.947085
 20
399.701941
 11
554.543429
 21
399.559956
  0
LINE
  8
CSLAYER1
  6
CONTINUOUS
 62
     7
 10
609.543429
 20
686.067662
 11
609.543429
 21
612.741369
  0
LINE
  8
CSLAYER1
  6
CONTINUOUS
 62
     7
 10
604.543429
 20
691.067662
 11
504.543429
 21
691.067662
  0
LINE
  8
CSLAYER1
  6
CONTINUOUS
 62
     7
 10
604.543429
 20
682.734795
 11
504.543429
 21
682.734795
  0
ARC
  8
CSLAYER1
  6
CONTINUOUS
 62
     7
 10
604.543429
 20
686.067662
 40
5.000000
 50
0.000000
 51
90.000000
  0
ARC
  8
CSLAYER1
  6
CONTINUOUS
 62
     7
 10
604.543429
 20
677.734795
 40
5.000000
 50
0.000000
 51
90.000000
  0
LINE
  8
CSLAYER1
  6
CONTINUOUS
 62
     7
 10
620.414008
 20
554.530987
 11
635.972846
 21
554.530987
  0
LINE
  8
CSLAYER1
  6
CONTINUOUS
 62
     7
 10
628.043429
 20
545.845496
 11
628.043429
 21
563.669185
  0
LINE
  8
CSLAYER1
  6
CONTINUOUS
 62
     7
 10
618.508859
 20
484.530987
 11
636.543429
 21
484.530987
  0
LINE
  8
CSLAYER1
  6
CONTINUOUS
 62
     7
 10
618.508859
 20
566.030987
 11
636.543429
 21
566.030987
  0
LINE
  8
CSLAYER1
  6
CONTINUOUS
 62
     7
 10
639.543429
 20
563.030987
 11
639.543429
 21
469.629774
  0
LINE
  8
CSLAYER1
  6
CONTINUOUS
 62
     7
 10
618.508859
 20
466.629774
 11
618.508859
 21
566.030987
  0
LINE
  8
CSLAYER1
  6
CONTINUOUS
 62
     7
 10
614.543429
 20
500.040531
 11
618.508859
 21
500.040531
  0
CIRCLE
  8
CSLAYER1
  6
CONTINUOUS
 62
     7
 10
628.043429
 20
554.530987
 40
6.250000
  0
LINE
  8
CSLAYER1
  6
CONTINUOUS
 62
     7
 10
614.543429
 20
527.021442
 11
618.508859
 21
527.021442
  0
ARC
  8
CSLAYER1
  6
CONTINUOUS
 62
     7
 10
636.543429
 20
487.530987
 40
3.000000
 50
270.000000
 51
360.000000
  0
ARC
  8
CSLAYER1
  6
CONTINUOUS
 62
     7
 10
636.543429
 20
563.030987
 40
3.000000
 50
0.000000
 51
90.000000
  0
LINE
  8
CSLAYER1
  6
CONTINUOUS
 62
     7
 10
606.543429
 20
509.100171
 11
606.543429
 21
616.402224
  0
LINE
  8
CSLAYER1
  6
CONTINUOUS
 62
     7
 10
586.543429
 20
520.774254
 11
586.543429
 21
628.888548
  0
LINE
  8
CSLAYER1
  6
CONTINUOUS
 62
     7
 10
579.543429
 20
522.960407
 11
579.543429
 21
631.221771
  0
LINE
  8
CSLAYER1
  6
CONTINUOUS
 62
     7
 10
571.543429
 20
524.704315
 11
571.543429
 21
633.066399
  0
LINE
  8
CSLAYER1
  6
CONTINUOUS
 62
     7
 10
618.508859
 20
466.629774
 11
636.543429
 21
466.629774
  0
ARC
  8
CSLAYER1
  6
CONTINUOUS
 62
     7
 10
636.543429
 20
469.629774
 40
3.000000
 50
270.000000
 51
360.000000
  0
LINE
  8
CSLAYER1
  6
CONTINUOUS
 62
     7
 10
500.543429
 20
652.797384
 11
500.543429
 21
507.146067
  0
LINE
  8
CSLAYER1
  6
CONTINUOUS
 62
     7
 10
494.543429
 20
598.384119
 11
494.543429
 21
498.059989
  0
LINE
  8
CSLAYER1
  6
CONTINUOUS
 62
     7
 10
492.543429
 20
488.844052
 11
492.543429
 21
436.872487
  0
LINE
  8
CSLAYER1
  6
CONTINUOUS
 62
     7
 10
554.543429
 20
680.455008
 11
549.837019
 21
680.331343
  0
LINE
  8
CSLAYER1
  6
CONTINUOUS
 62
     7
 10
549.837019
 20
680.331343
 11
545.166427
 21
679.961290
  0
LINE
  8
CSLAYER1
  6
CONTINUOUS
 62
     7
 10
545.166427
 20
679.961290
 11
540.567201
 21
679.347665
  0
LINE
  8
CSLAYER1
  6
CONTINUOUS
 62
     7
 10
540.567201
 20
679.347665
 11
536.074341
 21
678.495138
  0
LINE
  8
CSLAYER1
  6
CONTINUOUS
 62
     7
 10
536.074341
 20
678.495138
 11
531.722043
 21
677.410197
  0
LINE
  8
CSLAYER1
  6
CONTINUOUS
 62
     7
 10
531.722043
 20
677.410197
 11
527.543429
 21
676.101100
  0
LINE
  8
CSLAYER1
  6
CONTINUOUS
 62
     7
 10
527.543429
 20
676.101100
 11
523.570301
 21
674.577809
  0
LINE
  8
CSLAYER1
  6
CONTINUOUS
 62
     7
 10
523.570301
 20
674.577809
 11
519.832898
 21
672.851918
  0
LINE
  8
CSLAYER1
  6
CONTINUOUS
 62
     7
 10
519.832898
 20
672.851918
 11
516.359663
 21
670.936561
  0
LINE
  8
CSLAYER1
  6
CONTINUOUS
 62
     7
 10
516.359663
 20
670.936561
 11
513.177029
 21
668.846316
  0
LINE
  8
CSLAYER1
  6
CONTINUOUS
 62
     7
 10
513.177029
 20
668.846316
 11
510.309219
 21
666.597090
  0
LINE
  8
CSLAYER1
  6
CONTINUOUS
 62
     7
 10
510.309219
 20
666.597090
 11
507.778057
 21
664.206002
  0
LINE
  8
CSLAYER1
  6
CONTINUOUS
 62
     7
 10
507.778057
 20
664.206002
 11
505.602808
 21
661.691250
  0
LINE
  8
CSLAYER1
  6
CONTINUOUS
 62
     7
 10
505.602808
 20
661.691250
 11
503.800027
 21
659.071971
  0
LINE
  8
CSLAYER1
  6
CONTINUOUS
 62
     7
 10
503.800027
 20
659.071971
 11
502.383434
 21
656.368101
  0
LINE
  8
CSLAYER1
  6
CONTINUOUS
 62
     7
 10
502.383434
 20
656.368101
 11
501.363810
 21
653.600217
  0
LINE
  8
CSLAYER1
  6
CONTINUOUS
 62
     7
 10
501.363810
 20
653.600217
 11
500.748915
 21
650.789385
  0
LINE
  8
CSLAYER1
  6
CONTINUOUS
 62
     7
 10
500.748915
 20
650.789385
 11
500.543429
 21
647.956997
  0
LINE
  8
CSLAYER1
  6
CONTINUOUS
 62
     7
 10
500.543429
 20
647.956997
 11
500.748915
 21
645.124608
  0
LINE
  8
CSLAYER1
  6
CONTINUOUS
 62
     7
 10
554.543429
 20
634.493021
 11
549.314084
 21
634.355616
  0
LINE
  8
CSLAYER1
  6
CONTINUOUS
 62
     7
 10
549.314084
 20
634.355616
 11
544.124538
 21
633.944445
  0
LINE
  8
CSLAYER1
  6
CONTINUOUS
 62
     7
 10
544.124538
 20
633.944445
 11
539.014286
 21
633.262640
  0
LINE
  8
CSLAYER1
  6
CONTINUOUS
 62
     7
 10
539.014286
 20
633.262640
 11
534.022220
 21
632.315388
  0
LINE
  8
CSLAYER1
  6
CONTINUOUS
 62
     7
 10
534.022220
 20
632.315388
 11
529.186333
 21
631.109898
  0
LINE
  8
CSLAYER1
  6
CONTINUOUS
 62
     7
 10
529.186333
 20
631.109898
 11
524.543429
 21
629.655345
  0
LINE
  8
CSLAYER1
  6
CONTINUOUS
 62
     7
 10
524.543429
 20
629.655345
 11
520.128843
 21
627.962800
  0
LINE
  8
CSLAYER1
  6
CONTINUOUS
 62
     7
 10
520.128843
 20
627.962800
 11
515.976172
 21
626.045143
  0
LINE
  8
CSLAYER1
  6
CONTINUOUS
 62
     7
 10
515.976172
 20
626.045143
 11
512.117022
 21
623.916968
  0
LINE
  8
CSLAYER1
  6
CONTINUOUS
 62
     7
 10
512.117022
 20
623.916968
 11
508.580762
 21
621.594474
  0
LINE
  8
CSLAYER1
  6
CONTINUOUS
 62
     7
 10
508.580762
 20
621.594474
 11
505.394306
 21
619.095334
  0
LINE
  8
CSLAYER1
  6
CONTINUOUS
 62
     7
 10
505.394306
 20
619.095334
 11
502.581905
 21
616.438570
  0
LINE
  8
CSLAYER1
  6
CONTINUOUS
 62
     7
 10
502.581905
 20
616.438570
 11
500.164962
 21
613.644401
  0
LINE
  8
CSLAYER1
  6
CONTINUOUS
 62
     7
 10
500.164962
 20
613.644401
 11
498.161872
 21
610.734091
  0
LINE
  8
CSLAYER1
  6
CONTINUOUS
 62
     7
 10
498.161872
 20
610.734091
 11
496.587879
 21
607.729791
  0
LINE
  8
CSLAYER1
  6
CONTINUOUS
 62
     7
 10
496.587879
 20
607.729791
 11
495.454964
 21
604.654364
  0
LINE
  8
CSLAYER1
  6
CONTINUOUS
 62
     7
 10
495.454964
 20
604.654364
 11
494.771747
 21
601.531218
  0
LINE
  8
CSLAYER1
  6
CONTINUOUS
 62
     7
 10
494.771747
 20
601.531218
 11
494.543429
 21
598.384119
  0
LINE
  8
CSLAYER1
  6
CONTINUOUS
 62
     7
 10
494.543429
 20
598.384119
 11
494.771747
 21
595.237021
  0
LINE
  8
CSLAYER1
  6
CONTINUOUS
 62
     7
 10
554.543429
 20
526.156583
 11
549.139773
 21
526.014598
  0
LINE
  8
CSLAYER1
  6
CONTINUOUS
 62
     7
 10
549.139773
 20
526.014598
 11
543.777242
 21
525.589722
  0
LINE
  8
CSLAYER1
  6
CONTINUOUS
 62
     7
 10
543.777242
 20
525.589722
 11
538.496648
 21
524.885190
  0
LINE
  8
CSLAYER1
  6
CONTINUOUS
 62
     7
 10
538.496648
 20
524.885190
 11
533.338180
 21
523.906362
  0
LINE
  8
CSLAYER1
  6
CONTINUOUS
 62
     7
 10
533.338180
 20
523.906362
 11
528.341097
 21
522.660690
  0
LINE
  8
CSLAYER1
  6
CONTINUOUS
 62
     7
 10
528.341097
 20
522.660690
 11
523.543429
 21
521.157652
  0
LINE
  8
CSLAYER1
  6
CONTINUOUS
 62
     7
 10
523.543429
 20
521.157652
 11
518.981690
 21
519.408688
  0
LINE
  8
CSLAYER1
  6
CONTINUOUS
 62
     7
 10
518.981690
 20
519.408688
 11
514.690597
 21
517.427109
  0
LINE
  8
CSLAYER1
  6
CONTINUOUS
 62
     7
 10
514.690597
 20
517.427109
 11
510.702809
 21
515.227996
  0
LINE
  8
CSLAYER1
  6
CONTINUOUS
 62
     7
 10
510.702809
 20
515.227996
 11
507.048674
 21
512.828085
  0
LINE
  8
CSLAYER1
  6
CONTINUOUS
 62
     7
 10
507.048674
 20
512.828085
 11
503.756002
 21
510.245641
  0
LINE
  8
CSLAYER1
  6
CONTINUOUS
 62
     7
 10
503.756002
 20
510.245641
 11
500.849854
 21
507.500318
  0
LINE
  8
CSLAYER1
  6
CONTINUOUS
 62
     7
 10
500.849854
 20
507.500318
 11
498.352346
 21
504.613009
  0
LINE
  8
CSLAYER1
  6
CONTINUOUS
 62
     7
 10
498.352346
 20
504.613009
 11
496.282486
 21
501.605689
  0
LINE
  8
CSLAYER1
  6
CONTINUOUS
 62
     7
 10
496.282486
 20
501.605689
 11
494.656028
 21
498.501246
  0
LINE
  8
CSLAYER1
  6
CONTINUOUS
 62
     7
 10
494.656028
 20
498.501246
 11
493.485348
 21
495.323305
  0
LINE
  8
CSLAYER1
  6
CONTINUOUS
 62
     7
 10
493.485348
 20
495.323305
 11
492.779358
 21
492.096053
  0
LINE
  8
CSLAYER1
  6
CONTINUOUS
 62
     7
 10
492.779358
 20
492.096053
 11
492.543429
 21
488.844052
  0
LINE
  8
CSLAYER1
  6
CONTINUOUS
 62
     7
 10
554.543429
 20
474.185018
 11
549.139773
 21
474.043033
  0
LINE
  8
CSLAYER1
  6
CONTINUOUS
 62
     7
 10
549.139773
 20
474.043033
 11
543.777242
 21
473.618157
  0
LINE
  8
CSLAYER1
  6
CONTINUOUS
 62
     7
 10
543.777242
 20
473.618157
 11
538.496648
 21
472.913625
  0
LINE
  8
CSLAYER1
  6
CONTINUOUS
 62
     7
 10
538.496648
 20
472.913625
 11
533.338180
 21
471.934797
  0
LINE
  8
CSLAYER1
  6
CONTINUOUS
 62
     7
 10
533.338180
 20
471.934797
 11
528.341097
 21
470.689125
  0
LINE
  8
CSLAYER1
  6
CONTINUOUS
 62
     7
 10
528.341097
 20
470.689125
 11
523.543429
 21
469.186087
  0
LINE
  8
CSLAYER1
  6
CONTINUOUS
 62
     7
 10
523.543429
 20
469.186087
 11
518.981690
 21
467.437123
  0
LINE
  8
CSLAYER1
  6
CONTINUOUS
 62
     7
 10
518.981690
 20
467.437123
 11
514.690597
 21
465.455544
  0
LINE
  8
CSLAYER1
  6
CONTINUOUS
 62
     7
 10
514.690597
 20
465.455544
 11
510.702809
 21
463.256431
  0
LINE
  8
CSLAYER1
  6
CONTINUOUS
 62
     7
 10
510.702809
 20
463.256431
 11
507.048674
 21
460.856520
  0
LINE
  8
CSLAYER1
  6
CONTINUOUS
 62
     7
 10
507.048674
 20
460.856520
 11
503.756002
 21
458.274076
  0
LINE
  8
CSLAYER1
  6
CONTINUOUS
 62
     7
 10
503.756002
 20
458.274076
 11
500.849854
 21
455.528753
  0
LINE
  8
CSLAYER1
  6
CONTINUOUS
 62
     7
 10
500.849854
 20
455.528753
 11
498.352346
 21
452.641444
  0
LINE
  8
CSLAYER1
  6
CONTINUOUS
 62
     7
 10
498.352346
 20
452.641444
 11
496.282486
 21
449.634124
  0
LINE
  8
CSLAYER1
  6
CONTINUOUS
 62
     7
 10
496.282486
 20
449.634124
 11
494.656028
 21
446.529681
  0
LINE
  8
CSLAYER1
  6
CONTINUOUS
 62
     7
 10
494.656028
 20
446.529681
 11
493.485348
 21
443.351740
  0
LINE
  8
CSLAYER1
  6
CONTINUOUS
 62
     7
 10
493.485348
 20
443.351740
 11
492.779358
 21
440.124488
  0
LINE
  8
CSLAYER1
  6
CONTINUOUS
 62
     7
 10
492.779358
 20
440.124488
 11
492.543429
 21
436.872487
  0
LINE
  8
CSLAYER1
  6
CONTINUOUS
 62
     7
 10
492.543429
 20
436.872487
 11
492.779358
 21
433.620486
  0
LINE
  8
CSLAYER1
  6
CONTINUOUS
 62
     7
 10
492.779358
 20
433.620486
 11
493.485348
 21
430.393234
  0
LINE
  8
CSLAYER1
  6
CONTINUOUS
 62
     7
 10
493.485348
 20
430.393234
 11
494.656028
 21
427.215293
  0
LINE
  8
CSLAYER1
  6
CONTINUOUS
 62
     7
 10
494.656028
 20
427.215293
 11
496.282486
 21
424.110850
  0
LINE
  8
CSLAYER1
  6
CONTINUOUS
 62
     7
 10
496.282486
 20
424.110850
 11
498.352346
 21
421.103530
  0
LINE
  8
CSLAYER1
  6
CONTINUOUS
 62
     7
 10
498.352346
 20
421.103530
 11
500.849854
 21
418.216221
  0
LINE
  8
CSLAYER1
  6
CONTINUOUS
 62
     7
 10
500.849854
 20
418.216221
 11
503.756002
 21
415.470898
  0
LINE
  8
CSLAYER1
  6
CONTINUOUS
 62
     7
 10
503.756002
 20
415.470898
 11
507.048674
 21
412.888454
  0
LINE
  8
CSLAYER1
  6
CONTINUOUS
 62
     7
 10
507.048674
 20
412.888454
 11
510.702809
 21
410.488543
  0
LINE
  8
CSLAYER1
  6
CONTINUOUS
 62
     7
 10
510.702809
 20
410.488543
 11
514.690597
 21
408.289430
  0
LINE
  8
CSLAYER1
  6
CONTINUOUS
 62
     7
 10
514.690597
 20
408.289430
 11
518.981690
 21
406.307851
  0
LINE
  8
CSLAYER1
  6
CONTINUOUS
 62
     7
 10
518.981690
 20
406.307851
 11
523.543429
 21
404.558887
  0
LINE
  8
CSLAYER1
  6
CONTINUOUS
 62
     7
 10
523.543429
 20
404.558887
 11
528.341097
 21
403.055849
  0
LINE
  8
CSLAYER1
  6
CONTINUOUS
 62
     7
 10
528.341097
 20
403.055849
 11
533.338180
 21
401.810177
  0
LINE
  8
CSLAYER1
  6
CONTINUOUS
 62
     7
 10
533.338180
 20
401.810177
 11
538.496648
 21
400.831349
  0
LINE
  8
CSLAYER1
  6
CONTINUOUS
 62
     7
 10
538.496648
 20
400.831349
 11
543.777242
 21
400.126817
  0
LINE
  8
CSLAYER1
  6
CONTINUOUS
 62
     7
 10
543.777242
 20
400.126817
 11
549.139773
 21
399.701941
  0
LINE
  8
CSLAYER1
  6
CONTINUOUS
 62
     7
 10
549.139773
 20
399.701941
 11
554.543429
 21
399.559956
  0
LINE
  8
CSLAYER1
  6
CONTINUOUS
 62
     7
 10
499.543429
 20
686.067662
 11
499.543429
 21
612.741369
  0
ARC
  8
CSLAYER1
  6
CONTINUOUS
 62
     7
 10
504.543429
 20
686.067662
 40
5.000000
 50
90.000000
 51
180.000000
  0
ARC
  8
CSLAYER1
  6
CONTINUOUS
 62
     7
 10
504.543429
 20
677.734795
 40
5.000000
 50
90.000000
 51
180.000000
  0
LINE
  8
CSLAYER1
  6
CONTINUOUS
 62
     7
 10
502.543429
 20
509.100171
 11
502.543429
 21
616.402224
  0
LINE
  8
CSLAYER1
  6
CONTINUOUS
 62
     7
 10
522.543429
 20
520.774254
 11
522.543429
 21
628.888548
  0
LINE
  8
CSLAYER1
  6
CONTINUOUS
 62
     7
 10
529.543429
 20
522.960407
 11
529.543429
 21
631.221771
  0
LINE
  8
CSLAYER1
  6
CONTINUOUS
 62
     7
 10
537.543429
 20
524.704315
 11
537.543429
 21
633.066399
  0
INSERT
  8
CSLAYER1
  2
BLKF0005
 10
0.0
 20
0.0
 30
0.0
  0
INSERT
  8
CSLAYER1
  2
BLKF0006
 10
0.0
 20
0.0
 30
0.0
  0
LINE
  8
CSLAYER1
  6
CONTINUOUS
 62
     4
 10
464.543429
 20
355.813373
 11
644.543429
 21
355.813373
  0
LINE
  8
CSLAYER1
  6
CONTINUOUS
 62
     5
 10
2179.954803
 20
368.225391
 11
2179.954803
 21
358.888352
  0
LINE
  8
CSLAYER1
  6
CENTER
 62
     5
 10
2111.129980
 20
340.813373
 11
2121.982816
 21
340.813373
  0
LINE
  8
CSLAYER1
  6
CENTER
 62
     5
 10
2322.390050
 20
340.813373
 11
2240.422999
 21
340.813373
  0
ARC
  8
CSLAYER1
  6
CENTER
 62
     5
 10
2111.604803
 20
308.663238
 40
32.153641
 50
90.846136
 51
148.395648
  0
LINE
  8
CSLAYER1
  6
CONTINUOUS
 62
     4
 10
2322.390050
 20
344.613373
 11
2274.154803
 21
344.613373
  0
LINE
  8
CSLAYER1
  6
CONTINUOUS
 62
     3
 10
2246.154803
 20
355.813373
 11
2246.154803
 21
325.513373
  0
LINE
  8
CSLAYER1
  6
CONTINUOUS
 62
     4
 10
2274.154803
 20
349.313373
 11
2274.154803
 21
332.313373
  0
LINE
  8
CSLAYER1
  6
CONTINUOUS
 62
     4
 10
2270.185237
 20
353.803754
 11
2255.557366
 21
353.803754
  0
LINE
  8
CSLAYER1
  6
CONTINUOUS
 62
     4
 10
2271.045709
 20
352.313373
 11
2271.045709
 21
329.313373
  0
LINE
  8
CSLAYER1
  6
CONTINUOUS
 62
     4
 10
2254.696894
 20
352.313373
 11
2254.696894
 21
329.313373
  0
LINE
  8
CSLAYER1
  6
CONTINUOUS
 62
     4
 10
2271.045709
 20
352.313373
 11
2270.185237
 21
353.803754
  0
LINE
  8
CSLAYER1
  6
CONTINUOUS
 62
     4
 10
2254.696894
 20
352.313373
 11
2255.557366
 21
353.803754
  0
LINE
  8
CSLAYER1
  6
CONTINUOUS
 62
     4
 10
2270.185237
 20
347.452901
 11
2255.557366
 21
347.452901
  0
ARC
  8
CSLAYER1
  6
CONTINUOUS
 62
     4
 10
2244.999684
 20
340.813373
 40
26.046025
 50
-14.768561
 51
14.768561
  0
ARC
  8
CSLAYER1
  6
CONTINUOUS
 62
     4
 10
2264.914115
 20
350.628328
 40
6.153702
 50
-31.065581
 51
23.174644
  0
ARC
  8
CSLAYER1
  6
CONTINUOUS
 62
     4
 10
2260.828488
 20
350.628328
 40
6.153702
 50
156.825356
 51
211.065581
  0
ARC
  8
CSLAYER1
  6
CONTINUOUS
 62
     4
 10
2280.742919
 20
340.813373
 40
26.046025
 50
165.231439
 51
194.768561
  0
LINE
  8
CSLAYER1
  6
CONTINUOUS
 62
     4
 10
2271.154803
 20
352.313373
 11
2271.045709
 21
352.313373
  0
ARC
  8
CSLAYER1
  6
CONTINUOUS
 62
     4
 10
2271.154803
 20
349.313373
 40
3.000000
 50
0.000000
 51
90.000000
  0
LINE
  8
CSLAYER1
  6
CONTINUOUS
 62
     4
 10
2251.154803
 20
352.313373
 11
2251.154803
 21
329.313373
  0
LINE
  8
CSLAYER1
  6
CONTINUOUS
 62
     4
 10
2251.154803
 20
352.313373
 11
2250.294331
 21
353.803754
  0
ARC
  8
CSLAYER1
  6
CONTINUOUS
 62
     4
 10
2225.108778
 20
340.813373
 40
26.046025
 50
-14.768561
 51
14.768561
  0
ARC
  8
CSLAYER1
  6
CONTINUOUS
 62
     4
 10
2245.023210
 20
350.628328
 40
6.153702
 50
-31.065581
 51
23.174644
  0
LINE
  8
CSLAYER1
  6
CONTINUOUS
 62
     4
 10
2250.294331
 20
347.452901
 11
2246.154803
 21
347.452901
  0
LINE
  8
CSLAYER1
  6
CONTINUOUS
 62
     4
 10
2250.294331
 20
353.803754
 11
2246.154803
 21
353.803754
  0
LINE
  8
CSLAYER1
  6
CONTINUOUS
 62
     4
 10
2254.696894
 20
351.149497
 11
2251.154803
 21
351.149497
  0
LINE
  8
CSLAYER1
  6
CONTINUOUS
 62
     4
 10
2254.696894
 20
350.503120
 11
2253.090533
 21
350.503120
  0
LINE
  8
CSLAYER1
  6
CONTINUOUS
 62
     4
 10
2253.090533
 20
351.149497
 11
2253.090533
 21
330.477249
  0
LINE
  8
CSLAYER1
  6
CONTINUOUS
 62
     4
 10
2253.090533
 20
350.503120
 11
2251.955681
 21
351.149497
  0
LINE
  8
CSLAYER1
  6
CONTINUOUS
 62
     4
 10
2270.185237
 20
327.822992
 11
2255.557366
 21
327.822992
  0
LINE
  8
CSLAYER1
  6
CONTINUOUS
 62
     4
 10
2271.045709
 20
329.313373
 11
2270.185237
 21
327.822992
  0
LINE
  8
CSLAYER1
  6
CONTINUOUS
 62
     4
 10
2254.696894
 20
329.313373
 11
2255.557366
 21
327.822992
  0
LINE
  8
CSLAYER1
  6
CONTINUOUS
 62
     4
 10
2270.185237
 20
334.173845
 11
2255.557366
 21
334.173845
  0
ARC
  8
CSLAYER1
  6
CONTINUOUS
 62
     4
 10
2264.914115
 20
330.998419
 40
6.153702
 50
-23.174644
 51
31.065581
  0
ARC
  8
CSLAYER1
  6
CONTINUOUS
 62
     4
 10
2260.828488
 20
330.998419
 40
6.153702
 50
148.934419
 51
203.174644
  0
LINE
  8
CSLAYER1
  6
CONTINUOUS
 62
     4
 10
2271.154803
 20
329.313373
 11
2271.045709
 21
329.313373
  0
ARC
  8
CSLAYER1
  6
CONTINUOUS
 62
     4
 10
2271.154803
 20
332.313373
 40
3.000000
 50
270.000000
 51
360.000000
  0
LINE
  8
CSLAYER1
  6
CONTINUOUS
 62
     4
 10
2251.154803
 20
329.313373
 11
2250.294331
 21
327.822992
  0
ARC
  8
CSLAYER1
  6
CONTINUOUS
 62
     4
 10
2245.023210
 20
330.998419
 40
6.153702
 50
-23.174644
 51
31.065581
  0
LINE
  8
CSLAYER1
  6
CONTINUOUS
 62
     4
 10
2250.294331
 20
334.173845
 11
2246.154803
 21
334.173845
  0
LINE
  8
CSLAYER1
  6
CONTINUOUS
 62
     4
 10
2250.294331
 20
327.822992
 11
2246.154803
 21
327.822992
  0
LINE
  8
CSLAYER1
  6
CONTINUOUS
 62
     4
 10
2254.696894
 20
330.477249
 11
2251.154803
 21
330.477249
  0
LINE
  8
CSLAYER1
  6
CONTINUOUS
 62
     4
 10
2254.696894
 20
331.123627
 11
2253.090533
 21
331.123627
  0
LINE
  8
CSLAYER1
  6
CONTINUOUS
 62
     4
 10
2253.090533
 20
331.123627
 11
2251.955681
 21
330.477249
  0
LINE
  8
CSLAYER1
  6
CONTINUOUS
 62
     4
 10
2246.154803
 20
353.803754
 11
2246.154803
 21
327.822992
  0
LINE
  8
CSLAYER1
  6
CONTINUOUS
 62
     3
 10
2113.754803
 20
355.813373
 11
2113.754803
 21
325.513373
  0
LINE
  8
CSLAYER1
  6
CONTINUOUS
 62
     3
 10
2112.454803
 20
361.813373
 11
2247.454803
 21
361.813373
  0
LINE
  8
CSLAYER1
  6
CONTINUOUS
 62
     3
 10
2112.454803
 20
355.813373
 11
2113.754803
 21
355.813373
  0
LINE
  8
CSLAYER1
  6
CONTINUOUS
 62
     3
 10
2112.454803
 20
361.813373
 11
2112.454803
 21
355.813373
  0
LINE
  8
CSLAYER1
  6
CONTINUOUS
 62
     3
 10
2247.454803
 20
361.813373
 11
2247.454803
 21
355.813373
  0
ARC
  8
CSLAYER1
  6
CONTINUOUS
 62
     4
 10
2111.604803
 20
308.663238
 40
25.650135
 50
90.000000
 51
138.934462
  0
ARC
  8
CSLAYER1
  6
CONTINUOUS
 62
     4
 10
2111.604803
 20
308.663238
 40
28.654497
 50
89.000180
 51
143.981600
  0
ARC
  8
CSLAYER1
  6
CONTINUOUS
 62
     4
 10
2111.604803
 20
308.663238
 40
35.653641
 50
89.196468
 51
151.796391
  0
ARC
  8
CSLAYER1
  6
CONTINUOUS
 62
     4
 10
2111.604803
 20
308.663238
 40
38.650135
 50
90.000000
 51
154.153239
  0
LINE
  8
CSLAYER1
  6
CONTINUOUS
 62
     4
 10
2322.390050
 20
337.013373
 11
2274.154803
 21
337.013373
  0
LINE
  8
CSLAYER1
  6
CONTINUOUS
 62
     4
 10
2112.604803
 20
351.313373
 11
2113.604803
 21
351.313373
  0
LINE
  8
CSLAYER1
  6
CONTINUOUS
 62
     4
 10
2111.604803
 20
350.313373
 11
2111.604803
 21
344.316879
  0
ARC
  8
CSLAYER1
  6
CONTINUOUS
 62
     4
 10
2112.604803
 20
350.313373
 40
1.000000
 50
90.000000
 51
180.000000
  0
LINE
  8
CSLAYER1
  6
CONTINUOUS
 62
     4
 10
2112.604803
 20
330.313373
 11
2113.604803
 21
330.313373
  0
ARC
  8
CSLAYER1
  6
CONTINUOUS
 62
     4
 10
2112.604803
 20
331.313373
 40
1.000000
 50
180.000000
 51
270.000000
  0
LINE
  8
CSLAYER1
  6
CONTINUOUS
 62
     4
 10
2112.704803
 20
347.313373
 11
2113.604803
 21
347.313373
  0
LINE
  8
CSLAYER1
  6
CONTINUOUS
 62
     4
 10
2112.104803
 20
346.713373
 11
2112.104803
 21
334.913373
  0
ARC
  8
CSLAYER1
  6
CONTINUOUS
 62
     4
 10
2112.704803
 20
346.713373
 40
0.600000
 50
90.000000
 51
180.000000
  0
LINE
  8
CSLAYER1
  6
CONTINUOUS
 62
     4
 10
2112.704803
 20
334.313373
 11
2113.604803
 21
334.313373
  0
ARC
  8
CSLAYER1
  6
CONTINUOUS
 62
     4
 10
2112.704803
 20
334.913373
 40
0.600000
 50
180.000000
 51
270.000000
  0
LINE
  8
CSLAYER1
  6
CONTINUOUS
 62
     4
 10
2176.454803
 20
364.813373
 11
2176.454803
 21
362.613373
  0
LINE
  8
CSLAYER1
  6
CONTINUOUS
 62
     4
 10
2183.454803
 20
364.813373
 11
2183.454803
 21
362.613373
  0
LINE
  8
CSLAYER1
  6
CONTINUOUS
 62
     4
 10
2183.454803
 20
363.613373
 11
2176.454803
 21
363.613373
  0
LINE
  8
CSLAYER1
  6
CONTINUOUS
 62
     4
 10
2182.054803
 20
366.213373
 11
2177.854803
 21
366.213373
  0
LINE
  8
CSLAYER1
  6
CONTINUOUS
 62
     4
 10
2184.454803
 20
362.613373
 11
2184.454803
 21
361.813373
  0
LINE
  8
CSLAYER1
  6
CONTINUOUS
 62
     4
 10
2175.454803
 20
362.613373
 11
2175.454803
 21
361.813373
  0
LINE
  8
CSLAYER1
  6
CONTINUOUS
 62
     4
 10
2184.454803
 20
362.613373
 11
2175.454803
 21
362.613373
  0
ARC
  8
CSLAYER1
  6
CONTINUOUS
 62
     4
 10
2182.054803
 20
364.813373
 40
1.400000
 50
-0.000000
 51
90.000000
  0
ARC
  8
CSLAYER1
  6
CONTINUOUS
 62
     4
 10
2177.854803
 20
364.813373
 40
1.400000
 50
90.000000
 51
180.000000
  0
LINE
  8
CSLAYER1
  6
CONTINUOUS
 62
     4
 10
2180.994755
 20
362.613373
 11
2178.609553
 21
363.613373
  0
LINE
  8
CSLAYER1
  6
CONTINUOUS
 62
     4
 10
2111.604803
 20
337.317736
 11
2111.604803
 21
331.313373
  0
LINE
  8
CSLAYER1
  6
CONTINUOUS
 62
     4
 10
2113.754803
 20
355.813373
 11
2246.154803
 21
355.813373
  0
LINE
  8
CSLAYER1
  6
CONTINUOUS
 62
     3
 10
2246.154803
 20
355.813373
 11
2247.454803
 21
355.813373
  0
TEXT
  8
CSLAYER1
 62
     4
 10
2681.938232
 20
1246.271606
 40
40.000000
 41
1.036364
  1
操作方式
 50
0.000000
 51
0.000000
  7
EASYDRAW_FONT
 72
     5
 11
2833.938232
 21
1246.271606
  0
TEXT
  8
CSLAYER1
 62
     4
 10
2963.579834
 20
1240.978149
 40
40.000000
 41
1.020000
  1
フットスイッチ
 50
0.000000
 51
0.000000
  7
EASYDRAW_FONT
 72
     5
 11
3235.579834
 21
1240.978149
  0
LINE
  8
CSLAYER1
  6
CONTINUOUS
 62
     5
 10
3393.068857
 20
1234.245248
 11
2672.196340
 21
1234.245248
  0
LINE
  8
CSLAYER1
  6
CONTINUOUS
 62
     5
 10
3393.068857
 20
1170.245250
 11
2672.196340
 21
1170.245250
  0
TEXT
  8
CSLAYER1
 62
     4
 10
2683.369385
 20
1180.198608
 40
40.000000
 41
0.872727
  1
モーター
 50
0.000000
 51
0.000000
  7
EASYDRAW_FONT
 72
     5
 11
2811.369385
 21
1180.198608
  0
LINE
  8
CSLAYER1
  6
CONTINUOUS
 62
     5
 10
3393.068857
 20
1106.245251
 11
2672.196340
 21
1106.245251
  0
LINE
  8
CSLAYER1
  6
CONTINUOUS
 62
     5
 10
3393.068857
 20
978.245254
 11
2670.057837
 21
978.245254
  0
LINE
  8
CSLAYER1
  6
CONTINUOUS
 62
     5
 10
3393.068857
 20
914.245256
 11
2672.196340
 21
914.245256
  0
LINE
  8
CSLAYER1
  6
CONTINUOUS
 62
     5
 10
3393.068857
 20
850.245258
 11
2672.196340
 21
850.245258
  0
TEXT
  8
CSLAYER1
 62
     4
 10
2685.950928
 20
861.367249
 40
40.000000
 41
0.857143
  1
自  　重
 50
0.000000
 51
0.000000
  7
EASYDRAW_FONT
 72
     5
 11
2845.950928
 21
861.367249
  0
TEXT
  8
CSLAYER1
 62
     4
 10
2688.900146
 20
797.295959
 40
40.000000
 41
0.847059
  1
塗　装　色 
 50
0.000000
 51
0.000000
  7
EASYDRAW_FONT
 72
     5
 11
2880.900146
 21
797.295959
  0
TEXT
  8
CSLAYER1
 62
     4
 10
2914.475830
 20
1181.115601
 40
40.000000
 41
0.819512
  1
３相ＡＣ２００Ｖ、0.4ＫＷ
 50
0.000000
 51
0.000000
  7
EASYDRAW_FONT
 72
     5
 11
3362.475830
 21
1181.115601
  0
TEXT
  8
CSLAYER1
 62
     4
 10
3045.459229
 20
1117.272095
 40
40.000000
 41
0.840000
  1
長サ  ４ ｍ
 50
0.000000
 51
0.000000
  7
EASYDRAW_FONT
 72
     5
 11
3269.459229
 21
1117.272095
  0
TEXT
  8
CSLAYER1
 62
     3
 10
3158.098877
 20
863.266418
 40
40.000000
 41
0.847059
  1
１８９　Ｋｇ
 50
0.000000
 51
0.000000
  7
EASYDRAW_FONT
 72
     5
 11
3350.098877
 21
863.266418
  0
LINE
  8
CSLAYER1
  6
CONTINUOUS
 62
     5
 10
3393.068857
 20
1042.245253
 11
2672.196340
 21
1042.245253
  0
TEXT
  8
CSLAYER1
 62
     4
 10
2684.285645
 20
1116.881470
 40
40.000000
 41
0.942857
  1
電源コード
 50
0.000000
 51
0.000000
  7
EASYDRAW_FONT
 72
     5
 11
2860.285645
 21
1116.881470
  0
TEXT
  8
CSLAYER1
 62
     4
 10
2684.714615
 20
1047.760019
 40
47.730206
 41
0.593339
  1
昇降時間 ２２秒（50HZ） １８秒(60HZ)
 50
0.000000
 51
0.000000
  7
EASYDRAW_FONT
 72
     5
 11
3354.959701
 21
1047.760019
  0
TEXT
  8
CSLAYER1
 62
     4
 10
2686.015381
 20
922.316711
 40
40.000000
 41
0.912766
  1
上昇端、下降端リミットスイッチ付
 50
0.000000
 51
0.000000
  7
EASYDRAW_FONT
 72
     5
 11
3258.015381
 21
922.316711
  0
TEXT
  8
CSLAYER1
 62
     4
 10
2687.862116
 20
986.980335
 40
45.879784
 41
0.605080
  1
最大使用頻度８０回／時間・最大起動頻度１０回／分
 50
0.000000
 51
0.000000
  7
EASYDRAW_FONT
 72
     5
 11
3344.870795
 21
986.980335
  0
LINE
  8
CSLAYER1
  6
CONTINUOUS
 62
     5
 10
3393.068857
 20
1291.577252
 11
2672.196340
 21
1291.577252
  0
TEXT
  8
CSLAYER1
 62
     4
 10
2882.024658
 20
1303.311157
 40
40.000000
 41
0.825000
  1
マグネットスイッチ制御
 50
0.000000
 51
0.000000
  7
EASYDRAW_FONT
 72
     5
 11
3234.024658
 21
1303.311157
  0
TEXT
  8
CSLAYER1
 62
     4
 10
2685.637451
 20
1301.321899
 40
40.000000
 41
0.872727
  1
制御方式
 50
0.000000
 51
0.000000
  7
EASYDRAW_FONT
 72
     5
 11
2813.637451
 21
1301.321899
  0
DIMENSION
  8
CSLAYER1
 62
     3
  2
*D0004
 10
904.543429
 20
185.513373
 11
554.543396
 21
195.513382
 13
204.543429
 23
260.513373
 14
904.543429
 24
260.513373
 52
270.000000
 70
1
  0
DIMENSION
  8
CSLAYER1
 62
     3
  2
*D0005
 10
2273.954803
 20
185.513373
 11
1673.954834
 21
195.513382
 13
1073.954803
 23
260.513373
 14
2273.954803
 24
260.513373
 52
270.000000
 70
1
  0
DIMENSION
  8
CSLAYER1
 62
     3
  2
*D0006
 10
2273.954803
 20
1376.184602
 11
1673.954834
 21
1386.184692
 13
1073.954803
 23
1298.184602
 14
2273.954803
 24
1298.184602
 70
1
  0
LINE
  8
CSLAYER1
  6
CONTINUOUS
 62
     3
 10
2273.958212
 20
1878.840750
 11
2324.763241
 21
1878.840750
  0
LINE
  8
CSLAYER1
  6
CONTINUOUS
 62
     3
 10
2273.958212
 20
1885.840750
 11
2324.763241
 21
1885.840750
  0
LINE
  8
CSLAYER1
  6
CONTINUOUS
 62
     3
 10
2273.958212
 20
1926.040750
 11
2294.574665
 21
1926.040750
  0
LINE
  8
CSLAYER1
  6
CONTINUOUS
 62
     3
 10
2273.958212
 20
1919.040750
 11
2294.574665
 21
1919.040750
  0
ARC
  8
CSLAYER1
  6
CONTINUOUS
 62
     3
 10
2294.574665
 20
2076.040750
 40
150.000000
 50
270.000000
 51
317.198537
  0
ARC
  8
CSLAYER1
  6
CONTINUOUS
 62
     3
 10
2294.574665
 20
2076.040750
 40
157.000000
 50
270.000000
 51
317.198537
  0
ARC
  8
CSLAYER1
  6
CONTINUOUS
 62
     3
 10
2324.763241
 20
2035.840750
 40
150.000000
 50
270.000000
 51
310.000000
  0
ARC
  8
CSLAYER1
  6
CONTINUOUS
 62
     3
 10
2324.763241
 20
2035.840750
 40
157.000000
 50
270.000000
 51
310.000000
  0
ARC
  8
CSLAYER1
  6
CONTINUOUS
 62
     3
 10
2575.639952
 20
1989.688691
 40
47.000000
 50
-261.635125
 51
49.860785
  0
LINE
  8
CSLAYER1
  6
CONTINUOUS
 62
     3
 10
2421.181383
 20
1920.934083
 11
2529.493753
 21
2011.818953
  0
LINE
  8
CSLAYER1
  6
CONTINUOUS
 62
     3
 10
2425.680896
 20
1915.571772
 11
2524.557942
 21
1998.539465
  0
LINE
  8
CSLAYER1
  6
CONTINUOUS
 62
     3
 10
2621.178661
 20
2200.538754
 11
2625.840636
 21
2203.299963
  0
LINE
  8
CSLAYER1
  6
CONTINUOUS
 62
     3
 10
2625.840636
 20
2203.299963
 11
2632.136673
 21
2204.591340
  0
LINE
  8
CSLAYER1
  6
CONTINUOUS
 62
     3
 10
2619.899134
 20
2201.723670
 11
2625.051741
 21
2205.033416
  0
LINE
  8
CSLAYER1
  6
CONTINUOUS
 62
     3
 10
2625.051741
 20
2205.033416
 11
2630.097007
 21
2207.251942
  0
LINE
  8
CSLAYER1
  6
CONTINUOUS
 62
     3
 10
2618.877052
 20
2202.670176
 11
2623.191078
 21
2206.336266
  0
LINE
  8
CSLAYER1
  6
CONTINUOUS
 62
     3
 10
2623.191078
 20
2206.336266
 11
2624.897366
 21
2210.019812
  0
LINE
  8
CSLAYER1
  6
CONTINUOUS
 62
     3
 10
2622.615256
 20
2199.208384
 11
2617.479268
 21
2203.964605
  0
ARC
  8
CSLAYER1
  6
CONTINUOUS
 62
     3
 10
2461.965115
 20
2094.903474
 40
40.000000
 50
-13.471057
 51
317.198537
  0
ARC
  8
CSLAYER1
  6
CONTINUOUS
 62
     3
 10
2461.965115
 20
2094.903474
 40
47.000000
 50
-0.756396
 51
317.198537
  0
LINE
  8
CSLAYER1
  6
CONTINUOUS
 62
     3
 10
2485.519835
 20
2051.166381
 11
2409.767530
 21
1969.365523
  0
LINE
  8
CSLAYER1
  6
CONTINUOUS
 62
     3
 10
2469.807472
 20
2044.501740
 11
2404.631542
 21
1974.121743
  0
LINE
  8
CSLAYER1
  6
CONTINUOUS
 62
     3
 10
2617.479268
 20
2203.964605
 11
2491.313615
 21
2067.725072
  0
LINE
  8
CSLAYER1
  6
CONTINUOUS
 62
     3
 10
2622.615256
 20
2199.208384
 11
2496.449603
 21
2062.968852
  0
LINE
  8
CSLAYER1
  6
CONTINUOUS
 62
     3
 10
2568.802554
 20
2036.188691
 11
2729.872936
 21
2036.188691
  0
LINE
  8
CSLAYER1
  6
CONTINUOUS
 62
     3
 10
2569.335191
 20
2029.188691
 11
2729.872936
 21
2029.188691
  0
ARC
  8
CSLAYER1
  6
CONTINUOUS
 62
     3
 10
2575.639952
 20
1989.688691
 40
40.000000
 50
-260.931278
 51
63.817766
  0
TEXT
  8
CSLAYER1
 62
     5
 10
2964.139404
 20
2122.153320
 40
40.000000
 41
1.020000
  1
ＵＰ・ＤＯＷＮ
 50
360.000000
 51
0.000000
  7
EASYDRAW_FONT
 72
     5
 11
3236.139404
 21
2122.153320
  0
TEXT
  8
CSLAYER1
 62
     5
 10
2964.139404
 20
2181.766602
 40
40.000000
 41
1.020000
  1
フットスイッチ
 50
360.000000
 51
0.000000
  7
EASYDRAW_FONT
 72
     5
 11
3236.139404
 21
2181.766602
  0
LINE
  8
CSLAYER1
  6
CONTINUOUS
 62
     5
 10
2943.022776
 20
2170.974043
 11
3246.788637
 21
2170.974043
  0
TEXT
  8
CSLAYER1
 62
     5
 10
2776.543701
 20
2289.531250
 40
40.000000
 41
1.028571
  1
電源コード
 50
360.000000
 51
0.000000
  7
EASYDRAW_FONT
 72
     5
 11
2968.543701
 21
2289.531250
  0
TEXT
  8
CSLAYER1
 62
     5
 10
2779.851807
 20
2226.340820
 40
40.000000
 41
1.036364
  1
長サ４ｍ
 50
360.000000
 51
0.000000
  7
EASYDRAW_FONT
 72
     5
 11
2931.851807
 21
2226.340820
  0
LINE
  8
CSLAYER1
  6
CONTINUOUS
 62
     5
 10
2752.953734
 20
2277.590181
 11
2976.271348
 21
2277.590181
  0
TEXT
  8
CSLAYER1
 62
     3
 10
2681.938232
 20
1815.603638
 40
40.000000
 41
1.036364
  1
積載荷重
 50
0.000000
 51
0.000000
  7
EASYDRAW_FONT
 72
     5
 11
2833.938232
 21
1815.603638
  0
LINE
  8
CSLAYER1
  6
CONTINUOUS
 62
     5
 10
3393.068857
 20
786.245259
 11
2672.196340
 21
786.245259
  0
TEXT
  8
CSLAYER1
 62
     4
 10
2997.498535
 20
796.916443
 40
40.000000
 41
0.926087
  1
　１０Ｒ４／１３
 50
0.000000
 51
0.000000
  7
EASYDRAW_FONT
 72
     5
 11
3281.498535
 21
796.916443
  0
TEXT
  8
CSLAYER1
 62
     5
 10
2964.139404
 20
2068.207275
 40
40.000000
 41
1.020000
  1
コード長サ２ｍ
 50
360.000000
 51
0.000000
  7
EASYDRAW_FONT
 72
     5
 11
3236.139404
 21
2068.207275
  0
LINE
  8
CSLAYER1
  6
CONTINUOUS
 62
     5
 10
2752.953734
 20
2277.590181
 11
2639.586955
 21
2205.862099
  0
LINE
  8
CSLAYER1
  6
CONTINUOUS
 62
     5
 10
2639.586955
 20
2205.862099
 11
2659.923328
 21
2227.917301
  0
LINE
  8
CSLAYER1
  6
CONTINUOUS
 62
     5
 10
2639.586955
 20
2205.862099
 11
2668.226371
 21
2214.794277
  0
LINE
  8
CSLAYER1
  6
CONTINUOUS
 62
     5
 10
2943.022776
 20
2170.974043
 11
2826.872936
 21
2069.932254
  0
LINE
  8
CSLAYER1
  6
CONTINUOUS
 62
     5
 10
2826.872936
 20
2069.932254
 11
2843.639666
 21
2094.809488
  0
LINE
  8
CSLAYER1
  6
CONTINUOUS
 62
     5
 10
2826.872936
 20
2069.932254
 11
2853.831967
 21
2083.093205
  0
INSERT
  8
CSLAYER1
  2
BLKF0007
 10
0.0
 20
0.0
 30
0.0
  0
ENDSEC
  0
EOF
