  0
SECTION
  2
HEADER
  9
$ACADVER
  1
AC1006
  9
$INSBASE
 10
-1021.404723
 20
3779.657980
 30
0.0
  9
$EXTMIN
 10
-1021.404723
 20
3779.657980
  9
$EXTMAX
 10
4438.595277
 20
7634.657980
  9
$LIMMIN
 10
-1021.404723
 20
3779.657980
  9
$LIMMAX
 10
4438.595277
 20
7634.657980
  9
$VIEWCTR
 10
1708.595277
 20
5707.157980
  9
$VIEWSIZE
 40
3855.000000
  9
$SNAPMODE
 70
     0
  9
$SNAPUNIT
 10
1.0
 20
1.0
  9
$SNAPBASE
 10
0.0
 20
0.0
  9
$SNAPANG
 50
0.0
  9
$SNAPSTYLE
 70
     0
  9
$SNAPISOPAIR
 70
     0
  9
$GRIDMODE
 70
     0
  9
$GRIDUNIT
 10
0.0
 20
0.0
  9
$ORTHOMODE
 70
     0
  9
$REGENMODE
 70
     1
  9
$FILLMODE
 70
     1
  9
$QTEXTMODE
 70
     0
  9
$DRAGMODE
 70
     2
  9
$LTSCALE
 40
15.000000
  9
$OSMODE
 70
     0
  9
$ATTMODE
 70
     1
  9
$TEXTSIZE
 40
0.2
  9
$TRACEWID
 40
0.05
  9
$TEXTSTYLE
  7
STANDARD
  9
$CLAYER
  8
CSLAYER1
  9
$CELTYPE
  6
BYLAYER
  9
$CECOLOR
 62
   256
  9
$DIMSCALE
 40
1.0
  9
$DIMASZ
 40
0.18
  9
$DIMEXO
 40
0.0625
  9
$DIMDLI
 40
0.38
  9
$DIMRND
 40
0.0
  9
$DIMDLE
 40
0.0
  9
$DIMEXE
 40
0.18
  9
$DIMTP
 40
0.0
  9
$DIMTM
 40
0.0
  9
$DIMTXT
 40
0.18
  9
$DIMCEN
 40
0.09
  9
$DIMTSZ
 40
0.0
  9
$DIMTOL
 70
     0
  9
$DIMLIM
 70
     0
  9
$DIMTIH
 70
     1
  9
$DIMTOH
 70
     1
  9
$DIMSE1
 70
     0
  9
$DIMSE2
 70
     0
  9
$DIMTAD
 70
     0
  9
$DIMZIN
 70
     0
  9
$DIMBLK
  1

  9
$LUNITS
 70
     2
  9
$LUPREC
 70
     4
  9
$AXISMODE
 70
     0
  9
$AXISUNIT
 10
0.0
 20
0.0
  9
$SKETCHINC
 40
0.1
  9
$FILLETRAD
 40
0.0
  9
$AUNITS
 70
     0
  9
$AUPREC
 70
     0
  9
$MENU
  1
ACAD
  9
$ELEVATION
 40
0.0
  9
$THICKNESS
 40
0.0
  9
$VIEWDIR
 10
0.0
 20
0.0
 30
1.0
  9
$LIMCHECK
 70
     0
  9
$BLIPMODE
 70
     1
  9
$CHAMFERA
 40
0.0
  9
$CHAMFERB
 40
0.0
  9
$FASTZOOM
 70
     1
  9
$SKPOLY
 70
     0
  9
$TDCREATE
 40
2457497.000000
  9
$TDUPDATE
 40
2457497.000000
  9
$TDINDWG
 40
0.0
  9
$TDUSRTIMER
 40
0.0
  9
$USRTIMER
 70
     1
  9
$ANGBASE
 50
0.0
  9
$ANGDIR
 70
     0
  9
$PDMODE
 70
     0
  9
$PDSIZE
 40
0.0
  9
$PLINEWID
 40
0.0
  9
$COORDS
 70
     0
  9
$USERI1
 70
     0
  9
$USERI2
 70
     0
  9
$USERI3
 70
     0
  9
$USERI4
 70
     0
  9
$USERI5
 70
     0
  9
$USERR1
 40
0.0
  9
$USERR2
 40
0.0
  9
$USERR3
 40
0.0
  9
$USERR4
 40
0.0
  9
$USERR5
 40
0.0
  0
ENDSEC
  0
SECTION
  2
TABLES
  0
TABLE
  2
LTYPE
 70
     9
  0
LTYPE
  2
CONTINUOUS
 70
    64
  3
Solid line
 72
    65
 73
     0
 40
0.0
  0
LTYPE
  2
DASHED
 70
    64
  3
__ __ __ __ __ __ __ __ __ __ __ __ __ __ __
 72
    65
 73
     2
 40
0.75
 49
0.5
 49
-0.25
  0
LTYPE
  2
HIDDEN
 70
    64
  3
_ _ _ _ _ _ _ _ _ _ _ _ _ _ _ _ _ _ _ _ _ _ _
 72
    65
 73
     2
 40
0.375
 49
0.25
 49
-0.125
  0
LTYPE
  2
DOT
 70
    64
  3
...............................................
 72
    65
 73
     2
 40
0.25
 49
0.0
 49
-0.25
  0
LTYPE
  2
DASHDOT
 70
    64
  3
__ . __ . __ . __ . __ . __ . __ . __ . __ . __
 72
    65
 73
     4
 40
1.0
 49
0.5
 49
-0.25
 49
0.0
 49
-0.25
  0
LTYPE
  2
DIVIDE
 70
    64
  3
__ . . __ . . __ . . __ . . __ . . __ . . __
 72
    65
 73
     6
 40
1.25
 49
0.5
 49
-0.25
 49
0.0
 49
-0.25
 49
0.0
 49
-0.25
  0
LTYPE
  2
CENTER
 70
    64
  3
____ _ ____ _ ____ _ ____ _ ____ _ ____ _ ____ 
 72
    65
 73
     4
 40
2.0
 49
1.25
 49
-0.25
 49
0.25
 49
-0.25
  0
LTYPE
  2
PHANTOM
 70
    64
  3
______  __  __  ______  __  __  ______  __  __ 
 72
    65
 73
     6
 40
2.5
 49
1.25
 49
-0.25
 49
0.25
 49
-0.25
 49
0.25
 49
-0.25
  0
LTYPE
  2
BORDER
 70
    64
  3
__ __ . __ __ . __ __ . __ __ . __ __ . __ __ .
 72
    65
 73
     6
 40
1.75
 49
0.5
 49
-0.25
 49
0.5
 49
-0.25
 49
0.0
 49
-0.25
  0
ENDTAB
  0
TABLE
  2
LAYER
 70
    16
  0
LAYER
  2
CSLAYER1
 70
    64
 62
     7
  6
CONTINUOUS
  0
LAYER
  2
CSLAYER2
 70
    64
 62
     7
  6
CONTINUOUS
  0
LAYER
  2
CSLAYER3
 70
    64
 62
     7
  6
CONTINUOUS
  0
LAYER
  2
CSLAYER4
 70
    64
 62
     7
  6
CONTINUOUS
  0
LAYER
  2
CSLAYER5
 70
    64
 62
     7
  6
CONTINUOUS
  0
LAYER
  2
CSLAYER6
 70
    64
 62
     7
  6
CONTINUOUS
  0
LAYER
  2
CSLAYER7
 70
    64
 62
     7
  6
CONTINUOUS
  0
LAYER
  2
CSLAYER8
 70
    64
 62
     7
  6
CONTINUOUS
  0
LAYER
  2
CSLAYER9
 70
    64
 62
     7
  6
CONTINUOUS
  0
LAYER
  2
CSLAYER10
 70
    64
 62
     7
  6
CONTINUOUS
  0
LAYER
  2
CSLAYER11
 70
    64
 62
     7
  6
CONTINUOUS
  0
LAYER
  2
CSLAYER12
 70
    64
 62
     7
  6
CONTINUOUS
  0
LAYER
  2
CSLAYER13
 70
    64
 62
     7
  6
CONTINUOUS
  0
LAYER
  2
CSLAYER14
 70
    64
 62
     7
  6
CONTINUOUS
  0
LAYER
  2
CSLAYER15
 70
    64
 62
     7
  6
CONTINUOUS
  0
LAYER
  2
CSLAYER16
 70
    64
 62
     7
  6
CONTINUOUS
  0
ENDTAB
  0
TABLE
  2
STYLE
 70
     1
  0
STYLE
  2
EASYDRAW_FONT
 70
     0
 40
1.0
 41
1.0
 50
0.0
 71
     0
 42
1.0
  3
monotxt
  4
bigfont
  0
ENDTAB
  0
TABLE
  2
VIEW
 70
     0
  0
ENDTAB
  0
ENDSEC
  0
SECTION
  2
BLOCKS
  0
BLOCK
  8
CSLAYER1
  2
*D0000
 70
    65
 10
0.0
 20
0.0
 30
0.0
  0
TEXT
  8
CSLAYER1
 62
     3
 10
2452.455811
 20
2194.826904
 40
60.000000
 41
0.818182
  1
1050
 50
0.000000
 51
0.000000
  7
EASYDRAW_FONT
 72
     5
 11
2632.455811
 21
2194.826904
  0
LINE
  8
CSLAYER1
  6
CONTINUOUS
 62
     5
 10
2017.455879
 20
2073.313014
 11
2017.455879
 21
2194.826383
  0
LINE
  8
CSLAYER1
  6
CONTINUOUS
 62
     5
 10
3067.455879
 20
2073.313014
 11
3067.455879
 21
2194.826383
  0
LINE
  8
CSLAYER1
  6
CONTINUOUS
 62
     5
 10
2017.455879
 20
2179.826383
 11
3067.455879
 21
2179.826383
  0
LINE
  8
CSLAYER1
  6
CONTINUOUS
 62
     5
 10
2017.455879
 20
2179.826383
 11
2060.922541
 21
2191.473240
  0
LINE
  8
CSLAYER1
  6
CONTINUOUS
 62
     5
 10
2017.455879
 20
2179.826383
 11
2060.922541
 21
2168.179526
  0
LINE
  8
CSLAYER1
  6
CONTINUOUS
 62
     5
 10
3067.455879
 20
2179.826383
 11
3023.989217
 21
2191.473240
  0
LINE
  8
CSLAYER1
  6
CONTINUOUS
 62
     5
 10
3067.455879
 20
2179.826383
 11
3023.989217
 21
2168.179526
  0
ENDBLK
  8
0
  0
BLOCK
  8
CSLAYER1
  2
*D0001
 70
    65
 10
0.0
 20
0.0
 30
0.0
  0
TEXT
  8
CSLAYER1
 62
     3
 10
3202.067383
 20
2741.011475
 40
60.000000
 41
0.843750
  1
800
 50
90.000000
 51
0.000000
  7
EASYDRAW_FONT
 72
     5
 11
3202.067383
 21
2876.011475
  0
LINE
  8
CSLAYER1
  6
CONTINUOUS
 62
     5
 10
3082.455879
 20
2408.510918
 11
3232.067257
 21
2408.510918
  0
LINE
  8
CSLAYER1
  6
CONTINUOUS
 62
     5
 10
3082.455879
 20
3208.510918
 11
3232.067257
 21
3208.510918
  0
LINE
  8
CSLAYER1
  6
CONTINUOUS
 62
     5
 10
3217.067257
 20
2408.510918
 11
3217.067257
 21
3208.510918
  0
LINE
  8
CSLAYER1
  6
CONTINUOUS
 62
     5
 10
3217.067257
 20
2408.510918
 11
3205.420400
 21
2451.977580
  0
LINE
  8
CSLAYER1
  6
CONTINUOUS
 62
     5
 10
3217.067257
 20
2408.510918
 11
3228.714114
 21
2451.977580
  0
LINE
  8
CSLAYER1
  6
CONTINUOUS
 62
     5
 10
3217.067257
 20
3208.510918
 11
3205.420400
 21
3165.044256
  0
LINE
  8
CSLAYER1
  6
CONTINUOUS
 62
     5
 10
3217.067257
 20
3208.510918
 11
3228.714114
 21
3165.044256
  0
ENDBLK
  8
0
  0
BLOCK
  8
CSLAYER1
  2
*D0002
 70
    65
 10
0.0
 20
0.0
 30
0.0
  0
TEXT
  8
CSLAYER1
 62
     3
 10
3206.467041
 20
558.556763
 40
60.000000
 41
0.843750
  1
400
 50
90.000000
 51
0.000000
  7
EASYDRAW_FONT
 72
     5
 11
3206.467041
 21
693.556763
  0
LINE
  8
CSLAYER1
  6
CONTINUOUS
 62
     5
 10
3082.455879
 20
825.156530
 11
3236.467053
 21
825.156530
  0
LINE
  8
CSLAYER1
  6
CONTINUOUS
 62
     5
 10
3221.467053
 20
426.956530
 11
3221.467053
 21
825.156530
  0
LINE
  8
CSLAYER1
  6
CONTINUOUS
 62
     5
 10
3221.467053
 20
426.956530
 11
3209.820196
 21
470.423192
  0
LINE
  8
CSLAYER1
  6
CONTINUOUS
 62
     5
 10
3221.467053
 20
426.956530
 11
3233.113910
 21
470.423192
  0
LINE
  8
CSLAYER1
  6
CONTINUOUS
 62
     5
 10
3221.467053
 20
825.156530
 11
3209.820196
 21
781.689868
  0
LINE
  8
CSLAYER1
  6
CONTINUOUS
 62
     5
 10
3221.467053
 20
825.156530
 11
3233.113910
 21
781.689868
  0
ENDBLK
  8
0
  0
BLOCK
  8
CSLAYER1
  2
*D0003
 70
    65
 10
0.0
 20
0.0
 30
0.0
  0
TEXT
  8
CSLAYER1
 62
     3
 10
3206.467041
 20
1351.734497
 40
60.000000
 41
0.818182
  1
1200
 50
90.000000
 51
0.000000
  7
EASYDRAW_FONT
 72
     5
 11
3206.467041
 21
1531.734497
  0
LINE
  8
CSLAYER1
  6
CONTINUOUS
 62
     5
 10
3082.455879
 20
2058.313014
 11
3376.002926
 21
2058.313014
  0
LINE
  8
CSLAYER1
  6
CONTINUOUS
 62
     5
 10
3221.467053
 20
825.156530
 11
3221.467053
 21
2058.313014
  0
LINE
  8
CSLAYER1
  6
CONTINUOUS
 62
     5
 10
3221.467053
 20
825.156530
 11
3209.820196
 21
868.623192
  0
LINE
  8
CSLAYER1
  6
CONTINUOUS
 62
     5
 10
3221.467053
 20
825.156530
 11
3233.113910
 21
868.623192
  0
LINE
  8
CSLAYER1
  6
CONTINUOUS
 62
     5
 10
3221.467053
 20
2058.313014
 11
3209.820196
 21
2014.846352
  0
LINE
  8
CSLAYER1
  6
CONTINUOUS
 62
     5
 10
3221.467053
 20
2058.313014
 11
3233.113910
 21
2014.846352
  0
ENDBLK
  8
0
  0
BLOCK
  8
CSLAYER1
  2
*D0004
 70
    65
 10
0.0
 20
0.0
 30
0.0
  0
TEXT
  8
CSLAYER1
 62
     3
 10
3346.002930
 20
1152.634888
 40
60.000000
 41
0.818182
  1
1600
 50
90.000000
 51
0.000000
  7
EASYDRAW_FONT
 72
     5
 11
3346.002930
 21
1332.634888
  0
LINE
  8
CSLAYER1
  6
CONTINUOUS
 62
     5
 10
3361.002926
 20
426.956530
 11
3361.002926
 21
2058.313014
  0
LINE
  8
CSLAYER1
  6
CONTINUOUS
 62
     5
 10
3361.002926
 20
426.956530
 11
3349.356069
 21
470.423192
  0
LINE
  8
CSLAYER1
  6
CONTINUOUS
 62
     5
 10
3361.002926
 20
426.956530
 11
3372.649783
 21
470.423192
  0
LINE
  8
CSLAYER1
  6
CONTINUOUS
 62
     5
 10
3361.002926
 20
2058.313014
 11
3349.356069
 21
2014.846352
  0
LINE
  8
CSLAYER1
  6
CONTINUOUS
 62
     5
 10
3361.002926
 20
2058.313014
 11
3372.649783
 21
2014.846352
  0
ENDBLK
  8
0
  0
BLOCK
  8
CSLAYER1
  2
*D0005
 70
    65
 10
0.0
 20
0.0
 30
0.0
  0
TEXT
  8
CSLAYER1
 62
     3
 10
2452.655762
 20
300.742828
 40
60.000000
 41
0.818182
  1
1050
 50
0.000000
 51
0.000000
  7
EASYDRAW_FONT
 72
     5
 11
2632.655762
 21
300.742828
  0
LINE
  8
CSLAYER1
  6
CONTINUOUS
 62
     5
 10
2017.655879
 20
411.956530
 11
2017.655879
 21
270.742860
  0
LINE
  8
CSLAYER1
  6
CONTINUOUS
 62
     5
 10
3067.655879
 20
411.956530
 11
3067.655879
 21
270.742860
  0
LINE
  8
CSLAYER1
  6
CONTINUOUS
 62
     5
 10
2017.655879
 20
285.742860
 11
3067.655879
 21
285.742860
  0
LINE
  8
CSLAYER1
  6
CONTINUOUS
 62
     5
 10
2017.655879
 20
285.742860
 11
2061.122541
 21
297.389717
  0
LINE
  8
CSLAYER1
  6
CONTINUOUS
 62
     5
 10
2017.655879
 20
285.742860
 11
2061.122541
 21
274.096003
  0
LINE
  8
CSLAYER1
  6
CONTINUOUS
 62
     5
 10
3067.655879
 20
285.742860
 11
3024.189217
 21
297.389717
  0
LINE
  8
CSLAYER1
  6
CONTINUOUS
 62
     5
 10
3067.655879
 20
285.742860
 11
3024.189217
 21
274.096003
  0
ENDBLK
  8
0
  0
BLOCK
  8
CSLAYER1
  2
*D0006
 70
    65
 10
0.0
 20
0.0
 30
0.0
  0
TEXT
  8
CSLAYER1
 62
     3
 10
820.374451
 20
292.333160
 40
60.000000
 41
0.843750
  1
800
 50
0.000000
 51
0.000000
  7
EASYDRAW_FONT
 72
     5
 11
955.374451
 21
292.333160
  0
LINE
  8
CSLAYER1
  6
CONTINUOUS
 62
     5
 10
487.874461
 20
411.956530
 11
487.874461
 21
262.333243
  0
LINE
  8
CSLAYER1
  6
CONTINUOUS
 62
     5
 10
1287.874461
 20
411.956530
 11
1287.874461
 21
262.333243
  0
LINE
  8
CSLAYER1
  6
CONTINUOUS
 62
     5
 10
487.874461
 20
277.333243
 11
1287.874461
 21
277.333243
  0
LINE
  8
CSLAYER1
  6
CONTINUOUS
 62
     5
 10
487.874461
 20
277.333243
 11
531.341123
 21
288.980100
  0
LINE
  8
CSLAYER1
  6
CONTINUOUS
 62
     5
 10
487.874461
 20
277.333243
 11
531.341123
 21
265.686386
  0
LINE
  8
CSLAYER1
  6
CONTINUOUS
 62
     5
 10
1287.874461
 20
277.333243
 11
1244.407799
 21
288.980100
  0
LINE
  8
CSLAYER1
  6
CONTINUOUS
 62
     5
 10
1287.874461
 20
277.333243
 11
1244.407799
 21
265.686386
  0
ENDBLK
  8
0
  0
BLOCK
  8
CSLAYER1
  2
BLKF0000
 70
   64
 10
0.0
 20
0.0
 30
0.0
  0
ARC
  8
CSLAYER1
  6
CONTINUOUS
 62
     5
 10
4169.771750
 20
120.742239
 40
5.323837
 50
6.429109
 51
73.182034
  0
ARC
  8
CSLAYER1
  6
CONTINUOUS
 62
     5
 10
4164.580294
 20
119.004650
 40
10.361631
 50
310.517970
 51
330.092764
  0
ARC
  8
CSLAYER1
  6
CONTINUOUS
 62
     5
 10
4164.489320
 20
119.552927
 40
10.722482
 50
-32.205059
 51
9.585194
  0
ARC
  8
CSLAYER1
  6
CONTINUOUS
 62
     5
 10
4169.428412
 20
115.411429
 40
7.151272
 50
180.000000
 51
218.514150
  0
ARC
  8
CSLAYER1
  6
CONTINUOUS
 62
     5
 10
4167.498330
 20
114.395718
 40
5.022423
 50
222.781148
 51
319.406906
  0
ARC
  8
CSLAYER1
  6
CONTINUOUS
 62
     5
 10
4172.096793
 20
116.030557
 40
9.839152
 50
94.574282
 51
183.607718
  0
LINE
  8
CSLAYER1
  6
CONTINUOUS
 62
     5
 10
4192.262653
 20
108.355309
 11
4190.977098
 21
103.797435
  0
LINE
  8
CSLAYER1
  6
CONTINUOUS
 62
     5
 10
4194.950630
 20
138.156795
 11
4191.795178
 21
142.247195
  0
LINE
  8
CSLAYER1
  6
CONTINUOUS
 62
     5
 10
4191.795178
 20
142.247195
 11
4181.665147
 21
147.884063
  0
LINE
  8
CSLAYER1
  6
CONTINUOUS
 62
     5
 10
4181.665147
 20
147.884063
 11
4171.312106
 21
149.088369
  0
LINE
  8
CSLAYER1
  6
CONTINUOUS
 62
     5
 10
4143.878268
 20
129.020359
 11
4147.098310
 21
136.466705
  0
LINE
  8
CSLAYER1
  6
CONTINUOUS
 62
     5
 10
4147.042813
 20
136.338369
 11
4150.318351
 21
140.290504
  0
LINE
  8
CSLAYER1
  6
CONTINUOUS
 62
     5
 10
4150.318351
 20
140.290504
 11
4155.274984
 21
143.838369
  0
LINE
  8
CSLAYER1
  6
CONTINUOUS
 62
     5
 10
4171.312106
 20
149.088369
 11
4169.034843
 21
147.938103
  0
LINE
  8
CSLAYER1
  6
CONTINUOUS
 62
     5
 10
4169.034843
 20
147.938103
 11
4163.802275
 21
147.938103
  0
LINE
  8
CSLAYER1
  6
CONTINUOUS
 62
     5
 10
4163.802275
 20
147.938103
 11
4158.469081
 21
145.019940
  0
LINE
  8
CSLAYER1
  6
CONTINUOUS
 62
     5
 10
4158.469081
 20
145.019940
 11
4155.274984
 21
143.838369
  0
LINE
  8
CSLAYER1
  6
CONTINUOUS
 62
     5
 10
4143.878268
 20
129.020359
 11
4141.601947
 21
117.697454
  0
LINE
  8
CSLAYER1
  6
CONTINUOUS
 62
     5
 10
4141.601947
 20
117.697454
 11
4141.312106
 21
113.838369
  0
LINE
  8
CSLAYER1
  6
CONTINUOUS
 62
     5
 10
4145.376180
 20
102.078696
 11
4141.312106
 21
111.222862
  0
LINE
  8
CSLAYER1
  6
CONTINUOUS
 62
     5
 10
4141.312106
 20
111.222862
 11
4141.312106
 21
113.838369
  0
LINE
  8
CSLAYER1
  6
CONTINUOUS
 62
     5
 10
4190.977098
 20
103.797435
 11
4188.448418
 21
99.292925
  0
LINE
  8
CSLAYER1
  6
CONTINUOUS
 62
     5
 10
4188.448418
 20
99.292925
 11
4186.312106
 21
97.314859
  0
ARC
  8
CSLAYER1
  6
CONTINUOUS
 62
     5
 10
4168.024189
 20
114.643510
 40
25.899940
 50
208.054813
 51
260.640470
  0
ARC
  8
CSLAYER1
  6
CONTINUOUS
 62
     5
 10
4160.234096
 20
133.757214
 40
44.811916
 50
274.579659
 51
305.587364
  0
ARC
  8
CSLAYER1
  6
CONTINUOUS
 62
     5
 10
4176.692620
 20
124.781631
 40
22.632940
 50
313.467013
 51
331.085078
  0
LINE
  8
CSLAYER1
  6
CONTINUOUS
 62
     5
 10
4198.879618
 20
119.108501
 11
4199.325560
 21
124.781631
  0
LINE
  8
CSLAYER1
  6
CONTINUOUS
 62
     5
 10
4199.325560
 20
124.781631
 11
4197.387563
 21
133.945105
  0
LINE
  8
CSLAYER1
  6
CONTINUOUS
 62
     5
 10
4198.879618
 20
119.108501
 11
4196.504106
 21
113.838369
  0
ARC
  8
CSLAYER1
  6
CONTINUOUS
 62
     5
 10
4176.692620
 20
124.781631
 40
22.632940
 50
23.883193
 51
36.225170
  0
LINE
  8
CSLAYER1
  6
CONTINUOUS
 62
     5
 10
4117.312106
 20
166.338369
 11
4118.812106
 21
167.977336
  0
LINE
  8
CSLAYER1
  6
CONTINUOUS
 62
     5
 10
4117.312106
 20
166.338369
 11
4119.677543
 21
164.170820
  0
LINE
  8
CSLAYER1
  6
CONTINUOUS
 62
     5
 10
4121.986362
 20
161.006882
 11
4122.025764
 21
157.754704
  0
LINE
  8
CSLAYER1
  6
CONTINUOUS
 62
     5
 10
4122.025764
 20
157.754704
 11
4122.336861
 21
156.614015
  0
LINE
  8
CSLAYER1
  6
CONTINUOUS
 62
     5
 10
4122.336861
 20
156.614015
 11
4123.218303
 21
155.525175
  0
LINE
  8
CSLAYER1
  6
CONTINUOUS
 62
     5
 10
4123.218303
 20
155.525175
 11
4124.099744
 21
155.628874
  0
LINE
  8
CSLAYER1
  6
CONTINUOUS
 62
     5
 10
4124.099744
 20
155.628874
 11
4125.033035
 21
155.888122
  0
LINE
  8
CSLAYER1
  6
CONTINUOUS
 62
     5
 10
4125.033035
 20
155.888122
 11
4125.655229
 21
155.628874
  0
LINE
  8
CSLAYER1
  6
CONTINUOUS
 62
     5
 10
4125.655229
 20
155.628874
 11
4127.003316
 21
154.954831
  0
LINE
  8
CSLAYER1
  6
CONTINUOUS
 62
     5
 10
4127.003316
 20
154.954831
 11
4128.167393
 21
154.338369
  0
LINE
  8
CSLAYER1
  6
CONTINUOUS
 62
     5
 10
4128.167393
 20
154.338369
 11
4128.921747
 21
154.384486
  0
LINE
  8
CSLAYER1
  6
CONTINUOUS
 62
     5
 10
4128.921747
 20
154.384486
 11
4133.133555
 21
156.554206
  0
LINE
  8
CSLAYER1
  6
CONTINUOUS
 62
     5
 10
4118.812106
 20
167.977336
 11
4119.311384
 21
170.187897
  0
LINE
  8
CSLAYER1
  6
CONTINUOUS
 62
     5
 10
4119.311384
 20
170.187897
 11
4121.491492
 21
170.413425
  0
LINE
  8
CSLAYER1
  6
CONTINUOUS
 62
     5
 10
4123.732129
 20
174.566113
 11
4126.363389
 21
174.801748
  0
LINE
  8
CSLAYER1
  6
CONTINUOUS
 62
     5
 10
4126.363389
 20
174.801748
 11
4131.665180
 21
176.058469
  0
LINE
  8
CSLAYER1
  6
CONTINUOUS
 62
     5
 10
4131.665180
 20
176.058469
 11
4133.812106
 21
176.555928
  0
LINE
  8
CSLAYER1
  6
CONTINUOUS
 62
     5
 10
4123.732129
 20
174.566113
 11
4120.832793
 21
174.804415
  0
LINE
  8
CSLAYER1
  6
CONTINUOUS
 62
     5
 10
4119.728608
 20
173.501384
 11
4119.868896
 21
172.944642
  0
LINE
  8
CSLAYER1
  6
CONTINUOUS
 62
     5
 10
4119.868896
 20
172.944642
 11
4120.606287
 21
172.138120
  0
LINE
  8
CSLAYER1
  6
CONTINUOUS
 62
     5
 10
4120.606287
 20
172.138120
 11
4121.620200
 21
171.377686
  0
LINE
  8
CSLAYER1
  6
CONTINUOUS
 62
     5
 10
4121.620200
 20
171.377686
 11
4121.805187
 21
171.131036
  0
LINE
  8
CSLAYER1
  6
CONTINUOUS
 62
     5
 10
4119.677543
 20
164.170820
 11
4121.986362
 21
161.006882
  0
ARC
  8
CSLAYER1
  6
CONTINUOUS
 62
     5
 10
4186.292157
 20
-91.149610
 40
271.091195
 50
80.438896
 51
96.353582
  0
ARC
  8
CSLAYER1
  6
CONTINUOUS
 62
     5
 10
4148.943787
 20
126.722240
 40
52.080363
 50
81.866516
 51
106.890578
  0
LINE
  8
CSLAYER1
  6
CONTINUOUS
 62
     5
 10
4237.603498
 20
174.988375
 11
4240.974122
 21
173.456273
  0
LINE
  8
CSLAYER1
  6
CONTINUOUS
 62
     5
 10
4246.336478
 20
171.081515
 11
4240.974122
 21
173.456273
  0
LINE
  8
CSLAYER1
  6
CONTINUOUS
 62
     5
 10
4237.603498
 20
174.988375
 11
4231.312106
 21
176.177232
  0
LINE
  8
CSLAYER1
  6
CONTINUOUS
 62
     5
 10
4246.312106
 20
171.092308
 11
4249.119469
 21
168.739593
  0
LINE
  8
CSLAYER1
  6
CONTINUOUS
 62
     5
 10
4221.176990
 20
172.647585
 11
4222.525902
 21
174.826597
  0
LINE
  8
CSLAYER1
  6
CONTINUOUS
 62
     5
 10
4222.525902
 20
174.826597
 11
4229.539300
 21
173.147333
  0
LINE
  8
CSLAYER1
  6
CONTINUOUS
 62
     5
 10
4229.539300
 20
173.147333
 11
4254.652879
 21
166.338369
  0
LINE
  8
CSLAYER1
  6
CONTINUOUS
 62
     5
 10
4259.062106
 20
166.338369
 11
4249.119469
 21
168.739593
  0
LINE
  8
CSLAYER1
  6
CONTINUOUS
 62
     5
 10
4254.652879
 20
166.338369
 11
4259.062106
 21
166.338369
  0
LINE
  8
CSLAYER1
  6
CONTINUOUS
 62
     5
 10
4171.312106
 20
173.035781
 11
4201.312106
 21
173.838369
  0
LINE
  8
CSLAYER1
  6
CONTINUOUS
 62
     5
 10
4201.312106
 20
173.838369
 11
4221.176990
 21
172.647585
  0
LINE
  8
CSLAYER1
  6
CONTINUOUS
 62
     5
 10
4223.581462
 20
169.556865
 11
4201.312106
 21
171.588369
  0
LINE
  8
CSLAYER1
  6
CONTINUOUS
 62
     5
 10
4201.312106
 20
171.588369
 11
4178.738292
 21
172.201347
  0
LINE
  8
CSLAYER1
  6
CONTINUOUS
 62
     5
 10
4178.812106
 20
172.199343
 11
4171.312106
 21
172.342284
  0
LINE
  8
CSLAYER1
  6
CONTINUOUS
 62
     5
 10
4171.312106
 20
173.035781
 11
4171.312106
 21
172.342284
  0
LINE
  8
CSLAYER1
  6
CONTINUOUS
 62
     5
 10
4257.562106
 20
161.088369
 11
4244.298268
 21
164.554363
  0
LINE
  8
CSLAYER1
  6
CONTINUOUS
 62
     5
 10
4223.581462
 20
169.556865
 11
4238.812106
 21
166.598290
  0
LINE
  8
CSLAYER1
  6
CONTINUOUS
 62
     5
 10
4238.812106
 20
166.598290
 11
4244.298268
 21
164.554363
  0
LINE
  8
CSLAYER1
  6
CONTINUOUS
 62
     5
 10
4257.562106
 20
161.088369
 11
4257.123180
 21
159.829711
  0
LINE
  8
CSLAYER1
  6
CONTINUOUS
 62
     5
 10
4271.812106
 20
152.838369
 11
4271.353065
 21
154.681841
  0
LINE
  8
CSLAYER1
  6
CONTINUOUS
 62
     5
 10
4257.123180
 20
159.829711
 11
4271.353065
 21
154.681841
  0
LINE
  8
CSLAYER1
  6
CONTINUOUS
 62
     5
 10
4176.562106
 20
161.088369
 11
4180.196663
 21
161.088369
  0
LINE
  8
CSLAYER1
  6
CONTINUOUS
 62
     5
 10
4210.312106
 20
161.737113
 11
4210.312106
 21
161.088369
  0
LINE
  8
CSLAYER1
  6
CONTINUOUS
 62
     5
 10
4208.812106
 20
162.538774
 11
4206.245187
 21
163.494542
  0
LINE
  8
CSLAYER1
  6
CONTINUOUS
 62
     5
 10
4206.245187
 20
163.494542
 11
4204.580103
 21
163.570227
  0
LINE
  8
CSLAYER1
  6
CONTINUOUS
 62
     5
 10
4204.580103
 20
163.570227
 11
4203.861090
 21
163.191799
  0
LINE
  8
CSLAYER1
  6
CONTINUOUS
 62
     5
 10
4203.861090
 20
163.191799
 11
4203.709718
 21
162.586314
  0
LINE
  8
CSLAYER1
  6
CONTINUOUS
 62
     5
 10
4203.709718
 20
162.586314
 11
4204.390889
 21
162.132200
  0
LINE
  8
CSLAYER1
  6
CONTINUOUS
 62
     5
 10
4204.390889
 20
162.132200
 11
4206.850672
 21
161.905143
  0
LINE
  8
CSLAYER1
  6
CONTINUOUS
 62
     5
 10
4206.850672
 20
161.905143
 11
4210.312106
 21
161.737113
  0
LINE
  8
CSLAYER1
  6
CONTINUOUS
 62
     5
 10
4271.812106
 20
152.838369
 11
4267.348792
 21
154.618242
  0
LINE
  8
CSLAYER1
  6
CONTINUOUS
 62
     5
 10
4267.348792
 20
154.618242
 11
4252.265258
 21
157.382555
  0
LINE
  8
CSLAYER1
  6
CONTINUOUS
 62
     5
 10
4252.265258
 20
157.382555
 11
4244.726588
 21
159.122248
  0
LINE
  8
CSLAYER1
  6
CONTINUOUS
 62
     5
 10
4211.113437
 20
162.588369
 11
4228.761936
 21
162.588369
  0
LINE
  8
CSLAYER1
  6
CONTINUOUS
 62
     5
 10
4208.812106
 20
162.538774
 11
4209.599096
 21
162.076073
  0
LINE
  8
CSLAYER1
  6
CONTINUOUS
 62
     5
 10
4209.599096
 20
162.076073
 11
4210.044314
 21
161.942508
  0
LINE
  8
CSLAYER1
  6
CONTINUOUS
 62
     5
 10
4210.044314
 20
161.942508
 11
4210.312106
 21
161.980263
  0
LINE
  8
CSLAYER1
  6
CONTINUOUS
 62
     5
 10
4210.312106
 20
161.980263
 11
4211.113437
 21
162.588369
  0
LINE
  8
CSLAYER1
  6
CONTINUOUS
 62
     5
 10
4228.761936
 20
162.588369
 11
4235.437340
 21
161.045131
  0
LINE
  8
CSLAYER1
  6
CONTINUOUS
 62
     5
 10
4235.437340
 20
161.045131
 11
4241.667127
 21
159.297408
  0
LINE
  8
CSLAYER1
  6
CONTINUOUS
 62
     5
 10
4241.667127
 20
159.297408
 11
4244.726588
 21
159.122248
  0
LINE
  8
CSLAYER1
  6
CONTINUOUS
 62
     5
 10
4175.062106
 20
159.588369
 11
4175.062106
 21
158.838369
  0
LINE
  8
CSLAYER1
  6
CONTINUOUS
 62
     5
 10
4171.312106
 20
158.838369
 11
4175.062106
 21
158.838369
  0
ARC
  8
CSLAYER1
  6
CONTINUOUS
 62
     5
 10
4176.562106
 20
159.588369
 40
1.500000
 50
90.000000
 51
180.000000
  0
LINE
  8
CSLAYER1
  6
CONTINUOUS
 62
     5
 10
4180.196663
 20
161.088369
 11
4181.242998
 21
160.230375
  0
LINE
  8
CSLAYER1
  6
CONTINUOUS
 62
     5
 10
4182.146550
 20
160.194434
 11
4183.432945
 21
161.088369
  0
LINE
  8
CSLAYER1
  6
CONTINUOUS
 62
     5
 10
4185.800540
 20
161.088369
 11
4188.301228
 21
160.101256
  0
LINE
  8
CSLAYER1
  6
CONTINUOUS
 62
     5
 10
4188.936791
 20
160.141024
 11
4190.667022
 21
161.088369
  0
LINE
  8
CSLAYER1
  6
CONTINUOUS
 62
     5
 10
4183.432945
 20
161.088369
 11
4185.800540
 21
161.088369
  0
LINE
  8
CSLAYER1
  6
CONTINUOUS
 62
     5
 10
4190.667022
 20
161.088369
 11
4210.312106
 21
161.088369
  0
LINE
  8
CSLAYER1
  6
CONTINUOUS
 62
     5
 10
4139.135581
 20
156.425130
 11
4171.312106
 21
158.838369
  0
LINE
  8
CSLAYER1
  6
CONTINUOUS
 62
     5
 10
4133.133555
 20
156.554206
 11
4139.135581
 21
156.425130
  0
ARC
  8
CSLAYER1
  6
CONTINUOUS
 62
     5
 10
4181.718558
 20
160.810325
 40
0.750000
 50
230.648247
 51
304.796026
  0
ARC
  8
CSLAYER1
  6
CONTINUOUS
 62
     5
 10
4188.576603
 20
160.798872
 40
0.750000
 50
248.459024
 51
298.701829
  0
ARC
  8
CSLAYER1
  6
CONTINUOUS
 62
     5
 10
4121.445187
 20
170.861036
 40
0.450000
 50
-84.093859
 51
36.869898
  0
ARC
  8
CSLAYER1
  6
CONTINUOUS
 62
     5
 10
4120.746781
 20
173.757944
 40
1.050000
 50
85.301319
 51
194.142980
  0
LINE
  8
CSLAYER1
  6
CONTINUOUS
 62
     3
 10
4169.034843
 20
147.938103
 11
4181.200586
 21
147.938103
  0
LINE
  8
CSLAYER1
  6
CONTINUOUS
 62
     3
 10
4159.416068
 20
145.538103
 11
4185.881079
 21
145.538103
  0
LINE
  8
CSLAYER1
  6
CONTINUOUS
 62
     3
 10
4154.296660
 20
143.138103
 11
4190.194126
 21
143.138103
  0
LINE
  8
CSLAYER1
  6
CONTINUOUS
 62
     3
 10
4150.943680
 20
140.738103
 11
4192.959335
 21
140.738103
  0
LINE
  8
CSLAYER1
  6
CONTINUOUS
 62
     3
 10
4148.700197
 20
138.338103
 11
4194.810764
 21
138.338103
  0
LINE
  8
CSLAYER1
  6
CONTINUOUS
 62
     3
 10
4146.869725
 20
135.938103
 11
4196.384829
 21
135.938103
  0
LINE
  8
CSLAYER1
  6
CONTINUOUS
 62
     3
 10
4145.831887
 20
133.538103
 11
4197.473641
 21
133.538103
  0
LINE
  8
CSLAYER1
  6
CONTINUOUS
 62
     3
 10
4144.794049
 20
131.138103
 11
4197.981220
 21
131.138103
  0
LINE
  8
CSLAYER1
  6
CONTINUOUS
 62
     3
 10
4143.821524
 20
128.738103
 11
4198.488800
 21
128.738103
  0
LINE
  8
CSLAYER1
  6
CONTINUOUS
 62
     3
 10
4143.339036
 20
126.338103
 11
4198.996379
 21
126.338103
  0
LINE
  8
CSLAYER1
  6
CONTINUOUS
 62
     3
 10
4142.856547
 20
123.938103
 11
4166.241912
 21
123.938103
  0
LINE
  8
CSLAYER1
  6
CONTINUOUS
 62
     3
 10
4142.374059
 20
121.538103
 11
4163.943521
 21
121.538103
  0
LINE
  8
CSLAYER1
  6
CONTINUOUS
 62
     3
 10
4141.891571
 20
119.138103
 11
4162.761266
 21
119.138103
  0
LINE
  8
CSLAYER1
  6
CONTINUOUS
 62
     3
 10
4141.529894
 20
116.738103
 11
4162.283115
 21
116.738103
  0
LINE
  8
CSLAYER1
  6
CONTINUOUS
 62
     3
 10
4141.349639
 20
114.338103
 11
4162.358146
 21
114.338103
  0
LINE
  8
CSLAYER1
  6
CONTINUOUS
 62
     3
 10
4141.312106
 20
111.938103
 11
4163.177277
 21
111.938103
  0
LINE
  8
CSLAYER1
  6
CONTINUOUS
 62
     3
 10
4142.060888
 20
109.538103
 11
4166.222280
 21
109.538103
  0
LINE
  8
CSLAYER1
  6
CONTINUOUS
 62
     3
 10
4143.127555
 20
107.138103
 11
4191.919338
 21
107.138103
  0
LINE
  8
CSLAYER1
  6
CONTINUOUS
 62
     3
 10
4144.194221
 20
104.738103
 11
4191.242415
 21
104.738103
  0
LINE
  8
CSLAYER1
  6
CONTINUOUS
 62
     3
 10
4145.260888
 20
102.338103
 11
4190.157878
 21
102.338103
  0
LINE
  8
CSLAYER1
  6
CONTINUOUS
 62
     3
 10
4146.703826
 20
99.938103
 11
4188.810599
 21
99.938103
  0
LINE
  8
CSLAYER1
  6
CONTINUOUS
 62
     3
 10
4148.576518
 20
97.538103
 11
4186.553209
 21
97.538103
  0
LINE
  8
CSLAYER1
  6
CONTINUOUS
 62
     3
 10
4150.984648
 20
95.138103
 11
4182.964518
 21
95.138103
  0
LINE
  8
CSLAYER1
  6
CONTINUOUS
 62
     3
 10
4154.205361
 20
92.738103
 11
4178.276833
 21
92.738103
  0
LINE
  8
CSLAYER1
  6
CONTINUOUS
 62
     3
 10
4159.076897
 20
90.338103
 11
4171.319610
 21
90.338103
  0
LINE
  8
CSLAYER1
  6
CONTINUOUS
 62
     3
 10
4174.029648
 20
123.938103
 11
4199.259253
 21
123.938103
  0
LINE
  8
CSLAYER1
  6
CONTINUOUS
 62
     3
 10
4175.035764
 20
121.538103
 11
4199.070599
 21
121.538103
  0
LINE
  8
CSLAYER1
  6
CONTINUOUS
 62
     3
 10
4175.203774
 20
119.138103
 11
4198.881945
 21
119.138103
  0
LINE
  8
CSLAYER1
  6
CONTINUOUS
 62
     3
 10
4174.835739
 20
116.738103
 11
4197.811161
 21
116.738103
  0
LINE
  8
CSLAYER1
  6
CONTINUOUS
 62
     3
 10
4173.858270
 20
114.338103
 11
4196.729361
 21
114.338103
  0
LINE
  8
CSLAYER1
  6
CONTINUOUS
 62
     3
 10
4172.158375
 20
111.938103
 11
4195.328439
 21
111.938103
  0
LINE
  8
CSLAYER1
  6
CONTINUOUS
 62
     3
 10
4168.774380
 20
109.538103
 11
4193.422378
 21
109.538103
  0
TEXT
  8
CSLAYER1
 62
     5
 10
4200.069867
 20
120.954866
 40
7.070172
 41
1.951056
  1
M
 50
0.000000
 51
0.000000
  7
EASYDRAW_FONT
 72
     5
 11
4209.266070
 21
120.954866
  0
TEXT
  8
CSLAYER1
 62
     5
 10
4214.546948
 20
120.867460
 40
6.939931
 41
0.778201
  1
T
 50
0.000000
 51
0.000000
  7
EASYDRAW_FONT
 72
     5
 11
4218.147388
 21
120.867460
  0
TEXT
  8
CSLAYER1
 62
     5
 10
4218.695292
 20
120.919658
 40
7.044274
 41
1.055553
  1
E
 50
0.000000
 51
0.000000
  7
EASYDRAW_FONT
 72
     5
 11
4223.652364
 21
120.919658
  0
TEXT
  8
CSLAYER1
 62
     5
 10
4223.369808
 20
123.343425
 40
0.522425
 41
9.375319
  1
-
 50
0.000000
 51
0.000000
  7
EASYDRAW_FONT
 72
     5
 11
4226.635075
 21
123.343425
  0
TEXT
  8
CSLAYER1
 62
     5
 10
4226.090633
 20
120.872638
 40
7.292489
 41
1.298502
  1
H
 50
0.000000
 51
0.000000
  7
EASYDRAW_FONT
 72
     5
 11
4232.403507
 21
120.872638
  0
TEXT
  8
CSLAYER1
 62
     5
 10
4232.204778
 20
120.918206
 40
7.264708
 41
1.269236
  1
A
 50
0.000000
 51
0.000000
  7
EASYDRAW_FONT
 72
     5
 11
4238.351862
 21
120.918206
  0
TEXT
  8
CSLAYER1
 62
     5
 10
4237.764134
 20
120.855916
 40
7.238043
 41
1.490144
  1
N
 50
0.000000
 51
0.000000
  7
EASYDRAW_FONT
 72
     5
 11
4244.954616
 21
120.855916
  0
TEXT
  8
CSLAYER1
 62
     5
 10
4208.951077
 20
120.822056
 40
7.473487
 41
1.177443
  1
A
 50
0.000000
 51
0.000000
  7
EASYDRAW_FONT
 72
     5
 11
4214.817478
 21
120.822056
  0
TEXT
  8
CSLAYER1
 62
     5
 10
4200.620022
 20
110.329197
 40
7.473487
 41
1.177443
  1
A
 50
0.000000
 51
0.000000
  7
EASYDRAW_FONT
 72
     5
 11
4206.486423
 21
110.329197
  0
TEXT
  8
CSLAYER1
 62
     5
 10
4219.797268
 20
110.371678
 40
7.473487
 41
1.177443
  1
A
 50
0.000000
 51
0.000000
  7
EASYDRAW_FONT
 72
     5
 11
4225.663670
 21
110.371678
  0
TEXT
  8
CSLAYER1
 62
     5
 10
4225.437962
 20
110.457173
 40
7.238043
 41
1.490144
  1
N
 50
0.000000
 51
0.000000
  7
EASYDRAW_FONT
 72
     5
 11
4232.628444
 21
110.457173
  0
TEXT
  8
CSLAYER1
 62
     5
 10
4238.791344
 20
110.469766
 40
7.262663
 41
1.184218
  1
E
 50
0.000000
 51
0.000000
  7
EASYDRAW_FONT
 72
     5
 11
4244.525062
 21
110.469766
  0
TEXT
  8
CSLAYER1
 62
     5
 10
4207.041096
 20
110.327210
 40
7.421797
 41
1.093992
  1
D
 50
0.000000
 51
0.000000
  7
EASYDRAW_FONT
 72
     5
 11
4212.454021
 21
110.327210
  0
TEXT
  8
CSLAYER1
 62
     5
 10
4213.645000
 20
110.319133
 40
7.386315
 41
1.228195
  1
V
 50
0.000000
 51
0.000000
  7
EASYDRAW_FONT
 72
     5
 11
4219.692891
 21
110.319133
  0
TEXT
  8
CSLAYER1
 62
     5
 10
4231.982558
 20
110.350231
 40
7.549340
 41
1.481023
  1
C
 50
0.000000
 51
0.000000
  7
EASYDRAW_FONT
 72
     5
 11
4239.436388
 21
110.350231
  0
LINE
  8
CSLAYER1
  6
CONTINUOUS
 62
     5
 10
4217.928111
 20
126.940827
 11
4216.410018
 21
126.940827
  0
LINE
  8
CSLAYER1
  6
CONTINUOUS
 62
     3
 10
4141.575468
 20
178.278734
 11
4216.272208
 21
178.278734
  0
LINE
  8
CSLAYER1
  6
CONTINUOUS
 62
     3
 10
4130.906922
 20
175.878734
 11
4232.891745
 21
175.878734
  0
LINE
  8
CSLAYER1
  6
CONTINUOUS
 62
     3
 10
4119.734315
 20
173.478734
 11
4187.869281
 21
173.478734
  0
LINE
  8
CSLAYER1
  6
CONTINUOUS
 62
     3
 10
4207.311605
 20
173.478734
 11
4221.691511
 21
173.478734
  0
LINE
  8
CSLAYER1
  6
CONTINUOUS
 62
     3
 10
4228.155211
 20
173.478734
 11
4240.924707
 21
173.478734
  0
LINE
  8
CSLAYER1
  6
CONTINUOUS
 62
     3
 10
4121.839024
 20
171.078734
 11
4206.898728
 21
171.078734
  0
LINE
  8
CSLAYER1
  6
CONTINUOUS
 62
     3
 10
4237.168936
 20
171.078734
 11
4246.328303
 21
171.078734
  0
LINE
  8
CSLAYER1
  6
CONTINUOUS
 62
     3
 10
4118.970524
 20
168.678734
 11
4228.102050
 21
168.678734
  0
LINE
  8
CSLAYER1
  6
CONTINUOUS
 62
     3
 10
4246.020884
 20
168.678734
 11
4249.371466
 21
168.678734
  0
LINE
  8
CSLAYER1
  6
CONTINUOUS
 62
     3
 10
4117.377186
 20
166.278734
 11
4239.669834
 21
166.278734
  0
LINE
  8
CSLAYER1
  6
CONTINUOUS
 62
     3
 10
4119.890686
 20
163.878734
 11
4246.883797
 21
163.878734
  0
LINE
  8
CSLAYER1
  6
CONTINUOUS
 62
     3
 10
4121.642038
 20
161.478734
 11
4210.312106
 21
161.478734
  0
LINE
  8
CSLAYER1
  6
CONTINUOUS
 62
     3
 10
4233.561753
 20
161.478734
 11
4256.068238
 21
161.478734
  0
LINE
  8
CSLAYER1
  6
CONTINUOUS
 62
     3
 10
4122.009723
 20
159.078734
 11
4175.062106
 21
159.078734
  0
LINE
  8
CSLAYER1
  6
CONTINUOUS
 62
     3
 10
4244.915147
 20
159.078734
 11
4259.199051
 21
159.078734
  0
LINE
  8
CSLAYER1
  6
CONTINUOUS
 62
     3
 10
4122.319210
 20
156.678734
 11
4142.516971
 21
156.678734
  0
LINE
  8
CSLAYER1
  6
CONTINUOUS
 62
     3
 10
4256.105670
 20
156.678734
 11
4265.833197
 21
156.678734
  0
LINE
  8
CSLAYER1
  6
CONTINUOUS
 62
     3
 10
4268.200161
 20
154.278734
 11
4271.453442
 21
154.278734
  0
ENDBLK
  8
0
  0
BLOCK
  8
CSLAYER1
  2
BLKF0001
 70
   64
 10
0.0
 20
0.0
 30
0.0
  0
LINE
  8
CSLAYER1
  6
CONTINUOUS
 62
     2
 10
2562.202695
 20
795.171898
 11
2555.756813
 21
790.959938
  0
LINE
  8
CSLAYER1
  6
CONTINUOUS
 62
     2
 10
2563.296711
 20
793.497643
 11
2556.850829
 21
789.285683
  0
LINE
  8
CSLAYER1
  6
CONTINUOUS
 62
     2
 10
2563.296711
 20
793.497643
 11
2562.202695
 21
795.171898
  0
LINE
  8
CSLAYER1
  6
CONTINUOUS
 62
     2
 10
2565.847708
 20
787.399905
 11
2560.406380
 21
783.844355
  0
LINE
  8
CSLAYER1
  6
CONTINUOUS
 62
     2
 10
2565.847708
 20
787.399905
 11
2566.371916
 21
788.435951
  0
LINE
  8
CSLAYER1
  6
CONTINUOUS
 62
     2
 10
2563.133934
 20
793.391280
 11
2566.371916
 21
788.435951
  0
ARC
  8
CSLAYER1
  6
CONTINUOUS
 62
     2
 10
2563.325623
 20
789.667647
 40
3.285875
 50
268.197593
 51
327.848471
  0
ARC
  8
CSLAYER1
  6
CONTINUOUS
 62
     2
 10
2553.612847
 20
794.241012
 40
12.419443
 50
303.161976
 51
320.749930
  0
LINE
  8
CSLAYER1
  6
CONTINUOUS
 62
     2
 10
2559.992382
 20
791.338482
 11
2563.230363
 21
786.383153
  0
LINE
  8
CSLAYER1
  6
CONTINUOUS
 62
     2
 10
2565.083428
 20
782.719534
 11
2562.320907
 21
780.914408
  0
LINE
  8
CSLAYER1
  6
CONTINUOUS
 62
     2
 10
2565.286511
 20
783.688429
 11
2563.754890
 21
786.032386
  0
LINE
  8
CSLAYER1
  6
CONTINUOUS
 62
     2
 10
2565.083428
 20
782.719534
 11
2563.168900
 21
785.649480
  0
LINE
  8
CSLAYER1
  6
CONTINUOUS
 62
     2
 10
2565.286511
 20
783.688429
 11
2565.083428
 21
782.719534
  0
LINE
  8
CSLAYER1
  6
CONTINUOUS
 62
     2
 10
2565.286511
 20
783.688429
 11
2561.938001
 21
781.500397
  0
LINE
  8
CSLAYER1
  6
CONTINUOUS
 62
     2
 10
2549.310931
 20
786.747978
 11
2555.756813
 21
790.959938
  0
LINE
  8
CSLAYER1
  6
CONTINUOUS
 62
     2
 10
2550.404947
 20
785.073723
 11
2556.850829
 21
789.285683
  0
LINE
  8
CSLAYER1
  6
CONTINUOUS
 62
     2
 10
2550.404947
 20
785.073723
 11
2549.310931
 21
786.747978
  0
LINE
  8
CSLAYER1
  6
CONTINUOUS
 62
     2
 10
2554.965051
 20
780.288804
 11
2560.406380
 21
783.844355
  0
LINE
  8
CSLAYER1
  6
CONTINUOUS
 62
     2
 10
2554.965051
 20
780.288804
 11
2553.805705
 21
780.224758
  0
LINE
  8
CSLAYER1
  6
CONTINUOUS
 62
     2
 10
2550.567724
 20
785.180087
 11
2553.805705
 21
780.224758
  0
ARC
  8
CSLAYER1
  6
CONTINUOUS
 62
     2
 10
2553.900965
 20
783.509252
 40
3.285875
 50
278.475481
 51
338.126359
  0
ARC
  8
CSLAYER1
  6
CONTINUOUS
 62
     2
 10
2553.612847
 20
794.241012
 40
12.419443
 50
285.574022
 51
303.161976
  0
LINE
  8
CSLAYER1
  6
CONTINUOUS
 62
     2
 10
2553.709276
 20
787.232885
 11
2556.947258
 21
782.277556
  0
LINE
  8
CSLAYER1
  6
CONTINUOUS
 62
     2
 10
2559.558386
 20
779.109283
 11
2562.320907
 21
780.914408
  0
LINE
  8
CSLAYER1
  6
CONTINUOUS
 62
     2
 10
2558.589491
 20
779.312366
 11
2557.057869
 21
781.656323
  0
LINE
  8
CSLAYER1
  6
CONTINUOUS
 62
     2
 10
2559.558386
 20
779.109283
 11
2557.643859
 21
782.039229
  0
LINE
  8
CSLAYER1
  6
CONTINUOUS
 62
     2
 10
2558.589491
 20
779.312366
 11
2559.558386
 21
779.109283
  0
LINE
  8
CSLAYER1
  6
CONTINUOUS
 62
     2
 10
2558.589491
 20
779.312366
 11
2561.938001
 21
781.500397
  0
LINE
  8
CSLAYER1
  6
CONTINUOUS
 62
     2
 10
2557.089484
 20
791.830751
 11
2555.058908
 21
788.114781
  0
ENDBLK
  8
0
  0
BLOCK
  8
CSLAYER1
  2
BLKF0002
 70
   64
 10
0.0
 20
0.0
 30
0.0
  0
LINE
  8
CSLAYER1
  6
CONTINUOUS
 62
     3
 10
908.874461
 20
1412.369800
 11
923.874461
 21
1412.369800
  0
LINE
  8
CSLAYER1
  6
CONTINUOUS
 62
     3
 10
866.874461
 20
1412.369800
 11
851.874461
 21
1412.369800
  0
LINE
  8
CSLAYER1
  6
CONTINUOUS
 62
     3
 10
887.874461
 20
1384.095006
 11
890.510922
 21
1384.157700
  0
LINE
  8
CSLAYER1
  6
CONTINUOUS
 62
     3
 10
890.510922
 20
1384.157700
 11
893.127319
 21
1384.345303
  0
LINE
  8
CSLAYER1
  6
CONTINUOUS
 62
     3
 10
893.127319
 20
1384.345303
 11
895.703737
 21
1384.656389
  0
LINE
  8
CSLAYER1
  6
CONTINUOUS
 62
     3
 10
895.703737
 20
1384.656389
 11
898.220571
 21
1385.088590
  0
LINE
  8
CSLAYER1
  6
CONTINUOUS
 62
     3
 10
898.220571
 20
1385.088590
 11
900.658664
 21
1385.638616
  0
LINE
  8
CSLAYER1
  6
CONTINUOUS
 62
     3
 10
900.658664
 20
1385.638616
 11
902.999461
 21
1386.302282
  0
LINE
  8
CSLAYER1
  6
CONTINUOUS
 62
     3
 10
902.999461
 20
1386.302282
 11
905.225148
 21
1387.074536
  0
LINE
  8
CSLAYER1
  6
CONTINUOUS
 62
     3
 10
905.225148
 20
1387.074536
 11
907.318786
 21
1387.949501
  0
LINE
  8
CSLAYER1
  6
CONTINUOUS
 62
     3
 10
907.318786
 20
1387.949501
 11
909.264441
 21
1388.920519
  0
LINE
  8
CSLAYER1
  6
CONTINUOUS
 62
     3
 10
909.264441
 20
1388.920519
 11
911.047306
 21
1389.980198
  0
LINE
  8
CSLAYER1
  6
CONTINUOUS
 62
     3
 10
911.047306
 20
1389.980198
 11
912.653811
 21
1391.120475
  0
LINE
  8
CSLAYER1
  6
CONTINUOUS
 62
     3
 10
912.653811
 20
1391.120475
 11
914.071730
 21
1392.332671
  0
LINE
  8
CSLAYER1
  6
CONTINUOUS
 62
     3
 10
914.071730
 20
1392.332671
 11
915.290272
 21
1393.607561
  0
LINE
  8
CSLAYER1
  6
CONTINUOUS
 62
     3
 10
915.290272
 20
1393.607561
 11
916.300163
 21
1394.935442
  0
LINE
  8
CSLAYER1
  6
CONTINUOUS
 62
     3
 10
916.300163
 20
1394.935442
 11
917.093717
 21
1396.306207
  0
LINE
  8
CSLAYER1
  6
CONTINUOUS
 62
     3
 10
917.093717
 20
1396.306207
 11
917.664896
 21
1397.709426
  0
LINE
  8
CSLAYER1
  6
CONTINUOUS
 62
     3
 10
917.664896
 20
1397.709426
 11
918.009351
 21
1399.134417
  0
LINE
  8
CSLAYER1
  6
CONTINUOUS
 62
     3
 10
918.124461
 20
1408.941612
 11
918.009351
 21
1410.377532
  0
LINE
  8
CSLAYER1
  6
CONTINUOUS
 62
     3
 10
918.009351
 20
1410.377532
 11
917.664896
 21
1411.802523
  0
LINE
  8
CSLAYER1
  6
CONTINUOUS
 62
     3
 10
917.664896
 20
1411.802523
 11
917.433986
 21
1412.369800
  0
LINE
  8
CSLAYER1
  6
CONTINUOUS
 62
     3
 10
907.874461
 20
1396.598097
 11
909.264441
 21
1397.291794
  0
LINE
  8
CSLAYER1
  6
CONTINUOUS
 62
     3
 10
909.264441
 20
1397.291794
 11
911.047306
 21
1398.351473
  0
LINE
  8
CSLAYER1
  6
CONTINUOUS
 62
     3
 10
911.047306
 20
1398.351473
 11
912.653811
 21
1399.491750
  0
LINE
  8
CSLAYER1
  6
CONTINUOUS
 62
     3
 10
912.653811
 20
1399.491750
 11
914.071730
 21
1400.703947
  0
LINE
  8
CSLAYER1
  6
CONTINUOUS
 62
     3
 10
914.071730
 20
1400.703947
 11
915.290272
 21
1401.978836
  0
LINE
  8
CSLAYER1
  6
CONTINUOUS
 62
     3
 10
915.290272
 20
1401.978836
 11
916.300163
 21
1403.306717
  0
LINE
  8
CSLAYER1
  6
CONTINUOUS
 62
     3
 10
916.300163
 20
1403.306717
 11
917.093717
 21
1404.677483
  0
LINE
  8
CSLAYER1
  6
CONTINUOUS
 62
     3
 10
917.093717
 20
1404.677483
 11
917.664896
 21
1406.080701
  0
LINE
  8
CSLAYER1
  6
CONTINUOUS
 62
     3
 10
917.664896
 20
1406.080701
 11
918.009351
 21
1407.505692
  0
LINE
  8
CSLAYER1
  6
CONTINUOUS
 62
     3
 10
918.009351
 20
1407.505692
 11
918.124461
 21
1408.941612
  0
LINE
  8
CSLAYER1
  6
CONTINUOUS
 62
     3
 10
887.874461
 20
1384.095006
 11
885.238000
 21
1384.157700
  0
LINE
  8
CSLAYER1
  6
CONTINUOUS
 62
     3
 10
885.238000
 20
1384.157700
 11
882.621604
 21
1384.345303
  0
LINE
  8
CSLAYER1
  6
CONTINUOUS
 62
     3
 10
882.621604
 20
1384.345303
 11
880.045185
 21
1384.656389
  0
LINE
  8
CSLAYER1
  6
CONTINUOUS
 62
     3
 10
880.045185
 20
1384.656389
 11
877.528352
 21
1385.088590
  0
LINE
  8
CSLAYER1
  6
CONTINUOUS
 62
     3
 10
877.528352
 20
1385.088590
 11
875.090259
 21
1385.638616
  0
LINE
  8
CSLAYER1
  6
CONTINUOUS
 62
     3
 10
875.090259
 20
1385.638616
 11
872.749461
 21
1386.302282
  0
LINE
  8
CSLAYER1
  6
CONTINUOUS
 62
     3
 10
872.749461
 20
1386.302282
 11
870.523774
 21
1387.074536
  0
LINE
  8
CSLAYER1
  6
CONTINUOUS
 62
     3
 10
870.523774
 20
1387.074536
 11
868.430136
 21
1387.949501
  0
LINE
  8
CSLAYER1
  6
CONTINUOUS
 62
     3
 10
868.430136
 20
1387.949501
 11
866.484481
 21
1388.920519
  0
LINE
  8
CSLAYER1
  6
CONTINUOUS
 62
     3
 10
866.484481
 20
1388.920519
 11
864.701617
 21
1389.980198
  0
LINE
  8
CSLAYER1
  6
CONTINUOUS
 62
     3
 10
864.701617
 20
1389.980198
 11
863.095112
 21
1391.120475
  0
LINE
  8
CSLAYER1
  6
CONTINUOUS
 62
     3
 10
863.095112
 20
1391.120475
 11
861.677193
 21
1392.332671
  0
LINE
  8
CSLAYER1
  6
CONTINUOUS
 62
     3
 10
861.677193
 20
1392.332671
 11
860.458651
 21
1393.607561
  0
LINE
  8
CSLAYER1
  6
CONTINUOUS
 62
     3
 10
860.458651
 20
1393.607561
 11
859.448759
 21
1394.935442
  0
LINE
  8
CSLAYER1
  6
CONTINUOUS
 62
     3
 10
859.448759
 20
1394.935442
 11
858.655205
 21
1396.306207
  0
LINE
  8
CSLAYER1
  6
CONTINUOUS
 62
     3
 10
858.655205
 20
1396.306207
 11
858.084027
 21
1397.709426
  0
LINE
  8
CSLAYER1
  6
CONTINUOUS
 62
     3
 10
858.084027
 20
1397.709426
 11
857.739572
 21
1399.134417
  0
LINE
  8
CSLAYER1
  6
CONTINUOUS
 62
     3
 10
857.624461
 20
1408.941612
 11
857.739572
 21
1410.377532
  0
LINE
  8
CSLAYER1
  6
CONTINUOUS
 62
     3
 10
857.739572
 20
1410.377532
 11
858.084027
 21
1411.802523
  0
LINE
  8
CSLAYER1
  6
CONTINUOUS
 62
     3
 10
858.084027
 20
1411.802523
 11
858.314936
 21
1412.369800
  0
LINE
  8
CSLAYER1
  6
CONTINUOUS
 62
     3
 10
867.874461
 20
1396.598097
 11
866.484481
 21
1397.291794
  0
LINE
  8
CSLAYER1
  6
CONTINUOUS
 62
     3
 10
866.484481
 20
1397.291794
 11
864.701617
 21
1398.351473
  0
LINE
  8
CSLAYER1
  6
CONTINUOUS
 62
     3
 10
864.701617
 20
1398.351473
 11
863.095112
 21
1399.491750
  0
LINE
  8
CSLAYER1
  6
CONTINUOUS
 62
     3
 10
863.095112
 20
1399.491750
 11
861.677193
 21
1400.703947
  0
LINE
  8
CSLAYER1
  6
CONTINUOUS
 62
     3
 10
861.677193
 20
1400.703947
 11
860.458651
 21
1401.978836
  0
LINE
  8
CSLAYER1
  6
CONTINUOUS
 62
     3
 10
860.458651
 20
1401.978836
 11
859.448759
 21
1403.306717
  0
LINE
  8
CSLAYER1
  6
CONTINUOUS
 62
     3
 10
859.448759
 20
1403.306717
 11
858.655205
 21
1404.677483
  0
LINE
  8
CSLAYER1
  6
CONTINUOUS
 62
     3
 10
858.655205
 20
1404.677483
 11
858.084027
 21
1406.080701
  0
LINE
  8
CSLAYER1
  6
CONTINUOUS
 62
     3
 10
858.084027
 20
1406.080701
 11
857.739572
 21
1407.505692
  0
LINE
  8
CSLAYER1
  6
CONTINUOUS
 62
     3
 10
857.739572
 20
1407.505692
 11
857.624461
 21
1408.941612
  0
ENDBLK
  8
0
  0
BLOCK
  8
CSLAYER1
  2
BLKF0003
 70
   64
 10
0.0
 20
0.0
 30
0.0
  0
LINE
  8
CSLAYER1
  6
CONTINUOUS
 62
     3
 10
1486.979180
 20
2953.623158
 11
1481.908552
 21
2955.532875
  0
LINE
  8
CSLAYER1
  6
CONTINUOUS
 62
     3
 10
1481.908552
 20
2955.532875
 11
1475.483921
 21
2955.711337
  0
LINE
  8
CSLAYER1
  6
CONTINUOUS
 62
     3
 10
1488.033510
 20
2955.012259
 11
1482.384451
 21
2957.376982
  0
LINE
  8
CSLAYER1
  6
CONTINUOUS
 62
     3
 10
1482.384451
 20
2957.376982
 11
1477.030591
 21
2958.685703
  0
LINE
  8
CSLAYER1
  6
CONTINUOUS
 62
     3
 10
1488.875705
 20
2956.121869
 11
1483.990609
 21
2958.983140
  0
LINE
  8
CSLAYER1
  6
CONTINUOUS
 62
     3
 10
1483.990609
 20
2958.983140
 11
1481.670603
 21
2962.314430
  0
LINE
  8
CSLAYER1
  6
CONTINUOUS
 62
     3
 10
1485.795427
 20
2952.063537
 11
1490.027478
 21
2957.639355
  0
LINE
  8
CSLAYER1
  6
CONTINUOUS
 62
     3
 10
1485.795427
 20
2952.063537
 11
1673.529355
 21
2809.573286
  0
LINE
  8
CSLAYER1
  6
CONTINUOUS
 62
     3
 10
1490.027478
 20
2957.639355
 11
1677.761406
 21
2815.149104
  0
ARC
  8
CSLAYER1
  6
CONTINUOUS
 62
     3
 10
1701.944557
 20
2847.010918
 40
47.000000
 50
0.000000
 51
190.756396
  0
ARC
  8
CSLAYER1
  6
CONTINUOUS
 62
     3
 10
1701.944557
 20
2847.010918
 40
40.000000
 50
0.000000
 51
203.471057
  0
ARC
  8
CSLAYER1
  6
CONTINUOUS
 62
     3
 10
1701.944557
 20
2847.010918
 40
40.000000
 50
232.801463
 51
360.000000
  0
ARC
  8
CSLAYER1
  6
CONTINUOUS
 62
     3
 10
1701.944557
 20
2847.010918
 40
47.000000
 50
232.801463
 51
360.000000
  0
LINE
  8
CSLAYER1
  6
CONTINUOUS
 62
     3
 10
2017.455879
 20
2807.010918
 11
1733.479498
 21
2807.010918
  0
LINE
  8
CSLAYER1
  6
CONTINUOUS
 62
     3
 10
2017.455879
 20
2800.010918
 11
1723.597707
 21
2800.010918
  0
ENDBLK
  8
0
  0
BLOCK
  8
CSLAYER1
  2
BLKF0004
 70
   64
 10
0.0
 20
0.0
 30
0.0
  0
LINE
  8
CSLAYER1
  6
CONTINUOUS
 62
     3
 10
1609.024856
 20
2843.510918
 11
1609.024856
 21
2781.510918
  0
LINE
  8
CSLAYER1
  6
CONTINUOUS
 62
     3
 10
1606.524856
 20
2846.010918
 11
1521.524856
 21
2846.010918
  0
LINE
  8
CSLAYER1
  6
CENTER
 62
     5
 10
1667.374495
 20
2773.510918
 11
1609.024856
 21
2773.510918
  0
LINE
  8
CSLAYER1
  6
CONTINUOUS
 62
     2
 10
1606.524856
 20
2789.510918
 11
1521.524856
 21
2789.510918
  0
LINE
  8
CSLAYER1
  6
CONTINUOUS
 62
     3
 10
1606.524856
 20
2841.010918
 11
1606.524856
 21
2796.010918
  0
LINE
  8
CSLAYER1
  6
CONTINUOUS
 62
     3
 10
1519.024856
 20
2843.510918
 11
1519.024856
 21
2773.510918
  0
LINE
  8
CSLAYER1
  6
CONTINUOUS
 62
     3
 10
1604.024856
 20
2843.510918
 11
1527.024856
 21
2843.510918
  0
LINE
  8
CSLAYER1
  6
CONTINUOUS
 62
     3
 10
1604.024856
 20
2793.510918
 11
1527.024856
 21
2793.510918
  0
ARC
  8
CSLAYER1
  6
CONTINUOUS
 62
     3
 10
1581.093038
 20
2818.510918
 40
59.568182
 50
155.185163
 51
204.814837
  0
ARC
  8
CSLAYER1
  6
CONTINUOUS
 62
     3
 10
1604.024856
 20
2841.010918
 40
2.500000
 50
0.000000
 51
90.000000
  0
ARC
  8
CSLAYER1
  6
CONTINUOUS
 62
     3
 10
1604.024856
 20
2796.010918
 40
2.500000
 50
270.000000
 51
360.000000
  0
ARC
  8
CSLAYER1
  6
CONTINUOUS
 62
     3
 10
1606.524856
 20
2843.510918
 40
2.500000
 50
0.000000
 51
90.000000
  0
ARC
  8
CSLAYER1
  6
CONTINUOUS
 62
     3
 10
1521.524856
 20
2843.510918
 40
2.500000
 50
90.000000
 51
180.000000
  0
ARC
  8
CSLAYER1
  6
CONTINUOUS
 62
     2
 10
1521.524856
 20
2787.010918
 40
2.500000
 50
90.000000
 51
180.000000
  0
ARC
  8
CSLAYER1
  6
CONTINUOUS
 62
     2
 10
1606.524856
 20
2787.010918
 40
2.500000
 50
0.000000
 51
90.000000
  0
LINE
  8
CSLAYER1
  6
CONTINUOUS
 62
     3
 10
1609.024856
 20
2703.510918
 11
1609.024856
 21
2765.510918
  0
LINE
  8
CSLAYER1
  6
CONTINUOUS
 62
     3
 10
1606.524856
 20
2701.010918
 11
1521.524856
 21
2701.010918
  0
LINE
  8
CSLAYER1
  6
CONTINUOUS
 62
     2
 10
1606.524856
 20
2757.510918
 11
1521.524856
 21
2757.510918
  0
LINE
  8
CSLAYER1
  6
CONTINUOUS
 62
     3
 10
1519.024856
 20
2703.510918
 11
1519.024856
 21
2773.510918
  0
ARC
  8
CSLAYER1
  6
CONTINUOUS
 62
     3
 10
1606.524856
 20
2703.510918
 40
2.500000
 50
270.000000
 51
360.000000
  0
ARC
  8
CSLAYER1
  6
CONTINUOUS
 62
     3
 10
1521.524856
 20
2703.510918
 40
2.500000
 50
180.000000
 51
270.000000
  0
ARC
  8
CSLAYER1
  6
CONTINUOUS
 62
     2
 10
1521.524856
 20
2760.010918
 40
2.500000
 50
180.000000
 51
270.000000
  0
ARC
  8
CSLAYER1
  6
CONTINUOUS
 62
     2
 10
1606.524856
 20
2760.010918
 40
2.500000
 50
270.000000
 51
360.000000
  0
LINE
  8
CSLAYER1
  6
CONTINUOUS
 62
     3
 10
1606.524856
 20
2706.010918
 11
1606.524856
 21
2751.010918
  0
LINE
  8
CSLAYER1
  6
CONTINUOUS
 62
     3
 10
1604.024856
 20
2703.510918
 11
1527.024856
 21
2703.510918
  0
LINE
  8
CSLAYER1
  6
CONTINUOUS
 62
     3
 10
1604.024856
 20
2753.510918
 11
1527.024856
 21
2753.510918
  0
ARC
  8
CSLAYER1
  6
CONTINUOUS
 62
     3
 10
1581.093038
 20
2728.510918
 40
59.568182
 50
155.185163
 51
204.814837
  0
ARC
  8
CSLAYER1
  6
CONTINUOUS
 62
     3
 10
1604.024856
 20
2706.010918
 40
2.500000
 50
270.000000
 51
360.000000
  0
ARC
  8
CSLAYER1
  6
CONTINUOUS
 62
     3
 10
1604.024856
 20
2751.010918
 40
2.500000
 50
0.000000
 51
90.000000
  0
LINE
  8
CSLAYER1
  6
CONTINUOUS
 62
     3
 10
1616.024856
 20
2766.510918
 11
1616.024856
 21
2770.010918
  0
LINE
  8
CSLAYER1
  6
CONTINUOUS
 62
     3
 10
1667.374495
 20
2770.010918
 11
1616.024856
 21
2770.010918
  0
LINE
  8
CSLAYER1
  6
CONTINUOUS
 62
     3
 10
1615.024856
 20
2765.510918
 11
1609.024856
 21
2765.510918
  0
LINE
  8
CSLAYER1
  6
CONTINUOUS
 62
     3
 10
1615.024856
 20
2781.510918
 11
1609.024856
 21
2781.510918
  0
LINE
  8
CSLAYER1
  6
CONTINUOUS
 62
     3
 10
1667.374495
 20
2777.010918
 11
1616.024856
 21
2777.010918
  0
ARC
  8
CSLAYER1
  6
CONTINUOUS
 62
     3
 10
1615.024856
 20
2780.510918
 40
1.000000
 50
0.000000
 51
90.000000
  0
ARC
  8
CSLAYER1
  6
CONTINUOUS
 62
     3
 10
1615.024856
 20
2766.510918
 40
1.000000
 50
270.000000
 51
360.000000
  0
LINE
  8
CSLAYER1
  6
CONTINUOUS
 62
     3
 10
1616.024856
 20
2777.010918
 11
1616.024856
 21
2780.510918
  0
LINE
  8
CSLAYER1
  6
CONTINUOUS
 62
     2
 10
1616.024856
 20
2770.010918
 11
1616.024856
 21
2777.010918
  0
LINE
  8
CSLAYER1
  6
CONTINUOUS
 62
     2
 10
1609.024856
 20
2781.510918
 11
1609.024856
 21
2773.510918
  0
LINE
  8
CSLAYER1
  6
CONTINUOUS
 62
     2
 10
1609.024856
 20
2765.510918
 11
1609.024856
 21
2773.510918
  0
LINE
  8
CSLAYER1
  6
CONTINUOUS
 62
     2
 10
1589.531845
 20
2785.673578
 11
1598.666845
 21
2785.673578
  0
LINE
  8
CSLAYER1
  6
CONTINUOUS
 62
     2
 10
1589.531845
 20
2762.048578
 11
1598.666845
 21
2762.048578
  0
LINE
  8
CSLAYER1
  6
CONTINUOUS
 62
     2
 10
1599.926845
 20
2784.413578
 11
1599.926845
 21
2763.308578
  0
LINE
  8
CSLAYER1
  6
CONTINUOUS
 62
     2
 10
1588.271845
 20
2784.413578
 11
1588.271845
 21
2763.308578
  0
LINE
  8
CSLAYER1
  6
CONTINUOUS
 62
     2
 10
1590.161845
 20
2763.938578
 11
1598.194345
 21
2763.938578
  0
LINE
  8
CSLAYER1
  6
CONTINUOUS
 62
     2
 10
1590.161845
 20
2767.088578
 11
1591.106845
 21
2767.088578
  0
LINE
  8
CSLAYER1
  6
CONTINUOUS
 62
     2
 10
1590.161845
 20
2775.751078
 11
1591.106845
 21
2775.751078
  0
LINE
  8
CSLAYER1
  6
CONTINUOUS
 62
     2
 10
1590.161845
 20
2780.318578
 11
1595.201845
 21
2780.318578
  0
LINE
  8
CSLAYER1
  6
CONTINUOUS
 62
     2
 10
1589.059345
 20
2779.216078
 11
1589.059345
 21
2776.853578
  0
LINE
  8
CSLAYER1
  6
CONTINUOUS
 62
     2
 10
1596.304345
 20
2779.216078
 11
1596.304345
 21
2776.853578
  0
LINE
  8
CSLAYER1
  6
CONTINUOUS
 62
     2
 10
1599.296845
 20
2765.986078
 11
1599.296845
 21
2765.041078
  0
LINE
  8
CSLAYER1
  6
CONTINUOUS
 62
     2
 10
1592.051845
 20
2774.806078
 11
1592.051845
 21
2768.033578
  0
LINE
  8
CSLAYER1
  6
CONTINUOUS
 62
     2
 10
1592.839345
 20
2774.806078
 11
1592.839345
 21
2768.033578
  0
ARC
  8
CSLAYER1
  6
CONTINUOUS
 62
     2
 10
1590.161845
 20
2779.216078
 40
1.102500
 50
90.000000
 51
180.000000
  0
ARC
  8
CSLAYER1
  6
CONTINUOUS
 62
     2
 10
1595.201845
 20
2779.216078
 40
1.102500
 50
0.000000
 51
90.000000
  0
ARC
  8
CSLAYER1
  6
CONTINUOUS
 62
     2
 10
1595.201845
 20
2776.853578
 40
1.102500
 50
270.000000
 51
360.000000
  0
ARC
  8
CSLAYER1
  6
CONTINUOUS
 62
     2
 10
1590.161845
 20
2776.853578
 40
1.102500
 50
180.000000
 51
270.000000
  0
ARC
  8
CSLAYER1
  6
CONTINUOUS
 62
     2
 10
1598.194345
 20
2765.986078
 40
1.102500
 50
0.000000
 51
90.000000
  0
ARC
  8
CSLAYER1
  6
CONTINUOUS
 62
     2
 10
1598.194345
 20
2765.041078
 40
1.102500
 50
270.000000
 51
360.000000
  0
ARC
  8
CSLAYER1
  6
CONTINUOUS
 62
     2
 10
1590.161845
 20
2765.041078
 40
1.102500
 50
180.000000
 51
270.000000
  0
ARC
  8
CSLAYER1
  6
CONTINUOUS
 62
     2
 10
1590.161845
 20
2765.986078
 40
1.102500
 50
90.000000
 51
180.000000
  0
LINE
  8
CSLAYER1
  6
CONTINUOUS
 62
     2
 10
1593.784345
 20
2775.751078
 11
1595.201845
 21
2775.751078
  0
LINE
  8
CSLAYER1
  6
CONTINUOUS
 62
     2
 10
1593.784345
 20
2767.088578
 11
1598.194345
 21
2767.088578
  0
ARC
  8
CSLAYER1
  6
CONTINUOUS
 62
     2
 10
1591.106845
 20
2774.806078
 40
0.945000
 50
0.000000
 51
90.000000
  0
ARC
  8
CSLAYER1
  6
CONTINUOUS
 62
     2
 10
1593.784345
 20
2774.806078
 40
0.945000
 50
90.000000
 51
180.000000
  0
ARC
  8
CSLAYER1
  6
CONTINUOUS
 62
     2
 10
1593.784345
 20
2768.033578
 40
0.945000
 50
180.000000
 51
270.000000
  0
ARC
  8
CSLAYER1
  6
CONTINUOUS
 62
     2
 10
1589.531845
 20
2784.413578
 40
1.260000
 50
90.000000
 51
180.000000
  0
ARC
  8
CSLAYER1
  6
CONTINUOUS
 62
     2
 10
1598.666845
 20
2784.413578
 40
1.260000
 50
0.000000
 51
90.000000
  0
ARC
  8
CSLAYER1
  6
CONTINUOUS
 62
     2
 10
1598.666845
 20
2763.308578
 40
1.260000
 50
270.000000
 51
360.000000
  0
ARC
  8
CSLAYER1
  6
CONTINUOUS
 62
     2
 10
1589.531845
 20
2763.308578
 40
1.260000
 50
180.000000
 51
270.000000
  0
ARC
  8
CSLAYER1
  6
CONTINUOUS
 62
     2
 10
1591.106845
 20
2768.033578
 40
0.945000
 50
270.000000
 51
360.000000
  0
LINE
  8
CSLAYER1
  6
CONTINUOUS
 62
     2
 10
1589.059345
 20
2765.986078
 11
1589.059345
 21
2765.041078
  0
CIRCLE
  8
CSLAYER1
  6
CONTINUOUS
 62
     2
 10
1574.524856
 20
2823.510918
 40
2.500000
  0
CIRCLE
  8
CSLAYER1
  6
CONTINUOUS
 62
     2
 10
1574.524856
 20
2833.510918
 40
2.500000
  0
CIRCLE
  8
CSLAYER1
  6
CONTINUOUS
 62
     2
 10
1564.524856
 20
2833.510918
 40
2.500000
  0
CIRCLE
  8
CSLAYER1
  6
CONTINUOUS
 62
     2
 10
1564.524856
 20
2823.510918
 40
2.500000
  0
CIRCLE
  8
CSLAYER1
  6
CONTINUOUS
 62
     2
 10
1554.524856
 20
2823.510918
 40
2.500000
  0
CIRCLE
  8
CSLAYER1
  6
CONTINUOUS
 62
     2
 10
1554.524856
 20
2833.510918
 40
2.500000
  0
CIRCLE
  8
CSLAYER1
  6
CONTINUOUS
 62
     2
 10
1544.524856
 20
2833.510918
 40
2.500000
  0
CIRCLE
  8
CSLAYER1
  6
CONTINUOUS
 62
     2
 10
1544.524856
 20
2823.510918
 40
2.500000
  0
CIRCLE
  8
CSLAYER1
  6
CONTINUOUS
 62
     2
 10
1534.524856
 20
2823.510918
 40
2.500000
  0
CIRCLE
  8
CSLAYER1
  6
CONTINUOUS
 62
     2
 10
1534.524856
 20
2833.510918
 40
2.500000
  0
CIRCLE
  8
CSLAYER1
  6
CONTINUOUS
 62
     2
 10
1574.524856
 20
2813.510918
 40
2.500000
  0
CIRCLE
  8
CSLAYER1
  6
CONTINUOUS
 62
     2
 10
1574.524856
 20
2803.510918
 40
2.500000
  0
CIRCLE
  8
CSLAYER1
  6
CONTINUOUS
 62
     2
 10
1564.524856
 20
2803.510918
 40
2.500000
  0
CIRCLE
  8
CSLAYER1
  6
CONTINUOUS
 62
     2
 10
1564.524856
 20
2813.510918
 40
2.500000
  0
CIRCLE
  8
CSLAYER1
  6
CONTINUOUS
 62
     2
 10
1554.524856
 20
2813.510918
 40
2.500000
  0
CIRCLE
  8
CSLAYER1
  6
CONTINUOUS
 62
     2
 10
1554.524856
 20
2803.510918
 40
2.500000
  0
CIRCLE
  8
CSLAYER1
  6
CONTINUOUS
 62
     2
 10
1544.524856
 20
2803.510918
 40
2.500000
  0
CIRCLE
  8
CSLAYER1
  6
CONTINUOUS
 62
     2
 10
1544.524856
 20
2813.510918
 40
2.500000
  0
CIRCLE
  8
CSLAYER1
  6
CONTINUOUS
 62
     2
 10
1534.524856
 20
2813.510918
 40
2.500000
  0
CIRCLE
  8
CSLAYER1
  6
CONTINUOUS
 62
     2
 10
1534.524856
 20
2803.510918
 40
2.500000
  0
CIRCLE
  8
CSLAYER1
  6
CONTINUOUS
 62
     2
 10
1574.524856
 20
2723.510918
 40
2.500000
  0
CIRCLE
  8
CSLAYER1
  6
CONTINUOUS
 62
     2
 10
1574.524856
 20
2713.510918
 40
2.500000
  0
CIRCLE
  8
CSLAYER1
  6
CONTINUOUS
 62
     2
 10
1564.524856
 20
2713.510918
 40
2.500000
  0
CIRCLE
  8
CSLAYER1
  6
CONTINUOUS
 62
     2
 10
1564.524856
 20
2723.510918
 40
2.500000
  0
CIRCLE
  8
CSLAYER1
  6
CONTINUOUS
 62
     2
 10
1554.524856
 20
2723.510918
 40
2.500000
  0
CIRCLE
  8
CSLAYER1
  6
CONTINUOUS
 62
     2
 10
1554.524856
 20
2713.510918
 40
2.500000
  0
CIRCLE
  8
CSLAYER1
  6
CONTINUOUS
 62
     2
 10
1544.524856
 20
2713.510918
 40
2.500000
  0
CIRCLE
  8
CSLAYER1
  6
CONTINUOUS
 62
     2
 10
1544.524856
 20
2723.510918
 40
2.500000
  0
CIRCLE
  8
CSLAYER1
  6
CONTINUOUS
 62
     2
 10
1534.524856
 20
2723.510918
 40
2.500000
  0
CIRCLE
  8
CSLAYER1
  6
CONTINUOUS
 62
     2
 10
1534.524856
 20
2713.510918
 40
2.500000
  0
CIRCLE
  8
CSLAYER1
  6
CONTINUOUS
 62
     2
 10
1574.524856
 20
2733.510918
 40
2.500000
  0
CIRCLE
  8
CSLAYER1
  6
CONTINUOUS
 62
     2
 10
1574.524856
 20
2743.510918
 40
2.500000
  0
CIRCLE
  8
CSLAYER1
  6
CONTINUOUS
 62
     2
 10
1564.524856
 20
2743.510918
 40
2.500000
  0
CIRCLE
  8
CSLAYER1
  6
CONTINUOUS
 62
     2
 10
1564.524856
 20
2733.510918
 40
2.500000
  0
CIRCLE
  8
CSLAYER1
  6
CONTINUOUS
 62
     2
 10
1554.524856
 20
2733.510918
 40
2.500000
  0
CIRCLE
  8
CSLAYER1
  6
CONTINUOUS
 62
     2
 10
1554.524856
 20
2743.510918
 40
2.500000
  0
CIRCLE
  8
CSLAYER1
  6
CONTINUOUS
 62
     2
 10
1544.524856
 20
2743.510918
 40
2.500000
  0
CIRCLE
  8
CSLAYER1
  6
CONTINUOUS
 62
     2
 10
1544.524856
 20
2733.510918
 40
2.500000
  0
CIRCLE
  8
CSLAYER1
  6
CONTINUOUS
 62
     2
 10
1534.524856
 20
2733.510918
 40
2.500000
  0
CIRCLE
  8
CSLAYER1
  6
CONTINUOUS
 62
     2
 10
1534.524856
 20
2743.510918
 40
2.500000
  0
LINE
  8
CSLAYER1
  6
CONTINUOUS
 62
     2
 10
1600.524856
 20
2746.010918
 11
1600.524856
 21
2711.010918
  0
LINE
  8
CSLAYER1
  6
CONTINUOUS
 62
     2
 10
1584.524856
 20
2746.010918
 11
1584.524856
 21
2711.010918
  0
LINE
  8
CSLAYER1
  6
CONTINUOUS
 62
     2
 10
1599.024856
 20
2747.510918
 11
1586.024856
 21
2747.510918
  0
LINE
  8
CSLAYER1
  6
CONTINUOUS
 62
     2
 10
1599.524856
 20
2746.010918
 11
1599.524856
 21
2711.010918
  0
LINE
  8
CSLAYER1
  6
CONTINUOUS
 62
     2
 10
1585.524856
 20
2746.010918
 11
1585.524856
 21
2711.010918
  0
LINE
  8
CSLAYER1
  6
CONTINUOUS
 62
     2
 10
1599.024856
 20
2746.510918
 11
1586.024856
 21
2746.510918
  0
LINE
  8
CSLAYER1
  6
CONTINUOUS
 62
     2
 10
1599.024856
 20
2709.510918
 11
1586.024856
 21
2709.510918
  0
LINE
  8
CSLAYER1
  6
CONTINUOUS
 62
     2
 10
1599.024856
 20
2710.510918
 11
1586.024856
 21
2710.510918
  0
ARC
  8
CSLAYER1
  6
CONTINUOUS
 62
     2
 10
1599.024856
 20
2746.010918
 40
0.500000
 50
0.000000
 51
90.000000
  0
ARC
  8
CSLAYER1
  6
CONTINUOUS
 62
     2
 10
1586.024856
 20
2746.010918
 40
0.500000
 50
90.000000
 51
180.000000
  0
ARC
  8
CSLAYER1
  6
CONTINUOUS
 62
     2
 10
1599.024856
 20
2711.010918
 40
0.500000
 50
270.000000
 51
360.000000
  0
ARC
  8
CSLAYER1
  6
CONTINUOUS
 62
     2
 10
1586.024856
 20
2711.010918
 40
0.500000
 50
180.000000
 51
270.000000
  0
ARC
  8
CSLAYER1
  6
CONTINUOUS
 62
     2
 10
1599.024856
 20
2746.010918
 40
1.500000
 50
0.000000
 51
90.000000
  0
ARC
  8
CSLAYER1
  6
CONTINUOUS
 62
     2
 10
1586.024856
 20
2746.010918
 40
1.500000
 50
90.000000
 51
180.000000
  0
ARC
  8
CSLAYER1
  6
CONTINUOUS
 62
     2
 10
1599.024856
 20
2711.010918
 40
1.500000
 50
270.000000
 51
360.000000
  0
ARC
  8
CSLAYER1
  6
CONTINUOUS
 62
     2
 10
1586.024856
 20
2711.010918
 40
1.500000
 50
180.000000
 51
270.000000
  0
LINE
  8
CSLAYER1
  6
CONTINUOUS
 62
     2
 10
1595.524856
 20
2737.510918
 11
1595.524856
 21
2719.510918
  0
LINE
  8
CSLAYER1
  6
CONTINUOUS
 62
     2
 10
1598.602928
 20
2728.510918
 11
1595.524856
 21
2719.510918
  0
LINE
  8
CSLAYER1
  6
CONTINUOUS
 62
     2
 10
1598.602928
 20
2728.510918
 11
1595.524856
 21
2737.510918
  0
TEXT
  8
CSLAYER1
 62
     2
 10
1587.230887
 20
2737.491142
 40
7.066058
 41
1.574983
  1
UP
 50
270.000000
 51
0.000000
  7
EASYDRAW_FONT
 72
     5
 11
1587.230887
 21
2718.942940
  0
LINE
  8
CSLAYER1
  6
CONTINUOUS
 62
     2
 10
1600.524856
 20
2801.010918
 11
1600.524856
 21
2836.010918
  0
LINE
  8
CSLAYER1
  6
CONTINUOUS
 62
     2
 10
1584.524856
 20
2801.010918
 11
1584.524856
 21
2836.010918
  0
LINE
  8
CSLAYER1
  6
CONTINUOUS
 62
     2
 10
1599.024856
 20
2799.510918
 11
1586.024856
 21
2799.510918
  0
LINE
  8
CSLAYER1
  6
CONTINUOUS
 62
     2
 10
1599.524856
 20
2801.010918
 11
1599.524856
 21
2836.010918
  0
LINE
  8
CSLAYER1
  6
CONTINUOUS
 62
     2
 10
1585.524856
 20
2801.010918
 11
1585.524856
 21
2836.010918
  0
LINE
  8
CSLAYER1
  6
CONTINUOUS
 62
     2
 10
1599.024856
 20
2800.510918
 11
1586.024856
 21
2800.510918
  0
LINE
  8
CSLAYER1
  6
CONTINUOUS
 62
     2
 10
1599.024856
 20
2837.510918
 11
1586.024856
 21
2837.510918
  0
LINE
  8
CSLAYER1
  6
CONTINUOUS
 62
     2
 10
1599.024856
 20
2836.510918
 11
1586.024856
 21
2836.510918
  0
ARC
  8
CSLAYER1
  6
CONTINUOUS
 62
     2
 10
1599.024856
 20
2801.010918
 40
0.500000
 50
270.000000
 51
360.000000
  0
ARC
  8
CSLAYER1
  6
CONTINUOUS
 62
     2
 10
1586.024856
 20
2801.010918
 40
0.500000
 50
180.000000
 51
270.000000
  0
ARC
  8
CSLAYER1
  6
CONTINUOUS
 62
     2
 10
1599.024856
 20
2836.010918
 40
0.500000
 50
0.000000
 51
90.000000
  0
ARC
  8
CSLAYER1
  6
CONTINUOUS
 62
     2
 10
1586.024856
 20
2836.010918
 40
0.500000
 50
90.000000
 51
180.000000
  0
ARC
  8
CSLAYER1
  6
CONTINUOUS
 62
     2
 10
1599.024856
 20
2801.010918
 40
1.500000
 50
270.000000
 51
360.000000
  0
ARC
  8
CSLAYER1
  6
CONTINUOUS
 62
     2
 10
1586.024856
 20
2801.010918
 40
1.500000
 50
180.000000
 51
270.000000
  0
ARC
  8
CSLAYER1
  6
CONTINUOUS
 62
     2
 10
1599.024856
 20
2836.010918
 40
1.500000
 50
0.000000
 51
90.000000
  0
ARC
  8
CSLAYER1
  6
CONTINUOUS
 62
     2
 10
1586.024856
 20
2836.010918
 40
1.500000
 50
90.000000
 51
180.000000
  0
LINE
  8
CSLAYER1
  6
CONTINUOUS
 62
     2
 10
1590.051926
 20
2809.510918
 11
1590.051926
 21
2827.510918
  0
LINE
  8
CSLAYER1
  6
CONTINUOUS
 62
     2
 10
1586.973854
 20
2818.510918
 11
1590.051926
 21
2827.510918
  0
LINE
  8
CSLAYER1
  6
CONTINUOUS
 62
     2
 10
1586.973854
 20
2818.510918
 11
1590.051926
 21
2809.510918
  0
TEXT
  8
CSLAYER1
 62
     2
 10
1591.661972
 20
2833.208955
 40
6.383575
 41
1.255870
  1
DOWN
 50
270.000000
 51
0.000000
  7
EASYDRAW_FONT
 72
     5
 11
1591.661972
 21
2803.813506
  0
ENDBLK
  8
0
  0
ENDSEC
  0
SECTION
  2
ENTITIES
  0
LINE
  8
CSLAYER1
  6
CONTINUOUS
 62
     3
 10
180.707488
 20
3599.850540
 11
180.707488
 21
75.393795
  0
LINE
  8
CSLAYER1
  6
CONTINUOUS
 62
     3
 10
5161.512127
 20
3599.850540
 11
180.707488
 21
3599.850540
  0
LINE
  8
CSLAYER1
  6
CONTINUOUS
 62
     3
 10
5161.512127
 20
75.393795
 11
180.707488
 21
75.393795
  0
LINE
  8
CSLAYER1
  6
CONTINUOUS
 62
     3
 10
5161.512127
 20
75.393795
 11
5161.512127
 21
3599.850540
  0
LINE
  8
CSLAYER1
  6
CONTINUOUS
 62
     5
 10
105.707488
 20
1815.393795
 11
30.707488
 21
1815.393795
  0
LINE
  8
CSLAYER1
  6
CONTINUOUS
 62
     5
 10
3961.512127
 20
735.393795
 11
5161.512127
 21
735.393795
  0
LINE
  8
CSLAYER1
  6
CONTINUOUS
 62
     5
 10
3961.512127
 20
195.393795
 11
5161.512127
 21
195.393795
  0
LINE
  8
CSLAYER1
  6
CONTINUOUS
 62
     5
 10
3961.512127
 20
435.393795
 11
5161.512127
 21
435.393795
  0
LINE
  8
CSLAYER1
  6
CONTINUOUS
 62
     5
 10
3961.512127
 20
525.393795
 11
5161.512127
 21
525.393795
  0
LINE
  8
CSLAYER1
  6
CONTINUOUS
 62
     5
 10
3961.512127
 20
615.393795
 11
5161.512127
 21
615.393795
  0
LINE
  8
CSLAYER1
  6
CONTINUOUS
 62
     5
 10
3961.512127
 20
855.393795
 11
5161.512127
 21
855.393795
  0
LINE
  8
CSLAYER1
  6
CONTINUOUS
 62
     5
 10
3961.512127
 20
975.393795
 11
3961.512127
 21
75.393795
  0
LINE
  8
CSLAYER1
  6
CONTINUOUS
 62
     5
 10
4261.512127
 20
975.393795
 11
4261.512127
 21
615.393795
  0
LINE
  8
CSLAYER1
  6
CONTINUOUS
 62
     5
 10
3961.512127
 20
975.393795
 11
5161.512127
 21
975.393795
  0
LINE
  8
CSLAYER1
  6
CONTINUOUS
 62
     5
 10
4711.512127
 20
615.393795
 11
4711.512127
 21
195.393795
  0
TEXT
  8
CSLAYER1
 62
     3
 10
4291.048678
 20
88.237877
 40
89.070541
 41
1.003345
  1
東正車輌株式会社
 50
0.000000
 51
0.000000
  7
EASYDRAW_FONT
 72
     5
 11
4976.207181
 21
88.237877
  0
LINE
  8
CSLAYER1
  6
CONTINUOUS
 62
     5
 10
4336.512127
 20
525.393795
 11
4336.512127
 21
195.393795
  0
TEXT
  8
CSLAYER1
 62
     5
 10
4006.511719
 20
877.893738
 40
75.000000
 41
1.050000
  1
品　名
 50
0.000000
 51
0.000000
  7
EASYDRAW_FONT
 72
     5
 11
4216.511719
 21
877.893738
  0
TEXT
  8
CSLAYER1
 62
     5
 10
4006.511719
 20
757.893738
 40
75.000000
 41
1.050000
  1
型　式
 50
0.000000
 51
0.000000
  7
EASYDRAW_FONT
 72
     5
 11
4216.511719
 21
757.893738
  0
TEXT
  8
CSLAYER1
 62
     5
 10
3969.011719
 20
637.893799
 40
75.000000
 41
1.036364
  1
図面番号
 50
0.000000
 51
0.000000
  7
EASYDRAW_FONT
 72
     5
 11
4254.011719
 21
637.893799
  0
TEXT
  8
CSLAYER1
 62
     5
 10
4036.511719
 20
532.893799
 40
75.000000
 41
0.827586
  1
平成２８年４月２８日
 50
0.000000
 51
0.000000
  7
EASYDRAW_FONT
 72
     5
 11
4636.511719
 21
532.893799
  0
TEXT
  8
CSLAYER1
 62
     5
 10
4831.511719
 20
532.893799
 40
75.000000
 41
1.050000
  1
Ｂ－４
 50
0.000000
 51
0.000000
  7
EASYDRAW_FONT
 72
     5
 11
5041.511719
 21
532.893799
  0
TEXT
  8
CSLAYER1
 62
     5
 10
4044.011719
 20
442.893799
 40
75.000000
 41
1.050000
  1
検　図
 50
0.000000
 51
0.000000
  7
EASYDRAW_FONT
 72
     5
 11
4254.011719
 21
442.893799
  0
TEXT
  8
CSLAYER1
 62
     5
 10
4419.011719
 20
442.893799
 40
75.000000
 41
1.050000
  1
作　図
 50
0.000000
 51
0.000000
  7
EASYDRAW_FONT
 72
     5
 11
4629.011719
 21
442.893799
  0
TEXT
  8
CSLAYER1
 62
     5
 10
4831.511719
 20
442.893799
 40
75.000000
 41
1.050000
  1
尺　度
 50
0.000000
 51
0.000000
  7
EASYDRAW_FONT
 72
     5
 11
5041.511719
 21
442.893799
  0
TEXT
  8
CSLAYER1
 62
     5
 10
4982.620117
 20
217.121689
 40
75.000000
 41
1.080000
  1
１５
 50
0.000000
 51
0.000000
  7
EASYDRAW_FONT
 72
     5
 11
5117.620117
 21
217.121689
  0
TEXT
  8
CSLAYER1
 62
     5
 10
4952.140625
 20
288.678741
 40
75.000000
 41
1.200000
  1
／
 50
0.000000
 51
0.000000
  7
EASYDRAW_FONT
 72
     5
 11
5012.140625
 21
288.678741
  0
TEXT
  8
CSLAYER1
 62
     5
 10
4906.821289
 20
341.153900
 40
75.000000
 41
1.200000
  1
１
 50
0.000000
 51
0.000000
  7
EASYDRAW_FONT
 72
     5
 11
4966.821289
 21
341.153900
  0
TEXT
  8
CSLAYER1
 62
     3
 10
4471.511719
 20
877.893738
 40
75.000000
 41
0.834783
  1
ゴールドリフター
 50
0.000000
 51
0.000000
  7
EASYDRAW_FONT
 72
     5
 11
4951.511719
 21
877.893738
  0
TEXT
  8
CSLAYER1
 62
     3
 10
4321.511719
 20
757.893738
 40
75.000000
 41
0.821053
  1
ＧＬＩ－５００－０８１０Ｗ
 50
0.000000
 51
0.000000
  7
EASYDRAW_FONT
 72
     5
 11
5101.511719
 21
757.893738
  0
TEXT
  8
CSLAYER1
 62
     3
 10
4561.511719
 20
637.893799
 40
75.000000
 41
0.857143
  1
GI-27
 50
0.000000
 51
0.000000
  7
EASYDRAW_FONT
 72
     5
 11
4861.511719
 21
637.893799
  0
INSERT
  8
CSLAYER1
  2
BLKF0000
 10
0.0
 20
0.0
 30
0.0
  0
TEXT
  8
CSLAYER1
 62
     5
 10
3476.930176
 20
435.127075
 40
60.000000
 41
1.050000
  1
Ｆ.Ｌ
 50
360.000000
 51
0.000000
  7
EASYDRAW_FONT
 72
     5
 11
3644.930176
 21
435.127075
  0
TEXT
  8
CSLAYER1
 62
     5
 10
2680.391846
 20
947.166687
 40
60.000000
 41
1.017391
  1
ギヤードモーター
 50
360.000000
 51
0.000000
  7
EASYDRAW_FONT
 72
     5
 11
3148.391846
 21
947.166687
  0
LINE
  8
CSLAYER1
  6
CONTINUOUS
 62
     3
 10
1287.874461
 20
491.956530
 11
487.874461
 21
491.956530
  0
LINE
  8
CSLAYER1
  6
CONTINUOUS
 62
     3
 10
1287.874461
 20
2058.313014
 11
1287.874461
 21
2005.313014
  0
LINE
  8
CSLAYER1
  6
CENTER
 62
     5
 10
887.874461
 20
2109.992034
 11
887.874461
 21
391.250035
  0
LINE
  8
CSLAYER1
  6
CONTINUOUS
 62
     3
 10
1217.874461
 20
2005.313014
 11
1217.874461
 21
491.956530
  0
LINE
  8
CSLAYER1
  6
CONTINUOUS
 62
     3
 10
1229.874461
 20
2005.313014
 11
1229.874461
 21
491.956530
  0
LINE
  8
CSLAYER1
  6
CONTINUOUS
 62
     3
 10
1207.874461
 20
2005.313014
 11
1207.874461
 21
491.956530
  0
LINE
  8
CSLAYER1
  6
CONTINUOUS
 62
     3
 10
1195.874461
 20
2005.313014
 11
1195.874461
 21
491.956530
  0
LINE
  8
CSLAYER1
  6
CONTINUOUS
 62
     3
 10
1287.874461
 20
491.956530
 11
1287.874461
 21
426.956530
  0
LINE
  8
CSLAYER1
  6
CONTINUOUS
 62
     3
 10
1287.874461
 20
2005.313014
 11
487.874461
 21
2005.313014
  0
LINE
  8
CSLAYER1
  6
CONTINUOUS
 62
     3
 10
1287.874461
 20
2058.313014
 11
487.874461
 21
2058.313014
  0
LINE
  8
CSLAYER1
  6
CENTER
 62
     5
 10
1287.874461
 20
1636.823893
 11
487.874461
 21
1636.823893
  0
LINE
  8
CSLAYER1
  6
CENTER
 62
     5
 10
1195.874461
 20
1313.249908
 11
579.874461
 21
1313.249908
  0
LINE
  8
CSLAYER1
  6
CENTER
 62
     5
 10
1267.532394
 20
1242.534772
 11
508.216529
 21
1242.534772
  0
LINE
  8
CSLAYER1
  6
CONTINUOUS
 62
     3
 10
1195.874461
 20
1255.034772
 11
579.874461
 21
1255.034772
  0
LINE
  8
CSLAYER1
  6
CONTINUOUS
 62
     3
 10
1195.874461
 20
1230.034772
 11
579.874461
 21
1230.034772
  0
LINE
  8
CSLAYER1
  6
CONTINUOUS
 62
     3
 10
1207.874461
 20
1259.534772
 11
1217.874461
 21
1259.534772
  0
LINE
  8
CSLAYER1
  6
CONTINUOUS
 62
     3
 10
1207.874461
 20
1225.534772
 11
1217.874461
 21
1225.534772
  0
LINE
  8
CSLAYER1
  6
CONTINUOUS
 62
     3
 10
1229.874461
 20
1262.534772
 11
1239.874461
 21
1262.534772
  0
LINE
  8
CSLAYER1
  6
CONTINUOUS
 62
     3
 10
1229.874461
 20
1222.534772
 11
1239.874461
 21
1222.534772
  0
LINE
  8
CSLAYER1
  6
CONTINUOUS
 62
     3
 10
1239.874461
 20
1262.534772
 11
1239.874461
 21
1222.534772
  0
LINE
  8
CSLAYER1
  6
CONTINUOUS
 62
     3
 10
1195.874461
 20
1283.249908
 11
579.874461
 21
1283.249908
  0
LINE
  8
CSLAYER1
  6
CONTINUOUS
 62
     3
 10
1195.874461
 20
1649.323893
 11
579.874461
 21
1649.323893
  0
LINE
  8
CSLAYER1
  6
CONTINUOUS
 62
     3
 10
1195.874461
 20
1624.323893
 11
579.874461
 21
1624.323893
  0
LINE
  8
CSLAYER1
  6
CONTINUOUS
 62
     3
 10
1195.874461
 20
1710.883796
 11
579.874461
 21
1710.883796
  0
LINE
  8
CSLAYER1
  6
CONTINUOUS
 62
     3
 10
1207.874461
 20
1653.823893
 11
1217.874461
 21
1653.823893
  0
LINE
  8
CSLAYER1
  6
CONTINUOUS
 62
     3
 10
1229.874461
 20
1656.823893
 11
1239.874461
 21
1656.823893
  0
LINE
  8
CSLAYER1
  6
CONTINUOUS
 62
     3
 10
1229.874461
 20
1616.823893
 11
1239.874461
 21
1616.823893
  0
LINE
  8
CSLAYER1
  6
CONTINUOUS
 62
     3
 10
1239.874461
 20
1656.823893
 11
1239.874461
 21
1616.823893
  0
LINE
  8
CSLAYER1
  6
CONTINUOUS
 62
     3
 10
1207.874461
 20
1619.823893
 11
1217.874461
 21
1619.823893
  0
LINE
  8
CSLAYER1
  6
CONTINUOUS
 62
     3
 10
923.874461
 20
1343.249908
 11
851.874461
 21
1343.249908
  0
LINE
  8
CSLAYER1
  6
CENTER
 62
     5
 10
1287.874461
 20
848.245651
 11
487.874461
 21
848.245651
  0
LINE
  8
CSLAYER1
  6
CONTINUOUS
 62
     3
 10
1195.874461
 20
860.745651
 11
579.874461
 21
860.745651
  0
LINE
  8
CSLAYER1
  6
CONTINUOUS
 62
     3
 10
1207.874461
 20
865.245651
 11
1217.874461
 21
865.245651
  0
LINE
  8
CSLAYER1
  6
CONTINUOUS
 62
     3
 10
1229.874461
 20
868.245651
 11
1239.874461
 21
868.245651
  0
LINE
  8
CSLAYER1
  6
CONTINUOUS
 62
     3
 10
1229.874461
 20
828.245651
 11
1239.874461
 21
828.245651
  0
LINE
  8
CSLAYER1
  6
CONTINUOUS
 62
     3
 10
1239.874461
 20
868.245651
 11
1239.874461
 21
828.245651
  0
LINE
  8
CSLAYER1
  6
CONTINUOUS
 62
     3
 10
1207.874461
 20
831.245651
 11
1217.874461
 21
831.245651
  0
LINE
  8
CSLAYER1
  6
CONTINUOUS
 62
     3
 10
487.874461
 20
2058.313014
 11
487.874461
 21
2005.313014
  0
LINE
  8
CSLAYER1
  6
CONTINUOUS
 62
     3
 10
557.874461
 20
2005.313014
 11
557.874461
 21
491.956530
  0
LINE
  8
CSLAYER1
  6
CONTINUOUS
 62
     3
 10
545.874461
 20
2005.313014
 11
545.874461
 21
491.956530
  0
LINE
  8
CSLAYER1
  6
CONTINUOUS
 62
     3
 10
567.874461
 20
2005.313014
 11
567.874461
 21
491.956530
  0
LINE
  8
CSLAYER1
  6
CONTINUOUS
 62
     3
 10
579.874461
 20
2005.313014
 11
579.874461
 21
491.956530
  0
LINE
  8
CSLAYER1
  6
CONTINUOUS
 62
     3
 10
567.874461
 20
1259.534772
 11
557.874461
 21
1259.534772
  0
LINE
  8
CSLAYER1
  6
CONTINUOUS
 62
     3
 10
567.874461
 20
1225.534772
 11
557.874461
 21
1225.534772
  0
LINE
  8
CSLAYER1
  6
CONTINUOUS
 62
     3
 10
545.874461
 20
1262.534772
 11
535.874461
 21
1262.534772
  0
LINE
  8
CSLAYER1
  6
CONTINUOUS
 62
     3
 10
545.874461
 20
1222.534772
 11
535.874461
 21
1222.534772
  0
LINE
  8
CSLAYER1
  6
CONTINUOUS
 62
     3
 10
535.874461
 20
1262.534772
 11
535.874461
 21
1222.534772
  0
LINE
  8
CSLAYER1
  6
CONTINUOUS
 62
     3
 10
567.874461
 20
1653.823893
 11
557.874461
 21
1653.823893
  0
LINE
  8
CSLAYER1
  6
CONTINUOUS
 62
     3
 10
545.874461
 20
1656.823893
 11
535.874461
 21
1656.823893
  0
LINE
  8
CSLAYER1
  6
CONTINUOUS
 62
     3
 10
545.874461
 20
1616.823893
 11
535.874461
 21
1616.823893
  0
LINE
  8
CSLAYER1
  6
CONTINUOUS
 62
     3
 10
535.874461
 20
1656.823893
 11
535.874461
 21
1616.823893
  0
LINE
  8
CSLAYER1
  6
CONTINUOUS
 62
     3
 10
567.874461
 20
1619.823893
 11
557.874461
 21
1619.823893
  0
LINE
  8
CSLAYER1
  6
CONTINUOUS
 62
     3
 10
567.874461
 20
865.245651
 11
557.874461
 21
865.245651
  0
LINE
  8
CSLAYER1
  6
CONTINUOUS
 62
     3
 10
545.874461
 20
868.245651
 11
535.874461
 21
868.245651
  0
LINE
  8
CSLAYER1
  6
CONTINUOUS
 62
     3
 10
545.874461
 20
828.245651
 11
535.874461
 21
828.245651
  0
LINE
  8
CSLAYER1
  6
CONTINUOUS
 62
     4
 10
535.874461
 20
868.245651
 11
535.874461
 21
828.245651
  0
LINE
  8
CSLAYER1
  6
CONTINUOUS
 62
     3
 10
567.874461
 20
831.245651
 11
557.874461
 21
831.245651
  0
LINE
  8
CSLAYER1
  6
CONTINUOUS
 62
     3
 10
487.874461
 20
491.956530
 11
487.874461
 21
426.956530
  0
LINE
  8
CSLAYER1
  6
CONTINUOUS
 62
     3
 10
2430.704123
 20
689.277593
 11
2422.274891
 21
682.210200
  0
LINE
  8
CSLAYER1
  6
CONTINUOUS
 62
     3
 10
2353.605293
 20
781.232856
 11
2345.942355
 21
774.807953
  0
LINE
  8
CSLAYER1
  6
CONTINUOUS
 62
     3
 10
2345.942355
 20
774.807953
 11
2379.980281
 21
692.574022
  0
ARC
  8
CSLAYER1
  6
CONTINUOUS
 62
     3
 10
2404.927654
 20
702.900134
 40
27.000000
 50
202.485438
 51
309.977763
  0
LINE
  8
CSLAYER1
  6
CONTINUOUS
 62
     2
 10
2353.605293
 20
781.232856
 11
2430.704123
 21
689.277593
  0
CIRCLE
  8
CSLAYER1
  6
CONTINUOUS
 62
     4
 10
2350.923466
 20
848.245651
 40
12.500000
  0
LINE
  8
CSLAYER1
  6
CENTER
 62
     5
 10
579.874461
 20
1680.633796
 11
1195.874461
 21
1680.633796
  0
LINE
  8
CSLAYER1
  6
CONTINUOUS
 62
     3
 10
1195.874461
 20
1650.383796
 11
579.874461
 21
1650.383796
  0
LINE
  8
CSLAYER1
  6
CONTINUOUS
 62
     3
 10
579.874461
 20
842.651186
 11
1195.874461
 21
842.651186
  0
LINE
  8
CSLAYER1
  6
CONTINUOUS
 62
     3
 10
579.874461
 20
782.151186
 11
1195.874461
 21
782.151186
  0
LINE
  8
CSLAYER1
  6
CENTER
 62
     5
 10
573.352229
 20
812.401186
 11
1201.067386
 21
812.401186
  0
LINE
  8
CSLAYER1
  6
CENTER
 62
     5
 10
573.220788
 20
719.342181
 11
1202.397511
 21
719.342181
  0
LINE
  8
CSLAYER1
  6
CONTINUOUS
 62
     4
 10
557.874461
 20
749.592181
 11
567.874461
 21
749.592181
  0
LINE
  8
CSLAYER1
  6
CONTINUOUS
 62
     4
 10
557.874461
 20
689.092181
 11
567.874461
 21
689.092181
  0
LINE
  8
CSLAYER1
  6
CONTINUOUS
 62
     3
 10
579.874461
 20
749.592181
 11
1195.874461
 21
749.592181
  0
LINE
  8
CSLAYER1
  6
CONTINUOUS
 62
     3
 10
579.874461
 20
689.092181
 11
1195.874461
 21
689.092181
  0
LINE
  8
CSLAYER1
  6
CONTINUOUS
 62
     4
 10
1207.874461
 20
749.592181
 11
1217.874461
 21
749.592181
  0
LINE
  8
CSLAYER1
  6
CONTINUOUS
 62
     4
 10
1207.874461
 20
689.092181
 11
1217.874461
 21
689.092181
  0
ARC
  8
CSLAYER1
  6
CONTINUOUS
 62
     3
 10
2083.366877
 20
1429.869800
 40
30.000000
 50
-2.174713
 51
172.935262
  0
LINE
  8
CSLAYER1
  6
CONTINUOUS
 62
     3
 10
2041.317794
 20
1334.498076
 11
2053.594643
 21
1433.559522
  0
LINE
  8
CSLAYER1
  6
CONTINUOUS
 62
     3
 10
2112.889790
 20
1416.736903
 11
2113.345270
 21
1428.731396
  0
LINE
  8
CSLAYER1
  6
CONTINUOUS
 62
     3
 10
2456.313671
 20
798.813202
 11
2481.264418
 21
817.469717
  0
LINE
  8
CSLAYER1
  6
CONTINUOUS
 62
     3
 10
2496.516877
 20
750.863104
 11
2519.177363
 21
771.036358
  0
ARC
  8
CSLAYER1
  6
CONTINUOUS
 62
     3
 10
2499.229551
 20
793.443607
 40
30.000000
 50
-48.323270
 51
126.786704
  0
LINE
  8
CSLAYER1
  6
CONTINUOUS
 62
     3
 10
923.874461
 20
1449.869800
 11
923.874461
 21
1328.731441
  0
LINE
  8
CSLAYER1
  6
CONTINUOUS
 62
     3
 10
923.874461
 20
1449.869800
 11
939.874461
 21
1449.869800
  0
LINE
  8
CSLAYER1
  6
CONTINUOUS
 62
     3
 10
908.874461
 20
1447.369800
 11
908.874461
 21
1412.369800
  0
LINE
  8
CSLAYER1
  6
CONTINUOUS
 62
     4
 10
923.874461
 20
1328.731441
 11
939.874461
 21
1328.731441
  0
LINE
  8
CSLAYER1
  6
CONTINUOUS
 62
     3
 10
908.874461
 20
1447.369800
 11
923.874461
 21
1447.369800
  0
LINE
  8
CSLAYER1
  6
CONTINUOUS
 62
     3
 10
866.874461
 20
1447.369800
 11
866.874461
 21
1412.369800
  0
LINE
  8
CSLAYER1
  6
CONTINUOUS
 62
     3
 10
866.874461
 20
1447.369800
 11
851.874461
 21
1447.369800
  0
LINE
  8
CSLAYER1
  6
CONTINUOUS
 62
     3
 10
939.874461
 20
1449.869800
 11
939.874461
 21
1328.731441
  0
LINE
  8
CSLAYER1
  6
CONTINUOUS
 62
     3
 10
851.874461
 20
1449.869800
 11
851.874461
 21
1328.731441
  0
LINE
  8
CSLAYER1
  6
CONTINUOUS
 62
     3
 10
851.874461
 20
1449.869800
 11
835.874461
 21
1449.869800
  0
LINE
  8
CSLAYER1
  6
CONTINUOUS
 62
     3
 10
851.874461
 20
1328.731441
 11
835.874461
 21
1328.731441
  0
LINE
  8
CSLAYER1
  6
CONTINUOUS
 62
     3
 10
835.874461
 20
1449.869800
 11
835.874461
 21
1328.731441
  0
LINE
  8
CSLAYER1
  6
CONTINUOUS
 62
     3
 10
907.874461
 20
1460.644128
 11
907.874461
 21
1396.598097
  0
LINE
  8
CSLAYER1
  6
CONTINUOUS
 62
     3
 10
907.874461
 20
1460.644128
 11
867.874461
 21
1460.644128
  0
LINE
  8
CSLAYER1
  6
CONTINUOUS
 62
     3
 10
918.124461
 20
1407.039038
 11
918.124461
 21
1343.249908
  0
LINE
  8
CSLAYER1
  6
CONTINUOUS
 62
     3
 10
867.874461
 20
1460.644128
 11
867.874461
 21
1396.598097
  0
LINE
  8
CSLAYER1
  6
CONTINUOUS
 62
     3
 10
857.624461
 20
1408.941612
 11
857.624461
 21
1343.249908
  0
LINE
  8
CSLAYER1
  6
CONTINUOUS
 62
     5
 10
819.635382
 20
1429.869800
 11
962.992979
 21
1429.869800
  0
LINE
  8
CSLAYER1
  6
CONTINUOUS
 62
     3
 10
835.874461
 20
1343.249908
 11
579.874461
 21
1343.249908
  0
LINE
  8
CSLAYER1
  6
CONTINUOUS
 62
     3
 10
939.874461
 20
1343.249908
 11
1195.874461
 21
1343.249908
  0
LINE
  8
CSLAYER1
  6
CENTER
 62
     5
 10
3026.599980
 20
453.956530
 11
2051.655879
 21
625.956530
  0
LINE
  8
CSLAYER1
  6
CENTER
 62
     5
 10
2051.655879
 20
797.956530
 11
3026.599980
 21
625.956530
  0
LINE
  8
CSLAYER1
  6
CENTER
 62
     5
 10
3026.599980
 20
625.956530
 11
2051.655879
 21
453.956530
  0
LINE
  8
CSLAYER1
  6
CENTER
 62
     5
 10
2051.655879
 20
625.956530
 11
3026.599980
 21
797.956530
  0
POINT
  8
CSLAYER1
 62
     5
 10
3026.599980
 20
625.956530
  0
LINE
  8
CSLAYER1
  6
CONTINUOUS
 62
     2
 10
2249.222755
 20
773.487294
 11
2250.463405
 21
774.166107
  0
LINE
  8
CSLAYER1
  6
CONTINUOUS
 62
     2
 10
2245.416309
 20
760.482931
 11
2198.149527
 21
774.318171
  0
LINE
  8
CSLAYER1
  6
CONTINUOUS
 62
     2
 10
2198.149527
 20
774.318171
 11
2183.261725
 21
766.172415
  0
LINE
  8
CSLAYER1
  6
CONTINUOUS
 62
     3
 10
2017.455879
 20
2058.313014
 11
3067.455879
 21
2058.313014
  0
LINE
  8
CSLAYER1
  6
CONTINUOUS
 62
     3
 10
2017.455879
 20
2058.313014
 11
2017.455879
 21
2005.313014
  0
LINE
  8
CSLAYER1
  6
CONTINUOUS
 62
     3
 10
2017.455879
 20
2005.313014
 11
3067.455879
 21
2005.313014
  0
LINE
  8
CSLAYER1
  6
CONTINUOUS
 62
     3
 10
3067.455879
 20
2058.313014
 11
3067.455879
 21
2005.313014
  0
ARC
  8
CSLAYER1
  6
CONTINUOUS
 62
     3
 10
2650.191054
 20
1242.534772
 40
25.000000
 50
-142.801304
 51
9.977763
  0
LINE
  8
CSLAYER1
  6
CONTINUOUS
 62
     3
 10
2055.108038
 20
1913.375245
 11
2631.033708
 21
1226.472516
  0
LINE
  8
CSLAYER1
  6
CONTINUOUS
 62
     3
 10
2659.790994
 20
1332.253839
 11
2095.472292
 21
2005.313014
  0
LINE
  8
CSLAYER1
  6
CONTINUOUS
 62
     3
 10
2038.933718
 20
2005.313014
 11
2055.108038
 21
1913.375245
  0
LINE
  8
CSLAYER1
  6
CONTINUOUS
 62
     3
 10
2674.812931
 20
1246.866421
 11
2660.077449
 21
1330.625577
  0
ARC
  8
CSLAYER1
  6
CONTINUOUS
 62
     4
 10
2051.655879
 20
1242.534772
 40
25.000000
 50
170.022237
 51
189.977763
  0
LINE
  8
CSLAYER1
  6
CONTINUOUS
 62
     3
 10
2646.738894
 20
1913.375245
 11
2409.647674
 21
1630.598118
  0
LINE
  8
CSLAYER1
  6
CONTINUOUS
 62
     3
 10
2042.055939
 20
1332.253839
 11
2292.199259
 21
1630.598118
  0
LINE
  8
CSLAYER1
  6
CONTINUOUS
 62
     3
 10
2662.913215
 20
2005.313014
 11
2646.738894
 21
1913.375245
  0
LINE
  8
CSLAYER1
  6
CONTINUOUS
 62
     3
 10
2027.034002
 20
1246.866421
 11
2042.055939
 21
1332.253839
  0
LINE
  8
CSLAYER1
  6
CONTINUOUS
 62
     2
 10
2406.909324
 20
788.688409
 11
2406.129859
 21
787.385370
  0
LINE
  8
CSLAYER1
  6
CENTER
 62
     5
 10
2650.191054
 20
453.956530
 11
2051.655879
 21
1242.534772
  0
LINE
  8
CSLAYER1
  6
CENTER
 62
     5
 10
2051.655879
 20
1242.534772
 11
2650.191054
 21
2031.113014
  0
LINE
  8
CSLAYER1
  6
CENTER
 62
     5
 10
2650.191054
 20
1242.534772
 11
2051.655879
 21
2031.113014
  0
LINE
  8
CSLAYER1
  6
CENTER
 62
     5
 10
2051.655879
 20
453.956530
 11
2650.191054
 21
1242.534772
  0
LINE
  8
CSLAYER1
  6
CONTINUOUS
 62
     4
 10
2268.890738
 20
1200.792390
 11
2172.703002
 21
1347.995778
  0
LINE
  8
CSLAYER1
  6
CONTINUOUS
 62
     4
 10
2218.663087
 20
1167.971922
 11
2132.422112
 21
1299.953027
  0
LINE
  8
CSLAYER1
  6
CONTINUOUS
 62
     4
 10
2121.261068
 20
1426.721271
 11
2101.369602
 21
1457.162691
  0
LINE
  8
CSLAYER1
  6
CONTINUOUS
 62
     3
 10
2052.243421
 20
1422.656560
 11
2051.141951
 21
1424.342224
  0
LINE
  8
CSLAYER1
  6
CONTINUOUS
 62
     3
 10
2084.759978
 20
1460.644128
 11
2083.573872
 21
1459.869086
  0
LINE
  8
CSLAYER1
  6
CONTINUOUS
 62
     4
 10
2101.369602
 20
1457.162691
 11
2084.759978
 21
1460.644128
  0
LINE
  8
CSLAYER1
  6
CONTINUOUS
 62
     4
 10
2051.141951
 20
1424.342224
 11
2054.623387
 21
1440.951847
  0
LINE
  8
CSLAYER1
  6
CENTER
 62
     5
 10
2621.439557
 20
623.636532
 11
2613.554179
 21
618.483956
  0
LINE
  8
CSLAYER1
  6
CONTINUOUS
 62
     2
 10
2620.232484
 20
671.824796
 11
2613.927918
 21
667.705176
  0
LINE
  8
CSLAYER1
  6
CONTINUOUS
 62
     2
 10
2605.668801
 20
613.331380
 11
2613.554179
 21
618.483956
  0
LINE
  8
CSLAYER1
  6
CONTINUOUS
 62
     2
 10
2394.486859
 20
1043.948969
 11
2384.612609
 21
1037.496796
  0
LINE
  8
CSLAYER1
  6
CONTINUOUS
 62
     2
 10
2564.578212
 20
777.459882
 11
2522.772949
 21
841.437647
  0
LINE
  8
CSLAYER1
  6
CONTINUOUS
 62
     4
 10
2280.233816
 20
1208.204345
 11
2207.320009
 21
1160.559967
  0
LINE
  8
CSLAYER1
  6
CONTINUOUS
 62
     4
 10
2389.154829
 20
1048.826766
 11
2396.812938
 21
1037.106981
  0
LINE
  8
CSLAYER1
  6
CONTINUOUS
 62
     4
 10
2389.154829
 20
1048.826766
 11
2386.369943
 21
1047.604307
  0
LINE
  8
CSLAYER1
  6
CONTINUOUS
 62
     4
 10
2396.812938
 20
1037.106981
 11
2394.575060
 21
1035.047394
  0
LINE
  8
CSLAYER1
  6
CONTINUOUS
 62
     2
 10
2394.575060
 20
1035.047394
 11
2386.369943
 21
1047.604307
  0
LINE
  8
CSLAYER1
  6
CONTINUOUS
 62
     4
 10
2563.322821
 20
795.903827
 11
2556.211720
 21
806.786485
  0
LINE
  8
CSLAYER1
  6
CONTINUOUS
 62
     2
 10
2709.216709
 20
585.428238
 11
2657.314803
 21
551.513755
  0
LINE
  8
CSLAYER1
  6
CONTINUOUS
 62
     2
 10
2678.037264
 20
633.144506
 11
2652.923439
 21
616.734273
  0
LINE
  8
CSLAYER1
  6
CONTINUOUS
 62
     2
 10
2601.422942
 20
746.736960
 11
2535.883256
 21
703.911085
  0
LINE
  8
CSLAYER1
  6
CONTINUOUS
 62
     4
 10
2562.490176
 20
810.889043
 11
2528.888447
 21
788.932522
  0
LINE
  8
CSLAYER1
  6
CONTINUOUS
 62
     4
 10
2709.216709
 20
585.428238
 11
2678.037264
 21
633.144506
  0
LINE
  8
CSLAYER1
  6
CONTINUOUS
 62
     4
 10
2676.363009
 20
632.050491
 11
2597.046880
 21
753.433980
  0
LINE
  8
CSLAYER1
  6
CONTINUOUS
 62
     4
 10
2589.289076
 20
754.337571
 11
2562.485694
 21
795.356819
  0
LINE
  8
CSLAYER1
  6
CONTINUOUS
 62
     4
 10
2709.216709
 20
585.428238
 11
2698.524476
 21
568.885078
  0
LINE
  8
CSLAYER1
  6
CONTINUOUS
 62
     2
 10
2609.112968
 20
678.296377
 11
2575.677640
 21
656.448588
  0
LINE
  8
CSLAYER1
  6
CONTINUOUS
 62
     2
 10
2653.694103
 20
610.070484
 11
2629.417405
 21
594.207258
  0
LINE
  8
CSLAYER1
  6
CONTINUOUS
 62
     2
 10
2654.564462
 20
614.222890
 11
2577.983372
 21
731.420742
  0
LINE
  8
CSLAYER1
  6
CONTINUOUS
 62
     4
 10
2652.521463
 20
538.825133
 11
2698.524476
 21
568.885078
  0
LINE
  8
CSLAYER1
  6
CONTINUOUS
 62
     4
 10
2651.013563
 20
547.396309
 11
2657.314803
 21
551.513755
  0
ARC
  8
CSLAYER1
  6
CONTINUOUS
 62
     2
 10
2652.053080
 20
612.581867
 40
3.000000
 50
-56.838024
 51
33.161976
  0
ARC
  8
CSLAYER1
  6
CONTINUOUS
 62
     2
 10
2610.753992
 20
675.784994
 40
3.000000
 50
33.161976
 51
123.161976
  0
LINE
  8
CSLAYER1
  6
CONTINUOUS
 62
     4
 10
2522.574883
 20
839.159555
 11
2467.490200
 21
923.459824
  0
LINE
  8
CSLAYER1
  6
CONTINUOUS
 62
     2
 10
2563.322821
 20
795.903827
 11
2517.280808
 21
765.818399
  0
LINE
  8
CSLAYER1
  6
CONTINUOUS
 62
     2
 10
2581.083959
 20
766.894484
 11
2517.765488
 21
725.520027
  0
LINE
  8
CSLAYER1
  6
CONTINUOUS
 62
     4
 10
2356.231145
 20
930.841833
 11
2207.029889
 21
1159.175831
  0
LINE
  8
CSLAYER1
  6
CONTINUOUS
 62
     4
 10
2502.375836
 20
756.078979
 11
2517.280808
 21
765.818399
  0
LINE
  8
CSLAYER1
  6
CONTINUOUS
 62
     2
 10
2594.278609
 20
754.014220
 11
2529.412625
 21
711.628564
  0
ARC
  8
CSLAYER1
  6
CONTINUOUS
 62
     4
 10
2591.800458
 20
755.978595
 40
3.000000
 50
213.161976
 51
303.161976
  0
LINE
  8
CSLAYER1
  6
CONTINUOUS
 62
     2
 10
2599.067438
 20
671.732283
 11
2565.426459
 21
723.215625
  0
LINE
  8
CSLAYER1
  6
CONTINUOUS
 62
     2
 10
2605.764458
 20
676.108345
 11
2572.123479
 21
727.591688
  0
LINE
  8
CSLAYER1
  6
CONTINUOUS
 62
     2
 10
2669.665989
 20
627.674428
 11
2594.725922
 21
742.360898
  0
LINE
  8
CSLAYER1
  6
CONTINUOUS
 62
     2
 10
2671.340244
 20
628.768444
 11
2596.400177
 21
743.454914
  0
LINE
  8
CSLAYER1
  6
CONTINUOUS
 62
     2
 10
2542.873280
 20
695.574130
 11
2536.964123
 21
704.617360
  0
ARC
  8
CSLAYER1
  6
CONTINUOUS
 62
     4
 10
2595.372625
 20
752.339965
 40
2.000000
 50
33.161976
 51
123.161976
  0
LINE
  8
CSLAYER1
  6
CONTINUOUS
 62
     4
 10
2540.609865
 20
844.374144
 11
2507.008135
 21
822.417623
  0
LINE
  8
CSLAYER1
  6
CONTINUOUS
 62
     2
 10
2533.048506
 20
839.433293
 11
2520.482295
 21
831.222100
  0
LINE
  8
CSLAYER1
  6
CONTINUOUS
 62
     2
 10
2529.198186
 20
843.487449
 11
2518.315529
 21
836.376347
  0
LINE
  8
CSLAYER1
  6
CONTINUOUS
 62
     2
 10
2530.357532
 20
843.551494
 11
2533.048506
 21
839.433293
  0
LINE
  8
CSLAYER1
  6
CONTINUOUS
 62
     2
 10
2527.215979
 20
841.498696
 11
2529.906953
 21
837.380495
  0
LINE
  8
CSLAYER1
  6
CONTINUOUS
 62
     2
 10
2529.198186
 20
843.487449
 11
2530.357532
 21
843.551494
  0
ARC
  8
CSLAYER1
  6
CONTINUOUS
 62
     2
 10
2530.244490
 20
840.294214
 40
3.259241
 50
97.596078
 51
158.533594
  0
ARC
  8
CSLAYER1
  6
CONTINUOUS
 62
     2
 10
2530.550390
 20
829.535240
 40
12.419443
 50
105.574022
 51
140.749930
  0
LINE
  8
CSLAYER1
  6
CONTINUOUS
 62
     4
 10
2562.490176
 20
810.889043
 11
2540.609865
 21
844.374144
  0
LINE
  8
CSLAYER1
  6
CONTINUOUS
 62
     3
 10
2280.233816
 20
1208.204345
 11
2281.617951
 21
1207.914226
  0
LINE
  8
CSLAYER1
  6
CONTINUOUS
 62
     3
 10
2207.320009
 20
1160.559967
 11
2207.029889
 21
1159.175831
  0
LINE
  8
CSLAYER1
  6
CONTINUOUS
 62
     4
 10
2517.791321
 20
835.340302
 11
2520.482295
 21
831.222100
  0
LINE
  8
CSLAYER1
  6
CONTINUOUS
 62
     2
 10
2520.932874
 20
837.393100
 11
2523.623848
 21
833.274899
  0
LINE
  8
CSLAYER1
  6
CONTINUOUS
 62
     2
 10
2518.315529
 20
836.376347
 11
2517.791321
 21
835.340302
  0
ARC
  8
CSLAYER1
  6
CONTINUOUS
 62
     2
 10
2520.819832
 20
834.135820
 40
3.259241
 50
87.790358
 51
148.727875
  0
LINE
  8
CSLAYER1
  6
CONTINUOUS
 62
     2
 10
2281.617951
 20
1207.914226
 11
2207.029889
 21
1159.175831
  0
LINE
  8
CSLAYER1
  6
CENTER
 62
     5
 10
2667.073331
 20
536.579539
 11
2083.366877
 21
1429.869800
  0
ARC
  8
CSLAYER1
  6
CONTINUOUS
 62
     3
 10
2051.655879
 20
1242.534772
 40
25.000000
 50
37.198696
 51
189.977763
  0
LINE
  8
CSLAYER1
  6
CONTINUOUS
 62
     3
 10
2646.738894
 20
571.694300
 11
2070.813225
 21
1258.597028
  0
LINE
  8
CSLAYER1
  6
CONTINUOUS
 62
     3
 10
2042.055939
 20
1152.815706
 11
2596.145692
 21
491.956530
  0
LINE
  8
CSLAYER1
  6
CONTINUOUS
 62
     3
 10
2660.766907
 20
491.956530
 11
2646.738894
 21
571.694300
  0
LINE
  8
CSLAYER1
  6
CONTINUOUS
 62
     3
 10
2027.034002
 20
1238.203124
 11
2041.769484
 21
1154.443968
  0
LINE
  8
CSLAYER1
  6
CONTINUOUS
 62
     3
 10
2055.108038
 20
571.694300
 11
2292.199259
 21
854.471427
  0
LINE
  8
CSLAYER1
  6
CONTINUOUS
 62
     3
 10
2659.790994
 20
1152.815706
 11
2409.647674
 21
854.471427
  0
LINE
  8
CSLAYER1
  6
CONTINUOUS
 62
     3
 10
2041.080026
 20
491.956530
 11
2055.108038
 21
571.694300
  0
LINE
  8
CSLAYER1
  6
CONTINUOUS
 62
     3
 10
2674.812931
 20
1238.203124
 11
2660.077449
 21
1154.443968
  0
LINE
  8
CSLAYER1
  6
CONTINUOUS
 62
     3
 10
2017.655879
 20
491.956530
 11
2017.655879
 21
426.956530
  0
LINE
  8
CSLAYER1
  6
CONTINUOUS
 62
     3
 10
3067.655879
 20
491.956530
 11
3067.655879
 21
426.956530
  0
LINE
  8
CSLAYER1
  6
CONTINUOUS
 62
     5
 10
2051.655879
 20
473.956530
 11
2051.655879
 21
433.956530
  0
LINE
  8
CSLAYER1
  6
CONTINUOUS
 62
     3
 10
2017.655879
 20
491.956530
 11
3067.655879
 21
491.956530
  0
LINE
  8
CSLAYER1
  6
CONTINUOUS
 62
     5
 10
2031.655879
 20
453.956530
 11
2071.655879
 21
453.956530
  0
LINE
  8
CSLAYER1
  6
CONTINUOUS
 62
     5
 10
2356.003136
 20
1680.633796
 11
2412.773733
 21
1680.633796
  0
LINE
  8
CSLAYER1
  6
CONTINUOUS
 62
     5
 10
2384.175421
 20
1650.383796
 11
2384.175421
 21
1710.646485
  0
CIRCLE
  8
CSLAYER1
  6
CONTINUOUS
 62
     3
 10
2083.366877
 20
1429.869800
 40
12.500000
  0
LINE
  8
CSLAYER1
  6
PHANTOM
 62
     5
 10
2083.366877
 20
1429.869800
 11
2073.943453
 21
1313.249908
  0
LINE
  8
CSLAYER1
  6
CONTINUOUS
 62
     1
 10
2075.856821
 20
1406.398422
 11
2087.252313
 21
1405.477614
  0
CIRCLE
  8
CSLAYER1
  6
CONTINUOUS
 62
     1
 10
2081.433867
 20
1405.947771
 40
4.000000
  0
ARC
  8
CSLAYER1
  6
CONTINUOUS
 62
     3
 10
2046.279833
 20
1333.883122
 40
5.000000
 50
167.256444
 51
209.168069
  0
LINE
  8
CSLAYER1
  6
CONTINUOUS
 62
     3
 10
2055.809493
 20
1441.726890
 11
2054.623387
 21
1440.951847
  0
POINT
  8
CSLAYER1
 62
     5
 10
2408.686861
 20
719.342181
  0
LINE
  8
CSLAYER1
  6
PHANTOM
 62
     5
 10
2514.706934
 20
806.110517
 11
2385.538960
 21
700.397611
  0
CIRCLE
  8
CSLAYER1
  6
CONTINUOUS
 62
     4
 10
2499.229551
 20
793.443607
 40
16.000000
  0
INSERT
  8
CSLAYER1
  2
BLKF0001
 10
0.0
 20
0.0
 30
0.0
  0
LINE
  8
CSLAYER1
  6
CONTINUOUS
 62
     5
 10
2630.191054
 20
453.956530
 11
2670.191054
 21
453.956530
  0
LINE
  8
CSLAYER1
  6
CONTINUOUS
 62
     5
 10
2650.191054
 20
473.956530
 11
2650.191054
 21
433.956530
  0
LINE
  8
CSLAYER1
  6
CONTINUOUS
 62
     5
 10
2650.191054
 20
2053.878869
 11
2650.191054
 21
2011.232690
  0
LINE
  8
CSLAYER1
  6
CONTINUOUS
 62
     5
 10
2627.769898
 20
2031.113014
 11
2672.711711
 21
2031.113014
  0
LINE
  8
CSLAYER1
  6
CONTINUOUS
 62
     5
 10
2031.448381
 20
2031.113014
 11
2076.788192
 21
2031.113014
  0
LINE
  8
CSLAYER1
  6
CONTINUOUS
 62
     5
 10
2051.655879
 20
2051.203314
 11
2051.655879
 21
2010.337826
  0
LINE
  8
CSLAYER1
  6
CONTINUOUS
 62
     3
 10
2350.923466
 20
1700.638091
 11
2606.374641
 21
2005.313014
  0
LINE
  8
CSLAYER1
  6
CONTINUOUS
 62
     3
 10
2350.923466
 20
1560.558144
 11
2084.280439
 21
1242.534772
  0
LINE
  8
CSLAYER1
  6
CONTINUOUS
 62
     3
 10
2350.923466
 20
924.511400
 11
2617.566494
 21
1242.534772
  0
LINE
  8
CSLAYER1
  6
CONTINUOUS
 62
     3
 10
2350.923466
 20
784.431453
 11
2105.701241
 21
491.956530
  0
LINE
  8
CSLAYER1
  6
CONTINUOUS
 62
     4
 10
2416.048266
 20
1002.185317
 11
2281.617951
 21
1207.914226
  0
LINE
  8
CSLAYER1
  6
CENTER
 62
     5
 10
2280.531352
 20
812.401186
 11
2366.631009
 21
812.401186
  0
LINE
  8
CSLAYER1
  6
CENTER
 62
     5
 10
2323.717322
 20
854.320798
 11
2323.717322
 21
773.630543
  0
LINE
  8
CSLAYER1
  6
CONTINUOUS
 62
     5
 10
2350.923466
 20
868.295088
 11
2350.923466
 21
825.156530
  0
LINE
  8
CSLAYER1
  6
CONTINUOUS
 62
     5
 10
2332.371460
 20
848.245651
 11
2372.491195
 21
848.245651
  0
LINE
  8
CSLAYER1
  6
CONTINUOUS
 62
     5
 10
2626.225388
 20
1242.534772
 11
2686.518328
 21
1242.534772
  0
LINE
  8
CSLAYER1
  6
CONTINUOUS
 62
     5
 10
2650.191054
 20
1270.892038
 11
2650.191054
 21
1208.393259
  0
LINE
  8
CSLAYER1
  6
CONTINUOUS
 62
     5
 10
2051.655879
 20
1273.893898
 11
2051.655879
 21
1218.812345
  0
LINE
  8
CSLAYER1
  6
CONTINUOUS
 62
     5
 10
2019.688024
 20
1242.534772
 11
2074.519962
 21
1242.534772
  0
LINE
  8
CSLAYER1
  6
CONTINUOUS
 62
     5
 10
2320.515852
 20
1636.823893
 11
2384.265351
 21
1636.823893
  0
LINE
  8
CSLAYER1
  6
CONTINUOUS
 62
     5
 10
2350.923466
 20
1663.619178
 11
2350.923466
 21
1604.063724
  0
CIRCLE
  8
CSLAYER1
  6
CONTINUOUS
 62
     3
 10
2350.923466
 20
1636.823893
 40
12.500000
  0
CIRCLE
  8
CSLAYER1
  6
CONTINUOUS
 62
     3
 10
2051.655879
 20
1242.534772
 40
12.500000
  0
CIRCLE
  8
CSLAYER1
  6
CONTINUOUS
 62
     3
 10
2650.191054
 20
1242.534772
 40
12.500000
  0
CIRCLE
  8
CSLAYER1
  6
CONTINUOUS
 62
     3
 10
2350.923466
 20
848.245651
 40
12.500000
  0
LINE
  8
CSLAYER1
  6
CONTINUOUS
 62
     5
 10
2050.690557
 20
1313.249908
 11
2096.550927
 21
1313.249908
  0
LINE
  8
CSLAYER1
  6
CONTINUOUS
 62
     5
 10
2073.943453
 20
1313.249908
 11
2073.943453
 21
1285.785728
  0
LINE
  8
CSLAYER1
  6
CONTINUOUS
 62
     5
 10
3026.599980
 20
473.956530
 11
3026.599980
 21
433.956530
  0
LINE
  8
CSLAYER1
  6
CONTINUOUS
 62
     5
 10
3006.599980
 20
453.956530
 11
3046.599980
 21
453.956530
  0
LINE
  8
CSLAYER1
  6
CONTINUOUS
 62
     5
 10
3009.599980
 20
797.956530
 11
3043.599980
 21
797.956530
  0
LINE
  8
CSLAYER1
  6
CONTINUOUS
 62
     5
 10
3026.599980
 20
814.956530
 11
3026.599980
 21
780.956530
  0
POINT
  8
CSLAYER1
 62
     5
 10
2051.655879
 20
625.956530
  0
INSERT
  8
CSLAYER1
  2
BLKF0002
 10
0.0
 20
0.0
 30
0.0
  0
LINE
  8
CSLAYER1
  6
CONTINUOUS
 62
     3
 10
3067.455879
 20
3208.510918
 11
3067.455879
 21
2408.510918
  0
LINE
  8
CSLAYER1
  6
CONTINUOUS
 62
     3
 10
2017.455879
 20
3208.510918
 11
2017.455879
 21
2408.510918
  0
LINE
  8
CSLAYER1
  6
CONTINUOUS
 62
     3
 10
2017.455879
 20
3208.510918
 11
3067.455879
 21
3208.510918
  0
LINE
  8
CSLAYER1
  6
CONTINUOUS
 62
     3
 10
2017.455879
 20
2408.510918
 11
3067.455879
 21
2408.510918
  0
DIMENSION
  8
CSLAYER1
 62
     3
  2
*D0000
 10
3067.455879
 20
2179.826383
 11
2542.455811
 21
2194.826904
 13
2017.455879
 23
2058.313014
 14
3067.455879
 24
2058.313014
 70
1
  0
DIMENSION
  8
CSLAYER1
 62
     3
  2
*D0001
 10
3217.067257
 20
3208.510918
 11
3202.067383
 21
2808.511475
 13
3067.455879
 23
2408.510918
 14
3067.455879
 24
3208.510918
 50
90.000000
 70
1
  0
DIMENSION
  8
CSLAYER1
 62
     3
  2
*D0002
 10
3221.467053
 20
825.156530
 11
3206.467041
 21
626.056763
 13
3067.455879
 23
426.956530
 14
3067.455879
 24
825.156530
 50
90.000000
 70
1
  0
DIMENSION
  8
CSLAYER1
 62
     3
  2
*D0003
 10
3221.467053
 20
2058.313014
 11
3206.467041
 21
1441.734497
 13
3051.931181
 23
825.156530
 14
3051.931181
 24
2058.313014
 50
90.000000
 70
1
  0
DIMENSION
  8
CSLAYER1
 62
     3
  2
*D0004
 10
3361.002926
 20
426.956530
 11
3346.002930
 21
1242.634888
 13
3361.002926
 23
2058.313014
 14
3361.002926
 24
426.956530
 50
90.000000
 70
1
  0
DIMENSION
  8
CSLAYER1
 62
     3
  2
*D0005
 10
3067.655879
 20
285.742860
 11
2542.655762
 21
300.742828
 13
2017.655879
 23
426.956530
 14
3067.655879
 24
426.956530
 52
270.000000
 70
1
  0
DIMENSION
  8
CSLAYER1
 62
     3
  2
*D0006
 10
1287.874461
 20
277.333243
 11
887.874451
 21
292.333160
 13
487.874461
 23
426.956530
 14
1287.874461
 24
426.956530
 52
270.000000
 70
1
  0
LINE
  8
CSLAYER1
  6
CONTINUOUS
 62
     3
 10
3634.959056
 20
426.956530
 11
368.382727
 21
426.956530
  0
LINE
  8
CSLAYER1
  6
CENTER
 62
     5
 10
2017.455879
 20
2808.510918
 11
3101.042075
 21
2808.510918
  0
TEXT
  8
CSLAYER1
 62
     5
 10
974.836060
 20
2401.511475
 40
60.000000
 41
1.020000
  1
ＵＰ・ＤＯＷＮ
 50
0.000000
 51
0.000000
  7
EASYDRAW_FONT
 72
     5
 11
1382.836060
 21
2401.511475
  0
TEXT
  8
CSLAYER1
 62
     5
 10
968.266846
 20
2482.805420
 40
60.000000
 41
1.020000
  1
フットスイッチ
 50
0.000000
 51
0.000000
  7
EASYDRAW_FONT
 72
     5
 11
1376.266846
 21
2482.805420
  0
TEXT
  8
CSLAYER1
 62
     5
 10
1117.827393
 20
3177.496826
 40
60.000000
 41
1.028571
  1
電源コード
 50
0.000000
 51
0.000000
  7
EASYDRAW_FONT
 72
     5
 11
1405.827393
 21
3177.496826
  0
TEXT
  8
CSLAYER1
 62
     5
 10
1151.479736
 20
3099.336670
 40
60.000000
 41
1.036364
  1
長サ４ｍ
 50
0.000000
 51
0.000000
  7
EASYDRAW_FONT
 72
     5
 11
1379.479736
 21
3099.336670
  0
INSERT
  8
CSLAYER1
  2
BLKF0003
 10
0.0
 20
0.0
 30
0.0
  0
LINE
  8
CSLAYER1
  6
CONTINUOUS
 62
     5
 10
1474.373112
 20
2970.676191
 11
1422.895017
 21
3169.363573
  0
LINE
  8
CSLAYER1
  6
CONTINUOUS
 62
     5
 10
1474.373112
 20
2970.676191
 11
1452.196680
 21
3009.832363
  0
LINE
  8
CSLAYER1
  6
CONTINUOUS
 62
     5
 10
1474.373112
 20
2970.676191
 11
1474.745845
 21
3015.674647
  0
LINE
  8
CSLAYER1
  6
CONTINUOUS
 62
     5
 10
1488.758685
 20
2701.010918
 11
1395.278151
 21
2473.301924
  0
LINE
  8
CSLAYER1
  6
CONTINUOUS
 62
     5
 10
1488.758685
 20
2701.010918
 11
1483.025633
 21
2656.377611
  0
LINE
  8
CSLAYER1
  6
CONTINUOUS
 62
     5
 10
1488.758685
 20
2701.010918
 11
1461.477063
 21
2665.223866
  0
LINE
  8
CSLAYER1
  6
CONTINUOUS
 62
     5
 10
1095.280420
 20
3169.363573
 11
1422.895017
 21
3169.363573
  0
LINE
  8
CSLAYER1
  6
CONTINUOUS
 62
     5
 10
959.589456
 20
2473.301924
 11
1395.278151
 21
2473.301924
  0
TEXT
  8
CSLAYER1
 62
     5
 10
1465.815918
 20
730.735962
 40
60.000000
 41
1.028571
  1
上限・下限
 50
360.000000
 51
0.000000
  7
EASYDRAW_FONT
 72
     5
 11
1753.815918
 21
730.735962
  0
LINE
  8
CSLAYER1
  6
CONTINUOUS
 62
     4
 10
1135.374461
 20
491.956530
 11
1135.374461
 21
517.618275
  0
LINE
  8
CSLAYER1
  6
CONTINUOUS
 62
     4
 10
1140.835279
 20
535.646598
 11
1142.874461
 21
535.646598
  0
LINE
  8
CSLAYER1
  6
CONTINUOUS
 62
     4
 10
1142.874461
 20
535.646598
 11
1142.874461
 21
547.958335
  0
LINE
  8
CSLAYER1
  6
CONTINUOUS
 62
     2
 10
1135.374461
 20
504.567306
 11
1138.374461
 21
504.567306
  0
LINE
  8
CSLAYER1
  6
CONTINUOUS
 62
     2
 10
1135.374461
 20
508.914525
 11
1138.374461
 21
508.914525
  0
LINE
  8
CSLAYER1
  6
CONTINUOUS
 62
     4
 10
1135.374461
 20
517.618275
 11
1139.374461
 21
517.618275
  0
LINE
  8
CSLAYER1
  6
CONTINUOUS
 62
     2
 10
1138.374461
 20
491.956530
 11
1138.374461
 21
517.618275
  0
LINE
  8
CSLAYER1
  6
CONTINUOUS
 62
     4
 10
1154.374461
 20
491.956530
 11
1154.374461
 21
517.618275
  0
LINE
  8
CSLAYER1
  6
CONTINUOUS
 62
     2
 10
1138.374461
 20
508.332101
 11
1154.374461
 21
508.332101
  0
LINE
  8
CSLAYER1
  6
CONTINUOUS
 62
     2
 10
1155.374461
 20
502.081138
 11
1155.374461
 21
509.681138
  0
LINE
  8
CSLAYER1
  6
CONTINUOUS
 62
     4
 10
1155.374461
 20
502.081138
 11
1154.374461
 21
502.081138
  0
LINE
  8
CSLAYER1
  6
CONTINUOUS
 62
     4
 10
1155.374461
 20
509.681138
 11
1154.374461
 21
509.681138
  0
LINE
  8
CSLAYER1
  6
CONTINUOUS
 62
     4
 10
1157.974461
 20
504.381138
 11
1157.974461
 21
507.381138
  0
LINE
  8
CSLAYER1
  6
CONTINUOUS
 62
     4
 10
1155.974461
 20
502.381138
 11
1155.374461
 21
502.381138
  0
LINE
  8
CSLAYER1
  6
CONTINUOUS
 62
     4
 10
1155.974461
 20
509.381138
 11
1155.374461
 21
509.381138
  0
ARC
  8
CSLAYER1
  6
CONTINUOUS
 62
     4
 10
1155.974461
 20
504.381138
 40
2.000000
 50
270.000000
 51
360.000000
  0
ARC
  8
CSLAYER1
  6
CONTINUOUS
 62
     4
 10
1155.974461
 20
507.381138
 40
2.000000
 50
0.000000
 51
90.000000
  0
LINE
  8
CSLAYER1
  6
CONTINUOUS
 62
     4
 10
1153.374461
 20
517.618275
 11
1154.374461
 21
517.618275
  0
LINE
  8
CSLAYER1
  6
CONTINUOUS
 62
     2
 10
1144.374461
 20
535.646598
 11
1144.374461
 21
547.958335
  0
LINE
  8
CSLAYER1
  6
CONTINUOUS
 62
     4
 10
1153.374461
 20
523.662460
 11
1151.913643
 21
535.646598
  0
LINE
  8
CSLAYER1
  6
CONTINUOUS
 62
     4
 10
1139.374461
 20
523.662460
 11
1140.835279
 21
535.646598
  0
LINE
  8
CSLAYER1
  6
CONTINUOUS
 62
     4
 10
1139.374461
 20
508.332101
 11
1139.374461
 21
523.662460
  0
LINE
  8
CSLAYER1
  6
CONTINUOUS
 62
     2
 10
1153.374461
 20
508.332101
 11
1153.374461
 21
517.618275
  0
LINE
  8
CSLAYER1
  6
CONTINUOUS
 62
     4
 10
1149.874461
 20
535.646598
 11
1149.874461
 21
547.958335
  0
LINE
  8
CSLAYER1
  6
CONTINUOUS
 62
     4
 10
1149.874461
 20
535.646598
 11
1151.913643
 21
535.646598
  0
LINE
  8
CSLAYER1
  6
CONTINUOUS
 62
     2
 10
1148.374461
 20
535.646598
 11
1148.374461
 21
547.958335
  0
LINE
  8
CSLAYER1
  6
CONTINUOUS
 62
     4
 10
1142.874461
 20
547.958335
 11
1144.374461
 21
547.958335
  0
LINE
  8
CSLAYER1
  6
CONTINUOUS
 62
     2
 10
1142.874461
 20
547.450128
 11
1144.374461
 21
547.450128
  0
LINE
  8
CSLAYER1
  6
CONTINUOUS
 62
     4
 10
1143.628400
 20
564.383905
 11
1152.602560
 21
556.606299
  0
LINE
  8
CSLAYER1
  6
CONTINUOUS
 62
     1
 10
2086.805024
 20
531.142845
 11
2100.628106
 21
531.142845
  0
LINE
  8
CSLAYER1
  6
CONTINUOUS
 62
     1
 10
2093.920200
 20
538.842302
 11
2093.920200
 21
524.363816
  0
LINE
  8
CSLAYER1
  6
CENTER
 62
     5
 10
1133.657819
 20
531.142845
 11
1195.874461
 21
531.142845
  0
LINE
  8
CSLAYER1
  6
CONTINUOUS
 62
     7
 10
1139.874461
 20
536.142845
 11
1142.874461
 21
536.142845
  0
LINE
  8
CSLAYER1
  6
CONTINUOUS
 62
     7
 10
1153.072112
 20
526.142845
 11
1195.874461
 21
526.142845
  0
LINE
  8
CSLAYER1
  6
CONTINUOUS
 62
     7
 10
1139.874461
 20
536.142845
 11
1139.874461
 21
527.764319
  0
LINE
  8
CSLAYER1
  6
CONTINUOUS
 62
     7
 10
1149.874461
 20
536.142845
 11
1195.874461
 21
536.142845
  0
LINE
  8
CSLAYER1
  6
CONTINUOUS
 62
     4
 10
797.874461
 20
522.256530
 11
797.874461
 21
491.956530
  0
LINE
  8
CSLAYER1
  6
CONTINUOUS
 62
     4
 10
977.874461
 20
522.256530
 11
977.874461
 21
491.956530
  0
LINE
  8
CSLAYER1
  6
CONTINUOUS
 62
     4
 10
796.374461
 20
528.256530
 11
979.374461
 21
528.256530
  0
LINE
  8
CSLAYER1
  6
CONTINUOUS
 62
     4
 10
796.374461
 20
522.256530
 11
796.374461
 21
528.256530
  0
LINE
  8
CSLAYER1
  6
CONTINUOUS
 62
     2
 10
796.374461
 20
522.256530
 11
979.374461
 21
522.256530
  0
LINE
  8
CSLAYER1
  6
CONTINUOUS
 62
     4
 10
979.374461
 20
522.256530
 11
979.374461
 21
528.256530
  0
LINE
  8
CSLAYER1
  6
CONTINUOUS
 62
     2
 10
979.374461
 20
522.256530
 11
979.374461
 21
528.256530
  0
LINE
  8
CSLAYER1
  6
CONTINUOUS
 62
     2
 10
798.874461
 20
528.256530
 11
808.874461
 21
528.256530
  0
LINE
  8
CSLAYER1
  6
CONTINUOUS
 62
     2
 10
968.374461
 20
531.256530
 11
968.374461
 21
529.056530
  0
LINE
  8
CSLAYER1
  6
CONTINUOUS
 62
     2
 10
975.374461
 20
531.256530
 11
975.374461
 21
529.056530
  0
LINE
  8
CSLAYER1
  6
CONTINUOUS
 62
     2
 10
975.374461
 20
530.056530
 11
968.374461
 21
530.056530
  0
LINE
  8
CSLAYER1
  6
CONTINUOUS
 62
     2
 10
973.974461
 20
532.656530
 11
969.774461
 21
532.656530
  0
LINE
  8
CSLAYER1
  6
CONTINUOUS
 62
     2
 10
976.374461
 20
529.056530
 11
976.374461
 21
528.256530
  0
LINE
  8
CSLAYER1
  6
CONTINUOUS
 62
     2
 10
967.374461
 20
529.056530
 11
967.374461
 21
528.256530
  0
LINE
  8
CSLAYER1
  6
CONTINUOUS
 62
     2
 10
976.374461
 20
529.056530
 11
967.374461
 21
529.056530
  0
ARC
  8
CSLAYER1
  6
CONTINUOUS
 62
     2
 10
973.974461
 20
531.256530
 40
1.400000
 50
-0.000000
 51
90.000000
  0
ARC
  8
CSLAYER1
  6
CONTINUOUS
 62
     2
 10
969.774461
 20
531.256530
 40
1.400000
 50
90.000000
 51
180.000000
  0
LINE
  8
CSLAYER1
  6
CONTINUOUS
 62
     2
 10
972.914413
 20
529.056530
 11
970.529211
 21
530.056530
  0
LINE
  8
CSLAYER1
  6
CONTINUOUS
 62
     5
 10
971.874461
 20
534.484879
 11
971.874461
 21
519.286702
  0
LINE
  8
CSLAYER1
  6
CONTINUOUS
 62
     2
 10
800.374461
 20
531.256530
 11
800.374461
 21
529.056530
  0
LINE
  8
CSLAYER1
  6
CONTINUOUS
 62
     2
 10
807.374461
 20
531.256530
 11
807.374461
 21
529.056530
  0
LINE
  8
CSLAYER1
  6
CONTINUOUS
 62
     2
 10
807.374461
 20
530.056530
 11
800.374461
 21
530.056530
  0
LINE
  8
CSLAYER1
  6
CONTINUOUS
 62
     2
 10
805.974461
 20
532.656530
 11
801.774461
 21
532.656530
  0
LINE
  8
CSLAYER1
  6
CONTINUOUS
 62
     2
 10
808.374461
 20
529.056530
 11
808.374461
 21
528.256530
  0
LINE
  8
CSLAYER1
  6
CONTINUOUS
 62
     2
 10
799.374461
 20
529.056530
 11
799.374461
 21
528.256530
  0
LINE
  8
CSLAYER1
  6
CONTINUOUS
 62
     2
 10
808.374461
 20
529.056530
 11
799.374461
 21
529.056530
  0
ARC
  8
CSLAYER1
  6
CONTINUOUS
 62
     2
 10
805.974461
 20
531.256530
 40
1.400000
 50
-0.000000
 51
90.000000
  0
ARC
  8
CSLAYER1
  6
CONTINUOUS
 62
     2
 10
801.774461
 20
531.256530
 40
1.400000
 50
90.000000
 51
180.000000
  0
LINE
  8
CSLAYER1
  6
CONTINUOUS
 62
     2
 10
804.914413
 20
529.056530
 11
802.529211
 21
530.056530
  0
LINE
  8
CSLAYER1
  6
CONTINUOUS
 62
     5
 10
803.874461
 20
534.484879
 11
803.874461
 21
519.286702
  0
LINE
  8
CSLAYER1
  6
CONTINUOUS
 62
     5
 10
877.019619
 20
507.256530
 11
907.897750
 21
507.256530
  0
LINE
  8
CSLAYER1
  6
CONTINUOUS
 62
     5
 10
922.874461
 20
518.055640
 11
922.874461
 21
491.956530
  0
LINE
  8
CSLAYER1
  6
CONTINUOUS
 62
     5
 10
892.874461
 20
522.256530
 11
892.874461
 21
491.866249
  0
ARC
  8
CSLAYER1
  6
CONTINUOUS
 62
     2
 10
922.874461
 20
507.256530
 40
6.500000
 50
-59.489763
 51
239.489763
  0
ARC
  8
CSLAYER1
  6
CONTINUOUS
 62
     2
 10
892.874461
 20
507.256530
 40
10.500000
 50
-55.150095
 51
231.502580
  0
ARC
  8
CSLAYER1
  6
CONTINUOUS
 62
     2
 10
892.874461
 20
507.256530
 40
6.000000
 50
0.000000
 51
180.000000
  0
ARC
  8
CSLAYER1
  6
CONTINUOUS
 62
     2
 10
922.874461
 20
507.256530
 40
3.300000
 50
0.000000
 51
180.000000
  0
LINE
  8
CSLAYER1
  6
CONTINUOUS
 62
     2
 10
886.874461
 20
507.256530
 11
886.874461
 21
491.956530
  0
LINE
  8
CSLAYER1
  6
CONTINUOUS
 62
     2
 10
898.874461
 20
507.256530
 11
898.874461
 21
491.956530
  0
LINE
  8
CSLAYER1
  6
CONTINUOUS
 62
     2
 10
919.574461
 20
507.256530
 11
919.574461
 21
491.956530
  0
LINE
  8
CSLAYER1
  6
CONTINUOUS
 62
     2
 10
926.174461
 20
507.256530
 11
926.174461
 21
491.956530
  0
LINE
  8
CSLAYER1
  6
CONTINUOUS
 62
     5
 10
913.975318
 20
507.256530
 11
933.038960
 21
507.256530
  0
POINT
  8
CSLAYER1
 62
     2
 10
817.874461
 20
507.256530
  0
POINT
  8
CSLAYER1
 62
     2
 10
857.874461
 20
507.256530
  0
LINE
  8
CSLAYER1
  6
CONTINUOUS
 62
     3
 10
994.874461
 20
782.151186
 11
994.874461
 21
749.592181
  0
LINE
  8
CSLAYER1
  6
CONTINUOUS
 62
     3
 10
1010.874461
 20
782.151186
 11
1010.874461
 21
749.592181
  0
LINE
  8
CSLAYER1
  6
CONTINUOUS
 62
     3
 10
1012.874461
 20
777.098613
 11
1012.874461
 21
782.151186
  0
LINE
  8
CSLAYER1
  6
CONTINUOUS
 62
     3
 10
1022.874461
 20
779.098613
 11
1022.874461
 21
782.151186
  0
LINE
  8
CSLAYER1
  6
CONTINUOUS
 62
     3
 10
1020.874461
 20
777.098613
 11
1020.874461
 21
782.151186
  0
LINE
  8
CSLAYER1
  6
CONTINUOUS
 62
     3
 10
1012.874461
 20
777.098613
 11
1020.874461
 21
777.098613
  0
LINE
  8
CSLAYER1
  6
CONTINUOUS
 62
     3
 10
1020.874461
 20
777.098613
 11
1022.874461
 21
779.098613
  0
LINE
  8
CSLAYER1
  6
CONTINUOUS
 62
     3
 10
1010.874461
 20
779.098613
 11
1012.874461
 21
779.098613
  0
LINE
  8
CSLAYER1
  6
CONTINUOUS
 62
     3
 10
993.874461
 20
779.098613
 11
994.874461
 21
779.098613
  0
LINE
  8
CSLAYER1
  6
CONTINUOUS
 62
     3
 10
780.874461
 20
782.151186
 11
780.874461
 21
749.592181
  0
LINE
  8
CSLAYER1
  6
CONTINUOUS
 62
     3
 10
764.874461
 20
782.151186
 11
764.874461
 21
749.592181
  0
LINE
  8
CSLAYER1
  6
CONTINUOUS
 62
     3
 10
762.874461
 20
777.098613
 11
762.874461
 21
782.151186
  0
LINE
  8
CSLAYER1
  6
CONTINUOUS
 62
     3
 10
752.874461
 20
779.098613
 11
752.874461
 21
782.151186
  0
LINE
  8
CSLAYER1
  6
CONTINUOUS
 62
     3
 10
754.874461
 20
777.098613
 11
754.874461
 21
782.151186
  0
LINE
  8
CSLAYER1
  6
CONTINUOUS
 62
     3
 10
762.874461
 20
777.098613
 11
754.874461
 21
777.098613
  0
LINE
  8
CSLAYER1
  6
CONTINUOUS
 62
     3
 10
754.874461
 20
777.098613
 11
752.874461
 21
779.098613
  0
LINE
  8
CSLAYER1
  6
CONTINUOUS
 62
     3
 10
764.874461
 20
779.098613
 11
762.874461
 21
779.098613
  0
LINE
  8
CSLAYER1
  6
CONTINUOUS
 62
     3
 10
781.874461
 20
779.098613
 11
780.874461
 21
779.098613
  0
LINE
  8
CSLAYER1
  6
CONTINUOUS
 62
     3
 10
951.318150
 20
775.998170
 11
824.430773
 21
775.998170
  0
LINE
  8
CSLAYER1
  6
CONTINUOUS
 62
     3
 10
993.874461
 20
782.151186
 11
993.874461
 21
770.321626
  0
LINE
  8
CSLAYER1
  6
CONTINUOUS
 62
     3
 10
966.815981
 20
749.592181
 11
988.673481
 21
761.548405
  0
LINE
  8
CSLAYER1
  6
CONTINUOUS
 62
     3
 10
956.117170
 20
777.224949
 11
965.122959
 21
782.151186
  0
LINE
  8
CSLAYER1
  6
CONTINUOUS
 62
     3
 10
932.374461
 20
1184.382156
 11
932.374461
 21
860.745651
  0
LINE
  8
CSLAYER1
  6
CONTINUOUS
 62
     3
 10
972.874461
 20
678.296377
 11
949.874461
 21
678.296377
  0
LINE
  8
CSLAYER1
  6
CONTINUOUS
 62
     3
 10
949.874461
 20
578.344032
 11
972.874461
 21
578.344032
  0
LINE
  8
CSLAYER1
  6
CONTINUOUS
 62
     3
 10
932.374461
 20
1184.382156
 11
932.205125
 21
1186.494501
  0
LINE
  8
CSLAYER1
  6
CONTINUOUS
 62
     3
 10
932.205125
 20
1186.494501
 11
931.698406
 21
1188.590769
  0
LINE
  8
CSLAYER1
  6
CONTINUOUS
 62
     3
 10
931.698406
 20
1188.590769
 11
930.858160
 21
1190.655008
  0
LINE
  8
CSLAYER1
  6
CONTINUOUS
 62
     3
 10
930.858160
 20
1190.655008
 11
929.690783
 21
1192.671506
  0
LINE
  8
CSLAYER1
  6
CONTINUOUS
 62
     3
 10
929.690783
 20
1192.671506
 11
928.205158
 21
1194.624917
  0
LINE
  8
CSLAYER1
  6
CONTINUOUS
 62
     3
 10
928.205158
 20
1194.624917
 11
926.412592
 21
1196.500375
  0
LINE
  8
CSLAYER1
  6
CONTINUOUS
 62
     3
 10
926.412592
 20
1196.500375
 11
924.326727
 21
1198.283605
  0
LINE
  8
CSLAYER1
  6
CONTINUOUS
 62
     3
 10
924.326727
 20
1198.283605
 11
921.963439
 21
1199.961038
  0
LINE
  8
CSLAYER1
  6
CONTINUOUS
 62
     3
 10
921.963439
 20
1199.961038
 11
919.340713
 21
1201.519905
  0
LINE
  8
CSLAYER1
  6
CONTINUOUS
 62
     3
 10
919.340713
 20
1201.519905
 11
918.124461
 21
1202.126900
  0
LINE
  8
CSLAYER1
  6
CONTINUOUS
 62
     3
 10
887.874461
 20
1160.145719
 11
891.752892
 21
1160.237946
  0
LINE
  8
CSLAYER1
  6
CONTINUOUS
 62
     3
 10
891.752892
 20
1160.237946
 11
895.601805
 21
1160.513925
  0
LINE
  8
CSLAYER1
  6
CONTINUOUS
 62
     3
 10
895.601805
 20
1160.513925
 11
899.391909
 21
1160.971556
  0
LINE
  8
CSLAYER1
  6
CONTINUOUS
 62
     3
 10
899.391909
 20
1160.971556
 11
903.094358
 21
1161.607355
  0
LINE
  8
CSLAYER1
  6
CONTINUOUS
 62
     3
 10
903.094358
 20
1161.607355
 11
906.680974
 21
1162.416484
  0
LINE
  8
CSLAYER1
  6
CONTINUOUS
 62
     3
 10
906.680974
 20
1162.416484
 11
910.124461
 21
1163.392786
  0
LINE
  8
CSLAYER1
  6
CONTINUOUS
 62
     3
 10
910.124461
 20
1163.392786
 11
913.398613
 21
1164.528829
  0
LINE
  8
CSLAYER1
  6
CONTINUOUS
 62
     3
 10
913.398613
 20
1164.528829
 11
916.478510
 21
1165.815968
  0
LINE
  8
CSLAYER1
  6
CONTINUOUS
 62
     3
 10
916.478510
 20
1165.815968
 11
919.340713
 21
1167.244407
  0
LINE
  8
CSLAYER1
  6
CONTINUOUS
 62
     3
 10
919.340713
 20
1167.244407
 11
921.963439
 21
1168.803275
  0
LINE
  8
CSLAYER1
  6
CONTINUOUS
 62
     3
 10
921.963439
 20
1168.803275
 11
924.326727
 21
1170.480707
  0
LINE
  8
CSLAYER1
  6
CONTINUOUS
 62
     3
 10
924.326727
 20
1170.480707
 11
926.412592
 21
1172.263938
  0
LINE
  8
CSLAYER1
  6
CONTINUOUS
 62
     3
 10
926.412592
 20
1172.263938
 11
928.205158
 21
1174.139395
  0
LINE
  8
CSLAYER1
  6
CONTINUOUS
 62
     3
 10
928.205158
 20
1174.139395
 11
929.690783
 21
1176.092806
  0
LINE
  8
CSLAYER1
  6
CONTINUOUS
 62
     3
 10
929.690783
 20
1176.092806
 11
930.858160
 21
1178.109305
  0
LINE
  8
CSLAYER1
  6
CONTINUOUS
 62
     3
 10
930.858160
 20
1178.109305
 11
931.698406
 21
1180.173543
  0
LINE
  8
CSLAYER1
  6
CONTINUOUS
 62
     3
 10
931.698406
 20
1180.173543
 11
932.205125
 21
1182.269811
  0
LINE
  8
CSLAYER1
  6
CONTINUOUS
 62
     3
 10
932.205125
 20
1182.269811
 11
932.374461
 21
1184.382156
  0
LINE
  8
CSLAYER1
  6
CONTINUOUS
 62
     3
 10
918.124461
 20
1184.382156
 11
918.009351
 21
1185.818076
  0
LINE
  8
CSLAYER1
  6
CONTINUOUS
 62
     3
 10
887.874461
 20
1167.906825
 11
890.510922
 21
1167.969519
  0
LINE
  8
CSLAYER1
  6
CONTINUOUS
 62
     3
 10
890.510922
 20
1167.969519
 11
893.127319
 21
1168.157123
  0
LINE
  8
CSLAYER1
  6
CONTINUOUS
 62
     3
 10
893.127319
 20
1168.157123
 11
895.703737
 21
1168.468209
  0
LINE
  8
CSLAYER1
  6
CONTINUOUS
 62
     3
 10
895.703737
 20
1168.468209
 11
898.220571
 21
1168.900409
  0
LINE
  8
CSLAYER1
  6
CONTINUOUS
 62
     3
 10
898.220571
 20
1168.900409
 11
900.658664
 21
1169.450435
  0
LINE
  8
CSLAYER1
  6
CONTINUOUS
 62
     3
 10
900.658664
 20
1169.450435
 11
902.999461
 21
1170.114101
  0
LINE
  8
CSLAYER1
  6
CONTINUOUS
 62
     3
 10
902.999461
 20
1170.114101
 11
905.225148
 21
1170.886355
  0
LINE
  8
CSLAYER1
  6
CONTINUOUS
 62
     3
 10
905.225148
 20
1170.886355
 11
907.318786
 21
1171.761320
  0
LINE
  8
CSLAYER1
  6
CONTINUOUS
 62
     3
 10
907.318786
 20
1171.761320
 11
909.264441
 21
1172.732338
  0
LINE
  8
CSLAYER1
  6
CONTINUOUS
 62
     3
 10
909.264441
 20
1172.732338
 11
911.047306
 21
1173.792018
  0
LINE
  8
CSLAYER1
  6
CONTINUOUS
 62
     3
 10
911.047306
 20
1173.792018
 11
912.653811
 21
1174.932295
  0
LINE
  8
CSLAYER1
  6
CONTINUOUS
 62
     3
 10
912.653811
 20
1174.932295
 11
914.071730
 21
1176.144491
  0
LINE
  8
CSLAYER1
  6
CONTINUOUS
 62
     3
 10
914.071730
 20
1176.144491
 11
915.290272
 21
1177.419380
  0
LINE
  8
CSLAYER1
  6
CONTINUOUS
 62
     3
 10
915.290272
 20
1177.419380
 11
916.300163
 21
1178.747261
  0
LINE
  8
CSLAYER1
  6
CONTINUOUS
 62
     3
 10
916.300163
 20
1178.747261
 11
917.093717
 21
1180.118027
  0
LINE
  8
CSLAYER1
  6
CONTINUOUS
 62
     3
 10
917.093717
 20
1180.118027
 11
917.664896
 21
1181.521245
  0
LINE
  8
CSLAYER1
  6
CONTINUOUS
 62
     3
 10
917.664896
 20
1181.521245
 11
918.009351
 21
1182.946236
  0
LINE
  8
CSLAYER1
  6
CONTINUOUS
 62
     3
 10
918.009351
 20
1182.946236
 11
918.124461
 21
1184.382156
  0
LINE
  8
CSLAYER1
  6
CONTINUOUS
 62
     3
 10
887.874461
 20
681.238151
 11
893.103806
 21
681.362502
  0
LINE
  8
CSLAYER1
  6
CONTINUOUS
 62
     3
 10
893.103806
 20
681.362502
 11
898.293352
 21
681.734608
  0
LINE
  8
CSLAYER1
  6
CONTINUOUS
 62
     3
 10
898.293352
 20
681.734608
 11
903.403604
 21
682.351638
  0
LINE
  8
CSLAYER1
  6
CONTINUOUS
 62
     3
 10
903.403604
 20
682.351638
 11
908.395670
 21
683.208896
  0
LINE
  8
CSLAYER1
  6
CONTINUOUS
 62
     3
 10
908.395670
 20
683.208896
 11
913.231557
 21
684.299857
  0
LINE
  8
CSLAYER1
  6
CONTINUOUS
 62
     3
 10
913.231557
 20
684.299857
 11
917.874461
 21
685.616218
  0
LINE
  8
CSLAYER1
  6
CONTINUOUS
 62
     3
 10
917.874461
 20
685.616218
 11
922.289047
 21
687.147962
  0
LINE
  8
CSLAYER1
  6
CONTINUOUS
 62
     3
 10
922.289047
 20
687.147962
 11
926.441718
 21
688.883430
  0
LINE
  8
CSLAYER1
  6
CONTINUOUS
 62
     3
 10
926.441718
 20
688.883430
 11
926.859998
 21
689.092181
  0
LINE
  8
CSLAYER1
  6
CONTINUOUS
 62
     3
 10
887.874461
 20
559.783512
 11
893.278117
 21
559.912008
  0
LINE
  8
CSLAYER1
  6
CONTINUOUS
 62
     3
 10
893.278117
 20
559.912008
 11
898.640648
 21
560.296518
  0
LINE
  8
CSLAYER1
  6
CONTINUOUS
 62
     3
 10
898.640648
 20
560.296518
 11
903.921242
 21
560.934116
  0
LINE
  8
CSLAYER1
  6
CONTINUOUS
 62
     3
 10
903.921242
 20
560.934116
 11
909.079710
 21
561.819949
  0
LINE
  8
CSLAYER1
  6
CONTINUOUS
 62
     3
 10
909.079710
 20
561.819949
 11
914.076793
 21
562.947275
  0
LINE
  8
CSLAYER1
  6
CONTINUOUS
 62
     3
 10
914.076793
 20
562.947275
 11
918.874461
 21
564.307515
  0
LINE
  8
CSLAYER1
  6
CONTINUOUS
 62
     3
 10
918.874461
 20
564.307515
 11
923.436200
 21
565.890317
  0
LINE
  8
CSLAYER1
  6
CONTINUOUS
 62
     3
 10
923.436200
 20
565.890317
 11
927.727293
 21
567.683634
  0
LINE
  8
CSLAYER1
  6
CONTINUOUS
 62
     3
 10
927.727293
 20
567.683634
 11
931.715082
 21
569.673819
  0
LINE
  8
CSLAYER1
  6
CONTINUOUS
 62
     3
 10
931.715082
 20
569.673819
 11
935.369217
 21
571.845724
  0
LINE
  8
CSLAYER1
  6
CONTINUOUS
 62
     3
 10
935.369217
 20
571.845724
 11
938.661888
 21
574.182821
  0
LINE
  8
CSLAYER1
  6
CONTINUOUS
 62
     3
 10
938.661888
 20
574.182821
 11
941.568036
 21
576.667322
  0
LINE
  8
CSLAYER1
  6
CONTINUOUS
 62
     3
 10
941.568036
 20
576.667322
 11
944.065544
 21
579.280319
  0
LINE
  8
CSLAYER1
  6
CONTINUOUS
 62
     3
 10
944.065544
 20
579.280319
 11
946.135404
 21
582.001926
  0
LINE
  8
CSLAYER1
  6
CONTINUOUS
 62
     3
 10
946.135404
 20
582.001926
 11
947.761862
 21
584.811429
  0
LINE
  8
CSLAYER1
  6
CONTINUOUS
 62
     3
 10
947.761862
 20
584.811429
 11
948.932542
 21
587.687446
  0
LINE
  8
CSLAYER1
  6
CONTINUOUS
 62
     3
 10
948.932542
 20
587.687446
 11
949.638532
 21
590.608090
  0
LINE
  8
CSLAYER1
  6
CONTINUOUS
 62
     3
 10
949.638532
 20
590.608090
 11
949.874461
 21
593.551132
  0
LINE
  8
CSLAYER1
  6
CONTINUOUS
 62
     3
 10
949.874461
 20
544.816735
 11
949.638532
 21
547.759777
  0
LINE
  8
CSLAYER1
  6
CONTINUOUS
 62
     3
 10
941.877339
 20
528.256530
 11
944.065544
 21
530.545922
  0
LINE
  8
CSLAYER1
  6
CONTINUOUS
 62
     3
 10
944.065544
 20
530.545922
 11
946.135404
 21
533.267528
  0
LINE
  8
CSLAYER1
  6
CONTINUOUS
 62
     3
 10
946.135404
 20
533.267528
 11
947.761862
 21
536.077032
  0
LINE
  8
CSLAYER1
  6
CONTINUOUS
 62
     3
 10
947.761862
 20
536.077032
 11
948.932542
 21
538.953049
  0
LINE
  8
CSLAYER1
  6
CONTINUOUS
 62
     3
 10
948.932542
 20
538.953049
 11
949.638532
 21
541.873693
  0
LINE
  8
CSLAYER1
  6
CONTINUOUS
 62
     3
 10
949.638532
 20
541.873693
 11
949.874461
 21
544.816735
  0
LINE
  8
CSLAYER1
  6
CONTINUOUS
 62
     3
 10
949.874461
 20
678.296377
 11
949.874461
 21
544.816735
  0
LINE
  8
CSLAYER1
  6
CONTINUOUS
 62
     3
 10
887.874461
 20
560.872790
 11
893.103806
 21
560.997141
  0
LINE
  8
CSLAYER1
  6
CONTINUOUS
 62
     3
 10
893.103806
 20
560.997141
 11
898.293352
 21
561.369247
  0
LINE
  8
CSLAYER1
  6
CONTINUOUS
 62
     3
 10
898.293352
 20
561.369247
 11
903.403604
 21
561.986277
  0
LINE
  8
CSLAYER1
  6
CONTINUOUS
 62
     3
 10
903.403604
 20
561.986277
 11
908.395670
 21
562.843535
  0
LINE
  8
CSLAYER1
  6
CONTINUOUS
 62
     3
 10
908.395670
 20
562.843535
 11
913.231557
 21
563.934496
  0
LINE
  8
CSLAYER1
  6
CONTINUOUS
 62
     3
 10
913.231557
 20
563.934496
 11
917.874461
 21
565.250858
  0
LINE
  8
CSLAYER1
  6
CONTINUOUS
 62
     3
 10
917.874461
 20
565.250858
 11
922.289047
 21
566.782601
  0
LINE
  8
CSLAYER1
  6
CONTINUOUS
 62
     3
 10
922.289047
 20
566.782601
 11
926.441718
 21
568.518070
  0
LINE
  8
CSLAYER1
  6
CONTINUOUS
 62
     3
 10
926.441718
 20
568.518070
 11
930.300868
 21
570.444055
  0
LINE
  8
CSLAYER1
  6
CONTINUOUS
 62
     3
 10
930.300868
 20
570.444055
 11
933.837128
 21
572.545899
  0
LINE
  8
CSLAYER1
  6
CONTINUOUS
 62
     3
 10
933.837128
 20
572.545899
 11
937.023584
 21
574.807605
  0
LINE
  8
CSLAYER1
  6
CONTINUOUS
 62
     3
 10
937.023584
 20
574.807605
 11
939.835985
 21
577.211961
  0
LINE
  8
CSLAYER1
  6
CONTINUOUS
 62
     3
 10
939.835985
 20
577.211961
 11
942.252928
 21
579.740668
  0
LINE
  8
CSLAYER1
  6
CONTINUOUS
 62
     3
 10
942.252928
 20
579.740668
 11
944.256018
 21
582.374481
  0
LINE
  8
CSLAYER1
  6
CONTINUOUS
 62
     3
 10
944.256018
 20
582.374481
 11
945.830011
 21
585.093355
  0
LINE
  8
CSLAYER1
  6
CONTINUOUS
 62
     3
 10
945.830011
 20
585.093355
 11
946.962926
 21
587.876597
  0
LINE
  8
CSLAYER1
  6
CONTINUOUS
 62
     3
 10
946.962926
 20
587.876597
 11
947.646143
 21
590.703027
  0
LINE
  8
CSLAYER1
  6
CONTINUOUS
 62
     3
 10
947.646143
 20
590.703027
 11
947.874461
 21
593.551132
  0
LINE
  8
CSLAYER1
  6
CONTINUOUS
 62
     3
 10
947.874461
 20
689.092181
 11
947.874461
 21
593.551132
  0
LINE
  8
CSLAYER1
  6
CONTINUOUS
 62
     3
 10
947.874461
 20
602.014213
 11
948.932542
 21
599.414818
  0
LINE
  8
CSLAYER1
  6
CONTINUOUS
 62
     3
 10
948.932542
 20
599.414818
 11
949.638532
 21
596.494174
  0
LINE
  8
CSLAYER1
  6
CONTINUOUS
 62
     3
 10
949.638532
 20
596.494174
 11
949.874461
 21
593.551132
  0
LINE
  8
CSLAYER1
  6
CONTINUOUS
 62
     4
 10
941.644366
 20
689.092181
 11
941.644366
 21
579.103964
  0
LINE
  8
CSLAYER1
  6
CONTINUOUS
 62
     4
 10
934.537602
 20
689.092181
 11
934.537602
 21
572.981426
  0
LINE
  8
CSLAYER1
  6
CONTINUOUS
 62
     4
 10
922.255675
 20
687.136383
 11
922.255675
 21
566.819699
  0
LINE
  8
CSLAYER1
  6
CONTINUOUS
 62
     4
 10
917.321458
 20
685.459430
 11
917.321458
 21
565.094069
  0
LINE
  8
CSLAYER1
  6
CONTINUOUS
 62
     4
 10
899.480152
 20
681.890350
 11
899.480152
 21
561.512546
  0
ARC
  8
CSLAYER1
  6
CONTINUOUS
 62
     3
 10
951.318150
 20
785.998170
 40
10.000000
 50
270.000000
 51
298.679003
  0
ARC
  8
CSLAYER1
  6
CONTINUOUS
 62
     3
 10
983.874461
 20
770.321626
 40
10.000000
 50
298.679003
 51
360.000000
  0
LINE
  8
CSLAYER1
  6
CONTINUOUS
 62
     3
 10
781.874461
 20
782.151186
 11
781.874461
 21
770.321626
  0
LINE
  8
CSLAYER1
  6
CONTINUOUS
 62
     3
 10
808.932942
 20
749.592181
 11
787.075441
 21
761.548405
  0
LINE
  8
CSLAYER1
  6
CONTINUOUS
 62
     3
 10
819.631753
 20
777.224949
 11
810.625964
 21
782.151186
  0
LINE
  8
CSLAYER1
  6
CONTINUOUS
 62
     3
 10
843.374461
 20
1184.382156
 11
843.374461
 21
860.745651
  0
LINE
  8
CSLAYER1
  6
CONTINUOUS
 62
     3
 10
843.374461
 20
1184.382156
 11
843.543797
 21
1186.494501
  0
LINE
  8
CSLAYER1
  6
CONTINUOUS
 62
     3
 10
843.543797
 20
1186.494501
 11
844.050516
 21
1188.590769
  0
LINE
  8
CSLAYER1
  6
CONTINUOUS
 62
     3
 10
844.050516
 20
1188.590769
 11
844.890762
 21
1190.655008
  0
LINE
  8
CSLAYER1
  6
CONTINUOUS
 62
     3
 10
844.890762
 20
1190.655008
 11
846.058140
 21
1192.671506
  0
LINE
  8
CSLAYER1
  6
CONTINUOUS
 62
     3
 10
846.058140
 20
1192.671506
 11
847.543765
 21
1194.624917
  0
LINE
  8
CSLAYER1
  6
CONTINUOUS
 62
     3
 10
847.543765
 20
1194.624917
 11
849.336331
 21
1196.500375
  0
LINE
  8
CSLAYER1
  6
CONTINUOUS
 62
     3
 10
849.336331
 20
1196.500375
 11
851.422195
 21
1198.283605
  0
LINE
  8
CSLAYER1
  6
CONTINUOUS
 62
     3
 10
851.422195
 20
1198.283605
 11
853.785483
 21
1199.961038
  0
LINE
  8
CSLAYER1
  6
CONTINUOUS
 62
     3
 10
853.785483
 20
1199.961038
 11
856.408209
 21
1201.519905
  0
LINE
  8
CSLAYER1
  6
CONTINUOUS
 62
     3
 10
856.408209
 20
1201.519905
 11
857.624461
 21
1202.126900
  0
LINE
  8
CSLAYER1
  6
CONTINUOUS
 62
     3
 10
887.874461
 20
1160.145719
 11
883.996031
 21
1160.237946
  0
LINE
  8
CSLAYER1
  6
CONTINUOUS
 62
     3
 10
883.996031
 20
1160.237946
 11
880.147117
 21
1160.513925
  0
LINE
  8
CSLAYER1
  6
CONTINUOUS
 62
     3
 10
880.147117
 20
1160.513925
 11
876.357014
 21
1160.971556
  0
LINE
  8
CSLAYER1
  6
CONTINUOUS
 62
     3
 10
876.357014
 20
1160.971556
 11
872.654565
 21
1161.607355
  0
LINE
  8
CSLAYER1
  6
CONTINUOUS
 62
     3
 10
872.654565
 20
1161.607355
 11
869.067949
 21
1162.416484
  0
LINE
  8
CSLAYER1
  6
CONTINUOUS
 62
     3
 10
869.067949
 20
1162.416484
 11
865.624461
 21
1163.392786
  0
LINE
  8
CSLAYER1
  6
CONTINUOUS
 62
     3
 10
865.624461
 20
1163.392786
 11
862.350310
 21
1164.528829
  0
LINE
  8
CSLAYER1
  6
CONTINUOUS
 62
     3
 10
862.350310
 20
1164.528829
 11
859.270413
 21
1165.815968
  0
LINE
  8
CSLAYER1
  6
CONTINUOUS
 62
     3
 10
859.270413
 20
1165.815968
 11
856.408209
 21
1167.244407
  0
LINE
  8
CSLAYER1
  6
CONTINUOUS
 62
     3
 10
856.408209
 20
1167.244407
 11
853.785483
 21
1168.803275
  0
LINE
  8
CSLAYER1
  6
CONTINUOUS
 62
     3
 10
853.785483
 20
1168.803275
 11
851.422195
 21
1170.480707
  0
LINE
  8
CSLAYER1
  6
CONTINUOUS
 62
     3
 10
851.422195
 20
1170.480707
 11
849.336331
 21
1172.263938
  0
LINE
  8
CSLAYER1
  6
CONTINUOUS
 62
     3
 10
849.336331
 20
1172.263938
 11
847.543765
 21
1174.139395
  0
LINE
  8
CSLAYER1
  6
CONTINUOUS
 62
     3
 10
847.543765
 20
1174.139395
 11
846.058140
 21
1176.092806
  0
LINE
  8
CSLAYER1
  6
CONTINUOUS
 62
     3
 10
846.058140
 20
1176.092806
 11
844.890762
 21
1178.109305
  0
LINE
  8
CSLAYER1
  6
CONTINUOUS
 62
     3
 10
844.890762
 20
1178.109305
 11
844.050516
 21
1180.173543
  0
LINE
  8
CSLAYER1
  6
CONTINUOUS
 62
     3
 10
844.050516
 20
1180.173543
 11
843.543797
 21
1182.269811
  0
LINE
  8
CSLAYER1
  6
CONTINUOUS
 62
     3
 10
843.543797
 20
1182.269811
 11
843.374461
 21
1184.382156
  0
LINE
  8
CSLAYER1
  6
CONTINUOUS
 62
     3
 10
857.624461
 20
1184.382156
 11
857.739572
 21
1185.818076
  0
LINE
  8
CSLAYER1
  6
CONTINUOUS
 62
     3
 10
887.874461
 20
1167.906825
 11
885.238000
 21
1167.969519
  0
LINE
  8
CSLAYER1
  6
CONTINUOUS
 62
     3
 10
885.238000
 20
1167.969519
 11
882.621604
 21
1168.157123
  0
LINE
  8
CSLAYER1
  6
CONTINUOUS
 62
     3
 10
882.621604
 20
1168.157123
 11
880.045185
 21
1168.468209
  0
LINE
  8
CSLAYER1
  6
CONTINUOUS
 62
     3
 10
880.045185
 20
1168.468209
 11
877.528352
 21
1168.900409
  0
LINE
  8
CSLAYER1
  6
CONTINUOUS
 62
     3
 10
877.528352
 20
1168.900409
 11
875.090259
 21
1169.450435
  0
LINE
  8
CSLAYER1
  6
CONTINUOUS
 62
     3
 10
875.090259
 20
1169.450435
 11
872.749461
 21
1170.114101
  0
LINE
  8
CSLAYER1
  6
CONTINUOUS
 62
     3
 10
872.749461
 20
1170.114101
 11
870.523774
 21
1170.886355
  0
LINE
  8
CSLAYER1
  6
CONTINUOUS
 62
     3
 10
870.523774
 20
1170.886355
 11
868.430136
 21
1171.761320
  0
LINE
  8
CSLAYER1
  6
CONTINUOUS
 62
     3
 10
868.430136
 20
1171.761320
 11
866.484481
 21
1172.732338
  0
LINE
  8
CSLAYER1
  6
CONTINUOUS
 62
     3
 10
866.484481
 20
1172.732338
 11
864.701617
 21
1173.792018
  0
LINE
  8
CSLAYER1
  6
CONTINUOUS
 62
     3
 10
864.701617
 20
1173.792018
 11
863.095112
 21
1174.932295
  0
LINE
  8
CSLAYER1
  6
CONTINUOUS
 62
     3
 10
863.095112
 20
1174.932295
 11
861.677193
 21
1176.144491
  0
LINE
  8
CSLAYER1
  6
CONTINUOUS
 62
     3
 10
861.677193
 20
1176.144491
 11
860.458651
 21
1177.419380
  0
LINE
  8
CSLAYER1
  6
CONTINUOUS
 62
     3
 10
860.458651
 20
1177.419380
 11
859.448759
 21
1178.747261
  0
LINE
  8
CSLAYER1
  6
CONTINUOUS
 62
     3
 10
859.448759
 20
1178.747261
 11
858.655205
 21
1180.118027
  0
LINE
  8
CSLAYER1
  6
CONTINUOUS
 62
     3
 10
858.655205
 20
1180.118027
 11
858.084027
 21
1181.521245
  0
LINE
  8
CSLAYER1
  6
CONTINUOUS
 62
     3
 10
858.084027
 20
1181.521245
 11
857.739572
 21
1182.946236
  0
LINE
  8
CSLAYER1
  6
CONTINUOUS
 62
     3
 10
857.739572
 20
1182.946236
 11
857.624461
 21
1184.382156
  0
LINE
  8
CSLAYER1
  6
CONTINUOUS
 62
     3
 10
887.874461
 20
681.238151
 11
882.645117
 21
681.362502
  0
LINE
  8
CSLAYER1
  6
CONTINUOUS
 62
     3
 10
882.645117
 20
681.362502
 11
877.455571
 21
681.734608
  0
LINE
  8
CSLAYER1
  6
CONTINUOUS
 62
     3
 10
877.455571
 20
681.734608
 11
872.345319
 21
682.351638
  0
LINE
  8
CSLAYER1
  6
CONTINUOUS
 62
     3
 10
872.345319
 20
682.351638
 11
867.353253
 21
683.208896
  0
LINE
  8
CSLAYER1
  6
CONTINUOUS
 62
     3
 10
867.353253
 20
683.208896
 11
862.517366
 21
684.299857
  0
LINE
  8
CSLAYER1
  6
CONTINUOUS
 62
     3
 10
862.517366
 20
684.299857
 11
857.874461
 21
685.616218
  0
LINE
  8
CSLAYER1
  6
CONTINUOUS
 62
     3
 10
857.874461
 20
685.616218
 11
853.459875
 21
687.147962
  0
LINE
  8
CSLAYER1
  6
CONTINUOUS
 62
     3
 10
853.459875
 20
687.147962
 11
849.307205
 21
688.883430
  0
LINE
  8
CSLAYER1
  6
CONTINUOUS
 62
     3
 10
849.307205
 20
688.883430
 11
848.888924
 21
689.092181
  0
LINE
  8
CSLAYER1
  6
CONTINUOUS
 62
     3
 10
887.874461
 20
559.783512
 11
882.470805
 21
559.912008
  0
LINE
  8
CSLAYER1
  6
CONTINUOUS
 62
     3
 10
882.470805
 20
559.912008
 11
877.108274
 21
560.296518
  0
LINE
  8
CSLAYER1
  6
CONTINUOUS
 62
     3
 10
877.108274
 20
560.296518
 11
871.827680
 21
560.934116
  0
LINE
  8
CSLAYER1
  6
CONTINUOUS
 62
     3
 10
871.827680
 20
560.934116
 11
866.669212
 21
561.819949
  0
LINE
  8
CSLAYER1
  6
CONTINUOUS
 62
     3
 10
866.669212
 20
561.819949
 11
861.672129
 21
562.947275
  0
LINE
  8
CSLAYER1
  6
CONTINUOUS
 62
     3
 10
861.672129
 20
562.947275
 11
856.874461
 21
564.307515
  0
LINE
  8
CSLAYER1
  6
CONTINUOUS
 62
     3
 10
856.874461
 20
564.307515
 11
852.312722
 21
565.890317
  0
LINE
  8
CSLAYER1
  6
CONTINUOUS
 62
     3
 10
852.312722
 20
565.890317
 11
848.021629
 21
567.683634
  0
LINE
  8
CSLAYER1
  6
CONTINUOUS
 62
     3
 10
848.021629
 20
567.683634
 11
844.033841
 21
569.673819
  0
LINE
  8
CSLAYER1
  6
CONTINUOUS
 62
     3
 10
844.033841
 20
569.673819
 11
840.379706
 21
571.845724
  0
LINE
  8
CSLAYER1
  6
CONTINUOUS
 62
     3
 10
840.379706
 20
571.845724
 11
837.087034
 21
574.182821
  0
LINE
  8
CSLAYER1
  6
CONTINUOUS
 62
     3
 10
837.087034
 20
574.182821
 11
834.180886
 21
576.667322
  0
LINE
  8
CSLAYER1
  6
CONTINUOUS
 62
     3
 10
834.180886
 20
576.667322
 11
831.683378
 21
579.280319
  0
LINE
  8
CSLAYER1
  6
CONTINUOUS
 62
     3
 10
831.683378
 20
579.280319
 11
829.613519
 21
582.001926
  0
LINE
  8
CSLAYER1
  6
CONTINUOUS
 62
     3
 10
829.613519
 20
582.001926
 11
827.987060
 21
584.811429
  0
LINE
  8
CSLAYER1
  6
CONTINUOUS
 62
     3
 10
827.987060
 20
584.811429
 11
826.816381
 21
587.687446
  0
LINE
  8
CSLAYER1
  6
CONTINUOUS
 62
     3
 10
826.816381
 20
587.687446
 11
826.110390
 21
590.608090
  0
LINE
  8
CSLAYER1
  6
CONTINUOUS
 62
     3
 10
826.110390
 20
590.608090
 11
825.874461
 21
593.551132
  0
LINE
  8
CSLAYER1
  6
CONTINUOUS
 62
     3
 10
833.871583
 20
528.256530
 11
831.683378
 21
530.545922
  0
LINE
  8
CSLAYER1
  6
CONTINUOUS
 62
     3
 10
831.683378
 20
530.545922
 11
829.613519
 21
533.267528
  0
LINE
  8
CSLAYER1
  6
CONTINUOUS
 62
     3
 10
829.613519
 20
533.267528
 11
827.987060
 21
536.077032
  0
LINE
  8
CSLAYER1
  6
CONTINUOUS
 62
     3
 10
827.987060
 20
536.077032
 11
826.816381
 21
538.953049
  0
LINE
  8
CSLAYER1
  6
CONTINUOUS
 62
     3
 10
826.816381
 20
538.953049
 11
826.110390
 21
541.873693
  0
LINE
  8
CSLAYER1
  6
CONTINUOUS
 62
     3
 10
826.110390
 20
541.873693
 11
825.874461
 21
544.816735
  0
LINE
  8
CSLAYER1
  6
CONTINUOUS
 62
     3
 10
887.874461
 20
560.872790
 11
882.645117
 21
560.997141
  0
LINE
  8
CSLAYER1
  6
CONTINUOUS
 62
     3
 10
882.645117
 20
560.997141
 11
877.455571
 21
561.369247
  0
LINE
  8
CSLAYER1
  6
CONTINUOUS
 62
     3
 10
877.455571
 20
561.369247
 11
872.345319
 21
561.986277
  0
LINE
  8
CSLAYER1
  6
CONTINUOUS
 62
     3
 10
872.345319
 20
561.986277
 11
867.353253
 21
562.843535
  0
LINE
  8
CSLAYER1
  6
CONTINUOUS
 62
     3
 10
867.353253
 20
562.843535
 11
862.517366
 21
563.934496
  0
LINE
  8
CSLAYER1
  6
CONTINUOUS
 62
     3
 10
862.517366
 20
563.934496
 11
857.874461
 21
565.250858
  0
LINE
  8
CSLAYER1
  6
CONTINUOUS
 62
     3
 10
857.874461
 20
565.250858
 11
853.459875
 21
566.782601
  0
LINE
  8
CSLAYER1
  6
CONTINUOUS
 62
     3
 10
853.459875
 20
566.782601
 11
849.307205
 21
568.518070
  0
LINE
  8
CSLAYER1
  6
CONTINUOUS
 62
     3
 10
849.307205
 20
568.518070
 11
845.448054
 21
570.444055
  0
LINE
  8
CSLAYER1
  6
CONTINUOUS
 62
     3
 10
845.448054
 20
570.444055
 11
841.911795
 21
572.545899
  0
LINE
  8
CSLAYER1
  6
CONTINUOUS
 62
     3
 10
841.911795
 20
572.545899
 11
838.725339
 21
574.807605
  0
LINE
  8
CSLAYER1
  6
CONTINUOUS
 62
     3
 10
838.725339
 20
574.807605
 11
835.912937
 21
577.211961
  0
LINE
  8
CSLAYER1
  6
CONTINUOUS
 62
     3
 10
835.912937
 20
577.211961
 11
833.495994
 21
579.740668
  0
LINE
  8
CSLAYER1
  6
CONTINUOUS
 62
     3
 10
833.495994
 20
579.740668
 11
831.492904
 21
582.374481
  0
LINE
  8
CSLAYER1
  6
CONTINUOUS
 62
     3
 10
831.492904
 20
582.374481
 11
829.918912
 21
585.093355
  0
LINE
  8
CSLAYER1
  6
CONTINUOUS
 62
     3
 10
829.918912
 20
585.093355
 11
828.785996
 21
587.876597
  0
LINE
  8
CSLAYER1
  6
CONTINUOUS
 62
     3
 10
828.785996
 20
587.876597
 11
828.102779
 21
590.703027
  0
LINE
  8
CSLAYER1
  6
CONTINUOUS
 62
     3
 10
828.102779
 20
590.703027
 11
827.874461
 21
593.551132
  0
LINE
  8
CSLAYER1
  6
CONTINUOUS
 62
     3
 10
827.874461
 20
689.092181
 11
827.874461
 21
593.551132
  0
LINE
  8
CSLAYER1
  6
CONTINUOUS
 62
     3
 10
827.874461
 20
602.014213
 11
826.816381
 21
599.414818
  0
LINE
  8
CSLAYER1
  6
CONTINUOUS
 62
     3
 10
826.816381
 20
599.414818
 11
826.110390
 21
596.494174
  0
LINE
  8
CSLAYER1
  6
CONTINUOUS
 62
     3
 10
826.110390
 20
596.494174
 11
825.874461
 21
593.551132
  0
LINE
  8
CSLAYER1
  6
CONTINUOUS
 62
     4
 10
834.104557
 20
689.092181
 11
834.104557
 21
579.103964
  0
LINE
  8
CSLAYER1
  6
CONTINUOUS
 62
     4
 10
841.211321
 20
689.092181
 11
841.211321
 21
572.981426
  0
LINE
  8
CSLAYER1
  6
CONTINUOUS
 62
     4
 10
853.493248
 20
687.136383
 11
853.493248
 21
566.819699
  0
LINE
  8
CSLAYER1
  6
CONTINUOUS
 62
     4
 10
858.427464
 20
685.459430
 11
858.427464
 21
565.094069
  0
LINE
  8
CSLAYER1
  6
CONTINUOUS
 62
     4
 10
876.268771
 20
681.890350
 11
876.268771
 21
561.512546
  0
ARC
  8
CSLAYER1
  6
CONTINUOUS
 62
     3
 10
824.430773
 20
785.998170
 40
10.000000
 50
241.320997
 51
270.000000
  0
ARC
  8
CSLAYER1
  6
CONTINUOUS
 62
     3
 10
791.874461
 20
770.321626
 40
10.000000
 50
180.000000
 51
241.320997
  0
LINE
  8
CSLAYER1
  6
CONTINUOUS
 62
     3
 10
972.874461
 20
678.296377
 11
972.874461
 21
578.344032
  0
LINE
  8
CSLAYER1
  6
CONTINUOUS
 62
     3
 10
825.874461
 20
593.551132
 11
825.874461
 21
544.816735
  0
LINE
  8
CSLAYER1
  6
CONTINUOUS
 62
     3
 10
918.124461
 20
1283.249908
 11
918.124461
 21
1255.034772
  0
LINE
  8
CSLAYER1
  6
CONTINUOUS
 62
     3
 10
857.624461
 20
1283.249908
 11
857.624461
 21
1255.034772
  0
LINE
  8
CSLAYER1
  6
CONTINUOUS
 62
     3
 10
918.124461
 20
1230.034772
 11
918.124461
 21
1184.382156
  0
LINE
  8
CSLAYER1
  6
CONTINUOUS
 62
     3
 10
857.624461
 20
1230.034772
 11
857.624461
 21
1184.382156
  0
TEXT
  8
CSLAYER1
 62
     5
 10
1383.998413
 20
643.796997
 40
60.000000
 41
1.017391
  1
リミットスイッチ
 50
360.000000
 51
0.000000
  7
EASYDRAW_FONT
 72
     5
 11
1851.998413
 21
643.796997
  0
LINE
  8
CSLAYER1
  6
CONTINUOUS
 62
     5
 10
2546.838411
 20
836.550768
 11
2674.798097
 21
938.425299
  0
LINE
  8
CSLAYER1
  6
CONTINUOUS
 62
     5
 10
2546.838411
 20
836.550768
 11
2573.589717
 21
872.735952
  0
LINE
  8
CSLAYER1
  6
CONTINUOUS
 62
     5
 10
2546.838411
 20
836.550768
 11
2588.098314
 21
854.512404
  0
LINE
  8
CSLAYER1
  6
CONTINUOUS
 62
     5
 10
2674.798097
 20
938.425299
 11
3146.598864
 21
938.425299
  0
LINE
  8
CSLAYER1
  6
CONTINUOUS
 62
     5
 10
1149.874461
 20
544.178376
 11
1373.086653
 21
715.276844
  0
LINE
  8
CSLAYER1
  6
CONTINUOUS
 62
     5
 10
1149.874461
 20
544.178376
 11
1177.286675
 21
579.865496
  0
LINE
  8
CSLAYER1
  6
CONTINUOUS
 62
     5
 10
1149.874461
 20
544.178376
 11
1191.457695
 21
561.378221
  0
LINE
  8
CSLAYER1
  6
CONTINUOUS
 62
     5
 10
1373.086653
 20
715.276844
 11
1852.875532
 21
715.276844
  0
LINE
  8
CSLAYER1
  6
CONTINUOUS
 62
     4
 10
1148.374461
 20
547.958335
 11
1149.874461
 21
547.958335
  0
LINE
  8
CSLAYER1
  6
CONTINUOUS
 62
     2
 10
1148.374461
 20
547.450128
 11
1149.874461
 21
547.450128
  0
LINE
  8
CSLAYER1
  6
CONTINUOUS
 62
     4
 10
1153.374461
 20
517.618275
 11
1153.374461
 21
523.662460
  0
LINE
  8
CSLAYER1
  6
CONTINUOUS
 62
     4
 10
1144.374461
 20
547.958335
 11
1144.374461
 21
563.936268
  0
LINE
  8
CSLAYER1
  6
CONTINUOUS
 62
     4
 10
1148.374461
 20
547.958335
 11
1148.374461
 21
559.896824
  0
LINE
  8
CSLAYER1
  6
CONTINUOUS
 62
     2
 10
1142.874461
 20
535.646598
 11
1149.874461
 21
535.646598
  0
LINE
  8
CSLAYER1
  6
CENTER
 62
     5
 10
2180.480702
 20
507.256530
 11
2169.627865
 21
507.256530
  0
LINE
  8
CSLAYER1
  6
CENTER
 62
     5
 10
2014.938371
 20
507.256530
 11
2043.771706
 21
507.256530
  0
LINE
  8
CSLAYER1
  6
CONTINUOUS
 62
     2
 10
2014.938371
 20
511.056530
 11
2017.455879
 21
511.056530
  0
LINE
  8
CSLAYER1
  6
CONTINUOUS
 62
     2
 10
2045.455879
 20
522.256530
 11
2045.455879
 21
516.829673
  0
LINE
  8
CSLAYER1
  6
CONTINUOUS
 62
     2
 10
2017.455879
 20
515.756530
 11
2017.455879
 21
498.756530
  0
LINE
  8
CSLAYER1
  6
CONTINUOUS
 62
     2
 10
2021.425445
 20
520.246911
 11
2036.053316
 21
520.246911
  0
LINE
  8
CSLAYER1
  6
CONTINUOUS
 62
     2
 10
2020.564973
 20
518.756530
 11
2020.564973
 21
495.756530
  0
LINE
  8
CSLAYER1
  6
CONTINUOUS
 62
     2
 10
2036.913788
 20
518.756530
 11
2036.913788
 21
495.756530
  0
LINE
  8
CSLAYER1
  6
CONTINUOUS
 62
     2
 10
2020.564973
 20
518.756530
 11
2021.425445
 21
520.246911
  0
LINE
  8
CSLAYER1
  6
CONTINUOUS
 62
     2
 10
2036.913788
 20
518.756530
 11
2036.053316
 21
520.246911
  0
LINE
  8
CSLAYER1
  6
CONTINUOUS
 62
     2
 10
2021.425445
 20
513.896058
 11
2036.053316
 21
513.896058
  0
ARC
  8
CSLAYER1
  6
CONTINUOUS
 62
     2
 10
2046.610998
 20
507.256530
 40
26.046025
 50
165.231439
 51
194.768561
  0
ARC
  8
CSLAYER1
  6
CONTINUOUS
 62
     2
 10
2026.696567
 20
517.071485
 40
6.153702
 50
156.825356
 51
211.065581
  0
ARC
  8
CSLAYER1
  6
CONTINUOUS
 62
     2
 10
2030.782194
 20
517.071485
 40
6.153702
 50
-31.065581
 51
23.174644
  0
ARC
  8
CSLAYER1
  6
CONTINUOUS
 62
     2
 10
2010.867763
 20
507.256530
 40
26.046025
 50
-14.768561
 51
14.768561
  0
LINE
  8
CSLAYER1
  6
CONTINUOUS
 62
     2
 10
2020.455879
 20
518.756530
 11
2020.564973
 21
518.756530
  0
ARC
  8
CSLAYER1
  6
CONTINUOUS
 62
     2
 10
2020.455879
 20
515.756530
 40
3.000000
 50
90.000000
 51
180.000000
  0
LINE
  8
CSLAYER1
  6
CONTINUOUS
 62
     2
 10
2040.455879
 20
518.756530
 11
2040.455879
 21
495.756530
  0
LINE
  8
CSLAYER1
  6
CONTINUOUS
 62
     2
 10
2040.455879
 20
518.756530
 11
2041.316351
 21
520.246911
  0
ARC
  8
CSLAYER1
  6
CONTINUOUS
 62
     2
 10
2066.501904
 20
507.256530
 40
26.046025
 50
165.231439
 51
194.768561
  0
ARC
  8
CSLAYER1
  6
CONTINUOUS
 62
     2
 10
2046.587472
 20
517.071485
 40
6.153702
 50
156.825356
 51
211.065581
  0
LINE
  8
CSLAYER1
  6
CONTINUOUS
 62
     2
 10
2041.316351
 20
513.896058
 11
2044.939777
 21
513.896058
  0
LINE
  8
CSLAYER1
  6
CONTINUOUS
 62
     2
 10
2041.316351
 20
520.246911
 11
2045.455879
 21
520.246911
  0
LINE
  8
CSLAYER1
  6
CONTINUOUS
 62
     2
 10
2036.913788
 20
517.592654
 11
2040.455879
 21
517.592654
  0
LINE
  8
CSLAYER1
  6
CONTINUOUS
 62
     2
 10
2036.913788
 20
516.946277
 11
2038.520149
 21
516.946277
  0
LINE
  8
CSLAYER1
  6
CONTINUOUS
 62
     2
 10
2038.520149
 20
517.592654
 11
2038.520149
 21
496.920406
  0
LINE
  8
CSLAYER1
  6
CONTINUOUS
 62
     2
 10
2038.520149
 20
516.946277
 11
2039.655001
 21
517.592654
  0
LINE
  8
CSLAYER1
  6
CONTINUOUS
 62
     2
 10
2021.425445
 20
494.266149
 11
2036.053316
 21
494.266149
  0
LINE
  8
CSLAYER1
  6
CONTINUOUS
 62
     2
 10
2020.564973
 20
495.756530
 11
2021.425445
 21
494.266149
  0
LINE
  8
CSLAYER1
  6
CONTINUOUS
 62
     2
 10
2036.913788
 20
495.756530
 11
2036.053316
 21
494.266149
  0
LINE
  8
CSLAYER1
  6
CONTINUOUS
 62
     2
 10
2021.425445
 20
500.617002
 11
2036.053316
 21
500.617002
  0
ARC
  8
CSLAYER1
  6
CONTINUOUS
 62
     2
 10
2026.696567
 20
497.441576
 40
6.153702
 50
148.934419
 51
203.174644
  0
ARC
  8
CSLAYER1
  6
CONTINUOUS
 62
     2
 10
2030.782194
 20
497.441576
 40
6.153702
 50
-23.174644
 51
31.065581
  0
LINE
  8
CSLAYER1
  6
CONTINUOUS
 62
     2
 10
2020.455879
 20
495.756530
 11
2020.564973
 21
495.756530
  0
ARC
  8
CSLAYER1
  6
CONTINUOUS
 62
     2
 10
2020.455879
 20
498.756530
 40
3.000000
 50
180.000000
 51
270.000000
  0
LINE
  8
CSLAYER1
  6
CONTINUOUS
 62
     2
 10
2040.455879
 20
495.756530
 11
2041.316351
 21
494.266149
  0
ARC
  8
CSLAYER1
  6
CONTINUOUS
 62
     2
 10
2046.587472
 20
497.441576
 40
6.153702
 50
148.934419
 51
203.174644
  0
LINE
  8
CSLAYER1
  6
CONTINUOUS
 62
     2
 10
2041.316351
 20
500.617002
 11
2042.603635
 21
500.617002
  0
LINE
  8
CSLAYER1
  6
CONTINUOUS
 62
     2
 10
2041.316351
 20
494.266149
 11
2041.486350
 21
494.266149
  0
LINE
  8
CSLAYER1
  6
CONTINUOUS
 62
     2
 10
2036.913788
 20
496.920406
 11
2040.455879
 21
496.920406
  0
LINE
  8
CSLAYER1
  6
CONTINUOUS
 62
     2
 10
2036.913788
 20
497.566784
 11
2038.520149
 21
497.566784
  0
LINE
  8
CSLAYER1
  6
CONTINUOUS
 62
     2
 10
2038.520149
 20
497.566784
 11
2039.655001
 21
496.920406
  0
LINE
  8
CSLAYER1
  6
CONTINUOUS
 62
     2
 10
2177.855879
 20
522.256530
 11
2177.855879
 21
491.956530
  0
LINE
  8
CSLAYER1
  6
CONTINUOUS
 62
     2
 10
2179.155879
 20
528.256530
 11
2136.136557
 21
528.256530
  0
LINE
  8
CSLAYER1
  6
CONTINUOUS
 62
     2
 10
2179.155879
 20
522.256530
 11
2131.105927
 21
522.256530
  0
LINE
  8
CSLAYER1
  6
CONTINUOUS
 62
     2
 10
2179.155879
 20
528.256530
 11
2179.155879
 21
522.256530
  0
LINE
  8
CSLAYER1
  6
CONTINUOUS
 62
     2
 10
2044.155879
 20
528.256530
 11
2044.155879
 21
522.256530
  0
ARC
  8
CSLAYER1
  6
CONTINUOUS
 62
     2
 10
2180.005879
 20
475.106396
 40
25.650135
 50
41.065538
 51
90.000000
  0
ARC
  8
CSLAYER1
  6
CONTINUOUS
 62
     2
 10
2180.005879
 20
475.106396
 40
28.654497
 50
36.018400
 51
90.999820
  0
ARC
  8
CSLAYER1
  6
CONTINUOUS
 62
     2
 10
2180.005879
 20
475.106396
 40
35.653641
 50
28.203609
 51
90.803532
  0
ARC
  8
CSLAYER1
  6
CONTINUOUS
 62
     2
 10
2180.005879
 20
475.106396
 40
38.650135
 50
25.846761
 51
90.000000
  0
LINE
  8
CSLAYER1
  6
CONTINUOUS
 62
     2
 10
2014.938371
 20
503.456530
 11
2017.455879
 21
503.456530
  0
LINE
  8
CSLAYER1
  6
CONTINUOUS
 62
     2
 10
2179.005879
 20
517.756530
 11
2177.855879
 21
517.756530
  0
LINE
  8
CSLAYER1
  6
CONTINUOUS
 62
     2
 10
2180.005879
 20
516.756530
 11
2180.005879
 21
510.760036
  0
ARC
  8
CSLAYER1
  6
CONTINUOUS
 62
     2
 10
2179.005879
 20
516.756530
 40
1.000000
 50
0.000000
 51
90.000000
  0
LINE
  8
CSLAYER1
  6
CONTINUOUS
 62
     2
 10
2179.005879
 20
496.756530
 11
2178.005879
 21
496.756530
  0
ARC
  8
CSLAYER1
  6
CONTINUOUS
 62
     2
 10
2179.005879
 20
497.756530
 40
1.000000
 50
270.000000
 51
360.000000
  0
LINE
  8
CSLAYER1
  6
CONTINUOUS
 62
     2
 10
2178.905879
 20
513.756530
 11
2178.005879
 21
513.756530
  0
LINE
  8
CSLAYER1
  6
CONTINUOUS
 62
     2
 10
2179.505879
 20
513.156530
 11
2179.505879
 21
501.356530
  0
ARC
  8
CSLAYER1
  6
CONTINUOUS
 62
     2
 10
2178.905879
 20
513.156530
 40
0.600000
 50
0.000000
 51
90.000000
  0
LINE
  8
CSLAYER1
  6
CONTINUOUS
 62
     2
 10
2178.905879
 20
500.756530
 11
2178.005879
 21
500.756530
  0
ARC
  8
CSLAYER1
  6
CONTINUOUS
 62
     2
 10
2178.905879
 20
501.356530
 40
0.600000
 50
270.000000
 51
360.000000
  0
LINE
  8
CSLAYER1
  6
CONTINUOUS
 62
     2
 10
2180.005879
 20
503.760893
 11
2180.005879
 21
497.756530
  0
ARC
  8
CSLAYER1
  6
CENTER
 62
     5
 10
2180.005879
 20
475.106396
 40
32.153641
 50
31.604352
 51
89.153864
  0
LINE
  8
CSLAYER1
  6
CONTINUOUS
 62
     2
 10
2047.466169
 20
528.256530
 11
2044.155879
 21
528.256530
  0
LINE
  8
CSLAYER1
  6
CONTINUOUS
 62
     2
 10
2046.410609
 20
522.256530
 11
2044.155879
 21
522.256530
  0
ARC
  8
CSLAYER1
  6
CONTINUOUS
 62
     2
 10
2014.938371
 20
403.456530
 40
100.000000
 50
90.000000
 51
141.188616
  0
ARC
  8
CSLAYER1
  6
CONTINUOUS
 62
     2
 10
2014.938371
 20
403.456530
 40
107.600000
 50
90.000000
 51
141.188616
  0
ARC
  8
CSLAYER1
  6
CENTER
 62
     5
 10
2014.938371
 20
403.456530
 40
103.800000
 50
90.000000
 51
141.188616
  0
LINE
  8
CSLAYER1
  6
CONTINUOUS
 62
     5
 10
4987.523657
 20
3182.105497
 11
3903.331392
 21
3182.105497
  0
LINE
  8
CSLAYER1
  6
CONTINUOUS
 62
     5
 10
4987.523657
 20
3085.849500
 11
3903.331392
 21
3085.849500
  0
LINE
  8
CSLAYER1
  6
CONTINUOUS
 62
     5
 10
4987.523657
 20
2989.593502
 11
3903.331392
 21
2989.593502
  0
LINE
  8
CSLAYER1
  6
CONTINUOUS
 62
     5
 10
4987.523657
 20
2893.337505
 11
3904.643685
 21
2893.337505
  0
LINE
  8
CSLAYER1
  6
CONTINUOUS
 62
     5
 10
4987.523657
 20
2797.081507
 11
3903.331392
 21
2797.081507
  0
LINE
  8
CSLAYER1
  6
CONTINUOUS
 62
     5
 10
4987.523657
 20
2700.825509
 11
3903.331392
 21
2700.825509
  0
LINE
  8
CSLAYER1
  6
CONTINUOUS
 62
     5
 10
4987.523657
 20
2604.569512
 11
3903.331392
 21
2604.569512
  0
LINE
  8
CSLAYER1
  6
CONTINUOUS
 62
     5
 10
4987.523657
 20
2508.313514
 11
3903.331392
 21
2508.313514
  0
LINE
  8
CSLAYER1
  6
CONTINUOUS
 62
     5
 10
4987.523657
 20
2412.057517
 11
3903.331392
 21
2412.057517
  0
TEXT
  8
CSLAYER1
 62
     5
 10
4197.699535
 20
3302.153156
 40
60.159996
 41
0.857143
  1
仕   様
 50
0.000000
 51
0.000000
  7
EASYDRAW_FONT
 72
     5
 11
4438.339527
 21
3302.153156
  0
TEXT
  8
CSLAYER1
 62
     5
 10
3919.514442
 20
3194.472980
 40
60.159996
 41
0.847059
  1
型    式
 50
0.000000
 51
0.000000
  7
EASYDRAW_FONT
 72
     5
 11
4208.282433
 21
3194.472980
  0
TEXT
  8
CSLAYER1
 62
     5
 10
3916.777138
 20
3010.247883
 40
60.159996
 41
0.847059
  1
テーブル寸法
 50
0.000000
 51
0.000000
  7
EASYDRAW_FONT
 72
     5
 11
4205.545128
 21
3010.247883
  0
TEXT
  8
CSLAYER1
 62
     5
 10
3919.514442
 20
2915.400227
 40
60.159996
 41
0.847059
  1
テーブル高サ
 50
0.000000
 51
0.000000
  7
EASYDRAW_FONT
 72
     5
 11
4208.282433
 21
2915.400227
  0
TEXT
  8
CSLAYER1
 62
     5
 10
3921.690258
 20
2817.816242
 40
60.159996
 41
0.857143
  1
ストローク
 50
0.000000
 51
0.000000
  7
EASYDRAW_FONT
 72
     5
 11
4162.330250
 21
2817.816242
  0
TEXT
  8
CSLAYER1
 62
     5
 10
3920.778149
 20
2720.232746
 40
60.159996
 41
0.857143
  1
全   長
 50
0.000000
 51
0.000000
  7
EASYDRAW_FONT
 72
     5
 11
4161.418140
 21
2720.232746
  0
TEXT
  8
CSLAYER1
 62
     5
 10
3924.194164
 20
2621.193195
 40
60.159996
 41
0.857143
  1
全   巾
 50
0.000000
 51
0.000000
  7
EASYDRAW_FONT
 72
     5
 11
4164.834156
 21
2621.193195
  0
TEXT
  8
CSLAYER1
 62
     5
 10
3921.850903
 20
2525.109211
 40
60.159996
 41
0.857143
  1
全   高
 50
0.000000
 51
0.000000
  7
EASYDRAW_FONT
 72
     5
 11
4162.490894
 21
2525.109211
  0
TEXT
  8
CSLAYER1
 62
     5
 10
3921.850903
 20
2431.370930
 40
60.159996
 41
0.857143
  1
リフト方式
 50
0.000000
 51
0.000000
  7
EASYDRAW_FONT
 72
     5
 11
4162.490894
 21
2431.370930
  0
TEXT
  8
CSLAYER1
 62
     5
 10
4881.440849
 20
3096.464680
 40
60.159996
 41
0.960000
  1
Ｋｇ
 50
0.000000
 51
0.000000
  7
EASYDRAW_FONT
 72
     5
 11
4977.696846
 21
3096.464680
  0
TEXT
  8
CSLAYER1
 62
     5
 10
4800.497524
 20
3022.552570
 40
60.159996
 41
1.200000
  1
Ｗ
 50
0.000000
 51
0.000000
  7
EASYDRAW_FONT
 72
     5
 11
4848.625523
 21
3022.552570
  0
TEXT
  8
CSLAYER1
 62
     5
 10
4536.329556
 20
3024.372395
 40
60.159996
 41
1.200000
  1
Ｌ
 50
0.000000
 51
0.000000
  7
EASYDRAW_FONT
 72
     5
 11
4584.457554
 21
3024.372395
  0
TEXT
  8
CSLAYER1
 62
     5
 10
4329.489891
 20
2432.805500
 40
60.159996
 41
0.827586
  1
電 動 ボールネジ式
 50
0.000000
 51
0.000000
  7
EASYDRAW_FONT
 72
     5
 11
4810.769875
 21
2432.805500
  0
TEXT
  8
CSLAYER1
 62
     5
 10
4877.659599
 20
3000.053059
 40
60.159996
 41
0.960000
  1
mm
 50
0.000000
 51
0.000000
  7
EASYDRAW_FONT
 72
     5
 11
4973.915596
 21
3000.053059
  0
TEXT
  8
CSLAYER1
 62
     5
 10
4877.659599
 20
2909.312336
 40
60.159996
 41
0.960000
  1
mm
 50
0.000000
 51
0.000000
  7
EASYDRAW_FONT
 72
     5
 11
4973.915596
 21
2909.312336
  0
TEXT
  8
CSLAYER1
 62
     5
 10
4871.988213
 20
2812.900715
 40
60.159996
 41
0.960000
  1
mm
 50
0.000000
 51
0.000000
  7
EASYDRAW_FONT
 72
     5
 11
4968.244209
 21
2812.900715
  0
TEXT
  8
CSLAYER1
 62
     5
 10
4871.988213
 20
2710.816242
 40
60.159996
 41
0.960000
  1
mm
 50
0.000000
 51
0.000000
  7
EASYDRAW_FONT
 72
     5
 11
4968.244209
 21
2710.816242
  0
TEXT
  8
CSLAYER1
 62
     5
 10
4868.207939
 20
2620.075520
 40
60.159996
 41
0.960000
  1
mm
 50
0.000000
 51
0.000000
  7
EASYDRAW_FONT
 72
     5
 11
4964.463936
 21
2620.075520
  0
TEXT
  8
CSLAYER1
 62
     5
 10
4868.207939
 20
2523.662434
 40
60.159996
 41
0.960000
  1
mm
 50
0.000000
 51
0.000000
  7
EASYDRAW_FONT
 72
     5
 11
4964.463936
 21
2523.662434
  0
LINE
  8
CSLAYER1
  6
CONTINUOUS
 62
     5
 10
4480.531906
 20
3278.361495
 11
4167.119404
 21
3278.361495
  0
LINE
  8
CSLAYER1
  6
CONTINUOUS
 62
     5
 10
4480.531906
 20
3290.393495
 11
4167.119404
 21
3290.393495
  0
TEXT
  8
CSLAYER1
 62
     5
 10
4641.541016
 20
3103.186279
 40
60.000000
 41
0.975000
  1
５００
 50
0.000000
 51
0.000000
  7
EASYDRAW_FONT
 72
     5
 11
4797.541016
 21
3103.186279
  0
TEXT
  8
CSLAYER1
 62
     5
 10
4320.090820
 20
3007.541748
 40
60.000000
 41
0.923077
  1
１０５０　×８００
 50
0.000000
 51
0.000000
  7
EASYDRAW_FONT
 72
     5
 11
4800.090820
 21
3007.541748
  0
TEXT
  8
CSLAYER1
 62
     5
 10
4375.695801
 20
2909.843506
 40
60.000000
 41
0.926087
  1
４００～１６００
 50
0.000000
 51
0.000000
  7
EASYDRAW_FONT
 72
     5
 11
4801.695801
 21
2909.843506
  0
TEXT
  8
CSLAYER1
 62
     5
 10
4598.238281
 20
2813.499268
 40
60.000000
 41
0.954545
  1
１２００
 50
0.000000
 51
0.000000
  7
EASYDRAW_FONT
 72
     5
 11
4808.238281
 21
2813.499268
  0
TEXT
  8
CSLAYER1
 62
     5
 10
4595.026855
 20
2719.296143
 40
60.000000
 41
0.954545
  1
１０５０
 50
0.000000
 51
0.000000
  7
EASYDRAW_FONT
 72
     5
 11
4805.026855
 21
2719.296143
  0
TEXT
  8
CSLAYER1
 62
     5
 10
4653.071289
 20
2620.810303
 40
60.000000
 41
0.975000
  1
８００
 50
0.000000
 51
0.000000
  7
EASYDRAW_FONT
 72
     5
 11
4809.071289
 21
2620.810303
  0
TEXT
  8
CSLAYER1
 62
     5
 10
4649.859863
 20
2528.748291
 40
60.000000
 41
0.975000
  1
４００
 50
0.000000
 51
0.000000
  7
EASYDRAW_FONT
 72
     5
 11
4805.859863
 21
2528.748291
  0
TEXT
  8
CSLAYER2
 62
     5
 10
4328.848553
 20
3200.328693
 40
55.851891
 41
0.776521
  1
GLI-500-0810W
 50
0.000000
 51
0.000000
  7
EASYDRAW_FONT
 72
     5
 11
4878.204182
 21
3200.328693
  0
LINE
  8
CSLAYER1
  6
PHANTOM
 62
     5
 10
2017.455879
 20
825.156530
 11
3067.455879
 21
825.156530
  0
LINE
  8
CSLAYER1
  6
PHANTOM
 62
     5
 10
2017.455879
 20
825.156530
 11
2017.455879
 21
772.156530
  0
LINE
  8
CSLAYER1
  6
CONTINUOUS
 62
     5
 10
2034.655879
 20
797.956530
 11
2068.655879
 21
797.956530
  0
LINE
  8
CSLAYER1
  6
PHANTOM
 62
     5
 10
2017.455879
 20
772.156530
 11
3067.455879
 21
772.156530
  0
LINE
  8
CSLAYER1
  6
CONTINUOUS
 62
     5
 10
2051.655879
 20
814.956530
 11
2051.655879
 21
780.956530
  0
LINE
  8
CSLAYER1
  6
PHANTOM
 62
     5
 10
3067.455879
 20
825.156530
 11
3067.455879
 21
772.156530
  0
LINE
  8
CSLAYER1
  6
CONTINUOUS
 62
     5
 10
2042.963048
 20
1429.869800
 11
2123.900916
 21
1429.869800
  0
LINE
  8
CSLAYER1
  6
CONTINUOUS
 62
     5
 10
2083.366877
 20
1472.186574
 11
2083.366877
 21
1429.869800
  0
TEXT
  8
CSLAYER1
 62
     4
 10
3917.944336
 20
2248.099365
 40
60.000000
 41
1.036364
  1
操作方式
 50
0.000000
 51
0.000000
  7
EASYDRAW_FONT
 72
     5
 11
4145.944336
 21
2248.099365
  0
TEXT
  8
CSLAYER1
 62
     4
 10
4340.406250
 20
2240.158936
 40
60.000000
 41
1.020000
  1
フットスイッチ
 50
0.000000
 51
0.000000
  7
EASYDRAW_FONT
 72
     5
 11
4748.406250
 21
2240.158936
  0
LINE
  8
CSLAYER1
  6
CONTINUOUS
 62
     5
 10
4984.640167
 20
2230.059512
 11
3903.331392
 21
2230.059512
  0
LINE
  8
CSLAYER1
  6
CONTINUOUS
 62
     5
 10
4984.640167
 20
2134.059515
 11
3903.331392
 21
2134.059515
  0
TEXT
  8
CSLAYER1
 62
     4
 10
3920.091309
 20
2148.989990
 40
60.000000
 41
0.872727
  1
モーター
 50
0.000000
 51
0.000000
  7
EASYDRAW_FONT
 72
     5
 11
4112.091309
 21
2148.989990
  0
LINE
  8
CSLAYER1
  6
CONTINUOUS
 62
     5
 10
4984.640167
 20
2038.059517
 11
3903.331392
 21
2038.059517
  0
LINE
  8
CSLAYER1
  6
CONTINUOUS
 62
     5
 10
4984.640167
 20
1846.059522
 11
3900.123638
 21
1846.059522
  0
LINE
  8
CSLAYER1
  6
CONTINUOUS
 62
     5
 10
4984.640167
 20
1750.059525
 11
3903.331392
 21
1750.059525
  0
LINE
  8
CSLAYER1
  6
CONTINUOUS
 62
     5
 10
4984.640167
 20
1654.059527
 11
3903.331392
 21
1654.059527
  0
TEXT
  8
CSLAYER1
 62
     4
 10
3923.963379
 20
1670.742188
 40
60.000000
 41
0.857143
  1
自  　重
 50
0.000000
 51
0.000000
  7
EASYDRAW_FONT
 72
     5
 11
4163.963379
 21
1670.742188
  0
TEXT
  8
CSLAYER1
 62
     4
 10
3928.387207
 20
1574.635742
 40
60.000000
 41
0.847059
  1
塗　装　色 
 50
0.000000
 51
0.000000
  7
EASYDRAW_FONT
 72
     5
 11
4216.387207
 21
1574.635742
  0
TEXT
  8
CSLAYER1
 62
     4
 10
4266.750000
 20
2150.364990
 40
60.000000
 41
0.819512
  1
３相ＡＣ２００Ｖ、0.4ＫＷ
 50
0.000000
 51
0.000000
  7
EASYDRAW_FONT
 72
     5
 11
4938.750000
 21
2150.364990
  0
TEXT
  8
CSLAYER1
 62
     4
 10
4463.225098
 20
2054.599854
 40
60.000000
 41
0.840000
  1
長サ  ４ ｍ
 50
0.000000
 51
0.000000
  7
EASYDRAW_FONT
 72
     5
 11
4799.225098
 21
2054.599854
  0
TEXT
  8
CSLAYER1
 62
     3
 10
4632.184570
 20
1673.591309
 40
60.000000
 41
0.847059
  1
１９６　Ｋｇ
 50
0.000000
 51
0.000000
  7
EASYDRAW_FONT
 72
     5
 11
4920.184570
 21
1673.591309
  0
LINE
  8
CSLAYER1
  6
CONTINUOUS
 62
     5
 10
4984.640167
 20
1942.059520
 11
3903.331392
 21
1942.059520
  0
TEXT
  8
CSLAYER1
 62
     4
 10
3921.465820
 20
2054.013916
 40
60.000000
 41
0.942857
  1
電源コード
 50
0.000000
 51
0.000000
  7
EASYDRAW_FONT
 72
     5
 11
4185.465820
 21
2054.013916
  0
TEXT
  8
CSLAYER1
 62
     4
 10
3922.108191
 20
1950.331863
 40
71.595306
 41
0.593339
  1
昇降時間 ３６秒（50HZ） ３０秒(60HZ)
 50
0.000000
 51
0.000000
  7
EASYDRAW_FONT
 72
     5
 11
4927.475794
 21
1950.331863
  0
TEXT
  8
CSLAYER1
 62
     4
 10
3924.059570
 20
1762.166992
 40
60.000000
 41
0.912766
  1
上昇端、下降端リミットスイッチ付
 50
0.000000
 51
0.000000
  7
EASYDRAW_FONT
 72
     5
 11
4782.059570
 21
1762.166992
  0
TEXT
  8
CSLAYER1
 62
     4
 10
3926.829454
 20
1859.162064
 40
68.819672
 41
0.605080
  1
最大使用頻度８０回／時間・最大起動頻度１０回／分
 50
0.000000
 51
0.000000
  7
EASYDRAW_FONT
 72
     5
 11
4912.342421
 21
1859.162064
  0
LINE
  8
CSLAYER1
  6
CONTINUOUS
 62
     5
 10
4984.640167
 20
2316.057519
 11
3903.331392
 21
2316.057519
  0
TEXT
  8
CSLAYER1
 62
     4
 10
4218.073242
 20
2333.658447
 40
60.000000
 41
0.825000
  1
マグネットスイッチ制御
 50
0.000000
 51
0.000000
  7
EASYDRAW_FONT
 72
     5
 11
4746.073242
 21
2333.658447
  0
TEXT
  8
CSLAYER1
 62
     4
 10
3923.493164
 20
2330.674561
 40
60.000000
 41
0.872727
  1
制御方式
 50
0.000000
 51
0.000000
  7
EASYDRAW_FONT
 72
     5
 11
4115.493164
 21
2330.674561
  0
LINE
  8
CSLAYER1
  6
CONTINUOUS
 62
     3
 10
1768.331963
 20
2770.010918
 11
1616.024856
 21
2770.010918
  0
LINE
  8
CSLAYER1
  6
CONTINUOUS
 62
     3
 10
1768.864600
 20
2777.010918
 11
1616.024856
 21
2777.010918
  0
ARC
  8
CSLAYER1
  6
CONTINUOUS
 62
     3
 10
1762.027203
 20
2730.510918
 40
40.000000
 50
-243.817766
 51
80.931278
  0
ARC
  8
CSLAYER1
  6
CONTINUOUS
 62
     3
 10
1762.027203
 20
2730.510918
 40
47.000000
 50
-229.860785
 51
81.635125
  0
LINE
  8
CSLAYER1
  6
CONTINUOUS
 62
     3
 10
2017.455879
 20
2770.010918
 11
1792.018819
 21
2770.010918
  0
LINE
  8
CSLAYER1
  6
CONTINUOUS
 62
     3
 10
2017.455879
 20
2777.010918
 11
1781.311928
 21
2777.010918
  0
LINE
  8
CSLAYER1
  6
CONTINUOUS
 62
     5
 10
4984.640167
 20
1558.059529
 11
3903.331392
 21
1558.059529
  0
TEXT
  8
CSLAYER1
 62
     4
 10
4391.284668
 20
1574.066284
 40
60.000000
 41
0.926087
  1
　１０Ｒ４／１３
 50
0.000000
 51
0.000000
  7
EASYDRAW_FONT
 72
     5
 11
4817.284668
 21
1574.066284
  0
TEXT
  8
CSLAYER1
 62
     5
 10
3917.944336
 20
3103.889404
 40
60.000000
 41
1.036364
  1
積載荷重
 50
0.000000
 51
0.000000
  7
EASYDRAW_FONT
 72
     5
 11
4145.944336
 21
3103.889404
  0
TEXT
  8
CSLAYER1
 62
     5
 10
974.836060
 20
2322.266113
 40
60.000000
 41
1.020000
  1
コード長サ２ｍ
 50
0.000000
 51
0.000000
  7
EASYDRAW_FONT
 72
     5
 11
1382.836060
 21
2322.266113
  0
INSERT
  8
CSLAYER1
  2
BLKF0004
 10
0.0
 20
0.0
 30
0.0
  0
ENDSEC
  0
EOF
