  0
SECTION
  2
HEADER
  9
$ACADVER
  1
AC1006
  9
$INSBASE
 10
-752.092834
 20
2377.459283
 30
0.0
  9
$EXTMIN
 10
-752.092834
 20
2377.459283
  9
$EXTMAX
 10
2887.907166
 20
4947.459283
  9
$LIMMIN
 10
-752.092834
 20
2377.459283
  9
$LIMMAX
 10
2887.907166
 20
4947.459283
  9
$VIEWCTR
 10
1067.907166
 20
3662.459283
  9
$VIEWSIZE
 40
2570.000000
  9
$SNAPMODE
 70
     0
  9
$SNAPUNIT
 10
1.0
 20
1.0
  9
$SNAPBASE
 10
0.0
 20
0.0
  9
$SNAPANG
 50
0.0
  9
$SNAPSTYLE
 70
     0
  9
$SNAPISOPAIR
 70
     0
  9
$GRIDMODE
 70
     0
  9
$GRIDUNIT
 10
0.0
 20
0.0
  9
$ORTHOMODE
 70
     0
  9
$REGENMODE
 70
     1
  9
$FILLMODE
 70
     1
  9
$QTEXTMODE
 70
     0
  9
$DRAGMODE
 70
     2
  9
$LTSCALE
 40
15.000000
  9
$OSMODE
 70
     0
  9
$ATTMODE
 70
     1
  9
$TEXTSIZE
 40
0.2
  9
$TRACEWID
 40
0.05
  9
$TEXTSTYLE
  7
STANDARD
  9
$CLAYER
  8
CSLAYER1
  9
$CELTYPE
  6
BYLAYER
  9
$CECOLOR
 62
   256
  9
$DIMSCALE
 40
1.0
  9
$DIMASZ
 40
0.18
  9
$DIMEXO
 40
0.0625
  9
$DIMDLI
 40
0.38
  9
$DIMRND
 40
0.0
  9
$DIMDLE
 40
0.0
  9
$DIMEXE
 40
0.18
  9
$DIMTP
 40
0.0
  9
$DIMTM
 40
0.0
  9
$DIMTXT
 40
0.18
  9
$DIMCEN
 40
0.09
  9
$DIMTSZ
 40
0.0
  9
$DIMTOL
 70
     0
  9
$DIMLIM
 70
     0
  9
$DIMTIH
 70
     1
  9
$DIMTOH
 70
     1
  9
$DIMSE1
 70
     0
  9
$DIMSE2
 70
     0
  9
$DIMTAD
 70
     0
  9
$DIMZIN
 70
     0
  9
$DIMBLK
  1

  9
$LUNITS
 70
     2
  9
$LUPREC
 70
     4
  9
$AXISMODE
 70
     0
  9
$AXISUNIT
 10
0.0
 20
0.0
  9
$SKETCHINC
 40
0.1
  9
$FILLETRAD
 40
0.0
  9
$AUNITS
 70
     0
  9
$AUPREC
 70
     0
  9
$MENU
  1
ACAD
  9
$ELEVATION
 40
0.0
  9
$THICKNESS
 40
0.0
  9
$VIEWDIR
 10
0.0
 20
0.0
 30
1.0
  9
$LIMCHECK
 70
     0
  9
$BLIPMODE
 70
     1
  9
$CHAMFERA
 40
0.0
  9
$CHAMFERB
 40
0.0
  9
$FASTZOOM
 70
     1
  9
$SKPOLY
 70
     0
  9
$TDCREATE
 40
2457497.000000
  9
$TDUPDATE
 40
2457497.000000
  9
$TDINDWG
 40
0.0
  9
$TDUSRTIMER
 40
0.0
  9
$USRTIMER
 70
     1
  9
$ANGBASE
 50
0.0
  9
$ANGDIR
 70
     0
  9
$PDMODE
 70
     0
  9
$PDSIZE
 40
0.0
  9
$PLINEWID
 40
0.0
  9
$COORDS
 70
     0
  9
$USERI1
 70
     0
  9
$USERI2
 70
     0
  9
$USERI3
 70
     0
  9
$USERI4
 70
     0
  9
$USERI5
 70
     0
  9
$USERR1
 40
0.0
  9
$USERR2
 40
0.0
  9
$USERR3
 40
0.0
  9
$USERR4
 40
0.0
  9
$USERR5
 40
0.0
  0
ENDSEC
  0
SECTION
  2
TABLES
  0
TABLE
  2
LTYPE
 70
     9
  0
LTYPE
  2
CONTINUOUS
 70
    64
  3
Solid line
 72
    65
 73
     0
 40
0.0
  0
LTYPE
  2
DASHED
 70
    64
  3
__ __ __ __ __ __ __ __ __ __ __ __ __ __ __
 72
    65
 73
     2
 40
0.75
 49
0.5
 49
-0.25
  0
LTYPE
  2
HIDDEN
 70
    64
  3
_ _ _ _ _ _ _ _ _ _ _ _ _ _ _ _ _ _ _ _ _ _ _
 72
    65
 73
     2
 40
0.375
 49
0.25
 49
-0.125
  0
LTYPE
  2
DOT
 70
    64
  3
...............................................
 72
    65
 73
     2
 40
0.25
 49
0.0
 49
-0.25
  0
LTYPE
  2
DASHDOT
 70
    64
  3
__ . __ . __ . __ . __ . __ . __ . __ . __ . __
 72
    65
 73
     4
 40
1.0
 49
0.5
 49
-0.25
 49
0.0
 49
-0.25
  0
LTYPE
  2
DIVIDE
 70
    64
  3
__ . . __ . . __ . . __ . . __ . . __ . . __
 72
    65
 73
     6
 40
1.25
 49
0.5
 49
-0.25
 49
0.0
 49
-0.25
 49
0.0
 49
-0.25
  0
LTYPE
  2
CENTER
 70
    64
  3
____ _ ____ _ ____ _ ____ _ ____ _ ____ _ ____ 
 72
    65
 73
     4
 40
2.0
 49
1.25
 49
-0.25
 49
0.25
 49
-0.25
  0
LTYPE
  2
PHANTOM
 70
    64
  3
______  __  __  ______  __  __  ______  __  __ 
 72
    65
 73
     6
 40
2.5
 49
1.25
 49
-0.25
 49
0.25
 49
-0.25
 49
0.25
 49
-0.25
  0
LTYPE
  2
BORDER
 70
    64
  3
__ __ . __ __ . __ __ . __ __ . __ __ . __ __ .
 72
    65
 73
     6
 40
1.75
 49
0.5
 49
-0.25
 49
0.5
 49
-0.25
 49
0.0
 49
-0.25
  0
ENDTAB
  0
TABLE
  2
LAYER
 70
    16
  0
LAYER
  2
CSLAYER1
 70
    64
 62
     7
  6
CONTINUOUS
  0
LAYER
  2
CSLAYER2
 70
    64
 62
     7
  6
CONTINUOUS
  0
LAYER
  2
CSLAYER3
 70
    64
 62
     7
  6
CONTINUOUS
  0
LAYER
  2
CSLAYER4
 70
    64
 62
     7
  6
CONTINUOUS
  0
LAYER
  2
CSLAYER5
 70
    64
 62
     7
  6
CONTINUOUS
  0
LAYER
  2
CSLAYER6
 70
    64
 62
     7
  6
CONTINUOUS
  0
LAYER
  2
CSLAYER7
 70
    64
 62
     7
  6
CONTINUOUS
  0
LAYER
  2
CSLAYER8
 70
    64
 62
     7
  6
CONTINUOUS
  0
LAYER
  2
CSLAYER9
 70
    64
 62
     7
  6
CONTINUOUS
  0
LAYER
  2
CSLAYER10
 70
    64
 62
     7
  6
CONTINUOUS
  0
LAYER
  2
CSLAYER11
 70
    64
 62
     7
  6
CONTINUOUS
  0
LAYER
  2
CSLAYER12
 70
    64
 62
     7
  6
CONTINUOUS
  0
LAYER
  2
CSLAYER13
 70
    64
 62
     7
  6
CONTINUOUS
  0
LAYER
  2
CSLAYER14
 70
    64
 62
     7
  6
CONTINUOUS
  0
LAYER
  2
CSLAYER15
 70
    64
 62
     7
  6
CONTINUOUS
  0
LAYER
  2
CSLAYER16
 70
    64
 62
     7
  6
CONTINUOUS
  0
ENDTAB
  0
TABLE
  2
STYLE
 70
     1
  0
STYLE
  2
EASYDRAW_FONT
 70
     0
 40
1.0
 41
1.0
 50
0.0
 71
     0
 42
1.0
  3
monotxt
  4
bigfont
  0
ENDTAB
  0
TABLE
  2
VIEW
 70
     0
  0
ENDTAB
  0
ENDSEC
  0
SECTION
  2
BLOCKS
  0
BLOCK
  8
CSLAYER1
  2
*D0000
 70
    65
 10
0.0
 20
0.0
 30
0.0
  0
TEXT
  8
CSLAYER1
 62
     7
 10
2357.757324
 20
320.885010
 40
40.000000
 41
0.843750
  1
155
 50
90.000000
 51
0.000000
  7
EASYDRAW_FONT
 72
     5
 11
2357.757324
 21
410.885010
  0
LINE
  8
CSLAYER1
  6
CONTINUOUS
 62
     5
 10
2216.015279
 20
286.385166
 11
2415.990103
 21
286.385166
  0
LINE
  8
CSLAYER1
  6
CONTINUOUS
 62
     5
 10
2216.015279
 20
441.385166
 11
2315.990103
 21
441.385166
  0
LINE
  8
CSLAYER1
  6
CONTINUOUS
 62
     5
 10
2305.990103
 20
286.385166
 11
2305.990103
 21
441.385166
  0
LINE
  8
CSLAYER1
  6
CONTINUOUS
 62
     5
 10
2305.990103
 20
286.385166
 11
2298.225532
 21
315.362941
  0
LINE
  8
CSLAYER1
  6
CONTINUOUS
 62
     5
 10
2305.990103
 20
286.385166
 11
2313.754675
 21
315.362941
  0
LINE
  8
CSLAYER1
  6
CONTINUOUS
 62
     5
 10
2305.990103
 20
441.385166
 11
2298.225532
 21
412.407391
  0
LINE
  8
CSLAYER1
  6
CONTINUOUS
 62
     5
 10
2305.990103
 20
441.385166
 11
2313.754675
 21
412.407391
  0
ENDBLK
  8
0
  0
BLOCK
  8
CSLAYER1
  2
*D0001
 70
    65
 10
0.0
 20
0.0
 30
0.0
  0
TEXT
  8
CSLAYER1
 62
     7
 10
2295.990234
 20
779.657959
 40
40.000000
 41
0.843750
  1
750
 50
90.000000
 51
0.000000
  7
EASYDRAW_FONT
 72
     5
 11
2295.990234
 21
869.657959
  0
LINE
  8
CSLAYER1
  6
CONTINUOUS
 62
     5
 10
2212.990103
 20
1207.930784
 11
2415.990103
 21
1207.930784
  0
LINE
  8
CSLAYER1
  6
CONTINUOUS
 62
     5
 10
2305.990103
 20
441.385166
 11
2305.990103
 21
1207.930784
  0
LINE
  8
CSLAYER1
  6
CONTINUOUS
 62
     5
 10
2305.990103
 20
441.385166
 11
2298.225532
 21
470.362941
  0
LINE
  8
CSLAYER1
  6
CONTINUOUS
 62
     5
 10
2305.990103
 20
441.385166
 11
2313.754675
 21
470.362941
  0
LINE
  8
CSLAYER1
  6
CONTINUOUS
 62
     5
 10
2305.990103
 20
1207.930784
 11
2298.225532
 21
1178.953009
  0
LINE
  8
CSLAYER1
  6
CONTINUOUS
 62
     5
 10
2305.990103
 20
1207.930784
 11
2313.754675
 21
1178.953009
  0
ENDBLK
  8
0
  0
BLOCK
  8
CSLAYER1
  2
*D0002
 70
    65
 10
0.0
 20
0.0
 30
0.0
  0
TEXT
  8
CSLAYER1
 62
     7
 10
2395.990234
 20
702.157959
 40
40.000000
 41
0.843750
  1
905
 50
90.000000
 51
0.000000
  7
EASYDRAW_FONT
 72
     5
 11
2395.990234
 21
792.157959
  0
LINE
  8
CSLAYER1
  6
CONTINUOUS
 62
     5
 10
2405.990103
 20
286.385166
 11
2405.990103
 21
1207.930784
  0
LINE
  8
CSLAYER1
  6
CONTINUOUS
 62
     5
 10
2405.990103
 20
286.385166
 11
2398.225532
 21
315.362941
  0
LINE
  8
CSLAYER1
  6
CONTINUOUS
 62
     5
 10
2405.990103
 20
286.385166
 11
2413.754675
 21
315.362941
  0
LINE
  8
CSLAYER1
  6
CONTINUOUS
 62
     5
 10
2405.990103
 20
1207.930784
 11
2398.225532
 21
1178.953009
  0
LINE
  8
CSLAYER1
  6
CONTINUOUS
 62
     5
 10
2405.990103
 20
1207.930784
 11
2413.754675
 21
1178.953009
  0
ENDBLK
  8
0
  0
BLOCK
  8
CSLAYER1
  2
*D0003
 70
    65
 10
0.0
 20
0.0
 30
0.0
  0
TEXT
  8
CSLAYER1
 62
     7
 10
1621.002563
 20
1314.872925
 40
40.000000
 41
0.818182
  1
1050
 50
0.000000
 51
0.000000
  7
EASYDRAW_FONT
 72
     5
 11
1741.002563
 21
1314.872925
  0
LINE
  8
CSLAYER1
  6
CONTINUOUS
 62
     5
 10
1156.015279
 20
1214.930784
 11
1156.015279
 21
1314.873209
  0
LINE
  8
CSLAYER1
  6
CONTINUOUS
 62
     5
 10
1156.015279
 20
1304.873209
 11
2205.990103
 21
1304.873209
  0
LINE
  8
CSLAYER1
  6
CONTINUOUS
 62
     5
 10
1156.015279
 20
1304.873209
 11
1184.993054
 21
1312.637781
  0
LINE
  8
CSLAYER1
  6
CONTINUOUS
 62
     5
 10
1156.015279
 20
1304.873209
 11
1184.993054
 21
1297.108638
  0
LINE
  8
CSLAYER1
  6
CONTINUOUS
 62
     5
 10
2205.990103
 20
1304.873209
 11
2177.012329
 21
1312.637781
  0
LINE
  8
CSLAYER1
  6
CONTINUOUS
 62
     5
 10
2205.990103
 20
1304.873209
 11
2177.012329
 21
1297.108638
  0
LINE
  8
CSLAYER1
  6
CONTINUOUS
 62
     5
 10
2205.990103
 20
1214.930784
 11
2205.990103
 21
1314.873209
  0
ENDBLK
  8
0
  0
BLOCK
  8
CSLAYER1
  2
*D0004
 70
    65
 10
0.0
 20
0.0
 30
0.0
  0
TEXT
  8
CSLAYER1
 62
     7
 10
1621.015137
 20
200.259262
 40
40.000000
 41
0.818182
  1
1050
 50
360.000000
 51
0.000000
  7
EASYDRAW_FONT
 72
     5
 11
1741.015137
 21
200.259262
  0
LINE
  8
CSLAYER1
  6
CONTINUOUS
 62
     5
 10
1156.015279
 20
276.385166
 11
1156.015279
 21
180.259372
  0
LINE
  8
CSLAYER1
  6
CONTINUOUS
 62
     5
 10
1156.015279
 20
190.259372
 11
2206.015279
 21
190.259372
  0
LINE
  8
CSLAYER1
  6
CONTINUOUS
 62
     5
 10
1156.015279
 20
190.259372
 11
1184.993054
 21
198.023944
  0
LINE
  8
CSLAYER1
  6
CONTINUOUS
 62
     5
 10
1156.015279
 20
190.259372
 11
1184.993054
 21
182.494801
  0
LINE
  8
CSLAYER1
  6
CONTINUOUS
 62
     5
 10
2206.015279
 20
190.259372
 11
2177.037504
 21
198.023944
  0
LINE
  8
CSLAYER1
  6
CONTINUOUS
 62
     5
 10
2206.015279
 20
190.259372
 11
2177.037504
 21
182.494801
  0
LINE
  8
CSLAYER1
  6
CONTINUOUS
 62
     5
 10
2206.015279
 20
276.385166
 11
2206.015279
 21
180.259372
  0
ENDBLK
  8
0
  0
BLOCK
  8
CSLAYER1
  2
*D0005
 70
    65
 10
0.0
 20
0.0
 30
0.0
  0
TEXT
  8
CSLAYER1
 62
     7
 10
1022.143127
 20
1778.561401
 40
40.000000
 41
0.843750
  1
800
 50
90.000000
 51
0.000000
  7
EASYDRAW_FONT
 72
     5
 11
1022.143127
 21
1868.561401
  0
LINE
  8
CSLAYER1
  6
CONTINUOUS
 62
     5
 10
1146.015279
 20
1423.561430
 11
1022.143023
 21
1423.561430
  0
LINE
  8
CSLAYER1
  6
CONTINUOUS
 62
     5
 10
1146.015279
 20
2223.561430
 11
1022.143023
 21
2223.561430
  0
LINE
  8
CSLAYER1
  6
CONTINUOUS
 62
     5
 10
1032.143023
 20
1423.561430
 11
1032.143023
 21
2223.561430
  0
LINE
  8
CSLAYER1
  6
CONTINUOUS
 62
     5
 10
1032.143023
 20
1423.561430
 11
1024.378451
 21
1452.539205
  0
LINE
  8
CSLAYER1
  6
CONTINUOUS
 62
     5
 10
1032.143023
 20
1423.561430
 11
1039.907594
 21
1452.539205
  0
LINE
  8
CSLAYER1
  6
CONTINUOUS
 62
     5
 10
1032.143023
 20
2223.561430
 11
1024.378451
 21
2194.583655
  0
LINE
  8
CSLAYER1
  6
CONTINUOUS
 62
     5
 10
1032.143023
 20
2223.561430
 11
1039.907594
 21
2194.583655
  0
ENDBLK
  8
0
  0
BLOCK
  8
CSLAYER1
  2
*D0006
 70
    65
 10
0.0
 20
0.0
 30
0.0
  0
TEXT
  8
CSLAYER1
 62
     7
 10
511.154175
 20
200.259506
 40
40.000000
 41
0.843750
  1
700
 50
0.000000
 51
0.000000
  7
EASYDRAW_FONT
 72
     5
 11
601.154175
 21
200.259506
  0
LINE
  8
CSLAYER1
  6
CONTINUOUS
 62
     5
 10
206.154178
 20
276.385166
 11
206.154178
 21
180.259372
  0
LINE
  8
CSLAYER1
  6
CONTINUOUS
 62
     5
 10
906.154178
 20
276.385166
 11
906.154178
 21
180.259372
  0
LINE
  8
CSLAYER1
  6
CONTINUOUS
 62
     5
 10
206.154178
 20
190.259372
 11
906.154178
 21
190.259372
  0
LINE
  8
CSLAYER1
  6
CONTINUOUS
 62
     5
 10
206.154178
 20
190.259372
 11
235.131953
 21
198.023944
  0
LINE
  8
CSLAYER1
  6
CONTINUOUS
 62
     5
 10
206.154178
 20
190.259372
 11
235.131953
 21
182.494801
  0
LINE
  8
CSLAYER1
  6
CONTINUOUS
 62
     5
 10
906.154178
 20
190.259372
 11
877.176403
 21
198.023944
  0
LINE
  8
CSLAYER1
  6
CONTINUOUS
 62
     5
 10
906.154178
 20
190.259372
 11
877.176403
 21
182.494801
  0
ENDBLK
  8
0
  0
BLOCK
  8
CSLAYER1
  2
BLKF0000
 70
   64
 10
0.0
 20
0.0
 30
0.0
  0
ARC
  8
CSLAYER1
  6
CONTINUOUS
 62
     5
 10
2781.909508
 20
79.335220
 40
3.549225
 50
6.429109
 51
73.182034
  0
ARC
  8
CSLAYER1
  6
CONTINUOUS
 62
     5
 10
2778.448538
 20
78.176827
 40
6.907754
 50
310.517970
 51
330.092764
  0
ARC
  8
CSLAYER1
  6
CONTINUOUS
 62
     5
 10
2778.387888
 20
78.542345
 40
7.148321
 50
-32.205059
 51
9.585194
  0
ARC
  8
CSLAYER1
  6
CONTINUOUS
 62
     5
 10
2781.680616
 20
75.781346
 40
4.767514
 50
180.000000
 51
218.514150
  0
ARC
  8
CSLAYER1
  6
CONTINUOUS
 62
     5
 10
2780.393895
 20
75.104206
 40
3.348282
 50
222.781148
 51
319.406906
  0
ARC
  8
CSLAYER1
  6
CONTINUOUS
 62
     5
 10
2783.459537
 20
76.194099
 40
6.559434
 50
94.574282
 51
183.607718
  0
LINE
  8
CSLAYER1
  6
CONTINUOUS
 62
     5
 10
2796.903443
 20
71.077266
 11
2796.046407
 21
68.038683
  0
LINE
  8
CSLAYER1
  6
CONTINUOUS
 62
     5
 10
2798.695428
 20
90.944924
 11
2796.591794
 21
93.671857
  0
LINE
  8
CSLAYER1
  6
CONTINUOUS
 62
     5
 10
2796.591794
 20
93.671857
 11
2789.838440
 21
97.429769
  0
LINE
  8
CSLAYER1
  6
CONTINUOUS
 62
     5
 10
2789.838440
 20
97.429769
 11
2782.936412
 21
98.232640
  0
LINE
  8
CSLAYER1
  6
CONTINUOUS
 62
     5
 10
2764.647187
 20
84.853966
 11
2766.793881
 21
89.818197
  0
LINE
  8
CSLAYER1
  6
CONTINUOUS
 62
     5
 10
2766.756884
 20
89.732640
 11
2768.940576
 21
92.367396
  0
LINE
  8
CSLAYER1
  6
CONTINUOUS
 62
     5
 10
2768.940576
 20
92.367396
 11
2772.244998
 21
94.732640
  0
LINE
  8
CSLAYER1
  6
CONTINUOUS
 62
     5
 10
2782.936412
 20
98.232640
 11
2781.418237
 21
97.465795
  0
LINE
  8
CSLAYER1
  6
CONTINUOUS
 62
     5
 10
2781.418237
 20
97.465795
 11
2777.929858
 21
97.465795
  0
LINE
  8
CSLAYER1
  6
CONTINUOUS
 62
     5
 10
2777.929858
 20
97.465795
 11
2774.374396
 21
95.520354
  0
LINE
  8
CSLAYER1
  6
CONTINUOUS
 62
     5
 10
2774.374396
 20
95.520354
 11
2772.244998
 21
94.732640
  0
LINE
  8
CSLAYER1
  6
CONTINUOUS
 62
     5
 10
2764.647187
 20
84.853966
 11
2763.129640
 21
77.305363
  0
LINE
  8
CSLAYER1
  6
CONTINUOUS
 62
     5
 10
2763.129640
 20
77.305363
 11
2762.936412
 21
74.732640
  0
LINE
  8
CSLAYER1
  6
CONTINUOUS
 62
     5
 10
2765.645795
 20
66.892857
 11
2762.936412
 21
72.988969
  0
LINE
  8
CSLAYER1
  6
CONTINUOUS
 62
     5
 10
2762.936412
 20
72.988969
 11
2762.936412
 21
74.732640
  0
LINE
  8
CSLAYER1
  6
CONTINUOUS
 62
     5
 10
2796.046407
 20
68.038683
 11
2794.360620
 21
65.035677
  0
LINE
  8
CSLAYER1
  6
CONTINUOUS
 62
     5
 10
2794.360620
 20
65.035677
 11
2792.936412
 21
63.716966
  0
ARC
  8
CSLAYER1
  6
CONTINUOUS
 62
     5
 10
2780.744468
 20
75.269400
 40
17.266626
 50
208.054813
 51
260.640470
  0
ARC
  8
CSLAYER1
  6
CONTINUOUS
 62
     5
 10
2775.551072
 20
88.011870
 40
29.874611
 50
274.579659
 51
305.587364
  0
ARC
  8
CSLAYER1
  6
CONTINUOUS
 62
     5
 10
2786.523421
 20
82.028147
 40
15.088627
 50
313.467013
 51
331.085078
  0
LINE
  8
CSLAYER1
  6
CONTINUOUS
 62
     5
 10
2801.314754
 20
78.246061
 11
2801.612048
 21
82.028147
  0
LINE
  8
CSLAYER1
  6
CONTINUOUS
 62
     5
 10
2801.612048
 20
82.028147
 11
2800.320051
 21
88.137130
  0
LINE
  8
CSLAYER1
  6
CONTINUOUS
 62
     5
 10
2801.314754
 20
78.246061
 11
2799.731079
 21
74.732640
  0
ARC
  8
CSLAYER1
  6
CONTINUOUS
 62
     5
 10
2786.523421
 20
82.028147
 40
15.088627
 50
23.883193
 51
36.225170
  0
LINE
  8
CSLAYER1
  6
CONTINUOUS
 62
     5
 10
2746.936412
 20
109.732640
 11
2747.936412
 21
110.825284
  0
LINE
  8
CSLAYER1
  6
CONTINUOUS
 62
     5
 10
2746.936412
 20
109.732640
 11
2748.513370
 21
108.287607
  0
LINE
  8
CSLAYER1
  6
CONTINUOUS
 62
     5
 10
2750.052583
 20
106.178315
 11
2750.078851
 21
104.010196
  0
LINE
  8
CSLAYER1
  6
CONTINUOUS
 62
     5
 10
2750.078851
 20
104.010196
 11
2750.286249
 21
103.249737
  0
LINE
  8
CSLAYER1
  6
CONTINUOUS
 62
     5
 10
2750.286249
 20
103.249737
 11
2750.873877
 21
102.523844
  0
LINE
  8
CSLAYER1
  6
CONTINUOUS
 62
     5
 10
2750.873877
 20
102.523844
 11
2751.461504
 21
102.592977
  0
LINE
  8
CSLAYER1
  6
CONTINUOUS
 62
     5
 10
2751.461504
 20
102.592977
 11
2752.083698
 21
102.765808
  0
LINE
  8
CSLAYER1
  6
CONTINUOUS
 62
     5
 10
2752.083698
 20
102.765808
 11
2752.498494
 21
102.592977
  0
LINE
  8
CSLAYER1
  6
CONTINUOUS
 62
     5
 10
2752.498494
 20
102.592977
 11
2753.397219
 21
102.143614
  0
LINE
  8
CSLAYER1
  6
CONTINUOUS
 62
     5
 10
2753.397219
 20
102.143614
 11
2754.173270
 21
101.732640
  0
LINE
  8
CSLAYER1
  6
CONTINUOUS
 62
     5
 10
2754.173270
 20
101.732640
 11
2754.676173
 21
101.763385
  0
LINE
  8
CSLAYER1
  6
CONTINUOUS
 62
     5
 10
2754.676173
 20
101.763385
 11
2757.484045
 21
103.209864
  0
LINE
  8
CSLAYER1
  6
CONTINUOUS
 62
     5
 10
2747.936412
 20
110.825284
 11
2748.269264
 21
112.298991
  0
LINE
  8
CSLAYER1
  6
CONTINUOUS
 62
     5
 10
2748.269264
 20
112.298991
 11
2749.722669
 21
112.449344
  0
LINE
  8
CSLAYER1
  6
CONTINUOUS
 62
     5
 10
2751.216428
 20
115.217802
 11
2752.970601
 21
115.374892
  0
LINE
  8
CSLAYER1
  6
CONTINUOUS
 62
     5
 10
2752.970601
 20
115.374892
 11
2756.505128
 21
116.212706
  0
LINE
  8
CSLAYER1
  6
CONTINUOUS
 62
     5
 10
2756.505128
 20
116.212706
 11
2757.936412
 21
116.544345
  0
LINE
  8
CSLAYER1
  6
CONTINUOUS
 62
     5
 10
2751.216428
 20
115.217802
 11
2749.283537
 21
115.376670
  0
LINE
  8
CSLAYER1
  6
CONTINUOUS
 62
     5
 10
2748.547414
 20
114.507983
 11
2748.640939
 21
114.136822
  0
LINE
  8
CSLAYER1
  6
CONTINUOUS
 62
     5
 10
2748.640939
 20
114.136822
 11
2749.132533
 21
113.599141
  0
LINE
  8
CSLAYER1
  6
CONTINUOUS
 62
     5
 10
2749.132533
 20
113.599141
 11
2749.808475
 21
113.092184
  0
LINE
  8
CSLAYER1
  6
CONTINUOUS
 62
     5
 10
2749.808475
 20
113.092184
 11
2749.931800
 21
112.927751
  0
LINE
  8
CSLAYER1
  6
CONTINUOUS
 62
     5
 10
2748.513370
 20
108.287607
 11
2750.052583
 21
106.178315
  0
ARC
  8
CSLAYER1
  6
CONTINUOUS
 62
     5
 10
2792.923113
 20
-61.926013
 40
180.727463
 50
80.438896
 51
96.353582
  0
ARC
  8
CSLAYER1
  6
CONTINUOUS
 62
     5
 10
2768.024200
 20
83.321887
 40
34.720242
 50
81.866516
 51
106.890578
  0
LINE
  8
CSLAYER1
  6
CONTINUOUS
 62
     5
 10
2827.130674
 20
115.499310
 11
2829.377756
 21
114.477909
  0
LINE
  8
CSLAYER1
  6
CONTINUOUS
 62
     5
 10
2832.952661
 20
112.894737
 11
2829.377756
 21
114.477909
  0
LINE
  8
CSLAYER1
  6
CONTINUOUS
 62
     5
 10
2827.130674
 20
115.499310
 11
2822.936412
 21
116.291881
  0
LINE
  8
CSLAYER1
  6
CONTINUOUS
 62
     5
 10
2832.936412
 20
112.901933
 11
2834.807988
 21
111.333456
  0
LINE
  8
CSLAYER1
  6
CONTINUOUS
 62
     5
 10
2816.179668
 20
113.938783
 11
2817.078943
 21
115.391458
  0
LINE
  8
CSLAYER1
  6
CONTINUOUS
 62
     5
 10
2817.078943
 20
115.391458
 11
2821.754542
 21
114.271949
  0
LINE
  8
CSLAYER1
  6
CONTINUOUS
 62
     5
 10
2821.754542
 20
114.271949
 11
2838.496928
 21
109.732640
  0
LINE
  8
CSLAYER1
  6
CONTINUOUS
 62
     5
 10
2841.436412
 20
109.732640
 11
2834.807988
 21
111.333456
  0
LINE
  8
CSLAYER1
  6
CONTINUOUS
 62
     5
 10
2838.496928
 20
109.732640
 11
2841.436412
 21
109.732640
  0
LINE
  8
CSLAYER1
  6
CONTINUOUS
 62
     5
 10
2782.936412
 20
114.197581
 11
2802.936412
 21
114.732640
  0
LINE
  8
CSLAYER1
  6
CONTINUOUS
 62
     5
 10
2802.936412
 20
114.732640
 11
2816.179668
 21
113.938783
  0
LINE
  8
CSLAYER1
  6
CONTINUOUS
 62
     5
 10
2817.782649
 20
111.878304
 11
2802.936412
 21
113.232640
  0
LINE
  8
CSLAYER1
  6
CONTINUOUS
 62
     5
 10
2802.936412
 20
113.232640
 11
2787.887203
 21
113.641292
  0
LINE
  8
CSLAYER1
  6
CONTINUOUS
 62
     5
 10
2787.936412
 20
113.639956
 11
2782.936412
 21
113.735249
  0
LINE
  8
CSLAYER1
  6
CONTINUOUS
 62
     5
 10
2782.936412
 20
114.197581
 11
2782.936412
 21
113.735249
  0
LINE
  8
CSLAYER1
  6
CONTINUOUS
 62
     5
 10
2840.436412
 20
106.232640
 11
2831.593854
 21
108.543302
  0
LINE
  8
CSLAYER1
  6
CONTINUOUS
 62
     5
 10
2817.782649
 20
111.878304
 11
2827.936412
 21
109.905920
  0
LINE
  8
CSLAYER1
  6
CONTINUOUS
 62
     5
 10
2827.936412
 20
109.905920
 11
2831.593854
 21
108.543302
  0
LINE
  8
CSLAYER1
  6
CONTINUOUS
 62
     5
 10
2840.436412
 20
106.232640
 11
2840.143795
 21
105.393534
  0
LINE
  8
CSLAYER1
  6
CONTINUOUS
 62
     5
 10
2849.936412
 20
100.732640
 11
2849.630385
 21
101.961621
  0
LINE
  8
CSLAYER1
  6
CONTINUOUS
 62
     5
 10
2840.143795
 20
105.393534
 11
2849.630385
 21
101.961621
  0
LINE
  8
CSLAYER1
  6
CONTINUOUS
 62
     5
 10
2786.436412
 20
106.232640
 11
2788.859450
 21
106.232640
  0
LINE
  8
CSLAYER1
  6
CONTINUOUS
 62
     5
 10
2808.936412
 20
106.665135
 11
2808.936412
 21
106.232640
  0
LINE
  8
CSLAYER1
  6
CONTINUOUS
 62
     5
 10
2807.936412
 20
107.199576
 11
2806.225133
 21
107.836755
  0
LINE
  8
CSLAYER1
  6
CONTINUOUS
 62
     5
 10
2806.225133
 20
107.836755
 11
2805.115077
 21
107.887212
  0
LINE
  8
CSLAYER1
  6
CONTINUOUS
 62
     5
 10
2805.115077
 20
107.887212
 11
2804.635735
 21
107.634926
  0
LINE
  8
CSLAYER1
  6
CONTINUOUS
 62
     5
 10
2804.635735
 20
107.634926
 11
2804.534821
 21
107.231270
  0
LINE
  8
CSLAYER1
  6
CONTINUOUS
 62
     5
 10
2804.534821
 20
107.231270
 11
2804.988934
 21
106.928527
  0
LINE
  8
CSLAYER1
  6
CONTINUOUS
 62
     5
 10
2804.988934
 20
106.928527
 11
2806.628790
 21
106.777156
  0
LINE
  8
CSLAYER1
  6
CONTINUOUS
 62
     5
 10
2806.628790
 20
106.777156
 11
2808.936412
 21
106.665135
  0
LINE
  8
CSLAYER1
  6
CONTINUOUS
 62
     5
 10
2849.936412
 20
100.732640
 11
2846.960870
 21
101.919221
  0
LINE
  8
CSLAYER1
  6
CONTINUOUS
 62
     5
 10
2846.960870
 20
101.919221
 11
2836.905180
 21
103.762097
  0
LINE
  8
CSLAYER1
  6
CONTINUOUS
 62
     5
 10
2836.905180
 20
103.762097
 11
2831.879400
 21
104.921892
  0
LINE
  8
CSLAYER1
  6
CONTINUOUS
 62
     5
 10
2809.470633
 20
107.232640
 11
2821.236299
 21
107.232640
  0
LINE
  8
CSLAYER1
  6
CONTINUOUS
 62
     5
 10
2807.936412
 20
107.199576
 11
2808.461072
 21
106.891109
  0
LINE
  8
CSLAYER1
  6
CONTINUOUS
 62
     5
 10
2808.461072
 20
106.891109
 11
2808.757884
 21
106.802065
  0
LINE
  8
CSLAYER1
  6
CONTINUOUS
 62
     5
 10
2808.757884
 20
106.802065
 11
2808.936412
 21
106.827236
  0
LINE
  8
CSLAYER1
  6
CONTINUOUS
 62
     5
 10
2808.936412
 20
106.827236
 11
2809.470633
 21
107.232640
  0
LINE
  8
CSLAYER1
  6
CONTINUOUS
 62
     5
 10
2821.236299
 20
107.232640
 11
2825.686568
 21
106.203814
  0
LINE
  8
CSLAYER1
  6
CONTINUOUS
 62
     5
 10
2825.686568
 20
106.203814
 11
2829.839760
 21
105.038665
  0
LINE
  8
CSLAYER1
  6
CONTINUOUS
 62
     5
 10
2829.839760
 20
105.038665
 11
2831.879400
 21
104.921892
  0
LINE
  8
CSLAYER1
  6
CONTINUOUS
 62
     5
 10
2785.436412
 20
105.232640
 11
2785.436412
 21
104.732640
  0
LINE
  8
CSLAYER1
  6
CONTINUOUS
 62
     5
 10
2782.936412
 20
104.732640
 11
2785.436412
 21
104.732640
  0
ARC
  8
CSLAYER1
  6
CONTINUOUS
 62
     5
 10
2786.436412
 20
105.232640
 40
1.000000
 50
90.000000
 51
180.000000
  0
LINE
  8
CSLAYER1
  6
CONTINUOUS
 62
     5
 10
2788.859450
 20
106.232640
 11
2789.557007
 21
105.660643
  0
LINE
  8
CSLAYER1
  6
CONTINUOUS
 62
     5
 10
2790.159375
 20
105.636683
 11
2791.016972
 21
106.232640
  0
LINE
  8
CSLAYER1
  6
CONTINUOUS
 62
     5
 10
2792.595368
 20
106.232640
 11
2794.262494
 21
105.574564
  0
LINE
  8
CSLAYER1
  6
CONTINUOUS
 62
     5
 10
2794.686203
 20
105.601076
 11
2795.839690
 21
106.232640
  0
LINE
  8
CSLAYER1
  6
CONTINUOUS
 62
     5
 10
2791.016972
 20
106.232640
 11
2792.595368
 21
106.232640
  0
LINE
  8
CSLAYER1
  6
CONTINUOUS
 62
     5
 10
2795.839690
 20
106.232640
 11
2808.936412
 21
106.232640
  0
LINE
  8
CSLAYER1
  6
CONTINUOUS
 62
     5
 10
2761.485395
 20
103.123813
 11
2782.936412
 21
104.732640
  0
LINE
  8
CSLAYER1
  6
CONTINUOUS
 62
     5
 10
2757.484045
 20
103.209864
 11
2761.485395
 21
103.123813
  0
ARC
  8
CSLAYER1
  6
CONTINUOUS
 62
     5
 10
2789.874047
 20
106.047277
 40
0.500000
 50
230.648247
 51
304.796026
  0
ARC
  8
CSLAYER1
  6
CONTINUOUS
 62
     5
 10
2794.446077
 20
106.039642
 40
0.500000
 50
248.459024
 51
298.701829
  0
ARC
  8
CSLAYER1
  6
CONTINUOUS
 62
     5
 10
2749.691800
 20
112.747751
 40
0.300000
 50
-84.093859
 51
36.869898
  0
ARC
  8
CSLAYER1
  6
CONTINUOUS
 62
     5
 10
2749.226196
 20
114.679023
 40
0.700000
 50
85.301319
 51
194.142980
  0
LINE
  8
CSLAYER1
  6
CONTINUOUS
 62
     3
 10
2781.418237
 20
97.465795
 11
2789.528732
 21
97.465795
  0
LINE
  8
CSLAYER1
  6
CONTINUOUS
 62
     3
 10
2775.005720
 20
95.865795
 11
2792.649061
 21
95.865795
  0
LINE
  8
CSLAYER1
  6
CONTINUOUS
 62
     3
 10
2771.592781
 20
94.265795
 11
2795.524426
 21
94.265795
  0
LINE
  8
CSLAYER1
  6
CONTINUOUS
 62
     3
 10
2769.357462
 20
92.665795
 11
2797.367899
 21
92.665795
  0
LINE
  8
CSLAYER1
  6
CONTINUOUS
 62
     3
 10
2767.861806
 20
91.065795
 11
2798.602184
 21
91.065795
  0
LINE
  8
CSLAYER1
  6
CONTINUOUS
 62
     3
 10
2766.641492
 20
89.465795
 11
2799.651561
 21
89.465795
  0
LINE
  8
CSLAYER1
  6
CONTINUOUS
 62
     3
 10
2765.949600
 20
87.865795
 11
2800.377436
 21
87.865795
  0
LINE
  8
CSLAYER1
  6
CONTINUOUS
 62
     3
 10
2765.257708
 20
86.265795
 11
2800.715822
 21
86.265795
  0
LINE
  8
CSLAYER1
  6
CONTINUOUS
 62
     3
 10
2764.609358
 20
84.665795
 11
2801.054208
 21
84.665795
  0
LINE
  8
CSLAYER1
  6
CONTINUOUS
 62
     3
 10
2764.287699
 20
83.065795
 11
2801.392594
 21
83.065795
  0
LINE
  8
CSLAYER1
  6
CONTINUOUS
 62
     3
 10
2763.966040
 20
81.465795
 11
2779.556283
 21
81.465795
  0
LINE
  8
CSLAYER1
  6
CONTINUOUS
 62
     3
 10
2763.644381
 20
79.865795
 11
2778.024022
 21
79.865795
  0
LINE
  8
CSLAYER1
  6
CONTINUOUS
 62
     3
 10
2763.322722
 20
78.265795
 11
2777.235852
 21
78.265795
  0
LINE
  8
CSLAYER1
  6
CONTINUOUS
 62
     3
 10
2763.081604
 20
76.665795
 11
2776.917085
 21
76.665795
  0
LINE
  8
CSLAYER1
  6
CONTINUOUS
 62
     3
 10
2762.961434
 20
75.065795
 11
2776.967106
 21
75.065795
  0
LINE
  8
CSLAYER1
  6
CONTINUOUS
 62
     3
 10
2762.936412
 20
73.465795
 11
2777.513193
 21
73.465795
  0
LINE
  8
CSLAYER1
  6
CONTINUOUS
 62
     3
 10
2763.435600
 20
71.865795
 11
2779.543195
 21
71.865795
  0
LINE
  8
CSLAYER1
  6
CONTINUOUS
 62
     3
 10
2764.146711
 20
70.265795
 11
2796.674567
 21
70.265795
  0
LINE
  8
CSLAYER1
  6
CONTINUOUS
 62
     3
 10
2764.857823
 20
68.665795
 11
2796.223285
 21
68.665795
  0
LINE
  8
CSLAYER1
  6
CONTINUOUS
 62
     3
 10
2765.568934
 20
67.065795
 11
2795.500261
 21
67.065795
  0
LINE
  8
CSLAYER1
  6
CONTINUOUS
 62
     3
 10
2766.530893
 20
65.465795
 11
2794.602074
 21
65.465795
  0
LINE
  8
CSLAYER1
  6
CONTINUOUS
 62
     3
 10
2767.779354
 20
63.865795
 11
2793.097148
 21
63.865795
  0
LINE
  8
CSLAYER1
  6
CONTINUOUS
 62
     3
 10
2769.384774
 20
62.265795
 11
2790.704687
 21
62.265795
  0
LINE
  8
CSLAYER1
  6
CONTINUOUS
 62
     3
 10
2771.531916
 20
60.665795
 11
2787.579564
 21
60.665795
  0
LINE
  8
CSLAYER1
  6
CONTINUOUS
 62
     3
 10
2774.779606
 20
59.065795
 11
2782.941415
 21
59.065795
  0
LINE
  8
CSLAYER1
  6
CONTINUOUS
 62
     3
 10
2784.748107
 20
81.465795
 11
2801.567844
 21
81.465795
  0
LINE
  8
CSLAYER1
  6
CONTINUOUS
 62
     3
 10
2785.418851
 20
79.865795
 11
2801.442074
 21
79.865795
  0
LINE
  8
CSLAYER1
  6
CONTINUOUS
 62
     3
 10
2785.530858
 20
78.265795
 11
2801.316305
 21
78.265795
  0
LINE
  8
CSLAYER1
  6
CONTINUOUS
 62
     3
 10
2785.285501
 20
76.665795
 11
2800.602449
 21
76.665795
  0
LINE
  8
CSLAYER1
  6
CONTINUOUS
 62
     3
 10
2784.633855
 20
75.065795
 11
2799.881249
 21
75.065795
  0
LINE
  8
CSLAYER1
  6
CONTINUOUS
 62
     3
 10
2783.500592
 20
73.465795
 11
2798.947301
 21
73.465795
  0
LINE
  8
CSLAYER1
  6
CONTINUOUS
 62
     3
 10
2781.244595
 20
71.865795
 11
2797.676594
 21
71.865795
  0
TEXT
  8
CSLAYER1
 62
     5
 10
2802.108183
 20
79.476970
 40
4.713448
 41
1.951056
  1
M
 50
0.000000
 51
0.000000
  7
EASYDRAW_FONT
 72
     5
 11
2808.238985
 21
79.476970
  0
TEXT
  8
CSLAYER1
 62
     5
 10
2811.759570
 20
79.418700
 40
4.626621
 41
0.778201
  1
T
 50
0.000000
 51
0.000000
  7
EASYDRAW_FONT
 72
     5
 11
2814.159863
 21
79.418700
  0
TEXT
  8
CSLAYER1
 62
     5
 10
2814.525133
 20
79.453499
 40
4.696183
 41
1.055553
  1
E
 50
0.000000
 51
0.000000
  7
EASYDRAW_FONT
 72
     5
 11
2817.829848
 21
79.453499
  0
TEXT
  8
CSLAYER1
 62
     5
 10
2817.641314
 20
81.069343
 40
0.348283
 41
9.375319
  1
-
 50
0.000000
 51
0.000000
  7
EASYDRAW_FONT
 72
     5
 11
2819.818159
 21
81.069343
  0
TEXT
  8
CSLAYER1
 62
     5
 10
2819.455523
 20
79.422152
 40
4.861659
 41
1.298502
  1
H
 50
0.000000
 51
0.000000
  7
EASYDRAW_FONT
 72
     5
 11
2823.664106
 21
79.422152
  0
TEXT
  8
CSLAYER1
 62
     5
 10
2823.531538
 20
79.452530
 40
4.843139
 41
1.269236
  1
A
 50
0.000000
 51
0.000000
  7
EASYDRAW_FONT
 72
     5
 11
2827.629595
 21
79.452530
  0
TEXT
  8
CSLAYER1
 62
     5
 10
2827.237694
 20
79.411004
 40
4.825362
 41
1.490144
  1
N
 50
0.000000
 51
0.000000
  7
EASYDRAW_FONT
 72
     5
 11
2832.031349
 21
79.411004
  0
TEXT
  8
CSLAYER1
 62
     5
 10
2808.029152
 20
79.388431
 40
4.982325
 41
1.177443
  1
A
 50
0.000000
 51
0.000000
  7
EASYDRAW_FONT
 72
     5
 11
2811.940086
 21
79.388431
  0
TEXT
  8
CSLAYER1
 62
     5
 10
2802.475197
 20
72.393191
 40
4.982325
 41
1.177443
  1
A
 50
0.000000
 51
0.000000
  7
EASYDRAW_FONT
 72
     5
 11
2806.386131
 21
72.393191
  0
TEXT
  8
CSLAYER1
 62
     5
 10
2815.259621
 20
72.421512
 40
4.982325
 41
1.177443
  1
A
 50
0.000000
 51
0.000000
  7
EASYDRAW_FONT
 72
     5
 11
2819.170555
 21
72.421512
  0
TEXT
  8
CSLAYER1
 62
     5
 10
2819.020165
 20
72.478509
 40
4.825362
 41
1.490144
  1
N
 50
0.000000
 51
0.000000
  7
EASYDRAW_FONT
 72
     5
 11
2823.813819
 21
72.478509
  0
TEXT
  8
CSLAYER1
 62
     5
 10
2827.922501
 20
72.486903
 40
4.841775
 41
1.184218
  1
E
 50
0.000000
 51
0.000000
  7
EASYDRAW_FONT
 72
     5
 11
2831.744980
 21
72.486903
  0
TEXT
  8
CSLAYER1
 62
     5
 10
2806.755750
 20
72.391867
 40
4.947865
 41
1.093992
  1
D
 50
0.000000
 51
0.000000
  7
EASYDRAW_FONT
 72
     5
 11
2810.364367
 21
72.391867
  0
TEXT
  8
CSLAYER1
 62
     5
 10
2811.158109
 20
72.386482
 40
4.924210
 41
1.228195
  1
V
 50
0.000000
 51
0.000000
  7
EASYDRAW_FONT
 72
     5
 11
2815.190036
 21
72.386482
  0
TEXT
  8
CSLAYER1
 62
     5
 10
2823.383310
 20
72.407213
 40
5.032894
 41
1.481023
  1
C
 50
0.000000
 51
0.000000
  7
EASYDRAW_FONT
 72
     5
 11
2828.352530
 21
72.407213
  0
LINE
  8
CSLAYER1
  6
CONTINUOUS
 62
     5
 10
2814.013749
 20
83.467612
 11
2813.001687
 21
83.467612
  0
LINE
  8
CSLAYER1
  6
CONTINUOUS
 62
     3
 10
2763.111987
 20
117.692883
 11
2812.909813
 21
117.692883
  0
LINE
  8
CSLAYER1
  6
CONTINUOUS
 62
     3
 10
2755.999623
 20
116.092883
 11
2823.989505
 21
116.092883
  0
LINE
  8
CSLAYER1
  6
CONTINUOUS
 62
     3
 10
2748.551219
 20
114.492883
 11
2793.974529
 21
114.492883
  0
LINE
  8
CSLAYER1
  6
CONTINUOUS
 62
     3
 10
2806.936079
 20
114.492883
 11
2816.522682
 21
114.492883
  0
LINE
  8
CSLAYER1
  6
CONTINUOUS
 62
     3
 10
2820.831816
 20
114.492883
 11
2829.344813
 21
114.492883
  0
LINE
  8
CSLAYER1
  6
CONTINUOUS
 62
     3
 10
2749.954358
 20
112.892883
 11
2806.660827
 21
112.892883
  0
LINE
  8
CSLAYER1
  6
CONTINUOUS
 62
     3
 10
2826.840965
 20
112.892883
 11
2832.947211
 21
112.892883
  0
LINE
  8
CSLAYER1
  6
CONTINUOUS
 62
     3
 10
2748.042024
 20
111.292883
 11
2820.796375
 21
111.292883
  0
LINE
  8
CSLAYER1
  6
CONTINUOUS
 62
     3
 10
2832.742264
 20
111.292883
 11
2834.975986
 21
111.292883
  0
LINE
  8
CSLAYER1
  6
CONTINUOUS
 62
     3
 10
2746.979799
 20
109.692883
 11
2828.508231
 21
109.692883
  0
LINE
  8
CSLAYER1
  6
CONTINUOUS
 62
     3
 10
2748.655466
 20
108.092883
 11
2833.317540
 21
108.092883
  0
LINE
  8
CSLAYER1
  6
CONTINUOUS
 62
     3
 10
2749.823033
 20
106.492883
 11
2808.936412
 21
106.492883
  0
LINE
  8
CSLAYER1
  6
CONTINUOUS
 62
     3
 10
2824.436177
 20
106.492883
 11
2839.440500
 21
106.492883
  0
LINE
  8
CSLAYER1
  6
CONTINUOUS
 62
     3
 10
2750.068157
 20
104.892883
 11
2785.436412
 21
104.892883
  0
LINE
  8
CSLAYER1
  6
CONTINUOUS
 62
     3
 10
2832.005106
 20
104.892883
 11
2841.527709
 21
104.892883
  0
LINE
  8
CSLAYER1
  6
CONTINUOUS
 62
     3
 10
2750.274482
 20
103.292883
 11
2763.739655
 21
103.292883
  0
LINE
  8
CSLAYER1
  6
CONTINUOUS
 62
     3
 10
2839.465455
 20
103.292883
 11
2845.950473
 21
103.292883
  0
LINE
  8
CSLAYER1
  6
CONTINUOUS
 62
     3
 10
2847.528449
 20
101.692883
 11
2849.697303
 21
101.692883
  0
ENDBLK
  8
0
  0
BLOCK
  8
CSLAYER1
  2
BLKF0001
 70
   64
 10
0.0
 20
0.0
 30
0.0
  0
LINE
  8
CSLAYER1
  6
CONTINUOUS
 62
     1
 10
2112.015279
 20
393.885166
 11
2112.015279
 21
391.685166
  0
LINE
  8
CSLAYER1
  6
CONTINUOUS
 62
     1
 10
2119.015279
 20
393.885166
 11
2119.015279
 21
391.685166
  0
LINE
  8
CSLAYER1
  6
CONTINUOUS
 62
     1
 10
2119.015279
 20
392.685166
 11
2112.015279
 21
392.685166
  0
LINE
  8
CSLAYER1
  6
CONTINUOUS
 62
     1
 10
2117.615279
 20
395.285166
 11
2113.415279
 21
395.285166
  0
LINE
  8
CSLAYER1
  6
CONTINUOUS
 62
     1
 10
2120.015279
 20
391.685166
 11
2120.015279
 21
390.885166
  0
LINE
  8
CSLAYER1
  6
CONTINUOUS
 62
     1
 10
2111.015279
 20
391.685166
 11
2111.015279
 21
390.885166
  0
LINE
  8
CSLAYER1
  6
CONTINUOUS
 62
     1
 10
2119.015279
 20
393.885166
 11
2119.015279
 21
392.685166
  0
LINE
  8
CSLAYER1
  6
CONTINUOUS
 62
     1
 10
2120.015279
 20
391.685166
 11
2111.015279
 21
391.685166
  0
ARC
  8
CSLAYER1
  6
CONTINUOUS
 62
     1
 10
2117.615279
 20
393.885166
 40
1.400000
 50
-0.000000
 51
90.000000
  0
ARC
  8
CSLAYER1
  6
CONTINUOUS
 62
     1
 10
2113.415279
 20
393.885166
 40
1.400000
 50
90.000000
 51
180.000000
  0
LINE
  8
CSLAYER1
  6
CONTINUOUS
 62
     1
 10
2116.555231
 20
391.685166
 11
2114.170029
 21
392.685166
  0
ENDBLK
  8
0
  0
BLOCK
  8
CSLAYER1
  2
BLKF0002
 70
   64
 10
0.0
 20
0.0
 30
0.0
  0
LINE
  8
CSLAYER1
  6
CONTINUOUS
 62
     3
 10
2512.012870
 20
1753.361430
 11
2512.012870
 21
1815.361430
  0
LINE
  8
CSLAYER1
  6
CONTINUOUS
 62
     3
 10
2514.512870
 20
1750.861430
 11
2599.512870
 21
1750.861430
  0
LINE
  8
CSLAYER1
  6
CENTER
 62
     5
 10
2453.663231
 20
1823.361430
 11
2512.012870
 21
1823.361430
  0
LINE
  8
CSLAYER1
  6
CONTINUOUS
 62
     2
 10
2514.512870
 20
1807.361430
 11
2599.512870
 21
1807.361430
  0
LINE
  8
CSLAYER1
  6
CONTINUOUS
 62
     3
 10
2514.512870
 20
1755.861430
 11
2514.512870
 21
1800.861430
  0
LINE
  8
CSLAYER1
  6
CONTINUOUS
 62
     3
 10
2602.012870
 20
1753.361430
 11
2602.012870
 21
1823.361430
  0
LINE
  8
CSLAYER1
  6
CONTINUOUS
 62
     3
 10
2517.012870
 20
1753.361430
 11
2594.012870
 21
1753.361430
  0
LINE
  8
CSLAYER1
  6
CONTINUOUS
 62
     3
 10
2517.012870
 20
1803.361430
 11
2594.012870
 21
1803.361430
  0
ARC
  8
CSLAYER1
  6
CONTINUOUS
 62
     3
 10
2539.944689
 20
1778.361430
 40
59.568182
 50
-24.814837
 51
24.814837
  0
ARC
  8
CSLAYER1
  6
CONTINUOUS
 62
     3
 10
2517.012870
 20
1755.861430
 40
2.500000
 50
180.000000
 51
270.000000
  0
ARC
  8
CSLAYER1
  6
CONTINUOUS
 62
     3
 10
2517.012870
 20
1800.861430
 40
2.500000
 50
90.000000
 51
180.000000
  0
ARC
  8
CSLAYER1
  6
CONTINUOUS
 62
     3
 10
2514.512870
 20
1753.361430
 40
2.500000
 50
180.000000
 51
270.000000
  0
ARC
  8
CSLAYER1
  6
CONTINUOUS
 62
     3
 10
2599.512870
 20
1753.361430
 40
2.500000
 50
270.000000
 51
360.000000
  0
ARC
  8
CSLAYER1
  6
CONTINUOUS
 62
     2
 10
2599.512870
 20
1809.861430
 40
2.500000
 50
270.000000
 51
360.000000
  0
ARC
  8
CSLAYER1
  6
CONTINUOUS
 62
     2
 10
2514.512870
 20
1809.861430
 40
2.500000
 50
180.000000
 51
270.000000
  0
LINE
  8
CSLAYER1
  6
CONTINUOUS
 62
     3
 10
2512.012870
 20
1893.361430
 11
2512.012870
 21
1831.361430
  0
LINE
  8
CSLAYER1
  6
CONTINUOUS
 62
     3
 10
2514.512870
 20
1895.861430
 11
2599.512870
 21
1895.861430
  0
LINE
  8
CSLAYER1
  6
CONTINUOUS
 62
     2
 10
2514.512870
 20
1839.361430
 11
2599.512870
 21
1839.361430
  0
LINE
  8
CSLAYER1
  6
CONTINUOUS
 62
     3
 10
2602.012870
 20
1893.361430
 11
2602.012870
 21
1823.361430
  0
ARC
  8
CSLAYER1
  6
CONTINUOUS
 62
     3
 10
2514.512870
 20
1893.361430
 40
2.500000
 50
90.000000
 51
180.000000
  0
ARC
  8
CSLAYER1
  6
CONTINUOUS
 62
     3
 10
2599.512870
 20
1893.361430
 40
2.500000
 50
0.000000
 51
90.000000
  0
ARC
  8
CSLAYER1
  6
CONTINUOUS
 62
     2
 10
2599.512870
 20
1836.861430
 40
2.500000
 50
0.000000
 51
90.000000
  0
ARC
  8
CSLAYER1
  6
CONTINUOUS
 62
     2
 10
2514.512870
 20
1836.861430
 40
2.500000
 50
90.000000
 51
180.000000
  0
LINE
  8
CSLAYER1
  6
CONTINUOUS
 62
     3
 10
2514.512870
 20
1890.861430
 11
2514.512870
 21
1845.861430
  0
LINE
  8
CSLAYER1
  6
CONTINUOUS
 62
     3
 10
2517.012870
 20
1893.361430
 11
2594.012870
 21
1893.361430
  0
LINE
  8
CSLAYER1
  6
CONTINUOUS
 62
     3
 10
2517.012870
 20
1843.361430
 11
2594.012870
 21
1843.361430
  0
ARC
  8
CSLAYER1
  6
CONTINUOUS
 62
     3
 10
2539.944689
 20
1868.361430
 40
59.568182
 50
-24.814837
 51
24.814837
  0
ARC
  8
CSLAYER1
  6
CONTINUOUS
 62
     3
 10
2517.012870
 20
1890.861430
 40
2.500000
 50
90.000000
 51
180.000000
  0
ARC
  8
CSLAYER1
  6
CONTINUOUS
 62
     3
 10
2517.012870
 20
1845.861430
 40
2.500000
 50
180.000000
 51
270.000000
  0
LINE
  8
CSLAYER1
  6
CONTINUOUS
 62
     3
 10
2505.012870
 20
1830.361430
 11
2505.012870
 21
1826.861430
  0
LINE
  8
CSLAYER1
  6
CONTINUOUS
 62
     3
 10
2453.663231
 20
1826.861430
 11
2505.012870
 21
1826.861430
  0
LINE
  8
CSLAYER1
  6
CONTINUOUS
 62
     3
 10
2506.012870
 20
1831.361430
 11
2512.012870
 21
1831.361430
  0
LINE
  8
CSLAYER1
  6
CONTINUOUS
 62
     3
 10
2506.012870
 20
1815.361430
 11
2512.012870
 21
1815.361430
  0
LINE
  8
CSLAYER1
  6
CONTINUOUS
 62
     3
 10
2453.663231
 20
1819.861430
 11
2505.012870
 21
1819.861430
  0
ARC
  8
CSLAYER1
  6
CONTINUOUS
 62
     3
 10
2506.012870
 20
1816.361430
 40
1.000000
 50
180.000000
 51
270.000000
  0
ARC
  8
CSLAYER1
  6
CONTINUOUS
 62
     3
 10
2506.012870
 20
1830.361430
 40
1.000000
 50
90.000000
 51
180.000000
  0
LINE
  8
CSLAYER1
  6
CONTINUOUS
 62
     3
 10
2505.012870
 20
1819.861430
 11
2505.012870
 21
1816.361430
  0
LINE
  8
CSLAYER1
  6
CONTINUOUS
 62
     2
 10
2505.012870
 20
1826.861430
 11
2505.012870
 21
1819.861430
  0
LINE
  8
CSLAYER1
  6
CONTINUOUS
 62
     2
 10
2512.012870
 20
1815.361430
 11
2512.012870
 21
1823.361430
  0
LINE
  8
CSLAYER1
  6
CONTINUOUS
 62
     2
 10
2512.012870
 20
1831.361430
 11
2512.012870
 21
1823.361430
  0
LINE
  8
CSLAYER1
  6
CONTINUOUS
 62
     2
 10
2531.505882
 20
1811.198771
 11
2522.370882
 21
1811.198771
  0
LINE
  8
CSLAYER1
  6
CONTINUOUS
 62
     2
 10
2531.505882
 20
1834.823771
 11
2522.370882
 21
1834.823771
  0
LINE
  8
CSLAYER1
  6
CONTINUOUS
 62
     2
 10
2521.110882
 20
1812.458771
 11
2521.110882
 21
1833.563771
  0
LINE
  8
CSLAYER1
  6
CONTINUOUS
 62
     2
 10
2532.765882
 20
1812.458771
 11
2532.765882
 21
1833.563771
  0
LINE
  8
CSLAYER1
  6
CONTINUOUS
 62
     2
 10
2530.875882
 20
1832.933771
 11
2522.843382
 21
1832.933771
  0
LINE
  8
CSLAYER1
  6
CONTINUOUS
 62
     2
 10
2530.875882
 20
1829.783771
 11
2529.930882
 21
1829.783771
  0
LINE
  8
CSLAYER1
  6
CONTINUOUS
 62
     2
 10
2530.875882
 20
1821.121271
 11
2529.930882
 21
1821.121271
  0
LINE
  8
CSLAYER1
  6
CONTINUOUS
 62
     2
 10
2530.875882
 20
1816.553771
 11
2525.835882
 21
1816.553771
  0
LINE
  8
CSLAYER1
  6
CONTINUOUS
 62
     2
 10
2531.978382
 20
1817.656271
 11
2531.978382
 21
1820.018771
  0
LINE
  8
CSLAYER1
  6
CONTINUOUS
 62
     2
 10
2524.733382
 20
1817.656271
 11
2524.733382
 21
1820.018771
  0
LINE
  8
CSLAYER1
  6
CONTINUOUS
 62
     2
 10
2521.740882
 20
1830.886271
 11
2521.740882
 21
1831.831271
  0
LINE
  8
CSLAYER1
  6
CONTINUOUS
 62
     2
 10
2528.985882
 20
1822.066271
 11
2528.985882
 21
1828.838771
  0
LINE
  8
CSLAYER1
  6
CONTINUOUS
 62
     2
 10
2528.198382
 20
1822.066271
 11
2528.198382
 21
1828.838771
  0
ARC
  8
CSLAYER1
  6
CONTINUOUS
 62
     2
 10
2530.875882
 20
1817.656271
 40
1.102500
 50
270.000000
 51
360.000000
  0
ARC
  8
CSLAYER1
  6
CONTINUOUS
 62
     2
 10
2525.835882
 20
1817.656271
 40
1.102500
 50
180.000000
 51
270.000000
  0
ARC
  8
CSLAYER1
  6
CONTINUOUS
 62
     2
 10
2525.835882
 20
1820.018771
 40
1.102500
 50
90.000000
 51
180.000000
  0
ARC
  8
CSLAYER1
  6
CONTINUOUS
 62
     2
 10
2530.875882
 20
1820.018771
 40
1.102500
 50
0.000000
 51
90.000000
  0
ARC
  8
CSLAYER1
  6
CONTINUOUS
 62
     2
 10
2522.843382
 20
1830.886271
 40
1.102500
 50
180.000000
 51
270.000000
  0
ARC
  8
CSLAYER1
  6
CONTINUOUS
 62
     2
 10
2522.843382
 20
1831.831271
 40
1.102500
 50
90.000000
 51
180.000000
  0
ARC
  8
CSLAYER1
  6
CONTINUOUS
 62
     2
 10
2530.875882
 20
1831.831271
 40
1.102500
 50
0.000000
 51
90.000000
  0
ARC
  8
CSLAYER1
  6
CONTINUOUS
 62
     2
 10
2530.875882
 20
1830.886271
 40
1.102500
 50
270.000000
 51
360.000000
  0
LINE
  8
CSLAYER1
  6
CONTINUOUS
 62
     2
 10
2527.253382
 20
1821.121271
 11
2525.835882
 21
1821.121271
  0
LINE
  8
CSLAYER1
  6
CONTINUOUS
 62
     2
 10
2527.253382
 20
1829.783771
 11
2522.843382
 21
1829.783771
  0
ARC
  8
CSLAYER1
  6
CONTINUOUS
 62
     2
 10
2529.930882
 20
1822.066271
 40
0.945000
 50
180.000000
 51
270.000000
  0
ARC
  8
CSLAYER1
  6
CONTINUOUS
 62
     2
 10
2527.253382
 20
1822.066271
 40
0.945000
 50
270.000000
 51
360.000000
  0
ARC
  8
CSLAYER1
  6
CONTINUOUS
 62
     2
 10
2527.253382
 20
1828.838771
 40
0.945000
 50
0.000000
 51
90.000000
  0
ARC
  8
CSLAYER1
  6
CONTINUOUS
 62
     2
 10
2531.505882
 20
1812.458771
 40
1.260000
 50
270.000000
 51
360.000000
  0
ARC
  8
CSLAYER1
  6
CONTINUOUS
 62
     2
 10
2522.370882
 20
1812.458771
 40
1.260000
 50
180.000000
 51
270.000000
  0
ARC
  8
CSLAYER1
  6
CONTINUOUS
 62
     2
 10
2522.370882
 20
1833.563771
 40
1.260000
 50
90.000000
 51
180.000000
  0
ARC
  8
CSLAYER1
  6
CONTINUOUS
 62
     2
 10
2531.505882
 20
1833.563771
 40
1.260000
 50
0.000000
 51
90.000000
  0
ARC
  8
CSLAYER1
  6
CONTINUOUS
 62
     2
 10
2529.930882
 20
1828.838771
 40
0.945000
 50
90.000000
 51
180.000000
  0
LINE
  8
CSLAYER1
  6
CONTINUOUS
 62
     2
 10
2531.978382
 20
1830.886271
 11
2531.978382
 21
1831.831271
  0
CIRCLE
  8
CSLAYER1
  6
CONTINUOUS
 62
     2
 10
2546.512870
 20
1773.361430
 40
2.500000
  0
CIRCLE
  8
CSLAYER1
  6
CONTINUOUS
 62
     2
 10
2546.512870
 20
1763.361430
 40
2.500000
  0
CIRCLE
  8
CSLAYER1
  6
CONTINUOUS
 62
     2
 10
2556.512870
 20
1763.361430
 40
2.500000
  0
CIRCLE
  8
CSLAYER1
  6
CONTINUOUS
 62
     2
 10
2556.512870
 20
1773.361430
 40
2.500000
  0
CIRCLE
  8
CSLAYER1
  6
CONTINUOUS
 62
     2
 10
2566.512870
 20
1773.361430
 40
2.500000
  0
CIRCLE
  8
CSLAYER1
  6
CONTINUOUS
 62
     2
 10
2566.512870
 20
1763.361430
 40
2.500000
  0
CIRCLE
  8
CSLAYER1
  6
CONTINUOUS
 62
     2
 10
2576.512870
 20
1763.361430
 40
2.500000
  0
CIRCLE
  8
CSLAYER1
  6
CONTINUOUS
 62
     2
 10
2576.512870
 20
1773.361430
 40
2.500000
  0
CIRCLE
  8
CSLAYER1
  6
CONTINUOUS
 62
     2
 10
2586.512870
 20
1773.361430
 40
2.500000
  0
CIRCLE
  8
CSLAYER1
  6
CONTINUOUS
 62
     2
 10
2586.512870
 20
1763.361430
 40
2.500000
  0
CIRCLE
  8
CSLAYER1
  6
CONTINUOUS
 62
     2
 10
2546.512870
 20
1783.361430
 40
2.500000
  0
CIRCLE
  8
CSLAYER1
  6
CONTINUOUS
 62
     2
 10
2546.512870
 20
1793.361430
 40
2.500000
  0
CIRCLE
  8
CSLAYER1
  6
CONTINUOUS
 62
     2
 10
2556.512870
 20
1793.361430
 40
2.500000
  0
CIRCLE
  8
CSLAYER1
  6
CONTINUOUS
 62
     2
 10
2556.512870
 20
1783.361430
 40
2.500000
  0
CIRCLE
  8
CSLAYER1
  6
CONTINUOUS
 62
     2
 10
2566.512870
 20
1783.361430
 40
2.500000
  0
CIRCLE
  8
CSLAYER1
  6
CONTINUOUS
 62
     2
 10
2566.512870
 20
1793.361430
 40
2.500000
  0
CIRCLE
  8
CSLAYER1
  6
CONTINUOUS
 62
     2
 10
2576.512870
 20
1793.361430
 40
2.500000
  0
CIRCLE
  8
CSLAYER1
  6
CONTINUOUS
 62
     2
 10
2576.512870
 20
1783.361430
 40
2.500000
  0
CIRCLE
  8
CSLAYER1
  6
CONTINUOUS
 62
     2
 10
2586.512870
 20
1783.361430
 40
2.500000
  0
CIRCLE
  8
CSLAYER1
  6
CONTINUOUS
 62
     2
 10
2586.512870
 20
1793.361430
 40
2.500000
  0
CIRCLE
  8
CSLAYER1
  6
CONTINUOUS
 62
     2
 10
2546.512870
 20
1873.361430
 40
2.500000
  0
CIRCLE
  8
CSLAYER1
  6
CONTINUOUS
 62
     2
 10
2546.512870
 20
1883.361430
 40
2.500000
  0
CIRCLE
  8
CSLAYER1
  6
CONTINUOUS
 62
     2
 10
2556.512870
 20
1883.361430
 40
2.500000
  0
CIRCLE
  8
CSLAYER1
  6
CONTINUOUS
 62
     2
 10
2556.512870
 20
1873.361430
 40
2.500000
  0
CIRCLE
  8
CSLAYER1
  6
CONTINUOUS
 62
     2
 10
2566.512870
 20
1873.361430
 40
2.500000
  0
CIRCLE
  8
CSLAYER1
  6
CONTINUOUS
 62
     2
 10
2566.512870
 20
1883.361430
 40
2.500000
  0
CIRCLE
  8
CSLAYER1
  6
CONTINUOUS
 62
     2
 10
2576.512870
 20
1883.361430
 40
2.500000
  0
CIRCLE
  8
CSLAYER1
  6
CONTINUOUS
 62
     2
 10
2576.512870
 20
1873.361430
 40
2.500000
  0
CIRCLE
  8
CSLAYER1
  6
CONTINUOUS
 62
     2
 10
2586.512870
 20
1873.361430
 40
2.500000
  0
CIRCLE
  8
CSLAYER1
  6
CONTINUOUS
 62
     2
 10
2586.512870
 20
1883.361430
 40
2.500000
  0
CIRCLE
  8
CSLAYER1
  6
CONTINUOUS
 62
     2
 10
2546.512870
 20
1863.361430
 40
2.500000
  0
CIRCLE
  8
CSLAYER1
  6
CONTINUOUS
 62
     2
 10
2546.512870
 20
1853.361430
 40
2.500000
  0
CIRCLE
  8
CSLAYER1
  6
CONTINUOUS
 62
     2
 10
2556.512870
 20
1853.361430
 40
2.500000
  0
CIRCLE
  8
CSLAYER1
  6
CONTINUOUS
 62
     2
 10
2556.512870
 20
1863.361430
 40
2.500000
  0
CIRCLE
  8
CSLAYER1
  6
CONTINUOUS
 62
     2
 10
2566.512870
 20
1863.361430
 40
2.500000
  0
CIRCLE
  8
CSLAYER1
  6
CONTINUOUS
 62
     2
 10
2566.512870
 20
1853.361430
 40
2.500000
  0
CIRCLE
  8
CSLAYER1
  6
CONTINUOUS
 62
     2
 10
2576.512870
 20
1853.361430
 40
2.500000
  0
CIRCLE
  8
CSLAYER1
  6
CONTINUOUS
 62
     2
 10
2576.512870
 20
1863.361430
 40
2.500000
  0
CIRCLE
  8
CSLAYER1
  6
CONTINUOUS
 62
     2
 10
2586.512870
 20
1863.361430
 40
2.500000
  0
CIRCLE
  8
CSLAYER1
  6
CONTINUOUS
 62
     2
 10
2586.512870
 20
1853.361430
 40
2.500000
  0
LINE
  8
CSLAYER1
  6
CONTINUOUS
 62
     2
 10
2520.512870
 20
1850.861430
 11
2520.512870
 21
1885.861430
  0
LINE
  8
CSLAYER1
  6
CONTINUOUS
 62
     2
 10
2536.512870
 20
1850.861430
 11
2536.512870
 21
1885.861430
  0
LINE
  8
CSLAYER1
  6
CONTINUOUS
 62
     2
 10
2522.012870
 20
1849.361430
 11
2535.012870
 21
1849.361430
  0
LINE
  8
CSLAYER1
  6
CONTINUOUS
 62
     2
 10
2521.512870
 20
1850.861430
 11
2521.512870
 21
1885.861430
  0
LINE
  8
CSLAYER1
  6
CONTINUOUS
 62
     2
 10
2535.512870
 20
1850.861430
 11
2535.512870
 21
1885.861430
  0
LINE
  8
CSLAYER1
  6
CONTINUOUS
 62
     2
 10
2522.012870
 20
1850.361430
 11
2535.012870
 21
1850.361430
  0
LINE
  8
CSLAYER1
  6
CONTINUOUS
 62
     2
 10
2522.012870
 20
1887.361430
 11
2535.012870
 21
1887.361430
  0
LINE
  8
CSLAYER1
  6
CONTINUOUS
 62
     2
 10
2522.012870
 20
1886.361430
 11
2535.012870
 21
1886.361430
  0
ARC
  8
CSLAYER1
  6
CONTINUOUS
 62
     2
 10
2522.012870
 20
1850.861430
 40
0.500000
 50
180.000000
 51
270.000000
  0
ARC
  8
CSLAYER1
  6
CONTINUOUS
 62
     2
 10
2535.012870
 20
1850.861430
 40
0.500000
 50
270.000000
 51
360.000000
  0
ARC
  8
CSLAYER1
  6
CONTINUOUS
 62
     2
 10
2522.012870
 20
1885.861430
 40
0.500000
 50
90.000000
 51
180.000000
  0
ARC
  8
CSLAYER1
  6
CONTINUOUS
 62
     2
 10
2535.012870
 20
1885.861430
 40
0.500000
 50
0.000000
 51
90.000000
  0
ARC
  8
CSLAYER1
  6
CONTINUOUS
 62
     2
 10
2522.012870
 20
1850.861430
 40
1.500000
 50
180.000000
 51
270.000000
  0
ARC
  8
CSLAYER1
  6
CONTINUOUS
 62
     2
 10
2535.012870
 20
1850.861430
 40
1.500000
 50
270.000000
 51
360.000000
  0
ARC
  8
CSLAYER1
  6
CONTINUOUS
 62
     2
 10
2522.012870
 20
1885.861430
 40
1.500000
 50
90.000000
 51
180.000000
  0
ARC
  8
CSLAYER1
  6
CONTINUOUS
 62
     2
 10
2535.012870
 20
1885.861430
 40
1.500000
 50
0.000000
 51
90.000000
  0
LINE
  8
CSLAYER1
  6
CONTINUOUS
 62
     2
 10
2525.512870
 20
1859.361430
 11
2525.512870
 21
1877.361430
  0
LINE
  8
CSLAYER1
  6
CONTINUOUS
 62
     2
 10
2522.434798
 20
1868.361430
 11
2525.512870
 21
1877.361430
  0
LINE
  8
CSLAYER1
  6
CONTINUOUS
 62
     2
 10
2522.434798
 20
1868.361430
 11
2525.512870
 21
1859.361430
  0
TEXT
  8
CSLAYER1
 62
     2
 10
2533.806467
 20
1859.381660
 40
7.066058
 41
1.574983
  1
UP
 50
90.000000
 51
0.000000
  7
EASYDRAW_FONT
 72
     5
 11
2533.806467
 21
1877.929863
  0
LINE
  8
CSLAYER1
  6
CONTINUOUS
 62
     2
 10
2520.512870
 20
1795.861430
 11
2520.512870
 21
1760.861430
  0
LINE
  8
CSLAYER1
  6
CONTINUOUS
 62
     2
 10
2536.512870
 20
1795.861430
 11
2536.512870
 21
1760.861430
  0
LINE
  8
CSLAYER1
  6
CONTINUOUS
 62
     2
 10
2522.012870
 20
1797.361430
 11
2535.012870
 21
1797.361430
  0
LINE
  8
CSLAYER1
  6
CONTINUOUS
 62
     2
 10
2521.512870
 20
1795.861430
 11
2521.512870
 21
1760.861430
  0
LINE
  8
CSLAYER1
  6
CONTINUOUS
 62
     2
 10
2535.512870
 20
1795.861430
 11
2535.512870
 21
1760.861430
  0
LINE
  8
CSLAYER1
  6
CONTINUOUS
 62
     2
 10
2522.012870
 20
1796.361430
 11
2535.012870
 21
1796.361430
  0
LINE
  8
CSLAYER1
  6
CONTINUOUS
 62
     2
 10
2522.012870
 20
1759.361430
 11
2535.012870
 21
1759.361430
  0
LINE
  8
CSLAYER1
  6
CONTINUOUS
 62
     2
 10
2522.012870
 20
1760.361430
 11
2535.012870
 21
1760.361430
  0
ARC
  8
CSLAYER1
  6
CONTINUOUS
 62
     2
 10
2522.012870
 20
1795.861430
 40
0.500000
 50
90.000000
 51
180.000000
  0
ARC
  8
CSLAYER1
  6
CONTINUOUS
 62
     2
 10
2535.012870
 20
1795.861430
 40
0.500000
 50
0.000000
 51
90.000000
  0
ARC
  8
CSLAYER1
  6
CONTINUOUS
 62
     2
 10
2522.012870
 20
1760.861430
 40
0.500000
 50
180.000000
 51
270.000000
  0
ARC
  8
CSLAYER1
  6
CONTINUOUS
 62
     2
 10
2535.012870
 20
1760.861430
 40
0.500000
 50
270.000000
 51
360.000000
  0
ARC
  8
CSLAYER1
  6
CONTINUOUS
 62
     2
 10
2522.012870
 20
1795.861430
 40
1.500000
 50
90.000000
 51
180.000000
  0
ARC
  8
CSLAYER1
  6
CONTINUOUS
 62
     2
 10
2535.012870
 20
1795.861430
 40
1.500000
 50
0.000000
 51
90.000000
  0
ARC
  8
CSLAYER1
  6
CONTINUOUS
 62
     2
 10
2522.012870
 20
1760.861430
 40
1.500000
 50
180.000000
 51
270.000000
  0
ARC
  8
CSLAYER1
  6
CONTINUOUS
 62
     2
 10
2535.012870
 20
1760.861430
 40
1.500000
 50
270.000000
 51
360.000000
  0
LINE
  8
CSLAYER1
  6
CONTINUOUS
 62
     2
 10
2530.985801
 20
1787.361430
 11
2530.985801
 21
1769.361430
  0
LINE
  8
CSLAYER1
  6
CONTINUOUS
 62
     2
 10
2534.063873
 20
1778.361430
 11
2530.985801
 21
1769.361430
  0
LINE
  8
CSLAYER1
  6
CONTINUOUS
 62
     2
 10
2534.063873
 20
1778.361430
 11
2530.985801
 21
1787.361430
  0
TEXT
  8
CSLAYER1
 62
     2
 10
2529.375625
 20
1763.663848
 40
6.383575
 41
1.255870
  1
DOWN
 50
90.000000
 51
0.000000
  7
EASYDRAW_FONT
 72
     5
 11
2529.375625
 21
1793.059297
  0
ENDBLK
  8
0
  0
ENDSEC
  0
SECTION
  2
ENTITIES
  0
LINE
  8
CSLAYER1
  6
CONTINUOUS
 62
     3
 10
118.051807
 20
2400.454119
 11
118.051807
 21
51.907189
  0
LINE
  8
CSLAYER1
  6
CONTINUOUS
 62
     3
 10
3440.625117
 20
2400.454119
 11
118.051807
 21
2400.454119
  0
LINE
  8
CSLAYER1
  6
CONTINUOUS
 62
     3
 10
3440.625117
 20
2400.454119
 11
3440.625117
 21
51.907189
  0
LINE
  8
CSLAYER1
  6
CONTINUOUS
 62
     3
 10
3440.625117
 20
51.907189
 11
118.051807
 21
51.907189
  0
LINE
  8
CSLAYER1
  6
CONTINUOUS
 62
     5
 10
68.051807
 20
1211.907189
 11
18.051807
 21
1211.907189
  0
LINE
  8
CSLAYER1
  6
CONTINUOUS
 62
     5
 10
2640.625117
 20
491.907189
 11
3440.625117
 21
491.907189
  0
LINE
  8
CSLAYER1
  6
CONTINUOUS
 62
     5
 10
2640.625117
 20
131.907189
 11
3440.625117
 21
131.907189
  0
LINE
  8
CSLAYER1
  6
CONTINUOUS
 62
     5
 10
2640.625117
 20
291.907189
 11
3440.625117
 21
291.907189
  0
LINE
  8
CSLAYER1
  6
CONTINUOUS
 62
     5
 10
2640.625117
 20
351.907189
 11
3440.625117
 21
351.907189
  0
LINE
  8
CSLAYER1
  6
CONTINUOUS
 62
     5
 10
2640.625117
 20
411.907189
 11
3440.625117
 21
411.907189
  0
LINE
  8
CSLAYER1
  6
CONTINUOUS
 62
     5
 10
2640.625117
 20
571.907189
 11
3440.625117
 21
571.907189
  0
LINE
  8
CSLAYER1
  6
CONTINUOUS
 62
     5
 10
2640.625117
 20
651.907189
 11
2640.625117
 21
51.907189
  0
LINE
  8
CSLAYER1
  6
CONTINUOUS
 62
     5
 10
2840.625117
 20
651.907189
 11
2840.625117
 21
411.907189
  0
LINE
  8
CSLAYER1
  6
CONTINUOUS
 62
     5
 10
2640.625117
 20
651.907189
 11
3440.625117
 21
651.907189
  0
LINE
  8
CSLAYER1
  6
CONTINUOUS
 62
     5
 10
3140.625117
 20
411.907189
 11
3140.625117
 21
131.907189
  0
TEXT
  8
CSLAYER1
 62
     3
 10
2860.316219
 20
60.469913
 40
59.380363
 41
1.003345
  1
東正車輌株式会社
 50
0.000000
 51
0.000000
  7
EASYDRAW_FONT
 72
     5
 11
3317.088566
 21
60.469913
  0
LINE
  8
CSLAYER1
  6
CONTINUOUS
 62
     5
 10
2890.625117
 20
351.907189
 11
2890.625117
 21
131.907189
  0
TEXT
  8
CSLAYER1
 62
     5
 10
2670.625000
 20
586.907166
 40
50.000000
 41
1.050000
  1
品　名
 50
0.000000
 51
0.000000
  7
EASYDRAW_FONT
 72
     5
 11
2810.625000
 21
586.907166
  0
TEXT
  8
CSLAYER1
 62
     5
 10
2670.625000
 20
506.907166
 40
50.000000
 41
1.050000
  1
型　式
 50
0.000000
 51
0.000000
  7
EASYDRAW_FONT
 72
     5
 11
2810.625000
 21
506.907166
  0
TEXT
  8
CSLAYER1
 62
     5
 10
2645.625000
 20
426.907196
 40
50.000000
 41
1.036364
  1
図面番号
 50
0.000000
 51
0.000000
  7
EASYDRAW_FONT
 72
     5
 11
2835.625000
 21
426.907196
  0
TEXT
  8
CSLAYER1
 62
     5
 10
2690.625000
 20
356.907196
 40
50.000000
 41
0.827586
  1
平成２８年４月１６日
 50
0.000000
 51
0.000000
  7
EASYDRAW_FONT
 72
     5
 11
3090.625000
 21
356.907196
  0
TEXT
  8
CSLAYER1
 62
     5
 10
3220.625000
 20
356.907196
 40
50.000000
 41
1.050000
  1
Ｂ－４
 50
0.000000
 51
0.000000
  7
EASYDRAW_FONT
 72
     5
 11
3360.625000
 21
356.907196
  0
TEXT
  8
CSLAYER1
 62
     5
 10
2695.625000
 20
296.907196
 40
50.000000
 41
1.050000
  1
検　図
 50
0.000000
 51
0.000000
  7
EASYDRAW_FONT
 72
     5
 11
2835.625000
 21
296.907196
  0
TEXT
  8
CSLAYER1
 62
     5
 10
2945.625000
 20
296.907196
 40
50.000000
 41
1.050000
  1
作　図
 50
0.000000
 51
0.000000
  7
EASYDRAW_FONT
 72
     5
 11
3085.625000
 21
296.907196
  0
TEXT
  8
CSLAYER1
 62
     5
 10
3220.625000
 20
296.907196
 40
50.000000
 41
1.050000
  1
尺　度
 50
0.000000
 51
0.000000
  7
EASYDRAW_FONT
 72
     5
 11
3360.625000
 21
296.907196
  0
TEXT
  8
CSLAYER1
 62
     5
 10
3321.363770
 20
146.392456
 40
50.000000
 41
1.080000
  1
１０
 50
0.000000
 51
0.000000
  7
EASYDRAW_FONT
 72
     5
 11
3411.363770
 21
146.392456
  0
TEXT
  8
CSLAYER1
 62
     5
 10
3301.044189
 20
194.097153
 40
50.000000
 41
1.200000
  1
／
 50
0.000000
 51
0.000000
  7
EASYDRAW_FONT
 72
     5
 11
3341.044189
 21
194.097153
  0
TEXT
  8
CSLAYER1
 62
     5
 10
3270.831299
 20
229.080597
 40
50.000000
 41
1.200000
  1
１
 50
0.000000
 51
0.000000
  7
EASYDRAW_FONT
 72
     5
 11
3310.831299
 21
229.080597
  0
TEXT
  8
CSLAYER1
 62
     3
 10
2980.625000
 20
586.907166
 40
50.000000
 41
0.834783
  1
ゴールドリフター
 50
0.000000
 51
0.000000
  7
EASYDRAW_FONT
 72
     5
 11
3300.625000
 21
586.907166
  0
TEXT
  8
CSLAYER1
 62
     3
 10
2900.625000
 20
506.907166
 40
50.000000
 41
0.822857
  1
ＧＬＩ－５００－０８１０
 50
0.000000
 51
0.000000
  7
EASYDRAW_FONT
 72
     5
 11
3380.625000
 21
506.907166
  0
TEXT
  8
CSLAYER1
 62
     3
 10
3040.625000
 20
426.907196
 40
50.000000
 41
0.857143
  1
GI-23
 50
0.000000
 51
0.000000
  7
EASYDRAW_FONT
 72
     5
 11
3240.625000
 21
426.907196
  0
INSERT
  8
CSLAYER1
  2
BLKF0000
 10
0.0
 20
0.0
 30
0.0
  0
LINE
  8
CSLAYER1
  6
CONTINUOUS
 62
     5
 10
3365.548980
 20
1882.166276
 11
2644.676463
 21
1882.166276
  0
LINE
  8
CSLAYER1
  6
CONTINUOUS
 62
     5
 10
3365.548980
 20
1818.166277
 11
2644.676463
 21
1818.166277
  0
LINE
  8
CSLAYER1
  6
CONTINUOUS
 62
     5
 10
3365.548980
 20
1754.166279
 11
2644.676463
 21
1754.166279
  0
LINE
  8
CSLAYER1
  6
CONTINUOUS
 62
     5
 10
3365.548980
 20
1690.166281
 11
2645.548999
 21
1690.166281
  0
LINE
  8
CSLAYER1
  6
CONTINUOUS
 62
     5
 10
3365.548980
 20
1626.166282
 11
2644.676463
 21
1626.166282
  0
LINE
  8
CSLAYER1
  6
CONTINUOUS
 62
     5
 10
3365.548980
 20
1562.166284
 11
2644.676463
 21
1562.166284
  0
LINE
  8
CSLAYER1
  6
CONTINUOUS
 62
     5
 10
3365.548980
 20
1498.166285
 11
2644.676463
 21
1498.166285
  0
LINE
  8
CSLAYER1
  6
CONTINUOUS
 62
     5
 10
3365.548980
 20
1434.166287
 11
2644.676463
 21
1434.166287
  0
LINE
  8
CSLAYER1
  6
CONTINUOUS
 62
     5
 10
3365.548980
 20
1370.166289
 11
2644.676463
 21
1370.166289
  0
TEXT
  8
CSLAYER1
 62
     3
 10
2979.802490
 20
1979.230469
 40
40.000000
 41
0.857143
  1
仕   様
 50
0.000000
 51
0.000000
  7
EASYDRAW_FONT
 72
     5
 11
3139.802490
 21
1979.230469
  0
TEXT
  8
CSLAYER1
 62
     3
 10
2655.436035
 20
1890.389160
 40
40.000000
 41
0.847059
  1
型    式
 50
0.000000
 51
0.000000
  7
EASYDRAW_FONT
 72
     5
 11
2847.436035
 21
1890.389160
  0
TEXT
  8
CSLAYER1
 62
     3
 10
2653.616455
 20
1767.899414
 40
40.000000
 41
0.847059
  1
テーブル寸法
 50
0.000000
 51
0.000000
  7
EASYDRAW_FONT
 72
     5
 11
2845.616455
 21
1767.899414
  0
TEXT
  8
CSLAYER1
 62
     3
 10
2655.436035
 20
1704.835571
 40
40.000000
 41
0.847059
  1
テーブル高サ
 50
0.000000
 51
0.000000
  7
EASYDRAW_FONT
 72
     5
 11
2847.436035
 21
1704.835571
  0
TEXT
  8
CSLAYER1
 62
     3
 10
2656.882813
 20
1639.952759
 40
40.000000
 41
0.857143
  1
ストローク
 50
0.000000
 51
0.000000
  7
EASYDRAW_FONT
 72
     5
 11
2816.882813
 21
1639.952759
  0
TEXT
  8
CSLAYER1
 62
     3
 10
2656.276611
 20
1575.069946
 40
40.000000
 41
0.857143
  1
全   長
 50
0.000000
 51
0.000000
  7
EASYDRAW_FONT
 72
     5
 11
2816.276611
 21
1575.069946
  0
TEXT
  8
CSLAYER1
 62
     3
 10
2658.547852
 20
1509.218872
 40
40.000000
 41
0.857143
  1
全   巾
 50
0.000000
 51
0.000000
  7
EASYDRAW_FONT
 72
     5
 11
2818.547852
 21
1509.218872
  0
TEXT
  8
CSLAYER1
 62
     3
 10
2656.989990
 20
1445.333618
 40
40.000000
 41
0.857143
  1
全   高
 50
0.000000
 51
0.000000
  7
EASYDRAW_FONT
 72
     5
 11
2816.989990
 21
1445.333618
  0
TEXT
  8
CSLAYER1
 62
     3
 10
2656.989990
 20
1383.007446
 40
40.000000
 41
0.857143
  1
リフト方式
 50
0.000000
 51
0.000000
  7
EASYDRAW_FONT
 72
     5
 11
2816.989990
 21
1383.007446
  0
TEXT
  8
CSLAYER1
 62
     3
 10
3108.858398
 20
1828.897461
 40
40.000000
 41
0.872727
  1
 500
 50
0.000000
 51
0.000000
  7
EASYDRAW_FONT
 72
     5
 11
3236.858398
 21
1828.897461
  0
TEXT
  8
CSLAYER1
 62
     3
 10
3295.015137
 20
1825.224121
 40
40.000000
 41
0.960000
  1
Ｋｇ
 50
0.000000
 51
0.000000
  7
EASYDRAW_FONT
 72
     5
 11
3359.015137
 21
1825.224121
  0
TEXT
  8
CSLAYER1
 62
     3
 10
2931.742676
 20
1764.394531
 40
40.000000
 41
0.827586
  1
1050L×800W
 50
0.000000
 51
0.000000
  7
EASYDRAW_FONT
 72
     5
 11
3251.742676
 21
1764.394531
  0
TEXT
  8
CSLAYER1
 62
     3
 10
3008.450195
 20
1701.860474
 40
40.000000
 41
0.840000
  1
155～905
 50
0.000000
 51
0.000000
  7
EASYDRAW_FONT
 72
     5
 11
3232.450195
 21
1701.860474
  0
TEXT
  8
CSLAYER1
 62
     3
 10
3134.696777
 20
1638.185669
 40
40.000000
 41
0.900000
  1
750
 50
0.000000
 51
0.000000
  7
EASYDRAW_FONT
 72
     5
 11
3230.696777
 21
1638.185669
  0
TEXT
  8
CSLAYER1
 62
     3
 10
3105.074463
 20
1574.614868
 40
40.000000
 41
0.872727
  1
1050
 50
0.000000
 51
0.000000
  7
EASYDRAW_FONT
 72
     5
 11
3233.074463
 21
1574.614868
  0
TEXT
  8
CSLAYER1
 62
     3
 10
3136.815918
 20
1510.095825
 40
40.000000
 41
0.900000
  1
800
 50
0.000000
 51
0.000000
  7
EASYDRAW_FONT
 72
     5
 11
3232.815918
 21
1510.095825
  0
TEXT
  8
CSLAYER1
 62
     3
 10
2928.027100
 20
1383.962036
 40
40.000000
 41
0.827586
  1
電 動 ボールネジ式
 50
0.000000
 51
0.000000
  7
EASYDRAW_FONT
 72
     5
 11
3248.027100
 21
1383.962036
  0
TEXT
  8
CSLAYER1
 62
     3
 10
3134.807129
 20
1445.434692
 40
40.000000
 41
0.900000
  1
155
 50
0.000000
 51
0.000000
  7
EASYDRAW_FONT
 72
     5
 11
3230.807129
 21
1445.434692
  0
TEXT
  8
CSLAYER1
 62
     3
 10
3292.500977
 20
1761.120605
 40
40.000000
 41
0.960000
  1
mm
 50
0.000000
 51
0.000000
  7
EASYDRAW_FONT
 72
     5
 11
3356.500977
 21
1761.120605
  0
TEXT
  8
CSLAYER1
 62
     3
 10
3292.500977
 20
1700.787720
 40
40.000000
 41
0.960000
  1
mm
 50
0.000000
 51
0.000000
  7
EASYDRAW_FONT
 72
     5
 11
3356.500977
 21
1700.787720
  0
TEXT
  8
CSLAYER1
 62
     3
 10
3288.730225
 20
1636.683716
 40
40.000000
 41
0.960000
  1
mm
 50
0.000000
 51
0.000000
  7
EASYDRAW_FONT
 72
     5
 11
3352.730225
 21
1636.683716
  0
TEXT
  8
CSLAYER1
 62
     3
 10
3288.730225
 20
1568.808716
 40
40.000000
 41
0.960000
  1
mm
 50
0.000000
 51
0.000000
  7
EASYDRAW_FONT
 72
     5
 11
3352.730225
 21
1568.808716
  0
TEXT
  8
CSLAYER1
 62
     3
 10
3286.216797
 20
1508.476196
 40
40.000000
 41
0.960000
  1
mm
 50
0.000000
 51
0.000000
  7
EASYDRAW_FONT
 72
     5
 11
3350.216797
 21
1508.476196
  0
TEXT
  8
CSLAYER1
 62
     3
 10
3286.216797
 20
1444.371216
 40
40.000000
 41
0.960000
  1
mm
 50
0.000000
 51
0.000000
  7
EASYDRAW_FONT
 72
     5
 11
3350.216797
 21
1444.371216
  0
LINE
  8
CSLAYER1
  6
CONTINUOUS
 62
     5
 10
3167.855481
 20
1963.411892
 11
2959.469509
 21
1963.411892
  0
LINE
  8
CSLAYER1
  6
CONTINUOUS
 62
     5
 10
3167.855481
 20
1971.411892
 11
2959.469509
 21
1971.411892
  0
LINE
  8
CSLAYER1
  6
CONTINUOUS
 62
     3
 10
1156.015279
 20
2223.561430
 11
1156.015279
 21
1423.561430
  0
TEXT
  8
CSLAYER1
 62
     5
 10
2672.594971
 20
2141.573242
 40
40.000000
 41
1.020000
  1
ＵＰ・ＤＯＷＮ
 50
360.000000
 51
0.000000
  7
EASYDRAW_FONT
 72
     5
 11
2944.594971
 21
2141.573242
  0
TEXT
  8
CSLAYER1
 62
     5
 10
2679.616455
 20
2194.554199
 40
40.000000
 41
1.020000
  1
フットスイッチ
 50
360.000000
 51
0.000000
  7
EASYDRAW_FONT
 72
     5
 11
2951.616455
 21
2194.554199
  0
LINE
  8
CSLAYER1
  6
CONTINUOUS
 62
     3
 10
2206.016983
 20
1819.861430
 11
2328.698874
 21
1819.861430
  0
LINE
  8
CSLAYER1
  6
CONTINUOUS
 62
     3
 10
2206.016983
 20
1826.861430
 11
2340.143623
 21
1826.861430
  0
LINE
  8
CSLAYER1
  6
CONTINUOUS
 62
     3
 10
2206.016983
 20
1862.061430
 11
2242.861983
 21
1862.061430
  0
LINE
  8
CSLAYER1
  6
CONTINUOUS
 62
     3
 10
2206.016983
 20
1855.061430
 11
2242.861983
 21
1855.061430
  0
TEXT
  8
CSLAYER1
 62
     5
 10
2750.231689
 20
2342.312500
 40
40.000000
 41
1.028571
  1
電源コード
 50
360.000000
 51
0.000000
  7
EASYDRAW_FONT
 72
     5
 11
2942.231689
 21
2342.312500
  0
TEXT
  8
CSLAYER1
 62
     5
 10
2759.415283
 20
2289.171387
 40
40.000000
 41
1.036364
  1
長サ４ｍ
 50
360.000000
 51
0.000000
  7
EASYDRAW_FONT
 72
     5
 11
2911.415283
 21
2289.171387
  0
LINE
  8
CSLAYER1
  6
CONTINUOUS
 62
     5
 10
2725.450515
 20
2336.204796
 11
2950.633274
 21
2336.204796
  0
LINE
  8
CSLAYER1
  6
CONTINUOUS
 62
     5
 10
2653.504882
 20
2187.649027
 11
2955.411347
 21
2187.649027
  0
LINE
  8
CSLAYER1
  6
PHANTOM
 62
     5
 10
1156.015279
 20
441.385166
 11
2206.015279
 21
441.385166
  0
LINE
  8
CSLAYER1
  6
PHANTOM
 62
     5
 10
2206.015279
 20
441.385166
 11
2206.015279
 21
388.385166
  0
LINE
  8
CSLAYER1
  6
PHANTOM
 62
     5
 10
1156.015279
 20
388.385166
 11
2206.015279
 21
388.385166
  0
LINE
  8
CSLAYER1
  6
PHANTOM
 62
     5
 10
1156.015279
 20
441.385166
 11
1156.015279
 21
388.385166
  0
DIMENSION
  8
CSLAYER1
 62
     7
  2
*D0000
 10
2305.990103
 20
441.385166
 11
2357.757324
 21
365.885010
 13
2405.990103
 23
286.385166
 14
2206.015279
 24
441.385166
 50
90.000000
  0
DIMENSION
  8
CSLAYER1
 62
     7
  2
*D0001
 10
2305.990103
 20
1207.930784
 11
2295.990234
 21
824.657959
 13
2185.990103
 23
441.385166
 14
2185.990103
 24
1207.930784
 50
90.000000
 70
1
  0
DIMENSION
  8
CSLAYER1
 62
     7
  2
*D0002
 10
2405.990103
 20
286.385166
 11
2395.990234
 21
747.157959
 13
2405.990103
 23
1207.930784
 14
2405.990103
 24
286.385166
 50
90.000000
 70
1
  0
DIMENSION
  8
CSLAYER1
 62
     7
  2
*D0003
 10
2205.990103
 20
1304.873209
 11
1681.002563
 21
1314.872925
 13
1156.015279
 23
1204.930784
 14
2205.990103
 24
1204.930784
 70
1
  0
DIMENSION
  8
CSLAYER1
 62
     7
  2
*D0004
 10
2206.015279
 20
190.259372
 11
1681.015137
 21
200.259262
 13
1156.015279
 23
286.385166
 14
2206.015279
 24
286.385166
 52
270.000000
 70
1
  0
LINE
  8
CSLAYER1
  6
CENTER
 62
     5
 10
556.154178
 20
1222.671337
 11
556.154178
 21
268.303087
  0
LINE
  8
CSLAYER1
  6
CONTINUOUS
 62
     4
 10
906.154178
 20
350.666950
 11
906.154178
 21
286.385166
  0
LINE
  8
CSLAYER1
  6
CONTINUOUS
 62
     4
 10
953.154178
 20
1207.930784
 11
159.154178
 21
1207.930784
  0
LINE
  8
CSLAYER1
  6
CONTINUOUS
 62
     4
 10
956.154178
 20
1204.930784
 11
956.154178
 21
1154.930784
  0
LINE
  8
CSLAYER1
  6
CONTINUOUS
 62
     4
 10
763.154178
 20
1133.245924
 11
349.154178
 21
1133.245924
  0
LINE
  8
CSLAYER1
  6
CENTER
 62
     5
 10
784.654178
 20
1088.606459
 11
327.654178
 21
1088.606459
  0
POINT
  8
CSLAYER1
 62
     4
 10
731.154178
 20
1001.023767
  0
LINE
  8
CSLAYER1
  6
CONTINUOUS
 62
     5
 10
745.279554
 20
1001.023769
 11
717.040464
 21
1001.023769
  0
LINE
  8
CSLAYER1
  6
CONTINUOUS
 62
     4
 10
739.654178
 20
1026.023769
 11
739.654178
 21
1066.606459
  0
LINE
  8
CSLAYER1
  6
CONTINUOUS
 62
     4
 10
741.154178
 20
1018.023769
 11
741.154178
 21
1066.606459
  0
LINE
  8
CSLAYER1
  6
CONTINUOUS
 62
     4
 10
741.154178
 20
1026.023769
 11
721.154178
 21
1026.023769
  0
LINE
  8
CSLAYER1
  6
CONTINUOUS
 62
     4
 10
739.654178
 20
1026.023769
 11
741.154178
 21
1023.425693
  0
LINE
  8
CSLAYER1
  6
CONTINUOUS
 62
     4
 10
722.654178
 20
1026.023769
 11
722.654178
 21
1066.606459
  0
LINE
  8
CSLAYER1
  6
CONTINUOUS
 62
     4
 10
722.654178
 20
1026.023769
 11
721.154178
 21
1023.425693
  0
LINE
  8
CSLAYER1
  6
CONTINUOUS
 62
     4
 10
721.154178
 20
1018.023769
 11
721.154178
 21
1066.606459
  0
LINE
  8
CSLAYER1
  6
CONTINUOUS
 62
     4
 10
718.629178
 20
1016.023767
 11
743.679178
 21
1016.023767
  0
POINT
  8
CSLAYER1
 62
     4
 10
731.154178
 20
969.273767
  0
LINE
  8
CSLAYER1
  6
CONTINUOUS
 62
     4
 10
744.679178
 20
1015.023767
 11
744.679178
 21
922.473767
  0
LINE
  8
CSLAYER1
  6
CONTINUOUS
 62
     4
 10
740.679178
 20
984.323767
 11
740.679178
 21
922.473767
  0
LINE
  8
CSLAYER1
  6
CONTINUOUS
 62
     4
 10
740.679178
 20
984.323767
 11
744.679178
 21
984.323767
  0
LINE
  8
CSLAYER1
  6
CONTINUOUS
 62
     4
 10
739.679178
 20
959.748767
 11
722.629178
 21
959.748767
  0
LINE
  8
CSLAYER1
  6
CONTINUOUS
 62
     4
 10
739.679178
 20
978.798767
 11
722.629178
 21
978.798767
  0
ARC
  8
CSLAYER1
  6
CONTINUOUS
 62
     4
 10
739.679178
 20
960.748767
 40
1.000000
 50
270.000000
 51
360.000000
  0
ARC
  8
CSLAYER1
  6
CONTINUOUS
 62
     4
 10
739.679178
 20
977.798767
 40
1.000000
 50
0.000000
 51
90.000000
  0
LINE
  8
CSLAYER1
  6
CONTINUOUS
 62
     4
 10
717.629178
 20
1015.023767
 11
717.629178
 21
921.773767
  0
LINE
  8
CSLAYER1
  6
CONTINUOUS
 62
     4
 10
721.629178
 20
984.323767
 11
721.629178
 21
922.473767
  0
LINE
  8
CSLAYER1
  6
CONTINUOUS
 62
     4
 10
721.629178
 20
984.323767
 11
717.629178
 21
984.323767
  0
ARC
  8
CSLAYER1
  6
CONTINUOUS
 62
     4
 10
722.629178
 20
960.748767
 40
1.000000
 50
180.000000
 51
270.000000
  0
ARC
  8
CSLAYER1
  6
CONTINUOUS
 62
     4
 10
722.629178
 20
977.798767
 40
1.000000
 50
90.000000
 51
180.000000
  0
LINE
  8
CSLAYER1
  6
CONTINUOUS
 62
     4
 10
750.904178
 20
965.503767
 11
750.904178
 21
973.053493
  0
LINE
  8
CSLAYER1
  6
CONTINUOUS
 62
     4
 10
744.679178
 20
956.273767
 11
749.054178
 21
956.273767
  0
LINE
  8
CSLAYER1
  6
CONTINUOUS
 62
     4
 10
744.679178
 20
1014.023767
 11
749.054178
 21
1014.023767
  0
LINE
  8
CSLAYER1
  6
CONTINUOUS
 62
     4
 10
749.054178
 20
964.503767
 11
749.904178
 21
964.503767
  0
LINE
  8
CSLAYER1
  6
CONTINUOUS
 62
     4
 10
749.054178
 20
974.053493
 11
749.904178
 21
974.053493
  0
ARC
  8
CSLAYER1
  6
CONTINUOUS
 62
     4
 10
749.904178
 20
965.503767
 40
1.000000
 50
270.000000
 51
360.000000
  0
ARC
  8
CSLAYER1
  6
CONTINUOUS
 62
     4
 10
749.904178
 20
973.053493
 40
1.000000
 50
0.000000
 51
90.000000
  0
LINE
  8
CSLAYER1
  6
CONTINUOUS
 62
     4
 10
750.904178
 20
997.253767
 11
750.904178
 21
1004.803493
  0
LINE
  8
CSLAYER1
  6
CONTINUOUS
 62
     4
 10
749.054178
 20
996.253767
 11
749.904178
 21
996.253767
  0
LINE
  8
CSLAYER1
  6
CONTINUOUS
 62
     4
 10
749.054178
 20
1005.803493
 11
749.904178
 21
1005.803493
  0
ARC
  8
CSLAYER1
  6
CONTINUOUS
 62
     4
 10
749.904178
 20
997.253767
 40
1.000000
 50
270.000000
 51
360.000000
  0
ARC
  8
CSLAYER1
  6
CONTINUOUS
 62
     4
 10
749.904178
 20
1004.803493
 40
1.000000
 50
0.000000
 51
90.000000
  0
LINE
  8
CSLAYER1
  6
CONTINUOUS
 62
     4
 10
711.404178
 20
965.503767
 11
711.404178
 21
973.053493
  0
LINE
  8
CSLAYER1
  6
CONTINUOUS
 62
     4
 10
717.629178
 20
956.273767
 11
713.254178
 21
956.273767
  0
LINE
  8
CSLAYER1
  6
CONTINUOUS
 62
     4
 10
717.629178
 20
1014.023767
 11
713.254178
 21
1014.023767
  0
LINE
  8
CSLAYER1
  6
CONTINUOUS
 62
     4
 10
713.254178
 20
964.503767
 11
712.404178
 21
964.503767
  0
LINE
  8
CSLAYER1
  6
CONTINUOUS
 62
     4
 10
713.254178
 20
974.053493
 11
712.404178
 21
974.053493
  0
ARC
  8
CSLAYER1
  6
CONTINUOUS
 62
     4
 10
712.404178
 20
965.503767
 40
1.000000
 50
180.000000
 51
270.000000
  0
ARC
  8
CSLAYER1
  6
CONTINUOUS
 62
     4
 10
712.404178
 20
973.053493
 40
1.000000
 50
90.000000
 51
180.000000
  0
LINE
  8
CSLAYER1
  6
CONTINUOUS
 62
     4
 10
708.304178
 20
997.253767
 11
708.304178
 21
1004.803493
  0
LINE
  8
CSLAYER1
  6
CONTINUOUS
 62
     4
 10
713.254178
 20
996.253767
 11
709.304178
 21
996.253767
  0
LINE
  8
CSLAYER1
  6
CONTINUOUS
 62
     4
 10
713.254178
 20
1005.803493
 11
709.304178
 21
1005.803493
  0
ARC
  8
CSLAYER1
  6
CONTINUOUS
 62
     4
 10
709.304178
 20
997.253767
 40
1.000000
 50
180.000000
 51
270.000000
  0
ARC
  8
CSLAYER1
  6
CONTINUOUS
 62
     4
 10
709.304178
 20
1004.803493
 40
1.000000
 50
90.000000
 51
180.000000
  0
LINE
  8
CSLAYER1
  6
CONTINUOUS
 62
     4
 10
717.629178
 20
1005.803493
 11
744.679178
 21
1005.803493
  0
LINE
  8
CSLAYER1
  6
CONTINUOUS
 62
     4
 10
717.629178
 20
996.253767
 11
744.679178
 21
996.253767
  0
LINE
  8
CSLAYER1
  6
CONTINUOUS
 62
     4
 10
719.629178
 20
986.023767
 11
742.679178
 21
986.023767
  0
ARC
  8
CSLAYER1
  6
CONTINUOUS
 62
     4
 10
742.679178
 20
988.023767
 40
2.000000
 50
270.000000
 51
360.000000
  0
ARC
  8
CSLAYER1
  6
CONTINUOUS
 62
     4
 10
719.629178
 20
988.023767
 40
2.000000
 50
180.000000
 51
270.000000
  0
ARC
  8
CSLAYER1
  6
CONTINUOUS
 62
     4
 10
719.154178
 20
1018.023767
 40
2.000000
 50
270.000000
 51
360.000000
  0
ARC
  8
CSLAYER1
  6
CONTINUOUS
 62
     4
 10
743.154178
 20
1018.023767
 40
2.000000
 50
180.000000
 51
270.000000
  0
ARC
  8
CSLAYER1
  6
CONTINUOUS
 62
     4
 10
718.629178
 20
1015.023767
 40
1.000000
 50
90.000000
 51
180.000000
  0
ARC
  8
CSLAYER1
  6
CONTINUOUS
 62
     4
 10
743.679178
 20
1015.023767
 40
1.000000
 50
0.000000
 51
90.000000
  0
POINT
  8
CSLAYER1
 62
     4
 10
731.154178
 20
1016.023767
  0
LINE
  8
CSLAYER1
  6
CONTINUOUS
 62
     4
 10
749.054178
 20
956.273767
 11
749.054178
 21
1014.023767
  0
LINE
  8
CSLAYER1
  6
CONTINUOUS
 62
     4
 10
713.254178
 20
956.273767
 11
713.254178
 21
1014.023767
  0
LINE
  8
CSLAYER1
  6
CONTINUOUS
 62
     4
 10
734.354178
 20
351.385166
 11
734.354178
 21
377.046911
  0
LINE
  8
CSLAYER1
  6
CONTINUOUS
 62
     5
 10
728.525002
 20
369.302232
 11
763.065132
 21
369.302232
  0
LINE
  8
CSLAYER1
  6
CONTINUOUS
 62
     4
 10
733.154178
 20
374.302232
 11
734.354178
 21
374.302232
  0
LINE
  8
CSLAYER1
  6
CONTINUOUS
 62
     4
 10
733.154178
 20
364.302232
 11
734.354178
 21
364.302232
  0
LINE
  8
CSLAYER1
  6
CONTINUOUS
 62
     4
 10
734.354178
 20
363.995941
 11
737.354178
 21
363.995941
  0
LINE
  8
CSLAYER1
  6
CONTINUOUS
 62
     5
 10
801.201234
 20
640.651548
 11
713.989252
 21
640.651548
  0
LINE
  8
CSLAYER1
  6
CONTINUOUS
 62
     4
 10
739.154178
 20
763.552203
 11
739.154178
 21
674.102600
  0
POINT
  8
CSLAYER1
 62
     4
 10
731.154178
 20
937.523767
  0
LINE
  8
CSLAYER1
  6
CONTINUOUS
 62
     4
 10
740.679178
 20
922.473767
 11
744.679178
 21
922.473767
  0
LINE
  8
CSLAYER1
  6
CONTINUOUS
 62
     4
 10
739.679178
 20
947.048767
 11
722.629178
 21
947.048767
  0
LINE
  8
CSLAYER1
  6
CONTINUOUS
 62
     4
 10
739.679178
 20
927.998767
 11
722.629178
 21
927.998767
  0
ARC
  8
CSLAYER1
  6
CONTINUOUS
 62
     4
 10
739.679178
 20
946.048767
 40
1.000000
 50
0.000000
 51
90.000000
  0
ARC
  8
CSLAYER1
  6
CONTINUOUS
 62
     4
 10
739.679178
 20
928.998767
 40
1.000000
 50
270.000000
 51
360.000000
  0
LINE
  8
CSLAYER1
  6
CONTINUOUS
 62
     4
 10
721.629178
 20
922.473767
 11
717.629178
 21
922.473767
  0
ARC
  8
CSLAYER1
  6
CONTINUOUS
 62
     4
 10
722.629178
 20
946.048767
 40
1.000000
 50
90.000000
 51
180.000000
  0
ARC
  8
CSLAYER1
  6
CONTINUOUS
 62
     4
 10
722.629178
 20
928.998767
 40
1.000000
 50
180.000000
 51
270.000000
  0
LINE
  8
CSLAYER1
  6
CONTINUOUS
 62
     4
 10
750.904178
 20
941.293767
 11
750.904178
 21
933.744041
  0
LINE
  8
CSLAYER1
  6
CONTINUOUS
 62
     4
 10
744.679178
 20
950.523767
 11
749.054178
 21
950.523767
  0
LINE
  8
CSLAYER1
  6
CONTINUOUS
 62
     4
 10
749.054178
 20
942.293767
 11
749.904178
 21
942.293767
  0
LINE
  8
CSLAYER1
  6
CONTINUOUS
 62
     4
 10
749.054178
 20
932.744041
 11
749.904178
 21
932.744041
  0
ARC
  8
CSLAYER1
  6
CONTINUOUS
 62
     4
 10
749.904178
 20
941.293767
 40
1.000000
 50
0.000000
 51
90.000000
  0
ARC
  8
CSLAYER1
  6
CONTINUOUS
 62
     4
 10
749.904178
 20
933.744041
 40
1.000000
 50
270.000000
 51
360.000000
  0
LINE
  8
CSLAYER1
  6
CONTINUOUS
 62
     4
 10
711.404178
 20
941.293767
 11
711.404178
 21
933.744041
  0
LINE
  8
CSLAYER1
  6
CONTINUOUS
 62
     4
 10
717.629178
 20
950.523767
 11
713.254178
 21
950.523767
  0
LINE
  8
CSLAYER1
  6
CONTINUOUS
 62
     4
 10
713.254178
 20
942.293767
 11
712.404178
 21
942.293767
  0
LINE
  8
CSLAYER1
  6
CONTINUOUS
 62
     4
 10
713.254178
 20
932.744041
 11
712.404178
 21
932.744041
  0
ARC
  8
CSLAYER1
  6
CONTINUOUS
 62
     4
 10
712.404178
 20
941.293767
 40
1.000000
 50
90.000000
 51
180.000000
  0
ARC
  8
CSLAYER1
  6
CONTINUOUS
 62
     4
 10
712.404178
 20
933.744041
 40
1.000000
 50
180.000000
 51
270.000000
  0
LINE
  8
CSLAYER1
  6
CONTINUOUS
 62
     4
 10
713.254178
 20
950.523767
 11
713.254178
 21
892.773767
  0
LINE
  8
CSLAYER1
  6
CONTINUOUS
 62
     4
 10
749.054178
 20
950.523767
 11
749.054178
 21
892.773767
  0
LINE
  8
CSLAYER1
  6
CONTINUOUS
 62
     4
 10
2559.808591
 20
286.385166
 11
161.600292
 21
286.385166
  0
LINE
  8
CSLAYER1
  6
CONTINUOUS
 62
     4
 10
734.354178
 20
368.343161
 11
737.354178
 21
368.343161
  0
LINE
  8
CSLAYER1
  6
CONTINUOUS
 62
     4
 10
734.354178
 20
377.046911
 11
738.354178
 21
377.046911
  0
LINE
  8
CSLAYER1
  6
CONTINUOUS
 62
     4
 10
737.354178
 20
351.385166
 11
737.354178
 21
377.046911
  0
LINE
  8
CSLAYER1
  6
CONTINUOUS
 62
     4
 10
753.354178
 20
351.385166
 11
753.354178
 21
377.046911
  0
LINE
  8
CSLAYER1
  6
CONTINUOUS
 62
     4
 10
741.854178
 20
395.075234
 11
741.854178
 21
407.386971
  0
LINE
  8
CSLAYER1
  6
CONTINUOUS
 62
     4
 10
748.854178
 20
395.075234
 11
748.854178
 21
407.386971
  0
LINE
  8
CSLAYER1
  6
CONTINUOUS
 62
     4
 10
738.354178
 20
367.760737
 11
738.354178
 21
383.091096
  0
LINE
  8
CSLAYER1
  6
CONTINUOUS
 62
     4
 10
752.354178
 20
367.760737
 11
752.354178
 21
383.091096
  0
LINE
  8
CSLAYER1
  6
CONTINUOUS
 62
     4
 10
743.354178
 20
395.075234
 11
743.354178
 21
423.364904
  0
LINE
  8
CSLAYER1
  6
CONTINUOUS
 62
     4
 10
747.354178
 20
395.075234
 11
747.354178
 21
419.325460
  0
LINE
  8
CSLAYER1
  6
CONTINUOUS
 62
     4
 10
739.814996
 20
395.075234
 11
750.893360
 21
395.075234
  0
LINE
  8
CSLAYER1
  6
CONTINUOUS
 62
     4
 10
737.354178
 20
367.760737
 11
753.354178
 21
367.760737
  0
LINE
  8
CSLAYER1
  6
CONTINUOUS
 62
     4
 10
752.354178
 20
383.091096
 11
750.893360
 21
395.075234
  0
LINE
  8
CSLAYER1
  6
CONTINUOUS
 62
     4
 10
738.354178
 20
383.091096
 11
739.814996
 21
395.075234
  0
LINE
  8
CSLAYER1
  6
CONTINUOUS
 62
     4
 10
754.354178
 20
361.509774
 11
754.354178
 21
369.109774
  0
LINE
  8
CSLAYER1
  6
CONTINUOUS
 62
     4
 10
754.354178
 20
361.509774
 11
753.354178
 21
361.509774
  0
LINE
  8
CSLAYER1
  6
CONTINUOUS
 62
     4
 10
754.354178
 20
369.109774
 11
753.354178
 21
369.109774
  0
LINE
  8
CSLAYER1
  6
CONTINUOUS
 62
     4
 10
756.954178
 20
363.809774
 11
756.954178
 21
366.809774
  0
LINE
  8
CSLAYER1
  6
CONTINUOUS
 62
     4
 10
754.954178
 20
361.809774
 11
754.354178
 21
361.809774
  0
LINE
  8
CSLAYER1
  6
CONTINUOUS
 62
     4
 10
754.954178
 20
368.809774
 11
754.354178
 21
368.809774
  0
ARC
  8
CSLAYER1
  6
CONTINUOUS
 62
     4
 10
754.954178
 20
363.809774
 40
2.000000
 50
270.000000
 51
360.000000
  0
ARC
  8
CSLAYER1
  6
CONTINUOUS
 62
     4
 10
754.954178
 20
366.809774
 40
2.000000
 50
0.000000
 51
90.000000
  0
LINE
  8
CSLAYER1
  6
CONTINUOUS
 62
     4
 10
752.354178
 20
377.046911
 11
753.354178
 21
377.046911
  0
LINE
  8
CSLAYER1
  6
CONTINUOUS
 62
     4
 10
747.354178
 20
406.878764
 11
748.854178
 21
406.878764
  0
LINE
  8
CSLAYER1
  6
CONTINUOUS
 62
     4
 10
747.354178
 20
407.386971
 11
748.854178
 21
407.386971
  0
LINE
  8
CSLAYER1
  6
CONTINUOUS
 62
     4
 10
742.608117
 20
423.812540
 11
751.582277
 21
416.034935
  0
LINE
  8
CSLAYER1
  6
CONTINUOUS
 62
     4
 10
733.154178
 20
374.302232
 11
733.154178
 21
364.302232
  0
LINE
  8
CSLAYER1
  6
CONTINUOUS
 62
     4
 10
753.354178
 20
374.302232
 11
763.154178
 21
374.302232
  0
LINE
  8
CSLAYER1
  6
CONTINUOUS
 62
     4
 10
756.892601
 20
364.302232
 11
763.154178
 21
364.302232
  0
LINE
  8
CSLAYER1
  6
CONTINUOUS
 62
     4
 10
763.154178
 20
351.385166
 11
763.154178
 21
1154.930784
  0
LINE
  8
CSLAYER1
  6
CONTINUOUS
 62
     4
 10
779.154178
 20
351.385166
 11
779.154178
 21
1154.930784
  0
LINE
  8
CSLAYER1
  6
CONTINUOUS
 62
     4
 10
600.704178
 20
934.090999
 11
600.704178
 21
694.179226
  0
LINE
  8
CSLAYER1
  6
CONTINUOUS
 62
     4
 10
586.404178
 20
1058.356459
 11
586.404178
 21
952.336840
  0
LINE
  8
CSLAYER1
  6
CONTINUOUS
 62
     4
 10
600.704178
 20
934.090999
 11
600.534652
 21
936.205717
  0
LINE
  8
CSLAYER1
  6
CONTINUOUS
 62
     4
 10
600.534652
 20
936.205717
 11
600.027363
 21
938.304341
  0
LINE
  8
CSLAYER1
  6
CONTINUOUS
 62
     4
 10
600.027363
 20
938.304341
 11
599.186173
 21
940.370898
  0
LINE
  8
CSLAYER1
  6
CONTINUOUS
 62
     4
 10
599.186173
 20
940.370898
 11
598.017484
 21
942.389662
  0
LINE
  8
CSLAYER1
  6
CONTINUOUS
 62
     4
 10
598.017484
 20
942.389662
 11
596.530190
 21
944.345268
  0
LINE
  8
CSLAYER1
  6
CONTINUOUS
 62
     4
 10
596.530190
 20
944.345268
 11
594.735610
 21
946.222833
  0
LINE
  8
CSLAYER1
  6
CONTINUOUS
 62
     4
 10
594.735610
 20
946.222833
 11
592.647401
 21
948.008068
  0
LINE
  8
CSLAYER1
  6
CONTINUOUS
 62
     4
 10
592.647401
 20
948.008068
 11
590.281458
 21
949.687385
  0
LINE
  8
CSLAYER1
  6
CONTINUOUS
 62
     4
 10
590.281458
 20
949.687385
 11
587.655785
 21
951.248004
  0
LINE
  8
CSLAYER1
  6
CONTINUOUS
 62
     4
 10
587.655785
 20
951.248004
 11
584.790366
 21
952.678048
  0
LINE
  8
CSLAYER1
  6
CONTINUOUS
 62
     4
 10
584.790366
 20
952.678048
 11
581.707008
 21
953.966633
  0
LINE
  8
CSLAYER1
  6
CONTINUOUS
 62
     4
 10
581.707008
 20
953.966633
 11
578.429178
 21
955.103953
  0
LINE
  8
CSLAYER1
  6
CONTINUOUS
 62
     4
 10
578.429178
 20
955.103953
 11
574.981821
 21
956.081351
  0
LINE
  8
CSLAYER1
  6
CONTINUOUS
 62
     4
 10
574.981821
 20
956.081351
 11
571.391175
 21
956.891390
  0
LINE
  8
CSLAYER1
  6
CONTINUOUS
 62
     4
 10
571.391175
 20
956.891390
 11
567.684566
 21
957.527903
  0
LINE
  8
CSLAYER1
  6
CONTINUOUS
 62
     4
 10
567.684566
 20
957.527903
 11
563.890204
 21
957.986048
  0
LINE
  8
CSLAYER1
  6
CONTINUOUS
 62
     4
 10
563.890204
 20
957.986048
 11
560.036966
 21
958.262337
  0
LINE
  8
CSLAYER1
  6
CONTINUOUS
 62
     4
 10
560.036966
 20
958.262337
 11
556.154178
 21
958.354668
  0
LINE
  8
CSLAYER1
  6
CONTINUOUS
 62
     4
 10
822.154178
 20
578.870991
 11
779.154178
 21
578.870991
  0
LINE
  8
CSLAYER1
  6
CONTINUOUS
 62
     4
 10
822.154178
 20
499.457734
 11
779.154178
 21
499.457734
  0
LINE
  8
CSLAYER1
  6
CONTINUOUS
 62
     4
 10
779.154178
 20
594.064605
 11
822.154178
 21
594.064605
  0
LINE
  8
CSLAYER1
  6
CONTINUOUS
 62
     4
 10
763.154178
 20
578.870991
 11
611.277631
 21
578.870991
  0
LINE
  8
CSLAYER1
  6
CONTINUOUS
 62
     4
 10
763.154178
 20
499.457734
 11
641.154178
 21
499.457734
  0
LINE
  8
CSLAYER1
  6
CONTINUOUS
 62
     4
 10
662.602510
 20
594.064605
 11
763.154178
 21
594.064605
  0
LINE
  8
CSLAYER1
  6
CONTINUOUS
 62
     4
 10
838.154178
 20
1064.730784
 11
838.154178
 21
698.557975
  0
LINE
  8
CSLAYER1
  6
CONTINUOUS
 62
     4
 10
822.154178
 20
1064.730784
 11
822.154178
 21
351.385166
  0
LINE
  8
CSLAYER1
  6
CONTINUOUS
 62
     4
 10
956.154178
 20
1154.930784
 11
156.154178
 21
1154.930784
  0
ARC
  8
CSLAYER1
  6
CONTINUOUS
 62
     4
 10
953.154178
 20
1204.930784
 40
3.000000
 50
0.000000
 51
90.000000
  0
LINE
  8
CSLAYER1
  6
CENTER
 62
     5
 10
731.154178
 20
1173.152893
 11
731.154178
 21
675.475361
  0
LINE
  8
CSLAYER1
  6
CONTINUOUS
 62
     4
 10
781.154178
 20
656.651548
 11
781.154178
 21
624.651548
  0
LINE
  8
CSLAYER1
  6
CONTINUOUS
 62
     4
 10
791.154178
 20
654.651548
 11
791.154178
 21
626.651548
  0
LINE
  8
CSLAYER1
  6
CONTINUOUS
 62
     4
 10
789.154178
 20
656.651548
 11
781.154178
 21
656.651548
  0
LINE
  8
CSLAYER1
  6
CONTINUOUS
 62
     4
 10
791.154178
 20
654.651548
 11
789.154178
 21
656.651548
  0
LINE
  8
CSLAYER1
  6
CONTINUOUS
 62
     4
 10
789.154178
 20
656.651548
 11
789.154178
 21
624.651548
  0
LINE
  8
CSLAYER1
  6
CONTINUOUS
 62
     4
 10
789.154178
 20
624.651548
 11
781.154178
 21
624.651548
  0
LINE
  8
CSLAYER1
  6
CONTINUOUS
 62
     4
 10
791.154178
 20
626.651548
 11
789.154178
 21
624.651548
  0
LINE
  8
CSLAYER1
  6
CONTINUOUS
 62
     4
 10
781.154178
 20
654.651548
 11
779.154178
 21
654.651548
  0
LINE
  8
CSLAYER1
  6
CONTINUOUS
 62
     4
 10
781.154178
 20
626.651548
 11
779.154178
 21
626.651548
  0
LINE
  8
CSLAYER1
  6
CONTINUOUS
 62
     4
 10
788.154178
 20
1129.730784
 11
813.154178
 21
1129.730784
  0
LINE
  8
CSLAYER1
  6
CONTINUOUS
 62
     4
 10
813.154178
 20
1104.730784
 11
785.654178
 21
1104.730784
  0
LINE
  8
CSLAYER1
  6
CONTINUOUS
 62
     4
 10
813.154178
 20
1154.930784
 11
813.154178
 21
1104.730784
  0
LINE
  8
CSLAYER1
  6
CONTINUOUS
 62
     4
 10
788.154178
 20
1104.730784
 11
788.154178
 21
1154.930784
  0
LINE
  8
CSLAYER1
  6
CONTINUOUS
 62
     4
 10
803.654178
 20
1154.930784
 11
803.654178
 21
1129.730784
  0
LINE
  8
CSLAYER1
  6
CONTINUOUS
 62
     4
 10
797.654178
 20
1154.930784
 11
797.654178
 21
1129.730784
  0
LINE
  8
CSLAYER1
  6
CONTINUOUS
 62
     5
 10
757.470404
 20
1083.730784
 11
852.884815
 21
1083.730784
  0
LINE
  8
CSLAYER1
  6
CONTINUOUS
 62
     4
 10
784.654178
 20
1103.730784
 11
784.654178
 21
1063.730784
  0
LINE
  8
CSLAYER1
  6
CONTINUOUS
 62
     4
 10
811.154178
 20
1095.282426
 11
811.154178
 21
1072.179142
  0
LINE
  8
CSLAYER1
  6
CONTINUOUS
 62
     4
 10
812.304178
 20
1095.282426
 11
812.304178
 21
1072.179142
  0
LINE
  8
CSLAYER1
  6
CONTINUOUS
 62
     4
 10
813.154178
 20
1091.230784
 11
812.304178
 21
1091.230784
  0
LINE
  8
CSLAYER1
  6
CONTINUOUS
 62
     4
 10
812.304178
 20
1095.282426
 11
811.154178
 21
1095.282426
  0
LINE
  8
CSLAYER1
  6
CONTINUOUS
 62
     4
 10
811.154178
 20
1091.230784
 11
810.654178
 21
1091.230784
  0
LINE
  8
CSLAYER1
  6
CONTINUOUS
 62
     4
 10
810.654178
 20
1103.730784
 11
810.654178
 21
1063.730784
  0
ARC
  8
CSLAYER1
  6
CONTINUOUS
 62
     4
 10
785.654178
 20
1103.730784
 40
1.000000
 50
90.000000
 51
180.000000
  0
ARC
  8
CSLAYER1
  6
CONTINUOUS
 62
     4
 10
809.654178
 20
1103.730784
 40
1.000000
 50
0.000000
 51
90.000000
  0
ARC
  8
CSLAYER1
  6
CONTINUOUS
 62
     4
 10
798.654178
 20
1103.730784
 40
1.000000
 50
90.000000
 51
180.000000
  0
ARC
  8
CSLAYER1
  6
CONTINUOUS
 62
     4
 10
796.654178
 20
1103.730784
 40
1.000000
 50
0.000000
 51
90.000000
  0
LINE
  8
CSLAYER1
  6
CONTINUOUS
 62
     4
 10
813.654178
 20
1154.930784
 11
813.654178
 21
1064.730784
  0
LINE
  8
CSLAYER1
  6
CONTINUOUS
 62
     4
 10
809.654178
 20
1062.730784
 11
798.654178
 21
1062.730784
  0
LINE
  8
CSLAYER1
  6
CONTINUOUS
 62
     4
 10
813.154178
 20
1076.230784
 11
812.304178
 21
1076.230784
  0
LINE
  8
CSLAYER1
  6
CONTINUOUS
 62
     4
 10
812.304178
 20
1072.179142
 11
811.154178
 21
1072.179142
  0
LINE
  8
CSLAYER1
  6
CONTINUOUS
 62
     4
 10
811.154178
 20
1076.230784
 11
810.654178
 21
1076.230784
  0
ARC
  8
CSLAYER1
  6
CONTINUOUS
 62
     4
 10
785.654178
 20
1063.730784
 40
1.000000
 50
180.000000
 51
270.000000
  0
ARC
  8
CSLAYER1
  6
CONTINUOUS
 62
     4
 10
809.654178
 20
1063.730784
 40
1.000000
 50
270.000000
 51
360.000000
  0
ARC
  8
CSLAYER1
  6
CONTINUOUS
 62
     4
 10
798.654178
 20
1063.730784
 40
1.000000
 50
180.000000
 51
270.000000
  0
ARC
  8
CSLAYER1
  6
CONTINUOUS
 62
     4
 10
796.654178
 20
1063.730784
 40
1.000000
 50
270.000000
 51
360.000000
  0
LINE
  8
CSLAYER1
  6
CONTINUOUS
 62
     4
 10
785.654178
 20
1062.730784
 11
796.654178
 21
1062.730784
  0
LINE
  8
CSLAYER1
  6
CONTINUOUS
 62
     4
 10
784.654178
 20
1083.730784
 11
783.654178
 21
1083.730784
  0
LINE
  8
CSLAYER1
  6
CONTINUOUS
 62
     4
 10
784.154178
 20
1093.730784
 11
784.654178
 21
1093.230784
  0
LINE
  8
CSLAYER1
  6
CONTINUOUS
 62
     4
 10
784.154178
 20
1073.730784
 11
784.654178
 21
1074.230784
  0
LINE
  8
CSLAYER1
  6
CONTINUOUS
 62
     4
 10
586.404178
 20
1058.356459
 11
710.654178
 21
1058.356459
  0
LINE
  8
CSLAYER1
  6
CONTINUOUS
 62
     4
 10
757.154178
 20
1066.606459
 11
712.654178
 21
1066.606459
  0
LINE
  8
CSLAYER1
  6
CONTINUOUS
 62
     4
 10
757.154178
 20
1110.606459
 11
712.654178
 21
1110.606459
  0
LINE
  8
CSLAYER1
  6
CONTINUOUS
 62
     4
 10
712.654178
 20
1116.856459
 11
712.654178
 21
1060.356459
  0
LINE
  8
CSLAYER1
  6
CONTINUOUS
 62
     4
 10
710.654178
 20
1118.856459
 11
401.654178
 21
1118.856459
  0
LINE
  8
CSLAYER1
  6
CONTINUOUS
 62
     4
 10
712.654178
 20
1116.856459
 11
710.654178
 21
1118.856459
  0
LINE
  8
CSLAYER1
  6
CONTINUOUS
 62
     4
 10
712.654178
 20
1060.356459
 11
710.654178
 21
1058.356459
  0
LINE
  8
CSLAYER1
  6
CONTINUOUS
 62
     4
 10
757.154178
 20
1110.606459
 11
762.154178
 21
1105.606459
  0
LINE
  8
CSLAYER1
  6
CONTINUOUS
 62
     4
 10
757.154178
 20
1110.606459
 11
757.154178
 21
1066.606459
  0
LINE
  8
CSLAYER1
  6
CONTINUOUS
 62
     4
 10
757.154178
 20
1066.606459
 11
762.154178
 21
1071.606459
  0
LINE
  8
CSLAYER1
  6
CONTINUOUS
 62
     4
 10
746.154178
 20
1128.806459
 11
716.154178
 21
1128.806459
  0
LINE
  8
CSLAYER1
  6
CONTINUOUS
 62
     4
 10
748.474686
 20
1113.806459
 11
748.474686
 21
1127.466713
  0
LINE
  8
CSLAYER1
  6
CONTINUOUS
 62
     4
 10
739.814432
 20
1113.806459
 11
739.814432
 21
1127.466713
  0
LINE
  8
CSLAYER1
  6
CONTINUOUS
 62
     4
 10
746.154178
 20
1128.806459
 11
748.474686
 21
1127.466713
  0
ARC
  8
CSLAYER1
  6
CONTINUOUS
 62
     4
 10
744.144559
 20
1121.151841
 40
7.656867
 50
55.561448
 51
124.438552
  0
ARC
  8
CSLAYER1
  6
CONTINUOUS
 62
     4
 10
731.154178
 20
1100.146205
 40
28.660254
 50
72.412046
 51
107.587954
  0
LINE
  8
CSLAYER1
  6
CONTINUOUS
 62
     4
 10
712.654178
 20
1113.806459
 11
749.654178
 21
1113.806459
  0
LINE
  8
CSLAYER1
  6
CONTINUOUS
 62
     4
 10
744.154178
 20
1131.306459
 11
718.154178
 21
1131.306459
  0
LINE
  8
CSLAYER1
  6
CONTINUOUS
 62
     4
 10
746.154178
 20
1128.806459
 11
746.154178
 21
1129.306459
  0
ARC
  8
CSLAYER1
  6
CONTINUOUS
 62
     4
 10
744.154178
 20
1129.306459
 40
2.000000
 50
0.000000
 51
90.000000
  0
LINE
  8
CSLAYER1
  6
CONTINUOUS
 62
     4
 10
713.833670
 20
1113.806459
 11
713.833670
 21
1127.466713
  0
LINE
  8
CSLAYER1
  6
CONTINUOUS
 62
     4
 10
722.493924
 20
1113.806459
 11
722.493924
 21
1127.466713
  0
LINE
  8
CSLAYER1
  6
CONTINUOUS
 62
     4
 10
716.154178
 20
1128.806459
 11
713.833670
 21
1127.466713
  0
ARC
  8
CSLAYER1
  6
CONTINUOUS
 62
     4
 10
718.163797
 20
1121.151841
 40
7.656867
 50
55.561448
 51
124.438552
  0
LINE
  8
CSLAYER1
  6
CONTINUOUS
 62
     4
 10
716.154178
 20
1128.806459
 11
716.154178
 21
1129.306459
  0
ARC
  8
CSLAYER1
  6
CONTINUOUS
 62
     4
 10
718.154178
 20
1129.306459
 40
2.000000
 50
90.000000
 51
180.000000
  0
LINE
  8
CSLAYER1
  6
CONTINUOUS
 62
     4
 10
741.154178
 20
1131.306459
 11
741.154178
 21
1133.245924
  0
LINE
  8
CSLAYER1
  6
CONTINUOUS
 62
     4
 10
739.654178
 20
1131.306459
 11
739.654178
 21
1133.245924
  0
LINE
  8
CSLAYER1
  6
CONTINUOUS
 62
     4
 10
749.654178
 20
1110.606459
 11
749.654178
 21
1113.806459
  0
LINE
  8
CSLAYER1
  6
CONTINUOUS
 62
     4
 10
721.154178
 20
1131.306459
 11
721.154178
 21
1133.245924
  0
LINE
  8
CSLAYER1
  6
CONTINUOUS
 62
     4
 10
722.654178
 20
1131.306459
 11
722.654178
 21
1133.245924
  0
LINE
  8
CSLAYER1
  6
CONTINUOUS
 62
     4
 10
710.654178
 20
1118.856459
 11
710.654178
 21
1058.356459
  0
LINE
  8
CSLAYER1
  6
CONTINUOUS
 62
     4
 10
558.790639
 20
1074.769096
 11
561.407035
 21
1074.581493
  0
LINE
  8
CSLAYER1
  6
CONTINUOUS
 62
     4
 10
561.407035
 20
1074.581493
 11
563.983454
 21
1074.270407
  0
LINE
  8
CSLAYER1
  6
CONTINUOUS
 62
     4
 10
563.983454
 20
1074.270407
 11
566.500287
 21
1073.838206
  0
LINE
  8
CSLAYER1
  6
CONTINUOUS
 62
     4
 10
566.500287
 20
1073.838206
 11
568.938380
 21
1073.288180
  0
LINE
  8
CSLAYER1
  6
CONTINUOUS
 62
     4
 10
568.938380
 20
1073.288180
 11
571.279178
 21
1072.624514
  0
LINE
  8
CSLAYER1
  6
CONTINUOUS
 62
     4
 10
571.279178
 20
1072.624514
 11
573.504865
 21
1071.852260
  0
LINE
  8
CSLAYER1
  6
CONTINUOUS
 62
     4
 10
573.504865
 20
1071.852260
 11
575.598503
 21
1070.977295
  0
LINE
  8
CSLAYER1
  6
CONTINUOUS
 62
     4
 10
575.598503
 20
1070.977295
 11
577.544158
 21
1070.006277
  0
LINE
  8
CSLAYER1
  6
CONTINUOUS
 62
     4
 10
577.544158
 20
1070.006277
 11
579.327022
 21
1068.946598
  0
LINE
  8
CSLAYER1
  6
CONTINUOUS
 62
     4
 10
579.327022
 20
1068.946598
 11
580.933527
 21
1067.806321
  0
LINE
  8
CSLAYER1
  6
CONTINUOUS
 62
     4
 10
580.933527
 20
1067.806321
 11
582.351446
 21
1066.594124
  0
LINE
  8
CSLAYER1
  6
CONTINUOUS
 62
     4
 10
582.351446
 20
1066.594124
 11
583.569988
 21
1065.319235
  0
LINE
  8
CSLAYER1
  6
CONTINUOUS
 62
     4
 10
583.569988
 20
1065.319235
 11
584.579880
 21
1063.991354
  0
LINE
  8
CSLAYER1
  6
CONTINUOUS
 62
     4
 10
584.579880
 20
1063.991354
 11
585.373434
 21
1062.620588
  0
LINE
  8
CSLAYER1
  6
CONTINUOUS
 62
     4
 10
585.373434
 20
1062.620588
 11
585.944612
 21
1061.217370
  0
LINE
  8
CSLAYER1
  6
CONTINUOUS
 62
     4
 10
585.944612
 20
1061.217370
 11
586.289067
 21
1059.792379
  0
LINE
  8
CSLAYER1
  6
CONTINUOUS
 62
     4
 10
586.289067
 20
1059.792379
 11
586.404178
 21
1058.356459
  0
LINE
  8
CSLAYER1
  6
CONTINUOUS
 62
     4
 10
784.154178
 20
1093.730784
 11
783.154178
 21
1093.730784
  0
LINE
  8
CSLAYER1
  6
CONTINUOUS
 62
     4
 10
784.154178
 20
1073.730784
 11
780.504178
 21
1073.730784
  0
LINE
  8
CSLAYER1
  6
CONTINUOUS
 62
     4
 10
762.154178
 20
1118.506459
 11
762.154178
 21
1058.706459
  0
ARC
  8
CSLAYER1
  6
CONTINUOUS
 62
     4
 10
763.254178
 20
1118.506459
 40
1.100000
 50
95.215909
 51
180.000000
  0
ARC
  8
CSLAYER1
  6
CONTINUOUS
 62
     4
 10
763.254178
 20
1058.706459
 40
1.100000
 50
180.000000
 51
264.784091
  0
LINE
  8
CSLAYER1
  6
CONTINUOUS
 62
     4
 10
781.654178
 20
1101.106459
 11
780.504178
 21
1101.106459
  0
LINE
  8
CSLAYER1
  6
CONTINUOUS
 62
     4
 10
780.504178
 20
1103.656459
 11
779.154178
 21
1103.656459
  0
LINE
  8
CSLAYER1
  6
CONTINUOUS
 62
     4
 10
780.504178
 20
1103.656459
 11
780.504178
 21
1073.556459
  0
LINE
  8
CSLAYER1
  6
CONTINUOUS
 62
     4
 10
783.154178
 20
1099.606459
 11
783.154178
 21
1077.606459
  0
LINE
  8
CSLAYER1
  6
CONTINUOUS
 62
     4
 10
783.154178
 20
1099.606459
 11
781.654178
 21
1101.106459
  0
LINE
  8
CSLAYER1
  6
CONTINUOUS
 62
     4
 10
781.654178
 20
1101.106459
 11
781.654178
 21
1076.106459
  0
LINE
  8
CSLAYER1
  6
CONTINUOUS
 62
     4
 10
781.654178
 20
1076.106459
 11
780.504178
 21
1076.106459
  0
LINE
  8
CSLAYER1
  6
CONTINUOUS
 62
     4
 10
780.504178
 20
1073.556459
 11
779.154178
 21
1073.556459
  0
LINE
  8
CSLAYER1
  6
CONTINUOUS
 62
     4
 10
783.154178
 20
1077.606459
 11
781.654178
 21
1076.106459
  0
LINE
  8
CSLAYER1
  6
CONTINUOUS
 62
     4
 10
797.654178
 20
1103.730784
 11
797.654178
 21
1063.730784
  0
LINE
  8
CSLAYER1
  6
CENTER
 62
     5
 10
858.180246
 20
1083.730784
 11
807.333057
 21
1083.730784
  0
LINE
  8
CSLAYER1
  6
CONTINUOUS
 62
     3
 10
857.854178
 20
1083.730784
 11
857.854178
 21
1093.230784
  0
LINE
  8
CSLAYER1
  6
CONTINUOUS
 62
     4
 10
854.654178
 20
1154.930784
 11
854.654178
 21
1064.730784
  0
LINE
  8
CSLAYER1
  6
CONTINUOUS
 62
     4
 10
813.654178
 20
1064.730784
 11
854.654178
 21
1064.730784
  0
LINE
  8
CSLAYER1
  6
CONTINUOUS
 62
     4
 10
857.854178
 20
1106.730784
 11
857.854178
 21
1075.730784
  0
LINE
  8
CSLAYER1
  6
CONTINUOUS
 62
     5
 10
862.345052
 20
1098.730784
 11
848.654178
 21
1098.730784
  0
LINE
  8
CSLAYER1
  6
CONTINUOUS
 62
     4
 10
857.854178
 20
1106.730784
 11
854.654178
 21
1106.730784
  0
LINE
  8
CSLAYER1
  6
CONTINUOUS
 62
     4
 10
812.654178
 20
1076.730784
 11
812.654178
 21
1090.730784
  0
LINE
  8
CSLAYER1
  6
CONTINUOUS
 62
     4
 10
812.654178
 20
1076.730784
 11
813.654178
 21
1075.730784
  0
LINE
  8
CSLAYER1
  6
CONTINUOUS
 62
     4
 10
857.854178
 20
1075.730784
 11
854.654178
 21
1075.730784
  0
LINE
  8
CSLAYER1
  6
CONTINUOUS
 62
     4
 10
812.654178
 20
1090.730784
 11
813.654178
 21
1091.730784
  0
LINE
  8
CSLAYER1
  6
CONTINUOUS
 62
     4
 10
857.854178
 20
1079.730784
 11
854.654178
 21
1079.730784
  0
LINE
  8
CSLAYER1
  6
CONTINUOUS
 62
     4
 10
857.854178
 20
1087.730784
 11
854.654178
 21
1087.730784
  0
LINE
  8
CSLAYER1
  6
CONTINUOUS
 62
     4
 10
717.154178
 20
685.557975
 11
717.154178
 21
711.557975
  0
LINE
  8
CSLAYER1
  6
CONTINUOUS
 62
     4
 10
718.154178
 20
684.557975
 11
718.154178
 21
712.557975
  0
LINE
  8
CSLAYER1
  6
CONTINUOUS
 62
     4
 10
723.154178
 20
712.557975
 11
720.127637
 21
712.557975
  0
LINE
  8
CSLAYER1
  6
CONTINUOUS
 62
     4
 10
717.154178
 20
711.557975
 11
718.154178
 21
712.557975
  0
LINE
  8
CSLAYER1
  6
CONTINUOUS
 62
     4
 10
740.154178
 20
717.557975
 11
741.154178
 21
718.557975
  0
LINE
  8
CSLAYER1
  6
CONTINUOUS
 62
     4
 10
718.154178
 20
712.557975
 11
723.220436
 21
717.542656
  0
LINE
  8
CSLAYER1
  6
CONTINUOUS
 62
     4
 10
723.154178
 20
717.477465
 11
718.234688
 21
712.557975
  0
LINE
  8
CSLAYER1
  6
CONTINUOUS
 62
     4
 10
723.154178
 20
717.194622
 11
718.517531
 21
712.557975
  0
LINE
  8
CSLAYER1
  6
CONTINUOUS
 62
     4
 10
723.154178
 20
716.911779
 11
718.800374
 21
712.557975
  0
LINE
  8
CSLAYER1
  6
CONTINUOUS
 62
     4
 10
723.154178
 20
716.628937
 11
719.083216
 21
712.557975
  0
LINE
  8
CSLAYER1
  6
CONTINUOUS
 62
     4
 10
723.154178
 20
716.346094
 11
719.366059
 21
712.557975
  0
LINE
  8
CSLAYER1
  6
CONTINUOUS
 62
     4
 10
723.154178
 20
716.063251
 11
719.648902
 21
712.557975
  0
LINE
  8
CSLAYER1
  6
CONTINUOUS
 62
     4
 10
723.154178
 20
715.780409
 11
719.931744
 21
712.557975
  0
LINE
  8
CSLAYER1
  6
CONTINUOUS
 62
     4
 10
723.154178
 20
715.497566
 11
720.214587
 21
712.557975
  0
LINE
  8
CSLAYER1
  6
CONTINUOUS
 62
     4
 10
723.154178
 20
715.214723
 11
720.497430
 21
712.557975
  0
LINE
  8
CSLAYER1
  6
CONTINUOUS
 62
     4
 10
723.154178
 20
714.931880
 11
720.780272
 21
712.557975
  0
LINE
  8
CSLAYER1
  6
CONTINUOUS
 62
     4
 10
723.154178
 20
714.649038
 11
721.063115
 21
712.557975
  0
LINE
  8
CSLAYER1
  6
CONTINUOUS
 62
     4
 10
723.154178
 20
714.366195
 11
721.345958
 21
712.557975
  0
LINE
  8
CSLAYER1
  6
CONTINUOUS
 62
     4
 10
723.154178
 20
714.083352
 11
721.628801
 21
712.557975
  0
LINE
  8
CSLAYER1
  6
CONTINUOUS
 62
     4
 10
723.154178
 20
713.800510
 11
721.911643
 21
712.557975
  0
LINE
  8
CSLAYER1
  6
CONTINUOUS
 62
     4
 10
723.154178
 20
713.517667
 11
722.194486
 21
712.557975
  0
LINE
  8
CSLAYER1
  6
CONTINUOUS
 62
     4
 10
723.154178
 20
713.234824
 11
722.477329
 21
712.557975
  0
LINE
  8
CSLAYER1
  6
CONTINUOUS
 62
     4
 10
723.154178
 20
712.951981
 11
722.760171
 21
712.557975
  0
LINE
  8
CSLAYER1
  6
CONTINUOUS
 62
     4
 10
723.154178
 20
712.669139
 11
723.043014
 21
712.557975
  0
LINE
  8
CSLAYER1
  6
CONTINUOUS
 62
     4
 10
820.127637
 20
677.207975
 11
779.154178
 21
677.207975
  0
LINE
  8
CSLAYER1
  6
CONTINUOUS
 62
     4
 10
740.154178
 20
717.557975
 11
740.154178
 21
679.557975
  0
LINE
  8
CSLAYER1
  6
CONTINUOUS
 62
     4
 10
821.127637
 20
718.907975
 11
821.127637
 21
678.207975
  0
LINE
  8
CSLAYER1
  6
CONTINUOUS
 62
     4
 10
821.127637
 20
678.207975
 11
820.127637
 21
677.207975
  0
LINE
  8
CSLAYER1
  6
CONTINUOUS
 62
     4
 10
861.127637
 20
708.557975
 11
861.127637
 21
688.557975
  0
LINE
  8
CSLAYER1
  6
CONTINUOUS
 62
     4
 10
842.127637
 20
717.057975
 11
842.127637
 21
680.057975
  0
LINE
  8
CSLAYER1
  6
CONTINUOUS
 62
     4
 10
847.227637
 20
715.557975
 11
847.227637
 21
681.557975
  0
LINE
  8
CSLAYER1
  6
CONTINUOUS
 62
     4
 10
859.227637
 20
715.557975
 11
859.227637
 21
681.557975
  0
LINE
  8
CSLAYER1
  6
CONTINUOUS
 62
     4
 10
842.127637
 20
715.557975
 11
859.227637
 21
715.557975
  0
LINE
  8
CSLAYER1
  6
CONTINUOUS
 62
     4
 10
847.227637
 20
708.557975
 11
861.127637
 21
708.557975
  0
LINE
  8
CSLAYER1
  6
CONTINUOUS
 62
     4
 10
842.127637
 20
681.557975
 11
859.227637
 21
681.557975
  0
LINE
  8
CSLAYER1
  6
CONTINUOUS
 62
     4
 10
847.227637
 20
688.557975
 11
861.127637
 21
688.557975
  0
LINE
  8
CSLAYER1
  6
CONTINUOUS
 62
     4
 10
839.127637
 20
717.057975
 11
842.127637
 21
717.057975
  0
LINE
  8
CSLAYER1
  6
CONTINUOUS
 62
     4
 10
839.127637
 20
680.057975
 11
842.127637
 21
680.057975
  0
LINE
  8
CSLAYER1
  6
CONTINUOUS
 62
     4
 10
839.127637
 20
680.057975
 11
839.127637
 21
717.057975
  0
LINE
  8
CSLAYER1
  6
CENTER
 62
     5
 10
878.771690
 20
698.557975
 11
699.965215
 21
698.557975
  0
LINE
  8
CSLAYER1
  6
CONTINUOUS
 62
     4
 10
839.127637
 20
686.057975
 11
838.154178
 21
686.057975
  0
LINE
  8
CSLAYER1
  6
CONTINUOUS
 62
     4
 10
820.127637
 20
719.907975
 11
779.154178
 21
719.907975
  0
LINE
  8
CSLAYER1
  6
CONTINUOUS
 62
     4
 10
821.127637
 20
718.907975
 11
820.127637
 21
719.907975
  0
LINE
  8
CSLAYER1
  6
CONTINUOUS
 62
     4
 10
839.127637
 20
711.057975
 11
838.154178
 21
711.057975
  0
LINE
  8
CSLAYER1
  6
CONTINUOUS
 62
     4
 10
838.127637
 20
698.557975
 11
838.127637
 21
351.385166
  0
LINE
  8
CSLAYER1
  6
CONTINUOUS
 62
     4
 10
784.154178
 20
677.207975
 11
779.154178
 21
672.207975
  0
LINE
  8
CSLAYER1
  6
CONTINUOUS
 62
     4
 10
779.154178
 20
672.490818
 11
783.871335
 21
677.207975
  0
LINE
  8
CSLAYER1
  6
CONTINUOUS
 62
     4
 10
779.154178
 20
672.773661
 11
783.588492
 21
677.207975
  0
LINE
  8
CSLAYER1
  6
CONTINUOUS
 62
     4
 10
779.154178
 20
673.056503
 11
783.305650
 21
677.207975
  0
LINE
  8
CSLAYER1
  6
CONTINUOUS
 62
     4
 10
779.154178
 20
673.339346
 11
783.022807
 21
677.207975
  0
LINE
  8
CSLAYER1
  6
CONTINUOUS
 62
     4
 10
779.154178
 20
673.622189
 11
782.739964
 21
677.207975
  0
LINE
  8
CSLAYER1
  6
CONTINUOUS
 62
     4
 10
779.154178
 20
673.905031
 11
782.457122
 21
677.207975
  0
LINE
  8
CSLAYER1
  6
CONTINUOUS
 62
     4
 10
779.154178
 20
674.187874
 11
782.174279
 21
677.207975
  0
LINE
  8
CSLAYER1
  6
CONTINUOUS
 62
     4
 10
779.154178
 20
674.470717
 11
781.891436
 21
677.207975
  0
LINE
  8
CSLAYER1
  6
CONTINUOUS
 62
     4
 10
779.154178
 20
674.753559
 11
781.608593
 21
677.207975
  0
LINE
  8
CSLAYER1
  6
CONTINUOUS
 62
     4
 10
779.154178
 20
675.036402
 11
781.325751
 21
677.207975
  0
LINE
  8
CSLAYER1
  6
CONTINUOUS
 62
     4
 10
779.154178
 20
675.319245
 11
781.042908
 21
677.207975
  0
LINE
  8
CSLAYER1
  6
CONTINUOUS
 62
     4
 10
779.154178
 20
675.602088
 11
780.760065
 21
677.207975
  0
LINE
  8
CSLAYER1
  6
CONTINUOUS
 62
     4
 10
779.154178
 20
675.884930
 11
780.477223
 21
677.207975
  0
LINE
  8
CSLAYER1
  6
CONTINUOUS
 62
     4
 10
779.154178
 20
676.167773
 11
780.194380
 21
677.207975
  0
LINE
  8
CSLAYER1
  6
CONTINUOUS
 62
     4
 10
779.154178
 20
676.450616
 11
779.911537
 21
677.207975
  0
LINE
  8
CSLAYER1
  6
CONTINUOUS
 62
     4
 10
779.154178
 20
676.733458
 11
779.628694
 21
677.207975
  0
LINE
  8
CSLAYER1
  6
CONTINUOUS
 62
     4
 10
779.154178
 20
677.016301
 11
779.345852
 21
677.207975
  0
LINE
  8
CSLAYER1
  6
CONTINUOUS
 62
     4
 10
763.154178
 20
723.275132
 11
758.437021
 21
718.557975
  0
LINE
  8
CSLAYER1
  6
CONTINUOUS
 62
     4
 10
763.154178
 20
722.992290
 11
758.719863
 21
718.557975
  0
LINE
  8
CSLAYER1
  6
CONTINUOUS
 62
     4
 10
763.154178
 20
722.709447
 11
759.002706
 21
718.557975
  0
LINE
  8
CSLAYER1
  6
CONTINUOUS
 62
     4
 10
763.154178
 20
722.426604
 11
759.285549
 21
718.557975
  0
LINE
  8
CSLAYER1
  6
CONTINUOUS
 62
     4
 10
763.154178
 20
722.143762
 11
759.568391
 21
718.557975
  0
LINE
  8
CSLAYER1
  6
CONTINUOUS
 62
     4
 10
763.154178
 20
721.860919
 11
759.851234
 21
718.557975
  0
LINE
  8
CSLAYER1
  6
CONTINUOUS
 62
     4
 10
763.154178
 20
721.578076
 11
760.134077
 21
718.557975
  0
LINE
  8
CSLAYER1
  6
CONTINUOUS
 62
     4
 10
763.154178
 20
721.295233
 11
760.416920
 21
718.557975
  0
LINE
  8
CSLAYER1
  6
CONTINUOUS
 62
     4
 10
763.154178
 20
721.012391
 11
760.699762
 21
718.557975
  0
LINE
  8
CSLAYER1
  6
CONTINUOUS
 62
     4
 10
763.154178
 20
720.729548
 11
760.982605
 21
718.557975
  0
LINE
  8
CSLAYER1
  6
CONTINUOUS
 62
     4
 10
763.154178
 20
720.446705
 11
761.265448
 21
718.557975
  0
LINE
  8
CSLAYER1
  6
CONTINUOUS
 62
     4
 10
763.154178
 20
720.163863
 11
761.548290
 21
718.557975
  0
LINE
  8
CSLAYER1
  6
CONTINUOUS
 62
     4
 10
763.154178
 20
719.881020
 11
761.831133
 21
718.557975
  0
LINE
  8
CSLAYER1
  6
CONTINUOUS
 62
     4
 10
763.154178
 20
719.598177
 11
762.113976
 21
718.557975
  0
LINE
  8
CSLAYER1
  6
CONTINUOUS
 62
     4
 10
763.154178
 20
719.315334
 11
762.396819
 21
718.557975
  0
LINE
  8
CSLAYER1
  6
CONTINUOUS
 62
     4
 10
763.154178
 20
719.032492
 11
762.679661
 21
718.557975
  0
LINE
  8
CSLAYER1
  6
CONTINUOUS
 62
     4
 10
763.154178
 20
718.749649
 11
762.962504
 21
718.557975
  0
LINE
  8
CSLAYER1
  6
CONTINUOUS
 62
     4
 10
784.154178
 20
719.907975
 11
779.154178
 21
724.907975
  0
LINE
  8
CSLAYER1
  6
CONTINUOUS
 62
     4
 10
779.154178
 20
724.625132
 11
783.871335
 21
719.907975
  0
LINE
  8
CSLAYER1
  6
CONTINUOUS
 62
     4
 10
779.154178
 20
724.342290
 11
783.588492
 21
719.907975
  0
LINE
  8
CSLAYER1
  6
CONTINUOUS
 62
     4
 10
779.154178
 20
724.059447
 11
783.305650
 21
719.907975
  0
LINE
  8
CSLAYER1
  6
CONTINUOUS
 62
     4
 10
779.154178
 20
723.776604
 11
783.022807
 21
719.907975
  0
LINE
  8
CSLAYER1
  6
CONTINUOUS
 62
     4
 10
779.154178
 20
723.493762
 11
782.739964
 21
719.907975
  0
LINE
  8
CSLAYER1
  6
CONTINUOUS
 62
     4
 10
779.154178
 20
723.210919
 11
782.457122
 21
719.907975
  0
LINE
  8
CSLAYER1
  6
CONTINUOUS
 62
     4
 10
779.154178
 20
722.928076
 11
782.174279
 21
719.907975
  0
LINE
  8
CSLAYER1
  6
CONTINUOUS
 62
     4
 10
779.154178
 20
722.645233
 11
781.891436
 21
719.907975
  0
LINE
  8
CSLAYER1
  6
CONTINUOUS
 62
     4
 10
779.154178
 20
722.362391
 11
781.608593
 21
719.907975
  0
LINE
  8
CSLAYER1
  6
CONTINUOUS
 62
     4
 10
779.154178
 20
722.079548
 11
781.325751
 21
719.907975
  0
LINE
  8
CSLAYER1
  6
CONTINUOUS
 62
     4
 10
779.154178
 20
721.796705
 11
781.042908
 21
719.907975
  0
LINE
  8
CSLAYER1
  6
CONTINUOUS
 62
     4
 10
779.154178
 20
721.513863
 11
780.760065
 21
719.907975
  0
LINE
  8
CSLAYER1
  6
CONTINUOUS
 62
     4
 10
779.154178
 20
721.231020
 11
780.477223
 21
719.907975
  0
LINE
  8
CSLAYER1
  6
CONTINUOUS
 62
     4
 10
779.154178
 20
720.948177
 11
780.194380
 21
719.907975
  0
LINE
  8
CSLAYER1
  6
CONTINUOUS
 62
     4
 10
779.154178
 20
720.665334
 11
779.911537
 21
719.907975
  0
LINE
  8
CSLAYER1
  6
CONTINUOUS
 62
     4
 10
779.154178
 20
720.382492
 11
779.628694
 21
719.907975
  0
LINE
  8
CSLAYER1
  6
CONTINUOUS
 62
     4
 10
779.154178
 20
720.099649
 11
779.345852
 21
719.907975
  0
LINE
  8
CSLAYER1
  6
CONTINUOUS
 62
     4
 10
762.113976
 20
718.557975
 11
763.154178
 21
718.557975
  0
POINT
  8
CSLAYER1
 62
     4
 10
731.154178
 20
741.327203
  0
LINE
  8
CSLAYER1
  6
CONTINUOUS
 62
     4
 10
749.054178
 20
728.327203
 11
749.054178
 21
786.077203
  0
LINE
  8
CSLAYER1
  6
CONTINUOUS
 62
     4
 10
750.904178
 20
737.557203
 11
750.904178
 21
745.106929
  0
LINE
  8
CSLAYER1
  6
CONTINUOUS
 62
     4
 10
744.679178
 20
728.327203
 11
749.054178
 21
728.327203
  0
LINE
  8
CSLAYER1
  6
CONTINUOUS
 62
     4
 10
749.054178
 20
746.106929
 11
749.904178
 21
746.106929
  0
ARC
  8
CSLAYER1
  6
CONTINUOUS
 62
     4
 10
749.904178
 20
737.557203
 40
1.000000
 50
270.000000
 51
360.000000
  0
ARC
  8
CSLAYER1
  6
CONTINUOUS
 62
     4
 10
749.904178
 20
745.106929
 40
1.000000
 50
0.000000
 51
90.000000
  0
LINE
  8
CSLAYER1
  6
CONTINUOUS
 62
     4
 10
717.629178
 20
728.327203
 11
717.629178
 21
823.577203
  0
LINE
  8
CSLAYER1
  6
CONTINUOUS
 62
     4
 10
713.254178
 20
728.327203
 11
713.254178
 21
786.077203
  0
LINE
  8
CSLAYER1
  6
CONTINUOUS
 62
     4
 10
711.404178
 20
737.557203
 11
711.404178
 21
745.106929
  0
LINE
  8
CSLAYER1
  6
CONTINUOUS
 62
     4
 10
717.629178
 20
728.327203
 11
713.254178
 21
728.327203
  0
LINE
  8
CSLAYER1
  6
CONTINUOUS
 62
     4
 10
713.254178
 20
736.557203
 11
712.404178
 21
736.557203
  0
LINE
  8
CSLAYER1
  6
CONTINUOUS
 62
     4
 10
713.254178
 20
746.106929
 11
712.404178
 21
746.106929
  0
ARC
  8
CSLAYER1
  6
CONTINUOUS
 62
     4
 10
712.404178
 20
737.557203
 40
1.000000
 50
180.000000
 51
270.000000
  0
ARC
  8
CSLAYER1
  6
CONTINUOUS
 62
     4
 10
712.404178
 20
745.106929
 40
1.000000
 50
90.000000
 51
180.000000
  0
LINE
  8
CSLAYER1
  6
CONTINUOUS
 62
     4
 10
718.629178
 20
731.327203
 11
723.154178
 21
731.327203
  0
LINE
  8
CSLAYER1
  6
CONTINUOUS
 62
     4
 10
717.629178
 20
732.327203
 11
718.629178
 21
731.327203
  0
LINE
  8
CSLAYER1
  6
CONTINUOUS
 62
     4
 10
743.679178
 20
731.327203
 11
744.679178
 21
732.327203
  0
LINE
  8
CSLAYER1
  6
CONTINUOUS
 62
     4
 10
718.629178
 20
751.327203
 11
723.154178
 21
751.327203
  0
LINE
  8
CSLAYER1
  6
CONTINUOUS
 62
     4
 10
717.629178
 20
750.327203
 11
718.629178
 21
751.327203
  0
LINE
  8
CSLAYER1
  6
CONTINUOUS
 62
     4
 10
743.679178
 20
751.327203
 11
744.679178
 21
750.327203
  0
LINE
  8
CSLAYER1
  6
CONTINUOUS
 62
     5
 10
758.637459
 20
773.077203
 11
714.101548
 21
773.077203
  0
LINE
  8
CSLAYER1
  6
CONTINUOUS
 62
     4
 10
717.629178
 20
786.077203
 11
713.254178
 21
786.077203
  0
LINE
  8
CSLAYER1
  6
CONTINUOUS
 62
     4
 10
711.404178
 20
769.307203
 11
711.404178
 21
776.856929
  0
LINE
  8
CSLAYER1
  6
CONTINUOUS
 62
     4
 10
713.254178
 20
768.307203
 11
712.404178
 21
768.307203
  0
LINE
  8
CSLAYER1
  6
CONTINUOUS
 62
     4
 10
713.254178
 20
777.856929
 11
712.404178
 21
777.856929
  0
ARC
  8
CSLAYER1
  6
CONTINUOUS
 62
     4
 10
712.404178
 20
769.307203
 40
1.000000
 50
180.000000
 51
270.000000
  0
ARC
  8
CSLAYER1
  6
CONTINUOUS
 62
     4
 10
712.404178
 20
776.856929
 40
1.000000
 50
90.000000
 51
180.000000
  0
LINE
  8
CSLAYER1
  6
CONTINUOUS
 62
     4
 10
744.679178
 20
786.077203
 11
749.054178
 21
786.077203
  0
LINE
  8
CSLAYER1
  6
CONTINUOUS
 62
     4
 10
749.054178
 20
736.557203
 11
749.904178
 21
736.557203
  0
LINE
  8
CSLAYER1
  6
CONTINUOUS
 62
     4
 10
750.904178
 20
769.307203
 11
750.904178
 21
776.856929
  0
LINE
  8
CSLAYER1
  6
CONTINUOUS
 62
     4
 10
749.054178
 20
768.307203
 11
749.904178
 21
768.307203
  0
LINE
  8
CSLAYER1
  6
CONTINUOUS
 62
     4
 10
749.054178
 20
777.856929
 11
749.904178
 21
777.856929
  0
ARC
  8
CSLAYER1
  6
CONTINUOUS
 62
     4
 10
749.904178
 20
769.307203
 40
1.000000
 50
270.000000
 51
360.000000
  0
ARC
  8
CSLAYER1
  6
CONTINUOUS
 62
     4
 10
749.904178
 20
776.856929
 40
1.000000
 50
0.000000
 51
90.000000
  0
POINT
  8
CSLAYER1
 62
     4
 10
731.154178
 20
773.077203
  0
LINE
  8
CSLAYER1
  6
CONTINUOUS
 62
     5
 10
757.791841
 20
741.327203
 11
713.255929
 21
741.327203
  0
LINE
  8
CSLAYER1
  6
CONTINUOUS
 62
     4
 10
723.154178
 20
763.552203
 11
723.154178
 21
676.848121
  0
POINT
  8
CSLAYER1
 62
     4
 10
731.154178
 20
804.827203
  0
LINE
  8
CSLAYER1
  6
CONTINUOUS
 62
     4
 10
744.679178
 20
728.327203
 11
744.679178
 21
823.577203
  0
LINE
  8
CSLAYER1
  6
CONTINUOUS
 62
     4
 10
740.679178
 20
819.877203
 11
740.679178
 21
758.027203
  0
LINE
  8
CSLAYER1
  6
CONTINUOUS
 62
     4
 10
740.679178
 20
819.877203
 11
744.679178
 21
819.877203
  0
LINE
  8
CSLAYER1
  6
CONTINUOUS
 62
     4
 10
739.679178
 20
795.302203
 11
722.629178
 21
795.302203
  0
LINE
  8
CSLAYER1
  6
CONTINUOUS
 62
     4
 10
739.679178
 20
814.352203
 11
722.629178
 21
814.352203
  0
ARC
  8
CSLAYER1
  6
CONTINUOUS
 62
     4
 10
739.679178
 20
796.302203
 40
1.000000
 50
270.000000
 51
360.000000
  0
ARC
  8
CSLAYER1
  6
CONTINUOUS
 62
     4
 10
739.679178
 20
813.352203
 40
1.000000
 50
0.000000
 51
90.000000
  0
LINE
  8
CSLAYER1
  6
CONTINUOUS
 62
     4
 10
721.629178
 20
819.877203
 11
721.629178
 21
758.027203
  0
LINE
  8
CSLAYER1
  6
CONTINUOUS
 62
     4
 10
721.629178
 20
819.877203
 11
717.629178
 21
819.877203
  0
ARC
  8
CSLAYER1
  6
CONTINUOUS
 62
     4
 10
722.629178
 20
796.302203
 40
1.000000
 50
180.000000
 51
270.000000
  0
ARC
  8
CSLAYER1
  6
CONTINUOUS
 62
     4
 10
722.629178
 20
813.352203
 40
1.000000
 50
90.000000
 51
180.000000
  0
LINE
  8
CSLAYER1
  6
CONTINUOUS
 62
     4
 10
750.904178
 20
801.057203
 11
750.904178
 21
808.606929
  0
LINE
  8
CSLAYER1
  6
CONTINUOUS
 62
     4
 10
744.679178
 20
791.827203
 11
749.054178
 21
791.827203
  0
LINE
  8
CSLAYER1
  6
CONTINUOUS
 62
     4
 10
749.054178
 20
800.057203
 11
749.904178
 21
800.057203
  0
LINE
  8
CSLAYER1
  6
CONTINUOUS
 62
     4
 10
749.054178
 20
809.606929
 11
749.904178
 21
809.606929
  0
ARC
  8
CSLAYER1
  6
CONTINUOUS
 62
     4
 10
749.904178
 20
801.057203
 40
1.000000
 50
270.000000
 51
360.000000
  0
ARC
  8
CSLAYER1
  6
CONTINUOUS
 62
     4
 10
749.904178
 20
808.606929
 40
1.000000
 50
0.000000
 51
90.000000
  0
LINE
  8
CSLAYER1
  6
CONTINUOUS
 62
     4
 10
711.404178
 20
801.057203
 11
711.404178
 21
808.606929
  0
LINE
  8
CSLAYER1
  6
CONTINUOUS
 62
     4
 10
717.629178
 20
791.827203
 11
713.254178
 21
791.827203
  0
LINE
  8
CSLAYER1
  6
CONTINUOUS
 62
     4
 10
713.254178
 20
800.057203
 11
712.404178
 21
800.057203
  0
LINE
  8
CSLAYER1
  6
CONTINUOUS
 62
     4
 10
713.254178
 20
809.606929
 11
712.404178
 21
809.606929
  0
ARC
  8
CSLAYER1
  6
CONTINUOUS
 62
     4
 10
712.404178
 20
801.057203
 40
1.000000
 50
180.000000
 51
270.000000
  0
ARC
  8
CSLAYER1
  6
CONTINUOUS
 62
     4
 10
712.404178
 20
808.606929
 40
1.000000
 50
90.000000
 51
180.000000
  0
LINE
  8
CSLAYER1
  6
CONTINUOUS
 62
     4
 10
749.054178
 20
791.827203
 11
749.054178
 21
849.577203
  0
LINE
  8
CSLAYER1
  6
CONTINUOUS
 62
     4
 10
713.254178
 20
791.827203
 11
713.254178
 21
849.577203
  0
LINE
  8
CSLAYER1
  6
CONTINUOUS
 62
     4
 10
740.679178
 20
758.027203
 11
744.679178
 21
758.027203
  0
LINE
  8
CSLAYER1
  6
CONTINUOUS
 62
     4
 10
739.679178
 20
782.602203
 11
722.629178
 21
782.602203
  0
LINE
  8
CSLAYER1
  6
CONTINUOUS
 62
     4
 10
739.679178
 20
763.552203
 11
722.629178
 21
763.552203
  0
ARC
  8
CSLAYER1
  6
CONTINUOUS
 62
     4
 10
739.679178
 20
781.602203
 40
1.000000
 50
0.000000
 51
90.000000
  0
ARC
  8
CSLAYER1
  6
CONTINUOUS
 62
     4
 10
739.679178
 20
764.552203
 40
1.000000
 50
270.000000
 51
360.000000
  0
LINE
  8
CSLAYER1
  6
CONTINUOUS
 62
     4
 10
721.629178
 20
758.027203
 11
717.629178
 21
758.027203
  0
ARC
  8
CSLAYER1
  6
CONTINUOUS
 62
     4
 10
722.629178
 20
781.602203
 40
1.000000
 50
90.000000
 51
180.000000
  0
ARC
  8
CSLAYER1
  6
CONTINUOUS
 62
     4
 10
722.629178
 20
764.552203
 40
1.000000
 50
180.000000
 51
270.000000
  0
LINE
  8
CSLAYER1
  6
CONTINUOUS
 62
     4
 10
739.154178
 20
758.327203
 11
723.154178
 21
758.327203
  0
LINE
  8
CSLAYER1
  6
CONTINUOUS
 62
     4
 10
739.154178
 20
751.327203
 11
743.679178
 21
751.327203
  0
LINE
  8
CSLAYER1
  6
CONTINUOUS
 62
     4
 10
739.154178
 20
731.327203
 11
743.679178
 21
731.327203
  0
LINE
  8
CSLAYER1
  6
CONTINUOUS
 62
     4
 10
760.962504
 20
718.557975
 11
741.154178
 21
718.557975
  0
LINE
  8
CSLAYER1
  6
CONTINUOUS
 62
     4
 10
740.154178
 20
713.557975
 11
739.154178
 21
713.557975
  0
LINE
  8
CSLAYER1
  6
CONTINUOUS
 62
     4
 10
822.154178
 20
713.557975
 11
821.127637
 21
713.557975
  0
LINE
  8
CSLAYER1
  6
CONTINUOUS
 62
     4
 10
822.154178
 20
683.557975
 11
821.127637
 21
683.557975
  0
LINE
  8
CSLAYER1
  6
CONTINUOUS
 62
     4
 10
763.154178
 20
673.840818
 11
758.437021
 21
678.557975
  0
LINE
  8
CSLAYER1
  6
CONTINUOUS
 62
     4
 10
763.154178
 20
674.123661
 11
758.719863
 21
678.557975
  0
LINE
  8
CSLAYER1
  6
CONTINUOUS
 62
     4
 10
763.154178
 20
674.406503
 11
759.002706
 21
678.557975
  0
LINE
  8
CSLAYER1
  6
CONTINUOUS
 62
     4
 10
763.154178
 20
674.689346
 11
759.285549
 21
678.557975
  0
LINE
  8
CSLAYER1
  6
CONTINUOUS
 62
     4
 10
763.154178
 20
674.972189
 11
759.568391
 21
678.557975
  0
LINE
  8
CSLAYER1
  6
CONTINUOUS
 62
     4
 10
763.154178
 20
675.255031
 11
759.851234
 21
678.557975
  0
LINE
  8
CSLAYER1
  6
CONTINUOUS
 62
     4
 10
763.154178
 20
675.537874
 11
760.134077
 21
678.557975
  0
LINE
  8
CSLAYER1
  6
CONTINUOUS
 62
     4
 10
763.154178
 20
675.820717
 11
760.416920
 21
678.557975
  0
LINE
  8
CSLAYER1
  6
CONTINUOUS
 62
     4
 10
763.154178
 20
676.103559
 11
760.699762
 21
678.557975
  0
LINE
  8
CSLAYER1
  6
CONTINUOUS
 62
     4
 10
763.154178
 20
676.386402
 11
760.982605
 21
678.557975
  0
LINE
  8
CSLAYER1
  6
CONTINUOUS
 62
     4
 10
763.154178
 20
676.669245
 11
761.265448
 21
678.557975
  0
LINE
  8
CSLAYER1
  6
CONTINUOUS
 62
     4
 10
763.154178
 20
676.952088
 11
761.548290
 21
678.557975
  0
LINE
  8
CSLAYER1
  6
CONTINUOUS
 62
     4
 10
763.154178
 20
677.234930
 11
761.831133
 21
678.557975
  0
LINE
  8
CSLAYER1
  6
CONTINUOUS
 62
     4
 10
763.154178
 20
677.517773
 11
762.113976
 21
678.557975
  0
LINE
  8
CSLAYER1
  6
CONTINUOUS
 62
     4
 10
763.154178
 20
677.800616
 11
762.396819
 21
678.557975
  0
LINE
  8
CSLAYER1
  6
CONTINUOUS
 62
     4
 10
763.154178
 20
678.083458
 11
762.679661
 21
678.557975
  0
LINE
  8
CSLAYER1
  6
CONTINUOUS
 62
     4
 10
763.154178
 20
678.366301
 11
762.962504
 21
678.557975
  0
LINE
  8
CSLAYER1
  6
CONTINUOUS
 62
     4
 10
762.113976
 20
678.557975
 11
763.154178
 21
678.557975
  0
LINE
  8
CSLAYER1
  6
CONTINUOUS
 62
     4
 10
760.962504
 20
678.557975
 11
741.154178
 21
678.557975
  0
POINT
  8
CSLAYER1
 62
     5
 10
762.154178
 20
640.651548
  0
LINE
  8
CSLAYER1
  6
CONTINUOUS
 62
     7
 10
620.768105
 20
694.179226
 11
491.540251
 21
694.179226
  0
LINE
  8
CSLAYER1
  6
CONTINUOUS
 62
     7
 10
762.154178
 20
665.940810
 11
762.154178
 21
615.362286
  0
LINE
  8
CSLAYER1
  6
CONTINUOUS
 62
     7
 10
622.154178
 20
694.179226
 11
622.154178
 21
661.961213
  0
LINE
  8
CSLAYER1
  6
CONTINUOUS
 62
     7
 10
740.154178
 20
619.243962
 11
740.017448
 21
620.184499
  0
LINE
  8
CSLAYER1
  6
CONTINUOUS
 62
     7
 10
740.017448
 20
620.184499
 11
739.611411
 21
621.096458
  0
LINE
  8
CSLAYER1
  6
CONTINUOUS
 62
     7
 10
739.611411
 20
621.096458
 11
738.948406
 21
621.952130
  0
LINE
  8
CSLAYER1
  6
CONTINUOUS
 62
     7
 10
738.948406
 20
621.952130
 11
738.048578
 21
622.725515
  0
LINE
  8
CSLAYER1
  6
CONTINUOUS
 62
     7
 10
738.048578
 20
622.725515
 11
736.939266
 21
623.393115
  0
LINE
  8
CSLAYER1
  6
CONTINUOUS
 62
     7
 10
736.939266
 20
623.393115
 11
735.654178
 21
623.934646
  0
LINE
  8
CSLAYER1
  6
CONTINUOUS
 62
     7
 10
735.654178
 20
623.934646
 11
734.232359
 21
624.333652
  0
LINE
  8
CSLAYER1
  6
CONTINUOUS
 62
     7
 10
734.232359
 20
624.333652
 11
732.717011
 21
624.578011
  0
LINE
  8
CSLAYER1
  6
CONTINUOUS
 62
     7
 10
732.717011
 20
624.578011
 11
731.154178
 21
624.660297
  0
LINE
  8
CSLAYER1
  6
CONTINUOUS
 62
     7
 10
731.154178
 20
624.660297
 11
729.591344
 21
624.578011
  0
LINE
  8
CSLAYER1
  6
CONTINUOUS
 62
     7
 10
729.591344
 20
624.578011
 11
728.075997
 21
624.333652
  0
LINE
  8
CSLAYER1
  6
CONTINUOUS
 62
     7
 10
728.075997
 20
624.333652
 11
726.654178
 21
623.934646
  0
LINE
  8
CSLAYER1
  6
CONTINUOUS
 62
     7
 10
726.654178
 20
623.934646
 11
725.369089
 21
623.393115
  0
LINE
  8
CSLAYER1
  6
CONTINUOUS
 62
     7
 10
725.369089
 20
623.393115
 11
724.259778
 21
622.725515
  0
LINE
  8
CSLAYER1
  6
CONTINUOUS
 62
     7
 10
724.259778
 20
622.725515
 11
723.359949
 21
621.952130
  0
LINE
  8
CSLAYER1
  6
CONTINUOUS
 62
     7
 10
723.359949
 20
621.952130
 11
722.696944
 21
621.096458
  0
LINE
  8
CSLAYER1
  6
CONTINUOUS
 62
     7
 10
722.696944
 20
621.096458
 11
722.290908
 21
620.184499
  0
LINE
  8
CSLAYER1
  6
CONTINUOUS
 62
     7
 10
722.290908
 20
620.184499
 11
722.154178
 21
619.243962
  0
LINE
  8
CSLAYER1
  6
CONTINUOUS
 62
     7
 10
722.154178
 20
619.243962
 11
722.290908
 21
618.303425
  0
LINE
  8
CSLAYER1
  6
CONTINUOUS
 62
     7
 10
722.290908
 20
618.303425
 11
722.696944
 21
617.391466
  0
LINE
  8
CSLAYER1
  6
CONTINUOUS
 62
     7
 10
722.696944
 20
617.391466
 11
723.359949
 21
616.535794
  0
LINE
  8
CSLAYER1
  6
CONTINUOUS
 62
     7
 10
723.359949
 20
616.535794
 11
724.259778
 21
615.762409
  0
LINE
  8
CSLAYER1
  6
CONTINUOUS
 62
     7
 10
724.259778
 20
615.762409
 11
725.369089
 21
615.094808
  0
LINE
  8
CSLAYER1
  6
CONTINUOUS
 62
     7
 10
725.369089
 20
615.094808
 11
726.654178
 21
614.553278
  0
LINE
  8
CSLAYER1
  6
CONTINUOUS
 62
     7
 10
726.654178
 20
614.553278
 11
728.075997
 21
614.154272
  0
LINE
  8
CSLAYER1
  6
CONTINUOUS
 62
     7
 10
728.075997
 20
614.154272
 11
729.591344
 21
613.909913
  0
LINE
  8
CSLAYER1
  6
CONTINUOUS
 62
     7
 10
729.591344
 20
613.909913
 11
731.154178
 21
613.827627
  0
LINE
  8
CSLAYER1
  6
CONTINUOUS
 62
     7
 10
731.154178
 20
613.827627
 11
732.717011
 21
613.909913
  0
LINE
  8
CSLAYER1
  6
CONTINUOUS
 62
     7
 10
732.717011
 20
613.909913
 11
734.232359
 21
614.154272
  0
LINE
  8
CSLAYER1
  6
CONTINUOUS
 62
     7
 10
734.232359
 20
614.154272
 11
735.654178
 21
614.553278
  0
LINE
  8
CSLAYER1
  6
CONTINUOUS
 62
     7
 10
735.654178
 20
614.553278
 11
736.939266
 21
615.094808
  0
LINE
  8
CSLAYER1
  6
CONTINUOUS
 62
     7
 10
736.939266
 20
615.094808
 11
738.048578
 21
615.762409
  0
LINE
  8
CSLAYER1
  6
CONTINUOUS
 62
     7
 10
738.048578
 20
615.762409
 11
738.948406
 21
616.535794
  0
LINE
  8
CSLAYER1
  6
CONTINUOUS
 62
     7
 10
738.948406
 20
616.535794
 11
739.611411
 21
617.391466
  0
LINE
  8
CSLAYER1
  6
CONTINUOUS
 62
     7
 10
739.611411
 20
617.391466
 11
740.017448
 21
618.303425
  0
LINE
  8
CSLAYER1
  6
CONTINUOUS
 62
     7
 10
740.017448
 20
618.303425
 11
740.154178
 21
619.243962
  0
LINE
  8
CSLAYER1
  6
CONTINUOUS
 62
     7
 10
740.154178
 20
624.660297
 11
740.017448
 21
625.600834
  0
LINE
  8
CSLAYER1
  6
CONTINUOUS
 62
     7
 10
740.017448
 20
625.600834
 11
739.611411
 21
626.512793
  0
LINE
  8
CSLAYER1
  6
CONTINUOUS
 62
     7
 10
739.611411
 20
626.512793
 11
738.948406
 21
627.368465
  0
LINE
  8
CSLAYER1
  6
CONTINUOUS
 62
     7
 10
738.948406
 20
627.368465
 11
738.048578
 21
628.141850
  0
LINE
  8
CSLAYER1
  6
CONTINUOUS
 62
     7
 10
738.048578
 20
628.141850
 11
736.939266
 21
628.809451
  0
LINE
  8
CSLAYER1
  6
CONTINUOUS
 62
     7
 10
736.939266
 20
628.809451
 11
735.654178
 21
629.350981
  0
LINE
  8
CSLAYER1
  6
CONTINUOUS
 62
     7
 10
735.654178
 20
629.350981
 11
734.232359
 21
629.749987
  0
LINE
  8
CSLAYER1
  6
CONTINUOUS
 62
     7
 10
734.232359
 20
629.749987
 11
732.717011
 21
629.994346
  0
LINE
  8
CSLAYER1
  6
CONTINUOUS
 62
     7
 10
732.717011
 20
629.994346
 11
731.154178
 21
630.076632
  0
LINE
  8
CSLAYER1
  6
CONTINUOUS
 62
     7
 10
731.154178
 20
630.076632
 11
729.591344
 21
629.994346
  0
LINE
  8
CSLAYER1
  6
CONTINUOUS
 62
     7
 10
729.591344
 20
629.994346
 11
728.075997
 21
629.749987
  0
LINE
  8
CSLAYER1
  6
CONTINUOUS
 62
     7
 10
728.075997
 20
629.749987
 11
726.654178
 21
629.350981
  0
LINE
  8
CSLAYER1
  6
CONTINUOUS
 62
     7
 10
726.654178
 20
629.350981
 11
725.369089
 21
628.809451
  0
LINE
  8
CSLAYER1
  6
CONTINUOUS
 62
     7
 10
725.369089
 20
628.809451
 11
724.259778
 21
628.141850
  0
LINE
  8
CSLAYER1
  6
CONTINUOUS
 62
     7
 10
724.259778
 20
628.141850
 11
723.359949
 21
627.368465
  0
LINE
  8
CSLAYER1
  6
CONTINUOUS
 62
     7
 10
723.359949
 20
627.368465
 11
722.696944
 21
626.512793
  0
LINE
  8
CSLAYER1
  6
CONTINUOUS
 62
     7
 10
722.696944
 20
626.512793
 11
722.290908
 21
625.600834
  0
LINE
  8
CSLAYER1
  6
CONTINUOUS
 62
     7
 10
722.290908
 20
625.600834
 11
722.154178
 21
624.660297
  0
LINE
  8
CSLAYER1
  6
CONTINUOUS
 62
     7
 10
740.154178
 20
624.660297
 11
740.154178
 21
618.771897
  0
LINE
  8
CSLAYER1
  6
CONTINUOUS
 62
     7
 10
722.154178
 20
624.660297
 11
722.154178
 21
618.771897
  0
LINE
  8
CSLAYER1
  6
CONTINUOUS
 62
     7
 10
622.154178
 20
694.179226
 11
757.999794
 21
670.868784
  0
LINE
  8
CSLAYER1
  6
CONTINUOUS
 62
     7
 10
620.768105
 20
662.196725
 11
757.991738
 21
638.880663
  0
LINE
  8
CSLAYER1
  6
CONTINUOUS
 62
     7
 10
622.154178
 20
587.123870
 11
757.999794
 21
610.434311
  0
ARC
  8
CSLAYER1
  6
CONTINUOUS
 62
     7
 10
757.154178
 20
665.940810
 40
5.000000
 50
0.000000
 51
80.263153
  0
ARC
  8
CSLAYER1
  6
CONTINUOUS
 62
     7
 10
757.154178
 20
633.951313
 40
5.000000
 50
0.000000
 51
80.356807
  0
ARC
  8
CSLAYER1
  6
CONTINUOUS
 62
     7
 10
757.154178
 20
615.362286
 40
5.000000
 50
279.736847
 51
360.000000
  0
LINE
  8
CSLAYER1
  6
CONTINUOUS
 62
     4
 10
723.154178
 20
684.557975
 11
720.127637
 21
684.557975
  0
LINE
  8
CSLAYER1
  6
CONTINUOUS
 62
     4
 10
717.154178
 20
685.557975
 11
718.154178
 21
684.557975
  0
LINE
  8
CSLAYER1
  6
CONTINUOUS
 62
     4
 10
740.154178
 20
679.557975
 11
741.154178
 21
678.557975
  0
LINE
  8
CSLAYER1
  6
CONTINUOUS
 62
     4
 10
718.154178
 20
684.557975
 11
723.220436
 21
679.573294
  0
LINE
  8
CSLAYER1
  6
CONTINUOUS
 62
     4
 10
723.154178
 20
679.638485
 11
718.234688
 21
684.557975
  0
LINE
  8
CSLAYER1
  6
CONTINUOUS
 62
     4
 10
723.154178
 20
679.921328
 11
718.517531
 21
684.557975
  0
LINE
  8
CSLAYER1
  6
CONTINUOUS
 62
     4
 10
723.154178
 20
680.204171
 11
718.800374
 21
684.557975
  0
LINE
  8
CSLAYER1
  6
CONTINUOUS
 62
     4
 10
723.154178
 20
680.487013
 11
719.083216
 21
684.557975
  0
LINE
  8
CSLAYER1
  6
CONTINUOUS
 62
     4
 10
723.154178
 20
680.769856
 11
719.366059
 21
684.557975
  0
LINE
  8
CSLAYER1
  6
CONTINUOUS
 62
     4
 10
723.154178
 20
681.052699
 11
719.648902
 21
684.557975
  0
LINE
  8
CSLAYER1
  6
CONTINUOUS
 62
     4
 10
723.154178
 20
681.335542
 11
719.931744
 21
684.557975
  0
LINE
  8
CSLAYER1
  6
CONTINUOUS
 62
     4
 10
723.154178
 20
681.618384
 11
720.214587
 21
684.557975
  0
LINE
  8
CSLAYER1
  6
CONTINUOUS
 62
     4
 10
723.154178
 20
681.901227
 11
720.497430
 21
684.557975
  0
LINE
  8
CSLAYER1
  6
CONTINUOUS
 62
     4
 10
723.154178
 20
682.184070
 11
720.780272
 21
684.557975
  0
LINE
  8
CSLAYER1
  6
CONTINUOUS
 62
     4
 10
723.154178
 20
682.466912
 11
721.063115
 21
684.557975
  0
LINE
  8
CSLAYER1
  6
CONTINUOUS
 62
     4
 10
723.154178
 20
682.749755
 11
721.345958
 21
684.557975
  0
LINE
  8
CSLAYER1
  6
CONTINUOUS
 62
     4
 10
723.154178
 20
683.032598
 11
721.628801
 21
684.557975
  0
LINE
  8
CSLAYER1
  6
CONTINUOUS
 62
     4
 10
723.154178
 20
683.315441
 11
721.911643
 21
684.557975
  0
LINE
  8
CSLAYER1
  6
CONTINUOUS
 62
     4
 10
723.154178
 20
683.598283
 11
722.194486
 21
684.557975
  0
LINE
  8
CSLAYER1
  6
CONTINUOUS
 62
     4
 10
723.154178
 20
683.881126
 11
722.477329
 21
684.557975
  0
LINE
  8
CSLAYER1
  6
CONTINUOUS
 62
     4
 10
723.154178
 20
684.163969
 11
722.760171
 21
684.557975
  0
LINE
  8
CSLAYER1
  6
CONTINUOUS
 62
     4
 10
723.154178
 20
684.446811
 11
723.043014
 21
684.557975
  0
LINE
  8
CSLAYER1
  6
CONTINUOUS
 62
     4
 10
740.154178
 20
683.557975
 11
739.154178
 21
683.557975
  0
LINE
  8
CSLAYER1
  6
CONTINUOUS
 62
     4
 10
206.154178
 20
350.666950
 11
206.154178
 21
286.385166
  0
LINE
  8
CSLAYER1
  6
CONTINUOUS
 62
     4
 10
156.154178
 20
1204.930784
 11
156.154178
 21
1154.930784
  0
POINT
  8
CSLAYER1
 62
     4
 10
381.154178
 20
1001.023767
  0
LINE
  8
CSLAYER1
  6
CONTINUOUS
 62
     5
 10
367.028802
 20
1001.023769
 11
395.267892
 21
1001.023769
  0
LINE
  8
CSLAYER1
  6
CONTINUOUS
 62
     4
 10
372.654178
 20
1026.023769
 11
372.654178
 21
1066.606459
  0
LINE
  8
CSLAYER1
  6
CONTINUOUS
 62
     4
 10
371.154178
 20
1018.023769
 11
371.154178
 21
1066.606459
  0
LINE
  8
CSLAYER1
  6
CONTINUOUS
 62
     4
 10
371.154178
 20
1026.023769
 11
391.154178
 21
1026.023769
  0
LINE
  8
CSLAYER1
  6
CONTINUOUS
 62
     4
 10
372.654178
 20
1026.023769
 11
371.154178
 21
1023.425693
  0
LINE
  8
CSLAYER1
  6
CONTINUOUS
 62
     4
 10
389.654178
 20
1026.023769
 11
389.654178
 21
1066.606459
  0
LINE
  8
CSLAYER1
  6
CONTINUOUS
 62
     4
 10
389.654178
 20
1026.023769
 11
391.154178
 21
1023.425693
  0
LINE
  8
CSLAYER1
  6
CONTINUOUS
 62
     4
 10
391.154178
 20
1018.023769
 11
391.154178
 21
1066.606459
  0
LINE
  8
CSLAYER1
  6
CONTINUOUS
 62
     4
 10
393.679178
 20
1016.023767
 11
368.629178
 21
1016.023767
  0
POINT
  8
CSLAYER1
 62
     4
 10
381.154178
 20
969.273767
  0
LINE
  8
CSLAYER1
  6
CONTINUOUS
 62
     4
 10
367.629178
 20
1015.023767
 11
367.629178
 21
922.473767
  0
LINE
  8
CSLAYER1
  6
CONTINUOUS
 62
     4
 10
371.629178
 20
984.323767
 11
371.629178
 21
922.473767
  0
LINE
  8
CSLAYER1
  6
CONTINUOUS
 62
     4
 10
371.629178
 20
984.323767
 11
367.629178
 21
984.323767
  0
LINE
  8
CSLAYER1
  6
CONTINUOUS
 62
     4
 10
372.629178
 20
959.748767
 11
389.679178
 21
959.748767
  0
LINE
  8
CSLAYER1
  6
CONTINUOUS
 62
     4
 10
372.629178
 20
978.798767
 11
389.679178
 21
978.798767
  0
ARC
  8
CSLAYER1
  6
CONTINUOUS
 62
     4
 10
372.629178
 20
960.748767
 40
1.000000
 50
180.000000
 51
270.000000
  0
ARC
  8
CSLAYER1
  6
CONTINUOUS
 62
     4
 10
372.629178
 20
977.798767
 40
1.000000
 50
90.000000
 51
180.000000
  0
LINE
  8
CSLAYER1
  6
CONTINUOUS
 62
     4
 10
394.679178
 20
1015.023767
 11
394.679178
 21
921.773767
  0
LINE
  8
CSLAYER1
  6
CONTINUOUS
 62
     4
 10
390.679178
 20
984.323767
 11
390.679178
 21
922.473767
  0
LINE
  8
CSLAYER1
  6
CONTINUOUS
 62
     4
 10
390.679178
 20
984.323767
 11
394.679178
 21
984.323767
  0
ARC
  8
CSLAYER1
  6
CONTINUOUS
 62
     4
 10
389.679178
 20
960.748767
 40
1.000000
 50
270.000000
 51
360.000000
  0
ARC
  8
CSLAYER1
  6
CONTINUOUS
 62
     4
 10
389.679178
 20
977.798767
 40
1.000000
 50
0.000000
 51
90.000000
  0
LINE
  8
CSLAYER1
  6
CONTINUOUS
 62
     4
 10
361.404178
 20
965.503767
 11
361.404178
 21
973.053493
  0
LINE
  8
CSLAYER1
  6
CONTINUOUS
 62
     4
 10
367.629178
 20
956.273767
 11
363.254178
 21
956.273767
  0
LINE
  8
CSLAYER1
  6
CONTINUOUS
 62
     4
 10
367.629178
 20
1014.023767
 11
363.254178
 21
1014.023767
  0
LINE
  8
CSLAYER1
  6
CONTINUOUS
 62
     4
 10
363.254178
 20
964.503767
 11
362.404178
 21
964.503767
  0
LINE
  8
CSLAYER1
  6
CONTINUOUS
 62
     4
 10
363.254178
 20
974.053493
 11
362.404178
 21
974.053493
  0
ARC
  8
CSLAYER1
  6
CONTINUOUS
 62
     4
 10
362.404178
 20
965.503767
 40
1.000000
 50
180.000000
 51
270.000000
  0
ARC
  8
CSLAYER1
  6
CONTINUOUS
 62
     4
 10
362.404178
 20
973.053493
 40
1.000000
 50
90.000000
 51
180.000000
  0
LINE
  8
CSLAYER1
  6
CONTINUOUS
 62
     4
 10
361.404178
 20
997.253767
 11
361.404178
 21
1004.803493
  0
LINE
  8
CSLAYER1
  6
CONTINUOUS
 62
     4
 10
363.254178
 20
996.253767
 11
362.404178
 21
996.253767
  0
LINE
  8
CSLAYER1
  6
CONTINUOUS
 62
     4
 10
363.254178
 20
1005.803493
 11
362.404178
 21
1005.803493
  0
ARC
  8
CSLAYER1
  6
CONTINUOUS
 62
     4
 10
362.404178
 20
997.253767
 40
1.000000
 50
180.000000
 51
270.000000
  0
ARC
  8
CSLAYER1
  6
CONTINUOUS
 62
     4
 10
362.404178
 20
1004.803493
 40
1.000000
 50
90.000000
 51
180.000000
  0
LINE
  8
CSLAYER1
  6
CONTINUOUS
 62
     4
 10
400.904178
 20
965.503767
 11
400.904178
 21
973.053493
  0
LINE
  8
CSLAYER1
  6
CONTINUOUS
 62
     4
 10
394.679178
 20
956.273767
 11
399.054178
 21
956.273767
  0
LINE
  8
CSLAYER1
  6
CONTINUOUS
 62
     4
 10
394.679178
 20
1014.023767
 11
399.054178
 21
1014.023767
  0
LINE
  8
CSLAYER1
  6
CONTINUOUS
 62
     4
 10
399.054178
 20
964.503767
 11
399.904178
 21
964.503767
  0
LINE
  8
CSLAYER1
  6
CONTINUOUS
 62
     4
 10
399.054178
 20
974.053493
 11
399.904178
 21
974.053493
  0
ARC
  8
CSLAYER1
  6
CONTINUOUS
 62
     4
 10
399.904178
 20
965.503767
 40
1.000000
 50
270.000000
 51
360.000000
  0
ARC
  8
CSLAYER1
  6
CONTINUOUS
 62
     4
 10
399.904178
 20
973.053493
 40
1.000000
 50
0.000000
 51
90.000000
  0
LINE
  8
CSLAYER1
  6
CONTINUOUS
 62
     4
 10
404.004178
 20
997.253767
 11
404.004178
 21
1004.803493
  0
LINE
  8
CSLAYER1
  6
CONTINUOUS
 62
     4
 10
399.054178
 20
996.253767
 11
403.004178
 21
996.253767
  0
LINE
  8
CSLAYER1
  6
CONTINUOUS
 62
     4
 10
399.054178
 20
1005.803493
 11
403.004178
 21
1005.803493
  0
ARC
  8
CSLAYER1
  6
CONTINUOUS
 62
     4
 10
403.004178
 20
997.253767
 40
1.000000
 50
270.000000
 51
360.000000
  0
ARC
  8
CSLAYER1
  6
CONTINUOUS
 62
     4
 10
403.004178
 20
1004.803493
 40
1.000000
 50
0.000000
 51
90.000000
  0
LINE
  8
CSLAYER1
  6
CONTINUOUS
 62
     4
 10
394.679178
 20
1005.803493
 11
367.629178
 21
1005.803493
  0
LINE
  8
CSLAYER1
  6
CONTINUOUS
 62
     4
 10
394.679178
 20
996.253767
 11
367.629178
 21
996.253767
  0
LINE
  8
CSLAYER1
  6
CONTINUOUS
 62
     4
 10
392.679178
 20
986.023767
 11
369.629178
 21
986.023767
  0
ARC
  8
CSLAYER1
  6
CONTINUOUS
 62
     4
 10
369.629178
 20
988.023767
 40
2.000000
 50
180.000000
 51
270.000000
  0
ARC
  8
CSLAYER1
  6
CONTINUOUS
 62
     4
 10
392.679178
 20
988.023767
 40
2.000000
 50
270.000000
 51
360.000000
  0
ARC
  8
CSLAYER1
  6
CONTINUOUS
 62
     4
 10
393.154178
 20
1018.023767
 40
2.000000
 50
180.000000
 51
270.000000
  0
ARC
  8
CSLAYER1
  6
CONTINUOUS
 62
     4
 10
369.154178
 20
1018.023767
 40
2.000000
 50
270.000000
 51
360.000000
  0
ARC
  8
CSLAYER1
  6
CONTINUOUS
 62
     4
 10
393.679178
 20
1015.023767
 40
1.000000
 50
0.000000
 51
90.000000
  0
ARC
  8
CSLAYER1
  6
CONTINUOUS
 62
     4
 10
368.629178
 20
1015.023767
 40
1.000000
 50
90.000000
 51
180.000000
  0
POINT
  8
CSLAYER1
 62
     4
 10
381.154178
 20
1016.023767
  0
LINE
  8
CSLAYER1
  6
CONTINUOUS
 62
     4
 10
363.254178
 20
956.273767
 11
363.254178
 21
1014.023767
  0
LINE
  8
CSLAYER1
  6
CONTINUOUS
 62
     4
 10
399.054178
 20
956.273767
 11
399.054178
 21
1014.023767
  0
LINE
  8
CSLAYER1
  6
CONTINUOUS
 62
     5
 10
310.250678
 20
640.651548
 11
388.093325
 21
640.651548
  0
LINE
  8
CSLAYER1
  6
CONTINUOUS
 62
     4
 10
373.154178
 20
763.552203
 11
373.154178
 21
674.102600
  0
POINT
  8
CSLAYER1
 62
     4
 10
381.154178
 20
937.523767
  0
LINE
  8
CSLAYER1
  6
CONTINUOUS
 62
     4
 10
371.629178
 20
922.473767
 11
367.629178
 21
922.473767
  0
LINE
  8
CSLAYER1
  6
CONTINUOUS
 62
     4
 10
372.629178
 20
947.048767
 11
389.679178
 21
947.048767
  0
LINE
  8
CSLAYER1
  6
CONTINUOUS
 62
     4
 10
372.629178
 20
927.998767
 11
389.679178
 21
927.998767
  0
ARC
  8
CSLAYER1
  6
CONTINUOUS
 62
     4
 10
372.629178
 20
946.048767
 40
1.000000
 50
90.000000
 51
180.000000
  0
ARC
  8
CSLAYER1
  6
CONTINUOUS
 62
     4
 10
372.629178
 20
928.998767
 40
1.000000
 50
180.000000
 51
270.000000
  0
LINE
  8
CSLAYER1
  6
CONTINUOUS
 62
     4
 10
390.679178
 20
922.473767
 11
394.679178
 21
922.473767
  0
ARC
  8
CSLAYER1
  6
CONTINUOUS
 62
     4
 10
389.679178
 20
946.048767
 40
1.000000
 50
0.000000
 51
90.000000
  0
ARC
  8
CSLAYER1
  6
CONTINUOUS
 62
     4
 10
389.679178
 20
928.998767
 40
1.000000
 50
270.000000
 51
360.000000
  0
LINE
  8
CSLAYER1
  6
CONTINUOUS
 62
     4
 10
361.404178
 20
941.293767
 11
361.404178
 21
933.744041
  0
LINE
  8
CSLAYER1
  6
CONTINUOUS
 62
     4
 10
367.629178
 20
950.523767
 11
363.254178
 21
950.523767
  0
LINE
  8
CSLAYER1
  6
CONTINUOUS
 62
     4
 10
363.254178
 20
942.293767
 11
362.404178
 21
942.293767
  0
LINE
  8
CSLAYER1
  6
CONTINUOUS
 62
     4
 10
363.254178
 20
932.744041
 11
362.404178
 21
932.744041
  0
ARC
  8
CSLAYER1
  6
CONTINUOUS
 62
     4
 10
362.404178
 20
941.293767
 40
1.000000
 50
90.000000
 51
180.000000
  0
ARC
  8
CSLAYER1
  6
CONTINUOUS
 62
     4
 10
362.404178
 20
933.744041
 40
1.000000
 50
180.000000
 51
270.000000
  0
LINE
  8
CSLAYER1
  6
CONTINUOUS
 62
     4
 10
400.904178
 20
941.293767
 11
400.904178
 21
933.744041
  0
LINE
  8
CSLAYER1
  6
CONTINUOUS
 62
     4
 10
394.679178
 20
950.523767
 11
399.054178
 21
950.523767
  0
LINE
  8
CSLAYER1
  6
CONTINUOUS
 62
     4
 10
399.054178
 20
942.293767
 11
399.904178
 21
942.293767
  0
LINE
  8
CSLAYER1
  6
CONTINUOUS
 62
     4
 10
399.054178
 20
932.744041
 11
399.904178
 21
932.744041
  0
ARC
  8
CSLAYER1
  6
CONTINUOUS
 62
     4
 10
399.904178
 20
941.293767
 40
1.000000
 50
0.000000
 51
90.000000
  0
ARC
  8
CSLAYER1
  6
CONTINUOUS
 62
     4
 10
399.904178
 20
933.744041
 40
1.000000
 50
270.000000
 51
360.000000
  0
LINE
  8
CSLAYER1
  6
CONTINUOUS
 62
     4
 10
399.054178
 20
950.523767
 11
399.054178
 21
892.773767
  0
LINE
  8
CSLAYER1
  6
CONTINUOUS
 62
     4
 10
363.254178
 20
950.523767
 11
363.254178
 21
892.773767
  0
LINE
  8
CSLAYER1
  6
CONTINUOUS
 62
     4
 10
906.154178
 20
351.385166
 11
206.154178
 21
351.385166
  0
LINE
  8
CSLAYER1
  6
CONTINUOUS
 62
     4
 10
349.154178
 20
351.385166
 11
349.154178
 21
1154.930784
  0
LINE
  8
CSLAYER1
  6
CONTINUOUS
 62
     4
 10
333.154178
 20
351.385166
 11
333.154178
 21
1154.930784
  0
LINE
  8
CSLAYER1
  6
CONTINUOUS
 62
     4
 10
511.604178
 20
934.090999
 11
511.604178
 21
694.179226
  0
LINE
  8
CSLAYER1
  6
CONTINUOUS
 62
     4
 10
525.904178
 20
1058.356459
 11
525.904178
 21
952.336840
  0
LINE
  8
CSLAYER1
  6
CONTINUOUS
 62
     4
 10
511.604178
 20
934.090999
 11
511.773704
 21
936.205717
  0
LINE
  8
CSLAYER1
  6
CONTINUOUS
 62
     4
 10
511.773704
 20
936.205717
 11
512.280992
 21
938.304341
  0
LINE
  8
CSLAYER1
  6
CONTINUOUS
 62
     4
 10
512.280992
 20
938.304341
 11
513.122182
 21
940.370898
  0
LINE
  8
CSLAYER1
  6
CONTINUOUS
 62
     4
 10
513.122182
 20
940.370898
 11
514.290872
 21
942.389662
  0
LINE
  8
CSLAYER1
  6
CONTINUOUS
 62
     4
 10
514.290872
 20
942.389662
 11
515.778166
 21
944.345268
  0
LINE
  8
CSLAYER1
  6
CONTINUOUS
 62
     4
 10
515.778166
 20
944.345268
 11
517.572746
 21
946.222833
  0
LINE
  8
CSLAYER1
  6
CONTINUOUS
 62
     4
 10
517.572746
 20
946.222833
 11
519.660954
 21
948.008068
  0
LINE
  8
CSLAYER1
  6
CONTINUOUS
 62
     4
 10
519.660954
 20
948.008068
 11
522.026898
 21
949.687385
  0
LINE
  8
CSLAYER1
  6
CONTINUOUS
 62
     4
 10
522.026898
 20
949.687385
 11
524.652571
 21
951.248004
  0
LINE
  8
CSLAYER1
  6
CONTINUOUS
 62
     4
 10
524.652571
 20
951.248004
 11
527.517990
 21
952.678048
  0
LINE
  8
CSLAYER1
  6
CONTINUOUS
 62
     4
 10
527.517990
 20
952.678048
 11
530.601348
 21
953.966633
  0
LINE
  8
CSLAYER1
  6
CONTINUOUS
 62
     4
 10
530.601348
 20
953.966633
 11
533.879178
 21
955.103953
  0
LINE
  8
CSLAYER1
  6
CONTINUOUS
 62
     4
 10
533.879178
 20
955.103953
 11
537.326534
 21
956.081351
  0
LINE
  8
CSLAYER1
  6
CONTINUOUS
 62
     4
 10
537.326534
 20
956.081351
 11
540.917180
 21
956.891390
  0
LINE
  8
CSLAYER1
  6
CONTINUOUS
 62
     4
 10
540.917180
 20
956.891390
 11
544.623789
 21
957.527903
  0
LINE
  8
CSLAYER1
  6
CONTINUOUS
 62
     4
 10
544.623789
 20
957.527903
 11
548.418152
 21
957.986048
  0
LINE
  8
CSLAYER1
  6
CONTINUOUS
 62
     4
 10
548.418152
 20
957.986048
 11
552.271389
 21
958.262337
  0
LINE
  8
CSLAYER1
  6
CONTINUOUS
 62
     4
 10
552.271389
 20
958.262337
 11
556.154178
 21
958.354668
  0
LINE
  8
CSLAYER1
  6
CONTINUOUS
 62
     4
 10
290.154178
 20
578.870991
 11
333.154178
 21
578.870991
  0
LINE
  8
CSLAYER1
  6
CONTINUOUS
 62
     4
 10
290.154178
 20
499.457734
 11
333.154178
 21
499.457734
  0
LINE
  8
CSLAYER1
  6
CONTINUOUS
 62
     4
 10
333.154178
 20
594.064605
 11
290.154178
 21
594.064605
  0
LINE
  8
CSLAYER1
  6
CONTINUOUS
 62
     4
 10
349.154178
 20
578.870991
 11
501.030725
 21
578.870991
  0
LINE
  8
CSLAYER1
  6
CONTINUOUS
 62
     4
 10
349.154178
 20
499.457734
 11
496.154178
 21
499.457734
  0
LINE
  8
CSLAYER1
  6
CONTINUOUS
 62
     4
 10
449.705845
 20
594.064605
 11
349.154178
 21
594.064605
  0
LINE
  8
CSLAYER1
  6
CONTINUOUS
 62
     4
 10
274.154178
 20
1064.730784
 11
274.154178
 21
698.557975
  0
LINE
  8
CSLAYER1
  6
CONTINUOUS
 62
     4
 10
290.154178
 20
1064.730784
 11
290.154178
 21
351.385166
  0
ARC
  8
CSLAYER1
  6
CONTINUOUS
 62
     4
 10
159.154178
 20
1204.930784
 40
3.000000
 50
90.000000
 51
180.000000
  0
LINE
  8
CSLAYER1
  6
CENTER
 62
     5
 10
381.154178
 20
1173.152893
 11
381.154178
 21
675.475361
  0
LINE
  8
CSLAYER1
  6
CONTINUOUS
 62
     4
 10
331.154178
 20
656.651548
 11
331.154178
 21
624.651548
  0
LINE
  8
CSLAYER1
  6
CONTINUOUS
 62
     4
 10
321.154178
 20
654.651548
 11
321.154178
 21
626.651548
  0
LINE
  8
CSLAYER1
  6
CONTINUOUS
 62
     4
 10
323.154178
 20
656.651548
 11
331.154178
 21
656.651548
  0
LINE
  8
CSLAYER1
  6
CONTINUOUS
 62
     4
 10
321.154178
 20
654.651548
 11
323.154178
 21
656.651548
  0
LINE
  8
CSLAYER1
  6
CONTINUOUS
 62
     4
 10
323.154178
 20
656.651548
 11
323.154178
 21
624.651548
  0
LINE
  8
CSLAYER1
  6
CONTINUOUS
 62
     4
 10
323.154178
 20
624.651548
 11
331.154178
 21
624.651548
  0
LINE
  8
CSLAYER1
  6
CONTINUOUS
 62
     4
 10
321.154178
 20
626.651548
 11
323.154178
 21
624.651548
  0
LINE
  8
CSLAYER1
  6
CONTINUOUS
 62
     4
 10
331.154178
 20
654.651548
 11
333.154178
 21
654.651548
  0
LINE
  8
CSLAYER1
  6
CONTINUOUS
 62
     4
 10
331.154178
 20
626.651548
 11
333.154178
 21
626.651548
  0
LINE
  8
CSLAYER1
  6
CONTINUOUS
 62
     4
 10
324.154178
 20
1129.730784
 11
299.154178
 21
1129.730784
  0
LINE
  8
CSLAYER1
  6
CONTINUOUS
 62
     4
 10
299.154178
 20
1104.730784
 11
326.654178
 21
1104.730784
  0
LINE
  8
CSLAYER1
  6
CONTINUOUS
 62
     4
 10
299.154178
 20
1154.930784
 11
299.154178
 21
1104.730784
  0
LINE
  8
CSLAYER1
  6
CONTINUOUS
 62
     4
 10
324.154178
 20
1104.730784
 11
324.154178
 21
1154.930784
  0
LINE
  8
CSLAYER1
  6
CONTINUOUS
 62
     4
 10
308.654178
 20
1154.930784
 11
308.654178
 21
1129.730784
  0
LINE
  8
CSLAYER1
  6
CONTINUOUS
 62
     4
 10
314.654178
 20
1154.930784
 11
314.654178
 21
1129.730784
  0
LINE
  8
CSLAYER1
  6
CONTINUOUS
 62
     5
 10
354.837952
 20
1083.730784
 11
259.423541
 21
1083.730784
  0
LINE
  8
CSLAYER1
  6
CONTINUOUS
 62
     4
 10
327.654178
 20
1103.730784
 11
327.654178
 21
1063.730784
  0
LINE
  8
CSLAYER1
  6
CONTINUOUS
 62
     4
 10
301.154178
 20
1095.282426
 11
301.154178
 21
1072.179142
  0
LINE
  8
CSLAYER1
  6
CONTINUOUS
 62
     4
 10
300.004178
 20
1095.282426
 11
300.004178
 21
1072.179142
  0
LINE
  8
CSLAYER1
  6
CONTINUOUS
 62
     4
 10
299.154178
 20
1091.230784
 11
300.004178
 21
1091.230784
  0
LINE
  8
CSLAYER1
  6
CONTINUOUS
 62
     4
 10
300.004178
 20
1095.282426
 11
301.154178
 21
1095.282426
  0
LINE
  8
CSLAYER1
  6
CONTINUOUS
 62
     4
 10
301.154178
 20
1091.230784
 11
301.654178
 21
1091.230784
  0
LINE
  8
CSLAYER1
  6
CONTINUOUS
 62
     4
 10
301.654178
 20
1103.730784
 11
301.654178
 21
1063.730784
  0
ARC
  8
CSLAYER1
  6
CONTINUOUS
 62
     4
 10
326.654178
 20
1103.730784
 40
1.000000
 50
0.000000
 51
90.000000
  0
ARC
  8
CSLAYER1
  6
CONTINUOUS
 62
     4
 10
302.654178
 20
1103.730784
 40
1.000000
 50
90.000000
 51
180.000000
  0
ARC
  8
CSLAYER1
  6
CONTINUOUS
 62
     4
 10
313.654178
 20
1103.730784
 40
1.000000
 50
0.000000
 51
90.000000
  0
ARC
  8
CSLAYER1
  6
CONTINUOUS
 62
     4
 10
315.654178
 20
1103.730784
 40
1.000000
 50
90.000000
 51
180.000000
  0
LINE
  8
CSLAYER1
  6
CONTINUOUS
 62
     4
 10
298.654178
 20
1154.930784
 11
298.654178
 21
1064.730784
  0
LINE
  8
CSLAYER1
  6
CONTINUOUS
 62
     4
 10
302.654178
 20
1062.730784
 11
313.654178
 21
1062.730784
  0
LINE
  8
CSLAYER1
  6
CONTINUOUS
 62
     4
 10
299.154178
 20
1076.230784
 11
300.004178
 21
1076.230784
  0
LINE
  8
CSLAYER1
  6
CONTINUOUS
 62
     4
 10
300.004178
 20
1072.179142
 11
301.154178
 21
1072.179142
  0
LINE
  8
CSLAYER1
  6
CONTINUOUS
 62
     4
 10
301.154178
 20
1076.230784
 11
301.654178
 21
1076.230784
  0
ARC
  8
CSLAYER1
  6
CONTINUOUS
 62
     4
 10
326.654178
 20
1063.730784
 40
1.000000
 50
270.000000
 51
360.000000
  0
ARC
  8
CSLAYER1
  6
CONTINUOUS
 62
     4
 10
302.654178
 20
1063.730784
 40
1.000000
 50
180.000000
 51
270.000000
  0
ARC
  8
CSLAYER1
  6
CONTINUOUS
 62
     4
 10
313.654178
 20
1063.730784
 40
1.000000
 50
270.000000
 51
360.000000
  0
ARC
  8
CSLAYER1
  6
CONTINUOUS
 62
     4
 10
315.654178
 20
1063.730784
 40
1.000000
 50
180.000000
 51
270.000000
  0
LINE
  8
CSLAYER1
  6
CONTINUOUS
 62
     4
 10
326.654178
 20
1062.730784
 11
315.654178
 21
1062.730784
  0
LINE
  8
CSLAYER1
  6
CONTINUOUS
 62
     4
 10
327.654178
 20
1083.730784
 11
328.654178
 21
1083.730784
  0
LINE
  8
CSLAYER1
  6
CONTINUOUS
 62
     4
 10
328.154178
 20
1093.730784
 11
327.654178
 21
1093.230784
  0
LINE
  8
CSLAYER1
  6
CONTINUOUS
 62
     4
 10
328.154178
 20
1073.730784
 11
327.654178
 21
1074.230784
  0
LINE
  8
CSLAYER1
  6
CONTINUOUS
 62
     4
 10
525.904178
 20
1058.356459
 11
401.654178
 21
1058.356459
  0
LINE
  8
CSLAYER1
  6
CONTINUOUS
 62
     4
 10
355.154178
 20
1066.606459
 11
399.654178
 21
1066.606459
  0
LINE
  8
CSLAYER1
  6
CONTINUOUS
 62
     4
 10
355.154178
 20
1110.606459
 11
399.654178
 21
1110.606459
  0
LINE
  8
CSLAYER1
  6
CONTINUOUS
 62
     4
 10
399.654178
 20
1116.856459
 11
399.654178
 21
1060.356459
  0
LINE
  8
CSLAYER1
  6
CONTINUOUS
 62
     4
 10
399.654178
 20
1116.856459
 11
401.654178
 21
1118.856459
  0
LINE
  8
CSLAYER1
  6
CONTINUOUS
 62
     4
 10
399.654178
 20
1060.356459
 11
401.654178
 21
1058.356459
  0
LINE
  8
CSLAYER1
  6
CONTINUOUS
 62
     4
 10
355.154178
 20
1110.606459
 11
350.154178
 21
1105.606459
  0
LINE
  8
CSLAYER1
  6
CONTINUOUS
 62
     4
 10
355.154178
 20
1110.606459
 11
355.154178
 21
1066.606459
  0
LINE
  8
CSLAYER1
  6
CONTINUOUS
 62
     4
 10
355.154178
 20
1066.606459
 11
350.154178
 21
1071.606459
  0
LINE
  8
CSLAYER1
  6
CONTINUOUS
 62
     4
 10
366.154178
 20
1128.806459
 11
396.154178
 21
1128.806459
  0
LINE
  8
CSLAYER1
  6
CONTINUOUS
 62
     4
 10
363.833670
 20
1113.806459
 11
363.833670
 21
1127.466713
  0
LINE
  8
CSLAYER1
  6
CONTINUOUS
 62
     4
 10
372.493924
 20
1113.806459
 11
372.493924
 21
1127.466713
  0
LINE
  8
CSLAYER1
  6
CONTINUOUS
 62
     4
 10
366.154178
 20
1128.806459
 11
363.833670
 21
1127.466713
  0
ARC
  8
CSLAYER1
  6
CONTINUOUS
 62
     4
 10
368.163797
 20
1121.151841
 40
7.656867
 50
55.561448
 51
124.438552
  0
ARC
  8
CSLAYER1
  6
CONTINUOUS
 62
     4
 10
381.154178
 20
1100.146205
 40
28.660254
 50
72.412046
 51
107.587954
  0
LINE
  8
CSLAYER1
  6
CONTINUOUS
 62
     4
 10
399.654178
 20
1113.806459
 11
362.654178
 21
1113.806459
  0
LINE
  8
CSLAYER1
  6
CONTINUOUS
 62
     4
 10
368.154178
 20
1131.306459
 11
394.154178
 21
1131.306459
  0
LINE
  8
CSLAYER1
  6
CONTINUOUS
 62
     4
 10
366.154178
 20
1128.806459
 11
366.154178
 21
1129.306459
  0
ARC
  8
CSLAYER1
  6
CONTINUOUS
 62
     4
 10
368.154178
 20
1129.306459
 40
2.000000
 50
90.000000
 51
180.000000
  0
LINE
  8
CSLAYER1
  6
CONTINUOUS
 62
     4
 10
398.474686
 20
1113.806459
 11
398.474686
 21
1127.466713
  0
LINE
  8
CSLAYER1
  6
CONTINUOUS
 62
     4
 10
389.814432
 20
1113.806459
 11
389.814432
 21
1127.466713
  0
LINE
  8
CSLAYER1
  6
CONTINUOUS
 62
     4
 10
396.154178
 20
1128.806459
 11
398.474686
 21
1127.466713
  0
ARC
  8
CSLAYER1
  6
CONTINUOUS
 62
     4
 10
394.144559
 20
1121.151841
 40
7.656867
 50
55.561448
 51
124.438552
  0
LINE
  8
CSLAYER1
  6
CONTINUOUS
 62
     4
 10
396.154178
 20
1128.806459
 11
396.154178
 21
1129.306459
  0
ARC
  8
CSLAYER1
  6
CONTINUOUS
 62
     4
 10
394.154178
 20
1129.306459
 40
2.000000
 50
0.000000
 51
90.000000
  0
LINE
  8
CSLAYER1
  6
CONTINUOUS
 62
     4
 10
371.154178
 20
1131.306459
 11
371.154178
 21
1133.245924
  0
LINE
  8
CSLAYER1
  6
CONTINUOUS
 62
     4
 10
372.654178
 20
1131.306459
 11
372.654178
 21
1133.245924
  0
LINE
  8
CSLAYER1
  6
CONTINUOUS
 62
     4
 10
362.654178
 20
1110.606459
 11
362.654178
 21
1113.806459
  0
LINE
  8
CSLAYER1
  6
CONTINUOUS
 62
     4
 10
391.154178
 20
1131.306459
 11
391.154178
 21
1133.245924
  0
LINE
  8
CSLAYER1
  6
CONTINUOUS
 62
     4
 10
389.654178
 20
1131.306459
 11
389.654178
 21
1133.245924
  0
LINE
  8
CSLAYER1
  6
CONTINUOUS
 62
     4
 10
401.654178
 20
1118.856459
 11
401.654178
 21
1058.356459
  0
LINE
  8
CSLAYER1
  6
CONTINUOUS
 62
     4
 10
553.517717
 20
1074.769096
 11
550.901320
 21
1074.581493
  0
LINE
  8
CSLAYER1
  6
CONTINUOUS
 62
     4
 10
550.901320
 20
1074.581493
 11
548.324902
 21
1074.270407
  0
LINE
  8
CSLAYER1
  6
CONTINUOUS
 62
     4
 10
548.324902
 20
1074.270407
 11
545.808068
 21
1073.838206
  0
LINE
  8
CSLAYER1
  6
CONTINUOUS
 62
     4
 10
545.808068
 20
1073.838206
 11
543.369975
 21
1073.288180
  0
LINE
  8
CSLAYER1
  6
CONTINUOUS
 62
     4
 10
543.369975
 20
1073.288180
 11
541.029178
 21
1072.624514
  0
LINE
  8
CSLAYER1
  6
CONTINUOUS
 62
     4
 10
541.029178
 20
1072.624514
 11
538.803491
 21
1071.852260
  0
LINE
  8
CSLAYER1
  6
CONTINUOUS
 62
     4
 10
538.803491
 20
1071.852260
 11
536.709853
 21
1070.977295
  0
LINE
  8
CSLAYER1
  6
CONTINUOUS
 62
     4
 10
536.709853
 20
1070.977295
 11
534.764198
 21
1070.006277
  0
LINE
  8
CSLAYER1
  6
CONTINUOUS
 62
     4
 10
534.764198
 20
1070.006277
 11
532.981333
 21
1068.946598
  0
LINE
  8
CSLAYER1
  6
CONTINUOUS
 62
     4
 10
532.981333
 20
1068.946598
 11
531.374828
 21
1067.806321
  0
LINE
  8
CSLAYER1
  6
CONTINUOUS
 62
     4
 10
531.374828
 20
1067.806321
 11
529.956909
 21
1066.594124
  0
LINE
  8
CSLAYER1
  6
CONTINUOUS
 62
     4
 10
529.956909
 20
1066.594124
 11
528.738367
 21
1065.319235
  0
LINE
  8
CSLAYER1
  6
CONTINUOUS
 62
     4
 10
528.738367
 20
1065.319235
 11
527.728476
 21
1063.991354
  0
LINE
  8
CSLAYER1
  6
CONTINUOUS
 62
     4
 10
527.728476
 20
1063.991354
 11
526.934922
 21
1062.620588
  0
LINE
  8
CSLAYER1
  6
CONTINUOUS
 62
     4
 10
526.934922
 20
1062.620588
 11
526.363743
 21
1061.217370
  0
LINE
  8
CSLAYER1
  6
CONTINUOUS
 62
     4
 10
526.363743
 20
1061.217370
 11
526.019288
 21
1059.792379
  0
LINE
  8
CSLAYER1
  6
CONTINUOUS
 62
     4
 10
526.019288
 20
1059.792379
 11
525.904178
 21
1058.356459
  0
LINE
  8
CSLAYER1
  6
CONTINUOUS
 62
     4
 10
328.154178
 20
1093.730784
 11
329.154178
 21
1093.730784
  0
LINE
  8
CSLAYER1
  6
CONTINUOUS
 62
     4
 10
328.154178
 20
1073.730784
 11
331.804178
 21
1073.730784
  0
LINE
  8
CSLAYER1
  6
CONTINUOUS
 62
     4
 10
350.154178
 20
1118.506459
 11
350.154178
 21
1058.706459
  0
ARC
  8
CSLAYER1
  6
CONTINUOUS
 62
     4
 10
349.054178
 20
1118.506459
 40
1.100000
 50
0.000000
 51
84.784091
  0
ARC
  8
CSLAYER1
  6
CONTINUOUS
 62
     4
 10
349.054178
 20
1058.706459
 40
1.100000
 50
275.215909
 51
360.000000
  0
LINE
  8
CSLAYER1
  6
CONTINUOUS
 62
     4
 10
330.654178
 20
1101.106459
 11
331.804178
 21
1101.106459
  0
LINE
  8
CSLAYER1
  6
CONTINUOUS
 62
     4
 10
331.804178
 20
1103.656459
 11
333.154178
 21
1103.656459
  0
LINE
  8
CSLAYER1
  6
CONTINUOUS
 62
     4
 10
331.804178
 20
1103.656459
 11
331.804178
 21
1073.556459
  0
LINE
  8
CSLAYER1
  6
CONTINUOUS
 62
     4
 10
329.154178
 20
1099.606459
 11
329.154178
 21
1077.606459
  0
LINE
  8
CSLAYER1
  6
CONTINUOUS
 62
     4
 10
329.154178
 20
1099.606459
 11
330.654178
 21
1101.106459
  0
LINE
  8
CSLAYER1
  6
CONTINUOUS
 62
     4
 10
330.654178
 20
1101.106459
 11
330.654178
 21
1076.106459
  0
LINE
  8
CSLAYER1
  6
CONTINUOUS
 62
     4
 10
330.654178
 20
1076.106459
 11
331.804178
 21
1076.106459
  0
LINE
  8
CSLAYER1
  6
CONTINUOUS
 62
     4
 10
331.804178
 20
1073.556459
 11
333.154178
 21
1073.556459
  0
LINE
  8
CSLAYER1
  6
CONTINUOUS
 62
     4
 10
329.154178
 20
1077.606459
 11
330.654178
 21
1076.106459
  0
LINE
  8
CSLAYER1
  6
CONTINUOUS
 62
     4
 10
314.654178
 20
1103.730784
 11
314.654178
 21
1063.730784
  0
LINE
  8
CSLAYER1
  6
CENTER
 62
     5
 10
254.128110
 20
1083.730784
 11
304.975299
 21
1083.730784
  0
LINE
  8
CSLAYER1
  6
CONTINUOUS
 62
     3
 10
254.454178
 20
1083.730784
 11
254.454178
 21
1093.230784
  0
LINE
  8
CSLAYER1
  6
CONTINUOUS
 62
     4
 10
257.654178
 20
1154.930784
 11
257.654178
 21
1064.730784
  0
LINE
  8
CSLAYER1
  6
CONTINUOUS
 62
     4
 10
298.654178
 20
1064.730784
 11
257.654178
 21
1064.730784
  0
LINE
  8
CSLAYER1
  6
CONTINUOUS
 62
     4
 10
254.454178
 20
1106.730784
 11
254.454178
 21
1075.730784
  0
LINE
  8
CSLAYER1
  6
CONTINUOUS
 62
     5
 10
249.963304
 20
1098.730784
 11
263.654178
 21
1098.730784
  0
LINE
  8
CSLAYER1
  6
CONTINUOUS
 62
     4
 10
254.454178
 20
1106.730784
 11
257.654178
 21
1106.730784
  0
LINE
  8
CSLAYER1
  6
CONTINUOUS
 62
     4
 10
299.654178
 20
1076.730784
 11
299.654178
 21
1090.730784
  0
LINE
  8
CSLAYER1
  6
CONTINUOUS
 62
     4
 10
299.654178
 20
1076.730784
 11
298.654178
 21
1075.730784
  0
LINE
  8
CSLAYER1
  6
CONTINUOUS
 62
     4
 10
254.454178
 20
1075.730784
 11
257.654178
 21
1075.730784
  0
LINE
  8
CSLAYER1
  6
CONTINUOUS
 62
     4
 10
299.654178
 20
1090.730784
 11
298.654178
 21
1091.730784
  0
LINE
  8
CSLAYER1
  6
CONTINUOUS
 62
     4
 10
254.454178
 20
1079.730784
 11
257.654178
 21
1079.730784
  0
LINE
  8
CSLAYER1
  6
CONTINUOUS
 62
     4
 10
254.454178
 20
1087.730784
 11
257.654178
 21
1087.730784
  0
LINE
  8
CSLAYER1
  6
CONTINUOUS
 62
     4
 10
395.154178
 20
685.557975
 11
395.154178
 21
711.557975
  0
LINE
  8
CSLAYER1
  6
CONTINUOUS
 62
     4
 10
394.154178
 20
684.557975
 11
394.154178
 21
712.557975
  0
LINE
  8
CSLAYER1
  6
CONTINUOUS
 62
     4
 10
389.154178
 20
712.557975
 11
392.180719
 21
712.557975
  0
LINE
  8
CSLAYER1
  6
CONTINUOUS
 62
     4
 10
395.154178
 20
711.557975
 11
394.154178
 21
712.557975
  0
LINE
  8
CSLAYER1
  6
CONTINUOUS
 62
     4
 10
372.154178
 20
717.557975
 11
371.154178
 21
718.557975
  0
LINE
  8
CSLAYER1
  6
CONTINUOUS
 62
     4
 10
394.154178
 20
712.557975
 11
389.087920
 21
717.542656
  0
LINE
  8
CSLAYER1
  6
CONTINUOUS
 62
     4
 10
389.154178
 20
717.477465
 11
394.073668
 21
712.557975
  0
LINE
  8
CSLAYER1
  6
CONTINUOUS
 62
     4
 10
389.154178
 20
717.194622
 11
393.790825
 21
712.557975
  0
LINE
  8
CSLAYER1
  6
CONTINUOUS
 62
     4
 10
389.154178
 20
716.911779
 11
393.507982
 21
712.557975
  0
LINE
  8
CSLAYER1
  6
CONTINUOUS
 62
     4
 10
389.154178
 20
716.628937
 11
393.225139
 21
712.557975
  0
LINE
  8
CSLAYER1
  6
CONTINUOUS
 62
     4
 10
389.154178
 20
716.346094
 11
392.942297
 21
712.557975
  0
LINE
  8
CSLAYER1
  6
CONTINUOUS
 62
     4
 10
389.154178
 20
716.063251
 11
392.659454
 21
712.557975
  0
LINE
  8
CSLAYER1
  6
CONTINUOUS
 62
     4
 10
389.154178
 20
715.780409
 11
392.376611
 21
712.557975
  0
LINE
  8
CSLAYER1
  6
CONTINUOUS
 62
     4
 10
389.154178
 20
715.497566
 11
392.093769
 21
712.557975
  0
LINE
  8
CSLAYER1
  6
CONTINUOUS
 62
     4
 10
389.154178
 20
715.214723
 11
391.810926
 21
712.557975
  0
LINE
  8
CSLAYER1
  6
CONTINUOUS
 62
     4
 10
389.154178
 20
714.931880
 11
391.528083
 21
712.557975
  0
LINE
  8
CSLAYER1
  6
CONTINUOUS
 62
     4
 10
389.154178
 20
714.649038
 11
391.245240
 21
712.557975
  0
LINE
  8
CSLAYER1
  6
CONTINUOUS
 62
     4
 10
389.154178
 20
714.366195
 11
390.962398
 21
712.557975
  0
LINE
  8
CSLAYER1
  6
CONTINUOUS
 62
     4
 10
389.154178
 20
714.083352
 11
390.679555
 21
712.557975
  0
LINE
  8
CSLAYER1
  6
CONTINUOUS
 62
     4
 10
389.154178
 20
713.800510
 11
390.396712
 21
712.557975
  0
LINE
  8
CSLAYER1
  6
CONTINUOUS
 62
     4
 10
389.154178
 20
713.517667
 11
390.113870
 21
712.557975
  0
LINE
  8
CSLAYER1
  6
CONTINUOUS
 62
     4
 10
389.154178
 20
713.234824
 11
389.831027
 21
712.557975
  0
LINE
  8
CSLAYER1
  6
CONTINUOUS
 62
     4
 10
389.154178
 20
712.951981
 11
389.548184
 21
712.557975
  0
LINE
  8
CSLAYER1
  6
CONTINUOUS
 62
     4
 10
389.154178
 20
712.669139
 11
389.265341
 21
712.557975
  0
LINE
  8
CSLAYER1
  6
CONTINUOUS
 62
     4
 10
292.180719
 20
677.207975
 11
333.154178
 21
677.207975
  0
LINE
  8
CSLAYER1
  6
CONTINUOUS
 62
     4
 10
372.154178
 20
717.557975
 11
372.154178
 21
679.557975
  0
LINE
  8
CSLAYER1
  6
CONTINUOUS
 62
     4
 10
291.180719
 20
718.907975
 11
291.180719
 21
678.207975
  0
LINE
  8
CSLAYER1
  6
CONTINUOUS
 62
     4
 10
291.180719
 20
678.207975
 11
292.180719
 21
677.207975
  0
LINE
  8
CSLAYER1
  6
CONTINUOUS
 62
     4
 10
251.180719
 20
708.557975
 11
251.180719
 21
688.557975
  0
LINE
  8
CSLAYER1
  6
CONTINUOUS
 62
     4
 10
270.180719
 20
717.057975
 11
270.180719
 21
680.057975
  0
LINE
  8
CSLAYER1
  6
CONTINUOUS
 62
     4
 10
265.080719
 20
715.557975
 11
265.080719
 21
681.557975
  0
LINE
  8
CSLAYER1
  6
CONTINUOUS
 62
     4
 10
253.080719
 20
715.557975
 11
253.080719
 21
681.557975
  0
LINE
  8
CSLAYER1
  6
CONTINUOUS
 62
     4
 10
270.180719
 20
715.557975
 11
253.080719
 21
715.557975
  0
LINE
  8
CSLAYER1
  6
CONTINUOUS
 62
     4
 10
265.080719
 20
708.557975
 11
251.180719
 21
708.557975
  0
LINE
  8
CSLAYER1
  6
CONTINUOUS
 62
     4
 10
270.180719
 20
681.557975
 11
253.080719
 21
681.557975
  0
LINE
  8
CSLAYER1
  6
CONTINUOUS
 62
     4
 10
265.080719
 20
688.557975
 11
251.180719
 21
688.557975
  0
LINE
  8
CSLAYER1
  6
CONTINUOUS
 62
     4
 10
273.180719
 20
717.057975
 11
270.180719
 21
717.057975
  0
LINE
  8
CSLAYER1
  6
CONTINUOUS
 62
     4
 10
273.180719
 20
680.057975
 11
270.180719
 21
680.057975
  0
LINE
  8
CSLAYER1
  6
CONTINUOUS
 62
     4
 10
273.180719
 20
680.057975
 11
273.180719
 21
717.057975
  0
LINE
  8
CSLAYER1
  6
CENTER
 62
     5
 10
237.457285
 20
698.557975
 11
412.918818
 21
698.557975
  0
LINE
  8
CSLAYER1
  6
CONTINUOUS
 62
     4
 10
273.180719
 20
686.057975
 11
274.154178
 21
686.057975
  0
LINE
  8
CSLAYER1
  6
CONTINUOUS
 62
     4
 10
292.180719
 20
719.907975
 11
333.154178
 21
719.907975
  0
LINE
  8
CSLAYER1
  6
CONTINUOUS
 62
     4
 10
291.180719
 20
718.907975
 11
292.180719
 21
719.907975
  0
LINE
  8
CSLAYER1
  6
CONTINUOUS
 62
     4
 10
273.180719
 20
711.057975
 11
274.154178
 21
711.057975
  0
LINE
  8
CSLAYER1
  6
CONTINUOUS
 62
     4
 10
274.180719
 20
698.557975
 11
274.180719
 21
351.385166
  0
LINE
  8
CSLAYER1
  6
CONTINUOUS
 62
     4
 10
328.154178
 20
677.207975
 11
333.154178
 21
672.207975
  0
LINE
  8
CSLAYER1
  6
CONTINUOUS
 62
     4
 10
333.154178
 20
672.490818
 11
328.437021
 21
677.207975
  0
LINE
  8
CSLAYER1
  6
CONTINUOUS
 62
     4
 10
333.154178
 20
672.773661
 11
328.719863
 21
677.207975
  0
LINE
  8
CSLAYER1
  6
CONTINUOUS
 62
     4
 10
333.154178
 20
673.056503
 11
329.002706
 21
677.207975
  0
LINE
  8
CSLAYER1
  6
CONTINUOUS
 62
     4
 10
333.154178
 20
673.339346
 11
329.285549
 21
677.207975
  0
LINE
  8
CSLAYER1
  6
CONTINUOUS
 62
     4
 10
333.154178
 20
673.622189
 11
329.568391
 21
677.207975
  0
LINE
  8
CSLAYER1
  6
CONTINUOUS
 62
     4
 10
333.154178
 20
673.905031
 11
329.851234
 21
677.207975
  0
LINE
  8
CSLAYER1
  6
CONTINUOUS
 62
     4
 10
333.154178
 20
674.187874
 11
330.134077
 21
677.207975
  0
LINE
  8
CSLAYER1
  6
CONTINUOUS
 62
     4
 10
333.154178
 20
674.470717
 11
330.416920
 21
677.207975
  0
LINE
  8
CSLAYER1
  6
CONTINUOUS
 62
     4
 10
333.154178
 20
674.753559
 11
330.699762
 21
677.207975
  0
LINE
  8
CSLAYER1
  6
CONTINUOUS
 62
     4
 10
333.154178
 20
675.036402
 11
330.982605
 21
677.207975
  0
LINE
  8
CSLAYER1
  6
CONTINUOUS
 62
     4
 10
333.154178
 20
675.319245
 11
331.265448
 21
677.207975
  0
LINE
  8
CSLAYER1
  6
CONTINUOUS
 62
     4
 10
333.154178
 20
675.602088
 11
331.548290
 21
677.207975
  0
LINE
  8
CSLAYER1
  6
CONTINUOUS
 62
     4
 10
333.154178
 20
675.884930
 11
331.831133
 21
677.207975
  0
LINE
  8
CSLAYER1
  6
CONTINUOUS
 62
     4
 10
333.154178
 20
676.167773
 11
332.113976
 21
677.207975
  0
LINE
  8
CSLAYER1
  6
CONTINUOUS
 62
     4
 10
333.154178
 20
676.450616
 11
332.396819
 21
677.207975
  0
LINE
  8
CSLAYER1
  6
CONTINUOUS
 62
     4
 10
333.154178
 20
676.733458
 11
332.679661
 21
677.207975
  0
LINE
  8
CSLAYER1
  6
CONTINUOUS
 62
     4
 10
333.154178
 20
677.016301
 11
332.962504
 21
677.207975
  0
LINE
  8
CSLAYER1
  6
CONTINUOUS
 62
     4
 10
349.154178
 20
723.275132
 11
353.871335
 21
718.557975
  0
LINE
  8
CSLAYER1
  6
CONTINUOUS
 62
     4
 10
349.154178
 20
722.992290
 11
353.588492
 21
718.557975
  0
LINE
  8
CSLAYER1
  6
CONTINUOUS
 62
     4
 10
349.154178
 20
722.709447
 11
353.305650
 21
718.557975
  0
LINE
  8
CSLAYER1
  6
CONTINUOUS
 62
     4
 10
349.154178
 20
722.426604
 11
353.022807
 21
718.557975
  0
LINE
  8
CSLAYER1
  6
CONTINUOUS
 62
     4
 10
349.154178
 20
722.143762
 11
352.739964
 21
718.557975
  0
LINE
  8
CSLAYER1
  6
CONTINUOUS
 62
     4
 10
349.154178
 20
721.860919
 11
352.457122
 21
718.557975
  0
LINE
  8
CSLAYER1
  6
CONTINUOUS
 62
     4
 10
349.154178
 20
721.578076
 11
352.174279
 21
718.557975
  0
LINE
  8
CSLAYER1
  6
CONTINUOUS
 62
     4
 10
349.154178
 20
721.295233
 11
351.891436
 21
718.557975
  0
LINE
  8
CSLAYER1
  6
CONTINUOUS
 62
     4
 10
349.154178
 20
721.012391
 11
351.608593
 21
718.557975
  0
LINE
  8
CSLAYER1
  6
CONTINUOUS
 62
     4
 10
349.154178
 20
720.729548
 11
351.325751
 21
718.557975
  0
LINE
  8
CSLAYER1
  6
CONTINUOUS
 62
     4
 10
349.154178
 20
720.446705
 11
351.042908
 21
718.557975
  0
LINE
  8
CSLAYER1
  6
CONTINUOUS
 62
     4
 10
349.154178
 20
720.163863
 11
350.760065
 21
718.557975
  0
LINE
  8
CSLAYER1
  6
CONTINUOUS
 62
     4
 10
349.154178
 20
719.881020
 11
350.477223
 21
718.557975
  0
LINE
  8
CSLAYER1
  6
CONTINUOUS
 62
     4
 10
349.154178
 20
719.598177
 11
350.194380
 21
718.557975
  0
LINE
  8
CSLAYER1
  6
CONTINUOUS
 62
     4
 10
349.154178
 20
719.315334
 11
349.911537
 21
718.557975
  0
LINE
  8
CSLAYER1
  6
CONTINUOUS
 62
     4
 10
349.154178
 20
719.032492
 11
349.628694
 21
718.557975
  0
LINE
  8
CSLAYER1
  6
CONTINUOUS
 62
     4
 10
349.154178
 20
718.749649
 11
349.345852
 21
718.557975
  0
LINE
  8
CSLAYER1
  6
CONTINUOUS
 62
     4
 10
328.154178
 20
719.907975
 11
333.154178
 21
724.907975
  0
LINE
  8
CSLAYER1
  6
CONTINUOUS
 62
     4
 10
333.154178
 20
724.625132
 11
328.437021
 21
719.907975
  0
LINE
  8
CSLAYER1
  6
CONTINUOUS
 62
     4
 10
333.154178
 20
724.342290
 11
328.719863
 21
719.907975
  0
LINE
  8
CSLAYER1
  6
CONTINUOUS
 62
     4
 10
333.154178
 20
724.059447
 11
329.002706
 21
719.907975
  0
LINE
  8
CSLAYER1
  6
CONTINUOUS
 62
     4
 10
333.154178
 20
723.776604
 11
329.285549
 21
719.907975
  0
LINE
  8
CSLAYER1
  6
CONTINUOUS
 62
     4
 10
333.154178
 20
723.493762
 11
329.568391
 21
719.907975
  0
LINE
  8
CSLAYER1
  6
CONTINUOUS
 62
     4
 10
333.154178
 20
723.210919
 11
329.851234
 21
719.907975
  0
LINE
  8
CSLAYER1
  6
CONTINUOUS
 62
     4
 10
333.154178
 20
722.928076
 11
330.134077
 21
719.907975
  0
LINE
  8
CSLAYER1
  6
CONTINUOUS
 62
     4
 10
333.154178
 20
722.645233
 11
330.416920
 21
719.907975
  0
LINE
  8
CSLAYER1
  6
CONTINUOUS
 62
     4
 10
333.154178
 20
722.362391
 11
330.699762
 21
719.907975
  0
LINE
  8
CSLAYER1
  6
CONTINUOUS
 62
     4
 10
333.154178
 20
722.079548
 11
330.982605
 21
719.907975
  0
LINE
  8
CSLAYER1
  6
CONTINUOUS
 62
     4
 10
333.154178
 20
721.796705
 11
331.265448
 21
719.907975
  0
LINE
  8
CSLAYER1
  6
CONTINUOUS
 62
     4
 10
333.154178
 20
721.513863
 11
331.548290
 21
719.907975
  0
LINE
  8
CSLAYER1
  6
CONTINUOUS
 62
     4
 10
333.154178
 20
721.231020
 11
331.831133
 21
719.907975
  0
LINE
  8
CSLAYER1
  6
CONTINUOUS
 62
     4
 10
333.154178
 20
720.948177
 11
332.113976
 21
719.907975
  0
LINE
  8
CSLAYER1
  6
CONTINUOUS
 62
     4
 10
333.154178
 20
720.665334
 11
332.396819
 21
719.907975
  0
LINE
  8
CSLAYER1
  6
CONTINUOUS
 62
     4
 10
333.154178
 20
720.382492
 11
332.679661
 21
719.907975
  0
LINE
  8
CSLAYER1
  6
CONTINUOUS
 62
     4
 10
333.154178
 20
720.099649
 11
332.962504
 21
719.907975
  0
LINE
  8
CSLAYER1
  6
CONTINUOUS
 62
     4
 10
350.194380
 20
718.557975
 11
349.154178
 21
718.557975
  0
POINT
  8
CSLAYER1
 62
     4
 10
381.154178
 20
741.327203
  0
LINE
  8
CSLAYER1
  6
CONTINUOUS
 62
     4
 10
363.254178
 20
728.327203
 11
363.254178
 21
786.077203
  0
LINE
  8
CSLAYER1
  6
CONTINUOUS
 62
     4
 10
361.404178
 20
737.557203
 11
361.404178
 21
745.106929
  0
LINE
  8
CSLAYER1
  6
CONTINUOUS
 62
     4
 10
367.629178
 20
728.327203
 11
363.254178
 21
728.327203
  0
LINE
  8
CSLAYER1
  6
CONTINUOUS
 62
     4
 10
363.254178
 20
746.106929
 11
362.404178
 21
746.106929
  0
ARC
  8
CSLAYER1
  6
CONTINUOUS
 62
     4
 10
362.404178
 20
737.557203
 40
1.000000
 50
180.000000
 51
270.000000
  0
ARC
  8
CSLAYER1
  6
CONTINUOUS
 62
     4
 10
362.404178
 20
745.106929
 40
1.000000
 50
90.000000
 51
180.000000
  0
LINE
  8
CSLAYER1
  6
CONTINUOUS
 62
     4
 10
394.679178
 20
728.327203
 11
394.679178
 21
823.577203
  0
LINE
  8
CSLAYER1
  6
CONTINUOUS
 62
     4
 10
399.054178
 20
728.327203
 11
399.054178
 21
786.077203
  0
LINE
  8
CSLAYER1
  6
CONTINUOUS
 62
     4
 10
400.904178
 20
737.557203
 11
400.904178
 21
745.106929
  0
LINE
  8
CSLAYER1
  6
CONTINUOUS
 62
     4
 10
394.679178
 20
728.327203
 11
399.054178
 21
728.327203
  0
LINE
  8
CSLAYER1
  6
CONTINUOUS
 62
     4
 10
399.054178
 20
736.557203
 11
399.904178
 21
736.557203
  0
LINE
  8
CSLAYER1
  6
CONTINUOUS
 62
     4
 10
399.054178
 20
746.106929
 11
399.904178
 21
746.106929
  0
ARC
  8
CSLAYER1
  6
CONTINUOUS
 62
     4
 10
399.904178
 20
737.557203
 40
1.000000
 50
270.000000
 51
360.000000
  0
ARC
  8
CSLAYER1
  6
CONTINUOUS
 62
     4
 10
399.904178
 20
745.106929
 40
1.000000
 50
0.000000
 51
90.000000
  0
LINE
  8
CSLAYER1
  6
CONTINUOUS
 62
     4
 10
393.679178
 20
731.327203
 11
389.154178
 21
731.327203
  0
LINE
  8
CSLAYER1
  6
CONTINUOUS
 62
     4
 10
394.679178
 20
732.327203
 11
393.679178
 21
731.327203
  0
LINE
  8
CSLAYER1
  6
CONTINUOUS
 62
     4
 10
368.629178
 20
731.327203
 11
367.629178
 21
732.327203
  0
LINE
  8
CSLAYER1
  6
CONTINUOUS
 62
     4
 10
393.679178
 20
751.327203
 11
389.154178
 21
751.327203
  0
LINE
  8
CSLAYER1
  6
CONTINUOUS
 62
     4
 10
394.679178
 20
750.327203
 11
393.679178
 21
751.327203
  0
LINE
  8
CSLAYER1
  6
CONTINUOUS
 62
     4
 10
368.629178
 20
751.327203
 11
367.629178
 21
750.327203
  0
LINE
  8
CSLAYER1
  6
CONTINUOUS
 62
     5
 10
353.670897
 20
773.077203
 11
398.206808
 21
773.077203
  0
LINE
  8
CSLAYER1
  6
CONTINUOUS
 62
     4
 10
394.679178
 20
786.077203
 11
399.054178
 21
786.077203
  0
LINE
  8
CSLAYER1
  6
CONTINUOUS
 62
     4
 10
400.904178
 20
769.307203
 11
400.904178
 21
776.856929
  0
LINE
  8
CSLAYER1
  6
CONTINUOUS
 62
     4
 10
399.054178
 20
768.307203
 11
399.904178
 21
768.307203
  0
LINE
  8
CSLAYER1
  6
CONTINUOUS
 62
     4
 10
399.054178
 20
777.856929
 11
399.904178
 21
777.856929
  0
ARC
  8
CSLAYER1
  6
CONTINUOUS
 62
     4
 10
399.904178
 20
769.307203
 40
1.000000
 50
270.000000
 51
360.000000
  0
ARC
  8
CSLAYER1
  6
CONTINUOUS
 62
     4
 10
399.904178
 20
776.856929
 40
1.000000
 50
0.000000
 51
90.000000
  0
LINE
  8
CSLAYER1
  6
CONTINUOUS
 62
     4
 10
367.629178
 20
786.077203
 11
363.254178
 21
786.077203
  0
LINE
  8
CSLAYER1
  6
CONTINUOUS
 62
     4
 10
363.254178
 20
736.557203
 11
362.404178
 21
736.557203
  0
LINE
  8
CSLAYER1
  6
CONTINUOUS
 62
     4
 10
361.404178
 20
769.307203
 11
361.404178
 21
776.856929
  0
LINE
  8
CSLAYER1
  6
CONTINUOUS
 62
     4
 10
363.254178
 20
768.307203
 11
362.404178
 21
768.307203
  0
LINE
  8
CSLAYER1
  6
CONTINUOUS
 62
     4
 10
363.254178
 20
777.856929
 11
362.404178
 21
777.856929
  0
ARC
  8
CSLAYER1
  6
CONTINUOUS
 62
     4
 10
362.404178
 20
769.307203
 40
1.000000
 50
180.000000
 51
270.000000
  0
ARC
  8
CSLAYER1
  6
CONTINUOUS
 62
     4
 10
362.404178
 20
776.856929
 40
1.000000
 50
90.000000
 51
180.000000
  0
POINT
  8
CSLAYER1
 62
     4
 10
381.154178
 20
773.077203
  0
LINE
  8
CSLAYER1
  6
CONTINUOUS
 62
     5
 10
354.516515
 20
741.327203
 11
399.052427
 21
741.327203
  0
LINE
  8
CSLAYER1
  6
CONTINUOUS
 62
     4
 10
389.154178
 20
763.552203
 11
389.154178
 21
676.848121
  0
POINT
  8
CSLAYER1
 62
     4
 10
381.154178
 20
804.827203
  0
LINE
  8
CSLAYER1
  6
CONTINUOUS
 62
     4
 10
367.629178
 20
728.327203
 11
367.629178
 21
823.577203
  0
LINE
  8
CSLAYER1
  6
CONTINUOUS
 62
     4
 10
371.629178
 20
819.877203
 11
371.629178
 21
758.027203
  0
LINE
  8
CSLAYER1
  6
CONTINUOUS
 62
     4
 10
371.629178
 20
819.877203
 11
367.629178
 21
819.877203
  0
LINE
  8
CSLAYER1
  6
CONTINUOUS
 62
     4
 10
372.629178
 20
795.302203
 11
389.679178
 21
795.302203
  0
LINE
  8
CSLAYER1
  6
CONTINUOUS
 62
     4
 10
372.629178
 20
814.352203
 11
389.679178
 21
814.352203
  0
ARC
  8
CSLAYER1
  6
CONTINUOUS
 62
     4
 10
372.629178
 20
796.302203
 40
1.000000
 50
180.000000
 51
270.000000
  0
ARC
  8
CSLAYER1
  6
CONTINUOUS
 62
     4
 10
372.629178
 20
813.352203
 40
1.000000
 50
90.000000
 51
180.000000
  0
LINE
  8
CSLAYER1
  6
CONTINUOUS
 62
     4
 10
390.679178
 20
819.877203
 11
390.679178
 21
758.027203
  0
LINE
  8
CSLAYER1
  6
CONTINUOUS
 62
     4
 10
390.679178
 20
819.877203
 11
394.679178
 21
819.877203
  0
ARC
  8
CSLAYER1
  6
CONTINUOUS
 62
     4
 10
389.679178
 20
796.302203
 40
1.000000
 50
270.000000
 51
360.000000
  0
ARC
  8
CSLAYER1
  6
CONTINUOUS
 62
     4
 10
389.679178
 20
813.352203
 40
1.000000
 50
0.000000
 51
90.000000
  0
LINE
  8
CSLAYER1
  6
CONTINUOUS
 62
     4
 10
361.404178
 20
801.057203
 11
361.404178
 21
808.606929
  0
LINE
  8
CSLAYER1
  6
CONTINUOUS
 62
     4
 10
367.629178
 20
791.827203
 11
363.254178
 21
791.827203
  0
LINE
  8
CSLAYER1
  6
CONTINUOUS
 62
     4
 10
363.254178
 20
800.057203
 11
362.404178
 21
800.057203
  0
LINE
  8
CSLAYER1
  6
CONTINUOUS
 62
     4
 10
363.254178
 20
809.606929
 11
362.404178
 21
809.606929
  0
ARC
  8
CSLAYER1
  6
CONTINUOUS
 62
     4
 10
362.404178
 20
801.057203
 40
1.000000
 50
180.000000
 51
270.000000
  0
ARC
  8
CSLAYER1
  6
CONTINUOUS
 62
     4
 10
362.404178
 20
808.606929
 40
1.000000
 50
90.000000
 51
180.000000
  0
LINE
  8
CSLAYER1
  6
CONTINUOUS
 62
     4
 10
400.904178
 20
801.057203
 11
400.904178
 21
808.606929
  0
LINE
  8
CSLAYER1
  6
CONTINUOUS
 62
     4
 10
394.679178
 20
791.827203
 11
399.054178
 21
791.827203
  0
LINE
  8
CSLAYER1
  6
CONTINUOUS
 62
     4
 10
399.054178
 20
800.057203
 11
399.904178
 21
800.057203
  0
LINE
  8
CSLAYER1
  6
CONTINUOUS
 62
     4
 10
399.054178
 20
809.606929
 11
399.904178
 21
809.606929
  0
ARC
  8
CSLAYER1
  6
CONTINUOUS
 62
     4
 10
399.904178
 20
801.057203
 40
1.000000
 50
270.000000
 51
360.000000
  0
ARC
  8
CSLAYER1
  6
CONTINUOUS
 62
     4
 10
399.904178
 20
808.606929
 40
1.000000
 50
0.000000
 51
90.000000
  0
LINE
  8
CSLAYER1
  6
CONTINUOUS
 62
     4
 10
363.254178
 20
791.827203
 11
363.254178
 21
849.577203
  0
LINE
  8
CSLAYER1
  6
CONTINUOUS
 62
     4
 10
399.054178
 20
791.827203
 11
399.054178
 21
849.577203
  0
LINE
  8
CSLAYER1
  6
CONTINUOUS
 62
     4
 10
371.629178
 20
758.027203
 11
367.629178
 21
758.027203
  0
LINE
  8
CSLAYER1
  6
CONTINUOUS
 62
     4
 10
372.629178
 20
782.602203
 11
389.679178
 21
782.602203
  0
LINE
  8
CSLAYER1
  6
CONTINUOUS
 62
     4
 10
372.629178
 20
763.552203
 11
389.679178
 21
763.552203
  0
ARC
  8
CSLAYER1
  6
CONTINUOUS
 62
     4
 10
372.629178
 20
781.602203
 40
1.000000
 50
90.000000
 51
180.000000
  0
ARC
  8
CSLAYER1
  6
CONTINUOUS
 62
     4
 10
372.629178
 20
764.552203
 40
1.000000
 50
180.000000
 51
270.000000
  0
LINE
  8
CSLAYER1
  6
CONTINUOUS
 62
     4
 10
390.679178
 20
758.027203
 11
394.679178
 21
758.027203
  0
ARC
  8
CSLAYER1
  6
CONTINUOUS
 62
     4
 10
389.679178
 20
781.602203
 40
1.000000
 50
0.000000
 51
90.000000
  0
ARC
  8
CSLAYER1
  6
CONTINUOUS
 62
     4
 10
389.679178
 20
764.552203
 40
1.000000
 50
270.000000
 51
360.000000
  0
LINE
  8
CSLAYER1
  6
CONTINUOUS
 62
     4
 10
373.154178
 20
758.327203
 11
389.154178
 21
758.327203
  0
LINE
  8
CSLAYER1
  6
CONTINUOUS
 62
     4
 10
373.154178
 20
751.327203
 11
368.629178
 21
751.327203
  0
LINE
  8
CSLAYER1
  6
CONTINUOUS
 62
     4
 10
373.154178
 20
731.327203
 11
368.629178
 21
731.327203
  0
LINE
  8
CSLAYER1
  6
CONTINUOUS
 62
     4
 10
351.345852
 20
718.557975
 11
371.154178
 21
718.557975
  0
LINE
  8
CSLAYER1
  6
CONTINUOUS
 62
     4
 10
372.154178
 20
713.557975
 11
373.154178
 21
713.557975
  0
LINE
  8
CSLAYER1
  6
CONTINUOUS
 62
     4
 10
290.154178
 20
713.557975
 11
291.180719
 21
713.557975
  0
LINE
  8
CSLAYER1
  6
CONTINUOUS
 62
     4
 10
290.154178
 20
683.557975
 11
291.180719
 21
683.557975
  0
LINE
  8
CSLAYER1
  6
CONTINUOUS
 62
     4
 10
349.154178
 20
673.840818
 11
353.871335
 21
678.557975
  0
LINE
  8
CSLAYER1
  6
CONTINUOUS
 62
     4
 10
349.154178
 20
674.123661
 11
353.588492
 21
678.557975
  0
LINE
  8
CSLAYER1
  6
CONTINUOUS
 62
     4
 10
349.154178
 20
674.406503
 11
353.305650
 21
678.557975
  0
LINE
  8
CSLAYER1
  6
CONTINUOUS
 62
     4
 10
349.154178
 20
674.689346
 11
353.022807
 21
678.557975
  0
LINE
  8
CSLAYER1
  6
CONTINUOUS
 62
     4
 10
349.154178
 20
674.972189
 11
352.739964
 21
678.557975
  0
LINE
  8
CSLAYER1
  6
CONTINUOUS
 62
     4
 10
349.154178
 20
675.255031
 11
352.457122
 21
678.557975
  0
LINE
  8
CSLAYER1
  6
CONTINUOUS
 62
     4
 10
349.154178
 20
675.537874
 11
352.174279
 21
678.557975
  0
LINE
  8
CSLAYER1
  6
CONTINUOUS
 62
     4
 10
349.154178
 20
675.820717
 11
351.891436
 21
678.557975
  0
LINE
  8
CSLAYER1
  6
CONTINUOUS
 62
     4
 10
349.154178
 20
676.103559
 11
351.608593
 21
678.557975
  0
LINE
  8
CSLAYER1
  6
CONTINUOUS
 62
     4
 10
349.154178
 20
676.386402
 11
351.325751
 21
678.557975
  0
LINE
  8
CSLAYER1
  6
CONTINUOUS
 62
     4
 10
349.154178
 20
676.669245
 11
351.042908
 21
678.557975
  0
LINE
  8
CSLAYER1
  6
CONTINUOUS
 62
     4
 10
349.154178
 20
676.952088
 11
350.760065
 21
678.557975
  0
LINE
  8
CSLAYER1
  6
CONTINUOUS
 62
     4
 10
349.154178
 20
677.234930
 11
350.477223
 21
678.557975
  0
LINE
  8
CSLAYER1
  6
CONTINUOUS
 62
     4
 10
349.154178
 20
677.517773
 11
350.194380
 21
678.557975
  0
LINE
  8
CSLAYER1
  6
CONTINUOUS
 62
     4
 10
349.154178
 20
677.800616
 11
349.911537
 21
678.557975
  0
LINE
  8
CSLAYER1
  6
CONTINUOUS
 62
     4
 10
349.154178
 20
678.083458
 11
349.628694
 21
678.557975
  0
LINE
  8
CSLAYER1
  6
CONTINUOUS
 62
     4
 10
349.154178
 20
678.366301
 11
349.345852
 21
678.557975
  0
LINE
  8
CSLAYER1
  6
CONTINUOUS
 62
     4
 10
350.194380
 20
678.557975
 11
349.154178
 21
678.557975
  0
LINE
  8
CSLAYER1
  6
CONTINUOUS
 62
     4
 10
351.345852
 20
678.557975
 11
371.154178
 21
678.557975
  0
POINT
  8
CSLAYER1
 62
     5
 10
350.154178
 20
640.651548
  0
LINE
  8
CSLAYER1
  6
CONTINUOUS
 62
     7
 10
350.154178
 20
665.940810
 11
350.154178
 21
615.362286
  0
LINE
  8
CSLAYER1
  6
CONTINUOUS
 62
     7
 10
490.154178
 20
694.179226
 11
490.154178
 21
661.961213
  0
LINE
  8
CSLAYER1
  6
CONTINUOUS
 62
     7
 10
372.154178
 20
619.243962
 11
372.290908
 21
620.184499
  0
LINE
  8
CSLAYER1
  6
CONTINUOUS
 62
     7
 10
372.290908
 20
620.184499
 11
372.696944
 21
621.096458
  0
LINE
  8
CSLAYER1
  6
CONTINUOUS
 62
     7
 10
372.696944
 20
621.096458
 11
373.359949
 21
621.952130
  0
LINE
  8
CSLAYER1
  6
CONTINUOUS
 62
     7
 10
373.359949
 20
621.952130
 11
374.259778
 21
622.725515
  0
LINE
  8
CSLAYER1
  6
CONTINUOUS
 62
     7
 10
374.259778
 20
622.725515
 11
375.369089
 21
623.393115
  0
LINE
  8
CSLAYER1
  6
CONTINUOUS
 62
     7
 10
375.369089
 20
623.393115
 11
376.654178
 21
623.934646
  0
LINE
  8
CSLAYER1
  6
CONTINUOUS
 62
     7
 10
376.654178
 20
623.934646
 11
378.075997
 21
624.333652
  0
LINE
  8
CSLAYER1
  6
CONTINUOUS
 62
     7
 10
378.075997
 20
624.333652
 11
379.591344
 21
624.578011
  0
LINE
  8
CSLAYER1
  6
CONTINUOUS
 62
     7
 10
379.591344
 20
624.578011
 11
381.154178
 21
624.660297
  0
LINE
  8
CSLAYER1
  6
CONTINUOUS
 62
     7
 10
381.154178
 20
624.660297
 11
382.717011
 21
624.578011
  0
LINE
  8
CSLAYER1
  6
CONTINUOUS
 62
     7
 10
382.717011
 20
624.578011
 11
384.232359
 21
624.333652
  0
LINE
  8
CSLAYER1
  6
CONTINUOUS
 62
     7
 10
384.232359
 20
624.333652
 11
385.654178
 21
623.934646
  0
LINE
  8
CSLAYER1
  6
CONTINUOUS
 62
     7
 10
385.654178
 20
623.934646
 11
386.939266
 21
623.393115
  0
LINE
  8
CSLAYER1
  6
CONTINUOUS
 62
     7
 10
386.939266
 20
623.393115
 11
388.048578
 21
622.725515
  0
LINE
  8
CSLAYER1
  6
CONTINUOUS
 62
     7
 10
388.048578
 20
622.725515
 11
388.948406
 21
621.952130
  0
LINE
  8
CSLAYER1
  6
CONTINUOUS
 62
     7
 10
388.948406
 20
621.952130
 11
389.611411
 21
621.096458
  0
LINE
  8
CSLAYER1
  6
CONTINUOUS
 62
     7
 10
389.611411
 20
621.096458
 11
390.017448
 21
620.184499
  0
LINE
  8
CSLAYER1
  6
CONTINUOUS
 62
     7
 10
390.017448
 20
620.184499
 11
390.154178
 21
619.243962
  0
LINE
  8
CSLAYER1
  6
CONTINUOUS
 62
     7
 10
390.154178
 20
619.243962
 11
390.017448
 21
618.303425
  0
LINE
  8
CSLAYER1
  6
CONTINUOUS
 62
     7
 10
390.017448
 20
618.303425
 11
389.611411
 21
617.391466
  0
LINE
  8
CSLAYER1
  6
CONTINUOUS
 62
     7
 10
389.611411
 20
617.391466
 11
388.948406
 21
616.535794
  0
LINE
  8
CSLAYER1
  6
CONTINUOUS
 62
     7
 10
388.948406
 20
616.535794
 11
388.048578
 21
615.762409
  0
LINE
  8
CSLAYER1
  6
CONTINUOUS
 62
     7
 10
388.048578
 20
615.762409
 11
386.939266
 21
615.094808
  0
LINE
  8
CSLAYER1
  6
CONTINUOUS
 62
     7
 10
386.939266
 20
615.094808
 11
385.654178
 21
614.553278
  0
LINE
  8
CSLAYER1
  6
CONTINUOUS
 62
     7
 10
385.654178
 20
614.553278
 11
384.232359
 21
614.154272
  0
LINE
  8
CSLAYER1
  6
CONTINUOUS
 62
     7
 10
384.232359
 20
614.154272
 11
382.717011
 21
613.909913
  0
LINE
  8
CSLAYER1
  6
CONTINUOUS
 62
     7
 10
382.717011
 20
613.909913
 11
381.154178
 21
613.827627
  0
LINE
  8
CSLAYER1
  6
CONTINUOUS
 62
     7
 10
381.154178
 20
613.827627
 11
379.591344
 21
613.909913
  0
LINE
  8
CSLAYER1
  6
CONTINUOUS
 62
     7
 10
379.591344
 20
613.909913
 11
378.075997
 21
614.154272
  0
LINE
  8
CSLAYER1
  6
CONTINUOUS
 62
     7
 10
378.075997
 20
614.154272
 11
376.654178
 21
614.553278
  0
LINE
  8
CSLAYER1
  6
CONTINUOUS
 62
     7
 10
376.654178
 20
614.553278
 11
375.369089
 21
615.094808
  0
LINE
  8
CSLAYER1
  6
CONTINUOUS
 62
     7
 10
375.369089
 20
615.094808
 11
374.259778
 21
615.762409
  0
LINE
  8
CSLAYER1
  6
CONTINUOUS
 62
     7
 10
374.259778
 20
615.762409
 11
373.359949
 21
616.535794
  0
LINE
  8
CSLAYER1
  6
CONTINUOUS
 62
     7
 10
373.359949
 20
616.535794
 11
372.696944
 21
617.391466
  0
LINE
  8
CSLAYER1
  6
CONTINUOUS
 62
     7
 10
372.696944
 20
617.391466
 11
372.290908
 21
618.303425
  0
LINE
  8
CSLAYER1
  6
CONTINUOUS
 62
     7
 10
372.290908
 20
618.303425
 11
372.154178
 21
619.243962
  0
LINE
  8
CSLAYER1
  6
CONTINUOUS
 62
     7
 10
372.154178
 20
624.660297
 11
372.290908
 21
625.600834
  0
LINE
  8
CSLAYER1
  6
CONTINUOUS
 62
     7
 10
372.290908
 20
625.600834
 11
372.696944
 21
626.512793
  0
LINE
  8
CSLAYER1
  6
CONTINUOUS
 62
     7
 10
372.696944
 20
626.512793
 11
373.359949
 21
627.368465
  0
LINE
  8
CSLAYER1
  6
CONTINUOUS
 62
     7
 10
373.359949
 20
627.368465
 11
374.259778
 21
628.141850
  0
LINE
  8
CSLAYER1
  6
CONTINUOUS
 62
     7
 10
374.259778
 20
628.141850
 11
375.369089
 21
628.809451
  0
LINE
  8
CSLAYER1
  6
CONTINUOUS
 62
     7
 10
375.369089
 20
628.809451
 11
376.654178
 21
629.350981
  0
LINE
  8
CSLAYER1
  6
CONTINUOUS
 62
     7
 10
376.654178
 20
629.350981
 11
378.075997
 21
629.749987
  0
LINE
  8
CSLAYER1
  6
CONTINUOUS
 62
     7
 10
378.075997
 20
629.749987
 11
379.591344
 21
629.994346
  0
LINE
  8
CSLAYER1
  6
CONTINUOUS
 62
     7
 10
379.591344
 20
629.994346
 11
381.154178
 21
630.076632
  0
LINE
  8
CSLAYER1
  6
CONTINUOUS
 62
     7
 10
381.154178
 20
630.076632
 11
382.717011
 21
629.994346
  0
LINE
  8
CSLAYER1
  6
CONTINUOUS
 62
     7
 10
382.717011
 20
629.994346
 11
384.232359
 21
629.749987
  0
LINE
  8
CSLAYER1
  6
CONTINUOUS
 62
     7
 10
384.232359
 20
629.749987
 11
385.654178
 21
629.350981
  0
LINE
  8
CSLAYER1
  6
CONTINUOUS
 62
     7
 10
385.654178
 20
629.350981
 11
386.939266
 21
628.809451
  0
LINE
  8
CSLAYER1
  6
CONTINUOUS
 62
     7
 10
386.939266
 20
628.809451
 11
388.048578
 21
628.141850
  0
LINE
  8
CSLAYER1
  6
CONTINUOUS
 62
     7
 10
388.048578
 20
628.141850
 11
388.948406
 21
627.368465
  0
LINE
  8
CSLAYER1
  6
CONTINUOUS
 62
     7
 10
388.948406
 20
627.368465
 11
389.611411
 21
626.512793
  0
LINE
  8
CSLAYER1
  6
CONTINUOUS
 62
     7
 10
389.611411
 20
626.512793
 11
390.017448
 21
625.600834
  0
LINE
  8
CSLAYER1
  6
CONTINUOUS
 62
     7
 10
390.017448
 20
625.600834
 11
390.154178
 21
624.660297
  0
LINE
  8
CSLAYER1
  6
CONTINUOUS
 62
     7
 10
372.154178
 20
624.660297
 11
372.154178
 21
618.771897
  0
LINE
  8
CSLAYER1
  6
CONTINUOUS
 62
     7
 10
390.154178
 20
624.660297
 11
390.154178
 21
618.771897
  0
LINE
  8
CSLAYER1
  6
CONTINUOUS
 62
     7
 10
490.154178
 20
694.179226
 11
354.308562
 21
670.868784
  0
LINE
  8
CSLAYER1
  6
CONTINUOUS
 62
     7
 10
491.540251
 20
662.196725
 11
354.316618
 21
638.880663
  0
LINE
  8
CSLAYER1
  6
CONTINUOUS
 62
     7
 10
490.154178
 20
587.123870
 11
354.308562
 21
610.434311
  0
ARC
  8
CSLAYER1
  6
CONTINUOUS
 62
     7
 10
355.154178
 20
665.940810
 40
5.000000
 50
99.736847
 51
180.000000
  0
ARC
  8
CSLAYER1
  6
CONTINUOUS
 62
     7
 10
355.154178
 20
633.951313
 40
5.000000
 50
99.643193
 51
180.000000
  0
ARC
  8
CSLAYER1
  6
CONTINUOUS
 62
     7
 10
355.154178
 20
615.362286
 40
5.000000
 50
180.000000
 51
260.263153
  0
LINE
  8
CSLAYER1
  6
CONTINUOUS
 62
     4
 10
389.154178
 20
684.557975
 11
392.180719
 21
684.557975
  0
LINE
  8
CSLAYER1
  6
CONTINUOUS
 62
     4
 10
395.154178
 20
685.557975
 11
394.154178
 21
684.557975
  0
LINE
  8
CSLAYER1
  6
CONTINUOUS
 62
     4
 10
372.154178
 20
679.557975
 11
371.154178
 21
678.557975
  0
LINE
  8
CSLAYER1
  6
CONTINUOUS
 62
     4
 10
394.154178
 20
684.557975
 11
389.087920
 21
679.573294
  0
LINE
  8
CSLAYER1
  6
CONTINUOUS
 62
     4
 10
389.154178
 20
679.638485
 11
394.073668
 21
684.557975
  0
LINE
  8
CSLAYER1
  6
CONTINUOUS
 62
     4
 10
389.154178
 20
679.921328
 11
393.790825
 21
684.557975
  0
LINE
  8
CSLAYER1
  6
CONTINUOUS
 62
     4
 10
389.154178
 20
680.204171
 11
393.507982
 21
684.557975
  0
LINE
  8
CSLAYER1
  6
CONTINUOUS
 62
     4
 10
389.154178
 20
680.487013
 11
393.225139
 21
684.557975
  0
LINE
  8
CSLAYER1
  6
CONTINUOUS
 62
     4
 10
389.154178
 20
680.769856
 11
392.942297
 21
684.557975
  0
LINE
  8
CSLAYER1
  6
CONTINUOUS
 62
     4
 10
389.154178
 20
681.052699
 11
392.659454
 21
684.557975
  0
LINE
  8
CSLAYER1
  6
CONTINUOUS
 62
     4
 10
389.154178
 20
681.335542
 11
392.376611
 21
684.557975
  0
LINE
  8
CSLAYER1
  6
CONTINUOUS
 62
     4
 10
389.154178
 20
681.618384
 11
392.093769
 21
684.557975
  0
LINE
  8
CSLAYER1
  6
CONTINUOUS
 62
     4
 10
389.154178
 20
681.901227
 11
391.810926
 21
684.557975
  0
LINE
  8
CSLAYER1
  6
CONTINUOUS
 62
     4
 10
389.154178
 20
682.184070
 11
391.528083
 21
684.557975
  0
LINE
  8
CSLAYER1
  6
CONTINUOUS
 62
     4
 10
389.154178
 20
682.466912
 11
391.245240
 21
684.557975
  0
LINE
  8
CSLAYER1
  6
CONTINUOUS
 62
     4
 10
389.154178
 20
682.749755
 11
390.962398
 21
684.557975
  0
LINE
  8
CSLAYER1
  6
CONTINUOUS
 62
     4
 10
389.154178
 20
683.032598
 11
390.679555
 21
684.557975
  0
LINE
  8
CSLAYER1
  6
CONTINUOUS
 62
     4
 10
389.154178
 20
683.315441
 11
390.396712
 21
684.557975
  0
LINE
  8
CSLAYER1
  6
CONTINUOUS
 62
     4
 10
389.154178
 20
683.598283
 11
390.113870
 21
684.557975
  0
LINE
  8
CSLAYER1
  6
CONTINUOUS
 62
     4
 10
389.154178
 20
683.881126
 11
389.831027
 21
684.557975
  0
LINE
  8
CSLAYER1
  6
CONTINUOUS
 62
     4
 10
389.154178
 20
684.163969
 11
389.548184
 21
684.557975
  0
LINE
  8
CSLAYER1
  6
CONTINUOUS
 62
     4
 10
389.154178
 20
684.446811
 11
389.265341
 21
684.557975
  0
LINE
  8
CSLAYER1
  6
CONTINUOUS
 62
     4
 10
372.154178
 20
683.557975
 11
373.154178
 21
683.557975
  0
LINE
  8
CSLAYER1
  6
CONTINUOUS
 62
     3
 10
1156.015279
 20
2223.561430
 11
2206.016983
 21
2223.561430
  0
LINE
  8
CSLAYER1
  6
CONTINUOUS
 62
     3
 10
1156.015279
 20
1423.561430
 11
2206.016983
 21
1423.561430
  0
LINE
  8
CSLAYER1
  6
CONTINUOUS
 62
     7
 10
2206.015279
 20
1154.930784
 11
2206.015279
 21
1207.930784
  0
LINE
  8
CSLAYER1
  6
CONTINUOUS
 62
     3
 10
2206.015279
 20
1423.561430
 11
2206.015279
 21
2223.561430
  0
DIMENSION
  8
CSLAYER1
 62
     7
  2
*D0005
 10
1032.143023
 20
2223.561430
 11
1022.143127
 21
1823.561401
 13
1156.015279
 23
1423.561430
 14
1156.015279
 24
2223.561430
 50
90.000000
 70
1
  0
DIMENSION
  8
CSLAYER1
 62
     7
  2
*D0006
 10
906.154178
 20
190.259372
 11
556.154175
 21
200.259506
 13
206.154178
 23
286.385166
 14
906.154178
 24
286.385166
 52
270.000000
 70
1
  0
LINE
  8
CSLAYER1
  6
CONTINUOUS
 62
     5
 10
1178.015279
 20
313.385166
 11
1218.015279
 21
313.385166
  0
LINE
  8
CSLAYER1
  6
CONTINUOUS
 62
     5
 10
1198.015279
 20
333.385166
 11
1198.015279
 21
293.385166
  0
TEXT
  8
CSLAYER1
 62
     5
 10
2453.900635
 20
292.560791
 40
40.000000
 41
1.050000
  1
F.L
 50
0.000000
 51
0.000000
  7
EASYDRAW_FONT
 72
     5
 11
2565.900635
 21
292.560791
  0
TEXT
  8
CSLAYER2
 62
     5
 10
2941.510750
 20
1888.308249
 40
40.809284
 41
0.732273
  1
GLI-500-0810
 50
0.000000
 51
0.000000
  7
EASYDRAW_FONT
 72
     5
 11
3290.151848
 21
1888.308249
  0
LINE
  8
CSLAYER1
  6
CONTINUOUS
 62
     7
 10
2038.138363
 20
351.385166
 11
2038.175629
 21
351.232000
  0
LINE
  8
CSLAYER1
  6
CONTINUOUS
 62
     3
 10
2185.215279
 20
384.885166
 11
2185.215279
 21
351.385166
  0
LINE
  8
CSLAYER1
  6
CONTINUOUS
 62
     3
 10
2045.815279
 20
384.885166
 11
2045.815279
 21
351.385166
  0
LINE
  8
CSLAYER1
  6
CONTINUOUS
 62
     5
 10
2115.515279
 20
400.981291
 11
2115.515279
 21
374.855605
  0
LINE
  8
CSLAYER1
  6
CONTINUOUS
 62
     3
 10
2187.015279
 20
390.885166
 11
2044.015279
 21
390.885166
  0
LINE
  8
CSLAYER1
  6
CONTINUOUS
 62
     3
 10
2187.015279
 20
384.885166
 11
2185.215279
 21
384.885166
  0
LINE
  8
CSLAYER1
  6
CONTINUOUS
 62
     3
 10
2187.015279
 20
390.885166
 11
2187.015279
 21
384.885166
  0
LINE
  8
CSLAYER1
  6
CONTINUOUS
 62
     3
 10
2044.015279
 20
390.885166
 11
2044.015279
 21
384.885166
  0
LINE
  8
CSLAYER1
  6
CONTINUOUS
 62
     5
 10
2215.215279
 20
375.185166
 11
2215.215279
 21
358.185166
  0
LINE
  8
CSLAYER1
  6
CONTINUOUS
 62
     5
 10
2211.245712
 20
379.675547
 11
2196.617842
 21
379.675547
  0
LINE
  8
CSLAYER1
  6
CONTINUOUS
 62
     5
 10
2212.106184
 20
378.185166
 11
2212.106184
 21
355.185166
  0
LINE
  8
CSLAYER1
  6
CONTINUOUS
 62
     5
 10
2195.757370
 20
378.185166
 11
2195.757370
 21
355.185166
  0
LINE
  8
CSLAYER1
  6
CONTINUOUS
 62
     5
 10
2212.106184
 20
378.185166
 11
2211.245712
 21
379.675547
  0
LINE
  8
CSLAYER1
  6
CONTINUOUS
 62
     5
 10
2195.757370
 20
378.185166
 11
2196.617842
 21
379.675547
  0
LINE
  8
CSLAYER1
  6
CONTINUOUS
 62
     5
 10
2211.245712
 20
373.324694
 11
2196.617842
 21
373.324694
  0
ARC
  8
CSLAYER1
  6
CONTINUOUS
 62
     5
 10
2186.060159
 20
366.685166
 40
26.046025
 50
-14.768561
 51
14.768561
  0
ARC
  8
CSLAYER1
  6
CONTINUOUS
 62
     5
 10
2205.974591
 20
376.500121
 40
6.153702
 50
-31.065581
 51
23.174644
  0
ARC
  8
CSLAYER1
  6
CONTINUOUS
 62
     5
 10
2201.888963
 20
376.500121
 40
6.153702
 50
156.825356
 51
211.065581
  0
ARC
  8
CSLAYER1
  6
CONTINUOUS
 62
     5
 10
2221.803395
 20
366.685166
 40
26.046025
 50
165.231439
 51
194.768561
  0
LINE
  8
CSLAYER1
  6
CONTINUOUS
 62
     5
 10
2212.215279
 20
378.185166
 11
2212.106184
 21
378.185166
  0
ARC
  8
CSLAYER1
  6
CONTINUOUS
 62
     5
 10
2212.215279
 20
375.185166
 40
3.000000
 50
0.000000
 51
90.000000
  0
LINE
  8
CSLAYER1
  6
CONTINUOUS
 62
     5
 10
2192.215279
 20
378.185166
 11
2192.215279
 21
355.185166
  0
LINE
  8
CSLAYER1
  6
CONTINUOUS
 62
     5
 10
2192.215279
 20
378.185166
 11
2191.354807
 21
379.675547
  0
ARC
  8
CSLAYER1
  6
CONTINUOUS
 62
     5
 10
2166.169254
 20
366.685166
 40
26.046025
 50
-14.768561
 51
14.768561
  0
ARC
  8
CSLAYER1
  6
CONTINUOUS
 62
     5
 10
2186.083686
 20
376.500121
 40
6.153702
 50
-31.065581
 51
23.174644
  0
LINE
  8
CSLAYER1
  6
CONTINUOUS
 62
     5
 10
2191.354807
 20
373.324694
 11
2185.215279
 21
373.324694
  0
LINE
  8
CSLAYER1
  6
CONTINUOUS
 62
     5
 10
2191.354807
 20
379.675547
 11
2185.215279
 21
379.675547
  0
LINE
  8
CSLAYER1
  6
CONTINUOUS
 62
     5
 10
2195.757370
 20
377.021290
 11
2192.215279
 21
377.021290
  0
LINE
  8
CSLAYER1
  6
CONTINUOUS
 62
     5
 10
2195.757370
 20
376.374913
 11
2194.151009
 21
376.374913
  0
LINE
  8
CSLAYER1
  6
CONTINUOUS
 62
     5
 10
2194.151009
 20
377.021290
 11
2194.151009
 21
356.349042
  0
LINE
  8
CSLAYER1
  6
CONTINUOUS
 62
     5
 10
2194.151009
 20
376.374913
 11
2193.016157
 21
377.021290
  0
LINE
  8
CSLAYER1
  6
CONTINUOUS
 62
     5
 10
2211.245712
 20
353.694785
 11
2196.617842
 21
353.694785
  0
LINE
  8
CSLAYER1
  6
CONTINUOUS
 62
     5
 10
2212.106184
 20
355.185166
 11
2211.245712
 21
353.694785
  0
LINE
  8
CSLAYER1
  6
CONTINUOUS
 62
     5
 10
2195.757370
 20
355.185166
 11
2196.617842
 21
353.694785
  0
LINE
  8
CSLAYER1
  6
CONTINUOUS
 62
     5
 10
2211.245712
 20
360.045638
 11
2196.617842
 21
360.045638
  0
ARC
  8
CSLAYER1
  6
CONTINUOUS
 62
     5
 10
2205.974591
 20
356.870211
 40
6.153702
 50
-23.174644
 51
31.065581
  0
ARC
  8
CSLAYER1
  6
CONTINUOUS
 62
     5
 10
2201.888963
 20
356.870211
 40
6.153702
 50
148.934419
 51
203.174644
  0
LINE
  8
CSLAYER1
  6
CONTINUOUS
 62
     5
 10
2212.215279
 20
355.185166
 11
2212.106184
 21
355.185166
  0
ARC
  8
CSLAYER1
  6
CONTINUOUS
 62
     5
 10
2212.215279
 20
358.185166
 40
3.000000
 50
270.000000
 51
360.000000
  0
LINE
  8
CSLAYER1
  6
CONTINUOUS
 62
     5
 10
2192.215279
 20
355.185166
 11
2191.354807
 21
353.694785
  0
ARC
  8
CSLAYER1
  6
CONTINUOUS
 62
     5
 10
2186.083686
 20
356.870211
 40
6.153702
 50
-23.174644
 51
31.065581
  0
LINE
  8
CSLAYER1
  6
CONTINUOUS
 62
     5
 10
2191.354807
 20
360.045638
 11
2185.215279
 21
360.045638
  0
LINE
  8
CSLAYER1
  6
CONTINUOUS
 62
     5
 10
2191.354807
 20
353.694785
 11
2185.215279
 21
353.694785
  0
LINE
  8
CSLAYER1
  6
CONTINUOUS
 62
     5
 10
2195.757370
 20
356.349042
 11
2192.215279
 21
356.349042
  0
LINE
  8
CSLAYER1
  6
CONTINUOUS
 62
     5
 10
2195.757370
 20
356.995420
 11
2194.151009
 21
356.995420
  0
LINE
  8
CSLAYER1
  6
CONTINUOUS
 62
     5
 10
2194.151009
 20
356.995420
 11
2193.016157
 21
356.349042
  0
LINE
  8
CSLAYER1
  6
CENTER
 62
     5
 10
2248.971300
 20
366.685166
 11
2175.971130
 21
366.685166
  0
LINE
  8
CSLAYER1
  6
CONTINUOUS
 62
     5
 10
2248.783259
 20
370.485166
 11
2215.215279
 21
370.485166
  0
LINE
  8
CSLAYER1
  6
CONTINUOUS
 62
     5
 10
2250.099547
 20
362.885166
 11
2215.215279
 21
362.885166
  0
INSERT
  8
CSLAYER1
  2
BLKF0001
 10
0.0
 20
0.0
 30
0.0
  0
LINE
  8
CSLAYER1
  6
CONTINUOUS
 62
     3
 10
2045.815279
 20
384.885166
 11
2044.015279
 21
384.885166
  0
LINE
  8
CSLAYER1
  6
CONTINUOUS
 62
     5
 10
2185.215279
 20
384.885166
 11
2045.815279
 21
384.885166
  0
LINE
  8
CSLAYER1
  6
CONTINUOUS
 62
     5
 10
1184.748108
 20
1083.730784
 11
1211.282450
 21
1083.730784
  0
LINE
  8
CSLAYER1
  6
CONTINUOUS
 62
     5
 10
1198.015279
 20
1096.997955
 11
1198.015279
 21
1070.463613
  0
CIRCLE
  8
CSLAYER1
  6
CONTINUOUS
 62
     4
 10
1198.015279
 20
1083.730784
 40
8.000000
  0
CIRCLE
  8
CSLAYER1
  6
CONTINUOUS
 62
     4
 10
1379.182923
 20
640.651548
 40
14.000000
  0
LINE
  8
CSLAYER1
  6
CONTINUOUS
 62
     7
 10
1156.015279
 20
351.385166
 11
1156.015279
 21
286.385166
  0
LINE
  8
CSLAYER1
  6
CONTINUOUS
 62
     7
 10
2206.015279
 20
351.385166
 11
2206.015279
 21
286.385166
  0
LINE
  8
CSLAYER1
  6
CONTINUOUS
 62
     7
 10
1156.015279
 20
351.385166
 11
2206.015279
 21
351.385166
  0
LINE
  8
CSLAYER1
  6
CONTINUOUS
 62
     7
 10
1159.015279
 20
1207.930784
 11
2206.015279
 21
1207.930784
  0
LINE
  8
CSLAYER1
  6
CONTINUOUS
 62
     7
 10
1156.015279
 20
1204.930784
 11
1156.015279
 21
1154.930784
  0
LINE
  8
CSLAYER1
  6
CONTINUOUS
 62
     7
 10
2202.790103
 20
1154.930784
 11
2202.790103
 21
1132.730784
  0
ARC
  8
CSLAYER1
  6
CONTINUOUS
 62
     7
 10
1159.015279
 20
1204.930784
 40
3.000000
 50
90.000000
 51
180.000000
  0
LINE
  8
CSLAYER1
  6
CONTINUOUS
 62
     7
 10
1156.015279
 20
1154.930784
 11
2206.015279
 21
1154.930784
  0
LINE
  8
CSLAYER1
  6
CONTINUOUS
 62
     5
 10
1584.915945
 20
917.743234
 11
1748.600004
 21
1131.655076
  0
POINT
  8
CSLAYER1
 62
     5
 10
1379.182923
 20
640.651548
  0
LINE
  8
CSLAYER1
  6
CONTINUOUS
 62
     2
 10
1250.485458
 20
527.206375
 11
1256.507115
 21
522.683271
  0
LINE
  8
CSLAYER1
  6
CONTINUOUS
 62
     2
 10
1312.928859
 20
628.975678
 11
1358.828614
 21
690.082527
  0
LINE
  8
CSLAYER1
  6
CONTINUOUS
 62
     4
 10
1315.387750
 20
647.298040
 11
1323.195327
 21
657.692353
  0
LINE
  8
CSLAYER1
  6
CONTINUOUS
 62
     4
 10
1156.041605
 20
446.814111
 11
1202.337053
 21
412.039780
  0
LINE
  8
CSLAYER1
  6
CONTINUOUS
 62
     4
 10
1190.274827
 20
492.389176
 11
1214.261703
 21
474.371690
  0
LINE
  8
CSLAYER1
  6
CONTINUOUS
 62
     4
 10
1274.153801
 20
600.728077
 11
1297.426705
 21
583.246884
  0
LINE
  8
CSLAYER1
  6
CONTINUOUS
 62
     4
 10
1317.198608
 20
662.196725
 11
1334.188169
 21
649.435198
  0
LINE
  8
CSLAYER1
  6
CONTINUOUS
 62
     4
 10
1156.041605
 20
446.814111
 11
1190.274827
 21
492.389176
  0
LINE
  8
CSLAYER1
  6
CONTINUOUS
 62
     4
 10
1191.873952
 20
491.188010
 11
1278.958464
 21
607.124578
  0
LINE
  8
CSLAYER1
  6
CONTINUOUS
 62
     4
 10
1286.758753
 20
607.518893
 11
1316.187312
 21
646.697458
  0
LINE
  8
CSLAYER1
  6
CONTINUOUS
 62
     4
 10
1156.041605
 20
446.814111
 11
1165.629068
 21
429.607119
  0
LINE
  8
CSLAYER1
  6
CONTINUOUS
 62
     4
 10
1262.004395
 20
532.936913
 11
1267.282305
 21
528.972467
  0
LINE
  8
CSLAYER1
  6
CONTINUOUS
 62
     4
 10
1213.056893
 20
467.772567
 11
1227.334848
 21
457.047833
  0
LINE
  8
CSLAYER1
  6
CONTINUOUS
 62
     2
 10
1214.261703
 20
474.371690
 11
1257.803959
 21
532.339974
  0
LINE
  8
CSLAYER1
  6
CONTINUOUS
 62
     4
 10
1198.415831
 20
404.979693
 11
1165.629068
 21
429.607119
  0
ARC
  8
CSLAYER1
  6
CONTINUOUS
 62
     4
 10
1214.858642
 20
470.171254
 40
3.000000
 50
143.088348
 51
233.088348
  0
ARC
  8
CSLAYER1
  6
CONTINUOUS
 62
     4
 10
1260.202646
 20
530.538226
 40
3.000000
 50
53.088348
 51
143.088348
  0
LINE
  8
CSLAYER1
  6
CONTINUOUS
 62
     4
 10
1315.387750
 20
647.298040
 11
1327.816182
 21
637.962557
  0
LINE
  8
CSLAYER1
  6
CONTINUOUS
 62
     4
 10
1295.767496
 20
619.512331
 11
1311.150985
 21
607.957188
  0
LINE
  8
CSLAYER1
  6
CONTINUOUS
 62
     4
 10
1536.401602
 20
775.780559
 11
1629.896666
 21
900.251566
  0
LINE
  8
CSLAYER1
  6
CONTINUOUS
 62
     4
 10
1281.758755
 20
607.522537
 11
1302.328234
 21
592.071993
  0
ARC
  8
CSLAYER1
  6
CONTINUOUS
 62
     4
 10
1284.360066
 20
609.320642
 40
3.000000
 50
233.088348
 51
323.088348
  0
LINE
  8
CSLAYER1
  6
CONTINUOUS
 62
     4
 10
1212.459954
 20
471.973003
 11
1296.874362
 21
584.354831
  0
LINE
  8
CSLAYER1
  6
CONTINUOUS
 62
     4
 10
1198.270452
 20
486.383347
 11
1280.550301
 21
595.923415
  0
LINE
  8
CSLAYER1
  6
CONTINUOUS
 62
     4
 10
1196.671327
 20
487.584513
 11
1278.951176
 21
597.124580
  0
ARC
  8
CSLAYER1
  6
CONTINUOUS
 62
     4
 10
1280.557589
 20
605.923412
 40
2.000000
 50
53.088348
 51
143.088348
  0
LINE
  8
CSLAYER1
  6
CONTINUOUS
 62
     4
 10
1341.221921
 20
694.179226
 11
1353.794282
 21
684.735632
  0
LINE
  8
CSLAYER1
  6
CONTINUOUS
 62
     2
 10
1316.457612
 20
646.494425
 11
1328.770875
 21
637.245449
  0
LINE
  8
CSLAYER1
  6
CONTINUOUS
 62
     2
 10
1348.443975
 20
688.754458
 11
1354.445134
 21
684.246752
  0
LINE
  8
CSLAYER1
  6
CONTINUOUS
 62
     4
 10
1352.551183
 20
692.548134
 11
1356.490123
 21
689.589442
  0
LINE
  8
CSLAYER1
  6
CONTINUOUS
 62
     4
 10
1315.256446
 20
644.895300
 11
1327.569709
 21
635.646324
  0
LINE
  8
CSLAYER1
  6
CONTINUOUS
 62
     4
 10
1315.256446
 20
644.895300
 11
1316.457612
 21
646.494425
  0
LINE
  8
CSLAYER1
  6
CONTINUOUS
 62
     4
 10
1312.312133
 20
638.977444
 11
1322.706446
 21
631.169867
  0
LINE
  8
CSLAYER1
  6
CONTINUOUS
 62
     4
 10
1351.398508
 20
692.687861
 11
1348.443975
 21
688.754458
  0
LINE
  8
CSLAYER1
  6
CONTINUOUS
 62
     4
 10
1354.399088
 20
690.434008
 11
1351.444554
 21
686.500605
  0
LINE
  8
CSLAYER1
  6
CONTINUOUS
 62
     4
 10
1312.312133
 20
638.977444
 11
1311.856802
 21
640.045554
  0
LINE
  8
CSLAYER1
  6
CONTINUOUS
 62
     4
 10
1352.551183
 20
692.548134
 11
1351.398508
 21
692.687861
  0
LINE
  8
CSLAYER1
  6
CONTINUOUS
 62
     4
 10
1315.411918
 20
644.778519
 11
1311.856802
 21
640.045554
  0
ARC
  8
CSLAYER1
  6
CONTINUOUS
 62
     4
 10
1314.977124
 20
641.075393
 40
3.285875
 50
208.401853
 51
268.052731
  0
ARC
  8
CSLAYER1
  6
CONTINUOUS
 62
     4
 10
1351.298290
 20
689.430161
 40
3.259241
 50
17.716730
 51
78.654247
  0
ARC
  8
CSLAYER1
  6
CONTINUOUS
 62
     4
 10
1350.289435
 20
678.714224
 40
12.419443
 50
60.304512
 51
70.676302
  0
ARC
  8
CSLAYER1
  6
CONTINUOUS
 62
     4
 10
1324.968194
 20
645.003777
 40
12.419443
 50
215.500394
 51
250.676302
  0
LINE
  8
CSLAYER1
  6
CONTINUOUS
 62
     4
 10
1318.412498
 20
642.524665
 11
1314.857382
 21
637.791700
  0
LINE
  8
CSLAYER1
  6
CONTINUOUS
 62
     4
 10
1312.768693
 20
634.257110
 11
1318.045806
 21
630.293263
  0
LINE
  8
CSLAYER1
  6
CONTINUOUS
 62
     4
 10
1312.629407
 20
635.237212
 11
1314.311039
 21
637.475987
  0
LINE
  8
CSLAYER1
  6
CONTINUOUS
 62
     2
 10
1312.768693
 20
634.257110
 11
1314.870733
 21
637.055579
  0
LINE
  8
CSLAYER1
  6
CONTINUOUS
 62
     4
 10
1312.629407
 20
635.237212
 11
1312.768693
 21
634.257110
  0
LINE
  8
CSLAYER1
  6
CONTINUOUS
 62
     4
 10
1312.629407
 20
635.237212
 11
1319.025907
 21
630.432549
  0
LINE
  8
CSLAYER1
  6
CONTINUOUS
 62
     2
 10
1327.569709
 20
635.646324
 11
1328.770875
 21
637.245449
  0
LINE
  8
CSLAYER1
  6
CONTINUOUS
 62
     4
 10
1322.706446
 20
631.169867
 11
1323.859121
 21
631.030140
  0
LINE
  8
CSLAYER1
  6
CONTINUOUS
 62
     2
 10
1327.414237
 20
635.763105
 11
1323.859121
 21
631.030140
  0
ARC
  8
CSLAYER1
  6
CONTINUOUS
 62
     4
 10
1323.978863
 20
634.313833
 40
3.285875
 50
198.123965
 51
257.774843
  0
LINE
  8
CSLAYER1
  6
CONTINUOUS
 62
     4
 10
1324.413657
 20
638.016959
 11
1320.858541
 21
633.283994
  0
LINE
  8
CSLAYER1
  6
CONTINUOUS
 62
     4
 10
1319.025907
 20
630.432549
 11
1320.707539
 21
632.671324
  0
LINE
  8
CSLAYER1
  6
CONTINUOUS
 62
     2
 10
1318.045806
 20
630.293263
 11
1320.147846
 21
633.091732
  0
LINE
  8
CSLAYER1
  6
CONTINUOUS
 62
     4
 10
1319.025907
 20
630.432549
 11
1318.045806
 21
630.293263
  0
LINE
  8
CSLAYER1
  6
CONTINUOUS
 62
     4
 10
1321.341375
 20
642.826039
 11
1323.124589
 21
638.985229
  0
LINE
  8
CSLAYER1
  6
CONTINUOUS
 62
     4
 10
1317.198608
 20
662.196725
 11
1341.221921
 21
694.179226
  0
LINE
  8
CSLAYER1
  6
CONTINUOUS
 62
     5
 10
1355.982275
 20
658.078466
 11
1404.199819
 21
621.860374
  0
POINT
  8
CSLAYER1
 62
     6
 10
1379.182923
 20
640.651548
  0
POINT
  8
CSLAYER1
 62
     5
 10
1492.747203
 20
698.557975
  0
POINT
  8
CSLAYER1
 62
     1
 10
1492.747203
 20
698.557975
  0
LINE
  8
CSLAYER1
  6
CONTINUOUS
 62
     1
 10
1648.194763
 20
1001.967877
 11
1730.196583
 21
1107.275122
  0
LINE
  8
CSLAYER1
  6
CONTINUOUS
 62
     5
 10
1362.229669
 20
618.081494
 11
1395.517157
 21
662.397493
  0
POINT
  8
CSLAYER1
 62
     5
 10
1198.015279
 20
1083.730784
  0
LINE
  8
CSLAYER1
  6
CONTINUOUS
 62
     5
 10
1787.479127
 20
1109.875627
 11
1787.479127
 21
1055.344913
  0
LINE
  8
CSLAYER1
  6
CONTINUOUS
 62
     5
 10
1758.097567
 20
1083.730784
 11
1813.593427
 21
1083.730784
  0
LINE
  8
CSLAYER1
  6
CONTINUOUS
 62
     7
 10
2187.790103
 20
1104.730784
 11
1740.790103
 21
1104.730784
  0
LINE
  8
CSLAYER1
  6
CONTINUOUS
 62
     5
 10
1667.573807
 20
1131.410489
 11
1769.809463
 21
1053.180378
  0
LINE
  8
CSLAYER1
  6
CONTINUOUS
 62
     5
 10
1564.265710
 20
996.401463
 11
1666.501366
 21
918.171352
  0
ARC
  8
CSLAYER1
  6
CONTINUOUS
 62
     4
 10
1615.093521
 20
578.118777
 40
30.000000
 50
11.696960
 51
24.832507
  0
LINE
  8
CSLAYER1
  6
CONTINUOUS
 62
     4
 10
1642.319702
 20
590.717788
 11
1574.440578
 21
737.403053
  0
ARC
  8
CSLAYER1
  6
CONTINUOUS
 62
     4
 10
1511.278044
 20
708.174367
 40
69.597570
 50
24.832507
 51
69.373343
  0
LINE
  8
CSLAYER1
  6
CONTINUOUS
 62
     4
 10
1168.015279
 20
1154.930784
 11
1168.015279
 21
1064.730784
  0
LINE
  8
CSLAYER1
  6
CONTINUOUS
 62
     4
 10
1218.015279
 20
1154.930784
 11
1218.015279
 21
1079.730784
  0
ARC
  8
CSLAYER1
  6
CONTINUOUS
 62
     4
 10
1203.015279
 20
1079.730784
 40
15.000000
 50
270.000000
 51
360.000000
  0
LINE
  8
CSLAYER1
  6
CONTINUOUS
 62
     4
 10
1168.015279
 20
1064.730784
 11
1203.015279
 21
1064.730784
  0
LINE
  8
CSLAYER1
  6
CONTINUOUS
 62
     7
 10
2199.790103
 20
1129.730784
 11
1270.790103
 21
1129.730784
  0
LINE
  8
CSLAYER1
  6
CONTINUOUS
 62
     4
 10
1189.888814
 20
1064.730784
 11
1435.913502
 21
743.211422
  0
LINE
  8
CSLAYER1
  6
CONTINUOUS
 62
     4
 10
1504.071840
 20
644.264766
 11
1520.990758
 21
632.027519
  0
LINE
  8
CSLAYER1
  6
CONTINUOUS
 62
     4
 10
1520.990758
 20
632.027519
 11
1735.736604
 21
351.385166
  0
LINE
  8
CSLAYER1
  6
CONTINUOUS
 62
     4
 10
1400.623397
 20
769.050559
 11
1408.381725
 21
779.191548
  0
ARC
  8
CSLAYER1
  6
CONTINUOUS
 62
     4
 10
1615.227401
 20
957.398855
 40
59.000000
 50
280.806980
 51
322.582328
  0
LINE
  8
CSLAYER1
  6
CONTINUOUS
 62
     4
 10
1249.807376
 20
351.385166
 11
1464.509835
 21
632.024893
  0
LINE
  8
CSLAYER1
  6
CONTINUOUS
 62
     4
 10
1538.629708
 20
784.863666
 11
1527.049077
 21
737.654014
  0
LINE
  8
CSLAYER1
  6
CONTINUOUS
 62
     4
 10
1481.427616
 20
644.263713
 11
1464.509835
 21
632.024893
  0
LINE
  8
CSLAYER1
  6
CONTINUOUS
 62
     4
 10
1481.427616
 20
644.263713
 11
1492.749040
 21
659.062059
  0
LINE
  8
CSLAYER1
  6
CONTINUOUS
 62
     4
 10
1538.629708
 20
784.863666
 11
1626.289959
 21
899.445254
  0
LINE
  8
CSLAYER1
  6
CONTINUOUS
 62
     7
 10
2190.790103
 20
1154.930784
 11
2190.790103
 21
1107.730784
  0
LINE
  8
CSLAYER1
  6
CONTINUOUS
 62
     7
 10
1245.590103
 20
1154.930784
 11
1270.790103
 21
1129.730784
  0
LINE
  8
CSLAYER1
  6
CONTINUOUS
 62
     4
 10
1268.902721
 20
1075.014676
 11
1797.597101
 21
384.086132
  0
LINE
  8
CSLAYER1
  6
CONTINUOUS
 62
     4
 10
1268.902721
 20
1075.014676
 11
1218.015279
 21
1095.169785
  0
LINE
  8
CSLAYER1
  6
CONTINUOUS
 62
     4
 10
1797.597101
 20
384.086132
 11
1801.295821
 21
351.385166
  0
LINE
  8
CSLAYER1
  6
CONTINUOUS
 62
     4
 10
1187.135261
 20
384.669244
 11
1183.786366
 21
351.385166
  0
LINE
  8
CSLAYER1
  6
CONTINUOUS
 62
     4
 10
1400.623397
 20
769.050559
 11
1187.135261
 21
384.669244
  0
LINE
  8
CSLAYER1
  6
CONTINUOUS
 62
     4
 10
1504.071840
 20
644.264766
 11
1443.302371
 21
723.681840
  0
LINE
  8
CSLAYER1
  6
CONTINUOUS
 62
     7
 10
2199.790103
 20
1129.730784
 11
2202.790103
 21
1132.730784
  0
LINE
  8
CSLAYER1
  6
CONTINUOUS
 62
     7
 10
2190.790103
 20
1107.730784
 11
2187.790103
 21
1104.730784
  0
LINE
  8
CSLAYER1
  6
CONTINUOUS
 62
     4
 10
1443.302371
 20
723.681840
 11
1435.913502
 21
743.211422
  0
LINE
  8
CSLAYER1
  6
CONTINUOUS
 62
     4
 10
1451.819080
 20
835.968947
 11
1676.560565
 21
1129.730784
  0
CIRCLE
  8
CSLAYER1
  6
CONTINUOUS
 62
     4
 10
1492.747203
 20
698.557975
 40
15.000000
  0
CIRCLE
  8
CSLAYER1
  6
CONTINUOUS
 62
     4
 10
1492.747203
 20
698.557975
 40
10.000000
  0
CIRCLE
  8
CSLAYER1
  6
CONTINUOUS
 62
     4
 10
1492.747203
 20
698.557975
 40
9.000000
  0
LINE
  8
CSLAYER1
  6
CONTINUOUS
 62
     4
 10
1507.747203
 20
707.218229
 11
1492.747203
 21
715.878483
  0
LINE
  8
CSLAYER1
  6
CONTINUOUS
 62
     4
 10
1492.747203
 20
715.878483
 11
1477.747203
 21
707.218229
  0
LINE
  8
CSLAYER1
  6
CONTINUOUS
 62
     4
 10
1477.747203
 20
707.218229
 11
1477.747203
 21
689.897721
  0
LINE
  8
CSLAYER1
  6
CONTINUOUS
 62
     4
 10
1477.747203
 20
689.897721
 11
1492.747203
 21
681.237467
  0
LINE
  8
CSLAYER1
  6
CONTINUOUS
 62
     4
 10
1492.747203
 20
681.237467
 11
1507.747203
 21
689.897721
  0
LINE
  8
CSLAYER1
  6
CONTINUOUS
 62
     4
 10
1507.747203
 20
689.897721
 11
1507.747203
 21
707.218229
  0
CIRCLE
  8
CSLAYER1
  6
CONTINUOUS
 62
     4
 10
1787.479127
 20
1083.730784
 40
21.000000
  0
CIRCLE
  8
CSLAYER1
  6
CONTINUOUS
 62
     4
 10
1787.479127
 20
1083.730784
 40
7.500000
  0
LINE
  8
CSLAYER1
  6
CONTINUOUS
 62
     4
 10
1689.842448
 20
1107.998631
 11
1741.934828
 21
1068.869998
  0
LINE
  8
CSLAYER1
  6
CONTINUOUS
 62
     4
 10
1583.058265
 20
962.024507
 11
1673.054516
 21
1081.837506
  0
LINE
  8
CSLAYER1
  6
CONTINUOUS
 62
     4
 10
1720.679143
 20
1047.002790
 11
1674.104625
 21
1081.986740
  0
LINE
  8
CSLAYER1
  6
CONTINUOUS
 62
     4
 10
1720.679143
 20
1047.002790
 11
1720.878123
 21
1045.602645
  0
LINE
  8
CSLAYER1
  6
CONTINUOUS
 62
     4
 10
1674.104625
 20
1081.986740
 11
1673.054516
 21
1081.837506
  0
LINE
  8
CSLAYER1
  6
CONTINUOUS
 62
     4
 10
1682.456136
 20
1075.713593
 11
1686.869131
 21
1078.250990
  0
LINE
  8
CSLAYER1
  6
CONTINUOUS
 62
     4
 10
1686.869131
 20
1078.250990
 11
1687.420450
 21
1071.984701
  0
LINE
  8
CSLAYER1
  6
CONTINUOUS
 62
     4
 10
1687.420450
 20
1071.984701
 11
1689.214908
 21
1073.563861
  0
LINE
  8
CSLAYER1
  6
CONTINUOUS
 62
     4
 10
1687.420450
 20
1071.984701
 11
1686.555549
 21
1078.070685
  0
LINE
  8
CSLAYER1
  6
CONTINUOUS
 62
     4
 10
1687.194300
 20
1072.154572
 11
1686.368799
 21
1077.963307
  0
LINE
  8
CSLAYER1
  6
CONTINUOUS
 62
     4
 10
1686.968149
 20
1072.324442
 11
1686.182050
 21
1077.855930
  0
LINE
  8
CSLAYER1
  6
CONTINUOUS
 62
     4
 10
1686.741999
 20
1072.494312
 11
1685.995300
 21
1077.748552
  0
LINE
  8
CSLAYER1
  6
CONTINUOUS
 62
     4
 10
1686.515848
 20
1072.664183
 11
1685.808550
 21
1077.641174
  0
LINE
  8
CSLAYER1
  6
CONTINUOUS
 62
     4
 10
1686.289698
 20
1072.834053
 11
1685.621801
 21
1077.533796
  0
LINE
  8
CSLAYER1
  6
CONTINUOUS
 62
     4
 10
1686.063547
 20
1073.003924
 11
1685.435051
 21
1077.426418
  0
LINE
  8
CSLAYER1
  6
CONTINUOUS
 62
     4
 10
1685.837397
 20
1073.173794
 11
1685.248301
 21
1077.319040
  0
LINE
  8
CSLAYER1
  6
CONTINUOUS
 62
     4
 10
1685.611247
 20
1073.343665
 11
1685.061552
 21
1077.211662
  0
LINE
  8
CSLAYER1
  6
CONTINUOUS
 62
     4
 10
1685.385096
 20
1073.513535
 11
1684.874802
 21
1077.104284
  0
LINE
  8
CSLAYER1
  6
CONTINUOUS
 62
     4
 10
1685.158946
 20
1073.683406
 11
1684.688052
 21
1076.996907
  0
LINE
  8
CSLAYER1
  6
CONTINUOUS
 62
     4
 10
1684.932795
 20
1073.853276
 11
1684.501303
 21
1076.889529
  0
LINE
  8
CSLAYER1
  6
CONTINUOUS
 62
     4
 10
1684.706645
 20
1074.023147
 11
1684.314553
 21
1076.782151
  0
LINE
  8
CSLAYER1
  6
CONTINUOUS
 62
     4
 10
1684.480494
 20
1074.193017
 11
1684.127803
 21
1076.674773
  0
LINE
  8
CSLAYER1
  6
CONTINUOUS
 62
     4
 10
1684.254344
 20
1074.362888
 11
1683.941054
 21
1076.567395
  0
LINE
  8
CSLAYER1
  6
CONTINUOUS
 62
     4
 10
1684.028194
 20
1074.532758
 11
1683.754304
 21
1076.460017
  0
LINE
  8
CSLAYER1
  6
CONTINUOUS
 62
     4
 10
1683.802043
 20
1074.702629
 11
1683.567554
 21
1076.352639
  0
LINE
  8
CSLAYER1
  6
CONTINUOUS
 62
     4
 10
1683.575893
 20
1074.872499
 11
1683.380805
 21
1076.245261
  0
LINE
  8
CSLAYER1
  6
CONTINUOUS
 62
     4
 10
1683.349742
 20
1075.042370
 11
1683.194055
 21
1076.137883
  0
LINE
  8
CSLAYER1
  6
CONTINUOUS
 62
     4
 10
1683.123592
 20
1075.212240
 11
1683.007305
 21
1076.030506
  0
LINE
  8
CSLAYER1
  6
CONTINUOUS
 62
     4
 10
1682.897441
 20
1075.382111
 11
1682.820556
 21
1075.923128
  0
LINE
  8
CSLAYER1
  6
CONTINUOUS
 62
     4
 10
1682.671291
 20
1075.551981
 11
1682.633806
 21
1075.815750
  0
LINE
  8
CSLAYER1
  6
CONTINUOUS
 62
     4
 10
1687.600004
 20
1072.142712
 11
1686.742299
 21
1078.178063
  0
LINE
  8
CSLAYER1
  6
CONTINUOUS
 62
     4
 10
1687.779558
 20
1072.300724
 11
1686.968591
 21
1078.007193
  0
LINE
  8
CSLAYER1
  6
CONTINUOUS
 62
     4
 10
1687.959112
 20
1072.458735
 11
1687.271491
 21
1077.297263
  0
LINE
  8
CSLAYER1
  6
CONTINUOUS
 62
     4
 10
1688.138666
 20
1072.616746
 11
1687.565575
 21
1076.649370
  0
LINE
  8
CSLAYER1
  6
CONTINUOUS
 62
     4
 10
1688.318220
 20
1072.774757
 11
1687.852631
 21
1076.050935
  0
LINE
  8
CSLAYER1
  6
CONTINUOUS
 62
     4
 10
1688.497774
 20
1072.932769
 11
1688.133905
 21
1075.493179
  0
LINE
  8
CSLAYER1
  6
CONTINUOUS
 62
     4
 10
1688.677328
 20
1073.090780
 11
1688.410310
 21
1074.969686
  0
LINE
  8
CSLAYER1
  6
CONTINUOUS
 62
     4
 10
1688.856882
 20
1073.248791
 11
1688.682537
 21
1074.475594
  0
LINE
  8
CSLAYER1
  6
CONTINUOUS
 62
     4
 10
1689.036436
 20
1073.406803
 11
1688.951123
 21
1074.007118
  0
LINE
  8
CSLAYER1
  6
CONTINUOUS
 62
     4
 10
1712.527523
 20
1053.125792
 11
1713.734994
 21
1058.070984
  0
LINE
  8
CSLAYER1
  6
CONTINUOUS
 62
     4
 10
1713.734994
 20
1058.070984
 11
1707.563209
 21
1056.854684
  0
LINE
  8
CSLAYER1
  6
CONTINUOUS
 62
     4
 10
1707.563209
 20
1056.854684
 11
1708.579909
 21
1059.018048
  0
LINE
  8
CSLAYER1
  6
CONTINUOUS
 62
     4
 10
1707.563209
 20
1056.854684
 11
1713.649193
 21
1057.719585
  0
LINE
  8
CSLAYER1
  6
CONTINUOUS
 62
     4
 10
1707.789359
 20
1056.684813
 11
1713.598095
 21
1057.510313
  0
LINE
  8
CSLAYER1
  6
CONTINUOUS
 62
     4
 10
1708.015509
 20
1056.514943
 11
1713.546997
 21
1057.301042
  0
LINE
  8
CSLAYER1
  6
CONTINUOUS
 62
     4
 10
1708.241660
 20
1056.345072
 11
1713.495899
 21
1057.091771
  0
LINE
  8
CSLAYER1
  6
CONTINUOUS
 62
     4
 10
1708.467810
 20
1056.175202
 11
1713.444801
 21
1056.882500
  0
LINE
  8
CSLAYER1
  6
CONTINUOUS
 62
     4
 10
1708.693961
 20
1056.005331
 11
1713.393703
 21
1056.673229
  0
LINE
  8
CSLAYER1
  6
CONTINUOUS
 62
     4
 10
1708.920111
 20
1055.835461
 11
1713.342605
 21
1056.463957
  0
LINE
  8
CSLAYER1
  6
CONTINUOUS
 62
     4
 10
1709.146262
 20
1055.665590
 11
1713.291507
 21
1056.254686
  0
LINE
  8
CSLAYER1
  6
CONTINUOUS
 62
     4
 10
1709.372412
 20
1055.495720
 11
1713.240409
 21
1056.045415
  0
LINE
  8
CSLAYER1
  6
CONTINUOUS
 62
     4
 10
1709.598563
 20
1055.325849
 11
1713.189312
 21
1055.836144
  0
LINE
  8
CSLAYER1
  6
CONTINUOUS
 62
     4
 10
1709.824713
 20
1055.155979
 11
1713.138214
 21
1055.626872
  0
LINE
  8
CSLAYER1
  6
CONTINUOUS
 62
     4
 10
1710.050863
 20
1054.986108
 11
1713.087116
 21
1055.417601
  0
LINE
  8
CSLAYER1
  6
CONTINUOUS
 62
     4
 10
1710.277014
 20
1054.816238
 11
1713.036018
 21
1055.208330
  0
LINE
  8
CSLAYER1
  6
CONTINUOUS
 62
     4
 10
1710.503164
 20
1054.646367
 11
1712.984920
 21
1054.999059
  0
LINE
  8
CSLAYER1
  6
CONTINUOUS
 62
     4
 10
1710.729315
 20
1054.476497
 11
1712.933822
 21
1054.789787
  0
LINE
  8
CSLAYER1
  6
CONTINUOUS
 62
     4
 10
1710.955465
 20
1054.306626
 11
1712.882724
 21
1054.580516
  0
LINE
  8
CSLAYER1
  6
CONTINUOUS
 62
     4
 10
1711.181616
 20
1054.136756
 11
1712.831626
 21
1054.371245
  0
LINE
  8
CSLAYER1
  6
CONTINUOUS
 62
     4
 10
1711.407766
 20
1053.966885
 11
1712.780528
 21
1054.161974
  0
LINE
  8
CSLAYER1
  6
CONTINUOUS
 62
     4
 10
1711.633916
 20
1053.797015
 11
1712.729430
 21
1053.952702
  0
LINE
  8
CSLAYER1
  6
CONTINUOUS
 62
     4
 10
1711.860067
 20
1053.627144
 11
1712.678332
 21
1053.743431
  0
LINE
  8
CSLAYER1
  6
CONTINUOUS
 62
     4
 10
1712.086217
 20
1053.457274
 11
1712.627234
 21
1053.534160
  0
LINE
  8
CSLAYER1
  6
CONTINUOUS
 62
     4
 10
1712.312368
 20
1053.287404
 11
1712.576136
 21
1053.324889
  0
LINE
  8
CSLAYER1
  6
CONTINUOUS
 62
     4
 10
1707.664940
 20
1057.071151
 11
1713.700291
 21
1057.928856
  0
LINE
  8
CSLAYER1
  6
CONTINUOUS
 62
     4
 10
1707.766671
 20
1057.287617
 11
1713.473141
 21
1058.098584
  0
LINE
  8
CSLAYER1
  6
CONTINUOUS
 62
     4
 10
1707.868403
 20
1057.504084
 11
1712.706931
 21
1058.191705
  0
LINE
  8
CSLAYER1
  6
CONTINUOUS
 62
     4
 10
1707.970134
 20
1057.720551
 11
1712.002758
 21
1058.293642
  0
LINE
  8
CSLAYER1
  6
CONTINUOUS
 62
     4
 10
1708.071865
 20
1057.937018
 11
1711.348043
 21
1058.402608
  0
LINE
  8
CSLAYER1
  6
CONTINUOUS
 62
     4
 10
1708.173596
 20
1058.153485
 11
1710.734007
 21
1058.517354
  0
LINE
  8
CSLAYER1
  6
CONTINUOUS
 62
     4
 10
1708.275328
 20
1058.369952
 11
1710.154233
 21
1058.636970
  0
LINE
  8
CSLAYER1
  6
CONTINUOUS
 62
     4
 10
1708.377059
 20
1058.586419
 11
1709.603862
 21
1058.760764
  0
LINE
  8
CSLAYER1
  6
CONTINUOUS
 62
     4
 10
1708.478790
 20
1058.802886
 11
1709.079106
 21
1058.888199
  0
CIRCLE
  8
CSLAYER1
  6
CONTINUOUS
 62
     4
 10
1715.659460
 20
1088.606459
 40
22.000000
  0
CIRCLE
  8
CSLAYER1
  6
CONTINUOUS
 62
     4
 10
1715.659460
 20
1088.606459
 40
22.250000
  0
ARC
  8
CSLAYER1
  6
CONTINUOUS
 62
     4
 10
1715.659460
 20
1088.606459
 40
30.250000
 50
-270.204447
 51
14.389295
  0
POINT
  8
CSLAYER1
 62
     4
 10
1603.328966
 20
944.350942
  0
ARC
  8
CSLAYER1
  6
CONTINUOUS
 62
     4
 10
1603.328966
 20
944.350942
 40
15.050000
 50
-69.738110
 51
20.126675
  0
ARC
  8
CSLAYER1
  6
CONTINUOUS
 62
     4
 10
1613.752949
 20
916.113546
 40
15.050000
 50
110.261890
 51
133.108846
  0
ARC
  8
CSLAYER1
  6
CONTINUOUS
 62
     4
 10
1573.398114
 20
947.537498
 40
15.050000
 50
335.109935
 51
353.922957
  0
ARC
  8
CSLAYER1
  6
CONTINUOUS
 62
     4
 10
1603.328966
 20
944.350942
 40
13.000000
 50
104.461194
 51
359.723654
  0
ARC
  8
CSLAYER1
  6
CONTINUOUS
 62
     4
 10
1603.328966
 20
944.350942
 40
15.050000
 50
84.058173
 51
173.922957
  0
POINT
  8
CSLAYER1
 62
     4
 10
1622.835833
 20
969.401783
  0
POINT
  8
CSLAYER1
 62
     4
 10
1642.342701
 20
994.452623
  0
CIRCLE
  8
CSLAYER1
  6
CONTINUOUS
 62
     4
 10
1603.328966
 20
944.350942
 40
4.770000
  0
CIRCLE
  8
CSLAYER1
  6
CONTINUOUS
 62
     4
 10
1622.835833
 20
969.401783
 40
4.770000
  0
ARC
  8
CSLAYER1
  6
CONTINUOUS
 62
     4
 10
1622.835833
 20
969.401783
 40
13.000000
 50
-75.538806
 51
179.723654
  0
ARC
  8
CSLAYER1
  6
CONTINUOUS
 62
     4
 10
1622.835833
 20
969.401783
 40
15.050000
 50
264.058173
 51
353.922957
  0
ARC
  8
CSLAYER1
  6
CONTINUOUS
 62
     4
 10
1642.342701
 20
994.452623
 40
15.050000
 50
-69.738110
 51
20.126675
  0
ARC
  8
CSLAYER1
  6
CONTINUOUS
 62
     4
 10
1629.328663
 20
944.225541
 40
13.000000
 50
104.461194
 51
179.723654
  0
ARC
  8
CSLAYER1
  6
CONTINUOUS
 62
     4
 10
1596.836136
 20
969.527184
 40
13.000000
 50
284.461194
 51
359.723654
  0
ARC
  8
CSLAYER1
  6
CONTINUOUS
 62
     4
 10
1652.766685
 20
966.215226
 40
15.050000
 50
110.261890
 51
173.922957
  0
ARC
  8
CSLAYER1
  6
CONTINUOUS
 62
     4
 10
1612.411850
 20
997.639179
 40
15.050000
 50
290.261890
 51
353.922957
  0
CIRCLE
  8
CSLAYER1
  6
CONTINUOUS
 62
     4
 10
1603.328966
 20
944.350942
 40
9.525000
  0
CIRCLE
  8
CSLAYER1
  6
CONTINUOUS
 62
     4
 10
1622.835833
 20
969.401783
 40
9.525000
  0
ARC
  8
CSLAYER1
  6
CONTINUOUS
 62
     4
 10
1622.835833
 20
969.401783
 40
15.050000
 50
110.261890
 51
200.126675
  0
ARC
  8
CSLAYER1
  6
CONTINUOUS
 62
     4
 10
1642.342701
 20
994.452623
 40
13.000000
 50
104.461194
 51
359.723654
  0
ARC
  8
CSLAYER1
  6
CONTINUOUS
 62
     4
 10
1642.342701
 20
994.452623
 40
15.050000
 50
84.058173
 51
173.922957
  0
POINT
  8
CSLAYER1
 62
     4
 10
1715.659460
 20
1088.606459
  0
POINT
  8
CSLAYER1
 62
     4
 10
1661.849569
 20
1019.503464
  0
LINE
  8
CSLAYER1
  6
CONTINUOUS
 62
     4
 10
1680.947674
 20
1023.643279
 11
1661.183153
 21
1039.033737
  0
LINE
  8
CSLAYER1
  6
CONTINUOUS
 62
     4
 10
1642.983075
 20
1015.183300
 11
1662.284380
 21
1000.153545
  0
CIRCLE
  8
CSLAYER1
  6
CONTINUOUS
 62
     4
 10
1661.849570
 20
1019.503465
 40
4.770000
  0
ARC
  8
CSLAYER1
  6
CONTINUOUS
 62
     4
 10
1661.849570
 20
1019.503465
 40
13.000000
 50
-76.877857
 51
179.723654
  0
ARC
  8
CSLAYER1
  6
CONTINUOUS
 62
     4
 10
1668.342400
 20
994.327223
 40
13.000000
 50
104.461194
 51
179.723654
  0
ARC
  8
CSLAYER1
  6
CONTINUOUS
 62
     4
 10
1635.849873
 20
1019.628867
 40
13.000000
 50
284.461194
 51
359.723654
  0
LINE
  8
CSLAYER1
  6
CONTINUOUS
 62
     4
 10
1641.077069
 20
1018.199560
 11
1658.023398
 21
1039.962140
  0
LINE
  8
CSLAYER1
  6
CONTINUOUS
 62
     4
 10
1663.496678
 20
1035.714396
 11
1646.536533
 21
1013.934073
  0
LINE
  8
CSLAYER1
  6
CONTINUOUS
 62
     4
 10
1648.194763
 20
1001.967877
 11
1730.196583
 21
1107.275122
  0
ARC
  8
CSLAYER1
  6
CONTINUOUS
 62
     4
 10
1658.074753
 20
1034.378241
 40
5.584136
 50
13.843874
 51
90.526941
  0
ARC
  8
CSLAYER1
  6
CONTINUOUS
 62
     4
 10
1651.458800
 20
1006.159573
 40
31.912350
 50
36.346245
 51
67.838602
  0
LINE
  8
CSLAYER1
  6
CONTINUOUS
 62
     4
 10
1650.704608
 20
1028.181948
 11
1672.985331
 21
1010.832147
  0
ARC
  8
CSLAYER1
  6
CONTINUOUS
 62
     4
 10
1646.503301
 20
1019.518110
 40
5.584136
 50
193.657906
 51
270.340973
  0
ARC
  8
CSLAYER1
  6
CONTINUOUS
 62
     4
 10
1672.240341
 20
1032.847357
 40
31.912350
 50
216.346245
 51
247.838602
  0
LINE
  8
CSLAYER1
  6
CONTINUOUS
 62
     4
 10
1665.675743
 20
999.044790
 11
1682.622072
 21
1020.807370
  0
LINE
  8
CSLAYER1
  6
CONTINUOUS
 62
     4
 10
1677.162608
 20
1025.072857
 11
1660.202463
 21
1003.292534
  0
ARC
  8
CSLAYER1
  6
CONTINUOUS
 62
     4
 10
1677.195839
 20
1019.488820
 40
5.584136
 50
13.657906
 51
90.340973
  0
ARC
  8
CSLAYER1
  6
CONTINUOUS
 62
     4
 10
1665.624387
 20
1004.628690
 40
5.584136
 50
193.843874
 51
270.526941
  0
LINE
  8
CSLAYER1
  6
CONTINUOUS
 62
     4
 10
1717.476145
 20
1119.130868
 11
1721.849237
 21
1124.746820
  0
LINE
  8
CSLAYER1
  6
CONTINUOUS
 62
     4
 10
1724.309110
 20
1113.810098
 11
1731.014384
 21
1122.421052
  0
LINE
  8
CSLAYER1
  6
CONTINUOUS
 62
     4
 10
1745.738628
 20
1097.123122
 11
1716.545522
 21
1119.855535
  0
LINE
  8
CSLAYER1
  6
CONTINUOUS
 62
     4
 10
1728.522875
 20
1129.540215
 11
1728.830070
 21
1129.934716
  0
LINE
  8
CSLAYER1
  6
CONTINUOUS
 62
     4
 10
1744.808005
 20
1097.847790
 11
1749.117511
 21
1103.382084
  0
LINE
  8
CSLAYER1
  6
CONTINUOUS
 62
     4
 10
1737.975040
 20
1103.168559
 11
1739.191531
 21
1104.730784
  0
LINE
  8
CSLAYER1
  6
CONTINUOUS
 62
     4
 10
1670.502785
 20
1044.450847
 11
1696.485973
 21
1077.818619
  0
LINE
  8
CSLAYER1
  6
CONTINUOUS
 62
     4
 10
1664.404164
 20
1039.060409
 11
1695.729903
 21
1079.289117
  0
LINE
  8
CSLAYER1
  6
CONTINUOUS
 62
     4
 10
1743.772581
 20
1094.598313
 11
1714.579476
 21
1117.330726
  0
LINE
  8
CSLAYER1
  6
CONTINUOUS
 62
     4
 10
1743.772581
 20
1094.598313
 11
1745.738628
 21
1097.123122
  0
LINE
  8
CSLAYER1
  6
CONTINUOUS
 62
     4
 10
1714.579476
 20
1117.330726
 11
1716.545522
 21
1119.855535
  0
LINE
  8
CSLAYER1
  6
CONTINUOUS
 62
     4
 10
1669.319280
 20
1045.372432
 11
1685.099337
 21
1033.084641
  0
LINE
  8
CSLAYER1
  6
CONTINUOUS
 62
     4
 10
1670.502785
 20
1044.450847
 11
1667.723049
 21
1043.322542
  0
LINE
  8
CSLAYER1
  6
CONTINUOUS
 62
     4
 10
1683.915833
 20
1034.006225
 11
1709.899022
 21
1067.373997
  0
LINE
  8
CSLAYER1
  6
CONTINUOUS
 62
     4
 10
1683.915833
 20
1034.006225
 11
1683.503106
 21
1031.034751
  0
LINE
  8
CSLAYER1
  6
CONTINUOUS
 62
     4
 10
1680.184221
 20
1026.772618
 11
1711.509960
 21
1067.001327
  0
ARC
  8
CSLAYER1
  6
CONTINUOUS
 62
     4
 10
1681.762227
 20
1025.543839
 40
2.000000
 50
142.092424
 51
232.092424
  0
ARC
  8
CSLAYER1
  6
CONTINUOUS
 62
     4
 10
1662.826158
 20
1040.289188
 40
2.000000
 50
232.092424
 51
322.092424
  0
POINT
  8
CSLAYER1
 62
     4
 10
1671.065413
 20
1031.338508
  0
LINE
  8
CSLAYER1
  6
CONTINUOUS
 62
     4
 10
1719.808957
 20
1110.211588
 11
1721.286000
 21
1112.108415
  0
LINE
  8
CSLAYER1
  6
CONTINUOUS
 62
     4
 10
1721.419896
 20
1109.838917
 11
1722.469504
 21
1111.186831
  0
LINE
  8
CSLAYER1
  6
CONTINUOUS
 62
     4
 10
1735.625710
 20
1097.970921
 11
1737.066057
 21
1099.820624
  0
LINE
  8
CSLAYER1
  6
CONTINUOUS
 62
     4
 10
1734.832944
 20
1099.394295
 11
1735.882553
 21
1100.742209
  0
CIRCLE
  8
CSLAYER1
  6
CONTINUOUS
 62
     4
 10
1642.342701
 20
994.452623
 40
4.770000
  0
CIRCLE
  8
CSLAYER1
  6
CONTINUOUS
 62
     4
 10
1642.342701
 20
994.452623
 40
9.525000
  0
CIRCLE
  8
CSLAYER1
  6
CONTINUOUS
 62
     4
 10
1661.849569
 20
1019.503464
 40
9.525000
  0
POINT
  8
CSLAYER1
 62
     4
 10
1787.479127
 20
1083.730784
  0
LINE
  8
CSLAYER1
  6
CONTINUOUS
 62
     4
 10
1584.915945
 20
917.743234
 11
1748.600004
 21
1131.655076
  0
ARC
  8
CSLAYER1
  6
CONTINUOUS
 62
     4
 10
1793.098501
 20
1089.504388
 40
17.000000
 50
-25.687221
 51
63.594662
  0
LINE
  8
CSLAYER1
  6
CONTINUOUS
 62
     4
 10
1756.268038
 20
1044.654450
 11
1787.155737
 21
1062.733274
  0
ARC
  8
CSLAYER1
  6
CONTINUOUS
 62
     4
 10
1718.522943
 20
1092.417487
 40
32.500000
 50
-37.417672
 51
22.263747
  0
LINE
  8
CSLAYER1
  6
CONTINUOUS
 62
     4
 10
1744.335328
 20
1072.669810
 11
1641.039787
 21
937.651178
  0
LINE
  8
CSLAYER1
  6
CONTINUOUS
 62
     4
 10
1692.710557
 20
1112.165164
 11
1589.415016
 21
977.146532
  0
ARC
  8
CSLAYER1
  6
CONTINUOUS
 62
     4
 10
1615.227401
 20
957.398855
 40
32.500000
 50
142.582328
 51
322.582328
  0
LINE
  8
CSLAYER1
  6
CONTINUOUS
 62
     4
 10
1662.086809
 20
921.549226
 11
1756.268038
 21
1044.654450
  0
POINT
  8
CSLAYER1
 62
     4
 10
1718.522943
 20
1092.417487
  0
LINE
  8
CSLAYER1
  6
CONTINUOUS
 62
     4
 10
1740.790103
 20
1129.730784
 11
1740.790103
 21
1104.730784
  0
ARC
  8
CSLAYER1
  6
CONTINUOUS
 62
     4
 10
1718.522943
 20
1092.417487
 40
32.500000
 50
46.753114
 51
142.582328
  0
LINE
  8
CSLAYER1
  6
CENTER
 62
     5
 10
1119.104476
 20
1823.561430
 11
2231.176235
 21
1823.561430
  0
LINE
  8
CSLAYER1
  6
CONTINUOUS
 62
     7
 10
556.154178
 20
662.196725
 11
620.768105
 21
662.196725
  0
LINE
  8
CSLAYER1
  6
CONTINUOUS
 62
     7
 10
611.154178
 20
587.123870
 11
622.154178
 21
587.123870
  0
LINE
  8
CSLAYER1
  6
CONTINUOUS
 62
     7
 10
610.154178
 20
619.106371
 11
610.154178
 21
473.455055
  0
LINE
  8
CSLAYER1
  6
CONTINUOUS
 62
     7
 10
616.154178
 20
564.693107
 11
616.154178
 21
464.368976
  0
LINE
  8
CSLAYER1
  6
CONTINUOUS
 62
     7
 10
618.154178
 20
455.153039
 11
618.154178
 21
403.181474
  0
LINE
  8
CSLAYER1
  6
CONTINUOUS
 62
     7
 10
556.154178
 20
646.763995
 11
560.860588
 21
646.640331
  0
LINE
  8
CSLAYER1
  6
CONTINUOUS
 62
     7
 10
560.860588
 20
646.640331
 11
565.531179
 21
646.270278
  0
LINE
  8
CSLAYER1
  6
CONTINUOUS
 62
     7
 10
565.531179
 20
646.270278
 11
570.130406
 21
645.656653
  0
LINE
  8
CSLAYER1
  6
CONTINUOUS
 62
     7
 10
570.130406
 20
645.656653
 11
574.623266
 21
644.804126
  0
LINE
  8
CSLAYER1
  6
CONTINUOUS
 62
     7
 10
574.623266
 20
644.804126
 11
578.975564
 21
643.719185
  0
LINE
  8
CSLAYER1
  6
CONTINUOUS
 62
     7
 10
578.975564
 20
643.719185
 11
583.154178
 21
642.410087
  0
LINE
  8
CSLAYER1
  6
CONTINUOUS
 62
     7
 10
583.154178
 20
642.410087
 11
587.127305
 21
640.886797
  0
LINE
  8
CSLAYER1
  6
CONTINUOUS
 62
     7
 10
587.127305
 20
640.886797
 11
590.864709
 21
639.160905
  0
LINE
  8
CSLAYER1
  6
CONTINUOUS
 62
     7
 10
590.864709
 20
639.160905
 11
594.337944
 21
637.245548
  0
LINE
  8
CSLAYER1
  6
CONTINUOUS
 62
     7
 10
594.337944
 20
637.245548
 11
597.520578
 21
635.155303
  0
LINE
  8
CSLAYER1
  6
CONTINUOUS
 62
     7
 10
597.520578
 20
635.155303
 11
600.388388
 21
632.906078
  0
LINE
  8
CSLAYER1
  6
CONTINUOUS
 62
     7
 10
600.388388
 20
632.906078
 11
602.919550
 21
630.514990
  0
LINE
  8
CSLAYER1
  6
CONTINUOUS
 62
     7
 10
602.919550
 20
630.514990
 11
605.094798
 21
628.000237
  0
LINE
  8
CSLAYER1
  6
CONTINUOUS
 62
     7
 10
605.094798
 20
628.000237
 11
606.897579
 21
625.380959
  0
LINE
  8
CSLAYER1
  6
CONTINUOUS
 62
     7
 10
606.897579
 20
625.380959
 11
608.314172
 21
622.677088
  0
LINE
  8
CSLAYER1
  6
CONTINUOUS
 62
     7
 10
608.314172
 20
622.677088
 11
609.333796
 21
619.909205
  0
LINE
  8
CSLAYER1
  6
CONTINUOUS
 62
     7
 10
609.333796
 20
619.909205
 11
609.948692
 21
617.098372
  0
LINE
  8
CSLAYER1
  6
CONTINUOUS
 62
     7
 10
609.948692
 20
617.098372
 11
610.154178
 21
614.265984
  0
LINE
  8
CSLAYER1
  6
CONTINUOUS
 62
     7
 10
610.154178
 20
614.265984
 11
609.948692
 21
611.433596
  0
LINE
  8
CSLAYER1
  6
CONTINUOUS
 62
     7
 10
556.154178
 20
600.802008
 11
561.383522
 21
600.664603
  0
LINE
  8
CSLAYER1
  6
CONTINUOUS
 62
     7
 10
561.383522
 20
600.664603
 11
566.573068
 21
600.253433
  0
LINE
  8
CSLAYER1
  6
CONTINUOUS
 62
     7
 10
566.573068
 20
600.253433
 11
571.683321
 21
599.571627
  0
LINE
  8
CSLAYER1
  6
CONTINUOUS
 62
     7
 10
571.683321
 20
599.571627
 11
576.675386
 21
598.624375
  0
LINE
  8
CSLAYER1
  6
CONTINUOUS
 62
     7
 10
576.675386
 20
598.624375
 11
581.511274
 21
597.418885
  0
LINE
  8
CSLAYER1
  6
CONTINUOUS
 62
     7
 10
581.511274
 20
597.418885
 11
586.154178
 21
595.964333
  0
LINE
  8
CSLAYER1
  6
CONTINUOUS
 62
     7
 10
586.154178
 20
595.964333
 11
590.568764
 21
594.271787
  0
LINE
  8
CSLAYER1
  6
CONTINUOUS
 62
     7
 10
590.568764
 20
594.271787
 11
594.721434
 21
592.354130
  0
LINE
  8
CSLAYER1
  6
CONTINUOUS
 62
     7
 10
594.721434
 20
592.354130
 11
598.580585
 21
590.225956
  0
LINE
  8
CSLAYER1
  6
CONTINUOUS
 62
     7
 10
598.580585
 20
590.225956
 11
602.116844
 21
587.903461
  0
LINE
  8
CSLAYER1
  6
CONTINUOUS
 62
     7
 10
602.116844
 20
587.903461
 11
605.303300
 21
585.404322
  0
LINE
  8
CSLAYER1
  6
CONTINUOUS
 62
     7
 10
605.303300
 20
585.404322
 11
608.115702
 21
582.747558
  0
LINE
  8
CSLAYER1
  6
CONTINUOUS
 62
     7
 10
608.115702
 20
582.747558
 11
610.532645
 21
579.953388
  0
LINE
  8
CSLAYER1
  6
CONTINUOUS
 62
     7
 10
610.532645
 20
579.953388
 11
612.535735
 21
577.043079
  0
LINE
  8
CSLAYER1
  6
CONTINUOUS
 62
     7
 10
612.535735
 20
577.043079
 11
614.109727
 21
574.038778
  0
LINE
  8
CSLAYER1
  6
CONTINUOUS
 62
     7
 10
614.109727
 20
574.038778
 11
615.242643
 21
570.963352
  0
LINE
  8
CSLAYER1
  6
CONTINUOUS
 62
     7
 10
615.242643
 20
570.963352
 11
615.925860
 21
567.840205
  0
LINE
  8
CSLAYER1
  6
CONTINUOUS
 62
     7
 10
615.925860
 20
567.840205
 11
616.154178
 21
564.693107
  0
LINE
  8
CSLAYER1
  6
CONTINUOUS
 62
     7
 10
616.154178
 20
564.693107
 11
615.925860
 21
561.546009
  0
LINE
  8
CSLAYER1
  6
CONTINUOUS
 62
     7
 10
556.154178
 20
492.465571
 11
561.557834
 21
492.323585
  0
LINE
  8
CSLAYER1
  6
CONTINUOUS
 62
     7
 10
561.557834
 20
492.323585
 11
566.920365
 21
491.898710
  0
LINE
  8
CSLAYER1
  6
CONTINUOUS
 62
     7
 10
566.920365
 20
491.898710
 11
572.200959
 21
491.194177
  0
LINE
  8
CSLAYER1
  6
CONTINUOUS
 62
     7
 10
572.200959
 20
491.194177
 11
577.359427
 21
490.215350
  0
LINE
  8
CSLAYER1
  6
CONTINUOUS
 62
     7
 10
577.359427
 20
490.215350
 11
582.356510
 21
488.969677
  0
LINE
  8
CSLAYER1
  6
CONTINUOUS
 62
     7
 10
582.356510
 20
488.969677
 11
587.154178
 21
487.466639
  0
LINE
  8
CSLAYER1
  6
CONTINUOUS
 62
     7
 10
587.154178
 20
487.466639
 11
591.715917
 21
485.717676
  0
LINE
  8
CSLAYER1
  6
CONTINUOUS
 62
     7
 10
591.715917
 20
485.717676
 11
596.007010
 21
483.736097
  0
LINE
  8
CSLAYER1
  6
CONTINUOUS
 62
     7
 10
596.007010
 20
483.736097
 11
599.994798
 21
481.536983
  0
LINE
  8
CSLAYER1
  6
CONTINUOUS
 62
     7
 10
599.994798
 20
481.536983
 11
603.648933
 21
479.137072
  0
LINE
  8
CSLAYER1
  6
CONTINUOUS
 62
     7
 10
603.648933
 20
479.137072
 11
606.941605
 21
476.554628
  0
LINE
  8
CSLAYER1
  6
CONTINUOUS
 62
     7
 10
606.941605
 20
476.554628
 11
609.847753
 21
473.809305
  0
LINE
  8
CSLAYER1
  6
CONTINUOUS
 62
     7
 10
609.847753
 20
473.809305
 11
612.345261
 21
470.921997
  0
LINE
  8
CSLAYER1
  6
CONTINUOUS
 62
     7
 10
612.345261
 20
470.921997
 11
614.415120
 21
467.914677
  0
LINE
  8
CSLAYER1
  6
CONTINUOUS
 62
     7
 10
614.415120
 20
467.914677
 11
616.041579
 21
464.810233
  0
LINE
  8
CSLAYER1
  6
CONTINUOUS
 62
     7
 10
616.041579
 20
464.810233
 11
617.212259
 21
461.632292
  0
LINE
  8
CSLAYER1
  6
CONTINUOUS
 62
     7
 10
617.212259
 20
461.632292
 11
617.918249
 21
458.405041
  0
LINE
  8
CSLAYER1
  6
CONTINUOUS
 62
     7
 10
617.918249
 20
458.405041
 11
618.154178
 21
455.153039
  0
LINE
  8
CSLAYER1
  6
CONTINUOUS
 62
     7
 10
556.154178
 20
440.494006
 11
561.557834
 21
440.352020
  0
LINE
  8
CSLAYER1
  6
CONTINUOUS
 62
     7
 10
561.557834
 20
440.352020
 11
566.920365
 21
439.927145
  0
LINE
  8
CSLAYER1
  6
CONTINUOUS
 62
     7
 10
566.920365
 20
439.927145
 11
572.200959
 21
439.222612
  0
LINE
  8
CSLAYER1
  6
CONTINUOUS
 62
     7
 10
572.200959
 20
439.222612
 11
577.359427
 21
438.243785
  0
LINE
  8
CSLAYER1
  6
CONTINUOUS
 62
     7
 10
577.359427
 20
438.243785
 11
582.356510
 21
436.998112
  0
LINE
  8
CSLAYER1
  6
CONTINUOUS
 62
     7
 10
582.356510
 20
436.998112
 11
587.154178
 21
435.495075
  0
LINE
  8
CSLAYER1
  6
CONTINUOUS
 62
     7
 10
587.154178
 20
435.495075
 11
591.715917
 21
433.746111
  0
LINE
  8
CSLAYER1
  6
CONTINUOUS
 62
     7
 10
591.715917
 20
433.746111
 11
596.007010
 21
431.764532
  0
LINE
  8
CSLAYER1
  6
CONTINUOUS
 62
     7
 10
596.007010
 20
431.764532
 11
599.994798
 21
429.565418
  0
LINE
  8
CSLAYER1
  6
CONTINUOUS
 62
     7
 10
599.994798
 20
429.565418
 11
603.648933
 21
427.165507
  0
LINE
  8
CSLAYER1
  6
CONTINUOUS
 62
     7
 10
603.648933
 20
427.165507
 11
606.941605
 21
424.583063
  0
LINE
  8
CSLAYER1
  6
CONTINUOUS
 62
     7
 10
606.941605
 20
424.583063
 11
609.847753
 21
421.837740
  0
LINE
  8
CSLAYER1
  6
CONTINUOUS
 62
     7
 10
609.847753
 20
421.837740
 11
612.345261
 21
418.950432
  0
LINE
  8
CSLAYER1
  6
CONTINUOUS
 62
     7
 10
612.345261
 20
418.950432
 11
614.415120
 21
415.943112
  0
LINE
  8
CSLAYER1
  6
CONTINUOUS
 62
     7
 10
614.415120
 20
415.943112
 11
616.041579
 21
412.838668
  0
LINE
  8
CSLAYER1
  6
CONTINUOUS
 62
     7
 10
616.041579
 20
412.838668
 11
617.212259
 21
409.660728
  0
LINE
  8
CSLAYER1
  6
CONTINUOUS
 62
     7
 10
617.212259
 20
409.660728
 11
617.918249
 21
406.433476
  0
LINE
  8
CSLAYER1
  6
CONTINUOUS
 62
     7
 10
617.918249
 20
406.433476
 11
618.154178
 21
403.181474
  0
LINE
  8
CSLAYER1
  6
CONTINUOUS
 62
     7
 10
618.154178
 20
403.181474
 11
617.918249
 21
399.929473
  0
LINE
  8
CSLAYER1
  6
CONTINUOUS
 62
     7
 10
617.918249
 20
399.929473
 11
617.212259
 21
396.702221
  0
LINE
  8
CSLAYER1
  6
CONTINUOUS
 62
     7
 10
617.212259
 20
396.702221
 11
616.041579
 21
393.524281
  0
LINE
  8
CSLAYER1
  6
CONTINUOUS
 62
     7
 10
616.041579
 20
393.524281
 11
614.415120
 21
390.419837
  0
LINE
  8
CSLAYER1
  6
CONTINUOUS
 62
     7
 10
614.415120
 20
390.419837
 11
612.345261
 21
387.412517
  0
LINE
  8
CSLAYER1
  6
CONTINUOUS
 62
     7
 10
612.345261
 20
387.412517
 11
609.847753
 21
384.525209
  0
LINE
  8
CSLAYER1
  6
CONTINUOUS
 62
     7
 10
609.847753
 20
384.525209
 11
606.941605
 21
381.779886
  0
LINE
  8
CSLAYER1
  6
CONTINUOUS
 62
     7
 10
606.941605
 20
381.779886
 11
603.648933
 21
379.197442
  0
LINE
  8
CSLAYER1
  6
CONTINUOUS
 62
     7
 10
603.648933
 20
379.197442
 11
599.994798
 21
376.797530
  0
LINE
  8
CSLAYER1
  6
CONTINUOUS
 62
     7
 10
599.994798
 20
376.797530
 11
596.007010
 21
374.598417
  0
LINE
  8
CSLAYER1
  6
CONTINUOUS
 62
     7
 10
596.007010
 20
374.598417
 11
591.715917
 21
372.616838
  0
LINE
  8
CSLAYER1
  6
CONTINUOUS
 62
     7
 10
591.715917
 20
372.616838
 11
587.154178
 21
370.867874
  0
LINE
  8
CSLAYER1
  6
CONTINUOUS
 62
     7
 10
587.154178
 20
370.867874
 11
582.356510
 21
369.364837
  0
LINE
  8
CSLAYER1
  6
CONTINUOUS
 62
     7
 10
582.356510
 20
369.364837
 11
577.359427
 21
368.119164
  0
LINE
  8
CSLAYER1
  6
CONTINUOUS
 62
     7
 10
577.359427
 20
368.119164
 11
572.200959
 21
367.140337
  0
LINE
  8
CSLAYER1
  6
CONTINUOUS
 62
     7
 10
572.200959
 20
367.140337
 11
566.920365
 21
366.435804
  0
LINE
  8
CSLAYER1
  6
CONTINUOUS
 62
     7
 10
566.920365
 20
366.435804
 11
561.557834
 21
366.010928
  0
LINE
  8
CSLAYER1
  6
CONTINUOUS
 62
     7
 10
561.557834
 20
366.010928
 11
556.154178
 21
365.868943
  0
LINE
  8
CSLAYER1
  6
CONTINUOUS
 62
     7
 10
611.154178
 20
652.376649
 11
611.154178
 21
579.050357
  0
LINE
  8
CSLAYER1
  6
CONTINUOUS
 62
     7
 10
606.154178
 20
657.376649
 11
506.154178
 21
657.376649
  0
LINE
  8
CSLAYER1
  6
CONTINUOUS
 62
     7
 10
606.154178
 20
649.043783
 11
506.154178
 21
649.043783
  0
ARC
  8
CSLAYER1
  6
CONTINUOUS
 62
     7
 10
606.154178
 20
652.376649
 40
5.000000
 50
0.000000
 51
90.000000
  0
ARC
  8
CSLAYER1
  6
CONTINUOUS
 62
     7
 10
606.154178
 20
644.043783
 40
5.000000
 50
0.000000
 51
90.000000
  0
LINE
  8
CSLAYER1
  6
CONTINUOUS
 62
     7
 10
622.024757
 20
520.839974
 11
637.583594
 21
520.839974
  0
LINE
  8
CSLAYER1
  6
CONTINUOUS
 62
     7
 10
629.654178
 20
512.154483
 11
629.654178
 21
529.978173
  0
LINE
  8
CSLAYER1
  6
CONTINUOUS
 62
     7
 10
620.119608
 20
450.839974
 11
638.154178
 21
450.839974
  0
LINE
  8
CSLAYER1
  6
CONTINUOUS
 62
     7
 10
620.119608
 20
532.339974
 11
638.154178
 21
532.339974
  0
LINE
  8
CSLAYER1
  6
CONTINUOUS
 62
     7
 10
641.154178
 20
529.339974
 11
641.154178
 21
435.938762
  0
LINE
  8
CSLAYER1
  6
CONTINUOUS
 62
     7
 10
620.119608
 20
432.938762
 11
620.119608
 21
532.339974
  0
LINE
  8
CSLAYER1
  6
CONTINUOUS
 62
     7
 10
616.154178
 20
466.349519
 11
620.119608
 21
466.349519
  0
CIRCLE
  8
CSLAYER1
  6
CONTINUOUS
 62
     7
 10
629.654178
 20
520.839974
 40
6.250000
  0
LINE
  8
CSLAYER1
  6
CONTINUOUS
 62
     7
 10
616.154178
 20
493.330430
 11
620.119608
 21
493.330430
  0
ARC
  8
CSLAYER1
  6
CONTINUOUS
 62
     7
 10
638.154178
 20
453.839974
 40
3.000000
 50
270.000000
 51
360.000000
  0
ARC
  8
CSLAYER1
  6
CONTINUOUS
 62
     7
 10
638.154178
 20
529.339974
 40
3.000000
 50
0.000000
 51
90.000000
  0
LINE
  8
CSLAYER1
  6
CONTINUOUS
 62
     7
 10
608.154178
 20
475.409158
 11
608.154178
 21
582.711211
  0
LINE
  8
CSLAYER1
  6
CONTINUOUS
 62
     7
 10
588.154178
 20
487.083241
 11
588.154178
 21
595.197536
  0
LINE
  8
CSLAYER1
  6
CONTINUOUS
 62
     7
 10
581.154178
 20
489.269394
 11
581.154178
 21
597.530758
  0
LINE
  8
CSLAYER1
  6
CONTINUOUS
 62
     7
 10
573.154178
 20
491.013302
 11
573.154178
 21
599.375387
  0
LINE
  8
CSLAYER1
  6
CONTINUOUS
 62
     7
 10
620.119608
 20
432.938762
 11
638.154178
 21
432.938762
  0
ARC
  8
CSLAYER1
  6
CONTINUOUS
 62
     7
 10
638.154178
 20
435.938762
 40
3.000000
 50
270.000000
 51
360.000000
  0
LINE
  8
CSLAYER1
  6
CONTINUOUS
 62
     7
 10
502.154178
 20
619.106371
 11
502.154178
 21
473.455055
  0
LINE
  8
CSLAYER1
  6
CONTINUOUS
 62
     7
 10
496.154178
 20
564.693107
 11
496.154178
 21
464.368976
  0
LINE
  8
CSLAYER1
  6
CONTINUOUS
 62
     7
 10
494.154178
 20
455.153039
 11
494.154178
 21
403.181474
  0
LINE
  8
CSLAYER1
  6
CONTINUOUS
 62
     7
 10
556.154178
 20
646.763995
 11
551.447768
 21
646.640331
  0
LINE
  8
CSLAYER1
  6
CONTINUOUS
 62
     7
 10
551.447768
 20
646.640331
 11
546.777176
 21
646.270278
  0
LINE
  8
CSLAYER1
  6
CONTINUOUS
 62
     7
 10
546.777176
 20
646.270278
 11
542.177949
 21
645.656653
  0
LINE
  8
CSLAYER1
  6
CONTINUOUS
 62
     7
 10
542.177949
 20
645.656653
 11
537.685090
 21
644.804126
  0
LINE
  8
CSLAYER1
  6
CONTINUOUS
 62
     7
 10
537.685090
 20
644.804126
 11
533.332792
 21
643.719185
  0
LINE
  8
CSLAYER1
  6
CONTINUOUS
 62
     7
 10
533.332792
 20
643.719185
 11
529.154178
 21
642.410087
  0
LINE
  8
CSLAYER1
  6
CONTINUOUS
 62
     7
 10
529.154178
 20
642.410087
 11
525.181050
 21
640.886797
  0
LINE
  8
CSLAYER1
  6
CONTINUOUS
 62
     7
 10
525.181050
 20
640.886797
 11
521.443647
 21
639.160905
  0
LINE
  8
CSLAYER1
  6
CONTINUOUS
 62
     7
 10
521.443647
 20
639.160905
 11
517.970412
 21
637.245548
  0
LINE
  8
CSLAYER1
  6
CONTINUOUS
 62
     7
 10
517.970412
 20
637.245548
 11
514.787778
 21
635.155303
  0
LINE
  8
CSLAYER1
  6
CONTINUOUS
 62
     7
 10
514.787778
 20
635.155303
 11
511.919967
 21
632.906078
  0
LINE
  8
CSLAYER1
  6
CONTINUOUS
 62
     7
 10
511.919967
 20
632.906078
 11
509.388806
 21
630.514990
  0
LINE
  8
CSLAYER1
  6
CONTINUOUS
 62
     7
 10
509.388806
 20
630.514990
 11
507.213557
 21
628.000237
  0
LINE
  8
CSLAYER1
  6
CONTINUOUS
 62
     7
 10
507.213557
 20
628.000237
 11
505.410776
 21
625.380959
  0
LINE
  8
CSLAYER1
  6
CONTINUOUS
 62
     7
 10
505.410776
 20
625.380959
 11
503.994183
 21
622.677088
  0
LINE
  8
CSLAYER1
  6
CONTINUOUS
 62
     7
 10
503.994183
 20
622.677088
 11
502.974559
 21
619.909205
  0
LINE
  8
CSLAYER1
  6
CONTINUOUS
 62
     7
 10
502.974559
 20
619.909205
 11
502.359664
 21
617.098372
  0
LINE
  8
CSLAYER1
  6
CONTINUOUS
 62
     7
 10
502.359664
 20
617.098372
 11
502.154178
 21
614.265984
  0
LINE
  8
CSLAYER1
  6
CONTINUOUS
 62
     7
 10
502.154178
 20
614.265984
 11
502.359664
 21
611.433596
  0
LINE
  8
CSLAYER1
  6
CONTINUOUS
 62
     7
 10
556.154178
 20
600.802008
 11
550.924833
 21
600.664603
  0
LINE
  8
CSLAYER1
  6
CONTINUOUS
 62
     7
 10
550.924833
 20
600.664603
 11
545.735287
 21
600.253433
  0
LINE
  8
CSLAYER1
  6
CONTINUOUS
 62
     7
 10
545.735287
 20
600.253433
 11
540.625035
 21
599.571627
  0
LINE
  8
CSLAYER1
  6
CONTINUOUS
 62
     7
 10
540.625035
 20
599.571627
 11
535.632969
 21
598.624375
  0
LINE
  8
CSLAYER1
  6
CONTINUOUS
 62
     7
 10
535.632969
 20
598.624375
 11
530.797082
 21
597.418885
  0
LINE
  8
CSLAYER1
  6
CONTINUOUS
 62
     7
 10
530.797082
 20
597.418885
 11
526.154178
 21
595.964333
  0
LINE
  8
CSLAYER1
  6
CONTINUOUS
 62
     7
 10
526.154178
 20
595.964333
 11
521.739592
 21
594.271787
  0
LINE
  8
CSLAYER1
  6
CONTINUOUS
 62
     7
 10
521.739592
 20
594.271787
 11
517.586921
 21
592.354130
  0
LINE
  8
CSLAYER1
  6
CONTINUOUS
 62
     7
 10
517.586921
 20
592.354130
 11
513.727771
 21
590.225956
  0
LINE
  8
CSLAYER1
  6
CONTINUOUS
 62
     7
 10
513.727771
 20
590.225956
 11
510.191511
 21
587.903461
  0
LINE
  8
CSLAYER1
  6
CONTINUOUS
 62
     7
 10
510.191511
 20
587.903461
 11
507.005055
 21
585.404322
  0
LINE
  8
CSLAYER1
  6
CONTINUOUS
 62
     7
 10
507.005055
 20
585.404322
 11
504.192654
 21
582.747558
  0
LINE
  8
CSLAYER1
  6
CONTINUOUS
 62
     7
 10
504.192654
 20
582.747558
 11
501.775711
 21
579.953388
  0
LINE
  8
CSLAYER1
  6
CONTINUOUS
 62
     7
 10
501.775711
 20
579.953388
 11
499.772621
 21
577.043079
  0
LINE
  8
CSLAYER1
  6
CONTINUOUS
 62
     7
 10
499.772621
 20
577.043079
 11
498.198628
 21
574.038778
  0
LINE
  8
CSLAYER1
  6
CONTINUOUS
 62
     7
 10
498.198628
 20
574.038778
 11
497.065713
 21
570.963352
  0
LINE
  8
CSLAYER1
  6
CONTINUOUS
 62
     7
 10
497.065713
 20
570.963352
 11
496.382496
 21
567.840205
  0
LINE
  8
CSLAYER1
  6
CONTINUOUS
 62
     7
 10
496.382496
 20
567.840205
 11
496.154178
 21
564.693107
  0
LINE
  8
CSLAYER1
  6
CONTINUOUS
 62
     7
 10
496.154178
 20
564.693107
 11
496.382496
 21
561.546009
  0
LINE
  8
CSLAYER1
  6
CONTINUOUS
 62
     7
 10
556.154178
 20
492.465571
 11
550.750522
 21
492.323585
  0
LINE
  8
CSLAYER1
  6
CONTINUOUS
 62
     7
 10
550.750522
 20
492.323585
 11
545.387991
 21
491.898710
  0
LINE
  8
CSLAYER1
  6
CONTINUOUS
 62
     7
 10
545.387991
 20
491.898710
 11
540.107397
 21
491.194177
  0
LINE
  8
CSLAYER1
  6
CONTINUOUS
 62
     7
 10
540.107397
 20
491.194177
 11
534.948929
 21
490.215350
  0
LINE
  8
CSLAYER1
  6
CONTINUOUS
 62
     7
 10
534.948929
 20
490.215350
 11
529.951846
 21
488.969677
  0
LINE
  8
CSLAYER1
  6
CONTINUOUS
 62
     7
 10
529.951846
 20
488.969677
 11
525.154178
 21
487.466639
  0
LINE
  8
CSLAYER1
  6
CONTINUOUS
 62
     7
 10
525.154178
 20
487.466639
 11
520.592439
 21
485.717676
  0
LINE
  8
CSLAYER1
  6
CONTINUOUS
 62
     7
 10
520.592439
 20
485.717676
 11
516.301346
 21
483.736097
  0
LINE
  8
CSLAYER1
  6
CONTINUOUS
 62
     7
 10
516.301346
 20
483.736097
 11
512.313557
 21
481.536983
  0
LINE
  8
CSLAYER1
  6
CONTINUOUS
 62
     7
 10
512.313557
 20
481.536983
 11
508.659422
 21
479.137072
  0
LINE
  8
CSLAYER1
  6
CONTINUOUS
 62
     7
 10
508.659422
 20
479.137072
 11
505.366751
 21
476.554628
  0
LINE
  8
CSLAYER1
  6
CONTINUOUS
 62
     7
 10
505.366751
 20
476.554628
 11
502.460603
 21
473.809305
  0
LINE
  8
CSLAYER1
  6
CONTINUOUS
 62
     7
 10
502.460603
 20
473.809305
 11
499.963095
 21
470.921997
  0
LINE
  8
CSLAYER1
  6
CONTINUOUS
 62
     7
 10
499.963095
 20
470.921997
 11
497.893235
 21
467.914677
  0
LINE
  8
CSLAYER1
  6
CONTINUOUS
 62
     7
 10
497.893235
 20
467.914677
 11
496.266777
 21
464.810233
  0
LINE
  8
CSLAYER1
  6
CONTINUOUS
 62
     7
 10
496.266777
 20
464.810233
 11
495.096097
 21
461.632292
  0
LINE
  8
CSLAYER1
  6
CONTINUOUS
 62
     7
 10
495.096097
 20
461.632292
 11
494.390107
 21
458.405041
  0
LINE
  8
CSLAYER1
  6
CONTINUOUS
 62
     7
 10
494.390107
 20
458.405041
 11
494.154178
 21
455.153039
  0
LINE
  8
CSLAYER1
  6
CONTINUOUS
 62
     7
 10
556.154178
 20
440.494006
 11
550.750522
 21
440.352020
  0
LINE
  8
CSLAYER1
  6
CONTINUOUS
 62
     7
 10
550.750522
 20
440.352020
 11
545.387991
 21
439.927145
  0
LINE
  8
CSLAYER1
  6
CONTINUOUS
 62
     7
 10
545.387991
 20
439.927145
 11
540.107397
 21
439.222612
  0
LINE
  8
CSLAYER1
  6
CONTINUOUS
 62
     7
 10
540.107397
 20
439.222612
 11
534.948929
 21
438.243785
  0
LINE
  8
CSLAYER1
  6
CONTINUOUS
 62
     7
 10
534.948929
 20
438.243785
 11
529.951846
 21
436.998112
  0
LINE
  8
CSLAYER1
  6
CONTINUOUS
 62
     7
 10
529.951846
 20
436.998112
 11
525.154178
 21
435.495075
  0
LINE
  8
CSLAYER1
  6
CONTINUOUS
 62
     7
 10
525.154178
 20
435.495075
 11
520.592439
 21
433.746111
  0
LINE
  8
CSLAYER1
  6
CONTINUOUS
 62
     7
 10
520.592439
 20
433.746111
 11
516.301346
 21
431.764532
  0
LINE
  8
CSLAYER1
  6
CONTINUOUS
 62
     7
 10
516.301346
 20
431.764532
 11
512.313557
 21
429.565418
  0
LINE
  8
CSLAYER1
  6
CONTINUOUS
 62
     7
 10
512.313557
 20
429.565418
 11
508.659422
 21
427.165507
  0
LINE
  8
CSLAYER1
  6
CONTINUOUS
 62
     7
 10
508.659422
 20
427.165507
 11
505.366751
 21
424.583063
  0
LINE
  8
CSLAYER1
  6
CONTINUOUS
 62
     7
 10
505.366751
 20
424.583063
 11
502.460603
 21
421.837740
  0
LINE
  8
CSLAYER1
  6
CONTINUOUS
 62
     7
 10
502.460603
 20
421.837740
 11
499.963095
 21
418.950432
  0
LINE
  8
CSLAYER1
  6
CONTINUOUS
 62
     7
 10
499.963095
 20
418.950432
 11
497.893235
 21
415.943112
  0
LINE
  8
CSLAYER1
  6
CONTINUOUS
 62
     7
 10
497.893235
 20
415.943112
 11
496.266777
 21
412.838668
  0
LINE
  8
CSLAYER1
  6
CONTINUOUS
 62
     7
 10
496.266777
 20
412.838668
 11
495.096097
 21
409.660728
  0
LINE
  8
CSLAYER1
  6
CONTINUOUS
 62
     7
 10
495.096097
 20
409.660728
 11
494.390107
 21
406.433476
  0
LINE
  8
CSLAYER1
  6
CONTINUOUS
 62
     7
 10
494.390107
 20
406.433476
 11
494.154178
 21
403.181474
  0
LINE
  8
CSLAYER1
  6
CONTINUOUS
 62
     7
 10
494.154178
 20
403.181474
 11
494.390107
 21
399.929473
  0
LINE
  8
CSLAYER1
  6
CONTINUOUS
 62
     7
 10
494.390107
 20
399.929473
 11
495.096097
 21
396.702221
  0
LINE
  8
CSLAYER1
  6
CONTINUOUS
 62
     7
 10
495.096097
 20
396.702221
 11
496.266777
 21
393.524281
  0
LINE
  8
CSLAYER1
  6
CONTINUOUS
 62
     7
 10
496.266777
 20
393.524281
 11
497.893235
 21
390.419837
  0
LINE
  8
CSLAYER1
  6
CONTINUOUS
 62
     7
 10
497.893235
 20
390.419837
 11
499.963095
 21
387.412517
  0
LINE
  8
CSLAYER1
  6
CONTINUOUS
 62
     7
 10
499.963095
 20
387.412517
 11
502.460603
 21
384.525209
  0
LINE
  8
CSLAYER1
  6
CONTINUOUS
 62
     7
 10
502.460603
 20
384.525209
 11
505.366751
 21
381.779886
  0
LINE
  8
CSLAYER1
  6
CONTINUOUS
 62
     7
 10
505.366751
 20
381.779886
 11
508.659422
 21
379.197442
  0
LINE
  8
CSLAYER1
  6
CONTINUOUS
 62
     7
 10
508.659422
 20
379.197442
 11
512.313557
 21
376.797530
  0
LINE
  8
CSLAYER1
  6
CONTINUOUS
 62
     7
 10
512.313557
 20
376.797530
 11
516.301346
 21
374.598417
  0
LINE
  8
CSLAYER1
  6
CONTINUOUS
 62
     7
 10
516.301346
 20
374.598417
 11
520.592439
 21
372.616838
  0
LINE
  8
CSLAYER1
  6
CONTINUOUS
 62
     7
 10
520.592439
 20
372.616838
 11
525.154178
 21
370.867874
  0
LINE
  8
CSLAYER1
  6
CONTINUOUS
 62
     7
 10
525.154178
 20
370.867874
 11
529.951846
 21
369.364837
  0
LINE
  8
CSLAYER1
  6
CONTINUOUS
 62
     7
 10
529.951846
 20
369.364837
 11
534.948929
 21
368.119164
  0
LINE
  8
CSLAYER1
  6
CONTINUOUS
 62
     7
 10
534.948929
 20
368.119164
 11
540.107397
 21
367.140337
  0
LINE
  8
CSLAYER1
  6
CONTINUOUS
 62
     7
 10
540.107397
 20
367.140337
 11
545.387991
 21
366.435804
  0
LINE
  8
CSLAYER1
  6
CONTINUOUS
 62
     7
 10
545.387991
 20
366.435804
 11
550.750522
 21
366.010928
  0
LINE
  8
CSLAYER1
  6
CONTINUOUS
 62
     7
 10
550.750522
 20
366.010928
 11
556.154178
 21
365.868943
  0
LINE
  8
CSLAYER1
  6
CONTINUOUS
 62
     7
 10
501.154178
 20
652.376649
 11
501.154178
 21
579.050357
  0
ARC
  8
CSLAYER1
  6
CONTINUOUS
 62
     7
 10
506.154178
 20
652.376649
 40
5.000000
 50
90.000000
 51
180.000000
  0
ARC
  8
CSLAYER1
  6
CONTINUOUS
 62
     7
 10
506.154178
 20
644.043783
 40
5.000000
 50
90.000000
 51
180.000000
  0
LINE
  8
CSLAYER1
  6
CONTINUOUS
 62
     7
 10
504.154178
 20
475.409158
 11
504.154178
 21
582.711211
  0
LINE
  8
CSLAYER1
  6
CONTINUOUS
 62
     7
 10
524.154178
 20
487.083241
 11
524.154178
 21
595.197536
  0
LINE
  8
CSLAYER1
  6
CONTINUOUS
 62
     7
 10
531.154178
 20
489.269394
 11
531.154178
 21
597.530758
  0
LINE
  8
CSLAYER1
  6
CONTINUOUS
 62
     7
 10
539.154178
 20
491.013302
 11
539.154178
 21
599.375387
  0
LINE
  8
CSLAYER1
  6
CONTINUOUS
 62
     3
 10
464.154178
 20
384.885166
 11
464.154178
 21
390.885166
  0
LINE
  8
CSLAYER1
  6
CONTINUOUS
 62
     3
 10
464.154178
 20
384.885166
 11
466.154178
 21
384.885166
  0
LINE
  8
CSLAYER1
  6
CONTINUOUS
 62
     1
 10
468.654178
 20
393.885166
 11
468.654178
 21
391.685166
  0
LINE
  8
CSLAYER1
  6
CONTINUOUS
 62
     1
 10
475.654178
 20
393.885166
 11
475.654178
 21
391.685166
  0
LINE
  8
CSLAYER1
  6
CONTINUOUS
 62
     1
 10
475.654178
 20
392.685166
 11
468.654178
 21
392.685166
  0
LINE
  8
CSLAYER1
  6
CONTINUOUS
 62
     1
 10
474.254178
 20
395.285166
 11
470.054178
 21
395.285166
  0
LINE
  8
CSLAYER1
  6
CONTINUOUS
 62
     1
 10
476.654178
 20
391.685166
 11
476.654178
 21
390.885166
  0
LINE
  8
CSLAYER1
  6
CONTINUOUS
 62
     1
 10
467.654178
 20
391.685166
 11
467.654178
 21
390.885166
  0
LINE
  8
CSLAYER1
  6
CONTINUOUS
 62
     1
 10
476.654178
 20
391.685166
 11
467.654178
 21
391.685166
  0
ARC
  8
CSLAYER1
  6
CONTINUOUS
 62
     1
 10
474.254178
 20
393.885166
 40
1.400000
 50
-0.000000
 51
90.000000
  0
ARC
  8
CSLAYER1
  6
CONTINUOUS
 62
     1
 10
470.054178
 20
393.885166
 40
1.400000
 50
90.000000
 51
180.000000
  0
LINE
  8
CSLAYER1
  6
CONTINUOUS
 62
     1
 10
473.194130
 20
391.685166
 11
470.808927
 21
392.685166
  0
LINE
  8
CSLAYER1
  6
CONTINUOUS
 62
     1
 10
472.154178
 20
397.046398
 11
472.154178
 21
389.603594
  0
LINE
  8
CSLAYER1
  6
CONTINUOUS
 62
     4
 10
466.154178
 20
384.885166
 11
502.149241
 21
384.885166
  0
LINE
  8
CSLAYER1
  6
CONTINUOUS
 62
     3
 10
464.154178
 20
390.885166
 11
497.649443
 21
390.885166
  0
LINE
  8
CSLAYER1
  6
CONTINUOUS
 62
     3
 10
466.154178
 20
384.885166
 11
466.154178
 21
351.385166
  0
LINE
  8
CSLAYER1
  6
CONTINUOUS
 62
     3
 10
648.154178
 20
384.885166
 11
648.154178
 21
390.885166
  0
LINE
  8
CSLAYER1
  6
CONTINUOUS
 62
     3
 10
648.154178
 20
384.885166
 11
646.154178
 21
384.885166
  0
LINE
  8
CSLAYER1
  6
CONTINUOUS
 62
     1
 10
643.654178
 20
393.885166
 11
643.654178
 21
391.685166
  0
LINE
  8
CSLAYER1
  6
CONTINUOUS
 62
     1
 10
636.654178
 20
393.885166
 11
636.654178
 21
391.685166
  0
LINE
  8
CSLAYER1
  6
CONTINUOUS
 62
     1
 10
636.654178
 20
392.685166
 11
643.654178
 21
392.685166
  0
LINE
  8
CSLAYER1
  6
CONTINUOUS
 62
     1
 10
638.054178
 20
395.285166
 11
642.254178
 21
395.285166
  0
LINE
  8
CSLAYER1
  6
CONTINUOUS
 62
     1
 10
635.654178
 20
391.685166
 11
635.654178
 21
390.885166
  0
LINE
  8
CSLAYER1
  6
CONTINUOUS
 62
     1
 10
644.654178
 20
391.685166
 11
644.654178
 21
390.885166
  0
LINE
  8
CSLAYER1
  6
CONTINUOUS
 62
     1
 10
635.654178
 20
391.685166
 11
644.654178
 21
391.685166
  0
ARC
  8
CSLAYER1
  6
CONTINUOUS
 62
     1
 10
638.054178
 20
393.885166
 40
1.400000
 50
90.000000
 51
180.000000
  0
ARC
  8
CSLAYER1
  6
CONTINUOUS
 62
     1
 10
642.254178
 20
393.885166
 40
1.400000
 50
0.000000
 51
90.000000
  0
LINE
  8
CSLAYER1
  6
CONTINUOUS
 62
     1
 10
639.114226
 20
391.685166
 11
641.499428
 21
392.685166
  0
LINE
  8
CSLAYER1
  6
CONTINUOUS
 62
     1
 10
640.154178
 20
397.046398
 11
640.154178
 21
389.603594
  0
LINE
  8
CSLAYER1
  6
CONTINUOUS
 62
     3
 10
646.154178
 20
384.885166
 11
646.154178
 21
351.385166
  0
LINE
  8
CSLAYER1
  6
CONTINUOUS
 62
     3
 10
648.154178
 20
390.885166
 11
614.658912
 21
390.885166
  0
LINE
  8
CSLAYER1
  6
CONTINUOUS
 62
     4
 10
646.154178
 20
384.885166
 11
610.159114
 21
384.885166
  0
LINE
  8
CSLAYER1
  6
CONTINUOUS
 62
     5
 10
1218.945229
 20
832.221214
 11
968.945229
 21
832.221214
  0
TEXT
  8
CSLAYER1
 62
     5
 10
974.655151
 20
841.694580
 40
40.000000
 41
0.782609
  1
ギヤードモ－ター
 50
0.000000
 51
0.000000
  7
EASYDRAW_FONT
 72
     5
 11
1214.655151
 21
841.694580
  0
TEXT
  8
CSLAYER1
 62
     5
 10
881.018066
 20
633.270752
 40
40.000000
 41
0.769737
  1
上限・下限リミットスイッチ
 50
0.000000
 51
0.000000
  7
EASYDRAW_FONT
 72
     5
 11
1271.018066
 21
633.270752
  0
LINE
  8
CSLAYER1
  6
CONTINUOUS
 62
     5
 10
750.023424
 20
423.266173
 11
887.057858
 21
625.575530
  0
LINE
  8
CSLAYER1
  6
CONTINUOUS
 62
     5
 10
750.023424
 20
423.266173
 11
759.845792
 21
451.612621
  0
LINE
  8
CSLAYER1
  6
CONTINUOUS
 62
     5
 10
750.023424
 20
423.266173
 11
772.703068
 21
442.903733
  0
LINE
  8
CSLAYER1
  6
CONTINUOUS
 62
     5
 10
887.057858
 20
625.575530
 11
1265.730596
 21
625.575530
  0
LINE
  8
CSLAYER1
  6
CONTINUOUS
 62
     5
 10
1324.324591
 20
673.340084
 11
1218.945229
 21
832.221214
  0
LINE
  8
CSLAYER1
  6
CONTINUOUS
 62
     5
 10
1324.324591
 20
673.340084
 11
1301.836955
 21
693.197229
  0
LINE
  8
CSLAYER1
  6
CONTINUOUS
 62
     5
 10
1324.324591
 20
673.340084
 11
1314.778299
 21
701.780694
  0
LINE
  8
CSLAYER1
  6
CONTINUOUS
 62
     5
 10
1465.935449
 20
698.557975
 11
1522.773503
 21
698.557975
  0
LINE
  8
CSLAYER1
  6
CONTINUOUS
 62
     5
 10
1492.747203
 20
729.380754
 11
1492.747203
 21
669.501199
  0
LINE
  8
CSLAYER1
  6
CONTINUOUS
 62
     3
 10
2354.835828
 20
1819.861430
 11
2505.012870
 21
1819.861430
  0
LINE
  8
CSLAYER1
  6
CONTINUOUS
 62
     3
 10
2354.303191
 20
1826.861430
 11
2505.012870
 21
1826.861430
  0
ARC
  8
CSLAYER1
  6
CONTINUOUS
 62
     3
 10
2361.140588
 20
1780.361430
 40
40.000000
 50
-260.931278
 51
63.817766
  0
ARC
  8
CSLAYER1
  6
CONTINUOUS
 62
     3
 10
2361.140588
 20
1780.361430
 40
47.000000
 50
-261.635125
 51
49.860785
  0
LINE
  8
CSLAYER1
  6
CONTINUOUS
 62
     3
 10
2556.783467
 20
2122.864269
 11
2561.445442
 21
2125.625479
  0
LINE
  8
CSLAYER1
  6
CONTINUOUS
 62
     3
 10
2561.445442
 20
2125.625479
 11
2567.741480
 21
2126.916855
  0
LINE
  8
CSLAYER1
  6
CONTINUOUS
 62
     3
 10
2555.503940
 20
2124.049185
 11
2560.656548
 21
2127.358931
  0
LINE
  8
CSLAYER1
  6
CONTINUOUS
 62
     3
 10
2560.656548
 20
2127.358931
 11
2565.701813
 21
2129.577458
  0
LINE
  8
CSLAYER1
  6
CONTINUOUS
 62
     3
 10
2554.481859
 20
2124.995692
 11
2558.795885
 21
2128.661781
  0
LINE
  8
CSLAYER1
  6
CONTINUOUS
 62
     3
 10
2558.795885
 20
2128.661781
 11
2560.502172
 21
2132.345327
  0
LINE
  8
CSLAYER1
  6
CONTINUOUS
 62
     3
 10
2558.220062
 20
2121.533900
 11
2553.084075
 21
2126.290120
  0
LINE
  8
CSLAYER1
  6
CONTINUOUS
 62
     3
 10
2553.084075
 20
2126.290120
 11
2392.945419
 21
1953.364962
  0
LINE
  8
CSLAYER1
  6
CONTINUOUS
 62
     3
 10
2558.220062
 20
2121.533900
 11
2398.081407
 21
1948.608742
  0
ARC
  8
CSLAYER1
  6
CONTINUOUS
 62
     3
 10
2363.596919
 20
1980.543364
 40
40.000000
 50
-13.471057
 51
317.198537
  0
ARC
  8
CSLAYER1
  6
CONTINUOUS
 62
     3
 10
2363.596919
 20
1980.543364
 40
47.000000
 50
-0.756396
 51
317.198537
  0
LINE
  8
CSLAYER1
  6
CONTINUOUS
 62
     3
 10
2385.876770
 20
1935.429608
 11
2358.054848
 21
1905.386204
  0
LINE
  8
CSLAYER1
  6
CONTINUOUS
 62
     3
 10
2371.217966
 20
1929.902649
 11
2352.918860
 21
1910.142424
  0
ARC
  8
CSLAYER1
  6
CONTINUOUS
 62
     3
 10
2242.861983
 20
2012.061430
 40
150.000000
 50
270.000000
 51
317.198537
  0
ARC
  8
CSLAYER1
  6
CONTINUOUS
 62
     3
 10
2242.861983
 20
2012.061430
 40
157.000000
 50
270.000000
 51
317.198537
  0
TEXT
  8
CSLAYER1
 62
     4
 10
2654.418457
 20
1260.860474
 40
40.000000
 41
1.036364
  1
操作方式
 50
0.000000
 51
0.000000
  7
EASYDRAW_FONT
 72
     5
 11
2806.418457
 21
1260.860474
  0
TEXT
  8
CSLAYER1
 62
     4
 10
2936.060059
 20
1255.567017
 40
40.000000
 41
1.020000
  1
フットスイッチ
 50
0.000000
 51
0.000000
  7
EASYDRAW_FONT
 72
     5
 11
3208.060059
 21
1255.567017
  0
LINE
  8
CSLAYER1
  6
CONTINUOUS
 62
     5
 10
3365.548980
 20
1248.834286
 11
2644.676463
 21
1248.834286
  0
LINE
  8
CSLAYER1
  6
CONTINUOUS
 62
     5
 10
3365.548980
 20
1184.834287
 11
2644.676463
 21
1184.834287
  0
TEXT
  8
CSLAYER1
 62
     4
 10
2655.849609
 20
1194.787720
 40
40.000000
 41
0.872727
  1
モーター
 50
0.000000
 51
0.000000
  7
EASYDRAW_FONT
 72
     5
 11
2783.849609
 21
1194.787720
  0
LINE
  8
CSLAYER1
  6
CONTINUOUS
 62
     5
 10
3365.548980
 20
1120.834289
 11
2644.676463
 21
1120.834289
  0
LINE
  8
CSLAYER1
  6
CONTINUOUS
 62
     5
 10
3365.548980
 20
992.834292
 11
2642.537961
 21
992.834292
  0
LINE
  8
CSLAYER1
  6
CONTINUOUS
 62
     5
 10
3365.548980
 20
928.834294
 11
2644.676463
 21
928.834294
  0
LINE
  8
CSLAYER1
  6
CONTINUOUS
 62
     5
 10
3365.548980
 20
864.834295
 11
2644.676463
 21
864.834295
  0
TEXT
  8
CSLAYER1
 62
     4
 10
2658.431152
 20
875.956238
 40
40.000000
 41
0.857143
  1
自  　重
 50
0.000000
 51
0.000000
  7
EASYDRAW_FONT
 72
     5
 11
2818.431152
 21
875.956238
  0
TEXT
  8
CSLAYER1
 62
     4
 10
2661.380371
 20
811.884949
 40
40.000000
 41
0.847059
  1
塗　装　色 
 50
0.000000
 51
0.000000
  7
EASYDRAW_FONT
 72
     5
 11
2853.380371
 21
811.884949
  0
TEXT
  8
CSLAYER1
 62
     4
 10
2886.956055
 20
1195.704712
 40
40.000000
 41
0.819512
  1
３相ＡＣ２００Ｖ、0.4ＫＷ
 50
0.000000
 51
0.000000
  7
EASYDRAW_FONT
 72
     5
 11
3334.956055
 21
1195.704712
  0
TEXT
  8
CSLAYER1
 62
     4
 10
3017.939453
 20
1131.860962
 40
40.000000
 41
0.840000
  1
長サ  ４ ｍ
 50
0.000000
 51
0.000000
  7
EASYDRAW_FONT
 72
     5
 11
3241.939453
 21
1131.860962
  0
TEXT
  8
CSLAYER1
 62
     3
 10
3130.579102
 20
877.855408
 40
40.000000
 41
0.847059
  1
１７６　Ｋｇ
 50
0.000000
 51
0.000000
  7
EASYDRAW_FONT
 72
     5
 11
3322.579102
 21
877.855408
  0
LINE
  8
CSLAYER1
  6
CONTINUOUS
 62
     5
 10
3365.548980
 20
1056.834291
 11
2644.676463
 21
1056.834291
  0
TEXT
  8
CSLAYER1
 62
     4
 10
2656.765869
 20
1131.470337
 40
40.000000
 41
0.942857
  1
電源コード
 50
0.000000
 51
0.000000
  7
EASYDRAW_FONT
 72
     5
 11
2832.765869
 21
1131.470337
  0
TEXT
  8
CSLAYER1
 62
     4
 10
2657.194840
 20
1062.348886
 40
47.730206
 41
0.593339
  1
昇降時間 ２２秒（50HZ） １８秒(60HZ)
 50
0.000000
 51
0.000000
  7
EASYDRAW_FONT
 72
     5
 11
3327.439926
 21
1062.348886
  0
TEXT
  8
CSLAYER1
 62
     4
 10
2658.495605
 20
936.905945
 40
40.000000
 41
0.912766
  1
上昇端、下降端リミットスイッチ付
 50
0.000000
 51
0.000000
  7
EASYDRAW_FONT
 72
     5
 11
3230.495605
 21
936.905945
  0
TEXT
  8
CSLAYER1
 62
     4
 10
2660.342340
 20
1001.569263
 40
45.879784
 41
0.605080
  1
最大使用頻度８０回／時間・最大起動頻度１０回／分
 50
0.000000
 51
0.000000
  7
EASYDRAW_FONT
 72
     5
 11
3317.351019
 21
1001.569263
  0
LINE
  8
CSLAYER1
  6
CONTINUOUS
 62
     5
 10
3365.548980
 20
1306.166290
 11
2644.676463
 21
1306.166290
  0
TEXT
  8
CSLAYER1
 62
     4
 10
2854.504883
 20
1317.900024
 40
40.000000
 41
0.825000
  1
マグネットスイッチ制御
 50
0.000000
 51
0.000000
  7
EASYDRAW_FONT
 72
     5
 11
3206.504883
 21
1317.900024
  0
TEXT
  8
CSLAYER1
 62
     4
 10
2658.117676
 20
1315.910767
 40
40.000000
 41
0.872727
  1
制御方式
 50
0.000000
 51
0.000000
  7
EASYDRAW_FONT
 72
     5
 11
2786.117676
 21
1315.910767
  0
LINE
  8
CSLAYER1
  6
CONTINUOUS
 62
     5
 10
2725.450515
 20
2336.204796
 11
2573.823677
 21
2131.678454
  0
LINE
  8
CSLAYER1
  6
CONTINUOUS
 62
     5
 10
2573.823677
 20
2131.678454
 11
2584.843853
 21
2159.581066
  0
LINE
  8
CSLAYER1
  6
CONTINUOUS
 62
     5
 10
2573.823677
 20
2131.678454
 11
2597.318735
 21
2150.332736
  0
LINE
  8
CSLAYER1
  6
CONTINUOUS
 62
     5
 10
2653.504882
 20
2187.649027
 11
2599.512870
 21
1895.861430
  0
LINE
  8
CSLAYER1
  6
CONTINUOUS
 62
     5
 10
2599.512870
 20
1895.861430
 11
2597.150414
 21
1925.768266
  0
LINE
  8
CSLAYER1
  6
CONTINUOUS
 62
     5
 10
2599.512870
 20
1895.861430
 11
2612.420341
 21
1922.942738
  0
TEXT
  8
CSLAYER1
 62
     3
 10
2654.418457
 20
1830.192505
 40
40.000000
 41
1.036364
  1
積載荷重
 50
0.000000
 51
0.000000
  7
EASYDRAW_FONT
 72
     5
 11
2806.418457
 21
1830.192505
  0
TEXT
  8
CSLAYER1
 62
     5
 10
2672.594971
 20
2096.395996
 40
40.000000
 41
1.020000
  1
コード長サ２ｍ
 50
360.000000
 51
0.000000
  7
EASYDRAW_FONT
 72
     5
 11
2944.594971
 21
2096.395996
  0
LINE
  8
CSLAYER1
  6
CONTINUOUS
 62
     5
 10
3365.548980
 20
800.834297
 11
2644.676463
 21
800.834297
  0
TEXT
  8
CSLAYER1
 62
     4
 10
2969.978516
 20
811.505493
 40
40.000000
 41
0.926087
  1
　１０Ｒ４／１３
 50
0.000000
 51
0.000000
  7
EASYDRAW_FONT
 72
     5
 11
3253.978516
 21
811.505493
  0
INSERT
  8
CSLAYER1
  2
BLKF0002
 10
0.0
 20
0.0
 30
0.0
  0
ENDSEC
  0
EOF
