  0
SECTION
  2
HEADER
  9
$ACADVER
  1
AC1006
  9
$INSBASE
 10
-1071.632736
 20
3541.074919
 30
0.0
  9
$EXTMIN
 10
-1071.632736
 20
3541.074919
  9
$EXTMAX
 10
4388.367264
 20
7396.074919
  9
$LIMMIN
 10
-1071.632736
 20
3541.074919
  9
$LIMMAX
 10
4388.367264
 20
7396.074919
  9
$VIEWCTR
 10
1658.367264
 20
5468.574919
  9
$VIEWSIZE
 40
3855.000000
  9
$SNAPMODE
 70
     0
  9
$SNAPUNIT
 10
1.0
 20
1.0
  9
$SNAPBASE
 10
0.0
 20
0.0
  9
$SNAPANG
 50
0.0
  9
$SNAPSTYLE
 70
     0
  9
$SNAPISOPAIR
 70
     0
  9
$GRIDMODE
 70
     0
  9
$GRIDUNIT
 10
0.0
 20
0.0
  9
$ORTHOMODE
 70
     0
  9
$REGENMODE
 70
     1
  9
$FILLMODE
 70
     1
  9
$QTEXTMODE
 70
     0
  9
$DRAGMODE
 70
     2
  9
$LTSCALE
 40
15.000000
  9
$OSMODE
 70
     0
  9
$ATTMODE
 70
     1
  9
$TEXTSIZE
 40
0.2
  9
$TRACEWID
 40
0.05
  9
$TEXTSTYLE
  7
STANDARD
  9
$CLAYER
  8
CSLAYER1
  9
$CELTYPE
  6
BYLAYER
  9
$CECOLOR
 62
   256
  9
$DIMSCALE
 40
1.0
  9
$DIMASZ
 40
0.18
  9
$DIMEXO
 40
0.0625
  9
$DIMDLI
 40
0.38
  9
$DIMRND
 40
0.0
  9
$DIMDLE
 40
0.0
  9
$DIMEXE
 40
0.18
  9
$DIMTP
 40
0.0
  9
$DIMTM
 40
0.0
  9
$DIMTXT
 40
0.18
  9
$DIMCEN
 40
0.09
  9
$DIMTSZ
 40
0.0
  9
$DIMTOL
 70
     0
  9
$DIMLIM
 70
     0
  9
$DIMTIH
 70
     1
  9
$DIMTOH
 70
     1
  9
$DIMSE1
 70
     0
  9
$DIMSE2
 70
     0
  9
$DIMTAD
 70
     0
  9
$DIMZIN
 70
     0
  9
$DIMBLK
  1

  9
$LUNITS
 70
     2
  9
$LUPREC
 70
     4
  9
$AXISMODE
 70
     0
  9
$AXISUNIT
 10
0.0
 20
0.0
  9
$SKETCHINC
 40
0.1
  9
$FILLETRAD
 40
0.0
  9
$AUNITS
 70
     0
  9
$AUPREC
 70
     0
  9
$MENU
  1
ACAD
  9
$ELEVATION
 40
0.0
  9
$THICKNESS
 40
0.0
  9
$VIEWDIR
 10
0.0
 20
0.0
 30
1.0
  9
$LIMCHECK
 70
     0
  9
$BLIPMODE
 70
     1
  9
$CHAMFERA
 40
0.0
  9
$CHAMFERB
 40
0.0
  9
$FASTZOOM
 70
     1
  9
$SKPOLY
 70
     0
  9
$TDCREATE
 40
2457497.000000
  9
$TDUPDATE
 40
2457497.000000
  9
$TDINDWG
 40
0.0
  9
$TDUSRTIMER
 40
0.0
  9
$USRTIMER
 70
     1
  9
$ANGBASE
 50
0.0
  9
$ANGDIR
 70
     0
  9
$PDMODE
 70
     0
  9
$PDSIZE
 40
0.0
  9
$PLINEWID
 40
0.0
  9
$COORDS
 70
     0
  9
$USERI1
 70
     0
  9
$USERI2
 70
     0
  9
$USERI3
 70
     0
  9
$USERI4
 70
     0
  9
$USERI5
 70
     0
  9
$USERR1
 40
0.0
  9
$USERR2
 40
0.0
  9
$USERR3
 40
0.0
  9
$USERR4
 40
0.0
  9
$USERR5
 40
0.0
  0
ENDSEC
  0
SECTION
  2
TABLES
  0
TABLE
  2
LTYPE
 70
     9
  0
LTYPE
  2
CONTINUOUS
 70
    64
  3
Solid line
 72
    65
 73
     0
 40
0.0
  0
LTYPE
  2
DASHED
 70
    64
  3
__ __ __ __ __ __ __ __ __ __ __ __ __ __ __
 72
    65
 73
     2
 40
0.75
 49
0.5
 49
-0.25
  0
LTYPE
  2
HIDDEN
 70
    64
  3
_ _ _ _ _ _ _ _ _ _ _ _ _ _ _ _ _ _ _ _ _ _ _
 72
    65
 73
     2
 40
0.375
 49
0.25
 49
-0.125
  0
LTYPE
  2
DOT
 70
    64
  3
...............................................
 72
    65
 73
     2
 40
0.25
 49
0.0
 49
-0.25
  0
LTYPE
  2
DASHDOT
 70
    64
  3
__ . __ . __ . __ . __ . __ . __ . __ . __ . __
 72
    65
 73
     4
 40
1.0
 49
0.5
 49
-0.25
 49
0.0
 49
-0.25
  0
LTYPE
  2
DIVIDE
 70
    64
  3
__ . . __ . . __ . . __ . . __ . . __ . . __
 72
    65
 73
     6
 40
1.25
 49
0.5
 49
-0.25
 49
0.0
 49
-0.25
 49
0.0
 49
-0.25
  0
LTYPE
  2
CENTER
 70
    64
  3
____ _ ____ _ ____ _ ____ _ ____ _ ____ _ ____ 
 72
    65
 73
     4
 40
2.0
 49
1.25
 49
-0.25
 49
0.25
 49
-0.25
  0
LTYPE
  2
PHANTOM
 70
    64
  3
______  __  __  ______  __  __  ______  __  __ 
 72
    65
 73
     6
 40
2.5
 49
1.25
 49
-0.25
 49
0.25
 49
-0.25
 49
0.25
 49
-0.25
  0
LTYPE
  2
BORDER
 70
    64
  3
__ __ . __ __ . __ __ . __ __ . __ __ . __ __ .
 72
    65
 73
     6
 40
1.75
 49
0.5
 49
-0.25
 49
0.5
 49
-0.25
 49
0.0
 49
-0.25
  0
ENDTAB
  0
TABLE
  2
LAYER
 70
    16
  0
LAYER
  2
CSLAYER1
 70
    64
 62
     7
  6
CONTINUOUS
  0
LAYER
  2
CSLAYER2
 70
    64
 62
     7
  6
CONTINUOUS
  0
LAYER
  2
CSLAYER3
 70
    64
 62
     7
  6
CONTINUOUS
  0
LAYER
  2
CSLAYER4
 70
    64
 62
     7
  6
CONTINUOUS
  0
LAYER
  2
CSLAYER5
 70
    64
 62
     7
  6
CONTINUOUS
  0
LAYER
  2
CSLAYER6
 70
    64
 62
     7
  6
CONTINUOUS
  0
LAYER
  2
CSLAYER7
 70
    64
 62
     7
  6
CONTINUOUS
  0
LAYER
  2
CSLAYER8
 70
    64
 62
     7
  6
CONTINUOUS
  0
LAYER
  2
CSLAYER9
 70
    64
 62
     7
  6
CONTINUOUS
  0
LAYER
  2
CSLAYER10
 70
    64
 62
     7
  6
CONTINUOUS
  0
LAYER
  2
CSLAYER11
 70
    64
 62
     7
  6
CONTINUOUS
  0
LAYER
  2
CSLAYER12
 70
    64
 62
     7
  6
CONTINUOUS
  0
LAYER
  2
CSLAYER13
 70
    64
 62
     7
  6
CONTINUOUS
  0
LAYER
  2
CSLAYER14
 70
    64
 62
     7
  6
CONTINUOUS
  0
LAYER
  2
CSLAYER15
 70
    64
 62
     7
  6
CONTINUOUS
  0
LAYER
  2
CSLAYER16
 70
    64
 62
     7
  6
CONTINUOUS
  0
ENDTAB
  0
TABLE
  2
STYLE
 70
     1
  0
STYLE
  2
EASYDRAW_FONT
 70
     0
 40
1.0
 41
1.0
 50
0.0
 71
     0
 42
1.0
  3
monotxt
  4
bigfont
  0
ENDTAB
  0
TABLE
  2
VIEW
 70
     0
  0
ENDTAB
  0
ENDSEC
  0
SECTION
  2
BLOCKS
  0
BLOCK
  8
CSLAYER1
  2
*D0000
 70
    65
 10
0.0
 20
0.0
 30
0.0
  0
TEXT
  8
CSLAYER1
 62
     3
 10
3240.809326
 20
591.323547
 40
60.000000
 41
0.843750
  1
155
 50
90.000000
 51
0.000000
  7
EASYDRAW_FONT
 72
     5
 11
3240.809326
 21
726.323547
  0
LINE
  8
CSLAYER1
  6
CONTINUOUS
 62
     5
 10
3133.787599
 20
739.234293
 11
3283.787599
 21
739.234293
  0
LINE
  8
CSLAYER1
  6
CONTINUOUS
 62
     5
 10
3268.787599
 20
584.234293
 11
3268.787599
 21
739.234293
  0
LINE
  8
CSLAYER1
  6
CONTINUOUS
 62
     5
 10
3268.787599
 20
584.234293
 11
3257.140742
 21
627.700955
  0
LINE
  8
CSLAYER1
  6
CONTINUOUS
 62
     5
 10
3268.787599
 20
584.234293
 11
3280.434456
 21
627.700955
  0
LINE
  8
CSLAYER1
  6
CONTINUOUS
 62
     5
 10
3268.787599
 20
739.234293
 11
3257.140742
 21
695.767631
  0
LINE
  8
CSLAYER1
  6
CONTINUOUS
 62
     5
 10
3268.787599
 20
739.234293
 11
3280.434456
 21
695.767631
  0
ENDBLK
  8
0
  0
BLOCK
  8
CSLAYER1
  2
*D0001
 70
    65
 10
0.0
 20
0.0
 30
0.0
  0
TEXT
  8
CSLAYER1
 62
     3
 10
3253.787354
 20
1114.569702
 40
60.000000
 41
0.843750
  1
860
 50
90.000000
 51
0.000000
  7
EASYDRAW_FONT
 72
     5
 11
3253.787354
 21
1249.569702
  0
LINE
  8
CSLAYER1
  6
CONTINUOUS
 62
     5
 10
3268.787599
 20
739.234293
 11
3268.787599
 21
1624.905522
  0
LINE
  8
CSLAYER1
  6
CONTINUOUS
 62
     5
 10
3268.787599
 20
739.234293
 11
3257.140742
 21
782.700955
  0
LINE
  8
CSLAYER1
  6
CONTINUOUS
 62
     5
 10
3268.787599
 20
739.234293
 11
3280.434456
 21
782.700955
  0
LINE
  8
CSLAYER1
  6
CONTINUOUS
 62
     5
 10
3268.787599
 20
1624.905522
 11
3257.140742
 21
1581.438860
  0
LINE
  8
CSLAYER1
  6
CONTINUOUS
 62
     5
 10
3268.787599
 20
1624.905522
 11
3280.434456
 21
1581.438860
  0
ENDBLK
  8
0
  0
BLOCK
  8
CSLAYER1
  2
*D0002
 70
    65
 10
0.0
 20
0.0
 30
0.0
  0
TEXT
  8
CSLAYER1
 62
     3
 10
3403.787354
 20
1014.569702
 40
60.000000
 41
0.818182
  1
1015
 50
90.000000
 51
0.000000
  7
EASYDRAW_FONT
 72
     5
 11
3403.787354
 21
1194.569702
  0
LINE
  8
CSLAYER1
  6
CONTINUOUS
 62
     5
 10
3133.787599
 20
1624.905522
 11
3433.787599
 21
1624.905522
  0
LINE
  8
CSLAYER1
  6
CONTINUOUS
 62
     5
 10
3418.787599
 20
584.234293
 11
3418.787599
 21
1624.905522
  0
LINE
  8
CSLAYER1
  6
CONTINUOUS
 62
     5
 10
3418.787599
 20
584.234293
 11
3407.140742
 21
627.700955
  0
LINE
  8
CSLAYER1
  6
CONTINUOUS
 62
     5
 10
3418.787599
 20
584.234293
 11
3430.434456
 21
627.700955
  0
LINE
  8
CSLAYER1
  6
CONTINUOUS
 62
     5
 10
3418.787599
 20
1624.905522
 11
3407.140742
 21
1581.438860
  0
LINE
  8
CSLAYER1
  6
CONTINUOUS
 62
     5
 10
3418.787599
 20
1624.905522
 11
3430.434456
 21
1581.438860
  0
ENDBLK
  8
0
  0
BLOCK
  8
CSLAYER1
  2
*D0003
 70
    65
 10
0.0
 20
0.0
 30
0.0
  0
TEXT
  8
CSLAYER1
 62
     3
 10
2353.787354
 20
1789.905640
 40
60.000000
 41
0.818182
  1
1350
 50
0.000000
 51
0.000000
  7
EASYDRAW_FONT
 72
     5
 11
2533.787354
 21
1789.905640
  0
LINE
  8
CSLAYER1
  6
CONTINUOUS
 62
     5
 10
1768.787599
 20
1639.905522
 11
1768.787599
 21
1789.905522
  0
LINE
  8
CSLAYER1
  6
CONTINUOUS
 62
     5
 10
3118.787599
 20
1639.905522
 11
3118.787599
 21
1789.905522
  0
LINE
  8
CSLAYER1
  6
CONTINUOUS
 62
     5
 10
1768.787599
 20
1774.905522
 11
3118.787599
 21
1774.905522
  0
LINE
  8
CSLAYER1
  6
CONTINUOUS
 62
     5
 10
1768.787599
 20
1774.905522
 11
1812.254261
 21
1786.552379
  0
LINE
  8
CSLAYER1
  6
CONTINUOUS
 62
     5
 10
1768.787599
 20
1774.905522
 11
1812.254261
 21
1763.258665
  0
LINE
  8
CSLAYER1
  6
CONTINUOUS
 62
     5
 10
3118.787599
 20
1774.905522
 11
3075.320937
 21
1786.552379
  0
LINE
  8
CSLAYER1
  6
CONTINUOUS
 62
     5
 10
3118.787599
 20
1774.905522
 11
3075.320937
 21
1763.258665
  0
ENDBLK
  8
0
  0
BLOCK
  8
CSLAYER1
  2
*D0004
 70
    65
 10
0.0
 20
0.0
 30
0.0
  0
TEXT
  8
CSLAYER1
 62
     3
 10
1603.787598
 20
2416.191162
 40
60.000000
 41
0.843750
  1
750
 50
90.000000
 51
0.000000
  7
EASYDRAW_FONT
 72
     5
 11
1603.787598
 21
2551.191162
  0
LINE
  8
CSLAYER1
  6
CONTINUOUS
 62
     5
 10
1753.787599
 20
2108.691037
 11
1603.787599
 21
2108.691037
  0
LINE
  8
CSLAYER1
  6
CONTINUOUS
 62
     5
 10
1753.787599
 20
2858.691037
 11
1603.787599
 21
2858.691037
  0
LINE
  8
CSLAYER1
  6
CONTINUOUS
 62
     5
 10
1618.787599
 20
2108.691037
 11
1618.787599
 21
2858.691037
  0
LINE
  8
CSLAYER1
  6
CONTINUOUS
 62
     5
 10
1618.787599
 20
2108.691037
 11
1607.140742
 21
2152.157700
  0
LINE
  8
CSLAYER1
  6
CONTINUOUS
 62
     5
 10
1618.787599
 20
2108.691037
 11
1630.434456
 21
2152.157700
  0
LINE
  8
CSLAYER1
  6
CONTINUOUS
 62
     5
 10
1618.787599
 20
2858.691037
 11
1607.140742
 21
2815.224375
  0
LINE
  8
CSLAYER1
  6
CONTINUOUS
 62
     5
 10
1618.787599
 20
2858.691037
 11
1630.434456
 21
2815.224375
  0
ENDBLK
  8
0
  0
BLOCK
  8
CSLAYER1
  2
*D0005
 70
    65
 10
0.0
 20
0.0
 30
0.0
  0
TEXT
  8
CSLAYER1
 62
     3
 10
1656.263062
 20
457.446106
 40
60.000000
 41
0.900000
  1
66
 50
0.000000
 51
0.000000
  7
EASYDRAW_FONT
 72
     5
 11
1746.263062
 21
457.446106
  0
LINE
  8
CSLAYER1
  6
CONTINUOUS
 62
     5
 10
1834.787599
 20
569.234293
 11
1834.787599
 21
419.234293
  0
LINE
  8
CSLAYER1
  6
CONTINUOUS
 62
     5
 10
1689.078869
 20
434.234293
 11
1768.787599
 21
434.234293
  0
LINE
  8
CSLAYER1
  6
CONTINUOUS
 62
     5
 10
1768.787599
 20
434.234293
 11
1725.320937
 21
445.881150
  0
LINE
  8
CSLAYER1
  6
CONTINUOUS
 62
     5
 10
1768.787599
 20
434.234293
 11
1725.320937
 21
422.587436
  0
LINE
  8
CSLAYER1
  6
CONTINUOUS
 62
     5
 10
1768.787599
 20
434.234293
 11
1834.787599
 21
434.234293
  0
ENDBLK
  8
0
  0
BLOCK
  8
CSLAYER1
  2
*D0006
 70
    65
 10
0.0
 20
0.0
 30
0.0
  0
TEXT
  8
CSLAYER1
 62
     3
 10
2344.787354
 20
449.234192
 40
60.000000
 41
0.818182
  1
1200
 50
0.000000
 51
0.000000
  7
EASYDRAW_FONT
 72
     5
 11
2524.787354
 21
449.234192
  0
LINE
  8
CSLAYER1
  6
CONTINUOUS
 62
     5
 10
3034.787599
 20
569.234293
 11
3034.787599
 21
419.234293
  0
LINE
  8
CSLAYER1
  6
CONTINUOUS
 62
     5
 10
1834.787599
 20
434.234293
 11
3034.787599
 21
434.234293
  0
LINE
  8
CSLAYER1
  6
CONTINUOUS
 62
     5
 10
1834.787599
 20
434.234293
 11
1878.254261
 21
445.881150
  0
LINE
  8
CSLAYER1
  6
CONTINUOUS
 62
     5
 10
1834.787599
 20
434.234293
 11
1878.254261
 21
422.587436
  0
LINE
  8
CSLAYER1
  6
CONTINUOUS
 62
     5
 10
3034.787599
 20
434.234293
 11
2991.320937
 21
445.881150
  0
LINE
  8
CSLAYER1
  6
CONTINUOUS
 62
     5
 10
3034.787599
 20
434.234293
 11
2991.320937
 21
422.587436
  0
ENDBLK
  8
0
  0
BLOCK
  8
CSLAYER1
  2
*D0007
 70
    65
 10
0.0
 20
0.0
 30
0.0
  0
TEXT
  8
CSLAYER1
 62
     3
 10
3169.625244
 20
455.581360
 40
60.000000
 41
0.900000
  1
84
 50
0.000000
 51
0.000000
  7
EASYDRAW_FONT
 72
     5
 11
3259.625244
 21
455.581360
  0
LINE
  8
CSLAYER1
  6
CONTINUOUS
 62
     5
 10
3034.787599
 20
434.234293
 11
3118.787599
 21
434.234293
  0
LINE
  8
CSLAYER1
  6
CONTINUOUS
 62
     5
 10
3118.787599
 20
434.234293
 11
3213.293161
 21
434.234293
  0
LINE
  8
CSLAYER1
  6
CONTINUOUS
 62
     5
 10
3118.787599
 20
434.234293
 11
3162.254261
 21
445.881150
  0
LINE
  8
CSLAYER1
  6
CONTINUOUS
 62
     5
 10
3118.787599
 20
434.234293
 11
3162.254261
 21
422.587436
  0
ENDBLK
  8
0
  0
BLOCK
  8
CSLAYER1
  2
*D0008
 70
    65
 10
0.0
 20
0.0
 30
0.0
  0
TEXT
  8
CSLAYER1
 62
     3
 10
2353.787354
 20
299.234192
 40
60.000000
 41
0.818182
  1
1350
 50
0.000000
 51
0.000000
  7
EASYDRAW_FONT
 72
     5
 11
2533.787354
 21
299.234192
  0
LINE
  8
CSLAYER1
  6
CONTINUOUS
 62
     5
 10
1768.787599
 20
671.234293
 11
1768.787599
 21
269.234293
  0
LINE
  8
CSLAYER1
  6
CONTINUOUS
 62
     5
 10
3118.787599
 20
671.234293
 11
3118.787599
 21
269.234293
  0
LINE
  8
CSLAYER1
  6
CONTINUOUS
 62
     5
 10
1768.787599
 20
284.234293
 11
3118.787599
 21
284.234293
  0
LINE
  8
CSLAYER1
  6
CONTINUOUS
 62
     5
 10
1768.787599
 20
284.234293
 11
1812.254261
 21
295.881150
  0
LINE
  8
CSLAYER1
  6
CONTINUOUS
 62
     5
 10
1768.787599
 20
284.234293
 11
1812.254261
 21
272.587436
  0
LINE
  8
CSLAYER1
  6
CONTINUOUS
 62
     5
 10
3118.787599
 20
284.234293
 11
3075.320937
 21
295.881150
  0
LINE
  8
CSLAYER1
  6
CONTINUOUS
 62
     5
 10
3118.787599
 20
284.234293
 11
3075.320937
 21
272.587436
  0
ENDBLK
  8
0
  0
BLOCK
  8
CSLAYER1
  2
*D0009
 70
    65
 10
0.0
 20
0.0
 30
0.0
  0
TEXT
  8
CSLAYER1
 62
     3
 10
777.940796
 20
449.234192
 40
60.000000
 41
0.843750
  1
500
 50
0.000000
 51
0.000000
  7
EASYDRAW_FONT
 72
     5
 11
912.940796
 21
449.234192
  0
LINE
  8
CSLAYER1
  6
CONTINUOUS
 62
     5
 10
595.440830
 20
569.234293
 11
595.440830
 21
419.234293
  0
LINE
  8
CSLAYER1
  6
CONTINUOUS
 62
     5
 10
1095.440830
 20
569.234293
 11
1095.440830
 21
419.234293
  0
LINE
  8
CSLAYER1
  6
CONTINUOUS
 62
     5
 10
595.440830
 20
434.234293
 11
1095.440830
 21
434.234293
  0
LINE
  8
CSLAYER1
  6
CONTINUOUS
 62
     5
 10
595.440830
 20
434.234293
 11
638.907492
 21
445.881150
  0
LINE
  8
CSLAYER1
  6
CONTINUOUS
 62
     5
 10
595.440830
 20
434.234293
 11
638.907492
 21
422.587436
  0
LINE
  8
CSLAYER1
  6
CONTINUOUS
 62
     5
 10
1095.440830
 20
434.234293
 11
1051.974168
 21
445.881150
  0
LINE
  8
CSLAYER1
  6
CONTINUOUS
 62
     5
 10
1095.440830
 20
434.234293
 11
1051.974168
 21
422.587436
  0
ENDBLK
  8
0
  0
BLOCK
  8
CSLAYER1
  2
*D0010
 70
    65
 10
0.0
 20
0.0
 30
0.0
  0
TEXT
  8
CSLAYER1
 62
     3
 10
777.940796
 20
299.234192
 40
60.000000
 41
0.843750
  1
730
 50
0.000000
 51
0.000000
  7
EASYDRAW_FONT
 72
     5
 11
912.940796
 21
299.234192
  0
LINE
  8
CSLAYER1
  6
CONTINUOUS
 62
     5
 10
480.440830
 20
589.234293
 11
480.440830
 21
269.234293
  0
LINE
  8
CSLAYER1
  6
CONTINUOUS
 62
     5
 10
1210.440830
 20
589.234293
 11
1210.440830
 21
269.234293
  0
LINE
  8
CSLAYER1
  6
CONTINUOUS
 62
     5
 10
480.440830
 20
284.234293
 11
1210.440830
 21
284.234293
  0
LINE
  8
CSLAYER1
  6
CONTINUOUS
 62
     5
 10
480.440830
 20
284.234293
 11
523.907492
 21
295.881150
  0
LINE
  8
CSLAYER1
  6
CONTINUOUS
 62
     5
 10
480.440830
 20
284.234293
 11
523.907492
 21
272.587436
  0
LINE
  8
CSLAYER1
  6
CONTINUOUS
 62
     5
 10
1210.440830
 20
284.234293
 11
1166.974168
 21
295.881150
  0
LINE
  8
CSLAYER1
  6
CONTINUOUS
 62
     5
 10
1210.440830
 20
284.234293
 11
1166.974168
 21
272.587436
  0
ENDBLK
  8
0
  0
BLOCK
  8
CSLAYER1
  2
BLKF0000
 70
   64
 10
0.0
 20
0.0
 30
0.0
  0
ARC
  8
CSLAYER1
  6
CONTINUOUS
 62
     5
 10
4169.771750
 20
120.742239
 40
5.323837
 50
6.429109
 51
73.182034
  0
ARC
  8
CSLAYER1
  6
CONTINUOUS
 62
     5
 10
4164.580294
 20
119.004650
 40
10.361631
 50
310.517970
 51
330.092764
  0
ARC
  8
CSLAYER1
  6
CONTINUOUS
 62
     5
 10
4164.489320
 20
119.552927
 40
10.722482
 50
-32.205059
 51
9.585194
  0
ARC
  8
CSLAYER1
  6
CONTINUOUS
 62
     5
 10
4169.428412
 20
115.411429
 40
7.151272
 50
180.000000
 51
218.514150
  0
ARC
  8
CSLAYER1
  6
CONTINUOUS
 62
     5
 10
4167.498330
 20
114.395718
 40
5.022423
 50
222.781148
 51
319.406906
  0
ARC
  8
CSLAYER1
  6
CONTINUOUS
 62
     5
 10
4172.096793
 20
116.030557
 40
9.839152
 50
94.574282
 51
183.607718
  0
LINE
  8
CSLAYER1
  6
CONTINUOUS
 62
     5
 10
4192.262653
 20
108.355309
 11
4190.977098
 21
103.797435
  0
LINE
  8
CSLAYER1
  6
CONTINUOUS
 62
     5
 10
4194.950630
 20
138.156795
 11
4191.795178
 21
142.247195
  0
LINE
  8
CSLAYER1
  6
CONTINUOUS
 62
     5
 10
4191.795178
 20
142.247195
 11
4181.665147
 21
147.884063
  0
LINE
  8
CSLAYER1
  6
CONTINUOUS
 62
     5
 10
4181.665147
 20
147.884063
 11
4171.312106
 21
149.088369
  0
LINE
  8
CSLAYER1
  6
CONTINUOUS
 62
     5
 10
4143.878268
 20
129.020359
 11
4147.098310
 21
136.466705
  0
LINE
  8
CSLAYER1
  6
CONTINUOUS
 62
     5
 10
4147.042813
 20
136.338369
 11
4150.318351
 21
140.290504
  0
LINE
  8
CSLAYER1
  6
CONTINUOUS
 62
     5
 10
4150.318351
 20
140.290504
 11
4155.274984
 21
143.838369
  0
LINE
  8
CSLAYER1
  6
CONTINUOUS
 62
     5
 10
4171.312106
 20
149.088369
 11
4169.034843
 21
147.938103
  0
LINE
  8
CSLAYER1
  6
CONTINUOUS
 62
     5
 10
4169.034843
 20
147.938103
 11
4163.802275
 21
147.938103
  0
LINE
  8
CSLAYER1
  6
CONTINUOUS
 62
     5
 10
4163.802275
 20
147.938103
 11
4158.469081
 21
145.019940
  0
LINE
  8
CSLAYER1
  6
CONTINUOUS
 62
     5
 10
4158.469081
 20
145.019940
 11
4155.274984
 21
143.838369
  0
LINE
  8
CSLAYER1
  6
CONTINUOUS
 62
     5
 10
4143.878268
 20
129.020359
 11
4141.601947
 21
117.697454
  0
LINE
  8
CSLAYER1
  6
CONTINUOUS
 62
     5
 10
4141.601947
 20
117.697454
 11
4141.312106
 21
113.838369
  0
LINE
  8
CSLAYER1
  6
CONTINUOUS
 62
     5
 10
4145.376180
 20
102.078696
 11
4141.312106
 21
111.222862
  0
LINE
  8
CSLAYER1
  6
CONTINUOUS
 62
     5
 10
4141.312106
 20
111.222862
 11
4141.312106
 21
113.838369
  0
LINE
  8
CSLAYER1
  6
CONTINUOUS
 62
     5
 10
4190.977098
 20
103.797435
 11
4188.448418
 21
99.292925
  0
LINE
  8
CSLAYER1
  6
CONTINUOUS
 62
     5
 10
4188.448418
 20
99.292925
 11
4186.312106
 21
97.314859
  0
ARC
  8
CSLAYER1
  6
CONTINUOUS
 62
     5
 10
4168.024189
 20
114.643510
 40
25.899940
 50
208.054813
 51
260.640470
  0
ARC
  8
CSLAYER1
  6
CONTINUOUS
 62
     5
 10
4160.234096
 20
133.757214
 40
44.811916
 50
274.579659
 51
305.587364
  0
ARC
  8
CSLAYER1
  6
CONTINUOUS
 62
     5
 10
4176.692620
 20
124.781631
 40
22.632940
 50
313.467013
 51
331.085078
  0
LINE
  8
CSLAYER1
  6
CONTINUOUS
 62
     5
 10
4198.879618
 20
119.108501
 11
4199.325560
 21
124.781631
  0
LINE
  8
CSLAYER1
  6
CONTINUOUS
 62
     5
 10
4199.325560
 20
124.781631
 11
4197.387563
 21
133.945105
  0
LINE
  8
CSLAYER1
  6
CONTINUOUS
 62
     5
 10
4198.879618
 20
119.108501
 11
4196.504106
 21
113.838369
  0
ARC
  8
CSLAYER1
  6
CONTINUOUS
 62
     5
 10
4176.692620
 20
124.781631
 40
22.632940
 50
23.883193
 51
36.225170
  0
LINE
  8
CSLAYER1
  6
CONTINUOUS
 62
     5
 10
4117.312106
 20
166.338369
 11
4118.812106
 21
167.977336
  0
LINE
  8
CSLAYER1
  6
CONTINUOUS
 62
     5
 10
4117.312106
 20
166.338369
 11
4119.677543
 21
164.170820
  0
LINE
  8
CSLAYER1
  6
CONTINUOUS
 62
     5
 10
4121.986362
 20
161.006882
 11
4122.025764
 21
157.754704
  0
LINE
  8
CSLAYER1
  6
CONTINUOUS
 62
     5
 10
4122.025764
 20
157.754704
 11
4122.336861
 21
156.614015
  0
LINE
  8
CSLAYER1
  6
CONTINUOUS
 62
     5
 10
4122.336861
 20
156.614015
 11
4123.218303
 21
155.525175
  0
LINE
  8
CSLAYER1
  6
CONTINUOUS
 62
     5
 10
4123.218303
 20
155.525175
 11
4124.099744
 21
155.628874
  0
LINE
  8
CSLAYER1
  6
CONTINUOUS
 62
     5
 10
4124.099744
 20
155.628874
 11
4125.033035
 21
155.888122
  0
LINE
  8
CSLAYER1
  6
CONTINUOUS
 62
     5
 10
4125.033035
 20
155.888122
 11
4125.655229
 21
155.628874
  0
LINE
  8
CSLAYER1
  6
CONTINUOUS
 62
     5
 10
4125.655229
 20
155.628874
 11
4127.003316
 21
154.954831
  0
LINE
  8
CSLAYER1
  6
CONTINUOUS
 62
     5
 10
4127.003316
 20
154.954831
 11
4128.167393
 21
154.338369
  0
LINE
  8
CSLAYER1
  6
CONTINUOUS
 62
     5
 10
4128.167393
 20
154.338369
 11
4128.921747
 21
154.384486
  0
LINE
  8
CSLAYER1
  6
CONTINUOUS
 62
     5
 10
4128.921747
 20
154.384486
 11
4133.133555
 21
156.554206
  0
LINE
  8
CSLAYER1
  6
CONTINUOUS
 62
     5
 10
4118.812106
 20
167.977336
 11
4119.311384
 21
170.187897
  0
LINE
  8
CSLAYER1
  6
CONTINUOUS
 62
     5
 10
4119.311384
 20
170.187897
 11
4121.491492
 21
170.413425
  0
LINE
  8
CSLAYER1
  6
CONTINUOUS
 62
     5
 10
4123.732129
 20
174.566113
 11
4126.363389
 21
174.801748
  0
LINE
  8
CSLAYER1
  6
CONTINUOUS
 62
     5
 10
4126.363389
 20
174.801748
 11
4131.665180
 21
176.058469
  0
LINE
  8
CSLAYER1
  6
CONTINUOUS
 62
     5
 10
4131.665180
 20
176.058469
 11
4133.812106
 21
176.555928
  0
LINE
  8
CSLAYER1
  6
CONTINUOUS
 62
     5
 10
4123.732129
 20
174.566113
 11
4120.832793
 21
174.804415
  0
LINE
  8
CSLAYER1
  6
CONTINUOUS
 62
     5
 10
4119.728608
 20
173.501384
 11
4119.868896
 21
172.944642
  0
LINE
  8
CSLAYER1
  6
CONTINUOUS
 62
     5
 10
4119.868896
 20
172.944642
 11
4120.606287
 21
172.138120
  0
LINE
  8
CSLAYER1
  6
CONTINUOUS
 62
     5
 10
4120.606287
 20
172.138120
 11
4121.620200
 21
171.377686
  0
LINE
  8
CSLAYER1
  6
CONTINUOUS
 62
     5
 10
4121.620200
 20
171.377686
 11
4121.805187
 21
171.131036
  0
LINE
  8
CSLAYER1
  6
CONTINUOUS
 62
     5
 10
4119.677543
 20
164.170820
 11
4121.986362
 21
161.006882
  0
ARC
  8
CSLAYER1
  6
CONTINUOUS
 62
     5
 10
4186.292157
 20
-91.149610
 40
271.091195
 50
80.438896
 51
96.353582
  0
ARC
  8
CSLAYER1
  6
CONTINUOUS
 62
     5
 10
4148.943787
 20
126.722240
 40
52.080363
 50
81.866516
 51
106.890578
  0
LINE
  8
CSLAYER1
  6
CONTINUOUS
 62
     5
 10
4237.603498
 20
174.988375
 11
4240.974122
 21
173.456273
  0
LINE
  8
CSLAYER1
  6
CONTINUOUS
 62
     5
 10
4246.336478
 20
171.081515
 11
4240.974122
 21
173.456273
  0
LINE
  8
CSLAYER1
  6
CONTINUOUS
 62
     5
 10
4237.603498
 20
174.988375
 11
4231.312106
 21
176.177232
  0
LINE
  8
CSLAYER1
  6
CONTINUOUS
 62
     5
 10
4246.312106
 20
171.092308
 11
4249.119469
 21
168.739593
  0
LINE
  8
CSLAYER1
  6
CONTINUOUS
 62
     5
 10
4221.176990
 20
172.647585
 11
4222.525902
 21
174.826597
  0
LINE
  8
CSLAYER1
  6
CONTINUOUS
 62
     5
 10
4222.525902
 20
174.826597
 11
4229.539300
 21
173.147333
  0
LINE
  8
CSLAYER1
  6
CONTINUOUS
 62
     5
 10
4229.539300
 20
173.147333
 11
4254.652879
 21
166.338369
  0
LINE
  8
CSLAYER1
  6
CONTINUOUS
 62
     5
 10
4259.062106
 20
166.338369
 11
4249.119469
 21
168.739593
  0
LINE
  8
CSLAYER1
  6
CONTINUOUS
 62
     5
 10
4254.652879
 20
166.338369
 11
4259.062106
 21
166.338369
  0
LINE
  8
CSLAYER1
  6
CONTINUOUS
 62
     5
 10
4171.312106
 20
173.035781
 11
4201.312106
 21
173.838369
  0
LINE
  8
CSLAYER1
  6
CONTINUOUS
 62
     5
 10
4201.312106
 20
173.838369
 11
4221.176990
 21
172.647585
  0
LINE
  8
CSLAYER1
  6
CONTINUOUS
 62
     5
 10
4223.581462
 20
169.556865
 11
4201.312106
 21
171.588369
  0
LINE
  8
CSLAYER1
  6
CONTINUOUS
 62
     5
 10
4201.312106
 20
171.588369
 11
4178.738292
 21
172.201347
  0
LINE
  8
CSLAYER1
  6
CONTINUOUS
 62
     5
 10
4178.812106
 20
172.199343
 11
4171.312106
 21
172.342284
  0
LINE
  8
CSLAYER1
  6
CONTINUOUS
 62
     5
 10
4171.312106
 20
173.035781
 11
4171.312106
 21
172.342284
  0
LINE
  8
CSLAYER1
  6
CONTINUOUS
 62
     5
 10
4257.562106
 20
161.088369
 11
4244.298268
 21
164.554363
  0
LINE
  8
CSLAYER1
  6
CONTINUOUS
 62
     5
 10
4223.581462
 20
169.556865
 11
4238.812106
 21
166.598290
  0
LINE
  8
CSLAYER1
  6
CONTINUOUS
 62
     5
 10
4238.812106
 20
166.598290
 11
4244.298268
 21
164.554363
  0
LINE
  8
CSLAYER1
  6
CONTINUOUS
 62
     5
 10
4257.562106
 20
161.088369
 11
4257.123180
 21
159.829711
  0
LINE
  8
CSLAYER1
  6
CONTINUOUS
 62
     5
 10
4271.812106
 20
152.838369
 11
4271.353065
 21
154.681841
  0
LINE
  8
CSLAYER1
  6
CONTINUOUS
 62
     5
 10
4257.123180
 20
159.829711
 11
4271.353065
 21
154.681841
  0
LINE
  8
CSLAYER1
  6
CONTINUOUS
 62
     5
 10
4176.562106
 20
161.088369
 11
4180.196663
 21
161.088369
  0
LINE
  8
CSLAYER1
  6
CONTINUOUS
 62
     5
 10
4210.312106
 20
161.737113
 11
4210.312106
 21
161.088369
  0
LINE
  8
CSLAYER1
  6
CONTINUOUS
 62
     5
 10
4208.812106
 20
162.538774
 11
4206.245187
 21
163.494542
  0
LINE
  8
CSLAYER1
  6
CONTINUOUS
 62
     5
 10
4206.245187
 20
163.494542
 11
4204.580103
 21
163.570227
  0
LINE
  8
CSLAYER1
  6
CONTINUOUS
 62
     5
 10
4204.580103
 20
163.570227
 11
4203.861090
 21
163.191799
  0
LINE
  8
CSLAYER1
  6
CONTINUOUS
 62
     5
 10
4203.861090
 20
163.191799
 11
4203.709718
 21
162.586314
  0
LINE
  8
CSLAYER1
  6
CONTINUOUS
 62
     5
 10
4203.709718
 20
162.586314
 11
4204.390889
 21
162.132200
  0
LINE
  8
CSLAYER1
  6
CONTINUOUS
 62
     5
 10
4204.390889
 20
162.132200
 11
4206.850672
 21
161.905143
  0
LINE
  8
CSLAYER1
  6
CONTINUOUS
 62
     5
 10
4206.850672
 20
161.905143
 11
4210.312106
 21
161.737113
  0
LINE
  8
CSLAYER1
  6
CONTINUOUS
 62
     5
 10
4271.812106
 20
152.838369
 11
4267.348792
 21
154.618242
  0
LINE
  8
CSLAYER1
  6
CONTINUOUS
 62
     5
 10
4267.348792
 20
154.618242
 11
4252.265258
 21
157.382555
  0
LINE
  8
CSLAYER1
  6
CONTINUOUS
 62
     5
 10
4252.265258
 20
157.382555
 11
4244.726588
 21
159.122248
  0
LINE
  8
CSLAYER1
  6
CONTINUOUS
 62
     5
 10
4211.113437
 20
162.588369
 11
4228.761936
 21
162.588369
  0
LINE
  8
CSLAYER1
  6
CONTINUOUS
 62
     5
 10
4208.812106
 20
162.538774
 11
4209.599096
 21
162.076073
  0
LINE
  8
CSLAYER1
  6
CONTINUOUS
 62
     5
 10
4209.599096
 20
162.076073
 11
4210.044314
 21
161.942508
  0
LINE
  8
CSLAYER1
  6
CONTINUOUS
 62
     5
 10
4210.044314
 20
161.942508
 11
4210.312106
 21
161.980263
  0
LINE
  8
CSLAYER1
  6
CONTINUOUS
 62
     5
 10
4210.312106
 20
161.980263
 11
4211.113437
 21
162.588369
  0
LINE
  8
CSLAYER1
  6
CONTINUOUS
 62
     5
 10
4228.761936
 20
162.588369
 11
4235.437340
 21
161.045131
  0
LINE
  8
CSLAYER1
  6
CONTINUOUS
 62
     5
 10
4235.437340
 20
161.045131
 11
4241.667127
 21
159.297408
  0
LINE
  8
CSLAYER1
  6
CONTINUOUS
 62
     5
 10
4241.667127
 20
159.297408
 11
4244.726588
 21
159.122248
  0
LINE
  8
CSLAYER1
  6
CONTINUOUS
 62
     5
 10
4175.062106
 20
159.588369
 11
4175.062106
 21
158.838369
  0
LINE
  8
CSLAYER1
  6
CONTINUOUS
 62
     5
 10
4171.312106
 20
158.838369
 11
4175.062106
 21
158.838369
  0
ARC
  8
CSLAYER1
  6
CONTINUOUS
 62
     5
 10
4176.562106
 20
159.588369
 40
1.500000
 50
90.000000
 51
180.000000
  0
LINE
  8
CSLAYER1
  6
CONTINUOUS
 62
     5
 10
4180.196663
 20
161.088369
 11
4181.242998
 21
160.230375
  0
LINE
  8
CSLAYER1
  6
CONTINUOUS
 62
     5
 10
4182.146550
 20
160.194434
 11
4183.432945
 21
161.088369
  0
LINE
  8
CSLAYER1
  6
CONTINUOUS
 62
     5
 10
4185.800540
 20
161.088369
 11
4188.301228
 21
160.101256
  0
LINE
  8
CSLAYER1
  6
CONTINUOUS
 62
     5
 10
4188.936791
 20
160.141024
 11
4190.667022
 21
161.088369
  0
LINE
  8
CSLAYER1
  6
CONTINUOUS
 62
     5
 10
4183.432945
 20
161.088369
 11
4185.800540
 21
161.088369
  0
LINE
  8
CSLAYER1
  6
CONTINUOUS
 62
     5
 10
4190.667022
 20
161.088369
 11
4210.312106
 21
161.088369
  0
LINE
  8
CSLAYER1
  6
CONTINUOUS
 62
     5
 10
4139.135581
 20
156.425130
 11
4171.312106
 21
158.838369
  0
LINE
  8
CSLAYER1
  6
CONTINUOUS
 62
     5
 10
4133.133555
 20
156.554206
 11
4139.135581
 21
156.425130
  0
ARC
  8
CSLAYER1
  6
CONTINUOUS
 62
     5
 10
4181.718558
 20
160.810325
 40
0.750000
 50
230.648247
 51
304.796026
  0
ARC
  8
CSLAYER1
  6
CONTINUOUS
 62
     5
 10
4188.576603
 20
160.798872
 40
0.750000
 50
248.459024
 51
298.701829
  0
ARC
  8
CSLAYER1
  6
CONTINUOUS
 62
     5
 10
4121.445187
 20
170.861036
 40
0.450000
 50
-84.093859
 51
36.869898
  0
ARC
  8
CSLAYER1
  6
CONTINUOUS
 62
     5
 10
4120.746781
 20
173.757944
 40
1.050000
 50
85.301319
 51
194.142980
  0
LINE
  8
CSLAYER1
  6
CONTINUOUS
 62
     3
 10
4169.034843
 20
147.938103
 11
4181.200586
 21
147.938103
  0
LINE
  8
CSLAYER1
  6
CONTINUOUS
 62
     3
 10
4159.416068
 20
145.538103
 11
4185.881079
 21
145.538103
  0
LINE
  8
CSLAYER1
  6
CONTINUOUS
 62
     3
 10
4154.296660
 20
143.138103
 11
4190.194126
 21
143.138103
  0
LINE
  8
CSLAYER1
  6
CONTINUOUS
 62
     3
 10
4150.943680
 20
140.738103
 11
4192.959335
 21
140.738103
  0
LINE
  8
CSLAYER1
  6
CONTINUOUS
 62
     3
 10
4148.700197
 20
138.338103
 11
4194.810764
 21
138.338103
  0
LINE
  8
CSLAYER1
  6
CONTINUOUS
 62
     3
 10
4146.869725
 20
135.938103
 11
4196.384829
 21
135.938103
  0
LINE
  8
CSLAYER1
  6
CONTINUOUS
 62
     3
 10
4145.831887
 20
133.538103
 11
4197.473641
 21
133.538103
  0
LINE
  8
CSLAYER1
  6
CONTINUOUS
 62
     3
 10
4144.794049
 20
131.138103
 11
4197.981220
 21
131.138103
  0
LINE
  8
CSLAYER1
  6
CONTINUOUS
 62
     3
 10
4143.821524
 20
128.738103
 11
4198.488800
 21
128.738103
  0
LINE
  8
CSLAYER1
  6
CONTINUOUS
 62
     3
 10
4143.339036
 20
126.338103
 11
4198.996379
 21
126.338103
  0
LINE
  8
CSLAYER1
  6
CONTINUOUS
 62
     3
 10
4142.856547
 20
123.938103
 11
4166.241912
 21
123.938103
  0
LINE
  8
CSLAYER1
  6
CONTINUOUS
 62
     3
 10
4142.374059
 20
121.538103
 11
4163.943521
 21
121.538103
  0
LINE
  8
CSLAYER1
  6
CONTINUOUS
 62
     3
 10
4141.891571
 20
119.138103
 11
4162.761266
 21
119.138103
  0
LINE
  8
CSLAYER1
  6
CONTINUOUS
 62
     3
 10
4141.529894
 20
116.738103
 11
4162.283115
 21
116.738103
  0
LINE
  8
CSLAYER1
  6
CONTINUOUS
 62
     3
 10
4141.349639
 20
114.338103
 11
4162.358146
 21
114.338103
  0
LINE
  8
CSLAYER1
  6
CONTINUOUS
 62
     3
 10
4141.312106
 20
111.938103
 11
4163.177277
 21
111.938103
  0
LINE
  8
CSLAYER1
  6
CONTINUOUS
 62
     3
 10
4142.060888
 20
109.538103
 11
4166.222280
 21
109.538103
  0
LINE
  8
CSLAYER1
  6
CONTINUOUS
 62
     3
 10
4143.127555
 20
107.138103
 11
4191.919338
 21
107.138103
  0
LINE
  8
CSLAYER1
  6
CONTINUOUS
 62
     3
 10
4144.194221
 20
104.738103
 11
4191.242415
 21
104.738103
  0
LINE
  8
CSLAYER1
  6
CONTINUOUS
 62
     3
 10
4145.260888
 20
102.338103
 11
4190.157878
 21
102.338103
  0
LINE
  8
CSLAYER1
  6
CONTINUOUS
 62
     3
 10
4146.703826
 20
99.938103
 11
4188.810599
 21
99.938103
  0
LINE
  8
CSLAYER1
  6
CONTINUOUS
 62
     3
 10
4148.576518
 20
97.538103
 11
4186.553209
 21
97.538103
  0
LINE
  8
CSLAYER1
  6
CONTINUOUS
 62
     3
 10
4150.984648
 20
95.138103
 11
4182.964518
 21
95.138103
  0
LINE
  8
CSLAYER1
  6
CONTINUOUS
 62
     3
 10
4154.205361
 20
92.738103
 11
4178.276833
 21
92.738103
  0
LINE
  8
CSLAYER1
  6
CONTINUOUS
 62
     3
 10
4159.076897
 20
90.338103
 11
4171.319610
 21
90.338103
  0
LINE
  8
CSLAYER1
  6
CONTINUOUS
 62
     3
 10
4174.029648
 20
123.938103
 11
4199.259253
 21
123.938103
  0
LINE
  8
CSLAYER1
  6
CONTINUOUS
 62
     3
 10
4175.035764
 20
121.538103
 11
4199.070599
 21
121.538103
  0
LINE
  8
CSLAYER1
  6
CONTINUOUS
 62
     3
 10
4175.203774
 20
119.138103
 11
4198.881945
 21
119.138103
  0
LINE
  8
CSLAYER1
  6
CONTINUOUS
 62
     3
 10
4174.835739
 20
116.738103
 11
4197.811161
 21
116.738103
  0
LINE
  8
CSLAYER1
  6
CONTINUOUS
 62
     3
 10
4173.858270
 20
114.338103
 11
4196.729361
 21
114.338103
  0
LINE
  8
CSLAYER1
  6
CONTINUOUS
 62
     3
 10
4172.158375
 20
111.938103
 11
4195.328439
 21
111.938103
  0
LINE
  8
CSLAYER1
  6
CONTINUOUS
 62
     3
 10
4168.774380
 20
109.538103
 11
4193.422378
 21
109.538103
  0
TEXT
  8
CSLAYER1
 62
     5
 10
4200.069867
 20
120.954866
 40
7.070172
 41
1.951056
  1
M
 50
0.000000
 51
0.000000
  7
EASYDRAW_FONT
 72
     5
 11
4209.266070
 21
120.954866
  0
TEXT
  8
CSLAYER1
 62
     5
 10
4214.546948
 20
120.867460
 40
6.939931
 41
0.778201
  1
T
 50
0.000000
 51
0.000000
  7
EASYDRAW_FONT
 72
     5
 11
4218.147388
 21
120.867460
  0
TEXT
  8
CSLAYER1
 62
     5
 10
4218.695292
 20
120.919658
 40
7.044274
 41
1.055553
  1
E
 50
0.000000
 51
0.000000
  7
EASYDRAW_FONT
 72
     5
 11
4223.652364
 21
120.919658
  0
TEXT
  8
CSLAYER1
 62
     5
 10
4223.369808
 20
123.343425
 40
0.522425
 41
9.375319
  1
-
 50
0.000000
 51
0.000000
  7
EASYDRAW_FONT
 72
     5
 11
4226.635075
 21
123.343425
  0
TEXT
  8
CSLAYER1
 62
     5
 10
4226.090633
 20
120.872638
 40
7.292489
 41
1.298502
  1
H
 50
0.000000
 51
0.000000
  7
EASYDRAW_FONT
 72
     5
 11
4232.403507
 21
120.872638
  0
TEXT
  8
CSLAYER1
 62
     5
 10
4232.204778
 20
120.918206
 40
7.264708
 41
1.269236
  1
A
 50
0.000000
 51
0.000000
  7
EASYDRAW_FONT
 72
     5
 11
4238.351862
 21
120.918206
  0
TEXT
  8
CSLAYER1
 62
     5
 10
4237.764134
 20
120.855916
 40
7.238043
 41
1.490144
  1
N
 50
0.000000
 51
0.000000
  7
EASYDRAW_FONT
 72
     5
 11
4244.954616
 21
120.855916
  0
TEXT
  8
CSLAYER1
 62
     5
 10
4208.951077
 20
120.822056
 40
7.473487
 41
1.177443
  1
A
 50
0.000000
 51
0.000000
  7
EASYDRAW_FONT
 72
     5
 11
4214.817478
 21
120.822056
  0
TEXT
  8
CSLAYER1
 62
     5
 10
4200.620022
 20
110.329197
 40
7.473487
 41
1.177443
  1
A
 50
0.000000
 51
0.000000
  7
EASYDRAW_FONT
 72
     5
 11
4206.486423
 21
110.329197
  0
TEXT
  8
CSLAYER1
 62
     5
 10
4219.797268
 20
110.371678
 40
7.473487
 41
1.177443
  1
A
 50
0.000000
 51
0.000000
  7
EASYDRAW_FONT
 72
     5
 11
4225.663670
 21
110.371678
  0
TEXT
  8
CSLAYER1
 62
     5
 10
4225.437962
 20
110.457173
 40
7.238043
 41
1.490144
  1
N
 50
0.000000
 51
0.000000
  7
EASYDRAW_FONT
 72
     5
 11
4232.628444
 21
110.457173
  0
TEXT
  8
CSLAYER1
 62
     5
 10
4238.791344
 20
110.469766
 40
7.262663
 41
1.184218
  1
E
 50
0.000000
 51
0.000000
  7
EASYDRAW_FONT
 72
     5
 11
4244.525062
 21
110.469766
  0
TEXT
  8
CSLAYER1
 62
     5
 10
4207.041096
 20
110.327210
 40
7.421797
 41
1.093992
  1
D
 50
0.000000
 51
0.000000
  7
EASYDRAW_FONT
 72
     5
 11
4212.454021
 21
110.327210
  0
TEXT
  8
CSLAYER1
 62
     5
 10
4213.645000
 20
110.319133
 40
7.386315
 41
1.228195
  1
V
 50
0.000000
 51
0.000000
  7
EASYDRAW_FONT
 72
     5
 11
4219.692891
 21
110.319133
  0
TEXT
  8
CSLAYER1
 62
     5
 10
4231.982558
 20
110.350231
 40
7.549340
 41
1.481023
  1
C
 50
0.000000
 51
0.000000
  7
EASYDRAW_FONT
 72
     5
 11
4239.436388
 21
110.350231
  0
LINE
  8
CSLAYER1
  6
CONTINUOUS
 62
     5
 10
4217.928111
 20
126.940827
 11
4216.410018
 21
126.940827
  0
LINE
  8
CSLAYER1
  6
CONTINUOUS
 62
     3
 10
4141.575468
 20
178.278734
 11
4216.272208
 21
178.278734
  0
LINE
  8
CSLAYER1
  6
CONTINUOUS
 62
     3
 10
4130.906922
 20
175.878734
 11
4232.891745
 21
175.878734
  0
LINE
  8
CSLAYER1
  6
CONTINUOUS
 62
     3
 10
4119.734315
 20
173.478734
 11
4187.869281
 21
173.478734
  0
LINE
  8
CSLAYER1
  6
CONTINUOUS
 62
     3
 10
4207.311605
 20
173.478734
 11
4221.691511
 21
173.478734
  0
LINE
  8
CSLAYER1
  6
CONTINUOUS
 62
     3
 10
4228.155211
 20
173.478734
 11
4240.924707
 21
173.478734
  0
LINE
  8
CSLAYER1
  6
CONTINUOUS
 62
     3
 10
4121.839024
 20
171.078734
 11
4206.898728
 21
171.078734
  0
LINE
  8
CSLAYER1
  6
CONTINUOUS
 62
     3
 10
4237.168936
 20
171.078734
 11
4246.328303
 21
171.078734
  0
LINE
  8
CSLAYER1
  6
CONTINUOUS
 62
     3
 10
4118.970524
 20
168.678734
 11
4228.102050
 21
168.678734
  0
LINE
  8
CSLAYER1
  6
CONTINUOUS
 62
     3
 10
4246.020884
 20
168.678734
 11
4249.371466
 21
168.678734
  0
LINE
  8
CSLAYER1
  6
CONTINUOUS
 62
     3
 10
4117.377186
 20
166.278734
 11
4239.669834
 21
166.278734
  0
LINE
  8
CSLAYER1
  6
CONTINUOUS
 62
     3
 10
4119.890686
 20
163.878734
 11
4246.883797
 21
163.878734
  0
LINE
  8
CSLAYER1
  6
CONTINUOUS
 62
     3
 10
4121.642038
 20
161.478734
 11
4210.312106
 21
161.478734
  0
LINE
  8
CSLAYER1
  6
CONTINUOUS
 62
     3
 10
4233.561753
 20
161.478734
 11
4256.068238
 21
161.478734
  0
LINE
  8
CSLAYER1
  6
CONTINUOUS
 62
     3
 10
4122.009723
 20
159.078734
 11
4175.062106
 21
159.078734
  0
LINE
  8
CSLAYER1
  6
CONTINUOUS
 62
     3
 10
4244.915147
 20
159.078734
 11
4259.199051
 21
159.078734
  0
LINE
  8
CSLAYER1
  6
CONTINUOUS
 62
     3
 10
4122.319210
 20
156.678734
 11
4142.516971
 21
156.678734
  0
LINE
  8
CSLAYER1
  6
CONTINUOUS
 62
     3
 10
4256.105670
 20
156.678734
 11
4265.833197
 21
156.678734
  0
LINE
  8
CSLAYER1
  6
CONTINUOUS
 62
     3
 10
4268.200161
 20
154.278734
 11
4271.453442
 21
154.278734
  0
ENDBLK
  8
0
  0
BLOCK
  8
CSLAYER1
  2
BLKF0001
 70
   64
 10
0.0
 20
0.0
 30
0.0
  0
LINE
  8
CSLAYER1
  6
DOT
 62
     5
 10
2414.191870
 20
1465.410564
 11
2466.284250
 21
1426.281930
  0
LINE
  8
CSLAYER1
  6
DOT
 62
     5
 10
2372.544185
 20
1359.379809
 11
2462.904785
 21
1475.421452
  0
LINE
  8
CSLAYER1
  6
DOT
 62
     5
 10
2375.054030
 20
1385.593881
 11
2397.334753
 21
1368.244079
  0
LINE
  8
CSLAYER1
  6
DOT
 62
     5
 10
2307.407687
 20
1319.436439
 11
2397.403938
 21
1439.249438
  0
LINE
  8
CSLAYER1
  6
DOT
 62
     5
 10
2445.028565
 20
1404.414722
 11
2398.454047
 21
1439.398673
  0
LINE
  8
CSLAYER1
  6
DOT
 62
     5
 10
2445.028565
 20
1404.414722
 11
2445.227544
 21
1403.014577
  0
LINE
  8
CSLAYER1
  6
DOT
 62
     5
 10
2398.454047
 20
1439.398673
 11
2397.403938
 21
1439.249438
  0
LINE
  8
CSLAYER1
  6
DOT
 62
     5
 10
2406.805558
 20
1433.125525
 11
2411.218553
 21
1435.662922
  0
LINE
  8
CSLAYER1
  6
DOT
 62
     5
 10
2411.218553
 20
1435.662922
 11
2411.769872
 21
1429.396633
  0
LINE
  8
CSLAYER1
  6
DOT
 62
     5
 10
2411.769872
 20
1429.396633
 11
2413.564330
 21
1430.975794
  0
LINE
  8
CSLAYER1
  6
DOT
 62
     5
 10
2411.769872
 20
1429.396633
 11
2410.904971
 21
1435.482618
  0
LINE
  8
CSLAYER1
  6
DOT
 62
     5
 10
2411.543722
 20
1429.566504
 11
2410.718221
 21
1435.375240
  0
LINE
  8
CSLAYER1
  6
DOT
 62
     5
 10
2411.317571
 20
1429.736374
 11
2410.531472
 21
1435.267862
  0
LINE
  8
CSLAYER1
  6
DOT
 62
     5
 10
2411.091421
 20
1429.906245
 11
2410.344722
 21
1435.160484
  0
LINE
  8
CSLAYER1
  6
DOT
 62
     5
 10
2410.865270
 20
1430.076115
 11
2410.157972
 21
1435.053106
  0
LINE
  8
CSLAYER1
  6
DOT
 62
     5
 10
2410.639120
 20
1430.245986
 11
2409.971222
 21
1434.945728
  0
LINE
  8
CSLAYER1
  6
DOT
 62
     5
 10
2410.412969
 20
1430.415856
 11
2409.784473
 21
1434.838350
  0
LINE
  8
CSLAYER1
  6
DOT
 62
     5
 10
2410.186819
 20
1430.585727
 11
2409.597723
 21
1434.730972
  0
LINE
  8
CSLAYER1
  6
DOT
 62
     5
 10
2409.960668
 20
1430.755597
 11
2409.410973
 21
1434.623594
  0
LINE
  8
CSLAYER1
  6
DOT
 62
     5
 10
2409.734518
 20
1430.925468
 11
2409.224224
 21
1434.516217
  0
LINE
  8
CSLAYER1
  6
DOT
 62
     5
 10
2409.508368
 20
1431.095338
 11
2409.037474
 21
1434.408839
  0
LINE
  8
CSLAYER1
  6
DOT
 62
     5
 10
2409.282217
 20
1431.265209
 11
2408.850724
 21
1434.301461
  0
LINE
  8
CSLAYER1
  6
DOT
 62
     5
 10
2409.056067
 20
1431.435079
 11
2408.663975
 21
1434.194083
  0
LINE
  8
CSLAYER1
  6
DOT
 62
     5
 10
2408.829916
 20
1431.604949
 11
2408.477225
 21
1434.086705
  0
LINE
  8
CSLAYER1
  6
DOT
 62
     5
 10
2408.603766
 20
1431.774820
 11
2408.290475
 21
1433.979327
  0
LINE
  8
CSLAYER1
  6
DOT
 62
     5
 10
2408.377615
 20
1431.944690
 11
2408.103726
 21
1433.871949
  0
LINE
  8
CSLAYER1
  6
DOT
 62
     5
 10
2408.151465
 20
1432.114561
 11
2407.916976
 21
1433.764571
  0
LINE
  8
CSLAYER1
  6
DOT
 62
     5
 10
2407.925315
 20
1432.284431
 11
2407.730226
 21
1433.657194
  0
LINE
  8
CSLAYER1
  6
DOT
 62
     5
 10
2407.699164
 20
1432.454302
 11
2407.543477
 21
1433.549816
  0
LINE
  8
CSLAYER1
  6
DOT
 62
     5
 10
2407.473014
 20
1432.624172
 11
2407.356727
 21
1433.442438
  0
LINE
  8
CSLAYER1
  6
DOT
 62
     5
 10
2407.246863
 20
1432.794043
 11
2407.169977
 21
1433.335060
  0
LINE
  8
CSLAYER1
  6
DOT
 62
     5
 10
2407.020713
 20
1432.963913
 11
2406.983228
 21
1433.227682
  0
LINE
  8
CSLAYER1
  6
DOT
 62
     5
 10
2411.949426
 20
1429.554645
 11
2411.091721
 21
1435.589995
  0
LINE
  8
CSLAYER1
  6
DOT
 62
     5
 10
2412.128980
 20
1429.712656
 11
2411.318013
 21
1435.419125
  0
LINE
  8
CSLAYER1
  6
DOT
 62
     5
 10
2412.308534
 20
1429.870667
 11
2411.620913
 21
1434.709196
  0
LINE
  8
CSLAYER1
  6
DOT
 62
     5
 10
2412.488088
 20
1430.028678
 11
2411.914997
 21
1434.061303
  0
LINE
  8
CSLAYER1
  6
DOT
 62
     5
 10
2412.667642
 20
1430.186690
 11
2412.202052
 21
1433.462867
  0
LINE
  8
CSLAYER1
  6
DOT
 62
     5
 10
2412.847196
 20
1430.344701
 11
2412.483327
 21
1432.905111
  0
LINE
  8
CSLAYER1
  6
DOT
 62
     5
 10
2413.026750
 20
1430.502712
 11
2412.759732
 21
1432.381618
  0
LINE
  8
CSLAYER1
  6
DOT
 62
     5
 10
2413.206304
 20
1430.660723
 11
2413.031958
 21
1431.887526
  0
LINE
  8
CSLAYER1
  6
DOT
 62
     5
 10
2413.385858
 20
1430.818735
 11
2413.300545
 21
1431.419050
  0
LINE
  8
CSLAYER1
  6
DOT
 62
     5
 10
2436.876945
 20
1410.537724
 11
2438.084416
 21
1415.482916
  0
LINE
  8
CSLAYER1
  6
DOT
 62
     5
 10
2438.084416
 20
1415.482916
 11
2431.912630
 21
1414.266616
  0
LINE
  8
CSLAYER1
  6
DOT
 62
     5
 10
2431.912630
 20
1414.266616
 11
2432.929330
 21
1416.429980
  0
LINE
  8
CSLAYER1
  6
DOT
 62
     5
 10
2431.912630
 20
1414.266616
 11
2437.998615
 21
1415.131517
  0
LINE
  8
CSLAYER1
  6
DOT
 62
     5
 10
2432.138781
 20
1414.096745
 11
2437.947517
 21
1414.922246
  0
LINE
  8
CSLAYER1
  6
DOT
 62
     5
 10
2432.364931
 20
1413.926875
 11
2437.896419
 21
1414.712974
  0
LINE
  8
CSLAYER1
  6
DOT
 62
     5
 10
2432.591082
 20
1413.757004
 11
2437.845321
 21
1414.503703
  0
LINE
  8
CSLAYER1
  6
DOT
 62
     5
 10
2432.817232
 20
1413.587134
 11
2437.794223
 21
1414.294432
  0
LINE
  8
CSLAYER1
  6
DOT
 62
     5
 10
2433.043383
 20
1413.417263
 11
2437.743125
 21
1414.085161
  0
LINE
  8
CSLAYER1
  6
DOT
 62
     5
 10
2433.269533
 20
1413.247393
 11
2437.692027
 21
1413.875889
  0
LINE
  8
CSLAYER1
  6
DOT
 62
     5
 10
2433.495683
 20
1413.077522
 11
2437.640929
 21
1413.666618
  0
LINE
  8
CSLAYER1
  6
DOT
 62
     5
 10
2433.721834
 20
1412.907652
 11
2437.589831
 21
1413.457347
  0
LINE
  8
CSLAYER1
  6
DOT
 62
     5
 10
2433.947984
 20
1412.737781
 11
2437.538733
 21
1413.248076
  0
LINE
  8
CSLAYER1
  6
DOT
 62
     5
 10
2434.174135
 20
1412.567911
 11
2437.487635
 21
1413.038804
  0
LINE
  8
CSLAYER1
  6
DOT
 62
     5
 10
2434.400285
 20
1412.398041
 11
2437.436538
 21
1412.829533
  0
LINE
  8
CSLAYER1
  6
DOT
 62
     5
 10
2434.626436
 20
1412.228170
 11
2437.385440
 21
1412.620262
  0
LINE
  8
CSLAYER1
  6
DOT
 62
     5
 10
2434.852586
 20
1412.058300
 11
2437.334342
 21
1412.410991
  0
LINE
  8
CSLAYER1
  6
DOT
 62
     5
 10
2435.078737
 20
1411.888429
 11
2437.283244
 21
1412.201720
  0
LINE
  8
CSLAYER1
  6
DOT
 62
     5
 10
2435.304887
 20
1411.718559
 11
2437.232146
 21
1411.992448
  0
LINE
  8
CSLAYER1
  6
DOT
 62
     5
 10
2435.531037
 20
1411.548688
 11
2437.181048
 21
1411.783177
  0
LINE
  8
CSLAYER1
  6
DOT
 62
     5
 10
2435.757188
 20
1411.378818
 11
2437.129950
 21
1411.573906
  0
LINE
  8
CSLAYER1
  6
DOT
 62
     5
 10
2435.983338
 20
1411.208947
 11
2437.078852
 21
1411.364635
  0
LINE
  8
CSLAYER1
  6
DOT
 62
     5
 10
2436.209489
 20
1411.039077
 11
2437.027754
 21
1411.155363
  0
LINE
  8
CSLAYER1
  6
DOT
 62
     5
 10
2436.435639
 20
1410.869206
 11
2436.976656
 21
1410.946092
  0
LINE
  8
CSLAYER1
  6
DOT
 62
     5
 10
2436.661790
 20
1410.699336
 11
2436.925558
 21
1410.736821
  0
LINE
  8
CSLAYER1
  6
DOT
 62
     5
 10
2432.014362
 20
1414.483083
 11
2438.049713
 21
1415.340788
  0
LINE
  8
CSLAYER1
  6
DOT
 62
     5
 10
2432.116093
 20
1414.699550
 11
2437.822563
 21
1415.510517
  0
LINE
  8
CSLAYER1
  6
DOT
 62
     5
 10
2432.217824
 20
1414.916017
 11
2437.056353
 21
1415.603637
  0
LINE
  8
CSLAYER1
  6
DOT
 62
     5
 10
2432.319556
 20
1415.132484
 11
2436.352180
 21
1415.705574
  0
LINE
  8
CSLAYER1
  6
DOT
 62
     5
 10
2432.421287
 20
1415.348950
 11
2435.697465
 21
1415.814540
  0
LINE
  8
CSLAYER1
  6
DOT
 62
     5
 10
2432.523018
 20
1415.565417
 11
2435.083429
 21
1415.929287
  0
LINE
  8
CSLAYER1
  6
DOT
 62
     5
 10
2432.624750
 20
1415.781884
 11
2434.503655
 21
1416.048902
  0
LINE
  8
CSLAYER1
  6
DOT
 62
     5
 10
2432.726481
 20
1415.998351
 11
2433.953284
 21
1416.172697
  0
LINE
  8
CSLAYER1
  6
DOT
 62
     5
 10
2432.828212
 20
1416.214818
 11
2433.428527
 21
1416.300131
  0
LINE
  8
CSLAYER1
  6
DOT
 62
     5
 10
2410.729594
 20
1430.178027
 11
2421.841251
 21
1421.831625
  0
CIRCLE
  8
CSLAYER1
  6
DOT
 62
     5
 10
2440.008882
 20
1446.018391
 40
22.000000
  0
CIRCLE
  8
CSLAYER1
  6
DOT
 62
     5
 10
2440.008882
 20
1446.018391
 40
22.250000
  0
POINT
  8
CSLAYER1
 62
     5
 10
2327.678387
 20
1301.762874
  0
ARC
  8
CSLAYER1
  6
DOT
 62
     5
 10
2327.678387
 20
1301.762874
 40
15.050000
 50
-69.738110
 51
20.126675
  0
ARC
  8
CSLAYER1
  6
DOT
 62
     5
 10
2338.102371
 20
1273.525478
 40
15.050000
 50
110.261890
 51
133.108846
  0
ARC
  8
CSLAYER1
  6
DOT
 62
     5
 10
2297.747536
 20
1304.949431
 40
15.050000
 50
335.109935
 51
353.922957
  0
POINT
  8
CSLAYER1
 62
     5
 10
2327.678387
 20
1301.762874
  0
ARC
  8
CSLAYER1
  6
DOT
 62
     5
 10
2327.678387
 20
1301.762874
 40
13.000000
 50
104.461194
 51
359.723654
  0
POINT
  8
CSLAYER1
 62
     5
 10
2327.678387
 20
1301.762874
  0
ARC
  8
CSLAYER1
  6
DOT
 62
     5
 10
2327.678387
 20
1301.762874
 40
15.050000
 50
84.058173
 51
173.922957
  0
POINT
  8
CSLAYER1
 62
     5
 10
2327.678387
 20
1301.762874
  0
POINT
  8
CSLAYER1
 62
     5
 10
2347.185255
 20
1326.813715
  0
POINT
  8
CSLAYER1
 62
     5
 10
2366.692123
 20
1351.864555
  0
CIRCLE
  8
CSLAYER1
  6
DOT
 62
     5
 10
2327.678387
 20
1301.762874
 40
4.770000
  0
CIRCLE
  8
CSLAYER1
  6
DOT
 62
     5
 10
2347.185255
 20
1326.813715
 40
4.770000
  0
ARC
  8
CSLAYER1
  6
DOT
 62
     5
 10
2327.678387
 20
1301.762874
 40
13.000000
 50
104.461194
 51
359.723654
  0
ARC
  8
CSLAYER1
  6
DOT
 62
     5
 10
2347.185255
 20
1326.813715
 40
13.000000
 50
-75.538806
 51
179.723654
  0
ARC
  8
CSLAYER1
  6
DOT
 62
     5
 10
2347.185255
 20
1326.813715
 40
15.050000
 50
264.058173
 51
353.922957
  0
ARC
  8
CSLAYER1
  6
DOT
 62
     5
 10
2366.692123
 20
1351.864555
 40
15.050000
 50
-69.738110
 51
20.126675
  0
ARC
  8
CSLAYER1
  6
DOT
 62
     5
 10
2353.678085
 20
1301.637473
 40
13.000000
 50
104.461194
 51
179.723654
  0
ARC
  8
CSLAYER1
  6
DOT
 62
     5
 10
2321.185558
 20
1326.939116
 40
13.000000
 50
284.461194
 51
359.723654
  0
ARC
  8
CSLAYER1
  6
DOT
 62
     5
 10
2377.116107
 20
1323.627159
 40
15.050000
 50
110.261890
 51
173.922957
  0
ARC
  8
CSLAYER1
  6
DOT
 62
     5
 10
2336.761272
 20
1355.051111
 40
15.050000
 50
290.261890
 51
353.922957
  0
POINT
  8
CSLAYER1
 62
     5
 10
2327.678387
 20
1301.762874
  0
CIRCLE
  8
CSLAYER1
  6
DOT
 62
     5
 10
2327.678387
 20
1301.762874
 40
9.525000
  0
CIRCLE
  8
CSLAYER1
  6
DOT
 62
     5
 10
2347.185255
 20
1326.813715
 40
9.525000
  0
ARC
  8
CSLAYER1
  6
DOT
 62
     5
 10
2347.185255
 20
1326.813715
 40
15.050000
 50
110.261890
 51
200.126675
  0
POINT
  8
CSLAYER1
 62
     5
 10
2366.692123
 20
1351.864555
  0
ARC
  8
CSLAYER1
  6
DOT
 62
     5
 10
2366.692123
 20
1351.864555
 40
13.000000
 50
104.461194
 51
359.723654
  0
POINT
  8
CSLAYER1
 62
     5
 10
2366.692123
 20
1351.864555
  0
ARC
  8
CSLAYER1
  6
DOT
 62
     5
 10
2366.692123
 20
1351.864555
 40
15.050000
 50
84.058173
 51
173.922957
  0
POINT
  8
CSLAYER1
 62
     5
 10
2440.008882
 20
1446.018391
  0
POINT
  8
CSLAYER1
 62
     5
 10
2440.008882
 20
1446.018391
  0
ARC
  8
CSLAYER1
  6
DOT
 62
     5
 10
2440.008882
 20
1446.018391
 40
30.250000
 50
-270.204447
 51
14.389295
  0
POINT
  8
CSLAYER1
 62
     5
 10
2386.198991
 20
1376.915396
  0
POINT
  8
CSLAYER1
 62
     5
 10
2386.198991
 20
1376.915396
  0
POINT
  8
CSLAYER1
 62
     5
 10
2386.198991
 20
1376.915396
  0
POINT
  8
CSLAYER1
 62
     5
 10
2386.198991
 20
1376.915396
  0
POINT
  8
CSLAYER1
 62
     5
 10
2386.198991
 20
1376.915396
  0
POINT
  8
CSLAYER1
 62
     5
 10
2386.198991
 20
1376.915396
  0
POINT
  8
CSLAYER1
 62
     5
 10
2386.198991
 20
1376.915396
  0
POINT
  8
CSLAYER1
 62
     5
 10
2386.198991
 20
1376.915396
  0
LINE
  8
CSLAYER1
  6
DOT
 62
     5
 10
2395.414835
 20
1388.750440
 11
2385.946801
 21
1396.123115
  0
LINE
  8
CSLAYER1
  6
DOT
 62
     5
 10
2367.332497
 20
1372.595232
 11
2376.983149
 21
1365.080355
  0
POINT
  8
CSLAYER1
 62
     5
 10
2386.198992
 20
1376.915397
  0
POINT
  8
CSLAYER1
 62
     5
 10
2386.198991
 20
1376.915396
  0
POINT
  8
CSLAYER1
 62
     5
 10
2386.198992
 20
1376.915397
  0
CIRCLE
  8
CSLAYER1
  6
DOT
 62
     5
 10
2386.198992
 20
1376.915397
 40
4.770000
  0
ARC
  8
CSLAYER1
  6
DOT
 62
     5
 10
2386.198992
 20
1376.915397
 40
13.000000
 50
-75.538806
 51
179.723654
  0
ARC
  8
CSLAYER1
  6
DOT
 62
     5
 10
2392.691822
 20
1351.739155
 40
13.000000
 50
104.461194
 51
179.723654
  0
ARC
  8
CSLAYER1
  6
DOT
 62
     5
 10
2360.199295
 20
1377.040799
 40
13.000000
 50
284.461194
 51
359.723654
  0
POINT
  8
CSLAYER1
 62
     5
 10
2386.198991
 20
1376.915396
  0
LINE
  8
CSLAYER1
  6
DOT
 62
     5
 10
2365.426491
 20
1375.611492
 11
2382.372819
 21
1397.374073
  0
LINE
  8
CSLAYER1
  6
DOT
 62
     5
 10
2387.846099
 20
1393.126328
 11
2370.885955
 21
1371.346005
  0
LINE
  8
CSLAYER1
  6
DOT
 62
     5
 10
2372.544185
 20
1359.379809
 11
2454.546005
 21
1464.687054
  0
ARC
  8
CSLAYER1
  6
DOT
 62
     5
 10
2382.424175
 20
1391.790173
 40
5.584136
 50
13.843874
 51
90.526941
  0
ARC
  8
CSLAYER1
  6
DOT
 62
     5
 10
2375.808221
 20
1363.571505
 40
31.912350
 50
52.092424
 51
67.838602
  0
ARC
  8
CSLAYER1
  6
DOT
 62
     5
 10
2370.852723
 20
1376.930043
 40
5.584136
 50
193.657906
 51
270.340973
  0
ARC
  8
CSLAYER1
  6
DOT
 62
     5
 10
2396.589763
 20
1390.259290
 40
31.912350
 50
216.346245
 51
232.092424
  0
LINE
  8
CSLAYER1
  6
DOT
 62
     5
 10
2395.414835
 20
1388.750440
 11
2404.882869
 21
1381.377766
  0
LINE
  8
CSLAYER1
  6
DOT
 62
     5
 10
2386.633801
 20
1357.565477
 11
2376.983149
 21
1365.080355
  0
POINT
  8
CSLAYER1
 62
     5
 10
2386.198992
 20
1376.915397
  0
POINT
  8
CSLAYER1
 62
     5
 10
2386.198992
 20
1376.915397
  0
LINE
  8
CSLAYER1
  6
DOT
 62
     5
 10
2390.025165
 20
1356.456722
 11
2406.971494
 21
1378.219302
  0
LINE
  8
CSLAYER1
  6
DOT
 62
     5
 10
2401.512030
 20
1382.484789
 11
2384.551885
 21
1360.704467
  0
ARC
  8
CSLAYER1
  6
DOT
 62
     5
 10
2401.545261
 20
1376.900752
 40
5.584136
 50
13.657906
 51
90.340973
  0
ARC
  8
CSLAYER1
  6
DOT
 62
     5
 10
2375.808221
 20
1363.571505
 40
31.912350
 50
36.346245
 51
52.092424
  0
ARC
  8
CSLAYER1
  6
DOT
 62
     5
 10
2389.973809
 20
1362.040622
 40
5.584136
 50
193.843874
 51
270.526941
  0
ARC
  8
CSLAYER1
  6
DOT
 62
     5
 10
2396.589763
 20
1390.259290
 40
31.912350
 50
232.092424
 51
247.838602
  0
LINE
  8
CSLAYER1
  6
DOT
 62
     5
 10
2385.946801
 20
1396.123115
 11
2385.944401
 21
1396.124983
  0
LINE
  8
CSLAYER1
  6
DOT
 62
     5
 10
2404.882869
 20
1381.377766
 11
2404.885269
 21
1381.375897
  0
LINE
  8
CSLAYER1
  6
DOT
 62
     5
 10
2441.825567
 20
1476.542800
 11
2446.198659
 21
1482.158752
  0
LINE
  8
CSLAYER1
  6
DOT
 62
     5
 10
2448.658532
 20
1471.222031
 11
2455.363805
 21
1479.832984
  0
LINE
  8
CSLAYER1
  6
DOT
 62
     5
 10
2441.825567
 20
1476.542800
 11
2455.491497
 21
1465.901261
  0
LINE
  8
CSLAYER1
  6
DOT
 62
     5
 10
2469.157427
 20
1455.259722
 11
2473.466933
 21
1460.794016
  0
LINE
  8
CSLAYER1
  6
DOT
 62
     5
 10
2462.324462
 20
1460.580492
 11
2469.001825
 21
1469.155602
  0
LINE
  8
CSLAYER1
  6
DOT
 62
     5
 10
2470.088050
 20
1454.535055
 11
2455.491497
 21
1465.901261
  0
LINE
  8
CSLAYER1
  6
DOT
 62
     5
 10
2404.508093
 20
1381.669601
 11
2404.093867
 21
1381.992155
  0
LINE
  8
CSLAYER1
  6
DOT
 62
     5
 10
2394.852206
 20
1401.862780
 11
2420.835395
 21
1435.230551
  0
LINE
  8
CSLAYER1
  6
DOT
 62
     5
 10
2388.753586
 20
1396.472341
 11
2420.079325
 21
1436.701050
  0
LINE
  8
CSLAYER1
  6
DOT
 62
     5
 10
2468.122003
 20
1452.010246
 11
2438.928898
 21
1474.742658
  0
LINE
  8
CSLAYER1
  6
DOT
 62
     5
 10
2468.122003
 20
1452.010246
 11
2470.088050
 21
1454.535055
  0
LINE
  8
CSLAYER1
  6
DOT
 62
     5
 10
2440.894944
 20
1477.267468
 11
2455.491497
 21
1465.901261
  0
LINE
  8
CSLAYER1
  6
DOT
 62
     5
 10
2438.928898
 20
1474.742658
 11
2440.894944
 21
1477.267468
  0
LINE
  8
CSLAYER1
  6
DOT
 62
     5
 10
2401.558731
 20
1396.640469
 11
2393.668702
 21
1402.784364
  0
LINE
  8
CSLAYER1
  6
DOT
 62
     5
 10
2394.852206
 20
1401.862780
 11
2392.072471
 21
1400.734474
  0
LINE
  8
CSLAYER1
  6
DOT
 62
     5
 10
2386.735804
 20
1395.508725
 11
2386.321577
 21
1395.831280
  0
LINE
  8
CSLAYER1
  6
DOT
 62
     5
 10
2405.297096
 20
1381.055211
 11
2404.882869
 21
1381.377766
  0
LINE
  8
CSLAYER1
  6
DOT
 62
     5
 10
2408.265255
 20
1391.418158
 11
2434.248443
 21
1424.785929
  0
LINE
  8
CSLAYER1
  6
DOT
 62
     5
 10
2401.558731
 20
1396.640469
 11
2409.448759
 21
1390.496573
  0
LINE
  8
CSLAYER1
  6
DOT
 62
     5
 10
2408.265255
 20
1391.418158
 11
2407.852528
 21
1388.446684
  0
LINE
  8
CSLAYER1
  6
DOT
 62
     5
 10
2404.533643
 20
1384.184550
 11
2435.859382
 21
1424.413259
  0
LINE
  8
CSLAYER1
  6
DOT
 62
     5
 10
2385.946801
 20
1396.123115
 11
2385.532575
 21
1396.445669
  0
LINE
  8
CSLAYER1
  6
DOT
 62
     5
 10
2404.882869
 20
1381.377766
 11
2385.946801
 21
1396.123115
  0
ARC
  8
CSLAYER1
  6
DOT
 62
     5
 10
2406.111649
 20
1382.955771
 40
2.000000
 50
142.092424
 51
232.092424
  0
ARC
  8
CSLAYER1
  6
DOT
 62
     5
 10
2387.175580
 20
1397.701120
 40
2.000000
 50
232.092424
 51
322.092424
  0
POINT
  8
CSLAYER1
 62
     5
 10
2395.414835
 20
1388.750440
  0
LINE
  8
CSLAYER1
  6
DOT
 62
     5
 10
2444.158379
 20
1467.623520
 11
2445.635422
 21
1469.520347
  0
LINE
  8
CSLAYER1
  6
DOT
 62
     5
 10
2459.975131
 20
1455.382853
 11
2461.415479
 21
1457.232557
  0
LINE
  8
CSLAYER1
  6
DOT
 62
     5
 10
2459.182366
 20
1456.806227
 11
2460.231975
 21
1458.154141
  0
CIRCLE
  8
CSLAYER1
  6
DOT
 62
     5
 10
2440.008881
 20
1446.018389
 40
22.000000
  0
CIRCLE
  8
CSLAYER1
  6
DOT
 62
     5
 10
2366.692123
 20
1351.864555
 40
4.770000
  0
CIRCLE
  8
CSLAYER1
  6
DOT
 62
     5
 10
2386.198991
 20
1376.915396
 40
4.770000
  0
ARC
  8
CSLAYER1
  6
DOT
 62
     5
 10
2386.198991
 20
1376.915396
 40
13.000000
 50
-76.877857
 51
178.384603
  0
ARC
  8
CSLAYER1
  6
DOT
 62
     5
 10
2392.691821
 20
1351.739154
 40
13.000000
 50
104.461194
 51
179.723654
  0
ARC
  8
CSLAYER1
  6
DOT
 62
     5
 10
2360.199293
 20
1377.040797
 40
13.000000
 50
284.461194
 51
359.723654
  0
CIRCLE
  8
CSLAYER1
  6
DOT
 62
     5
 10
2366.692123
 20
1351.864555
 40
9.525000
  0
CIRCLE
  8
CSLAYER1
  6
DOT
 62
     5
 10
2386.198991
 20
1376.915396
 40
9.525000
  0
POINT
  8
CSLAYER1
 62
     5
 10
2442.872364
 20
1449.829420
  0
ENDBLK
  8
0
  0
BLOCK
  8
CSLAYER1
  2
BLKF0002
 70
   64
 10
0.0
 20
0.0
 30
0.0
  0
LINE
  8
CSLAYER1
  6
DOT
 62
     5
 10
923.640830
 20
662.151359
 11
923.640830
 21
672.151359
  0
LINE
  8
CSLAYER1
  6
CENTER
 62
     5
 10
917.811654
 20
667.151359
 11
952.351784
 21
667.151359
  0
LINE
  8
CSLAYER1
  6
DOT
 62
     5
 10
922.440830
 20
672.151359
 11
923.640830
 21
672.151359
  0
LINE
  8
CSLAYER1
  6
DOT
 62
     5
 10
922.440830
 20
662.151359
 11
923.640830
 21
662.151359
  0
LINE
  8
CSLAYER1
  6
DOT
 62
     5
 10
923.640830
 20
661.845068
 11
926.640830
 21
661.845068
  0
LINE
  8
CSLAYER1
  6
DOT
 62
     5
 10
923.640830
 20
649.234293
 11
923.640830
 21
674.896038
  0
LINE
  8
CSLAYER1
  6
DOT
 62
     5
 10
923.640830
 20
666.192287
 11
926.640830
 21
666.192287
  0
LINE
  8
CSLAYER1
  6
DOT
 62
     5
 10
923.640830
 20
674.896038
 11
927.640830
 21
674.896038
  0
LINE
  8
CSLAYER1
  6
DOT
 62
     5
 10
926.640830
 20
649.234293
 11
926.640830
 21
674.896038
  0
LINE
  8
CSLAYER1
  6
DOT
 62
     5
 10
931.140830
 20
704.727890
 11
932.640830
 21
704.727890
  0
LINE
  8
CSLAYER1
  6
DOT
 62
     5
 10
931.140830
 20
705.236097
 11
932.640830
 21
705.236097
  0
LINE
  8
CSLAYER1
  6
DOT
 62
     5
 10
942.640830
 20
649.234293
 11
942.640830
 21
674.896038
  0
LINE
  8
CSLAYER1
  6
DOT
 62
     5
 10
926.640830
 20
649.234293
 11
926.640830
 21
674.930853
  0
LINE
  8
CSLAYER1
  6
DOT
 62
     5
 10
931.140830
 20
692.924361
 11
931.140830
 21
705.236097
  0
LINE
  8
CSLAYER1
  6
DOT
 62
     5
 10
938.140830
 20
692.924361
 11
938.140830
 21
705.236097
  0
LINE
  8
CSLAYER1
  6
DOT
 62
     5
 10
927.640830
 20
665.609864
 11
927.640830
 21
680.940223
  0
LINE
  8
CSLAYER1
  6
DOT
 62
     5
 10
941.640830
 20
665.609864
 11
941.640830
 21
680.940223
  0
LINE
  8
CSLAYER1
  6
DOT
 62
     5
 10
932.640830
 20
692.924361
 11
932.640830
 21
721.214030
  0
LINE
  8
CSLAYER1
  6
DOT
 62
     5
 10
936.640830
 20
692.924361
 11
936.640830
 21
717.174587
  0
LINE
  8
CSLAYER1
  6
DOT
 62
     5
 10
929.101648
 20
692.924361
 11
936.640830
 21
692.924361
  0
LINE
  8
CSLAYER1
  6
DOT
 62
     5
 10
927.640830
 20
665.609864
 11
926.640830
 21
665.609864
  0
LINE
  8
CSLAYER1
  6
DOT
 62
     5
 10
941.640830
 20
680.940223
 11
940.180012
 21
692.924361
  0
LINE
  8
CSLAYER1
  6
DOT
 62
     5
 10
927.640830
 20
680.940223
 11
929.101648
 21
692.924361
  0
LINE
  8
CSLAYER1
  6
DOT
 62
     5
 10
936.640830
 20
692.924361
 11
940.180012
 21
692.924361
  0
LINE
  8
CSLAYER1
  6
DOT
 62
     5
 10
927.640830
 20
665.609864
 11
942.640830
 21
665.609864
  0
LINE
  8
CSLAYER1
  6
DOT
 62
     5
 10
943.640830
 20
659.358901
 11
943.640830
 21
666.958901
  0
LINE
  8
CSLAYER1
  6
DOT
 62
     5
 10
943.640830
 20
659.358901
 11
942.640830
 21
659.358901
  0
LINE
  8
CSLAYER1
  6
DOT
 62
     5
 10
943.640830
 20
666.958901
 11
942.640830
 21
666.958901
  0
LINE
  8
CSLAYER1
  6
DOT
 62
     5
 10
946.240830
 20
661.658901
 11
946.240830
 21
664.658901
  0
LINE
  8
CSLAYER1
  6
DOT
 62
     5
 10
944.240830
 20
659.658901
 11
943.640830
 21
659.658901
  0
LINE
  8
CSLAYER1
  6
DOT
 62
     5
 10
944.240830
 20
666.658901
 11
943.640830
 21
666.658901
  0
ARC
  8
CSLAYER1
  6
DOT
 62
     5
 10
944.240830
 20
661.658901
 40
2.000000
 50
270.000000
 51
360.000000
  0
ARC
  8
CSLAYER1
  6
DOT
 62
     5
 10
944.240830
 20
664.658901
 40
2.000000
 50
0.000000
 51
90.000000
  0
LINE
  8
CSLAYER1
  6
DOT
 62
     5
 10
942.640830
 20
659.358901
 11
942.640830
 21
666.958901
  0
LINE
  8
CSLAYER1
  6
DOT
 62
     5
 10
941.640830
 20
674.896038
 11
942.640830
 21
674.896038
  0
LINE
  8
CSLAYER1
  6
DOT
 62
     5
 10
936.640830
 20
704.727890
 11
938.140830
 21
704.727890
  0
LINE
  8
CSLAYER1
  6
DOT
 62
     5
 10
936.640830
 20
705.236097
 11
938.140830
 21
705.236097
  0
LINE
  8
CSLAYER1
  6
DOT
 62
     5
 10
930.399075
 20
722.559083
 11
931.894769
 21
721.661667
  0
LINE
  8
CSLAYER1
  6
DOT
 62
     5
 10
931.894769
 20
721.661667
 11
940.868929
 21
713.884061
  0
LINE
  8
CSLAYER1
  6
DOT
 62
     5
 10
922.440830
 20
672.151359
 11
922.440830
 21
662.151359
  0
LINE
  8
CSLAYER1
  6
DOT
 62
     5
 10
942.640830
 20
672.151359
 11
952.440830
 21
672.151359
  0
LINE
  8
CSLAYER1
  6
DOT
 62
     5
 10
946.179253
 20
662.151359
 11
952.440830
 21
662.151359
  0
ENDBLK
  8
0
  0
BLOCK
  8
CSLAYER1
  2
BLKF0003
 70
   64
 10
0.0
 20
0.0
 30
0.0
  0
LINE
  8
CSLAYER1
  6
CONTINUOUS
 62
     3
 10
3469.872641
 20
2413.491037
 11
3469.872641
 21
2475.491037
  0
LINE
  8
CSLAYER1
  6
CONTINUOUS
 62
     3
 10
3472.372641
 20
2410.991037
 11
3557.372641
 21
2410.991037
  0
LINE
  8
CSLAYER1
  6
CENTER
 62
     5
 10
3411.523002
 20
2483.491037
 11
3469.872641
 21
2483.491037
  0
LINE
  8
CSLAYER1
  6
CONTINUOUS
 62
     2
 10
3472.372641
 20
2467.491037
 11
3557.372641
 21
2467.491037
  0
LINE
  8
CSLAYER1
  6
CONTINUOUS
 62
     3
 10
3472.372641
 20
2415.991037
 11
3472.372641
 21
2460.991037
  0
LINE
  8
CSLAYER1
  6
CONTINUOUS
 62
     3
 10
3559.872641
 20
2413.491037
 11
3559.872641
 21
2483.491037
  0
LINE
  8
CSLAYER1
  6
CONTINUOUS
 62
     3
 10
3474.872641
 20
2413.491037
 11
3551.872641
 21
2413.491037
  0
LINE
  8
CSLAYER1
  6
CONTINUOUS
 62
     3
 10
3474.872641
 20
2463.491037
 11
3551.872641
 21
2463.491037
  0
ARC
  8
CSLAYER1
  6
CONTINUOUS
 62
     3
 10
3497.804459
 20
2438.491037
 40
59.568182
 50
-24.814837
 51
24.814837
  0
ARC
  8
CSLAYER1
  6
CONTINUOUS
 62
     3
 10
3474.872641
 20
2415.991037
 40
2.500000
 50
180.000000
 51
270.000000
  0
ARC
  8
CSLAYER1
  6
CONTINUOUS
 62
     3
 10
3474.872641
 20
2460.991037
 40
2.500000
 50
90.000000
 51
180.000000
  0
ARC
  8
CSLAYER1
  6
CONTINUOUS
 62
     3
 10
3472.372641
 20
2413.491037
 40
2.500000
 50
180.000000
 51
270.000000
  0
ARC
  8
CSLAYER1
  6
CONTINUOUS
 62
     3
 10
3557.372641
 20
2413.491037
 40
2.500000
 50
270.000000
 51
360.000000
  0
ARC
  8
CSLAYER1
  6
CONTINUOUS
 62
     2
 10
3557.372641
 20
2469.991037
 40
2.500000
 50
270.000000
 51
360.000000
  0
ARC
  8
CSLAYER1
  6
CONTINUOUS
 62
     2
 10
3472.372641
 20
2469.991037
 40
2.500000
 50
180.000000
 51
270.000000
  0
LINE
  8
CSLAYER1
  6
CONTINUOUS
 62
     3
 10
3469.872641
 20
2553.491037
 11
3469.872641
 21
2491.491037
  0
LINE
  8
CSLAYER1
  6
CONTINUOUS
 62
     3
 10
3472.372641
 20
2555.991037
 11
3557.372641
 21
2555.991037
  0
LINE
  8
CSLAYER1
  6
CONTINUOUS
 62
     2
 10
3472.372641
 20
2499.491037
 11
3557.372641
 21
2499.491037
  0
LINE
  8
CSLAYER1
  6
CONTINUOUS
 62
     3
 10
3559.872641
 20
2553.491037
 11
3559.872641
 21
2483.491037
  0
ARC
  8
CSLAYER1
  6
CONTINUOUS
 62
     3
 10
3472.372641
 20
2553.491037
 40
2.500000
 50
90.000000
 51
180.000000
  0
ARC
  8
CSLAYER1
  6
CONTINUOUS
 62
     3
 10
3557.372641
 20
2553.491037
 40
2.500000
 50
-0.000000
 51
90.000000
  0
ARC
  8
CSLAYER1
  6
CONTINUOUS
 62
     2
 10
3557.372641
 20
2496.991037
 40
2.500000
 50
-0.000000
 51
90.000000
  0
ARC
  8
CSLAYER1
  6
CONTINUOUS
 62
     2
 10
3472.372641
 20
2496.991037
 40
2.500000
 50
90.000000
 51
180.000000
  0
LINE
  8
CSLAYER1
  6
CONTINUOUS
 62
     3
 10
3472.372641
 20
2550.991037
 11
3472.372641
 21
2505.991037
  0
LINE
  8
CSLAYER1
  6
CONTINUOUS
 62
     3
 10
3474.872641
 20
2553.491037
 11
3551.872641
 21
2553.491037
  0
LINE
  8
CSLAYER1
  6
CONTINUOUS
 62
     3
 10
3474.872641
 20
2503.491037
 11
3551.872641
 21
2503.491037
  0
ARC
  8
CSLAYER1
  6
CONTINUOUS
 62
     3
 10
3497.804459
 20
2528.491037
 40
59.568182
 50
-24.814837
 51
24.814837
  0
ARC
  8
CSLAYER1
  6
CONTINUOUS
 62
     3
 10
3474.872641
 20
2550.991037
 40
2.500000
 50
90.000000
 51
180.000000
  0
ARC
  8
CSLAYER1
  6
CONTINUOUS
 62
     3
 10
3474.872641
 20
2505.991037
 40
2.500000
 50
180.000000
 51
270.000000
  0
LINE
  8
CSLAYER1
  6
CONTINUOUS
 62
     3
 10
3462.872641
 20
2490.491037
 11
3462.872641
 21
2486.991037
  0
LINE
  8
CSLAYER1
  6
CONTINUOUS
 62
     3
 10
3411.523002
 20
2486.991037
 11
3462.872641
 21
2486.991037
  0
LINE
  8
CSLAYER1
  6
CONTINUOUS
 62
     3
 10
3463.872641
 20
2491.491037
 11
3469.872641
 21
2491.491037
  0
LINE
  8
CSLAYER1
  6
CONTINUOUS
 62
     3
 10
3463.872641
 20
2475.491037
 11
3469.872641
 21
2475.491037
  0
LINE
  8
CSLAYER1
  6
CONTINUOUS
 62
     3
 10
3411.523002
 20
2479.991037
 11
3462.872641
 21
2479.991037
  0
ARC
  8
CSLAYER1
  6
CONTINUOUS
 62
     3
 10
3463.872641
 20
2476.491037
 40
1.000000
 50
180.000000
 51
270.000000
  0
ARC
  8
CSLAYER1
  6
CONTINUOUS
 62
     3
 10
3463.872641
 20
2490.491037
 40
1.000000
 50
90.000000
 51
180.000000
  0
LINE
  8
CSLAYER1
  6
CONTINUOUS
 62
     3
 10
3462.872641
 20
2479.991037
 11
3462.872641
 21
2476.491037
  0
LINE
  8
CSLAYER1
  6
CONTINUOUS
 62
     2
 10
3462.872641
 20
2486.991037
 11
3462.872641
 21
2479.991037
  0
LINE
  8
CSLAYER1
  6
CONTINUOUS
 62
     2
 10
3469.872641
 20
2475.491037
 11
3469.872641
 21
2483.491037
  0
LINE
  8
CSLAYER1
  6
CONTINUOUS
 62
     2
 10
3469.872641
 20
2491.491037
 11
3469.872641
 21
2483.491037
  0
LINE
  8
CSLAYER1
  6
CONTINUOUS
 62
     2
 10
3489.365652
 20
2471.328378
 11
3480.230652
 21
2471.328378
  0
LINE
  8
CSLAYER1
  6
CONTINUOUS
 62
     2
 10
3489.365652
 20
2494.953378
 11
3480.230652
 21
2494.953378
  0
LINE
  8
CSLAYER1
  6
CONTINUOUS
 62
     2
 10
3478.970652
 20
2472.588378
 11
3478.970652
 21
2493.693378
  0
LINE
  8
CSLAYER1
  6
CONTINUOUS
 62
     2
 10
3490.625652
 20
2472.588378
 11
3490.625652
 21
2493.693378
  0
LINE
  8
CSLAYER1
  6
CONTINUOUS
 62
     2
 10
3488.735652
 20
2493.063378
 11
3480.703152
 21
2493.063378
  0
LINE
  8
CSLAYER1
  6
CONTINUOUS
 62
     2
 10
3488.735652
 20
2489.913378
 11
3487.790652
 21
2489.913378
  0
LINE
  8
CSLAYER1
  6
CONTINUOUS
 62
     2
 10
3488.735652
 20
2481.250878
 11
3487.790652
 21
2481.250878
  0
LINE
  8
CSLAYER1
  6
CONTINUOUS
 62
     2
 10
3488.735652
 20
2476.683378
 11
3483.695652
 21
2476.683378
  0
LINE
  8
CSLAYER1
  6
CONTINUOUS
 62
     2
 10
3489.838152
 20
2477.785878
 11
3489.838152
 21
2480.148378
  0
LINE
  8
CSLAYER1
  6
CONTINUOUS
 62
     2
 10
3482.593152
 20
2477.785878
 11
3482.593152
 21
2480.148378
  0
LINE
  8
CSLAYER1
  6
CONTINUOUS
 62
     2
 10
3479.600652
 20
2491.015878
 11
3479.600652
 21
2491.960878
  0
LINE
  8
CSLAYER1
  6
CONTINUOUS
 62
     2
 10
3486.845652
 20
2482.195878
 11
3486.845652
 21
2488.968378
  0
LINE
  8
CSLAYER1
  6
CONTINUOUS
 62
     2
 10
3486.058152
 20
2482.195878
 11
3486.058152
 21
2488.968378
  0
ARC
  8
CSLAYER1
  6
CONTINUOUS
 62
     2
 10
3488.735652
 20
2477.785878
 40
1.102500
 50
270.000000
 51
360.000000
  0
ARC
  8
CSLAYER1
  6
CONTINUOUS
 62
     2
 10
3483.695652
 20
2477.785878
 40
1.102500
 50
180.000000
 51
270.000000
  0
ARC
  8
CSLAYER1
  6
CONTINUOUS
 62
     2
 10
3483.695652
 20
2480.148378
 40
1.102500
 50
90.000000
 51
180.000000
  0
ARC
  8
CSLAYER1
  6
CONTINUOUS
 62
     2
 10
3488.735652
 20
2480.148378
 40
1.102500
 50
-0.000000
 51
90.000000
  0
ARC
  8
CSLAYER1
  6
CONTINUOUS
 62
     2
 10
3480.703152
 20
2491.015878
 40
1.102500
 50
180.000000
 51
270.000000
  0
ARC
  8
CSLAYER1
  6
CONTINUOUS
 62
     2
 10
3480.703152
 20
2491.960878
 40
1.102500
 50
90.000000
 51
180.000000
  0
ARC
  8
CSLAYER1
  6
CONTINUOUS
 62
     2
 10
3488.735652
 20
2491.960878
 40
1.102500
 50
-0.000000
 51
90.000000
  0
ARC
  8
CSLAYER1
  6
CONTINUOUS
 62
     2
 10
3488.735652
 20
2491.015878
 40
1.102500
 50
270.000000
 51
360.000000
  0
LINE
  8
CSLAYER1
  6
CONTINUOUS
 62
     2
 10
3485.113152
 20
2481.250878
 11
3483.695652
 21
2481.250878
  0
LINE
  8
CSLAYER1
  6
CONTINUOUS
 62
     2
 10
3485.113152
 20
2489.913378
 11
3480.703152
 21
2489.913378
  0
ARC
  8
CSLAYER1
  6
CONTINUOUS
 62
     2
 10
3487.790652
 20
2482.195878
 40
0.945000
 50
180.000000
 51
270.000000
  0
ARC
  8
CSLAYER1
  6
CONTINUOUS
 62
     2
 10
3485.113152
 20
2482.195878
 40
0.945000
 50
270.000000
 51
360.000000
  0
ARC
  8
CSLAYER1
  6
CONTINUOUS
 62
     2
 10
3485.113152
 20
2488.968378
 40
0.945000
 50
-0.000000
 51
90.000000
  0
ARC
  8
CSLAYER1
  6
CONTINUOUS
 62
     2
 10
3489.365652
 20
2472.588378
 40
1.260000
 50
270.000000
 51
360.000000
  0
ARC
  8
CSLAYER1
  6
CONTINUOUS
 62
     2
 10
3480.230652
 20
2472.588378
 40
1.260000
 50
180.000000
 51
270.000000
  0
ARC
  8
CSLAYER1
  6
CONTINUOUS
 62
     2
 10
3480.230652
 20
2493.693378
 40
1.260000
 50
90.000000
 51
180.000000
  0
ARC
  8
CSLAYER1
  6
CONTINUOUS
 62
     2
 10
3489.365652
 20
2493.693378
 40
1.260000
 50
-0.000000
 51
90.000000
  0
ARC
  8
CSLAYER1
  6
CONTINUOUS
 62
     2
 10
3487.790652
 20
2488.968378
 40
0.945000
 50
90.000000
 51
180.000000
  0
LINE
  8
CSLAYER1
  6
CONTINUOUS
 62
     2
 10
3489.838152
 20
2491.015878
 11
3489.838152
 21
2491.960878
  0
CIRCLE
  8
CSLAYER1
  6
CONTINUOUS
 62
     2
 10
3504.372641
 20
2433.491037
 40
2.500000
  0
CIRCLE
  8
CSLAYER1
  6
CONTINUOUS
 62
     2
 10
3504.372641
 20
2423.491037
 40
2.500000
  0
CIRCLE
  8
CSLAYER1
  6
CONTINUOUS
 62
     2
 10
3514.372641
 20
2423.491037
 40
2.500000
  0
CIRCLE
  8
CSLAYER1
  6
CONTINUOUS
 62
     2
 10
3514.372641
 20
2433.491037
 40
2.500000
  0
CIRCLE
  8
CSLAYER1
  6
CONTINUOUS
 62
     2
 10
3524.372641
 20
2433.491037
 40
2.500000
  0
CIRCLE
  8
CSLAYER1
  6
CONTINUOUS
 62
     2
 10
3524.372641
 20
2423.491037
 40
2.500000
  0
CIRCLE
  8
CSLAYER1
  6
CONTINUOUS
 62
     2
 10
3534.372641
 20
2423.491037
 40
2.500000
  0
CIRCLE
  8
CSLAYER1
  6
CONTINUOUS
 62
     2
 10
3534.372641
 20
2433.491037
 40
2.500000
  0
CIRCLE
  8
CSLAYER1
  6
CONTINUOUS
 62
     2
 10
3544.372641
 20
2433.491037
 40
2.500000
  0
CIRCLE
  8
CSLAYER1
  6
CONTINUOUS
 62
     2
 10
3544.372641
 20
2423.491037
 40
2.500000
  0
CIRCLE
  8
CSLAYER1
  6
CONTINUOUS
 62
     2
 10
3504.372641
 20
2443.491037
 40
2.500000
  0
CIRCLE
  8
CSLAYER1
  6
CONTINUOUS
 62
     2
 10
3504.372641
 20
2453.491037
 40
2.500000
  0
CIRCLE
  8
CSLAYER1
  6
CONTINUOUS
 62
     2
 10
3514.372641
 20
2453.491037
 40
2.500000
  0
CIRCLE
  8
CSLAYER1
  6
CONTINUOUS
 62
     2
 10
3514.372641
 20
2443.491037
 40
2.500000
  0
CIRCLE
  8
CSLAYER1
  6
CONTINUOUS
 62
     2
 10
3524.372641
 20
2443.491037
 40
2.500000
  0
CIRCLE
  8
CSLAYER1
  6
CONTINUOUS
 62
     2
 10
3524.372641
 20
2453.491037
 40
2.500000
  0
CIRCLE
  8
CSLAYER1
  6
CONTINUOUS
 62
     2
 10
3534.372641
 20
2453.491037
 40
2.500000
  0
CIRCLE
  8
CSLAYER1
  6
CONTINUOUS
 62
     2
 10
3534.372641
 20
2443.491037
 40
2.500000
  0
CIRCLE
  8
CSLAYER1
  6
CONTINUOUS
 62
     2
 10
3544.372641
 20
2443.491037
 40
2.500000
  0
CIRCLE
  8
CSLAYER1
  6
CONTINUOUS
 62
     2
 10
3544.372641
 20
2453.491037
 40
2.500000
  0
CIRCLE
  8
CSLAYER1
  6
CONTINUOUS
 62
     2
 10
3504.372641
 20
2533.491037
 40
2.500000
  0
CIRCLE
  8
CSLAYER1
  6
CONTINUOUS
 62
     2
 10
3504.372641
 20
2543.491037
 40
2.500000
  0
CIRCLE
  8
CSLAYER1
  6
CONTINUOUS
 62
     2
 10
3514.372641
 20
2543.491037
 40
2.500000
  0
CIRCLE
  8
CSLAYER1
  6
CONTINUOUS
 62
     2
 10
3514.372641
 20
2533.491037
 40
2.500000
  0
CIRCLE
  8
CSLAYER1
  6
CONTINUOUS
 62
     2
 10
3524.372641
 20
2533.491037
 40
2.500000
  0
CIRCLE
  8
CSLAYER1
  6
CONTINUOUS
 62
     2
 10
3524.372641
 20
2543.491037
 40
2.500000
  0
CIRCLE
  8
CSLAYER1
  6
CONTINUOUS
 62
     2
 10
3534.372641
 20
2543.491037
 40
2.500000
  0
CIRCLE
  8
CSLAYER1
  6
CONTINUOUS
 62
     2
 10
3534.372641
 20
2533.491037
 40
2.500000
  0
CIRCLE
  8
CSLAYER1
  6
CONTINUOUS
 62
     2
 10
3544.372641
 20
2533.491037
 40
2.500000
  0
CIRCLE
  8
CSLAYER1
  6
CONTINUOUS
 62
     2
 10
3544.372641
 20
2543.491037
 40
2.500000
  0
CIRCLE
  8
CSLAYER1
  6
CONTINUOUS
 62
     2
 10
3504.372641
 20
2523.491037
 40
2.500000
  0
CIRCLE
  8
CSLAYER1
  6
CONTINUOUS
 62
     2
 10
3504.372641
 20
2513.491037
 40
2.500000
  0
CIRCLE
  8
CSLAYER1
  6
CONTINUOUS
 62
     2
 10
3514.372641
 20
2513.491037
 40
2.500000
  0
CIRCLE
  8
CSLAYER1
  6
CONTINUOUS
 62
     2
 10
3514.372641
 20
2523.491037
 40
2.500000
  0
CIRCLE
  8
CSLAYER1
  6
CONTINUOUS
 62
     2
 10
3524.372641
 20
2523.491037
 40
2.500000
  0
CIRCLE
  8
CSLAYER1
  6
CONTINUOUS
 62
     2
 10
3524.372641
 20
2513.491037
 40
2.500000
  0
CIRCLE
  8
CSLAYER1
  6
CONTINUOUS
 62
     2
 10
3534.372641
 20
2513.491037
 40
2.500000
  0
CIRCLE
  8
CSLAYER1
  6
CONTINUOUS
 62
     2
 10
3534.372641
 20
2523.491037
 40
2.500000
  0
CIRCLE
  8
CSLAYER1
  6
CONTINUOUS
 62
     2
 10
3544.372641
 20
2523.491037
 40
2.500000
  0
CIRCLE
  8
CSLAYER1
  6
CONTINUOUS
 62
     2
 10
3544.372641
 20
2513.491037
 40
2.500000
  0
LINE
  8
CSLAYER1
  6
CONTINUOUS
 62
     2
 10
3478.372641
 20
2510.991037
 11
3478.372641
 21
2545.991037
  0
LINE
  8
CSLAYER1
  6
CONTINUOUS
 62
     2
 10
3494.372641
 20
2510.991037
 11
3494.372641
 21
2545.991037
  0
LINE
  8
CSLAYER1
  6
CONTINUOUS
 62
     2
 10
3479.872641
 20
2509.491037
 11
3492.872641
 21
2509.491037
  0
LINE
  8
CSLAYER1
  6
CONTINUOUS
 62
     2
 10
3479.372641
 20
2510.991037
 11
3479.372641
 21
2545.991037
  0
LINE
  8
CSLAYER1
  6
CONTINUOUS
 62
     2
 10
3493.372641
 20
2510.991037
 11
3493.372641
 21
2545.991037
  0
LINE
  8
CSLAYER1
  6
CONTINUOUS
 62
     2
 10
3479.872641
 20
2510.491037
 11
3492.872641
 21
2510.491037
  0
LINE
  8
CSLAYER1
  6
CONTINUOUS
 62
     2
 10
3479.872641
 20
2547.491037
 11
3492.872641
 21
2547.491037
  0
LINE
  8
CSLAYER1
  6
CONTINUOUS
 62
     2
 10
3479.872641
 20
2546.491037
 11
3492.872641
 21
2546.491037
  0
ARC
  8
CSLAYER1
  6
CONTINUOUS
 62
     2
 10
3479.872641
 20
2510.991037
 40
0.500000
 50
180.000000
 51
270.000000
  0
ARC
  8
CSLAYER1
  6
CONTINUOUS
 62
     2
 10
3492.872641
 20
2510.991037
 40
0.500000
 50
270.000000
 51
360.000000
  0
ARC
  8
CSLAYER1
  6
CONTINUOUS
 62
     2
 10
3479.872641
 20
2545.991037
 40
0.500000
 50
90.000000
 51
180.000000
  0
ARC
  8
CSLAYER1
  6
CONTINUOUS
 62
     2
 10
3492.872641
 20
2545.991037
 40
0.500000
 50
-0.000000
 51
90.000000
  0
ARC
  8
CSLAYER1
  6
CONTINUOUS
 62
     2
 10
3479.872641
 20
2510.991037
 40
1.500000
 50
180.000000
 51
270.000000
  0
ARC
  8
CSLAYER1
  6
CONTINUOUS
 62
     2
 10
3492.872641
 20
2510.991037
 40
1.500000
 50
270.000000
 51
360.000000
  0
ARC
  8
CSLAYER1
  6
CONTINUOUS
 62
     2
 10
3479.872641
 20
2545.991037
 40
1.500000
 50
90.000000
 51
180.000000
  0
ARC
  8
CSLAYER1
  6
CONTINUOUS
 62
     2
 10
3492.872641
 20
2545.991037
 40
1.500000
 50
-0.000000
 51
90.000000
  0
LINE
  8
CSLAYER1
  6
CONTINUOUS
 62
     2
 10
3483.372641
 20
2519.491037
 11
3483.372641
 21
2537.491037
  0
LINE
  8
CSLAYER1
  6
CONTINUOUS
 62
     2
 10
3480.294569
 20
2528.491037
 11
3483.372641
 21
2537.491037
  0
LINE
  8
CSLAYER1
  6
CONTINUOUS
 62
     2
 10
3480.294569
 20
2528.491037
 11
3483.372641
 21
2519.491037
  0
TEXT
  8
CSLAYER1
 62
     2
 10
3491.666330
 20
2519.511055
 40
7.066058
 41
1.574983
  1
UP
 50
90.000000
 51
0.000000
  7
EASYDRAW_FONT
 72
     5
 11
3491.666330
 21
2538.059258
  0
LINE
  8
CSLAYER1
  6
CONTINUOUS
 62
     2
 10
3478.372641
 20
2455.991037
 11
3478.372641
 21
2420.991037
  0
LINE
  8
CSLAYER1
  6
CONTINUOUS
 62
     2
 10
3494.372641
 20
2455.991037
 11
3494.372641
 21
2420.991037
  0
LINE
  8
CSLAYER1
  6
CONTINUOUS
 62
     2
 10
3479.872641
 20
2457.491037
 11
3492.872641
 21
2457.491037
  0
LINE
  8
CSLAYER1
  6
CONTINUOUS
 62
     2
 10
3479.372641
 20
2455.991037
 11
3479.372641
 21
2420.991037
  0
LINE
  8
CSLAYER1
  6
CONTINUOUS
 62
     2
 10
3493.372641
 20
2455.991037
 11
3493.372641
 21
2420.991037
  0
LINE
  8
CSLAYER1
  6
CONTINUOUS
 62
     2
 10
3479.872641
 20
2456.491037
 11
3492.872641
 21
2456.491037
  0
LINE
  8
CSLAYER1
  6
CONTINUOUS
 62
     2
 10
3479.872641
 20
2419.491037
 11
3492.872641
 21
2419.491037
  0
LINE
  8
CSLAYER1
  6
CONTINUOUS
 62
     2
 10
3479.872641
 20
2420.491037
 11
3492.872641
 21
2420.491037
  0
ARC
  8
CSLAYER1
  6
CONTINUOUS
 62
     2
 10
3479.872641
 20
2455.991037
 40
0.500000
 50
90.000000
 51
180.000000
  0
ARC
  8
CSLAYER1
  6
CONTINUOUS
 62
     2
 10
3492.872641
 20
2455.991037
 40
0.500000
 50
-0.000000
 51
90.000000
  0
ARC
  8
CSLAYER1
  6
CONTINUOUS
 62
     2
 10
3479.872641
 20
2420.991037
 40
0.500000
 50
180.000000
 51
270.000000
  0
ARC
  8
CSLAYER1
  6
CONTINUOUS
 62
     2
 10
3492.872641
 20
2420.991037
 40
0.500000
 50
270.000000
 51
360.000000
  0
ARC
  8
CSLAYER1
  6
CONTINUOUS
 62
     2
 10
3479.872641
 20
2455.991037
 40
1.500000
 50
90.000000
 51
180.000000
  0
ARC
  8
CSLAYER1
  6
CONTINUOUS
 62
     2
 10
3492.872641
 20
2455.991037
 40
1.500000
 50
-0.000000
 51
90.000000
  0
ARC
  8
CSLAYER1
  6
CONTINUOUS
 62
     2
 10
3479.872641
 20
2420.991037
 40
1.500000
 50
180.000000
 51
270.000000
  0
ARC
  8
CSLAYER1
  6
CONTINUOUS
 62
     2
 10
3492.872641
 20
2420.991037
 40
1.500000
 50
270.000000
 51
360.000000
  0
LINE
  8
CSLAYER1
  6
CONTINUOUS
 62
     2
 10
3488.845571
 20
2447.491037
 11
3488.845571
 21
2429.491037
  0
LINE
  8
CSLAYER1
  6
CONTINUOUS
 62
     2
 10
3491.923643
 20
2438.491037
 11
3488.845571
 21
2429.491037
  0
LINE
  8
CSLAYER1
  6
CONTINUOUS
 62
     2
 10
3491.923643
 20
2438.491037
 11
3488.845571
 21
2447.491037
  0
TEXT
  8
CSLAYER1
 62
     2
 10
3487.235489
 20
2423.793242
 40
6.383575
 41
1.255870
  1
DOWN
 50
90.000000
 51
0.000000
  7
EASYDRAW_FONT
 72
     5
 11
3487.235489
 21
2453.188691
  0
ENDBLK
  8
0
  0
ENDSEC
  0
SECTION
  2
ENTITIES
  0
LINE
  8
CSLAYER1
  6
CONTINUOUS
 62
     3
 10
180.707488
 20
3599.850540
 11
180.707488
 21
75.393795
  0
LINE
  8
CSLAYER1
  6
CONTINUOUS
 62
     3
 10
5161.512127
 20
3599.850540
 11
180.707488
 21
3599.850540
  0
LINE
  8
CSLAYER1
  6
CONTINUOUS
 62
     3
 10
5161.512127
 20
75.393795
 11
180.707488
 21
75.393795
  0
LINE
  8
CSLAYER1
  6
CONTINUOUS
 62
     3
 10
5161.512127
 20
75.393795
 11
5161.512127
 21
3599.850540
  0
LINE
  8
CSLAYER1
  6
CONTINUOUS
 62
     5
 10
105.707488
 20
1815.393795
 11
30.707488
 21
1815.393795
  0
LINE
  8
CSLAYER1
  6
CONTINUOUS
 62
     5
 10
3961.512127
 20
735.393795
 11
5161.512127
 21
735.393795
  0
LINE
  8
CSLAYER1
  6
CONTINUOUS
 62
     5
 10
3961.512127
 20
195.393795
 11
5161.512127
 21
195.393795
  0
LINE
  8
CSLAYER1
  6
CONTINUOUS
 62
     5
 10
3961.512127
 20
435.393795
 11
5161.512127
 21
435.393795
  0
LINE
  8
CSLAYER1
  6
CONTINUOUS
 62
     5
 10
3961.512127
 20
525.393795
 11
5161.512127
 21
525.393795
  0
LINE
  8
CSLAYER1
  6
CONTINUOUS
 62
     5
 10
3961.512127
 20
615.393795
 11
5161.512127
 21
615.393795
  0
LINE
  8
CSLAYER1
  6
CONTINUOUS
 62
     5
 10
3961.512127
 20
855.393795
 11
5161.512127
 21
855.393795
  0
LINE
  8
CSLAYER1
  6
CONTINUOUS
 62
     5
 10
3961.512127
 20
975.393795
 11
3961.512127
 21
75.393795
  0
LINE
  8
CSLAYER1
  6
CONTINUOUS
 62
     5
 10
4261.512127
 20
975.393795
 11
4261.512127
 21
615.393795
  0
LINE
  8
CSLAYER1
  6
CONTINUOUS
 62
     5
 10
3961.512127
 20
975.393795
 11
5161.512127
 21
975.393795
  0
LINE
  8
CSLAYER1
  6
CONTINUOUS
 62
     5
 10
4711.512127
 20
615.393795
 11
4711.512127
 21
195.393795
  0
TEXT
  8
CSLAYER1
 62
     3
 10
4291.048678
 20
88.237877
 40
89.070541
 41
1.003345
  1
東正車輌株式会社
 50
0.000000
 51
0.000000
  7
EASYDRAW_FONT
 72
     5
 11
4976.207181
 21
88.237877
  0
LINE
  8
CSLAYER1
  6
CONTINUOUS
 62
     5
 10
4336.512127
 20
525.393795
 11
4336.512127
 21
195.393795
  0
TEXT
  8
CSLAYER1
 62
     5
 10
4006.511719
 20
877.893738
 40
75.000000
 41
1.050000
  1
品　名
 50
0.000000
 51
0.000000
  7
EASYDRAW_FONT
 72
     5
 11
4216.511719
 21
877.893738
  0
TEXT
  8
CSLAYER1
 62
     5
 10
4006.511719
 20
757.893738
 40
75.000000
 41
1.050000
  1
型　式
 50
0.000000
 51
0.000000
  7
EASYDRAW_FONT
 72
     5
 11
4216.511719
 21
757.893738
  0
TEXT
  8
CSLAYER1
 62
     5
 10
3969.011719
 20
637.893799
 40
75.000000
 41
1.036364
  1
図面番号
 50
0.000000
 51
0.000000
  7
EASYDRAW_FONT
 72
     5
 11
4254.011719
 21
637.893799
  0
TEXT
  8
CSLAYER1
 62
     5
 10
4831.511719
 20
532.893799
 40
75.000000
 41
1.050000
  1
Ｂ－４
 50
0.000000
 51
0.000000
  7
EASYDRAW_FONT
 72
     5
 11
5041.511719
 21
532.893799
  0
TEXT
  8
CSLAYER1
 62
     5
 10
4044.011719
 20
442.893799
 40
75.000000
 41
1.050000
  1
検　図
 50
0.000000
 51
0.000000
  7
EASYDRAW_FONT
 72
     5
 11
4254.011719
 21
442.893799
  0
TEXT
  8
CSLAYER1
 62
     5
 10
4419.011719
 20
442.893799
 40
75.000000
 41
1.050000
  1
作　図
 50
0.000000
 51
0.000000
  7
EASYDRAW_FONT
 72
     5
 11
4629.011719
 21
442.893799
  0
TEXT
  8
CSLAYER1
 62
     5
 10
4831.511719
 20
442.893799
 40
75.000000
 41
1.050000
  1
尺　度
 50
0.000000
 51
0.000000
  7
EASYDRAW_FONT
 72
     5
 11
5041.511719
 21
442.893799
  0
TEXT
  8
CSLAYER1
 62
     5
 10
4982.620117
 20
217.121689
 40
75.000000
 41
1.080000
  1
１５
 50
0.000000
 51
0.000000
  7
EASYDRAW_FONT
 72
     5
 11
5117.620117
 21
217.121689
  0
TEXT
  8
CSLAYER1
 62
     5
 10
4952.140625
 20
288.678741
 40
75.000000
 41
1.200000
  1
／
 50
0.000000
 51
0.000000
  7
EASYDRAW_FONT
 72
     5
 11
5012.140625
 21
288.678741
  0
TEXT
  8
CSLAYER1
 62
     5
 10
4906.821289
 20
341.153900
 40
75.000000
 41
1.200000
  1
１
 50
0.000000
 51
0.000000
  7
EASYDRAW_FONT
 72
     5
 11
4966.821289
 21
341.153900
  0
TEXT
  8
CSLAYER1
 62
     3
 10
4471.511719
 20
877.893738
 40
75.000000
 41
0.834783
  1
ゴールドリフター
 50
0.000000
 51
0.000000
  7
EASYDRAW_FONT
 72
     5
 11
4951.511719
 21
877.893738
  0
TEXT
  8
CSLAYER1
 62
     3
 10
4321.511719
 20
757.893738
 40
75.000000
 41
0.821053
  1
ＧＬＩ－５００－０７１３Ｊ
 50
0.000000
 51
0.000000
  7
EASYDRAW_FONT
 72
     5
 11
5101.511719
 21
757.893738
  0
TEXT
  8
CSLAYER1
 62
     3
 10
4561.511719
 20
637.893799
 40
75.000000
 41
0.857143
  1
GI-37
 50
0.000000
 51
0.000000
  7
EASYDRAW_FONT
 72
     5
 11
4861.511719
 21
637.893799
  0
INSERT
  8
CSLAYER1
  2
BLKF0000
 10
0.0
 20
0.0
 30
0.0
  0
TEXT
  8
CSLAYER1
 62
     5
 10
3554.866699
 20
595.254211
 40
60.000000
 41
1.050000
  1
Ｆ.Ｌ
 50
360.000000
 51
0.000000
  7
EASYDRAW_FONT
 72
     5
 11
3722.866699
 21
595.254211
  0
TEXT
  8
CSLAYER1
 62
     5
 10
1275.011963
 20
1114.072632
 40
60.000000
 41
1.017391
  1
ギヤードモーター
 50
360.000000
 51
0.000000
  7
EASYDRAW_FONT
 72
     5
 11
1743.011963
 21
1114.072632
  0
TEXT
  8
CSLAYER1
 62
     5
 10
1359.967285
 20
930.548157
 40
60.000000
 41
1.028571
  1
上限・下限
 50
360.000000
 51
0.000000
  7
EASYDRAW_FONT
 72
     5
 11
1647.967285
 21
930.548157
  0
TEXT
  8
CSLAYER1
 62
     5
 10
1267.880371
 20
850.685364
 40
60.000000
 41
1.017391
  1
リミットスイッチ
 50
360.000000
 51
0.000000
  7
EASYDRAW_FONT
 72
     5
 11
1735.880371
 21
850.685364
  0
LINE
  8
CSLAYER1
  6
CONTINUOUS
 62
     5
 10
5141.619931
 20
2977.447721
 11
4057.427665
 21
2977.447721
  0
LINE
  8
CSLAYER1
  6
CONTINUOUS
 62
     5
 10
5141.619931
 20
2881.191723
 11
4057.427665
 21
2881.191723
  0
LINE
  8
CSLAYER1
  6
CONTINUOUS
 62
     5
 10
5141.619931
 20
2784.935725
 11
4057.427665
 21
2784.935725
  0
LINE
  8
CSLAYER1
  6
CONTINUOUS
 62
     5
 10
5141.619931
 20
2688.679728
 11
4058.739958
 21
2688.679728
  0
LINE
  8
CSLAYER1
  6
CONTINUOUS
 62
     5
 10
5141.619931
 20
2592.423730
 11
4057.427665
 21
2592.423730
  0
LINE
  8
CSLAYER1
  6
CONTINUOUS
 62
     5
 10
5141.619931
 20
2496.167733
 11
4057.427665
 21
2496.167733
  0
LINE
  8
CSLAYER1
  6
CONTINUOUS
 62
     5
 10
5141.619931
 20
2399.911735
 11
4057.427665
 21
2399.911735
  0
LINE
  8
CSLAYER1
  6
CONTINUOUS
 62
     5
 10
5141.619931
 20
2303.655737
 11
4057.427665
 21
2303.655737
  0
LINE
  8
CSLAYER1
  6
CONTINUOUS
 62
     5
 10
5141.619931
 20
2207.399740
 11
4057.427665
 21
2207.399740
  0
TEXT
  8
CSLAYER1
 62
     5
 10
4351.796215
 20
3097.494953
 40
60.159996
 41
0.857143
  1
仕   様
 50
0.000000
 51
0.000000
  7
EASYDRAW_FONT
 72
     5
 11
4592.436207
 21
3097.494953
  0
TEXT
  8
CSLAYER1
 62
     5
 10
4073.610146
 20
2989.814777
 40
60.159996
 41
0.847059
  1
型    式
 50
0.000000
 51
0.000000
  7
EASYDRAW_FONT
 72
     5
 11
4362.378136
 21
2989.814777
  0
TEXT
  8
CSLAYER1
 62
     5
 10
4070.873329
 20
2805.589680
 40
60.159996
 41
0.847059
  1
テーブル寸法
 50
0.000000
 51
0.000000
  7
EASYDRAW_FONT
 72
     5
 11
4359.641319
 21
2805.589680
  0
TEXT
  8
CSLAYER1
 62
     5
 10
4073.610146
 20
2710.742023
 40
60.159996
 41
0.847059
  1
テーブル高サ
 50
0.000000
 51
0.000000
  7
EASYDRAW_FONT
 72
     5
 11
4362.378136
 21
2710.742023
  0
TEXT
  8
CSLAYER1
 62
     5
 10
4075.786449
 20
2613.158527
 40
60.159996
 41
0.857143
  1
ストローク
 50
0.000000
 51
0.000000
  7
EASYDRAW_FONT
 72
     5
 11
4316.426441
 21
2613.158527
  0
TEXT
  8
CSLAYER1
 62
     5
 10
4074.874340
 20
2515.574543
 40
60.159996
 41
0.857143
  1
全   長
 50
0.000000
 51
0.000000
  7
EASYDRAW_FONT
 72
     5
 11
4315.514332
 21
2515.574543
  0
TEXT
  8
CSLAYER1
 62
     5
 10
4078.290356
 20
2416.535480
 40
60.159996
 41
0.857143
  1
全   巾
 50
0.000000
 51
0.000000
  7
EASYDRAW_FONT
 72
     5
 11
4318.930347
 21
2416.535480
  0
TEXT
  8
CSLAYER1
 62
     5
 10
4075.947094
 20
2320.451008
 40
60.159996
 41
0.857143
  1
全   高
 50
0.000000
 51
0.000000
  7
EASYDRAW_FONT
 72
     5
 11
4316.587086
 21
2320.451008
  0
TEXT
  8
CSLAYER1
 62
     5
 10
4075.947094
 20
2226.712727
 40
60.159996
 41
0.857143
  1
リフト方式
 50
0.000000
 51
0.000000
  7
EASYDRAW_FONT
 72
     5
 11
4316.587086
 21
2226.712727
  0
TEXT
  8
CSLAYER1
 62
     5
 10
5035.537529
 20
2891.806477
 40
60.159996
 41
0.960000
  1
Ｋｇ
 50
0.000000
 51
0.000000
  7
EASYDRAW_FONT
 72
     5
 11
5131.793526
 21
2891.806477
  0
TEXT
  8
CSLAYER1
 62
     5
 10
4954.594204
 20
2817.894855
 40
60.159996
 41
1.200000
  1
Ｗ
 50
0.000000
 51
0.000000
  7
EASYDRAW_FONT
 72
     5
 11
5002.722202
 21
2817.894855
  0
TEXT
  8
CSLAYER1
 62
     5
 10
4690.426723
 20
2819.714680
 40
60.159996
 41
1.200000
  1
Ｌ
 50
0.000000
 51
0.000000
  7
EASYDRAW_FONT
 72
     5
 11
4738.554722
 21
2819.714680
  0
TEXT
  8
CSLAYER1
 62
     5
 10
4483.586571
 20
2228.147785
 40
60.159996
 41
0.827586
  1
電 動 ボールネジ式
 50
0.000000
 51
0.000000
  7
EASYDRAW_FONT
 72
     5
 11
4964.866554
 21
2228.147785
  0
TEXT
  8
CSLAYER1
 62
     5
 10
5031.756279
 20
2795.394855
 40
60.159996
 41
0.960000
  1
mm
 50
0.000000
 51
0.000000
  7
EASYDRAW_FONT
 72
     5
 11
5128.012276
 21
2795.394855
  0
TEXT
  8
CSLAYER1
 62
     5
 10
5031.756279
 20
2704.654133
 40
60.159996
 41
0.960000
  1
mm
 50
0.000000
 51
0.000000
  7
EASYDRAW_FONT
 72
     5
 11
5128.012276
 21
2704.654133
  0
TEXT
  8
CSLAYER1
 62
     5
 10
5026.084892
 20
2608.242512
 40
60.159996
 41
0.960000
  1
mm
 50
0.000000
 51
0.000000
  7
EASYDRAW_FONT
 72
     5
 11
5122.340889
 21
2608.242512
  0
TEXT
  8
CSLAYER1
 62
     5
 10
5026.084892
 20
2506.158527
 40
60.159996
 41
0.960000
  1
mm
 50
0.000000
 51
0.000000
  7
EASYDRAW_FONT
 72
     5
 11
5122.340889
 21
2506.158527
  0
TEXT
  8
CSLAYER1
 62
     5
 10
5022.304619
 20
2415.417805
 40
60.159996
 41
0.960000
  1
mm
 50
0.000000
 51
0.000000
  7
EASYDRAW_FONT
 72
     5
 11
5118.560616
 21
2415.417805
  0
TEXT
  8
CSLAYER1
 62
     5
 10
5022.304619
 20
2319.004719
 40
60.159996
 41
0.960000
  1
mm
 50
0.000000
 51
0.000000
  7
EASYDRAW_FONT
 72
     5
 11
5118.560616
 21
2319.004719
  0
LINE
  8
CSLAYER1
  6
CONTINUOUS
 62
     5
 10
4634.628179
 20
3073.703718
 11
4321.215678
 21
3073.703718
  0
LINE
  8
CSLAYER1
  6
CONTINUOUS
 62
     5
 10
4634.628179
 20
3085.735718
 11
4321.215678
 21
3085.735718
  0
TEXT
  8
CSLAYER1
 62
     5
 10
4795.637695
 20
2898.528564
 40
60.000000
 41
0.975000
  1
５００
 50
0.000000
 51
0.000000
  7
EASYDRAW_FONT
 72
     5
 11
4951.637695
 21
2898.528564
  0
TEXT
  8
CSLAYER1
 62
     5
 10
4474.187988
 20
2802.883545
 40
60.000000
 41
0.923077
  1
１３５０　×７５０
 50
0.000000
 51
0.000000
  7
EASYDRAW_FONT
 72
     5
 11
4954.187988
 21
2802.883545
  0
TEXT
  8
CSLAYER1
 62
     5
 10
4529.792480
 20
2705.185791
 40
60.000000
 41
0.926087
  1
１５５～１０１５
 50
0.000000
 51
0.000000
  7
EASYDRAW_FONT
 72
     5
 11
4955.792480
 21
2705.185791
  0
TEXT
  8
CSLAYER1
 62
     5
 10
4801.466797
 20
2611.582764
 40
60.000000
 41
0.975000
  1
８６０
 50
0.000000
 51
0.000000
  7
EASYDRAW_FONT
 72
     5
 11
4957.466797
 21
2611.582764
  0
TEXT
  8
CSLAYER1
 62
     5
 10
4749.124023
 20
2514.637939
 40
60.000000
 41
0.954545
  1
１３５０
 50
0.000000
 51
0.000000
  7
EASYDRAW_FONT
 72
     5
 11
4959.124023
 21
2514.637939
  0
TEXT
  8
CSLAYER1
 62
     5
 10
4799.221680
 20
2414.718018
 40
60.000000
 41
0.975000
  1
７５０
 50
0.000000
 51
0.000000
  7
EASYDRAW_FONT
 72
     5
 11
4955.221680
 21
2414.718018
  0
TEXT
  8
CSLAYER1
 62
     5
 10
4796.484375
 20
2321.640381
 40
60.000000
 41
0.975000
  1
１５５
 50
0.000000
 51
0.000000
  7
EASYDRAW_FONT
 72
     5
 11
4952.484375
 21
2321.640381
  0
TEXT
  8
CSLAYER2
 62
     5
 10
4488.744875
 20
2991.053875
 40
56.528481
 41
0.825389
  1
GLI-500-0713J
 50
0.000000
 51
0.000000
  7
EASYDRAW_FONT
 72
     5
 11
5079.746336
 21
2991.053875
  0
LINE
  8
CSLAYER1
  6
CONTINUOUS
 62
     5
 10
1863.187599
 20
1500.705522
 11
1890.387599
 21
1500.705522
  0
LINE
  8
CSLAYER1
  6
CONTINUOUS
 62
     5
 10
1876.787599
 20
1514.305522
 11
1876.787599
 21
1487.105522
  0
CIRCLE
  8
CSLAYER1
  6
DOT
 62
     5
 10
1876.787599
 20
1500.705522
 40
8.000000
  0
CIRCLE
  8
CSLAYER1
  6
DOT
 62
     5
 10
2103.532345
 20
998.063480
 40
14.000000
  0
LINE
  8
CSLAYER1
  6
CENTER
 62
     5
 10
845.440830
 20
1666.015069
 11
845.440830
 21
555.363454
  0
LINE
  8
CSLAYER1
  6
CONTINUOUS
 62
     7
 10
1220.440830
 20
1624.905522
 11
470.440830
 21
1624.905522
  0
LINE
  8
CSLAYER1
  6
DOT
 62
     7
 10
1095.440830
 20
648.516077
 11
1095.440830
 21
584.234293
  0
LINE
  8
CSLAYER1
  6
CONTINUOUS
 62
     7
 10
470.440830
 20
1571.905522
 11
1220.440830
 21
1571.905522
  0
LINE
  8
CSLAYER1
  6
DOT
 62
     5
 10
679.440830
 20
1481.705522
 11
679.440830
 21
649.234293
  0
LINE
  8
CSLAYER1
  6
DOT
 62
     5
 10
663.440830
 20
1481.705522
 11
663.440830
 21
649.234293
  0
LINE
  8
CSLAYER1
  6
DOT
 62
     5
 10
738.440830
 20
649.234293
 11
738.440830
 21
1571.905522
  0
LINE
  8
CSLAYER1
  6
DOT
 62
     5
 10
1027.440830
 20
1043.469907
 11
1027.440830
 21
649.234293
  0
LINE
  8
CSLAYER1
  6
DOT
 62
     5
 10
1011.440830
 20
1481.705522
 11
1011.440830
 21
649.234293
  0
LINE
  8
CSLAYER1
  6
CONTINUOUS
 62
     7
 10
1210.440830
 20
649.234293
 11
480.440830
 21
649.234293
  0
LINE
  8
CSLAYER1
  6
CONTINUOUS
 62
     5
 10
1876.787599
 20
631.234293
 11
1876.787599
 21
591.234293
  0
LINE
  8
CSLAYER1
  6
CONTINUOUS
 62
     7
 10
1834.787599
 20
649.234293
 11
1834.787599
 21
584.234293
  0
LINE
  8
CSLAYER1
  6
CONTINUOUS
 62
     7
 10
3034.787599
 20
649.234293
 11
3034.787599
 21
584.234293
  0
LINE
  8
CSLAYER1
  6
CONTINUOUS
 62
     5
 10
1856.787599
 20
611.234293
 11
1896.787599
 21
611.234293
  0
LINE
  8
CSLAYER1
  6
CONTINUOUS
 62
     7
 10
1778.787599
 20
649.234293
 11
3108.787599
 21
649.234293
  0
LINE
  8
CSLAYER1
  6
CONTINUOUS
 62
     7
 10
1768.787599
 20
1624.905522
 11
3118.787599
 21
1624.905522
  0
LINE
  8
CSLAYER1
  6
DOT
 62
     5
 10
3031.587599
 20
1571.905522
 11
3031.587599
 21
1549.705522
  0
CIRCLE
  8
CSLAYER1
  6
DOT
 62
     5
 10
2557.405651
 20
1500.705522
 40
21.000000
  0
CIRCLE
  8
CSLAYER1
  6
DOT
 62
     5
 10
2557.405651
 20
1500.705522
 40
7.500000
  0
POINT
  8
CSLAYER1
 62
     5
 10
2103.532345
 20
998.063480
  0
POINT
  8
CSLAYER1
 62
     6
 10
2103.532345
 20
998.063480
  0
POINT
  8
CSLAYER1
 62
     5
 10
2217.096625
 20
1055.969907
  0
POINT
  8
CSLAYER1
 62
     1
 10
2217.096625
 20
1055.969907
  0
POINT
  8
CSLAYER1
 62
     5
 10
1876.787599
 20
1500.705522
  0
POINT
  8
CSLAYER1
 62
     5
 10
2557.405651
 20
1500.705522
  0
LINE
  8
CSLAYER1
  6
CONTINUOUS
 62
     5
 10
2557.405651
 20
1526.850365
 11
2557.405651
 21
1469.705522
  0
LINE
  8
CSLAYER1
  6
CONTINUOUS
 62
     5
 10
2526.405651
 20
1500.705522
 11
2588.405651
 21
1500.705522
  0
LINE
  8
CSLAYER1
  6
DOT
 62
     5
 10
3016.587599
 20
1521.705522
 11
2469.587599
 21
1521.705522
  0
LINE
  8
CSLAYER1
  6
DOT
 62
     5
 10
2351.742048
 20
980.386796
 11
2298.790000
 21
1094.814985
  0
ARC
  8
CSLAYER1
  6
DOT
 62
     5
 10
2235.627466
 20
1065.586299
 40
69.597570
 50
24.832507
 51
69.373343
  0
LINE
  8
CSLAYER1
  6
DOT
 62
     5
 10
1846.787599
 20
1571.905522
 11
1846.787599
 21
1481.705522
  0
LINE
  8
CSLAYER1
  6
DOT
 62
     5
 10
1896.787599
 20
1571.905522
 11
1896.787599
 21
1496.705522
  0
ARC
  8
CSLAYER1
  6
DOT
 62
     5
 10
1881.787599
 20
1496.705522
 40
15.000000
 50
270.000000
 51
360.000000
  0
LINE
  8
CSLAYER1
  6
DOT
 62
     5
 10
1846.787599
 20
1481.705522
 11
1881.787599
 21
1481.705522
  0
LINE
  8
CSLAYER1
  6
DOT
 62
     5
 10
3028.587599
 20
1546.705522
 11
1949.562423
 21
1546.705522
  0
LINE
  8
CSLAYER1
  6
DOT
 62
     5
 10
1868.661134
 20
1481.705522
 11
2160.262923
 21
1100.623355
  0
LINE
  8
CSLAYER1
  6
DOT
 62
     5
 10
2228.421262
 20
1001.676698
 11
2245.340180
 21
989.439451
  0
LINE
  8
CSLAYER1
  6
DOT
 62
     5
 10
2245.340180
 20
989.439451
 11
2501.071963
 21
655.234293
  0
LINE
  8
CSLAYER1
  6
DOT
 62
     5
 10
2124.972819
 20
1126.462492
 11
2132.731147
 21
1136.603480
  0
LINE
  8
CSLAYER1
  6
DOT
 62
     5
 10
2573.354578
 20
1519.980989
 11
2571.100425
 21
1521.705522
  0
ARC
  8
CSLAYER1
  6
DOT
 62
     5
 10
2563.025024
 20
1506.479126
 40
17.000000
 50
-25.687221
 51
52.582328
  0
LINE
  8
CSLAYER1
  6
DOT
 62
     5
 10
2526.194561
 20
1461.629187
 11
2557.082261
 21
1479.708012
  0
LINE
  8
CSLAYER1
  6
DOT
 62
     5
 10
2386.436231
 20
1278.961158
 11
2526.178659
 21
1461.619879
  0
LINE
  8
CSLAYER1
  6
DOT
 62
     5
 10
2262.979130
 20
1142.275598
 11
2254.455199
 21
1107.526904
  0
LINE
  8
CSLAYER1
  6
DOT
 62
     5
 10
2205.777037
 20
1001.675645
 11
2188.859257
 21
989.436825
  0
LINE
  8
CSLAYER1
  6
DOT
 62
     5
 10
2205.777037
 20
1001.675645
 11
2217.098462
 21
1016.473991
  0
LINE
  8
CSLAYER1
  6
DOT
 62
     5
 10
2262.979130
 20
1142.275598
 11
2350.639381
 21
1256.857187
  0
LINE
  8
CSLAYER1
  6
DOT
 62
     5
 10
3019.587599
 20
1571.905522
 11
3019.587599
 21
1524.705522
  0
LINE
  8
CSLAYER1
  6
CONTINUOUS
 62
     7
 10
1768.787599
 20
1571.905522
 11
3118.787599
 21
1571.905522
  0
LINE
  8
CSLAYER1
  6
DOT
 62
     5
 10
1924.362423
 20
1571.905522
 11
1949.562423
 21
1546.705522
  0
LINE
  8
CSLAYER1
  6
DOT
 62
     5
 10
1866.114955
 20
684.579416
 11
1863.162379
 21
655.234293
  0
LINE
  8
CSLAYER1
  6
DOT
 62
     5
 10
2228.421262
 20
1001.676698
 11
2167.651793
 21
1081.093772
  0
LINE
  8
CSLAYER1
  6
DOT
 62
     5
 10
3031.587599
 20
1549.705522
 11
3028.587599
 21
1546.705522
  0
LINE
  8
CSLAYER1
  6
DOT
 62
     5
 10
3019.587599
 20
1524.705522
 11
3016.587599
 21
1521.705522
  0
LINE
  8
CSLAYER1
  6
DOT
 62
     5
 10
2124.972819
 20
1126.462492
 11
1866.114955
 21
684.579416
  0
LINE
  8
CSLAYER1
  6
DOT
 62
     5
 10
1933.178757
 20
655.234293
 11
2188.859257
 21
989.436825
  0
LINE
  8
CSLAYER1
  6
DOT
 62
     5
 10
2469.587599
 20
1546.705522
 11
2469.587599
 21
1521.705522
  0
LINE
  8
CSLAYER1
  6
DOT
 62
     5
 10
2167.651793
 20
1081.093772
 11
2160.262923
 21
1100.623355
  0
CIRCLE
  8
CSLAYER1
  6
DOT
 62
     5
 10
2217.096625
 20
1055.969907
 40
9.000000
  0
CIRCLE
  8
CSLAYER1
  6
DOT
 62
     5
 10
2217.096625
 20
1055.969907
 40
10.000000
  0
CIRCLE
  8
CSLAYER1
  6
DOT
 62
     5
 10
2217.096625
 20
1055.969907
 40
15.000000
  0
LINE
  8
CSLAYER1
  6
DOT
 62
     5
 10
2232.096625
 20
1064.630161
 11
2217.096625
 21
1073.290415
  0
LINE
  8
CSLAYER1
  6
DOT
 62
     5
 10
2217.096625
 20
1073.290415
 11
2202.096625
 21
1064.630161
  0
LINE
  8
CSLAYER1
  6
DOT
 62
     5
 10
2202.096625
 20
1064.630161
 11
2202.096625
 21
1047.309653
  0
LINE
  8
CSLAYER1
  6
DOT
 62
     5
 10
2202.096625
 20
1047.309653
 11
2217.096625
 21
1038.649399
  0
LINE
  8
CSLAYER1
  6
DOT
 62
     5
 10
2217.096625
 20
1038.649399
 11
2232.096625
 21
1047.309653
  0
LINE
  8
CSLAYER1
  6
DOT
 62
     5
 10
2232.096625
 20
1047.309653
 11
2232.096625
 21
1064.630161
  0
LINE
  8
CSLAYER1
  6
DOT
 62
     5
 10
2182.463771
 20
1201.609488
 11
2446.478307
 21
1546.705522
  0
LINE
  8
CSLAYER1
  6
CONTINUOUS
 62
     5
 10
2537.405651
 20
611.234293
 11
2577.405651
 21
611.234293
  0
LINE
  8
CSLAYER1
  6
CONTINUOUS
 62
     5
 10
2557.405651
 20
631.234293
 11
2557.405651
 21
591.234293
  0
LINE
  8
CSLAYER1
  6
PHANTOM
 62
     5
 10
3118.787599
 20
739.234293
 11
1768.787599
 21
739.234293
  0
LINE
  8
CSLAYER1
  6
PHANTOM
 62
     5
 10
3118.787599
 20
686.234293
 11
1768.787599
 21
686.234293
  0
LINE
  8
CSLAYER1
  6
CONTINUOUS
 62
     3
 10
3252.334896
 20
2479.991037
 11
3462.872641
 21
2479.991037
  0
LINE
  8
CSLAYER1
  6
CONTINUOUS
 62
     3
 10
3251.802259
 20
2486.991037
 11
3462.872641
 21
2486.991037
  0
ARC
  8
CSLAYER1
  6
CONTINUOUS
 62
     3
 10
3258.639656
 20
2440.491037
 40
40.000000
 50
-260.931278
 51
63.817766
  0
ARC
  8
CSLAYER1
  6
CONTINUOUS
 62
     3
 10
3258.639656
 20
2440.491037
 40
47.000000
 50
-261.635125
 51
49.860785
  0
LINE
  8
CSLAYER1
  6
CONTINUOUS
 62
     3
 10
3118.787599
 20
2479.991037
 11
3228.648040
 21
2479.991037
  0
LINE
  8
CSLAYER1
  6
CONTINUOUS
 62
     3
 10
3118.787599
 20
2486.991037
 11
3239.354931
 21
2486.991037
  0
LINE
  8
CSLAYER1
  6
CONTINUOUS
 62
     3
 10
3118.787599
 20
2522.191037
 11
3284.232567
 21
2522.191037
  0
LINE
  8
CSLAYER1
  6
CONTINUOUS
 62
     3
 10
3118.787599
 20
2515.191037
 11
3294.114358
 21
2515.191037
  0
LINE
  8
CSLAYER1
  6
CONTINUOUS
 62
     3
 10
3530.732884
 20
2668.803277
 11
3535.803512
 21
2670.712994
  0
LINE
  8
CSLAYER1
  6
CONTINUOUS
 62
     3
 10
3535.803512
 20
2670.712994
 11
3542.228144
 21
2670.891456
  0
LINE
  8
CSLAYER1
  6
CONTINUOUS
 62
     3
 10
3529.678555
 20
2670.192379
 11
3535.327614
 21
2672.557101
  0
LINE
  8
CSLAYER1
  6
CONTINUOUS
 62
     3
 10
3535.327614
 20
2672.557101
 11
3540.681473
 21
2673.865822
  0
LINE
  8
CSLAYER1
  6
CONTINUOUS
 62
     3
 10
3528.836360
 20
2671.301988
 11
3533.721456
 21
2674.163259
  0
LINE
  8
CSLAYER1
  6
CONTINUOUS
 62
     3
 10
3533.721456
 20
2674.163259
 11
3536.041462
 21
2677.494549
  0
ARC
  8
CSLAYER1
  6
CONTINUOUS
 62
     3
 10
3315.767508
 20
2562.191037
 40
47.000000
 50
-10.756396
 51
307.198537
  0
ARC
  8
CSLAYER1
  6
CONTINUOUS
 62
     3
 10
3315.767508
 20
2562.191037
 40
40.000000
 50
-23.471057
 51
307.198537
  0
LINE
  8
CSLAYER1
  6
CONTINUOUS
 62
     3
 10
3531.916638
 20
2667.243656
 11
3344.182710
 21
2524.753406
  0
LINE
  8
CSLAYER1
  6
CONTINUOUS
 62
     3
 10
3527.684586
 20
2672.819474
 11
3339.950659
 21
2530.329223
  0
LINE
  8
CSLAYER1
  6
CONTINUOUS
 62
     3
 10
3531.916638
 20
2667.243656
 11
3527.684586
 21
2672.819474
  0
LINE
  8
CSLAYER1
  6
CONTINUOUS
 62
     5
 10
2194.745739
 20
1055.969907
 11
2238.674237
 21
1055.969907
  0
LINE
  8
CSLAYER1
  6
CONTINUOUS
 62
     5
 10
2217.096625
 20
1084.127725
 11
2217.096625
 21
1030.605646
  0
LINE
  8
CSLAYER1
  6
CONTINUOUS
 62
     5
 10
2103.532345
 20
1019.962384
 11
2103.532345
 21
977.643469
  0
LINE
  8
CSLAYER1
  6
CONTINUOUS
 62
     5
 10
2082.748447
 20
998.063480
 11
2127.157186
 21
998.063480
  0
LINE
  8
CSLAYER1
  6
DOT
 62
     5
 10
1967.770642
 20
1482.182946
 11
2563.311438
 21
703.895621
  0
LINE
  8
CSLAYER1
  6
DOT
 62
     5
 10
1967.770642
 20
1482.182946
 11
1896.787599
 21
1511.854624
  0
LINE
  8
CSLAYER1
  6
DOT
 62
     5
 10
2563.311438
 20
703.895621
 11
2569.745002
 21
655.234293
  0
LINE
  8
CSLAYER1
  6
CONTINUOUS
 62
     3
 10
3735.055310
 20
584.234293
 11
343.991412
 21
584.234293
  0
LINE
  8
CSLAYER1
  6
CENTER
 62
     5
 10
1718.426311
 20
2483.691037
 11
3158.937093
 21
2483.691037
  0
LINE
  8
CSLAYER1
  6
CONTINUOUS
 62
     7
 10
1768.787599
 20
1624.905522
 11
1768.787599
 21
1571.905522
  0
LINE
  8
CSLAYER1
  6
CONTINUOUS
 62
     7
 10
3118.787599
 20
1624.905522
 11
3118.787599
 21
1571.905522
  0
LINE
  8
CSLAYER1
  6
PHANTOM
 62
     5
 10
1768.787599
 20
686.234293
 11
1768.787599
 21
739.234293
  0
LINE
  8
CSLAYER1
  6
PHANTOM
 62
     5
 10
3118.787599
 20
686.234293
 11
3118.787599
 21
739.234293
  0
LINE
  8
CSLAYER1
  6
CONTINUOUS
 62
     7
 10
1778.787599
 20
655.234293
 11
3108.787599
 21
655.234293
  0
LINE
  8
CSLAYER1
  6
CONTINUOUS
 62
     7
 10
1778.787599
 20
655.234293
 11
1778.787599
 21
649.234293
  0
LINE
  8
CSLAYER1
  6
CONTINUOUS
 62
     5
 10
1818.787599
 20
665.960674
 11
1818.787599
 21
642.406605
  0
LINE
  8
CSLAYER1
  6
CONTINUOUS
 62
     7
 10
3108.787599
 20
655.234293
 11
3108.787599
 21
649.234293
  0
LINE
  8
CSLAYER1
  6
CONTINUOUS
 62
     5
 10
3068.787599
 20
665.960674
 11
3068.787599
 21
642.406605
  0
LINE
  8
CSLAYER1
  6
CONTINUOUS
 62
     5
 10
2443.787599
 20
665.960674
 11
2443.787599
 21
642.406605
  0
LINE
  8
CSLAYER1
  6
CONTINUOUS
 62
     3
 10
1778.787599
 20
684.101806
 11
1828.787599
 21
655.234293
  0
LINE
  8
CSLAYER1
  6
CONTINUOUS
 62
     3
 10
1778.787599
 20
684.101806
 11
1828.787599
 21
712.969320
  0
LINE
  8
CSLAYER1
  6
CONTINUOUS
 62
     3
 10
1778.787599
 20
741.836833
 11
1828.787599
 21
712.969320
  0
LINE
  8
CSLAYER1
  6
CONTINUOUS
 62
     3
 10
1778.787599
 20
741.836833
 11
1828.787599
 21
770.704347
  0
LINE
  8
CSLAYER1
  6
CONTINUOUS
 62
     3
 10
1778.787599
 20
799.571860
 11
1828.787599
 21
770.704347
  0
LINE
  8
CSLAYER1
  6
CONTINUOUS
 62
     3
 10
1778.787599
 20
799.571860
 11
1828.787599
 21
828.439373
  0
LINE
  8
CSLAYER1
  6
CONTINUOUS
 62
     3
 10
1778.787599
 20
857.306887
 11
1828.787599
 21
828.439373
  0
LINE
  8
CSLAYER1
  6
CONTINUOUS
 62
     3
 10
1778.787599
 20
857.306887
 11
1828.787599
 21
886.174400
  0
LINE
  8
CSLAYER1
  6
CONTINUOUS
 62
     3
 10
1778.787599
 20
915.041914
 11
1828.787599
 21
886.174400
  0
LINE
  8
CSLAYER1
  6
CONTINUOUS
 62
     3
 10
1778.787599
 20
915.041914
 11
1828.787599
 21
943.909427
  0
LINE
  8
CSLAYER1
  6
CONTINUOUS
 62
     3
 10
1778.787599
 20
972.776941
 11
1828.787599
 21
943.909427
  0
LINE
  8
CSLAYER1
  6
CONTINUOUS
 62
     3
 10
1778.787599
 20
972.776941
 11
1828.787599
 21
1001.644454
  0
LINE
  8
CSLAYER1
  6
CONTINUOUS
 62
     3
 10
1778.787599
 20
1030.511968
 11
1828.787599
 21
1001.644454
  0
LINE
  8
CSLAYER1
  6
CONTINUOUS
 62
     3
 10
1778.787599
 20
1030.511968
 11
1828.787599
 21
1059.379481
  0
LINE
  8
CSLAYER1
  6
CONTINUOUS
 62
     3
 10
1778.787599
 20
1088.246995
 11
1828.787599
 21
1059.379481
  0
LINE
  8
CSLAYER1
  6
CONTINUOUS
 62
     3
 10
1778.787599
 20
1088.246995
 11
1828.787599
 21
1117.114508
  0
LINE
  8
CSLAYER1
  6
CONTINUOUS
 62
     3
 10
1778.787599
 20
1145.982022
 11
1828.787599
 21
1117.114508
  0
LINE
  8
CSLAYER1
  6
CONTINUOUS
 62
     3
 10
1778.787599
 20
1145.982022
 11
1828.787599
 21
1174.849535
  0
LINE
  8
CSLAYER1
  6
CONTINUOUS
 62
     3
 10
1778.787599
 20
1203.717048
 11
1828.787599
 21
1174.849535
  0
LINE
  8
CSLAYER1
  6
CONTINUOUS
 62
     3
 10
1778.787599
 20
1203.717048
 11
1828.787599
 21
1232.584562
  0
LINE
  8
CSLAYER1
  6
CONTINUOUS
 62
     3
 10
1778.787599
 20
1261.452075
 11
1828.787599
 21
1232.584562
  0
LINE
  8
CSLAYER1
  6
CONTINUOUS
 62
     3
 10
1778.787599
 20
1261.452075
 11
1828.787599
 21
1290.319589
  0
LINE
  8
CSLAYER1
  6
CONTINUOUS
 62
     3
 10
1778.787599
 20
1319.187102
 11
1828.787599
 21
1290.319589
  0
LINE
  8
CSLAYER1
  6
CONTINUOUS
 62
     3
 10
1778.787599
 20
1319.187102
 11
1828.787599
 21
1348.054616
  0
LINE
  8
CSLAYER1
  6
CONTINUOUS
 62
     3
 10
1778.787599
 20
1376.922129
 11
1828.787599
 21
1348.054616
  0
LINE
  8
CSLAYER1
  6
CONTINUOUS
 62
     3
 10
1778.787599
 20
1376.922129
 11
1828.787599
 21
1405.789643
  0
LINE
  8
CSLAYER1
  6
CONTINUOUS
 62
     3
 10
1778.787599
 20
1434.657156
 11
1828.787599
 21
1405.789643
  0
LINE
  8
CSLAYER1
  6
CONTINUOUS
 62
     3
 10
1778.787599
 20
1434.657156
 11
1828.787599
 21
1463.524670
  0
LINE
  8
CSLAYER1
  6
CONTINUOUS
 62
     3
 10
1778.787599
 20
1492.392183
 11
1828.787599
 21
1463.524670
  0
LINE
  8
CSLAYER1
  6
CONTINUOUS
 62
     3
 10
1778.787599
 20
1492.392183
 11
1828.787599
 21
1521.259697
  0
LINE
  8
CSLAYER1
  6
CONTINUOUS
 62
     3
 10
1778.787599
 20
1550.127210
 11
1828.787599
 21
1521.259697
  0
LINE
  8
CSLAYER1
  6
CONTINUOUS
 62
     3
 10
1778.787599
 20
1550.127210
 11
1816.508742
 21
1571.905522
  0
LINE
  8
CSLAYER1
  6
CONTINUOUS
 62
     3
 10
3108.787599
 20
799.571860
 11
3058.787599
 21
770.704347
  0
LINE
  8
CSLAYER1
  6
CONTINUOUS
 62
     3
 10
3108.787599
 20
799.571860
 11
3058.787599
 21
828.439373
  0
LINE
  8
CSLAYER1
  6
CONTINUOUS
 62
     3
 10
3108.787599
 20
857.306887
 11
3058.787599
 21
828.439373
  0
LINE
  8
CSLAYER1
  6
CONTINUOUS
 62
     3
 10
3108.787599
 20
857.306887
 11
3058.787599
 21
886.174400
  0
LINE
  8
CSLAYER1
  6
CONTINUOUS
 62
     3
 10
3108.787599
 20
915.041914
 11
3058.787599
 21
886.174400
  0
LINE
  8
CSLAYER1
  6
CONTINUOUS
 62
     3
 10
3108.787599
 20
915.041914
 11
3058.787599
 21
943.909427
  0
LINE
  8
CSLAYER1
  6
CONTINUOUS
 62
     3
 10
3108.787599
 20
972.776941
 11
3058.787599
 21
943.909427
  0
LINE
  8
CSLAYER1
  6
CONTINUOUS
 62
     3
 10
3108.787599
 20
972.776941
 11
3058.787599
 21
1001.644454
  0
LINE
  8
CSLAYER1
  6
CONTINUOUS
 62
     3
 10
3108.787599
 20
1030.511968
 11
3058.787599
 21
1001.644454
  0
LINE
  8
CSLAYER1
  6
CONTINUOUS
 62
     3
 10
3108.787599
 20
1030.511968
 11
3058.787599
 21
1059.379481
  0
LINE
  8
CSLAYER1
  6
CONTINUOUS
 62
     3
 10
3108.787599
 20
1088.246995
 11
3058.787599
 21
1059.379481
  0
LINE
  8
CSLAYER1
  6
CONTINUOUS
 62
     3
 10
3108.787599
 20
1088.246995
 11
3058.787599
 21
1117.114508
  0
LINE
  8
CSLAYER1
  6
CONTINUOUS
 62
     3
 10
3108.787599
 20
1145.982022
 11
3058.787599
 21
1117.114508
  0
LINE
  8
CSLAYER1
  6
CONTINUOUS
 62
     3
 10
3108.787599
 20
1145.982022
 11
3058.787599
 21
1174.849535
  0
LINE
  8
CSLAYER1
  6
CONTINUOUS
 62
     3
 10
3108.787599
 20
1203.717048
 11
3058.787599
 21
1174.849535
  0
LINE
  8
CSLAYER1
  6
CONTINUOUS
 62
     3
 10
3108.787599
 20
1203.717048
 11
3058.787599
 21
1232.584562
  0
LINE
  8
CSLAYER1
  6
CONTINUOUS
 62
     3
 10
3108.787599
 20
1261.452075
 11
3058.787599
 21
1232.584562
  0
LINE
  8
CSLAYER1
  6
CONTINUOUS
 62
     3
 10
3108.787599
 20
1261.452075
 11
3058.787599
 21
1290.319589
  0
LINE
  8
CSLAYER1
  6
CONTINUOUS
 62
     3
 10
3108.787599
 20
1319.187102
 11
3058.787599
 21
1290.319589
  0
LINE
  8
CSLAYER1
  6
CONTINUOUS
 62
     3
 10
3108.787599
 20
1319.187102
 11
3058.787599
 21
1348.054616
  0
LINE
  8
CSLAYER1
  6
CONTINUOUS
 62
     3
 10
3108.787599
 20
1376.922129
 11
3058.787599
 21
1348.054616
  0
LINE
  8
CSLAYER1
  6
CONTINUOUS
 62
     3
 10
3108.787599
 20
1376.922129
 11
3058.787599
 21
1405.789643
  0
LINE
  8
CSLAYER1
  6
CONTINUOUS
 62
     3
 10
3108.787599
 20
1434.657156
 11
3058.787599
 21
1405.789643
  0
LINE
  8
CSLAYER1
  6
CONTINUOUS
 62
     3
 10
3108.787599
 20
1434.657156
 11
3058.787599
 21
1463.524670
  0
LINE
  8
CSLAYER1
  6
CONTINUOUS
 62
     3
 10
3108.787599
 20
1492.392183
 11
3058.787599
 21
1463.524670
  0
LINE
  8
CSLAYER1
  6
CONTINUOUS
 62
     3
 10
3108.787599
 20
1492.392183
 11
3058.787599
 21
1521.259697
  0
LINE
  8
CSLAYER1
  6
CONTINUOUS
 62
     3
 10
3108.787599
 20
1550.127210
 11
3058.787599
 21
1521.259697
  0
LINE
  8
CSLAYER1
  6
CONTINUOUS
 62
     3
 10
3108.787599
 20
1550.127210
 11
3071.066456
 21
1571.905522
  0
LINE
  8
CSLAYER1
  6
CONTINUOUS
 62
     3
 10
3108.787599
 20
741.836833
 11
3058.787599
 21
770.704347
  0
LINE
  8
CSLAYER1
  6
CONTINUOUS
 62
     3
 10
3108.787599
 20
741.836833
 11
3058.787599
 21
712.969320
  0
LINE
  8
CSLAYER1
  6
CONTINUOUS
 62
     3
 10
3108.787599
 20
684.101806
 11
3058.787599
 21
712.969320
  0
LINE
  8
CSLAYER1
  6
CONTINUOUS
 62
     3
 10
3108.787599
 20
684.101806
 11
3058.787599
 21
655.234293
  0
LINE
  8
CSLAYER1
  6
DOT
 62
     5
 10
2468.684750
 20
1430.081743
 11
2365.389209
 21
1295.063110
  0
LINE
  8
CSLAYER1
  6
DOT
 62
     5
 10
2417.059979
 20
1469.577097
 11
2313.764437
 21
1334.558464
  0
ARC
  8
CSLAYER1
  6
DOT
 62
     5
 10
2339.576823
 20
1314.810787
 40
32.500000
 50
142.582328
 51
322.582328
  0
ARC
  8
CSLAYER1
  6
DOT
 62
     5
 10
2339.576823
 20
1314.810787
 40
59.000000
 50
280.806980
 51
322.582328
  0
ARC
  8
CSLAYER1
  6
DOT
 62
     5
 10
2442.872364
 20
1449.829420
 40
32.500000
 50
-37.417672
 51
142.582328
  0
LINE
  8
CSLAYER1
  6
DOT
 62
     5
 10
1974.834880
 20
884.618307
 11
1980.856537
 21
880.095204
  0
LINE
  8
CSLAYER1
  6
DOT
 62
     5
 10
2039.737172
 20
1004.709973
 11
2047.544749
 21
1015.104286
  0
LINE
  8
CSLAYER1
  6
DOT
 62
     5
 10
1880.391027
 20
804.226043
 11
1919.149925
 21
775.112712
  0
LINE
  8
CSLAYER1
  6
DOT
 62
     5
 10
1914.624248
 20
849.801108
 11
1938.611125
 21
831.783622
  0
LINE
  8
CSLAYER1
  6
DOT
 62
     5
 10
1998.503223
 20
958.140010
 11
2017.853784
 21
943.605043
  0
LINE
  8
CSLAYER1
  6
DOT
 62
     5
 10
2041.548030
 20
1019.608657
 11
2056.012492
 21
1008.743831
  0
LINE
  8
CSLAYER1
  6
DOT
 62
     5
 10
1880.391027
 20
804.226043
 11
1914.624248
 21
849.801108
  0
LINE
  8
CSLAYER1
  6
DOT
 62
     5
 10
1916.223374
 20
848.599942
 11
2003.307886
 21
964.536510
  0
LINE
  8
CSLAYER1
  6
DOT
 62
     5
 10
2011.108175
 20
964.930825
 11
2040.536734
 21
1004.109390
  0
LINE
  8
CSLAYER1
  6
DOT
 62
     5
 10
1880.391027
 20
804.226043
 11
1889.978489
 21
787.019052
  0
LINE
  8
CSLAYER1
  6
DOT
 62
     5
 10
1937.406315
 20
825.184499
 11
1945.097846
 21
819.407087
  0
LINE
  8
CSLAYER1
  6
DOT
 62
     5
 10
1936.809376
 20
829.384935
 11
1982.153381
 21
889.751906
  0
LINE
  8
CSLAYER1
  6
DOT
 62
     5
 10
1915.079662
 20
768.164574
 11
1889.978489
 21
787.019052
  0
ARC
  8
CSLAYER1
  6
DOT
 62
     5
 10
1939.208064
 20
827.583186
 40
3.000000
 50
143.088348
 51
233.088348
  0
ARC
  8
CSLAYER1
  6
DOT
 62
     5
 10
1984.552068
 20
887.950158
 40
3.000000
 50
53.088348
 51
143.088348
  0
LINE
  8
CSLAYER1
  6
DOT
 62
     5
 10
2020.116918
 20
976.924264
 11
2032.099702
 21
967.923524
  0
LINE
  8
CSLAYER1
  6
DOT
 62
     5
 10
1922.619874
 20
843.795279
 11
2005.232533
 21
953.778420
  0
LINE
  8
CSLAYER1
  6
DOT
 62
     5
 10
1921.020749
 20
844.996445
 11
2003.633408
 21
954.979586
  0
ARC
  8
CSLAYER1
  6
DOT
 62
     5
 10
2004.907011
 20
963.335344
 40
2.000000
 50
53.088348
 51
143.088348
  0
LINE
  8
CSLAYER1
  6
DOT
 62
     5
 10
2065.571343
 20
1051.591158
 11
2076.363804
 21
1043.484517
  0
LINE
  8
CSLAYER1
  6
DOT
 62
     5
 10
2039.737172
 20
1004.709973
 11
2049.398316
 21
997.453107
  0
LINE
  8
CSLAYER1
  6
DOT
 62
     5
 10
2039.605868
 20
1002.307232
 11
2048.380751
 21
995.716073
  0
LINE
  8
CSLAYER1
  6
DOT
 62
     5
 10
2039.605868
 20
1002.307232
 11
2040.807034
 21
1003.906357
  0
LINE
  8
CSLAYER1
  6
DOT
 62
     5
 10
2036.661555
 20
996.389376
 11
2045.073663
 21
990.070711
  0
LINE
  8
CSLAYER1
  6
DOT
 62
     5
 10
2075.747930
 20
1050.099793
 11
2072.793397
 21
1046.166390
  0
LINE
  8
CSLAYER1
  6
DOT
 62
     5
 10
2078.748510
 20
1047.845940
 11
2075.793976
 21
1043.912537
  0
LINE
  8
CSLAYER1
  6
DOT
 62
     5
 10
2036.661555
 20
996.389376
 11
2036.206224
 21
997.457486
  0
LINE
  8
CSLAYER1
  6
DOT
 62
     5
 10
2076.900605
 20
1049.960066
 11
2075.747930
 21
1050.099793
  0
LINE
  8
CSLAYER1
  6
DOT
 62
     5
 10
2039.761340
 20
1002.190451
 11
2036.206224
 21
997.457486
  0
ARC
  8
CSLAYER1
  6
DOT
 62
     5
 10
2039.326546
 20
998.487325
 40
3.285875
 50
208.401853
 51
268.052731
  0
ARC
  8
CSLAYER1
  6
DOT
 62
     5
 10
2075.647712
 20
1046.842093
 40
3.259241
 50
17.716730
 51
78.654247
  0
ARC
  8
CSLAYER1
  6
DOT
 62
     5
 10
2049.317616
 20
1002.415709
 40
12.419443
 50
215.500394
 51
250.676302
  0
LINE
  8
CSLAYER1
  6
DOT
 62
     5
 10
2042.761920
 20
999.936598
 11
2039.206804
 21
995.203632
  0
LINE
  8
CSLAYER1
  6
DOT
 62
     5
 10
2037.118115
 20
991.669042
 11
2042.395228
 21
987.705196
  0
LINE
  8
CSLAYER1
  6
DOT
 62
     5
 10
2036.978829
 20
992.649144
 11
2038.660461
 21
994.887919
  0
LINE
  8
CSLAYER1
  6
DOT
 62
     5
 10
2037.118115
 20
991.669042
 11
2039.220155
 21
994.467511
  0
LINE
  8
CSLAYER1
  6
DOT
 62
     5
 10
2036.978829
 20
992.649144
 11
2037.118115
 21
991.669042
  0
LINE
  8
CSLAYER1
  6
DOT
 62
     5
 10
2036.978829
 20
992.649144
 11
2043.375329
 21
987.844481
  0
LINE
  8
CSLAYER1
  6
DOT
 62
     5
 10
2046.261774
 20
992.098875
 11
2045.207963
 21
990.695926
  0
LINE
  8
CSLAYER1
  6
DOT
 62
     5
 10
2043.375329
 20
987.844481
 11
2045.056961
 21
990.083256
  0
LINE
  8
CSLAYER1
  6
DOT
 62
     5
 10
2042.395228
 20
987.705196
 11
2044.497268
 21
990.503664
  0
LINE
  8
CSLAYER1
  6
DOT
 62
     5
 10
2043.375329
 20
987.844481
 11
2042.395228
 21
987.705196
  0
LINE
  8
CSLAYER1
  6
DOT
 62
     5
 10
2045.690797
 20
1000.237971
 11
2047.474011
 21
996.397161
  0
LINE
  8
CSLAYER1
  6
DOT
 62
     5
 10
2041.548030
 20
1019.608657
 11
2065.571343
 21
1051.591158
  0
LINE
  8
CSLAYER1
  6
DOT
 62
     5
 10
2076.900605
 20
1049.960066
 11
2079.162109
 21
1048.261362
  0
LINE
  8
CSLAYER1
  6
DOT
 62
     5
 10
2006.108176
 20
964.934469
 11
2022.941612
 21
952.290214
  0
ARC
  8
CSLAYER1
  6
DOT
 62
     5
 10
2008.709487
 20
966.732574
 40
3.000000
 50
233.088348
 51
323.088348
  0
INSERT
  8
CSLAYER1
  2
BLKF0001
 10
0.0
 20
0.0
 30
0.0
  0
LINE
  8
CSLAYER1
  6
CONTINUOUS
 62
     7
 10
1220.440830
 20
1624.905522
 11
1220.440830
 21
1571.905522
  0
LINE
  8
CSLAYER1
  6
CONTINUOUS
 62
     7
 10
470.440830
 20
1624.905522
 11
470.440830
 21
1571.905522
  0
LINE
  8
CSLAYER1
  6
CONTINUOUS
 62
     3
 10
1768.787599
 20
2108.691037
 11
3118.787599
 21
2108.691037
  0
LINE
  8
CSLAYER1
  6
CONTINUOUS
 62
     3
 10
1768.787599
 20
2858.691037
 11
3118.787599
 21
2858.691037
  0
LINE
  8
CSLAYER1
  6
CONTINUOUS
 62
     3
 10
1768.787599
 20
2108.691037
 11
1768.787599
 21
2858.691037
  0
LINE
  8
CSLAYER1
  6
CONTINUOUS
 62
     3
 10
3118.787599
 20
2108.691037
 11
3118.787599
 21
2858.691037
  0
LINE
  8
CSLAYER1
  6
CONTINUOUS
 62
     7
 10
1210.440830
 20
604.234293
 11
1210.440830
 21
655.234293
  0
LINE
  8
CSLAYER1
  6
CONTINUOUS
 62
     7
 10
1210.440830
 20
655.234293
 11
480.440830
 21
655.234293
  0
LINE
  8
CSLAYER1
  6
CONTINUOUS
 62
     7
 10
1145.440830
 20
649.234293
 11
1145.440830
 21
655.234293
  0
LINE
  8
CSLAYER1
  6
CONTINUOUS
 62
     5
 10
1200.440830
 20
640.068905
 11
1200.440830
 21
668.392833
  0
LINE
  8
CSLAYER1
  6
CONTINUOUS
 62
     7
 10
1190.440830
 20
584.234293
 11
1210.440830
 21
604.234293
  0
LINE
  8
CSLAYER1
  6
DOT
 62
     7
 10
595.440830
 20
648.516077
 11
595.440830
 21
584.234293
  0
LINE
  8
CSLAYER1
  6
CONTINUOUS
 62
     7
 10
480.440830
 20
604.234293
 11
480.440830
 21
655.234293
  0
LINE
  8
CSLAYER1
  6
CONTINUOUS
 62
     7
 10
545.440830
 20
649.234293
 11
545.440830
 21
655.234293
  0
LINE
  8
CSLAYER1
  6
CONTINUOUS
 62
     5
 10
490.440830
 20
640.068905
 11
490.440830
 21
668.392833
  0
LINE
  8
CSLAYER1
  6
CONTINUOUS
 62
     7
 10
500.440830
 20
584.234293
 11
480.440830
 21
604.234293
  0
LINE
  8
CSLAYER1
  6
CONTINUOUS
 62
     1
 10
1840.787599
 20
649.234293
 11
1840.787599
 21
584.234293
  0
LINE
  8
CSLAYER1
  6
CONTINUOUS
 62
     1
 10
3028.787599
 20
649.234293
 11
3028.787599
 21
584.234293
  0
LINE
  8
CSLAYER1
  6
CONTINUOUS
 62
     5
 10
3034.787599
 20
604.234293
 11
3028.787599
 21
604.234293
  0
LINE
  8
CSLAYER1
  6
CONTINUOUS
 62
     5
 10
1840.787599
 20
604.234293
 11
1834.787599
 21
604.234293
  0
LINE
  8
CSLAYER1
  6
CONTINUOUS
 62
     3
 10
480.440830
 20
741.836833
 11
530.440830
 21
770.704347
  0
LINE
  8
CSLAYER1
  6
CONTINUOUS
 62
     3
 10
480.440830
 20
799.571860
 11
530.440830
 21
770.704347
  0
LINE
  8
CSLAYER1
  6
CONTINUOUS
 62
     3
 10
480.440830
 20
799.571860
 11
530.440830
 21
828.439373
  0
LINE
  8
CSLAYER1
  6
CONTINUOUS
 62
     3
 10
480.440830
 20
857.306887
 11
530.440830
 21
828.439373
  0
LINE
  8
CSLAYER1
  6
CONTINUOUS
 62
     3
 10
480.440830
 20
857.306887
 11
530.440830
 21
886.174400
  0
LINE
  8
CSLAYER1
  6
CONTINUOUS
 62
     3
 10
480.440830
 20
915.041914
 11
530.440830
 21
886.174400
  0
LINE
  8
CSLAYER1
  6
CONTINUOUS
 62
     3
 10
480.440830
 20
915.041914
 11
530.440830
 21
943.909427
  0
LINE
  8
CSLAYER1
  6
CONTINUOUS
 62
     3
 10
480.440830
 20
972.776941
 11
530.440830
 21
943.909427
  0
LINE
  8
CSLAYER1
  6
CONTINUOUS
 62
     3
 10
480.440830
 20
972.776941
 11
530.440830
 21
1001.644454
  0
LINE
  8
CSLAYER1
  6
CONTINUOUS
 62
     3
 10
480.440830
 20
1030.511968
 11
530.440830
 21
1001.644454
  0
LINE
  8
CSLAYER1
  6
CONTINUOUS
 62
     3
 10
480.440830
 20
1030.511968
 11
530.440830
 21
1059.379481
  0
LINE
  8
CSLAYER1
  6
CONTINUOUS
 62
     3
 10
480.440830
 20
1088.246995
 11
530.440830
 21
1059.379481
  0
LINE
  8
CSLAYER1
  6
CONTINUOUS
 62
     3
 10
480.440830
 20
1088.246995
 11
530.440830
 21
1117.114508
  0
LINE
  8
CSLAYER1
  6
CONTINUOUS
 62
     3
 10
480.440830
 20
1145.982022
 11
530.440830
 21
1117.114508
  0
LINE
  8
CSLAYER1
  6
CONTINUOUS
 62
     3
 10
480.440830
 20
1145.982022
 11
530.440830
 21
1174.849535
  0
LINE
  8
CSLAYER1
  6
CONTINUOUS
 62
     3
 10
480.440830
 20
1203.717048
 11
530.440830
 21
1174.849535
  0
LINE
  8
CSLAYER1
  6
CONTINUOUS
 62
     3
 10
480.440830
 20
1203.717048
 11
530.440830
 21
1232.584562
  0
LINE
  8
CSLAYER1
  6
CONTINUOUS
 62
     3
 10
480.440830
 20
1261.452075
 11
530.440830
 21
1232.584562
  0
LINE
  8
CSLAYER1
  6
CONTINUOUS
 62
     3
 10
480.440830
 20
1261.452075
 11
530.440830
 21
1290.319589
  0
LINE
  8
CSLAYER1
  6
CONTINUOUS
 62
     3
 10
480.440830
 20
1319.187102
 11
530.440830
 21
1290.319589
  0
LINE
  8
CSLAYER1
  6
CONTINUOUS
 62
     3
 10
480.440830
 20
1319.187102
 11
530.440830
 21
1348.054616
  0
LINE
  8
CSLAYER1
  6
CONTINUOUS
 62
     3
 10
480.440830
 20
1376.922129
 11
530.440830
 21
1348.054616
  0
LINE
  8
CSLAYER1
  6
CONTINUOUS
 62
     3
 10
480.440830
 20
1376.922129
 11
530.440830
 21
1405.789643
  0
LINE
  8
CSLAYER1
  6
CONTINUOUS
 62
     3
 10
480.440830
 20
1434.657156
 11
530.440830
 21
1405.789643
  0
LINE
  8
CSLAYER1
  6
CONTINUOUS
 62
     3
 10
480.440830
 20
1434.657156
 11
530.440830
 21
1463.524670
  0
LINE
  8
CSLAYER1
  6
CONTINUOUS
 62
     3
 10
480.440830
 20
1492.392183
 11
530.440830
 21
1463.524670
  0
LINE
  8
CSLAYER1
  6
CONTINUOUS
 62
     3
 10
480.440830
 20
1492.392183
 11
530.440830
 21
1521.259697
  0
LINE
  8
CSLAYER1
  6
CONTINUOUS
 62
     3
 10
480.440830
 20
1550.127210
 11
530.440830
 21
1521.259697
  0
LINE
  8
CSLAYER1
  6
CONTINUOUS
 62
     3
 10
480.440830
 20
1550.127210
 11
518.161973
 21
1571.905522
  0
LINE
  8
CSLAYER1
  6
CONTINUOUS
 62
     3
 10
480.440830
 20
684.101806
 11
530.440830
 21
712.969320
  0
LINE
  8
CSLAYER1
  6
CONTINUOUS
 62
     3
 10
480.440830
 20
741.836833
 11
530.440830
 21
712.969320
  0
LINE
  8
CSLAYER1
  6
CONTINUOUS
 62
     3
 10
480.440830
 20
684.101806
 11
530.440830
 21
655.234293
  0
LINE
  8
CSLAYER1
  6
CONTINUOUS
 62
     3
 10
1210.440830
 20
741.836833
 11
1160.440830
 21
770.704347
  0
LINE
  8
CSLAYER1
  6
CONTINUOUS
 62
     3
 10
1210.440830
 20
799.571860
 11
1160.440830
 21
770.704347
  0
LINE
  8
CSLAYER1
  6
CONTINUOUS
 62
     3
 10
1210.440830
 20
799.571860
 11
1160.440830
 21
828.439373
  0
LINE
  8
CSLAYER1
  6
CONTINUOUS
 62
     3
 10
1210.440830
 20
857.306887
 11
1160.440830
 21
828.439373
  0
LINE
  8
CSLAYER1
  6
CONTINUOUS
 62
     3
 10
1210.440830
 20
857.306887
 11
1160.440830
 21
886.174400
  0
LINE
  8
CSLAYER1
  6
CONTINUOUS
 62
     3
 10
1210.440830
 20
915.041914
 11
1160.440830
 21
886.174400
  0
LINE
  8
CSLAYER1
  6
CONTINUOUS
 62
     3
 10
1210.440830
 20
915.041914
 11
1160.440830
 21
943.909427
  0
LINE
  8
CSLAYER1
  6
CONTINUOUS
 62
     3
 10
1210.440830
 20
972.776941
 11
1160.440830
 21
943.909427
  0
LINE
  8
CSLAYER1
  6
CONTINUOUS
 62
     3
 10
1210.440830
 20
972.776941
 11
1160.440830
 21
1001.644454
  0
LINE
  8
CSLAYER1
  6
CONTINUOUS
 62
     3
 10
1210.440830
 20
1030.511968
 11
1160.440830
 21
1001.644454
  0
LINE
  8
CSLAYER1
  6
CONTINUOUS
 62
     3
 10
1210.440830
 20
1030.511968
 11
1160.440830
 21
1059.379481
  0
LINE
  8
CSLAYER1
  6
CONTINUOUS
 62
     3
 10
1210.440830
 20
1088.246995
 11
1160.440830
 21
1059.379481
  0
LINE
  8
CSLAYER1
  6
CONTINUOUS
 62
     3
 10
1210.440830
 20
1088.246995
 11
1160.440830
 21
1117.114508
  0
LINE
  8
CSLAYER1
  6
CONTINUOUS
 62
     3
 10
1210.440830
 20
1145.982022
 11
1160.440830
 21
1117.114508
  0
LINE
  8
CSLAYER1
  6
CONTINUOUS
 62
     3
 10
1210.440830
 20
1145.982022
 11
1160.440830
 21
1174.849535
  0
LINE
  8
CSLAYER1
  6
CONTINUOUS
 62
     3
 10
1210.440830
 20
1203.717048
 11
1160.440830
 21
1174.849535
  0
LINE
  8
CSLAYER1
  6
CONTINUOUS
 62
     3
 10
1210.440830
 20
1203.717048
 11
1160.440830
 21
1232.584562
  0
LINE
  8
CSLAYER1
  6
CONTINUOUS
 62
     3
 10
1210.440830
 20
1261.452075
 11
1160.440830
 21
1232.584562
  0
LINE
  8
CSLAYER1
  6
CONTINUOUS
 62
     3
 10
1210.440830
 20
1261.452075
 11
1160.440830
 21
1290.319589
  0
LINE
  8
CSLAYER1
  6
CONTINUOUS
 62
     3
 10
1210.440830
 20
1319.187102
 11
1160.440830
 21
1290.319589
  0
LINE
  8
CSLAYER1
  6
CONTINUOUS
 62
     3
 10
1210.440830
 20
1319.187102
 11
1160.440830
 21
1348.054616
  0
LINE
  8
CSLAYER1
  6
CONTINUOUS
 62
     3
 10
1210.440830
 20
1376.922129
 11
1160.440830
 21
1348.054616
  0
LINE
  8
CSLAYER1
  6
CONTINUOUS
 62
     3
 10
1210.440830
 20
1376.922129
 11
1160.440830
 21
1405.789643
  0
LINE
  8
CSLAYER1
  6
CONTINUOUS
 62
     3
 10
1210.440830
 20
1434.657156
 11
1160.440830
 21
1405.789643
  0
LINE
  8
CSLAYER1
  6
CONTINUOUS
 62
     3
 10
1210.440830
 20
1434.657156
 11
1160.440830
 21
1463.524670
  0
LINE
  8
CSLAYER1
  6
CONTINUOUS
 62
     3
 10
1210.440830
 20
1492.392183
 11
1160.440830
 21
1463.524670
  0
LINE
  8
CSLAYER1
  6
CONTINUOUS
 62
     3
 10
1210.440830
 20
1492.392183
 11
1160.440830
 21
1521.259697
  0
LINE
  8
CSLAYER1
  6
CONTINUOUS
 62
     3
 10
1210.440830
 20
1550.127210
 11
1160.440830
 21
1521.259697
  0
LINE
  8
CSLAYER1
  6
CONTINUOUS
 62
     3
 10
1210.440830
 20
1550.127210
 11
1172.719687
 21
1571.905522
  0
LINE
  8
CSLAYER1
  6
CONTINUOUS
 62
     3
 10
1210.440830
 20
741.836833
 11
1160.440830
 21
712.969320
  0
LINE
  8
CSLAYER1
  6
CONTINUOUS
 62
     3
 10
1210.440830
 20
684.101806
 11
1160.440830
 21
655.234293
  0
LINE
  8
CSLAYER1
  6
CONTINUOUS
 62
     3
 10
1210.440830
 20
684.101806
 11
1160.440830
 21
712.969320
  0
TEXT
  8
CSLAYER1
 62
     5
 10
3440.629883
 20
2078.746338
 40
60.000000
 41
1.020000
  1
ＵＰ・ＤＯＷＮ
 50
0.000000
 51
0.000000
  7
EASYDRAW_FONT
 72
     5
 11
3848.629883
 21
2078.746338
  0
TEXT
  8
CSLAYER1
 62
     5
 10
3447.783936
 20
2159.228760
 40
60.000000
 41
1.020000
  1
フットスイッチ
 50
0.000000
 51
0.000000
  7
EASYDRAW_FONT
 72
     5
 11
3855.783936
 21
2159.228760
  0
TEXT
  8
CSLAYER1
 62
     5
 10
3340.500732
 20
3119.627686
 40
60.000000
 41
1.028571
  1
電源コード
 50
0.000000
 51
0.000000
  7
EASYDRAW_FONT
 72
     5
 11
3628.500732
 21
3119.627686
  0
TEXT
  8
CSLAYER1
 62
     5
 10
3374.974609
 20
3035.186279
 40
60.000000
 41
1.036364
  1
長サ４ｍ
 50
0.000000
 51
0.000000
  7
EASYDRAW_FONT
 72
     5
 11
3602.974609
 21
3035.186279
  0
DIMENSION
  8
CSLAYER1
 62
     3
  2
*D0000
 10
3268.787599
 20
739.234293
 11
3240.809326
 21
658.823547
 13
3118.787599
 23
584.234293
 14
3118.787599
 24
739.234293
 50
90.000000
 70
1
  0
DIMENSION
  8
CSLAYER1
 62
     3
  2
*D0001
 10
3268.787599
 20
739.234293
 11
3253.787354
 21
1182.069702
 13
3268.787599
 23
1624.905522
 14
3268.787599
 24
739.234293
 50
90.000000
 70
1
  0
DIMENSION
  8
CSLAYER1
 62
     3
  2
*D0002
 10
3418.787599
 20
1624.905522
 11
3403.787354
 21
1104.569702
 13
3118.787599
 23
584.234293
 14
3118.787599
 24
1624.905522
 50
90.000000
 70
1
  0
DIMENSION
  8
CSLAYER1
 62
     3
  2
*D0003
 10
3118.787599
 20
1774.905522
 11
2443.787354
 21
1789.905640
 13
1768.787599
 23
1624.905522
 14
3118.787599
 24
1624.905522
 70
1
  0
DIMENSION
  8
CSLAYER1
 62
     3
  2
*D0004
 10
1618.787599
 20
2858.691037
 11
1603.787598
 21
2483.691162
 13
1768.787599
 23
2108.691037
 14
1768.787599
 24
2858.691037
 50
90.000000
 70
1
  0
DIMENSION
  8
CSLAYER1
 62
     3
  2
*D0005
 10
1834.787599
 20
434.234293
 11
1701.263062
 21
457.446106
 13
1768.787599
 23
584.234293
 14
1834.787599
 24
584.234293
 52
270.000000
 70
1
  0
DIMENSION
  8
CSLAYER1
 62
     3
  2
*D0006
 10
3034.787599
 20
434.234293
 11
2434.787354
 21
449.234192
 13
1834.787599
 23
584.234293
 14
3034.787599
 24
584.234293
 52
270.000000
 70
1
  0
DIMENSION
  8
CSLAYER1
 62
     3
  2
*D0007
 10
3034.787599
 20
434.234293
 11
3214.625244
 21
455.581360
 13
3118.787599
 23
434.234293
 14
3034.787599
 24
434.234293
 52
0.000000
 70
1
  0
DIMENSION
  8
CSLAYER1
 62
     3
  2
*D0008
 10
3118.787599
 20
284.234293
 11
2443.787354
 21
299.234192
 13
1768.787599
 23
686.234293
 14
3118.787599
 24
686.234293
 52
270.000000
 70
1
  0
DIMENSION
  8
CSLAYER1
 62
     3
  2
*D0009
 10
1095.440830
 20
434.234293
 11
845.440796
 21
449.234192
 13
595.440830
 23
584.234293
 14
1095.440830
 24
584.234293
 52
270.000000
 70
1
  0
DIMENSION
  8
CSLAYER1
 62
     3
  2
*D0010
 10
1210.440830
 20
284.234293
 11
845.440796
 21
299.234192
 13
480.440830
 23
604.234293
 14
1210.440830
 24
604.234293
 52
270.000000
 70
1
  0
TEXT
  8
CSLAYER1
 62
     5
 10
1106.093750
 20
1832.762939
 40
60.000000
 41
1.023529
  1
４面ジャバラ
 50
360.000000
 51
0.000000
  7
EASYDRAW_FONT
 72
     5
 11
1454.093750
 21
1832.762939
  0
LINE
  8
CSLAYER1
  6
CONTINUOUS
 62
     5
 10
941.206650
 20
719.994354
 11
1265.163273
 21
920.064018
  0
LINE
  8
CSLAYER1
  6
CONTINUOUS
 62
     5
 10
941.206650
 20
719.994354
 11
972.069210
 21
752.743437
  0
LINE
  8
CSLAYER1
  6
CONTINUOUS
 62
     5
 10
941.206650
 20
719.994354
 11
984.308952
 21
732.924612
  0
LINE
  8
CSLAYER1
  6
CONTINUOUS
 62
     5
 10
1966.532005
 20
915.576375
 11
1721.527932
 21
1107.008129
  0
LINE
  8
CSLAYER1
  6
CONTINUOUS
 62
     5
 10
1966.532005
 20
915.576375
 11
1925.109892
 21
933.160703
  0
LINE
  8
CSLAYER1
  6
CONTINUOUS
 62
     5
 10
1966.532005
 20
915.576375
 11
1939.451567
 21
951.515906
  0
LINE
  8
CSLAYER1
  6
CONTINUOUS
 62
     5
 10
1271.570827
 20
1107.008129
 11
1721.527932
 21
1107.008129
  0
LINE
  8
CSLAYER1
  6
CONTINUOUS
 62
     5
 10
1265.163273
 20
920.064018
 11
1742.865417
 21
920.064018
  0
LINE
  8
CSLAYER1
  6
CONTINUOUS
 62
     5
 10
1783.120610
 20
1379.423794
 11
1503.771554
 21
1824.905522
  0
LINE
  8
CSLAYER1
  6
CONTINUOUS
 62
     5
 10
1783.120610
 20
1379.423794
 11
1750.161170
 21
1410.061603
  0
LINE
  8
CSLAYER1
  6
CONTINUOUS
 62
     5
 10
1783.120610
 20
1379.423794
 11
1769.895802
 21
1422.436635
  0
LINE
  8
CSLAYER1
  6
CONTINUOUS
 62
     5
 10
1503.771554
 20
1824.905522
 11
1043.940830
 21
1824.905522
  0
LINE
  8
CSLAYER1
  6
CONTINUOUS
 62
     5
 10
3527.055594
 20
2684.740909
 11
3295.051389
 21
3108.691037
  0
LINE
  8
CSLAYER1
  6
CONTINUOUS
 62
     5
 10
3527.055594
 20
2684.740909
 11
3495.971891
 21
2717.280169
  0
LINE
  8
CSLAYER1
  6
CONTINUOUS
 62
     5
 10
3527.055594
 20
2684.740909
 11
3516.405948
 21
2728.462586
  0
LINE
  8
CSLAYER1
  6
CONTINUOUS
 62
     5
 10
3636.765427
 20
3108.691037
 11
3295.051389
 21
3108.691037
  0
INSERT
  8
CSLAYER1
  2
BLKF0002
 10
0.0
 20
0.0
 30
0.0
  0
LINE
  8
CSLAYER1
  6
DOT
 62
     5
 10
713.440830
 20
1546.705522
 11
688.440830
 21
1546.705522
  0
LINE
  8
CSLAYER1
  6
DOT
 62
     5
 10
688.440830
 20
1521.705522
 11
715.940830
 21
1521.705522
  0
LINE
  8
CSLAYER1
  6
DOT
 62
     5
 10
688.440830
 20
1571.905522
 11
688.440830
 21
1521.705522
  0
LINE
  8
CSLAYER1
  6
DOT
 62
     5
 10
713.440830
 20
1521.705522
 11
713.440830
 21
1571.905522
  0
LINE
  8
CSLAYER1
  6
DOT
 62
     5
 10
697.940830
 20
1571.905522
 11
697.940830
 21
1546.705522
  0
LINE
  8
CSLAYER1
  6
DOT
 62
     5
 10
703.940830
 20
1571.905522
 11
703.940830
 21
1546.705522
  0
LINE
  8
CSLAYER1
  6
DOT
 62
     5
 10
968.440830
 20
1571.905522
 11
968.440830
 21
649.234293
  0
LINE
  8
CSLAYER1
  6
DOT
 62
     5
 10
952.440830
 20
1571.905522
 11
952.440830
 21
649.234293
  0
LINE
  8
CSLAYER1
  6
DOT
 62
     5
 10
722.440830
 20
1571.905522
 11
722.440830
 21
649.234293
  0
LINE
  8
CSLAYER1
  6
DOT
 62
     5
 10
716.940830
 20
1520.705522
 11
716.940830
 21
1480.705522
  0
LINE
  8
CSLAYER1
  6
DOT
 62
     5
 10
690.440830
 20
1512.257164
 11
690.440830
 21
1489.153880
  0
LINE
  8
CSLAYER1
  6
DOT
 62
     5
 10
689.290830
 20
1512.257164
 11
689.290830
 21
1489.153880
  0
LINE
  8
CSLAYER1
  6
DOT
 62
     5
 10
688.440830
 20
1508.205522
 11
689.232993
 21
1508.205522
  0
LINE
  8
CSLAYER1
  6
DOT
 62
     5
 10
689.290830
 20
1512.257164
 11
690.440830
 21
1512.257164
  0
LINE
  8
CSLAYER1
  6
DOT
 62
     5
 10
690.440830
 20
1508.205522
 11
690.940830
 21
1508.205522
  0
LINE
  8
CSLAYER1
  6
DOT
 62
     5
 10
690.940830
 20
1520.705522
 11
690.940830
 21
1480.705522
  0
ARC
  8
CSLAYER1
  6
DOT
 62
     5
 10
715.940830
 20
1520.705522
 40
1.000000
 50
0.000000
 51
90.000000
  0
ARC
  8
CSLAYER1
  6
DOT
 62
     5
 10
691.940830
 20
1520.705522
 40
1.000000
 50
90.000000
 51
180.000000
  0
ARC
  8
CSLAYER1
  6
DOT
 62
     5
 10
702.940830
 20
1520.705522
 40
1.000000
 50
0.000000
 51
90.000000
  0
ARC
  8
CSLAYER1
  6
DOT
 62
     5
 10
704.940830
 20
1520.705522
 40
1.000000
 50
90.000000
 51
180.000000
  0
LINE
  8
CSLAYER1
  6
DOT
 62
     5
 10
687.940830
 20
1571.905522
 11
687.940830
 21
1481.705522
  0
LINE
  8
CSLAYER1
  6
DOT
 62
     5
 10
691.940830
 20
1479.705522
 11
702.940830
 21
1479.705522
  0
LINE
  8
CSLAYER1
  6
DOT
 62
     5
 10
688.440830
 20
1493.205522
 11
689.232993
 21
1493.205522
  0
LINE
  8
CSLAYER1
  6
DOT
 62
     5
 10
689.290830
 20
1489.153880
 11
690.440830
 21
1489.153880
  0
LINE
  8
CSLAYER1
  6
DOT
 62
     5
 10
690.440830
 20
1493.205522
 11
690.940830
 21
1493.205522
  0
ARC
  8
CSLAYER1
  6
DOT
 62
     5
 10
715.940830
 20
1480.705522
 40
1.000000
 50
270.000000
 51
360.000000
  0
ARC
  8
CSLAYER1
  6
DOT
 62
     5
 10
691.940830
 20
1480.705522
 40
1.000000
 50
180.000000
 51
270.000000
  0
ARC
  8
CSLAYER1
  6
DOT
 62
     5
 10
702.940830
 20
1480.705522
 40
1.000000
 50
270.000000
 51
360.000000
  0
ARC
  8
CSLAYER1
  6
DOT
 62
     5
 10
704.940830
 20
1480.705522
 40
1.000000
 50
180.000000
 51
270.000000
  0
LINE
  8
CSLAYER1
  6
DOT
 62
     5
 10
715.940830
 20
1479.705522
 11
704.940830
 21
1479.705522
  0
LINE
  8
CSLAYER1
  6
DOT
 62
     5
 10
717.440830
 20
1510.705522
 11
716.940830
 21
1510.205522
  0
LINE
  8
CSLAYER1
  6
DOT
 62
     5
 10
717.440830
 20
1490.705522
 11
716.940830
 21
1491.205522
  0
LINE
  8
CSLAYER1
  6
DOT
 62
     5
 10
703.940830
 20
1480.705522
 11
703.940830
 21
1520.705522
  0
LINE
  8
CSLAYER1
  6
DOT
 62
     5
 10
734.087396
 20
1567.220662
 11
956.794264
 21
1567.220662
  0
LINE
  8
CSLAYER1
  6
DOT
 62
     5
 10
738.440830
 20
1550.220662
 11
952.440830
 21
1550.220662
  0
LINE
  8
CSLAYER1
  6
DOT
 62
     5
 10
845.440830
 20
1390.795848
 11
845.440830
 21
1394.121510
  0
LINE
  8
CSLAYER1
  6
CENTER
 62
     5
 10
718.440830
 20
1446.018391
 11
972.440830
 21
1446.018391
  0
LINE
  8
CSLAYER1
  6
DOT
 62
     5
 10
815.190830
 20
1415.768391
 11
790.940830
 21
1415.768391
  0
LINE
  8
CSLAYER1
  6
DOT
 62
     5
 10
744.440830
 20
1424.018391
 11
788.940830
 21
1424.018391
  0
LINE
  8
CSLAYER1
  6
DOT
 62
     5
 10
744.440830
 20
1468.018391
 11
788.940830
 21
1468.018391
  0
LINE
  8
CSLAYER1
  6
DOT
 62
     5
 10
788.940830
 20
1474.268391
 11
788.940830
 21
1417.768391
  0
LINE
  8
CSLAYER1
  6
DOT
 62
     5
 10
790.940830
 20
1476.268391
 11
899.940830
 21
1476.268391
  0
LINE
  8
CSLAYER1
  6
DOT
 62
     5
 10
788.940830
 20
1474.268391
 11
790.940830
 21
1476.268391
  0
LINE
  8
CSLAYER1
  6
DOT
 62
     5
 10
788.940830
 20
1417.768391
 11
790.940830
 21
1415.768391
  0
LINE
  8
CSLAYER1
  6
DOT
 62
     5
 10
744.440830
 20
1468.018391
 11
739.440830
 21
1463.018391
  0
LINE
  8
CSLAYER1
  6
DOT
 62
     5
 10
744.440830
 20
1468.018391
 11
744.440830
 21
1424.018391
  0
LINE
  8
CSLAYER1
  6
DOT
 62
     5
 10
744.440830
 20
1424.018391
 11
739.440830
 21
1429.018391
  0
LINE
  8
CSLAYER1
  6
DOT
 62
     5
 10
755.440830
 20
1486.218391
 11
785.440830
 21
1486.218391
  0
LINE
  8
CSLAYER1
  6
DOT
 62
     5
 10
753.120322
 20
1471.218391
 11
753.120322
 21
1484.878645
  0
LINE
  8
CSLAYER1
  6
DOT
 62
     5
 10
761.780576
 20
1471.218391
 11
761.780576
 21
1484.878645
  0
LINE
  8
CSLAYER1
  6
DOT
 62
     5
 10
755.440830
 20
1486.218391
 11
753.120322
 21
1484.878645
  0
ARC
  8
CSLAYER1
  6
DOT
 62
     5
 10
757.450449
 20
1478.563773
 40
7.656867
 50
55.561448
 51
124.438552
  0
ARC
  8
CSLAYER1
  6
DOT
 62
     5
 10
770.440830
 20
1457.558137
 40
28.660254
 50
72.412046
 51
107.587954
  0
LINE
  8
CSLAYER1
  6
DOT
 62
     5
 10
788.940830
 20
1471.218391
 11
751.940830
 21
1471.218391
  0
LINE
  8
CSLAYER1
  6
DOT
 62
     5
 10
757.440830
 20
1488.718391
 11
783.440830
 21
1488.718391
  0
LINE
  8
CSLAYER1
  6
DOT
 62
     5
 10
755.440830
 20
1486.218391
 11
755.440830
 21
1486.718391
  0
ARC
  8
CSLAYER1
  6
DOT
 62
     5
 10
757.440830
 20
1486.718391
 40
2.000000
 50
90.000000
 51
180.000000
  0
LINE
  8
CSLAYER1
  6
DOT
 62
     5
 10
787.761338
 20
1471.218391
 11
787.761338
 21
1484.878645
  0
LINE
  8
CSLAYER1
  6
DOT
 62
     5
 10
779.101084
 20
1471.218391
 11
779.101084
 21
1484.878645
  0
LINE
  8
CSLAYER1
  6
DOT
 62
     5
 10
785.440830
 20
1486.218391
 11
787.761338
 21
1484.878645
  0
ARC
  8
CSLAYER1
  6
DOT
 62
     5
 10
783.431211
 20
1478.563773
 40
7.656867
 50
55.561448
 51
124.438552
  0
LINE
  8
CSLAYER1
  6
DOT
 62
     5
 10
785.440830
 20
1486.218391
 11
785.440830
 21
1486.718391
  0
ARC
  8
CSLAYER1
  6
DOT
 62
     5
 10
783.440830
 20
1486.718391
 40
2.000000
 50
0.000000
 51
90.000000
  0
LINE
  8
CSLAYER1
  6
DOT
 62
     5
 10
761.940830
 20
1383.435701
 11
761.940830
 21
1424.018391
  0
LINE
  8
CSLAYER1
  6
DOT
 62
     5
 10
760.440830
 20
1375.435701
 11
760.440830
 21
1424.018391
  0
LINE
  8
CSLAYER1
  6
DOT
 62
     5
 10
760.440830
 20
1488.718391
 11
760.440830
 21
1506.796257
  0
LINE
  8
CSLAYER1
  6
DOT
 62
     5
 10
761.940830
 20
1488.718391
 11
761.940830
 21
1508.296257
  0
LINE
  8
CSLAYER1
  6
DOT
 62
     5
 10
751.940830
 20
1468.018391
 11
751.940830
 21
1471.218391
  0
LINE
  8
CSLAYER1
  6
DOT
 62
     5
 10
778.940830
 20
1383.435701
 11
778.940830
 21
1424.018391
  0
LINE
  8
CSLAYER1
  6
DOT
 62
     5
 10
780.440830
 20
1488.718391
 11
780.440830
 21
1506.796257
  0
LINE
  8
CSLAYER1
  6
DOT
 62
     5
 10
778.940830
 20
1488.718391
 11
778.940830
 21
1508.296257
  0
LINE
  8
CSLAYER1
  6
DOT
 62
     5
 10
780.440830
 20
1375.435701
 11
780.440830
 21
1424.018391
  0
POINT
  8
CSLAYER1
 62
     5
 10
920.440830
 20
1358.435699
  0
LINE
  8
CSLAYER1
  6
DOT
 62
     5
 10
934.566206
 20
1358.435701
 11
906.327116
 21
1358.435701
  0
LINE
  8
CSLAYER1
  6
DOT
 62
     5
 10
928.940830
 20
1383.435701
 11
928.940830
 21
1424.018391
  0
LINE
  8
CSLAYER1
  6
DOT
 62
     5
 10
930.440830
 20
1375.435701
 11
930.440830
 21
1424.018391
  0
LINE
  8
CSLAYER1
  6
DOT
 62
     5
 10
930.440830
 20
1383.435701
 11
910.440830
 21
1383.435701
  0
LINE
  8
CSLAYER1
  6
DOT
 62
     5
 10
928.940830
 20
1383.435701
 11
930.440830
 21
1380.837625
  0
LINE
  8
CSLAYER1
  6
DOT
 62
     5
 10
911.940830
 20
1383.435701
 11
911.940830
 21
1424.018391
  0
LINE
  8
CSLAYER1
  6
DOT
 62
     5
 10
911.940830
 20
1383.435701
 11
910.440830
 21
1380.837625
  0
LINE
  8
CSLAYER1
  6
DOT
 62
     5
 10
910.440830
 20
1375.435701
 11
910.440830
 21
1424.018391
  0
LINE
  8
CSLAYER1
  6
DOT
 62
     5
 10
907.915830
 20
1373.435699
 11
932.965830
 21
1373.435699
  0
LINE
  8
CSLAYER1
  6
DOT
 62
     5
 10
755.467319
 20
1498.796257
 11
787.068677
 21
1498.796257
  0
POINT
  8
CSLAYER1
 62
     5
 10
920.440830
 20
1326.685699
  0
LINE
  8
CSLAYER1
  6
DOT
 62
     5
 10
933.965830
 20
1372.435699
 11
933.965830
 21
1279.885699
  0
LINE
  8
CSLAYER1
  6
DOT
 62
     5
 10
929.965830
 20
1341.735699
 11
929.965830
 21
1279.885699
  0
LINE
  8
CSLAYER1
  6
DOT
 62
     5
 10
929.965830
 20
1341.735699
 11
933.965830
 21
1341.735699
  0
LINE
  8
CSLAYER1
  6
DOT
 62
     5
 10
928.965830
 20
1317.160699
 11
911.915830
 21
1317.160699
  0
LINE
  8
CSLAYER1
  6
DOT
 62
     5
 10
928.965830
 20
1336.210699
 11
911.915830
 21
1336.210699
  0
ARC
  8
CSLAYER1
  6
DOT
 62
     5
 10
928.965830
 20
1318.160699
 40
1.000000
 50
270.000000
 51
360.000000
  0
ARC
  8
CSLAYER1
  6
DOT
 62
     5
 10
928.965830
 20
1335.210699
 40
1.000000
 50
0.000000
 51
90.000000
  0
LINE
  8
CSLAYER1
  6
DOT
 62
     5
 10
906.915830
 20
1372.435699
 11
906.915830
 21
1279.185699
  0
LINE
  8
CSLAYER1
  6
DOT
 62
     5
 10
910.915830
 20
1341.735699
 11
910.915830
 21
1279.885699
  0
LINE
  8
CSLAYER1
  6
DOT
 62
     5
 10
910.915830
 20
1341.735699
 11
906.915830
 21
1341.735699
  0
ARC
  8
CSLAYER1
  6
DOT
 62
     5
 10
911.915830
 20
1318.160699
 40
1.000000
 50
180.000000
 51
270.000000
  0
ARC
  8
CSLAYER1
  6
DOT
 62
     5
 10
911.915830
 20
1335.210699
 40
1.000000
 50
90.000000
 51
180.000000
  0
LINE
  8
CSLAYER1
  6
DOT
 62
     5
 10
940.190830
 20
1322.915699
 11
940.190830
 21
1330.465426
  0
LINE
  8
CSLAYER1
  6
DOT
 62
     5
 10
933.965830
 20
1313.685699
 11
938.340830
 21
1313.685699
  0
LINE
  8
CSLAYER1
  6
DOT
 62
     5
 10
933.965830
 20
1371.435699
 11
938.340830
 21
1371.435699
  0
LINE
  8
CSLAYER1
  6
DOT
 62
     5
 10
938.340830
 20
1321.915699
 11
939.190830
 21
1321.915699
  0
LINE
  8
CSLAYER1
  6
DOT
 62
     5
 10
938.340830
 20
1331.465426
 11
939.190830
 21
1331.465426
  0
ARC
  8
CSLAYER1
  6
DOT
 62
     5
 10
939.190830
 20
1322.915699
 40
1.000000
 50
270.000000
 51
360.000000
  0
ARC
  8
CSLAYER1
  6
DOT
 62
     5
 10
939.190830
 20
1330.465426
 40
1.000000
 50
0.000000
 51
90.000000
  0
LINE
  8
CSLAYER1
  6
DOT
 62
     5
 10
940.190830
 20
1354.665699
 11
940.190830
 21
1362.215426
  0
LINE
  8
CSLAYER1
  6
DOT
 62
     5
 10
938.340830
 20
1353.665699
 11
939.190830
 21
1353.665699
  0
LINE
  8
CSLAYER1
  6
DOT
 62
     5
 10
938.340830
 20
1363.215426
 11
939.190830
 21
1363.215426
  0
ARC
  8
CSLAYER1
  6
DOT
 62
     5
 10
939.190830
 20
1354.665699
 40
1.000000
 50
270.000000
 51
360.000000
  0
ARC
  8
CSLAYER1
  6
DOT
 62
     5
 10
939.190830
 20
1362.215426
 40
1.000000
 50
0.000000
 51
90.000000
  0
LINE
  8
CSLAYER1
  6
DOT
 62
     5
 10
900.690830
 20
1322.915699
 11
900.690830
 21
1330.465426
  0
LINE
  8
CSLAYER1
  6
DOT
 62
     5
 10
906.915830
 20
1313.685699
 11
902.540830
 21
1313.685699
  0
LINE
  8
CSLAYER1
  6
DOT
 62
     5
 10
906.915830
 20
1371.435699
 11
902.540830
 21
1371.435699
  0
LINE
  8
CSLAYER1
  6
DOT
 62
     5
 10
902.540830
 20
1321.915699
 11
901.690830
 21
1321.915699
  0
LINE
  8
CSLAYER1
  6
DOT
 62
     5
 10
902.540830
 20
1331.465426
 11
901.690830
 21
1331.465426
  0
ARC
  8
CSLAYER1
  6
DOT
 62
     5
 10
901.690830
 20
1322.915699
 40
1.000000
 50
180.000000
 51
270.000000
  0
ARC
  8
CSLAYER1
  6
DOT
 62
     5
 10
901.690830
 20
1330.465426
 40
1.000000
 50
90.000000
 51
180.000000
  0
LINE
  8
CSLAYER1
  6
DOT
 62
     5
 10
897.590830
 20
1354.665699
 11
897.590830
 21
1362.215426
  0
LINE
  8
CSLAYER1
  6
DOT
 62
     5
 10
902.540830
 20
1353.665699
 11
898.590830
 21
1353.665699
  0
LINE
  8
CSLAYER1
  6
DOT
 62
     5
 10
902.540830
 20
1363.215426
 11
898.590830
 21
1363.215426
  0
ARC
  8
CSLAYER1
  6
DOT
 62
     5
 10
898.590830
 20
1354.665699
 40
1.000000
 50
180.000000
 51
270.000000
  0
ARC
  8
CSLAYER1
  6
DOT
 62
     5
 10
898.590830
 20
1362.215426
 40
1.000000
 50
90.000000
 51
180.000000
  0
LINE
  8
CSLAYER1
  6
DOT
 62
     5
 10
906.915830
 20
1363.215426
 11
933.965830
 21
1363.215426
  0
LINE
  8
CSLAYER1
  6
DOT
 62
     5
 10
906.915830
 20
1353.665699
 11
933.965830
 21
1353.665699
  0
LINE
  8
CSLAYER1
  6
DOT
 62
     5
 10
908.915830
 20
1343.435699
 11
931.965830
 21
1343.435699
  0
ARC
  8
CSLAYER1
  6
DOT
 62
     5
 10
931.965830
 20
1345.435699
 40
2.000000
 50
270.000000
 51
360.000000
  0
ARC
  8
CSLAYER1
  6
DOT
 62
     5
 10
908.915830
 20
1345.435699
 40
2.000000
 50
180.000000
 51
270.000000
  0
ARC
  8
CSLAYER1
  6
DOT
 62
     5
 10
908.440830
 20
1375.435699
 40
2.000000
 50
270.000000
 51
360.000000
  0
ARC
  8
CSLAYER1
  6
DOT
 62
     5
 10
932.440830
 20
1375.435699
 40
2.000000
 50
180.000000
 51
270.000000
  0
ARC
  8
CSLAYER1
  6
DOT
 62
     5
 10
907.915830
 20
1372.435699
 40
1.000000
 50
90.000000
 51
180.000000
  0
ARC
  8
CSLAYER1
  6
DOT
 62
     5
 10
932.965830
 20
1372.435699
 40
1.000000
 50
0.000000
 51
90.000000
  0
POINT
  8
CSLAYER1
 62
     5
 10
920.440830
 20
1373.435699
  0
LINE
  8
CSLAYER1
  6
DOT
 62
     5
 10
938.340830
 20
1313.685699
 11
938.340830
 21
1371.435699
  0
LINE
  8
CSLAYER1
  6
DOT
 62
     5
 10
902.540830
 20
1313.685699
 11
902.540830
 21
1371.435699
  0
LINE
  8
CSLAYER1
  6
CENTER
 62
     5
 10
980.723815
 20
998.063480
 11
891.402771
 21
998.063480
  0
LINE
  8
CSLAYER1
  6
CENTER
 62
     5
 10
709.716618
 20
998.063480
 11
804.276125
 21
998.063480
  0
LINE
  8
CSLAYER1
  6
DOT
 62
     5
 10
951.440830
 20
1024.738307
 11
951.440830
 21
971.386046
  0
LINE
  8
CSLAYER1
  6
DOT
 62
     5
 10
739.440830
 20
1024.738307
 11
739.440830
 21
971.386046
  0
LINE
  8
CSLAYER1
  6
DOT
 62
     5
 10
720.440830
 20
1014.063480
 11
720.440830
 21
982.063480
  0
LINE
  8
CSLAYER1
  6
DOT
 62
     5
 10
710.440830
 20
1012.063480
 11
710.440830
 21
984.063480
  0
LINE
  8
CSLAYER1
  6
DOT
 62
     5
 10
712.440830
 20
1014.063480
 11
720.440830
 21
1014.063480
  0
LINE
  8
CSLAYER1
  6
DOT
 62
     5
 10
710.440830
 20
1012.063480
 11
712.440830
 21
1014.063480
  0
LINE
  8
CSLAYER1
  6
DOT
 62
     5
 10
712.440830
 20
1014.063480
 11
712.440830
 21
982.063480
  0
POINT
  8
CSLAYER1
 62
     5
 10
920.440830
 20
1098.739135
  0
LINE
  8
CSLAYER1
  6
DOT
 62
     5
 10
933.965830
 20
1085.739135
 11
933.965830
 21
1093.969135
  0
LINE
  8
CSLAYER1
  6
DOT
 62
     5
 10
938.340830
 20
1085.739135
 11
938.340830
 21
1093.969135
  0
LINE
  8
CSLAYER1
  6
DOT
 62
     5
 10
940.190830
 20
1094.969135
 11
940.190830
 21
1102.518861
  0
LINE
  8
CSLAYER1
  6
DOT
 62
     5
 10
933.965830
 20
1085.739135
 11
938.340830
 21
1085.739135
  0
LINE
  8
CSLAYER1
  6
DOT
 62
     5
 10
939.190830
 20
1093.969135
 11
901.690830
 21
1093.969135
  0
ARC
  8
CSLAYER1
  6
DOT
 62
     5
 10
939.190830
 20
1094.969135
 40
1.000000
 50
270.000000
 51
360.000000
  0
ARC
  8
CSLAYER1
  6
DOT
 62
     5
 10
939.190830
 20
1102.518861
 40
1.000000
 50
0.000000
 51
90.000000
  0
LINE
  8
CSLAYER1
  6
DOT
 62
     5
 10
906.915830
 20
1085.739135
 11
906.915830
 21
1093.969135
  0
LINE
  8
CSLAYER1
  6
DOT
 62
     5
 10
902.540830
 20
1085.739135
 11
902.540830
 21
1093.969135
  0
LINE
  8
CSLAYER1
  6
DOT
 62
     5
 10
900.690830
 20
1094.969135
 11
900.690830
 21
1102.518861
  0
LINE
  8
CSLAYER1
  6
DOT
 62
     5
 10
906.915830
 20
1085.739135
 11
902.540830
 21
1085.739135
  0
ARC
  8
CSLAYER1
  6
DOT
 62
     5
 10
901.690830
 20
1094.969135
 40
1.000000
 50
180.000000
 51
270.000000
  0
ARC
  8
CSLAYER1
  6
DOT
 62
     5
 10
901.690830
 20
1102.518861
 40
1.000000
 50
90.000000
 51
180.000000
  0
LINE
  8
CSLAYER1
  6
DOT
 62
     5
 10
907.915830
 20
1088.739135
 11
932.965830
 21
1088.739135
  0
LINE
  8
CSLAYER1
  6
DOT
 62
     5
 10
906.915830
 20
1089.739135
 11
907.915830
 21
1088.739135
  0
LINE
  8
CSLAYER1
  6
DOT
 62
     5
 10
932.965830
 20
1088.739135
 11
933.965830
 21
1089.739135
  0
LINE
  8
CSLAYER1
  6
DOT
 62
     5
 10
907.915830
 20
1108.739135
 11
932.965830
 21
1108.739135
  0
LINE
  8
CSLAYER1
  6
DOT
 62
     5
 10
906.915830
 20
1107.739135
 11
907.915830
 21
1108.739135
  0
LINE
  8
CSLAYER1
  6
DOT
 62
     5
 10
932.965830
 20
1108.739135
 11
933.965830
 21
1107.739135
  0
LINE
  8
CSLAYER1
  6
DOT
 62
     5
 10
947.924111
 20
1130.489135
 11
903.388200
 21
1130.489135
  0
LINE
  8
CSLAYER1
  6
DOT
 62
     5
 10
906.915830
 20
1143.489135
 11
902.540830
 21
1143.489135
  0
LINE
  8
CSLAYER1
  6
DOT
 62
     5
 10
900.690830
 20
1126.719135
 11
900.690830
 21
1134.268861
  0
LINE
  8
CSLAYER1
  6
DOT
 62
     5
 10
902.540830
 20
1125.719135
 11
901.690830
 21
1125.719135
  0
LINE
  8
CSLAYER1
  6
DOT
 62
     5
 10
902.540830
 20
1135.268861
 11
901.690830
 21
1135.268861
  0
ARC
  8
CSLAYER1
  6
DOT
 62
     5
 10
901.690830
 20
1126.719135
 40
1.000000
 50
180.000000
 51
270.000000
  0
ARC
  8
CSLAYER1
  6
DOT
 62
     5
 10
901.690830
 20
1134.268861
 40
1.000000
 50
90.000000
 51
180.000000
  0
LINE
  8
CSLAYER1
  6
DOT
 62
     5
 10
933.965830
 20
1143.489135
 11
938.340830
 21
1143.489135
  0
LINE
  8
CSLAYER1
  6
DOT
 62
     5
 10
939.190830
 20
1103.509135
 11
901.690830
 21
1103.509135
  0
LINE
  8
CSLAYER1
  6
DOT
 62
     5
 10
940.190830
 20
1126.719135
 11
940.190830
 21
1134.268861
  0
LINE
  8
CSLAYER1
  6
DOT
 62
     5
 10
938.340830
 20
1125.719135
 11
939.190830
 21
1125.719135
  0
LINE
  8
CSLAYER1
  6
DOT
 62
     5
 10
938.340830
 20
1135.268861
 11
939.190830
 21
1135.268861
  0
ARC
  8
CSLAYER1
  6
DOT
 62
     5
 10
939.190830
 20
1126.719135
 40
1.000000
 50
270.000000
 51
360.000000
  0
ARC
  8
CSLAYER1
  6
DOT
 62
     5
 10
939.190830
 20
1134.268861
 40
1.000000
 50
0.000000
 51
90.000000
  0
POINT
  8
CSLAYER1
 62
     5
 10
920.440830
 20
1130.489135
  0
LINE
  8
CSLAYER1
  6
DOT
 62
     5
 10
947.078493
 20
1098.739135
 11
902.542581
 21
1098.739135
  0
LINE
  8
CSLAYER1
  6
DOT
 62
     5
 10
938.340830
 20
1103.518861
 11
938.340830
 21
1143.489135
  0
LINE
  8
CSLAYER1
  6
DOT
 62
     5
 10
906.915830
 20
1103.509135
 11
906.915830
 21
1180.989135
  0
LINE
  8
CSLAYER1
  6
DOT
 62
     5
 10
902.540830
 20
1103.518861
 11
902.540830
 21
1143.489135
  0
LINE
  8
CSLAYER1
  6
DOT
 62
     5
 10
928.440830
 20
1120.964135
 11
928.440830
 21
1108.739135
  0
LINE
  8
CSLAYER1
  6
DOT
 62
     5
 10
912.440830
 20
1120.964135
 11
912.440830
 21
1108.739135
  0
POINT
  8
CSLAYER1
 62
     5
 10
920.440830
 20
1294.935699
  0
LINE
  8
CSLAYER1
  6
DOT
 62
     5
 10
929.965830
 20
1279.885699
 11
933.965830
 21
1279.885699
  0
LINE
  8
CSLAYER1
  6
DOT
 62
     5
 10
928.965830
 20
1304.460699
 11
911.915830
 21
1304.460699
  0
LINE
  8
CSLAYER1
  6
DOT
 62
     5
 10
928.965830
 20
1285.410699
 11
911.915830
 21
1285.410699
  0
ARC
  8
CSLAYER1
  6
DOT
 62
     5
 10
928.965830
 20
1303.460699
 40
1.000000
 50
0.000000
 51
90.000000
  0
ARC
  8
CSLAYER1
  6
DOT
 62
     5
 10
928.965830
 20
1286.410699
 40
1.000000
 50
270.000000
 51
360.000000
  0
LINE
  8
CSLAYER1
  6
DOT
 62
     5
 10
910.915830
 20
1279.885699
 11
906.915830
 21
1279.885699
  0
ARC
  8
CSLAYER1
  6
DOT
 62
     5
 10
911.915830
 20
1303.460699
 40
1.000000
 50
90.000000
 51
180.000000
  0
ARC
  8
CSLAYER1
  6
DOT
 62
     5
 10
911.915830
 20
1286.410699
 40
1.000000
 50
180.000000
 51
270.000000
  0
LINE
  8
CSLAYER1
  6
DOT
 62
     5
 10
940.190830
 20
1298.705699
 11
940.190830
 21
1291.155973
  0
LINE
  8
CSLAYER1
  6
DOT
 62
     5
 10
933.965830
 20
1307.935699
 11
938.340830
 21
1307.935699
  0
LINE
  8
CSLAYER1
  6
DOT
 62
     5
 10
938.340830
 20
1299.705699
 11
939.190830
 21
1299.705699
  0
LINE
  8
CSLAYER1
  6
DOT
 62
     5
 10
938.340830
 20
1290.155973
 11
939.190830
 21
1290.155973
  0
ARC
  8
CSLAYER1
  6
DOT
 62
     5
 10
939.190830
 20
1298.705699
 40
1.000000
 50
0.000000
 51
90.000000
  0
ARC
  8
CSLAYER1
  6
DOT
 62
     5
 10
939.190830
 20
1291.155973
 40
1.000000
 50
270.000000
 51
360.000000
  0
LINE
  8
CSLAYER1
  6
DOT
 62
     5
 10
900.690830
 20
1298.705699
 11
900.690830
 21
1291.155973
  0
LINE
  8
CSLAYER1
  6
DOT
 62
     5
 10
906.915830
 20
1307.935699
 11
902.540830
 21
1307.935699
  0
LINE
  8
CSLAYER1
  6
DOT
 62
     5
 10
902.540830
 20
1299.705699
 11
901.690830
 21
1299.705699
  0
LINE
  8
CSLAYER1
  6
DOT
 62
     5
 10
902.540830
 20
1290.155973
 11
901.690830
 21
1290.155973
  0
ARC
  8
CSLAYER1
  6
DOT
 62
     5
 10
901.690830
 20
1298.705699
 40
1.000000
 50
90.000000
 51
180.000000
  0
ARC
  8
CSLAYER1
  6
DOT
 62
     5
 10
901.690830
 20
1291.155973
 40
1.000000
 50
180.000000
 51
270.000000
  0
LINE
  8
CSLAYER1
  6
DOT
 62
     5
 10
902.540830
 20
1307.935699
 11
902.540830
 21
1250.185699
  0
LINE
  8
CSLAYER1
  6
DOT
 62
     5
 10
938.340830
 20
1307.935699
 11
938.340830
 21
1250.185699
  0
POINT
  8
CSLAYER1
 62
     5
 10
920.440830
 20
1162.239135
  0
LINE
  8
CSLAYER1
  6
DOT
 62
     5
 10
933.965830
 20
1103.509135
 11
933.965830
 21
1180.989135
  0
LINE
  8
CSLAYER1
  6
DOT
 62
     5
 10
929.965830
 20
1177.289135
 11
929.965830
 21
1115.439135
  0
LINE
  8
CSLAYER1
  6
DOT
 62
     5
 10
929.965830
 20
1177.289135
 11
933.965830
 21
1177.289135
  0
LINE
  8
CSLAYER1
  6
DOT
 62
     5
 10
928.965830
 20
1152.714135
 11
911.915830
 21
1152.714135
  0
LINE
  8
CSLAYER1
  6
DOT
 62
     5
 10
928.965830
 20
1171.764135
 11
911.915830
 21
1171.764135
  0
ARC
  8
CSLAYER1
  6
DOT
 62
     5
 10
928.965830
 20
1153.714135
 40
1.000000
 50
270.000000
 51
360.000000
  0
ARC
  8
CSLAYER1
  6
DOT
 62
     5
 10
928.965830
 20
1170.764135
 40
1.000000
 50
0.000000
 51
90.000000
  0
LINE
  8
CSLAYER1
  6
DOT
 62
     5
 10
910.915830
 20
1177.289135
 11
910.915830
 21
1115.439135
  0
LINE
  8
CSLAYER1
  6
DOT
 62
     5
 10
910.915830
 20
1177.289135
 11
906.915830
 21
1177.289135
  0
ARC
  8
CSLAYER1
  6
DOT
 62
     5
 10
911.915830
 20
1153.714135
 40
1.000000
 50
180.000000
 51
270.000000
  0
ARC
  8
CSLAYER1
  6
DOT
 62
     5
 10
911.915830
 20
1170.764135
 40
1.000000
 50
90.000000
 51
180.000000
  0
LINE
  8
CSLAYER1
  6
DOT
 62
     5
 10
940.190830
 20
1158.469135
 11
940.190830
 21
1166.018861
  0
LINE
  8
CSLAYER1
  6
DOT
 62
     5
 10
933.965830
 20
1149.239135
 11
938.340830
 21
1149.239135
  0
LINE
  8
CSLAYER1
  6
DOT
 62
     5
 10
938.340830
 20
1157.469135
 11
939.190830
 21
1157.469135
  0
LINE
  8
CSLAYER1
  6
DOT
 62
     5
 10
938.340830
 20
1167.018861
 11
939.190830
 21
1167.018861
  0
ARC
  8
CSLAYER1
  6
DOT
 62
     5
 10
939.190830
 20
1158.469135
 40
1.000000
 50
270.000000
 51
360.000000
  0
ARC
  8
CSLAYER1
  6
DOT
 62
     5
 10
939.190830
 20
1166.018861
 40
1.000000
 50
0.000000
 51
90.000000
  0
LINE
  8
CSLAYER1
  6
DOT
 62
     5
 10
900.690830
 20
1158.469135
 11
900.690830
 21
1166.018861
  0
LINE
  8
CSLAYER1
  6
DOT
 62
     5
 10
906.915830
 20
1149.239135
 11
902.540830
 21
1149.239135
  0
LINE
  8
CSLAYER1
  6
DOT
 62
     5
 10
902.540830
 20
1157.469135
 11
901.690830
 21
1157.469135
  0
LINE
  8
CSLAYER1
  6
DOT
 62
     5
 10
902.540830
 20
1167.018861
 11
901.690830
 21
1167.018861
  0
ARC
  8
CSLAYER1
  6
DOT
 62
     5
 10
901.690830
 20
1158.469135
 40
1.000000
 50
180.000000
 51
270.000000
  0
ARC
  8
CSLAYER1
  6
DOT
 62
     5
 10
901.690830
 20
1166.018861
 40
1.000000
 50
90.000000
 51
180.000000
  0
LINE
  8
CSLAYER1
  6
DOT
 62
     5
 10
938.340830
 20
1149.239135
 11
938.340830
 21
1206.989135
  0
LINE
  8
CSLAYER1
  6
DOT
 62
     5
 10
902.540830
 20
1149.239135
 11
902.540830
 21
1206.989135
  0
LINE
  8
CSLAYER1
  6
DOT
 62
     5
 10
929.965830
 20
1115.439135
 11
933.965830
 21
1115.439135
  0
LINE
  8
CSLAYER1
  6
DOT
 62
     5
 10
928.965830
 20
1140.014135
 11
911.915830
 21
1140.014135
  0
LINE
  8
CSLAYER1
  6
DOT
 62
     5
 10
928.965830
 20
1120.964135
 11
911.915830
 21
1120.964135
  0
ARC
  8
CSLAYER1
  6
DOT
 62
     5
 10
928.965830
 20
1139.014135
 40
1.000000
 50
0.000000
 51
90.000000
  0
ARC
  8
CSLAYER1
  6
DOT
 62
     5
 10
928.965830
 20
1121.964135
 40
1.000000
 50
270.000000
 51
360.000000
  0
LINE
  8
CSLAYER1
  6
DOT
 62
     5
 10
910.915830
 20
1115.439135
 11
906.915830
 21
1115.439135
  0
ARC
  8
CSLAYER1
  6
DOT
 62
     5
 10
911.915830
 20
1139.014135
 40
1.000000
 50
90.000000
 51
180.000000
  0
ARC
  8
CSLAYER1
  6
DOT
 62
     5
 10
911.915830
 20
1121.964135
 40
1.000000
 50
180.000000
 51
270.000000
  0
LINE
  8
CSLAYER1
  6
DOT
 62
     5
 10
912.440830
 20
1050.990576
 11
912.440830
 21
1088.739135
  0
LINE
  8
CSLAYER1
  6
DOT
 62
     5
 10
928.440830
 20
1115.739135
 11
912.440830
 21
1115.739135
  0
LINE
  8
CSLAYER1
  6
DOT
 62
     5
 10
928.440830
 20
1088.739135
 11
928.440830
 21
1041.381250
  0
POINT
  8
CSLAYER1
 62
     5
 10
770.440830
 20
1358.435699
  0
LINE
  8
CSLAYER1
  6
DOT
 62
     5
 10
756.315454
 20
1358.435701
 11
784.554544
 21
1358.435701
  0
LINE
  8
CSLAYER1
  6
DOT
 62
     5
 10
760.440830
 20
1383.435701
 11
780.440830
 21
1383.435701
  0
LINE
  8
CSLAYER1
  6
DOT
 62
     5
 10
761.940830
 20
1383.435701
 11
760.440830
 21
1380.837625
  0
LINE
  8
CSLAYER1
  6
DOT
 62
     5
 10
778.940830
 20
1383.435701
 11
780.440830
 21
1380.837625
  0
LINE
  8
CSLAYER1
  6
DOT
 62
     5
 10
782.965830
 20
1373.435699
 11
757.915830
 21
1373.435699
  0
POINT
  8
CSLAYER1
 62
     5
 10
770.440830
 20
1326.685699
  0
LINE
  8
CSLAYER1
  6
DOT
 62
     5
 10
756.915830
 20
1372.435699
 11
756.915830
 21
1279.885699
  0
LINE
  8
CSLAYER1
  6
DOT
 62
     5
 10
760.915830
 20
1341.735699
 11
760.915830
 21
1279.885699
  0
LINE
  8
CSLAYER1
  6
DOT
 62
     5
 10
760.915830
 20
1341.735699
 11
756.915830
 21
1341.735699
  0
LINE
  8
CSLAYER1
  6
DOT
 62
     5
 10
761.915830
 20
1317.160699
 11
778.965830
 21
1317.160699
  0
LINE
  8
CSLAYER1
  6
DOT
 62
     5
 10
761.915830
 20
1336.210699
 11
778.965830
 21
1336.210699
  0
ARC
  8
CSLAYER1
  6
DOT
 62
     5
 10
761.915830
 20
1318.160699
 40
1.000000
 50
180.000000
 51
270.000000
  0
ARC
  8
CSLAYER1
  6
DOT
 62
     5
 10
761.915830
 20
1335.210699
 40
1.000000
 50
90.000000
 51
180.000000
  0
LINE
  8
CSLAYER1
  6
DOT
 62
     5
 10
783.965830
 20
1372.435699
 11
783.965830
 21
1279.185699
  0
LINE
  8
CSLAYER1
  6
DOT
 62
     5
 10
779.965830
 20
1341.735699
 11
779.965830
 21
1279.885699
  0
LINE
  8
CSLAYER1
  6
DOT
 62
     5
 10
779.965830
 20
1341.735699
 11
783.965830
 21
1341.735699
  0
ARC
  8
CSLAYER1
  6
DOT
 62
     5
 10
778.965830
 20
1318.160699
 40
1.000000
 50
270.000000
 51
360.000000
  0
ARC
  8
CSLAYER1
  6
DOT
 62
     5
 10
778.965830
 20
1335.210699
 40
1.000000
 50
0.000000
 51
90.000000
  0
LINE
  8
CSLAYER1
  6
DOT
 62
     5
 10
750.690830
 20
1322.915699
 11
750.690830
 21
1330.465426
  0
LINE
  8
CSLAYER1
  6
DOT
 62
     5
 10
756.915830
 20
1313.685699
 11
752.540830
 21
1313.685699
  0
LINE
  8
CSLAYER1
  6
DOT
 62
     5
 10
756.915830
 20
1371.435699
 11
752.540830
 21
1371.435699
  0
LINE
  8
CSLAYER1
  6
DOT
 62
     5
 10
752.540830
 20
1321.915699
 11
751.690830
 21
1321.915699
  0
LINE
  8
CSLAYER1
  6
DOT
 62
     5
 10
752.540830
 20
1331.465426
 11
751.690830
 21
1331.465426
  0
ARC
  8
CSLAYER1
  6
DOT
 62
     5
 10
751.690830
 20
1322.915699
 40
1.000000
 50
180.000000
 51
270.000000
  0
ARC
  8
CSLAYER1
  6
DOT
 62
     5
 10
751.690830
 20
1330.465426
 40
1.000000
 50
90.000000
 51
180.000000
  0
LINE
  8
CSLAYER1
  6
DOT
 62
     5
 10
750.690830
 20
1354.665699
 11
750.690830
 21
1362.215426
  0
LINE
  8
CSLAYER1
  6
DOT
 62
     5
 10
752.540830
 20
1353.665699
 11
751.690830
 21
1353.665699
  0
LINE
  8
CSLAYER1
  6
DOT
 62
     5
 10
752.540830
 20
1363.215426
 11
751.690830
 21
1363.215426
  0
ARC
  8
CSLAYER1
  6
DOT
 62
     5
 10
751.690830
 20
1354.665699
 40
1.000000
 50
180.000000
 51
270.000000
  0
ARC
  8
CSLAYER1
  6
DOT
 62
     5
 10
751.690830
 20
1362.215426
 40
1.000000
 50
90.000000
 51
180.000000
  0
LINE
  8
CSLAYER1
  6
DOT
 62
     5
 10
790.190830
 20
1322.915699
 11
790.190830
 21
1330.465426
  0
LINE
  8
CSLAYER1
  6
DOT
 62
     5
 10
783.965830
 20
1313.685699
 11
788.340830
 21
1313.685699
  0
LINE
  8
CSLAYER1
  6
DOT
 62
     5
 10
783.965830
 20
1371.435699
 11
788.340830
 21
1371.435699
  0
LINE
  8
CSLAYER1
  6
DOT
 62
     5
 10
788.340830
 20
1321.915699
 11
789.190830
 21
1321.915699
  0
LINE
  8
CSLAYER1
  6
DOT
 62
     5
 10
788.340830
 20
1331.465426
 11
789.190830
 21
1331.465426
  0
ARC
  8
CSLAYER1
  6
DOT
 62
     5
 10
789.190830
 20
1322.915699
 40
1.000000
 50
270.000000
 51
360.000000
  0
ARC
  8
CSLAYER1
  6
DOT
 62
     5
 10
789.190830
 20
1330.465426
 40
1.000000
 50
0.000000
 51
90.000000
  0
LINE
  8
CSLAYER1
  6
DOT
 62
     5
 10
793.290830
 20
1354.665699
 11
793.290830
 21
1362.215426
  0
LINE
  8
CSLAYER1
  6
DOT
 62
     5
 10
788.340830
 20
1353.665699
 11
792.290830
 21
1353.665699
  0
LINE
  8
CSLAYER1
  6
DOT
 62
     5
 10
788.340830
 20
1363.215426
 11
792.290830
 21
1363.215426
  0
ARC
  8
CSLAYER1
  6
DOT
 62
     5
 10
792.290830
 20
1354.665699
 40
1.000000
 50
270.000000
 51
360.000000
  0
ARC
  8
CSLAYER1
  6
DOT
 62
     5
 10
792.290830
 20
1362.215426
 40
1.000000
 50
0.000000
 51
90.000000
  0
LINE
  8
CSLAYER1
  6
DOT
 62
     5
 10
783.965830
 20
1363.215426
 11
756.915830
 21
1363.215426
  0
LINE
  8
CSLAYER1
  6
DOT
 62
     5
 10
783.965830
 20
1353.665699
 11
756.915830
 21
1353.665699
  0
LINE
  8
CSLAYER1
  6
DOT
 62
     5
 10
781.965830
 20
1343.435699
 11
758.915830
 21
1343.435699
  0
ARC
  8
CSLAYER1
  6
DOT
 62
     5
 10
758.915830
 20
1345.435699
 40
2.000000
 50
180.000000
 51
270.000000
  0
ARC
  8
CSLAYER1
  6
DOT
 62
     5
 10
781.965830
 20
1345.435699
 40
2.000000
 50
270.000000
 51
360.000000
  0
ARC
  8
CSLAYER1
  6
DOT
 62
     5
 10
782.440830
 20
1375.435699
 40
2.000000
 50
180.000000
 51
270.000000
  0
ARC
  8
CSLAYER1
  6
DOT
 62
     5
 10
758.440830
 20
1375.435699
 40
2.000000
 50
270.000000
 51
360.000000
  0
ARC
  8
CSLAYER1
  6
DOT
 62
     5
 10
782.965830
 20
1372.435699
 40
1.000000
 50
0.000000
 51
90.000000
  0
ARC
  8
CSLAYER1
  6
DOT
 62
     5
 10
757.915830
 20
1372.435699
 40
1.000000
 50
90.000000
 51
180.000000
  0
POINT
  8
CSLAYER1
 62
     5
 10
770.440830
 20
1373.435699
  0
LINE
  8
CSLAYER1
  6
DOT
 62
     5
 10
752.540830
 20
1313.685699
 11
752.540830
 21
1371.435699
  0
LINE
  8
CSLAYER1
  6
DOT
 62
     5
 10
788.340830
 20
1313.685699
 11
788.340830
 21
1371.435699
  0
LINE
  8
CSLAYER1
  6
DOT
 62
     5
 10
784.440830
 20
1051.591158
 11
784.440830
 21
1068.969907
  0
LINE
  8
CSLAYER1
  6
DOT
 62
     5
 10
783.440830
 20
1051.591158
 11
783.440830
 21
1069.969907
  0
LINE
  8
CSLAYER1
  6
DOT
 62
     5
 10
778.440830
 20
1069.969907
 11
781.467371
 21
1069.969907
  0
LINE
  8
CSLAYER1
  6
DOT
 62
     5
 10
784.440830
 20
1068.969907
 11
783.440830
 21
1069.969907
  0
LINE
  8
CSLAYER1
  6
DOT
 62
     5
 10
761.440830
 20
1074.969907
 11
760.440830
 21
1075.969907
  0
LINE
  8
CSLAYER1
  6
DOT
 62
     5
 10
783.440830
 20
1069.969907
 11
778.374572
 21
1074.954588
  0
LINE
  8
CSLAYER1
  6
DOT
 62
     5
 10
778.440830
 20
1074.889397
 11
783.360320
 21
1069.969907
  0
LINE
  8
CSLAYER1
  6
DOT
 62
     5
 10
778.440830
 20
1074.606554
 11
783.077477
 21
1069.969907
  0
LINE
  8
CSLAYER1
  6
DOT
 62
     5
 10
778.440830
 20
1074.323712
 11
782.794634
 21
1069.969907
  0
LINE
  8
CSLAYER1
  6
DOT
 62
     5
 10
778.440830
 20
1074.040869
 11
782.511792
 21
1069.969907
  0
LINE
  8
CSLAYER1
  6
DOT
 62
     5
 10
778.440830
 20
1073.758026
 11
782.228949
 21
1069.969907
  0
LINE
  8
CSLAYER1
  6
DOT
 62
     5
 10
778.440830
 20
1073.475183
 11
781.946106
 21
1069.969907
  0
LINE
  8
CSLAYER1
  6
DOT
 62
     5
 10
778.440830
 20
1073.192341
 11
781.663263
 21
1069.969907
  0
LINE
  8
CSLAYER1
  6
DOT
 62
     5
 10
778.440830
 20
1072.909498
 11
781.380421
 21
1069.969907
  0
LINE
  8
CSLAYER1
  6
DOT
 62
     5
 10
778.440830
 20
1072.626655
 11
781.097578
 21
1069.969907
  0
LINE
  8
CSLAYER1
  6
DOT
 62
     5
 10
778.440830
 20
1072.343813
 11
780.814735
 21
1069.969907
  0
LINE
  8
CSLAYER1
  6
DOT
 62
     5
 10
778.440830
 20
1072.060970
 11
780.531893
 21
1069.969907
  0
LINE
  8
CSLAYER1
  6
DOT
 62
     5
 10
778.440830
 20
1071.778127
 11
780.249050
 21
1069.969907
  0
LINE
  8
CSLAYER1
  6
DOT
 62
     5
 10
778.440830
 20
1071.495284
 11
779.966207
 21
1069.969907
  0
LINE
  8
CSLAYER1
  6
DOT
 62
     5
 10
778.440830
 20
1071.212442
 11
779.683365
 21
1069.969907
  0
LINE
  8
CSLAYER1
  6
DOT
 62
     5
 10
778.440830
 20
1070.929599
 11
779.400522
 21
1069.969907
  0
LINE
  8
CSLAYER1
  6
DOT
 62
     5
 10
778.440830
 20
1070.646756
 11
779.117679
 21
1069.969907
  0
LINE
  8
CSLAYER1
  6
DOT
 62
     5
 10
778.440830
 20
1070.363914
 11
778.834836
 21
1069.969907
  0
LINE
  8
CSLAYER1
  6
DOT
 62
     5
 10
778.440830
 20
1070.081071
 11
778.551994
 21
1069.969907
  0
LINE
  8
CSLAYER1
  6
DOT
 62
     5
 10
681.467371
 20
1034.619907
 11
722.440830
 21
1034.619907
  0
LINE
  8
CSLAYER1
  6
DOT
 62
     5
 10
761.440830
 20
1074.969907
 11
761.440830
 21
1040.780667
  0
LINE
  8
CSLAYER1
  6
DOT
 62
     5
 10
680.467371
 20
1076.319907
 11
680.467371
 21
1035.619907
  0
LINE
  8
CSLAYER1
  6
DOT
 62
     5
 10
680.467371
 20
1035.619907
 11
681.467371
 21
1034.619907
  0
LINE
  8
CSLAYER1
  6
DOT
 62
     5
 10
640.467371
 20
1065.969907
 11
640.467371
 21
1045.969907
  0
LINE
  8
CSLAYER1
  6
DOT
 62
     5
 10
659.467371
 20
1074.469907
 11
659.467371
 21
1037.469907
  0
LINE
  8
CSLAYER1
  6
DOT
 62
     5
 10
654.367371
 20
1072.969907
 11
654.367371
 21
1038.969907
  0
LINE
  8
CSLAYER1
  6
DOT
 62
     5
 10
642.367371
 20
1072.969907
 11
642.367371
 21
1038.969907
  0
LINE
  8
CSLAYER1
  6
DOT
 62
     5
 10
659.467371
 20
1072.969907
 11
642.367371
 21
1072.969907
  0
LINE
  8
CSLAYER1
  6
DOT
 62
     5
 10
654.367371
 20
1065.969907
 11
640.467371
 21
1065.969907
  0
LINE
  8
CSLAYER1
  6
DOT
 62
     5
 10
659.467371
 20
1038.969907
 11
642.367371
 21
1038.969907
  0
LINE
  8
CSLAYER1
  6
DOT
 62
     5
 10
654.367371
 20
1045.969907
 11
640.467371
 21
1045.969907
  0
LINE
  8
CSLAYER1
  6
DOT
 62
     5
 10
662.467371
 20
1074.469907
 11
659.467371
 21
1074.469907
  0
LINE
  8
CSLAYER1
  6
DOT
 62
     5
 10
662.467371
 20
1037.469907
 11
659.467371
 21
1037.469907
  0
LINE
  8
CSLAYER1
  6
DOT
 62
     5
 10
662.467371
 20
1037.469907
 11
662.467371
 21
1074.469907
  0
LINE
  8
CSLAYER1
  6
CENTER
 62
     5
 10
635.576119
 20
1055.969907
 11
786.261110
 21
1055.969907
  0
LINE
  8
CSLAYER1
  6
DOT
 62
     5
 10
662.467371
 20
1043.469907
 11
663.440830
 21
1043.469907
  0
LINE
  8
CSLAYER1
  6
DOT
 62
     5
 10
681.467371
 20
1077.319907
 11
722.440830
 21
1077.319907
  0
LINE
  8
CSLAYER1
  6
DOT
 62
     5
 10
680.467371
 20
1076.319907
 11
681.467371
 21
1077.319907
  0
LINE
  8
CSLAYER1
  6
DOT
 62
     5
 10
662.467371
 20
1068.469907
 11
663.440830
 21
1068.469907
  0
LINE
  8
CSLAYER1
  6
DOT
 62
     5
 10
663.467371
 20
1029.862983
 11
663.467371
 21
1043.469907
  0
LINE
  8
CSLAYER1
  6
DOT
 62
     5
 10
717.440830
 20
1034.619907
 11
722.440830
 21
1029.619907
  0
LINE
  8
CSLAYER1
  6
DOT
 62
     5
 10
722.440830
 20
1029.902750
 11
717.723673
 21
1034.619907
  0
LINE
  8
CSLAYER1
  6
DOT
 62
     5
 10
722.440830
 20
1030.185593
 11
718.006515
 21
1034.619907
  0
LINE
  8
CSLAYER1
  6
DOT
 62
     5
 10
722.440830
 20
1030.468435
 11
718.289358
 21
1034.619907
  0
LINE
  8
CSLAYER1
  6
DOT
 62
     5
 10
722.440830
 20
1030.751278
 11
718.572201
 21
1034.619907
  0
LINE
  8
CSLAYER1
  6
DOT
 62
     5
 10
722.440830
 20
1031.034121
 11
718.855044
 21
1034.619907
  0
LINE
  8
CSLAYER1
  6
DOT
 62
     5
 10
722.440830
 20
1031.316964
 11
719.137886
 21
1034.619907
  0
LINE
  8
CSLAYER1
  6
DOT
 62
     5
 10
722.440830
 20
1031.599806
 11
719.420729
 21
1034.619907
  0
LINE
  8
CSLAYER1
  6
DOT
 62
     5
 10
722.440830
 20
1031.882649
 11
719.703572
 21
1034.619907
  0
LINE
  8
CSLAYER1
  6
DOT
 62
     5
 10
722.440830
 20
1032.165492
 11
719.986414
 21
1034.619907
  0
LINE
  8
CSLAYER1
  6
DOT
 62
     5
 10
722.440830
 20
1032.448334
 11
720.269257
 21
1034.619907
  0
LINE
  8
CSLAYER1
  6
DOT
 62
     5
 10
722.440830
 20
1032.731177
 11
720.552100
 21
1034.619907
  0
LINE
  8
CSLAYER1
  6
DOT
 62
     5
 10
722.440830
 20
1033.014020
 11
720.834943
 21
1034.619907
  0
LINE
  8
CSLAYER1
  6
DOT
 62
     5
 10
722.440830
 20
1033.296863
 11
721.117785
 21
1034.619907
  0
LINE
  8
CSLAYER1
  6
DOT
 62
     5
 10
722.440830
 20
1033.579705
 11
721.400628
 21
1034.619907
  0
LINE
  8
CSLAYER1
  6
DOT
 62
     5
 10
722.440830
 20
1033.862548
 11
721.683471
 21
1034.619907
  0
LINE
  8
CSLAYER1
  6
DOT
 62
     5
 10
722.440830
 20
1034.145391
 11
721.966313
 21
1034.619907
  0
LINE
  8
CSLAYER1
  6
DOT
 62
     5
 10
722.440830
 20
1034.428233
 11
722.249156
 21
1034.619907
  0
LINE
  8
CSLAYER1
  6
DOT
 62
     5
 10
738.440830
 20
1080.687065
 11
743.157987
 21
1075.969907
  0
LINE
  8
CSLAYER1
  6
DOT
 62
     5
 10
738.440830
 20
1080.404222
 11
742.875145
 21
1075.969907
  0
LINE
  8
CSLAYER1
  6
DOT
 62
     5
 10
738.440830
 20
1080.121379
 11
742.592302
 21
1075.969907
  0
LINE
  8
CSLAYER1
  6
DOT
 62
     5
 10
738.440830
 20
1079.838536
 11
742.309459
 21
1075.969907
  0
LINE
  8
CSLAYER1
  6
DOT
 62
     5
 10
738.440830
 20
1079.555694
 11
742.026616
 21
1075.969907
  0
LINE
  8
CSLAYER1
  6
DOT
 62
     5
 10
738.440830
 20
1079.272851
 11
741.743774
 21
1075.969907
  0
LINE
  8
CSLAYER1
  6
DOT
 62
     5
 10
738.440830
 20
1078.990008
 11
741.460931
 21
1075.969907
  0
LINE
  8
CSLAYER1
  6
DOT
 62
     5
 10
738.440830
 20
1078.707166
 11
741.178088
 21
1075.969907
  0
LINE
  8
CSLAYER1
  6
DOT
 62
     5
 10
738.440830
 20
1078.424323
 11
740.895246
 21
1075.969907
  0
LINE
  8
CSLAYER1
  6
DOT
 62
     5
 10
738.440830
 20
1078.141480
 11
740.612403
 21
1075.969907
  0
LINE
  8
CSLAYER1
  6
DOT
 62
     5
 10
738.440830
 20
1077.858637
 11
740.329560
 21
1075.969907
  0
LINE
  8
CSLAYER1
  6
DOT
 62
     5
 10
738.440830
 20
1077.575795
 11
740.046717
 21
1075.969907
  0
LINE
  8
CSLAYER1
  6
DOT
 62
     5
 10
738.440830
 20
1077.292952
 11
739.763875
 21
1075.969907
  0
LINE
  8
CSLAYER1
  6
DOT
 62
     5
 10
738.440830
 20
1077.010109
 11
739.481032
 21
1075.969907
  0
LINE
  8
CSLAYER1
  6
DOT
 62
     5
 10
738.440830
 20
1076.727267
 11
739.198189
 21
1075.969907
  0
LINE
  8
CSLAYER1
  6
DOT
 62
     5
 10
738.440830
 20
1076.444424
 11
738.915347
 21
1075.969907
  0
LINE
  8
CSLAYER1
  6
DOT
 62
     5
 10
738.440830
 20
1076.161581
 11
738.632504
 21
1075.969907
  0
LINE
  8
CSLAYER1
  6
DOT
 62
     5
 10
717.440830
 20
1077.319907
 11
722.440830
 21
1082.319907
  0
LINE
  8
CSLAYER1
  6
DOT
 62
     5
 10
722.440830
 20
1082.037065
 11
717.723673
 21
1077.319907
  0
LINE
  8
CSLAYER1
  6
DOT
 62
     5
 10
722.440830
 20
1081.754222
 11
718.006515
 21
1077.319907
  0
LINE
  8
CSLAYER1
  6
DOT
 62
     5
 10
722.440830
 20
1081.471379
 11
718.289358
 21
1077.319907
  0
LINE
  8
CSLAYER1
  6
DOT
 62
     5
 10
722.440830
 20
1081.188536
 11
718.572201
 21
1077.319907
  0
LINE
  8
CSLAYER1
  6
DOT
 62
     5
 10
722.440830
 20
1080.905694
 11
718.855044
 21
1077.319907
  0
LINE
  8
CSLAYER1
  6
DOT
 62
     5
 10
722.440830
 20
1080.622851
 11
719.137886
 21
1077.319907
  0
LINE
  8
CSLAYER1
  6
DOT
 62
     5
 10
722.440830
 20
1080.340008
 11
719.420729
 21
1077.319907
  0
LINE
  8
CSLAYER1
  6
DOT
 62
     5
 10
722.440830
 20
1080.057166
 11
719.703572
 21
1077.319907
  0
LINE
  8
CSLAYER1
  6
DOT
 62
     5
 10
722.440830
 20
1079.774323
 11
719.986414
 21
1077.319907
  0
LINE
  8
CSLAYER1
  6
DOT
 62
     5
 10
722.440830
 20
1079.491480
 11
720.269257
 21
1077.319907
  0
LINE
  8
CSLAYER1
  6
DOT
 62
     5
 10
722.440830
 20
1079.208637
 11
720.552100
 21
1077.319907
  0
LINE
  8
CSLAYER1
  6
DOT
 62
     5
 10
722.440830
 20
1078.925795
 11
720.834943
 21
1077.319907
  0
LINE
  8
CSLAYER1
  6
DOT
 62
     5
 10
722.440830
 20
1078.642952
 11
721.117785
 21
1077.319907
  0
LINE
  8
CSLAYER1
  6
DOT
 62
     5
 10
722.440830
 20
1078.360109
 11
721.400628
 21
1077.319907
  0
LINE
  8
CSLAYER1
  6
DOT
 62
     5
 10
722.440830
 20
1078.077267
 11
721.683471
 21
1077.319907
  0
LINE
  8
CSLAYER1
  6
DOT
 62
     5
 10
722.440830
 20
1077.794424
 11
721.966313
 21
1077.319907
  0
LINE
  8
CSLAYER1
  6
DOT
 62
     5
 10
722.440830
 20
1077.511581
 11
722.249156
 21
1077.319907
  0
LINE
  8
CSLAYER1
  6
DOT
 62
     5
 10
739.481032
 20
1075.969907
 11
738.440830
 21
1075.969907
  0
POINT
  8
CSLAYER1
 62
     5
 10
770.440830
 20
1098.739135
  0
LINE
  8
CSLAYER1
  6
DOT
 62
     5
 10
752.540830
 20
1085.739135
 11
752.540830
 21
1143.489135
  0
LINE
  8
CSLAYER1
  6
DOT
 62
     5
 10
750.690830
 20
1094.969135
 11
750.690830
 21
1102.518861
  0
LINE
  8
CSLAYER1
  6
DOT
 62
     5
 10
756.915830
 20
1085.739135
 11
752.540830
 21
1085.739135
  0
LINE
  8
CSLAYER1
  6
DOT
 62
     5
 10
752.540830
 20
1103.518861
 11
751.690830
 21
1103.518861
  0
ARC
  8
CSLAYER1
  6
DOT
 62
     5
 10
751.690830
 20
1094.969135
 40
1.000000
 50
180.000000
 51
270.000000
  0
ARC
  8
CSLAYER1
  6
DOT
 62
     5
 10
751.690830
 20
1102.518861
 40
1.000000
 50
90.000000
 51
180.000000
  0
LINE
  8
CSLAYER1
  6
DOT
 62
     5
 10
783.965830
 20
1085.739135
 11
783.965830
 21
1180.989135
  0
LINE
  8
CSLAYER1
  6
DOT
 62
     5
 10
788.340830
 20
1085.739135
 11
788.340830
 21
1143.489135
  0
LINE
  8
CSLAYER1
  6
DOT
 62
     5
 10
790.190830
 20
1094.969135
 11
790.190830
 21
1102.518861
  0
LINE
  8
CSLAYER1
  6
DOT
 62
     5
 10
783.965830
 20
1085.739135
 11
788.340830
 21
1085.739135
  0
LINE
  8
CSLAYER1
  6
DOT
 62
     5
 10
788.340830
 20
1093.969135
 11
789.190830
 21
1093.969135
  0
LINE
  8
CSLAYER1
  6
DOT
 62
     5
 10
788.340830
 20
1103.518861
 11
789.190830
 21
1103.518861
  0
ARC
  8
CSLAYER1
  6
DOT
 62
     5
 10
789.190830
 20
1094.969135
 40
1.000000
 50
270.000000
 51
360.000000
  0
ARC
  8
CSLAYER1
  6
DOT
 62
     5
 10
789.190830
 20
1102.518861
 40
1.000000
 50
0.000000
 51
90.000000
  0
LINE
  8
CSLAYER1
  6
DOT
 62
     5
 10
782.965830
 20
1088.739135
 11
778.440830
 21
1088.739135
  0
LINE
  8
CSLAYER1
  6
DOT
 62
     5
 10
783.965830
 20
1089.739135
 11
782.965830
 21
1088.739135
  0
LINE
  8
CSLAYER1
  6
DOT
 62
     5
 10
757.915830
 20
1088.739135
 11
756.915830
 21
1089.739135
  0
LINE
  8
CSLAYER1
  6
DOT
 62
     5
 10
782.965830
 20
1108.739135
 11
778.440830
 21
1108.739135
  0
LINE
  8
CSLAYER1
  6
DOT
 62
     5
 10
783.965830
 20
1107.739135
 11
782.965830
 21
1108.739135
  0
LINE
  8
CSLAYER1
  6
DOT
 62
     5
 10
757.915830
 20
1108.739135
 11
756.915830
 21
1107.739135
  0
LINE
  8
CSLAYER1
  6
DOT
 62
     5
 10
742.957549
 20
1130.489135
 11
787.493460
 21
1130.489135
  0
LINE
  8
CSLAYER1
  6
DOT
 62
     5
 10
783.965830
 20
1143.489135
 11
788.340830
 21
1143.489135
  0
LINE
  8
CSLAYER1
  6
DOT
 62
     5
 10
790.190830
 20
1126.719135
 11
790.190830
 21
1134.268861
  0
LINE
  8
CSLAYER1
  6
DOT
 62
     5
 10
788.340830
 20
1125.719135
 11
789.190830
 21
1125.719135
  0
LINE
  8
CSLAYER1
  6
DOT
 62
     5
 10
788.340830
 20
1135.268861
 11
789.190830
 21
1135.268861
  0
ARC
  8
CSLAYER1
  6
DOT
 62
     5
 10
789.190830
 20
1126.719135
 40
1.000000
 50
270.000000
 51
360.000000
  0
ARC
  8
CSLAYER1
  6
DOT
 62
     5
 10
789.190830
 20
1134.268861
 40
1.000000
 50
0.000000
 51
90.000000
  0
LINE
  8
CSLAYER1
  6
DOT
 62
     5
 10
756.915830
 20
1143.489135
 11
752.540830
 21
1143.489135
  0
LINE
  8
CSLAYER1
  6
DOT
 62
     5
 10
752.540830
 20
1093.969135
 11
751.690830
 21
1093.969135
  0
LINE
  8
CSLAYER1
  6
DOT
 62
     5
 10
750.690830
 20
1126.719135
 11
750.690830
 21
1134.268861
  0
LINE
  8
CSLAYER1
  6
DOT
 62
     5
 10
752.540830
 20
1125.719135
 11
751.690830
 21
1125.719135
  0
LINE
  8
CSLAYER1
  6
DOT
 62
     5
 10
752.540830
 20
1135.268861
 11
751.690830
 21
1135.268861
  0
ARC
  8
CSLAYER1
  6
DOT
 62
     5
 10
751.690830
 20
1126.719135
 40
1.000000
 50
180.000000
 51
270.000000
  0
ARC
  8
CSLAYER1
  6
DOT
 62
     5
 10
751.690830
 20
1134.268861
 40
1.000000
 50
90.000000
 51
180.000000
  0
POINT
  8
CSLAYER1
 62
     5
 10
770.440830
 20
1130.489135
  0
LINE
  8
CSLAYER1
  6
DOT
 62
     5
 10
743.803167
 20
1098.739135
 11
788.339079
 21
1098.739135
  0
LINE
  8
CSLAYER1
  6
DOT
 62
     5
 10
762.440830
 20
1120.964135
 11
762.440830
 21
1041.381250
  0
LINE
  8
CSLAYER1
  6
DOT
 62
     5
 10
778.440830
 20
1120.964135
 11
778.440830
 21
1050.990576
  0
POINT
  8
CSLAYER1
 62
     5
 10
770.440830
 20
1294.935699
  0
LINE
  8
CSLAYER1
  6
DOT
 62
     5
 10
760.915830
 20
1279.885699
 11
756.915830
 21
1279.885699
  0
LINE
  8
CSLAYER1
  6
DOT
 62
     5
 10
761.915830
 20
1304.460699
 11
778.965830
 21
1304.460699
  0
LINE
  8
CSLAYER1
  6
DOT
 62
     5
 10
761.915830
 20
1285.410699
 11
778.965830
 21
1285.410699
  0
ARC
  8
CSLAYER1
  6
DOT
 62
     5
 10
761.915830
 20
1303.460699
 40
1.000000
 50
90.000000
 51
180.000000
  0
ARC
  8
CSLAYER1
  6
DOT
 62
     5
 10
761.915830
 20
1286.410699
 40
1.000000
 50
180.000000
 51
270.000000
  0
LINE
  8
CSLAYER1
  6
DOT
 62
     5
 10
779.965830
 20
1279.885699
 11
783.965830
 21
1279.885699
  0
ARC
  8
CSLAYER1
  6
DOT
 62
     5
 10
778.965830
 20
1303.460699
 40
1.000000
 50
0.000000
 51
90.000000
  0
ARC
  8
CSLAYER1
  6
DOT
 62
     5
 10
778.965830
 20
1286.410699
 40
1.000000
 50
270.000000
 51
360.000000
  0
LINE
  8
CSLAYER1
  6
DOT
 62
     5
 10
750.690830
 20
1298.705699
 11
750.690830
 21
1291.155973
  0
LINE
  8
CSLAYER1
  6
DOT
 62
     5
 10
756.915830
 20
1307.935699
 11
752.540830
 21
1307.935699
  0
LINE
  8
CSLAYER1
  6
DOT
 62
     5
 10
752.540830
 20
1299.705699
 11
751.690830
 21
1299.705699
  0
LINE
  8
CSLAYER1
  6
DOT
 62
     5
 10
752.540830
 20
1290.155973
 11
751.690830
 21
1290.155973
  0
ARC
  8
CSLAYER1
  6
DOT
 62
     5
 10
751.690830
 20
1298.705699
 40
1.000000
 50
90.000000
 51
180.000000
  0
ARC
  8
CSLAYER1
  6
DOT
 62
     5
 10
751.690830
 20
1291.155973
 40
1.000000
 50
180.000000
 51
270.000000
  0
LINE
  8
CSLAYER1
  6
DOT
 62
     5
 10
790.190830
 20
1298.705699
 11
790.190830
 21
1291.155973
  0
LINE
  8
CSLAYER1
  6
DOT
 62
     5
 10
783.965830
 20
1307.935699
 11
788.340830
 21
1307.935699
  0
LINE
  8
CSLAYER1
  6
DOT
 62
     5
 10
788.340830
 20
1299.705699
 11
789.190830
 21
1299.705699
  0
LINE
  8
CSLAYER1
  6
DOT
 62
     5
 10
788.340830
 20
1290.155973
 11
789.190830
 21
1290.155973
  0
ARC
  8
CSLAYER1
  6
DOT
 62
     5
 10
789.190830
 20
1298.705699
 40
1.000000
 50
0.000000
 51
90.000000
  0
ARC
  8
CSLAYER1
  6
DOT
 62
     5
 10
789.190830
 20
1291.155973
 40
1.000000
 50
270.000000
 51
360.000000
  0
LINE
  8
CSLAYER1
  6
DOT
 62
     5
 10
788.340830
 20
1307.935699
 11
788.340830
 21
1250.185699
  0
LINE
  8
CSLAYER1
  6
DOT
 62
     5
 10
752.540830
 20
1307.935699
 11
752.540830
 21
1250.185699
  0
POINT
  8
CSLAYER1
 62
     5
 10
770.440830
 20
1162.239135
  0
LINE
  8
CSLAYER1
  6
DOT
 62
     5
 10
756.915830
 20
1085.739135
 11
756.915830
 21
1180.989135
  0
LINE
  8
CSLAYER1
  6
DOT
 62
     5
 10
760.915830
 20
1177.289135
 11
760.915830
 21
1115.439135
  0
LINE
  8
CSLAYER1
  6
DOT
 62
     5
 10
760.915830
 20
1177.289135
 11
756.915830
 21
1177.289135
  0
LINE
  8
CSLAYER1
  6
DOT
 62
     5
 10
761.915830
 20
1152.714135
 11
778.965830
 21
1152.714135
  0
LINE
  8
CSLAYER1
  6
DOT
 62
     5
 10
761.915830
 20
1171.764135
 11
778.965830
 21
1171.764135
  0
ARC
  8
CSLAYER1
  6
DOT
 62
     5
 10
761.915830
 20
1153.714135
 40
1.000000
 50
180.000000
 51
270.000000
  0
ARC
  8
CSLAYER1
  6
DOT
 62
     5
 10
761.915830
 20
1170.764135
 40
1.000000
 50
90.000000
 51
180.000000
  0
LINE
  8
CSLAYER1
  6
DOT
 62
     5
 10
779.965830
 20
1177.289135
 11
779.965830
 21
1115.439135
  0
LINE
  8
CSLAYER1
  6
DOT
 62
     5
 10
779.965830
 20
1177.289135
 11
783.965830
 21
1177.289135
  0
ARC
  8
CSLAYER1
  6
DOT
 62
     5
 10
778.965830
 20
1153.714135
 40
1.000000
 50
270.000000
 51
360.000000
  0
ARC
  8
CSLAYER1
  6
DOT
 62
     5
 10
778.965830
 20
1170.764135
 40
1.000000
 50
0.000000
 51
90.000000
  0
LINE
  8
CSLAYER1
  6
DOT
 62
     5
 10
750.690830
 20
1158.469135
 11
750.690830
 21
1166.018861
  0
LINE
  8
CSLAYER1
  6
DOT
 62
     5
 10
756.915830
 20
1149.239135
 11
752.540830
 21
1149.239135
  0
LINE
  8
CSLAYER1
  6
DOT
 62
     5
 10
752.540830
 20
1157.469135
 11
751.690830
 21
1157.469135
  0
LINE
  8
CSLAYER1
  6
DOT
 62
     5
 10
752.540830
 20
1167.018861
 11
751.690830
 21
1167.018861
  0
ARC
  8
CSLAYER1
  6
DOT
 62
     5
 10
751.690830
 20
1158.469135
 40
1.000000
 50
180.000000
 51
270.000000
  0
ARC
  8
CSLAYER1
  6
DOT
 62
     5
 10
751.690830
 20
1166.018861
 40
1.000000
 50
90.000000
 51
180.000000
  0
LINE
  8
CSLAYER1
  6
DOT
 62
     5
 10
790.190830
 20
1158.469135
 11
790.190830
 21
1166.018861
  0
LINE
  8
CSLAYER1
  6
DOT
 62
     5
 10
783.965830
 20
1149.239135
 11
788.340830
 21
1149.239135
  0
LINE
  8
CSLAYER1
  6
DOT
 62
     5
 10
788.340830
 20
1157.469135
 11
789.190830
 21
1157.469135
  0
LINE
  8
CSLAYER1
  6
DOT
 62
     5
 10
788.340830
 20
1167.018861
 11
789.190830
 21
1167.018861
  0
ARC
  8
CSLAYER1
  6
DOT
 62
     5
 10
789.190830
 20
1158.469135
 40
1.000000
 50
270.000000
 51
360.000000
  0
ARC
  8
CSLAYER1
  6
DOT
 62
     5
 10
789.190830
 20
1166.018861
 40
1.000000
 50
0.000000
 51
90.000000
  0
LINE
  8
CSLAYER1
  6
DOT
 62
     5
 10
752.540830
 20
1149.239135
 11
752.540830
 21
1206.989135
  0
LINE
  8
CSLAYER1
  6
DOT
 62
     5
 10
788.340830
 20
1149.239135
 11
788.340830
 21
1206.989135
  0
LINE
  8
CSLAYER1
  6
DOT
 62
     5
 10
760.915830
 20
1115.439135
 11
756.915830
 21
1115.439135
  0
LINE
  8
CSLAYER1
  6
DOT
 62
     5
 10
761.915830
 20
1140.014135
 11
778.965830
 21
1140.014135
  0
LINE
  8
CSLAYER1
  6
DOT
 62
     5
 10
761.915830
 20
1120.964135
 11
778.965830
 21
1120.964135
  0
ARC
  8
CSLAYER1
  6
DOT
 62
     5
 10
761.915830
 20
1139.014135
 40
1.000000
 50
90.000000
 51
180.000000
  0
ARC
  8
CSLAYER1
  6
DOT
 62
     5
 10
761.915830
 20
1121.964135
 40
1.000000
 50
180.000000
 51
270.000000
  0
LINE
  8
CSLAYER1
  6
DOT
 62
     5
 10
779.965830
 20
1115.439135
 11
783.965830
 21
1115.439135
  0
ARC
  8
CSLAYER1
  6
DOT
 62
     5
 10
778.965830
 20
1139.014135
 40
1.000000
 50
0.000000
 51
90.000000
  0
ARC
  8
CSLAYER1
  6
DOT
 62
     5
 10
778.965830
 20
1121.964135
 40
1.000000
 50
270.000000
 51
360.000000
  0
LINE
  8
CSLAYER1
  6
DOT
 62
     5
 10
762.440830
 20
1115.739135
 11
778.440830
 21
1115.739135
  0
LINE
  8
CSLAYER1
  6
DOT
 62
     5
 10
762.440830
 20
1108.739135
 11
757.915830
 21
1108.739135
  0
LINE
  8
CSLAYER1
  6
DOT
 62
     5
 10
762.440830
 20
1088.739135
 11
757.915830
 21
1088.739135
  0
LINE
  8
CSLAYER1
  6
DOT
 62
     5
 10
740.632504
 20
1075.969907
 11
760.440830
 21
1075.969907
  0
LINE
  8
CSLAYER1
  6
DOT
 62
     5
 10
761.440830
 20
1070.969907
 11
762.440830
 21
1070.969907
  0
LINE
  8
CSLAYER1
  6
DOT
 62
     5
 10
800.890830
 20
1291.502931
 11
800.890830
 21
1051.591158
  0
LINE
  8
CSLAYER1
  6
DOT
 62
     5
 10
889.990830
 20
1291.502931
 11
889.990830
 21
1051.591158
  0
LINE
  8
CSLAYER1
  6
DOT
 62
     5
 10
815.190830
 20
1415.768391
 11
815.190830
 21
1309.748772
  0
LINE
  8
CSLAYER1
  6
DOT
 62
     5
 10
875.690830
 20
1415.768391
 11
875.690830
 21
1309.748772
  0
LINE
  8
CSLAYER1
  6
DOT
 62
     5
 10
790.940830
 20
1476.268391
 11
790.940830
 21
1415.768391
  0
LINE
  8
CSLAYER1
  6
DOT
 62
     5
 10
837.611554
 20
1431.682339
 11
835.094721
 21
1431.250138
  0
LINE
  8
CSLAYER1
  6
DOT
 62
     5
 10
835.094721
 20
1431.250138
 11
832.656628
 21
1430.700112
  0
LINE
  8
CSLAYER1
  6
DOT
 62
     5
 10
832.656628
 20
1430.700112
 11
830.315830
 21
1430.036446
  0
LINE
  8
CSLAYER1
  6
DOT
 62
     5
 10
830.315830
 20
1430.036446
 11
828.090143
 21
1429.264192
  0
LINE
  8
CSLAYER1
  6
DOT
 62
     5
 10
828.090143
 20
1429.264192
 11
825.996505
 21
1428.389227
  0
LINE
  8
CSLAYER1
  6
DOT
 62
     5
 10
825.996505
 20
1428.389227
 11
824.050850
 21
1427.418209
  0
LINE
  8
CSLAYER1
  6
DOT
 62
     5
 10
824.050850
 20
1427.418209
 11
822.267986
 21
1426.358530
  0
LINE
  8
CSLAYER1
  6
DOT
 62
     5
 10
822.267986
 20
1426.358530
 11
820.661481
 21
1425.218253
  0
LINE
  8
CSLAYER1
  6
DOT
 62
     5
 10
820.661481
 20
1425.218253
 11
819.243562
 21
1424.006057
  0
LINE
  8
CSLAYER1
  6
DOT
 62
     5
 10
819.243562
 20
1424.006057
 11
818.025019
 21
1422.731167
  0
LINE
  8
CSLAYER1
  6
DOT
 62
     5
 10
818.025019
 20
1422.731167
 11
817.015128
 21
1421.403286
  0
LINE
  8
CSLAYER1
  6
DOT
 62
     5
 10
817.015128
 20
1421.403286
 11
816.221574
 21
1420.032521
  0
LINE
  8
CSLAYER1
  6
DOT
 62
     5
 10
816.221574
 20
1420.032521
 11
815.650396
 21
1418.629302
  0
LINE
  8
CSLAYER1
  6
DOT
 62
     5
 10
815.650396
 20
1418.629302
 11
815.305940
 21
1417.204311
  0
LINE
  8
CSLAYER1
  6
DOT
 62
     5
 10
815.305940
 20
1417.204311
 11
815.190830
 21
1415.768391
  0
LINE
  8
CSLAYER1
  6
DOT
 62
     5
 10
889.990830
 20
1291.502931
 11
889.821304
 21
1293.617649
  0
LINE
  8
CSLAYER1
  6
DOT
 62
     5
 10
889.821304
 20
1293.617649
 11
889.314015
 21
1295.716273
  0
LINE
  8
CSLAYER1
  6
DOT
 62
     5
 10
889.314015
 20
1295.716273
 11
888.472826
 21
1297.782831
  0
LINE
  8
CSLAYER1
  6
DOT
 62
     5
 10
888.472826
 20
1297.782831
 11
887.304136
 21
1299.801595
  0
LINE
  8
CSLAYER1
  6
DOT
 62
     5
 10
887.304136
 20
1299.801595
 11
885.816842
 21
1301.757201
  0
LINE
  8
CSLAYER1
  6
DOT
 62
     5
 10
885.816842
 20
1301.757201
 11
884.022262
 21
1303.634766
  0
LINE
  8
CSLAYER1
  6
DOT
 62
     5
 10
884.022262
 20
1303.634766
 11
881.934054
 21
1305.420000
  0
LINE
  8
CSLAYER1
  6
DOT
 62
     5
 10
881.934054
 20
1305.420000
 11
879.568110
 21
1307.099317
  0
LINE
  8
CSLAYER1
  6
DOT
 62
     5
 10
879.568110
 20
1307.099317
 11
876.942437
 21
1308.659936
  0
LINE
  8
CSLAYER1
  6
DOT
 62
     5
 10
876.942437
 20
1308.659936
 11
874.077018
 21
1310.089980
  0
LINE
  8
CSLAYER1
  6
DOT
 62
     5
 10
874.077018
 20
1310.089980
 11
870.993660
 21
1311.378565
  0
LINE
  8
CSLAYER1
  6
DOT
 62
     5
 10
870.993660
 20
1311.378565
 11
867.715830
 21
1312.515885
  0
LINE
  8
CSLAYER1
  6
DOT
 62
     5
 10
867.715830
 20
1312.515885
 11
864.268474
 21
1313.493283
  0
LINE
  8
CSLAYER1
  6
DOT
 62
     5
 10
864.268474
 20
1313.493283
 11
860.677827
 21
1314.303322
  0
LINE
  8
CSLAYER1
  6
DOT
 62
     5
 10
860.677827
 20
1314.303322
 11
856.971218
 21
1314.939836
  0
LINE
  8
CSLAYER1
  6
DOT
 62
     5
 10
856.971218
 20
1314.939836
 11
853.176856
 21
1315.397980
  0
LINE
  8
CSLAYER1
  6
DOT
 62
     5
 10
853.176856
 20
1315.397980
 11
849.323618
 21
1315.674269
  0
LINE
  8
CSLAYER1
  6
DOT
 62
     5
 10
849.323618
 20
1315.674269
 11
845.440830
 21
1315.766600
  0
LINE
  8
CSLAYER1
  6
DOT
 62
     5
 10
845.440830
 20
1315.766600
 11
841.558042
 21
1315.674269
  0
LINE
  8
CSLAYER1
  6
DOT
 62
     5
 10
841.558042
 20
1315.674269
 11
837.704804
 21
1315.397980
  0
LINE
  8
CSLAYER1
  6
DOT
 62
     5
 10
837.704804
 20
1315.397980
 11
833.910442
 21
1314.939836
  0
LINE
  8
CSLAYER1
  6
DOT
 62
     5
 10
833.910442
 20
1314.939836
 11
830.203833
 21
1314.303322
  0
LINE
  8
CSLAYER1
  6
DOT
 62
     5
 10
830.203833
 20
1314.303322
 11
826.613186
 21
1313.493283
  0
LINE
  8
CSLAYER1
  6
DOT
 62
     5
 10
826.613186
 20
1313.493283
 11
823.165830
 21
1312.515885
  0
LINE
  8
CSLAYER1
  6
DOT
 62
     5
 10
823.165830
 20
1312.515885
 11
819.888000
 21
1311.378565
  0
LINE
  8
CSLAYER1
  6
DOT
 62
     5
 10
819.888000
 20
1311.378565
 11
816.804642
 21
1310.089980
  0
LINE
  8
CSLAYER1
  6
DOT
 62
     5
 10
816.804642
 20
1310.089980
 11
813.939223
 21
1308.659936
  0
LINE
  8
CSLAYER1
  6
DOT
 62
     5
 10
813.939223
 20
1308.659936
 11
811.313550
 21
1307.099317
  0
LINE
  8
CSLAYER1
  6
DOT
 62
     5
 10
811.313550
 20
1307.099317
 11
808.947606
 21
1305.420000
  0
LINE
  8
CSLAYER1
  6
DOT
 62
     5
 10
808.947606
 20
1305.420000
 11
806.859398
 21
1303.634766
  0
LINE
  8
CSLAYER1
  6
DOT
 62
     5
 10
806.859398
 20
1303.634766
 11
805.064818
 21
1301.757201
  0
LINE
  8
CSLAYER1
  6
DOT
 62
     5
 10
805.064818
 20
1301.757201
 11
803.577524
 21
1299.801595
  0
LINE
  8
CSLAYER1
  6
DOT
 62
     5
 10
803.577524
 20
1299.801595
 11
802.408834
 21
1297.782831
  0
LINE
  8
CSLAYER1
  6
DOT
 62
     5
 10
802.408834
 20
1297.782831
 11
801.567645
 21
1295.716273
  0
LINE
  8
CSLAYER1
  6
DOT
 62
     5
 10
801.567645
 20
1295.716273
 11
801.060356
 21
1293.617649
  0
LINE
  8
CSLAYER1
  6
DOT
 62
     5
 10
801.060356
 20
1293.617649
 11
800.890830
 21
1291.502931
  0
LINE
  8
CSLAYER1
  6
DOT
 62
     5
 10
679.440830
 20
951.476537
 11
722.440830
 21
951.476537
  0
LINE
  8
CSLAYER1
  6
DOT
 62
     5
 10
1011.440830
 20
936.282923
 11
968.440830
 21
936.282923
  0
LINE
  8
CSLAYER1
  6
DOT
 62
     5
 10
1011.440830
 20
856.869666
 11
968.440830
 21
856.869666
  0
LINE
  8
CSLAYER1
  6
DOT
 62
     5
 10
738.440830
 20
951.476537
 11
767.833329
 21
951.476537
  0
LINE
  8
CSLAYER1
  6
DOT
 62
     5
 10
722.440830
 20
936.282923
 11
679.440830
 21
936.282923
  0
LINE
  8
CSLAYER1
  6
DOT
 62
     5
 10
722.440830
 20
856.869666
 11
679.440830
 21
856.869666
  0
LINE
  8
CSLAYER1
  6
DOT
 62
     5
 10
968.440830
 20
951.476537
 11
1011.440830
 21
951.476537
  0
LINE
  8
CSLAYER1
  6
DOT
 62
     5
 10
952.440830
 20
936.282923
 11
899.440830
 21
936.282923
  0
LINE
  8
CSLAYER1
  6
DOT
 62
     5
 10
952.440830
 20
856.869666
 11
930.440830
 21
856.869666
  0
LINE
  8
CSLAYER1
  6
DOT
 62
     5
 10
785.440830
 20
856.869666
 11
738.440830
 21
856.869666
  0
LINE
  8
CSLAYER1
  6
DOT
 62
     5
 10
791.440830
 20
936.282923
 11
738.440830
 21
936.282923
  0
LINE
  8
CSLAYER1
  6
DOT
 62
     5
 10
923.048331
 20
951.476537
 11
952.440830
 21
951.476537
  0
LINE
  8
CSLAYER1
  6
DOT
 62
     5
 10
679.440830
 20
1070.969907
 11
680.467371
 21
1070.969907
  0
LINE
  8
CSLAYER1
  6
DOT
 62
     5
 10
679.440830
 20
1040.969907
 11
680.467371
 21
1040.969907
  0
LINE
  8
CSLAYER1
  6
DOT
 62
     5
 10
1027.440830
 20
1481.705522
 11
1027.440830
 21
1068.469907
  0
LINE
  8
CSLAYER1
  6
DOT
 62
     5
 10
713.440830
 20
1571.905522
 11
722.440830
 21
1571.905522
  0
LINE
  8
CSLAYER1
  6
DOT
 62
     5
 10
717.440830
 20
1510.705522
 11
722.440830
 21
1510.705522
  0
LINE
  8
CSLAYER1
  6
DOT
 62
     5
 10
717.440830
 20
1490.705522
 11
722.440830
 21
1490.705522
  0
LINE
  8
CSLAYER1
  6
CENTER
 62
     5
 10
920.440830
 20
1526.067436
 11
920.440830
 21
1055.969907
  0
LINE
  8
CSLAYER1
  6
CENTER
 62
     5
 10
770.440830
 20
1525.153350
 11
770.440830
 21
1074.889397
  0
LINE
  8
CSLAYER1
  6
DOT
 62
     5
 10
720.440830
 20
1012.063480
 11
722.440830
 21
1012.063480
  0
LINE
  8
CSLAYER1
  6
DOT
 62
     5
 10
712.440830
 20
982.063480
 11
720.440830
 21
982.063480
  0
LINE
  8
CSLAYER1
  6
DOT
 62
     5
 10
710.440830
 20
984.063480
 11
712.440830
 21
982.063480
  0
LINE
  8
CSLAYER1
  6
DOT
 62
     5
 10
720.440830
 20
984.063480
 11
722.440830
 21
984.063480
  0
LINE
  8
CSLAYER1
  6
DOT
 62
     5
 10
970.440830
 20
1014.063480
 11
970.440830
 21
982.063480
  0
LINE
  8
CSLAYER1
  6
DOT
 62
     5
 10
980.440830
 20
1012.063480
 11
980.440830
 21
984.063480
  0
LINE
  8
CSLAYER1
  6
DOT
 62
     5
 10
978.440830
 20
1014.063480
 11
970.440830
 21
1014.063480
  0
LINE
  8
CSLAYER1
  6
DOT
 62
     5
 10
980.440830
 20
1012.063480
 11
978.440830
 21
1014.063480
  0
LINE
  8
CSLAYER1
  6
DOT
 62
     5
 10
978.440830
 20
1014.063480
 11
978.440830
 21
982.063480
  0
LINE
  8
CSLAYER1
  6
DOT
 62
     5
 10
978.440830
 20
982.063480
 11
970.440830
 21
982.063480
  0
LINE
  8
CSLAYER1
  6
DOT
 62
     5
 10
980.440830
 20
984.063480
 11
978.440830
 21
982.063480
  0
LINE
  8
CSLAYER1
  6
DOT
 62
     5
 10
970.440830
 20
1012.063480
 11
968.440830
 21
1012.063480
  0
LINE
  8
CSLAYER1
  6
DOT
 62
     5
 10
970.440830
 20
984.063480
 11
968.440830
 21
984.063480
  0
LINE
  8
CSLAYER1
  6
DOT
 62
     5
 10
952.440830
 20
1012.063480
 11
951.440830
 21
1012.063480
  0
LINE
  8
CSLAYER1
  6
DOT
 62
     5
 10
952.440830
 20
984.063480
 11
951.440830
 21
984.063480
  0
LINE
  8
CSLAYER1
  6
DOT
 62
     5
 10
738.440830
 20
1031.252750
 11
743.157987
 21
1035.969907
  0
LINE
  8
CSLAYER1
  6
DOT
 62
     5
 10
738.440830
 20
1031.535593
 11
742.875145
 21
1035.969907
  0
LINE
  8
CSLAYER1
  6
DOT
 62
     5
 10
738.440830
 20
1031.818435
 11
742.592302
 21
1035.969907
  0
LINE
  8
CSLAYER1
  6
DOT
 62
     5
 10
738.440830
 20
1032.101278
 11
742.309459
 21
1035.969907
  0
LINE
  8
CSLAYER1
  6
DOT
 62
     5
 10
738.440830
 20
1032.384121
 11
742.026616
 21
1035.969907
  0
LINE
  8
CSLAYER1
  6
DOT
 62
     5
 10
738.440830
 20
1032.666964
 11
741.743774
 21
1035.969907
  0
LINE
  8
CSLAYER1
  6
DOT
 62
     5
 10
738.440830
 20
1032.949806
 11
741.460931
 21
1035.969907
  0
LINE
  8
CSLAYER1
  6
DOT
 62
     5
 10
738.440830
 20
1033.232649
 11
741.178088
 21
1035.969907
  0
LINE
  8
CSLAYER1
  6
DOT
 62
     5
 10
738.440830
 20
1033.515492
 11
740.895246
 21
1035.969907
  0
LINE
  8
CSLAYER1
  6
DOT
 62
     5
 10
738.440830
 20
1033.798334
 11
740.612403
 21
1035.969907
  0
LINE
  8
CSLAYER1
  6
DOT
 62
     5
 10
738.440830
 20
1034.081177
 11
740.329560
 21
1035.969907
  0
LINE
  8
CSLAYER1
  6
DOT
 62
     5
 10
738.440830
 20
1034.364020
 11
740.046717
 21
1035.969907
  0
LINE
  8
CSLAYER1
  6
DOT
 62
     5
 10
738.440830
 20
1034.646863
 11
739.763875
 21
1035.969907
  0
LINE
  8
CSLAYER1
  6
DOT
 62
     5
 10
738.440830
 20
1034.929705
 11
739.481032
 21
1035.969907
  0
LINE
  8
CSLAYER1
  6
DOT
 62
     5
 10
738.440830
 20
1035.212548
 11
739.198189
 21
1035.969907
  0
LINE
  8
CSLAYER1
  6
DOT
 62
     5
 10
738.440830
 20
1035.495391
 11
738.915347
 21
1035.969907
  0
LINE
  8
CSLAYER1
  6
DOT
 62
     5
 10
738.440830
 20
1035.778233
 11
738.632504
 21
1035.969907
  0
LINE
  8
CSLAYER1
  6
DOT
 62
     5
 10
739.481032
 20
1035.969907
 11
738.440830
 21
1035.969907
  0
LINE
  8
CSLAYER1
  6
DOT
 62
     5
 10
740.632504
 20
1035.969907
 11
753.430678
 21
1035.969907
  0
LINE
  8
CSLAYER1
  6
DOT
 62
     5
 10
739.440830
 20
1475.918391
 11
739.440830
 21
1416.118391
  0
ARC
  8
CSLAYER1
  6
DOT
 62
     5
 10
738.340830
 20
1475.918391
 40
1.100000
 50
0.000000
 51
90.000000
  0
ARC
  8
CSLAYER1
  6
DOT
 62
     5
 10
738.340830
 20
1416.118391
 40
1.100000
 50
270.000000
 51
360.000000
  0
LINE
  8
CSLAYER1
  6
DOT
 62
     5
 10
778.440830
 20
1508.796257
 11
762.440830
 21
1508.796257
  0
LINE
  8
CSLAYER1
  6
DOT
 62
     5
 10
780.440830
 20
1506.796257
 11
778.440830
 21
1508.796257
  0
LINE
  8
CSLAYER1
  6
DOT
 62
     5
 10
780.440830
 20
1506.796257
 11
760.440830
 21
1506.796257
  0
LINE
  8
CSLAYER1
  6
DOT
 62
     5
 10
760.440830
 20
1506.796257
 11
762.440830
 21
1508.796257
  0
CIRCLE
  8
CSLAYER1
  6
DOT
 62
     5
 10
770.440830
 20
1498.796257
 40
2.500000
  0
LINE
  8
CSLAYER1
  6
DOT
 62
     5
 10
643.414762
 20
1500.705522
 11
738.440830
 21
1500.705522
  0
LINE
  8
CSLAYER1
  6
DOT
 62
     5
 10
643.740830
 20
1523.705522
 11
643.740830
 21
1492.705522
  0
LINE
  8
CSLAYER1
  6
DOT
 62
     5
 10
646.940830
 20
1571.905522
 11
646.940830
 21
1481.705522
  0
LINE
  8
CSLAYER1
  6
CENTER
 62
     5
 10
648.710193
 20
1500.705522
 11
691.999245
 21
1500.705522
  0
LINE
  8
CSLAYER1
  6
DOT
 62
     5
 10
687.940830
 20
1481.705522
 11
646.940830
 21
1481.705522
  0
LINE
  8
CSLAYER1
  6
DOT
 62
     5
 10
639.249956
 20
1515.705522
 11
652.940830
 21
1515.705522
  0
LINE
  8
CSLAYER1
  6
DOT
 62
     5
 10
643.740830
 20
1523.705522
 11
646.940830
 21
1523.705522
  0
LINE
  8
CSLAYER1
  6
DOT
 62
     5
 10
688.940830
 20
1493.705522
 11
688.940830
 21
1507.705522
  0
LINE
  8
CSLAYER1
  6
DOT
 62
     5
 10
688.940830
 20
1493.705522
 11
687.940830
 21
1492.705522
  0
LINE
  8
CSLAYER1
  6
DOT
 62
     5
 10
643.740830
 20
1492.705522
 11
646.940830
 21
1492.705522
  0
LINE
  8
CSLAYER1
  6
DOT
 62
     5
 10
688.940830
 20
1507.705522
 11
687.940830
 21
1508.705522
  0
LINE
  8
CSLAYER1
  6
DOT
 62
     5
 10
643.740830
 20
1496.705522
 11
646.940830
 21
1496.705522
  0
LINE
  8
CSLAYER1
  6
DOT
 62
     5
 10
643.740830
 20
1504.705522
 11
646.940830
 21
1504.705522
  0
LINE
  8
CSLAYER1
  6
DOT
 62
     5
 10
977.440830
 20
1546.705522
 11
1002.440830
 21
1546.705522
  0
LINE
  8
CSLAYER1
  6
DOT
 62
     5
 10
1002.440830
 20
1521.705522
 11
974.940830
 21
1521.705522
  0
LINE
  8
CSLAYER1
  6
DOT
 62
     5
 10
1002.440830
 20
1571.905522
 11
1002.440830
 21
1521.705522
  0
LINE
  8
CSLAYER1
  6
DOT
 62
     5
 10
977.440830
 20
1521.705522
 11
977.440830
 21
1571.905522
  0
LINE
  8
CSLAYER1
  6
DOT
 62
     5
 10
992.940830
 20
1571.905522
 11
992.940830
 21
1546.705522
  0
LINE
  8
CSLAYER1
  6
DOT
 62
     5
 10
986.940830
 20
1571.905522
 11
986.940830
 21
1546.705522
  0
LINE
  8
CSLAYER1
  6
DOT
 62
     5
 10
973.940830
 20
1520.705522
 11
973.940830
 21
1480.705522
  0
LINE
  8
CSLAYER1
  6
DOT
 62
     5
 10
1000.440830
 20
1512.257164
 11
1000.440830
 21
1489.153880
  0
LINE
  8
CSLAYER1
  6
DOT
 62
     5
 10
1001.590830
 20
1512.257164
 11
1001.590830
 21
1489.153880
  0
LINE
  8
CSLAYER1
  6
DOT
 62
     5
 10
1002.440830
 20
1508.205522
 11
1001.648667
 21
1508.205522
  0
LINE
  8
CSLAYER1
  6
DOT
 62
     5
 10
1001.590830
 20
1512.257164
 11
1000.440830
 21
1512.257164
  0
LINE
  8
CSLAYER1
  6
DOT
 62
     5
 10
1000.440830
 20
1508.205522
 11
999.940830
 21
1508.205522
  0
LINE
  8
CSLAYER1
  6
DOT
 62
     5
 10
999.940830
 20
1520.705522
 11
999.940830
 21
1480.705522
  0
ARC
  8
CSLAYER1
  6
DOT
 62
     5
 10
974.940830
 20
1520.705522
 40
1.000000
 50
90.000000
 51
180.000000
  0
ARC
  8
CSLAYER1
  6
DOT
 62
     5
 10
998.940830
 20
1520.705522
 40
1.000000
 50
0.000000
 51
90.000000
  0
ARC
  8
CSLAYER1
  6
DOT
 62
     5
 10
987.940830
 20
1520.705522
 40
1.000000
 50
90.000000
 51
180.000000
  0
ARC
  8
CSLAYER1
  6
DOT
 62
     5
 10
985.940830
 20
1520.705522
 40
1.000000
 50
0.000000
 51
90.000000
  0
LINE
  8
CSLAYER1
  6
DOT
 62
     5
 10
1002.940830
 20
1571.905522
 11
1002.940830
 21
1481.705522
  0
LINE
  8
CSLAYER1
  6
DOT
 62
     5
 10
998.940830
 20
1479.705522
 11
987.940830
 21
1479.705522
  0
LINE
  8
CSLAYER1
  6
DOT
 62
     5
 10
1002.440830
 20
1493.205522
 11
1001.648667
 21
1493.205522
  0
LINE
  8
CSLAYER1
  6
DOT
 62
     5
 10
1001.590830
 20
1489.153880
 11
1000.440830
 21
1489.153880
  0
LINE
  8
CSLAYER1
  6
DOT
 62
     5
 10
1000.440830
 20
1493.205522
 11
999.940830
 21
1493.205522
  0
ARC
  8
CSLAYER1
  6
DOT
 62
     5
 10
974.940830
 20
1480.705522
 40
1.000000
 50
180.000000
 51
270.000000
  0
ARC
  8
CSLAYER1
  6
DOT
 62
     5
 10
998.940830
 20
1480.705522
 40
1.000000
 50
270.000000
 51
360.000000
  0
ARC
  8
CSLAYER1
  6
DOT
 62
     5
 10
987.940830
 20
1480.705522
 40
1.000000
 50
180.000000
 51
270.000000
  0
ARC
  8
CSLAYER1
  6
DOT
 62
     5
 10
985.940830
 20
1480.705522
 40
1.000000
 50
270.000000
 51
360.000000
  0
LINE
  8
CSLAYER1
  6
DOT
 62
     5
 10
974.940830
 20
1479.705522
 11
985.940830
 21
1479.705522
  0
LINE
  8
CSLAYER1
  6
DOT
 62
     5
 10
973.440830
 20
1510.705522
 11
973.940830
 21
1510.205522
  0
LINE
  8
CSLAYER1
  6
DOT
 62
     5
 10
973.440830
 20
1490.705522
 11
973.940830
 21
1491.205522
  0
LINE
  8
CSLAYER1
  6
DOT
 62
     5
 10
986.940830
 20
1480.705522
 11
986.940830
 21
1520.705522
  0
LINE
  8
CSLAYER1
  6
DOT
 62
     5
 10
977.440830
 20
1571.905522
 11
968.440830
 21
1571.905522
  0
LINE
  8
CSLAYER1
  6
DOT
 62
     5
 10
973.440830
 20
1510.705522
 11
968.440830
 21
1510.705522
  0
LINE
  8
CSLAYER1
  6
DOT
 62
     5
 10
973.440830
 20
1490.705522
 11
968.440830
 21
1490.705522
  0
LINE
  8
CSLAYER1
  6
CENTER
 62
     5
 10
1047.466898
 20
1500.705522
 11
952.440830
 21
1500.705522
  0
LINE
  8
CSLAYER1
  6
DOT
 62
     5
 10
1047.140830
 20
1523.705522
 11
1047.140830
 21
1492.705522
  0
LINE
  8
CSLAYER1
  6
DOT
 62
     5
 10
1043.940830
 20
1571.905522
 11
1043.940830
 21
1481.705522
  0
LINE
  8
CSLAYER1
  6
DOT
 62
     5
 10
1042.171467
 20
1500.705522
 11
998.882415
 21
1500.705522
  0
LINE
  8
CSLAYER1
  6
DOT
 62
     5
 10
1002.940830
 20
1481.705522
 11
1043.940830
 21
1481.705522
  0
LINE
  8
CSLAYER1
  6
DOT
 62
     5
 10
1051.631704
 20
1515.705522
 11
1037.940830
 21
1515.705522
  0
LINE
  8
CSLAYER1
  6
DOT
 62
     5
 10
1047.140830
 20
1523.705522
 11
1043.940830
 21
1523.705522
  0
LINE
  8
CSLAYER1
  6
DOT
 62
     5
 10
1001.940830
 20
1493.705522
 11
1001.940830
 21
1507.705522
  0
LINE
  8
CSLAYER1
  6
DOT
 62
     5
 10
1001.940830
 20
1493.705522
 11
1002.940830
 21
1492.705522
  0
LINE
  8
CSLAYER1
  6
DOT
 62
     5
 10
1047.140830
 20
1492.705522
 11
1043.940830
 21
1492.705522
  0
LINE
  8
CSLAYER1
  6
DOT
 62
     5
 10
1001.940830
 20
1507.705522
 11
1002.940830
 21
1508.705522
  0
LINE
  8
CSLAYER1
  6
DOT
 62
     5
 10
1047.140830
 20
1496.705522
 11
1043.940830
 21
1496.705522
  0
LINE
  8
CSLAYER1
  6
DOT
 62
     5
 10
1047.140830
 20
1504.705522
 11
1043.940830
 21
1504.705522
  0
LINE
  8
CSLAYER1
  6
DOT
 62
     5
 10
875.690830
 20
1415.768391
 11
899.940830
 21
1415.768391
  0
LINE
  8
CSLAYER1
  6
DOT
 62
     5
 10
946.440830
 20
1424.018391
 11
901.940830
 21
1424.018391
  0
LINE
  8
CSLAYER1
  6
DOT
 62
     5
 10
946.440830
 20
1468.018391
 11
901.940830
 21
1468.018391
  0
LINE
  8
CSLAYER1
  6
DOT
 62
     5
 10
901.940830
 20
1474.268391
 11
901.940830
 21
1417.768391
  0
LINE
  8
CSLAYER1
  6
DOT
 62
     5
 10
901.940830
 20
1474.268391
 11
899.940830
 21
1476.268391
  0
LINE
  8
CSLAYER1
  6
DOT
 62
     5
 10
901.940830
 20
1417.768391
 11
899.940830
 21
1415.768391
  0
LINE
  8
CSLAYER1
  6
DOT
 62
     5
 10
946.440830
 20
1468.018391
 11
951.440830
 21
1463.018391
  0
LINE
  8
CSLAYER1
  6
DOT
 62
     5
 10
946.440830
 20
1468.018391
 11
946.440830
 21
1424.018391
  0
LINE
  8
CSLAYER1
  6
DOT
 62
     5
 10
946.440830
 20
1424.018391
 11
951.440830
 21
1429.018391
  0
LINE
  8
CSLAYER1
  6
DOT
 62
     5
 10
935.440830
 20
1486.218391
 11
905.440830
 21
1486.218391
  0
LINE
  8
CSLAYER1
  6
DOT
 62
     5
 10
937.761338
 20
1471.218391
 11
937.761338
 21
1484.878645
  0
LINE
  8
CSLAYER1
  6
DOT
 62
     5
 10
929.101084
 20
1471.218391
 11
929.101084
 21
1484.878645
  0
LINE
  8
CSLAYER1
  6
DOT
 62
     5
 10
935.440830
 20
1486.218391
 11
937.761338
 21
1484.878645
  0
ARC
  8
CSLAYER1
  6
DOT
 62
     5
 10
933.431211
 20
1478.563773
 40
7.656867
 50
55.561448
 51
124.438552
  0
ARC
  8
CSLAYER1
  6
DOT
 62
     5
 10
920.440830
 20
1457.558137
 40
28.660254
 50
72.412046
 51
107.587954
  0
LINE
  8
CSLAYER1
  6
DOT
 62
     5
 10
901.940830
 20
1471.218391
 11
938.940830
 21
1471.218391
  0
LINE
  8
CSLAYER1
  6
DOT
 62
     5
 10
933.440830
 20
1488.718391
 11
907.440830
 21
1488.718391
  0
LINE
  8
CSLAYER1
  6
DOT
 62
     5
 10
935.440830
 20
1486.218391
 11
935.440830
 21
1486.718391
  0
ARC
  8
CSLAYER1
  6
DOT
 62
     5
 10
933.440830
 20
1486.718391
 40
2.000000
 50
0.000000
 51
90.000000
  0
LINE
  8
CSLAYER1
  6
DOT
 62
     5
 10
903.120322
 20
1471.218391
 11
903.120322
 21
1484.878645
  0
LINE
  8
CSLAYER1
  6
DOT
 62
     5
 10
911.780576
 20
1471.218391
 11
911.780576
 21
1484.878645
  0
LINE
  8
CSLAYER1
  6
DOT
 62
     5
 10
905.440830
 20
1486.218391
 11
903.120322
 21
1484.878645
  0
ARC
  8
CSLAYER1
  6
DOT
 62
     5
 10
907.450449
 20
1478.563773
 40
7.656867
 50
55.561448
 51
124.438552
  0
LINE
  8
CSLAYER1
  6
DOT
 62
     5
 10
905.440830
 20
1486.218391
 11
905.440830
 21
1486.718391
  0
ARC
  8
CSLAYER1
  6
DOT
 62
     5
 10
907.440830
 20
1486.718391
 40
2.000000
 50
90.000000
 51
180.000000
  0
LINE
  8
CSLAYER1
  6
DOT
 62
     5
 10
930.440830
 20
1488.718391
 11
930.440830
 21
1506.796257
  0
LINE
  8
CSLAYER1
  6
DOT
 62
     5
 10
928.940830
 20
1488.718391
 11
928.940830
 21
1508.296257
  0
LINE
  8
CSLAYER1
  6
DOT
 62
     5
 10
938.940830
 20
1468.018391
 11
938.940830
 21
1471.218391
  0
LINE
  8
CSLAYER1
  6
DOT
 62
     5
 10
910.440830
 20
1488.718391
 11
910.440830
 21
1506.796257
  0
LINE
  8
CSLAYER1
  6
DOT
 62
     5
 10
911.940830
 20
1488.718391
 11
911.940830
 21
1508.296257
  0
LINE
  8
CSLAYER1
  6
DOT
 62
     5
 10
935.414341
 20
1498.796257
 11
903.812983
 21
1498.796257
  0
LINE
  8
CSLAYER1
  6
DOT
 62
     5
 10
899.940830
 20
1476.268391
 11
899.940830
 21
1415.768391
  0
LINE
  8
CSLAYER1
  6
DOT
 62
     5
 10
853.270106
 20
1431.682339
 11
855.786939
 21
1431.250138
  0
LINE
  8
CSLAYER1
  6
DOT
 62
     5
 10
855.786939
 20
1431.250138
 11
858.225032
 21
1430.700112
  0
LINE
  8
CSLAYER1
  6
DOT
 62
     5
 10
858.225032
 20
1430.700112
 11
860.565830
 21
1430.036446
  0
LINE
  8
CSLAYER1
  6
DOT
 62
     5
 10
860.565830
 20
1430.036446
 11
862.791517
 21
1429.264192
  0
LINE
  8
CSLAYER1
  6
DOT
 62
     5
 10
862.791517
 20
1429.264192
 11
864.885155
 21
1428.389227
  0
LINE
  8
CSLAYER1
  6
DOT
 62
     5
 10
864.885155
 20
1428.389227
 11
866.830810
 21
1427.418209
  0
LINE
  8
CSLAYER1
  6
DOT
 62
     5
 10
866.830810
 20
1427.418209
 11
868.613674
 21
1426.358530
  0
LINE
  8
CSLAYER1
  6
DOT
 62
     5
 10
868.613674
 20
1426.358530
 11
870.220179
 21
1425.218253
  0
LINE
  8
CSLAYER1
  6
DOT
 62
     5
 10
870.220179
 20
1425.218253
 11
871.638098
 21
1424.006057
  0
LINE
  8
CSLAYER1
  6
DOT
 62
     5
 10
871.638098
 20
1424.006057
 11
872.856641
 21
1422.731167
  0
LINE
  8
CSLAYER1
  6
DOT
 62
     5
 10
872.856641
 20
1422.731167
 11
873.866532
 21
1421.403286
  0
LINE
  8
CSLAYER1
  6
DOT
 62
     5
 10
873.866532
 20
1421.403286
 11
874.660086
 21
1420.032521
  0
LINE
  8
CSLAYER1
  6
DOT
 62
     5
 10
874.660086
 20
1420.032521
 11
875.231265
 21
1418.629302
  0
LINE
  8
CSLAYER1
  6
DOT
 62
     5
 10
875.231265
 20
1418.629302
 11
875.575720
 21
1417.204311
  0
LINE
  8
CSLAYER1
  6
DOT
 62
     5
 10
875.575720
 20
1417.204311
 11
875.690830
 21
1415.768391
  0
LINE
  8
CSLAYER1
  6
DOT
 62
     5
 10
951.440830
 20
1475.918391
 11
951.440830
 21
1416.118391
  0
ARC
  8
CSLAYER1
  6
DOT
 62
     5
 10
952.540830
 20
1475.918391
 40
1.100000
 50
90.000000
 51
180.000000
  0
ARC
  8
CSLAYER1
  6
DOT
 62
     5
 10
952.540830
 20
1416.118391
 40
1.100000
 50
180.000000
 51
270.000000
  0
LINE
  8
CSLAYER1
  6
DOT
 62
     5
 10
912.440830
 20
1508.796257
 11
928.440830
 21
1508.796257
  0
LINE
  8
CSLAYER1
  6
DOT
 62
     5
 10
910.440830
 20
1506.796257
 11
912.440830
 21
1508.796257
  0
LINE
  8
CSLAYER1
  6
DOT
 62
     5
 10
910.440830
 20
1506.796257
 11
930.440830
 21
1506.796257
  0
LINE
  8
CSLAYER1
  6
DOT
 62
     5
 10
930.440830
 20
1506.796257
 11
928.440830
 21
1508.796257
  0
CIRCLE
  8
CSLAYER1
  6
DOT
 62
     5
 10
920.440830
 20
1498.796257
 40
2.500000
  0
LINE
  8
CSLAYER1
  6
DOT
 62
     5
 10
738.440830
 20
1012.063480
 11
739.440830
 21
1012.063480
  0
LINE
  8
CSLAYER1
  6
DOT
 62
     5
 10
738.440830
 20
984.063480
 11
739.440830
 21
984.063480
  0
LINE
  8
CSLAYER1
  6
DOT
 62
     5
 10
906.440830
 20
1051.591158
 11
906.440830
 21
1068.969907
  0
LINE
  8
CSLAYER1
  6
DOT
 62
     5
 10
907.440830
 20
1051.591158
 11
907.440830
 21
1069.969907
  0
LINE
  8
CSLAYER1
  6
DOT
 62
     5
 10
912.440830
 20
1069.969907
 11
909.414289
 21
1069.969907
  0
LINE
  8
CSLAYER1
  6
DOT
 62
     5
 10
906.440830
 20
1068.969907
 11
907.440830
 21
1069.969907
  0
LINE
  8
CSLAYER1
  6
DOT
 62
     5
 10
929.440830
 20
1074.969907
 11
930.440830
 21
1075.969907
  0
LINE
  8
CSLAYER1
  6
DOT
 62
     5
 10
907.440830
 20
1069.969907
 11
912.507088
 21
1074.954588
  0
LINE
  8
CSLAYER1
  6
DOT
 62
     5
 10
912.440830
 20
1074.889397
 11
907.521340
 21
1069.969907
  0
LINE
  8
CSLAYER1
  6
DOT
 62
     5
 10
912.440830
 20
1074.606554
 11
907.804183
 21
1069.969907
  0
LINE
  8
CSLAYER1
  6
DOT
 62
     5
 10
912.440830
 20
1074.323712
 11
908.087026
 21
1069.969907
  0
LINE
  8
CSLAYER1
  6
DOT
 62
     5
 10
912.440830
 20
1074.040869
 11
908.369868
 21
1069.969907
  0
LINE
  8
CSLAYER1
  6
DOT
 62
     5
 10
912.440830
 20
1073.758026
 11
908.652711
 21
1069.969907
  0
LINE
  8
CSLAYER1
  6
DOT
 62
     5
 10
912.440830
 20
1073.475183
 11
908.935554
 21
1069.969907
  0
LINE
  8
CSLAYER1
  6
DOT
 62
     5
 10
912.440830
 20
1073.192341
 11
909.218397
 21
1069.969907
  0
LINE
  8
CSLAYER1
  6
DOT
 62
     5
 10
912.440830
 20
1072.909498
 11
909.501239
 21
1069.969907
  0
LINE
  8
CSLAYER1
  6
DOT
 62
     5
 10
912.440830
 20
1072.626655
 11
909.784082
 21
1069.969907
  0
LINE
  8
CSLAYER1
  6
DOT
 62
     5
 10
912.440830
 20
1072.343813
 11
910.066925
 21
1069.969907
  0
LINE
  8
CSLAYER1
  6
DOT
 62
     5
 10
912.440830
 20
1072.060970
 11
910.349767
 21
1069.969907
  0
LINE
  8
CSLAYER1
  6
DOT
 62
     5
 10
912.440830
 20
1071.778127
 11
910.632610
 21
1069.969907
  0
LINE
  8
CSLAYER1
  6
DOT
 62
     5
 10
912.440830
 20
1071.495284
 11
910.915453
 21
1069.969907
  0
LINE
  8
CSLAYER1
  6
DOT
 62
     5
 10
912.440830
 20
1071.212442
 11
911.198296
 21
1069.969907
  0
LINE
  8
CSLAYER1
  6
DOT
 62
     5
 10
912.440830
 20
1070.929599
 11
911.481138
 21
1069.969907
  0
LINE
  8
CSLAYER1
  6
DOT
 62
     5
 10
912.440830
 20
1070.646756
 11
911.763981
 21
1069.969907
  0
LINE
  8
CSLAYER1
  6
DOT
 62
     5
 10
912.440830
 20
1070.363914
 11
912.046824
 21
1069.969907
  0
LINE
  8
CSLAYER1
  6
DOT
 62
     5
 10
912.440830
 20
1070.081071
 11
912.329666
 21
1069.969907
  0
LINE
  8
CSLAYER1
  6
DOT
 62
     5
 10
1009.414289
 20
1034.619907
 11
968.440830
 21
1034.619907
  0
LINE
  8
CSLAYER1
  6
DOT
 62
     5
 10
929.440830
 20
1074.969907
 11
929.440830
 21
1040.780667
  0
LINE
  8
CSLAYER1
  6
DOT
 62
     5
 10
1010.414289
 20
1076.319907
 11
1010.414289
 21
1035.619907
  0
LINE
  8
CSLAYER1
  6
DOT
 62
     5
 10
1010.414289
 20
1035.619907
 11
1009.414289
 21
1034.619907
  0
LINE
  8
CSLAYER1
  6
DOT
 62
     5
 10
1050.414289
 20
1065.969907
 11
1050.414289
 21
1045.969907
  0
LINE
  8
CSLAYER1
  6
DOT
 62
     5
 10
1031.414289
 20
1074.469907
 11
1031.414289
 21
1037.469907
  0
LINE
  8
CSLAYER1
  6
DOT
 62
     5
 10
1036.514289
 20
1072.969907
 11
1036.514289
 21
1038.969907
  0
LINE
  8
CSLAYER1
  6
DOT
 62
     5
 10
1048.514289
 20
1072.969907
 11
1048.514289
 21
1038.969907
  0
LINE
  8
CSLAYER1
  6
DOT
 62
     5
 10
1031.414289
 20
1072.969907
 11
1048.514289
 21
1072.969907
  0
LINE
  8
CSLAYER1
  6
DOT
 62
     5
 10
1036.514289
 20
1065.969907
 11
1050.414289
 21
1065.969907
  0
LINE
  8
CSLAYER1
  6
DOT
 62
     5
 10
1031.414289
 20
1038.969907
 11
1048.514289
 21
1038.969907
  0
LINE
  8
CSLAYER1
  6
DOT
 62
     5
 10
1036.514289
 20
1045.969907
 11
1050.414289
 21
1045.969907
  0
LINE
  8
CSLAYER1
  6
DOT
 62
     5
 10
1028.414289
 20
1074.469907
 11
1031.414289
 21
1074.469907
  0
LINE
  8
CSLAYER1
  6
DOT
 62
     5
 10
1028.414289
 20
1037.469907
 11
1031.414289
 21
1037.469907
  0
LINE
  8
CSLAYER1
  6
DOT
 62
     5
 10
1028.414289
 20
1037.469907
 11
1028.414289
 21
1074.469907
  0
LINE
  8
CSLAYER1
  6
CENTER
 62
     5
 10
1055.305541
 20
1055.969907
 11
904.620550
 21
1055.969907
  0
LINE
  8
CSLAYER1
  6
DOT
 62
     5
 10
1028.414289
 20
1043.469907
 11
1027.440830
 21
1043.469907
  0
LINE
  8
CSLAYER1
  6
DOT
 62
     5
 10
1009.414289
 20
1077.319907
 11
968.440830
 21
1077.319907
  0
LINE
  8
CSLAYER1
  6
DOT
 62
     5
 10
1010.414289
 20
1076.319907
 11
1009.414289
 21
1077.319907
  0
LINE
  8
CSLAYER1
  6
DOT
 62
     5
 10
1028.414289
 20
1068.469907
 11
1027.440830
 21
1068.469907
  0
LINE
  8
CSLAYER1
  6
DOT
 62
     5
 10
1027.414289
 20
1029.862983
 11
1027.414289
 21
1043.469907
  0
LINE
  8
CSLAYER1
  6
DOT
 62
     5
 10
973.440830
 20
1034.619907
 11
968.440830
 21
1029.619907
  0
LINE
  8
CSLAYER1
  6
DOT
 62
     5
 10
968.440830
 20
1029.902750
 11
973.157987
 21
1034.619907
  0
LINE
  8
CSLAYER1
  6
DOT
 62
     5
 10
968.440830
 20
1030.185593
 11
972.875145
 21
1034.619907
  0
LINE
  8
CSLAYER1
  6
DOT
 62
     5
 10
968.440830
 20
1030.468435
 11
972.592302
 21
1034.619907
  0
LINE
  8
CSLAYER1
  6
DOT
 62
     5
 10
968.440830
 20
1030.751278
 11
972.309459
 21
1034.619907
  0
LINE
  8
CSLAYER1
  6
DOT
 62
     5
 10
968.440830
 20
1031.034121
 11
972.026616
 21
1034.619907
  0
LINE
  8
CSLAYER1
  6
DOT
 62
     5
 10
968.440830
 20
1031.316964
 11
971.743774
 21
1034.619907
  0
LINE
  8
CSLAYER1
  6
DOT
 62
     5
 10
968.440830
 20
1031.599806
 11
971.460931
 21
1034.619907
  0
LINE
  8
CSLAYER1
  6
DOT
 62
     5
 10
968.440830
 20
1031.882649
 11
971.178088
 21
1034.619907
  0
LINE
  8
CSLAYER1
  6
DOT
 62
     5
 10
968.440830
 20
1032.165492
 11
970.895246
 21
1034.619907
  0
LINE
  8
CSLAYER1
  6
DOT
 62
     5
 10
968.440830
 20
1032.448334
 11
970.612403
 21
1034.619907
  0
LINE
  8
CSLAYER1
  6
DOT
 62
     5
 10
968.440830
 20
1032.731177
 11
970.329560
 21
1034.619907
  0
LINE
  8
CSLAYER1
  6
DOT
 62
     5
 10
968.440830
 20
1033.014020
 11
970.046717
 21
1034.619907
  0
LINE
  8
CSLAYER1
  6
DOT
 62
     5
 10
968.440830
 20
1033.296863
 11
969.763875
 21
1034.619907
  0
LINE
  8
CSLAYER1
  6
DOT
 62
     5
 10
968.440830
 20
1033.579705
 11
969.481032
 21
1034.619907
  0
LINE
  8
CSLAYER1
  6
DOT
 62
     5
 10
968.440830
 20
1033.862548
 11
969.198189
 21
1034.619907
  0
LINE
  8
CSLAYER1
  6
DOT
 62
     5
 10
968.440830
 20
1034.145391
 11
968.915347
 21
1034.619907
  0
LINE
  8
CSLAYER1
  6
DOT
 62
     5
 10
968.440830
 20
1034.428233
 11
968.632504
 21
1034.619907
  0
LINE
  8
CSLAYER1
  6
DOT
 62
     5
 10
952.440830
 20
1080.687065
 11
947.723673
 21
1075.969907
  0
LINE
  8
CSLAYER1
  6
DOT
 62
     5
 10
952.440830
 20
1080.404222
 11
948.006515
 21
1075.969907
  0
LINE
  8
CSLAYER1
  6
DOT
 62
     5
 10
952.440830
 20
1080.121379
 11
948.289358
 21
1075.969907
  0
LINE
  8
CSLAYER1
  6
DOT
 62
     5
 10
952.440830
 20
1079.838536
 11
948.572201
 21
1075.969907
  0
LINE
  8
CSLAYER1
  6
DOT
 62
     5
 10
952.440830
 20
1079.555694
 11
948.855044
 21
1075.969907
  0
LINE
  8
CSLAYER1
  6
DOT
 62
     5
 10
952.440830
 20
1079.272851
 11
949.137886
 21
1075.969907
  0
LINE
  8
CSLAYER1
  6
DOT
 62
     5
 10
952.440830
 20
1078.990008
 11
949.420729
 21
1075.969907
  0
LINE
  8
CSLAYER1
  6
DOT
 62
     5
 10
952.440830
 20
1078.707166
 11
949.703572
 21
1075.969907
  0
LINE
  8
CSLAYER1
  6
DOT
 62
     5
 10
952.440830
 20
1078.424323
 11
949.986414
 21
1075.969907
  0
LINE
  8
CSLAYER1
  6
DOT
 62
     5
 10
952.440830
 20
1078.141480
 11
950.269257
 21
1075.969907
  0
LINE
  8
CSLAYER1
  6
DOT
 62
     5
 10
952.440830
 20
1077.858637
 11
950.552100
 21
1075.969907
  0
LINE
  8
CSLAYER1
  6
DOT
 62
     5
 10
952.440830
 20
1077.575795
 11
950.834943
 21
1075.969907
  0
LINE
  8
CSLAYER1
  6
DOT
 62
     5
 10
952.440830
 20
1077.292952
 11
951.117785
 21
1075.969907
  0
LINE
  8
CSLAYER1
  6
DOT
 62
     5
 10
952.440830
 20
1077.010109
 11
951.400628
 21
1075.969907
  0
LINE
  8
CSLAYER1
  6
DOT
 62
     5
 10
952.440830
 20
1076.727267
 11
951.683471
 21
1075.969907
  0
LINE
  8
CSLAYER1
  6
DOT
 62
     5
 10
952.440830
 20
1076.444424
 11
951.966313
 21
1075.969907
  0
LINE
  8
CSLAYER1
  6
DOT
 62
     5
 10
952.440830
 20
1076.161581
 11
952.249156
 21
1075.969907
  0
LINE
  8
CSLAYER1
  6
DOT
 62
     5
 10
973.440830
 20
1077.319907
 11
968.440830
 21
1082.319907
  0
LINE
  8
CSLAYER1
  6
DOT
 62
     5
 10
968.440830
 20
1082.037065
 11
973.157987
 21
1077.319907
  0
LINE
  8
CSLAYER1
  6
DOT
 62
     5
 10
968.440830
 20
1081.754222
 11
972.875145
 21
1077.319907
  0
LINE
  8
CSLAYER1
  6
DOT
 62
     5
 10
968.440830
 20
1081.471379
 11
972.592302
 21
1077.319907
  0
LINE
  8
CSLAYER1
  6
DOT
 62
     5
 10
968.440830
 20
1081.188536
 11
972.309459
 21
1077.319907
  0
LINE
  8
CSLAYER1
  6
DOT
 62
     5
 10
968.440830
 20
1080.905694
 11
972.026616
 21
1077.319907
  0
LINE
  8
CSLAYER1
  6
DOT
 62
     5
 10
968.440830
 20
1080.622851
 11
971.743774
 21
1077.319907
  0
LINE
  8
CSLAYER1
  6
DOT
 62
     5
 10
968.440830
 20
1080.340008
 11
971.460931
 21
1077.319907
  0
LINE
  8
CSLAYER1
  6
DOT
 62
     5
 10
968.440830
 20
1080.057166
 11
971.178088
 21
1077.319907
  0
LINE
  8
CSLAYER1
  6
DOT
 62
     5
 10
968.440830
 20
1079.774323
 11
970.895246
 21
1077.319907
  0
LINE
  8
CSLAYER1
  6
DOT
 62
     5
 10
968.440830
 20
1079.491480
 11
970.612403
 21
1077.319907
  0
LINE
  8
CSLAYER1
  6
DOT
 62
     5
 10
968.440830
 20
1079.208637
 11
970.329560
 21
1077.319907
  0
LINE
  8
CSLAYER1
  6
DOT
 62
     5
 10
968.440830
 20
1078.925795
 11
970.046717
 21
1077.319907
  0
LINE
  8
CSLAYER1
  6
DOT
 62
     5
 10
968.440830
 20
1078.642952
 11
969.763875
 21
1077.319907
  0
LINE
  8
CSLAYER1
  6
DOT
 62
     5
 10
968.440830
 20
1078.360109
 11
969.481032
 21
1077.319907
  0
LINE
  8
CSLAYER1
  6
DOT
 62
     5
 10
968.440830
 20
1078.077267
 11
969.198189
 21
1077.319907
  0
LINE
  8
CSLAYER1
  6
DOT
 62
     5
 10
968.440830
 20
1077.794424
 11
968.915347
 21
1077.319907
  0
LINE
  8
CSLAYER1
  6
DOT
 62
     5
 10
968.440830
 20
1077.511581
 11
968.632504
 21
1077.319907
  0
LINE
  8
CSLAYER1
  6
DOT
 62
     5
 10
951.400628
 20
1075.969907
 11
952.440830
 21
1075.969907
  0
LINE
  8
CSLAYER1
  6
DOT
 62
     5
 10
950.249156
 20
1075.969907
 11
930.440830
 21
1075.969907
  0
LINE
  8
CSLAYER1
  6
DOT
 62
     5
 10
929.440830
 20
1070.969907
 11
928.440830
 21
1070.969907
  0
LINE
  8
CSLAYER1
  6
DOT
 62
     5
 10
1011.440830
 20
1070.969907
 11
1010.414289
 21
1070.969907
  0
LINE
  8
CSLAYER1
  6
DOT
 62
     5
 10
1011.440830
 20
1040.969907
 11
1010.414289
 21
1040.969907
  0
LINE
  8
CSLAYER1
  6
DOT
 62
     5
 10
952.440830
 20
1031.252750
 11
947.723673
 21
1035.969907
  0
LINE
  8
CSLAYER1
  6
DOT
 62
     5
 10
952.440830
 20
1031.535593
 11
948.006515
 21
1035.969907
  0
LINE
  8
CSLAYER1
  6
DOT
 62
     5
 10
952.440830
 20
1031.818435
 11
948.289358
 21
1035.969907
  0
LINE
  8
CSLAYER1
  6
DOT
 62
     5
 10
952.440830
 20
1032.101278
 11
948.572201
 21
1035.969907
  0
LINE
  8
CSLAYER1
  6
DOT
 62
     5
 10
952.440830
 20
1032.384121
 11
948.855044
 21
1035.969907
  0
LINE
  8
CSLAYER1
  6
DOT
 62
     5
 10
952.440830
 20
1032.666964
 11
949.137886
 21
1035.969907
  0
LINE
  8
CSLAYER1
  6
DOT
 62
     5
 10
952.440830
 20
1032.949806
 11
949.420729
 21
1035.969907
  0
LINE
  8
CSLAYER1
  6
DOT
 62
     5
 10
952.440830
 20
1033.232649
 11
949.703572
 21
1035.969907
  0
LINE
  8
CSLAYER1
  6
DOT
 62
     5
 10
952.440830
 20
1033.515492
 11
949.986414
 21
1035.969907
  0
LINE
  8
CSLAYER1
  6
DOT
 62
     5
 10
952.440830
 20
1033.798334
 11
950.269257
 21
1035.969907
  0
LINE
  8
CSLAYER1
  6
DOT
 62
     5
 10
952.440830
 20
1034.081177
 11
950.552100
 21
1035.969907
  0
LINE
  8
CSLAYER1
  6
DOT
 62
     5
 10
952.440830
 20
1034.364020
 11
950.834943
 21
1035.969907
  0
LINE
  8
CSLAYER1
  6
DOT
 62
     5
 10
952.440830
 20
1034.646863
 11
951.117785
 21
1035.969907
  0
LINE
  8
CSLAYER1
  6
DOT
 62
     5
 10
952.440830
 20
1034.929705
 11
951.400628
 21
1035.969907
  0
LINE
  8
CSLAYER1
  6
DOT
 62
     5
 10
952.440830
 20
1035.212548
 11
951.683471
 21
1035.969907
  0
LINE
  8
CSLAYER1
  6
DOT
 62
     5
 10
952.440830
 20
1035.495391
 11
951.966313
 21
1035.969907
  0
LINE
  8
CSLAYER1
  6
DOT
 62
     5
 10
952.440830
 20
1035.778233
 11
952.249156
 21
1035.969907
  0
LINE
  8
CSLAYER1
  6
DOT
 62
     5
 10
951.400628
 20
1035.969907
 11
952.440830
 21
1035.969907
  0
LINE
  8
CSLAYER1
  6
DOT
 62
     5
 10
950.249156
 20
1035.969907
 11
937.450982
 21
1035.969907
  0
LINE
  8
CSLAYER1
  6
DOT
 62
     5
 10
970.940830
 20
1458.518391
 11
969.790830
 21
1458.518391
  0
LINE
  8
CSLAYER1
  6
DOT
 62
     5
 10
969.790830
 20
1457.968391
 11
968.440830
 21
1457.968391
  0
LINE
  8
CSLAYER1
  6
DOT
 62
     5
 10
969.790830
 20
1461.068391
 11
968.440830
 21
1461.068391
  0
LINE
  8
CSLAYER1
  6
DOT
 62
     5
 10
969.790830
 20
1461.068391
 11
969.790830
 21
1430.968391
  0
LINE
  8
CSLAYER1
  6
DOT
 62
     5
 10
972.440830
 20
1457.018391
 11
972.440830
 21
1435.018391
  0
LINE
  8
CSLAYER1
  6
DOT
 62
     5
 10
972.440830
 20
1457.018391
 11
970.940830
 21
1458.518391
  0
LINE
  8
CSLAYER1
  6
DOT
 62
     5
 10
970.940830
 20
1458.518391
 11
970.940830
 21
1433.518391
  0
LINE
  8
CSLAYER1
  6
DOT
 62
     5
 10
970.940830
 20
1433.518391
 11
969.790830
 21
1433.518391
  0
LINE
  8
CSLAYER1
  6
DOT
 62
     5
 10
969.790830
 20
1434.068391
 11
968.440830
 21
1434.068391
  0
LINE
  8
CSLAYER1
  6
DOT
 62
     5
 10
969.790830
 20
1430.968391
 11
968.440830
 21
1430.968391
  0
LINE
  8
CSLAYER1
  6
DOT
 62
     5
 10
972.440830
 20
1435.018391
 11
970.940830
 21
1433.518391
  0
LINE
  8
CSLAYER1
  6
DOT
 62
     5
 10
719.940830
 20
1458.518391
 11
721.090830
 21
1458.518391
  0
LINE
  8
CSLAYER1
  6
DOT
 62
     5
 10
721.090830
 20
1457.968391
 11
722.440830
 21
1457.968391
  0
LINE
  8
CSLAYER1
  6
DOT
 62
     5
 10
721.090830
 20
1461.068391
 11
722.440830
 21
1461.068391
  0
LINE
  8
CSLAYER1
  6
DOT
 62
     5
 10
721.090830
 20
1461.068391
 11
721.090830
 21
1430.968391
  0
LINE
  8
CSLAYER1
  6
DOT
 62
     5
 10
718.440830
 20
1457.018391
 11
718.440830
 21
1435.018391
  0
LINE
  8
CSLAYER1
  6
DOT
 62
     5
 10
718.440830
 20
1457.018391
 11
719.940830
 21
1458.518391
  0
LINE
  8
CSLAYER1
  6
DOT
 62
     5
 10
719.940830
 20
1458.518391
 11
719.940830
 21
1433.518391
  0
LINE
  8
CSLAYER1
  6
DOT
 62
     5
 10
719.940830
 20
1433.518391
 11
721.090830
 21
1433.518391
  0
LINE
  8
CSLAYER1
  6
DOT
 62
     5
 10
721.090830
 20
1434.068391
 11
722.440830
 21
1434.068391
  0
LINE
  8
CSLAYER1
  6
DOT
 62
     5
 10
721.090830
 20
1430.968391
 11
722.440830
 21
1430.968391
  0
LINE
  8
CSLAYER1
  6
DOT
 62
     5
 10
718.440830
 20
1435.018391
 11
719.940830
 21
1433.518391
  0
POINT
  8
CSLAYER1
 62
     5
 10
951.440830
 20
998.063480
  0
POINT
  8
CSLAYER1
 62
     5
 10
739.440830
 20
998.063480
  0
LINE
  8
CSLAYER1
  6
DOT
 62
     5
 10
910.054757
 20
1051.591158
 11
780.826903
 21
1051.591158
  0
LINE
  8
CSLAYER1
  6
DOT
 62
     5
 10
910.054757
 20
1019.608657
 11
780.826903
 21
1019.608657
  0
LINE
  8
CSLAYER1
  6
DOT
 62
     5
 10
900.440830
 20
944.535802
 11
911.440830
 21
944.535802
  0
LINE
  8
CSLAYER1
  6
DOT
 62
     5
 10
911.440830
 20
1051.591158
 11
911.440830
 21
1019.608657
  0
LINE
  8
CSLAYER1
  6
DOT
 62
     5
 10
912.629072
 20
1050.877520
 11
949.015146
 21
1029.024669
  0
LINE
  8
CSLAYER1
  6
DOT
 62
     5
 10
912.629072
 20
1018.895019
 11
949.015146
 21
997.042168
  0
LINE
  8
CSLAYER1
  6
DOT
 62
     5
 10
911.440830
 20
944.492790
 11
949.018530
 21
967.101719
  0
LINE
  8
CSLAYER1
  6
DOT
 62
     5
 10
899.440830
 20
976.518303
 11
899.440830
 21
830.866987
  0
LINE
  8
CSLAYER1
  6
DOT
 62
     5
 10
905.440830
 20
922.105039
 11
905.440830
 21
821.780908
  0
LINE
  8
CSLAYER1
  6
DOT
 62
     5
 10
907.440830
 20
812.564972
 11
907.440830
 21
760.593407
  0
LINE
  8
CSLAYER1
  6
DOT
 62
     5
 10
845.440830
 20
1004.175928
 11
850.147240
 21
1004.052263
  0
LINE
  8
CSLAYER1
  6
DOT
 62
     5
 10
850.147240
 20
1004.052263
 11
854.817832
 21
1003.682210
  0
LINE
  8
CSLAYER1
  6
DOT
 62
     5
 10
854.817832
 20
1003.682210
 11
859.417058
 21
1003.068585
  0
LINE
  8
CSLAYER1
  6
DOT
 62
     5
 10
859.417058
 20
1003.068585
 11
863.909918
 21
1002.216058
  0
LINE
  8
CSLAYER1
  6
DOT
 62
     5
 10
863.909918
 20
1002.216058
 11
868.262216
 21
1001.131117
  0
LINE
  8
CSLAYER1
  6
DOT
 62
     5
 10
868.262216
 20
1001.131117
 11
872.440830
 21
999.822020
  0
LINE
  8
CSLAYER1
  6
DOT
 62
     5
 10
872.440830
 20
999.822020
 11
876.413958
 21
998.298729
  0
LINE
  8
CSLAYER1
  6
DOT
 62
     5
 10
876.413958
 20
998.298729
 11
880.151361
 21
996.572837
  0
LINE
  8
CSLAYER1
  6
DOT
 62
     5
 10
880.151361
 20
996.572837
 11
883.624596
 21
994.657480
  0
LINE
  8
CSLAYER1
  6
DOT
 62
     5
 10
883.624596
 20
994.657480
 11
886.807230
 21
992.567235
  0
LINE
  8
CSLAYER1
  6
DOT
 62
     5
 10
886.807230
 20
992.567235
 11
889.675040
 21
990.318010
  0
LINE
  8
CSLAYER1
  6
DOT
 62
     5
 10
889.675040
 20
990.318010
 11
892.206202
 21
987.926922
  0
LINE
  8
CSLAYER1
  6
DOT
 62
     5
 10
892.206202
 20
987.926922
 11
894.381451
 21
985.412169
  0
LINE
  8
CSLAYER1
  6
DOT
 62
     5
 10
894.381451
 20
985.412169
 11
896.184232
 21
982.792891
  0
LINE
  8
CSLAYER1
  6
DOT
 62
     5
 10
896.184232
 20
982.792891
 11
897.600825
 21
980.089021
  0
LINE
  8
CSLAYER1
  6
DOT
 62
     5
 10
897.600825
 20
980.089021
 11
898.620449
 21
977.321137
  0
LINE
  8
CSLAYER1
  6
DOT
 62
     5
 10
898.620449
 20
977.321137
 11
899.235344
 21
974.510305
  0
LINE
  8
CSLAYER1
  6
DOT
 62
     5
 10
899.235344
 20
974.510305
 11
899.440830
 21
971.677916
  0
LINE
  8
CSLAYER1
  6
DOT
 62
     5
 10
899.440830
 20
971.677916
 11
899.235344
 21
968.845528
  0
LINE
  8
CSLAYER1
  6
DOT
 62
     5
 10
845.440830
 20
958.213940
 11
850.670175
 21
958.076535
  0
LINE
  8
CSLAYER1
  6
DOT
 62
     5
 10
850.670175
 20
958.076535
 11
855.859721
 21
957.665365
  0
LINE
  8
CSLAYER1
  6
DOT
 62
     5
 10
855.859721
 20
957.665365
 11
860.969973
 21
956.983559
  0
LINE
  8
CSLAYER1
  6
DOT
 62
     5
 10
860.969973
 20
956.983559
 11
865.962039
 21
956.036307
  0
LINE
  8
CSLAYER1
  6
DOT
 62
     5
 10
865.962039
 20
956.036307
 11
870.797926
 21
954.830818
  0
LINE
  8
CSLAYER1
  6
DOT
 62
     5
 10
870.797926
 20
954.830818
 11
875.440830
 21
953.376265
  0
LINE
  8
CSLAYER1
  6
DOT
 62
     5
 10
875.440830
 20
953.376265
 11
879.855416
 21
951.683719
  0
LINE
  8
CSLAYER1
  6
DOT
 62
     5
 10
879.855416
 20
951.683719
 11
884.008087
 21
949.766062
  0
LINE
  8
CSLAYER1
  6
DOT
 62
     5
 10
884.008087
 20
949.766062
 11
887.867237
 21
947.637888
  0
LINE
  8
CSLAYER1
  6
DOT
 62
     5
 10
887.867237
 20
947.637888
 11
891.403497
 21
945.315393
  0
LINE
  8
CSLAYER1
  6
DOT
 62
     5
 10
891.403497
 20
945.315393
 11
894.589953
 21
942.816254
  0
LINE
  8
CSLAYER1
  6
DOT
 62
     5
 10
894.589953
 20
942.816254
 11
897.402354
 21
940.159490
  0
LINE
  8
CSLAYER1
  6
DOT
 62
     5
 10
897.402354
 20
940.159490
 11
899.819297
 21
937.365320
  0
LINE
  8
CSLAYER1
  6
DOT
 62
     5
 10
899.819297
 20
937.365320
 11
901.822387
 21
934.455011
  0
LINE
  8
CSLAYER1
  6
DOT
 62
     5
 10
901.822387
 20
934.455011
 11
903.396380
 21
931.450710
  0
LINE
  8
CSLAYER1
  6
DOT
 62
     5
 10
903.396380
 20
931.450710
 11
904.529295
 21
928.375284
  0
LINE
  8
CSLAYER1
  6
DOT
 62
     5
 10
904.529295
 20
928.375284
 11
905.212512
 21
925.252137
  0
LINE
  8
CSLAYER1
  6
DOT
 62
     5
 10
905.212512
 20
925.252137
 11
905.440830
 21
922.105039
  0
LINE
  8
CSLAYER1
  6
DOT
 62
     5
 10
905.440830
 20
922.105039
 11
905.212512
 21
918.957941
  0
LINE
  8
CSLAYER1
  6
DOT
 62
     5
 10
845.440830
 20
849.877503
 11
850.844486
 21
849.735518
  0
LINE
  8
CSLAYER1
  6
DOT
 62
     5
 10
850.844486
 20
849.735518
 11
856.207017
 21
849.310642
  0
LINE
  8
CSLAYER1
  6
DOT
 62
     5
 10
856.207017
 20
849.310642
 11
861.487611
 21
848.606109
  0
LINE
  8
CSLAYER1
  6
DOT
 62
     5
 10
861.487611
 20
848.606109
 11
866.646079
 21
847.627282
  0
LINE
  8
CSLAYER1
  6
DOT
 62
     5
 10
866.646079
 20
847.627282
 11
871.643162
 21
846.381609
  0
LINE
  8
CSLAYER1
  6
DOT
 62
     5
 10
871.643162
 20
846.381609
 11
876.440830
 21
844.878572
  0
LINE
  8
CSLAYER1
  6
DOT
 62
     5
 10
876.440830
 20
844.878572
 11
881.002569
 21
843.129608
  0
LINE
  8
CSLAYER1
  6
DOT
 62
     5
 10
881.002569
 20
843.129608
 11
885.293662
 21
841.148029
  0
LINE
  8
CSLAYER1
  6
DOT
 62
     5
 10
885.293662
 20
841.148029
 11
889.281450
 21
838.948916
  0
LINE
  8
CSLAYER1
  6
DOT
 62
     5
 10
889.281450
 20
838.948916
 11
892.935586
 21
836.549004
  0
LINE
  8
CSLAYER1
  6
DOT
 62
     5
 10
892.935586
 20
836.549004
 11
896.228257
 21
833.966560
  0
LINE
  8
CSLAYER1
  6
DOT
 62
     5
 10
896.228257
 20
833.966560
 11
899.134405
 21
831.221237
  0
LINE
  8
CSLAYER1
  6
DOT
 62
     5
 10
899.134405
 20
831.221237
 11
901.631913
 21
828.333929
  0
LINE
  8
CSLAYER1
  6
DOT
 62
     5
 10
901.631913
 20
828.333929
 11
903.701773
 21
825.326609
  0
LINE
  8
CSLAYER1
  6
DOT
 62
     5
 10
903.701773
 20
825.326609
 11
905.328231
 21
822.222165
  0
LINE
  8
CSLAYER1
  6
DOT
 62
     5
 10
905.328231
 20
822.222165
 11
906.498911
 21
819.044225
  0
LINE
  8
CSLAYER1
  6
DOT
 62
     5
 10
906.498911
 20
819.044225
 11
907.204901
 21
815.816973
  0
LINE
  8
CSLAYER1
  6
DOT
 62
     5
 10
907.204901
 20
815.816973
 11
907.440830
 21
812.564972
  0
LINE
  8
CSLAYER1
  6
DOT
 62
     5
 10
845.440830
 20
797.905938
 11
850.844486
 21
797.763953
  0
LINE
  8
CSLAYER1
  6
DOT
 62
     5
 10
850.844486
 20
797.763953
 11
856.207017
 21
797.339077
  0
LINE
  8
CSLAYER1
  6
DOT
 62
     5
 10
856.207017
 20
797.339077
 11
861.487611
 21
796.634544
  0
LINE
  8
CSLAYER1
  6
DOT
 62
     5
 10
861.487611
 20
796.634544
 11
866.646079
 21
795.655717
  0
LINE
  8
CSLAYER1
  6
DOT
 62
     5
 10
866.646079
 20
795.655717
 11
871.643162
 21
794.410044
  0
LINE
  8
CSLAYER1
  6
DOT
 62
     5
 10
871.643162
 20
794.410044
 11
876.440830
 21
792.907007
  0
LINE
  8
CSLAYER1
  6
DOT
 62
     5
 10
876.440830
 20
792.907007
 11
881.002569
 21
791.158043
  0
LINE
  8
CSLAYER1
  6
DOT
 62
     5
 10
881.002569
 20
791.158043
 11
885.293662
 21
789.176464
  0
LINE
  8
CSLAYER1
  6
DOT
 62
     5
 10
885.293662
 20
789.176464
 11
889.281450
 21
786.977351
  0
LINE
  8
CSLAYER1
  6
DOT
 62
     5
 10
889.281450
 20
786.977351
 11
892.935586
 21
784.577440
  0
LINE
  8
CSLAYER1
  6
DOT
 62
     5
 10
892.935586
 20
784.577440
 11
896.228257
 21
781.994995
  0
LINE
  8
CSLAYER1
  6
DOT
 62
     5
 10
896.228257
 20
781.994995
 11
899.134405
 21
779.249672
  0
LINE
  8
CSLAYER1
  6
DOT
 62
     5
 10
899.134405
 20
779.249672
 11
901.631913
 21
776.362364
  0
LINE
  8
CSLAYER1
  6
DOT
 62
     5
 10
901.631913
 20
776.362364
 11
903.701773
 21
773.355044
  0
LINE
  8
CSLAYER1
  6
DOT
 62
     5
 10
903.701773
 20
773.355044
 11
905.328231
 21
770.250600
  0
LINE
  8
CSLAYER1
  6
DOT
 62
     5
 10
905.328231
 20
770.250600
 11
906.498911
 21
767.072660
  0
LINE
  8
CSLAYER1
  6
DOT
 62
     5
 10
906.498911
 20
767.072660
 11
907.204901
 21
763.845408
  0
LINE
  8
CSLAYER1
  6
DOT
 62
     5
 10
907.204901
 20
763.845408
 11
907.440830
 21
760.593407
  0
LINE
  8
CSLAYER1
  6
DOT
 62
     5
 10
907.440830
 20
760.593407
 11
907.204901
 21
757.341405
  0
LINE
  8
CSLAYER1
  6
DOT
 62
     5
 10
907.204901
 20
757.341405
 11
906.498911
 21
754.114154
  0
LINE
  8
CSLAYER1
  6
DOT
 62
     5
 10
906.498911
 20
754.114154
 11
905.328231
 21
750.936213
  0
LINE
  8
CSLAYER1
  6
DOT
 62
     5
 10
905.328231
 20
750.936213
 11
903.701773
 21
747.831769
  0
LINE
  8
CSLAYER1
  6
DOT
 62
     5
 10
903.701773
 20
747.831769
 11
901.631913
 21
744.824449
  0
LINE
  8
CSLAYER1
  6
DOT
 62
     5
 10
901.631913
 20
744.824449
 11
899.134405
 21
741.937141
  0
LINE
  8
CSLAYER1
  6
DOT
 62
     5
 10
899.134405
 20
741.937141
 11
896.228257
 21
739.191818
  0
LINE
  8
CSLAYER1
  6
DOT
 62
     5
 10
896.228257
 20
739.191818
 11
892.935586
 21
736.609374
  0
LINE
  8
CSLAYER1
  6
DOT
 62
     5
 10
892.935586
 20
736.609374
 11
889.281450
 21
734.209463
  0
LINE
  8
CSLAYER1
  6
DOT
 62
     5
 10
889.281450
 20
734.209463
 11
885.293662
 21
732.010349
  0
LINE
  8
CSLAYER1
  6
DOT
 62
     5
 10
885.293662
 20
732.010349
 11
881.002569
 21
730.028770
  0
LINE
  8
CSLAYER1
  6
DOT
 62
     5
 10
881.002569
 20
730.028770
 11
876.440830
 21
728.279807
  0
LINE
  8
CSLAYER1
  6
DOT
 62
     5
 10
876.440830
 20
728.279807
 11
871.643162
 21
726.776769
  0
LINE
  8
CSLAYER1
  6
DOT
 62
     5
 10
871.643162
 20
726.776769
 11
866.646079
 21
725.531096
  0
LINE
  8
CSLAYER1
  6
DOT
 62
     5
 10
866.646079
 20
725.531096
 11
861.487611
 21
724.552269
  0
LINE
  8
CSLAYER1
  6
DOT
 62
     5
 10
861.487611
 20
724.552269
 11
856.207017
 21
723.847736
  0
LINE
  8
CSLAYER1
  6
DOT
 62
     5
 10
856.207017
 20
723.847736
 11
850.844486
 21
723.422861
  0
LINE
  8
CSLAYER1
  6
DOT
 62
     5
 10
850.844486
 20
723.422861
 11
845.440830
 21
723.280875
  0
LINE
  8
CSLAYER1
  6
DOT
 62
     5
 10
900.440830
 20
1009.788581
 11
900.440830
 21
936.462289
  0
LINE
  8
CSLAYER1
  6
DOT
 62
     5
 10
895.440830
 20
1014.788581
 11
795.440830
 21
1014.788581
  0
LINE
  8
CSLAYER1
  6
DOT
 62
     5
 10
895.440830
 20
1006.455715
 11
795.440830
 21
1006.455715
  0
ARC
  8
CSLAYER1
  6
DOT
 62
     5
 10
895.440830
 20
1009.788581
 40
5.000000
 50
0.000000
 51
90.000000
  0
ARC
  8
CSLAYER1
  6
DOT
 62
     5
 10
895.440830
 20
1001.455715
 40
5.000000
 50
0.000000
 51
90.000000
  0
ARC
  8
CSLAYER1
  6
DOT
 62
     5
 10
910.054757
 20
1046.591158
 40
5.000000
 50
59.011695
 51
90.000000
  0
ARC
  8
CSLAYER1
  6
DOT
 62
     5
 10
910.054757
 20
1014.608657
 40
5.000000
 50
59.011695
 51
90.000000
  0
ARC
  8
CSLAYER1
  6
DOT
 62
     5
 10
946.440830
 20
1024.738307
 40
5.000000
 50
0.000000
 51
59.011695
  0
ARC
  8
CSLAYER1
  6
DOT
 62
     5
 10
946.440830
 20
992.755806
 40
5.000000
 50
0.000000
 51
59.011695
  0
ARC
  8
CSLAYER1
  6
DOT
 62
     5
 10
946.440830
 20
971.386046
 40
5.000000
 50
301.033561
 51
360.000000
  0
LINE
  8
CSLAYER1
  6
DOT
 62
     5
 10
929.440830
 20
976.655894
 11
929.304100
 21
977.596431
  0
LINE
  8
CSLAYER1
  6
DOT
 62
     5
 10
929.304100
 20
977.596431
 11
928.898064
 21
978.508390
  0
LINE
  8
CSLAYER1
  6
DOT
 62
     5
 10
928.898064
 20
978.508390
 11
928.235059
 21
979.364062
  0
LINE
  8
CSLAYER1
  6
DOT
 62
     5
 10
928.235059
 20
979.364062
 11
927.335230
 21
980.137447
  0
LINE
  8
CSLAYER1
  6
DOT
 62
     5
 10
927.335230
 20
980.137447
 11
926.225919
 21
980.805048
  0
LINE
  8
CSLAYER1
  6
DOT
 62
     5
 10
926.225919
 20
980.805048
 11
924.940830
 21
981.346578
  0
LINE
  8
CSLAYER1
  6
DOT
 62
     5
 10
924.940830
 20
981.346578
 11
923.519011
 21
981.745584
  0
LINE
  8
CSLAYER1
  6
DOT
 62
     5
 10
923.519011
 20
981.745584
 11
922.003664
 21
981.989943
  0
LINE
  8
CSLAYER1
  6
DOT
 62
     5
 10
922.003664
 20
981.989943
 11
920.440830
 21
982.072229
  0
LINE
  8
CSLAYER1
  6
DOT
 62
     5
 10
920.440830
 20
982.072229
 11
918.877996
 21
981.989943
  0
LINE
  8
CSLAYER1
  6
DOT
 62
     5
 10
918.877996
 20
981.989943
 11
917.362649
 21
981.745584
  0
LINE
  8
CSLAYER1
  6
DOT
 62
     5
 10
917.362649
 20
981.745584
 11
915.940830
 21
981.346578
  0
LINE
  8
CSLAYER1
  6
DOT
 62
     5
 10
915.940830
 20
981.346578
 11
914.655742
 21
980.805048
  0
LINE
  8
CSLAYER1
  6
DOT
 62
     5
 10
914.655742
 20
980.805048
 11
913.546430
 21
980.137447
  0
LINE
  8
CSLAYER1
  6
DOT
 62
     5
 10
913.546430
 20
980.137447
 11
912.646601
 21
979.364062
  0
LINE
  8
CSLAYER1
  6
DOT
 62
     5
 10
912.646601
 20
979.364062
 11
911.983596
 21
978.508390
  0
LINE
  8
CSLAYER1
  6
DOT
 62
     5
 10
911.983596
 20
978.508390
 11
911.577560
 21
977.596431
  0
LINE
  8
CSLAYER1
  6
DOT
 62
     5
 10
911.577560
 20
977.596431
 11
911.440830
 21
976.655894
  0
LINE
  8
CSLAYER1
  6
DOT
 62
     5
 10
911.440830
 20
976.655894
 11
911.577560
 21
975.715357
  0
LINE
  8
CSLAYER1
  6
DOT
 62
     5
 10
911.577560
 20
975.715357
 11
911.983596
 21
974.803398
  0
LINE
  8
CSLAYER1
  6
DOT
 62
     5
 10
911.983596
 20
974.803398
 11
912.646601
 21
973.947727
  0
LINE
  8
CSLAYER1
  6
DOT
 62
     5
 10
912.646601
 20
973.947727
 11
913.546430
 21
973.174341
  0
LINE
  8
CSLAYER1
  6
DOT
 62
     5
 10
913.546430
 20
973.174341
 11
914.655742
 21
972.506741
  0
LINE
  8
CSLAYER1
  6
DOT
 62
     5
 10
914.655742
 20
972.506741
 11
915.940830
 21
971.965210
  0
LINE
  8
CSLAYER1
  6
DOT
 62
     5
 10
915.940830
 20
971.965210
 11
917.362649
 21
971.566204
  0
LINE
  8
CSLAYER1
  6
DOT
 62
     5
 10
917.362649
 20
971.566204
 11
918.877996
 21
971.321845
  0
LINE
  8
CSLAYER1
  6
DOT
 62
     5
 10
918.877996
 20
971.321845
 11
920.440830
 21
971.239559
  0
LINE
  8
CSLAYER1
  6
DOT
 62
     5
 10
920.440830
 20
971.239559
 11
922.003664
 21
971.321845
  0
LINE
  8
CSLAYER1
  6
DOT
 62
     5
 10
922.003664
 20
971.321845
 11
923.519011
 21
971.566204
  0
LINE
  8
CSLAYER1
  6
DOT
 62
     5
 10
923.519011
 20
971.566204
 11
924.940830
 21
971.965210
  0
LINE
  8
CSLAYER1
  6
DOT
 62
     5
 10
924.940830
 20
971.965210
 11
926.225919
 21
972.506741
  0
LINE
  8
CSLAYER1
  6
DOT
 62
     5
 10
926.225919
 20
972.506741
 11
927.335230
 21
973.174341
  0
LINE
  8
CSLAYER1
  6
DOT
 62
     5
 10
927.335230
 20
973.174341
 11
928.235059
 21
973.947727
  0
LINE
  8
CSLAYER1
  6
DOT
 62
     5
 10
928.235059
 20
973.947727
 11
928.898064
 21
974.803398
  0
LINE
  8
CSLAYER1
  6
DOT
 62
     5
 10
928.898064
 20
974.803398
 11
929.304100
 21
975.715357
  0
LINE
  8
CSLAYER1
  6
DOT
 62
     5
 10
929.304100
 20
975.715357
 11
929.440830
 21
976.655894
  0
LINE
  8
CSLAYER1
  6
DOT
 62
     5
 10
929.440830
 20
982.072229
 11
929.304100
 21
983.012766
  0
LINE
  8
CSLAYER1
  6
DOT
 62
     5
 10
929.304100
 20
983.012766
 11
928.898064
 21
983.924725
  0
LINE
  8
CSLAYER1
  6
DOT
 62
     5
 10
928.898064
 20
983.924725
 11
928.235059
 21
984.780397
  0
LINE
  8
CSLAYER1
  6
DOT
 62
     5
 10
928.235059
 20
984.780397
 11
927.335230
 21
985.553782
  0
LINE
  8
CSLAYER1
  6
DOT
 62
     5
 10
927.335230
 20
985.553782
 11
926.225919
 21
986.221383
  0
LINE
  8
CSLAYER1
  6
DOT
 62
     5
 10
926.225919
 20
986.221383
 11
924.940830
 21
986.762913
  0
LINE
  8
CSLAYER1
  6
DOT
 62
     5
 10
924.940830
 20
986.762913
 11
923.519011
 21
987.161920
  0
LINE
  8
CSLAYER1
  6
DOT
 62
     5
 10
923.519011
 20
987.161920
 11
922.003664
 21
987.406278
  0
LINE
  8
CSLAYER1
  6
DOT
 62
     5
 10
922.003664
 20
987.406278
 11
920.440830
 21
987.488565
  0
LINE
  8
CSLAYER1
  6
DOT
 62
     5
 10
920.440830
 20
987.488565
 11
918.877996
 21
987.406278
  0
LINE
  8
CSLAYER1
  6
DOT
 62
     5
 10
918.877996
 20
987.406278
 11
917.362649
 21
987.161920
  0
LINE
  8
CSLAYER1
  6
DOT
 62
     5
 10
917.362649
 20
987.161920
 11
915.940830
 21
986.762913
  0
LINE
  8
CSLAYER1
  6
DOT
 62
     5
 10
915.940830
 20
986.762913
 11
914.655742
 21
986.221383
  0
LINE
  8
CSLAYER1
  6
DOT
 62
     5
 10
914.655742
 20
986.221383
 11
913.546430
 21
985.553782
  0
LINE
  8
CSLAYER1
  6
DOT
 62
     5
 10
913.546430
 20
985.553782
 11
912.646601
 21
984.780397
  0
LINE
  8
CSLAYER1
  6
DOT
 62
     5
 10
912.646601
 20
984.780397
 11
911.983596
 21
983.924725
  0
LINE
  8
CSLAYER1
  6
DOT
 62
     5
 10
911.983596
 20
983.924725
 11
911.577560
 21
983.012766
  0
LINE
  8
CSLAYER1
  6
DOT
 62
     5
 10
911.577560
 20
983.012766
 11
911.440830
 21
982.072229
  0
LINE
  8
CSLAYER1
  6
DOT
 62
     5
 10
929.440830
 20
982.072229
 11
929.440830
 21
976.183829
  0
LINE
  8
CSLAYER1
  6
DOT
 62
     5
 10
911.440830
 20
982.072229
 11
911.440830
 21
976.183829
  0
LINE
  8
CSLAYER1
  6
DOT
 62
     5
 10
911.311409
 20
878.251906
 11
926.870247
 21
878.251906
  0
LINE
  8
CSLAYER1
  6
DOT
 62
     5
 10
918.940830
 20
869.566416
 11
918.940830
 21
887.390105
  0
LINE
  8
CSLAYER1
  6
DOT
 62
     5
 10
909.406260
 20
808.251906
 11
927.440830
 21
808.251906
  0
LINE
  8
CSLAYER1
  6
DOT
 62
     5
 10
909.406260
 20
889.751906
 11
927.440830
 21
889.751906
  0
LINE
  8
CSLAYER1
  6
DOT
 62
     5
 10
930.440830
 20
886.751906
 11
930.440830
 21
793.350694
  0
LINE
  8
CSLAYER1
  6
DOT
 62
     5
 10
909.406260
 20
790.350694
 11
909.406260
 21
889.751906
  0
LINE
  8
CSLAYER1
  6
DOT
 62
     5
 10
905.440830
 20
823.761451
 11
909.406260
 21
823.761451
  0
CIRCLE
  8
CSLAYER1
  6
DOT
 62
     5
 10
918.940830
 20
878.251906
 40
6.250000
  0
LINE
  8
CSLAYER1
  6
DOT
 62
     5
 10
905.440830
 20
850.742362
 11
909.406260
 21
850.742362
  0
ARC
  8
CSLAYER1
  6
DOT
 62
     5
 10
927.440830
 20
811.251906
 40
3.000000
 50
270.000000
 51
360.000000
  0
ARC
  8
CSLAYER1
  6
DOT
 62
     5
 10
927.440830
 20
886.751906
 40
3.000000
 50
0.000000
 51
90.000000
  0
LINE
  8
CSLAYER1
  6
DOT
 62
     5
 10
897.440830
 20
832.821090
 11
897.440830
 21
940.123143
  0
LINE
  8
CSLAYER1
  6
DOT
 62
     5
 10
877.440830
 20
844.495173
 11
877.440830
 21
952.609468
  0
LINE
  8
CSLAYER1
  6
DOT
 62
     5
 10
870.440830
 20
846.681327
 11
870.440830
 21
954.942690
  0
LINE
  8
CSLAYER1
  6
DOT
 62
     5
 10
862.440830
 20
848.425234
 11
862.440830
 21
956.787319
  0
LINE
  8
CSLAYER1
  6
DOT
 62
     5
 10
909.406260
 20
790.350694
 11
927.440830
 21
790.350694
  0
ARC
  8
CSLAYER1
  6
DOT
 62
     5
 10
927.440830
 20
793.350694
 40
3.000000
 50
270.000000
 51
360.000000
  0
LINE
  8
CSLAYER1
  6
DOT
 62
     5
 10
790.440830
 20
944.535802
 11
779.440830
 21
944.535802
  0
LINE
  8
CSLAYER1
  6
DOT
 62
     5
 10
779.440830
 20
1051.591158
 11
779.440830
 21
1019.608657
  0
LINE
  8
CSLAYER1
  6
DOT
 62
     5
 10
778.252588
 20
1050.877520
 11
741.866515
 21
1029.024669
  0
LINE
  8
CSLAYER1
  6
DOT
 62
     5
 10
778.252588
 20
1018.895019
 11
741.866515
 21
997.042168
  0
LINE
  8
CSLAYER1
  6
DOT
 62
     5
 10
779.440830
 20
944.492790
 11
741.863130
 21
967.101719
  0
LINE
  8
CSLAYER1
  6
DOT
 62
     5
 10
791.440830
 20
976.518303
 11
791.440830
 21
830.866987
  0
LINE
  8
CSLAYER1
  6
DOT
 62
     5
 10
785.440830
 20
922.105039
 11
785.440830
 21
821.780908
  0
LINE
  8
CSLAYER1
  6
DOT
 62
     5
 10
783.440830
 20
812.564972
 11
783.440830
 21
760.593407
  0
LINE
  8
CSLAYER1
  6
DOT
 62
     5
 10
845.440830
 20
1004.175928
 11
840.734420
 21
1004.052263
  0
LINE
  8
CSLAYER1
  6
DOT
 62
     5
 10
840.734420
 20
1004.052263
 11
836.063828
 21
1003.682210
  0
LINE
  8
CSLAYER1
  6
DOT
 62
     5
 10
836.063828
 20
1003.682210
 11
831.464602
 21
1003.068585
  0
LINE
  8
CSLAYER1
  6
DOT
 62
     5
 10
831.464602
 20
1003.068585
 11
826.971742
 21
1002.216058
  0
LINE
  8
CSLAYER1
  6
DOT
 62
     5
 10
826.971742
 20
1002.216058
 11
822.619444
 21
1001.131117
  0
LINE
  8
CSLAYER1
  6
DOT
 62
     5
 10
822.619444
 20
1001.131117
 11
818.440830
 21
999.822020
  0
LINE
  8
CSLAYER1
  6
DOT
 62
     5
 10
818.440830
 20
999.822020
 11
814.467702
 21
998.298729
  0
LINE
  8
CSLAYER1
  6
DOT
 62
     5
 10
814.467702
 20
998.298729
 11
810.730299
 21
996.572837
  0
LINE
  8
CSLAYER1
  6
DOT
 62
     5
 10
810.730299
 20
996.572837
 11
807.257064
 21
994.657480
  0
LINE
  8
CSLAYER1
  6
DOT
 62
     5
 10
807.257064
 20
994.657480
 11
804.074430
 21
992.567235
  0
LINE
  8
CSLAYER1
  6
DOT
 62
     5
 10
804.074430
 20
992.567235
 11
801.206620
 21
990.318010
  0
LINE
  8
CSLAYER1
  6
DOT
 62
     5
 10
801.206620
 20
990.318010
 11
798.675458
 21
987.926922
  0
LINE
  8
CSLAYER1
  6
DOT
 62
     5
 10
798.675458
 20
987.926922
 11
796.500210
 21
985.412169
  0
LINE
  8
CSLAYER1
  6
DOT
 62
     5
 10
796.500210
 20
985.412169
 11
794.697429
 21
982.792891
  0
LINE
  8
CSLAYER1
  6
DOT
 62
     5
 10
794.697429
 20
982.792891
 11
793.280835
 21
980.089021
  0
LINE
  8
CSLAYER1
  6
DOT
 62
     5
 10
793.280835
 20
980.089021
 11
792.261211
 21
977.321137
  0
LINE
  8
CSLAYER1
  6
DOT
 62
     5
 10
792.261211
 20
977.321137
 11
791.646316
 21
974.510305
  0
LINE
  8
CSLAYER1
  6
DOT
 62
     5
 10
791.646316
 20
974.510305
 11
791.440830
 21
971.677916
  0
LINE
  8
CSLAYER1
  6
DOT
 62
     5
 10
791.440830
 20
971.677916
 11
791.646316
 21
968.845528
  0
LINE
  8
CSLAYER1
  6
DOT
 62
     5
 10
845.440830
 20
958.213940
 11
840.211485
 21
958.076535
  0
LINE
  8
CSLAYER1
  6
DOT
 62
     5
 10
840.211485
 20
958.076535
 11
835.021939
 21
957.665365
  0
LINE
  8
CSLAYER1
  6
DOT
 62
     5
 10
835.021939
 20
957.665365
 11
829.911687
 21
956.983559
  0
LINE
  8
CSLAYER1
  6
DOT
 62
     5
 10
829.911687
 20
956.983559
 11
824.919621
 21
956.036307
  0
LINE
  8
CSLAYER1
  6
DOT
 62
     5
 10
824.919621
 20
956.036307
 11
820.083734
 21
954.830818
  0
LINE
  8
CSLAYER1
  6
DOT
 62
     5
 10
820.083734
 20
954.830818
 11
815.440830
 21
953.376265
  0
LINE
  8
CSLAYER1
  6
DOT
 62
     5
 10
815.440830
 20
953.376265
 11
811.026244
 21
951.683719
  0
LINE
  8
CSLAYER1
  6
DOT
 62
     5
 10
811.026244
 20
951.683719
 11
806.873573
 21
949.766062
  0
LINE
  8
CSLAYER1
  6
DOT
 62
     5
 10
806.873573
 20
949.766062
 11
803.014423
 21
947.637888
  0
LINE
  8
CSLAYER1
  6
DOT
 62
     5
 10
803.014423
 20
947.637888
 11
799.478163
 21
945.315393
  0
LINE
  8
CSLAYER1
  6
DOT
 62
     5
 10
799.478163
 20
945.315393
 11
796.291707
 21
942.816254
  0
LINE
  8
CSLAYER1
  6
DOT
 62
     5
 10
796.291707
 20
942.816254
 11
793.479306
 21
940.159490
  0
LINE
  8
CSLAYER1
  6
DOT
 62
     5
 10
793.479306
 20
940.159490
 11
791.062363
 21
937.365320
  0
LINE
  8
CSLAYER1
  6
DOT
 62
     5
 10
791.062363
 20
937.365320
 11
789.059273
 21
934.455011
  0
LINE
  8
CSLAYER1
  6
DOT
 62
     5
 10
789.059273
 20
934.455011
 11
787.485280
 21
931.450710
  0
LINE
  8
CSLAYER1
  6
DOT
 62
     5
 10
787.485280
 20
931.450710
 11
786.352365
 21
928.375284
  0
LINE
  8
CSLAYER1
  6
DOT
 62
     5
 10
786.352365
 20
928.375284
 11
785.669148
 21
925.252137
  0
LINE
  8
CSLAYER1
  6
DOT
 62
     5
 10
785.669148
 20
925.252137
 11
785.440830
 21
922.105039
  0
LINE
  8
CSLAYER1
  6
DOT
 62
     5
 10
785.440830
 20
922.105039
 11
785.669148
 21
918.957941
  0
LINE
  8
CSLAYER1
  6
DOT
 62
     5
 10
845.440830
 20
849.877503
 11
840.037174
 21
849.735518
  0
LINE
  8
CSLAYER1
  6
DOT
 62
     5
 10
840.037174
 20
849.735518
 11
834.674643
 21
849.310642
  0
LINE
  8
CSLAYER1
  6
DOT
 62
     5
 10
834.674643
 20
849.310642
 11
829.394049
 21
848.606109
  0
LINE
  8
CSLAYER1
  6
DOT
 62
     5
 10
829.394049
 20
848.606109
 11
824.235581
 21
847.627282
  0
LINE
  8
CSLAYER1
  6
DOT
 62
     5
 10
824.235581
 20
847.627282
 11
819.238498
 21
846.381609
  0
LINE
  8
CSLAYER1
  6
DOT
 62
     5
 10
819.238498
 20
846.381609
 11
814.440830
 21
844.878572
  0
LINE
  8
CSLAYER1
  6
DOT
 62
     5
 10
814.440830
 20
844.878572
 11
809.879091
 21
843.129608
  0
LINE
  8
CSLAYER1
  6
DOT
 62
     5
 10
809.879091
 20
843.129608
 11
805.587998
 21
841.148029
  0
LINE
  8
CSLAYER1
  6
DOT
 62
     5
 10
805.587998
 20
841.148029
 11
801.600210
 21
838.948916
  0
LINE
  8
CSLAYER1
  6
DOT
 62
     5
 10
801.600210
 20
838.948916
 11
797.946075
 21
836.549004
  0
LINE
  8
CSLAYER1
  6
DOT
 62
     5
 10
797.946075
 20
836.549004
 11
794.653403
 21
833.966560
  0
LINE
  8
CSLAYER1
  6
DOT
 62
     5
 10
794.653403
 20
833.966560
 11
791.747255
 21
831.221237
  0
LINE
  8
CSLAYER1
  6
DOT
 62
     5
 10
791.747255
 20
831.221237
 11
789.249747
 21
828.333929
  0
LINE
  8
CSLAYER1
  6
DOT
 62
     5
 10
789.249747
 20
828.333929
 11
787.179888
 21
825.326609
  0
LINE
  8
CSLAYER1
  6
DOT
 62
     5
 10
787.179888
 20
825.326609
 11
785.553429
 21
822.222165
  0
LINE
  8
CSLAYER1
  6
DOT
 62
     5
 10
785.553429
 20
822.222165
 11
784.382749
 21
819.044225
  0
LINE
  8
CSLAYER1
  6
DOT
 62
     5
 10
784.382749
 20
819.044225
 11
783.676759
 21
815.816973
  0
LINE
  8
CSLAYER1
  6
DOT
 62
     5
 10
783.676759
 20
815.816973
 11
783.440830
 21
812.564972
  0
LINE
  8
CSLAYER1
  6
DOT
 62
     5
 10
845.440830
 20
797.905938
 11
840.037174
 21
797.763953
  0
LINE
  8
CSLAYER1
  6
DOT
 62
     5
 10
840.037174
 20
797.763953
 11
834.674643
 21
797.339077
  0
LINE
  8
CSLAYER1
  6
DOT
 62
     5
 10
834.674643
 20
797.339077
 11
829.394049
 21
796.634544
  0
LINE
  8
CSLAYER1
  6
DOT
 62
     5
 10
829.394049
 20
796.634544
 11
824.235581
 21
795.655717
  0
LINE
  8
CSLAYER1
  6
DOT
 62
     5
 10
824.235581
 20
795.655717
 11
819.238498
 21
794.410044
  0
LINE
  8
CSLAYER1
  6
DOT
 62
     5
 10
819.238498
 20
794.410044
 11
814.440830
 21
792.907007
  0
LINE
  8
CSLAYER1
  6
DOT
 62
     5
 10
814.440830
 20
792.907007
 11
809.879091
 21
791.158043
  0
LINE
  8
CSLAYER1
  6
DOT
 62
     5
 10
809.879091
 20
791.158043
 11
805.587998
 21
789.176464
  0
LINE
  8
CSLAYER1
  6
DOT
 62
     5
 10
805.587998
 20
789.176464
 11
801.600210
 21
786.977351
  0
LINE
  8
CSLAYER1
  6
DOT
 62
     5
 10
801.600210
 20
786.977351
 11
797.946075
 21
784.577440
  0
LINE
  8
CSLAYER1
  6
DOT
 62
     5
 10
797.946075
 20
784.577440
 11
794.653403
 21
781.994995
  0
LINE
  8
CSLAYER1
  6
DOT
 62
     5
 10
794.653403
 20
781.994995
 11
791.747255
 21
779.249672
  0
LINE
  8
CSLAYER1
  6
DOT
 62
     5
 10
791.747255
 20
779.249672
 11
789.249747
 21
776.362364
  0
LINE
  8
CSLAYER1
  6
DOT
 62
     5
 10
789.249747
 20
776.362364
 11
787.179888
 21
773.355044
  0
LINE
  8
CSLAYER1
  6
DOT
 62
     5
 10
787.179888
 20
773.355044
 11
785.553429
 21
770.250600
  0
LINE
  8
CSLAYER1
  6
DOT
 62
     5
 10
785.553429
 20
770.250600
 11
784.382749
 21
767.072660
  0
LINE
  8
CSLAYER1
  6
DOT
 62
     5
 10
784.382749
 20
767.072660
 11
783.676759
 21
763.845408
  0
LINE
  8
CSLAYER1
  6
DOT
 62
     5
 10
783.676759
 20
763.845408
 11
783.440830
 21
760.593407
  0
LINE
  8
CSLAYER1
  6
DOT
 62
     5
 10
783.440830
 20
760.593407
 11
783.676759
 21
757.341405
  0
LINE
  8
CSLAYER1
  6
DOT
 62
     5
 10
783.676759
 20
757.341405
 11
784.382749
 21
754.114154
  0
LINE
  8
CSLAYER1
  6
DOT
 62
     5
 10
784.382749
 20
754.114154
 11
785.553429
 21
750.936213
  0
LINE
  8
CSLAYER1
  6
DOT
 62
     5
 10
785.553429
 20
750.936213
 11
787.179888
 21
747.831769
  0
LINE
  8
CSLAYER1
  6
DOT
 62
     5
 10
787.179888
 20
747.831769
 11
789.249747
 21
744.824449
  0
LINE
  8
CSLAYER1
  6
DOT
 62
     5
 10
789.249747
 20
744.824449
 11
791.747255
 21
741.937141
  0
LINE
  8
CSLAYER1
  6
DOT
 62
     5
 10
791.747255
 20
741.937141
 11
794.653403
 21
739.191818
  0
LINE
  8
CSLAYER1
  6
DOT
 62
     5
 10
794.653403
 20
739.191818
 11
797.946075
 21
736.609374
  0
LINE
  8
CSLAYER1
  6
DOT
 62
     5
 10
797.946075
 20
736.609374
 11
801.600210
 21
734.209463
  0
LINE
  8
CSLAYER1
  6
DOT
 62
     5
 10
801.600210
 20
734.209463
 11
805.587998
 21
732.010349
  0
LINE
  8
CSLAYER1
  6
DOT
 62
     5
 10
805.587998
 20
732.010349
 11
809.879091
 21
730.028770
  0
LINE
  8
CSLAYER1
  6
DOT
 62
     5
 10
809.879091
 20
730.028770
 11
814.440830
 21
728.279807
  0
LINE
  8
CSLAYER1
  6
DOT
 62
     5
 10
814.440830
 20
728.279807
 11
819.238498
 21
726.776769
  0
LINE
  8
CSLAYER1
  6
DOT
 62
     5
 10
819.238498
 20
726.776769
 11
824.235581
 21
725.531096
  0
LINE
  8
CSLAYER1
  6
DOT
 62
     5
 10
824.235581
 20
725.531096
 11
829.394049
 21
724.552269
  0
LINE
  8
CSLAYER1
  6
DOT
 62
     5
 10
829.394049
 20
724.552269
 11
834.674643
 21
723.847736
  0
LINE
  8
CSLAYER1
  6
DOT
 62
     5
 10
834.674643
 20
723.847736
 11
840.037174
 21
723.422861
  0
LINE
  8
CSLAYER1
  6
DOT
 62
     5
 10
840.037174
 20
723.422861
 11
845.440830
 21
723.280875
  0
LINE
  8
CSLAYER1
  6
DOT
 62
     5
 10
790.440830
 20
1009.788581
 11
790.440830
 21
936.462289
  0
ARC
  8
CSLAYER1
  6
DOT
 62
     5
 10
795.440830
 20
1009.788581
 40
5.000000
 50
90.000000
 51
180.000000
  0
ARC
  8
CSLAYER1
  6
DOT
 62
     5
 10
795.440830
 20
1001.455715
 40
5.000000
 50
90.000000
 51
180.000000
  0
ARC
  8
CSLAYER1
  6
DOT
 62
     5
 10
780.826903
 20
1046.591158
 40
5.000000
 50
90.000000
 51
120.988305
  0
ARC
  8
CSLAYER1
  6
DOT
 62
     5
 10
780.826903
 20
1014.608657
 40
5.000000
 50
90.000000
 51
120.988305
  0
ARC
  8
CSLAYER1
  6
DOT
 62
     5
 10
744.440830
 20
1024.738307
 40
5.000000
 50
120.988305
 51
180.000000
  0
ARC
  8
CSLAYER1
  6
DOT
 62
     5
 10
744.440830
 20
992.755806
 40
5.000000
 50
120.988305
 51
180.000000
  0
ARC
  8
CSLAYER1
  6
DOT
 62
     5
 10
744.440830
 20
971.386046
 40
5.000000
 50
180.000000
 51
238.966439
  0
LINE
  8
CSLAYER1
  6
DOT
 62
     5
 10
761.440830
 20
976.655894
 11
761.577560
 21
977.596431
  0
LINE
  8
CSLAYER1
  6
DOT
 62
     5
 10
761.577560
 20
977.596431
 11
761.983596
 21
978.508390
  0
LINE
  8
CSLAYER1
  6
DOT
 62
     5
 10
761.983596
 20
978.508390
 11
762.646601
 21
979.364062
  0
LINE
  8
CSLAYER1
  6
DOT
 62
     5
 10
762.646601
 20
979.364062
 11
763.546430
 21
980.137447
  0
LINE
  8
CSLAYER1
  6
DOT
 62
     5
 10
763.546430
 20
980.137447
 11
764.655742
 21
980.805048
  0
LINE
  8
CSLAYER1
  6
DOT
 62
     5
 10
764.655742
 20
980.805048
 11
765.940830
 21
981.346578
  0
LINE
  8
CSLAYER1
  6
DOT
 62
     5
 10
765.940830
 20
981.346578
 11
767.362649
 21
981.745584
  0
LINE
  8
CSLAYER1
  6
DOT
 62
     5
 10
767.362649
 20
981.745584
 11
768.877996
 21
981.989943
  0
LINE
  8
CSLAYER1
  6
DOT
 62
     5
 10
768.877996
 20
981.989943
 11
770.440830
 21
982.072229
  0
LINE
  8
CSLAYER1
  6
DOT
 62
     5
 10
770.440830
 20
982.072229
 11
772.003664
 21
981.989943
  0
LINE
  8
CSLAYER1
  6
DOT
 62
     5
 10
772.003664
 20
981.989943
 11
773.519011
 21
981.745584
  0
LINE
  8
CSLAYER1
  6
DOT
 62
     5
 10
773.519011
 20
981.745584
 11
774.940830
 21
981.346578
  0
LINE
  8
CSLAYER1
  6
DOT
 62
     5
 10
774.940830
 20
981.346578
 11
776.225919
 21
980.805048
  0
LINE
  8
CSLAYER1
  6
DOT
 62
     5
 10
776.225919
 20
980.805048
 11
777.335230
 21
980.137447
  0
LINE
  8
CSLAYER1
  6
DOT
 62
     5
 10
777.335230
 20
980.137447
 11
778.235059
 21
979.364062
  0
LINE
  8
CSLAYER1
  6
DOT
 62
     5
 10
778.235059
 20
979.364062
 11
778.898064
 21
978.508390
  0
LINE
  8
CSLAYER1
  6
DOT
 62
     5
 10
778.898064
 20
978.508390
 11
779.304100
 21
977.596431
  0
LINE
  8
CSLAYER1
  6
DOT
 62
     5
 10
779.304100
 20
977.596431
 11
779.440830
 21
976.655894
  0
LINE
  8
CSLAYER1
  6
DOT
 62
     5
 10
779.440830
 20
976.655894
 11
779.304100
 21
975.715357
  0
LINE
  8
CSLAYER1
  6
DOT
 62
     5
 10
779.304100
 20
975.715357
 11
778.898064
 21
974.803398
  0
LINE
  8
CSLAYER1
  6
DOT
 62
     5
 10
778.898064
 20
974.803398
 11
778.235059
 21
973.947727
  0
LINE
  8
CSLAYER1
  6
DOT
 62
     5
 10
778.235059
 20
973.947727
 11
777.335230
 21
973.174341
  0
LINE
  8
CSLAYER1
  6
DOT
 62
     5
 10
777.335230
 20
973.174341
 11
776.225919
 21
972.506741
  0
LINE
  8
CSLAYER1
  6
DOT
 62
     5
 10
776.225919
 20
972.506741
 11
774.940830
 21
971.965210
  0
LINE
  8
CSLAYER1
  6
DOT
 62
     5
 10
774.940830
 20
971.965210
 11
773.519011
 21
971.566204
  0
LINE
  8
CSLAYER1
  6
DOT
 62
     5
 10
773.519011
 20
971.566204
 11
772.003664
 21
971.321845
  0
LINE
  8
CSLAYER1
  6
DOT
 62
     5
 10
772.003664
 20
971.321845
 11
770.440830
 21
971.239559
  0
LINE
  8
CSLAYER1
  6
DOT
 62
     5
 10
770.440830
 20
971.239559
 11
768.877996
 21
971.321845
  0
LINE
  8
CSLAYER1
  6
DOT
 62
     5
 10
768.877996
 20
971.321845
 11
767.362649
 21
971.566204
  0
LINE
  8
CSLAYER1
  6
DOT
 62
     5
 10
767.362649
 20
971.566204
 11
765.940830
 21
971.965210
  0
LINE
  8
CSLAYER1
  6
DOT
 62
     5
 10
765.940830
 20
971.965210
 11
764.655742
 21
972.506741
  0
LINE
  8
CSLAYER1
  6
DOT
 62
     5
 10
764.655742
 20
972.506741
 11
763.546430
 21
973.174341
  0
LINE
  8
CSLAYER1
  6
DOT
 62
     5
 10
763.546430
 20
973.174341
 11
762.646601
 21
973.947727
  0
LINE
  8
CSLAYER1
  6
DOT
 62
     5
 10
762.646601
 20
973.947727
 11
761.983596
 21
974.803398
  0
LINE
  8
CSLAYER1
  6
DOT
 62
     5
 10
761.983596
 20
974.803398
 11
761.577560
 21
975.715357
  0
LINE
  8
CSLAYER1
  6
DOT
 62
     5
 10
761.577560
 20
975.715357
 11
761.440830
 21
976.655894
  0
LINE
  8
CSLAYER1
  6
DOT
 62
     5
 10
761.440830
 20
982.072229
 11
761.577560
 21
983.012766
  0
LINE
  8
CSLAYER1
  6
DOT
 62
     5
 10
761.577560
 20
983.012766
 11
761.983596
 21
983.924725
  0
LINE
  8
CSLAYER1
  6
DOT
 62
     5
 10
761.983596
 20
983.924725
 11
762.646601
 21
984.780397
  0
LINE
  8
CSLAYER1
  6
DOT
 62
     5
 10
762.646601
 20
984.780397
 11
763.546430
 21
985.553782
  0
LINE
  8
CSLAYER1
  6
DOT
 62
     5
 10
763.546430
 20
985.553782
 11
764.655742
 21
986.221383
  0
LINE
  8
CSLAYER1
  6
DOT
 62
     5
 10
764.655742
 20
986.221383
 11
765.940830
 21
986.762913
  0
LINE
  8
CSLAYER1
  6
DOT
 62
     5
 10
765.940830
 20
986.762913
 11
767.362649
 21
987.161920
  0
LINE
  8
CSLAYER1
  6
DOT
 62
     5
 10
767.362649
 20
987.161920
 11
768.877996
 21
987.406278
  0
LINE
  8
CSLAYER1
  6
DOT
 62
     5
 10
768.877996
 20
987.406278
 11
770.440830
 21
987.488565
  0
LINE
  8
CSLAYER1
  6
DOT
 62
     5
 10
770.440830
 20
987.488565
 11
772.003664
 21
987.406278
  0
LINE
  8
CSLAYER1
  6
DOT
 62
     5
 10
772.003664
 20
987.406278
 11
773.519011
 21
987.161920
  0
LINE
  8
CSLAYER1
  6
DOT
 62
     5
 10
773.519011
 20
987.161920
 11
774.940830
 21
986.762913
  0
LINE
  8
CSLAYER1
  6
DOT
 62
     5
 10
774.940830
 20
986.762913
 11
776.225919
 21
986.221383
  0
LINE
  8
CSLAYER1
  6
DOT
 62
     5
 10
776.225919
 20
986.221383
 11
777.335230
 21
985.553782
  0
LINE
  8
CSLAYER1
  6
DOT
 62
     5
 10
777.335230
 20
985.553782
 11
778.235059
 21
984.780397
  0
LINE
  8
CSLAYER1
  6
DOT
 62
     5
 10
778.235059
 20
984.780397
 11
778.898064
 21
983.924725
  0
LINE
  8
CSLAYER1
  6
DOT
 62
     5
 10
778.898064
 20
983.924725
 11
779.304100
 21
983.012766
  0
LINE
  8
CSLAYER1
  6
DOT
 62
     5
 10
779.304100
 20
983.012766
 11
779.440830
 21
982.072229
  0
LINE
  8
CSLAYER1
  6
DOT
 62
     5
 10
761.440830
 20
982.072229
 11
761.440830
 21
976.183829
  0
LINE
  8
CSLAYER1
  6
DOT
 62
     5
 10
779.440830
 20
982.072229
 11
779.440830
 21
976.183829
  0
LINE
  8
CSLAYER1
  6
DOT
 62
     5
 10
793.440830
 20
832.821090
 11
793.440830
 21
940.123143
  0
LINE
  8
CSLAYER1
  6
DOT
 62
     5
 10
813.440830
 20
844.495173
 11
813.440830
 21
952.609468
  0
LINE
  8
CSLAYER1
  6
DOT
 62
     5
 10
820.440830
 20
846.681327
 11
820.440830
 21
954.942690
  0
LINE
  8
CSLAYER1
  6
DOT
 62
     5
 10
828.440830
 20
848.425234
 11
828.440830
 21
956.787319
  0
LINE
  8
CSLAYER1
  6
DOT
 62
     5
 10
755.440830
 20
682.734293
 11
755.440830
 21
649.234293
  0
LINE
  8
CSLAYER1
  6
DOT
 62
     5
 10
753.440830
 20
682.734293
 11
753.440830
 21
688.734293
  0
LINE
  8
CSLAYER1
  6
DOT
 62
     5
 10
753.440830
 20
688.734293
 11
928.590896
 21
688.734293
  0
LINE
  8
CSLAYER1
  6
CONTINUOUS
 62
     1
 10
925.940830
 20
691.734293
 11
925.940830
 21
689.534293
  0
LINE
  8
CSLAYER1
  6
DOT
 62
     5
 10
928.810308
 20
690.534293
 11
925.940830
 21
690.534293
  0
LINE
  8
CSLAYER1
  6
DOT
 62
     5
 10
931.140830
 20
693.134293
 11
927.340830
 21
693.134293
  0
LINE
  8
CSLAYER1
  6
CONTINUOUS
 62
     1
 10
924.940830
 20
689.534293
 11
924.940830
 21
688.734293
  0
LINE
  8
CSLAYER1
  6
DOT
 62
     5
 10
928.688412
 20
689.534293
 11
924.940830
 21
689.534293
  0
ARC
  8
CSLAYER1
  6
CONTINUOUS
 62
     1
 10
927.340830
 20
691.734293
 40
1.400000
 50
90.000000
 51
180.000000
  0
LINE
  8
CSLAYER1
  6
CONTINUOUS
 62
     1
 10
928.775558
 20
690.249211
 11
928.095580
 21
690.534293
  0
LINE
  8
CSLAYER1
  6
DOT
 62
     5
 10
753.440830
 20
682.734293
 11
927.859520
 21
682.734293
  0
LINE
  8
CSLAYER1
  6
DOT
 62
     5
 10
3013.987599
 20
682.734293
 11
3013.987599
 21
649.234293
  0
LINE
  8
CSLAYER1
  6
DOT
 62
     5
 10
2874.587599
 20
682.734293
 11
2874.587599
 21
649.234293
  0
LINE
  8
CSLAYER1
  6
CONTINUOUS
 62
     5
 10
2944.287599
 20
698.830417
 11
2944.287599
 21
674.410177
  0
LINE
  8
CSLAYER1
  6
DOT
 62
     5
 10
3015.787599
 20
688.734293
 11
2872.787599
 21
688.734293
  0
LINE
  8
CSLAYER1
  6
DOT
 62
     5
 10
3015.787599
 20
688.734293
 11
3015.787599
 21
682.734293
  0
LINE
  8
CSLAYER1
  6
DOT
 62
     5
 10
2872.787599
 20
688.734293
 11
2872.787599
 21
682.734293
  0
LINE
  8
CSLAYER1
  6
DOT
 62
     5
 10
3043.987599
 20
673.034293
 11
3043.987599
 21
656.034293
  0
LINE
  8
CSLAYER1
  6
DOT
 62
     5
 10
3040.018032
 20
677.524674
 11
3025.390162
 21
677.524674
  0
LINE
  8
CSLAYER1
  6
DOT
 62
     5
 10
3040.878504
 20
676.034293
 11
3040.878504
 21
653.034293
  0
LINE
  8
CSLAYER1
  6
DOT
 62
     5
 10
3024.529690
 20
676.034293
 11
3024.529690
 21
653.034293
  0
LINE
  8
CSLAYER1
  6
CONTINUOUS
 62
     5
 10
3040.878504
 20
676.034293
 11
3040.018032
 21
677.524674
  0
LINE
  8
CSLAYER1
  6
CONTINUOUS
 62
     5
 10
3024.529690
 20
676.034293
 11
3025.390162
 21
677.524674
  0
LINE
  8
CSLAYER1
  6
DOT
 62
     5
 10
3040.018032
 20
671.173821
 11
3025.390162
 21
671.173821
  0
ARC
  8
CSLAYER1
  6
DOT
 62
     5
 10
3014.832480
 20
664.534293
 40
26.046025
 50
-14.768561
 51
14.768561
  0
ARC
  8
CSLAYER1
  6
DOT
 62
     5
 10
3034.746911
 20
674.349247
 40
6.153702
 50
-31.065581
 51
23.174644
  0
ARC
  8
CSLAYER1
  6
DOT
 62
     5
 10
3030.661284
 20
674.349247
 40
6.153702
 50
156.825356
 51
211.065581
  0
ARC
  8
CSLAYER1
  6
DOT
 62
     5
 10
3050.575715
 20
664.534293
 40
26.046025
 50
165.231439
 51
194.768561
  0
LINE
  8
CSLAYER1
  6
CONTINUOUS
 62
     5
 10
3040.987599
 20
676.034293
 11
3040.878504
 21
676.034293
  0
ARC
  8
CSLAYER1
  6
CONTINUOUS
 62
     5
 10
3040.987599
 20
673.034293
 40
3.000000
 50
0.000000
 51
90.000000
  0
LINE
  8
CSLAYER1
  6
DOT
 62
     5
 10
3020.987599
 20
676.034293
 11
3020.987599
 21
653.034293
  0
LINE
  8
CSLAYER1
  6
CONTINUOUS
 62
     5
 10
3020.987599
 20
676.034293
 11
3020.127127
 21
677.524674
  0
ARC
  8
CSLAYER1
  6
DOT
 62
     5
 10
2994.941574
 20
664.534293
 40
26.046025
 50
-14.768561
 51
14.768561
  0
ARC
  8
CSLAYER1
  6
DOT
 62
     5
 10
3014.856006
 20
674.349247
 40
6.153702
 50
-31.065581
 51
23.174644
  0
LINE
  8
CSLAYER1
  6
DOT
 62
     5
 10
3020.127127
 20
671.173821
 11
3013.987599
 21
671.173821
  0
LINE
  8
CSLAYER1
  6
DOT
 62
     5
 10
3020.127127
 20
677.524674
 11
3013.987599
 21
677.524674
  0
LINE
  8
CSLAYER1
  6
CONTINUOUS
 62
     5
 10
3024.529690
 20
674.870417
 11
3020.987599
 21
674.870417
  0
LINE
  8
CSLAYER1
  6
CONTINUOUS
 62
     5
 10
3024.529690
 20
674.224039
 11
3022.923329
 21
674.224039
  0
LINE
  8
CSLAYER1
  6
DOT
 62
     5
 10
3022.923329
 20
674.870417
 11
3022.923329
 21
654.198169
  0
LINE
  8
CSLAYER1
  6
CONTINUOUS
 62
     5
 10
3022.923329
 20
674.224039
 11
3021.788477
 21
674.870417
  0
LINE
  8
CSLAYER1
  6
DOT
 62
     5
 10
3040.018032
 20
651.543912
 11
3025.390162
 21
651.543912
  0
LINE
  8
CSLAYER1
  6
CONTINUOUS
 62
     5
 10
3040.878504
 20
653.034293
 11
3040.018032
 21
651.543912
  0
LINE
  8
CSLAYER1
  6
CONTINUOUS
 62
     5
 10
3024.529690
 20
653.034293
 11
3025.390162
 21
651.543912
  0
LINE
  8
CSLAYER1
  6
DOT
 62
     5
 10
3040.018032
 20
657.894765
 11
3025.390162
 21
657.894765
  0
ARC
  8
CSLAYER1
  6
DOT
 62
     5
 10
3034.746911
 20
654.719338
 40
6.153702
 50
-23.174644
 51
31.065581
  0
ARC
  8
CSLAYER1
  6
DOT
 62
     5
 10
3030.661284
 20
654.719338
 40
6.153702
 50
148.934419
 51
203.174644
  0
LINE
  8
CSLAYER1
  6
CONTINUOUS
 62
     5
 10
3040.987599
 20
653.034293
 11
3040.878504
 21
653.034293
  0
ARC
  8
CSLAYER1
  6
CONTINUOUS
 62
     5
 10
3040.987599
 20
656.034293
 40
3.000000
 50
270.000000
 51
360.000000
  0
LINE
  8
CSLAYER1
  6
CONTINUOUS
 62
     5
 10
3020.987599
 20
653.034293
 11
3020.127127
 21
651.543912
  0
ARC
  8
CSLAYER1
  6
DOT
 62
     5
 10
3014.856006
 20
654.719338
 40
6.153702
 50
-23.174644
 51
31.065581
  0
LINE
  8
CSLAYER1
  6
DOT
 62
     5
 10
3020.127127
 20
651.543912
 11
3013.987599
 21
651.543912
  0
LINE
  8
CSLAYER1
  6
CONTINUOUS
 62
     5
 10
3024.529690
 20
654.198169
 11
3020.987599
 21
654.198169
  0
LINE
  8
CSLAYER1
  6
CONTINUOUS
 62
     5
 10
3024.529690
 20
654.844546
 11
3022.923329
 21
654.844546
  0
LINE
  8
CSLAYER1
  6
CONTINUOUS
 62
     5
 10
3022.923329
 20
654.844546
 11
3021.788477
 21
654.198169
  0
LINE
  8
CSLAYER1
  6
CENTER
 62
     5
 10
3047.556634
 20
664.534293
 11
3013.987599
 21
664.534293
  0
LINE
  8
CSLAYER1
  6
CONTINUOUS
 62
     5
 10
3045.612371
 20
668.334293
 11
3043.987599
 21
668.334293
  0
LINE
  8
CSLAYER1
  6
CONTINUOUS
 62
     5
 10
3045.612371
 20
660.734293
 11
3043.987599
 21
660.734293
  0
LINE
  8
CSLAYER1
  6
DOT
 62
     5
 10
3020.127127
 20
657.894765
 11
3013.987599
 21
657.894765
  0
LINE
  8
CSLAYER1
  6
DOT
 62
     5
 10
3015.787599
 20
682.734293
 11
2872.787599
 21
682.734293
  0
LINE
  8
CSLAYER1
  6
CONTINUOUS
 62
     1
 10
757.940830
 20
691.734293
 11
757.940830
 21
689.534293
  0
LINE
  8
CSLAYER1
  6
CONTINUOUS
 62
     1
 10
764.940830
 20
691.734293
 11
764.940830
 21
689.534293
  0
LINE
  8
CSLAYER1
  6
DOT
 62
     5
 10
764.940830
 20
690.534293
 11
757.940830
 21
690.534293
  0
LINE
  8
CSLAYER1
  6
DOT
 62
     5
 10
763.540830
 20
693.134293
 11
759.340830
 21
693.134293
  0
LINE
  8
CSLAYER1
  6
CONTINUOUS
 62
     1
 10
765.940830
 20
689.534293
 11
765.940830
 21
688.734293
  0
LINE
  8
CSLAYER1
  6
CONTINUOUS
 62
     1
 10
756.940830
 20
689.534293
 11
756.940830
 21
688.734293
  0
LINE
  8
CSLAYER1
  6
DOT
 62
     5
 10
765.940830
 20
689.534293
 11
756.940830
 21
689.534293
  0
ARC
  8
CSLAYER1
  6
CONTINUOUS
 62
     1
 10
763.540830
 20
691.734293
 40
1.400000
 50
-0.000000
 51
90.000000
  0
ARC
  8
CSLAYER1
  6
CONTINUOUS
 62
     1
 10
759.340830
 20
691.734293
 40
1.400000
 50
90.000000
 51
180.000000
  0
LINE
  8
CSLAYER1
  6
CONTINUOUS
 62
     1
 10
762.480782
 20
689.534293
 11
760.095580
 21
690.534293
  0
LINE
  8
CSLAYER1
  6
CONTINUOUS
 62
     1
 10
761.440830
 20
694.352916
 11
761.440830
 21
687.117275
  0
LINE
  8
CSLAYER1
  6
CONTINUOUS
 62
     1
 10
2940.787599
 20
691.734293
 11
2940.787599
 21
689.534293
  0
LINE
  8
CSLAYER1
  6
CONTINUOUS
 62
     1
 10
2947.787599
 20
691.734293
 11
2947.787599
 21
689.534293
  0
LINE
  8
CSLAYER1
  6
DOT
 62
     5
 10
2947.787599
 20
690.534293
 11
2940.787599
 21
690.534293
  0
LINE
  8
CSLAYER1
  6
DOT
 62
     5
 10
2946.387599
 20
693.134293
 11
2942.187599
 21
693.134293
  0
LINE
  8
CSLAYER1
  6
CONTINUOUS
 62
     1
 10
2948.787599
 20
689.534293
 11
2948.787599
 21
688.734293
  0
LINE
  8
CSLAYER1
  6
CONTINUOUS
 62
     1
 10
2939.787599
 20
689.534293
 11
2939.787599
 21
688.734293
  0
LINE
  8
CSLAYER1
  6
DOT
 62
     5
 10
2948.787599
 20
689.534293
 11
2939.787599
 21
689.534293
  0
ARC
  8
CSLAYER1
  6
CONTINUOUS
 62
     1
 10
2946.387599
 20
691.734293
 40
1.400000
 50
-0.000000
 51
90.000000
  0
ARC
  8
CSLAYER1
  6
CONTINUOUS
 62
     1
 10
2942.187599
 20
691.734293
 40
1.400000
 50
90.000000
 51
180.000000
  0
LINE
  8
CSLAYER1
  6
CONTINUOUS
 62
     1
 10
2945.327551
 20
689.534293
 11
2942.942349
 21
690.534293
  0
LINE
  8
CSLAYER1
  6
DOT
 62
     5
 10
3057.785646
 20
658.985656
 11
3060.390141
 21
649.234293
  0
LINE
  8
CSLAYER1
  6
CONTINUOUS
 62
     5
 10
3064.103549
 20
635.331096
 11
3076.886835
 21
618.139781
  0
LINE
  8
CSLAYER1
  6
CONTINUOUS
 62
     5
 10
3076.886835
 20
618.139781
 11
3093.637348
 21
603.813685
  0
LINE
  8
CSLAYER1
  6
DOT
 62
     5
 10
3050.443036
 20
657.024516
 11
3052.523729
 21
649.234293
  0
LINE
  8
CSLAYER1
  6
CONTINUOUS
 62
     5
 10
3057.136466
 20
631.963963
 11
3071.297868
 21
612.919319
  0
LINE
  8
CSLAYER1
  6
CONTINUOUS
 62
     5
 10
3071.297868
 20
612.919319
 11
3088.697595
 21
598.037974
  0
ARC
  8
CSLAYER1
  6
DOT
 62
     5
 10
3045.612371
 20
655.734293
 40
5.000000
 50
14.954075
 51
90.000000
  0
ARC
  8
CSLAYER1
  6
DOT
 62
     5
 10
3045.612371
 20
655.734293
 40
12.600000
 50
14.954075
 51
90.000000
  0
LINE
  8
CSLAYER1
  6
CONTINUOUS
 62
     5
 10
3052.523729
 20
649.234293
 11
3057.136466
 21
631.963963
  0
LINE
  8
CSLAYER1
  6
CONTINUOUS
 62
     5
 10
3060.390141
 20
649.234293
 11
3064.103549
 21
635.331096
  0
LINE
  8
CSLAYER1
  6
CONTINUOUS
 62
     5
 10
3521.222280
 20
2450.283085
 11
3395.037874
 21
2148.862723
  0
LINE
  8
CSLAYER1
  6
CONTINUOUS
 62
     5
 10
3521.222280
 20
2450.283085
 11
3515.180622
 21
2405.690503
  0
LINE
  8
CSLAYER1
  6
CONTINUOUS
 62
     5
 10
3521.222280
 20
2450.283085
 11
3493.693759
 21
2414.685605
  0
LINE
  8
CSLAYER1
  6
CONTINUOUS
 62
     5
 10
3395.037874
 20
2148.862723
 11
3853.925026
 21
2148.862723
  0
TEXT
  8
CSLAYER1
 62
     4
 10
4072.040527
 20
2043.440674
 40
60.000000
 41
1.036364
  1
操作方式
 50
0.000000
 51
0.000000
  7
EASYDRAW_FONT
 72
     5
 11
4300.040527
 21
2043.440674
  0
TEXT
  8
CSLAYER1
 62
     4
 10
4494.503418
 20
2035.500732
 40
60.000000
 41
1.020000
  1
フットスイッチ
 50
0.000000
 51
0.000000
  7
EASYDRAW_FONT
 72
     5
 11
4902.503418
 21
2035.500732
  0
LINE
  8
CSLAYER1
  6
CONTINUOUS
 62
     5
 10
5138.736441
 20
2025.401736
 11
4057.427665
 21
2025.401736
  0
LINE
  8
CSLAYER1
  6
CONTINUOUS
 62
     5
 10
5138.736441
 20
1929.401738
 11
4057.427665
 21
1929.401738
  0
TEXT
  8
CSLAYER1
 62
     4
 10
4074.187500
 20
1944.331299
 40
60.000000
 41
0.872727
  1
モーター
 50
0.000000
 51
0.000000
  7
EASYDRAW_FONT
 72
     5
 11
4266.187500
 21
1944.331299
  0
LINE
  8
CSLAYER1
  6
CONTINUOUS
 62
     5
 10
5138.736441
 20
1833.401741
 11
4057.427665
 21
1833.401741
  0
LINE
  8
CSLAYER1
  6
CONTINUOUS
 62
     5
 10
5138.736441
 20
1641.401745
 11
4054.219912
 21
1641.401745
  0
LINE
  8
CSLAYER1
  6
CONTINUOUS
 62
     5
 10
5138.736441
 20
1545.401748
 11
4057.427665
 21
1545.401748
  0
LINE
  8
CSLAYER1
  6
CONTINUOUS
 62
     5
 10
5138.736441
 20
1449.401750
 11
4057.427665
 21
1449.401750
  0
TEXT
  8
CSLAYER1
 62
     4
 10
4078.059570
 20
1466.084351
 40
60.000000
 41
0.857143
  1
自  　重
 50
0.000000
 51
0.000000
  7
EASYDRAW_FONT
 72
     5
 11
4318.059570
 21
1466.084351
  0
TEXT
  8
CSLAYER1
 62
     4
 10
4082.483887
 20
1369.977905
 40
60.000000
 41
0.847059
  1
塗　装　色 
 50
0.000000
 51
0.000000
  7
EASYDRAW_FONT
 72
     5
 11
4370.483887
 21
1369.977905
  0
TEXT
  8
CSLAYER1
 62
     4
 10
4420.847656
 20
1945.706787
 40
60.000000
 41
0.819512
  1
３相ＡＣ２００Ｖ、0.4ＫＷ
 50
0.000000
 51
0.000000
  7
EASYDRAW_FONT
 72
     5
 11
5092.847656
 21
1945.706787
  0
TEXT
  8
CSLAYER1
 62
     4
 10
4617.322754
 20
1849.941650
 40
60.000000
 41
0.840000
  1
長サ  ４ ｍ
 50
0.000000
 51
0.000000
  7
EASYDRAW_FONT
 72
     5
 11
4953.322754
 21
1849.941650
  0
TEXT
  8
CSLAYER1
 62
     3
 10
4786.282227
 20
1468.933472
 40
60.000000
 41
0.847059
  1
１９０　Ｋｇ
 50
0.000000
 51
0.000000
  7
EASYDRAW_FONT
 72
     5
 11
5074.282227
 21
1468.933472
  0
LINE
  8
CSLAYER1
  6
CONTINUOUS
 62
     5
 10
5138.736441
 20
1737.401743
 11
4057.427665
 21
1737.401743
  0
TEXT
  8
CSLAYER1
 62
     4
 10
4075.562012
 20
1849.355713
 40
60.000000
 41
0.942857
  1
電源コード
 50
0.000000
 51
0.000000
  7
EASYDRAW_FONT
 72
     5
 11
4339.562012
 21
1849.355713
  0
TEXT
  8
CSLAYER1
 62
     4
 10
4076.205847
 20
1745.673416
 40
71.595306
 41
0.593339
  1
昇降時間 ２２秒（50HZ） １８秒(60HZ)
 50
0.000000
 51
0.000000
  7
EASYDRAW_FONT
 72
     5
 11
5081.573450
 21
1745.673416
  0
TEXT
  8
CSLAYER1
 62
     4
 10
4078.156738
 20
1557.509155
 40
60.000000
 41
0.912766
  1
上昇端、下降端リミットスイッチ付
 50
0.000000
 51
0.000000
  7
EASYDRAW_FONT
 72
     5
 11
4936.156738
 21
1557.509155
  0
TEXT
  8
CSLAYER1
 62
     4
 10
4080.927110
 20
1654.504105
 40
68.819672
 41
0.605080
  1
最大使用頻度８０回／時間・最大起動頻度１０回／分
 50
0.000000
 51
0.000000
  7
EASYDRAW_FONT
 72
     5
 11
5066.440077
 21
1654.504105
  0
LINE
  8
CSLAYER1
  6
CONTINUOUS
 62
     5
 10
5138.736441
 20
2111.399742
 11
4057.427665
 21
2111.399742
  0
TEXT
  8
CSLAYER1
 62
     4
 10
4077.589355
 20
2126.016357
 40
60.000000
 41
0.872727
  1
制御方式
 50
0.000000
 51
0.000000
  7
EASYDRAW_FONT
 72
     5
 11
4269.589355
 21
2126.016357
  0
LINE
  8
CSLAYER1
  6
CONTINUOUS
 62
     5
 10
5138.736441
 20
1353.401753
 11
4057.427665
 21
1353.401753
  0
TEXT
  8
CSLAYER1
 62
     4
 10
4547.249023
 20
1369.408691
 40
60.000000
 41
0.920690
  1
　　　１０Ｒ４／１３
 50
0.000000
 51
0.000000
  7
EASYDRAW_FONT
 72
     5
 11
5081.249023
 21
1369.408691
  0
TEXT
  8
CSLAYER1
 62
     5
 10
4072.040527
 20
2899.230713
 40
60.000000
 41
1.036364
  1
積載荷重
 50
0.000000
 51
0.000000
  7
EASYDRAW_FONT
 72
     5
 11
4300.040527
 21
2899.230713
  0
TEXT
  8
CSLAYER1
 62
     5
 10
3440.629883
 20
2001.176880
 40
60.000000
 41
1.020000
  1
コード長サ２ｍ
 50
0.000000
 51
0.000000
  7
EASYDRAW_FONT
 72
     5
 11
3848.629883
 21
2001.176880
  0
TEXT
  8
CSLAYER1
 62
     5
 10
1050.831290
 20
1728.000374
 40
78.543198
 41
0.301140
  1
ポリエステル地に樹脂コーティング
 50
360.000000
 51
0.000000
  7
EASYDRAW_FONT
 72
     5
 11
1421.387704
 21
1728.000374
  0
TEXT
  8
CSLAYER1
 62
     5
 10
4036.511719
 20
532.893799
 40
75.000000
 41
0.827586
  1
平成２８年４月１６日
 50
0.000000
 51
0.000000
  7
EASYDRAW_FONT
 72
     5
 11
4636.511719
 21
532.893799
  0
TEXT
  8
CSLAYER1
 62
     4
 10
4372.169922
 20
2129.000244
 40
60.000000
 41
0.825000
  1
マグネットスイッチ制御
 50
0.000000
 51
0.000000
  7
EASYDRAW_FONT
 72
     5
 11
4900.169922
 21
2129.000244
  0
INSERT
  8
CSLAYER1
  2
BLKF0003
 10
0.0
 20
0.0
 30
0.0
  0
ENDSEC
  0
EOF
