  0
SECTION
  2
HEADER
  9
$ACADVER
  1
AC1006
  9
$INSBASE
 10
-911.148208
 20
2419.315961
 30
0.0
  9
$EXTMIN
 10
-911.148208
 20
2419.315961
  9
$EXTMAX
 10
2728.851792
 20
4989.315961
  9
$LIMMIN
 10
-911.148208
 20
2419.315961
  9
$LIMMAX
 10
2728.851792
 20
4989.315961
  9
$VIEWCTR
 10
908.851792
 20
3704.315961
  9
$VIEWSIZE
 40
2570.000000
  9
$SNAPMODE
 70
     0
  9
$SNAPUNIT
 10
1.0
 20
1.0
  9
$SNAPBASE
 10
0.0
 20
0.0
  9
$SNAPANG
 50
0.0
  9
$SNAPSTYLE
 70
     0
  9
$SNAPISOPAIR
 70
     0
  9
$GRIDMODE
 70
     0
  9
$GRIDUNIT
 10
0.0
 20
0.0
  9
$ORTHOMODE
 70
     0
  9
$REGENMODE
 70
     1
  9
$FILLMODE
 70
     1
  9
$QTEXTMODE
 70
     0
  9
$DRAGMODE
 70
     2
  9
$LTSCALE
 40
15.000000
  9
$OSMODE
 70
     0
  9
$ATTMODE
 70
     1
  9
$TEXTSIZE
 40
0.2
  9
$TRACEWID
 40
0.05
  9
$TEXTSTYLE
  7
STANDARD
  9
$CLAYER
  8
CSLAYER1
  9
$CELTYPE
  6
BYLAYER
  9
$CECOLOR
 62
   256
  9
$DIMSCALE
 40
1.0
  9
$DIMASZ
 40
0.18
  9
$DIMEXO
 40
0.0625
  9
$DIMDLI
 40
0.38
  9
$DIMRND
 40
0.0
  9
$DIMDLE
 40
0.0
  9
$DIMEXE
 40
0.18
  9
$DIMTP
 40
0.0
  9
$DIMTM
 40
0.0
  9
$DIMTXT
 40
0.18
  9
$DIMCEN
 40
0.09
  9
$DIMTSZ
 40
0.0
  9
$DIMTOL
 70
     0
  9
$DIMLIM
 70
     0
  9
$DIMTIH
 70
     1
  9
$DIMTOH
 70
     1
  9
$DIMSE1
 70
     0
  9
$DIMSE2
 70
     0
  9
$DIMTAD
 70
     0
  9
$DIMZIN
 70
     0
  9
$DIMBLK
  1

  9
$LUNITS
 70
     2
  9
$LUPREC
 70
     4
  9
$AXISMODE
 70
     0
  9
$AXISUNIT
 10
0.0
 20
0.0
  9
$SKETCHINC
 40
0.1
  9
$FILLETRAD
 40
0.0
  9
$AUNITS
 70
     0
  9
$AUPREC
 70
     0
  9
$MENU
  1
ACAD
  9
$ELEVATION
 40
0.0
  9
$THICKNESS
 40
0.0
  9
$VIEWDIR
 10
0.0
 20
0.0
 30
1.0
  9
$LIMCHECK
 70
     0
  9
$BLIPMODE
 70
     1
  9
$CHAMFERA
 40
0.0
  9
$CHAMFERB
 40
0.0
  9
$FASTZOOM
 70
     1
  9
$SKPOLY
 70
     0
  9
$TDCREATE
 40
2457497.000000
  9
$TDUPDATE
 40
2457497.000000
  9
$TDINDWG
 40
0.0
  9
$TDUSRTIMER
 40
0.0
  9
$USRTIMER
 70
     1
  9
$ANGBASE
 50
0.0
  9
$ANGDIR
 70
     0
  9
$PDMODE
 70
     0
  9
$PDSIZE
 40
0.0
  9
$PLINEWID
 40
0.0
  9
$COORDS
 70
     0
  9
$USERI1
 70
     0
  9
$USERI2
 70
     0
  9
$USERI3
 70
     0
  9
$USERI4
 70
     0
  9
$USERI5
 70
     0
  9
$USERR1
 40
0.0
  9
$USERR2
 40
0.0
  9
$USERR3
 40
0.0
  9
$USERR4
 40
0.0
  9
$USERR5
 40
0.0
  0
ENDSEC
  0
SECTION
  2
TABLES
  0
TABLE
  2
LTYPE
 70
     9
  0
LTYPE
  2
CONTINUOUS
 70
    64
  3
Solid line
 72
    65
 73
     0
 40
0.0
  0
LTYPE
  2
DASHED
 70
    64
  3
__ __ __ __ __ __ __ __ __ __ __ __ __ __ __
 72
    65
 73
     2
 40
0.75
 49
0.5
 49
-0.25
  0
LTYPE
  2
HIDDEN
 70
    64
  3
_ _ _ _ _ _ _ _ _ _ _ _ _ _ _ _ _ _ _ _ _ _ _
 72
    65
 73
     2
 40
0.375
 49
0.25
 49
-0.125
  0
LTYPE
  2
DOT
 70
    64
  3
...............................................
 72
    65
 73
     2
 40
0.25
 49
0.0
 49
-0.25
  0
LTYPE
  2
DASHDOT
 70
    64
  3
__ . __ . __ . __ . __ . __ . __ . __ . __ . __
 72
    65
 73
     4
 40
1.0
 49
0.5
 49
-0.25
 49
0.0
 49
-0.25
  0
LTYPE
  2
DIVIDE
 70
    64
  3
__ . . __ . . __ . . __ . . __ . . __ . . __
 72
    65
 73
     6
 40
1.25
 49
0.5
 49
-0.25
 49
0.0
 49
-0.25
 49
0.0
 49
-0.25
  0
LTYPE
  2
CENTER
 70
    64
  3
____ _ ____ _ ____ _ ____ _ ____ _ ____ _ ____ 
 72
    65
 73
     4
 40
2.0
 49
1.25
 49
-0.25
 49
0.25
 49
-0.25
  0
LTYPE
  2
PHANTOM
 70
    64
  3
______  __  __  ______  __  __  ______  __  __ 
 72
    65
 73
     6
 40
2.5
 49
1.25
 49
-0.25
 49
0.25
 49
-0.25
 49
0.25
 49
-0.25
  0
LTYPE
  2
BORDER
 70
    64
  3
__ __ . __ __ . __ __ . __ __ . __ __ . __ __ .
 72
    65
 73
     6
 40
1.75
 49
0.5
 49
-0.25
 49
0.5
 49
-0.25
 49
0.0
 49
-0.25
  0
ENDTAB
  0
TABLE
  2
LAYER
 70
    16
  0
LAYER
  2
CSLAYER1
 70
    64
 62
     7
  6
CONTINUOUS
  0
LAYER
  2
CSLAYER2
 70
    64
 62
     7
  6
CONTINUOUS
  0
LAYER
  2
CSLAYER3
 70
    64
 62
     7
  6
CONTINUOUS
  0
LAYER
  2
CSLAYER4
 70
    64
 62
     7
  6
CONTINUOUS
  0
LAYER
  2
CSLAYER5
 70
    64
 62
     7
  6
CONTINUOUS
  0
LAYER
  2
CSLAYER6
 70
    64
 62
     7
  6
CONTINUOUS
  0
LAYER
  2
CSLAYER7
 70
    64
 62
     7
  6
CONTINUOUS
  0
LAYER
  2
CSLAYER8
 70
    64
 62
     7
  6
CONTINUOUS
  0
LAYER
  2
CSLAYER9
 70
    64
 62
     7
  6
CONTINUOUS
  0
LAYER
  2
CSLAYER10
 70
    64
 62
     7
  6
CONTINUOUS
  0
LAYER
  2
CSLAYER11
 70
    64
 62
     7
  6
CONTINUOUS
  0
LAYER
  2
CSLAYER12
 70
    64
 62
     7
  6
CONTINUOUS
  0
LAYER
  2
CSLAYER13
 70
    64
 62
     7
  6
CONTINUOUS
  0
LAYER
  2
CSLAYER14
 70
    64
 62
     7
  6
CONTINUOUS
  0
LAYER
  2
CSLAYER15
 70
    64
 62
     7
  6
CONTINUOUS
  0
LAYER
  2
CSLAYER16
 70
    64
 62
     7
  6
CONTINUOUS
  0
ENDTAB
  0
TABLE
  2
STYLE
 70
     1
  0
STYLE
  2
EASYDRAW_FONT
 70
     0
 40
1.0
 41
1.0
 50
0.0
 71
     0
 42
1.0
  3
monotxt
  4
bigfont
  0
ENDTAB
  0
TABLE
  2
VIEW
 70
     0
  0
ENDTAB
  0
ENDSEC
  0
SECTION
  2
BLOCKS
  0
BLOCK
  8
CSLAYER1
  2
*D0000
 70
    65
 10
0.0
 20
0.0
 30
0.0
  0
TEXT
  8
CSLAYER1
 62
     7
 10
1625.959839
 20
416.515961
 40
40.000000
 41
0.818182
  1
1050
 50
360.000000
 51
0.000000
  7
EASYDRAW_FONT
 72
     5
 11
1745.959839
 21
416.515961
  0
LINE
  8
CSLAYER1
  6
CONTINUOUS
 62
     5
 10
1160.959897
 20
492.641722
 11
1160.959897
 21
396.515929
  0
LINE
  8
CSLAYER1
  6
CONTINUOUS
 62
     5
 10
1160.959897
 20
406.515929
 11
2210.959897
 21
406.515929
  0
LINE
  8
CSLAYER1
  6
CONTINUOUS
 62
     5
 10
1160.959897
 20
406.515929
 11
1189.937671
 21
414.280500
  0
LINE
  8
CSLAYER1
  6
CONTINUOUS
 62
     5
 10
1160.959897
 20
406.515929
 11
1189.937671
 21
398.751357
  0
LINE
  8
CSLAYER1
  6
CONTINUOUS
 62
     5
 10
2210.959897
 20
406.515929
 11
2181.982122
 21
414.280500
  0
LINE
  8
CSLAYER1
  6
CONTINUOUS
 62
     5
 10
2210.959897
 20
406.515929
 11
2181.982122
 21
398.751357
  0
LINE
  8
CSLAYER1
  6
CONTINUOUS
 62
     5
 10
2210.959897
 20
492.641722
 11
2210.959897
 21
396.515929
  0
ENDBLK
  8
0
  0
BLOCK
  8
CSLAYER1
  2
*D0001
 70
    65
 10
0.0
 20
0.0
 30
0.0
  0
TEXT
  8
CSLAYER1
 62
     7
 10
450.839355
 20
416.515961
 40
40.000000
 41
0.843750
  1
500
 50
0.000000
 51
0.000000
  7
EASYDRAW_FONT
 72
     5
 11
540.839355
 21
416.515961
  0
LINE
  8
CSLAYER1
  6
CONTINUOUS
 62
     5
 10
245.839402
 20
492.641722
 11
245.839402
 21
396.515929
  0
LINE
  8
CSLAYER1
  6
CONTINUOUS
 62
     5
 10
745.839402
 20
492.641722
 11
745.839402
 21
396.515929
  0
LINE
  8
CSLAYER1
  6
CONTINUOUS
 62
     5
 10
245.839402
 20
406.515929
 11
745.839402
 21
406.515929
  0
LINE
  8
CSLAYER1
  6
CONTINUOUS
 62
     5
 10
245.839402
 20
406.515929
 11
274.817177
 21
414.280500
  0
LINE
  8
CSLAYER1
  6
CONTINUOUS
 62
     5
 10
245.839402
 20
406.515929
 11
274.817177
 21
398.751357
  0
LINE
  8
CSLAYER1
  6
CONTINUOUS
 62
     5
 10
745.839402
 20
406.515929
 11
716.861628
 21
414.280500
  0
LINE
  8
CSLAYER1
  6
CONTINUOUS
 62
     5
 10
745.839402
 20
406.515929
 11
716.861628
 21
398.751357
  0
ENDBLK
  8
0
  0
BLOCK
  8
CSLAYER1
  2
*D0002
 70
    65
 10
0.0
 20
0.0
 30
0.0
  0
TEXT
  8
CSLAYER1
 62
     7
 10
976.947876
 20
1881.214233
 40
40.000000
 41
0.843750
  1
650
 50
90.000000
 51
0.000000
  7
EASYDRAW_FONT
 72
     5
 11
976.947876
 21
1971.214233
  0
LINE
  8
CSLAYER1
  6
CONTINUOUS
 62
     5
 10
1084.832432
 20
1601.214414
 11
976.947869
 21
1601.214414
  0
LINE
  8
CSLAYER1
  6
CONTINUOUS
 62
     5
 10
1084.832432
 20
2251.214414
 11
976.947869
 21
2251.214414
  0
LINE
  8
CSLAYER1
  6
CONTINUOUS
 62
     5
 10
986.947869
 20
1601.214414
 11
986.947869
 21
2251.214414
  0
LINE
  8
CSLAYER1
  6
CONTINUOUS
 62
     5
 10
986.947869
 20
1601.214414
 11
979.183297
 21
1630.192189
  0
LINE
  8
CSLAYER1
  6
CONTINUOUS
 62
     5
 10
986.947869
 20
1601.214414
 11
994.712440
 21
1630.192189
  0
LINE
  8
CSLAYER1
  6
CONTINUOUS
 62
     5
 10
986.947869
 20
2251.214414
 11
979.183297
 21
2222.236640
  0
LINE
  8
CSLAYER1
  6
CONTINUOUS
 62
     5
 10
986.947869
 20
2251.214414
 11
994.712440
 21
2222.236640
  0
ENDBLK
  8
0
  0
BLOCK
  8
CSLAYER1
  2
*D0003
 70
    65
 10
0.0
 20
0.0
 30
0.0
  0
TEXT
  8
CSLAYER1
 62
     7
 10
2378.695557
 20
535.141663
 40
40.000000
 41
0.843750
  1
155
 50
90.000000
 51
0.000000
  7
EASYDRAW_FONT
 72
     5
 11
2378.695557
 21
625.141663
  0
LINE
  8
CSLAYER1
  6
CONTINUOUS
 62
     5
 10
2303.959897
 20
657.641722
 11
2398.695619
 21
657.641722
  0
LINE
  8
CSLAYER1
  6
CONTINUOUS
 62
     5
 10
2388.695619
 20
502.641722
 11
2388.695619
 21
657.641722
  0
LINE
  8
CSLAYER1
  6
CONTINUOUS
 62
     5
 10
2388.695619
 20
502.641722
 11
2380.931048
 21
531.619497
  0
LINE
  8
CSLAYER1
  6
CONTINUOUS
 62
     5
 10
2388.695619
 20
502.641722
 11
2396.460190
 21
531.619497
  0
LINE
  8
CSLAYER1
  6
CONTINUOUS
 62
     5
 10
2388.695619
 20
657.641722
 11
2380.931048
 21
628.663947
  0
LINE
  8
CSLAYER1
  6
CONTINUOUS
 62
     5
 10
2388.695619
 20
657.641722
 11
2396.460190
 21
628.663947
  0
ENDBLK
  8
0
  0
BLOCK
  8
CSLAYER1
  2
*D0004
 70
    65
 10
0.0
 20
0.0
 30
0.0
  0
TEXT
  8
CSLAYER1
 62
     7
 10
2378.695557
 20
995.914673
 40
40.000000
 41
0.843750
  1
750
 50
90.000000
 51
0.000000
  7
EASYDRAW_FONT
 72
     5
 11
2378.695557
 21
1085.914673
  0
LINE
  8
CSLAYER1
  6
CONTINUOUS
 62
     5
 10
2388.695619
 20
657.641722
 11
2388.695619
 21
1424.187340
  0
LINE
  8
CSLAYER1
  6
CONTINUOUS
 62
     5
 10
2388.695619
 20
657.641722
 11
2380.931048
 21
686.619497
  0
LINE
  8
CSLAYER1
  6
CONTINUOUS
 62
     5
 10
2388.695619
 20
657.641722
 11
2396.460190
 21
686.619497
  0
LINE
  8
CSLAYER1
  6
CONTINUOUS
 62
     5
 10
2388.695619
 20
1424.187340
 11
2380.931048
 21
1395.209566
  0
LINE
  8
CSLAYER1
  6
CONTINUOUS
 62
     5
 10
2388.695619
 20
1424.187340
 11
2396.460190
 21
1395.209566
  0
ENDBLK
  8
0
  0
BLOCK
  8
CSLAYER1
  2
*D0005
 70
    65
 10
0.0
 20
0.0
 30
0.0
  0
TEXT
  8
CSLAYER1
 62
     7
 10
2469.127197
 20
918.414612
 40
40.000000
 41
0.843750
  1
905
 50
90.000000
 51
0.000000
  7
EASYDRAW_FONT
 72
     5
 11
2469.127197
 21
1008.414612
  0
LINE
  8
CSLAYER1
  6
CONTINUOUS
 62
     5
 10
2300.959897
 20
1424.187340
 11
2489.127207
 21
1424.187340
  0
LINE
  8
CSLAYER1
  6
CONTINUOUS
 62
     5
 10
2479.127207
 20
502.641722
 11
2479.127207
 21
1424.187340
  0
LINE
  8
CSLAYER1
  6
CONTINUOUS
 62
     5
 10
2479.127207
 20
502.641722
 11
2471.362636
 21
531.619497
  0
LINE
  8
CSLAYER1
  6
CONTINUOUS
 62
     5
 10
2479.127207
 20
502.641722
 11
2486.891779
 21
531.619497
  0
LINE
  8
CSLAYER1
  6
CONTINUOUS
 62
     5
 10
2479.127207
 20
1424.187340
 11
2471.362636
 21
1395.209566
  0
LINE
  8
CSLAYER1
  6
CONTINUOUS
 62
     5
 10
2479.127207
 20
1424.187340
 11
2486.891779
 21
1395.209566
  0
ENDBLK
  8
0
  0
BLOCK
  8
CSLAYER1
  2
*D0006
 70
    65
 10
0.0
 20
0.0
 30
0.0
  0
TEXT
  8
CSLAYER1
 62
     7
 10
1099.895996
 20
420.701752
 40
40.000000
 41
0.900000
  1
67
 50
0.000000
 51
0.000000
  7
EASYDRAW_FONT
 72
     5
 11
1159.895996
 21
420.701752
  0
LINE
  8
CSLAYER1
  6
CONTINUOUS
 62
     5
 10
1093.959897
 20
406.515929
 11
1160.959897
 21
406.515929
  0
LINE
  8
CSLAYER1
  6
CONTINUOUS
 62
     5
 10
1093.959897
 20
406.515929
 11
1122.937671
 21
414.280500
  0
LINE
  8
CSLAYER1
  6
CONTINUOUS
 62
     5
 10
1093.959897
 20
406.515929
 11
1122.937671
 21
398.751357
  0
LINE
  8
CSLAYER1
  6
CONTINUOUS
 62
     5
 10
1160.959897
 20
406.515929
 11
1131.982122
 21
414.280500
  0
LINE
  8
CSLAYER1
  6
CONTINUOUS
 62
     5
 10
1160.959897
 20
406.515929
 11
1131.982122
 21
398.751357
  0
ENDBLK
  8
0
  0
BLOCK
  8
CSLAYER1
  2
*D0007
 70
    65
 10
0.0
 20
0.0
 30
0.0
  0
TEXT
  8
CSLAYER1
 62
     7
 10
2222.526367
 20
421.957123
 40
40.000000
 41
0.900000
  1
83
 50
0.000000
 51
0.000000
  7
EASYDRAW_FONT
 72
     5
 11
2282.526367
 21
421.957123
  0
LINE
  8
CSLAYER1
  6
CONTINUOUS
 62
     5
 10
2210.959897
 20
406.515929
 11
2293.959897
 21
406.515929
  0
LINE
  8
CSLAYER1
  6
CONTINUOUS
 62
     5
 10
2210.959897
 20
406.515929
 11
2239.937671
 21
414.280500
  0
LINE
  8
CSLAYER1
  6
CONTINUOUS
 62
     5
 10
2210.959897
 20
406.515929
 11
2239.937671
 21
398.751357
  0
LINE
  8
CSLAYER1
  6
CONTINUOUS
 62
     5
 10
2293.959897
 20
406.515929
 11
2264.982122
 21
414.280500
  0
LINE
  8
CSLAYER1
  6
CONTINUOUS
 62
     5
 10
2293.959897
 20
406.515929
 11
2264.982122
 21
398.751357
  0
ENDBLK
  8
0
  0
BLOCK
  8
CSLAYER1
  2
*D0008
 70
    65
 10
0.0
 20
0.0
 30
0.0
  0
TEXT
  8
CSLAYER1
 62
     7
 10
1633.959961
 20
326.459320
 40
40.000000
 41
0.818182
  1
1200
 50
0.000000
 51
0.000000
  7
EASYDRAW_FONT
 72
     5
 11
1753.959961
 21
326.459320
  0
LINE
  8
CSLAYER1
  6
CONTINUOUS
 62
     5
 10
1093.959897
 20
594.641722
 11
1093.959897
 21
306.459325
  0
LINE
  8
CSLAYER1
  6
CONTINUOUS
 62
     5
 10
2293.959897
 20
594.641722
 11
2293.959897
 21
306.459325
  0
LINE
  8
CSLAYER1
  6
CONTINUOUS
 62
     5
 10
1093.959897
 20
316.459325
 11
2293.959897
 21
316.459325
  0
LINE
  8
CSLAYER1
  6
CONTINUOUS
 62
     5
 10
1093.959897
 20
316.459325
 11
1122.937671
 21
324.223896
  0
LINE
  8
CSLAYER1
  6
CONTINUOUS
 62
     5
 10
1093.959897
 20
316.459325
 11
1122.937671
 21
308.694753
  0
LINE
  8
CSLAYER1
  6
CONTINUOUS
 62
     5
 10
2293.959897
 20
316.459325
 11
2264.982122
 21
324.223896
  0
LINE
  8
CSLAYER1
  6
CONTINUOUS
 62
     5
 10
2293.959897
 20
316.459325
 11
2264.982122
 21
308.694753
  0
ENDBLK
  8
0
  0
BLOCK
  8
CSLAYER1
  2
*D0009
 70
    65
 10
0.0
 20
0.0
 30
0.0
  0
TEXT
  8
CSLAYER1
 62
     7
 10
1634.832520
 20
1507.487671
 40
40.000000
 41
0.818182
  1
1200
 50
0.000000
 51
0.000000
  7
EASYDRAW_FONT
 72
     5
 11
1754.832520
 21
1507.487671
  0
LINE
  8
CSLAYER1
  6
CONTINUOUS
 62
     5
 10
1094.832432
 20
1591.214414
 11
1094.832432
 21
1487.487519
  0
LINE
  8
CSLAYER1
  6
CONTINUOUS
 62
     5
 10
2294.832432
 20
1591.214414
 11
2294.832432
 21
1487.487519
  0
LINE
  8
CSLAYER1
  6
CONTINUOUS
 62
     5
 10
1094.832432
 20
1497.487519
 11
2294.832432
 21
1497.487519
  0
LINE
  8
CSLAYER1
  6
CONTINUOUS
 62
     5
 10
1094.832432
 20
1497.487519
 11
1123.810207
 21
1505.252091
  0
LINE
  8
CSLAYER1
  6
CONTINUOUS
 62
     5
 10
1094.832432
 20
1497.487519
 11
1123.810207
 21
1489.722948
  0
LINE
  8
CSLAYER1
  6
CONTINUOUS
 62
     5
 10
2294.832432
 20
1497.487519
 11
2265.854657
 21
1505.252091
  0
LINE
  8
CSLAYER1
  6
CONTINUOUS
 62
     5
 10
2294.832432
 20
1497.487519
 11
2265.854657
 21
1489.722948
  0
ENDBLK
  8
0
  0
BLOCK
  8
CSLAYER1
  2
*D0010
 70
    65
 10
0.0
 20
0.0
 30
0.0
  0
TEXT
  8
CSLAYER1
 62
     7
 10
450.839386
 20
326.459320
 40
40.000000
 41
0.843750
  1
630
 50
0.000000
 51
0.000000
  7
EASYDRAW_FONT
 72
     5
 11
540.839386
 21
326.459320
  0
LINE
  8
CSLAYER1
  6
CONTINUOUS
 62
     5
 10
180.839402
 20
551.641722
 11
180.839402
 21
306.459325
  0
LINE
  8
CSLAYER1
  6
CONTINUOUS
 62
     5
 10
810.839402
 20
551.641722
 11
810.839402
 21
306.459325
  0
LINE
  8
CSLAYER1
  6
CONTINUOUS
 62
     5
 10
180.839402
 20
316.459325
 11
810.839402
 21
316.459325
  0
LINE
  8
CSLAYER1
  6
CONTINUOUS
 62
     5
 10
180.839402
 20
316.459325
 11
209.817177
 21
324.223896
  0
LINE
  8
CSLAYER1
  6
CONTINUOUS
 62
     5
 10
180.839402
 20
316.459325
 11
209.817177
 21
308.694753
  0
LINE
  8
CSLAYER1
  6
CONTINUOUS
 62
     5
 10
810.839402
 20
316.459325
 11
781.861628
 21
324.223896
  0
LINE
  8
CSLAYER1
  6
CONTINUOUS
 62
     5
 10
810.839402
 20
316.459325
 11
781.861628
 21
308.694753
  0
ENDBLK
  8
0
  0
BLOCK
  8
CSLAYER1
  2
BLKF0000
 70
   64
 10
0.0
 20
0.0
 30
0.0
  0
ARC
  8
CSLAYER1
  6
CONTINUOUS
 62
     5
 10
2781.909508
 20
79.335220
 40
3.549225
 50
6.429109
 51
73.182034
  0
ARC
  8
CSLAYER1
  6
CONTINUOUS
 62
     5
 10
2778.448538
 20
78.176827
 40
6.907754
 50
310.517970
 51
330.092764
  0
ARC
  8
CSLAYER1
  6
CONTINUOUS
 62
     5
 10
2778.387888
 20
78.542345
 40
7.148321
 50
-32.205059
 51
9.585194
  0
ARC
  8
CSLAYER1
  6
CONTINUOUS
 62
     5
 10
2781.680616
 20
75.781346
 40
4.767514
 50
180.000000
 51
218.514150
  0
ARC
  8
CSLAYER1
  6
CONTINUOUS
 62
     5
 10
2780.393895
 20
75.104206
 40
3.348282
 50
222.781148
 51
319.406906
  0
ARC
  8
CSLAYER1
  6
CONTINUOUS
 62
     5
 10
2783.459537
 20
76.194099
 40
6.559434
 50
94.574282
 51
183.607718
  0
LINE
  8
CSLAYER1
  6
CONTINUOUS
 62
     5
 10
2796.903443
 20
71.077266
 11
2796.046407
 21
68.038683
  0
LINE
  8
CSLAYER1
  6
CONTINUOUS
 62
     5
 10
2798.695428
 20
90.944924
 11
2796.591794
 21
93.671857
  0
LINE
  8
CSLAYER1
  6
CONTINUOUS
 62
     5
 10
2796.591794
 20
93.671857
 11
2789.838440
 21
97.429769
  0
LINE
  8
CSLAYER1
  6
CONTINUOUS
 62
     5
 10
2789.838440
 20
97.429769
 11
2782.936412
 21
98.232640
  0
LINE
  8
CSLAYER1
  6
CONTINUOUS
 62
     5
 10
2764.647187
 20
84.853966
 11
2766.793881
 21
89.818197
  0
LINE
  8
CSLAYER1
  6
CONTINUOUS
 62
     5
 10
2766.756884
 20
89.732640
 11
2768.940576
 21
92.367396
  0
LINE
  8
CSLAYER1
  6
CONTINUOUS
 62
     5
 10
2768.940576
 20
92.367396
 11
2772.244998
 21
94.732640
  0
LINE
  8
CSLAYER1
  6
CONTINUOUS
 62
     5
 10
2782.936412
 20
98.232640
 11
2781.418237
 21
97.465795
  0
LINE
  8
CSLAYER1
  6
CONTINUOUS
 62
     5
 10
2781.418237
 20
97.465795
 11
2777.929858
 21
97.465795
  0
LINE
  8
CSLAYER1
  6
CONTINUOUS
 62
     5
 10
2777.929858
 20
97.465795
 11
2774.374396
 21
95.520354
  0
LINE
  8
CSLAYER1
  6
CONTINUOUS
 62
     5
 10
2774.374396
 20
95.520354
 11
2772.244998
 21
94.732640
  0
LINE
  8
CSLAYER1
  6
CONTINUOUS
 62
     5
 10
2764.647187
 20
84.853966
 11
2763.129640
 21
77.305363
  0
LINE
  8
CSLAYER1
  6
CONTINUOUS
 62
     5
 10
2763.129640
 20
77.305363
 11
2762.936412
 21
74.732640
  0
LINE
  8
CSLAYER1
  6
CONTINUOUS
 62
     5
 10
2765.645795
 20
66.892857
 11
2762.936412
 21
72.988969
  0
LINE
  8
CSLAYER1
  6
CONTINUOUS
 62
     5
 10
2762.936412
 20
72.988969
 11
2762.936412
 21
74.732640
  0
LINE
  8
CSLAYER1
  6
CONTINUOUS
 62
     5
 10
2796.046407
 20
68.038683
 11
2794.360620
 21
65.035677
  0
LINE
  8
CSLAYER1
  6
CONTINUOUS
 62
     5
 10
2794.360620
 20
65.035677
 11
2792.936412
 21
63.716966
  0
ARC
  8
CSLAYER1
  6
CONTINUOUS
 62
     5
 10
2780.744468
 20
75.269400
 40
17.266626
 50
208.054813
 51
260.640470
  0
ARC
  8
CSLAYER1
  6
CONTINUOUS
 62
     5
 10
2775.551072
 20
88.011870
 40
29.874611
 50
274.579659
 51
305.587364
  0
ARC
  8
CSLAYER1
  6
CONTINUOUS
 62
     5
 10
2786.523421
 20
82.028147
 40
15.088627
 50
313.467013
 51
331.085078
  0
LINE
  8
CSLAYER1
  6
CONTINUOUS
 62
     5
 10
2801.314754
 20
78.246061
 11
2801.612048
 21
82.028147
  0
LINE
  8
CSLAYER1
  6
CONTINUOUS
 62
     5
 10
2801.612048
 20
82.028147
 11
2800.320051
 21
88.137130
  0
LINE
  8
CSLAYER1
  6
CONTINUOUS
 62
     5
 10
2801.314754
 20
78.246061
 11
2799.731079
 21
74.732640
  0
ARC
  8
CSLAYER1
  6
CONTINUOUS
 62
     5
 10
2786.523421
 20
82.028147
 40
15.088627
 50
23.883193
 51
36.225170
  0
LINE
  8
CSLAYER1
  6
CONTINUOUS
 62
     5
 10
2746.936412
 20
109.732640
 11
2747.936412
 21
110.825284
  0
LINE
  8
CSLAYER1
  6
CONTINUOUS
 62
     5
 10
2746.936412
 20
109.732640
 11
2748.513370
 21
108.287607
  0
LINE
  8
CSLAYER1
  6
CONTINUOUS
 62
     5
 10
2750.052583
 20
106.178315
 11
2750.078851
 21
104.010196
  0
LINE
  8
CSLAYER1
  6
CONTINUOUS
 62
     5
 10
2750.078851
 20
104.010196
 11
2750.286249
 21
103.249737
  0
LINE
  8
CSLAYER1
  6
CONTINUOUS
 62
     5
 10
2750.286249
 20
103.249737
 11
2750.873877
 21
102.523844
  0
LINE
  8
CSLAYER1
  6
CONTINUOUS
 62
     5
 10
2750.873877
 20
102.523844
 11
2751.461504
 21
102.592977
  0
LINE
  8
CSLAYER1
  6
CONTINUOUS
 62
     5
 10
2751.461504
 20
102.592977
 11
2752.083698
 21
102.765808
  0
LINE
  8
CSLAYER1
  6
CONTINUOUS
 62
     5
 10
2752.083698
 20
102.765808
 11
2752.498494
 21
102.592977
  0
LINE
  8
CSLAYER1
  6
CONTINUOUS
 62
     5
 10
2752.498494
 20
102.592977
 11
2753.397219
 21
102.143614
  0
LINE
  8
CSLAYER1
  6
CONTINUOUS
 62
     5
 10
2753.397219
 20
102.143614
 11
2754.173270
 21
101.732640
  0
LINE
  8
CSLAYER1
  6
CONTINUOUS
 62
     5
 10
2754.173270
 20
101.732640
 11
2754.676173
 21
101.763385
  0
LINE
  8
CSLAYER1
  6
CONTINUOUS
 62
     5
 10
2754.676173
 20
101.763385
 11
2757.484045
 21
103.209864
  0
LINE
  8
CSLAYER1
  6
CONTINUOUS
 62
     5
 10
2747.936412
 20
110.825284
 11
2748.269264
 21
112.298991
  0
LINE
  8
CSLAYER1
  6
CONTINUOUS
 62
     5
 10
2748.269264
 20
112.298991
 11
2749.722669
 21
112.449344
  0
LINE
  8
CSLAYER1
  6
CONTINUOUS
 62
     5
 10
2751.216428
 20
115.217802
 11
2752.970601
 21
115.374892
  0
LINE
  8
CSLAYER1
  6
CONTINUOUS
 62
     5
 10
2752.970601
 20
115.374892
 11
2756.505128
 21
116.212706
  0
LINE
  8
CSLAYER1
  6
CONTINUOUS
 62
     5
 10
2756.505128
 20
116.212706
 11
2757.936412
 21
116.544345
  0
LINE
  8
CSLAYER1
  6
CONTINUOUS
 62
     5
 10
2751.216428
 20
115.217802
 11
2749.283537
 21
115.376670
  0
LINE
  8
CSLAYER1
  6
CONTINUOUS
 62
     5
 10
2748.547414
 20
114.507983
 11
2748.640939
 21
114.136822
  0
LINE
  8
CSLAYER1
  6
CONTINUOUS
 62
     5
 10
2748.640939
 20
114.136822
 11
2749.132533
 21
113.599141
  0
LINE
  8
CSLAYER1
  6
CONTINUOUS
 62
     5
 10
2749.132533
 20
113.599141
 11
2749.808475
 21
113.092184
  0
LINE
  8
CSLAYER1
  6
CONTINUOUS
 62
     5
 10
2749.808475
 20
113.092184
 11
2749.931800
 21
112.927751
  0
LINE
  8
CSLAYER1
  6
CONTINUOUS
 62
     5
 10
2748.513370
 20
108.287607
 11
2750.052583
 21
106.178315
  0
ARC
  8
CSLAYER1
  6
CONTINUOUS
 62
     5
 10
2792.923113
 20
-61.926013
 40
180.727463
 50
80.438896
 51
96.353582
  0
ARC
  8
CSLAYER1
  6
CONTINUOUS
 62
     5
 10
2768.024200
 20
83.321887
 40
34.720242
 50
81.866516
 51
106.890578
  0
LINE
  8
CSLAYER1
  6
CONTINUOUS
 62
     5
 10
2827.130674
 20
115.499310
 11
2829.377756
 21
114.477909
  0
LINE
  8
CSLAYER1
  6
CONTINUOUS
 62
     5
 10
2832.952661
 20
112.894737
 11
2829.377756
 21
114.477909
  0
LINE
  8
CSLAYER1
  6
CONTINUOUS
 62
     5
 10
2827.130674
 20
115.499310
 11
2822.936412
 21
116.291881
  0
LINE
  8
CSLAYER1
  6
CONTINUOUS
 62
     5
 10
2832.936412
 20
112.901933
 11
2834.807988
 21
111.333456
  0
LINE
  8
CSLAYER1
  6
CONTINUOUS
 62
     5
 10
2816.179668
 20
113.938783
 11
2817.078943
 21
115.391458
  0
LINE
  8
CSLAYER1
  6
CONTINUOUS
 62
     5
 10
2817.078943
 20
115.391458
 11
2821.754542
 21
114.271949
  0
LINE
  8
CSLAYER1
  6
CONTINUOUS
 62
     5
 10
2821.754542
 20
114.271949
 11
2838.496928
 21
109.732640
  0
LINE
  8
CSLAYER1
  6
CONTINUOUS
 62
     5
 10
2841.436412
 20
109.732640
 11
2834.807988
 21
111.333456
  0
LINE
  8
CSLAYER1
  6
CONTINUOUS
 62
     5
 10
2838.496928
 20
109.732640
 11
2841.436412
 21
109.732640
  0
LINE
  8
CSLAYER1
  6
CONTINUOUS
 62
     5
 10
2782.936412
 20
114.197581
 11
2802.936412
 21
114.732640
  0
LINE
  8
CSLAYER1
  6
CONTINUOUS
 62
     5
 10
2802.936412
 20
114.732640
 11
2816.179668
 21
113.938783
  0
LINE
  8
CSLAYER1
  6
CONTINUOUS
 62
     5
 10
2817.782649
 20
111.878304
 11
2802.936412
 21
113.232640
  0
LINE
  8
CSLAYER1
  6
CONTINUOUS
 62
     5
 10
2802.936412
 20
113.232640
 11
2787.887203
 21
113.641292
  0
LINE
  8
CSLAYER1
  6
CONTINUOUS
 62
     5
 10
2787.936412
 20
113.639956
 11
2782.936412
 21
113.735249
  0
LINE
  8
CSLAYER1
  6
CONTINUOUS
 62
     5
 10
2782.936412
 20
114.197581
 11
2782.936412
 21
113.735249
  0
LINE
  8
CSLAYER1
  6
CONTINUOUS
 62
     5
 10
2840.436412
 20
106.232640
 11
2831.593854
 21
108.543302
  0
LINE
  8
CSLAYER1
  6
CONTINUOUS
 62
     5
 10
2817.782649
 20
111.878304
 11
2827.936412
 21
109.905920
  0
LINE
  8
CSLAYER1
  6
CONTINUOUS
 62
     5
 10
2827.936412
 20
109.905920
 11
2831.593854
 21
108.543302
  0
LINE
  8
CSLAYER1
  6
CONTINUOUS
 62
     5
 10
2840.436412
 20
106.232640
 11
2840.143795
 21
105.393534
  0
LINE
  8
CSLAYER1
  6
CONTINUOUS
 62
     5
 10
2849.936412
 20
100.732640
 11
2849.630385
 21
101.961621
  0
LINE
  8
CSLAYER1
  6
CONTINUOUS
 62
     5
 10
2840.143795
 20
105.393534
 11
2849.630385
 21
101.961621
  0
LINE
  8
CSLAYER1
  6
CONTINUOUS
 62
     5
 10
2786.436412
 20
106.232640
 11
2788.859450
 21
106.232640
  0
LINE
  8
CSLAYER1
  6
CONTINUOUS
 62
     5
 10
2808.936412
 20
106.665135
 11
2808.936412
 21
106.232640
  0
LINE
  8
CSLAYER1
  6
CONTINUOUS
 62
     5
 10
2807.936412
 20
107.199576
 11
2806.225133
 21
107.836755
  0
LINE
  8
CSLAYER1
  6
CONTINUOUS
 62
     5
 10
2806.225133
 20
107.836755
 11
2805.115077
 21
107.887212
  0
LINE
  8
CSLAYER1
  6
CONTINUOUS
 62
     5
 10
2805.115077
 20
107.887212
 11
2804.635735
 21
107.634926
  0
LINE
  8
CSLAYER1
  6
CONTINUOUS
 62
     5
 10
2804.635735
 20
107.634926
 11
2804.534821
 21
107.231270
  0
LINE
  8
CSLAYER1
  6
CONTINUOUS
 62
     5
 10
2804.534821
 20
107.231270
 11
2804.988934
 21
106.928527
  0
LINE
  8
CSLAYER1
  6
CONTINUOUS
 62
     5
 10
2804.988934
 20
106.928527
 11
2806.628790
 21
106.777156
  0
LINE
  8
CSLAYER1
  6
CONTINUOUS
 62
     5
 10
2806.628790
 20
106.777156
 11
2808.936412
 21
106.665135
  0
LINE
  8
CSLAYER1
  6
CONTINUOUS
 62
     5
 10
2849.936412
 20
100.732640
 11
2846.960870
 21
101.919221
  0
LINE
  8
CSLAYER1
  6
CONTINUOUS
 62
     5
 10
2846.960870
 20
101.919221
 11
2836.905180
 21
103.762097
  0
LINE
  8
CSLAYER1
  6
CONTINUOUS
 62
     5
 10
2836.905180
 20
103.762097
 11
2831.879400
 21
104.921892
  0
LINE
  8
CSLAYER1
  6
CONTINUOUS
 62
     5
 10
2809.470633
 20
107.232640
 11
2821.236299
 21
107.232640
  0
LINE
  8
CSLAYER1
  6
CONTINUOUS
 62
     5
 10
2807.936412
 20
107.199576
 11
2808.461072
 21
106.891109
  0
LINE
  8
CSLAYER1
  6
CONTINUOUS
 62
     5
 10
2808.461072
 20
106.891109
 11
2808.757884
 21
106.802065
  0
LINE
  8
CSLAYER1
  6
CONTINUOUS
 62
     5
 10
2808.757884
 20
106.802065
 11
2808.936412
 21
106.827236
  0
LINE
  8
CSLAYER1
  6
CONTINUOUS
 62
     5
 10
2808.936412
 20
106.827236
 11
2809.470633
 21
107.232640
  0
LINE
  8
CSLAYER1
  6
CONTINUOUS
 62
     5
 10
2821.236299
 20
107.232640
 11
2825.686568
 21
106.203814
  0
LINE
  8
CSLAYER1
  6
CONTINUOUS
 62
     5
 10
2825.686568
 20
106.203814
 11
2829.839760
 21
105.038665
  0
LINE
  8
CSLAYER1
  6
CONTINUOUS
 62
     5
 10
2829.839760
 20
105.038665
 11
2831.879400
 21
104.921892
  0
LINE
  8
CSLAYER1
  6
CONTINUOUS
 62
     5
 10
2785.436412
 20
105.232640
 11
2785.436412
 21
104.732640
  0
LINE
  8
CSLAYER1
  6
CONTINUOUS
 62
     5
 10
2782.936412
 20
104.732640
 11
2785.436412
 21
104.732640
  0
ARC
  8
CSLAYER1
  6
CONTINUOUS
 62
     5
 10
2786.436412
 20
105.232640
 40
1.000000
 50
90.000000
 51
180.000000
  0
LINE
  8
CSLAYER1
  6
CONTINUOUS
 62
     5
 10
2788.859450
 20
106.232640
 11
2789.557007
 21
105.660643
  0
LINE
  8
CSLAYER1
  6
CONTINUOUS
 62
     5
 10
2790.159375
 20
105.636683
 11
2791.016972
 21
106.232640
  0
LINE
  8
CSLAYER1
  6
CONTINUOUS
 62
     5
 10
2792.595368
 20
106.232640
 11
2794.262494
 21
105.574564
  0
LINE
  8
CSLAYER1
  6
CONTINUOUS
 62
     5
 10
2794.686203
 20
105.601076
 11
2795.839690
 21
106.232640
  0
LINE
  8
CSLAYER1
  6
CONTINUOUS
 62
     5
 10
2791.016972
 20
106.232640
 11
2792.595368
 21
106.232640
  0
LINE
  8
CSLAYER1
  6
CONTINUOUS
 62
     5
 10
2795.839690
 20
106.232640
 11
2808.936412
 21
106.232640
  0
LINE
  8
CSLAYER1
  6
CONTINUOUS
 62
     5
 10
2761.485395
 20
103.123813
 11
2782.936412
 21
104.732640
  0
LINE
  8
CSLAYER1
  6
CONTINUOUS
 62
     5
 10
2757.484045
 20
103.209864
 11
2761.485395
 21
103.123813
  0
ARC
  8
CSLAYER1
  6
CONTINUOUS
 62
     5
 10
2789.874047
 20
106.047277
 40
0.500000
 50
230.648247
 51
304.796026
  0
ARC
  8
CSLAYER1
  6
CONTINUOUS
 62
     5
 10
2794.446077
 20
106.039642
 40
0.500000
 50
248.459024
 51
298.701829
  0
ARC
  8
CSLAYER1
  6
CONTINUOUS
 62
     5
 10
2749.691800
 20
112.747751
 40
0.300000
 50
-84.093859
 51
36.869898
  0
ARC
  8
CSLAYER1
  6
CONTINUOUS
 62
     5
 10
2749.226196
 20
114.679023
 40
0.700000
 50
85.301319
 51
194.142980
  0
LINE
  8
CSLAYER1
  6
CONTINUOUS
 62
     3
 10
2781.418237
 20
97.465795
 11
2789.528732
 21
97.465795
  0
LINE
  8
CSLAYER1
  6
CONTINUOUS
 62
     3
 10
2775.005720
 20
95.865795
 11
2792.649061
 21
95.865795
  0
LINE
  8
CSLAYER1
  6
CONTINUOUS
 62
     3
 10
2771.592781
 20
94.265795
 11
2795.524426
 21
94.265795
  0
LINE
  8
CSLAYER1
  6
CONTINUOUS
 62
     3
 10
2769.357462
 20
92.665795
 11
2797.367899
 21
92.665795
  0
LINE
  8
CSLAYER1
  6
CONTINUOUS
 62
     3
 10
2767.861806
 20
91.065795
 11
2798.602184
 21
91.065795
  0
LINE
  8
CSLAYER1
  6
CONTINUOUS
 62
     3
 10
2766.641492
 20
89.465795
 11
2799.651561
 21
89.465795
  0
LINE
  8
CSLAYER1
  6
CONTINUOUS
 62
     3
 10
2765.949600
 20
87.865795
 11
2800.377436
 21
87.865795
  0
LINE
  8
CSLAYER1
  6
CONTINUOUS
 62
     3
 10
2765.257708
 20
86.265795
 11
2800.715822
 21
86.265795
  0
LINE
  8
CSLAYER1
  6
CONTINUOUS
 62
     3
 10
2764.609358
 20
84.665795
 11
2801.054208
 21
84.665795
  0
LINE
  8
CSLAYER1
  6
CONTINUOUS
 62
     3
 10
2764.287699
 20
83.065795
 11
2801.392594
 21
83.065795
  0
LINE
  8
CSLAYER1
  6
CONTINUOUS
 62
     3
 10
2763.966040
 20
81.465795
 11
2779.556283
 21
81.465795
  0
LINE
  8
CSLAYER1
  6
CONTINUOUS
 62
     3
 10
2763.644381
 20
79.865795
 11
2778.024022
 21
79.865795
  0
LINE
  8
CSLAYER1
  6
CONTINUOUS
 62
     3
 10
2763.322722
 20
78.265795
 11
2777.235852
 21
78.265795
  0
LINE
  8
CSLAYER1
  6
CONTINUOUS
 62
     3
 10
2763.081604
 20
76.665795
 11
2776.917085
 21
76.665795
  0
LINE
  8
CSLAYER1
  6
CONTINUOUS
 62
     3
 10
2762.961434
 20
75.065795
 11
2776.967106
 21
75.065795
  0
LINE
  8
CSLAYER1
  6
CONTINUOUS
 62
     3
 10
2762.936412
 20
73.465795
 11
2777.513193
 21
73.465795
  0
LINE
  8
CSLAYER1
  6
CONTINUOUS
 62
     3
 10
2763.435600
 20
71.865795
 11
2779.543195
 21
71.865795
  0
LINE
  8
CSLAYER1
  6
CONTINUOUS
 62
     3
 10
2764.146711
 20
70.265795
 11
2796.674567
 21
70.265795
  0
LINE
  8
CSLAYER1
  6
CONTINUOUS
 62
     3
 10
2764.857823
 20
68.665795
 11
2796.223285
 21
68.665795
  0
LINE
  8
CSLAYER1
  6
CONTINUOUS
 62
     3
 10
2765.568934
 20
67.065795
 11
2795.500261
 21
67.065795
  0
LINE
  8
CSLAYER1
  6
CONTINUOUS
 62
     3
 10
2766.530893
 20
65.465795
 11
2794.602074
 21
65.465795
  0
LINE
  8
CSLAYER1
  6
CONTINUOUS
 62
     3
 10
2767.779354
 20
63.865795
 11
2793.097148
 21
63.865795
  0
LINE
  8
CSLAYER1
  6
CONTINUOUS
 62
     3
 10
2769.384774
 20
62.265795
 11
2790.704687
 21
62.265795
  0
LINE
  8
CSLAYER1
  6
CONTINUOUS
 62
     3
 10
2771.531916
 20
60.665795
 11
2787.579564
 21
60.665795
  0
LINE
  8
CSLAYER1
  6
CONTINUOUS
 62
     3
 10
2774.779606
 20
59.065795
 11
2782.941415
 21
59.065795
  0
LINE
  8
CSLAYER1
  6
CONTINUOUS
 62
     3
 10
2784.748107
 20
81.465795
 11
2801.567844
 21
81.465795
  0
LINE
  8
CSLAYER1
  6
CONTINUOUS
 62
     3
 10
2785.418851
 20
79.865795
 11
2801.442074
 21
79.865795
  0
LINE
  8
CSLAYER1
  6
CONTINUOUS
 62
     3
 10
2785.530858
 20
78.265795
 11
2801.316305
 21
78.265795
  0
LINE
  8
CSLAYER1
  6
CONTINUOUS
 62
     3
 10
2785.285501
 20
76.665795
 11
2800.602449
 21
76.665795
  0
LINE
  8
CSLAYER1
  6
CONTINUOUS
 62
     3
 10
2784.633855
 20
75.065795
 11
2799.881249
 21
75.065795
  0
LINE
  8
CSLAYER1
  6
CONTINUOUS
 62
     3
 10
2783.500592
 20
73.465795
 11
2798.947301
 21
73.465795
  0
LINE
  8
CSLAYER1
  6
CONTINUOUS
 62
     3
 10
2781.244595
 20
71.865795
 11
2797.676594
 21
71.865795
  0
TEXT
  8
CSLAYER1
 62
     5
 10
2802.108183
 20
79.476970
 40
4.713448
 41
1.951056
  1
M
 50
0.000000
 51
0.000000
  7
EASYDRAW_FONT
 72
     5
 11
2808.238985
 21
79.476970
  0
TEXT
  8
CSLAYER1
 62
     5
 10
2811.759570
 20
79.418700
 40
4.626621
 41
0.778201
  1
T
 50
0.000000
 51
0.000000
  7
EASYDRAW_FONT
 72
     5
 11
2814.159863
 21
79.418700
  0
TEXT
  8
CSLAYER1
 62
     5
 10
2814.525133
 20
79.453499
 40
4.696183
 41
1.055553
  1
E
 50
0.000000
 51
0.000000
  7
EASYDRAW_FONT
 72
     5
 11
2817.829848
 21
79.453499
  0
TEXT
  8
CSLAYER1
 62
     5
 10
2817.641314
 20
81.069343
 40
0.348283
 41
9.375319
  1
-
 50
0.000000
 51
0.000000
  7
EASYDRAW_FONT
 72
     5
 11
2819.818159
 21
81.069343
  0
TEXT
  8
CSLAYER1
 62
     5
 10
2819.455523
 20
79.422152
 40
4.861659
 41
1.298502
  1
H
 50
0.000000
 51
0.000000
  7
EASYDRAW_FONT
 72
     5
 11
2823.664106
 21
79.422152
  0
TEXT
  8
CSLAYER1
 62
     5
 10
2823.531538
 20
79.452530
 40
4.843139
 41
1.269236
  1
A
 50
0.000000
 51
0.000000
  7
EASYDRAW_FONT
 72
     5
 11
2827.629595
 21
79.452530
  0
TEXT
  8
CSLAYER1
 62
     5
 10
2827.237694
 20
79.411004
 40
4.825362
 41
1.490144
  1
N
 50
0.000000
 51
0.000000
  7
EASYDRAW_FONT
 72
     5
 11
2832.031349
 21
79.411004
  0
TEXT
  8
CSLAYER1
 62
     5
 10
2808.029152
 20
79.388431
 40
4.982325
 41
1.177443
  1
A
 50
0.000000
 51
0.000000
  7
EASYDRAW_FONT
 72
     5
 11
2811.940086
 21
79.388431
  0
TEXT
  8
CSLAYER1
 62
     5
 10
2802.475197
 20
72.393191
 40
4.982325
 41
1.177443
  1
A
 50
0.000000
 51
0.000000
  7
EASYDRAW_FONT
 72
     5
 11
2806.386131
 21
72.393191
  0
TEXT
  8
CSLAYER1
 62
     5
 10
2815.259621
 20
72.421512
 40
4.982325
 41
1.177443
  1
A
 50
0.000000
 51
0.000000
  7
EASYDRAW_FONT
 72
     5
 11
2819.170555
 21
72.421512
  0
TEXT
  8
CSLAYER1
 62
     5
 10
2819.020165
 20
72.478509
 40
4.825362
 41
1.490144
  1
N
 50
0.000000
 51
0.000000
  7
EASYDRAW_FONT
 72
     5
 11
2823.813819
 21
72.478509
  0
TEXT
  8
CSLAYER1
 62
     5
 10
2827.922501
 20
72.486903
 40
4.841775
 41
1.184218
  1
E
 50
0.000000
 51
0.000000
  7
EASYDRAW_FONT
 72
     5
 11
2831.744980
 21
72.486903
  0
TEXT
  8
CSLAYER1
 62
     5
 10
2806.755750
 20
72.391867
 40
4.947865
 41
1.093992
  1
D
 50
0.000000
 51
0.000000
  7
EASYDRAW_FONT
 72
     5
 11
2810.364367
 21
72.391867
  0
TEXT
  8
CSLAYER1
 62
     5
 10
2811.158109
 20
72.386482
 40
4.924210
 41
1.228195
  1
V
 50
0.000000
 51
0.000000
  7
EASYDRAW_FONT
 72
     5
 11
2815.190036
 21
72.386482
  0
TEXT
  8
CSLAYER1
 62
     5
 10
2823.383310
 20
72.407213
 40
5.032894
 41
1.481023
  1
C
 50
0.000000
 51
0.000000
  7
EASYDRAW_FONT
 72
     5
 11
2828.352530
 21
72.407213
  0
LINE
  8
CSLAYER1
  6
CONTINUOUS
 62
     5
 10
2814.013749
 20
83.467612
 11
2813.001687
 21
83.467612
  0
LINE
  8
CSLAYER1
  6
CONTINUOUS
 62
     3
 10
2763.111987
 20
117.692883
 11
2812.909813
 21
117.692883
  0
LINE
  8
CSLAYER1
  6
CONTINUOUS
 62
     3
 10
2755.999623
 20
116.092883
 11
2823.989505
 21
116.092883
  0
LINE
  8
CSLAYER1
  6
CONTINUOUS
 62
     3
 10
2748.551219
 20
114.492883
 11
2793.974529
 21
114.492883
  0
LINE
  8
CSLAYER1
  6
CONTINUOUS
 62
     3
 10
2806.936079
 20
114.492883
 11
2816.522682
 21
114.492883
  0
LINE
  8
CSLAYER1
  6
CONTINUOUS
 62
     3
 10
2820.831816
 20
114.492883
 11
2829.344813
 21
114.492883
  0
LINE
  8
CSLAYER1
  6
CONTINUOUS
 62
     3
 10
2749.954358
 20
112.892883
 11
2806.660827
 21
112.892883
  0
LINE
  8
CSLAYER1
  6
CONTINUOUS
 62
     3
 10
2826.840965
 20
112.892883
 11
2832.947211
 21
112.892883
  0
LINE
  8
CSLAYER1
  6
CONTINUOUS
 62
     3
 10
2748.042024
 20
111.292883
 11
2820.796375
 21
111.292883
  0
LINE
  8
CSLAYER1
  6
CONTINUOUS
 62
     3
 10
2832.742264
 20
111.292883
 11
2834.975986
 21
111.292883
  0
LINE
  8
CSLAYER1
  6
CONTINUOUS
 62
     3
 10
2746.979799
 20
109.692883
 11
2828.508231
 21
109.692883
  0
LINE
  8
CSLAYER1
  6
CONTINUOUS
 62
     3
 10
2748.655466
 20
108.092883
 11
2833.317540
 21
108.092883
  0
LINE
  8
CSLAYER1
  6
CONTINUOUS
 62
     3
 10
2749.823033
 20
106.492883
 11
2808.936412
 21
106.492883
  0
LINE
  8
CSLAYER1
  6
CONTINUOUS
 62
     3
 10
2824.436177
 20
106.492883
 11
2839.440500
 21
106.492883
  0
LINE
  8
CSLAYER1
  6
CONTINUOUS
 62
     3
 10
2750.068157
 20
104.892883
 11
2785.436412
 21
104.892883
  0
LINE
  8
CSLAYER1
  6
CONTINUOUS
 62
     3
 10
2832.005106
 20
104.892883
 11
2841.527709
 21
104.892883
  0
LINE
  8
CSLAYER1
  6
CONTINUOUS
 62
     3
 10
2750.274482
 20
103.292883
 11
2763.739655
 21
103.292883
  0
LINE
  8
CSLAYER1
  6
CONTINUOUS
 62
     3
 10
2839.465455
 20
103.292883
 11
2845.950473
 21
103.292883
  0
LINE
  8
CSLAYER1
  6
CONTINUOUS
 62
     3
 10
2847.528449
 20
101.692883
 11
2849.697303
 21
101.692883
  0
ENDBLK
  8
0
  0
BLOCK
  8
CSLAYER1
  2
BLKF0001
 70
   64
 10
0.0
 20
0.0
 30
0.0
  0
LINE
  8
CSLAYER1
  6
CONTINUOUS
 62
     3
 10
2727.098613
 20
2012.174692
 11
2727.098613
 21
2074.174692
  0
LINE
  8
CSLAYER1
  6
CONTINUOUS
 62
     3
 10
2729.598613
 20
2009.674692
 11
2814.598613
 21
2009.674692
  0
LINE
  8
CSLAYER1
  6
CENTER
 62
     5
 10
2668.748974
 20
2082.174692
 11
2727.098613
 21
2082.174692
  0
LINE
  8
CSLAYER1
  6
CONTINUOUS
 62
     2
 10
2729.598613
 20
2066.174692
 11
2814.598613
 21
2066.174692
  0
LINE
  8
CSLAYER1
  6
CONTINUOUS
 62
     3
 10
2729.598613
 20
2014.674692
 11
2729.598613
 21
2059.674692
  0
LINE
  8
CSLAYER1
  6
CONTINUOUS
 62
     3
 10
2817.098613
 20
2012.174692
 11
2817.098613
 21
2082.174692
  0
LINE
  8
CSLAYER1
  6
CONTINUOUS
 62
     3
 10
2732.098613
 20
2012.174692
 11
2809.098613
 21
2012.174692
  0
LINE
  8
CSLAYER1
  6
CONTINUOUS
 62
     3
 10
2732.098613
 20
2062.174692
 11
2809.098613
 21
2062.174692
  0
ARC
  8
CSLAYER1
  6
CONTINUOUS
 62
     3
 10
2755.030432
 20
2037.174692
 40
59.568182
 50
-24.814837
 51
24.814837
  0
ARC
  8
CSLAYER1
  6
CONTINUOUS
 62
     3
 10
2732.098613
 20
2014.674692
 40
2.500000
 50
180.000000
 51
270.000000
  0
ARC
  8
CSLAYER1
  6
CONTINUOUS
 62
     3
 10
2732.098613
 20
2059.674692
 40
2.500000
 50
90.000000
 51
180.000000
  0
ARC
  8
CSLAYER1
  6
CONTINUOUS
 62
     3
 10
2729.598613
 20
2012.174692
 40
2.500000
 50
180.000000
 51
270.000000
  0
ARC
  8
CSLAYER1
  6
CONTINUOUS
 62
     3
 10
2814.598613
 20
2012.174692
 40
2.500000
 50
270.000000
 51
360.000000
  0
ARC
  8
CSLAYER1
  6
CONTINUOUS
 62
     2
 10
2814.598613
 20
2068.674692
 40
2.500000
 50
270.000000
 51
360.000000
  0
ARC
  8
CSLAYER1
  6
CONTINUOUS
 62
     2
 10
2729.598613
 20
2068.674692
 40
2.500000
 50
180.000000
 51
270.000000
  0
LINE
  8
CSLAYER1
  6
CONTINUOUS
 62
     3
 10
2727.098613
 20
2152.174692
 11
2727.098613
 21
2090.174692
  0
LINE
  8
CSLAYER1
  6
CONTINUOUS
 62
     3
 10
2729.598613
 20
2154.674692
 11
2814.598613
 21
2154.674692
  0
LINE
  8
CSLAYER1
  6
CONTINUOUS
 62
     2
 10
2729.598613
 20
2098.174692
 11
2814.598613
 21
2098.174692
  0
LINE
  8
CSLAYER1
  6
CONTINUOUS
 62
     3
 10
2817.098613
 20
2152.174692
 11
2817.098613
 21
2082.174692
  0
ARC
  8
CSLAYER1
  6
CONTINUOUS
 62
     3
 10
2729.598613
 20
2152.174692
 40
2.500000
 50
90.000000
 51
180.000000
  0
ARC
  8
CSLAYER1
  6
CONTINUOUS
 62
     3
 10
2814.598613
 20
2152.174692
 40
2.500000
 50
-0.000000
 51
90.000000
  0
ARC
  8
CSLAYER1
  6
CONTINUOUS
 62
     2
 10
2814.598613
 20
2095.674692
 40
2.500000
 50
-0.000000
 51
90.000000
  0
ARC
  8
CSLAYER1
  6
CONTINUOUS
 62
     2
 10
2729.598613
 20
2095.674692
 40
2.500000
 50
90.000000
 51
180.000000
  0
LINE
  8
CSLAYER1
  6
CONTINUOUS
 62
     3
 10
2729.598613
 20
2149.674692
 11
2729.598613
 21
2104.674692
  0
LINE
  8
CSLAYER1
  6
CONTINUOUS
 62
     3
 10
2732.098613
 20
2152.174692
 11
2809.098613
 21
2152.174692
  0
LINE
  8
CSLAYER1
  6
CONTINUOUS
 62
     3
 10
2732.098613
 20
2102.174692
 11
2809.098613
 21
2102.174692
  0
ARC
  8
CSLAYER1
  6
CONTINUOUS
 62
     3
 10
2755.030432
 20
2127.174692
 40
59.568182
 50
-24.814837
 51
24.814837
  0
ARC
  8
CSLAYER1
  6
CONTINUOUS
 62
     3
 10
2732.098613
 20
2149.674692
 40
2.500000
 50
90.000000
 51
180.000000
  0
ARC
  8
CSLAYER1
  6
CONTINUOUS
 62
     3
 10
2732.098613
 20
2104.674692
 40
2.500000
 50
180.000000
 51
270.000000
  0
LINE
  8
CSLAYER1
  6
CONTINUOUS
 62
     3
 10
2720.098613
 20
2089.174692
 11
2720.098613
 21
2085.674692
  0
LINE
  8
CSLAYER1
  6
CONTINUOUS
 62
     3
 10
2668.748974
 20
2085.674692
 11
2720.098613
 21
2085.674692
  0
LINE
  8
CSLAYER1
  6
CONTINUOUS
 62
     3
 10
2721.098613
 20
2090.174692
 11
2727.098613
 21
2090.174692
  0
LINE
  8
CSLAYER1
  6
CONTINUOUS
 62
     3
 10
2721.098613
 20
2074.174692
 11
2727.098613
 21
2074.174692
  0
LINE
  8
CSLAYER1
  6
CONTINUOUS
 62
     3
 10
2668.748974
 20
2078.674692
 11
2720.098613
 21
2078.674692
  0
ARC
  8
CSLAYER1
  6
CONTINUOUS
 62
     3
 10
2721.098613
 20
2075.174692
 40
1.000000
 50
180.000000
 51
270.000000
  0
ARC
  8
CSLAYER1
  6
CONTINUOUS
 62
     3
 10
2721.098613
 20
2089.174692
 40
1.000000
 50
90.000000
 51
180.000000
  0
LINE
  8
CSLAYER1
  6
CONTINUOUS
 62
     3
 10
2720.098613
 20
2078.674692
 11
2720.098613
 21
2075.174692
  0
LINE
  8
CSLAYER1
  6
CONTINUOUS
 62
     2
 10
2720.098613
 20
2085.674692
 11
2720.098613
 21
2078.674692
  0
LINE
  8
CSLAYER1
  6
CONTINUOUS
 62
     2
 10
2727.098613
 20
2074.174692
 11
2727.098613
 21
2082.174692
  0
LINE
  8
CSLAYER1
  6
CONTINUOUS
 62
     2
 10
2727.098613
 20
2090.174692
 11
2727.098613
 21
2082.174692
  0
LINE
  8
CSLAYER1
  6
CONTINUOUS
 62
     2
 10
2746.591625
 20
2070.012033
 11
2737.456625
 21
2070.012033
  0
LINE
  8
CSLAYER1
  6
CONTINUOUS
 62
     2
 10
2746.591625
 20
2093.637033
 11
2737.456625
 21
2093.637033
  0
LINE
  8
CSLAYER1
  6
CONTINUOUS
 62
     2
 10
2736.196625
 20
2071.272033
 11
2736.196625
 21
2092.377033
  0
LINE
  8
CSLAYER1
  6
CONTINUOUS
 62
     2
 10
2747.851625
 20
2071.272033
 11
2747.851625
 21
2092.377033
  0
LINE
  8
CSLAYER1
  6
CONTINUOUS
 62
     2
 10
2745.961625
 20
2091.747033
 11
2737.929125
 21
2091.747033
  0
LINE
  8
CSLAYER1
  6
CONTINUOUS
 62
     2
 10
2745.961625
 20
2088.597033
 11
2745.016625
 21
2088.597033
  0
LINE
  8
CSLAYER1
  6
CONTINUOUS
 62
     2
 10
2745.961625
 20
2079.934533
 11
2745.016625
 21
2079.934533
  0
LINE
  8
CSLAYER1
  6
CONTINUOUS
 62
     2
 10
2745.961625
 20
2075.367033
 11
2740.921625
 21
2075.367033
  0
LINE
  8
CSLAYER1
  6
CONTINUOUS
 62
     2
 10
2747.064125
 20
2076.469533
 11
2747.064125
 21
2078.832033
  0
LINE
  8
CSLAYER1
  6
CONTINUOUS
 62
     2
 10
2739.819125
 20
2076.469533
 11
2739.819125
 21
2078.832033
  0
LINE
  8
CSLAYER1
  6
CONTINUOUS
 62
     2
 10
2736.826625
 20
2089.699533
 11
2736.826625
 21
2090.644533
  0
LINE
  8
CSLAYER1
  6
CONTINUOUS
 62
     2
 10
2744.071625
 20
2080.879533
 11
2744.071625
 21
2087.652033
  0
LINE
  8
CSLAYER1
  6
CONTINUOUS
 62
     2
 10
2743.284125
 20
2080.879533
 11
2743.284125
 21
2087.652033
  0
ARC
  8
CSLAYER1
  6
CONTINUOUS
 62
     2
 10
2745.961625
 20
2076.469533
 40
1.102500
 50
270.000000
 51
360.000000
  0
ARC
  8
CSLAYER1
  6
CONTINUOUS
 62
     2
 10
2740.921625
 20
2076.469533
 40
1.102500
 50
180.000000
 51
270.000000
  0
ARC
  8
CSLAYER1
  6
CONTINUOUS
 62
     2
 10
2740.921625
 20
2078.832033
 40
1.102500
 50
90.000000
 51
180.000000
  0
ARC
  8
CSLAYER1
  6
CONTINUOUS
 62
     2
 10
2745.961625
 20
2078.832033
 40
1.102500
 50
-0.000000
 51
90.000000
  0
ARC
  8
CSLAYER1
  6
CONTINUOUS
 62
     2
 10
2737.929125
 20
2089.699533
 40
1.102500
 50
180.000000
 51
270.000000
  0
ARC
  8
CSLAYER1
  6
CONTINUOUS
 62
     2
 10
2737.929125
 20
2090.644533
 40
1.102500
 50
90.000000
 51
180.000000
  0
ARC
  8
CSLAYER1
  6
CONTINUOUS
 62
     2
 10
2745.961625
 20
2090.644533
 40
1.102500
 50
-0.000000
 51
90.000000
  0
ARC
  8
CSLAYER1
  6
CONTINUOUS
 62
     2
 10
2745.961625
 20
2089.699533
 40
1.102500
 50
270.000000
 51
360.000000
  0
LINE
  8
CSLAYER1
  6
CONTINUOUS
 62
     2
 10
2742.339125
 20
2079.934533
 11
2740.921625
 21
2079.934533
  0
LINE
  8
CSLAYER1
  6
CONTINUOUS
 62
     2
 10
2742.339125
 20
2088.597033
 11
2737.929125
 21
2088.597033
  0
ARC
  8
CSLAYER1
  6
CONTINUOUS
 62
     2
 10
2745.016625
 20
2080.879533
 40
0.945000
 50
180.000000
 51
270.000000
  0
ARC
  8
CSLAYER1
  6
CONTINUOUS
 62
     2
 10
2742.339125
 20
2080.879533
 40
0.945000
 50
270.000000
 51
360.000000
  0
ARC
  8
CSLAYER1
  6
CONTINUOUS
 62
     2
 10
2742.339125
 20
2087.652033
 40
0.945000
 50
-0.000000
 51
90.000000
  0
ARC
  8
CSLAYER1
  6
CONTINUOUS
 62
     2
 10
2746.591625
 20
2071.272033
 40
1.260000
 50
270.000000
 51
360.000000
  0
ARC
  8
CSLAYER1
  6
CONTINUOUS
 62
     2
 10
2737.456625
 20
2071.272033
 40
1.260000
 50
180.000000
 51
270.000000
  0
ARC
  8
CSLAYER1
  6
CONTINUOUS
 62
     2
 10
2737.456625
 20
2092.377033
 40
1.260000
 50
90.000000
 51
180.000000
  0
ARC
  8
CSLAYER1
  6
CONTINUOUS
 62
     2
 10
2746.591625
 20
2092.377033
 40
1.260000
 50
-0.000000
 51
90.000000
  0
ARC
  8
CSLAYER1
  6
CONTINUOUS
 62
     2
 10
2745.016625
 20
2087.652033
 40
0.945000
 50
90.000000
 51
180.000000
  0
LINE
  8
CSLAYER1
  6
CONTINUOUS
 62
     2
 10
2747.064125
 20
2089.699533
 11
2747.064125
 21
2090.644533
  0
CIRCLE
  8
CSLAYER1
  6
CONTINUOUS
 62
     2
 10
2761.598613
 20
2032.174692
 40
2.500000
  0
CIRCLE
  8
CSLAYER1
  6
CONTINUOUS
 62
     2
 10
2761.598613
 20
2022.174692
 40
2.500000
  0
CIRCLE
  8
CSLAYER1
  6
CONTINUOUS
 62
     2
 10
2771.598613
 20
2022.174692
 40
2.500000
  0
CIRCLE
  8
CSLAYER1
  6
CONTINUOUS
 62
     2
 10
2771.598613
 20
2032.174692
 40
2.500000
  0
CIRCLE
  8
CSLAYER1
  6
CONTINUOUS
 62
     2
 10
2781.598613
 20
2032.174692
 40
2.500000
  0
CIRCLE
  8
CSLAYER1
  6
CONTINUOUS
 62
     2
 10
2781.598613
 20
2022.174692
 40
2.500000
  0
CIRCLE
  8
CSLAYER1
  6
CONTINUOUS
 62
     2
 10
2791.598613
 20
2022.174692
 40
2.500000
  0
CIRCLE
  8
CSLAYER1
  6
CONTINUOUS
 62
     2
 10
2791.598613
 20
2032.174692
 40
2.500000
  0
CIRCLE
  8
CSLAYER1
  6
CONTINUOUS
 62
     2
 10
2801.598613
 20
2032.174692
 40
2.500000
  0
CIRCLE
  8
CSLAYER1
  6
CONTINUOUS
 62
     2
 10
2801.598613
 20
2022.174692
 40
2.500000
  0
CIRCLE
  8
CSLAYER1
  6
CONTINUOUS
 62
     2
 10
2761.598613
 20
2042.174692
 40
2.500000
  0
CIRCLE
  8
CSLAYER1
  6
CONTINUOUS
 62
     2
 10
2761.598613
 20
2052.174692
 40
2.500000
  0
CIRCLE
  8
CSLAYER1
  6
CONTINUOUS
 62
     2
 10
2771.598613
 20
2052.174692
 40
2.500000
  0
CIRCLE
  8
CSLAYER1
  6
CONTINUOUS
 62
     2
 10
2771.598613
 20
2042.174692
 40
2.500000
  0
CIRCLE
  8
CSLAYER1
  6
CONTINUOUS
 62
     2
 10
2781.598613
 20
2042.174692
 40
2.500000
  0
CIRCLE
  8
CSLAYER1
  6
CONTINUOUS
 62
     2
 10
2781.598613
 20
2052.174692
 40
2.500000
  0
CIRCLE
  8
CSLAYER1
  6
CONTINUOUS
 62
     2
 10
2791.598613
 20
2052.174692
 40
2.500000
  0
CIRCLE
  8
CSLAYER1
  6
CONTINUOUS
 62
     2
 10
2791.598613
 20
2042.174692
 40
2.500000
  0
CIRCLE
  8
CSLAYER1
  6
CONTINUOUS
 62
     2
 10
2801.598613
 20
2042.174692
 40
2.500000
  0
CIRCLE
  8
CSLAYER1
  6
CONTINUOUS
 62
     2
 10
2801.598613
 20
2052.174692
 40
2.500000
  0
CIRCLE
  8
CSLAYER1
  6
CONTINUOUS
 62
     2
 10
2761.598613
 20
2132.174692
 40
2.500000
  0
CIRCLE
  8
CSLAYER1
  6
CONTINUOUS
 62
     2
 10
2761.598613
 20
2142.174692
 40
2.500000
  0
CIRCLE
  8
CSLAYER1
  6
CONTINUOUS
 62
     2
 10
2771.598613
 20
2142.174692
 40
2.500000
  0
CIRCLE
  8
CSLAYER1
  6
CONTINUOUS
 62
     2
 10
2771.598613
 20
2132.174692
 40
2.500000
  0
CIRCLE
  8
CSLAYER1
  6
CONTINUOUS
 62
     2
 10
2781.598613
 20
2132.174692
 40
2.500000
  0
CIRCLE
  8
CSLAYER1
  6
CONTINUOUS
 62
     2
 10
2781.598613
 20
2142.174692
 40
2.500000
  0
CIRCLE
  8
CSLAYER1
  6
CONTINUOUS
 62
     2
 10
2791.598613
 20
2142.174692
 40
2.500000
  0
CIRCLE
  8
CSLAYER1
  6
CONTINUOUS
 62
     2
 10
2791.598613
 20
2132.174692
 40
2.500000
  0
CIRCLE
  8
CSLAYER1
  6
CONTINUOUS
 62
     2
 10
2801.598613
 20
2132.174692
 40
2.500000
  0
CIRCLE
  8
CSLAYER1
  6
CONTINUOUS
 62
     2
 10
2801.598613
 20
2142.174692
 40
2.500000
  0
CIRCLE
  8
CSLAYER1
  6
CONTINUOUS
 62
     2
 10
2761.598613
 20
2122.174692
 40
2.500000
  0
CIRCLE
  8
CSLAYER1
  6
CONTINUOUS
 62
     2
 10
2761.598613
 20
2112.174692
 40
2.500000
  0
CIRCLE
  8
CSLAYER1
  6
CONTINUOUS
 62
     2
 10
2771.598613
 20
2112.174692
 40
2.500000
  0
CIRCLE
  8
CSLAYER1
  6
CONTINUOUS
 62
     2
 10
2771.598613
 20
2122.174692
 40
2.500000
  0
CIRCLE
  8
CSLAYER1
  6
CONTINUOUS
 62
     2
 10
2781.598613
 20
2122.174692
 40
2.500000
  0
CIRCLE
  8
CSLAYER1
  6
CONTINUOUS
 62
     2
 10
2781.598613
 20
2112.174692
 40
2.500000
  0
CIRCLE
  8
CSLAYER1
  6
CONTINUOUS
 62
     2
 10
2791.598613
 20
2112.174692
 40
2.500000
  0
CIRCLE
  8
CSLAYER1
  6
CONTINUOUS
 62
     2
 10
2791.598613
 20
2122.174692
 40
2.500000
  0
CIRCLE
  8
CSLAYER1
  6
CONTINUOUS
 62
     2
 10
2801.598613
 20
2122.174692
 40
2.500000
  0
CIRCLE
  8
CSLAYER1
  6
CONTINUOUS
 62
     2
 10
2801.598613
 20
2112.174692
 40
2.500000
  0
LINE
  8
CSLAYER1
  6
CONTINUOUS
 62
     2
 10
2735.598613
 20
2109.674692
 11
2735.598613
 21
2144.674692
  0
LINE
  8
CSLAYER1
  6
CONTINUOUS
 62
     2
 10
2751.598613
 20
2109.674692
 11
2751.598613
 21
2144.674692
  0
LINE
  8
CSLAYER1
  6
CONTINUOUS
 62
     2
 10
2737.098613
 20
2108.174692
 11
2750.098613
 21
2108.174692
  0
LINE
  8
CSLAYER1
  6
CONTINUOUS
 62
     2
 10
2736.598613
 20
2109.674692
 11
2736.598613
 21
2144.674692
  0
LINE
  8
CSLAYER1
  6
CONTINUOUS
 62
     2
 10
2750.598613
 20
2109.674692
 11
2750.598613
 21
2144.674692
  0
LINE
  8
CSLAYER1
  6
CONTINUOUS
 62
     2
 10
2737.098613
 20
2109.174692
 11
2750.098613
 21
2109.174692
  0
LINE
  8
CSLAYER1
  6
CONTINUOUS
 62
     2
 10
2737.098613
 20
2146.174692
 11
2750.098613
 21
2146.174692
  0
LINE
  8
CSLAYER1
  6
CONTINUOUS
 62
     2
 10
2737.098613
 20
2145.174692
 11
2750.098613
 21
2145.174692
  0
ARC
  8
CSLAYER1
  6
CONTINUOUS
 62
     2
 10
2737.098613
 20
2109.674692
 40
0.500000
 50
180.000000
 51
270.000000
  0
ARC
  8
CSLAYER1
  6
CONTINUOUS
 62
     2
 10
2750.098613
 20
2109.674692
 40
0.500000
 50
270.000000
 51
360.000000
  0
ARC
  8
CSLAYER1
  6
CONTINUOUS
 62
     2
 10
2737.098613
 20
2144.674692
 40
0.500000
 50
90.000000
 51
180.000000
  0
ARC
  8
CSLAYER1
  6
CONTINUOUS
 62
     2
 10
2750.098613
 20
2144.674692
 40
0.500000
 50
-0.000000
 51
90.000000
  0
ARC
  8
CSLAYER1
  6
CONTINUOUS
 62
     2
 10
2737.098613
 20
2109.674692
 40
1.500000
 50
180.000000
 51
270.000000
  0
ARC
  8
CSLAYER1
  6
CONTINUOUS
 62
     2
 10
2750.098613
 20
2109.674692
 40
1.500000
 50
270.000000
 51
360.000000
  0
ARC
  8
CSLAYER1
  6
CONTINUOUS
 62
     2
 10
2737.098613
 20
2144.674692
 40
1.500000
 50
90.000000
 51
180.000000
  0
ARC
  8
CSLAYER1
  6
CONTINUOUS
 62
     2
 10
2750.098613
 20
2144.674692
 40
1.500000
 50
-0.000000
 51
90.000000
  0
LINE
  8
CSLAYER1
  6
CONTINUOUS
 62
     2
 10
2740.598613
 20
2118.174692
 11
2740.598613
 21
2136.174692
  0
LINE
  8
CSLAYER1
  6
CONTINUOUS
 62
     2
 10
2737.520541
 20
2127.174692
 11
2740.598613
 21
2136.174692
  0
LINE
  8
CSLAYER1
  6
CONTINUOUS
 62
     2
 10
2737.520541
 20
2127.174692
 11
2740.598613
 21
2118.174692
  0
TEXT
  8
CSLAYER1
 62
     2
 10
2748.892404
 20
2118.194649
 40
7.066058
 41
1.574983
  1
UP
 50
90.000000
 51
0.000000
  7
EASYDRAW_FONT
 72
     5
 11
2748.892404
 21
2136.742851
  0
LINE
  8
CSLAYER1
  6
CONTINUOUS
 62
     2
 10
2735.598613
 20
2054.674692
 11
2735.598613
 21
2019.674692
  0
LINE
  8
CSLAYER1
  6
CONTINUOUS
 62
     2
 10
2751.598613
 20
2054.674692
 11
2751.598613
 21
2019.674692
  0
LINE
  8
CSLAYER1
  6
CONTINUOUS
 62
     2
 10
2737.098613
 20
2056.174692
 11
2750.098613
 21
2056.174692
  0
LINE
  8
CSLAYER1
  6
CONTINUOUS
 62
     2
 10
2736.598613
 20
2054.674692
 11
2736.598613
 21
2019.674692
  0
LINE
  8
CSLAYER1
  6
CONTINUOUS
 62
     2
 10
2750.598613
 20
2054.674692
 11
2750.598613
 21
2019.674692
  0
LINE
  8
CSLAYER1
  6
CONTINUOUS
 62
     2
 10
2737.098613
 20
2055.174692
 11
2750.098613
 21
2055.174692
  0
LINE
  8
CSLAYER1
  6
CONTINUOUS
 62
     2
 10
2737.098613
 20
2018.174692
 11
2750.098613
 21
2018.174692
  0
LINE
  8
CSLAYER1
  6
CONTINUOUS
 62
     2
 10
2737.098613
 20
2019.174692
 11
2750.098613
 21
2019.174692
  0
ARC
  8
CSLAYER1
  6
CONTINUOUS
 62
     2
 10
2737.098613
 20
2054.674692
 40
0.500000
 50
90.000000
 51
180.000000
  0
ARC
  8
CSLAYER1
  6
CONTINUOUS
 62
     2
 10
2750.098613
 20
2054.674692
 40
0.500000
 50
-0.000000
 51
90.000000
  0
ARC
  8
CSLAYER1
  6
CONTINUOUS
 62
     2
 10
2737.098613
 20
2019.674692
 40
0.500000
 50
180.000000
 51
270.000000
  0
ARC
  8
CSLAYER1
  6
CONTINUOUS
 62
     2
 10
2750.098613
 20
2019.674692
 40
0.500000
 50
270.000000
 51
360.000000
  0
ARC
  8
CSLAYER1
  6
CONTINUOUS
 62
     2
 10
2737.098613
 20
2054.674692
 40
1.500000
 50
90.000000
 51
180.000000
  0
ARC
  8
CSLAYER1
  6
CONTINUOUS
 62
     2
 10
2750.098613
 20
2054.674692
 40
1.500000
 50
-0.000000
 51
90.000000
  0
ARC
  8
CSLAYER1
  6
CONTINUOUS
 62
     2
 10
2737.098613
 20
2019.674692
 40
1.500000
 50
180.000000
 51
270.000000
  0
ARC
  8
CSLAYER1
  6
CONTINUOUS
 62
     2
 10
2750.098613
 20
2019.674692
 40
1.500000
 50
270.000000
 51
360.000000
  0
LINE
  8
CSLAYER1
  6
CONTINUOUS
 62
     2
 10
2746.071544
 20
2046.174692
 11
2746.071544
 21
2028.174692
  0
LINE
  8
CSLAYER1
  6
CONTINUOUS
 62
     2
 10
2749.149616
 20
2037.174692
 11
2746.071544
 21
2028.174692
  0
LINE
  8
CSLAYER1
  6
CONTINUOUS
 62
     2
 10
2749.149616
 20
2037.174692
 11
2746.071544
 21
2046.174692
  0
TEXT
  8
CSLAYER1
 62
     2
 10
2744.461563
 20
2022.476958
 40
6.383575
 41
1.255870
  1
DOWN
 50
90.000000
 51
0.000000
  7
EASYDRAW_FONT
 72
     5
 11
2744.461563
 21
2051.872407
  0
ENDBLK
  8
0
  0
ENDSEC
  0
SECTION
  2
ENTITIES
  0
LINE
  8
CSLAYER1
  6
CONTINUOUS
 62
     3
 10
118.051807
 20
2400.454119
 11
118.051807
 21
51.907189
  0
LINE
  8
CSLAYER1
  6
CONTINUOUS
 62
     3
 10
3440.625117
 20
2400.454119
 11
118.051807
 21
2400.454119
  0
LINE
  8
CSLAYER1
  6
CONTINUOUS
 62
     3
 10
3440.625117
 20
2400.454119
 11
3440.625117
 21
51.907189
  0
LINE
  8
CSLAYER1
  6
CONTINUOUS
 62
     3
 10
3440.625117
 20
51.907189
 11
118.051807
 21
51.907189
  0
LINE
  8
CSLAYER1
  6
CONTINUOUS
 62
     5
 10
68.051807
 20
1211.907189
 11
18.051807
 21
1211.907189
  0
LINE
  8
CSLAYER1
  6
CONTINUOUS
 62
     5
 10
2640.625117
 20
491.907189
 11
3440.625117
 21
491.907189
  0
LINE
  8
CSLAYER1
  6
CONTINUOUS
 62
     5
 10
2640.625117
 20
131.907189
 11
3440.625117
 21
131.907189
  0
LINE
  8
CSLAYER1
  6
CONTINUOUS
 62
     5
 10
2640.625117
 20
291.907189
 11
3440.625117
 21
291.907189
  0
LINE
  8
CSLAYER1
  6
CONTINUOUS
 62
     5
 10
2640.625117
 20
351.907189
 11
3440.625117
 21
351.907189
  0
LINE
  8
CSLAYER1
  6
CONTINUOUS
 62
     5
 10
2640.625117
 20
411.907189
 11
3440.625117
 21
411.907189
  0
LINE
  8
CSLAYER1
  6
CONTINUOUS
 62
     5
 10
2640.625117
 20
571.907189
 11
3440.625117
 21
571.907189
  0
LINE
  8
CSLAYER1
  6
CONTINUOUS
 62
     5
 10
2640.625117
 20
651.907189
 11
2640.625117
 21
51.907189
  0
LINE
  8
CSLAYER1
  6
CONTINUOUS
 62
     5
 10
2840.625117
 20
651.907189
 11
2840.625117
 21
411.907189
  0
LINE
  8
CSLAYER1
  6
CONTINUOUS
 62
     5
 10
2640.625117
 20
651.907189
 11
3440.625117
 21
651.907189
  0
LINE
  8
CSLAYER1
  6
CONTINUOUS
 62
     5
 10
3140.625117
 20
411.907189
 11
3140.625117
 21
131.907189
  0
TEXT
  8
CSLAYER1
 62
     3
 10
2860.316219
 20
60.469913
 40
59.380363
 41
1.003345
  1
東正車輌株式会社
 50
0.000000
 51
0.000000
  7
EASYDRAW_FONT
 72
     5
 11
3317.088566
 21
60.469913
  0
LINE
  8
CSLAYER1
  6
CONTINUOUS
 62
     5
 10
2890.625117
 20
351.907189
 11
2890.625117
 21
131.907189
  0
TEXT
  8
CSLAYER1
 62
     5
 10
2670.625000
 20
586.907166
 40
50.000000
 41
1.050000
  1
品　名
 50
0.000000
 51
0.000000
  7
EASYDRAW_FONT
 72
     5
 11
2810.625000
 21
586.907166
  0
TEXT
  8
CSLAYER1
 62
     5
 10
2670.625000
 20
506.907166
 40
50.000000
 41
1.050000
  1
型　式
 50
0.000000
 51
0.000000
  7
EASYDRAW_FONT
 72
     5
 11
2810.625000
 21
506.907166
  0
TEXT
  8
CSLAYER1
 62
     5
 10
2645.625000
 20
426.907196
 40
50.000000
 41
1.036364
  1
図面番号
 50
0.000000
 51
0.000000
  7
EASYDRAW_FONT
 72
     5
 11
2835.625000
 21
426.907196
  0
TEXT
  8
CSLAYER1
 62
     5
 10
3220.625000
 20
356.907196
 40
50.000000
 41
1.050000
  1
Ｂ－４
 50
0.000000
 51
0.000000
  7
EASYDRAW_FONT
 72
     5
 11
3360.625000
 21
356.907196
  0
TEXT
  8
CSLAYER1
 62
     5
 10
2695.625000
 20
296.907196
 40
50.000000
 41
1.050000
  1
検　図
 50
0.000000
 51
0.000000
  7
EASYDRAW_FONT
 72
     5
 11
2835.625000
 21
296.907196
  0
TEXT
  8
CSLAYER1
 62
     5
 10
2945.625000
 20
296.907196
 40
50.000000
 41
1.050000
  1
作　図
 50
0.000000
 51
0.000000
  7
EASYDRAW_FONT
 72
     5
 11
3085.625000
 21
296.907196
  0
TEXT
  8
CSLAYER1
 62
     5
 10
3220.625000
 20
296.907196
 40
50.000000
 41
1.050000
  1
尺　度
 50
0.000000
 51
0.000000
  7
EASYDRAW_FONT
 72
     5
 11
3360.625000
 21
296.907196
  0
TEXT
  8
CSLAYER1
 62
     5
 10
3321.363770
 20
146.392456
 40
50.000000
 41
1.080000
  1
１０
 50
0.000000
 51
0.000000
  7
EASYDRAW_FONT
 72
     5
 11
3411.363770
 21
146.392456
  0
TEXT
  8
CSLAYER1
 62
     5
 10
3301.044189
 20
194.097153
 40
50.000000
 41
1.200000
  1
／
 50
0.000000
 51
0.000000
  7
EASYDRAW_FONT
 72
     5
 11
3341.044189
 21
194.097153
  0
TEXT
  8
CSLAYER1
 62
     5
 10
3270.831299
 20
229.080597
 40
50.000000
 41
1.200000
  1
１
 50
0.000000
 51
0.000000
  7
EASYDRAW_FONT
 72
     5
 11
3310.831299
 21
229.080597
  0
TEXT
  8
CSLAYER1
 62
     3
 10
2980.625000
 20
586.907166
 40
50.000000
 41
0.834783
  1
ゴールドリフター
 50
0.000000
 51
0.000000
  7
EASYDRAW_FONT
 72
     5
 11
3300.625000
 21
586.907166
  0
TEXT
  8
CSLAYER1
 62
     3
 10
2880.625000
 20
506.907166
 40
50.000000
 41
0.821053
  1
ＧＬＩ－５００－０６１２Ｊ
 50
0.000000
 51
0.000000
  7
EASYDRAW_FONT
 72
     5
 11
3400.625000
 21
506.907166
  0
TEXT
  8
CSLAYER1
 62
     3
 10
3040.625000
 20
426.907196
 40
50.000000
 41
0.857143
  1
GI-36
 50
0.000000
 51
0.000000
  7
EASYDRAW_FONT
 72
     5
 11
3240.625000
 21
426.907196
  0
INSERT
  8
CSLAYER1
  2
BLKF0000
 10
0.0
 20
0.0
 30
0.0
  0
LINE
  8
CSLAYER1
  6
CONTINUOUS
 62
     5
 10
3405.144810
 20
1817.660139
 11
2684.272293
 21
1817.660139
  0
LINE
  8
CSLAYER1
  6
CONTINUOUS
 62
     5
 10
3405.144810
 20
1753.660140
 11
2684.272293
 21
1753.660140
  0
LINE
  8
CSLAYER1
  6
CONTINUOUS
 62
     5
 10
3405.144810
 20
1689.660142
 11
2684.272293
 21
1689.660142
  0
LINE
  8
CSLAYER1
  6
CONTINUOUS
 62
     5
 10
3405.144810
 20
1625.660144
 11
2685.144828
 21
1625.660144
  0
LINE
  8
CSLAYER1
  6
CONTINUOUS
 62
     5
 10
3405.144810
 20
1561.660145
 11
2684.272293
 21
1561.660145
  0
LINE
  8
CSLAYER1
  6
CONTINUOUS
 62
     5
 10
3405.144810
 20
1497.660147
 11
2684.272293
 21
1497.660147
  0
LINE
  8
CSLAYER1
  6
CONTINUOUS
 62
     5
 10
3405.144810
 20
1433.660148
 11
2684.272293
 21
1433.660148
  0
LINE
  8
CSLAYER1
  6
CONTINUOUS
 62
     5
 10
3405.144810
 20
1369.660150
 11
2684.272293
 21
1369.660150
  0
LINE
  8
CSLAYER1
  6
CONTINUOUS
 62
     5
 10
3405.144810
 20
1305.660152
 11
2684.272293
 21
1305.660152
  0
TEXT
  8
CSLAYER1
 62
     3
 10
2879.996094
 20
1897.479370
 40
40.000000
 41
0.857143
  1
仕   様
 50
0.000000
 51
0.000000
  7
EASYDRAW_FONT
 72
     5
 11
3039.996094
 21
1897.479370
  0
TEXT
  8
CSLAYER1
 62
     3
 10
2695.031738
 20
1825.882690
 40
40.000000
 41
0.847059
  1
型    式
 50
0.000000
 51
0.000000
  7
EASYDRAW_FONT
 72
     5
 11
2887.031738
 21
1825.882690
  0
TEXT
  8
CSLAYER1
 62
     3
 10
2693.212158
 20
1703.393433
 40
40.000000
 41
0.847059
  1
テーブル寸法
 50
0.000000
 51
0.000000
  7
EASYDRAW_FONT
 72
     5
 11
2885.212158
 21
1703.393433
  0
TEXT
  8
CSLAYER1
 62
     3
 10
2695.031738
 20
1640.328979
 40
40.000000
 41
0.847059
  1
テーブル高サ
 50
0.000000
 51
0.000000
  7
EASYDRAW_FONT
 72
     5
 11
2887.031738
 21
1640.328979
  0
TEXT
  8
CSLAYER1
 62
     3
 10
2696.478516
 20
1575.446167
 40
40.000000
 41
0.857143
  1
ストローク
 50
0.000000
 51
0.000000
  7
EASYDRAW_FONT
 72
     5
 11
2856.478516
 21
1575.446167
  0
TEXT
  8
CSLAYER1
 62
     3
 10
2695.872314
 20
1510.563354
 40
40.000000
 41
0.857143
  1
全   長
 50
0.000000
 51
0.000000
  7
EASYDRAW_FONT
 72
     5
 11
2855.872314
 21
1510.563354
  0
TEXT
  8
CSLAYER1
 62
     3
 10
2698.143555
 20
1444.712769
 40
40.000000
 41
0.857143
  1
全   巾
 50
0.000000
 51
0.000000
  7
EASYDRAW_FONT
 72
     5
 11
2858.143555
 21
1444.712769
  0
TEXT
  8
CSLAYER1
 62
     3
 10
2696.585693
 20
1380.827515
 40
40.000000
 41
0.857143
  1
全   高
 50
0.000000
 51
0.000000
  7
EASYDRAW_FONT
 72
     5
 11
2856.585693
 21
1380.827515
  0
TEXT
  8
CSLAYER1
 62
     3
 10
2696.585693
 20
1318.500854
 40
40.000000
 41
0.857143
  1
リフト方式
 50
0.000000
 51
0.000000
  7
EASYDRAW_FONT
 72
     5
 11
2856.585693
 21
1318.500854
  0
TEXT
  8
CSLAYER1
 62
     3
 10
3148.454102
 20
1764.391479
 40
40.000000
 41
0.872727
  1
 500
 50
0.000000
 51
0.000000
  7
EASYDRAW_FONT
 72
     5
 11
3276.454102
 21
1764.391479
  0
TEXT
  8
CSLAYER1
 62
     3
 10
3334.610840
 20
1760.718140
 40
40.000000
 41
0.960000
  1
Ｋｇ
 50
0.000000
 51
0.000000
  7
EASYDRAW_FONT
 72
     5
 11
3398.610840
 21
1760.718140
  0
TEXT
  8
CSLAYER1
 62
     3
 10
2971.338379
 20
1699.888062
 40
40.000000
 41
0.827586
  1
1200L×650W
 50
0.000000
 51
0.000000
  7
EASYDRAW_FONT
 72
     5
 11
3291.338379
 21
1699.888062
  0
TEXT
  8
CSLAYER1
 62
     3
 10
3048.045898
 20
1637.354370
 40
40.000000
 41
0.840000
  1
155～905
 50
0.000000
 51
0.000000
  7
EASYDRAW_FONT
 72
     5
 11
3272.045898
 21
1637.354370
  0
TEXT
  8
CSLAYER1
 62
     3
 10
3174.292480
 20
1573.679565
 40
40.000000
 41
0.900000
  1
750
 50
0.000000
 51
0.000000
  7
EASYDRAW_FONT
 72
     5
 11
3270.292480
 21
1573.679565
  0
TEXT
  8
CSLAYER1
 62
     3
 10
3144.670166
 20
1510.108765
 40
40.000000
 41
0.872727
  1
1200
 50
0.000000
 51
0.000000
  7
EASYDRAW_FONT
 72
     5
 11
3272.670166
 21
1510.108765
  0
TEXT
  8
CSLAYER1
 62
     3
 10
3176.411621
 20
1445.589722
 40
40.000000
 41
0.900000
  1
650
 50
0.000000
 51
0.000000
  7
EASYDRAW_FONT
 72
     5
 11
3272.411621
 21
1445.589722
  0
TEXT
  8
CSLAYER1
 62
     3
 10
2967.622803
 20
1319.455933
 40
40.000000
 41
0.827586
  1
電 動 ボールネジ式
 50
0.000000
 51
0.000000
  7
EASYDRAW_FONT
 72
     5
 11
3287.622803
 21
1319.455933
  0
TEXT
  8
CSLAYER1
 62
     3
 10
3174.402832
 20
1380.928589
 40
40.000000
 41
0.900000
  1
155
 50
0.000000
 51
0.000000
  7
EASYDRAW_FONT
 72
     5
 11
3270.402832
 21
1380.928589
  0
TEXT
  8
CSLAYER1
 62
     3
 10
3332.096680
 20
1696.614624
 40
40.000000
 41
0.960000
  1
mm
 50
0.000000
 51
0.000000
  7
EASYDRAW_FONT
 72
     5
 11
3396.096680
 21
1696.614624
  0
TEXT
  8
CSLAYER1
 62
     3
 10
3332.096680
 20
1636.281616
 40
40.000000
 41
0.960000
  1
mm
 50
0.000000
 51
0.000000
  7
EASYDRAW_FONT
 72
     5
 11
3396.096680
 21
1636.281616
  0
TEXT
  8
CSLAYER1
 62
     3
 10
3328.325928
 20
1572.177612
 40
40.000000
 41
0.960000
  1
mm
 50
0.000000
 51
0.000000
  7
EASYDRAW_FONT
 72
     5
 11
3392.325928
 21
1572.177612
  0
TEXT
  8
CSLAYER1
 62
     3
 10
3328.325928
 20
1504.302612
 40
40.000000
 41
0.960000
  1
mm
 50
0.000000
 51
0.000000
  7
EASYDRAW_FONT
 72
     5
 11
3392.325928
 21
1504.302612
  0
TEXT
  8
CSLAYER1
 62
     3
 10
3325.812500
 20
1443.969604
 40
40.000000
 41
0.960000
  1
mm
 50
0.000000
 51
0.000000
  7
EASYDRAW_FONT
 72
     5
 11
3389.812500
 21
1443.969604
  0
TEXT
  8
CSLAYER1
 62
     3
 10
3325.812500
 20
1379.865112
 40
40.000000
 41
0.960000
  1
mm
 50
0.000000
 51
0.000000
  7
EASYDRAW_FONT
 72
     5
 11
3389.812500
 21
1379.865112
  0
LINE
  8
CSLAYER1
  6
CONTINUOUS
 62
     5
 10
3068.049231
 20
1881.660137
 11
2859.663259
 21
1881.660137
  0
LINE
  8
CSLAYER1
  6
CONTINUOUS
 62
     5
 10
3068.049231
 20
1889.660137
 11
2859.663259
 21
1889.660137
  0
TEXT
  8
CSLAYER2
 62
     5
 10
2971.155424
 20
1826.053732
 40
40.809284
 41
0.730667
  1
GLI-500-0612J
 50
0.000000
 51
0.000000
  7
EASYDRAW_FONT
 72
     5
 11
3348.849947
 21
1826.053732
  0
LINE
  8
CSLAYER1
  6
CONTINUOUS
 62
     3
 10
1094.832432
 20
2251.214414
 11
1094.832432
 21
1601.214414
  0
DIMENSION
  8
CSLAYER1
 62
     7
  2
*D0000
 10
2210.959897
 20
406.515929
 11
1685.959839
 21
416.515961
 13
1160.959897
 23
502.641722
 14
2210.959897
 24
502.641722
 52
270.000000
 70
1
  0
LINE
  8
CSLAYER1
  6
CENTER
 62
     5
 10
495.839402
 20
1467.782725
 11
495.839402
 21
481.321486
  0
LINE
  8
CSLAYER1
  6
CONTINUOUS
 62
     4
 10
745.839402
 20
567.641722
 11
745.839402
 21
502.641722
  0
LINE
  8
CSLAYER1
  6
CONTINUOUS
 62
     4
 10
817.839402
 20
1424.187340
 11
173.839402
 21
1424.187340
  0
LINE
  8
CSLAYER1
  6
CONTINUOUS
 62
     4
 10
820.839402
 20
1421.187340
 11
820.839402
 21
1371.187340
  0
LINE
  8
CSLAYER1
  6
CENTER
 62
     5
 10
624.339402
 20
1304.863015
 11
367.339402
 21
1304.863015
  0
LINE
  8
CSLAYER1
  6
CONTINUOUS
 62
     5
 10
584.964779
 20
1217.280325
 11
556.725689
 21
1217.280325
  0
LINE
  8
CSLAYER1
  6
CENTER
 62
     5
 10
631.122387
 20
856.908104
 11
541.801343
 21
856.908104
  0
LINE
  8
CSLAYER1
  6
CONTINUOUS
 62
     3
 10
2599.310895
 20
502.641722
 11
157.877702
 21
502.641722
  0
LINE
  8
CSLAYER1
  6
CONTINUOUS
 62
     4
 10
820.839402
 20
1371.187340
 11
170.839402
 21
1371.187340
  0
ARC
  8
CSLAYER1
  6
CONTINUOUS
 62
     4
 10
817.839402
 20
1421.187340
 40
3.000000
 50
0.000000
 51
90.000000
  0
LINE
  8
CSLAYER1
  6
CENTER
 62
     5
 10
597.155628
 20
1299.987340
 11
692.570040
 21
1299.987340
  0
LINE
  8
CSLAYER1
  6
CONTINUOUS
 62
     5
 10
702.030277
 20
1314.987340
 11
688.339402
 21
1314.987340
  0
LINE
  8
CSLAYER1
  6
CENTER
 62
     5
 10
705.704113
 20
914.814531
 11
555.019123
 21
914.814531
  0
LINE
  8
CSLAYER1
  6
CONTINUOUS
 62
     5
 10
598.322684
 20
989.333759
 11
553.786772
 21
989.333759
  0
LINE
  8
CSLAYER1
  6
CONTINUOUS
 62
     5
 10
597.477065
 20
957.583759
 11
552.941154
 21
957.583759
  0
LINE
  8
CSLAYER1
  6
CONTINUOUS
 62
     3
 10
2294.832432
 20
1601.214414
 11
2294.832432
 21
2251.214414
  0
LINE
  8
CSLAYER1
  6
CONTINUOUS
 62
     5
 10
1182.959897
 20
529.641722
 11
1222.959897
 21
529.641722
  0
LINE
  8
CSLAYER1
  6
CONTINUOUS
 62
     5
 10
1202.959897
 20
549.641722
 11
1202.959897
 21
509.641722
  0
LINE
  8
CSLAYER1
  6
CONTINUOUS
 62
     4
 10
245.839402
 20
566.923506
 11
245.839402
 21
502.641722
  0
LINE
  8
CSLAYER1
  6
CONTINUOUS
 62
     4
 10
170.839402
 20
1421.187340
 11
170.839402
 21
1371.187340
  0
LINE
  8
CSLAYER1
  6
CONTINUOUS
 62
     5
 10
406.714026
 20
1217.280325
 11
434.953116
 21
1217.280325
  0
LINE
  8
CSLAYER1
  6
CENTER
 62
     5
 10
360.556418
 20
856.908104
 11
449.877462
 21
856.908104
  0
LINE
  8
CSLAYER1
  6
CONTINUOUS
 62
     4
 10
810.839402
 20
567.641722
 11
180.839402
 21
567.641722
  0
ARC
  8
CSLAYER1
  6
CONTINUOUS
 62
     4
 10
173.839402
 20
1421.187340
 40
3.000000
 50
90.000000
 51
180.000000
  0
LINE
  8
CSLAYER1
  6
CENTER
 62
     5
 10
394.523177
 20
1299.987340
 11
299.108765
 21
1299.987340
  0
LINE
  8
CSLAYER1
  6
CONTINUOUS
 62
     5
 10
289.648528
 20
1314.987340
 11
303.339402
 21
1314.987340
  0
LINE
  8
CSLAYER1
  6
CENTER
 62
     5
 10
285.974692
 20
914.814531
 11
436.659682
 21
914.814531
  0
DIMENSION
  8
CSLAYER1
 62
     7
  2
*D0001
 10
745.839402
 20
406.515929
 11
495.839355
 21
416.515961
 13
245.839402
 23
502.641722
 14
745.839402
 24
502.641722
 52
270.000000
 70
1
  0
LINE
  8
CSLAYER1
  6
CONTINUOUS
 62
     3
 10
1094.832432
 20
2251.214414
 11
2294.832432
 21
2251.214414
  0
LINE
  8
CSLAYER1
  6
CONTINUOUS
 62
     3
 10
1094.832432
 20
1601.214414
 11
2294.832432
 21
1601.214414
  0
LINE
  8
CSLAYER1
  6
CONTINUOUS
 62
     5
 10
1189.692725
 20
1299.987340
 11
1216.227068
 21
1299.987340
  0
LINE
  8
CSLAYER1
  6
CONTINUOUS
 62
     5
 10
1202.959897
 20
1313.254512
 11
1202.959897
 21
1286.720169
  0
LINE
  8
CSLAYER1
  6
CONTINUOUS
 62
     7
 10
1160.959897
 20
561.641722
 11
1160.959897
 21
502.641722
  0
LINE
  8
CSLAYER1
  6
CONTINUOUS
 62
     7
 10
2210.959897
 20
561.641722
 11
2210.959897
 21
502.641722
  0
LINE
  8
CSLAYER1
  6
CONTINUOUS
 62
     7
 10
1096.959897
 20
1424.187340
 11
2290.959897
 21
1424.187340
  0
LINE
  8
CSLAYER1
  6
CONTINUOUS
 62
     7
 10
1093.959897
 20
1371.187340
 11
2293.959897
 21
1371.187340
  0
LINE
  8
CSLAYER1
  6
CENTER
 62
     5
 10
1589.860563
 20
1133.999790
 11
1753.544621
 21
1347.911632
  0
LINE
  8
CSLAYER1
  6
CONTINUOUS
 62
     5
 10
1792.423745
 20
1326.132183
 11
1792.423745
 21
1267.895180
  0
LINE
  8
CSLAYER1
  6
CONTINUOUS
 62
     5
 10
1763.042185
 20
1299.987340
 11
1825.686123
 21
1299.987340
  0
LINE
  8
CSLAYER1
  6
CENTER
 62
     5
 10
1689.664769
 20
1334.546766
 11
1757.374319
 21
1282.735823
  0
LINE
  8
CSLAYER1
  6
CENTER
 62
     5
 10
1585.185847
 20
1200.433648
 11
1657.278530
 21
1145.268759
  0
LINE
  8
CSLAYER1
  6
CENTER
 62
     5
 10
1694.787066
 20
1324.255188
 11
1746.879446
 21
1285.126554
  0
LINE
  8
CSLAYER1
  6
CONTINUOUS
 62
     5
 10
1472.733287
 20
914.814531
 11
1525.729054
 21
914.814531
  0
LINE
  8
CSLAYER1
  6
CONTINUOUS
 62
     5
 10
1497.691821
 20
942.372439
 11
1497.691821
 21
889.376672
  0
LINE
  8
CSLAYER1
  6
CONTINUOUS
 62
     7
 10
1093.959897
 20
1421.187340
 11
1093.959897
 21
1371.187340
  0
LINE
  8
CSLAYER1
  6
CONTINUOUS
 62
     7
 10
2293.959897
 20
1371.187340
 11
2293.959897
 21
1421.187340
  0
LINE
  8
CSLAYER1
  6
CONTINUOUS
 62
     4
 10
1103.959897
 20
561.641722
 11
1103.959897
 21
567.641722
  0
LINE
  8
CSLAYER1
  6
CONTINUOUS
 62
     5
 10
1143.959897
 20
554.871824
 11
1143.959897
 21
573.714191
  0
LINE
  8
CSLAYER1
  6
CONTINUOUS
 62
     4
 10
1103.959897
 20
561.641722
 11
2283.959897
 21
561.641722
  0
LINE
  8
CSLAYER1
  6
CONTINUOUS
 62
     4
 10
1103.959897
 20
567.641722
 11
2283.959897
 21
567.641722
  0
LINE
  8
CSLAYER1
  6
CONTINUOUS
 62
     4
 10
2283.959897
 20
561.641722
 11
2283.959897
 21
567.641722
  0
ARC
  8
CSLAYER1
  6
CONTINUOUS
 62
     7
 10
1096.959897
 20
1421.187340
 40
3.000000
 50
90.000000
 51
180.000000
  0
ARC
  8
CSLAYER1
  6
CONTINUOUS
 62
     7
 10
2290.959897
 20
1421.187340
 40
3.000000
 50
0.000000
 51
90.000000
  0
LINE
  8
CSLAYER1
  6
PHANTOM
 62
     5
 10
1093.959897
 20
604.641722
 11
1093.959897
 21
657.641722
  0
LINE
  8
CSLAYER1
  6
PHANTOM
 62
     5
 10
2293.959897
 20
604.641722
 11
2293.959897
 21
657.641722
  0
LINE
  8
CSLAYER1
  6
PHANTOM
 62
     5
 10
1093.959897
 20
657.641722
 11
2293.959897
 21
657.641722
  0
LINE
  8
CSLAYER1
  6
PHANTOM
 62
     5
 10
1093.959897
 20
604.641722
 11
2293.959897
 21
604.641722
  0
LINE
  8
CSLAYER1
  6
CONTINUOUS
 62
     3
 10
1153.959897
 20
567.641722
 11
1103.959897
 21
598.004066
  0
LINE
  8
CSLAYER1
  6
CONTINUOUS
 62
     3
 10
1103.959897
 20
598.004066
 11
1153.959897
 21
628.366409
  0
LINE
  8
CSLAYER1
  6
CONTINUOUS
 62
     3
 10
1153.959897
 20
628.366409
 11
1103.959897
 21
658.728753
  0
LINE
  8
CSLAYER1
  6
CONTINUOUS
 62
     3
 10
1103.959897
 20
658.728753
 11
1153.959897
 21
689.091096
  0
LINE
  8
CSLAYER1
  6
CONTINUOUS
 62
     3
 10
1153.959897
 20
689.091096
 11
1103.959897
 21
719.453440
  0
LINE
  8
CSLAYER1
  6
CONTINUOUS
 62
     3
 10
1103.959897
 20
719.453440
 11
1153.959897
 21
749.815783
  0
LINE
  8
CSLAYER1
  6
CONTINUOUS
 62
     3
 10
1153.959897
 20
749.815783
 11
1103.959897
 21
780.178127
  0
LINE
  8
CSLAYER1
  6
CONTINUOUS
 62
     3
 10
1103.959897
 20
780.178127
 11
1153.959897
 21
810.540470
  0
LINE
  8
CSLAYER1
  6
CONTINUOUS
 62
     3
 10
1153.959897
 20
810.540470
 11
1103.959897
 21
840.902814
  0
LINE
  8
CSLAYER1
  6
CONTINUOUS
 62
     3
 10
1103.959897
 20
840.902814
 11
1153.959897
 21
871.265157
  0
LINE
  8
CSLAYER1
  6
CONTINUOUS
 62
     3
 10
1153.959897
 20
871.265157
 11
1103.959897
 21
901.627501
  0
LINE
  8
CSLAYER1
  6
CONTINUOUS
 62
     3
 10
1103.959897
 20
901.627501
 11
1153.959897
 21
931.989844
  0
LINE
  8
CSLAYER1
  6
CONTINUOUS
 62
     3
 10
1153.959897
 20
931.989844
 11
1103.959897
 21
962.352188
  0
LINE
  8
CSLAYER1
  6
CONTINUOUS
 62
     3
 10
1103.959897
 20
962.352188
 11
1153.959897
 21
992.714531
  0
LINE
  8
CSLAYER1
  6
CONTINUOUS
 62
     3
 10
1153.959897
 20
992.714531
 11
1103.959897
 21
1023.076875
  0
LINE
  8
CSLAYER1
  6
CONTINUOUS
 62
     3
 10
1103.959897
 20
1023.076875
 11
1153.959897
 21
1053.439218
  0
LINE
  8
CSLAYER1
  6
CONTINUOUS
 62
     3
 10
1153.959897
 20
1053.439218
 11
1103.959897
 21
1083.801562
  0
LINE
  8
CSLAYER1
  6
CONTINUOUS
 62
     3
 10
1103.959897
 20
1083.801562
 11
1153.959897
 21
1114.163905
  0
LINE
  8
CSLAYER1
  6
CONTINUOUS
 62
     3
 10
1153.959897
 20
1114.163905
 11
1103.959897
 21
1144.526249
  0
LINE
  8
CSLAYER1
  6
CONTINUOUS
 62
     3
 10
1103.959897
 20
1144.526249
 11
1153.959897
 21
1174.888592
  0
LINE
  8
CSLAYER1
  6
CONTINUOUS
 62
     3
 10
1153.959897
 20
1174.888592
 11
1103.959897
 21
1205.250936
  0
LINE
  8
CSLAYER1
  6
CONTINUOUS
 62
     3
 10
1103.959897
 20
1205.250936
 11
1153.959897
 21
1235.613279
  0
LINE
  8
CSLAYER1
  6
CONTINUOUS
 62
     3
 10
1153.959897
 20
1235.613279
 11
1103.959897
 21
1265.975623
  0
LINE
  8
CSLAYER1
  6
CONTINUOUS
 62
     3
 10
1103.959897
 20
1265.975623
 11
1153.959897
 21
1296.337966
  0
LINE
  8
CSLAYER1
  6
CONTINUOUS
 62
     3
 10
1153.959897
 20
1296.337966
 11
1103.959897
 21
1326.700310
  0
LINE
  8
CSLAYER1
  6
CONTINUOUS
 62
     3
 10
1103.959897
 20
1326.700310
 11
1153.959897
 21
1357.062653
  0
LINE
  8
CSLAYER1
  6
CONTINUOUS
 62
     3
 10
1153.959897
 20
1357.062653
 11
1130.699691
 21
1371.187340
  0
LINE
  8
CSLAYER1
  6
CONTINUOUS
 62
     5
 10
1693.959897
 20
551.230047
 11
1693.959897
 21
575.470245
  0
LINE
  8
CSLAYER1
  6
CONTINUOUS
 62
     3
 10
2233.959897
 20
567.641722
 11
2283.959897
 21
598.004066
  0
LINE
  8
CSLAYER1
  6
CONTINUOUS
 62
     3
 10
2283.959897
 20
598.004066
 11
2233.959897
 21
628.366409
  0
LINE
  8
CSLAYER1
  6
CONTINUOUS
 62
     3
 10
2233.959897
 20
628.366409
 11
2283.959897
 21
658.728753
  0
LINE
  8
CSLAYER1
  6
CONTINUOUS
 62
     3
 10
2283.959897
 20
658.728753
 11
2233.959897
 21
689.091096
  0
LINE
  8
CSLAYER1
  6
CONTINUOUS
 62
     3
 10
2233.959897
 20
689.091096
 11
2283.959897
 21
719.453440
  0
LINE
  8
CSLAYER1
  6
CONTINUOUS
 62
     3
 10
2283.959897
 20
719.453440
 11
2233.959897
 21
749.815783
  0
LINE
  8
CSLAYER1
  6
CONTINUOUS
 62
     3
 10
2233.959897
 20
749.815783
 11
2283.959897
 21
780.178127
  0
LINE
  8
CSLAYER1
  6
CONTINUOUS
 62
     3
 10
2283.959897
 20
780.178127
 11
2233.959897
 21
810.540470
  0
LINE
  8
CSLAYER1
  6
CONTINUOUS
 62
     3
 10
2233.959897
 20
810.540470
 11
2283.959897
 21
840.902814
  0
LINE
  8
CSLAYER1
  6
CONTINUOUS
 62
     3
 10
2283.959897
 20
840.902814
 11
2233.959897
 21
871.265157
  0
LINE
  8
CSLAYER1
  6
CONTINUOUS
 62
     3
 10
2233.959897
 20
871.265157
 11
2283.959897
 21
901.627501
  0
LINE
  8
CSLAYER1
  6
CONTINUOUS
 62
     3
 10
2283.959897
 20
901.627501
 11
2233.959897
 21
931.989844
  0
LINE
  8
CSLAYER1
  6
CONTINUOUS
 62
     3
 10
2233.959897
 20
931.989844
 11
2283.959897
 21
962.352188
  0
LINE
  8
CSLAYER1
  6
CONTINUOUS
 62
     3
 10
2283.959897
 20
962.352188
 11
2233.959897
 21
992.714531
  0
LINE
  8
CSLAYER1
  6
CONTINUOUS
 62
     3
 10
2233.959897
 20
992.714531
 11
2283.959897
 21
1023.076875
  0
LINE
  8
CSLAYER1
  6
CONTINUOUS
 62
     3
 10
2283.959897
 20
1023.076875
 11
2233.959897
 21
1053.439218
  0
LINE
  8
CSLAYER1
  6
CONTINUOUS
 62
     3
 10
2233.959897
 20
1053.439218
 11
2283.959897
 21
1083.801562
  0
LINE
  8
CSLAYER1
  6
CONTINUOUS
 62
     3
 10
2283.959897
 20
1083.801562
 11
2233.959897
 21
1114.163905
  0
LINE
  8
CSLAYER1
  6
CONTINUOUS
 62
     3
 10
2233.959897
 20
1114.163905
 11
2283.959897
 21
1144.526249
  0
LINE
  8
CSLAYER1
  6
CONTINUOUS
 62
     3
 10
2283.959897
 20
1144.526249
 11
2233.959897
 21
1174.888592
  0
LINE
  8
CSLAYER1
  6
CONTINUOUS
 62
     3
 10
2233.959897
 20
1174.888592
 11
2283.959897
 21
1205.250936
  0
LINE
  8
CSLAYER1
  6
CONTINUOUS
 62
     3
 10
2283.959897
 20
1205.250936
 11
2233.959897
 21
1235.613279
  0
LINE
  8
CSLAYER1
  6
CONTINUOUS
 62
     3
 10
2233.959897
 20
1235.613279
 11
2283.959897
 21
1265.975623
  0
LINE
  8
CSLAYER1
  6
CONTINUOUS
 62
     3
 10
2283.959897
 20
1265.975623
 11
2233.959897
 21
1296.337966
  0
LINE
  8
CSLAYER1
  6
CONTINUOUS
 62
     3
 10
2233.959897
 20
1296.337966
 11
2283.959897
 21
1326.700310
  0
LINE
  8
CSLAYER1
  6
CONTINUOUS
 62
     3
 10
2283.959897
 20
1326.700310
 11
2233.959897
 21
1357.062653
  0
LINE
  8
CSLAYER1
  6
CONTINUOUS
 62
     3
 10
2233.959897
 20
1357.062653
 11
2257.220102
 21
1371.187340
  0
LINE
  8
CSLAYER1
  6
CONTINUOUS
 62
     4
 10
180.839402
 20
561.641722
 11
180.839402
 21
567.641722
  0
LINE
  8
CSLAYER1
  6
CONTINUOUS
 62
     5
 10
190.839402
 20
553.943883
 11
190.839402
 21
573.523569
  0
LINE
  8
CSLAYER1
  6
CONTINUOUS
 62
     4
 10
180.839402
 20
561.641722
 11
245.839402
 21
561.641722
  0
LINE
  8
CSLAYER1
  6
CONTINUOUS
 62
     3
 10
230.839402
 20
567.641722
 11
180.839402
 21
598.004066
  0
LINE
  8
CSLAYER1
  6
CONTINUOUS
 62
     3
 10
180.839402
 20
598.004066
 11
230.839402
 21
628.366409
  0
LINE
  8
CSLAYER1
  6
CONTINUOUS
 62
     3
 10
230.839402
 20
628.366409
 11
180.839402
 21
658.728753
  0
LINE
  8
CSLAYER1
  6
CONTINUOUS
 62
     3
 10
180.839402
 20
658.728753
 11
230.839402
 21
689.091096
  0
LINE
  8
CSLAYER1
  6
CONTINUOUS
 62
     3
 10
230.839402
 20
689.091096
 11
180.839402
 21
719.453440
  0
LINE
  8
CSLAYER1
  6
CONTINUOUS
 62
     3
 10
180.839402
 20
719.453440
 11
230.839402
 21
749.815783
  0
LINE
  8
CSLAYER1
  6
CONTINUOUS
 62
     3
 10
230.839402
 20
749.815783
 11
180.839402
 21
780.178127
  0
LINE
  8
CSLAYER1
  6
CONTINUOUS
 62
     3
 10
180.839402
 20
780.178127
 11
230.839402
 21
810.540470
  0
LINE
  8
CSLAYER1
  6
CONTINUOUS
 62
     3
 10
230.839402
 20
810.540470
 11
180.839402
 21
840.902814
  0
LINE
  8
CSLAYER1
  6
CONTINUOUS
 62
     3
 10
180.839402
 20
840.902814
 11
230.839402
 21
871.265157
  0
LINE
  8
CSLAYER1
  6
CONTINUOUS
 62
     3
 10
230.839402
 20
871.265157
 11
180.839402
 21
901.627501
  0
LINE
  8
CSLAYER1
  6
CONTINUOUS
 62
     3
 10
180.839402
 20
901.627501
 11
230.839402
 21
931.989844
  0
LINE
  8
CSLAYER1
  6
CONTINUOUS
 62
     3
 10
230.839402
 20
931.989844
 11
180.839402
 21
962.352188
  0
LINE
  8
CSLAYER1
  6
CONTINUOUS
 62
     3
 10
180.839402
 20
962.352188
 11
230.839402
 21
992.714531
  0
LINE
  8
CSLAYER1
  6
CONTINUOUS
 62
     3
 10
230.839402
 20
992.714531
 11
180.839402
 21
1023.076875
  0
LINE
  8
CSLAYER1
  6
CONTINUOUS
 62
     3
 10
180.839402
 20
1023.076875
 11
230.839402
 21
1053.439218
  0
LINE
  8
CSLAYER1
  6
CONTINUOUS
 62
     3
 10
230.839402
 20
1053.439218
 11
180.839402
 21
1083.801562
  0
LINE
  8
CSLAYER1
  6
CONTINUOUS
 62
     3
 10
180.839402
 20
1083.801562
 11
230.839402
 21
1114.163905
  0
LINE
  8
CSLAYER1
  6
CONTINUOUS
 62
     3
 10
230.839402
 20
1114.163905
 11
180.839402
 21
1144.526249
  0
LINE
  8
CSLAYER1
  6
CONTINUOUS
 62
     3
 10
180.839402
 20
1144.526249
 11
230.839402
 21
1174.888592
  0
LINE
  8
CSLAYER1
  6
CONTINUOUS
 62
     3
 10
230.839402
 20
1174.888592
 11
180.839402
 21
1205.250936
  0
LINE
  8
CSLAYER1
  6
CONTINUOUS
 62
     3
 10
180.839402
 20
1205.250936
 11
230.839402
 21
1235.613279
  0
LINE
  8
CSLAYER1
  6
CONTINUOUS
 62
     3
 10
230.839402
 20
1235.613279
 11
180.839402
 21
1265.975623
  0
LINE
  8
CSLAYER1
  6
CONTINUOUS
 62
     3
 10
180.839402
 20
1265.975623
 11
230.839402
 21
1296.337966
  0
LINE
  8
CSLAYER1
  6
CONTINUOUS
 62
     3
 10
230.839402
 20
1296.337966
 11
180.839402
 21
1326.700310
  0
LINE
  8
CSLAYER1
  6
CONTINUOUS
 62
     3
 10
180.839402
 20
1326.700310
 11
230.839402
 21
1357.062653
  0
LINE
  8
CSLAYER1
  6
CONTINUOUS
 62
     3
 10
230.839402
 20
1357.062653
 11
207.579197
 21
1371.187340
  0
LINE
  8
CSLAYER1
  6
CONTINUOUS
 62
     4
 10
810.839402
 20
561.641722
 11
810.839402
 21
567.641722
  0
LINE
  8
CSLAYER1
  6
CONTINUOUS
 62
     4
 10
810.839402
 20
561.641722
 11
745.839402
 21
561.641722
  0
LINE
  8
CSLAYER1
  6
CONTINUOUS
 62
     3
 10
760.839402
 20
567.641722
 11
810.839402
 21
598.004066
  0
LINE
  8
CSLAYER1
  6
CONTINUOUS
 62
     3
 10
810.839402
 20
598.004066
 11
760.839402
 21
628.366409
  0
LINE
  8
CSLAYER1
  6
CONTINUOUS
 62
     3
 10
760.839402
 20
628.366409
 11
810.839402
 21
658.728753
  0
LINE
  8
CSLAYER1
  6
CONTINUOUS
 62
     3
 10
810.839402
 20
658.728753
 11
760.839402
 21
689.091096
  0
LINE
  8
CSLAYER1
  6
CONTINUOUS
 62
     3
 10
760.839402
 20
689.091096
 11
810.839402
 21
719.453440
  0
LINE
  8
CSLAYER1
  6
CONTINUOUS
 62
     3
 10
810.839402
 20
719.453440
 11
760.839402
 21
749.815783
  0
LINE
  8
CSLAYER1
  6
CONTINUOUS
 62
     3
 10
760.839402
 20
749.815783
 11
810.839402
 21
780.178127
  0
LINE
  8
CSLAYER1
  6
CONTINUOUS
 62
     3
 10
810.839402
 20
780.178127
 11
760.839402
 21
810.540470
  0
LINE
  8
CSLAYER1
  6
CONTINUOUS
 62
     3
 10
760.839402
 20
810.540470
 11
810.839402
 21
840.902814
  0
LINE
  8
CSLAYER1
  6
CONTINUOUS
 62
     3
 10
810.839402
 20
840.902814
 11
760.839402
 21
871.265157
  0
LINE
  8
CSLAYER1
  6
CONTINUOUS
 62
     3
 10
760.839402
 20
871.265157
 11
810.839402
 21
901.627501
  0
LINE
  8
CSLAYER1
  6
CONTINUOUS
 62
     3
 10
810.839402
 20
901.627501
 11
760.839402
 21
931.989844
  0
LINE
  8
CSLAYER1
  6
CONTINUOUS
 62
     3
 10
760.839402
 20
931.989844
 11
810.839402
 21
962.352188
  0
LINE
  8
CSLAYER1
  6
CONTINUOUS
 62
     3
 10
810.839402
 20
962.352188
 11
760.839402
 21
992.714531
  0
LINE
  8
CSLAYER1
  6
CONTINUOUS
 62
     3
 10
760.839402
 20
992.714531
 11
810.839402
 21
1023.076875
  0
LINE
  8
CSLAYER1
  6
CONTINUOUS
 62
     3
 10
810.839402
 20
1023.076875
 11
760.839402
 21
1053.439218
  0
LINE
  8
CSLAYER1
  6
CONTINUOUS
 62
     3
 10
760.839402
 20
1053.439218
 11
810.839402
 21
1083.801562
  0
LINE
  8
CSLAYER1
  6
CONTINUOUS
 62
     3
 10
810.839402
 20
1083.801562
 11
760.839402
 21
1114.163905
  0
LINE
  8
CSLAYER1
  6
CONTINUOUS
 62
     3
 10
760.839402
 20
1114.163905
 11
810.839402
 21
1144.526249
  0
LINE
  8
CSLAYER1
  6
CONTINUOUS
 62
     3
 10
810.839402
 20
1144.526249
 11
760.839402
 21
1174.888592
  0
LINE
  8
CSLAYER1
  6
CONTINUOUS
 62
     3
 10
760.839402
 20
1174.888592
 11
810.839402
 21
1205.250936
  0
LINE
  8
CSLAYER1
  6
CONTINUOUS
 62
     3
 10
810.839402
 20
1205.250936
 11
760.839402
 21
1235.613279
  0
LINE
  8
CSLAYER1
  6
CONTINUOUS
 62
     3
 10
760.839402
 20
1235.613279
 11
810.839402
 21
1265.975623
  0
LINE
  8
CSLAYER1
  6
CONTINUOUS
 62
     3
 10
810.839402
 20
1265.975623
 11
760.839402
 21
1296.337966
  0
LINE
  8
CSLAYER1
  6
CONTINUOUS
 62
     3
 10
760.839402
 20
1296.337966
 11
810.839402
 21
1326.700310
  0
LINE
  8
CSLAYER1
  6
CONTINUOUS
 62
     3
 10
810.839402
 20
1326.700310
 11
760.839402
 21
1357.062653
  0
LINE
  8
CSLAYER1
  6
CONTINUOUS
 62
     3
 10
760.839402
 20
1357.062653
 11
784.099608
 21
1371.187340
  0
POINT
  8
CSLAYER1
 62
     1
 10
570.839402
 20
1217.280323
  0
LINE
  8
CSLAYER1
  6
DASHED
 62
     1
 10
579.339402
 20
1242.280325
 11
579.339402
 21
1282.863015
  0
LINE
  8
CSLAYER1
  6
DASHED
 62
     1
 10
580.839402
 20
1234.280325
 11
580.839402
 21
1282.863015
  0
LINE
  8
CSLAYER1
  6
DASHED
 62
     1
 10
580.839402
 20
1242.280325
 11
560.839402
 21
1242.280325
  0
LINE
  8
CSLAYER1
  6
DASHED
 62
     1
 10
579.339402
 20
1242.280325
 11
580.839402
 21
1239.682249
  0
LINE
  8
CSLAYER1
  6
DASHED
 62
     1
 10
562.339402
 20
1242.280325
 11
562.339402
 21
1282.863015
  0
LINE
  8
CSLAYER1
  6
DASHED
 62
     1
 10
562.339402
 20
1242.280325
 11
560.839402
 21
1239.682249
  0
LINE
  8
CSLAYER1
  6
DASHED
 62
     1
 10
560.839402
 20
1234.280325
 11
560.839402
 21
1282.863015
  0
LINE
  8
CSLAYER1
  6
DASHED
 62
     1
 10
558.314402
 20
1232.280323
 11
583.364402
 21
1232.280323
  0
POINT
  8
CSLAYER1
 62
     1
 10
570.839402
 20
1185.530323
  0
LINE
  8
CSLAYER1
  6
DASHED
 62
     1
 10
584.364402
 20
1231.280323
 11
584.364402
 21
1138.730323
  0
LINE
  8
CSLAYER1
  6
DASHED
 62
     1
 10
580.364402
 20
1200.580323
 11
580.364402
 21
1138.730323
  0
LINE
  8
CSLAYER1
  6
DASHED
 62
     1
 10
580.364402
 20
1200.580323
 11
584.364402
 21
1200.580323
  0
LINE
  8
CSLAYER1
  6
DASHED
 62
     1
 10
579.364402
 20
1176.005323
 11
562.314402
 21
1176.005323
  0
LINE
  8
CSLAYER1
  6
DASHED
 62
     1
 10
579.364402
 20
1195.055323
 11
562.314402
 21
1195.055323
  0
ARC
  8
CSLAYER1
  6
DASHED
 62
     1
 10
579.364402
 20
1177.005323
 40
1.000000
 50
270.000000
 51
360.000000
  0
ARC
  8
CSLAYER1
  6
DASHED
 62
     1
 10
579.364402
 20
1194.055323
 40
1.000000
 50
0.000000
 51
90.000000
  0
LINE
  8
CSLAYER1
  6
DASHED
 62
     1
 10
557.314402
 20
1231.280323
 11
557.314402
 21
1138.030323
  0
LINE
  8
CSLAYER1
  6
DASHED
 62
     1
 10
561.314402
 20
1200.580323
 11
561.314402
 21
1138.730323
  0
LINE
  8
CSLAYER1
  6
DASHED
 62
     1
 10
561.314402
 20
1200.580323
 11
557.314402
 21
1200.580323
  0
ARC
  8
CSLAYER1
  6
DASHED
 62
     1
 10
562.314402
 20
1177.005323
 40
1.000000
 50
180.000000
 51
270.000000
  0
ARC
  8
CSLAYER1
  6
DASHED
 62
     1
 10
562.314402
 20
1194.055323
 40
1.000000
 50
90.000000
 51
180.000000
  0
LINE
  8
CSLAYER1
  6
DASHED
 62
     1
 10
590.589402
 20
1181.760323
 11
590.589402
 21
1189.310050
  0
LINE
  8
CSLAYER1
  6
DASHED
 62
     1
 10
584.364402
 20
1172.530323
 11
588.739402
 21
1172.530323
  0
LINE
  8
CSLAYER1
  6
DASHED
 62
     1
 10
584.364402
 20
1230.280323
 11
588.739402
 21
1230.280323
  0
LINE
  8
CSLAYER1
  6
DASHED
 62
     1
 10
588.739402
 20
1180.760323
 11
589.589402
 21
1180.760323
  0
LINE
  8
CSLAYER1
  6
DASHED
 62
     1
 10
588.739402
 20
1190.310050
 11
589.589402
 21
1190.310050
  0
ARC
  8
CSLAYER1
  6
DASHED
 62
     1
 10
589.589402
 20
1181.760323
 40
1.000000
 50
270.000000
 51
360.000000
  0
ARC
  8
CSLAYER1
  6
DASHED
 62
     1
 10
589.589402
 20
1189.310050
 40
1.000000
 50
0.000000
 51
90.000000
  0
LINE
  8
CSLAYER1
  6
DASHED
 62
     1
 10
590.589402
 20
1213.510323
 11
590.589402
 21
1221.060050
  0
LINE
  8
CSLAYER1
  6
DASHED
 62
     1
 10
588.739402
 20
1212.510323
 11
589.589402
 21
1212.510323
  0
LINE
  8
CSLAYER1
  6
DASHED
 62
     1
 10
588.739402
 20
1222.060050
 11
589.589402
 21
1222.060050
  0
ARC
  8
CSLAYER1
  6
DASHED
 62
     1
 10
589.589402
 20
1213.510323
 40
1.000000
 50
270.000000
 51
360.000000
  0
ARC
  8
CSLAYER1
  6
DASHED
 62
     1
 10
589.589402
 20
1221.060050
 40
1.000000
 50
0.000000
 51
90.000000
  0
LINE
  8
CSLAYER1
  6
DASHED
 62
     1
 10
551.089402
 20
1181.760323
 11
551.089402
 21
1189.310050
  0
LINE
  8
CSLAYER1
  6
DASHED
 62
     1
 10
557.314402
 20
1172.530323
 11
552.939402
 21
1172.530323
  0
LINE
  8
CSLAYER1
  6
DASHED
 62
     1
 10
557.314402
 20
1230.280323
 11
552.939402
 21
1230.280323
  0
LINE
  8
CSLAYER1
  6
DASHED
 62
     1
 10
552.939402
 20
1180.760323
 11
552.089402
 21
1180.760323
  0
LINE
  8
CSLAYER1
  6
DASHED
 62
     1
 10
552.939402
 20
1190.310050
 11
552.089402
 21
1190.310050
  0
ARC
  8
CSLAYER1
  6
DASHED
 62
     1
 10
552.089402
 20
1181.760323
 40
1.000000
 50
180.000000
 51
270.000000
  0
ARC
  8
CSLAYER1
  6
DASHED
 62
     1
 10
552.089402
 20
1189.310050
 40
1.000000
 50
90.000000
 51
180.000000
  0
LINE
  8
CSLAYER1
  6
DASHED
 62
     1
 10
547.989402
 20
1213.510323
 11
547.989402
 21
1221.060050
  0
LINE
  8
CSLAYER1
  6
DASHED
 62
     1
 10
552.939402
 20
1212.510323
 11
548.989402
 21
1212.510323
  0
LINE
  8
CSLAYER1
  6
DASHED
 62
     1
 10
552.939402
 20
1222.060050
 11
548.989402
 21
1222.060050
  0
ARC
  8
CSLAYER1
  6
DASHED
 62
     1
 10
548.989402
 20
1213.510323
 40
1.000000
 50
180.000000
 51
270.000000
  0
ARC
  8
CSLAYER1
  6
DASHED
 62
     1
 10
548.989402
 20
1221.060050
 40
1.000000
 50
90.000000
 51
180.000000
  0
LINE
  8
CSLAYER1
  6
DASHED
 62
     1
 10
557.314402
 20
1222.060050
 11
584.364402
 21
1222.060050
  0
LINE
  8
CSLAYER1
  6
DASHED
 62
     1
 10
557.314402
 20
1212.510323
 11
584.364402
 21
1212.510323
  0
LINE
  8
CSLAYER1
  6
DASHED
 62
     1
 10
559.314402
 20
1202.280323
 11
582.364402
 21
1202.280323
  0
ARC
  8
CSLAYER1
  6
DASHED
 62
     1
 10
582.364402
 20
1204.280323
 40
2.000000
 50
270.000000
 51
360.000000
  0
ARC
  8
CSLAYER1
  6
DASHED
 62
     1
 10
559.314402
 20
1204.280323
 40
2.000000
 50
180.000000
 51
270.000000
  0
ARC
  8
CSLAYER1
  6
DASHED
 62
     1
 10
558.839402
 20
1234.280323
 40
2.000000
 50
270.000000
 51
360.000000
  0
ARC
  8
CSLAYER1
  6
DASHED
 62
     1
 10
582.839402
 20
1234.280323
 40
2.000000
 50
180.000000
 51
270.000000
  0
ARC
  8
CSLAYER1
  6
DASHED
 62
     1
 10
558.314402
 20
1231.280323
 40
1.000000
 50
90.000000
 51
180.000000
  0
ARC
  8
CSLAYER1
  6
DASHED
 62
     1
 10
583.364402
 20
1231.280323
 40
1.000000
 50
0.000000
 51
90.000000
  0
POINT
  8
CSLAYER1
 62
     1
 10
570.839402
 20
1232.280323
  0
LINE
  8
CSLAYER1
  6
DASHED
 62
     1
 10
588.739402
 20
1172.530323
 11
588.739402
 21
1230.280323
  0
LINE
  8
CSLAYER1
  6
DASHED
 62
     1
 10
552.939402
 20
1172.530323
 11
552.939402
 21
1230.280323
  0
LINE
  8
CSLAYER1
  6
DASHED
 62
     1
 10
574.039402
 20
567.641722
 11
574.039402
 21
593.303467
  0
LINE
  8
CSLAYER1
  6
DASHED
 62
     1
 10
568.210226
 20
585.558788
 11
602.750356
 21
585.558788
  0
LINE
  8
CSLAYER1
  6
DASHED
 62
     1
 10
572.839402
 20
590.558788
 11
574.039402
 21
590.558788
  0
LINE
  8
CSLAYER1
  6
DASHED
 62
     1
 10
572.839402
 20
580.558788
 11
574.039402
 21
580.558788
  0
LINE
  8
CSLAYER1
  6
DASHED
 62
     1
 10
574.039402
 20
580.252498
 11
577.039402
 21
580.252498
  0
POINT
  8
CSLAYER1
 62
     1
 10
570.839402
 20
1153.780323
  0
LINE
  8
CSLAYER1
  6
DASHED
 62
     1
 10
580.364402
 20
1138.730323
 11
584.364402
 21
1138.730323
  0
LINE
  8
CSLAYER1
  6
DASHED
 62
     1
 10
579.364402
 20
1163.305323
 11
562.314402
 21
1163.305323
  0
LINE
  8
CSLAYER1
  6
DASHED
 62
     1
 10
579.364402
 20
1144.255323
 11
562.314402
 21
1144.255323
  0
ARC
  8
CSLAYER1
  6
DASHED
 62
     1
 10
579.364402
 20
1162.305323
 40
1.000000
 50
0.000000
 51
90.000000
  0
ARC
  8
CSLAYER1
  6
DASHED
 62
     1
 10
579.364402
 20
1145.255323
 40
1.000000
 50
270.000000
 51
360.000000
  0
LINE
  8
CSLAYER1
  6
DASHED
 62
     1
 10
561.314402
 20
1138.730323
 11
557.314402
 21
1138.730323
  0
ARC
  8
CSLAYER1
  6
DASHED
 62
     1
 10
562.314402
 20
1162.305323
 40
1.000000
 50
90.000000
 51
180.000000
  0
ARC
  8
CSLAYER1
  6
DASHED
 62
     1
 10
562.314402
 20
1145.255323
 40
1.000000
 50
180.000000
 51
270.000000
  0
LINE
  8
CSLAYER1
  6
DASHED
 62
     1
 10
590.589402
 20
1157.550323
 11
590.589402
 21
1150.000597
  0
LINE
  8
CSLAYER1
  6
DASHED
 62
     1
 10
584.364402
 20
1166.780323
 11
588.739402
 21
1166.780323
  0
LINE
  8
CSLAYER1
  6
DASHED
 62
     1
 10
588.739402
 20
1158.550323
 11
589.589402
 21
1158.550323
  0
LINE
  8
CSLAYER1
  6
DASHED
 62
     1
 10
588.739402
 20
1149.000597
 11
589.589402
 21
1149.000597
  0
ARC
  8
CSLAYER1
  6
DASHED
 62
     1
 10
589.589402
 20
1157.550323
 40
1.000000
 50
0.000000
 51
90.000000
  0
ARC
  8
CSLAYER1
  6
DASHED
 62
     1
 10
589.589402
 20
1150.000597
 40
1.000000
 50
270.000000
 51
360.000000
  0
LINE
  8
CSLAYER1
  6
DASHED
 62
     1
 10
551.089402
 20
1157.550323
 11
551.089402
 21
1150.000597
  0
LINE
  8
CSLAYER1
  6
DASHED
 62
     1
 10
557.314402
 20
1166.780323
 11
552.939402
 21
1166.780323
  0
LINE
  8
CSLAYER1
  6
DASHED
 62
     1
 10
552.939402
 20
1158.550323
 11
552.089402
 21
1158.550323
  0
LINE
  8
CSLAYER1
  6
DASHED
 62
     1
 10
552.939402
 20
1149.000597
 11
552.089402
 21
1149.000597
  0
ARC
  8
CSLAYER1
  6
DASHED
 62
     1
 10
552.089402
 20
1157.550323
 40
1.000000
 50
90.000000
 51
180.000000
  0
ARC
  8
CSLAYER1
  6
DASHED
 62
     1
 10
552.089402
 20
1150.000597
 40
1.000000
 50
180.000000
 51
270.000000
  0
LINE
  8
CSLAYER1
  6
DASHED
 62
     1
 10
552.939402
 20
1166.780323
 11
552.939402
 21
1109.030323
  0
LINE
  8
CSLAYER1
  6
DASHED
 62
     1
 10
588.739402
 20
1166.780323
 11
588.739402
 21
1109.030323
  0
LINE
  8
CSLAYER1
  6
DASHED
 62
     1
 10
574.039402
 20
584.599717
 11
577.039402
 21
584.599717
  0
LINE
  8
CSLAYER1
  6
DASHED
 62
     1
 10
574.039402
 20
593.303467
 11
578.039402
 21
593.303467
  0
LINE
  8
CSLAYER1
  6
DASHED
 62
     1
 10
577.039402
 20
567.641722
 11
577.039402
 21
593.303467
  0
LINE
  8
CSLAYER1
  6
DASHED
 62
     1
 10
593.039402
 20
567.641722
 11
593.039402
 21
593.303467
  0
LINE
  8
CSLAYER1
  6
DASHED
 62
     1
 10
581.539402
 20
611.331790
 11
581.539402
 21
623.643527
  0
LINE
  8
CSLAYER1
  6
DASHED
 62
     1
 10
588.539402
 20
611.331790
 11
588.539402
 21
623.643527
  0
LINE
  8
CSLAYER1
  6
DASHED
 62
     1
 10
578.039402
 20
584.017293
 11
578.039402
 21
599.347652
  0
LINE
  8
CSLAYER1
  6
DASHED
 62
     1
 10
592.039402
 20
584.017293
 11
592.039402
 21
599.347652
  0
LINE
  8
CSLAYER1
  6
DASHED
 62
     1
 10
583.039402
 20
611.331790
 11
583.039402
 21
639.621460
  0
LINE
  8
CSLAYER1
  6
DASHED
 62
     1
 10
587.039402
 20
611.331790
 11
587.039402
 21
635.582016
  0
LINE
  8
CSLAYER1
  6
DASHED
 62
     1
 10
579.500220
 20
611.331790
 11
590.578585
 21
611.331790
  0
LINE
  8
CSLAYER1
  6
DASHED
 62
     1
 10
577.039402
 20
584.017293
 11
593.039402
 21
584.017293
  0
LINE
  8
CSLAYER1
  6
DASHED
 62
     1
 10
592.039402
 20
599.347652
 11
590.578585
 21
611.331790
  0
LINE
  8
CSLAYER1
  6
DASHED
 62
     1
 10
578.039402
 20
599.347652
 11
579.500220
 21
611.331790
  0
LINE
  8
CSLAYER1
  6
DASHED
 62
     1
 10
594.039402
 20
577.766330
 11
594.039402
 21
585.366330
  0
LINE
  8
CSLAYER1
  6
DASHED
 62
     1
 10
594.039402
 20
577.766330
 11
593.039402
 21
577.766330
  0
LINE
  8
CSLAYER1
  6
DASHED
 62
     1
 10
594.039402
 20
585.366330
 11
593.039402
 21
585.366330
  0
LINE
  8
CSLAYER1
  6
DASHED
 62
     1
 10
596.639402
 20
580.066330
 11
596.639402
 21
583.066330
  0
LINE
  8
CSLAYER1
  6
DASHED
 62
     1
 10
594.639402
 20
578.066330
 11
594.039402
 21
578.066330
  0
LINE
  8
CSLAYER1
  6
DASHED
 62
     1
 10
594.639402
 20
585.066330
 11
594.039402
 21
585.066330
  0
ARC
  8
CSLAYER1
  6
DASHED
 62
     1
 10
594.639402
 20
580.066330
 40
2.000000
 50
270.000000
 51
360.000000
  0
ARC
  8
CSLAYER1
  6
DASHED
 62
     1
 10
594.639402
 20
583.066330
 40
2.000000
 50
0.000000
 51
90.000000
  0
LINE
  8
CSLAYER1
  6
DASHED
 62
     1
 10
592.039402
 20
593.303467
 11
593.039402
 21
593.303467
  0
LINE
  8
CSLAYER1
  6
DASHED
 62
     1
 10
587.039402
 20
623.135320
 11
588.539402
 21
623.135320
  0
LINE
  8
CSLAYER1
  6
DASHED
 62
     1
 10
587.039402
 20
623.643527
 11
588.539402
 21
623.643527
  0
LINE
  8
CSLAYER1
  6
DASHED
 62
     1
 10
582.293341
 20
640.069097
 11
591.267502
 21
632.291491
  0
LINE
  8
CSLAYER1
  6
DASHED
 62
     1
 10
572.839402
 20
590.558788
 11
572.839402
 21
580.558788
  0
LINE
  8
CSLAYER1
  6
DASHED
 62
     1
 10
593.039402
 20
590.558788
 11
602.839402
 21
590.558788
  0
LINE
  8
CSLAYER1
  6
DASHED
 62
     1
 10
596.577826
 20
580.558788
 11
602.839402
 21
580.558788
  0
LINE
  8
CSLAYER1
  6
DASHED
 62
     1
 10
602.839402
 20
567.641722
 11
602.839402
 21
1371.187340
  0
LINE
  8
CSLAYER1
  6
DASHED
 62
     1
 10
618.839402
 20
567.641722
 11
618.839402
 21
1371.187340
  0
LINE
  8
CSLAYER1
  6
DASHED
 62
     1
 10
540.389402
 20
1150.347555
 11
540.389402
 21
910.435782
  0
LINE
  8
CSLAYER1
  6
DASHED
 62
     1
 10
526.089402
 20
1274.613015
 11
526.089402
 21
1168.593396
  0
LINE
  8
CSLAYER1
  6
DASHED
 62
     1
 10
540.389402
 20
1150.347555
 11
540.219876
 21
1152.462273
  0
LINE
  8
CSLAYER1
  6
DASHED
 62
     1
 10
538.871398
 20
1156.627455
 11
537.702709
 21
1158.646219
  0
LINE
  8
CSLAYER1
  6
DASHED
 62
     1
 10
537.702709
 20
1158.646219
 11
536.215414
 21
1160.601825
  0
LINE
  8
CSLAYER1
  6
DASHED
 62
     1
 10
534.420834
 20
1162.479390
 11
532.332626
 21
1164.264624
  0
LINE
  8
CSLAYER1
  6
DASHED
 62
     1
 10
532.332626
 20
1164.264624
 11
529.966682
 21
1165.943941
  0
LINE
  8
CSLAYER1
  6
DASHED
 62
     1
 10
529.966682
 20
1165.943941
 11
527.341010
 21
1167.504560
  0
LINE
  8
CSLAYER1
  6
DASHED
 62
     1
 10
524.475591
 20
1168.934604
 11
521.392233
 21
1170.223189
  0
LINE
  8
CSLAYER1
  6
DASHED
 62
     1
 10
521.392233
 20
1170.223189
 11
518.114402
 21
1171.360509
  0
LINE
  8
CSLAYER1
  6
DASHED
 62
     1
 10
514.667046
 20
1172.337907
 11
511.076400
 21
1173.147946
  0
LINE
  8
CSLAYER1
  6
DASHED
 62
     1
 10
507.369791
 20
1173.784460
 11
503.575429
 21
1174.242604
  0
LINE
  8
CSLAYER1
  6
DASHED
 62
     1
 10
499.722191
 20
1174.518893
 11
495.839402
 21
1174.611224
  0
LINE
  8
CSLAYER1
  6
DASHED
 62
     1
 10
661.839402
 20
795.127547
 11
618.839402
 21
795.127547
  0
LINE
  8
CSLAYER1
  6
DASHED
 62
     1
 10
661.839402
 20
715.714290
 11
618.839402
 21
715.714290
  0
LINE
  8
CSLAYER1
  6
DASHED
 62
     1
 10
618.839402
 20
810.321161
 11
661.839402
 21
810.321161
  0
LINE
  8
CSLAYER1
  6
DASHED
 62
     1
 10
602.839402
 20
795.127547
 11
550.962855
 21
795.127547
  0
LINE
  8
CSLAYER1
  6
DASHED
 62
     1
 10
602.839402
 20
715.714290
 11
580.839402
 21
715.714290
  0
LINE
  8
CSLAYER1
  6
DASHED
 62
     1
 10
573.396069
 20
810.321161
 11
602.839402
 21
810.321161
  0
LINE
  8
CSLAYER1
  6
DASHED
 62
     1
 10
677.839402
 20
1280.987340
 11
677.839402
 21
914.814531
  0
LINE
  8
CSLAYER1
  6
DASHED
 62
     1
 10
661.839402
 20
1280.987340
 11
661.839402
 21
567.641722
  0
LINE
  8
CSLAYER1
  6
DASHED
 62
     1
 10
620.839402
 20
872.908104
 11
620.839402
 21
840.908104
  0
LINE
  8
CSLAYER1
  6
DASHED
 62
     1
 10
630.839402
 20
870.908104
 11
630.839402
 21
842.908104
  0
LINE
  8
CSLAYER1
  6
DASHED
 62
     1
 10
628.839402
 20
872.908104
 11
620.839402
 21
872.908104
  0
LINE
  8
CSLAYER1
  6
DASHED
 62
     1
 10
630.839402
 20
870.908104
 11
628.839402
 21
872.908104
  0
LINE
  8
CSLAYER1
  6
DASHED
 62
     1
 10
628.839402
 20
872.908104
 11
628.839402
 21
840.908104
  0
LINE
  8
CSLAYER1
  6
DASHED
 62
     1
 10
628.839402
 20
840.908104
 11
620.839402
 21
840.908104
  0
LINE
  8
CSLAYER1
  6
DASHED
 62
     1
 10
630.839402
 20
842.908104
 11
628.839402
 21
840.908104
  0
LINE
  8
CSLAYER1
  6
DASHED
 62
     1
 10
620.839402
 20
870.908104
 11
618.839402
 21
870.908104
  0
LINE
  8
CSLAYER1
  6
DASHED
 62
     1
 10
620.839402
 20
842.908104
 11
618.839402
 21
842.908104
  0
LINE
  8
CSLAYER1
  6
DASHED
 62
     1
 10
627.839402
 20
1345.987340
 11
652.839402
 21
1345.987340
  0
LINE
  8
CSLAYER1
  6
DASHED
 62
     1
 10
652.839402
 20
1320.987340
 11
625.339402
 21
1320.987340
  0
LINE
  8
CSLAYER1
  6
DASHED
 62
     1
 10
652.839402
 20
1371.187340
 11
652.839402
 21
1320.987340
  0
LINE
  8
CSLAYER1
  6
DASHED
 62
     1
 10
627.839402
 20
1320.987340
 11
627.839402
 21
1371.187340
  0
LINE
  8
CSLAYER1
  6
DASHED
 62
     1
 10
643.339402
 20
1371.187340
 11
643.339402
 21
1345.987340
  0
LINE
  8
CSLAYER1
  6
DASHED
 62
     1
 10
637.339402
 20
1371.187340
 11
637.339402
 21
1345.987340
  0
LINE
  8
CSLAYER1
  6
DASHED
 62
     1
 10
624.339402
 20
1319.987340
 11
624.339402
 21
1279.987340
  0
LINE
  8
CSLAYER1
  6
DASHED
 62
     1
 10
650.839402
 20
1311.538983
 11
650.839402
 21
1288.435698
  0
LINE
  8
CSLAYER1
  6
DASHED
 62
     1
 10
651.989402
 20
1311.538983
 11
651.989402
 21
1288.435698
  0
LINE
  8
CSLAYER1
  6
DASHED
 62
     1
 10
652.839402
 20
1307.487340
 11
651.989402
 21
1307.487340
  0
LINE
  8
CSLAYER1
  6
DASHED
 62
     1
 10
651.989402
 20
1311.538983
 11
650.839402
 21
1311.538983
  0
LINE
  8
CSLAYER1
  6
DASHED
 62
     1
 10
650.839402
 20
1307.487340
 11
650.339402
 21
1307.487340
  0
LINE
  8
CSLAYER1
  6
DASHED
 62
     1
 10
650.339402
 20
1319.987340
 11
650.339402
 21
1279.987340
  0
ARC
  8
CSLAYER1
  6
DASHED
 62
     1
 10
625.339402
 20
1319.987340
 40
1.000000
 50
90.000000
 51
180.000000
  0
ARC
  8
CSLAYER1
  6
DASHED
 62
     1
 10
649.339402
 20
1319.987340
 40
1.000000
 50
0.000000
 51
90.000000
  0
ARC
  8
CSLAYER1
  6
DASHED
 62
     1
 10
638.339402
 20
1319.987340
 40
1.000000
 50
90.000000
 51
180.000000
  0
ARC
  8
CSLAYER1
  6
DASHED
 62
     1
 10
636.339402
 20
1319.987340
 40
1.000000
 50
0.000000
 51
90.000000
  0
LINE
  8
CSLAYER1
  6
DASHED
 62
     1
 10
653.339402
 20
1371.187340
 11
653.339402
 21
1280.987340
  0
LINE
  8
CSLAYER1
  6
DASHED
 62
     1
 10
649.339402
 20
1278.987340
 11
638.339402
 21
1278.987340
  0
LINE
  8
CSLAYER1
  6
DASHED
 62
     1
 10
652.839402
 20
1292.487340
 11
651.989402
 21
1292.487340
  0
LINE
  8
CSLAYER1
  6
DASHED
 62
     1
 10
651.989402
 20
1288.435698
 11
650.839402
 21
1288.435698
  0
LINE
  8
CSLAYER1
  6
DASHED
 62
     1
 10
650.839402
 20
1292.487340
 11
650.339402
 21
1292.487340
  0
ARC
  8
CSLAYER1
  6
DASHED
 62
     1
 10
625.339402
 20
1279.987340
 40
1.000000
 50
180.000000
 51
270.000000
  0
ARC
  8
CSLAYER1
  6
DASHED
 62
     1
 10
649.339402
 20
1279.987340
 40
1.000000
 50
270.000000
 51
360.000000
  0
ARC
  8
CSLAYER1
  6
DASHED
 62
     1
 10
638.339402
 20
1279.987340
 40
1.000000
 50
180.000000
 51
270.000000
  0
ARC
  8
CSLAYER1
  6
DASHED
 62
     1
 10
636.339402
 20
1279.987340
 40
1.000000
 50
270.000000
 51
360.000000
  0
LINE
  8
CSLAYER1
  6
DASHED
 62
     1
 10
625.339402
 20
1278.987340
 11
636.339402
 21
1278.987340
  0
LINE
  8
CSLAYER1
  6
DASHED
 62
     1
 10
624.339402
 20
1299.987340
 11
623.339402
 21
1299.987340
  0
LINE
  8
CSLAYER1
  6
DASHED
 62
     1
 10
623.839402
 20
1309.987340
 11
624.339402
 21
1309.487340
  0
LINE
  8
CSLAYER1
  6
DASHED
 62
     1
 10
623.839402
 20
1289.987340
 11
624.339402
 21
1290.487340
  0
LINE
  8
CSLAYER1
  6
DASHED
 62
     1
 10
602.839402
 20
1349.502480
 11
388.839402
 21
1349.502480
  0
LINE
  8
CSLAYER1
  6
DASHED
 62
     1
 10
526.089402
 20
1274.613015
 11
550.339402
 21
1274.613015
  0
LINE
  8
CSLAYER1
  6
DASHED
 62
     1
 10
596.839402
 20
1282.863015
 11
552.339402
 21
1282.863015
  0
LINE
  8
CSLAYER1
  6
DASHED
 62
     1
 10
596.839402
 20
1326.863015
 11
552.339402
 21
1326.863015
  0
LINE
  8
CSLAYER1
  6
DASHED
 62
     1
 10
552.339402
 20
1333.113015
 11
552.339402
 21
1276.613015
  0
LINE
  8
CSLAYER1
  6
DASHED
 62
     1
 10
550.339402
 20
1335.113015
 11
441.339402
 21
1335.113015
  0
LINE
  8
CSLAYER1
  6
DASHED
 62
     1
 10
552.339402
 20
1333.113015
 11
550.339402
 21
1335.113015
  0
LINE
  8
CSLAYER1
  6
DASHED
 62
     1
 10
552.339402
 20
1276.613015
 11
550.339402
 21
1274.613015
  0
LINE
  8
CSLAYER1
  6
DASHED
 62
     1
 10
596.839402
 20
1326.863015
 11
601.839402
 21
1321.863015
  0
LINE
  8
CSLAYER1
  6
DASHED
 62
     1
 10
596.839402
 20
1326.863015
 11
596.839402
 21
1282.863015
  0
LINE
  8
CSLAYER1
  6
DASHED
 62
     1
 10
596.839402
 20
1282.863015
 11
601.839402
 21
1287.863015
  0
LINE
  8
CSLAYER1
  6
DASHED
 62
     1
 10
585.839402
 20
1345.063015
 11
555.839402
 21
1345.063015
  0
LINE
  8
CSLAYER1
  6
DASHED
 62
     1
 10
588.159911
 20
1330.063015
 11
588.159911
 21
1343.723269
  0
LINE
  8
CSLAYER1
  6
DASHED
 62
     1
 10
579.499657
 20
1330.063015
 11
579.499657
 21
1343.723269
  0
LINE
  8
CSLAYER1
  6
DASHED
 62
     1
 10
585.839402
 20
1345.063015
 11
588.159911
 21
1343.723269
  0
ARC
  8
CSLAYER1
  6
DASHED
 62
     1
 10
583.829784
 20
1337.408397
 40
7.656867
 50
55.561448
 51
124.438552
  0
ARC
  8
CSLAYER1
  6
DASHED
 62
     1
 10
570.839402
 20
1316.402761
 40
28.660254
 50
72.412046
 51
107.587954
  0
LINE
  8
CSLAYER1
  6
DASHED
 62
     1
 10
552.339402
 20
1330.063015
 11
589.339402
 21
1330.063015
  0
LINE
  8
CSLAYER1
  6
DASHED
 62
     1
 10
583.839402
 20
1347.563015
 11
557.839402
 21
1347.563015
  0
LINE
  8
CSLAYER1
  6
DASHED
 62
     1
 10
585.839402
 20
1345.063015
 11
585.839402
 21
1345.563015
  0
ARC
  8
CSLAYER1
  6
DASHED
 62
     1
 10
583.839402
 20
1345.563015
 40
2.000000
 50
0.000000
 51
90.000000
  0
LINE
  8
CSLAYER1
  6
DASHED
 62
     1
 10
553.518894
 20
1330.063015
 11
553.518894
 21
1343.723269
  0
LINE
  8
CSLAYER1
  6
DASHED
 62
     1
 10
562.179148
 20
1330.063015
 11
562.179148
 21
1343.723269
  0
LINE
  8
CSLAYER1
  6
DASHED
 62
     1
 10
555.839402
 20
1345.063015
 11
553.518894
 21
1343.723269
  0
ARC
  8
CSLAYER1
  6
DASHED
 62
     1
 10
557.849021
 20
1337.408397
 40
7.656867
 50
55.561448
 51
124.438552
  0
LINE
  8
CSLAYER1
  6
DASHED
 62
     1
 10
555.839402
 20
1345.063015
 11
555.839402
 21
1345.563015
  0
ARC
  8
CSLAYER1
  6
DASHED
 62
     1
 10
557.839402
 20
1345.563015
 40
2.000000
 50
90.000000
 51
180.000000
  0
LINE
  8
CSLAYER1
  6
DASHED
 62
     1
 10
580.839402
 20
1347.563015
 11
580.839402
 21
1349.502480
  0
LINE
  8
CSLAYER1
  6
DASHED
 62
     1
 10
579.339402
 20
1347.563015
 11
579.339402
 21
1349.502480
  0
LINE
  8
CSLAYER1
  6
DASHED
 62
     1
 10
589.339402
 20
1326.863015
 11
589.339402
 21
1330.063015
  0
LINE
  8
CSLAYER1
  6
DASHED
 62
     1
 10
560.839402
 20
1347.563015
 11
560.839402
 21
1349.502480
  0
LINE
  8
CSLAYER1
  6
DASHED
 62
     1
 10
562.339402
 20
1347.563015
 11
562.339402
 21
1349.502480
  0
LINE
  8
CSLAYER1
  6
DASHED
 62
     1
 10
550.339402
 20
1335.113015
 11
550.339402
 21
1274.613015
  0
LINE
  8
CSLAYER1
  6
DASHED
 62
     1
 10
498.475864
 20
1291.025652
 11
501.092260
 21
1290.838049
  0
LINE
  8
CSLAYER1
  6
DASHED
 62
     1
 10
501.092260
 20
1290.838049
 11
503.668679
 21
1290.526963
  0
LINE
  8
CSLAYER1
  6
DASHED
 62
     1
 10
506.185512
 20
1290.094762
 11
508.623605
 21
1289.544736
  0
LINE
  8
CSLAYER1
  6
DASHED
 62
     1
 10
508.623605
 20
1289.544736
 11
510.964402
 21
1288.881070
  0
LINE
  8
CSLAYER1
  6
DASHED
 62
     1
 10
513.190090
 20
1288.108816
 11
515.283728
 21
1287.233851
  0
LINE
  8
CSLAYER1
  6
DASHED
 62
     1
 10
515.283728
 20
1287.233851
 11
517.229383
 21
1286.262833
  0
LINE
  8
CSLAYER1
  6
DASHED
 62
     1
 10
519.012247
 20
1285.203154
 11
520.618752
 21
1284.062877
  0
LINE
  8
CSLAYER1
  6
DASHED
 62
     1
 10
520.618752
 20
1284.062877
 11
522.036671
 21
1282.850681
  0
LINE
  8
CSLAYER1
  6
DASHED
 62
     1
 10
523.255213
 20
1281.575791
 11
524.265104
 21
1280.247910
  0
LINE
  8
CSLAYER1
  6
DASHED
 62
     1
 10
524.265104
 20
1280.247910
 11
525.058659
 21
1278.877145
  0
LINE
  8
CSLAYER1
  6
DASHED
 62
     1
 10
525.629837
 20
1277.473926
 11
525.974292
 21
1276.048935
  0
LINE
  8
CSLAYER1
  6
DASHED
 62
     1
 10
525.974292
 20
1276.048935
 11
526.089402
 21
1274.613015
  0
LINE
  8
CSLAYER1
  6
DASHED
 62
     1
 10
627.839402
 20
1371.187340
 11
618.839402
 21
1371.187340
  0
LINE
  8
CSLAYER1
  6
DASHED
 62
     1
 10
623.839402
 20
1309.987340
 11
622.839402
 21
1309.987340
  0
LINE
  8
CSLAYER1
  6
DASHED
 62
     1
 10
623.839402
 20
1289.987340
 11
620.189402
 21
1289.987340
  0
LINE
  8
CSLAYER1
  6
DASHED
 62
     1
 10
601.839402
 20
1334.763015
 11
601.839402
 21
1274.963015
  0
ARC
  8
CSLAYER1
  6
DASHED
 62
     1
 10
602.939402
 20
1334.763015
 40
1.100000
 50
95.215909
 51
180.000000
  0
ARC
  8
CSLAYER1
  6
DASHED
 62
     1
 10
602.939402
 20
1274.963015
 40
1.100000
 50
180.000000
 51
264.784091
  0
LINE
  8
CSLAYER1
  6
DASHED
 62
     1
 10
621.339402
 20
1317.363015
 11
620.189402
 21
1317.363015
  0
LINE
  8
CSLAYER1
  6
DASHED
 62
     1
 10
620.189402
 20
1319.913015
 11
618.839402
 21
1319.913015
  0
LINE
  8
CSLAYER1
  6
DASHED
 62
     1
 10
620.189402
 20
1319.913015
 11
620.189402
 21
1289.813015
  0
LINE
  8
CSLAYER1
  6
DASHED
 62
     1
 10
622.839402
 20
1315.863015
 11
622.839402
 21
1293.863015
  0
LINE
  8
CSLAYER1
  6
DASHED
 62
     1
 10
622.839402
 20
1315.863015
 11
621.339402
 21
1317.363015
  0
LINE
  8
CSLAYER1
  6
DASHED
 62
     1
 10
621.339402
 20
1317.363015
 11
621.339402
 21
1292.363015
  0
LINE
  8
CSLAYER1
  6
DASHED
 62
     1
 10
621.339402
 20
1292.363015
 11
620.189402
 21
1292.363015
  0
LINE
  8
CSLAYER1
  6
DASHED
 62
     1
 10
620.189402
 20
1289.813015
 11
618.839402
 21
1289.813015
  0
LINE
  8
CSLAYER1
  6
DASHED
 62
     1
 10
622.839402
 20
1293.863015
 11
621.339402
 21
1292.363015
  0
LINE
  8
CSLAYER1
  6
DASHED
 62
     1
 10
637.339402
 20
1319.987340
 11
637.339402
 21
1279.987340
  0
LINE
  8
CSLAYER1
  6
DASHED
 62
     1
 10
697.539402
 20
1322.987340
 11
697.539402
 21
1291.987340
  0
LINE
  8
CSLAYER1
  6
DASHED
 62
     1
 10
694.339402
 20
1371.187340
 11
694.339402
 21
1280.987340
  0
LINE
  8
CSLAYER1
  6
DASHED
 62
     1
 10
653.339402
 20
1280.987340
 11
694.339402
 21
1280.987340
  0
LINE
  8
CSLAYER1
  6
DASHED
 62
     1
 10
697.539402
 20
1322.987340
 11
694.339402
 21
1322.987340
  0
LINE
  8
CSLAYER1
  6
DASHED
 62
     1
 10
652.339402
 20
1292.987340
 11
652.339402
 21
1306.987340
  0
LINE
  8
CSLAYER1
  6
DASHED
 62
     1
 10
652.339402
 20
1292.987340
 11
653.339402
 21
1291.987340
  0
LINE
  8
CSLAYER1
  6
DASHED
 62
     1
 10
697.539402
 20
1291.987340
 11
694.339402
 21
1291.987340
  0
LINE
  8
CSLAYER1
  6
DASHED
 62
     1
 10
652.339402
 20
1306.987340
 11
653.339402
 21
1307.987340
  0
LINE
  8
CSLAYER1
  6
DASHED
 62
     1
 10
697.539402
 20
1295.987340
 11
694.339402
 21
1295.987340
  0
LINE
  8
CSLAYER1
  6
DASHED
 62
     1
 10
697.539402
 20
1303.987340
 11
694.339402
 21
1303.987340
  0
LINE
  8
CSLAYER1
  6
DASHED
 62
     1
 10
556.839402
 20
910.435782
 11
556.839402
 21
927.814531
  0
LINE
  8
CSLAYER1
  6
DASHED
 62
     1
 10
557.839402
 20
910.435782
 11
557.839402
 21
928.814531
  0
LINE
  8
CSLAYER1
  6
DASHED
 62
     1
 10
562.839402
 20
928.814531
 11
559.812862
 21
928.814531
  0
LINE
  8
CSLAYER1
  6
DASHED
 62
     1
 10
556.839402
 20
927.814531
 11
557.839402
 21
928.814531
  0
LINE
  8
CSLAYER1
  6
DASHED
 62
     1
 10
579.839402
 20
933.814531
 11
580.839402
 21
934.814531
  0
LINE
  8
CSLAYER1
  6
DASHED
 62
     1
 10
557.839402
 20
928.814531
 11
562.905661
 21
933.799212
  0
LINE
  8
CSLAYER1
  6
DASHED
 62
     1
 10
562.839402
 20
933.734021
 11
557.919913
 21
928.814531
  0
LINE
  8
CSLAYER1
  6
DASHED
 62
     1
 10
562.839402
 20
933.451178
 11
558.202755
 21
928.814531
  0
LINE
  8
CSLAYER1
  6
DASHED
 62
     1
 10
562.839402
 20
933.168336
 11
558.485598
 21
928.814531
  0
LINE
  8
CSLAYER1
  6
DASHED
 62
     1
 10
562.839402
 20
932.885493
 11
558.768441
 21
928.814531
  0
LINE
  8
CSLAYER1
  6
DASHED
 62
     1
 10
562.839402
 20
932.602650
 11
559.051284
 21
928.814531
  0
LINE
  8
CSLAYER1
  6
DASHED
 62
     1
 10
562.839402
 20
932.319807
 11
559.334126
 21
928.814531
  0
LINE
  8
CSLAYER1
  6
DASHED
 62
     1
 10
562.839402
 20
932.036965
 11
559.616969
 21
928.814531
  0
LINE
  8
CSLAYER1
  6
DASHED
 62
     1
 10
562.839402
 20
931.754122
 11
559.899812
 21
928.814531
  0
LINE
  8
CSLAYER1
  6
DASHED
 62
     1
 10
562.839402
 20
931.471279
 11
560.182654
 21
928.814531
  0
LINE
  8
CSLAYER1
  6
DASHED
 62
     1
 10
562.839402
 20
931.188437
 11
560.465497
 21
928.814531
  0
LINE
  8
CSLAYER1
  6
DASHED
 62
     1
 10
562.839402
 20
930.905594
 11
560.748340
 21
928.814531
  0
LINE
  8
CSLAYER1
  6
DASHED
 62
     1
 10
562.839402
 20
930.622751
 11
561.031183
 21
928.814531
  0
LINE
  8
CSLAYER1
  6
DASHED
 62
     1
 10
562.839402
 20
930.339908
 11
561.314025
 21
928.814531
  0
LINE
  8
CSLAYER1
  6
DASHED
 62
     1
 10
562.839402
 20
930.057066
 11
561.596868
 21
928.814531
  0
LINE
  8
CSLAYER1
  6
DASHED
 62
     1
 10
562.839402
 20
929.774223
 11
561.879711
 21
928.814531
  0
LINE
  8
CSLAYER1
  6
DASHED
 62
     1
 10
562.839402
 20
929.491380
 11
562.162553
 21
928.814531
  0
LINE
  8
CSLAYER1
  6
DASHED
 62
     1
 10
562.839402
 20
929.208538
 11
562.445396
 21
928.814531
  0
LINE
  8
CSLAYER1
  6
DASHED
 62
     1
 10
562.839402
 20
928.925695
 11
562.728239
 21
928.814531
  0
LINE
  8
CSLAYER1
  6
DASHED
 62
     1
 10
659.812862
 20
893.464531
 11
618.839402
 21
893.464531
  0
LINE
  8
CSLAYER1
  6
DASHED
 62
     1
 10
579.839402
 20
933.814531
 11
579.839402
 21
899.182777
  0
LINE
  8
CSLAYER1
  6
DASHED
 62
     1
 10
660.812862
 20
935.164531
 11
660.812862
 21
894.464531
  0
LINE
  8
CSLAYER1
  6
DASHED
 62
     1
 10
660.812862
 20
894.464531
 11
659.812862
 21
893.464531
  0
LINE
  8
CSLAYER1
  6
DASHED
 62
     1
 10
700.812862
 20
924.814531
 11
700.812862
 21
904.814531
  0
LINE
  8
CSLAYER1
  6
DASHED
 62
     1
 10
681.812862
 20
933.314531
 11
681.812862
 21
896.314531
  0
LINE
  8
CSLAYER1
  6
DASHED
 62
     1
 10
686.912862
 20
931.814531
 11
686.912862
 21
897.814531
  0
LINE
  8
CSLAYER1
  6
DASHED
 62
     1
 10
698.912862
 20
931.814531
 11
698.912862
 21
897.814531
  0
LINE
  8
CSLAYER1
  6
DASHED
 62
     1
 10
681.812862
 20
931.814531
 11
698.912862
 21
931.814531
  0
LINE
  8
CSLAYER1
  6
DASHED
 62
     1
 10
686.912862
 20
924.814531
 11
700.812862
 21
924.814531
  0
LINE
  8
CSLAYER1
  6
DASHED
 62
     1
 10
681.812862
 20
897.814531
 11
698.912862
 21
897.814531
  0
LINE
  8
CSLAYER1
  6
DASHED
 62
     1
 10
686.912862
 20
904.814531
 11
700.812862
 21
904.814531
  0
LINE
  8
CSLAYER1
  6
DASHED
 62
     1
 10
678.812862
 20
933.314531
 11
681.812862
 21
933.314531
  0
LINE
  8
CSLAYER1
  6
DASHED
 62
     1
 10
678.812862
 20
896.314531
 11
681.812862
 21
896.314531
  0
LINE
  8
CSLAYER1
  6
DASHED
 62
     1
 10
678.812862
 20
896.314531
 11
678.812862
 21
933.314531
  0
LINE
  8
CSLAYER1
  6
DASHED
 62
     1
 10
678.812862
 20
902.314531
 11
677.839402
 21
902.314531
  0
LINE
  8
CSLAYER1
  6
DASHED
 62
     1
 10
659.812862
 20
936.164531
 11
618.839402
 21
936.164531
  0
LINE
  8
CSLAYER1
  6
DASHED
 62
     1
 10
660.812862
 20
935.164531
 11
659.812862
 21
936.164531
  0
LINE
  8
CSLAYER1
  6
DASHED
 62
     1
 10
678.812862
 20
927.314531
 11
677.839402
 21
927.314531
  0
LINE
  8
CSLAYER1
  6
DASHED
 62
     1
 10
677.812862
 20
914.814531
 11
677.812862
 21
567.641722
  0
LINE
  8
CSLAYER1
  6
DASHED
 62
     1
 10
623.839402
 20
893.464531
 11
618.839402
 21
888.464531
  0
LINE
  8
CSLAYER1
  6
DASHED
 62
     1
 10
618.839402
 20
888.747374
 11
623.556560
 21
893.464531
  0
LINE
  8
CSLAYER1
  6
DASHED
 62
     1
 10
618.839402
 20
889.030217
 11
623.273717
 21
893.464531
  0
LINE
  8
CSLAYER1
  6
DASHED
 62
     1
 10
618.839402
 20
889.313059
 11
622.990874
 21
893.464531
  0
LINE
  8
CSLAYER1
  6
DASHED
 62
     1
 10
618.839402
 20
889.595902
 11
622.708032
 21
893.464531
  0
LINE
  8
CSLAYER1
  6
DASHED
 62
     1
 10
618.839402
 20
889.878745
 11
622.425189
 21
893.464531
  0
LINE
  8
CSLAYER1
  6
DASHED
 62
     1
 10
618.839402
 20
890.161588
 11
622.142346
 21
893.464531
  0
LINE
  8
CSLAYER1
  6
DASHED
 62
     1
 10
618.839402
 20
890.444430
 11
621.859504
 21
893.464531
  0
LINE
  8
CSLAYER1
  6
DASHED
 62
     1
 10
618.839402
 20
890.727273
 11
621.576661
 21
893.464531
  0
LINE
  8
CSLAYER1
  6
DASHED
 62
     1
 10
618.839402
 20
891.010116
 11
621.293818
 21
893.464531
  0
LINE
  8
CSLAYER1
  6
DASHED
 62
     1
 10
618.839402
 20
891.292958
 11
621.010975
 21
893.464531
  0
LINE
  8
CSLAYER1
  6
DASHED
 62
     1
 10
618.839402
 20
891.575801
 11
620.728133
 21
893.464531
  0
LINE
  8
CSLAYER1
  6
DASHED
 62
     1
 10
618.839402
 20
891.858644
 11
620.445290
 21
893.464531
  0
LINE
  8
CSLAYER1
  6
DASHED
 62
     1
 10
618.839402
 20
892.141487
 11
620.162447
 21
893.464531
  0
LINE
  8
CSLAYER1
  6
DASHED
 62
     1
 10
618.839402
 20
892.424329
 11
619.879605
 21
893.464531
  0
LINE
  8
CSLAYER1
  6
DASHED
 62
     1
 10
618.839402
 20
892.707172
 11
619.596762
 21
893.464531
  0
LINE
  8
CSLAYER1
  6
DASHED
 62
     1
 10
618.839402
 20
892.990015
 11
619.313919
 21
893.464531
  0
LINE
  8
CSLAYER1
  6
DASHED
 62
     1
 10
618.839402
 20
893.272857
 11
619.031076
 21
893.464531
  0
LINE
  8
CSLAYER1
  6
DASHED
 62
     1
 10
602.839402
 20
939.531689
 11
598.122245
 21
934.814531
  0
LINE
  8
CSLAYER1
  6
DASHED
 62
     1
 10
602.839402
 20
939.248846
 11
598.405088
 21
934.814531
  0
LINE
  8
CSLAYER1
  6
DASHED
 62
     1
 10
602.839402
 20
938.966003
 11
598.687931
 21
934.814531
  0
LINE
  8
CSLAYER1
  6
DASHED
 62
     1
 10
602.839402
 20
938.683160
 11
598.970773
 21
934.814531
  0
LINE
  8
CSLAYER1
  6
DASHED
 62
     1
 10
602.839402
 20
938.400318
 11
599.253616
 21
934.814531
  0
LINE
  8
CSLAYER1
  6
DASHED
 62
     1
 10
602.839402
 20
938.117475
 11
599.536459
 21
934.814531
  0
LINE
  8
CSLAYER1
  6
DASHED
 62
     1
 10
602.839402
 20
937.834632
 11
599.819301
 21
934.814531
  0
LINE
  8
CSLAYER1
  6
DASHED
 62
     1
 10
602.839402
 20
937.551790
 11
600.102144
 21
934.814531
  0
LINE
  8
CSLAYER1
  6
DASHED
 62
     1
 10
602.839402
 20
937.268947
 11
600.384987
 21
934.814531
  0
LINE
  8
CSLAYER1
  6
DASHED
 62
     1
 10
602.839402
 20
936.986104
 11
600.667830
 21
934.814531
  0
LINE
  8
CSLAYER1
  6
DASHED
 62
     1
 10
602.839402
 20
936.703261
 11
600.950672
 21
934.814531
  0
LINE
  8
CSLAYER1
  6
DASHED
 62
     1
 10
602.839402
 20
936.420419
 11
601.233515
 21
934.814531
  0
LINE
  8
CSLAYER1
  6
DASHED
 62
     1
 10
602.839402
 20
936.137576
 11
601.516358
 21
934.814531
  0
LINE
  8
CSLAYER1
  6
DASHED
 62
     1
 10
602.839402
 20
935.854733
 11
601.799200
 21
934.814531
  0
LINE
  8
CSLAYER1
  6
DASHED
 62
     1
 10
602.839402
 20
935.571891
 11
602.082043
 21
934.814531
  0
LINE
  8
CSLAYER1
  6
DASHED
 62
     1
 10
602.839402
 20
935.289048
 11
602.364886
 21
934.814531
  0
LINE
  8
CSLAYER1
  6
DASHED
 62
     1
 10
602.839402
 20
935.006205
 11
602.647729
 21
934.814531
  0
LINE
  8
CSLAYER1
  6
DASHED
 62
     1
 10
623.839402
 20
936.164531
 11
618.839402
 21
941.164531
  0
LINE
  8
CSLAYER1
  6
DASHED
 62
     1
 10
618.839402
 20
940.881689
 11
623.556560
 21
936.164531
  0
LINE
  8
CSLAYER1
  6
DASHED
 62
     1
 10
618.839402
 20
940.598846
 11
623.273717
 21
936.164531
  0
LINE
  8
CSLAYER1
  6
DASHED
 62
     1
 10
618.839402
 20
940.316003
 11
622.990874
 21
936.164531
  0
LINE
  8
CSLAYER1
  6
DASHED
 62
     1
 10
618.839402
 20
940.033160
 11
622.708032
 21
936.164531
  0
LINE
  8
CSLAYER1
  6
DASHED
 62
     1
 10
618.839402
 20
939.750318
 11
622.425189
 21
936.164531
  0
LINE
  8
CSLAYER1
  6
DASHED
 62
     1
 10
618.839402
 20
939.467475
 11
622.142346
 21
936.164531
  0
LINE
  8
CSLAYER1
  6
DASHED
 62
     1
 10
618.839402
 20
939.184632
 11
621.859504
 21
936.164531
  0
LINE
  8
CSLAYER1
  6
DASHED
 62
     1
 10
618.839402
 20
938.901790
 11
621.576661
 21
936.164531
  0
LINE
  8
CSLAYER1
  6
DASHED
 62
     1
 10
618.839402
 20
938.618947
 11
621.293818
 21
936.164531
  0
LINE
  8
CSLAYER1
  6
DASHED
 62
     1
 10
618.839402
 20
938.336104
 11
621.010975
 21
936.164531
  0
LINE
  8
CSLAYER1
  6
DASHED
 62
     1
 10
618.839402
 20
938.053261
 11
620.728133
 21
936.164531
  0
LINE
  8
CSLAYER1
  6
DASHED
 62
     1
 10
618.839402
 20
937.770419
 11
620.445290
 21
936.164531
  0
LINE
  8
CSLAYER1
  6
DASHED
 62
     1
 10
618.839402
 20
937.487576
 11
620.162447
 21
936.164531
  0
LINE
  8
CSLAYER1
  6
DASHED
 62
     1
 10
618.839402
 20
937.204733
 11
619.879605
 21
936.164531
  0
LINE
  8
CSLAYER1
  6
DASHED
 62
     1
 10
618.839402
 20
936.921891
 11
619.596762
 21
936.164531
  0
LINE
  8
CSLAYER1
  6
DASHED
 62
     1
 10
618.839402
 20
936.639048
 11
619.313919
 21
936.164531
  0
LINE
  8
CSLAYER1
  6
DASHED
 62
     1
 10
618.839402
 20
936.356205
 11
619.031076
 21
936.164531
  0
LINE
  8
CSLAYER1
  6
DASHED
 62
     1
 10
601.799200
 20
934.814531
 11
602.839402
 21
934.814531
  0
POINT
  8
CSLAYER1
 62
     1
 10
570.839402
 20
957.583759
  0
LINE
  8
CSLAYER1
  6
DASHED
 62
     1
 10
588.739402
 20
944.583759
 11
588.739402
 21
1002.333759
  0
LINE
  8
CSLAYER1
  6
DASHED
 62
     1
 10
590.589402
 20
953.813759
 11
590.589402
 21
961.363485
  0
LINE
  8
CSLAYER1
  6
DASHED
 62
     1
 10
584.364402
 20
944.583759
 11
588.739402
 21
944.583759
  0
LINE
  8
CSLAYER1
  6
DASHED
 62
     1
 10
588.739402
 20
962.363485
 11
589.589402
 21
962.363485
  0
ARC
  8
CSLAYER1
  6
DASHED
 62
     1
 10
589.589402
 20
953.813759
 40
1.000000
 50
270.000000
 51
360.000000
  0
ARC
  8
CSLAYER1
  6
DASHED
 62
     1
 10
589.589402
 20
961.363485
 40
1.000000
 50
0.000000
 51
90.000000
  0
LINE
  8
CSLAYER1
  6
DASHED
 62
     1
 10
557.314402
 20
944.583759
 11
557.314402
 21
1039.833759
  0
LINE
  8
CSLAYER1
  6
DASHED
 62
     1
 10
552.939402
 20
944.583759
 11
552.939402
 21
1002.333759
  0
LINE
  8
CSLAYER1
  6
DASHED
 62
     1
 10
551.089402
 20
953.813759
 11
551.089402
 21
961.363485
  0
LINE
  8
CSLAYER1
  6
DASHED
 62
     1
 10
557.314402
 20
944.583759
 11
552.939402
 21
944.583759
  0
LINE
  8
CSLAYER1
  6
DASHED
 62
     1
 10
552.939402
 20
952.813759
 11
552.089402
 21
952.813759
  0
LINE
  8
CSLAYER1
  6
DASHED
 62
     1
 10
552.939402
 20
962.363485
 11
552.089402
 21
962.363485
  0
ARC
  8
CSLAYER1
  6
DASHED
 62
     1
 10
552.089402
 20
953.813759
 40
1.000000
 50
180.000000
 51
270.000000
  0
ARC
  8
CSLAYER1
  6
DASHED
 62
     1
 10
552.089402
 20
961.363485
 40
1.000000
 50
90.000000
 51
180.000000
  0
LINE
  8
CSLAYER1
  6
DASHED
 62
     1
 10
558.314402
 20
947.583759
 11
562.839402
 21
947.583759
  0
LINE
  8
CSLAYER1
  6
DASHED
 62
     1
 10
557.314402
 20
948.583759
 11
558.314402
 21
947.583759
  0
LINE
  8
CSLAYER1
  6
DASHED
 62
     1
 10
583.364402
 20
947.583759
 11
584.364402
 21
948.583759
  0
LINE
  8
CSLAYER1
  6
DASHED
 62
     1
 10
558.314402
 20
967.583759
 11
562.839402
 21
967.583759
  0
LINE
  8
CSLAYER1
  6
DASHED
 62
     1
 10
557.314402
 20
966.583759
 11
558.314402
 21
967.583759
  0
LINE
  8
CSLAYER1
  6
DASHED
 62
     1
 10
583.364402
 20
967.583759
 11
584.364402
 21
966.583759
  0
LINE
  8
CSLAYER1
  6
DASHED
 62
     1
 10
557.314402
 20
1002.333759
 11
552.939402
 21
1002.333759
  0
LINE
  8
CSLAYER1
  6
DASHED
 62
     1
 10
551.089402
 20
985.563759
 11
551.089402
 21
993.113485
  0
LINE
  8
CSLAYER1
  6
DASHED
 62
     1
 10
552.939402
 20
984.563759
 11
552.089402
 21
984.563759
  0
LINE
  8
CSLAYER1
  6
DASHED
 62
     1
 10
552.939402
 20
994.113485
 11
552.089402
 21
994.113485
  0
ARC
  8
CSLAYER1
  6
DASHED
 62
     1
 10
552.089402
 20
985.563759
 40
1.000000
 50
180.000000
 51
270.000000
  0
ARC
  8
CSLAYER1
  6
DASHED
 62
     1
 10
552.089402
 20
993.113485
 40
1.000000
 50
90.000000
 51
180.000000
  0
LINE
  8
CSLAYER1
  6
DASHED
 62
     1
 10
584.364402
 20
1002.333759
 11
588.739402
 21
1002.333759
  0
LINE
  8
CSLAYER1
  6
DASHED
 62
     1
 10
588.739402
 20
952.813759
 11
589.589402
 21
952.813759
  0
LINE
  8
CSLAYER1
  6
DASHED
 62
     1
 10
590.589402
 20
985.563759
 11
590.589402
 21
993.113485
  0
LINE
  8
CSLAYER1
  6
DASHED
 62
     1
 10
588.739402
 20
984.563759
 11
589.589402
 21
984.563759
  0
LINE
  8
CSLAYER1
  6
DASHED
 62
     1
 10
588.739402
 20
994.113485
 11
589.589402
 21
994.113485
  0
ARC
  8
CSLAYER1
  6
DASHED
 62
     1
 10
589.589402
 20
985.563759
 40
1.000000
 50
270.000000
 51
360.000000
  0
ARC
  8
CSLAYER1
  6
DASHED
 62
     1
 10
589.589402
 20
993.113485
 40
1.000000
 50
0.000000
 51
90.000000
  0
POINT
  8
CSLAYER1
 62
     1
 10
570.839402
 20
989.333759
  0
LINE
  8
CSLAYER1
  6
DASHED
 62
     1
 10
578.839402
 20
979.808759
 11
578.839402
 21
899.763245
  0
LINE
  8
CSLAYER1
  6
DASHED
 62
     1
 10
562.839402
 20
979.808759
 11
562.839402
 21
909.050742
  0
POINT
  8
CSLAYER1
 62
     1
 10
570.839402
 20
1021.083759
  0
LINE
  8
CSLAYER1
  6
DASHED
 62
     1
 10
584.364402
 20
944.583759
 11
584.364402
 21
1039.833759
  0
LINE
  8
CSLAYER1
  6
DASHED
 62
     1
 10
580.364402
 20
1036.133759
 11
580.364402
 21
974.283759
  0
LINE
  8
CSLAYER1
  6
DASHED
 62
     1
 10
580.364402
 20
1036.133759
 11
584.364402
 21
1036.133759
  0
LINE
  8
CSLAYER1
  6
DASHED
 62
     1
 10
579.364402
 20
1011.558759
 11
562.314402
 21
1011.558759
  0
LINE
  8
CSLAYER1
  6
DASHED
 62
     1
 10
579.364402
 20
1030.608759
 11
562.314402
 21
1030.608759
  0
ARC
  8
CSLAYER1
  6
DASHED
 62
     1
 10
579.364402
 20
1012.558759
 40
1.000000
 50
270.000000
 51
360.000000
  0
ARC
  8
CSLAYER1
  6
DASHED
 62
     1
 10
579.364402
 20
1029.608759
 40
1.000000
 50
0.000000
 51
90.000000
  0
LINE
  8
CSLAYER1
  6
DASHED
 62
     1
 10
561.314402
 20
1036.133759
 11
561.314402
 21
974.283759
  0
LINE
  8
CSLAYER1
  6
DASHED
 62
     1
 10
561.314402
 20
1036.133759
 11
557.314402
 21
1036.133759
  0
ARC
  8
CSLAYER1
  6
DASHED
 62
     1
 10
562.314402
 20
1012.558759
 40
1.000000
 50
180.000000
 51
270.000000
  0
ARC
  8
CSLAYER1
  6
DASHED
 62
     1
 10
562.314402
 20
1029.608759
 40
1.000000
 50
90.000000
 51
180.000000
  0
LINE
  8
CSLAYER1
  6
DASHED
 62
     1
 10
590.589402
 20
1017.313759
 11
590.589402
 21
1024.863485
  0
LINE
  8
CSLAYER1
  6
DASHED
 62
     1
 10
584.364402
 20
1008.083759
 11
588.739402
 21
1008.083759
  0
LINE
  8
CSLAYER1
  6
DASHED
 62
     1
 10
588.739402
 20
1016.313759
 11
589.589402
 21
1016.313759
  0
LINE
  8
CSLAYER1
  6
DASHED
 62
     1
 10
588.739402
 20
1025.863485
 11
589.589402
 21
1025.863485
  0
ARC
  8
CSLAYER1
  6
DASHED
 62
     1
 10
589.589402
 20
1017.313759
 40
1.000000
 50
270.000000
 51
360.000000
  0
ARC
  8
CSLAYER1
  6
DASHED
 62
     1
 10
589.589402
 20
1024.863485
 40
1.000000
 50
0.000000
 51
90.000000
  0
LINE
  8
CSLAYER1
  6
DASHED
 62
     1
 10
551.089402
 20
1017.313759
 11
551.089402
 21
1024.863485
  0
LINE
  8
CSLAYER1
  6
DASHED
 62
     1
 10
557.314402
 20
1008.083759
 11
552.939402
 21
1008.083759
  0
LINE
  8
CSLAYER1
  6
DASHED
 62
     1
 10
552.939402
 20
1016.313759
 11
552.089402
 21
1016.313759
  0
LINE
  8
CSLAYER1
  6
DASHED
 62
     1
 10
552.939402
 20
1025.863485
 11
552.089402
 21
1025.863485
  0
ARC
  8
CSLAYER1
  6
DASHED
 62
     1
 10
552.089402
 20
1017.313759
 40
1.000000
 50
180.000000
 51
270.000000
  0
ARC
  8
CSLAYER1
  6
DASHED
 62
     1
 10
552.089402
 20
1024.863485
 40
1.000000
 50
90.000000
 51
180.000000
  0
LINE
  8
CSLAYER1
  6
DASHED
 62
     1
 10
588.739402
 20
1008.083759
 11
588.739402
 21
1065.833759
  0
LINE
  8
CSLAYER1
  6
DASHED
 62
     1
 10
552.939402
 20
1008.083759
 11
552.939402
 21
1065.833759
  0
LINE
  8
CSLAYER1
  6
DASHED
 62
     1
 10
580.364402
 20
974.283759
 11
584.364402
 21
974.283759
  0
LINE
  8
CSLAYER1
  6
DASHED
 62
     1
 10
579.364402
 20
998.858759
 11
562.314402
 21
998.858759
  0
LINE
  8
CSLAYER1
  6
DASHED
 62
     1
 10
579.364402
 20
979.808759
 11
562.314402
 21
979.808759
  0
ARC
  8
CSLAYER1
  6
DASHED
 62
     1
 10
579.364402
 20
997.858759
 40
1.000000
 50
0.000000
 51
90.000000
  0
ARC
  8
CSLAYER1
  6
DASHED
 62
     1
 10
579.364402
 20
980.808759
 40
1.000000
 50
270.000000
 51
360.000000
  0
LINE
  8
CSLAYER1
  6
DASHED
 62
     1
 10
561.314402
 20
974.283759
 11
557.314402
 21
974.283759
  0
ARC
  8
CSLAYER1
  6
DASHED
 62
     1
 10
562.314402
 20
997.858759
 40
1.000000
 50
90.000000
 51
180.000000
  0
ARC
  8
CSLAYER1
  6
DASHED
 62
     1
 10
562.314402
 20
980.808759
 40
1.000000
 50
180.000000
 51
270.000000
  0
LINE
  8
CSLAYER1
  6
DASHED
 62
     1
 10
578.839402
 20
974.583759
 11
562.839402
 21
974.583759
  0
LINE
  8
CSLAYER1
  6
DASHED
 62
     1
 10
578.839402
 20
967.583759
 11
583.364402
 21
967.583759
  0
LINE
  8
CSLAYER1
  6
DASHED
 62
     1
 10
578.839402
 20
947.583759
 11
583.364402
 21
947.583759
  0
LINE
  8
CSLAYER1
  6
DASHED
 62
     1
 10
600.647729
 20
934.814531
 11
580.839402
 21
934.814531
  0
LINE
  8
CSLAYER1
  6
DASHED
 62
     1
 10
579.839402
 20
929.814531
 11
578.839402
 21
929.814531
  0
LINE
  8
CSLAYER1
  6
DASHED
 62
     1
 10
661.839402
 20
929.814531
 11
660.812862
 21
929.814531
  0
LINE
  8
CSLAYER1
  6
DASHED
 62
     1
 10
661.839402
 20
899.814531
 11
660.812862
 21
899.814531
  0
LINE
  8
CSLAYER1
  6
DASHED
 62
     1
 10
602.839402
 20
890.097374
 11
598.122245
 21
894.814531
  0
LINE
  8
CSLAYER1
  6
DASHED
 62
     1
 10
602.839402
 20
890.380217
 11
598.405088
 21
894.814531
  0
LINE
  8
CSLAYER1
  6
DASHED
 62
     1
 10
602.839402
 20
890.663059
 11
598.687931
 21
894.814531
  0
LINE
  8
CSLAYER1
  6
DASHED
 62
     1
 10
602.839402
 20
890.945902
 11
598.970773
 21
894.814531
  0
LINE
  8
CSLAYER1
  6
DASHED
 62
     1
 10
602.839402
 20
891.228745
 11
599.253616
 21
894.814531
  0
LINE
  8
CSLAYER1
  6
DASHED
 62
     1
 10
602.839402
 20
891.511588
 11
599.536459
 21
894.814531
  0
LINE
  8
CSLAYER1
  6
DASHED
 62
     1
 10
602.839402
 20
891.794430
 11
599.819301
 21
894.814531
  0
LINE
  8
CSLAYER1
  6
DASHED
 62
     1
 10
602.839402
 20
892.077273
 11
600.102144
 21
894.814531
  0
LINE
  8
CSLAYER1
  6
DASHED
 62
     1
 10
602.839402
 20
892.360116
 11
600.384987
 21
894.814531
  0
LINE
  8
CSLAYER1
  6
DASHED
 62
     1
 10
602.839402
 20
892.642958
 11
600.667830
 21
894.814531
  0
LINE
  8
CSLAYER1
  6
DASHED
 62
     1
 10
602.839402
 20
892.925801
 11
600.950672
 21
894.814531
  0
LINE
  8
CSLAYER1
  6
DASHED
 62
     1
 10
602.839402
 20
893.208644
 11
601.233515
 21
894.814531
  0
LINE
  8
CSLAYER1
  6
DASHED
 62
     1
 10
602.839402
 20
893.491487
 11
601.516358
 21
894.814531
  0
LINE
  8
CSLAYER1
  6
DASHED
 62
     1
 10
602.839402
 20
893.774329
 11
601.799200
 21
894.814531
  0
LINE
  8
CSLAYER1
  6
DASHED
 62
     1
 10
602.839402
 20
894.057172
 11
602.082043
 21
894.814531
  0
LINE
  8
CSLAYER1
  6
DASHED
 62
     1
 10
602.839402
 20
894.340015
 11
602.364886
 21
894.814531
  0
LINE
  8
CSLAYER1
  6
DASHED
 62
     1
 10
602.839402
 20
894.622857
 11
602.647729
 21
894.814531
  0
LINE
  8
CSLAYER1
  6
DASHED
 62
     1
 10
601.799200
 20
894.814531
 11
602.839402
 21
894.814531
  0
LINE
  8
CSLAYER1
  6
DASHED
 62
     1
 10
600.647729
 20
894.814531
 11
587.364781
 21
894.814531
  0
POINT
  8
CSLAYER1
 62
     1
 10
601.839402
 20
856.908104
  0
LINE
  8
CSLAYER1
  6
DASHED
 62
     1
 10
557.761317
 20
910.435782
 11
433.917488
 21
910.435782
  0
LINE
  8
CSLAYER1
  6
DASHED
 62
     1
 10
601.839402
 20
880.654526
 11
601.839402
 21
833.062815
  0
LINE
  8
CSLAYER1
  6
DASHED
 62
     1
 10
579.839402
 20
835.500518
 11
579.702672
 21
836.441055
  0
LINE
  8
CSLAYER1
  6
DASHED
 62
     1
 10
579.702672
 20
836.441055
 11
579.296636
 21
837.353014
  0
LINE
  8
CSLAYER1
  6
DASHED
 62
     1
 10
579.296636
 20
837.353014
 11
578.633631
 21
838.208686
  0
LINE
  8
CSLAYER1
  6
DASHED
 62
     1
 10
578.633631
 20
838.208686
 11
577.733802
 21
838.982071
  0
LINE
  8
CSLAYER1
  6
DASHED
 62
     1
 10
577.733802
 20
838.982071
 11
576.624491
 21
839.649672
  0
LINE
  8
CSLAYER1
  6
DASHED
 62
     1
 10
576.624491
 20
839.649672
 11
575.339402
 21
840.191202
  0
LINE
  8
CSLAYER1
  6
DASHED
 62
     1
 10
575.339402
 20
840.191202
 11
573.917584
 21
840.590208
  0
LINE
  8
CSLAYER1
  6
DASHED
 62
     1
 10
573.917584
 20
840.590208
 11
572.402236
 21
840.834567
  0
LINE
  8
CSLAYER1
  6
DASHED
 62
     1
 10
572.402236
 20
840.834567
 11
570.839402
 21
840.916853
  0
LINE
  8
CSLAYER1
  6
DASHED
 62
     1
 10
570.839402
 20
840.916853
 11
569.276569
 21
840.834567
  0
LINE
  8
CSLAYER1
  6
DASHED
 62
     1
 10
569.276569
 20
840.834567
 11
567.761221
 21
840.590208
  0
LINE
  8
CSLAYER1
  6
DASHED
 62
     1
 10
567.761221
 20
840.590208
 11
566.339402
 21
840.191202
  0
LINE
  8
CSLAYER1
  6
DASHED
 62
     1
 10
566.339402
 20
840.191202
 11
565.054314
 21
839.649672
  0
LINE
  8
CSLAYER1
  6
DASHED
 62
     1
 10
565.054314
 20
839.649672
 11
563.945003
 21
838.982071
  0
LINE
  8
CSLAYER1
  6
DASHED
 62
     1
 10
563.945003
 20
838.982071
 11
563.045174
 21
838.208686
  0
LINE
  8
CSLAYER1
  6
DASHED
 62
     1
 10
563.045174
 20
838.208686
 11
562.382169
 21
837.353014
  0
LINE
  8
CSLAYER1
  6
DASHED
 62
     1
 10
562.382169
 20
837.353014
 11
561.976133
 21
836.441055
  0
LINE
  8
CSLAYER1
  6
DASHED
 62
     1
 10
561.976133
 20
836.441055
 11
561.839402
 21
835.500518
  0
LINE
  8
CSLAYER1
  6
DASHED
 62
     1
 10
561.839402
 20
835.500518
 11
561.976133
 21
834.559981
  0
LINE
  8
CSLAYER1
  6
DASHED
 62
     1
 10
561.976133
 20
834.559981
 11
562.382169
 21
833.648022
  0
LINE
  8
CSLAYER1
  6
DASHED
 62
     1
 10
562.382169
 20
833.648022
 11
563.045174
 21
832.792351
  0
LINE
  8
CSLAYER1
  6
DASHED
 62
     1
 10
563.045174
 20
832.792351
 11
563.945003
 21
832.018965
  0
LINE
  8
CSLAYER1
  6
DASHED
 62
     1
 10
563.945003
 20
832.018965
 11
565.054314
 21
831.351365
  0
LINE
  8
CSLAYER1
  6
DASHED
 62
     1
 10
565.054314
 20
831.351365
 11
566.339402
 21
830.809834
  0
LINE
  8
CSLAYER1
  6
DASHED
 62
     1
 10
566.339402
 20
830.809834
 11
567.761221
 21
830.410828
  0
LINE
  8
CSLAYER1
  6
DASHED
 62
     1
 10
567.761221
 20
830.410828
 11
569.276569
 21
830.166469
  0
LINE
  8
CSLAYER1
  6
DASHED
 62
     1
 10
569.276569
 20
830.166469
 11
570.839402
 21
830.084183
  0
LINE
  8
CSLAYER1
  6
DASHED
 62
     1
 10
570.839402
 20
830.084183
 11
572.402236
 21
830.166469
  0
LINE
  8
CSLAYER1
  6
DASHED
 62
     1
 10
572.402236
 20
830.166469
 11
573.917584
 21
830.410828
  0
LINE
  8
CSLAYER1
  6
DASHED
 62
     1
 10
573.917584
 20
830.410828
 11
575.339402
 21
830.809834
  0
LINE
  8
CSLAYER1
  6
DASHED
 62
     1
 10
575.339402
 20
830.809834
 11
576.624491
 21
831.351365
  0
LINE
  8
CSLAYER1
  6
DASHED
 62
     1
 10
576.624491
 20
831.351365
 11
577.733802
 21
832.018965
  0
LINE
  8
CSLAYER1
  6
DASHED
 62
     1
 10
577.733802
 20
832.018965
 11
578.633631
 21
832.792351
  0
LINE
  8
CSLAYER1
  6
DASHED
 62
     1
 10
578.633631
 20
832.792351
 11
579.296636
 21
833.648022
  0
LINE
  8
CSLAYER1
  6
DASHED
 62
     1
 10
579.296636
 20
833.648022
 11
579.702672
 21
834.559981
  0
LINE
  8
CSLAYER1
  6
DASHED
 62
     1
 10
579.702672
 20
834.559981
 11
579.839402
 21
835.500518
  0
LINE
  8
CSLAYER1
  6
DASHED
 62
     1
 10
579.839402
 20
840.916853
 11
579.702672
 21
841.857390
  0
LINE
  8
CSLAYER1
  6
DASHED
 62
     1
 10
579.702672
 20
841.857390
 11
579.296636
 21
842.769349
  0
LINE
  8
CSLAYER1
  6
DASHED
 62
     1
 10
579.296636
 20
842.769349
 11
578.633631
 21
843.625021
  0
LINE
  8
CSLAYER1
  6
DASHED
 62
     1
 10
578.633631
 20
843.625021
 11
577.733802
 21
844.398407
  0
LINE
  8
CSLAYER1
  6
DASHED
 62
     1
 10
577.733802
 20
844.398407
 11
576.624491
 21
845.066007
  0
LINE
  8
CSLAYER1
  6
DASHED
 62
     1
 10
576.624491
 20
845.066007
 11
575.339402
 21
845.607537
  0
LINE
  8
CSLAYER1
  6
DASHED
 62
     1
 10
575.339402
 20
845.607537
 11
573.917584
 21
846.006544
  0
LINE
  8
CSLAYER1
  6
DASHED
 62
     1
 10
573.917584
 20
846.006544
 11
572.402236
 21
846.250902
  0
LINE
  8
CSLAYER1
  6
DASHED
 62
     1
 10
572.402236
 20
846.250902
 11
570.839402
 21
846.333189
  0
LINE
  8
CSLAYER1
  6
DASHED
 62
     1
 10
570.839402
 20
846.333189
 11
569.276569
 21
846.250902
  0
LINE
  8
CSLAYER1
  6
DASHED
 62
     1
 10
569.276569
 20
846.250902
 11
567.761221
 21
846.006544
  0
LINE
  8
CSLAYER1
  6
DASHED
 62
     1
 10
567.761221
 20
846.006544
 11
566.339402
 21
845.607537
  0
LINE
  8
CSLAYER1
  6
DASHED
 62
     1
 10
566.339402
 20
845.607537
 11
565.054314
 21
845.066007
  0
LINE
  8
CSLAYER1
  6
DASHED
 62
     1
 10
565.054314
 20
845.066007
 11
563.945003
 21
844.398407
  0
LINE
  8
CSLAYER1
  6
DASHED
 62
     1
 10
563.945003
 20
844.398407
 11
563.045174
 21
843.625021
  0
LINE
  8
CSLAYER1
  6
DASHED
 62
     1
 10
563.045174
 20
843.625021
 11
562.382169
 21
842.769349
  0
LINE
  8
CSLAYER1
  6
DASHED
 62
     1
 10
562.382169
 20
842.769349
 11
561.976133
 21
841.857390
  0
LINE
  8
CSLAYER1
  6
DASHED
 62
     1
 10
561.976133
 20
841.857390
 11
561.839402
 21
840.916853
  0
LINE
  8
CSLAYER1
  6
DASHED
 62
     1
 10
579.839402
 20
840.916853
 11
579.839402
 21
835.028453
  0
LINE
  8
CSLAYER1
  6
DASHED
 62
     1
 10
561.839402
 20
840.916853
 11
561.839402
 21
835.028453
  0
LINE
  8
CSLAYER1
  6
DASHED
 62
     1
 10
560.453329
 20
878.453281
 11
431.225476
 21
878.453281
  0
LINE
  8
CSLAYER1
  6
DASHED
 62
     1
 10
550.839402
 20
803.380426
 11
561.839402
 21
803.380426
  0
LINE
  8
CSLAYER1
  6
DASHED
 62
     1
 10
549.839402
 20
835.362927
 11
549.839402
 21
689.711611
  0
LINE
  8
CSLAYER1
  6
DASHED
 62
     1
 10
555.839402
 20
780.949663
 11
555.839402
 21
680.625532
  0
LINE
  8
CSLAYER1
  6
DASHED
 62
     1
 10
557.839402
 20
671.409596
 11
557.839402
 21
619.438031
  0
LINE
  8
CSLAYER1
  6
DASHED
 62
     1
 10
495.839402
 20
863.020552
 11
500.545813
 21
862.896887
  0
LINE
  8
CSLAYER1
  6
DASHED
 62
     1
 10
505.216404
 20
862.526834
 11
509.815631
 21
861.913209
  0
LINE
  8
CSLAYER1
  6
DASHED
 62
     1
 10
514.308490
 20
861.060682
 11
518.660789
 21
859.975741
  0
LINE
  8
CSLAYER1
  6
DASHED
 62
     1
 10
522.839402
 20
858.666644
 11
526.812530
 21
857.143353
  0
LINE
  8
CSLAYER1
  6
DASHED
 62
     1
 10
530.549933
 20
855.417461
 11
534.023169
 21
853.502104
  0
LINE
  8
CSLAYER1
  6
DASHED
 62
     1
 10
537.205802
 20
851.411859
 11
540.073613
 21
849.162634
  0
LINE
  8
CSLAYER1
  6
DASHED
 62
     1
 10
542.604774
 20
846.771546
 11
544.780023
 21
844.256793
  0
LINE
  8
CSLAYER1
  6
DASHED
 62
     1
 10
546.582804
 20
841.637515
 11
547.999397
 21
838.933645
  0
LINE
  8
CSLAYER1
  6
DASHED
 62
     1
 10
547.999397
 20
838.933645
 11
549.019021
 21
836.165761
  0
LINE
  8
CSLAYER1
  6
DASHED
 62
     1
 10
549.019021
 20
836.165761
 11
549.633916
 21
833.354929
  0
LINE
  8
CSLAYER1
  6
DASHED
 62
     1
 10
549.633916
 20
833.354929
 11
549.839402
 21
830.522540
  0
LINE
  8
CSLAYER1
  6
DASHED
 62
     1
 10
549.839402
 20
830.522540
 11
549.633916
 21
827.690152
  0
LINE
  8
CSLAYER1
  6
DASHED
 62
     1
 10
495.839402
 20
817.058564
 11
501.068747
 21
816.921159
  0
LINE
  8
CSLAYER1
  6
DASHED
 62
     1
 10
506.258293
 20
816.509989
 11
511.368545
 21
815.828183
  0
LINE
  8
CSLAYER1
  6
DASHED
 62
     1
 10
516.360611
 20
814.880931
 11
521.196498
 21
813.675442
  0
LINE
  8
CSLAYER1
  6
DASHED
 62
     1
 10
521.196498
 20
813.675442
 11
525.839402
 21
812.220889
  0
LINE
  8
CSLAYER1
  6
DASHED
 62
     1
 10
525.839402
 20
812.220889
 11
530.253989
 21
810.528343
  0
LINE
  8
CSLAYER1
  6
DASHED
 62
     1
 10
534.406659
 20
808.610686
 11
538.265809
 21
806.482512
  0
LINE
  8
CSLAYER1
  6
DASHED
 62
     1
 10
538.265809
 20
806.482512
 11
541.802069
 21
804.160018
  0
LINE
  8
CSLAYER1
  6
DASHED
 62
     1
 10
544.988525
 20
801.660878
 11
547.800927
 21
799.004114
  0
LINE
  8
CSLAYER1
  6
DASHED
 62
     1
 10
547.800927
 20
799.004114
 11
550.217870
 21
796.209944
  0
LINE
  8
CSLAYER1
  6
DASHED
 62
     1
 10
550.217870
 20
796.209944
 11
552.220960
 21
793.299635
  0
LINE
  8
CSLAYER1
  6
DASHED
 62
     1
 10
552.220960
 20
793.299635
 11
553.794952
 21
790.295334
  0
LINE
  8
CSLAYER1
  6
DASHED
 62
     1
 10
553.794952
 20
790.295334
 11
554.927868
 21
787.219908
  0
LINE
  8
CSLAYER1
  6
DASHED
 62
     1
 10
554.927868
 20
787.219908
 11
555.611084
 21
784.096761
  0
LINE
  8
CSLAYER1
  6
DASHED
 62
     1
 10
555.611084
 20
784.096761
 11
555.839402
 21
780.949663
  0
LINE
  8
CSLAYER1
  6
DASHED
 62
     1
 10
555.839402
 20
780.949663
 11
555.611084
 21
777.802565
  0
LINE
  8
CSLAYER1
  6
DASHED
 62
     1
 10
495.839402
 20
708.722127
 11
501.243059
 21
708.580142
  0
LINE
  8
CSLAYER1
  6
DASHED
 62
     1
 10
506.605590
 20
708.155266
 11
511.886183
 21
707.450733
  0
LINE
  8
CSLAYER1
  6
DASHED
 62
     1
 10
511.886183
 20
707.450733
 11
517.044651
 21
706.471906
  0
LINE
  8
CSLAYER1
  6
DASHED
 62
     1
 10
522.041735
 20
705.226233
 11
526.839402
 21
703.723196
  0
LINE
  8
CSLAYER1
  6
DASHED
 62
     1
 10
526.839402
 20
703.723196
 11
531.401142
 21
701.974232
  0
LINE
  8
CSLAYER1
  6
DASHED
 62
     1
 10
535.692234
 20
699.992653
 11
539.680023
 21
697.793540
  0
LINE
  8
CSLAYER1
  6
DASHED
 62
     1
 10
543.334158
 20
695.393628
 11
546.626829
 21
692.811184
  0
LINE
  8
CSLAYER1
  6
DASHED
 62
     1
 10
546.626829
 20
692.811184
 11
549.532978
 21
690.065861
  0
LINE
  8
CSLAYER1
  6
DASHED
 62
     1
 10
552.030485
 20
687.178553
 11
554.100345
 21
684.171233
  0
LINE
  8
CSLAYER1
  6
DASHED
 62
     1
 10
554.100345
 20
684.171233
 11
555.726804
 21
681.066789
  0
LINE
  8
CSLAYER1
  6
DASHED
 62
     1
 10
556.897483
 20
677.888849
 11
557.603474
 21
674.661597
  0
LINE
  8
CSLAYER1
  6
DASHED
 62
     1
 10
557.603474
 20
674.661597
 11
557.839402
 21
671.409596
  0
LINE
  8
CSLAYER1
  6
DASHED
 62
     1
 10
495.839402
 20
656.750562
 11
501.243059
 21
656.608577
  0
LINE
  8
CSLAYER1
  6
DASHED
 62
     1
 10
501.243059
 20
656.608577
 11
506.605590
 21
656.183701
  0
LINE
  8
CSLAYER1
  6
DASHED
 62
     1
 10
511.886183
 20
655.479168
 11
517.044651
 21
654.500341
  0
LINE
  8
CSLAYER1
  6
DASHED
 62
     1
 10
522.041735
 20
653.254668
 11
526.839402
 21
651.751631
  0
LINE
  8
CSLAYER1
  6
DASHED
 62
     1
 10
531.401142
 20
650.002667
 11
535.692234
 21
648.021088
  0
LINE
  8
CSLAYER1
  6
DASHED
 62
     1
 10
539.680023
 20
645.821975
 11
543.334158
 21
643.422064
  0
LINE
  8
CSLAYER1
  6
DASHED
 62
     1
 10
543.334158
 20
643.422064
 11
546.626829
 21
640.839619
  0
LINE
  8
CSLAYER1
  6
DASHED
 62
     1
 10
549.532978
 20
638.094296
 11
552.030485
 21
635.206988
  0
LINE
  8
CSLAYER1
  6
DASHED
 62
     1
 10
552.030485
 20
635.206988
 11
554.100345
 21
632.199668
  0
LINE
  8
CSLAYER1
  6
DASHED
 62
     1
 10
555.726804
 20
629.095224
 11
556.897483
 21
625.917284
  0
LINE
  8
CSLAYER1
  6
DASHED
 62
     1
 10
556.897483
 20
625.917284
 11
557.603474
 21
622.690032
  0
LINE
  8
CSLAYER1
  6
DASHED
 62
     1
 10
557.603474
 20
622.690032
 11
557.839402
 21
619.438031
  0
LINE
  8
CSLAYER1
  6
DASHED
 62
     1
 10
557.839402
 20
619.438031
 11
557.603474
 21
616.186029
  0
LINE
  8
CSLAYER1
  6
DASHED
 62
     1
 10
557.603474
 20
616.186029
 11
556.897483
 21
612.958778
  0
LINE
  8
CSLAYER1
  6
DASHED
 62
     1
 10
555.726804
 20
609.780837
 11
554.100345
 21
606.676393
  0
LINE
  8
CSLAYER1
  6
DASHED
 62
     1
 10
552.030485
 20
603.669073
 11
549.532978
 21
600.781765
  0
LINE
  8
CSLAYER1
  6
DASHED
 62
     1
 10
546.626829
 20
598.036442
 11
543.334158
 21
595.453998
  0
LINE
  8
CSLAYER1
  6
DASHED
 62
     1
 10
539.680023
 20
593.054087
 11
535.692234
 21
590.854973
  0
LINE
  8
CSLAYER1
  6
DASHED
 62
     1
 10
531.401142
 20
588.873394
 11
526.839402
 21
587.124431
  0
LINE
  8
CSLAYER1
  6
DASHED
 62
     1
 10
517.044651
 20
584.375720
 11
511.886183
 21
583.396893
  0
LINE
  8
CSLAYER1
  6
DASHED
 62
     1
 10
506.605590
 20
582.692360
 11
501.243059
 21
582.267485
  0
LINE
  8
CSLAYER1
  6
DASHED
 62
     1
 10
501.243059
 20
582.267485
 11
495.839402
 21
582.125499
  0
LINE
  8
CSLAYER1
  6
DASHED
 62
     1
 10
550.839402
 20
868.633205
 11
550.839402
 21
795.306913
  0
LINE
  8
CSLAYER1
  6
DASHED
 62
     1
 10
545.839402
 20
873.633205
 11
445.839402
 21
873.633205
  0
LINE
  8
CSLAYER1
  6
DASHED
 62
     1
 10
545.839402
 20
865.300339
 11
445.839402
 21
865.300339
  0
ARC
  8
CSLAYER1
  6
DASHED
 62
     1
 10
545.839402
 20
868.633205
 40
5.000000
 50
0.000000
 51
90.000000
  0
ARC
  8
CSLAYER1
  6
DASHED
 62
     1
 10
545.839402
 20
860.300339
 40
5.000000
 50
0.000000
 51
90.000000
  0
LINE
  8
CSLAYER1
  6
DASHED
 62
     1
 10
561.709982
 20
737.096530
 11
577.268819
 21
737.096530
  0
LINE
  8
CSLAYER1
  6
DASHED
 62
     1
 10
569.339402
 20
728.411040
 11
569.339402
 21
746.234729
  0
LINE
  8
CSLAYER1
  6
DASHED
 62
     1
 10
559.804832
 20
667.096530
 11
577.839402
 21
667.096530
  0
LINE
  8
CSLAYER1
  6
DASHED
 62
     1
 10
559.804832
 20
748.596530
 11
577.839402
 21
748.596530
  0
LINE
  8
CSLAYER1
  6
DASHED
 62
     1
 10
580.839402
 20
745.596530
 11
580.839402
 21
652.195318
  0
LINE
  8
CSLAYER1
  6
DASHED
 62
     1
 10
559.804832
 20
649.195318
 11
559.804832
 21
748.596530
  0
LINE
  8
CSLAYER1
  6
DASHED
 62
     1
 10
555.839402
 20
682.606075
 11
559.804832
 21
682.606075
  0
CIRCLE
  8
CSLAYER1
  6
DASHED
 62
     1
 10
569.339402
 20
737.096530
 40
6.250000
  0
LINE
  8
CSLAYER1
  6
DASHED
 62
     1
 10
555.839402
 20
709.586986
 11
559.804832
 21
709.586986
  0
ARC
  8
CSLAYER1
  6
DASHED
 62
     1
 10
577.839402
 20
670.096530
 40
3.000000
 50
270.000000
 51
360.000000
  0
ARC
  8
CSLAYER1
  6
DASHED
 62
     1
 10
577.839402
 20
745.596530
 40
3.000000
 50
0.000000
 51
90.000000
  0
LINE
  8
CSLAYER1
  6
DASHED
 62
     1
 10
547.839402
 20
691.665714
 11
547.839402
 21
798.967767
  0
LINE
  8
CSLAYER1
  6
DASHED
 62
     1
 10
527.839402
 20
703.339797
 11
527.839402
 21
811.454092
  0
LINE
  8
CSLAYER1
  6
DASHED
 62
     1
 10
520.839402
 20
705.525951
 11
520.839402
 21
813.787314
  0
LINE
  8
CSLAYER1
  6
DASHED
 62
     1
 10
512.839402
 20
707.269858
 11
512.839402
 21
815.631943
  0
LINE
  8
CSLAYER1
  6
DASHED
 62
     1
 10
559.804832
 20
649.195318
 11
577.839402
 21
649.195318
  0
ARC
  8
CSLAYER1
  6
DASHED
 62
     1
 10
577.839402
 20
652.195318
 40
3.000000
 50
270.000000
 51
360.000000
  0
LINE
  8
CSLAYER1
  6
DASHED
 62
     1
 10
441.839402
 20
835.362927
 11
441.839402
 21
689.711611
  0
LINE
  8
CSLAYER1
  6
DASHED
 62
     1
 10
435.839402
 20
780.949663
 11
435.839402
 21
680.625532
  0
LINE
  8
CSLAYER1
  6
DASHED
 62
     1
 10
433.839402
 20
671.409596
 11
433.839402
 21
619.438031
  0
LINE
  8
CSLAYER1
  6
DASHED
 62
     1
 10
495.839402
 20
863.020552
 11
491.132992
 21
862.896887
  0
LINE
  8
CSLAYER1
  6
DASHED
 62
     1
 10
491.132992
 20
862.896887
 11
486.462401
 21
862.526834
  0
LINE
  8
CSLAYER1
  6
DASHED
 62
     1
 10
481.863174
 20
861.913209
 11
477.370315
 21
861.060682
  0
LINE
  8
CSLAYER1
  6
DASHED
 62
     1
 10
473.018016
 20
859.975741
 11
468.839402
 21
858.666644
  0
LINE
  8
CSLAYER1
  6
DASHED
 62
     1
 10
464.866275
 20
857.143353
 11
461.128872
 21
855.417461
  0
LINE
  8
CSLAYER1
  6
DASHED
 62
     1
 10
457.655636
 20
853.502104
 11
454.473003
 21
851.411859
  0
LINE
  8
CSLAYER1
  6
DASHED
 62
     1
 10
451.605192
 20
849.162634
 11
449.074031
 21
846.771546
  0
LINE
  8
CSLAYER1
  6
DASHED
 62
     1
 10
446.898782
 20
844.256793
 11
445.096001
 21
841.637515
  0
LINE
  8
CSLAYER1
  6
DASHED
 62
     1
 10
443.679408
 20
838.933645
 11
442.659784
 21
836.165761
  0
LINE
  8
CSLAYER1
  6
DASHED
 62
     1
 10
442.659784
 20
836.165761
 11
442.044889
 21
833.354929
  0
LINE
  8
CSLAYER1
  6
DASHED
 62
     1
 10
442.044889
 20
833.354929
 11
441.839402
 21
830.522540
  0
LINE
  8
CSLAYER1
  6
DASHED
 62
     1
 10
441.839402
 20
830.522540
 11
442.044889
 21
827.690152
  0
LINE
  8
CSLAYER1
  6
DASHED
 62
     1
 10
495.839402
 20
817.058564
 11
490.610058
 21
816.921159
  0
LINE
  8
CSLAYER1
  6
DASHED
 62
     1
 10
485.420512
 20
816.509989
 11
480.310260
 21
815.828183
  0
LINE
  8
CSLAYER1
  6
DASHED
 62
     1
 10
480.310260
 20
815.828183
 11
475.318194
 21
814.880931
  0
LINE
  8
CSLAYER1
  6
DASHED
 62
     1
 10
470.482307
 20
813.675442
 11
465.839402
 21
812.220889
  0
LINE
  8
CSLAYER1
  6
DASHED
 62
     1
 10
461.424816
 20
810.528343
 11
457.272146
 21
808.610686
  0
LINE
  8
CSLAYER1
  6
DASHED
 62
     1
 10
453.412996
 20
806.482512
 11
449.876736
 21
804.160018
  0
LINE
  8
CSLAYER1
  6
DASHED
 62
     1
 10
446.690280
 20
801.660878
 11
443.877878
 21
799.004114
  0
LINE
  8
CSLAYER1
  6
DASHED
 62
     1
 10
443.877878
 20
799.004114
 11
441.460935
 21
796.209944
  0
LINE
  8
CSLAYER1
  6
DASHED
 62
     1
 10
441.460935
 20
796.209944
 11
439.457845
 21
793.299635
  0
LINE
  8
CSLAYER1
  6
DASHED
 62
     1
 10
439.457845
 20
793.299635
 11
437.883853
 21
790.295334
  0
LINE
  8
CSLAYER1
  6
DASHED
 62
     1
 10
437.883853
 20
790.295334
 11
436.750937
 21
787.219908
  0
LINE
  8
CSLAYER1
  6
DASHED
 62
     1
 10
436.750937
 20
787.219908
 11
436.067721
 21
784.096761
  0
LINE
  8
CSLAYER1
  6
DASHED
 62
     1
 10
436.067721
 20
784.096761
 11
435.839402
 21
780.949663
  0
LINE
  8
CSLAYER1
  6
DASHED
 62
     1
 10
435.839402
 20
780.949663
 11
436.067721
 21
777.802565
  0
LINE
  8
CSLAYER1
  6
DASHED
 62
     1
 10
495.839402
 20
708.722127
 11
490.435746
 21
708.580142
  0
LINE
  8
CSLAYER1
  6
DASHED
 62
     1
 10
490.435746
 20
708.580142
 11
485.073215
 21
708.155266
  0
LINE
  8
CSLAYER1
  6
DASHED
 62
     1
 10
479.792622
 20
707.450733
 11
474.634154
 21
706.471906
  0
LINE
  8
CSLAYER1
  6
DASHED
 62
     1
 10
469.637070
 20
705.226233
 11
464.839402
 21
703.723196
  0
LINE
  8
CSLAYER1
  6
DASHED
 62
     1
 10
460.277663
 20
701.974232
 11
455.986571
 21
699.992653
  0
LINE
  8
CSLAYER1
  6
DASHED
 62
     1
 10
455.986571
 20
699.992653
 11
451.998782
 21
697.793540
  0
LINE
  8
CSLAYER1
  6
DASHED
 62
     1
 10
448.344647
 20
695.393628
 11
445.051976
 21
692.811184
  0
LINE
  8
CSLAYER1
  6
DASHED
 62
     1
 10
442.145827
 20
690.065861
 11
439.648320
 21
687.178553
  0
LINE
  8
CSLAYER1
  6
DASHED
 62
     1
 10
439.648320
 20
687.178553
 11
437.578460
 21
684.171233
  0
LINE
  8
CSLAYER1
  6
DASHED
 62
     1
 10
435.952001
 20
681.066789
 11
434.781322
 21
677.888849
  0
LINE
  8
CSLAYER1
  6
DASHED
 62
     1
 10
434.781322
 20
677.888849
 11
434.075331
 21
674.661597
  0
LINE
  8
CSLAYER1
  6
DASHED
 62
     1
 10
434.075331
 20
674.661597
 11
433.839402
 21
671.409596
  0
LINE
  8
CSLAYER1
  6
DASHED
 62
     1
 10
495.839402
 20
656.750562
 11
490.435746
 21
656.608577
  0
LINE
  8
CSLAYER1
  6
DASHED
 62
     1
 10
485.073215
 20
656.183701
 11
479.792622
 21
655.479168
  0
LINE
  8
CSLAYER1
  6
DASHED
 62
     1
 10
474.634154
 20
654.500341
 11
469.637070
 21
653.254668
  0
LINE
  8
CSLAYER1
  6
DASHED
 62
     1
 10
464.839402
 20
651.751631
 11
460.277663
 21
650.002667
  0
LINE
  8
CSLAYER1
  6
DASHED
 62
     1
 10
455.986571
 20
648.021088
 11
451.998782
 21
645.821975
  0
LINE
  8
CSLAYER1
  6
DASHED
 62
     1
 10
448.344647
 20
643.422064
 11
445.051976
 21
640.839619
  0
LINE
  8
CSLAYER1
  6
DASHED
 62
     1
 10
442.145827
 20
638.094296
 11
439.648320
 21
635.206988
  0
LINE
  8
CSLAYER1
  6
DASHED
 62
     1
 10
437.578460
 20
632.199668
 11
435.952001
 21
629.095224
  0
LINE
  8
CSLAYER1
  6
DASHED
 62
     1
 10
434.781322
 20
625.917284
 11
434.075331
 21
622.690032
  0
LINE
  8
CSLAYER1
  6
DASHED
 62
     1
 10
433.839402
 20
619.438031
 11
434.075331
 21
616.186029
  0
LINE
  8
CSLAYER1
  6
DASHED
 62
     1
 10
434.075331
 20
616.186029
 11
434.781322
 21
612.958778
  0
LINE
  8
CSLAYER1
  6
DASHED
 62
     1
 10
435.952001
 20
609.780837
 11
437.578460
 21
606.676393
  0
LINE
  8
CSLAYER1
  6
DASHED
 62
     1
 10
439.648320
 20
603.669073
 11
442.145827
 21
600.781765
  0
LINE
  8
CSLAYER1
  6
DASHED
 62
     1
 10
445.051976
 20
598.036442
 11
448.344647
 21
595.453998
  0
LINE
  8
CSLAYER1
  6
DASHED
 62
     1
 10
451.998782
 20
593.054087
 11
455.986571
 21
590.854973
  0
LINE
  8
CSLAYER1
  6
DASHED
 62
     1
 10
460.277663
 20
588.873394
 11
464.839402
 21
587.124431
  0
LINE
  8
CSLAYER1
  6
DASHED
 62
     1
 10
469.637070
 20
585.621393
 11
474.634154
 21
584.375720
  0
LINE
  8
CSLAYER1
  6
DASHED
 62
     1
 10
479.792622
 20
583.396893
 11
485.073215
 21
582.692360
  0
LINE
  8
CSLAYER1
  6
DASHED
 62
     1
 10
490.435746
 20
582.267485
 11
495.839402
 21
582.125499
  0
LINE
  8
CSLAYER1
  6
DASHED
 62
     1
 10
440.839402
 20
868.633205
 11
440.839402
 21
795.306913
  0
ARC
  8
CSLAYER1
  6
DASHED
 62
     1
 10
445.839402
 20
868.633205
 40
5.000000
 50
90.000000
 51
180.000000
  0
ARC
  8
CSLAYER1
  6
DASHED
 62
     1
 10
445.839402
 20
860.300339
 40
5.000000
 50
90.000000
 51
180.000000
  0
LINE
  8
CSLAYER1
  6
DASHED
 62
     1
 10
443.839402
 20
691.665714
 11
443.839402
 21
798.967767
  0
LINE
  8
CSLAYER1
  6
DASHED
 62
     1
 10
463.839402
 20
703.339797
 11
463.839402
 21
811.454092
  0
LINE
  8
CSLAYER1
  6
DASHED
 62
     1
 10
470.839402
 20
705.525951
 11
470.839402
 21
813.787314
  0
LINE
  8
CSLAYER1
  6
DASHED
 62
     1
 10
478.839402
 20
707.269858
 11
478.839402
 21
815.631943
  0
LINE
  8
CSLAYER1
  6
DASHED
 62
     1
 10
562.781530
 20
909.084335
 11
596.859615
 21
889.303079
  0
LINE
  8
CSLAYER1
  6
DASHED
 62
     1
 10
560.453329
 20
878.453281
 11
596.859615
 21
857.320577
  0
LINE
  8
CSLAYER1
  6
DASHED
 62
     1
 10
561.839402
 20
803.380426
 11
596.988034
 21
824.490090
  0
ARC
  8
CSLAYER1
  6
DASHED
 62
     1
 10
557.761317
 20
900.435782
 40
10.000000
 50
59.866183
 51
90.000000
  0
ARC
  8
CSLAYER1
  6
DASHED
 62
     1
 10
591.839402
 20
880.654526
 40
10.000000
 50
0.000000
 51
59.866183
  0
ARC
  8
CSLAYER1
  6
DASHED
 62
     1
 10
591.839402
 20
833.062815
 40
10.000000
 50
-59.011695
 51
0.000000
  0
ARC
  8
CSLAYER1
  6
DASHED
 62
     1
 10
591.839402
 20
848.672024
 40
10.000000
 50
0.000000
 51
59.866183
  0
POINT
  8
CSLAYER1
 62
     1
 10
420.839402
 20
1217.280323
  0
LINE
  8
CSLAYER1
  6
DASHED
 62
     1
 10
412.339402
 20
1242.280325
 11
412.339402
 21
1282.863015
  0
LINE
  8
CSLAYER1
  6
DASHED
 62
     1
 10
410.839402
 20
1234.280325
 11
410.839402
 21
1282.863015
  0
LINE
  8
CSLAYER1
  6
DASHED
 62
     1
 10
410.839402
 20
1242.280325
 11
430.839402
 21
1242.280325
  0
LINE
  8
CSLAYER1
  6
DASHED
 62
     1
 10
412.339402
 20
1242.280325
 11
410.839402
 21
1239.682249
  0
LINE
  8
CSLAYER1
  6
DASHED
 62
     1
 10
429.339402
 20
1242.280325
 11
429.339402
 21
1282.863015
  0
LINE
  8
CSLAYER1
  6
DASHED
 62
     1
 10
429.339402
 20
1242.280325
 11
430.839402
 21
1239.682249
  0
LINE
  8
CSLAYER1
  6
DASHED
 62
     1
 10
430.839402
 20
1234.280325
 11
430.839402
 21
1282.863015
  0
LINE
  8
CSLAYER1
  6
DASHED
 62
     1
 10
433.364402
 20
1232.280323
 11
408.314402
 21
1232.280323
  0
POINT
  8
CSLAYER1
 62
     1
 10
420.839402
 20
1185.530323
  0
LINE
  8
CSLAYER1
  6
DASHED
 62
     1
 10
407.314402
 20
1231.280323
 11
407.314402
 21
1138.730323
  0
LINE
  8
CSLAYER1
  6
DASHED
 62
     1
 10
411.314402
 20
1200.580323
 11
411.314402
 21
1138.730323
  0
LINE
  8
CSLAYER1
  6
DASHED
 62
     1
 10
411.314402
 20
1200.580323
 11
407.314402
 21
1200.580323
  0
LINE
  8
CSLAYER1
  6
DASHED
 62
     1
 10
412.314402
 20
1176.005323
 11
429.364402
 21
1176.005323
  0
LINE
  8
CSLAYER1
  6
DASHED
 62
     1
 10
412.314402
 20
1195.055323
 11
429.364402
 21
1195.055323
  0
ARC
  8
CSLAYER1
  6
DASHED
 62
     1
 10
412.314402
 20
1177.005323
 40
1.000000
 50
180.000000
 51
270.000000
  0
ARC
  8
CSLAYER1
  6
DASHED
 62
     1
 10
412.314402
 20
1194.055323
 40
1.000000
 50
90.000000
 51
180.000000
  0
LINE
  8
CSLAYER1
  6
DASHED
 62
     1
 10
434.364402
 20
1231.280323
 11
434.364402
 21
1138.030323
  0
LINE
  8
CSLAYER1
  6
DASHED
 62
     1
 10
430.364402
 20
1200.580323
 11
430.364402
 21
1138.730323
  0
LINE
  8
CSLAYER1
  6
DASHED
 62
     1
 10
430.364402
 20
1200.580323
 11
434.364402
 21
1200.580323
  0
ARC
  8
CSLAYER1
  6
DASHED
 62
     1
 10
429.364402
 20
1177.005323
 40
1.000000
 50
270.000000
 51
360.000000
  0
ARC
  8
CSLAYER1
  6
DASHED
 62
     1
 10
429.364402
 20
1194.055323
 40
1.000000
 50
0.000000
 51
90.000000
  0
LINE
  8
CSLAYER1
  6
DASHED
 62
     1
 10
401.089402
 20
1181.760323
 11
401.089402
 21
1189.310050
  0
LINE
  8
CSLAYER1
  6
DASHED
 62
     1
 10
407.314402
 20
1172.530323
 11
402.939402
 21
1172.530323
  0
LINE
  8
CSLAYER1
  6
DASHED
 62
     1
 10
407.314402
 20
1230.280323
 11
402.939402
 21
1230.280323
  0
LINE
  8
CSLAYER1
  6
DASHED
 62
     1
 10
402.939402
 20
1180.760323
 11
402.089402
 21
1180.760323
  0
LINE
  8
CSLAYER1
  6
DASHED
 62
     1
 10
402.939402
 20
1190.310050
 11
402.089402
 21
1190.310050
  0
ARC
  8
CSLAYER1
  6
DASHED
 62
     1
 10
402.089402
 20
1181.760323
 40
1.000000
 50
180.000000
 51
270.000000
  0
ARC
  8
CSLAYER1
  6
DASHED
 62
     1
 10
402.089402
 20
1189.310050
 40
1.000000
 50
90.000000
 51
180.000000
  0
LINE
  8
CSLAYER1
  6
DASHED
 62
     1
 10
401.089402
 20
1213.510323
 11
401.089402
 21
1221.060050
  0
LINE
  8
CSLAYER1
  6
DASHED
 62
     1
 10
402.939402
 20
1212.510323
 11
402.089402
 21
1212.510323
  0
LINE
  8
CSLAYER1
  6
DASHED
 62
     1
 10
402.939402
 20
1222.060050
 11
402.089402
 21
1222.060050
  0
ARC
  8
CSLAYER1
  6
DASHED
 62
     1
 10
402.089402
 20
1213.510323
 40
1.000000
 50
180.000000
 51
270.000000
  0
ARC
  8
CSLAYER1
  6
DASHED
 62
     1
 10
402.089402
 20
1221.060050
 40
1.000000
 50
90.000000
 51
180.000000
  0
LINE
  8
CSLAYER1
  6
DASHED
 62
     1
 10
440.589402
 20
1181.760323
 11
440.589402
 21
1189.310050
  0
LINE
  8
CSLAYER1
  6
DASHED
 62
     1
 10
434.364402
 20
1172.530323
 11
438.739402
 21
1172.530323
  0
LINE
  8
CSLAYER1
  6
DASHED
 62
     1
 10
434.364402
 20
1230.280323
 11
438.739402
 21
1230.280323
  0
LINE
  8
CSLAYER1
  6
DASHED
 62
     1
 10
438.739402
 20
1180.760323
 11
439.589402
 21
1180.760323
  0
LINE
  8
CSLAYER1
  6
DASHED
 62
     1
 10
438.739402
 20
1190.310050
 11
439.589402
 21
1190.310050
  0
ARC
  8
CSLAYER1
  6
DASHED
 62
     1
 10
439.589402
 20
1181.760323
 40
1.000000
 50
270.000000
 51
360.000000
  0
ARC
  8
CSLAYER1
  6
DASHED
 62
     1
 10
439.589402
 20
1189.310050
 40
1.000000
 50
0.000000
 51
90.000000
  0
LINE
  8
CSLAYER1
  6
DASHED
 62
     1
 10
443.689402
 20
1213.510323
 11
443.689402
 21
1221.060050
  0
LINE
  8
CSLAYER1
  6
DASHED
 62
     1
 10
438.739402
 20
1212.510323
 11
442.689402
 21
1212.510323
  0
LINE
  8
CSLAYER1
  6
DASHED
 62
     1
 10
438.739402
 20
1222.060050
 11
442.689402
 21
1222.060050
  0
ARC
  8
CSLAYER1
  6
DASHED
 62
     1
 10
442.689402
 20
1213.510323
 40
1.000000
 50
270.000000
 51
360.000000
  0
ARC
  8
CSLAYER1
  6
DASHED
 62
     1
 10
442.689402
 20
1221.060050
 40
1.000000
 50
0.000000
 51
90.000000
  0
LINE
  8
CSLAYER1
  6
DASHED
 62
     1
 10
434.364402
 20
1222.060050
 11
407.314402
 21
1222.060050
  0
LINE
  8
CSLAYER1
  6
DASHED
 62
     1
 10
434.364402
 20
1212.510323
 11
407.314402
 21
1212.510323
  0
LINE
  8
CSLAYER1
  6
DASHED
 62
     1
 10
432.364402
 20
1202.280323
 11
409.314402
 21
1202.280323
  0
ARC
  8
CSLAYER1
  6
DASHED
 62
     1
 10
409.314402
 20
1204.280323
 40
2.000000
 50
180.000000
 51
270.000000
  0
ARC
  8
CSLAYER1
  6
DASHED
 62
     1
 10
432.364402
 20
1204.280323
 40
2.000000
 50
270.000000
 51
360.000000
  0
ARC
  8
CSLAYER1
  6
DASHED
 62
     1
 10
432.839402
 20
1234.280323
 40
2.000000
 50
180.000000
 51
270.000000
  0
ARC
  8
CSLAYER1
  6
DASHED
 62
     1
 10
408.839402
 20
1234.280323
 40
2.000000
 50
270.000000
 51
360.000000
  0
ARC
  8
CSLAYER1
  6
DASHED
 62
     1
 10
433.364402
 20
1231.280323
 40
1.000000
 50
0.000000
 51
90.000000
  0
ARC
  8
CSLAYER1
  6
DASHED
 62
     1
 10
408.314402
 20
1231.280323
 40
1.000000
 50
90.000000
 51
180.000000
  0
POINT
  8
CSLAYER1
 62
     1
 10
420.839402
 20
1232.280323
  0
LINE
  8
CSLAYER1
  6
DASHED
 62
     1
 10
402.939402
 20
1172.530323
 11
402.939402
 21
1230.280323
  0
LINE
  8
CSLAYER1
  6
DASHED
 62
     1
 10
438.739402
 20
1172.530323
 11
438.739402
 21
1230.280323
  0
POINT
  8
CSLAYER1
 62
     1
 10
420.839402
 20
1153.780323
  0
LINE
  8
CSLAYER1
  6
DASHED
 62
     1
 10
411.314402
 20
1138.730323
 11
407.314402
 21
1138.730323
  0
LINE
  8
CSLAYER1
  6
DASHED
 62
     1
 10
412.314402
 20
1163.305323
 11
429.364402
 21
1163.305323
  0
LINE
  8
CSLAYER1
  6
DASHED
 62
     1
 10
412.314402
 20
1144.255323
 11
429.364402
 21
1144.255323
  0
ARC
  8
CSLAYER1
  6
DASHED
 62
     1
 10
412.314402
 20
1162.305323
 40
1.000000
 50
90.000000
 51
180.000000
  0
ARC
  8
CSLAYER1
  6
DASHED
 62
     1
 10
412.314402
 20
1145.255323
 40
1.000000
 50
180.000000
 51
270.000000
  0
LINE
  8
CSLAYER1
  6
DASHED
 62
     1
 10
430.364402
 20
1138.730323
 11
434.364402
 21
1138.730323
  0
ARC
  8
CSLAYER1
  6
DASHED
 62
     1
 10
429.364402
 20
1162.305323
 40
1.000000
 50
0.000000
 51
90.000000
  0
ARC
  8
CSLAYER1
  6
DASHED
 62
     1
 10
429.364402
 20
1145.255323
 40
1.000000
 50
270.000000
 51
360.000000
  0
LINE
  8
CSLAYER1
  6
DASHED
 62
     1
 10
401.089402
 20
1157.550323
 11
401.089402
 21
1150.000597
  0
LINE
  8
CSLAYER1
  6
DASHED
 62
     1
 10
407.314402
 20
1166.780323
 11
402.939402
 21
1166.780323
  0
LINE
  8
CSLAYER1
  6
DASHED
 62
     1
 10
402.939402
 20
1158.550323
 11
402.089402
 21
1158.550323
  0
LINE
  8
CSLAYER1
  6
DASHED
 62
     1
 10
402.939402
 20
1149.000597
 11
402.089402
 21
1149.000597
  0
ARC
  8
CSLAYER1
  6
DASHED
 62
     1
 10
402.089402
 20
1157.550323
 40
1.000000
 50
90.000000
 51
180.000000
  0
ARC
  8
CSLAYER1
  6
DASHED
 62
     1
 10
402.089402
 20
1150.000597
 40
1.000000
 50
180.000000
 51
270.000000
  0
LINE
  8
CSLAYER1
  6
DASHED
 62
     1
 10
440.589402
 20
1157.550323
 11
440.589402
 21
1150.000597
  0
LINE
  8
CSLAYER1
  6
DASHED
 62
     1
 10
434.364402
 20
1166.780323
 11
438.739402
 21
1166.780323
  0
LINE
  8
CSLAYER1
  6
DASHED
 62
     1
 10
438.739402
 20
1158.550323
 11
439.589402
 21
1158.550323
  0
LINE
  8
CSLAYER1
  6
DASHED
 62
     1
 10
438.739402
 20
1149.000597
 11
439.589402
 21
1149.000597
  0
ARC
  8
CSLAYER1
  6
DASHED
 62
     1
 10
439.589402
 20
1157.550323
 40
1.000000
 50
0.000000
 51
90.000000
  0
ARC
  8
CSLAYER1
  6
DASHED
 62
     1
 10
439.589402
 20
1150.000597
 40
1.000000
 50
270.000000
 51
360.000000
  0
LINE
  8
CSLAYER1
  6
DASHED
 62
     1
 10
438.739402
 20
1166.780323
 11
438.739402
 21
1109.030323
  0
LINE
  8
CSLAYER1
  6
DASHED
 62
     1
 10
402.939402
 20
1166.780323
 11
402.939402
 21
1109.030323
  0
LINE
  8
CSLAYER1
  6
DASHED
 62
     1
 10
388.839402
 20
567.641722
 11
388.839402
 21
1371.187340
  0
LINE
  8
CSLAYER1
  6
DASHED
 62
     1
 10
372.839402
 20
567.641722
 11
372.839402
 21
1371.187340
  0
LINE
  8
CSLAYER1
  6
DASHED
 62
     1
 10
451.289402
 20
1150.347555
 11
451.289402
 21
910.435782
  0
LINE
  8
CSLAYER1
  6
DASHED
 62
     1
 10
465.589402
 20
1274.613015
 11
465.589402
 21
1168.593396
  0
LINE
  8
CSLAYER1
  6
DASHED
 62
     1
 10
451.289402
 20
1150.347555
 11
451.458929
 21
1152.462273
  0
LINE
  8
CSLAYER1
  6
DASHED
 62
     1
 10
451.458929
 20
1152.462273
 11
451.966217
 21
1154.560897
  0
LINE
  8
CSLAYER1
  6
DASHED
 62
     1
 10
451.966217
 20
1154.560897
 11
452.807407
 21
1156.627455
  0
LINE
  8
CSLAYER1
  6
DASHED
 62
     1
 10
452.807407
 20
1156.627455
 11
453.976096
 21
1158.646219
  0
LINE
  8
CSLAYER1
  6
DASHED
 62
     1
 10
453.976096
 20
1158.646219
 11
455.463391
 21
1160.601825
  0
LINE
  8
CSLAYER1
  6
DASHED
 62
     1
 10
455.463391
 20
1160.601825
 11
457.257971
 21
1162.479390
  0
LINE
  8
CSLAYER1
  6
DASHED
 62
     1
 10
459.346179
 20
1164.264624
 11
461.712123
 21
1165.943941
  0
LINE
  8
CSLAYER1
  6
DASHED
 62
     1
 10
461.712123
 20
1165.943941
 11
464.337795
 21
1167.504560
  0
LINE
  8
CSLAYER1
  6
DASHED
 62
     1
 10
464.337795
 20
1167.504560
 11
467.203214
 21
1168.934604
  0
LINE
  8
CSLAYER1
  6
DASHED
 62
     1
 10
467.203214
 20
1168.934604
 11
470.286572
 21
1170.223189
  0
LINE
  8
CSLAYER1
  6
DASHED
 62
     1
 10
473.564402
 20
1171.360509
 11
477.011759
 21
1172.337907
  0
LINE
  8
CSLAYER1
  6
DASHED
 62
     1
 10
477.011759
 20
1172.337907
 11
480.602405
 21
1173.147946
  0
LINE
  8
CSLAYER1
  6
DASHED
 62
     1
 10
484.309014
 20
1173.784460
 11
488.103376
 21
1174.242604
  0
LINE
  8
CSLAYER1
  6
DASHED
 62
     1
 10
491.956614
 20
1174.518893
 11
495.839402
 21
1174.611224
  0
LINE
  8
CSLAYER1
  6
DASHED
 62
     1
 10
329.839402
 20
795.127547
 11
372.839402
 21
795.127547
  0
LINE
  8
CSLAYER1
  6
DASHED
 62
     1
 10
329.839402
 20
715.714290
 11
372.839402
 21
715.714290
  0
LINE
  8
CSLAYER1
  6
DASHED
 62
     1
 10
372.839402
 20
810.321161
 11
329.839402
 21
810.321161
  0
LINE
  8
CSLAYER1
  6
DASHED
 62
     1
 10
388.839402
 20
795.127547
 11
440.715950
 21
795.127547
  0
LINE
  8
CSLAYER1
  6
DASHED
 62
     1
 10
388.839402
 20
715.714290
 11
435.839402
 21
715.714290
  0
LINE
  8
CSLAYER1
  6
DASHED
 62
     1
 10
418.282736
 20
810.321161
 11
388.839402
 21
810.321161
  0
LINE
  8
CSLAYER1
  6
DASHED
 62
     1
 10
313.839402
 20
1280.987340
 11
313.839402
 21
914.814531
  0
LINE
  8
CSLAYER1
  6
DASHED
 62
     1
 10
329.839402
 20
1280.987340
 11
329.839402
 21
567.641722
  0
LINE
  8
CSLAYER1
  6
DASHED
 62
     1
 10
370.839402
 20
872.908104
 11
370.839402
 21
840.908104
  0
LINE
  8
CSLAYER1
  6
DASHED
 62
     1
 10
360.839402
 20
870.908104
 11
360.839402
 21
842.908104
  0
LINE
  8
CSLAYER1
  6
DASHED
 62
     1
 10
362.839402
 20
872.908104
 11
370.839402
 21
872.908104
  0
LINE
  8
CSLAYER1
  6
DASHED
 62
     1
 10
360.839402
 20
870.908104
 11
362.839402
 21
872.908104
  0
LINE
  8
CSLAYER1
  6
DASHED
 62
     1
 10
362.839402
 20
872.908104
 11
362.839402
 21
840.908104
  0
LINE
  8
CSLAYER1
  6
DASHED
 62
     1
 10
362.839402
 20
840.908104
 11
370.839402
 21
840.908104
  0
LINE
  8
CSLAYER1
  6
DASHED
 62
     1
 10
360.839402
 20
842.908104
 11
362.839402
 21
840.908104
  0
LINE
  8
CSLAYER1
  6
DASHED
 62
     1
 10
370.839402
 20
870.908104
 11
372.839402
 21
870.908104
  0
LINE
  8
CSLAYER1
  6
DASHED
 62
     1
 10
370.839402
 20
842.908104
 11
372.839402
 21
842.908104
  0
LINE
  8
CSLAYER1
  6
DASHED
 62
     1
 10
363.839402
 20
1345.987340
 11
338.839402
 21
1345.987340
  0
LINE
  8
CSLAYER1
  6
DASHED
 62
     1
 10
338.839402
 20
1320.987340
 11
366.339402
 21
1320.987340
  0
LINE
  8
CSLAYER1
  6
DASHED
 62
     1
 10
338.839402
 20
1371.187340
 11
338.839402
 21
1320.987340
  0
LINE
  8
CSLAYER1
  6
DASHED
 62
     1
 10
363.839402
 20
1320.987340
 11
363.839402
 21
1371.187340
  0
LINE
  8
CSLAYER1
  6
DASHED
 62
     1
 10
348.339402
 20
1371.187340
 11
348.339402
 21
1345.987340
  0
LINE
  8
CSLAYER1
  6
DASHED
 62
     1
 10
354.339402
 20
1371.187340
 11
354.339402
 21
1345.987340
  0
LINE
  8
CSLAYER1
  6
DASHED
 62
     1
 10
367.339402
 20
1319.987340
 11
367.339402
 21
1279.987340
  0
LINE
  8
CSLAYER1
  6
DASHED
 62
     1
 10
340.839402
 20
1311.538983
 11
340.839402
 21
1288.435698
  0
LINE
  8
CSLAYER1
  6
DASHED
 62
     1
 10
339.689402
 20
1311.538983
 11
339.689402
 21
1288.435698
  0
LINE
  8
CSLAYER1
  6
DASHED
 62
     1
 10
338.839402
 20
1307.487340
 11
339.689402
 21
1307.487340
  0
LINE
  8
CSLAYER1
  6
DASHED
 62
     1
 10
339.689402
 20
1311.538983
 11
340.839402
 21
1311.538983
  0
LINE
  8
CSLAYER1
  6
DASHED
 62
     1
 10
340.839402
 20
1307.487340
 11
341.339402
 21
1307.487340
  0
LINE
  8
CSLAYER1
  6
DASHED
 62
     1
 10
341.339402
 20
1319.987340
 11
341.339402
 21
1279.987340
  0
ARC
  8
CSLAYER1
  6
DASHED
 62
     1
 10
366.339402
 20
1319.987340
 40
1.000000
 50
0.000000
 51
90.000000
  0
ARC
  8
CSLAYER1
  6
DASHED
 62
     1
 10
342.339402
 20
1319.987340
 40
1.000000
 50
90.000000
 51
180.000000
  0
ARC
  8
CSLAYER1
  6
DASHED
 62
     1
 10
353.339402
 20
1319.987340
 40
1.000000
 50
0.000000
 51
90.000000
  0
ARC
  8
CSLAYER1
  6
DASHED
 62
     1
 10
355.339402
 20
1319.987340
 40
1.000000
 50
90.000000
 51
180.000000
  0
LINE
  8
CSLAYER1
  6
DASHED
 62
     1
 10
338.339402
 20
1371.187340
 11
338.339402
 21
1280.987340
  0
LINE
  8
CSLAYER1
  6
DASHED
 62
     1
 10
342.339402
 20
1278.987340
 11
353.339402
 21
1278.987340
  0
LINE
  8
CSLAYER1
  6
DASHED
 62
     1
 10
338.839402
 20
1292.487340
 11
339.689402
 21
1292.487340
  0
LINE
  8
CSLAYER1
  6
DASHED
 62
     1
 10
339.689402
 20
1288.435698
 11
340.839402
 21
1288.435698
  0
LINE
  8
CSLAYER1
  6
DASHED
 62
     1
 10
340.839402
 20
1292.487340
 11
341.339402
 21
1292.487340
  0
ARC
  8
CSLAYER1
  6
DASHED
 62
     1
 10
366.339402
 20
1279.987340
 40
1.000000
 50
270.000000
 51
360.000000
  0
ARC
  8
CSLAYER1
  6
DASHED
 62
     1
 10
342.339402
 20
1279.987340
 40
1.000000
 50
180.000000
 51
270.000000
  0
ARC
  8
CSLAYER1
  6
DASHED
 62
     1
 10
353.339402
 20
1279.987340
 40
1.000000
 50
270.000000
 51
360.000000
  0
ARC
  8
CSLAYER1
  6
DASHED
 62
     1
 10
355.339402
 20
1279.987340
 40
1.000000
 50
180.000000
 51
270.000000
  0
LINE
  8
CSLAYER1
  6
DASHED
 62
     1
 10
366.339402
 20
1278.987340
 11
355.339402
 21
1278.987340
  0
LINE
  8
CSLAYER1
  6
DASHED
 62
     1
 10
367.339402
 20
1299.987340
 11
368.339402
 21
1299.987340
  0
LINE
  8
CSLAYER1
  6
DASHED
 62
     1
 10
367.839402
 20
1309.987340
 11
367.339402
 21
1309.487340
  0
LINE
  8
CSLAYER1
  6
DASHED
 62
     1
 10
367.839402
 20
1289.987340
 11
367.339402
 21
1290.487340
  0
LINE
  8
CSLAYER1
  6
DASHED
 62
     1
 10
465.589402
 20
1274.613015
 11
441.339402
 21
1274.613015
  0
LINE
  8
CSLAYER1
  6
DASHED
 62
     1
 10
394.839402
 20
1282.863015
 11
439.339402
 21
1282.863015
  0
LINE
  8
CSLAYER1
  6
DASHED
 62
     1
 10
394.839402
 20
1326.863015
 11
439.339402
 21
1326.863015
  0
LINE
  8
CSLAYER1
  6
DASHED
 62
     1
 10
439.339402
 20
1333.113015
 11
439.339402
 21
1276.613015
  0
LINE
  8
CSLAYER1
  6
DASHED
 62
     1
 10
439.339402
 20
1333.113015
 11
441.339402
 21
1335.113015
  0
LINE
  8
CSLAYER1
  6
DASHED
 62
     1
 10
439.339402
 20
1276.613015
 11
441.339402
 21
1274.613015
  0
LINE
  8
CSLAYER1
  6
DASHED
 62
     1
 10
394.839402
 20
1326.863015
 11
389.839402
 21
1321.863015
  0
LINE
  8
CSLAYER1
  6
DASHED
 62
     1
 10
394.839402
 20
1326.863015
 11
394.839402
 21
1282.863015
  0
LINE
  8
CSLAYER1
  6
DASHED
 62
     1
 10
394.839402
 20
1282.863015
 11
389.839402
 21
1287.863015
  0
LINE
  8
CSLAYER1
  6
DASHED
 62
     1
 10
405.839402
 20
1345.063015
 11
435.839402
 21
1345.063015
  0
LINE
  8
CSLAYER1
  6
DASHED
 62
     1
 10
403.518894
 20
1330.063015
 11
403.518894
 21
1343.723269
  0
LINE
  8
CSLAYER1
  6
DASHED
 62
     1
 10
412.179148
 20
1330.063015
 11
412.179148
 21
1343.723269
  0
LINE
  8
CSLAYER1
  6
DASHED
 62
     1
 10
405.839402
 20
1345.063015
 11
403.518894
 21
1343.723269
  0
ARC
  8
CSLAYER1
  6
DASHED
 62
     1
 10
407.849021
 20
1337.408397
 40
7.656867
 50
55.561448
 51
124.438552
  0
ARC
  8
CSLAYER1
  6
DASHED
 62
     1
 10
420.839402
 20
1316.402761
 40
28.660254
 50
72.412046
 51
107.587954
  0
LINE
  8
CSLAYER1
  6
DASHED
 62
     1
 10
439.339402
 20
1330.063015
 11
402.339402
 21
1330.063015
  0
LINE
  8
CSLAYER1
  6
DASHED
 62
     1
 10
407.839402
 20
1347.563015
 11
433.839402
 21
1347.563015
  0
LINE
  8
CSLAYER1
  6
DASHED
 62
     1
 10
405.839402
 20
1345.063015
 11
405.839402
 21
1345.563015
  0
ARC
  8
CSLAYER1
  6
DASHED
 62
     1
 10
407.839402
 20
1345.563015
 40
2.000000
 50
90.000000
 51
180.000000
  0
LINE
  8
CSLAYER1
  6
DASHED
 62
     1
 10
438.159911
 20
1330.063015
 11
438.159911
 21
1343.723269
  0
LINE
  8
CSLAYER1
  6
DASHED
 62
     1
 10
429.499657
 20
1330.063015
 11
429.499657
 21
1343.723269
  0
LINE
  8
CSLAYER1
  6
DASHED
 62
     1
 10
435.839402
 20
1345.063015
 11
438.159911
 21
1343.723269
  0
ARC
  8
CSLAYER1
  6
DASHED
 62
     1
 10
433.829784
 20
1337.408397
 40
7.656867
 50
55.561448
 51
124.438552
  0
LINE
  8
CSLAYER1
  6
DASHED
 62
     1
 10
435.839402
 20
1345.063015
 11
435.839402
 21
1345.563015
  0
ARC
  8
CSLAYER1
  6
DASHED
 62
     1
 10
433.839402
 20
1345.563015
 40
2.000000
 50
0.000000
 51
90.000000
  0
LINE
  8
CSLAYER1
  6
DASHED
 62
     1
 10
410.839402
 20
1347.563015
 11
410.839402
 21
1349.502480
  0
LINE
  8
CSLAYER1
  6
DASHED
 62
     1
 10
412.339402
 20
1347.563015
 11
412.339402
 21
1349.502480
  0
LINE
  8
CSLAYER1
  6
DASHED
 62
     1
 10
402.339402
 20
1326.863015
 11
402.339402
 21
1330.063015
  0
LINE
  8
CSLAYER1
  6
DASHED
 62
     1
 10
430.839402
 20
1347.563015
 11
430.839402
 21
1349.502480
  0
LINE
  8
CSLAYER1
  6
DASHED
 62
     1
 10
429.339402
 20
1347.563015
 11
429.339402
 21
1349.502480
  0
LINE
  8
CSLAYER1
  6
DASHED
 62
     1
 10
441.339402
 20
1335.113015
 11
441.339402
 21
1274.613015
  0
LINE
  8
CSLAYER1
  6
DASHED
 62
     1
 10
493.202941
 20
1291.025652
 11
490.586545
 21
1290.838049
  0
LINE
  8
CSLAYER1
  6
DASHED
 62
     1
 10
490.586545
 20
1290.838049
 11
488.010126
 21
1290.526963
  0
LINE
  8
CSLAYER1
  6
DASHED
 62
     1
 10
488.010126
 20
1290.526963
 11
485.493293
 21
1290.094762
  0
LINE
  8
CSLAYER1
  6
DASHED
 62
     1
 10
483.055200
 20
1289.544736
 11
480.714402
 21
1288.881070
  0
LINE
  8
CSLAYER1
  6
DASHED
 62
     1
 10
478.488715
 20
1288.108816
 11
476.395077
 21
1287.233851
  0
LINE
  8
CSLAYER1
  6
DASHED
 62
     1
 10
476.395077
 20
1287.233851
 11
474.449422
 21
1286.262833
  0
LINE
  8
CSLAYER1
  6
DASHED
 62
     1
 10
472.666558
 20
1285.203154
 11
471.060053
 21
1284.062877
  0
LINE
  8
CSLAYER1
  6
DASHED
 62
     1
 10
469.642134
 20
1282.850681
 11
468.423592
 21
1281.575791
  0
LINE
  8
CSLAYER1
  6
DASHED
 62
     1
 10
468.423592
 20
1281.575791
 11
467.413701
 21
1280.247910
  0
LINE
  8
CSLAYER1
  6
DASHED
 62
     1
 10
466.620146
 20
1278.877145
 11
466.048968
 21
1277.473926
  0
LINE
  8
CSLAYER1
  6
DASHED
 62
     1
 10
466.048968
 20
1277.473926
 11
465.704513
 21
1276.048935
  0
LINE
  8
CSLAYER1
  6
DASHED
 62
     1
 10
465.704513
 20
1276.048935
 11
465.589402
 21
1274.613015
  0
LINE
  8
CSLAYER1
  6
DASHED
 62
     1
 10
363.839402
 20
1371.187340
 11
372.839402
 21
1371.187340
  0
LINE
  8
CSLAYER1
  6
DASHED
 62
     1
 10
367.839402
 20
1309.987340
 11
368.839402
 21
1309.987340
  0
LINE
  8
CSLAYER1
  6
DASHED
 62
     1
 10
367.839402
 20
1289.987340
 11
371.489402
 21
1289.987340
  0
LINE
  8
CSLAYER1
  6
DASHED
 62
     1
 10
389.839402
 20
1334.763015
 11
389.839402
 21
1274.963015
  0
ARC
  8
CSLAYER1
  6
DASHED
 62
     1
 10
388.739402
 20
1334.763015
 40
1.100000
 50
0.000000
 51
84.784091
  0
ARC
  8
CSLAYER1
  6
DASHED
 62
     1
 10
388.739402
 20
1274.963015
 40
1.100000
 50
275.215909
 51
360.000000
  0
LINE
  8
CSLAYER1
  6
DASHED
 62
     1
 10
370.339402
 20
1317.363015
 11
371.489402
 21
1317.363015
  0
LINE
  8
CSLAYER1
  6
DASHED
 62
     1
 10
371.489402
 20
1319.913015
 11
372.839402
 21
1319.913015
  0
LINE
  8
CSLAYER1
  6
DASHED
 62
     1
 10
371.489402
 20
1319.913015
 11
371.489402
 21
1289.813015
  0
LINE
  8
CSLAYER1
  6
DASHED
 62
     1
 10
368.839402
 20
1315.863015
 11
368.839402
 21
1293.863015
  0
LINE
  8
CSLAYER1
  6
DASHED
 62
     1
 10
368.839402
 20
1315.863015
 11
370.339402
 21
1317.363015
  0
LINE
  8
CSLAYER1
  6
DASHED
 62
     1
 10
370.339402
 20
1317.363015
 11
370.339402
 21
1292.363015
  0
LINE
  8
CSLAYER1
  6
DASHED
 62
     1
 10
370.339402
 20
1292.363015
 11
371.489402
 21
1292.363015
  0
LINE
  8
CSLAYER1
  6
DASHED
 62
     1
 10
371.489402
 20
1289.813015
 11
372.839402
 21
1289.813015
  0
LINE
  8
CSLAYER1
  6
DASHED
 62
     1
 10
368.839402
 20
1293.863015
 11
370.339402
 21
1292.363015
  0
LINE
  8
CSLAYER1
  6
DASHED
 62
     1
 10
354.339402
 20
1319.987340
 11
354.339402
 21
1279.987340
  0
LINE
  8
CSLAYER1
  6
DASHED
 62
     1
 10
294.139402
 20
1322.987340
 11
294.139402
 21
1291.987340
  0
LINE
  8
CSLAYER1
  6
DASHED
 62
     1
 10
297.339402
 20
1371.187340
 11
297.339402
 21
1280.987340
  0
LINE
  8
CSLAYER1
  6
DASHED
 62
     1
 10
338.339402
 20
1280.987340
 11
297.339402
 21
1280.987340
  0
LINE
  8
CSLAYER1
  6
DASHED
 62
     1
 10
294.139402
 20
1322.987340
 11
297.339402
 21
1322.987340
  0
LINE
  8
CSLAYER1
  6
DASHED
 62
     1
 10
339.339402
 20
1292.987340
 11
339.339402
 21
1306.987340
  0
LINE
  8
CSLAYER1
  6
DASHED
 62
     1
 10
339.339402
 20
1292.987340
 11
338.339402
 21
1291.987340
  0
LINE
  8
CSLAYER1
  6
DASHED
 62
     1
 10
294.139402
 20
1291.987340
 11
297.339402
 21
1291.987340
  0
LINE
  8
CSLAYER1
  6
DASHED
 62
     1
 10
339.339402
 20
1306.987340
 11
338.339402
 21
1307.987340
  0
LINE
  8
CSLAYER1
  6
DASHED
 62
     1
 10
294.139402
 20
1295.987340
 11
297.339402
 21
1295.987340
  0
LINE
  8
CSLAYER1
  6
DASHED
 62
     1
 10
294.139402
 20
1303.987340
 11
297.339402
 21
1303.987340
  0
LINE
  8
CSLAYER1
  6
DASHED
 62
     1
 10
434.839402
 20
910.435782
 11
434.839402
 21
927.814531
  0
LINE
  8
CSLAYER1
  6
DASHED
 62
     1
 10
433.839402
 20
910.435782
 11
433.839402
 21
928.814531
  0
LINE
  8
CSLAYER1
  6
DASHED
 62
     1
 10
428.839402
 20
928.814531
 11
431.865943
 21
928.814531
  0
LINE
  8
CSLAYER1
  6
DASHED
 62
     1
 10
434.839402
 20
927.814531
 11
433.839402
 21
928.814531
  0
LINE
  8
CSLAYER1
  6
DASHED
 62
     1
 10
411.839402
 20
933.814531
 11
410.839402
 21
934.814531
  0
LINE
  8
CSLAYER1
  6
DASHED
 62
     1
 10
433.839402
 20
928.814531
 11
428.773144
 21
933.799212
  0
LINE
  8
CSLAYER1
  6
DASHED
 62
     1
 10
428.839402
 20
933.734021
 11
433.758892
 21
928.814531
  0
LINE
  8
CSLAYER1
  6
DASHED
 62
     1
 10
428.839402
 20
933.451178
 11
433.476050
 21
928.814531
  0
LINE
  8
CSLAYER1
  6
DASHED
 62
     1
 10
428.839402
 20
933.168336
 11
433.193207
 21
928.814531
  0
LINE
  8
CSLAYER1
  6
DASHED
 62
     1
 10
428.839402
 20
932.885493
 11
432.910364
 21
928.814531
  0
LINE
  8
CSLAYER1
  6
DASHED
 62
     1
 10
428.839402
 20
932.602650
 11
432.627521
 21
928.814531
  0
LINE
  8
CSLAYER1
  6
DASHED
 62
     1
 10
428.839402
 20
932.319807
 11
432.344679
 21
928.814531
  0
LINE
  8
CSLAYER1
  6
DASHED
 62
     1
 10
428.839402
 20
932.036965
 11
432.061836
 21
928.814531
  0
LINE
  8
CSLAYER1
  6
DASHED
 62
     1
 10
428.839402
 20
931.754122
 11
431.778993
 21
928.814531
  0
LINE
  8
CSLAYER1
  6
DASHED
 62
     1
 10
428.839402
 20
931.471279
 11
431.496151
 21
928.814531
  0
LINE
  8
CSLAYER1
  6
DASHED
 62
     1
 10
428.839402
 20
931.188437
 11
431.213308
 21
928.814531
  0
LINE
  8
CSLAYER1
  6
DASHED
 62
     1
 10
428.839402
 20
930.905594
 11
430.930465
 21
928.814531
  0
LINE
  8
CSLAYER1
  6
DASHED
 62
     1
 10
428.839402
 20
930.622751
 11
430.647622
 21
928.814531
  0
LINE
  8
CSLAYER1
  6
DASHED
 62
     1
 10
428.839402
 20
930.339908
 11
430.364780
 21
928.814531
  0
LINE
  8
CSLAYER1
  6
DASHED
 62
     1
 10
428.839402
 20
930.057066
 11
430.081937
 21
928.814531
  0
LINE
  8
CSLAYER1
  6
DASHED
 62
     1
 10
428.839402
 20
929.774223
 11
429.799094
 21
928.814531
  0
LINE
  8
CSLAYER1
  6
DASHED
 62
     1
 10
428.839402
 20
929.491380
 11
429.516252
 21
928.814531
  0
LINE
  8
CSLAYER1
  6
DASHED
 62
     1
 10
428.839402
 20
929.208538
 11
429.233409
 21
928.814531
  0
LINE
  8
CSLAYER1
  6
DASHED
 62
     1
 10
428.839402
 20
928.925695
 11
428.950566
 21
928.814531
  0
LINE
  8
CSLAYER1
  6
DASHED
 62
     1
 10
331.865943
 20
893.464531
 11
372.839402
 21
893.464531
  0
LINE
  8
CSLAYER1
  6
DASHED
 62
     1
 10
411.839402
 20
933.814531
 11
411.839402
 21
899.182777
  0
LINE
  8
CSLAYER1
  6
DASHED
 62
     1
 10
330.865943
 20
935.164531
 11
330.865943
 21
894.464531
  0
LINE
  8
CSLAYER1
  6
DASHED
 62
     1
 10
330.865943
 20
894.464531
 11
331.865943
 21
893.464531
  0
LINE
  8
CSLAYER1
  6
DASHED
 62
     1
 10
290.865943
 20
924.814531
 11
290.865943
 21
904.814531
  0
LINE
  8
CSLAYER1
  6
DASHED
 62
     1
 10
309.865943
 20
933.314531
 11
309.865943
 21
896.314531
  0
LINE
  8
CSLAYER1
  6
DASHED
 62
     1
 10
304.765943
 20
931.814531
 11
304.765943
 21
897.814531
  0
LINE
  8
CSLAYER1
  6
DASHED
 62
     1
 10
292.765943
 20
931.814531
 11
292.765943
 21
897.814531
  0
LINE
  8
CSLAYER1
  6
DASHED
 62
     1
 10
309.865943
 20
931.814531
 11
292.765943
 21
931.814531
  0
LINE
  8
CSLAYER1
  6
DASHED
 62
     1
 10
304.765943
 20
924.814531
 11
290.865943
 21
924.814531
  0
LINE
  8
CSLAYER1
  6
DASHED
 62
     1
 10
309.865943
 20
897.814531
 11
292.765943
 21
897.814531
  0
LINE
  8
CSLAYER1
  6
DASHED
 62
     1
 10
304.765943
 20
904.814531
 11
290.865943
 21
904.814531
  0
LINE
  8
CSLAYER1
  6
DASHED
 62
     1
 10
312.865943
 20
933.314531
 11
309.865943
 21
933.314531
  0
LINE
  8
CSLAYER1
  6
DASHED
 62
     1
 10
312.865943
 20
896.314531
 11
309.865943
 21
896.314531
  0
LINE
  8
CSLAYER1
  6
DASHED
 62
     1
 10
312.865943
 20
896.314531
 11
312.865943
 21
933.314531
  0
LINE
  8
CSLAYER1
  6
DASHED
 62
     1
 10
312.865943
 20
902.314531
 11
313.839402
 21
902.314531
  0
LINE
  8
CSLAYER1
  6
DASHED
 62
     1
 10
331.865943
 20
936.164531
 11
372.839402
 21
936.164531
  0
LINE
  8
CSLAYER1
  6
DASHED
 62
     1
 10
330.865943
 20
935.164531
 11
331.865943
 21
936.164531
  0
LINE
  8
CSLAYER1
  6
DASHED
 62
     1
 10
312.865943
 20
927.314531
 11
313.839402
 21
927.314531
  0
LINE
  8
CSLAYER1
  6
DASHED
 62
     1
 10
313.865943
 20
914.814531
 11
313.865943
 21
567.641722
  0
LINE
  8
CSLAYER1
  6
DASHED
 62
     1
 10
367.839402
 20
893.464531
 11
372.839402
 21
888.464531
  0
LINE
  8
CSLAYER1
  6
DASHED
 62
     1
 10
372.839402
 20
888.747374
 11
368.122245
 21
893.464531
  0
LINE
  8
CSLAYER1
  6
DASHED
 62
     1
 10
372.839402
 20
889.030217
 11
368.405088
 21
893.464531
  0
LINE
  8
CSLAYER1
  6
DASHED
 62
     1
 10
372.839402
 20
889.313059
 11
368.687931
 21
893.464531
  0
LINE
  8
CSLAYER1
  6
DASHED
 62
     1
 10
372.839402
 20
889.595902
 11
368.970773
 21
893.464531
  0
LINE
  8
CSLAYER1
  6
DASHED
 62
     1
 10
372.839402
 20
889.878745
 11
369.253616
 21
893.464531
  0
LINE
  8
CSLAYER1
  6
DASHED
 62
     1
 10
372.839402
 20
890.161588
 11
369.536459
 21
893.464531
  0
LINE
  8
CSLAYER1
  6
DASHED
 62
     1
 10
372.839402
 20
890.444430
 11
369.819301
 21
893.464531
  0
LINE
  8
CSLAYER1
  6
DASHED
 62
     1
 10
372.839402
 20
890.727273
 11
370.102144
 21
893.464531
  0
LINE
  8
CSLAYER1
  6
DASHED
 62
     1
 10
372.839402
 20
891.010116
 11
370.384987
 21
893.464531
  0
LINE
  8
CSLAYER1
  6
DASHED
 62
     1
 10
372.839402
 20
891.292958
 11
370.667830
 21
893.464531
  0
LINE
  8
CSLAYER1
  6
DASHED
 62
     1
 10
372.839402
 20
891.575801
 11
370.950672
 21
893.464531
  0
LINE
  8
CSLAYER1
  6
DASHED
 62
     1
 10
372.839402
 20
891.858644
 11
371.233515
 21
893.464531
  0
LINE
  8
CSLAYER1
  6
DASHED
 62
     1
 10
372.839402
 20
892.141487
 11
371.516358
 21
893.464531
  0
LINE
  8
CSLAYER1
  6
DASHED
 62
     1
 10
372.839402
 20
892.424329
 11
371.799200
 21
893.464531
  0
LINE
  8
CSLAYER1
  6
DASHED
 62
     1
 10
372.839402
 20
892.707172
 11
372.082043
 21
893.464531
  0
LINE
  8
CSLAYER1
  6
DASHED
 62
     1
 10
372.839402
 20
892.990015
 11
372.364886
 21
893.464531
  0
LINE
  8
CSLAYER1
  6
DASHED
 62
     1
 10
372.839402
 20
893.272857
 11
372.647729
 21
893.464531
  0
LINE
  8
CSLAYER1
  6
DASHED
 62
     1
 10
388.839402
 20
939.531689
 11
393.556560
 21
934.814531
  0
LINE
  8
CSLAYER1
  6
DASHED
 62
     1
 10
388.839402
 20
939.248846
 11
393.273717
 21
934.814531
  0
LINE
  8
CSLAYER1
  6
DASHED
 62
     1
 10
388.839402
 20
938.966003
 11
392.990874
 21
934.814531
  0
LINE
  8
CSLAYER1
  6
DASHED
 62
     1
 10
388.839402
 20
938.683160
 11
392.708032
 21
934.814531
  0
LINE
  8
CSLAYER1
  6
DASHED
 62
     1
 10
388.839402
 20
938.400318
 11
392.425189
 21
934.814531
  0
LINE
  8
CSLAYER1
  6
DASHED
 62
     1
 10
388.839402
 20
938.117475
 11
392.142346
 21
934.814531
  0
LINE
  8
CSLAYER1
  6
DASHED
 62
     1
 10
388.839402
 20
937.834632
 11
391.859504
 21
934.814531
  0
LINE
  8
CSLAYER1
  6
DASHED
 62
     1
 10
388.839402
 20
937.551790
 11
391.576661
 21
934.814531
  0
LINE
  8
CSLAYER1
  6
DASHED
 62
     1
 10
388.839402
 20
937.268947
 11
391.293818
 21
934.814531
  0
LINE
  8
CSLAYER1
  6
DASHED
 62
     1
 10
388.839402
 20
936.986104
 11
391.010975
 21
934.814531
  0
LINE
  8
CSLAYER1
  6
DASHED
 62
     1
 10
388.839402
 20
936.703261
 11
390.728133
 21
934.814531
  0
LINE
  8
CSLAYER1
  6
DASHED
 62
     1
 10
388.839402
 20
936.420419
 11
390.445290
 21
934.814531
  0
LINE
  8
CSLAYER1
  6
DASHED
 62
     1
 10
388.839402
 20
936.137576
 11
390.162447
 21
934.814531
  0
LINE
  8
CSLAYER1
  6
DASHED
 62
     1
 10
388.839402
 20
935.854733
 11
389.879605
 21
934.814531
  0
LINE
  8
CSLAYER1
  6
DASHED
 62
     1
 10
388.839402
 20
935.571891
 11
389.596762
 21
934.814531
  0
LINE
  8
CSLAYER1
  6
DASHED
 62
     1
 10
388.839402
 20
935.289048
 11
389.313919
 21
934.814531
  0
LINE
  8
CSLAYER1
  6
DASHED
 62
     1
 10
388.839402
 20
935.006205
 11
389.031076
 21
934.814531
  0
LINE
  8
CSLAYER1
  6
DASHED
 62
     1
 10
367.839402
 20
936.164531
 11
372.839402
 21
941.164531
  0
LINE
  8
CSLAYER1
  6
DASHED
 62
     1
 10
372.839402
 20
940.881689
 11
368.122245
 21
936.164531
  0
LINE
  8
CSLAYER1
  6
DASHED
 62
     1
 10
372.839402
 20
940.598846
 11
368.405088
 21
936.164531
  0
LINE
  8
CSLAYER1
  6
DASHED
 62
     1
 10
372.839402
 20
940.316003
 11
368.687931
 21
936.164531
  0
LINE
  8
CSLAYER1
  6
DASHED
 62
     1
 10
372.839402
 20
940.033160
 11
368.970773
 21
936.164531
  0
LINE
  8
CSLAYER1
  6
DASHED
 62
     1
 10
372.839402
 20
939.750318
 11
369.253616
 21
936.164531
  0
LINE
  8
CSLAYER1
  6
DASHED
 62
     1
 10
372.839402
 20
939.467475
 11
369.536459
 21
936.164531
  0
LINE
  8
CSLAYER1
  6
DASHED
 62
     1
 10
372.839402
 20
939.184632
 11
369.819301
 21
936.164531
  0
LINE
  8
CSLAYER1
  6
DASHED
 62
     1
 10
372.839402
 20
938.901790
 11
370.102144
 21
936.164531
  0
LINE
  8
CSLAYER1
  6
DASHED
 62
     1
 10
372.839402
 20
938.618947
 11
370.384987
 21
936.164531
  0
LINE
  8
CSLAYER1
  6
DASHED
 62
     1
 10
372.839402
 20
938.336104
 11
370.667830
 21
936.164531
  0
LINE
  8
CSLAYER1
  6
DASHED
 62
     1
 10
372.839402
 20
938.053261
 11
370.950672
 21
936.164531
  0
LINE
  8
CSLAYER1
  6
DASHED
 62
     1
 10
372.839402
 20
937.770419
 11
371.233515
 21
936.164531
  0
LINE
  8
CSLAYER1
  6
DASHED
 62
     1
 10
372.839402
 20
937.487576
 11
371.516358
 21
936.164531
  0
LINE
  8
CSLAYER1
  6
DASHED
 62
     1
 10
372.839402
 20
937.204733
 11
371.799200
 21
936.164531
  0
LINE
  8
CSLAYER1
  6
DASHED
 62
     1
 10
372.839402
 20
936.921891
 11
372.082043
 21
936.164531
  0
LINE
  8
CSLAYER1
  6
DASHED
 62
     1
 10
372.839402
 20
936.639048
 11
372.364886
 21
936.164531
  0
LINE
  8
CSLAYER1
  6
DASHED
 62
     1
 10
372.839402
 20
936.356205
 11
372.647729
 21
936.164531
  0
LINE
  8
CSLAYER1
  6
DASHED
 62
     1
 10
389.879605
 20
934.814531
 11
388.839402
 21
934.814531
  0
POINT
  8
CSLAYER1
 62
     1
 10
420.839402
 20
957.583759
  0
LINE
  8
CSLAYER1
  6
DASHED
 62
     1
 10
402.939402
 20
944.583759
 11
402.939402
 21
1002.333759
  0
LINE
  8
CSLAYER1
  6
DASHED
 62
     1
 10
401.089402
 20
953.813759
 11
401.089402
 21
961.363485
  0
LINE
  8
CSLAYER1
  6
DASHED
 62
     1
 10
407.314402
 20
944.583759
 11
402.939402
 21
944.583759
  0
LINE
  8
CSLAYER1
  6
DASHED
 62
     1
 10
402.939402
 20
962.363485
 11
402.089402
 21
962.363485
  0
ARC
  8
CSLAYER1
  6
DASHED
 62
     1
 10
402.089402
 20
953.813759
 40
1.000000
 50
180.000000
 51
270.000000
  0
ARC
  8
CSLAYER1
  6
DASHED
 62
     1
 10
402.089402
 20
961.363485
 40
1.000000
 50
90.000000
 51
180.000000
  0
LINE
  8
CSLAYER1
  6
DASHED
 62
     1
 10
434.364402
 20
944.583759
 11
434.364402
 21
1039.833759
  0
LINE
  8
CSLAYER1
  6
DASHED
 62
     1
 10
438.739402
 20
944.583759
 11
438.739402
 21
1002.333759
  0
LINE
  8
CSLAYER1
  6
DASHED
 62
     1
 10
440.589402
 20
953.813759
 11
440.589402
 21
961.363485
  0
LINE
  8
CSLAYER1
  6
DASHED
 62
     1
 10
434.364402
 20
944.583759
 11
438.739402
 21
944.583759
  0
LINE
  8
CSLAYER1
  6
DASHED
 62
     1
 10
438.739402
 20
952.813759
 11
439.589402
 21
952.813759
  0
LINE
  8
CSLAYER1
  6
DASHED
 62
     1
 10
438.739402
 20
962.363485
 11
439.589402
 21
962.363485
  0
ARC
  8
CSLAYER1
  6
DASHED
 62
     1
 10
439.589402
 20
953.813759
 40
1.000000
 50
270.000000
 51
360.000000
  0
ARC
  8
CSLAYER1
  6
DASHED
 62
     1
 10
439.589402
 20
961.363485
 40
1.000000
 50
0.000000
 51
90.000000
  0
LINE
  8
CSLAYER1
  6
DASHED
 62
     1
 10
433.364402
 20
947.583759
 11
428.839402
 21
947.583759
  0
LINE
  8
CSLAYER1
  6
DASHED
 62
     1
 10
434.364402
 20
948.583759
 11
433.364402
 21
947.583759
  0
LINE
  8
CSLAYER1
  6
DASHED
 62
     1
 10
408.314402
 20
947.583759
 11
407.314402
 21
948.583759
  0
LINE
  8
CSLAYER1
  6
DASHED
 62
     1
 10
433.364402
 20
967.583759
 11
428.839402
 21
967.583759
  0
LINE
  8
CSLAYER1
  6
DASHED
 62
     1
 10
434.364402
 20
966.583759
 11
433.364402
 21
967.583759
  0
LINE
  8
CSLAYER1
  6
DASHED
 62
     1
 10
408.314402
 20
967.583759
 11
407.314402
 21
966.583759
  0
LINE
  8
CSLAYER1
  6
DASHED
 62
     1
 10
393.356121
 20
989.333759
 11
437.892033
 21
989.333759
  0
LINE
  8
CSLAYER1
  6
DASHED
 62
     1
 10
434.364402
 20
1002.333759
 11
438.739402
 21
1002.333759
  0
LINE
  8
CSLAYER1
  6
DASHED
 62
     1
 10
440.589402
 20
985.563759
 11
440.589402
 21
993.113485
  0
LINE
  8
CSLAYER1
  6
DASHED
 62
     1
 10
438.739402
 20
984.563759
 11
439.589402
 21
984.563759
  0
LINE
  8
CSLAYER1
  6
DASHED
 62
     1
 10
438.739402
 20
994.113485
 11
439.589402
 21
994.113485
  0
ARC
  8
CSLAYER1
  6
DASHED
 62
     1
 10
439.589402
 20
985.563759
 40
1.000000
 50
270.000000
 51
360.000000
  0
ARC
  8
CSLAYER1
  6
DASHED
 62
     1
 10
439.589402
 20
993.113485
 40
1.000000
 50
0.000000
 51
90.000000
  0
LINE
  8
CSLAYER1
  6
DASHED
 62
     1
 10
407.314402
 20
1002.333759
 11
402.939402
 21
1002.333759
  0
LINE
  8
CSLAYER1
  6
DASHED
 62
     1
 10
402.939402
 20
952.813759
 11
402.089402
 21
952.813759
  0
LINE
  8
CSLAYER1
  6
DASHED
 62
     1
 10
401.089402
 20
985.563759
 11
401.089402
 21
993.113485
  0
LINE
  8
CSLAYER1
  6
DASHED
 62
     1
 10
402.939402
 20
984.563759
 11
402.089402
 21
984.563759
  0
LINE
  8
CSLAYER1
  6
DASHED
 62
     1
 10
402.939402
 20
994.113485
 11
402.089402
 21
994.113485
  0
ARC
  8
CSLAYER1
  6
DASHED
 62
     1
 10
402.089402
 20
985.563759
 40
1.000000
 50
180.000000
 51
270.000000
  0
ARC
  8
CSLAYER1
  6
DASHED
 62
     1
 10
402.089402
 20
993.113485
 40
1.000000
 50
90.000000
 51
180.000000
  0
POINT
  8
CSLAYER1
 62
     1
 10
420.839402
 20
989.333759
  0
LINE
  8
CSLAYER1
  6
DASHED
 62
     1
 10
394.201740
 20
957.583759
 11
438.737651
 21
957.583759
  0
LINE
  8
CSLAYER1
  6
DASHED
 62
     1
 10
412.839402
 20
979.808759
 11
412.839402
 21
899.763245
  0
LINE
  8
CSLAYER1
  6
DASHED
 62
     1
 10
428.839402
 20
979.808759
 11
428.839402
 21
909.050742
  0
POINT
  8
CSLAYER1
 62
     1
 10
420.839402
 20
1021.083759
  0
LINE
  8
CSLAYER1
  6
DASHED
 62
     1
 10
407.314402
 20
944.583759
 11
407.314402
 21
1039.833759
  0
LINE
  8
CSLAYER1
  6
DASHED
 62
     1
 10
411.314402
 20
1036.133759
 11
411.314402
 21
974.283759
  0
LINE
  8
CSLAYER1
  6
DASHED
 62
     1
 10
411.314402
 20
1036.133759
 11
407.314402
 21
1036.133759
  0
LINE
  8
CSLAYER1
  6
DASHED
 62
     1
 10
412.314402
 20
1011.558759
 11
429.364402
 21
1011.558759
  0
LINE
  8
CSLAYER1
  6
DASHED
 62
     1
 10
412.314402
 20
1030.608759
 11
429.364402
 21
1030.608759
  0
ARC
  8
CSLAYER1
  6
DASHED
 62
     1
 10
412.314402
 20
1012.558759
 40
1.000000
 50
180.000000
 51
270.000000
  0
ARC
  8
CSLAYER1
  6
DASHED
 62
     1
 10
412.314402
 20
1029.608759
 40
1.000000
 50
90.000000
 51
180.000000
  0
LINE
  8
CSLAYER1
  6
DASHED
 62
     1
 10
430.364402
 20
1036.133759
 11
430.364402
 21
974.283759
  0
LINE
  8
CSLAYER1
  6
DASHED
 62
     1
 10
430.364402
 20
1036.133759
 11
434.364402
 21
1036.133759
  0
ARC
  8
CSLAYER1
  6
DASHED
 62
     1
 10
429.364402
 20
1012.558759
 40
1.000000
 50
270.000000
 51
360.000000
  0
ARC
  8
CSLAYER1
  6
DASHED
 62
     1
 10
429.364402
 20
1029.608759
 40
1.000000
 50
0.000000
 51
90.000000
  0
LINE
  8
CSLAYER1
  6
DASHED
 62
     1
 10
401.089402
 20
1017.313759
 11
401.089402
 21
1024.863485
  0
LINE
  8
CSLAYER1
  6
DASHED
 62
     1
 10
407.314402
 20
1008.083759
 11
402.939402
 21
1008.083759
  0
LINE
  8
CSLAYER1
  6
DASHED
 62
     1
 10
402.939402
 20
1016.313759
 11
402.089402
 21
1016.313759
  0
LINE
  8
CSLAYER1
  6
DASHED
 62
     1
 10
402.939402
 20
1025.863485
 11
402.089402
 21
1025.863485
  0
ARC
  8
CSLAYER1
  6
DASHED
 62
     1
 10
402.089402
 20
1017.313759
 40
1.000000
 50
180.000000
 51
270.000000
  0
ARC
  8
CSLAYER1
  6
DASHED
 62
     1
 10
402.089402
 20
1024.863485
 40
1.000000
 50
90.000000
 51
180.000000
  0
LINE
  8
CSLAYER1
  6
DASHED
 62
     1
 10
440.589402
 20
1017.313759
 11
440.589402
 21
1024.863485
  0
LINE
  8
CSLAYER1
  6
DASHED
 62
     1
 10
434.364402
 20
1008.083759
 11
438.739402
 21
1008.083759
  0
LINE
  8
CSLAYER1
  6
DASHED
 62
     1
 10
438.739402
 20
1016.313759
 11
439.589402
 21
1016.313759
  0
LINE
  8
CSLAYER1
  6
DASHED
 62
     1
 10
438.739402
 20
1025.863485
 11
439.589402
 21
1025.863485
  0
ARC
  8
CSLAYER1
  6
DASHED
 62
     1
 10
439.589402
 20
1017.313759
 40
1.000000
 50
270.000000
 51
360.000000
  0
ARC
  8
CSLAYER1
  6
DASHED
 62
     1
 10
439.589402
 20
1024.863485
 40
1.000000
 50
0.000000
 51
90.000000
  0
LINE
  8
CSLAYER1
  6
DASHED
 62
     1
 10
402.939402
 20
1008.083759
 11
402.939402
 21
1065.833759
  0
LINE
  8
CSLAYER1
  6
DASHED
 62
     1
 10
438.739402
 20
1008.083759
 11
438.739402
 21
1065.833759
  0
LINE
  8
CSLAYER1
  6
DASHED
 62
     1
 10
411.314402
 20
974.283759
 11
407.314402
 21
974.283759
  0
LINE
  8
CSLAYER1
  6
DASHED
 62
     1
 10
412.314402
 20
998.858759
 11
429.364402
 21
998.858759
  0
LINE
  8
CSLAYER1
  6
DASHED
 62
     1
 10
412.314402
 20
979.808759
 11
429.364402
 21
979.808759
  0
ARC
  8
CSLAYER1
  6
DASHED
 62
     1
 10
412.314402
 20
997.858759
 40
1.000000
 50
90.000000
 51
180.000000
  0
ARC
  8
CSLAYER1
  6
DASHED
 62
     1
 10
412.314402
 20
980.808759
 40
1.000000
 50
180.000000
 51
270.000000
  0
LINE
  8
CSLAYER1
  6
DASHED
 62
     1
 10
430.364402
 20
974.283759
 11
434.364402
 21
974.283759
  0
ARC
  8
CSLAYER1
  6
DASHED
 62
     1
 10
429.364402
 20
997.858759
 40
1.000000
 50
0.000000
 51
90.000000
  0
ARC
  8
CSLAYER1
  6
DASHED
 62
     1
 10
429.364402
 20
980.808759
 40
1.000000
 50
270.000000
 51
360.000000
  0
LINE
  8
CSLAYER1
  6
DASHED
 62
     1
 10
412.839402
 20
974.583759
 11
428.839402
 21
974.583759
  0
LINE
  8
CSLAYER1
  6
DASHED
 62
     1
 10
412.839402
 20
967.583759
 11
408.314402
 21
967.583759
  0
LINE
  8
CSLAYER1
  6
DASHED
 62
     1
 10
412.839402
 20
947.583759
 11
408.314402
 21
947.583759
  0
LINE
  8
CSLAYER1
  6
DASHED
 62
     1
 10
391.031076
 20
934.814531
 11
410.839402
 21
934.814531
  0
LINE
  8
CSLAYER1
  6
DASHED
 62
     1
 10
411.839402
 20
929.814531
 11
412.839402
 21
929.814531
  0
LINE
  8
CSLAYER1
  6
DASHED
 62
     1
 10
329.839402
 20
929.814531
 11
330.865943
 21
929.814531
  0
LINE
  8
CSLAYER1
  6
DASHED
 62
     1
 10
329.839402
 20
899.814531
 11
330.865943
 21
899.814531
  0
LINE
  8
CSLAYER1
  6
DASHED
 62
     1
 10
388.839402
 20
890.097374
 11
393.556560
 21
894.814531
  0
LINE
  8
CSLAYER1
  6
DASHED
 62
     1
 10
388.839402
 20
890.380217
 11
393.273717
 21
894.814531
  0
LINE
  8
CSLAYER1
  6
DASHED
 62
     1
 10
388.839402
 20
890.663059
 11
392.990874
 21
894.814531
  0
LINE
  8
CSLAYER1
  6
DASHED
 62
     1
 10
388.839402
 20
890.945902
 11
392.708032
 21
894.814531
  0
LINE
  8
CSLAYER1
  6
DASHED
 62
     1
 10
388.839402
 20
891.228745
 11
392.425189
 21
894.814531
  0
LINE
  8
CSLAYER1
  6
DASHED
 62
     1
 10
388.839402
 20
891.511588
 11
392.142346
 21
894.814531
  0
LINE
  8
CSLAYER1
  6
DASHED
 62
     1
 10
388.839402
 20
891.794430
 11
391.859504
 21
894.814531
  0
LINE
  8
CSLAYER1
  6
DASHED
 62
     1
 10
388.839402
 20
892.077273
 11
391.576661
 21
894.814531
  0
LINE
  8
CSLAYER1
  6
DASHED
 62
     1
 10
388.839402
 20
892.360116
 11
391.293818
 21
894.814531
  0
LINE
  8
CSLAYER1
  6
DASHED
 62
     1
 10
388.839402
 20
892.642958
 11
391.010975
 21
894.814531
  0
LINE
  8
CSLAYER1
  6
DASHED
 62
     1
 10
388.839402
 20
892.925801
 11
390.728133
 21
894.814531
  0
LINE
  8
CSLAYER1
  6
DASHED
 62
     1
 10
388.839402
 20
893.208644
 11
390.445290
 21
894.814531
  0
LINE
  8
CSLAYER1
  6
DASHED
 62
     1
 10
388.839402
 20
893.491487
 11
390.162447
 21
894.814531
  0
LINE
  8
CSLAYER1
  6
DASHED
 62
     1
 10
388.839402
 20
893.774329
 11
389.879605
 21
894.814531
  0
LINE
  8
CSLAYER1
  6
DASHED
 62
     1
 10
388.839402
 20
894.057172
 11
389.596762
 21
894.814531
  0
LINE
  8
CSLAYER1
  6
DASHED
 62
     1
 10
388.839402
 20
894.340015
 11
389.313919
 21
894.814531
  0
LINE
  8
CSLAYER1
  6
DASHED
 62
     1
 10
388.839402
 20
894.622857
 11
389.031076
 21
894.814531
  0
LINE
  8
CSLAYER1
  6
DASHED
 62
     1
 10
389.879605
 20
894.814531
 11
388.839402
 21
894.814531
  0
LINE
  8
CSLAYER1
  6
DASHED
 62
     1
 10
391.031076
 20
894.814531
 11
404.314024
 21
894.814531
  0
POINT
  8
CSLAYER1
 62
     1
 10
389.839402
 20
856.908104
  0
LINE
  8
CSLAYER1
  6
DASHED
 62
     1
 10
389.839402
 20
880.654526
 11
389.839402
 21
833.062815
  0
LINE
  8
CSLAYER1
  6
DASHED
 62
     1
 10
411.839402
 20
835.500518
 11
411.976133
 21
836.441055
  0
LINE
  8
CSLAYER1
  6
DASHED
 62
     1
 10
411.976133
 20
836.441055
 11
412.382169
 21
837.353014
  0
LINE
  8
CSLAYER1
  6
DASHED
 62
     1
 10
412.382169
 20
837.353014
 11
413.045174
 21
838.208686
  0
LINE
  8
CSLAYER1
  6
DASHED
 62
     1
 10
413.045174
 20
838.208686
 11
413.945003
 21
838.982071
  0
LINE
  8
CSLAYER1
  6
DASHED
 62
     1
 10
413.945003
 20
838.982071
 11
415.054314
 21
839.649672
  0
LINE
  8
CSLAYER1
  6
DASHED
 62
     1
 10
415.054314
 20
839.649672
 11
416.339402
 21
840.191202
  0
LINE
  8
CSLAYER1
  6
DASHED
 62
     1
 10
416.339402
 20
840.191202
 11
417.761221
 21
840.590208
  0
LINE
  8
CSLAYER1
  6
DASHED
 62
     1
 10
417.761221
 20
840.590208
 11
419.276569
 21
840.834567
  0
LINE
  8
CSLAYER1
  6
DASHED
 62
     1
 10
419.276569
 20
840.834567
 11
420.839402
 21
840.916853
  0
LINE
  8
CSLAYER1
  6
DASHED
 62
     1
 10
420.839402
 20
840.916853
 11
422.402236
 21
840.834567
  0
LINE
  8
CSLAYER1
  6
DASHED
 62
     1
 10
422.402236
 20
840.834567
 11
423.917584
 21
840.590208
  0
LINE
  8
CSLAYER1
  6
DASHED
 62
     1
 10
423.917584
 20
840.590208
 11
425.339402
 21
840.191202
  0
LINE
  8
CSLAYER1
  6
DASHED
 62
     1
 10
425.339402
 20
840.191202
 11
426.624491
 21
839.649672
  0
LINE
  8
CSLAYER1
  6
DASHED
 62
     1
 10
426.624491
 20
839.649672
 11
427.733802
 21
838.982071
  0
LINE
  8
CSLAYER1
  6
DASHED
 62
     1
 10
427.733802
 20
838.982071
 11
428.633631
 21
838.208686
  0
LINE
  8
CSLAYER1
  6
DASHED
 62
     1
 10
428.633631
 20
838.208686
 11
429.296636
 21
837.353014
  0
LINE
  8
CSLAYER1
  6
DASHED
 62
     1
 10
429.296636
 20
837.353014
 11
429.702672
 21
836.441055
  0
LINE
  8
CSLAYER1
  6
DASHED
 62
     1
 10
429.702672
 20
836.441055
 11
429.839402
 21
835.500518
  0
LINE
  8
CSLAYER1
  6
DASHED
 62
     1
 10
429.839402
 20
835.500518
 11
429.702672
 21
834.559981
  0
LINE
  8
CSLAYER1
  6
DASHED
 62
     1
 10
429.702672
 20
834.559981
 11
429.296636
 21
833.648022
  0
LINE
  8
CSLAYER1
  6
DASHED
 62
     1
 10
429.296636
 20
833.648022
 11
428.633631
 21
832.792351
  0
LINE
  8
CSLAYER1
  6
DASHED
 62
     1
 10
428.633631
 20
832.792351
 11
427.733802
 21
832.018965
  0
LINE
  8
CSLAYER1
  6
DASHED
 62
     1
 10
427.733802
 20
832.018965
 11
426.624491
 21
831.351365
  0
LINE
  8
CSLAYER1
  6
DASHED
 62
     1
 10
426.624491
 20
831.351365
 11
425.339402
 21
830.809834
  0
LINE
  8
CSLAYER1
  6
DASHED
 62
     1
 10
425.339402
 20
830.809834
 11
423.917584
 21
830.410828
  0
LINE
  8
CSLAYER1
  6
DASHED
 62
     1
 10
423.917584
 20
830.410828
 11
422.402236
 21
830.166469
  0
LINE
  8
CSLAYER1
  6
DASHED
 62
     1
 10
422.402236
 20
830.166469
 11
420.839402
 21
830.084183
  0
LINE
  8
CSLAYER1
  6
DASHED
 62
     1
 10
420.839402
 20
830.084183
 11
419.276569
 21
830.166469
  0
LINE
  8
CSLAYER1
  6
DASHED
 62
     1
 10
419.276569
 20
830.166469
 11
417.761221
 21
830.410828
  0
LINE
  8
CSLAYER1
  6
DASHED
 62
     1
 10
417.761221
 20
830.410828
 11
416.339402
 21
830.809834
  0
LINE
  8
CSLAYER1
  6
DASHED
 62
     1
 10
416.339402
 20
830.809834
 11
415.054314
 21
831.351365
  0
LINE
  8
CSLAYER1
  6
DASHED
 62
     1
 10
415.054314
 20
831.351365
 11
413.945003
 21
832.018965
  0
LINE
  8
CSLAYER1
  6
DASHED
 62
     1
 10
413.945003
 20
832.018965
 11
413.045174
 21
832.792351
  0
LINE
  8
CSLAYER1
  6
DASHED
 62
     1
 10
413.045174
 20
832.792351
 11
412.382169
 21
833.648022
  0
LINE
  8
CSLAYER1
  6
DASHED
 62
     1
 10
412.382169
 20
833.648022
 11
411.976133
 21
834.559981
  0
LINE
  8
CSLAYER1
  6
DASHED
 62
     1
 10
411.976133
 20
834.559981
 11
411.839402
 21
835.500518
  0
LINE
  8
CSLAYER1
  6
DASHED
 62
     1
 10
411.839402
 20
840.916853
 11
411.976133
 21
841.857390
  0
LINE
  8
CSLAYER1
  6
DASHED
 62
     1
 10
411.976133
 20
841.857390
 11
412.382169
 21
842.769349
  0
LINE
  8
CSLAYER1
  6
DASHED
 62
     1
 10
412.382169
 20
842.769349
 11
413.045174
 21
843.625021
  0
LINE
  8
CSLAYER1
  6
DASHED
 62
     1
 10
413.045174
 20
843.625021
 11
413.945003
 21
844.398407
  0
LINE
  8
CSLAYER1
  6
DASHED
 62
     1
 10
413.945003
 20
844.398407
 11
415.054314
 21
845.066007
  0
LINE
  8
CSLAYER1
  6
DASHED
 62
     1
 10
415.054314
 20
845.066007
 11
416.339402
 21
845.607537
  0
LINE
  8
CSLAYER1
  6
DASHED
 62
     1
 10
416.339402
 20
845.607537
 11
417.761221
 21
846.006544
  0
LINE
  8
CSLAYER1
  6
DASHED
 62
     1
 10
417.761221
 20
846.006544
 11
419.276569
 21
846.250902
  0
LINE
  8
CSLAYER1
  6
DASHED
 62
     1
 10
419.276569
 20
846.250902
 11
420.839402
 21
846.333189
  0
LINE
  8
CSLAYER1
  6
DASHED
 62
     1
 10
420.839402
 20
846.333189
 11
422.402236
 21
846.250902
  0
LINE
  8
CSLAYER1
  6
DASHED
 62
     1
 10
422.402236
 20
846.250902
 11
423.917584
 21
846.006544
  0
LINE
  8
CSLAYER1
  6
DASHED
 62
     1
 10
423.917584
 20
846.006544
 11
425.339402
 21
845.607537
  0
LINE
  8
CSLAYER1
  6
DASHED
 62
     1
 10
425.339402
 20
845.607537
 11
426.624491
 21
845.066007
  0
LINE
  8
CSLAYER1
  6
DASHED
 62
     1
 10
426.624491
 20
845.066007
 11
427.733802
 21
844.398407
  0
LINE
  8
CSLAYER1
  6
DASHED
 62
     1
 10
427.733802
 20
844.398407
 11
428.633631
 21
843.625021
  0
LINE
  8
CSLAYER1
  6
DASHED
 62
     1
 10
428.633631
 20
843.625021
 11
429.296636
 21
842.769349
  0
LINE
  8
CSLAYER1
  6
DASHED
 62
     1
 10
429.296636
 20
842.769349
 11
429.702672
 21
841.857390
  0
LINE
  8
CSLAYER1
  6
DASHED
 62
     1
 10
429.702672
 20
841.857390
 11
429.839402
 21
840.916853
  0
LINE
  8
CSLAYER1
  6
DASHED
 62
     1
 10
411.839402
 20
840.916853
 11
411.839402
 21
835.028453
  0
LINE
  8
CSLAYER1
  6
DASHED
 62
     1
 10
429.839402
 20
840.916853
 11
429.839402
 21
835.028453
  0
LINE
  8
CSLAYER1
  6
DASHED
 62
     1
 10
428.897275
 20
909.084335
 11
394.819190
 21
889.303079
  0
LINE
  8
CSLAYER1
  6
DASHED
 62
     1
 10
431.225476
 20
878.453281
 11
394.819190
 21
857.320577
  0
LINE
  8
CSLAYER1
  6
DASHED
 62
     1
 10
429.839402
 20
803.380426
 11
394.690771
 21
824.490090
  0
ARC
  8
CSLAYER1
  6
DASHED
 62
     1
 10
433.917488
 20
900.435782
 40
10.000000
 50
90.000000
 51
120.133817
  0
ARC
  8
CSLAYER1
  6
DASHED
 62
     1
 10
399.839402
 20
880.654526
 40
10.000000
 50
120.133817
 51
180.000000
  0
ARC
  8
CSLAYER1
  6
DASHED
 62
     1
 10
399.839402
 20
833.062815
 40
10.000000
 50
180.000000
 51
239.011695
  0
ARC
  8
CSLAYER1
  6
DASHED
 62
     1
 10
399.839402
 20
848.672024
 40
10.000000
 50
120.133817
 51
180.000000
  0
LINE
  8
CSLAYER1
  6
DASHED
 62
     1
 10
429.839402
 20
803.380426
 11
440.839402
 21
803.380426
  0
DIMENSION
  8
CSLAYER1
 62
     7
  2
*D0002
 10
986.947869
 20
2251.214414
 11
976.947876
 21
1926.214233
 13
1094.832432
 23
1601.214414
 14
1094.832432
 24
2251.214414
 50
90.000000
 70
1
  0
DIMENSION
  8
CSLAYER1
 62
     7
  2
*D0003
 10
2388.695619
 20
657.641722
 11
2378.695557
 21
580.141663
 13
2293.959897
 23
502.641722
 14
2293.959897
 24
657.641722
 50
90.000000
 70
1
  0
DIMENSION
  8
CSLAYER1
 62
     7
  2
*D0004
 10
2388.695619
 20
657.641722
 11
2378.695557
 21
1040.914673
 13
2388.695619
 23
1424.187340
 14
2388.695619
 24
657.641722
 50
90.000000
 70
1
  0
DIMENSION
  8
CSLAYER1
 62
     7
  2
*D0005
 10
2479.127207
 20
1424.187340
 11
2469.127197
 21
963.414612
 13
2290.959897
 23
502.641722
 14
2290.959897
 24
1424.187340
 50
90.000000
 70
1
  0
LINE
  8
CSLAYER1
  6
CONTINUOUS
 62
     5
 10
1251.388080
 20
786.251790
 11
1062.406774
 21
983.605685
  0
LINE
  8
CSLAYER1
  6
CONTINUOUS
 62
     5
 10
1251.388080
 20
786.251790
 11
1225.738418
 21
801.811187
  0
LINE
  8
CSLAYER1
  6
CONTINUOUS
 62
     5
 10
1251.388080
 20
786.251790
 11
1236.954519
 21
812.551454
  0
LINE
  8
CSLAYER1
  6
CONTINUOUS
 62
     5
 10
1062.406774
 20
983.605685
 11
824.386016
 21
983.605685
  0
LINE
  8
CSLAYER1
  6
CONTINUOUS
 62
     5
 10
592.039402
 20
599.347652
 11
837.069342
 21
697.136001
  0
LINE
  8
CSLAYER1
  6
CONTINUOUS
 62
     5
 10
592.039402
 20
599.347652
 11
616.075038
 21
617.300040
  0
LINE
  8
CSLAYER1
  6
CONTINUOUS
 62
     5
 10
592.039402
 20
599.347652
 11
621.831067
 21
602.877059
  0
LINE
  8
CSLAYER1
  6
CONTINUOUS
 62
     5
 10
837.069342
 20
697.136001
 11
1083.645430
 21
697.136001
  0
DIMENSION
  8
CSLAYER1
 62
     7
  2
*D0006
 10
1093.959897
 20
406.515929
 11
1129.895996
 21
420.701752
 13
1160.959897
 23
406.515929
 14
1093.959897
 24
406.515929
 52
0.000000
 70
1
  0
DIMENSION
  8
CSLAYER1
 62
     7
  2
*D0007
 10
2210.959897
 20
406.515929
 11
2252.526367
 21
421.957123
 13
2293.959897
 23
406.515929
 14
2210.959897
 24
406.515929
 52
0.000000
 70
1
  0
DIMENSION
  8
CSLAYER1
 62
     7
  2
*D0008
 10
2293.959897
 20
316.459325
 11
1693.959961
 21
326.459320
 13
1093.959897
 23
604.641722
 14
2293.959897
 24
604.641722
 52
270.000000
 70
1
  0
DIMENSION
  8
CSLAYER1
 62
     7
  2
*D0009
 10
2294.832432
 20
1497.487519
 11
1694.832520
 21
1507.487671
 13
1094.832432
 23
1601.214414
 14
2294.832432
 24
1601.214414
 52
270.000000
 70
1
  0
DIMENSION
  8
CSLAYER1
 62
     7
  2
*D0010
 10
810.839402
 20
316.459325
 11
495.839386
 21
326.459320
 13
180.839402
 23
561.641722
 14
810.839402
 24
561.641722
 52
270.000000
 70
1
  0
LINE
  8
CSLAYER1
  6
CONTINUOUS
 62
     5
 10
2243.959897
 20
554.602903
 11
2243.959897
 21
575.470245
  0
LINE
  8
CSLAYER1
  6
CONTINUOUS
 62
     5
 10
800.839402
 20
556.027181
 11
800.839402
 21
574.560964
  0
LINE
  8
CSLAYER1
  6
CONTINUOUS
 62
     5
 10
1103.959897
 20
1083.801562
 11
1045.666504
 21
1183.640675
  0
LINE
  8
CSLAYER1
  6
CONTINUOUS
 62
     5
 10
1103.959897
 20
1083.801562
 11
1082.643458
 21
1104.911026
  0
LINE
  8
CSLAYER1
  6
CONTINUOUS
 62
     5
 10
1103.959897
 20
1083.801562
 11
1096.054052
 21
1112.741113
  0
LINE
  8
CSLAYER1
  6
CONTINUOUS
 62
     5
 10
1045.666504
 20
1183.640675
 11
846.189860
 21
1183.640675
  0
TEXT
  8
CSLAYER1
 62
     5
 10
856.189941
 20
1193.640747
 40
40.000000
 41
0.794118
  1
４面ジャバラ
 50
0.000000
 51
0.000000
  7
EASYDRAW_FONT
 72
     5
 11
1036.189941
 21
1193.640747
  0
TEXT
  8
CSLAYER1
 62
     5
 10
830.103638
 20
988.362122
 40
40.000000
 41
0.782609
  1
ギヤードモ－ター
 50
0.000000
 51
0.000000
  7
EASYDRAW_FONT
 72
     5
 11
1070.103638
 21
988.362122
  0
TEXT
  8
CSLAYER1
 62
     5
 10
873.219482
 20
754.661926
 40
40.000000
 41
0.803571
  1
上限・下限
 50
0.000000
 51
0.000000
  7
EASYDRAW_FONT
 72
     5
 11
1023.219482
 21
754.661926
  0
TEXT
  8
CSLAYER1
 62
     5
 10
838.274536
 20
703.492981
 40
40.000000
 41
0.782609
  1
リミットスイッチ
 50
0.000000
 51
0.000000
  7
EASYDRAW_FONT
 72
     5
 11
1078.274536
 21
703.492981
  0
TEXT
  8
CSLAYER1
 62
     5
 10
2515.720947
 20
506.142639
 40
40.000000
 41
0.843750
  1
Ｆ.Ｌ
 50
0.000000
 51
0.000000
  7
EASYDRAW_FONT
 72
     5
 11
2605.720947
 21
506.142639
  0
CIRCLE
  8
CSLAYER1
  6
DASHED
 62
     1
 10
1202.959897
 20
1299.987340
 40
8.000000
  0
CIRCLE
  8
CSLAYER1
  6
DASHED
 62
     1
 10
1384.127541
 20
856.908104
 40
14.000000
  0
LINE
  8
CSLAYER1
  6
DASHED
 62
     1
 10
2207.734721
 20
1371.187340
 11
2207.734721
 21
1348.987340
  0
LINE
  8
CSLAYER1
  6
DASHED
 62
     1
 10
1255.430076
 20
743.462931
 11
1261.451732
 21
738.939828
  0
LINE
  8
CSLAYER1
  6
DASHED
 62
     1
 10
1317.873477
 20
845.232234
 11
1363.773232
 21
906.339083
  0
LINE
  8
CSLAYER1
  6
DASHED
 62
     1
 10
1320.332368
 20
863.554597
 11
1328.139945
 21
873.948910
  0
LINE
  8
CSLAYER1
  6
DASHED
 62
     1
 10
1195.219444
 20
708.645732
 11
1219.206320
 21
690.628246
  0
LINE
  8
CSLAYER1
  6
DASHED
 62
     1
 10
1279.098419
 20
816.984634
 11
1302.371323
 21
799.503441
  0
LINE
  8
CSLAYER1
  6
DASHED
 62
     1
 10
1322.143225
 20
878.453281
 11
1339.132786
 21
865.691754
  0
LINE
  8
CSLAYER1
  6
DASHED
 62
     1
 10
1160.986222
 20
663.070667
 11
1195.219444
 21
708.645732
  0
LINE
  8
CSLAYER1
  6
DASHED
 62
     1
 10
1196.818569
 20
707.444566
 11
1283.903081
 21
823.381134
  0
LINE
  8
CSLAYER1
  6
DASHED
 62
     1
 10
1291.703371
 20
823.775450
 11
1321.131930
 21
862.954014
  0
LINE
  8
CSLAYER1
  6
DASHED
 62
     1
 10
1266.949013
 20
749.193469
 11
1272.226923
 21
745.229024
  0
LINE
  8
CSLAYER1
  6
DASHED
 62
     1
 10
1218.001511
 20
684.029123
 11
1232.279466
 21
673.304390
  0
LINE
  8
CSLAYER1
  6
DASHED
 62
     1
 10
1217.404572
 20
688.229559
 11
1301.818979
 21
800.611387
  0
ARC
  8
CSLAYER1
  6
DASHED
 62
     1
 10
1219.803259
 20
686.427810
 40
3.000000
 50
143.088348
 51
233.088348
  0
ARC
  8
CSLAYER1
  6
DASHED
 62
     1
 10
1265.147264
 20
746.794782
 40
3.000000
 50
53.088348
 51
143.088348
  0
LINE
  8
CSLAYER1
  6
DASHED
 62
     1
 10
1320.332368
 20
863.554597
 11
1333.715493
 21
853.502005
  0
LINE
  8
CSLAYER1
  6
DASHED
 62
     1
 10
1300.712113
 20
835.768888
 11
1316.095603
 21
824.213744
  0
LINE
  8
CSLAYER1
  6
DASHED
 62
     1
 10
1541.346220
 20
992.037116
 11
1634.841284
 21
1116.508122
  0
LINE
  8
CSLAYER1
  6
DASHED
 62
     1
 10
1286.703372
 20
823.779093
 11
1307.272851
 21
808.328549
  0
ARC
  8
CSLAYER1
  6
DASHED
 62
     1
 10
1289.304683
 20
825.577198
 40
3.000000
 50
233.088348
 51
323.088348
  0
LINE
  8
CSLAYER1
  6
DASHED
 62
     1
 10
1203.215070
 20
702.639903
 11
1285.494919
 21
812.179971
  0
LINE
  8
CSLAYER1
  6
DASHED
 62
     1
 10
1201.615945
 20
703.841069
 11
1283.895794
 21
813.381137
  0
ARC
  8
CSLAYER1
  6
DASHED
 62
     1
 10
1285.502207
 20
822.179968
 40
2.000000
 50
53.088348
 51
143.088348
  0
LINE
  8
CSLAYER1
  6
DASHED
 62
     1
 10
1346.166539
 20
910.435782
 11
1359.389752
 21
900.503308
  0
LINE
  8
CSLAYER1
  6
DASHED
 62
     1
 10
1357.495801
 20
908.804690
 11
1361.434741
 21
905.845998
  0
LINE
  8
CSLAYER1
  6
DASHED
 62
     1
 10
1320.201064
 20
861.151856
 11
1332.514327
 21
851.902880
  0
LINE
  8
CSLAYER1
  6
DASHED
 62
     1
 10
1320.201064
 20
861.151856
 11
1321.402230
 21
862.750981
  0
LINE
  8
CSLAYER1
  6
DASHED
 62
     1
 10
1317.256750
 20
855.234000
 11
1327.651063
 21
847.426423
  0
LINE
  8
CSLAYER1
  6
DASHED
 62
     1
 10
1356.343126
 20
908.944417
 11
1353.388592
 21
905.011014
  0
LINE
  8
CSLAYER1
  6
DASHED
 62
     1
 10
1359.343705
 20
906.690564
 11
1356.389172
 21
902.757161
  0
LINE
  8
CSLAYER1
  6
DASHED
 62
     1
 10
1317.256750
 20
855.234000
 11
1316.801420
 21
856.302110
  0
LINE
  8
CSLAYER1
  6
DASHED
 62
     1
 10
1357.495801
 20
908.804690
 11
1356.343126
 21
908.944417
  0
LINE
  8
CSLAYER1
  6
DASHED
 62
     1
 10
1320.356536
 20
861.035075
 11
1316.801420
 21
856.302110
  0
ARC
  8
CSLAYER1
  6
DASHED
 62
     1
 10
1319.921742
 20
857.331949
 40
3.285875
 50
208.401853
 51
268.052731
  0
ARC
  8
CSLAYER1
  6
DASHED
 62
     1
 10
1356.242908
 20
905.686717
 40
3.259241
 50
17.716730
 51
78.654247
  0
ARC
  8
CSLAYER1
  6
DASHED
 62
     1
 10
1355.234053
 20
894.970780
 40
12.419443
 50
60.304512
 51
70.676302
  0
ARC
  8
CSLAYER1
  6
DASHED
 62
     1
 10
1329.912812
 20
861.260333
 40
12.419443
 50
215.500394
 51
250.676302
  0
LINE
  8
CSLAYER1
  6
DASHED
 62
     1
 10
1323.357116
 20
858.781222
 11
1319.802000
 21
854.048256
  0
LINE
  8
CSLAYER1
  6
DASHED
 62
     1
 10
1317.713311
 20
850.513666
 11
1322.990423
 21
846.549820
  0
LINE
  8
CSLAYER1
  6
DASHED
 62
     1
 10
1317.574025
 20
851.493768
 11
1319.255657
 21
853.732543
  0
LINE
  8
CSLAYER1
  6
DASHED
 62
     1
 10
1317.713311
 20
850.513666
 11
1319.815351
 21
853.312135
  0
LINE
  8
CSLAYER1
  6
DASHED
 62
     1
 10
1317.574025
 20
851.493768
 11
1317.713311
 21
850.513666
  0
LINE
  8
CSLAYER1
  6
DASHED
 62
     1
 10
1317.574025
 20
851.493768
 11
1323.970525
 21
846.689105
  0
LINE
  8
CSLAYER1
  6
DASHED
 62
     1
 10
1332.514327
 20
851.902880
 11
1333.715493
 21
853.502005
  0
LINE
  8
CSLAYER1
  6
DASHED
 62
     1
 10
1327.651063
 20
847.426423
 11
1328.803739
 21
847.286696
  0
LINE
  8
CSLAYER1
  6
DASHED
 62
     1
 10
1332.358855
 20
852.019662
 11
1328.803739
 21
847.286696
  0
ARC
  8
CSLAYER1
  6
DASHED
 62
     1
 10
1328.923481
 20
850.570389
 40
3.285875
 50
198.123965
 51
257.774843
  0
LINE
  8
CSLAYER1
  6
DASHED
 62
     1
 10
1329.358275
 20
854.273515
 11
1325.803159
 21
849.540550
  0
LINE
  8
CSLAYER1
  6
DASHED
 62
     1
 10
1323.970525
 20
846.689105
 11
1325.652157
 21
848.927880
  0
LINE
  8
CSLAYER1
  6
DASHED
 62
     1
 10
1322.990423
 20
846.549820
 11
1325.092463
 21
849.348288
  0
LINE
  8
CSLAYER1
  6
DASHED
 62
     1
 10
1323.970525
 20
846.689105
 11
1322.990423
 21
846.549820
  0
LINE
  8
CSLAYER1
  6
DASHED
 62
     1
 10
1326.285993
 20
859.082595
 11
1328.069206
 21
855.241785
  0
LINE
  8
CSLAYER1
  6
DASHED
 62
     1
 10
1322.143225
 20
878.453281
 11
1346.166539
 21
910.435782
  0
LINE
  8
CSLAYER1
  6
DASHED
 62
     1
 10
2192.734721
 20
1320.987340
 11
1745.734721
 21
1320.987340
  0
ARC
  8
CSLAYER1
  6
DASHED
 62
     1
 10
1620.038139
 20
794.375333
 40
30.000000
 50
11.696960
 51
24.832507
  0
LINE
  8
CSLAYER1
  6
DASHED
 62
     1
 10
1647.264319
 20
806.974344
 11
1579.385196
 21
953.659609
  0
ARC
  8
CSLAYER1
  6
DASHED
 62
     1
 10
1516.222662
 20
924.430923
 40
69.597570
 50
24.832507
 51
69.373343
  0
LINE
  8
CSLAYER1
  6
DASHED
 62
     1
 10
1172.959897
 20
1371.187340
 11
1172.959897
 21
1280.987340
  0
LINE
  8
CSLAYER1
  6
DASHED
 62
     1
 10
1222.959897
 20
1371.187340
 11
1222.959897
 21
1295.987340
  0
ARC
  8
CSLAYER1
  6
DASHED
 62
     1
 10
1207.959897
 20
1295.987340
 40
15.000000
 50
270.000000
 51
360.000000
  0
LINE
  8
CSLAYER1
  6
DASHED
 62
     1
 10
1172.959897
 20
1280.987340
 11
1207.959897
 21
1280.987340
  0
LINE
  8
CSLAYER1
  6
DASHED
 62
     1
 10
2204.734721
 20
1345.987340
 11
1275.734721
 21
1345.987340
  0
LINE
  8
CSLAYER1
  6
DASHED
 62
     1
 10
1194.833431
 20
1280.987340
 11
1440.858119
 21
959.467979
  0
LINE
  8
CSLAYER1
  6
DASHED
 62
     1
 10
1509.016458
 20
860.521322
 11
1525.935376
 21
848.284075
  0
LINE
  8
CSLAYER1
  6
DASHED
 62
     1
 10
1525.935376
 20
848.284075
 11
1740.681222
 21
567.641722
  0
LINE
  8
CSLAYER1
  6
DASHED
 62
     1
 10
1405.568015
 20
985.307116
 11
1413.326343
 21
995.448104
  0
ARC
  8
CSLAYER1
  6
DASHED
 62
     1
 10
1620.172019
 20
1173.655411
 40
59.000000
 50
280.806980
 51
322.582328
  0
LINE
  8
CSLAYER1
  6
DASHED
 62
     1
 10
1254.751993
 20
567.641722
 11
1469.454453
 21
848.281449
  0
LINE
  8
CSLAYER1
  6
DASHED
 62
     1
 10
1543.574326
 20
1001.120222
 11
1531.993695
 21
953.910570
  0
LINE
  8
CSLAYER1
  6
DASHED
 62
     1
 10
1486.372233
 20
860.520269
 11
1469.454453
 21
848.281449
  0
LINE
  8
CSLAYER1
  6
DASHED
 62
     1
 10
1486.372233
 20
860.520269
 11
1497.693657
 21
875.318615
  0
LINE
  8
CSLAYER1
  6
DASHED
 62
     1
 10
1543.574326
 20
1001.120222
 11
1631.234577
 21
1115.701811
  0
LINE
  8
CSLAYER1
  6
DASHED
 62
     1
 10
2195.734721
 20
1371.187340
 11
2195.734721
 21
1323.987340
  0
LINE
  8
CSLAYER1
  6
DASHED
 62
     1
 10
1250.534721
 20
1371.187340
 11
1275.734721
 21
1345.987340
  0
LINE
  8
CSLAYER1
  6
DASHED
 62
     1
 10
1273.847339
 20
1291.271232
 11
1802.541718
 21
600.342688
  0
LINE
  8
CSLAYER1
  6
DASHED
 62
     1
 10
1273.847339
 20
1291.271232
 11
1222.959897
 21
1311.426341
  0
LINE
  8
CSLAYER1
  6
DASHED
 62
     1
 10
1802.541718
 20
600.342688
 11
1806.240439
 21
567.641722
  0
LINE
  8
CSLAYER1
  6
DASHED
 62
     1
 10
1192.079879
 20
600.925800
 11
1188.730984
 21
567.641722
  0
LINE
  8
CSLAYER1
  6
DASHED
 62
     1
 10
1405.568015
 20
985.307116
 11
1192.079879
 21
600.925800
  0
LINE
  8
CSLAYER1
  6
DASHED
 62
     1
 10
1509.016458
 20
860.521322
 11
1448.246989
 21
939.938396
  0
LINE
  8
CSLAYER1
  6
DASHED
 62
     1
 10
2204.734721
 20
1345.987340
 11
2207.734721
 21
1348.987340
  0
LINE
  8
CSLAYER1
  6
DASHED
 62
     1
 10
2195.734721
 20
1323.987340
 11
2192.734721
 21
1320.987340
  0
LINE
  8
CSLAYER1
  6
DASHED
 62
     1
 10
1448.246989
 20
939.938396
 11
1440.858119
 21
959.467979
  0
LINE
  8
CSLAYER1
  6
DASHED
 62
     1
 10
1456.763698
 20
1052.225503
 11
1681.505183
 21
1345.987340
  0
CIRCLE
  8
CSLAYER1
  6
DASHED
 62
     1
 10
1497.691821
 20
914.814531
 40
15.000000
  0
CIRCLE
  8
CSLAYER1
  6
DASHED
 62
     1
 10
1497.691821
 20
914.814531
 40
10.000000
  0
CIRCLE
  8
CSLAYER1
  6
DASHED
 62
     1
 10
1497.691821
 20
914.814531
 40
9.000000
  0
LINE
  8
CSLAYER1
  6
DASHED
 62
     1
 10
1512.691821
 20
923.474785
 11
1497.691821
 21
932.135039
  0
LINE
  8
CSLAYER1
  6
DASHED
 62
     1
 10
1497.691821
 20
932.135039
 11
1482.691821
 21
923.474785
  0
LINE
  8
CSLAYER1
  6
DASHED
 62
     1
 10
1482.691821
 20
923.474785
 11
1482.691821
 21
906.154277
  0
LINE
  8
CSLAYER1
  6
DASHED
 62
     1
 10
1482.691821
 20
906.154277
 11
1497.691821
 21
897.494023
  0
LINE
  8
CSLAYER1
  6
DASHED
 62
     1
 10
1497.691821
 20
897.494023
 11
1512.691821
 21
906.154277
  0
LINE
  8
CSLAYER1
  6
DASHED
 62
     1
 10
1512.691821
 20
906.154277
 11
1512.691821
 21
923.474785
  0
CIRCLE
  8
CSLAYER1
  6
DASHED
 62
     1
 10
1792.423745
 20
1299.987340
 40
21.000000
  0
CIRCLE
  8
CSLAYER1
  6
DASHED
 62
     1
 10
1792.423745
 20
1299.987340
 40
7.500000
  0
LINE
  8
CSLAYER1
  6
DASHED
 62
     1
 10
1588.002882
 20
1178.281063
 11
1677.999134
 21
1298.094062
  0
LINE
  8
CSLAYER1
  6
DASHED
 62
     1
 10
1725.623761
 20
1263.259346
 11
1679.049243
 21
1298.243297
  0
LINE
  8
CSLAYER1
  6
DASHED
 62
     1
 10
1725.623761
 20
1263.259346
 11
1725.822740
 21
1261.859201
  0
LINE
  8
CSLAYER1
  6
DASHED
 62
     1
 10
1679.049243
 20
1298.243297
 11
1677.999134
 21
1298.094062
  0
LINE
  8
CSLAYER1
  6
DASHED
 62
     1
 10
1687.400754
 20
1291.970149
 11
1691.813749
 21
1294.507546
  0
LINE
  8
CSLAYER1
  6
DASHED
 62
     1
 10
1691.813749
 20
1294.507546
 11
1692.365068
 21
1288.241257
  0
LINE
  8
CSLAYER1
  6
DASHED
 62
     1
 10
1692.365068
 20
1288.241257
 11
1694.159525
 21
1289.820418
  0
LINE
  8
CSLAYER1
  6
DASHED
 62
     1
 10
1692.365068
 20
1288.241257
 11
1691.500167
 21
1294.327242
  0
LINE
  8
CSLAYER1
  6
DASHED
 62
     1
 10
1692.138917
 20
1288.411128
 11
1691.313417
 21
1294.219864
  0
LINE
  8
CSLAYER1
  6
DASHED
 62
     1
 10
1691.912767
 20
1288.580998
 11
1691.126667
 21
1294.112486
  0
LINE
  8
CSLAYER1
  6
DASHED
 62
     1
 10
1691.686616
 20
1288.750869
 11
1690.939918
 21
1294.005108
  0
LINE
  8
CSLAYER1
  6
DASHED
 62
     1
 10
1691.460466
 20
1288.920739
 11
1690.753168
 21
1293.897730
  0
LINE
  8
CSLAYER1
  6
DASHED
 62
     1
 10
1691.234316
 20
1289.090610
 11
1690.566418
 21
1293.790352
  0
LINE
  8
CSLAYER1
  6
DASHED
 62
     1
 10
1691.008165
 20
1289.260480
 11
1690.379669
 21
1293.682974
  0
LINE
  8
CSLAYER1
  6
DASHED
 62
     1
 10
1690.782015
 20
1289.430351
 11
1690.192919
 21
1293.575596
  0
LINE
  8
CSLAYER1
  6
DASHED
 62
     1
 10
1690.555864
 20
1289.600221
 11
1690.006169
 21
1293.468219
  0
LINE
  8
CSLAYER1
  6
DASHED
 62
     1
 10
1690.329714
 20
1289.770092
 11
1689.819420
 21
1293.360841
  0
LINE
  8
CSLAYER1
  6
DASHED
 62
     1
 10
1690.103563
 20
1289.939962
 11
1689.632670
 21
1293.253463
  0
LINE
  8
CSLAYER1
  6
DASHED
 62
     1
 10
1689.877413
 20
1290.109833
 11
1689.445920
 21
1293.146085
  0
LINE
  8
CSLAYER1
  6
DASHED
 62
     1
 10
1689.651263
 20
1290.279703
 11
1689.259171
 21
1293.038707
  0
LINE
  8
CSLAYER1
  6
DASHED
 62
     1
 10
1689.425112
 20
1290.449573
 11
1689.072421
 21
1292.931329
  0
LINE
  8
CSLAYER1
  6
DASHED
 62
     1
 10
1689.198962
 20
1290.619444
 11
1688.885671
 21
1292.823951
  0
LINE
  8
CSLAYER1
  6
DASHED
 62
     1
 10
1688.972811
 20
1290.789314
 11
1688.698922
 21
1292.716573
  0
LINE
  8
CSLAYER1
  6
DASHED
 62
     1
 10
1688.746661
 20
1290.959185
 11
1688.512172
 21
1292.609195
  0
LINE
  8
CSLAYER1
  6
DASHED
 62
     1
 10
1688.520510
 20
1291.129055
 11
1688.325422
 21
1292.501818
  0
LINE
  8
CSLAYER1
  6
DASHED
 62
     1
 10
1688.294360
 20
1291.298926
 11
1688.138673
 21
1292.394440
  0
LINE
  8
CSLAYER1
  6
DASHED
 62
     1
 10
1688.068209
 20
1291.468796
 11
1687.951923
 21
1292.287062
  0
LINE
  8
CSLAYER1
  6
DASHED
 62
     1
 10
1687.842059
 20
1291.638667
 11
1687.765173
 21
1292.179684
  0
LINE
  8
CSLAYER1
  6
DASHED
 62
     1
 10
1687.615909
 20
1291.808537
 11
1687.578424
 21
1292.072306
  0
LINE
  8
CSLAYER1
  6
DASHED
 62
     1
 10
1692.544622
 20
1288.399269
 11
1691.686916
 21
1294.434619
  0
LINE
  8
CSLAYER1
  6
DASHED
 62
     1
 10
1692.724176
 20
1288.557280
 11
1691.913209
 21
1294.263749
  0
LINE
  8
CSLAYER1
  6
DASHED
 62
     1
 10
1692.903730
 20
1288.715291
 11
1692.216109
 21
1293.553820
  0
LINE
  8
CSLAYER1
  6
DASHED
 62
     1
 10
1693.083284
 20
1288.873302
 11
1692.510193
 21
1292.905927
  0
LINE
  8
CSLAYER1
  6
DASHED
 62
     1
 10
1693.262838
 20
1289.031314
 11
1692.797248
 21
1292.307491
  0
LINE
  8
CSLAYER1
  6
DASHED
 62
     1
 10
1693.442392
 20
1289.189325
 11
1693.078523
 21
1291.749735
  0
LINE
  8
CSLAYER1
  6
DASHED
 62
     1
 10
1693.621946
 20
1289.347336
 11
1693.354928
 21
1291.226242
  0
LINE
  8
CSLAYER1
  6
DASHED
 62
     1
 10
1693.801500
 20
1289.505347
 11
1693.627154
 21
1290.732150
  0
LINE
  8
CSLAYER1
  6
DASHED
 62
     1
 10
1693.981054
 20
1289.663359
 11
1693.895741
 21
1290.263674
  0
LINE
  8
CSLAYER1
  6
DASHED
 62
     1
 10
1717.472141
 20
1269.382348
 11
1718.679612
 21
1274.327540
  0
LINE
  8
CSLAYER1
  6
DASHED
 62
     1
 10
1718.679612
 20
1274.327540
 11
1712.507826
 21
1273.111240
  0
LINE
  8
CSLAYER1
  6
DASHED
 62
     1
 10
1712.507826
 20
1273.111240
 11
1713.524526
 21
1275.274604
  0
LINE
  8
CSLAYER1
  6
DASHED
 62
     1
 10
1712.507826
 20
1273.111240
 11
1718.593811
 21
1273.976141
  0
LINE
  8
CSLAYER1
  6
DASHED
 62
     1
 10
1712.733977
 20
1272.941369
 11
1718.542713
 21
1273.766870
  0
LINE
  8
CSLAYER1
  6
DASHED
 62
     1
 10
1712.960127
 20
1272.771499
 11
1718.491615
 21
1273.557598
  0
LINE
  8
CSLAYER1
  6
DASHED
 62
     1
 10
1713.186278
 20
1272.601628
 11
1718.440517
 21
1273.348327
  0
LINE
  8
CSLAYER1
  6
DASHED
 62
     1
 10
1713.412428
 20
1272.431758
 11
1718.389419
 21
1273.139056
  0
LINE
  8
CSLAYER1
  6
DASHED
 62
     1
 10
1713.638578
 20
1272.261887
 11
1718.338321
 21
1272.929785
  0
LINE
  8
CSLAYER1
  6
DASHED
 62
     1
 10
1713.864729
 20
1272.092017
 11
1718.287223
 21
1272.720513
  0
LINE
  8
CSLAYER1
  6
DASHED
 62
     1
 10
1714.090879
 20
1271.922146
 11
1718.236125
 21
1272.511242
  0
LINE
  8
CSLAYER1
  6
DASHED
 62
     1
 10
1714.317030
 20
1271.752276
 11
1718.185027
 21
1272.301971
  0
LINE
  8
CSLAYER1
  6
DASHED
 62
     1
 10
1714.543180
 20
1271.582406
 11
1718.133929
 21
1272.092700
  0
LINE
  8
CSLAYER1
  6
DASHED
 62
     1
 10
1714.769331
 20
1271.412535
 11
1718.082831
 21
1271.883429
  0
LINE
  8
CSLAYER1
  6
DASHED
 62
     1
 10
1714.995481
 20
1271.242665
 11
1718.031733
 21
1271.674157
  0
LINE
  8
CSLAYER1
  6
DASHED
 62
     1
 10
1715.221631
 20
1271.072794
 11
1717.980635
 21
1271.464886
  0
LINE
  8
CSLAYER1
  6
DASHED
 62
     1
 10
1715.447782
 20
1270.902924
 11
1717.929538
 21
1271.255615
  0
LINE
  8
CSLAYER1
  6
DASHED
 62
     1
 10
1715.673932
 20
1270.733053
 11
1717.878440
 21
1271.046344
  0
LINE
  8
CSLAYER1
  6
DASHED
 62
     1
 10
1715.900083
 20
1270.563183
 11
1717.827342
 21
1270.837072
  0
LINE
  8
CSLAYER1
  6
DASHED
 62
     1
 10
1716.126233
 20
1270.393312
 11
1717.776244
 21
1270.627801
  0
LINE
  8
CSLAYER1
  6
DASHED
 62
     1
 10
1716.352384
 20
1270.223442
 11
1717.725146
 21
1270.418530
  0
LINE
  8
CSLAYER1
  6
DASHED
 62
     1
 10
1716.578534
 20
1270.053571
 11
1717.674048
 21
1270.209259
  0
LINE
  8
CSLAYER1
  6
DASHED
 62
     1
 10
1716.804685
 20
1269.883701
 11
1717.622950
 21
1269.999987
  0
LINE
  8
CSLAYER1
  6
DASHED
 62
     1
 10
1717.030835
 20
1269.713830
 11
1717.571852
 21
1269.790716
  0
LINE
  8
CSLAYER1
  6
DASHED
 62
     1
 10
1717.256985
 20
1269.543960
 11
1717.520754
 21
1269.581445
  0
LINE
  8
CSLAYER1
  6
DASHED
 62
     1
 10
1712.609558
 20
1273.327707
 11
1718.644909
 21
1274.185412
  0
LINE
  8
CSLAYER1
  6
DASHED
 62
     1
 10
1712.711289
 20
1273.544174
 11
1718.417758
 21
1274.355141
  0
LINE
  8
CSLAYER1
  6
DASHED
 62
     1
 10
1712.813020
 20
1273.760641
 11
1717.651549
 21
1274.448261
  0
LINE
  8
CSLAYER1
  6
DASHED
 62
     1
 10
1712.914752
 20
1273.977108
 11
1716.947376
 21
1274.550198
  0
LINE
  8
CSLAYER1
  6
DASHED
 62
     1
 10
1713.016483
 20
1274.193575
 11
1716.292661
 21
1274.659164
  0
LINE
  8
CSLAYER1
  6
DASHED
 62
     1
 10
1713.118214
 20
1274.410041
 11
1715.678625
 21
1274.773911
  0
LINE
  8
CSLAYER1
  6
DASHED
 62
     1
 10
1713.219945
 20
1274.626508
 11
1715.098851
 21
1274.893526
  0
LINE
  8
CSLAYER1
  6
DASHED
 62
     1
 10
1713.321677
 20
1274.842975
 11
1714.548480
 21
1275.017321
  0
LINE
  8
CSLAYER1
  6
DASHED
 62
     1
 10
1713.423408
 20
1275.059442
 11
1714.023723
 21
1275.144755
  0
CIRCLE
  8
CSLAYER1
  6
DASHED
 62
     1
 10
1720.604078
 20
1304.863015
 40
22.000000
  0
CIRCLE
  8
CSLAYER1
  6
DASHED
 62
     1
 10
1720.604078
 20
1304.863015
 40
22.250000
  0
ARC
  8
CSLAYER1
  6
DASHED
 62
     1
 10
1720.604078
 20
1304.863015
 40
30.250000
 50
-270.204447
 51
14.389295
  0
POINT
  8
CSLAYER1
 62
     1
 10
1608.273583
 20
1160.607498
  0
ARC
  8
CSLAYER1
  6
DASHED
 62
     1
 10
1608.273583
 20
1160.607498
 40
15.050000
 50
-69.738110
 51
20.126675
  0
ARC
  8
CSLAYER1
  6
DASHED
 62
     1
 10
1618.697567
 20
1132.370102
 40
15.050000
 50
110.261890
 51
133.108846
  0
ARC
  8
CSLAYER1
  6
DASHED
 62
     1
 10
1578.342732
 20
1163.794055
 40
15.050000
 50
335.109935
 51
353.922957
  0
ARC
  8
CSLAYER1
  6
DASHED
 62
     1
 10
1608.273583
 20
1160.607498
 40
13.000000
 50
104.461194
 51
359.723654
  0
ARC
  8
CSLAYER1
  6
DASHED
 62
     1
 10
1608.273583
 20
1160.607498
 40
15.050000
 50
84.058173
 51
173.922957
  0
POINT
  8
CSLAYER1
 62
     1
 10
1627.780451
 20
1185.658339
  0
POINT
  8
CSLAYER1
 62
     1
 10
1647.287319
 20
1210.709179
  0
CIRCLE
  8
CSLAYER1
  6
DASHED
 62
     1
 10
1608.273583
 20
1160.607498
 40
4.770000
  0
CIRCLE
  8
CSLAYER1
  6
DASHED
 62
     1
 10
1627.780451
 20
1185.658339
 40
4.770000
  0
ARC
  8
CSLAYER1
  6
DASHED
 62
     1
 10
1627.780451
 20
1185.658339
 40
13.000000
 50
-75.538806
 51
179.723654
  0
ARC
  8
CSLAYER1
  6
DASHED
 62
     1
 10
1627.780451
 20
1185.658339
 40
15.050000
 50
264.058173
 51
353.922957
  0
ARC
  8
CSLAYER1
  6
DASHED
 62
     1
 10
1647.287319
 20
1210.709179
 40
15.050000
 50
-69.738110
 51
20.126675
  0
ARC
  8
CSLAYER1
  6
DASHED
 62
     1
 10
1634.273281
 20
1160.482097
 40
13.000000
 50
104.461194
 51
179.723654
  0
ARC
  8
CSLAYER1
  6
DASHED
 62
     1
 10
1601.780754
 20
1185.783740
 40
13.000000
 50
284.461194
 51
359.723654
  0
ARC
  8
CSLAYER1
  6
DASHED
 62
     1
 10
1657.711302
 20
1182.471783
 40
15.050000
 50
110.261890
 51
173.922957
  0
ARC
  8
CSLAYER1
  6
DASHED
 62
     1
 10
1617.356468
 20
1213.895735
 40
15.050000
 50
290.261890
 51
353.922957
  0
CIRCLE
  8
CSLAYER1
  6
DASHED
 62
     1
 10
1608.273583
 20
1160.607498
 40
9.525000
  0
CIRCLE
  8
CSLAYER1
  6
DASHED
 62
     1
 10
1627.780451
 20
1185.658339
 40
9.525000
  0
ARC
  8
CSLAYER1
  6
DASHED
 62
     1
 10
1627.780451
 20
1185.658339
 40
15.050000
 50
110.261890
 51
200.126675
  0
ARC
  8
CSLAYER1
  6
DASHED
 62
     1
 10
1647.287319
 20
1210.709179
 40
13.000000
 50
104.461194
 51
359.723654
  0
ARC
  8
CSLAYER1
  6
DASHED
 62
     1
 10
1647.287319
 20
1210.709179
 40
15.050000
 50
84.058173
 51
173.922957
  0
POINT
  8
CSLAYER1
 62
     1
 10
1720.604078
 20
1304.863015
  0
POINT
  8
CSLAYER1
 62
     1
 10
1666.794187
 20
1235.760020
  0
LINE
  8
CSLAYER1
  6
DASHED
 62
     1
 10
1685.892292
 20
1239.899835
 11
1666.127770
 21
1255.290293
  0
LINE
  8
CSLAYER1
  6
DASHED
 62
     1
 10
1647.927693
 20
1231.439856
 11
1667.228997
 21
1216.410101
  0
CIRCLE
  8
CSLAYER1
  6
DASHED
 62
     1
 10
1666.794188
 20
1235.760021
 40
4.770000
  0
ARC
  8
CSLAYER1
  6
DASHED
 62
     1
 10
1666.794188
 20
1235.760021
 40
13.000000
 50
-76.877857
 51
179.723654
  0
ARC
  8
CSLAYER1
  6
DASHED
 62
     1
 10
1673.287018
 20
1210.583779
 40
13.000000
 50
104.461194
 51
179.723654
  0
ARC
  8
CSLAYER1
  6
DASHED
 62
     1
 10
1640.794490
 20
1235.885423
 40
13.000000
 50
284.461194
 51
359.723654
  0
LINE
  8
CSLAYER1
  6
DASHED
 62
     1
 10
1646.021686
 20
1234.456116
 11
1662.968015
 21
1256.218697
  0
LINE
  8
CSLAYER1
  6
DASHED
 62
     1
 10
1668.441295
 20
1251.970952
 11
1651.481151
 21
1230.190629
  0
ARC
  8
CSLAYER1
  6
DASHED
 62
     1
 10
1663.019371
 20
1250.634797
 40
5.584136
 50
13.843874
 51
90.526941
  0
ARC
  8
CSLAYER1
  6
DASHED
 62
     1
 10
1656.403417
 20
1222.416129
 40
31.912350
 50
36.346245
 51
67.838602
  0
ARC
  8
CSLAYER1
  6
DASHED
 62
     1
 10
1651.447919
 20
1235.774667
 40
5.584136
 50
193.657906
 51
270.340973
  0
ARC
  8
CSLAYER1
  6
DASHED
 62
     1
 10
1677.184959
 20
1249.103914
 40
31.912350
 50
216.346245
 51
247.838602
  0
LINE
  8
CSLAYER1
  6
DASHED
 62
     1
 10
1670.620361
 20
1215.301346
 11
1687.566690
 21
1237.063926
  0
LINE
  8
CSLAYER1
  6
DASHED
 62
     1
 10
1682.107225
 20
1241.329413
 11
1665.147081
 21
1219.549091
  0
ARC
  8
CSLAYER1
  6
DASHED
 62
     1
 10
1682.140457
 20
1235.745376
 40
5.584136
 50
13.657906
 51
90.340973
  0
ARC
  8
CSLAYER1
  6
DASHED
 62
     1
 10
1670.569005
 20
1220.885246
 40
5.584136
 50
193.843874
 51
270.526941
  0
LINE
  8
CSLAYER1
  6
DASHED
 62
     1
 10
1722.420763
 20
1335.387424
 11
1726.793855
 21
1341.003377
  0
LINE
  8
CSLAYER1
  6
DASHED
 62
     1
 10
1729.253728
 20
1330.066655
 11
1735.959001
 21
1338.677608
  0
LINE
  8
CSLAYER1
  6
DASHED
 62
     1
 10
1750.683246
 20
1313.379679
 11
1721.490140
 21
1336.112092
  0
LINE
  8
CSLAYER1
  6
DASHED
 62
     1
 10
1733.467493
 20
1345.796771
 11
1733.774688
 21
1346.191272
  0
LINE
  8
CSLAYER1
  6
DASHED
 62
     1
 10
1749.752623
 20
1314.104346
 11
1754.062129
 21
1319.638640
  0
LINE
  8
CSLAYER1
  6
DASHED
 62
     1
 10
1742.919658
 20
1319.425116
 11
1744.136148
 21
1320.987340
  0
LINE
  8
CSLAYER1
  6
DASHED
 62
     1
 10
1675.447402
 20
1260.707404
 11
1701.430591
 21
1294.075175
  0
LINE
  8
CSLAYER1
  6
DASHED
 62
     1
 10
1669.348782
 20
1255.316965
 11
1700.674521
 21
1295.545674
  0
LINE
  8
CSLAYER1
  6
DASHED
 62
     1
 10
1748.717199
 20
1310.854870
 11
1719.524094
 21
1333.587282
  0
LINE
  8
CSLAYER1
  6
DASHED
 62
     1
 10
1748.717199
 20
1310.854870
 11
1750.683246
 21
1313.379679
  0
LINE
  8
CSLAYER1
  6
DASHED
 62
     1
 10
1719.524094
 20
1333.587282
 11
1721.490140
 21
1336.112092
  0
LINE
  8
CSLAYER1
  6
DASHED
 62
     1
 10
1674.263898
 20
1261.628988
 11
1690.043955
 21
1249.341197
  0
LINE
  8
CSLAYER1
  6
DASHED
 62
     1
 10
1675.447402
 20
1260.707404
 11
1672.667667
 21
1259.579098
  0
LINE
  8
CSLAYER1
  6
DASHED
 62
     1
 10
1688.860451
 20
1250.262782
 11
1714.843639
 21
1283.630553
  0
LINE
  8
CSLAYER1
  6
DASHED
 62
     1
 10
1688.860451
 20
1250.262782
 11
1688.447724
 21
1247.291308
  0
LINE
  8
CSLAYER1
  6
DASHED
 62
     1
 10
1685.128839
 20
1243.029174
 11
1716.454578
 21
1283.257883
  0
ARC
  8
CSLAYER1
  6
DASHED
 62
     1
 10
1686.706844
 20
1241.800395
 40
2.000000
 50
142.092424
 51
232.092424
  0
ARC
  8
CSLAYER1
  6
DASHED
 62
     1
 10
1667.770776
 20
1256.545744
 40
2.000000
 50
232.092424
 51
322.092424
  0
POINT
  8
CSLAYER1
 62
     1
 10
1676.010031
 20
1247.595064
  0
LINE
  8
CSLAYER1
  6
DASHED
 62
     1
 10
1724.753575
 20
1326.468144
 11
1726.230618
 21
1328.364971
  0
LINE
  8
CSLAYER1
  6
DASHED
 62
     1
 10
1726.364514
 20
1326.095473
 11
1727.414122
 21
1327.443387
  0
LINE
  8
CSLAYER1
  6
DASHED
 62
     1
 10
1740.570327
 20
1314.227477
 11
1742.010675
 21
1316.077181
  0
LINE
  8
CSLAYER1
  6
DASHED
 62
     1
 10
1739.777562
 20
1315.650851
 11
1740.827171
 21
1316.998765
  0
CIRCLE
  8
CSLAYER1
  6
DASHED
 62
     1
 10
1647.287319
 20
1210.709179
 40
4.770000
  0
CIRCLE
  8
CSLAYER1
  6
DASHED
 62
     1
 10
1647.287319
 20
1210.709179
 40
9.525000
  0
CIRCLE
  8
CSLAYER1
  6
DASHED
 62
     1
 10
1666.794187
 20
1235.760020
 40
9.525000
  0
ARC
  8
CSLAYER1
  6
DASHED
 62
     1
 10
1798.043118
 20
1305.760945
 40
17.000000
 50
-25.687221
 51
63.594662
  0
LINE
  8
CSLAYER1
  6
DASHED
 62
     1
 10
1761.212656
 20
1260.911006
 11
1792.100355
 21
1278.989830
  0
ARC
  8
CSLAYER1
  6
DASHED
 62
     1
 10
1723.467560
 20
1308.674044
 40
32.500000
 50
-37.417672
 51
22.263747
  0
LINE
  8
CSLAYER1
  6
DASHED
 62
     1
 10
1749.279946
 20
1288.926367
 11
1645.984404
 21
1153.907734
  0
LINE
  8
CSLAYER1
  6
DASHED
 62
     1
 10
1697.655175
 20
1328.421721
 11
1594.359633
 21
1193.403088
  0
ARC
  8
CSLAYER1
  6
DASHED
 62
     1
 10
1620.172019
 20
1173.655411
 40
32.500000
 50
142.582328
 51
322.582328
  0
LINE
  8
CSLAYER1
  6
DASHED
 62
     1
 10
1667.031427
 20
1137.805782
 11
1761.212656
 21
1260.911006
  0
POINT
  8
CSLAYER1
 62
     1
 10
1723.467560
 20
1308.674044
  0
LINE
  8
CSLAYER1
  6
DASHED
 62
     1
 10
1745.734721
 20
1345.987340
 11
1745.734721
 21
1320.987340
  0
ARC
  8
CSLAYER1
  6
DASHED
 62
     1
 10
1723.467560
 20
1308.674044
 40
32.500000
 50
46.753114
 51
142.582328
  0
LINE
  8
CSLAYER1
  6
CONTINUOUS
 62
     5
 10
1357.951122
 20
856.908104
 11
1416.448716
 21
856.908104
  0
LINE
  8
CSLAYER1
  6
CONTINUOUS
 62
     5
 10
1384.127541
 20
886.326557
 11
1384.127541
 21
821.137356
  0
LINE
  8
CSLAYER1
  6
CENTER
 62
     5
 10
1059.345760
 20
1926.214414
 11
2318.672753
 21
1926.214414
  0
LINE
  8
CSLAYER1
  6
CENTER
 62
     5
 10
2116.959897
 20
610.353740
 11
2116.959897
 21
601.016701
  0
LINE
  8
CSLAYER1
  6
CENTER
 62
     5
 10
2048.135073
 20
582.941722
 11
2058.987910
 21
582.941722
  0
LINE
  8
CSLAYER1
  6
CENTER
 62
     5
 10
2213.360148
 20
582.941722
 11
2177.428092
 21
582.941722
  0
LINE
  8
CSLAYER1
  6
CONTINUOUS
 62
     1
 10
2212.422865
 20
586.741722
 11
2211.159897
 21
586.741722
  0
LINE
  8
CSLAYER1
  6
DOT
 62
     1
 10
2183.159897
 20
597.941722
 11
2183.159897
 21
567.641722
  0
LINE
  8
CSLAYER1
  6
DOT
 62
     1
 10
2211.159897
 20
591.441722
 11
2211.159897
 21
574.441722
  0
LINE
  8
CSLAYER1
  6
DOT
 62
     1
 10
2207.190330
 20
595.932103
 11
2192.562460
 21
595.932103
  0
LINE
  8
CSLAYER1
  6
DOT
 62
     1
 10
2208.050802
 20
594.441722
 11
2208.050802
 21
571.441722
  0
LINE
  8
CSLAYER1
  6
DOT
 62
     1
 10
2191.701988
 20
594.441722
 11
2191.701988
 21
571.441722
  0
LINE
  8
CSLAYER1
  6
CONTINUOUS
 62
     1
 10
2208.050802
 20
594.441722
 11
2207.190330
 21
595.932103
  0
LINE
  8
CSLAYER1
  6
CONTINUOUS
 62
     1
 10
2191.701988
 20
594.441722
 11
2192.562460
 21
595.932103
  0
LINE
  8
CSLAYER1
  6
DOT
 62
     1
 10
2207.190330
 20
589.581250
 11
2192.562460
 21
589.581250
  0
ARC
  8
CSLAYER1
  6
DOT
 62
     1
 10
2182.004777
 20
582.941722
 40
26.046025
 50
-14.768561
 51
14.768561
  0
ARC
  8
CSLAYER1
  6
DOT
 62
     1
 10
2201.919209
 20
592.756677
 40
6.153702
 50
-31.065581
 51
23.174644
  0
ARC
  8
CSLAYER1
  6
DOT
 62
     1
 10
2197.833581
 20
592.756677
 40
6.153702
 50
156.825356
 51
211.065581
  0
ARC
  8
CSLAYER1
  6
DOT
 62
     1
 10
2217.748013
 20
582.941722
 40
26.046025
 50
165.231439
 51
194.768561
  0
LINE
  8
CSLAYER1
  6
CONTINUOUS
 62
     3
 10
2208.159897
 20
594.441722
 11
2208.050802
 21
594.441722
  0
ARC
  8
CSLAYER1
  6
DOT
 62
     1
 10
2208.159897
 20
591.441722
 40
3.000000
 50
0.000000
 51
90.000000
  0
LINE
  8
CSLAYER1
  6
DOT
 62
     1
 10
2188.159897
 20
594.441722
 11
2188.159897
 21
571.441722
  0
LINE
  8
CSLAYER1
  6
CONTINUOUS
 62
     1
 10
2188.159897
 20
594.441722
 11
2187.299425
 21
595.932103
  0
ARC
  8
CSLAYER1
  6
DOT
 62
     1
 10
2162.113872
 20
582.941722
 40
26.046025
 50
-14.768561
 51
14.768561
  0
ARC
  8
CSLAYER1
  6
DOT
 62
     1
 10
2182.028303
 20
592.756677
 40
6.153702
 50
-31.065581
 51
23.174644
  0
LINE
  8
CSLAYER1
  6
DOT
 62
     1
 10
2187.299425
 20
589.581250
 11
2183.159897
 21
589.581250
  0
LINE
  8
CSLAYER1
  6
DOT
 62
     1
 10
2187.299425
 20
595.932103
 11
2183.159897
 21
595.932103
  0
LINE
  8
CSLAYER1
  6
CONTINUOUS
 62
     1
 10
2191.701988
 20
593.277846
 11
2188.159897
 21
593.277846
  0
LINE
  8
CSLAYER1
  6
CONTINUOUS
 62
     1
 10
2191.701988
 20
592.631469
 11
2190.095626
 21
592.631469
  0
LINE
  8
CSLAYER1
  6
DOT
 62
     1
 10
2190.095626
 20
593.277846
 11
2190.095626
 21
572.605598
  0
LINE
  8
CSLAYER1
  6
CONTINUOUS
 62
     1
 10
2190.095626
 20
592.631469
 11
2188.960774
 21
593.277846
  0
LINE
  8
CSLAYER1
  6
DOT
 62
     1
 10
2207.190330
 20
569.951341
 11
2192.562460
 21
569.951341
  0
LINE
  8
CSLAYER1
  6
CONTINUOUS
 62
     1
 10
2208.050802
 20
571.441722
 11
2207.190330
 21
569.951341
  0
LINE
  8
CSLAYER1
  6
CONTINUOUS
 62
     1
 10
2191.701988
 20
571.441722
 11
2192.562460
 21
569.951341
  0
LINE
  8
CSLAYER1
  6
DOT
 62
     1
 10
2207.190330
 20
576.302194
 11
2192.562460
 21
576.302194
  0
ARC
  8
CSLAYER1
  6
DOT
 62
     1
 10
2201.919209
 20
573.126768
 40
6.153702
 50
-23.174644
 51
31.065581
  0
ARC
  8
CSLAYER1
  6
DOT
 62
     1
 10
2197.833581
 20
573.126768
 40
6.153702
 50
148.934419
 51
203.174644
  0
LINE
  8
CSLAYER1
  6
CONTINUOUS
 62
     3
 10
2208.159897
 20
571.441722
 11
2208.050802
 21
571.441722
  0
ARC
  8
CSLAYER1
  6
DOT
 62
     1
 10
2208.159897
 20
574.441722
 40
3.000000
 50
270.000000
 51
360.000000
  0
LINE
  8
CSLAYER1
  6
CONTINUOUS
 62
     1
 10
2188.159897
 20
571.441722
 11
2187.299425
 21
569.951341
  0
ARC
  8
CSLAYER1
  6
DOT
 62
     1
 10
2182.028303
 20
573.126768
 40
6.153702
 50
-23.174644
 51
31.065581
  0
LINE
  8
CSLAYER1
  6
DOT
 62
     1
 10
2187.299425
 20
576.302194
 11
2183.159897
 21
576.302194
  0
LINE
  8
CSLAYER1
  6
DOT
 62
     1
 10
2187.299425
 20
569.951341
 11
2183.159897
 21
569.951341
  0
LINE
  8
CSLAYER1
  6
CONTINUOUS
 62
     1
 10
2191.701988
 20
572.605598
 11
2188.159897
 21
572.605598
  0
LINE
  8
CSLAYER1
  6
CONTINUOUS
 62
     1
 10
2191.701988
 20
573.251976
 11
2190.095626
 21
573.251976
  0
LINE
  8
CSLAYER1
  6
CONTINUOUS
 62
     1
 10
2190.095626
 20
573.251976
 11
2188.960774
 21
572.605598
  0
LINE
  8
CSLAYER1
  6
DOT
 62
     1
 10
2050.759897
 20
597.941722
 11
2050.759897
 21
567.641722
  0
LINE
  8
CSLAYER1
  6
DOT
 62
     1
 10
2049.459897
 20
603.941722
 11
2184.459897
 21
603.941722
  0
LINE
  8
CSLAYER1
  6
DOT
 62
     1
 10
2049.459897
 20
597.941722
 11
2184.459897
 21
597.941722
  0
LINE
  8
CSLAYER1
  6
DOT
 62
     1
 10
2049.459897
 20
603.941722
 11
2049.459897
 21
597.941722
  0
LINE
  8
CSLAYER1
  6
DOT
 62
     1
 10
2184.459897
 20
603.941722
 11
2184.459897
 21
597.941722
  0
ARC
  8
CSLAYER1
  6
DOT
 62
     1
 10
2048.609897
 20
550.791588
 40
25.650135
 50
90.000000
 51
138.934462
  0
ARC
  8
CSLAYER1
  6
DOT
 62
     1
 10
2048.609897
 20
550.791588
 40
28.654497
 50
89.000180
 51
143.981600
  0
ARC
  8
CSLAYER1
  6
DOT
 62
     1
 10
2048.609897
 20
550.791588
 40
35.653641
 50
89.196468
 51
151.796391
  0
ARC
  8
CSLAYER1
  6
DOT
 62
     1
 10
2048.609897
 20
550.791588
 40
38.650135
 50
90.000000
 51
154.153239
  0
LINE
  8
CSLAYER1
  6
CONTINUOUS
 62
     1
 10
2212.422865
 20
579.141722
 11
2211.159897
 21
579.141722
  0
LINE
  8
CSLAYER1
  6
CONTINUOUS
 62
     1
 10
2049.609897
 20
593.441722
 11
2050.609897
 21
593.441722
  0
LINE
  8
CSLAYER1
  6
DOT
 62
     1
 10
2048.609897
 20
592.441722
 11
2048.609897
 21
586.445228
  0
ARC
  8
CSLAYER1
  6
CONTINUOUS
 62
     1
 10
2049.609897
 20
592.441722
 40
1.000000
 50
90.000000
 51
180.000000
  0
LINE
  8
CSLAYER1
  6
CONTINUOUS
 62
     1
 10
2049.609897
 20
572.441722
 11
2050.609897
 21
572.441722
  0
ARC
  8
CSLAYER1
  6
CONTINUOUS
 62
     1
 10
2049.609897
 20
573.441722
 40
1.000000
 50
180.000000
 51
270.000000
  0
LINE
  8
CSLAYER1
  6
CONTINUOUS
 62
     1
 10
2049.709897
 20
589.441722
 11
2050.609897
 21
589.441722
  0
LINE
  8
CSLAYER1
  6
DOT
 62
     1
 10
2049.109897
 20
588.841722
 11
2049.109897
 21
577.041722
  0
ARC
  8
CSLAYER1
  6
CONTINUOUS
 62
     1
 10
2049.709897
 20
588.841722
 40
0.600000
 50
90.000000
 51
180.000000
  0
LINE
  8
CSLAYER1
  6
CONTINUOUS
 62
     1
 10
2049.709897
 20
576.441722
 11
2050.609897
 21
576.441722
  0
ARC
  8
CSLAYER1
  6
CONTINUOUS
 62
     1
 10
2049.709897
 20
577.041722
 40
0.600000
 50
180.000000
 51
270.000000
  0
LINE
  8
CSLAYER1
  6
CONTINUOUS
 62
     1
 10
2113.459897
 20
606.941722
 11
2113.459897
 21
604.741722
  0
LINE
  8
CSLAYER1
  6
CONTINUOUS
 62
     1
 10
2120.459897
 20
606.941722
 11
2120.459897
 21
604.741722
  0
LINE
  8
CSLAYER1
  6
CONTINUOUS
 62
     1
 10
2120.459897
 20
605.741722
 11
2113.459897
 21
605.741722
  0
LINE
  8
CSLAYER1
  6
CONTINUOUS
 62
     1
 10
2119.059897
 20
608.341722
 11
2114.859897
 21
608.341722
  0
LINE
  8
CSLAYER1
  6
CONTINUOUS
 62
     1
 10
2121.459897
 20
604.741722
 11
2121.459897
 21
603.941722
  0
LINE
  8
CSLAYER1
  6
CONTINUOUS
 62
     1
 10
2112.459897
 20
604.741722
 11
2112.459897
 21
603.941722
  0
LINE
  8
CSLAYER1
  6
CONTINUOUS
 62
     1
 10
2121.459897
 20
604.741722
 11
2112.459897
 21
604.741722
  0
ARC
  8
CSLAYER1
  6
CONTINUOUS
 62
     1
 10
2119.059897
 20
606.941722
 40
1.400000
 50
-0.000000
 51
90.000000
  0
ARC
  8
CSLAYER1
  6
CONTINUOUS
 62
     1
 10
2114.859897
 20
606.941722
 40
1.400000
 50
90.000000
 51
180.000000
  0
LINE
  8
CSLAYER1
  6
CONTINUOUS
 62
     1
 10
2117.999849
 20
604.741722
 11
2115.614646
 21
605.741722
  0
LINE
  8
CSLAYER1
  6
DOT
 62
     1
 10
2048.609897
 20
579.446085
 11
2048.609897
 21
573.441722
  0
ARC
  8
CSLAYER1
  6
CENTER
 62
     5
 10
2048.609897
 20
550.791588
 40
32.153641
 50
90.846136
 51
148.395648
  0
LINE
  8
CSLAYER1
  6
CONTINUOUS
 62
     1
 10
2282.923653
 20
521.731960
 11
2268.113374
 21
525.174760
  0
LINE
  8
CSLAYER1
  6
CONTINUOUS
 62
     1
 10
2268.113374
 20
525.174760
 11
2253.896563
 21
530.383599
  0
LINE
  8
CSLAYER1
  6
CONTINUOUS
 62
     1
 10
2253.896563
 20
530.383599
 11
2239.978045
 21
538.727045
  0
LINE
  8
CSLAYER1
  6
CONTINUOUS
 62
     1
 10
2250.606275
 20
523.495065
 11
2234.714431
 21
533.021420
  0
LINE
  8
CSLAYER1
  6
CONTINUOUS
 62
     1
 10
2265.937491
 20
517.877924
 11
2250.606275
 21
523.495065
  0
LINE
  8
CSLAYER1
  6
CONTINUOUS
 62
     1
 10
2281.202839
 20
514.329339
 11
2265.937491
 21
517.877924
  0
LINE
  8
CSLAYER1
  6
CONTINUOUS
 62
     1
 10
2239.978045
 20
538.727045
 11
2231.401629
 21
550.726099
  0
LINE
  8
CSLAYER1
  6
CONTINUOUS
 62
     1
 10
2231.401629
 20
550.726099
 11
2228.616263
 21
561.641722
  0
LINE
  8
CSLAYER1
  6
CONTINUOUS
 62
     1
 10
2234.714431
 20
533.021420
 11
2224.389951
 21
547.466149
  0
LINE
  8
CSLAYER1
  6
CONTINUOUS
 62
     1
 10
2224.389951
 20
547.466149
 11
2220.772736
 21
561.641722
  0
ARC
  8
CSLAYER1
  6
DOT
 62
     1
 10
2212.422865
 20
574.141722
 40
5.000000
 50
14.314827
 51
90.000000
  0
ARC
  8
CSLAYER1
  6
DOT
 62
     1
 10
2212.422865
 20
574.141722
 40
12.600000
 50
14.314827
 51
90.000000
  0
LINE
  8
CSLAYER1
  6
DOT
 62
     1
 10
2219.241701
 20
567.641722
 11
2217.267624
 21
575.377971
  0
LINE
  8
CSLAYER1
  6
DOT
 62
     1
 10
2227.085229
 20
567.641722
 11
2224.631658
 21
577.257069
  0
LINE
  8
CSLAYER1
  6
DOT
 62
     1
 10
404.339402
 20
597.941722
 11
404.339402
 21
603.941722
  0
LINE
  8
CSLAYER1
  6
CONTINUOUS
 62
     1
 10
408.339402
 20
606.941722
 11
408.339402
 21
604.741722
  0
LINE
  8
CSLAYER1
  6
CONTINUOUS
 62
     1
 10
415.339402
 20
606.941722
 11
415.339402
 21
604.741722
  0
LINE
  8
CSLAYER1
  6
DOT
 62
     1
 10
415.339402
 20
605.741722
 11
408.339402
 21
605.741722
  0
LINE
  8
CSLAYER1
  6
DOT
 62
     1
 10
413.939402
 20
608.341722
 11
409.739402
 21
608.341722
  0
LINE
  8
CSLAYER1
  6
CONTINUOUS
 62
     1
 10
416.339402
 20
604.741722
 11
416.339402
 21
603.941722
  0
LINE
  8
CSLAYER1
  6
CONTINUOUS
 62
     1
 10
407.339402
 20
604.741722
 11
407.339402
 21
603.941722
  0
LINE
  8
CSLAYER1
  6
DOT
 62
     1
 10
416.339402
 20
604.741722
 11
407.339402
 21
604.741722
  0
ARC
  8
CSLAYER1
  6
CONTINUOUS
 62
     1
 10
413.939402
 20
606.941722
 40
1.400000
 50
-0.000000
 51
90.000000
  0
ARC
  8
CSLAYER1
  6
CONTINUOUS
 62
     1
 10
409.739402
 20
606.941722
 40
1.400000
 50
90.000000
 51
180.000000
  0
LINE
  8
CSLAYER1
  6
CONTINUOUS
 62
     1
 10
412.879354
 20
604.741722
 11
410.494152
 21
605.741722
  0
LINE
  8
CSLAYER1
  6
CONTINUOUS
 62
     1
 10
411.839402
 20
610.170071
 11
411.839402
 21
594.971894
  0
LINE
  8
CSLAYER1
  6
DOT
 62
     1
 10
404.339402
 20
597.941722
 11
445.172745
 21
597.941722
  0
LINE
  8
CSLAYER1
  6
DOT
 62
     1
 10
404.339402
 20
603.941722
 11
439.460663
 21
603.941722
  0
LINE
  8
CSLAYER1
  6
DOT
 62
     1
 10
405.839402
 20
597.941722
 11
405.839402
 21
567.641722
  0
POINT
  8
CSLAYER1
 62
     5
 10
425.839402
 20
582.941722
  0
POINT
  8
CSLAYER1
 62
     5
 10
465.839402
 20
582.941722
  0
LINE
  8
CSLAYER1
  6
CONTINUOUS
 62
     1
 10
576.339402
 20
606.941722
 11
576.339402
 21
604.741722
  0
LINE
  8
CSLAYER1
  6
CONTINUOUS
 62
     1
 10
578.818814
 20
605.741722
 11
576.339402
 21
605.741722
  0
LINE
  8
CSLAYER1
  6
CONTINUOUS
 62
     1
 10
579.135743
 20
608.341722
 11
577.739402
 21
608.341722
  0
LINE
  8
CSLAYER1
  6
CONTINUOUS
 62
     1
 10
575.339402
 20
604.741722
 11
575.339402
 21
603.941722
  0
LINE
  8
CSLAYER1
  6
CONTINUOUS
 62
     1
 10
578.696918
 20
604.741722
 11
575.339402
 21
604.741722
  0
ARC
  8
CSLAYER1
  6
CONTINUOUS
 62
     1
 10
577.739402
 20
606.941722
 40
1.400000
 50
90.000000
 51
180.000000
  0
LINE
  8
CSLAYER1
  6
DOT
 62
     1
 10
578.599401
 20
603.941722
 11
552.266325
 21
603.941722
  0
LINE
  8
CSLAYER1
  6
DOT
 62
     1
 10
546.506060
 20
597.941722
 11
578.039402
 21
597.941722
  0
TEXT
  8
CSLAYER1
 62
     4
 10
2694.014404
 20
1196.354370
 40
40.000000
 41
1.036364
  1
操作方式
 50
0.000000
 51
0.000000
  7
EASYDRAW_FONT
 72
     5
 11
2846.014404
 21
1196.354370
  0
TEXT
  8
CSLAYER1
 62
     4
 10
2975.656006
 20
1191.060913
 40
40.000000
 41
1.020000
  1
フットスイッチ
 50
0.000000
 51
0.000000
  7
EASYDRAW_FONT
 72
     5
 11
3247.656006
 21
1191.060913
  0
LINE
  8
CSLAYER1
  6
CONTINUOUS
 62
     5
 10
3405.144810
 20
1184.328149
 11
2684.272293
 21
1184.328149
  0
LINE
  8
CSLAYER1
  6
CONTINUOUS
 62
     5
 10
3405.144810
 20
1120.328151
 11
2684.272293
 21
1120.328151
  0
TEXT
  8
CSLAYER1
 62
     4
 10
2695.445557
 20
1130.281616
 40
40.000000
 41
0.872727
  1
モーター
 50
0.000000
 51
0.000000
  7
EASYDRAW_FONT
 72
     5
 11
2823.445557
 21
1130.281616
  0
LINE
  8
CSLAYER1
  6
CONTINUOUS
 62
     5
 10
3405.144810
 20
1056.328152
 11
2684.272293
 21
1056.328152
  0
LINE
  8
CSLAYER1
  6
CONTINUOUS
 62
     5
 10
3405.144810
 20
928.328155
 11
2682.133791
 21
928.328155
  0
LINE
  8
CSLAYER1
  6
CONTINUOUS
 62
     5
 10
3405.144810
 20
864.328157
 11
2684.272293
 21
864.328157
  0
LINE
  8
CSLAYER1
  6
CONTINUOUS
 62
     5
 10
3405.144810
 20
800.328159
 11
2684.272293
 21
800.328159
  0
TEXT
  8
CSLAYER1
 62
     4
 10
2698.027100
 20
811.450012
 40
40.000000
 41
0.857143
  1
自  　重
 50
0.000000
 51
0.000000
  7
EASYDRAW_FONT
 72
     5
 11
2858.027100
 21
811.450012
  0
TEXT
  8
CSLAYER1
 62
     4
 10
2700.976318
 20
747.378967
 40
40.000000
 41
0.847059
  1
塗　装　色 
 50
0.000000
 51
0.000000
  7
EASYDRAW_FONT
 72
     5
 11
2892.976318
 21
747.378967
  0
TEXT
  8
CSLAYER1
 62
     4
 10
2926.552002
 20
1131.198608
 40
40.000000
 41
0.819512
  1
３相ＡＣ２００Ｖ、0.4ＫＷ
 50
0.000000
 51
0.000000
  7
EASYDRAW_FONT
 72
     5
 11
3374.552002
 21
1131.198608
  0
TEXT
  8
CSLAYER1
 62
     4
 10
3057.535400
 20
1067.354858
 40
40.000000
 41
0.840000
  1
長サ  ４ ｍ
 50
0.000000
 51
0.000000
  7
EASYDRAW_FONT
 72
     5
 11
3281.535400
 21
1067.354858
  0
TEXT
  8
CSLAYER1
 62
     3
 10
3170.175049
 20
813.349426
 40
40.000000
 41
0.847059
  1
１６８　Ｋｇ
 50
0.000000
 51
0.000000
  7
EASYDRAW_FONT
 72
     5
 11
3362.175049
 21
813.349426
  0
LINE
  8
CSLAYER1
  6
CONTINUOUS
 62
     5
 10
3405.144810
 20
992.328154
 11
2684.272293
 21
992.328154
  0
TEXT
  8
CSLAYER1
 62
     4
 10
2696.361816
 20
1066.964233
 40
40.000000
 41
0.942857
  1
電源コード
 50
0.000000
 51
0.000000
  7
EASYDRAW_FONT
 72
     5
 11
2872.361816
 21
1066.964233
  0
TEXT
  8
CSLAYER1
 62
     4
 10
2696.790787
 20
997.842722
 40
47.730206
 41
0.593339
  1
昇降時間 ２２秒（50HZ） １８秒(60HZ)
 50
0.000000
 51
0.000000
  7
EASYDRAW_FONT
 72
     5
 11
3367.035873
 21
997.842722
  0
TEXT
  8
CSLAYER1
 62
     4
 10
2698.091553
 20
872.399719
 40
40.000000
 41
0.912766
  1
上昇端、下降端リミットスイッチ付
 50
0.000000
 51
0.000000
  7
EASYDRAW_FONT
 72
     5
 11
3270.091553
 21
872.399719
  0
TEXT
  8
CSLAYER1
 62
     4
 10
2699.938287
 20
937.063099
 40
45.879784
 41
0.605080
  1
最大使用頻度８０回／時間・最大起動頻度１０回／分
 50
0.000000
 51
0.000000
  7
EASYDRAW_FONT
 72
     5
 11
3356.946966
 21
937.063099
  0
LINE
  8
CSLAYER1
  6
CONTINUOUS
 62
     5
 10
3405.144810
 20
1241.660153
 11
2684.272293
 21
1241.660153
  0
TEXT
  8
CSLAYER1
 62
     4
 10
2697.713623
 20
1251.404663
 40
40.000000
 41
0.872727
  1
制御方式
 50
0.000000
 51
0.000000
  7
EASYDRAW_FONT
 72
     5
 11
2825.713623
 21
1251.404663
  0
LINE
  8
CSLAYER1
  6
CONTINUOUS
 62
     3
 10
2294.834136
 20
1922.514414
 11
2379.368969
 21
1922.514414
  0
LINE
  8
CSLAYER1
  6
CONTINUOUS
 62
     3
 10
2294.834136
 20
1929.514414
 11
2379.368969
 21
1929.514414
  0
LINE
  8
CSLAYER1
  6
CONTINUOUS
 62
     3
 10
2294.834136
 20
1964.714414
 11
2335.760675
 21
1964.714414
  0
LINE
  8
CSLAYER1
  6
CONTINUOUS
 62
     3
 10
2294.834136
 20
1957.714414
 11
2335.760675
 21
1957.714414
  0
TEXT
  8
CSLAYER1
 62
     5
 10
2942.627441
 20
2088.179443
 40
40.000000
 41
1.020000
  1
ＵＰ・ＤＯＷＮ
 50
360.000000
 51
0.000000
  7
EASYDRAW_FONT
 72
     5
 11
3214.627441
 21
2088.179443
  0
TEXT
  8
CSLAYER1
 62
     5
 10
2942.627441
 20
2139.956787
 40
40.000000
 41
1.020000
  1
フットスイッチ
 50
360.000000
 51
0.000000
  7
EASYDRAW_FONT
 72
     5
 11
3214.627441
 21
2139.956787
  0
TEXT
  8
CSLAYER1
 62
     5
 10
2853.729980
 20
2205.082764
 40
40.000000
 41
1.036364
  1
長サ４ｍ
 50
360.000000
 51
0.000000
  7
EASYDRAW_FONT
 72
     5
 11
3005.729980
 21
2205.082764
  0
TEXT
  8
CSLAYER1
 62
     5
 10
2840.795654
 20
2257.066162
 40
40.000000
 41
1.028571
  1
電源コード
 50
360.000000
 51
0.000000
  7
EASYDRAW_FONT
 72
     5
 11
3032.795654
 21
2257.066162
  0
LINE
  8
CSLAYER1
  6
CONTINUOUS
 62
     3
 10
2606.036228
 20
2085.674692
 11
2720.098613
 21
2085.674692
  0
LINE
  8
CSLAYER1
  6
CONTINUOUS
 62
     3
 10
2606.036228
 20
2078.674692
 11
2720.098613
 21
2078.674692
  0
ARC
  8
CSLAYER1
  6
CONTINUOUS
 62
     3
 10
2606.036228
 20
2038.674692
 40
40.000000
 50
-270.000000
 51
63.051119
  0
ARC
  8
CSLAYER1
  6
CONTINUOUS
 62
     3
 10
2606.036228
 20
2038.674692
 40
47.000000
 50
-270.000000
 51
50.026912
  0
LINE
  8
CSLAYER1
  6
CONTINUOUS
 62
     3
 10
2414.899181
 20
2003.582616
 11
2513.348232
 21
2131.030376
  0
LINE
  8
CSLAYER1
  6
CONTINUOUS
 62
     3
 10
2420.438877
 20
1999.303390
 11
2526.654957
 21
2136.806002
  0
LINE
  8
CSLAYER1
  6
CONTINUOUS
 62
     3
 10
2447.191498
 20
1956.029010
 11
2560.065919
 21
2060.205191
  0
LINE
  8
CSLAYER1
  6
CONTINUOUS
 62
     3
 10
2451.939075
 20
1950.885032
 11
2554.592109
 21
2045.627499
  0
ARC
  8
CSLAYER1
  6
CONTINUOUS
 62
     3
 10
2503.276712
 20
2183.424630
 40
47.000000
 50
-10.756396
 51
307.198537
  0
ARC
  8
CSLAYER1
  6
CONTINUOUS
 62
     3
 10
2503.276712
 20
2183.424630
 40
40.000000
 50
-23.471057
 51
307.198537
  0
LINE
  8
CSLAYER1
  6
CONTINUOUS
 62
     3
 10
2718.242088
 20
2290.036869
 11
2723.312716
 21
2291.946586
  0
LINE
  8
CSLAYER1
  6
CONTINUOUS
 62
     3
 10
2723.312716
 20
2291.946586
 11
2729.737348
 21
2292.125048
  0
LINE
  8
CSLAYER1
  6
CONTINUOUS
 62
     3
 10
2717.187758
 20
2291.425971
 11
2722.836818
 21
2293.790693
  0
LINE
  8
CSLAYER1
  6
CONTINUOUS
 62
     3
 10
2722.836818
 20
2293.790693
 11
2728.190677
 21
2295.099414
  0
LINE
  8
CSLAYER1
  6
CONTINUOUS
 62
     3
 10
2716.345564
 20
2292.535580
 11
2721.230660
 21
2295.396851
  0
LINE
  8
CSLAYER1
  6
CONTINUOUS
 62
     3
 10
2721.230660
 20
2295.396851
 11
2723.550666
 21
2298.728142
  0
LINE
  8
CSLAYER1
  6
CONTINUOUS
 62
     3
 10
2719.425842
 20
2288.477249
 11
2715.193790
 21
2294.053066
  0
LINE
  8
CSLAYER1
  6
CONTINUOUS
 62
     3
 10
2715.193790
 20
2294.053066
 11
2527.459862
 21
2151.562815
  0
LINE
  8
CSLAYER1
  6
CONTINUOUS
 62
     3
 10
2719.425842
 20
2288.477249
 11
2531.691914
 21
2145.986998
  0
ARC
  8
CSLAYER1
  6
CONTINUOUS
 62
     3
 10
2335.760675
 20
2064.714414
 40
100.000000
 50
270.000000
 51
322.315137
  0
ARC
  8
CSLAYER1
  6
CONTINUOUS
 62
     3
 10
2335.760675
 20
2064.714414
 40
107.000000
 50
270.000000
 51
322.315137
  0
ARC
  8
CSLAYER1
  6
CONTINUOUS
 62
     3
 10
2379.368969
 20
2029.514414
 40
100.000000
 50
270.000000
 51
312.705116
  0
ARC
  8
CSLAYER1
  6
CONTINUOUS
 62
     3
 10
2379.368969
 20
2029.514414
 40
107.000000
 50
270.000000
 51
312.705116
  0
LINE
  8
CSLAYER1
  6
CONTINUOUS
 62
     5
 10
2827.989481
 20
2251.077397
 11
3044.049954
 21
2251.077397
  0
LINE
  8
CSLAYER1
  6
CONTINUOUS
 62
     5
 10
2931.556085
 20
2133.830266
 11
3220.800881
 21
2133.830266
  0
LINE
  8
CSLAYER1
  6
CONTINUOUS
 62
     5
 10
2729.737348
 20
2292.125048
 11
2827.989481
 21
2251.077397
  0
LINE
  8
CSLAYER1
  6
CONTINUOUS
 62
     5
 10
2729.737348
 20
2292.125048
 11
2759.468656
 21
2288.118884
  0
LINE
  8
CSLAYER1
  6
CONTINUOUS
 62
     5
 10
2729.737348
 20
2292.125048
 11
2753.482334
 21
2273.789954
  0
LINE
  8
CSLAYER1
  6
CONTINUOUS
 62
     5
 10
2817.098613
 20
2037.358969
 11
2931.556085
 21
2133.830266
  0
LINE
  8
CSLAYER1
  6
CONTINUOUS
 62
     5
 10
2817.098613
 20
2037.358969
 11
2834.251778
 21
2061.971342
  0
LINE
  8
CSLAYER1
  6
CONTINUOUS
 62
     5
 10
2817.098613
 20
2037.358969
 11
2844.259877
 21
2050.097327
  0
LINE
  8
CSLAYER1
  6
CONTINUOUS
 62
     5
 10
3405.144810
 20
736.328160
 11
2684.272293
 21
736.328160
  0
TEXT
  8
CSLAYER1
 62
     4
 10
3010.819824
 20
746.999451
 40
40.000000
 41
0.920690
  1
　　　１０Ｒ４／１３
 50
0.000000
 51
0.000000
  7
EASYDRAW_FONT
 72
     5
 11
3366.819824
 21
746.999451
  0
TEXT
  8
CSLAYER1
 62
     5
 10
2942.627441
 20
2038.072510
 40
40.000000
 41
1.020000
  1
コード長サ２ｍ
 50
360.000000
 51
0.000000
  7
EASYDRAW_FONT
 72
     5
 11
3214.627441
 21
2038.072510
  0
TEXT
  8
CSLAYER1
 62
     3
 10
2694.014404
 20
1765.686401
 40
40.000000
 41
1.036364
  1
積載荷重
 50
0.000000
 51
0.000000
  7
EASYDRAW_FONT
 72
     5
 11
2846.014404
 21
1765.686401
  0
TEXT
  8
CSLAYER1
 62
     5
 10
824.583466
 20
1129.826782
 40
43.887348
 41
0.307761
  1
ポリエステル地に樹脂コーティング
 50
0.000000
 51
0.000000
  7
EASYDRAW_FONT
 72
     5
 11
1036.189941
 21
1129.826782
  0
TEXT
  8
CSLAYER1
 62
     5
 10
2690.624756
 20
356.907196
 40
50.000000
 41
0.827586
  1
平成２８年４月１６日
 50
0.000000
 51
0.000000
  7
EASYDRAW_FONT
 72
     5
 11
3090.624756
 21
356.907196
  0
TEXT
  8
CSLAYER1
 62
     4
 10
2894.100586
 20
1253.393799
 40
40.000000
 41
0.825000
  1
マグネットスイッチ制御
 50
0.000000
 51
0.000000
  7
EASYDRAW_FONT
 72
     5
 11
3246.100586
 21
1253.393799
  0
INSERT
  8
CSLAYER1
  2
BLKF0001
 10
0.0
 20
0.0
 30
0.0
  0
ENDSEC
  0
EOF
