  0
SECTION
  2
HEADER
  9
$ACADVER
  1
AC1006
  9
$INSBASE
 10
-852.548860
 20
2235.146580
 30
0.0
  9
$EXTMIN
 10
-852.548860
 20
2235.146580
  9
$EXTMAX
 10
2787.451140
 20
4805.146580
  9
$LIMMIN
 10
-852.548860
 20
2235.146580
  9
$LIMMAX
 10
2787.451140
 20
4805.146580
  9
$VIEWCTR
 10
967.451140
 20
3520.146580
  9
$VIEWSIZE
 40
2570.000000
  9
$SNAPMODE
 70
     0
  9
$SNAPUNIT
 10
1.0
 20
1.0
  9
$SNAPBASE
 10
0.0
 20
0.0
  9
$SNAPANG
 50
0.0
  9
$SNAPSTYLE
 70
     0
  9
$SNAPISOPAIR
 70
     0
  9
$GRIDMODE
 70
     0
  9
$GRIDUNIT
 10
0.0
 20
0.0
  9
$ORTHOMODE
 70
     0
  9
$REGENMODE
 70
     1
  9
$FILLMODE
 70
     1
  9
$QTEXTMODE
 70
     0
  9
$DRAGMODE
 70
     2
  9
$LTSCALE
 40
15.000000
  9
$OSMODE
 70
     0
  9
$ATTMODE
 70
     1
  9
$TEXTSIZE
 40
0.2
  9
$TRACEWID
 40
0.05
  9
$TEXTSTYLE
  7
STANDARD
  9
$CLAYER
  8
CSLAYER1
  9
$CELTYPE
  6
BYLAYER
  9
$CECOLOR
 62
   256
  9
$DIMSCALE
 40
1.0
  9
$DIMASZ
 40
0.18
  9
$DIMEXO
 40
0.0625
  9
$DIMDLI
 40
0.38
  9
$DIMRND
 40
0.0
  9
$DIMDLE
 40
0.0
  9
$DIMEXE
 40
0.18
  9
$DIMTP
 40
0.0
  9
$DIMTM
 40
0.0
  9
$DIMTXT
 40
0.18
  9
$DIMCEN
 40
0.09
  9
$DIMTSZ
 40
0.0
  9
$DIMTOL
 70
     0
  9
$DIMLIM
 70
     0
  9
$DIMTIH
 70
     1
  9
$DIMTOH
 70
     1
  9
$DIMSE1
 70
     0
  9
$DIMSE2
 70
     0
  9
$DIMTAD
 70
     0
  9
$DIMZIN
 70
     0
  9
$DIMBLK
  1

  9
$LUNITS
 70
     2
  9
$LUPREC
 70
     4
  9
$AXISMODE
 70
     0
  9
$AXISUNIT
 10
0.0
 20
0.0
  9
$SKETCHINC
 40
0.1
  9
$FILLETRAD
 40
0.0
  9
$AUNITS
 70
     0
  9
$AUPREC
 70
     0
  9
$MENU
  1
ACAD
  9
$ELEVATION
 40
0.0
  9
$THICKNESS
 40
0.0
  9
$VIEWDIR
 10
0.0
 20
0.0
 30
1.0
  9
$LIMCHECK
 70
     0
  9
$BLIPMODE
 70
     1
  9
$CHAMFERA
 40
0.0
  9
$CHAMFERB
 40
0.0
  9
$FASTZOOM
 70
     1
  9
$SKPOLY
 70
     0
  9
$TDCREATE
 40
2457497.000000
  9
$TDUPDATE
 40
2457497.000000
  9
$TDINDWG
 40
0.0
  9
$TDUSRTIMER
 40
0.0
  9
$USRTIMER
 70
     1
  9
$ANGBASE
 50
0.0
  9
$ANGDIR
 70
     0
  9
$PDMODE
 70
     0
  9
$PDSIZE
 40
0.0
  9
$PLINEWID
 40
0.0
  9
$COORDS
 70
     0
  9
$USERI1
 70
     0
  9
$USERI2
 70
     0
  9
$USERI3
 70
     0
  9
$USERI4
 70
     0
  9
$USERI5
 70
     0
  9
$USERR1
 40
0.0
  9
$USERR2
 40
0.0
  9
$USERR3
 40
0.0
  9
$USERR4
 40
0.0
  9
$USERR5
 40
0.0
  0
ENDSEC
  0
SECTION
  2
TABLES
  0
TABLE
  2
LTYPE
 70
     9
  0
LTYPE
  2
CONTINUOUS
 70
    64
  3
Solid line
 72
    65
 73
     0
 40
0.0
  0
LTYPE
  2
DASHED
 70
    64
  3
__ __ __ __ __ __ __ __ __ __ __ __ __ __ __
 72
    65
 73
     2
 40
0.75
 49
0.5
 49
-0.25
  0
LTYPE
  2
HIDDEN
 70
    64
  3
_ _ _ _ _ _ _ _ _ _ _ _ _ _ _ _ _ _ _ _ _ _ _
 72
    65
 73
     2
 40
0.375
 49
0.25
 49
-0.125
  0
LTYPE
  2
DOT
 70
    64
  3
...............................................
 72
    65
 73
     2
 40
0.25
 49
0.0
 49
-0.25
  0
LTYPE
  2
DASHDOT
 70
    64
  3
__ . __ . __ . __ . __ . __ . __ . __ . __ . __
 72
    65
 73
     4
 40
1.0
 49
0.5
 49
-0.25
 49
0.0
 49
-0.25
  0
LTYPE
  2
DIVIDE
 70
    64
  3
__ . . __ . . __ . . __ . . __ . . __ . . __
 72
    65
 73
     6
 40
1.25
 49
0.5
 49
-0.25
 49
0.0
 49
-0.25
 49
0.0
 49
-0.25
  0
LTYPE
  2
CENTER
 70
    64
  3
____ _ ____ _ ____ _ ____ _ ____ _ ____ _ ____ 
 72
    65
 73
     4
 40
2.0
 49
1.25
 49
-0.25
 49
0.25
 49
-0.25
  0
LTYPE
  2
PHANTOM
 70
    64
  3
______  __  __  ______  __  __  ______  __  __ 
 72
    65
 73
     6
 40
2.5
 49
1.25
 49
-0.25
 49
0.25
 49
-0.25
 49
0.25
 49
-0.25
  0
LTYPE
  2
BORDER
 70
    64
  3
__ __ . __ __ . __ __ . __ __ . __ __ . __ __ .
 72
    65
 73
     6
 40
1.75
 49
0.5
 49
-0.25
 49
0.5
 49
-0.25
 49
0.0
 49
-0.25
  0
ENDTAB
  0
TABLE
  2
LAYER
 70
    16
  0
LAYER
  2
CSLAYER1
 70
    64
 62
     7
  6
CONTINUOUS
  0
LAYER
  2
CSLAYER2
 70
    64
 62
     7
  6
CONTINUOUS
  0
LAYER
  2
CSLAYER3
 70
    64
 62
     7
  6
CONTINUOUS
  0
LAYER
  2
CSLAYER4
 70
    64
 62
     7
  6
CONTINUOUS
  0
LAYER
  2
CSLAYER5
 70
    64
 62
     7
  6
CONTINUOUS
  0
LAYER
  2
CSLAYER6
 70
    64
 62
     7
  6
CONTINUOUS
  0
LAYER
  2
CSLAYER7
 70
    64
 62
     7
  6
CONTINUOUS
  0
LAYER
  2
CSLAYER8
 70
    64
 62
     7
  6
CONTINUOUS
  0
LAYER
  2
CSLAYER9
 70
    64
 62
     7
  6
CONTINUOUS
  0
LAYER
  2
CSLAYER10
 70
    64
 62
     7
  6
CONTINUOUS
  0
LAYER
  2
CSLAYER11
 70
    64
 62
     7
  6
CONTINUOUS
  0
LAYER
  2
CSLAYER12
 70
    64
 62
     7
  6
CONTINUOUS
  0
LAYER
  2
CSLAYER13
 70
    64
 62
     7
  6
CONTINUOUS
  0
LAYER
  2
CSLAYER14
 70
    64
 62
     7
  6
CONTINUOUS
  0
LAYER
  2
CSLAYER15
 70
    64
 62
     7
  6
CONTINUOUS
  0
LAYER
  2
CSLAYER16
 70
    64
 62
     7
  6
CONTINUOUS
  0
ENDTAB
  0
TABLE
  2
STYLE
 70
     1
  0
STYLE
  2
EASYDRAW_FONT
 70
     0
 40
1.0
 41
1.0
 50
0.0
 71
     0
 42
1.0
  3
monotxt
  4
bigfont
  0
ENDTAB
  0
TABLE
  2
VIEW
 70
     0
  0
ENDTAB
  0
ENDSEC
  0
SECTION
  2
BLOCKS
  0
BLOCK
  8
CSLAYER1
  2
*D0000
 70
    65
 10
0.0
 20
0.0
 30
0.0
  0
TEXT
  8
CSLAYER1
 62
     7
 10
2375.343994
 20
362.460266
 40
40.000000
 41
0.843750
  1
155
 50
90.000000
 51
0.000000
  7
EASYDRAW_FONT
 72
     5
 11
2375.343994
 21
452.460266
  0
LINE
  8
CSLAYER1
  6
CONTINUOUS
 62
     5
 10
2226.535375
 20
489.632214
 11
2326.956621
 21
489.632214
  0
LINE
  8
CSLAYER1
  6
CONTINUOUS
 62
     5
 10
2316.956621
 20
334.632214
 11
2316.956621
 21
489.632214
  0
LINE
  8
CSLAYER1
  6
CONTINUOUS
 62
     5
 10
2316.956621
 20
334.632214
 11
2309.192049
 21
363.609988
  0
LINE
  8
CSLAYER1
  6
CONTINUOUS
 62
     5
 10
2316.956621
 20
334.632214
 11
2324.721192
 21
363.609988
  0
LINE
  8
CSLAYER1
  6
CONTINUOUS
 62
     5
 10
2316.956621
 20
489.632214
 11
2309.192049
 21
460.654439
  0
LINE
  8
CSLAYER1
  6
CONTINUOUS
 62
     5
 10
2316.956621
 20
489.632214
 11
2324.721192
 21
460.654439
  0
ENDBLK
  8
0
  0
BLOCK
  8
CSLAYER1
  2
*D0001
 70
    65
 10
0.0
 20
0.0
 30
0.0
  0
TEXT
  8
CSLAYER1
 62
     7
 10
2306.956787
 20
887.467773
 40
40.000000
 41
0.843750
  1
860
 50
90.000000
 51
0.000000
  7
EASYDRAW_FONT
 72
     5
 11
2306.956787
 21
977.467773
  0
LINE
  8
CSLAYER1
  6
CONTINUOUS
 62
     5
 10
2223.535375
 20
1375.303443
 11
2426.535375
 21
1375.303443
  0
LINE
  8
CSLAYER1
  6
CONTINUOUS
 62
     5
 10
2316.956621
 20
489.632214
 11
2316.956621
 21
1375.303443
  0
LINE
  8
CSLAYER1
  6
CONTINUOUS
 62
     5
 10
2316.956621
 20
489.632214
 11
2309.192049
 21
518.609988
  0
LINE
  8
CSLAYER1
  6
CONTINUOUS
 62
     5
 10
2316.956621
 20
489.632214
 11
2324.721192
 21
518.609988
  0
LINE
  8
CSLAYER1
  6
CONTINUOUS
 62
     5
 10
2316.956621
 20
1375.303443
 11
2309.192049
 21
1346.325668
  0
LINE
  8
CSLAYER1
  6
CONTINUOUS
 62
     5
 10
2316.956621
 20
1375.303443
 11
2324.721192
 21
1346.325668
  0
ENDBLK
  8
0
  0
BLOCK
  8
CSLAYER1
  2
*D0002
 70
    65
 10
0.0
 20
0.0
 30
0.0
  0
TEXT
  8
CSLAYER1
 62
     7
 10
2406.535645
 20
794.967773
 40
40.000000
 41
0.818182
  1
1015
 50
90.000000
 51
0.000000
  7
EASYDRAW_FONT
 72
     5
 11
2406.535645
 21
914.967773
  0
LINE
  8
CSLAYER1
  6
CONTINUOUS
 62
     5
 10
2416.535375
 20
334.632214
 11
2416.535375
 21
1375.303443
  0
LINE
  8
CSLAYER1
  6
CONTINUOUS
 62
     5
 10
2416.535375
 20
334.632214
 11
2408.770803
 21
363.609988
  0
LINE
  8
CSLAYER1
  6
CONTINUOUS
 62
     5
 10
2416.535375
 20
334.632214
 11
2424.299946
 21
363.609988
  0
LINE
  8
CSLAYER1
  6
CONTINUOUS
 62
     5
 10
2416.535375
 20
1375.303443
 11
2408.770803
 21
1346.325668
  0
LINE
  8
CSLAYER1
  6
CONTINUOUS
 62
     5
 10
2416.535375
 20
1375.303443
 11
2424.299946
 21
1346.325668
  0
ENDBLK
  8
0
  0
BLOCK
  8
CSLAYER1
  2
*D0003
 70
    65
 10
0.0
 20
0.0
 30
0.0
  0
TEXT
  8
CSLAYER1
 62
     7
 10
1556.535278
 20
1479.861328
 40
40.000000
 41
0.818182
  1
1200
 50
0.000000
 51
0.000000
  7
EASYDRAW_FONT
 72
     5
 11
1676.535278
 21
1479.861328
  0
LINE
  8
CSLAYER1
  6
CONTINUOUS
 62
     5
 10
1016.535375
 20
1382.303443
 11
1016.535375
 21
1479.861567
  0
LINE
  8
CSLAYER1
  6
CONTINUOUS
 62
     5
 10
2216.535375
 20
1382.303443
 11
2216.535375
 21
1479.861567
  0
LINE
  8
CSLAYER1
  6
CONTINUOUS
 62
     5
 10
1016.535375
 20
1469.861567
 11
2216.535375
 21
1469.861567
  0
LINE
  8
CSLAYER1
  6
CONTINUOUS
 62
     5
 10
1016.535375
 20
1469.861567
 11
1045.513149
 21
1477.626138
  0
LINE
  8
CSLAYER1
  6
CONTINUOUS
 62
     5
 10
1016.535375
 20
1469.861567
 11
1045.513149
 21
1462.096995
  0
LINE
  8
CSLAYER1
  6
CONTINUOUS
 62
     5
 10
2216.535375
 20
1469.861567
 11
2187.557600
 21
1477.626138
  0
LINE
  8
CSLAYER1
  6
CONTINUOUS
 62
     5
 10
2216.535375
 20
1469.861567
 11
2187.557600
 21
1462.096995
  0
ENDBLK
  8
0
  0
BLOCK
  8
CSLAYER1
  2
*D0004
 70
    65
 10
0.0
 20
0.0
 30
0.0
  0
TEXT
  8
CSLAYER1
 62
     7
 10
1556.535278
 20
246.319870
 40
40.000000
 41
0.818182
  1
1200
 50
0.000000
 51
0.000000
  7
EASYDRAW_FONT
 72
     5
 11
1676.535278
 21
246.319870
  0
LINE
  8
CSLAYER1
  6
CONTINUOUS
 62
     5
 10
1016.535375
 20
324.632214
 11
1016.535375
 21
226.319780
  0
LINE
  8
CSLAYER1
  6
CONTINUOUS
 62
     5
 10
2216.535375
 20
324.632214
 11
2216.535375
 21
226.319780
  0
LINE
  8
CSLAYER1
  6
CONTINUOUS
 62
     5
 10
1016.535375
 20
236.319780
 11
2216.535375
 21
236.319780
  0
LINE
  8
CSLAYER1
  6
CONTINUOUS
 62
     5
 10
1016.535375
 20
236.319780
 11
1045.513149
 21
244.084352
  0
LINE
  8
CSLAYER1
  6
CONTINUOUS
 62
     5
 10
1016.535375
 20
236.319780
 11
1045.513149
 21
228.555209
  0
LINE
  8
CSLAYER1
  6
CONTINUOUS
 62
     5
 10
2216.535375
 20
236.319780
 11
2187.557600
 21
244.084352
  0
LINE
  8
CSLAYER1
  6
CONTINUOUS
 62
     5
 10
2216.535375
 20
236.319780
 11
2187.557600
 21
228.555209
  0
ENDBLK
  8
0
  0
BLOCK
  8
CSLAYER1
  2
*D0005
 70
    65
 10
0.0
 20
0.0
 30
0.0
  0
TEXT
  8
CSLAYER1
 62
     7
 10
432.188629
 20
246.319870
 40
40.000000
 41
0.843750
  1
500
 50
0.000000
 51
0.000000
  7
EASYDRAW_FONT
 72
     5
 11
522.188629
 21
246.319870
  0
LINE
  8
CSLAYER1
  6
CONTINUOUS
 62
     5
 10
227.188606
 20
324.632214
 11
227.188606
 21
226.319780
  0
LINE
  8
CSLAYER1
  6
CONTINUOUS
 62
     5
 10
727.188606
 20
324.632214
 11
727.188606
 21
226.319780
  0
LINE
  8
CSLAYER1
  6
CONTINUOUS
 62
     5
 10
227.188606
 20
236.319780
 11
727.188606
 21
236.319780
  0
LINE
  8
CSLAYER1
  6
CONTINUOUS
 62
     5
 10
227.188606
 20
236.319780
 11
256.166380
 21
244.084352
  0
LINE
  8
CSLAYER1
  6
CONTINUOUS
 62
     5
 10
227.188606
 20
236.319780
 11
256.166380
 21
228.555209
  0
LINE
  8
CSLAYER1
  6
CONTINUOUS
 62
     5
 10
727.188606
 20
236.319780
 11
698.210831
 21
244.084352
  0
LINE
  8
CSLAYER1
  6
CONTINUOUS
 62
     5
 10
727.188606
 20
236.319780
 11
698.210831
 21
228.555209
  0
ENDBLK
  8
0
  0
BLOCK
  8
CSLAYER1
  2
BLKF0000
 70
   64
 10
0.0
 20
0.0
 30
0.0
  0
ARC
  8
CSLAYER1
  6
CONTINUOUS
 62
     5
 10
2781.909508
 20
79.335220
 40
3.549225
 50
6.429109
 51
73.182034
  0
ARC
  8
CSLAYER1
  6
CONTINUOUS
 62
     5
 10
2778.448538
 20
78.176827
 40
6.907754
 50
310.517970
 51
330.092764
  0
ARC
  8
CSLAYER1
  6
CONTINUOUS
 62
     5
 10
2778.387888
 20
78.542345
 40
7.148321
 50
-32.205059
 51
9.585194
  0
ARC
  8
CSLAYER1
  6
CONTINUOUS
 62
     5
 10
2781.680616
 20
75.781346
 40
4.767514
 50
180.000000
 51
218.514150
  0
ARC
  8
CSLAYER1
  6
CONTINUOUS
 62
     5
 10
2780.393895
 20
75.104206
 40
3.348282
 50
222.781148
 51
319.406906
  0
ARC
  8
CSLAYER1
  6
CONTINUOUS
 62
     5
 10
2783.459537
 20
76.194099
 40
6.559434
 50
94.574282
 51
183.607718
  0
LINE
  8
CSLAYER1
  6
CONTINUOUS
 62
     5
 10
2796.903443
 20
71.077266
 11
2796.046407
 21
68.038683
  0
LINE
  8
CSLAYER1
  6
CONTINUOUS
 62
     5
 10
2798.695428
 20
90.944924
 11
2796.591794
 21
93.671857
  0
LINE
  8
CSLAYER1
  6
CONTINUOUS
 62
     5
 10
2796.591794
 20
93.671857
 11
2789.838440
 21
97.429769
  0
LINE
  8
CSLAYER1
  6
CONTINUOUS
 62
     5
 10
2789.838440
 20
97.429769
 11
2782.936412
 21
98.232640
  0
LINE
  8
CSLAYER1
  6
CONTINUOUS
 62
     5
 10
2764.647187
 20
84.853966
 11
2766.793881
 21
89.818197
  0
LINE
  8
CSLAYER1
  6
CONTINUOUS
 62
     5
 10
2766.756884
 20
89.732640
 11
2768.940576
 21
92.367396
  0
LINE
  8
CSLAYER1
  6
CONTINUOUS
 62
     5
 10
2768.940576
 20
92.367396
 11
2772.244998
 21
94.732640
  0
LINE
  8
CSLAYER1
  6
CONTINUOUS
 62
     5
 10
2782.936412
 20
98.232640
 11
2781.418237
 21
97.465795
  0
LINE
  8
CSLAYER1
  6
CONTINUOUS
 62
     5
 10
2781.418237
 20
97.465795
 11
2777.929858
 21
97.465795
  0
LINE
  8
CSLAYER1
  6
CONTINUOUS
 62
     5
 10
2777.929858
 20
97.465795
 11
2774.374396
 21
95.520354
  0
LINE
  8
CSLAYER1
  6
CONTINUOUS
 62
     5
 10
2774.374396
 20
95.520354
 11
2772.244998
 21
94.732640
  0
LINE
  8
CSLAYER1
  6
CONTINUOUS
 62
     5
 10
2764.647187
 20
84.853966
 11
2763.129640
 21
77.305363
  0
LINE
  8
CSLAYER1
  6
CONTINUOUS
 62
     5
 10
2763.129640
 20
77.305363
 11
2762.936412
 21
74.732640
  0
LINE
  8
CSLAYER1
  6
CONTINUOUS
 62
     5
 10
2765.645795
 20
66.892857
 11
2762.936412
 21
72.988969
  0
LINE
  8
CSLAYER1
  6
CONTINUOUS
 62
     5
 10
2762.936412
 20
72.988969
 11
2762.936412
 21
74.732640
  0
LINE
  8
CSLAYER1
  6
CONTINUOUS
 62
     5
 10
2796.046407
 20
68.038683
 11
2794.360620
 21
65.035677
  0
LINE
  8
CSLAYER1
  6
CONTINUOUS
 62
     5
 10
2794.360620
 20
65.035677
 11
2792.936412
 21
63.716966
  0
ARC
  8
CSLAYER1
  6
CONTINUOUS
 62
     5
 10
2780.744468
 20
75.269400
 40
17.266626
 50
208.054813
 51
260.640470
  0
ARC
  8
CSLAYER1
  6
CONTINUOUS
 62
     5
 10
2775.551072
 20
88.011870
 40
29.874611
 50
274.579659
 51
305.587364
  0
ARC
  8
CSLAYER1
  6
CONTINUOUS
 62
     5
 10
2786.523421
 20
82.028147
 40
15.088627
 50
313.467013
 51
331.085078
  0
LINE
  8
CSLAYER1
  6
CONTINUOUS
 62
     5
 10
2801.314754
 20
78.246061
 11
2801.612048
 21
82.028147
  0
LINE
  8
CSLAYER1
  6
CONTINUOUS
 62
     5
 10
2801.612048
 20
82.028147
 11
2800.320051
 21
88.137130
  0
LINE
  8
CSLAYER1
  6
CONTINUOUS
 62
     5
 10
2801.314754
 20
78.246061
 11
2799.731079
 21
74.732640
  0
ARC
  8
CSLAYER1
  6
CONTINUOUS
 62
     5
 10
2786.523421
 20
82.028147
 40
15.088627
 50
23.883193
 51
36.225170
  0
LINE
  8
CSLAYER1
  6
CONTINUOUS
 62
     5
 10
2746.936412
 20
109.732640
 11
2747.936412
 21
110.825284
  0
LINE
  8
CSLAYER1
  6
CONTINUOUS
 62
     5
 10
2746.936412
 20
109.732640
 11
2748.513370
 21
108.287607
  0
LINE
  8
CSLAYER1
  6
CONTINUOUS
 62
     5
 10
2750.052583
 20
106.178315
 11
2750.078851
 21
104.010196
  0
LINE
  8
CSLAYER1
  6
CONTINUOUS
 62
     5
 10
2750.078851
 20
104.010196
 11
2750.286249
 21
103.249737
  0
LINE
  8
CSLAYER1
  6
CONTINUOUS
 62
     5
 10
2750.286249
 20
103.249737
 11
2750.873877
 21
102.523844
  0
LINE
  8
CSLAYER1
  6
CONTINUOUS
 62
     5
 10
2750.873877
 20
102.523844
 11
2751.461504
 21
102.592977
  0
LINE
  8
CSLAYER1
  6
CONTINUOUS
 62
     5
 10
2751.461504
 20
102.592977
 11
2752.083698
 21
102.765808
  0
LINE
  8
CSLAYER1
  6
CONTINUOUS
 62
     5
 10
2752.083698
 20
102.765808
 11
2752.498494
 21
102.592977
  0
LINE
  8
CSLAYER1
  6
CONTINUOUS
 62
     5
 10
2752.498494
 20
102.592977
 11
2753.397219
 21
102.143614
  0
LINE
  8
CSLAYER1
  6
CONTINUOUS
 62
     5
 10
2753.397219
 20
102.143614
 11
2754.173270
 21
101.732640
  0
LINE
  8
CSLAYER1
  6
CONTINUOUS
 62
     5
 10
2754.173270
 20
101.732640
 11
2754.676173
 21
101.763385
  0
LINE
  8
CSLAYER1
  6
CONTINUOUS
 62
     5
 10
2754.676173
 20
101.763385
 11
2757.484045
 21
103.209864
  0
LINE
  8
CSLAYER1
  6
CONTINUOUS
 62
     5
 10
2747.936412
 20
110.825284
 11
2748.269264
 21
112.298991
  0
LINE
  8
CSLAYER1
  6
CONTINUOUS
 62
     5
 10
2748.269264
 20
112.298991
 11
2749.722669
 21
112.449344
  0
LINE
  8
CSLAYER1
  6
CONTINUOUS
 62
     5
 10
2751.216428
 20
115.217802
 11
2752.970601
 21
115.374892
  0
LINE
  8
CSLAYER1
  6
CONTINUOUS
 62
     5
 10
2752.970601
 20
115.374892
 11
2756.505128
 21
116.212706
  0
LINE
  8
CSLAYER1
  6
CONTINUOUS
 62
     5
 10
2756.505128
 20
116.212706
 11
2757.936412
 21
116.544345
  0
LINE
  8
CSLAYER1
  6
CONTINUOUS
 62
     5
 10
2751.216428
 20
115.217802
 11
2749.283537
 21
115.376670
  0
LINE
  8
CSLAYER1
  6
CONTINUOUS
 62
     5
 10
2748.547414
 20
114.507983
 11
2748.640939
 21
114.136822
  0
LINE
  8
CSLAYER1
  6
CONTINUOUS
 62
     5
 10
2748.640939
 20
114.136822
 11
2749.132533
 21
113.599141
  0
LINE
  8
CSLAYER1
  6
CONTINUOUS
 62
     5
 10
2749.132533
 20
113.599141
 11
2749.808475
 21
113.092184
  0
LINE
  8
CSLAYER1
  6
CONTINUOUS
 62
     5
 10
2749.808475
 20
113.092184
 11
2749.931800
 21
112.927751
  0
LINE
  8
CSLAYER1
  6
CONTINUOUS
 62
     5
 10
2748.513370
 20
108.287607
 11
2750.052583
 21
106.178315
  0
ARC
  8
CSLAYER1
  6
CONTINUOUS
 62
     5
 10
2792.923113
 20
-61.926013
 40
180.727463
 50
80.438896
 51
96.353582
  0
ARC
  8
CSLAYER1
  6
CONTINUOUS
 62
     5
 10
2768.024200
 20
83.321887
 40
34.720242
 50
81.866516
 51
106.890578
  0
LINE
  8
CSLAYER1
  6
CONTINUOUS
 62
     5
 10
2827.130674
 20
115.499310
 11
2829.377756
 21
114.477909
  0
LINE
  8
CSLAYER1
  6
CONTINUOUS
 62
     5
 10
2832.952661
 20
112.894737
 11
2829.377756
 21
114.477909
  0
LINE
  8
CSLAYER1
  6
CONTINUOUS
 62
     5
 10
2827.130674
 20
115.499310
 11
2822.936412
 21
116.291881
  0
LINE
  8
CSLAYER1
  6
CONTINUOUS
 62
     5
 10
2832.936412
 20
112.901933
 11
2834.807988
 21
111.333456
  0
LINE
  8
CSLAYER1
  6
CONTINUOUS
 62
     5
 10
2816.179668
 20
113.938783
 11
2817.078943
 21
115.391458
  0
LINE
  8
CSLAYER1
  6
CONTINUOUS
 62
     5
 10
2817.078943
 20
115.391458
 11
2821.754542
 21
114.271949
  0
LINE
  8
CSLAYER1
  6
CONTINUOUS
 62
     5
 10
2821.754542
 20
114.271949
 11
2838.496928
 21
109.732640
  0
LINE
  8
CSLAYER1
  6
CONTINUOUS
 62
     5
 10
2841.436412
 20
109.732640
 11
2834.807988
 21
111.333456
  0
LINE
  8
CSLAYER1
  6
CONTINUOUS
 62
     5
 10
2838.496928
 20
109.732640
 11
2841.436412
 21
109.732640
  0
LINE
  8
CSLAYER1
  6
CONTINUOUS
 62
     5
 10
2782.936412
 20
114.197581
 11
2802.936412
 21
114.732640
  0
LINE
  8
CSLAYER1
  6
CONTINUOUS
 62
     5
 10
2802.936412
 20
114.732640
 11
2816.179668
 21
113.938783
  0
LINE
  8
CSLAYER1
  6
CONTINUOUS
 62
     5
 10
2817.782649
 20
111.878304
 11
2802.936412
 21
113.232640
  0
LINE
  8
CSLAYER1
  6
CONTINUOUS
 62
     5
 10
2802.936412
 20
113.232640
 11
2787.887203
 21
113.641292
  0
LINE
  8
CSLAYER1
  6
CONTINUOUS
 62
     5
 10
2787.936412
 20
113.639956
 11
2782.936412
 21
113.735249
  0
LINE
  8
CSLAYER1
  6
CONTINUOUS
 62
     5
 10
2782.936412
 20
114.197581
 11
2782.936412
 21
113.735249
  0
LINE
  8
CSLAYER1
  6
CONTINUOUS
 62
     5
 10
2840.436412
 20
106.232640
 11
2831.593854
 21
108.543302
  0
LINE
  8
CSLAYER1
  6
CONTINUOUS
 62
     5
 10
2817.782649
 20
111.878304
 11
2827.936412
 21
109.905920
  0
LINE
  8
CSLAYER1
  6
CONTINUOUS
 62
     5
 10
2827.936412
 20
109.905920
 11
2831.593854
 21
108.543302
  0
LINE
  8
CSLAYER1
  6
CONTINUOUS
 62
     5
 10
2840.436412
 20
106.232640
 11
2840.143795
 21
105.393534
  0
LINE
  8
CSLAYER1
  6
CONTINUOUS
 62
     5
 10
2849.936412
 20
100.732640
 11
2849.630385
 21
101.961621
  0
LINE
  8
CSLAYER1
  6
CONTINUOUS
 62
     5
 10
2840.143795
 20
105.393534
 11
2849.630385
 21
101.961621
  0
LINE
  8
CSLAYER1
  6
CONTINUOUS
 62
     5
 10
2786.436412
 20
106.232640
 11
2788.859450
 21
106.232640
  0
LINE
  8
CSLAYER1
  6
CONTINUOUS
 62
     5
 10
2808.936412
 20
106.665135
 11
2808.936412
 21
106.232640
  0
LINE
  8
CSLAYER1
  6
CONTINUOUS
 62
     5
 10
2807.936412
 20
107.199576
 11
2806.225133
 21
107.836755
  0
LINE
  8
CSLAYER1
  6
CONTINUOUS
 62
     5
 10
2806.225133
 20
107.836755
 11
2805.115077
 21
107.887212
  0
LINE
  8
CSLAYER1
  6
CONTINUOUS
 62
     5
 10
2805.115077
 20
107.887212
 11
2804.635735
 21
107.634926
  0
LINE
  8
CSLAYER1
  6
CONTINUOUS
 62
     5
 10
2804.635735
 20
107.634926
 11
2804.534821
 21
107.231270
  0
LINE
  8
CSLAYER1
  6
CONTINUOUS
 62
     5
 10
2804.534821
 20
107.231270
 11
2804.988934
 21
106.928527
  0
LINE
  8
CSLAYER1
  6
CONTINUOUS
 62
     5
 10
2804.988934
 20
106.928527
 11
2806.628790
 21
106.777156
  0
LINE
  8
CSLAYER1
  6
CONTINUOUS
 62
     5
 10
2806.628790
 20
106.777156
 11
2808.936412
 21
106.665135
  0
LINE
  8
CSLAYER1
  6
CONTINUOUS
 62
     5
 10
2849.936412
 20
100.732640
 11
2846.960870
 21
101.919221
  0
LINE
  8
CSLAYER1
  6
CONTINUOUS
 62
     5
 10
2846.960870
 20
101.919221
 11
2836.905180
 21
103.762097
  0
LINE
  8
CSLAYER1
  6
CONTINUOUS
 62
     5
 10
2836.905180
 20
103.762097
 11
2831.879400
 21
104.921892
  0
LINE
  8
CSLAYER1
  6
CONTINUOUS
 62
     5
 10
2809.470633
 20
107.232640
 11
2821.236299
 21
107.232640
  0
LINE
  8
CSLAYER1
  6
CONTINUOUS
 62
     5
 10
2807.936412
 20
107.199576
 11
2808.461072
 21
106.891109
  0
LINE
  8
CSLAYER1
  6
CONTINUOUS
 62
     5
 10
2808.461072
 20
106.891109
 11
2808.757884
 21
106.802065
  0
LINE
  8
CSLAYER1
  6
CONTINUOUS
 62
     5
 10
2808.757884
 20
106.802065
 11
2808.936412
 21
106.827236
  0
LINE
  8
CSLAYER1
  6
CONTINUOUS
 62
     5
 10
2808.936412
 20
106.827236
 11
2809.470633
 21
107.232640
  0
LINE
  8
CSLAYER1
  6
CONTINUOUS
 62
     5
 10
2821.236299
 20
107.232640
 11
2825.686568
 21
106.203814
  0
LINE
  8
CSLAYER1
  6
CONTINUOUS
 62
     5
 10
2825.686568
 20
106.203814
 11
2829.839760
 21
105.038665
  0
LINE
  8
CSLAYER1
  6
CONTINUOUS
 62
     5
 10
2829.839760
 20
105.038665
 11
2831.879400
 21
104.921892
  0
LINE
  8
CSLAYER1
  6
CONTINUOUS
 62
     5
 10
2785.436412
 20
105.232640
 11
2785.436412
 21
104.732640
  0
LINE
  8
CSLAYER1
  6
CONTINUOUS
 62
     5
 10
2782.936412
 20
104.732640
 11
2785.436412
 21
104.732640
  0
ARC
  8
CSLAYER1
  6
CONTINUOUS
 62
     5
 10
2786.436412
 20
105.232640
 40
1.000000
 50
90.000000
 51
180.000000
  0
LINE
  8
CSLAYER1
  6
CONTINUOUS
 62
     5
 10
2788.859450
 20
106.232640
 11
2789.557007
 21
105.660643
  0
LINE
  8
CSLAYER1
  6
CONTINUOUS
 62
     5
 10
2790.159375
 20
105.636683
 11
2791.016972
 21
106.232640
  0
LINE
  8
CSLAYER1
  6
CONTINUOUS
 62
     5
 10
2792.595368
 20
106.232640
 11
2794.262494
 21
105.574564
  0
LINE
  8
CSLAYER1
  6
CONTINUOUS
 62
     5
 10
2794.686203
 20
105.601076
 11
2795.839690
 21
106.232640
  0
LINE
  8
CSLAYER1
  6
CONTINUOUS
 62
     5
 10
2791.016972
 20
106.232640
 11
2792.595368
 21
106.232640
  0
LINE
  8
CSLAYER1
  6
CONTINUOUS
 62
     5
 10
2795.839690
 20
106.232640
 11
2808.936412
 21
106.232640
  0
LINE
  8
CSLAYER1
  6
CONTINUOUS
 62
     5
 10
2761.485395
 20
103.123813
 11
2782.936412
 21
104.732640
  0
LINE
  8
CSLAYER1
  6
CONTINUOUS
 62
     5
 10
2757.484045
 20
103.209864
 11
2761.485395
 21
103.123813
  0
ARC
  8
CSLAYER1
  6
CONTINUOUS
 62
     5
 10
2789.874047
 20
106.047277
 40
0.500000
 50
230.648247
 51
304.796026
  0
ARC
  8
CSLAYER1
  6
CONTINUOUS
 62
     5
 10
2794.446077
 20
106.039642
 40
0.500000
 50
248.459024
 51
298.701829
  0
ARC
  8
CSLAYER1
  6
CONTINUOUS
 62
     5
 10
2749.691800
 20
112.747751
 40
0.300000
 50
-84.093859
 51
36.869898
  0
ARC
  8
CSLAYER1
  6
CONTINUOUS
 62
     5
 10
2749.226196
 20
114.679023
 40
0.700000
 50
85.301319
 51
194.142980
  0
LINE
  8
CSLAYER1
  6
CONTINUOUS
 62
     3
 10
2781.418237
 20
97.465795
 11
2789.528732
 21
97.465795
  0
LINE
  8
CSLAYER1
  6
CONTINUOUS
 62
     3
 10
2775.005720
 20
95.865795
 11
2792.649061
 21
95.865795
  0
LINE
  8
CSLAYER1
  6
CONTINUOUS
 62
     3
 10
2771.592781
 20
94.265795
 11
2795.524426
 21
94.265795
  0
LINE
  8
CSLAYER1
  6
CONTINUOUS
 62
     3
 10
2769.357462
 20
92.665795
 11
2797.367899
 21
92.665795
  0
LINE
  8
CSLAYER1
  6
CONTINUOUS
 62
     3
 10
2767.861806
 20
91.065795
 11
2798.602184
 21
91.065795
  0
LINE
  8
CSLAYER1
  6
CONTINUOUS
 62
     3
 10
2766.641492
 20
89.465795
 11
2799.651561
 21
89.465795
  0
LINE
  8
CSLAYER1
  6
CONTINUOUS
 62
     3
 10
2765.949600
 20
87.865795
 11
2800.377436
 21
87.865795
  0
LINE
  8
CSLAYER1
  6
CONTINUOUS
 62
     3
 10
2765.257708
 20
86.265795
 11
2800.715822
 21
86.265795
  0
LINE
  8
CSLAYER1
  6
CONTINUOUS
 62
     3
 10
2764.609358
 20
84.665795
 11
2801.054208
 21
84.665795
  0
LINE
  8
CSLAYER1
  6
CONTINUOUS
 62
     3
 10
2764.287699
 20
83.065795
 11
2801.392594
 21
83.065795
  0
LINE
  8
CSLAYER1
  6
CONTINUOUS
 62
     3
 10
2763.966040
 20
81.465795
 11
2779.556283
 21
81.465795
  0
LINE
  8
CSLAYER1
  6
CONTINUOUS
 62
     3
 10
2763.644381
 20
79.865795
 11
2778.024022
 21
79.865795
  0
LINE
  8
CSLAYER1
  6
CONTINUOUS
 62
     3
 10
2763.322722
 20
78.265795
 11
2777.235852
 21
78.265795
  0
LINE
  8
CSLAYER1
  6
CONTINUOUS
 62
     3
 10
2763.081604
 20
76.665795
 11
2776.917085
 21
76.665795
  0
LINE
  8
CSLAYER1
  6
CONTINUOUS
 62
     3
 10
2762.961434
 20
75.065795
 11
2776.967106
 21
75.065795
  0
LINE
  8
CSLAYER1
  6
CONTINUOUS
 62
     3
 10
2762.936412
 20
73.465795
 11
2777.513193
 21
73.465795
  0
LINE
  8
CSLAYER1
  6
CONTINUOUS
 62
     3
 10
2763.435600
 20
71.865795
 11
2779.543195
 21
71.865795
  0
LINE
  8
CSLAYER1
  6
CONTINUOUS
 62
     3
 10
2764.146711
 20
70.265795
 11
2796.674567
 21
70.265795
  0
LINE
  8
CSLAYER1
  6
CONTINUOUS
 62
     3
 10
2764.857823
 20
68.665795
 11
2796.223285
 21
68.665795
  0
LINE
  8
CSLAYER1
  6
CONTINUOUS
 62
     3
 10
2765.568934
 20
67.065795
 11
2795.500261
 21
67.065795
  0
LINE
  8
CSLAYER1
  6
CONTINUOUS
 62
     3
 10
2766.530893
 20
65.465795
 11
2794.602074
 21
65.465795
  0
LINE
  8
CSLAYER1
  6
CONTINUOUS
 62
     3
 10
2767.779354
 20
63.865795
 11
2793.097148
 21
63.865795
  0
LINE
  8
CSLAYER1
  6
CONTINUOUS
 62
     3
 10
2769.384774
 20
62.265795
 11
2790.704687
 21
62.265795
  0
LINE
  8
CSLAYER1
  6
CONTINUOUS
 62
     3
 10
2771.531916
 20
60.665795
 11
2787.579564
 21
60.665795
  0
LINE
  8
CSLAYER1
  6
CONTINUOUS
 62
     3
 10
2774.779606
 20
59.065795
 11
2782.941415
 21
59.065795
  0
LINE
  8
CSLAYER1
  6
CONTINUOUS
 62
     3
 10
2784.748107
 20
81.465795
 11
2801.567844
 21
81.465795
  0
LINE
  8
CSLAYER1
  6
CONTINUOUS
 62
     3
 10
2785.418851
 20
79.865795
 11
2801.442074
 21
79.865795
  0
LINE
  8
CSLAYER1
  6
CONTINUOUS
 62
     3
 10
2785.530858
 20
78.265795
 11
2801.316305
 21
78.265795
  0
LINE
  8
CSLAYER1
  6
CONTINUOUS
 62
     3
 10
2785.285501
 20
76.665795
 11
2800.602449
 21
76.665795
  0
LINE
  8
CSLAYER1
  6
CONTINUOUS
 62
     3
 10
2784.633855
 20
75.065795
 11
2799.881249
 21
75.065795
  0
LINE
  8
CSLAYER1
  6
CONTINUOUS
 62
     3
 10
2783.500592
 20
73.465795
 11
2798.947301
 21
73.465795
  0
LINE
  8
CSLAYER1
  6
CONTINUOUS
 62
     3
 10
2781.244595
 20
71.865795
 11
2797.676594
 21
71.865795
  0
TEXT
  8
CSLAYER1
 62
     5
 10
2802.108183
 20
79.476970
 40
4.713448
 41
1.951056
  1
M
 50
0.000000
 51
0.000000
  7
EASYDRAW_FONT
 72
     5
 11
2808.238985
 21
79.476970
  0
TEXT
  8
CSLAYER1
 62
     5
 10
2811.759570
 20
79.418700
 40
4.626621
 41
0.778201
  1
T
 50
0.000000
 51
0.000000
  7
EASYDRAW_FONT
 72
     5
 11
2814.159863
 21
79.418700
  0
TEXT
  8
CSLAYER1
 62
     5
 10
2814.525133
 20
79.453499
 40
4.696183
 41
1.055553
  1
E
 50
0.000000
 51
0.000000
  7
EASYDRAW_FONT
 72
     5
 11
2817.829848
 21
79.453499
  0
TEXT
  8
CSLAYER1
 62
     5
 10
2817.641314
 20
81.069343
 40
0.348283
 41
9.375319
  1
-
 50
0.000000
 51
0.000000
  7
EASYDRAW_FONT
 72
     5
 11
2819.818159
 21
81.069343
  0
TEXT
  8
CSLAYER1
 62
     5
 10
2819.455523
 20
79.422152
 40
4.861659
 41
1.298502
  1
H
 50
0.000000
 51
0.000000
  7
EASYDRAW_FONT
 72
     5
 11
2823.664106
 21
79.422152
  0
TEXT
  8
CSLAYER1
 62
     5
 10
2823.531538
 20
79.452530
 40
4.843139
 41
1.269236
  1
A
 50
0.000000
 51
0.000000
  7
EASYDRAW_FONT
 72
     5
 11
2827.629595
 21
79.452530
  0
TEXT
  8
CSLAYER1
 62
     5
 10
2827.237694
 20
79.411004
 40
4.825362
 41
1.490144
  1
N
 50
0.000000
 51
0.000000
  7
EASYDRAW_FONT
 72
     5
 11
2832.031349
 21
79.411004
  0
TEXT
  8
CSLAYER1
 62
     5
 10
2808.029152
 20
79.388431
 40
4.982325
 41
1.177443
  1
A
 50
0.000000
 51
0.000000
  7
EASYDRAW_FONT
 72
     5
 11
2811.940086
 21
79.388431
  0
TEXT
  8
CSLAYER1
 62
     5
 10
2802.475197
 20
72.393191
 40
4.982325
 41
1.177443
  1
A
 50
0.000000
 51
0.000000
  7
EASYDRAW_FONT
 72
     5
 11
2806.386131
 21
72.393191
  0
TEXT
  8
CSLAYER1
 62
     5
 10
2815.259621
 20
72.421512
 40
4.982325
 41
1.177443
  1
A
 50
0.000000
 51
0.000000
  7
EASYDRAW_FONT
 72
     5
 11
2819.170555
 21
72.421512
  0
TEXT
  8
CSLAYER1
 62
     5
 10
2819.020165
 20
72.478509
 40
4.825362
 41
1.490144
  1
N
 50
0.000000
 51
0.000000
  7
EASYDRAW_FONT
 72
     5
 11
2823.813819
 21
72.478509
  0
TEXT
  8
CSLAYER1
 62
     5
 10
2827.922501
 20
72.486903
 40
4.841775
 41
1.184218
  1
E
 50
0.000000
 51
0.000000
  7
EASYDRAW_FONT
 72
     5
 11
2831.744980
 21
72.486903
  0
TEXT
  8
CSLAYER1
 62
     5
 10
2806.755750
 20
72.391867
 40
4.947865
 41
1.093992
  1
D
 50
0.000000
 51
0.000000
  7
EASYDRAW_FONT
 72
     5
 11
2810.364367
 21
72.391867
  0
TEXT
  8
CSLAYER1
 62
     5
 10
2811.158109
 20
72.386482
 40
4.924210
 41
1.228195
  1
V
 50
0.000000
 51
0.000000
  7
EASYDRAW_FONT
 72
     5
 11
2815.190036
 21
72.386482
  0
TEXT
  8
CSLAYER1
 62
     5
 10
2823.383310
 20
72.407213
 40
5.032894
 41
1.481023
  1
C
 50
0.000000
 51
0.000000
  7
EASYDRAW_FONT
 72
     5
 11
2828.352530
 21
72.407213
  0
LINE
  8
CSLAYER1
  6
CONTINUOUS
 62
     5
 10
2814.013749
 20
83.467612
 11
2813.001687
 21
83.467612
  0
LINE
  8
CSLAYER1
  6
CONTINUOUS
 62
     3
 10
2763.111987
 20
117.692883
 11
2812.909813
 21
117.692883
  0
LINE
  8
CSLAYER1
  6
CONTINUOUS
 62
     3
 10
2755.999623
 20
116.092883
 11
2823.989505
 21
116.092883
  0
LINE
  8
CSLAYER1
  6
CONTINUOUS
 62
     3
 10
2748.551219
 20
114.492883
 11
2793.974529
 21
114.492883
  0
LINE
  8
CSLAYER1
  6
CONTINUOUS
 62
     3
 10
2806.936079
 20
114.492883
 11
2816.522682
 21
114.492883
  0
LINE
  8
CSLAYER1
  6
CONTINUOUS
 62
     3
 10
2820.831816
 20
114.492883
 11
2829.344813
 21
114.492883
  0
LINE
  8
CSLAYER1
  6
CONTINUOUS
 62
     3
 10
2749.954358
 20
112.892883
 11
2806.660827
 21
112.892883
  0
LINE
  8
CSLAYER1
  6
CONTINUOUS
 62
     3
 10
2826.840965
 20
112.892883
 11
2832.947211
 21
112.892883
  0
LINE
  8
CSLAYER1
  6
CONTINUOUS
 62
     3
 10
2748.042024
 20
111.292883
 11
2820.796375
 21
111.292883
  0
LINE
  8
CSLAYER1
  6
CONTINUOUS
 62
     3
 10
2832.742264
 20
111.292883
 11
2834.975986
 21
111.292883
  0
LINE
  8
CSLAYER1
  6
CONTINUOUS
 62
     3
 10
2746.979799
 20
109.692883
 11
2828.508231
 21
109.692883
  0
LINE
  8
CSLAYER1
  6
CONTINUOUS
 62
     3
 10
2748.655466
 20
108.092883
 11
2833.317540
 21
108.092883
  0
LINE
  8
CSLAYER1
  6
CONTINUOUS
 62
     3
 10
2749.823033
 20
106.492883
 11
2808.936412
 21
106.492883
  0
LINE
  8
CSLAYER1
  6
CONTINUOUS
 62
     3
 10
2824.436177
 20
106.492883
 11
2839.440500
 21
106.492883
  0
LINE
  8
CSLAYER1
  6
CONTINUOUS
 62
     3
 10
2750.068157
 20
104.892883
 11
2785.436412
 21
104.892883
  0
LINE
  8
CSLAYER1
  6
CONTINUOUS
 62
     3
 10
2832.005106
 20
104.892883
 11
2841.527709
 21
104.892883
  0
LINE
  8
CSLAYER1
  6
CONTINUOUS
 62
     3
 10
2750.274482
 20
103.292883
 11
2763.739655
 21
103.292883
  0
LINE
  8
CSLAYER1
  6
CONTINUOUS
 62
     3
 10
2839.465455
 20
103.292883
 11
2845.950473
 21
103.292883
  0
LINE
  8
CSLAYER1
  6
CONTINUOUS
 62
     3
 10
2847.528449
 20
101.692883
 11
2849.697303
 21
101.692883
  0
ENDBLK
  8
0
  0
BLOCK
  8
CSLAYER1
  2
BLKF0001
 70
   64
 10
0.0
 20
0.0
 30
0.0
  0
LINE
  8
CSLAYER1
  6
CONTINUOUS
 62
     4
 10
1489.155462
 20
1069.834360
 11
1579.151713
 21
1189.647359
  0
LINE
  8
CSLAYER1
  6
CONTINUOUS
 62
     4
 10
1626.776340
 20
1154.812643
 11
1580.201822
 21
1189.796593
  0
LINE
  8
CSLAYER1
  6
CONTINUOUS
 62
     4
 10
1626.776340
 20
1154.812643
 11
1626.975320
 21
1153.412498
  0
LINE
  8
CSLAYER1
  6
CONTINUOUS
 62
     4
 10
1580.201822
 20
1189.796593
 11
1579.151713
 21
1189.647359
  0
LINE
  8
CSLAYER1
  6
CONTINUOUS
 62
     4
 10
1588.553333
 20
1183.523446
 11
1592.966329
 21
1186.060843
  0
LINE
  8
CSLAYER1
  6
CONTINUOUS
 62
     4
 10
1592.966329
 20
1186.060843
 11
1593.517647
 21
1179.794554
  0
LINE
  8
CSLAYER1
  6
CONTINUOUS
 62
     4
 10
1593.517647
 20
1179.794554
 11
1595.312105
 21
1181.373714
  0
LINE
  8
CSLAYER1
  6
CONTINUOUS
 62
     4
 10
1593.517647
 20
1179.794554
 11
1592.652746
 21
1185.880538
  0
LINE
  8
CSLAYER1
  6
CONTINUOUS
 62
     4
 10
1593.291497
 20
1179.964424
 11
1592.465997
 21
1185.773160
  0
LINE
  8
CSLAYER1
  6
CONTINUOUS
 62
     4
 10
1593.065347
 20
1180.134295
 11
1592.279247
 21
1185.665783
  0
LINE
  8
CSLAYER1
  6
CONTINUOUS
 62
     4
 10
1592.839196
 20
1180.304165
 11
1592.092497
 21
1185.558405
  0
LINE
  8
CSLAYER1
  6
CONTINUOUS
 62
     4
 10
1592.613046
 20
1180.474036
 11
1591.905748
 21
1185.451027
  0
LINE
  8
CSLAYER1
  6
CONTINUOUS
 62
     4
 10
1592.386895
 20
1180.643906
 11
1591.718998
 21
1185.343649
  0
LINE
  8
CSLAYER1
  6
CONTINUOUS
 62
     4
 10
1592.160745
 20
1180.813777
 11
1591.532248
 21
1185.236271
  0
LINE
  8
CSLAYER1
  6
CONTINUOUS
 62
     4
 10
1591.934594
 20
1180.983647
 11
1591.345499
 21
1185.128893
  0
LINE
  8
CSLAYER1
  6
CONTINUOUS
 62
     4
 10
1591.708444
 20
1181.153518
 11
1591.158749
 21
1185.021515
  0
LINE
  8
CSLAYER1
  6
CONTINUOUS
 62
     4
 10
1591.482294
 20
1181.323388
 11
1590.971999
 21
1184.914137
  0
LINE
  8
CSLAYER1
  6
CONTINUOUS
 62
     4
 10
1591.256143
 20
1181.493259
 11
1590.785250
 21
1184.806759
  0
LINE
  8
CSLAYER1
  6
CONTINUOUS
 62
     4
 10
1591.029993
 20
1181.663129
 11
1590.598500
 21
1184.699382
  0
LINE
  8
CSLAYER1
  6
CONTINUOUS
 62
     4
 10
1590.803842
 20
1181.833000
 11
1590.411750
 21
1184.592004
  0
LINE
  8
CSLAYER1
  6
CONTINUOUS
 62
     4
 10
1590.577692
 20
1182.002870
 11
1590.225001
 21
1184.484626
  0
LINE
  8
CSLAYER1
  6
CONTINUOUS
 62
     4
 10
1590.351541
 20
1182.172741
 11
1590.038251
 21
1184.377248
  0
LINE
  8
CSLAYER1
  6
CONTINUOUS
 62
     4
 10
1590.125391
 20
1182.342611
 11
1589.851501
 21
1184.269870
  0
LINE
  8
CSLAYER1
  6
CONTINUOUS
 62
     4
 10
1589.899240
 20
1182.512482
 11
1589.664752
 21
1184.162492
  0
LINE
  8
CSLAYER1
  6
CONTINUOUS
 62
     4
 10
1589.673090
 20
1182.682352
 11
1589.478002
 21
1184.055114
  0
LINE
  8
CSLAYER1
  6
CONTINUOUS
 62
     4
 10
1589.446940
 20
1182.852223
 11
1589.291252
 21
1183.947736
  0
LINE
  8
CSLAYER1
  6
CONTINUOUS
 62
     4
 10
1589.220789
 20
1183.022093
 11
1589.104503
 21
1183.840359
  0
LINE
  8
CSLAYER1
  6
CONTINUOUS
 62
     4
 10
1588.994639
 20
1183.191964
 11
1588.917753
 21
1183.732981
  0
LINE
  8
CSLAYER1
  6
CONTINUOUS
 62
     4
 10
1588.768488
 20
1183.361834
 11
1588.731003
 21
1183.625603
  0
LINE
  8
CSLAYER1
  6
CONTINUOUS
 62
     4
 10
1593.697201
 20
1179.952565
 11
1592.839496
 21
1185.987916
  0
LINE
  8
CSLAYER1
  6
CONTINUOUS
 62
     4
 10
1593.876755
 20
1180.110577
 11
1593.065789
 21
1185.817046
  0
LINE
  8
CSLAYER1
  6
CONTINUOUS
 62
     4
 10
1594.056309
 20
1180.268588
 11
1593.368689
 21
1185.107116
  0
LINE
  8
CSLAYER1
  6
CONTINUOUS
 62
     4
 10
1594.235863
 20
1180.426599
 11
1593.662773
 21
1184.459223
  0
LINE
  8
CSLAYER1
  6
CONTINUOUS
 62
     4
 10
1594.415417
 20
1180.584610
 11
1593.949828
 21
1183.860788
  0
LINE
  8
CSLAYER1
  6
CONTINUOUS
 62
     4
 10
1594.594971
 20
1180.742622
 11
1594.231102
 21
1183.303032
  0
LINE
  8
CSLAYER1
  6
CONTINUOUS
 62
     4
 10
1594.774525
 20
1180.900633
 11
1594.507507
 21
1182.779539
  0
LINE
  8
CSLAYER1
  6
CONTINUOUS
 62
     4
 10
1594.954079
 20
1181.058644
 11
1594.779734
 21
1182.285447
  0
LINE
  8
CSLAYER1
  6
CONTINUOUS
 62
     4
 10
1595.133633
 20
1181.216655
 11
1595.048320
 21
1181.816971
  0
LINE
  8
CSLAYER1
  6
CONTINUOUS
 62
     4
 10
1618.624720
 20
1160.935645
 11
1619.832192
 21
1165.880837
  0
LINE
  8
CSLAYER1
  6
CONTINUOUS
 62
     4
 10
1619.832192
 20
1165.880837
 11
1613.660406
 21
1164.664537
  0
LINE
  8
CSLAYER1
  6
CONTINUOUS
 62
     4
 10
1613.660406
 20
1164.664537
 11
1614.677106
 21
1166.827901
  0
LINE
  8
CSLAYER1
  6
CONTINUOUS
 62
     4
 10
1613.660406
 20
1164.664537
 11
1619.746390
 21
1165.529438
  0
LINE
  8
CSLAYER1
  6
CONTINUOUS
 62
     4
 10
1613.886556
 20
1164.494666
 11
1619.695292
 21
1165.320166
  0
LINE
  8
CSLAYER1
  6
CONTINUOUS
 62
     4
 10
1614.112707
 20
1164.324796
 11
1619.644194
 21
1165.110895
  0
LINE
  8
CSLAYER1
  6
CONTINUOUS
 62
     4
 10
1614.338857
 20
1164.154925
 11
1619.593096
 21
1164.901624
  0
LINE
  8
CSLAYER1
  6
CONTINUOUS
 62
     4
 10
1614.565008
 20
1163.985055
 11
1619.541999
 21
1164.692353
  0
LINE
  8
CSLAYER1
  6
CONTINUOUS
 62
     4
 10
1614.791158
 20
1163.815184
 11
1619.490901
 21
1164.483081
  0
LINE
  8
CSLAYER1
  6
CONTINUOUS
 62
     4
 10
1615.017309
 20
1163.645314
 11
1619.439803
 21
1164.273810
  0
LINE
  8
CSLAYER1
  6
CONTINUOUS
 62
     4
 10
1615.243459
 20
1163.475443
 11
1619.388705
 21
1164.064539
  0
LINE
  8
CSLAYER1
  6
CONTINUOUS
 62
     4
 10
1615.469609
 20
1163.305573
 11
1619.337607
 21
1163.855268
  0
LINE
  8
CSLAYER1
  6
CONTINUOUS
 62
     4
 10
1615.695760
 20
1163.135702
 11
1619.286509
 21
1163.645997
  0
LINE
  8
CSLAYER1
  6
CONTINUOUS
 62
     4
 10
1615.921910
 20
1162.965832
 11
1619.235411
 21
1163.436725
  0
LINE
  8
CSLAYER1
  6
CONTINUOUS
 62
     4
 10
1616.148061
 20
1162.795961
 11
1619.184313
 21
1163.227454
  0
LINE
  8
CSLAYER1
  6
CONTINUOUS
 62
     4
 10
1616.374211
 20
1162.626091
 11
1619.133215
 21
1163.018183
  0
LINE
  8
CSLAYER1
  6
CONTINUOUS
 62
     4
 10
1616.600362
 20
1162.456220
 11
1619.082117
 21
1162.808912
  0
LINE
  8
CSLAYER1
  6
CONTINUOUS
 62
     4
 10
1616.826512
 20
1162.286350
 11
1619.031019
 21
1162.599640
  0
LINE
  8
CSLAYER1
  6
CONTINUOUS
 62
     4
 10
1617.052662
 20
1162.116479
 11
1618.979921
 21
1162.390369
  0
LINE
  8
CSLAYER1
  6
CONTINUOUS
 62
     4
 10
1617.278813
 20
1161.946609
 11
1618.928823
 21
1162.181098
  0
LINE
  8
CSLAYER1
  6
CONTINUOUS
 62
     4
 10
1617.504963
 20
1161.776738
 11
1618.877725
 21
1161.971827
  0
LINE
  8
CSLAYER1
  6
CONTINUOUS
 62
     4
 10
1617.731114
 20
1161.606868
 11
1618.826628
 21
1161.762555
  0
LINE
  8
CSLAYER1
  6
CONTINUOUS
 62
     4
 10
1617.957264
 20
1161.436997
 11
1618.775530
 21
1161.553284
  0
LINE
  8
CSLAYER1
  6
CONTINUOUS
 62
     4
 10
1618.183415
 20
1161.267127
 11
1618.724432
 21
1161.344013
  0
LINE
  8
CSLAYER1
  6
CONTINUOUS
 62
     4
 10
1618.409565
 20
1161.097256
 11
1618.673334
 21
1161.134742
  0
LINE
  8
CSLAYER1
  6
CONTINUOUS
 62
     4
 10
1613.762137
 20
1164.881004
 11
1619.797488
 21
1165.738709
  0
LINE
  8
CSLAYER1
  6
CONTINUOUS
 62
     4
 10
1613.863869
 20
1165.097470
 11
1619.570338
 21
1165.908437
  0
LINE
  8
CSLAYER1
  6
CONTINUOUS
 62
     4
 10
1613.965600
 20
1165.313937
 11
1618.804128
 21
1166.001558
  0
LINE
  8
CSLAYER1
  6
CONTINUOUS
 62
     4
 10
1614.067331
 20
1165.530404
 11
1618.099955
 21
1166.103495
  0
LINE
  8
CSLAYER1
  6
CONTINUOUS
 62
     4
 10
1614.169063
 20
1165.746871
 11
1617.445240
 21
1166.212461
  0
LINE
  8
CSLAYER1
  6
CONTINUOUS
 62
     4
 10
1614.270794
 20
1165.963338
 11
1616.831204
 21
1166.327207
  0
LINE
  8
CSLAYER1
  6
CONTINUOUS
 62
     4
 10
1614.372525
 20
1166.179805
 11
1616.251431
 21
1166.446823
  0
LINE
  8
CSLAYER1
  6
CONTINUOUS
 62
     4
 10
1614.474256
 20
1166.396272
 11
1615.701059
 21
1166.570617
  0
LINE
  8
CSLAYER1
  6
CONTINUOUS
 62
     4
 10
1614.575988
 20
1166.612739
 11
1615.176303
 21
1166.698052
  0
LINE
  8
CSLAYER1
  6
CONTINUOUS
 62
     4
 10
1592.477369
 20
1180.575948
 11
1603.589027
 21
1172.229545
  0
CIRCLE
  8
CSLAYER1
  6
CONTINUOUS
 62
     4
 10
1621.756658
 20
1196.416312
 40
22.000000
  0
CIRCLE
  8
CSLAYER1
  6
CONTINUOUS
 62
     4
 10
1621.756658
 20
1196.416312
 40
22.250000
  0
POINT
  8
CSLAYER1
 62
     4
 10
1509.426163
 20
1052.160795
  0
ARC
  8
CSLAYER1
  6
CONTINUOUS
 62
     4
 10
1509.426163
 20
1052.160795
 40
15.050000
 50
-69.738110
 51
20.126675
  0
ARC
  8
CSLAYER1
  6
CONTINUOUS
 62
     4
 10
1519.850146
 20
1023.923398
 40
15.050000
 50
110.261890
 51
133.108846
  0
ARC
  8
CSLAYER1
  6
CONTINUOUS
 62
     4
 10
1479.495312
 20
1055.347351
 40
15.050000
 50
335.109935
 51
353.922957
  0
POINT
  8
CSLAYER1
 62
     4
 10
1509.426163
 20
1052.160795
  0
ARC
  8
CSLAYER1
  6
CONTINUOUS
 62
     4
 10
1509.426163
 20
1052.160795
 40
13.000000
 50
104.461194
 51
359.723654
  0
POINT
  8
CSLAYER1
 62
     4
 10
1509.426163
 20
1052.160795
  0
ARC
  8
CSLAYER1
  6
CONTINUOUS
 62
     4
 10
1509.426163
 20
1052.160795
 40
15.050000
 50
84.058173
 51
173.922957
  0
POINT
  8
CSLAYER1
 62
     4
 10
1509.426163
 20
1052.160795
  0
POINT
  8
CSLAYER1
 62
     4
 10
1528.933031
 20
1077.211636
  0
POINT
  8
CSLAYER1
 62
     4
 10
1548.439899
 20
1102.262476
  0
CIRCLE
  8
CSLAYER1
  6
CONTINUOUS
 62
     4
 10
1509.426163
 20
1052.160795
 40
4.770000
  0
CIRCLE
  8
CSLAYER1
  6
CONTINUOUS
 62
     4
 10
1528.933031
 20
1077.211636
 40
4.770000
  0
ARC
  8
CSLAYER1
  6
CONTINUOUS
 62
     4
 10
1509.426163
 20
1052.160795
 40
13.000000
 50
104.461194
 51
359.723654
  0
ARC
  8
CSLAYER1
  6
CONTINUOUS
 62
     4
 10
1528.933031
 20
1077.211636
 40
13.000000
 50
-75.538806
 51
179.723654
  0
ARC
  8
CSLAYER1
  6
CONTINUOUS
 62
     4
 10
1528.933031
 20
1077.211636
 40
15.050000
 50
264.058173
 51
353.922957
  0
ARC
  8
CSLAYER1
  6
CONTINUOUS
 62
     4
 10
1548.439899
 20
1102.262476
 40
15.050000
 50
-69.738110
 51
20.126675
  0
ARC
  8
CSLAYER1
  6
CONTINUOUS
 62
     4
 10
1535.425861
 20
1052.035394
 40
13.000000
 50
104.461194
 51
179.723654
  0
ARC
  8
CSLAYER1
  6
CONTINUOUS
 62
     4
 10
1502.933333
 20
1077.337037
 40
13.000000
 50
284.461194
 51
359.723654
  0
ARC
  8
CSLAYER1
  6
CONTINUOUS
 62
     4
 10
1558.863882
 20
1074.025079
 40
15.050000
 50
110.261890
 51
173.922957
  0
ARC
  8
CSLAYER1
  6
CONTINUOUS
 62
     4
 10
1518.509047
 20
1105.449032
 40
15.050000
 50
290.261890
 51
353.922957
  0
POINT
  8
CSLAYER1
 62
     4
 10
1509.426163
 20
1052.160795
  0
CIRCLE
  8
CSLAYER1
  6
CONTINUOUS
 62
     4
 10
1509.426163
 20
1052.160795
 40
9.525000
  0
CIRCLE
  8
CSLAYER1
  6
CONTINUOUS
 62
     4
 10
1528.933031
 20
1077.211636
 40
9.525000
  0
ARC
  8
CSLAYER1
  6
CONTINUOUS
 62
     4
 10
1528.933031
 20
1077.211636
 40
15.050000
 50
110.261890
 51
200.126675
  0
POINT
  8
CSLAYER1
 62
     4
 10
1548.439899
 20
1102.262476
  0
ARC
  8
CSLAYER1
  6
CONTINUOUS
 62
     4
 10
1548.439899
 20
1102.262476
 40
13.000000
 50
104.461194
 51
359.723654
  0
POINT
  8
CSLAYER1
 62
     4
 10
1548.439899
 20
1102.262476
  0
ARC
  8
CSLAYER1
  6
CONTINUOUS
 62
     4
 10
1548.439899
 20
1102.262476
 40
15.050000
 50
84.058173
 51
173.922957
  0
POINT
  8
CSLAYER1
 62
     4
 10
1621.756658
 20
1196.416312
  0
POINT
  8
CSLAYER1
 62
     4
 10
1621.756658
 20
1196.416312
  0
ARC
  8
CSLAYER1
  6
CONTINUOUS
 62
     4
 10
1621.756658
 20
1196.416312
 40
30.250000
 50
-270.204447
 51
14.389295
  0
POINT
  8
CSLAYER1
 62
     4
 10
1567.946766
 20
1127.313316
  0
POINT
  8
CSLAYER1
 62
     4
 10
1567.946766
 20
1127.313316
  0
POINT
  8
CSLAYER1
 62
     4
 10
1567.946766
 20
1127.313316
  0
POINT
  8
CSLAYER1
 62
     4
 10
1567.946766
 20
1127.313316
  0
POINT
  8
CSLAYER1
 62
     4
 10
1567.946766
 20
1127.313316
  0
POINT
  8
CSLAYER1
 62
     4
 10
1567.946766
 20
1127.313316
  0
POINT
  8
CSLAYER1
 62
     4
 10
1567.946766
 20
1127.313316
  0
POINT
  8
CSLAYER1
 62
     4
 10
1567.946766
 20
1127.313316
  0
LINE
  8
CSLAYER1
  6
CONTINUOUS
 62
     4
 10
1577.162611
 20
1139.148361
 11
1567.694577
 21
1146.521035
  0
LINE
  8
CSLAYER1
  6
CONTINUOUS
 62
     4
 10
1549.080272
 20
1122.993153
 11
1558.730925
 21
1115.478275
  0
POINT
  8
CSLAYER1
 62
     4
 10
1567.946768
 20
1127.313318
  0
POINT
  8
CSLAYER1
 62
     4
 10
1567.946766
 20
1127.313316
  0
POINT
  8
CSLAYER1
 62
     4
 10
1567.946768
 20
1127.313318
  0
CIRCLE
  8
CSLAYER1
  6
CONTINUOUS
 62
     4
 10
1567.946768
 20
1127.313318
 40
4.770000
  0
ARC
  8
CSLAYER1
  6
CONTINUOUS
 62
     4
 10
1567.946768
 20
1127.313318
 40
13.000000
 50
-75.538806
 51
179.723654
  0
ARC
  8
CSLAYER1
  6
CONTINUOUS
 62
     4
 10
1574.439597
 20
1102.137076
 40
13.000000
 50
104.461194
 51
179.723654
  0
ARC
  8
CSLAYER1
  6
CONTINUOUS
 62
     4
 10
1541.947070
 20
1127.438720
 40
13.000000
 50
284.461194
 51
359.723654
  0
POINT
  8
CSLAYER1
 62
     4
 10
1567.946766
 20
1127.313316
  0
LINE
  8
CSLAYER1
  6
CONTINUOUS
 62
     4
 10
1547.174266
 20
1126.009413
 11
1564.120595
 21
1147.771993
  0
LINE
  8
CSLAYER1
  6
CONTINUOUS
 62
     4
 10
1569.593875
 20
1143.524249
 11
1552.633730
 21
1121.743926
  0
LINE
  8
CSLAYER1
  6
CONTINUOUS
 62
     4
 10
1554.291960
 20
1109.777730
 11
1636.293780
 21
1215.084975
  0
ARC
  8
CSLAYER1
  6
CONTINUOUS
 62
     4
 10
1564.171951
 20
1142.188094
 40
5.584136
 50
13.843874
 51
90.526941
  0
ARC
  8
CSLAYER1
  6
CONTINUOUS
 62
     4
 10
1557.555997
 20
1113.969426
 40
31.912350
 50
52.092424
 51
67.838602
  0
ARC
  8
CSLAYER1
  6
CONTINUOUS
 62
     4
 10
1552.600499
 20
1127.327963
 40
5.584136
 50
193.657906
 51
270.340973
  0
ARC
  8
CSLAYER1
  6
CONTINUOUS
 62
     4
 10
1578.337538
 20
1140.657210
 40
31.912350
 50
216.346245
 51
232.092424
  0
LINE
  8
CSLAYER1
  6
CONTINUOUS
 62
     4
 10
1577.162611
 20
1139.148361
 11
1586.630645
 21
1131.775686
  0
LINE
  8
CSLAYER1
  6
CONTINUOUS
 62
     4
 10
1568.381577
 20
1107.963398
 11
1558.730925
 21
1115.478275
  0
POINT
  8
CSLAYER1
 62
     4
 10
1567.946768
 20
1127.313318
  0
POINT
  8
CSLAYER1
 62
     4
 10
1567.946768
 20
1127.313318
  0
LINE
  8
CSLAYER1
  6
CONTINUOUS
 62
     4
 10
1571.772941
 20
1106.854643
 11
1588.719269
 21
1128.617223
  0
LINE
  8
CSLAYER1
  6
CONTINUOUS
 62
     4
 10
1583.259805
 20
1132.882710
 11
1566.299660
 21
1111.102387
  0
ARC
  8
CSLAYER1
  6
CONTINUOUS
 62
     4
 10
1583.293037
 20
1127.298673
 40
5.584136
 50
13.657906
 51
90.340973
  0
ARC
  8
CSLAYER1
  6
CONTINUOUS
 62
     4
 10
1557.555997
 20
1113.969426
 40
31.912350
 50
36.346245
 51
52.092424
  0
ARC
  8
CSLAYER1
  6
CONTINUOUS
 62
     4
 10
1571.721585
 20
1112.438543
 40
5.584136
 50
193.843874
 51
270.526941
  0
ARC
  8
CSLAYER1
  6
CONTINUOUS
 62
     4
 10
1578.337538
 20
1140.657210
 40
31.912350
 50
232.092424
 51
247.838602
  0
LINE
  8
CSLAYER1
  6
CONTINUOUS
 62
     4
 10
1567.694577
 20
1146.521035
 11
1567.692177
 21
1146.522904
  0
LINE
  8
CSLAYER1
  6
CONTINUOUS
 62
     4
 10
1586.630645
 20
1131.775686
 11
1586.633045
 21
1131.773818
  0
LINE
  8
CSLAYER1
  6
CONTINUOUS
 62
     4
 10
1623.573342
 20
1226.940721
 11
1627.946435
 21
1232.556673
  0
LINE
  8
CSLAYER1
  6
CONTINUOUS
 62
     4
 10
1630.406307
 20
1221.619951
 11
1637.111581
 21
1230.230905
  0
LINE
  8
CSLAYER1
  6
CONTINUOUS
 62
     4
 10
1623.573342
 20
1226.940721
 11
1637.239272
 21
1216.299182
  0
LINE
  8
CSLAYER1
  6
CONTINUOUS
 62
     4
 10
1650.905203
 20
1205.657643
 11
1655.214708
 21
1211.191937
  0
LINE
  8
CSLAYER1
  6
CONTINUOUS
 62
     4
 10
1644.072238
 20
1210.978412
 11
1650.749600
 21
1219.553523
  0
LINE
  8
CSLAYER1
  6
CONTINUOUS
 62
     4
 10
1651.835825
 20
1204.932975
 11
1637.239272
 21
1216.299182
  0
LINE
  8
CSLAYER1
  6
CONTINUOUS
 62
     4
 10
1586.255869
 20
1132.067521
 11
1585.841642
 21
1132.390076
  0
LINE
  8
CSLAYER1
  6
CONTINUOUS
 62
     4
 10
1576.599982
 20
1152.260700
 11
1602.583170
 21
1185.628472
  0
LINE
  8
CSLAYER1
  6
CONTINUOUS
 62
     4
 10
1570.501361
 20
1146.870262
 11
1601.827101
 21
1187.098970
  0
LINE
  8
CSLAYER1
  6
CONTINUOUS
 62
     4
 10
1649.869779
 20
1202.408166
 11
1620.676673
 21
1225.140579
  0
LINE
  8
CSLAYER1
  6
CONTINUOUS
 62
     4
 10
1649.869779
 20
1202.408166
 11
1651.835825
 21
1204.932975
  0
LINE
  8
CSLAYER1
  6
CONTINUOUS
 62
     4
 10
1622.642720
 20
1227.665388
 11
1637.239272
 21
1216.299182
  0
LINE
  8
CSLAYER1
  6
CONTINUOUS
 62
     4
 10
1620.676673
 20
1225.140579
 11
1622.642720
 21
1227.665388
  0
LINE
  8
CSLAYER1
  6
CONTINUOUS
 62
     4
 10
1583.306506
 20
1147.038389
 11
1575.416478
 21
1153.182285
  0
LINE
  8
CSLAYER1
  6
CONTINUOUS
 62
     4
 10
1576.599982
 20
1152.260700
 11
1573.820247
 21
1151.132395
  0
LINE
  8
CSLAYER1
  6
CONTINUOUS
 62
     4
 10
1568.483579
 20
1145.906646
 11
1568.069353
 21
1146.229200
  0
LINE
  8
CSLAYER1
  6
CONTINUOUS
 62
     4
 10
1587.044871
 20
1131.453132
 11
1586.630645
 21
1131.775686
  0
LINE
  8
CSLAYER1
  6
CONTINUOUS
 62
     4
 10
1590.013030
 20
1141.816078
 11
1615.996219
 21
1175.183850
  0
LINE
  8
CSLAYER1
  6
CONTINUOUS
 62
     4
 10
1583.306506
 20
1147.038389
 11
1591.196535
 21
1140.894494
  0
LINE
  8
CSLAYER1
  6
CONTINUOUS
 62
     4
 10
1590.013030
 20
1141.816078
 11
1589.600304
 21
1138.844604
  0
LINE
  8
CSLAYER1
  6
CONTINUOUS
 62
     4
 10
1586.281418
 20
1134.582471
 11
1617.607158
 21
1174.811180
  0
LINE
  8
CSLAYER1
  6
CONTINUOUS
 62
     4
 10
1567.694577
 20
1146.521035
 11
1567.280350
 21
1146.843590
  0
LINE
  8
CSLAYER1
  6
CONTINUOUS
 62
     4
 10
1586.630645
 20
1131.775686
 11
1567.694577
 21
1146.521035
  0
ARC
  8
CSLAYER1
  6
CONTINUOUS
 62
     4
 10
1587.859424
 20
1133.353692
 40
2.000000
 50
142.092424
 51
232.092424
  0
ARC
  8
CSLAYER1
  6
CONTINUOUS
 62
     4
 10
1568.923356
 20
1148.099041
 40
2.000000
 50
232.092424
 51
322.092424
  0
POINT
  8
CSLAYER1
 62
     4
 10
1577.162611
 20
1139.148361
  0
LINE
  8
CSLAYER1
  6
CONTINUOUS
 62
     4
 10
1625.906155
 20
1218.021441
 11
1627.383197
 21
1219.918268
  0
LINE
  8
CSLAYER1
  6
CONTINUOUS
 62
     4
 10
1641.722907
 20
1205.780774
 11
1643.163254
 21
1207.630477
  0
LINE
  8
CSLAYER1
  6
CONTINUOUS
 62
     4
 10
1640.930142
 20
1207.204148
 11
1641.979750
 21
1208.552062
  0
CIRCLE
  8
CSLAYER1
  6
CONTINUOUS
 62
     4
 10
1621.756656
 20
1196.416310
 40
22.000000
  0
CIRCLE
  8
CSLAYER1
  6
CONTINUOUS
 62
     4
 10
1548.439899
 20
1102.262476
 40
4.770000
  0
CIRCLE
  8
CSLAYER1
  6
CONTINUOUS
 62
     4
 10
1567.946766
 20
1127.313316
 40
4.770000
  0
ARC
  8
CSLAYER1
  6
CONTINUOUS
 62
     4
 10
1567.946766
 20
1127.313316
 40
13.000000
 50
-76.877857
 51
178.384603
  0
ARC
  8
CSLAYER1
  6
CONTINUOUS
 62
     4
 10
1574.439596
 20
1102.137074
 40
13.000000
 50
104.461194
 51
179.723654
  0
ARC
  8
CSLAYER1
  6
CONTINUOUS
 62
     4
 10
1541.947069
 20
1127.438718
 40
13.000000
 50
284.461194
 51
359.723654
  0
CIRCLE
  8
CSLAYER1
  6
CONTINUOUS
 62
     4
 10
1548.439899
 20
1102.262476
 40
9.525000
  0
CIRCLE
  8
CSLAYER1
  6
CONTINUOUS
 62
     4
 10
1567.946766
 20
1127.313316
 40
9.525000
  0
ARC
  8
CSLAYER1
  6
CONTINUOUS
 62
     4
 10
1624.620140
 20
1200.227340
 40
32.500000
 50
-37.417672
 51
22.263747
  0
LINE
  8
CSLAYER1
  6
CONTINUOUS
 62
     4
 10
1650.432526
 20
1180.479663
 11
1547.136984
 21
1045.461031
  0
LINE
  8
CSLAYER1
  6
CONTINUOUS
 62
     4
 10
1598.807754
 20
1219.975017
 11
1495.512213
 21
1084.956385
  0
ARC
  8
CSLAYER1
  6
CONTINUOUS
 62
     4
 10
1521.324598
 20
1065.208708
 40
32.500000
 50
142.582328
 51
322.582328
  0
ARC
  8
CSLAYER1
  6
CONTINUOUS
 62
     4
 10
1521.324598
 20
1065.208708
 40
59.000000
 50
280.806980
 51
322.582328
  0
POINT
  8
CSLAYER1
 62
     4
 10
1624.620140
 20
1200.227340
  0
ARC
  8
CSLAYER1
  6
CONTINUOUS
 62
     4
 10
1624.620140
 20
1200.227340
 40
32.500000
 50
22.263747
 51
46.753114
  0
ARC
  8
CSLAYER1
  6
CONTINUOUS
 62
     4
 10
1624.620140
 20
1200.227340
 40
32.500000
 50
46.753114
 51
142.582328
  0
ENDBLK
  8
0
  0
BLOCK
  8
CSLAYER1
  2
BLKF0002
 70
   64
 10
0.0
 20
0.0
 30
0.0
  0
LINE
  8
CSLAYER1
  6
CONTINUOUS
 62
     4
 10
1156.582655
 20
635.016227
 11
1162.604312
 21
630.493124
  0
LINE
  8
CSLAYER1
  6
CONTINUOUS
 62
     4
 10
1221.484947
 20
755.107893
 11
1229.292524
 21
765.502206
  0
LINE
  8
CSLAYER1
  6
CONTINUOUS
 62
     4
 10
1062.138802
 20
554.623964
 11
1100.897700
 21
525.510632
  0
LINE
  8
CSLAYER1
  6
CONTINUOUS
 62
     4
 10
1096.372024
 20
600.199029
 11
1120.358900
 21
582.181543
  0
LINE
  8
CSLAYER1
  6
CONTINUOUS
 62
     4
 10
1180.250998
 20
708.537930
 11
1199.601559
 21
694.002964
  0
LINE
  8
CSLAYER1
  6
CONTINUOUS
 62
     4
 10
1223.295805
 20
770.006578
 11
1237.760268
 21
759.141751
  0
LINE
  8
CSLAYER1
  6
CONTINUOUS
 62
     4
 10
1062.138802
 20
554.623964
 11
1096.372024
 21
600.199029
  0
LINE
  8
CSLAYER1
  6
CONTINUOUS
 62
     4
 10
1097.971149
 20
598.997863
 11
1185.055661
 21
714.934431
  0
LINE
  8
CSLAYER1
  6
CONTINUOUS
 62
     4
 10
1192.855951
 20
715.328746
 11
1222.284510
 21
754.507311
  0
LINE
  8
CSLAYER1
  6
CONTINUOUS
 62
     4
 10
1062.138802
 20
554.623964
 11
1071.726265
 21
537.416972
  0
LINE
  8
CSLAYER1
  6
CONTINUOUS
 62
     4
 10
1119.154091
 20
575.582420
 11
1126.845622
 21
569.805008
  0
LINE
  8
CSLAYER1
  6
CONTINUOUS
 62
     4
 10
1118.557152
 20
579.782856
 11
1163.901156
 21
640.149827
  0
LINE
  8
CSLAYER1
  6
CONTINUOUS
 62
     4
 10
1096.827438
 20
518.562495
 11
1071.726265
 21
537.416972
  0
ARC
  8
CSLAYER1
  6
CONTINUOUS
 62
     4
 10
1120.955839
 20
577.981107
 40
3.000000
 50
143.088348
 51
233.088348
  0
ARC
  8
CSLAYER1
  6
CONTINUOUS
 62
     4
 10
1166.299844
 20
638.348079
 40
3.000000
 50
53.088348
 51
143.088348
  0
LINE
  8
CSLAYER1
  6
CONTINUOUS
 62
     4
 10
1221.484947
 20
755.107893
 11
1231.146092
 21
747.851028
  0
LINE
  8
CSLAYER1
  6
CONTINUOUS
 62
     4
 10
1201.864693
 20
727.322184
 11
1213.847477
 21
718.321444
  0
LINE
  8
CSLAYER1
  6
CONTINUOUS
 62
     4
 10
1193.043999
 20
698.928605
 11
1199.601559
 21
694.002964
  0
LINE
  8
CSLAYER1
  6
CONTINUOUS
 62
     4
 10
1120.358900
 20
582.181543
 11
1182.768564
 21
665.268215
  0
LINE
  8
CSLAYER1
  6
CONTINUOUS
 62
     4
 10
1104.367649
 20
594.193200
 11
1186.647499
 21
703.733268
  0
LINE
  8
CSLAYER1
  6
CONTINUOUS
 62
     4
 10
1102.768524
 20
595.394366
 11
1185.048374
 21
704.934433
  0
ARC
  8
CSLAYER1
  6
CONTINUOUS
 62
     4
 10
1186.654786
 20
713.733265
 40
2.000000
 50
53.088348
 51
143.088348
  0
LINE
  8
CSLAYER1
  6
CONTINUOUS
 62
     4
 10
1247.319119
 20
801.989079
 11
1258.111579
 21
793.882438
  0
LINE
  8
CSLAYER1
  6
CONTINUOUS
 62
     4
 10
1222.554809
 20
754.304278
 11
1228.711441
 21
749.679790
  0
LINE
  8
CSLAYER1
  6
CONTINUOUS
 62
     4
 10
1254.541172
 20
796.564311
 11
1258.111579
 21
793.882438
  0
LINE
  8
CSLAYER1
  6
CONTINUOUS
 62
     4
 10
1221.353644
 20
752.705153
 11
1227.510275
 21
748.080665
  0
LINE
  8
CSLAYER1
  6
CONTINUOUS
 62
     4
 10
1221.353644
 20
752.705153
 11
1222.554809
 21
754.304278
  0
LINE
  8
CSLAYER1
  6
CONTINUOUS
 62
     4
 10
1218.409330
 20
746.787297
 11
1223.606487
 21
742.883509
  0
LINE
  8
CSLAYER1
  6
CONTINUOUS
 62
     4
 10
1257.495705
 20
800.497714
 11
1254.541172
 21
796.564311
  0
LINE
  8
CSLAYER1
  6
CONTINUOUS
 62
     4
 10
1260.496285
 20
798.243861
 11
1257.541752
 21
794.310458
  0
LINE
  8
CSLAYER1
  6
CONTINUOUS
 62
     4
 10
1218.409330
 20
746.787297
 11
1217.954000
 21
747.855407
  0
LINE
  8
CSLAYER1
  6
CONTINUOUS
 62
     4
 10
1258.648381
 20
800.357987
 11
1257.495705
 21
800.497714
  0
LINE
  8
CSLAYER1
  6
CONTINUOUS
 62
     4
 10
1221.509116
 20
752.588372
 11
1217.954000
 21
747.855407
  0
ARC
  8
CSLAYER1
  6
CONTINUOUS
 62
     4
 10
1221.074321
 20
748.885246
 40
3.285875
 50
208.401853
 51
268.052731
  0
ARC
  8
CSLAYER1
  6
CONTINUOUS
 62
     4
 10
1257.395488
 20
797.240014
 40
3.259241
 50
17.716730
 51
78.654247
  0
ARC
  8
CSLAYER1
  6
CONTINUOUS
 62
     4
 10
1231.065391
 20
752.813630
 40
12.419443
 50
215.500394
 51
233.088348
  0
LINE
  8
CSLAYER1
  6
CONTINUOUS
 62
     4
 10
1224.509695
 20
750.334518
 11
1220.954579
 21
745.601553
  0
LINE
  8
CSLAYER1
  6
CONTINUOUS
 62
     4
 10
1218.865890
 20
742.066963
 11
1221.504447
 21
740.085040
  0
LINE
  8
CSLAYER1
  6
CONTINUOUS
 62
     4
 10
1218.726605
 20
743.047065
 11
1220.408236
 21
745.285840
  0
LINE
  8
CSLAYER1
  6
CONTINUOUS
 62
     4
 10
1218.865890
 20
742.066963
 11
1220.967930
 21
744.865432
  0
LINE
  8
CSLAYER1
  6
CONTINUOUS
 62
     4
 10
1218.726605
 20
743.047065
 11
1218.865890
 21
742.066963
  0
LINE
  8
CSLAYER1
  6
CONTINUOUS
 62
     4
 10
1218.726605
 20
743.047065
 11
1221.924855
 21
740.644733
  0
LINE
  8
CSLAYER1
  6
CONTINUOUS
 62
     4
 10
1231.146092
 20
747.851028
 11
1228.711441
 21
749.679790
  0
LINE
  8
CSLAYER1
  6
CONTINUOUS
 62
     4
 10
1226.821438
 20
740.468632
 11
1223.606487
 21
742.883509
  0
ARC
  8
CSLAYER1
  6
CONTINUOUS
 62
     4
 10
1231.065391
 20
752.813630
 40
12.419443
 50
233.088348
 51
250.676302
  0
LINE
  8
CSLAYER1
  6
CONTINUOUS
 62
     4
 10
1228.009549
 20
742.496796
 11
1226.955739
 21
741.093847
  0
LINE
  8
CSLAYER1
  6
CONTINUOUS
 62
     4
 10
1224.143003
 20
738.103116
 11
1221.504447
 21
740.085040
  0
LINE
  8
CSLAYER1
  6
CONTINUOUS
 62
     4
 10
1225.123105
 20
738.242402
 11
1226.804737
 21
740.481177
  0
LINE
  8
CSLAYER1
  6
CONTINUOUS
 62
     4
 10
1224.143003
 20
738.103116
 11
1226.245043
 21
740.901585
  0
LINE
  8
CSLAYER1
  6
CONTINUOUS
 62
     4
 10
1225.123105
 20
738.242402
 11
1224.143003
 21
738.103116
  0
LINE
  8
CSLAYER1
  6
CONTINUOUS
 62
     4
 10
1225.123105
 20
738.242402
 11
1221.924855
 21
740.644733
  0
LINE
  8
CSLAYER1
  6
CONTINUOUS
 62
     4
 10
1227.438572
 20
750.635892
 11
1229.221786
 21
746.795082
  0
LINE
  8
CSLAYER1
  6
CONTINUOUS
 62
     4
 10
1223.295805
 20
770.006578
 11
1247.319119
 21
801.989079
  0
LINE
  8
CSLAYER1
  6
CONTINUOUS
 62
     4
 10
1258.648381
 20
800.357987
 11
1260.909884
 21
798.659283
  0
LINE
  8
CSLAYER1
  6
CONTINUOUS
 62
     4
 10
1187.855952
 20
715.332390
 11
1204.689387
 21
702.688135
  0
ARC
  8
CSLAYER1
  6
CONTINUOUS
 62
     4
 10
1190.457263
 20
717.130495
 40
3.000000
 50
233.088348
 51
323.088348
  0
ENDBLK
  8
0
  0
BLOCK
  8
CSLAYER1
  2
BLKF0003
 70
   64
 10
0.0
 20
0.0
 30
0.0
  0
LINE
  8
CSLAYER1
  6
CONTINUOUS
 62
     1
 10
389.688606
 20
442.132214
 11
389.688606
 21
439.932214
  0
LINE
  8
CSLAYER1
  6
CONTINUOUS
 62
     1
 10
396.688606
 20
442.132214
 11
396.688606
 21
439.932214
  0
LINE
  8
CSLAYER1
  6
CONTINUOUS
 62
     1
 10
396.688606
 20
440.932214
 11
389.688606
 21
440.932214
  0
LINE
  8
CSLAYER1
  6
CONTINUOUS
 62
     1
 10
395.288606
 20
443.532214
 11
391.088606
 21
443.532214
  0
LINE
  8
CSLAYER1
  6
CONTINUOUS
 62
     1
 10
397.688606
 20
439.932214
 11
397.688606
 21
439.132214
  0
LINE
  8
CSLAYER1
  6
CONTINUOUS
 62
     1
 10
388.688606
 20
439.932214
 11
388.688606
 21
439.132214
  0
LINE
  8
CSLAYER1
  6
CONTINUOUS
 62
     1
 10
396.688606
 20
442.132214
 11
396.688606
 21
440.932214
  0
LINE
  8
CSLAYER1
  6
CONTINUOUS
 62
     1
 10
397.688606
 20
439.932214
 11
388.688606
 21
439.932214
  0
ARC
  8
CSLAYER1
  6
CONTINUOUS
 62
     1
 10
395.288606
 20
442.132214
 40
1.400000
 50
-0.000000
 51
90.000000
  0
ARC
  8
CSLAYER1
  6
CONTINUOUS
 62
     1
 10
391.088606
 20
442.132214
 40
1.400000
 50
90.000000
 51
180.000000
  0
LINE
  8
CSLAYER1
  6
CONTINUOUS
 62
     1
 10
394.228557
 20
439.932214
 11
391.843355
 21
440.932214
  0
LINE
  8
CSLAYER1
  6
CONTINUOUS
 62
     1
 10
393.188606
 20
444.750836
 11
393.188606
 21
437.515195
  0
ENDBLK
  8
0
  0
BLOCK
  8
CSLAYER1
  2
BLKF0004
 70
   64
 10
0.0
 20
0.0
 30
0.0
  0
LINE
  8
CSLAYER1
  6
CONTINUOUS
 62
     1
 10
2122.535375
 20
442.132214
 11
2122.535375
 21
439.932214
  0
LINE
  8
CSLAYER1
  6
CONTINUOUS
 62
     1
 10
2129.535375
 20
442.132214
 11
2129.535375
 21
439.932214
  0
LINE
  8
CSLAYER1
  6
CONTINUOUS
 62
     1
 10
2129.535375
 20
440.932214
 11
2122.535375
 21
440.932214
  0
LINE
  8
CSLAYER1
  6
CONTINUOUS
 62
     1
 10
2128.135375
 20
443.532214
 11
2123.935375
 21
443.532214
  0
LINE
  8
CSLAYER1
  6
CONTINUOUS
 62
     1
 10
2130.535375
 20
439.932214
 11
2130.535375
 21
439.132214
  0
LINE
  8
CSLAYER1
  6
CONTINUOUS
 62
     1
 10
2121.535375
 20
439.932214
 11
2121.535375
 21
439.132214
  0
LINE
  8
CSLAYER1
  6
CONTINUOUS
 62
     1
 10
2129.535375
 20
442.132214
 11
2129.535375
 21
440.932214
  0
LINE
  8
CSLAYER1
  6
CONTINUOUS
 62
     1
 10
2130.535375
 20
439.932214
 11
2121.535375
 21
439.932214
  0
ARC
  8
CSLAYER1
  6
CONTINUOUS
 62
     1
 10
2128.135375
 20
442.132214
 40
1.400000
 50
-0.000000
 51
90.000000
  0
ARC
  8
CSLAYER1
  6
CONTINUOUS
 62
     1
 10
2123.935375
 20
442.132214
 40
1.400000
 50
90.000000
 51
180.000000
  0
LINE
  8
CSLAYER1
  6
CONTINUOUS
 62
     1
 10
2127.075327
 20
439.932214
 11
2124.690124
 21
440.932214
  0
ENDBLK
  8
0
  0
BLOCK
  8
CSLAYER1
  2
BLKF0005
 70
   64
 10
0.0
 20
0.0
 30
0.0
  0
LINE
  8
CSLAYER1
  6
CONTINUOUS
 62
     3
 10
2517.622120
 20
1842.073526
 11
2517.622120
 21
1904.073526
  0
LINE
  8
CSLAYER1
  6
CONTINUOUS
 62
     3
 10
2520.122120
 20
1839.573526
 11
2605.122120
 21
1839.573526
  0
LINE
  8
CSLAYER1
  6
CENTER
 62
     5
 10
2459.272481
 20
1912.073526
 11
2517.622120
 21
1912.073526
  0
LINE
  8
CSLAYER1
  6
CONTINUOUS
 62
     2
 10
2520.122120
 20
1896.073526
 11
2605.122120
 21
1896.073526
  0
LINE
  8
CSLAYER1
  6
CONTINUOUS
 62
     3
 10
2520.122120
 20
1844.573526
 11
2520.122120
 21
1889.573526
  0
LINE
  8
CSLAYER1
  6
CONTINUOUS
 62
     3
 10
2607.622120
 20
1842.073526
 11
2607.622120
 21
1912.073526
  0
LINE
  8
CSLAYER1
  6
CONTINUOUS
 62
     3
 10
2522.622120
 20
1842.073526
 11
2599.622120
 21
1842.073526
  0
LINE
  8
CSLAYER1
  6
CONTINUOUS
 62
     3
 10
2522.622120
 20
1892.073526
 11
2599.622120
 21
1892.073526
  0
ARC
  8
CSLAYER1
  6
CONTINUOUS
 62
     3
 10
2545.553939
 20
1867.073526
 40
59.568182
 50
-24.814837
 51
24.814837
  0
ARC
  8
CSLAYER1
  6
CONTINUOUS
 62
     3
 10
2522.622120
 20
1844.573526
 40
2.500000
 50
180.000000
 51
270.000000
  0
ARC
  8
CSLAYER1
  6
CONTINUOUS
 62
     3
 10
2522.622120
 20
1889.573526
 40
2.500000
 50
90.000000
 51
180.000000
  0
ARC
  8
CSLAYER1
  6
CONTINUOUS
 62
     3
 10
2520.122120
 20
1842.073526
 40
2.500000
 50
180.000000
 51
270.000000
  0
ARC
  8
CSLAYER1
  6
CONTINUOUS
 62
     3
 10
2605.122120
 20
1842.073526
 40
2.500000
 50
270.000000
 51
360.000000
  0
ARC
  8
CSLAYER1
  6
CONTINUOUS
 62
     2
 10
2605.122120
 20
1898.573526
 40
2.500000
 50
270.000000
 51
360.000000
  0
ARC
  8
CSLAYER1
  6
CONTINUOUS
 62
     2
 10
2520.122120
 20
1898.573526
 40
2.500000
 50
180.000000
 51
270.000000
  0
LINE
  8
CSLAYER1
  6
CONTINUOUS
 62
     3
 10
2517.622120
 20
1982.073526
 11
2517.622120
 21
1920.073526
  0
LINE
  8
CSLAYER1
  6
CONTINUOUS
 62
     3
 10
2520.122120
 20
1984.573526
 11
2605.122120
 21
1984.573526
  0
LINE
  8
CSLAYER1
  6
CONTINUOUS
 62
     2
 10
2520.122120
 20
1928.073526
 11
2605.122120
 21
1928.073526
  0
LINE
  8
CSLAYER1
  6
CONTINUOUS
 62
     3
 10
2607.622120
 20
1982.073526
 11
2607.622120
 21
1912.073526
  0
ARC
  8
CSLAYER1
  6
CONTINUOUS
 62
     3
 10
2520.122120
 20
1982.073526
 40
2.500000
 50
90.000000
 51
180.000000
  0
ARC
  8
CSLAYER1
  6
CONTINUOUS
 62
     3
 10
2605.122120
 20
1982.073526
 40
2.500000
 50
0.000000
 51
90.000000
  0
ARC
  8
CSLAYER1
  6
CONTINUOUS
 62
     2
 10
2605.122120
 20
1925.573526
 40
2.500000
 50
0.000000
 51
90.000000
  0
ARC
  8
CSLAYER1
  6
CONTINUOUS
 62
     2
 10
2520.122120
 20
1925.573526
 40
2.500000
 50
90.000000
 51
180.000000
  0
LINE
  8
CSLAYER1
  6
CONTINUOUS
 62
     3
 10
2520.122120
 20
1979.573526
 11
2520.122120
 21
1934.573526
  0
LINE
  8
CSLAYER1
  6
CONTINUOUS
 62
     3
 10
2522.622120
 20
1982.073526
 11
2599.622120
 21
1982.073526
  0
LINE
  8
CSLAYER1
  6
CONTINUOUS
 62
     3
 10
2522.622120
 20
1932.073526
 11
2599.622120
 21
1932.073526
  0
ARC
  8
CSLAYER1
  6
CONTINUOUS
 62
     3
 10
2545.553939
 20
1957.073526
 40
59.568182
 50
-24.814837
 51
24.814837
  0
ARC
  8
CSLAYER1
  6
CONTINUOUS
 62
     3
 10
2522.622120
 20
1979.573526
 40
2.500000
 50
90.000000
 51
180.000000
  0
ARC
  8
CSLAYER1
  6
CONTINUOUS
 62
     3
 10
2522.622120
 20
1934.573526
 40
2.500000
 50
180.000000
 51
270.000000
  0
LINE
  8
CSLAYER1
  6
CONTINUOUS
 62
     3
 10
2510.622120
 20
1919.073526
 11
2510.622120
 21
1915.573526
  0
LINE
  8
CSLAYER1
  6
CONTINUOUS
 62
     3
 10
2459.272481
 20
1915.573526
 11
2510.622120
 21
1915.573526
  0
LINE
  8
CSLAYER1
  6
CONTINUOUS
 62
     3
 10
2511.622120
 20
1920.073526
 11
2517.622120
 21
1920.073526
  0
LINE
  8
CSLAYER1
  6
CONTINUOUS
 62
     3
 10
2511.622120
 20
1904.073526
 11
2517.622120
 21
1904.073526
  0
LINE
  8
CSLAYER1
  6
CONTINUOUS
 62
     3
 10
2459.272481
 20
1908.573526
 11
2510.622120
 21
1908.573526
  0
ARC
  8
CSLAYER1
  6
CONTINUOUS
 62
     3
 10
2511.622120
 20
1905.073526
 40
1.000000
 50
180.000000
 51
270.000000
  0
ARC
  8
CSLAYER1
  6
CONTINUOUS
 62
     3
 10
2511.622120
 20
1919.073526
 40
1.000000
 50
90.000000
 51
180.000000
  0
LINE
  8
CSLAYER1
  6
CONTINUOUS
 62
     3
 10
2510.622120
 20
1908.573526
 11
2510.622120
 21
1905.073526
  0
LINE
  8
CSLAYER1
  6
CONTINUOUS
 62
     2
 10
2510.622120
 20
1915.573526
 11
2510.622120
 21
1908.573526
  0
LINE
  8
CSLAYER1
  6
CONTINUOUS
 62
     2
 10
2517.622120
 20
1904.073526
 11
2517.622120
 21
1912.073526
  0
LINE
  8
CSLAYER1
  6
CONTINUOUS
 62
     2
 10
2517.622120
 20
1920.073526
 11
2517.622120
 21
1912.073526
  0
LINE
  8
CSLAYER1
  6
CONTINUOUS
 62
     2
 10
2537.115132
 20
1899.910867
 11
2527.980132
 21
1899.910867
  0
LINE
  8
CSLAYER1
  6
CONTINUOUS
 62
     2
 10
2537.115132
 20
1923.535867
 11
2527.980132
 21
1923.535867
  0
LINE
  8
CSLAYER1
  6
CONTINUOUS
 62
     2
 10
2526.720132
 20
1901.170867
 11
2526.720132
 21
1922.275867
  0
LINE
  8
CSLAYER1
  6
CONTINUOUS
 62
     2
 10
2538.375132
 20
1901.170867
 11
2538.375132
 21
1922.275867
  0
LINE
  8
CSLAYER1
  6
CONTINUOUS
 62
     2
 10
2536.485132
 20
1921.645867
 11
2528.452632
 21
1921.645867
  0
LINE
  8
CSLAYER1
  6
CONTINUOUS
 62
     2
 10
2536.485132
 20
1918.495867
 11
2535.540132
 21
1918.495867
  0
LINE
  8
CSLAYER1
  6
CONTINUOUS
 62
     2
 10
2536.485132
 20
1909.833367
 11
2535.540132
 21
1909.833367
  0
LINE
  8
CSLAYER1
  6
CONTINUOUS
 62
     2
 10
2536.485132
 20
1905.265867
 11
2531.445132
 21
1905.265867
  0
LINE
  8
CSLAYER1
  6
CONTINUOUS
 62
     2
 10
2537.587632
 20
1906.368367
 11
2537.587632
 21
1908.730867
  0
LINE
  8
CSLAYER1
  6
CONTINUOUS
 62
     2
 10
2530.342632
 20
1906.368367
 11
2530.342632
 21
1908.730867
  0
LINE
  8
CSLAYER1
  6
CONTINUOUS
 62
     2
 10
2527.350132
 20
1919.598367
 11
2527.350132
 21
1920.543367
  0
LINE
  8
CSLAYER1
  6
CONTINUOUS
 62
     2
 10
2534.595132
 20
1910.778367
 11
2534.595132
 21
1917.550867
  0
LINE
  8
CSLAYER1
  6
CONTINUOUS
 62
     2
 10
2533.807632
 20
1910.778367
 11
2533.807632
 21
1917.550867
  0
ARC
  8
CSLAYER1
  6
CONTINUOUS
 62
     2
 10
2536.485132
 20
1906.368367
 40
1.102500
 50
270.000000
 51
360.000000
  0
ARC
  8
CSLAYER1
  6
CONTINUOUS
 62
     2
 10
2531.445132
 20
1906.368367
 40
1.102500
 50
180.000000
 51
270.000000
  0
ARC
  8
CSLAYER1
  6
CONTINUOUS
 62
     2
 10
2531.445132
 20
1908.730867
 40
1.102500
 50
90.000000
 51
180.000000
  0
ARC
  8
CSLAYER1
  6
CONTINUOUS
 62
     2
 10
2536.485132
 20
1908.730867
 40
1.102500
 50
0.000000
 51
90.000000
  0
ARC
  8
CSLAYER1
  6
CONTINUOUS
 62
     2
 10
2528.452632
 20
1919.598367
 40
1.102500
 50
180.000000
 51
270.000000
  0
ARC
  8
CSLAYER1
  6
CONTINUOUS
 62
     2
 10
2528.452632
 20
1920.543367
 40
1.102500
 50
90.000000
 51
180.000000
  0
ARC
  8
CSLAYER1
  6
CONTINUOUS
 62
     2
 10
2536.485132
 20
1920.543367
 40
1.102500
 50
0.000000
 51
90.000000
  0
ARC
  8
CSLAYER1
  6
CONTINUOUS
 62
     2
 10
2536.485132
 20
1919.598367
 40
1.102500
 50
270.000000
 51
360.000000
  0
LINE
  8
CSLAYER1
  6
CONTINUOUS
 62
     2
 10
2532.862632
 20
1909.833367
 11
2531.445132
 21
1909.833367
  0
LINE
  8
CSLAYER1
  6
CONTINUOUS
 62
     2
 10
2532.862632
 20
1918.495867
 11
2528.452632
 21
1918.495867
  0
ARC
  8
CSLAYER1
  6
CONTINUOUS
 62
     2
 10
2535.540132
 20
1910.778367
 40
0.945000
 50
180.000000
 51
270.000000
  0
ARC
  8
CSLAYER1
  6
CONTINUOUS
 62
     2
 10
2532.862632
 20
1910.778367
 40
0.945000
 50
270.000000
 51
360.000000
  0
ARC
  8
CSLAYER1
  6
CONTINUOUS
 62
     2
 10
2532.862632
 20
1917.550867
 40
0.945000
 50
0.000000
 51
90.000000
  0
ARC
  8
CSLAYER1
  6
CONTINUOUS
 62
     2
 10
2537.115132
 20
1901.170867
 40
1.260000
 50
270.000000
 51
360.000000
  0
ARC
  8
CSLAYER1
  6
CONTINUOUS
 62
     2
 10
2527.980132
 20
1901.170867
 40
1.260000
 50
180.000000
 51
270.000000
  0
ARC
  8
CSLAYER1
  6
CONTINUOUS
 62
     2
 10
2527.980132
 20
1922.275867
 40
1.260000
 50
90.000000
 51
180.000000
  0
ARC
  8
CSLAYER1
  6
CONTINUOUS
 62
     2
 10
2537.115132
 20
1922.275867
 40
1.260000
 50
0.000000
 51
90.000000
  0
ARC
  8
CSLAYER1
  6
CONTINUOUS
 62
     2
 10
2535.540132
 20
1917.550867
 40
0.945000
 50
90.000000
 51
180.000000
  0
LINE
  8
CSLAYER1
  6
CONTINUOUS
 62
     2
 10
2537.587632
 20
1919.598367
 11
2537.587632
 21
1920.543367
  0
CIRCLE
  8
CSLAYER1
  6
CONTINUOUS
 62
     2
 10
2552.122120
 20
1862.073526
 40
2.500000
  0
CIRCLE
  8
CSLAYER1
  6
CONTINUOUS
 62
     2
 10
2552.122120
 20
1852.073526
 40
2.500000
  0
CIRCLE
  8
CSLAYER1
  6
CONTINUOUS
 62
     2
 10
2562.122120
 20
1852.073526
 40
2.500000
  0
CIRCLE
  8
CSLAYER1
  6
CONTINUOUS
 62
     2
 10
2562.122120
 20
1862.073526
 40
2.500000
  0
CIRCLE
  8
CSLAYER1
  6
CONTINUOUS
 62
     2
 10
2572.122120
 20
1862.073526
 40
2.500000
  0
CIRCLE
  8
CSLAYER1
  6
CONTINUOUS
 62
     2
 10
2572.122120
 20
1852.073526
 40
2.500000
  0
CIRCLE
  8
CSLAYER1
  6
CONTINUOUS
 62
     2
 10
2582.122120
 20
1852.073526
 40
2.500000
  0
CIRCLE
  8
CSLAYER1
  6
CONTINUOUS
 62
     2
 10
2582.122120
 20
1862.073526
 40
2.500000
  0
CIRCLE
  8
CSLAYER1
  6
CONTINUOUS
 62
     2
 10
2592.122120
 20
1862.073526
 40
2.500000
  0
CIRCLE
  8
CSLAYER1
  6
CONTINUOUS
 62
     2
 10
2592.122120
 20
1852.073526
 40
2.500000
  0
CIRCLE
  8
CSLAYER1
  6
CONTINUOUS
 62
     2
 10
2552.122120
 20
1872.073526
 40
2.500000
  0
CIRCLE
  8
CSLAYER1
  6
CONTINUOUS
 62
     2
 10
2552.122120
 20
1882.073526
 40
2.500000
  0
CIRCLE
  8
CSLAYER1
  6
CONTINUOUS
 62
     2
 10
2562.122120
 20
1882.073526
 40
2.500000
  0
CIRCLE
  8
CSLAYER1
  6
CONTINUOUS
 62
     2
 10
2562.122120
 20
1872.073526
 40
2.500000
  0
CIRCLE
  8
CSLAYER1
  6
CONTINUOUS
 62
     2
 10
2572.122120
 20
1872.073526
 40
2.500000
  0
CIRCLE
  8
CSLAYER1
  6
CONTINUOUS
 62
     2
 10
2572.122120
 20
1882.073526
 40
2.500000
  0
CIRCLE
  8
CSLAYER1
  6
CONTINUOUS
 62
     2
 10
2582.122120
 20
1882.073526
 40
2.500000
  0
CIRCLE
  8
CSLAYER1
  6
CONTINUOUS
 62
     2
 10
2582.122120
 20
1872.073526
 40
2.500000
  0
CIRCLE
  8
CSLAYER1
  6
CONTINUOUS
 62
     2
 10
2592.122120
 20
1872.073526
 40
2.500000
  0
CIRCLE
  8
CSLAYER1
  6
CONTINUOUS
 62
     2
 10
2592.122120
 20
1882.073526
 40
2.500000
  0
CIRCLE
  8
CSLAYER1
  6
CONTINUOUS
 62
     2
 10
2552.122120
 20
1962.073526
 40
2.500000
  0
CIRCLE
  8
CSLAYER1
  6
CONTINUOUS
 62
     2
 10
2552.122120
 20
1972.073526
 40
2.500000
  0
CIRCLE
  8
CSLAYER1
  6
CONTINUOUS
 62
     2
 10
2562.122120
 20
1972.073526
 40
2.500000
  0
CIRCLE
  8
CSLAYER1
  6
CONTINUOUS
 62
     2
 10
2562.122120
 20
1962.073526
 40
2.500000
  0
CIRCLE
  8
CSLAYER1
  6
CONTINUOUS
 62
     2
 10
2572.122120
 20
1962.073526
 40
2.500000
  0
CIRCLE
  8
CSLAYER1
  6
CONTINUOUS
 62
     2
 10
2572.122120
 20
1972.073526
 40
2.500000
  0
CIRCLE
  8
CSLAYER1
  6
CONTINUOUS
 62
     2
 10
2582.122120
 20
1972.073526
 40
2.500000
  0
CIRCLE
  8
CSLAYER1
  6
CONTINUOUS
 62
     2
 10
2582.122120
 20
1962.073526
 40
2.500000
  0
CIRCLE
  8
CSLAYER1
  6
CONTINUOUS
 62
     2
 10
2592.122120
 20
1962.073526
 40
2.500000
  0
CIRCLE
  8
CSLAYER1
  6
CONTINUOUS
 62
     2
 10
2592.122120
 20
1972.073526
 40
2.500000
  0
CIRCLE
  8
CSLAYER1
  6
CONTINUOUS
 62
     2
 10
2552.122120
 20
1952.073526
 40
2.500000
  0
CIRCLE
  8
CSLAYER1
  6
CONTINUOUS
 62
     2
 10
2552.122120
 20
1942.073526
 40
2.500000
  0
CIRCLE
  8
CSLAYER1
  6
CONTINUOUS
 62
     2
 10
2562.122120
 20
1942.073526
 40
2.500000
  0
CIRCLE
  8
CSLAYER1
  6
CONTINUOUS
 62
     2
 10
2562.122120
 20
1952.073526
 40
2.500000
  0
CIRCLE
  8
CSLAYER1
  6
CONTINUOUS
 62
     2
 10
2572.122120
 20
1952.073526
 40
2.500000
  0
CIRCLE
  8
CSLAYER1
  6
CONTINUOUS
 62
     2
 10
2572.122120
 20
1942.073526
 40
2.500000
  0
CIRCLE
  8
CSLAYER1
  6
CONTINUOUS
 62
     2
 10
2582.122120
 20
1942.073526
 40
2.500000
  0
CIRCLE
  8
CSLAYER1
  6
CONTINUOUS
 62
     2
 10
2582.122120
 20
1952.073526
 40
2.500000
  0
CIRCLE
  8
CSLAYER1
  6
CONTINUOUS
 62
     2
 10
2592.122120
 20
1952.073526
 40
2.500000
  0
CIRCLE
  8
CSLAYER1
  6
CONTINUOUS
 62
     2
 10
2592.122120
 20
1942.073526
 40
2.500000
  0
LINE
  8
CSLAYER1
  6
CONTINUOUS
 62
     2
 10
2526.122120
 20
1939.573526
 11
2526.122120
 21
1974.573526
  0
LINE
  8
CSLAYER1
  6
CONTINUOUS
 62
     2
 10
2542.122120
 20
1939.573526
 11
2542.122120
 21
1974.573526
  0
LINE
  8
CSLAYER1
  6
CONTINUOUS
 62
     2
 10
2527.622120
 20
1938.073526
 11
2540.622120
 21
1938.073526
  0
LINE
  8
CSLAYER1
  6
CONTINUOUS
 62
     2
 10
2527.122120
 20
1939.573526
 11
2527.122120
 21
1974.573526
  0
LINE
  8
CSLAYER1
  6
CONTINUOUS
 62
     2
 10
2541.122120
 20
1939.573526
 11
2541.122120
 21
1974.573526
  0
LINE
  8
CSLAYER1
  6
CONTINUOUS
 62
     2
 10
2527.622120
 20
1939.073526
 11
2540.622120
 21
1939.073526
  0
LINE
  8
CSLAYER1
  6
CONTINUOUS
 62
     2
 10
2527.622120
 20
1976.073526
 11
2540.622120
 21
1976.073526
  0
LINE
  8
CSLAYER1
  6
CONTINUOUS
 62
     2
 10
2527.622120
 20
1975.073526
 11
2540.622120
 21
1975.073526
  0
ARC
  8
CSLAYER1
  6
CONTINUOUS
 62
     2
 10
2527.622120
 20
1939.573526
 40
0.500000
 50
180.000000
 51
270.000000
  0
ARC
  8
CSLAYER1
  6
CONTINUOUS
 62
     2
 10
2540.622120
 20
1939.573526
 40
0.500000
 50
270.000000
 51
360.000000
  0
ARC
  8
CSLAYER1
  6
CONTINUOUS
 62
     2
 10
2527.622120
 20
1974.573526
 40
0.500000
 50
90.000000
 51
180.000000
  0
ARC
  8
CSLAYER1
  6
CONTINUOUS
 62
     2
 10
2540.622120
 20
1974.573526
 40
0.500000
 50
0.000000
 51
90.000000
  0
ARC
  8
CSLAYER1
  6
CONTINUOUS
 62
     2
 10
2527.622120
 20
1939.573526
 40
1.500000
 50
180.000000
 51
270.000000
  0
ARC
  8
CSLAYER1
  6
CONTINUOUS
 62
     2
 10
2540.622120
 20
1939.573526
 40
1.500000
 50
270.000000
 51
360.000000
  0
ARC
  8
CSLAYER1
  6
CONTINUOUS
 62
     2
 10
2527.622120
 20
1974.573526
 40
1.500000
 50
90.000000
 51
180.000000
  0
ARC
  8
CSLAYER1
  6
CONTINUOUS
 62
     2
 10
2540.622120
 20
1974.573526
 40
1.500000
 50
0.000000
 51
90.000000
  0
LINE
  8
CSLAYER1
  6
CONTINUOUS
 62
     2
 10
2531.122120
 20
1948.073526
 11
2531.122120
 21
1966.073526
  0
LINE
  8
CSLAYER1
  6
CONTINUOUS
 62
     2
 10
2528.044049
 20
1957.073526
 11
2531.122120
 21
1966.073526
  0
LINE
  8
CSLAYER1
  6
CONTINUOUS
 62
     2
 10
2528.044049
 20
1957.073526
 11
2531.122120
 21
1948.073526
  0
TEXT
  8
CSLAYER1
 62
     2
 10
2539.415597
 20
1948.093696
 40
7.066058
 41
1.574983
  1
UP
 50
90.000000
 51
0.000000
  7
EASYDRAW_FONT
 72
     5
 11
2539.415597
 21
1966.641899
  0
LINE
  8
CSLAYER1
  6
CONTINUOUS
 62
     2
 10
2526.122120
 20
1884.573526
 11
2526.122120
 21
1849.573526
  0
LINE
  8
CSLAYER1
  6
CONTINUOUS
 62
     2
 10
2542.122120
 20
1884.573526
 11
2542.122120
 21
1849.573526
  0
LINE
  8
CSLAYER1
  6
CONTINUOUS
 62
     2
 10
2527.622120
 20
1886.073526
 11
2540.622120
 21
1886.073526
  0
LINE
  8
CSLAYER1
  6
CONTINUOUS
 62
     2
 10
2527.122120
 20
1884.573526
 11
2527.122120
 21
1849.573526
  0
LINE
  8
CSLAYER1
  6
CONTINUOUS
 62
     2
 10
2541.122120
 20
1884.573526
 11
2541.122120
 21
1849.573526
  0
LINE
  8
CSLAYER1
  6
CONTINUOUS
 62
     2
 10
2527.622120
 20
1885.073526
 11
2540.622120
 21
1885.073526
  0
LINE
  8
CSLAYER1
  6
CONTINUOUS
 62
     2
 10
2527.622120
 20
1848.073526
 11
2540.622120
 21
1848.073526
  0
LINE
  8
CSLAYER1
  6
CONTINUOUS
 62
     2
 10
2527.622120
 20
1849.073526
 11
2540.622120
 21
1849.073526
  0
ARC
  8
CSLAYER1
  6
CONTINUOUS
 62
     2
 10
2527.622120
 20
1884.573526
 40
0.500000
 50
90.000000
 51
180.000000
  0
ARC
  8
CSLAYER1
  6
CONTINUOUS
 62
     2
 10
2540.622120
 20
1884.573526
 40
0.500000
 50
0.000000
 51
90.000000
  0
ARC
  8
CSLAYER1
  6
CONTINUOUS
 62
     2
 10
2527.622120
 20
1849.573526
 40
0.500000
 50
180.000000
 51
270.000000
  0
ARC
  8
CSLAYER1
  6
CONTINUOUS
 62
     2
 10
2540.622120
 20
1849.573526
 40
0.500000
 50
270.000000
 51
360.000000
  0
ARC
  8
CSLAYER1
  6
CONTINUOUS
 62
     2
 10
2527.622120
 20
1884.573526
 40
1.500000
 50
90.000000
 51
180.000000
  0
ARC
  8
CSLAYER1
  6
CONTINUOUS
 62
     2
 10
2540.622120
 20
1884.573526
 40
1.500000
 50
0.000000
 51
90.000000
  0
ARC
  8
CSLAYER1
  6
CONTINUOUS
 62
     2
 10
2527.622120
 20
1849.573526
 40
1.500000
 50
180.000000
 51
270.000000
  0
ARC
  8
CSLAYER1
  6
CONTINUOUS
 62
     2
 10
2540.622120
 20
1849.573526
 40
1.500000
 50
270.000000
 51
360.000000
  0
LINE
  8
CSLAYER1
  6
CONTINUOUS
 62
     2
 10
2536.595051
 20
1876.073526
 11
2536.595051
 21
1858.073526
  0
LINE
  8
CSLAYER1
  6
CONTINUOUS
 62
     2
 10
2539.673123
 20
1867.073526
 11
2536.595051
 21
1858.073526
  0
LINE
  8
CSLAYER1
  6
CONTINUOUS
 62
     2
 10
2539.673123
 20
1867.073526
 11
2536.595051
 21
1876.073526
  0
TEXT
  8
CSLAYER1
 62
     2
 10
2534.984756
 20
1852.375884
 40
6.383575
 41
1.255870
  1
DOWN
 50
90.000000
 51
0.000000
  7
EASYDRAW_FONT
 72
     5
 11
2534.984756
 21
1881.771333
  0
ENDBLK
  8
0
  0
ENDSEC
  0
SECTION
  2
ENTITIES
  0
LINE
  8
CSLAYER1
  6
CONTINUOUS
 62
     3
 10
118.051807
 20
2400.454119
 11
118.051807
 21
51.907189
  0
LINE
  8
CSLAYER1
  6
CONTINUOUS
 62
     3
 10
3440.625117
 20
2400.454119
 11
118.051807
 21
2400.454119
  0
LINE
  8
CSLAYER1
  6
CONTINUOUS
 62
     3
 10
3440.625117
 20
2400.454119
 11
3440.625117
 21
51.907189
  0
LINE
  8
CSLAYER1
  6
CONTINUOUS
 62
     3
 10
3440.625117
 20
51.907189
 11
118.051807
 21
51.907189
  0
LINE
  8
CSLAYER1
  6
CONTINUOUS
 62
     5
 10
68.051807
 20
1211.907189
 11
18.051807
 21
1211.907189
  0
LINE
  8
CSLAYER1
  6
CONTINUOUS
 62
     5
 10
2640.625117
 20
491.907189
 11
3440.625117
 21
491.907189
  0
LINE
  8
CSLAYER1
  6
CONTINUOUS
 62
     5
 10
2640.625117
 20
131.907189
 11
3440.625117
 21
131.907189
  0
LINE
  8
CSLAYER1
  6
CONTINUOUS
 62
     5
 10
2640.625117
 20
291.907189
 11
3440.625117
 21
291.907189
  0
LINE
  8
CSLAYER1
  6
CONTINUOUS
 62
     5
 10
2640.625117
 20
351.907189
 11
3440.625117
 21
351.907189
  0
LINE
  8
CSLAYER1
  6
CONTINUOUS
 62
     5
 10
2640.625117
 20
411.907189
 11
3440.625117
 21
411.907189
  0
LINE
  8
CSLAYER1
  6
CONTINUOUS
 62
     5
 10
2640.625117
 20
571.907189
 11
3440.625117
 21
571.907189
  0
LINE
  8
CSLAYER1
  6
CONTINUOUS
 62
     5
 10
2640.625117
 20
651.907189
 11
2640.625117
 21
51.907189
  0
LINE
  8
CSLAYER1
  6
CONTINUOUS
 62
     5
 10
2840.625117
 20
651.907189
 11
2840.625117
 21
411.907189
  0
LINE
  8
CSLAYER1
  6
CONTINUOUS
 62
     5
 10
2640.625117
 20
651.907189
 11
3440.625117
 21
651.907189
  0
LINE
  8
CSLAYER1
  6
CONTINUOUS
 62
     5
 10
3140.625117
 20
411.907189
 11
3140.625117
 21
131.907189
  0
TEXT
  8
CSLAYER1
 62
     3
 10
2860.316219
 20
60.469913
 40
59.380363
 41
1.003345
  1
東正車輌株式会社
 50
0.000000
 51
0.000000
  7
EASYDRAW_FONT
 72
     5
 11
3317.088566
 21
60.469913
  0
LINE
  8
CSLAYER1
  6
CONTINUOUS
 62
     5
 10
2890.625117
 20
351.907189
 11
2890.625117
 21
131.907189
  0
TEXT
  8
CSLAYER1
 62
     5
 10
2670.625000
 20
586.907166
 40
50.000000
 41
1.050000
  1
品　名
 50
0.000000
 51
0.000000
  7
EASYDRAW_FONT
 72
     5
 11
2810.625000
 21
586.907166
  0
TEXT
  8
CSLAYER1
 62
     5
 10
2670.625000
 20
506.907166
 40
50.000000
 41
1.050000
  1
型　式
 50
0.000000
 51
0.000000
  7
EASYDRAW_FONT
 72
     5
 11
2810.625000
 21
506.907166
  0
TEXT
  8
CSLAYER1
 62
     5
 10
2645.625000
 20
426.907196
 40
50.000000
 41
1.036364
  1
図面番号
 50
0.000000
 51
0.000000
  7
EASYDRAW_FONT
 72
     5
 11
2835.625000
 21
426.907196
  0
TEXT
  8
CSLAYER1
 62
     5
 10
2690.625000
 20
356.907196
 40
50.000000
 41
0.827586
  1
平成２８年４月１６日
 50
0.000000
 51
0.000000
  7
EASYDRAW_FONT
 72
     5
 11
3090.625000
 21
356.907196
  0
TEXT
  8
CSLAYER1
 62
     5
 10
3220.625000
 20
356.907196
 40
50.000000
 41
1.050000
  1
Ｂ－４
 50
0.000000
 51
0.000000
  7
EASYDRAW_FONT
 72
     5
 11
3360.625000
 21
356.907196
  0
TEXT
  8
CSLAYER1
 62
     5
 10
2695.625000
 20
296.907196
 40
50.000000
 41
1.050000
  1
検　図
 50
0.000000
 51
0.000000
  7
EASYDRAW_FONT
 72
     5
 11
2835.625000
 21
296.907196
  0
TEXT
  8
CSLAYER1
 62
     5
 10
2945.625000
 20
296.907196
 40
50.000000
 41
1.050000
  1
作　図
 50
0.000000
 51
0.000000
  7
EASYDRAW_FONT
 72
     5
 11
3085.625000
 21
296.907196
  0
TEXT
  8
CSLAYER1
 62
     5
 10
3220.625000
 20
296.907196
 40
50.000000
 41
1.050000
  1
尺　度
 50
0.000000
 51
0.000000
  7
EASYDRAW_FONT
 72
     5
 11
3360.625000
 21
296.907196
  0
TEXT
  8
CSLAYER1
 62
     5
 10
3321.363770
 20
146.392456
 40
50.000000
 41
1.080000
  1
１０
 50
0.000000
 51
0.000000
  7
EASYDRAW_FONT
 72
     5
 11
3411.363770
 21
146.392456
  0
TEXT
  8
CSLAYER1
 62
     5
 10
3301.044189
 20
194.097153
 40
50.000000
 41
1.200000
  1
／
 50
0.000000
 51
0.000000
  7
EASYDRAW_FONT
 72
     5
 11
3341.044189
 21
194.097153
  0
TEXT
  8
CSLAYER1
 62
     5
 10
3270.831299
 20
229.080597
 40
50.000000
 41
1.200000
  1
１
 50
0.000000
 51
0.000000
  7
EASYDRAW_FONT
 72
     5
 11
3310.831299
 21
229.080597
  0
TEXT
  8
CSLAYER1
 62
     3
 10
2980.625000
 20
586.907166
 40
50.000000
 41
0.834783
  1
ゴールドリフター
 50
0.000000
 51
0.000000
  7
EASYDRAW_FONT
 72
     5
 11
3300.625000
 21
586.907166
  0
TEXT
  8
CSLAYER1
 62
     3
 10
2900.625000
 20
506.907166
 40
50.000000
 41
0.822857
  1
ＧＬＩ－５００－０６１２
 50
0.000000
 51
0.000000
  7
EASYDRAW_FONT
 72
     5
 11
3380.625000
 21
506.907166
  0
TEXT
  8
CSLAYER1
 62
     3
 10
3040.625000
 20
426.907196
 40
50.000000
 41
0.857143
  1
GI-25
 50
0.000000
 51
0.000000
  7
EASYDRAW_FONT
 72
     5
 11
3240.625000
 21
426.907196
  0
INSERT
  8
CSLAYER1
  2
BLKF0000
 10
0.0
 20
0.0
 30
0.0
  0
LINE
  8
CSLAYER1
  6
CONTINUOUS
 62
     5
 10
1041.628868
 20
1251.103443
 11
1076.457263
 21
1251.103443
  0
LINE
  8
CSLAYER1
  6
CONTINUOUS
 62
     5
 10
1058.535375
 20
1270.027948
 11
1058.535375
 21
1235.199553
  0
CIRCLE
  8
CSLAYER1
  6
CONTINUOUS
 62
     4
 10
1058.535375
 20
1251.103443
 40
8.000000
  0
CIRCLE
  8
CSLAYER1
  6
CONTINUOUS
 62
     4
 10
1285.280121
 20
748.461401
 40
14.000000
  0
LINE
  8
CSLAYER1
  6
CENTER
 62
     5
 10
477.188606
 20
1425.357953
 11
477.188606
 21
311.544941
  0
LINE
  8
CSLAYER1
  6
CONTINUOUS
 62
     4
 10
152.188606
 20
1375.303443
 11
802.188606
 21
1375.303443
  0
LINE
  8
CSLAYER1
  6
CONTINUOUS
 62
     4
 10
345.188606
 20
1297.103443
 11
320.188606
 21
1297.103443
  0
LINE
  8
CSLAYER1
  6
CONTINUOUS
 62
     4
 10
320.188606
 20
1272.103443
 11
347.688606
 21
1272.103443
  0
LINE
  8
CSLAYER1
  6
CONTINUOUS
 62
     4
 10
727.188606
 20
398.913998
 11
727.188606
 21
334.632214
  0
LINE
  8
CSLAYER1
  6
CONTINUOUS
 62
     4
 10
320.188606
 20
1322.303443
 11
320.188606
 21
1272.103443
  0
LINE
  8
CSLAYER1
  6
CONTINUOUS
 62
     4
 10
345.188606
 20
1272.103443
 11
345.188606
 21
1322.303443
  0
LINE
  8
CSLAYER1
  6
CONTINUOUS
 62
     4
 10
329.688606
 20
1322.303443
 11
329.688606
 21
1297.103443
  0
LINE
  8
CSLAYER1
  6
CONTINUOUS
 62
     4
 10
335.688606
 20
1322.303443
 11
335.688606
 21
1297.103443
  0
LINE
  8
CSLAYER1
  6
CONTINUOUS
 62
     4
 10
152.188606
 20
1322.303443
 11
802.188606
 21
1322.303443
  0
LINE
  8
CSLAYER1
  6
CONTINUOUS
 62
     4
 10
370.188606
 20
1322.303443
 11
370.188606
 21
399.632214
  0
LINE
  8
CSLAYER1
  6
CONTINUOUS
 62
     4
 10
354.188606
 20
1322.303443
 11
354.188606
 21
399.632214
  0
LINE
  8
CSLAYER1
  6
CONTINUOUS
 62
     4
 10
311.188606
 20
1232.103443
 11
311.188606
 21
399.632214
  0
LINE
  8
CSLAYER1
  6
CONTINUOUS
 62
     4
 10
295.188606
 20
1232.103443
 11
295.188606
 21
399.632214
  0
LINE
  8
CSLAYER1
  6
CONTINUOUS
 62
     4
 10
348.688606
 20
1271.103443
 11
348.688606
 21
1231.103443
  0
LINE
  8
CSLAYER1
  6
CONTINUOUS
 62
     4
 10
322.188606
 20
1262.655085
 11
322.188606
 21
1239.551800
  0
LINE
  8
CSLAYER1
  6
CONTINUOUS
 62
     4
 10
321.038606
 20
1262.655085
 11
321.038606
 21
1239.551800
  0
LINE
  8
CSLAYER1
  6
CONTINUOUS
 62
     4
 10
320.188606
 20
1258.603443
 11
320.980769
 21
1258.603443
  0
LINE
  8
CSLAYER1
  6
CONTINUOUS
 62
     4
 10
321.038606
 20
1262.655085
 11
322.188606
 21
1262.655085
  0
LINE
  8
CSLAYER1
  6
CONTINUOUS
 62
     4
 10
322.188606
 20
1258.603443
 11
322.688606
 21
1258.603443
  0
LINE
  8
CSLAYER1
  6
CONTINUOUS
 62
     4
 10
322.688606
 20
1271.103443
 11
322.688606
 21
1231.103443
  0
ARC
  8
CSLAYER1
  6
CONTINUOUS
 62
     4
 10
347.688606
 20
1271.103443
 40
1.000000
 50
0.000000
 51
90.000000
  0
ARC
  8
CSLAYER1
  6
CONTINUOUS
 62
     4
 10
323.688606
 20
1271.103443
 40
1.000000
 50
90.000000
 51
180.000000
  0
ARC
  8
CSLAYER1
  6
CONTINUOUS
 62
     4
 10
334.688606
 20
1271.103443
 40
1.000000
 50
0.000000
 51
90.000000
  0
ARC
  8
CSLAYER1
  6
CONTINUOUS
 62
     4
 10
336.688606
 20
1271.103443
 40
1.000000
 50
90.000000
 51
180.000000
  0
LINE
  8
CSLAYER1
  6
CONTINUOUS
 62
     4
 10
319.688606
 20
1322.303443
 11
319.688606
 21
1232.103443
  0
LINE
  8
CSLAYER1
  6
CONTINUOUS
 62
     4
 10
323.688606
 20
1230.103443
 11
334.688606
 21
1230.103443
  0
LINE
  8
CSLAYER1
  6
CONTINUOUS
 62
     4
 10
320.188606
 20
1243.603443
 11
320.980769
 21
1243.603443
  0
LINE
  8
CSLAYER1
  6
CONTINUOUS
 62
     4
 10
321.038606
 20
1239.551800
 11
322.188606
 21
1239.551800
  0
LINE
  8
CSLAYER1
  6
CONTINUOUS
 62
     4
 10
322.188606
 20
1243.603443
 11
322.688606
 21
1243.603443
  0
ARC
  8
CSLAYER1
  6
CONTINUOUS
 62
     4
 10
347.688606
 20
1231.103443
 40
1.000000
 50
270.000000
 51
360.000000
  0
ARC
  8
CSLAYER1
  6
CONTINUOUS
 62
     4
 10
323.688606
 20
1231.103443
 40
1.000000
 50
180.000000
 51
270.000000
  0
ARC
  8
CSLAYER1
  6
CONTINUOUS
 62
     4
 10
334.688606
 20
1231.103443
 40
1.000000
 50
270.000000
 51
360.000000
  0
ARC
  8
CSLAYER1
  6
CONTINUOUS
 62
     4
 10
336.688606
 20
1231.103443
 40
1.000000
 50
180.000000
 51
270.000000
  0
LINE
  8
CSLAYER1
  6
CONTINUOUS
 62
     4
 10
347.688606
 20
1230.103443
 11
336.688606
 21
1230.103443
  0
LINE
  8
CSLAYER1
  6
CONTINUOUS
 62
     4
 10
349.188606
 20
1261.103443
 11
348.688606
 21
1260.603443
  0
LINE
  8
CSLAYER1
  6
CONTINUOUS
 62
     4
 10
349.188606
 20
1241.103443
 11
348.688606
 21
1241.603443
  0
LINE
  8
CSLAYER1
  6
CONTINUOUS
 62
     4
 10
335.688606
 20
1231.103443
 11
335.688606
 21
1271.103443
  0
LINE
  8
CSLAYER1
  6
CONTINUOUS
 62
     5
 10
365.835171
 20
1317.618583
 11
588.542040
 21
1317.618583
  0
LINE
  8
CSLAYER1
  6
CONTINUOUS
 62
     4
 10
370.188606
 20
1300.618583
 11
584.188606
 21
1300.618583
  0
LINE
  8
CSLAYER1
  6
CONTINUOUS
 62
     5
 10
372.188606
 20
1196.416312
 11
603.188606
 21
1196.416312
  0
LINE
  8
CSLAYER1
  6
CONTINUOUS
 62
     4
 10
446.938606
 20
1166.166312
 11
422.688606
 21
1166.166312
  0
LINE
  8
CSLAYER1
  6
CONTINUOUS
 62
     4
 10
376.188606
 20
1174.416312
 11
420.688606
 21
1174.416312
  0
LINE
  8
CSLAYER1
  6
CONTINUOUS
 62
     4
 10
376.188606
 20
1218.416312
 11
420.688606
 21
1218.416312
  0
LINE
  8
CSLAYER1
  6
CONTINUOUS
 62
     4
 10
420.688606
 20
1224.666312
 11
420.688606
 21
1168.166312
  0
LINE
  8
CSLAYER1
  6
CONTINUOUS
 62
     4
 10
422.688606
 20
1226.666312
 11
531.688606
 21
1226.666312
  0
LINE
  8
CSLAYER1
  6
CONTINUOUS
 62
     4
 10
420.688606
 20
1224.666312
 11
422.688606
 21
1226.666312
  0
LINE
  8
CSLAYER1
  6
CONTINUOUS
 62
     4
 10
420.688606
 20
1168.166312
 11
422.688606
 21
1166.166312
  0
LINE
  8
CSLAYER1
  6
CONTINUOUS
 62
     4
 10
376.188606
 20
1218.416312
 11
371.188606
 21
1213.416312
  0
LINE
  8
CSLAYER1
  6
CONTINUOUS
 62
     4
 10
376.188606
 20
1218.416312
 11
376.188606
 21
1174.416312
  0
LINE
  8
CSLAYER1
  6
CONTINUOUS
 62
     4
 10
376.188606
 20
1174.416312
 11
371.188606
 21
1179.416312
  0
LINE
  8
CSLAYER1
  6
CONTINUOUS
 62
     4
 10
387.188606
 20
1236.616312
 11
417.188606
 21
1236.616312
  0
LINE
  8
CSLAYER1
  6
CONTINUOUS
 62
     4
 10
384.868097
 20
1221.616312
 11
384.868097
 21
1235.276566
  0
LINE
  8
CSLAYER1
  6
CONTINUOUS
 62
     4
 10
393.528351
 20
1221.616312
 11
393.528351
 21
1235.276566
  0
LINE
  8
CSLAYER1
  6
CONTINUOUS
 62
     4
 10
387.188606
 20
1236.616312
 11
384.868097
 21
1235.276566
  0
ARC
  8
CSLAYER1
  6
CONTINUOUS
 62
     4
 10
389.198224
 20
1228.961694
 40
7.656867
 50
55.561448
 51
124.438552
  0
ARC
  8
CSLAYER1
  6
CONTINUOUS
 62
     4
 10
402.188606
 20
1207.956058
 40
28.660254
 50
72.412046
 51
107.587954
  0
LINE
  8
CSLAYER1
  6
CONTINUOUS
 62
     4
 10
420.688606
 20
1221.616312
 11
383.688606
 21
1221.616312
  0
LINE
  8
CSLAYER1
  6
CONTINUOUS
 62
     4
 10
389.188606
 20
1239.116312
 11
415.188606
 21
1239.116312
  0
LINE
  8
CSLAYER1
  6
CONTINUOUS
 62
     4
 10
387.188606
 20
1236.616312
 11
387.188606
 21
1237.116312
  0
ARC
  8
CSLAYER1
  6
CONTINUOUS
 62
     4
 10
389.188606
 20
1237.116312
 40
2.000000
 50
90.000000
 51
180.000000
  0
LINE
  8
CSLAYER1
  6
CONTINUOUS
 62
     4
 10
419.509114
 20
1221.616312
 11
419.509114
 21
1235.276566
  0
LINE
  8
CSLAYER1
  6
CONTINUOUS
 62
     4
 10
410.848860
 20
1221.616312
 11
410.848860
 21
1235.276566
  0
LINE
  8
CSLAYER1
  6
CONTINUOUS
 62
     4
 10
417.188606
 20
1236.616312
 11
419.509114
 21
1235.276566
  0
ARC
  8
CSLAYER1
  6
CONTINUOUS
 62
     4
 10
415.178987
 20
1228.961694
 40
7.656867
 50
55.561448
 51
124.438552
  0
LINE
  8
CSLAYER1
  6
CONTINUOUS
 62
     4
 10
417.188606
 20
1236.616312
 11
417.188606
 21
1237.116312
  0
ARC
  8
CSLAYER1
  6
CONTINUOUS
 62
     4
 10
415.188606
 20
1237.116312
 40
2.000000
 50
0.000000
 51
90.000000
  0
LINE
  8
CSLAYER1
  6
CONTINUOUS
 62
     4
 10
393.688606
 20
1133.833622
 11
393.688606
 21
1174.416312
  0
LINE
  8
CSLAYER1
  6
CONTINUOUS
 62
     4
 10
392.188606
 20
1125.833622
 11
392.188606
 21
1174.416312
  0
LINE
  8
CSLAYER1
  6
CONTINUOUS
 62
     4
 10
392.188606
 20
1239.116312
 11
392.188606
 21
1257.194178
  0
LINE
  8
CSLAYER1
  6
CONTINUOUS
 62
     4
 10
393.688606
 20
1239.116312
 11
393.688606
 21
1258.694178
  0
LINE
  8
CSLAYER1
  6
CONTINUOUS
 62
     4
 10
383.688606
 20
1218.416312
 11
383.688606
 21
1221.616312
  0
LINE
  8
CSLAYER1
  6
CONTINUOUS
 62
     4
 10
410.688606
 20
1133.833622
 11
410.688606
 21
1174.416312
  0
LINE
  8
CSLAYER1
  6
CONTINUOUS
 62
     4
 10
412.188606
 20
1239.116312
 11
412.188606
 21
1257.194178
  0
LINE
  8
CSLAYER1
  6
CONTINUOUS
 62
     4
 10
410.688606
 20
1239.116312
 11
410.688606
 21
1258.694178
  0
LINE
  8
CSLAYER1
  6
CONTINUOUS
 62
     4
 10
412.188606
 20
1125.833622
 11
412.188606
 21
1174.416312
  0
POINT
  8
CSLAYER1
 62
     4
 10
552.188606
 20
1108.833620
  0
LINE
  8
CSLAYER1
  6
CONTINUOUS
 62
     5
 10
566.313982
 20
1108.833622
 11
538.074892
 21
1108.833622
  0
LINE
  8
CSLAYER1
  6
CONTINUOUS
 62
     4
 10
560.688606
 20
1133.833622
 11
560.688606
 21
1174.416312
  0
LINE
  8
CSLAYER1
  6
CONTINUOUS
 62
     4
 10
562.188606
 20
1125.833622
 11
562.188606
 21
1174.416312
  0
LINE
  8
CSLAYER1
  6
CONTINUOUS
 62
     4
 10
562.188606
 20
1133.833622
 11
542.188606
 21
1133.833622
  0
LINE
  8
CSLAYER1
  6
CONTINUOUS
 62
     4
 10
560.688606
 20
1133.833622
 11
562.188606
 21
1131.235546
  0
LINE
  8
CSLAYER1
  6
CONTINUOUS
 62
     4
 10
543.688606
 20
1133.833622
 11
543.688606
 21
1174.416312
  0
LINE
  8
CSLAYER1
  6
CONTINUOUS
 62
     4
 10
543.688606
 20
1133.833622
 11
542.188606
 21
1131.235546
  0
LINE
  8
CSLAYER1
  6
CONTINUOUS
 62
     4
 10
542.188606
 20
1125.833622
 11
542.188606
 21
1174.416312
  0
LINE
  8
CSLAYER1
  6
CONTINUOUS
 62
     4
 10
539.663606
 20
1123.833620
 11
564.713606
 21
1123.833620
  0
LINE
  8
CSLAYER1
  6
CONTINUOUS
 62
     5
 10
387.215095
 20
1249.194178
 11
418.816453
 21
1249.194178
  0
POINT
  8
CSLAYER1
 62
     4
 10
552.188606
 20
1077.083620
  0
LINE
  8
CSLAYER1
  6
CONTINUOUS
 62
     4
 10
565.713606
 20
1122.833620
 11
565.713606
 21
1030.283620
  0
LINE
  8
CSLAYER1
  6
CONTINUOUS
 62
     4
 10
561.713606
 20
1092.133620
 11
561.713606
 21
1030.283620
  0
LINE
  8
CSLAYER1
  6
CONTINUOUS
 62
     4
 10
561.713606
 20
1092.133620
 11
565.713606
 21
1092.133620
  0
LINE
  8
CSLAYER1
  6
CONTINUOUS
 62
     4
 10
560.713606
 20
1067.558620
 11
543.663606
 21
1067.558620
  0
LINE
  8
CSLAYER1
  6
CONTINUOUS
 62
     4
 10
560.713606
 20
1086.608620
 11
543.663606
 21
1086.608620
  0
ARC
  8
CSLAYER1
  6
CONTINUOUS
 62
     4
 10
560.713606
 20
1068.558620
 40
1.000000
 50
270.000000
 51
360.000000
  0
ARC
  8
CSLAYER1
  6
CONTINUOUS
 62
     4
 10
560.713606
 20
1085.608620
 40
1.000000
 50
0.000000
 51
90.000000
  0
LINE
  8
CSLAYER1
  6
CONTINUOUS
 62
     4
 10
538.663606
 20
1122.833620
 11
538.663606
 21
1029.583620
  0
LINE
  8
CSLAYER1
  6
CONTINUOUS
 62
     4
 10
542.663606
 20
1092.133620
 11
542.663606
 21
1030.283620
  0
LINE
  8
CSLAYER1
  6
CONTINUOUS
 62
     4
 10
542.663606
 20
1092.133620
 11
538.663606
 21
1092.133620
  0
ARC
  8
CSLAYER1
  6
CONTINUOUS
 62
     4
 10
543.663606
 20
1068.558620
 40
1.000000
 50
180.000000
 51
270.000000
  0
ARC
  8
CSLAYER1
  6
CONTINUOUS
 62
     4
 10
543.663606
 20
1085.608620
 40
1.000000
 50
90.000000
 51
180.000000
  0
LINE
  8
CSLAYER1
  6
CONTINUOUS
 62
     4
 10
571.938606
 20
1073.313620
 11
571.938606
 21
1080.863346
  0
LINE
  8
CSLAYER1
  6
CONTINUOUS
 62
     4
 10
565.713606
 20
1064.083620
 11
570.088606
 21
1064.083620
  0
LINE
  8
CSLAYER1
  6
CONTINUOUS
 62
     4
 10
565.713606
 20
1121.833620
 11
570.088606
 21
1121.833620
  0
LINE
  8
CSLAYER1
  6
CONTINUOUS
 62
     4
 10
570.088606
 20
1072.313620
 11
570.938606
 21
1072.313620
  0
LINE
  8
CSLAYER1
  6
CONTINUOUS
 62
     4
 10
570.088606
 20
1081.863346
 11
570.938606
 21
1081.863346
  0
ARC
  8
CSLAYER1
  6
CONTINUOUS
 62
     4
 10
570.938606
 20
1073.313620
 40
1.000000
 50
270.000000
 51
360.000000
  0
ARC
  8
CSLAYER1
  6
CONTINUOUS
 62
     4
 10
570.938606
 20
1080.863346
 40
1.000000
 50
0.000000
 51
90.000000
  0
LINE
  8
CSLAYER1
  6
CONTINUOUS
 62
     4
 10
571.938606
 20
1105.063620
 11
571.938606
 21
1112.613346
  0
LINE
  8
CSLAYER1
  6
CONTINUOUS
 62
     4
 10
570.088606
 20
1104.063620
 11
570.938606
 21
1104.063620
  0
LINE
  8
CSLAYER1
  6
CONTINUOUS
 62
     4
 10
570.088606
 20
1113.613346
 11
570.938606
 21
1113.613346
  0
ARC
  8
CSLAYER1
  6
CONTINUOUS
 62
     4
 10
570.938606
 20
1105.063620
 40
1.000000
 50
270.000000
 51
360.000000
  0
ARC
  8
CSLAYER1
  6
CONTINUOUS
 62
     4
 10
570.938606
 20
1112.613346
 40
1.000000
 50
0.000000
 51
90.000000
  0
LINE
  8
CSLAYER1
  6
CONTINUOUS
 62
     4
 10
532.438606
 20
1073.313620
 11
532.438606
 21
1080.863346
  0
LINE
  8
CSLAYER1
  6
CONTINUOUS
 62
     4
 10
538.663606
 20
1064.083620
 11
534.288606
 21
1064.083620
  0
LINE
  8
CSLAYER1
  6
CONTINUOUS
 62
     4
 10
538.663606
 20
1121.833620
 11
534.288606
 21
1121.833620
  0
LINE
  8
CSLAYER1
  6
CONTINUOUS
 62
     4
 10
534.288606
 20
1072.313620
 11
533.438606
 21
1072.313620
  0
LINE
  8
CSLAYER1
  6
CONTINUOUS
 62
     4
 10
534.288606
 20
1081.863346
 11
533.438606
 21
1081.863346
  0
ARC
  8
CSLAYER1
  6
CONTINUOUS
 62
     4
 10
533.438606
 20
1073.313620
 40
1.000000
 50
180.000000
 51
270.000000
  0
ARC
  8
CSLAYER1
  6
CONTINUOUS
 62
     4
 10
533.438606
 20
1080.863346
 40
1.000000
 50
90.000000
 51
180.000000
  0
LINE
  8
CSLAYER1
  6
CONTINUOUS
 62
     4
 10
529.338606
 20
1105.063620
 11
529.338606
 21
1112.613346
  0
LINE
  8
CSLAYER1
  6
CONTINUOUS
 62
     4
 10
534.288606
 20
1104.063620
 11
530.338606
 21
1104.063620
  0
LINE
  8
CSLAYER1
  6
CONTINUOUS
 62
     4
 10
534.288606
 20
1113.613346
 11
530.338606
 21
1113.613346
  0
ARC
  8
CSLAYER1
  6
CONTINUOUS
 62
     4
 10
530.338606
 20
1105.063620
 40
1.000000
 50
180.000000
 51
270.000000
  0
ARC
  8
CSLAYER1
  6
CONTINUOUS
 62
     4
 10
530.338606
 20
1112.613346
 40
1.000000
 50
90.000000
 51
180.000000
  0
LINE
  8
CSLAYER1
  6
CONTINUOUS
 62
     4
 10
538.663606
 20
1113.613346
 11
565.713606
 21
1113.613346
  0
LINE
  8
CSLAYER1
  6
CONTINUOUS
 62
     4
 10
538.663606
 20
1104.063620
 11
565.713606
 21
1104.063620
  0
LINE
  8
CSLAYER1
  6
CONTINUOUS
 62
     4
 10
540.663606
 20
1093.833620
 11
563.713606
 21
1093.833620
  0
ARC
  8
CSLAYER1
  6
CONTINUOUS
 62
     4
 10
563.713606
 20
1095.833620
 40
2.000000
 50
270.000000
 51
360.000000
  0
ARC
  8
CSLAYER1
  6
CONTINUOUS
 62
     4
 10
540.663606
 20
1095.833620
 40
2.000000
 50
180.000000
 51
270.000000
  0
ARC
  8
CSLAYER1
  6
CONTINUOUS
 62
     4
 10
540.188606
 20
1125.833620
 40
2.000000
 50
270.000000
 51
360.000000
  0
ARC
  8
CSLAYER1
  6
CONTINUOUS
 62
     4
 10
564.188606
 20
1125.833620
 40
2.000000
 50
180.000000
 51
270.000000
  0
ARC
  8
CSLAYER1
  6
CONTINUOUS
 62
     4
 10
539.663606
 20
1122.833620
 40
1.000000
 50
90.000000
 51
180.000000
  0
ARC
  8
CSLAYER1
  6
CONTINUOUS
 62
     4
 10
564.713606
 20
1122.833620
 40
1.000000
 50
0.000000
 51
90.000000
  0
POINT
  8
CSLAYER1
 62
     4
 10
552.188606
 20
1123.833620
  0
LINE
  8
CSLAYER1
  6
CONTINUOUS
 62
     4
 10
570.088606
 20
1064.083620
 11
570.088606
 21
1121.833620
  0
LINE
  8
CSLAYER1
  6
CONTINUOUS
 62
     4
 10
534.288606
 20
1064.083620
 11
534.288606
 21
1121.833620
  0
LINE
  8
CSLAYER1
  6
CONTINUOUS
 62
     4
 10
555.388606
 20
399.632214
 11
555.388606
 21
425.293959
  0
LINE
  8
CSLAYER1
  6
CONTINUOUS
 62
     5
 10
549.559429
 20
417.549280
 11
584.099559
 21
417.549280
  0
LINE
  8
CSLAYER1
  6
CONTINUOUS
 62
     4
 10
554.188606
 20
422.549280
 11
555.388606
 21
422.549280
  0
LINE
  8
CSLAYER1
  6
CONTINUOUS
 62
     4
 10
554.188606
 20
412.549280
 11
555.388606
 21
412.549280
  0
LINE
  8
CSLAYER1
  6
CONTINUOUS
 62
     4
 10
555.388606
 20
412.242989
 11
558.388606
 21
412.242989
  0
LINE
  8
CSLAYER1
  6
CONTINUOUS
 62
     5
 10
621.831999
 20
748.461401
 11
556.346745
 21
748.461401
  0
LINE
  8
CSLAYER1
  6
CONTINUOUS
 62
     5
 10
331.431991
 20
748.461401
 11
391.870378
 21
748.461401
  0
LINE
  8
CSLAYER1
  6
CONTINUOUS
 62
     4
 10
583.188606
 20
767.461401
 11
583.188606
 21
729.461401
  0
LINE
  8
CSLAYER1
  6
CONTINUOUS
 62
     4
 10
371.188606
 20
767.461401
 11
371.188606
 21
729.461401
  0
LINE
  8
CSLAYER1
  6
CONTINUOUS
 62
     4
 10
352.188606
 20
764.461401
 11
352.188606
 21
732.461401
  0
LINE
  8
CSLAYER1
  6
CONTINUOUS
 62
     4
 10
342.188606
 20
762.461401
 11
342.188606
 21
734.461401
  0
LINE
  8
CSLAYER1
  6
CONTINUOUS
 62
     4
 10
344.188606
 20
764.461401
 11
352.188606
 21
764.461401
  0
LINE
  8
CSLAYER1
  6
CONTINUOUS
 62
     4
 10
342.188606
 20
762.461401
 11
344.188606
 21
764.461401
  0
LINE
  8
CSLAYER1
  6
CONTINUOUS
 62
     4
 10
344.188606
 20
764.461401
 11
344.188606
 21
732.461401
  0
POINT
  8
CSLAYER1
 62
     4
 10
552.188606
 20
849.137056
  0
LINE
  8
CSLAYER1
  6
CONTINUOUS
 62
     4
 10
565.713606
 20
836.137056
 11
565.713606
 21
844.367056
  0
LINE
  8
CSLAYER1
  6
CONTINUOUS
 62
     4
 10
570.088606
 20
836.137056
 11
570.088606
 21
844.367056
  0
LINE
  8
CSLAYER1
  6
CONTINUOUS
 62
     4
 10
571.938606
 20
845.367056
 11
571.938606
 21
852.916782
  0
LINE
  8
CSLAYER1
  6
CONTINUOUS
 62
     4
 10
565.713606
 20
836.137056
 11
570.088606
 21
836.137056
  0
LINE
  8
CSLAYER1
  6
CONTINUOUS
 62
     4
 10
570.938606
 20
844.367056
 11
533.438606
 21
844.367056
  0
ARC
  8
CSLAYER1
  6
CONTINUOUS
 62
     4
 10
570.938606
 20
845.367056
 40
1.000000
 50
270.000000
 51
360.000000
  0
ARC
  8
CSLAYER1
  6
CONTINUOUS
 62
     4
 10
570.938606
 20
852.916782
 40
1.000000
 50
0.000000
 51
90.000000
  0
LINE
  8
CSLAYER1
  6
CONTINUOUS
 62
     4
 10
538.663606
 20
836.137056
 11
538.663606
 21
844.367056
  0
LINE
  8
CSLAYER1
  6
CONTINUOUS
 62
     4
 10
534.288606
 20
836.137056
 11
534.288606
 21
844.367056
  0
LINE
  8
CSLAYER1
  6
CONTINUOUS
 62
     4
 10
532.438606
 20
845.367056
 11
532.438606
 21
852.916782
  0
LINE
  8
CSLAYER1
  6
CONTINUOUS
 62
     4
 10
538.663606
 20
836.137056
 11
534.288606
 21
836.137056
  0
ARC
  8
CSLAYER1
  6
CONTINUOUS
 62
     4
 10
533.438606
 20
845.367056
 40
1.000000
 50
180.000000
 51
270.000000
  0
ARC
  8
CSLAYER1
  6
CONTINUOUS
 62
     4
 10
533.438606
 20
852.916782
 40
1.000000
 50
90.000000
 51
180.000000
  0
LINE
  8
CSLAYER1
  6
CONTINUOUS
 62
     4
 10
539.663606
 20
839.137056
 11
564.713606
 21
839.137056
  0
LINE
  8
CSLAYER1
  6
CONTINUOUS
 62
     4
 10
538.663606
 20
840.137056
 11
539.663606
 21
839.137056
  0
LINE
  8
CSLAYER1
  6
CONTINUOUS
 62
     4
 10
564.713606
 20
839.137056
 11
565.713606
 21
840.137056
  0
LINE
  8
CSLAYER1
  6
CONTINUOUS
 62
     4
 10
539.663606
 20
859.137056
 11
564.713606
 21
859.137056
  0
LINE
  8
CSLAYER1
  6
CONTINUOUS
 62
     4
 10
538.663606
 20
858.137056
 11
539.663606
 21
859.137056
  0
LINE
  8
CSLAYER1
  6
CONTINUOUS
 62
     4
 10
564.713606
 20
859.137056
 11
565.713606
 21
858.137056
  0
LINE
  8
CSLAYER1
  6
CONTINUOUS
 62
     5
 10
579.671887
 20
880.887056
 11
535.135975
 21
880.887056
  0
LINE
  8
CSLAYER1
  6
CONTINUOUS
 62
     4
 10
538.663606
 20
893.887056
 11
534.288606
 21
893.887056
  0
LINE
  8
CSLAYER1
  6
CONTINUOUS
 62
     4
 10
532.438606
 20
877.117056
 11
532.438606
 21
884.666782
  0
LINE
  8
CSLAYER1
  6
CONTINUOUS
 62
     4
 10
534.288606
 20
876.117056
 11
533.438606
 21
876.117056
  0
LINE
  8
CSLAYER1
  6
CONTINUOUS
 62
     4
 10
534.288606
 20
885.666782
 11
533.438606
 21
885.666782
  0
ARC
  8
CSLAYER1
  6
CONTINUOUS
 62
     4
 10
533.438606
 20
877.117056
 40
1.000000
 50
180.000000
 51
270.000000
  0
ARC
  8
CSLAYER1
  6
CONTINUOUS
 62
     4
 10
533.438606
 20
884.666782
 40
1.000000
 50
90.000000
 51
180.000000
  0
LINE
  8
CSLAYER1
  6
CONTINUOUS
 62
     4
 10
565.713606
 20
893.887056
 11
570.088606
 21
893.887056
  0
LINE
  8
CSLAYER1
  6
CONTINUOUS
 62
     4
 10
570.938606
 20
853.907056
 11
533.438606
 21
853.907056
  0
LINE
  8
CSLAYER1
  6
CONTINUOUS
 62
     4
 10
571.938606
 20
877.117056
 11
571.938606
 21
884.666782
  0
LINE
  8
CSLAYER1
  6
CONTINUOUS
 62
     4
 10
570.088606
 20
876.117056
 11
570.938606
 21
876.117056
  0
LINE
  8
CSLAYER1
  6
CONTINUOUS
 62
     4
 10
570.088606
 20
885.666782
 11
570.938606
 21
885.666782
  0
ARC
  8
CSLAYER1
  6
CONTINUOUS
 62
     4
 10
570.938606
 20
877.117056
 40
1.000000
 50
270.000000
 51
360.000000
  0
ARC
  8
CSLAYER1
  6
CONTINUOUS
 62
     4
 10
570.938606
 20
884.666782
 40
1.000000
 50
0.000000
 51
90.000000
  0
POINT
  8
CSLAYER1
 62
     4
 10
552.188606
 20
880.887056
  0
LINE
  8
CSLAYER1
  6
CONTINUOUS
 62
     5
 10
578.826268
 20
849.137056
 11
534.290357
 21
849.137056
  0
LINE
  8
CSLAYER1
  6
CONTINUOUS
 62
     4
 10
570.088606
 20
853.916782
 11
570.088606
 21
893.887056
  0
LINE
  8
CSLAYER1
  6
CONTINUOUS
 62
     4
 10
538.663606
 20
853.907056
 11
538.663606
 21
931.387056
  0
LINE
  8
CSLAYER1
  6
CONTINUOUS
 62
     4
 10
534.288606
 20
853.916782
 11
534.288606
 21
893.887056
  0
LINE
  8
CSLAYER1
  6
CONTINUOUS
 62
     4
 10
560.188606
 20
871.362056
 11
560.188606
 21
859.137056
  0
LINE
  8
CSLAYER1
  6
CONTINUOUS
 62
     4
 10
544.188606
 20
871.362056
 11
544.188606
 21
859.137056
  0
POINT
  8
CSLAYER1
 62
     4
 10
552.188606
 20
1045.333620
  0
LINE
  8
CSLAYER1
  6
CONTINUOUS
 62
     4
 10
561.713606
 20
1030.283620
 11
565.713606
 21
1030.283620
  0
LINE
  8
CSLAYER1
  6
CONTINUOUS
 62
     4
 10
560.713606
 20
1054.858620
 11
543.663606
 21
1054.858620
  0
LINE
  8
CSLAYER1
  6
CONTINUOUS
 62
     4
 10
560.713606
 20
1035.808620
 11
543.663606
 21
1035.808620
  0
ARC
  8
CSLAYER1
  6
CONTINUOUS
 62
     4
 10
560.713606
 20
1053.858620
 40
1.000000
 50
0.000000
 51
90.000000
  0
ARC
  8
CSLAYER1
  6
CONTINUOUS
 62
     4
 10
560.713606
 20
1036.808620
 40
1.000000
 50
270.000000
 51
360.000000
  0
LINE
  8
CSLAYER1
  6
CONTINUOUS
 62
     4
 10
542.663606
 20
1030.283620
 11
538.663606
 21
1030.283620
  0
ARC
  8
CSLAYER1
  6
CONTINUOUS
 62
     4
 10
543.663606
 20
1053.858620
 40
1.000000
 50
90.000000
 51
180.000000
  0
ARC
  8
CSLAYER1
  6
CONTINUOUS
 62
     4
 10
543.663606
 20
1036.808620
 40
1.000000
 50
180.000000
 51
270.000000
  0
LINE
  8
CSLAYER1
  6
CONTINUOUS
 62
     4
 10
571.938606
 20
1049.103620
 11
571.938606
 21
1041.553894
  0
LINE
  8
CSLAYER1
  6
CONTINUOUS
 62
     4
 10
565.713606
 20
1058.333620
 11
570.088606
 21
1058.333620
  0
LINE
  8
CSLAYER1
  6
CONTINUOUS
 62
     4
 10
570.088606
 20
1050.103620
 11
570.938606
 21
1050.103620
  0
LINE
  8
CSLAYER1
  6
CONTINUOUS
 62
     4
 10
570.088606
 20
1040.553894
 11
570.938606
 21
1040.553894
  0
ARC
  8
CSLAYER1
  6
CONTINUOUS
 62
     4
 10
570.938606
 20
1049.103620
 40
1.000000
 50
0.000000
 51
90.000000
  0
ARC
  8
CSLAYER1
  6
CONTINUOUS
 62
     4
 10
570.938606
 20
1041.553894
 40
1.000000
 50
270.000000
 51
360.000000
  0
LINE
  8
CSLAYER1
  6
CONTINUOUS
 62
     4
 10
532.438606
 20
1049.103620
 11
532.438606
 21
1041.553894
  0
LINE
  8
CSLAYER1
  6
CONTINUOUS
 62
     4
 10
538.663606
 20
1058.333620
 11
534.288606
 21
1058.333620
  0
LINE
  8
CSLAYER1
  6
CONTINUOUS
 62
     4
 10
534.288606
 20
1050.103620
 11
533.438606
 21
1050.103620
  0
LINE
  8
CSLAYER1
  6
CONTINUOUS
 62
     4
 10
534.288606
 20
1040.553894
 11
533.438606
 21
1040.553894
  0
ARC
  8
CSLAYER1
  6
CONTINUOUS
 62
     4
 10
533.438606
 20
1049.103620
 40
1.000000
 50
90.000000
 51
180.000000
  0
ARC
  8
CSLAYER1
  6
CONTINUOUS
 62
     4
 10
533.438606
 20
1041.553894
 40
1.000000
 50
180.000000
 51
270.000000
  0
LINE
  8
CSLAYER1
  6
CONTINUOUS
 62
     4
 10
534.288606
 20
1058.333620
 11
534.288606
 21
1000.583620
  0
LINE
  8
CSLAYER1
  6
CONTINUOUS
 62
     4
 10
570.088606
 20
1058.333620
 11
570.088606
 21
1000.583620
  0
POINT
  8
CSLAYER1
 62
     4
 10
552.188606
 20
912.637056
  0
LINE
  8
CSLAYER1
  6
CONTINUOUS
 62
     4
 10
565.713606
 20
853.907056
 11
565.713606
 21
931.387056
  0
LINE
  8
CSLAYER1
  6
CONTINUOUS
 62
     4
 10
561.713606
 20
927.687056
 11
561.713606
 21
865.837056
  0
LINE
  8
CSLAYER1
  6
CONTINUOUS
 62
     4
 10
561.713606
 20
927.687056
 11
565.713606
 21
927.687056
  0
LINE
  8
CSLAYER1
  6
CONTINUOUS
 62
     4
 10
560.713606
 20
903.112056
 11
543.663606
 21
903.112056
  0
LINE
  8
CSLAYER1
  6
CONTINUOUS
 62
     4
 10
560.713606
 20
922.162056
 11
543.663606
 21
922.162056
  0
ARC
  8
CSLAYER1
  6
CONTINUOUS
 62
     4
 10
560.713606
 20
904.112056
 40
1.000000
 50
270.000000
 51
360.000000
  0
ARC
  8
CSLAYER1
  6
CONTINUOUS
 62
     4
 10
560.713606
 20
921.162056
 40
1.000000
 50
0.000000
 51
90.000000
  0
LINE
  8
CSLAYER1
  6
CONTINUOUS
 62
     4
 10
542.663606
 20
927.687056
 11
542.663606
 21
865.837056
  0
LINE
  8
CSLAYER1
  6
CONTINUOUS
 62
     4
 10
542.663606
 20
927.687056
 11
538.663606
 21
927.687056
  0
ARC
  8
CSLAYER1
  6
CONTINUOUS
 62
     4
 10
543.663606
 20
904.112056
 40
1.000000
 50
180.000000
 51
270.000000
  0
ARC
  8
CSLAYER1
  6
CONTINUOUS
 62
     4
 10
543.663606
 20
921.162056
 40
1.000000
 50
90.000000
 51
180.000000
  0
LINE
  8
CSLAYER1
  6
CONTINUOUS
 62
     4
 10
571.938606
 20
908.867056
 11
571.938606
 21
916.416782
  0
LINE
  8
CSLAYER1
  6
CONTINUOUS
 62
     4
 10
565.713606
 20
899.637056
 11
570.088606
 21
899.637056
  0
LINE
  8
CSLAYER1
  6
CONTINUOUS
 62
     4
 10
570.088606
 20
907.867056
 11
570.938606
 21
907.867056
  0
LINE
  8
CSLAYER1
  6
CONTINUOUS
 62
     4
 10
570.088606
 20
917.416782
 11
570.938606
 21
917.416782
  0
ARC
  8
CSLAYER1
  6
CONTINUOUS
 62
     4
 10
570.938606
 20
908.867056
 40
1.000000
 50
270.000000
 51
360.000000
  0
ARC
  8
CSLAYER1
  6
CONTINUOUS
 62
     4
 10
570.938606
 20
916.416782
 40
1.000000
 50
0.000000
 51
90.000000
  0
LINE
  8
CSLAYER1
  6
CONTINUOUS
 62
     4
 10
532.438606
 20
908.867056
 11
532.438606
 21
916.416782
  0
LINE
  8
CSLAYER1
  6
CONTINUOUS
 62
     4
 10
538.663606
 20
899.637056
 11
534.288606
 21
899.637056
  0
LINE
  8
CSLAYER1
  6
CONTINUOUS
 62
     4
 10
534.288606
 20
907.867056
 11
533.438606
 21
907.867056
  0
LINE
  8
CSLAYER1
  6
CONTINUOUS
 62
     4
 10
534.288606
 20
917.416782
 11
533.438606
 21
917.416782
  0
ARC
  8
CSLAYER1
  6
CONTINUOUS
 62
     4
 10
533.438606
 20
908.867056
 40
1.000000
 50
180.000000
 51
270.000000
  0
ARC
  8
CSLAYER1
  6
CONTINUOUS
 62
     4
 10
533.438606
 20
916.416782
 40
1.000000
 50
90.000000
 51
180.000000
  0
LINE
  8
CSLAYER1
  6
CONTINUOUS
 62
     4
 10
570.088606
 20
899.637056
 11
570.088606
 21
957.387056
  0
LINE
  8
CSLAYER1
  6
CONTINUOUS
 62
     4
 10
534.288606
 20
899.637056
 11
534.288606
 21
957.387056
  0
LINE
  8
CSLAYER1
  6
CONTINUOUS
 62
     4
 10
561.713606
 20
865.837056
 11
565.713606
 21
865.837056
  0
LINE
  8
CSLAYER1
  6
CONTINUOUS
 62
     4
 10
560.713606
 20
890.412056
 11
543.663606
 21
890.412056
  0
LINE
  8
CSLAYER1
  6
CONTINUOUS
 62
     4
 10
560.713606
 20
871.362056
 11
543.663606
 21
871.362056
  0
ARC
  8
CSLAYER1
  6
CONTINUOUS
 62
     4
 10
560.713606
 20
889.412056
 40
1.000000
 50
0.000000
 51
90.000000
  0
ARC
  8
CSLAYER1
  6
CONTINUOUS
 62
     4
 10
560.713606
 20
872.362056
 40
1.000000
 50
270.000000
 51
360.000000
  0
LINE
  8
CSLAYER1
  6
CONTINUOUS
 62
     4
 10
542.663606
 20
865.837056
 11
538.663606
 21
865.837056
  0
ARC
  8
CSLAYER1
  6
CONTINUOUS
 62
     4
 10
543.663606
 20
889.412056
 40
1.000000
 50
90.000000
 51
180.000000
  0
ARC
  8
CSLAYER1
  6
CONTINUOUS
 62
     4
 10
543.663606
 20
872.362056
 40
1.000000
 50
180.000000
 51
270.000000
  0
LINE
  8
CSLAYER1
  6
CONTINUOUS
 62
     4
 10
544.188606
 20
801.388496
 11
544.188606
 21
839.137056
  0
LINE
  8
CSLAYER1
  6
CONTINUOUS
 62
     4
 10
560.188606
 20
866.137056
 11
544.188606
 21
866.137056
  0
LINE
  8
CSLAYER1
  6
CONTINUOUS
 62
     4
 10
560.188606
 20
839.137056
 11
560.188606
 21
791.779171
  0
POINT
  8
CSLAYER1
 62
     4
 10
402.188606
 20
1108.833620
  0
LINE
  8
CSLAYER1
  6
CONTINUOUS
 62
     5
 10
388.063229
 20
1108.833622
 11
416.302319
 21
1108.833622
  0
LINE
  8
CSLAYER1
  6
CONTINUOUS
 62
     4
 10
392.188606
 20
1133.833622
 11
412.188606
 21
1133.833622
  0
LINE
  8
CSLAYER1
  6
CONTINUOUS
 62
     4
 10
393.688606
 20
1133.833622
 11
392.188606
 21
1131.235546
  0
LINE
  8
CSLAYER1
  6
CONTINUOUS
 62
     4
 10
410.688606
 20
1133.833622
 11
412.188606
 21
1131.235546
  0
LINE
  8
CSLAYER1
  6
CONTINUOUS
 62
     4
 10
414.713606
 20
1123.833620
 11
389.663606
 21
1123.833620
  0
POINT
  8
CSLAYER1
 62
     4
 10
402.188606
 20
1077.083620
  0
LINE
  8
CSLAYER1
  6
CONTINUOUS
 62
     4
 10
388.663606
 20
1122.833620
 11
388.663606
 21
1030.283620
  0
LINE
  8
CSLAYER1
  6
CONTINUOUS
 62
     4
 10
392.663606
 20
1092.133620
 11
392.663606
 21
1030.283620
  0
LINE
  8
CSLAYER1
  6
CONTINUOUS
 62
     4
 10
392.663606
 20
1092.133620
 11
388.663606
 21
1092.133620
  0
LINE
  8
CSLAYER1
  6
CONTINUOUS
 62
     4
 10
393.663606
 20
1067.558620
 11
410.713606
 21
1067.558620
  0
LINE
  8
CSLAYER1
  6
CONTINUOUS
 62
     4
 10
393.663606
 20
1086.608620
 11
410.713606
 21
1086.608620
  0
ARC
  8
CSLAYER1
  6
CONTINUOUS
 62
     4
 10
393.663606
 20
1068.558620
 40
1.000000
 50
180.000000
 51
270.000000
  0
ARC
  8
CSLAYER1
  6
CONTINUOUS
 62
     4
 10
393.663606
 20
1085.608620
 40
1.000000
 50
90.000000
 51
180.000000
  0
LINE
  8
CSLAYER1
  6
CONTINUOUS
 62
     4
 10
415.713606
 20
1122.833620
 11
415.713606
 21
1029.583620
  0
LINE
  8
CSLAYER1
  6
CONTINUOUS
 62
     4
 10
411.713606
 20
1092.133620
 11
411.713606
 21
1030.283620
  0
LINE
  8
CSLAYER1
  6
CONTINUOUS
 62
     4
 10
411.713606
 20
1092.133620
 11
415.713606
 21
1092.133620
  0
ARC
  8
CSLAYER1
  6
CONTINUOUS
 62
     4
 10
410.713606
 20
1068.558620
 40
1.000000
 50
270.000000
 51
360.000000
  0
ARC
  8
CSLAYER1
  6
CONTINUOUS
 62
     4
 10
410.713606
 20
1085.608620
 40
1.000000
 50
0.000000
 51
90.000000
  0
LINE
  8
CSLAYER1
  6
CONTINUOUS
 62
     4
 10
382.438606
 20
1073.313620
 11
382.438606
 21
1080.863346
  0
LINE
  8
CSLAYER1
  6
CONTINUOUS
 62
     4
 10
388.663606
 20
1064.083620
 11
384.288606
 21
1064.083620
  0
LINE
  8
CSLAYER1
  6
CONTINUOUS
 62
     4
 10
388.663606
 20
1121.833620
 11
384.288606
 21
1121.833620
  0
LINE
  8
CSLAYER1
  6
CONTINUOUS
 62
     4
 10
384.288606
 20
1072.313620
 11
383.438606
 21
1072.313620
  0
LINE
  8
CSLAYER1
  6
CONTINUOUS
 62
     4
 10
384.288606
 20
1081.863346
 11
383.438606
 21
1081.863346
  0
ARC
  8
CSLAYER1
  6
CONTINUOUS
 62
     4
 10
383.438606
 20
1073.313620
 40
1.000000
 50
180.000000
 51
270.000000
  0
ARC
  8
CSLAYER1
  6
CONTINUOUS
 62
     4
 10
383.438606
 20
1080.863346
 40
1.000000
 50
90.000000
 51
180.000000
  0
LINE
  8
CSLAYER1
  6
CONTINUOUS
 62
     4
 10
382.438606
 20
1105.063620
 11
382.438606
 21
1112.613346
  0
LINE
  8
CSLAYER1
  6
CONTINUOUS
 62
     4
 10
384.288606
 20
1104.063620
 11
383.438606
 21
1104.063620
  0
LINE
  8
CSLAYER1
  6
CONTINUOUS
 62
     4
 10
384.288606
 20
1113.613346
 11
383.438606
 21
1113.613346
  0
ARC
  8
CSLAYER1
  6
CONTINUOUS
 62
     4
 10
383.438606
 20
1105.063620
 40
1.000000
 50
180.000000
 51
270.000000
  0
ARC
  8
CSLAYER1
  6
CONTINUOUS
 62
     4
 10
383.438606
 20
1112.613346
 40
1.000000
 50
90.000000
 51
180.000000
  0
LINE
  8
CSLAYER1
  6
CONTINUOUS
 62
     4
 10
421.938606
 20
1073.313620
 11
421.938606
 21
1080.863346
  0
LINE
  8
CSLAYER1
  6
CONTINUOUS
 62
     4
 10
415.713606
 20
1064.083620
 11
420.088606
 21
1064.083620
  0
LINE
  8
CSLAYER1
  6
CONTINUOUS
 62
     4
 10
415.713606
 20
1121.833620
 11
420.088606
 21
1121.833620
  0
LINE
  8
CSLAYER1
  6
CONTINUOUS
 62
     4
 10
420.088606
 20
1072.313620
 11
420.938606
 21
1072.313620
  0
LINE
  8
CSLAYER1
  6
CONTINUOUS
 62
     4
 10
420.088606
 20
1081.863346
 11
420.938606
 21
1081.863346
  0
ARC
  8
CSLAYER1
  6
CONTINUOUS
 62
     4
 10
420.938606
 20
1073.313620
 40
1.000000
 50
270.000000
 51
360.000000
  0
ARC
  8
CSLAYER1
  6
CONTINUOUS
 62
     4
 10
420.938606
 20
1080.863346
 40
1.000000
 50
0.000000
 51
90.000000
  0
LINE
  8
CSLAYER1
  6
CONTINUOUS
 62
     4
 10
425.038606
 20
1105.063620
 11
425.038606
 21
1112.613346
  0
LINE
  8
CSLAYER1
  6
CONTINUOUS
 62
     4
 10
420.088606
 20
1104.063620
 11
424.038606
 21
1104.063620
  0
LINE
  8
CSLAYER1
  6
CONTINUOUS
 62
     4
 10
420.088606
 20
1113.613346
 11
424.038606
 21
1113.613346
  0
ARC
  8
CSLAYER1
  6
CONTINUOUS
 62
     4
 10
424.038606
 20
1105.063620
 40
1.000000
 50
270.000000
 51
360.000000
  0
ARC
  8
CSLAYER1
  6
CONTINUOUS
 62
     4
 10
424.038606
 20
1112.613346
 40
1.000000
 50
0.000000
 51
90.000000
  0
LINE
  8
CSLAYER1
  6
CONTINUOUS
 62
     4
 10
415.713606
 20
1113.613346
 11
388.663606
 21
1113.613346
  0
LINE
  8
CSLAYER1
  6
CONTINUOUS
 62
     4
 10
415.713606
 20
1104.063620
 11
388.663606
 21
1104.063620
  0
LINE
  8
CSLAYER1
  6
CONTINUOUS
 62
     4
 10
413.713606
 20
1093.833620
 11
390.663606
 21
1093.833620
  0
ARC
  8
CSLAYER1
  6
CONTINUOUS
 62
     4
 10
390.663606
 20
1095.833620
 40
2.000000
 50
180.000000
 51
270.000000
  0
ARC
  8
CSLAYER1
  6
CONTINUOUS
 62
     4
 10
413.713606
 20
1095.833620
 40
2.000000
 50
270.000000
 51
360.000000
  0
ARC
  8
CSLAYER1
  6
CONTINUOUS
 62
     4
 10
414.188606
 20
1125.833620
 40
2.000000
 50
180.000000
 51
270.000000
  0
ARC
  8
CSLAYER1
  6
CONTINUOUS
 62
     4
 10
390.188606
 20
1125.833620
 40
2.000000
 50
270.000000
 51
360.000000
  0
ARC
  8
CSLAYER1
  6
CONTINUOUS
 62
     4
 10
414.713606
 20
1122.833620
 40
1.000000
 50
0.000000
 51
90.000000
  0
ARC
  8
CSLAYER1
  6
CONTINUOUS
 62
     4
 10
389.663606
 20
1122.833620
 40
1.000000
 50
90.000000
 51
180.000000
  0
POINT
  8
CSLAYER1
 62
     4
 10
402.188606
 20
1123.833620
  0
LINE
  8
CSLAYER1
  6
CONTINUOUS
 62
     4
 10
384.288606
 20
1064.083620
 11
384.288606
 21
1121.833620
  0
LINE
  8
CSLAYER1
  6
CONTINUOUS
 62
     4
 10
420.088606
 20
1064.083620
 11
420.088606
 21
1121.833620
  0
LINE
  8
CSLAYER1
  6
CONTINUOUS
 62
     4
 10
416.188606
 20
801.989079
 11
416.188606
 21
819.367828
  0
LINE
  8
CSLAYER1
  6
CONTINUOUS
 62
     4
 10
415.188606
 20
801.989079
 11
415.188606
 21
820.367828
  0
LINE
  8
CSLAYER1
  6
CONTINUOUS
 62
     4
 10
410.188606
 20
820.367828
 11
413.215146
 21
820.367828
  0
LINE
  8
CSLAYER1
  6
CONTINUOUS
 62
     4
 10
416.188606
 20
819.367828
 11
415.188606
 21
820.367828
  0
LINE
  8
CSLAYER1
  6
CONTINUOUS
 62
     4
 10
393.188606
 20
825.367828
 11
392.188606
 21
826.367828
  0
LINE
  8
CSLAYER1
  6
CONTINUOUS
 62
     4
 10
415.188606
 20
820.367828
 11
410.122347
 21
825.352509
  0
LINE
  8
CSLAYER1
  6
CONTINUOUS
 62
     4
 10
410.188606
 20
825.287318
 11
415.108095
 21
820.367828
  0
LINE
  8
CSLAYER1
  6
CONTINUOUS
 62
     4
 10
410.188606
 20
825.004475
 11
414.825253
 21
820.367828
  0
LINE
  8
CSLAYER1
  6
CONTINUOUS
 62
     4
 10
410.188606
 20
824.721632
 11
414.542410
 21
820.367828
  0
LINE
  8
CSLAYER1
  6
CONTINUOUS
 62
     4
 10
410.188606
 20
824.438790
 11
414.259567
 21
820.367828
  0
LINE
  8
CSLAYER1
  6
CONTINUOUS
 62
     4
 10
410.188606
 20
824.155947
 11
413.976724
 21
820.367828
  0
LINE
  8
CSLAYER1
  6
CONTINUOUS
 62
     4
 10
410.188606
 20
823.873104
 11
413.693882
 21
820.367828
  0
LINE
  8
CSLAYER1
  6
CONTINUOUS
 62
     4
 10
410.188606
 20
823.590262
 11
413.411039
 21
820.367828
  0
LINE
  8
CSLAYER1
  6
CONTINUOUS
 62
     4
 10
410.188606
 20
823.307419
 11
413.128196
 21
820.367828
  0
LINE
  8
CSLAYER1
  6
CONTINUOUS
 62
     4
 10
410.188606
 20
823.024576
 11
412.845354
 21
820.367828
  0
LINE
  8
CSLAYER1
  6
CONTINUOUS
 62
     4
 10
410.188606
 20
822.741733
 11
412.562511
 21
820.367828
  0
LINE
  8
CSLAYER1
  6
CONTINUOUS
 62
     4
 10
410.188606
 20
822.458891
 11
412.279668
 21
820.367828
  0
LINE
  8
CSLAYER1
  6
CONTINUOUS
 62
     4
 10
410.188606
 20
822.176048
 11
411.996825
 21
820.367828
  0
LINE
  8
CSLAYER1
  6
CONTINUOUS
 62
     4
 10
410.188606
 20
821.893205
 11
411.713983
 21
820.367828
  0
LINE
  8
CSLAYER1
  6
CONTINUOUS
 62
     4
 10
410.188606
 20
821.610363
 11
411.431140
 21
820.367828
  0
LINE
  8
CSLAYER1
  6
CONTINUOUS
 62
     4
 10
410.188606
 20
821.327520
 11
411.148297
 21
820.367828
  0
LINE
  8
CSLAYER1
  6
CONTINUOUS
 62
     4
 10
410.188606
 20
821.044677
 11
410.865455
 21
820.367828
  0
LINE
  8
CSLAYER1
  6
CONTINUOUS
 62
     4
 10
410.188606
 20
820.761834
 11
410.582612
 21
820.367828
  0
LINE
  8
CSLAYER1
  6
CONTINUOUS
 62
     4
 10
410.188606
 20
820.478992
 11
410.299769
 21
820.367828
  0
LINE
  8
CSLAYER1
  6
CONTINUOUS
 62
     4
 10
313.215146
 20
785.017828
 11
354.188606
 21
785.017828
  0
LINE
  8
CSLAYER1
  6
CONTINUOUS
 62
     4
 10
393.188606
 20
825.367828
 11
393.188606
 21
791.178588
  0
LINE
  8
CSLAYER1
  6
CONTINUOUS
 62
     4
 10
312.215146
 20
826.717828
 11
312.215146
 21
786.017828
  0
LINE
  8
CSLAYER1
  6
CONTINUOUS
 62
     4
 10
312.215146
 20
786.017828
 11
313.215146
 21
785.017828
  0
LINE
  8
CSLAYER1
  6
CONTINUOUS
 62
     4
 10
272.215146
 20
816.367828
 11
272.215146
 21
796.367828
  0
LINE
  8
CSLAYER1
  6
CONTINUOUS
 62
     4
 10
291.215146
 20
824.867828
 11
291.215146
 21
787.867828
  0
LINE
  8
CSLAYER1
  6
CONTINUOUS
 62
     4
 10
286.115146
 20
823.367828
 11
286.115146
 21
789.367828
  0
LINE
  8
CSLAYER1
  6
CONTINUOUS
 62
     4
 10
274.115146
 20
823.367828
 11
274.115146
 21
789.367828
  0
LINE
  8
CSLAYER1
  6
CONTINUOUS
 62
     4
 10
291.215146
 20
823.367828
 11
274.115146
 21
823.367828
  0
LINE
  8
CSLAYER1
  6
CONTINUOUS
 62
     4
 10
286.115146
 20
816.367828
 11
272.215146
 21
816.367828
  0
LINE
  8
CSLAYER1
  6
CONTINUOUS
 62
     4
 10
291.215146
 20
789.367828
 11
274.115146
 21
789.367828
  0
LINE
  8
CSLAYER1
  6
CONTINUOUS
 62
     4
 10
286.115146
 20
796.367828
 11
272.215146
 21
796.367828
  0
LINE
  8
CSLAYER1
  6
CONTINUOUS
 62
     4
 10
294.215146
 20
824.867828
 11
291.215146
 21
824.867828
  0
LINE
  8
CSLAYER1
  6
CONTINUOUS
 62
     4
 10
294.215146
 20
787.867828
 11
291.215146
 21
787.867828
  0
LINE
  8
CSLAYER1
  6
CONTINUOUS
 62
     4
 10
294.215146
 20
787.867828
 11
294.215146
 21
824.867828
  0
LINE
  8
CSLAYER1
  6
CENTER
 62
     5
 10
253.725494
 20
806.367828
 11
421.571528
 21
806.367828
  0
LINE
  8
CSLAYER1
  6
CONTINUOUS
 62
     4
 10
294.215146
 20
793.867828
 11
295.188606
 21
793.867828
  0
LINE
  8
CSLAYER1
  6
CONTINUOUS
 62
     4
 10
313.215146
 20
827.717828
 11
354.188606
 21
827.717828
  0
LINE
  8
CSLAYER1
  6
CONTINUOUS
 62
     4
 10
312.215146
 20
826.717828
 11
313.215146
 21
827.717828
  0
LINE
  8
CSLAYER1
  6
CONTINUOUS
 62
     4
 10
294.215146
 20
818.867828
 11
295.188606
 21
818.867828
  0
LINE
  8
CSLAYER1
  6
CONTINUOUS
 62
     4
 10
295.215146
 20
780.260904
 11
295.215146
 21
793.867828
  0
LINE
  8
CSLAYER1
  6
CONTINUOUS
 62
     4
 10
349.188606
 20
785.017828
 11
354.188606
 21
780.017828
  0
LINE
  8
CSLAYER1
  6
CONTINUOUS
 62
     4
 10
354.188606
 20
780.300671
 11
349.471448
 21
785.017828
  0
LINE
  8
CSLAYER1
  6
CONTINUOUS
 62
     4
 10
354.188606
 20
780.583513
 11
349.754291
 21
785.017828
  0
LINE
  8
CSLAYER1
  6
CONTINUOUS
 62
     4
 10
354.188606
 20
780.866356
 11
350.037134
 21
785.017828
  0
LINE
  8
CSLAYER1
  6
CONTINUOUS
 62
     4
 10
354.188606
 20
781.149199
 11
350.319976
 21
785.017828
  0
LINE
  8
CSLAYER1
  6
CONTINUOUS
 62
     4
 10
354.188606
 20
781.432042
 11
350.602819
 21
785.017828
  0
LINE
  8
CSLAYER1
  6
CONTINUOUS
 62
     4
 10
354.188606
 20
781.714884
 11
350.885662
 21
785.017828
  0
LINE
  8
CSLAYER1
  6
CONTINUOUS
 62
     4
 10
354.188606
 20
781.997727
 11
351.168504
 21
785.017828
  0
LINE
  8
CSLAYER1
  6
CONTINUOUS
 62
     4
 10
354.188606
 20
782.280570
 11
351.451347
 21
785.017828
  0
LINE
  8
CSLAYER1
  6
CONTINUOUS
 62
     4
 10
354.188606
 20
782.563412
 11
351.734190
 21
785.017828
  0
LINE
  8
CSLAYER1
  6
CONTINUOUS
 62
     4
 10
354.188606
 20
782.846255
 11
352.017033
 21
785.017828
  0
LINE
  8
CSLAYER1
  6
CONTINUOUS
 62
     4
 10
354.188606
 20
783.129098
 11
352.299875
 21
785.017828
  0
LINE
  8
CSLAYER1
  6
CONTINUOUS
 62
     4
 10
354.188606
 20
783.411941
 11
352.582718
 21
785.017828
  0
LINE
  8
CSLAYER1
  6
CONTINUOUS
 62
     4
 10
354.188606
 20
783.694783
 11
352.865561
 21
785.017828
  0
LINE
  8
CSLAYER1
  6
CONTINUOUS
 62
     4
 10
354.188606
 20
783.977626
 11
353.148403
 21
785.017828
  0
LINE
  8
CSLAYER1
  6
CONTINUOUS
 62
     4
 10
354.188606
 20
784.260469
 11
353.431246
 21
785.017828
  0
LINE
  8
CSLAYER1
  6
CONTINUOUS
 62
     4
 10
354.188606
 20
784.543311
 11
353.714089
 21
785.017828
  0
LINE
  8
CSLAYER1
  6
CONTINUOUS
 62
     4
 10
354.188606
 20
784.826154
 11
353.996932
 21
785.017828
  0
LINE
  8
CSLAYER1
  6
CONTINUOUS
 62
     4
 10
370.188606
 20
831.084985
 11
374.905763
 21
826.367828
  0
LINE
  8
CSLAYER1
  6
CONTINUOUS
 62
     4
 10
370.188606
 20
830.802143
 11
374.622920
 21
826.367828
  0
LINE
  8
CSLAYER1
  6
CONTINUOUS
 62
     4
 10
370.188606
 20
830.519300
 11
374.340077
 21
826.367828
  0
LINE
  8
CSLAYER1
  6
CONTINUOUS
 62
     4
 10
370.188606
 20
830.236457
 11
374.057235
 21
826.367828
  0
LINE
  8
CSLAYER1
  6
CONTINUOUS
 62
     4
 10
370.188606
 20
829.953614
 11
373.774392
 21
826.367828
  0
LINE
  8
CSLAYER1
  6
CONTINUOUS
 62
     4
 10
370.188606
 20
829.670772
 11
373.491549
 21
826.367828
  0
LINE
  8
CSLAYER1
  6
CONTINUOUS
 62
     4
 10
370.188606
 20
829.387929
 11
373.208707
 21
826.367828
  0
LINE
  8
CSLAYER1
  6
CONTINUOUS
 62
     4
 10
370.188606
 20
829.105086
 11
372.925864
 21
826.367828
  0
LINE
  8
CSLAYER1
  6
CONTINUOUS
 62
     4
 10
370.188606
 20
828.822244
 11
372.643021
 21
826.367828
  0
LINE
  8
CSLAYER1
  6
CONTINUOUS
 62
     4
 10
370.188606
 20
828.539401
 11
372.360178
 21
826.367828
  0
LINE
  8
CSLAYER1
  6
CONTINUOUS
 62
     4
 10
370.188606
 20
828.256558
 11
372.077336
 21
826.367828
  0
LINE
  8
CSLAYER1
  6
CONTINUOUS
 62
     4
 10
370.188606
 20
827.973715
 11
371.794493
 21
826.367828
  0
LINE
  8
CSLAYER1
  6
CONTINUOUS
 62
     4
 10
370.188606
 20
827.690873
 11
371.511650
 21
826.367828
  0
LINE
  8
CSLAYER1
  6
CONTINUOUS
 62
     4
 10
370.188606
 20
827.408030
 11
371.228808
 21
826.367828
  0
LINE
  8
CSLAYER1
  6
CONTINUOUS
 62
     4
 10
370.188606
 20
827.125187
 11
370.945965
 21
826.367828
  0
LINE
  8
CSLAYER1
  6
CONTINUOUS
 62
     4
 10
370.188606
 20
826.842345
 11
370.663122
 21
826.367828
  0
LINE
  8
CSLAYER1
  6
CONTINUOUS
 62
     4
 10
370.188606
 20
826.559502
 11
370.380279
 21
826.367828
  0
LINE
  8
CSLAYER1
  6
CONTINUOUS
 62
     4
 10
349.188606
 20
827.717828
 11
354.188606
 21
832.717828
  0
LINE
  8
CSLAYER1
  6
CONTINUOUS
 62
     4
 10
354.188606
 20
832.434985
 11
349.471448
 21
827.717828
  0
LINE
  8
CSLAYER1
  6
CONTINUOUS
 62
     4
 10
354.188606
 20
832.152143
 11
349.754291
 21
827.717828
  0
LINE
  8
CSLAYER1
  6
CONTINUOUS
 62
     4
 10
354.188606
 20
831.869300
 11
350.037134
 21
827.717828
  0
LINE
  8
CSLAYER1
  6
CONTINUOUS
 62
     4
 10
354.188606
 20
831.586457
 11
350.319976
 21
827.717828
  0
LINE
  8
CSLAYER1
  6
CONTINUOUS
 62
     4
 10
354.188606
 20
831.303614
 11
350.602819
 21
827.717828
  0
LINE
  8
CSLAYER1
  6
CONTINUOUS
 62
     4
 10
354.188606
 20
831.020772
 11
350.885662
 21
827.717828
  0
LINE
  8
CSLAYER1
  6
CONTINUOUS
 62
     4
 10
354.188606
 20
830.737929
 11
351.168504
 21
827.717828
  0
LINE
  8
CSLAYER1
  6
CONTINUOUS
 62
     4
 10
354.188606
 20
830.455086
 11
351.451347
 21
827.717828
  0
LINE
  8
CSLAYER1
  6
CONTINUOUS
 62
     4
 10
354.188606
 20
830.172244
 11
351.734190
 21
827.717828
  0
LINE
  8
CSLAYER1
  6
CONTINUOUS
 62
     4
 10
354.188606
 20
829.889401
 11
352.017033
 21
827.717828
  0
LINE
  8
CSLAYER1
  6
CONTINUOUS
 62
     4
 10
354.188606
 20
829.606558
 11
352.299875
 21
827.717828
  0
LINE
  8
CSLAYER1
  6
CONTINUOUS
 62
     4
 10
354.188606
 20
829.323715
 11
352.582718
 21
827.717828
  0
LINE
  8
CSLAYER1
  6
CONTINUOUS
 62
     4
 10
354.188606
 20
829.040873
 11
352.865561
 21
827.717828
  0
LINE
  8
CSLAYER1
  6
CONTINUOUS
 62
     4
 10
354.188606
 20
828.758030
 11
353.148403
 21
827.717828
  0
LINE
  8
CSLAYER1
  6
CONTINUOUS
 62
     4
 10
354.188606
 20
828.475187
 11
353.431246
 21
827.717828
  0
LINE
  8
CSLAYER1
  6
CONTINUOUS
 62
     4
 10
354.188606
 20
828.192345
 11
353.714089
 21
827.717828
  0
LINE
  8
CSLAYER1
  6
CONTINUOUS
 62
     4
 10
354.188606
 20
827.909502
 11
353.996932
 21
827.717828
  0
LINE
  8
CSLAYER1
  6
CONTINUOUS
 62
     4
 10
371.228808
 20
826.367828
 11
370.188606
 21
826.367828
  0
POINT
  8
CSLAYER1
 62
     4
 10
402.188606
 20
849.137056
  0
LINE
  8
CSLAYER1
  6
CONTINUOUS
 62
     4
 10
384.288606
 20
836.137056
 11
384.288606
 21
893.887056
  0
LINE
  8
CSLAYER1
  6
CONTINUOUS
 62
     4
 10
382.438606
 20
845.367056
 11
382.438606
 21
852.916782
  0
LINE
  8
CSLAYER1
  6
CONTINUOUS
 62
     4
 10
388.663606
 20
836.137056
 11
384.288606
 21
836.137056
  0
LINE
  8
CSLAYER1
  6
CONTINUOUS
 62
     4
 10
384.288606
 20
853.916782
 11
383.438606
 21
853.916782
  0
ARC
  8
CSLAYER1
  6
CONTINUOUS
 62
     4
 10
383.438606
 20
845.367056
 40
1.000000
 50
180.000000
 51
270.000000
  0
ARC
  8
CSLAYER1
  6
CONTINUOUS
 62
     4
 10
383.438606
 20
852.916782
 40
1.000000
 50
90.000000
 51
180.000000
  0
LINE
  8
CSLAYER1
  6
CONTINUOUS
 62
     4
 10
415.713606
 20
836.137056
 11
415.713606
 21
931.387056
  0
LINE
  8
CSLAYER1
  6
CONTINUOUS
 62
     4
 10
420.088606
 20
836.137056
 11
420.088606
 21
893.887056
  0
LINE
  8
CSLAYER1
  6
CONTINUOUS
 62
     4
 10
421.938606
 20
845.367056
 11
421.938606
 21
852.916782
  0
LINE
  8
CSLAYER1
  6
CONTINUOUS
 62
     4
 10
415.713606
 20
836.137056
 11
420.088606
 21
836.137056
  0
LINE
  8
CSLAYER1
  6
CONTINUOUS
 62
     4
 10
420.088606
 20
844.367056
 11
420.938606
 21
844.367056
  0
LINE
  8
CSLAYER1
  6
CONTINUOUS
 62
     4
 10
420.088606
 20
853.916782
 11
420.938606
 21
853.916782
  0
ARC
  8
CSLAYER1
  6
CONTINUOUS
 62
     4
 10
420.938606
 20
845.367056
 40
1.000000
 50
270.000000
 51
360.000000
  0
ARC
  8
CSLAYER1
  6
CONTINUOUS
 62
     4
 10
420.938606
 20
852.916782
 40
1.000000
 50
0.000000
 51
90.000000
  0
LINE
  8
CSLAYER1
  6
CONTINUOUS
 62
     4
 10
414.713606
 20
839.137056
 11
410.188606
 21
839.137056
  0
LINE
  8
CSLAYER1
  6
CONTINUOUS
 62
     4
 10
415.713606
 20
840.137056
 11
414.713606
 21
839.137056
  0
LINE
  8
CSLAYER1
  6
CONTINUOUS
 62
     4
 10
389.663606
 20
839.137056
 11
388.663606
 21
840.137056
  0
LINE
  8
CSLAYER1
  6
CONTINUOUS
 62
     4
 10
414.713606
 20
859.137056
 11
410.188606
 21
859.137056
  0
LINE
  8
CSLAYER1
  6
CONTINUOUS
 62
     4
 10
415.713606
 20
858.137056
 11
414.713606
 21
859.137056
  0
LINE
  8
CSLAYER1
  6
CONTINUOUS
 62
     4
 10
389.663606
 20
859.137056
 11
388.663606
 21
858.137056
  0
LINE
  8
CSLAYER1
  6
CONTINUOUS
 62
     5
 10
374.705324
 20
880.887056
 11
419.241236
 21
880.887056
  0
LINE
  8
CSLAYER1
  6
CONTINUOUS
 62
     4
 10
415.713606
 20
893.887056
 11
420.088606
 21
893.887056
  0
LINE
  8
CSLAYER1
  6
CONTINUOUS
 62
     4
 10
421.938606
 20
877.117056
 11
421.938606
 21
884.666782
  0
LINE
  8
CSLAYER1
  6
CONTINUOUS
 62
     4
 10
420.088606
 20
876.117056
 11
420.938606
 21
876.117056
  0
LINE
  8
CSLAYER1
  6
CONTINUOUS
 62
     4
 10
420.088606
 20
885.666782
 11
420.938606
 21
885.666782
  0
ARC
  8
CSLAYER1
  6
CONTINUOUS
 62
     4
 10
420.938606
 20
877.117056
 40
1.000000
 50
270.000000
 51
360.000000
  0
ARC
  8
CSLAYER1
  6
CONTINUOUS
 62
     4
 10
420.938606
 20
884.666782
 40
1.000000
 50
0.000000
 51
90.000000
  0
LINE
  8
CSLAYER1
  6
CONTINUOUS
 62
     4
 10
388.663606
 20
893.887056
 11
384.288606
 21
893.887056
  0
LINE
  8
CSLAYER1
  6
CONTINUOUS
 62
     4
 10
384.288606
 20
844.367056
 11
383.438606
 21
844.367056
  0
LINE
  8
CSLAYER1
  6
CONTINUOUS
 62
     4
 10
382.438606
 20
877.117056
 11
382.438606
 21
884.666782
  0
LINE
  8
CSLAYER1
  6
CONTINUOUS
 62
     4
 10
384.288606
 20
876.117056
 11
383.438606
 21
876.117056
  0
LINE
  8
CSLAYER1
  6
CONTINUOUS
 62
     4
 10
384.288606
 20
885.666782
 11
383.438606
 21
885.666782
  0
ARC
  8
CSLAYER1
  6
CONTINUOUS
 62
     4
 10
383.438606
 20
877.117056
 40
1.000000
 50
180.000000
 51
270.000000
  0
ARC
  8
CSLAYER1
  6
CONTINUOUS
 62
     4
 10
383.438606
 20
884.666782
 40
1.000000
 50
90.000000
 51
180.000000
  0
POINT
  8
CSLAYER1
 62
     4
 10
402.188606
 20
880.887056
  0
LINE
  8
CSLAYER1
  6
CONTINUOUS
 62
     5
 10
375.550943
 20
849.137056
 11
420.086854
 21
849.137056
  0
LINE
  8
CSLAYER1
  6
CONTINUOUS
 62
     4
 10
394.188606
 20
871.362056
 11
394.188606
 21
791.779171
  0
LINE
  8
CSLAYER1
  6
CONTINUOUS
 62
     4
 10
410.188606
 20
871.362056
 11
410.188606
 21
801.388496
  0
POINT
  8
CSLAYER1
 62
     4
 10
402.188606
 20
1045.333620
  0
LINE
  8
CSLAYER1
  6
CONTINUOUS
 62
     4
 10
392.663606
 20
1030.283620
 11
388.663606
 21
1030.283620
  0
LINE
  8
CSLAYER1
  6
CONTINUOUS
 62
     4
 10
393.663606
 20
1054.858620
 11
410.713606
 21
1054.858620
  0
LINE
  8
CSLAYER1
  6
CONTINUOUS
 62
     4
 10
393.663606
 20
1035.808620
 11
410.713606
 21
1035.808620
  0
ARC
  8
CSLAYER1
  6
CONTINUOUS
 62
     4
 10
393.663606
 20
1053.858620
 40
1.000000
 50
90.000000
 51
180.000000
  0
ARC
  8
CSLAYER1
  6
CONTINUOUS
 62
     4
 10
393.663606
 20
1036.808620
 40
1.000000
 50
180.000000
 51
270.000000
  0
LINE
  8
CSLAYER1
  6
CONTINUOUS
 62
     4
 10
411.713606
 20
1030.283620
 11
415.713606
 21
1030.283620
  0
ARC
  8
CSLAYER1
  6
CONTINUOUS
 62
     4
 10
410.713606
 20
1053.858620
 40
1.000000
 50
0.000000
 51
90.000000
  0
ARC
  8
CSLAYER1
  6
CONTINUOUS
 62
     4
 10
410.713606
 20
1036.808620
 40
1.000000
 50
270.000000
 51
360.000000
  0
LINE
  8
CSLAYER1
  6
CONTINUOUS
 62
     4
 10
382.438606
 20
1049.103620
 11
382.438606
 21
1041.553894
  0
LINE
  8
CSLAYER1
  6
CONTINUOUS
 62
     4
 10
388.663606
 20
1058.333620
 11
384.288606
 21
1058.333620
  0
LINE
  8
CSLAYER1
  6
CONTINUOUS
 62
     4
 10
384.288606
 20
1050.103620
 11
383.438606
 21
1050.103620
  0
LINE
  8
CSLAYER1
  6
CONTINUOUS
 62
     4
 10
384.288606
 20
1040.553894
 11
383.438606
 21
1040.553894
  0
ARC
  8
CSLAYER1
  6
CONTINUOUS
 62
     4
 10
383.438606
 20
1049.103620
 40
1.000000
 50
90.000000
 51
180.000000
  0
ARC
  8
CSLAYER1
  6
CONTINUOUS
 62
     4
 10
383.438606
 20
1041.553894
 40
1.000000
 50
180.000000
 51
270.000000
  0
LINE
  8
CSLAYER1
  6
CONTINUOUS
 62
     4
 10
421.938606
 20
1049.103620
 11
421.938606
 21
1041.553894
  0
LINE
  8
CSLAYER1
  6
CONTINUOUS
 62
     4
 10
415.713606
 20
1058.333620
 11
420.088606
 21
1058.333620
  0
LINE
  8
CSLAYER1
  6
CONTINUOUS
 62
     4
 10
420.088606
 20
1050.103620
 11
420.938606
 21
1050.103620
  0
LINE
  8
CSLAYER1
  6
CONTINUOUS
 62
     4
 10
420.088606
 20
1040.553894
 11
420.938606
 21
1040.553894
  0
ARC
  8
CSLAYER1
  6
CONTINUOUS
 62
     4
 10
420.938606
 20
1049.103620
 40
1.000000
 50
0.000000
 51
90.000000
  0
ARC
  8
CSLAYER1
  6
CONTINUOUS
 62
     4
 10
420.938606
 20
1041.553894
 40
1.000000
 50
270.000000
 51
360.000000
  0
LINE
  8
CSLAYER1
  6
CONTINUOUS
 62
     4
 10
420.088606
 20
1058.333620
 11
420.088606
 21
1000.583620
  0
LINE
  8
CSLAYER1
  6
CONTINUOUS
 62
     4
 10
384.288606
 20
1058.333620
 11
384.288606
 21
1000.583620
  0
POINT
  8
CSLAYER1
 62
     4
 10
402.188606
 20
912.637056
  0
LINE
  8
CSLAYER1
  6
CONTINUOUS
 62
     4
 10
388.663606
 20
836.137056
 11
388.663606
 21
931.387056
  0
LINE
  8
CSLAYER1
  6
CONTINUOUS
 62
     4
 10
392.663606
 20
927.687056
 11
392.663606
 21
865.837056
  0
LINE
  8
CSLAYER1
  6
CONTINUOUS
 62
     4
 10
392.663606
 20
927.687056
 11
388.663606
 21
927.687056
  0
LINE
  8
CSLAYER1
  6
CONTINUOUS
 62
     4
 10
393.663606
 20
903.112056
 11
410.713606
 21
903.112056
  0
LINE
  8
CSLAYER1
  6
CONTINUOUS
 62
     4
 10
393.663606
 20
922.162056
 11
410.713606
 21
922.162056
  0
ARC
  8
CSLAYER1
  6
CONTINUOUS
 62
     4
 10
393.663606
 20
904.112056
 40
1.000000
 50
180.000000
 51
270.000000
  0
ARC
  8
CSLAYER1
  6
CONTINUOUS
 62
     4
 10
393.663606
 20
921.162056
 40
1.000000
 50
90.000000
 51
180.000000
  0
LINE
  8
CSLAYER1
  6
CONTINUOUS
 62
     4
 10
411.713606
 20
927.687056
 11
411.713606
 21
865.837056
  0
LINE
  8
CSLAYER1
  6
CONTINUOUS
 62
     4
 10
411.713606
 20
927.687056
 11
415.713606
 21
927.687056
  0
ARC
  8
CSLAYER1
  6
CONTINUOUS
 62
     4
 10
410.713606
 20
904.112056
 40
1.000000
 50
270.000000
 51
360.000000
  0
ARC
  8
CSLAYER1
  6
CONTINUOUS
 62
     4
 10
410.713606
 20
921.162056
 40
1.000000
 50
0.000000
 51
90.000000
  0
LINE
  8
CSLAYER1
  6
CONTINUOUS
 62
     4
 10
382.438606
 20
908.867056
 11
382.438606
 21
916.416782
  0
LINE
  8
CSLAYER1
  6
CONTINUOUS
 62
     4
 10
388.663606
 20
899.637056
 11
384.288606
 21
899.637056
  0
LINE
  8
CSLAYER1
  6
CONTINUOUS
 62
     4
 10
384.288606
 20
907.867056
 11
383.438606
 21
907.867056
  0
LINE
  8
CSLAYER1
  6
CONTINUOUS
 62
     4
 10
384.288606
 20
917.416782
 11
383.438606
 21
917.416782
  0
ARC
  8
CSLAYER1
  6
CONTINUOUS
 62
     4
 10
383.438606
 20
908.867056
 40
1.000000
 50
180.000000
 51
270.000000
  0
ARC
  8
CSLAYER1
  6
CONTINUOUS
 62
     4
 10
383.438606
 20
916.416782
 40
1.000000
 50
90.000000
 51
180.000000
  0
LINE
  8
CSLAYER1
  6
CONTINUOUS
 62
     4
 10
421.938606
 20
908.867056
 11
421.938606
 21
916.416782
  0
LINE
  8
CSLAYER1
  6
CONTINUOUS
 62
     4
 10
415.713606
 20
899.637056
 11
420.088606
 21
899.637056
  0
LINE
  8
CSLAYER1
  6
CONTINUOUS
 62
     4
 10
420.088606
 20
907.867056
 11
420.938606
 21
907.867056
  0
LINE
  8
CSLAYER1
  6
CONTINUOUS
 62
     4
 10
420.088606
 20
917.416782
 11
420.938606
 21
917.416782
  0
ARC
  8
CSLAYER1
  6
CONTINUOUS
 62
     4
 10
420.938606
 20
908.867056
 40
1.000000
 50
270.000000
 51
360.000000
  0
ARC
  8
CSLAYER1
  6
CONTINUOUS
 62
     4
 10
420.938606
 20
916.416782
 40
1.000000
 50
0.000000
 51
90.000000
  0
LINE
  8
CSLAYER1
  6
CONTINUOUS
 62
     4
 10
384.288606
 20
899.637056
 11
384.288606
 21
957.387056
  0
LINE
  8
CSLAYER1
  6
CONTINUOUS
 62
     4
 10
420.088606
 20
899.637056
 11
420.088606
 21
957.387056
  0
LINE
  8
CSLAYER1
  6
CONTINUOUS
 62
     4
 10
392.663606
 20
865.837056
 11
388.663606
 21
865.837056
  0
LINE
  8
CSLAYER1
  6
CONTINUOUS
 62
     4
 10
393.663606
 20
890.412056
 11
410.713606
 21
890.412056
  0
LINE
  8
CSLAYER1
  6
CONTINUOUS
 62
     4
 10
393.663606
 20
871.362056
 11
410.713606
 21
871.362056
  0
ARC
  8
CSLAYER1
  6
CONTINUOUS
 62
     4
 10
393.663606
 20
889.412056
 40
1.000000
 50
90.000000
 51
180.000000
  0
ARC
  8
CSLAYER1
  6
CONTINUOUS
 62
     4
 10
393.663606
 20
872.362056
 40
1.000000
 50
180.000000
 51
270.000000
  0
LINE
  8
CSLAYER1
  6
CONTINUOUS
 62
     4
 10
411.713606
 20
865.837056
 11
415.713606
 21
865.837056
  0
ARC
  8
CSLAYER1
  6
CONTINUOUS
 62
     4
 10
410.713606
 20
889.412056
 40
1.000000
 50
0.000000
 51
90.000000
  0
ARC
  8
CSLAYER1
  6
CONTINUOUS
 62
     4
 10
410.713606
 20
872.362056
 40
1.000000
 50
270.000000
 51
360.000000
  0
LINE
  8
CSLAYER1
  6
CONTINUOUS
 62
     4
 10
394.188606
 20
866.137056
 11
410.188606
 21
866.137056
  0
LINE
  8
CSLAYER1
  6
CONTINUOUS
 62
     4
 10
394.188606
 20
859.137056
 11
389.663606
 21
859.137056
  0
LINE
  8
CSLAYER1
  6
CONTINUOUS
 62
     4
 10
394.188606
 20
839.137056
 11
389.663606
 21
839.137056
  0
LINE
  8
CSLAYER1
  6
CONTINUOUS
 62
     4
 10
227.188606
 20
398.913998
 11
227.188606
 21
334.632214
  0
LINE
  8
CSLAYER1
  6
CONTINUOUS
 62
     4
 10
727.188606
 20
399.632214
 11
227.188606
 21
399.632214
  0
LINE
  8
CSLAYER1
  6
CONTINUOUS
 62
     4
 10
555.388606
 20
416.590208
 11
558.388606
 21
416.590208
  0
LINE
  8
CSLAYER1
  6
CONTINUOUS
 62
     4
 10
555.388606
 20
425.293959
 11
559.388606
 21
425.293959
  0
LINE
  8
CSLAYER1
  6
CONTINUOUS
 62
     4
 10
558.388606
 20
399.632214
 11
558.388606
 21
425.293959
  0
LINE
  8
CSLAYER1
  6
CONTINUOUS
 62
     4
 10
562.888606
 20
455.125811
 11
564.388606
 21
455.125811
  0
LINE
  8
CSLAYER1
  6
CONTINUOUS
 62
     4
 10
562.888606
 20
455.634018
 11
564.388606
 21
455.634018
  0
LINE
  8
CSLAYER1
  6
CONTINUOUS
 62
     4
 10
574.388606
 20
399.632214
 11
574.388606
 21
425.293959
  0
LINE
  8
CSLAYER1
  6
CONTINUOUS
 62
     4
 10
562.888606
 20
443.322282
 11
562.888606
 21
455.634018
  0
LINE
  8
CSLAYER1
  6
CONTINUOUS
 62
     4
 10
569.888606
 20
443.322282
 11
569.888606
 21
455.634018
  0
LINE
  8
CSLAYER1
  6
CONTINUOUS
 62
     4
 10
559.388606
 20
416.007784
 11
559.388606
 21
431.338143
  0
LINE
  8
CSLAYER1
  6
CONTINUOUS
 62
     4
 10
573.388606
 20
416.007784
 11
573.388606
 21
431.338143
  0
LINE
  8
CSLAYER1
  6
CONTINUOUS
 62
     4
 10
564.388606
 20
443.322282
 11
564.388606
 21
471.611951
  0
LINE
  8
CSLAYER1
  6
CONTINUOUS
 62
     4
 10
568.388606
 20
443.322282
 11
568.388606
 21
467.572508
  0
LINE
  8
CSLAYER1
  6
CONTINUOUS
 62
     4
 10
560.849423
 20
443.322282
 11
571.927788
 21
443.322282
  0
LINE
  8
CSLAYER1
  6
CONTINUOUS
 62
     4
 10
558.388606
 20
416.007784
 11
574.388606
 21
416.007784
  0
LINE
  8
CSLAYER1
  6
CONTINUOUS
 62
     4
 10
573.388606
 20
431.338143
 11
571.927788
 21
443.322282
  0
LINE
  8
CSLAYER1
  6
CONTINUOUS
 62
     4
 10
559.388606
 20
431.338143
 11
560.849423
 21
443.322282
  0
LINE
  8
CSLAYER1
  6
CONTINUOUS
 62
     4
 10
575.388606
 20
409.756821
 11
575.388606
 21
417.356821
  0
LINE
  8
CSLAYER1
  6
CONTINUOUS
 62
     4
 10
575.388606
 20
409.756821
 11
574.388606
 21
409.756821
  0
LINE
  8
CSLAYER1
  6
CONTINUOUS
 62
     4
 10
575.388606
 20
417.356821
 11
574.388606
 21
417.356821
  0
LINE
  8
CSLAYER1
  6
CONTINUOUS
 62
     4
 10
577.988606
 20
412.056821
 11
577.988606
 21
415.056821
  0
LINE
  8
CSLAYER1
  6
CONTINUOUS
 62
     4
 10
575.988606
 20
410.056821
 11
575.388606
 21
410.056821
  0
LINE
  8
CSLAYER1
  6
CONTINUOUS
 62
     4
 10
575.988606
 20
417.056821
 11
575.388606
 21
417.056821
  0
ARC
  8
CSLAYER1
  6
CONTINUOUS
 62
     4
 10
575.988606
 20
412.056821
 40
2.000000
 50
270.000000
 51
360.000000
  0
ARC
  8
CSLAYER1
  6
CONTINUOUS
 62
     4
 10
575.988606
 20
415.056821
 40
2.000000
 50
0.000000
 51
90.000000
  0
LINE
  8
CSLAYER1
  6
CONTINUOUS
 62
     4
 10
573.388606
 20
425.293959
 11
574.388606
 21
425.293959
  0
LINE
  8
CSLAYER1
  6
CONTINUOUS
 62
     4
 10
568.388606
 20
455.125811
 11
569.888606
 21
455.125811
  0
LINE
  8
CSLAYER1
  6
CONTINUOUS
 62
     4
 10
568.388606
 20
455.634018
 11
569.888606
 21
455.634018
  0
LINE
  8
CSLAYER1
  6
CONTINUOUS
 62
     4
 10
562.146851
 20
472.957004
 11
563.642544
 21
472.059588
  0
LINE
  8
CSLAYER1
  6
CONTINUOUS
 62
     4
 10
563.642544
 20
472.059588
 11
572.616705
 21
464.281982
  0
LINE
  8
CSLAYER1
  6
CONTINUOUS
 62
     4
 10
554.188606
 20
422.549280
 11
554.188606
 21
412.549280
  0
LINE
  8
CSLAYER1
  6
CONTINUOUS
 62
     4
 10
574.388606
 20
422.549280
 11
584.188606
 21
422.549280
  0
LINE
  8
CSLAYER1
  6
CONTINUOUS
 62
     4
 10
577.927029
 20
412.549280
 11
584.188606
 21
412.549280
  0
LINE
  8
CSLAYER1
  6
CONTINUOUS
 62
     4
 10
372.380279
 20
826.367828
 11
392.188606
 21
826.367828
  0
LINE
  8
CSLAYER1
  6
CONTINUOUS
 62
     4
 10
393.188606
 20
821.367828
 11
394.188606
 21
821.367828
  0
LINE
  8
CSLAYER1
  6
CONTINUOUS
 62
     4
 10
584.188606
 20
399.632214
 11
584.188606
 21
1322.303443
  0
LINE
  8
CSLAYER1
  6
CONTINUOUS
 62
     4
 10
600.188606
 20
399.632214
 11
600.188606
 21
1322.303443
  0
LINE
  8
CSLAYER1
  6
CONTINUOUS
 62
     4
 10
432.638606
 20
1041.900852
 11
432.638606
 21
801.989079
  0
LINE
  8
CSLAYER1
  6
CONTINUOUS
 62
     4
 10
521.738606
 20
1041.900852
 11
521.738606
 21
801.989079
  0
LINE
  8
CSLAYER1
  6
CONTINUOUS
 62
     4
 10
446.938606
 20
1166.166312
 11
446.938606
 21
1060.146693
  0
LINE
  8
CSLAYER1
  6
CONTINUOUS
 62
     4
 10
507.438606
 20
1166.166312
 11
507.438606
 21
1060.146693
  0
LINE
  8
CSLAYER1
  6
CONTINUOUS
 62
     4
 10
422.688606
 20
1226.666312
 11
422.688606
 21
1166.166312
  0
LINE
  8
CSLAYER1
  6
CONTINUOUS
 62
     4
 10
469.359329
 20
1182.080260
 11
466.842496
 21
1181.648059
  0
LINE
  8
CSLAYER1
  6
CONTINUOUS
 62
     4
 10
466.842496
 20
1181.648059
 11
464.404403
 21
1181.098033
  0
LINE
  8
CSLAYER1
  6
CONTINUOUS
 62
     4
 10
464.404403
 20
1181.098033
 11
462.063606
 21
1180.434367
  0
LINE
  8
CSLAYER1
  6
CONTINUOUS
 62
     4
 10
462.063606
 20
1180.434367
 11
459.837918
 21
1179.662113
  0
LINE
  8
CSLAYER1
  6
CONTINUOUS
 62
     4
 10
459.837918
 20
1179.662113
 11
457.744280
 21
1178.787148
  0
LINE
  8
CSLAYER1
  6
CONTINUOUS
 62
     4
 10
457.744280
 20
1178.787148
 11
455.798625
 21
1177.816130
  0
LINE
  8
CSLAYER1
  6
CONTINUOUS
 62
     4
 10
455.798625
 20
1177.816130
 11
454.015761
 21
1176.756451
  0
LINE
  8
CSLAYER1
  6
CONTINUOUS
 62
     4
 10
454.015761
 20
1176.756451
 11
452.409256
 21
1175.616174
  0
LINE
  8
CSLAYER1
  6
CONTINUOUS
 62
     4
 10
452.409256
 20
1175.616174
 11
450.991337
 21
1174.403977
  0
LINE
  8
CSLAYER1
  6
CONTINUOUS
 62
     4
 10
450.991337
 20
1174.403977
 11
449.772795
 21
1173.129088
  0
LINE
  8
CSLAYER1
  6
CONTINUOUS
 62
     4
 10
449.772795
 20
1173.129088
 11
448.762904
 21
1171.801207
  0
LINE
  8
CSLAYER1
  6
CONTINUOUS
 62
     4
 10
448.762904
 20
1171.801207
 11
447.969349
 21
1170.430441
  0
LINE
  8
CSLAYER1
  6
CONTINUOUS
 62
     4
 10
447.969349
 20
1170.430441
 11
447.398171
 21
1169.027223
  0
LINE
  8
CSLAYER1
  6
CONTINUOUS
 62
     4
 10
447.398171
 20
1169.027223
 11
447.053716
 21
1167.602232
  0
LINE
  8
CSLAYER1
  6
CONTINUOUS
 62
     4
 10
447.053716
 20
1167.602232
 11
446.938606
 21
1166.166312
  0
LINE
  8
CSLAYER1
  6
CONTINUOUS
 62
     4
 10
521.738606
 20
1041.900852
 11
521.569079
 21
1044.015570
  0
LINE
  8
CSLAYER1
  6
CONTINUOUS
 62
     4
 10
521.569079
 20
1044.015570
 11
521.061791
 21
1046.114194
  0
LINE
  8
CSLAYER1
  6
CONTINUOUS
 62
     4
 10
521.061791
 20
1046.114194
 11
520.220601
 21
1048.180751
  0
LINE
  8
CSLAYER1
  6
CONTINUOUS
 62
     4
 10
520.220601
 20
1048.180751
 11
519.051912
 21
1050.199515
  0
LINE
  8
CSLAYER1
  6
CONTINUOUS
 62
     4
 10
519.051912
 20
1050.199515
 11
517.564617
 21
1052.155121
  0
LINE
  8
CSLAYER1
  6
CONTINUOUS
 62
     4
 10
517.564617
 20
1052.155121
 11
515.770037
 21
1054.032686
  0
LINE
  8
CSLAYER1
  6
CONTINUOUS
 62
     4
 10
515.770037
 20
1054.032686
 11
513.681829
 21
1055.817921
  0
LINE
  8
CSLAYER1
  6
CONTINUOUS
 62
     4
 10
513.681829
 20
1055.817921
 11
511.315885
 21
1057.497238
  0
LINE
  8
CSLAYER1
  6
CONTINUOUS
 62
     4
 10
511.315885
 20
1057.497238
 11
508.690213
 21
1059.057857
  0
LINE
  8
CSLAYER1
  6
CONTINUOUS
 62
     4
 10
508.690213
 20
1059.057857
 11
505.824794
 21
1060.487901
  0
LINE
  8
CSLAYER1
  6
CONTINUOUS
 62
     4
 10
505.824794
 20
1060.487901
 11
502.741436
 21
1061.776486
  0
LINE
  8
CSLAYER1
  6
CONTINUOUS
 62
     4
 10
502.741436
 20
1061.776486
 11
499.463606
 21
1062.913806
  0
LINE
  8
CSLAYER1
  6
CONTINUOUS
 62
     4
 10
499.463606
 20
1062.913806
 11
496.016249
 21
1063.891204
  0
LINE
  8
CSLAYER1
  6
CONTINUOUS
 62
     4
 10
496.016249
 20
1063.891204
 11
492.425603
 21
1064.701243
  0
LINE
  8
CSLAYER1
  6
CONTINUOUS
 62
     4
 10
492.425603
 20
1064.701243
 11
488.718994
 21
1065.337756
  0
LINE
  8
CSLAYER1
  6
CONTINUOUS
 62
     4
 10
488.718994
 20
1065.337756
 11
484.924632
 21
1065.795901
  0
LINE
  8
CSLAYER1
  6
CONTINUOUS
 62
     4
 10
484.924632
 20
1065.795901
 11
481.071394
 21
1066.072190
  0
LINE
  8
CSLAYER1
  6
CONTINUOUS
 62
     4
 10
481.071394
 20
1066.072190
 11
477.188606
 21
1066.164521
  0
LINE
  8
CSLAYER1
  6
CONTINUOUS
 62
     4
 10
477.188606
 20
1066.164521
 11
473.305817
 21
1066.072190
  0
LINE
  8
CSLAYER1
  6
CONTINUOUS
 62
     4
 10
473.305817
 20
1066.072190
 11
469.452579
 21
1065.795901
  0
LINE
  8
CSLAYER1
  6
CONTINUOUS
 62
     4
 10
469.452579
 20
1065.795901
 11
465.658217
 21
1065.337756
  0
LINE
  8
CSLAYER1
  6
CONTINUOUS
 62
     4
 10
465.658217
 20
1065.337756
 11
461.951608
 21
1064.701243
  0
LINE
  8
CSLAYER1
  6
CONTINUOUS
 62
     4
 10
461.951608
 20
1064.701243
 11
458.360962
 21
1063.891204
  0
LINE
  8
CSLAYER1
  6
CONTINUOUS
 62
     4
 10
458.360962
 20
1063.891204
 11
454.913606
 21
1062.913806
  0
LINE
  8
CSLAYER1
  6
CONTINUOUS
 62
     4
 10
454.913606
 20
1062.913806
 11
451.635775
 21
1061.776486
  0
LINE
  8
CSLAYER1
  6
CONTINUOUS
 62
     4
 10
451.635775
 20
1061.776486
 11
448.552417
 21
1060.487901
  0
LINE
  8
CSLAYER1
  6
CONTINUOUS
 62
     4
 10
448.552417
 20
1060.487901
 11
445.686998
 21
1059.057857
  0
LINE
  8
CSLAYER1
  6
CONTINUOUS
 62
     4
 10
445.686998
 20
1059.057857
 11
443.061326
 21
1057.497238
  0
LINE
  8
CSLAYER1
  6
CONTINUOUS
 62
     4
 10
443.061326
 20
1057.497238
 11
440.695382
 21
1055.817921
  0
LINE
  8
CSLAYER1
  6
CONTINUOUS
 62
     4
 10
440.695382
 20
1055.817921
 11
438.607174
 21
1054.032686
  0
LINE
  8
CSLAYER1
  6
CONTINUOUS
 62
     4
 10
438.607174
 20
1054.032686
 11
436.812594
 21
1052.155121
  0
LINE
  8
CSLAYER1
  6
CONTINUOUS
 62
     4
 10
436.812594
 20
1052.155121
 11
435.325299
 21
1050.199515
  0
LINE
  8
CSLAYER1
  6
CONTINUOUS
 62
     4
 10
435.325299
 20
1050.199515
 11
434.156610
 21
1048.180751
  0
LINE
  8
CSLAYER1
  6
CONTINUOUS
 62
     4
 10
434.156610
 20
1048.180751
 11
433.315420
 21
1046.114194
  0
LINE
  8
CSLAYER1
  6
CONTINUOUS
 62
     4
 10
433.315420
 20
1046.114194
 11
432.808132
 21
1044.015570
  0
LINE
  8
CSLAYER1
  6
CONTINUOUS
 62
     4
 10
432.808132
 20
1044.015570
 11
432.638606
 21
1041.900852
  0
LINE
  8
CSLAYER1
  6
CONTINUOUS
 62
     4
 10
311.188606
 20
701.874458
 11
354.188606
 21
701.874458
  0
LINE
  8
CSLAYER1
  6
CONTINUOUS
 62
     4
 10
643.188606
 20
686.680844
 11
600.188606
 21
686.680844
  0
LINE
  8
CSLAYER1
  6
CONTINUOUS
 62
     4
 10
643.188606
 20
607.267587
 11
600.188606
 21
607.267587
  0
LINE
  8
CSLAYER1
  6
CONTINUOUS
 62
     4
 10
370.188606
 20
701.874458
 11
399.581105
 21
701.874458
  0
LINE
  8
CSLAYER1
  6
CONTINUOUS
 62
     4
 10
354.188606
 20
686.680844
 11
311.188606
 21
686.680844
  0
LINE
  8
CSLAYER1
  6
CONTINUOUS
 62
     4
 10
354.188606
 20
607.267587
 11
311.188606
 21
607.267587
  0
LINE
  8
CSLAYER1
  6
CONTINUOUS
 62
     4
 10
600.188606
 20
701.874458
 11
643.188606
 21
701.874458
  0
LINE
  8
CSLAYER1
  6
CONTINUOUS
 62
     4
 10
584.188606
 20
686.680844
 11
531.188606
 21
686.680844
  0
LINE
  8
CSLAYER1
  6
CONTINUOUS
 62
     4
 10
584.188606
 20
607.267587
 11
562.188606
 21
607.267587
  0
LINE
  8
CSLAYER1
  6
CONTINUOUS
 62
     4
 10
417.188606
 20
607.267587
 11
370.188606
 21
607.267587
  0
LINE
  8
CSLAYER1
  6
CONTINUOUS
 62
     4
 10
423.188606
 20
686.680844
 11
370.188606
 21
686.680844
  0
LINE
  8
CSLAYER1
  6
CONTINUOUS
 62
     4
 10
554.796106
 20
701.874458
 11
584.188606
 21
701.874458
  0
LINE
  8
CSLAYER1
  6
CONTINUOUS
 62
     4
 10
659.188606
 20
793.867828
 11
659.188606
 21
399.632214
  0
LINE
  8
CSLAYER1
  6
CONTINUOUS
 62
     4
 10
311.188606
 20
821.367828
 11
312.215146
 21
821.367828
  0
LINE
  8
CSLAYER1
  6
CONTINUOUS
 62
     4
 10
311.188606
 20
791.367828
 11
312.215146
 21
791.367828
  0
LINE
  8
CSLAYER1
  6
CONTINUOUS
 62
     4
 10
659.188606
 20
1232.103443
 11
659.188606
 21
818.867828
  0
LINE
  8
CSLAYER1
  6
CONTINUOUS
 62
     4
 10
643.188606
 20
1232.103443
 11
643.188606
 21
399.632214
  0
LINE
  8
CSLAYER1
  6
CONTINUOUS
 62
     4
 10
349.188606
 20
1261.103443
 11
354.188606
 21
1261.103443
  0
LINE
  8
CSLAYER1
  6
CONTINUOUS
 62
     4
 10
349.188606
 20
1241.103443
 11
354.188606
 21
1241.103443
  0
LINE
  8
CSLAYER1
  6
CONTINUOUS
 62
     5
 10
552.188606
 20
1272.645358
 11
552.188606
 21
826.367828
  0
LINE
  8
CSLAYER1
  6
CONTINUOUS
 62
     5
 10
402.188606
 20
1270.699935
 11
402.188606
 21
825.287318
  0
LINE
  8
CSLAYER1
  6
CONTINUOUS
 62
     4
 10
352.188606
 20
762.461401
 11
354.188606
 21
762.461401
  0
LINE
  8
CSLAYER1
  6
CONTINUOUS
 62
     4
 10
344.188606
 20
732.461401
 11
352.188606
 21
732.461401
  0
LINE
  8
CSLAYER1
  6
CONTINUOUS
 62
     4
 10
342.188606
 20
734.461401
 11
344.188606
 21
732.461401
  0
LINE
  8
CSLAYER1
  6
CONTINUOUS
 62
     4
 10
352.188606
 20
734.461401
 11
354.188606
 21
734.461401
  0
LINE
  8
CSLAYER1
  6
CONTINUOUS
 62
     4
 10
602.188606
 20
764.461401
 11
602.188606
 21
732.461401
  0
LINE
  8
CSLAYER1
  6
CONTINUOUS
 62
     4
 10
612.188606
 20
762.461401
 11
612.188606
 21
734.461401
  0
LINE
  8
CSLAYER1
  6
CONTINUOUS
 62
     4
 10
610.188606
 20
764.461401
 11
602.188606
 21
764.461401
  0
LINE
  8
CSLAYER1
  6
CONTINUOUS
 62
     4
 10
612.188606
 20
762.461401
 11
610.188606
 21
764.461401
  0
LINE
  8
CSLAYER1
  6
CONTINUOUS
 62
     4
 10
610.188606
 20
764.461401
 11
610.188606
 21
732.461401
  0
LINE
  8
CSLAYER1
  6
CONTINUOUS
 62
     4
 10
610.188606
 20
732.461401
 11
602.188606
 21
732.461401
  0
LINE
  8
CSLAYER1
  6
CONTINUOUS
 62
     4
 10
612.188606
 20
734.461401
 11
610.188606
 21
732.461401
  0
LINE
  8
CSLAYER1
  6
CONTINUOUS
 62
     4
 10
602.188606
 20
762.461401
 11
600.188606
 21
762.461401
  0
LINE
  8
CSLAYER1
  6
CONTINUOUS
 62
     4
 10
602.188606
 20
734.461401
 11
600.188606
 21
734.461401
  0
LINE
  8
CSLAYER1
  6
CONTINUOUS
 62
     4
 10
584.188606
 20
762.461401
 11
583.188606
 21
762.461401
  0
LINE
  8
CSLAYER1
  6
CONTINUOUS
 62
     4
 10
584.188606
 20
734.461401
 11
583.188606
 21
734.461401
  0
LINE
  8
CSLAYER1
  6
CONTINUOUS
 62
     4
 10
370.188606
 20
781.650671
 11
374.905763
 21
786.367828
  0
LINE
  8
CSLAYER1
  6
CONTINUOUS
 62
     4
 10
370.188606
 20
781.933513
 11
374.622920
 21
786.367828
  0
LINE
  8
CSLAYER1
  6
CONTINUOUS
 62
     4
 10
370.188606
 20
782.216356
 11
374.340077
 21
786.367828
  0
LINE
  8
CSLAYER1
  6
CONTINUOUS
 62
     4
 10
370.188606
 20
782.499199
 11
374.057235
 21
786.367828
  0
LINE
  8
CSLAYER1
  6
CONTINUOUS
 62
     4
 10
370.188606
 20
782.782042
 11
373.774392
 21
786.367828
  0
LINE
  8
CSLAYER1
  6
CONTINUOUS
 62
     4
 10
370.188606
 20
783.064884
 11
373.491549
 21
786.367828
  0
LINE
  8
CSLAYER1
  6
CONTINUOUS
 62
     4
 10
370.188606
 20
783.347727
 11
373.208707
 21
786.367828
  0
LINE
  8
CSLAYER1
  6
CONTINUOUS
 62
     4
 10
370.188606
 20
783.630570
 11
372.925864
 21
786.367828
  0
LINE
  8
CSLAYER1
  6
CONTINUOUS
 62
     4
 10
370.188606
 20
783.913412
 11
372.643021
 21
786.367828
  0
LINE
  8
CSLAYER1
  6
CONTINUOUS
 62
     4
 10
370.188606
 20
784.196255
 11
372.360178
 21
786.367828
  0
LINE
  8
CSLAYER1
  6
CONTINUOUS
 62
     4
 10
370.188606
 20
784.479098
 11
372.077336
 21
786.367828
  0
LINE
  8
CSLAYER1
  6
CONTINUOUS
 62
     4
 10
370.188606
 20
784.761941
 11
371.794493
 21
786.367828
  0
LINE
  8
CSLAYER1
  6
CONTINUOUS
 62
     4
 10
370.188606
 20
785.044783
 11
371.511650
 21
786.367828
  0
LINE
  8
CSLAYER1
  6
CONTINUOUS
 62
     4
 10
370.188606
 20
785.327626
 11
371.228808
 21
786.367828
  0
LINE
  8
CSLAYER1
  6
CONTINUOUS
 62
     4
 10
370.188606
 20
785.610469
 11
370.945965
 21
786.367828
  0
LINE
  8
CSLAYER1
  6
CONTINUOUS
 62
     4
 10
370.188606
 20
785.893311
 11
370.663122
 21
786.367828
  0
LINE
  8
CSLAYER1
  6
CONTINUOUS
 62
     4
 10
370.188606
 20
786.176154
 11
370.380279
 21
786.367828
  0
LINE
  8
CSLAYER1
  6
CONTINUOUS
 62
     4
 10
371.228808
 20
786.367828
 11
370.188606
 21
786.367828
  0
LINE
  8
CSLAYER1
  6
CONTINUOUS
 62
     4
 10
372.380279
 20
786.367828
 11
385.178453
 21
786.367828
  0
LINE
  8
CSLAYER1
  6
CONTINUOUS
 62
     4
 10
371.188606
 20
1226.316312
 11
371.188606
 21
1166.516312
  0
ARC
  8
CSLAYER1
  6
CONTINUOUS
 62
     4
 10
370.088606
 20
1226.316312
 40
1.100000
 50
0.000000
 51
90.000000
  0
ARC
  8
CSLAYER1
  6
CONTINUOUS
 62
     4
 10
370.088606
 20
1166.516312
 40
1.100000
 50
270.000000
 51
360.000000
  0
LINE
  8
CSLAYER1
  6
CONTINUOUS
 62
     3
 10
2216.537079
 20
1587.273526
 11
2216.537079
 21
2237.273526
  0
LINE
  8
CSLAYER1
  6
CONTINUOUS
 62
     3
 10
1016.535375
 20
1587.273526
 11
1016.535375
 21
2237.273526
  0
LINE
  8
CSLAYER1
  6
CONTINUOUS
 62
     4
 10
1349.399568
 20
831.491693
 11
1410.169037
 21
752.074618
  0
LINE
  8
CSLAYER1
  6
CONTINUOUS
 62
     5
 10
1058.535375
 20
381.632214
 11
1058.535375
 21
341.632214
  0
LINE
  8
CSLAYER1
  6
CONTINUOUS
 62
     7
 10
1016.535375
 20
399.632214
 11
1016.535375
 21
334.632214
  0
LINE
  8
CSLAYER1
  6
CONTINUOUS
 62
     7
 10
2216.535375
 20
399.632214
 11
2216.535375
 21
334.632214
  0
LINE
  8
CSLAYER1
  6
CONTINUOUS
 62
     5
 10
1038.535375
 20
361.632214
 11
1078.535375
 21
361.632214
  0
LINE
  8
CSLAYER1
  6
CONTINUOUS
 62
     7
 10
1016.535375
 20
399.632214
 11
2216.535375
 21
399.632214
  0
LINE
  8
CSLAYER1
  6
CONTINUOUS
 62
     7
 10
1019.535375
 20
1375.303443
 11
2213.535375
 21
1375.303443
  0
LINE
  8
CSLAYER1
  6
CONTINUOUS
 62
     7
 10
1016.535375
 20
1372.303443
 11
1016.535375
 21
1322.303443
  0
LINE
  8
CSLAYER1
  6
CONTINUOUS
 62
     7
 10
2216.535375
 20
1372.303443
 11
2216.535375
 21
1322.303443
  0
LINE
  8
CSLAYER1
  6
CONTINUOUS
 62
     7
 10
2213.335375
 20
1322.303443
 11
2213.335375
 21
1300.103443
  0
ARC
  8
CSLAYER1
  6
CONTINUOUS
 62
     7
 10
2213.535375
 20
1372.303443
 40
3.000000
 50
0.000000
 51
90.000000
  0
ARC
  8
CSLAYER1
  6
CONTINUOUS
 62
     7
 10
1019.535375
 20
1372.303443
 40
3.000000
 50
90.000000
 51
180.000000
  0
LINE
  8
CSLAYER1
  6
CONTINUOUS
 62
     7
 10
1016.535375
 20
1322.303443
 11
2216.535375
 21
1322.303443
  0
CIRCLE
  8
CSLAYER1
  6
CONTINUOUS
 62
     4
 10
1739.153426
 20
1251.103443
 40
21.000000
  0
CIRCLE
  8
CSLAYER1
  6
CONTINUOUS
 62
     4
 10
1739.153426
 20
1251.103443
 40
7.500000
  0
POINT
  8
CSLAYER1
 62
     5
 10
1285.280121
 20
748.461401
  0
LINE
  8
CSLAYER1
  6
CONTINUOUS
 62
     2
 10
1595.939645
 20
1215.808484
 11
1648.032026
 21
1176.679850
  0
POINT
  8
CSLAYER1
 62
     6
 10
1285.280121
 20
748.461401
  0
POINT
  8
CSLAYER1
 62
     5
 10
1398.844401
 20
806.367828
  0
POINT
  8
CSLAYER1
 62
     1
 10
1398.844401
 20
806.367828
  0
LINE
  8
CSLAYER1
  6
CONTINUOUS
 62
     1
 10
1554.291960
 20
1109.777730
 11
1636.293780
 21
1215.084975
  0
LINE
  8
CSLAYER1
  6
CONTINUOUS
 62
     1
 10
1556.801806
 20
1135.991801
 11
1579.082528
 21
1118.642000
  0
POINT
  8
CSLAYER1
 62
     5
 10
1058.535375
 20
1251.103443
  0
POINT
  8
CSLAYER1
 62
     5
 10
1739.153426
 20
1251.103443
  0
LINE
  8
CSLAYER1
  6
CONTINUOUS
 62
     5
 10
1739.153426
 20
1284.617037
 11
1739.153426
 21
1215.007471
  0
LINE
  8
CSLAYER1
  6
CONTINUOUS
 62
     5
 10
1701.107388
 20
1251.103443
 11
1775.911697
 21
1251.103443
  0
LINE
  8
CSLAYER1
  6
CONTINUOUS
 62
     7
 10
2198.335375
 20
1272.103443
 11
1651.335375
 21
1272.103443
  0
LINE
  8
CSLAYER1
  6
CONTINUOUS
 62
     4
 10
1533.489824
 20
730.784717
 11
1480.537775
 21
845.212906
  0
ARC
  8
CSLAYER1
  6
CONTINUOUS
 62
     4
 10
1417.375241
 20
815.984220
 40
69.597570
 50
24.832507
 51
69.373343
  0
LINE
  8
CSLAYER1
  6
CONTINUOUS
 62
     3
 10
1028.535375
 20
1322.303443
 11
1028.535375
 21
1232.103443
  0
LINE
  8
CSLAYER1
  6
CONTINUOUS
 62
     3
 10
1078.535375
 20
1322.303443
 11
1078.535375
 21
1247.103443
  0
ARC
  8
CSLAYER1
  6
CONTINUOUS
 62
     3
 10
1063.535375
 20
1247.103443
 40
15.000000
 50
270.000000
 51
360.000000
  0
LINE
  8
CSLAYER1
  6
CONTINUOUS
 62
     3
 10
1028.535375
 20
1232.103443
 11
1063.535375
 21
1232.103443
  0
LINE
  8
CSLAYER1
  6
CONTINUOUS
 62
     7
 10
2210.335375
 20
1297.103443
 11
1131.310199
 21
1297.103443
  0
LINE
  8
CSLAYER1
  6
CONTINUOUS
 62
     4
 10
1050.408909
 20
1232.103443
 11
1342.010699
 21
851.021275
  0
LINE
  8
CSLAYER1
  6
CONTINUOUS
 62
     4
 10
1410.169037
 20
752.074618
 11
1427.087955
 21
739.837372
  0
LINE
  8
CSLAYER1
  6
CONTINUOUS
 62
     4
 10
1427.087955
 20
739.837372
 11
1687.410903
 21
399.632214
  0
LINE
  8
CSLAYER1
  6
CONTINUOUS
 62
     4
 10
1306.720594
 20
876.860412
 11
1314.478923
 21
887.001401
  0
LINE
  8
CSLAYER1
  6
CONTINUOUS
 62
     4
 10
1755.102354
 20
1270.378910
 11
1752.848200
 21
1272.103443
  0
ARC
  8
CSLAYER1
  6
CONTINUOUS
 62
     4
 10
1744.772800
 20
1256.877047
 40
17.000000
 50
-25.687221
 51
52.582328
  0
LINE
  8
CSLAYER1
  6
CONTINUOUS
 62
     4
 10
1707.942337
 20
1212.027108
 11
1738.830036
 21
1230.105933
  0
LINE
  8
CSLAYER1
  6
CONTINUOUS
 62
     4
 10
1568.184006
 20
1029.359079
 11
1707.926434
 21
1212.017800
  0
LINE
  8
CSLAYER1
  6
CONTINUOUS
 62
     4
 10
1444.726905
 20
892.673519
 11
1436.202975
 21
857.924825
  0
LINE
  8
CSLAYER1
  6
CONTINUOUS
 62
     4
 10
1387.524813
 20
752.073566
 11
1370.607033
 21
739.834746
  0
LINE
  8
CSLAYER1
  6
CONTINUOUS
 62
     4
 10
1387.524813
 20
752.073566
 11
1398.846237
 21
766.871912
  0
LINE
  8
CSLAYER1
  6
CONTINUOUS
 62
     4
 10
1444.726905
 20
892.673519
 11
1532.387157
 21
1007.255107
  0
LINE
  8
CSLAYER1
  6
CONTINUOUS
 62
     7
 10
2201.335375
 20
1322.303443
 11
2201.335375
 21
1275.103443
  0
LINE
  8
CSLAYER1
  6
CONTINUOUS
 62
     7
 10
1106.110199
 20
1322.303443
 11
1131.310199
 21
1297.103443
  0
LINE
  8
CSLAYER1
  6
CONTINUOUS
 62
     4
 10
1047.862730
 20
434.977337
 11
1044.306462
 21
399.632214
  0
LINE
  8
CSLAYER1
  6
CONTINUOUS
 62
     7
 10
2213.335375
 20
1300.103443
 11
2210.335375
 21
1297.103443
  0
LINE
  8
CSLAYER1
  6
CONTINUOUS
 62
     7
 10
2201.335375
 20
1275.103443
 11
2198.335375
 21
1272.103443
  0
LINE
  8
CSLAYER1
  6
CONTINUOUS
 62
     4
 10
1306.720594
 20
876.860412
 11
1047.862730
 21
434.977337
  0
LINE
  8
CSLAYER1
  6
CONTINUOUS
 62
     4
 10
1110.336253
 20
399.632214
 11
1370.607033
 21
739.834746
  0
LINE
  8
CSLAYER1
  6
CONTINUOUS
 62
     4
 10
410.188606
 20
1259.194178
 11
394.188606
 21
1259.194178
  0
LINE
  8
CSLAYER1
  6
CONTINUOUS
 62
     4
 10
412.188606
 20
1257.194178
 11
410.188606
 21
1259.194178
  0
LINE
  8
CSLAYER1
  6
CONTINUOUS
 62
     4
 10
412.188606
 20
1257.194178
 11
392.188606
 21
1257.194178
  0
LINE
  8
CSLAYER1
  6
CONTINUOUS
 62
     4
 10
392.188606
 20
1257.194178
 11
394.188606
 21
1259.194178
  0
CIRCLE
  8
CSLAYER1
  6
CONTINUOUS
 62
     4
 10
402.188606
 20
1249.194178
 40
2.500000
  0
LINE
  8
CSLAYER1
  6
CONTINUOUS
 62
     7
 10
1651.335375
 20
1297.103443
 11
1651.335375
 21
1272.103443
  0
LINE
  8
CSLAYER1
  6
CONTINUOUS
 62
     4
 10
1349.399568
 20
831.491693
 11
1342.010699
 21
851.021275
  0
CIRCLE
  8
CSLAYER1
  6
CONTINUOUS
 62
     4
 10
1398.844401
 20
806.367828
 40
9.000000
  0
CIRCLE
  8
CSLAYER1
  6
CONTINUOUS
 62
     4
 10
1398.844401
 20
806.367828
 40
10.000000
  0
CIRCLE
  8
CSLAYER1
  6
CONTINUOUS
 62
     4
 10
1398.844401
 20
806.367828
 40
15.000000
  0
LINE
  8
CSLAYER1
  6
CONTINUOUS
 62
     4
 10
1413.844401
 20
815.028082
 11
1398.844401
 21
823.688336
  0
LINE
  8
CSLAYER1
  6
CONTINUOUS
 62
     4
 10
1398.844401
 20
823.688336
 11
1383.844401
 21
815.028082
  0
LINE
  8
CSLAYER1
  6
CONTINUOUS
 62
     4
 10
1383.844401
 20
815.028082
 11
1383.844401
 21
797.707574
  0
LINE
  8
CSLAYER1
  6
CONTINUOUS
 62
     4
 10
1383.844401
 20
797.707574
 11
1398.844401
 21
789.047320
  0
LINE
  8
CSLAYER1
  6
CONTINUOUS
 62
     4
 10
1398.844401
 20
789.047320
 11
1413.844401
 21
797.707574
  0
LINE
  8
CSLAYER1
  6
CONTINUOUS
 62
     4
 10
1413.844401
 20
797.707574
 11
1413.844401
 21
815.028082
  0
LINE
  8
CSLAYER1
  6
CONTINUOUS
 62
     4
 10
1364.211546
 20
952.007409
 11
1628.226082
 21
1297.103443
  0
INSERT
  8
CSLAYER1
  2
BLKF0001
 10
0.0
 20
0.0
 30
0.0
  0
LINE
  8
CSLAYER1
  6
CONTINUOUS
 62
     5
 10
1719.153426
 20
361.632214
 11
1759.153426
 21
361.632214
  0
LINE
  8
CSLAYER1
  6
CONTINUOUS
 62
     5
 10
1739.153426
 20
381.632214
 11
1739.153426
 21
341.632214
  0
LINE
  8
CSLAYER1
  6
PHANTOM
 62
     5
 10
2216.535375
 20
489.632214
 11
2216.535375
 21
436.632214
  0
LINE
  8
CSLAYER1
  6
PHANTOM
 62
     5
 10
2216.535375
 20
489.632214
 11
1016.535375
 21
489.632214
  0
LINE
  8
CSLAYER1
  6
PHANTOM
 62
     5
 10
2216.535375
 20
436.632214
 11
1016.535375
 21
436.632214
  0
LINE
  8
CSLAYER1
  6
CONTINUOUS
 62
     5
 10
3401.054596
 20
1876.120236
 11
2680.182078
 21
1876.120236
  0
LINE
  8
CSLAYER1
  6
CONTINUOUS
 62
     5
 10
3401.054596
 20
1812.120238
 11
2680.182078
 21
1812.120238
  0
LINE
  8
CSLAYER1
  6
CONTINUOUS
 62
     5
 10
3401.054596
 20
1748.120240
 11
2680.182078
 21
1748.120240
  0
LINE
  8
CSLAYER1
  6
CONTINUOUS
 62
     5
 10
3401.054596
 20
1684.120241
 11
2681.054614
 21
1684.120241
  0
LINE
  8
CSLAYER1
  6
CONTINUOUS
 62
     5
 10
3401.054596
 20
1620.120243
 11
2680.182078
 21
1620.120243
  0
LINE
  8
CSLAYER1
  6
CONTINUOUS
 62
     5
 10
3401.054596
 20
1556.120244
 11
2680.182078
 21
1556.120244
  0
LINE
  8
CSLAYER1
  6
CONTINUOUS
 62
     5
 10
3401.054596
 20
1492.120246
 11
2680.182078
 21
1492.120246
  0
LINE
  8
CSLAYER1
  6
CONTINUOUS
 62
     5
 10
3401.054596
 20
1428.120248
 11
2680.182078
 21
1428.120248
  0
LINE
  8
CSLAYER1
  6
CONTINUOUS
 62
     5
 10
3401.054596
 20
1364.120249
 11
2680.182078
 21
1364.120249
  0
TEXT
  8
CSLAYER1
 62
     3
 10
2875.906006
 20
1955.939453
 40
40.000000
 41
0.857143
  1
仕   様
 50
0.000000
 51
0.000000
  7
EASYDRAW_FONT
 72
     5
 11
3035.906006
 21
1955.939453
  0
TEXT
  8
CSLAYER1
 62
     3
 10
2690.941650
 20
1884.342773
 40
40.000000
 41
0.847059
  1
型    式
 50
0.000000
 51
0.000000
  7
EASYDRAW_FONT
 72
     5
 11
2882.941650
 21
1884.342773
  0
TEXT
  8
CSLAYER1
 62
     3
 10
2689.122070
 20
1761.853516
 40
40.000000
 41
0.847059
  1
テーブル寸法
 50
0.000000
 51
0.000000
  7
EASYDRAW_FONT
 72
     5
 11
2881.122070
 21
1761.853516
  0
TEXT
  8
CSLAYER1
 62
     3
 10
2690.941650
 20
1698.789063
 40
40.000000
 41
0.847059
  1
テーブル高サ
 50
0.000000
 51
0.000000
  7
EASYDRAW_FONT
 72
     5
 11
2882.941650
 21
1698.789063
  0
TEXT
  8
CSLAYER1
 62
     3
 10
2692.388428
 20
1633.906250
 40
40.000000
 41
0.857143
  1
ストローク
 50
0.000000
 51
0.000000
  7
EASYDRAW_FONT
 72
     5
 11
2852.388428
 21
1633.906250
  0
TEXT
  8
CSLAYER1
 62
     3
 10
2691.782227
 20
1569.023438
 40
40.000000
 41
0.857143
  1
全   長
 50
0.000000
 51
0.000000
  7
EASYDRAW_FONT
 72
     5
 11
2851.782227
 21
1569.023438
  0
TEXT
  8
CSLAYER1
 62
     3
 10
2694.053467
 20
1503.172852
 40
40.000000
 41
0.857143
  1
全   巾
 50
0.000000
 51
0.000000
  7
EASYDRAW_FONT
 72
     5
 11
2854.053467
 21
1503.172852
  0
TEXT
  8
CSLAYER1
 62
     3
 10
2692.495605
 20
1439.287598
 40
40.000000
 41
0.857143
  1
全   高
 50
0.000000
 51
0.000000
  7
EASYDRAW_FONT
 72
     5
 11
2852.495605
 21
1439.287598
  0
TEXT
  8
CSLAYER1
 62
     3
 10
2692.495605
 20
1376.960938
 40
40.000000
 41
0.857143
  1
リフト方式
 50
0.000000
 51
0.000000
  7
EASYDRAW_FONT
 72
     5
 11
2852.495605
 21
1376.960938
  0
TEXT
  8
CSLAYER1
 62
     3
 10
3144.364014
 20
1822.851563
 40
40.000000
 41
0.872727
  1
 500
 50
0.000000
 51
0.000000
  7
EASYDRAW_FONT
 72
     5
 11
3272.364014
 21
1822.851563
  0
TEXT
  8
CSLAYER1
 62
     3
 10
3330.520752
 20
1819.178223
 40
40.000000
 41
0.960000
  1
Ｋｇ
 50
0.000000
 51
0.000000
  7
EASYDRAW_FONT
 72
     5
 11
3394.520752
 21
1819.178223
  0
TEXT
  8
CSLAYER1
 62
     3
 10
2983.248291
 20
1758.348145
 40
40.000000
 41
0.830769
  1
1200 ×650
 50
0.000000
 51
0.000000
  7
EASYDRAW_FONT
 72
     5
 11
3271.248291
 21
1758.348145
  0
TEXT
  8
CSLAYER1
 62
     3
 10
3276.702637
 20
1770.034668
 40
40.000000
 41
1.200000
  1
Ｗ
 50
0.000000
 51
0.000000
  7
EASYDRAW_FONT
 72
     5
 11
3308.702637
 21
1770.034668
  0
TEXT
  8
CSLAYER1
 62
     3
 10
3104.851318
 20
1773.307129
 40
40.000000
 41
1.200000
  1
Ｌ
 50
0.000000
 51
0.000000
  7
EASYDRAW_FONT
 72
     5
 11
3136.851318
 21
1773.307129
  0
TEXT
  8
CSLAYER1
 62
     3
 10
3015.631592
 20
1695.685059
 40
40.000000
 41
0.834783
  1
155～1015
 50
0.000000
 51
0.000000
  7
EASYDRAW_FONT
 72
     5
 11
3271.631592
 21
1695.685059
  0
TEXT
  8
CSLAYER1
 62
     3
 10
3172.400146
 20
1633.660156
 40
40.000000
 41
0.900000
  1
860
 50
0.000000
 51
0.000000
  7
EASYDRAW_FONT
 72
     5
 11
3268.400146
 21
1633.660156
  0
TEXT
  8
CSLAYER1
 62
     3
 10
3140.580078
 20
1568.568848
 40
40.000000
 41
0.872727
  1
1200
 50
0.000000
 51
0.000000
  7
EASYDRAW_FONT
 72
     5
 11
3268.580078
 21
1568.568848
  0
TEXT
  8
CSLAYER1
 62
     3
 10
3172.321533
 20
1504.049805
 40
40.000000
 41
0.900000
  1
650
 50
0.000000
 51
0.000000
  7
EASYDRAW_FONT
 72
     5
 11
3268.321533
 21
1504.049805
  0
TEXT
  8
CSLAYER1
 62
     3
 10
2963.532715
 20
1377.916016
 40
40.000000
 41
0.827586
  1
電 動 ボールネジ式
 50
0.000000
 51
0.000000
  7
EASYDRAW_FONT
 72
     5
 11
3283.532715
 21
1377.916016
  0
TEXT
  8
CSLAYER1
 62
     3
 10
3170.312744
 20
1439.388672
 40
40.000000
 41
0.900000
  1
155
 50
0.000000
 51
0.000000
  7
EASYDRAW_FONT
 72
     5
 11
3266.312744
 21
1439.388672
  0
TEXT
  8
CSLAYER1
 62
     3
 10
3328.006592
 20
1755.074707
 40
40.000000
 41
0.960000
  1
mm
 50
0.000000
 51
0.000000
  7
EASYDRAW_FONT
 72
     5
 11
3392.006592
 21
1755.074707
  0
TEXT
  8
CSLAYER1
 62
     3
 10
3328.006592
 20
1694.741699
 40
40.000000
 41
0.960000
  1
mm
 50
0.000000
 51
0.000000
  7
EASYDRAW_FONT
 72
     5
 11
3392.006592
 21
1694.741699
  0
TEXT
  8
CSLAYER1
 62
     3
 10
3324.235840
 20
1630.637695
 40
40.000000
 41
0.960000
  1
mm
 50
0.000000
 51
0.000000
  7
EASYDRAW_FONT
 72
     5
 11
3388.235840
 21
1630.637695
  0
TEXT
  8
CSLAYER1
 62
     3
 10
3324.235840
 20
1562.762695
 40
40.000000
 41
0.960000
  1
mm
 50
0.000000
 51
0.000000
  7
EASYDRAW_FONT
 72
     5
 11
3388.235840
 21
1562.762695
  0
TEXT
  8
CSLAYER1
 62
     3
 10
3321.722412
 20
1502.429688
 40
40.000000
 41
0.960000
  1
mm
 50
0.000000
 51
0.000000
  7
EASYDRAW_FONT
 72
     5
 11
3385.722412
 21
1502.429688
  0
TEXT
  8
CSLAYER1
 62
     3
 10
3321.722412
 20
1438.325195
 40
40.000000
 41
0.960000
  1
mm
 50
0.000000
 51
0.000000
  7
EASYDRAW_FONT
 72
     5
 11
3385.722412
 21
1438.325195
  0
LINE
  8
CSLAYER1
  6
CONTINUOUS
 62
     5
 10
3063.959016
 20
1940.120235
 11
2855.573044
 21
1940.120235
  0
LINE
  8
CSLAYER1
  6
CONTINUOUS
 62
     5
 10
3063.959016
 20
1948.120235
 11
2855.573044
 21
1948.120235
  0
INSERT
  8
CSLAYER1
  2
BLKF0002
 10
0.0
 20
0.0
 30
0.0
  0
LINE
  8
CSLAYER1
  6
CENTER
 62
     5
 10
268.627067
 20
1251.103443
 11
370.188606
 21
1251.103443
  0
LINE
  8
CSLAYER1
  6
CONTINUOUS
 62
     3
 10
275.488606
 20
1251.103443
 11
275.488606
 21
1260.603443
  0
LINE
  8
CSLAYER1
  6
CONTINUOUS
 62
     4
 10
278.688606
 20
1322.303443
 11
278.688606
 21
1232.103443
  0
LINE
  8
CSLAYER1
  6
CONTINUOUS
 62
     4
 10
319.688606
 20
1232.103443
 11
278.688606
 21
1232.103443
  0
LINE
  8
CSLAYER1
  6
CONTINUOUS
 62
     4
 10
275.488606
 20
1274.103443
 11
275.488606
 21
1243.103443
  0
LINE
  8
CSLAYER1
  6
CONTINUOUS
 62
     5
 10
270.997731
 20
1266.103443
 11
284.688606
 21
1266.103443
  0
LINE
  8
CSLAYER1
  6
CONTINUOUS
 62
     4
 10
275.488606
 20
1274.103443
 11
278.688606
 21
1274.103443
  0
LINE
  8
CSLAYER1
  6
CONTINUOUS
 62
     4
 10
320.688606
 20
1244.103443
 11
320.688606
 21
1258.103443
  0
LINE
  8
CSLAYER1
  6
CONTINUOUS
 62
     4
 10
320.688606
 20
1244.103443
 11
319.688606
 21
1243.103443
  0
LINE
  8
CSLAYER1
  6
CONTINUOUS
 62
     4
 10
275.488606
 20
1243.103443
 11
278.688606
 21
1243.103443
  0
LINE
  8
CSLAYER1
  6
CONTINUOUS
 62
     4
 10
320.688606
 20
1258.103443
 11
319.688606
 21
1259.103443
  0
LINE
  8
CSLAYER1
  6
CONTINUOUS
 62
     4
 10
275.488606
 20
1247.103443
 11
278.688606
 21
1247.103443
  0
LINE
  8
CSLAYER1
  6
CONTINUOUS
 62
     4
 10
275.488606
 20
1255.103443
 11
278.688606
 21
1255.103443
  0
LINE
  8
CSLAYER1
  6
CONTINUOUS
 62
     4
 10
609.188606
 20
1297.103443
 11
634.188606
 21
1297.103443
  0
LINE
  8
CSLAYER1
  6
CONTINUOUS
 62
     4
 10
634.188606
 20
1272.103443
 11
606.688606
 21
1272.103443
  0
LINE
  8
CSLAYER1
  6
CONTINUOUS
 62
     4
 10
634.188606
 20
1322.303443
 11
634.188606
 21
1272.103443
  0
LINE
  8
CSLAYER1
  6
CONTINUOUS
 62
     4
 10
609.188606
 20
1272.103443
 11
609.188606
 21
1322.303443
  0
LINE
  8
CSLAYER1
  6
CONTINUOUS
 62
     4
 10
624.688606
 20
1322.303443
 11
624.688606
 21
1297.103443
  0
LINE
  8
CSLAYER1
  6
CONTINUOUS
 62
     4
 10
618.688606
 20
1322.303443
 11
618.688606
 21
1297.103443
  0
LINE
  8
CSLAYER1
  6
CONTINUOUS
 62
     4
 10
605.688606
 20
1271.103443
 11
605.688606
 21
1231.103443
  0
LINE
  8
CSLAYER1
  6
CONTINUOUS
 62
     4
 10
632.188606
 20
1262.655085
 11
632.188606
 21
1239.551800
  0
LINE
  8
CSLAYER1
  6
CONTINUOUS
 62
     4
 10
633.338606
 20
1262.655085
 11
633.338606
 21
1239.551800
  0
LINE
  8
CSLAYER1
  6
CONTINUOUS
 62
     4
 10
634.188606
 20
1258.603443
 11
633.396442
 21
1258.603443
  0
LINE
  8
CSLAYER1
  6
CONTINUOUS
 62
     4
 10
633.338606
 20
1262.655085
 11
632.188606
 21
1262.655085
  0
LINE
  8
CSLAYER1
  6
CONTINUOUS
 62
     4
 10
632.188606
 20
1258.603443
 11
631.688606
 21
1258.603443
  0
LINE
  8
CSLAYER1
  6
CONTINUOUS
 62
     4
 10
631.688606
 20
1271.103443
 11
631.688606
 21
1231.103443
  0
ARC
  8
CSLAYER1
  6
CONTINUOUS
 62
     4
 10
606.688606
 20
1271.103443
 40
1.000000
 50
90.000000
 51
180.000000
  0
ARC
  8
CSLAYER1
  6
CONTINUOUS
 62
     4
 10
630.688606
 20
1271.103443
 40
1.000000
 50
0.000000
 51
90.000000
  0
ARC
  8
CSLAYER1
  6
CONTINUOUS
 62
     4
 10
619.688606
 20
1271.103443
 40
1.000000
 50
90.000000
 51
180.000000
  0
ARC
  8
CSLAYER1
  6
CONTINUOUS
 62
     4
 10
617.688606
 20
1271.103443
 40
1.000000
 50
0.000000
 51
90.000000
  0
LINE
  8
CSLAYER1
  6
CONTINUOUS
 62
     4
 10
634.688606
 20
1322.303443
 11
634.688606
 21
1232.103443
  0
LINE
  8
CSLAYER1
  6
CONTINUOUS
 62
     4
 10
630.688606
 20
1230.103443
 11
619.688606
 21
1230.103443
  0
LINE
  8
CSLAYER1
  6
CONTINUOUS
 62
     4
 10
634.188606
 20
1243.603443
 11
633.396442
 21
1243.603443
  0
LINE
  8
CSLAYER1
  6
CONTINUOUS
 62
     4
 10
633.338606
 20
1239.551800
 11
632.188606
 21
1239.551800
  0
LINE
  8
CSLAYER1
  6
CONTINUOUS
 62
     4
 10
632.188606
 20
1243.603443
 11
631.688606
 21
1243.603443
  0
ARC
  8
CSLAYER1
  6
CONTINUOUS
 62
     4
 10
606.688606
 20
1231.103443
 40
1.000000
 50
180.000000
 51
270.000000
  0
ARC
  8
CSLAYER1
  6
CONTINUOUS
 62
     4
 10
630.688606
 20
1231.103443
 40
1.000000
 50
270.000000
 51
360.000000
  0
ARC
  8
CSLAYER1
  6
CONTINUOUS
 62
     4
 10
619.688606
 20
1231.103443
 40
1.000000
 50
180.000000
 51
270.000000
  0
ARC
  8
CSLAYER1
  6
CONTINUOUS
 62
     4
 10
617.688606
 20
1231.103443
 40
1.000000
 50
270.000000
 51
360.000000
  0
LINE
  8
CSLAYER1
  6
CONTINUOUS
 62
     4
 10
606.688606
 20
1230.103443
 11
617.688606
 21
1230.103443
  0
LINE
  8
CSLAYER1
  6
CONTINUOUS
 62
     4
 10
605.188606
 20
1261.103443
 11
605.688606
 21
1260.603443
  0
LINE
  8
CSLAYER1
  6
CONTINUOUS
 62
     4
 10
605.188606
 20
1241.103443
 11
605.688606
 21
1241.603443
  0
LINE
  8
CSLAYER1
  6
CONTINUOUS
 62
     4
 10
618.688606
 20
1231.103443
 11
618.688606
 21
1271.103443
  0
LINE
  8
CSLAYER1
  6
CONTINUOUS
 62
     4
 10
605.188606
 20
1261.103443
 11
600.188606
 21
1261.103443
  0
LINE
  8
CSLAYER1
  6
CONTINUOUS
 62
     4
 10
605.188606
 20
1241.103443
 11
600.188606
 21
1241.103443
  0
LINE
  8
CSLAYER1
  6
CENTER
 62
     5
 10
686.251120
 20
1251.103443
 11
584.188606
 21
1251.103443
  0
LINE
  8
CSLAYER1
  6
CONTINUOUS
 62
     3
 10
678.888606
 20
1251.103443
 11
678.888606
 21
1260.603443
  0
LINE
  8
CSLAYER1
  6
CONTINUOUS
 62
     4
 10
675.688606
 20
1322.303443
 11
675.688606
 21
1232.103443
  0
LINE
  8
CSLAYER1
  6
CONTINUOUS
 62
     4
 10
634.688606
 20
1232.103443
 11
675.688606
 21
1232.103443
  0
LINE
  8
CSLAYER1
  6
CONTINUOUS
 62
     4
 10
678.888606
 20
1274.103443
 11
678.888606
 21
1243.103443
  0
LINE
  8
CSLAYER1
  6
CONTINUOUS
 62
     5
 10
683.379480
 20
1266.103443
 11
669.688606
 21
1266.103443
  0
LINE
  8
CSLAYER1
  6
CONTINUOUS
 62
     4
 10
678.888606
 20
1274.103443
 11
675.688606
 21
1274.103443
  0
LINE
  8
CSLAYER1
  6
CONTINUOUS
 62
     4
 10
633.688606
 20
1244.103443
 11
633.688606
 21
1258.103443
  0
LINE
  8
CSLAYER1
  6
CONTINUOUS
 62
     4
 10
633.688606
 20
1244.103443
 11
634.688606
 21
1243.103443
  0
LINE
  8
CSLAYER1
  6
CONTINUOUS
 62
     4
 10
678.888606
 20
1243.103443
 11
675.688606
 21
1243.103443
  0
LINE
  8
CSLAYER1
  6
CONTINUOUS
 62
     4
 10
633.688606
 20
1258.103443
 11
634.688606
 21
1259.103443
  0
LINE
  8
CSLAYER1
  6
CONTINUOUS
 62
     4
 10
678.888606
 20
1247.103443
 11
675.688606
 21
1247.103443
  0
LINE
  8
CSLAYER1
  6
CONTINUOUS
 62
     4
 10
678.888606
 20
1255.103443
 11
675.688606
 21
1255.103443
  0
LINE
  8
CSLAYER1
  6
CONTINUOUS
 62
     4
 10
507.438606
 20
1166.166312
 11
531.688606
 21
1166.166312
  0
LINE
  8
CSLAYER1
  6
CONTINUOUS
 62
     4
 10
578.188606
 20
1174.416312
 11
533.688606
 21
1174.416312
  0
LINE
  8
CSLAYER1
  6
CONTINUOUS
 62
     4
 10
578.188606
 20
1218.416312
 11
533.688606
 21
1218.416312
  0
LINE
  8
CSLAYER1
  6
CONTINUOUS
 62
     4
 10
533.688606
 20
1224.666312
 11
533.688606
 21
1168.166312
  0
LINE
  8
CSLAYER1
  6
CONTINUOUS
 62
     4
 10
533.688606
 20
1224.666312
 11
531.688606
 21
1226.666312
  0
LINE
  8
CSLAYER1
  6
CONTINUOUS
 62
     4
 10
533.688606
 20
1168.166312
 11
531.688606
 21
1166.166312
  0
LINE
  8
CSLAYER1
  6
CONTINUOUS
 62
     4
 10
578.188606
 20
1218.416312
 11
583.188606
 21
1213.416312
  0
LINE
  8
CSLAYER1
  6
CONTINUOUS
 62
     4
 10
578.188606
 20
1218.416312
 11
578.188606
 21
1174.416312
  0
LINE
  8
CSLAYER1
  6
CONTINUOUS
 62
     4
 10
578.188606
 20
1174.416312
 11
583.188606
 21
1179.416312
  0
LINE
  8
CSLAYER1
  6
CONTINUOUS
 62
     4
 10
567.188606
 20
1236.616312
 11
537.188606
 21
1236.616312
  0
LINE
  8
CSLAYER1
  6
CONTINUOUS
 62
     4
 10
569.509114
 20
1221.616312
 11
569.509114
 21
1235.276566
  0
LINE
  8
CSLAYER1
  6
CONTINUOUS
 62
     4
 10
560.848860
 20
1221.616312
 11
560.848860
 21
1235.276566
  0
LINE
  8
CSLAYER1
  6
CONTINUOUS
 62
     4
 10
567.188606
 20
1236.616312
 11
569.509114
 21
1235.276566
  0
ARC
  8
CSLAYER1
  6
CONTINUOUS
 62
     4
 10
565.178987
 20
1228.961694
 40
7.656867
 50
55.561448
 51
124.438552
  0
ARC
  8
CSLAYER1
  6
CONTINUOUS
 62
     4
 10
552.188606
 20
1207.956058
 40
28.660254
 50
72.412046
 51
107.587954
  0
LINE
  8
CSLAYER1
  6
CONTINUOUS
 62
     4
 10
533.688606
 20
1221.616312
 11
570.688606
 21
1221.616312
  0
LINE
  8
CSLAYER1
  6
CONTINUOUS
 62
     4
 10
565.188606
 20
1239.116312
 11
539.188606
 21
1239.116312
  0
LINE
  8
CSLAYER1
  6
CONTINUOUS
 62
     4
 10
567.188606
 20
1236.616312
 11
567.188606
 21
1237.116312
  0
ARC
  8
CSLAYER1
  6
CONTINUOUS
 62
     4
 10
565.188606
 20
1237.116312
 40
2.000000
 50
0.000000
 51
90.000000
  0
LINE
  8
CSLAYER1
  6
CONTINUOUS
 62
     4
 10
534.868097
 20
1221.616312
 11
534.868097
 21
1235.276566
  0
LINE
  8
CSLAYER1
  6
CONTINUOUS
 62
     4
 10
543.528351
 20
1221.616312
 11
543.528351
 21
1235.276566
  0
LINE
  8
CSLAYER1
  6
CONTINUOUS
 62
     4
 10
537.188606
 20
1236.616312
 11
534.868097
 21
1235.276566
  0
ARC
  8
CSLAYER1
  6
CONTINUOUS
 62
     4
 10
539.198224
 20
1228.961694
 40
7.656867
 50
55.561448
 51
124.438552
  0
LINE
  8
CSLAYER1
  6
CONTINUOUS
 62
     4
 10
537.188606
 20
1236.616312
 11
537.188606
 21
1237.116312
  0
ARC
  8
CSLAYER1
  6
CONTINUOUS
 62
     4
 10
539.188606
 20
1237.116312
 40
2.000000
 50
90.000000
 51
180.000000
  0
LINE
  8
CSLAYER1
  6
CONTINUOUS
 62
     4
 10
562.188606
 20
1239.116312
 11
562.188606
 21
1257.194178
  0
LINE
  8
CSLAYER1
  6
CONTINUOUS
 62
     4
 10
560.688606
 20
1239.116312
 11
560.688606
 21
1258.694178
  0
LINE
  8
CSLAYER1
  6
CONTINUOUS
 62
     4
 10
570.688606
 20
1218.416312
 11
570.688606
 21
1221.616312
  0
LINE
  8
CSLAYER1
  6
CONTINUOUS
 62
     4
 10
542.188606
 20
1239.116312
 11
542.188606
 21
1257.194178
  0
LINE
  8
CSLAYER1
  6
CONTINUOUS
 62
     4
 10
543.688606
 20
1239.116312
 11
543.688606
 21
1258.694178
  0
LINE
  8
CSLAYER1
  6
CONTINUOUS
 62
     5
 10
567.162116
 20
1249.194178
 11
535.560758
 21
1249.194178
  0
LINE
  8
CSLAYER1
  6
CONTINUOUS
 62
     4
 10
531.688606
 20
1226.666312
 11
531.688606
 21
1166.166312
  0
LINE
  8
CSLAYER1
  6
CONTINUOUS
 62
     4
 10
485.017882
 20
1182.080260
 11
487.534715
 21
1181.648059
  0
LINE
  8
CSLAYER1
  6
CONTINUOUS
 62
     4
 10
487.534715
 20
1181.648059
 11
489.972808
 21
1181.098033
  0
LINE
  8
CSLAYER1
  6
CONTINUOUS
 62
     4
 10
489.972808
 20
1181.098033
 11
492.313606
 21
1180.434367
  0
LINE
  8
CSLAYER1
  6
CONTINUOUS
 62
     4
 10
492.313606
 20
1180.434367
 11
494.539293
 21
1179.662113
  0
LINE
  8
CSLAYER1
  6
CONTINUOUS
 62
     4
 10
494.539293
 20
1179.662113
 11
496.632931
 21
1178.787148
  0
LINE
  8
CSLAYER1
  6
CONTINUOUS
 62
     4
 10
496.632931
 20
1178.787148
 11
498.578586
 21
1177.816130
  0
LINE
  8
CSLAYER1
  6
CONTINUOUS
 62
     4
 10
498.578586
 20
1177.816130
 11
500.361450
 21
1176.756451
  0
LINE
  8
CSLAYER1
  6
CONTINUOUS
 62
     4
 10
500.361450
 20
1176.756451
 11
501.967955
 21
1175.616174
  0
LINE
  8
CSLAYER1
  6
CONTINUOUS
 62
     4
 10
501.967955
 20
1175.616174
 11
503.385874
 21
1174.403977
  0
LINE
  8
CSLAYER1
  6
CONTINUOUS
 62
     4
 10
503.385874
 20
1174.403977
 11
504.604416
 21
1173.129088
  0
LINE
  8
CSLAYER1
  6
CONTINUOUS
 62
     4
 10
504.604416
 20
1173.129088
 11
505.614307
 21
1171.801207
  0
LINE
  8
CSLAYER1
  6
CONTINUOUS
 62
     4
 10
505.614307
 20
1171.801207
 11
506.407862
 21
1170.430441
  0
LINE
  8
CSLAYER1
  6
CONTINUOUS
 62
     4
 10
506.407862
 20
1170.430441
 11
506.979040
 21
1169.027223
  0
LINE
  8
CSLAYER1
  6
CONTINUOUS
 62
     4
 10
506.979040
 20
1169.027223
 11
507.323495
 21
1167.602232
  0
LINE
  8
CSLAYER1
  6
CONTINUOUS
 62
     4
 10
507.323495
 20
1167.602232
 11
507.438606
 21
1166.166312
  0
LINE
  8
CSLAYER1
  6
CONTINUOUS
 62
     4
 10
583.188606
 20
1226.316312
 11
583.188606
 21
1166.516312
  0
ARC
  8
CSLAYER1
  6
CONTINUOUS
 62
     4
 10
584.288606
 20
1226.316312
 40
1.100000
 50
90.000000
 51
180.000000
  0
ARC
  8
CSLAYER1
  6
CONTINUOUS
 62
     4
 10
584.288606
 20
1166.516312
 40
1.100000
 50
180.000000
 51
270.000000
  0
LINE
  8
CSLAYER1
  6
CONTINUOUS
 62
     4
 10
544.188606
 20
1259.194178
 11
560.188606
 21
1259.194178
  0
LINE
  8
CSLAYER1
  6
CONTINUOUS
 62
     4
 10
542.188606
 20
1257.194178
 11
544.188606
 21
1259.194178
  0
LINE
  8
CSLAYER1
  6
CONTINUOUS
 62
     4
 10
542.188606
 20
1257.194178
 11
562.188606
 21
1257.194178
  0
LINE
  8
CSLAYER1
  6
CONTINUOUS
 62
     4
 10
562.188606
 20
1257.194178
 11
560.188606
 21
1259.194178
  0
CIRCLE
  8
CSLAYER1
  6
CONTINUOUS
 62
     4
 10
552.188606
 20
1249.194178
 40
2.500000
  0
LINE
  8
CSLAYER1
  6
CONTINUOUS
 62
     4
 10
370.188606
 20
762.461401
 11
371.188606
 21
762.461401
  0
LINE
  8
CSLAYER1
  6
CONTINUOUS
 62
     4
 10
370.188606
 20
734.461401
 11
371.188606
 21
734.461401
  0
LINE
  8
CSLAYER1
  6
CONTINUOUS
 62
     4
 10
538.188606
 20
801.989079
 11
538.188606
 21
819.367828
  0
LINE
  8
CSLAYER1
  6
CONTINUOUS
 62
     4
 10
539.188606
 20
801.989079
 11
539.188606
 21
820.367828
  0
LINE
  8
CSLAYER1
  6
CONTINUOUS
 62
     4
 10
544.188606
 20
820.367828
 11
541.162065
 21
820.367828
  0
LINE
  8
CSLAYER1
  6
CONTINUOUS
 62
     4
 10
538.188606
 20
819.367828
 11
539.188606
 21
820.367828
  0
LINE
  8
CSLAYER1
  6
CONTINUOUS
 62
     4
 10
561.188606
 20
825.367828
 11
562.188606
 21
826.367828
  0
LINE
  8
CSLAYER1
  6
CONTINUOUS
 62
     4
 10
539.188606
 20
820.367828
 11
544.254864
 21
825.352509
  0
LINE
  8
CSLAYER1
  6
CONTINUOUS
 62
     4
 10
544.188606
 20
825.287318
 11
539.269116
 21
820.367828
  0
LINE
  8
CSLAYER1
  6
CONTINUOUS
 62
     4
 10
544.188606
 20
825.004475
 11
539.551958
 21
820.367828
  0
LINE
  8
CSLAYER1
  6
CONTINUOUS
 62
     4
 10
544.188606
 20
824.721632
 11
539.834801
 21
820.367828
  0
LINE
  8
CSLAYER1
  6
CONTINUOUS
 62
     4
 10
544.188606
 20
824.438790
 11
540.117644
 21
820.367828
  0
LINE
  8
CSLAYER1
  6
CONTINUOUS
 62
     4
 10
544.188606
 20
824.155947
 11
540.400487
 21
820.367828
  0
LINE
  8
CSLAYER1
  6
CONTINUOUS
 62
     4
 10
544.188606
 20
823.873104
 11
540.683329
 21
820.367828
  0
LINE
  8
CSLAYER1
  6
CONTINUOUS
 62
     4
 10
544.188606
 20
823.590262
 11
540.966172
 21
820.367828
  0
LINE
  8
CSLAYER1
  6
CONTINUOUS
 62
     4
 10
544.188606
 20
823.307419
 11
541.249015
 21
820.367828
  0
LINE
  8
CSLAYER1
  6
CONTINUOUS
 62
     4
 10
544.188606
 20
823.024576
 11
541.531857
 21
820.367828
  0
LINE
  8
CSLAYER1
  6
CONTINUOUS
 62
     4
 10
544.188606
 20
822.741733
 11
541.814700
 21
820.367828
  0
LINE
  8
CSLAYER1
  6
CONTINUOUS
 62
     4
 10
544.188606
 20
822.458891
 11
542.097543
 21
820.367828
  0
LINE
  8
CSLAYER1
  6
CONTINUOUS
 62
     4
 10
544.188606
 20
822.176048
 11
542.380386
 21
820.367828
  0
LINE
  8
CSLAYER1
  6
CONTINUOUS
 62
     4
 10
544.188606
 20
821.893205
 11
542.663228
 21
820.367828
  0
LINE
  8
CSLAYER1
  6
CONTINUOUS
 62
     4
 10
544.188606
 20
821.610363
 11
542.946071
 21
820.367828
  0
LINE
  8
CSLAYER1
  6
CONTINUOUS
 62
     4
 10
544.188606
 20
821.327520
 11
543.228914
 21
820.367828
  0
LINE
  8
CSLAYER1
  6
CONTINUOUS
 62
     4
 10
544.188606
 20
821.044677
 11
543.511756
 21
820.367828
  0
LINE
  8
CSLAYER1
  6
CONTINUOUS
 62
     4
 10
544.188606
 20
820.761834
 11
543.794599
 21
820.367828
  0
LINE
  8
CSLAYER1
  6
CONTINUOUS
 62
     4
 10
544.188606
 20
820.478992
 11
544.077442
 21
820.367828
  0
LINE
  8
CSLAYER1
  6
CONTINUOUS
 62
     4
 10
641.162065
 20
785.017828
 11
600.188606
 21
785.017828
  0
LINE
  8
CSLAYER1
  6
CONTINUOUS
 62
     4
 10
561.188606
 20
825.367828
 11
561.188606
 21
791.178588
  0
LINE
  8
CSLAYER1
  6
CONTINUOUS
 62
     4
 10
642.162065
 20
826.717828
 11
642.162065
 21
786.017828
  0
LINE
  8
CSLAYER1
  6
CONTINUOUS
 62
     4
 10
642.162065
 20
786.017828
 11
641.162065
 21
785.017828
  0
LINE
  8
CSLAYER1
  6
CONTINUOUS
 62
     4
 10
682.162065
 20
816.367828
 11
682.162065
 21
796.367828
  0
LINE
  8
CSLAYER1
  6
CONTINUOUS
 62
     4
 10
663.162065
 20
824.867828
 11
663.162065
 21
787.867828
  0
LINE
  8
CSLAYER1
  6
CONTINUOUS
 62
     4
 10
668.262065
 20
823.367828
 11
668.262065
 21
789.367828
  0
LINE
  8
CSLAYER1
  6
CONTINUOUS
 62
     4
 10
680.262065
 20
823.367828
 11
680.262065
 21
789.367828
  0
LINE
  8
CSLAYER1
  6
CONTINUOUS
 62
     4
 10
663.162065
 20
823.367828
 11
680.262065
 21
823.367828
  0
LINE
  8
CSLAYER1
  6
CONTINUOUS
 62
     4
 10
668.262065
 20
816.367828
 11
682.162065
 21
816.367828
  0
LINE
  8
CSLAYER1
  6
CONTINUOUS
 62
     4
 10
663.162065
 20
789.367828
 11
680.262065
 21
789.367828
  0
LINE
  8
CSLAYER1
  6
CONTINUOUS
 62
     4
 10
668.262065
 20
796.367828
 11
682.162065
 21
796.367828
  0
LINE
  8
CSLAYER1
  6
CONTINUOUS
 62
     4
 10
660.162065
 20
824.867828
 11
663.162065
 21
824.867828
  0
LINE
  8
CSLAYER1
  6
CONTINUOUS
 62
     4
 10
660.162065
 20
787.867828
 11
663.162065
 21
787.867828
  0
LINE
  8
CSLAYER1
  6
CONTINUOUS
 62
     4
 10
660.162065
 20
787.867828
 11
660.162065
 21
824.867828
  0
LINE
  8
CSLAYER1
  6
CENTER
 62
     5
 10
695.874986
 20
806.367828
 11
536.368326
 21
806.367828
  0
LINE
  8
CSLAYER1
  6
CONTINUOUS
 62
     4
 10
660.162065
 20
793.867828
 11
659.188606
 21
793.867828
  0
LINE
  8
CSLAYER1
  6
CONTINUOUS
 62
     4
 10
641.162065
 20
827.717828
 11
600.188606
 21
827.717828
  0
LINE
  8
CSLAYER1
  6
CONTINUOUS
 62
     4
 10
642.162065
 20
826.717828
 11
641.162065
 21
827.717828
  0
LINE
  8
CSLAYER1
  6
CONTINUOUS
 62
     4
 10
660.162065
 20
818.867828
 11
659.188606
 21
818.867828
  0
LINE
  8
CSLAYER1
  6
CONTINUOUS
 62
     4
 10
659.162065
 20
780.260904
 11
659.162065
 21
793.867828
  0
LINE
  8
CSLAYER1
  6
CONTINUOUS
 62
     4
 10
605.188606
 20
785.017828
 11
600.188606
 21
780.017828
  0
LINE
  8
CSLAYER1
  6
CONTINUOUS
 62
     4
 10
600.188606
 20
780.300671
 11
604.905763
 21
785.017828
  0
LINE
  8
CSLAYER1
  6
CONTINUOUS
 62
     4
 10
600.188606
 20
780.583513
 11
604.622920
 21
785.017828
  0
LINE
  8
CSLAYER1
  6
CONTINUOUS
 62
     4
 10
600.188606
 20
780.866356
 11
604.340077
 21
785.017828
  0
LINE
  8
CSLAYER1
  6
CONTINUOUS
 62
     4
 10
600.188606
 20
781.149199
 11
604.057235
 21
785.017828
  0
LINE
  8
CSLAYER1
  6
CONTINUOUS
 62
     4
 10
600.188606
 20
781.432042
 11
603.774392
 21
785.017828
  0
LINE
  8
CSLAYER1
  6
CONTINUOUS
 62
     4
 10
600.188606
 20
781.714884
 11
603.491549
 21
785.017828
  0
LINE
  8
CSLAYER1
  6
CONTINUOUS
 62
     4
 10
600.188606
 20
781.997727
 11
603.208707
 21
785.017828
  0
LINE
  8
CSLAYER1
  6
CONTINUOUS
 62
     4
 10
600.188606
 20
782.280570
 11
602.925864
 21
785.017828
  0
LINE
  8
CSLAYER1
  6
CONTINUOUS
 62
     4
 10
600.188606
 20
782.563412
 11
602.643021
 21
785.017828
  0
LINE
  8
CSLAYER1
  6
CONTINUOUS
 62
     4
 10
600.188606
 20
782.846255
 11
602.360178
 21
785.017828
  0
LINE
  8
CSLAYER1
  6
CONTINUOUS
 62
     4
 10
600.188606
 20
783.129098
 11
602.077336
 21
785.017828
  0
LINE
  8
CSLAYER1
  6
CONTINUOUS
 62
     4
 10
600.188606
 20
783.411941
 11
601.794493
 21
785.017828
  0
LINE
  8
CSLAYER1
  6
CONTINUOUS
 62
     4
 10
600.188606
 20
783.694783
 11
601.511650
 21
785.017828
  0
LINE
  8
CSLAYER1
  6
CONTINUOUS
 62
     4
 10
600.188606
 20
783.977626
 11
601.228808
 21
785.017828
  0
LINE
  8
CSLAYER1
  6
CONTINUOUS
 62
     4
 10
600.188606
 20
784.260469
 11
600.945965
 21
785.017828
  0
LINE
  8
CSLAYER1
  6
CONTINUOUS
 62
     4
 10
600.188606
 20
784.543311
 11
600.663122
 21
785.017828
  0
LINE
  8
CSLAYER1
  6
CONTINUOUS
 62
     4
 10
600.188606
 20
784.826154
 11
600.380279
 21
785.017828
  0
LINE
  8
CSLAYER1
  6
CONTINUOUS
 62
     4
 10
584.188606
 20
831.084985
 11
579.471448
 21
826.367828
  0
LINE
  8
CSLAYER1
  6
CONTINUOUS
 62
     4
 10
584.188606
 20
830.802143
 11
579.754291
 21
826.367828
  0
LINE
  8
CSLAYER1
  6
CONTINUOUS
 62
     4
 10
584.188606
 20
830.519300
 11
580.037134
 21
826.367828
  0
LINE
  8
CSLAYER1
  6
CONTINUOUS
 62
     4
 10
584.188606
 20
830.236457
 11
580.319976
 21
826.367828
  0
LINE
  8
CSLAYER1
  6
CONTINUOUS
 62
     4
 10
584.188606
 20
829.953614
 11
580.602819
 21
826.367828
  0
LINE
  8
CSLAYER1
  6
CONTINUOUS
 62
     4
 10
584.188606
 20
829.670772
 11
580.885662
 21
826.367828
  0
LINE
  8
CSLAYER1
  6
CONTINUOUS
 62
     4
 10
584.188606
 20
829.387929
 11
581.168504
 21
826.367828
  0
LINE
  8
CSLAYER1
  6
CONTINUOUS
 62
     4
 10
584.188606
 20
829.105086
 11
581.451347
 21
826.367828
  0
LINE
  8
CSLAYER1
  6
CONTINUOUS
 62
     4
 10
584.188606
 20
828.822244
 11
581.734190
 21
826.367828
  0
LINE
  8
CSLAYER1
  6
CONTINUOUS
 62
     4
 10
584.188606
 20
828.539401
 11
582.017033
 21
826.367828
  0
LINE
  8
CSLAYER1
  6
CONTINUOUS
 62
     4
 10
584.188606
 20
828.256558
 11
582.299875
 21
826.367828
  0
LINE
  8
CSLAYER1
  6
CONTINUOUS
 62
     4
 10
584.188606
 20
827.973715
 11
582.582718
 21
826.367828
  0
LINE
  8
CSLAYER1
  6
CONTINUOUS
 62
     4
 10
584.188606
 20
827.690873
 11
582.865561
 21
826.367828
  0
LINE
  8
CSLAYER1
  6
CONTINUOUS
 62
     4
 10
584.188606
 20
827.408030
 11
583.148403
 21
826.367828
  0
LINE
  8
CSLAYER1
  6
CONTINUOUS
 62
     4
 10
584.188606
 20
827.125187
 11
583.431246
 21
826.367828
  0
LINE
  8
CSLAYER1
  6
CONTINUOUS
 62
     4
 10
584.188606
 20
826.842345
 11
583.714089
 21
826.367828
  0
LINE
  8
CSLAYER1
  6
CONTINUOUS
 62
     4
 10
584.188606
 20
826.559502
 11
583.996932
 21
826.367828
  0
LINE
  8
CSLAYER1
  6
CONTINUOUS
 62
     4
 10
605.188606
 20
827.717828
 11
600.188606
 21
832.717828
  0
LINE
  8
CSLAYER1
  6
CONTINUOUS
 62
     4
 10
600.188606
 20
832.434985
 11
604.905763
 21
827.717828
  0
LINE
  8
CSLAYER1
  6
CONTINUOUS
 62
     4
 10
600.188606
 20
832.152143
 11
604.622920
 21
827.717828
  0
LINE
  8
CSLAYER1
  6
CONTINUOUS
 62
     4
 10
600.188606
 20
831.869300
 11
604.340077
 21
827.717828
  0
LINE
  8
CSLAYER1
  6
CONTINUOUS
 62
     4
 10
600.188606
 20
831.586457
 11
604.057235
 21
827.717828
  0
LINE
  8
CSLAYER1
  6
CONTINUOUS
 62
     4
 10
600.188606
 20
831.303614
 11
603.774392
 21
827.717828
  0
LINE
  8
CSLAYER1
  6
CONTINUOUS
 62
     4
 10
600.188606
 20
831.020772
 11
603.491549
 21
827.717828
  0
LINE
  8
CSLAYER1
  6
CONTINUOUS
 62
     4
 10
600.188606
 20
830.737929
 11
603.208707
 21
827.717828
  0
LINE
  8
CSLAYER1
  6
CONTINUOUS
 62
     4
 10
600.188606
 20
830.455086
 11
602.925864
 21
827.717828
  0
LINE
  8
CSLAYER1
  6
CONTINUOUS
 62
     4
 10
600.188606
 20
830.172244
 11
602.643021
 21
827.717828
  0
LINE
  8
CSLAYER1
  6
CONTINUOUS
 62
     4
 10
600.188606
 20
829.889401
 11
602.360178
 21
827.717828
  0
LINE
  8
CSLAYER1
  6
CONTINUOUS
 62
     4
 10
600.188606
 20
829.606558
 11
602.077336
 21
827.717828
  0
LINE
  8
CSLAYER1
  6
CONTINUOUS
 62
     4
 10
600.188606
 20
829.323715
 11
601.794493
 21
827.717828
  0
LINE
  8
CSLAYER1
  6
CONTINUOUS
 62
     4
 10
600.188606
 20
829.040873
 11
601.511650
 21
827.717828
  0
LINE
  8
CSLAYER1
  6
CONTINUOUS
 62
     4
 10
600.188606
 20
828.758030
 11
601.228808
 21
827.717828
  0
LINE
  8
CSLAYER1
  6
CONTINUOUS
 62
     4
 10
600.188606
 20
828.475187
 11
600.945965
 21
827.717828
  0
LINE
  8
CSLAYER1
  6
CONTINUOUS
 62
     4
 10
600.188606
 20
828.192345
 11
600.663122
 21
827.717828
  0
LINE
  8
CSLAYER1
  6
CONTINUOUS
 62
     4
 10
600.188606
 20
827.909502
 11
600.380279
 21
827.717828
  0
LINE
  8
CSLAYER1
  6
CONTINUOUS
 62
     4
 10
583.148403
 20
826.367828
 11
584.188606
 21
826.367828
  0
LINE
  8
CSLAYER1
  6
CONTINUOUS
 62
     4
 10
581.996932
 20
826.367828
 11
562.188606
 21
826.367828
  0
LINE
  8
CSLAYER1
  6
CONTINUOUS
 62
     4
 10
561.188606
 20
821.367828
 11
560.188606
 21
821.367828
  0
LINE
  8
CSLAYER1
  6
CONTINUOUS
 62
     4
 10
643.188606
 20
821.367828
 11
642.162065
 21
821.367828
  0
LINE
  8
CSLAYER1
  6
CONTINUOUS
 62
     4
 10
643.188606
 20
791.367828
 11
642.162065
 21
791.367828
  0
LINE
  8
CSLAYER1
  6
CONTINUOUS
 62
     4
 10
584.188606
 20
781.650671
 11
579.471448
 21
786.367828
  0
LINE
  8
CSLAYER1
  6
CONTINUOUS
 62
     4
 10
584.188606
 20
781.933513
 11
579.754291
 21
786.367828
  0
LINE
  8
CSLAYER1
  6
CONTINUOUS
 62
     4
 10
584.188606
 20
782.216356
 11
580.037134
 21
786.367828
  0
LINE
  8
CSLAYER1
  6
CONTINUOUS
 62
     4
 10
584.188606
 20
782.499199
 11
580.319976
 21
786.367828
  0
LINE
  8
CSLAYER1
  6
CONTINUOUS
 62
     4
 10
584.188606
 20
782.782042
 11
580.602819
 21
786.367828
  0
LINE
  8
CSLAYER1
  6
CONTINUOUS
 62
     4
 10
584.188606
 20
783.064884
 11
580.885662
 21
786.367828
  0
LINE
  8
CSLAYER1
  6
CONTINUOUS
 62
     4
 10
584.188606
 20
783.347727
 11
581.168504
 21
786.367828
  0
LINE
  8
CSLAYER1
  6
CONTINUOUS
 62
     4
 10
584.188606
 20
783.630570
 11
581.451347
 21
786.367828
  0
LINE
  8
CSLAYER1
  6
CONTINUOUS
 62
     4
 10
584.188606
 20
783.913412
 11
581.734190
 21
786.367828
  0
LINE
  8
CSLAYER1
  6
CONTINUOUS
 62
     4
 10
584.188606
 20
784.196255
 11
582.017033
 21
786.367828
  0
LINE
  8
CSLAYER1
  6
CONTINUOUS
 62
     4
 10
584.188606
 20
784.479098
 11
582.299875
 21
786.367828
  0
LINE
  8
CSLAYER1
  6
CONTINUOUS
 62
     4
 10
584.188606
 20
784.761941
 11
582.582718
 21
786.367828
  0
LINE
  8
CSLAYER1
  6
CONTINUOUS
 62
     4
 10
584.188606
 20
785.044783
 11
582.865561
 21
786.367828
  0
LINE
  8
CSLAYER1
  6
CONTINUOUS
 62
     4
 10
584.188606
 20
785.327626
 11
583.148403
 21
786.367828
  0
LINE
  8
CSLAYER1
  6
CONTINUOUS
 62
     4
 10
584.188606
 20
785.610469
 11
583.431246
 21
786.367828
  0
LINE
  8
CSLAYER1
  6
CONTINUOUS
 62
     4
 10
584.188606
 20
785.893311
 11
583.714089
 21
786.367828
  0
LINE
  8
CSLAYER1
  6
CONTINUOUS
 62
     4
 10
584.188606
 20
786.176154
 11
583.996932
 21
786.367828
  0
LINE
  8
CSLAYER1
  6
CONTINUOUS
 62
     4
 10
583.148403
 20
786.367828
 11
584.188606
 21
786.367828
  0
LINE
  8
CSLAYER1
  6
CONTINUOUS
 62
     4
 10
581.996932
 20
786.367828
 11
569.198758
 21
786.367828
  0
LINE
  8
CSLAYER1
  6
PHANTOM
 62
     5
 10
1016.535375
 20
489.632214
 11
1016.535375
 21
436.632214
  0
DIMENSION
  8
CSLAYER1
 62
     7
  2
*D0000
 10
2316.956621
 20
489.632214
 11
2375.343994
 21
407.460266
 13
2216.535375
 23
334.632214
 14
2216.535375
 24
489.632214
 50
90.000000
 70
1
  0
DIMENSION
  8
CSLAYER1
 62
     7
  2
*D0001
 10
2316.956621
 20
1375.303443
 11
2306.956787
 21
932.467773
 13
2197.377867
 23
489.632214
 14
2197.377867
 24
1375.303443
 50
90.000000
 70
1
  0
DIMENSION
  8
CSLAYER1
 62
     7
  2
*D0002
 10
2416.535375
 20
334.632214
 11
2406.535645
 21
854.967773
 13
2416.535375
 23
1375.303443
 14
2416.535375
 24
334.632214
 50
90.000000
 70
1
  0
DIMENSION
  8
CSLAYER1
 62
     7
  2
*D0003
 10
2216.535375
 20
1469.861567
 11
1616.535278
 21
1479.861328
 13
1016.535375
 23
1372.303443
 14
2216.535375
 24
1372.303443
 70
1
  0
DIMENSION
  8
CSLAYER1
 62
     7
  2
*D0004
 10
2216.535375
 20
236.319780
 11
1616.535278
 21
246.319870
 13
1016.535375
 23
334.632214
 14
2216.535375
 24
334.632214
 52
270.000000
 70
1
  0
DIMENSION
  8
CSLAYER1
 62
     7
  2
*D0005
 10
727.188606
 20
236.319780
 11
477.188629
 21
246.319870
 13
227.188606
 23
334.632214
 14
727.188606
 24
334.632214
 52
270.000000
 70
1
  0
LINE
  8
CSLAYER1
  6
CONTINUOUS
 62
     3
 10
173.086345
 20
334.632214
 11
2555.952103
 21
334.632214
  0
TEXT
  8
CSLAYER1
 62
     5
 10
2470.129639
 20
339.082279
 40
40.124626
 41
0.804686
  1
F.L
 50
0.000000
 51
0.000000
  7
EASYDRAW_FONT
 72
     5
 11
2556.230241
 21
339.082279
  0
LINE
  8
CSLAYER1
  6
CONTINUOUS
 62
     5
 10
1371.117264
 20
806.367828
 11
1432.117691
 21
806.367828
  0
LINE
  8
CSLAYER1
  6
CONTINUOUS
 62
     5
 10
1398.844401
 20
840.296679
 11
1398.844401
 21
775.245442
  0
LINE
  8
CSLAYER1
  6
CONTINUOUS
 62
     5
 10
1285.280121
 20
773.912730
 11
1285.280121
 21
722.831878
  0
LINE
  8
CSLAYER1
  6
CONTINUOUS
 62
     5
 10
1258.279773
 20
748.461401
 11
1312.938272
 21
748.461401
  0
LINE
  8
CSLAYER1
  6
CONTINUOUS
 62
     4
 10
602.688606
 20
1208.916312
 11
601.538606
 21
1208.916312
  0
LINE
  8
CSLAYER1
  6
CONTINUOUS
 62
     4
 10
601.538606
 20
1208.366312
 11
600.188606
 21
1208.366312
  0
LINE
  8
CSLAYER1
  6
CONTINUOUS
 62
     4
 10
601.538606
 20
1211.466312
 11
600.188606
 21
1211.466312
  0
LINE
  8
CSLAYER1
  6
CONTINUOUS
 62
     4
 10
601.538606
 20
1211.466312
 11
601.538606
 21
1181.366312
  0
LINE
  8
CSLAYER1
  6
CONTINUOUS
 62
     4
 10
604.188606
 20
1207.416312
 11
604.188606
 21
1185.416312
  0
LINE
  8
CSLAYER1
  6
CONTINUOUS
 62
     4
 10
604.188606
 20
1207.416312
 11
602.688606
 21
1208.916312
  0
LINE
  8
CSLAYER1
  6
CONTINUOUS
 62
     4
 10
602.688606
 20
1208.916312
 11
602.688606
 21
1183.916312
  0
LINE
  8
CSLAYER1
  6
CONTINUOUS
 62
     4
 10
602.688606
 20
1183.916312
 11
601.538606
 21
1183.916312
  0
LINE
  8
CSLAYER1
  6
CONTINUOUS
 62
     4
 10
601.538606
 20
1184.466312
 11
600.188606
 21
1184.466312
  0
LINE
  8
CSLAYER1
  6
CONTINUOUS
 62
     4
 10
601.538606
 20
1181.366312
 11
600.188606
 21
1181.366312
  0
LINE
  8
CSLAYER1
  6
CONTINUOUS
 62
     4
 10
604.188606
 20
1185.416312
 11
602.688606
 21
1183.916312
  0
LINE
  8
CSLAYER1
  6
CONTINUOUS
 62
     4
 10
351.688606
 20
1208.916312
 11
352.838606
 21
1208.916312
  0
LINE
  8
CSLAYER1
  6
CONTINUOUS
 62
     4
 10
352.838606
 20
1208.366312
 11
354.188606
 21
1208.366312
  0
LINE
  8
CSLAYER1
  6
CONTINUOUS
 62
     4
 10
352.838606
 20
1211.466312
 11
354.188606
 21
1211.466312
  0
LINE
  8
CSLAYER1
  6
CONTINUOUS
 62
     4
 10
352.838606
 20
1211.466312
 11
352.838606
 21
1181.366312
  0
LINE
  8
CSLAYER1
  6
CONTINUOUS
 62
     4
 10
350.188606
 20
1207.416312
 11
350.188606
 21
1185.416312
  0
LINE
  8
CSLAYER1
  6
CONTINUOUS
 62
     4
 10
350.188606
 20
1207.416312
 11
351.688606
 21
1208.916312
  0
LINE
  8
CSLAYER1
  6
CONTINUOUS
 62
     4
 10
351.688606
 20
1208.916312
 11
351.688606
 21
1183.916312
  0
LINE
  8
CSLAYER1
  6
CONTINUOUS
 62
     4
 10
351.688606
 20
1183.916312
 11
352.838606
 21
1183.916312
  0
LINE
  8
CSLAYER1
  6
CONTINUOUS
 62
     4
 10
352.838606
 20
1184.466312
 11
354.188606
 21
1184.466312
  0
LINE
  8
CSLAYER1
  6
CONTINUOUS
 62
     4
 10
352.838606
 20
1181.366312
 11
354.188606
 21
1181.366312
  0
LINE
  8
CSLAYER1
  6
CONTINUOUS
 62
     4
 10
350.188606
 20
1185.416312
 11
351.688606
 21
1183.916312
  0
LINE
  8
CSLAYER1
  6
CONTINUOUS
 62
     4
 10
1149.518418
 20
1232.580867
 11
1745.059213
 21
454.293541
  0
LINE
  8
CSLAYER1
  6
CONTINUOUS
 62
     4
 10
1149.518418
 20
1232.580867
 11
1078.535375
 21
1262.252545
  0
LINE
  8
CSLAYER1
  6
CONTINUOUS
 62
     4
 10
1745.059213
 20
454.293541
 11
1752.286044
 21
399.632214
  0
TEXT
  8
CSLAYER2
 62
     3
 10
2969.957039
 20
1883.459127
 40
40.809284
 41
0.732273
  1
GLI-500-0612
 50
0.000000
 51
0.000000
  7
EASYDRAW_FONT
 72
     5
 11
3318.598137
 21
1883.459127
  0
LINE
  8
CSLAYER1
  6
CONTINUOUS
 62
     3
 10
387.188606
 20
433.132214
 11
387.188606
 21
399.632214
  0
LINE
  8
CSLAYER1
  6
CONTINUOUS
 62
     3
 10
385.188606
 20
433.132214
 11
385.188606
 21
439.132214
  0
LINE
  8
CSLAYER1
  6
CONTINUOUS
 62
     3
 10
385.188606
 20
439.132214
 11
560.338671
 21
439.132214
  0
LINE
  8
CSLAYER1
  6
CONTINUOUS
 62
     3
 10
385.188606
 20
433.132214
 11
387.188606
 21
433.132214
  0
INSERT
  8
CSLAYER1
  2
BLKF0003
 10
0.0
 20
0.0
 30
0.0
  0
LINE
  8
CSLAYER1
  6
CONTINUOUS
 62
     5
 10
387.188606
 20
433.132214
 11
559.607295
 21
433.132214
  0
LINE
  8
CSLAYER1
  6
CONTINUOUS
 62
     3
 10
2195.735375
 20
433.132214
 11
2195.735375
 21
399.632214
  0
LINE
  8
CSLAYER1
  6
CONTINUOUS
 62
     3
 10
2056.335375
 20
433.132214
 11
2056.335375
 21
399.632214
  0
LINE
  8
CSLAYER1
  6
CONTINUOUS
 62
     5
 10
2126.035375
 20
449.228338
 11
2126.035375
 21
424.808097
  0
LINE
  8
CSLAYER1
  6
CONTINUOUS
 62
     3
 10
2197.535375
 20
439.132214
 11
2054.535375
 21
439.132214
  0
LINE
  8
CSLAYER1
  6
CONTINUOUS
 62
     3
 10
2197.535375
 20
433.132214
 11
2195.735375
 21
433.132214
  0
LINE
  8
CSLAYER1
  6
CONTINUOUS
 62
     3
 10
2197.535375
 20
439.132214
 11
2197.535375
 21
433.132214
  0
LINE
  8
CSLAYER1
  6
CONTINUOUS
 62
     3
 10
2054.535375
 20
439.132214
 11
2054.535375
 21
433.132214
  0
LINE
  8
CSLAYER1
  6
CONTINUOUS
 62
     5
 10
2225.735375
 20
423.432214
 11
2225.735375
 21
406.432214
  0
LINE
  8
CSLAYER1
  6
CONTINUOUS
 62
     5
 10
2221.765808
 20
427.922595
 11
2207.137938
 21
427.922595
  0
LINE
  8
CSLAYER1
  6
CONTINUOUS
 62
     5
 10
2222.626280
 20
426.432214
 11
2222.626280
 21
403.432214
  0
LINE
  8
CSLAYER1
  6
CONTINUOUS
 62
     5
 10
2206.277466
 20
426.432214
 11
2206.277466
 21
403.432214
  0
LINE
  8
CSLAYER1
  6
CONTINUOUS
 62
     5
 10
2222.626280
 20
426.432214
 11
2221.765808
 21
427.922595
  0
LINE
  8
CSLAYER1
  6
CONTINUOUS
 62
     5
 10
2206.277466
 20
426.432214
 11
2207.137938
 21
427.922595
  0
LINE
  8
CSLAYER1
  6
CONTINUOUS
 62
     5
 10
2221.765808
 20
421.571742
 11
2207.137938
 21
421.571742
  0
ARC
  8
CSLAYER1
  6
CONTINUOUS
 62
     5
 10
2196.580255
 20
414.932214
 40
26.046025
 50
-14.768561
 51
14.768561
  0
ARC
  8
CSLAYER1
  6
CONTINUOUS
 62
     5
 10
2216.494687
 20
424.747168
 40
6.153702
 50
-31.065581
 51
23.174644
  0
ARC
  8
CSLAYER1
  6
CONTINUOUS
 62
     5
 10
2212.409059
 20
424.747168
 40
6.153702
 50
156.825356
 51
211.065581
  0
ARC
  8
CSLAYER1
  6
CONTINUOUS
 62
     5
 10
2232.323491
 20
414.932214
 40
26.046025
 50
165.231439
 51
194.768561
  0
LINE
  8
CSLAYER1
  6
CONTINUOUS
 62
     5
 10
2222.735375
 20
426.432214
 11
2222.626280
 21
426.432214
  0
ARC
  8
CSLAYER1
  6
CONTINUOUS
 62
     5
 10
2222.735375
 20
423.432214
 40
3.000000
 50
0.000000
 51
90.000000
  0
LINE
  8
CSLAYER1
  6
CONTINUOUS
 62
     5
 10
2202.735375
 20
426.432214
 11
2202.735375
 21
403.432214
  0
LINE
  8
CSLAYER1
  6
CONTINUOUS
 62
     5
 10
2202.735375
 20
426.432214
 11
2201.874903
 21
427.922595
  0
ARC
  8
CSLAYER1
  6
CONTINUOUS
 62
     5
 10
2176.689350
 20
414.932214
 40
26.046025
 50
-14.768561
 51
14.768561
  0
ARC
  8
CSLAYER1
  6
CONTINUOUS
 62
     5
 10
2196.603781
 20
424.747168
 40
6.153702
 50
-31.065581
 51
23.174644
  0
LINE
  8
CSLAYER1
  6
CONTINUOUS
 62
     5
 10
2201.874903
 20
421.571742
 11
2195.735375
 21
421.571742
  0
LINE
  8
CSLAYER1
  6
CONTINUOUS
 62
     5
 10
2201.874903
 20
427.922595
 11
2195.735375
 21
427.922595
  0
LINE
  8
CSLAYER1
  6
CONTINUOUS
 62
     5
 10
2206.277466
 20
425.268338
 11
2202.735375
 21
425.268338
  0
LINE
  8
CSLAYER1
  6
CONTINUOUS
 62
     5
 10
2206.277466
 20
424.621960
 11
2204.671104
 21
424.621960
  0
LINE
  8
CSLAYER1
  6
CONTINUOUS
 62
     5
 10
2204.671104
 20
425.268338
 11
2204.671104
 21
404.596089
  0
LINE
  8
CSLAYER1
  6
CONTINUOUS
 62
     5
 10
2204.671104
 20
424.621960
 11
2203.536252
 21
425.268338
  0
LINE
  8
CSLAYER1
  6
CONTINUOUS
 62
     5
 10
2221.765808
 20
401.941832
 11
2207.137938
 21
401.941832
  0
LINE
  8
CSLAYER1
  6
CONTINUOUS
 62
     5
 10
2222.626280
 20
403.432214
 11
2221.765808
 21
401.941832
  0
LINE
  8
CSLAYER1
  6
CONTINUOUS
 62
     5
 10
2206.277466
 20
403.432214
 11
2207.137938
 21
401.941832
  0
LINE
  8
CSLAYER1
  6
CONTINUOUS
 62
     5
 10
2221.765808
 20
408.292685
 11
2207.137938
 21
408.292685
  0
ARC
  8
CSLAYER1
  6
CONTINUOUS
 62
     5
 10
2216.494687
 20
405.117259
 40
6.153702
 50
-23.174644
 51
31.065581
  0
ARC
  8
CSLAYER1
  6
CONTINUOUS
 62
     5
 10
2212.409059
 20
405.117259
 40
6.153702
 50
148.934419
 51
203.174644
  0
LINE
  8
CSLAYER1
  6
CONTINUOUS
 62
     5
 10
2222.735375
 20
403.432214
 11
2222.626280
 21
403.432214
  0
ARC
  8
CSLAYER1
  6
CONTINUOUS
 62
     5
 10
2222.735375
 20
406.432214
 40
3.000000
 50
270.000000
 51
360.000000
  0
LINE
  8
CSLAYER1
  6
CONTINUOUS
 62
     5
 10
2202.735375
 20
403.432214
 11
2201.874903
 21
401.941832
  0
ARC
  8
CSLAYER1
  6
CONTINUOUS
 62
     5
 10
2196.603781
 20
405.117259
 40
6.153702
 50
-23.174644
 51
31.065581
  0
LINE
  8
CSLAYER1
  6
CONTINUOUS
 62
     5
 10
2201.874903
 20
408.292685
 11
2195.735375
 21
408.292685
  0
LINE
  8
CSLAYER1
  6
CONTINUOUS
 62
     5
 10
2201.874903
 20
401.941832
 11
2195.735375
 21
401.941832
  0
LINE
  8
CSLAYER1
  6
CONTINUOUS
 62
     5
 10
2206.277466
 20
404.596089
 11
2202.735375
 21
404.596089
  0
LINE
  8
CSLAYER1
  6
CONTINUOUS
 62
     5
 10
2206.277466
 20
405.242467
 11
2204.671104
 21
405.242467
  0
LINE
  8
CSLAYER1
  6
CONTINUOUS
 62
     5
 10
2204.671104
 20
405.242467
 11
2203.536252
 21
404.596089
  0
LINE
  8
CSLAYER1
  6
CENTER
 62
     5
 10
2259.491396
 20
414.932214
 11
2195.735375
 21
414.932214
  0
LINE
  8
CSLAYER1
  6
CONTINUOUS
 62
     5
 10
2259.303355
 20
418.732214
 11
2225.735375
 21
418.732214
  0
LINE
  8
CSLAYER1
  6
CONTINUOUS
 62
     5
 10
2260.619643
 20
411.132214
 11
2225.735375
 21
411.132214
  0
INSERT
  8
CSLAYER1
  2
BLKF0004
 10
0.0
 20
0.0
 30
0.0
  0
LINE
  8
CSLAYER1
  6
CONTINUOUS
 62
     3
 10
2056.335375
 20
433.132214
 11
2054.535375
 21
433.132214
  0
LINE
  8
CSLAYER1
  6
CONTINUOUS
 62
     5
 10
2195.735375
 20
433.132214
 11
2056.335375
 21
433.132214
  0
LINE
  8
CSLAYER1
  6
CENTER
 62
     5
 10
982.585972
 20
1912.273526
 11
2243.597728
 21
1912.273526
  0
LINE
  8
CSLAYER1
  6
CONTINUOUS
 62
     5
 10
1035.875825
 20
920.123634
 11
790.137522
 21
920.123634
  0
TEXT
  8
CSLAYER1
 62
     5
 10
789.152588
 20
926.294922
 40
40.000000
 41
0.782609
  1
ギヤードモーター
 50
0.000000
 51
0.000000
  7
EASYDRAW_FONT
 72
     5
 11
1029.152588
 21
926.294922
  0
TEXT
  8
CSLAYER1
 62
     5
 10
749.790405
 20
711.144531
 40
40.000000
 41
0.769737
  1
上限・下限リミットスイッチ
 50
0.000000
 51
0.000000
  7
EASYDRAW_FONT
 72
     5
 11
1139.790405
 21
711.144531
  0
LINE
  8
CSLAYER1
  6
CONTINUOUS
 62
     5
 10
571.026280
 20
471.155966
 11
743.398101
 21
705.334659
  0
LINE
  8
CSLAYER1
  6
CONTINUOUS
 62
     5
 10
571.026280
 20
471.155966
 11
581.950963
 21
499.096104
  0
LINE
  8
CSLAYER1
  6
CONTINUOUS
 62
     5
 10
571.026280
 20
471.155966
 11
594.457402
 21
489.890494
  0
LINE
  8
CSLAYER1
  6
CONTINUOUS
 62
     5
 10
743.398101
 20
705.334659
 11
1136.989951
 21
705.334659
  0
LINE
  8
CSLAYER1
  6
CONTINUOUS
 62
     3
 10
2300.084376
 20
1908.573526
 11
2510.622120
 21
1908.573526
  0
LINE
  8
CSLAYER1
  6
CONTINUOUS
 62
     3
 10
2299.551739
 20
1915.573526
 11
2510.622120
 21
1915.573526
  0
ARC
  8
CSLAYER1
  6
CONTINUOUS
 62
     3
 10
2306.389136
 20
1869.073526
 40
40.000000
 50
-260.931278
 51
63.817766
  0
ARC
  8
CSLAYER1
  6
CONTINUOUS
 62
     3
 10
2306.389136
 20
1869.073526
 40
47.000000
 50
-261.635125
 51
49.860785
  0
LINE
  8
CSLAYER1
  6
CONTINUOUS
 62
     3
 10
2216.537079
 20
1908.573526
 11
2273.716592
 21
1908.573526
  0
LINE
  8
CSLAYER1
  6
CONTINUOUS
 62
     3
 10
2216.537079
 20
1915.573526
 11
2287.104411
 21
1915.573526
  0
LINE
  8
CSLAYER1
  6
CONTINUOUS
 62
     3
 10
2216.537079
 20
1950.773526
 11
2331.982047
 21
1950.773526
  0
LINE
  8
CSLAYER1
  6
CONTINUOUS
 62
     3
 10
2216.537079
 20
1943.773526
 11
2341.863837
 21
1943.773526
  0
LINE
  8
CSLAYER1
  6
CONTINUOUS
 62
     3
 10
2578.482364
 20
2097.385766
 11
2583.552992
 21
2099.295483
  0
LINE
  8
CSLAYER1
  6
CONTINUOUS
 62
     3
 10
2583.552992
 20
2099.295483
 11
2589.977624
 21
2099.473945
  0
LINE
  8
CSLAYER1
  6
CONTINUOUS
 62
     3
 10
2577.428034
 20
2098.774867
 11
2583.077093
 21
2101.139590
  0
LINE
  8
CSLAYER1
  6
CONTINUOUS
 62
     3
 10
2583.077093
 20
2101.139590
 11
2588.430953
 21
2102.448311
  0
LINE
  8
CSLAYER1
  6
CONTINUOUS
 62
     3
 10
2576.585839
 20
2099.884477
 11
2581.470935
 21
2102.745748
  0
LINE
  8
CSLAYER1
  6
CONTINUOUS
 62
     3
 10
2581.470935
 20
2102.745748
 11
2583.790941
 21
2106.077038
  0
ARC
  8
CSLAYER1
  6
CONTINUOUS
 62
     3
 10
2363.516987
 20
1990.773526
 40
47.000000
 50
-10.756396
 51
307.198537
  0
ARC
  8
CSLAYER1
  6
CONTINUOUS
 62
     3
 10
2363.516987
 20
1990.773526
 40
40.000000
 50
-23.471057
 51
307.198537
  0
LINE
  8
CSLAYER1
  6
CONTINUOUS
 62
     3
 10
2579.666117
 20
2095.826145
 11
2391.932190
 21
1953.335894
  0
LINE
  8
CSLAYER1
  6
CONTINUOUS
 62
     3
 10
2575.434066
 20
2101.401963
 11
2387.700138
 21
1958.911712
  0
LINE
  8
CSLAYER1
  6
CONTINUOUS
 62
     3
 10
2579.666117
 20
2095.826145
 11
2575.434066
 21
2101.401963
  0
TEXT
  8
CSLAYER1
 62
     5
 10
2694.534668
 20
2316.205322
 40
40.000000
 41
1.028571
  1
電源コード
 50
360.000000
 51
0.000000
  7
EASYDRAW_FONT
 72
     5
 11
2886.534668
 21
2316.205322
  0
LINE
  8
CSLAYER1
  6
CONTINUOUS
 62
     5
 10
2680.370991
 20
2308.863947
 11
2894.310217
 21
2308.863947
  0
TEXT
  8
CSLAYER1
 62
     5
 10
2706.888184
 20
2262.678955
 40
40.000000
 41
1.036364
  1
長サ４ｍ
 50
360.000000
 51
0.000000
  7
EASYDRAW_FONT
 72
     5
 11
2858.888184
 21
2262.678955
  0
TEXT
  8
CSLAYER1
 62
     5
 10
2712.379639
 20
2192.989014
 40
40.000000
 41
1.020000
  1
フットスイッチ
 50
360.000000
 51
0.000000
  7
EASYDRAW_FONT
 72
     5
 11
2984.379639
 21
2192.989014
  0
LINE
  8
CSLAYER1
  6
CONTINUOUS
 62
     5
 10
2697.274502
 20
2186.148951
 11
2996.972267
 21
2186.148951
  0
TEXT
  8
CSLAYER1
 62
     5
 10
2718.723877
 20
2124.737061
 40
40.000000
 41
1.020000
  1
ＵＰ・ＤＯＷＮ
 50
360.000000
 51
0.000000
  7
EASYDRAW_FONT
 72
     5
 11
2990.723877
 21
2124.737061
  0
LINE
  8
CSLAYER1
  6
CONTINUOUS
 62
     5
 10
1217.330933
 20
747.912560
 11
1035.875825
 21
920.123634
  0
LINE
  8
CSLAYER1
  6
CONTINUOUS
 62
     5
 10
1217.330933
 20
747.912560
 11
1190.967109
 21
762.228592
  0
LINE
  8
CSLAYER1
  6
CONTINUOUS
 62
     5
 10
1217.330933
 20
747.912560
 11
1201.657208
 21
773.492519
  0
POINT
  8
CSLAYER1
 62
     5
 10
583.188606
 20
748.461401
  0
POINT
  8
CSLAYER1
 62
     5
 10
371.188606
 20
748.461401
  0
LINE
  8
CSLAYER1
  6
CONTINUOUS
 62
     7
 10
541.802532
 20
801.989079
 11
412.574679
 21
801.989079
  0
LINE
  8
CSLAYER1
  6
CONTINUOUS
 62
     7
 10
541.802532
 20
770.006578
 11
412.574679
 21
770.006578
  0
LINE
  8
CSLAYER1
  6
CONTINUOUS
 62
     7
 10
532.188606
 20
694.933722
 11
543.188606
 21
694.933722
  0
LINE
  8
CSLAYER1
  6
CONTINUOUS
 62
     7
 10
583.188606
 20
775.136228
 11
583.188606
 21
721.783967
  0
LINE
  8
CSLAYER1
  6
CONTINUOUS
 62
     7
 10
543.188606
 20
801.989079
 11
543.188606
 21
770.006578
  0
LINE
  8
CSLAYER1
  6
CONTINUOUS
 62
     7
 10
544.376848
 20
801.275441
 11
580.762921
 21
779.422590
  0
LINE
  8
CSLAYER1
  6
CONTINUOUS
 62
     7
 10
544.376848
 20
769.292940
 11
580.762921
 21
747.440089
  0
LINE
  8
CSLAYER1
  6
CONTINUOUS
 62
     7
 10
543.188606
 20
694.890711
 11
580.766306
 21
717.499640
  0
LINE
  8
CSLAYER1
  6
CONTINUOUS
 62
     7
 10
531.188606
 20
726.916224
 11
531.188606
 21
581.264908
  0
LINE
  8
CSLAYER1
  6
CONTINUOUS
 62
     7
 10
537.188606
 20
672.502960
 11
537.188606
 21
572.178829
  0
LINE
  8
CSLAYER1
  6
CONTINUOUS
 62
     7
 10
539.188606
 20
562.962892
 11
539.188606
 21
510.991327
  0
LINE
  8
CSLAYER1
  6
CONTINUOUS
 62
     7
 10
477.188606
 20
754.573848
 11
481.895016
 21
754.450184
  0
LINE
  8
CSLAYER1
  6
CONTINUOUS
 62
     7
 10
481.895016
 20
754.450184
 11
486.565607
 21
754.080131
  0
LINE
  8
CSLAYER1
  6
CONTINUOUS
 62
     7
 10
486.565607
 20
754.080131
 11
491.164834
 21
753.466505
  0
LINE
  8
CSLAYER1
  6
CONTINUOUS
 62
     7
 10
491.164834
 20
753.466505
 11
495.657693
 21
752.613978
  0
LINE
  8
CSLAYER1
  6
CONTINUOUS
 62
     7
 10
495.657693
 20
752.613978
 11
500.009992
 21
751.529038
  0
LINE
  8
CSLAYER1
  6
CONTINUOUS
 62
     7
 10
500.009992
 20
751.529038
 11
504.188606
 21
750.219940
  0
LINE
  8
CSLAYER1
  6
CONTINUOUS
 62
     7
 10
504.188606
 20
750.219940
 11
508.161733
 21
748.696649
  0
LINE
  8
CSLAYER1
  6
CONTINUOUS
 62
     7
 10
508.161733
 20
748.696649
 11
511.899136
 21
746.970758
  0
LINE
  8
CSLAYER1
  6
CONTINUOUS
 62
     7
 10
511.899136
 20
746.970758
 11
515.372372
 21
745.055401
  0
LINE
  8
CSLAYER1
  6
CONTINUOUS
 62
     7
 10
515.372372
 20
745.055401
 11
518.555005
 21
742.965156
  0
LINE
  8
CSLAYER1
  6
CONTINUOUS
 62
     7
 10
518.555005
 20
742.965156
 11
521.422816
 21
740.715931
  0
LINE
  8
CSLAYER1
  6
CONTINUOUS
 62
     7
 10
521.422816
 20
740.715931
 11
523.953977
 21
738.324843
  0
LINE
  8
CSLAYER1
  6
CONTINUOUS
 62
     7
 10
523.953977
 20
738.324843
 11
526.129226
 21
735.810090
  0
LINE
  8
CSLAYER1
  6
CONTINUOUS
 62
     7
 10
526.129226
 20
735.810090
 11
527.932007
 21
733.190812
  0
LINE
  8
CSLAYER1
  6
CONTINUOUS
 62
     7
 10
527.932007
 20
733.190812
 11
529.348600
 21
730.486941
  0
LINE
  8
CSLAYER1
  6
CONTINUOUS
 62
     7
 10
529.348600
 20
730.486941
 11
530.368224
 21
727.719058
  0
LINE
  8
CSLAYER1
  6
CONTINUOUS
 62
     7
 10
530.368224
 20
727.719058
 11
530.983119
 21
724.908225
  0
LINE
  8
CSLAYER1
  6
CONTINUOUS
 62
     7
 10
530.983119
 20
724.908225
 11
531.188606
 21
722.075837
  0
LINE
  8
CSLAYER1
  6
CONTINUOUS
 62
     7
 10
531.188606
 20
722.075837
 11
530.983119
 21
719.243449
  0
LINE
  8
CSLAYER1
  6
CONTINUOUS
 62
     7
 10
477.188606
 20
708.611861
 11
482.417950
 21
708.474456
  0
LINE
  8
CSLAYER1
  6
CONTINUOUS
 62
     7
 10
482.417950
 20
708.474456
 11
487.607496
 21
708.063286
  0
LINE
  8
CSLAYER1
  6
CONTINUOUS
 62
     7
 10
487.607496
 20
708.063286
 11
492.717748
 21
707.381480
  0
LINE
  8
CSLAYER1
  6
CONTINUOUS
 62
     7
 10
492.717748
 20
707.381480
 11
497.709814
 21
706.434228
  0
LINE
  8
CSLAYER1
  6
CONTINUOUS
 62
     7
 10
497.709814
 20
706.434228
 11
502.545701
 21
705.228738
  0
LINE
  8
CSLAYER1
  6
CONTINUOUS
 62
     7
 10
502.545701
 20
705.228738
 11
507.188606
 21
703.774186
  0
LINE
  8
CSLAYER1
  6
CONTINUOUS
 62
     7
 10
507.188606
 20
703.774186
 11
511.603192
 21
702.081640
  0
LINE
  8
CSLAYER1
  6
CONTINUOUS
 62
     7
 10
511.603192
 20
702.081640
 11
515.755862
 21
700.163983
  0
LINE
  8
CSLAYER1
  6
CONTINUOUS
 62
     7
 10
515.755862
 20
700.163983
 11
519.615012
 21
698.035809
  0
LINE
  8
CSLAYER1
  6
CONTINUOUS
 62
     7
 10
519.615012
 20
698.035809
 11
523.151272
 21
695.713314
  0
LINE
  8
CSLAYER1
  6
CONTINUOUS
 62
     7
 10
523.151272
 20
695.713314
 11
526.337728
 21
693.214175
  0
LINE
  8
CSLAYER1
  6
CONTINUOUS
 62
     7
 10
526.337728
 20
693.214175
 11
529.150130
 21
690.557411
  0
LINE
  8
CSLAYER1
  6
CONTINUOUS
 62
     7
 10
529.150130
 20
690.557411
 11
531.567073
 21
687.763241
  0
LINE
  8
CSLAYER1
  6
CONTINUOUS
 62
     7
 10
531.567073
 20
687.763241
 11
533.570163
 21
684.852931
  0
LINE
  8
CSLAYER1
  6
CONTINUOUS
 62
     7
 10
533.570163
 20
684.852931
 11
535.144155
 21
681.848631
  0
LINE
  8
CSLAYER1
  6
CONTINUOUS
 62
     7
 10
535.144155
 20
681.848631
 11
536.277071
 21
678.773205
  0
LINE
  8
CSLAYER1
  6
CONTINUOUS
 62
     7
 10
536.277071
 20
678.773205
 11
536.960287
 21
675.650058
  0
LINE
  8
CSLAYER1
  6
CONTINUOUS
 62
     7
 10
536.960287
 20
675.650058
 11
537.188606
 21
672.502960
  0
LINE
  8
CSLAYER1
  6
CONTINUOUS
 62
     7
 10
537.188606
 20
672.502960
 11
536.960287
 21
669.355862
  0
LINE
  8
CSLAYER1
  6
CONTINUOUS
 62
     7
 10
477.188606
 20
600.275424
 11
482.592262
 21
600.133438
  0
LINE
  8
CSLAYER1
  6
CONTINUOUS
 62
     7
 10
482.592262
 20
600.133438
 11
487.954793
 21
599.708563
  0
LINE
  8
CSLAYER1
  6
CONTINUOUS
 62
     7
 10
487.954793
 20
599.708563
 11
493.235386
 21
599.004030
  0
LINE
  8
CSLAYER1
  6
CONTINUOUS
 62
     7
 10
493.235386
 20
599.004030
 11
498.393854
 21
598.025203
  0
LINE
  8
CSLAYER1
  6
CONTINUOUS
 62
     7
 10
498.393854
 20
598.025203
 11
503.390938
 21
596.779530
  0
LINE
  8
CSLAYER1
  6
CONTINUOUS
 62
     7
 10
503.390938
 20
596.779530
 11
508.188606
 21
595.276492
  0
LINE
  8
CSLAYER1
  6
CONTINUOUS
 62
     7
 10
508.188606
 20
595.276492
 11
512.750345
 21
593.527529
  0
LINE
  8
CSLAYER1
  6
CONTINUOUS
 62
     7
 10
512.750345
 20
593.527529
 11
517.041437
 21
591.545950
  0
LINE
  8
CSLAYER1
  6
CONTINUOUS
 62
     7
 10
517.041437
 20
591.545950
 11
521.029226
 21
589.346836
  0
LINE
  8
CSLAYER1
  6
CONTINUOUS
 62
     7
 10
521.029226
 20
589.346836
 11
524.683361
 21
586.946925
  0
LINE
  8
CSLAYER1
  6
CONTINUOUS
 62
     7
 10
524.683361
 20
586.946925
 11
527.976032
 21
584.364481
  0
LINE
  8
CSLAYER1
  6
CONTINUOUS
 62
     7
 10
527.976032
 20
584.364481
 11
530.882181
 21
581.619158
  0
LINE
  8
CSLAYER1
  6
CONTINUOUS
 62
     7
 10
530.882181
 20
581.619158
 11
533.379688
 21
578.731849
  0
LINE
  8
CSLAYER1
  6
CONTINUOUS
 62
     7
 10
533.379688
 20
578.731849
 11
535.449548
 21
575.724530
  0
LINE
  8
CSLAYER1
  6
CONTINUOUS
 62
     7
 10
535.449548
 20
575.724530
 11
537.076007
 21
572.620086
  0
LINE
  8
CSLAYER1
  6
CONTINUOUS
 62
     7
 10
537.076007
 20
572.620086
 11
538.246686
 21
569.442145
  0
LINE
  8
CSLAYER1
  6
CONTINUOUS
 62
     7
 10
538.246686
 20
569.442145
 11
538.952677
 21
566.214894
  0
LINE
  8
CSLAYER1
  6
CONTINUOUS
 62
     7
 10
538.952677
 20
566.214894
 11
539.188606
 21
562.962892
  0
LINE
  8
CSLAYER1
  6
CONTINUOUS
 62
     7
 10
477.188606
 20
548.303859
 11
482.592262
 21
548.161873
  0
LINE
  8
CSLAYER1
  6
CONTINUOUS
 62
     7
 10
482.592262
 20
548.161873
 11
487.954793
 21
547.736998
  0
LINE
  8
CSLAYER1
  6
CONTINUOUS
 62
     7
 10
487.954793
 20
547.736998
 11
493.235386
 21
547.032465
  0
LINE
  8
CSLAYER1
  6
CONTINUOUS
 62
     7
 10
493.235386
 20
547.032465
 11
498.393854
 21
546.053638
  0
LINE
  8
CSLAYER1
  6
CONTINUOUS
 62
     7
 10
498.393854
 20
546.053638
 11
503.390938
 21
544.807965
  0
LINE
  8
CSLAYER1
  6
CONTINUOUS
 62
     7
 10
503.390938
 20
544.807965
 11
508.188606
 21
543.304928
  0
LINE
  8
CSLAYER1
  6
CONTINUOUS
 62
     7
 10
508.188606
 20
543.304928
 11
512.750345
 21
541.555964
  0
LINE
  8
CSLAYER1
  6
CONTINUOUS
 62
     7
 10
512.750345
 20
541.555964
 11
517.041437
 21
539.574385
  0
LINE
  8
CSLAYER1
  6
CONTINUOUS
 62
     7
 10
517.041437
 20
539.574385
 11
521.029226
 21
537.375271
  0
LINE
  8
CSLAYER1
  6
CONTINUOUS
 62
     7
 10
521.029226
 20
537.375271
 11
524.683361
 21
534.975360
  0
LINE
  8
CSLAYER1
  6
CONTINUOUS
 62
     7
 10
524.683361
 20
534.975360
 11
527.976032
 21
532.392916
  0
LINE
  8
CSLAYER1
  6
CONTINUOUS
 62
     7
 10
527.976032
 20
532.392916
 11
530.882181
 21
529.647593
  0
LINE
  8
CSLAYER1
  6
CONTINUOUS
 62
     7
 10
530.882181
 20
529.647593
 11
533.379688
 21
526.760285
  0
LINE
  8
CSLAYER1
  6
CONTINUOUS
 62
     7
 10
533.379688
 20
526.760285
 11
535.449548
 21
523.752965
  0
LINE
  8
CSLAYER1
  6
CONTINUOUS
 62
     7
 10
535.449548
 20
523.752965
 11
537.076007
 21
520.648521
  0
LINE
  8
CSLAYER1
  6
CONTINUOUS
 62
     7
 10
537.076007
 20
520.648521
 11
538.246686
 21
517.470581
  0
LINE
  8
CSLAYER1
  6
CONTINUOUS
 62
     7
 10
538.246686
 20
517.470581
 11
538.952677
 21
514.243329
  0
LINE
  8
CSLAYER1
  6
CONTINUOUS
 62
     7
 10
538.952677
 20
514.243329
 11
539.188606
 21
510.991327
  0
LINE
  8
CSLAYER1
  6
CONTINUOUS
 62
     7
 10
539.188606
 20
510.991327
 11
538.952677
 21
507.739326
  0
LINE
  8
CSLAYER1
  6
CONTINUOUS
 62
     7
 10
538.952677
 20
507.739326
 11
538.246686
 21
504.512074
  0
LINE
  8
CSLAYER1
  6
CONTINUOUS
 62
     7
 10
538.246686
 20
504.512074
 11
537.076007
 21
501.334134
  0
LINE
  8
CSLAYER1
  6
CONTINUOUS
 62
     7
 10
537.076007
 20
501.334134
 11
535.449548
 21
498.229690
  0
LINE
  8
CSLAYER1
  6
CONTINUOUS
 62
     7
 10
535.449548
 20
498.229690
 11
533.379688
 21
495.222370
  0
LINE
  8
CSLAYER1
  6
CONTINUOUS
 62
     7
 10
533.379688
 20
495.222370
 11
530.882181
 21
492.335062
  0
LINE
  8
CSLAYER1
  6
CONTINUOUS
 62
     7
 10
530.882181
 20
492.335062
 11
527.976032
 21
489.589739
  0
LINE
  8
CSLAYER1
  6
CONTINUOUS
 62
     7
 10
527.976032
 20
489.589739
 11
524.683361
 21
487.007295
  0
LINE
  8
CSLAYER1
  6
CONTINUOUS
 62
     7
 10
524.683361
 20
487.007295
 11
521.029226
 21
484.607383
  0
LINE
  8
CSLAYER1
  6
CONTINUOUS
 62
     7
 10
521.029226
 20
484.607383
 11
517.041437
 21
482.408270
  0
LINE
  8
CSLAYER1
  6
CONTINUOUS
 62
     7
 10
517.041437
 20
482.408270
 11
512.750345
 21
480.426691
  0
LINE
  8
CSLAYER1
  6
CONTINUOUS
 62
     7
 10
512.750345
 20
480.426691
 11
508.188606
 21
478.677727
  0
LINE
  8
CSLAYER1
  6
CONTINUOUS
 62
     7
 10
508.188606
 20
478.677727
 11
503.390938
 21
477.174690
  0
LINE
  8
CSLAYER1
  6
CONTINUOUS
 62
     7
 10
503.390938
 20
477.174690
 11
498.393854
 21
475.929017
  0
LINE
  8
CSLAYER1
  6
CONTINUOUS
 62
     7
 10
498.393854
 20
475.929017
 11
493.235386
 21
474.950190
  0
LINE
  8
CSLAYER1
  6
CONTINUOUS
 62
     7
 10
493.235386
 20
474.950190
 11
487.954793
 21
474.245657
  0
LINE
  8
CSLAYER1
  6
CONTINUOUS
 62
     7
 10
487.954793
 20
474.245657
 11
482.592262
 21
473.820781
  0
LINE
  8
CSLAYER1
  6
CONTINUOUS
 62
     7
 10
482.592262
 20
473.820781
 11
477.188606
 21
473.678796
  0
LINE
  8
CSLAYER1
  6
CONTINUOUS
 62
     7
 10
532.188606
 20
760.186502
 11
532.188606
 21
686.860210
  0
LINE
  8
CSLAYER1
  6
CONTINUOUS
 62
     7
 10
527.188606
 20
765.186502
 11
427.188606
 21
765.186502
  0
LINE
  8
CSLAYER1
  6
CONTINUOUS
 62
     7
 10
527.188606
 20
756.853636
 11
427.188606
 21
756.853636
  0
ARC
  8
CSLAYER1
  6
CONTINUOUS
 62
     7
 10
527.188606
 20
760.186502
 40
5.000000
 50
0.000000
 51
90.000000
  0
ARC
  8
CSLAYER1
  6
CONTINUOUS
 62
     7
 10
527.188606
 20
751.853636
 40
5.000000
 50
0.000000
 51
90.000000
  0
ARC
  8
CSLAYER1
  6
CONTINUOUS
 62
     7
 10
541.802532
 20
796.989079
 40
5.000000
 50
59.011695
 51
90.000000
  0
ARC
  8
CSLAYER1
  6
CONTINUOUS
 62
     7
 10
541.802532
 20
765.006578
 40
5.000000
 50
59.011695
 51
90.000000
  0
ARC
  8
CSLAYER1
  6
CONTINUOUS
 62
     7
 10
578.188606
 20
775.136228
 40
5.000000
 50
0.000000
 51
59.011695
  0
ARC
  8
CSLAYER1
  6
CONTINUOUS
 62
     7
 10
578.188606
 20
743.153726
 40
5.000000
 50
0.000000
 51
59.011695
  0
ARC
  8
CSLAYER1
  6
CONTINUOUS
 62
     7
 10
578.188606
 20
721.783967
 40
5.000000
 50
301.033561
 51
360.000000
  0
LINE
  8
CSLAYER1
  6
CONTINUOUS
 62
     7
 10
561.188606
 20
727.053815
 11
561.051875
 21
727.994352
  0
LINE
  8
CSLAYER1
  6
CONTINUOUS
 62
     7
 10
561.051875
 20
727.994352
 11
560.645839
 21
728.906311
  0
LINE
  8
CSLAYER1
  6
CONTINUOUS
 62
     7
 10
560.645839
 20
728.906311
 11
559.982834
 21
729.761982
  0
LINE
  8
CSLAYER1
  6
CONTINUOUS
 62
     7
 10
559.982834
 20
729.761982
 11
559.083005
 21
730.535368
  0
LINE
  8
CSLAYER1
  6
CONTINUOUS
 62
     7
 10
559.083005
 20
730.535368
 11
557.973694
 21
731.202968
  0
LINE
  8
CSLAYER1
  6
CONTINUOUS
 62
     7
 10
557.973694
 20
731.202968
 11
556.688606
 21
731.744499
  0
LINE
  8
CSLAYER1
  6
CONTINUOUS
 62
     7
 10
556.688606
 20
731.744499
 11
555.266787
 21
732.143505
  0
LINE
  8
CSLAYER1
  6
CONTINUOUS
 62
     7
 10
555.266787
 20
732.143505
 11
553.751439
 21
732.387864
  0
LINE
  8
CSLAYER1
  6
CONTINUOUS
 62
     7
 10
553.751439
 20
732.387864
 11
552.188606
 21
732.470150
  0
LINE
  8
CSLAYER1
  6
CONTINUOUS
 62
     7
 10
552.188606
 20
732.470150
 11
550.625772
 21
732.387864
  0
LINE
  8
CSLAYER1
  6
CONTINUOUS
 62
     7
 10
550.625772
 20
732.387864
 11
549.110424
 21
732.143505
  0
LINE
  8
CSLAYER1
  6
CONTINUOUS
 62
     7
 10
549.110424
 20
732.143505
 11
547.688606
 21
731.744499
  0
LINE
  8
CSLAYER1
  6
CONTINUOUS
 62
     7
 10
547.688606
 20
731.744499
 11
546.403517
 21
731.202968
  0
LINE
  8
CSLAYER1
  6
CONTINUOUS
 62
     7
 10
546.403517
 20
731.202968
 11
545.294206
 21
730.535368
  0
LINE
  8
CSLAYER1
  6
CONTINUOUS
 62
     7
 10
545.294206
 20
730.535368
 11
544.394377
 21
729.761982
  0
LINE
  8
CSLAYER1
  6
CONTINUOUS
 62
     7
 10
544.394377
 20
729.761982
 11
543.731372
 21
728.906311
  0
LINE
  8
CSLAYER1
  6
CONTINUOUS
 62
     7
 10
543.731372
 20
728.906311
 11
543.325336
 21
727.994352
  0
LINE
  8
CSLAYER1
  6
CONTINUOUS
 62
     7
 10
543.325336
 20
727.994352
 11
543.188606
 21
727.053815
  0
LINE
  8
CSLAYER1
  6
CONTINUOUS
 62
     7
 10
543.188606
 20
727.053815
 11
543.325336
 21
726.113278
  0
LINE
  8
CSLAYER1
  6
CONTINUOUS
 62
     7
 10
543.325336
 20
726.113278
 11
543.731372
 21
725.201319
  0
LINE
  8
CSLAYER1
  6
CONTINUOUS
 62
     7
 10
543.731372
 20
725.201319
 11
544.394377
 21
724.345647
  0
LINE
  8
CSLAYER1
  6
CONTINUOUS
 62
     7
 10
544.394377
 20
724.345647
 11
545.294206
 21
723.572262
  0
LINE
  8
CSLAYER1
  6
CONTINUOUS
 62
     7
 10
545.294206
 20
723.572262
 11
546.403517
 21
722.904661
  0
LINE
  8
CSLAYER1
  6
CONTINUOUS
 62
     7
 10
546.403517
 20
722.904661
 11
547.688606
 21
722.363131
  0
LINE
  8
CSLAYER1
  6
CONTINUOUS
 62
     7
 10
547.688606
 20
722.363131
 11
549.110424
 21
721.964125
  0
LINE
  8
CSLAYER1
  6
CONTINUOUS
 62
     7
 10
549.110424
 20
721.964125
 11
550.625772
 21
721.719766
  0
LINE
  8
CSLAYER1
  6
CONTINUOUS
 62
     7
 10
550.625772
 20
721.719766
 11
552.188606
 21
721.637480
  0
LINE
  8
CSLAYER1
  6
CONTINUOUS
 62
     7
 10
552.188606
 20
721.637480
 11
553.751439
 21
721.719766
  0
LINE
  8
CSLAYER1
  6
CONTINUOUS
 62
     7
 10
553.751439
 20
721.719766
 11
555.266787
 21
721.964125
  0
LINE
  8
CSLAYER1
  6
CONTINUOUS
 62
     7
 10
555.266787
 20
721.964125
 11
556.688606
 21
722.363131
  0
LINE
  8
CSLAYER1
  6
CONTINUOUS
 62
     7
 10
556.688606
 20
722.363131
 11
557.973694
 21
722.904661
  0
LINE
  8
CSLAYER1
  6
CONTINUOUS
 62
     7
 10
557.973694
 20
722.904661
 11
559.083005
 21
723.572262
  0
LINE
  8
CSLAYER1
  6
CONTINUOUS
 62
     7
 10
559.083005
 20
723.572262
 11
559.982834
 21
724.345647
  0
LINE
  8
CSLAYER1
  6
CONTINUOUS
 62
     7
 10
559.982834
 20
724.345647
 11
560.645839
 21
725.201319
  0
LINE
  8
CSLAYER1
  6
CONTINUOUS
 62
     7
 10
560.645839
 20
725.201319
 11
561.051875
 21
726.113278
  0
LINE
  8
CSLAYER1
  6
CONTINUOUS
 62
     7
 10
561.051875
 20
726.113278
 11
561.188606
 21
727.053815
  0
LINE
  8
CSLAYER1
  6
CONTINUOUS
 62
     7
 10
561.188606
 20
732.470150
 11
561.051875
 21
733.410687
  0
LINE
  8
CSLAYER1
  6
CONTINUOUS
 62
     7
 10
561.051875
 20
733.410687
 11
560.645839
 21
734.322646
  0
LINE
  8
CSLAYER1
  6
CONTINUOUS
 62
     7
 10
560.645839
 20
734.322646
 11
559.982834
 21
735.178318
  0
LINE
  8
CSLAYER1
  6
CONTINUOUS
 62
     7
 10
559.982834
 20
735.178318
 11
559.083005
 21
735.951703
  0
LINE
  8
CSLAYER1
  6
CONTINUOUS
 62
     7
 10
559.083005
 20
735.951703
 11
557.973694
 21
736.619304
  0
LINE
  8
CSLAYER1
  6
CONTINUOUS
 62
     7
 10
557.973694
 20
736.619304
 11
556.688606
 21
737.160834
  0
LINE
  8
CSLAYER1
  6
CONTINUOUS
 62
     7
 10
556.688606
 20
737.160834
 11
555.266787
 21
737.559840
  0
LINE
  8
CSLAYER1
  6
CONTINUOUS
 62
     7
 10
555.266787
 20
737.559840
 11
553.751439
 21
737.804199
  0
LINE
  8
CSLAYER1
  6
CONTINUOUS
 62
     7
 10
553.751439
 20
737.804199
 11
552.188606
 21
737.886485
  0
LINE
  8
CSLAYER1
  6
CONTINUOUS
 62
     7
 10
552.188606
 20
737.886485
 11
550.625772
 21
737.804199
  0
LINE
  8
CSLAYER1
  6
CONTINUOUS
 62
     7
 10
550.625772
 20
737.804199
 11
549.110424
 21
737.559840
  0
LINE
  8
CSLAYER1
  6
CONTINUOUS
 62
     7
 10
549.110424
 20
737.559840
 11
547.688606
 21
737.160834
  0
LINE
  8
CSLAYER1
  6
CONTINUOUS
 62
     7
 10
547.688606
 20
737.160834
 11
546.403517
 21
736.619304
  0
LINE
  8
CSLAYER1
  6
CONTINUOUS
 62
     7
 10
546.403517
 20
736.619304
 11
545.294206
 21
735.951703
  0
LINE
  8
CSLAYER1
  6
CONTINUOUS
 62
     7
 10
545.294206
 20
735.951703
 11
544.394377
 21
735.178318
  0
LINE
  8
CSLAYER1
  6
CONTINUOUS
 62
     7
 10
544.394377
 20
735.178318
 11
543.731372
 21
734.322646
  0
LINE
  8
CSLAYER1
  6
CONTINUOUS
 62
     7
 10
543.731372
 20
734.322646
 11
543.325336
 21
733.410687
  0
LINE
  8
CSLAYER1
  6
CONTINUOUS
 62
     7
 10
543.325336
 20
733.410687
 11
543.188606
 21
732.470150
  0
LINE
  8
CSLAYER1
  6
CONTINUOUS
 62
     7
 10
561.188606
 20
732.470150
 11
561.188606
 21
726.581750
  0
LINE
  8
CSLAYER1
  6
CONTINUOUS
 62
     7
 10
543.188606
 20
732.470150
 11
543.188606
 21
726.581750
  0
LINE
  8
CSLAYER1
  6
CONTINUOUS
 62
     7
 10
543.059185
 20
628.649827
 11
558.618022
 21
628.649827
  0
LINE
  8
CSLAYER1
  6
CONTINUOUS
 62
     7
 10
550.688606
 20
619.964336
 11
550.688606
 21
637.788026
  0
LINE
  8
CSLAYER1
  6
CONTINUOUS
 62
     7
 10
541.154035
 20
558.649827
 11
559.188606
 21
558.649827
  0
LINE
  8
CSLAYER1
  6
CONTINUOUS
 62
     7
 10
541.154035
 20
640.149827
 11
559.188606
 21
640.149827
  0
LINE
  8
CSLAYER1
  6
CONTINUOUS
 62
     7
 10
562.188606
 20
637.149827
 11
562.188606
 21
543.748615
  0
LINE
  8
CSLAYER1
  6
CONTINUOUS
 62
     7
 10
541.154035
 20
540.748615
 11
541.154035
 21
640.149827
  0
LINE
  8
CSLAYER1
  6
CONTINUOUS
 62
     7
 10
537.188606
 20
574.159371
 11
541.154035
 21
574.159371
  0
CIRCLE
  8
CSLAYER1
  6
CONTINUOUS
 62
     7
 10
550.688606
 20
628.649827
 40
6.250000
  0
LINE
  8
CSLAYER1
  6
CONTINUOUS
 62
     7
 10
537.188606
 20
601.140283
 11
541.154035
 21
601.140283
  0
ARC
  8
CSLAYER1
  6
CONTINUOUS
 62
     7
 10
559.188606
 20
561.649827
 40
3.000000
 50
270.000000
 51
360.000000
  0
ARC
  8
CSLAYER1
  6
CONTINUOUS
 62
     7
 10
559.188606
 20
637.149827
 40
3.000000
 50
0.000000
 51
90.000000
  0
LINE
  8
CSLAYER1
  6
CONTINUOUS
 62
     7
 10
529.188606
 20
583.219011
 11
529.188606
 21
690.521064
  0
LINE
  8
CSLAYER1
  6
CONTINUOUS
 62
     7
 10
509.188606
 20
594.893094
 11
509.188606
 21
703.007389
  0
LINE
  8
CSLAYER1
  6
CONTINUOUS
 62
     7
 10
502.188606
 20
597.079247
 11
502.188606
 21
705.340611
  0
LINE
  8
CSLAYER1
  6
CONTINUOUS
 62
     7
 10
494.188606
 20
598.823155
 11
494.188606
 21
707.185240
  0
LINE
  8
CSLAYER1
  6
CONTINUOUS
 62
     7
 10
541.154035
 20
540.748615
 11
559.188606
 21
540.748615
  0
ARC
  8
CSLAYER1
  6
CONTINUOUS
 62
     7
 10
559.188606
 20
543.748615
 40
3.000000
 50
270.000000
 51
360.000000
  0
LINE
  8
CSLAYER1
  6
CONTINUOUS
 62
     7
 10
422.188606
 20
694.933722
 11
411.188606
 21
694.933722
  0
LINE
  8
CSLAYER1
  6
CONTINUOUS
 62
     7
 10
371.188606
 20
775.136228
 11
371.188606
 21
721.783967
  0
LINE
  8
CSLAYER1
  6
CONTINUOUS
 62
     7
 10
411.188606
 20
801.989079
 11
411.188606
 21
770.006578
  0
LINE
  8
CSLAYER1
  6
CONTINUOUS
 62
     7
 10
410.000363
 20
801.275441
 11
373.614290
 21
779.422590
  0
LINE
  8
CSLAYER1
  6
CONTINUOUS
 62
     7
 10
410.000363
 20
769.292940
 11
373.614290
 21
747.440089
  0
LINE
  8
CSLAYER1
  6
CONTINUOUS
 62
     7
 10
411.188606
 20
694.890711
 11
373.610905
 21
717.499640
  0
LINE
  8
CSLAYER1
  6
CONTINUOUS
 62
     7
 10
423.188606
 20
726.916224
 11
423.188606
 21
581.264908
  0
LINE
  8
CSLAYER1
  6
CONTINUOUS
 62
     7
 10
417.188606
 20
672.502960
 11
417.188606
 21
572.178829
  0
LINE
  8
CSLAYER1
  6
CONTINUOUS
 62
     7
 10
415.188606
 20
562.962892
 11
415.188606
 21
510.991327
  0
LINE
  8
CSLAYER1
  6
CONTINUOUS
 62
     7
 10
477.188606
 20
754.573848
 11
472.482195
 21
754.450184
  0
LINE
  8
CSLAYER1
  6
CONTINUOUS
 62
     7
 10
472.482195
 20
754.450184
 11
467.811604
 21
754.080131
  0
LINE
  8
CSLAYER1
  6
CONTINUOUS
 62
     7
 10
467.811604
 20
754.080131
 11
463.212377
 21
753.466505
  0
LINE
  8
CSLAYER1
  6
CONTINUOUS
 62
     7
 10
463.212377
 20
753.466505
 11
458.719518
 21
752.613978
  0
LINE
  8
CSLAYER1
  6
CONTINUOUS
 62
     7
 10
458.719518
 20
752.613978
 11
454.367219
 21
751.529038
  0
LINE
  8
CSLAYER1
  6
CONTINUOUS
 62
     7
 10
454.367219
 20
751.529038
 11
450.188606
 21
750.219940
  0
LINE
  8
CSLAYER1
  6
CONTINUOUS
 62
     7
 10
450.188606
 20
750.219940
 11
446.215478
 21
748.696649
  0
LINE
  8
CSLAYER1
  6
CONTINUOUS
 62
     7
 10
446.215478
 20
748.696649
 11
442.478075
 21
746.970758
  0
LINE
  8
CSLAYER1
  6
CONTINUOUS
 62
     7
 10
442.478075
 20
746.970758
 11
439.004839
 21
745.055401
  0
LINE
  8
CSLAYER1
  6
CONTINUOUS
 62
     7
 10
439.004839
 20
745.055401
 11
435.822206
 21
742.965156
  0
LINE
  8
CSLAYER1
  6
CONTINUOUS
 62
     7
 10
435.822206
 20
742.965156
 11
432.954395
 21
740.715931
  0
LINE
  8
CSLAYER1
  6
CONTINUOUS
 62
     7
 10
432.954395
 20
740.715931
 11
430.423234
 21
738.324843
  0
LINE
  8
CSLAYER1
  6
CONTINUOUS
 62
     7
 10
430.423234
 20
738.324843
 11
428.247985
 21
735.810090
  0
LINE
  8
CSLAYER1
  6
CONTINUOUS
 62
     7
 10
428.247985
 20
735.810090
 11
426.445204
 21
733.190812
  0
LINE
  8
CSLAYER1
  6
CONTINUOUS
 62
     7
 10
426.445204
 20
733.190812
 11
425.028611
 21
730.486941
  0
LINE
  8
CSLAYER1
  6
CONTINUOUS
 62
     7
 10
425.028611
 20
730.486941
 11
424.008987
 21
727.719058
  0
LINE
  8
CSLAYER1
  6
CONTINUOUS
 62
     7
 10
424.008987
 20
727.719058
 11
423.394092
 21
724.908225
  0
LINE
  8
CSLAYER1
  6
CONTINUOUS
 62
     7
 10
423.394092
 20
724.908225
 11
423.188606
 21
722.075837
  0
LINE
  8
CSLAYER1
  6
CONTINUOUS
 62
     7
 10
423.188606
 20
722.075837
 11
423.394092
 21
719.243449
  0
LINE
  8
CSLAYER1
  6
CONTINUOUS
 62
     7
 10
477.188606
 20
708.611861
 11
471.959261
 21
708.474456
  0
LINE
  8
CSLAYER1
  6
CONTINUOUS
 62
     7
 10
471.959261
 20
708.474456
 11
466.769715
 21
708.063286
  0
LINE
  8
CSLAYER1
  6
CONTINUOUS
 62
     7
 10
466.769715
 20
708.063286
 11
461.659463
 21
707.381480
  0
LINE
  8
CSLAYER1
  6
CONTINUOUS
 62
     7
 10
461.659463
 20
707.381480
 11
456.667397
 21
706.434228
  0
LINE
  8
CSLAYER1
  6
CONTINUOUS
 62
     7
 10
456.667397
 20
706.434228
 11
451.831510
 21
705.228738
  0
LINE
  8
CSLAYER1
  6
CONTINUOUS
 62
     7
 10
451.831510
 20
705.228738
 11
447.188606
 21
703.774186
  0
LINE
  8
CSLAYER1
  6
CONTINUOUS
 62
     7
 10
447.188606
 20
703.774186
 11
442.774019
 21
702.081640
  0
LINE
  8
CSLAYER1
  6
CONTINUOUS
 62
     7
 10
442.774019
 20
702.081640
 11
438.621349
 21
700.163983
  0
LINE
  8
CSLAYER1
  6
CONTINUOUS
 62
     7
 10
438.621349
 20
700.163983
 11
434.762199
 21
698.035809
  0
LINE
  8
CSLAYER1
  6
CONTINUOUS
 62
     7
 10
434.762199
 20
698.035809
 11
431.225939
 21
695.713314
  0
LINE
  8
CSLAYER1
  6
CONTINUOUS
 62
     7
 10
431.225939
 20
695.713314
 11
428.039483
 21
693.214175
  0
LINE
  8
CSLAYER1
  6
CONTINUOUS
 62
     7
 10
428.039483
 20
693.214175
 11
425.227081
 21
690.557411
  0
LINE
  8
CSLAYER1
  6
CONTINUOUS
 62
     7
 10
425.227081
 20
690.557411
 11
422.810138
 21
687.763241
  0
LINE
  8
CSLAYER1
  6
CONTINUOUS
 62
     7
 10
422.810138
 20
687.763241
 11
420.807048
 21
684.852931
  0
LINE
  8
CSLAYER1
  6
CONTINUOUS
 62
     7
 10
420.807048
 20
684.852931
 11
419.233056
 21
681.848631
  0
LINE
  8
CSLAYER1
  6
CONTINUOUS
 62
     7
 10
419.233056
 20
681.848631
 11
418.100140
 21
678.773205
  0
LINE
  8
CSLAYER1
  6
CONTINUOUS
 62
     7
 10
418.100140
 20
678.773205
 11
417.416924
 21
675.650058
  0
LINE
  8
CSLAYER1
  6
CONTINUOUS
 62
     7
 10
417.416924
 20
675.650058
 11
417.188606
 21
672.502960
  0
LINE
  8
CSLAYER1
  6
CONTINUOUS
 62
     7
 10
417.188606
 20
672.502960
 11
417.416924
 21
669.355862
  0
LINE
  8
CSLAYER1
  6
CONTINUOUS
 62
     7
 10
477.188606
 20
600.275424
 11
471.784949
 21
600.133438
  0
LINE
  8
CSLAYER1
  6
CONTINUOUS
 62
     7
 10
471.784949
 20
600.133438
 11
466.422418
 21
599.708563
  0
LINE
  8
CSLAYER1
  6
CONTINUOUS
 62
     7
 10
466.422418
 20
599.708563
 11
461.141825
 21
599.004030
  0
LINE
  8
CSLAYER1
  6
CONTINUOUS
 62
     7
 10
461.141825
 20
599.004030
 11
455.983357
 21
598.025203
  0
LINE
  8
CSLAYER1
  6
CONTINUOUS
 62
     7
 10
455.983357
 20
598.025203
 11
450.986273
 21
596.779530
  0
LINE
  8
CSLAYER1
  6
CONTINUOUS
 62
     7
 10
450.986273
 20
596.779530
 11
446.188606
 21
595.276492
  0
LINE
  8
CSLAYER1
  6
CONTINUOUS
 62
     7
 10
446.188606
 20
595.276492
 11
441.626866
 21
593.527529
  0
LINE
  8
CSLAYER1
  6
CONTINUOUS
 62
     7
 10
441.626866
 20
593.527529
 11
437.335774
 21
591.545950
  0
LINE
  8
CSLAYER1
  6
CONTINUOUS
 62
     7
 10
437.335774
 20
591.545950
 11
433.347985
 21
589.346836
  0
LINE
  8
CSLAYER1
  6
CONTINUOUS
 62
     7
 10
433.347985
 20
589.346836
 11
429.693850
 21
586.946925
  0
LINE
  8
CSLAYER1
  6
CONTINUOUS
 62
     7
 10
429.693850
 20
586.946925
 11
426.401179
 21
584.364481
  0
LINE
  8
CSLAYER1
  6
CONTINUOUS
 62
     7
 10
426.401179
 20
584.364481
 11
423.495030
 21
581.619158
  0
LINE
  8
CSLAYER1
  6
CONTINUOUS
 62
     7
 10
423.495030
 20
581.619158
 11
420.997523
 21
578.731849
  0
LINE
  8
CSLAYER1
  6
CONTINUOUS
 62
     7
 10
420.997523
 20
578.731849
 11
418.927663
 21
575.724530
  0
LINE
  8
CSLAYER1
  6
CONTINUOUS
 62
     7
 10
418.927663
 20
575.724530
 11
417.301204
 21
572.620086
  0
LINE
  8
CSLAYER1
  6
CONTINUOUS
 62
     7
 10
417.301204
 20
572.620086
 11
416.130525
 21
569.442145
  0
LINE
  8
CSLAYER1
  6
CONTINUOUS
 62
     7
 10
416.130525
 20
569.442145
 11
415.424534
 21
566.214894
  0
LINE
  8
CSLAYER1
  6
CONTINUOUS
 62
     7
 10
415.424534
 20
566.214894
 11
415.188606
 21
562.962892
  0
LINE
  8
CSLAYER1
  6
CONTINUOUS
 62
     7
 10
477.188606
 20
548.303859
 11
471.784949
 21
548.161873
  0
LINE
  8
CSLAYER1
  6
CONTINUOUS
 62
     7
 10
471.784949
 20
548.161873
 11
466.422418
 21
547.736998
  0
LINE
  8
CSLAYER1
  6
CONTINUOUS
 62
     7
 10
466.422418
 20
547.736998
 11
461.141825
 21
547.032465
  0
LINE
  8
CSLAYER1
  6
CONTINUOUS
 62
     7
 10
461.141825
 20
547.032465
 11
455.983357
 21
546.053638
  0
LINE
  8
CSLAYER1
  6
CONTINUOUS
 62
     7
 10
455.983357
 20
546.053638
 11
450.986273
 21
544.807965
  0
LINE
  8
CSLAYER1
  6
CONTINUOUS
 62
     7
 10
450.986273
 20
544.807965
 11
446.188606
 21
543.304928
  0
LINE
  8
CSLAYER1
  6
CONTINUOUS
 62
     7
 10
446.188606
 20
543.304928
 11
441.626866
 21
541.555964
  0
LINE
  8
CSLAYER1
  6
CONTINUOUS
 62
     7
 10
441.626866
 20
541.555964
 11
437.335774
 21
539.574385
  0
LINE
  8
CSLAYER1
  6
CONTINUOUS
 62
     7
 10
437.335774
 20
539.574385
 11
433.347985
 21
537.375271
  0
LINE
  8
CSLAYER1
  6
CONTINUOUS
 62
     7
 10
433.347985
 20
537.375271
 11
429.693850
 21
534.975360
  0
LINE
  8
CSLAYER1
  6
CONTINUOUS
 62
     7
 10
429.693850
 20
534.975360
 11
426.401179
 21
532.392916
  0
LINE
  8
CSLAYER1
  6
CONTINUOUS
 62
     7
 10
426.401179
 20
532.392916
 11
423.495030
 21
529.647593
  0
LINE
  8
CSLAYER1
  6
CONTINUOUS
 62
     7
 10
423.495030
 20
529.647593
 11
420.997523
 21
526.760285
  0
LINE
  8
CSLAYER1
  6
CONTINUOUS
 62
     7
 10
420.997523
 20
526.760285
 11
418.927663
 21
523.752965
  0
LINE
  8
CSLAYER1
  6
CONTINUOUS
 62
     7
 10
418.927663
 20
523.752965
 11
417.301204
 21
520.648521
  0
LINE
  8
CSLAYER1
  6
CONTINUOUS
 62
     7
 10
417.301204
 20
520.648521
 11
416.130525
 21
517.470581
  0
LINE
  8
CSLAYER1
  6
CONTINUOUS
 62
     7
 10
416.130525
 20
517.470581
 11
415.424534
 21
514.243329
  0
LINE
  8
CSLAYER1
  6
CONTINUOUS
 62
     7
 10
415.424534
 20
514.243329
 11
415.188606
 21
510.991327
  0
LINE
  8
CSLAYER1
  6
CONTINUOUS
 62
     7
 10
415.188606
 20
510.991327
 11
415.424534
 21
507.739326
  0
LINE
  8
CSLAYER1
  6
CONTINUOUS
 62
     7
 10
415.424534
 20
507.739326
 11
416.130525
 21
504.512074
  0
LINE
  8
CSLAYER1
  6
CONTINUOUS
 62
     7
 10
416.130525
 20
504.512074
 11
417.301204
 21
501.334134
  0
LINE
  8
CSLAYER1
  6
CONTINUOUS
 62
     7
 10
417.301204
 20
501.334134
 11
418.927663
 21
498.229690
  0
LINE
  8
CSLAYER1
  6
CONTINUOUS
 62
     7
 10
418.927663
 20
498.229690
 11
420.997523
 21
495.222370
  0
LINE
  8
CSLAYER1
  6
CONTINUOUS
 62
     7
 10
420.997523
 20
495.222370
 11
423.495030
 21
492.335062
  0
LINE
  8
CSLAYER1
  6
CONTINUOUS
 62
     7
 10
423.495030
 20
492.335062
 11
426.401179
 21
489.589739
  0
LINE
  8
CSLAYER1
  6
CONTINUOUS
 62
     7
 10
426.401179
 20
489.589739
 11
429.693850
 21
487.007295
  0
LINE
  8
CSLAYER1
  6
CONTINUOUS
 62
     7
 10
429.693850
 20
487.007295
 11
433.347985
 21
484.607383
  0
LINE
  8
CSLAYER1
  6
CONTINUOUS
 62
     7
 10
433.347985
 20
484.607383
 11
437.335774
 21
482.408270
  0
LINE
  8
CSLAYER1
  6
CONTINUOUS
 62
     7
 10
437.335774
 20
482.408270
 11
441.626866
 21
480.426691
  0
LINE
  8
CSLAYER1
  6
CONTINUOUS
 62
     7
 10
441.626866
 20
480.426691
 11
446.188606
 21
478.677727
  0
LINE
  8
CSLAYER1
  6
CONTINUOUS
 62
     7
 10
446.188606
 20
478.677727
 11
450.986273
 21
477.174690
  0
LINE
  8
CSLAYER1
  6
CONTINUOUS
 62
     7
 10
450.986273
 20
477.174690
 11
455.983357
 21
475.929017
  0
LINE
  8
CSLAYER1
  6
CONTINUOUS
 62
     7
 10
455.983357
 20
475.929017
 11
461.141825
 21
474.950190
  0
LINE
  8
CSLAYER1
  6
CONTINUOUS
 62
     7
 10
461.141825
 20
474.950190
 11
466.422418
 21
474.245657
  0
LINE
  8
CSLAYER1
  6
CONTINUOUS
 62
     7
 10
466.422418
 20
474.245657
 11
471.784949
 21
473.820781
  0
LINE
  8
CSLAYER1
  6
CONTINUOUS
 62
     7
 10
471.784949
 20
473.820781
 11
477.188606
 21
473.678796
  0
LINE
  8
CSLAYER1
  6
CONTINUOUS
 62
     7
 10
422.188606
 20
760.186502
 11
422.188606
 21
686.860210
  0
ARC
  8
CSLAYER1
  6
CONTINUOUS
 62
     7
 10
427.188606
 20
760.186502
 40
5.000000
 50
90.000000
 51
180.000000
  0
ARC
  8
CSLAYER1
  6
CONTINUOUS
 62
     7
 10
427.188606
 20
751.853636
 40
5.000000
 50
90.000000
 51
180.000000
  0
ARC
  8
CSLAYER1
  6
CONTINUOUS
 62
     7
 10
412.574679
 20
796.989079
 40
5.000000
 50
90.000000
 51
120.988305
  0
ARC
  8
CSLAYER1
  6
CONTINUOUS
 62
     7
 10
412.574679
 20
765.006578
 40
5.000000
 50
90.000000
 51
120.988305
  0
ARC
  8
CSLAYER1
  6
CONTINUOUS
 62
     7
 10
376.188606
 20
775.136228
 40
5.000000
 50
120.988305
 51
180.000000
  0
ARC
  8
CSLAYER1
  6
CONTINUOUS
 62
     7
 10
376.188606
 20
743.153726
 40
5.000000
 50
120.988305
 51
180.000000
  0
ARC
  8
CSLAYER1
  6
CONTINUOUS
 62
     7
 10
376.188606
 20
721.783967
 40
5.000000
 50
180.000000
 51
238.966439
  0
LINE
  8
CSLAYER1
  6
CONTINUOUS
 62
     7
 10
393.188606
 20
727.053815
 11
393.325336
 21
727.994352
  0
LINE
  8
CSLAYER1
  6
CONTINUOUS
 62
     7
 10
393.325336
 20
727.994352
 11
393.731372
 21
728.906311
  0
LINE
  8
CSLAYER1
  6
CONTINUOUS
 62
     7
 10
393.731372
 20
728.906311
 11
394.394377
 21
729.761982
  0
LINE
  8
CSLAYER1
  6
CONTINUOUS
 62
     7
 10
394.394377
 20
729.761982
 11
395.294206
 21
730.535368
  0
LINE
  8
CSLAYER1
  6
CONTINUOUS
 62
     7
 10
395.294206
 20
730.535368
 11
396.403517
 21
731.202968
  0
LINE
  8
CSLAYER1
  6
CONTINUOUS
 62
     7
 10
396.403517
 20
731.202968
 11
397.688606
 21
731.744499
  0
LINE
  8
CSLAYER1
  6
CONTINUOUS
 62
     7
 10
397.688606
 20
731.744499
 11
399.110424
 21
732.143505
  0
LINE
  8
CSLAYER1
  6
CONTINUOUS
 62
     7
 10
399.110424
 20
732.143505
 11
400.625772
 21
732.387864
  0
LINE
  8
CSLAYER1
  6
CONTINUOUS
 62
     7
 10
400.625772
 20
732.387864
 11
402.188606
 21
732.470150
  0
LINE
  8
CSLAYER1
  6
CONTINUOUS
 62
     7
 10
402.188606
 20
732.470150
 11
403.751439
 21
732.387864
  0
LINE
  8
CSLAYER1
  6
CONTINUOUS
 62
     7
 10
403.751439
 20
732.387864
 11
405.266787
 21
732.143505
  0
LINE
  8
CSLAYER1
  6
CONTINUOUS
 62
     7
 10
405.266787
 20
732.143505
 11
406.688606
 21
731.744499
  0
LINE
  8
CSLAYER1
  6
CONTINUOUS
 62
     7
 10
406.688606
 20
731.744499
 11
407.973694
 21
731.202968
  0
LINE
  8
CSLAYER1
  6
CONTINUOUS
 62
     7
 10
407.973694
 20
731.202968
 11
409.083005
 21
730.535368
  0
LINE
  8
CSLAYER1
  6
CONTINUOUS
 62
     7
 10
409.083005
 20
730.535368
 11
409.982834
 21
729.761982
  0
LINE
  8
CSLAYER1
  6
CONTINUOUS
 62
     7
 10
409.982834
 20
729.761982
 11
410.645839
 21
728.906311
  0
LINE
  8
CSLAYER1
  6
CONTINUOUS
 62
     7
 10
410.645839
 20
728.906311
 11
411.051875
 21
727.994352
  0
LINE
  8
CSLAYER1
  6
CONTINUOUS
 62
     7
 10
411.051875
 20
727.994352
 11
411.188606
 21
727.053815
  0
LINE
  8
CSLAYER1
  6
CONTINUOUS
 62
     7
 10
411.188606
 20
727.053815
 11
411.051875
 21
726.113278
  0
LINE
  8
CSLAYER1
  6
CONTINUOUS
 62
     7
 10
411.051875
 20
726.113278
 11
410.645839
 21
725.201319
  0
LINE
  8
CSLAYER1
  6
CONTINUOUS
 62
     7
 10
410.645839
 20
725.201319
 11
409.982834
 21
724.345647
  0
LINE
  8
CSLAYER1
  6
CONTINUOUS
 62
     7
 10
409.982834
 20
724.345647
 11
409.083005
 21
723.572262
  0
LINE
  8
CSLAYER1
  6
CONTINUOUS
 62
     7
 10
409.083005
 20
723.572262
 11
407.973694
 21
722.904661
  0
LINE
  8
CSLAYER1
  6
CONTINUOUS
 62
     7
 10
407.973694
 20
722.904661
 11
406.688606
 21
722.363131
  0
LINE
  8
CSLAYER1
  6
CONTINUOUS
 62
     7
 10
406.688606
 20
722.363131
 11
405.266787
 21
721.964125
  0
LINE
  8
CSLAYER1
  6
CONTINUOUS
 62
     7
 10
405.266787
 20
721.964125
 11
403.751439
 21
721.719766
  0
LINE
  8
CSLAYER1
  6
CONTINUOUS
 62
     7
 10
403.751439
 20
721.719766
 11
402.188606
 21
721.637480
  0
LINE
  8
CSLAYER1
  6
CONTINUOUS
 62
     7
 10
402.188606
 20
721.637480
 11
400.625772
 21
721.719766
  0
LINE
  8
CSLAYER1
  6
CONTINUOUS
 62
     7
 10
400.625772
 20
721.719766
 11
399.110424
 21
721.964125
  0
LINE
  8
CSLAYER1
  6
CONTINUOUS
 62
     7
 10
399.110424
 20
721.964125
 11
397.688606
 21
722.363131
  0
LINE
  8
CSLAYER1
  6
CONTINUOUS
 62
     7
 10
397.688606
 20
722.363131
 11
396.403517
 21
722.904661
  0
LINE
  8
CSLAYER1
  6
CONTINUOUS
 62
     7
 10
396.403517
 20
722.904661
 11
395.294206
 21
723.572262
  0
LINE
  8
CSLAYER1
  6
CONTINUOUS
 62
     7
 10
395.294206
 20
723.572262
 11
394.394377
 21
724.345647
  0
LINE
  8
CSLAYER1
  6
CONTINUOUS
 62
     7
 10
394.394377
 20
724.345647
 11
393.731372
 21
725.201319
  0
LINE
  8
CSLAYER1
  6
CONTINUOUS
 62
     7
 10
393.731372
 20
725.201319
 11
393.325336
 21
726.113278
  0
LINE
  8
CSLAYER1
  6
CONTINUOUS
 62
     7
 10
393.325336
 20
726.113278
 11
393.188606
 21
727.053815
  0
LINE
  8
CSLAYER1
  6
CONTINUOUS
 62
     7
 10
393.188606
 20
732.470150
 11
393.325336
 21
733.410687
  0
LINE
  8
CSLAYER1
  6
CONTINUOUS
 62
     7
 10
393.325336
 20
733.410687
 11
393.731372
 21
734.322646
  0
LINE
  8
CSLAYER1
  6
CONTINUOUS
 62
     7
 10
393.731372
 20
734.322646
 11
394.394377
 21
735.178318
  0
LINE
  8
CSLAYER1
  6
CONTINUOUS
 62
     7
 10
394.394377
 20
735.178318
 11
395.294206
 21
735.951703
  0
LINE
  8
CSLAYER1
  6
CONTINUOUS
 62
     7
 10
395.294206
 20
735.951703
 11
396.403517
 21
736.619304
  0
LINE
  8
CSLAYER1
  6
CONTINUOUS
 62
     7
 10
396.403517
 20
736.619304
 11
397.688606
 21
737.160834
  0
LINE
  8
CSLAYER1
  6
CONTINUOUS
 62
     7
 10
397.688606
 20
737.160834
 11
399.110424
 21
737.559840
  0
LINE
  8
CSLAYER1
  6
CONTINUOUS
 62
     7
 10
399.110424
 20
737.559840
 11
400.625772
 21
737.804199
  0
LINE
  8
CSLAYER1
  6
CONTINUOUS
 62
     7
 10
400.625772
 20
737.804199
 11
402.188606
 21
737.886485
  0
LINE
  8
CSLAYER1
  6
CONTINUOUS
 62
     7
 10
402.188606
 20
737.886485
 11
403.751439
 21
737.804199
  0
LINE
  8
CSLAYER1
  6
CONTINUOUS
 62
     7
 10
403.751439
 20
737.804199
 11
405.266787
 21
737.559840
  0
LINE
  8
CSLAYER1
  6
CONTINUOUS
 62
     7
 10
405.266787
 20
737.559840
 11
406.688606
 21
737.160834
  0
LINE
  8
CSLAYER1
  6
CONTINUOUS
 62
     7
 10
406.688606
 20
737.160834
 11
407.973694
 21
736.619304
  0
LINE
  8
CSLAYER1
  6
CONTINUOUS
 62
     7
 10
407.973694
 20
736.619304
 11
409.083005
 21
735.951703
  0
LINE
  8
CSLAYER1
  6
CONTINUOUS
 62
     7
 10
409.083005
 20
735.951703
 11
409.982834
 21
735.178318
  0
LINE
  8
CSLAYER1
  6
CONTINUOUS
 62
     7
 10
409.982834
 20
735.178318
 11
410.645839
 21
734.322646
  0
LINE
  8
CSLAYER1
  6
CONTINUOUS
 62
     7
 10
410.645839
 20
734.322646
 11
411.051875
 21
733.410687
  0
LINE
  8
CSLAYER1
  6
CONTINUOUS
 62
     7
 10
411.051875
 20
733.410687
 11
411.188606
 21
732.470150
  0
LINE
  8
CSLAYER1
  6
CONTINUOUS
 62
     7
 10
393.188606
 20
732.470150
 11
393.188606
 21
726.581750
  0
LINE
  8
CSLAYER1
  6
CONTINUOUS
 62
     7
 10
411.188606
 20
732.470150
 11
411.188606
 21
726.581750
  0
LINE
  8
CSLAYER1
  6
CONTINUOUS
 62
     7
 10
425.188606
 20
583.219011
 11
425.188606
 21
690.521064
  0
LINE
  8
CSLAYER1
  6
CONTINUOUS
 62
     7
 10
445.188606
 20
594.893094
 11
445.188606
 21
703.007389
  0
LINE
  8
CSLAYER1
  6
CONTINUOUS
 62
     7
 10
452.188606
 20
597.079247
 11
452.188606
 21
705.340611
  0
LINE
  8
CSLAYER1
  6
CONTINUOUS
 62
     7
 10
460.188606
 20
598.823155
 11
460.188606
 21
707.185240
  0
LINE
  8
CSLAYER1
  6
CONTINUOUS
 62
     3
 10
1016.535375
 20
2237.273526
 11
2216.537079
 21
2237.273526
  0
LINE
  8
CSLAYER1
  6
CONTINUOUS
 62
     3
 10
1022.535375
 20
1587.273526
 11
2216.537079
 21
1587.273526
  0
LINE
  8
CSLAYER1
  6
CONTINUOUS
 62
     5
 10
907.940271
 20
1587.273526
 11
907.940271
 21
2237.273526
  0
LINE
  8
CSLAYER1
  6
CONTINUOUS
 62
     5
 10
907.940271
 20
1587.273526
 11
900.175700
 21
1616.251301
  0
LINE
  8
CSLAYER1
  6
CONTINUOUS
 62
     5
 10
907.940271
 20
1587.273526
 11
915.704842
 21
1616.251301
  0
LINE
  8
CSLAYER1
  6
CONTINUOUS
 62
     5
 10
907.940271
 20
2237.273526
 11
900.175700
 21
2208.295751
  0
LINE
  8
CSLAYER1
  6
CONTINUOUS
 62
     5
 10
907.940271
 20
2237.273526
 11
915.704842
 21
2208.295751
  0
TEXT
  8
CSLAYER1
 62
     7
 10
897.940308
 20
1867.273438
 40
40.000000
 41
0.843750
  1
650
 50
90.000000
 51
0.000000
  7
EASYDRAW_FONT
 72
     5
 11
897.940308
 21
1957.273438
  0
LINE
  8
CSLAYER1
  6
CONTINUOUS
 62
     5
 10
1006.535375
 20
2237.273526
 11
897.940271
 21
2237.273526
  0
LINE
  8
CSLAYER1
  6
CONTINUOUS
 62
     5
 10
1006.535375
 20
1587.273526
 11
897.940271
 21
1587.273526
  0
LINE
  8
CSLAYER1
  6
CONTINUOUS
 62
     4
 10
152.188606
 20
1375.303443
 11
152.188606
 21
1322.303443
  0
LINE
  8
CSLAYER1
  6
CONTINUOUS
 62
     4
 10
802.188606
 20
1375.303443
 11
802.188606
 21
1322.303443
  0
TEXT
  8
CSLAYER1
 62
     4
 10
2689.924316
 20
1254.814453
 40
40.000000
 41
1.036364
  1
操作方式
 50
0.000000
 51
0.000000
  7
EASYDRAW_FONT
 72
     5
 11
2841.924316
 21
1254.814453
  0
TEXT
  8
CSLAYER1
 62
     4
 10
2971.565918
 20
1249.520996
 40
40.000000
 41
1.020000
  1
フットスイッチ
 50
0.000000
 51
0.000000
  7
EASYDRAW_FONT
 72
     5
 11
3243.565918
 21
1249.520996
  0
LINE
  8
CSLAYER1
  6
CONTINUOUS
 62
     5
 10
3401.054596
 20
1242.788246
 11
2680.182078
 21
1242.788246
  0
LINE
  8
CSLAYER1
  6
CONTINUOUS
 62
     5
 10
3401.054596
 20
1178.788248
 11
2680.182078
 21
1178.788248
  0
TEXT
  8
CSLAYER1
 62
     4
 10
2691.355469
 20
1188.741455
 40
40.000000
 41
0.872727
  1
モーター
 50
0.000000
 51
0.000000
  7
EASYDRAW_FONT
 72
     5
 11
2819.355469
 21
1188.741455
  0
LINE
  8
CSLAYER1
  6
CONTINUOUS
 62
     5
 10
3401.054596
 20
1114.788250
 11
2680.182078
 21
1114.788250
  0
LINE
  8
CSLAYER1
  6
CONTINUOUS
 62
     5
 10
3401.054596
 20
986.788253
 11
2678.043576
 21
986.788253
  0
LINE
  8
CSLAYER1
  6
CONTINUOUS
 62
     5
 10
3401.054596
 20
922.788255
 11
2680.182078
 21
922.788255
  0
LINE
  8
CSLAYER1
  6
CONTINUOUS
 62
     5
 10
3401.054596
 20
858.788256
 11
2680.182078
 21
858.788256
  0
TEXT
  8
CSLAYER1
 62
     4
 10
2693.937012
 20
869.910156
 40
40.000000
 41
0.857143
  1
自  　重
 50
0.000000
 51
0.000000
  7
EASYDRAW_FONT
 72
     5
 11
2853.937012
 21
869.910156
  0
TEXT
  8
CSLAYER1
 62
     4
 10
2696.886230
 20
805.838867
 40
40.000000
 41
0.847059
  1
塗　装　色 
 50
0.000000
 51
0.000000
  7
EASYDRAW_FONT
 72
     5
 11
2888.886230
 21
805.838867
  0
TEXT
  8
CSLAYER1
 62
     4
 10
2922.461914
 20
1189.658447
 40
40.000000
 41
0.819512
  1
３相ＡＣ２００Ｖ、0.4ＫＷ
 50
0.000000
 51
0.000000
  7
EASYDRAW_FONT
 72
     5
 11
3370.461914
 21
1189.658447
  0
TEXT
  8
CSLAYER1
 62
     4
 10
3053.445313
 20
1125.814941
 40
40.000000
 41
0.840000
  1
長サ  ４ ｍ
 50
0.000000
 51
0.000000
  7
EASYDRAW_FONT
 72
     5
 11
3277.445313
 21
1125.814941
  0
TEXT
  8
CSLAYER1
 62
     3
 10
3166.084961
 20
871.809326
 40
40.000000
 41
0.847059
  1
１５９　Ｋｇ
 50
0.000000
 51
0.000000
  7
EASYDRAW_FONT
 72
     5
 11
3358.084961
 21
871.809326
  0
LINE
  8
CSLAYER1
  6
CONTINUOUS
 62
     5
 10
3401.054596
 20
1050.788251
 11
2680.182078
 21
1050.788251
  0
TEXT
  8
CSLAYER1
 62
     4
 10
2692.271729
 20
1125.424316
 40
40.000000
 41
0.942857
  1
電源コード
 50
0.000000
 51
0.000000
  7
EASYDRAW_FONT
 72
     5
 11
2868.271729
 21
1125.424316
  0
TEXT
  8
CSLAYER1
 62
     4
 10
2692.700699
 20
1056.302866
 40
47.730206
 41
0.593339
  1
昇降時間 ２２秒（50HZ） １８秒(60HZ)
 50
0.000000
 51
0.000000
  7
EASYDRAW_FONT
 72
     5
 11
3362.945785
 21
1056.302866
  0
TEXT
  8
CSLAYER1
 62
     4
 10
2694.001465
 20
930.859619
 40
40.000000
 41
0.912766
  1
上昇端、下降端リミットスイッチ付
 50
0.000000
 51
0.000000
  7
EASYDRAW_FONT
 72
     5
 11
3266.001465
 21
930.859619
  0
TEXT
  8
CSLAYER1
 62
     4
 10
2695.848200
 20
995.523243
 40
45.879784
 41
0.605080
  1
最大使用頻度８０回／時間・最大起動頻度１０回／分
 50
0.000000
 51
0.000000
  7
EASYDRAW_FONT
 72
     5
 11
3352.856879
 21
995.523243
  0
LINE
  8
CSLAYER1
  6
CONTINUOUS
 62
     5
 10
3401.054596
 20
1300.120251
 11
2680.182078
 21
1300.120251
  0
TEXT
  8
CSLAYER1
 62
     4
 10
2890.010742
 20
1311.854004
 40
40.000000
 41
0.825000
  1
マグネットスイッチ制御
 50
0.000000
 51
0.000000
  7
EASYDRAW_FONT
 72
     5
 11
3242.010742
 21
1311.854004
  0
TEXT
  8
CSLAYER1
 62
     4
 10
2693.623535
 20
1309.864746
 40
40.000000
 41
0.872727
  1
制御方式
 50
0.000000
 51
0.000000
  7
EASYDRAW_FONT
 72
     5
 11
2821.623535
 21
1309.864746
  0
LINE
  8
CSLAYER1
  6
CONTINUOUS
 62
     5
 10
3401.054596
 20
794.788258
 11
2680.182078
 21
794.788258
  0
TEXT
  8
CSLAYER1
 62
     4
 10
3005.484131
 20
805.459473
 40
40.000000
 41
0.926087
  1
　１０Ｒ４／１３
 50
0.000000
 51
0.000000
  7
EASYDRAW_FONT
 72
     5
 11
3289.484131
 21
805.459473
  0
TEXT
  8
CSLAYER1
 62
     3
 10
2689.924316
 20
1824.146484
 40
40.000000
 41
1.036364
  1
積載荷重
 50
0.000000
 51
0.000000
  7
EASYDRAW_FONT
 72
     5
 11
2841.924316
 21
1824.146484
  0
LINE
  8
CSLAYER1
  6
CONTINUOUS
 62
     5
 10
2680.370991
 20
2308.863947
 11
2588.398696
 21
2112.686368
  0
LINE
  8
CSLAYER1
  6
CONTINUOUS
 62
     5
 10
2588.398696
 20
2112.686368
 11
2593.669080
 21
2142.219790
  0
LINE
  8
CSLAYER1
  6
CONTINUOUS
 62
     5
 10
2588.398696
 20
2112.686368
 11
2607.729694
 21
2135.627870
  0
LINE
  8
CSLAYER1
  6
CONTINUOUS
 62
     5
 10
2697.274502
 20
2186.148951
 11
2605.122120
 21
1984.573526
  0
LINE
  8
CSLAYER1
  6
CONTINUOUS
 62
     5
 10
2605.122120
 20
1984.573526
 11
2610.108673
 21
2014.156195
  0
LINE
  8
CSLAYER1
  6
CONTINUOUS
 62
     5
 10
2605.122120
 20
1984.573526
 11
2624.231936
 21
2007.699593
  0
TEXT
  8
CSLAYER1
 62
     5
 10
2718.723877
 20
2071.879395
 40
40.000000
 41
1.020000
  1
コード長サ２ｍ
 50
360.000000
 51
0.000000
  7
EASYDRAW_FONT
 72
     5
 11
2990.723877
 21
2071.879395
  0
INSERT
  8
CSLAYER1
  2
BLKF0005
 10
0.0
 20
0.0
 30
0.0
  0
ENDSEC
  0
EOF
